  0
SECTION
  2
HEADER
  9
$ACADVER
  1
AC1009
  9
$INSBASE
 10
0.0
 20
0.0
 30
0.0
  9
$EXTMIN
 10
-26.650000000000091
 20
-109.860684729797
 30
0.0
  9
$EXTMAX
 10
75.437553224982864
 20
13.043040350133991
 30
0.0000000195376815
  9
$LIMMIN
 10
0.0
 20
0.0
  9
$LIMMAX
 10
790.0
 20
790.0
  9
$ORTHOMODE
 70
     1
  9
$REGENMODE
 70
     1
  9
$FILLMODE
 70
     1
  9
$QTEXTMODE
 70
     0
  9
$MIRRTEXT
 70
     1
  9
$DRAGMODE
 70
     2
  9
$LTSCALE
 40
4.0
  9
$OSMODE
 70
    37
  9
$ATTMODE
 70
     1
  9
$TEXTSIZE
 40
3.5
  9
$TRACEWID
 40
0.05
  9
$TEXTSTYLE
  7
ISO
  9
$CLAYER
  8
0
  9
$CELTYPE
  6
BYLAYER
  9
$CECOLOR
 62
   256
  9
$DIMSCALE
 40
0.0
  9
$DIMASZ
 40
3.0
  9
$DIMEXO
 40
1.5
  9
$DIMDLI
 40
10.0
  9
$DIMRND
 40
0.0
  9
$DIMDLE
 40
0.0
  9
$DIMEXE
 40
1.5
  9
$DIMTP
 40
0.0
  9
$DIMTM
 40
0.0
  9
$DIMTXT
 40
3.0
  9
$DIMCEN
 40
-5.0
  9
$DIMTSZ
 40
0.0
  9
$DIMTOL
 70
     0
  9
$DIMLIM
 70
     0
  9
$DIMTIH
 70
     0
  9
$DIMTOH
 70
     0
  9
$DIMSE1
 70
     0
  9
$DIMSE2
 70
     0
  9
$DIMTAD
 70
     1
  9
$DIMZIN
 70
     8
  9
$DIMBLK
  1

  9
$DIMASO
 70
     1
  9
$DIMSHO
 70
     1
  9
$DIMPOST
  1

  9
$DIMAPOST
  1

  9
$DIMALT
 70
     0
  9
$DIMALTD
 70
     0
  9
$DIMALTF
 40
25.399999999999999
  9
$DIMLFAC
 40
-1.0
  9
$DIMTOFL
 70
     1
  9
$DIMTVP
 40
0.0
  9
$DIMTIX
 70
     0
  9
$DIMSOXD
 70
     0
  9
$DIMSAH
 70
     0
  9
$DIMBLK1
  1

  9
$DIMBLK2
  1

  9
$DIMSTYLE
  2
MASKIN
  9
$DIMCLRD
 70
   256
  9
$DIMCLRE
 70
   256
  9
$DIMCLRT
 70
     2
  9
$DIMTFAC
 40
1.0
  9
$DIMGAP
 40
1.0
  9
$LUNITS
 70
     2
  9
$LUPREC
 70
     8
  9
$SKETCHINC
 40
0.1
  9
$FILLETRAD
 40
0.0
  9
$AUNITS
 70
     0
  9
$AUPREC
 70
     8
  9
$MENU
  1
ACAD
  9
$ELEVATION
 40
0.0
  9
$PELEVATION
 40
0.0
  9
$THICKNESS
 40
0.0
  9
$LIMCHECK
 70
     0
  9
$BLIPMODE
 70
     0
  9
$CHAMFERA
 40
0.0
  9
$CHAMFERB
 40
0.0
  9
$SKPOLY
 70
     0
  9
$TDCREATE
 40
2454967.3485181709
  9
$TDUPDATE
 40
2455462.3755336688
  9
$TDINDWG
 40
0.0120653819
  9
$TDUSRTIMER
 40
0.0120653819
  9
$USRTIMER
 70
     1
  9
$ANGBASE
 50
0.0
  9
$ANGDIR
 70
     0
  9
$PDMODE
 70
     0
  9
$PDSIZE
 40
0.0
  9
$PLINEWID
 40
0.0
  9
$COORDS
 70
     1
  9
$SPLFRAME
 70
     0
  9
$SPLINETYPE
 70
     6
  9
$SPLINESEGS
 70
     8
  9
$ATTDIA
 70
     0
  9
$ATTREQ
 70
     1
  9
$HANDLING
 70
     1
  9
$HANDSEED
  5
14D9
  9
$SURFTAB1
 70
     6
  9
$SURFTAB2
 70
     6
  9
$SURFTYPE
 70
     6
  9
$SURFU
 70
     6
  9
$SURFV
 70
     6
  9
$UCSNAME
  2

  9
$UCSORG
 10
0.0
 20
0.0
 30
0.0
  9
$UCSXDIR
 10
1.0
 20
0.0
 30
0.0
  9
$UCSYDIR
 10
0.0
 20
1.0
 30
0.0
  9
$PUCSNAME
  2

  9
$PUCSORG
 10
0.0
 20
0.0
 30
0.0
  9
$PUCSXDIR
 10
1.0
 20
0.0
 30
0.0
  9
$PUCSYDIR
 10
0.0
 20
1.0
 30
0.0
  9
$USERI1
 70
     0
  9
$USERI2
 70
     0
  9
$USERI3
 70
     0
  9
$USERI4
 70
     0
  9
$USERI5
 70
     0
  9
$USERR1
 40
0.0
  9
$USERR2
 40
0.0
  9
$USERR3
 40
0.0
  9
$USERR4
 40
0.0
  9
$USERR5
 40
0.0
  9
$WORLDVIEW
 70
     1
  9
$SHADEDGE
 70
     3
  9
$SHADEDIF
 70
    70
  9
$TILEMODE
 70
     1
  9
$MAXACTVP
 70
    16
  9
$PLIMCHECK
 70
     0
  9
$PEXTMIN
 10
1.0000000000000000E+020
 20
1.0000000000000000E+020
 30
1.0000000000000000E+020
  9
$PEXTMAX
 10
-1.0000000000000000E+020
 20
-1.0000000000000000E+020
 30
-1.0000000000000000E+020
  9
$PLIMMIN
 10
-5.069427490234375
 20
-5.8737497329711914
  9
$PLIMMAX
 10
291.89889526367187
 20
204.0995779037475
  9
$UNITMODE
 70
     0
  9
$VISRETAIN
 70
     1
  9
$PLINEGEN
 70
     0
  9
$PSLTSCALE
 70
     1
  0
ENDSEC
  0
SECTION
  2
TABLES
  0
TABLE
  2
VPORT
 70
     1
  0
VPORT
  2
*ACTIVE
 70
     0
 10
0.0
 20
0.0
 11
1.0
 21
1.0
 12
76.460875432012486
 22
-26.53591155917541
 13
0.0
 23
0.0
 14
1.0
 24
1.0
 15
0.0
 25
0.0
 16
0.0
 26
0.0
 36
1.0
 17
0.0
 27
0.0
 37
0.0
 40
167.60796895118139
 41
2.2448979591836729
 42
50.0
 43
0.0
 44
0.0
 50
0.0
 51
0.0
 71
     0
 72
   100
 73
     1
 74
     1
 75
     0
 76
     0
 77
     0
 78
     0
  0
ENDTAB
  0
TABLE
  2
LTYPE
 70
    11
  0
LTYPE
  2
CONTINUOUS
 70
     0
  3
Solid line
 72
    65
 73
     0
 40
0.0
  0
LTYPE
  2
BYGG-014880$0$NEWDOT
 70
     0
  3
____ . ____ . ____ . ____ . ____ . ____ . ____
 72
    65
 73
     4
 40
2.0
 49
1.0
 49
-0.5
 49
0.0
 49
-0.5
  0
LTYPE
  2
BYGG-014878$0$NEWDOT
 70
     0
  3
____ . ____ . ____ . ____ . ____ . ____ . ____
 72
    65
 73
     4
 40
2.0
 49
1.0
 49
-0.5
 49
0.0
 49
-0.5
  0
LTYPE
  2
BYGG-014203$0$ZIGZAG
 70
     0
  3
Zig zag /\/\/\/\/\/\/\/\/\/\/\/\/\/\/\/\/\/\/\/\/\/\/\/
 72
    65
 73
     4
 40
20.32254
 49
0.00254
 49
-5.0800000000000001
 49
-10.16
 49
-5.0800000000000001
  0
LTYPE
  2
BYGG-014203$0$NEWDOT
 70
     0
  3
____ . ____ . ____ . ____ . ____ . ____ . ____
 72
    65
 73
     4
 40
2.0
 49
1.0
 49
-0.5
 49
0.0
 49
-0.5
  0
LTYPE
  2
BYGG-014880$0$ZIGZAG
 70
     0
  3
Zig zag /\/\/\/\/\/\/\/\/\/\/\/\/\/\/\/\/\/\/\/\/\/\/\/
 72
    65
 73
     4
 40
20.32254
 49
0.00254
 49
-5.0800000000000001
 49
-10.16
 49
-5.0800000000000001
  0
LTYPE
  2
BYGG-014878$0$ZIGZAG
 70
     0
  3
Zig zag /\/\/\/\/\/\/\/\/\/\/\/\/\/\/\/\/\/\/\/\/\/\/\/
 72
    65
 73
     4
 40
20.32254
 49
0.00254
 49
-5.0800000000000001
 49
-10.16
 49
-5.0800000000000001
  0
LTYPE
  2
BYGG-015740$0$NEWDOT
 70
     0
  3
____ . ____ . ____ . ____ . ____ . ____ . ____
 72
    65
 73
     4
 40
2.0
 49
1.0
 49
-0.5
 49
0.0
 49
-0.5
  0
LTYPE
  2
BYGG-015740$0$DASHDOT
 70
     0
  3
__ . __ . __ . __ . __ . __ . __ . __ . __ . __
 72
    65
 73
     4
 40
1.0
 49
0.5
 49
-0.25
 49
0.0
 49
-0.25
  0
LTYPE
  2
BYGG-015740$0$DASHED
 70
     0
  3
__ __ __ __ __ __ __ __ __ __ __ __ __ __ __
 72
    65
 73
     2
 40
0.75
 49
0.5
 49
-0.25
  0
LTYPE
  2
BYGG-015740$0$PHANTOM
 70
     0
  3
Phantom ______  __  __  ______  __  __  ______
 72
    65
 73
     6
 40
63.5
 49
31.75
 49
-6.3499999999999988
 49
6.3499999999999988
 49
-6.3499999999999988
 49
6.3499999999999988
 49
-6.3499999999999988
  0
ENDTAB
  0
TABLE
  2
LAYER
 70
    39
  0
LAYER
  2
0
 70
     0
 62
     7
  6
CONTINUOUS
  0
LAYER
  2
DEFPOINTS
 70
     0
 62
     7
  6
CONTINUOUS
  0
LAYER
  2
SAPA_MATT
 70
     0
 62
     1
  6
CONTINUOUS
  0
LAYER
  2
SAPA_ANSLUTNING
 70
     0
 62
     6
  6
CONTINUOUS
  0
LAYER
  2
SAPA_ARTIKELNR
 70
     0
 62
     4
  6
CONTINUOUS
  0
LAYER
  2
SAPA_LIGHT
 70
     1
 62
     1
  6
CONTINUOUS
  0
LAYER
  2
SAPA_GLAS
 70
     0
 62
     4
  6
CONTINUOUS
  0
LAYER
  2
SAPA_FOGBAND
 70
     0
 62
     2
  6
CONTINUOUS
  0
LAYER
  2
SAPA_PROFIL
 70
     0
 62
     7
  6
CONTINUOUS
  0
ENDTAB
  0
TABLE
  2
STYLE
 70
    15
  0
STYLE
  2
STANDARD
 70
     0
 40
0.0
 41
1.0
 50
0.0
 71
     0
 42
0.2
  3
txt
  4

  0
STYLE
  2
ISO
 70
     0
 40
0.0
 41
1.0
 50
0.0
 71
     0
 42
3.5
  3
txt
  4

  0
STYLE
  2

 70
     1
 40
0.0
 41
1.0
 50
0.0
 71
     0
 42
0.2
  3
ltypeshp.shx
  4

  0
STYLE
  2
BYGG-015740$0$STANDARD
 70
     0
 40
0.0
 41
1.0
 50
0.0
 71
     0
 42
0.2
  3
txt
  4

  0
STYLE
  2
BYGG-015740$0$ISO
 70
     0
 40
0.0
 41
1.0
 50
0.0
 71
     0
 42
3.5
  3
txt
  4

  0
STYLE
  2
BYGG-014880$0$STANDARD
 70
     0
 40
0.0
 41
1.0
 50
0.0
 71
     0
 42
0.2
  3
txt
  4

  0
STYLE
  2
BYGG-014880$0$ISO
 70
     0
 40
0.0
 41
1.0
 50
0.0
 71
     0
 42
3.5
  3
isocp3.shx
  4

  0
STYLE
  2
BYGG-018921$0$STANDARD
 70
     0
 40
0.0
 41
1.0
 50
0.0
 71
     0
 42
0.2
  3
txt
  4

  0
STYLE
  2
BYGG-018921$0$ISO
 70
     0
 40
0.0
 41
1.0
 50
0.0
 71
     0
 42
3.5
  3
txt
  4

  0
STYLE
  2
BYGG-014878$0$STANDARD
 70
     0
 40
0.0
 41
1.0
 50
0.0
 71
     0
 42
0.2
  3
txt
  4

  0
STYLE
  2
BYGG-014878$0$ISO
 70
     0
 40
0.0
 41
1.0
 50
0.0
 71
     0
 42
3.5
  3
isocp3.shx
  4

  0
STYLE
  2
BYGG-026033$0$STANDARD
 70
     0
 40
0.0
 41
1.0
 50
0.0
 71
     0
 42
0.2
  3
txt
  4

  0
STYLE
  2
BYGG-026033$0$ISO
 70
     0
 40
0.0
 41
1.0
 50
0.0
 71
     0
 42
3.5
  3
txt
  4

  0
STYLE
  2
BYGG-014203$0$STANDARD
 70
     0
 40
0.0
 41
1.0
 50
0.0
 71
     0
 42
0.2
  3
txt
  4

  0
STYLE
  2
BYGG-014203$0$ISO
 70
     0
 40
0.0
 41
1.0
 50
0.0
 71
     0
 42
3.5
  3
isocp3.shx
  4

  0
ENDTAB
  0
TABLE
  2
VIEW
 70
     0
  0
ENDTAB
  0
TABLE
  2
UCS
 70
     0
  0
ENDTAB
  0
TABLE
  2
APPID
 70
    18
  0
APPID
  2
ACAD
 70
     0
  0
APPID
  2
ACAD_DSTYLE_DIMTEXT_FILL
 70
     0
  0
APPID
  2
ACAD_DSTYLE_DIMEXT_LENGTH
 70
     0
  0
APPID
  2
ACAD_DSTYLE_DIMEXT_ENABLED
 70
     0
  0
APPID
  2
ACAD_DSTYLE_DIM_LINETYPE
 70
     0
  0
APPID
  2
ACAD_DSTYLE_DIM_EXT1_LINETYPE
 70
     0
  0
APPID
  2
ACAD_DSTYLE_DIM_EXT2_LINETYPE
 70
     0
  0
APPID
  2
ACAD_DSTYLE_DIMJOGGED_JOGA
 70
     0
  0
APPID
  2
ACAD_DSTYLE_DIMARC_LENGTH_
 70
     0
  0
APPID
  2
ACAD_PSEXT
 70
     0
  0
APPID
  2
ACAD_MLEADERVER
 70
     0
  0
APPID
  2
ACAECLAYERSTANDARD
 70
     0
  0
APPID
  2
ACAD_DSTYLE_DIMJAG
 70
     0
  0
APPID
  2
ACAD_DSTYLE_DIMTALN
 70
     0
  0
APPID
  2
AMG_ARCHIVE11
 70
     0
  0
APPID
  2
ACAD_EXEMPT_FROM_CAD_STANDARDS
 70
     0
  0
APPID
  2
ACADANNOTATIVE
 70
     0
  0
APPID
  2
AEC_XDATA_BOUND_SPACE
 70
     0
  0
ENDTAB
  0
TABLE
  2
DIMSTYLE
 70
    11
  0
DIMSTYLE
  2
MASKIN
 70
     0
  3

  4

  5

  6

  7

 40
0.0
 41
3.0
 42
1.5
 43
10.0
 44
1.5
 45
0.0
 46
0.0
 47
0.0
 48
0.0
140
3.0
141
-5.0
142
0.0
143
25.399999999999999
144
-1.0
145
0.0
146
1.0
147
1.0
 71
     0
 72
     0
 73
     0
 74
     0
 75
     0
 76
     0
 77
     1
 78
     8
170
     0
171
     0
172
     1
173
     0
174
     0
175
     0
176
   256
177
   256
178
     2
  0
DIMSTYLE
  2
BYGG-015740$0$STANDARD
 70
     0
  3

  4

  5

  6

  7

 40
1.0
 41
0.18
 42
0.0625
 43
0.38
 44
0.18
 45
0.0
 46
0.0
 47
0.0
 48
0.0
140
0.18
141
0.09
142
0.0
143
25.399999999999999
144
1.0
145
0.0
146
1.0
147
0.09
 71
     0
 72
     0
 73
     1
 74
     1
 75
     0
 76
     0
 77
     0
 78
     0
170
     0
171
     2
172
     0
173
     0
174
     0
175
     0
176
     0
177
     0
178
     0
  0
DIMSTYLE
  2
BYGG-015740$0$MASKIN
 70
     0
  3

  4

  5

  6

  7

 40
0.0
 41
3.0
 42
1.5
 43
10.0
 44
1.5
 45
0.0
 46
0.0
 47
0.0
 48
0.0
140
3.0
141
-5.0
142
0.0
143
25.399999999999999
144
-1.0
145
0.0
146
1.0
147
1.0
 71
     0
 72
     0
 73
     0
 74
     0
 75
     0
 76
     0
 77
     1
 78
     8
170
     0
171
     0
172
     1
173
     0
174
     0
175
     0
176
   256
177
   256
178
     2
  0
DIMSTYLE
  2
BYGG-014880$0$MASKIN
 70
     0
  3

  4

  5

  6

  7

 40
0.0
 41
3.0
 42
1.5
 43
10.0
 44
1.5
 45
0.0
 46
0.0
 47
0.0
 48
0.0
140
3.0
141
-5.0
142
0.0
143
25.399999999999999
144
-1.0
145
0.0
146
1.0
147
1.0
 71
     0
 72
     0
 73
     0
 74
     0
 75
     0
 76
     0
 77
     1
 78
     8
170
     0
171
     0
172
     1
173
     0
174
     0
175
     0
176
   256
177
   256
178
   256
  0
DIMSTYLE
  2
BYGG-014880$0$STANDARD
 70
     0
  3

  4

  5

  6

  7

 40
1.0
 41
0.18
 42
0.0625
 43
0.38
 44
0.18
 45
0.0
 46
0.0
 47
0.0
 48
0.0
140
0.18
141
0.09
142
0.0
143
25.399999999999999
144
1.0
145
0.0
146
1.0
147
0.09
 71
     0
 72
     0
 73
     1
 74
     1
 75
     0
 76
     0
 77
     0
 78
     0
170
     0
171
     2
172
     0
173
     0
174
     0
175
     0
176
     0
177
     0
178
     0
  0
DIMSTYLE
  2
BYGG-018921$0$MASKIN
 70
     0
  3

  4

  5

  6

  7

 40
0.0
 41
3.0
 42
1.5
 43
10.0
 44
1.5
 45
0.0
 46
0.0
 47
0.0
 48
0.0
140
3.0
141
-5.0
142
0.0
143
25.399999999999999
144
-1.0
145
0.0
146
1.0
147
1.0
 71
     0
 72
     0
 73
     0
 74
     0
 75
     0
 76
     0
 77
     1
 78
     8
170
     0
171
     0
172
     1
173
     0
174
     0
175
     0
176
   256
177
   256
178
     2
  0
DIMSTYLE
  2
BYGG-014878$0$MASKIN
 70
     0
  3

  4

  5

  6

  7

 40
0.0
 41
3.0
 42
1.5
 43
10.0
 44
1.5
 45
0.0
 46
0.0
 47
0.0
 48
0.0
140
3.0
141
-5.0
142
0.0
143
25.399999999999999
144
-1.0
145
0.0
146
1.0
147
1.0
 71
     0
 72
     0
 73
     0
 74
     0
 75
     0
 76
     0
 77
     1
 78
     8
170
     0
171
     0
172
     1
173
     0
174
     0
175
     0
176
   256
177
   256
178
   256
  0
DIMSTYLE
  2
BYGG-014878$0$STANDARD
 70
     0
  3

  4

  5

  6

  7

 40
1.0
 41
0.18
 42
0.0625
 43
0.38
 44
0.18
 45
0.0
 46
0.0
 47
0.0
 48
0.0
140
0.18
141
0.09
142
0.0
143
25.399999999999999
144
1.0
145
0.0
146
1.0
147
0.09
 71
     0
 72
     0
 73
     1
 74
     1
 75
     0
 76
     0
 77
     0
 78
     0
170
     0
171
     2
172
     0
173
     0
174
     0
175
     0
176
     0
177
     0
178
     0
  0
DIMSTYLE
  2
BYGG-026033$0$MASKIN
 70
     0
  3

  4

  5

  6

  7

 40
0.0
 41
3.0
 42
1.5
 43
10.0
 44
1.5
 45
0.0
 46
0.0
 47
0.0
 48
0.0
140
3.0
141
-5.0
142
0.0
143
25.399999999999999
144
-1.0
145
0.0
146
1.0
147
1.0
 71
     0
 72
     0
 73
     0
 74
     0
 75
     0
 76
     0
 77
     1
 78
     8
170
     0
171
     0
172
     1
173
     0
174
     0
175
     0
176
   256
177
   256
178
     2
  0
DIMSTYLE
  2
BYGG-014203$0$STANDARD
 70
     0
  3

  4

  5

  6

  7

 40
1.0
 41
0.18
 42
0.0625
 43
0.38
 44
0.18
 45
0.0
 46
0.0
 47
0.0
 48
0.0
140
0.18
141
0.09
142
0.0
143
25.399999999999999
144
1.0
145
0.0
146
1.0
147
0.09
 71
     0
 72
     0
 73
     1
 74
     1
 75
     0
 76
     0
 77
     0
 78
     0
170
     0
171
     2
172
     0
173
     0
174
     0
175
     0
176
     0
177
     0
178
     0
  0
DIMSTYLE
  2
BYGG-014203$0$MASKIN
 70
     0
  3

  4

  5

  6

  7

 40
0.0
 41
3.0
 42
1.5
 43
10.0
 44
1.5
 45
0.0
 46
0.0
 47
0.0
 48
0.0
140
3.0
141
-5.0
142
0.0
143
25.399999999999999
144
-1.0
145
0.0
146
1.0
147
1.0
 71
     0
 72
     0
 73
     0
 74
     0
 75
     0
 76
     0
 77
     1
 78
     8
170
     0
171
     0
172
     1
173
     0
174
     0
175
     0
176
   256
177
   256
178
   256
  0
ENDTAB
  0
ENDSEC
  0
SECTION
  2
BLOCKS
  0
BLOCK
  8
0
  2
$MODEL_SPACE
 70
     0
 10
0.0
 20
0.0
 30
0.0
  3
$MODEL_SPACE
  1

  0
ENDBLK
  5
37
  8
0
  0
BLOCK
 67
     1
  8
0
  2
$PAPER_SPACE
 70
     0
 10
0.0
 20
0.0
 30
0.0
  3
$PAPER_SPACE
  1

  0
ENDBLK
  5
35
 67
     1
  8
0
  0
BLOCK
  8
0
  2
*D30
 70
     1
 10
0.0
 20
0.0
 30
0.0
  3
*D30
  1

  0
LINE
  5
B45
  8
SAPA_MATT
 10
7.649999999999852
 20
-51.445009707414151
 30
0.0
 11
-12.6500000000001
 21
-51.445009707414151
 31
0.0
  0
LINE
  5
B46
  8
SAPA_MATT
 10
7.6499999999999728
 20
0.554990292585956
 30
0.0
 11
-12.650000000000089
 21
0.5549902925859617
 31
0.0
  0
LINE
  5
B47
  8
SAPA_MATT
 10
-11.1500000000001
 20
-48.445009707414158
 30
0.0
 11
-11.150000000000089
 21
-2.4450097074140378
 31
0.0
  0
SOLID
  5
B48
  8
SAPA_MATT
 10
-11.6500000000001
 20
-48.445009707414158
 30
0.0
 11
-10.6500000000001
 21
-48.445009707414158
 31
0.0
 12
-11.1500000000001
 22
-51.445009707414151
 32
0.0
 13
-11.1500000000001
 23
-51.445009707414151
 33
0.0
  0
SOLID
  5
B49
  8
SAPA_MATT
 10
-11.650000000000089
 20
-2.4450097074140378
 30
0.0
 11
-10.650000000000089
 21
-2.4450097074140391
 31
0.0
 12
-11.150000000000089
 22
0.5549902925859613
 32
0.0
 13
-11.150000000000089
 23
0.5549902925859613
 33
0.0
  0
INSERT
  5
B4A
  8
0
  2
*U57
 10
0.0
 20
0.0
 30
0.0
  0
POINT
  5
B4B
  8
DEFPOINTS
 62
     0
 10
9.1499999999998511
 20
-51.445009707414151
 30
0.0
  0
POINT
  5
B4C
  8
DEFPOINTS
 62
     0
 10
9.1499999999999737
 20
0.5549902925859556
 30
0.0
  0
POINT
  5
B4D
  8
DEFPOINTS
 62
     0
 10
-11.150000000000089
 20
0.5549902925859613
 30
0.0
  0
ENDBLK
  5
AF8
  8
0
  0
BLOCK
  8
0
  2
*D31
 70
     1
 10
0.0
 20
0.0
 30
0.0
  3
*D31
  1

  0
LINE
  5
14C4
  8
SAPA_MATT
 10
7.649999999999852
 20
-51.445009707414151
 30
0.0
 11
-12.6500000000001
 21
-51.445009707414151
 31
0.0
  0
LINE
  5
14C5
  8
SAPA_MATT
 10
8.3500000000000121
 20
-56.445009707413917
 30
0.0
 11
-12.6500000000001
 21
-56.445009707413917
 31
0.0
  0
LINE
  5
14C6
  8
SAPA_MATT
 10
-11.1500000000001
 20
-48.445009707414158
 30
0.0
 11
-11.1500000000001
 21
-45.445009707414158
 31
0.0
  0
LINE
  5
14C7
  8
SAPA_MATT
 10
-11.1500000000001
 20
-59.445009707413917
 30
0.0
 11
-11.1500000000001
 21
-62.445009707413917
 31
0.0
  0
LINE
  5
14C8
  8
SAPA_MATT
 10
-11.1500000000001
 20
-51.445009707414151
 30
0.0
 11
-11.1500000000001
 21
-56.445009707413917
 31
0.0
  0
SOLID
  5
14C9
  8
SAPA_MATT
 10
-11.6500000000001
 20
-48.445009707414158
 30
0.0
 11
-10.6500000000001
 21
-48.445009707414158
 31
0.0
 12
-11.1500000000001
 22
-51.445009707414151
 32
0.0
 13
-11.1500000000001
 23
-51.445009707414151
 33
0.0
  0
SOLID
  5
14CA
  8
SAPA_MATT
 10
-11.6500000000001
 20
-59.445009707413917
 30
0.0
 11
-10.6500000000001
 21
-59.445009707413917
 31
0.0
 12
-11.1500000000001
 22
-56.445009707413917
 32
0.0
 13
-11.1500000000001
 23
-56.445009707413917
 33
0.0
  0
TEXT
  8
SAPA_MATT
  40
3
  5
14D7
  62
2
  72
0
  71
0
 10
-19.6500
 20
-59.2550
 30
0.000000
  1
5
  7
ISO
  0
POINT
  5
14CC
  8
DEFPOINTS
 62
     0
 10
9.1499999999998511
 20
-51.445009707414151
 30
0.0
  0
POINT
  5
14CD
  8
DEFPOINTS
 62
     0
 10
9.8500000000000121
 20
-56.445009707413917
 30
0.0
  0
POINT
  5
14CE
  8
DEFPOINTS
 62
     0
 10
-11.1500000000001
 20
-56.445009707413917
 30
0.0
  0
ENDBLK
  5
B04
  8
0
  0
BLOCK
  8
0
  2
*D32
 70
     1
 10
0.0
 20
0.0
 30
0.0
  3
*D32
  1

  0
LINE
  5
14BB
  8
SAPA_MATT
 10
8.3500000000000121
 20
-56.445009707413917
 30
0.0
 11
-12.65000000000016
 21
-56.445009707413917
 31
0.0
  0
LINE
  5
14BC
  8
SAPA_MATT
 10
8.3500000000000032
 20
-93.945009707413817
 30
0.0
 11
-12.65000000000016
 21
-93.945009707413817
 31
0.0
  0
LINE
  5
14BD
  8
SAPA_MATT
 10
-11.15000000000015
 20
-59.445009707413917
 30
0.0
 11
-11.15000000000016
 21
-90.945009707413817
 31
0.0
  0
SOLID
  5
14BE
  8
SAPA_MATT
 10
-11.65000000000016
 20
-59.445009707413917
 30
0.0
 11
-10.65000000000015
 21
-59.445009707413917
 31
0.0
 12
-11.15000000000015
 22
-56.445009707413917
 32
0.0
 13
-11.15000000000015
 23
-56.445009707413917
 33
0.0
  0
SOLID
  5
14BF
  8
SAPA_MATT
 10
-11.65000000000016
 20
-90.945009707413817
 30
0.0
 11
-10.65000000000016
 21
-90.945009707413817
 31
0.0
 12
-11.15000000000016
 22
-93.945009707413817
 32
0.0
 13
-11.15000000000016
 23
-93.945009707413817
 33
0.0
  0
TEXT
  8
SAPA_MATT
  40
3
  5
14D8
  62
2
  72
0
  71
0
 10
-19.6500
 20
-80.5050
 30
0.000000
  1
37.5
  7
ISO
  0
POINT
  5
14C1
  8
DEFPOINTS
 62
     0
 10
9.8500000000000121
 20
-56.445009707413917
 30
0.0
  0
POINT
  5
14C2
  8
DEFPOINTS
 62
     0
 10
9.8500000000000032
 20
-93.945009707413817
 30
0.0
  0
POINT
  5
14C3
  8
DEFPOINTS
 62
     0
 10
-11.15000000000016
 20
-93.945009707413817
 30
0.0
  0
ENDBLK
  5
B12
  8
0
  0
BLOCK
  8
0
  2
*D33
 70
     1
 10
0.0
 20
0.0
 30
0.0
  3
*D33
  1

  0
LINE
  5
B28
  8
SAPA_MATT
 10
-12.650000000000089
 20
0.5549902925859631
 30
0.0
 11
-22.650000000000091
 21
0.5549902925859659
 31
0.0
  0
LINE
  5
B29
  8
SAPA_MATT
 10
-12.65000000000011
 20
-93.945009707413817
 30
0.0
 11
-22.650000000000109
 21
-93.945009707413817
 31
0.0
  0
LINE
  5
B2A
  8
SAPA_MATT
 10
-21.150000000000091
 20
-2.4450097074140338
 30
0.0
 11
-21.150000000000109
 21
-90.945009707413817
 31
0.0
  0
SOLID
  5
B2B
  8
SAPA_MATT
 10
-21.650000000000091
 20
-2.4450097074140338
 30
0.0
 11
-20.650000000000091
 21
-2.4450097074140338
 31
0.0
 12
-21.150000000000091
 22
0.5549902925859656
 32
0.0
 13
-21.150000000000091
 23
0.5549902925859656
 33
0.0
  0
SOLID
  5
B2C
  8
SAPA_MATT
 10
-21.650000000000109
 20
-90.945009707413817
 30
0.0
 11
-20.650000000000109
 21
-90.945009707413817
 31
0.0
 12
-21.150000000000109
 22
-93.945009707413817
 32
0.0
 13
-21.150000000000109
 23
-93.945009707413817
 33
0.0
  0
INSERT
  5
B2D
  8
0
  2
*U56
 10
0.0
 20
0.0
 30
0.0
  0
POINT
  5
B2E
  8
DEFPOINTS
 62
     0
 10
-11.150000000000089
 20
0.5549902925859627
 30
0.0
  0
POINT
  5
B2F
  8
DEFPOINTS
 62
     0
 10
-11.15000000000011
 20
-93.945009707413817
 30
0.0
  0
POINT
  5
B30
  8
DEFPOINTS
 62
     0
 10
-21.150000000000109
 20
-93.945009707413817
 30
0.0
  0
ENDBLK
  5
B1E
  8
0
  0
BLOCK
  8
0
  2
*X34
 70
     1
 10
0.0
 20
0.0
 30
0.0
  3
*X34
  1

  0
LINE
  5
B6C
  8
0
 62
     0
 10
18.399374874101571
 20
-3.9485113267242609
 30
0.0
 11
18.516393752536949
 21
-3.7458286838294508
 31
0.0
  0
LINE
  5
B6D
  8
0
 62
     0
 10
18.119519037033012
 20
-1.683605855321666
 30
0.0
 11
18.51639403703301
 21
-0.9961981910677625
 31
0.0
  0
LINE
  5
B6E
  8
0
 62
     0
 10
16.928894037033011
 20
-3.745828848083359
 30
0.0
 11
17.325769037033009
 21
-3.0584211838294562
 31
0.0
  0
LINE
  5
B6F
  8
0
 62
     0
 10
18.119519321529111
 20
1.0660246374400011
 30
0.0
 11
18.516394321529109
 21
1.7534323016939051
 31
0.0
  0
LINE
  5
B70
  8
0
 62
     0
 10
16.928894321529111
 20
-0.9961983553216921
 30
0.0
 11
17.325769321529108
 21
-0.3087906910677889
 31
0.0
  0
LINE
  5
B71
  8
0
 62
     0
 10
15.738269321529099
 20
-3.0584213480833848
 30
0.0
 11
16.135144321529111
 21
-2.371013683829482
 31
0.0
  0
LINE
  5
B72
  8
0
 62
     0
 10
18.119519606025229
 20
3.8156551302017521
 30
0.0
 11
18.51639460602523
 21
4.5030627944556549
 31
0.0
  0
LINE
  5
B73
  8
0
 62
     0
 10
16.928894606025231
 20
1.7534321374400581
 30
0.0
 11
17.325769606025229
 21
2.4408398016939619
 31
0.0
  0
LINE
  5
B74
  8
0
 62
     0
 10
15.738269606025231
 20
-0.308790855321635
 30
0.0
 11
16.135144606025229
 21
0.3786168089322683
 31
0.0
  0
LINE
  5
B75
  8
0
 62
     0
 10
14.54764460602523
 20
-2.371013848083328
 30
0.0
 11
14.94451960602523
 21
-1.683606183829425
 31
0.0
  0
LINE
  5
B76
  8
0
 62
     0
 10
13.63687601208593
 20
-3.9485113267242591
 30
0.0
 11
13.753894606025231
 21
-3.7458291765911191
 31
0.0
  0
LINE
  5
B77
  8
0
 62
     0
 10
18.119519890521278
 20
6.5652856229633398
 30
0.0
 11
18.51639489052128
 21
7.2526932872172436
 31
0.0
  0
LINE
  5
B78
  8
0
 62
     0
 10
16.928894890521271
 20
4.5030626302016472
 30
0.0
 11
17.325769890521279
 21
5.1904702944555501
 31
0.0
  0
LINE
  5
B79
  8
0
 62
     0
 10
15.73826989052127
 20
2.4408396374399528
 30
0.0
 11
16.135144890521278
 21
3.128247301693857
 31
0.0
  0
LINE
  5
B7A
  8
0
 62
     0
 10
14.547644890521269
 20
0.3786166446782597
 30
0.0
 11
14.944519890521271
 21
1.066024308932163
 31
0.0
  0
LINE
  5
B7B
  8
0
 62
     0
 10
13.35701989052127
 20
-1.6836063480834329
 30
0.0
 11
13.75389489052127
 21
-0.9961986838295299
 31
0.0
  0
LINE
  5
B7C
  8
0
 62
     0
 10
12.166394890521291
 20
-3.7458293408451171
 30
0.0
 11
12.563269890521291
 21
-3.0584216765912138
 31
0.0
  0
LINE
  5
B7D
  8
0
 62
     0
 10
18.119520175017389
 20
9.3149161157250742
 30
0.0
 11
18.51639517501739
 21
10.00232377997898
 31
0.0
  0
LINE
  5
B7E
  8
0
 62
     0
 10
16.928895175017391
 20
7.2526931229633824
 30
0.0
 11
17.325770175017389
 21
7.9401007872172862
 31
0.0
  0
LINE
  5
B7F
  8
0
 62
     0
 10
15.738270175017391
 20
5.190470130201688
 30
0.0
 11
16.135145175017389
 21
5.8778777944555918
 31
0.0
  0
LINE
  5
B80
  8
0
 62
     0
 10
14.54764517501739
 20
3.1282471374399949
 30
0.0
 11
14.944520175017381
 21
3.8156548016938991
 31
0.0
  0
LINE
  5
B81
  8
0
 62
     0
 10
13.35702017501738
 20
1.066024144678301
 30
0.0
 11
13.75389517501738
 21
1.753431808932205
 31
0.0
  0
LINE
  5
B82
  8
0
 62
     0
 10
10.97577017501739
 20
-3.0584218408450781
 30
0.0
 11
11.372645175017389
 21
-2.3710141765911739
 31
0.0
  0
LINE
  5
B83
  8
0
 62
     0
 10
16.928895459513541
 20
10.0023236157251
 30
0.0
 11
16.957280918725129
 21
10.051488673275751
 31
0.0
  0
LINE
  5
B84
  8
0
 62
     0
 10
15.73827045951354
 20
7.9401006229634072
 30
0.0
 11
16.135145459513542
 21
8.6275082872173101
 31
0.0
  0
LINE
  5
B85
  8
0
 62
     0
 10
14.547645459513539
 20
5.8778776302017128
 30
0.0
 11
14.944520459513541
 21
6.5652852944556157
 31
0.0
  0
LINE
  5
B86
  8
0
 62
     0
 10
13.35702045951354
 20
3.8156546374400202
 30
0.0
 11
13.75389545951354
 21
4.5030623016939231
 31
0.0
  0
LINE
  5
B87
  8
0
 62
     0
 10
12.16639545951354
 20
1.753431644678326
 30
0.0
 11
12.563270459513539
 21
2.4408393089322291
 31
0.0
  0
LINE
  5
B88
  8
0
 62
     0
 10
14.54764574400958
 20
8.6275081229634214
 30
0.0
 11
14.94452074400958
 21
9.3149157872173252
 31
0.0
  0
LINE
  5
B89
  8
0
 62
     0
 10
13.35702074400958
 20
6.5652851302017279
 30
0.0
 11
13.753895744009579
 21
7.2526927944556308
 31
0.0
  0
LINE
  5
B8A
  8
0
 62
     0
 10
12.166395744009581
 20
4.5030621374400353
 30
0.0
 11
12.56327074400958
 21
5.1904698016939381
 31
0.0
  0
LINE
  5
B8B
  8
0
 62
     0
 10
10.97577074400958
 20
2.4408391446783408
 30
0.0
 11
11.37264574400958
 21
3.128246808932245
 31
0.0
  0
LINE
  5
B8C
  8
0
 62
     0
 10
10.173628875346621
 20
1.051488673275853
 30
0.0
 11
10.182020744009581
 21
1.0660238161705511
 31
0.0
  0
LINE
  5
B8D
  8
0
 62
     0
 10
13.35702102850574
 20
9.3149156229634151
 30
0.0
 11
13.753896028505739
 21
10.002323287217321
 31
0.0
  0
LINE
  5
B8E
  8
0
 62
     0
 10
12.166396028505741
 20
7.2526926302017207
 30
0.0
 11
12.56327102850574
 21
7.9401002944556227
 31
0.0
  0
LINE
  5
B8F
  8
0
 62
     0
 10
10.97577102850574
 20
5.1904696374400281
 30
0.0
 11
11.37264602850574
 21
5.8778773016939301
 31
0.0
  0
LINE
  5
B90
  8
0
 62
     0
 10
9.7851460285057392
 20
3.1282466446783341
 30
0.0
 11
10.182021028505741
 21
3.8156543089322361
 31
0.0
  0
LINE
  5
B91
  8
0
 62
     0
 10
12.16639631300179
 20
10.002323122963411
 30
0.0
 11
12.194782056709469
 21
10.051488673275751
 31
0.0
  0
LINE
  5
B92
  8
0
 62
     0
 10
10.97577131300179
 20
7.9401001302017198
 30
0.0
 11
11.372646313001789
 21
8.6275077944556227
 31
0.0
  0
LINE
  5
B93
  8
0
 62
     0
 10
9.7851463130017926
 20
5.8778771374400272
 30
0.0
 11
10.18202131300179
 21
6.5652848016939283
 31
0.0
  0
LINE
  5
B94
  8
0
 62
     0
 10
9.7851465974979313
 20
8.6275076302017197
 30
0.0
 11
10.182021597497929
 21
9.3149152944556217
 31
0.0
  0
LINE
  5
B95
  8
0
 62
     0
 10
18.516281945571091
 20
10.002312282206169
 30
0.0
 11
18.48788994294933
 21
10.05148867327571
 31
0.0
  0
LINE
  5
B96
  8
0
 62
     0
 10
17.325657230067229
 20
9.3149047822061313
 30
0.0
 11
16.928782230067242
 21
10.00231244646003
 31
0.0
  0
LINE
  5
B97
  8
0
 62
     0
 10
18.51628223006723
 20
7.252681789444436
 30
0.0
 11
18.119407230067232
 21
7.940089453698338
 31
0.0
  0
LINE
  5
B98
  8
0
 62
     0
 10
16.135032514563321
 20
8.6274972822061322
 30
0.0
 11
15.738157514563319
 21
9.3149049464600342
 31
0.0
  0
LINE
  5
B99
  8
0
 62
     0
 10
17.325657514563321
 20
6.5652742894444378
 30
0.0
 11
16.92878251456332
 21
7.2526819536983398
 31
0.0
  0
LINE
  5
B9A
  8
0
 62
     0
 10
18.516282514563311
 20
4.5030512966827443
 30
0.0
 11
18.11940751456331
 21
5.1904589609366463
 31
0.0
  0
LINE
  5
B9B
  8
0
 62
     0
 10
13.75378279905938
 20
10.00231277496783
 30
0.0
 11
13.72539108093364
 21
10.051488673275781
 31
0.0
  0
LINE
  5
B9C
  8
0
 62
     0
 10
14.94440779905938
 20
7.940089782206134
 30
0.0
 11
14.54753279905937
 21
8.6274974464600351
 31
0.0
  0
LINE
  5
B9D
  8
0
 62
     0
 10
16.13503279905937
 20
5.8778667894444387
 30
0.0
 11
15.738157799059371
 21
6.5652744536983407
 31
0.0
  0
LINE
  5
B9E
  8
0
 62
     0
 10
17.325657799059371
 20
3.8156437966827439
 30
0.0
 11
16.92878279905937
 21
4.5030514609366472
 31
0.0
  0
LINE
  5
B9F
  8
0
 62
     0
 10
18.516282799059368
 20
1.7534208039210499
 30
0.0
 11
18.11940779905937
 21
2.4408284681749519
 31
0.0
  0
LINE
  5
BA0
  8
0
 62
     0
 10
12.56315808355555
 20
9.3149052749677974
 30
0.0
 11
12.16628308355555
 21
10.002312939221699
 31
0.0
  0
LINE
  5
BA1
  8
0
 62
     0
 10
13.75378308355555
 20
7.2526822822061021
 30
0.0
 11
13.35690808355554
 21
7.9400899464600032
 31
0.0
  0
LINE
  5
BA2
  8
0
 62
     0
 10
14.94440808355554
 20
5.1904592894444068
 30
0.0
 11
14.547533083555541
 21
5.8778669536983079
 31
0.0
  0
LINE
  5
BA3
  8
0
 62
     0
 10
16.135033083555541
 20
3.1282362966827129
 30
0.0
 11
15.73815808355554
 21
3.8156439609366131
 31
0.0
  0
LINE
  5
BA4
  8
0
 62
     0
 10
17.325658083555538
 20
1.066013303921018
 30
0.0
 11
16.92878308355554
 21
1.7534209681749191
 31
0.0
  0
LINE
  5
BA5
  8
0
 62
     0
 10
18.516283083555528
 20
-0.9962096888406755
 30
0.0
 11
18.119408083555541
 21
-0.3088020245867753
 31
0.0
  0
LINE
  5
BA6
  8
0
 62
     0
 10
11.37253336805154
 20
8.6274977749678463
 30
0.0
 11
10.97565836805154
 21
9.3149054392217465
 31
0.0
  0
LINE
  5
BA7
  8
0
 62
     0
 10
12.563158368051541
 20
6.565274782206151
 30
0.0
 11
12.166283368051539
 21
7.2526824464600521
 31
0.0
  0
LINE
  5
BA8
  8
0
 62
     0
 10
13.75378336805154
 20
4.5030517894444566
 30
0.0
 11
13.35690836805154
 21
5.1904594536983568
 31
0.0
  0
LINE
  5
BA9
  8
0
 62
     0
 10
14.94440836805154
 20
2.4408287966827631
 30
0.0
 11
14.54753336805153
 21
3.1282364609366629
 31
0.0
  0
LINE
  5
BAA
  8
0
 62
     0
 10
16.135033368051531
 20
0.3786058039210696
 30
0.0
 11
15.738158368051529
 21
1.066013468174968
 31
0.0
  0
LINE
  5
BAB
  8
0
 62
     0
 10
17.325658368051531
 20
-1.6836171888406239
 30
0.0
 11
16.92878336805153
 21
-0.9962095245867255
 31
0.0
  0
LINE
  5
BAC
  8
0
 62
     0
 10
18.516283368051528
 20
-3.7458401816023188
 30
0.0
 11
18.119408368051531
 21
-3.058432517348419
 31
0.0
  0
LINE
  5
BAD
  8
0
 62
     0
 10
10.181908652547721
 20
7.9400902749678099
 30
0.0
 11
9.7850336525477193
 21
8.6274979392217084
 31
0.0
  0
LINE
  5
BAE
  8
0
 62
     0
 10
11.372533652547711
 20
5.8778672822061164
 30
0.0
 11
10.975658652547709
 21
6.5652749464600149
 31
0.0
  0
LINE
  5
BAF
  8
0
 62
     0
 10
12.56315865254771
 20
3.815644289444422
 30
0.0
 11
12.16628365254771
 21
4.5030519536983213
 31
0.0
  0
LINE
  5
BB0
  8
0
 62
     0
 10
13.75378365254771
 20
1.7534212966827281
 30
0.0
 11
13.356908652547711
 21
2.440828960936626
 31
0.0
  0
LINE
  5
BB1
  8
0
 62
     0
 10
14.944408652547709
 20
-0.3088016960789659
 30
0.0
 11
14.54753365254771
 21
0.3786059681749325
 31
0.0
  0
LINE
  5
BB2
  8
0
 62
     0
 10
16.135033652547701
 20
-2.3710246888406599
 30
0.0
 11
15.7381586525477
 21
-1.683617024586761
 31
0.0
  0
LINE
  5
BB3
  8
0
 62
     0
 10
17.045795987572799
 20
-3.9485113267242009
 30
0.0
 11
16.9287836525477
 21
-3.7458400173484558
 31
0.0
  0
LINE
  5
BB4
  8
0
 62
     0
 10
10.181908937043749
 20
5.1904597822061511
 30
0.0
 11
9.7850339370437567
 21
5.8778674464600487
 31
0.0
  0
LINE
  5
BB5
  8
0
 62
     0
 10
11.37253393704375
 20
3.1282367894444558
 30
0.0
 11
10.97565893704375
 21
3.8156444536983538
 31
0.0
  0
LINE
  5
BB6
  8
0
 62
     0
 10
12.563158937043751
 20
1.0660137966827621
 30
0.0
 11
12.166283937043749
 21
1.7534214609366601
 31
0.0
  0
LINE
  5
BB7
  8
0
 62
     0
 10
13.75378393704375
 20
-0.9962091960789316
 30
0.0
 11
13.35690893704375
 21
-0.3088015318250337
 31
0.0
  0
LINE
  5
BB8
  8
0
 62
     0
 10
14.94440893704374
 20
-3.0584321888406261
 30
0.0
 11
14.54753393704374
 21
-2.3710245245867281
 31
0.0
  0
LINE
  5
BB9
  8
0
 62
     0
 10
10.18190922153992
 20
2.4408292894444368
 30
0.0
 11
9.7850342215399255
 21
3.1282369536983352
 31
0.0
  0
LINE
  5
BBA
  8
0
 62
     0
 10
10.98404540028093
 20
1.051488673275855
 30
0.0
 11
10.975659221539919
 21
1.066013960936641
 31
0.0
  0
LINE
  5
BBB
  8
0
 62
     0
 10
13.75378422153987
 20
-3.7458396888406491
 30
0.0
 11
13.356909221539871
 21
-3.058432024586752
 31
0.0
  0
LINE
  5
BBC
  8
0
 62
     0
 10
11.37253450603596
 20
-2.3710241960789422
 30
0.0
 11
11.187487356696041
 21
-2.0505131316264138
 31
0.0
  0
LINE
  5
BBD
  8
0
 62
     0
 10
12.283297125557169
 20
-3.9485113267242009
 30
0.0
 11
12.166284506035961
 21
-3.7458395245867391
 31
0.0
  0
LINE
  5
BBE
  8
0
 62
     0
 10
17.325723517657369
 20
-3.0585223642306252
 30
0.0
 11
18.119473517657369
 21
-3.0585223642306252
 31
0.0
  0
LINE
  5
BBF
  8
0
 62
     0
 10
14.94447351765737
 20
-3.0585223642306238
 30
0.0
 11
15.738223517657371
 21
-3.0585223642306238
 31
0.0
  0
LINE
  5
BC0
  8
0
 62
     0
 10
12.56322351765737
 20
-3.0585223642306238
 30
0.0
 11
13.356973517657369
 21
-3.0585223642306238
 31
0.0
  0
LINE
  5
BC1
  8
0
 62
     0
 10
10.842954439071891
 20
-3.058522364230623
 30
0.0
 11
10.97572351765737
 21
-3.058522364230623
 31
0.0
  0
LINE
  5
BC2
  8
0
 62
     0
 10
17.325723517657369
 20
-1.6837073642307261
 30
0.0
 11
18.119473517657369
 21
-1.6837073642307261
 31
0.0
  0
LINE
  5
BC3
  8
0
 62
     0
 10
14.94447351765737
 20
-1.6837073642307261
 30
0.0
 11
15.738223517657371
 21
-1.6837073642307261
 31
0.0
  0
LINE
  5
BC4
  8
0
 62
     0
 10
13.3279824873282
 20
-1.683707364230725
 30
0.0
 11
13.35697351765738
 21
-1.683707364230725
 31
0.0
  0
LINE
  5
BC5
  8
0
 62
     0
 10
17.325723517657369
 20
-0.3088923642307143
 30
0.0
 11
18.119473517657369
 21
-0.3088923642307146
 31
0.0
  0
LINE
  5
BC6
  8
0
 62
     0
 10
14.94447351765737
 20
-0.3088923642307137
 30
0.0
 11
15.738223517657371
 21
-0.3088923642307139
 31
0.0
  0
LINE
  5
BC7
  8
0
 62
     0
 10
13.31621768473368
 20
-0.3088923642307133
 30
0.0
 11
13.35697351765738
 21
-0.3088923642307133
 31
0.0
  0
LINE
  5
BC8
  8
0
 62
     0
 10
17.32572351765738
 20
1.065922635769297
 30
0.0
 11
18.119473517657379
 21
1.065922635769297
 31
0.0
  0
LINE
  5
BC9
  8
0
 62
     0
 10
14.94447351765738
 20
1.0659226357692979
 30
0.0
 11
15.73822351765738
 21
1.0659226357692979
 31
0.0
  0
LINE
  5
BCA
  8
0
 62
     0
 10
12.563223517657381
 20
1.065922635769299
 30
0.0
 11
13.35697351765738
 21
1.065922635769299
 31
0.0
  0
LINE
  5
BCB
  8
0
 62
     0
 10
10.181973517657379
 20
1.065922635769299
 30
0.0
 11
10.97572351765738
 21
1.065922635769299
 31
0.0
  0
LINE
  5
BCC
  8
0
 62
     0
 10
17.32572351765738
 20
2.44073763576931
 30
0.0
 11
18.119473517657379
 21
2.44073763576931
 31
0.0
  0
LINE
  5
BCD
  8
0
 62
     0
 10
14.94447351765738
 20
2.44073763576931
 30
0.0
 11
15.73822351765738
 21
2.44073763576931
 31
0.0
  0
LINE
  5
BCE
  8
0
 62
     0
 10
12.563223517657381
 20
2.4407376357693109
 30
0.0
 11
13.35697351765738
 21
2.4407376357693109
 31
0.0
  0
LINE
  5
BCF
  8
0
 62
     0
 10
10.181973517657379
 20
2.4407376357693109
 30
0.0
 11
10.97572351765738
 21
2.4407376357693109
 31
0.0
  0
LINE
  5
BD0
  8
0
 62
     0
 10
17.32572351765738
 20
3.8155526357693219
 30
0.0
 11
18.119473517657379
 21
3.8155526357693219
 31
0.0
  0
LINE
  5
BD1
  8
0
 62
     0
 10
14.94447351765738
 20
3.8155526357693228
 30
0.0
 11
15.73822351765738
 21
3.8155526357693228
 31
0.0
  0
LINE
  5
BD2
  8
0
 62
     0
 10
12.563223517657381
 20
3.8155526357693228
 30
0.0
 11
13.35697351765738
 21
3.8155526357693228
 31
0.0
  0
LINE
  5
BD3
  8
0
 62
     0
 10
10.181973517657379
 20
3.8155526357693241
 30
0.0
 11
10.97572351765738
 21
3.8155526357693241
 31
0.0
  0
LINE
  5
BD4
  8
0
 62
     0
 10
17.32572351765738
 20
5.190367635769336
 30
0.0
 11
18.119473517657379
 21
5.190367635769336
 31
0.0
  0
LINE
  5
BD5
  8
0
 62
     0
 10
14.94447351765738
 20
5.190367635769336
 30
0.0
 11
15.73822351765738
 21
5.190367635769336
 31
0.0
  0
LINE
  5
BD6
  8
0
 62
     0
 10
12.563223517657381
 20
5.190367635769336
 30
0.0
 11
13.35697351765738
 21
5.190367635769336
 31
0.0
  0
LINE
  5
BD7
  8
0
 62
     0
 10
10.181973517657379
 20
5.190367635769336
 30
0.0
 11
10.97572351765738
 21
5.190367635769336
 31
0.0
  0
LINE
  5
BD8
  8
0
 62
     0
 10
17.32572351765738
 20
6.5651826357693492
 30
0.0
 11
18.119473517657379
 21
6.5651826357693492
 31
0.0
  0
LINE
  5
BD9
  8
0
 62
     0
 10
14.94447351765738
 20
6.5651826357693492
 30
0.0
 11
15.73822351765738
 21
6.5651826357693492
 31
0.0
  0
LINE
  5
BDA
  8
0
 62
     0
 10
12.563223517657381
 20
6.5651826357693492
 30
0.0
 11
13.35697351765738
 21
6.5651826357693492
 31
0.0
  0
LINE
  5
BDB
  8
0
 62
     0
 10
10.181973517657379
 20
6.5651826357693492
 30
0.0
 11
10.97572351765738
 21
6.5651826357693492
 31
0.0
  0
LINE
  5
BDC
  8
0
 62
     0
 10
17.32572351765738
 20
7.9399976357693607
 30
0.0
 11
18.119473517657379
 21
7.9399976357693607
 31
0.0
  0
LINE
  5
BDD
  8
0
 62
     0
 10
14.94447351765738
 20
7.9399976357693607
 30
0.0
 11
15.73822351765738
 21
7.9399976357693607
 31
0.0
  0
LINE
  5
BDE
  8
0
 62
     0
 10
12.563223517657381
 20
7.9399976357693607
 30
0.0
 11
13.35697351765738
 21
7.9399976357693607
 31
0.0
  0
LINE
  5
BDF
  8
0
 62
     0
 10
10.181973517657379
 20
7.9399976357693607
 30
0.0
 11
10.97572351765738
 21
7.9399976357693607
 31
0.0
  0
LINE
  5
BE0
  8
0
 62
     0
 10
17.32572351765738
 20
9.3148126357693748
 30
0.0
 11
18.119473517657379
 21
9.3148126357693748
 31
0.0
  0
LINE
  5
BE1
  8
0
 62
     0
 10
14.94447351765738
 20
9.3148126357693748
 30
0.0
 11
15.73822351765738
 21
9.3148126357693748
 31
0.0
  0
LINE
  5
BE2
  8
0
 62
     0
 10
12.563223517657381
 20
9.3148126357693748
 30
0.0
 11
13.35697351765738
 21
9.3148126357693748
 31
0.0
  0
LINE
  5
BE3
  8
0
 62
     0
 10
10.181973517657379
 20
9.3148126357693748
 30
0.0
 11
10.97572351765738
 21
9.3148126357693748
 31
0.0
  0
ENDBLK
  5
BE5
  8
0
  0
BLOCK
  8
0
  2
*X35
 70
     1
 10
0.0
 20
0.0
 30
0.0
  3
*X35
  1

  0
LINE
  5
BE7
  8
0
 62
     0
 10
58.638974885035672
 20
9.5195689248356246
 30
0.0
 11
57.60821366183432
 21
10.55033014803695
 31
0.0
  0
LINE
  5
BE8
  8
0
 62
     0
 10
58.193695114924651
 20
7.7197846646793371
 30
0.0
 11
55.36314963156704
 21
10.55033014803695
 31
0.0
  0
LINE
  5
BE9
  8
0
 62
     0
 10
58.009270776411093
 20
5.6591449729256453
 30
0.0
 11
53.118085601299782
 21
10.55033014803695
 31
0.0
  0
LINE
  5
BEA
  8
0
 62
     0
 10
58.227186806338871
 20
3.196164912730552
 30
0.0
 11
54.397612625196423
 21
7.0257390938729989
 31
0.0
  0
LINE
  5
BEB
  8
0
 62
     0
 10
58.635840645381762
 20
0.542447043420367
 30
0.0
 11
54.945840434693913
 21
4.2324472541082221
 31
0.0
  0
LINE
  5
BEC
  8
0
 62
     0
 10
56.378233365949171
 20
0.554990292585643
 30
0.0
 11
54.954461418061548
 21
1.9787622404732581
 31
0.0
  0
LINE
  5
BED
  8
0
 62
     0
 10
54.991584667840947
 20
-0.3034250395733977
 30
0.0
 11
54.664203293501231
 21
0.0239563347663534
 31
0.0
  0
LINE
  5
BEE
  8
0
 62
     0
 10
57.32109221181787
 20
0.5549902925856145
 30
0.0
 11
58.56940877050959
 21
1.8033068512773971
 31
0.0
  0
LINE
  5
BEF
  8
0
 62
     0
 10
54.69703523928036
 20
0.1759973503154129
 30
0.0
 11
58.153373103337969
 21
3.6323352143730281
 31
0.0
  0
LINE
  5
BF0
  8
0
 62
     0
 10
54.991630660302171
 20
2.7156568016045521
 30
0.0
 11
58.010121750623512
 21
5.7341478919258861
 31
0.0
  0
LINE
  5
BF1
  8
0
 62
     0
 10
54.879898445587862
 20
4.8489886171574312
 30
0.0
 11
58.300571665135692
 21
8.2696618367052679
 31
0.0
  0
LINE
  5
BF2
  8
0
 62
     0
 10
54.498480562398072
 20
6.712634764234962
 30
0.0
 11
58.336175946200001
 21
10.55033014803695
 31
0.0
  0
LINE
  5
BF3
  8
0
 62
     0
 10
53.844397313207878
 20
8.3036155453120273
 30
0.0
 11
56.091111915932743
 21
10.55033014803695
 31
0.0
  0
LINE
  5
BF4
  8
0
 62
     0
 10
52.887747215151592
 20
9.5920294775229991
 30
0.0
 11
53.846047885665477
 21
10.55033014803689
 31
0.0
  0
LINE
  5
BF5
  8
0
 62
     0
 10
51.478889890520058
 20
10.428236183158781
 30
0.0
 11
51.600983855398219
 21
10.55033014803695
 31
0.0
  0
ENDBLK
  5
BF7
  8
0
  0
BLOCK
  8
0
  2
*X36
 70
     1
 10
0.0
 20
0.0
 30
0.0
  3
*X36
  1

  0
LINE
  5
BF9
  8
0
 62
     0
 10
53.838262778118903
 20
-0.3087869132281291
 30
0.0
 11
54.235137778118911
 21
0.3786207510257715
 31
0.0
  0
LINE
  5
BFA
  8
0
 62
     0
 10
52.647637778118892
 20
-2.3710099059898222
 30
0.0
 11
53.0445127781189
 21
-1.6836022417359211
 31
0.0
  0
LINE
  5
BFB
  8
0
 62
     0
 10
51.525491761599397
 20
-4.3146238201126152
 30
0.0
 11
51.853887778118903
 21
-3.7458252344976151
 31
0.0
  0
LINE
  5
BFC
  8
0
 62
     0
 10
53.838263062614971
 20
2.440843579533531
 30
0.0
 11
54.235138062614958
 21
3.1282512437874308
 31
0.0
  0
LINE
  5
BFD
  8
0
 62
     0
 10
52.647638062614959
 20
0.378620586771838
 30
0.0
 11
53.044513062614961
 21
1.0660282510257379
 31
0.0
  0
LINE
  5
BFE
  8
0
 62
     0
 10
51.457013062614962
 20
-1.6836024059898551
 30
0.0
 11
51.853888062614963
 21
-0.9961947417359554
 31
0.0
  0
LINE
  5
BFF
  8
0
 62
     0
 10
50.266388062614951
 20
-3.7458253987515491
 30
0.0
 11
50.663263062614952
 21
-3.058417734497648
 31
0.0
  0
LINE
  5
C00
  8
0
 62
     0
 10
53.83826334711113
 20
5.190474072295288
 30
0.0
 11
54.235138347111118
 21
5.8778817365491882
 31
0.0
  0
LINE
  5
C01
  8
0
 62
     0
 10
52.647638347111119
 20
3.128251079533594
 30
0.0
 11
53.044513347111121
 21
3.8156587437874951
 31
0.0
  0
LINE
  5
C02
  8
0
 62
     0
 10
51.457013347111122
 20
1.0660280867719001
 30
0.0
 11
51.853888347111123
 21
1.753435751025801
 31
0.0
  0
LINE
  5
C03
  8
0
 62
     0
 10
50.266388347111111
 20
-0.9961949059897934
 30
0.0
 11
50.663263347111112
 21
-0.3087872417358923
 31
0.0
  0
LINE
  5
C04
  8
0
 62
     0
 10
49.075763347111099
 20
-3.0584178987514861
 30
0.0
 11
49.472638347111108
 21
-2.371010234497585
 31
0.0
  0
LINE
  5
C05
  8
0
 62
     0
 10
53.838263631607212
 20
7.9401045650570152
 30
0.0
 11
53.940401997294252
 21
8.1170134038290218
 31
0.0
  0
LINE
  5
C06
  8
0
 62
     0
 10
52.647638631607201
 20
5.8778815722953208
 30
0.0
 11
53.044513631607209
 21
6.5652892365492219
 31
0.0
  0
LINE
  5
C07
  8
0
 62
     0
 10
51.457013631607197
 20
3.8156585795336282
 30
0.0
 11
51.853888631607212
 21
4.5030662437875293
 31
0.0
  0
LINE
  5
C08
  8
0
 62
     0
 10
50.266388631607192
 20
1.7534355867719329
 30
0.0
 11
50.663263631607201
 21
2.4408432510258362
 31
0.0
  0
LINE
  5
C09
  8
0
 62
     0
 10
49.075763631607188
 20
-0.3087874059897595
 30
0.0
 11
49.472638631607197
 21
0.3786202582641422
 31
0.0
  0
LINE
  5
C0A
  8
0
 62
     0
 10
48.164467988632452
 20
-1.8871977603381529
 30
0.0
 11
48.282013631607192
 21
-1.683602734497551
 31
0.0
  0
LINE
  5
C0B
  8
0
 62
     0
 10
52.647638916103297
 20
8.6275120650569601
 30
0.0
 11
53.044513916103313
 21
9.3149197293108621
 31
0.0
  0
LINE
  5
C0C
  8
0
 62
     0
 10
51.4570139161033
 20
6.5652890722952657
 30
0.0
 11
51.853888916103301
 21
7.2526967365491677
 31
0.0
  0
LINE
  5
C0D
  8
0
 62
     0
 10
50.266388916103288
 20
4.5030660795335731
 30
0.0
 11
50.663263916103297
 21
5.1904737437874751
 31
0.0
  0
LINE
  5
C0E
  8
0
 62
     0
 10
49.075763916103291
 20
2.4408430867718791
 30
0.0
 11
49.472638916103293
 21
3.1282507510257811
 31
0.0
  0
LINE
  5
C0F
  8
0
 62
     0
 10
47.88513891610328
 20
0.378620094010186
 30
0.0
 11
48.282013916103288
 21
1.066027758264088
 31
0.0
  0
LINE
  5
C10
  8
0
 62
     0
 10
51.45701420059936
 20
9.3149195650569201
 30
0.0
 11
51.853889200599347
 21
10.00232722931082
 31
0.0
  0
LINE
  5
C11
  8
0
 62
     0
 10
50.266389200599349
 20
7.2526965722952257
 30
0.0
 11
50.66326420059935
 21
7.9401042365491259
 31
0.0
  0
LINE
  5
C12
  8
0
 62
     0
 10
49.075764200599338
 20
5.1904735795335331
 30
0.0
 11
49.472639200599353
 21
5.8778812437874333
 31
0.0
  0
LINE
  5
C13
  8
0
 62
     0
 10
47.88513920059934
 20
3.1282505867718391
 30
0.0
 11
48.282014200599342
 21
3.8156582510257389
 31
0.0
  0
LINE
  5
C14
  8
0
 62
     0
 10
50.266389485095488
 20
10.00232706505696
 30
0.0
 11
50.484759471194089
 21
10.380554975827851
 31
0.0
  0
LINE
  5
C15
  8
0
 62
     0
 10
49.075764485095483
 20
7.9401040722952718
 30
0.0
 11
49.472639485095478
 21
8.627511736549172
 31
0.0
  0
LINE
  5
C16
  8
0
 62
     0
 10
47.885139485095479
 20
5.8778810795335792
 30
0.0
 11
48.28201448509548
 21
6.5652887437874776
 31
0.0
  0
LINE
  5
C17
  8
0
 62
     0
 10
51.853775971153013
 20
10.00230883287426
 30
0.0
 11
51.626786461721139
 21
10.39546619599539
 31
0.0
  0
LINE
  5
C18
  8
0
 62
     0
 10
53.04440097115301
 20
7.9400858401125678
 30
0.0
 11
52.647525971153001
 21
8.627493504366468
 31
0.0
  0
LINE
  5
C19
  8
0
 62
     0
 10
54.235025971153007
 20
5.8778628473508743
 30
0.0
 11
53.838150971152999
 21
6.5652705116047736
 31
0.0
  0
LINE
  5
C1A
  8
0
 62
     0
 10
50.663151255649119
 20
9.3149013328742871
 30
0.0
 11
50.266276255649132
 21
10.002308997128191
 31
0.0
  0
LINE
  5
C1B
  8
0
 62
     0
 10
51.853776255649123
 20
7.2526783401125927
 30
0.0
 11
51.456901255649122
 21
7.940086004366492
 31
0.0
  0
LINE
  5
C1C
  8
0
 62
     0
 10
53.04440125564912
 20
5.1904553473508992
 30
0.0
 11
52.647526255649119
 21
5.8778630116047976
 31
0.0
  0
LINE
  5
C1D
  8
0
 62
     0
 10
54.23502625564911
 20
3.1282323545892039
 30
0.0
 11
53.838151255649109
 21
3.8156400188431032
 31
0.0
  0
LINE
  5
C1E
  8
0
 62
     0
 10
49.47252654014526
 20
8.6274938328742223
 30
0.0
 11
49.075651540145273
 21
9.3149014971281208
 31
0.0
  0
LINE
  5
C1F
  8
0
 62
     0
 10
50.663151540145257
 20
6.565270840112527
 30
0.0
 11
50.266276540145263
 21
7.2526785043664246
 31
0.0
  0
LINE
  5
C20
  8
0
 62
     0
 10
51.853776540145262
 20
4.5030478473508326
 30
0.0
 11
51.45690154014526
 21
5.1904555116047311
 31
0.0
  0
LINE
  5
C21
  8
0
 62
     0
 10
53.044401540145259
 20
2.44082485458914
 30
0.0
 11
52.64752654014525
 21
3.1282325188430362
 31
0.0
  0
LINE
  5
C22
  8
0
 62
     0
 10
54.235026540145263
 20
0.3786018618274456
 30
0.0
 11
53.838151540145248
 21
1.066009526081342
 31
0.0
  0
LINE
  5
C23
  8
0
 62
     0
 10
48.281901824641309
 20
7.9400863328743227
 30
0.0
 11
48.204557344501872
 21
8.0740509021608275
 31
0.0
  0
LINE
  5
C24
  8
0
 62
     0
 10
49.472526824641307
 20
5.8778633401126292
 30
0.0
 11
49.075651824641298
 21
6.5652710043665268
 31
0.0
  0
LINE
  5
C25
  8
0
 62
     0
 10
50.663151824641297
 20
3.8156403473509339
 30
0.0
 11
50.266276824641302
 21
4.5030480116048333
 31
0.0
  0
LINE
  5
C26
  8
0
 62
     0
 10
51.853776824641301
 20
1.75341735458924
 30
0.0
 11
51.456901824641299
 21
2.440825018843138
 31
0.0
  0
LINE
  5
C27
  8
0
 62
     0
 10
53.044401824641298
 20
-0.3088056381724535
 30
0.0
 11
52.647526824641297
 21
0.3786020260814444
 31
0.0
  0
LINE
  5
C28
  8
0
 62
     0
 10
53.980789660169002
 20
-1.930676944895878
 30
0.0
 11
53.838151824641287
 21
-1.6836209666802491
 31
0.0
  0
LINE
  5
C29
  8
0
 62
     0
 10
48.281902109137448
 20
5.1904558401125316
 30
0.0
 11
47.885027109137447
 21
5.87786350436643
 31
0.0
  0
LINE
  5
C2A
  8
0
 62
     0
 10
49.472527109137438
 20
3.1282328473508381
 30
0.0
 11
49.075652109137451
 21
3.8156405116047352
 31
0.0
  0
LINE
  5
C2B
  8
0
 62
     0
 10
50.663152109137442
 20
1.0660098545891441
 30
0.0
 11
50.266277109137441
 21
1.753417518843041
 31
0.0
  0
LINE
  5
C2C
  8
0
 62
     0
 10
51.85377710913744
 20
-0.9962131381725498
 30
0.0
 11
51.456902109137438
 21
-0.3088054739186523
 31
0.0
  0
LINE
  5
C2D
  8
0
 62
     0
 10
53.04440210913743
 20
-3.0584361309342438
 30
0.0
 11
52.647527109137428
 21
-2.3710284666803458
 31
0.0
  0
LINE
  5
C2E
  8
0
 62
     0
 10
48.281902393633551
 20
2.4408253473509141
 30
0.0
 11
47.885027393633543
 21
3.128233011604812
 31
0.0
  0
LINE
  5
C2F
  8
0
 62
     0
 10
49.472527393633541
 20
0.3786023545892201
 30
0.0
 11
49.075652393633533
 21
1.066010018843117
 31
0.0
  0
LINE
  5
C30
  8
0
 62
     0
 10
50.663152393633538
 20
-1.6836206381724741
 30
0.0
 11
50.266277393633537
 21
-0.9962129739185767
 31
0.0
  0
LINE
  5
C31
  8
0
 62
     0
 10
51.853777393633528
 20
-3.7458436309341678
 30
0.0
 11
51.456902393633541
 21
-3.0584359666802712
 31
0.0
  0
LINE
  5
C32
  8
0
 62
     0
 10
48.281902678129562
 20
-0.3088051454107417
 30
0.0
 11
47.885027678129561
 21
0.3786025188431563
 31
0.0
  0
LINE
  5
C33
  8
0
 62
     0
 10
49.472527678129559
 20
-2.3710281381724361
 30
0.0
 11
49.075652678129558
 21
-1.6836204739185381
 31
0.0
  0
LINE
  5
C34
  8
0
 62
     0
 10
50.5879171484764
 20
-4.3029393710405079
 30
0.0
 11
50.266277678129562
 21
-3.745843466680232
 31
0.0
  0
LINE
  5
C35
  8
0
 62
     0
 10
53.04447351765738
 20
-3.0585223642306341
 30
0.0
 11
53.275870365105888
 21
-3.0585223642306341
 31
0.0
  0
LINE
  5
C36
  8
0
 62
     0
 10
50.663223517657372
 20
-3.0585223642306332
 30
0.0
 11
51.456973517657381
 21
-3.0585223642306332
 31
0.0
  0
LINE
  5
C37
  8
0
 62
     0
 10
48.890409378016642
 20
-3.0585223642306332
 30
0.0
 11
49.07572351765738
 21
-3.0585223642306332
 31
0.0
  0
LINE
  5
C38
  8
0
 62
     0
 10
53.04447351765738
 20
-1.683707364230735
 30
0.0
 11
53.838223517657369
 21
-1.683707364230735
 31
0.0
  0
LINE
  5
C39
  8
0
 62
     0
 10
50.663223517657372
 20
-1.6837073642307341
 30
0.0
 11
51.456973517657367
 21
-1.6837073642307341
 31
0.0
  0
LINE
  5
C3A
  8
0
 62
     0
 10
48.28197351765737
 20
-1.6837073642307341
 30
0.0
 11
49.075723517657373
 21
-1.6837073642307341
 31
0.0
  0
LINE
  5
C3B
  8
0
 62
     0
 10
53.04447351765738
 20
-0.308892364230723
 30
0.0
 11
53.838223517657369
 21
-0.3088923642307232
 31
0.0
  0
LINE
  5
C3C
  8
0
 62
     0
 10
50.663223517657372
 20
-0.3088923642307224
 30
0.0
 11
51.456973517657367
 21
-0.3088923642307226
 31
0.0
  0
LINE
  5
C3D
  8
0
 62
     0
 10
48.28197351765737
 20
-0.3088923642307217
 30
0.0
 11
49.075723517657373
 21
-0.308892364230722
 31
0.0
  0
LINE
  5
C3E
  8
0
 62
     0
 10
53.04447351765738
 20
1.065922635769289
 30
0.0
 11
53.838223517657383
 21
1.065922635769289
 31
0.0
  0
LINE
  5
C3F
  8
0
 62
     0
 10
50.663223517657372
 20
1.065922635769289
 30
0.0
 11
51.456973517657381
 21
1.065922635769289
 31
0.0
  0
LINE
  5
C40
  8
0
 62
     0
 10
48.28197351765737
 20
1.0659226357692899
 30
0.0
 11
49.07572351765738
 21
1.0659226357692899
 31
0.0
  0
LINE
  5
C41
  8
0
 62
     0
 10
53.04447351765738
 20
2.4407376357693011
 30
0.0
 11
53.838223517657383
 21
2.4407376357693011
 31
0.0
  0
LINE
  5
C42
  8
0
 62
     0
 10
50.663223517657372
 20
2.440737635769302
 30
0.0
 11
51.456973517657381
 21
2.440737635769302
 31
0.0
  0
LINE
  5
C43
  8
0
 62
     0
 10
48.28197351765737
 20
2.440737635769302
 30
0.0
 11
49.07572351765738
 21
2.440737635769302
 31
0.0
  0
LINE
  5
C44
  8
0
 62
     0
 10
53.04447351765738
 20
3.815552635769313
 30
0.0
 11
53.838223517657383
 21
3.815552635769313
 31
0.0
  0
LINE
  5
C45
  8
0
 62
     0
 10
50.663223517657372
 20
3.8155526357693139
 30
0.0
 11
51.456973517657381
 21
3.8155526357693139
 31
0.0
  0
LINE
  5
C46
  8
0
 62
     0
 10
48.28197351765737
 20
3.8155526357693139
 30
0.0
 11
49.07572351765738
 21
3.8155526357693139
 31
0.0
  0
LINE
  5
C47
  8
0
 62
     0
 10
53.04447351765738
 20
5.190367635769328
 30
0.0
 11
53.838223517657383
 21
5.190367635769328
 31
0.0
  0
LINE
  5
C48
  8
0
 62
     0
 10
50.663223517657372
 20
5.190367635769328
 30
0.0
 11
51.456973517657381
 21
5.190367635769328
 31
0.0
  0
LINE
  5
C49
  8
0
 62
     0
 10
48.28197351765737
 20
5.190367635769328
 30
0.0
 11
49.07572351765738
 21
5.190367635769328
 31
0.0
  0
LINE
  5
C4A
  8
0
 62
     0
 10
53.04447351765738
 20
6.5651826357693404
 30
0.0
 11
53.838223517657383
 21
6.5651826357693404
 31
0.0
  0
LINE
  5
C4B
  8
0
 62
     0
 10
50.663223517657372
 20
6.5651826357693404
 30
0.0
 11
51.456973517657381
 21
6.5651826357693404
 31
0.0
  0
LINE
  5
C4C
  8
0
 62
     0
 10
48.28197351765737
 20
6.5651826357693404
 30
0.0
 11
49.07572351765738
 21
6.5651826357693404
 31
0.0
  0
LINE
  5
C4D
  8
0
 62
     0
 10
53.04447351765738
 20
7.9399976357693509
 30
0.0
 11
53.838223517657383
 21
7.9399976357693509
 31
0.0
  0
LINE
  5
C4E
  8
0
 62
     0
 10
50.663223517657372
 20
7.9399976357693509
 30
0.0
 11
51.456973517657381
 21
7.9399976357693509
 31
0.0
  0
LINE
  5
C4F
  8
0
 62
     0
 10
48.28197351765737
 20
7.9399976357693509
 30
0.0
 11
49.07572351765738
 21
7.9399976357693509
 31
0.0
  0
LINE
  5
C50
  8
0
 62
     0
 10
53.04447351765738
 20
9.3148126357693641
 30
0.0
 11
53.148049786262732
 21
9.3148126357693641
 31
0.0
  0
LINE
  5
C51
  8
0
 62
     0
 10
50.663223517657379
 20
9.3148126357693641
 30
0.0
 11
51.456973517657389
 21
9.3148126357693641
 31
0.0
  0
LINE
  5
C52
  8
0
 62
     0
 10
49.018229956859791
 20
9.3148126357693641
 30
0.0
 11
49.075723517657387
 21
9.3148126357693641
 31
0.0
  0
ENDBLK
  5
C54
  8
0
  0
BLOCK
  8
0
  2
*U37
 70
     1
 10
0.0
 20
0.0
 30
0.0
  3
*U37
  1

  0
TEXT
  5
C76
  8
0
 62
     2
 10
-12.150000000000089
 20
-54.995009707414042
 30
0.0
 40
3.0
  1
5
 50
90.0
  7
ISO
  0
ENDBLK
  5
C78
  8
0
  0
BLOCK
  8
0
  2
*U38
 70
     1
 10
0.0
 20
0.0
 30
0.0
  3
*U38
  1

  0
TEXT
  5
C7A
  8
0
 62
     2
 10
-12.15000000000015
 20
-78.795009707413868
 30
0.0
 40
3.0
  1
37.5
 50
90.0
  7
ISO
  0
ENDBLK
  5
C7C
  8
0
  0
BLOCK
  8
0
  2
*U39
 70
     1
 10
0.0
 20
0.0
 30
0.0
  3
*U39
  1

  0
TEXT
  5
C7E
  8
0
 62
     2
 10
-22.150000000000091
 20
-50.445009707413931
 30
0.0
 40
3.0
  1
94.5
 50
90.0
  7
ISO
  0
ENDBLK
  5
C80
  8
0
  0
BLOCK
  8
0
  2
*U40
 70
     1
 10
0.0
 20
0.0
 30
0.0
  3
*U40
  1

  0
TEXT
  5
C82
  8
0
 62
     2
 10
-12.150000000000089
 20
-27.545009707414099
 30
0.0
 40
3.0
  1
52
 50
90.0
  7
ISO
  0
ENDBLK
  5
C84
  8
0
  0
BLOCK
  8
0
  2
*U41
 70
     1
 10
0.0
 20
0.0
 30
0.0
  3
*U41
  1

  0
TEXT
  5
DD4
  8
0
 10
270.93920250063343
 20
387.08892739371998
 30
0.0
 40
3.0
  1
22
 50
90.0
  7
BYGG-014203$0$ISO
  0
ENDBLK
  5
DD6
  8
0
  0
BLOCK
  8
0
  2
*U42
 70
     1
 10
0.0
 20
0.0
 30
0.0
  3
*U42
  1

  0
TEXT
  5
DD8
  8
0
 10
243.50583563664401
 20
408.3346351471406
 30
0.0
 40
3.0
  1
29
  7
BYGG-014203$0$ISO
  0
ENDBLK
  5
DDA
  8
0
  0
BLOCK
  8
0
  2
*U43
 70
     1
 10
0.0
 20
0.0
 30
0.0
  3
*U43
  1

  0
TEXT
  5
E06
  8
0
 10
390.1780776668399
 20
317.40913201481749
 30
0.0
 40
3.0
  1
50
  7
BYGG-014880$0$ISO
  0
ENDBLK
  5
E08
  8
0
  0
BLOCK
  8
0
  2
*U44
 70
     1
 10
0.0
 20
0.0
 30
0.0
  3
*U44
  1

  0
TEXT
  5
E0A
  8
0
 10
429.15372879532379
 20
337.94481986764117
 30
0.0
 40
3.0
  1
30
 50
90.0
  7
BYGG-014880$0$ISO
  0
ENDBLK
  5
E0C
  8
0
  0
BLOCK
  8
0
  2
*U45
 70
     1
 10
0.0
 20
0.0
 30
0.0
  3
*U45
  1

  0
TEXT
  5
E0E
  8
0
 10
356.23499454358489
 20
348.85591238732621
 30
0.0
 40
3.0
  1
52
 50
90.0
  7
BYGG-014880$0$ISO
  0
ENDBLK
  5
E10
  8
0
  0
BLOCK
  8
0
  2
*U46
 70
     1
 10
0.0
 20
0.0
 30
0.0
  3
*U46
  1

  0
LINE
  5
E93
  8
0
 10
373.77925876920199
 20
376.74600097000342
 30
0.0
 11
373.77925876920199
 21
357.38541808598251
 31
0.0
  0
LINE
  5
E94
  8
0
 10
373.77925876920199
 20
357.38541808598251
 30
0.0
 11
416.89144436663122
 21
357.38541808598251
 31
0.0
  0
LINE
  5
E95
  8
0
 10
372.77925876920199
 20
376.74600097000342
 30
0.0
 11
372.77925876920199
 21
356.38541808598239
 31
0.0
  0
LINE
  5
E96
  8
0
 10
372.77925876920199
 20
356.38541808598239
 30
0.0
 11
416.89144436663122
 21
356.38541808598239
 31
0.0
  0
ENDBLK
  5
E98
  8
0
  0
BLOCK
  8
0
  2
*U47
 70
     1
 10
0.0
 20
0.0
 30
0.0
  3
*U47
  1

  0
TEXT
  5
F96
  8
0
 10
81.417346958671715
 20
29.082626421487749
 30
0.0
 40
3.0
  1
59.5
 50
90.0
  7
BYGG-014878$0$ISO
  0
ENDBLK
  5
F98
  8
0
  0
BLOCK
  8
0
  2
*U48
 70
     1
 10
0.0
 20
0.0
 30
0.0
  3
*U48
  1

  0
TEXT
  5
F9A
  8
0
 10
33.58786785760504
 20
-7.5905416883964838
 30
0.0
 40
3.0
  1
70.5
  7
BYGG-014878$0$ISO
  0
ENDBLK
  5
F9C
  8
0
  0
BLOCK
  8
0
  2
*U49
 70
     1
 10
0.0
 20
0.0
 30
0.0
  3
*U49
  1

  0
TEXT
  5
FF4
  8
0
 10
31.748818897637879
 20
10.19185924777179
 30
0.0
 40
3.0
  1
50
  7
BYGG-014880$0$ISO
  0
ENDBLK
  5
FF6
  8
0
  0
BLOCK
  8
0
  2
*U50
 70
     1
 10
0.0
 20
0.0
 30
0.0
  3
*U50
  1

  0
TEXT
  5
FF8
  8
0
 10
70.724470026121935
 20
-16.54619080977621
 30
0.0
 40
3.0
  1
30
 50
90.0
  7
BYGG-014880$0$ISO
  0
ENDBLK
  5
FFA
  8
0
  0
BLOCK
  8
0
  2
*U51
 70
     1
 10
0.0
 20
0.0
 30
0.0
  3
*U51
  1

  0
TEXT
  5
FFC
  8
0
 10
-2.194264225617097
 20
-27.63509829009115
 30
0.0
 40
3.0
  1
52
 50
90.0
  7
BYGG-014880$0$ISO
  0
ENDBLK
  5
FFE
  8
0
  0
BLOCK
  8
0
  2
*U52
 70
     1
 10
0.0
 20
0.0
 30
0.0
  3
*U52
  1

  0
TEXT
  5
1000
  8
0
 10
42.267373530097281
 20
-14.527662640703159
 30
0.0
 40
3.0
  1
59.5
 50
180.0
  7
BYGG-014878$0$ISO
  0
ENDBLK
  5
1002
  8
0
  0
BLOCK
  8
0
  2
*U53
 70
     1
 10
0.0
 20
0.0
 30
0.0
  3
*U53
  1

  0
TEXT
  5
1004
  8
0
 10
-3.7405416399816951
 20
-62.357141741769837
 30
0.0
 40
3.0
  1
70.5
 50
90.000000000000028
  7
BYGG-014878$0$ISO
  0
ENDBLK
  5
1006
  8
0
  0
BLOCK
  8
0
  2
*U54
 70
     1
 10
0.0
 20
0.0
 30
0.0
  3
*U54
  1

  0
TEXT
  5
1008
  8
0
 10
69.611472082175865
 20
-85.364028430960545
 30
0.0
 40
3.0
  1
22
 50
90.0
  7
BYGG-014203$0$ISO
  0
ENDBLK
  5
100A
  8
0
  0
BLOCK
  8
0
  2
*U55
 70
     1
 10
0.0
 20
0.0
 30
0.0
  3
*U55
  1

  0
TEXT
  5
100C
  8
0
 10
42.178105218186573
 20
-100.3051495702081
 30
0.0
 40
3.0
  1
29
  7
BYGG-014203$0$ISO
  0
ENDBLK
  5
100E
  8
0
  0
BLOCK
  8
0
  2
*U56
 70
     1
 10
0.0
 20
0.0
 30
0.0
  3
*U56
  1

  0
TEXT
  5
14D0
  8
SAPA_MATT
 62
     2
 10
-22.150000000000091
 20
-50.445009707413931
 30
0.0
 40
3.0
  1
94.5
 50
90.0
  7
ISO
  0
ENDBLK
  5
14D2
  8
0
  0
BLOCK
  8
0
  2
*U57
 70
     1
 10
0.0
 20
0.0
 30
0.0
  3
*U57
  1

  0
TEXT
  5
14D4
  8
SAPA_MATT
 62
     2
 10
-12.150000000000089
 20
-27.545009707414099
 30
0.0
 40
3.0
  1
52
 50
90.0
  7
ISO
  0
ENDBLK
  5
14D6
  8
0
  0
ENDSEC
  0
SECTION
  2
ENTITIES
  0
INSERT
  5
753
  8
SAPA_ANSLUTNING
  6
CONTINUOUS
  2
*X34
 10
0.0
 20
0.0
 30
0.0
1001
ACAD
1000
HATCH
1002
{
1070
    19
1000
HEX
1040
0.25
1040
-0.0000000000000002
1000
ASC_BOUNDS
1070
     1
1070
     1
1070
     9
1005
75A
1005
75B
1005
75C
1005
754
1005
755
1005
756
1005
757
1005
758
1005
759
1000
ASC_SEEDPOINT
1011
15.74232923597163
1021
0.0
1031
0.0
1021
1.7011068099929501
1031
0.0
1000
R14_HATCH_DATA
1000
753
1011
1.0
1021
0.0
1031
0.0
1021
0.0
1031
0.0
1011
0.0
1021
0.0
1031
0.0
1021
1.0
1031
0.0
1011
0.0
1021
0.0
1031
0.0
1021
0.0
1031
1.0
1040
0.0
1010
0.0
1020
0.0
1030
1.0
1000
HEX
1070
     0
1070
     1
1071
        1
1071
        7
1070
     1
1070
     1
1071
        9
1040
13.3279824873282
1040
-0.3229131099888598
1040
0.0
1040
13.3279824873282
1040
-1.7738101660355019
1040
0.0
1040
11.92488253224349
1040
-1.7738101660355019
1040
1.003947838497945
1040
11.90824329404256
1040
-3.9485113267241441
1040
0.0
1040
19.02488253224363
1040
-3.9485113267242009
1040
0.0
1040
19.02488253224363
1040
10.05148867327585
1040
0.0
1040
9.024882532243625
1040
10.05148867327585
1040
0.0
1040
9.0248825322436268
1040
1.051488673275855
1040
0.0
1040
12.174722457901339
1040
1.051488673275855
1040
0.0
1071
        9
1005
759
1005
758
1005
757
1005
756
1005
755
1005
754
1005
75C
1005
75B
1005
75A
1070
     0
1070
     1
1040
-0.0000000000000002
1040
0.25
1070
     0
1070
     3
1040
6.2831853071795862
1040
-37.443026482342738
1040
-536.48674236423062
1040
0.0000000000000003
1040
1.374814999999999
1070
     2
1040
0.79375
1040
-1.587499999999999
1040
2.0943951023931939
1040
-37.443026482342738
1040
-536.48674236423062
1040
-1.1906247155039029
1040
-0.6874074999999993
1070
     2
1040
0.7937499999999995
1040
-1.587499999999999
1040
1.047197551196597
1040
-36.649276482342763
1040
-536.48674236423062
1040
-1.190624715503902
1040
0.6874075000000004
1070
     2
1040
0.79375
1040
-1.587499999999999
1040
0.039264581650172
1071
        1
1040
15.74232923597163
1040
1.7011068099929501
1040
0.0
1002
}
  0
LINE
  5
754
  8
SAPA_ANSLUTNING
 10
11.92488253224349
 20
-1.7738101660355019
 30
0.0
 11
13.3279824873282
 21
-1.7738101660355019
 31
0.0
1001
ACAD
1000
ASC_BOUNDS
1002
{
1070
    19
1005
753
1002
}
  0
LINE
  5
755
  8
SAPA_ANSLUTNING
 10
13.3279824873282
 20
-1.7738101660355019
 30
0.0
 11
13.3279824873282
 21
-0.3229131099888605
 31
0.0
1001
ACAD
1000
ASC_BOUNDS
1002
{
1070
    19
1005
753
1002
}
  0
LINE
  5
756
  8
SAPA_ANSLUTNING
 10
13.3279824873282
 20
-0.3229131099888605
 30
0.0
 11
12.174722457901339
 21
1.051488673275855
 31
0.0
1001
ACAD
1000
ASC_BOUNDS
1002
{
1070
    19
1005
753
1002
}
  0
LINE
  5
757
  8
SAPA_ANSLUTNING
 10
12.174722457901339
 20
1.051488673275855
 30
0.0
 11
9.0248825322436268
 21
1.051488673275855
 31
0.0
1001
ACAD
1000
ASC_BOUNDS
1002
{
1070
    19
1005
753
1002
}
  0
LINE
  5
758
  8
SAPA_ANSLUTNING
 10
9.0248825322436268
 20
1.051488673275855
 30
0.0
 11
9.0248825322436268
 21
10.05148867327585
 31
0.0
1001
ACAD
1000
ASC_BOUNDS
1002
{
1070
    19
1005
753
1002
}
  0
LINE
  5
759
  8
SAPA_ANSLUTNING
 10
9.0248825322436268
 20
10.05148867327585
 30
0.0
 11
19.02488253224363
 21
10.05148867327585
 31
0.0
1001
ACAD
1000
ASC_BOUNDS
1002
{
1070
    19
1005
753
1002
}
  0
LINE
  5
75A
  8
SAPA_ANSLUTNING
 10
19.02488253224363
 20
10.05148867327585
 30
0.0
 11
19.02488253224363
 21
-3.9485113267242009
 31
0.0
1001
ACAD
1000
ASC_BOUNDS
1002
{
1070
    19
1005
753
1002
}
  0
LINE
  5
75B
  8
SAPA_ANSLUTNING
 10
19.02488253224363
 20
-3.9485113267242009
 30
0.0
 11
11.90824329404256
 21
-3.9485113267241441
 31
0.0
1001
ACAD
1000
ASC_BOUNDS
1002
{
1070
    19
1005
753
1002
}
  0
ARC
  5
75C
  8
SAPA_ANSLUTNING
 10
11.91227866875033
 20
-2.861127966444712
 30
0.0
 40
1.0873908480678049
 50
89.335874165191996
 51
269.78737132961243
1001
ACAD
1000
ASC_BOUNDS
1002
{
1070
    19
1005
753
1002
}
  0
INSERT
  5
75D
  8
SAPA_ANSLUTNING
  6
CONTINUOUS
  2
*X35
 10
0.0
 20
0.0
 30
0.0
1001
ACAD
1000
HATCH
1002
{
1070
    19
1000
ANSI37
1040
0.5
1040
-0.0000000000000002
1000
R14_HATCH_DATA
1000
75D
1011
1.0
1021
0.0
1031
0.0
1021
0.0
1031
0.0
1011
0.0
1021
0.0
1031
0.0
1021
1.0
1031
0.0
1011
0.0
1021
0.0
1031
0.0
1021
0.0
1031
1.0
1040
0.0
1010
0.0
1020
0.0
1030
1.0
1000
ANSI37
1070
     0
1070
     0
1071
        1
1071
        7
1070
     1
1070
     1
1071
       16
1040
59.024533882652001
1040
10.55033014803694
1040
0.0
1040
51.083139871561222
1040
10.55033014803694
1040
0.0
1040
51.083139871561222
1040
10.464584801957409
1040
-0.167892009687238
1040
52.42435939503639
1040
10.00116188075145
1040
-0.1053277233169264
1040
53.849721371886631
1040
8.2935550344403097
1040
-0.0677080186897229
1040
54.67259950590676
1040
6.0424912852478689
1040
-0.0538647880861766
1040
54.995676950731877
1040
3.052225525385146
1040
-0.0538647880861769
1040
54.67259950590676
1040
0.0619597655223672
1040
-0.0157110904928575
1040
54.536212543847
1040
-0.4796912606834738
1040
0.0
1040
54.85000000000025
1040
-0.5692737761264725
1040
-0.1989123673799612
1040
54.937867965644386
1040
-0.357141741769972
1040
0.0
1040
55.762132034356107
1040
0.4671223269415279
1040
-0.19891236737974
1040
55.974264068712159
1040
0.5549902925856644
1040
0.0
1040
58.550000000000068
1040
0.5549902925856644
1040
-0.2543709654409035
1040
58.801848481813522
1040
0.4180005444359196
1040
0.0
1040
59.024882532244078
1040
0.5514886732754505
1040
-0.2032017886952708
1071
        0
1070
     0
1070
     1
1040
-0.0000000000000002
1040
0.5
1070
     0
1070
     2
1040
0.7853981633974481
1040
-37.443026482342738
1040
-536.48674236423062
1040
-1.1225320151336431
1040
1.122532015133644
1070
     0
1040
2.3561944901923439
1040
-37.443026482342738
1040
-536.48674236423062
1040
-1.122532015133644
1040
-1.1225320151336431
1070
     0
1040
0.1183068881037046
1071
        1
1040
56.4892049027643
1040
7.6359098471027016
1040
0.0
1002
}
  0
INSERT
  5
75E
  8
SAPA_ANSLUTNING
  6
CONTINUOUS
  2
*X36
 10
0.0
 20
0.0
 30
0.0
1001
ACAD
1000
HATCH
1002
{
1070
    19
1000
HEX
1040
0.25
1040
-0.0000000000000002
1000
ASC_BOUNDS
1070
     1
1070
     1
1070
     1
1005
75F
1000
ASC_SEEDPOINT
1011
50.274046825284238
1021
0.0
1031
0.0
1021
3.193161545537627
1031
0.0
1000
R14_HATCH_DATA
1000
75E
1011
1.0
1021
0.0
1031
0.0
1021
0.0
1031
0.0
1011
0.0
1021
0.0
1031
0.0
1021
1.0
1031
0.0
1011
0.0
1021
0.0
1031
0.0
1021
0.0
1031
1.0
1040
0.0
1010
0.0
1020
0.0
1030
1.0
1000
HEX
1070
     0
1070
     1
1071
        1
1071
        7
1070
     1
1070
     1
1071
       16
1040
47.170602792390703
1040
3.052225525385146
1040
0.0538647880861873
1040
47.493680237215813
1040
0.0619597655219124
1040
0.0677080186897085
1040
48.316558371235828
1040
-2.1891039836700719
1040
0.1053277233169232
1040
49.741920348086069
1040
-3.8967108299810951
1040
0.167892009687237
1040
51.083139871561222
1040
-4.3601337511870559
1040
0.1678920096872347
1040
52.424359395036497
1040
-3.8967108299810951
1040
0.1053277233169209
1040
53.849721371886631
1040
-2.1891039836700719
1040
0.06770801868971
1040
54.67259950590676
1040
0.0619597655219124
1040
0.0538647880861852
1040
54.995676950731877
1040
3.052225525385146
1040
0.053864788086187
1040
54.672599505906653
1040
6.0424912852484383
1040
0.0677080186897101
1040
53.849721371886631
1040
8.2935550344404234
1040
0.10532772331692
1040
52.424359395036497
1040
10.00116188075145
1040
0.1678920096872431
1040
51.083139871561222
1040
10.464584801957409
1040
0.1678920096872415
1040
49.741920348086069
1040
10.00116188075145
1040
0.1053277233169233
1040
48.316558371235828
1040
8.2935550344404234
1040
0.0677080186897123
1040
47.493680237215813
1040
6.0424912852483237
1040
0.0538647880861899
1071
        1
1005
75F
1070
     0
1070
     1
1040
-0.0000000000000002
1040
0.25
1070
     0
1070
     3
1040
6.2831853071795862
1040
-37.443026482342738
1040
-536.48674236423062
1040
0.0000000000000003
1040
1.374814999999999
1070
     2
1040
0.79375
1040
-1.587499999999999
1040
2.0943951023931939
1040
-37.443026482342738
1040
-536.48674236423062
1040
-1.1906247155039029
1040
-0.6874074999999993
1070
     2
1040
0.7937499999999995
1040
-1.587499999999999
1040
1.047197551196597
1040
-36.649276482342763
1040
-536.48674236423062
1040
-1.190624715503902
1040
0.6874075000000004
1070
     2
1040
0.79375
1040
-1.587499999999999
1040
0.039264581650172
1071
        1
1040
50.274046825284238
1040
3.193161545537627
1040
0.0
1002
}
  0
POLYLINE
  5
75F
  8
SAPA_ANSLUTNING
 66
     1
 10
0.0
 20
0.0
 30
0.0
 70
     1
1001
ACAD
1000
ASC_BOUNDS
1002
{
1070
    19
1005
75E
1002
}
  0
VERTEX
  5
C55
  8
SAPA_ANSLUTNING
 10
51.083139871561222
 20
-4.3601337511870559
 30
0.0
 42
0.1678920096872347
  0
VERTEX
  5
C56
  8
SAPA_ANSLUTNING
 10
52.424359395036497
 20
-3.8967108299810951
 30
0.0
 42
0.1053277233169209
  0
VERTEX
  5
C57
  8
SAPA_ANSLUTNING
 10
53.849721371886631
 20
-2.1891039836700719
 30
0.0
 42
0.0677080186897101
  0
VERTEX
  5
C58
  8
SAPA_ANSLUTNING
 10
54.67259950590676
 20
0.0619597655219124
 30
0.0
 42
0.0538647880861852
  0
VERTEX
  5
C59
  8
SAPA_ANSLUTNING
 10
54.995676950731877
 20
3.052225525385146
 30
0.0
 42
0.053864788086187
  0
VERTEX
  5
C5A
  8
SAPA_ANSLUTNING
 10
54.672599505906653
 20
6.0424912852484383
 30
0.0
 42
0.0677080186897101
  0
VERTEX
  5
C5B
  8
SAPA_ANSLUTNING
 10
53.849721371886631
 20
8.2935550344404234
 30
0.0
 42
0.10532772331692
  0
VERTEX
  5
C5C
  8
SAPA_ANSLUTNING
 10
52.424359395036497
 20
10.00116188075145
 30
0.0
 42
0.167892009687243
  0
VERTEX
  5
C5D
  8
SAPA_ANSLUTNING
 10
51.083139871561222
 20
10.464584801957409
 30
0.0
 42
0.1678920096872415
  0
VERTEX
  5
C5E
  8
SAPA_ANSLUTNING
 10
49.741920348086069
 20
10.00116188075145
 30
0.0
 42
0.1053277233169233
  0
VERTEX
  5
C5F
  8
SAPA_ANSLUTNING
 10
48.316558371235828
 20
8.2935550344404234
 30
0.0
 42
0.0677080186897123
  0
VERTEX
  5
C60
  8
SAPA_ANSLUTNING
 10
47.493680237215813
 20
6.0424912852483237
 30
0.0
 42
0.0538647880861899
  0
VERTEX
  5
C61
  8
SAPA_ANSLUTNING
 10
47.170602792390703
 20
3.052225525385146
 30
0.0
 42
0.0538647880861873
  0
VERTEX
  5
C62
  8
SAPA_ANSLUTNING
 10
47.493680237215813
 20
0.0619597655219124
 30
0.0
 42
0.0677080186897085
  0
VERTEX
  5
C63
  8
SAPA_ANSLUTNING
 10
48.316558371235828
 20
-2.1891039836700719
 30
0.0
 42
0.1053277233169232
  0
VERTEX
  5
C64
  8
SAPA_ANSLUTNING
 10
49.741920348086069
 20
-3.8967108299810951
 30
0.0
 42
0.167892009687237
  0
SEQEND
  5
C65
  8
SAPA_ANSLUTNING
  0
ARC
  5
760
  8
SAPA_ANSLUTNING
 10
70.818378558050313
 20
5.5513206441342389
 30
0.0
 40
12.809561594665579
 50
157.02556890674009
 51
202.97443109325991
  0
POLYLINE
  5
761
  8
SAPA_ANSLUTNING
 66
     1
 10
0.0
 20
0.0
 30
0.0
  0
VERTEX
  5
C66
  8
SAPA_ANSLUTNING
 10
19.963726575791839
 20
-1.9586340663757931
 30
0.0
 42
0.9999999999999998
  0
VERTEX
  5
C67
  8
SAPA_ANSLUTNING
 10
23.963726575791839
 20
-1.9586340663757931
 30
0.0
  0
VERTEX
  5
C68
  8
SAPA_ANSLUTNING
 10
23.963726575791618
 20
8.4979763800729984
 30
0.0
 42
-0.9999989466455052
  0
VERTEX
  5
C69
  8
SAPA_ANSLUTNING
 10
27.963726575787291
 20
8.4979805934931925
 30
0.0
  0
VERTEX
  5
C6A
  8
SAPA_ANSLUTNING
 10
27.963726575787291
 20
2.4979796659056879
 30
0.0
 42
0.9999999999999998
  0
VERTEX
  5
C6B
  8
SAPA_ANSLUTNING
 10
31.963726575787291
 20
2.4979796659056852
 30
0.0
  0
VERTEX
  5
C6C
  8
SAPA_ANSLUTNING
 10
31.963726575787071
 20
8.4979832252714083
 30
0.0
 42
-0.9999974985601646
  0
VERTEX
  5
C6D
  8
SAPA_ANSLUTNING
 10
35.963726575774558
 20
8.4979832252714083
 30
0.0
  0
VERTEX
  5
C6E
  8
SAPA_ANSLUTNING
 10
35.963726575774558
 20
2.4979796659056852
 30
0.0
 42
0.9999999999999998
  0
VERTEX
  5
C6F
  8
SAPA_ANSLUTNING
 10
39.963726575774558
 20
2.4979796659056852
 30
0.0
  0
VERTEX
  5
C70
  8
SAPA_ANSLUTNING
 10
39.963726575774558
 20
8.4979805934931925
 30
0.0
 42
-0.9999989466455052
  0
VERTEX
  5
C71
  8
SAPA_ANSLUTNING
 10
43.963726575770238
 20
8.4979763800729913
 30
0.0
  0
VERTEX
  5
C72
  8
SAPA_ANSLUTNING
 10
43.963726575770011
 20
-1.9586340663758
 30
0.0
 42
0.9999999999999998
  0
VERTEX
  5
C73
  8
SAPA_ANSLUTNING
 10
47.963726575770011
 20
-1.9586340663758
 30
0.0
  0
SEQEND
  5
C74
  8
SAPA_ANSLUTNING
  0
LINE
  5
762
  8
SAPA_ANSLUTNING
 10
-8.0636585861094527
 20
10.55033014803695
 30
0.0
 11
74.573577187519845
 21
10.550330148036929
 31
0.0
  0
TEXT
  5
764
  8
SAPA_ARTIKELNR
 10
65.551888914339798
 20
-89.410836708819303
 30
0.0
 40
3.5
  1
42077
 50
90.0
  7
ISO
  0
TEXT
  5
765
  8
SAPA_ARTIKELNR
 10
64.766565885629348
 20
-20.194807604218958
 30
0.0
 40
3.5
  1
68902
 50
90.0
  7
ISO
  0
TEXT
  5
76C
  8
SAPA_ARTIKELNR
 10
74.037553224982858
 20
-51.358600251858697
 30
0.0
 40
3.5
  1
68810
 50
90.0
  7
ISO
  0
LINE
  5
8F0
  8
SAPA_LIGHT
 10
8.8500000000000654
 20
-51.442391746764493
 30
0.0
 11
8.8500000000001791
 21
0.5549902925857282
 31
0.0
  0
POLYLINE
  5
8F1
  8
SAPA_LIGHT
 66
     1
 10
0.0
 20
0.0
 30
0.0
 70
     1
  0
VERTEX
  5
C85
  8
SAPA_LIGHT
 10
17.250000000000039
 20
-76.945009707413718
 30
0.0
  0
VERTEX
  5
C86
  8
SAPA_LIGHT
 10
23.250000000000039
 20
-76.945009707413718
 30
0.0
  0
VERTEX
  5
C87
  8
SAPA_LIGHT
 10
23.250000000000039
 20
-109.860684729797
 30
0.0
  0
VERTEX
  5
C88
  8
SAPA_LIGHT
 10
17.250000000000039
 20
-109.860684729797
 30
0.0
  0
SEQEND
  5
C89
  8
SAPA_LIGHT
  0
LINE
  5
8F2
  8
SAPA_LIGHT
 10
-8.0636585861095256
 20
10.55033014803695
 30
0.0
 11
74.573577187519774
 21
10.550330148036929
 31
0.0
  0
POLYLINE
  5
8F3
  8
SAPA_LIGHT
 66
     1
 10
0.0
 20
0.0
 30
0.0
  0
VERTEX
  5
C8A
  8
SAPA_LIGHT
 10
17.250000000000039
 20
-93.945009707413945
 30
0.0
  0
VERTEX
  5
C8B
  8
SAPA_LIGHT
 10
8.8499999999998238
 20
-93.945009707413718
 30
0.0
  0
VERTEX
  5
C8C
  8
SAPA_LIGHT
 10
8.8500000000000654
 20
-56.445009707413831
 30
0.0
  0
VERTEX
  5
C8D
  8
SAPA_LIGHT
 10
14.29999999999999
 20
-56.445009707413831
 30
0.0
  0
VERTEX
  5
C8E
  8
SAPA_LIGHT
 10
14.29999999999999
 20
-40.945009707413767
 30
0.0
  0
VERTEX
  5
C8F
  8
SAPA_LIGHT
 10
58.849999999999952
 20
-40.945009707413767
 30
0.0
  0
VERTEX
  5
C90
  8
SAPA_LIGHT
 10
58.849999999999952
 20
-23.445009707413771
 30
0.0
  0
VERTEX
  5
C91
  8
SAPA_LIGHT
 10
68.349999999999724
 20
-23.445009707413661
 30
0.0
  0
VERTEX
  5
C92
  8
SAPA_LIGHT
 10
68.349999999999724
 20
-66.460182196690155
 30
0.0
  0
VERTEX
  5
C93
  8
SAPA_LIGHT
 10
58.849999999999952
 20
-71.945010431273047
 30
0.0
  0
VERTEX
  5
C94
  8
SAPA_LIGHT
 10
58.849999999999952
 20
-93.946123555301099
 30
0.0
  0
VERTEX
  5
C95
  8
SAPA_LIGHT
 10
23.25000000000016
 20
-93.945009707416219
 30
0.0
  0
SEQEND
  5
C96
  8
SAPA_LIGHT
  0
POLYLINE
  5
8F4
  8
SAPA_LIGHT
 66
     1
 10
0.0
 20
0.0
 30
0.0
 70
     1
  0
VERTEX
  5
C97
  8
SAPA_LIGHT
 10
13.34999999999995
 20
-51.445009707414293
 30
0.0
  0
VERTEX
  5
C98
  8
SAPA_LIGHT
 10
8.8499999999999517
 20
-51.445009707414293
 30
0.0
  0
VERTEX
  5
C99
  8
SAPA_LIGHT
 10
8.8500000000001791
 20
0.5549902925857282
 30
0.0
  0
VERTEX
  5
C9A
  8
SAPA_LIGHT
 10
58.849999999999952
 20
0.5549902925856572
 30
0.0
  0
VERTEX
  5
C9B
  8
SAPA_LIGHT
 10
58.849999999999952
 20
-29.445009707414169
 30
0.0
  0
VERTEX
  5
C9C
  8
SAPA_LIGHT
 10
13.34999999999995
 20
-29.445009707414169
 30
0.0
  0
SEQEND
  5
C9D
  8
SAPA_LIGHT
  0
POLYLINE
  5
AC6
  8
SAPA_PROFIL
 66
     1
 10
0.0
 20
0.0
 30
0.0
  0
VERTEX
  5
11BC
  8
SAPA_PROFIL
 10
42.528444819366449
 20
-74.823746628965807
 30
0.0
  0
VERTEX
  5
11BD
  8
SAPA_PROFIL
 10
41.847404885508148
 20
-91.945009707416133
 30
0.0
 42
0.4142135623730951
  0
VERTEX
  5
11BE
  8
SAPA_PROFIL
 10
42.347404885508148
 20
-92.445009707416148
 30
0.0
  0
VERTEX
  5
11BF
  8
SAPA_PROFIL
 10
54.147018368516882
 20
-92.445009707416105
 30
0.0
 42
0.4076767287637263
  0
VERTEX
  5
11C0
  8
SAPA_PROFIL
 10
57.146268200906427
 20
-89.512113356599187
 30
0.0
  0
VERTEX
  5
11C1
  8
SAPA_PROFIL
 10
57.300707423017229
 20
-74.823746628965807
 30
0.0
 42
0.4182129759575463
  0
VERTEX
  5
11C2
  8
SAPA_PROFIL
 10
56.805195702160063
 20
-74.312585516910303
 30
0.0
  0
VERTEX
  5
11C3
  8
SAPA_PROFIL
 10
54.330547946040689
 20
-74.299757915384589
 30
0.0
  0
VERTEX
  5
11C4
  8
SAPA_PROFIL
 10
52.704489989847133
 20
-72.645069317760772
 30
0.0
  0
VERTEX
  5
11C5
  8
SAPA_PROFIL
 10
52.704489989847133
 20
-68.095993283472581
 30
0.0
 42
-0.4293387945586749
  0
VERTEX
  5
11C6
  8
SAPA_PROFIL
 10
53.022601125836466
 20
-67.799266762388072
 30
0.0
  0
VERTEX
  5
11C7
  8
SAPA_PROFIL
 10
54.104056851106947
 20
-67.871906438515794
 30
0.0
 42
-0.4883397947196161
  0
VERTEX
  5
11C8
  8
SAPA_PROFIL
 10
53.883433916908729
 20
-69.433628264524145
 30
0.0
  0
VERTEX
  5
11C9
  8
SAPA_PROFIL
 10
53.883433916908729
 20
-72.132709540558551
 30
0.0
  0
VERTEX
  5
11CA
  8
SAPA_PROFIL
 10
54.838057137106603
 20
-73.104141186934669
 30
0.0
  0
VERTEX
  5
11CB
  8
SAPA_PROFIL
 10
57.33718327999167
 20
-73.104141186934669
 30
0.0
  0
VERTEX
  5
11CC
  8
SAPA_PROFIL
 10
57.33718327999167
 20
-72.630365520419787
 30
0.0
  0
VERTEX
  5
11CD
  8
SAPA_PROFIL
 10
58.849999999999902
 20
-72.630365520419787
 30
0.0
  0
VERTEX
  5
11CE
  8
SAPA_PROFIL
 10
58.850000000000023
 20
-93.647650414108227
 30
0.0
 42
-0.4116378201539302
  0
VERTEX
  5
11CF
  8
SAPA_PROFIL
 10
58.550011522329669
 20
-93.945009707416077
 30
0.0
  0
VERTEX
  5
11D0
  8
SAPA_PROFIL
 10
30.14740488550817
 20
-93.945009707416204
 30
0.0
 42
-0.414213562373095
  0
VERTEX
  5
11D1
  8
SAPA_PROFIL
 10
29.847404885508102
 20
-93.645009707416193
 30
0.0
  0
VERTEX
  5
11D2
  8
SAPA_PROFIL
 10
29.847404885508158
 20
-92.435009707416214
 30
0.0
 42
-0.4142135623731037
  0
VERTEX
  5
11D3
  8
SAPA_PROFIL
 10
30.837404885508111
 20
-91.445009707416148
 30
0.0
  0
VERTEX
  5
11D4
  8
SAPA_PROFIL
 10
30.847404885508158
 20
-91.445009707416148
 30
0.0
  0
VERTEX
  5
11D5
  8
SAPA_PROFIL
 10
30.847404885508158
 20
-92.695009707416148
 30
0.0
  0
VERTEX
  5
11D6
  8
SAPA_PROFIL
 10
32.347404885508162
 20
-92.695009707416148
 30
0.0
 42
0.4142135623730951
  0
VERTEX
  5
11D7
  8
SAPA_PROFIL
 10
32.847404885508162
 20
-92.195009707416148
 30
0.0
  0
VERTEX
  5
11D8
  8
SAPA_PROFIL
 10
32.847404885508162
 20
-84.195009707416133
 30
0.0
 42
0.4142135623730951
  0
VERTEX
  5
11D9
  8
SAPA_PROFIL
 10
32.347404885508162
 20
-83.695009707416148
 30
0.0
  0
VERTEX
  5
11DA
  8
SAPA_PROFIL
 10
30.847404885508158
 20
-83.695009707416148
 30
0.0
  0
VERTEX
  5
11DB
  8
SAPA_PROFIL
 10
30.847404885508158
 20
-84.945009707416148
 30
0.0
  0
VERTEX
  5
11DC
  8
SAPA_PROFIL
 10
30.837404885508111
 20
-84.945009707416148
 30
0.0
 42
-0.414213562373095
  0
VERTEX
  5
11DD
  8
SAPA_PROFIL
 10
29.847404885508102
 20
-83.955009707416195
 30
0.0
  0
VERTEX
  5
11DE
  8
SAPA_PROFIL
 10
29.847404885508158
 20
-83.445009707416204
 30
0.0
 42
-0.4142135623730953
  0
VERTEX
  5
11DF
  8
SAPA_PROFIL
 10
30.847404885508158
 20
-82.445009707416148
 30
0.0
  0
VERTEX
  5
11E0
  8
SAPA_PROFIL
 10
32.347404885508162
 20
-82.445009707416148
 30
0.0
 42
-0.4142135623730951
  0
VERTEX
  5
11E1
  8
SAPA_PROFIL
 10
34.047404885508143
 20
-84.145009707416136
 30
0.0
  0
VERTEX
  5
11E2
  8
SAPA_PROFIL
 10
34.0474048855082
 20
-91.945009707416133
 30
0.0
 42
0.414213562373095
  0
VERTEX
  5
11E3
  8
SAPA_PROFIL
 10
34.5474048855082
 20
-92.445009707416148
 30
0.0
  0
VERTEX
  5
11E4
  8
SAPA_PROFIL
 10
40.0474048855082
 20
-92.445009707416148
 30
0.0
 42
0.4142135623730951
  0
VERTEX
  5
11E5
  8
SAPA_PROFIL
 10
40.5474048855082
 20
-91.945009707416133
 30
0.0
  0
VERTEX
  5
11E6
  8
SAPA_PROFIL
 10
41.218614531974509
 20
-74.823746628965807
 30
0.0
  0
VERTEX
  5
11E7
  8
SAPA_PROFIL
 10
41.875552982703837
 20
-69.420799865216111
 30
0.0
 42
0.4666505291506209
  0
VERTEX
  5
11E8
  8
SAPA_PROFIL
 10
41.613721451659302
 20
-69.140998299297337
 30
0.0
  0
VERTEX
  5
11E9
  8
SAPA_PROFIL
 10
40.891065358100342
 20
-69.180541193215674
 30
0.0
 42
-0.7332303362618522
  0
VERTEX
  5
11EA
  8
SAPA_PROFIL
 10
40.690890769530171
 20
-68.644465170563365
 30
0.0
  0
VERTEX
  5
11EB
  8
SAPA_PROFIL
 10
42.800998109067869
 20
-67.873555053058965
 30
0.0
 42
-0.668178637919333
  0
VERTEX
  5
11EC
  8
SAPA_PROFIL
 10
43.28334596115868
 20
-68.146721248253243
 30
0.0
  0
VERTEX
  5
11ED
  8
SAPA_PROFIL
 10
42.528444819366449
 20
-74.823746628965807
 30
0.0
  0
VERTEX
  5
11EE
  8
SAPA_PROFIL
 10
42.537978271529568
 20
-74.823746628965807
 30
0.0
  0
SEQEND
  5
11EF
  8
SAPA_PROFIL
  0
POLYLINE
  5
AC7
  8
SAPA_PROFIL
 66
     1
 10
0.0
 20
0.0
 30
0.0
 70
     1
  0
VERTEX
  5
11F0
  8
SAPA_PROFIL
 10
10.649999999999901
 20
-59.845009707413737
 30
0.0
 42
-0.4142135623730951
  0
VERTEX
  5
11F1
  8
SAPA_PROFIL
 10
11.149999999999901
 20
-59.345009707413737
 30
0.0
  0
VERTEX
  5
11F2
  8
SAPA_PROFIL
 10
23.400000000000009
 20
-59.345009707413837
 30
0.0
 42
-0.4142135623730927
  0
VERTEX
  5
11F3
  8
SAPA_PROFIL
 10
23.900000000000009
 20
-59.845009707413837
 30
0.0
  0
VERTEX
  5
11F4
  8
SAPA_PROFIL
 10
23.899999999999959
 20
-64.745009707413942
 30
0.0
 42
-0.4142135623730943
  0
VERTEX
  5
11F5
  8
SAPA_PROFIL
 10
23.399999999999959
 20
-65.245009707413942
 30
0.0
  0
VERTEX
  5
11F6
  8
SAPA_PROFIL
 10
11.15000000000018
 20
-65.245009707413828
 30
0.0
 42
-0.4142135623730951
  0
VERTEX
  5
11F7
  8
SAPA_PROFIL
 10
10.65000000000018
 20
-64.745009707413828
 30
0.0
  0
SEQEND
  5
11F8
  8
SAPA_PROFIL
  0
POLYLINE
  5
AC8
  8
SAPA_PROFIL
 66
     1
 10
0.0
 20
0.0
 30
0.0
 70
     1
  0
VERTEX
  5
11F9
  8
SAPA_PROFIL
 10
31.551554573776428
 20
-42.645009707413912
 30
0.0
 42
0.2914734195861744
  0
VERTEX
  5
11FA
  8
SAPA_PROFIL
 10
31.098400680258099
 20
-42.933700576543622
 30
0.0
  0
VERTEX
  5
11FB
  8
SAPA_PROFIL
 10
29.643692212963259
 20
-46.053332951981119
 30
0.0
 42
0.1095178116832386
  0
VERTEX
  5
11FC
  8
SAPA_PROFIL
 10
29.54999999999993
 20
-46.475951213721821
 30
0.0
  0
VERTEX
  5
11FD
  8
SAPA_PROFIL
 10
29.54999999999993
 20
-50.645009707413912
 30
0.0
 42
-0.4142135623730951
  0
VERTEX
  5
11FE
  8
SAPA_PROFIL
 10
29.04999999999993
 20
-51.145009707413912
 30
0.0
  0
VERTEX
  5
11FF
  8
SAPA_PROFIL
 10
27.587939479458932
 20
-51.145009707413912
 30
0.0
 42
0.2914734195861007
  0
VERTEX
  5
1200
  8
SAPA_PROFIL
 10
27.134785585940602
 20
-51.433700576543622
 30
0.0
  0
VERTEX
  5
1201
  8
SAPA_PROFIL
 10
25.546846106481588
 20
-54.83904777959377
 30
0.0
 42
0.1095178116832193
  0
VERTEX
  5
1202
  8
SAPA_PROFIL
 10
25.499999999999918
 20
-55.050356910464068
 30
0.0
  0
VERTEX
  5
1203
  8
SAPA_PROFIL
 10
25.499999999999979
 20
-64.745009707413942
 30
0.0
 42
0.4142135623731019
  0
VERTEX
  5
1204
  8
SAPA_PROFIL
 10
25.999999999999979
 20
-65.245009707413942
 30
0.0
  0
VERTEX
  5
1205
  8
SAPA_PROFIL
 10
30.04999999999994
 20
-65.245009707413942
 30
0.0
 42
-0.4142135623730951
  0
VERTEX
  5
1206
  8
SAPA_PROFIL
 10
30.54999999999993
 20
-65.745009707413942
 30
0.0
  0
VERTEX
  5
1207
  8
SAPA_PROFIL
 10
30.54999999999993
 20
-69.545009707413897
 30
0.0
 42
0.4142135623730951
  0
VERTEX
  5
1208
  8
SAPA_PROFIL
 10
31.04999999999993
 20
-70.045009707413897
 30
0.0
  0
VERTEX
  5
1209
  8
SAPA_PROFIL
 10
36.649999999999963
 20
-70.045009707413897
 30
0.0
 42
0.4142135623730951
  0
VERTEX
  5
120A
  8
SAPA_PROFIL
 10
37.149999999999963
 20
-69.545009707413897
 30
0.0
  0
VERTEX
  5
120B
  8
SAPA_PROFIL
 10
37.149999999999963
 20
-65.745009707413942
 30
0.0
 42
-0.4142135623730951
  0
VERTEX
  5
120C
  8
SAPA_PROFIL
 10
37.649999999999963
 20
-65.245009707413942
 30
0.0
  0
VERTEX
  5
120D
  8
SAPA_PROFIL
 10
58.149999999999949
 20
-65.245009707413914
 30
0.0
 42
-0.4142135623730951
  0
VERTEX
  5
120E
  8
SAPA_PROFIL
 10
58.649999999999949
 20
-65.745009707413928
 30
0.0
  0
VERTEX
  5
120F
  8
SAPA_PROFIL
 10
58.65000000000007
 20
-69.231463707413909
 30
0.0
 42
0.5773499999999932
  0
VERTEX
  5
1210
  8
SAPA_PROFIL
 10
59.099999999999888
 20
-69.491271707413929
 30
0.0
  0
VERTEX
  5
1211
  8
SAPA_PROFIL
 10
65.849999999999994
 20
-65.594156707413831
 30
0.0
 42
0.267948999999997
  0
VERTEX
  5
1212
  8
SAPA_PROFIL
 10
66.349999999999994
 20
-64.728131707413795
 30
0.0
  0
VERTEX
  5
1213
  8
SAPA_PROFIL
 10
66.349999999999881
 20
-47.44500970741386
 30
0.0
 42
0.4142140000000792
  0
VERTEX
  5
1214
  8
SAPA_PROFIL
 10
65.849999999999881
 20
-46.94500970741386
 30
0.0
  0
VERTEX
  5
1215
  8
SAPA_PROFIL
 10
56.154999999999937
 20
-46.94500970741386
 30
0.0
 42
0.4142139999998795
  0
VERTEX
  5
1216
  8
SAPA_PROFIL
 10
55.65499999999971
 20
-47.445009707413973
 30
0.0
  0
VERTEX
  5
1217
  8
SAPA_PROFIL
 10
55.654999999999951
 20
-48.145009707413912
 30
0.0
 42
-0.4142139999999463
  0
VERTEX
  5
1218
  8
SAPA_PROFIL
 10
55.154999999999951
 20
-48.645009707413898
 30
0.0
  0
VERTEX
  5
1219
  8
SAPA_PROFIL
 10
40.75499999999991
 20
-48.645009707413912
 30
0.0
 42
-0.4142139999998796
  0
VERTEX
  5
121A
  8
SAPA_PROFIL
 10
40.254999999999683
 20
-48.145009707413799
 30
0.0
  0
VERTEX
  5
121B
  8
SAPA_PROFIL
 10
40.254999999999917
 20
-47.945009707413867
 30
0.0
 42
0.4142139999999461
  0
VERTEX
  5
121C
  8
SAPA_PROFIL
 10
39.75499999999991
 20
-47.445009707414087
 30
0.0
  0
VERTEX
  5
121D
  8
SAPA_PROFIL
 10
37.349999999999937
 20
-47.445009707413867
 30
0.0
 42
-0.4142135623730951
  0
VERTEX
  5
121E
  8
SAPA_PROFIL
 10
36.849999999999937
 20
-46.94500970741386
 30
0.0
  0
VERTEX
  5
121F
  8
SAPA_PROFIL
 10
36.849999999999937
 20
-43.145009707413912
 30
0.0
 42
0.4142135623730951
  0
VERTEX
  5
1220
  8
SAPA_PROFIL
 10
36.349999999999937
 20
-42.645009707413912
 30
0.0
  0
SEQEND
  5
1221
  8
SAPA_PROFIL
  0
POLYLINE
  5
AC9
  8
SAPA_PROFIL
 66
     1
 10
0.0
 20
0.0
 30
0.0
 70
     1
  0
VERTEX
  5
1222
  8
SAPA_PROFIL
 10
28.849999999999891
 20
-69.645009707413919
 30
0.0
  0
VERTEX
  5
1223
  8
SAPA_PROFIL
 10
28.849999999999891
 20
-67.245009707413942
 30
0.0
 42
0.4142135623730951
  0
VERTEX
  5
1224
  8
SAPA_PROFIL
 10
28.54999999999993
 20
-66.945009707413973
 30
0.0
  0
VERTEX
  5
1225
  8
SAPA_PROFIL
 10
20.500000656212858
 20
-66.945009707413973
 30
0.0
 42
-0.1316523369912118
  0
VERTEX
  5
1226
  8
SAPA_PROFIL
 10
20.35000082026594
 20
-66.904817423265285
 30
0.0
  0
VERTEX
  5
1227
  8
SAPA_PROFIL
 10
19.899999999999778
 20
-66.645009707413919
 30
0.0
  0
VERTEX
  5
1228
  8
SAPA_PROFIL
 10
19.450000262265501
 20
-66.904817298265471
 30
0.0
 42
-0.1316525489352833
  0
VERTEX
  5
1229
  8
SAPA_PROFIL
 10
19.30000020981257
 20
-66.945009707413874
 30
0.0
  0
VERTEX
  5
122A
  8
SAPA_PROFIL
 10
11.149999999999951
 20
-66.945009707413874
 30
0.0
 42
0.4142140000001461
  0
VERTEX
  5
122B
  8
SAPA_PROFIL
 10
10.84999999999989
 20
-67.245009707413942
 30
0.0
  0
VERTEX
  5
122C
  8
SAPA_PROFIL
 10
10.849999999999939
 20
-69.645009707413919
 30
0.0
 42
0.4142140000000906
  0
VERTEX
  5
122D
  8
SAPA_PROFIL
 10
11.149999999999951
 20
-69.945009707413874
 30
0.0
  0
VERTEX
  5
122E
  8
SAPA_PROFIL
 10
12.55000004467664
 20
-69.945009707413874
 30
0.0
 42
-0.5877030000000079
  0
VERTEX
  5
122F
  8
SAPA_PROFIL
 10
12.80504604467658
 20
-70.402970707413829
 30
0.0
  0
VERTEX
  5
1230
  8
SAPA_PROFIL
 10
11.908647044676609
 20
-71.850316707413867
 30
0.0
 42
-0.2596809999998896
  0
VERTEX
  5
1231
  8
SAPA_PROFIL
 10
11.738616044676609
 20
-71.94500970741376
 30
0.0
  0
VERTEX
  5
1232
  8
SAPA_PROFIL
 10
10.93808299999993
 20
-71.945009707413874
 30
0.0
 42
0.4023939999998733
  0
VERTEX
  5
1233
  8
SAPA_PROFIL
 10
10.638328999999979
 20
-72.23285670741393
 30
0.0
  0
VERTEX
  5
1234
  8
SAPA_PROFIL
 10
10.051529999999939
 20
-86.705915707413837
 30
0.0
 42
0.4373280000000294
  0
VERTEX
  5
1235
  8
SAPA_PROFIL
 10
10.54999999999999
 20
-87.245009707413828
 30
0.0
  0
VERTEX
  5
1236
  8
SAPA_PROFIL
 10
11.38139999999991
 20
-87.245009707413928
 30
0.0
 42
0.363970000000061
  0
VERTEX
  5
1237
  8
SAPA_PROFIL
 10
11.873803999999989
 20
-86.831834707413918
 30
0.0
  0
VERTEX
  5
1238
  8
SAPA_PROFIL
 10
12.08074999999995
 20
-85.658185707413836
 30
0.0
 42
-0.8391000000000017
  0
VERTEX
  5
1239
  8
SAPA_PROFIL
 10
13.065556999999879
 20
-85.658185707413836
 30
0.0
  0
VERTEX
  5
123A
  8
SAPA_PROFIL
 10
13.34240399999991
 20
-87.228258707413929
 30
0.0
 42
-0.0436610000000063
  0
VERTEX
  5
123B
  8
SAPA_PROFIL
 10
13.34999999999995
 20
-87.315082707413907
 30
0.0
  0
VERTEX
  5
123C
  8
SAPA_PROFIL
 10
13.34999999999995
 20
-88.312554707413938
 30
0.0
 42
-0.2896899999999917
  0
VERTEX
  5
123D
  8
SAPA_PROFIL
 10
12.77857099999992
 20
-89.216062707413926
 30
0.0
 42
-0.5507599999998717
  0
VERTEX
  5
123E
  8
SAPA_PROFIL
 10
12.34999999999989
 20
-88.945009707413874
 30
0.0
  0
VERTEX
  5
123F
  8
SAPA_PROFIL
 10
12.35
 20
-88.745009707413942
 30
0.0
 42
0.4142140000000907
  0
VERTEX
  5
1240
  8
SAPA_PROFIL
 10
12.04999999999999
 20
-88.445009707413874
 30
0.0
  0
VERTEX
  5
1241
  8
SAPA_PROFIL
 10
10.54999999999999
 20
-88.445009707413874
 30
0.0
 42
0.4142139999999794
  0
VERTEX
  5
1242
  8
SAPA_PROFIL
 10
10.04999999999994
 20
-88.945009707413988
 30
0.0
  0
VERTEX
  5
1243
  8
SAPA_PROFIL
 10
10.04999999999999
 20
-92.245009707413928
 30
0.0
 42
0.4142140000000128
  0
VERTEX
  5
1244
  8
SAPA_PROFIL
 10
10.54999999999999
 20
-92.745009707413828
 30
0.0
  0
VERTEX
  5
1245
  8
SAPA_PROFIL
 10
12.050000000000001
 20
-92.745009707413942
 30
0.0
 42
0.414213999999813
  0
VERTEX
  5
1246
  8
SAPA_PROFIL
 10
12.34999999999995
 20
-92.445009707413874
 30
0.0
  0
VERTEX
  5
1247
  8
SAPA_PROFIL
 10
12.34999999999995
 20
-92.245009707413928
 30
0.0
 42
-0.5507599999999765
  0
VERTEX
  5
1248
  8
SAPA_PROFIL
 10
12.77857099999998
 20
-91.973957707413888
 30
0.0
 42
-0.2896899999999603
  0
VERTEX
  5
1249
  8
SAPA_PROFIL
 10
13.35000000000001
 20
-92.877465707413876
 30
0.0
  0
VERTEX
  5
124A
  8
SAPA_PROFIL
 10
13.34999999999995
 20
-93.645009707413919
 30
0.0
 42
-0.414213999999813
  0
VERTEX
  5
124B
  8
SAPA_PROFIL
 10
13.04999999999999
 20
-93.945009707413988
 30
0.0
  0
VERTEX
  5
124C
  8
SAPA_PROFIL
 10
9.4742640687118609
 20
-93.945009707413874
 30
0.0
 42
-0.1989123673795536
  0
VERTEX
  5
124D
  8
SAPA_PROFIL
 10
9.2621320343558722
 20
-93.857141741769851
 30
0.0
  0
VERTEX
  5
124E
  8
SAPA_PROFIL
 10
8.9378679656439743
 20
-93.532877673057897
 30
0.0
 42
-0.198912367379658
  0
VERTEX
  5
124F
  8
SAPA_PROFIL
 10
8.8499999999999517
 20
-93.320745638701965
 30
0.0
  0
VERTEX
  5
1250
  8
SAPA_PROFIL
 10
8.8499999999999428
 20
-56.945009707413867
 30
0.0
 42
-0.4142139999999794
  0
VERTEX
  5
1251
  8
SAPA_PROFIL
 10
9.3499999999999428
 20
-56.445009707413867
 30
0.0
  0
VERTEX
  5
1252
  8
SAPA_PROFIL
 10
10.349999999999939
 20
-56.445009707413988
 30
0.0
 42
-0.3056149748443016
  0
VERTEX
  5
1253
  8
SAPA_PROFIL
 10
10.81351249172727
 20
-56.757509619866028
 30
0.0
 42
0.3056147706310184
  0
VERTEX
  5
1254
  8
SAPA_PROFIL
 10
11.09161997040823
 20
-56.945009707413867
 30
0.0
  0
VERTEX
  5
1255
  8
SAPA_PROFIL
 10
13.80000000000004
 20
-56.945009707413867
 30
0.0
 42
0.4142135623730951
  0
VERTEX
  5
1256
  8
SAPA_PROFIL
 10
14.30000000000004
 20
-56.445009707413867
 30
0.0
  0
VERTEX
  5
1257
  8
SAPA_PROFIL
 10
14.29999999999999
 20
-53.282179707413889
 30
0.0
  0
VERTEX
  5
1258
  8
SAPA_PROFIL
 10
15.145702999999941
 20
-49.676504707413869
 30
0.0
 42
-0.3482370000000332
  0
VERTEX
  5
1259
  8
SAPA_PROFIL
 10
15.43777699999996
 20
-49.445009707413867
 30
0.0
  0
VERTEX
  5
125A
  8
SAPA_PROFIL
 10
15.599999999999939
 20
-49.445009707413867
 30
0.0
 42
-0.4142140000000907
  0
VERTEX
  5
125B
  8
SAPA_PROFIL
 10
15.899999999999951
 20
-49.745009707413942
 30
0.0
  0
VERTEX
  5
125C
  8
SAPA_PROFIL
 10
15.899999999999901
 20
-57.145009707413919
 30
0.0
 42
0.4142135623730951
  0
VERTEX
  5
125D
  8
SAPA_PROFIL
 10
16.399999999999899
 20
-57.645009707413919
 30
0.0
  0
VERTEX
  5
125E
  8
SAPA_PROFIL
 10
23.399999999999899
 20
-57.645009707413912
 30
0.0
 42
0.4142140000000462
  0
VERTEX
  5
125F
  8
SAPA_PROFIL
 10
23.899999999999899
 20
-57.145009707413912
 30
0.0
  0
VERTEX
  5
1260
  8
SAPA_PROFIL
 10
23.899999999999949
 20
-53.712776707413923
 30
0.0
 42
0.1989120000000332
  0
VERTEX
  5
1261
  8
SAPA_PROFIL
 10
23.753552999999929
 20
-53.359223707413882
 30
0.0
  0
VERTEX
  5
1262
  8
SAPA_PROFIL
 10
21.11966999999991
 20
-50.72534070741392
 30
0.0
 42
-1.000556671979917
  0
VERTEX
  5
1263
  8
SAPA_PROFIL
 10
22.18091994732843
 20
-49.665270311182773
 30
0.0
  0
VERTEX
  5
1264
  8
SAPA_PROFIL
 10
24.337614715963561
 20
-51.821965079817907
 30
0.0
 42
0.5205670505516917
  0
VERTEX
  5
1265
  8
SAPA_PROFIL
 10
25.144322000075171
 20
-51.679720820094978
 30
0.0
  0
VERTEX
  5
1266
  8
SAPA_PROFIL
 10
30.015381236885311
 20
-41.233700576543583
 30
0.0
 42
-0.2914734195861185
  0
VERTEX
  5
1267
  8
SAPA_PROFIL
 10
30.468535130403641
 20
-40.94500970741386
 30
0.0
  0
VERTEX
  5
1268
  8
SAPA_PROFIL
 10
41.049999999999869
 20
-40.94500970741386
 30
0.0
 42
-0.4142139999999796
  0
VERTEX
  5
1269
  8
SAPA_PROFIL
 10
41.34999999999993
 20
-41.245009707413928
 30
0.0
  0
VERTEX
  5
126A
  8
SAPA_PROFIL
 10
41.34999999999993
 20
-42.145009707413791
 30
0.0
 42
-0.414213999999813
  0
VERTEX
  5
126B
  8
SAPA_PROFIL
 10
41.049999999999869
 20
-42.445009707413867
 30
0.0
  0
VERTEX
  5
126C
  8
SAPA_PROFIL
 10
39.049999999999933
 20
-42.445009707413973
 30
0.0
 42
0.4142139999998961
  0
VERTEX
  5
126D
  8
SAPA_PROFIL
 10
38.849999999999937
 20
-42.645009707413912
 30
0.0
  0
VERTEX
  5
126E
  8
SAPA_PROFIL
 10
38.849999999999937
 20
-45.445009707413867
 30
0.0
 42
0.5773502691898261
  0
VERTEX
  5
126F
  8
SAPA_PROFIL
 10
39.149999999999892
 20
-45.618214788170789
 30
0.0
  0
VERTEX
  5
1270
  8
SAPA_PROFIL
 10
39.380384757729267
 20
-45.485202086278591
 30
0.0
 42
-0.1316524975874119
  0
VERTEX
  5
1271
  8
SAPA_PROFIL
 10
39.530384757729252
 20
-45.445009707413867
 30
0.0
  0
VERTEX
  5
1272
  8
SAPA_PROFIL
 10
41.454999999999899
 20
-45.44500970741398
 30
0.0
 42
-0.4142139999999461
  0
VERTEX
  5
1273
  8
SAPA_PROFIL
 10
41.954999999999899
 20
-45.94500970741386
 30
0.0
  0
VERTEX
  5
1274
  8
SAPA_PROFIL
 10
41.954999999999778
 20
-46.645009707413799
 30
0.0
 42
0.4142140000000906
  0
VERTEX
  5
1275
  8
SAPA_PROFIL
 10
42.25499999999991
 20
-46.94500970741386
 30
0.0
  0
VERTEX
  5
1276
  8
SAPA_PROFIL
 10
47.355000209812459
 20
-46.94500970741398
 30
0.0
 42
-0.1316525489352833
  0
VERTEX
  5
1277
  8
SAPA_PROFIL
 10
47.505000262265611
 20
-46.985202116562377
 30
0.0
  0
VERTEX
  5
1278
  8
SAPA_PROFIL
 10
47.954999999999892
 20
-47.245009707413928
 30
0.0
  0
VERTEX
  5
1279
  8
SAPA_PROFIL
 10
48.405000820266054
 20
-46.985201991562569
 30
0.0
 42
-0.1316523369912119
  0
VERTEX
  5
127A
  8
SAPA_PROFIL
 10
48.555000656212961
 20
-46.94500970741386
 30
0.0
  0
VERTEX
  5
127B
  8
SAPA_PROFIL
 10
53.654999999999937
 20
-46.94500970741386
 30
0.0
 42
0.414213999999813
  0
VERTEX
  5
127C
  8
SAPA_PROFIL
 10
53.954999999999899
 20
-46.645009707413898
 30
0.0
  0
VERTEX
  5
127D
  8
SAPA_PROFIL
 10
53.954999999999899
 20
-45.945009707413973
 30
0.0
 42
-0.4142139999999461
  0
VERTEX
  5
127E
  8
SAPA_PROFIL
 10
54.454999999999899
 20
-45.44500970741386
 30
0.0
  0
VERTEX
  5
127F
  8
SAPA_PROFIL
 10
58.16961524227051
 20
-45.445009707413973
 30
0.0
 42
-0.1316524975873767
  0
VERTEX
  5
1280
  8
SAPA_PROFIL
 10
58.319615242270601
 20
-45.485202086278584
 30
0.0
  0
VERTEX
  5
1281
  8
SAPA_PROFIL
 10
58.549999999999933
 20
-45.618214788170789
 30
0.0
 42
0.5773502691894598
  0
VERTEX
  5
1282
  8
SAPA_PROFIL
 10
58.849999999999881
 20
-45.44500970741386
 30
0.0
  0
VERTEX
  5
1283
  8
SAPA_PROFIL
 10
58.84999999999976
 20
-42.645009707413898
 30
0.0
 42
0.4142139999998128
  0
VERTEX
  5
1284
  8
SAPA_PROFIL
 10
58.649999999999942
 20
-42.44500970741386
 30
0.0
  0
VERTEX
  5
1285
  8
SAPA_PROFIL
 10
56.649999999999842
 20
-42.44500970741386
 30
0.0
 42
-0.414213999999813
  0
VERTEX
  5
1286
  8
SAPA_PROFIL
 10
56.349999999999881
 20
-42.145009707413898
 30
0.0
  0
VERTEX
  5
1287
  8
SAPA_PROFIL
 10
56.349999999999881
 20
-41.245009707413928
 30
0.0
 42
-0.4142139999998128
  0
VERTEX
  5
1288
  8
SAPA_PROFIL
 10
56.649999999999949
 20
-40.945009707413853
 30
0.0
  0
VERTEX
  5
1289
  8
SAPA_PROFIL
 10
60.349999999999881
 20
-40.945009707413973
 30
0.0
 42
-0.4142139999999461
  0
VERTEX
  5
128A
  8
SAPA_PROFIL
 10
60.849999999999881
 20
-41.445009707413853
 30
0.0
  0
VERTEX
  5
128B
  8
SAPA_PROFIL
 10
60.849999999999881
 20
-44.94500970741386
 30
0.0
 42
0.4142140000000794
  0
VERTEX
  5
128C
  8
SAPA_PROFIL
 10
61.349999999999881
 20
-45.44500970741386
 30
0.0
  0
VERTEX
  5
128D
  8
SAPA_PROFIL
 10
65.87719100000001
 20
-45.44500970741386
 30
0.0
 42
0.397937999999963
  0
VERTEX
  5
128E
  8
SAPA_PROFIL
 10
66.376409999999936
 20
-44.972938707413938
 30
0.0
  0
VERTEX
  5
128F
  8
SAPA_PROFIL
 10
67.149999999999949
 20
-31.145009707413909
 30
0.0
 42
0.4142140000000127
  0
VERTEX
  5
1290
  8
SAPA_PROFIL
 10
66.149999999999935
 20
-30.145009707413909
 30
0.0
  0
VERTEX
  5
1291
  8
SAPA_PROFIL
 10
64.849999999999994
 20
-30.145009707413909
 30
0.0
 42
-0.424142000000003
  0
VERTEX
  5
1292
  8
SAPA_PROFIL
 10
63.850570999999917
 20
-29.111237707413899
 30
0.0
 42
-0.2988660000000183
  0
VERTEX
  5
1293
  8
SAPA_PROFIL
 10
64.421428999999961
 20
-28.173957707413919
 30
0.0
 42
-0.5507599999996211
  0
VERTEX
  5
1294
  8
SAPA_PROFIL
 10
64.849999999999881
 20
-28.44500970741386
 30
0.0
  0
VERTEX
  5
1295
  8
SAPA_PROFIL
 10
64.849999999999881
 20
-28.745009707413931
 30
0.0
 42
0.414213999999813
  0
VERTEX
  5
1296
  8
SAPA_PROFIL
 10
65.049999999999926
 20
-28.94500970741386
 30
0.0
  0
VERTEX
  5
1297
  8
SAPA_PROFIL
 10
65.349999999999994
 20
-28.94500970741397
 30
0.0
 42
0.4142139999999796
  0
VERTEX
  5
1298
  8
SAPA_PROFIL
 10
67.149999999999949
 20
-27.145009707413902
 30
0.0
  0
VERTEX
  5
1299
  8
SAPA_PROFIL
 10
67.149999999999835
 20
-26.44500970741397
 30
0.0
 42
0.414213999999998
  0
VERTEX
  5
129A
  8
SAPA_PROFIL
 10
65.349999999999881
 20
-24.645009707413902
 30
0.0
  0
VERTEX
  5
129B
  8
SAPA_PROFIL
 10
65.049999999999926
 20
-24.645009707413902
 30
0.0
 42
0.4142139999998128
  0
VERTEX
  5
129C
  8
SAPA_PROFIL
 10
64.849999999999881
 20
-24.845009707413841
 30
0.0
  0
VERTEX
  5
129D
  8
SAPA_PROFIL
 10
64.849999999999994
 20
-25.145009707413909
 30
0.0
 42
-0.5507599999999805
  0
VERTEX
  5
129E
  8
SAPA_PROFIL
 10
64.421429000000074
 20
-25.41606270741385
 30
0.0
 42
-0.2988660000000331
  0
VERTEX
  5
129F
  8
SAPA_PROFIL
 10
63.850570999999917
 20
-24.47878270741397
 30
0.0
 42
-0.4241420000000235
  0
VERTEX
  5
12A0
  8
SAPA_PROFIL
 10
64.849999999999881
 20
-23.44500970741386
 30
0.0
  0
VERTEX
  5
12A1
  8
SAPA_PROFIL
 10
65.349999999999881
 20
-23.44500970741386
 30
0.0
 42
-0.4142140000000127
  0
VERTEX
  5
12A2
  8
SAPA_PROFIL
 10
68.349999999999881
 20
-26.44500970741386
 30
0.0
  0
VERTEX
  5
12A3
  8
SAPA_PROFIL
 10
68.349999999999881
 20
-64.728131707414022
 30
0.0
 42
-0.2679489999999819
  0
VERTEX
  5
12A4
  8
SAPA_PROFIL
 10
66.849999999999881
 20
-67.3262077074139
 30
0.0
  0
VERTEX
  5
12A5
  8
SAPA_PROFIL
 10
59.082050999999957
 20
-71.811035707413893
 30
0.0
 42
-0.1316520000000068
  0
VERTEX
  5
12A6
  8
SAPA_PROFIL
 10
58.58205099999995
 20
-71.94500970741386
 30
0.0
  0
VERTEX
  5
12A7
  8
SAPA_PROFIL
 10
55.961383999999931
 20
-71.94500970741386
 30
0.0
 42
-0.2596809999999468
  0
VERTEX
  5
12A8
  8
SAPA_PROFIL
 10
55.79135299999993
 20
-71.850316707413853
 30
0.0
  0
VERTEX
  5
12A9
  8
SAPA_PROFIL
 10
54.894953999999963
 20
-70.402970707413914
 30
0.0
 42
-0.5877030000000416
  0
VERTEX
  5
12AA
  8
SAPA_PROFIL
 10
55.149999999999842
 20
-69.94500970741386
 30
0.0
  0
VERTEX
  5
12AB
  8
SAPA_PROFIL
 10
56.54999999999994
 20
-69.94500970741386
 30
0.0
 42
0.414213999999924
  0
VERTEX
  5
12AC
  8
SAPA_PROFIL
 10
56.849999999999881
 20
-69.645009707413791
 30
0.0
  0
VERTEX
  5
12AD
  8
SAPA_PROFIL
 10
56.849999999999881
 20
-67.245009707413914
 30
0.0
 42
0.4142139999998128
  0
VERTEX
  5
12AE
  8
SAPA_PROFIL
 10
56.54999999999982
 20
-66.94500970741386
 30
0.0
  0
VERTEX
  5
12AF
  8
SAPA_PROFIL
 10
46.94999999999991
 20
-66.94500970741386
 30
0.0
  0
VERTEX
  5
12B0
  8
SAPA_PROFIL
 10
44.94999999999991
 20
-66.945009707413874
 30
0.0
  0
VERTEX
  5
12B1
  8
SAPA_PROFIL
 10
39.149999999999949
 20
-66.945009707413874
 30
0.0
 42
0.4142135623731505
  0
VERTEX
  5
12B2
  8
SAPA_PROFIL
 10
38.850000000000058
 20
-67.245009707413942
 30
0.0
  0
VERTEX
  5
12B3
  8
SAPA_PROFIL
 10
38.849999999999937
 20
-69.645009707413919
 30
0.0
 42
0.4142135623730951
  0
VERTEX
  5
12B4
  8
SAPA_PROFIL
 10
39.149999999999949
 20
-69.945009707413973
 30
0.0
  0
VERTEX
  5
12B5
  8
SAPA_PROFIL
 10
40.549999999999883
 20
-69.945009707413874
 30
0.0
 42
-0.5877030000001193
  0
VERTEX
  5
12B6
  8
SAPA_PROFIL
 10
40.805046999999917
 20
-70.402970707413942
 30
0.0
  0
VERTEX
  5
12B7
  8
SAPA_PROFIL
 10
40.01251599999992
 20
-71.650316707413936
 30
0.0
 42
-0.2596809999999468
  0
VERTEX
  5
12B8
  8
SAPA_PROFIL
 10
39.842484999999932
 20
-71.745009707413942
 30
0.0
  0
VERTEX
  5
12B9
  8
SAPA_PROFIL
 10
27.857515733782328
 20
-71.745009428954745
 30
0.0
 42
-0.2596809999999508
  0
VERTEX
  5
12BA
  8
SAPA_PROFIL
 10
27.687485733782331
 20
-71.650316428954739
 30
0.0
  0
VERTEX
  5
12BB
  8
SAPA_PROFIL
 10
26.894953733782341
 20
-70.402970428954745
 30
0.0
 42
-0.5877030000000664
  0
VERTEX
  5
12BC
  8
SAPA_PROFIL
 10
27.150000733782331
 20
-69.94500942895445
 30
0.0
  0
VERTEX
  5
12BD
  8
SAPA_PROFIL
 10
28.54999999999993
 20
-69.945009707413874
 30
0.0
 42
0.4142135623730951
  0
SEQEND
  5
12BE
  8
SAPA_PROFIL
  0
POLYLINE
  5
ACA
  8
SAPA_PROFIL
 66
     1
 10
0.0
 20
0.0
 30
0.0
 70
     1
  0
VERTEX
  5
12BF
  8
SAPA_PROFIL
 10
56.750000000000107
 20
-27.445009707414041
 30
0.0
  0
VERTEX
  5
12C0
  8
SAPA_PROFIL
 10
55.150000000000091
 20
-27.445009707413991
 30
0.0
 42
0.4142135623731506
  0
VERTEX
  5
12C1
  8
SAPA_PROFIL
 10
54.850000000000129
 20
-27.745009707413999
 30
0.0
  0
VERTEX
  5
12C2
  8
SAPA_PROFIL
 10
54.850000000000129
 20
-28.320745638702078
 30
0.0
 42
0.198912367379658
  0
VERTEX
  5
12C3
  8
SAPA_PROFIL
 10
54.937867965644159
 20
-28.532877673058071
 30
0.0
  0
VERTEX
  5
12C4
  8
SAPA_PROFIL
 10
55.762132034356
 20
-29.357141741769968
 30
0.0
 42
0.198912367379658
  0
VERTEX
  5
12C5
  8
SAPA_PROFIL
 10
55.974264068712039
 20
-29.445009707414052
 30
0.0
  0
VERTEX
  5
12C6
  8
SAPA_PROFIL
 10
58.550000000000068
 20
-29.445009707413991
 30
0.0
 42
0.4142135623730951
  0
VERTEX
  5
12C7
  8
SAPA_PROFIL
 10
58.850000000000023
 20
-29.14500970741404
 30
0.0
  0
VERTEX
  5
12C8
  8
SAPA_PROFIL
 10
58.850000000000129
 20
0.254990292586001
 30
0.0
 42
0.4142135623730397
  0
VERTEX
  5
12C9
  8
SAPA_PROFIL
 10
58.550000000000068
 20
0.5549902925860124
 30
0.0
  0
VERTEX
  5
12CA
  8
SAPA_PROFIL
 10
55.974264068712039
 20
0.5549902925860124
 30
0.0
 42
0.1989123673796784
  0
VERTEX
  5
12CB
  8
SAPA_PROFIL
 10
55.762132034356107
 20
0.4671223269419329
 30
0.0
  0
VERTEX
  5
12CC
  8
SAPA_PROFIL
 10
54.937867965644159
 20
-0.3571417417699649
 30
0.0
 42
0.198912367379658
  0
VERTEX
  5
12CD
  8
SAPA_PROFIL
 10
54.850000000000129
 20
-0.5692737761258968
 30
0.0
  0
VERTEX
  5
12CE
  8
SAPA_PROFIL
 10
54.850000000000129
 20
-1.1450097074140331
 30
0.0
 42
0.4142135623730951
  0
VERTEX
  5
12CF
  8
SAPA_PROFIL
 10
55.150000000000091
 20
-1.445009707414044
 30
0.0
  0
VERTEX
  5
12D0
  8
SAPA_PROFIL
 10
56.750000000000107
 20
-1.4450097074139869
 30
0.0
 42
-0.4142135623731505
  0
VERTEX
  5
12D1
  8
SAPA_PROFIL
 10
57.050000000000068
 20
-1.7450097074139981
 30
0.0
  0
VERTEX
  5
12D2
  8
SAPA_PROFIL
 10
57.050000000000068
 20
-4.1950097074139867
 30
0.0
 42
-0.4142135623730951
  0
VERTEX
  5
12D3
  8
SAPA_PROFIL
 10
56.750000000000107
 20
-4.4950097074139981
 30
0.0
  0
VERTEX
  5
12D4
  8
SAPA_PROFIL
 10
38.650000000000091
 20
-4.4950097074139981
 30
0.0
 42
-0.4142135623730951
  0
VERTEX
  5
12D5
  8
SAPA_PROFIL
 10
38.350000000000144
 20
-4.1950097074139867
 30
0.0
  0
VERTEX
  5
12D6
  8
SAPA_PROFIL
 10
38.350000000000144
 20
-1.7450097074139981
 30
0.0
 42
-0.4142135623731506
  0
VERTEX
  5
12D7
  8
SAPA_PROFIL
 10
38.650000000000091
 20
-1.4450097074139869
 30
0.0
  0
VERTEX
  5
12D8
  8
SAPA_PROFIL
 10
40.550000000000061
 20
-1.4450097074139869
 30
0.0
 42
0.4142135623730951
  0
VERTEX
  5
12D9
  8
SAPA_PROFIL
 10
40.850000000000023
 20
-1.1450097074140331
 30
0.0
  0
VERTEX
  5
12DA
  8
SAPA_PROFIL
 10
40.850000000000023
 20
-0.5692737761258968
 30
0.0
 42
0.198912367379658
  0
VERTEX
  5
12DB
  8
SAPA_PROFIL
 10
40.762132034356
 20
-0.3571417417699649
 30
0.0
  0
VERTEX
  5
12DC
  8
SAPA_PROFIL
 10
40.137867965644091
 20
0.2671223269420011
 30
0.0
 42
0.1989123673796375
  0
VERTEX
  5
12DD
  8
SAPA_PROFIL
 10
39.925735931288159
 20
0.3549902925859669
 30
0.0
  0
VERTEX
  5
12DE
  8
SAPA_PROFIL
 10
34.450000000000053
 20
0.3549902925860238
 30
0.0
 42
0.1316524975874007
  0
VERTEX
  5
12DF
  8
SAPA_PROFIL
 10
34.300000000000068
 20
0.3147979137213497
 30
0.0
  0
VERTEX
  5
12E0
  8
SAPA_PROFIL
 10
33.850000000000144
 20
0.0549902925860124
 30
0.0
  0
VERTEX
  5
12E1
  8
SAPA_PROFIL
 10
33.399999999999977
 20
0.3147979137213497
 30
0.0
 42
0.1316524975873894
  0
VERTEX
  5
12E2
  8
SAPA_PROFIL
 10
33.25
 20
0.3549902925859669
 30
0.0
  0
VERTEX
  5
12E3
  8
SAPA_PROFIL
 10
27.774264068712
 20
0.3549902925860238
 30
0.0
 42
0.1989123673796437
  0
VERTEX
  5
12E4
  8
SAPA_PROFIL
 10
27.562132034356068
 20
0.2671223269419443
 30
0.0
  0
VERTEX
  5
12E5
  8
SAPA_PROFIL
 10
26.937867965644159
 20
-0.3571417417699081
 30
0.0
 42
0.198912367379658
  0
VERTEX
  5
12E6
  8
SAPA_PROFIL
 10
26.85000000000014
 20
-0.5692737761258968
 30
0.0
  0
VERTEX
  5
12E7
  8
SAPA_PROFIL
 10
26.85000000000014
 20
-1.1450097074140331
 30
0.0
 42
0.4142135623730951
  0
VERTEX
  5
12E8
  8
SAPA_PROFIL
 10
27.150000000000091
 20
-1.4450097074139869
 30
0.0
  0
VERTEX
  5
12E9
  8
SAPA_PROFIL
 10
29.050000000000072
 20
-1.4450097074139869
 30
0.0
 42
-0.4142135623730397
  0
VERTEX
  5
12EA
  8
SAPA_PROFIL
 10
29.35000000000014
 20
-1.7450097074139981
 30
0.0
  0
VERTEX
  5
12EB
  8
SAPA_PROFIL
 10
29.350000000000019
 20
-4.1950097074139867
 30
0.0
 42
-0.4142135623730951
  0
VERTEX
  5
12EC
  8
SAPA_PROFIL
 10
29.050000000000072
 20
-4.4950097074139981
 30
0.0
  0
VERTEX
  5
12ED
  8
SAPA_PROFIL
 10
10.95000000000004
 20
-4.4950097074139981
 30
0.0
 42
-0.4142135623730951
  0
VERTEX
  5
12EE
  8
SAPA_PROFIL
 10
10.650000000000089
 20
-4.1950097074139867
 30
0.0
  0
VERTEX
  5
12EF
  8
SAPA_PROFIL
 10
10.650000000000089
 20
-1.7450097074139981
 30
0.0
 42
-0.4142135623731506
  0
VERTEX
  5
12F0
  8
SAPA_PROFIL
 10
10.95000000000004
 20
-1.4450097074139869
 30
0.0
  0
VERTEX
  5
12F1
  8
SAPA_PROFIL
 10
12.55000000000007
 20
-1.445009707414044
 30
0.0
 42
0.4142135623730951
  0
VERTEX
  5
12F2
  8
SAPA_PROFIL
 10
12.850000000000019
 20
-1.1450097074140331
 30
0.0
  0
VERTEX
  5
12F3
  8
SAPA_PROFIL
 10
12.850000000000019
 20
-0.5692737761258968
 30
0.0
 42
0.198912367379658
  0
VERTEX
  5
12F4
  8
SAPA_PROFIL
 10
12.762132034356
 20
-0.3571417417699649
 30
0.0
  0
VERTEX
  5
12F5
  8
SAPA_PROFIL
 10
11.93786796564404
 20
0.4671223269419898
 30
0.0
 42
0.198912367379658
  0
VERTEX
  5
12F6
  8
SAPA_PROFIL
 10
11.72573593128811
 20
0.5549902925860124
 30
0.0
  0
VERTEX
  5
12F7
  8
SAPA_PROFIL
 10
9.1500000000000892
 20
0.5549902925860124
 30
0.0
 42
0.4142135623730395
  0
VERTEX
  5
12F8
  8
SAPA_PROFIL
 10
8.8500000000000227
 20
0.254990292586001
 30
0.0
  0
VERTEX
  5
12F9
  8
SAPA_PROFIL
 10
8.8500000000001364
 20
-51.145009707414033
 30
0.0
 42
0.4142135623730951
  0
VERTEX
  5
12FA
  8
SAPA_PROFIL
 10
9.1500000000000892
 20
-51.445009707413988
 30
0.0
  0
VERTEX
  5
12FB
  8
SAPA_PROFIL
 10
13.05000000000007
 20
-51.445009707414037
 30
0.0
 42
0.4142135623730951
  0
VERTEX
  5
12FC
  8
SAPA_PROFIL
 10
13.350000000000019
 20
-51.145009707414033
 30
0.0
  0
VERTEX
  5
12FD
  8
SAPA_PROFIL
 10
13.35000000000025
 20
-49.877465239447019
 30
0.0
 42
0.2896898633026685
  0
VERTEX
  5
12FE
  8
SAPA_PROFIL
 10
12.778571428571579
 20
-48.973957336542469
 30
0.0
 42
0.5507604245863847
  0
VERTEX
  5
12FF
  8
SAPA_PROFIL
 10
12.350000000000019
 20
-49.245009707413999
 30
0.0
  0
VERTEX
  5
1300
  8
SAPA_PROFIL
 10
12.350000000000019
 20
-49.895009707414033
 30
0.0
 42
-0.4142135623730951
  0
VERTEX
  5
1301
  8
SAPA_PROFIL
 10
12.05000000000007
 20
-50.195009707413988
 30
0.0
  0
VERTEX
  5
1302
  8
SAPA_PROFIL
 10
10.650000000000089
 20
-50.195009707414037
 30
0.0
 42
-0.4142135623730951
  0
VERTEX
  5
1303
  8
SAPA_PROFIL
 10
10.350000000000019
 20
-49.895009707414033
 30
0.0
  0
VERTEX
  5
1304
  8
SAPA_PROFIL
 10
10.350000000000129
 20
-41.495009707413992
 30
0.0
 42
-0.4142135623731506
  0
VERTEX
  5
1305
  8
SAPA_PROFIL
 10
10.650000000000089
 20
-41.19500970741398
 30
0.0
  0
VERTEX
  5
1306
  8
SAPA_PROFIL
 10
12.05000000000007
 20
-41.19500970741398
 30
0.0
 42
-0.4142135623731505
  0
VERTEX
  5
1307
  8
SAPA_PROFIL
 10
12.350000000000019
 20
-41.495009707413992
 30
0.0
  0
VERTEX
  5
1308
  8
SAPA_PROFIL
 10
12.34999999999923
 20
-42.145009707414033
 30
0.0
 42
0.5507604245863315
  0
VERTEX
  5
1309
  8
SAPA_PROFIL
 10
12.77857142857181
 20
-42.416062078286018
 30
0.0
 42
0.2896898633026716
  0
VERTEX
  5
130A
  8
SAPA_PROFIL
 10
13.350000000000019
 20
-41.512554175380949
 30
0.0
  0
VERTEX
  5
130B
  8
SAPA_PROFIL
 10
13.350000000000019
 20
-40.245009707413992
 30
0.0
 42
0.4142135623731505
  0
VERTEX
  5
130C
  8
SAPA_PROFIL
 10
13.05000000000007
 20
-39.945009707413988
 30
0.0
  0
VERTEX
  5
130D
  8
SAPA_PROFIL
 10
10.95000000000004
 20
-39.945009707414037
 30
0.0
 42
-0.4142135623730951
  0
VERTEX
  5
130E
  8
SAPA_PROFIL
 10
10.650000000000089
 20
-39.645009707414033
 30
0.0
  0
VERTEX
  5
130F
  8
SAPA_PROFIL
 10
10.650000000000089
 20
-29.745009707413999
 30
0.0
 42
-0.4142135623731506
  0
VERTEX
  5
1310
  8
SAPA_PROFIL
 10
10.95000000000004
 20
-29.445009707413991
 30
0.0
  0
VERTEX
  5
1311
  8
SAPA_PROFIL
 10
11.68292464279182
 20
-29.445009707414052
 30
0.0
 42
0.2596812337301998
  0
VERTEX
  5
1312
  8
SAPA_PROFIL
 10
11.93797086010192
 20
-29.302969914541681
 30
0.0
  0
VERTEX
  5
1313
  8
SAPA_PROFIL
 10
12.80504621731018
 20
-27.9029699145417
 30
0.0
 42
0.5877032589249726
  0
VERTEX
  5
1314
  8
SAPA_PROFIL
 10
12.55000000000007
 20
-27.445009707413991
 30
0.0
  0
VERTEX
  5
1315
  8
SAPA_PROFIL
 10
10.95000000000004
 20
-27.445009707414041
 30
0.0
 42
-0.4142135623730951
  0
VERTEX
  5
1316
  8
SAPA_PROFIL
 10
10.650000000000089
 20
-27.14500970741403
 30
0.0
  0
VERTEX
  5
1317
  8
SAPA_PROFIL
 10
10.650000000000089
 20
-24.695009707413991
 30
0.0
 42
-0.4142135623730951
  0
VERTEX
  5
1318
  8
SAPA_PROFIL
 10
10.95000000000004
 20
-24.39500970741403
 30
0.0
  0
VERTEX
  5
1319
  8
SAPA_PROFIL
 10
20.75000000000011
 20
-24.39500970741403
 30
0.0
 42
-0.4142135623730951
  0
VERTEX
  5
131A
  8
SAPA_PROFIL
 10
21.050000000000072
 20
-24.695009707413991
 30
0.0
  0
VERTEX
  5
131B
  8
SAPA_PROFIL
 10
21.050000000000072
 20
-29.14500970741404
 30
0.0
 42
0.4142135623730951
  0
VERTEX
  5
131C
  8
SAPA_PROFIL
 10
21.350000000000019
 20
-29.445009707414052
 30
0.0
  0
VERTEX
  5
131D
  8
SAPA_PROFIL
 10
22.782055052823011
 20
-29.445009707413991
 30
0.0
 42
0.2608609300995157
  0
VERTEX
  5
131E
  8
SAPA_PROFIL
 10
23.037796868059669
 20
-29.301841221911111
 30
0.0
  0
VERTEX
  5
131F
  8
SAPA_PROFIL
 10
23.405741815236748
 20
-28.701841221911032
 30
0.0
 42
0.5862177598302742
  0
VERTEX
  5
1320
  8
SAPA_PROFIL
 10
23.150000000000091
 20
-28.245009707413999
 30
0.0
  0
VERTEX
  5
1321
  8
SAPA_PROFIL
 10
22.75000000000011
 20
-28.245009707413999
 30
0.0
 42
-0.4142135623730951
  0
VERTEX
  5
1322
  8
SAPA_PROFIL
 10
22.450000000000159
 20
-27.945009707413991
 30
0.0
  0
VERTEX
  5
1323
  8
SAPA_PROFIL
 10
22.450000000000038
 20
-24.695009707413991
 30
0.0
 42
-0.4142135623730951
  0
VERTEX
  5
1324
  8
SAPA_PROFIL
 10
22.75000000000011
 20
-24.39500970741398
 30
0.0
  0
VERTEX
  5
1325
  8
SAPA_PROFIL
 10
29.050000000000072
 20
-24.39500970741403
 30
0.0
 42
-0.4142135623730951
  0
VERTEX
  5
1326
  8
SAPA_PROFIL
 10
29.350000000000019
 20
-24.695009707413991
 30
0.0
  0
VERTEX
  5
1327
  8
SAPA_PROFIL
 10
29.35000000000014
 20
-27.14500970741403
 30
0.0
 42
-0.4142135623730951
  0
VERTEX
  5
1328
  8
SAPA_PROFIL
 10
29.050000000000072
 20
-27.445009707414041
 30
0.0
  0
VERTEX
  5
1329
  8
SAPA_PROFIL
 10
27.150000000000091
 20
-27.445009707413991
 30
0.0
 42
0.5920056181179108
  0
VERTEX
  5
132A
  8
SAPA_PROFIL
 10
26.896991243683029
 20
-27.906213209940798
 30
0.0
  0
VERTEX
  5
132B
  8
SAPA_PROFIL
 10
27.661566374789459
 20
-29.10621320994079
 30
0.0
 42
0.2562769736732622
  0
VERTEX
  5
132C
  8
SAPA_PROFIL
 10
27.91457513110652
 20
-29.245009707413999
 30
0.0
  0
VERTEX
  5
132D
  8
SAPA_PROFIL
 10
33.25
 20
-29.245009707413999
 30
0.0
 42
0.1316524975874008
  0
VERTEX
  5
132E
  8
SAPA_PROFIL
 10
33.399999999999977
 20
-29.204817328549328
 30
0.0
  0
VERTEX
  5
132F
  8
SAPA_PROFIL
 10
33.850000000000144
 20
-28.945009707413991
 30
0.0
  0
VERTEX
  5
1330
  8
SAPA_PROFIL
 10
34.300000000000068
 20
-29.204817328549328
 30
0.0
 42
0.1316524975874008
  0
VERTEX
  5
1331
  8
SAPA_PROFIL
 10
34.450000000000053
 20
-29.245009707413999
 30
0.0
  0
VERTEX
  5
1332
  8
SAPA_PROFIL
 10
39.925735931288159
 20
-29.245009707413999
 30
0.0
 42
0.1989123673796436
  0
VERTEX
  5
1333
  8
SAPA_PROFIL
 10
40.137867965644091
 20
-29.157141741769919
 30
0.0
  0
VERTEX
  5
1334
  8
SAPA_PROFIL
 10
40.762132034356
 20
-28.53287767305801
 30
0.0
 42
0.198912367379658
  0
VERTEX
  5
1335
  8
SAPA_PROFIL
 10
40.850000000000023
 20
-28.320745638702078
 30
0.0
  0
VERTEX
  5
1336
  8
SAPA_PROFIL
 10
40.850000000000023
 20
-27.745009707413999
 30
0.0
 42
0.4142135623731505
  0
VERTEX
  5
1337
  8
SAPA_PROFIL
 10
40.550000000000061
 20
-27.445009707413991
 30
0.0
  0
VERTEX
  5
1338
  8
SAPA_PROFIL
 10
38.650000000000091
 20
-27.445009707413991
 30
0.0
 42
-0.4142135623730951
  0
VERTEX
  5
1339
  8
SAPA_PROFIL
 10
38.350000000000144
 20
-27.14500970741403
 30
0.0
  0
VERTEX
  5
133A
  8
SAPA_PROFIL
 10
38.350000000000144
 20
-24.695009707413991
 30
0.0
 42
-0.4142135623730951
  0
VERTEX
  5
133B
  8
SAPA_PROFIL
 10
38.650000000000091
 20
-24.39500970741403
 30
0.0
  0
VERTEX
  5
133C
  8
SAPA_PROFIL
 10
56.750000000000107
 20
-24.39500970741403
 30
0.0
 42
-0.4142135623730951
  0
VERTEX
  5
133D
  8
SAPA_PROFIL
 10
57.050000000000068
 20
-24.695009707413991
 30
0.0
  0
VERTEX
  5
133E
  8
SAPA_PROFIL
 10
57.050000000000068
 20
-27.14500970741403
 30
0.0
 42
-0.4142135623730951
  0
SEQEND
  5
133F
  8
SAPA_PROFIL
  0
POLYLINE
  5
ACB
  8
SAPA_PROFIL
 66
     1
 10
0.0
 20
0.0
 30
0.0
 70
     1
  0
VERTEX
  5
1340
  8
SAPA_PROFIL
 10
10.95000000000004
 20
-6.2450097074139981
 30
0.0
 42
0.4142135623730951
  0
VERTEX
  5
1341
  8
SAPA_PROFIL
 10
10.650000000000089
 20
-6.5450097074140103
 30
0.0
  0
VERTEX
  5
1342
  8
SAPA_PROFIL
 10
10.650000000000089
 20
-22.345009707414022
 30
0.0
 42
0.4142135623730951
  0
VERTEX
  5
1343
  8
SAPA_PROFIL
 10
10.95000000000004
 20
-22.64500970741403
 30
0.0
  0
VERTEX
  5
1344
  8
SAPA_PROFIL
 10
31.650000000000091
 20
-22.64500970741403
 30
0.0
 42
-0.4142135623730951
  0
VERTEX
  5
1345
  8
SAPA_PROFIL
 10
32.250000000000121
 20
-23.245009707413999
 30
0.0
 42
-0.4142135623730951
  0
VERTEX
  5
1346
  8
SAPA_PROFIL
 10
31.650000000000091
 20
-23.845009707414022
 30
0.0
  0
VERTEX
  5
1347
  8
SAPA_PROFIL
 10
31.60000000000014
 20
-23.845009707414022
 30
0.0
 42
0.4142135623730951
  0
VERTEX
  5
1348
  8
SAPA_PROFIL
 10
31.10000000000014
 20
-24.345009707414022
 30
0.0
  0
VERTEX
  5
1349
  8
SAPA_PROFIL
 10
31.10000000000014
 20
-24.945009707413991
 30
0.0
 42
0.3635303702822669
  0
VERTEX
  5
134A
  8
SAPA_PROFIL
 10
33.368259897483433
 20
-27.652485741218751
 30
0.0
  0
VERTEX
  5
134B
  8
SAPA_PROFIL
 10
33.637867965644212
 20
-27.38287767305809
 30
0.0
 42
-0.4142135623730951
  0
VERTEX
  5
134C
  8
SAPA_PROFIL
 10
34.062132034356068
 20
-27.382877673058029
 30
0.0
  0
VERTEX
  5
134D
  8
SAPA_PROFIL
 10
34.331740102516846
 20
-27.652485741218751
 30
0.0
 42
0.3635303702822669
  0
VERTEX
  5
134E
  8
SAPA_PROFIL
 10
36.600000000000144
 20
-24.945009707413991
 30
0.0
  0
VERTEX
  5
134F
  8
SAPA_PROFIL
 10
36.600000000000144
 20
-24.345009707414022
 30
0.0
 42
0.4142135623730951
  0
VERTEX
  5
1350
  8
SAPA_PROFIL
 10
36.100000000000144
 20
-23.845009707414022
 30
0.0
  0
VERTEX
  5
1351
  8
SAPA_PROFIL
 10
36.050000000000068
 20
-23.845009707414022
 30
0.0
 42
-0.4142135623730951
  0
VERTEX
  5
1352
  8
SAPA_PROFIL
 10
35.450000000000053
 20
-23.245009707413999
 30
0.0
 42
-0.4142135623730951
  0
VERTEX
  5
1353
  8
SAPA_PROFIL
 10
36.050000000000068
 20
-22.64500970741403
 30
0.0
  0
VERTEX
  5
1354
  8
SAPA_PROFIL
 10
56.750000000000107
 20
-22.64500970741403
 30
0.0
 42
0.4142135623730951
  0
VERTEX
  5
1355
  8
SAPA_PROFIL
 10
57.050000000000068
 20
-22.345009707414022
 30
0.0
  0
VERTEX
  5
1356
  8
SAPA_PROFIL
 10
57.050000000000068
 20
-6.5450097074140103
 30
0.0
 42
0.4142135623730951
  0
VERTEX
  5
1357
  8
SAPA_PROFIL
 10
56.750000000000107
 20
-6.2450097074139981
 30
0.0
  0
VERTEX
  5
1358
  8
SAPA_PROFIL
 10
36.050000000000068
 20
-6.2450097074139981
 30
0.0
 42
-0.4142135623730951
  0
VERTEX
  5
1359
  8
SAPA_PROFIL
 10
35.450000000000053
 20
-5.6450097074139762
 30
0.0
 42
-0.4142135623730951
  0
VERTEX
  5
135A
  8
SAPA_PROFIL
 10
36.050000000000068
 20
-5.0450097074139526
 30
0.0
  0
VERTEX
  5
135B
  8
SAPA_PROFIL
 10
36.100000000000144
 20
-5.0450097074140103
 30
0.0
 42
0.4142135623730951
  0
VERTEX
  5
135C
  8
SAPA_PROFIL
 10
36.600000000000144
 20
-4.5450097074140103
 30
0.0
  0
VERTEX
  5
135D
  8
SAPA_PROFIL
 10
36.600000000000144
 20
-3.9450097074139872
 30
0.0
 42
0.3635303702822669
  0
VERTEX
  5
135E
  8
SAPA_PROFIL
 10
34.331740102516846
 20
-1.23753367360922
 30
0.0
  0
VERTEX
  5
135F
  8
SAPA_PROFIL
 10
34.062132034356068
 20
-1.507141741769942
 30
0.0
 42
-0.4142135623730951
  0
VERTEX
  5
1360
  8
SAPA_PROFIL
 10
33.637867965644212
 20
-1.507141741769999
 30
0.0
  0
VERTEX
  5
1361
  8
SAPA_PROFIL
 10
33.368259897483433
 20
-1.23753367360922
 30
0.0
 42
0.3635303702822669
  0
VERTEX
  5
1362
  8
SAPA_PROFIL
 10
31.10000000000014
 20
-3.9450097074139872
 30
0.0
  0
VERTEX
  5
1363
  8
SAPA_PROFIL
 10
31.10000000000014
 20
-4.5450097074140103
 30
0.0
 42
0.4142135623730951
  0
VERTEX
  5
1364
  8
SAPA_PROFIL
 10
31.60000000000014
 20
-5.0450097074140103
 30
0.0
  0
VERTEX
  5
1365
  8
SAPA_PROFIL
 10
31.650000000000091
 20
-5.0450097074140103
 30
0.0
 42
-0.4142135623730951
  0
VERTEX
  5
1366
  8
SAPA_PROFIL
 10
32.250000000000121
 20
-5.6450097074139762
 30
0.0
 42
-0.4142135623730951
  0
VERTEX
  5
1367
  8
SAPA_PROFIL
 10
31.650000000000091
 20
-6.2450097074139981
 30
0.0
  0
SEQEND
  5
1368
  8
SAPA_PROFIL
  0
POLYLINE
  5
AD1
  8
SAPA_GLAS
 66
     1
 10
0.0
 20
0.0
 30
0.0
  0
VERTEX
  5
136E
  8
SAPA_GLAS
 10
17.250000000000099
 20
-105.7450097074139
 30
0.0
  0
VERTEX
  5
136F
  8
SAPA_GLAS
 10
17.25000000000011
 20
-76.945009707413817
 30
0.0
  0
VERTEX
  5
1370
  8
SAPA_GLAS
 10
23.25000000000011
 20
-76.945009707413817
 30
0.0
  0
VERTEX
  5
1371
  8
SAPA_GLAS
 10
23.25000000000033
 20
-105.7450097074139
 30
0.0
  0
SEQEND
  5
1372
  8
SAPA_GLAS
  0
CIRCLE
  5
AE0
  8
SAPA_FOGBAND
 10
63.20008046615294
 20
-26.779365914046721
 30
0.0000000195376815
 40
0.25
  0
POLYLINE
  5
AE1
  8
SAPA_FOGBAND
 66
     1
 10
0.0
 20
0.0
 30
0.0000000195376815
 70
     1
  0
VERTEX
  5
1417
  8
SAPA_FOGBAND
 10
63.833987747273788
 20
-24.072943785420321
 30
0.0000000195376815
  0
VERTEX
  5
1418
  8
SAPA_FOGBAND
 10
63.732813920768422
 20
-25.229365914046529
 30
0.0000000195376815
  0
VERTEX
  5
1419
  8
SAPA_FOGBAND
 10
64.800080466152849
 20
-25.229365914046529
 30
0.0000000195376815
  0
VERTEX
  5
141A
  8
SAPA_FOGBAND
 10
64.907732754327981
 20
-24.8276021050266
 30
0.0000000195376815
 42
-0.4995370695832079
  0
VERTEX
  5
141B
  8
SAPA_FOGBAND
 10
65.204449599762256
 20
-24.70824843627236
 30
0.0000000195376815
  0
VERTEX
  5
141C
  8
SAPA_FOGBAND
 10
66.257107494351203
 20
-25.414284411506859
 30
0.0000000195376815
 42
-0.250021237196914
  0
VERTEX
  5
141D
  8
SAPA_FOGBAND
 10
66.70008046615294
 20
-26.244778776241802
 30
0.0000000195376815
  0
VERTEX
  5
141E
  8
SAPA_FOGBAND
 10
66.70008046615294
 20
-27.31395305185163
 30
0.0000000195376815
 42
-0.250021237196914
  0
VERTEX
  5
141F
  8
SAPA_FOGBAND
 10
66.257107494351203
 20
-28.14444741658702
 30
0.0000000195376815
  0
VERTEX
  5
1420
  8
SAPA_FOGBAND
 10
65.204449599762256
 20
-28.850483391821069
 30
0.0000000195376815
 42
-0.4995370695831766
  0
VERTEX
  5
1421
  8
SAPA_FOGBAND
 10
64.907732754327981
 20
-28.731129723067291
 30
0.0000000195376815
  0
VERTEX
  5
1422
  8
SAPA_FOGBAND
 10
64.800080466152849
 20
-28.3293659140469
 30
0.0000000195376815
  0
VERTEX
  5
1423
  8
SAPA_FOGBAND
 10
63.732813920768422
 20
-28.3293659140469
 30
0.0000000195376815
  0
VERTEX
  5
1424
  8
SAPA_FOGBAND
 10
63.792530957346337
 20
-29.01193476549691
 30
0.0000000195376815
 42
-0.4400105308918379
  0
VERTEX
  5
1425
  8
SAPA_FOGBAND
 10
63.59329201772789
 20
-29.229365914046529
 30
0.0000000195376815
  0
VERTEX
  5
1426
  8
SAPA_FOGBAND
 10
63.558296552317643
 20
-29.229365914046529
 30
0.0000000195376815
 42
-0.3888787318529988
  0
VERTEX
  5
1427
  8
SAPA_FOGBAND
 10
62.960579733462502
 20
-28.68165935969558
 30
0.0000000195376815
  0
VERTEX
  5
1428
  8
SAPA_FOGBAND
 10
62.887587283994662
 20
-27.84735184456952
 30
0.0000000195376815
 42
0.2668174844056302
  0
VERTEX
  5
1429
  8
SAPA_FOGBAND
 10
62.773637031339142
 20
-27.683880146607081
 30
0.0000000195376815
 42
-0.6341045221175712
  0
VERTEX
  5
142A
  8
SAPA_FOGBAND
 10
62.773637031339142
 20
-25.874851681486351
 30
0.0000000195376815
 42
0.2668174844056113
  0
VERTEX
  5
142B
  8
SAPA_FOGBAND
 10
62.887587283994662
 20
-25.711379983523909
 30
0.0000000195376815
  0
VERTEX
  5
142C
  8
SAPA_FOGBAND
 10
62.960178432473192
 20
-24.881659359695401
 30
0.0000000195376815
 42
0.3932191662530252
  0
VERTEX
  5
142D
  8
SAPA_FOGBAND
 10
62.316611324843052
 20
-24.129365914047082
 30
0.0000000195376815
 42
0.5936677432385475
  0
VERTEX
  5
142E
  8
SAPA_FOGBAND
 10
59.546411535050083
 20
-27.562168403304561
 30
0.0000000195376815
 42
-1.0000000000000131
  0
VERTEX
  5
142F
  8
SAPA_FOGBAND
 10
59.191866080504717
 20
-28.04621129464898
 30
0.0000000195376815
 42
-0.6273677588277283
  0
VERTEX
  5
1430
  8
SAPA_FOGBAND
 10
62.316611324843052
 20
-23.529365914046721
 30
0.0000000195376815
  0
VERTEX
  5
1431
  8
SAPA_FOGBAND
 10
63.335890398228003
 20
-23.529365914046721
 30
0.0000000195376815
 42
-0.4400105308918419
  0
SEQEND
  5
1432
  8
SAPA_FOGBAND
  0
POLYLINE
  5
AE2
  8
SAPA_FOGBAND
 66
     1
 10
0.0
 20
0.0
 30
0.0000000195376815
 70
     1
  0
VERTEX
  5
1433
  8
SAPA_FOGBAND
 10
64.048608603576668
 20
-27.5793659140469
 30
0.0000000195376815
 42
-0.6341370759941026
  0
VERTEX
  5
1434
  8
SAPA_FOGBAND
 10
63.971469681992858
 20
-27.415729550410681
 30
0.0000000195376815
 42
0.3592455179659193
  0
VERTEX
  5
1435
  8
SAPA_FOGBAND
 10
63.971469681992858
 20
-26.143002277683198
 30
0.0000000195376815
 42
-0.6341370759941019
  0
VERTEX
  5
1436
  8
SAPA_FOGBAND
 10
64.048608603576668
 20
-25.979365914046529
 30
0.0000000195376815
  0
VERTEX
  5
1437
  8
SAPA_FOGBAND
 10
65.400080466152758
 20
-25.979365914046529
 30
0.0000000195376815
 42
-0.4142135623730951
  0
VERTEX
  5
1438
  8
SAPA_FOGBAND
 10
65.900080466152758
 20
-26.479365914046529
 30
0.0000000195376815
  0
VERTEX
  5
1439
  8
SAPA_FOGBAND
 10
65.900080466152758
 20
-27.0793659140469
 30
0.0000000195376815
 42
-0.4142135623730951
  0
VERTEX
  5
143A
  8
SAPA_FOGBAND
 10
65.400080466152758
 20
-27.5793659140469
 30
0.0000000195376815
  0
SEQEND
  5
143B
  8
SAPA_FOGBAND
  0
CIRCLE
  5
AE3
  8
SAPA_FOGBAND
 10
27.351663373581911
 20
-31.761122310967838
 30
0.0
 40
0.3
  0
POLYLINE
  5
AE4
  8
SAPA_FOGBAND
 66
     1
 10
0.0
 20
0.0
 30
0.0
 70
     1
  0
VERTEX
  5
143C
  8
SAPA_FOGBAND
 10
24.17052093756752
 20
-27.952474593572219
 30
0.0
  0
VERTEX
  5
143D
  8
SAPA_FOGBAND
 10
24.17052093756751
 20
-29.865926862294032
 30
0.0
 42
0.4142135623730951
  0
VERTEX
  5
143E
  8
SAPA_FOGBAND
 10
24.67052093756751
 20
-30.365926862294032
 30
0.0
  0
VERTEX
  5
143F
  8
SAPA_FOGBAND
 10
25.47052093756724
 20
-30.365926862294032
 30
0.0
 42
0.4142135623730951
  0
VERTEX
  5
1440
  8
SAPA_FOGBAND
 10
25.97052093756724
 20
-29.865926862294032
 30
0.0
  0
VERTEX
  5
1441
  8
SAPA_FOGBAND
 10
25.970520937567251
 20
-27.78982305022771
 30
0.0
 42
0.2216946626429447
  0
VERTEX
  5
1442
  8
SAPA_FOGBAND
 10
25.75619350337934
 20
-27.33019638435588
 30
0.0
  0
VERTEX
  5
1443
  8
SAPA_FOGBAND
 10
25.32699888344246
 20
-26.97005933706339
 30
0.0
 42
0.4400105308918337
  0
VERTEX
  5
1444
  8
SAPA_FOGBAND
 10
24.66491738450873
 20
-27.05722402000481
 30
0.0
  0
VERTEX
  5
1445
  8
SAPA_FOGBAND
 10
24.279029710993878
 20
-27.608328731761389
 30
0.0
 42
0.153914721059829
  0
SEQEND
  5
1446
  8
SAPA_FOGBAND
  0
POLYLINE
  5
AE5
  8
SAPA_FOGBAND
 66
     1
 10
0.0
 20
0.0
 30
0.0
 70
     1
  0
VERTEX
  5
1447
  8
SAPA_FOGBAND
 10
27.984575675469721
 20
-41.450456148966509
 30
0.0
 42
-0.1579553886371987
  0
VERTEX
  5
1448
  8
SAPA_FOGBAND
 10
27.837516169005418
 20
-44.714284193082563
 30
0.0
 42
-1.0
  0
VERTEX
  5
1449
  8
SAPA_FOGBAND
 10
24.466198446244331
 20
-43.451661204143299
 30
0.0
 42
-0.1276248526686838
  0
VERTEX
  5
144A
  8
SAPA_FOGBAND
 10
25.70751086792983
 20
-41.684008695665739
 30
0.0
  0
VERTEX
  5
144B
  8
SAPA_FOGBAND
 10
26.77689954050231
 20
-40.77466217209701
 30
0.0
 42
-0.5691506674918112
  0
VERTEX
  5
144C
  8
SAPA_FOGBAND
 10
27.9155907351394
 20
-41.164897927815097
 30
0.0
 42
0.0156300267407041
  0
SEQEND
  5
144D
  8
SAPA_FOGBAND
  0
POLYLINE
  5
AE6
  8
SAPA_FOGBAND
 66
     1
 10
0.0
 20
0.0
 30
0.0
 70
     1
  0
VERTEX
  5
144E
  8
SAPA_FOGBAND
 10
20.775087299857201
 20
-30.147604708413269
 30
0.0
 42
0.3888787318529789
  0
VERTEX
  5
144F
  8
SAPA_FOGBAND
 10
21.762143124367181
 20
-31.43396090332487
 30
0.0
  0
VERTEX
  5
1450
  8
SAPA_FOGBAND
 10
22.479644973953551
 20
-31.560475838115391
 30
0.0
 42
1.0
  0
VERTEX
  5
1451
  8
SAPA_FOGBAND
 10
23.070529625760852
 20
-31.664664744715878
 30
0.0
  0
VERTEX
  5
1452
  8
SAPA_FOGBAND
 10
23.67964497395382
 20
-31.77206821496554
 30
0.0
 42
0.9999999999999067
  0
VERTEX
  5
1453
  8
SAPA_FOGBAND
 10
24.270529625761121
 20
-31.876257121565569
 30
0.0
  0
VERTEX
  5
1454
  8
SAPA_FOGBAND
 10
24.61525626042998
 20
-31.937041728226969
 30
0.0
 42
-0.3345953195020691
  0
VERTEX
  5
1455
  8
SAPA_FOGBAND
 10
26.667440554683481
 20
-34.137739952588049
 30
0.0
  0
VERTEX
  5
1456
  8
SAPA_FOGBAND
 10
27.020548327600629
 20
-38.151547357599952
 30
0.0
 42
-0.2564696513213821
  0
VERTEX
  5
1457
  8
SAPA_FOGBAND
 10
25.894616161658629
 20
-40.60604155630687
 30
0.0
  0
VERTEX
  5
1458
  8
SAPA_FOGBAND
 10
25.254050981440049
 20
-41.150741284937681
 30
0.0
 42
0.1276248526686853
  0
VERTEX
  5
1459
  8
SAPA_FOGBAND
 10
23.810664444596341
 20
-43.206151178516727
 30
0.0
 42
1.0
  0
VERTEX
  5
145A
  8
SAPA_FOGBAND
 10
28.493050170653301
 20
-44.959794218709582
 30
0.0
 42
0.1579553886371977
  0
VERTEX
  5
145B
  8
SAPA_FOGBAND
 10
28.65953263080177
 20
-41.264894546124992
 30
0.0
 42
-0.0604483959424258
  0
VERTEX
  5
145C
  8
SAPA_FOGBAND
 10
28.558440096348701
 20
-37.87478248513969
 30
0.0
  0
VERTEX
  5
145D
  8
SAPA_FOGBAND
 10
28.770520937567419
 20
-32.71721572877221
 30
0.0
 42
-0.3286126757704555
  0
VERTEX
  5
145E
  8
SAPA_FOGBAND
 10
29.826076493123079
 20
-31.284571622302678
 30
0.0
 42
0.2704382184496639
  0
VERTEX
  5
145F
  8
SAPA_FOGBAND
 10
30.739752768263081
 20
-30.166063097166329
 30
0.0
  0
VERTEX
  5
1460
  8
SAPA_FOGBAND
 10
26.870520937567331
 20
-30.365926862294032
 30
0.0
  0
VERTEX
  5
1461
  8
SAPA_FOGBAND
 10
26.870520937567331
 20
-29.16592686229421
 30
0.0
  0
VERTEX
  5
1462
  8
SAPA_FOGBAND
 10
26.816049174527961
 20
-28.10486245674463
 30
0.0
  0
VERTEX
  5
1463
  8
SAPA_FOGBAND
 10
27.365895083333051
 20
-28.10583146660235
 30
0.0
 42
0.6068148963145658
  0
VERTEX
  5
1464
  8
SAPA_FOGBAND
 10
27.481085652708089
 20
-27.586240385779892
 30
0.0
  0
VERTEX
  5
1465
  8
SAPA_FOGBAND
 10
25.665672842687631
 20
-26.20991469988974
 30
0.0
 42
0.4400105308918406
  0
VERTEX
  5
1466
  8
SAPA_FOGBAND
 10
24.141043551449229
 20
-26.410635953976339
 30
0.0
  0
VERTEX
  5
1467
  8
SAPA_FOGBAND
 10
22.617842170033558
 20
-28.427598878199088
 30
0.0
 42
0.5205670505516999
  0
VERTEX
  5
1468
  8
SAPA_FOGBAND
 10
22.785942069789598
 20
-28.88944955699106
 30
0.0
  0
VERTEX
  5
1469
  8
SAPA_FOGBAND
 10
23.53078118122221
 20
-28.916045188026029
 30
0.0
  0
VERTEX
  5
146A
  8
SAPA_FOGBAND
 10
23.331270237768191
 20
-30.205957996874421
 30
0.0
  0
SEQEND
  5
146B
  8
SAPA_FOGBAND
  0
POLYLINE
  5
AE7
  8
SAPA_FOGBAND
 62
     2
 66
     1
 10
0.0
 20
0.0
 30
0.0
  0
VERTEX
  5
146C
  8
SAPA_FOGBAND
 62
     2
 10
13.350000000000099
 20
-92.006602084266333
 30
0.0
  0
VERTEX
  5
146D
  8
SAPA_FOGBAND
 62
     2
 10
12.259081189847359
 20
-91.814243664273945
 30
0.0
  0
VERTEX
  5
146E
  8
SAPA_FOGBAND
 62
     2
 10
12.14338165032742
 20
-92.246040224175559
 30
0.0
 42
-0.4430158954262519
  0
VERTEX
  5
146F
  8
SAPA_FOGBAND
 62
     2
 10
11.879905222220451
 20
-92.381517271719645
 30
0.0
  0
VERTEX
  5
1470
  8
SAPA_FOGBAND
 62
     2
 10
10.60941747430225
 20
-91.904569078500685
 30
0.0
 42
-0.3125358528825162
  0
VERTEX
  5
1471
  8
SAPA_FOGBAND
 62
     2
 10
10.350000000000559
 20
-91.530087365371287
 30
0.0
  0
VERTEX
  5
1472
  8
SAPA_FOGBAND
 62
     2
 10
10.350000000000099
 20
-89.659932049461005
 30
0.0
 42
-0.3125358528825104
  0
VERTEX
  5
1473
  8
SAPA_FOGBAND
 62
     2
 10
10.60941747430226
 20
-89.285450336331593
 30
0.0
  0
VERTEX
  5
1474
  8
SAPA_FOGBAND
 62
     2
 10
11.879905222220451
 20
-88.808502143112406
 30
0.0
 42
-0.4430158954262519
  0
VERTEX
  5
1475
  8
SAPA_FOGBAND
 62
     2
 10
12.14338165032731
 20
-88.943979190656506
 30
0.0
  0
VERTEX
  5
1476
  8
SAPA_FOGBAND
 62
     2
 10
12.259081189847359
 20
-89.375775750558347
 30
0.0
  0
VERTEX
  5
1477
  8
SAPA_FOGBAND
 62
     2
 10
13.331769303614889
 20
-89.186631894215822
 30
0.0
  0
SEQEND
  5
1478
  8
SAPA_FOGBAND
 62
     2
  0
POLYLINE
  5
AE8
  8
SAPA_FOGBAND
 62
     2
 66
     1
 10
0.0
 20
0.0
 30
0.0
 70
     1
  0
VERTEX
  5
1479
  8
SAPA_FOGBAND
 62
     2
 10
13.350000000000099
 20
-91.995009707416017
 30
0.0
 42
0.285714285714282
  0
VERTEX
  5
147A
  8
SAPA_FOGBAND
 62
     2
 10
13.350000000000099
 20
-89.195009707416077
 30
0.0
  0
VERTEX
  5
147B
  8
SAPA_FOGBAND
 62
     2
 10
13.350000000000559
 20
-87.121229538028174
 30
0.0
 42
-0.3882600129940275
  0
VERTEX
  5
147C
  8
SAPA_FOGBAND
 62
     2
 10
13.62321072628011
 20
-86.822428040686773
 30
0.0
  0
VERTEX
  5
147D
  8
SAPA_FOGBAND
 62
     2
 10
16.9232107262802
 20
-86.356218116760289
 30
0.0
 42
-0.4406523138893894
  0
VERTEX
  5
147E
  8
SAPA_FOGBAND
 62
     2
 10
17.250000000000099
 20
-86.655019614102144
 30
0.0
  0
VERTEX
  5
147F
  8
SAPA_FOGBAND
 62
     2
 10
17.250000000000099
 20
-88.364811611022475
 30
0.0
 42
-0.3394542588634375
  0
VERTEX
  5
1480
  8
SAPA_FOGBAND
 62
     2
 10
17.027645713531101
 20
-88.654589358909007
 30
0.0
  0
VERTEX
  5
1481
  8
SAPA_FOGBAND
 62
     2
 10
16.810059931363512
 20
-88.856969086840436
 30
0.0
 42
0.3394542588633663
  0
VERTEX
  5
1482
  8
SAPA_FOGBAND
 62
     2
 10
16.587705644894509
 20
-89.14674683472721
 30
0.0
  0
VERTEX
  5
1483
  8
SAPA_FOGBAND
 62
     2
 10
16.587705644894509
 20
-92.043272580105054
 30
0.0
 42
0.3394542588634373
  0
VERTEX
  5
1484
  8
SAPA_FOGBAND
 62
     2
 10
16.810059931363512
 20
-92.333050327991614
 30
0.0
  0
VERTEX
  5
1485
  8
SAPA_FOGBAND
 62
     2
 10
17.027645713531101
 20
-92.535430055923044
 30
0.0
 42
-0.3394542588633662
  0
VERTEX
  5
1486
  8
SAPA_FOGBAND
 62
     2
 10
17.250000000000099
 20
-92.825207803809818
 30
0.0
  0
VERTEX
  5
1487
  8
SAPA_FOGBAND
 62
     2
 10
17.250000000000099
 20
-94.534999800729921
 30
0.0
 42
-0.4406523138893994
  0
VERTEX
  5
1488
  8
SAPA_FOGBAND
 62
     2
 10
16.9232107262802
 20
-94.833801298071549
 30
0.0
  0
VERTEX
  5
1489
  8
SAPA_FOGBAND
 62
     2
 10
13.62321072628011
 20
-94.367591374145292
 30
0.0
 42
-0.3882600129940462
  0
VERTEX
  5
148A
  8
SAPA_FOGBAND
 62
     2
 10
13.350000000000099
 20
-94.068789876803891
 30
0.0
  0
VERTEX
  5
148B
  8
SAPA_FOGBAND
 62
     2
 10
13.350000000000099
 20
-92.006602084266333
 30
0.0
  0
SEQEND
  5
148C
  8
SAPA_FOGBAND
 62
     2
  0
POLYLINE
  5
AE9
  8
SAPA_FOGBAND
 66
     1
 10
0.0
 20
0.0
 30
0.0
 70
     1
  0
VERTEX
  5
148D
  8
SAPA_FOGBAND
 10
29.839251262205028
 20
-83.438407547763234
 30
0.0
  0
VERTEX
  5
148E
  8
SAPA_FOGBAND
 10
29.839251262205028
 20
-84.638407547763265
 30
0.0
 42
0.4142135623730951
  0
VERTEX
  5
148F
  8
SAPA_FOGBAND
 10
30.13925126220499
 20
-84.938407547763234
 30
0.0
  0
VERTEX
  5
1490
  8
SAPA_FOGBAND
 10
31.039251262205081
 20
-84.938407547763234
 30
0.0
  0
VERTEX
  5
1491
  8
SAPA_FOGBAND
 10
31.039251262205081
 20
-84.588407547763325
 30
0.0
 42
-0.6681786379192988
  0
VERTEX
  5
1492
  8
SAPA_FOGBAND
 10
31.551383296561081
 20
-84.376275513407279
 30
0.0
  0
VERTEX
  5
1493
  8
SAPA_FOGBAND
 10
32.404936687154184
 20
-85.229828904000613
 30
0.0
 42
-0.1989123673796552
  0
VERTEX
  5
1494
  8
SAPA_FOGBAND
 10
32.639251262204979
 20
-85.795514328949764
 30
0.0
  0
VERTEX
  5
1495
  8
SAPA_FOGBAND
 10
32.639251262204979
 20
-85.958209451369555
 30
0.0
 42
-0.3394542588633746
  0
VERTEX
  5
1496
  8
SAPA_FOGBAND
 10
32.416896975735753
 20
-86.247987199256329
 30
0.0
  0
VERTEX
  5
1497
  8
SAPA_FOGBAND
 10
31.061605548674262
 20
-86.611136442646213
 30
0.0
 42
0.3394542588633746
  0
VERTEX
  5
1498
  8
SAPA_FOGBAND
 10
30.839251262205028
 20
-86.900914190533015
 30
0.0
  0
VERTEX
  5
1499
  8
SAPA_FOGBAND
 10
30.839251262205028
 20
-89.475900904993466
 30
0.0
 42
0.3394542588633746
  0
VERTEX
  5
149A
  8
SAPA_FOGBAND
 10
31.061605548674262
 20
-89.765678652880226
 30
0.0
  0
VERTEX
  5
149B
  8
SAPA_FOGBAND
 10
32.416896975735753
 20
-90.128827896270366
 30
0.0
 42
-0.3394542588633744
  0
VERTEX
  5
149C
  8
SAPA_FOGBAND
 10
32.639251262204979
 20
-90.418605644156898
 30
0.0
  0
VERTEX
  5
149D
  8
SAPA_FOGBAND
 10
32.639251262204979
 20
-90.581300766576931
 30
0.0
 42
-0.1989123673796526
  0
VERTEX
  5
149E
  8
SAPA_FOGBAND
 10
32.404936687154184
 20
-91.146986191526082
 30
0.0
  0
VERTEX
  5
149F
  8
SAPA_FOGBAND
 10
31.551383296561081
 20
-92.000539582119416
 30
0.0
 42
-0.6681786379193474
  0
VERTEX
  5
14A0
  8
SAPA_FOGBAND
 10
31.039251262205081
 20
-91.788407547763356
 30
0.0
  0
VERTEX
  5
14A1
  8
SAPA_FOGBAND
 10
31.039251262205081
 20
-91.438407547763234
 30
0.0
  0
VERTEX
  5
14A2
  8
SAPA_FOGBAND
 10
30.139251262204979
 20
-91.438407547763234
 30
0.0
 42
0.4142135623730951
  0
VERTEX
  5
14A3
  8
SAPA_FOGBAND
 10
29.839251262205028
 20
-91.738407547763416
 30
0.0
  0
VERTEX
  5
14A4
  8
SAPA_FOGBAND
 10
29.839251262205028
 20
-93.838407547763325
 30
0.0
 42
0.4142135623730951
  0
VERTEX
  5
14A5
  8
SAPA_FOGBAND
 10
30.139251262204979
 20
-94.138407547763279
 30
0.0
  0
VERTEX
  5
14A6
  8
SAPA_FOGBAND
 10
31.53925126220507
 20
-94.138407547763279
 30
0.0
 42
-0.7754026414786132
  0
VERTEX
  5
14A7
  8
SAPA_FOGBAND
 10
31.68395913051096
 20
-94.701199543170958
 30
0.0
 42
0.1086822875051356
  0
VERTEX
  5
14A8
  8
SAPA_FOGBAND
 10
23.755876740374202
 20
-98.851247701761793
 30
0.0
 42
-0.8680589103334746
  0
VERTEX
  5
14A9
  8
SAPA_FOGBAND
 10
23.39903683771227
 20
-98.376323671998023
 30
0.0
  0
VERTEX
  5
14AA
  8
SAPA_FOGBAND
 10
26.226837158856242
 20
-94.406288274846418
 30
0.0
 42
0.1989123673796536
  0
VERTEX
  5
14AB
  8
SAPA_FOGBAND
 10
26.519730377669578
 20
-93.699181493659751
 30
0.0
  0
VERTEX
  5
14AC
  8
SAPA_FOGBAND
 10
26.519730377669578
 20
-90.865862529240019
 30
0.0
 42
0.577350269189628
  0
VERTEX
  5
14AD
  8
SAPA_FOGBAND
 10
26.06973037766976
 20
-90.606054908104795
 30
0.0
  0
VERTEX
  5
14AE
  8
SAPA_FOGBAND
 10
23.764976274315458
 20
-92.744183604516536
 30
0.0
 42
-0.8769764629927301
  0
VERTEX
  5
14AF
  8
SAPA_FOGBAND
 10
23.402844239959329
 20
-92.272243949025267
 30
0.0
  0
VERTEX
  5
14B0
  8
SAPA_FOGBAND
 10
26.226837158856249
 20
-88.306015954120483
 30
0.0
 42
0.198912367379658
  0
VERTEX
  5
14B1
  8
SAPA_FOGBAND
 10
26.519730377669578
 20
-87.598909172933816
 30
0.0
  0
VERTEX
  5
14B2
  8
SAPA_FOGBAND
 10
26.519730377669578
 20
-85.366634810712355
 30
0.0
 42
0.5773502691896441
  0
VERTEX
  5
14B3
  8
SAPA_FOGBAND
 10
26.069730377669771
 20
-85.106827189576904
 30
0.0
  0
VERTEX
  5
14B4
  8
SAPA_FOGBAND
 10
23.76584502749585
 20
-87.244454311106139
 30
0.0
 42
-0.87697646299276
  0
VERTEX
  5
14B5
  8
SAPA_FOGBAND
 10
23.40371299313971
 20
-86.772514655614884
 30
0.0
  0
VERTEX
  5
14B6
  8
SAPA_FOGBAND
 10
26.302691806169939
 20
-82.731300766576794
 30
0.0
 42
-0.198912367379658
  0
VERTEX
  5
14B7
  8
SAPA_FOGBAND
 10
27.009798587356379
 20
-82.438407547763234
 30
0.0
  0
VERTEX
  5
14B8
  8
SAPA_FOGBAND
 10
28.839251262205028
 20
-82.438407547763234
 30
0.0
  0
VERTEX
  5
14B9
  8
SAPA_FOGBAND
 10
28.829319471891829
 20
-82.438407547763234
 30
0.0
  0
SEQEND
  5
14BA
  8
SAPA_FOGBAND
  0
DIMENSION
  5
AF2
  8
SAPA_MATT
  2
*D33
 10
-21.150000000000109
 20
-93.945009707413817
 30
0.0
 11
-23.650000000000091
 21
-46.695009707413931
 31
0.0
 70
     0
 13
-11.150000000000089
 23
0.5549902925859627
 33
0.0
 14
-11.15000000000011
 24
-93.945009707413817
 34
0.0
 50
270.0
1001
ACAD
1000
DSTYLE
1002
{
1070
    40
1040
1.0
1002
}
  0
DIMENSION
  5
AF3
  8
SAPA_MATT
  2
*D32
 10
-11.15000000000016
 20
-93.945009707413817
 30
0.0
 11
-13.65000000000015
 21
-75.195009707413874
 31
0.0
 70
     0
 13
9.8500000000000121
 23
-56.445009707413917
 33
0.0
 14
9.8500000000000032
 24
-93.945009707413817
 34
0.0
 50
90.0
1001
ACAD
1000
DSTYLE
1002
{
1070
   287
1070
     4
1070
    40
1040
1.0
1070
   279
1070
     1
1002
}
  0
DIMENSION
  5
AF4
  8
SAPA_MATT
  2
*D31
 10
-11.1500000000001
 20
-56.445009707413917
 30
0.0
 11
-13.650000000000089
 21
-53.945009707414037
 31
0.0
 70
     0
 13
9.1499999999998511
 23
-51.445009707414151
 33
0.0
 14
9.8500000000000121
 24
-56.445009707413917
 34
0.0
 50
90.0
1001
ACAD
1000
DSTYLE
1002
{
1070
   287
1070
     4
1070
    40
1040
1.0
1070
   279
1070
     1
1002
}
  0
DIMENSION
  5
AF5
  8
SAPA_MATT
  2
*D30
 10
-11.150000000000089
 20
0.5549902925859613
 30
0.0
 11
-13.650000000000089
 21
-25.445009707414101
 31
0.0
 70
     0
 13
9.1499999999998511
 23
-51.445009707414151
 33
0.0
 14
9.1499999999999737
 24
0.5549902925859556
 34
0.0
 50
90.0
1001
ACAD
1000
DSTYLE
1002
{
1070
    40
1040
1.0
1002
}
  0
VIEWPORT
  5
C4
 67
     1
  8
0
 10
143.06236603067589
 20
116.00969601843509
 30
0.0
 40
369.98580003443811
 41
256.8421457311839
 68
     1
 69
     1
1001
ACAD
1000
MVIEW
1002
{
1070
    16
1010
0.0
1020
0.0
1030
0.0
1010
0.0
1020
0.0
1030
1.0
1040
0.0
1040
256.8421457311839
1040
99.112914085388169
1040
143.07606935501099
1040
50.0
1040
0.0
1040
0.0
1070
     0
1070
     0
1070
     1
1070
     1
1070
     0
1070
     0
1070
     0
1070
     0
1040
0.0
1040
0.0
1040
0.0
1040
10.0
1040
10.0
1040
10.0
1040
10.0
1070
     0
1002
{
1002
}
1002
}
  0
ENDSEC
  0
EOF
