  0
SECTION
  2
HEADER
  9
$ACADVER
  1
AC1009
  9
$INSBASE
 10
0.0
 20
0.0
 30
0.0
  9
$EXTMIN
 10
-26.650000000000091
 20
-10.136868955185721
 30
0.0
  9
$EXTMAX
 10
75.350598577718202
 20
110.4156750223831
 30
0.0000000195376815
  9
$LIMMIN
 10
0.0
 20
0.0
  9
$LIMMAX
 10
790.0
 20
790.0
  9
$ORTHOMODE
 70
     1
  9
$REGENMODE
 70
     1
  9
$FILLMODE
 70
     1
  9
$QTEXTMODE
 70
     0
  9
$MIRRTEXT
 70
     1
  9
$DRAGMODE
 70
     2
  9
$LTSCALE
 40
4.0
  9
$OSMODE
 70
   167
  9
$ATTMODE
 70
     1
  9
$TEXTSIZE
 40
3.5
  9
$TRACEWID
 40
0.05
  9
$TEXTSTYLE
  7
ISO
  9
$CLAYER
  8
0
  9
$CELTYPE
  6
BYLAYER
  9
$CECOLOR
 62
   256
  9
$DIMSCALE
 40
0.0
  9
$DIMASZ
 40
3.0
  9
$DIMEXO
 40
1.5
  9
$DIMDLI
 40
10.0
  9
$DIMRND
 40
0.0
  9
$DIMDLE
 40
0.0
  9
$DIMEXE
 40
1.5
  9
$DIMTP
 40
0.0
  9
$DIMTM
 40
0.0
  9
$DIMTXT
 40
3.0
  9
$DIMCEN
 40
-5.0
  9
$DIMTSZ
 40
0.0
  9
$DIMTOL
 70
     0
  9
$DIMLIM
 70
     0
  9
$DIMTIH
 70
     0
  9
$DIMTOH
 70
     0
  9
$DIMSE1
 70
     0
  9
$DIMSE2
 70
     0
  9
$DIMTAD
 70
     1
  9
$DIMZIN
 70
     8
  9
$DIMBLK
  1

  9
$DIMASO
 70
     1
  9
$DIMSHO
 70
     1
  9
$DIMPOST
  1

  9
$DIMAPOST
  1

  9
$DIMALT
 70
     0
  9
$DIMALTD
 70
     0
  9
$DIMALTF
 40
25.399999999999999
  9
$DIMLFAC
 40
-1.0
  9
$DIMTOFL
 70
     1
  9
$DIMTVP
 40
0.0
  9
$DIMTIX
 70
     0
  9
$DIMSOXD
 70
     0
  9
$DIMSAH
 70
     0
  9
$DIMBLK1
  1

  9
$DIMBLK2
  1

  9
$DIMSTYLE
  2
MASKIN
  9
$DIMCLRD
 70
   256
  9
$DIMCLRE
 70
   256
  9
$DIMCLRT
 70
     2
  9
$DIMTFAC
 40
1.0
  9
$DIMGAP
 40
1.0
  9
$LUNITS
 70
     2
  9
$LUPREC
 70
     8
  9
$SKETCHINC
 40
0.1
  9
$FILLETRAD
 40
0.0
  9
$AUNITS
 70
     0
  9
$AUPREC
 70
     8
  9
$MENU
  1
ACAD
  9
$ELEVATION
 40
0.0
  9
$PELEVATION
 40
0.0
  9
$THICKNESS
 40
0.0
  9
$LIMCHECK
 70
     0
  9
$BLIPMODE
 70
     0
  9
$CHAMFERA
 40
0.0
  9
$CHAMFERB
 40
0.0
  9
$SKPOLY
 70
     0
  9
$TDCREATE
 40
2454967.3172807181
  9
$TDUPDATE
 40
2455993.5564544331
  9
$TDINDWG
 40
0.0153658102
  9
$TDUSRTIMER
 40
0.015365625
  9
$USRTIMER
 70
     1
  9
$ANGBASE
 50
0.0
  9
$ANGDIR
 70
     0
  9
$PDMODE
 70
     3
  9
$PDSIZE
 40
0.0
  9
$PLINEWID
 40
0.0
  9
$COORDS
 70
     1
  9
$SPLFRAME
 70
     0
  9
$SPLINETYPE
 70
     6
  9
$SPLINESEGS
 70
     8
  9
$ATTDIA
 70
     0
  9
$ATTREQ
 70
     1
  9
$HANDLING
 70
     1
  9
$HANDSEED
  5
1206
  9
$SURFTAB1
 70
     6
  9
$SURFTAB2
 70
     6
  9
$SURFTYPE
 70
     6
  9
$SURFU
 70
     6
  9
$SURFV
 70
     6
  9
$UCSNAME
  2

  9
$UCSORG
 10
0.0
 20
0.0
 30
0.0
  9
$UCSXDIR
 10
1.0
 20
0.0
 30
0.0
  9
$UCSYDIR
 10
0.0
 20
1.0
 30
0.0
  9
$PUCSNAME
  2

  9
$PUCSORG
 10
0.0
 20
0.0
 30
0.0
  9
$PUCSXDIR
 10
1.0
 20
0.0
 30
0.0
  9
$PUCSYDIR
 10
0.0
 20
1.0
 30
0.0
  9
$USERI1
 70
     0
  9
$USERI2
 70
     0
  9
$USERI3
 70
     0
  9
$USERI4
 70
     0
  9
$USERI5
 70
     0
  9
$USERR1
 40
0.0
  9
$USERR2
 40
0.0
  9
$USERR3
 40
0.0
  9
$USERR4
 40
0.0
  9
$USERR5
 40
0.0
  9
$WORLDVIEW
 70
     1
  9
$SHADEDGE
 70
     3
  9
$SHADEDIF
 70
    70
  9
$TILEMODE
 70
     1
  9
$MAXACTVP
 70
    16
  9
$PLIMCHECK
 70
     0
  9
$PEXTMIN
 10
1.0000000000000000E+020
 20
1.0000000000000000E+020
 30
1.0000000000000000E+020
  9
$PEXTMAX
 10
-1.0000000000000000E+020
 20
-1.0000000000000000E+020
 30
-1.0000000000000000E+020
  9
$PLIMMIN
 10
-5.069427490234375
 20
-5.8737497329711914
  9
$PLIMMAX
 10
291.89889526367187
 20
204.0995779037475
  9
$UNITMODE
 70
     0
  9
$VISRETAIN
 70
     1
  9
$PLINEGEN
 70
     0
  9
$PSLTSCALE
 70
     1
  0
ENDSEC
  0
SECTION
  2
TABLES
  0
TABLE
  2
VPORT
 70
     1
  0
VPORT
  2
*ACTIVE
 70
     0
 10
0.0
 20
0.0
 11
1.0
 21
1.0
 12
24.35324321517033
 22
65.438614008705301
 13
0.0
 23
0.0
 14
1.0
 24
1.0
 15
0.0
 25
0.0
 16
0.0
 26
0.0
 36
1.0
 17
0.0
 27
0.0
 37
0.0
 40
119.85575488380429
 41
2.3739130434782609
 42
50.0
 43
0.0
 44
0.0
 50
0.0
 51
0.0
 71
     0
 72
   100
 73
     1
 74
     1
 75
     0
 76
     0
 77
     0
 78
     0
  0
ENDTAB
  0
TABLE
  2
LTYPE
 70
    11
  0
LTYPE
  2
CONTINUOUS
 70
     0
  3
Solid line
 72
    65
 73
     0
 40
0.0
  0
LTYPE
  2
BYGG-014880$0$NEWDOT
 70
     0
  3
____ . ____ . ____ . ____ . ____ . ____ . ____
 72
    65
 73
     4
 40
2.0
 49
1.0
 49
-0.5
 49
0.0
 49
-0.5
  0
LTYPE
  2
BYGG-014878$0$NEWDOT
 70
     0
  3
____ . ____ . ____ . ____ . ____ . ____ . ____
 72
    65
 73
     4
 40
2.0
 49
1.0
 49
-0.5
 49
0.0
 49
-0.5
  0
LTYPE
  2
BYGG-014203$0$ZIGZAG
 70
     0
  3
Zig zag /\/\/\/\/\/\/\/\/\/\/\/\/\/\/\/\/\/\/\/\/\/\/\/
 72
    65
 73
     4
 40
20.32254
 49
0.00254
 49
-5.0800000000000001
 49
-10.16
 49
-5.0800000000000001
  0
LTYPE
  2
BYGG-014203$0$NEWDOT
 70
     0
  3
____ . ____ . ____ . ____ . ____ . ____ . ____
 72
    65
 73
     4
 40
2.0
 49
1.0
 49
-0.5
 49
0.0
 49
-0.5
  0
LTYPE
  2
BYGG-014880$0$ZIGZAG
 70
     0
  3
Zig zag /\/\/\/\/\/\/\/\/\/\/\/\/\/\/\/\/\/\/\/\/\/\/\/
 72
    65
 73
     4
 40
20.32254
 49
0.00254
 49
-5.0800000000000001
 49
-10.16
 49
-5.0800000000000001
  0
LTYPE
  2
BYGG-014878$0$ZIGZAG
 70
     0
  3
Zig zag /\/\/\/\/\/\/\/\/\/\/\/\/\/\/\/\/\/\/\/\/\/\/\/
 72
    65
 73
     4
 40
20.32254
 49
0.00254
 49
-5.0800000000000001
 49
-10.16
 49
-5.0800000000000001
  0
LTYPE
  2
BYGG-015740$0$NEWDOT
 70
     0
  3
____ . ____ . ____ . ____ . ____ . ____ . ____
 72
    65
 73
     4
 40
2.0
 49
1.0
 49
-0.5
 49
0.0
 49
-0.5
  0
LTYPE
  2
BYGG-015740$0$DASHDOT
 70
     0
  3
__ . __ . __ . __ . __ . __ . __ . __ . __ . __
 72
    65
 73
     4
 40
1.0
 49
0.5
 49
-0.25
 49
0.0
 49
-0.25
  0
LTYPE
  2
BYGG-015740$0$DASHED
 70
     0
  3
__ __ __ __ __ __ __ __ __ __ __ __ __ __ __
 72
    65
 73
     2
 40
0.75
 49
0.5
 49
-0.25
  0
LTYPE
  2
BYGG-015740$0$PHANTOM
 70
     0
  3
Phantom ______  __  __  ______  __  __  ______
 72
    65
 73
     6
 40
63.5
 49
31.75
 49
-6.3499999999999988
 49
6.3499999999999988
 49
-6.3499999999999988
 49
6.3499999999999988
 49
-6.3499999999999988
  0
ENDTAB
  0
TABLE
  2
LAYER
 70
    39
  0
LAYER
  2
0
 70
     0
 62
     7
  6
CONTINUOUS
  0
LAYER
  2
DEFPOINTS
 70
     0
 62
     7
  6
CONTINUOUS
  0
LAYER
  2
SAPA_MATT
 70
     0
 62
     1
  6
CONTINUOUS
  0
LAYER
  2
SAPA_ANSLUTNING
 70
     0
 62
     6
  6
CONTINUOUS
  0
LAYER
  2
SAPA_ARTIKELNR
 70
     0
 62
     4
  6
CONTINUOUS
  0
LAYER
  2
SAPA_LIGHT
 70
     1
 62
     1
  6
CONTINUOUS
  0
LAYER
  2
SAPA_GLAS
 70
     0
 62
     4
  6
CONTINUOUS
  0
LAYER
  2
SAPA_FOGBAND
 70
     0
 62
     2
  6
CONTINUOUS
  0
LAYER
  2
SAPA_PROFIL
 70
     0
 62
     7
  6
CONTINUOUS
  0
ENDTAB
  0
TABLE
  2
STYLE
 70
    15
  0
STYLE
  2
STANDARD
 70
     0
 40
0.0
 41
1.0
 50
0.0
 71
     0
 42
0.2
  3
txt
  4

  0
STYLE
  2
ISO
 70
     0
 40
0.0
 41
1.0
 50
0.0
 71
     0
 42
3.5
  3
txt
  4

  0
STYLE
  2

 70
     1
 40
0.0
 41
1.0
 50
0.0
 71
     0
 42
0.2
  3
ltypeshp.shx
  4

  0
STYLE
  2
BYGG-015740$0$STANDARD
 70
     0
 40
0.0
 41
1.0
 50
0.0
 71
     0
 42
0.2
  3
txt
  4

  0
STYLE
  2
BYGG-015740$0$ISO
 70
     0
 40
0.0
 41
1.0
 50
0.0
 71
     0
 42
3.5
  3
txt
  4

  0
STYLE
  2
BYGG-014880$0$STANDARD
 70
     0
 40
0.0
 41
1.0
 50
0.0
 71
     0
 42
0.2
  3
txt
  4

  0
STYLE
  2
BYGG-014880$0$ISO
 70
     0
 40
0.0
 41
1.0
 50
0.0
 71
     0
 42
3.5
  3
isocp3.shx
  4

  0
STYLE
  2
BYGG-018921$0$STANDARD
 70
     0
 40
0.0
 41
1.0
 50
0.0
 71
     0
 42
0.2
  3
txt
  4

  0
STYLE
  2
BYGG-018921$0$ISO
 70
     0
 40
0.0
 41
1.0
 50
0.0
 71
     0
 42
3.5
  3
txt
  4

  0
STYLE
  2
BYGG-014878$0$STANDARD
 70
     0
 40
0.0
 41
1.0
 50
0.0
 71
     0
 42
0.2
  3
txt
  4

  0
STYLE
  2
BYGG-014878$0$ISO
 70
     0
 40
0.0
 41
1.0
 50
0.0
 71
     0
 42
3.5
  3
isocp3.shx
  4

  0
STYLE
  2
BYGG-026033$0$STANDARD
 70
     0
 40
0.0
 41
1.0
 50
0.0
 71
     0
 42
0.2
  3
txt
  4

  0
STYLE
  2
BYGG-026033$0$ISO
 70
     0
 40
0.0
 41
1.0
 50
0.0
 71
     0
 42
3.5
  3
txt
  4

  0
STYLE
  2
BYGG-014203$0$STANDARD
 70
     0
 40
0.0
 41
1.0
 50
0.0
 71
     0
 42
0.2
  3
txt
  4

  0
STYLE
  2
BYGG-014203$0$ISO
 70
     0
 40
0.0
 41
1.0
 50
0.0
 71
     0
 42
3.5
  3
isocp3.shx
  4

  0
ENDTAB
  0
TABLE
  2
VIEW
 70
     0
  0
ENDTAB
  0
TABLE
  2
UCS
 70
     0
  0
ENDTAB
  0
TABLE
  2
APPID
 70
    20
  0
APPID
  2
ACAD
 70
     0
  0
APPID
  2
ACAD_DSTYLE_DIMTEXT_FILL
 70
     0
  0
APPID
  2
ACAD_DSTYLE_DIMEXT_LENGTH
 70
     0
  0
APPID
  2
ACAD_DSTYLE_DIMEXT_ENABLED
 70
     0
  0
APPID
  2
ACAD_DSTYLE_DIM_LINETYPE
 70
     0
  0
APPID
  2
ACAD_DSTYLE_DIM_EXT1_LINETYPE
 70
     0
  0
APPID
  2
ACAD_DSTYLE_DIM_EXT2_LINETYPE
 70
     0
  0
APPID
  2
ACAD_DSTYLE_DIMJOGGED_JOGA
 70
     0
  0
APPID
  2
ACAD_DSTYLE_DIMARC_LENGTH_
 70
     0
  0
APPID
  2
ACAD_PSEXT
 70
     0
  0
APPID
  2
ACAD_MLEADERVER
 70
     0
  0
APPID
  2
ACAECLAYERSTANDARD
 70
     0
  0
APPID
  2
ACAD_DSTYLE_DIMJAG
 70
     0
  0
APPID
  2
ACAD_DSTYLE_DIMTALN
 70
     0
  0
APPID
  2
AMG_ARCHIVE11
 70
     0
  0
APPID
  2
ACAD_EXEMPT_FROM_CAD_STANDARDS
 70
     0
  0
APPID
  2
ACADANNOTATIVE
 70
     0
  0
APPID
  2
ACAD_NAV_VCDISPLAY
 70
     0
  0
APPID
  2
AEC_XDATA_BOUND_SPACE
 70
     0
  0
APPID
  2
ACCMTRANSPARENCY
 70
     0
  0
ENDTAB
  0
TABLE
  2
DIMSTYLE
 70
    11
  0
DIMSTYLE
  2
MASKIN
 70
     0
  3

  4

  5

  6

  7

 40
0.0
 41
3.0
 42
1.5
 43
10.0
 44
1.5
 45
0.0
 46
0.0
 47
0.0
 48
0.0
140
3.0
141
-5.0
142
0.0
143
25.399999999999999
144
-1.0
145
0.0
146
1.0
147
1.0
 71
     0
 72
     0
 73
     0
 74
     0
 75
     0
 76
     0
 77
     1
 78
     8
170
     0
171
     0
172
     1
173
     0
174
     0
175
     0
176
   256
177
   256
178
     2
  0
DIMSTYLE
  2
BYGG-015740$0$STANDARD
 70
     0
  3

  4

  5

  6

  7

 40
1.0
 41
0.18
 42
0.0625
 43
0.38
 44
0.18
 45
0.0
 46
0.0
 47
0.0
 48
0.0
140
0.18
141
0.09
142
0.0
143
25.399999999999999
144
1.0
145
0.0
146
1.0
147
0.09
 71
     0
 72
     0
 73
     1
 74
     1
 75
     0
 76
     0
 77
     0
 78
     0
170
     0
171
     2
172
     0
173
     0
174
     0
175
     0
176
     0
177
     0
178
     0
  0
DIMSTYLE
  2
BYGG-015740$0$MASKIN
 70
     0
  3

  4

  5

  6

  7

 40
0.0
 41
3.0
 42
1.5
 43
10.0
 44
1.5
 45
0.0
 46
0.0
 47
0.0
 48
0.0
140
3.0
141
-5.0
142
0.0
143
25.399999999999999
144
-1.0
145
0.0
146
1.0
147
1.0
 71
     0
 72
     0
 73
     0
 74
     0
 75
     0
 76
     0
 77
     1
 78
     8
170
     0
171
     0
172
     1
173
     0
174
     0
175
     0
176
   256
177
   256
178
     2
  0
DIMSTYLE
  2
BYGG-014880$0$MASKIN
 70
     0
  3

  4

  5

  6

  7

 40
0.0
 41
3.0
 42
1.5
 43
10.0
 44
1.5
 45
0.0
 46
0.0
 47
0.0
 48
0.0
140
3.0
141
-5.0
142
0.0
143
25.399999999999999
144
-1.0
145
0.0
146
1.0
147
1.0
 71
     0
 72
     0
 73
     0
 74
     0
 75
     0
 76
     0
 77
     1
 78
     8
170
     0
171
     0
172
     1
173
     0
174
     0
175
     0
176
   256
177
   256
178
   256
  0
DIMSTYLE
  2
BYGG-014880$0$STANDARD
 70
     0
  3

  4

  5

  6

  7

 40
1.0
 41
0.18
 42
0.0625
 43
0.38
 44
0.18
 45
0.0
 46
0.0
 47
0.0
 48
0.0
140
0.18
141
0.09
142
0.0
143
25.399999999999999
144
1.0
145
0.0
146
1.0
147
0.09
 71
     0
 72
     0
 73
     1
 74
     1
 75
     0
 76
     0
 77
     0
 78
     0
170
     0
171
     2
172
     0
173
     0
174
     0
175
     0
176
     0
177
     0
178
     0
  0
DIMSTYLE
  2
BYGG-018921$0$MASKIN
 70
     0
  3

  4

  5

  6

  7

 40
0.0
 41
3.0
 42
1.5
 43
10.0
 44
1.5
 45
0.0
 46
0.0
 47
0.0
 48
0.0
140
3.0
141
-5.0
142
0.0
143
25.399999999999999
144
-1.0
145
0.0
146
1.0
147
1.0
 71
     0
 72
     0
 73
     0
 74
     0
 75
     0
 76
     0
 77
     1
 78
     8
170
     0
171
     0
172
     1
173
     0
174
     0
175
     0
176
   256
177
   256
178
     2
  0
DIMSTYLE
  2
BYGG-014878$0$MASKIN
 70
     0
  3

  4

  5

  6

  7

 40
0.0
 41
3.0
 42
1.5
 43
10.0
 44
1.5
 45
0.0
 46
0.0
 47
0.0
 48
0.0
140
3.0
141
-5.0
142
0.0
143
25.399999999999999
144
-1.0
145
0.0
146
1.0
147
1.0
 71
     0
 72
     0
 73
     0
 74
     0
 75
     0
 76
     0
 77
     1
 78
     8
170
     0
171
     0
172
     1
173
     0
174
     0
175
     0
176
   256
177
   256
178
   256
  0
DIMSTYLE
  2
BYGG-014878$0$STANDARD
 70
     0
  3

  4

  5

  6

  7

 40
1.0
 41
0.18
 42
0.0625
 43
0.38
 44
0.18
 45
0.0
 46
0.0
 47
0.0
 48
0.0
140
0.18
141
0.09
142
0.0
143
25.399999999999999
144
1.0
145
0.0
146
1.0
147
0.09
 71
     0
 72
     0
 73
     1
 74
     1
 75
     0
 76
     0
 77
     0
 78
     0
170
     0
171
     2
172
     0
173
     0
174
     0
175
     0
176
     0
177
     0
178
     0
  0
DIMSTYLE
  2
BYGG-026033$0$MASKIN
 70
     0
  3

  4

  5

  6

  7

 40
0.0
 41
3.0
 42
1.5
 43
10.0
 44
1.5
 45
0.0
 46
0.0
 47
0.0
 48
0.0
140
3.0
141
-5.0
142
0.0
143
25.399999999999999
144
-1.0
145
0.0
146
1.0
147
1.0
 71
     0
 72
     0
 73
     0
 74
     0
 75
     0
 76
     0
 77
     1
 78
     8
170
     0
171
     0
172
     1
173
     0
174
     0
175
     0
176
   256
177
   256
178
     2
  0
DIMSTYLE
  2
BYGG-014203$0$STANDARD
 70
     0
  3

  4

  5

  6

  7

 40
1.0
 41
0.18
 42
0.0625
 43
0.38
 44
0.18
 45
0.0
 46
0.0
 47
0.0
 48
0.0
140
0.18
141
0.09
142
0.0
143
25.399999999999999
144
1.0
145
0.0
146
1.0
147
0.09
 71
     0
 72
     0
 73
     1
 74
     1
 75
     0
 76
     0
 77
     0
 78
     0
170
     0
171
     2
172
     0
173
     0
174
     0
175
     0
176
     0
177
     0
178
     0
  0
DIMSTYLE
  2
BYGG-014203$0$MASKIN
 70
     0
  3

  4

  5

  6

  7

 40
0.0
 41
3.0
 42
1.5
 43
10.0
 44
1.5
 45
0.0
 46
0.0
 47
0.0
 48
0.0
140
3.0
141
-5.0
142
0.0
143
25.399999999999999
144
-1.0
145
0.0
146
1.0
147
1.0
 71
     0
 72
     0
 73
     0
 74
     0
 75
     0
 76
     0
 77
     1
 78
     8
170
     0
171
     0
172
     1
173
     0
174
     0
175
     0
176
   256
177
   256
178
   256
  0
ENDTAB
  0
ENDSEC
  0
SECTION
  2
BLOCKS
  0
BLOCK
  8
0
  2
$MODEL_SPACE
 70
     0
 10
0.0
 20
0.0
 30
0.0
  3
$MODEL_SPACE
  1

  0
ENDBLK
  5
37
  8
0
  0
BLOCK
 67
     1
  8
0
  2
$PAPER_SPACE
 70
     0
 10
0.0
 20
0.0
 30
0.0
  3
$PAPER_SPACE
  1

  0
ENDBLK
  5
35
 67
     1
  8
0
  0
BLOCK
  8
0
  2
*D30
 70
     1
 10
0.0
 20
0.0
 30
0.0
  3
*D30
  1

  0
LINE
  5
BB6
  8
SAPA_MATT
 10
7.6499999999998689
 20
52.000000000000057
 30
0.0
 11
-12.65000000000007
 21
52.000000000000057
 31
0.0
  0
LINE
  5
BB7
  8
SAPA_MATT
 10
7.6499999999999844
 20
-0.0000000000000564
 30
0.0
 11
-12.650000000000089
 21
-0.0000000000000507
 31
0.0
  0
LINE
  5
BB8
  8
SAPA_MATT
 10
-11.15000000000007
 20
49.00000000000005
 30
0.0
 11
-11.150000000000089
 21
2.999999999999948
 31
0.0
  0
SOLID
  5
BB9
  8
SAPA_MATT
 10
-11.65000000000008
 20
49.00000000000005
 30
0.0
 11
-10.65000000000007
 21
49.00000000000005
 31
0.0
 12
-11.15000000000007
 22
52.000000000000057
 32
0.0
 13
-11.15000000000007
 23
52.000000000000057
 33
0.0
  0
SOLID
  5
BBA
  8
SAPA_MATT
 10
-11.65000000000008
 20
2.999999999999948
 30
0.0
 11
-10.650000000000089
 21
2.999999999999948
 31
0.0
 12
-11.150000000000089
 22
-0.0000000000000511
 32
0.0
 13
-11.150000000000089
 23
-0.0000000000000511
 33
0.0
  0
INSERT
  5
BBB
  8
0
  2
*U38
 10
0.0
 20
0.0
 30
0.0
  0
POINT
  5
BBC
  8
DEFPOINTS
 62
     0
 10
9.1499999999998707
 20
52.000000000000057
 30
0.0
  0
POINT
  5
BBD
  8
DEFPOINTS
 62
     0
 10
9.1499999999999844
 20
-0.0000000000000568
 30
0.0
  0
POINT
  5
BBE
  8
DEFPOINTS
 62
     0
 10
-11.150000000000089
 20
-0.0000000000000511
 30
0.0
  0
ENDBLK
  5
B69
  8
0
  0
BLOCK
  8
0
  2
*D31
 70
     1
 10
0.0
 20
0.0
 30
0.0
  3
*D31
  1

  0
LINE
  5
11F1
  8
SAPA_MATT
 10
7.6499999999998689
 20
52.000000000000057
 30
0.0
 11
-12.65000000000007
 21
52.000000000000057
 31
0.0
  0
LINE
  5
11F2
  8
SAPA_MATT
 10
8.3500000000000298
 20
56.999999999999822
 30
0.0
 11
-12.65000000000007
 21
56.999999999999822
 31
0.0
  0
LINE
  5
11F3
  8
SAPA_MATT
 10
-11.15000000000008
 20
49.00000000000005
 30
0.0
 11
-11.15000000000008
 21
46.00000000000005
 31
0.0
  0
LINE
  5
11F4
  8
SAPA_MATT
 10
-11.15000000000007
 20
59.999999999999822
 30
0.0
 11
-11.15000000000007
 21
62.999999999999822
 31
0.0
  0
LINE
  5
11F5
  8
SAPA_MATT
 10
-11.15000000000007
 20
52.000000000000057
 30
0.0
 11
-11.15000000000007
 21
56.999999999999822
 31
0.0
  0
SOLID
  5
11F6
  8
SAPA_MATT
 10
-11.65000000000008
 20
49.00000000000005
 30
0.0
 11
-10.65000000000008
 21
49.00000000000005
 31
0.0
 12
-11.15000000000007
 22
52.000000000000057
 32
0.0
 13
-11.15000000000007
 23
52.000000000000057
 33
0.0
  0
SOLID
  5
11F7
  8
SAPA_MATT
 10
-11.65000000000008
 20
59.999999999999822
 30
0.0
 11
-10.65000000000007
 21
59.999999999999822
 31
0.0
 12
-11.15000000000007
 22
56.999999999999822
 32
0.0
 13
-11.15000000000007
 23
56.999999999999822
 33
0.0
  0
TEXT
  8
SAPA_MATT
  40
3
  5
1204
  62
2
  72
0
  71
0
 10
-19.6500
 20
49.1900
 30
0.000000
  1
5
  7
ISO
  0
POINT
  5
11F9
  8
DEFPOINTS
 62
     0
 10
9.1499999999998707
 20
52.000000000000057
 30
0.0
  0
POINT
  5
11FA
  8
DEFPOINTS
 62
     0
 10
9.8500000000000298
 20
56.999999999999822
 30
0.0
  0
POINT
  5
11FB
  8
DEFPOINTS
 62
     0
 10
-11.15000000000007
 20
56.999999999999822
 30
0.0
  0
ENDBLK
  5
B75
  8
0
  0
BLOCK
  8
0
  2
*D32
 70
     1
 10
0.0
 20
0.0
 30
0.0
  3
*D32
  1

  0
LINE
  5
11E8
  8
SAPA_MATT
 10
8.3500000000000298
 20
56.999999999999822
 30
0.0
 11
-12.65000000000013
 21
56.999999999999822
 31
0.0
  0
LINE
  5
11E9
  8
SAPA_MATT
 10
8.3500000000000441
 20
94.499999999999716
 30
0.0
 11
-12.65000000000013
 21
94.499999999999716
 31
0.0
  0
LINE
  5
11EA
  8
SAPA_MATT
 10
-11.15000000000013
 20
59.999999999999822
 30
0.0
 11
-11.15000000000013
 21
91.499999999999716
 31
0.0
  0
SOLID
  5
11EB
  8
SAPA_MATT
 10
-11.65000000000013
 20
59.999999999999822
 30
0.0
 11
-10.65000000000013
 21
59.999999999999822
 31
0.0
 12
-11.15000000000013
 22
56.999999999999822
 32
0.0
 13
-11.15000000000013
 23
56.999999999999822
 33
0.0
  0
SOLID
  5
11EC
  8
SAPA_MATT
 10
-11.65000000000013
 20
91.499999999999716
 30
0.0
 11
-10.65000000000013
 21
91.499999999999716
 31
0.0
 12
-11.150000000000119
 22
94.499999999999716
 32
0.0
 13
-11.150000000000119
 23
94.499999999999716
 33
0.0
  0
TEXT
  8
SAPA_MATT
  40
3
  5
1205
  62
2
  72
0
  71
0
 10
-19.6500
 20
70.4400
 30
0.000000
  1
37.5
  7
ISO
  0
POINT
  5
11EE
  8
DEFPOINTS
 62
     0
 10
9.8500000000000298
 20
56.999999999999822
 30
0.0
  0
POINT
  5
11EF
  8
DEFPOINTS
 62
     0
 10
9.8500000000000441
 20
94.499999999999716
 30
0.0
  0
POINT
  5
11F0
  8
DEFPOINTS
 62
     0
 10
-11.150000000000119
 20
94.499999999999716
 30
0.0
  0
ENDBLK
  5
B83
  8
0
  0
BLOCK
  8
0
  2
*D33
 70
     1
 10
0.0
 20
0.0
 30
0.0
  3
*D33
  1

  0
LINE
  5
B99
  8
SAPA_MATT
 10
-12.650000000000089
 20
-0.0000000000000422
 30
0.0
 11
-22.650000000000091
 21
-0.0000000000000394
 31
0.0
  0
LINE
  5
B9A
  8
SAPA_MATT
 10
-12.65000000000007
 20
94.499999999999716
 30
0.0
 11
-22.65000000000007
 21
94.499999999999716
 31
0.0
  0
LINE
  5
B9B
  8
SAPA_MATT
 10
-21.150000000000091
 20
2.99999999999996
 30
0.0
 11
-21.15000000000007
 21
91.49999999999973
 31
0.0
  0
SOLID
  5
B9C
  8
SAPA_MATT
 10
-21.650000000000091
 20
2.99999999999996
 30
0.0
 11
-20.650000000000091
 21
2.99999999999996
 31
0.0
 12
-21.150000000000091
 22
-0.0000000000000398
 32
0.0
 13
-21.150000000000091
 23
-0.0000000000000398
 33
0.0
  0
SOLID
  5
B9D
  8
SAPA_MATT
 10
-21.65000000000007
 20
91.49999999999973
 30
0.0
 11
-20.65000000000007
 21
91.49999999999973
 31
0.0
 12
-21.15000000000007
 22
94.499999999999716
 32
0.0
 13
-21.15000000000007
 23
94.499999999999716
 33
0.0
  0
INSERT
  5
B9E
  8
0
  2
*U37
 10
0.0
 20
0.0
 30
0.0
  0
POINT
  5
B9F
  8
DEFPOINTS
 62
     0
 10
-11.150000000000089
 20
-0.0000000000000426
 30
0.0
  0
POINT
  5
BA0
  8
DEFPOINTS
 62
     0
 10
-11.15000000000007
 20
94.499999999999716
 30
0.0
  0
POINT
  5
BA1
  8
DEFPOINTS
 62
     0
 10
-21.15000000000007
 20
94.499999999999716
 30
0.0
  0
ENDBLK
  5
B8F
  8
0
  0
BLOCK
  8
0
  2
*X34
 70
     1
 10
0.0
 20
0.0
 30
0.0
  3
*X34
  1

  0
LINE
  5
C00
  8
0
 62
     0
 10
9.7851465974978442
 20
-8.0725173376158192
 30
0.0
 11
10.18202159749784
 21
-8.7599250018697177
 31
0.0
  0
LINE
  5
C01
  8
0
 62
     0
 10
12.16639631300179
 20
-9.4473328303775315
 30
0.0
 11
12.194782056709499
 21
-9.4964983806899088
 31
0.0
  0
LINE
  5
C02
  8
0
 62
     0
 10
10.97577131300179
 20
-7.3851098376158362
 30
0.0
 11
11.372646313001789
 21
-8.0725175018697346
 31
0.0
  0
LINE
  5
C03
  8
0
 62
     0
 10
9.7851463130017926
 20
-5.3228868448541409
 30
0.0
 11
10.18202131300179
 21
-6.0102945091080402
 31
0.0
  0
LINE
  5
C04
  8
0
 62
     0
 10
13.357021028505679
 20
-8.7599253303775821
 30
0.0
 11
13.753896028505681
 21
-9.4473329946314806
 31
0.0
  0
LINE
  5
C05
  8
0
 62
     0
 10
12.16639602850568
 20
-6.697702337615886
 30
0.0
 11
12.56327102850568
 21
-7.3851100018697844
 31
0.0
  0
LINE
  5
C06
  8
0
 62
     0
 10
10.97577102850568
 20
-4.6354793448541924
 30
0.0
 11
11.372646028505679
 21
-5.3228870091080891
 31
0.0
  0
LINE
  5
C07
  8
0
 62
     0
 10
9.7851460285056824
 20
-2.573256352092498
 30
0.0
 11
10.18202102850568
 21
-3.2606640163463938
 31
0.0
  0
LINE
  5
C08
  8
0
 62
     0
 10
14.54764574400958
 20
-8.0725178303775245
 30
0.0
 11
14.94452074400958
 21
-8.7599254946314211
 31
0.0
  0
LINE
  5
C09
  8
0
 62
     0
 10
13.35702074400958
 20
-6.0102948376158301
 30
0.0
 11
13.753895744009579
 21
-6.6977025018697258
 31
0.0
  0
LINE
  5
C0A
  8
0
 62
     0
 10
12.166395744009581
 20
-3.9480718448541352
 30
0.0
 11
12.56327074400958
 21
-4.6354795091080323
 31
0.0
  0
LINE
  5
C0B
  8
0
 62
     0
 10
10.97577074400958
 20
-1.885848852092441
 30
0.0
 11
11.37264574400958
 21
-2.573256516346337
 31
0.0
  0
LINE
  5
C0C
  8
0
 62
     0
 10
10.173628875346591
 20
-0.4964983806899035
 30
0.0
 11
10.182020744009581
 21
-0.5110335235846435
 31
0.0
  0
LINE
  5
C0D
  8
0
 62
     0
 10
16.928895459513459
 20
-9.4473333231392012
 30
0.0
 11
16.957280918725079
 21
-9.4964983806899017
 31
0.0
  0
LINE
  5
C0E
  8
0
 62
     0
 10
15.73827045951346
 20
-7.3851103303775076
 30
0.0
 11
16.13514545951346
 21
-8.0725179946314043
 31
0.0
  0
LINE
  5
C0F
  8
0
 62
     0
 10
14.547645459513459
 20
-5.3228873376158141
 30
0.0
 11
14.94452045951345
 21
-6.0102950018697099
 31
0.0
  0
LINE
  5
C10
  8
0
 62
     0
 10
13.357020459513461
 20
-3.2606643448541188
 30
0.0
 11
13.753895459513449
 21
-3.948072009108015
 31
0.0
  0
LINE
  5
C11
  8
0
 62
     0
 10
12.166395459513449
 20
-1.1984413520924251
 30
0.0
 11
12.563270459513451
 21
-1.8858490163463211
 31
0.0
  0
LINE
  5
C12
  8
0
 62
     0
 10
18.119520175017421
 20
-8.7599258231392447
 30
0.0
 11
18.516395175017418
 21
-9.4473334873931414
 31
0.0
  0
LINE
  5
C13
  8
0
 62
     0
 10
16.928895175017409
 20
-6.6977028303775494
 30
0.0
 11
17.325770175017421
 21
-7.3851104946314461
 31
0.0
  0
LINE
  5
C14
  8
0
 62
     0
 10
15.73827017501741
 20
-4.635479837615855
 30
0.0
 11
16.135145175017421
 21
-5.3228875018697508
 31
0.0
  0
LINE
  5
C15
  8
0
 62
     0
 10
14.54764517501741
 20
-2.5732568448541602
 30
0.0
 11
14.944520175017409
 21
-3.2606645091080559
 31
0.0
  0
LINE
  5
C16
  8
0
 62
     0
 10
13.357020175017411
 20
-0.5110338520924663
 30
0.0
 11
13.75389517501741
 21
-1.198441516346362
 31
0.0
  0
LINE
  5
C17
  8
0
 62
     0
 10
10.97577017501742
 20
3.6134121334309208
 30
0.0
 11
11.37264517501742
 21
2.9260044691770251
 31
0.0
  0
LINE
  5
C18
  8
0
 62
     0
 10
18.119519890521222
 20
-6.0102953303775051
 30
0.0
 11
18.516394890521219
 21
-6.6977029946314044
 31
0.0
  0
LINE
  5
C19
  8
0
 62
     0
 10
16.928894890521221
 20
-3.9480723376158111
 30
0.0
 11
17.325769890521219
 21
-4.6354800018697091
 31
0.0
  0
LINE
  5
C1A
  8
0
 62
     0
 10
15.73826989052122
 20
-1.885849344854116
 30
0.0
 11
16.135144890521222
 21
-2.5732570091080151
 31
0.0
  0
LINE
  5
C1B
  8
0
 62
     0
 10
14.547644890521219
 20
0.1763736479075777
 30
0.0
 11
14.944519890521221
 21
-0.5110340163463212
 31
0.0
  0
LINE
  5
C1C
  8
0
 62
     0
 10
13.357019890521221
 20
2.2385966406692721
 30
0.0
 11
13.75389489052122
 21
1.551188976415373
 31
0.0
  0
LINE
  5
C1D
  8
0
 62
     0
 10
12.16639489052123
 20
4.3008196334309563
 30
0.0
 11
12.56326989052123
 21
3.613411969177057
 31
0.0
  0
LINE
  5
C1E
  8
0
 62
     0
 10
18.119519606025179
 20
-3.2606648376157601
 30
0.0
 11
18.51639460602518
 21
-3.9480725018696581
 31
0.0
  0
LINE
  5
C1F
  8
0
 62
     0
 10
16.928894606025182
 20
-1.1984418448540659
 30
0.0
 11
17.32576960602518
 21
-1.885849509107965
 31
0.0
  0
LINE
  5
C20
  8
0
 62
     0
 10
15.738269606025179
 20
0.8637811479076278
 30
0.0
 11
16.135144606025179
 21
0.176373483653729
 31
0.0
  0
LINE
  5
C21
  8
0
 62
     0
 10
14.54764460602518
 20
2.9260041406693218
 30
0.0
 11
14.944519606025169
 21
2.2385964764154229
 31
0.0
  0
LINE
  5
C22
  8
0
 62
     0
 10
13.63687601208593
 20
4.5035016193101551
 30
0.0
 11
13.75389460602517
 21
4.3008194691771173
 31
0.0
  0
LINE
  5
C23
  8
0
 62
     0
 10
18.119519321529111
 20
-0.511034344854207
 30
0.0
 11
18.516394321529109
 21
-1.1984420091081049
 31
0.0
  0
LINE
  5
C24
  8
0
 62
     0
 10
16.928894321529111
 20
1.551188647907487
 30
0.0
 11
17.325769321529108
 21
0.8637809836535886
 31
0.0
  0
LINE
  5
C25
  8
0
 62
     0
 10
15.738269321529099
 20
3.613411640669181
 30
0.0
 11
16.135144321529111
 21
2.9260039764152821
 31
0.0
  0
LINE
  5
C26
  8
0
 62
     0
 10
18.119519037032951
 20
2.2385961479076011
 30
0.0
 11
18.516394037032949
 21
1.551188483653702
 31
0.0
  0
LINE
  5
C27
  8
0
 62
     0
 10
16.928894037032951
 20
4.3008191406692946
 30
0.0
 11
17.325769037032948
 21
3.6134114764153962
 31
0.0
  0
LINE
  5
C28
  8
0
 62
     0
 10
18.399374874101511
 20
4.5035016193100983
 30
0.0
 11
18.516393752536889
 21
4.3008189764152931
 31
0.0
  0
LINE
  5
C29
  8
0
 62
     0
 10
11.37253450603593
 20
2.926014488665003
 30
0.0
 11
11.18748735669598
 21
2.605503424212424
 31
0.0
  0
LINE
  5
C2A
  8
0
 62
     0
 10
12.283297125557111
 20
4.5035016193102111
 30
0.0
 11
12.166284506035931
 21
4.3008298171727981
 31
0.0
  0
LINE
  5
C2B
  8
0
 62
     0
 10
10.181909221539749
 20
-1.8858389968584179
 30
0.0
 11
9.7850342215397532
 21
-2.573246661112317
 31
0.0
  0
LINE
  5
C2C
  8
0
 62
     0
 10
10.98404540028079
 20
-0.4964983806897881
 30
0.0
 11
10.97565922153975
 21
-0.5110236683506236
 31
0.0
  0
LINE
  5
C2D
  8
0
 62
     0
 10
13.75378422153976
 20
4.3008299814266531
 30
0.0
 11
13.356909221539761
 21
3.6134223171727551
 31
0.0
  0
LINE
  5
C2E
  8
0
 62
     0
 10
10.181908937043721
 20
-4.6354694896201423
 30
0.0
 11
9.7850339370437212
 21
-5.3228771538740398
 31
0.0
  0
LINE
  5
C2F
  8
0
 62
     0
 10
11.37253393704372
 20
-2.5732464968584501
 30
0.0
 11
10.97565893704372
 21
-3.2606541611123481
 31
0.0
  0
LINE
  5
C30
  8
0
 62
     0
 10
12.56315893704372
 20
-0.5110235040967566
 30
0.0
 11
12.166283937043721
 21
-1.198431168350655
 31
0.0
  0
LINE
  5
C31
  8
0
 62
     0
 10
13.75378393704371
 20
1.5511994886649361
 30
0.0
 11
13.35690893704372
 21
0.863791824411038
 31
0.0
  0
LINE
  5
C32
  8
0
 62
     0
 10
14.94440893704372
 20
3.61342248142663
 30
0.0
 11
14.54753393704371
 21
2.9260148171727312
 31
0.0
  0
LINE
  5
C33
  8
0
 62
     0
 10
10.181908652547589
 20
-7.3850999823817949
 30
0.0
 11
9.7850336525475967
 21
-8.0725076466356942
 31
0.0
  0
LINE
  5
C34
  8
0
 62
     0
 10
11.37253365254759
 20
-5.3228769896201023
 30
0.0
 11
10.97565865254759
 21
-6.0102846538739998
 31
0.0
  0
LINE
  5
C35
  8
0
 62
     0
 10
12.563158652547591
 20
-3.2606539968584092
 30
0.0
 11
12.166283652547589
 21
-3.9480616611123058
 31
0.0
  0
LINE
  5
C36
  8
0
 62
     0
 10
13.75378365254759
 20
-1.198431004096715
 30
0.0
 11
13.35690865254759
 21
-1.885838668350613
 31
0.0
  0
LINE
  5
C37
  8
0
 62
     0
 10
14.94440865254759
 20
0.8637919886649779
 30
0.0
 11
14.547533652547591
 21
0.1763843244110799
 31
0.0
  0
LINE
  5
C38
  8
0
 62
     0
 10
16.135033652547591
 20
2.9260149814266709
 30
0.0
 11
15.73815865254759
 21
2.2386073171727729
 31
0.0
  0
LINE
  5
C39
  8
0
 62
     0
 10
17.045795987572689
 20
4.5035016193102111
 30
0.0
 11
16.92878365254759
 21
4.300830309934466
 31
0.0
  0
LINE
  5
C3A
  8
0
 62
     0
 10
11.37253336805154
 20
-8.0725074823817966
 30
0.0
 11
10.97565836805154
 21
-8.759915146635695
 31
0.0
  0
LINE
  5
C3B
  8
0
 62
     0
 10
12.563158368051541
 20
-6.0102844896201031
 30
0.0
 11
12.166283368051539
 21
-6.6976921538739989
 31
0.0
  0
LINE
  5
C3C
  8
0
 62
     0
 10
13.753783368051529
 20
-3.9480614968584078
 30
0.0
 11
13.356908368051529
 21
-4.6354691611123062
 31
0.0
  0
LINE
  5
C3D
  8
0
 62
     0
 10
14.94440836805153
 20
-1.8858385040967149
 30
0.0
 11
14.54753336805153
 21
-2.5732461683506118
 31
0.0
  0
LINE
  5
C3E
  8
0
 62
     0
 10
16.135033368051531
 20
0.1763844886649779
 30
0.0
 11
15.738158368051529
 21
-0.5110231755889192
 31
0.0
  0
LINE
  5
C3F
  8
0
 62
     0
 10
17.325658368051531
 20
2.238607481426671
 30
0.0
 11
16.92878336805153
 21
1.5511998171727741
 31
0.0
  0
LINE
  5
C40
  8
0
 62
     0
 10
18.516283368051528
 20
4.3008304741883636
 30
0.0
 11
18.119408368051531
 21
3.613422809934467
 31
0.0
  0
LINE
  5
C41
  8
0
 62
     0
 10
12.5631580835554
 20
-8.7599149823817992
 30
0.0
 11
12.166283083555401
 21
-9.4473226466356977
 31
0.0
  0
LINE
  5
C42
  8
0
 62
     0
 10
13.753783083555399
 20
-6.6976919896201048
 30
0.0
 11
13.3569080835554
 21
-7.3850996538740041
 31
0.0
  0
LINE
  5
C43
  8
0
 62
     0
 10
14.9444080835554
 20
-4.6354689968584122
 30
0.0
 11
14.5475330835554
 21
-5.3228766611123097
 31
0.0
  0
LINE
  5
C44
  8
0
 62
     0
 10
16.135033083555399
 20
-2.5732460040967182
 30
0.0
 11
15.738158083555399
 21
-3.2606536683506162
 31
0.0
  0
LINE
  5
C45
  8
0
 62
     0
 10
17.325658083555389
 20
-0.5110230113350252
 30
0.0
 11
16.928783083555398
 21
-1.1984306755889229
 31
0.0
  0
LINE
  5
C46
  8
0
 62
     0
 10
18.51628308355539
 20
1.5511999814266679
 30
0.0
 11
18.119408083555388
 21
0.8637923171727699
 31
0.0
  0
LINE
  5
C47
  8
0
 62
     0
 10
13.753782799059319
 20
-9.4473224823817912
 30
0.0
 11
13.72539108093355
 21
-9.4964983806897916
 31
0.0
  0
LINE
  5
C48
  8
0
 62
     0
 10
14.94440779905932
 20
-7.3850994896200968
 30
0.0
 11
14.54753279905932
 21
-8.0725071538739961
 31
0.0
  0
LINE
  5
C49
  8
0
 62
     0
 10
16.135032799059321
 20
-5.3228764968584041
 30
0.0
 11
15.738157799059319
 21
-6.0102841611123008
 31
0.0
  0
LINE
  5
C4A
  8
0
 62
     0
 10
17.325657799059311
 20
-3.2606535040967102
 30
0.0
 11
16.928782799059309
 21
-3.9480611683506082
 31
0.0
  0
LINE
  5
C4B
  8
0
 62
     0
 10
18.516282799059312
 20
-1.1984305113350171
 30
0.0
 11
18.11940779905931
 21
-1.885838175588914
 31
0.0
  0
LINE
  5
C4C
  8
0
 62
     0
 10
16.135032514563179
 20
-8.0725069896201536
 30
0.0
 11
15.738157514563181
 21
-8.7599146538740502
 31
0.0
  0
LINE
  5
C4D
  8
0
 62
     0
 10
17.325657514563169
 20
-6.01028399685846
 30
0.0
 11
16.928782514563181
 21
-6.6976916611123567
 31
0.0
  0
LINE
  5
C4E
  8
0
 62
     0
 10
18.516282514563169
 20
-3.9480610040967661
 30
0.0
 11
18.119407514563171
 21
-4.6354686683506641
 31
0.0
  0
LINE
  5
C4F
  8
0
 62
     0
 10
17.325657230067151
 20
-8.7599144896200958
 30
0.0
 11
16.928782230067149
 21
-9.4473221538739942
 31
0.0
  0
LINE
  5
C50
  8
0
 62
     0
 10
18.516282230067151
 20
-6.6976914968584031
 30
0.0
 11
18.11940723006715
 21
-7.3850991611122998
 31
0.0
  0
LINE
  5
C51
  8
0
 62
     0
 10
18.516281945570981
 20
-9.4473219896201375
 30
0.0
 11
18.487889942949131
 21
-9.4964983806898182
 31
0.0
  0
LINE
  5
C52
  8
0
 62
     0
 10
17.32572351765738
 20
-8.7598223431834974
 30
0.0
 11
18.119473517657379
 21
-8.7598223431834974
 31
0.0
  0
LINE
  5
C53
  8
0
 62
     0
 10
14.94447351765738
 20
-8.7598223431834974
 30
0.0
 11
15.73822351765738
 21
-8.7598223431834974
 31
0.0
  0
LINE
  5
C54
  8
0
 62
     0
 10
12.563223517657381
 20
-8.7598223431834974
 30
0.0
 11
13.35697351765738
 21
-8.7598223431834974
 31
0.0
  0
LINE
  5
C55
  8
0
 62
     0
 10
10.181973517657379
 20
-8.7598223431834974
 30
0.0
 11
10.97572351765738
 21
-8.7598223431834974
 31
0.0
  0
LINE
  5
C56
  8
0
 62
     0
 10
17.32572351765738
 20
-7.3850073431834851
 30
0.0
 11
18.119473517657379
 21
-7.3850073431834851
 31
0.0
  0
LINE
  5
C57
  8
0
 62
     0
 10
14.94447351765738
 20
-7.3850073431834851
 30
0.0
 11
15.73822351765738
 21
-7.3850073431834851
 31
0.0
  0
LINE
  5
C58
  8
0
 62
     0
 10
12.563223517657381
 20
-7.3850073431834851
 30
0.0
 11
13.35697351765738
 21
-7.3850073431834851
 31
0.0
  0
LINE
  5
C59
  8
0
 62
     0
 10
10.181973517657379
 20
-7.3850073431834851
 30
0.0
 11
10.97572351765738
 21
-7.3850073431834851
 31
0.0
  0
LINE
  5
C5A
  8
0
 62
     0
 10
17.32572351765738
 20
-6.0101923431834727
 30
0.0
 11
18.119473517657379
 21
-6.0101923431834727
 31
0.0
  0
LINE
  5
C5B
  8
0
 62
     0
 10
14.94447351765738
 20
-6.0101923431834727
 30
0.0
 11
15.73822351765738
 21
-6.0101923431834727
 31
0.0
  0
LINE
  5
C5C
  8
0
 62
     0
 10
12.563223517657381
 20
-6.0101923431834727
 30
0.0
 11
13.35697351765738
 21
-6.0101923431834727
 31
0.0
  0
LINE
  5
C5D
  8
0
 62
     0
 10
10.181973517657379
 20
-6.0101923431834727
 30
0.0
 11
10.97572351765738
 21
-6.0101923431834727
 31
0.0
  0
LINE
  5
C5E
  8
0
 62
     0
 10
17.32572351765738
 20
-4.6353773431834613
 30
0.0
 11
18.119473517657379
 21
-4.6353773431834613
 31
0.0
  0
LINE
  5
C5F
  8
0
 62
     0
 10
14.94447351765738
 20
-4.6353773431834613
 30
0.0
 11
15.73822351765738
 21
-4.6353773431834613
 31
0.0
  0
LINE
  5
C60
  8
0
 62
     0
 10
12.563223517657381
 20
-4.6353773431834613
 30
0.0
 11
13.35697351765738
 21
-4.6353773431834613
 31
0.0
  0
LINE
  5
C61
  8
0
 62
     0
 10
10.181973517657379
 20
-4.6353773431834613
 30
0.0
 11
10.97572351765738
 21
-4.6353773431834613
 31
0.0
  0
LINE
  5
C62
  8
0
 62
     0
 10
17.32572351765738
 20
-3.2605623431834498
 30
0.0
 11
18.119473517657379
 21
-3.2605623431834498
 31
0.0
  0
LINE
  5
C63
  8
0
 62
     0
 10
14.94447351765738
 20
-3.2605623431834498
 30
0.0
 11
15.73822351765738
 21
-3.2605623431834498
 31
0.0
  0
LINE
  5
C64
  8
0
 62
     0
 10
12.563223517657381
 20
-3.260562343183449
 30
0.0
 11
13.35697351765738
 21
-3.260562343183449
 31
0.0
  0
LINE
  5
C65
  8
0
 62
     0
 10
10.181973517657379
 20
-3.260562343183449
 30
0.0
 11
10.97572351765738
 21
-3.260562343183449
 31
0.0
  0
LINE
  5
C66
  8
0
 62
     0
 10
17.32572351765738
 20
-1.885747343183438
 30
0.0
 11
18.119473517657379
 21
-1.885747343183438
 31
0.0
  0
LINE
  5
C67
  8
0
 62
     0
 10
14.94447351765738
 20
-1.8857473431834371
 30
0.0
 11
15.73822351765738
 21
-1.885747343183438
 31
0.0
  0
LINE
  5
C68
  8
0
 62
     0
 10
12.563223517657381
 20
-1.8857473431834371
 30
0.0
 11
13.35697351765738
 21
-1.8857473431834371
 31
0.0
  0
LINE
  5
C69
  8
0
 62
     0
 10
10.181973517657379
 20
-1.885747343183436
 30
0.0
 11
10.97572351765738
 21
-1.885747343183436
 31
0.0
  0
LINE
  5
C6A
  8
0
 62
     0
 10
17.32572351765738
 20
-0.5109323431834265
 30
0.0
 11
18.119473517657379
 21
-0.5109323431834268
 31
0.0
  0
LINE
  5
C6B
  8
0
 62
     0
 10
14.94447351765738
 20
-0.510932343183426
 30
0.0
 11
15.73822351765738
 21
-0.5109323431834261
 31
0.0
  0
LINE
  5
C6C
  8
0
 62
     0
 10
12.563223517657381
 20
-0.5109323431834252
 30
0.0
 11
13.35697351765738
 21
-0.5109323431834254
 31
0.0
  0
LINE
  5
C6D
  8
0
 62
     0
 10
10.181973517657379
 20
-0.5109323431834245
 30
0.0
 11
10.97572351765738
 21
-0.5109323431834248
 31
0.0
  0
LINE
  5
C6E
  8
0
 62
     0
 10
17.32572351765738
 20
0.8638826568165861
 30
0.0
 11
18.119473517657379
 21
0.8638826568165857
 31
0.0
  0
LINE
  5
C6F
  8
0
 62
     0
 10
14.94447351765738
 20
0.8638826568165868
 30
0.0
 11
15.73822351765738
 21
0.8638826568165864
 31
0.0
  0
LINE
  5
C70
  8
0
 62
     0
 10
13.31621768473368
 20
0.8638826568165871
 30
0.0
 11
13.35697351765738
 21
0.8638826568165871
 31
0.0
  0
LINE
  5
C71
  8
0
 62
     0
 10
17.32572351765738
 20
2.2386976568165982
 30
0.0
 11
18.119473517657379
 21
2.2386976568165982
 31
0.0
  0
LINE
  5
C72
  8
0
 62
     0
 10
14.94447351765738
 20
2.238697656816599
 30
0.0
 11
15.73822351765738
 21
2.238697656816599
 31
0.0
  0
LINE
  5
C73
  8
0
 62
     0
 10
13.3279824873282
 20
2.238697656816599
 30
0.0
 11
13.35697351765738
 21
2.238697656816599
 31
0.0
  0
LINE
  5
C74
  8
0
 62
     0
 10
17.32572351765738
 20
3.6135126568164968
 30
0.0
 11
18.119473517657379
 21
3.6135126568164968
 31
0.0
  0
LINE
  5
C75
  8
0
 62
     0
 10
14.94447351765738
 20
3.6135126568164968
 30
0.0
 11
15.73822351765738
 21
3.6135126568164968
 31
0.0
  0
LINE
  5
C76
  8
0
 62
     0
 10
12.563223517657381
 20
3.6135126568164981
 30
0.0
 11
13.35697351765738
 21
3.6135126568164981
 31
0.0
  0
LINE
  5
C77
  8
0
 62
     0
 10
10.842954439071891
 20
3.6135126568164981
 30
0.0
 11
10.97572351765738
 21
3.6135126568164981
 31
0.0
  0
ENDBLK
  5
C79
  8
0
  0
BLOCK
  8
0
  2
*X35
 70
     1
 10
0.0
 20
0.0
 30
0.0
  3
*X35
  1

  0
LINE
  5
C7B
  8
0
 62
     0
 10
54.991584667840812
 20
0.8584153321592395
 30
0.0
 11
54.664203293501181
 21
0.5310339578195739
 31
0.0
  0
LINE
  5
C7C
  8
0
 62
     0
 10
56.378233365949107
 20
0.0000000000001421
 30
0.0
 11
54.954461418061612
 21
-1.4237719478873601
 31
0.0
  0
LINE
  5
C7D
  8
0
 62
     0
 10
58.635840645381514
 20
0.012543249165276
 30
0.0
 11
54.945840434693963
 21
-3.677456961522267
 31
0.0
  0
LINE
  5
C7E
  8
0
 62
     0
 10
58.227186806338949
 20
-2.6411746201445392
 30
0.0
 11
54.397612625196729
 21
-6.4707488012867307
 31
0.0
  0
LINE
  5
C7F
  8
0
 62
     0
 10
58.009270776411107
 20
-5.1041546803396889
 30
0.0
 11
53.118085601299612
 21
-9.9953398554511921
 31
0.0
  0
LINE
  5
C80
  8
0
 62
     0
 10
58.193695114924672
 20
-7.16479437209341
 30
0.0
 11
55.363149631566927
 21
-9.9953398554511921
 31
0.0
  0
LINE
  5
C81
  8
0
 62
     0
 10
58.638974885035708
 20
-8.9645786322496406
 30
0.0
 11
57.608213661834213
 21
-9.9953398554511352
 31
0.0
  0
LINE
  5
C82
  8
0
 62
     0
 10
51.478889890519888
 20
-9.8732458905728322
 30
0.0
 11
51.600983855398113
 21
-9.9953398554510482
 31
0.0
  0
LINE
  5
C83
  8
0
 62
     0
 10
52.887747215151478
 20
-9.0370391849371572
 30
0.0
 11
53.846047885665371
 21
-9.9953398554510482
 31
0.0
  0
LINE
  5
C84
  8
0
 62
     0
 10
53.844397313207821
 20
-7.7486252527262423
 30
0.0
 11
56.091111915932679
 21
-9.9953398554510482
 31
0.0
  0
LINE
  5
C85
  8
0
 62
     0
 10
54.498480562398129
 20
-6.1576444716491769
 30
0.0
 11
58.336175946200001
 21
-9.9953398554510482
 31
0.0
  0
LINE
  5
C86
  8
0
 62
     0
 10
54.879898445587799
 20
-4.2939983245716462
 30
0.0
 11
58.300571665135692
 21
-7.714671544119482
 31
0.0
  0
LINE
  5
C87
  8
0
 62
     0
 10
54.991630660302171
 20
-2.1606665090187671
 30
0.0
 11
58.010121750623462
 21
-5.1791575993400443
 31
0.0
  0
LINE
  5
C88
  8
0
 62
     0
 10
54.697035239280289
 20
0.378992942270429
 30
0.0
 11
58.153373103337913
 21
-3.0773449217871298
 31
0.0
  0
LINE
  5
C89
  8
0
 62
     0
 10
57.321092211817813
 20
0.0000000000002842
 30
0.0
 11
58.56940877050959
 21
-1.248316558691499
 31
0.0
  0
ENDBLK
  5
C8B
  8
0
  0
BLOCK
  8
0
  2
*X36
 70
     1
 10
0.0
 20
0.0
 30
0.0
  3
*X36
  1

  0
LINE
  5
C8D
  8
0
 62
     0
 10
50.266389485095402
 20
-9.4473367724710293
 30
0.0
 11
50.484759471194117
 21
-9.8255646832421082
 31
0.0
  0
LINE
  5
C8E
  8
0
 62
     0
 10
49.075764485095398
 20
-7.385113779709334
 30
0.0
 11
49.472639485095399
 21
-8.0725214439632307
 31
0.0
  0
LINE
  5
C8F
  8
0
 62
     0
 10
47.885139485095387
 20
-5.3228907869476396
 30
0.0
 11
48.282014485095388
 21
-6.0102984512015372
 31
0.0
  0
LINE
  5
C90
  8
0
 62
     0
 10
51.457014200599318
 20
-8.7599292724710391
 30
0.0
 11
51.853889200599319
 21
-9.4473369367249376
 31
0.0
  0
LINE
  5
C91
  8
0
 62
     0
 10
50.26638920059932
 20
-6.6977062797093456
 30
0.0
 11
50.663264200599322
 21
-7.3851139439632432
 31
0.0
  0
LINE
  5
C92
  8
0
 62
     0
 10
49.075764200599323
 20
-4.6354832869476521
 30
0.0
 11
49.472639200599311
 21
-5.3228909512015479
 31
0.0
  0
LINE
  5
C93
  8
0
 62
     0
 10
47.885139200599312
 20
-2.5732602941859568
 30
0.0
 11
48.282014200599313
 21
-3.260667958439853
 31
0.0
  0
LINE
  5
C94
  8
0
 62
     0
 10
52.647638916103212
 20
-8.0725217724710667
 30
0.0
 11
53.04451391610322
 21
-8.7599294367249634
 31
0.0
  0
LINE
  5
C95
  8
0
 62
     0
 10
51.457013916103207
 20
-6.0102987797093714
 30
0.0
 11
51.853888916103223
 21
-6.6977064439632681
 31
0.0
  0
LINE
  5
C96
  8
0
 62
     0
 10
50.26638891610321
 20
-3.9480757869476761
 30
0.0
 11
50.663263916103212
 21
-4.6354834512015737
 31
0.0
  0
LINE
  5
C97
  8
0
 62
     0
 10
49.075763916103199
 20
-1.885852794185982
 30
0.0
 11
49.472638916103207
 21
-2.5732604584398788
 31
0.0
  0
LINE
  5
C98
  8
0
 62
     0
 10
47.885138916103202
 20
0.1763701985757118
 30
0.0
 11
48.28201391610321
 21
-0.5110374656781858
 31
0.0
  0
LINE
  5
C99
  8
0
 62
     0
 10
53.838263631607177
 20
-7.3851142724711281
 30
0.0
 11
53.940401997294281
 21
-7.5620231112432288
 31
0.0
  0
LINE
  5
C9A
  8
0
 62
     0
 10
52.64763863160718
 20
-5.3228912797094328
 30
0.0
 11
53.044513631607181
 21
-6.0102989439633321
 31
0.0
  0
LINE
  5
C9B
  8
0
 62
     0
 10
51.457013631607182
 20
-3.2606682869477388
 30
0.0
 11
51.85388863160717
 21
-3.9480759512016368
 31
0.0
  0
LINE
  5
C9C
  8
0
 62
     0
 10
50.266388631607171
 20
-1.1984452941860451
 30
0.0
 11
50.663263631607172
 21
-1.8858529584399419
 31
0.0
  0
LINE
  5
C9D
  8
0
 62
     0
 10
49.075763631607167
 20
0.8637776985756493
 30
0.0
 11
49.472638631607168
 21
0.1763700343217511
 31
0.0
  0
LINE
  5
C9E
  8
0
 62
     0
 10
48.164467988632452
 20
2.4421880529239939
 30
0.0
 11
48.282013631607157
 21
2.2385930270834451
 31
0.0
  0
LINE
  5
C9F
  8
0
 62
     0
 10
53.838263347111038
 20
-4.6354837797094071
 30
0.0
 11
54.23513834711104
 21
-5.3228914439633046
 31
0.0
  0
LINE
  5
CA0
  8
0
 62
     0
 10
52.647638347111041
 20
-2.5732607869477122
 30
0.0
 11
53.044513347111028
 21
-3.2606684512016111
 31
0.0
  0
LINE
  5
CA1
  8
0
 62
     0
 10
51.45701334711103
 20
-0.5110377941860183
 30
0.0
 11
51.853888347111031
 21
-1.198445458439916
 31
0.0
  0
LINE
  5
CA2
  8
0
 62
     0
 10
50.266388347111032
 20
1.5511851985756759
 30
0.0
 11
50.663263347111027
 21
0.8637775343217777
 31
0.0
  0
LINE
  5
CA3
  8
0
 62
     0
 10
49.075763347111021
 20
3.6134081913373701
 30
0.0
 11
49.472638347111022
 21
2.9260005270834721
 31
0.0
  0
LINE
  5
CA4
  8
0
 62
     0
 10
53.838263062614928
 20
-1.8858532869476501
 30
0.0
 11
54.235138062614929
 21
-2.5732609512015481
 31
0.0
  0
LINE
  5
CA5
  8
0
 62
     0
 10
52.647638062614931
 20
0.1763697058140439
 30
0.0
 11
53.044513062614932
 21
-0.511037958439855
 31
0.0
  0
LINE
  5
CA6
  8
0
 62
     0
 10
51.457013062614926
 20
2.2385926985757378
 30
0.0
 11
51.853888062614921
 21
1.551185034321839
 31
0.0
  0
LINE
  5
CA7
  8
0
 62
     0
 10
50.266388062614922
 20
4.3008156913374318
 30
0.0
 11
50.663263062614917
 21
3.6134080270835329
 31
0.0
  0
LINE
  5
CA8
  8
0
 62
     0
 10
53.838262778118811
 20
0.8637772058140119
 30
0.0
 11
54.235137778118819
 21
0.176369541560113
 31
0.0
  0
LINE
  5
CA9
  8
0
 62
     0
 10
52.647637778118813
 20
2.9260001985757058
 30
0.0
 11
53.044512778118822
 21
2.2385925343218069
 31
0.0
  0
LINE
  5
CAA
  8
0
 62
     0
 10
51.525491761599362
 20
4.8696141126984003
 30
0.0
 11
51.853887778118811
 21
4.3008155270835013
 31
0.0
  0
LINE
  5
CAB
  8
0
 62
     0
 10
48.281902678129541
 20
0.8637954379968654
 30
0.0
 11
47.885027678129532
 21
0.1763877737429667
 31
0.0
  0
LINE
  5
CAC
  8
0
 62
     0
 10
49.472527678129538
 20
2.9260184307585582
 30
0.0
 11
49.075652678129529
 21
2.2386107665046602
 31
0.0
  0
LINE
  5
CAD
  8
0
 62
     0
 10
50.587917148476151
 20
4.857929663626237
 30
0.0
 11
50.266277678129541
 21
4.3008337592663528
 31
0.0
  0
LINE
  5
CAE
  8
0
 62
     0
 10
48.281902393633459
 20
-1.885835054764905
 30
0.0
 11
47.88502739363345
 21
-2.5732427190188032
 31
0.0
  0
LINE
  5
CAF
  8
0
 62
     0
 10
49.472527393633463
 20
0.1763879379967883
 30
0.0
 11
49.075652393633447
 21
-0.5110197262571106
 31
0.0
  0
LINE
  5
CB0
  8
0
 62
     0
 10
50.663152393633453
 20
2.2386109307584809
 30
0.0
 11
50.266277393633452
 21
1.5512032665045821
 31
0.0
  0
LINE
  5
CB1
  8
0
 62
     0
 10
51.85377739363345
 20
4.300833923520174
 30
0.0
 11
51.456902393633449
 21
3.613426259266276
 31
0.0
  0
LINE
  5
CB2
  8
0
 62
     0
 10
48.281902109137363
 20
-4.6354655475265067
 30
0.0
 11
47.885027109137361
 21
-5.3228732117804061
 31
0.0
  0
LINE
  5
CB3
  8
0
 62
     0
 10
49.47252710913736
 20
-2.5732425547648128
 30
0.0
 11
49.075652109137359
 21
-3.2606502190187121
 31
0.0
  0
LINE
  5
CB4
  8
0
 62
     0
 10
50.66315210913735
 20
-0.5110195620031202
 30
0.0
 11
50.266277109137363
 21
-1.198427226257019
 31
0.0
  0
LINE
  5
CB5
  8
0
 62
     0
 10
51.853777109137347
 20
1.5512034307585729
 30
0.0
 11
51.456902109137353
 21
0.8637957665046736
 31
0.0
  0
LINE
  5
CB6
  8
0
 62
     0
 10
53.044402109137351
 20
3.613426423520266
 30
0.0
 11
52.64752710913735
 21
2.9260187592663671
 31
0.0
  0
LINE
  5
CB7
  8
0
 62
     0
 10
48.281901824641281
 20
-7.3850960402882571
 30
0.0
 11
48.204557344501758
 21
-7.5190606095749102
 31
0.0
  0
LINE
  5
CB8
  8
0
 62
     0
 10
49.472526824641278
 20
-5.3228730475265627
 30
0.0
 11
49.075651824641277
 21
-6.0102807117804611
 31
0.0
  0
LINE
  5
CB9
  8
0
 62
     0
 10
50.663151824641268
 20
-3.26065005476487
 30
0.0
 11
50.266276824641267
 21
-3.948057719018768
 31
0.0
  0
LINE
  5
CBA
  8
0
 62
     0
 10
51.853776824641272
 20
-1.1984270620031761
 30
0.0
 11
51.456901824641271
 21
-1.885834726257074
 31
0.0
  0
LINE
  5
CBB
  8
0
 62
     0
 10
53.044401824641263
 20
0.863795930758517
 30
0.0
 11
52.647526824641268
 21
0.1763882665046186
 31
0.0
  0
LINE
  5
CBC
  8
0
 62
     0
 10
53.980789660168931
 20
2.4856672374818909
 30
0.0
 11
53.838151824641258
 21
2.2386112592663121
 31
0.0
  0
LINE
  5
CBD
  8
0
 62
     0
 10
49.472526540145118
 20
-8.0725035402882312
 30
0.0
 11
49.075651540145131
 21
-8.7599112045421297
 31
0.0
  0
LINE
  5
CBE
  8
0
 62
     0
 10
50.663151540145122
 20
-6.0102805475265368
 30
0.0
 11
50.266276540145121
 21
-6.6976882117804353
 31
0.0
  0
LINE
  5
CBF
  8
0
 62
     0
 10
51.85377654014512
 20
-3.9480575547648442
 30
0.0
 11
51.456901540145118
 21
-4.6354652190187418
 31
0.0
  0
LINE
  5
CC0
  8
0
 62
     0
 10
53.04440154014511
 20
-1.88583456200315
 30
0.0
 11
52.647526540145108
 21
-2.5732422262570491
 31
0.0
  0
LINE
  5
CC1
  8
0
 62
     0
 10
54.235026540145107
 20
0.1763884307585428
 30
0.0
 11
53.838151540145113
 21
-0.5110192334953556
 31
0.0
  0
LINE
  5
CC2
  8
0
 62
     0
 10
50.66315125564909
 20
-8.7599110402882001
 30
0.0
 11
50.266276255649089
 21
-9.4473187045420985
 31
0.0
  0
LINE
  5
CC3
  8
0
 62
     0
 10
51.853776255649088
 20
-6.6976880475265057
 30
0.0
 11
51.456901255649093
 21
-7.3850957117804041
 31
0.0
  0
LINE
  5
CC4
  8
0
 62
     0
 10
53.044401255649092
 20
-4.6354650547648131
 30
0.0
 11
52.64752625564909
 21
-5.3228727190187097
 31
0.0
  0
LINE
  5
CC5
  8
0
 62
     0
 10
54.235026255649089
 20
-2.5732420620031191
 30
0.0
 11
53.83815125564908
 21
-3.2606497262570171
 31
0.0
  0
LINE
  5
CC6
  8
0
 62
     0
 10
51.853775971152928
 20
-9.4473185402882738
 30
0.0
 11
51.626786461721032
 21
-9.8404759034094553
 31
0.0
  0
LINE
  5
CC7
  8
0
 62
     0
 10
53.044400971152932
 20
-7.3850955475265803
 30
0.0
 11
52.647525971152923
 21
-8.0725032117804787
 31
0.0
  0
LINE
  5
CC8
  8
0
 62
     0
 10
54.235025971152922
 20
-5.3228725547648859
 30
0.0
 11
53.83815097115292
 21
-6.0102802190187843
 31
0.0
  0
LINE
  5
CC9
  8
0
 62
     0
 10
53.04447351765738
 20
-8.7598223431835081
 30
0.0
 11
53.148049786262717
 21
-8.7598223431835081
 31
0.0
  0
LINE
  5
CCA
  8
0
 62
     0
 10
50.663223517657379
 20
-8.7598223431835081
 30
0.0
 11
51.456973517657389
 21
-8.7598223431835081
 31
0.0
  0
LINE
  5
CCB
  8
0
 62
     0
 10
49.018229956859777
 20
-8.7598223431835081
 30
0.0
 11
49.075723517657387
 21
-8.7598223431835081
 31
0.0
  0
LINE
  5
CCC
  8
0
 62
     0
 10
53.04447351765738
 20
-7.3850073431834948
 30
0.0
 11
53.838223517657383
 21
-7.3850073431834948
 31
0.0
  0
LINE
  5
CCD
  8
0
 62
     0
 10
50.663223517657372
 20
-7.3850073431834948
 30
0.0
 11
51.456973517657381
 21
-7.3850073431834948
 31
0.0
  0
LINE
  5
CCE
  8
0
 62
     0
 10
48.28197351765737
 20
-7.3850073431834948
 30
0.0
 11
49.07572351765738
 21
-7.3850073431834948
 31
0.0
  0
LINE
  5
CCF
  8
0
 62
     0
 10
53.04447351765738
 20
-6.0101923431834816
 30
0.0
 11
53.838223517657383
 21
-6.0101923431834816
 31
0.0
  0
LINE
  5
CD0
  8
0
 62
     0
 10
50.663223517657372
 20
-6.0101923431834816
 30
0.0
 11
51.456973517657381
 21
-6.0101923431834816
 31
0.0
  0
LINE
  5
CD1
  8
0
 62
     0
 10
48.28197351765737
 20
-6.0101923431834816
 30
0.0
 11
49.07572351765738
 21
-6.0101923431834816
 31
0.0
  0
LINE
  5
CD2
  8
0
 62
     0
 10
53.04447351765738
 20
-4.6353773431834702
 30
0.0
 11
53.838223517657383
 21
-4.6353773431834702
 31
0.0
  0
LINE
  5
CD3
  8
0
 62
     0
 10
50.663223517657372
 20
-4.6353773431834702
 30
0.0
 11
51.456973517657381
 21
-4.6353773431834702
 31
0.0
  0
LINE
  5
CD4
  8
0
 62
     0
 10
48.28197351765737
 20
-4.6353773431834702
 30
0.0
 11
49.07572351765738
 21
-4.6353773431834702
 31
0.0
  0
LINE
  5
CD5
  8
0
 62
     0
 10
53.04447351765738
 20
-3.2605623431834592
 30
0.0
 11
53.838223517657383
 21
-3.2605623431834592
 31
0.0
  0
LINE
  5
CD6
  8
0
 62
     0
 10
50.663223517657372
 20
-3.2605623431834592
 30
0.0
 11
51.456973517657381
 21
-3.2605623431834592
 31
0.0
  0
LINE
  5
CD7
  8
0
 62
     0
 10
48.28197351765737
 20
-3.2605623431834578
 30
0.0
 11
49.07572351765738
 21
-3.2605623431834578
 31
0.0
  0
LINE
  5
CD8
  8
0
 62
     0
 10
53.04447351765738
 20
-1.8857473431834471
 30
0.0
 11
53.838223517657383
 21
-1.8857473431834471
 31
0.0
  0
LINE
  5
CD9
  8
0
 62
     0
 10
50.663223517657372
 20
-1.8857473431834459
 30
0.0
 11
51.456973517657381
 21
-1.8857473431834471
 31
0.0
  0
LINE
  5
CDA
  8
0
 62
     0
 10
48.28197351765737
 20
-1.8857473431834459
 30
0.0
 11
49.07572351765738
 21
-1.8857473431834459
 31
0.0
  0
LINE
  5
CDB
  8
0
 62
     0
 10
53.04447351765738
 20
-0.5109323431834352
 30
0.0
 11
53.838223517657383
 21
-0.5109323431834354
 31
0.0
  0
LINE
  5
CDC
  8
0
 62
     0
 10
50.663223517657372
 20
-0.5109323431834345
 30
0.0
 11
51.456973517657381
 21
-0.5109323431834348
 31
0.0
  0
LINE
  5
CDD
  8
0
 62
     0
 10
48.28197351765737
 20
-0.510932343183434
 30
0.0
 11
49.07572351765738
 21
-0.5109323431834341
 31
0.0
  0
LINE
  5
CDE
  8
0
 62
     0
 10
53.04447351765738
 20
0.8638826568165772
 30
0.0
 11
53.838223517657369
 21
0.8638826568165768
 31
0.0
  0
LINE
  5
CDF
  8
0
 62
     0
 10
50.663223517657372
 20
0.8638826568165779
 30
0.0
 11
51.456973517657367
 21
0.8638826568165775
 31
0.0
  0
LINE
  5
CE0
  8
0
 62
     0
 10
48.28197351765737
 20
0.8638826568165784
 30
0.0
 11
49.075723517657373
 21
0.8638826568165782
 31
0.0
  0
LINE
  5
CE1
  8
0
 62
     0
 10
53.04447351765738
 20
2.2386976568165902
 30
0.0
 11
53.838223517657369
 21
2.2386976568165902
 31
0.0
  0
LINE
  5
CE2
  8
0
 62
     0
 10
50.663223517657372
 20
2.2386976568165902
 30
0.0
 11
51.456973517657367
 21
2.2386976568165902
 31
0.0
  0
LINE
  5
CE3
  8
0
 62
     0
 10
48.28197351765737
 20
2.2386976568165911
 30
0.0
 11
49.075723517657373
 21
2.2386976568165911
 31
0.0
  0
LINE
  5
CE4
  8
0
 62
     0
 10
53.04447351765738
 20
3.6135126568164879
 30
0.0
 11
53.275870365105902
 21
3.6135126568164879
 31
0.0
  0
LINE
  5
CE5
  8
0
 62
     0
 10
50.663223517657372
 20
3.6135126568164879
 30
0.0
 11
51.456973517657381
 21
3.6135126568164879
 31
0.0
  0
LINE
  5
CE6
  8
0
 62
     0
 10
48.890409378016642
 20
3.6135126568164888
 30
0.0
 11
49.07572351765738
 21
3.6135126568164888
 31
0.0
  0
ENDBLK
  5
CE8
  8
0
  0
BLOCK
  8
0
  2
*U37
 70
     1
 10
0.0
 20
0.0
 30
0.0
  3
*U37
  1

  0
TEXT
  5
11FD
  8
SAPA_MATT
 62
     2
 10
-22.150000000000091
 20
43.499999999999837
 30
0.0
 40
3.0
  1
94.5
 50
90.0
  7
ISO
  0
ENDBLK
  5
11FF
  8
0
  0
BLOCK
  8
0
  2
*U38
 70
     1
 10
0.0
 20
0.0
 30
0.0
  3
*U38
  1

  0
TEXT
  5
1201
  8
SAPA_MATT
 62
     2
 10
-12.15000000000008
 20
23.899999999999999
 30
0.0
 40
3.0
  1
52
 50
90.0
  7
ISO
  0
ENDBLK
  5
1203
  8
0
  0
ENDSEC
  0
SECTION
  2
ENTITIES
  0
INSERT
  5
7A2
  8
SAPA_ANSLUTNING
  6
CONTINUOUS
  2
*X34
 10
0.0
 20
0.0
 30
0.0
1001
ACAD
1000
HATCH
1002
{
1070
    19
1000
HEX
1040
0.25
1040
-0.0000000000000002
1000
ASC_BOUNDS
1070
     1
1070
     1
1070
     9
1005
7A9
1005
7AA
1005
7AB
1005
7A3
1005
7A4
1005
7A5
1005
7A6
1005
7A7
1005
7A8
1000
ASC_SEEDPOINT
1011
15.742329235971621
1021
0.0
1031
0.0
1021
-1.1461165174070509
1031
0.0
1000
R14_HATCH_DATA
1000
7A2
1011
1.0
1021
0.0
1031
0.0
1021
0.0
1031
0.0
1011
0.0
1021
0.0
1031
0.0
1021
1.0
1031
0.0
1011
0.0
1021
0.0
1031
0.0
1021
0.0
1031
1.0
1040
0.0
1010
0.0
1020
0.0
1030
1.0
1000
HEX
1070
     0
1070
     1
1071
        1
1071
        7
1070
     1
1070
     1
1071
        9
1040
13.3279824873282
1040
0.8779034025747589
1040
0.0
1040
12.174722457901339
1040
-0.4964983806899567
1040
0.0
1040
9.0248825322436232
1040
-0.4964983806899568
1040
0.0
1040
9.0248825322436232
1040
-9.4964983806899568
1040
0.0
1040
19.02488253224362
1040
-9.4964983806899568
1040
0.0
1040
19.02488253224363
1040
4.5035016193101001
1040
0.0
1040
11.90824329404257
1040
4.5035016193100432
1040
1.003947838497945
1040
11.92488253224349
1040
2.3288004586214011
1040
0.0
1040
13.3279824873282
1040
2.3288004586214011
1040
0.0
1071
        9
1005
7A8
1005
7A7
1005
7A6
1005
7A5
1005
7A4
1005
7A3
1005
7AB
1005
7AA
1005
7A9
1070
     0
1070
     1
1040
-0.0000000000000002
1040
0.25
1070
     0
1070
     3
1040
6.2831853071795862
1040
-37.443026482342553
1040
537.04173265681652
1040
-0.0000000000000002
1040
-1.374814999999999
1070
     2
1040
0.79375
1040
-1.587499999999999
1040
4.1887902047863914
1040
-37.443026482342553
1040
537.04173265681652
1040
-1.190624715503902
1040
0.6874074999999998
1070
     2
1040
0.7937499999999994
1040
-1.5874999999999979
1040
5.2359877559829879
1040
-36.649276482342557
1040
537.04173265681652
1040
-1.190624715503902
1040
-0.6874075
1070
     2
1040
0.79375
1040
-1.587499999999999
1040
0.039264581650172
1071
        1
1040
15.742329235971621
1040
-1.1461165174070509
1040
0.0
1002
}
  0
LINE
  5
7A3
  8
SAPA_ANSLUTNING
 10
11.92488253224349
 20
2.3288004586214011
 30
0.0
 11
13.3279824873282
 21
2.3288004586214011
 31
0.0
1001
ACAD
1000
ASC_BOUNDS
1002
{
1070
    19
1005
7A2
1002
}
  0
LINE
  5
7A4
  8
SAPA_ANSLUTNING
 10
13.3279824873282
 20
2.3288004586214011
 30
0.0
 11
13.3279824873282
 21
0.8779034025747591
 31
0.0
1001
ACAD
1000
ASC_BOUNDS
1002
{
1070
    19
1005
7A2
1002
}
  0
LINE
  5
7A5
  8
SAPA_ANSLUTNING
 10
13.3279824873282
 20
0.8779034025747591
 30
0.0
 11
12.174722457901339
 21
-0.4964983806899568
 31
0.0
1001
ACAD
1000
ASC_BOUNDS
1002
{
1070
    19
1005
7A2
1002
}
  0
LINE
  5
7A6
  8
SAPA_ANSLUTNING
 10
12.174722457901339
 20
-0.4964983806899568
 30
0.0
 11
9.0248825322436232
 21
-0.4964983806899568
 31
0.0
1001
ACAD
1000
ASC_BOUNDS
1002
{
1070
    19
1005
7A2
1002
}
  0
LINE
  5
7A7
  8
SAPA_ANSLUTNING
 10
9.0248825322436232
 20
-0.4964983806899568
 30
0.0
 11
9.0248825322436232
 21
-9.4964983806899568
 31
0.0
1001
ACAD
1000
ASC_BOUNDS
1002
{
1070
    19
1005
7A2
1002
}
  0
LINE
  5
7A8
  8
SAPA_ANSLUTNING
 10
9.0248825322436232
 20
-9.4964983806899568
 30
0.0
 11
19.02488253224362
 21
-9.4964983806899568
 31
0.0
1001
ACAD
1000
ASC_BOUNDS
1002
{
1070
    19
1005
7A2
1002
}
  0
LINE
  5
7A9
  8
SAPA_ANSLUTNING
 10
19.02488253224362
 20
-9.4964983806899568
 30
0.0
 11
19.02488253224363
 21
4.5035016193101001
 31
0.0
1001
ACAD
1000
ASC_BOUNDS
1002
{
1070
    19
1005
7A2
1002
}
  0
LINE
  5
7AA
  8
SAPA_ANSLUTNING
 10
19.02488253224363
 20
4.5035016193101001
 30
0.0
 11
11.90824329404257
 21
4.5035016193100432
 31
0.0
1001
ACAD
1000
ASC_BOUNDS
1002
{
1070
    19
1005
7A2
1002
}
  0
ARC
  5
7AB
  8
SAPA_ANSLUTNING
 10
11.912278668750339
 20
3.4161182590306112
 30
0.0
 40
1.0873908480678049
 50
90.212628670387616
 51
270.66412583480809
1001
ACAD
1000
ASC_BOUNDS
1002
{
1070
    19
1005
7A2
1002
}
  0
INSERT
  5
7AC
  8
SAPA_ANSLUTNING
  6
CONTINUOUS
  2
*X35
 10
0.0
 20
0.0
 30
0.0
1001
ACAD
1000
HATCH
1002
{
1070
    19
1000
ANSI37
1040
0.5
1040
-0.0000000000000002
1000
R14_HATCH_DATA
1000
7AC
1011
1.0
1021
0.0
1031
0.0
1021
0.0
1031
0.0
1011
0.0
1021
0.0
1031
0.0
1021
1.0
1031
0.0
1011
0.0
1021
0.0
1031
0.0
1021
0.0
1031
1.0
1040
0.0
1010
0.0
1020
0.0
1030
1.0
1000
ANSI37
1070
     0
1070
     0
1071
        1
1071
        7
1070
     1
1070
     1
1071
       16
1040
59.024533882652001
1040
-9.9953398554510642
1040
0.0
1040
51.083139871561222
1040
-9.9953398554510642
1040
0.0
1040
51.083139871561222
1040
-9.9095945093715301
1040
0.167892009687238
1040
52.42435939503639
1040
-9.4461715881655692
1040
0.1053277233169264
1040
53.849721371886631
1040
-7.7385647418544323
1040
0.0677080186897229
1040
54.67259950590676
1040
-5.4875009926619924
1040
0.0538647880861766
1040
54.995676950731877
1040
-2.4972352327992691
1040
0.0538647880861769
1040
54.67259950590676
1040
0.4930305270635103
1040
0.0157110904928575
1040
54.536212543847
1040
1.034681553269351
1040
0.0
1040
54.85000000000025
1040
1.1242640687123491
1040
0.1989123673799612
1040
54.937867965644386
1040
0.9121320343558494
1040
0.0
1040
55.762132034356107
1040
0.0878679656443495
1040
0.19891236737974
1040
55.974264068712159
1040
0.0000000000002132
1040
0.0
1040
58.550000000000068
1040
0.0000000000002132
1040
0.2543709654409035
1040
58.801848481813522
1040
0.1369897481499578
1040
0.0
1040
59.024882532244078
1040
0.0035016193104269
1040
0.2032017886952708
1071
        0
1070
     0
1070
     1
1040
-0.0000000000000002
1040
0.5
1070
     0
1070
     2
1040
5.4977871437821371
1040
-37.443026482342553
1040
537.04173265681652
1040
-1.122532015133644
1040
-1.1225320151336431
1070
     0
1040
3.926990816987241
1040
-37.443026482342553
1040
537.04173265681652
1040
-1.1225320151336431
1040
1.122532015133644
1070
     0
1040
0.1183068881037046
1071
        1
1040
56.4892049027643
1040
-7.0809195545168251
1040
0.0
1002
}
  0
INSERT
  5
7AD
  8
SAPA_ANSLUTNING
  6
CONTINUOUS
  2
*X36
 10
0.0
 20
0.0
 30
0.0
1001
ACAD
1000
HATCH
1002
{
1070
    19
1000
HEX
1040
0.25
1040
-0.0000000000000002
1000
ASC_BOUNDS
1070
     1
1070
     1
1070
     1
1005
7AE
1000
ASC_SEEDPOINT
1011
50.274046825284238
1021
0.0
1031
0.0
1021
-2.63817125295175
1031
0.0
1000
R14_HATCH_DATA
1000
7AD
1011
1.0
1021
0.0
1031
0.0
1021
0.0
1031
0.0
1011
0.0
1021
0.0
1031
0.0
1021
1.0
1031
0.0
1011
0.0
1021
0.0
1031
0.0
1021
0.0
1031
1.0
1040
0.0
1010
0.0
1020
0.0
1030
1.0
1000
HEX
1070
     0
1070
     1
1071
        1
1071
        7
1070
     1
1070
     1
1071
       16
1040
47.493680237215862
1040
-5.4875009926626257
1040
0.0677080186896916
1040
48.316558371235573
1040
-7.7385647418540611
1040
0.1053277233169532
1040
49.741920348086133
1040
-9.4461715881656225
1040
0.1678920096872318
1040
51.083139871561222
1040
-9.9095945093715301
1040
0.1678920096872625
1040
52.424359395036632
1040
-9.4461715881654644
1040
0.1053277233169101
1040
53.849721371886609
1040
-7.7385647418545833
1040
0.0677080186897011
1040
54.672599505906568
1040
-5.4875009926629099
1040
0.0538647880861934
1040
54.995676950731877
1040
-2.4972352327992691
1040
0.0538647880861554
1040
54.672599505907122
1040
0.4930305270623414
1040
0.0677080186897778
1040
53.849721371886289
1040
2.7440942762566012
1040
0.1053277233168764
1040
52.424359395036667
1040
4.451701122566841
1040
0.1678920096872594
1040
51.083139871561222
1040
4.9151240437729342
1040
0.1678920096872318
1040
49.741920348086097
1040
4.4517011225669956
1040
0.1053277233169456
1040
48.316558371235622
1040
2.7440942762555651
1040
0.0677080186897129
1040
47.493680237215678
1040
0.4930305270633913
1040
0.0538647880861768
1040
47.170602792390703
1040
-2.4972352327992691
1040
0.0538647880861932
1071
        1
1005
7AE
1070
     0
1070
     1
1040
-0.0000000000000002
1040
0.25
1070
     0
1070
     3
1040
6.2831853071795862
1040
-37.443026482342553
1040
537.04173265681652
1040
-0.0000000000000002
1040
-1.374814999999999
1070
     2
1040
0.79375
1040
-1.587499999999999
1040
4.1887902047863914
1040
-37.443026482342553
1040
537.04173265681652
1040
-1.190624715503902
1040
0.6874074999999998
1070
     2
1040
0.7937499999999994
1040
-1.5874999999999979
1040
5.2359877559829879
1040
-36.649276482342557
1040
537.04173265681652
1040
-1.190624715503902
1040
-0.6874075
1070
     2
1040
0.79375
1040
-1.587499999999999
1040
0.039264581650172
1071
        1
1040
50.274046825284238
1040
-2.63817125295175
1040
0.0
1002
}
  0
POLYLINE
  5
7AE
  8
SAPA_ANSLUTNING
 66
     1
 10
0.0
 20
0.0
 30
0.0
 70
     1
1001
ACAD
1000
ASC_BOUNDS
1002
{
1070
    19
1005
7AD
1002
}
  0
VERTEX
  5
CE9
  8
SAPA_ANSLUTNING
 10
51.083139871561222
 20
4.9151240437729342
 30
0.0
 42
-0.1678920096872347
  0
VERTEX
  5
CEA
  8
SAPA_ANSLUTNING
 10
52.424359395036497
 20
4.4517011225669734
 30
0.0
 42
-0.1053277233169209
  0
VERTEX
  5
CEB
  8
SAPA_ANSLUTNING
 10
53.849721371886631
 20
2.7440942762559501
 30
0.0
 42
-0.0677080186897101
  0
VERTEX
  5
CEC
  8
SAPA_ANSLUTNING
 10
54.67259950590676
 20
0.493030527063965
 30
0.0
 42
-0.0538647880861852
  0
VERTEX
  5
CED
  8
SAPA_ANSLUTNING
 10
54.995676950731877
 20
-2.4972352327992691
 30
0.0
 42
-0.053864788086187
  0
VERTEX
  5
CEE
  8
SAPA_ANSLUTNING
 10
54.672599505906653
 20
-5.48750099266256
 30
0.0
 42
-0.0677080186897101
  0
VERTEX
  5
CEF
  8
SAPA_ANSLUTNING
 10
53.849721371886631
 20
-7.738564741854546
 30
0.0
 42
-0.10532772331692
  0
VERTEX
  5
CF0
  8
SAPA_ANSLUTNING
 10
52.424359395036497
 20
-9.4461715881655692
 30
0.0
 42
-0.167892009687243
  0
VERTEX
  5
CF1
  8
SAPA_ANSLUTNING
 10
51.083139871561222
 20
-9.9095945093715301
 30
0.0
 42
-0.1678920096872415
  0
VERTEX
  5
CF2
  8
SAPA_ANSLUTNING
 10
49.741920348086069
 20
-9.4461715881655692
 30
0.0
 42
-0.1053277233169233
  0
VERTEX
  5
CF3
  8
SAPA_ANSLUTNING
 10
48.316558371235828
 20
-7.738564741854546
 30
0.0
 42
-0.0677080186897123
  0
VERTEX
  5
CF4
  8
SAPA_ANSLUTNING
 10
47.493680237215813
 20
-5.4875009926624472
 30
0.0
 42
-0.0538647880861899
  0
VERTEX
  5
CF5
  8
SAPA_ANSLUTNING
 10
47.170602792390703
 20
-2.4972352327992691
 30
0.0
 42
-0.0538647880861873
  0
VERTEX
  5
CF6
  8
SAPA_ANSLUTNING
 10
47.493680237215813
 20
0.493030527063965
 30
0.0
 42
-0.0677080186897085
  0
VERTEX
  5
CF7
  8
SAPA_ANSLUTNING
 10
48.316558371235828
 20
2.7440942762559501
 30
0.0
 42
-0.1053277233169232
  0
VERTEX
  5
CF8
  8
SAPA_ANSLUTNING
 10
49.741920348086069
 20
4.4517011225669734
 30
0.0
 42
-0.167892009687237
  0
SEQEND
  5
CF9
  8
SAPA_ANSLUTNING
  0
ARC
  5
7AF
  8
SAPA_ANSLUTNING
 10
70.818378558050313
 20
-4.996330351548365
 30
0.0
 40
12.809561594665579
 50
157.02556890674009
 51
202.97443109325991
  0
POLYLINE
  5
7B0
  8
SAPA_ANSLUTNING
 66
     1
 10
0.0
 20
0.0
 30
0.0
  0
VERTEX
  5
CFA
  8
SAPA_ANSLUTNING
 10
19.963726575791839
 20
2.513624358961692
 30
0.0
 42
-0.9999999999999998
  0
VERTEX
  5
CFB
  8
SAPA_ANSLUTNING
 10
23.963726575791849
 20
2.513624358961692
 30
0.0
  0
VERTEX
  5
CFC
  8
SAPA_ANSLUTNING
 10
23.963726575791611
 20
-7.9429860874870988
 30
0.0
 42
0.9999989466455052
  0
VERTEX
  5
CFD
  8
SAPA_ANSLUTNING
 10
27.963726575787291
 20
-7.9429903009072973
 30
0.0
  0
VERTEX
  5
CFE
  8
SAPA_ANSLUTNING
 10
27.963726575787291
 20
-1.94298937331979
 30
0.0
 42
-0.9999999999999998
  0
VERTEX
  5
CFF
  8
SAPA_ANSLUTNING
 10
31.963726575787291
 20
-1.942989373319804
 30
0.0
  0
VERTEX
  5
D00
  8
SAPA_ANSLUTNING
 10
31.96372657578706
 20
-7.9429929326855273
 30
0.0
 42
0.9999974985601646
  0
VERTEX
  5
D01
  8
SAPA_ANSLUTNING
 10
35.963726575774558
 20
-7.9429929326855273
 30
0.0
  0
VERTEX
  5
D02
  8
SAPA_ANSLUTNING
 10
35.963726575774558
 20
-1.942989373319804
 30
0.0
 42
-0.9999999999999998
  0
VERTEX
  5
D03
  8
SAPA_ANSLUTNING
 10
39.963726575774558
 20
-1.942989373319804
 30
0.0
  0
VERTEX
  5
D04
  8
SAPA_ANSLUTNING
 10
39.963726575774558
 20
-7.9429903009073106
 30
0.0
 42
0.9999989466455052
  0
VERTEX
  5
D05
  8
SAPA_ANSLUTNING
 10
43.963726575770238
 20
-7.942986087487113
 30
0.0
  0
VERTEX
  5
D06
  8
SAPA_ANSLUTNING
 10
43.963726575770011
 20
2.5136243589616778
 30
0.0
 42
-0.9999999999999998
  0
VERTEX
  5
D07
  8
SAPA_ANSLUTNING
 10
47.963726575770011
 20
2.5136243589616778
 30
0.0
  0
SEQEND
  5
D08
  8
SAPA_ANSLUTNING
  0
LINE
  5
7B1
  8
SAPA_ANSLUTNING
 10
-8.0636585861094545
 20
-9.9953398554510358
 30
0.0
 11
74.573577187519845
 21
-9.9953398554510642
 31
0.0
  0
TEXT
  5
7B3
  8
SAPA_ARTIKELNR
 10
65.661502334113905
 20
80.381335301901402
 30
0.0
 40
3.5
  1
42077
 50
90.0
  7
ISO
  0
TEXT
  5
7B4
  8
SAPA_ARTIKELNR
 10
64.661546368874724
 20
8.5840558782631842
 30
0.0
 40
3.4999999999999991
  1
68902
 50
90.000007903402164
  7
ISO
  0
TEXT
  5
7BB
  8
SAPA_ARTIKELNR
 10
73.950598577718196
 20
43.839519703501672
 30
0.0
 40
3.5
  1
68810
 50
90.0
  7
ISO
  0
POLYLINE
  5
8C3
  8
SAPA_LIGHT
 66
     1
 10
0.0
 20
0.0
 30
0.0
 70
     1
  0
VERTEX
  5
D09
  8
SAPA_LIGHT
 10
17.24999999999994
 20
77.499999999999773
 30
0.0
  0
VERTEX
  5
D0A
  8
SAPA_LIGHT
 10
23.24999999999994
 20
77.499999999999773
 30
0.0
  0
VERTEX
  5
D0B
  8
SAPA_LIGHT
 10
23.249999999999918
 20
110.4156750223831
 30
0.0
  0
VERTEX
  5
D0C
  8
SAPA_LIGHT
 10
17.249999999999911
 20
110.4156750223831
 30
0.0
  0
SEQEND
  5
D0D
  8
SAPA_LIGHT
  0
LINE
  5
8C4
  8
SAPA_LIGHT
 10
-8.063658586109625
 20
-9.9953398554508794
 30
0.0
 11
74.573577187519675
 21
-9.9953398554508794
 31
0.0
  0
POLYLINE
  5
8C5
  8
SAPA_LIGHT
 66
     1
 10
0.0
 20
0.0
 30
0.0
  0
VERTEX
  5
D0E
  8
SAPA_LIGHT
 10
17.249999999999911
 20
94.500000000000014
 30
0.0
  0
VERTEX
  5
D0F
  8
SAPA_LIGHT
 10
8.8499999999997101
 20
94.499999999999773
 30
0.0
  0
VERTEX
  5
D10
  8
SAPA_LIGHT
 10
8.8499999999999641
 20
56.999999999999879
 30
0.0
  0
VERTEX
  5
D11
  8
SAPA_LIGHT
 10
14.299999999999899
 20
56.999999999999879
 30
0.0
  0
VERTEX
  5
D12
  8
SAPA_LIGHT
 10
14.299999999999899
 20
41.499999999999829
 30
0.0
  0
VERTEX
  5
D13
  8
SAPA_LIGHT
 10
58.849999999999817
 20
41.499999999999829
 30
0.0
  0
VERTEX
  5
D14
  8
SAPA_LIGHT
 10
58.849999999999817
 20
23.999999999999829
 30
0.0
  0
VERTEX
  5
D15
  8
SAPA_LIGHT
 10
68.349999999999596
 20
23.999999999999709
 30
0.0
  0
VERTEX
  5
D16
  8
SAPA_LIGHT
 10
68.349999999999596
 20
67.01517248927621
 30
0.0
  0
VERTEX
  5
D17
  8
SAPA_LIGHT
 10
58.849999999999817
 20
72.500000723859102
 30
0.0
  0
VERTEX
  5
D18
  8
SAPA_LIGHT
 10
58.849999999999817
 20
94.501113847887154
 30
0.0
  0
VERTEX
  5
D19
  8
SAPA_LIGHT
 10
23.250000000000028
 20
94.500000000002274
 30
0.0
  0
SEQEND
  5
D1A
  8
SAPA_LIGHT
  0
POLYLINE
  5
8C6
  8
SAPA_LIGHT
 66
     1
 10
0.0
 20
0.0
 30
0.0
 70
     1
  0
VERTEX
  5
D1B
  8
SAPA_LIGHT
 10
13.34999999999985
 20
52.000000000000341
 30
0.0
  0
VERTEX
  5
D1C
  8
SAPA_LIGHT
 10
8.8499999999998522
 20
52.000000000000341
 30
0.0
  0
VERTEX
  5
D1D
  8
SAPA_LIGHT
 10
8.8500000000000796
 20
0.0000000000003411
 30
0.0
  0
VERTEX
  5
D1E
  8
SAPA_LIGHT
 10
58.849999999999817
 20
0.0000000000003979
 30
0.0
  0
VERTEX
  5
D1F
  8
SAPA_LIGHT
 10
58.849999999999817
 20
30.000000000000231
 30
0.0
  0
VERTEX
  5
D20
  8
SAPA_LIGHT
 10
13.34999999999985
 20
30.000000000000231
 30
0.0
  0
SEQEND
  5
D21
  8
SAPA_LIGHT
  0
POLYLINE
  5
B37
  8
SAPA_PROFIL
 66
     1
 10
0.0
 20
0.0
 30
0.0
  0
VERTEX
  5
EE9
  8
SAPA_PROFIL
 10
42.528444819366477
 20
75.378736921551706
 30
0.0
  0
VERTEX
  5
EEA
  8
SAPA_PROFIL
 10
41.847404885508183
 20
92.500000000002046
 30
0.0
 42
-0.4142135623730951
  0
VERTEX
  5
EEB
  8
SAPA_PROFIL
 10
42.347404885508183
 20
93.000000000002046
 30
0.0
  0
VERTEX
  5
EEC
  8
SAPA_PROFIL
 10
54.14701836851691
 20
93.00000000000199
 30
0.0
 42
-0.4076767287637263
  0
VERTEX
  5
EED
  8
SAPA_PROFIL
 10
57.146268200906462
 20
90.067103649185071
 30
0.0
  0
VERTEX
  5
EEE
  8
SAPA_PROFIL
 10
57.300707423017258
 20
75.378736921551706
 30
0.0
 42
-0.4182129759575463
  0
VERTEX
  5
EEF
  8
SAPA_PROFIL
 10
56.805195702160091
 20
74.867575809496202
 30
0.0
  0
VERTEX
  5
EF0
  8
SAPA_PROFIL
 10
54.330547946040717
 20
74.854748207970474
 30
0.0
  0
VERTEX
  5
EF1
  8
SAPA_PROFIL
 10
52.704489989847161
 20
73.200059610346671
 30
0.0
  0
VERTEX
  5
EF2
  8
SAPA_PROFIL
 10
52.704489989847161
 20
68.650983576058479
 30
0.0
 42
0.4293387945586749
  0
VERTEX
  5
EF3
  8
SAPA_PROFIL
 10
53.022601125836502
 20
68.354257054973971
 30
0.0
  0
VERTEX
  5
EF4
  8
SAPA_PROFIL
 10
54.104056851106968
 20
68.426896731101692
 30
0.0
 42
0.4883397947196161
  0
VERTEX
  5
EF5
  8
SAPA_PROFIL
 10
53.883433916908757
 20
69.988618557110044
 30
0.0
  0
VERTEX
  5
EF6
  8
SAPA_PROFIL
 10
53.883433916908757
 20
72.68769983314445
 30
0.0
  0
VERTEX
  5
EF7
  8
SAPA_PROFIL
 10
54.838057137106631
 20
73.659131479520553
 30
0.0
  0
VERTEX
  5
EF8
  8
SAPA_PROFIL
 10
57.337183279991699
 20
73.659131479520553
 30
0.0
  0
VERTEX
  5
EF9
  8
SAPA_PROFIL
 10
57.337183279991699
 20
73.185355813005685
 30
0.0
  0
VERTEX
  5
EFA
  8
SAPA_PROFIL
 10
58.849999999999937
 20
73.185355813005685
 30
0.0
  0
VERTEX
  5
EFB
  8
SAPA_PROFIL
 10
58.850000000000051
 20
94.202640706694126
 30
0.0
 42
0.4116378201539302
  0
VERTEX
  5
EFC
  8
SAPA_PROFIL
 10
58.55001152232969
 20
94.500000000002004
 30
0.0
  0
VERTEX
  5
EFD
  8
SAPA_PROFIL
 10
30.147404885508191
 20
94.500000000002046
 30
0.0
 42
0.414213562373095
  0
VERTEX
  5
EFE
  8
SAPA_PROFIL
 10
29.847404885508119
 20
94.200000000002035
 30
0.0
  0
VERTEX
  5
EFF
  8
SAPA_PROFIL
 10
29.84740488550818
 20
92.990000000002055
 30
0.0
 42
0.4142135623731037
  0
VERTEX
  5
F00
  8
SAPA_PROFIL
 10
30.837404885508139
 20
92.000000000002046
 30
0.0
  0
VERTEX
  5
F01
  8
SAPA_PROFIL
 10
30.84740488550818
 20
92.000000000002046
 30
0.0
  0
VERTEX
  5
F02
  8
SAPA_PROFIL
 10
30.84740488550818
 20
93.250000000002046
 30
0.0
  0
VERTEX
  5
F03
  8
SAPA_PROFIL
 10
32.347404885508183
 20
93.250000000002046
 30
0.0
 42
-0.4142135623730951
  0
VERTEX
  5
F04
  8
SAPA_PROFIL
 10
32.84740488550819
 20
92.750000000002046
 30
0.0
  0
VERTEX
  5
F05
  8
SAPA_PROFIL
 10
32.84740488550819
 20
84.750000000002046
 30
0.0
 42
-0.4142135623730951
  0
VERTEX
  5
F06
  8
SAPA_PROFIL
 10
32.347404885508183
 20
84.250000000002046
 30
0.0
  0
VERTEX
  5
F07
  8
SAPA_PROFIL
 10
30.84740488550818
 20
84.250000000002046
 30
0.0
  0
VERTEX
  5
F08
  8
SAPA_PROFIL
 10
30.84740488550818
 20
85.500000000002046
 30
0.0
  0
VERTEX
  5
F09
  8
SAPA_PROFIL
 10
30.837404885508139
 20
85.500000000002046
 30
0.0
 42
0.414213562373095
  0
VERTEX
  5
F0A
  8
SAPA_PROFIL
 10
29.847404885508119
 20
84.510000000002037
 30
0.0
  0
VERTEX
  5
F0B
  8
SAPA_PROFIL
 10
29.84740488550818
 20
84.000000000002046
 30
0.0
 42
0.4142135623730953
  0
VERTEX
  5
F0C
  8
SAPA_PROFIL
 10
30.84740488550818
 20
83.000000000002046
 30
0.0
  0
VERTEX
  5
F0D
  8
SAPA_PROFIL
 10
32.347404885508183
 20
83.000000000002046
 30
0.0
 42
0.4142135623730951
  0
VERTEX
  5
F0E
  8
SAPA_PROFIL
 10
34.047404885508172
 20
84.700000000002035
 30
0.0
  0
VERTEX
  5
F0F
  8
SAPA_PROFIL
 10
34.047404885508229
 20
92.500000000002046
 30
0.0
 42
-0.414213562373095
  0
VERTEX
  5
F10
  8
SAPA_PROFIL
 10
34.547404885508229
 20
93.000000000002046
 30
0.0
  0
VERTEX
  5
F11
  8
SAPA_PROFIL
 10
40.047404885508222
 20
93.000000000002046
 30
0.0
 42
-0.4142135623730951
  0
VERTEX
  5
F12
  8
SAPA_PROFIL
 10
40.547404885508222
 20
92.500000000002046
 30
0.0
  0
VERTEX
  5
F13
  8
SAPA_PROFIL
 10
41.218614531974531
 20
75.378736921551706
 30
0.0
  0
VERTEX
  5
F14
  8
SAPA_PROFIL
 10
41.87555298270388
 20
69.97579015780201
 30
0.0
 42
-0.4666505291506209
  0
VERTEX
  5
F15
  8
SAPA_PROFIL
 10
41.61372145165933
 20
69.695988591883236
 30
0.0
  0
VERTEX
  5
F16
  8
SAPA_PROFIL
 10
40.891065358100377
 20
69.735531485801573
 30
0.0
 42
0.7332303362618522
  0
VERTEX
  5
F17
  8
SAPA_PROFIL
 10
40.690890769530192
 20
69.199455463149263
 30
0.0
  0
VERTEX
  5
F18
  8
SAPA_PROFIL
 10
42.800998109067898
 20
68.428545345644864
 30
0.0
 42
0.668178637919333
  0
VERTEX
  5
F19
  8
SAPA_PROFIL
 10
43.283345961158723
 20
68.701711540839142
 30
0.0
  0
VERTEX
  5
F1A
  8
SAPA_PROFIL
 10
42.528444819366477
 20
75.378736921551706
 30
0.0
  0
VERTEX
  5
F1B
  8
SAPA_PROFIL
 10
42.537978271529589
 20
75.378736921551706
 30
0.0
  0
SEQEND
  5
F1C
  8
SAPA_PROFIL
  0
POLYLINE
  5
B38
  8
SAPA_PROFIL
 66
     1
 10
0.0
 20
0.0
 30
0.0
 70
     1
  0
VERTEX
  5
F1D
  8
SAPA_PROFIL
 10
10.64999999999994
 20
60.399999999999629
 30
0.0
 42
0.4142135623730951
  0
VERTEX
  5
F1E
  8
SAPA_PROFIL
 10
11.14999999999994
 20
59.899999999999629
 30
0.0
  0
VERTEX
  5
F1F
  8
SAPA_PROFIL
 10
23.400000000000059
 20
59.89999999999975
 30
0.0
 42
0.4142135623730927
  0
VERTEX
  5
F20
  8
SAPA_PROFIL
 10
23.900000000000048
 20
60.39999999999975
 30
0.0
  0
VERTEX
  5
F21
  8
SAPA_PROFIL
 10
23.899999999999999
 20
65.299999999999841
 30
0.0
 42
0.4142135623730943
  0
VERTEX
  5
F22
  8
SAPA_PROFIL
 10
23.399999999999999
 20
65.799999999999841
 30
0.0
  0
VERTEX
  5
F23
  8
SAPA_PROFIL
 10
11.15000000000023
 20
65.799999999999727
 30
0.0
 42
0.4142135623730951
  0
VERTEX
  5
F24
  8
SAPA_PROFIL
 10
10.65000000000023
 20
65.299999999999713
 30
0.0
  0
SEQEND
  5
F25
  8
SAPA_PROFIL
  0
POLYLINE
  5
B39
  8
SAPA_PROFIL
 66
     1
 10
0.0
 20
0.0
 30
0.0
 70
     1
  0
VERTEX
  5
F26
  8
SAPA_PROFIL
 10
31.551554573776471
 20
43.199999999999811
 30
0.0
 42
-0.2914734195861744
  0
VERTEX
  5
F27
  8
SAPA_PROFIL
 10
31.098400680258141
 20
43.48869086912952
 30
0.0
  0
VERTEX
  5
F28
  8
SAPA_PROFIL
 10
29.643692212963309
 20
46.608323244567018
 30
0.0
 42
-0.1095178116832386
  0
VERTEX
  5
F29
  8
SAPA_PROFIL
 10
29.549999999999969
 20
47.030941506307713
 30
0.0
  0
VERTEX
  5
F2A
  8
SAPA_PROFIL
 10
29.549999999999979
 20
51.199999999999811
 30
0.0
 42
0.4142135623730951
  0
VERTEX
  5
F2B
  8
SAPA_PROFIL
 10
29.049999999999969
 20
51.699999999999811
 30
0.0
  0
VERTEX
  5
F2C
  8
SAPA_PROFIL
 10
27.587939479458981
 20
51.699999999999811
 30
0.0
 42
-0.2914734195861007
  0
VERTEX
  5
F2D
  8
SAPA_PROFIL
 10
27.134785585940641
 20
51.98869086912952
 30
0.0
  0
VERTEX
  5
F2E
  8
SAPA_PROFIL
 10
25.546846106481631
 20
55.394038072179683
 30
0.0
 42
-0.1095178116832193
  0
VERTEX
  5
F2F
  8
SAPA_PROFIL
 10
25.499999999999972
 20
55.605347203049959
 30
0.0
  0
VERTEX
  5
F30
  8
SAPA_PROFIL
 10
25.500000000000021
 20
65.299999999999841
 30
0.0
 42
-0.4142135623731019
  0
VERTEX
  5
F31
  8
SAPA_PROFIL
 10
26.000000000000021
 20
65.799999999999841
 30
0.0
  0
VERTEX
  5
F32
  8
SAPA_PROFIL
 10
30.049999999999979
 20
65.799999999999841
 30
0.0
 42
0.4142135623730951
  0
VERTEX
  5
F33
  8
SAPA_PROFIL
 10
30.549999999999979
 20
66.299999999999841
 30
0.0
  0
VERTEX
  5
F34
  8
SAPA_PROFIL
 10
30.549999999999979
 20
70.099999999999795
 30
0.0
 42
-0.4142135623730951
  0
VERTEX
  5
F35
  8
SAPA_PROFIL
 10
31.049999999999979
 20
70.599999999999795
 30
0.0
  0
VERTEX
  5
F36
  8
SAPA_PROFIL
 10
36.650000000000013
 20
70.599999999999795
 30
0.0
 42
-0.4142135623730951
  0
VERTEX
  5
F37
  8
SAPA_PROFIL
 10
37.150000000000013
 20
70.099999999999795
 30
0.0
  0
VERTEX
  5
F38
  8
SAPA_PROFIL
 10
37.149999999999999
 20
66.299999999999841
 30
0.0
 42
0.4142135623730951
  0
VERTEX
  5
F39
  8
SAPA_PROFIL
 10
37.649999999999999
 20
65.799999999999841
 30
0.0
  0
VERTEX
  5
F3A
  8
SAPA_PROFIL
 10
58.149999999999999
 20
65.799999999999827
 30
0.0
 42
0.4142135623730951
  0
VERTEX
  5
F3B
  8
SAPA_PROFIL
 10
58.649999999999999
 20
66.299999999999827
 30
0.0
  0
VERTEX
  5
F3C
  8
SAPA_PROFIL
 10
58.650000000000112
 20
69.786453999999793
 30
0.0
 42
-0.5773499999999932
  0
VERTEX
  5
F3D
  8
SAPA_PROFIL
 10
59.09999999999993
 20
70.046261999999814
 30
0.0
  0
VERTEX
  5
F3E
  8
SAPA_PROFIL
 10
65.850000000000051
 20
66.149146999999729
 30
0.0
 42
-0.267948999999997
  0
VERTEX
  5
F3F
  8
SAPA_PROFIL
 10
66.350000000000051
 20
65.283121999999693
 30
0.0
  0
VERTEX
  5
F40
  8
SAPA_PROFIL
 10
66.349999999999937
 20
47.999999999999751
 30
0.0
 42
-0.4142140000000792
  0
VERTEX
  5
F41
  8
SAPA_PROFIL
 10
65.849999999999923
 20
47.499999999999758
 30
0.0
  0
VERTEX
  5
F42
  8
SAPA_PROFIL
 10
56.154999999999987
 20
47.499999999999758
 30
0.0
 42
-0.4142139999998795
  0
VERTEX
  5
F43
  8
SAPA_PROFIL
 10
55.654999999999767
 20
47.999999999999879
 30
0.0
  0
VERTEX
  5
F44
  8
SAPA_PROFIL
 10
55.655000000000001
 20
48.699999999999811
 30
0.0
 42
0.4142139999999463
  0
VERTEX
  5
F45
  8
SAPA_PROFIL
 10
55.154999999999987
 20
49.199999999999811
 30
0.0
  0
VERTEX
  5
F46
  8
SAPA_PROFIL
 10
40.75499999999996
 20
49.199999999999811
 30
0.0
 42
0.4142139999998796
  0
VERTEX
  5
F47
  8
SAPA_PROFIL
 10
40.254999999999733
 20
48.69999999999969
 30
0.0
  0
VERTEX
  5
F48
  8
SAPA_PROFIL
 10
40.25499999999996
 20
48.499999999999758
 30
0.0
 42
-0.4142139999999461
  0
VERTEX
  5
F49
  8
SAPA_PROFIL
 10
39.75499999999996
 20
47.999999999999993
 30
0.0
  0
VERTEX
  5
F4A
  8
SAPA_PROFIL
 10
37.34999999999998
 20
47.999999999999758
 30
0.0
 42
0.4142135623730951
  0
VERTEX
  5
F4B
  8
SAPA_PROFIL
 10
36.84999999999998
 20
47.499999999999758
 30
0.0
  0
VERTEX
  5
F4C
  8
SAPA_PROFIL
 10
36.84999999999998
 20
43.699999999999811
 30
0.0
 42
-0.4142135623730951
  0
VERTEX
  5
F4D
  8
SAPA_PROFIL
 10
36.34999999999998
 20
43.199999999999811
 30
0.0
  0
SEQEND
  5
F4E
  8
SAPA_PROFIL
  0
POLYLINE
  5
B3A
  8
SAPA_PROFIL
 66
     1
 10
0.0
 20
0.0
 30
0.0
 70
     1
  0
VERTEX
  5
F4F
  8
SAPA_PROFIL
 10
28.849999999999941
 20
70.199999999999804
 30
0.0
  0
VERTEX
  5
F50
  8
SAPA_PROFIL
 10
28.849999999999941
 20
67.799999999999841
 30
0.0
 42
-0.4142135623730951
  0
VERTEX
  5
F51
  8
SAPA_PROFIL
 10
28.549999999999979
 20
67.499999999999886
 30
0.0
  0
VERTEX
  5
F52
  8
SAPA_PROFIL
 10
20.500000656212901
 20
67.499999999999886
 30
0.0
 42
0.1316523369912118
  0
VERTEX
  5
F53
  8
SAPA_PROFIL
 10
20.350000820265979
 20
67.459807715851184
 30
0.0
  0
VERTEX
  5
F54
  8
SAPA_PROFIL
 10
19.899999999999832
 20
67.199999999999804
 30
0.0
  0
VERTEX
  5
F55
  8
SAPA_PROFIL
 10
19.45000026226554
 20
67.459807590851369
 30
0.0
 42
0.1316525489352833
  0
VERTEX
  5
F56
  8
SAPA_PROFIL
 10
19.300000209812609
 20
67.499999999999773
 30
0.0
  0
VERTEX
  5
F57
  8
SAPA_PROFIL
 10
11.15
 20
67.499999999999773
 30
0.0
 42
-0.4142140000001461
  0
VERTEX
  5
F58
  8
SAPA_PROFIL
 10
10.84999999999993
 20
67.799999999999841
 30
0.0
  0
VERTEX
  5
F59
  8
SAPA_PROFIL
 10
10.849999999999991
 20
70.199999999999804
 30
0.0
 42
-0.4142140000000906
  0
VERTEX
  5
F5A
  8
SAPA_PROFIL
 10
11.15
 20
70.499999999999773
 30
0.0
  0
VERTEX
  5
F5B
  8
SAPA_PROFIL
 10
12.55000004467669
 20
70.499999999999773
 30
0.0
 42
0.5877030000000079
  0
VERTEX
  5
F5C
  8
SAPA_PROFIL
 10
12.805046044676621
 20
70.957960999999713
 30
0.0
  0
VERTEX
  5
F5D
  8
SAPA_PROFIL
 10
11.90864704467665
 20
72.405306999999766
 30
0.0
 42
0.2596809999998896
  0
VERTEX
  5
F5E
  8
SAPA_PROFIL
 10
11.73861604467665
 20
72.499999999999659
 30
0.0
  0
VERTEX
  5
F5F
  8
SAPA_PROFIL
 10
10.93808299999997
 20
72.499999999999773
 30
0.0
 42
-0.4023939999998733
  0
VERTEX
  5
F60
  8
SAPA_PROFIL
 10
10.63832900000002
 20
72.787846999999829
 30
0.0
  0
VERTEX
  5
F61
  8
SAPA_PROFIL
 10
10.05152999999998
 20
87.260905999999764
 30
0.0
 42
-0.4373280000000294
  0
VERTEX
  5
F62
  8
SAPA_PROFIL
 10
10.55000000000004
 20
87.799999999999713
 30
0.0
  0
VERTEX
  5
F63
  8
SAPA_PROFIL
 10
11.38139999999995
 20
87.799999999999855
 30
0.0
 42
-0.363970000000061
  0
VERTEX
  5
F64
  8
SAPA_PROFIL
 10
11.87380400000003
 20
87.386824999999817
 30
0.0
  0
VERTEX
  5
F65
  8
SAPA_PROFIL
 10
12.080749999999989
 20
86.213175999999734
 30
0.0
 42
0.8391000000000017
  0
VERTEX
  5
F66
  8
SAPA_PROFIL
 10
13.06555699999992
 20
86.213175999999734
 30
0.0
  0
VERTEX
  5
F67
  8
SAPA_PROFIL
 10
13.342403999999959
 20
87.783248999999856
 30
0.0
 42
0.0436610000000063
  0
VERTEX
  5
F68
  8
SAPA_PROFIL
 10
13.349999999999991
 20
87.870072999999834
 30
0.0
  0
VERTEX
  5
F69
  8
SAPA_PROFIL
 10
13.349999999999991
 20
88.867544999999836
 30
0.0
 42
0.2896899999999917
  0
VERTEX
  5
F6A
  8
SAPA_PROFIL
 10
12.778570999999969
 20
89.771052999999824
 30
0.0
 42
0.5507599999998717
  0
VERTEX
  5
F6B
  8
SAPA_PROFIL
 10
12.349999999999939
 20
89.499999999999773
 30
0.0
  0
VERTEX
  5
F6C
  8
SAPA_PROFIL
 10
12.350000000000049
 20
89.299999999999827
 30
0.0
 42
-0.4142140000000907
  0
VERTEX
  5
F6D
  8
SAPA_PROFIL
 10
12.05000000000004
 20
88.999999999999773
 30
0.0
  0
VERTEX
  5
F6E
  8
SAPA_PROFIL
 10
10.55000000000004
 20
88.999999999999773
 30
0.0
 42
-0.4142139999999794
  0
VERTEX
  5
F6F
  8
SAPA_PROFIL
 10
10.049999999999979
 20
89.499999999999886
 30
0.0
  0
VERTEX
  5
F70
  8
SAPA_PROFIL
 10
10.05000000000004
 20
92.799999999999855
 30
0.0
 42
-0.4142140000000128
  0
VERTEX
  5
F71
  8
SAPA_PROFIL
 10
10.55000000000004
 20
93.299999999999727
 30
0.0
  0
VERTEX
  5
F72
  8
SAPA_PROFIL
 10
12.05000000000004
 20
93.299999999999841
 30
0.0
 42
-0.414213999999813
  0
VERTEX
  5
F73
  8
SAPA_PROFIL
 10
12.349999999999991
 20
92.999999999999773
 30
0.0
  0
VERTEX
  5
F74
  8
SAPA_PROFIL
 10
12.349999999999991
 20
92.799999999999855
 30
0.0
 42
0.5507599999999765
  0
VERTEX
  5
F75
  8
SAPA_PROFIL
 10
12.77857100000003
 20
92.528947999999787
 30
0.0
 42
0.2896899999999603
  0
VERTEX
  5
F76
  8
SAPA_PROFIL
 10
13.350000000000049
 20
93.432455999999775
 30
0.0
  0
VERTEX
  5
F77
  8
SAPA_PROFIL
 10
13.349999999999991
 20
94.199999999999818
 30
0.0
 42
0.414213999999813
  0
VERTEX
  5
F78
  8
SAPA_PROFIL
 10
13.05000000000004
 20
94.499999999999886
 30
0.0
  0
VERTEX
  5
F79
  8
SAPA_PROFIL
 10
9.4742640687119035
 20
94.499999999999773
 30
0.0
 42
0.1989123673795536
  0
VERTEX
  5
F7A
  8
SAPA_PROFIL
 10
9.2621320343559148
 20
94.41213203435575
 30
0.0
  0
VERTEX
  5
F7B
  8
SAPA_PROFIL
 10
8.9378679656440152
 20
94.087867965643795
 30
0.0
 42
0.198912367379658
  0
VERTEX
  5
F7C
  8
SAPA_PROFIL
 10
8.8499999999999943
 20
93.875735931287863
 30
0.0
  0
VERTEX
  5
F7D
  8
SAPA_PROFIL
 10
8.8499999999999872
 20
57.499999999999773
 30
0.0
 42
0.4142139999999794
  0
VERTEX
  5
F7E
  8
SAPA_PROFIL
 10
9.3499999999999872
 20
56.999999999999773
 30
0.0
  0
VERTEX
  5
F7F
  8
SAPA_PROFIL
 10
10.349999999999991
 20
56.999999999999879
 30
0.0
 42
0.3056149748443016
  0
VERTEX
  5
F80
  8
SAPA_PROFIL
 10
10.813512491727311
 20
57.312499912451919
 30
0.0
 42
-0.3056147706310184
  0
VERTEX
  5
F81
  8
SAPA_PROFIL
 10
11.09161997040828
 20
57.499999999999773
 30
0.0
  0
VERTEX
  5
F82
  8
SAPA_PROFIL
 10
13.80000000000009
 20
57.499999999999773
 30
0.0
 42
-0.4142135623730951
  0
VERTEX
  5
F83
  8
SAPA_PROFIL
 10
14.30000000000009
 20
56.999999999999773
 30
0.0
  0
VERTEX
  5
F84
  8
SAPA_PROFIL
 10
14.300000000000029
 20
53.837169999999787
 30
0.0
  0
VERTEX
  5
F85
  8
SAPA_PROFIL
 10
15.14570299999999
 20
50.231494999999768
 30
0.0
 42
0.3482370000000332
  0
VERTEX
  5
F86
  8
SAPA_PROFIL
 10
15.437777000000001
 20
49.999999999999773
 30
0.0
  0
VERTEX
  5
F87
  8
SAPA_PROFIL
 10
15.59999999999998
 20
49.999999999999773
 30
0.0
 42
0.4142140000000907
  0
VERTEX
  5
F88
  8
SAPA_PROFIL
 10
15.9
 20
50.299999999999841
 30
0.0
  0
VERTEX
  5
F89
  8
SAPA_PROFIL
 10
15.89999999999994
 20
57.699999999999811
 30
0.0
 42
-0.4142135623730951
  0
VERTEX
  5
F8A
  8
SAPA_PROFIL
 10
16.399999999999942
 20
58.199999999999818
 30
0.0
  0
VERTEX
  5
F8B
  8
SAPA_PROFIL
 10
23.399999999999942
 20
58.199999999999818
 30
0.0
 42
-0.4142140000000462
  0
VERTEX
  5
F8C
  8
SAPA_PROFIL
 10
23.899999999999942
 20
57.699999999999811
 30
0.0
  0
VERTEX
  5
F8D
  8
SAPA_PROFIL
 10
23.899999999999999
 20
54.267766999999822
 30
0.0
 42
-0.1989120000000332
  0
VERTEX
  5
F8E
  8
SAPA_PROFIL
 10
23.753552999999979
 20
53.914213999999788
 30
0.0
  0
VERTEX
  5
F8F
  8
SAPA_PROFIL
 10
21.11966999999995
 20
51.280330999999812
 30
0.0
 42
1.000556671979917
  0
VERTEX
  5
F90
  8
SAPA_PROFIL
 10
22.180919947328469
 20
50.220260603768679
 30
0.0
  0
VERTEX
  5
F91
  8
SAPA_PROFIL
 10
24.33761471596361
 20
52.376955372403813
 30
0.0
 42
-0.5205670505516917
  0
VERTEX
  5
F92
  8
SAPA_PROFIL
 10
25.14432200007521
 20
52.234711112680877
 30
0.0
  0
VERTEX
  5
F93
  8
SAPA_PROFIL
 10
30.01538123688535
 20
41.788690869129468
 30
0.0
 42
0.2914734195861185
  0
VERTEX
  5
F94
  8
SAPA_PROFIL
 10
30.46853513040368
 20
41.499999999999758
 30
0.0
  0
VERTEX
  5
F95
  8
SAPA_PROFIL
 10
41.049999999999919
 20
41.499999999999758
 30
0.0
 42
0.4142139999999796
  0
VERTEX
  5
F96
  8
SAPA_PROFIL
 10
41.34999999999998
 20
41.799999999999827
 30
0.0
  0
VERTEX
  5
F97
  8
SAPA_PROFIL
 10
41.34999999999998
 20
42.699999999999697
 30
0.0
 42
0.414213999999813
  0
VERTEX
  5
F98
  8
SAPA_PROFIL
 10
41.049999999999919
 20
42.999999999999758
 30
0.0
  0
VERTEX
  5
F99
  8
SAPA_PROFIL
 10
39.049999999999969
 20
42.999999999999879
 30
0.0
 42
-0.4142139999998961
  0
VERTEX
  5
F9A
  8
SAPA_PROFIL
 10
38.849999999999987
 20
43.199999999999811
 30
0.0
  0
VERTEX
  5
F9B
  8
SAPA_PROFIL
 10
38.849999999999987
 20
45.999999999999758
 30
0.0
 42
-0.5773502691898261
  0
VERTEX
  5
F9C
  8
SAPA_PROFIL
 10
39.149999999999942
 20
46.173205080756688
 30
0.0
  0
VERTEX
  5
F9D
  8
SAPA_PROFIL
 10
39.380384757729331
 20
46.040192378864496
 30
0.0
 42
0.1316524975874119
  0
VERTEX
  5
F9E
  8
SAPA_PROFIL
 10
39.530384757729301
 20
45.999999999999758
 30
0.0
  0
VERTEX
  5
F9F
  8
SAPA_PROFIL
 10
41.454999999999941
 20
45.999999999999879
 30
0.0
 42
0.4142139999999461
  0
VERTEX
  5
FA0
  8
SAPA_PROFIL
 10
41.954999999999941
 20
46.499999999999758
 30
0.0
  0
VERTEX
  5
FA1
  8
SAPA_PROFIL
 10
41.954999999999842
 20
47.19999999999969
 30
0.0
 42
-0.4142140000000906
  0
VERTEX
  5
FA2
  8
SAPA_PROFIL
 10
42.254999999999953
 20
47.499999999999758
 30
0.0
  0
VERTEX
  5
FA3
  8
SAPA_PROFIL
 10
47.355000209812509
 20
47.499999999999879
 30
0.0
 42
0.1316525489352833
  0
VERTEX
  5
FA4
  8
SAPA_PROFIL
 10
47.505000262265661
 20
47.540192409148283
 30
0.0
  0
VERTEX
  5
FA5
  8
SAPA_PROFIL
 10
47.954999999999949
 20
47.799999999999827
 30
0.0
  0
VERTEX
  5
FA6
  8
SAPA_PROFIL
 10
48.405000820266103
 20
47.540192284148461
 30
0.0
 42
0.1316523369912119
  0
VERTEX
  5
FA7
  8
SAPA_PROFIL
 10
48.555000656213018
 20
47.499999999999758
 30
0.0
  0
VERTEX
  5
FA8
  8
SAPA_PROFIL
 10
53.654999999999987
 20
47.499999999999758
 30
0.0
 42
-0.414213999999813
  0
VERTEX
  5
FA9
  8
SAPA_PROFIL
 10
53.954999999999941
 20
47.199999999999811
 30
0.0
  0
VERTEX
  5
FAA
  8
SAPA_PROFIL
 10
53.954999999999941
 20
46.499999999999872
 30
0.0
 42
0.4142139999999461
  0
VERTEX
  5
FAB
  8
SAPA_PROFIL
 10
54.454999999999949
 20
45.999999999999758
 30
0.0
  0
VERTEX
  5
FAC
  8
SAPA_PROFIL
 10
58.169615242270559
 20
45.999999999999879
 30
0.0
 42
0.1316524975873767
  0
VERTEX
  5
FAD
  8
SAPA_PROFIL
 10
58.31961524227065
 20
46.040192378864496
 30
0.0
  0
VERTEX
  5
FAE
  8
SAPA_PROFIL
 10
58.549999999999969
 20
46.173205080756688
 30
0.0
 42
-0.5773502691894598
  0
VERTEX
  5
FAF
  8
SAPA_PROFIL
 10
58.84999999999993
 20
45.999999999999758
 30
0.0
  0
VERTEX
  5
FB0
  8
SAPA_PROFIL
 10
58.849999999999817
 20
43.199999999999811
 30
0.0
 42
-0.4142139999998128
  0
VERTEX
  5
FB1
  8
SAPA_PROFIL
 10
58.649999999999999
 20
42.999999999999758
 30
0.0
  0
VERTEX
  5
FB2
  8
SAPA_PROFIL
 10
56.649999999999878
 20
42.999999999999758
 30
0.0
 42
0.414213999999813
  0
VERTEX
  5
FB3
  8
SAPA_PROFIL
 10
56.34999999999993
 20
42.699999999999797
 30
0.0
  0
VERTEX
  5
FB4
  8
SAPA_PROFIL
 10
56.34999999999993
 20
41.799999999999827
 30
0.0
 42
0.4142139999998128
  0
VERTEX
  5
FB5
  8
SAPA_PROFIL
 10
56.649999999999999
 20
41.499999999999758
 30
0.0
  0
VERTEX
  5
FB6
  8
SAPA_PROFIL
 10
60.34999999999993
 20
41.499999999999872
 30
0.0
 42
0.4142139999999461
  0
VERTEX
  5
FB7
  8
SAPA_PROFIL
 10
60.84999999999993
 20
41.999999999999773
 30
0.0
  0
VERTEX
  5
FB8
  8
SAPA_PROFIL
 10
60.84999999999993
 20
45.499999999999758
 30
0.0
 42
-0.4142140000000794
  0
VERTEX
  5
FB9
  8
SAPA_PROFIL
 10
61.34999999999993
 20
45.999999999999758
 30
0.0
  0
VERTEX
  5
FBA
  8
SAPA_PROFIL
 10
65.877191000000067
 20
45.999999999999751
 30
0.0
 42
-0.397937999999963
  0
VERTEX
  5
FBB
  8
SAPA_PROFIL
 10
66.376409999999993
 20
45.527928999999837
 30
0.0
  0
VERTEX
  5
FBC
  8
SAPA_PROFIL
 10
67.149999999999991
 20
31.6999999999998
 30
0.0
 42
-0.4142140000000127
  0
VERTEX
  5
FBD
  8
SAPA_PROFIL
 10
66.149999999999991
 20
30.699999999999811
 30
0.0
  0
VERTEX
  5
FBE
  8
SAPA_PROFIL
 10
64.850000000000037
 20
30.699999999999811
 30
0.0
 42
0.424142000000003
  0
VERTEX
  5
FBF
  8
SAPA_PROFIL
 10
63.85057099999996
 20
29.666227999999808
 30
0.0
 42
0.2988660000000183
  0
VERTEX
  5
FC0
  8
SAPA_PROFIL
 10
64.421429000000003
 20
28.728947999999821
 30
0.0
 42
0.5507599999996211
  0
VERTEX
  5
FC1
  8
SAPA_PROFIL
 10
64.849999999999923
 20
28.999999999999758
 30
0.0
  0
VERTEX
  5
FC2
  8
SAPA_PROFIL
 10
64.849999999999923
 20
29.29999999999983
 30
0.0
 42
-0.414213999999813
  0
VERTEX
  5
FC3
  8
SAPA_PROFIL
 10
65.049999999999969
 20
29.499999999999758
 30
0.0
  0
VERTEX
  5
FC4
  8
SAPA_PROFIL
 10
65.350000000000037
 20
29.499999999999869
 30
0.0
 42
-0.4142139999999796
  0
VERTEX
  5
FC5
  8
SAPA_PROFIL
 10
67.149999999999991
 20
27.6999999999998
 30
0.0
  0
VERTEX
  5
FC6
  8
SAPA_PROFIL
 10
67.149999999999878
 20
26.999999999999869
 30
0.0
 42
-0.414213999999998
  0
VERTEX
  5
FC7
  8
SAPA_PROFIL
 10
65.349999999999923
 20
25.1999999999998
 30
0.0
  0
VERTEX
  5
FC8
  8
SAPA_PROFIL
 10
65.049999999999969
 20
25.1999999999998
 30
0.0
 42
-0.4142139999998128
  0
VERTEX
  5
FC9
  8
SAPA_PROFIL
 10
64.849999999999923
 20
25.399999999999739
 30
0.0
  0
VERTEX
  5
FCA
  8
SAPA_PROFIL
 10
64.850000000000037
 20
25.699999999999811
 30
0.0
 42
0.5507599999999805
  0
VERTEX
  5
FCB
  8
SAPA_PROFIL
 10
64.421429000000117
 20
25.971052999999738
 30
0.0
 42
0.2988660000000331
  0
VERTEX
  5
FCC
  8
SAPA_PROFIL
 10
63.85057099999996
 20
25.033772999999869
 30
0.0
 42
0.4241420000000235
  0
VERTEX
  5
FCD
  8
SAPA_PROFIL
 10
64.849999999999923
 20
23.999999999999758
 30
0.0
  0
VERTEX
  5
FCE
  8
SAPA_PROFIL
 10
65.349999999999923
 20
23.999999999999758
 30
0.0
 42
0.4142140000000127
  0
VERTEX
  5
FCF
  8
SAPA_PROFIL
 10
68.349999999999923
 20
26.999999999999758
 30
0.0
  0
VERTEX
  5
FD0
  8
SAPA_PROFIL
 10
68.349999999999923
 20
65.283121999999921
 30
0.0
 42
0.2679489999999819
  0
VERTEX
  5
FD1
  8
SAPA_PROFIL
 10
66.849999999999937
 20
67.881197999999799
 30
0.0
  0
VERTEX
  5
FD2
  8
SAPA_PROFIL
 10
59.082050999999993
 20
72.366025999999792
 30
0.0
 42
0.1316520000000068
  0
VERTEX
  5
FD3
  8
SAPA_PROFIL
 10
58.582051
 20
72.499999999999758
 30
0.0
  0
VERTEX
  5
FD4
  8
SAPA_PROFIL
 10
55.961383999999967
 20
72.499999999999758
 30
0.0
 42
0.2596809999999468
  0
VERTEX
  5
FD5
  8
SAPA_PROFIL
 10
55.79135299999998
 20
72.405306999999752
 30
0.0
  0
VERTEX
  5
FD6
  8
SAPA_PROFIL
 10
54.894953999999998
 20
70.957960999999827
 30
0.0
 42
0.5877030000000416
  0
VERTEX
  5
FD7
  8
SAPA_PROFIL
 10
55.149999999999892
 20
70.499999999999744
 30
0.0
  0
VERTEX
  5
FD8
  8
SAPA_PROFIL
 10
56.549999999999969
 20
70.499999999999744
 30
0.0
 42
-0.414213999999924
  0
VERTEX
  5
FD9
  8
SAPA_PROFIL
 10
56.84999999999993
 20
70.19999999999969
 30
0.0
  0
VERTEX
  5
FDA
  8
SAPA_PROFIL
 10
56.84999999999993
 20
67.799999999999827
 30
0.0
 42
-0.4142139999998128
  0
VERTEX
  5
FDB
  8
SAPA_PROFIL
 10
56.549999999999862
 20
67.499999999999758
 30
0.0
  0
VERTEX
  5
FDC
  8
SAPA_PROFIL
 10
46.949999999999953
 20
67.499999999999773
 30
0.0
  0
VERTEX
  5
FDD
  8
SAPA_PROFIL
 10
44.949999999999953
 20
67.499999999999773
 30
0.0
  0
VERTEX
  5
FDE
  8
SAPA_PROFIL
 10
39.149999999999999
 20
67.499999999999773
 30
0.0
 42
-0.4142135623731505
  0
VERTEX
  5
FDF
  8
SAPA_PROFIL
 10
38.850000000000101
 20
67.799999999999841
 30
0.0
  0
VERTEX
  5
FE0
  8
SAPA_PROFIL
 10
38.849999999999987
 20
70.199999999999804
 30
0.0
 42
-0.4142135623730951
  0
VERTEX
  5
FE1
  8
SAPA_PROFIL
 10
39.149999999999999
 20
70.499999999999886
 30
0.0
  0
VERTEX
  5
FE2
  8
SAPA_PROFIL
 10
40.549999999999912
 20
70.499999999999773
 30
0.0
 42
0.5877030000001193
  0
VERTEX
  5
FE3
  8
SAPA_PROFIL
 10
40.805046999999959
 20
70.957960999999841
 30
0.0
  0
VERTEX
  5
FE4
  8
SAPA_PROFIL
 10
40.01251599999997
 20
72.205306999999834
 30
0.0
 42
0.2596809999999468
  0
VERTEX
  5
FE5
  8
SAPA_PROFIL
 10
39.842484999999982
 20
72.299999999999841
 30
0.0
  0
VERTEX
  5
FE6
  8
SAPA_PROFIL
 10
27.857515733782382
 20
72.299999721540644
 30
0.0
 42
0.2596809999999508
  0
VERTEX
  5
FE7
  8
SAPA_PROFIL
 10
27.687485733782381
 20
72.205306721540637
 30
0.0
  0
VERTEX
  5
FE8
  8
SAPA_PROFIL
 10
26.89495373378238
 20
70.957960721540644
 30
0.0
 42
0.5877030000000664
  0
VERTEX
  5
FE9
  8
SAPA_PROFIL
 10
27.150000733782381
 20
70.499999721540348
 30
0.0
  0
VERTEX
  5
FEA
  8
SAPA_PROFIL
 10
28.549999999999979
 20
70.499999999999773
 30
0.0
 42
-0.4142135623730951
  0
SEQEND
  5
FEB
  8
SAPA_PROFIL
  0
POLYLINE
  5
B3B
  8
SAPA_PROFIL
 66
     1
 10
0.0
 20
0.0
 30
0.0
 70
     1
  0
VERTEX
  5
FEC
  8
SAPA_PROFIL
 10
56.749999999999943
 20
28.00000000000011
 30
0.0
  0
VERTEX
  5
FED
  8
SAPA_PROFIL
 10
55.14999999999992
 20
28.00000000000006
 30
0.0
 42
-0.4142135623731506
  0
VERTEX
  5
FEE
  8
SAPA_PROFIL
 10
54.849999999999959
 20
28.300000000000072
 30
0.0
  0
VERTEX
  5
FEF
  8
SAPA_PROFIL
 10
54.849999999999959
 20
28.875735931288151
 30
0.0
 42
-0.198912367379658
  0
VERTEX
  5
FF0
  8
SAPA_PROFIL
 10
54.937867965643989
 20
29.087867965644129
 30
0.0
  0
VERTEX
  5
FF1
  8
SAPA_PROFIL
 10
55.76213203435583
 20
29.912132034356041
 30
0.0
 42
-0.198912367379658
  0
VERTEX
  5
FF2
  8
SAPA_PROFIL
 10
55.974264068711868
 20
30.00000000000011
 30
0.0
  0
VERTEX
  5
FF3
  8
SAPA_PROFIL
 10
58.549999999999891
 20
30.00000000000006
 30
0.0
 42
-0.4142135623730951
  0
VERTEX
  5
FF4
  8
SAPA_PROFIL
 10
58.849999999999852
 20
29.700000000000099
 30
0.0
  0
VERTEX
  5
FF5
  8
SAPA_PROFIL
 10
58.849999999999973
 20
0.3000000000000682
 30
0.0
 42
-0.4142135623730397
  0
VERTEX
  5
FF6
  8
SAPA_PROFIL
 10
58.549999999999891
 20
0.0000000000000568
 30
0.0
  0
VERTEX
  5
FF7
  8
SAPA_PROFIL
 10
55.974264068711868
 20
0.0000000000000568
 30
0.0
 42
-0.1989123673796784
  0
VERTEX
  5
FF8
  8
SAPA_PROFIL
 10
55.762132034355943
 20
0.0878679656441364
 30
0.0
  0
VERTEX
  5
FF9
  8
SAPA_PROFIL
 10
54.937867965643989
 20
0.9121320343560341
 30
0.0
 42
-0.198912367379658
  0
VERTEX
  5
FFA
  8
SAPA_PROFIL
 10
54.849999999999959
 20
1.124264068711966
 30
0.0
  0
VERTEX
  5
FFB
  8
SAPA_PROFIL
 10
54.849999999999959
 20
1.7000000000001021
 30
0.0
 42
-0.4142135623730951
  0
VERTEX
  5
FFC
  8
SAPA_PROFIL
 10
55.14999999999992
 20
2.0000000000001128
 30
0.0
  0
VERTEX
  5
FFD
  8
SAPA_PROFIL
 10
56.749999999999943
 20
2.000000000000056
 30
0.0
 42
0.4142135623731505
  0
VERTEX
  5
FFE
  8
SAPA_PROFIL
 10
57.049999999999898
 20
2.3000000000000682
 30
0.0
  0
VERTEX
  5
FFF
  8
SAPA_PROFIL
 10
57.049999999999898
 20
4.750000000000056
 30
0.0
 42
0.4142135623730951
  0
VERTEX
  5
1000
  8
SAPA_PROFIL
 10
56.749999999999943
 20
5.0500000000000682
 30
0.0
  0
VERTEX
  5
1001
  8
SAPA_PROFIL
 10
38.64999999999992
 20
5.0500000000000682
 30
0.0
 42
0.4142135623730951
  0
VERTEX
  5
1002
  8
SAPA_PROFIL
 10
38.349999999999973
 20
4.750000000000056
 30
0.0
  0
VERTEX
  5
1003
  8
SAPA_PROFIL
 10
38.349999999999973
 20
2.3000000000000682
 30
0.0
 42
0.4142135623731506
  0
VERTEX
  5
1004
  8
SAPA_PROFIL
 10
38.64999999999992
 20
2.000000000000056
 30
0.0
  0
VERTEX
  5
1005
  8
SAPA_PROFIL
 10
40.549999999999891
 20
2.000000000000056
 30
0.0
 42
-0.4142135623730951
  0
VERTEX
  5
1006
  8
SAPA_PROFIL
 10
40.849999999999852
 20
1.7000000000001021
 30
0.0
  0
VERTEX
  5
1007
  8
SAPA_PROFIL
 10
40.849999999999852
 20
1.124264068711966
 30
0.0
 42
-0.198912367379658
  0
VERTEX
  5
1008
  8
SAPA_PROFIL
 10
40.76213203435583
 20
0.9121320343560341
 30
0.0
  0
VERTEX
  5
1009
  8
SAPA_PROFIL
 10
40.137867965643913
 20
0.2878679656440681
 30
0.0
 42
-0.1989123673796375
  0
VERTEX
  5
100A
  8
SAPA_PROFIL
 10
39.925735931287988
 20
0.2000000000001023
 30
0.0
  0
VERTEX
  5
100B
  8
SAPA_PROFIL
 10
34.449999999999882
 20
0.2000000000000455
 30
0.0
 42
-0.1316524975874007
  0
VERTEX
  5
100C
  8
SAPA_PROFIL
 10
34.299999999999898
 20
0.2401923788647196
 30
0.0
  0
VERTEX
  5
100D
  8
SAPA_PROFIL
 10
33.849999999999973
 20
0.500000000000057
 30
0.0
  0
VERTEX
  5
100E
  8
SAPA_PROFIL
 10
33.399999999999807
 20
0.2401923788647196
 30
0.0
 42
-0.1316524975873894
  0
VERTEX
  5
100F
  8
SAPA_PROFIL
 10
33.249999999999829
 20
0.2000000000001023
 30
0.0
  0
VERTEX
  5
1010
  8
SAPA_PROFIL
 10
27.77426406871183
 20
0.2000000000000455
 30
0.0
 42
-0.1989123673796437
  0
VERTEX
  5
1011
  8
SAPA_PROFIL
 10
27.562132034355901
 20
0.287867965644125
 30
0.0
  0
VERTEX
  5
1012
  8
SAPA_PROFIL
 10
26.937867965643989
 20
0.9121320343559773
 30
0.0
 42
-0.198912367379658
  0
VERTEX
  5
1013
  8
SAPA_PROFIL
 10
26.849999999999969
 20
1.124264068711966
 30
0.0
  0
VERTEX
  5
1014
  8
SAPA_PROFIL
 10
26.849999999999969
 20
1.7000000000001021
 30
0.0
 42
-0.4142135623730951
  0
VERTEX
  5
1015
  8
SAPA_PROFIL
 10
27.14999999999992
 20
2.000000000000056
 30
0.0
  0
VERTEX
  5
1016
  8
SAPA_PROFIL
 10
29.049999999999901
 20
2.000000000000056
 30
0.0
 42
0.4142135623730397
  0
VERTEX
  5
1017
  8
SAPA_PROFIL
 10
29.349999999999969
 20
2.3000000000000682
 30
0.0
  0
VERTEX
  5
1018
  8
SAPA_PROFIL
 10
29.349999999999849
 20
4.750000000000056
 30
0.0
 42
0.4142135623730951
  0
VERTEX
  5
1019
  8
SAPA_PROFIL
 10
29.049999999999901
 20
5.0500000000000682
 30
0.0
  0
VERTEX
  5
101A
  8
SAPA_PROFIL
 10
10.94999999999987
 20
5.0500000000000682
 30
0.0
 42
0.4142135623730951
  0
VERTEX
  5
101B
  8
SAPA_PROFIL
 10
10.64999999999992
 20
4.750000000000056
 30
0.0
  0
VERTEX
  5
101C
  8
SAPA_PROFIL
 10
10.64999999999992
 20
2.3000000000000682
 30
0.0
 42
0.4142135623731506
  0
VERTEX
  5
101D
  8
SAPA_PROFIL
 10
10.94999999999987
 20
2.000000000000056
 30
0.0
  0
VERTEX
  5
101E
  8
SAPA_PROFIL
 10
12.549999999999899
 20
2.0000000000001128
 30
0.0
 42
-0.4142135623730951
  0
VERTEX
  5
101F
  8
SAPA_PROFIL
 10
12.84999999999985
 20
1.7000000000001021
 30
0.0
  0
VERTEX
  5
1020
  8
SAPA_PROFIL
 10
12.84999999999985
 20
1.124264068711966
 30
0.0
 42
-0.198912367379658
  0
VERTEX
  5
1021
  8
SAPA_PROFIL
 10
12.76213203435583
 20
0.9121320343560341
 30
0.0
  0
VERTEX
  5
1022
  8
SAPA_PROFIL
 10
11.93786796564387
 20
0.0878679656440795
 30
0.0
 42
-0.198912367379658
  0
VERTEX
  5
1023
  8
SAPA_PROFIL
 10
11.725735931287939
 20
0.0000000000000568
 30
0.0
  0
VERTEX
  5
1024
  8
SAPA_PROFIL
 10
9.1499999999999204
 20
0.0000000000000568
 30
0.0
 42
-0.4142135623730395
  0
VERTEX
  5
1025
  8
SAPA_PROFIL
 10
8.8499999999998522
 20
0.3000000000000682
 30
0.0
  0
VERTEX
  5
1026
  8
SAPA_PROFIL
 10
8.8499999999999641
 20
51.700000000000102
 30
0.0
 42
-0.4142135623730951
  0
VERTEX
  5
1027
  8
SAPA_PROFIL
 10
9.1499999999999204
 20
52.000000000000057
 30
0.0
  0
VERTEX
  5
1028
  8
SAPA_PROFIL
 10
13.049999999999899
 20
52.000000000000107
 30
0.0
 42
-0.4142135623730951
  0
VERTEX
  5
1029
  8
SAPA_PROFIL
 10
13.34999999999985
 20
51.700000000000102
 30
0.0
  0
VERTEX
  5
102A
  8
SAPA_PROFIL
 10
13.35000000000008
 20
50.432455532033089
 30
0.0
 42
-0.2896898633026685
  0
VERTEX
  5
102B
  8
SAPA_PROFIL
 10
12.778571428571411
 20
49.528947629128538
 30
0.0
 42
-0.5507604245863847
  0
VERTEX
  5
102C
  8
SAPA_PROFIL
 10
12.34999999999985
 20
49.800000000000068
 30
0.0
  0
VERTEX
  5
102D
  8
SAPA_PROFIL
 10
12.34999999999985
 20
50.450000000000102
 30
0.0
 42
0.4142135623730951
  0
VERTEX
  5
102E
  8
SAPA_PROFIL
 10
12.049999999999899
 20
50.750000000000057
 30
0.0
  0
VERTEX
  5
102F
  8
SAPA_PROFIL
 10
10.64999999999992
 20
50.750000000000107
 30
0.0
 42
0.4142135623730951
  0
VERTEX
  5
1030
  8
SAPA_PROFIL
 10
10.34999999999985
 20
50.450000000000102
 30
0.0
  0
VERTEX
  5
1031
  8
SAPA_PROFIL
 10
10.349999999999961
 20
42.050000000000068
 30
0.0
 42
0.4142135623731506
  0
VERTEX
  5
1032
  8
SAPA_PROFIL
 10
10.64999999999992
 20
41.750000000000057
 30
0.0
  0
VERTEX
  5
1033
  8
SAPA_PROFIL
 10
12.049999999999899
 20
41.750000000000057
 30
0.0
 42
0.4142135623731505
  0
VERTEX
  5
1034
  8
SAPA_PROFIL
 10
12.34999999999985
 20
42.050000000000068
 30
0.0
  0
VERTEX
  5
1035
  8
SAPA_PROFIL
 10
12.349999999999049
 20
42.700000000000102
 30
0.0
 42
-0.5507604245863315
  0
VERTEX
  5
1036
  8
SAPA_PROFIL
 10
12.77857142857164
 20
42.97105237087208
 30
0.0
 42
-0.2896898633026716
  0
VERTEX
  5
1037
  8
SAPA_PROFIL
 10
13.34999999999985
 20
42.067544467967018
 30
0.0
  0
VERTEX
  5
1038
  8
SAPA_PROFIL
 10
13.34999999999985
 20
40.800000000000068
 30
0.0
 42
-0.4142135623731505
  0
VERTEX
  5
1039
  8
SAPA_PROFIL
 10
13.049999999999899
 20
40.500000000000057
 30
0.0
  0
VERTEX
  5
103A
  8
SAPA_PROFIL
 10
10.94999999999987
 20
40.500000000000107
 30
0.0
 42
0.4142135623730951
  0
VERTEX
  5
103B
  8
SAPA_PROFIL
 10
10.64999999999992
 20
40.200000000000102
 30
0.0
  0
VERTEX
  5
103C
  8
SAPA_PROFIL
 10
10.64999999999992
 20
30.300000000000072
 30
0.0
 42
0.4142135623731506
  0
VERTEX
  5
103D
  8
SAPA_PROFIL
 10
10.94999999999987
 20
30.00000000000006
 30
0.0
  0
VERTEX
  5
103E
  8
SAPA_PROFIL
 10
11.68292464279164
 20
30.00000000000011
 30
0.0
 42
-0.2596812337301998
  0
VERTEX
  5
103F
  8
SAPA_PROFIL
 10
11.93797086010175
 20
29.85796020712775
 30
0.0
  0
VERTEX
  5
1040
  8
SAPA_PROFIL
 10
12.80504621731
 20
28.457960207127769
 30
0.0
 42
-0.5877032589249726
  0
VERTEX
  5
1041
  8
SAPA_PROFIL
 10
12.549999999999899
 20
28.00000000000006
 30
0.0
  0
VERTEX
  5
1042
  8
SAPA_PROFIL
 10
10.94999999999987
 20
28.00000000000011
 30
0.0
 42
0.4142135623730951
  0
VERTEX
  5
1043
  8
SAPA_PROFIL
 10
10.64999999999992
 20
27.700000000000099
 30
0.0
  0
VERTEX
  5
1044
  8
SAPA_PROFIL
 10
10.64999999999992
 20
25.25000000000006
 30
0.0
 42
0.4142135623730951
  0
VERTEX
  5
1045
  8
SAPA_PROFIL
 10
10.94999999999987
 20
24.950000000000099
 30
0.0
  0
VERTEX
  5
1046
  8
SAPA_PROFIL
 10
20.74999999999994
 20
24.950000000000099
 30
0.0
 42
0.4142135623730951
  0
VERTEX
  5
1047
  8
SAPA_PROFIL
 10
21.049999999999901
 20
25.25000000000006
 30
0.0
  0
VERTEX
  5
1048
  8
SAPA_PROFIL
 10
21.049999999999901
 20
29.700000000000099
 30
0.0
 42
-0.4142135623730951
  0
VERTEX
  5
1049
  8
SAPA_PROFIL
 10
21.349999999999849
 20
30.00000000000011
 30
0.0
  0
VERTEX
  5
104A
  8
SAPA_PROFIL
 10
22.782055052822841
 20
30.00000000000006
 30
0.0
 42
-0.2608609300995157
  0
VERTEX
  5
104B
  8
SAPA_PROFIL
 10
23.037796868059502
 20
29.856831514497181
 30
0.0
  0
VERTEX
  5
104C
  8
SAPA_PROFIL
 10
23.405741815236581
 20
29.25683151449709
 30
0.0
 42
-0.5862177598302742
  0
VERTEX
  5
104D
  8
SAPA_PROFIL
 10
23.14999999999992
 20
28.800000000000072
 30
0.0
  0
VERTEX
  5
104E
  8
SAPA_PROFIL
 10
22.74999999999995
 20
28.800000000000072
 30
0.0
 42
0.4142135623730951
  0
VERTEX
  5
104F
  8
SAPA_PROFIL
 10
22.449999999999989
 20
28.50000000000006
 30
0.0
  0
VERTEX
  5
1050
  8
SAPA_PROFIL
 10
22.449999999999878
 20
25.25000000000006
 30
0.0
 42
0.4142135623730951
  0
VERTEX
  5
1051
  8
SAPA_PROFIL
 10
22.74999999999995
 20
24.950000000000038
 30
0.0
  0
VERTEX
  5
1052
  8
SAPA_PROFIL
 10
29.049999999999901
 20
24.950000000000099
 30
0.0
 42
0.4142135623730951
  0
VERTEX
  5
1053
  8
SAPA_PROFIL
 10
29.349999999999849
 20
25.25000000000006
 30
0.0
  0
VERTEX
  5
1054
  8
SAPA_PROFIL
 10
29.349999999999969
 20
27.700000000000099
 30
0.0
 42
0.4142135623730951
  0
VERTEX
  5
1055
  8
SAPA_PROFIL
 10
29.049999999999901
 20
28.00000000000011
 30
0.0
  0
VERTEX
  5
1056
  8
SAPA_PROFIL
 10
27.14999999999992
 20
28.00000000000006
 30
0.0
 42
-0.5920056181179108
  0
VERTEX
  5
1057
  8
SAPA_PROFIL
 10
26.896991243682859
 20
28.461203502526871
 30
0.0
  0
VERTEX
  5
1058
  8
SAPA_PROFIL
 10
27.661566374789292
 20
29.66120350252686
 30
0.0
 42
-0.2562769736732622
  0
VERTEX
  5
1059
  8
SAPA_PROFIL
 10
27.91457513110635
 20
29.800000000000072
 30
0.0
  0
VERTEX
  5
105A
  8
SAPA_PROFIL
 10
33.249999999999829
 20
29.800000000000072
 30
0.0
 42
-0.1316524975874008
  0
VERTEX
  5
105B
  8
SAPA_PROFIL
 10
33.399999999999807
 20
29.759807621135401
 30
0.0
  0
VERTEX
  5
105C
  8
SAPA_PROFIL
 10
33.849999999999973
 20
29.50000000000006
 30
0.0
  0
VERTEX
  5
105D
  8
SAPA_PROFIL
 10
34.299999999999898
 20
29.759807621135401
 30
0.0
 42
-0.1316524975874008
  0
VERTEX
  5
105E
  8
SAPA_PROFIL
 10
34.449999999999882
 20
29.800000000000072
 30
0.0
  0
VERTEX
  5
105F
  8
SAPA_PROFIL
 10
39.925735931287988
 20
29.800000000000072
 30
0.0
 42
-0.1989123673796436
  0
VERTEX
  5
1060
  8
SAPA_PROFIL
 10
40.137867965643913
 20
29.712132034355989
 30
0.0
  0
VERTEX
  5
1061
  8
SAPA_PROFIL
 10
40.76213203435583
 20
29.08786796564408
 30
0.0
 42
-0.198912367379658
  0
VERTEX
  5
1062
  8
SAPA_PROFIL
 10
40.849999999999852
 20
28.875735931288151
 30
0.0
  0
VERTEX
  5
1063
  8
SAPA_PROFIL
 10
40.849999999999852
 20
28.300000000000072
 30
0.0
 42
-0.4142135623731505
  0
VERTEX
  5
1064
  8
SAPA_PROFIL
 10
40.549999999999891
 20
28.00000000000006
 30
0.0
  0
VERTEX
  5
1065
  8
SAPA_PROFIL
 10
38.64999999999992
 20
28.00000000000006
 30
0.0
 42
0.4142135623730951
  0
VERTEX
  5
1066
  8
SAPA_PROFIL
 10
38.349999999999973
 20
27.700000000000099
 30
0.0
  0
VERTEX
  5
1067
  8
SAPA_PROFIL
 10
38.349999999999973
 20
25.25000000000006
 30
0.0
 42
0.4142135623730951
  0
VERTEX
  5
1068
  8
SAPA_PROFIL
 10
38.64999999999992
 20
24.950000000000099
 30
0.0
  0
VERTEX
  5
1069
  8
SAPA_PROFIL
 10
56.749999999999943
 20
24.950000000000099
 30
0.0
 42
0.4142135623730951
  0
VERTEX
  5
106A
  8
SAPA_PROFIL
 10
57.049999999999898
 20
25.25000000000006
 30
0.0
  0
VERTEX
  5
106B
  8
SAPA_PROFIL
 10
57.049999999999898
 20
27.700000000000099
 30
0.0
 42
0.4142135623730951
  0
SEQEND
  5
106C
  8
SAPA_PROFIL
  0
POLYLINE
  5
B3C
  8
SAPA_PROFIL
 66
     1
 10
0.0
 20
0.0
 30
0.0
 70
     1
  0
VERTEX
  5
106D
  8
SAPA_PROFIL
 10
10.94999999999987
 20
6.8000000000000682
 30
0.0
 42
-0.4142135623730951
  0
VERTEX
  5
106E
  8
SAPA_PROFIL
 10
10.64999999999992
 20
7.1000000000000787
 30
0.0
  0
VERTEX
  5
106F
  8
SAPA_PROFIL
 10
10.64999999999992
 20
22.900000000000091
 30
0.0
 42
-0.4142135623730951
  0
VERTEX
  5
1070
  8
SAPA_PROFIL
 10
10.94999999999987
 20
23.200000000000099
 30
0.0
  0
VERTEX
  5
1071
  8
SAPA_PROFIL
 10
31.64999999999992
 20
23.200000000000099
 30
0.0
 42
0.4142135623730951
  0
VERTEX
  5
1072
  8
SAPA_PROFIL
 10
32.249999999999943
 20
23.800000000000072
 30
0.0
 42
0.4142135623730951
  0
VERTEX
  5
1073
  8
SAPA_PROFIL
 10
31.64999999999992
 20
24.400000000000091
 30
0.0
  0
VERTEX
  5
1074
  8
SAPA_PROFIL
 10
31.599999999999969
 20
24.400000000000091
 30
0.0
 42
-0.4142135623730951
  0
VERTEX
  5
1075
  8
SAPA_PROFIL
 10
31.099999999999969
 20
24.900000000000091
 30
0.0
  0
VERTEX
  5
1076
  8
SAPA_PROFIL
 10
31.099999999999969
 20
25.50000000000006
 30
0.0
 42
-0.3635303702822669
  0
VERTEX
  5
1077
  8
SAPA_PROFIL
 10
33.368259897483263
 20
28.20747603380482
 30
0.0
  0
VERTEX
  5
1078
  8
SAPA_PROFIL
 10
33.637867965644027
 20
27.937867965644159
 30
0.0
 42
0.4142135623730951
  0
VERTEX
  5
1079
  8
SAPA_PROFIL
 10
34.062132034355898
 20
27.937867965644099
 30
0.0
  0
VERTEX
  5
107A
  8
SAPA_PROFIL
 10
34.331740102516683
 20
28.20747603380482
 30
0.0
 42
-0.3635303702822669
  0
VERTEX
  5
107B
  8
SAPA_PROFIL
 10
36.599999999999973
 20
25.50000000000006
 30
0.0
  0
VERTEX
  5
107C
  8
SAPA_PROFIL
 10
36.599999999999973
 20
24.900000000000091
 30
0.0
 42
-0.4142135623730951
  0
VERTEX
  5
107D
  8
SAPA_PROFIL
 10
36.099999999999973
 20
24.400000000000091
 30
0.0
  0
VERTEX
  5
107E
  8
SAPA_PROFIL
 10
36.049999999999898
 20
24.400000000000091
 30
0.0
 42
0.4142135623730951
  0
VERTEX
  5
107F
  8
SAPA_PROFIL
 10
35.449999999999868
 20
23.800000000000072
 30
0.0
 42
0.4142135623730951
  0
VERTEX
  5
1080
  8
SAPA_PROFIL
 10
36.049999999999898
 20
23.200000000000099
 30
0.0
  0
VERTEX
  5
1081
  8
SAPA_PROFIL
 10
56.749999999999943
 20
23.200000000000099
 30
0.0
 42
-0.4142135623730951
  0
VERTEX
  5
1082
  8
SAPA_PROFIL
 10
57.049999999999898
 20
22.900000000000091
 30
0.0
  0
VERTEX
  5
1083
  8
SAPA_PROFIL
 10
57.049999999999898
 20
7.1000000000000787
 30
0.0
 42
-0.4142135623730951
  0
VERTEX
  5
1084
  8
SAPA_PROFIL
 10
56.749999999999943
 20
6.8000000000000682
 30
0.0
  0
VERTEX
  5
1085
  8
SAPA_PROFIL
 10
36.049999999999898
 20
6.8000000000000682
 30
0.0
 42
0.4142135623730951
  0
VERTEX
  5
1086
  8
SAPA_PROFIL
 10
35.449999999999868
 20
6.2000000000000446
 30
0.0
 42
0.4142135623730951
  0
VERTEX
  5
1087
  8
SAPA_PROFIL
 10
36.049999999999898
 20
5.6000000000000218
 30
0.0
  0
VERTEX
  5
1088
  8
SAPA_PROFIL
 10
36.099999999999973
 20
5.6000000000000787
 30
0.0
 42
-0.4142135623730951
  0
VERTEX
  5
1089
  8
SAPA_PROFIL
 10
36.599999999999973
 20
5.1000000000000787
 30
0.0
  0
VERTEX
  5
108A
  8
SAPA_PROFIL
 10
36.599999999999973
 20
4.500000000000056
 30
0.0
 42
-0.3635303702822669
  0
VERTEX
  5
108B
  8
SAPA_PROFIL
 10
34.331740102516683
 20
1.7925239661952901
 30
0.0
  0
VERTEX
  5
108C
  8
SAPA_PROFIL
 10
34.062132034355898
 20
2.062132034356011
 30
0.0
 42
0.4142135623730951
  0
VERTEX
  5
108D
  8
SAPA_PROFIL
 10
33.637867965644027
 20
2.0621320343560678
 30
0.0
  0
VERTEX
  5
108E
  8
SAPA_PROFIL
 10
33.368259897483263
 20
1.7925239661952901
 30
0.0
 42
-0.3635303702822669
  0
VERTEX
  5
108F
  8
SAPA_PROFIL
 10
31.099999999999969
 20
4.500000000000056
 30
0.0
  0
VERTEX
  5
1090
  8
SAPA_PROFIL
 10
31.099999999999969
 20
5.1000000000000787
 30
0.0
 42
-0.4142135623730951
  0
VERTEX
  5
1091
  8
SAPA_PROFIL
 10
31.599999999999969
 20
5.6000000000000787
 30
0.0
  0
VERTEX
  5
1092
  8
SAPA_PROFIL
 10
31.64999999999992
 20
5.6000000000000787
 30
0.0
 42
0.4142135623730951
  0
VERTEX
  5
1093
  8
SAPA_PROFIL
 10
32.249999999999943
 20
6.2000000000000446
 30
0.0
 42
0.4142135623730951
  0
VERTEX
  5
1094
  8
SAPA_PROFIL
 10
31.64999999999992
 20
6.8000000000000682
 30
0.0
  0
SEQEND
  5
1095
  8
SAPA_PROFIL
  0
POLYLINE
  5
B42
  8
SAPA_GLAS
 66
     1
 10
0.0
 20
0.0
 30
0.0
  0
VERTEX
  5
109B
  8
SAPA_GLAS
 10
17.250000000000139
 20
106.2999999999998
 30
0.0
  0
VERTEX
  5
109C
  8
SAPA_GLAS
 10
17.250000000000139
 20
77.499999999999716
 30
0.0
  0
VERTEX
  5
109D
  8
SAPA_GLAS
 10
23.250000000000131
 20
77.499999999999716
 30
0.0
  0
VERTEX
  5
109E
  8
SAPA_GLAS
 10
23.250000000000369
 20
106.2999999999998
 30
0.0
  0
SEQEND
  5
109F
  8
SAPA_GLAS
  0
CIRCLE
  5
B51
  8
SAPA_FOGBAND
 10
63.200080466152961
 20
27.334356206632592
 30
0.0000000195376815
 40
0.25
  0
POLYLINE
  5
B52
  8
SAPA_FOGBAND
 66
     1
 10
0.0
 20
0.0
 30
0.0000000195376815
 70
     1
  0
VERTEX
  5
1144
  8
SAPA_FOGBAND
 10
63.83398774727381
 20
24.627934078006191
 30
0.0000000195376815
  0
VERTEX
  5
1145
  8
SAPA_FOGBAND
 10
63.732813920768443
 20
25.78435620663241
 30
0.0000000195376815
  0
VERTEX
  5
1146
  8
SAPA_FOGBAND
 10
64.800080466152863
 20
25.78435620663241
 30
0.0000000195376815
  0
VERTEX
  5
1147
  8
SAPA_FOGBAND
 10
64.907732754327995
 20
25.38259239761247
 30
0.0000000195376815
 42
0.4995370695832079
  0
VERTEX
  5
1148
  8
SAPA_FOGBAND
 10
65.20444959976227
 20
25.263238728858241
 30
0.0000000195376815
  0
VERTEX
  5
1149
  8
SAPA_FOGBAND
 10
66.257107494351203
 20
25.96927470409274
 30
0.0000000195376815
 42
0.250021237196914
  0
VERTEX
  5
114A
  8
SAPA_FOGBAND
 10
66.700080466152954
 20
26.799769068827668
 30
0.0000000195376815
  0
VERTEX
  5
114B
  8
SAPA_FOGBAND
 10
66.700080466152954
 20
27.868943344437511
 30
0.0000000195376815
 42
0.250021237196914
  0
VERTEX
  5
114C
  8
SAPA_FOGBAND
 10
66.257107494351203
 20
28.699437709172901
 30
0.0000000195376815
  0
VERTEX
  5
114D
  8
SAPA_FOGBAND
 10
65.20444959976227
 20
29.405473684406939
 30
0.0000000195376815
 42
0.4995370695831766
  0
VERTEX
  5
114E
  8
SAPA_FOGBAND
 10
64.907732754327995
 20
29.286120015653172
 30
0.0000000195376815
  0
VERTEX
  5
114F
  8
SAPA_FOGBAND
 10
64.800080466152863
 20
28.884356206632781
 30
0.0000000195376815
  0
VERTEX
  5
1150
  8
SAPA_FOGBAND
 10
63.732813920768443
 20
28.884356206632781
 30
0.0000000195376815
  0
VERTEX
  5
1151
  8
SAPA_FOGBAND
 10
63.792530957346358
 20
29.566925058082791
 30
0.0000000195376815
 42
0.4400105308918379
  0
VERTEX
  5
1152
  8
SAPA_FOGBAND
 10
63.593292017727912
 20
29.78435620663241
 30
0.0000000195376815
  0
VERTEX
  5
1153
  8
SAPA_FOGBAND
 10
63.55829655231765
 20
29.78435620663241
 30
0.0000000195376815
 42
0.3888787318529988
  0
VERTEX
  5
1154
  8
SAPA_FOGBAND
 10
62.960579733462517
 20
29.236649652281461
 30
0.0000000195376815
  0
VERTEX
  5
1155
  8
SAPA_FOGBAND
 10
62.887587283994677
 20
28.402342137155401
 30
0.0000000195376815
 42
-0.2668174844056302
  0
VERTEX
  5
1156
  8
SAPA_FOGBAND
 10
62.773637031339163
 20
28.238870439192961
 30
0.0000000195376815
 42
0.6341045221175712
  0
VERTEX
  5
1157
  8
SAPA_FOGBAND
 10
62.773637031339163
 20
26.429841974072239
 30
0.0000000195376815
 42
-0.2668174844056113
  0
VERTEX
  5
1158
  8
SAPA_FOGBAND
 10
62.887587283994677
 20
26.266370276109789
 30
0.0000000195376815
  0
VERTEX
  5
1159
  8
SAPA_FOGBAND
 10
62.960178432473192
 20
25.436649652281279
 30
0.0000000195376815
 42
-0.3932191662530252
  0
VERTEX
  5
115A
  8
SAPA_FOGBAND
 10
62.316611324843059
 20
24.684356206632959
 30
0.0000000195376815
 42
-0.5936677432385475
  0
VERTEX
  5
115B
  8
SAPA_FOGBAND
 10
59.546411535050098
 20
28.117158695890438
 30
0.0000000195376815
 42
1.0000000000000131
  0
VERTEX
  5
115C
  8
SAPA_FOGBAND
 10
59.191866080504731
 20
28.601201587234861
 30
0.0000000195376815
 42
0.6273677588277283
  0
VERTEX
  5
115D
  8
SAPA_FOGBAND
 10
62.316611324843059
 20
24.084356206632599
 30
0.0000000195376815
  0
VERTEX
  5
115E
  8
SAPA_FOGBAND
 10
63.33589039822801
 20
24.084356206632599
 30
0.0000000195376815
 42
0.4400105308918419
  0
SEQEND
  5
115F
  8
SAPA_FOGBAND
  0
POLYLINE
  5
B53
  8
SAPA_FOGBAND
 66
     1
 10
0.0
 20
0.0
 30
0.0000000195376815
 70
     1
  0
VERTEX
  5
1160
  8
SAPA_FOGBAND
 10
64.048608603576682
 20
28.134356206632781
 30
0.0000000195376815
 42
0.6341370759941026
  0
VERTEX
  5
1161
  8
SAPA_FOGBAND
 10
63.971469681992872
 20
27.970719842996559
 30
0.0000000195376815
 42
-0.3592455179659193
  0
VERTEX
  5
1162
  8
SAPA_FOGBAND
 10
63.971469681992872
 20
26.697992570269079
 30
0.0000000195376815
 42
0.6341370759941019
  0
VERTEX
  5
1163
  8
SAPA_FOGBAND
 10
64.048608603576682
 20
26.53435620663242
 30
0.0000000195376815
  0
VERTEX
  5
1164
  8
SAPA_FOGBAND
 10
65.400080466152772
 20
26.53435620663241
 30
0.0000000195376815
 42
0.4142135623730951
  0
VERTEX
  5
1165
  8
SAPA_FOGBAND
 10
65.900080466152772
 20
27.03435620663241
 30
0.0000000195376815
  0
VERTEX
  5
1166
  8
SAPA_FOGBAND
 10
65.900080466152772
 20
27.63435620663277
 30
0.0000000195376815
 42
0.4142135623730951
  0
VERTEX
  5
1167
  8
SAPA_FOGBAND
 10
65.400080466152772
 20
28.13435620663277
 30
0.0000000195376815
  0
SEQEND
  5
1168
  8
SAPA_FOGBAND
  0
CIRCLE
  5
B54
  8
SAPA_FOGBAND
 10
27.351663373581928
 20
32.316112603553741
 30
0.0
 40
0.3
  0
POLYLINE
  5
B55
  8
SAPA_FOGBAND
 66
     1
 10
0.0
 20
0.0
 30
0.0
 70
     1
  0
VERTEX
  5
1169
  8
SAPA_FOGBAND
 10
24.170520937567531
 20
28.507464886158122
 30
0.0
  0
VERTEX
  5
116A
  8
SAPA_FOGBAND
 10
24.170520937567531
 20
30.42091715487993
 30
0.0
 42
-0.4142135623730951
  0
VERTEX
  5
116B
  8
SAPA_FOGBAND
 10
24.670520937567531
 20
30.92091715487993
 30
0.0
  0
VERTEX
  5
116C
  8
SAPA_FOGBAND
 10
25.470520937567262
 20
30.92091715487993
 30
0.0
 42
-0.4142135623730951
  0
VERTEX
  5
116D
  8
SAPA_FOGBAND
 10
25.970520937567262
 20
30.42091715487993
 30
0.0
  0
VERTEX
  5
116E
  8
SAPA_FOGBAND
 10
25.970520937567262
 20
28.344813342813609
 30
0.0
 42
-0.2216946626429447
  0
VERTEX
  5
116F
  8
SAPA_FOGBAND
 10
25.75619350337935
 20
27.885186676941771
 30
0.0
  0
VERTEX
  5
1170
  8
SAPA_FOGBAND
 10
25.326998883442471
 20
27.525049629649288
 30
0.0
 42
-0.4400105308918337
  0
VERTEX
  5
1171
  8
SAPA_FOGBAND
 10
24.66491738450874
 20
27.612214312590709
 30
0.0
  0
VERTEX
  5
1172
  8
SAPA_FOGBAND
 10
24.2790297109939
 20
28.163319024347292
 30
0.0
 42
-0.153914721059829
  0
SEQEND
  5
1173
  8
SAPA_FOGBAND
  0
POLYLINE
  5
B56
  8
SAPA_FOGBAND
 66
     1
 10
0.0
 20
0.0
 30
0.0
 70
     1
  0
VERTEX
  5
1174
  8
SAPA_FOGBAND
 10
27.984575675469749
 20
42.005446441552401
 30
0.0
 42
0.1579553886371987
  0
VERTEX
  5
1175
  8
SAPA_FOGBAND
 10
27.83751616900545
 20
45.269274485668461
 30
0.0
 42
1.0
  0
VERTEX
  5
1176
  8
SAPA_FOGBAND
 10
24.466198446244359
 20
44.006651496729198
 30
0.0
 42
0.1276248526686838
  0
VERTEX
  5
1177
  8
SAPA_FOGBAND
 10
25.707510867929869
 20
42.23899898825163
 30
0.0
  0
VERTEX
  5
1178
  8
SAPA_FOGBAND
 10
26.776899540502331
 20
41.329652464682901
 30
0.0
 42
0.5691506674918112
  0
VERTEX
  5
1179
  8
SAPA_FOGBAND
 10
27.915590735139428
 20
41.719888220401003
 30
0.0
 42
-0.0156300267407041
  0
SEQEND
  5
117A
  8
SAPA_FOGBAND
  0
POLYLINE
  5
B57
  8
SAPA_FOGBAND
 66
     1
 10
0.0
 20
0.0
 30
0.0
 70
     1
  0
VERTEX
  5
117B
  8
SAPA_FOGBAND
 10
20.775087299857219
 20
30.702595000999171
 30
0.0
 42
-0.3888787318529789
  0
VERTEX
  5
117C
  8
SAPA_FOGBAND
 10
21.762143124367199
 20
31.988951195910769
 30
0.0
  0
VERTEX
  5
117D
  8
SAPA_FOGBAND
 10
22.479644973953569
 20
32.1154661307013
 30
0.0
 42
-1.0
  0
VERTEX
  5
117E
  8
SAPA_FOGBAND
 10
23.070529625760869
 20
32.219655037301777
 30
0.0
  0
VERTEX
  5
117F
  8
SAPA_FOGBAND
 10
23.679644973953842
 20
32.327058507551442
 30
0.0
 42
-0.9999999999999067
  0
VERTEX
  5
1180
  8
SAPA_FOGBAND
 10
24.270529625761149
 20
32.431247414151471
 30
0.0
  0
VERTEX
  5
1181
  8
SAPA_FOGBAND
 10
24.615256260430002
 20
32.492032020812871
 30
0.0
 42
0.3345953195020691
  0
VERTEX
  5
1182
  8
SAPA_FOGBAND
 10
26.667440554683498
 20
34.692730245173948
 30
0.0
  0
VERTEX
  5
1183
  8
SAPA_FOGBAND
 10
27.020548327600661
 20
38.706537650185851
 30
0.0
 42
0.2564696513213821
  0
VERTEX
  5
1184
  8
SAPA_FOGBAND
 10
25.89461616165865
 20
41.161031848892769
 30
0.0
  0
VERTEX
  5
1185
  8
SAPA_FOGBAND
 10
25.254050981440081
 20
41.705731577523572
 30
0.0
 42
-0.1276248526686853
  0
VERTEX
  5
1186
  8
SAPA_FOGBAND
 10
23.810664444596359
 20
43.761141471102633
 30
0.0
 42
-1.0
  0
VERTEX
  5
1187
  8
SAPA_FOGBAND
 10
28.49305017065333
 20
45.514784511295488
 30
0.0
 42
-0.1579553886371977
  0
VERTEX
  5
1188
  8
SAPA_FOGBAND
 10
28.659532630801799
 20
41.819884838710891
 30
0.0
 42
0.0604483959424258
  0
VERTEX
  5
1189
  8
SAPA_FOGBAND
 10
28.558440096348729
 20
38.429772777725589
 30
0.0
  0
VERTEX
  5
118A
  8
SAPA_FOGBAND
 10
28.77052093756744
 20
33.272206021358102
 30
0.0
 42
0.3286126757704555
  0
VERTEX
  5
118B
  8
SAPA_FOGBAND
 10
29.8260764931231
 20
31.83956191488857
 30
0.0
 42
-0.2704382184496639
  0
VERTEX
  5
118C
  8
SAPA_FOGBAND
 10
30.739752768263099
 20
30.721053389752232
 30
0.0
  0
VERTEX
  5
118D
  8
SAPA_FOGBAND
 10
26.870520937567349
 20
30.92091715487993
 30
0.0
  0
VERTEX
  5
118E
  8
SAPA_FOGBAND
 10
26.870520937567349
 20
29.720917154880109
 30
0.0
  0
VERTEX
  5
118F
  8
SAPA_FOGBAND
 10
26.816049174527979
 20
28.659852749330518
 30
0.0
  0
VERTEX
  5
1190
  8
SAPA_FOGBAND
 10
27.365895083333061
 20
28.660821759188249
 30
0.0
 42
-0.6068148963145658
  0
VERTEX
  5
1191
  8
SAPA_FOGBAND
 10
27.481085652708099
 20
28.14123067836578
 30
0.0
  0
VERTEX
  5
1192
  8
SAPA_FOGBAND
 10
25.665672842687641
 20
26.764904992475628
 30
0.0
 42
-0.4400105308918406
  0
VERTEX
  5
1193
  8
SAPA_FOGBAND
 10
24.141043551449251
 20
26.965626246562241
 30
0.0
  0
VERTEX
  5
1194
  8
SAPA_FOGBAND
 10
22.617842170033569
 20
28.982589170784991
 30
0.0
 42
-0.5205670505516999
  0
VERTEX
  5
1195
  8
SAPA_FOGBAND
 10
22.785942069789609
 20
29.444439849576948
 30
0.0
  0
VERTEX
  5
1196
  8
SAPA_FOGBAND
 10
23.530781181222231
 20
29.471035480611931
 30
0.0
  0
VERTEX
  5
1197
  8
SAPA_FOGBAND
 10
23.331270237768209
 20
30.760948289460309
 30
0.0
  0
SEQEND
  5
1198
  8
SAPA_FOGBAND
  0
POLYLINE
  5
B58
  8
SAPA_FOGBAND
 62
     2
 66
     1
 10
0.0
 20
0.0
 30
0.0
  0
VERTEX
  5
1199
  8
SAPA_FOGBAND
 62
     2
 10
13.35000000000014
 20
92.561592376852218
 30
0.0
  0
VERTEX
  5
119A
  8
SAPA_FOGBAND
 62
     2
 10
12.2590811898474
 20
92.369233956859858
 30
0.0
  0
VERTEX
  5
119B
  8
SAPA_FOGBAND
 62
     2
 10
12.143381650327459
 20
92.801030516761486
 30
0.0
 42
0.4430158954262519
  0
VERTEX
  5
119C
  8
SAPA_FOGBAND
 62
     2
 10
11.87990522222049
 20
92.936507564305558
 30
0.0
  0
VERTEX
  5
119D
  8
SAPA_FOGBAND
 62
     2
 10
10.60941747430229
 20
92.459559371086613
 30
0.0
 42
0.3125358528825162
  0
VERTEX
  5
119E
  8
SAPA_FOGBAND
 62
     2
 10
10.350000000000589
 20
92.085077657957214
 30
0.0
  0
VERTEX
  5
119F
  8
SAPA_FOGBAND
 62
     2
 10
10.35000000000014
 20
90.21492234204689
 30
0.0
 42
0.3125358528825104
  0
VERTEX
  5
11A0
  8
SAPA_FOGBAND
 62
     2
 10
10.60941747430229
 20
89.840440628917491
 30
0.0
  0
VERTEX
  5
11A1
  8
SAPA_FOGBAND
 62
     2
 10
11.87990522222049
 20
89.363492435698305
 30
0.0
 42
0.4430158954262519
  0
VERTEX
  5
11A2
  8
SAPA_FOGBAND
 62
     2
 10
12.14338165032734
 20
89.498969483242405
 30
0.0
  0
VERTEX
  5
11A3
  8
SAPA_FOGBAND
 62
     2
 10
12.2590811898474
 20
89.930766043144246
 30
0.0
  0
VERTEX
  5
11A4
  8
SAPA_FOGBAND
 62
     2
 10
13.331769303614919
 20
89.74162218680172
 30
0.0
  0
SEQEND
  5
11A5
  8
SAPA_FOGBAND
 62
     2
  0
POLYLINE
  5
B59
  8
SAPA_FOGBAND
 62
     2
 66
     1
 10
0.0
 20
0.0
 30
0.0
 70
     1
  0
VERTEX
  5
11A6
  8
SAPA_FOGBAND
 62
     2
 10
13.35000000000014
 20
92.550000000001901
 30
0.0
 42
-0.285714285714282
  0
VERTEX
  5
11A7
  8
SAPA_FOGBAND
 62
     2
 10
13.35000000000014
 20
89.750000000001961
 30
0.0
  0
VERTEX
  5
11A8
  8
SAPA_FOGBAND
 62
     2
 10
13.350000000000589
 20
87.676219830614073
 30
0.0
 42
0.3882600129940275
  0
VERTEX
  5
11A9
  8
SAPA_FOGBAND
 62
     2
 10
13.623210726280149
 20
87.377418333272686
 30
0.0
  0
VERTEX
  5
11AA
  8
SAPA_FOGBAND
 62
     2
 10
16.923210726280239
 20
86.911208409346187
 30
0.0
 42
0.4406523138893894
  0
VERTEX
  5
11AB
  8
SAPA_FOGBAND
 62
     2
 10
17.250000000000139
 20
87.210009906688029
 30
0.0
  0
VERTEX
  5
11AC
  8
SAPA_FOGBAND
 62
     2
 10
17.250000000000139
 20
88.919801903608359
 30
0.0
 42
0.3394542588634375
  0
VERTEX
  5
11AD
  8
SAPA_FOGBAND
 62
     2
 10
17.02764571353114
 20
89.209579651494906
 30
0.0
  0
VERTEX
  5
11AE
  8
SAPA_FOGBAND
 62
     2
 10
16.810059931363551
 20
89.411959379426335
 30
0.0
 42
-0.3394542588633663
  0
VERTEX
  5
11AF
  8
SAPA_FOGBAND
 62
     2
 10
16.587705644894552
 20
89.701737127313109
 30
0.0
  0
VERTEX
  5
11B0
  8
SAPA_FOGBAND
 62
     2
 10
16.587705644894552
 20
92.598262872690967
 30
0.0
 42
-0.3394542588634373
  0
VERTEX
  5
11B1
  8
SAPA_FOGBAND
 62
     2
 10
16.810059931363551
 20
92.888040620577513
 30
0.0
  0
VERTEX
  5
11B2
  8
SAPA_FOGBAND
 62
     2
 10
17.02764571353114
 20
93.090420348508957
 30
0.0
 42
0.3394542588633662
  0
VERTEX
  5
11B3
  8
SAPA_FOGBAND
 62
     2
 10
17.250000000000139
 20
93.380198096395716
 30
0.0
  0
VERTEX
  5
11B4
  8
SAPA_FOGBAND
 62
     2
 10
17.250000000000139
 20
95.089990093315805
 30
0.0
 42
0.4406523138893994
  0
VERTEX
  5
11B5
  8
SAPA_FOGBAND
 62
     2
 10
16.923210726280239
 20
95.388791590657448
 30
0.0
  0
VERTEX
  5
11B6
  8
SAPA_FOGBAND
 62
     2
 10
13.623210726280149
 20
94.92258166673119
 30
0.0
 42
0.3882600129940462
  0
VERTEX
  5
11B7
  8
SAPA_FOGBAND
 62
     2
 10
13.35000000000014
 20
94.623780169389789
 30
0.0
  0
VERTEX
  5
11B8
  8
SAPA_FOGBAND
 62
     2
 10
13.35000000000014
 20
92.561592376852218
 30
0.0
  0
SEQEND
  5
11B9
  8
SAPA_FOGBAND
 62
     2
  0
POLYLINE
  5
B5A
  8
SAPA_FOGBAND
 66
     1
 10
0.0
 20
0.0
 30
0.0
 70
     1
  0
VERTEX
  5
11BA
  8
SAPA_FOGBAND
 10
29.839251262205071
 20
83.993397840349118
 30
0.0
  0
VERTEX
  5
11BB
  8
SAPA_FOGBAND
 10
29.839251262205071
 20
85.193397840349164
 30
0.0
 42
-0.4142135623730951
  0
VERTEX
  5
11BC
  8
SAPA_FOGBAND
 10
30.139251262205018
 20
85.493397840349132
 30
0.0
  0
VERTEX
  5
11BD
  8
SAPA_FOGBAND
 10
31.039251262205109
 20
85.493397840349132
 30
0.0
  0
VERTEX
  5
11BE
  8
SAPA_FOGBAND
 10
31.039251262205109
 20
85.143397840349209
 30
0.0
 42
0.6681786379192988
  0
VERTEX
  5
11BF
  8
SAPA_FOGBAND
 10
31.551383296561109
 20
84.931265805993178
 30
0.0
  0
VERTEX
  5
11C0
  8
SAPA_FOGBAND
 10
32.404936687154219
 20
85.784819196586511
 30
0.0
 42
0.1989123673796552
  0
VERTEX
  5
11C1
  8
SAPA_FOGBAND
 10
32.639251262205022
 20
86.350504621535663
 30
0.0
  0
VERTEX
  5
11C2
  8
SAPA_FOGBAND
 10
32.639251262205022
 20
86.513199743955454
 30
0.0
 42
0.3394542588633746
  0
VERTEX
  5
11C3
  8
SAPA_FOGBAND
 10
32.416896975735803
 20
86.802977491842228
 30
0.0
  0
VERTEX
  5
11C4
  8
SAPA_FOGBAND
 10
31.06160554867429
 20
87.166126735232126
 30
0.0
 42
-0.3394542588633746
  0
VERTEX
  5
11C5
  8
SAPA_FOGBAND
 10
30.839251262205071
 20
87.4559044831189
 30
0.0
  0
VERTEX
  5
11C6
  8
SAPA_FOGBAND
 10
30.839251262205071
 20
90.030891197579365
 30
0.0
 42
-0.3394542588633746
  0
VERTEX
  5
11C7
  8
SAPA_FOGBAND
 10
31.06160554867429
 20
90.320668945466139
 30
0.0
  0
VERTEX
  5
11C8
  8
SAPA_FOGBAND
 10
32.416896975735803
 20
90.683818188856264
 30
0.0
 42
0.3394542588633744
  0
VERTEX
  5
11C9
  8
SAPA_FOGBAND
 10
32.639251262205022
 20
90.973595936742825
 30
0.0
  0
VERTEX
  5
11CA
  8
SAPA_FOGBAND
 10
32.639251262205022
 20
91.136291059162829
 30
0.0
 42
0.1989123673796526
  0
VERTEX
  5
11CB
  8
SAPA_FOGBAND
 10
32.404936687154219
 20
91.701976484111981
 30
0.0
  0
VERTEX
  5
11CC
  8
SAPA_FOGBAND
 10
31.551383296561109
 20
92.555529874705314
 30
0.0
 42
0.6681786379193474
  0
VERTEX
  5
11CD
  8
SAPA_FOGBAND
 10
31.03925126220512
 20
92.343397840349269
 30
0.0
  0
VERTEX
  5
11CE
  8
SAPA_FOGBAND
 10
31.03925126220512
 20
91.993397840349132
 30
0.0
  0
VERTEX
  5
11CF
  8
SAPA_FOGBAND
 10
30.139251262205018
 20
91.993397840349132
 30
0.0
 42
-0.4142135623730951
  0
VERTEX
  5
11D0
  8
SAPA_FOGBAND
 10
29.839251262205071
 20
92.293397840349314
 30
0.0
  0
VERTEX
  5
11D1
  8
SAPA_FOGBAND
 10
29.839251262205071
 20
94.393397840349223
 30
0.0
 42
-0.4142135623730951
  0
VERTEX
  5
11D2
  8
SAPA_FOGBAND
 10
30.139251262205018
 20
94.693397840349178
 30
0.0
  0
VERTEX
  5
11D3
  8
SAPA_FOGBAND
 10
31.539251262205109
 20
94.693397840349178
 30
0.0
 42
0.7754026414786132
  0
VERTEX
  5
11D4
  8
SAPA_FOGBAND
 10
31.683959130510999
 20
95.256189835756857
 30
0.0
 42
-0.1086822875051356
  0
VERTEX
  5
11D5
  8
SAPA_FOGBAND
 10
23.755876740374251
 20
99.406237994347691
 30
0.0
 42
0.8680589103334746
  0
VERTEX
  5
11D6
  8
SAPA_FOGBAND
 10
23.39903683771232
 20
98.931313964583936
 30
0.0
  0
VERTEX
  5
11D7
  8
SAPA_FOGBAND
 10
26.226837158856281
 20
94.961278567432316
 30
0.0
 42
-0.1989123673796536
  0
VERTEX
  5
11D8
  8
SAPA_FOGBAND
 10
26.519730377669621
 20
94.254171786245649
 30
0.0
  0
VERTEX
  5
11D9
  8
SAPA_FOGBAND
 10
26.51973037766961
 20
91.420852821825903
 30
0.0
 42
-0.577350269189628
  0
VERTEX
  5
11DA
  8
SAPA_FOGBAND
 10
26.069730377669799
 20
91.161045200690694
 30
0.0
  0
VERTEX
  5
11DB
  8
SAPA_FOGBAND
 10
23.764976274315501
 20
93.299173897102435
 30
0.0
 42
0.8769764629927301
  0
VERTEX
  5
11DC
  8
SAPA_FOGBAND
 10
23.402844239959361
 20
92.827234241611166
 30
0.0
  0
VERTEX
  5
11DD
  8
SAPA_FOGBAND
 10
26.226837158856281
 20
88.861006246706367
 30
0.0
 42
-0.198912367379658
  0
VERTEX
  5
11DE
  8
SAPA_FOGBAND
 10
26.51973037766961
 20
88.153899465519714
 30
0.0
  0
VERTEX
  5
11DF
  8
SAPA_FOGBAND
 10
26.51973037766961
 20
85.921625103298254
 30
0.0
 42
-0.5773502691896441
  0
VERTEX
  5
11E0
  8
SAPA_FOGBAND
 10
26.069730377669799
 20
85.661817482162803
 30
0.0
  0
VERTEX
  5
11E1
  8
SAPA_FOGBAND
 10
23.765845027495882
 20
87.799444603692066
 30
0.0
 42
0.87697646299276
  0
VERTEX
  5
11E2
  8
SAPA_FOGBAND
 10
23.403712993139749
 20
87.327504948200783
 30
0.0
  0
VERTEX
  5
11E3
  8
SAPA_FOGBAND
 10
26.302691806169971
 20
83.286291059162679
 30
0.0
 42
0.198912367379658
  0
VERTEX
  5
11E4
  8
SAPA_FOGBAND
 10
27.009798587356411
 20
82.993397840349132
 30
0.0
  0
VERTEX
  5
11E5
  8
SAPA_FOGBAND
 10
28.839251262205071
 20
82.993397840349132
 30
0.0
  0
VERTEX
  5
11E6
  8
SAPA_FOGBAND
 10
28.829319471891861
 20
82.993397840349132
 30
0.0
  0
SEQEND
  5
11E7
  8
SAPA_FOGBAND
  0
DIMENSION
  5
B63
  8
SAPA_MATT
  2
*D33
 10
-21.15000000000007
 20
94.499999999999716
 30
0.0
 11
-23.650000000000091
 21
47.249999999999837
 31
0.0
 70
     0
 13
-11.150000000000089
 23
-0.0000000000000426
 33
0.0
 14
-11.15000000000007
 24
94.499999999999716
 34
0.0
 50
90.0
1001
ACAD
1000
DSTYLE
1002
{
1070
    40
1040
1.0
1002
}
  0
DIMENSION
  5
B64
  8
SAPA_MATT
  2
*D32
 10
-11.150000000000119
 20
94.499999999999716
 30
0.0
 11
-13.650000000000141
 21
75.749999999999773
 31
0.0
 70
     0
 13
9.8500000000000298
 23
56.999999999999822
 33
0.0
 14
9.8500000000000441
 24
94.499999999999716
 34
0.0
 50
270.0
1001
ACAD
1000
DSTYLE
1002
{
1070
   287
1070
     4
1070
    40
1040
1.0
1070
   279
1070
     1
1002
}
  0
DIMENSION
  5
B65
  8
SAPA_MATT
  2
*D31
 10
-11.15000000000007
 20
56.999999999999822
 30
0.0
 11
-13.65000000000008
 21
54.499999999999943
 31
0.0
 70
     0
 13
9.1499999999998707
 23
52.000000000000057
 33
0.0
 14
9.8500000000000298
 24
56.999999999999822
 34
0.0
 50
270.0
1001
ACAD
1000
DSTYLE
1002
{
1070
   287
1070
     4
1070
    40
1040
1.0
1070
   279
1070
     1
1002
}
  0
DIMENSION
  5
B66
  8
SAPA_MATT
  2
*D30
 10
-11.150000000000089
 20
-0.0000000000000511
 30
0.0
 11
-13.65000000000008
 21
26.0
 31
0.0
 70
     0
 13
9.1499999999998707
 23
52.000000000000057
 33
0.0
 14
9.1499999999999844
 24
-0.0000000000000568
 34
0.0
 50
270.0
1001
ACAD
1000
DSTYLE
1002
{
1070
    40
1040
1.0
1002
}
  0
VIEWPORT
  5
C4
 67
     1
  8
0
 10
143.06236603067589
 20
116.00969601843509
 30
0.0
 40
369.98580003443811
 41
256.8421457311839
 68
     1
 69
     1
1001
ACAD
1000
MVIEW
1002
{
1070
    16
1010
0.0
1020
0.0
1030
0.0
1010
0.0
1020
0.0
1030
1.0
1040
0.0
1040
256.8421457311839
1040
99.112914085388169
1040
143.07606935501099
1040
50.0
1040
0.0
1040
0.0
1070
     0
1070
     0
1070
     1
1070
     1
1070
     0
1070
     0
1070
     0
1070
     0
1040
0.0
1040
0.0
1040
0.0
1040
10.0
1040
10.0
1040
10.0
1040
10.0
1070
     0
1002
{
1002
}
1002
}
  0
ENDSEC
  0
EOF
