  0
SECTION
  2
HEADER
  9
$ACADVER
  1
AC1009
  9
$INSBASE
 10
0.0
 20
0.0
 30
0.0
  9
$EXTMIN
 10
-12.424264068714081
 20
-29.500000000000039
 30
0.0
  9
$EXTMAX
 10
127.6757359312878
 20
69.233947938761673
 30
0.0000000195376815
  9
$LIMMIN
 10
0.0
 20
0.0
  9
$LIMMAX
 10
790.0
 20
790.0
  9
$ORTHOMODE
 70
     0
  9
$REGENMODE
 70
     1
  9
$FILLMODE
 70
     1
  9
$QTEXTMODE
 70
     0
  9
$MIRRTEXT
 70
     1
  9
$DRAGMODE
 70
     2
  9
$LTSCALE
 40
4.0
  9
$OSMODE
 70
    37
  9
$ATTMODE
 70
     1
  9
$TEXTSIZE
 40
3.5
  9
$TRACEWID
 40
0.05
  9
$TEXTSTYLE
  7
ISO
  9
$CLAYER
  8
0
  9
$CELTYPE
  6
BYLAYER
  9
$CECOLOR
 62
   256
  9
$DIMSCALE
 40
0.0
  9
$DIMASZ
 40
3.0
  9
$DIMEXO
 40
1.5
  9
$DIMDLI
 40
10.0
  9
$DIMRND
 40
0.0
  9
$DIMDLE
 40
0.0
  9
$DIMEXE
 40
1.5
  9
$DIMTP
 40
0.0
  9
$DIMTM
 40
0.0
  9
$DIMTXT
 40
3.0
  9
$DIMCEN
 40
-5.0
  9
$DIMTSZ
 40
0.0
  9
$DIMTOL
 70
     0
  9
$DIMLIM
 70
     0
  9
$DIMTIH
 70
     0
  9
$DIMTOH
 70
     0
  9
$DIMSE1
 70
     0
  9
$DIMSE2
 70
     0
  9
$DIMTAD
 70
     1
  9
$DIMZIN
 70
     8
  9
$DIMBLK
  1

  9
$DIMASO
 70
     1
  9
$DIMSHO
 70
     1
  9
$DIMPOST
  1

  9
$DIMAPOST
  1

  9
$DIMALT
 70
     0
  9
$DIMALTD
 70
     0
  9
$DIMALTF
 40
25.399999999999999
  9
$DIMLFAC
 40
-1.0
  9
$DIMTOFL
 70
     1
  9
$DIMTVP
 40
0.0
  9
$DIMTIX
 70
     0
  9
$DIMSOXD
 70
     0
  9
$DIMSAH
 70
     0
  9
$DIMBLK1
  1

  9
$DIMBLK2
  1

  9
$DIMSTYLE
  2
MASKIN
  9
$DIMCLRD
 70
   256
  9
$DIMCLRE
 70
   256
  9
$DIMCLRT
 70
     2
  9
$DIMTFAC
 40
1.0
  9
$DIMGAP
 40
1.0
  9
$LUNITS
 70
     2
  9
$LUPREC
 70
     8
  9
$SKETCHINC
 40
0.1
  9
$FILLETRAD
 40
0.0
  9
$AUNITS
 70
     0
  9
$AUPREC
 70
     8
  9
$MENU
  1
ACAD
  9
$ELEVATION
 40
0.0
  9
$PELEVATION
 40
0.0
  9
$THICKNESS
 40
0.0
  9
$LIMCHECK
 70
     0
  9
$BLIPMODE
 70
     0
  9
$CHAMFERA
 40
0.0
  9
$CHAMFERB
 40
0.0
  9
$SKPOLY
 70
     0
  9
$TDCREATE
 40
2454967.3864548611
  9
$TDUPDATE
 40
2455464.387928993
  9
$TDINDWG
 40
0.1084834028
  9
$TDUSRTIMER
 40
0.1084834028
  9
$USRTIMER
 70
     1
  9
$ANGBASE
 50
0.0
  9
$ANGDIR
 70
     0
  9
$PDMODE
 70
     0
  9
$PDSIZE
 40
0.0
  9
$PLINEWID
 40
0.0
  9
$COORDS
 70
     1
  9
$SPLFRAME
 70
     0
  9
$SPLINETYPE
 70
     6
  9
$SPLINESEGS
 70
     8
  9
$ATTDIA
 70
     0
  9
$ATTREQ
 70
     1
  9
$HANDLING
 70
     1
  9
$HANDSEED
  5
1760
  9
$SURFTAB1
 70
     6
  9
$SURFTAB2
 70
     6
  9
$SURFTYPE
 70
     6
  9
$SURFU
 70
     6
  9
$SURFV
 70
     6
  9
$UCSNAME
  2

  9
$UCSORG
 10
0.0
 20
0.0
 30
0.0
  9
$UCSXDIR
 10
1.0
 20
0.0
 30
0.0
  9
$UCSYDIR
 10
0.0
 20
1.0
 30
0.0
  9
$PUCSNAME
  2

  9
$PUCSORG
 10
0.0
 20
0.0
 30
0.0
  9
$PUCSXDIR
 10
1.0
 20
0.0
 30
0.0
  9
$PUCSYDIR
 10
0.0
 20
1.0
 30
0.0
  9
$USERI1
 70
     0
  9
$USERI2
 70
     0
  9
$USERI3
 70
     0
  9
$USERI4
 70
     0
  9
$USERI5
 70
     0
  9
$USERR1
 40
0.0
  9
$USERR2
 40
0.0
  9
$USERR3
 40
0.0
  9
$USERR4
 40
0.0
  9
$USERR5
 40
0.0
  9
$WORLDVIEW
 70
     1
  9
$SHADEDGE
 70
     3
  9
$SHADEDIF
 70
    70
  9
$TILEMODE
 70
     1
  9
$MAXACTVP
 70
    16
  9
$PLIMCHECK
 70
     0
  9
$PEXTMIN
 10
1.0000000000000000E+020
 20
1.0000000000000000E+020
 30
1.0000000000000000E+020
  9
$PEXTMAX
 10
-1.0000000000000000E+020
 20
-1.0000000000000000E+020
 30
-1.0000000000000000E+020
  9
$PLIMMIN
 10
-5.069427490234375
 20
-5.8737497329711914
  9
$PLIMMAX
 10
291.89889526367187
 20
204.0995779037475
  9
$UNITMODE
 70
     0
  9
$VISRETAIN
 70
     1
  9
$PLINEGEN
 70
     0
  9
$PSLTSCALE
 70
     1
  0
ENDSEC
  0
SECTION
  2
TABLES
  0
TABLE
  2
VPORT
 70
     1
  0
VPORT
  2
*ACTIVE
 70
     0
 10
0.0
 20
0.0
 11
1.0
 21
1.0
 12
115.1146301629843
 22
45.364255123259447
 13
0.0
 23
0.0
 14
1.0
 24
1.0
 15
0.0
 25
0.0
 16
0.0
 26
0.0
 36
1.0
 17
0.0
 27
0.0
 37
0.0
 40
150.49871547608001
 41
2.2448979591836729
 42
50.0
 43
0.0
 44
0.0
 50
0.0
 51
0.0
 71
     0
 72
   100
 73
     1
 74
     1
 75
     0
 76
     0
 77
     0
 78
     0
  0
ENDTAB
  0
TABLE
  2
LTYPE
 70
    15
  0
LTYPE
  2
CONTINUOUS
 70
     0
  3
Solid line
 72
    65
 73
     0
 40
0.0
  0
LTYPE
  2
BYGG-021997$0$NEWDOT
 70
     0
  3
____ . ____ . ____ . ____ . ____ . ____ . ____
 72
    65
 73
     4
 40
2.0
 49
1.0
 49
-0.5
 49
0.0
 49
-0.5
  0
LTYPE
  2
BYGG-021997$0$DASHDOT
 70
     0
  3
__ . __ . __ . __ . __ . __ . __ . __ . __ . __
 72
    65
 73
     4
 40
1.0
 49
0.5
 49
-0.25
 49
0.0
 49
-0.25
  0
LTYPE
  2
BYGG-021997$0$DASHED
 70
     0
  3
__ __ __ __ __ __ __ __ __ __ __ __ __ __ __
 72
    65
 73
     2
 40
0.75
 49
0.5
 49
-0.25
  0
LTYPE
  2
BYGG-021997$0$PHANTOM
 70
     0
  3
Phantom ______  __  __  ______  __  __  ______
 72
    65
 73
     6
 40
63.5
 49
31.75
 49
-6.3499999999999988
 49
6.3499999999999988
 49
-6.3499999999999988
 49
6.3499999999999988
 49
-6.3499999999999988
  0
LTYPE
  2
BYGG-014878$0$NEWDOT
 70
     0
  3
____ . ____ . ____ . ____ . ____ . ____ . ____
 72
    65
 73
     4
 40
2.0
 49
1.0
 49
-0.5
 49
0.0
 49
-0.5
  0
LTYPE
  2
BYGG-022318$0$NEWDOT
 70
     0
  3
____ . ____ . ____ . ____ . ____ . ____ . ____
 72
    65
 73
     4
 40
2.0
 49
1.0
 49
-0.5
 49
0.0
 49
-0.5
  0
LTYPE
  2
BYGG-022318$0$DASHDOT
 70
     0
  3
__ . __ . __ . __ . __ . __ . __ . __ . __ . __
 72
    65
 73
     4
 40
1.0
 49
0.5
 49
-0.25
 49
0.0
 49
-0.25
  0
LTYPE
  2
BYGG-022318$0$DASHED
 70
     0
  3
__ __ __ __ __ __ __ __ __ __ __ __ __ __ __
 72
    65
 73
     2
 40
0.75
 49
0.5
 49
-0.25
  0
LTYPE
  2
BYGG-022318$0$PHANTOM
 70
     0
  3
Phantom ______  __  __  ______  __  __  ______
 72
    65
 73
     6
 40
63.5
 49
31.75
 49
-6.3499999999999988
 49
6.3499999999999988
 49
-6.3499999999999988
 49
6.3499999999999988
 49
-6.3499999999999988
  0
LTYPE
  2
BYGG-014881$0$NEWDOT
 70
     0
  3
____ . ____ . ____ . ____ . ____ . ____ . ____
 72
    65
 73
     4
 40
2.0
 49
1.0
 49
-0.5
 49
0.0
 49
-0.5
  0
LTYPE
  2
BYGG-014203$0$ZIGZAG
 70
     0
  3
Zig zag /\/\/\/\/\/\/\/\/\/\/\/\/\/\/\/\/\/\/\/\/\/\/\/
 72
    65
 73
     4
 40
20.32254
 49
0.00254
 49
-5.0800000000000001
 49
-10.16
 49
-5.0800000000000001
  0
LTYPE
  2
BYGG-014203$0$NEWDOT
 70
     0
  3
____ . ____ . ____ . ____ . ____ . ____ . ____
 72
    65
 73
     4
 40
2.0
 49
1.0
 49
-0.5
 49
0.0
 49
-0.5
  0
LTYPE
  2
BYGG-014878$0$ZIGZAG
 70
     0
  3
Zig zag /\/\/\/\/\/\/\/\/\/\/\/\/\/\/\/\/\/\/\/\/\/\/\/
 72
    65
 73
     4
 40
20.32254
 49
0.00254
 49
-5.0800000000000001
 49
-10.16
 49
-5.0800000000000001
  0
LTYPE
  2
BYGG-014881$0$ZIGZAG
 70
     0
  3
Zig zag /\/\/\/\/\/\/\/\/\/\/\/\/\/\/\/\/\/\/\/\/\/\/\/
 72
    65
 73
     4
 40
20.32254
 49
0.00254
 49
-5.0800000000000001
 49
-10.16
 49
-5.0800000000000001
  0
ENDTAB
  0
TABLE
  2
LAYER
 70
    96
  0
LAYER
  2
0
 70
     0
 62
     7
  6
CONTINUOUS
  0
LAYER
  2
DEFPOINTS
 70
     0
 62
     7
  6
CONTINUOUS
  0
LAYER
  2
SAPA_MATT
 70
     0
 62
     1
  6
CONTINUOUS
  0
LAYER
  2
SAPA_ARTIKELNR
 70
     0
 62
     4
  6
CONTINUOUS
  0
LAYER
  2
SAPA_LIGHT
 70
     1
 62
     1
  6
CONTINUOUS
  0
LAYER
  2
SAPA_GLAS
 70
     0
 62
     4
  6
CONTINUOUS
  0
LAYER
  2
SAPA_FOGBAND
 70
     0
 62
     2
  6
CONTINUOUS
  0
LAYER
  2
SAPA_PROFIL
 70
     0
 62
     7
  6
CONTINUOUS
  0
ENDTAB
  0
TABLE
  2
STYLE
 70
    17
  0
STYLE
  2
STANDARD
 70
     0
 40
0.0
 41
1.0
 50
0.0
 71
     0
 42
0.2
  3
txt
  4

  0
STYLE
  2
ISO
 70
     0
 40
0.0
 41
1.0
 50
0.0
 71
     0
 42
3.5
  3
txt
  4

  0
STYLE
  2

 70
     1
 40
0.0
 41
1.0
 50
0.0
 71
     0
 42
0.2
  3
ltypeshp.shx
  4

  0
STYLE
  2
BYGG-021997$0$STANDARD
 70
     0
 40
0.0
 41
1.0
 50
0.0
 71
     0
 42
0.2
  3
txt
  4

  0
STYLE
  2
BYGG-021997$0$ISO
 70
     0
 40
0.0
 41
1.0
 50
0.0
 71
     0
 42
3.5
  3
txt
  4

  0
STYLE
  2
BYGG-014203$0$STANDARD
 70
     0
 40
0.0
 41
1.0
 50
0.0
 71
     0
 42
0.2
  3
txt
  4

  0
STYLE
  2
BYGG-014203$0$ISO
 70
     0
 40
0.0
 41
1.0
 50
0.0
 71
     0
 42
3.5
  3
isocp3.shx
  4

  0
STYLE
  2
BYGG-018921$0$STANDARD
 70
     0
 40
0.0
 41
1.0
 50
0.0
 71
     0
 42
0.2
  3
txt
  4

  0
STYLE
  2
BYGG-018921$0$ISO
 70
     0
 40
0.0
 41
1.0
 50
0.0
 71
     0
 42
3.5
  3
txt
  4

  0
STYLE
  2
BYGG-014878$0$STANDARD
 70
     0
 40
0.0
 41
1.0
 50
0.0
 71
     0
 42
0.2
  3
txt
  4

  0
STYLE
  2
BYGG-014878$0$ISO
 70
     0
 40
0.0
 41
1.0
 50
0.0
 71
     0
 42
3.5
  3
isocp3.shx
  4

  0
STYLE
  2
BYGG-022318$0$STANDARD
 70
     0
 40
0.0
 41
1.0
 50
0.0
 71
     0
 42
0.2
  3
txt
  4

  0
STYLE
  2
BYGG-022318$0$ISO
 70
     0
 40
0.0
 41
1.0
 50
0.0
 71
     0
 42
3.5
  3
txt
  4

  0
STYLE
  2
BYGG-014881$0$STANDARD
 70
     0
 40
0.0
 41
1.0
 50
0.0
 71
     0
 42
0.2
  3
txt
  4

  0
STYLE
  2
BYGG-014881$0$ISO
 70
     0
 40
0.0
 41
1.0
 50
0.0
 71
     0
 42
3.5
  3
isocp3.shx
  4

  0
STYLE
  2
BYGG-026033$0$STANDARD
 70
     0
 40
0.0
 41
1.0
 50
0.0
 71
     0
 42
0.2
  3
txt
  4

  0
STYLE
  2
BYGG-026033$0$ISO
 70
     0
 40
0.0
 41
1.0
 50
0.0
 71
     0
 42
3.5
  3
txt
  4

  0
ENDTAB
  0
TABLE
  2
VIEW
 70
     0
  0
ENDTAB
  0
TABLE
  2
UCS
 70
     0
  0
ENDTAB
  0
TABLE
  2
APPID
 70
    16
  0
APPID
  2
ACAD
 70
     0
  0
APPID
  2
ACAD_DSTYLE_DIMTEXT_FILL
 70
     0
  0
APPID
  2
ACAD_DSTYLE_DIMEXT_LENGTH
 70
     0
  0
APPID
  2
ACAD_DSTYLE_DIMEXT_ENABLED
 70
     0
  0
APPID
  2
ACAD_DSTYLE_DIM_LINETYPE
 70
     0
  0
APPID
  2
ACAD_DSTYLE_DIM_EXT1_LINETYPE
 70
     0
  0
APPID
  2
ACAD_DSTYLE_DIM_EXT2_LINETYPE
 70
     0
  0
APPID
  2
ACAD_DSTYLE_DIMJOGGED_JOGA
 70
     0
  0
APPID
  2
ACAD_DSTYLE_DIMARC_LENGTH_
 70
     0
  0
APPID
  2
ACAD_PSEXT
 70
     0
  0
APPID
  2
ACAD_MLEADERVER
 70
     0
  0
APPID
  2
ACAECLAYERSTANDARD
 70
     0
  0
APPID
  2
AMG_ARCHIVE11
 70
     0
  0
APPID
  2
ACAD_EXEMPT_FROM_CAD_STANDARDS
 70
     0
  0
APPID
  2
ACADANNOTATIVE
 70
     0
  0
APPID
  2
AEC_XDATA_BOUND_SPACE
 70
     0
  0
ENDTAB
  0
TABLE
  2
DIMSTYLE
 70
    13
  0
DIMSTYLE
  2
MASKIN
 70
     0
  3

  4

  5

  6

  7

 40
0.0
 41
3.0
 42
1.5
 43
10.0
 44
1.5
 45
0.0
 46
0.0
 47
0.0
 48
0.0
140
3.0
141
-5.0
142
0.0
143
25.399999999999999
144
-1.0
145
0.0
146
1.0
147
1.0
 71
     0
 72
     0
 73
     0
 74
     0
 75
     0
 76
     0
 77
     1
 78
     8
170
     0
171
     0
172
     1
173
     0
174
     0
175
     0
176
   256
177
   256
178
     2
  0
DIMSTYLE
  2
BYGG-021997$0$STANDARD
 70
     0
  3

  4

  5

  6

  7

 40
1.0
 41
0.18
 42
0.0625
 43
0.38
 44
0.18
 45
0.0
 46
0.0
 47
0.0
 48
0.0
140
0.18
141
0.09
142
0.0
143
25.399999999999999
144
1.0
145
0.0
146
1.0
147
0.09
 71
     0
 72
     0
 73
     1
 74
     1
 75
     0
 76
     0
 77
     0
 78
     0
170
     0
171
     2
172
     0
173
     0
174
     0
175
     0
176
     0
177
     0
178
     0
  0
DIMSTYLE
  2
BYGG-021997$0$MASKIN
 70
     0
  3

  4

  5

  6

  7

 40
0.0
 41
3.0
 42
1.5
 43
10.0
 44
1.5
 45
0.0
 46
0.0
 47
0.0
 48
0.0
140
3.0
141
-5.0
142
0.0
143
25.399999999999999
144
-1.0
145
0.0
146
1.0
147
1.0
 71
     0
 72
     0
 73
     0
 74
     0
 75
     0
 76
     0
 77
     1
 78
     8
170
     0
171
     0
172
     1
173
     0
174
     0
175
     0
176
   256
177
   256
178
     2
  0
DIMSTYLE
  2
BYGG-014203$0$STANDARD
 70
     0
  3

  4

  5

  6

  7

 40
1.0
 41
0.18
 42
0.0625
 43
0.38
 44
0.18
 45
0.0
 46
0.0
 47
0.0
 48
0.0
140
0.18
141
0.09
142
0.0
143
25.399999999999999
144
1.0
145
0.0
146
1.0
147
0.09
 71
     0
 72
     0
 73
     1
 74
     1
 75
     0
 76
     0
 77
     0
 78
     0
170
     0
171
     2
172
     0
173
     0
174
     0
175
     0
176
     0
177
     0
178
     0
  0
DIMSTYLE
  2
BYGG-014203$0$MASKIN
 70
     0
  3

  4

  5

  6

  7

 40
0.0
 41
3.0
 42
1.5
 43
10.0
 44
1.5
 45
0.0
 46
0.0
 47
0.0
 48
0.0
140
3.0
141
-5.0
142
0.0
143
25.399999999999999
144
-1.0
145
0.0
146
1.0
147
1.0
 71
     0
 72
     0
 73
     0
 74
     0
 75
     0
 76
     0
 77
     1
 78
     8
170
     0
171
     0
172
     1
173
     0
174
     0
175
     0
176
   256
177
   256
178
   256
  0
DIMSTYLE
  2
BYGG-018921$0$MASKIN
 70
     0
  3

  4

  5

  6

  7

 40
0.0
 41
3.0
 42
1.5
 43
10.0
 44
1.5
 45
0.0
 46
0.0
 47
0.0
 48
0.0
140
3.0
141
-5.0
142
0.0
143
25.399999999999999
144
-1.0
145
0.0
146
1.0
147
1.0
 71
     0
 72
     0
 73
     0
 74
     0
 75
     0
 76
     0
 77
     1
 78
     8
170
     0
171
     0
172
     1
173
     0
174
     0
175
     0
176
   256
177
   256
178
     2
  0
DIMSTYLE
  2
BYGG-014878$0$MASKIN
 70
     0
  3

  4

  5

  6

  7

 40
0.0
 41
3.0
 42
1.5
 43
10.0
 44
1.5
 45
0.0
 46
0.0
 47
0.0
 48
0.0
140
3.0
141
-5.0
142
0.0
143
25.399999999999999
144
-1.0
145
0.0
146
1.0
147
1.0
 71
     0
 72
     0
 73
     0
 74
     0
 75
     0
 76
     0
 77
     1
 78
     8
170
     0
171
     0
172
     1
173
     0
174
     0
175
     0
176
   256
177
   256
178
   256
  0
DIMSTYLE
  2
BYGG-014878$0$STANDARD
 70
     0
  3

  4

  5

  6

  7

 40
1.0
 41
0.18
 42
0.0625
 43
0.38
 44
0.18
 45
0.0
 46
0.0
 47
0.0
 48
0.0
140
0.18
141
0.09
142
0.0
143
25.399999999999999
144
1.0
145
0.0
146
1.0
147
0.09
 71
     0
 72
     0
 73
     1
 74
     1
 75
     0
 76
     0
 77
     0
 78
     0
170
     0
171
     2
172
     0
173
     0
174
     0
175
     0
176
     0
177
     0
178
     0
  0
DIMSTYLE
  2
BYGG-022318$0$STANDARD
 70
     0
  3

  4

  5

  6

  7

 40
1.0
 41
0.18
 42
0.0625
 43
0.38
 44
0.18
 45
0.0
 46
0.0
 47
0.0
 48
0.0
140
0.18
141
0.09
142
0.0
143
25.399999999999999
144
1.0
145
0.0
146
1.0
147
0.09
 71
     0
 72
     0
 73
     1
 74
     1
 75
     0
 76
     0
 77
     0
 78
     0
170
     0
171
     2
172
     0
173
     0
174
     0
175
     0
176
     0
177
     0
178
     0
  0
DIMSTYLE
  2
BYGG-022318$0$MASKIN
 70
     0
  3

  4

  5

  6

  7

 40
0.0
 41
3.0
 42
1.5
 43
10.0
 44
1.5
 45
0.0
 46
0.0
 47
0.0
 48
0.0
140
3.0
141
-5.0
142
0.0
143
25.399999999999999
144
-1.0
145
0.0
146
1.0
147
1.0
 71
     0
 72
     0
 73
     0
 74
     0
 75
     0
 76
     0
 77
     1
 78
     8
170
     0
171
     0
172
     1
173
     0
174
     0
175
     0
176
   256
177
   256
178
     2
  0
DIMSTYLE
  2
BYGG-014881$0$MASKIN
 70
     0
  3

  4

  5

  6

  7

 40
0.0
 41
3.0
 42
1.5
 43
10.0
 44
1.5
 45
0.0
 46
0.0
 47
0.0
 48
0.0
140
3.0
141
-5.0
142
0.0
143
25.399999999999999
144
-1.0
145
0.0
146
1.0
147
1.0
 71
     0
 72
     0
 73
     0
 74
     0
 75
     0
 76
     0
 77
     1
 78
     8
170
     0
171
     0
172
     1
173
     0
174
     0
175
     0
176
   256
177
   256
178
   256
  0
DIMSTYLE
  2
BYGG-014881$0$STANDARD
 70
     0
  3

  4

  5

  6

  7

 40
1.0
 41
0.18
 42
0.0625
 43
0.38
 44
0.18
 45
0.0
 46
0.0
 47
0.0
 48
0.0
140
0.18
141
0.09
142
0.0
143
25.399999999999999
144
1.0
145
0.0
146
1.0
147
0.09
 71
     0
 72
     0
 73
     1
 74
     1
 75
     0
 76
     0
 77
     0
 78
     0
170
     0
171
     2
172
     0
173
     0
174
     0
175
     0
176
     0
177
     0
178
     0
  0
DIMSTYLE
  2
BYGG-026033$0$MASKIN
 70
     0
  3

  4

  5

  6

  7

 40
0.0
 41
3.0
 42
1.5
 43
10.0
 44
1.5
 45
0.0
 46
0.0
 47
0.0
 48
0.0
140
3.0
141
-5.0
142
0.0
143
25.399999999999999
144
-1.0
145
0.0
146
1.0
147
1.0
 71
     0
 72
     0
 73
     0
 74
     0
 75
     0
 76
     0
 77
     1
 78
     8
170
     0
171
     0
172
     1
173
     0
174
     0
175
     0
176
   256
177
   256
178
     2
  0
ENDTAB
  0
ENDSEC
  0
SECTION
  2
BLOCKS
  0
BLOCK
  8
0
  2
$MODEL_SPACE
 70
     0
 10
0.0
 20
0.0
 30
0.0
  3
$MODEL_SPACE
  1

  0
ENDBLK
  5
37
  8
0
  0
BLOCK
 67
     1
  8
0
  2
$PAPER_SPACE
 70
     0
 10
0.0
 20
0.0
 30
0.0
  3
$PAPER_SPACE
  1

  0
ENDBLK
  5
35
 67
     1
  8
0
  0
BLOCK
  8
0
  2
*D45
 70
     1
 10
0.0
 20
0.0
 30
0.0
  3
*D45
  1

  0
LINE
  5
C3B
  8
SAPA_MATT
 10
41.875735931287771
 20
0.7999999999998977
 30
0.0
 11
41.875735931287771
 21
-19.500000000000071
 31
0.0
  0
LINE
  5
C3C
  8
SAPA_MATT
 10
115.87573593128771
 20
0.8000000000000646
 30
0.0
 11
115.87573593128771
 21
-19.500000000000071
 31
0.0
  0
LINE
  5
C3D
  8
SAPA_MATT
 10
44.875735931287778
 20
-18.000000000000071
 30
0.0
 11
112.87573593128771
 21
-18.000000000000071
 31
0.0
  0
SOLID
  5
C3E
  8
SAPA_MATT
 10
44.875735931287778
 20
-17.500000000000071
 30
0.0
 11
44.875735931287778
 21
-18.50000000000006
 31
0.0
 12
41.875735931287771
 22
-18.000000000000071
 32
0.0
 13
41.875735931287771
 23
-18.000000000000071
 33
0.0
  0
SOLID
  5
C3F
  8
SAPA_MATT
 10
112.87573593128771
 20
-17.500000000000071
 30
0.0
 11
112.87573593128771
 21
-18.50000000000006
 31
0.0
 12
115.87573593128771
 22
-18.000000000000071
 32
0.0
 13
115.87573593128771
 23
-18.000000000000071
 33
0.0
  0
INSERT
  5
C40
  8
0
  2
*U72
 10
0.0
 20
0.0
 30
0.0
  0
POINT
  5
C41
  8
DEFPOINTS
 62
     0
 10
41.875735931287771
 20
2.2999999999998968
 30
0.0
  0
POINT
  5
C42
  8
DEFPOINTS
 62
     0
 10
115.87573593128771
 20
2.3000000000000642
 30
0.0
  0
POINT
  5
C43
  8
DEFPOINTS
 62
     0
 10
115.87573593128771
 20
-18.000000000000071
 30
0.0
  0
ENDBLK
  5
BEE
  8
0
  0
BLOCK
  8
0
  2
*D46
 70
     1
 10
0.0
 20
0.0
 30
0.0
  3
*D46
  1

  0
LINE
  5
174B
  8
SAPA_MATT
 10
41.875735931287771
 20
0.7999999999998977
 30
0.0
 11
41.875735931287771
 21
-19.50000000000005
 31
0.0
  0
LINE
  5
174C
  8
SAPA_MATT
 10
36.875735931288013
 20
1.500000000000056
 30
0.0
 11
36.875735931288013
 21
-19.50000000000005
 31
0.0
  0
LINE
  5
174D
  8
SAPA_MATT
 10
44.875735931287778
 20
-18.00000000000005
 30
0.0
 11
47.875735931287778
 21
-18.00000000000005
 31
0.0
  0
LINE
  5
174E
  8
SAPA_MATT
 10
33.875735931288013
 20
-18.00000000000005
 30
0.0
 11
30.875735931288009
 21
-18.00000000000005
 31
0.0
  0
LINE
  5
174F
  8
SAPA_MATT
 10
41.875735931287771
 20
-18.00000000000005
 30
0.0
 11
36.875735931288013
 21
-18.00000000000005
 31
0.0
  0
SOLID
  5
1750
  8
SAPA_MATT
 10
44.875735931287778
 20
-17.50000000000005
 30
0.0
 11
44.875735931287778
 21
-18.50000000000005
 31
0.0
 12
41.875735931287771
 22
-18.00000000000005
 32
0.0
 13
41.875735931287771
 23
-18.00000000000005
 33
0.0
  0
SOLID
  5
1751
  8
SAPA_MATT
 10
33.875735931288013
 20
-17.50000000000005
 30
0.0
 11
33.875735931288013
 21
-18.50000000000005
 31
0.0
 12
36.875735931288013
 22
-18.00000000000005
 32
0.0
 13
36.875735931288013
 23
-18.00000000000005
 33
0.0
  0
TEXT
  8
SAPA_MATT
  40
3
  5
175E
  62
2
  72
0
  71
0
 10
33.3757
 20
-20.8100
 30
0.000000
  1
5
  7
ISO
  0
POINT
  5
1753
  8
DEFPOINTS
 62
     0
 10
41.875735931287771
 20
2.2999999999998968
 30
0.0
  0
POINT
  5
1754
  8
DEFPOINTS
 62
     0
 10
36.875735931288013
 20
3.000000000000056
 30
0.0
  0
POINT
  5
1755
  8
DEFPOINTS
 62
     0
 10
36.875735931288013
 20
-18.00000000000005
 30
0.0
  0
ENDBLK
  5
BFA
  8
0
  0
BLOCK
  8
0
  2
*D47
 70
     1
 10
0.0
 20
0.0
 30
0.0
  3
*D47
  1

  0
LINE
  5
1742
  8
SAPA_MATT
 10
36.875735931288013
 20
1.500000000000056
 30
0.0
 11
36.875735931288013
 21
-19.500000000000099
 31
0.0
  0
LINE
  5
1743
  8
SAPA_MATT
 10
-0.6242640687118809
 20
1.5000000000000711
 30
0.0
 11
-0.6242640687118822
 21
-19.500000000000099
 31
0.0
  0
LINE
  5
1744
  8
SAPA_MATT
 10
33.875735931288013
 20
-18.000000000000099
 30
0.0
 11
2.375735931288117
 21
-18.000000000000099
 31
0.0
  0
SOLID
  5
1745
  8
SAPA_MATT
 10
33.875735931288013
 20
-17.500000000000099
 30
0.0
 11
33.875735931288013
 21
-18.500000000000099
 31
0.0
 12
36.875735931288013
 22
-18.000000000000099
 32
0.0
 13
36.875735931288013
 23
-18.000000000000099
 33
0.0
  0
SOLID
  5
1746
  8
SAPA_MATT
 10
2.375735931288117
 20
-17.500000000000099
 30
0.0
 11
2.375735931288117
 21
-18.500000000000099
 31
0.0
 12
-0.6242640687118822
 22
-18.000000000000099
 32
0.0
 13
-0.6242640687118822
 23
-18.000000000000099
 33
0.0
  0
TEXT
  8
SAPA_MATT
  40
3
  5
175F
  62
2
  72
0
  71
0
 10
12.1257
 20
-20.8100
 30
0.000000
  1
37.5
  7
ISO
  0
POINT
  5
1748
  8
DEFPOINTS
 62
     0
 10
36.875735931288013
 20
3.000000000000056
 30
0.0
  0
POINT
  5
1749
  8
DEFPOINTS
 62
     0
 10
-0.6242640687118808
 20
3.0000000000000711
 30
0.0
  0
POINT
  5
174A
  8
DEFPOINTS
 62
     0
 10
-0.6242640687118822
 20
-18.000000000000099
 30
0.0
  0
ENDBLK
  5
C08
  8
0
  0
BLOCK
  8
0
  2
*D48
 70
     1
 10
0.0
 20
0.0
 30
0.0
  3
*D48
  1

  0
LINE
  5
C1E
  8
SAPA_MATT
 10
115.87573593128771
 20
-19.500000000000071
 30
0.0
 11
115.87573593128771
 21
-29.500000000000039
 31
0.0
  0
LINE
  5
C1F
  8
SAPA_MATT
 10
-0.6242640687118951
 20
-19.500000000000039
 30
0.0
 11
-0.6242640687118957
 21
-29.500000000000039
 31
0.0
  0
LINE
  5
C20
  8
SAPA_MATT
 10
112.87573593128771
 20
-28.000000000000039
 30
0.0
 11
2.3757359312881041
 21
-28.000000000000039
 31
0.0
  0
SOLID
  5
C21
  8
SAPA_MATT
 10
112.87573593128771
 20
-27.500000000000039
 30
0.0
 11
112.87573593128771
 21
-28.500000000000039
 31
0.0
 12
115.87573593128771
 22
-28.000000000000039
 32
0.0
 13
115.87573593128771
 23
-28.000000000000039
 33
0.0
  0
SOLID
  5
C22
  8
SAPA_MATT
 10
2.3757359312881041
 20
-27.500000000000039
 30
0.0
 11
2.3757359312881041
 21
-28.500000000000039
 31
0.0
 12
-0.6242640687118957
 22
-28.000000000000039
 32
0.0
 13
-0.6242640687118957
 23
-28.000000000000039
 33
0.0
  0
INSERT
  5
C23
  8
0
  2
*U71
 10
0.0
 20
0.0
 30
0.0
  0
POINT
  5
C24
  8
DEFPOINTS
 62
     0
 10
115.87573593128771
 20
-18.000000000000071
 30
0.0
  0
POINT
  5
C25
  8
DEFPOINTS
 62
     0
 10
-0.624264068711895
 20
-18.000000000000039
 30
0.0
  0
POINT
  5
C26
  8
DEFPOINTS
 62
     0
 10
-0.6242640687118957
 20
-28.000000000000039
 30
0.0
  0
ENDBLK
  5
C14
  8
0
  0
BLOCK
  8
0
  2
*U49
 70
     1
 10
0.0
 20
0.0
 30
0.0
  3
*U49
  1

  0
TEXT
  5
C63
  8
0
 62
     2
 10
38.325735931287902
 20
-17.00000000000005
 30
0.0
 40
3.0
  1
5
  7
ISO
  0
ENDBLK
  5
C65
  8
0
  0
BLOCK
  8
0
  2
*U50
 70
     1
 10
0.0
 20
0.0
 30
0.0
  3
*U50
  1

  0
TEXT
  5
C67
  8
0
 62
     2
 10
14.525735931288059
 20
-17.000000000000099
 30
0.0
 40
3.0
  1
37.5
  7
ISO
  0
ENDBLK
  5
C69
  8
0
  0
BLOCK
  8
0
  2
*U51
 70
     1
 10
0.0
 20
0.0
 30
0.0
  3
*U51
  1

  0
TEXT
  5
C6B
  8
0
 62
     2
 10
53.575735931287937
 20
-27.00000000000005
 30
0.0
 40
3.0
  1
116.5
  7
ISO
  0
ENDBLK
  5
C6D
  8
0
  0
BLOCK
  8
0
  2
*U52
 70
     1
 10
0.0
 20
0.0
 30
0.0
  3
*U52
  1

  0
TEXT
  5
C96
  8
0
 62
     2
 10
76.625735931287778
 20
-17.000000000000071
 30
0.0
 40
3.0
  1
74
  7
ISO
  0
ENDBLK
  5
C98
  8
0
  0
BLOCK
  8
0
  2
*U53
 70
     1
 10
0.0
 20
0.0
 30
0.0
  3
*U53
  1

  0
TEXT
  5
E19
  8
0
 10
270.93920250063343
 20
387.08892739371998
 30
0.0
 40
3.0
  1
22
 50
90.0
  7
BYGG-014203$0$ISO
  0
ENDBLK
  5
E1B
  8
0
  0
BLOCK
  8
0
  2
*U54
 70
     1
 10
0.0
 20
0.0
 30
0.0
  3
*U54
  1

  0
TEXT
  5
E1D
  8
0
 10
243.50583563664401
 20
408.3346351471406
 30
0.0
 40
3.0
  1
29
  7
BYGG-014203$0$ISO
  0
ENDBLK
  5
E1F
  8
0
  0
BLOCK
  8
0
  2
*U55
 70
     1
 10
0.0
 20
0.0
 30
0.0
  3
*U55
  1

  0
TEXT
  5
F18
  8
0
 10
81.417346958671715
 20
29.082626421487749
 30
0.0
 40
3.0
  1
59.5
 50
90.0
  7
BYGG-014878$0$ISO
  0
ENDBLK
  5
F1A
  8
0
  0
BLOCK
  8
0
  2
*U56
 70
     1
 10
0.0
 20
0.0
 30
0.0
  3
*U56
  1

  0
TEXT
  5
F1C
  8
0
 10
33.58786785760504
 20
-7.5905416883964838
 30
0.0
 40
3.0
  1
70.5
  7
BYGG-014878$0$ISO
  0
ENDBLK
  5
F1E
  8
0
  0
BLOCK
  8
0
  2
*U57
 70
     1
 10
0.0
 20
0.0
 30
0.0
  3
*U57
  1

  0
TEXT
  5
10A6
  8
0
 10
83.421780471852102
 20
26.694326809953662
 30
0.0
 40
3.0
  1
50
 50
90.0
  7
BYGG-014881$0$ISO
  0
ENDBLK
  5
10A8
  8
0
  0
BLOCK
  8
0
  2
*U58
 70
     1
 10
0.0
 20
0.0
 30
0.0
  3
*U58
  1

  0
TEXT
  5
10AA
  8
0
 10
39.189866930977992
 20
65.097244303861487
 30
0.0
 40
3.0
  1
30
  7
BYGG-014881$0$ISO
  0
ENDBLK
  5
10AC
  8
0
  0
BLOCK
  8
0
  2
*U59
 70
     1
 10
0.0
 20
0.0
 30
0.0
  3
*U59
  1

  0
TEXT
  5
10AE
  8
0
 10
39.041048033340132
 20
-6.5980442424530921
 30
0.0
 40
3.0
  1
74
  7
BYGG-014881$0$ISO
  0
ENDBLK
  5
10B0
  8
0
  0
BLOCK
  8
0
  2
*U60
 70
     1
 10
0.0
 20
0.0
 30
0.0
  3
*U60
  1

  0
LINE
  5
10B2
  8
0
 10
4.091157769927662
 20
10.23929630332219
 30
0.0
 11
24.10681954502726
 21
10.23929630332219
 31
0.0
  0
LINE
  5
10B3
  8
0
 10
24.10681954502726
 20
10.23929630332219
 30
0.0
 11
24.10681954502726
 21
53.537172031793432
 31
0.0
  0
LINE
  5
10B4
  8
0
 10
4.091157769927662
 20
9.2392963033221918
 30
0.0
 11
25.106819545027271
 21
9.2392963033221918
 31
0.0
  0
LINE
  5
10B5
  8
0
 10
25.106819545027271
 20
9.2392963033221918
 30
0.0
 11
25.106819545027271
 21
53.537172031793432
 31
0.0
  0
ENDBLK
  5
10B7
  8
0
  0
BLOCK
  8
0
  2
*U61
 70
     1
 10
0.0
 20
0.0
 30
0.0
  3
*U61
  1

  0
LINE
  5
10B9
  8
0
 10
78.49093829675266
 20
10.23929630332219
 30
0.0
 11
58.475276521653058
 21
10.23929630332219
 31
0.0
  0
LINE
  5
10BA
  8
0
 10
58.475276521653058
 20
10.23929630332219
 30
0.0
 11
58.475276521653058
 21
53.537172031793432
 31
0.0
  0
LINE
  5
10BB
  8
0
 10
78.49093829675266
 20
9.2392963033221882
 30
0.0
 11
57.475276521653058
 21
9.2392963033221882
 31
0.0
  0
LINE
  5
10BC
  8
0
 10
57.475276521653058
 20
9.2392963033221882
 30
0.0
 11
57.475276521653058
 21
53.537172031793432
 31
0.0
  0
ENDBLK
  5
10BE
  8
0
  0
BLOCK
  8
0
  2
*U62
 70
     1
 10
0.0
 20
0.0
 30
0.0
  3
*U62
  1

  0
TEXT
  5
111B
  8
0
 10
78.793082997998795
 20
28.08262646990261
 30
0.0
 40
3.0
  1
59.5
 50
90.0
  7
BYGG-014878$0$ISO
  0
ENDBLK
  5
111D
  8
0
  0
BLOCK
  8
0
  2
*U63
 70
     1
 10
0.0
 20
0.0
 30
0.0
  3
*U63
  1

  0
TEXT
  5
111F
  8
0
 10
30.963603896932131
 20
-8.5905416399816374
 30
0.0
 40
3.0
  1
70.5
  7
BYGG-014878$0$ISO
  0
ENDBLK
  5
1121
  8
0
  0
BLOCK
  8
0
  2
*U64
 70
     1
 10
0.0
 20
0.0
 30
0.0
  3
*U64
  1

  0
TEXT
  5
1123
  8
0
 10
121.0064683697998
 20
24.898818897637899
 30
0.0
 40
3.0
  1
50
 50
90.0
  7
BYGG-014881$0$ISO
  0
ENDBLK
  5
1125
  8
0
  0
BLOCK
  8
0
  2
*U65
 70
     1
 10
0.0
 20
0.0
 30
0.0
  3
*U65
  1

  0
TEXT
  5
1127
  8
0
 10
76.774554828925673
 20
63.301736391545717
 30
0.0
 40
3.0
  1
30
  7
BYGG-014881$0$ISO
  0
ENDBLK
  5
1129
  8
0
  0
BLOCK
  8
0
  2
*U66
 70
     1
 10
0.0
 20
0.0
 30
0.0
  3
*U66
  1

  0
TEXT
  5
112B
  8
0
 10
76.625735931287821
 20
-8.3935521547688623
 30
0.0
 40
3.0
  1
74
  7
BYGG-014881$0$ISO
  0
ENDBLK
  5
112D
  8
0
  0
BLOCK
  8
0
  2
*U67
 70
     1
 10
0.0
 20
0.0
 30
0.0
  3
*U67
  1

  0
TEXT
  5
112F
  8
0
 10
107.29475465483451
 20
62.761472082175828
 30
0.0
 40
3.0
  1
22
 50
180.0
  7
BYGG-014203$0$ISO
  0
ENDBLK
  5
1131
  8
0
  0
BLOCK
  8
0
  2
*U68
 70
     1
 10
0.0
 20
0.0
 30
0.0
  3
*U68
  1

  0
TEXT
  5
1133
  8
0
 10
122.23587579408201
 20
35.328105218186529
 30
0.0
 40
3.0
  1
29
 50
90.000000000000028
  7
BYGG-014203$0$ISO
  0
ENDBLK
  5
1135
  8
0
  0
BLOCK
  8
0
  2
*U69
 70
     1
 10
0.0
 20
0.0
 30
0.0
  3
*U69
  1

  0
TEXT
  5
1137
  8
0
 10
7.9567172077392589
 20
59.761472082175892
 30
0.0
 40
3.0
  1
22
  7
BYGG-014203$0$ISO
  0
ENDBLK
  5
1139
  8
0
  0
BLOCK
  8
0
  2
*U70
 70
     1
 10
0.0
 20
0.0
 30
0.0
  3
*U70
  1

  0
TEXT
  5
113B
  8
0
 10
-8.9849944826892951
 20
35.328105218186622
 30
0.0
 40
3.0
  1
29
 50
90.0
  7
BYGG-014203$0$ISO
  0
ENDBLK
  5
113D
  8
0
  0
BLOCK
  8
0
  2
*U71
 70
     1
 10
0.0
 20
0.0
 30
0.0
  3
*U71
  1

  0
TEXT
  5
1757
  8
SAPA_MATT
 62
     2
 10
53.575735931287937
 20
-27.00000000000005
 30
0.0
 40
3.0
  1
116.5
  7
ISO
  0
ENDBLK
  5
1759
  8
0
  0
BLOCK
  8
0
  2
*U72
 70
     1
 10
0.0
 20
0.0
 30
0.0
  3
*U72
  1

  0
TEXT
  5
175B
  8
SAPA_MATT
 62
     2
 10
76.625735931287778
 20
-17.000000000000071
 30
0.0
 40
3.0
  1
74
  7
ISO
  0
ENDBLK
  5
175D
  8
0
  0
ENDSEC
  0
SECTION
  2
ENTITIES
  0
TEXT
  5
789
  8
SAPA_ARTIKELNR
 10
0.3993587114199641
 20
55.282253949027961
 30
0.0
 40
3.5
  1
42077
  7
ISO
  0
TEXT
  5
78A
  8
SAPA_ARTIKELNR
 10
72.551185167584464
 20
54.680394809403118
 30
0.0
 40
3.4999999999999991
  1
68903
 50
0.0000079034017515
  7
ISO
  0
TEXT
  5
791
  8
SAPA_ARTIKELNR
 10
38.484006750144651
 20
63.983947938761681
 30
0.0
 40
3.5
  1
68810
  7
ISO
  0
TEXT
  5
86C
  8
SAPA_ARTIKELNR
 10
95.287355231120003
 20
55.282253949027762
 30
0.0
 40
3.5
  1
42077
  7
ISO
  0
POLYLINE
  5
8AD
  8
SAPA_LIGHT
 66
     1
 10
0.0
 20
0.0
 30
0.0
  0
VERTEX
  5
C6E
  8
SAPA_LIGHT
 10
-12.424264068711951
 20
16.400000000000389
 30
0.0
  0
VERTEX
  5
C6F
  8
SAPA_LIGHT
 10
16.375735931288119
 20
16.400000000000169
 30
0.0
  0
VERTEX
  5
C70
  8
SAPA_LIGHT
 10
16.375735931288119
 20
10.400000000000171
 30
0.0
  0
VERTEX
  5
C71
  8
SAPA_LIGHT
 10
-12.424264068711951
 20
10.400000000000171
 30
0.0
  0
VERTEX
  5
C72
  8
SAPA_LIGHT
 10
-12.424264068711951
 20
16.400000000000389
 30
0.0
  0
SEQEND
  5
C73
  8
SAPA_LIGHT
  0
POLYLINE
  5
8AE
  8
SAPA_LIGHT
 66
     1
 10
0.0
 20
0.0
 30
0.0
  0
VERTEX
  5
C74
  8
SAPA_LIGHT
 10
98.875735931287764
 20
16.400000000000091
 30
0.0
  0
VERTEX
  5
C75
  8
SAPA_LIGHT
 10
127.6757359312878
 20
16.400000000000318
 30
0.0
  0
VERTEX
  5
C76
  8
SAPA_LIGHT
 10
127.6757359312878
 20
10.400000000000089
 30
0.0
  0
VERTEX
  5
C77
  8
SAPA_LIGHT
 10
98.875735931287764
 20
10.400000000000089
 30
0.0
  0
VERTEX
  5
C78
  8
SAPA_LIGHT
 10
98.875735931287764
 20
16.400000000000091
 30
0.0
  0
SEQEND
  5
C79
  8
SAPA_LIGHT
  0
POLYLINE
  5
8C0
  8
SAPA_LIGHT
 66
     1
 10
0.0
 20
0.0
 30
0.0
  0
VERTEX
  5
C7A
  8
SAPA_LIGHT
 10
-0.6242640687119092
 20
10.400000000000171
 30
0.0
  0
VERTEX
  5
C7B
  8
SAPA_LIGHT
 10
-0.6242640687119092
 20
2.0
 30
0.0
  0
VERTEX
  5
C7C
  8
SAPA_LIGHT
 10
36.875735931288091
 20
2.0
 30
0.0
  0
VERTEX
  5
C7D
  8
SAPA_LIGHT
 10
36.875735931288091
 20
7.4500000000001023
 30
0.0
  0
VERTEX
  5
C7E
  8
SAPA_LIGHT
 10
40.038565931288083
 20
7.4500000000000446
 30
0.0
  0
VERTEX
  5
C7F
  8
SAPA_LIGHT
 10
43.875735931288077
 20
8.3499996340518745
 30
0.0
  0
VERTEX
  5
C80
  8
SAPA_LIGHT
 10
43.875735931288091
 20
19.3363849056825
 30
0.0
  0
VERTEX
  5
C81
  8
SAPA_LIGHT
 10
52.375735931288098
 20
23.299999999999969
 30
0.0
  0
VERTEX
  5
C82
  8
SAPA_LIGHT
 10
52.375735931287977
 20
51.999999999999851
 30
0.0
  0
VERTEX
  5
C83
  8
SAPA_LIGHT
 10
69.875735931288091
 20
52.000000000000242
 30
0.0
  0
VERTEX
  5
C84
  8
SAPA_LIGHT
 10
69.875735931288091
 20
61.49999999999995
 30
0.0
  0
VERTEX
  5
C85
  8
SAPA_LIGHT
 10
26.860563442011671
 20
61.499999999999943
 30
0.0
  0
VERTEX
  5
C86
  8
SAPA_LIGHT
 10
21.37573520742875
 20
51.999999999999957
 30
0.0
  0
VERTEX
  5
C87
  8
SAPA_LIGHT
 10
-0.6242640687141805
 20
52.000000000000092
 30
0.0
  0
VERTEX
  5
C88
  8
SAPA_LIGHT
 10
-0.6242640687144601
 20
16.400000000000301
 30
0.0
  0
SEQEND
  5
C89
  8
SAPA_LIGHT
  0
LINE
  5
8C6
  8
SAPA_LIGHT
 10
41.875735931287878
 20
6.2000000000000446
 30
0.0
 11
41.875735931287878
 21
2.3000000000000691
 31
0.0
  0
LINE
  5
8C7
  8
SAPA_LIGHT
 10
41.875735931287878
 20
6.2000000000000446
 30
0.0
 11
41.875735931287878
 21
2.3000000000000691
 31
0.0
  0
POLYLINE
  5
8CE
  8
SAPA_LIGHT
 66
     1
 10
0.0
 20
0.0
 30
0.0
  0
VERTEX
  5
C8A
  8
SAPA_LIGHT
 10
115.87573593129029
 20
16.400000000000219
 30
0.0
  0
VERTEX
  5
C8B
  8
SAPA_LIGHT
 10
115.87573593129
 20
52.0
 30
0.0
  0
VERTEX
  5
C8C
  8
SAPA_LIGHT
 10
63.875735931287871
 20
52.000000000000107
 30
0.0
  0
VERTEX
  5
C8D
  8
SAPA_LIGHT
 10
63.875735931287878
 20
49.124264068711902
 30
0.0
  0
VERTEX
  5
C8E
  8
SAPA_LIGHT
 10
63.875735931288538
 20
6.5000000000004272
 30
0.0
  0
VERTEX
  5
C8F
  8
SAPA_LIGHT
 10
43.44328039926161
 20
6.5000000000001128
 30
0.0
  0
VERTEX
  5
C90
  8
SAPA_LIGHT
 10
41.875735931287878
 20
6.5000000000000444
 30
0.0
  0
VERTEX
  5
C91
  8
SAPA_LIGHT
 10
41.875735931287871
 20
2.0000000000000582
 30
0.0
  0
VERTEX
  5
C92
  8
SAPA_LIGHT
 10
115.87573593128771
 20
2.0000000000000528
 30
0.0
  0
VERTEX
  5
C93
  8
SAPA_LIGHT
 10
115.87573593128771
 20
10.400000000000089
 30
0.0
  0
SEQEND
  5
C94
  8
SAPA_LIGHT
  0
POLYLINE
  5
BB5
  8
SAPA_PROFIL
 66
     1
 10
0.0
 20
0.0
 30
0.0
  0
VERTEX
  5
1337
  8
SAPA_PROFIL
 10
18.496999009734001
 20
35.678444819366518
 30
0.0
  0
VERTEX
  5
1338
  8
SAPA_PROFIL
 10
1.375735931283657
 20
34.997404885508217
 30
0.0
 42
-0.4142135623730951
  0
VERTEX
  5
1339
  8
SAPA_PROFIL
 10
0.875735931283657
 20
35.497404885508217
 30
0.0
  0
VERTEX
  5
133A
  8
SAPA_PROFIL
 10
0.8757359312837139
 20
47.297018368516937
 30
0.0
 42
-0.4076767287637263
  0
VERTEX
  5
133B
  8
SAPA_PROFIL
 10
3.8086322821006311
 20
50.296268200906468
 30
0.0
  0
VERTEX
  5
133C
  8
SAPA_PROFIL
 10
18.496999009734001
 20
50.450707423017263
 30
0.0
 42
-0.4182129759575463
  0
VERTEX
  5
133D
  8
SAPA_PROFIL
 10
19.008160121789501
 20
49.955195702160097
 30
0.0
  0
VERTEX
  5
133E
  8
SAPA_PROFIL
 10
19.020987723315208
 20
47.480547946040751
 30
0.0
  0
VERTEX
  5
133F
  8
SAPA_PROFIL
 10
20.675676320939029
 20
45.854489989847188
 30
0.0
  0
VERTEX
  5
1340
  8
SAPA_PROFIL
 10
25.224752355227231
 20
45.854489989847188
 30
0.0
 42
0.4293387945586749
  0
VERTEX
  5
1341
  8
SAPA_PROFIL
 10
25.52147887631174
 20
46.172601125836529
 30
0.0
  0
VERTEX
  5
1342
  8
SAPA_PROFIL
 10
25.448839200184011
 20
47.254056851107002
 30
0.0
 42
0.4883397947196161
  0
VERTEX
  5
1343
  8
SAPA_PROFIL
 10
23.887117374175659
 20
47.033433916908791
 30
0.0
  0
VERTEX
  5
1344
  8
SAPA_PROFIL
 10
21.188036098141261
 20
47.033433916908791
 30
0.0
  0
VERTEX
  5
1345
  8
SAPA_PROFIL
 10
20.216604451765139
 20
47.98805713710663
 30
0.0
  0
VERTEX
  5
1346
  8
SAPA_PROFIL
 10
20.216604451765139
 20
50.487183279991712
 30
0.0
  0
VERTEX
  5
1347
  8
SAPA_PROFIL
 10
20.690380118280022
 20
50.487183279991712
 30
0.0
  0
VERTEX
  5
1348
  8
SAPA_PROFIL
 10
20.690380118280022
 20
51.999999999999943
 30
0.0
  0
VERTEX
  5
1349
  8
SAPA_PROFIL
 10
-0.3269047754084227
 20
52.000000000000057
 30
0.0
 42
0.4116378201539302
  0
VERTEX
  5
134A
  8
SAPA_PROFIL
 10
-0.6242640687162862
 20
51.700011522329703
 30
0.0
  0
VERTEX
  5
134B
  8
SAPA_PROFIL
 10
-0.624264068716343
 20
23.297404885508229
 30
0.0
 42
0.414213562373095
  0
VERTEX
  5
134C
  8
SAPA_PROFIL
 10
-0.3242640687163316
 20
22.997404885508161
 30
0.0
  0
VERTEX
  5
134D
  8
SAPA_PROFIL
 10
0.8857359312836479
 20
22.997404885508221
 30
0.0
 42
0.4142135623731037
  0
VERTEX
  5
134E
  8
SAPA_PROFIL
 10
1.875735931283657
 20
23.98740488550817
 30
0.0
  0
VERTEX
  5
134F
  8
SAPA_PROFIL
 10
1.875735931283657
 20
23.997404885508221
 30
0.0
  0
VERTEX
  5
1350
  8
SAPA_PROFIL
 10
0.625735931283657
 20
23.997404885508221
 30
0.0
  0
VERTEX
  5
1351
  8
SAPA_PROFIL
 10
0.625735931283657
 20
25.497404885508221
 30
0.0
 42
-0.4142135623730951
  0
VERTEX
  5
1352
  8
SAPA_PROFIL
 10
1.125735931283657
 20
25.997404885508221
 30
0.0
  0
VERTEX
  5
1353
  8
SAPA_PROFIL
 10
9.125735931283657
 20
25.997404885508221
 30
0.0
 42
-0.4142135623730951
  0
VERTEX
  5
1354
  8
SAPA_PROFIL
 10
9.625735931283657
 20
25.497404885508221
 30
0.0
  0
VERTEX
  5
1355
  8
SAPA_PROFIL
 10
9.625735931283657
 20
23.997404885508221
 30
0.0
  0
VERTEX
  5
1356
  8
SAPA_PROFIL
 10
8.375735931283657
 20
23.997404885508221
 30
0.0
  0
VERTEX
  5
1357
  8
SAPA_PROFIL
 10
8.375735931283657
 20
23.98740488550817
 30
0.0
 42
0.414213562373095
  0
VERTEX
  5
1358
  8
SAPA_PROFIL
 10
9.3657359312836661
 20
22.997404885508161
 30
0.0
  0
VERTEX
  5
1359
  8
SAPA_PROFIL
 10
9.875735931283657
 20
22.997404885508221
 30
0.0
 42
0.4142135623730953
  0
VERTEX
  5
135A
  8
SAPA_PROFIL
 10
10.87573593128365
 20
23.997404885508221
 30
0.0
  0
VERTEX
  5
135B
  8
SAPA_PROFIL
 10
10.87573593128365
 20
25.497404885508221
 30
0.0
 42
0.4142135623730951
  0
VERTEX
  5
135C
  8
SAPA_PROFIL
 10
9.1757359312836684
 20
27.19740488550821
 30
0.0
  0
VERTEX
  5
135D
  8
SAPA_PROFIL
 10
1.375735931283657
 20
27.197404885508259
 30
0.0
 42
-0.414213562373095
  0
VERTEX
  5
135E
  8
SAPA_PROFIL
 10
0.875735931283657
 20
27.697404885508259
 30
0.0
  0
VERTEX
  5
135F
  8
SAPA_PROFIL
 10
0.875735931283657
 20
33.197404885508263
 30
0.0
 42
-0.4142135623730951
  0
VERTEX
  5
1360
  8
SAPA_PROFIL
 10
1.375735931283657
 20
33.69740488550827
 30
0.0
  0
VERTEX
  5
1361
  8
SAPA_PROFIL
 10
18.496999009734001
 20
34.368614531974572
 30
0.0
  0
VERTEX
  5
1362
  8
SAPA_PROFIL
 10
23.89994577348369
 20
35.025552982703921
 30
0.0
 42
-0.4666505291506209
  0
VERTEX
  5
1363
  8
SAPA_PROFIL
 10
24.179747339402471
 20
34.763721451659372
 30
0.0
  0
VERTEX
  5
1364
  8
SAPA_PROFIL
 10
24.14020444548413
 20
34.041065358100411
 30
0.0
 42
0.7332303362618522
  0
VERTEX
  5
1365
  8
SAPA_PROFIL
 10
24.67628046813644
 20
33.840890769530233
 30
0.0
  0
VERTEX
  5
1366
  8
SAPA_PROFIL
 10
25.44719058564084
 20
35.950998109067939
 30
0.0
 42
0.668178637919333
  0
VERTEX
  5
1367
  8
SAPA_PROFIL
 10
25.174024390446561
 20
36.43334596115875
 30
0.0
  0
VERTEX
  5
1368
  8
SAPA_PROFIL
 10
18.496999009734001
 20
35.678444819366518
 30
0.0
  0
VERTEX
  5
1369
  8
SAPA_PROFIL
 10
18.496999009734001
 20
35.68797827152963
 30
0.0
  0
SEQEND
  5
136A
  8
SAPA_PROFIL
  0
POLYLINE
  5
BB6
  8
SAPA_PROFIL
 66
     1
 10
0.0
 20
0.0
 30
0.0
  0
VERTEX
  5
136B
  8
SAPA_PROFIL
 10
96.754472852839797
 20
35.678444819366412
 30
0.0
  0
VERTEX
  5
136C
  8
SAPA_PROFIL
 10
113.87573593129009
 20
34.997404885508097
 30
0.0
 42
0.4142135623730951
  0
VERTEX
  5
136D
  8
SAPA_PROFIL
 10
114.37573593129009
 20
35.497404885508097
 30
0.0
  0
VERTEX
  5
136E
  8
SAPA_PROFIL
 10
114.37573593129009
 20
47.297018368516831
 30
0.0
 42
0.4076767287637263
  0
VERTEX
  5
136F
  8
SAPA_PROFIL
 10
111.44283958047311
 20
50.296268200906411
 30
0.0
  0
VERTEX
  5
1370
  8
SAPA_PROFIL
 10
96.754472852839797
 20
50.45070742301715
 30
0.0
 42
0.4182129759575463
  0
VERTEX
  5
1371
  8
SAPA_PROFIL
 10
96.243311740784293
 20
49.955195702159983
 30
0.0
  0
VERTEX
  5
1372
  8
SAPA_PROFIL
 10
96.230484139258564
 20
47.480547946040637
 30
0.0
  0
VERTEX
  5
1373
  8
SAPA_PROFIL
 10
94.575795541634761
 20
45.854489989847082
 30
0.0
  0
VERTEX
  5
1374
  8
SAPA_PROFIL
 10
90.026719507346556
 20
45.854489989847082
 30
0.0
 42
-0.4293387945586749
  0
VERTEX
  5
1375
  8
SAPA_PROFIL
 10
89.729992986262062
 20
46.172601125836422
 30
0.0
  0
VERTEX
  5
1376
  8
SAPA_PROFIL
 10
89.802632662389783
 20
47.254056851106888
 30
0.0
 42
-0.4883397947196161
  0
VERTEX
  5
1377
  8
SAPA_PROFIL
 10
91.364354488398135
 20
47.03343391690867
 30
0.0
  0
VERTEX
  5
1378
  8
SAPA_PROFIL
 10
94.063435764432526
 20
47.03343391690867
 30
0.0
  0
VERTEX
  5
1379
  8
SAPA_PROFIL
 10
95.034867410808658
 20
47.988057137106523
 30
0.0
  0
VERTEX
  5
137A
  8
SAPA_PROFIL
 10
95.034867410808658
 20
50.487183279991598
 30
0.0
  0
VERTEX
  5
137B
  8
SAPA_PROFIL
 10
94.561091744293776
 20
50.487183279991598
 30
0.0
  0
VERTEX
  5
137C
  8
SAPA_PROFIL
 10
94.561091744293776
 20
51.999999999999829
 30
0.0
  0
VERTEX
  5
137D
  8
SAPA_PROFIL
 10
115.5783766379822
 20
52.0
 30
0.0
 42
-0.4116378201539302
  0
VERTEX
  5
137E
  8
SAPA_PROFIL
 10
115.87573593129009
 20
51.700011522329639
 30
0.0
  0
VERTEX
  5
137F
  8
SAPA_PROFIL
 10
115.87573593129009
 20
23.297404885508112
 30
0.0
 42
-0.414213562373095
  0
VERTEX
  5
1380
  8
SAPA_PROFIL
 10
115.5757359312901
 20
22.99740488550805
 30
0.0
  0
VERTEX
  5
1381
  8
SAPA_PROFIL
 10
114.3657359312901
 20
22.9974048855081
 30
0.0
 42
-0.4142135623731037
  0
VERTEX
  5
1382
  8
SAPA_PROFIL
 10
113.37573593129009
 20
23.987404885508059
 30
0.0
  0
VERTEX
  5
1383
  8
SAPA_PROFIL
 10
113.37573593129009
 20
23.9974048855081
 30
0.0
  0
VERTEX
  5
1384
  8
SAPA_PROFIL
 10
114.62573593129009
 20
23.9974048855081
 30
0.0
  0
VERTEX
  5
1385
  8
SAPA_PROFIL
 10
114.62573593129009
 20
25.4974048855081
 30
0.0
 42
0.4142135623730951
  0
VERTEX
  5
1386
  8
SAPA_PROFIL
 10
114.12573593129009
 20
25.997404885508111
 30
0.0
  0
VERTEX
  5
1387
  8
SAPA_PROFIL
 10
106.12573593129009
 20
25.997404885508111
 30
0.0
 42
0.4142135623730951
  0
VERTEX
  5
1388
  8
SAPA_PROFIL
 10
105.62573593129009
 20
25.4974048855081
 30
0.0
  0
VERTEX
  5
1389
  8
SAPA_PROFIL
 10
105.62573593129009
 20
23.9974048855081
 30
0.0
  0
VERTEX
  5
138A
  8
SAPA_PROFIL
 10
106.87573593129009
 20
23.9974048855081
 30
0.0
  0
VERTEX
  5
138B
  8
SAPA_PROFIL
 10
106.87573593129009
 20
23.987404885508059
 30
0.0
 42
-0.414213562373095
  0
VERTEX
  5
138C
  8
SAPA_PROFIL
 10
105.8857359312901
 20
22.99740488550805
 30
0.0
  0
VERTEX
  5
138D
  8
SAPA_PROFIL
 10
105.37573593129009
 20
22.9974048855081
 30
0.0
 42
-0.4142135623730953
  0
VERTEX
  5
138E
  8
SAPA_PROFIL
 10
104.37573593129009
 20
23.9974048855081
 30
0.0
  0
VERTEX
  5
138F
  8
SAPA_PROFIL
 10
104.37573593129009
 20
25.4974048855081
 30
0.0
 42
-0.4142135623730951
  0
VERTEX
  5
1390
  8
SAPA_PROFIL
 10
106.0757359312901
 20
27.197404885508089
 30
0.0
  0
VERTEX
  5
1391
  8
SAPA_PROFIL
 10
113.87573593129009
 20
27.197404885508149
 30
0.0
 42
0.414213562373095
  0
VERTEX
  5
1392
  8
SAPA_PROFIL
 10
114.37573593129009
 20
27.697404885508149
 30
0.0
  0
VERTEX
  5
1393
  8
SAPA_PROFIL
 10
114.37573593129009
 20
33.197404885508149
 30
0.0
 42
0.4142135623730951
  0
VERTEX
  5
1394
  8
SAPA_PROFIL
 10
113.87573593129009
 20
33.697404885508149
 30
0.0
  0
VERTEX
  5
1395
  8
SAPA_PROFIL
 10
96.754472852839797
 20
34.368614531974458
 30
0.0
  0
VERTEX
  5
1396
  8
SAPA_PROFIL
 10
91.3515260890901
 20
35.0255529827038
 30
0.0
 42
0.4666505291506209
  0
VERTEX
  5
1397
  8
SAPA_PROFIL
 10
91.071724523171326
 20
34.763721451659251
 30
0.0
  0
VERTEX
  5
1398
  8
SAPA_PROFIL
 10
91.111267417089664
 20
34.041065358100298
 30
0.0
 42
-0.7332303362618522
  0
VERTEX
  5
1399
  8
SAPA_PROFIL
 10
90.575191394437354
 20
33.84089076953012
 30
0.0
  0
VERTEX
  5
139A
  8
SAPA_PROFIL
 10
89.804281276932954
 20
35.950998109067832
 30
0.0
 42
-0.668178637919333
  0
VERTEX
  5
139B
  8
SAPA_PROFIL
 10
90.077447472127247
 20
36.433345961158643
 30
0.0
  0
VERTEX
  5
139C
  8
SAPA_PROFIL
 10
96.754472852839797
 20
35.678444819366412
 30
0.0
  0
VERTEX
  5
139D
  8
SAPA_PROFIL
 10
96.754472852839797
 20
35.687978271529524
 30
0.0
  0
SEQEND
  5
139E
  8
SAPA_PROFIL
  0
POLYLINE
  5
BB7
  8
SAPA_PROFIL
 66
     1
 10
0.0
 20
0.0
 30
0.0
 70
     1
  0
VERTEX
  5
139F
  8
SAPA_PROFIL
 10
70.575735931287866
 20
24.950000000000038
 30
0.0
  0
VERTEX
  5
13A0
  8
SAPA_PROFIL
 10
70.575735931288889
 20
4.1000000000000787
 30
0.0
 42
0.4142135623730809
  0
VERTEX
  5
13A1
  8
SAPA_PROFIL
 10
70.875735931288901
 20
3.8000000000000682
 30
0.0
  0
VERTEX
  5
13A2
  8
SAPA_PROFIL
 10
86.875735931286911
 20
3.8000000000000109
 30
0.0
 42
0.4142135623730816
  0
VERTEX
  5
13A3
  8
SAPA_PROFIL
 10
87.175735931286923
 20
4.1000000000000218
 30
0.0
  0
VERTEX
  5
13A4
  8
SAPA_PROFIL
 10
87.175735931288003
 20
24.950000000000038
 30
0.0
 42
-0.9999999999999998
  0
VERTEX
  5
13A5
  8
SAPA_PROFIL
 10
88.075735931287866
 20
24.950000000000038
 30
0.0
  0
VERTEX
  5
13A6
  8
SAPA_PROFIL
 10
88.075735931287866
 20
24.75
 30
0.0
 42
0.4142135623730951
  0
VERTEX
  5
13A7
  8
SAPA_PROFIL
 10
88.575735931287866
 20
24.25
 30
0.0
  0
VERTEX
  5
13A8
  8
SAPA_PROFIL
 10
89.375735931287863
 20
24.25
 30
0.0
 42
0.3747564601181448
  0
VERTEX
  5
13A9
  8
SAPA_PROFIL
 10
92.100130974522543
 20
26.625604956765422
 30
0.0
  0
VERTEX
  5
13AA
  8
SAPA_PROFIL
 10
91.937867965643875
 20
26.787867965643951
 30
0.0
 42
-0.4142135623730951
  0
VERTEX
  5
13AB
  8
SAPA_PROFIL
 10
91.937867965643832
 20
27.212132034355822
 30
0.0
  0
VERTEX
  5
13AC
  8
SAPA_PROFIL
 10
92.100130974522884
 20
27.37439504323504
 30
0.0
 42
0.3747564601181388
  0
VERTEX
  5
13AD
  8
SAPA_PROFIL
 10
89.375735931287863
 20
29.75
 30
0.0
  0
VERTEX
  5
13AE
  8
SAPA_PROFIL
 10
88.575735931287866
 20
29.75
 30
0.0
 42
0.4142135623730951
  0
VERTEX
  5
13AF
  8
SAPA_PROFIL
 10
88.075735931287866
 20
29.25
 30
0.0
  0
VERTEX
  5
13B0
  8
SAPA_PROFIL
 10
88.075735931287866
 20
29.049999999999962
 30
0.0
 42
-0.9999999999999998
  0
VERTEX
  5
13B1
  8
SAPA_PROFIL
 10
87.175735931287875
 20
29.049999999999962
 30
0.0
  0
VERTEX
  5
13B2
  8
SAPA_PROFIL
 10
87.175735931287832
 20
49.900000000000198
 30
0.0
 42
0.4142135623730951
  0
VERTEX
  5
13B3
  8
SAPA_PROFIL
 10
86.875735931287821
 20
50.200000000000159
 30
0.0
  0
VERTEX
  5
13B4
  8
SAPA_PROFIL
 10
70.875735931287863
 20
50.200000000000038
 30
0.0
 42
0.4142135623730951
  0
VERTEX
  5
13B5
  8
SAPA_PROFIL
 10
70.575735931287866
 20
49.900000000000091
 30
0.0
  0
VERTEX
  5
13B6
  8
SAPA_PROFIL
 10
70.575735931287866
 20
29.050000000000072
 30
0.0
 42
-0.9999999999999998
  0
VERTEX
  5
13B7
  8
SAPA_PROFIL
 10
69.675735931287889
 20
29.050000000000072
 30
0.0
  0
VERTEX
  5
13B8
  8
SAPA_PROFIL
 10
69.675735931287889
 20
29.25
 30
0.0
 42
0.4142135623730951
  0
VERTEX
  5
13B9
  8
SAPA_PROFIL
 10
69.175735931287889
 20
29.75
 30
0.0
  0
VERTEX
  5
13BA
  8
SAPA_PROFIL
 10
68.375735931287863
 20
29.75
 30
0.0
 42
0.3747564601181388
  0
VERTEX
  5
13BB
  8
SAPA_PROFIL
 10
65.651340888052928
 20
27.37439504323504
 30
0.0
  0
VERTEX
  5
13BC
  8
SAPA_PROFIL
 10
65.813603896931923
 20
27.212132034356049
 30
0.0
 42
-0.4142135623731173
  0
VERTEX
  5
13BD
  8
SAPA_PROFIL
 10
65.813603896931866
 20
26.787867965644178
 30
0.0
  0
VERTEX
  5
13BE
  8
SAPA_PROFIL
 10
65.651340888053269
 20
26.625604956765422
 30
0.0
 42
0.3747564601181558
  0
VERTEX
  5
13BF
  8
SAPA_PROFIL
 10
68.375735931287863
 20
24.24999999999989
 30
0.0
  0
VERTEX
  5
13C0
  8
SAPA_PROFIL
 10
69.175735931287889
 20
24.25
 30
0.0
 42
0.4142135623730951
  0
VERTEX
  5
13C1
  8
SAPA_PROFIL
 10
69.675735931287889
 20
24.75
 30
0.0
  0
VERTEX
  5
13C2
  8
SAPA_PROFIL
 10
69.675735931287889
 20
24.950000000000038
 30
0.0
 42
-0.9999999999999998
  0
SEQEND
  5
13C3
  8
SAPA_PROFIL
  0
POLYLINE
  5
BB8
  8
SAPA_PROFIL
 66
     1
 10
0.0
 20
0.0
 30
0.0
 70
     1
  0
VERTEX
  5
13C4
  8
SAPA_PROFIL
 10
66.175735931287875
 20
50.200000000000038
 30
0.0
  0
VERTEX
  5
13C5
  8
SAPA_PROFIL
 10
68.575735931287866
 20
50.200000000000038
 30
0.0
 42
-0.4142135623730951
  0
VERTEX
  5
13C6
  8
SAPA_PROFIL
 10
68.875735931287878
 20
49.900000000000091
 30
0.0
  0
VERTEX
  5
13C7
  8
SAPA_PROFIL
 10
68.875735931287878
 20
31.799999999999962
 30
0.0
 42
-0.4142135623730951
  0
VERTEX
  5
13C8
  8
SAPA_PROFIL
 10
68.575735931287866
 20
31.5
 30
0.0
  0
VERTEX
  5
13C9
  8
SAPA_PROFIL
 10
66.175735931287875
 20
31.5
 30
0.0
 42
-0.4142135623730951
  0
VERTEX
  5
13CA
  8
SAPA_PROFIL
 10
65.875735931287863
 20
31.799999999999962
 30
0.0
  0
VERTEX
  5
13CB
  8
SAPA_PROFIL
 10
65.875735931287863
 20
33.700000000000038
 30
0.0
 42
0.4142135623730951
  0
VERTEX
  5
13CC
  8
SAPA_PROFIL
 10
65.575735931287866
 20
34.0
 30
0.0
  0
VERTEX
  5
13CD
  8
SAPA_PROFIL
 10
64.99999999999973
 20
34.0
 30
0.0
 42
0.198912367379658
  0
VERTEX
  5
13CE
  8
SAPA_PROFIL
 10
64.787867965643741
 20
33.912132034355977
 30
0.0
  0
VERTEX
  5
13CF
  8
SAPA_PROFIL
 10
64.163603896931946
 20
33.287867965643962
 30
0.0
 42
0.1989123673796372
  0
VERTEX
  5
13D0
  8
SAPA_PROFIL
 10
64.075735931287923
 20
33.07573593128803
 30
0.0
  0
VERTEX
  5
13D1
  8
SAPA_PROFIL
 10
64.075735931287923
 20
27.519615242271019
 30
0.0
  0
VERTEX
  5
13D2
  8
SAPA_PROFIL
 10
64.289133390909527
 20
27.149999999999981
 30
0.0
 42
-0.2679491924309556
  0
VERTEX
  5
13D3
  8
SAPA_PROFIL
 10
64.289133390909527
 20
26.85000000000014
 30
0.0
  0
VERTEX
  5
13D4
  8
SAPA_PROFIL
 10
64.075735931287923
 20
26.480384757729102
 30
0.0
  0
VERTEX
  5
13D5
  8
SAPA_PROFIL
 10
64.075735931287866
 20
20.987515663627619
 30
0.0
 42
0.2596812337301103
  0
VERTEX
  5
13D6
  8
SAPA_PROFIL
 10
64.170429126536035
 20
20.817484852087659
 30
0.0
  0
VERTEX
  5
13D7
  8
SAPA_PROFIL
 10
65.417775724160109
 20
20.044953783018169
 30
0.0
 42
0.5877032589247109
  0
VERTEX
  5
13D8
  8
SAPA_PROFIL
 10
65.875735931287934
 20
20.300000000328168
 30
0.0
  0
VERTEX
  5
13D9
  8
SAPA_PROFIL
 10
65.875735931287934
 20
22.234178786718651
 30
0.0
 42
-0.4683749459841756
  0
VERTEX
  5
13DA
  8
SAPA_PROFIL
 10
66.175735931287875
 20
22.50000000032821
 30
0.0
  0
VERTEX
  5
13DB
  8
SAPA_PROFIL
 10
68.575735931287866
 20
22.5000000003281
 30
0.0
 42
-0.468374945984748
  0
VERTEX
  5
13DC
  8
SAPA_PROFIL
 10
68.875735931287878
 20
22.234178786717958
 30
0.0
  0
VERTEX
  5
13DD
  8
SAPA_PROFIL
 10
68.875735931287878
 20
15.900000000328079
 30
0.0
 42
-0.4142135623730451
  0
VERTEX
  5
13DE
  8
SAPA_PROFIL
 10
68.575735931287866
 20
15.600000000328061
 30
0.0
  0
VERTEX
  5
13DF
  8
SAPA_PROFIL
 10
65.375735931287707
 20
15.600000000328061
 30
0.0
 42
-0.4142135623731784
  0
VERTEX
  5
13E0
  8
SAPA_PROFIL
 10
65.075735931287866
 20
15.900000000328079
 30
0.0
  0
VERTEX
  5
13E1
  8
SAPA_PROFIL
 10
65.07573593128798
 20
16.300000004463239
 30
0.0
 42
0.5877032589249652
  0
VERTEX
  5
13E2
  8
SAPA_PROFIL
 10
64.617775724160268
 20
16.555046221773239
 30
0.0
  0
VERTEX
  5
13E3
  8
SAPA_PROFIL
 10
63.97042912653621
 20
16.154118877221599
 30
0.0
 42
0.2596812337302127
  0
VERTEX
  5
13E4
  8
SAPA_PROFIL
 10
63.875735931287927
 20
15.984088065681419
 30
0.0
  0
VERTEX
  5
13E5
  8
SAPA_PROFIL
 10
63.875735931287927
 20
14.50000000032815
 30
0.0
 42
0.4142135623730118
  0
VERTEX
  5
13E6
  8
SAPA_PROFIL
 10
64.175735931287889
 20
14.200000000328259
 30
0.0
  0
VERTEX
  5
13E7
  8
SAPA_PROFIL
 10
68.575735931287866
 20
14.200000000328091
 30
0.0
 42
-0.4142135623731617
  0
VERTEX
  5
13E8
  8
SAPA_PROFIL
 10
68.875735931287878
 20
13.900000000328079
 30
0.0
  0
VERTEX
  5
13E9
  8
SAPA_PROFIL
 10
68.875735931287878
 20
4.1000000000004198
 30
0.0
 42
-0.4142135623730118
  0
VERTEX
  5
13EA
  8
SAPA_PROFIL
 10
68.575735931287866
 20
3.8000000000002379
 30
0.0
  0
VERTEX
  5
13EB
  8
SAPA_PROFIL
 10
66.175735931288571
 20
3.8000000000002379
 30
0.0
 42
-0.4142135623731784
  0
VERTEX
  5
13EC
  8
SAPA_PROFIL
 10
65.87573593128856
 20
4.1000000000004198
 30
0.0
  0
VERTEX
  5
13ED
  8
SAPA_PROFIL
 10
65.87573593128856
 20
5.6999999999993634
 30
0.0
 42
0.587703258924865
  0
VERTEX
  5
13EE
  8
SAPA_PROFIL
 10
65.417775724160791
 20
5.9550462173092447
 30
0.0
  0
VERTEX
  5
13EF
  8
SAPA_PROFIL
 10
64.01777572416087
 20
5.0879708601012217
 30
0.0
 42
0.2596812337301328
  0
VERTEX
  5
13F0
  8
SAPA_PROFIL
 10
63.875735931288553
 20
4.8329246427907711
 30
0.0
  0
VERTEX
  5
13F1
  8
SAPA_PROFIL
 10
63.875735931288553
 20
4.1000000000002501
 30
0.0
 42
-0.4142135623731451
  0
VERTEX
  5
13F2
  8
SAPA_PROFIL
 10
63.575735931288662
 20
3.800000000000181
 30
0.0
  0
VERTEX
  5
13F3
  8
SAPA_PROFIL
 10
53.875735931287878
 20
3.8000000000000682
 30
0.0
 42
-0.4142135623730951
  0
VERTEX
  5
13F4
  8
SAPA_PROFIL
 10
53.375735931287871
 20
4.3000000000000682
 30
0.0
  0
VERTEX
  5
13F5
  8
SAPA_PROFIL
 10
53.375735931287871
 20
5.500000000000056
 30
0.0
 42
0.4142135623730951
  0
VERTEX
  5
13F6
  8
SAPA_PROFIL
 10
52.375735931287878
 20
6.500000000000056
 30
0.0
  0
VERTEX
  5
13F7
  8
SAPA_PROFIL
 10
51.808191463314202
 20
6.500000000000056
 30
0.0
 42
0.2896898633015344
  0
VERTEX
  5
13F8
  8
SAPA_PROFIL
 10
50.904683560416927
 20
5.9285714285728091
 30
0.0
 42
0.5507604245877494
  0
VERTEX
  5
13F9
  8
SAPA_PROFIL
 10
51.175735931287882
 20
5.5000000000001128
 30
0.0
  0
VERTEX
  5
13FA
  8
SAPA_PROFIL
 10
51.825735931287809
 20
5.500000000000056
 30
0.0
 42
-0.4142135623730951
  0
VERTEX
  5
13FB
  8
SAPA_PROFIL
 10
52.125735931287821
 20
5.2000000000000446
 30
0.0
  0
VERTEX
  5
13FC
  8
SAPA_PROFIL
 10
52.125735931287871
 20
4.000000000000056
 30
0.0
 42
-0.4142135623730951
  0
VERTEX
  5
13FD
  8
SAPA_PROFIL
 10
51.625735931287871
 20
3.500000000000056
 30
0.0
  0
VERTEX
  5
13FE
  8
SAPA_PROFIL
 10
43.625735931287878
 20
3.500000000000056
 30
0.0
 42
-0.4142135623730951
  0
VERTEX
  5
13FF
  8
SAPA_PROFIL
 10
43.125735931287878
 20
4.000000000000056
 30
0.0
  0
VERTEX
  5
1400
  8
SAPA_PROFIL
 10
43.125735931287878
 20
5.2000000000001592
 30
0.0
 42
-0.41421356237306
  0
VERTEX
  5
1401
  8
SAPA_PROFIL
 10
43.425735931287832
 20
5.5000000000001696
 30
0.0
  0
VERTEX
  5
1402
  8
SAPA_PROFIL
 10
44.075735931287873
 20
5.5000000000001696
 30
0.0
 42
0.5507604245877494
  0
VERTEX
  5
1403
  8
SAPA_PROFIL
 10
44.346788302164853
 20
5.9285714285757081
 30
0.0
 42
0.2896898633015279
  0
VERTEX
  5
1404
  8
SAPA_PROFIL
 10
43.44328039926161
 20
6.5000000000001128
 30
0.0
  0
VERTEX
  5
1405
  8
SAPA_PROFIL
 10
42.175735931287889
 20
6.500000000000056
 30
0.0
 42
0.4142135623730951
  0
VERTEX
  5
1406
  8
SAPA_PROFIL
 10
41.875735931287878
 20
6.2000000000000446
 30
0.0
  0
VERTEX
  5
1407
  8
SAPA_PROFIL
 10
41.875735931287878
 20
2.3000000000000691
 30
0.0
 42
0.4142135623730951
  0
VERTEX
  5
1408
  8
SAPA_PROFIL
 10
42.175735931287889
 20
2.0000000000000582
 30
0.0
  0
VERTEX
  5
1409
  8
SAPA_PROFIL
 10
115.57573593128789
 20
2.0000000000000528
 30
0.0
 42
0.4142135623730395
  0
VERTEX
  5
140A
  8
SAPA_PROFIL
 10
115.87573593128771
 20
2.3000000000000642
 30
0.0
  0
VERTEX
  5
140B
  8
SAPA_PROFIL
 10
115.87573593128771
 20
6.200000000000041
 30
0.0
 42
0.4142135623730394
  0
VERTEX
  5
140C
  8
SAPA_PROFIL
 10
115.57573593128789
 20
6.5000000000000533
 30
0.0
  0
VERTEX
  5
140D
  8
SAPA_PROFIL
 10
114.3081914633141
 20
6.5000000000000533
 30
0.0
 42
0.2896898633015403
  0
VERTEX
  5
140E
  8
SAPA_PROFIL
 10
113.4046835604109
 20
5.9285714285755899
 30
0.0
 42
0.55076042458772
  0
VERTEX
  5
140F
  8
SAPA_PROFIL
 10
113.6757359312879
 20
5.5000000000001101
 30
0.0
  0
VERTEX
  5
1410
  8
SAPA_PROFIL
 10
114.3257359312878
 20
5.5000000000000533
 30
0.0
 42
-0.4142135623730951
  0
VERTEX
  5
1411
  8
SAPA_PROFIL
 10
114.62573593128791
 20
5.200000000000041
 30
0.0
  0
VERTEX
  5
1412
  8
SAPA_PROFIL
 10
114.62573593128791
 20
4.0000000000000533
 30
0.0
 42
-0.4142135623730951
  0
VERTEX
  5
1413
  8
SAPA_PROFIL
 10
114.12573593128771
 20
3.5000000000000528
 30
0.0
  0
VERTEX
  5
1414
  8
SAPA_PROFIL
 10
106.12573593128791
 20
3.5000000000000528
 30
0.0
 42
-0.4142135623730951
  0
VERTEX
  5
1415
  8
SAPA_PROFIL
 10
105.62573593128791
 20
4.0000000000000533
 30
0.0
  0
VERTEX
  5
1416
  8
SAPA_PROFIL
 10
105.62573593128791
 20
5.200000000000041
 30
0.0
 42
-0.4142135623730951
  0
VERTEX
  5
1417
  8
SAPA_PROFIL
 10
105.9257359312879
 20
5.5000000000000533
 30
0.0
  0
VERTEX
  5
1418
  8
SAPA_PROFIL
 10
106.5757359312878
 20
5.5000000000001101
 30
0.0
 42
0.5507604245877494
  0
VERTEX
  5
1419
  8
SAPA_PROFIL
 10
106.8467883021588
 20
5.9285714285728046
 30
0.0
 42
0.2896898633015483
  0
VERTEX
  5
141A
  8
SAPA_PROFIL
 10
105.9432803992615
 20
6.5000000000001101
 30
0.0
  0
VERTEX
  5
141B
  8
SAPA_PROFIL
 10
105.37573593128791
 20
6.5000000000000533
 30
0.0
 42
0.4142135623730951
  0
VERTEX
  5
141C
  8
SAPA_PROFIL
 10
104.37573593128791
 20
5.5000000000000533
 30
0.0
  0
VERTEX
  5
141D
  8
SAPA_PROFIL
 10
104.37573593128791
 20
4.3000000000000638
 30
0.0
 42
-0.4142135623730951
  0
VERTEX
  5
141E
  8
SAPA_PROFIL
 10
103.87573593128781
 20
3.8000000000000642
 30
0.0
  0
VERTEX
  5
141F
  8
SAPA_PROFIL
 10
94.17573593128715
 20
3.8000000000001211
 30
0.0
 42
-0.414213562373145
  0
VERTEX
  5
1420
  8
SAPA_PROFIL
 10
93.875735931287196
 20
4.1000000000002457
 30
0.0
  0
VERTEX
  5
1421
  8
SAPA_PROFIL
 10
93.875735931287196
 20
4.8329246427907711
 30
0.0
 42
0.2596812337301328
  0
VERTEX
  5
1422
  8
SAPA_PROFIL
 10
93.733696138414885
 20
5.0879708601012217
 30
0.0
  0
VERTEX
  5
1423
  8
SAPA_PROFIL
 10
92.333696138414965
 20
5.9550462173092447
 30
0.0
 42
0.587703258924865
  0
VERTEX
  5
1424
  8
SAPA_PROFIL
 10
91.875735931287196
 20
5.6999999999993634
 30
0.0
  0
VERTEX
  5
1425
  8
SAPA_PROFIL
 10
91.875735931287196
 20
4.1000000000004198
 30
0.0
 42
-0.4142135623731784
  0
VERTEX
  5
1426
  8
SAPA_PROFIL
 10
91.575735931287184
 20
3.8000000000002379
 30
0.0
  0
VERTEX
  5
1427
  8
SAPA_PROFIL
 10
89.175735931287889
 20
3.8000000000002379
 30
0.0
 42
-0.4142135623730117
  0
VERTEX
  5
1428
  8
SAPA_PROFIL
 10
88.875735931287878
 20
4.1000000000004198
 30
0.0
  0
VERTEX
  5
1429
  8
SAPA_PROFIL
 10
88.875735931287878
 20
13.900000000328079
 30
0.0
 42
-0.4142135623731618
  0
VERTEX
  5
142A
  8
SAPA_PROFIL
 10
89.175735931287889
 20
14.200000000328091
 30
0.0
  0
VERTEX
  5
142B
  8
SAPA_PROFIL
 10
93.575735931287866
 20
14.200000000328259
 30
0.0
 42
0.4142135623730118
  0
VERTEX
  5
142C
  8
SAPA_PROFIL
 10
93.875735931287835
 20
14.50000000032815
 30
0.0
  0
VERTEX
  5
142D
  8
SAPA_PROFIL
 10
93.875735931287835
 20
15.984088065681419
 30
0.0
 42
0.2596812337302127
  0
VERTEX
  5
142E
  8
SAPA_PROFIL
 10
93.781042736039538
 20
16.154118877221599
 30
0.0
  0
VERTEX
  5
142F
  8
SAPA_PROFIL
 10
93.133696138415488
 20
16.555046221773232
 30
0.0
 42
0.5877032589249652
  0
VERTEX
  5
1430
  8
SAPA_PROFIL
 10
92.675735931287775
 20
16.300000004463239
 30
0.0
  0
VERTEX
  5
1431
  8
SAPA_PROFIL
 10
92.675735931287889
 20
15.900000000328079
 30
0.0
 42
-0.4142135623731784
  0
VERTEX
  5
1432
  8
SAPA_PROFIL
 10
92.375735931288048
 20
15.600000000328061
 30
0.0
  0
VERTEX
  5
1433
  8
SAPA_PROFIL
 10
89.175735931287889
 20
15.600000000328061
 30
0.0
 42
-0.414213562373045
  0
VERTEX
  5
1434
  8
SAPA_PROFIL
 10
88.875735931287878
 20
15.900000000328079
 30
0.0
  0
VERTEX
  5
1435
  8
SAPA_PROFIL
 10
88.875735931287878
 20
22.234178786717958
 30
0.0
 42
-0.468374945984748
  0
VERTEX
  5
1436
  8
SAPA_PROFIL
 10
89.175735931287889
 20
22.5000000003281
 30
0.0
  0
VERTEX
  5
1437
  8
SAPA_PROFIL
 10
91.575735931287866
 20
22.50000000032821
 30
0.0
 42
-0.4683749459841756
  0
VERTEX
  5
1438
  8
SAPA_PROFIL
 10
91.875735931287821
 20
22.234178786718651
 30
0.0
  0
VERTEX
  5
1439
  8
SAPA_PROFIL
 10
91.875735931287821
 20
20.300000000328168
 30
0.0
 42
0.5877032589247109
  0
VERTEX
  5
143A
  8
SAPA_PROFIL
 10
92.333696138415647
 20
20.044953783018169
 30
0.0
  0
VERTEX
  5
143B
  8
SAPA_PROFIL
 10
93.58104273603972
 20
20.817484852087659
 30
0.0
 42
0.2596812337301103
  0
VERTEX
  5
143C
  8
SAPA_PROFIL
 10
93.675735931287875
 20
20.987515663627619
 30
0.0
  0
VERTEX
  5
143D
  8
SAPA_PROFIL
 10
93.675735931287875
 20
26.480384757729102
 30
0.0
  0
VERTEX
  5
143E
  8
SAPA_PROFIL
 10
93.462338471666214
 20
26.850000000000019
 30
0.0
 42
-0.2679491924309994
  0
VERTEX
  5
143F
  8
SAPA_PROFIL
 10
93.462338471666172
 20
27.149999999999981
 30
0.0
  0
VERTEX
  5
1440
  8
SAPA_PROFIL
 10
93.675735931287875
 20
27.519615242271019
 30
0.0
  0
VERTEX
  5
1441
  8
SAPA_PROFIL
 10
93.675735931287946
 20
33.075735931288143
 30
0.0
 42
0.1989123673796672
  0
VERTEX
  5
1442
  8
SAPA_PROFIL
 10
93.587867965643866
 20
33.287867965644068
 30
0.0
  0
VERTEX
  5
1443
  8
SAPA_PROFIL
 10
92.963603896931843
 20
33.912132034355977
 30
0.0
 42
0.1989123673796476
  0
VERTEX
  5
1444
  8
SAPA_PROFIL
 10
92.751471862575912
 20
34.0
 30
0.0
  0
VERTEX
  5
1445
  8
SAPA_PROFIL
 10
92.175735931287946
 20
34.0
 30
0.0
 42
0.4142135623730951
  0
VERTEX
  5
1446
  8
SAPA_PROFIL
 10
91.875735931287934
 20
33.700000000000038
 30
0.0
  0
VERTEX
  5
1447
  8
SAPA_PROFIL
 10
91.875735931287863
 20
31.799999999999841
 30
0.0
 42
-0.4142135623730875
  0
VERTEX
  5
1448
  8
SAPA_PROFIL
 10
91.575735931287866
 20
31.49999999999989
 30
0.0
  0
VERTEX
  5
1449
  8
SAPA_PROFIL
 10
89.175735931287846
 20
31.5
 30
0.0
 42
-0.4142135623730829
  0
VERTEX
  5
144A
  8
SAPA_PROFIL
 10
88.875735931287835
 20
31.799999999999962
 30
0.0
  0
VERTEX
  5
144B
  8
SAPA_PROFIL
 10
88.875735931287878
 20
49.900000000000198
 30
0.0
 42
-0.4142135623730942
  0
VERTEX
  5
144C
  8
SAPA_PROFIL
 10
89.175735931287889
 20
50.200000000000159
 30
0.0
  0
VERTEX
  5
144D
  8
SAPA_PROFIL
 10
91.575735931287923
 20
50.199999999999932
 30
0.0
 42
-0.4142135623730829
  0
VERTEX
  5
144E
  8
SAPA_PROFIL
 10
91.875735931287934
 20
49.899999999999977
 30
0.0
  0
VERTEX
  5
144F
  8
SAPA_PROFIL
 10
91.875735931287863
 20
48.299999999999947
 30
0.0
 42
0.4142135623731038
  0
VERTEX
  5
1450
  8
SAPA_PROFIL
 10
92.175735931287875
 20
48.0
 30
0.0
  0
VERTEX
  5
1451
  8
SAPA_PROFIL
 10
92.751471862575912
 20
48.0
 30
0.0
 42
0.198912367379658
  0
VERTEX
  5
1452
  8
SAPA_PROFIL
 10
92.963603896931886
 20
48.087867965644023
 30
0.0
  0
VERTEX
  5
1453
  8
SAPA_PROFIL
 10
93.787867965643855
 20
48.91213203435597
 30
0.0
 42
0.198912367379658
  0
VERTEX
  5
1454
  8
SAPA_PROFIL
 10
93.875735931287878
 20
49.124264068711902
 30
0.0
  0
VERTEX
  5
1455
  8
SAPA_PROFIL
 10
93.875735931287878
 20
51.700000000000053
 30
0.0
 42
0.4142135623730397
  0
VERTEX
  5
1456
  8
SAPA_PROFIL
 10
93.575735931287866
 20
52.000000000000107
 30
0.0
  0
VERTEX
  5
1457
  8
SAPA_PROFIL
 10
64.175735931287889
 20
52.000000000000107
 30
0.0
 42
0.4142135623730396
  0
VERTEX
  5
1458
  8
SAPA_PROFIL
 10
63.875735931287878
 20
51.700000000000053
 30
0.0
  0
VERTEX
  5
1459
  8
SAPA_PROFIL
 10
63.875735931287878
 20
49.124264068711902
 30
0.0
 42
0.198912367379658
  0
VERTEX
  5
145A
  8
SAPA_PROFIL
 10
63.9636038969319
 20
48.91213203435597
 30
0.0
  0
VERTEX
  5
145B
  8
SAPA_PROFIL
 10
64.787867965643798
 20
48.087867965644023
 30
0.0
 42
0.198912367379658
  0
VERTEX
  5
145C
  8
SAPA_PROFIL
 10
64.999999999999787
 20
48.0
 30
0.0
  0
VERTEX
  5
145D
  8
SAPA_PROFIL
 10
65.575735931287809
 20
48.000000000000107
 30
0.0
 42
0.4142135623730951
  0
VERTEX
  5
145E
  8
SAPA_PROFIL
 10
65.875735931287821
 20
48.300000000000068
 30
0.0
  0
VERTEX
  5
145F
  8
SAPA_PROFIL
 10
65.875735931287863
 20
49.900000000000091
 30
0.0
 42
-0.4142135623730863
  0
SEQEND
  5
1460
  8
SAPA_PROFIL
  0
POLYLINE
  5
BB9
  8
SAPA_PROFIL
 66
     1
 10
0.0
 20
0.0
 30
0.0
 70
     1
  0
VERTEX
  5
1461
  8
SAPA_PROFIL
 10
33.475735931288227
 20
3.7999999999999541
 30
0.0
 42
0.4142135623730951
  0
VERTEX
  5
1462
  8
SAPA_PROFIL
 10
33.975735931288227
 20
4.2999999999999536
 30
0.0
  0
VERTEX
  5
1463
  8
SAPA_PROFIL
 10
33.975735931288114
 20
16.550000000000072
 30
0.0
 42
0.4142135623730927
  0
VERTEX
  5
1464
  8
SAPA_PROFIL
 10
33.475735931288114
 20
17.050000000000072
 30
0.0
  0
VERTEX
  5
1465
  8
SAPA_PROFIL
 10
28.575735931288019
 20
17.050000000000011
 30
0.0
 42
0.4142135623730943
  0
VERTEX
  5
1466
  8
SAPA_PROFIL
 10
28.075735931288019
 20
16.550000000000011
 30
0.0
  0
VERTEX
  5
1467
  8
SAPA_PROFIL
 10
28.07573593128814
 20
4.3000000000002379
 30
0.0
 42
0.4142135623730951
  0
VERTEX
  5
1468
  8
SAPA_PROFIL
 10
28.57573593128814
 20
3.8000000000002379
 30
0.0
  0
SEQEND
  5
1469
  8
SAPA_PROFIL
  0
POLYLINE
  5
BBA
  8
SAPA_PROFIL
 66
     1
 10
0.0
 20
0.0
 30
0.0
 70
     1
  0
VERTEX
  5
146A
  8
SAPA_PROFIL
 10
50.675735931288052
 20
24.701554573776491
 30
0.0
 42
-0.2914734195861744
  0
VERTEX
  5
146B
  8
SAPA_PROFIL
 10
50.387045062158329
 20
24.248400680258161
 30
0.0
  0
VERTEX
  5
146C
  8
SAPA_PROFIL
 10
47.267412686720832
 20
22.793692212963322
 30
0.0
 42
-0.1095178116832386
  0
VERTEX
  5
146D
  8
SAPA_PROFIL
 10
46.84479442498013
 20
22.699999999999989
 30
0.0
  0
VERTEX
  5
146E
  8
SAPA_PROFIL
 10
42.675735931288038
 20
22.699999999999989
 30
0.0
 42
0.4142135623730951
  0
VERTEX
  5
146F
  8
SAPA_PROFIL
 10
42.175735931288038
 20
22.199999999999989
 30
0.0
  0
VERTEX
  5
1470
  8
SAPA_PROFIL
 10
42.175735931288038
 20
20.737939479458991
 30
0.0
 42
-0.2914734195861007
  0
VERTEX
  5
1471
  8
SAPA_PROFIL
 10
41.887045062158343
 20
20.28478558594065
 30
0.0
  0
VERTEX
  5
1472
  8
SAPA_PROFIL
 10
38.481697859108181
 20
18.69684610648164
 30
0.0
 42
-0.1095178116832193
  0
VERTEX
  5
1473
  8
SAPA_PROFIL
 10
38.27038872823789
 20
18.649999999999981
 30
0.0
  0
VERTEX
  5
1474
  8
SAPA_PROFIL
 10
28.575735931288019
 20
18.650000000000031
 30
0.0
 42
-0.4142135623731019
  0
VERTEX
  5
1475
  8
SAPA_PROFIL
 10
28.075735931288019
 20
19.150000000000031
 30
0.0
  0
VERTEX
  5
1476
  8
SAPA_PROFIL
 10
28.075735931288019
 20
23.199999999999989
 30
0.0
 42
0.4142135623730951
  0
VERTEX
  5
1477
  8
SAPA_PROFIL
 10
27.575735931288019
 20
23.699999999999989
 30
0.0
  0
VERTEX
  5
1478
  8
SAPA_PROFIL
 10
23.775735931288072
 20
23.699999999999989
 30
0.0
 42
-0.4142135623730951
  0
VERTEX
  5
1479
  8
SAPA_PROFIL
 10
23.275735931288072
 20
24.199999999999989
 30
0.0
  0
VERTEX
  5
147A
  8
SAPA_PROFIL
 10
23.275735931288072
 20
29.800000000000011
 30
0.0
 42
-0.4142135623730951
  0
VERTEX
  5
147B
  8
SAPA_PROFIL
 10
23.775735931288072
 20
30.300000000000011
 30
0.0
  0
VERTEX
  5
147C
  8
SAPA_PROFIL
 10
27.575735931288019
 20
30.300000000000011
 30
0.0
 42
0.4142135623730951
  0
VERTEX
  5
147D
  8
SAPA_PROFIL
 10
28.075735931288019
 20
30.800000000000011
 30
0.0
  0
VERTEX
  5
147E
  8
SAPA_PROFIL
 10
28.075735931288019
 20
51.300000000000011
 30
0.0
 42
0.4142135623730951
  0
VERTEX
  5
147F
  8
SAPA_PROFIL
 10
27.575735931288019
 20
51.800000000000011
 30
0.0
  0
VERTEX
  5
1480
  8
SAPA_PROFIL
 10
24.089281931288038
 20
51.800000000000132
 30
0.0
 42
-0.5773499999999932
  0
VERTEX
  5
1481
  8
SAPA_PROFIL
 10
23.829473931288021
 20
52.249999999999943
 30
0.0
  0
VERTEX
  5
1482
  8
SAPA_PROFIL
 10
27.72658893128812
 20
59.00000000000005
 30
0.0
 42
-0.267948999999997
  0
VERTEX
  5
1483
  8
SAPA_PROFIL
 10
28.59261393128816
 20
59.500000000000057
 30
0.0
  0
VERTEX
  5
1484
  8
SAPA_PROFIL
 10
45.875735931288091
 20
59.499999999999943
 30
0.0
 42
-0.4142140000000792
  0
VERTEX
  5
1485
  8
SAPA_PROFIL
 10
46.375735931288077
 20
58.99999999999995
 30
0.0
  0
VERTEX
  5
1486
  8
SAPA_PROFIL
 10
46.375735931288077
 20
49.305000000000007
 30
0.0
 42
-0.4142139999998795
  0
VERTEX
  5
1487
  8
SAPA_PROFIL
 10
45.87573593128797
 20
48.804999999999779
 30
0.0
  0
VERTEX
  5
1488
  8
SAPA_PROFIL
 10
45.175735931288038
 20
48.805000000000007
 30
0.0
 42
0.4142139999999463
  0
VERTEX
  5
1489
  8
SAPA_PROFIL
 10
44.675735931288038
 20
48.305
 30
0.0
  0
VERTEX
  5
148A
  8
SAPA_PROFIL
 10
44.675735931288038
 20
33.90499999999998
 30
0.0
 42
0.4142139999998796
  0
VERTEX
  5
148B
  8
SAPA_PROFIL
 10
45.175735931288152
 20
33.404999999999752
 30
0.0
  0
VERTEX
  5
148C
  8
SAPA_PROFIL
 10
45.375735931288091
 20
33.404999999999973
 30
0.0
 42
-0.4142139999999461
  0
VERTEX
  5
148D
  8
SAPA_PROFIL
 10
45.875735931287863
 20
32.904999999999973
 30
0.0
  0
VERTEX
  5
148E
  8
SAPA_PROFIL
 10
45.875735931288091
 20
30.5
 30
0.0
 42
0.4142135623730951
  0
VERTEX
  5
148F
  8
SAPA_PROFIL
 10
46.375735931288077
 20
30.0
 30
0.0
  0
VERTEX
  5
1490
  8
SAPA_PROFIL
 10
50.175735931288052
 20
30.0
 30
0.0
 42
-0.4142135623730951
  0
VERTEX
  5
1491
  8
SAPA_PROFIL
 10
50.675735931288052
 20
29.5
 30
0.0
  0
SEQEND
  5
1492
  8
SAPA_PROFIL
  0
POLYLINE
  5
BBB
  8
SAPA_PROFIL
 66
     1
 10
0.0
 20
0.0
 30
0.0
 70
     1
  0
VERTEX
  5
1493
  8
SAPA_PROFIL
 10
23.675735931288042
 20
21.99999999999994
 30
0.0
  0
VERTEX
  5
1494
  8
SAPA_PROFIL
 10
26.075735931288019
 20
21.99999999999994
 30
0.0
 42
-0.4142135623730951
  0
VERTEX
  5
1495
  8
SAPA_PROFIL
 10
26.375735931287981
 20
21.699999999999989
 30
0.0
  0
VERTEX
  5
1496
  8
SAPA_PROFIL
 10
26.375735931287981
 20
13.65000065621291
 30
0.0
 42
0.1316523369912118
  0
VERTEX
  5
1497
  8
SAPA_PROFIL
 10
26.415928215436679
 20
13.50000082026599
 30
0.0
  0
VERTEX
  5
1498
  8
SAPA_PROFIL
 10
26.675735931288049
 20
13.049999999999841
 30
0.0
  0
VERTEX
  5
1499
  8
SAPA_PROFIL
 10
26.415928340436491
 20
12.600000262265549
 30
0.0
 42
0.1316525489352833
  0
VERTEX
  5
149A
  8
SAPA_PROFIL
 10
26.375735931288091
 20
12.450000209812631
 30
0.0
  0
VERTEX
  5
149B
  8
SAPA_PROFIL
 10
26.375735931288091
 20
4.3000000000000114
 30
0.0
 42
-0.4142140000001461
  0
VERTEX
  5
149C
  8
SAPA_PROFIL
 10
26.075735931288019
 20
3.9999999999999432
 30
0.0
  0
VERTEX
  5
149D
  8
SAPA_PROFIL
 10
23.675735931288042
 20
4.0
 30
0.0
 42
-0.4142140000000906
  0
VERTEX
  5
149E
  8
SAPA_PROFIL
 10
23.375735931288091
 20
4.3000000000000114
 30
0.0
  0
VERTEX
  5
149F
  8
SAPA_PROFIL
 10
23.375735931288091
 20
5.7000000446766981
 30
0.0
 42
0.5877030000000079
  0
VERTEX
  5
14A0
  8
SAPA_PROFIL
 10
22.917774931288129
 20
5.9550460446766351
 30
0.0
  0
VERTEX
  5
14A1
  8
SAPA_PROFIL
 10
21.470428931288101
 20
5.0586470446766612
 30
0.0
 42
0.2596809999998896
  0
VERTEX
  5
14A2
  8
SAPA_PROFIL
 10
21.375735931288201
 20
4.8886160446766658
 30
0.0
  0
VERTEX
  5
14A3
  8
SAPA_PROFIL
 10
21.375735931288091
 20
4.0880829999999833
 30
0.0
 42
-0.4023939999998733
  0
VERTEX
  5
14A4
  8
SAPA_PROFIL
 10
21.087888931288031
 20
3.788329000000032
 30
0.0
  0
VERTEX
  5
14A5
  8
SAPA_PROFIL
 10
6.6148299312881127
 20
3.2015299999999911
 30
0.0
 42
-0.4373280000000294
  0
VERTEX
  5
14A6
  8
SAPA_PROFIL
 10
6.0757359312881363
 20
3.700000000000045
 30
0.0
  0
VERTEX
  5
14A7
  8
SAPA_PROFIL
 10
6.0757359312880217
 20
4.5313999999999623
 30
0.0
 42
-0.363970000000061
  0
VERTEX
  5
14A8
  8
SAPA_PROFIL
 10
6.4889109312880464
 20
5.023804000000041
 30
0.0
  0
VERTEX
  5
14A9
  8
SAPA_PROFIL
 10
7.6625599312881141
 20
5.2307499999999996
 30
0.0
 42
0.8391000000000017
  0
VERTEX
  5
14AA
  8
SAPA_PROFIL
 10
7.6625599312881141
 20
6.2155569999999321
 30
0.0
  0
VERTEX
  5
14AB
  8
SAPA_PROFIL
 10
6.092486931288021
 20
6.4924039999999641
 30
0.0
 42
0.0436610000000063
  0
VERTEX
  5
14AC
  8
SAPA_PROFIL
 10
6.0056629312880432
 20
6.5
 30
0.0
  0
VERTEX
  5
14AD
  8
SAPA_PROFIL
 10
5.0081909312880271
 20
6.5
 30
0.0
 42
0.2896899999999917
  0
VERTEX
  5
14AE
  8
SAPA_PROFIL
 10
4.1046829312880391
 20
5.9285709999999758
 30
0.0
 42
0.5507599999998717
  0
VERTEX
  5
14AF
  8
SAPA_PROFIL
 10
4.3757359312880899
 20
5.4999999999999432
 30
0.0
  0
VERTEX
  5
14B0
  8
SAPA_PROFIL
 10
4.5757359312880217
 20
5.500000000000056
 30
0.0
 42
-0.4142140000000907
  0
VERTEX
  5
14B1
  8
SAPA_PROFIL
 10
4.8757359312880899
 20
5.2000000000000446
 30
0.0
  0
VERTEX
  5
14B2
  8
SAPA_PROFIL
 10
4.8757359312880899
 20
3.700000000000045
 30
0.0
 42
-0.4142139999999794
  0
VERTEX
  5
14B3
  8
SAPA_PROFIL
 10
4.3757359312879771
 20
3.1999999999999882
 30
0.0
  0
VERTEX
  5
14B4
  8
SAPA_PROFIL
 10
1.0757359312880219
 20
3.200000000000045
 30
0.0
 42
-0.4142140000000128
  0
VERTEX
  5
14B5
  8
SAPA_PROFIL
 10
0.5757359312881363
 20
3.700000000000045
 30
0.0
  0
VERTEX
  5
14B6
  8
SAPA_PROFIL
 10
0.5757359312880226
 20
5.2000000000000446
 30
0.0
 42
-0.414213999999813
  0
VERTEX
  5
14B7
  8
SAPA_PROFIL
 10
0.8757359312880907
 20
5.5
 30
0.0
  0
VERTEX
  5
14B8
  8
SAPA_PROFIL
 10
1.0757359312880219
 20
5.5
 30
0.0
 42
0.5507599999999765
  0
VERTEX
  5
14B9
  8
SAPA_PROFIL
 10
1.3467879312880759
 20
5.9285710000000327
 30
0.0
 42
0.2896899999999603
  0
VERTEX
  5
14BA
  8
SAPA_PROFIL
 10
0.4432799312880889
 20
6.500000000000056
 30
0.0
  0
VERTEX
  5
14BB
  8
SAPA_PROFIL
 10
-0.3242640687119547
 20
6.5
 30
0.0
 42
0.414213999999813
  0
VERTEX
  5
14BC
  8
SAPA_PROFIL
 10
-0.6242640687120229
 20
6.2000000000000446
 30
0.0
  0
VERTEX
  5
14BD
  8
SAPA_PROFIL
 10
-0.6242640687119092
 20
2.6242640687119092
 30
0.0
 42
0.1989123673795536
  0
VERTEX
  5
14BE
  8
SAPA_PROFIL
 10
-0.5363961030678867
 20
2.4121320343559201
 30
0.0
  0
VERTEX
  5
14BF
  8
SAPA_PROFIL
 10
-0.2121320343559319
 20
2.0878679656440222
 30
0.0
 42
0.198912367379658
  0
VERTEX
  5
14C0
  8
SAPA_PROFIL
 10
0.0
 20
2.0
 30
0.0
  0
VERTEX
  5
14C1
  8
SAPA_PROFIL
 10
36.375735931288091
 20
2.0
 30
0.0
 42
0.4142139999999794
  0
VERTEX
  5
14C2
  8
SAPA_PROFIL
 10
36.875735931288091
 20
2.5
 30
0.0
  0
VERTEX
  5
14C3
  8
SAPA_PROFIL
 10
36.875735931287977
 20
3.5
 30
0.0
 42
0.3056149748443016
  0
VERTEX
  5
14C4
  8
SAPA_PROFIL
 10
36.563236018835937
 20
3.9635124917273279
 30
0.0
 42
-0.3056147706310184
  0
VERTEX
  5
14C5
  8
SAPA_PROFIL
 10
36.375735931288091
 20
4.2416199704082942
 30
0.0
  0
VERTEX
  5
14C6
  8
SAPA_PROFIL
 10
36.375735931288091
 20
6.9500000000001023
 30
0.0
 42
-0.4142135623730951
  0
VERTEX
  5
14C7
  8
SAPA_PROFIL
 10
36.875735931288091
 20
7.4500000000001023
 30
0.0
  0
VERTEX
  5
14C8
  8
SAPA_PROFIL
 10
40.038565931288083
 20
7.4500000000000446
 30
0.0
  0
VERTEX
  5
14C9
  8
SAPA_PROFIL
 10
43.644240931288103
 20
8.2957030000000032
 30
0.0
 42
0.3482370000000332
  0
VERTEX
  5
14CA
  8
SAPA_PROFIL
 10
43.875735931288077
 20
8.5877770000000169
 30
0.0
  0
VERTEX
  5
14CB
  8
SAPA_PROFIL
 10
43.875735931288077
 20
8.75
 30
0.0
 42
0.4142140000000907
  0
VERTEX
  5
14CC
  8
SAPA_PROFIL
 10
43.575735931288023
 20
9.0500000000000114
 30
0.0
  0
VERTEX
  5
14CD
  8
SAPA_PROFIL
 10
36.175735931288052
 20
9.0499999999999545
 30
0.0
 42
-0.4142135623730951
  0
VERTEX
  5
14CE
  8
SAPA_PROFIL
 10
35.675735931288052
 20
9.5499999999999545
 30
0.0
  0
VERTEX
  5
14CF
  8
SAPA_PROFIL
 10
35.675735931288052
 20
16.549999999999951
 30
0.0
 42
-0.4142140000000462
  0
VERTEX
  5
14D0
  8
SAPA_PROFIL
 10
36.175735931288052
 20
17.049999999999951
 30
0.0
  0
VERTEX
  5
14D1
  8
SAPA_PROFIL
 10
39.607968931288042
 20
17.050000000000011
 30
0.0
 42
-0.1989120000000332
  0
VERTEX
  5
14D2
  8
SAPA_PROFIL
 10
39.961521931288068
 20
16.903552999999992
 30
0.0
  0
VERTEX
  5
14D3
  8
SAPA_PROFIL
 10
42.595404931288037
 20
14.269669999999961
 30
0.0
 42
1.000556671979917
  0
VERTEX
  5
14D4
  8
SAPA_PROFIL
 10
43.655475327519177
 20
15.33091994732848
 30
0.0
  0
VERTEX
  5
14D5
  8
SAPA_PROFIL
 10
41.49878055888405
 20
17.487614715963609
 30
0.0
 42
-0.5205670505516917
  0
VERTEX
  5
14D6
  8
SAPA_PROFIL
 10
41.641024818606972
 20
18.294322000075219
 30
0.0
  0
VERTEX
  5
14D7
  8
SAPA_PROFIL
 10
52.087045062158381
 20
23.16538123688537
 30
0.0
 42
0.2914734195861185
  0
VERTEX
  5
14D8
  8
SAPA_PROFIL
 10
52.375735931288091
 20
23.6185351304037
 30
0.0
  0
VERTEX
  5
14D9
  8
SAPA_PROFIL
 10
52.375735931288091
 20
34.199999999999932
 30
0.0
 42
0.4142139999999796
  0
VERTEX
  5
14DA
  8
SAPA_PROFIL
 10
52.075735931288023
 20
34.5
 30
0.0
  0
VERTEX
  5
14DB
  8
SAPA_PROFIL
 10
51.175735931288159
 20
34.5
 30
0.0
 42
0.414213999999813
  0
VERTEX
  5
14DC
  8
SAPA_PROFIL
 10
50.875735931288091
 20
34.199999999999932
 30
0.0
  0
VERTEX
  5
14DD
  8
SAPA_PROFIL
 10
50.875735931287977
 20
32.199999999999989
 30
0.0
 42
-0.4142139999998961
  0
VERTEX
  5
14DE
  8
SAPA_PROFIL
 10
50.675735931288052
 20
32.0
 30
0.0
  0
VERTEX
  5
14DF
  8
SAPA_PROFIL
 10
47.875735931288091
 20
32.0
 30
0.0
 42
-0.5773502691898261
  0
VERTEX
  5
14E0
  8
SAPA_PROFIL
 10
47.702530850531147
 20
32.299999999999947
 30
0.0
  0
VERTEX
  5
14E1
  8
SAPA_PROFIL
 10
47.83554355242336
 20
32.530384757729337
 30
0.0
 42
0.1316524975874119
  0
VERTEX
  5
14E2
  8
SAPA_PROFIL
 10
47.875735931288091
 20
32.680384757729307
 30
0.0
  0
VERTEX
  5
14E3
  8
SAPA_PROFIL
 10
47.87573593128797
 20
34.604999999999961
 30
0.0
 42
0.4142139999999461
  0
VERTEX
  5
14E4
  8
SAPA_PROFIL
 10
47.375735931288091
 20
35.104999999999961
 30
0.0
  0
VERTEX
  5
14E5
  8
SAPA_PROFIL
 10
46.675735931288159
 20
35.104999999999848
 30
0.0
 42
-0.4142140000000906
  0
VERTEX
  5
14E6
  8
SAPA_PROFIL
 10
46.375735931288077
 20
35.404999999999973
 30
0.0
  0
VERTEX
  5
14E7
  8
SAPA_PROFIL
 10
46.375735931287977
 20
40.505000209812522
 30
0.0
 42
0.1316525489352833
  0
VERTEX
  5
14E8
  8
SAPA_PROFIL
 10
46.335543522139567
 20
40.655000262265673
 30
0.0
  0
VERTEX
  5
14E9
  8
SAPA_PROFIL
 10
46.075735931288023
 20
41.104999999999961
 30
0.0
  0
VERTEX
  5
14EA
  8
SAPA_PROFIL
 10
46.335543647139389
 20
41.555000820266123
 30
0.0
 42
0.1316523369912119
  0
VERTEX
  5
14EB
  8
SAPA_PROFIL
 10
46.375735931288077
 20
41.705000656213031
 30
0.0
  0
VERTEX
  5
14EC
  8
SAPA_PROFIL
 10
46.375735931288077
 20
46.805000000000007
 30
0.0
 42
-0.414213999999813
  0
VERTEX
  5
14ED
  8
SAPA_PROFIL
 10
46.675735931288038
 20
47.104999999999961
 30
0.0
  0
VERTEX
  5
14EE
  8
SAPA_PROFIL
 10
47.37573593128797
 20
47.104999999999961
 30
0.0
 42
0.4142139999999461
  0
VERTEX
  5
14EF
  8
SAPA_PROFIL
 10
47.875735931288091
 20
47.604999999999947
 30
0.0
  0
VERTEX
  5
14F0
  8
SAPA_PROFIL
 10
47.87573593128797
 20
51.319615242270572
 30
0.0
 42
0.1316524975873767
  0
VERTEX
  5
14F1
  8
SAPA_PROFIL
 10
47.83554355242336
 20
51.469615242270663
 30
0.0
  0
VERTEX
  5
14F2
  8
SAPA_PROFIL
 10
47.702530850531147
 20
51.699999999999989
 30
0.0
 42
-0.5773502691894598
  0
VERTEX
  5
14F3
  8
SAPA_PROFIL
 10
47.875735931288091
 20
51.999999999999943
 30
0.0
  0
VERTEX
  5
14F4
  8
SAPA_PROFIL
 10
50.675735931288052
 20
51.999999999999829
 30
0.0
 42
-0.4142139999998128
  0
VERTEX
  5
14F5
  8
SAPA_PROFIL
 10
50.875735931288091
 20
51.800000000000011
 30
0.0
  0
VERTEX
  5
14F6
  8
SAPA_PROFIL
 10
50.875735931288091
 20
49.799999999999891
 30
0.0
 42
0.414213999999813
  0
VERTEX
  5
14F7
  8
SAPA_PROFIL
 10
51.175735931288038
 20
49.499999999999943
 30
0.0
  0
VERTEX
  5
14F8
  8
SAPA_PROFIL
 10
52.075735931288023
 20
49.499999999999943
 30
0.0
 42
0.4142139999998128
  0
VERTEX
  5
14F9
  8
SAPA_PROFIL
 10
52.375735931288091
 20
49.800000000000011
 30
0.0
  0
VERTEX
  5
14FA
  8
SAPA_PROFIL
 10
52.37573593128797
 20
53.499999999999943
 30
0.0
 42
0.4142139999999461
  0
VERTEX
  5
14FB
  8
SAPA_PROFIL
 10
51.875735931288091
 20
53.99999999999995
 30
0.0
  0
VERTEX
  5
14FC
  8
SAPA_PROFIL
 10
48.375735931288091
 20
53.99999999999995
 30
0.0
 42
-0.4142140000000794
  0
VERTEX
  5
14FD
  8
SAPA_PROFIL
 10
47.875735931288091
 20
54.499999999999943
 30
0.0
  0
VERTEX
  5
14FE
  8
SAPA_PROFIL
 10
47.875735931288091
 20
59.027191000000073
 30
0.0
 42
-0.397937999999963
  0
VERTEX
  5
14FF
  8
SAPA_PROFIL
 10
48.347806931287998
 20
59.526409999999991
 30
0.0
  0
VERTEX
  5
1500
  8
SAPA_PROFIL
 10
62.175735931288038
 20
60.300000000000011
 30
0.0
 42
-0.4142140000000127
  0
VERTEX
  5
1501
  8
SAPA_PROFIL
 10
63.175735931288052
 20
59.300000000000011
 30
0.0
  0
VERTEX
  5
1502
  8
SAPA_PROFIL
 10
63.175735931288052
 20
58.000000000000057
 30
0.0
 42
0.424142000000003
  0
VERTEX
  5
1503
  8
SAPA_PROFIL
 10
64.209507931288044
 20
57.000570999999979
 30
0.0
 42
0.2988660000000183
  0
VERTEX
  5
1504
  8
SAPA_PROFIL
 10
65.146787931288031
 20
57.571429000000023
 30
0.0
 42
0.5507599999996211
  0
VERTEX
  5
1505
  8
SAPA_PROFIL
 10
64.875735931288091
 20
57.999999999999943
 30
0.0
  0
VERTEX
  5
1506
  8
SAPA_PROFIL
 10
64.575735931288023
 20
57.999999999999943
 30
0.0
 42
-0.414213999999813
  0
VERTEX
  5
1507
  8
SAPA_PROFIL
 10
64.375735931288091
 20
58.199999999999989
 30
0.0
  0
VERTEX
  5
1508
  8
SAPA_PROFIL
 10
64.375735931287977
 20
58.50000000000005
 30
0.0
 42
-0.4142139999999796
  0
VERTEX
  5
1509
  8
SAPA_PROFIL
 10
66.175735931288045
 20
60.300000000000011
 30
0.0
  0
VERTEX
  5
150A
  8
SAPA_PROFIL
 10
66.875735931287977
 20
60.299999999999898
 30
0.0
 42
-0.414213999999998
  0
VERTEX
  5
150B
  8
SAPA_PROFIL
 10
68.675735931288045
 20
58.499999999999943
 30
0.0
  0
VERTEX
  5
150C
  8
SAPA_PROFIL
 10
68.675735931288045
 20
58.199999999999989
 30
0.0
 42
-0.4142139999998128
  0
VERTEX
  5
150D
  8
SAPA_PROFIL
 10
68.475735931288114
 20
57.999999999999943
 30
0.0
  0
VERTEX
  5
150E
  8
SAPA_PROFIL
 10
68.175735931288045
 20
58.000000000000057
 30
0.0
 42
0.5507599999999805
  0
VERTEX
  5
150F
  8
SAPA_PROFIL
 10
67.904682931288093
 20
57.571429000000137
 30
0.0
 42
0.2988660000000331
  0
VERTEX
  5
1510
  8
SAPA_PROFIL
 10
68.841962931287981
 20
57.000570999999979
 30
0.0
 42
0.4241420000000235
  0
VERTEX
  5
1511
  8
SAPA_PROFIL
 10
69.875735931288091
 20
57.999999999999943
 30
0.0
  0
VERTEX
  5
1512
  8
SAPA_PROFIL
 10
69.875735931288091
 20
58.499999999999943
 30
0.0
 42
0.4142140000000127
  0
VERTEX
  5
1513
  8
SAPA_PROFIL
 10
66.875735931288091
 20
61.49999999999995
 30
0.0
  0
VERTEX
  5
1514
  8
SAPA_PROFIL
 10
28.592613931287929
 20
61.49999999999995
 30
0.0
 42
0.2679489999999819
  0
VERTEX
  5
1515
  8
SAPA_PROFIL
 10
25.99453793128805
 20
59.999999999999943
 30
0.0
  0
VERTEX
  5
1516
  8
SAPA_PROFIL
 10
21.509709931288061
 20
52.232051000000013
 30
0.0
 42
0.1316520000000068
  0
VERTEX
  5
1517
  8
SAPA_PROFIL
 10
21.375735931288091
 20
51.732051000000013
 30
0.0
  0
VERTEX
  5
1518
  8
SAPA_PROFIL
 10
21.375735931288091
 20
49.11138399999998
 30
0.0
 42
0.2596809999999468
  0
VERTEX
  5
1519
  8
SAPA_PROFIL
 10
21.470428931288101
 20
48.941352999999992
 30
0.0
  0
VERTEX
  5
151A
  8
SAPA_PROFIL
 10
22.917774931288019
 20
48.044954000000018
 30
0.0
 42
0.5877030000000416
  0
VERTEX
  5
151B
  8
SAPA_PROFIL
 10
23.375735931288091
 20
48.299999999999898
 30
0.0
  0
VERTEX
  5
151C
  8
SAPA_PROFIL
 10
23.375735931288091
 20
49.699999999999982
 30
0.0
 42
-0.414213999999924
  0
VERTEX
  5
151D
  8
SAPA_PROFIL
 10
23.675735931288159
 20
49.999999999999943
 30
0.0
  0
VERTEX
  5
151E
  8
SAPA_PROFIL
 10
26.075735931288019
 20
49.999999999999943
 30
0.0
 42
-0.4142139999998128
  0
VERTEX
  5
151F
  8
SAPA_PROFIL
 10
26.375735931288091
 20
49.699999999999882
 30
0.0
  0
VERTEX
  5
1520
  8
SAPA_PROFIL
 10
26.375735931288091
 20
40.099999999999973
 30
0.0
  0
VERTEX
  5
1521
  8
SAPA_PROFIL
 10
26.375735931288091
 20
38.099999999999973
 30
0.0
  0
VERTEX
  5
1522
  8
SAPA_PROFIL
 10
26.375735931288091
 20
32.300000000000011
 30
0.0
 42
-0.4142135623731505
  0
VERTEX
  5
1523
  8
SAPA_PROFIL
 10
26.075735931288019
 20
32.000000000000121
 30
0.0
  0
VERTEX
  5
1524
  8
SAPA_PROFIL
 10
23.675735931288042
 20
32.0
 30
0.0
 42
-0.4142135623730951
  0
VERTEX
  5
1525
  8
SAPA_PROFIL
 10
23.375735931287981
 20
32.300000000000011
 30
0.0
  0
VERTEX
  5
1526
  8
SAPA_PROFIL
 10
23.375735931288091
 20
33.699999999999932
 30
0.0
 42
0.5877030000001193
  0
VERTEX
  5
1527
  8
SAPA_PROFIL
 10
22.917774931288019
 20
33.955046999999979
 30
0.0
  0
VERTEX
  5
1528
  8
SAPA_PROFIL
 10
21.670428931288029
 20
33.162515999999982
 30
0.0
 42
0.2596809999999468
  0
VERTEX
  5
1529
  8
SAPA_PROFIL
 10
21.575735931288019
 20
32.992484999999988
 30
0.0
  0
VERTEX
  5
152A
  8
SAPA_PROFIL
 10
21.57573620974722
 20
21.00751573378238
 30
0.0
 42
0.2596809999999508
  0
VERTEX
  5
152B
  8
SAPA_PROFIL
 10
21.67042920974723
 20
20.83748573378239
 30
0.0
  0
VERTEX
  5
152C
  8
SAPA_PROFIL
 10
22.917775209747219
 20
20.044953733782389
 30
0.0
 42
0.5877030000000664
  0
VERTEX
  5
152D
  8
SAPA_PROFIL
 10
23.375736209747512
 20
20.30000073378238
 30
0.0
  0
VERTEX
  5
152E
  8
SAPA_PROFIL
 10
23.375735931288091
 20
21.699999999999989
 30
0.0
 42
-0.4142135623730951
  0
SEQEND
  5
152F
  8
SAPA_PROFIL
  0
POLYLINE
  5
BC2
  8
SAPA_GLAS
 66
     1
 10
0.0
 20
0.0
 30
0.0
  0
VERTEX
  5
153A
  8
SAPA_GLAS
 10
127.6757359312878
 20
10.400000000000089
 30
0.0
  0
VERTEX
  5
153B
  8
SAPA_GLAS
 10
98.875735931287764
 20
10.400000000000089
 30
0.0
  0
VERTEX
  5
153C
  8
SAPA_GLAS
 10
98.875735931287764
 20
16.400000000000091
 30
0.0
  0
VERTEX
  5
153D
  8
SAPA_GLAS
 10
127.6757359312878
 20
16.400000000000318
 30
0.0
  0
SEQEND
  5
153E
  8
SAPA_GLAS
  0
POLYLINE
  5
BC3
  8
SAPA_GLAS
 66
     1
 10
0.0
 20
0.0
 30
0.0
  0
VERTEX
  5
153F
  8
SAPA_GLAS
 10
-12.424264068714081
 20
10.40000000000015
 30
0.0
  0
VERTEX
  5
1540
  8
SAPA_GLAS
 10
16.375735931285991
 20
10.40000000000015
 30
0.0
  0
VERTEX
  5
1541
  8
SAPA_GLAS
 10
16.375735931285991
 20
16.400000000000141
 30
0.0
  0
VERTEX
  5
1542
  8
SAPA_GLAS
 10
-12.424264068714081
 20
16.400000000000372
 30
0.0
  0
SEQEND
  5
1543
  8
SAPA_GLAS
  0
CIRCLE
  5
BD4
  8
SAPA_FOGBAND
 10
66.541379724655258
 20
56.350080466152967
 30
0.0000000195376815
 40
0.25
  0
POLYLINE
  5
BD5
  8
SAPA_FOGBAND
 66
     1
 10
0.0
 20
0.0
 30
0.0000000195376815
 70
     1
  0
VERTEX
  5
1643
  8
SAPA_FOGBAND
 10
69.247801853281658
 20
56.983987747273829
 30
0.0000000195376815
  0
VERTEX
  5
1644
  8
SAPA_FOGBAND
 10
68.09137972465544
 20
56.882813920768449
 30
0.0000000195376815
  0
VERTEX
  5
1645
  8
SAPA_FOGBAND
 10
68.09137972465544
 20
57.950080466152883
 30
0.0000000195376815
  0
VERTEX
  5
1646
  8
SAPA_FOGBAND
 10
68.493143533675379
 20
58.057732754328022
 30
0.0000000195376815
 42
0.4995370695832079
  0
VERTEX
  5
1647
  8
SAPA_FOGBAND
 10
68.612497202429608
 20
58.35444959976229
 30
0.0000000195376815
  0
VERTEX
  5
1648
  8
SAPA_FOGBAND
 10
67.906461227195109
 20
59.40710749435123
 30
0.0000000195376815
 42
0.250021237196914
  0
VERTEX
  5
1649
  8
SAPA_FOGBAND
 10
67.075966862460163
 20
59.850080466152967
 30
0.0000000195376815
  0
VERTEX
  5
164A
  8
SAPA_FOGBAND
 10
66.006792586850324
 20
59.850080466152967
 30
0.0000000195376815
 42
0.250021237196914
  0
VERTEX
  5
164B
  8
SAPA_FOGBAND
 10
65.176298222114951
 20
59.40710749435123
 30
0.0000000195376815
  0
VERTEX
  5
164C
  8
SAPA_FOGBAND
 10
64.470262246880907
 20
58.35444959976229
 30
0.0000000195376815
 42
0.4995370695831766
  0
VERTEX
  5
164D
  8
SAPA_FOGBAND
 10
64.589615915634681
 20
58.057732754328022
 30
0.0000000195376815
  0
VERTEX
  5
164E
  8
SAPA_FOGBAND
 10
64.991379724655076
 20
57.950080466152883
 30
0.0000000195376815
  0
VERTEX
  5
164F
  8
SAPA_FOGBAND
 10
64.991379724655076
 20
56.882813920768449
 30
0.0000000195376815
  0
VERTEX
  5
1650
  8
SAPA_FOGBAND
 10
64.308810873205061
 20
56.942530957346371
 30
0.0000000195376815
 42
0.4400105308918379
  0
VERTEX
  5
1651
  8
SAPA_FOGBAND
 10
64.091379724655425
 20
56.743292017727917
 30
0.0000000195376815
  0
VERTEX
  5
1652
  8
SAPA_FOGBAND
 10
64.091379724655425
 20
56.70829655231767
 30
0.0000000195376815
 42
0.3888787318529988
  0
VERTEX
  5
1653
  8
SAPA_FOGBAND
 10
64.639086279006392
 20
56.110579733462536
 30
0.0000000195376815
  0
VERTEX
  5
1654
  8
SAPA_FOGBAND
 10
65.473393794132434
 20
56.037587283994689
 30
0.0000000195376815
 42
-0.2668174844056302
  0
VERTEX
  5
1655
  8
SAPA_FOGBAND
 10
65.636865492094898
 20
55.923637031339183
 30
0.0000000195376815
 42
0.6341045221175712
  0
VERTEX
  5
1656
  8
SAPA_FOGBAND
 10
67.445893957215617
 20
55.923637031339183
 30
0.0000000195376815
 42
-0.2668174844056113
  0
VERTEX
  5
1657
  8
SAPA_FOGBAND
 10
67.609365655178067
 20
56.037587283994689
 30
0.0000000195376815
  0
VERTEX
  5
1658
  8
SAPA_FOGBAND
 10
68.439086279006574
 20
56.110178432473219
 30
0.0000000195376815
 42
-0.3932191662530252
  0
VERTEX
  5
1659
  8
SAPA_FOGBAND
 10
69.191379724654894
 20
55.466611324843093
 30
0.0000000195376815
 42
-0.5936677432385475
  0
VERTEX
  5
165A
  8
SAPA_FOGBAND
 10
65.758577235397411
 20
52.696411535050117
 30
0.0000000195376815
 42
1.0000000000000131
  0
VERTEX
  5
165B
  8
SAPA_FOGBAND
 10
65.274534344052995
 20
52.341866080504751
 30
0.0000000195376815
 42
0.6273677588277283
  0
VERTEX
  5
165C
  8
SAPA_FOGBAND
 10
69.791379724655258
 20
55.466611324843093
 30
0.0000000195376815
  0
VERTEX
  5
165D
  8
SAPA_FOGBAND
 10
69.791379724655258
 20
56.485890398228037
 30
0.0000000195376815
 42
0.4400105308918419
  0
SEQEND
  5
165E
  8
SAPA_FOGBAND
  0
POLYLINE
  5
BD6
  8
SAPA_FOGBAND
 66
     1
 10
0.0
 20
0.0
 30
0.0000000195376815
 70
     1
  0
VERTEX
  5
165F
  8
SAPA_FOGBAND
 10
65.741379724655076
 20
57.198608603576702
 30
0.0000000195376815
 42
0.6341370759941026
  0
VERTEX
  5
1660
  8
SAPA_FOGBAND
 10
65.905016088291291
 20
57.121469681992892
 30
0.0000000195376815
 42
-0.3592455179659193
  0
VERTEX
  5
1661
  8
SAPA_FOGBAND
 10
67.17774336101877
 20
57.121469681992892
 30
0.0000000195376815
 42
0.6341370759941019
  0
VERTEX
  5
1662
  8
SAPA_FOGBAND
 10
67.34137972465544
 20
57.198608603576702
 30
0.0000000195376815
  0
VERTEX
  5
1663
  8
SAPA_FOGBAND
 10
67.34137972465544
 20
58.550080466152792
 30
0.0000000195376815
 42
0.4142135623730951
  0
VERTEX
  5
1664
  8
SAPA_FOGBAND
 10
66.84137972465544
 20
59.050080466152792
 30
0.0000000195376815
  0
VERTEX
  5
1665
  8
SAPA_FOGBAND
 10
66.241379724655076
 20
59.050080466152792
 30
0.0000000195376815
 42
0.4142135623730951
  0
VERTEX
  5
1666
  8
SAPA_FOGBAND
 10
65.741379724655076
 20
58.550080466152792
 30
0.0000000195376815
  0
SEQEND
  5
1667
  8
SAPA_FOGBAND
  0
CIRCLE
  5
BD7
  8
SAPA_FOGBAND
 10
61.559623327734123
 20
20.501663373581948
 30
0.0
 40
0.3
  0
POLYLINE
  5
BD8
  8
SAPA_FOGBAND
 66
     1
 10
0.0
 20
0.0
 30
0.0
 70
     1
  0
VERTEX
  5
1668
  8
SAPA_FOGBAND
 10
65.368271045129745
 20
17.320520937567551
 30
0.0
  0
VERTEX
  5
1669
  8
SAPA_FOGBAND
 10
63.454818776407933
 20
17.320520937567551
 30
0.0
 42
-0.4142135623730951
  0
VERTEX
  5
166A
  8
SAPA_FOGBAND
 10
62.954818776407933
 20
17.820520937567551
 30
0.0
  0
VERTEX
  5
166B
  8
SAPA_FOGBAND
 10
62.954818776407933
 20
18.620520937567282
 30
0.0
 42
-0.4142135623730951
  0
VERTEX
  5
166C
  8
SAPA_FOGBAND
 10
63.454818776407933
 20
19.120520937567271
 30
0.0
  0
VERTEX
  5
166D
  8
SAPA_FOGBAND
 10
65.530922588474255
 20
19.120520937567271
 30
0.0
 42
-0.2216946626429447
  0
VERTEX
  5
166E
  8
SAPA_FOGBAND
 10
65.990549254346092
 20
18.90619350337937
 30
0.0
  0
VERTEX
  5
166F
  8
SAPA_FOGBAND
 10
66.350686301638575
 20
18.476998883442491
 30
0.0
 42
-0.4400105308918337
  0
VERTEX
  5
1670
  8
SAPA_FOGBAND
 10
66.263521618697155
 20
17.81491738450876
 30
0.0
  0
VERTEX
  5
1671
  8
SAPA_FOGBAND
 10
65.712416906940575
 20
17.429029710993909
 30
0.0
 42
-0.153914721059829
  0
SEQEND
  5
1672
  8
SAPA_FOGBAND
  0
POLYLINE
  5
BD9
  8
SAPA_FOGBAND
 66
     1
 10
0.0
 20
0.0
 30
0.0
 70
     1
  0
VERTEX
  5
1673
  8
SAPA_FOGBAND
 10
51.870289489735448
 20
21.134575675469758
 30
0.0
 42
0.1579553886371987
  0
VERTEX
  5
1674
  8
SAPA_FOGBAND
 10
48.606461445619402
 20
20.98751616900546
 30
0.0
 42
1.0
  0
VERTEX
  5
1675
  8
SAPA_FOGBAND
 10
49.869084434558658
 20
17.616198446244368
 30
0.0
 42
0.1276248526686838
  0
VERTEX
  5
1676
  8
SAPA_FOGBAND
 10
51.636736943036219
 20
18.857510867929872
 30
0.0
  0
VERTEX
  5
1677
  8
SAPA_FOGBAND
 10
52.546083466604962
 20
19.92689954050234
 30
0.0
 42
0.5691506674918112
  0
VERTEX
  5
1678
  8
SAPA_FOGBAND
 10
52.15584771088686
 20
21.065590735139441
 30
0.0
 42
-0.0156300267407041
  0
SEQEND
  5
1679
  8
SAPA_FOGBAND
  0
POLYLINE
  5
BDA
  8
SAPA_FOGBAND
 66
     1
 10
0.0
 20
0.0
 30
0.0
 70
     1
  0
VERTEX
  5
167A
  8
SAPA_FOGBAND
 10
63.173140930288689
 20
13.925087299857241
 30
0.0
 42
-0.3888787318529789
  0
VERTEX
  5
167B
  8
SAPA_FOGBAND
 10
61.886784735377091
 20
14.912143124367219
 30
0.0
  0
VERTEX
  5
167C
  8
SAPA_FOGBAND
 10
61.76026980058657
 20
15.629644973953591
 30
0.0
 42
-1.0
  0
VERTEX
  5
167D
  8
SAPA_FOGBAND
 10
61.656080893986093
 20
16.220529625760889
 30
0.0
  0
VERTEX
  5
167E
  8
SAPA_FOGBAND
 10
61.548677423736422
 20
16.829644973953862
 30
0.0
 42
-0.9999999999999067
  0
VERTEX
  5
167F
  8
SAPA_FOGBAND
 10
61.444488517136392
 20
17.420529625761159
 30
0.0
  0
VERTEX
  5
1680
  8
SAPA_FOGBAND
 10
61.383703910474992
 20
17.765256260430021
 30
0.0
 42
0.3345953195020691
  0
VERTEX
  5
1681
  8
SAPA_FOGBAND
 10
59.183005686113923
 20
19.817440554683511
 30
0.0
  0
VERTEX
  5
1682
  8
SAPA_FOGBAND
 10
55.169198281102013
 20
20.17054832760067
 30
0.0
 42
0.2564696513213821
  0
VERTEX
  5
1683
  8
SAPA_FOGBAND
 10
52.71470408239508
 20
19.044616161658659
 30
0.0
  0
VERTEX
  5
1684
  8
SAPA_FOGBAND
 10
52.170004353764277
 20
18.40405098144009
 30
0.0
 42
-0.1276248526686853
  0
VERTEX
  5
1685
  8
SAPA_FOGBAND
 10
50.114594460185231
 20
16.960664444596372
 30
0.0
 42
-1.0
  0
VERTEX
  5
1686
  8
SAPA_FOGBAND
 10
48.360951419992368
 20
21.643050170653339
 30
0.0
 42
-0.1579553886371977
  0
VERTEX
  5
1687
  8
SAPA_FOGBAND
 10
52.055851092576972
 20
21.809532630801812
 30
0.0
 42
0.0604483959424258
  0
VERTEX
  5
1688
  8
SAPA_FOGBAND
 10
55.445963153562268
 20
21.708440096348738
 30
0.0
  0
VERTEX
  5
1689
  8
SAPA_FOGBAND
 10
60.603529909929762
 20
21.92052093756746
 30
0.0
 42
0.3286126757704555
  0
VERTEX
  5
168A
  8
SAPA_FOGBAND
 10
62.036174016399279
 20
22.97607649312312
 30
0.0
 42
-0.2704382184496639
  0
VERTEX
  5
168B
  8
SAPA_FOGBAND
 10
63.154682541535642
 20
23.889752768263119
 30
0.0
  0
VERTEX
  5
168C
  8
SAPA_FOGBAND
 10
62.954818776407933
 20
20.020520937567369
 30
0.0
  0
VERTEX
  5
168D
  8
SAPA_FOGBAND
 10
64.154818776407751
 20
20.020520937567369
 30
0.0
  0
VERTEX
  5
168E
  8
SAPA_FOGBAND
 10
65.215883181957338
 20
19.966049174527988
 30
0.0
  0
VERTEX
  5
168F
  8
SAPA_FOGBAND
 10
65.214914172099611
 20
20.515895083333081
 30
0.0
 42
-0.6068148963145658
  0
VERTEX
  5
1690
  8
SAPA_FOGBAND
 10
65.734505252922077
 20
20.631085652708119
 30
0.0
  0
VERTEX
  5
1691
  8
SAPA_FOGBAND
 10
67.110830938812228
 20
18.815672842687661
 30
0.0
 42
-0.4400105308918406
  0
VERTEX
  5
1692
  8
SAPA_FOGBAND
 10
66.910109684725626
 20
17.29104355144926
 30
0.0
  0
VERTEX
  5
1693
  8
SAPA_FOGBAND
 10
64.893146760502873
 20
15.767842170033591
 30
0.0
 42
-0.5205670505516999
  0
VERTEX
  5
1694
  8
SAPA_FOGBAND
 10
64.431296081710911
 20
15.935942069789631
 30
0.0
  0
VERTEX
  5
1695
  8
SAPA_FOGBAND
 10
64.404700450675932
 20
16.68078118122224
 30
0.0
  0
VERTEX
  5
1696
  8
SAPA_FOGBAND
 10
63.114787641827547
 20
16.481270237768229
 30
0.0
  0
SEQEND
  5
1697
  8
SAPA_FOGBAND
  0
POLYLINE
  5
BDB
  8
SAPA_FOGBAND
 66
     1
 10
0.0
 20
0.0
 30
0.0
 70
     1
  0
VERTEX
  5
1698
  8
SAPA_FOGBAND
 10
105.36913377163719
 20
22.98925126220502
 30
0.0
  0
VERTEX
  5
1699
  8
SAPA_FOGBAND
 10
106.5691337716372
 20
22.98925126220502
 30
0.0
 42
0.4142135623730951
  0
VERTEX
  5
169A
  8
SAPA_FOGBAND
 10
106.86913377163719
 20
23.289251262204971
 30
0.0
  0
VERTEX
  5
169B
  8
SAPA_FOGBAND
 10
106.86913377163719
 20
24.189251262205062
 30
0.0
  0
VERTEX
  5
169C
  8
SAPA_FOGBAND
 10
106.5191337716373
 20
24.189251262205062
 30
0.0
 42
-0.6681786379192988
  0
VERTEX
  5
169D
  8
SAPA_FOGBAND
 10
106.3070017372812
 20
24.701383296561058
 30
0.0
  0
VERTEX
  5
169E
  8
SAPA_FOGBAND
 10
107.1605551278745
 20
25.554936687154171
 30
0.0
 42
-0.1989123673796552
  0
VERTEX
  5
169F
  8
SAPA_FOGBAND
 10
107.7262405528237
 20
25.789251262204971
 30
0.0
  0
VERTEX
  5
16A0
  8
SAPA_FOGBAND
 10
107.8889356752435
 20
25.789251262204971
 30
0.0
 42
-0.3394542588633746
  0
VERTEX
  5
16A1
  8
SAPA_FOGBAND
 10
108.1787134231303
 20
25.566896975735741
 30
0.0
  0
VERTEX
  5
16A2
  8
SAPA_FOGBAND
 10
108.5418626665202
 20
24.211605548674239
 30
0.0
 42
0.3394542588633746
  0
VERTEX
  5
16A3
  8
SAPA_FOGBAND
 10
108.83164041440691
 20
23.98925126220502
 30
0.0
  0
VERTEX
  5
16A4
  8
SAPA_FOGBAND
 10
111.4066271288674
 20
23.98925126220502
 30
0.0
 42
0.3394542588633746
  0
VERTEX
  5
16A5
  8
SAPA_FOGBAND
 10
111.6964048767542
 20
24.211605548674239
 30
0.0
  0
VERTEX
  5
16A6
  8
SAPA_FOGBAND
 10
112.0595541201443
 20
25.566896975735741
 30
0.0
 42
-0.3394542588633744
  0
VERTEX
  5
16A7
  8
SAPA_FOGBAND
 10
112.3493318680308
 20
25.789251262204971
 30
0.0
  0
VERTEX
  5
16A8
  8
SAPA_FOGBAND
 10
112.51202699045091
 20
25.789251262204971
 30
0.0
 42
-0.1989123673796526
  0
VERTEX
  5
16A9
  8
SAPA_FOGBAND
 10
113.0777124154
 20
25.554936687154171
 30
0.0
  0
VERTEX
  5
16AA
  8
SAPA_FOGBAND
 10
113.93126580599331
 20
24.701383296561058
 30
0.0
 42
-0.6681786379193474
  0
VERTEX
  5
16AB
  8
SAPA_FOGBAND
 10
113.7191337716373
 20
24.189251262205062
 30
0.0
  0
VERTEX
  5
16AC
  8
SAPA_FOGBAND
 10
113.36913377163719
 20
24.189251262205062
 30
0.0
  0
VERTEX
  5
16AD
  8
SAPA_FOGBAND
 10
113.36913377163719
 20
23.289251262204971
 30
0.0
 42
0.4142135623730951
  0
VERTEX
  5
16AE
  8
SAPA_FOGBAND
 10
113.66913377163741
 20
22.98925126220502
 30
0.0
  0
VERTEX
  5
16AF
  8
SAPA_FOGBAND
 10
115.7691337716373
 20
22.98925126220502
 30
0.0
 42
0.4142135623730951
  0
VERTEX
  5
16B0
  8
SAPA_FOGBAND
 10
116.0691337716372
 20
23.289251262204971
 30
0.0
  0
VERTEX
  5
16B1
  8
SAPA_FOGBAND
 10
116.0691337716372
 20
24.689251262205062
 30
0.0
 42
-0.7754026414786132
  0
VERTEX
  5
16B2
  8
SAPA_FOGBAND
 10
116.6319257670449
 20
24.833959130510951
 30
0.0
 42
0.1086822875051356
  0
VERTEX
  5
16B3
  8
SAPA_FOGBAND
 10
120.7819739256357
 20
16.90587674037419
 30
0.0
 42
-0.8680589103334746
  0
VERTEX
  5
16B4
  8
SAPA_FOGBAND
 10
120.3070498958719
 20
16.549036837712261
 30
0.0
  0
VERTEX
  5
16B5
  8
SAPA_FOGBAND
 10
116.33701449872039
 20
19.37683715885623
 30
0.0
 42
0.1989123673796536
  0
VERTEX
  5
16B6
  8
SAPA_FOGBAND
 10
115.6299077175337
 20
19.669730377669559
 30
0.0
  0
VERTEX
  5
16B7
  8
SAPA_FOGBAND
 10
112.79658875311399
 20
19.669730377669559
 30
0.0
 42
0.577350269189628
  0
VERTEX
  5
16B8
  8
SAPA_FOGBAND
 10
112.5367811319787
 20
19.219730377669741
 30
0.0
  0
VERTEX
  5
16B9
  8
SAPA_FOGBAND
 10
114.6749098283905
 20
16.91497627431545
 30
0.0
 42
-0.8769764629927301
  0
VERTEX
  5
16BA
  8
SAPA_FOGBAND
 10
114.2029701728992
 20
16.55284423995931
 30
0.0
  0
VERTEX
  5
16BB
  8
SAPA_FOGBAND
 10
110.2367421779944
 20
19.37683715885623
 30
0.0
 42
0.198912367379658
  0
VERTEX
  5
16BC
  8
SAPA_FOGBAND
 10
109.52963539680781
 20
19.669730377669559
 30
0.0
  0
VERTEX
  5
16BD
  8
SAPA_FOGBAND
 10
107.2973610345863
 20
19.669730377669559
 30
0.0
 42
0.5773502691896441
  0
VERTEX
  5
16BE
  8
SAPA_FOGBAND
 10
107.03755341345079
 20
19.219730377669741
 30
0.0
  0
VERTEX
  5
16BF
  8
SAPA_FOGBAND
 10
109.1751805349801
 20
16.915845027495831
 30
0.0
 42
-0.87697646299276
  0
VERTEX
  5
16C0
  8
SAPA_FOGBAND
 10
108.7032408794888
 20
16.55371299313969
 30
0.0
  0
VERTEX
  5
16C1
  8
SAPA_FOGBAND
 10
104.6620269904507
 20
19.45269180616992
 30
0.0
 42
-0.198912367379658
  0
VERTEX
  5
16C2
  8
SAPA_FOGBAND
 10
104.36913377163719
 20
20.15979858735637
 30
0.0
  0
VERTEX
  5
16C3
  8
SAPA_FOGBAND
 10
104.36913377163719
 20
21.98925126220502
 30
0.0
  0
VERTEX
  5
16C4
  8
SAPA_FOGBAND
 10
104.36913377163719
 20
21.979319471891809
 30
0.0
  0
SEQEND
  5
16C5
  8
SAPA_FOGBAND
  0
POLYLINE
  5
BDC
  8
SAPA_FOGBAND
 66
     1
 10
0.0
 20
0.0
 30
0.0
 70
     1
  0
VERTEX
  5
16C6
  8
SAPA_FOGBAND
 10
104.3691405189771
 20
7.4975743288614458
 30
0.0
 42
0.4142135623730951
  0
VERTEX
  5
16C7
  8
SAPA_FOGBAND
 10
105.3691405189771
 20
6.4975743288614458
 30
0.0
  0
VERTEX
  5
16C8
  8
SAPA_FOGBAND
 10
106.56914051897721
 20
6.4975743288614458
 30
0.0
 42
-0.4142135623730951
  0
VERTEX
  5
16C9
  8
SAPA_FOGBAND
 10
106.8691405189771
 20
6.1975743288614922
 30
0.0
  0
VERTEX
  5
16CA
  8
SAPA_FOGBAND
 10
106.8691405189771
 20
5.2975743288616277
 30
0.0
  0
VERTEX
  5
16CB
  8
SAPA_FOGBAND
 10
106.519140518977
 20
5.2975743288616277
 30
0.0
 42
0.6681786379193472
  0
VERTEX
  5
16CC
  8
SAPA_FOGBAND
 10
106.30700848462121
 20
4.7854422945056276
 30
0.0
  0
VERTEX
  5
16CD
  8
SAPA_FOGBAND
 10
107.1605618752144
 20
3.9318889039122951
 30
0.0
 42
0.1989123673796526
  0
VERTEX
  5
16CE
  8
SAPA_FOGBAND
 10
107.72624730016371
 20
3.6975743288614922
 30
0.0
  0
VERTEX
  5
16CF
  8
SAPA_FOGBAND
 10
107.8889424225835
 20
3.6975743288614922
 30
0.0
 42
0.3394542588633746
  0
VERTEX
  5
16D0
  8
SAPA_FOGBAND
 10
108.1787201704702
 20
3.919928615330718
 30
0.0
  0
VERTEX
  5
16D1
  8
SAPA_FOGBAND
 10
108.5418694138601
 20
5.2752200423924469
 30
0.0
 42
-0.3394542588633744
  0
VERTEX
  5
16D2
  8
SAPA_FOGBAND
 10
108.8316471617469
 20
5.4975743288614458
 30
0.0
  0
VERTEX
  5
16D3
  8
SAPA_FOGBAND
 10
111.40663387620739
 20
5.4975743288614458
 30
0.0
 42
-0.3394542588633746
  0
VERTEX
  5
16D4
  8
SAPA_FOGBAND
 10
111.6964116240941
 20
5.2752200423924469
 30
0.0
  0
VERTEX
  5
16D5
  8
SAPA_FOGBAND
 10
112.059560867484
 20
3.919928615330718
 30
0.0
 42
0.3394542588633747
  0
VERTEX
  5
16D6
  8
SAPA_FOGBAND
 10
112.3493386153708
 20
3.6975743288614922
 30
0.0
  0
VERTEX
  5
16D7
  8
SAPA_FOGBAND
 10
112.5120337377906
 20
3.6975743288614922
 30
0.0
 42
0.1989123673796526
  0
VERTEX
  5
16D8
  8
SAPA_FOGBAND
 10
113.07771916274
 20
3.9318889039122951
 30
0.0
  0
VERTEX
  5
16D9
  8
SAPA_FOGBAND
 10
113.9312725533331
 20
4.7854422945056276
 30
0.0
 42
0.6681786379193474
  0
VERTEX
  5
16DA
  8
SAPA_FOGBAND
 10
113.7191405189773
 20
5.2975743288616277
 30
0.0
  0
VERTEX
  5
16DB
  8
SAPA_FOGBAND
 10
113.3691405189771
 20
5.2975743288616277
 30
0.0
  0
VERTEX
  5
16DC
  8
SAPA_FOGBAND
 10
113.3691405189771
 20
6.1975743288614922
 30
0.0
 42
-0.4142135623730951
  0
VERTEX
  5
16DD
  8
SAPA_FOGBAND
 10
113.6691405189771
 20
6.4975743288614458
 30
0.0
  0
VERTEX
  5
16DE
  8
SAPA_FOGBAND
 10
115.7691405189772
 20
6.4975743288614458
 30
0.0
 42
-0.4142135623730951
  0
VERTEX
  5
16DF
  8
SAPA_FOGBAND
 10
116.06914051897721
 20
6.1975743288614922
 30
0.0
  0
VERTEX
  5
16E0
  8
SAPA_FOGBAND
 10
116.06914051897721
 20
4.7975743288616277
 30
0.0
 42
0.7754026414785753
  0
VERTEX
  5
16E1
  8
SAPA_FOGBAND
 10
116.6319325143849
 20
4.6528664605557424
 30
0.0
  0
VERTEX
  5
16E2
  8
SAPA_FOGBAND
 10
120.1516350249302
 20
9.9235302589963794
 30
0.0
 42
0.8680589103334742
  0
VERTEX
  5
16E3
  8
SAPA_FOGBAND
 10
119.6767109951667
 20
10.28037016165808
 30
0.0
  0
VERTEX
  5
16E4
  8
SAPA_FOGBAND
 10
116.3370212460603
 20
8.2904675476750072
 30
0.0
 42
-0.198912367379658
  0
VERTEX
  5
16E5
  8
SAPA_FOGBAND
 10
115.62991446487359
 20
7.9975743288614458
 30
0.0
  0
VERTEX
  5
16E6
  8
SAPA_FOGBAND
 10
112.7965955004539
 20
7.9975743288614458
 30
0.0
 42
-0.5773502691896282
  0
VERTEX
  5
16E7
  8
SAPA_FOGBAND
 10
112.53678787931869
 20
8.4475743288614922
 30
0.0
  0
VERTEX
  5
16E8
  8
SAPA_FOGBAND
 10
114.044570927685
 20
9.9144307250553538
 30
0.0
 42
0.8769764629927299
  0
VERTEX
  5
16E9
  8
SAPA_FOGBAND
 10
113.5726312721937
 20
10.276562759411259
 30
0.0
  0
VERTEX
  5
16EA
  8
SAPA_FOGBAND
 10
110.2367489253344
 20
8.2904675476750072
 30
0.0
 42
-0.198912367379658
  0
VERTEX
  5
16EB
  8
SAPA_FOGBAND
 10
109.5296421441477
 20
7.9975743288614458
 30
0.0
  0
VERTEX
  5
16EC
  8
SAPA_FOGBAND
 10
107.2973677819262
 20
7.9975743288614458
 30
0.0
 42
-0.5773502691896282
  0
VERTEX
  5
16ED
  8
SAPA_FOGBAND
 10
107.0375601607908
 20
8.4475743288614922
 30
0.0
  0
VERTEX
  5
16EE
  8
SAPA_FOGBAND
 10
108.5448416342746
 20
9.9135619718749695
 30
0.0
 42
0.8769764629927299
  0
VERTEX
  5
16EF
  8
SAPA_FOGBAND
 10
108.07290197878331
 20
10.27569400623088
 30
0.0
  0
VERTEX
  5
16F0
  8
SAPA_FOGBAND
 10
104.66203373779069
 20
8.2146129003613169
 30
0.0
 42
0.198912367379658
  0
VERTEX
  5
16F1
  8
SAPA_FOGBAND
 10
104.3691405189771
 20
7.5075061191746491
 30
0.0
  0
SEQEND
  5
16F2
  8
SAPA_FOGBAND
  0
POLYLINE
  5
BDD
  8
SAPA_FOGBAND
 62
     2
 66
     1
 10
0.0
 20
0.0
 30
0.0
  0
VERTEX
  5
16F3
  8
SAPA_FOGBAND
 62
     2
 10
1.314143554433471
 20
6.5000000000001483
 30
0.0
  0
VERTEX
  5
16F4
  8
SAPA_FOGBAND
 62
     2
 10
1.5065019744258521
 20
5.409081189847404
 30
0.0
  0
VERTEX
  5
16F5
  8
SAPA_FOGBAND
 62
     2
 10
1.0747054145242381
 20
5.2933816503274667
 30
0.0
 42
0.4430158954262519
  0
VERTEX
  5
16F6
  8
SAPA_FOGBAND
 62
     2
 10
0.9392283669801386
 20
5.0299052222204983
 30
0.0
  0
VERTEX
  5
16F7
  8
SAPA_FOGBAND
 62
     2
 10
1.416176560199097
 20
3.7594174743023019
 30
0.0
 42
0.3125358528825162
  0
VERTEX
  5
16F8
  8
SAPA_FOGBAND
 62
     2
 10
1.7906582733284959
 20
3.5000000000006031
 30
0.0
  0
VERTEX
  5
16F9
  8
SAPA_FOGBAND
 62
     2
 10
3.6608135892388201
 20
3.5000000000001479
 30
0.0
 42
0.3125358528825104
  0
VERTEX
  5
16FA
  8
SAPA_FOGBAND
 62
     2
 10
4.0352953023682181
 20
3.7594174743023019
 30
0.0
  0
VERTEX
  5
16FB
  8
SAPA_FOGBAND
 62
     2
 10
4.5122434955874047
 20
5.0299052222204983
 30
0.0
 42
0.4430158954262519
  0
VERTEX
  5
16FC
  8
SAPA_FOGBAND
 62
     2
 10
4.3767664480433046
 20
5.293381650327353
 30
0.0
  0
VERTEX
  5
16FD
  8
SAPA_FOGBAND
 62
     2
 10
3.9449698881414639
 20
5.409081189847404
 30
0.0
  0
VERTEX
  5
16FE
  8
SAPA_FOGBAND
 62
     2
 10
4.1341137444839902
 20
6.4817693036149313
 30
0.0
  0
SEQEND
  5
16FF
  8
SAPA_FOGBAND
 62
     2
  0
POLYLINE
  5
BDE
  8
SAPA_FOGBAND
 62
     2
 66
     1
 10
0.0
 20
0.0
 30
0.0
 70
     1
  0
VERTEX
  5
1700
  8
SAPA_FOGBAND
 62
     2
 10
1.3257359312838011
 20
6.5000000000001483
 30
0.0
 42
-0.285714285714282
  0
VERTEX
  5
1701
  8
SAPA_FOGBAND
 62
     2
 10
4.1257359312837494
 20
6.5000000000001483
 30
0.0
  0
VERTEX
  5
1702
  8
SAPA_FOGBAND
 62
     2
 10
6.1995161006716231
 20
6.5000000000006031
 30
0.0
 42
0.3882600129940275
  0
VERTEX
  5
1703
  8
SAPA_FOGBAND
 62
     2
 10
6.4983175980130241
 20
6.7732107262801611
 30
0.0
  0
VERTEX
  5
1704
  8
SAPA_FOGBAND
 62
     2
 10
6.9645275219395231
 20
10.07321072628025
 30
0.0
 42
0.4406523138893894
  0
VERTEX
  5
1705
  8
SAPA_FOGBAND
 62
     2
 10
6.6657260245976673
 20
10.40000000000015
 30
0.0
  0
VERTEX
  5
1706
  8
SAPA_FOGBAND
 62
     2
 10
4.955934027677344
 20
10.40000000000015
 30
0.0
 42
0.3394542588634375
  0
VERTEX
  5
1707
  8
SAPA_FOGBAND
 62
     2
 10
4.6661562797907967
 20
10.177645713531151
 30
0.0
  0
VERTEX
  5
1708
  8
SAPA_FOGBAND
 62
     2
 10
4.4637765518593682
 20
9.9600599313635598
 30
0.0
 42
-0.3394542588633663
  0
VERTEX
  5
1709
  8
SAPA_FOGBAND
 62
     2
 10
4.1739988039725944
 20
9.7377056448945591
 30
0.0
  0
VERTEX
  5
170A
  8
SAPA_FOGBAND
 62
     2
 10
1.277473058594736
 20
9.7377056448945591
 30
0.0
 42
-0.3394542588634373
  0
VERTEX
  5
170B
  8
SAPA_FOGBAND
 62
     2
 10
0.9876953107081902
 20
9.9600599313635598
 30
0.0
  0
VERTEX
  5
170C
  8
SAPA_FOGBAND
 62
     2
 10
0.785315582776761
 20
10.177645713531151
 30
0.0
 42
0.3394542588633662
  0
VERTEX
  5
170D
  8
SAPA_FOGBAND
 62
     2
 10
0.4955378348899871
 20
10.40000000000015
 30
0.0
  0
VERTEX
  5
170E
  8
SAPA_FOGBAND
 62
     2
 10
-1.214254162030115
 20
10.40000000000015
 30
0.0
 42
0.4406523138893994
  0
VERTEX
  5
170F
  8
SAPA_FOGBAND
 62
     2
 10
-1.5130556593717439
 20
10.07321072628025
 30
0.0
  0
VERTEX
  5
1710
  8
SAPA_FOGBAND
 62
     2
 10
-1.046845735445479
 20
6.7732107262801611
 30
0.0
 42
0.3882600129940462
  0
VERTEX
  5
1711
  8
SAPA_FOGBAND
 62
     2
 10
-0.7480442381040789
 20
6.5000000000001483
 30
0.0
  0
VERTEX
  5
1712
  8
SAPA_FOGBAND
 62
     2
 10
1.314143554433471
 20
6.5000000000001483
 30
0.0
  0
SEQEND
  5
1713
  8
SAPA_FOGBAND
 62
     2
  0
POLYLINE
  5
BDF
  8
SAPA_FOGBAND
 66
     1
 10
0.0
 20
0.0
 30
0.0
 70
     1
  0
VERTEX
  5
1714
  8
SAPA_FOGBAND
 10
9.882338090936571
 20
22.98925126220507
 30
0.0
  0
VERTEX
  5
1715
  8
SAPA_FOGBAND
 10
8.6823380909365255
 20
22.98925126220507
 30
0.0
 42
-0.4142135623730951
  0
VERTEX
  5
1716
  8
SAPA_FOGBAND
 10
8.382338090936571
 20
23.289251262205031
 30
0.0
  0
VERTEX
  5
1717
  8
SAPA_FOGBAND
 10
8.382338090936571
 20
24.189251262205119
 30
0.0
  0
VERTEX
  5
1718
  8
SAPA_FOGBAND
 10
8.7323380909364801
 20
24.189251262205119
 30
0.0
 42
0.6681786379192988
  0
VERTEX
  5
1719
  8
SAPA_FOGBAND
 10
8.9444701252925256
 20
24.701383296561119
 30
0.0
  0
VERTEX
  5
171A
  8
SAPA_FOGBAND
 10
8.0909167346991921
 20
25.554936687154228
 30
0.0
 42
0.1989123673796552
  0
VERTEX
  5
171B
  8
SAPA_FOGBAND
 10
7.5252313097500396
 20
25.789251262205031
 30
0.0
  0
VERTEX
  5
171C
  8
SAPA_FOGBAND
 10
7.3625361873302486
 20
25.789251262205031
 30
0.0
 42
0.3394542588633746
  0
VERTEX
  5
171D
  8
SAPA_FOGBAND
 10
7.0727584394434748
 20
25.566896975735801
 30
0.0
  0
VERTEX
  5
171E
  8
SAPA_FOGBAND
 10
6.7096091960535773
 20
24.211605548674299
 30
0.0
 42
-0.3394542588633746
  0
VERTEX
  5
171F
  8
SAPA_FOGBAND
 10
6.4198314481668026
 20
23.98925126220508
 30
0.0
  0
VERTEX
  5
1720
  8
SAPA_FOGBAND
 10
3.8448447337063381
 20
23.98925126220508
 30
0.0
 42
-0.3394542588633746
  0
VERTEX
  5
1721
  8
SAPA_FOGBAND
 10
3.5550669858195638
 20
24.211605548674299
 30
0.0
  0
VERTEX
  5
1722
  8
SAPA_FOGBAND
 10
3.191917742429438
 20
25.566896975735801
 30
0.0
 42
0.3394542588633744
  0
VERTEX
  5
1723
  8
SAPA_FOGBAND
 10
2.9021399945428921
 20
25.789251262205031
 30
0.0
  0
VERTEX
  5
1724
  8
SAPA_FOGBAND
 10
2.7394448721228741
 20
25.789251262205031
 30
0.0
 42
0.1989123673796526
  0
VERTEX
  5
1725
  8
SAPA_FOGBAND
 10
2.173759447173722
 20
25.554936687154228
 30
0.0
  0
VERTEX
  5
1726
  8
SAPA_FOGBAND
 10
1.320206056580389
 20
24.701383296561119
 30
0.0
 42
0.6681786379193474
  0
VERTEX
  5
1727
  8
SAPA_FOGBAND
 10
1.5323380909364339
 20
24.189251262205119
 30
0.0
  0
VERTEX
  5
1728
  8
SAPA_FOGBAND
 10
1.882338090936571
 20
24.189251262205119
 30
0.0
  0
VERTEX
  5
1729
  8
SAPA_FOGBAND
 10
1.882338090936571
 20
23.289251262205031
 30
0.0
 42
-0.4142135623730951
  0
VERTEX
  5
172A
  8
SAPA_FOGBAND
 10
1.5823380909363891
 20
22.98925126220507
 30
0.0
  0
VERTEX
  5
172B
  8
SAPA_FOGBAND
 10
-0.5176619090635201
 20
22.98925126220507
 30
0.0
 42
-0.4142135623730951
  0
VERTEX
  5
172C
  8
SAPA_FOGBAND
 10
-0.8176619090634744
 20
23.289251262205031
 30
0.0
  0
VERTEX
  5
172D
  8
SAPA_FOGBAND
 10
-0.8176619090634744
 20
24.689251262205119
 30
0.0
 42
0.7754026414786132
  0
VERTEX
  5
172E
  8
SAPA_FOGBAND
 10
-1.380453904471153
 20
24.833959130511008
 30
0.0
 42
-0.1086822875051356
  0
VERTEX
  5
172F
  8
SAPA_FOGBAND
 10
-5.530502063061987
 20
16.90587674037425
 30
0.0
 42
0.8680589103334746
  0
VERTEX
  5
1730
  8
SAPA_FOGBAND
 10
-5.0555780332982181
 20
16.549036837712318
 30
0.0
  0
VERTEX
  5
1731
  8
SAPA_FOGBAND
 10
-1.0855426361466121
 20
19.37683715885629
 30
0.0
 42
-0.1989123673796536
  0
VERTEX
  5
1732
  8
SAPA_FOGBAND
 10
-0.378435854959946
 20
19.66973037766962
 30
0.0
  0
VERTEX
  5
1733
  8
SAPA_FOGBAND
 10
2.4548831094597849
 20
19.66973037766962
 30
0.0
 42
-0.577350269189628
  0
VERTEX
  5
1734
  8
SAPA_FOGBAND
 10
2.714690730595009
 20
19.219730377669801
 30
0.0
  0
VERTEX
  5
1735
  8
SAPA_FOGBAND
 10
0.5765620341832687
 20
16.91497627431551
 30
0.0
 42
0.8769764629927301
  0
VERTEX
  5
1736
  8
SAPA_FOGBAND
 10
1.0485016896745369
 20
16.55284423995937
 30
0.0
  0
VERTEX
  5
1737
  8
SAPA_FOGBAND
 10
5.0147296845793221
 20
19.37683715885629
 30
0.0
 42
-0.198912367379658
  0
VERTEX
  5
1738
  8
SAPA_FOGBAND
 10
5.721836465765989
 20
19.66973037766962
 30
0.0
  0
VERTEX
  5
1739
  8
SAPA_FOGBAND
 10
7.9541108279874493
 20
19.66973037766962
 30
0.0
 42
-0.5773502691896441
  0
VERTEX
  5
173A
  8
SAPA_FOGBAND
 10
8.2139184491229003
 20
19.219730377669801
 30
0.0
  0
VERTEX
  5
173B
  8
SAPA_FOGBAND
 10
6.0762913275936512
 20
16.915845027495891
 30
0.0
 42
0.87697646299276
  0
VERTEX
  5
173C
  8
SAPA_FOGBAND
 10
6.5482309830849204
 20
16.553712993139751
 30
0.0
  0
VERTEX
  5
173D
  8
SAPA_FOGBAND
 10
10.589444872123011
 20
19.45269180616998
 30
0.0
 42
0.198912367379658
  0
VERTEX
  5
173E
  8
SAPA_FOGBAND
 10
10.882338090936569
 20
20.15979858735642
 30
0.0
  0
VERTEX
  5
173F
  8
SAPA_FOGBAND
 10
10.882338090936569
 20
21.98925126220507
 30
0.0
  0
VERTEX
  5
1740
  8
SAPA_FOGBAND
 10
10.882338090936569
 20
21.97931947189187
 30
0.0
  0
SEQEND
  5
1741
  8
SAPA_FOGBAND
  0
DIMENSION
  5
BE8
  8
SAPA_MATT
  2
*D48
 10
-0.6242640687118957
 20
-28.000000000000039
 30
0.0
 11
57.625735931287927
 21
-25.500000000000039
 31
0.0
 70
     0
 13
115.87573593128771
 23
-18.000000000000071
 33
0.0
 14
-0.624264068711895
 24
-18.000000000000039
 34
0.0
 50
180.0
1001
ACAD
1000
DSTYLE
1002
{
1070
    40
1040
1.0
1002
}
  0
DIMENSION
  5
BE9
  8
SAPA_MATT
  2
*D47
 10
-0.6242640687118822
 20
-18.000000000000099
 30
0.0
 11
18.125735931288059
 21
-15.500000000000099
 31
0.0
 70
     0
 13
36.875735931288013
 23
3.000000000000056
 33
0.0
 14
-0.6242640687118808
 24
3.0000000000000711
 34
0.0
1001
ACAD
1000
DSTYLE
1002
{
1070
   287
1070
     4
1070
    40
1040
1.0
1070
   279
1070
     1
1002
}
  0
DIMENSION
  5
BEA
  8
SAPA_MATT
  2
*D46
 10
36.875735931288013
 20
-18.00000000000005
 30
0.0
 11
39.375735931287892
 21
-15.50000000000005
 31
0.0
 70
     0
 13
41.875735931287771
 23
2.2999999999998968
 33
0.0
 14
36.875735931288013
 24
3.000000000000056
 34
0.0
1001
ACAD
1000
DSTYLE
1002
{
1070
   287
1070
     4
1070
    40
1040
1.0
1070
   279
1070
     1
1002
}
  0
DIMENSION
  5
BEB
  8
SAPA_MATT
  2
*D45
 10
115.87573593128771
 20
-18.000000000000071
 30
0.0
 11
78.875735931287764
 21
-15.500000000000069
 31
0.0
 70
     0
 13
41.875735931287771
 23
2.2999999999998968
 33
0.0
 14
115.87573593128771
 24
2.3000000000000642
 34
0.0
1001
ACAD
1000
DSTYLE
1002
{
1070
    40
1040
1.0
1002
}
  0
VIEWPORT
  5
C4
 67
     1
  8
0
 10
143.06236603067589
 20
116.00969601843509
 30
0.0
 40
369.98580003443811
 41
256.8421457311839
 68
     1
 69
     1
1001
ACAD
1000
MVIEW
1002
{
1070
    16
1010
0.0
1020
0.0
1030
0.0
1010
0.0
1020
0.0
1030
1.0
1040
0.0
1040
256.8421457311839
1040
99.112914085388169
1040
143.07606935501099
1040
50.0
1040
0.0
1040
0.0
1070
     0
1070
     0
1070
     1
1070
     1
1070
     0
1070
     0
1070
     0
1070
     0
1040
0.0
1040
0.0
1040
0.0
1040
10.0
1040
10.0
1040
10.0
1040
10.0
1070
     0
1002
{
1002
}
1002
}
  0
ENDSEC
  0
EOF
