  0
SECTION
  2
HEADER
  9
$ACADVER
  1
AC1009
  9
$INSBASE
 10
0.0
 20
0.0
 30
0.0
  9
$EXTMIN
 10
-11.80000000000005
 20
-1.5
 30
0.0
  9
$EXTMAX
 10
170.79999999999961
 20
97.233947938761716
 30
0.0000000195376815
  9
$LIMMIN
 10
0.0
 20
0.0
  9
$LIMMAX
 10
790.0
 20
790.0
  9
$ORTHOMODE
 70
     1
  9
$REGENMODE
 70
     1
  9
$FILLMODE
 70
     1
  9
$QTEXTMODE
 70
     0
  9
$MIRRTEXT
 70
     1
  9
$DRAGMODE
 70
     2
  9
$LTSCALE
 40
4.0
  9
$OSMODE
 70
    37
  9
$ATTMODE
 70
     1
  9
$TEXTSIZE
 40
3.5
  9
$TRACEWID
 40
0.05
  9
$TEXTSTYLE
  7
ISO
  9
$CLAYER
  8
0
  9
$CELTYPE
  6
BYLAYER
  9
$CECOLOR
 62
   256
  9
$DIMSCALE
 40
0.0
  9
$DIMASZ
 40
3.0
  9
$DIMEXO
 40
1.5
  9
$DIMDLI
 40
10.0
  9
$DIMRND
 40
0.0
  9
$DIMDLE
 40
0.0
  9
$DIMEXE
 40
1.5
  9
$DIMTP
 40
0.0
  9
$DIMTM
 40
0.0
  9
$DIMTXT
 40
3.0
  9
$DIMCEN
 40
-5.0
  9
$DIMTSZ
 40
0.0
  9
$DIMTOL
 70
     0
  9
$DIMLIM
 70
     0
  9
$DIMTIH
 70
     0
  9
$DIMTOH
 70
     0
  9
$DIMSE1
 70
     0
  9
$DIMSE2
 70
     0
  9
$DIMTAD
 70
     1
  9
$DIMZIN
 70
     8
  9
$DIMBLK
  1

  9
$DIMASO
 70
     1
  9
$DIMSHO
 70
     1
  9
$DIMPOST
  1

  9
$DIMAPOST
  1

  9
$DIMALT
 70
     0
  9
$DIMALTD
 70
     0
  9
$DIMALTF
 40
25.399999999999999
  9
$DIMLFAC
 40
-1.0
  9
$DIMTOFL
 70
     1
  9
$DIMTVP
 40
0.0
  9
$DIMTIX
 70
     0
  9
$DIMSOXD
 70
     0
  9
$DIMSAH
 70
     0
  9
$DIMBLK1
  1

  9
$DIMBLK2
  1

  9
$DIMSTYLE
  2
MASKIN
  9
$DIMCLRD
 70
   256
  9
$DIMCLRE
 70
   256
  9
$DIMCLRT
 70
     2
  9
$DIMTFAC
 40
1.0
  9
$DIMGAP
 40
1.0
  9
$LUNITS
 70
     2
  9
$LUPREC
 70
     8
  9
$SKETCHINC
 40
0.1
  9
$FILLETRAD
 40
0.0
  9
$AUNITS
 70
     0
  9
$AUPREC
 70
     8
  9
$MENU
  1
ACAD
  9
$ELEVATION
 40
0.0
  9
$PELEVATION
 40
0.0
  9
$THICKNESS
 40
0.0
  9
$LIMCHECK
 70
     0
  9
$BLIPMODE
 70
     0
  9
$CHAMFERA
 40
0.0
  9
$CHAMFERB
 40
0.0
  9
$SKPOLY
 70
     0
  9
$TDCREATE
 40
2454967.4986475352
  9
$TDUPDATE
 40
2455461.6856290158
  9
$TDINDWG
 40
0.0585397685
  9
$TDUSRTIMER
 40
0.0585395949
  9
$USRTIMER
 70
     1
  9
$ANGBASE
 50
0.0
  9
$ANGDIR
 70
     0
  9
$PDMODE
 70
     0
  9
$PDSIZE
 40
0.0
  9
$PLINEWID
 40
0.0
  9
$COORDS
 70
     1
  9
$SPLFRAME
 70
     0
  9
$SPLINETYPE
 70
     6
  9
$SPLINESEGS
 70
     8
  9
$ATTDIA
 70
     0
  9
$ATTREQ
 70
     1
  9
$HANDLING
 70
     1
  9
$HANDSEED
  5
1946
  9
$SURFTAB1
 70
     6
  9
$SURFTAB2
 70
     6
  9
$SURFTYPE
 70
     6
  9
$SURFU
 70
     6
  9
$SURFV
 70
     6
  9
$UCSNAME
  2

  9
$UCSORG
 10
0.0
 20
0.0
 30
0.0
  9
$UCSXDIR
 10
1.0
 20
0.0
 30
0.0
  9
$UCSYDIR
 10
0.0
 20
1.0
 30
0.0
  9
$PUCSNAME
  2

  9
$PUCSORG
 10
0.0
 20
0.0
 30
0.0
  9
$PUCSXDIR
 10
1.0
 20
0.0
 30
0.0
  9
$PUCSYDIR
 10
0.0
 20
1.0
 30
0.0
  9
$USERI1
 70
     0
  9
$USERI2
 70
     0
  9
$USERI3
 70
     0
  9
$USERI4
 70
     0
  9
$USERI5
 70
     0
  9
$USERR1
 40
0.0
  9
$USERR2
 40
0.0
  9
$USERR3
 40
0.0
  9
$USERR4
 40
0.0
  9
$USERR5
 40
0.0
  9
$WORLDVIEW
 70
     1
  9
$SHADEDGE
 70
     3
  9
$SHADEDIF
 70
    70
  9
$TILEMODE
 70
     1
  9
$MAXACTVP
 70
    16
  9
$PLIMCHECK
 70
     0
  9
$PEXTMIN
 10
1.0000000000000000E+020
 20
1.0000000000000000E+020
 30
1.0000000000000000E+020
  9
$PEXTMAX
 10
-1.0000000000000000E+020
 20
-1.0000000000000000E+020
 30
-1.0000000000000000E+020
  9
$PLIMMIN
 10
-5.069427490234375
 20
-5.8737497329711914
  9
$PLIMMAX
 10
291.89889526367187
 20
204.0995779037475
  9
$UNITMODE
 70
     0
  9
$VISRETAIN
 70
     1
  9
$PLINEGEN
 70
     0
  9
$PSLTSCALE
 70
     1
  0
ENDSEC
  0
SECTION
  2
TABLES
  0
TABLE
  2
VPORT
 70
     1
  0
VPORT
  2
*ACTIVE
 70
     0
 10
0.0
 20
0.0
 11
1.0
 21
1.0
 12
79.506053142163765
 22
66.75244926565864
 13
0.0
 23
0.0
 14
1.0
 24
1.0
 15
0.0
 25
0.0
 16
0.0
 26
0.0
 36
1.0
 17
0.0
 27
0.0
 37
0.0
 40
137.27344162905439
 41
1.623582766439909
 42
50.0
 43
0.0
 44
0.0
 50
0.0
 51
0.0
 71
     0
 72
   100
 73
     1
 74
     1
 75
     0
 76
     0
 77
     0
 78
     0
  0
ENDTAB
  0
TABLE
  2
LTYPE
 70
    11
  0
LTYPE
  2
CONTINUOUS
 70
     0
  3
Solid line
 72
    65
 73
     0
 40
0.0
  0
LTYPE
  2
BYGG-014878$0$NEWDOT
 70
     0
  3
____ . ____ . ____ . ____ . ____ . ____ . ____
 72
    65
 73
     4
 40
2.0
 49
1.0
 49
-0.5
 49
0.0
 49
-0.5
  0
LTYPE
  2
BYGG-022318$0$NEWDOT
 70
     0
  3
____ . ____ . ____ . ____ . ____ . ____ . ____
 72
    65
 73
     4
 40
2.0
 49
1.0
 49
-0.5
 49
0.0
 49
-0.5
  0
LTYPE
  2
BYGG-022318$0$DASHDOT
 70
     0
  3
__ . __ . __ . __ . __ . __ . __ . __ . __ . __
 72
    65
 73
     4
 40
1.0
 49
0.5
 49
-0.25
 49
0.0
 49
-0.25
  0
LTYPE
  2
BYGG-022318$0$DASHED
 70
     0
  3
__ __ __ __ __ __ __ __ __ __ __ __ __ __ __
 72
    65
 73
     2
 40
0.75
 49
0.5
 49
-0.25
  0
LTYPE
  2
BYGG-022318$0$PHANTOM
 70
     0
  3
Phantom ______  __  __  ______  __  __  ______
 72
    65
 73
     6
 40
63.5
 49
31.75
 49
-6.3499999999999988
 49
6.3499999999999988
 49
-6.3499999999999988
 49
6.3499999999999988
 49
-6.3499999999999988
  0
LTYPE
  2
BYGG-014881$0$NEWDOT
 70
     0
  3
____ . ____ . ____ . ____ . ____ . ____ . ____
 72
    65
 73
     4
 40
2.0
 49
1.0
 49
-0.5
 49
0.0
 49
-0.5
  0
LTYPE
  2
BYGG-014203$0$ZIGZAG
 70
     0
  3
Zig zag /\/\/\/\/\/\/\/\/\/\/\/\/\/\/\/\/\/\/\/\/\/\/\/
 72
    65
 73
     4
 40
20.32254
 49
0.00254
 49
-5.0800000000000001
 49
-10.16
 49
-5.0800000000000001
  0
LTYPE
  2
BYGG-014203$0$NEWDOT
 70
     0
  3
____ . ____ . ____ . ____ . ____ . ____ . ____
 72
    65
 73
     4
 40
2.0
 49
1.0
 49
-0.5
 49
0.0
 49
-0.5
  0
LTYPE
  2
BYGG-014878$0$ZIGZAG
 70
     0
  3
Zig zag /\/\/\/\/\/\/\/\/\/\/\/\/\/\/\/\/\/\/\/\/\/\/\/
 72
    65
 73
     4
 40
20.32254
 49
0.00254
 49
-5.0800000000000001
 49
-10.16
 49
-5.0800000000000001
  0
LTYPE
  2
BYGG-014881$0$ZIGZAG
 70
     0
  3
Zig zag /\/\/\/\/\/\/\/\/\/\/\/\/\/\/\/\/\/\/\/\/\/\/\/
 72
    65
 73
     4
 40
20.32254
 49
0.00254
 49
-5.0800000000000001
 49
-10.16
 49
-5.0800000000000001
  0
ENDTAB
  0
TABLE
  2
LAYER
 70
    65
  0
LAYER
  2
0
 70
     0
 62
     7
  6
CONTINUOUS
  0
LAYER
  2
DEFPOINTS
 70
     0
 62
     7
  6
CONTINUOUS
  0
LAYER
  2
SAPA_MATT
 70
     0
 62
     1
  6
CONTINUOUS
  0
LAYER
  2
SAPA_ARTIKELNR
 70
     0
 62
     4
  6
CONTINUOUS
  0
LAYER
  2
SAPA_LIGHT
 70
     1
 62
     1
  6
CONTINUOUS
  0
LAYER
  2
SAPA_GLAS
 70
     0
 62
     4
  6
CONTINUOUS
  0
LAYER
  2
SAPA_FOGBAND
 70
     0
 62
     2
  6
CONTINUOUS
  0
LAYER
  2
SAPA_PROFIL
 70
     0
 62
     7
  6
CONTINUOUS
  0
ENDTAB
  0
TABLE
  2
STYLE
 70
    15
  0
STYLE
  2
STANDARD
 70
     0
 40
0.0
 41
1.0
 50
0.0
 71
     0
 42
0.2
  3
txt
  4

  0
STYLE
  2
ISO
 70
     0
 40
0.0
 41
1.0
 50
0.0
 71
     0
 42
3.5
  3
txt
  4

  0
STYLE
  2

 70
     1
 40
0.0
 41
1.0
 50
0.0
 71
     0
 42
0.2
  3
ltypeshp.shx
  4

  0
STYLE
  2
BYGG-018921$0$STANDARD
 70
     0
 40
0.0
 41
1.0
 50
0.0
 71
     0
 42
0.2
  3
txt
  4

  0
STYLE
  2
BYGG-018921$0$ISO
 70
     0
 40
0.0
 41
1.0
 50
0.0
 71
     0
 42
3.5
  3
txt
  4

  0
STYLE
  2
BYGG-014878$0$STANDARD
 70
     0
 40
0.0
 41
1.0
 50
0.0
 71
     0
 42
0.2
  3
txt
  4

  0
STYLE
  2
BYGG-014878$0$ISO
 70
     0
 40
0.0
 41
1.0
 50
0.0
 71
     0
 42
3.5
  3
isocp3.shx
  4

  0
STYLE
  2
BYGG-022318$0$STANDARD
 70
     0
 40
0.0
 41
1.0
 50
0.0
 71
     0
 42
0.2
  3
txt
  4

  0
STYLE
  2
BYGG-022318$0$ISO
 70
     0
 40
0.0
 41
1.0
 50
0.0
 71
     0
 42
3.5
  3
txt
  4

  0
STYLE
  2
BYGG-014881$0$STANDARD
 70
     0
 40
0.0
 41
1.0
 50
0.0
 71
     0
 42
0.2
  3
txt
  4

  0
STYLE
  2
BYGG-014881$0$ISO
 70
     0
 40
0.0
 41
1.0
 50
0.0
 71
     0
 42
3.5
  3
isocp3.shx
  4

  0
STYLE
  2
BYGG-026033$0$STANDARD
 70
     0
 40
0.0
 41
1.0
 50
0.0
 71
     0
 42
0.2
  3
txt
  4

  0
STYLE
  2
BYGG-026033$0$ISO
 70
     0
 40
0.0
 41
1.0
 50
0.0
 71
     0
 42
3.5
  3
txt
  4

  0
STYLE
  2
BYGG-014203$0$STANDARD
 70
     0
 40
0.0
 41
1.0
 50
0.0
 71
     0
 42
0.2
  3
txt
  4

  0
STYLE
  2
BYGG-014203$0$ISO
 70
     0
 40
0.0
 41
1.0
 50
0.0
 71
     0
 42
3.5
  3
isocp3.shx
  4

  0
ENDTAB
  0
TABLE
  2
VIEW
 70
     0
  0
ENDTAB
  0
TABLE
  2
UCS
 70
     0
  0
ENDTAB
  0
TABLE
  2
APPID
 70
    16
  0
APPID
  2
ACAD
 70
     0
  0
APPID
  2
ACAD_DSTYLE_DIMTEXT_FILL
 70
     0
  0
APPID
  2
ACAD_DSTYLE_DIMEXT_LENGTH
 70
     0
  0
APPID
  2
ACAD_DSTYLE_DIMEXT_ENABLED
 70
     0
  0
APPID
  2
ACAD_DSTYLE_DIM_LINETYPE
 70
     0
  0
APPID
  2
ACAD_DSTYLE_DIM_EXT1_LINETYPE
 70
     0
  0
APPID
  2
ACAD_DSTYLE_DIM_EXT2_LINETYPE
 70
     0
  0
APPID
  2
ACAD_DSTYLE_DIMJOGGED_JOGA
 70
     0
  0
APPID
  2
ACAD_DSTYLE_DIMARC_LENGTH_
 70
     0
  0
APPID
  2
ACAD_PSEXT
 70
     0
  0
APPID
  2
ACAD_MLEADERVER
 70
     0
  0
APPID
  2
ACAECLAYERSTANDARD
 70
     0
  0
APPID
  2
AMG_ARCHIVE11
 70
     0
  0
APPID
  2
ACAD_EXEMPT_FROM_CAD_STANDARDS
 70
     0
  0
APPID
  2
ACADANNOTATIVE
 70
     0
  0
APPID
  2
AEC_XDATA_BOUND_SPACE
 70
     0
  0
ENDTAB
  0
TABLE
  2
DIMSTYLE
 70
    11
  0
DIMSTYLE
  2
MASKIN
 70
     0
  3

  4

  5

  6

  7

 40
0.0
 41
3.0
 42
1.5
 43
10.0
 44
1.5
 45
0.0
 46
0.0
 47
0.0
 48
0.0
140
3.0
141
-5.0
142
0.0
143
25.399999999999999
144
-1.0
145
0.0
146
1.0
147
1.0
 71
     0
 72
     0
 73
     0
 74
     0
 75
     0
 76
     0
 77
     1
 78
     8
170
     0
171
     0
172
     1
173
     0
174
     0
175
     0
176
   256
177
   256
178
     2
  0
DIMSTYLE
  2
BYGG-018921$0$MASKIN
 70
     0
  3

  4

  5

  6

  7

 40
0.0
 41
3.0
 42
1.5
 43
10.0
 44
1.5
 45
0.0
 46
0.0
 47
0.0
 48
0.0
140
3.0
141
-5.0
142
0.0
143
25.399999999999999
144
-1.0
145
0.0
146
1.0
147
1.0
 71
     0
 72
     0
 73
     0
 74
     0
 75
     0
 76
     0
 77
     1
 78
     8
170
     0
171
     0
172
     1
173
     0
174
     0
175
     0
176
   256
177
   256
178
     2
  0
DIMSTYLE
  2
BYGG-014878$0$MASKIN
 70
     0
  3

  4

  5

  6

  7

 40
0.0
 41
3.0
 42
1.5
 43
10.0
 44
1.5
 45
0.0
 46
0.0
 47
0.0
 48
0.0
140
3.0
141
-5.0
142
0.0
143
25.399999999999999
144
-1.0
145
0.0
146
1.0
147
1.0
 71
     0
 72
     0
 73
     0
 74
     0
 75
     0
 76
     0
 77
     1
 78
     8
170
     0
171
     0
172
     1
173
     0
174
     0
175
     0
176
   256
177
   256
178
   256
  0
DIMSTYLE
  2
BYGG-014878$0$STANDARD
 70
     0
  3

  4

  5

  6

  7

 40
1.0
 41
0.18
 42
0.0625
 43
0.38
 44
0.18
 45
0.0
 46
0.0
 47
0.0
 48
0.0
140
0.18
141
0.09
142
0.0
143
25.399999999999999
144
1.0
145
0.0
146
1.0
147
0.09
 71
     0
 72
     0
 73
     1
 74
     1
 75
     0
 76
     0
 77
     0
 78
     0
170
     0
171
     2
172
     0
173
     0
174
     0
175
     0
176
     0
177
     0
178
     0
  0
DIMSTYLE
  2
BYGG-022318$0$STANDARD
 70
     0
  3

  4

  5

  6

  7

 40
1.0
 41
0.18
 42
0.0625
 43
0.38
 44
0.18
 45
0.0
 46
0.0
 47
0.0
 48
0.0
140
0.18
141
0.09
142
0.0
143
25.399999999999999
144
1.0
145
0.0
146
1.0
147
0.09
 71
     0
 72
     0
 73
     1
 74
     1
 75
     0
 76
     0
 77
     0
 78
     0
170
     0
171
     2
172
     0
173
     0
174
     0
175
     0
176
     0
177
     0
178
     0
  0
DIMSTYLE
  2
BYGG-022318$0$MASKIN
 70
     0
  3

  4

  5

  6

  7

 40
0.0
 41
3.0
 42
1.5
 43
10.0
 44
1.5
 45
0.0
 46
0.0
 47
0.0
 48
0.0
140
3.0
141
-5.0
142
0.0
143
25.399999999999999
144
-1.0
145
0.0
146
1.0
147
1.0
 71
     0
 72
     0
 73
     0
 74
     0
 75
     0
 76
     0
 77
     1
 78
     8
170
     0
171
     0
172
     1
173
     0
174
     0
175
     0
176
   256
177
   256
178
     2
  0
DIMSTYLE
  2
BYGG-014881$0$MASKIN
 70
     0
  3

  4

  5

  6

  7

 40
0.0
 41
3.0
 42
1.5
 43
10.0
 44
1.5
 45
0.0
 46
0.0
 47
0.0
 48
0.0
140
3.0
141
-5.0
142
0.0
143
25.399999999999999
144
-1.0
145
0.0
146
1.0
147
1.0
 71
     0
 72
     0
 73
     0
 74
     0
 75
     0
 76
     0
 77
     1
 78
     8
170
     0
171
     0
172
     1
173
     0
174
     0
175
     0
176
   256
177
   256
178
   256
  0
DIMSTYLE
  2
BYGG-014881$0$STANDARD
 70
     0
  3

  4

  5

  6

  7

 40
1.0
 41
0.18
 42
0.0625
 43
0.38
 44
0.18
 45
0.0
 46
0.0
 47
0.0
 48
0.0
140
0.18
141
0.09
142
0.0
143
25.399999999999999
144
1.0
145
0.0
146
1.0
147
0.09
 71
     0
 72
     0
 73
     1
 74
     1
 75
     0
 76
     0
 77
     0
 78
     0
170
     0
171
     2
172
     0
173
     0
174
     0
175
     0
176
     0
177
     0
178
     0
  0
DIMSTYLE
  2
BYGG-026033$0$MASKIN
 70
     0
  3

  4

  5

  6

  7

 40
0.0
 41
3.0
 42
1.5
 43
10.0
 44
1.5
 45
0.0
 46
0.0
 47
0.0
 48
0.0
140
3.0
141
-5.0
142
0.0
143
25.399999999999999
144
-1.0
145
0.0
146
1.0
147
1.0
 71
     0
 72
     0
 73
     0
 74
     0
 75
     0
 76
     0
 77
     1
 78
     8
170
     0
171
     0
172
     1
173
     0
174
     0
175
     0
176
   256
177
   256
178
     2
  0
DIMSTYLE
  2
BYGG-014203$0$STANDARD
 70
     0
  3

  4

  5

  6

  7

 40
1.0
 41
0.18
 42
0.0625
 43
0.38
 44
0.18
 45
0.0
 46
0.0
 47
0.0
 48
0.0
140
0.18
141
0.09
142
0.0
143
25.399999999999999
144
1.0
145
0.0
146
1.0
147
0.09
 71
     0
 72
     0
 73
     1
 74
     1
 75
     0
 76
     0
 77
     0
 78
     0
170
     0
171
     2
172
     0
173
     0
174
     0
175
     0
176
     0
177
     0
178
     0
  0
DIMSTYLE
  2
BYGG-014203$0$MASKIN
 70
     0
  3

  4

  5

  6

  7

 40
0.0
 41
3.0
 42
1.5
 43
10.0
 44
1.5
 45
0.0
 46
0.0
 47
0.0
 48
0.0
140
3.0
141
-5.0
142
0.0
143
25.399999999999999
144
-1.0
145
0.0
146
1.0
147
1.0
 71
     0
 72
     0
 73
     0
 74
     0
 75
     0
 76
     0
 77
     1
 78
     8
170
     0
171
     0
172
     1
173
     0
174
     0
175
     0
176
   256
177
   256
178
   256
  0
ENDTAB
  0
ENDSEC
  0
SECTION
  2
BLOCKS
  0
BLOCK
  8
0
  2
$MODEL_SPACE
 70
     0
 10
0.0
 20
0.0
 30
0.0
  3
$MODEL_SPACE
  1

  0
ENDBLK
  5
37
  8
0
  0
BLOCK
 67
     1
  8
0
  2
$PAPER_SPACE
 70
     0
 10
0.0
 20
0.0
 30
0.0
  3
$PAPER_SPACE
  1

  0
ENDBLK
  5
35
 67
     1
  8
0
  0
BLOCK
  8
0
  2
*D5
 70
     1
 10
0.0
 20
0.0
 30
0.0
  3
*D5
  1

  0
LINE
  5
923
  8
SAPA_MATT
 10
42.499999999999673
 20
28.79999999999994
 30
0.0
 11
42.499999999999673
 21
8.4999999999999751
 31
0.0
  0
LINE
  5
924
  8
SAPA_MATT
 10
116.4999999999996
 20
28.800000000000111
 30
0.0
 11
116.4999999999996
 21
8.4999999999999751
 31
0.0
  0
LINE
  5
925
  8
SAPA_MATT
 10
45.499999999999673
 20
9.9999999999999751
 30
0.0
 11
113.4999999999996
 21
9.9999999999999751
 31
0.0
  0
SOLID
  5
926
  8
SAPA_MATT
 10
45.499999999999673
 20
10.49999999999997
 30
0.0
 11
45.499999999999673
 21
9.4999999999999751
 31
0.0
 12
42.499999999999673
 22
9.9999999999999751
 32
0.0
 13
42.499999999999673
 23
9.9999999999999751
 33
0.0
  0
SOLID
  5
927
  8
SAPA_MATT
 10
113.4999999999996
 20
10.49999999999997
 30
0.0
 11
113.4999999999996
 21
9.4999999999999751
 31
0.0
 12
116.4999999999996
 22
9.9999999999999751
 32
0.0
 13
116.4999999999996
 23
9.9999999999999751
 33
0.0
  0
INSERT
  5
928
  8
0
  2
*U46
 10
0.0
 20
0.0
 30
0.0
  0
POINT
  5
929
  8
DEFPOINTS
 62
     0
 10
42.499999999999673
 20
30.29999999999994
 30
0.0
  0
POINT
  5
92A
  8
DEFPOINTS
 62
     0
 10
116.4999999999996
 20
30.300000000000111
 30
0.0
  0
POINT
  5
92B
  8
DEFPOINTS
 62
     0
 10
116.4999999999996
 20
9.9999999999999751
 30
0.0
  0
ENDBLK
  5
794
  8
0
  0
BLOCK
  8
0
  2
*D41
 70
     1
 10
0.0
 20
0.0
 30
0.0
  3
*D41
  1

  0
LINE
  5
1933
  8
SAPA_MATT
 10
42.499999999999673
 20
28.79999999999994
 30
0.0
 11
42.499999999999673
 21
8.4999999999999893
 31
0.0
  0
LINE
  5
1934
  8
SAPA_MATT
 10
37.499999999999901
 20
29.500000000000099
 30
0.0
 11
37.499999999999901
 21
8.4999999999999893
 31
0.0
  0
LINE
  5
1935
  8
SAPA_MATT
 10
45.499999999999673
 20
9.9999999999999893
 30
0.0
 11
48.499999999999673
 21
9.9999999999999893
 31
0.0
  0
LINE
  5
1936
  8
SAPA_MATT
 10
34.499999999999901
 20
9.9999999999999893
 30
0.0
 11
31.499999999999901
 21
9.9999999999999893
 31
0.0
  0
LINE
  5
1937
  8
SAPA_MATT
 10
42.499999999999673
 20
9.9999999999999893
 30
0.0
 11
37.499999999999901
 21
9.9999999999999893
 31
0.0
  0
SOLID
  5
1938
  8
SAPA_MATT
 10
45.499999999999673
 20
10.499999999999989
 30
0.0
 11
45.499999999999673
 21
9.4999999999999893
 31
0.0
 12
42.499999999999673
 22
9.9999999999999893
 32
0.0
 13
42.499999999999673
 23
9.9999999999999893
 33
0.0
  0
SOLID
  5
1939
  8
SAPA_MATT
 10
34.499999999999901
 20
10.499999999999989
 30
0.0
 11
34.499999999999901
 21
9.4999999999999893
 31
0.0
 12
37.499999999999901
 22
9.9999999999999893
 32
0.0
 13
37.499999999999901
 23
9.9999999999999893
 33
0.0
  0
TEXT
  8
SAPA_MATT
  40
3
  5
1942
  62
2
  72
0
  71
0
 10
34.0000
 20
7.19000
 30
0.000000
  1
5
  7
ISO
  0
POINT
  5
193B
  8
DEFPOINTS
 62
     0
 10
42.499999999999673
 20
30.29999999999994
 30
0.0
  0
POINT
  5
193C
  8
DEFPOINTS
 62
     0
 10
37.499999999999901
 20
31.000000000000099
 30
0.0
  0
POINT
  5
193D
  8
DEFPOINTS
 62
     0
 10
37.499999999999901
 20
9.9999999999999893
 30
0.0
  0
ENDBLK
  5
C4D
  8
0
  0
BLOCK
  8
0
  2
*D42
 70
     1
 10
0.0
 20
0.0
 30
0.0
  3
*D42
  1

  0
LINE
  5
192A
  8
SAPA_MATT
 10
37.499999999999901
 20
29.500000000000099
 30
0.0
 11
37.499999999999901
 21
8.4999999999999432
 31
0.0
  0
LINE
  5
192B
  8
SAPA_MATT
 10
0.0000000000000141
 20
29.500000000000121
 30
0.0
 11
0.0000000000000128
 21
8.4999999999999432
 31
0.0
  0
LINE
  5
192C
  8
SAPA_MATT
 10
34.499999999999901
 20
9.9999999999999432
 30
0.0
 11
3.000000000000012
 21
9.9999999999999432
 31
0.0
  0
SOLID
  5
192D
  8
SAPA_MATT
 10
34.499999999999901
 20
10.49999999999994
 30
0.0
 11
34.499999999999901
 21
9.4999999999999432
 31
0.0
 12
37.499999999999901
 22
9.9999999999999432
 32
0.0
 13
37.499999999999901
 23
9.9999999999999432
 33
0.0
  0
SOLID
  5
192E
  8
SAPA_MATT
 10
3.000000000000012
 20
10.49999999999994
 30
0.0
 11
3.000000000000012
 21
9.4999999999999432
 31
0.0
 12
0.0000000000000129
 22
9.9999999999999432
 32
0.0
 13
0.0000000000000129
 23
9.9999999999999432
 33
0.0
  0
TEXT
  8
SAPA_MATT
  40
3
  5
1943
  62
2
  72
0
  71
0
 10
12.7500
 20
7.19000
 30
0.000000
  1
37.5
  7
ISO
  0
POINT
  5
1930
  8
DEFPOINTS
 62
     0
 10
37.499999999999901
 20
31.000000000000099
 30
0.0
  0
POINT
  5
1931
  8
DEFPOINTS
 62
     0
 10
0.0000000000000142
 20
31.000000000000121
 30
0.0
  0
POINT
  5
1932
  8
DEFPOINTS
 62
     0
 10
0.0000000000000129
 20
9.9999999999999432
 30
0.0
  0
ENDBLK
  5
C5B
  8
0
  0
BLOCK
  8
0
  2
*D43
 70
     1
 10
0.0
 20
0.0
 30
0.0
  3
*D43
  1

  0
LINE
  5
C9F
  8
SAPA_MATT
 10
158.99999999999901
 20
8.4999999999994031
 30
0.0
 11
158.99999999999901
 21
-1.5
 31
0.0
  0
LINE
  5
CA0
  8
SAPA_MATT
 10
-0.0000000000000001
 20
8.5
 30
0.0
 11
-0.0000000000000007
 21
-1.5
 31
0.0
  0
LINE
  5
CA1
  8
SAPA_MATT
 10
155.99999999999901
 20
0.0
 30
0.0
 11
2.9999999999999991
 21
0.0
 31
0.0
  0
SOLID
  5
CA2
  8
SAPA_MATT
 10
155.99999999999901
 20
0.5
 30
0.0
 11
155.99999999999901
 21
-0.5
 31
0.0
 12
158.99999999999901
 22
0.0
 32
0.0
 13
158.99999999999901
 23
0.0
 33
0.0
  0
SOLID
  5
CA3
  8
SAPA_MATT
 10
2.9999999999999991
 20
0.5
 30
0.0
 11
2.9999999999999991
 21
-0.5
 31
0.0
 12
-0.0000000000000006
 22
0.0
 32
0.0
 13
-0.0000000000000006
 23
0.0
 33
0.0
  0
INSERT
  5
CA4
  8
0
  2
*U72
 10
0.0
 20
0.0
 30
0.0
  0
POINT
  5
CA5
  8
DEFPOINTS
 62
     0
 10
158.99999999999901
 20
9.9999999999994031
 30
0.0
  0
POINT
  5
CA6
  8
DEFPOINTS
 62
     0
 10
0.0
 20
10.0
 30
0.0
  0
POINT
  5
CA7
  8
DEFPOINTS
 62
     0
 10
-0.0000000000000006
 20
0.0
 30
0.0
  0
ENDBLK
  5
C67
  8
0
  0
BLOCK
  8
0
  2
*D44
 70
     1
 10
0.0
 20
0.0
 30
0.0
  3
*D44
  1

  0
LINE
  5
191F
  8
SAPA_MATT
 10
116.4999999999995
 20
28.799999999999692
 30
0.0
 11
116.4999999999993
 21
8.4999999999997407
 31
0.0
  0
LINE
  5
1920
  8
SAPA_MATT
 10
121.4999999999993
 20
29.499999999999812
 30
0.0
 11
121.4999999999991
 21
8.4999999999997016
 31
0.0
  0
LINE
  5
1921
  8
SAPA_MATT
 10
113.4999999999993
 20
9.9999999999997602
 30
0.0
 11
110.4999999999993
 21
9.9999999999997815
 31
0.0
  0
LINE
  5
1922
  8
SAPA_MATT
 10
124.4999999999991
 20
9.999999999999682
 30
0.0
 11
127.4999999999991
 21
9.9999999999996607
 31
0.0
  0
LINE
  5
1923
  8
SAPA_MATT
 10
116.4999999999993
 20
9.9999999999997389
 30
0.0
 11
121.4999999999991
 21
9.9999999999997033
 31
0.0
  0
SOLID
  5
1924
  8
SAPA_MATT
 10
113.4999999999993
 20
10.49999999999976
 30
0.0
 11
113.4999999999993
 21
9.4999999999997602
 31
0.0
 12
116.4999999999993
 22
9.9999999999997389
 32
0.0
 13
116.4999999999993
 23
9.9999999999997389
 33
0.0
  0
SOLID
  5
1925
  8
SAPA_MATT
 10
124.4999999999991
 20
10.49999999999968
 30
0.0
 11
124.4999999999991
 21
9.499999999999682
 31
0.0
 12
121.4999999999991
 22
9.9999999999997033
 32
0.0
 13
121.4999999999991
 23
9.9999999999997033
 33
0.0
  0
TEXT
  8
SAPA_MATT
  40
3
  5
1944
  62
2
  72
0
  71
0
 10
113.000
 20
7.19000
 30
0.000000
  1
5
  7
ISO
  0
POINT
  5
1927
  8
DEFPOINTS
 62
     0
 10
116.4999999999995
 20
30.299999999999692
 30
0.0
  0
POINT
  5
1928
  8
DEFPOINTS
 62
     0
 10
121.4999999999993
 20
30.999999999999819
 30
0.0
  0
POINT
  5
1929
  8
DEFPOINTS
 62
     0
 10
121.4999999999991
 20
9.9999999999997033
 30
0.0
  0
ENDBLK
  5
C73
  8
0
  0
BLOCK
  8
0
  2
*D45
 70
     1
 10
0.0
 20
0.0
 30
0.0
  3
*D45
  1

  0
LINE
  5
1916
  8
SAPA_MATT
 10
121.4999999999993
 20
29.499999999999812
 30
0.0
 11
121.4999999999991
 21
8.4999999999996732
 31
0.0
  0
LINE
  5
1917
  8
SAPA_MATT
 10
158.9999999999992
 20
29.499999999999581
 30
0.0
 11
158.99999999999901
 21
8.4999999999994031
 31
0.0
  0
LINE
  5
1918
  8
SAPA_MATT
 10
124.4999999999991
 20
9.9999999999996501
 30
0.0
 11
155.99999999999901
 21
9.9999999999994262
 31
0.0
  0
SOLID
  5
1919
  8
SAPA_MATT
 10
124.4999999999991
 20
10.49999999999965
 30
0.0
 11
124.4999999999991
 21
9.4999999999996501
 31
0.0
 12
121.4999999999991
 22
9.9999999999996714
 32
0.0
 13
121.4999999999991
 23
9.9999999999996714
 33
0.0
  0
SOLID
  5
191A
  8
SAPA_MATT
 10
155.99999999999901
 20
10.499999999999419
 30
0.0
 11
155.99999999999901
 21
9.4999999999994262
 31
0.0
 12
158.99999999999901
 22
9.9999999999994031
 32
0.0
 13
158.99999999999901
 23
9.9999999999994031
 33
0.0
  0
TEXT
  8
SAPA_MATT
  40
3
  5
1945
  62
2
  72
0
  71
0
 10
134.250
 20
7.19000
 30
0.000000
  1
37.5
  7
ISO
  0
POINT
  5
191C
  8
DEFPOINTS
 62
     0
 10
121.4999999999993
 20
30.999999999999819
 30
0.0
  0
POINT
  5
191D
  8
DEFPOINTS
 62
     0
 10
158.9999999999992
 20
30.99999999999957
 30
0.0
  0
POINT
  5
191E
  8
DEFPOINTS
 62
     0
 10
158.99999999999901
 20
9.9999999999994031
 30
0.0
  0
ENDBLK
  5
C81
  8
0
  0
BLOCK
  8
0
  2
*U46
 70
     1
 10
0.0
 20
0.0
 30
0.0
  3
*U46
  1

  0
TEXT
  5
D13
  8
SAPA_MATT
 62
     2
 10
77.249999999999645
 20
10.99999999999997
 30
0.0
 40
3.0
  1
74
  7
ISO
  0
ENDBLK
  5
D15
  8
0
  0
BLOCK
  8
0
  2
*U47
 70
     1
 10
0.0
 20
0.0
 30
0.0
  3
*U47
  1

  0
TEXT
  5
D17
  8
0
 62
     2
 10
38.94999999999979
 20
10.999999999999989
 30
0.0
 40
3.0
  1
5
  7
ISO
  0
ENDBLK
  5
D19
  8
0
  0
BLOCK
  8
0
  2
*U48
 70
     1
 10
0.0
 20
0.0
 30
0.0
  3
*U48
  1

  0
TEXT
  5
D1B
  8
0
 62
     2
 10
15.149999999999951
 20
10.99999999999994
 30
0.0
 40
3.0
  1
37.5
  7
ISO
  0
ENDBLK
  5
D1D
  8
0
  0
BLOCK
  8
0
  2
*U49
 70
     1
 10
0.0
 20
0.0
 30
0.0
  3
*U49
  1

  0
TEXT
  5
D1F
  8
0
 62
     2
 10
76.649999999999523
 20
1.0
 30
0.0
 40
3.0
  1
159
  7
ISO
  0
ENDBLK
  5
D21
  8
0
  0
BLOCK
  8
0
  2
*U50
 70
     1
 10
0.0
 20
0.0
 30
0.0
  3
*U50
  1

  0
TEXT
  5
D23
  8
0
 62
     2
 10
117.94999999999921
 20
10.999999999999719
 30
0.0
 40
3.0
  1
5
 50
359.9999999999996
  7
ISO
  0
ENDBLK
  5
D25
  8
0
  0
BLOCK
  8
0
  2
*U51
 70
     1
 10
0.0
 20
0.0
 30
0.0
  3
*U51
  1

  0
TEXT
  5
D27
  8
0
 62
     2
 10
136.64999999999901
 20
10.999999999999559
 30
0.0
 40
3.0
  1
37.5
 50
359.9999999999996
  7
ISO
  0
ENDBLK
  5
D29
  8
0
  0
BLOCK
  8
0
  2
*U52
 70
     1
 10
0.0
 20
0.0
 30
0.0
  3
*U52
  1

  0
TEXT
  5
E78
  8
0
 10
270.93920250063343
 20
387.08892739371998
 30
0.0
 40
3.0
  1
22
 50
90.0
  7
BYGG-014203$0$ISO
  0
ENDBLK
  5
E7A
  8
0
  0
BLOCK
  8
0
  2
*U53
 70
     1
 10
0.0
 20
0.0
 30
0.0
  3
*U53
  1

  0
TEXT
  5
E7C
  8
0
 10
243.50583563664401
 20
408.3346351471406
 30
0.0
 40
3.0
  1
29
  7
BYGG-014203$0$ISO
  0
ENDBLK
  5
E7E
  8
0
  0
BLOCK
  8
0
  2
*U54
 70
     1
 10
0.0
 20
0.0
 30
0.0
  3
*U54
  1

  0
TEXT
  5
F77
  8
0
 10
81.417346958671715
 20
29.082626421487749
 30
0.0
 40
3.0
  1
59.5
 50
90.0
  7
BYGG-014878$0$ISO
  0
ENDBLK
  5
F79
  8
0
  0
BLOCK
  8
0
  2
*U55
 70
     1
 10
0.0
 20
0.0
 30
0.0
  3
*U55
  1

  0
TEXT
  5
F7B
  8
0
 10
33.58786785760504
 20
-7.5905416883964838
 30
0.0
 40
3.0
  1
70.5
  7
BYGG-014878$0$ISO
  0
ENDBLK
  5
F7D
  8
0
  0
BLOCK
  8
0
  2
*U56
 70
     1
 10
0.0
 20
0.0
 30
0.0
  3
*U56
  1

  0
TEXT
  5
1042
  8
0
 10
83.421780471852102
 20
26.694326809953662
 30
0.0
 40
3.0
  1
50
 50
90.0
  7
BYGG-014881$0$ISO
  0
ENDBLK
  5
1044
  8
0
  0
BLOCK
  8
0
  2
*U57
 70
     1
 10
0.0
 20
0.0
 30
0.0
  3
*U57
  1

  0
TEXT
  5
1046
  8
0
 10
39.189866930977992
 20
65.097244303861487
 30
0.0
 40
3.0
  1
30
  7
BYGG-014881$0$ISO
  0
ENDBLK
  5
1048
  8
0
  0
BLOCK
  8
0
  2
*U58
 70
     1
 10
0.0
 20
0.0
 30
0.0
  3
*U58
  1

  0
TEXT
  5
104A
  8
0
 10
39.041048033340132
 20
-6.5980442424530921
 30
0.0
 40
3.0
  1
74
  7
BYGG-014881$0$ISO
  0
ENDBLK
  5
104C
  8
0
  0
BLOCK
  8
0
  2
*U59
 70
     1
 10
0.0
 20
0.0
 30
0.0
  3
*U59
  1

  0
LINE
  5
104E
  8
0
 10
4.091157769927662
 20
10.23929630332219
 30
0.0
 11
24.10681954502726
 21
10.23929630332219
 31
0.0
  0
LINE
  5
104F
  8
0
 10
24.10681954502726
 20
10.23929630332219
 30
0.0
 11
24.10681954502726
 21
53.537172031793432
 31
0.0
  0
LINE
  5
1050
  8
0
 10
4.091157769927662
 20
9.2392963033221918
 30
0.0
 11
25.106819545027271
 21
9.2392963033221918
 31
0.0
  0
LINE
  5
1051
  8
0
 10
25.106819545027271
 20
9.2392963033221918
 30
0.0
 11
25.106819545027271
 21
53.537172031793432
 31
0.0
  0
ENDBLK
  5
1053
  8
0
  0
BLOCK
  8
0
  2
*U60
 70
     1
 10
0.0
 20
0.0
 30
0.0
  3
*U60
  1

  0
LINE
  5
1055
  8
0
 10
78.49093829675266
 20
10.23929630332219
 30
0.0
 11
58.475276521653058
 21
10.23929630332219
 31
0.0
  0
LINE
  5
1056
  8
0
 10
58.475276521653058
 20
10.23929630332219
 30
0.0
 11
58.475276521653058
 21
53.537172031793432
 31
0.0
  0
LINE
  5
1057
  8
0
 10
78.49093829675266
 20
9.2392963033221882
 30
0.0
 11
57.475276521653058
 21
9.2392963033221882
 31
0.0
  0
LINE
  5
1058
  8
0
 10
57.475276521653058
 20
9.2392963033221882
 30
0.0
 11
57.475276521653058
 21
53.537172031793432
 31
0.0
  0
ENDBLK
  5
105A
  8
0
  0
BLOCK
  8
0
  2
*U61
 70
     1
 10
0.0
 20
0.0
 30
0.0
  3
*U61
  1

  0
TEXT
  5
10B7
  8
0
 10
79.41734706671069
 20
56.082626469902628
 30
0.0
 40
3.0
  1
59.5
 50
90.0
  7
BYGG-014878$0$ISO
  0
ENDBLK
  5
10B9
  8
0
  0
BLOCK
  8
0
  2
*U62
 70
     1
 10
0.0
 20
0.0
 30
0.0
  3
*U62
  1

  0
TEXT
  5
10BB
  8
0
 10
31.587867965644019
 20
19.409458360018402
 30
0.0
 40
3.0
  1
70.5
  7
BYGG-014878$0$ISO
  0
ENDBLK
  5
10BD
  8
0
  0
BLOCK
  8
0
  2
*U63
 70
     1
 10
0.0
 20
0.0
 30
0.0
  3
*U63
  1

  0
TEXT
  5
10BF
  8
0
 10
121.6307324385117
 20
52.898818897637931
 30
0.0
 40
3.0
  1
50
 50
90.0
  7
BYGG-014881$0$ISO
  0
ENDBLK
  5
10C1
  8
0
  0
BLOCK
  8
0
  2
*U64
 70
     1
 10
0.0
 20
0.0
 30
0.0
  3
*U64
  1

  0
TEXT
  5
10C3
  8
0
 10
77.398818897637568
 20
91.301736391545745
 30
0.0
 40
3.0
  1
30
  7
BYGG-014881$0$ISO
  0
ENDBLK
  5
10C5
  8
0
  0
BLOCK
  8
0
  2
*U65
 70
     1
 10
0.0
 20
0.0
 30
0.0
  3
*U65
  1

  0
TEXT
  5
10C7
  8
0
 10
77.249999999999716
 20
19.60644784523118
 30
0.0
 40
3.0
  1
74
  7
BYGG-014881$0$ISO
  0
ENDBLK
  5
10C9
  8
0
  0
BLOCK
  8
0
  2
*U66
 70
     1
 10
0.0
 20
0.0
 30
0.0
  3
*U66
  1

  0
TEXT
  5
10CB
  8
0
 10
79.582652933288713
 20
63.417373530097393
 30
0.0
 40
3.0
  1
59.5
 50
269.9999999999996
  7
BYGG-014878$0$ISO
  0
ENDBLK
  5
10CD
  8
0
  0
BLOCK
  8
0
  2
*U67
 70
     1
 10
0.0
 20
0.0
 30
0.0
  3
*U67
  1

  0
TEXT
  5
10CF
  8
0
 10
127.412132034355
 20
17.409458360018039
 30
0.0
 40
3.0
  1
70.5
 50
179.9999999999996
  7
BYGG-014878$0$ISO
  0
ENDBLK
  5
10D1
  8
0
  0
BLOCK
  8
0
  2
*U68
 70
     1
 10
0.0
 20
0.0
 30
0.0
  3
*U68
  1

  0
TEXT
  5
10D3
  8
0
 10
8.5809812764533291
 20
87.761472082175914
 30
0.0
 40
3.0
  1
22
  7
BYGG-014203$0$ISO
  0
ENDBLK
  5
10D5
  8
0
  0
BLOCK
  8
0
  2
*U69
 70
     1
 10
0.0
 20
0.0
 30
0.0
  3
*U69
  1

  0
TEXT
  5
10D7
  8
0
 10
-8.3607304139752312
 20
63.328105218186678
 30
0.0
 40
3.0
  1
29
 50
90.0
  7
BYGG-014203$0$ISO
  0
ENDBLK
  5
10D9
  8
0
  0
BLOCK
  8
0
  2
*U70
 70
     1
 10
0.0
 20
0.0
 30
0.0
  3
*U70
  1

  0
TEXT
  5
10DB
  8
0
 10
150.4190187235462
 20
90.761472082175501
 30
0.0
 40
3.0
  1
22
 50
180.0
  7
BYGG-014203$0$ISO
  0
ENDBLK
  5
10DD
  8
0
  0
BLOCK
  8
0
  2
*U71
 70
     1
 10
0.0
 20
0.0
 30
0.0
  3
*U71
  1

  0
TEXT
  5
10DF
  8
0
 10
165.36013986279369
 20
63.328105218186188
 30
0.0
 40
3.0
  1
29
 50
90.000000000000028
  7
BYGG-014203$0$ISO
  0
ENDBLK
  5
10E1
  8
0
  0
BLOCK
  8
0
  2
*U72
 70
     1
 10
0.0
 20
0.0
 30
0.0
  3
*U72
  1

  0
TEXT
  5
193F
  8
SAPA_MATT
 62
     2
 10
76.649999999999523
 20
1.0
 30
0.0
 40
3.0
  1
159
  7
ISO
  0
ENDBLK
  5
1941
  8
0
  0
ENDSEC
  0
SECTION
  2
ENTITIES
  0
DIMENSION
  5
780
  8
SAPA_MATT
  2
*D5
 10
116.4999999999996
 20
9.9999999999999751
 30
0.0
 11
79.499999999999659
 21
12.49999999999997
 31
0.0
 70
     0
 13
42.499999999999673
 23
30.29999999999994
 33
0.0
 14
116.4999999999996
 24
30.300000000000111
 34
0.0
1001
ACAD
1000
DSTYLE
1002
{
1070
    40
1040
1.0
1002
}
  0
TEXT
  5
781
  8
SAPA_ARTIKELNR
 10
1.0236227801318589
 20
83.282253949028004
 30
0.0
 40
3.5
  1
42077
  7
ISO
  0
TEXT
  5
782
  8
SAPA_ARTIKELNR
 10
73.175449236296359
 20
82.680394809403154
 30
0.0
 40
3.4999999999999991
  1
68903
 50
0.0000079034017515
  7
ISO
  0
TEXT
  5
788
  8
SAPA_ARTIKELNR
 10
39.108270818856539
 20
91.983947938761716
 30
0.0
 40
3.5
  1
68810
  7
ISO
  0
TEXT
  5
78B
  8
SAPA_ARTIKELNR
 10
140.5769251664122
 20
83.282253949027464
 30
0.0
 40
3.5
  1
42077
  7
ISO
  0
POLYLINE
  5
78C
  8
SAPA_LIGHT
 66
     1
 10
0.0
 20
0.0
 30
0.0
  0
VERTEX
  5
CDA
  8
SAPA_LIGHT
 10
-11.80000000000005
 20
44.400000000000432
 30
0.0
  0
VERTEX
  5
CDB
  8
SAPA_LIGHT
 10
17.000000000000011
 20
44.400000000000212
 30
0.0
  0
VERTEX
  5
CDC
  8
SAPA_LIGHT
 10
17.000000000000011
 20
38.400000000000212
 30
0.0
  0
VERTEX
  5
CDD
  8
SAPA_LIGHT
 10
-11.80000000000005
 20
38.400000000000212
 30
0.0
  0
VERTEX
  5
CDE
  8
SAPA_LIGHT
 10
-11.80000000000005
 20
44.400000000000432
 30
0.0
  0
SEQEND
  5
CDF
  8
SAPA_LIGHT
  0
POLYLINE
  5
78E
  8
SAPA_LIGHT
 66
     1
 10
0.0
 20
0.0
 30
0.0
  0
VERTEX
  5
CE0
  8
SAPA_LIGHT
 10
-0.0000000000000142
 20
38.400000000000212
 30
0.0
  0
VERTEX
  5
CE1
  8
SAPA_LIGHT
 10
-0.0000000000000142
 20
30.000000000000039
 30
0.0
  0
VERTEX
  5
CE2
  8
SAPA_LIGHT
 10
37.499999999999993
 20
30.000000000000039
 30
0.0
  0
VERTEX
  5
CE3
  8
SAPA_LIGHT
 10
37.499999999999993
 20
35.450000000000152
 30
0.0
  0
VERTEX
  5
CE4
  8
SAPA_LIGHT
 10
40.662829999999971
 20
35.450000000000088
 30
0.0
  0
VERTEX
  5
CE5
  8
SAPA_LIGHT
 10
44.499999999999979
 20
36.349999634051919
 30
0.0
  0
VERTEX
  5
CE6
  8
SAPA_LIGHT
 10
44.499999999999993
 20
47.33638490568255
 30
0.0
  0
VERTEX
  5
CE7
  8
SAPA_LIGHT
 10
52.999999999999979
 20
51.300000000000011
 30
0.0
  0
VERTEX
  5
CE8
  8
SAPA_LIGHT
 10
52.999999999999872
 20
79.999999999999901
 30
0.0
  0
VERTEX
  5
CE9
  8
SAPA_LIGHT
 10
70.499999999999986
 20
80.000000000000256
 30
0.0
  0
VERTEX
  5
CEA
  8
SAPA_LIGHT
 10
70.499999999999986
 20
89.499999999999986
 30
0.0
  0
VERTEX
  5
CEB
  8
SAPA_LIGHT
 10
27.484827510723559
 20
89.499999999999986
 30
0.0
  0
VERTEX
  5
CEC
  8
SAPA_LIGHT
 10
21.999999276140642
 20
80.000000000000014
 30
0.0
  0
VERTEX
  5
CED
  8
SAPA_LIGHT
 10
-0.0000000000022862
 20
80.000000000000114
 30
0.0
  0
VERTEX
  5
CEE
  8
SAPA_LIGHT
 10
-0.0000000000025651
 20
44.400000000000347
 30
0.0
  0
SEQEND
  5
CEF
  8
SAPA_LIGHT
  0
LINE
  5
790
  8
SAPA_LIGHT
 10
42.499999999999773
 20
34.200000000000088
 30
0.0
 11
42.499999999999773
 21
30.300000000000111
 31
0.0
  0
LINE
  5
791
  8
SAPA_LIGHT
 10
42.499999999999773
 20
34.200000000000088
 30
0.0
 11
42.499999999999773
 21
30.300000000000111
 31
0.0
  0
LINE
  5
8B5
  8
SAPA_LIGHT
 10
42.499999999999773
 20
34.500000000000092
 30
0.0
 11
42.499999999999758
 21
30.000000000000099
 31
0.0
  0
POLYLINE
  5
8C1
  8
SAPA_LIGHT
 66
     1
 10
0.0
 20
0.0
 30
0.0
  0
VERTEX
  5
CF0
  8
SAPA_LIGHT
 10
158.9999999999992
 20
38.399999999999672
 30
0.0
  0
VERTEX
  5
CF1
  8
SAPA_LIGHT
 10
158.9999999999992
 20
29.999999999999499
 30
0.0
  0
VERTEX
  5
CF2
  8
SAPA_LIGHT
 10
121.4999999999992
 20
29.999999999999758
 30
0.0
  0
VERTEX
  5
CF3
  8
SAPA_LIGHT
 10
121.4999999999992
 20
35.449999999999861
 30
0.0
  0
VERTEX
  5
CF4
  8
SAPA_LIGHT
 10
118.3371699999992
 20
35.449999999999832
 30
0.0
  0
VERTEX
  5
CF5
  8
SAPA_LIGHT
 10
114.4999999999992
 20
36.349999634051677
 30
0.0
  0
VERTEX
  5
CF6
  8
SAPA_LIGHT
 10
114.4999999999993
 20
47.336384905682308
 30
0.0
  0
VERTEX
  5
CF7
  8
SAPA_LIGHT
 10
105.9999999999993
 20
51.299999999999827
 30
0.0
  0
VERTEX
  5
CF8
  8
SAPA_LIGHT
 10
105.9999999999996
 20
79.99999999999973
 30
0.0
  0
VERTEX
  5
CF9
  8
SAPA_LIGHT
 10
88.499999999999545
 20
80.000000000000213
 30
0.0
  0
VERTEX
  5
CFA
  8
SAPA_LIGHT
 10
88.499999999999602
 20
89.499999999999929
 30
0.0
  0
VERTEX
  5
CFB
  8
SAPA_LIGHT
 10
131.51517248927601
 20
89.499999999999645
 30
0.0
  0
VERTEX
  5
CFC
  8
SAPA_LIGHT
 10
137.00000072385879
 20
79.999999999999616
 30
0.0
  0
VERTEX
  5
CFD
  8
SAPA_LIGHT
 10
159.00000000000179
 20
79.999999999999588
 30
0.0
  0
VERTEX
  5
CFE
  8
SAPA_LIGHT
 10
159.00000000000179
 20
44.3999999999998
 30
0.0
  0
SEQEND
  5
CFF
  8
SAPA_LIGHT
  0
TEXT
  5
8F0
  8
SAPA_ARTIKELNR
 10
113.74983181885609
 20
91.983947938761446
 30
0.0
 40
3.5
  1
68810
  7
ISO
  0
POLYLINE
  5
921
  8
SAPA_LIGHT
 66
     1
 10
0.0
 20
0.0
 30
0.0
  0
VERTEX
  5
D00
  8
SAPA_LIGHT
 10
141.9999999999992
 20
44.3999999999998
 30
0.0
  0
VERTEX
  5
D01
  8
SAPA_LIGHT
 10
170.7999999999993
 20
44.399999999999821
 30
0.0
  0
VERTEX
  5
D02
  8
SAPA_LIGHT
 10
170.7999999999993
 20
38.399999999999586
 30
0.0
  0
VERTEX
  5
D03
  8
SAPA_LIGHT
 10
141.9999999999992
 20
38.399999999999807
 30
0.0
  0
VERTEX
  5
D04
  8
SAPA_LIGHT
 10
141.9999999999992
 20
44.3999999999998
 30
0.0
  0
SEQEND
  5
D05
  8
SAPA_LIGHT
  0
POLYLINE
  5
922
  8
SAPA_LIGHT
 66
     1
 10
0.0
 20
0.0
 30
0.0
  0
VERTEX
  5
D06
  8
SAPA_LIGHT
 10
42.499999999999758
 20
30.000000000000099
 30
0.0
  0
VERTEX
  5
D07
  8
SAPA_LIGHT
 10
116.4999999999996
 20
30.000000000000099
 30
0.0
  0
VERTEX
  5
D08
  8
SAPA_LIGHT
 10
116.4999999999996
 20
34.500000000000099
 30
0.0
  0
VERTEX
  5
D09
  8
SAPA_LIGHT
 10
94.499999999999716
 20
34.500000000000099
 30
0.0
  0
VERTEX
  5
D0A
  8
SAPA_LIGHT
 10
94.499999999999716
 20
42.500000000328193
 30
0.0
  0
VERTEX
  5
D0B
  8
SAPA_LIGHT
 10
94.499999999999787
 20
80.000000000000099
 30
0.0
  0
VERTEX
  5
D0C
  8
SAPA_LIGHT
 10
64.499999999999758
 20
80.000000000000156
 30
0.0
  0
VERTEX
  5
D0D
  8
SAPA_LIGHT
 10
64.499999999999773
 20
77.124264068711952
 30
0.0
  0
VERTEX
  5
D0E
  8
SAPA_LIGHT
 10
64.500000000000441
 20
34.500000000000469
 30
0.0
  0
VERTEX
  5
D0F
  8
SAPA_LIGHT
 10
44.067544467973498
 20
34.500000000000163
 30
0.0
  0
VERTEX
  5
D10
  8
SAPA_LIGHT
 10
42.499999999999773
 20
34.500000000000092
 30
0.0
  0
SEQEND
  5
D11
  8
SAPA_LIGHT
  0
POLYLINE
  5
BFF
  8
SAPA_PROFIL
 66
     1
 10
0.0
 20
0.0
 30
0.0
  0
VERTEX
  5
13AA
  8
SAPA_PROFIL
 10
139.87873692155151
 20
63.678444819366057
 30
0.0
  0
VERTEX
  5
13AB
  8
SAPA_PROFIL
 10
157.00000000000179
 20
62.997404885507763
 30
0.0
 42
0.4142135623730951
  0
VERTEX
  5
13AC
  8
SAPA_PROFIL
 10
157.5000000000019
 20
63.497404885507763
 30
0.0
  0
VERTEX
  5
13AD
  8
SAPA_PROFIL
 10
157.50000000000179
 20
75.29701836851649
 30
0.0
 42
0.4076767287637263
  0
VERTEX
  5
13AE
  8
SAPA_PROFIL
 10
154.5671036491849
 20
78.29626820090607
 30
0.0
  0
VERTEX
  5
13AF
  8
SAPA_PROFIL
 10
139.87873692155151
 20
78.450707423016809
 30
0.0
 42
0.4182129759575463
  0
VERTEX
  5
13B0
  8
SAPA_PROFIL
 10
139.367575809496
 20
77.955195702159642
 30
0.0
  0
VERTEX
  5
13B1
  8
SAPA_PROFIL
 10
139.35474820797029
 20
75.480547946040303
 30
0.0
  0
VERTEX
  5
13B2
  8
SAPA_PROFIL
 10
137.7000596103465
 20
73.854489989846741
 30
0.0
  0
VERTEX
  5
13B3
  8
SAPA_PROFIL
 10
133.15098357605831
 20
73.854489989846741
 30
0.0
 42
-0.4293387945586749
  0
VERTEX
  5
13B4
  8
SAPA_PROFIL
 10
132.8542570549738
 20
74.172601125836081
 30
0.0
  0
VERTEX
  5
13B5
  8
SAPA_PROFIL
 10
132.92689673110149
 20
75.254056851106554
 30
0.0
 42
-0.4883397947196161
  0
VERTEX
  5
13B6
  8
SAPA_PROFIL
 10
134.48861855710979
 20
75.033433916908336
 30
0.0
  0
VERTEX
  5
13B7
  8
SAPA_PROFIL
 10
137.18769983314419
 20
75.033433916908336
 30
0.0
  0
VERTEX
  5
13B8
  8
SAPA_PROFIL
 10
138.1591314795204
 20
75.988057137106182
 30
0.0
  0
VERTEX
  5
13B9
  8
SAPA_PROFIL
 10
138.1591314795204
 20
78.487183279991257
 30
0.0
  0
VERTEX
  5
13BA
  8
SAPA_PROFIL
 10
137.68535581300549
 20
78.487183279991257
 30
0.0
  0
VERTEX
  5
13BB
  8
SAPA_PROFIL
 10
137.68535581300549
 20
79.999999999999488
 30
0.0
  0
VERTEX
  5
13BC
  8
SAPA_PROFIL
 10
158.7026407066939
 20
79.999999999999659
 30
0.0
 42
-0.4116378201539302
  0
VERTEX
  5
13BD
  8
SAPA_PROFIL
 10
159.00000000000179
 20
79.700011522329305
 30
0.0
  0
VERTEX
  5
13BE
  8
SAPA_PROFIL
 10
159.00000000000179
 20
51.297404885507767
 30
0.0
 42
-0.414213562373095
  0
VERTEX
  5
13BF
  8
SAPA_PROFIL
 10
158.70000000000181
 20
50.997404885507713
 30
0.0
  0
VERTEX
  5
13C0
  8
SAPA_PROFIL
 10
157.49000000000191
 20
50.997404885507763
 30
0.0
 42
-0.4142135623731037
  0
VERTEX
  5
13C1
  8
SAPA_PROFIL
 10
156.5000000000019
 20
51.987404885507722
 30
0.0
  0
VERTEX
  5
13C2
  8
SAPA_PROFIL
 10
156.5000000000019
 20
51.997404885507763
 30
0.0
  0
VERTEX
  5
13C3
  8
SAPA_PROFIL
 10
157.7500000000019
 20
51.997404885507763
 30
0.0
  0
VERTEX
  5
13C4
  8
SAPA_PROFIL
 10
157.7500000000019
 20
53.497404885507763
 30
0.0
 42
0.4142135623730951
  0
VERTEX
  5
13C5
  8
SAPA_PROFIL
 10
157.2500000000019
 20
53.997404885507763
 30
0.0
  0
VERTEX
  5
13C6
  8
SAPA_PROFIL
 10
149.2500000000019
 20
53.997404885507763
 30
0.0
 42
0.4142135623730951
  0
VERTEX
  5
13C7
  8
SAPA_PROFIL
 10
148.75000000000179
 20
53.497404885507763
 30
0.0
  0
VERTEX
  5
13C8
  8
SAPA_PROFIL
 10
148.75000000000179
 20
51.997404885507763
 30
0.0
  0
VERTEX
  5
13C9
  8
SAPA_PROFIL
 10
150.0000000000019
 20
51.997404885507763
 30
0.0
  0
VERTEX
  5
13CA
  8
SAPA_PROFIL
 10
150.0000000000019
 20
51.987404885507722
 30
0.0
 42
-0.414213562373095
  0
VERTEX
  5
13CB
  8
SAPA_PROFIL
 10
149.01000000000181
 20
50.997404885507713
 30
0.0
  0
VERTEX
  5
13CC
  8
SAPA_PROFIL
 10
148.50000000000179
 20
50.997404885507763
 30
0.0
 42
-0.4142135623730953
  0
VERTEX
  5
13CD
  8
SAPA_PROFIL
 10
147.5000000000019
 20
51.997404885507763
 30
0.0
  0
VERTEX
  5
13CE
  8
SAPA_PROFIL
 10
147.5000000000019
 20
53.497404885507763
 30
0.0
 42
-0.4142135623730951
  0
VERTEX
  5
13CF
  8
SAPA_PROFIL
 10
149.20000000000181
 20
55.197404885507751
 30
0.0
  0
VERTEX
  5
13D0
  8
SAPA_PROFIL
 10
157.00000000000179
 20
55.197404885507801
 30
0.0
 42
0.414213562373095
  0
VERTEX
  5
13D1
  8
SAPA_PROFIL
 10
157.5000000000019
 20
55.697404885507808
 30
0.0
  0
VERTEX
  5
13D2
  8
SAPA_PROFIL
 10
157.5000000000019
 20
61.197404885507808
 30
0.0
 42
0.4142135623730951
  0
VERTEX
  5
13D3
  8
SAPA_PROFIL
 10
157.00000000000179
 20
61.697404885507808
 30
0.0
  0
VERTEX
  5
13D4
  8
SAPA_PROFIL
 10
139.87873692155151
 20
62.368614531974117
 30
0.0
  0
VERTEX
  5
13D5
  8
SAPA_PROFIL
 10
134.47579015780181
 20
63.025552982703459
 30
0.0
 42
0.4666505291506209
  0
VERTEX
  5
13D6
  8
SAPA_PROFIL
 10
134.19598859188301
 20
62.76372145165891
 30
0.0
  0
VERTEX
  5
13D7
  8
SAPA_PROFIL
 10
134.2355314858014
 20
62.041065358099949
 30
0.0
 42
-0.7332303362618522
  0
VERTEX
  5
13D8
  8
SAPA_PROFIL
 10
133.69945546314909
 20
61.840890769529778
 30
0.0
  0
VERTEX
  5
13D9
  8
SAPA_PROFIL
 10
132.92854534564469
 20
63.950998109067477
 30
0.0
 42
-0.668178637919333
  0
VERTEX
  5
13DA
  8
SAPA_PROFIL
 10
133.20171154083889
 20
64.433345961158295
 30
0.0
  0
VERTEX
  5
13DB
  8
SAPA_PROFIL
 10
139.87873692155151
 20
63.678444819366057
 30
0.0
  0
VERTEX
  5
13DC
  8
SAPA_PROFIL
 10
139.87873692155151
 20
63.687978271529168
 30
0.0
  0
SEQEND
  5
13DD
  8
SAPA_PROFIL
  0
POLYLINE
  5
C00
  8
SAPA_PROFIL
 66
     1
 10
0.0
 20
0.0
 30
0.0
  0
VERTEX
  5
13DE
  8
SAPA_PROFIL
 10
19.12126307844807
 20
63.678444819366568
 30
0.0
  0
VERTEX
  5
13DF
  8
SAPA_PROFIL
 10
1.999999999997726
 20
62.997404885508281
 30
0.0
 42
-0.4142135623730951
  0
VERTEX
  5
13E0
  8
SAPA_PROFIL
 10
1.499999999997726
 20
63.497404885508267
 30
0.0
  0
VERTEX
  5
13E1
  8
SAPA_PROFIL
 10
1.4999999999977831
 20
75.297018368517001
 30
0.0
 42
-0.4076767287637263
  0
VERTEX
  5
13E2
  8
SAPA_PROFIL
 10
4.4328963508147012
 20
78.296268200906525
 30
0.0
  0
VERTEX
  5
13E3
  8
SAPA_PROFIL
 10
19.12126307844807
 20
78.45070742301732
 30
0.0
 42
-0.4182129759575463
  0
VERTEX
  5
13E4
  8
SAPA_PROFIL
 10
19.632424190503571
 20
77.955195702160154
 30
0.0
  0
VERTEX
  5
13E5
  8
SAPA_PROFIL
 10
19.645251792029281
 20
75.480547946040815
 30
0.0
  0
VERTEX
  5
13E6
  8
SAPA_PROFIL
 10
21.299940389653099
 20
73.854489989847252
 30
0.0
  0
VERTEX
  5
13E7
  8
SAPA_PROFIL
 10
25.84901642394129
 20
73.854489989847252
 30
0.0
 42
0.4293387945586749
  0
VERTEX
  5
13E8
  8
SAPA_PROFIL
 10
26.145742945025798
 20
74.172601125836593
 30
0.0
  0
VERTEX
  5
13E9
  8
SAPA_PROFIL
 10
26.07310326889808
 20
75.254056851107066
 30
0.0
 42
0.4883397947196161
  0
VERTEX
  5
13EA
  8
SAPA_PROFIL
 10
24.511381442889729
 20
75.033433916908848
 30
0.0
  0
VERTEX
  5
13EB
  8
SAPA_PROFIL
 10
21.812300166855319
 20
75.033433916908848
 30
0.0
  0
VERTEX
  5
13EC
  8
SAPA_PROFIL
 10
20.840868520479209
 20
75.988057137106694
 30
0.0
  0
VERTEX
  5
13ED
  8
SAPA_PROFIL
 10
20.840868520479209
 20
78.487183279991768
 30
0.0
  0
VERTEX
  5
13EE
  8
SAPA_PROFIL
 10
21.314644186994091
 20
78.487183279991768
 30
0.0
  0
VERTEX
  5
13EF
  8
SAPA_PROFIL
 10
21.314644186994091
 20
80.0
 30
0.0
  0
VERTEX
  5
13F0
  8
SAPA_PROFIL
 10
0.2973592933056466
 20
80.000000000000114
 30
0.0
 42
0.4116378201539302
  0
VERTEX
  5
13F1
  8
SAPA_PROFIL
 10
-0.0000000000022169
 20
79.70001152232976
 30
0.0
  0
VERTEX
  5
13F2
  8
SAPA_PROFIL
 10
-0.0000000000022737
 20
51.297404885508293
 30
0.0
 42
0.414213562373095
  0
VERTEX
  5
13F3
  8
SAPA_PROFIL
 10
0.2999999999977376
 20
50.99740488550821
 30
0.0
  0
VERTEX
  5
13F4
  8
SAPA_PROFIL
 10
1.5099999999977169
 20
50.997404885508267
 30
0.0
 42
0.4142135623731037
  0
VERTEX
  5
13F5
  8
SAPA_PROFIL
 10
2.4999999999977258
 20
51.987404885508219
 30
0.0
  0
VERTEX
  5
13F6
  8
SAPA_PROFIL
 10
2.4999999999977258
 20
51.997404885508267
 30
0.0
  0
VERTEX
  5
13F7
  8
SAPA_PROFIL
 10
1.249999999997726
 20
51.997404885508267
 30
0.0
  0
VERTEX
  5
13F8
  8
SAPA_PROFIL
 10
1.249999999997726
 20
53.497404885508267
 30
0.0
 42
-0.4142135623730951
  0
VERTEX
  5
13F9
  8
SAPA_PROFIL
 10
1.749999999997726
 20
53.997404885508267
 30
0.0
  0
VERTEX
  5
13FA
  8
SAPA_PROFIL
 10
9.7499999999977263
 20
53.997404885508267
 30
0.0
 42
-0.4142135623730951
  0
VERTEX
  5
13FB
  8
SAPA_PROFIL
 10
10.249999999997719
 20
53.497404885508267
 30
0.0
  0
VERTEX
  5
13FC
  8
SAPA_PROFIL
 10
10.249999999997719
 20
51.997404885508267
 30
0.0
  0
VERTEX
  5
13FD
  8
SAPA_PROFIL
 10
8.9999999999977263
 20
51.997404885508267
 30
0.0
  0
VERTEX
  5
13FE
  8
SAPA_PROFIL
 10
8.9999999999977263
 20
51.987404885508219
 30
0.0
 42
0.414213562373095
  0
VERTEX
  5
13FF
  8
SAPA_PROFIL
 10
9.9899999999977354
 20
50.99740488550821
 30
0.0
  0
VERTEX
  5
1400
  8
SAPA_PROFIL
 10
10.499999999997719
 20
50.997404885508267
 30
0.0
 42
0.4142135623730953
  0
VERTEX
  5
1401
  8
SAPA_PROFIL
 10
11.499999999997719
 20
51.997404885508267
 30
0.0
  0
VERTEX
  5
1402
  8
SAPA_PROFIL
 10
11.499999999997719
 20
53.497404885508267
 30
0.0
 42
0.4142135623730951
  0
VERTEX
  5
1403
  8
SAPA_PROFIL
 10
9.7999999999977376
 20
55.197404885508263
 30
0.0
  0
VERTEX
  5
1404
  8
SAPA_PROFIL
 10
1.999999999997726
 20
55.19740488550832
 30
0.0
 42
-0.414213562373095
  0
VERTEX
  5
1405
  8
SAPA_PROFIL
 10
1.499999999997726
 20
55.69740488550832
 30
0.0
  0
VERTEX
  5
1406
  8
SAPA_PROFIL
 10
1.499999999997726
 20
61.197404885508313
 30
0.0
 42
-0.4142135623730951
  0
VERTEX
  5
1407
  8
SAPA_PROFIL
 10
1.999999999997726
 20
61.69740488550832
 30
0.0
  0
VERTEX
  5
1408
  8
SAPA_PROFIL
 10
19.12126307844807
 20
62.368614531974622
 30
0.0
  0
VERTEX
  5
1409
  8
SAPA_PROFIL
 10
24.524209842197759
 20
63.025552982703971
 30
0.0
 42
-0.4666505291506209
  0
VERTEX
  5
140A
  8
SAPA_PROFIL
 10
24.804011408116541
 20
62.763721451659421
 30
0.0
  0
VERTEX
  5
140B
  8
SAPA_PROFIL
 10
24.7644685141982
 20
62.041065358100468
 30
0.0
 42
0.7332303362618522
  0
VERTEX
  5
140C
  8
SAPA_PROFIL
 10
25.300544536850509
 20
61.84089076953029
 30
0.0
  0
VERTEX
  5
140D
  8
SAPA_PROFIL
 10
26.071454654354909
 20
63.950998109067989
 30
0.0
 42
0.668178637919333
  0
VERTEX
  5
140E
  8
SAPA_PROFIL
 10
25.798288459160631
 20
64.433345961158807
 30
0.0
  0
VERTEX
  5
140F
  8
SAPA_PROFIL
 10
19.12126307844807
 20
63.678444819366568
 30
0.0
  0
VERTEX
  5
1410
  8
SAPA_PROFIL
 10
19.12126307844807
 20
63.687978271529687
 30
0.0
  0
SEQEND
  5
1411
  8
SAPA_PROFIL
  0
POLYLINE
  5
C01
  8
SAPA_PROFIL
 66
     1
 10
0.0
 20
0.0
 30
0.0
 70
     1
  0
VERTEX
  5
1412
  8
SAPA_PROFIL
 10
124.899999999999
 20
31.799999999999649
 30
0.0
 42
-0.4142135623730951
  0
VERTEX
  5
1413
  8
SAPA_PROFIL
 10
124.399999999999
 20
32.299999999999663
 30
0.0
  0
VERTEX
  5
1414
  8
SAPA_PROFIL
 10
124.3999999999992
 20
44.549999999999763
 30
0.0
 42
-0.4142135623730927
  0
VERTEX
  5
1415
  8
SAPA_PROFIL
 10
124.8999999999993
 20
45.049999999999763
 30
0.0
  0
VERTEX
  5
1416
  8
SAPA_PROFIL
 10
129.7999999999993
 20
45.04999999999967
 30
0.0
 42
-0.4142135623730943
  0
VERTEX
  5
1417
  8
SAPA_PROFIL
 10
130.2999999999993
 20
44.54999999999967
 30
0.0
  0
VERTEX
  5
1418
  8
SAPA_PROFIL
 10
130.2999999999991
 20
32.299999999999898
 30
0.0
 42
-0.4142135623730951
  0
VERTEX
  5
1419
  8
SAPA_PROFIL
 10
129.7999999999991
 20
31.799999999999901
 30
0.0
  0
SEQEND
  5
141A
  8
SAPA_PROFIL
  0
POLYLINE
  5
C02
  8
SAPA_PROFIL
 66
     1
 10
0.0
 20
0.0
 30
0.0
 70
     1
  0
VERTEX
  5
141B
  8
SAPA_PROFIL
 10
107.69999999999941
 20
52.701554573776313
 30
0.0
 42
0.2914734195861744
  0
VERTEX
  5
141C
  8
SAPA_PROFIL
 10
107.9886908691291
 20
52.24840068025798
 30
0.0
  0
VERTEX
  5
141D
  8
SAPA_PROFIL
 10
111.10832324456661
 20
50.793692212963123
 30
0.0
 42
0.1095178116832386
  0
VERTEX
  5
141E
  8
SAPA_PROFIL
 10
111.5309415063072
 20
50.699999999999783
 30
0.0
  0
VERTEX
  5
141F
  8
SAPA_PROFIL
 10
115.69999999999931
 20
50.699999999999747
 30
0.0
 42
-0.4142135623730951
  0
VERTEX
  5
1420
  8
SAPA_PROFIL
 10
116.19999999999931
 20
50.19999999999974
 30
0.0
  0
VERTEX
  5
1421
  8
SAPA_PROFIL
 10
116.19999999999931
 20
48.737939479458738
 30
0.0
 42
0.2914734195861007
  0
VERTEX
  5
1422
  8
SAPA_PROFIL
 10
116.488690869129
 20
48.284785585940412
 30
0.0
  0
VERTEX
  5
1423
  8
SAPA_PROFIL
 10
119.8940380721792
 20
46.696846106481367
 30
0.0
 42
0.1095178116832193
  0
VERTEX
  5
1424
  8
SAPA_PROFIL
 10
120.1053472030495
 20
46.6499999999997
 30
0.0
  0
VERTEX
  5
1425
  8
SAPA_PROFIL
 10
129.7999999999993
 20
46.649999999999693
 30
0.0
 42
0.4142135623731019
  0
VERTEX
  5
1426
  8
SAPA_PROFIL
 10
130.2999999999993
 20
47.149999999999693
 30
0.0
  0
VERTEX
  5
1427
  8
SAPA_PROFIL
 10
130.29999999999939
 20
51.199999999999648
 30
0.0
 42
-0.4142135623730951
  0
VERTEX
  5
1428
  8
SAPA_PROFIL
 10
130.79999999999939
 20
51.69999999999964
 30
0.0
  0
VERTEX
  5
1429
  8
SAPA_PROFIL
 10
134.59999999999931
 20
51.699999999999619
 30
0.0
 42
0.4142135623730951
  0
VERTEX
  5
142A
  8
SAPA_PROFIL
 10
135.09999999999931
 20
52.199999999999612
 30
0.0
  0
VERTEX
  5
142B
  8
SAPA_PROFIL
 10
135.0999999999994
 20
57.799999999999628
 30
0.0
 42
0.4142135623730951
  0
VERTEX
  5
142C
  8
SAPA_PROFIL
 10
134.5999999999994
 20
58.299999999999642
 30
0.0
  0
VERTEX
  5
142D
  8
SAPA_PROFIL
 10
130.79999999999939
 20
58.299999999999663
 30
0.0
 42
-0.4142135623730951
  0
VERTEX
  5
142E
  8
SAPA_PROFIL
 10
130.29999999999939
 20
58.79999999999967
 30
0.0
  0
VERTEX
  5
142F
  8
SAPA_PROFIL
 10
130.29999999999961
 20
79.29999999999967
 30
0.0
 42
-0.4142135623730951
  0
VERTEX
  5
1430
  8
SAPA_PROFIL
 10
130.79999999999961
 20
79.79999999999967
 30
0.0
  0
VERTEX
  5
1431
  8
SAPA_PROFIL
 10
134.28645399999959
 20
79.799999999999756
 30
0.0
 42
0.5773499999999932
  0
VERTEX
  5
1432
  8
SAPA_PROFIL
 10
134.54626199999959
 20
80.249999999999574
 30
0.0
  0
VERTEX
  5
1433
  8
SAPA_PROFIL
 10
130.64914699999949
 20
86.999999999999716
 30
0.0
 42
0.267948999999997
  0
VERTEX
  5
1434
  8
SAPA_PROFIL
 10
129.78312199999951
 20
87.499999999999716
 30
0.0
  0
VERTEX
  5
1435
  8
SAPA_PROFIL
 10
112.4999999999996
 20
87.49999999999973
 30
0.0
 42
0.4142140000000792
  0
VERTEX
  5
1436
  8
SAPA_PROFIL
 10
111.9999999999996
 20
86.999999999999744
 30
0.0
  0
VERTEX
  5
1437
  8
SAPA_PROFIL
 10
111.9999999999995
 20
77.304999999999808
 30
0.0
 42
0.4142139999998795
  0
VERTEX
  5
1438
  8
SAPA_PROFIL
 10
112.4999999999996
 20
76.804999999999566
 30
0.0
  0
VERTEX
  5
1439
  8
SAPA_PROFIL
 10
113.19999999999951
 20
76.804999999999779
 30
0.0
 42
-0.4142139999999463
  0
VERTEX
  5
143A
  8
SAPA_PROFIL
 10
113.69999999999951
 20
76.304999999999779
 30
0.0
  0
VERTEX
  5
143B
  8
SAPA_PROFIL
 10
113.69999999999941
 20
61.904999999999752
 30
0.0
 42
-0.4142139999998796
  0
VERTEX
  5
143C
  8
SAPA_PROFIL
 10
113.19999999999931
 20
61.404999999999532
 30
0.0
  0
VERTEX
  5
143D
  8
SAPA_PROFIL
 10
112.9999999999994
 20
61.40499999999976
 30
0.0
 42
0.4142139999999461
  0
VERTEX
  5
143E
  8
SAPA_PROFIL
 10
112.4999999999996
 20
60.90499999999976
 30
0.0
  0
VERTEX
  5
143F
  8
SAPA_PROFIL
 10
112.4999999999994
 20
58.499999999999787
 30
0.0
 42
-0.4142135623730951
  0
VERTEX
  5
1440
  8
SAPA_PROFIL
 10
111.9999999999993
 20
57.999999999999787
 30
0.0
  0
VERTEX
  5
1441
  8
SAPA_PROFIL
 10
108.19999999999941
 20
57.999999999999822
 30
0.0
 42
0.4142135623730951
  0
VERTEX
  5
1442
  8
SAPA_PROFIL
 10
107.69999999999941
 20
57.499999999999822
 30
0.0
  0
SEQEND
  5
1443
  8
SAPA_PROFIL
  0
POLYLINE
  5
C03
  8
SAPA_PROFIL
 66
     1
 10
0.0
 20
0.0
 30
0.0
 70
     1
  0
VERTEX
  5
1444
  8
SAPA_PROFIL
 10
134.69999999999931
 20
49.999999999999567
 30
0.0
  0
VERTEX
  5
1445
  8
SAPA_PROFIL
 10
132.29999999999939
 20
49.999999999999588
 30
0.0
 42
0.4142135623730951
  0
VERTEX
  5
1446
  8
SAPA_PROFIL
 10
131.9999999999994
 20
49.699999999999633
 30
0.0
  0
VERTEX
  5
1447
  8
SAPA_PROFIL
 10
131.9999999999994
 20
41.650000656212562
 30
0.0
 42
-0.1316523369912118
  0
VERTEX
  5
1448
  8
SAPA_PROFIL
 10
131.95980771585059
 20
41.50000082026564
 30
0.0
  0
VERTEX
  5
1449
  8
SAPA_PROFIL
 10
131.69999999999931
 20
41.049999999999478
 30
0.0
  0
VERTEX
  5
144A
  8
SAPA_PROFIL
 10
131.9598075908508
 20
40.600000262265198
 30
0.0
 42
-0.1316525489352833
  0
VERTEX
  5
144B
  8
SAPA_PROFIL
 10
131.9999999999992
 20
40.450000209812274
 30
0.0
  0
VERTEX
  5
144C
  8
SAPA_PROFIL
 10
131.9999999999992
 20
32.299999999999663
 30
0.0
 42
0.4142140000001461
  0
VERTEX
  5
144D
  8
SAPA_PROFIL
 10
132.29999999999919
 20
31.999999999999591
 30
0.0
  0
VERTEX
  5
144E
  8
SAPA_PROFIL
 10
134.69999999999919
 20
31.99999999999962
 30
0.0
 42
0.4142140000000906
  0
VERTEX
  5
144F
  8
SAPA_PROFIL
 10
134.9999999999992
 20
32.299999999999642
 30
0.0
  0
VERTEX
  5
1450
  8
SAPA_PROFIL
 10
134.9999999999992
 20
33.700000044676329
 30
0.0
 42
-0.5877030000000079
  0
VERTEX
  5
1451
  8
SAPA_PROFIL
 10
135.4579609999991
 20
33.955046044676251
 30
0.0
  0
VERTEX
  5
1452
  8
SAPA_PROFIL
 10
136.9053069999992
 20
33.05864704467627
 30
0.0
 42
-0.2596809999998896
  0
VERTEX
  5
1453
  8
SAPA_PROFIL
 10
136.99999999999909
 20
32.888616044676283
 30
0.0
  0
VERTEX
  5
1454
  8
SAPA_PROFIL
 10
136.9999999999992
 20
32.088082999999592
 30
0.0
 42
0.4023939999998733
  0
VERTEX
  5
1455
  8
SAPA_PROFIL
 10
137.2878469999992
 20
31.788328999999639
 30
0.0
  0
VERTEX
  5
1456
  8
SAPA_PROFIL
 10
151.7609059999991
 20
31.20152999999949
 30
0.0
 42
0.4373280000000294
  0
VERTEX
  5
1457
  8
SAPA_PROFIL
 10
152.2999999999991
 20
31.699999999999541
 30
0.0
  0
VERTEX
  5
1458
  8
SAPA_PROFIL
 10
152.29999999999919
 20
32.531399999999458
 30
0.0
 42
0.363970000000061
  0
VERTEX
  5
1459
  8
SAPA_PROFIL
 10
151.88682499999919
 20
33.023803999999537
 30
0.0
  0
VERTEX
  5
145A
  8
SAPA_PROFIL
 10
150.71317599999921
 20
33.23074999999951
 30
0.0
 42
-0.8391000000000017
  0
VERTEX
  5
145B
  8
SAPA_PROFIL
 10
150.71317599999921
 20
34.215556999999443
 30
0.0
  0
VERTEX
  5
145C
  8
SAPA_PROFIL
 10
152.28324899999919
 20
34.49240399999946
 30
0.0
 42
-0.0436610000000063
  0
VERTEX
  5
145D
  8
SAPA_PROFIL
 10
152.37007299999919
 20
34.499999999999488
 30
0.0
  0
VERTEX
  5
145E
  8
SAPA_PROFIL
 10
153.36754499999921
 20
34.499999999999488
 30
0.0
 42
-0.2896899999999917
  0
VERTEX
  5
145F
  8
SAPA_PROFIL
 10
154.2710529999992
 20
33.928570999999458
 30
0.0
 42
-0.5507599999998717
  0
VERTEX
  5
1460
  8
SAPA_PROFIL
 10
153.9999999999992
 20
33.499999999999432
 30
0.0
  0
VERTEX
  5
1461
  8
SAPA_PROFIL
 10
153.79999999999919
 20
33.499999999999552
 30
0.0
 42
0.4142140000000907
  0
VERTEX
  5
1462
  8
SAPA_PROFIL
 10
153.4999999999992
 20
33.199999999999541
 30
0.0
  0
VERTEX
  5
1463
  8
SAPA_PROFIL
 10
153.49999999999909
 20
31.699999999999541
 30
0.0
 42
0.4142139999999794
  0
VERTEX
  5
1464
  8
SAPA_PROFIL
 10
153.99999999999929
 20
31.19999999999947
 30
0.0
  0
VERTEX
  5
1465
  8
SAPA_PROFIL
 10
157.29999999999919
 20
31.199999999999509
 30
0.0
 42
0.4142140000000128
  0
VERTEX
  5
1466
  8
SAPA_PROFIL
 10
157.7999999999991
 20
31.699999999999498
 30
0.0
  0
VERTEX
  5
1467
  8
SAPA_PROFIL
 10
157.7999999999993
 20
33.199999999999498
 30
0.0
 42
0.414213999999813
  0
VERTEX
  5
1468
  8
SAPA_PROFIL
 10
157.4999999999992
 20
33.49999999999946
 30
0.0
  0
VERTEX
  5
1469
  8
SAPA_PROFIL
 10
157.2999999999993
 20
33.49999999999946
 30
0.0
 42
-0.5507599999999765
  0
VERTEX
  5
146A
  8
SAPA_PROFIL
 10
157.02894799999919
 20
33.928570999999494
 30
0.0
 42
-0.2896899999999603
  0
VERTEX
  5
146B
  8
SAPA_PROFIL
 10
157.93245599999921
 20
34.49999999999951
 30
0.0
  0
VERTEX
  5
146C
  8
SAPA_PROFIL
 10
158.69999999999919
 20
34.499999999999453
 30
0.0
 42
-0.414213999999813
  0
VERTEX
  5
146D
  8
SAPA_PROFIL
 10
158.99999999999929
 20
34.199999999999491
 30
0.0
  0
VERTEX
  5
146E
  8
SAPA_PROFIL
 10
158.9999999999992
 20
30.624264068711359
 30
0.0
 42
-0.1989123673795536
  0
VERTEX
  5
146F
  8
SAPA_PROFIL
 10
158.9121320343551
 20
30.41213203435537
 30
0.0
  0
VERTEX
  5
1470
  8
SAPA_PROFIL
 10
158.5878679656432
 20
30.087867965643468
 30
0.0
 42
-0.198912367379658
  0
VERTEX
  5
1471
  8
SAPA_PROFIL
 10
158.37573593128721
 20
29.999999999999449
 30
0.0
  0
VERTEX
  5
1472
  8
SAPA_PROFIL
 10
121.9999999999991
 20
29.999999999999719
 30
0.0
 42
-0.4142139999999794
  0
VERTEX
  5
1473
  8
SAPA_PROFIL
 10
121.4999999999992
 20
30.499999999999719
 30
0.0
  0
VERTEX
  5
1474
  8
SAPA_PROFIL
 10
121.4999999999993
 20
31.499999999999719
 30
0.0
 42
-0.3056149748443016
  0
VERTEX
  5
1475
  8
SAPA_PROFIL
 10
121.8124999124513
 20
31.963512491727052
 30
0.0
 42
0.3056147706310184
  0
VERTEX
  5
1476
  8
SAPA_PROFIL
 10
121.9999999999991
 20
32.24161997040801
 30
0.0
  0
VERTEX
  5
1477
  8
SAPA_PROFIL
 10
121.9999999999992
 20
34.949999999999818
 30
0.0
 42
0.4142135623730951
  0
VERTEX
  5
1478
  8
SAPA_PROFIL
 10
121.4999999999992
 20
35.449999999999832
 30
0.0
  0
VERTEX
  5
1479
  8
SAPA_PROFIL
 10
118.3371699999992
 20
35.44999999999979
 30
0.0
  0
VERTEX
  5
147A
  8
SAPA_PROFIL
 10
114.7314949999992
 20
36.295702999999783
 30
0.0
 42
-0.3482370000000332
  0
VERTEX
  5
147B
  8
SAPA_PROFIL
 10
114.4999999999992
 20
36.587776999999789
 30
0.0
  0
VERTEX
  5
147C
  8
SAPA_PROFIL
 10
114.4999999999992
 20
36.74999999999978
 30
0.0
 42
-0.4142140000000907
  0
VERTEX
  5
147D
  8
SAPA_PROFIL
 10
114.7999999999993
 20
37.049999999999791
 30
0.0
  0
VERTEX
  5
147E
  8
SAPA_PROFIL
 10
122.19999999999921
 20
37.04999999999967
 30
0.0
 42
0.4142135623730951
  0
VERTEX
  5
147F
  8
SAPA_PROFIL
 10
122.69999999999921
 20
37.54999999999967
 30
0.0
  0
VERTEX
  5
1480
  8
SAPA_PROFIL
 10
122.69999999999931
 20
44.54999999999967
 30
0.0
 42
0.4142140000000462
  0
VERTEX
  5
1481
  8
SAPA_PROFIL
 10
122.19999999999931
 20
45.04999999999967
 30
0.0
  0
VERTEX
  5
1482
  8
SAPA_PROFIL
 10
118.7677669999993
 20
45.049999999999748
 30
0.0
 42
0.1989120000000332
  0
VERTEX
  5
1483
  8
SAPA_PROFIL
 10
118.4142139999993
 20
44.903552999999732
 30
0.0
  0
VERTEX
  5
1484
  8
SAPA_PROFIL
 10
115.78033099999929
 20
42.269669999999721
 30
0.0
 42
-1.000556671979917
  0
VERTEX
  5
1485
  8
SAPA_PROFIL
 10
114.7202606037681
 20
43.330919947328248
 30
0.0
  0
VERTEX
  5
1486
  8
SAPA_PROFIL
 10
116.8769553724033
 20
45.487614715963367
 30
0.0
 42
0.5205670505516917
  0
VERTEX
  5
1487
  8
SAPA_PROFIL
 10
116.7347111126804
 20
46.294322000074978
 30
0.0
  0
VERTEX
  5
1488
  8
SAPA_PROFIL
 10
106.288690869129
 20
51.165381236885203
 30
0.0
 42
-0.2914734195861185
  0
VERTEX
  5
1489
  8
SAPA_PROFIL
 10
105.9999999999993
 20
51.618535130403536
 30
0.0
  0
VERTEX
  5
148A
  8
SAPA_PROFIL
 10
105.9999999999994
 20
62.199999999999768
 30
0.0
 42
-0.4142139999999796
  0
VERTEX
  5
148B
  8
SAPA_PROFIL
 10
106.2999999999995
 20
62.499999999999837
 30
0.0
  0
VERTEX
  5
148C
  8
SAPA_PROFIL
 10
107.19999999999931
 20
62.499999999999829
 30
0.0
 42
-0.414213999999813
  0
VERTEX
  5
148D
  8
SAPA_PROFIL
 10
107.4999999999994
 20
62.199999999999747
 30
0.0
  0
VERTEX
  5
148E
  8
SAPA_PROFIL
 10
107.4999999999995
 20
60.199999999999811
 30
0.0
 42
0.4142139999998961
  0
VERTEX
  5
148F
  8
SAPA_PROFIL
 10
107.69999999999941
 20
59.999999999999822
 30
0.0
  0
VERTEX
  5
1490
  8
SAPA_PROFIL
 10
110.4999999999994
 20
59.999999999999801
 30
0.0
 42
0.5773502691898261
  0
VERTEX
  5
1491
  8
SAPA_PROFIL
 10
110.6732050807563
 20
60.299999999999763
 30
0.0
  0
VERTEX
  5
1492
  8
SAPA_PROFIL
 10
110.54019237886411
 20
60.530384757729138
 30
0.0
 42
-0.1316524975874119
  0
VERTEX
  5
1493
  8
SAPA_PROFIL
 10
110.4999999999994
 20
60.680384757729122
 30
0.0
  0
VERTEX
  5
1494
  8
SAPA_PROFIL
 10
110.4999999999995
 20
62.604999999999762
 30
0.0
 42
-0.4142139999999461
  0
VERTEX
  5
1495
  8
SAPA_PROFIL
 10
110.9999999999994
 20
63.104999999999762
 30
0.0
  0
VERTEX
  5
1496
  8
SAPA_PROFIL
 10
111.69999999999931
 20
63.104999999999642
 30
0.0
 42
0.4142140000000906
  0
VERTEX
  5
1497
  8
SAPA_PROFIL
 10
111.9999999999994
 20
63.404999999999767
 30
0.0
  0
VERTEX
  5
1498
  8
SAPA_PROFIL
 10
111.9999999999995
 20
68.505000209812323
 30
0.0
 42
-0.1316525489352833
  0
VERTEX
  5
1499
  8
SAPA_PROFIL
 10
112.04019240914791
 20
68.655000262265474
 30
0.0
  0
VERTEX
  5
149A
  8
SAPA_PROFIL
 10
112.2999999999995
 20
69.104999999999734
 30
0.0
  0
VERTEX
  5
149B
  8
SAPA_PROFIL
 10
112.04019228414811
 20
69.555000820265917
 30
0.0
 42
-0.1316523369912119
  0
VERTEX
  5
149C
  8
SAPA_PROFIL
 10
111.9999999999994
 20
69.705000656212832
 30
0.0
  0
VERTEX
  5
149D
  8
SAPA_PROFIL
 10
111.9999999999995
 20
74.804999999999808
 30
0.0
 42
0.414213999999813
  0
VERTEX
  5
149E
  8
SAPA_PROFIL
 10
111.69999999999951
 20
75.104999999999762
 30
0.0
  0
VERTEX
  5
149F
  8
SAPA_PROFIL
 10
110.9999999999996
 20
75.104999999999762
 30
0.0
 42
-0.4142139999999461
  0
VERTEX
  5
14A0
  8
SAPA_PROFIL
 10
110.4999999999995
 20
75.604999999999762
 30
0.0
  0
VERTEX
  5
14A1
  8
SAPA_PROFIL
 10
110.4999999999996
 20
79.319615242270373
 30
0.0
 42
-0.1316524975873767
  0
VERTEX
  5
14A2
  8
SAPA_PROFIL
 10
110.54019237886421
 20
79.469615242270464
 30
0.0
  0
VERTEX
  5
14A3
  8
SAPA_PROFIL
 10
110.6732050807565
 20
79.69999999999979
 30
0.0
 42
0.5773502691894598
  0
VERTEX
  5
14A4
  8
SAPA_PROFIL
 10
110.4999999999995
 20
79.999999999999744
 30
0.0
  0
VERTEX
  5
14A5
  8
SAPA_PROFIL
 10
107.6999999999996
 20
79.999999999999659
 30
0.0
 42
0.4142139999998128
  0
VERTEX
  5
14A6
  8
SAPA_PROFIL
 10
107.4999999999995
 20
79.799999999999841
 30
0.0
  0
VERTEX
  5
14A7
  8
SAPA_PROFIL
 10
107.4999999999995
 20
77.799999999999713
 30
0.0
 42
-0.414213999999813
  0
VERTEX
  5
14A8
  8
SAPA_PROFIL
 10
107.19999999999951
 20
77.499999999999773
 30
0.0
  0
VERTEX
  5
14A9
  8
SAPA_PROFIL
 10
106.2999999999996
 20
77.499999999999773
 30
0.0
 42
-0.4142139999998128
  0
VERTEX
  5
14AA
  8
SAPA_PROFIL
 10
105.9999999999995
 20
77.799999999999841
 30
0.0
  0
VERTEX
  5
14AB
  8
SAPA_PROFIL
 10
105.9999999999996
 20
81.499999999999773
 30
0.0
 42
-0.4142139999999461
  0
VERTEX
  5
14AC
  8
SAPA_PROFIL
 10
106.4999999999995
 20
81.999999999999773
 30
0.0
  0
VERTEX
  5
14AD
  8
SAPA_PROFIL
 10
109.9999999999995
 20
81.999999999999744
 30
0.0
 42
0.4142140000000794
  0
VERTEX
  5
14AE
  8
SAPA_PROFIL
 10
110.4999999999995
 20
82.499999999999744
 30
0.0
  0
VERTEX
  5
14AF
  8
SAPA_PROFIL
 10
110.4999999999996
 20
87.027190999999874
 30
0.0
 42
0.397937999999963
  0
VERTEX
  5
14B0
  8
SAPA_PROFIL
 10
110.0279289999997
 20
87.526409999999814
 30
0.0
  0
VERTEX
  5
14B1
  8
SAPA_PROFIL
 10
96.199999999999648
 20
88.299999999999926
 30
0.0
 42
0.4142140000000127
  0
VERTEX
  5
14B2
  8
SAPA_PROFIL
 10
95.199999999999633
 20
87.299999999999926
 30
0.0
  0
VERTEX
  5
14B3
  8
SAPA_PROFIL
 10
95.199999999999633
 20
85.999999999999972
 30
0.0
 42
-0.424142000000003
  0
VERTEX
  5
14B4
  8
SAPA_PROFIL
 10
94.166227999999606
 20
85.000570999999894
 30
0.0
 42
-0.2988660000000183
  0
VERTEX
  5
14B5
  8
SAPA_PROFIL
 10
93.228947999999619
 20
85.571428999999952
 30
0.0
 42
-0.5507599999996211
  0
VERTEX
  5
14B6
  8
SAPA_PROFIL
 10
93.499999999999574
 20
85.999999999999872
 30
0.0
  0
VERTEX
  5
14B7
  8
SAPA_PROFIL
 10
93.799999999999656
 20
85.999999999999872
 30
0.0
 42
0.414213999999813
  0
VERTEX
  5
14B8
  8
SAPA_PROFIL
 10
93.999999999999588
 20
86.199999999999903
 30
0.0
  0
VERTEX
  5
14B9
  8
SAPA_PROFIL
 10
93.999999999999702
 20
86.499999999999957
 30
0.0
 42
0.4142139999999796
  0
VERTEX
  5
14BA
  8
SAPA_PROFIL
 10
92.199999999999648
 20
88.299999999999955
 30
0.0
  0
VERTEX
  5
14BB
  8
SAPA_PROFIL
 10
91.499999999999716
 20
88.299999999999841
 30
0.0
 42
0.414213999999998
  0
VERTEX
  5
14BC
  8
SAPA_PROFIL
 10
89.699999999999633
 20
86.499999999999886
 30
0.0
  0
VERTEX
  5
14BD
  8
SAPA_PROFIL
 10
89.699999999999633
 20
86.199999999999946
 30
0.0
 42
0.4142139999998128
  0
VERTEX
  5
14BE
  8
SAPA_PROFIL
 10
89.899999999999565
 20
85.999999999999901
 30
0.0
  0
VERTEX
  5
14BF
  8
SAPA_PROFIL
 10
90.199999999999633
 20
86.0
 30
0.0
 42
-0.5507599999999805
  0
VERTEX
  5
14C0
  8
SAPA_PROFIL
 10
90.471052999999543
 20
85.571429000000066
 30
0.0
 42
-0.2988660000000331
  0
VERTEX
  5
14C1
  8
SAPA_PROFIL
 10
89.533772999999684
 20
85.000570999999937
 30
0.0
 42
-0.4241420000000235
  0
VERTEX
  5
14C2
  8
SAPA_PROFIL
 10
88.499999999999574
 20
85.999999999999915
 30
0.0
  0
VERTEX
  5
14C3
  8
SAPA_PROFIL
 10
88.499999999999574
 20
86.499999999999915
 30
0.0
 42
-0.4142140000000127
  0
VERTEX
  5
14C4
  8
SAPA_PROFIL
 10
91.499999999999616
 20
89.499999999999886
 30
0.0
  0
VERTEX
  5
14C5
  8
SAPA_PROFIL
 10
129.78312199999971
 20
89.499999999999602
 30
0.0
 42
-0.2679489999999819
  0
VERTEX
  5
14C6
  8
SAPA_PROFIL
 10
132.38119799999961
 20
87.999999999999588
 30
0.0
  0
VERTEX
  5
14C7
  8
SAPA_PROFIL
 10
136.86602599999949
 20
80.232050999999615
 30
0.0
 42
-0.1316520000000068
  0
VERTEX
  5
14C8
  8
SAPA_PROFIL
 10
136.99999999999949
 20
79.732050999999615
 30
0.0
  0
VERTEX
  5
14C9
  8
SAPA_PROFIL
 10
136.99999999999949
 20
77.111383999999589
 30
0.0
 42
-0.2596809999999468
  0
VERTEX
  5
14CA
  8
SAPA_PROFIL
 10
136.90530699999951
 20
76.941352999999594
 30
0.0
  0
VERTEX
  5
14CB
  8
SAPA_PROFIL
 10
135.45796099999961
 20
76.044953999999635
 30
0.0
 42
-0.5877030000000416
  0
VERTEX
  5
14CC
  8
SAPA_PROFIL
 10
134.99999999999949
 20
76.299999999999514
 30
0.0
  0
VERTEX
  5
14CD
  8
SAPA_PROFIL
 10
134.99999999999949
 20
77.699999999999619
 30
0.0
 42
0.414213999999924
  0
VERTEX
  5
14CE
  8
SAPA_PROFIL
 10
134.69999999999939
 20
77.999999999999574
 30
0.0
  0
VERTEX
  5
14CF
  8
SAPA_PROFIL
 10
132.29999999999961
 20
77.999999999999574
 30
0.0
 42
0.4142139999998128
  0
VERTEX
  5
14D0
  8
SAPA_PROFIL
 10
131.99999999999949
 20
77.69999999999952
 30
0.0
  0
VERTEX
  5
14D1
  8
SAPA_PROFIL
 10
131.9999999999994
 20
68.099999999999611
 30
0.0
  0
VERTEX
  5
14D2
  8
SAPA_PROFIL
 10
131.9999999999994
 20
66.099999999999611
 30
0.0
  0
VERTEX
  5
14D3
  8
SAPA_PROFIL
 10
131.9999999999994
 20
60.299999999999649
 30
0.0
 42
0.4142135623731505
  0
VERTEX
  5
14D4
  8
SAPA_PROFIL
 10
132.29999999999939
 20
59.999999999999758
 30
0.0
  0
VERTEX
  5
14D5
  8
SAPA_PROFIL
 10
134.69999999999939
 20
59.999999999999623
 30
0.0
 42
0.4142135623730951
  0
VERTEX
  5
14D6
  8
SAPA_PROFIL
 10
134.99999999999949
 20
60.299999999999628
 30
0.0
  0
VERTEX
  5
14D7
  8
SAPA_PROFIL
 10
134.9999999999994
 20
61.699999999999548
 30
0.0
 42
-0.5877030000001193
  0
VERTEX
  5
14D8
  8
SAPA_PROFIL
 10
135.45796099999939
 20
61.955046999999588
 30
0.0
  0
VERTEX
  5
14D9
  8
SAPA_PROFIL
 10
136.70530699999941
 20
61.162515999999592
 30
0.0
 42
-0.2596809999999468
  0
VERTEX
  5
14DA
  8
SAPA_PROFIL
 10
136.79999999999939
 20
60.99248499999959
 30
0.0
  0
VERTEX
  5
14DB
  8
SAPA_PROFIL
 10
136.79999972154019
 20
49.007515733781993
 30
0.0
 42
-0.2596809999999508
  0
VERTEX
  5
14DC
  8
SAPA_PROFIL
 10
136.7053067215401
 20
48.837485733781989
 30
0.0
  0
VERTEX
  5
14DD
  8
SAPA_PROFIL
 10
135.45796072154019
 20
48.044953733782009
 30
0.0
 42
-0.5877030000000664
  0
VERTEX
  5
14DE
  8
SAPA_PROFIL
 10
134.99999972153989
 20
48.300000733782007
 30
0.0
  0
VERTEX
  5
14DF
  8
SAPA_PROFIL
 10
134.99999999999929
 20
49.699999999999612
 30
0.0
 42
0.4142135623730951
  0
SEQEND
  5
14E0
  8
SAPA_PROFIL
  0
POLYLINE
  5
C04
  8
SAPA_PROFIL
 66
     1
 10
0.0
 20
0.0
 30
0.0
 70
     1
  0
VERTEX
  5
14E1
  8
SAPA_PROFIL
 10
71.199999999999761
 20
52.950000000000081
 30
0.0
  0
VERTEX
  5
14E2
  8
SAPA_PROFIL
 10
71.200000000000784
 20
32.100000000000122
 30
0.0
 42
0.4142135623730809
  0
VERTEX
  5
14E3
  8
SAPA_PROFIL
 10
71.500000000000796
 20
31.800000000000111
 30
0.0
  0
VERTEX
  5
14E4
  8
SAPA_PROFIL
 10
87.499999999998806
 20
31.80000000000005
 30
0.0
 42
0.4142135623730816
  0
VERTEX
  5
14E5
  8
SAPA_PROFIL
 10
87.799999999998818
 20
32.100000000000072
 30
0.0
  0
VERTEX
  5
14E6
  8
SAPA_PROFIL
 10
87.799999999999898
 20
52.950000000000081
 30
0.0
 42
-0.9999999999999998
  0
VERTEX
  5
14E7
  8
SAPA_PROFIL
 10
88.699999999999761
 20
52.950000000000081
 30
0.0
  0
VERTEX
  5
14E8
  8
SAPA_PROFIL
 10
88.699999999999761
 20
52.750000000000043
 30
0.0
 42
0.4142135623730951
  0
VERTEX
  5
14E9
  8
SAPA_PROFIL
 10
89.199999999999761
 20
52.250000000000043
 30
0.0
  0
VERTEX
  5
14EA
  8
SAPA_PROFIL
 10
89.999999999999758
 20
52.250000000000043
 30
0.0
 42
0.3747564601181448
  0
VERTEX
  5
14EB
  8
SAPA_PROFIL
 10
92.724395043234423
 20
54.62560495676545
 30
0.0
  0
VERTEX
  5
14EC
  8
SAPA_PROFIL
 10
92.562132034355784
 20
54.78786796564399
 30
0.0
 42
-0.4142135623730951
  0
VERTEX
  5
14ED
  8
SAPA_PROFIL
 10
92.562132034355727
 20
55.212132034355861
 30
0.0
  0
VERTEX
  5
14EE
  8
SAPA_PROFIL
 10
92.724395043234765
 20
55.374395043235083
 30
0.0
 42
0.3747564601181388
  0
VERTEX
  5
14EF
  8
SAPA_PROFIL
 10
89.999999999999758
 20
57.750000000000043
 30
0.0
  0
VERTEX
  5
14F0
  8
SAPA_PROFIL
 10
89.199999999999761
 20
57.750000000000043
 30
0.0
 42
0.4142135623730951
  0
VERTEX
  5
14F1
  8
SAPA_PROFIL
 10
88.699999999999761
 20
57.250000000000043
 30
0.0
  0
VERTEX
  5
14F2
  8
SAPA_PROFIL
 10
88.699999999999761
 20
57.049999999999997
 30
0.0
 42
-0.9999999999999998
  0
VERTEX
  5
14F3
  8
SAPA_PROFIL
 10
87.799999999999784
 20
57.049999999999997
 30
0.0
  0
VERTEX
  5
14F4
  8
SAPA_PROFIL
 10
87.799999999999713
 20
77.900000000000233
 30
0.0
 42
0.4142135623730951
  0
VERTEX
  5
14F5
  8
SAPA_PROFIL
 10
87.499999999999716
 20
78.200000000000202
 30
0.0
  0
VERTEX
  5
14F6
  8
SAPA_PROFIL
 10
71.499999999999773
 20
78.200000000000088
 30
0.0
 42
0.4142135623730951
  0
VERTEX
  5
14F7
  8
SAPA_PROFIL
 10
71.199999999999761
 20
77.900000000000134
 30
0.0
  0
VERTEX
  5
14F8
  8
SAPA_PROFIL
 10
71.199999999999761
 20
57.050000000000111
 30
0.0
 42
-0.9999999999999998
  0
VERTEX
  5
14F9
  8
SAPA_PROFIL
 10
70.299999999999784
 20
57.050000000000111
 30
0.0
  0
VERTEX
  5
14FA
  8
SAPA_PROFIL
 10
70.299999999999784
 20
57.250000000000043
 30
0.0
 42
0.4142135623730951
  0
VERTEX
  5
14FB
  8
SAPA_PROFIL
 10
69.799999999999784
 20
57.750000000000043
 30
0.0
  0
VERTEX
  5
14FC
  8
SAPA_PROFIL
 10
68.999999999999773
 20
57.750000000000043
 30
0.0
 42
0.3747564601181388
  0
VERTEX
  5
14FD
  8
SAPA_PROFIL
 10
66.275604956764823
 20
55.374395043235083
 30
0.0
  0
VERTEX
  5
14FE
  8
SAPA_PROFIL
 10
66.437867965643804
 20
55.212132034356088
 30
0.0
 42
-0.4142135623731173
  0
VERTEX
  5
14FF
  8
SAPA_PROFIL
 10
66.437867965643761
 20
54.787867965644217
 30
0.0
  0
VERTEX
  5
1500
  8
SAPA_PROFIL
 10
66.275604956765164
 20
54.62560495676545
 30
0.0
 42
0.3747564601181558
  0
VERTEX
  5
1501
  8
SAPA_PROFIL
 10
68.999999999999773
 20
52.249999999999929
 30
0.0
  0
VERTEX
  5
1502
  8
SAPA_PROFIL
 10
69.799999999999784
 20
52.250000000000043
 30
0.0
 42
0.4142135623730951
  0
VERTEX
  5
1503
  8
SAPA_PROFIL
 10
70.299999999999784
 20
52.750000000000043
 30
0.0
  0
VERTEX
  5
1504
  8
SAPA_PROFIL
 10
70.299999999999784
 20
52.950000000000081
 30
0.0
 42
-0.9999999999999998
  0
SEQEND
  5
1505
  8
SAPA_PROFIL
  0
POLYLINE
  5
C05
  8
SAPA_PROFIL
 66
     1
 10
0.0
 20
0.0
 30
0.0
 70
     1
  0
VERTEX
  5
1506
  8
SAPA_PROFIL
 10
66.799999999999784
 20
78.200000000000088
 30
0.0
  0
VERTEX
  5
1507
  8
SAPA_PROFIL
 10
69.199999999999761
 20
78.200000000000088
 30
0.0
 42
-0.4142135623730951
  0
VERTEX
  5
1508
  8
SAPA_PROFIL
 10
69.499999999999773
 20
77.900000000000134
 30
0.0
  0
VERTEX
  5
1509
  8
SAPA_PROFIL
 10
69.499999999999773
 20
59.799999999999997
 30
0.0
 42
-0.4142135623730951
  0
VERTEX
  5
150A
  8
SAPA_PROFIL
 10
69.199999999999761
 20
59.500000000000043
 30
0.0
  0
VERTEX
  5
150B
  8
SAPA_PROFIL
 10
66.799999999999784
 20
59.500000000000043
 30
0.0
 42
-0.4142135623730951
  0
VERTEX
  5
150C
  8
SAPA_PROFIL
 10
66.499999999999773
 20
59.799999999999997
 30
0.0
  0
VERTEX
  5
150D
  8
SAPA_PROFIL
 10
66.499999999999773
 20
61.700000000000081
 30
0.0
 42
0.4142135623730951
  0
VERTEX
  5
150E
  8
SAPA_PROFIL
 10
66.199999999999761
 20
62.000000000000043
 30
0.0
  0
VERTEX
  5
150F
  8
SAPA_PROFIL
 10
65.624264068711625
 20
62.000000000000043
 30
0.0
 42
0.198912367379658
  0
VERTEX
  5
1510
  8
SAPA_PROFIL
 10
65.412132034355636
 20
61.912132034356013
 30
0.0
  0
VERTEX
  5
1511
  8
SAPA_PROFIL
 10
64.787867965643841
 20
61.287867965643997
 30
0.0
 42
0.1989123673796372
  0
VERTEX
  5
1512
  8
SAPA_PROFIL
 10
64.699999999999804
 20
61.075735931288058
 30
0.0
  0
VERTEX
  5
1513
  8
SAPA_PROFIL
 10
64.699999999999804
 20
55.519615242271058
 30
0.0
  0
VERTEX
  5
1514
  8
SAPA_PROFIL
 10
64.913397459621422
 20
55.15000000000002
 30
0.0
 42
-0.2679491924309556
  0
VERTEX
  5
1515
  8
SAPA_PROFIL
 10
64.913397459621422
 20
54.850000000000179
 30
0.0
  0
VERTEX
  5
1516
  8
SAPA_PROFIL
 10
64.699999999999804
 20
54.480384757729141
 30
0.0
  0
VERTEX
  5
1517
  8
SAPA_PROFIL
 10
64.699999999999761
 20
48.987515663627661
 30
0.0
 42
0.2596812337301103
  0
VERTEX
  5
1518
  8
SAPA_PROFIL
 10
64.79469319524793
 20
48.817484852087702
 30
0.0
  0
VERTEX
  5
1519
  8
SAPA_PROFIL
 10
66.042039792872004
 20
48.044953783018222
 30
0.0
 42
0.5877032589247109
  0
VERTEX
  5
151A
  8
SAPA_PROFIL
 10
66.499999999999829
 20
48.300000000328211
 30
0.0
  0
VERTEX
  5
151B
  8
SAPA_PROFIL
 10
66.499999999999829
 20
50.23417878671868
 30
0.0
 42
-0.4683749459841756
  0
VERTEX
  5
151C
  8
SAPA_PROFIL
 10
66.799999999999784
 20
50.500000000328257
 30
0.0
  0
VERTEX
  5
151D
  8
SAPA_PROFIL
 10
69.199999999999761
 20
50.500000000328143
 30
0.0
 42
-0.468374945984748
  0
VERTEX
  5
151E
  8
SAPA_PROFIL
 10
69.499999999999773
 20
50.234178786717997
 30
0.0
  0
VERTEX
  5
151F
  8
SAPA_PROFIL
 10
69.499999999999773
 20
43.90000000032812
 30
0.0
 42
-0.4142135623730451
  0
VERTEX
  5
1520
  8
SAPA_PROFIL
 10
69.199999999999761
 20
43.600000000328109
 30
0.0
  0
VERTEX
  5
1521
  8
SAPA_PROFIL
 10
65.999999999999602
 20
43.600000000328109
 30
0.0
 42
-0.4142135623731784
  0
VERTEX
  5
1522
  8
SAPA_PROFIL
 10
65.699999999999761
 20
43.90000000032812
 30
0.0
  0
VERTEX
  5
1523
  8
SAPA_PROFIL
 10
65.699999999999875
 20
44.300000004463278
 30
0.0
 42
0.5877032589249652
  0
VERTEX
  5
1524
  8
SAPA_PROFIL
 10
65.242039792872163
 20
44.555046221773281
 30
0.0
  0
VERTEX
  5
1525
  8
SAPA_PROFIL
 10
64.594693195248112
 20
44.154118877221642
 30
0.0
 42
0.2596812337302127
  0
VERTEX
  5
1526
  8
SAPA_PROFIL
 10
64.499999999999829
 20
43.984088065681462
 30
0.0
  0
VERTEX
  5
1527
  8
SAPA_PROFIL
 10
64.499999999999829
 20
42.500000000328193
 30
0.0
 42
0.4142135623730118
  0
VERTEX
  5
1528
  8
SAPA_PROFIL
 10
64.799999999999784
 20
42.200000000328302
 30
0.0
  0
VERTEX
  5
1529
  8
SAPA_PROFIL
 10
69.199999999999761
 20
42.200000000328131
 30
0.0
 42
-0.4142135623731617
  0
VERTEX
  5
152A
  8
SAPA_PROFIL
 10
69.499999999999773
 20
41.90000000032812
 30
0.0
  0
VERTEX
  5
152B
  8
SAPA_PROFIL
 10
69.499999999999773
 20
32.10000000000047
 30
0.0
 42
-0.4142135623730118
  0
VERTEX
  5
152C
  8
SAPA_PROFIL
 10
69.199999999999761
 20
31.800000000000281
 30
0.0
  0
VERTEX
  5
152D
  8
SAPA_PROFIL
 10
66.800000000000466
 20
31.800000000000281
 30
0.0
 42
-0.4142135623731784
  0
VERTEX
  5
152E
  8
SAPA_PROFIL
 10
66.500000000000455
 20
32.10000000000047
 30
0.0
  0
VERTEX
  5
152F
  8
SAPA_PROFIL
 10
66.500000000000455
 20
33.699999999999413
 30
0.0
 42
0.587703258924865
  0
VERTEX
  5
1530
  8
SAPA_PROFIL
 10
66.042039792872686
 20
33.955046217309288
 30
0.0
  0
VERTEX
  5
1531
  8
SAPA_PROFIL
 10
64.642039792872765
 20
33.087970860101272
 30
0.0
 42
0.2596812337301328
  0
VERTEX
  5
1532
  8
SAPA_PROFIL
 10
64.500000000000455
 20
32.832924642790822
 30
0.0
  0
VERTEX
  5
1533
  8
SAPA_PROFIL
 10
64.500000000000455
 20
32.100000000000293
 30
0.0
 42
-0.4142135623731451
  0
VERTEX
  5
1534
  8
SAPA_PROFIL
 10
64.200000000000557
 20
31.800000000000232
 30
0.0
  0
VERTEX
  5
1535
  8
SAPA_PROFIL
 10
54.499999999999773
 20
31.800000000000111
 30
0.0
 42
-0.4142135623730951
  0
VERTEX
  5
1536
  8
SAPA_PROFIL
 10
53.999999999999773
 20
32.300000000000111
 30
0.0
  0
VERTEX
  5
1537
  8
SAPA_PROFIL
 10
53.999999999999773
 20
33.500000000000099
 30
0.0
 42
0.4142135623730951
  0
VERTEX
  5
1538
  8
SAPA_PROFIL
 10
52.999999999999773
 20
34.500000000000099
 30
0.0
  0
VERTEX
  5
1539
  8
SAPA_PROFIL
 10
52.43245553202609
 20
34.500000000000099
 30
0.0
 42
0.2896898633015344
  0
VERTEX
  5
153A
  8
SAPA_PROFIL
 10
51.528947629128822
 20
33.928571428572852
 30
0.0
 42
0.5507604245877494
  0
VERTEX
  5
153B
  8
SAPA_PROFIL
 10
51.799999999999777
 20
33.500000000000163
 30
0.0
  0
VERTEX
  5
153C
  8
SAPA_PROFIL
 10
52.449999999999697
 20
33.500000000000099
 30
0.0
 42
-0.4142135623730951
  0
VERTEX
  5
153D
  8
SAPA_PROFIL
 10
52.749999999999709
 20
33.200000000000088
 30
0.0
  0
VERTEX
  5
153E
  8
SAPA_PROFIL
 10
52.749999999999773
 20
32.000000000000099
 30
0.0
 42
-0.4142135623730951
  0
VERTEX
  5
153F
  8
SAPA_PROFIL
 10
52.249999999999773
 20
31.500000000000099
 30
0.0
  0
VERTEX
  5
1540
  8
SAPA_PROFIL
 10
44.249999999999773
 20
31.500000000000099
 30
0.0
 42
-0.4142135623730951
  0
VERTEX
  5
1541
  8
SAPA_PROFIL
 10
43.749999999999773
 20
32.000000000000099
 30
0.0
  0
VERTEX
  5
1542
  8
SAPA_PROFIL
 10
43.749999999999773
 20
33.200000000000202
 30
0.0
 42
-0.41421356237306
  0
VERTEX
  5
1543
  8
SAPA_PROFIL
 10
44.04999999999972
 20
33.500000000000213
 30
0.0
  0
VERTEX
  5
1544
  8
SAPA_PROFIL
 10
44.699999999999761
 20
33.500000000000213
 30
0.0
 42
0.5507604245877494
  0
VERTEX
  5
1545
  8
SAPA_PROFIL
 10
44.971052370876748
 20
33.928571428575751
 30
0.0
 42
0.2896898633015279
  0
VERTEX
  5
1546
  8
SAPA_PROFIL
 10
44.067544467973498
 20
34.500000000000163
 30
0.0
  0
VERTEX
  5
1547
  8
SAPA_PROFIL
 10
42.799999999999777
 20
34.500000000000099
 30
0.0
 42
0.4142135623730951
  0
VERTEX
  5
1548
  8
SAPA_PROFIL
 10
42.499999999999773
 20
34.200000000000088
 30
0.0
  0
VERTEX
  5
1549
  8
SAPA_PROFIL
 10
42.499999999999773
 20
30.300000000000111
 30
0.0
 42
0.4142135623730951
  0
VERTEX
  5
154A
  8
SAPA_PROFIL
 10
42.799999999999777
 20
30.000000000000099
 30
0.0
  0
VERTEX
  5
154B
  8
SAPA_PROFIL
 10
116.1999999999998
 20
30.000000000000099
 30
0.0
 42
0.4142135623730395
  0
VERTEX
  5
154C
  8
SAPA_PROFIL
 10
116.4999999999996
 20
30.300000000000111
 30
0.0
  0
VERTEX
  5
154D
  8
SAPA_PROFIL
 10
116.4999999999996
 20
34.200000000000088
 30
0.0
 42
0.4142135623730394
  0
VERTEX
  5
154E
  8
SAPA_PROFIL
 10
116.1999999999998
 20
34.500000000000099
 30
0.0
  0
VERTEX
  5
154F
  8
SAPA_PROFIL
 10
114.932455532026
 20
34.500000000000099
 30
0.0
 42
0.2896898633015403
  0
VERTEX
  5
1550
  8
SAPA_PROFIL
 10
114.0289476291228
 20
33.928571428575637
 30
0.0
 42
0.55076042458772
  0
VERTEX
  5
1551
  8
SAPA_PROFIL
 10
114.2999999999998
 20
33.500000000000163
 30
0.0
  0
VERTEX
  5
1552
  8
SAPA_PROFIL
 10
114.9499999999997
 20
33.500000000000099
 30
0.0
 42
-0.4142135623730951
  0
VERTEX
  5
1553
  8
SAPA_PROFIL
 10
115.2499999999998
 20
33.200000000000088
 30
0.0
  0
VERTEX
  5
1554
  8
SAPA_PROFIL
 10
115.2499999999998
 20
32.000000000000099
 30
0.0
 42
-0.4142135623730951
  0
VERTEX
  5
1555
  8
SAPA_PROFIL
 10
114.7499999999996
 20
31.500000000000099
 30
0.0
  0
VERTEX
  5
1556
  8
SAPA_PROFIL
 10
106.7499999999997
 20
31.500000000000099
 30
0.0
 42
-0.4142135623730951
  0
VERTEX
  5
1557
  8
SAPA_PROFIL
 10
106.2499999999998
 20
32.000000000000099
 30
0.0
  0
VERTEX
  5
1558
  8
SAPA_PROFIL
 10
106.2499999999998
 20
33.200000000000088
 30
0.0
 42
-0.4142135623730951
  0
VERTEX
  5
1559
  8
SAPA_PROFIL
 10
106.5499999999998
 20
33.500000000000099
 30
0.0
  0
VERTEX
  5
155A
  8
SAPA_PROFIL
 10
107.1999999999997
 20
33.500000000000163
 30
0.0
 42
0.5507604245877494
  0
VERTEX
  5
155B
  8
SAPA_PROFIL
 10
107.47105237087069
 20
33.928571428572852
 30
0.0
 42
0.2896898633015483
  0
VERTEX
  5
155C
  8
SAPA_PROFIL
 10
106.56754446797341
 20
34.500000000000163
 30
0.0
  0
VERTEX
  5
155D
  8
SAPA_PROFIL
 10
105.9999999999998
 20
34.500000000000099
 30
0.0
 42
0.4142135623730951
  0
VERTEX
  5
155E
  8
SAPA_PROFIL
 10
104.9999999999998
 20
33.500000000000099
 30
0.0
  0
VERTEX
  5
155F
  8
SAPA_PROFIL
 10
104.9999999999998
 20
32.300000000000111
 30
0.0
 42
-0.4142135623730951
  0
VERTEX
  5
1560
  8
SAPA_PROFIL
 10
104.4999999999997
 20
31.800000000000111
 30
0.0
  0
VERTEX
  5
1561
  8
SAPA_PROFIL
 10
94.799999999999045
 20
31.800000000000171
 30
0.0
 42
-0.414213562373145
  0
VERTEX
  5
1562
  8
SAPA_PROFIL
 10
94.499999999999076
 20
32.100000000000293
 30
0.0
  0
VERTEX
  5
1563
  8
SAPA_PROFIL
 10
94.499999999999076
 20
32.832924642790822
 30
0.0
 42
0.2596812337301328
  0
VERTEX
  5
1564
  8
SAPA_PROFIL
 10
94.357960207126766
 20
33.087970860101272
 30
0.0
  0
VERTEX
  5
1565
  8
SAPA_PROFIL
 10
92.957960207126845
 20
33.955046217309288
 30
0.0
 42
0.587703258924865
  0
VERTEX
  5
1566
  8
SAPA_PROFIL
 10
92.499999999999091
 20
33.699999999999413
 30
0.0
  0
VERTEX
  5
1567
  8
SAPA_PROFIL
 10
92.499999999999091
 20
32.10000000000047
 30
0.0
 42
-0.4142135623731784
  0
VERTEX
  5
1568
  8
SAPA_PROFIL
 10
92.199999999999079
 20
31.800000000000281
 30
0.0
  0
VERTEX
  5
1569
  8
SAPA_PROFIL
 10
89.799999999999784
 20
31.800000000000281
 30
0.0
 42
-0.4142135623730117
  0
VERTEX
  5
156A
  8
SAPA_PROFIL
 10
89.499999999999773
 20
32.10000000000047
 30
0.0
  0
VERTEX
  5
156B
  8
SAPA_PROFIL
 10
89.499999999999773
 20
41.90000000032812
 30
0.0
 42
-0.4142135623731618
  0
VERTEX
  5
156C
  8
SAPA_PROFIL
 10
89.799999999999784
 20
42.200000000328131
 30
0.0
  0
VERTEX
  5
156D
  8
SAPA_PROFIL
 10
94.199999999999761
 20
42.200000000328302
 30
0.0
 42
0.4142135623730118
  0
VERTEX
  5
156E
  8
SAPA_PROFIL
 10
94.499999999999716
 20
42.500000000328193
 30
0.0
  0
VERTEX
  5
156F
  8
SAPA_PROFIL
 10
94.499999999999716
 20
43.984088065681462
 30
0.0
 42
0.2596812337302127
  0
VERTEX
  5
1570
  8
SAPA_PROFIL
 10
94.405306804751433
 20
44.154118877221642
 30
0.0
  0
VERTEX
  5
1571
  8
SAPA_PROFIL
 10
93.757960207127397
 20
44.555046221773281
 30
0.0
 42
0.5877032589249652
  0
VERTEX
  5
1572
  8
SAPA_PROFIL
 10
93.299999999999685
 20
44.300000004463278
 30
0.0
  0
VERTEX
  5
1573
  8
SAPA_PROFIL
 10
93.299999999999784
 20
43.90000000032812
 30
0.0
 42
-0.4142135623731784
  0
VERTEX
  5
1574
  8
SAPA_PROFIL
 10
92.999999999999943
 20
43.600000000328109
 30
0.0
  0
VERTEX
  5
1575
  8
SAPA_PROFIL
 10
89.799999999999784
 20
43.600000000328109
 30
0.0
 42
-0.414213562373045
  0
VERTEX
  5
1576
  8
SAPA_PROFIL
 10
89.499999999999773
 20
43.90000000032812
 30
0.0
  0
VERTEX
  5
1577
  8
SAPA_PROFIL
 10
89.499999999999773
 20
50.234178786717997
 30
0.0
 42
-0.468374945984748
  0
VERTEX
  5
1578
  8
SAPA_PROFIL
 10
89.799999999999784
 20
50.500000000328143
 30
0.0
  0
VERTEX
  5
1579
  8
SAPA_PROFIL
 10
92.199999999999747
 20
50.500000000328257
 30
0.0
 42
-0.4683749459841756
  0
VERTEX
  5
157A
  8
SAPA_PROFIL
 10
92.499999999999716
 20
50.23417878671868
 30
0.0
  0
VERTEX
  5
157B
  8
SAPA_PROFIL
 10
92.499999999999716
 20
48.300000000328211
 30
0.0
 42
0.5877032589247109
  0
VERTEX
  5
157C
  8
SAPA_PROFIL
 10
92.957960207127556
 20
48.044953783018222
 30
0.0
  0
VERTEX
  5
157D
  8
SAPA_PROFIL
 10
94.205306804751615
 20
48.817484852087702
 30
0.0
 42
0.2596812337301103
  0
VERTEX
  5
157E
  8
SAPA_PROFIL
 10
94.299999999999784
 20
48.987515663627661
 30
0.0
  0
VERTEX
  5
157F
  8
SAPA_PROFIL
 10
94.299999999999784
 20
54.480384757729141
 30
0.0
  0
VERTEX
  5
1580
  8
SAPA_PROFIL
 10
94.086602540378124
 20
54.850000000000058
 30
0.0
 42
-0.2679491924309994
  0
VERTEX
  5
1581
  8
SAPA_PROFIL
 10
94.086602540378067
 20
55.15000000000002
 30
0.0
  0
VERTEX
  5
1582
  8
SAPA_PROFIL
 10
94.299999999999784
 20
55.519615242271058
 30
0.0
  0
VERTEX
  5
1583
  8
SAPA_PROFIL
 10
94.299999999999827
 20
61.075735931288179
 30
0.0
 42
0.1989123673796672
  0
VERTEX
  5
1584
  8
SAPA_PROFIL
 10
94.212132034355747
 20
61.287867965644111
 30
0.0
  0
VERTEX
  5
1585
  8
SAPA_PROFIL
 10
93.587867965643724
 20
61.912132034356013
 30
0.0
 42
0.1989123673796476
  0
VERTEX
  5
1586
  8
SAPA_PROFIL
 10
93.375735931287807
 20
62.000000000000043
 30
0.0
  0
VERTEX
  5
1587
  8
SAPA_PROFIL
 10
92.799999999999855
 20
62.000000000000043
 30
0.0
 42
0.4142135623730951
  0
VERTEX
  5
1588
  8
SAPA_PROFIL
 10
92.499999999999844
 20
61.700000000000081
 30
0.0
  0
VERTEX
  5
1589
  8
SAPA_PROFIL
 10
92.499999999999758
 20
59.799999999999883
 30
0.0
 42
-0.4142135623730875
  0
VERTEX
  5
158A
  8
SAPA_PROFIL
 10
92.199999999999747
 20
59.499999999999929
 30
0.0
  0
VERTEX
  5
158B
  8
SAPA_PROFIL
 10
89.799999999999727
 20
59.500000000000043
 30
0.0
 42
-0.4142135623730829
  0
VERTEX
  5
158C
  8
SAPA_PROFIL
 10
89.499999999999716
 20
59.799999999999997
 30
0.0
  0
VERTEX
  5
158D
  8
SAPA_PROFIL
 10
89.499999999999773
 20
77.900000000000233
 30
0.0
 42
-0.4142135623730942
  0
VERTEX
  5
158E
  8
SAPA_PROFIL
 10
89.799999999999784
 20
78.200000000000202
 30
0.0
  0
VERTEX
  5
158F
  8
SAPA_PROFIL
 10
92.199999999999818
 20
78.199999999999974
 30
0.0
 42
-0.4142135623730829
  0
VERTEX
  5
1590
  8
SAPA_PROFIL
 10
92.499999999999844
 20
77.90000000000002
 30
0.0
  0
VERTEX
  5
1591
  8
SAPA_PROFIL
 10
92.499999999999758
 20
76.299999999999983
 30
0.0
 42
0.4142135623731038
  0
VERTEX
  5
1592
  8
SAPA_PROFIL
 10
92.799999999999784
 20
76.000000000000043
 30
0.0
  0
VERTEX
  5
1593
  8
SAPA_PROFIL
 10
93.375735931287807
 20
76.000000000000043
 30
0.0
 42
0.198912367379658
  0
VERTEX
  5
1594
  8
SAPA_PROFIL
 10
93.587867965643795
 20
76.087867965644065
 30
0.0
  0
VERTEX
  5
1595
  8
SAPA_PROFIL
 10
94.41213203435575
 20
76.912132034356006
 30
0.0
 42
0.198912367379658
  0
VERTEX
  5
1596
  8
SAPA_PROFIL
 10
94.499999999999773
 20
77.124264068711952
 30
0.0
  0
VERTEX
  5
1597
  8
SAPA_PROFIL
 10
94.499999999999773
 20
79.700000000000088
 30
0.0
 42
0.4142135623730397
  0
VERTEX
  5
1598
  8
SAPA_PROFIL
 10
94.199999999999761
 20
80.000000000000156
 30
0.0
  0
VERTEX
  5
1599
  8
SAPA_PROFIL
 10
64.799999999999784
 20
80.000000000000156
 30
0.0
 42
0.4142135623730396
  0
VERTEX
  5
159A
  8
SAPA_PROFIL
 10
64.499999999999773
 20
79.700000000000088
 30
0.0
  0
VERTEX
  5
159B
  8
SAPA_PROFIL
 10
64.499999999999773
 20
77.124264068711952
 30
0.0
 42
0.198912367379658
  0
VERTEX
  5
159C
  8
SAPA_PROFIL
 10
64.587867965643795
 20
76.912132034356006
 30
0.0
  0
VERTEX
  5
159D
  8
SAPA_PROFIL
 10
65.412132034355693
 20
76.087867965644065
 30
0.0
 42
0.198912367379658
  0
VERTEX
  5
159E
  8
SAPA_PROFIL
 10
65.624264068711682
 20
76.000000000000043
 30
0.0
  0
VERTEX
  5
159F
  8
SAPA_PROFIL
 10
66.199999999999704
 20
76.000000000000156
 30
0.0
 42
0.4142135623730951
  0
VERTEX
  5
15A0
  8
SAPA_PROFIL
 10
66.499999999999716
 20
76.300000000000111
 30
0.0
  0
VERTEX
  5
15A1
  8
SAPA_PROFIL
 10
66.499999999999773
 20
77.900000000000134
 30
0.0
 42
-0.4142135623730863
  0
SEQEND
  5
15A2
  8
SAPA_PROFIL
  0
POLYLINE
  5
C06
  8
SAPA_PROFIL
 66
     1
 10
0.0
 20
0.0
 30
0.0
 70
     1
  0
VERTEX
  5
15A3
  8
SAPA_PROFIL
 10
34.100000000000129
 20
31.800000000000001
 30
0.0
 42
0.4142135623730951
  0
VERTEX
  5
15A4
  8
SAPA_PROFIL
 10
34.600000000000122
 20
32.299999999999997
 30
0.0
  0
VERTEX
  5
15A5
  8
SAPA_PROFIL
 10
34.600000000000009
 20
44.550000000000111
 30
0.0
 42
0.4142135623730927
  0
VERTEX
  5
15A6
  8
SAPA_PROFIL
 10
34.100000000000009
 20
45.050000000000111
 30
0.0
  0
VERTEX
  5
15A7
  8
SAPA_PROFIL
 10
29.199999999999921
 20
45.050000000000047
 30
0.0
 42
0.4142135623730943
  0
VERTEX
  5
15A8
  8
SAPA_PROFIL
 10
28.699999999999921
 20
44.550000000000047
 30
0.0
  0
VERTEX
  5
15A9
  8
SAPA_PROFIL
 10
28.700000000000031
 20
32.300000000000281
 30
0.0
 42
0.4142135623730951
  0
VERTEX
  5
15AA
  8
SAPA_PROFIL
 10
29.200000000000031
 20
31.800000000000281
 30
0.0
  0
SEQEND
  5
15AB
  8
SAPA_PROFIL
  0
POLYLINE
  5
C07
  8
SAPA_PROFIL
 66
     1
 10
0.0
 20
0.0
 30
0.0
 70
     1
  0
VERTEX
  5
15AC
  8
SAPA_PROFIL
 10
51.29999999999994
 20
52.701554573776527
 30
0.0
 42
-0.2914734195861744
  0
VERTEX
  5
15AD
  8
SAPA_PROFIL
 10
51.011309130870231
 20
52.2484006802582
 30
0.0
  0
VERTEX
  5
15AE
  8
SAPA_PROFIL
 10
47.891676755432719
 20
50.793692212963357
 30
0.0
 42
-0.1095178116832386
  0
VERTEX
  5
15AF
  8
SAPA_PROFIL
 10
47.469058493692032
 20
50.700000000000031
 30
0.0
  0
VERTEX
  5
15B0
  8
SAPA_PROFIL
 10
43.299999999999933
 20
50.700000000000031
 30
0.0
 42
0.4142135623730951
  0
VERTEX
  5
15B1
  8
SAPA_PROFIL
 10
42.79999999999994
 20
50.200000000000031
 30
0.0
  0
VERTEX
  5
15B2
  8
SAPA_PROFIL
 10
42.79999999999994
 20
48.73793947945903
 30
0.0
 42
-0.2914734195861007
  0
VERTEX
  5
15B3
  8
SAPA_PROFIL
 10
42.511309130870231
 20
48.284785585940703
 30
0.0
  0
VERTEX
  5
15B4
  8
SAPA_PROFIL
 10
39.105961927820083
 20
46.696846106481679
 30
0.0
 42
-0.1095178116832193
  0
VERTEX
  5
15B5
  8
SAPA_PROFIL
 10
38.894652796949792
 20
46.650000000000013
 30
0.0
  0
VERTEX
  5
15B6
  8
SAPA_PROFIL
 10
29.199999999999921
 20
46.650000000000077
 30
0.0
 42
-0.4142135623731019
  0
VERTEX
  5
15B7
  8
SAPA_PROFIL
 10
28.699999999999921
 20
47.15000000000007
 30
0.0
  0
VERTEX
  5
15B8
  8
SAPA_PROFIL
 10
28.699999999999921
 20
51.200000000000031
 30
0.0
 42
0.4142135623730951
  0
VERTEX
  5
15B9
  8
SAPA_PROFIL
 10
28.199999999999921
 20
51.700000000000031
 30
0.0
  0
VERTEX
  5
15BA
  8
SAPA_PROFIL
 10
24.399999999999959
 20
51.700000000000031
 30
0.0
 42
-0.4142135623730951
  0
VERTEX
  5
15BB
  8
SAPA_PROFIL
 10
23.89999999999997
 20
52.200000000000031
 30
0.0
  0
VERTEX
  5
15BC
  8
SAPA_PROFIL
 10
23.89999999999997
 20
57.800000000000047
 30
0.0
 42
-0.4142135623730951
  0
VERTEX
  5
15BD
  8
SAPA_PROFIL
 10
24.399999999999959
 20
58.300000000000047
 30
0.0
  0
VERTEX
  5
15BE
  8
SAPA_PROFIL
 10
28.199999999999921
 20
58.300000000000047
 30
0.0
 42
0.4142135623730951
  0
VERTEX
  5
15BF
  8
SAPA_PROFIL
 10
28.699999999999921
 20
58.800000000000061
 30
0.0
  0
VERTEX
  5
15C0
  8
SAPA_PROFIL
 10
28.699999999999921
 20
79.300000000000054
 30
0.0
 42
0.4142135623730951
  0
VERTEX
  5
15C1
  8
SAPA_PROFIL
 10
28.199999999999921
 20
79.800000000000054
 30
0.0
  0
VERTEX
  5
15C2
  8
SAPA_PROFIL
 10
24.713545999999941
 20
79.800000000000168
 30
0.0
 42
-0.5773499999999932
  0
VERTEX
  5
15C3
  8
SAPA_PROFIL
 10
24.45373799999992
 20
80.249999999999986
 30
0.0
  0
VERTEX
  5
15C4
  8
SAPA_PROFIL
 10
28.350853000000019
 20
87.000000000000085
 30
0.0
 42
-0.267948999999997
  0
VERTEX
  5
15C5
  8
SAPA_PROFIL
 10
29.216878000000051
 20
87.500000000000099
 30
0.0
  0
VERTEX
  5
15C6
  8
SAPA_PROFIL
 10
46.499999999999979
 20
87.499999999999986
 30
0.0
 42
-0.4142140000000792
  0
VERTEX
  5
15C7
  8
SAPA_PROFIL
 10
46.999999999999979
 20
86.999999999999986
 30
0.0
  0
VERTEX
  5
15C8
  8
SAPA_PROFIL
 10
46.999999999999979
 20
77.305000000000049
 30
0.0
 42
-0.4142139999998795
  0
VERTEX
  5
15C9
  8
SAPA_PROFIL
 10
46.499999999999872
 20
76.804999999999822
 30
0.0
  0
VERTEX
  5
15CA
  8
SAPA_PROFIL
 10
45.799999999999933
 20
76.805000000000049
 30
0.0
 42
0.4142139999999463
  0
VERTEX
  5
15CB
  8
SAPA_PROFIL
 10
45.29999999999994
 20
76.305000000000035
 30
0.0
  0
VERTEX
  5
15CC
  8
SAPA_PROFIL
 10
45.29999999999994
 20
61.905000000000008
 30
0.0
 42
0.4142139999998796
  0
VERTEX
  5
15CD
  8
SAPA_PROFIL
 10
45.800000000000047
 20
61.404999999999781
 30
0.0
  0
VERTEX
  5
15CE
  8
SAPA_PROFIL
 10
45.999999999999979
 20
61.405000000000022
 30
0.0
 42
-0.4142139999999461
  0
VERTEX
  5
15CF
  8
SAPA_PROFIL
 10
46.499999999999758
 20
60.905000000000022
 30
0.0
  0
VERTEX
  5
15D0
  8
SAPA_PROFIL
 10
46.499999999999979
 20
58.500000000000043
 30
0.0
 42
0.4142135623730951
  0
VERTEX
  5
15D1
  8
SAPA_PROFIL
 10
46.999999999999979
 20
58.000000000000043
 30
0.0
  0
VERTEX
  5
15D2
  8
SAPA_PROFIL
 10
50.79999999999994
 20
58.000000000000043
 30
0.0
 42
-0.4142135623730951
  0
VERTEX
  5
15D3
  8
SAPA_PROFIL
 10
51.29999999999994
 20
57.500000000000043
 30
0.0
  0
SEQEND
  5
15D4
  8
SAPA_PROFIL
  0
POLYLINE
  5
C08
  8
SAPA_PROFIL
 66
     1
 10
0.0
 20
0.0
 30
0.0
 70
     1
  0
VERTEX
  5
15D5
  8
SAPA_PROFIL
 10
24.29999999999994
 20
49.999999999999993
 30
0.0
  0
VERTEX
  5
15D6
  8
SAPA_PROFIL
 10
26.699999999999921
 20
49.999999999999993
 30
0.0
 42
-0.4142135623730951
  0
VERTEX
  5
15D7
  8
SAPA_PROFIL
 10
26.999999999999869
 20
49.700000000000031
 30
0.0
  0
VERTEX
  5
15D8
  8
SAPA_PROFIL
 10
26.999999999999869
 20
41.650000656212953
 30
0.0
 42
0.1316523369912118
  0
VERTEX
  5
15D9
  8
SAPA_PROFIL
 10
27.040192284148571
 20
41.500000820266031
 30
0.0
  0
VERTEX
  5
15DA
  8
SAPA_PROFIL
 10
27.29999999999994
 20
41.049999999999883
 30
0.0
  0
VERTEX
  5
15DB
  8
SAPA_PROFIL
 10
27.040192409148389
 20
40.600000262265603
 30
0.0
 42
0.1316525489352833
  0
VERTEX
  5
15DC
  8
SAPA_PROFIL
 10
26.999999999999989
 20
40.450000209812671
 30
0.0
  0
VERTEX
  5
15DD
  8
SAPA_PROFIL
 10
26.999999999999989
 20
32.300000000000061
 30
0.0
 42
-0.4142140000001461
  0
VERTEX
  5
15DE
  8
SAPA_PROFIL
 10
26.699999999999921
 20
31.999999999999989
 30
0.0
  0
VERTEX
  5
15DF
  8
SAPA_PROFIL
 10
24.29999999999994
 20
32.00000000000005
 30
0.0
 42
-0.4142140000000906
  0
VERTEX
  5
15E0
  8
SAPA_PROFIL
 10
23.999999999999989
 20
32.300000000000061
 30
0.0
  0
VERTEX
  5
15E1
  8
SAPA_PROFIL
 10
23.999999999999989
 20
33.700000044676742
 30
0.0
 42
0.5877030000000079
  0
VERTEX
  5
15E2
  8
SAPA_PROFIL
 10
23.542039000000031
 20
33.955046044676678
 30
0.0
  0
VERTEX
  5
15E3
  8
SAPA_PROFIL
 10
22.094692999999989
 20
33.058647044676711
 30
0.0
 42
0.2596809999998896
  0
VERTEX
  5
15E4
  8
SAPA_PROFIL
 10
22.000000000000099
 20
32.888616044676709
 30
0.0
  0
VERTEX
  5
15E5
  8
SAPA_PROFIL
 10
21.999999999999989
 20
32.088083000000033
 30
0.0
 42
-0.4023939999998733
  0
VERTEX
  5
15E6
  8
SAPA_PROFIL
 10
21.71215299999993
 20
31.788329000000079
 30
0.0
  0
VERTEX
  5
15E7
  8
SAPA_PROFIL
 10
7.2390940000000077
 20
31.201530000000041
 30
0.0
 42
-0.4373280000000294
  0
VERTEX
  5
15E8
  8
SAPA_PROFIL
 10
6.7000000000000313
 20
31.700000000000092
 30
0.0
  0
VERTEX
  5
15E9
  8
SAPA_PROFIL
 10
6.6999999999999167
 20
32.531400000000012
 30
0.0
 42
-0.363970000000061
  0
VERTEX
  5
15EA
  8
SAPA_PROFIL
 10
7.1131749999999414
 20
33.023804000000077
 30
0.0
  0
VERTEX
  5
15EB
  8
SAPA_PROFIL
 10
8.2868240000000082
 20
33.23075000000005
 30
0.0
 42
0.8391000000000017
  0
VERTEX
  5
15EC
  8
SAPA_PROFIL
 10
8.2868240000000082
 20
34.215556999999983
 30
0.0
  0
VERTEX
  5
15ED
  8
SAPA_PROFIL
 10
6.716750999999916
 20
34.492404000000008
 30
0.0
 42
0.0436610000000063
  0
VERTEX
  5
15EE
  8
SAPA_PROFIL
 10
6.6299269999999382
 20
34.50000000000005
 30
0.0
  0
VERTEX
  5
15EF
  8
SAPA_PROFIL
 10
5.6324549999999221
 20
34.50000000000005
 30
0.0
 42
0.2896899999999917
  0
VERTEX
  5
15F0
  8
SAPA_PROFIL
 10
4.7289469999999341
 20
33.928571000000019
 30
0.0
 42
0.5507599999998717
  0
VERTEX
  5
15F1
  8
SAPA_PROFIL
 10
4.9999999999999849
 20
33.499999999999993
 30
0.0
  0
VERTEX
  5
15F2
  8
SAPA_PROFIL
 10
5.1999999999999167
 20
33.500000000000099
 30
0.0
 42
-0.4142140000000907
  0
VERTEX
  5
15F3
  8
SAPA_PROFIL
 10
5.4999999999999849
 20
33.200000000000088
 30
0.0
  0
VERTEX
  5
15F4
  8
SAPA_PROFIL
 10
5.4999999999999849
 20
31.700000000000092
 30
0.0
 42
-0.4142139999999794
  0
VERTEX
  5
15F5
  8
SAPA_PROFIL
 10
4.9999999999998721
 20
31.200000000000031
 30
0.0
  0
VERTEX
  5
15F6
  8
SAPA_PROFIL
 10
1.6999999999999169
 20
31.200000000000092
 30
0.0
 42
-0.4142140000000128
  0
VERTEX
  5
15F7
  8
SAPA_PROFIL
 10
1.200000000000031
 20
31.700000000000092
 30
0.0
  0
VERTEX
  5
15F8
  8
SAPA_PROFIL
 10
1.1999999999999169
 20
33.200000000000088
 30
0.0
 42
-0.414213999999813
  0
VERTEX
  5
15F9
  8
SAPA_PROFIL
 10
1.4999999999999849
 20
33.500000000000043
 30
0.0
  0
VERTEX
  5
15FA
  8
SAPA_PROFIL
 10
1.6999999999999169
 20
33.500000000000043
 30
0.0
 42
0.5507599999999765
  0
VERTEX
  5
15FB
  8
SAPA_PROFIL
 10
1.9710519999999709
 20
33.928571000000083
 30
0.0
 42
0.2896899999999603
  0
VERTEX
  5
15FC
  8
SAPA_PROFIL
 10
1.067543999999983
 20
34.500000000000099
 30
0.0
  0
VERTEX
  5
15FD
  8
SAPA_PROFIL
 10
0.2999999999999403
 20
34.50000000000005
 30
0.0
 42
0.414213999999813
  0
VERTEX
  5
15FE
  8
SAPA_PROFIL
 10
-0.0000000000001279
 20
34.200000000000088
 30
0.0
  0
VERTEX
  5
15FF
  8
SAPA_PROFIL
 10
-0.0000000000000142
 20
30.624264068711948
 30
0.0
 42
0.1989123673795536
  0
VERTEX
  5
1600
  8
SAPA_PROFIL
 10
0.0878679656440085
 20
30.41213203435596
 30
0.0
  0
VERTEX
  5
1601
  8
SAPA_PROFIL
 10
0.4121320343559632
 20
30.087867965644069
 30
0.0
 42
0.198912367379658
  0
VERTEX
  5
1602
  8
SAPA_PROFIL
 10
0.624264068711895
 20
30.000000000000039
 30
0.0
  0
VERTEX
  5
1603
  8
SAPA_PROFIL
 10
36.999999999999993
 20
30.000000000000039
 30
0.0
 42
0.4142139999999794
  0
VERTEX
  5
1604
  8
SAPA_PROFIL
 10
37.499999999999993
 20
30.500000000000039
 30
0.0
  0
VERTEX
  5
1605
  8
SAPA_PROFIL
 10
37.499999999999879
 20
31.500000000000039
 30
0.0
 42
0.3056149748443016
  0
VERTEX
  5
1606
  8
SAPA_PROFIL
 10
37.187500087547839
 20
31.963512491727371
 30
0.0
 42
-0.3056147706310184
  0
VERTEX
  5
1607
  8
SAPA_PROFIL
 10
36.999999999999993
 20
32.241619970408337
 30
0.0
  0
VERTEX
  5
1608
  8
SAPA_PROFIL
 10
36.999999999999993
 20
34.950000000000152
 30
0.0
 42
-0.4142135623730951
  0
VERTEX
  5
1609
  8
SAPA_PROFIL
 10
37.499999999999993
 20
35.450000000000152
 30
0.0
  0
VERTEX
  5
160A
  8
SAPA_PROFIL
 10
40.662829999999971
 20
35.450000000000088
 30
0.0
  0
VERTEX
  5
160B
  8
SAPA_PROFIL
 10
44.26850499999999
 20
36.295703000000053
 30
0.0
 42
0.3482370000000332
  0
VERTEX
  5
160C
  8
SAPA_PROFIL
 10
44.499999999999979
 20
36.58777700000006
 30
0.0
  0
VERTEX
  5
160D
  8
SAPA_PROFIL
 10
44.499999999999979
 20
36.750000000000043
 30
0.0
 42
0.4142140000000907
  0
VERTEX
  5
160E
  8
SAPA_PROFIL
 10
44.19999999999991
 20
37.050000000000047
 30
0.0
  0
VERTEX
  5
160F
  8
SAPA_PROFIL
 10
36.79999999999994
 20
37.049999999999997
 30
0.0
 42
-0.4142135623730951
  0
VERTEX
  5
1610
  8
SAPA_PROFIL
 10
36.29999999999994
 20
37.549999999999997
 30
0.0
  0
VERTEX
  5
1611
  8
SAPA_PROFIL
 10
36.29999999999994
 20
44.549999999999997
 30
0.0
 42
-0.4142140000000462
  0
VERTEX
  5
1612
  8
SAPA_PROFIL
 10
36.79999999999994
 20
45.04999999999999
 30
0.0
  0
VERTEX
  5
1613
  8
SAPA_PROFIL
 10
40.23223299999993
 20
45.050000000000047
 30
0.0
 42
-0.1989120000000332
  0
VERTEX
  5
1614
  8
SAPA_PROFIL
 10
40.58578599999997
 20
44.903553000000031
 30
0.0
  0
VERTEX
  5
1615
  8
SAPA_PROFIL
 10
43.219668999999939
 20
42.269670000000012
 30
0.0
 42
1.000556671979917
  0
VERTEX
  5
1616
  8
SAPA_PROFIL
 10
44.279739396231072
 20
43.330919947328532
 30
0.0
  0
VERTEX
  5
1617
  8
SAPA_PROFIL
 10
42.123044627595938
 20
45.487614715963659
 30
0.0
 42
-0.5205670505516917
  0
VERTEX
  5
1618
  8
SAPA_PROFIL
 10
42.265288887318867
 20
46.294322000075269
 30
0.0
  0
VERTEX
  5
1619
  8
SAPA_PROFIL
 10
52.711309130870269
 20
51.165381236885409
 30
0.0
 42
0.2914734195861185
  0
VERTEX
  5
161A
  8
SAPA_PROFIL
 10
52.999999999999979
 20
51.618535130403743
 30
0.0
  0
VERTEX
  5
161B
  8
SAPA_PROFIL
 10
52.999999999999979
 20
62.199999999999967
 30
0.0
 42
0.4142139999999796
  0
VERTEX
  5
161C
  8
SAPA_PROFIL
 10
52.699999999999918
 20
62.500000000000043
 30
0.0
  0
VERTEX
  5
161D
  8
SAPA_PROFIL
 10
51.800000000000047
 20
62.500000000000043
 30
0.0
 42
0.414213999999813
  0
VERTEX
  5
161E
  8
SAPA_PROFIL
 10
51.499999999999979
 20
62.199999999999967
 30
0.0
  0
VERTEX
  5
161F
  8
SAPA_PROFIL
 10
51.499999999999872
 20
60.200000000000031
 30
0.0
 42
-0.4142139999998961
  0
VERTEX
  5
1620
  8
SAPA_PROFIL
 10
51.29999999999994
 20
60.000000000000043
 30
0.0
  0
VERTEX
  5
1621
  8
SAPA_PROFIL
 10
48.499999999999979
 20
60.000000000000043
 30
0.0
 42
-0.5773502691898261
  0
VERTEX
  5
1622
  8
SAPA_PROFIL
 10
48.326794919243063
 20
60.299999999999997
 30
0.0
  0
VERTEX
  5
1623
  8
SAPA_PROFIL
 10
48.459807621135262
 20
60.530384757729379
 30
0.0
 42
0.1316524975874119
  0
VERTEX
  5
1624
  8
SAPA_PROFIL
 10
48.499999999999979
 20
60.680384757729357
 30
0.0
  0
VERTEX
  5
1625
  8
SAPA_PROFIL
 10
48.499999999999872
 20
62.604999999999997
 30
0.0
 42
0.4142139999999461
  0
VERTEX
  5
1626
  8
SAPA_PROFIL
 10
47.999999999999979
 20
63.105000000000011
 30
0.0
  0
VERTEX
  5
1627
  8
SAPA_PROFIL
 10
47.300000000000047
 20
63.10499999999989
 30
0.0
 42
-0.4142140000000906
  0
VERTEX
  5
1628
  8
SAPA_PROFIL
 10
46.999999999999979
 20
63.405000000000022
 30
0.0
  0
VERTEX
  5
1629
  8
SAPA_PROFIL
 10
46.999999999999872
 20
68.505000209812565
 30
0.0
 42
0.1316525489352833
  0
VERTEX
  5
162A
  8
SAPA_PROFIL
 10
46.959807590851469
 20
68.655000262265716
 30
0.0
  0
VERTEX
  5
162B
  8
SAPA_PROFIL
 10
46.69999999999991
 20
69.105000000000004
 30
0.0
  0
VERTEX
  5
162C
  8
SAPA_PROFIL
 10
46.959807715851277
 20
69.555000820266159
 30
0.0
 42
0.1316523369912119
  0
VERTEX
  5
162D
  8
SAPA_PROFIL
 10
46.999999999999979
 20
69.705000656213073
 30
0.0
  0
VERTEX
  5
162E
  8
SAPA_PROFIL
 10
46.999999999999979
 20
74.805000000000049
 30
0.0
 42
-0.414213999999813
  0
VERTEX
  5
162F
  8
SAPA_PROFIL
 10
47.29999999999994
 20
75.105000000000004
 30
0.0
  0
VERTEX
  5
1630
  8
SAPA_PROFIL
 10
47.999999999999872
 20
75.105000000000004
 30
0.0
 42
0.4142139999999461
  0
VERTEX
  5
1631
  8
SAPA_PROFIL
 10
48.499999999999979
 20
75.605000000000004
 30
0.0
  0
VERTEX
  5
1632
  8
SAPA_PROFIL
 10
48.499999999999872
 20
79.319615242270615
 30
0.0
 42
0.1316524975873767
  0
VERTEX
  5
1633
  8
SAPA_PROFIL
 10
48.459807621135262
 20
79.469615242270706
 30
0.0
  0
VERTEX
  5
1634
  8
SAPA_PROFIL
 10
48.326794919243063
 20
79.700000000000031
 30
0.0
 42
-0.5773502691894598
  0
VERTEX
  5
1635
  8
SAPA_PROFIL
 10
48.499999999999979
 20
79.999999999999986
 30
0.0
  0
VERTEX
  5
1636
  8
SAPA_PROFIL
 10
51.29999999999994
 20
79.999999999999872
 30
0.0
 42
-0.4142139999998128
  0
VERTEX
  5
1637
  8
SAPA_PROFIL
 10
51.499999999999979
 20
79.800000000000054
 30
0.0
  0
VERTEX
  5
1638
  8
SAPA_PROFIL
 10
51.499999999999979
 20
77.79999999999994
 30
0.0
 42
0.414213999999813
  0
VERTEX
  5
1639
  8
SAPA_PROFIL
 10
51.79999999999994
 20
77.499999999999986
 30
0.0
  0
VERTEX
  5
163A
  8
SAPA_PROFIL
 10
52.699999999999918
 20
77.499999999999986
 30
0.0
 42
0.4142139999998128
  0
VERTEX
  5
163B
  8
SAPA_PROFIL
 10
52.999999999999979
 20
77.800000000000054
 30
0.0
  0
VERTEX
  5
163C
  8
SAPA_PROFIL
 10
52.999999999999872
 20
81.499999999999986
 30
0.0
 42
0.4142139999999461
  0
VERTEX
  5
163D
  8
SAPA_PROFIL
 10
52.499999999999993
 20
81.999999999999986
 30
0.0
  0
VERTEX
  5
163E
  8
SAPA_PROFIL
 10
48.999999999999979
 20
81.999999999999986
 30
0.0
 42
-0.4142140000000794
  0
VERTEX
  5
163F
  8
SAPA_PROFIL
 10
48.499999999999979
 20
82.499999999999986
 30
0.0
  0
VERTEX
  5
1640
  8
SAPA_PROFIL
 10
48.499999999999979
 20
87.027191000000116
 30
0.0
 42
-0.397937999999963
  0
VERTEX
  5
1641
  8
SAPA_PROFIL
 10
48.9720709999999
 20
87.526410000000041
 30
0.0
  0
VERTEX
  5
1642
  8
SAPA_PROFIL
 10
62.79999999999994
 20
88.300000000000054
 30
0.0
 42
-0.4142140000000127
  0
VERTEX
  5
1643
  8
SAPA_PROFIL
 10
63.79999999999994
 20
87.300000000000054
 30
0.0
  0
VERTEX
  5
1644
  8
SAPA_PROFIL
 10
63.79999999999994
 20
86.000000000000099
 30
0.0
 42
0.424142000000003
  0
VERTEX
  5
1645
  8
SAPA_PROFIL
 10
64.833771999999939
 20
85.000571000000022
 30
0.0
 42
0.2988660000000183
  0
VERTEX
  5
1646
  8
SAPA_PROFIL
 10
65.771051999999926
 20
85.571429000000066
 30
0.0
 42
0.5507599999996211
  0
VERTEX
  5
1647
  8
SAPA_PROFIL
 10
65.499999999999986
 20
85.999999999999986
 30
0.0
  0
VERTEX
  5
1648
  8
SAPA_PROFIL
 10
65.199999999999918
 20
85.999999999999986
 30
0.0
 42
-0.414213999999813
  0
VERTEX
  5
1649
  8
SAPA_PROFIL
 10
64.999999999999986
 20
86.200000000000017
 30
0.0
  0
VERTEX
  5
164A
  8
SAPA_PROFIL
 10
64.999999999999872
 20
86.500000000000114
 30
0.0
 42
-0.4142139999999796
  0
VERTEX
  5
164B
  8
SAPA_PROFIL
 10
66.79999999999994
 20
88.300000000000054
 30
0.0
  0
VERTEX
  5
164C
  8
SAPA_PROFIL
 10
67.499999999999872
 20
88.29999999999994
 30
0.0
 42
-0.414213999999998
  0
VERTEX
  5
164D
  8
SAPA_PROFIL
 10
69.29999999999994
 20
86.499999999999986
 30
0.0
  0
VERTEX
  5
164E
  8
SAPA_PROFIL
 10
69.29999999999994
 20
86.200000000000017
 30
0.0
 42
-0.4142139999998128
  0
VERTEX
  5
164F
  8
SAPA_PROFIL
 10
69.100000000000009
 20
85.999999999999986
 30
0.0
  0
VERTEX
  5
1650
  8
SAPA_PROFIL
 10
68.79999999999994
 20
86.000000000000099
 30
0.0
 42
0.5507599999999805
  0
VERTEX
  5
1651
  8
SAPA_PROFIL
 10
68.528947000000002
 20
85.57142900000018
 30
0.0
 42
0.2988660000000331
  0
VERTEX
  5
1652
  8
SAPA_PROFIL
 10
69.466226999999876
 20
85.000571000000022
 30
0.0
 42
0.4241420000000235
  0
VERTEX
  5
1653
  8
SAPA_PROFIL
 10
70.499999999999986
 20
85.999999999999986
 30
0.0
  0
VERTEX
  5
1654
  8
SAPA_PROFIL
 10
70.499999999999986
 20
86.499999999999986
 30
0.0
 42
0.4142140000000127
  0
VERTEX
  5
1655
  8
SAPA_PROFIL
 10
67.499999999999986
 20
89.499999999999986
 30
0.0
  0
VERTEX
  5
1656
  8
SAPA_PROFIL
 10
29.216877999999831
 20
89.499999999999986
 30
0.0
 42
0.2679489999999819
  0
VERTEX
  5
1657
  8
SAPA_PROFIL
 10
26.618801999999949
 20
87.999999999999986
 30
0.0
  0
VERTEX
  5
1658
  8
SAPA_PROFIL
 10
22.133973999999949
 20
80.232051000000055
 30
0.0
 42
0.1316520000000068
  0
VERTEX
  5
1659
  8
SAPA_PROFIL
 10
21.999999999999989
 20
79.732051000000055
 30
0.0
  0
VERTEX
  5
165A
  8
SAPA_PROFIL
 10
21.999999999999989
 20
77.111384000000015
 30
0.0
 42
0.2596809999999468
  0
VERTEX
  5
165B
  8
SAPA_PROFIL
 10
22.094692999999989
 20
76.941353000000035
 30
0.0
  0
VERTEX
  5
165C
  8
SAPA_PROFIL
 10
23.542038999999921
 20
76.044954000000061
 30
0.0
 42
0.5877030000000416
  0
VERTEX
  5
165D
  8
SAPA_PROFIL
 10
23.999999999999989
 20
76.29999999999994
 30
0.0
  0
VERTEX
  5
165E
  8
SAPA_PROFIL
 10
23.999999999999989
 20
77.700000000000031
 30
0.0
 42
-0.414213999999924
  0
VERTEX
  5
165F
  8
SAPA_PROFIL
 10
24.30000000000005
 20
77.999999999999986
 30
0.0
  0
VERTEX
  5
1660
  8
SAPA_PROFIL
 10
26.699999999999921
 20
77.999999999999986
 30
0.0
 42
-0.4142139999998128
  0
VERTEX
  5
1661
  8
SAPA_PROFIL
 10
26.999999999999989
 20
77.699999999999918
 30
0.0
  0
VERTEX
  5
1662
  8
SAPA_PROFIL
 10
26.999999999999989
 20
68.100000000000009
 30
0.0
  0
VERTEX
  5
1663
  8
SAPA_PROFIL
 10
26.999999999999989
 20
66.100000000000009
 30
0.0
  0
VERTEX
  5
1664
  8
SAPA_PROFIL
 10
26.999999999999989
 20
60.300000000000047
 30
0.0
 42
-0.4142135623731505
  0
VERTEX
  5
1665
  8
SAPA_PROFIL
 10
26.699999999999921
 20
60.000000000000149
 30
0.0
  0
VERTEX
  5
1666
  8
SAPA_PROFIL
 10
24.29999999999994
 20
60.000000000000043
 30
0.0
 42
-0.4142135623730951
  0
VERTEX
  5
1667
  8
SAPA_PROFIL
 10
23.999999999999869
 20
60.300000000000047
 30
0.0
  0
VERTEX
  5
1668
  8
SAPA_PROFIL
 10
23.999999999999989
 20
61.699999999999982
 30
0.0
 42
0.5877030000001193
  0
VERTEX
  5
1669
  8
SAPA_PROFIL
 10
23.542038999999921
 20
61.955047000000022
 30
0.0
  0
VERTEX
  5
166A
  8
SAPA_PROFIL
 10
22.294692999999921
 20
61.162516000000018
 30
0.0
 42
0.2596809999999468
  0
VERTEX
  5
166B
  8
SAPA_PROFIL
 10
22.199999999999921
 20
60.99248500000003
 30
0.0
  0
VERTEX
  5
166C
  8
SAPA_PROFIL
 10
22.200000278459111
 20
49.007515733782427
 30
0.0
 42
0.2596809999999508
  0
VERTEX
  5
166D
  8
SAPA_PROFIL
 10
22.294693278459121
 20
48.83748573378243
 30
0.0
  0
VERTEX
  5
166E
  8
SAPA_PROFIL
 10
23.542039278459121
 20
48.044953733782442
 30
0.0
 42
0.5877030000000664
  0
VERTEX
  5
166F
  8
SAPA_PROFIL
 10
24.00000027845941
 20
48.300000733782433
 30
0.0
  0
VERTEX
  5
1670
  8
SAPA_PROFIL
 10
23.999999999999989
 20
49.700000000000031
 30
0.0
 42
-0.4142135623730951
  0
SEQEND
  5
1671
  8
SAPA_PROFIL
  0
POLYLINE
  5
C0F
  8
SAPA_GLAS
 66
     1
 10
0.0
 20
0.0
 30
0.0
  0
VERTEX
  5
167C
  8
SAPA_GLAS
 10
-11.80000000000002
 20
38.40000000000019
 30
0.0
  0
VERTEX
  5
167D
  8
SAPA_GLAS
 10
17.000000000000039
 20
38.40000000000019
 30
0.0
  0
VERTEX
  5
167E
  8
SAPA_GLAS
 10
17.000000000000039
 20
44.40000000000019
 30
0.0
  0
VERTEX
  5
167F
  8
SAPA_GLAS
 10
-11.80000000000002
 20
44.400000000000418
 30
0.0
  0
SEQEND
  5
1680
  8
SAPA_GLAS
  0
POLYLINE
  5
C10
  8
SAPA_GLAS
 66
     1
 10
0.0
 20
0.0
 30
0.0
  0
VERTEX
  5
1681
  8
SAPA_GLAS
 10
170.79999999999961
 20
38.399999999999771
 30
0.0
  0
VERTEX
  5
1682
  8
SAPA_GLAS
 10
141.99999999999949
 20
38.399999999999771
 30
0.0
  0
VERTEX
  5
1683
  8
SAPA_GLAS
 10
141.99999999999949
 20
44.399999999999757
 30
0.0
  0
VERTEX
  5
1684
  8
SAPA_GLAS
 10
170.79999999999961
 20
44.399999999999991
 30
0.0
  0
SEQEND
  5
1685
  8
SAPA_GLAS
  0
CIRCLE
  5
C29
  8
SAPA_FOGBAND
 10
67.165643793367153
 20
84.350080466153017
 30
0.0000000195376815
 40
0.25
  0
POLYLINE
  5
C2A
  8
SAPA_FOGBAND
 66
     1
 10
0.0
 20
0.0
 30
0.0000000195376815
 70
     1
  0
VERTEX
  5
17CE
  8
SAPA_FOGBAND
 10
69.872065921993553
 20
84.983987747273872
 30
0.0000000195376815
  0
VERTEX
  5
17CF
  8
SAPA_FOGBAND
 10
68.715643793367335
 20
84.882813920768484
 30
0.0000000195376815
  0
VERTEX
  5
17D0
  8
SAPA_FOGBAND
 10
68.715643793367335
 20
85.950080466152926
 30
0.0000000195376815
  0
VERTEX
  5
17D1
  8
SAPA_FOGBAND
 10
69.117407602387274
 20
86.057732754328057
 30
0.0000000195376815
 42
0.4995370695832079
  0
VERTEX
  5
17D2
  8
SAPA_FOGBAND
 10
69.236761271141503
 20
86.354449599762333
 30
0.0000000195376815
  0
VERTEX
  5
17D3
  8
SAPA_FOGBAND
 10
68.530725295907004
 20
87.407107494351294
 30
0.0000000195376815
 42
0.250021237196914
  0
VERTEX
  5
17D4
  8
SAPA_FOGBAND
 10
67.700230931172072
 20
87.850080466153017
 30
0.0000000195376815
  0
VERTEX
  5
17D5
  8
SAPA_FOGBAND
 10
66.631056655562233
 20
87.850080466153017
 30
0.0000000195376815
 42
0.250021237196914
  0
VERTEX
  5
17D6
  8
SAPA_FOGBAND
 10
65.800562290826846
 20
87.407107494351294
 30
0.0000000195376815
  0
VERTEX
  5
17D7
  8
SAPA_FOGBAND
 10
65.094526315592802
 20
86.354449599762333
 30
0.0000000195376815
 42
0.4995370695831766
  0
VERTEX
  5
17D8
  8
SAPA_FOGBAND
 10
65.213879984346576
 20
86.057732754328057
 30
0.0000000195376815
  0
VERTEX
  5
17D9
  8
SAPA_FOGBAND
 10
65.615643793366971
 20
85.950080466152926
 30
0.0000000195376815
  0
VERTEX
  5
17DA
  8
SAPA_FOGBAND
 10
65.615643793366971
 20
84.882813920768484
 30
0.0000000195376815
  0
VERTEX
  5
17DB
  8
SAPA_FOGBAND
 10
64.933074941916956
 20
84.94253095734642
 30
0.0000000195376815
 42
0.4400105308918379
  0
VERTEX
  5
17DC
  8
SAPA_FOGBAND
 10
64.715643793367335
 20
84.743292017727967
 30
0.0000000195376815
  0
VERTEX
  5
17DD
  8
SAPA_FOGBAND
 10
64.715643793367335
 20
84.708296552317734
 30
0.0000000195376815
 42
0.3888787318529988
  0
VERTEX
  5
17DE
  8
SAPA_FOGBAND
 10
65.263350347718287
 20
84.110579733462586
 30
0.0000000195376815
  0
VERTEX
  5
17DF
  8
SAPA_FOGBAND
 10
66.097657862844343
 20
84.037587283994725
 30
0.0000000195376815
 42
-0.2668174844056302
  0
VERTEX
  5
17E0
  8
SAPA_FOGBAND
 10
66.261129560806793
 20
83.923637031339226
 30
0.0000000195376815
 42
0.6341045221175712
  0
VERTEX
  5
17E1
  8
SAPA_FOGBAND
 10
68.070158025927512
 20
83.923637031339226
 30
0.0000000195376815
 42
-0.2668174844056113
  0
VERTEX
  5
17E2
  8
SAPA_FOGBAND
 10
68.233629723889962
 20
84.037587283994725
 30
0.0000000195376815
  0
VERTEX
  5
17E3
  8
SAPA_FOGBAND
 10
69.063350347718469
 20
84.110178432473276
 30
0.0000000195376815
 42
-0.3932191662530252
  0
VERTEX
  5
17E4
  8
SAPA_FOGBAND
 10
69.815643793366789
 20
83.466611324843115
 30
0.0000000195376815
 42
-0.5936677432385475
  0
VERTEX
  5
17E5
  8
SAPA_FOGBAND
 10
66.382841304109306
 20
80.696411535050146
 30
0.0000000195376815
 42
1.0000000000000131
  0
VERTEX
  5
17E6
  8
SAPA_FOGBAND
 10
65.89879841276489
 20
80.341866080504815
 30
0.0000000195376815
 42
0.6273677588277283
  0
VERTEX
  5
17E7
  8
SAPA_FOGBAND
 10
70.415643793367153
 20
83.466611324843115
 30
0.0000000195376815
  0
VERTEX
  5
17E8
  8
SAPA_FOGBAND
 10
70.415643793367153
 20
84.485890398228079
 30
0.0000000195376815
 42
0.4400105308918419
  0
SEQEND
  5
17E9
  8
SAPA_FOGBAND
  0
POLYLINE
  5
C2B
  8
SAPA_FOGBAND
 66
     1
 10
0.0
 20
0.0
 30
0.0000000195376815
 70
     1
  0
VERTEX
  5
17EA
  8
SAPA_FOGBAND
 10
66.365643793366971
 20
85.198608603576744
 30
0.0000000195376815
 42
0.6341370759941026
  0
VERTEX
  5
17EB
  8
SAPA_FOGBAND
 10
66.529280157003186
 20
85.121469681992934
 30
0.0000000195376815
 42
-0.3592455179659193
  0
VERTEX
  5
17EC
  8
SAPA_FOGBAND
 10
67.802007429730665
 20
85.121469681992934
 30
0.0000000195376815
 42
0.6341370759941019
  0
VERTEX
  5
17ED
  8
SAPA_FOGBAND
 10
67.965643793367335
 20
85.198608603576744
 30
0.0000000195376815
  0
VERTEX
  5
17EE
  8
SAPA_FOGBAND
 10
67.965643793367335
 20
86.550080466152835
 30
0.0000000195376815
 42
0.4142135623730951
  0
VERTEX
  5
17EF
  8
SAPA_FOGBAND
 10
67.465643793367335
 20
87.050080466152835
 30
0.0000000195376815
  0
VERTEX
  5
17F0
  8
SAPA_FOGBAND
 10
66.865643793366971
 20
87.050080466152835
 30
0.0000000195376815
 42
0.4142135623730951
  0
VERTEX
  5
17F1
  8
SAPA_FOGBAND
 10
66.365643793366971
 20
86.550080466152835
 30
0.0000000195376815
  0
SEQEND
  5
17F2
  8
SAPA_FOGBAND
  0
CIRCLE
  5
C2C
  8
SAPA_FOGBAND
 10
62.183887396446018
 20
48.501663373581991
 30
0.0
 40
0.3
  0
POLYLINE
  5
C2D
  8
SAPA_FOGBAND
 66
     1
 10
0.0
 20
0.0
 30
0.0
 70
     1
  0
VERTEX
  5
17F3
  8
SAPA_FOGBAND
 10
65.99253511384164
 20
45.320520937567593
 30
0.0
  0
VERTEX
  5
17F4
  8
SAPA_FOGBAND
 10
64.079082845119814
 20
45.320520937567593
 30
0.0
 42
-0.4142135623730951
  0
VERTEX
  5
17F5
  8
SAPA_FOGBAND
 10
63.579082845119821
 20
45.820520937567593
 30
0.0
  0
VERTEX
  5
17F6
  8
SAPA_FOGBAND
 10
63.579082845119821
 20
46.620520937567321
 30
0.0
 42
-0.4142135623730951
  0
VERTEX
  5
17F7
  8
SAPA_FOGBAND
 10
64.079082845119814
 20
47.120520937567321
 30
0.0
  0
VERTEX
  5
17F8
  8
SAPA_FOGBAND
 10
66.15518665718615
 20
47.120520937567321
 30
0.0
 42
-0.2216946626429447
  0
VERTEX
  5
17F9
  8
SAPA_FOGBAND
 10
66.614813323057987
 20
46.906193503379413
 30
0.0
  0
VERTEX
  5
17FA
  8
SAPA_FOGBAND
 10
66.97495037035047
 20
46.476998883442533
 30
0.0
 42
-0.4400105308918337
  0
VERTEX
  5
17FB
  8
SAPA_FOGBAND
 10
66.88778568740905
 20
45.814917384508803
 30
0.0
  0
VERTEX
  5
17FC
  8
SAPA_FOGBAND
 10
66.33668097565247
 20
45.429029710993959
 30
0.0
 42
-0.153914721059829
  0
SEQEND
  5
17FD
  8
SAPA_FOGBAND
  0
POLYLINE
  5
C2E
  8
SAPA_FOGBAND
 66
     1
 10
0.0
 20
0.0
 30
0.0
 70
     1
  0
VERTEX
  5
17FE
  8
SAPA_FOGBAND
 10
52.49455355844735
 20
49.134575675469812
 30
0.0
 42
0.1579553886371987
  0
VERTEX
  5
17FF
  8
SAPA_FOGBAND
 10
49.23072551433129
 20
48.987516169005502
 30
0.0
 42
1.0
  0
VERTEX
  5
1800
  8
SAPA_FOGBAND
 10
50.493348503270553
 20
45.616198446244397
 30
0.0
 42
0.1276248526686838
  0
VERTEX
  5
1801
  8
SAPA_FOGBAND
 10
52.261001011748121
 20
46.857510867929918
 30
0.0
  0
VERTEX
  5
1802
  8
SAPA_FOGBAND
 10
53.17034753531685
 20
47.92689954050239
 30
0.0
 42
0.5691506674918112
  0
VERTEX
  5
1803
  8
SAPA_FOGBAND
 10
52.780111779598748
 20
49.06559073513948
 30
0.0
 42
-0.0156300267407041
  0
SEQEND
  5
1804
  8
SAPA_FOGBAND
  0
POLYLINE
  5
C2F
  8
SAPA_FOGBAND
 66
     1
 10
0.0
 20
0.0
 30
0.0
 70
     1
  0
VERTEX
  5
1805
  8
SAPA_FOGBAND
 10
63.797404999000591
 20
41.925087299857267
 30
0.0
 42
-0.3888787318529789
  0
VERTEX
  5
1806
  8
SAPA_FOGBAND
 10
62.511048804088993
 20
42.912143124367262
 30
0.0
  0
VERTEX
  5
1807
  8
SAPA_FOGBAND
 10
62.384533869298473
 20
43.629644973953617
 30
0.0
 42
-1.0
  0
VERTEX
  5
1808
  8
SAPA_FOGBAND
 10
62.280344962697981
 20
44.220529625760932
 30
0.0
  0
VERTEX
  5
1809
  8
SAPA_FOGBAND
 10
62.172941492448317
 20
44.829644973953897
 30
0.0
 42
-0.9999999999999067
  0
VERTEX
  5
180A
  8
SAPA_FOGBAND
 10
62.068752585848287
 20
45.420529625761212
 30
0.0
  0
VERTEX
  5
180B
  8
SAPA_FOGBAND
 10
62.00796797918688
 20
45.765256260430057
 30
0.0
 42
0.3345953195020691
  0
VERTEX
  5
180C
  8
SAPA_FOGBAND
 10
59.807269754825811
 20
47.81744055468355
 30
0.0
  0
VERTEX
  5
180D
  8
SAPA_FOGBAND
 10
55.7934623498139
 20
48.170548327600713
 30
0.0
 42
0.2564696513213821
  0
VERTEX
  5
180E
  8
SAPA_FOGBAND
 10
53.338968151106982
 20
47.044616161658709
 30
0.0
  0
VERTEX
  5
180F
  8
SAPA_FOGBAND
 10
52.794268422476179
 20
46.404050981440143
 30
0.0
 42
-0.1276248526686853
  0
VERTEX
  5
1810
  8
SAPA_FOGBAND
 10
50.738858528897133
 20
44.960664444596418
 30
0.0
 42
-1.0
  0
VERTEX
  5
1811
  8
SAPA_FOGBAND
 10
48.98521548870427
 20
49.643050170653382
 30
0.0
 42
-0.1579553886371977
  0
VERTEX
  5
1812
  8
SAPA_FOGBAND
 10
52.68011516128886
 20
49.809532630801847
 30
0.0
 42
0.0604483959424258
  0
VERTEX
  5
1813
  8
SAPA_FOGBAND
 10
56.07022722227417
 20
49.708440096348781
 30
0.0
  0
VERTEX
  5
1814
  8
SAPA_FOGBAND
 10
61.227793978641657
 20
49.920520937567503
 30
0.0
 42
0.3286126757704555
  0
VERTEX
  5
1815
  8
SAPA_FOGBAND
 10
62.660438085111181
 20
50.976076493123152
 30
0.0
 42
-0.2704382184496639
  0
VERTEX
  5
1816
  8
SAPA_FOGBAND
 10
63.77894661024753
 20
51.889752768263158
 30
0.0
  0
VERTEX
  5
1817
  8
SAPA_FOGBAND
 10
63.579082845119821
 20
48.020520937567412
 30
0.0
  0
VERTEX
  5
1818
  8
SAPA_FOGBAND
 10
64.779082845119646
 20
48.020520937567412
 30
0.0
  0
VERTEX
  5
1819
  8
SAPA_FOGBAND
 10
65.840147250669233
 20
47.966049174528031
 30
0.0
  0
VERTEX
  5
181A
  8
SAPA_FOGBAND
 10
65.839178240811506
 20
48.51589508333312
 30
0.0
 42
-0.6068148963145658
  0
VERTEX
  5
181B
  8
SAPA_FOGBAND
 10
66.358769321633972
 20
48.631085652708173
 30
0.0
  0
VERTEX
  5
181C
  8
SAPA_FOGBAND
 10
67.735095007524123
 20
46.815672842687697
 30
0.0
 42
-0.4400105308918406
  0
VERTEX
  5
181D
  8
SAPA_FOGBAND
 10
67.534373753437521
 20
45.291043551449299
 30
0.0
  0
VERTEX
  5
181E
  8
SAPA_FOGBAND
 10
65.517410829214768
 20
43.767842170033632
 30
0.0
 42
-0.5205670505516999
  0
VERTEX
  5
181F
  8
SAPA_FOGBAND
 10
65.055560150422806
 20
43.935942069789668
 30
0.0
  0
VERTEX
  5
1820
  8
SAPA_FOGBAND
 10
65.028964519387827
 20
44.680781181222279
 30
0.0
  0
VERTEX
  5
1821
  8
SAPA_FOGBAND
 10
63.739051710539442
 20
44.481270237768271
 30
0.0
  0
SEQEND
  5
1822
  8
SAPA_FOGBAND
  0
CIRCLE
  5
C30
  8
SAPA_FOGBAND
 10
91.834356206632393
 20
84.350080466152917
 30
0.0000000195376815
 40
0.25
  0
POLYLINE
  5
C31
  8
SAPA_FOGBAND
 66
     1
 10
0.0
 20
0.0
 30
0.0000000195376815
 70
     1
  0
VERTEX
  5
1823
  8
SAPA_FOGBAND
 10
89.127934078005993
 20
84.983987747273801
 30
0.0000000195376815
  0
VERTEX
  5
1824
  8
SAPA_FOGBAND
 10
90.284356206632225
 20
84.882813920768399
 30
0.0000000195376815
  0
VERTEX
  5
1825
  8
SAPA_FOGBAND
 10
90.284356206632225
 20
85.950080466152841
 30
0.0000000195376815
  0
VERTEX
  5
1826
  8
SAPA_FOGBAND
 10
89.882592397612285
 20
86.057732754327972
 30
0.0000000195376815
 42
-0.4995370695832079
  0
VERTEX
  5
1827
  8
SAPA_FOGBAND
 10
89.763238728858056
 20
86.354449599762233
 30
0.0000000195376815
  0
VERTEX
  5
1828
  8
SAPA_FOGBAND
 10
90.469274704092555
 20
87.407107494351195
 30
0.0000000195376815
 42
-0.250021237196914
  0
VERTEX
  5
1829
  8
SAPA_FOGBAND
 10
91.299769068827487
 20
87.850080466152917
 30
0.0000000195376815
  0
VERTEX
  5
182A
  8
SAPA_FOGBAND
 10
92.368943344437326
 20
87.850080466152917
 30
0.0000000195376815
 42
-0.250021237196914
  0
VERTEX
  5
182B
  8
SAPA_FOGBAND
 10
93.199437709172713
 20
87.40710749435118
 30
0.0000000195376815
  0
VERTEX
  5
182C
  8
SAPA_FOGBAND
 10
93.905473684406758
 20
86.354449599762219
 30
0.0000000195376815
 42
-0.4995370695831766
  0
VERTEX
  5
182D
  8
SAPA_FOGBAND
 10
93.786120015652983
 20
86.057732754327944
 30
0.0000000195376815
  0
VERTEX
  5
182E
  8
SAPA_FOGBAND
 10
93.384356206632589
 20
85.950080466152826
 30
0.0000000195376815
  0
VERTEX
  5
182F
  8
SAPA_FOGBAND
 10
93.384356206632575
 20
84.882813920768385
 30
0.0000000195376815
  0
VERTEX
  5
1830
  8
SAPA_FOGBAND
 10
94.066925058082575
 20
84.942530957346307
 30
0.0000000195376815
 42
-0.4400105308918379
  0
VERTEX
  5
1831
  8
SAPA_FOGBAND
 10
94.284356206632197
 20
84.743292017727853
 30
0.0000000195376815
  0
VERTEX
  5
1832
  8
SAPA_FOGBAND
 10
94.284356206632197
 20
84.708296552317606
 30
0.0000000195376815
 42
-0.3888787318529988
  0
VERTEX
  5
1833
  8
SAPA_FOGBAND
 10
93.736649652281244
 20
84.110579733462473
 30
0.0000000195376815
  0
VERTEX
  5
1834
  8
SAPA_FOGBAND
 10
92.902342137155188
 20
84.037587283994654
 30
0.0000000195376815
 42
0.2668174844056302
  0
VERTEX
  5
1835
  8
SAPA_FOGBAND
 10
92.738870439192723
 20
83.923637031339126
 30
0.0000000195376815
 42
-0.6341045221175712
  0
VERTEX
  5
1836
  8
SAPA_FOGBAND
 10
90.929841974072019
 20
83.923637031339155
 30
0.0000000195376815
 42
0.2668174844056113
  0
VERTEX
  5
1837
  8
SAPA_FOGBAND
 10
90.766370276109555
 20
84.037587283994654
 30
0.0000000195376815
  0
VERTEX
  5
1838
  8
SAPA_FOGBAND
 10
89.936649652281062
 20
84.110178432473177
 30
0.0000000195376815
 42
0.3932191662530252
  0
VERTEX
  5
1839
  8
SAPA_FOGBAND
 10
89.184356206632742
 20
83.466611324843043
 30
0.0000000195376815
 42
0.5936677432385475
  0
VERTEX
  5
183A
  8
SAPA_FOGBAND
 10
92.617158695890211
 20
80.696411535050061
 30
0.0000000195376815
 42
-1.0000000000000131
  0
VERTEX
  5
183B
  8
SAPA_FOGBAND
 10
93.101201587234627
 20
80.341866080504701
 30
0.0000000195376815
 42
-0.6273677588277283
  0
VERTEX
  5
183C
  8
SAPA_FOGBAND
 10
88.584356206632378
 20
83.466611324843043
 30
0.0000000195376815
  0
VERTEX
  5
183D
  8
SAPA_FOGBAND
 10
88.584356206632393
 20
84.485890398228008
 30
0.0000000195376815
 42
-0.4400105308918419
  0
SEQEND
  5
183E
  8
SAPA_FOGBAND
  0
POLYLINE
  5
C32
  8
SAPA_FOGBAND
 66
     1
 10
0.0
 20
0.0
 30
0.0000000195376815
 70
     1
  0
VERTEX
  5
183F
  8
SAPA_FOGBAND
 10
92.634356206632575
 20
85.198608603576645
 30
0.0000000195376815
 42
-0.6341370759941026
  0
VERTEX
  5
1840
  8
SAPA_FOGBAND
 10
92.470719842996346
 20
85.121469681992835
 30
0.0000000195376815
 42
0.3592455179659193
  0
VERTEX
  5
1841
  8
SAPA_FOGBAND
 10
91.197992570268894
 20
85.121469681992835
 30
0.0000000195376815
 42
-0.6341370759941019
  0
VERTEX
  5
1842
  8
SAPA_FOGBAND
 10
91.034356206632211
 20
85.198608603576645
 30
0.0000000195376815
  0
VERTEX
  5
1843
  8
SAPA_FOGBAND
 10
91.034356206632225
 20
86.55008046615275
 30
0.0000000195376815
 42
-0.4142135623730951
  0
VERTEX
  5
1844
  8
SAPA_FOGBAND
 10
91.534356206632225
 20
87.050080466152735
 30
0.0000000195376815
  0
VERTEX
  5
1845
  8
SAPA_FOGBAND
 10
92.134356206632589
 20
87.050080466152735
 30
0.0000000195376815
 42
-0.4142135623730951
  0
VERTEX
  5
1846
  8
SAPA_FOGBAND
 10
92.634356206632575
 20
86.550080466152735
 30
0.0000000195376815
  0
SEQEND
  5
1847
  8
SAPA_FOGBAND
  0
CIRCLE
  5
C33
  8
SAPA_FOGBAND
 10
96.81611260355325
 20
48.501663373581849
 30
0.0
 40
0.3
  0
POLYLINE
  5
C34
  8
SAPA_FOGBAND
 66
     1
 10
0.0
 20
0.0
 30
0.0
 70
     1
  0
VERTEX
  5
1848
  8
SAPA_FOGBAND
 10
93.007464886157607
 20
45.320520937567487
 30
0.0
  0
VERTEX
  5
1849
  8
SAPA_FOGBAND
 10
94.920917154879419
 20
45.320520937567473
 30
0.0
 42
0.4142135623730951
  0
VERTEX
  5
184A
  8
SAPA_FOGBAND
 10
95.420917154879433
 20
45.820520937567473
 30
0.0
  0
VERTEX
  5
184B
  8
SAPA_FOGBAND
 10
95.420917154879433
 20
46.620520937567193
 30
0.0
 42
0.4142135623730951
  0
VERTEX
  5
184C
  8
SAPA_FOGBAND
 10
94.920917154879419
 20
47.1205209375672
 30
0.0
  0
VERTEX
  5
184D
  8
SAPA_FOGBAND
 10
92.844813342813111
 20
47.120520937567207
 30
0.0
 42
0.2216946626429447
  0
VERTEX
  5
184E
  8
SAPA_FOGBAND
 10
92.385186676941274
 20
46.906193503379313
 30
0.0
  0
VERTEX
  5
184F
  8
SAPA_FOGBAND
 10
92.025049629648777
 20
46.476998883442427
 30
0.0
 42
0.4400105308918337
  0
VERTEX
  5
1850
  8
SAPA_FOGBAND
 10
92.112214312590211
 20
45.814917384508703
 30
0.0
  0
VERTEX
  5
1851
  8
SAPA_FOGBAND
 10
92.663319024346777
 20
45.429029710993859
 30
0.0
 42
0.153914721059829
  0
SEQEND
  5
1852
  8
SAPA_FOGBAND
  0
POLYLINE
  5
C35
  8
SAPA_FOGBAND
 66
     1
 10
0.0
 20
0.0
 30
0.0
 70
     1
  0
VERTEX
  5
1853
  8
SAPA_FOGBAND
 10
106.5054464415519
 20
49.134575675469591
 30
0.0
 42
-0.1579553886371987
  0
VERTEX
  5
1854
  8
SAPA_FOGBAND
 10
109.76927448566791
 20
48.987516169005268
 30
0.0
 42
-1.0
  0
VERTEX
  5
1855
  8
SAPA_FOGBAND
 10
108.50665149672869
 20
45.616198446244191
 30
0.0
 42
-0.1276248526686838
  0
VERTEX
  5
1856
  8
SAPA_FOGBAND
 10
106.7389989882511
 20
46.857510867929712
 30
0.0
  0
VERTEX
  5
1857
  8
SAPA_FOGBAND
 10
105.8296524646824
 20
47.926899540502191
 30
0.0
 42
-0.5691506674918112
  0
VERTEX
  5
1858
  8
SAPA_FOGBAND
 10
106.21988822040051
 20
49.065590735139281
 30
0.0
 42
0.0156300267407041
  0
SEQEND
  5
1859
  8
SAPA_FOGBAND
  0
POLYLINE
  5
C36
  8
SAPA_FOGBAND
 66
     1
 10
0.0
 20
0.0
 30
0.0
 70
     1
  0
VERTEX
  5
185A
  8
SAPA_FOGBAND
 10
95.202595000998642
 20
41.925087299857161
 30
0.0
 42
0.3888787318529789
  0
VERTEX
  5
185B
  8
SAPA_FOGBAND
 10
96.488951195910246
 20
42.912143124367127
 30
0.0
  0
VERTEX
  5
185C
  8
SAPA_FOGBAND
 10
96.615466130700796
 20
43.629644973953489
 30
0.0
 42
1.0
  0
VERTEX
  5
185D
  8
SAPA_FOGBAND
 10
96.719655037301266
 20
44.220529625760797
 30
0.0
  0
VERTEX
  5
185E
  8
SAPA_FOGBAND
 10
96.82705850755093
 20
44.829644973953769
 30
0.0
 42
0.9999999999999067
  0
VERTEX
  5
185F
  8
SAPA_FOGBAND
 10
96.931247414150974
 20
45.420529625761063
 30
0.0
  0
VERTEX
  5
1860
  8
SAPA_FOGBAND
 10
96.992032020812374
 20
45.765256260429922
 30
0.0
 42
-0.3345953195020691
  0
VERTEX
  5
1861
  8
SAPA_FOGBAND
 10
99.192730245173465
 20
47.817440554683401
 30
0.0
  0
VERTEX
  5
1862
  8
SAPA_FOGBAND
 10
103.2065376501853
 20
48.170548327600528
 30
0.0
 42
-0.2564696513213821
  0
VERTEX
  5
1863
  8
SAPA_FOGBAND
 10
105.66103184889231
 20
47.04461616165851
 30
0.0
  0
VERTEX
  5
1864
  8
SAPA_FOGBAND
 10
106.2057315775231
 20
46.40405098143993
 30
0.0
 42
0.1276248526686853
  0
VERTEX
  5
1865
  8
SAPA_FOGBAND
 10
108.26114147110211
 20
44.960664444596198
 30
0.0
 42
1.0
  0
VERTEX
  5
1866
  8
SAPA_FOGBAND
 10
110.01478451129501
 20
49.643050170653147
 30
0.0
 42
0.1579553886371977
  0
VERTEX
  5
1867
  8
SAPA_FOGBAND
 10
106.31988483871039
 20
49.809532630801648
 30
0.0
 42
-0.0604483959424258
  0
VERTEX
  5
1868
  8
SAPA_FOGBAND
 10
102.92977277772511
 20
49.708440096348603
 30
0.0
  0
VERTEX
  5
1869
  8
SAPA_FOGBAND
 10
97.772206021357633
 20
49.92052093756736
 30
0.0
 42
-0.3286126757704555
  0
VERTEX
  5
186A
  8
SAPA_FOGBAND
 10
96.339561914888108
 20
50.976076493123031
 30
0.0
 42
0.2704382184496639
  0
VERTEX
  5
186B
  8
SAPA_FOGBAND
 10
95.221053389751773
 20
51.889752768263051
 30
0.0
  0
VERTEX
  5
186C
  8
SAPA_FOGBAND
 10
95.420917154879447
 20
48.020520937567291
 30
0.0
  0
VERTEX
  5
186D
  8
SAPA_FOGBAND
 10
94.220917154879629
 20
48.020520937567298
 30
0.0
  0
VERTEX
  5
186E
  8
SAPA_FOGBAND
 10
93.159852749330028
 20
47.966049174527932
 30
0.0
  0
VERTEX
  5
186F
  8
SAPA_FOGBAND
 10
93.160821759187769
 20
48.515895083333007
 30
0.0
 42
0.6068148963145658
  0
VERTEX
  5
1870
  8
SAPA_FOGBAND
 10
92.641230678365304
 20
48.631085652708059
 30
0.0
  0
VERTEX
  5
1871
  8
SAPA_FOGBAND
 10
91.264904992475138
 20
46.815672842687611
 30
0.0
 42
0.4400105308918406
  0
VERTEX
  5
1872
  8
SAPA_FOGBAND
 10
91.465626246561726
 20
45.291043551449206
 30
0.0
  0
VERTEX
  5
1873
  8
SAPA_FOGBAND
 10
93.482589170784479
 20
43.767842170033518
 30
0.0
 42
0.5205670505516999
  0
VERTEX
  5
1874
  8
SAPA_FOGBAND
 10
93.944439849576455
 20
43.935942069789547
 30
0.0
  0
VERTEX
  5
1875
  8
SAPA_FOGBAND
 10
93.97103548061142
 20
44.680781181222173
 30
0.0
  0
VERTEX
  5
1876
  8
SAPA_FOGBAND
 10
95.260948289459805
 20
44.48127023776815
 30
0.0
  0
SEQEND
  5
1877
  8
SAPA_FOGBAND
  0
POLYLINE
  5
C37
  8
SAPA_FOGBAND
 62
     2
 66
     1
 10
0.0
 20
0.0
 30
0.0
  0
VERTEX
  5
1878
  8
SAPA_FOGBAND
 62
     2
 10
1.938407623147526
 20
34.500000000000192
 30
0.0
  0
VERTEX
  5
1879
  8
SAPA_FOGBAND
 62
     2
 10
2.1307660431399071
 20
33.409081189847448
 30
0.0
  0
VERTEX
  5
187A
  8
SAPA_FOGBAND
 62
     2
 10
1.6989694832382931
 20
33.293381650327511
 30
0.0
 42
0.4430158954262519
  0
VERTEX
  5
187B
  8
SAPA_FOGBAND
 62
     2
 10
1.5634924356941931
 20
33.029905222220542
 30
0.0
  0
VERTEX
  5
187C
  8
SAPA_FOGBAND
 62
     2
 10
2.040440628913152
 20
31.759417474302349
 30
0.0
 42
0.3125358528825162
  0
VERTEX
  5
187D
  8
SAPA_FOGBAND
 62
     2
 10
2.414922342042551
 20
31.50000000000065
 30
0.0
  0
VERTEX
  5
187E
  8
SAPA_FOGBAND
 62
     2
 10
4.2850776579528747
 20
31.500000000000188
 30
0.0
 42
0.3125358528825104
  0
VERTEX
  5
187F
  8
SAPA_FOGBAND
 62
     2
 10
4.659559371082274
 20
31.759417474302349
 30
0.0
  0
VERTEX
  5
1880
  8
SAPA_FOGBAND
 62
     2
 10
5.1365075643014597
 20
33.029905222220542
 30
0.0
 42
0.4430158954262519
  0
VERTEX
  5
1881
  8
SAPA_FOGBAND
 62
     2
 10
5.0010305167573597
 20
33.293381650327397
 30
0.0
  0
VERTEX
  5
1882
  8
SAPA_FOGBAND
 62
     2
 10
4.5692339568555189
 20
33.409081189847448
 30
0.0
  0
VERTEX
  5
1883
  8
SAPA_FOGBAND
 62
     2
 10
4.7583778131980452
 20
34.481769303614982
 30
0.0
  0
SEQEND
  5
1884
  8
SAPA_FOGBAND
 62
     2
  0
POLYLINE
  5
C38
  8
SAPA_FOGBAND
 62
     2
 66
     1
 10
0.0
 20
0.0
 30
0.0
 70
     1
  0
VERTEX
  5
1885
  8
SAPA_FOGBAND
 62
     2
 10
1.949999999997857
 20
34.500000000000192
 30
0.0
 42
-0.285714285714282
  0
VERTEX
  5
1886
  8
SAPA_FOGBAND
 62
     2
 10
4.7499999999978044
 20
34.500000000000192
 30
0.0
  0
VERTEX
  5
1887
  8
SAPA_FOGBAND
 62
     2
 10
6.8237801693856781
 20
34.500000000000647
 30
0.0
 42
0.3882600129940275
  0
VERTEX
  5
1888
  8
SAPA_FOGBAND
 62
     2
 10
7.1225816667270792
 20
34.773210726280212
 30
0.0
  0
VERTEX
  5
1889
  8
SAPA_FOGBAND
 62
     2
 10
7.5887915906535781
 20
38.073210726280301
 30
0.0
 42
0.4406523138893894
  0
VERTEX
  5
188A
  8
SAPA_FOGBAND
 62
     2
 10
7.2899900933117223
 20
38.40000000000019
 30
0.0
  0
VERTEX
  5
188B
  8
SAPA_FOGBAND
 62
     2
 10
5.5801980963913991
 20
38.40000000000019
 30
0.0
 42
0.3394542588634375
  0
VERTEX
  5
188C
  8
SAPA_FOGBAND
 62
     2
 10
5.2904203485048518
 20
38.177645713531192
 30
0.0
  0
VERTEX
  5
188D
  8
SAPA_FOGBAND
 62
     2
 10
5.0880406205734232
 20
37.960059931363602
 30
0.0
 42
-0.3394542588633663
  0
VERTEX
  5
188E
  8
SAPA_FOGBAND
 62
     2
 10
4.7982628726866494
 20
37.737705644894604
 30
0.0
  0
VERTEX
  5
188F
  8
SAPA_FOGBAND
 62
     2
 10
1.9017371273087911
 20
37.737705644894604
 30
0.0
 42
-0.3394542588634373
  0
VERTEX
  5
1890
  8
SAPA_FOGBAND
 62
     2
 10
1.6119593794222451
 20
37.960059931363602
 30
0.0
  0
VERTEX
  5
1891
  8
SAPA_FOGBAND
 62
     2
 10
1.409579651490815
 20
38.177645713531192
 30
0.0
 42
0.3394542588633662
  0
VERTEX
  5
1892
  8
SAPA_FOGBAND
 62
     2
 10
1.1198019036040421
 20
38.40000000000019
 30
0.0
  0
VERTEX
  5
1893
  8
SAPA_FOGBAND
 62
     2
 10
-0.5899900933160609
 20
38.40000000000019
 30
0.0
 42
0.4406523138893994
  0
VERTEX
  5
1894
  8
SAPA_FOGBAND
 62
     2
 10
-0.8887915906576893
 20
38.073210726280301
 30
0.0
  0
VERTEX
  5
1895
  8
SAPA_FOGBAND
 62
     2
 10
-0.4225816667314249
 20
34.773210726280212
 30
0.0
 42
0.3882600129940462
  0
VERTEX
  5
1896
  8
SAPA_FOGBAND
 62
     2
 10
-0.1237801693900238
 20
34.500000000000192
 30
0.0
  0
VERTEX
  5
1897
  8
SAPA_FOGBAND
 62
     2
 10
1.938407623147526
 20
34.500000000000192
 30
0.0
  0
SEQEND
  5
1898
  8
SAPA_FOGBAND
 62
     2
  0
POLYLINE
  5
C39
  8
SAPA_FOGBAND
 66
     1
 10
0.0
 20
0.0
 30
0.0
 70
     1
  0
VERTEX
  5
1899
  8
SAPA_FOGBAND
 10
10.506602159650621
 20
50.989251262205109
 30
0.0
  0
VERTEX
  5
189A
  8
SAPA_FOGBAND
 10
9.3066021596505806
 20
50.989251262205109
 30
0.0
 42
-0.4142135623730951
  0
VERTEX
  5
189B
  8
SAPA_FOGBAND
 10
9.006602159650626
 20
51.28925126220507
 30
0.0
  0
VERTEX
  5
189C
  8
SAPA_FOGBAND
 10
9.006602159650626
 20
52.189251262205161
 30
0.0
  0
VERTEX
  5
189D
  8
SAPA_FOGBAND
 10
9.3566021596505351
 20
52.189251262205161
 30
0.0
 42
0.6681786379192988
  0
VERTEX
  5
189E
  8
SAPA_FOGBAND
 10
9.5687341940065807
 20
52.701383296561161
 30
0.0
  0
VERTEX
  5
189F
  8
SAPA_FOGBAND
 10
8.7151808034132472
 20
53.554936687154267
 30
0.0
 42
0.1989123673796552
  0
VERTEX
  5
18A0
  8
SAPA_FOGBAND
 10
8.1494953784640956
 20
53.78925126220507
 30
0.0
  0
VERTEX
  5
18A1
  8
SAPA_FOGBAND
 10
7.9868002560443037
 20
53.78925126220507
 30
0.0
 42
0.3394542588633746
  0
VERTEX
  5
18A2
  8
SAPA_FOGBAND
 10
7.6970225081575299
 20
53.566896975735837
 30
0.0
  0
VERTEX
  5
18A3
  8
SAPA_FOGBAND
 10
7.3338732647676323
 20
52.211605548674342
 30
0.0
 42
-0.3394542588633746
  0
VERTEX
  5
18A4
  8
SAPA_FOGBAND
 10
7.0440955168808577
 20
51.989251262205123
 30
0.0
  0
VERTEX
  5
18A5
  8
SAPA_FOGBAND
 10
4.4691088024203927
 20
51.989251262205123
 30
0.0
 42
-0.3394542588633746
  0
VERTEX
  5
18A6
  8
SAPA_FOGBAND
 10
4.1793310545336189
 20
52.211605548674342
 30
0.0
  0
VERTEX
  5
18A7
  8
SAPA_FOGBAND
 10
3.8161818111434931
 20
53.566896975735837
 30
0.0
 42
0.3394542588633744
  0
VERTEX
  5
18A8
  8
SAPA_FOGBAND
 10
3.5264040632569471
 20
53.78925126220507
 30
0.0
  0
VERTEX
  5
18A9
  8
SAPA_FOGBAND
 10
3.3637089408369292
 20
53.78925126220507
 30
0.0
 42
0.1989123673796526
  0
VERTEX
  5
18AA
  8
SAPA_FOGBAND
 10
2.7980235158877771
 20
53.554936687154267
 30
0.0
  0
VERTEX
  5
18AB
  8
SAPA_FOGBAND
 10
1.9444701252944441
 20
52.701383296561161
 30
0.0
 42
0.6681786379193474
  0
VERTEX
  5
18AC
  8
SAPA_FOGBAND
 10
2.1566021596504892
 20
52.189251262205161
 30
0.0
  0
VERTEX
  5
18AD
  8
SAPA_FOGBAND
 10
2.506602159650626
 20
52.189251262205161
 30
0.0
  0
VERTEX
  5
18AE
  8
SAPA_FOGBAND
 10
2.506602159650626
 20
51.28925126220507
 30
0.0
 42
-0.4142135623730951
  0
VERTEX
  5
18AF
  8
SAPA_FOGBAND
 10
2.2066021596504442
 20
50.989251262205109
 30
0.0
  0
VERTEX
  5
18B0
  8
SAPA_FOGBAND
 10
0.1066021596505351
 20
50.989251262205109
 30
0.0
 42
-0.4142135623730951
  0
VERTEX
  5
18B1
  8
SAPA_FOGBAND
 10
-0.1933978403494194
 20
51.28925126220507
 30
0.0
  0
VERTEX
  5
18B2
  8
SAPA_FOGBAND
 10
-0.1933978403494194
 20
52.689251262205161
 30
0.0
 42
0.7754026414786132
  0
VERTEX
  5
18B3
  8
SAPA_FOGBAND
 10
-0.7561898357570982
 20
52.833959130511047
 30
0.0
 42
-0.1086822875051356
  0
VERTEX
  5
18B4
  8
SAPA_FOGBAND
 10
-4.906237994347932
 20
44.905876740374289
 30
0.0
 42
0.8680589103334746
  0
VERTEX
  5
18B5
  8
SAPA_FOGBAND
 10
-4.431313964584163
 20
44.549036837712357
 30
0.0
  0
VERTEX
  5
18B6
  8
SAPA_FOGBAND
 10
-0.4612785674325579
 20
47.376837158856333
 30
0.0
 42
-0.1989123673796536
  0
VERTEX
  5
18B7
  8
SAPA_FOGBAND
 10
0.245828213754109
 20
47.669730377669659
 30
0.0
  0
VERTEX
  5
18B8
  8
SAPA_FOGBAND
 10
3.07914717817384
 20
47.669730377669659
 30
0.0
 42
-0.577350269189628
  0
VERTEX
  5
18B9
  8
SAPA_FOGBAND
 10
3.338954799309064
 20
47.219730377669848
 30
0.0
  0
VERTEX
  5
18BA
  8
SAPA_FOGBAND
 10
1.2008261028973231
 20
44.914976274315549
 30
0.0
 42
0.8769764629927301
  0
VERTEX
  5
18BB
  8
SAPA_FOGBAND
 10
1.672765758388592
 20
44.552844239959413
 30
0.0
  0
VERTEX
  5
18BC
  8
SAPA_FOGBAND
 10
5.6389937532933772
 20
47.376837158856333
 30
0.0
 42
-0.198912367379658
  0
VERTEX
  5
18BD
  8
SAPA_FOGBAND
 10
6.3461005344800441
 20
47.669730377669659
 30
0.0
  0
VERTEX
  5
18BE
  8
SAPA_FOGBAND
 10
8.5783748967015043
 20
47.669730377669659
 30
0.0
 42
-0.5773502691896441
  0
VERTEX
  5
18BF
  8
SAPA_FOGBAND
 10
8.8381825178369553
 20
47.219730377669848
 30
0.0
  0
VERTEX
  5
18C0
  8
SAPA_FOGBAND
 10
6.7005553963077062
 20
44.915845027495934
 30
0.0
 42
0.87697646299276
  0
VERTEX
  5
18C1
  8
SAPA_FOGBAND
 10
7.1724950517989754
 20
44.553712993139797
 30
0.0
  0
VERTEX
  5
18C2
  8
SAPA_FOGBAND
 10
11.21370894083706
 20
47.452691806170023
 30
0.0
 42
0.198912367379658
  0
VERTEX
  5
18C3
  8
SAPA_FOGBAND
 10
11.506602159650621
 20
48.159798587356462
 30
0.0
  0
VERTEX
  5
18C4
  8
SAPA_FOGBAND
 10
11.506602159650621
 20
49.989251262205123
 30
0.0
  0
VERTEX
  5
18C5
  8
SAPA_FOGBAND
 10
11.506602159650621
 20
49.979319471891912
 30
0.0
  0
SEQEND
  5
18C6
  8
SAPA_FOGBAND
  0
POLYLINE
  5
C3A
  8
SAPA_FOGBAND
 62
     2
 66
     1
 10
0.0
 20
0.0
 30
0.0
  0
VERTEX
  5
18C7
  8
SAPA_FOGBAND
 62
     2
 10
157.06159237685199
 20
34.499999999999773
 30
0.0
  0
VERTEX
  5
18C8
  8
SAPA_FOGBAND
 62
     2
 10
156.86923395685969
 20
33.409081189847022
 30
0.0
  0
VERTEX
  5
18C9
  8
SAPA_FOGBAND
 62
     2
 10
157.3010305167613
 20
33.293381650327092
 30
0.0
 42
-0.4430158954262519
  0
VERTEX
  5
18CA
  8
SAPA_FOGBAND
 62
     2
 10
157.4365075643054
 20
33.029905222220123
 30
0.0
  0
VERTEX
  5
18CB
  8
SAPA_FOGBAND
 62
     2
 10
156.95955937108641
 20
31.75941747430192
 30
0.0
 42
-0.3125358528825162
  0
VERTEX
  5
18CC
  8
SAPA_FOGBAND
 62
     2
 10
156.58507765795699
 20
31.50000000000022
 30
0.0
  0
VERTEX
  5
18CD
  8
SAPA_FOGBAND
 62
     2
 10
154.71492234204669
 20
31.499999999999769
 30
0.0
 42
-0.3125358528825104
  0
VERTEX
  5
18CE
  8
SAPA_FOGBAND
 62
     2
 10
154.34044062891729
 20
31.75941747430192
 30
0.0
  0
VERTEX
  5
18CF
  8
SAPA_FOGBAND
 62
     2
 10
153.86349243569811
 20
33.029905222220123
 30
0.0
 42
-0.4430158954262519
  0
VERTEX
  5
18D0
  8
SAPA_FOGBAND
 62
     2
 10
153.99896948324221
 20
33.293381650326971
 30
0.0
  0
VERTEX
  5
18D1
  8
SAPA_FOGBAND
 62
     2
 10
154.43076604314399
 20
33.409081189847022
 30
0.0
  0
VERTEX
  5
18D2
  8
SAPA_FOGBAND
 62
     2
 10
154.24162218680149
 20
34.481769303614549
 30
0.0
  0
SEQEND
  5
18D3
  8
SAPA_FOGBAND
 62
     2
  0
POLYLINE
  5
C3B
  8
SAPA_FOGBAND
 62
     2
 66
     1
 10
0.0
 20
0.0
 30
0.0
 70
     1
  0
VERTEX
  5
18D4
  8
SAPA_FOGBAND
 62
     2
 10
157.05000000000169
 20
34.499999999999773
 30
0.0
 42
0.285714285714282
  0
VERTEX
  5
18D5
  8
SAPA_FOGBAND
 62
     2
 10
154.25000000000179
 20
34.499999999999773
 30
0.0
  0
VERTEX
  5
18D6
  8
SAPA_FOGBAND
 62
     2
 10
152.17621983061389
 20
34.50000000000022
 30
0.0
 42
-0.3882600129940275
  0
VERTEX
  5
18D7
  8
SAPA_FOGBAND
 62
     2
 10
151.87741833327249
 20
34.773210726279778
 30
0.0
  0
VERTEX
  5
18D8
  8
SAPA_FOGBAND
 62
     2
 10
151.41120840934599
 20
38.073210726279868
 30
0.0
 42
-0.4406523138893894
  0
VERTEX
  5
18D9
  8
SAPA_FOGBAND
 62
     2
 10
151.7100099066879
 20
38.399999999999771
 30
0.0
  0
VERTEX
  5
18DA
  8
SAPA_FOGBAND
 62
     2
 10
153.41980190360809
 20
38.399999999999771
 30
0.0
 42
-0.3394542588634375
  0
VERTEX
  5
18DB
  8
SAPA_FOGBAND
 62
     2
 10
153.70957965149469
 20
38.177645713530772
 30
0.0
  0
VERTEX
  5
18DC
  8
SAPA_FOGBAND
 62
     2
 10
153.91195937942609
 20
37.960059931363183
 30
0.0
 42
0.3394542588633663
  0
VERTEX
  5
18DD
  8
SAPA_FOGBAND
 62
     2
 10
154.2017371273129
 20
37.737705644894177
 30
0.0
  0
VERTEX
  5
18DE
  8
SAPA_FOGBAND
 62
     2
 10
157.0982628726907
 20
37.737705644894177
 30
0.0
 42
0.3394542588634373
  0
VERTEX
  5
18DF
  8
SAPA_FOGBAND
 62
     2
 10
157.3880406205773
 20
37.960059931363183
 30
0.0
  0
VERTEX
  5
18E0
  8
SAPA_FOGBAND
 62
     2
 10
157.5904203485087
 20
38.177645713530772
 30
0.0
 42
-0.3394542588633662
  0
VERTEX
  5
18E1
  8
SAPA_FOGBAND
 62
     2
 10
157.8801980963955
 20
38.399999999999771
 30
0.0
  0
VERTEX
  5
18E2
  8
SAPA_FOGBAND
 62
     2
 10
159.58999009331561
 20
38.399999999999771
 30
0.0
 42
-0.4406523138893994
  0
VERTEX
  5
18E3
  8
SAPA_FOGBAND
 62
     2
 10
159.88879159065729
 20
38.073210726279868
 30
0.0
  0
VERTEX
  5
18E4
  8
SAPA_FOGBAND
 62
     2
 10
159.42258166673099
 20
34.773210726279778
 30
0.0
 42
-0.3882600129940462
  0
VERTEX
  5
18E5
  8
SAPA_FOGBAND
 62
     2
 10
159.12378016938959
 20
34.499999999999773
 30
0.0
  0
VERTEX
  5
18E6
  8
SAPA_FOGBAND
 62
     2
 10
157.06159237685199
 20
34.499999999999773
 30
0.0
  0
SEQEND
  5
18E7
  8
SAPA_FOGBAND
 62
     2
  0
POLYLINE
  5
C3C
  8
SAPA_FOGBAND
 66
     1
 10
0.0
 20
0.0
 30
0.0
 70
     1
  0
VERTEX
  5
18E8
  8
SAPA_FOGBAND
 10
148.4933978403489
 20
50.989251262204689
 30
0.0
  0
VERTEX
  5
18E9
  8
SAPA_FOGBAND
 10
149.69339784034901
 20
50.989251262204689
 30
0.0
 42
0.4142135623730951
  0
VERTEX
  5
18EA
  8
SAPA_FOGBAND
 10
149.99339784034899
 20
51.289251262204637
 30
0.0
  0
VERTEX
  5
18EB
  8
SAPA_FOGBAND
 10
149.99339784034899
 20
52.189251262204728
 30
0.0
  0
VERTEX
  5
18EC
  8
SAPA_FOGBAND
 10
149.643397840349
 20
52.189251262204728
 30
0.0
 42
-0.6681786379192988
  0
VERTEX
  5
18ED
  8
SAPA_FOGBAND
 10
149.43126580599301
 20
52.701383296560742
 30
0.0
  0
VERTEX
  5
18EE
  8
SAPA_FOGBAND
 10
150.28481919658631
 20
53.554936687153841
 30
0.0
 42
-0.1989123673796552
  0
VERTEX
  5
18EF
  8
SAPA_FOGBAND
 10
150.85050462153549
 20
53.789251262204637
 30
0.0
  0
VERTEX
  5
18F0
  8
SAPA_FOGBAND
 10
151.01319974395531
 20
53.789251262204637
 30
0.0
 42
-0.3394542588633746
  0
VERTEX
  5
18F1
  8
SAPA_FOGBAND
 10
151.302977491842
 20
53.566896975735418
 30
0.0
  0
VERTEX
  5
18F2
  8
SAPA_FOGBAND
 10
151.6661267352319
 20
52.211605548673923
 30
0.0
 42
0.3394542588633746
  0
VERTEX
  5
18F3
  8
SAPA_FOGBAND
 10
151.9559044831187
 20
51.989251262204689
 30
0.0
  0
VERTEX
  5
18F4
  8
SAPA_FOGBAND
 10
154.53089119757919
 20
51.989251262204689
 30
0.0
 42
0.3394542588633746
  0
VERTEX
  5
18F5
  8
SAPA_FOGBAND
 10
154.820668945466
 20
52.211605548673923
 30
0.0
  0
VERTEX
  5
18F6
  8
SAPA_FOGBAND
 10
155.18381818885609
 20
53.566896975735418
 30
0.0
 42
-0.3394542588633744
  0
VERTEX
  5
18F7
  8
SAPA_FOGBAND
 10
155.47359593674261
 20
53.789251262204637
 30
0.0
  0
VERTEX
  5
18F8
  8
SAPA_FOGBAND
 10
155.6362910591626
 20
53.789251262204637
 30
0.0
 42
-0.1989123673796526
  0
VERTEX
  5
18F9
  8
SAPA_FOGBAND
 10
156.20197648411181
 20
53.554936687153841
 30
0.0
  0
VERTEX
  5
18FA
  8
SAPA_FOGBAND
 10
157.05552987470509
 20
52.701383296560742
 30
0.0
 42
-0.6681786379193474
  0
VERTEX
  5
18FB
  8
SAPA_FOGBAND
 10
156.8433978403491
 20
52.189251262204728
 30
0.0
  0
VERTEX
  5
18FC
  8
SAPA_FOGBAND
 10
156.4933978403489
 20
52.189251262204728
 30
0.0
  0
VERTEX
  5
18FD
  8
SAPA_FOGBAND
 10
156.4933978403489
 20
51.289251262204637
 30
0.0
 42
0.4142135623730951
  0
VERTEX
  5
18FE
  8
SAPA_FOGBAND
 10
156.79339784034909
 20
50.989251262204689
 30
0.0
  0
VERTEX
  5
18FF
  8
SAPA_FOGBAND
 10
158.893397840349
 20
50.989251262204689
 30
0.0
 42
0.4142135623730951
  0
VERTEX
  5
1900
  8
SAPA_FOGBAND
 10
159.19339784034901
 20
51.289251262204637
 30
0.0
  0
VERTEX
  5
1901
  8
SAPA_FOGBAND
 10
159.19339784034901
 20
52.689251262204728
 30
0.0
 42
-0.7754026414786132
  0
VERTEX
  5
1902
  8
SAPA_FOGBAND
 10
159.7561898357566
 20
52.833959130510621
 30
0.0
 42
0.1086822875051356
  0
VERTEX
  5
1903
  8
SAPA_FOGBAND
 10
163.90623799434749
 20
44.90587674037387
 30
0.0
 42
-0.8680589103334746
  0
VERTEX
  5
1904
  8
SAPA_FOGBAND
 10
163.43131396458369
 20
44.549036837711938
 30
0.0
  0
VERTEX
  5
1905
  8
SAPA_FOGBAND
 10
159.46127856743209
 20
47.376837158855899
 30
0.0
 42
0.1989123673796536
  0
VERTEX
  5
1906
  8
SAPA_FOGBAND
 10
158.75417178624551
 20
47.669730377669232
 30
0.0
  0
VERTEX
  5
1907
  8
SAPA_FOGBAND
 10
155.92085282182569
 20
47.669730377669232
 30
0.0
 42
0.577350269189628
  0
VERTEX
  5
1908
  8
SAPA_FOGBAND
 10
155.66104520069049
 20
47.219730377669421
 30
0.0
  0
VERTEX
  5
1909
  8
SAPA_FOGBAND
 10
157.79917389710221
 20
44.914976274315123
 30
0.0
 42
-0.8769764629927301
  0
VERTEX
  5
190A
  8
SAPA_FOGBAND
 10
157.327234241611
 20
44.552844239958979
 30
0.0
  0
VERTEX
  5
190B
  8
SAPA_FOGBAND
 10
153.36100624670621
 20
47.376837158855899
 30
0.0
 42
0.198912367379658
  0
VERTEX
  5
190C
  8
SAPA_FOGBAND
 10
152.65389946551949
 20
47.669730377669232
 30
0.0
  0
VERTEX
  5
190D
  8
SAPA_FOGBAND
 10
150.42162510329811
 20
47.669730377669232
 30
0.0
 42
0.5773502691896441
  0
VERTEX
  5
190E
  8
SAPA_FOGBAND
 10
150.1618174821626
 20
47.219730377669421
 30
0.0
  0
VERTEX
  5
190F
  8
SAPA_FOGBAND
 10
152.29944460369191
 20
44.9158450274955
 30
0.0
 42
-0.87697646299276
  0
VERTEX
  5
1910
  8
SAPA_FOGBAND
 10
151.82750494820061
 20
44.553712993139371
 30
0.0
  0
VERTEX
  5
1911
  8
SAPA_FOGBAND
 10
147.78629105916249
 20
47.452691806169597
 30
0.0
 42
-0.198912367379658
  0
VERTEX
  5
1912
  8
SAPA_FOGBAND
 10
147.4933978403489
 20
48.159798587356029
 30
0.0
  0
VERTEX
  5
1913
  8
SAPA_FOGBAND
 10
147.4933978403489
 20
49.989251262204689
 30
0.0
  0
VERTEX
  5
1914
  8
SAPA_FOGBAND
 10
147.4933978403489
 20
49.979319471891479
 30
0.0
  0
SEQEND
  5
1915
  8
SAPA_FOGBAND
  0
DIMENSION
  5
C46
  8
SAPA_MATT
  2
*D45
 10
158.99999999999901
 20
9.9999999999994031
 30
0.0
 11
140.24999999999909
 21
12.49999999999954
 31
0.0
 70
     0
 13
121.4999999999993
 23
30.999999999999819
 33
0.0
 14
158.9999999999992
 24
30.99999999999957
 34
0.0
 50
179.9999999999996
1001
ACAD
1000
DSTYLE
1002
{
1070
   287
1070
     4
1070
    40
1040
1.0
1070
   279
1070
     1
1002
}
  0
DIMENSION
  5
C47
  8
SAPA_MATT
  2
*D44
 10
121.4999999999991
 20
9.9999999999997033
 30
0.0
 11
118.9999999999993
 21
12.499999999999719
 31
0.0
 70
     0
 13
116.4999999999995
 23
30.299999999999692
 33
0.0
 14
121.4999999999993
 24
30.999999999999819
 34
0.0
 50
179.9999999999996
1001
ACAD
1000
DSTYLE
1002
{
1070
   287
1070
     4
1070
    40
1040
1.0
1070
   279
1070
     1
1002
}
  0
DIMENSION
  5
C48
  8
SAPA_MATT
  2
*D43
 10
-0.0000000000000006
 20
0.0
 30
0.0
 11
79.499999999999517
 21
2.5
 31
0.0
 70
     0
 13
158.99999999999901
 23
9.9999999999994031
 33
0.0
 14
0.0
 24
10.0
 34
0.0
 50
180.0
1001
ACAD
1000
DSTYLE
1002
{
1070
    40
1040
1.0
1002
}
  0
DIMENSION
  5
C49
  8
SAPA_MATT
  2
*D42
 10
0.0000000000000129
 20
9.9999999999999432
 30
0.0
 11
18.749999999999961
 21
12.49999999999994
 31
0.0
 70
     0
 13
37.499999999999901
 23
31.000000000000099
 33
0.0
 14
0.0000000000000142
 24
31.000000000000121
 34
0.0
1001
ACAD
1000
DSTYLE
1002
{
1070
   287
1070
     4
1070
    40
1040
1.0
1070
   279
1070
     1
1002
}
  0
DIMENSION
  5
C4A
  8
SAPA_MATT
  2
*D41
 10
37.499999999999901
 20
9.9999999999999893
 30
0.0
 11
39.999999999999787
 21
12.499999999999989
 31
0.0
 70
     0
 13
42.499999999999673
 23
30.29999999999994
 33
0.0
 14
37.499999999999901
 24
31.000000000000099
 34
0.0
1001
ACAD
1000
DSTYLE
1002
{
1070
   287
1070
     4
1070
    40
1040
1.0
1070
   279
1070
     1
1002
}
  0
VIEWPORT
  5
C4
 67
     1
  8
0
 10
143.06236603067589
 20
116.00969601843509
 30
0.0
 40
369.98580003443811
 41
256.8421457311839
 68
     1
 69
     1
1001
ACAD
1000
MVIEW
1002
{
1070
    16
1010
0.0
1020
0.0
1030
0.0
1010
0.0
1020
0.0
1030
1.0
1040
0.0
1040
256.8421457311839
1040
99.112914085388169
1040
143.07606935501099
1040
50.0
1040
0.0
1040
0.0
1070
     0
1070
     0
1070
     1
1070
     1
1070
     0
1070
     0
1070
     0
1070
     0
1040
0.0
1040
0.0
1040
0.0
1040
10.0
1040
10.0
1040
10.0
1040
10.0
1070
     0
1002
{
1002
}
1002
}
  0
ENDSEC
  0
EOF
