  0
SECTION
  2
HEADER
  9
$ACADVER
  1
AC1009
  9
$INSBASE
 10
0.0
 20
0.0
 30
0.0
  9
$EXTMIN
 10
-28.696949920988221
 20
-36.82908570194536
 30
0.0
  9
$EXTMAX
 10
272.67202293467938
 20
155.75452761490931
 30
0.0
  9
$LIMMIN
 10
0.0
 20
0.0
  9
$LIMMAX
 10
790.0
 20
790.0
  9
$ORTHOMODE
 70
     0
  9
$REGENMODE
 70
     1
  9
$FILLMODE
 70
     1
  9
$QTEXTMODE
 70
     0
  9
$MIRRTEXT
 70
     1
  9
$DRAGMODE
 70
     2
  9
$LTSCALE
 40
4.0
  9
$OSMODE
 70
   167
  9
$ATTMODE
 70
     1
  9
$TEXTSIZE
 40
3.5
  9
$TRACEWID
 40
0.05
  9
$TEXTSTYLE
  7
ISO
  9
$CLAYER
  8
0
  9
$CELTYPE
  6
BYLAYER
  9
$CECOLOR
 62
   256
  9
$DIMSCALE
 40
0.0
  9
$DIMASZ
 40
3.0
  9
$DIMEXO
 40
1.5
  9
$DIMDLI
 40
10.0
  9
$DIMRND
 40
0.0
  9
$DIMDLE
 40
0.0
  9
$DIMEXE
 40
1.5
  9
$DIMTP
 40
0.0
  9
$DIMTM
 40
0.0
  9
$DIMTXT
 40
3.0
  9
$DIMCEN
 40
-5.0
  9
$DIMTSZ
 40
0.0
  9
$DIMTOL
 70
     0
  9
$DIMLIM
 70
     0
  9
$DIMTIH
 70
     0
  9
$DIMTOH
 70
     0
  9
$DIMSE1
 70
     0
  9
$DIMSE2
 70
     0
  9
$DIMTAD
 70
     1
  9
$DIMZIN
 70
     8
  9
$DIMBLK
  1

  9
$DIMASO
 70
     1
  9
$DIMSHO
 70
     1
  9
$DIMPOST
  1

  9
$DIMAPOST
  1

  9
$DIMALT
 70
     0
  9
$DIMALTD
 70
     0
  9
$DIMALTF
 40
25.399999999999999
  9
$DIMLFAC
 40
-1.0
  9
$DIMTOFL
 70
     1
  9
$DIMTVP
 40
0.0
  9
$DIMTIX
 70
     0
  9
$DIMSOXD
 70
     0
  9
$DIMSAH
 70
     0
  9
$DIMBLK1
  1

  9
$DIMBLK2
  1

  9
$DIMSTYLE
  2
MASKIN
  9
$DIMCLRD
 70
   256
  9
$DIMCLRE
 70
   256
  9
$DIMCLRT
 70
     2
  9
$DIMTFAC
 40
1.0
  9
$DIMGAP
 40
1.0
  9
$LUNITS
 70
     2
  9
$LUPREC
 70
     8
  9
$SKETCHINC
 40
0.1
  9
$FILLETRAD
 40
0.0
  9
$AUNITS
 70
     0
  9
$AUPREC
 70
     8
  9
$MENU
  1
ACAD
  9
$ELEVATION
 40
0.0
  9
$PELEVATION
 40
0.0
  9
$THICKNESS
 40
0.0
  9
$LIMCHECK
 70
     0
  9
$BLIPMODE
 70
     0
  9
$CHAMFERA
 40
0.0
  9
$CHAMFERB
 40
0.0
  9
$SKPOLY
 70
     0
  9
$TDCREATE
 40
2457430.475150764
  9
$TDUPDATE
 40
2457742.690810428
  9
$TDINDWG
 40
0.2665729398
  9
$TDUSRTIMER
 40
0.2665728241
  9
$USRTIMER
 70
     1
  9
$ANGBASE
 50
0.0
  9
$ANGDIR
 70
     0
  9
$PDMODE
 70
     0
  9
$PDSIZE
 40
0.0
  9
$PLINEWID
 40
0.0
  9
$COORDS
 70
     1
  9
$SPLFRAME
 70
     0
  9
$SPLINETYPE
 70
     6
  9
$SPLINESEGS
 70
     8
  9
$ATTDIA
 70
     1
  9
$ATTREQ
 70
     1
  9
$HANDLING
 70
     1
  9
$HANDSEED
  5
1CD3
  9
$SURFTAB1
 70
     6
  9
$SURFTAB2
 70
     6
  9
$SURFTYPE
 70
     6
  9
$SURFU
 70
     6
  9
$SURFV
 70
     6
  9
$UCSNAME
  2

  9
$UCSORG
 10
0.0
 20
0.0
 30
0.0
  9
$UCSXDIR
 10
1.0
 20
0.0
 30
0.0
  9
$UCSYDIR
 10
0.0
 20
1.0
 30
0.0
  9
$PUCSNAME
  2

  9
$PUCSORG
 10
0.0
 20
0.0
 30
0.0
  9
$PUCSXDIR
 10
1.0
 20
0.0
 30
0.0
  9
$PUCSYDIR
 10
0.0
 20
1.0
 30
0.0
  9
$USERI1
 70
     0
  9
$USERI2
 70
     0
  9
$USERI3
 70
     0
  9
$USERI4
 70
     0
  9
$USERI5
 70
     0
  9
$USERR1
 40
0.0
  9
$USERR2
 40
0.0
  9
$USERR3
 40
0.0
  9
$USERR4
 40
0.0
  9
$USERR5
 40
0.0
  9
$WORLDVIEW
 70
     1
  9
$SHADEDGE
 70
     3
  9
$SHADEDIF
 70
    70
  9
$TILEMODE
 70
     1
  9
$MAXACTVP
 70
    16
  9
$PLIMCHECK
 70
     0
  9
$PEXTMIN
 10
1.0000000000000000E+020
 20
1.0000000000000000E+020
 30
1.0000000000000000E+020
  9
$PEXTMAX
 10
-1.0000000000000000E+020
 20
-1.0000000000000000E+020
 30
-1.0000000000000000E+020
  9
$PLIMMIN
 10
-5.069427490234375
 20
-5.8737497329711914
  9
$PLIMMAX
 10
291.89889526367187
 20
204.0995779037475
  9
$UNITMODE
 70
     0
  9
$VISRETAIN
 70
     1
  9
$PLINEGEN
 70
     0
  9
$PSLTSCALE
 70
     1
  0
ENDSEC
  0
SECTION
  2
TABLES
  0
TABLE
  2
VPORT
 70
     1
  0
VPORT
  2
*ACTIVE
 70
     0
 10
0.0
 20
0.0
 11
1.0
 21
1.0
 12
121.9884204753788
 22
211.7818468644704
 13
0.0
 23
0.0
 14
1.0
 24
1.0
 15
0.0
 25
0.0
 16
0.0
 26
0.0
 36
1.0
 17
0.0
 27
0.0
 37
0.0
 40
286.6735434198593
 41
1.6070763500931089
 42
50.0
 43
0.0
 44
0.0
 50
0.0
 51
0.0
 71
     0
 72
   100
 73
     1
 74
     1
 75
     0
 76
     0
 77
     0
 78
     0
  0
ENDTAB
  0
TABLE
  2
LTYPE
 70
    28
  0
LTYPE
  2
CONTINUOUS
 70
     0
  3
Solid line
 72
    65
 73
     0
 40
0.0
  0
LTYPE
  2
BYGG-035273$0$NEWDOT
 70
     0
  3
____ . ____ . ____ . ____ . ____ . ____ . ____
 72
    65
 73
     4
 40
2.0
 49
1.0
 49
-0.5
 49
0.0
 49
-0.5
  0
LTYPE
  2
BYGG-035273$0$DASHDOT
 70
     0
  3
__ . __ . __ . __ . __ . __ . __ . __ . __ . __
 72
    65
 73
     4
 40
1.0
 49
0.5
 49
-0.25
 49
0.0
 49
-0.25
  0
LTYPE
  2
BYGG-035273$0$DASHED
 70
     0
  3
__ __ __ __ __ __ __ __ __ __ __ __ __ __ __
 72
    65
 73
     2
 40
0.75
 49
0.5
 49
-0.25
  0
LTYPE
  2
BYGG-035273$0$PHANTOM
 70
     0
  3
Phantom ______  __  __  ______  __  __  ______
 72
    65
 73
     6
 40
63.5
 49
31.75
 49
-6.3499999999999988
 49
6.3499999999999988
 49
-6.3499999999999988
 49
6.3499999999999988
 49
-6.3499999999999988
  0
LTYPE
  2
BYGG-024882$0$NEWDOT
 70
     0
  3
____ . ____ . ____ . ____ . ____ . ____ . ____
 72
    65
 73
     4
 40
2.0
 49
1.0
 49
-0.5
 49
0.0
 49
-0.5
  0
LTYPE
  2
BYGG-020132$0$NEWDOT
 70
     0
  3
____ . ____ . ____ . ____ . ____ . ____ . ____
 72
    65
 73
     4
 40
2.0
 49
1.0
 49
-0.5
 49
0.0
 49
-0.5
  0
LTYPE
  2
BYGG-020132$0$DASHDOT
 70
     0
  3
__ . __ . __ . __ . __ . __ . __ . __ . __ . __
 72
    65
 73
     4
 40
1.0
 49
0.5
 49
-0.25
 49
0.0
 49
-0.25
  0
LTYPE
  2
BYGG-014196$0$DASHDOT
 70
     0
  3
__ . __ . __ . __ . __ . __ . __ . __ . __ . __
 72
    65
 73
     4
 40
1.0
 49
0.5
 49
-0.25
 49
0.0
 49
-0.25
  0
LTYPE
  2
BYGG-025652$0$NEWDOT
 70
     0
  3
____ . ____ . ____ . ____ . ____ . ____ . ____
 72
    65
 73
     4
 40
2.0
 49
1.0
 49
-0.5
 49
0.0
 49
-0.5
  0
LTYPE
  2
BYGG-025652$0$DASHDOT
 70
     0
  3
__ . __ . __ . __ . __ . __ . __ . __ . __ . __
 72
    65
 73
     4
 40
1.0
 49
0.5
 49
-0.25
 49
0.0
 49
-0.25
  0
LTYPE
  2
BYGG-025652$0$DASHED
 70
     0
  3
__ __ __ __ __ __ __ __ __ __ __ __ __ __ __
 72
    65
 73
     2
 40
0.75
 49
0.5
 49
-0.25
  0
LTYPE
  2
BYGG-025652$0$PHANTOM
 70
     0
  3
Phantom ______  __  __  ______  __  __  ______
 72
    65
 73
     6
 40
63.5
 49
31.75
 49
-6.3499999999999988
 49
6.3499999999999988
 49
-6.3499999999999988
 49
6.3499999999999988
 49
-6.3499999999999988
  0
LTYPE
  2
BYGG-014411$0$NEWDOT
 70
     0
  3
____ . ____ . ____ . ____ . ____ . ____ . ____
 72
    65
 73
     4
 40
2.0
 49
1.0
 49
-0.5
 49
0.0
 49
-0.5
  0
LTYPE
  2
BYGG-014411$0$ZIGZAG
 70
     0
  3
Zig zag /\/\/\/\/\/\/\/\/\/\/\/\/\/\/\/\/\/\/\/\/\/\/\/
 72
    65
 73
     4
 40
20.32254
 49
0.00254
 49
-5.0800000000000001
 49
-10.16
 49
-5.0800000000000001
  0
LTYPE
  2
BYGG-036387$0$NEWDOT
 70
     0
  3
____ . ____ . ____ . ____ . ____ . ____ . ____
 72
    65
 73
     4
 40
2.0
 49
1.0
 49
-0.5
 49
0.0
 49
-0.5
  0
LTYPE
  2
BYGG-036387$0$DASHDOT
 70
     0
  3
__ . __ . __ . __ . __ . __ . __ . __ . __ . __
 72
    65
 73
     4
 40
1.0
 49
0.5
 49
-0.25
 49
0.0
 49
-0.25
  0
LTYPE
  2
BYGG-036387$0$DASHED
 70
     0
  3
__ __ __ __ __ __ __ __ __ __ __ __ __ __ __
 72
    65
 73
     2
 40
0.75
 49
0.5
 49
-0.25
  0
LTYPE
  2
BYGG-036387$0$PHANTOM
 70
     0
  3
Phantom ______  __  __  ______  __  __  ______
 72
    65
 73
     6
 40
63.5
 49
31.75
 49
-6.3499999999999988
 49
6.3499999999999988
 49
-6.3499999999999988
 49
6.3499999999999988
 49
-6.3499999999999988
  0
LTYPE
  2
BYGG-036386$0$NEWDOT
 70
     0
  3
____ . ____ . ____ . ____ . ____ . ____ . ____
 72
    65
 73
     4
 40
2.0
 49
1.0
 49
-0.5
 49
0.0
 49
-0.5
  0
LTYPE
  2
BYGG-036386$0$ZIGZAG
 70
     0
  3
Zig zag /\/\/\/\/\/\/\/\/\/\/\/\/\/\/\/\/\/\/\/\/\/\/\/
 72
    65
 73
     4
 40
20.32254
 49
0.00254
 49
-5.0800000000000001
 49
-10.16
 49
-5.0800000000000001
  0
LTYPE
  2
BYGG-024882$0$DASHDOT
 70
     0
  3
__ . __ . __ . __ . __ . __ . __ . __ . __ . __
 72
    65
 73
     4
 40
1.0
 49
0.5
 49
-0.25
 49
0.0
 49
-0.25
  0
LTYPE
  2
BYGG-014090$0$PHANTOM2
 70
     0
  3
Phantom (.5x) ___ _ _ ___ _ _ ___ _ _ ___ _ _
 72
    65
 73
     6
 40
1.25
 49
0.625
 49
-0.125
 49
0.125
 49
-0.125
 49
0.125
 49
-0.125
  0
LTYPE
  2
BYGG-021358$0$PHANTOM2
 70
     0
  3
___ _ _ ___ _ _ ___ _ _ ___ _ _
 72
    65
 73
     6
 40
1.25
 49
0.625
 49
-0.125
 49
0.125
 49
-0.125
 49
0.125
 49
-0.125
  0
LTYPE
  2
BYGG-014196$0$PHANTOM2
 70
     0
  3
Phantom (.5x) ___ _ _ ___ _ _ ___ _ _ ___ _ _
 72
    65
 73
     6
 40
1.25
 49
0.625
 49
-0.125
 49
0.125
 49
-0.125
 49
0.125
 49
-0.125
  0
LTYPE
  2
BYGG-025652$0$PHANTOM2
 70
     0
  3
Phantom (.5x) ___ _ _ ___ _ _ ___ _ _ ___ _ _
 72
    65
 73
     6
 40
1.25
 49
0.625
 49
-0.125
 49
0.125
 49
-0.125
 49
0.125
 49
-0.125
  0
LTYPE
  2
BYGG-014411$0$PHANTOM2
 70
     0
  3
Phantom (.5x) ___ _ _ ___ _ _ ___ _ _ ___ _ _
 72
    65
 73
     6
 40
1.25
 49
0.625
 49
-0.125
 49
0.125
 49
-0.125
 49
0.125
 49
-0.125
  0
LTYPE
  2
BYGG-014088$0$PHANTOM2
 70
     0
  3
Phantom (.5x) ___ _ _ ___ _ _ ___ _ _ ___ _ _
 72
    65
 73
     6
 40
1.25
 49
0.625
 49
-0.125
 49
0.125
 49
-0.125
 49
0.125
 49
-0.125
  0
ENDTAB
  0
TABLE
  2
LAYER
 70
   143
  0
LAYER
  2
0
 70
     0
 62
     7
  6
CONTINUOUS
  0
LAYER
  2
DEFPOINTS
 70
     0
 62
     7
  6
CONTINUOUS
  0
LAYER
  2
SAPA_ANSLUTNING
 70
     0
 62
     6
  6
CONTINUOUS
  0
LAYER
  2
SAPA_ARTIKELNR
 70
     0
 62
     4
  6
CONTINUOUS
  0
LAYER
  2
SAPA_FYLLNING
 70
     0
 62
     4
  6
CONTINUOUS
  0
LAYER
  2
SAPA_MATT
 70
     0
 62
     1
  6
CONTINUOUS
  0
LAYER
  2
SAPA_GLAS
 70
     0
 62
     4
  6
CONTINUOUS
  0
LAYER
  2
SAPA_FOGBAND
 70
     0
 62
     2
  6
CONTINUOUS
  0
LAYER
  2
SAPA_PROFIL
 70
     0
 62
     7
  6
CONTINUOUS
  0
ENDTAB
  0
TABLE
  2
STYLE
 70
    30
  0
STYLE
  2
STANDARD
 70
     0
 40
0.0
 41
1.0
 50
0.0
 71
     0
 42
0.2
  3
txt
  4

  0
STYLE
  2
ISO
 70
     0
 40
0.0
 41
1.0
 50
0.0
 71
     0
 42
3.5
  3
txt
  4

  0
STYLE
  2

 70
     1
 40
0.0
 41
1.0
 50
0.0
 71
     0
 42
0.2
  3
ltypeshp.shx
  4

  0
STYLE
  2
BYGG-035273$0$STANDARD
 70
     0
 40
0.0
 41
1.0
 50
0.0
 71
     0
 42
0.2
  3
txt
  4

  0
STYLE
  2
BYGG-035273$0$ISO
 70
     0
 40
0.0
 41
1.0
 50
0.0
 71
     0
 42
3.5
  3
txt
  4

  0
STYLE
  2
BYGG-028980$0$STANDARD
 70
     0
 40
0.0
 41
1.0
 50
0.0
 71
     0
 42
0.2
  3
txt
  4

  0
STYLE
  2
BYGG-028980$0$ISO
 70
     0
 40
0.0
 41
1.0
 50
0.0
 71
     0
 42
3.5
  3
txt
  4

  0
STYLE
  2
BYGG-024882$0$STANDARD
 70
     0
 40
0.0
 41
1.0
 50
0.0
 71
     0
 42
0.2
  3
txt
  4

  0
STYLE
  2
BYGG-024882$0$ISO
 70
     0
 40
0.0
 41
1.0
 50
0.0
 71
     0
 42
3.5
  3
txt
  4

  0
STYLE
  2
BYGG-020132$0$STANDARD
 70
     0
 40
0.0
 41
1.0
 50
0.0
 71
     0
 42
0.2
  3
txt
  4

  0
STYLE
  2
BYGG-020132$0$ISO
 70
     0
 40
0.0
 41
1.0
 50
0.0
 71
     0
 42
3.5
  3
txt
  4

  0
STYLE
  2
BYGG-014090$0$STANDARD
 70
     0
 40
0.0
 41
1.0
 50
0.0
 71
     0
 42
0.2
  3
txt
  4

  0
STYLE
  2
BYGG-014090$0$SIMPLEX
 70
     0
 40
0.0
 41
1.0
 50
0.0
 71
     0
 42
0.2
  3
simplex
  4

  0
STYLE
  2
BYGG-021358$0$STANDARD
 70
     0
 40
0.0
 41
1.0
 50
0.0
 71
     0
 42
0.2
  3
txt
  4

  0
STYLE
  2
BYGG-014196$0$STANDARD
 70
     0
 40
0.0
 41
1.0
 50
0.0
 71
     0
 42
0.2
  3
txt
  4

  0
STYLE
  2
BYGG-014196$0$ISO
 70
     0
 40
0.0
 41
1.0
 50
0.0
 71
     0
 42
3.5
  3
isocp3.shx
  4

  0
STYLE
  2
BYGG-015465$0$STANDARD
 70
     0
 40
0.0
 41
1.0
 50
0.0
 71
     0
 42
0.2
  3
txt
  4

  0
STYLE
  2
BYGG-015465$0$ISO
 70
     0
 40
0.0
 41
1.0
 50
0.0
 71
     0
 42
3.5
  3
txt
  4

  0
STYLE
  2
BYGG-01443301$0$STANDARD
 70
     0
 40
0.0
 41
1.0
 50
0.0
 71
     0
 42
0.2
  3
txt
  4

  0
STYLE
  2
BYGG-01443301$0$ISO
 70
     0
 40
0.0
 41
1.0
 50
0.0
 71
     0
 42
3.5
  3
isocp3.shx
  4

  0
STYLE
  2
BYGG-025652$0$STANDARD
 70
     0
 40
0.0
 41
1.0
 50
0.0
 71
     0
 42
0.2
  3
txt
  4

  0
STYLE
  2
BYGG-025652$0$ISO
 70
     0
 40
0.0
 41
1.0
 50
0.0
 71
     0
 42
3.5
  3
txt
  4

  0
STYLE
  2
BYGG-025652$0$ANNOTATIVE
 70
     0
 40
0.0
 41
1.0
 50
0.0
 71
     0
 42
0.2
  3
txt
  4

  0
STYLE
  2
BYGG-014411$0$STANDARD
 70
     0
 40
0.0
 41
1.0
 50
0.0
 71
     0
 42
0.2
  3
txt
  4

  0
STYLE
  2
BYGG-014411$0$ISO
 70
     0
 40
0.0
 41
1.0
 50
0.0
 71
     0
 42
3.5
  3
isocp3.shx
  4

  0
STYLE
  2
BYGG-014088$0$STANDARD
 70
     0
 40
0.0
 41
1.0
 50
0.0
 71
     0
 42
0.4
  3
txt
  4

  0
STYLE
  2
BYGG-036387$0$STANDARD
 70
     0
 40
0.0
 41
1.0
 50
0.0
 71
     0
 42
0.2
  3
txt
  4

  0
STYLE
  2
BYGG-036387$0$ISO
 70
     0
 40
0.0
 41
1.0
 50
0.0
 71
     0
 42
3.5
  3
txt
  4

  0
STYLE
  2
BYGG-036386$0$STANDARD
 70
     0
 40
0.0
 41
1.0
 50
0.0
 71
     0
 42
0.2
  3
txt
  4

  0
STYLE
  2
BYGG-036386$0$ISO
 70
     0
 40
0.0
 41
1.0
 50
0.0
 71
     0
 42
3.5
  3
txt
  4

  0
ENDTAB
  0
TABLE
  2
VIEW
 70
     0
  0
ENDTAB
  0
TABLE
  2
UCS
 70
     0
  0
ENDTAB
  0
TABLE
  2
APPID
 70
    41
  0
APPID
  2
ACAD
 70
     0
  0
APPID
  2
ACAD_DSTYLE_DIMTEXT_FILL
 70
     0
  0
APPID
  2
ACAD_DSTYLE_DIMEXT_LENGTH
 70
     0
  0
APPID
  2
ACAD_DSTYLE_DIMEXT_ENABLED
 70
     0
  0
APPID
  2
ACAD_DSTYLE_DIM_LINETYPE
 70
     0
  0
APPID
  2
ACAD_DSTYLE_DIM_EXT1_LINETYPE
 70
     0
  0
APPID
  2
ACAD_DSTYLE_DIM_EXT2_LINETYPE
 70
     0
  0
APPID
  2
ACAD_DSTYLE_DIMJOGGED_JOGA
 70
     0
  0
APPID
  2
ACAD_DSTYLE_DIMARC_LENGTH_
 70
     0
  0
APPID
  2
ACAD_PSEXT
 70
     0
  0
APPID
  2
ACAD_MLEADERVER
 70
     0
  0
APPID
  2
ACAD_NAV_VCDISPLAY
 70
     0
  0
APPID
  2
ACAD_DSTYLE_DIMRADIAL_EXTENSION
 70
     0
  0
APPID
  2
ACAD_EXEMPT_FROM_CAD_STANDARDS
 70
     0
  0
APPID
  2
ACAD_OBJECT_CHANGE_GUID
 70
     0
  0
APPID
  2
ACADANNOTATIVE
 70
     0
  0
APPID
  2
ACAECLAYERSTANDARD
 70
     0
  0
APPID
  2
ACCMTRANSPARENCY
 70
     0
  0
APPID
  2
ACDBDYNAMICBLOCKGUID
 70
     0
  0
APPID
  2
ACDBBLOCKREPETAG
 70
     0
  0
APPID
  2
AMG_ARCHIVE11
 70
     0
  0
APPID
  2
GRADIENTCOLOR1ACI
 70
     0
  0
APPID
  2
GRADIENTCOLOR2ACI
 70
     0
  0
APPID
  2
DCO15
 70
     0
  0
APPID
  2
PE_URL
 70
     0
  0
APPID
  2
ACAUTHENVIRON
 70
     0
  0
APPID
  2
ACDBDYNAMICBLOCKTRUENAME
 70
     0
  0
APPID
  2
ACAD_DSTYLE_DIMJAG
 70
     0
  0
APPID
  2
ACAD_DSTYLE_DIMTALN
 70
     0
  0
APPID
  2
ACDBBLOCKREPBTAG
 70
     0
  0
APPID
  2
GENIUS_GENREC_14
 70
     0
  0
APPID
  2
GENIUS_GENOBJ-N-REC_13
 70
     0
  0
APPID
  2
GENIUS_GENODEF_13
 70
     0
  0
APPID
  2
GENIUS_GENTRA_14
 70
     0
  0
APPID
  2
GENIUS_GENOREF_13
 70
     0
  0
APPID
  2
GENIUS_GENSCREG_15
 70
     0
  0
APPID
  2
GENIUS_GENOBJ-N-SDF_13
 70
     0
  0
APPID
  2
ACADANNOPO
 70
     0
  0
APPID
  2
ACADBPTGRAPHNODEID
 70
     0
  0
APPID
  2
ACDBATTR
 70
     0
  0
APPID
  2
ACADANNOMONITORALERTICONDI
 70
     0
  0
ENDTAB
  0
TABLE
  2
DIMSTYLE
 70
    26
  0
DIMSTYLE
  2
STANDARD
 70
     0
  3

  4

  5

  6

  7

 40
1.0
 41
0.18
 42
0.0625
 43
0.38
 44
0.18
 45
0.0
 46
0.0
 47
0.0
 48
0.0
140
0.18
141
0.09
142
0.0
143
25.399999999999999
144
1.0
145
0.0
146
1.0
147
0.09
 71
     0
 72
     0
 73
     1
 74
     1
 75
     0
 76
     0
 77
     0
 78
     0
170
     0
171
     2
172
     0
173
     0
174
     0
175
     0
176
     0
177
     0
178
     0
  0
DIMSTYLE
  2
MASKIN
 70
     0
  3

  4

  5

  6

  7

 40
0.0
 41
3.0
 42
1.5
 43
10.0
 44
1.5
 45
0.0
 46
0.0
 47
0.0
 48
0.0
140
3.0
141
-5.0
142
0.0
143
25.399999999999999
144
-1.0
145
0.0
146
1.0
147
1.0
 71
     0
 72
     0
 73
     0
 74
     0
 75
     0
 76
     0
 77
     1
 78
     8
170
     0
171
     0
172
     1
173
     0
174
     0
175
     0
176
   256
177
   256
178
     2
  0
DIMSTYLE
  2
BYGG-035273$0$STANDARD
 70
     0
  3

  4

  5

  6

  7

 40
1.0
 41
0.18
 42
0.0625
 43
0.38
 44
0.18
 45
0.0
 46
0.0
 47
0.0
 48
0.0
140
0.18
141
0.09
142
0.0
143
25.399999999999999
144
1.0
145
0.0
146
1.0
147
0.09
 71
     0
 72
     0
 73
     1
 74
     1
 75
     0
 76
     0
 77
     0
 78
     0
170
     0
171
     2
172
     0
173
     0
174
     0
175
     0
176
     0
177
     0
178
     0
  0
DIMSTYLE
  2
BYGG-035273$0$MASKIN
 70
     0
  3

  4

  5

  6

  7

 40
0.0
 41
3.0
 42
1.5
 43
10.0
 44
1.5
 45
0.0
 46
0.0
 47
0.0
 48
0.0
140
3.0
141
-5.0
142
0.0
143
25.399999999999999
144
-1.0
145
0.0
146
1.0
147
1.0
 71
     0
 72
     0
 73
     0
 74
     0
 75
     0
 76
     0
 77
     1
 78
     8
170
     0
171
     0
172
     1
173
     0
174
     0
175
     0
176
   256
177
   256
178
     2
  0
DIMSTYLE
  2
BYGG-028980$0$STANDARD
 70
     0
  3

  4

  5

  6

  7

 40
1.0
 41
0.18
 42
0.0625
 43
0.38
 44
0.18
 45
0.0
 46
0.0
 47
0.0
 48
0.0
140
0.18
141
0.09
142
0.0
143
25.399999999999999
144
1.0
145
0.0
146
1.0
147
0.09
 71
     0
 72
     0
 73
     1
 74
     1
 75
     0
 76
     0
 77
     0
 78
     0
170
     0
171
     2
172
     0
173
     0
174
     0
175
     0
176
     0
177
     0
178
     0
  0
DIMSTYLE
  2
BYGG-028980$0$MASKIN
 70
     0
  3

  4

  5

  6

  7

 40
0.0
 41
3.0
 42
1.5
 43
10.0
 44
1.5
 45
0.0
 46
0.0
 47
0.0
 48
0.0
140
3.0
141
-5.0
142
0.0
143
25.399999999999999
144
-1.0
145
0.0
146
1.0
147
1.0
 71
     0
 72
     0
 73
     0
 74
     0
 75
     0
 76
     0
 77
     1
 78
     8
170
     0
171
     0
172
     1
173
     0
174
     0
175
     0
176
   256
177
   256
178
     2
  0
DIMSTYLE
  2
BYGG-024882$0$STANDARD
 70
     0
  3

  4

  5

  6

  7

 40
1.0
 41
0.18
 42
0.0625
 43
0.38
 44
0.18
 45
0.0
 46
0.0
 47
0.0
 48
0.0
140
0.18
141
0.09
142
0.0
143
25.399999999999999
144
1.0
145
0.0
146
1.0
147
0.09
 71
     0
 72
     0
 73
     1
 74
     1
 75
     0
 76
     0
 77
     0
 78
     0
170
     0
171
     2
172
     0
173
     0
174
     0
175
     0
176
     0
177
     0
178
     0
  0
DIMSTYLE
  2
BYGG-024882$0$MASKIN
 70
     0
  3

  4

  5

  6

  7

 40
0.0
 41
3.0
 42
1.5
 43
10.0
 44
1.5
 45
0.0
 46
0.0
 47
0.0
 48
0.0
140
3.0
141
-5.0
142
0.0
143
25.399999999999999
144
-1.0
145
0.0
146
1.0
147
1.0
 71
     0
 72
     0
 73
     0
 74
     0
 75
     0
 76
     0
 77
     1
 78
     8
170
     0
171
     0
172
     1
173
     0
174
     0
175
     0
176
   256
177
   256
178
     2
  0
DIMSTYLE
  2
BYGG-020132$0$MASKIN
 70
     0
  3

  4

  5

  6

  7

 40
0.0
 41
3.0
 42
1.5
 43
10.0
 44
1.5
 45
0.0
 46
0.0
 47
0.0
 48
0.0
140
3.0
141
-5.0
142
0.0
143
25.399999999999999
144
-1.0
145
0.0
146
1.0
147
1.0
 71
     0
 72
     0
 73
     0
 74
     0
 75
     0
 76
     0
 77
     1
 78
     8
170
     0
171
     0
172
     1
173
     0
174
     0
175
     0
176
   256
177
   256
178
     2
  0
DIMSTYLE
  2
BYGG-020132$0$STANDARD
 70
     0
  3

  4

  5

  6

  7

 40
1.0
 41
0.18
 42
0.0625
 43
0.38
 44
0.18
 45
0.0
 46
0.0
 47
0.0
 48
0.0
140
0.18
141
0.09
142
0.0
143
25.399999999999999
144
1.0
145
0.0
146
1.0
147
0.09
 71
     0
 72
     0
 73
     1
 74
     1
 75
     0
 76
     0
 77
     0
 78
     0
170
     0
171
     2
172
     0
173
     0
174
     0
175
     0
176
     0
177
     0
178
     0
  0
DIMSTYLE
  2
BYGG-014090$0$STANDARD
 70
     0
  3

  4

  5

  6

  7

 40
1.0
 41
0.18
 42
0.0625
 43
0.38
 44
0.18
 45
0.0
 46
0.0
 47
0.0
 48
0.0
140
0.18
141
0.09
142
0.0
143
25.399999999999999
144
1.0
145
0.0
146
1.0
147
0.09
 71
     0
 72
     0
 73
     1
 74
     1
 75
     0
 76
     0
 77
     0
 78
     0
170
     0
171
     2
172
     0
173
     0
174
     0
175
     0
176
     0
177
     0
178
     0
  0
DIMSTYLE
  2
BYGG-021358$0$STANDARD
 70
     0
  3

  4

  5

  6

  7

 40
1.0
 41
0.18
 42
0.0625
 43
0.38
 44
0.18
 45
0.0
 46
0.0
 47
0.0
 48
0.0
140
0.18
141
0.09
142
0.0
143
25.399999999999999
144
1.0
145
0.0
146
1.0
147
0.09
 71
     0
 72
     0
 73
     1
 74
     1
 75
     0
 76
     0
 77
     0
 78
     0
170
     0
171
     2
172
     0
173
     0
174
     0
175
     0
176
     0
177
     0
178
     0
  0
DIMSTYLE
  2
BYGG-014196$0$MASKIN
 70
     0
  3

  4

  5

  6

  7

 40
0.0
 41
3.0
 42
1.5
 43
10.0
 44
1.5
 45
0.0
 46
0.0
 47
0.0
 48
0.0
140
3.0
141
-5.0
142
0.0
143
25.399999999999999
144
-1.0
145
0.0
146
1.0
147
1.0
 71
     0
 72
     0
 73
     0
 74
     0
 75
     0
 76
     0
 77
     1
 78
     8
170
     0
171
     0
172
     1
173
     0
174
     0
175
     0
176
   256
177
   256
178
   256
  0
DIMSTYLE
  2
BYGG-015465$0$STANDARD
 70
     0
  3

  4

  5

  6

  7

 40
1.0
 41
0.18
 42
0.0625
 43
0.38
 44
0.18
 45
0.0
 46
0.0
 47
0.0
 48
0.0
140
0.18
141
0.09
142
0.0
143
25.399999999999999
144
1.0
145
0.0
146
1.0
147
0.09
 71
     0
 72
     0
 73
     1
 74
     1
 75
     0
 76
     0
 77
     0
 78
     0
170
     0
171
     2
172
     0
173
     0
174
     0
175
     0
176
     0
177
     0
178
     0
  0
DIMSTYLE
  2
BYGG-015465$0$MASKIN
 70
     0
  3

  4

  5

  6

  7

 40
0.0
 41
3.0
 42
1.5
 43
10.0
 44
1.5
 45
0.0
 46
0.0
 47
0.0
 48
0.0
140
3.0
141
-5.0
142
0.0
143
25.399999999999999
144
-1.0
145
0.0
146
1.0
147
1.0
 71
     0
 72
     0
 73
     0
 74
     0
 75
     0
 76
     0
 77
     1
 78
     8
170
     0
171
     0
172
     1
173
     0
174
     0
175
     0
176
   256
177
   256
178
     2
  0
DIMSTYLE
  2
BYGG-01443301$0$MASKIN
 70
     0
  3

  4

  5

  6

  7

 40
0.0
 41
3.0
 42
1.5
 43
10.0
 44
1.5
 45
0.0
 46
0.0
 47
0.0
 48
0.0
140
3.0
141
-5.0
142
0.0
143
25.399999999999999
144
-1.0
145
0.0
146
1.0
147
1.0
 71
     0
 72
     0
 73
     0
 74
     0
 75
     0
 76
     0
 77
     1
 78
     8
170
     0
171
     0
172
     1
173
     0
174
     0
175
     0
176
   256
177
   256
178
   256
  0
DIMSTYLE
  2
BYGG-025652$0$STANDARD
 70
     0
  3

  4

  5

  6

  7

 40
1.0
 41
0.18
 42
0.0625
 43
0.38
 44
0.18
 45
0.0
 46
0.0
 47
0.0
 48
0.0
140
0.18
141
0.09
142
0.0
143
25.399999999999999
144
1.0
145
0.0
146
1.0
147
0.09
 71
     0
 72
     0
 73
     1
 74
     1
 75
     0
 76
     0
 77
     0
 78
     0
170
     0
171
     2
172
     0
173
     0
174
     0
175
     0
176
     0
177
     0
178
     0
  0
DIMSTYLE
  2
BYGG-025652$0$MASKIN
 70
     0
  3

  4

  5

  6

  7

 40
0.0
 41
3.0
 42
1.5
 43
10.0
 44
1.5
 45
0.0
 46
0.0
 47
0.0
 48
0.0
140
3.0
141
-5.0
142
0.0
143
25.399999999999999
144
-1.0
145
0.0
146
1.0
147
1.0
 71
     0
 72
     0
 73
     0
 74
     0
 75
     0
 76
     0
 77
     1
 78
     8
170
     0
171
     0
172
     1
173
     0
174
     0
175
     0
176
   256
177
   256
178
     2
  0
DIMSTYLE
  2
BYGG-025652$0$ANNOTATIVE
 70
     0
  3

  4

  5

  6

  7

 40
1.0
 41
0.18
 42
0.0625
 43
0.38
 44
0.18
 45
0.0
 46
0.0
 47
0.0
 48
0.0
140
0.18
141
0.09
142
0.0
143
25.399999999999999
144
1.0
145
0.0
146
1.0
147
0.09
 71
     0
 72
     0
 73
     1
 74
     1
 75
     0
 76
     0
 77
     0
 78
     0
170
     0
171
     2
172
     0
173
     0
174
     0
175
     0
176
     0
177
     0
178
     0
  0
DIMSTYLE
  2
BYGG-014411$0$MASKIN
 70
     0
  3

  4

  5

  6

  7

 40
0.0
 41
3.0
 42
1.5
 43
10.0
 44
1.5
 45
0.0
 46
0.0
 47
0.0
 48
0.0
140
3.0
141
-5.0
142
0.0
143
25.399999999999999
144
-1.0
145
0.0
146
1.0
147
1.0
 71
     0
 72
     0
 73
     0
 74
     0
 75
     0
 76
     0
 77
     1
 78
     8
170
     0
171
     0
172
     1
173
     0
174
     0
175
     0
176
   256
177
   256
178
   256
  0
DIMSTYLE
  2
BYGG-014411$0$STANDARD
 70
     0
  3

  4

  5

  6

  7

 40
1.0
 41
0.18
 42
0.0625
 43
0.38
 44
0.18
 45
0.0
 46
0.0
 47
0.0
 48
0.0
140
0.18
141
0.09
142
0.0
143
25.399999999999999
144
1.0
145
0.0
146
1.0
147
0.09
 71
     0
 72
     0
 73
     1
 74
     1
 75
     0
 76
     0
 77
     0
 78
     0
170
     0
171
     2
172
     0
173
     0
174
     0
175
     0
176
     0
177
     0
178
     0
  0
DIMSTYLE
  2
BYGG-014088$0$STANDARD
 70
     0
  3

  4

  5

  6

  7

 40
1.0
 41
0.18
 42
0.0625
 43
0.38
 44
0.18
 45
0.0
 46
0.0
 47
0.0
 48
0.0
140
0.18
141
0.09
142
0.0
143
25.399999999999999
144
1.0
145
0.0
146
1.0
147
0.09
 71
     0
 72
     0
 73
     1
 74
     1
 75
     0
 76
     0
 77
     0
 78
     0
170
     0
171
     2
172
     0
173
     0
174
     0
175
     0
176
     0
177
     0
178
     0
  0
DIMSTYLE
  2
BYGG-036387$0$STANDARD
 70
     0
  3

  4

  5

  6

  7

 40
1.0
 41
0.18
 42
0.0625
 43
0.38
 44
0.18
 45
0.0
 46
0.0
 47
0.0
 48
0.0
140
0.18
141
0.09
142
0.0
143
25.399999999999999
144
1.0
145
0.0
146
1.0
147
0.09
 71
     0
 72
     0
 73
     1
 74
     1
 75
     0
 76
     0
 77
     0
 78
     0
170
     0
171
     2
172
     0
173
     0
174
     0
175
     0
176
     0
177
     0
178
     0
  0
DIMSTYLE
  2
BYGG-036387$0$MASKIN
 70
     0
  3

  4

  5

  6

  7

 40
0.0
 41
3.0
 42
1.5
 43
10.0
 44
1.5
 45
0.0
 46
0.0
 47
0.0
 48
0.0
140
3.0
141
-5.0
142
0.0
143
25.399999999999999
144
-1.0
145
0.0
146
1.0
147
1.0
 71
     0
 72
     0
 73
     0
 74
     0
 75
     0
 76
     0
 77
     1
 78
     8
170
     0
171
     0
172
     1
173
     0
174
     0
175
     0
176
   256
177
   256
178
     2
  0
DIMSTYLE
  2
BYGG-036386$0$STANDARD
 70
     0
  3

  4

  5

  6

  7

 40
1.0
 41
0.18
 42
0.0625
 43
0.38
 44
0.18
 45
0.0
 46
0.0
 47
0.0
 48
0.0
140
0.18
141
0.09
142
0.0
143
25.399999999999999
144
1.0
145
0.0
146
1.0
147
0.09
 71
     0
 72
     0
 73
     1
 74
     1
 75
     0
 76
     0
 77
     0
 78
     0
170
     0
171
     2
172
     0
173
     0
174
     0
175
     0
176
     0
177
     0
178
     0
  0
DIMSTYLE
  2
BYGG-036386$0$MASKIN
 70
     0
  3

  4

  5

  6

  7

 40
0.0
 41
3.0
 42
1.5
 43
10.0
 44
1.5
 45
0.0
 46
0.0
 47
0.0
 48
0.0
140
3.0
141
-5.0
142
0.0
143
25.399999999999999
144
-1.0
145
0.0
146
1.0
147
1.0
 71
     0
 72
     0
 73
     0
 74
     0
 75
     0
 76
     0
 77
     1
 78
     8
170
     0
171
     0
172
     1
173
     0
174
     0
175
     0
176
   256
177
   256
178
     2
  0
ENDTAB
  0
ENDSEC
  0
SECTION
  2
BLOCKS
  0
BLOCK
  8
0
  2
$MODEL_SPACE
 70
     0
 10
0.0
 20
0.0
 30
0.0
  3
$MODEL_SPACE
  1

  0
ENDBLK
  5
37
  8
0
  0
BLOCK
 67
     1
  8
0
  2
$PAPER_SPACE
 70
     0
 10
0.0
 20
0.0
 30
0.0
  3
$PAPER_SPACE
  1

  0
ENDBLK
  5
35
 67
     1
  8
0
  0
BLOCK
  8
0
  2
*D79
 70
     1
 10
0.0
 20
0.0
 30
0.0
  3
*D79
  1

  0
LINE
  5
132C
  8
SAPA_MATT
 10
-0.970878311507473
 20
-0.0087615851946335
 30
0.0
 11
-22.144279152199271
 21
-0.0087615851946275
 31
0.0
  0
LINE
  5
132D
  8
SAPA_MATT
 10
-1.170878311400505
 20
96.991238414769825
 30
0.0
 11
-22.144279152199239
 21
96.991238414769825
 31
0.0
  0
LINE
  5
132E
  8
SAPA_MATT
 10
-20.64427915219926
 20
2.991238414805371
 30
0.0
 11
-20.644279152199239
 21
93.991238414769811
 31
0.0
  0
SOLID
  5
132F
  8
SAPA_MATT
 10
-21.144279152199271
 20
2.9912384148053719
 30
0.0
 11
-20.14427915219926
 21
2.991238414805371
 31
0.0
 12
-20.64427915219926
 22
-0.0087615851946279
 32
0.0
 13
-20.64427915219926
 23
-0.0087615851946279
 33
0.0
  0
SOLID
  5
1330
  8
SAPA_MATT
 10
-21.144279152199239
 20
93.991238414769811
 30
0.0
 11
-20.144279152199239
 21
93.991238414769811
 31
0.0
 12
-20.644279152199239
 22
96.991238414769825
 32
0.0
 13
-20.644279152199239
 23
96.991238414769825
 33
0.0
  0
INSERT
  5
1331
  8
0
  2
*U95
 10
0.0
 20
0.0
 30
0.0
  0
POINT
  5
1332
  8
DEFPOINTS
 62
     0
 10
0.5291216884925271
 20
-0.0087615851946339
 30
0.0
  0
POINT
  5
1333
  8
DEFPOINTS
 62
     0
 10
0.3291216885994945
 20
96.991238414769825
 30
0.0
  0
POINT
  5
1334
  8
DEFPOINTS
 62
     0
 10
-20.644279152199239
 20
96.991238414769825
 30
0.0
  0
ENDBLK
  5
12F8
  8
0
  0
BLOCK
  8
0
  2
*D80
 70
     1
 10
0.0
 20
0.0
 30
0.0
  3
*D80
  1

  0
LINE
  5
1323
  8
SAPA_MATT
 10
0.0291216885204938
 20
-1.008761585194633
 30
0.0
 11
0.0291216885204916
 21
-36.82908570194536
 31
0.0
  0
LINE
  5
1324
  8
SAPA_MATT
 10
86.029121685193786
 20
20.691238414657271
 30
0.0
 11
86.029121685193786
 21
-36.82908570194536
 31
0.0
  0
LINE
  5
1325
  8
SAPA_MATT
 10
3.0291216885204908
 20
-35.32908570194536
 30
0.0
 11
83.029121685193786
 21
-35.32908570194536
 31
0.0
  0
SOLID
  5
1326
  8
SAPA_MATT
 10
3.0291216885204908
 20
-34.82908570194536
 30
0.0
 11
3.0291216885204908
 21
-35.82908570194536
 31
0.0
 12
0.0291216885204917
 22
-35.32908570194536
 32
0.0
 13
0.0291216885204917
 23
-35.32908570194536
 33
0.0
  0
SOLID
  5
1327
  8
SAPA_MATT
 10
83.029121685193786
 20
-34.82908570194536
 30
0.0
 11
83.029121685193786
 21
-35.82908570194536
 31
0.0
 12
86.029121685193786
 22
-35.32908570194536
 32
0.0
 13
86.029121685193786
 23
-35.32908570194536
 33
0.0
  0
INSERT
  5
1328
  8
0
  2
*U94
 10
0.0
 20
0.0
 30
0.0
  0
POINT
  5
1329
  8
DEFPOINTS
 62
     0
 10
0.0291216885204939
 20
0.4912384148053662
 30
0.0
  0
POINT
  5
132A
  8
DEFPOINTS
 62
     0
 10
86.029121685193786
 20
22.191238414657271
 30
0.0
  0
POINT
  5
132B
  8
DEFPOINTS
 62
     0
 10
86.029121685193786
 20
-35.32908570194536
 30
0.0
  0
ENDBLK
  5
1304
  8
0
  0
BLOCK
  8
0
  2
*D81
 70
     1
 10
0.0
 20
0.0
 30
0.0
  3
*D81
  1

  0
LINE
  5
131A
  8
SAPA_MATT
 10
85.629121685193354
 20
-0.0087615853498168
 30
0.0
 11
109.8328899039161
 21
-0.0087615853498237
 31
0.0
  0
LINE
  5
131B
  8
SAPA_MATT
 10
87.329121685193755
 20
51.991238414656991
 30
0.0
 11
109.8328899039161
 21
51.991238414656991
 31
0.0
  0
LINE
  5
131C
  8
SAPA_MATT
 10
108.3328899039161
 20
2.991238414650176
 30
0.0
 11
108.3328899039161
 21
48.991238414656991
 31
0.0
  0
SOLID
  5
131D
  8
SAPA_MATT
 10
107.8328899039161
 20
2.991238414650176
 30
0.0
 11
108.8328899039161
 21
2.991238414650176
 31
0.0
 12
108.3328899039161
 22
-0.0087615853498233
 32
0.0
 13
108.3328899039161
 23
-0.0087615853498233
 33
0.0
  0
SOLID
  5
131E
  8
SAPA_MATT
 10
107.8328899039161
 20
48.991238414656991
 30
0.0
 11
108.8328899039161
 21
48.991238414656991
 31
0.0
 12
108.3328899039161
 22
51.991238414656991
 32
0.0
 13
108.3328899039161
 23
51.991238414656991
 33
0.0
  0
INSERT
  5
131F
  8
0
  2
*U93
 10
0.0
 20
0.0
 30
0.0
  0
POINT
  5
1320
  8
DEFPOINTS
 62
     0
 10
84.129121685193354
 20
-0.0087615853498164
 30
0.0
  0
POINT
  5
1321
  8
DEFPOINTS
 62
     0
 10
85.829121685193741
 20
51.991238414656991
 30
0.0
  0
POINT
  5
1322
  8
DEFPOINTS
 62
     0
 10
108.3328899039161
 20
51.991238414656991
 30
0.0
  0
ENDBLK
  5
1310
  8
0
  0
BLOCK
  8
0
  2
*D82
 70
     1
 10
0.0
 20
0.0
 30
0.0
  3
*D82
  1

  0
LINE
  5
1341
  8
SAPA_MATT
 10
9.8296921328924896
 20
133.49271459872941
 30
0.0
 11
9.8296921328924913
 21
151.75452761490931
 31
0.0
  0
LINE
  5
1342
  8
SAPA_MATT
 10
249.82969213289249
 20
133.49271459872941
 30
0.0
 11
249.82969213289249
 21
151.75452761490931
 31
0.0
  0
LINE
  5
1343
  8
SAPA_MATT
 10
12.82969213289249
 20
150.25452761490931
 30
0.0
 11
246.82969213289249
 21
150.25452761490931
 31
0.0
  0
SOLID
  5
1344
  8
SAPA_MATT
 10
12.82969213289249
 20
150.75452761490931
 30
0.0
 11
12.82969213289249
 21
149.75452761490931
 31
0.0
 12
9.8296921328924913
 22
150.25452761490931
 32
0.0
 13
9.8296921328924913
 23
150.25452761490931
 33
0.0
  0
SOLID
  5
1345
  8
SAPA_MATT
 10
246.82969213289249
 20
150.75452761490931
 30
0.0
 11
246.82969213289249
 21
149.75452761490931
 31
0.0
 12
249.82969213289249
 22
150.25452761490931
 32
0.0
 13
249.82969213289249
 23
150.25452761490931
 33
0.0
  0
INSERT
  5
1346
  8
0
  2
*U96
 10
0.0
 20
0.0
 30
0.0
  0
POINT
  5
1347
  8
DEFPOINTS
 62
     0
 10
9.8296921328924896
 20
131.99271459872941
 30
0.0
  0
POINT
  5
1348
  8
DEFPOINTS
 62
     0
 10
249.82969213289249
 20
131.99271459872941
 30
0.0
  0
POINT
  5
1349
  8
DEFPOINTS
 62
     0
 10
249.82969213289249
 20
150.25452761490931
 30
0.0
  0
ENDBLK
  5
1337
  8
0
  0
BLOCK
  8
0
  2
*X83
 70
     1
 10
0.0
 20
0.0
 30
0.0
  3
*X83
  1

  0
LINE
  5
1A2C
  8
0
 62
     0
 10
255.41035604116109
 20
93.483120715016426
 30
0.0
 11
255.5583569230034
 21
93.739465761932223
 31
0.0
  0
LINE
  5
1A2D
  8
0
 62
     0
 10
254.21973104116111
 20
91.420897722254736
 30
0.0
 11
254.61660604116111
 21
92.108305386508633
 31
0.0
  0
LINE
  5
1A2E
  8
0
 62
     0
 10
253.1143063483247
 20
89.506245990320821
 30
0.0
 11
253.42598104116109
 21
90.046082393746957
 31
0.0
  0
LINE
  5
1A2F
  8
0
 62
     0
 10
254.21973132565719
 20
94.170528215016404
 30
0.0
 11
254.61660632565719
 21
94.857935879270315
 31
0.0
  0
LINE
  5
1A30
  8
0
 62
     0
 10
253.02910632565721
 20
92.108305222254728
 30
0.0
 11
253.4259813256572
 21
92.795712886508625
 31
0.0
  0
LINE
  5
1A31
  8
0
 62
     0
 10
251.8384813256572
 20
90.046082229493038
 30
0.0
 11
252.23535632565719
 21
90.733489893746935
 31
0.0
  0
LINE
  5
1A32
  8
0
 62
     0
 10
253.02910661015329
 20
94.857935715016396
 30
0.0
 11
253.36753367561371
 21
95.444108587050266
 31
0.0
  0
LINE
  5
1A33
  8
0
 62
     0
 10
251.83848161015331
 20
92.795712722254706
 30
0.0
 11
252.2353566101533
 21
93.483120386508602
 31
0.0
  0
LINE
  5
1A34
  8
0
 62
     0
 10
250.6478566101533
 20
90.733489729493016
 30
0.0
 11
251.04473161015329
 21
91.420897393746912
 31
0.0
  0
LINE
  5
1A35
  8
0
 62
     0
 10
250.64785689464941
 20
93.483120222254726
 30
0.0
 11
251.0447318946494
 21
94.170527886508609
 31
0.0
  0
LINE
  5
1A36
  8
0
 62
     0
 10
254.61659124736411
 20
93.483094105884916
 30
0.0
 11
254.21971624736409
 21
94.170501770138813
 31
0.0
  0
LINE
  5
1A37
  8
0
 62
     0
 10
255.69728272423461
 20
91.611281560638574
 30
0.0
 11
255.4103412473641
 21
92.108278777377109
 31
0.0
  0
LINE
  5
1A38
  8
0
 62
     0
 10
252.2353415318602
 20
94.857909598646586
 30
0.0
 11
251.9457324036342
 21
95.359527323069699
 31
0.0
  0
LINE
  5
1A39
  8
0
 62
     0
 10
253.42596653186021
 20
92.795686605884896
 30
0.0
 11
253.02909153186019
 21
93.483094270138778
 31
0.0
  0
LINE
  5
1A3A
  8
0
 62
     0
 10
254.61659153186019
 20
90.733463613123206
 30
0.0
 11
254.2197165318602
 21
91.420871277377103
 31
0.0
  0
LINE
  5
1A3B
  8
0
 62
     0
 10
251.0447168163563
 20
94.170502098646594
 30
0.0
 11
250.759705774281
 21
94.664155704239306
 31
0.0
  0
LINE
  5
1A3C
  8
0
 62
     0
 10
252.23534181635631
 20
92.108279105884904
 30
0.0
 11
251.83846681635629
 21
92.795686770138815
 31
0.0
  0
LINE
  5
1A3D
  8
0
 62
     0
 10
253.42596681635629
 20
90.046056113123228
 30
0.0
 11
253.0290918163563
 21
90.733463777377125
 31
0.0
  0
LINE
  5
1A3E
  8
0
 62
     0
 10
251.04471710085241
 20
91.420871605884912
 30
0.0
 11
250.64784210085239
 21
92.108279270138794
 31
0.0
  0
LINE
  5
1A3F
  8
0
 62
     0
 10
252.10691968936939
 20
89.581082754642253
 30
0.0
 11
251.8384671008524
 21
90.046056277377119
 31
0.0
  0
LINE
  5
1A40
  8
0
 62
     0
 10
254.6166216884464
 20
90.733464598646634
 30
0.0
 11
255.2597208235845
 21
90.733464598646634
 31
0.0
  0
LINE
  5
1A41
  8
0
 62
     0
 10
252.23537168844641
 20
90.733464598646634
 30
0.0
 11
253.02912168844651
 21
90.733464598646634
 31
0.0
  0
LINE
  5
1A42
  8
0
 62
     0
 10
250.3996634422017
 20
90.733464598646634
 30
0.0
 11
250.64787168844649
 21
90.733464598646634
 31
0.0
  0
LINE
  5
1A43
  8
0
 62
     0
 10
254.6166216884464
 20
92.108279598646646
 30
0.0
 11
255.4103716884465
 21
92.108279598646646
 31
0.0
  0
LINE
  5
1A44
  8
0
 62
     0
 10
252.23537168844641
 20
92.108279598646646
 30
0.0
 11
253.02912168844651
 21
92.108279598646646
 31
0.0
  0
LINE
  5
1A45
  8
0
 62
     0
 10
249.85442580350451
 20
92.108279598646646
 30
0.0
 11
250.64787168844649
 21
92.108279598646646
 31
0.0
  0
LINE
  5
1A46
  8
0
 62
     0
 10
254.6166216884464
 20
93.483094598646645
 30
0.0
 11
255.4103716884465
 21
93.483094598646645
 31
0.0
  0
LINE
  5
1A47
  8
0
 62
     0
 10
252.23537168844641
 20
93.483094598646645
 30
0.0
 11
253.02912168844651
 21
93.483094598646645
 31
0.0
  0
LINE
  5
1A48
  8
0
 62
     0
 10
249.99788220714709
 20
93.483094598646645
 30
0.0
 11
250.64787168844649
 21
93.483094598646645
 31
0.0
  0
LINE
  5
1A49
  8
0
 62
     0
 10
254.6166216884464
 20
94.857909598646629
 30
0.0
 11
254.67518735419929
 21
94.857909598646629
 31
0.0
  0
LINE
  5
1A4A
  8
0
 62
     0
 10
252.23537168844641
 20
94.857909598646629
 30
0.0
 11
253.02912168844651
 21
94.857909598646629
 31
0.0
  0
ENDBLK
  5
1A4C
  8
0
  0
BLOCK
  8
0
  2
*X84
 70
     1
 10
0.0
 20
0.0
 30
0.0
  3
*X84
  1

  0
LINE
  5
1A4E
  8
0
 62
     0
 10
256.8289542610562
 20
96.616240795493795
 30
0.0
 11
256.11694225282378
 21
97.328252803726215
 31
0.0
  0
LINE
  5
1A4F
  8
0
 62
     0
 10
256.26768825348938
 20
96.054974787926952
 30
0.0
 11
254.5835350035899
 21
97.739128037826461
 31
0.0
  0
LINE
  5
1A50
  8
0
 62
     0
 10
255.7064222459226
 20
95.493708780360123
 30
0.0
 11
253.050127754356
 21
98.150003271926721
 31
0.0
  0
LINE
  5
1A51
  8
0
 62
     0
 10
255.37440925854321
 20
94.703189752605908
 30
0.0
 11
251.51672050512209
 21
98.560878506026981
 31
0.0
  0
LINE
  5
1A52
  8
0
 62
     0
 10
253.55014597163139
 20
95.404921024383967
 30
0.0
 11
249.98331325588819
 21
98.971753740127255
 31
0.0
  0
LINE
  5
1A53
  8
0
 62
     0
 10
255.8296921328928
 20
93.125374863122644
 30
0.0
 11
255.7418985586543
 21
93.213168437361134
 31
0.0
  0
LINE
  5
1A54
  8
0
 62
     0
 10
252.37454748583701
 20
95.457987495044748
 30
0.0
 11
249.8296921328926
 21
98.002842847989143
 31
0.0
  0
LINE
  5
1A55
  8
0
 62
     0
 10
251.5188346255475
 20
95.191168340200576
 30
0.0
 11
249.8296921328926
 21
96.880310832855514
 31
0.0
  0
LINE
  5
1A56
  8
0
 62
     0
 10
250.84504800038351
 20
94.74242295023096
 30
0.0
 11
249.8296921328926
 21
95.757778817721885
 31
0.0
  0
LINE
  5
1A57
  8
0
 62
     0
 10
250.32341467463641
 20
94.141524260844449
 30
0.0
 11
249.8296921328926
 21
94.635246802588227
 31
0.0
  0
LINE
  5
1A58
  8
0
 62
     0
 10
249.96355252383671
 20
93.378854396510434
 30
0.0
 11
249.8296921328926
 21
93.512714787454584
 31
0.0
  0
LINE
  5
1A59
  8
0
 62
     0
 10
255.71662852742861
 20
93.308556650679265
 30
0.0
 11
255.8296921328928
 21
93.421620256143413
 31
0.0
  0
LINE
  5
1A5A
  8
0
 62
     0
 10
255.37159448473929
 20
94.086054623123559
 30
0.0
 11
255.6589985497331
 21
94.373458688117424
 31
0.0
  0
LINE
  5
1A5B
  8
0
 62
     0
 10
254.8622434733872
 20
94.699235626905235
 30
0.0
 11
257.20083299985708
 21
97.037825153375081
 31
0.0
  0
LINE
  5
1A5C
  8
0
 62
     0
 10
254.20128554116579
 20
95.160809709817315
 30
0.0
 11
256.31551991173461
 21
97.275044080386195
 31
0.0
  0
LINE
  5
1A5D
  8
0
 62
     0
 10
253.3628941174332
 20
95.444950301218427
 30
0.0
 11
255.43020682361211
 21
97.512263007397337
 31
0.0
  0
LINE
  5
1A5E
  8
0
 62
     0
 10
252.22695380285279
 20
95.431542001771675
 30
0.0
 11
254.5448937354895
 21
97.74948193440845
 31
0.0
  0
LINE
  5
1A5F
  8
0
 62
     0
 10
249.8296921328926
 20
93.034280331811459
 30
0.0
 11
249.89086472974341
 21
93.095452928662255
 31
0.0
  0
LINE
  5
1A60
  8
0
 62
     0
 10
249.8296921328926
 20
94.156812346945117
 30
0.0
 11
253.65958064736711
 21
97.986700861419607
 31
0.0
  0
LINE
  5
1A61
  8
0
 62
     0
 10
249.8296921328926
 20
95.279344362078774
 30
0.0
 11
252.77426755924449
 21
98.22391978843072
 31
0.0
  0
LINE
  5
1A62
  8
0
 62
     0
 10
249.8296921328926
 20
96.401876377212403
 30
0.0
 11
251.8889544711221
 21
98.461138715441848
 31
0.0
  0
LINE
  5
1A63
  8
0
 62
     0
 10
249.8296921328926
 20
97.524408392346075
 30
0.0
 11
251.00364138299949
 21
98.698357642452976
 31
0.0
  0
LINE
  5
1A64
  8
0
 62
     0
 10
249.8296921328926
 20
98.646940407479704
 30
0.0
 11
250.11832829487699
 21
98.935576569464132
 31
0.0
  0
ENDBLK
  5
1A66
  8
0
  0
BLOCK
  8
0
  2
*X85
 70
     1
 10
0.0
 20
0.0
 30
0.0
  3
*X85
  1

  0
LINE
  5
1A68
  8
0
 62
     0
 10
9.8296921328924824
 20
118.3030697735006
 30
0.0
 11
9.7871141095689467
 21
118.3456477968241
 31
0.0
  0
LINE
  5
1A69
  8
0
 62
     0
 10
9.8296921328924824
 20
117.1805377583669
 30
0.0
 11
9.7229694200701147
 21
117.2872604711893
 31
0.0
  0
LINE
  5
1A6A
  8
0
 62
     0
 10
9.8296921328924896
 20
116.05800574323329
 30
0.0
 11
9.3262744930664638
 21
116.56142338305931
 31
0.0
  0
LINE
  5
1A6B
  8
0
 62
     0
 10
9.8296921328924824
 20
114.93547372809959
 30
0.0
 11
8.5775575074712336
 21
116.1876083535208
 31
0.0
  0
LINE
  5
1A6C
  8
0
 62
     0
 10
9.8296921328924824
 20
113.81294171296599
 30
0.0
 11
7.9717908768914816
 21
115.67084296896699
 31
0.0
  0
LINE
  5
1A6D
  8
0
 62
     0
 10
9.8296921328924753
 20
112.69040969783229
 30
0.0
 11
7.9748341801707454
 21
114.54526765055409
 31
0.0
  0
LINE
  5
1A6E
  8
0
 62
     0
 10
9.8296921328924824
 20
111.56787768269869
 30
0.0
 11
8.2625710930776393
 21
113.1349987225135
 31
0.0
  0
LINE
  5
1A6F
  8
0
 62
     0
 10
9.8296921328924824
 20
110.44534566756499
 30
0.0
 11
8.5503080059845331
 21
111.72472979447301
 31
0.0
  0
LINE
  5
1A70
  8
0
 62
     0
 10
9.8296921328924771
 20
109.32281365243141
 30
0.0
 11
8.8380449188914341
 21
110.3144608664324
 31
0.0
  0
LINE
  5
1A71
  8
0
 62
     0
 10
9.8296921328924824
 20
108.20028163729781
 30
0.0
 11
9.1257818317983261
 21
108.9041919383919
 31
0.0
  0
LINE
  5
1A72
  8
0
 62
     0
 10
9.8296921328924771
 20
107.07774962216411
 30
0.0
 11
9.1456672145806408
 21
107.7617745404759
 31
0.0
  0
LINE
  5
1A73
  8
0
 62
     0
 10
9.8296921328924824
 20
105.95521760703051
 30
0.0
 11
9.0815225250818195
 21
106.7033872148411
 31
0.0
  0
LINE
  5
1A74
  8
0
 62
     0
 10
9.8296921328924771
 20
104.83268559189681
 30
0.0
 11
9.0173778355829981
 21
105.6449998892063
 31
0.0
  0
LINE
  5
1A75
  8
0
 62
     0
 10
9.829692132892486
 20
103.7101535767632
 30
0.0
 11
8.9532331460841768
 21
104.58661256357151
 31
0.0
  0
LINE
  5
1A76
  8
0
 62
     0
 10
9.8296921328924896
 20
102.5876215616295
 30
0.0
 11
8.8890884565853554
 21
103.5282252379366
 31
0.0
  0
LINE
  5
1A77
  8
0
 62
     0
 10
9.3351568431906582
 20
102.5478825252066
 30
0.0
 11
9.8296921328924824
 21
103.0424178149085
 31
0.0
  0
LINE
  5
1A78
  8
0
 62
     0
 10
8.869483353371244
 20
103.20474105052089
 30
0.0
 11
9.8296921328924896
 21
104.1649498300421
 31
0.0
  0
LINE
  5
1A79
  8
0
 62
     0
 10
8.9419047774243055
 20
104.3996944897076
 30
0.0
 11
9.8296921328924896
 21
105.2874818451758
 31
0.0
  0
LINE
  5
1A7A
  8
0
 62
     0
 10
9.0143262014773811
 20
105.5946479288943
 30
0.0
 11
9.8296921328924896
 21
106.41001386030941
 31
0.0
  0
LINE
  5
1A7B
  8
0
 62
     0
 10
9.0867476255304283
 20
106.78960136808099
 30
0.0
 11
9.8296921328924824
 21
107.53254587544301
 31
0.0
  0
LINE
  5
1A7C
  8
0
 62
     0
 10
9.1591690495834897
 20
107.9845548072677
 30
0.0
 11
9.8296921328924896
 21
108.65507789057671
 31
0.0
  0
LINE
  5
1A7D
  8
0
 62
     0
 10
9.0970577771353476
 20
109.04497554995319
 30
0.0
 11
9.8296921328924896
 21
109.77760990571031
 31
0.0
  0
LINE
  5
1A7E
  8
0
 62
     0
 10
8.9068382331946268
 20
109.97728802114609
 30
0.0
 11
9.8296921328924896
 21
110.90014192084401
 31
0.0
  0
LINE
  5
1A7F
  8
0
 62
     0
 10
8.7166186892539042
 20
110.909600492339
 30
0.0
 11
9.8296921328924896
 21
112.02267393597759
 31
0.0
  0
LINE
  5
1A80
  8
0
 62
     0
 10
8.5263991453131691
 20
111.8419129635319
 30
0.0
 11
9.8296921328924967
 21
113.14520595111129
 31
0.0
  0
LINE
  5
1A81
  8
0
 62
     0
 10
8.3361796013724572
 20
112.7742254347249
 30
0.0
 11
9.8296921328924967
 21
114.26773796624489
 31
0.0
  0
LINE
  5
1A82
  8
0
 62
     0
 10
8.1459600574317221
 20
113.7065379059178
 30
0.0
 11
9.8296921328924896
 21
115.39026998137859
 31
0.0
  0
LINE
  5
1A83
  8
0
 62
     0
 10
7.9557405134909942
 20
114.6388503771107
 30
0.0
 11
9.8296921328924896
 21
116.5128019965122
 31
0.0
  0
LINE
  5
1A84
  8
0
 62
     0
 10
9.7385404420080235
 20
117.54418232076139
 30
0.0
 11
9.8296921328924967
 21
117.6353340116458
 31
0.0
  0
LINE
  5
1A85
  8
0
 62
     0
 10
9.8109618660610902
 20
118.7391357599481
 30
0.0
 11
9.8296921328924967
 21
118.7578660267795
 31
0.0
  0
ENDBLK
  5
1A87
  8
0
  0
BLOCK
  8
0
  2
*X86
 70
     1
 10
0.0
 20
0.0
 30
0.0
  3
*X86
  1

  0
LINE
  5
1A89
  8
0
 62
     0
 10
9.8296921328926032
 20
99.220025516228503
 30
0.0
 11
9.5695111078653792
 21
99.480206541255711
 31
0.0
  0
LINE
  5
1A8A
  8
0
 62
     0
 10
9.8296921328926032
 20
98.097493501094846
 30
0.0
 11
8.6843801629494202
 21
99.242805471038025
 31
0.0
  0
LINE
  5
1A8B
  8
0
 62
     0
 10
9.8296921328926068
 20
96.974961485961217
 30
0.0
 11
7.799249218033462
 21
99.005404400820353
 31
0.0
  0
LINE
  5
1A8C
  8
0
 62
     0
 10
9.8296921328926032
 20
95.852429470827559
 30
0.0
 11
6.9141182731174871
 21
98.768003330602681
 31
0.0
  0
LINE
  5
1A8D
  8
0
 62
     0
 10
9.8296921328926032
 20
94.729897455693916
 30
0.0
 11
6.0289873282015227
 21
98.530602260384995
 31
0.0
  0
LINE
  5
1A8E
  8
0
 62
     0
 10
9.8296921328926068
 20
93.607365440560258
 30
0.0
 11
5.1438563832855619
 21
98.293201190167309
 31
0.0
  0
LINE
  5
1A8F
  8
0
 62
     0
 10
9.8296921328925997
 20
92.484833425426615
 30
0.0
 11
4.2587254383695976
 21
98.055800119949623
 31
0.0
  0
LINE
  5
1A90
  8
0
 62
     0
 10
9.8296921328926032
 20
91.362301410292986
 30
0.0
 11
3.3735944934536368
 21
97.818399049731966
 31
0.0
  0
LINE
  5
1A91
  8
0
 62
     0
 10
7.2982290543472486
 20
92.771232473704686
 30
0.0
 11
2.4884635485376689
 21
97.580997979514294
 31
0.0
  0
LINE
  5
1A92
  8
0
 62
     0
 10
9.8296921328926032
 20
90.239769395159342
 30
0.0
 11
9.5341358859038081
 21
90.535325642148138
 31
0.0
  0
LINE
  5
1A93
  8
0
 62
     0
 10
5.8814258264761321
 20
93.065503686442156
 30
0.0
 11
1.6033326036217119
 21
97.343596909296565
 31
0.0
  0
LINE
  5
1A94
  8
0
 62
     0
 10
9.8296921328926032
 20
89.117237380025685
 30
0.0
 11
9.8284070986412821
 21
89.118522414276995
 31
0.0
  0
LINE
  5
1A95
  8
0
 62
     0
 10
4.8627099622893359
 20
92.961687535495315
 30
0.0
 11
0.7182016587057483
 21
97.106195839078921
 31
0.0
  0
LINE
  5
1A96
  8
0
 62
     0
 10
4.031599560597499
 20
92.670265922053517
 30
0.0
 11
1.729121688635352
 21
94.97274379401567
 31
0.0
  0
LINE
  5
1A97
  8
0
 62
     0
 10
3.3340482489268508
 20
92.24528521859051
 30
0.0
 11
1.729121688635334
 21
93.850211778882027
 31
0.0
  0
LINE
  5
1A98
  8
0
 62
     0
 10
2.7508916999401052
 20
91.705909752443617
 30
0.0
 11
1.7291216886353269
 21
92.727679763748398
 31
0.0
  0
LINE
  5
1A99
  8
0
 62
     0
 10
2.2794156810755091
 20
91.05485375617458
 30
0.0
 11
1.72912168863532
 21
91.605147748614769
 31
0.0
  0
LINE
  5
1A9A
  8
0
 62
     0
 10
1.9313631242169611
 20
90.280374297899485
 30
0.0
 11
1.7291216886353129
 21
90.482615733481126
 31
0.0
  0
LINE
  5
1A9B
  8
0
 62
     0
 10
1.7425962129009771
 20
89.346609194081793
 30
0.0
 11
1.7291216886352989
 21
89.360083718347482
 31
0.0
  0
LINE
  5
1A9C
  8
0
 62
     0
 10
9.7959422079187206
 20
89.538283708330994
 30
0.0
 11
9.8296921328926103
 21
89.572033633304898
 31
0.0
  0
LINE
  5
1A9D
  8
0
 62
     0
 10
9.5723449877571962
 20
90.437218503303114
 30
0.0
 11
9.8296921328926032
 21
90.694565648438527
 31
0.0
  0
LINE
  5
1A9E
  8
0
 62
     0
 10
9.1992431827322871
 20
91.186648713411856
 30
0.0
 11
9.8296921328926032
 21
91.81709766357217
 31
0.0
  0
LINE
  5
1A9F
  8
0
 62
     0
 10
8.7062647687007821
 20
91.816202314513987
 30
0.0
 11
9.8296921328926103
 21
92.939629678705813
 31
0.0
  0
LINE
  5
1AA0
  8
0
 62
     0
 10
8.1021305630501246
 20
92.334600123996978
 30
0.0
 11
9.8296921328926032
 21
94.062161693839457
 31
0.0
  0
LINE
  5
1AA1
  8
0
 62
     0
 10
7.381473921522967
 20
92.736475497603465
 30
0.0
 11
9.8296921328926032
 21
95.1846937089731
 31
0.0
  0
LINE
  5
1AA2
  8
0
 62
     0
 10
6.5208186080987431
 20
92.998352199312876
 30
0.0
 11
9.8296921328926032
 21
96.307225724106743
 31
0.0
  0
LINE
  5
1AA3
  8
0
 62
     0
 10
5.4535976225614879
 20
93.053663228909272
 30
0.0
 11
9.8296921328925961
 21
97.429757739240387
 31
0.0
  0
LINE
  5
1AA4
  8
0
 62
     0
 10
1.729121688635302
 20
89.329187294983086
 30
0.0
 11
1.7422471804195181
 21
89.342312786767309
 31
0.0
  0
LINE
  5
1AA5
  8
0
 62
     0
 10
3.8611106332052212
 20
92.583708254686655
 30
0.0
 11
9.8296921328926103
 21
98.552289754374044
 31
0.0
  0
LINE
  5
1AA6
  8
0
 62
     0
 10
1.7291216886353089
 20
90.451719310116744
 30
0.0
 11
2.2122021546421489
 21
90.934799776123583
 31
0.0
  0
LINE
  5
1AA7
  8
0
 62
     0
 10
1.729121688635324
 20
91.574251325250387
 30
0.0
 11
9.6591075861517837
 21
99.504237222766847
 31
0.0
  0
LINE
  5
1AA8
  8
0
 62
     0
 10
1.7291216886353309
 20
92.696783340384059
 30
0.0
 11
8.1251535999835696
 21
99.09281525173229
 31
0.0
  0
LINE
  5
1AA9
  8
0
 62
     0
 10
1.7291216886353451
 20
93.819315355517688
 30
0.0
 11
6.5911996138153688
 21
98.681393280697733
 31
0.0
  0
LINE
  5
1AAA
  8
0
 62
     0
 10
1.729121688635352
 20
94.941847370651359
 30
0.0
 11
5.0572456276471689
 21
98.269971309663191
 31
0.0
  0
LINE
  5
1AAB
  8
0
 62
     0
 10
1.5559323755638701
 20
95.891190072713513
 30
0.0
 11
3.5232916414789548
 21
97.858549338628592
 31
0.0
  0
LINE
  5
1AAC
  8
0
 62
     0
 10
0.9946663679970768
 20
96.452456080280371
 30
0.0
 11
1.9893376553107409
 21
97.447127367594035
 31
0.0
  0
LINE
  5
1AAD
  8
0
 62
     0
 10
0.4039166074799568
 20
96.984238334896915
 30
0.0
 11
0.4553836691425417
 21
97.035705396559493
 31
0.0
  0
ENDBLK
  5
1AAF
  8
0
  0
BLOCK
  8
0
  2
*X87
 70
     1
 10
0.0
 20
0.0
 30
0.0
  3
*X87
  1

  0
LINE
  5
1AB1
  8
0
 62
     0
 10
9.4447495334074425
 20
88.67125638873577
 30
0.0
 11
9.8184198130185774
 21
89.318472298300719
 31
0.0
  0
LINE
  5
1AB2
  8
0
 62
     0
 10
8.2541245334074418
 20
86.609033395974095
 30
0.0
 11
8.6509995334074414
 21
87.296441060227977
 31
0.0
  0
LINE
  5
1AB3
  8
0
 62
     0
 10
8.2541248179035378
 20
89.358663888735748
 30
0.0
 11
8.6509998179035374
 21
90.046071552989659
 31
0.0
  0
LINE
  5
1AB4
  8
0
 62
     0
 10
7.0634998179035362
 20
87.296440895974072
 30
0.0
 11
7.4603748179035358
 21
87.983848560227969
 31
0.0
  0
LINE
  5
1AB5
  8
0
 62
     0
 10
5.8728748179035346
 20
85.234217903212382
 30
0.0
 11
6.269749817903536
 21
85.921625567466265
 31
0.0
  0
LINE
  5
1AB6
  8
0
 62
     0
 10
8.254125102399648
 20
92.108294381497473
 30
0.0
 11
8.2996632576007237
 21
92.187168779988696
 31
0.0
  0
LINE
  5
1AB7
  8
0
 62
     0
 10
7.0635001023996464
 20
90.046071388735797
 30
0.0
 11
7.4603751023996461
 21
90.733479052989679
 31
0.0
  0
LINE
  5
1AB8
  8
0
 62
     0
 10
5.8728751023996448
 20
87.983848395974078
 30
0.0
 11
6.2697501023996463
 21
88.671256060227989
 31
0.0
  0
LINE
  5
1AB9
  8
0
 62
     0
 10
4.682250102399645
 20
85.921625403212403
 30
0.0
 11
5.0791251023996447
 21
86.609033067466314
 31
0.0
  0
LINE
  5
1ABA
  8
0
 62
     0
 10
7.0635003868957398
 20
92.795701881497465
 30
0.0
 11
7.0935118639468051
 21
92.847683284560077
 31
0.0
  0
LINE
  5
1ABB
  8
0
 62
     0
 10
5.8728753868957391
 20
90.733478888735775
 30
0.0
 11
6.2697503868957396
 21
91.420886552989685
 31
0.0
  0
LINE
  5
1ABC
  8
0
 62
     0
 10
4.6822503868957401
 20
88.671255895974085
 30
0.0
 11
5.0791253868957389
 21
89.358663560227967
 31
0.0
  0
LINE
  5
1ABD
  8
0
 62
     0
 10
3.4916253868957399
 20
86.609032903212395
 30
0.0
 11
3.88850038689574
 21
87.296440567466291
 31
0.0
  0
LINE
  5
1ABE
  8
0
 62
     0
 10
4.6822506713918317
 20
91.420886388735767
 30
0.0
 11
5.0791256713918322
 21
92.108294052989663
 31
0.0
  0
LINE
  5
1ABF
  8
0
 62
     0
 10
3.4916256713918319
 20
89.358663395974077
 30
0.0
 11
3.888500671391832
 21
90.046071060227973
 31
0.0
  0
LINE
  5
1AC0
  8
0
 62
     0
 10
2.3010006713918321
 20
87.296440403212387
 30
0.0
 11
2.6978756713918322
 21
87.983848067466283
 31
0.0
  0
LINE
  5
1AC1
  8
0
 62
     0
 10
3.4916259558879239
 20
92.108293888735773
 30
0.0
 11
3.7202602826111
 21
92.504300158974615
 31
0.0
  0
LINE
  5
1AC2
  8
0
 62
     0
 10
2.3010009558879241
 20
90.046070895974083
 30
0.0
 11
2.6978759558879242
 21
90.733478560227965
 31
0.0
  0
LINE
  5
1AC3
  8
0
 62
     0
 10
7.46036059309872
 20
92.108289946642174
 30
0.0
 11
7.0634855930987204
 21
92.795697610896084
 31
0.0
  0
LINE
  5
1AC4
  8
0
 62
     0
 10
8.6509855930987172
 20
90.046066953880498
 30
0.0
 11
8.2541105930987193
 21
90.733474618134395
 31
0.0
  0
LINE
  5
1AC5
  8
0
 62
     0
 10
9.7385884679062578
 20
88.162283516255869
 30
0.0
 11
9.4447355930987182
 21
88.671251625372705
 31
0.0
  0
LINE
  5
1AC6
  8
0
 62
     0
 10
6.2697358775948242
 20
91.420882446642182
 30
0.0
 11
5.8728608775948237
 21
92.108290110896064
 31
0.0
  0
LINE
  5
1AC7
  8
0
 62
     0
 10
7.4603608775948231
 20
89.358659453880506
 30
0.0
 11
7.0634858775948226
 21
90.046067118134388
 31
0.0
  0
LINE
  5
1AC8
  8
0
 62
     0
 10
8.6509858775948221
 20
87.296436461118788
 30
0.0
 11
8.2541108775948224
 21
87.983844125372698
 31
0.0
  0
LINE
  5
1AC9
  8
0
 62
     0
 10
5.0791111620909053
 20
90.733474946642175
 30
0.0
 11
4.6822361620909048
 21
91.420882610896086
 31
0.0
  0
LINE
  5
1ACA
  8
0
 62
     0
 10
6.2697361620909042
 20
88.6712519538805
 30
0.0
 11
5.8728611620909037
 21
89.358659618134396
 31
0.0
  0
LINE
  5
1ACB
  8
0
 62
     0
 10
7.4603611620909032
 20
86.60902896111881
 30
0.0
 11
7.0634861620909026
 21
87.296436625372706
 31
0.0
  0
LINE
  5
1ACC
  8
0
 62
     0
 10
3.8884864465870002
 20
90.046067446642198
 30
0.0
 11
3.4916114465870001
 21
90.733475110896094
 31
0.0
  0
LINE
  5
1ACD
  8
0
 62
     0
 10
5.0791114465869986
 20
87.983844453880494
 30
0.0
 11
4.682236446586999
 21
88.671252118134404
 31
0.0
  0
LINE
  5
1ACE
  8
0
 62
     0
 10
6.2697364465869976
 20
85.921621461118804
 30
0.0
 11
5.8728614465869979
 21
86.609029125372714
 31
0.0
  0
LINE
  5
1ACF
  8
0
 62
     0
 10
2.6978617310831128
 20
89.358659946642192
 30
0.0
 11
2.300986731083114
 21
90.046067610896088
 31
0.0
  0
LINE
  5
1AD0
  8
0
 62
     0
 10
3.8884867310831122
 20
87.296436953880502
 30
0.0
 11
3.4916117310831121
 21
87.983844618134384
 31
0.0
  0
LINE
  5
1AD1
  8
0
 62
     0
 10
5.0791117310831106
 20
85.234213961118812
 30
0.0
 11
4.682236731083111
 21
85.921621625372694
 31
0.0
  0
LINE
  5
1AD2
  8
0
 62
     0
 10
2.697862015579195
 20
86.609029453880495
 30
0.0
 11
2.3009870155791949
 21
87.296437118134392
 31
0.0
  0
LINE
  5
1AD3
  8
0
 62
     0
 10
5.0791216884464747
 20
85.234204598646656
 30
0.0
 11
5.8728716884464749
 21
85.234204598646656
 31
0.0
  0
LINE
  5
1AD4
  8
0
 62
     0
 10
7.460371688446477
 20
86.609019598646654
 30
0.0
 11
8.2541216884464763
 21
86.609019598646654
 31
0.0
  0
LINE
  5
1AD5
  8
0
 62
     0
 10
5.0791216884464774
 20
86.609019598646654
 30
0.0
 11
5.8728716884464767
 21
86.609019598646654
 31
0.0
  0
LINE
  5
1AD6
  8
0
 62
     0
 10
2.6978716884464768
 20
86.609019598646654
 30
0.0
 11
3.491621688446477
 21
86.609019598646654
 31
0.0
  0
LINE
  5
1AD7
  8
0
 62
     0
 10
7.460371688446477
 20
87.983834598646638
 30
0.0
 11
8.2541216884464763
 21
87.983834598646638
 31
0.0
  0
LINE
  5
1AD8
  8
0
 62
     0
 10
5.0791216884464774
 20
87.983834598646638
 30
0.0
 11
5.8728716884464767
 21
87.983834598646638
 31
0.0
  0
LINE
  5
1AD9
  8
0
 62
     0
 10
2.6978716884464768
 20
87.983834598646638
 30
0.0
 11
3.491621688446477
 21
87.983834598646638
 31
0.0
  0
LINE
  5
1ADA
  8
0
 62
     0
 10
7.460371688446477
 20
89.358649598646636
 30
0.0
 11
8.2541216884464763
 21
89.358649598646636
 31
0.0
  0
LINE
  5
1ADB
  8
0
 62
     0
 10
5.0791216884464774
 20
89.358649598646636
 30
0.0
 11
5.8728716884464767
 21
89.358649598646636
 31
0.0
  0
LINE
  5
1ADC
  8
0
 62
     0
 10
2.6978716884464768
 20
89.358649598646636
 30
0.0
 11
3.491621688446477
 21
89.358649598646636
 31
0.0
  0
LINE
  5
1ADD
  8
0
 62
     0
 10
7.460371688446477
 20
90.733464598646634
 30
0.0
 11
8.2541216884464763
 21
90.733464598646634
 31
0.0
  0
LINE
  5
1ADE
  8
0
 62
     0
 10
5.0791216884464774
 20
90.733464598646634
 30
0.0
 11
5.8728716884464767
 21
90.733464598646634
 31
0.0
  0
LINE
  5
1ADF
  8
0
 62
     0
 10
2.6978716884464768
 20
90.733464598646634
 30
0.0
 11
3.491621688446477
 21
90.733464598646634
 31
0.0
  0
LINE
  5
1AE0
  8
0
 62
     0
 10
7.4603716884464752
 20
92.108279598646646
 30
0.0
 11
8.2541216884464745
 21
92.108279598646646
 31
0.0
  0
LINE
  5
1AE1
  8
0
 62
     0
 10
5.0791216884464747
 20
92.108279598646646
 30
0.0
 11
5.8728716884464749
 21
92.108279598646646
 31
0.0
  0
LINE
  5
1AE2
  8
0
 62
     0
 10
3.1629721365795538
 20
92.108279598646646
 30
0.0
 11
3.4916216884464761
 21
92.108279598646646
 31
0.0
  0
ENDBLK
  5
1AE4
  8
0
  0
BLOCK
  8
0
  2
*X88
 70
     1
 10
0.0
 20
0.0
 30
0.0
  3
*X88
  1

  0
LINE
  5
1AE6
  8
0
 62
     0
 10
255.41035604116109
 20
93.483120715016426
 30
0.0
 11
255.5583569230034
 21
93.739465761932223
 31
0.0
  0
LINE
  5
1AE7
  8
0
 62
     0
 10
254.21973104116111
 20
91.420897722254736
 30
0.0
 11
254.61660604116111
 21
92.108305386508633
 31
0.0
  0
LINE
  5
1AE8
  8
0
 62
     0
 10
253.1143063483247
 20
89.506245990320821
 30
0.0
 11
253.42598104116109
 21
90.046082393746957
 31
0.0
  0
LINE
  5
1AE9
  8
0
 62
     0
 10
254.21973132565719
 20
94.170528215016404
 30
0.0
 11
254.61660632565719
 21
94.857935879270315
 31
0.0
  0
LINE
  5
1AEA
  8
0
 62
     0
 10
253.02910632565721
 20
92.108305222254728
 30
0.0
 11
253.4259813256572
 21
92.795712886508625
 31
0.0
  0
LINE
  5
1AEB
  8
0
 62
     0
 10
251.8384813256572
 20
90.046082229493038
 30
0.0
 11
252.23535632565719
 21
90.733489893746935
 31
0.0
  0
LINE
  5
1AEC
  8
0
 62
     0
 10
253.02910661015329
 20
94.857935715016396
 30
0.0
 11
253.36753367561371
 21
95.444108587050266
 31
0.0
  0
LINE
  5
1AED
  8
0
 62
     0
 10
251.83848161015331
 20
92.795712722254706
 30
0.0
 11
252.2353566101533
 21
93.483120386508602
 31
0.0
  0
LINE
  5
1AEE
  8
0
 62
     0
 10
250.6478566101533
 20
90.733489729493016
 30
0.0
 11
251.04473161015329
 21
91.420897393746912
 31
0.0
  0
LINE
  5
1AEF
  8
0
 62
     0
 10
250.64785689464941
 20
93.483120222254726
 30
0.0
 11
251.0447318946494
 21
94.170527886508609
 31
0.0
  0
LINE
  5
1AF0
  8
0
 62
     0
 10
254.61659124736411
 20
93.483094105884916
 30
0.0
 11
254.21971624736409
 21
94.170501770138813
 31
0.0
  0
LINE
  5
1AF1
  8
0
 62
     0
 10
255.69728272423461
 20
91.611281560638574
 30
0.0
 11
255.4103412473641
 21
92.108278777377109
 31
0.0
  0
LINE
  5
1AF2
  8
0
 62
     0
 10
252.2353415318602
 20
94.857909598646586
 30
0.0
 11
251.9457324036342
 21
95.359527323069699
 31
0.0
  0
LINE
  5
1AF3
  8
0
 62
     0
 10
253.42596653186021
 20
92.795686605884896
 30
0.0
 11
253.02909153186019
 21
93.483094270138778
 31
0.0
  0
LINE
  5
1AF4
  8
0
 62
     0
 10
254.61659153186019
 20
90.733463613123206
 30
0.0
 11
254.2197165318602
 21
91.420871277377103
 31
0.0
  0
LINE
  5
1AF5
  8
0
 62
     0
 10
251.0447168163563
 20
94.170502098646594
 30
0.0
 11
250.759705774281
 21
94.664155704239306
 31
0.0
  0
LINE
  5
1AF6
  8
0
 62
     0
 10
252.23534181635631
 20
92.108279105884904
 30
0.0
 11
251.83846681635629
 21
92.795686770138815
 31
0.0
  0
LINE
  5
1AF7
  8
0
 62
     0
 10
253.42596681635629
 20
90.046056113123228
 30
0.0
 11
253.0290918163563
 21
90.733463777377125
 31
0.0
  0
LINE
  5
1AF8
  8
0
 62
     0
 10
251.04471710085241
 20
91.420871605884912
 30
0.0
 11
250.64784210085239
 21
92.108279270138794
 31
0.0
  0
LINE
  5
1AF9
  8
0
 62
     0
 10
252.10691968936939
 20
89.581082754642253
 30
0.0
 11
251.8384671008524
 21
90.046056277377119
 31
0.0
  0
LINE
  5
1AFA
  8
0
 62
     0
 10
254.6166216884464
 20
90.733464598646634
 30
0.0
 11
255.2597208235845
 21
90.733464598646634
 31
0.0
  0
LINE
  5
1AFB
  8
0
 62
     0
 10
252.23537168844641
 20
90.733464598646634
 30
0.0
 11
253.02912168844651
 21
90.733464598646634
 31
0.0
  0
LINE
  5
1AFC
  8
0
 62
     0
 10
250.3996634422017
 20
90.733464598646634
 30
0.0
 11
250.64787168844649
 21
90.733464598646634
 31
0.0
  0
LINE
  5
1AFD
  8
0
 62
     0
 10
254.6166216884464
 20
92.108279598646646
 30
0.0
 11
255.4103716884465
 21
92.108279598646646
 31
0.0
  0
LINE
  5
1AFE
  8
0
 62
     0
 10
252.23537168844641
 20
92.108279598646646
 30
0.0
 11
253.02912168844651
 21
92.108279598646646
 31
0.0
  0
LINE
  5
1AFF
  8
0
 62
     0
 10
249.85442580350451
 20
92.108279598646646
 30
0.0
 11
250.64787168844649
 21
92.108279598646646
 31
0.0
  0
LINE
  5
1B00
  8
0
 62
     0
 10
254.6166216884464
 20
93.483094598646645
 30
0.0
 11
255.4103716884465
 21
93.483094598646645
 31
0.0
  0
LINE
  5
1B01
  8
0
 62
     0
 10
252.23537168844641
 20
93.483094598646645
 30
0.0
 11
253.02912168844651
 21
93.483094598646645
 31
0.0
  0
LINE
  5
1B02
  8
0
 62
     0
 10
249.99788220714709
 20
93.483094598646645
 30
0.0
 11
250.64787168844649
 21
93.483094598646645
 31
0.0
  0
LINE
  5
1B03
  8
0
 62
     0
 10
254.6166216884464
 20
94.857909598646629
 30
0.0
 11
254.67518735419929
 21
94.857909598646629
 31
0.0
  0
LINE
  5
1B04
  8
0
 62
     0
 10
252.23537168844641
 20
94.857909598646629
 30
0.0
 11
253.02912168844651
 21
94.857909598646629
 31
0.0
  0
ENDBLK
  5
1B06
  8
0
  0
BLOCK
  8
0
  2
*X89
 70
     1
 10
0.0
 20
0.0
 30
0.0
  3
*X89
  1

  0
LINE
  5
1B08
  8
0
 62
     0
 10
256.8289542610562
 20
96.616240795493795
 30
0.0
 11
256.11694225282378
 21
97.328252803726215
 31
0.0
  0
LINE
  5
1B09
  8
0
 62
     0
 10
256.26768825348938
 20
96.054974787926952
 30
0.0
 11
254.5835350035899
 21
97.739128037826461
 31
0.0
  0
LINE
  5
1B0A
  8
0
 62
     0
 10
255.7064222459226
 20
95.493708780360123
 30
0.0
 11
253.050127754356
 21
98.150003271926721
 31
0.0
  0
LINE
  5
1B0B
  8
0
 62
     0
 10
255.37440925854321
 20
94.703189752605908
 30
0.0
 11
251.51672050512209
 21
98.560878506026981
 31
0.0
  0
LINE
  5
1B0C
  8
0
 62
     0
 10
253.55014597163139
 20
95.404921024383967
 30
0.0
 11
249.98331325588819
 21
98.971753740127255
 31
0.0
  0
LINE
  5
1B0D
  8
0
 62
     0
 10
255.8296921328928
 20
93.125374863122644
 30
0.0
 11
255.7418985586543
 21
93.213168437361134
 31
0.0
  0
LINE
  5
1B0E
  8
0
 62
     0
 10
252.37454748583701
 20
95.457987495044748
 30
0.0
 11
249.8296921328926
 21
98.002842847989143
 31
0.0
  0
LINE
  5
1B0F
  8
0
 62
     0
 10
251.5188346255475
 20
95.191168340200576
 30
0.0
 11
249.8296921328926
 21
96.880310832855514
 31
0.0
  0
LINE
  5
1B10
  8
0
 62
     0
 10
250.84504800038351
 20
94.74242295023096
 30
0.0
 11
249.8296921328926
 21
95.757778817721885
 31
0.0
  0
LINE
  5
1B11
  8
0
 62
     0
 10
250.32341467463641
 20
94.141524260844449
 30
0.0
 11
249.8296921328926
 21
94.635246802588227
 31
0.0
  0
LINE
  5
1B12
  8
0
 62
     0
 10
249.96355252383671
 20
93.378854396510434
 30
0.0
 11
249.8296921328926
 21
93.512714787454584
 31
0.0
  0
LINE
  5
1B13
  8
0
 62
     0
 10
255.71662852742861
 20
93.308556650679265
 30
0.0
 11
255.8296921328928
 21
93.421620256143413
 31
0.0
  0
LINE
  5
1B14
  8
0
 62
     0
 10
255.37159448473929
 20
94.086054623123559
 30
0.0
 11
255.6589985497331
 21
94.373458688117424
 31
0.0
  0
LINE
  5
1B15
  8
0
 62
     0
 10
254.8622434733872
 20
94.699235626905235
 30
0.0
 11
257.20083299985708
 21
97.037825153375081
 31
0.0
  0
LINE
  5
1B16
  8
0
 62
     0
 10
254.20128554116579
 20
95.160809709817315
 30
0.0
 11
256.31551991173461
 21
97.275044080386195
 31
0.0
  0
LINE
  5
1B17
  8
0
 62
     0
 10
253.3628941174332
 20
95.444950301218427
 30
0.0
 11
255.43020682361211
 21
97.512263007397337
 31
0.0
  0
LINE
  5
1B18
  8
0
 62
     0
 10
252.22695380285279
 20
95.431542001771675
 30
0.0
 11
254.5448937354895
 21
97.74948193440845
 31
0.0
  0
LINE
  5
1B19
  8
0
 62
     0
 10
249.8296921328926
 20
93.034280331811459
 30
0.0
 11
249.89086472974341
 21
93.095452928662255
 31
0.0
  0
LINE
  5
1B1A
  8
0
 62
     0
 10
249.8296921328926
 20
94.156812346945117
 30
0.0
 11
253.65958064736711
 21
97.986700861419607
 31
0.0
  0
LINE
  5
1B1B
  8
0
 62
     0
 10
249.8296921328926
 20
95.279344362078774
 30
0.0
 11
252.77426755924449
 21
98.22391978843072
 31
0.0
  0
LINE
  5
1B1C
  8
0
 62
     0
 10
249.8296921328926
 20
96.401876377212403
 30
0.0
 11
251.8889544711221
 21
98.461138715441848
 31
0.0
  0
LINE
  5
1B1D
  8
0
 62
     0
 10
249.8296921328926
 20
97.524408392346075
 30
0.0
 11
251.00364138299949
 21
98.698357642452976
 31
0.0
  0
LINE
  5
1B1E
  8
0
 62
     0
 10
249.8296921328926
 20
98.646940407479704
 30
0.0
 11
250.11832829487699
 21
98.935576569464132
 31
0.0
  0
ENDBLK
  5
1B20
  8
0
  0
BLOCK
  8
0
  2
*X90
 70
     1
 10
0.0
 20
0.0
 30
0.0
  3
*X90
  1

  0
LINE
  5
1B22
  8
0
 62
     0
 10
9.8296921328924824
 20
118.3030697735006
 30
0.0
 11
9.7871141095689467
 21
118.3456477968241
 31
0.0
  0
LINE
  5
1B23
  8
0
 62
     0
 10
9.8296921328924824
 20
117.1805377583669
 30
0.0
 11
9.7229694200701147
 21
117.2872604711893
 31
0.0
  0
LINE
  5
1B24
  8
0
 62
     0
 10
9.8296921328924896
 20
116.05800574323329
 30
0.0
 11
9.3262744930664638
 21
116.56142338305931
 31
0.0
  0
LINE
  5
1B25
  8
0
 62
     0
 10
9.8296921328924824
 20
114.93547372809959
 30
0.0
 11
8.5775575074712336
 21
116.1876083535208
 31
0.0
  0
LINE
  5
1B26
  8
0
 62
     0
 10
9.8296921328924824
 20
113.81294171296599
 30
0.0
 11
7.9717908768914816
 21
115.67084296896699
 31
0.0
  0
LINE
  5
1B27
  8
0
 62
     0
 10
9.8296921328924753
 20
112.69040969783229
 30
0.0
 11
7.9748341801707454
 21
114.54526765055409
 31
0.0
  0
LINE
  5
1B28
  8
0
 62
     0
 10
9.8296921328924824
 20
111.56787768269869
 30
0.0
 11
8.2625710930776393
 21
113.1349987225135
 31
0.0
  0
LINE
  5
1B29
  8
0
 62
     0
 10
9.8296921328924824
 20
110.44534566756499
 30
0.0
 11
8.5503080059845331
 21
111.72472979447301
 31
0.0
  0
LINE
  5
1B2A
  8
0
 62
     0
 10
9.8296921328924771
 20
109.32281365243141
 30
0.0
 11
8.8380449188914341
 21
110.3144608664324
 31
0.0
  0
LINE
  5
1B2B
  8
0
 62
     0
 10
9.8296921328924824
 20
108.20028163729781
 30
0.0
 11
9.1257818317983261
 21
108.9041919383919
 31
0.0
  0
LINE
  5
1B2C
  8
0
 62
     0
 10
9.8296921328924771
 20
107.07774962216411
 30
0.0
 11
9.1456672145806408
 21
107.7617745404759
 31
0.0
  0
LINE
  5
1B2D
  8
0
 62
     0
 10
9.8296921328924824
 20
105.95521760703051
 30
0.0
 11
9.0815225250818195
 21
106.7033872148411
 31
0.0
  0
LINE
  5
1B2E
  8
0
 62
     0
 10
9.8296921328924771
 20
104.83268559189681
 30
0.0
 11
9.0173778355829981
 21
105.6449998892063
 31
0.0
  0
LINE
  5
1B2F
  8
0
 62
     0
 10
9.829692132892486
 20
103.7101535767632
 30
0.0
 11
8.9532331460841768
 21
104.58661256357151
 31
0.0
  0
LINE
  5
1B30
  8
0
 62
     0
 10
9.8296921328924896
 20
102.5876215616295
 30
0.0
 11
8.8890884565853554
 21
103.5282252379366
 31
0.0
  0
LINE
  5
1B31
  8
0
 62
     0
 10
9.3351568431906582
 20
102.5478825252066
 30
0.0
 11
9.8296921328924824
 21
103.0424178149085
 31
0.0
  0
LINE
  5
1B32
  8
0
 62
     0
 10
8.869483353371244
 20
103.20474105052089
 30
0.0
 11
9.8296921328924896
 21
104.1649498300421
 31
0.0
  0
LINE
  5
1B33
  8
0
 62
     0
 10
8.9419047774243055
 20
104.3996944897076
 30
0.0
 11
9.8296921328924896
 21
105.2874818451758
 31
0.0
  0
LINE
  5
1B34
  8
0
 62
     0
 10
9.0143262014773811
 20
105.5946479288943
 30
0.0
 11
9.8296921328924896
 21
106.41001386030941
 31
0.0
  0
LINE
  5
1B35
  8
0
 62
     0
 10
9.0867476255304283
 20
106.78960136808099
 30
0.0
 11
9.8296921328924824
 21
107.53254587544301
 31
0.0
  0
LINE
  5
1B36
  8
0
 62
     0
 10
9.1591690495834897
 20
107.9845548072677
 30
0.0
 11
9.8296921328924896
 21
108.65507789057671
 31
0.0
  0
LINE
  5
1B37
  8
0
 62
     0
 10
9.0970577771353476
 20
109.04497554995319
 30
0.0
 11
9.8296921328924896
 21
109.77760990571031
 31
0.0
  0
LINE
  5
1B38
  8
0
 62
     0
 10
8.9068382331946268
 20
109.97728802114609
 30
0.0
 11
9.8296921328924896
 21
110.90014192084401
 31
0.0
  0
LINE
  5
1B39
  8
0
 62
     0
 10
8.7166186892539042
 20
110.909600492339
 30
0.0
 11
9.8296921328924896
 21
112.02267393597759
 31
0.0
  0
LINE
  5
1B3A
  8
0
 62
     0
 10
8.5263991453131691
 20
111.8419129635319
 30
0.0
 11
9.8296921328924967
 21
113.14520595111129
 31
0.0
  0
LINE
  5
1B3B
  8
0
 62
     0
 10
8.3361796013724572
 20
112.7742254347249
 30
0.0
 11
9.8296921328924967
 21
114.26773796624489
 31
0.0
  0
LINE
  5
1B3C
  8
0
 62
     0
 10
8.1459600574317221
 20
113.7065379059178
 30
0.0
 11
9.8296921328924896
 21
115.39026998137859
 31
0.0
  0
LINE
  5
1B3D
  8
0
 62
     0
 10
7.9557405134909942
 20
114.6388503771107
 30
0.0
 11
9.8296921328924896
 21
116.5128019965122
 31
0.0
  0
LINE
  5
1B3E
  8
0
 62
     0
 10
9.7385404420080235
 20
117.54418232076139
 30
0.0
 11
9.8296921328924967
 21
117.6353340116458
 31
0.0
  0
LINE
  5
1B3F
  8
0
 62
     0
 10
9.8109618660610902
 20
118.7391357599481
 30
0.0
 11
9.8296921328924967
 21
118.7578660267795
 31
0.0
  0
ENDBLK
  5
1B41
  8
0
  0
BLOCK
  8
0
  2
*X91
 70
     1
 10
0.0
 20
0.0
 30
0.0
  3
*X91
  1

  0
LINE
  5
1B43
  8
0
 62
     0
 10
9.8296921328926032
 20
99.220025516228503
 30
0.0
 11
9.5695111078653792
 21
99.480206541255711
 31
0.0
  0
LINE
  5
1B44
  8
0
 62
     0
 10
9.8296921328926032
 20
98.097493501094846
 30
0.0
 11
8.6843801629494202
 21
99.242805471038025
 31
0.0
  0
LINE
  5
1B45
  8
0
 62
     0
 10
9.8296921328926068
 20
96.974961485961217
 30
0.0
 11
7.799249218033462
 21
99.005404400820353
 31
0.0
  0
LINE
  5
1B46
  8
0
 62
     0
 10
9.8296921328926032
 20
95.852429470827559
 30
0.0
 11
6.9141182731174871
 21
98.768003330602681
 31
0.0
  0
LINE
  5
1B47
  8
0
 62
     0
 10
9.8296921328926032
 20
94.729897455693916
 30
0.0
 11
6.0289873282015227
 21
98.530602260384995
 31
0.0
  0
LINE
  5
1B48
  8
0
 62
     0
 10
9.8296921328926068
 20
93.607365440560258
 30
0.0
 11
5.1438563832855619
 21
98.293201190167309
 31
0.0
  0
LINE
  5
1B49
  8
0
 62
     0
 10
9.8296921328925997
 20
92.484833425426615
 30
0.0
 11
4.2587254383695976
 21
98.055800119949623
 31
0.0
  0
LINE
  5
1B4A
  8
0
 62
     0
 10
9.8296921328926032
 20
91.362301410292986
 30
0.0
 11
3.3735944934536368
 21
97.818399049731966
 31
0.0
  0
LINE
  5
1B4B
  8
0
 62
     0
 10
7.2982290543472486
 20
92.771232473704686
 30
0.0
 11
2.4884635485376689
 21
97.580997979514294
 31
0.0
  0
LINE
  5
1B4C
  8
0
 62
     0
 10
9.8296921328926032
 20
90.239769395159342
 30
0.0
 11
9.5341358859038081
 21
90.535325642148138
 31
0.0
  0
LINE
  5
1B4D
  8
0
 62
     0
 10
5.8814258264761321
 20
93.065503686442156
 30
0.0
 11
1.6033326036217119
 21
97.343596909296565
 31
0.0
  0
LINE
  5
1B4E
  8
0
 62
     0
 10
9.8296921328926032
 20
89.117237380025685
 30
0.0
 11
9.8284070986412821
 21
89.118522414276995
 31
0.0
  0
LINE
  5
1B4F
  8
0
 62
     0
 10
4.8627099622893359
 20
92.961687535495315
 30
0.0
 11
0.7182016587057483
 21
97.106195839078921
 31
0.0
  0
LINE
  5
1B50
  8
0
 62
     0
 10
4.031599560597499
 20
92.670265922053517
 30
0.0
 11
1.729121688635352
 21
94.97274379401567
 31
0.0
  0
LINE
  5
1B51
  8
0
 62
     0
 10
3.3340482489268508
 20
92.24528521859051
 30
0.0
 11
1.729121688635334
 21
93.850211778882027
 31
0.0
  0
LINE
  5
1B52
  8
0
 62
     0
 10
2.7508916999401052
 20
91.705909752443617
 30
0.0
 11
1.7291216886353269
 21
92.727679763748398
 31
0.0
  0
LINE
  5
1B53
  8
0
 62
     0
 10
2.2794156810755091
 20
91.05485375617458
 30
0.0
 11
1.72912168863532
 21
91.605147748614769
 31
0.0
  0
LINE
  5
1B54
  8
0
 62
     0
 10
1.9313631242169611
 20
90.280374297899485
 30
0.0
 11
1.7291216886353129
 21
90.482615733481126
 31
0.0
  0
LINE
  5
1B55
  8
0
 62
     0
 10
1.7425962129009771
 20
89.346609194081793
 30
0.0
 11
1.7291216886352989
 21
89.360083718347482
 31
0.0
  0
LINE
  5
1B56
  8
0
 62
     0
 10
9.7959422079187206
 20
89.538283708330994
 30
0.0
 11
9.8296921328926103
 21
89.572033633304898
 31
0.0
  0
LINE
  5
1B57
  8
0
 62
     0
 10
9.5723449877571962
 20
90.437218503303114
 30
0.0
 11
9.8296921328926032
 21
90.694565648438527
 31
0.0
  0
LINE
  5
1B58
  8
0
 62
     0
 10
9.1992431827322871
 20
91.186648713411856
 30
0.0
 11
9.8296921328926032
 21
91.81709766357217
 31
0.0
  0
LINE
  5
1B59
  8
0
 62
     0
 10
8.7062647687007821
 20
91.816202314513987
 30
0.0
 11
9.8296921328926103
 21
92.939629678705813
 31
0.0
  0
LINE
  5
1B5A
  8
0
 62
     0
 10
8.1021305630501246
 20
92.334600123996978
 30
0.0
 11
9.8296921328926032
 21
94.062161693839457
 31
0.0
  0
LINE
  5
1B5B
  8
0
 62
     0
 10
7.381473921522967
 20
92.736475497603465
 30
0.0
 11
9.8296921328926032
 21
95.1846937089731
 31
0.0
  0
LINE
  5
1B5C
  8
0
 62
     0
 10
6.5208186080987431
 20
92.998352199312876
 30
0.0
 11
9.8296921328926032
 21
96.307225724106743
 31
0.0
  0
LINE
  5
1B5D
  8
0
 62
     0
 10
5.4535976225614879
 20
93.053663228909272
 30
0.0
 11
9.8296921328925961
 21
97.429757739240387
 31
0.0
  0
LINE
  5
1B5E
  8
0
 62
     0
 10
1.729121688635302
 20
89.329187294983086
 30
0.0
 11
1.7422471804195181
 21
89.342312786767309
 31
0.0
  0
LINE
  5
1B5F
  8
0
 62
     0
 10
3.8611106332052212
 20
92.583708254686655
 30
0.0
 11
9.8296921328926103
 21
98.552289754374044
 31
0.0
  0
LINE
  5
1B60
  8
0
 62
     0
 10
1.7291216886353089
 20
90.451719310116744
 30
0.0
 11
2.2122021546421489
 21
90.934799776123583
 31
0.0
  0
LINE
  5
1B61
  8
0
 62
     0
 10
1.729121688635324
 20
91.574251325250387
 30
0.0
 11
9.6591075861517837
 21
99.504237222766847
 31
0.0
  0
LINE
  5
1B62
  8
0
 62
     0
 10
1.7291216886353309
 20
92.696783340384059
 30
0.0
 11
8.1251535999835696
 21
99.09281525173229
 31
0.0
  0
LINE
  5
1B63
  8
0
 62
     0
 10
1.7291216886353451
 20
93.819315355517688
 30
0.0
 11
6.5911996138153688
 21
98.681393280697733
 31
0.0
  0
LINE
  5
1B64
  8
0
 62
     0
 10
1.729121688635352
 20
94.941847370651359
 30
0.0
 11
5.0572456276471689
 21
98.269971309663191
 31
0.0
  0
LINE
  5
1B65
  8
0
 62
     0
 10
1.5559323755638701
 20
95.891190072713513
 30
0.0
 11
3.5232916414789548
 21
97.858549338628592
 31
0.0
  0
LINE
  5
1B66
  8
0
 62
     0
 10
0.9946663679970768
 20
96.452456080280371
 30
0.0
 11
1.9893376553107409
 21
97.447127367594035
 31
0.0
  0
LINE
  5
1B67
  8
0
 62
     0
 10
0.4039166074799568
 20
96.984238334896915
 30
0.0
 11
0.4553836691425417
 21
97.035705396559493
 31
0.0
  0
ENDBLK
  5
1B69
  8
0
  0
BLOCK
  8
0
  2
*X92
 70
     1
 10
0.0
 20
0.0
 30
0.0
  3
*X92
  1

  0
LINE
  5
1B6B
  8
0
 62
     0
 10
9.4447495334074425
 20
88.67125638873577
 30
0.0
 11
9.8184198130185774
 21
89.318472298300719
 31
0.0
  0
LINE
  5
1B6C
  8
0
 62
     0
 10
8.2541245334074418
 20
86.609033395974095
 30
0.0
 11
8.6509995334074414
 21
87.296441060227977
 31
0.0
  0
LINE
  5
1B6D
  8
0
 62
     0
 10
8.2541248179035378
 20
89.358663888735748
 30
0.0
 11
8.6509998179035374
 21
90.046071552989659
 31
0.0
  0
LINE
  5
1B6E
  8
0
 62
     0
 10
7.0634998179035362
 20
87.296440895974072
 30
0.0
 11
7.4603748179035358
 21
87.983848560227969
 31
0.0
  0
LINE
  5
1B6F
  8
0
 62
     0
 10
5.8728748179035346
 20
85.234217903212382
 30
0.0
 11
6.269749817903536
 21
85.921625567466265
 31
0.0
  0
LINE
  5
1B70
  8
0
 62
     0
 10
8.254125102399648
 20
92.108294381497473
 30
0.0
 11
8.2996632576007237
 21
92.187168779988696
 31
0.0
  0
LINE
  5
1B71
  8
0
 62
     0
 10
7.0635001023996464
 20
90.046071388735797
 30
0.0
 11
7.4603751023996461
 21
90.733479052989679
 31
0.0
  0
LINE
  5
1B72
  8
0
 62
     0
 10
5.8728751023996448
 20
87.983848395974078
 30
0.0
 11
6.2697501023996463
 21
88.671256060227989
 31
0.0
  0
LINE
  5
1B73
  8
0
 62
     0
 10
4.682250102399645
 20
85.921625403212403
 30
0.0
 11
5.0791251023996447
 21
86.609033067466314
 31
0.0
  0
LINE
  5
1B74
  8
0
 62
     0
 10
7.0635003868957398
 20
92.795701881497465
 30
0.0
 11
7.0935118639468051
 21
92.847683284560077
 31
0.0
  0
LINE
  5
1B75
  8
0
 62
     0
 10
5.8728753868957391
 20
90.733478888735775
 30
0.0
 11
6.2697503868957396
 21
91.420886552989685
 31
0.0
  0
LINE
  5
1B76
  8
0
 62
     0
 10
4.6822503868957401
 20
88.671255895974085
 30
0.0
 11
5.0791253868957389
 21
89.358663560227967
 31
0.0
  0
LINE
  5
1B77
  8
0
 62
     0
 10
3.4916253868957399
 20
86.609032903212395
 30
0.0
 11
3.88850038689574
 21
87.296440567466291
 31
0.0
  0
LINE
  5
1B78
  8
0
 62
     0
 10
4.6822506713918317
 20
91.420886388735767
 30
0.0
 11
5.0791256713918322
 21
92.108294052989663
 31
0.0
  0
LINE
  5
1B79
  8
0
 62
     0
 10
3.4916256713918319
 20
89.358663395974077
 30
0.0
 11
3.888500671391832
 21
90.046071060227973
 31
0.0
  0
LINE
  5
1B7A
  8
0
 62
     0
 10
2.3010006713918321
 20
87.296440403212387
 30
0.0
 11
2.6978756713918322
 21
87.983848067466283
 31
0.0
  0
LINE
  5
1B7B
  8
0
 62
     0
 10
3.4916259558879239
 20
92.108293888735773
 30
0.0
 11
3.7202602826111009
 21
92.504300158974615
 31
0.0
  0
LINE
  5
1B7C
  8
0
 62
     0
 10
2.3010009558879241
 20
90.046070895974083
 30
0.0
 11
2.6978759558879251
 21
90.733478560227965
 31
0.0
  0
LINE
  5
1B7D
  8
0
 62
     0
 10
7.46036059309872
 20
92.108289946642174
 30
0.0
 11
7.0634855930987204
 21
92.795697610896084
 31
0.0
  0
LINE
  5
1B7E
  8
0
 62
     0
 10
8.6509855930987172
 20
90.046066953880498
 30
0.0
 11
8.2541105930987193
 21
90.733474618134395
 31
0.0
  0
LINE
  5
1B7F
  8
0
 62
     0
 10
9.7385884679062578
 20
88.162283516255869
 30
0.0
 11
9.4447355930987182
 21
88.671251625372705
 31
0.0
  0
LINE
  5
1B80
  8
0
 62
     0
 10
6.2697358775948242
 20
91.420882446642182
 30
0.0
 11
5.8728608775948237
 21
92.108290110896064
 31
0.0
  0
LINE
  5
1B81
  8
0
 62
     0
 10
7.4603608775948231
 20
89.358659453880506
 30
0.0
 11
7.0634858775948226
 21
90.046067118134388
 31
0.0
  0
LINE
  5
1B82
  8
0
 62
     0
 10
8.6509858775948221
 20
87.296436461118788
 30
0.0
 11
8.2541108775948224
 21
87.983844125372698
 31
0.0
  0
LINE
  5
1B83
  8
0
 62
     0
 10
5.0791111620909053
 20
90.733474946642175
 30
0.0
 11
4.6822361620909048
 21
91.420882610896086
 31
0.0
  0
LINE
  5
1B84
  8
0
 62
     0
 10
6.2697361620909042
 20
88.6712519538805
 30
0.0
 11
5.8728611620909037
 21
89.358659618134396
 31
0.0
  0
LINE
  5
1B85
  8
0
 62
     0
 10
7.4603611620909032
 20
86.60902896111881
 30
0.0
 11
7.0634861620909026
 21
87.296436625372706
 31
0.0
  0
LINE
  5
1B86
  8
0
 62
     0
 10
3.8884864465870002
 20
90.046067446642198
 30
0.0
 11
3.4916114465870001
 21
90.733475110896094
 31
0.0
  0
LINE
  5
1B87
  8
0
 62
     0
 10
5.0791114465869986
 20
87.983844453880494
 30
0.0
 11
4.682236446586999
 21
88.671252118134404
 31
0.0
  0
LINE
  5
1B88
  8
0
 62
     0
 10
6.2697364465869976
 20
85.921621461118804
 30
0.0
 11
5.8728614465869979
 21
86.609029125372714
 31
0.0
  0
LINE
  5
1B89
  8
0
 62
     0
 10
2.6978617310831128
 20
89.358659946642192
 30
0.0
 11
2.300986731083114
 21
90.046067610896088
 31
0.0
  0
LINE
  5
1B8A
  8
0
 62
     0
 10
3.8884867310831122
 20
87.296436953880502
 30
0.0
 11
3.4916117310831121
 21
87.983844618134384
 31
0.0
  0
LINE
  5
1B8B
  8
0
 62
     0
 10
5.0791117310831106
 20
85.234213961118812
 30
0.0
 11
4.682236731083111
 21
85.921621625372694
 31
0.0
  0
LINE
  5
1B8C
  8
0
 62
     0
 10
2.697862015579195
 20
86.609029453880495
 30
0.0
 11
2.3009870155791949
 21
87.296437118134392
 31
0.0
  0
LINE
  5
1B8D
  8
0
 62
     0
 10
5.0791216884464747
 20
85.234204598646656
 30
0.0
 11
5.8728716884464749
 21
85.234204598646656
 31
0.0
  0
LINE
  5
1B8E
  8
0
 62
     0
 10
7.460371688446477
 20
86.609019598646654
 30
0.0
 11
8.2541216884464763
 21
86.609019598646654
 31
0.0
  0
LINE
  5
1B8F
  8
0
 62
     0
 10
5.0791216884464774
 20
86.609019598646654
 30
0.0
 11
5.8728716884464767
 21
86.609019598646654
 31
0.0
  0
LINE
  5
1B90
  8
0
 62
     0
 10
2.6978716884464768
 20
86.609019598646654
 30
0.0
 11
3.491621688446477
 21
86.609019598646654
 31
0.0
  0
LINE
  5
1B91
  8
0
 62
     0
 10
7.460371688446477
 20
87.983834598646638
 30
0.0
 11
8.2541216884464763
 21
87.983834598646638
 31
0.0
  0
LINE
  5
1B92
  8
0
 62
     0
 10
5.0791216884464774
 20
87.983834598646638
 30
0.0
 11
5.8728716884464767
 21
87.983834598646638
 31
0.0
  0
LINE
  5
1B93
  8
0
 62
     0
 10
2.6978716884464768
 20
87.983834598646638
 30
0.0
 11
3.491621688446477
 21
87.983834598646638
 31
0.0
  0
LINE
  5
1B94
  8
0
 62
     0
 10
7.460371688446477
 20
89.358649598646636
 30
0.0
 11
8.2541216884464763
 21
89.358649598646636
 31
0.0
  0
LINE
  5
1B95
  8
0
 62
     0
 10
5.0791216884464774
 20
89.358649598646636
 30
0.0
 11
5.8728716884464767
 21
89.358649598646636
 31
0.0
  0
LINE
  5
1B96
  8
0
 62
     0
 10
2.6978716884464768
 20
89.358649598646636
 30
0.0
 11
3.491621688446477
 21
89.358649598646636
 31
0.0
  0
LINE
  5
1B97
  8
0
 62
     0
 10
7.460371688446477
 20
90.733464598646634
 30
0.0
 11
8.2541216884464763
 21
90.733464598646634
 31
0.0
  0
LINE
  5
1B98
  8
0
 62
     0
 10
5.0791216884464774
 20
90.733464598646634
 30
0.0
 11
5.8728716884464767
 21
90.733464598646634
 31
0.0
  0
LINE
  5
1B99
  8
0
 62
     0
 10
2.6978716884464768
 20
90.733464598646634
 30
0.0
 11
3.491621688446477
 21
90.733464598646634
 31
0.0
  0
LINE
  5
1B9A
  8
0
 62
     0
 10
7.4603716884464752
 20
92.108279598646646
 30
0.0
 11
8.2541216884464745
 21
92.108279598646646
 31
0.0
  0
LINE
  5
1B9B
  8
0
 62
     0
 10
5.0791216884464747
 20
92.108279598646646
 30
0.0
 11
5.8728716884464749
 21
92.108279598646646
 31
0.0
  0
LINE
  5
1B9C
  8
0
 62
     0
 10
3.1629721365795538
 20
92.108279598646646
 30
0.0
 11
3.4916216884464761
 21
92.108279598646646
 31
0.0
  0
ENDBLK
  5
1B9E
  8
0
  0
BLOCK
  8
0
  2
*U93
 70
     1
 10
0.0
 20
0.0
 30
0.0
  3
*U93
  1

  0
TEXT
  5
1BC0
  8
SAPA_MATT
 62
     2
 10
107.3328899039161
 20
23.221688920634239
 30
0.0
 40
3.0
  1
52
 50
90.0
  7
ISO
  0
ENDBLK
  5
1BC2
  8
0
  0
BLOCK
  8
0
  2
*U94
 70
     1
 10
0.0
 20
0.0
 30
0.0
  3
*U94
  1

  0
TEXT
  5
1BC4
  8
SAPA_MATT
 62
     2
 10
40.929121686857137
 20
-34.32908570194536
 30
0.0
 40
3.0
  1
86
  7
ISO
  0
ENDBLK
  5
1BC6
  8
0
  0
BLOCK
  8
0
  2
*U95
 70
     1
 10
0.0
 20
0.0
 30
0.0
  3
*U95
  1

  0
TEXT
  5
1BC8
  8
SAPA_MATT
 62
     2
 10
-21.64427915219926
 20
46.391238093963537
 30
0.0
 40
3.0
  1
97
 50
90.0
  7
ISO
  0
ENDBLK
  5
1BCA
  8
0
  0
BLOCK
  8
0
  2
*U96
 70
     1
 10
0.0
 20
0.0
 30
0.0
  3
*U96
  1

  0
TEXT
  5
1BCC
  8
SAPA_MATT
 62
     2
 10
122.3296921328925
 20
151.25452761490931
 30
0.0
 40
3.0
  1
237-242
  7
ISO
  0
ENDBLK
  5
1BCE
  8
0
  0
ENDSEC
  0
SECTION
  2
ENTITIES
  0
CIRCLE
  5
863
  8
SAPA_ANSLUTNING
 10
5.7794069107638393
 20
89.016503498565498
 30
0.0
 40
4.0502852221286458
  0
LINE
  5
864
  8
SAPA_ANSLUTNING
 10
0.2520957363737288
 20
96.981181517263593
 30
0.0
 11
9.8296921328924896
 21
99.549989723221245
 31
0.0
  0
CIRCLE
  5
866
  8
SAPA_ANSLUTNING
 10
252.82969213289309
 20
92.492714598623067
 30
0.0
 40
3.0000000000000848
1001
ACAD
1000
ASC_BOUNDS
1002
{
1070
    19
1005
12D1
1002
}
  0
LINE
  5
867
  8
SAPA_ANSLUTNING
 10
257.40733784642259
 20
96.982492346505396
 30
0.0
 11
249.82969213289249
 21
99.012916395974955
 31
0.0
  0
POLYLINE
  5
8A6
  8
SAPA_ANSLUTNING
 66
     1
 10
0.0
 20
0.0
 30
0.0
  0
VERTEX
  5
13B0
  8
SAPA_ANSLUTNING
 10
98.333207447649784
 20
71.992714598671185
 30
0.0
  0
VERTEX
  5
13B1
  8
SAPA_ANSLUTNING
 10
98.333207447646146
 20
59.295314993182409
 30
0.0
 42
-0.9999999999999998
  0
VERTEX
  5
13B2
  8
SAPA_ANSLUTNING
 10
89.921206857471134
 20
59.295314993182409
 30
0.0
  0
VERTEX
  5
13B3
  8
SAPA_ANSLUTNING
 10
89.921206857471134
 20
67.786714303661967
 30
0.0
 42
0.9999999999999998
  0
VERTEX
  5
13B4
  8
SAPA_ANSLUTNING
 10
81.509206267307036
 20
67.786714303661967
 30
0.0
  0
VERTEX
  5
13B5
  8
SAPA_ANSLUTNING
 10
81.509206267307036
 20
60.879678968160668
 30
0.0
 42
-0.9999999999999998
  0
VERTEX
  5
13B6
  8
SAPA_ANSLUTNING
 10
73.097205677132024
 20
60.879678968160668
 30
0.0
  0
VERTEX
  5
13B7
  8
SAPA_ANSLUTNING
 10
73.097205677132024
 20
67.786714303661967
 30
0.0
 42
0.9999999999999998
  0
VERTEX
  5
13B8
  8
SAPA_ANSLUTNING
 10
64.685205086967926
 20
67.786714303661967
 30
0.0
  0
VERTEX
  5
13B9
  8
SAPA_ANSLUTNING
 10
64.685205086967926
 20
55.893592526840649
 30
0.0
 42
-0.9999999999999998
  0
VERTEX
  5
13BA
  8
SAPA_ANSLUTNING
 10
56.273204496792943
 20
55.893592526840649
 30
0.0
  0
VERTEX
  5
13BB
  8
SAPA_ANSLUTNING
 10
56.273204496792943
 20
67.786714303661967
 30
0.0
 42
0.9999999999999998
  0
VERTEX
  5
13BC
  8
SAPA_ANSLUTNING
 10
47.861203906628838
 20
67.786714303661967
 30
0.0
  0
VERTEX
  5
13BD
  8
SAPA_ANSLUTNING
 10
47.861203906628838
 20
55.893592526840649
 30
0.0
 42
-0.9999999999999998
  0
VERTEX
  5
13BE
  8
SAPA_ANSLUTNING
 10
39.449203316453833
 20
55.893592526840649
 30
0.0
  0
VERTEX
  5
13BF
  8
SAPA_ANSLUTNING
 10
39.449203316453833
 20
67.786714303661967
 30
0.0
 42
0.9999999999999998
  0
VERTEX
  5
13C0
  8
SAPA_ANSLUTNING
 10
31.037202726289738
 20
67.786714303661967
 30
0.0
  0
VERTEX
  5
13C1
  8
SAPA_ANSLUTNING
 10
31.037202726289738
 20
55.893592526840649
 30
0.0
 42
-0.9999999999999998
  0
VERTEX
  5
13C2
  8
SAPA_ANSLUTNING
 10
22.625202136114719
 20
55.893592526840649
 30
0.0
  0
VERTEX
  5
13C3
  8
SAPA_ANSLUTNING
 10
22.625202136114719
 20
67.786714303661967
 30
0.0
  0
SEQEND
  5
13C4
  8
SAPA_ANSLUTNING
  0
LINE
  5
9F6
  8
SAPA_ANSLUTNING
 10
249.82969213289249
 20
71.992714598606909
 30
0.0
 11
9.8296921328925038
 21
71.992714598741614
 31
0.0
  0
LINE
  5
9F9
  8
SAPA_ANSLUTNING
 10
9.8296921328924896
 20
131.99271459872941
 30
0.0
 11
9.8296921328924896
 21
71.992714598741628
 31
0.0
  0
LINE
  5
A03
  8
SAPA_ANSLUTNING
 10
10.429692132798349
 20
71.992714598740989
 30
0.0
 11
10.429692132892511
 21
131.99271459872941
 31
0.0
  0
LINE
  5
A04
  8
SAPA_ANSLUTNING
 10
249.82969213289249
 20
131.99271459872941
 30
0.0
 11
249.82969213289249
 21
71.992714598606909
 31
0.0
  0
LINE
  5
A0E
  8
SAPA_ANSLUTNING
 10
249.22969213279379
 20
71.992714598607535
 30
0.0
 11
249.2296921328925
 21
131.99271459872941
 31
0.0
  0
TEXT
  5
BC4
  8
SAPA_ARTIKELNR
 10
-8.2869015514700557
 20
112.0407813859503
 30
0.0
 40
3.4999999999999991
  1
42070
 50
205.92875215863239
 51
180.0
  7
ISO
 71
     6
 72
     4
 11
-3.3862622023632021
 21
116.36931854877859
 31
0.0
  0
TEXT
  5
C74
  8
SAPA_ARTIKELNR
 10
-2.3745719724146772
 20
31.678372821352639
 30
0.0
 40
3.5
  1
86117
 50
270.0
 51
180.0
  7
ISO
 71
     6
 72
     4
 11
-4.1245719724146763
 21
37.103372821352643
 31
0.0
  0
TEXT
  5
C7D
  8
SAPA_ARTIKELNR
 10
91.334455180466975
 20
4.746033548816821
 30
0.0
 40
3.5
  1
42730
 50
270.0
 51
180.0
  7
ISO
 71
     6
 72
     4
 11
89.584455180466989
 21
11.046033548816821
 31
0.0
  0
TEXT
  5
C85
  8
SAPA_ARTIKELNR
 10
263.13502563300329
 20
66.219578247023549
 30
0.0
 40
3.5
  1
42882
 50
270.0
 51
180.0
  7
ISO
 71
     6
 72
     4
 11
261.38502563300318
 21
72.519578247023546
 31
0.0
  0
TEXT
  5
C92
  8
SAPA_ARTIKELNR
 10
70.06625809911209
 20
58.488552699823629
 30
0.0
 40
3.5
  1
42793
 50
180.0
 51
180.0
  7
ISO
 71
     6
 72
     4
 11
76.366258099112073
 21
60.238552699823622
 31
0.0
  0
POLYLINE
  5
12AE
  8
SAPA_PROFIL
 66
     1
 10
0.0
 20
0.0
 30
0.0
 70
     1
  0
VERTEX
  5
1700
  8
SAPA_PROFIL
 10
244.86631905755721
 20
58.791238414372167
 30
0.0
 42
-0.5535245743366085
  0
VERTEX
  5
1701
  8
SAPA_PROFIL
 10
243.09379973494191
 20
54.480684202822658
 30
0.0
  0
VERTEX
  5
1702
  8
SAPA_PROFIL
 10
242.8064688282592
 20
54.768015109505512
 30
0.0
 42
0.4142135623731421
  0
VERTEX
  5
1703
  8
SAPA_PROFIL
 10
242.45291543766581
 20
54.768015109505477
 30
0.0
  0
VERTEX
  5
1704
  8
SAPA_PROFIL
 10
242.1655845309738
 20
54.480684202813528
 30
0.0
 42
-0.5535245743469748
  0
VERTEX
  5
1705
  8
SAPA_PROFIL
 10
240.393065208287
 20
58.79123841437174
 30
0.0
  0
VERTEX
  5
1706
  8
SAPA_PROFIL
 10
240.72969213291719
 20
58.791238414371911
 30
0.0
 42
0.414213562372873
  0
VERTEX
  5
1707
  8
SAPA_PROFIL
 10
241.02969213291709
 20
59.0912384143721
 30
0.0
  0
VERTEX
  5
1708
  8
SAPA_PROFIL
 10
241.0296921329174
 20
59.591238414371652
 30
0.0
 42
0.414213562372665
  0
VERTEX
  5
1709
  8
SAPA_PROFIL
 10
240.72969213291719
 20
59.891238414371827
 30
0.0
  0
VERTEX
  5
170A
  8
SAPA_PROFIL
 10
238.42969213291721
 20
59.891238414371827
 30
0.0
 42
0.4142135623730951
  0
VERTEX
  5
170B
  8
SAPA_PROFIL
 10
238.12969213291751
 20
59.5912384143721
 30
0.0
  0
VERTEX
  5
170C
  8
SAPA_PROFIL
 10
238.1296921329166
 20
55.291238414479238
 30
0.0
 42
-0.4142135623736611
  0
VERTEX
  5
170D
  8
SAPA_PROFIL
 10
237.12969213291481
 20
54.291238414479459
 30
0.0
  0
VERTEX
  5
170E
  8
SAPA_PROFIL
 10
93.929692132913232
 20
54.291238414774057
 30
0.0
 42
-0.4142135623723464
  0
VERTEX
  5
170F
  8
SAPA_PROFIL
 10
93.629692132913846
 20
54.591238414773812
 30
0.0
  0
VERTEX
  5
1710
  8
SAPA_PROFIL
 10
93.629692132913817
 20
54.691238414909222
 30
0.0
 42
0.637070260804782
  0
VERTEX
  5
1711
  8
SAPA_PROFIL
 10
93.136855850009425
 20
54.92105174784605
 30
0.0
  0
VERTEX
  5
1712
  8
SAPA_PROFIL
 10
92.322528415818454
 20
54.23774989816787
 30
0.0
 42
-0.6370702608053477
  0
VERTEX
  5
1713
  8
SAPA_PROFIL
 10
91.829692132913834
 20
54.467563231105132
 30
0.0
  0
VERTEX
  5
1714
  8
SAPA_PROFIL
 10
91.829692132914005
 20
54.691238414909222
 30
0.0
 42
0.6370702608049355
  0
VERTEX
  5
1715
  8
SAPA_PROFIL
 10
91.336855850009314
 20
54.92105174784605
 30
0.0
  0
VERTEX
  5
1716
  8
SAPA_PROFIL
 10
90.522528415818186
 20
54.23774989816787
 30
0.0
 42
-0.6370702608053194
  0
VERTEX
  5
1717
  8
SAPA_PROFIL
 10
90.029692132913695
 20
54.467563231105132
 30
0.0
  0
VERTEX
  5
1718
  8
SAPA_PROFIL
 10
90.029692132913823
 20
54.691238414909222
 30
0.0
 42
0.6370702608043289
  0
VERTEX
  5
1719
  8
SAPA_PROFIL
 10
89.536855850009374
 20
54.92105174784605
 30
0.0
  0
VERTEX
  5
171A
  8
SAPA_PROFIL
 10
88.722528415818061
 20
54.23774989816787
 30
0.0
 42
-0.6370702608051309
  0
VERTEX
  5
171B
  8
SAPA_PROFIL
 10
88.229692132913812
 20
54.467563231105132
 30
0.0
  0
VERTEX
  5
171C
  8
SAPA_PROFIL
 10
88.229692132913925
 20
54.691238414909222
 30
0.0
 42
0.6370702608042995
  0
VERTEX
  5
171D
  8
SAPA_PROFIL
 10
87.73685585000942
 20
54.92105174784605
 30
0.0
  0
VERTEX
  5
171E
  8
SAPA_PROFIL
 10
86.922528415818107
 20
54.23774989816787
 30
0.0
 42
-0.6370702608051309
  0
VERTEX
  5
171F
  8
SAPA_PROFIL
 10
86.429692132913857
 20
54.467563231105132
 30
0.0
  0
VERTEX
  5
1720
  8
SAPA_PROFIL
 10
86.429692132913644
 20
54.691238414909222
 30
0.0
 42
0.6370702608047666
  0
VERTEX
  5
1721
  8
SAPA_PROFIL
 10
85.936855850009351
 20
54.92105174784605
 30
0.0
  0
VERTEX
  5
1722
  8
SAPA_PROFIL
 10
85.122528415818351
 20
54.23774989816787
 30
0.0
 42
-0.6370702608053223
  0
VERTEX
  5
1723
  8
SAPA_PROFIL
 10
84.629692132913775
 20
54.467563231105132
 30
0.0
  0
VERTEX
  5
1724
  8
SAPA_PROFIL
 10
84.62969213291376
 20
54.691238414909222
 30
0.0
 42
0.6370702608054398
  0
VERTEX
  5
1725
  8
SAPA_PROFIL
 10
84.136855850008175
 20
54.921051747845127
 30
0.0
  0
VERTEX
  5
1726
  8
SAPA_PROFIL
 10
83.322528415818397
 20
54.237749898167898
 30
0.0
 42
-0.6370702608053286
  0
VERTEX
  5
1727
  8
SAPA_PROFIL
 10
82.829692132913806
 20
54.467563231105132
 30
0.0
  0
VERTEX
  5
1728
  8
SAPA_PROFIL
 10
82.829692132913934
 20
54.691238414909222
 30
0.0
 42
0.6370702608055612
  0
VERTEX
  5
1729
  8
SAPA_PROFIL
 10
82.336855850008078
 20
54.921051747845127
 30
0.0
  0
VERTEX
  5
172A
  8
SAPA_PROFIL
 10
81.522528415818115
 20
54.237749898168317
 30
0.0
 42
-0.6370702608052288
  0
VERTEX
  5
172B
  8
SAPA_PROFIL
 10
81.029692132913723
 20
54.467563231105153
 30
0.0
  0
VERTEX
  5
172C
  8
SAPA_PROFIL
 10
81.029692132913638
 20
54.691238414909222
 30
0.0
 42
0.6370702608054464
  0
VERTEX
  5
172D
  8
SAPA_PROFIL
 10
80.53685585000801
 20
54.921051747845127
 30
0.0
  0
VERTEX
  5
172E
  8
SAPA_PROFIL
 10
79.72252841581826
 20
54.237749898168353
 30
0.0
 42
-0.6370702608049216
  0
VERTEX
  5
172F
  8
SAPA_PROFIL
 10
79.229692132913556
 20
54.467563231104663
 30
0.0
  0
VERTEX
  5
1730
  8
SAPA_PROFIL
 10
79.229692132913328
 20
54.691238414909222
 30
0.0
 42
0.6064417173624969
  0
VERTEX
  5
1731
  8
SAPA_PROFIL
 10
78.757887454192343
 20
54.937171642369897
 30
0.0
  0
VERTEX
  5
1732
  8
SAPA_PROFIL
 10
75.843351001711653
 20
52.901127127330831
 30
0.0
 42
0.7336498725449036
  0
VERTEX
  5
1733
  8
SAPA_PROFIL
 10
76.129692132926749
 20
51.991238414894838
 30
0.0
  0
VERTEX
  5
1734
  8
SAPA_PROFIL
 10
257.12969213291677
 20
51.991238414418348
 30
0.0
 42
0.4142135623753592
  0
VERTEX
  5
1735
  8
SAPA_PROFIL
 10
257.62969213292018
 20
52.491238414418802
 30
0.0
  0
VERTEX
  5
1736
  8
SAPA_PROFIL
 10
257.62969213289182
 20
96.691238414736716
 30
0.0
 42
0.66817863791893
  0
VERTEX
  5
1737
  8
SAPA_PROFIL
 10
257.11756009853571
 20
96.903370449092506
 30
0.0
  0
VERTEX
  5
1738
  8
SAPA_PROFIL
 10
255.4761387422991
 20
95.261949092855957
 30
0.0
 42
0.4142135623729537
  0
VERTEX
  5
1739
  8
SAPA_PROFIL
 10
255.47613874229941
 20
94.55484231166929
 30
0.0
  0
VERTEX
  5
173A
  8
SAPA_PROFIL
 10
255.74182416724861
 20
94.289156886720292
 30
0.0
 42
-0.198912367379707
  0
VERTEX
  5
173B
  8
SAPA_PROFIL
 10
255.82969213289249
 20
94.077024852364275
 30
0.0
  0
VERTEX
  5
173C
  8
SAPA_PROFIL
 10
255.82969213289249
 20
89.991238414737595
 30
0.0
 42
-0.4142135623734946
  0
VERTEX
  5
173D
  8
SAPA_PROFIL
 10
255.32969213289181
 20
89.49123841473758
 30
0.0
  0
VERTEX
  5
173E
  8
SAPA_PROFIL
 10
250.12969213289341
 20
89.491238414745084
 30
0.0
 42
0.414213562373761
  0
VERTEX
  5
173F
  8
SAPA_PROFIL
 10
249.82969213289249
 20
89.191238414744902
 30
0.0
  0
VERTEX
  5
1740
  8
SAPA_PROFIL
 10
249.82969213289249
 20
87.79123841474572
 30
0.0
 42
0.4142135623728733
  0
VERTEX
  5
1741
  8
SAPA_PROFIL
 10
250.1296921328925
 20
87.491238414745766
 30
0.0
  0
VERTEX
  5
1742
  8
SAPA_PROFIL
 10
254.829692132898
 20
87.491238414745538
 30
0.0
 42
-0.4142135623728287
  0
VERTEX
  5
1743
  8
SAPA_PROFIL
 10
255.329692132898
 20
86.991238414745993
 30
0.0
  0
VERTEX
  5
1744
  8
SAPA_PROFIL
 10
255.32969213291889
 20
54.791238414432172
 30
0.0
 42
-0.4142135623753592
  0
VERTEX
  5
1745
  8
SAPA_PROFIL
 10
254.82969213291551
 20
54.29123841443171
 30
0.0
  0
VERTEX
  5
1746
  8
SAPA_PROFIL
 10
248.1296921329043
 20
54.2912384144499
 30
0.0
 42
-0.414213562372995
  0
VERTEX
  5
1747
  8
SAPA_PROFIL
 10
247.1296921329168
 20
55.291238414453538
 30
0.0
  0
VERTEX
  5
1748
  8
SAPA_PROFIL
 10
247.129692132917
 20
59.5912384143721
 30
0.0
 42
0.414213562372887
  0
VERTEX
  5
1749
  8
SAPA_PROFIL
 10
246.8296921329171
 20
59.891238414371827
 30
0.0
  0
VERTEX
  5
174A
  8
SAPA_PROFIL
 10
244.52969213291709
 20
59.891238414371827
 30
0.0
 42
0.4142135623728731
  0
VERTEX
  5
174B
  8
SAPA_PROFIL
 10
244.22969213291719
 20
59.591238414371652
 30
0.0
  0
VERTEX
  5
174C
  8
SAPA_PROFIL
 10
244.22969213291699
 20
59.0912384143721
 30
0.0
 42
0.4142135623730951
  0
VERTEX
  5
174D
  8
SAPA_PROFIL
 10
244.52969213291709
 20
58.791238414371911
 30
0.0
  0
SEQEND
  5
174E
  8
SAPA_PROFIL
  0
POLYLINE
  5
12AF
  8
SAPA_PROFIL
 66
     1
 10
0.0
 20
0.0
 30
0.0
 70
     1
  0
VERTEX
  5
174F
  8
SAPA_PROFIL
 10
83.133881674496365
 20
21.491238414657278
 30
0.0
  0
VERTEX
  5
1750
  8
SAPA_PROFIL
 10
82.891337736649234
 20
21.491238414657278
 30
0.0
 42
-0.2011813370902256
  0
VERTEX
  5
1751
  8
SAPA_PROFIL
 10
82.748687646818667
 20
21.551056561797331
 30
0.0
  0
VERTEX
  5
1752
  8
SAPA_PROFIL
 10
81.837975553794749
 20
22.47780392052702
 30
0.0
  0
VERTEX
  5
1753
  8
SAPA_PROFIL
 10
81.851183096537966
 20
23.99123841465909
 30
0.0
 42
0.4931454260356012
  0
VERTEX
  5
1754
  8
SAPA_PROFIL
 10
82.072009985585623
 20
25.562503374896931
 30
0.0
  0
VERTEX
  5
1755
  8
SAPA_PROFIL
 10
81.02283341297283
 20
26.630153211721272
 30
0.0
 42
0.6681786379164681
  0
VERTEX
  5
1756
  8
SAPA_PROFIL
 10
80.672933155487897
 20
26.488784331267581
 30
0.0
  0
VERTEX
  5
1757
  8
SAPA_PROFIL
 10
80.633683666890605
 20
21.991238414657271
 30
0.0
  0
VERTEX
  5
1758
  8
SAPA_PROFIL
 10
82.711196926120351
 20
19.877145563067572
 30
0.0
 42
-0.2038501166358263
  0
VERTEX
  5
1759
  8
SAPA_PROFIL
 10
82.854379782726369
 20
19.512838783649769
 30
0.0
  0
VERTEX
  5
175A
  8
SAPA_PROFIL
 10
82.435753673437489
 20
4.4081255310553473
 30
0.0
 42
-0.4061212134736873
  0
VERTEX
  5
175B
  8
SAPA_PROFIL
 10
79.436905186338038
 20
1.4912384146637541
 30
0.0
  0
VERTEX
  5
175C
  8
SAPA_PROFIL
 10
67.652713942869966
 20
1.4912384146637541
 30
0.0
 42
-0.4142135623730951
  0
VERTEX
  5
175D
  8
SAPA_PROFIL
 10
67.15271394286998
 20
1.9912384146637541
 30
0.0
  0
VERTEX
  5
175E
  8
SAPA_PROFIL
 10
67.15271394286998
 20
13.577024852288829
 30
0.0
 42
-0.198912367379658
  0
VERTEX
  5
175F
  8
SAPA_PROFIL
 10
67.445607161683427
 20
14.284131633475379
 30
0.0
  0
VERTEX
  5
1760
  8
SAPA_PROFIL
 10
67.826205935073915
 20
14.66473040686593
 30
0.0
 42
0.1830252782112529
  0
VERTEX
  5
1761
  8
SAPA_PROFIL
 10
68.408234476821519
 20
15.95639821559727
 30
0.0
  0
VERTEX
  5
1762
  8
SAPA_PROFIL
 10
69.131299204152072
 20
26.389470244403061
 30
0.0
 42
0.668178637923616
  0
VERTEX
  5
1763
  8
SAPA_PROFIL
 10
68.616148714363078
 20
26.602852563936651
 30
0.0
  0
VERTEX
  5
1764
  8
SAPA_PROFIL
 10
66.616666599440521
 20
24.603370449014101
 30
0.0
 42
0.7332303362588345
  0
VERTEX
  5
1765
  8
SAPA_PROFIL
 10
66.880893087097718
 20
24.095796088754401
 30
0.0
  0
VERTEX
  5
1766
  8
SAPA_PROFIL
 10
67.496704180496124
 20
24.20438019954047
 30
0.0
 42
-0.4663076581593561
  0
VERTEX
  5
1767
  8
SAPA_PROFIL
 10
67.848798633796321
 20
23.908937873637051
 30
0.0
  0
VERTEX
  5
1768
  8
SAPA_PROFIL
 10
67.117639011915855
 20
16.149460748284739
 30
0.0
 42
-0.183025278211264
  0
VERTEX
  5
1769
  8
SAPA_PROFIL
 10
66.826624741042053
 20
15.50362684391904
 30
0.0
  0
VERTEX
  5
176A
  8
SAPA_PROFIL
 10
66.438500380497032
 20
15.115502483374071
 30
0.0
 42
0.1989123673796518
  0
VERTEX
  5
176B
  8
SAPA_PROFIL
 10
65.852713942870139
 20
13.701288921001019
 30
0.0
  0
VERTEX
  5
176C
  8
SAPA_PROFIL
 10
65.852713942870025
 20
2.2912384146482481
 30
0.0
 42
-0.4142135623732283
  0
VERTEX
  5
176D
  8
SAPA_PROFIL
 10
65.352713942869784
 20
1.7912384146482481
 30
0.0
  0
VERTEX
  5
176E
  8
SAPA_PROFIL
 10
64.152713942870434
 20
1.791238414649214
 30
0.0
 42
0.4142135623732062
  0
VERTEX
  5
176F
  8
SAPA_PROFIL
 10
63.852713942870373
 20
1.491238414649203
 30
0.0
  0
VERTEX
  5
1770
  8
SAPA_PROFIL
 10
63.852713942870018
 20
0.2912384146637095
 30
0.0
 42
0.4142135623716247
  0
VERTEX
  5
1771
  8
SAPA_PROFIL
 10
64.152713942871344
 20
-0.0087615853363019
 30
0.0
  0
VERTEX
  5
1772
  8
SAPA_PROFIL
 10
84.129121685193354
 20
-0.0087615853498306
 30
0.0
 42
0.4142135623732938
  0
VERTEX
  5
1773
  8
SAPA_PROFIL
 10
84.3291216851934
 20
0.191238414650158
 30
0.0
  0
VERTEX
  5
1774
  8
SAPA_PROFIL
 10
84.3291216851934
 20
21.78661452833596
 30
0.0
 42
0.4210020197690384
  0
VERTEX
  5
1775
  8
SAPA_PROFIL
 10
84.129175143149396
 20
21.991238414657271
 30
0.0
  0
VERTEX
  5
1776
  8
SAPA_PROFIL
 10
83.541191979953865
 20
21.991238414663751
 30
0.0
  0
VERTEX
  5
1777
  8
SAPA_PROFIL
 10
83.541191979953865
 20
21.69123841466374
 30
0.0
 42
-0.41421356237322
  0
VERTEX
  5
1778
  8
SAPA_PROFIL
 10
83.341191979953805
 20
21.491238414663869
 30
0.0
  0
VERTEX
  5
1779
  8
SAPA_PROFIL
 10
83.124014214484177
 20
21.491238414663759
 30
0.0
  0
SEQEND
  5
177A
  8
SAPA_PROFIL
  0
CIRCLE
  5
12B0
  8
SAPA_PROFIL
 62
     2
 10
3.2185461367774328
 20
3.327897487243376
 30
0.0
 40
0.8999999999999985
  0
POLYLINE
  5
12B1
  8
SAPA_PROFIL
 62
     2
 66
     1
 10
0.0
 20
0.0
 30
0.0
  0
VERTEX
  5
177B
  8
SAPA_PROFIL
 62
     2
 10
4.5265525483504803
 20
1.9278974872433989
 30
0.0
  0
VERTEX
  5
177C
  8
SAPA_PROFIL
 62
     2
 10
3.435633738197736
 20
2.1202559072357872
 30
0.0
  0
VERTEX
  5
177D
  8
SAPA_PROFIL
 62
     2
 10
3.319934198677799
 20
1.6884593473341729
 30
0.0
 42
-0.4430158954262519
  0
VERTEX
  5
177E
  8
SAPA_PROFIL
 62
     2
 10
3.0564577705708298
 20
1.5529822997900731
 30
0.0
  0
VERTEX
  5
177F
  8
SAPA_PROFIL
 62
     2
 10
1.785970022652634
 20
2.0299304930090321
 30
0.0
 42
-0.3125358528825162
  0
VERTEX
  5
1780
  8
SAPA_PROFIL
 62
     2
 10
1.526552548350935
 20
2.404412206138431
 30
0.0
  0
VERTEX
  5
1781
  8
SAPA_PROFIL
 62
     2
 10
1.52655254835048
 20
4.2745675220487547
 30
0.0
 42
-0.3125358528825104
  0
VERTEX
  5
1782
  8
SAPA_PROFIL
 62
     2
 10
1.785970022652634
 20
4.649049235178154
 30
0.0
  0
VERTEX
  5
1783
  8
SAPA_PROFIL
 62
     2
 10
3.0564577705708298
 20
5.1259974283973397
 30
0.0
 42
-0.4430158954262519
  0
VERTEX
  5
1784
  8
SAPA_PROFIL
 62
     2
 10
3.3199341986776849
 20
4.9905203808532397
 30
0.0
  0
VERTEX
  5
1785
  8
SAPA_PROFIL
 62
     2
 10
3.435633738197736
 20
4.5587238209513989
 30
0.0
  0
VERTEX
  5
1786
  8
SAPA_PROFIL
 62
     2
 10
4.5265525483504803
 20
4.750989864093639
 30
0.0
  0
SEQEND
  5
1787
  8
SAPA_PROFIL
 62
     2
  0
POLYLINE
  5
12B2
  8
SAPA_PROFIL
 62
     2
 66
     1
 10
0.0
 20
0.0
 30
0.0
 70
     1
  0
VERTEX
  5
1788
  8
SAPA_PROFIL
 62
     2
 10
4.5265525483504803
 20
1.939489864093729
 30
0.0
 42
0.285714285714282
  0
VERTEX
  5
1789
  8
SAPA_PROFIL
 62
     2
 10
4.5265525483504803
 20
4.7394898640936836
 30
0.0
  0
VERTEX
  5
178A
  8
SAPA_PROFIL
 62
     2
 10
4.526552548350935
 20
6.8132700334815581
 30
0.0
 42
-0.3882600129940275
  0
VERTEX
  5
178B
  8
SAPA_PROFIL
 62
     2
 10
4.799763274630493
 20
7.1120715308229592
 30
0.0
  0
VERTEX
  5
178C
  8
SAPA_PROFIL
 62
     2
 10
8.6997632746305822
 20
7.5782814547494581
 30
0.0
 42
-0.4406523138893894
  0
VERTEX
  5
178D
  8
SAPA_PROFIL
 62
     2
 10
9.0265525483504803
 20
7.2794799574076023
 30
0.0
  0
VERTEX
  5
178E
  8
SAPA_PROFIL
 62
     2
 10
9.0265525483504803
 20
5.5696879604872711
 30
0.0
 42
-0.3394542588634375
  0
VERTEX
  5
178F
  8
SAPA_PROFIL
 62
     2
 10
8.8041982618814814
 20
5.2799102126007247
 30
0.0
  0
VERTEX
  5
1790
  8
SAPA_PROFIL
 62
     2
 10
8.5866124797138923
 20
5.0775304846692961
 30
0.0
 42
0.3394542588633663
  0
VERTEX
  5
1791
  8
SAPA_PROFIL
 62
     2
 10
8.3642581932448934
 20
4.7877527367825223
 30
0.0
  0
VERTEX
  5
1792
  8
SAPA_PROFIL
 62
     2
 10
8.3642581932448934
 20
1.891226991404664
 30
0.0
 42
0.3394542588634373
  0
VERTEX
  5
1793
  8
SAPA_PROFIL
 62
     2
 10
8.5866124797138923
 20
1.601449243518118
 30
0.0
  0
VERTEX
  5
1794
  8
SAPA_PROFIL
 62
     2
 10
8.8041982618814814
 20
1.3990695155866879
 30
0.0
 42
-0.3394542588633662
  0
VERTEX
  5
1795
  8
SAPA_PROFIL
 62
     2
 10
9.0265525483504803
 20
1.1092917676999141
 30
0.0
  0
VERTEX
  5
1796
  8
SAPA_PROFIL
 62
     2
 10
9.0265525483504803
 20
-0.600500229220188
 30
0.0
 42
-0.4406523138893994
  0
VERTEX
  5
1797
  8
SAPA_PROFIL
 62
     2
 10
8.6997632746305822
 20
-0.8993017265618163
 30
0.0
  0
VERTEX
  5
1798
  8
SAPA_PROFIL
 62
     2
 10
4.799763274630493
 20
-0.4330918026355448
 30
0.0
 42
-0.3882600129940462
  0
VERTEX
  5
1799
  8
SAPA_PROFIL
 62
     2
 10
4.5265525483504803
 20
-0.1342903052941438
 30
0.0
  0
VERTEX
  5
179A
  8
SAPA_PROFIL
 62
     2
 10
4.5265525483504803
 20
1.9278974872433989
 30
0.0
  0
SEQEND
  5
179B
  8
SAPA_PROFIL
 62
     2
  0
POLYLINE
  5
12B3
  8
SAPA_PROFIL
 66
     1
 10
0.0
 20
0.0
 30
0.0
 70
     1
  0
VERTEX
  5
179C
  8
SAPA_PROFIL
 10
80.02912168542781
 20
48.405001356611017
 30
0.0
 42
-0.2679491924315167
  0
VERTEX
  5
179D
  8
SAPA_PROFIL
 10
80.179121685427774
 20
48.145193735475338
 30
0.0
  0
VERTEX
  5
179E
  8
SAPA_PROFIL
 10
80.179121685427333
 20
47.792714598723592
 30
0.0
 42
0.4142135623730951
  0
VERTEX
  5
179F
  8
SAPA_PROFIL
 10
80.479121685428311
 20
47.492714598722493
 30
0.0
  0
VERTEX
  5
17A0
  8
SAPA_PROFIL
 10
83.27912168222781
 20
47.492714598719083
 30
0.0
 42
0.4142135623728859
  0
VERTEX
  5
17A1
  8
SAPA_PROFIL
 10
83.779121682228435
 20
47.992714598718123
 30
0.0
  0
VERTEX
  5
17A2
  8
SAPA_PROFIL
 10
83.779121682230368
 20
48.992714598726707
 30
0.0
 42
0.4142135623733615
  0
VERTEX
  5
17A3
  8
SAPA_PROFIL
 10
82.779121682231391
 20
49.992714598728639
 30
0.0
  0
VERTEX
  5
17A4
  8
SAPA_PROFIL
 10
81.413096278443504
 20
49.992714598729997
 30
0.0
 42
-0.1316524975871477
  0
VERTEX
  5
17A5
  8
SAPA_PROFIL
 10
81.163096278444016
 20
50.059701896837787
 30
0.0
  0
VERTEX
  5
17A6
  8
SAPA_PROFIL
 10
78.450660713133857
 20
51.625727300629137
 30
0.0
 42
0.1316524975872168
  0
VERTEX
  5
17A7
  8
SAPA_PROFIL
 10
78.200660713134184
 20
51.692714598736927
 30
0.0
  0
VERTEX
  5
17A8
  8
SAPA_PROFIL
 10
70.279121682233892
 20
51.692714598742562
 30
0.0
 42
-0.4142135623729286
  0
VERTEX
  5
17A9
  8
SAPA_PROFIL
 10
69.979121682234052
 20
51.992714598742509
 30
0.0
  0
VERTEX
  5
17AA
  8
SAPA_PROFIL
 10
69.979121682233426
 20
55.469273021813699
 30
0.0
 42
-0.4244748162096643
  0
VERTEX
  5
17AB
  8
SAPA_PROFIL
 10
70.289591531244184
 20
55.769090269919502
 30
0.0
  0
VERTEX
  5
17AC
  8
SAPA_PROFIL
 10
86.210896733049978
 20
55.213106040959637
 30
0.0
 42
-0.4142135623730951
  0
VERTEX
  5
17AD
  8
SAPA_PROFIL
 10
86.500244132144985
 20
54.902818943843158
 30
0.0
  0
VERTEX
  5
17AE
  8
SAPA_PROFIL
 10
86.479304434123435
 20
54.303184447631793
 30
0.0
 42
0.6370702608075453
  0
VERTEX
  5
17AF
  8
SAPA_PROFIL
 10
86.963820124826896
 20
54.056311372538971
 30
0.0
  0
VERTEX
  5
17B0
  8
SAPA_PROFIL
 10
88.73748056383721
 20
55.442046779841348
 30
0.0
 42
0.7002075382097091
  0
VERTEX
  5
17B1
  8
SAPA_PROFIL
 10
88.447099574525623
 20
56.335747570154233
 30
0.0
  0
VERTEX
  5
17B2
  8
SAPA_PROFIL
 10
67.58959153124772
 20
57.064107800705813
 30
0.0
 42
0.4244748162048541
  0
VERTEX
  5
17B3
  8
SAPA_PROFIL
 10
67.279121682236962
 20
56.764290552604912
 30
0.0
  0
VERTEX
  5
17B4
  8
SAPA_PROFIL
 10
67.279121682225252
 20
56.042714598746727
 30
0.0
 42
0.4142135623740385
  0
VERTEX
  5
17B5
  8
SAPA_PROFIL
 10
67.579121682225548
 20
55.742714598745579
 30
0.0
  0
VERTEX
  5
17B6
  8
SAPA_PROFIL
 10
68.479121682222569
 20
55.742714598745629
 30
0.0
 42
-0.4142135623724291
  0
VERTEX
  5
17B7
  8
SAPA_PROFIL
 10
68.779121682222524
 20
55.442714598746363
 30
0.0
  0
VERTEX
  5
17B8
  8
SAPA_PROFIL
 10
68.779121682233892
 20
50.492714598740243
 30
0.0
 42
-0.4142135623740522
  0
VERTEX
  5
17B9
  8
SAPA_PROFIL
 10
68.279121682233381
 20
49.992714598739092
 30
0.0
  0
VERTEX
  5
17BA
  8
SAPA_PROFIL
 10
66.779121682232756
 20
49.992714598740513
 30
0.0
 42
0.4142135623729374
  0
VERTEX
  5
17BB
  8
SAPA_PROFIL
 10
66.279121682232301
 20
49.492714598741252
 30
0.0
  0
VERTEX
  5
17BC
  8
SAPA_PROFIL
 10
66.279121682230141
 20
47.992714598741202
 30
0.0
 42
0.4142135623731454
  0
VERTEX
  5
17BD
  8
SAPA_PROFIL
 10
66.779121682229515
 20
47.492714598740463
 30
0.0
  0
VERTEX
  5
17BE
  8
SAPA_PROFIL
 10
69.17912168542847
 20
47.492714598737393
 30
0.0
 42
0.414213562373503
  0
VERTEX
  5
17BF
  8
SAPA_PROFIL
 10
69.679121685429152
 20
47.99271459873745
 30
0.0
  0
VERTEX
  5
17C0
  8
SAPA_PROFIL
 10
69.679121685429095
 20
48.492714598743248
 30
0.0
 42
-0.414213562373547
  0
VERTEX
  5
17C1
  8
SAPA_PROFIL
 10
70.679121685430573
 20
49.492714598743312
 30
0.0
  0
VERTEX
  5
17C2
  8
SAPA_PROFIL
 10
78.01117248979358
 20
49.492714598732618
 30
0.0
 42
-0.1316524975870585
  0
VERTEX
  5
17C3
  8
SAPA_PROFIL
 10
78.261172489792898
 20
49.425727300624828
 30
0.0
  0
SEQEND
  5
17C4
  8
SAPA_PROFIL
  0
POLYLINE
  5
12B4
  8
SAPA_PROFIL
 66
     1
 10
0.0
 20
0.0
 30
0.0
 70
     1
  0
VERTEX
  5
17C5
  8
SAPA_PROFIL
 10
-8.3995401712831317
 20
107.2576849881595
 30
0.0
 42
0.9999999999999998
  0
VERTEX
  5
17C6
  8
SAPA_PROFIL
 10
-6.90216561149537
 20
107.16897519332031
 30
0.0
  0
VERTEX
  5
17C7
  8
SAPA_PROFIL
 10
-6.8422636985556871
 20
108.1800878971782
 30
0.0
 42
-0.2679491924311268
  0
VERTEX
  5
17C8
  8
SAPA_PROFIL
 10
-6.5670929599593171
 20
108.5975577339573
 30
0.0
  0
VERTEX
  5
17C9
  8
SAPA_PROFIL
 10
3.549297197425715
 20
113.66557933182121
 30
0.0
 42
-0.493145426031307
  0
VERTEX
  5
17CA
  8
SAPA_PROFIL
 10
6.4041970471822927
 20
112.27990288737939
 30
0.0
  0
VERTEX
  5
17CB
  8
SAPA_PROFIL
 10
6.9894936677438748
 20
109.4309727591597
 30
0.0
  0
VERTEX
  5
17CC
  8
SAPA_PROFIL
 10
6.674002910673952
 20
108.4820441094692
 30
0.0
  0
VERTEX
  5
17CD
  8
SAPA_PROFIL
 10
7.3380538491496594
 20
107.7343567743422
 30
0.0
  0
VERTEX
  5
17CE
  8
SAPA_PROFIL
 10
7.0225630920797331
 20
106.7854281246517
 30
0.0
  0
VERTEX
  5
17CF
  8
SAPA_PROFIL
 10
7.5643925994232344
 20
106.1753558591584
 30
0.0
  0
VERTEX
  5
17D0
  8
SAPA_PROFIL
 10
7.3565098298739162
 20
102.66640432674021
 30
0.0
 42
0.4142135623730951
  0
VERTEX
  5
17D1
  8
SAPA_PROFIL
 10
8.2956196731729861
 20
101.6090147569889
 30
0.0
  0
VERTEX
  5
17D2
  8
SAPA_PROFIL
 10
8.7947445264355757
 20
101.5794448253759
 30
0.0
  0
VERTEX
  5
17D3
  8
SAPA_PROFIL
 10
9.2938693796981617
 20
101.54987489376281
 30
0.0
 42
0.4142135623730951
  0
VERTEX
  5
17D4
  8
SAPA_PROFIL
 10
9.8225641645737962
 20
102.01942981541229
 30
0.0
  0
VERTEX
  5
17D5
  8
SAPA_PROFIL
 10
9.8521340961868518
 20
102.51855466867489
 30
0.0
  0
VERTEX
  5
17D6
  8
SAPA_PROFIL
 10
8.8538843896616797
 20
102.577694531901
 30
0.0
  0
VERTEX
  5
17D7
  8
SAPA_PROFIL
 10
9.2087235690183107
 20
108.56719277105211
 30
0.0
  0
VERTEX
  5
17D8
  8
SAPA_PROFIL
 10
7.8853278601867549
 20
115.008818732994
 30
0.0
 42
-0.3394542588633754
  0
VERTEX
  5
17D9
  8
SAPA_PROFIL
 10
8.4169613264001626
 20
116.1041395843416
 30
0.0
  0
VERTEX
  5
17DA
  8
SAPA_PROFIL
 10
9.693114469078818
 20
116.7434557424434
 30
0.0
  0
VERTEX
  5
17DB
  8
SAPA_PROFIL
 10
9.8296921328925286
 20
119.0488146895664
 30
0.0
  0
VERTEX
  5
17DC
  8
SAPA_PROFIL
 10
-7.7210079492438632
 20
110.256416839137
 30
0.0
 42
0.2679491924311207
  0
VERTEX
  5
17DD
  8
SAPA_PROFIL
 10
-8.2713494264365863
 20
109.42147716557901
 30
0.0
  0
SEQEND
  5
17DE
  8
SAPA_PROFIL
  0
POLYLINE
  5
12B5
  8
SAPA_PROFIL
 62
     4
 66
     1
 10
0.0
 20
0.0
 30
0.0
  0
VERTEX
  5
17DF
  8
SAPA_PROFIL
 62
     4
 10
52.07845080777512
 20
24.895333692769839
 30
0.0
 42
0.5571646428658034
  0
VERTEX
  5
17E0
  8
SAPA_PROFIL
 62
     4
 10
51.541490303638291
 20
25.763052606925388
 30
0.0
  0
VERTEX
  5
17E1
  8
SAPA_PROFIL
 62
     4
 10
34.516753067117101
 20
25.76305260692493
 30
0.0
 42
0.5571645048035741
  0
VERTEX
  5
17E2
  8
SAPA_PROFIL
 62
     4
 10
33.97979245015604
 20
24.895333919058761
 30
0.0
  0
VERTEX
  5
17E3
  8
SAPA_PROFIL
 62
     4
 10
34.810499537702732
 20
23.22919326299073
 30
0.0
 42
0.284385813979063
  0
VERTEX
  5
17E4
  8
SAPA_PROFIL
 62
     4
 10
35.078979846183081
 20
23.063052606923289
 30
0.0
  0
VERTEX
  5
17E5
  8
SAPA_PROFIL
 62
     4
 10
50.979263524572389
 20
23.063052606923289
 30
0.0
 42
0.2843858139786238
  0
VERTEX
  5
17E6
  8
SAPA_PROFIL
 62
     4
 10
51.247743833052681
 20
23.229193262990229
 30
0.0
  0
VERTEX
  5
17E7
  8
SAPA_PROFIL
 62
     4
 10
52.078450920599842
 20
24.895333919059571
 30
0.0
  0
SEQEND
  5
17E8
  8
SAPA_PROFIL
 62
     4
  0
POLYLINE
  5
12B6
  8
SAPA_PROFIL
 62
     4
 66
     1
 10
0.0
 20
0.0
 30
0.0
 70
     1
  0
VERTEX
  5
17E9
  8
SAPA_PROFIL
 62
     4
 10
28.611510500710452
 20
22.706221092425722
 30
0.0
  0
VERTEX
  5
17EA
  8
SAPA_PROFIL
 62
     4
 10
28.347487222334429
 20
22.299660896421582
 30
0.0
 42
-0.2539676464751066
  0
VERTEX
  5
17EB
  8
SAPA_PROFIL
 62
     4
 10
28.09588605194973
 20
22.163052606925479
 30
0.0
  0
VERTEX
  5
17EC
  8
SAPA_PROFIL
 62
     4
 10
26.714386466744379
 20
22.163052606925469
 30
0.0
 42
-0.3152987888790479
  0
VERTEX
  5
17ED
  8
SAPA_PROFIL
 62
     4
 10
26.24454015635207
 20
22.492042535263629
 30
0.0
  0
VERTEX
  5
17EE
  8
SAPA_PROFIL
 62
     4
 10
25.348871215443459
 20
24.952872725714911
 30
0.0
 42
0.2694959974287434
  0
VERTEX
  5
17EF
  8
SAPA_PROFIL
 62
     4
 10
25.11735216904211
 20
25.1460047000588
 30
0.0
 42
0.0612686379508233
  0
VERTEX
  5
17F0
  8
SAPA_PROFIL
 62
     4
 10
24.824676736188831
 20
25.15958807068932
 30
0.0
  0
VERTEX
  5
17F1
  8
SAPA_PROFIL
 62
     4
 10
24.475258558880562
 20
25.361324749418142
 30
0.0
 42
0.5773502691891679
  0
VERTEX
  5
17F2
  8
SAPA_PROFIL
 62
     4
 10
24.16025855888098
 20
25.17945941462358
 30
0.0
  0
VERTEX
  5
17F3
  8
SAPA_PROFIL
 62
     4
 10
24.160258558880741
 20
24.912344886497259
 30
0.0
  0
VERTEX
  5
17F4
  8
SAPA_PROFIL
 62
     4
 10
22.76173085824648
 20
24.103661425188939
 30
0.0
 42
-0.1318219888653519
  0
VERTEX
  5
17F5
  8
SAPA_PROFIL
 62
     4
 10
22.61155775577414
 20
24.06336902865155
 30
0.0
  0
VERTEX
  5
17F6
  8
SAPA_PROFIL
 62
     4
 10
22.429121685337361
 20
24.06336902865792
 30
0.0
 42
-0.4142135623724291
  0
VERTEX
  5
17F7
  8
SAPA_PROFIL
 62
     4
 10
22.029121685336811
 20
24.46336902865756
 30
0.0
  0
VERTEX
  5
17F8
  8
SAPA_PROFIL
 62
     4
 10
22.029121685338168
 20
27.86336902865855
 30
0.0
 42
-0.4142135623744271
  0
VERTEX
  5
17F9
  8
SAPA_PROFIL
 62
     4
 10
22.429121685337361
 20
28.263369028659561
 30
0.0
  0
VERTEX
  5
17FA
  8
SAPA_PROFIL
 62
     4
 10
22.60873692760866
 20
28.26336902866019
 30
0.0
 42
-0.1316524975874005
  0
VERTEX
  5
17FB
  8
SAPA_PROFIL
 62
     4
 10
22.758736927605479
 20
28.223176649794588
 30
0.0
  0
VERTEX
  5
17FC
  8
SAPA_PROFIL
 62
     4
 10
24.362874824607729
 20
27.297027203142061
 30
0.0
 42
0.1316524975875904
  0
VERTEX
  5
17FD
  8
SAPA_PROFIL
 62
     4
 10
24.862874824609442
 20
27.163052606927291
 30
0.0
  0
VERTEX
  5
17FE
  8
SAPA_PROFIL
 62
     4
 10
25.279121685336811
 20
27.163052606927291
 30
0.0
 42
0.4142135623730951
  0
VERTEX
  5
17FF
  8
SAPA_PROFIL
 62
     4
 10
26.279121685336811
 20
28.163052606927291
 30
0.0
  0
VERTEX
  5
1800
  8
SAPA_PROFIL
 62
     4
 10
26.279121685336811
 20
31.16305260692457
 30
0.0
 42
-0.9999996830128083
  0
VERTEX
  5
1801
  8
SAPA_PROFIL
 62
     4
 10
27.279121685336811
 20
31.163052606926382
 30
0.0
  0
VERTEX
  5
1802
  8
SAPA_PROFIL
 62
     4
 10
27.279121685336811
 20
28.163052606926382
 30
0.0
 42
0.4142135623730951
  0
VERTEX
  5
1803
  8
SAPA_PROFIL
 62
     4
 10
28.279121685336811
 20
27.163052606926389
 30
0.0
  0
VERTEX
  5
1804
  8
SAPA_PROFIL
 62
     4
 10
57.779121685421387
 20
27.163052606926389
 30
0.0
 42
0.4142135623730951
  0
VERTEX
  5
1805
  8
SAPA_PROFIL
 62
     4
 10
58.779121685421387
 20
28.163052606926389
 30
0.0
  0
VERTEX
  5
1806
  8
SAPA_PROFIL
 62
     4
 10
58.779121685421387
 20
31.16305260692457
 30
0.0
 42
-0.9999999999999998
  0
VERTEX
  5
1807
  8
SAPA_PROFIL
 62
     4
 10
59.779121685421401
 20
31.16305260692457
 30
0.0
  0
VERTEX
  5
1808
  8
SAPA_PROFIL
 62
     4
 10
59.779121685421401
 20
28.163052606926389
 30
0.0
 42
0.4142135623736278
  0
VERTEX
  5
1809
  8
SAPA_PROFIL
 62
     4
 10
60.779121685421387
 20
27.163052606926389
 30
0.0
  0
VERTEX
  5
180A
  8
SAPA_PROFIL
 62
     4
 10
61.195368546147861
 20
27.163052606926389
 30
0.0
 42
0.1316524975874375
  0
VERTEX
  5
180B
  8
SAPA_PROFIL
 62
     4
 10
61.695368546148053
 20
27.297027203142431
 30
0.0
  0
VERTEX
  5
180C
  8
SAPA_PROFIL
 62
     4
 10
63.299506443150001
 20
28.223176649794599
 30
0.0
 42
-0.1316524975874
  0
VERTEX
  5
180D
  8
SAPA_PROFIL
 62
     4
 10
63.449506443149552
 20
28.2633690286602
 30
0.0
  0
VERTEX
  5
180E
  8
SAPA_PROFIL
 62
     4
 10
63.629121685420841
 20
28.263369028659561
 30
0.0
 42
-0.4142135623744271
  0
VERTEX
  5
180F
  8
SAPA_PROFIL
 62
     4
 10
64.029121685420023
 20
27.86336902865856
 30
0.0
  0
VERTEX
  5
1810
  8
SAPA_PROFIL
 62
     4
 10
64.029121685421387
 20
24.46336902865756
 30
0.0
 42
-0.4142135623724291
  0
VERTEX
  5
1811
  8
SAPA_PROFIL
 62
     4
 10
63.629121685420841
 20
24.06336902865792
 30
0.0
  0
VERTEX
  5
1812
  8
SAPA_PROFIL
 62
     4
 10
63.446685614984069
 20
24.063369028651561
 30
0.0
 42
-0.1318219888653524
  0
VERTEX
  5
1813
  8
SAPA_PROFIL
 62
     4
 10
63.296512512511718
 20
24.10366142518895
 30
0.0
  0
VERTEX
  5
1814
  8
SAPA_PROFIL
 62
     4
 10
61.897984812032071
 20
24.91234488641329
 30
0.0
  0
VERTEX
  5
1815
  8
SAPA_PROFIL
 62
     4
 10
61.897984812032071
 20
25.179459414626319
 30
0.0
 42
0.577350269189159
  0
VERTEX
  5
1816
  8
SAPA_PROFIL
 62
     4
 10
61.582984812032471
 20
25.361324749420891
 30
0.0
  0
VERTEX
  5
1817
  8
SAPA_PROFIL
 62
     4
 10
61.233566634813812
 20
25.15958807074378
 30
0.0
 42
0.0612687673629489
  0
VERTEX
  5
1818
  8
SAPA_PROFIL
 62
     4
 10
60.940891201713598
 20
25.146004700057581
 30
0.0
 42
0.2694959974285039
  0
VERTEX
  5
1819
  8
SAPA_PROFIL
 62
     4
 10
60.709372155313083
 20
24.952872725713629
 30
0.0
  0
VERTEX
  5
181A
  8
SAPA_PROFIL
 62
     4
 10
59.813703214403411
 20
22.49204253526046
 30
0.0
 42
-0.3152987888784035
  0
VERTEX
  5
181B
  8
SAPA_PROFIL
 62
     4
 10
59.343856904010181
 20
22.16305260692388
 30
0.0
  0
VERTEX
  5
181C
  8
SAPA_PROFIL
 62
     4
 10
57.962357318805751
 20
22.163052606925479
 30
0.0
 42
-0.2539676464741841
  0
VERTEX
  5
181D
  8
SAPA_PROFIL
 62
     4
 10
57.71075614842168
 20
22.299660896420761
 30
0.0
  0
VERTEX
  5
181E
  8
SAPA_PROFIL
 62
     4
 10
57.446732870045032
 20
22.706221092425729
 30
0.0
 42
-0.5862177598324623
  0
VERTEX
  5
181F
  8
SAPA_PROFIL
 62
     4
 10
57.702474685283377
 20
23.163052606922239
 30
0.0
  0
VERTEX
  5
1820
  8
SAPA_PROFIL
 62
     4
 10
58.643649365793188
 20
23.163052606914569
 30
0.0
 42
0.3152987888813165
  0
VERTEX
  5
1821
  8
SAPA_PROFIL
 62
     4
 10
59.113495676190936
 20
23.492042535251318
 30
0.0
  0
VERTEX
  5
1822
  8
SAPA_PROFIL
 62
     4
 10
59.5502599573149
 20
24.692042535262551
 30
0.0
 42
0.5205670505515651
  0
VERTEX
  5
1823
  8
SAPA_PROFIL
 62
     4
 10
59.08041364692167
 20
25.363052606925301
 30
0.0
  0
VERTEX
  5
1824
  8
SAPA_PROFIL
 62
     4
 10
54.063972706252827
 20
25.363052606925329
 30
0.0
 42
0.3702522326300203
  0
VERTEX
  5
1825
  8
SAPA_PROFIL
 62
     4
 10
53.767449344459493
 20
25.108592654259621
 30
0.0
 42
0.0982365330332397
  0
VERTEX
  5
1826
  8
SAPA_PROFIL
 62
     4
 10
53.676996586248549
 20
23.420905879264609
 30
0.0
 42
0.3735060174783164
  0
VERTEX
  5
1827
  8
SAPA_PROFIL
 62
     4
 10
53.974021254159538
 20
23.16305260692458
 30
0.0
  0
VERTEX
  5
1828
  8
SAPA_PROFIL
 62
     4
 10
54.402474685282201
 20
23.163052606923671
 30
0.0
 42
-0.5920056181162531
  0
VERTEX
  5
1829
  8
SAPA_PROFIL
 62
     4
 10
54.655483441599593
 20
22.701849104395741
 30
0.0
  0
VERTEX
  5
182A
  8
SAPA_PROFIL
 62
     4
 10
54.394299365443892
 20
22.299660896417439
 30
0.0
 42
-0.2539676464746725
  0
VERTEX
  5
182B
  8
SAPA_PROFIL
 62
     4
 10
54.142698195060127
 20
22.163052606922079
 30
0.0
  0
VERTEX
  5
182C
  8
SAPA_PROFIL
 62
     4
 10
31.91554517569444
 20
22.16305260692366
 30
0.0
 42
-0.2539676464741819
  0
VERTEX
  5
182D
  8
SAPA_PROFIL
 62
     4
 10
31.663944005311588
 20
22.299660896417429
 30
0.0
  0
VERTEX
  5
182E
  8
SAPA_PROFIL
 62
     4
 10
31.402759929157771
 20
22.70184910439577
 30
0.0
 42
-0.5920055144124249
  0
VERTEX
  5
182F
  8
SAPA_PROFIL
 62
     4
 10
31.65576868547328
 20
23.16305260692366
 30
0.0
  0
VERTEX
  5
1830
  8
SAPA_PROFIL
 62
     4
 10
32.084222162763503
 20
23.16305258164865
 30
0.0
 42
0.3735060174775405
  0
VERTEX
  5
1831
  8
SAPA_PROFIL
 62
     4
 10
32.381246830673192
 20
23.420905853988739
 30
0.0
 42
0.0355900683670349
  0
VERTEX
  5
1832
  8
SAPA_PROFIL
 62
     4
 10
32.425140394705437
 20
24.036779440788521
 30
0.0
 42
0.0624282003873116
  0
VERTEX
  5
1833
  8
SAPA_PROFIL
 62
     4
 10
32.290794072462504
 20
25.108592628983661
 30
0.0
 42
0.3702522326309292
  0
VERTEX
  5
1834
  8
SAPA_PROFIL
 62
     4
 10
31.994270710669131
 20
25.363052581649381
 30
0.0
  0
VERTEX
  5
1835
  8
SAPA_PROFIL
 62
     4
 10
26.977829723835619
 20
25.36305260692551
 30
0.0
 42
0.5205670505515692
  0
VERTEX
  5
1836
  8
SAPA_PROFIL
 62
     4
 10
26.5079834134424
 20
24.692042535262541
 30
0.0
  0
VERTEX
  5
1837
  8
SAPA_PROFIL
 62
     4
 10
26.944747694567351
 20
23.492042535253091
 30
0.0
 42
0.3152987888807539
  0
VERTEX
  5
1838
  8
SAPA_PROFIL
 62
     4
 10
27.414594004963199
 20
23.163052606915471
 30
0.0
  0
VERTEX
  5
1839
  8
SAPA_PROFIL
 62
     4
 10
28.355768685472281
 20
23.163052606922289
 30
0.0
 42
-0.5862175119221242
  0
VERTEX
  5
183A
  8
SAPA_PROFIL
 62
     4
 10
28.61151061645424
 20
22.706221281167149
 30
0.0
 42
0.0000002084758573
  0
SEQEND
  5
183B
  8
SAPA_PROFIL
 62
     4
  0
POLYLINE
  5
12B7
  8
SAPA_PROFIL
 66
     1
 10
0.0
 20
0.0
 30
0.0
 70
     1
  0
VERTEX
  5
183C
  8
SAPA_PROFIL
 10
24.474522513382421
 20
25.33039249993022
 30
0.0
 42
0.5773502691897539
  0
VERTEX
  5
183D
  8
SAPA_PROFIL
 10
24.180366213127709
 20
25.147438759820041
 30
0.0
  0
VERTEX
  5
183E
  8
SAPA_PROFIL
 10
24.190927579354671
 20
24.8256810316018
 30
0.0
  0
VERTEX
  5
183F
  8
SAPA_PROFIL
 10
22.305083887493559
 20
23.741116584630049
 30
0.0
  0
VERTEX
  5
1840
  8
SAPA_PROFIL
 10
22.113700887499839
 20
23.68304294764102
 30
0.0
 42
-0.7625858545243252
  0
VERTEX
  5
1841
  8
SAPA_PROFIL
 10
21.929121685302359
 20
24.013369028657969
 30
0.0
 42
0.2134217652834343
  0
VERTEX
  5
1842
  8
SAPA_PROFIL
 10
22.029121685302488
 20
24.236975826408081
 30
0.0
  0
VERTEX
  5
1843
  8
SAPA_PROFIL
 10
22.02912168537253
 20
28.08976223090804
 30
0.0
 42
-0.4142135623730951
  0
VERTEX
  5
1844
  8
SAPA_PROFIL
 10
22.329121685372481
 20
28.389762230908001
 30
0.0
  0
VERTEX
  5
1845
  8
SAPA_PROFIL
 10
22.629121685372429
 20
28.389762230908001
 30
0.0
  0
VERTEX
  5
1846
  8
SAPA_PROFIL
 10
24.229121685372569
 20
27.466001800198011
 30
0.0
 42
0.5773502691868622
  0
VERTEX
  5
1847
  8
SAPA_PROFIL
 10
24.52912168537253
 20
27.639206880958
 30
0.0
  0
VERTEX
  5
1848
  8
SAPA_PROFIL
 10
24.529121685368661
 20
29.02484752701799
 30
0.0
 42
0.2679491924305262
  0
VERTEX
  5
1849
  8
SAPA_PROFIL
 10
24.02912168537252
 20
29.890872930797968
 30
0.0
  0
VERTEX
  5
184A
  8
SAPA_PROFIL
 10
22.279256852342549
 20
30.900429754778092
 30
0.0
 42
-0.268032828299991
  0
VERTEX
  5
184B
  8
SAPA_PROFIL
 10
22.029121685287478
 20
31.33352046726862
 30
0.0
  0
VERTEX
  5
184C
  8
SAPA_PROFIL
 10
22.029121685302481
 20
42.646912177878328
 30
0.0
 42
-0.26803282829961
  0
VERTEX
  5
184D
  8
SAPA_PROFIL
 10
22.279256852342549
 20
43.080002890368277
 30
0.0
  0
VERTEX
  5
184E
  8
SAPA_PROFIL
 10
24.029121685374569
 20
44.089559714345121
 30
0.0
 42
0.267949192430527
  0
VERTEX
  5
184F
  8
SAPA_PROFIL
 10
24.52912168537252
 20
44.955585118128397
 30
0.0
  0
VERTEX
  5
1850
  8
SAPA_PROFIL
 10
24.529121685375252
 20
46.34122576418838
 30
0.0
 42
0.5773502691868419
  0
VERTEX
  5
1851
  8
SAPA_PROFIL
 10
24.229121685372562
 20
46.514430844948393
 30
0.0
  0
VERTEX
  5
1852
  8
SAPA_PROFIL
 10
22.629121685372422
 20
45.590670414238389
 30
0.0
  0
VERTEX
  5
1853
  8
SAPA_PROFIL
 10
22.329121685372471
 20
45.590670414238389
 30
0.0
 42
-0.4142135623730951
  0
VERTEX
  5
1854
  8
SAPA_PROFIL
 10
22.02912168537252
 20
45.890670414238343
 30
0.0
  0
VERTEX
  5
1855
  8
SAPA_PROFIL
 10
22.02912168537274
 20
49.743456818738309
 30
0.0
 42
0.2134217652834343
  0
VERTEX
  5
1856
  8
SAPA_PROFIL
 10
21.929121685372611
 20
49.967063616488417
 30
0.0
 42
-0.7625858545243255
  0
VERTEX
  5
1857
  8
SAPA_PROFIL
 10
22.11370088757009
 20
50.29738969750543
 30
0.0
  0
VERTEX
  5
1858
  8
SAPA_PROFIL
 10
22.305083887563811
 20
50.23931606051633
 30
0.0
  0
VERTEX
  5
1859
  8
SAPA_PROFIL
 10
24.190927579424919
 20
49.154751613544597
 30
0.0
  0
VERTEX
  5
185A
  8
SAPA_PROFIL
 10
24.180366213197839
 20
48.832993885326353
 30
0.0
 42
0.5773502691897534
  0
VERTEX
  5
185B
  8
SAPA_PROFIL
 10
24.474522513452779
 20
48.650040145216167
 30
0.0
  0
VERTEX
  5
185C
  8
SAPA_PROFIL
 10
24.759204796684418
 20
48.80217405632493
 30
0.0
 42
0.2216946626430088
  0
VERTEX
  5
185D
  8
SAPA_PROFIL
 10
25.165013701839221
 20
49.343053887801723
 30
0.0
  0
VERTEX
  5
185E
  8
SAPA_PROFIL
 10
25.546460297966931
 20
51.156284358459978
 30
0.0
 42
0.476975532698165
  0
VERTEX
  5
185F
  8
SAPA_PROFIL
 10
25.24420747346046
 20
51.527941233405841
 30
0.0
  0
VERTEX
  5
1860
  8
SAPA_PROFIL
 10
23.741106392698448
 20
51.527857625522202
 30
0.0
  0
VERTEX
  5
1861
  8
SAPA_PROFIL
 10
23.726587983451349
 20
51.480011875523701
 30
0.0
 42
-0.4142135623731108
  0
VERTEX
  5
1862
  8
SAPA_PROFIL
 10
23.352403027975541
 20
51.280047831016311
 30
0.0
  0
VERTEX
  5
1863
  8
SAPA_PROFIL
 10
22.029816500720148
 20
51.791238414798279
 30
0.0
  0
VERTEX
  5
1864
  8
SAPA_PROFIL
 10
19.01663735176659
 20
51.791238414797817
 30
0.0
 42
0.2596812337296443
  0
VERTEX
  5
1865
  8
SAPA_PROFIL
 10
18.84660654022754
 20
51.696545219549307
 30
0.0
  0
VERTEX
  5
1866
  8
SAPA_PROFIL
 10
18.074075471160441
 20
50.449198621923763
 30
0.0
 42
0.5877032589250569
  0
VERTEX
  5
1867
  8
SAPA_PROFIL
 10
18.32912168846952
 20
49.991238414797287
 30
0.0
  0
VERTEX
  5
1868
  8
SAPA_PROFIL
 10
19.72912168846905
 20
49.991238414799227
 30
0.0
 42
-0.414213562373428
  0
VERTEX
  5
1869
  8
SAPA_PROFIL
 10
20.029121688469569
 20
49.691238414799379
 30
0.0
  0
VERTEX
  5
186A
  8
SAPA_PROFIL
 10
20.029121688473442
 20
47.29123841479884
 30
0.0
 42
-0.4142135623732061
  0
VERTEX
  5
186B
  8
SAPA_PROFIL
 10
19.729121688473938
 20
46.99123841479831
 30
0.0
  0
VERTEX
  5
186C
  8
SAPA_PROFIL
 10
2.3291216884733918
 20
46.991238414777399
 30
0.0
 42
-0.4142135623722071
  0
VERTEX
  5
186D
  8
SAPA_PROFIL
 10
2.0291216884734382
 20
47.291238414774398
 30
0.0
  0
VERTEX
  5
186E
  8
SAPA_PROFIL
 10
2.0291216885394898
 20
49.691238414773231
 30
0.0
 42
-0.4142135623730951
  0
VERTEX
  5
186F
  8
SAPA_PROFIL
 10
2.3291216885414912
 20
49.991238414771367
 30
0.0
  0
VERTEX
  5
1870
  8
SAPA_PROFIL
 10
3.7291216885414662
 20
49.991238414766372
 30
0.0
 42
0.5877032589240117
  0
VERTEX
  5
1871
  8
SAPA_PROFIL
 10
3.984167905853508
 20
50.449198621892378
 30
0.0
  0
VERTEX
  5
1872
  8
SAPA_PROFIL
 10
3.0877689286167089
 20
51.896545219520469
 30
0.0
 42
0.259681233730399
  0
VERTEX
  5
1873
  8
SAPA_PROFIL
 10
2.9177381170775449
 20
51.991238414768297
 30
0.0
  0
VERTEX
  5
1874
  8
SAPA_PROFIL
 10
2.5291216885368728
 20
51.991238414770407
 30
0.0
 42
-0.4142135623715633
  0
VERTEX
  5
1875
  8
SAPA_PROFIL
 10
2.029121688539488
 20
52.4912384147704
 30
0.0
  0
VERTEX
  5
1876
  8
SAPA_PROFIL
 10
2.029121688539429
 20
77.291238414387749
 30
0.0
 42
-0.4142135623739942
  0
VERTEX
  5
1877
  8
SAPA_PROFIL
 10
2.529121688540962
 20
77.791238414387735
 30
0.0
  0
VERTEX
  5
1878
  8
SAPA_PROFIL
 10
4.3296921328394626
 20
77.791238414382292
 30
0.0
 42
0.4241420668422755
  0
VERTEX
  5
1879
  8
SAPA_PROFIL
 10
5.3291216882509023
 20
78.825010648260331
 30
0.0
 42
0.2988658713647619
  0
VERTEX
  5
187A
  8
SAPA_PROFIL
 10
4.7582635614830986
 20
79.762290785219633
 30
0.0
 42
0.5507604245873982
  0
VERTEX
  5
187B
  8
SAPA_PROFIL
 10
4.3296921328884617
 20
79.491238414374379
 30
0.0
  0
VERTEX
  5
187C
  8
SAPA_PROFIL
 10
4.329692132869476
 20
79.191238414382269
 30
0.0
 42
-0.4142135623702647
  0
VERTEX
  5
187D
  8
SAPA_PROFIL
 10
4.1296921328573797
 20
78.991238414394388
 30
0.0
  0
VERTEX
  5
187E
  8
SAPA_PROFIL
 10
3.8296921327405551
 20
78.991238414412464
 30
0.0
 42
-0.4142135623563536
  0
VERTEX
  5
187F
  8
SAPA_PROFIL
 10
2.029692132846443
 20
80.791238414415375
 30
0.0
  0
VERTEX
  5
1880
  8
SAPA_PROFIL
 10
2.0296921328483761
 20
81.491238414631425
 30
0.0
 42
-0.4142135623558171
  0
VERTEX
  5
1881
  8
SAPA_PROFIL
 10
3.8296921327455582
 20
83.291238414629333
 30
0.0
  0
VERTEX
  5
1882
  8
SAPA_PROFIL
 10
4.1296921328635188
 20
83.291238414645363
 30
0.0
 42
-0.4142135623717631
  0
VERTEX
  5
1883
  8
SAPA_PROFIL
 10
4.3296921328755023
 20
83.091238414658378
 30
0.0
  0
VERTEX
  5
1884
  8
SAPA_PROFIL
 10
4.3296921328932374
 20
82.791238414668314
 30
0.0
 42
0.5507604245839719
  0
VERTEX
  5
1885
  8
SAPA_PROFIL
 10
4.7582635614795752
 20
82.520186043821241
 30
0.0
 42
0.2988658713671755
  0
VERTEX
  5
1886
  8
SAPA_PROFIL
 10
5.3291216882573824
 20
83.457466180779306
 30
0.0
 42
0.4241420668413794
  0
VERTEX
  5
1887
  8
SAPA_PROFIL
 10
4.3296921328484439
 20
84.491238414658369
 30
0.0
  0
VERTEX
  5
1888
  8
SAPA_PROFIL
 10
2.2291216885943839
 20
84.491238414657573
 30
0.0
 42
-0.414213562373195
  0
VERTEX
  5
1889
  8
SAPA_PROFIL
 10
1.7291216885942129
 20
84.991238414657573
 30
0.0
  0
VERTEX
  5
188A
  8
SAPA_PROFIL
 10
1.7291216885944389
 20
95.508395702300106
 30
0.0
 42
0.198912367379658
  0
VERTEX
  5
188B
  8
SAPA_PROFIL
 10
1.5826750791877151
 20
95.861949092893369
 30
0.0
  0
VERTEX
  5
188C
  8
SAPA_PROFIL
 10
0.5412537229555099
 20
96.903370449125759
 30
0.0
 42
0.6681786379192989
  0
VERTEX
  5
188D
  8
SAPA_PROFIL
 10
0.0291216885993961
 20
96.691238414769714
 30
0.0
  0
VERTEX
  5
188E
  8
SAPA_PROFIL
 10
0.0291216885205099
 20
0.4912384148053662
 30
0.0
 42
0.4142135623567124
  0
VERTEX
  5
188F
  8
SAPA_PROFIL
 10
0.529121688492543
 20
-0.0087615851946339
 30
0.0
  0
VERTEX
  5
1890
  8
SAPA_PROFIL
 10
4.2291216885045246
 20
-0.0087615854016576
 30
0.0
 42
0.414213562390632
  0
VERTEX
  5
1891
  8
SAPA_PROFIL
 10
4.529121688520509
 20
0.2912384145994338
 30
0.0
  0
VERTEX
  5
1892
  8
SAPA_PROFIL
 10
4.5291216885196004
 20
1.0587828826263599
 30
0.0
 42
0.2896898632850871
  0
VERTEX
  5
1893
  8
SAPA_PROFIL
 10
3.9576931171484571
 20
1.9622907855033409
 30
0.0
 42
0.5507604245891342
  0
VERTEX
  5
1894
  8
SAPA_PROFIL
 10
3.5291216885605272
 20
1.6912384146563679
 30
0.0
  0
VERTEX
  5
1895
  8
SAPA_PROFIL
 10
3.529121688548476
 20
1.4912384146343809
 30
0.0
 42
-0.4142135623672125
  0
VERTEX
  5
1896
  8
SAPA_PROFIL
 10
3.2291216885374938
 20
1.191238414651252
 30
0.0
  0
VERTEX
  5
1897
  8
SAPA_PROFIL
 10
1.729121687357539
 20
1.191238414708323
 30
0.0
 42
-0.4142135623613076
  0
VERTEX
  5
1898
  8
SAPA_PROFIL
 10
1.2291216873665201
 20
1.6912384147173041
 30
0.0
  0
VERTEX
  5
1899
  8
SAPA_PROFIL
 10
1.2291216873615181
 20
4.9912384147083912
 30
0.0
 42
-0.414213562384816
  0
VERTEX
  5
189A
  8
SAPA_PROFIL
 10
1.7291216873805031
 20
5.4912384147092999
 30
0.0
  0
VERTEX
  5
189B
  8
SAPA_PROFIL
 10
3.229121688770439
 20
5.4912384146513196
 30
0.0
 42
-0.4142135623779789
  0
VERTEX
  5
189C
  8
SAPA_PROFIL
 10
3.529121688758456
 20
5.191238414634312
 30
0.0
  0
VERTEX
  5
189D
  8
SAPA_PROFIL
 10
3.5291216887475421
 20
4.991238414657345
 30
0.0
 42
0.5507604245847541
  0
VERTEX
  5
189E
  8
SAPA_PROFIL
 10
3.9576931173014791
 20
4.7201860437593259
 30
0.0
 42
0.2896898633203854
  0
VERTEX
  5
189F
  8
SAPA_PROFIL
 10
4.5291216887865371
 20
5.6236939466944023
 30
0.0
  0
VERTEX
  5
18A0
  8
SAPA_PROFIL
 10
4.5291216887865371
 20
6.621165758758365
 30
0.0
 42
0.0436609429083866
  0
VERTEX
  5
18A1
  8
SAPA_PROFIL
 10
4.5215255652924693
 20
6.707989847591306
 30
0.0
  0
VERTEX
  5
18A2
  8
SAPA_PROFIL
 10
4.2446793943675143
 20
8.2780625035753701
 30
0.0
 42
0.8390996311771717
  0
VERTEX
  5
18A3
  8
SAPA_PROFIL
 10
3.2598716413555362
 20
8.2780625035743451
 30
0.0
  0
VERTEX
  5
18A4
  8
SAPA_PROFIL
 10
3.0529258017745819
 20
7.104414325907328
 30
0.0
 42
-0.3639702342665017
  0
VERTEX
  5
18A5
  8
SAPA_PROFIL
 10
2.5605219252695601
 20
6.6912384147396997
 30
0.0
  0
VERTEX
  5
18A6
  8
SAPA_PROFIL
 10
1.7291216873595849
 20
6.6912384147383364
 30
0.0
 42
-0.4373282586277949
  0
VERTEX
  5
18A7
  8
SAPA_PROFIL
 10
1.2306524070545679
 20
7.2303328720603304
 30
0.0
  0
VERTEX
  5
18A8
  8
SAPA_PROFIL
 10
1.817451170057456
 20
21.703391693451302
 30
0.0
 42
-0.4023941304319243
  0
VERTEX
  5
18A9
  8
SAPA_PROFIL
 10
2.1172048986704972
 20
21.991238414776369
 30
0.0
  0
VERTEX
  5
18AA
  8
SAPA_PROFIL
 10
2.9177381170354848
 20
21.991238414776369
 30
0.0
 42
0.2596812337287306
  0
VERTEX
  5
18AB
  8
SAPA_PROFIL
 10
3.0877689285755578
 20
22.085931610024321
 30
0.0
  0
VERTEX
  5
18AC
  8
SAPA_PROFIL
 10
3.984167905815541
 20
23.533278207650369
 30
0.0
 42
0.5877032589232099
  0
VERTEX
  5
18AD
  8
SAPA_PROFIL
 10
3.7291216885055452
 20
23.991238414776259
 30
0.0
  0
VERTEX
  5
18AE
  8
SAPA_PROFIL
 10
2.3291216885054542
 20
23.991238414775349
 30
0.0
 42
-0.414213562372984
  0
VERTEX
  5
18AF
  8
SAPA_PROFIL
 10
2.0291216885045902
 20
24.291238414774291
 30
0.0
  0
VERTEX
  5
18B0
  8
SAPA_PROFIL
 10
2.0291216885015202
 20
26.691238414775398
 30
0.0
 42
-0.4142135623720961
  0
VERTEX
  5
18B1
  8
SAPA_PROFIL
 10
2.329121688501588
 20
26.99123841477445
 30
0.0
  0
VERTEX
  5
18B2
  8
SAPA_PROFIL
 10
11.92912168850059
 20
26.99123841478832
 30
0.0
 42
-0.414213562373983
  0
VERTEX
  5
18B3
  8
SAPA_PROFIL
 10
12.229121688501451
 20
26.691238414788359
 30
0.0
  0
VERTEX
  5
18B4
  8
SAPA_PROFIL
 10
12.22912168850759
 20
22.291238414789291
 30
0.0
 42
0.4142135623732059
  0
VERTEX
  5
18B5
  8
SAPA_PROFIL
 10
12.529121688507541
 20
21.99123841478831
 30
0.0
  0
VERTEX
  5
18B6
  8
SAPA_PROFIL
 10
14.013209753860581
 20
21.991238414791379
 30
0.0
 42
0.2596812337310292
  0
VERTEX
  5
18B7
  8
SAPA_PROFIL
 10
14.18324056540054
 20
22.085931610040351
 30
0.0
  0
VERTEX
  5
18B8
  8
SAPA_PROFIL
 10
14.584167909951489
 20
22.733278207664402
 30
0.0
 42
0.587703258924552
  0
VERTEX
  5
18B9
  8
SAPA_PROFIL
 10
14.32912169264149
 20
23.191238414791261
 30
0.0
  0
VERTEX
  5
18BA
  8
SAPA_PROFIL
 10
13.929121688505591
 20
23.191238414791311
 30
0.0
 42
-0.4142135623722071
  0
VERTEX
  5
18BB
  8
SAPA_PROFIL
 10
13.629121688505411
 20
23.491238414790359
 30
0.0
  0
VERTEX
  5
18BC
  8
SAPA_PROFIL
 10
13.62912168850154
 20
26.691238414790291
 30
0.0
 42
-0.4142135623733725
  0
VERTEX
  5
18BD
  8
SAPA_PROFIL
 10
13.929121688500469
 20
26.991238414791219
 30
0.0
  0
VERTEX
  5
18BE
  8
SAPA_PROFIL
 10
19.72912168850009
 20
26.991238414799351
 30
0.0
 42
-0.4142135623730948
  0
VERTEX
  5
18BF
  8
SAPA_PROFIL
 10
20.029121688500499
 20
26.691238414799852
 30
0.0
  0
VERTEX
  5
18C0
  8
SAPA_PROFIL
 10
20.029121688504599
 20
24.291238414799299
 30
0.0
 42
-0.4142135623726511
  0
VERTEX
  5
18C1
  8
SAPA_PROFIL
 10
19.729121688505089
 20
23.991238414799351
 30
0.0
  0
VERTEX
  5
18C2
  8
SAPA_PROFIL
 10
18.329121688505449
 20
23.991238414797301
 30
0.0
 42
0.5877032589253235
  0
VERTEX
  5
18C3
  8
SAPA_PROFIL
 10
18.07407547119557
 20
23.533278207669358
 30
0.0
  0
VERTEX
  5
18C4
  8
SAPA_PROFIL
 10
18.846606540266539
 20
22.285931610046308
 30
0.0
 42
0.2596812337293086
  0
VERTEX
  5
18C5
  8
SAPA_PROFIL
 10
19.016637351806501
 20
22.19123841479729
 30
0.0
  0
VERTEX
  5
18C6
  8
SAPA_PROFIL
 10
22.035105351654149
 20
22.191238414812979
 30
0.0
  0
VERTEX
  5
18C7
  8
SAPA_PROFIL
 10
23.352403027905289
 20
22.700384814130079
 30
0.0
 42
-0.4142135623730953
  0
VERTEX
  5
18C8
  8
SAPA_PROFIL
 10
23.726587983381101
 20
22.500420769622689
 30
0.0
  0
VERTEX
  5
18C9
  8
SAPA_PROFIL
 10
23.7411063926282
 20
22.452575019624199
 30
0.0
  0
VERTEX
  5
18CA
  8
SAPA_PROFIL
 10
25.244207473390212
 20
22.452491411740599
 30
0.0
 42
0.4769755326981653
  0
VERTEX
  5
18CB
  8
SAPA_PROFIL
 10
25.546460297896679
 20
22.82414828668642
 30
0.0
  0
VERTEX
  5
18CC
  8
SAPA_PROFIL
 10
25.16501370176897
 20
24.637378757344671
 30
0.0
 42
0.2216946626430223
  0
VERTEX
  5
18CD
  8
SAPA_PROFIL
 10
24.759204796614171
 20
25.178258588821461
 30
0.0
  0
SEQEND
  5
18CE
  8
SAPA_PROFIL
  0
POLYLINE
  5
12B8
  8
SAPA_PROFIL
 66
     1
 10
0.0
 20
0.0
 30
0.0
 70
     1
  0
VERTEX
  5
18CF
  8
SAPA_PROFIL
 10
20.32912168528448
 20
44.991238414799341
 30
0.0
  0
VERTEX
  5
18D0
  8
SAPA_PROFIL
 10
20.32912168528652
 20
43.391238414800327
 30
0.0
 42
-0.4142135623730951
  0
VERTEX
  5
18D1
  8
SAPA_PROFIL
 10
20.129121685286481
 20
43.191238414799379
 30
0.0
  0
VERTEX
  5
18D2
  8
SAPA_PROFIL
 10
19.929121685286429
 20
43.191238414800409
 30
0.0
 42
0.4142135623715967
  0
VERTEX
  5
18D3
  8
SAPA_PROFIL
 10
19.729121685286501
 20
42.991238414799341
 30
0.0
  0
VERTEX
  5
18D4
  8
SAPA_PROFIL
 10
19.72912168528957
 20
41.391238414799311
 30
0.0
 42
0.4142135623730951
  0
VERTEX
  5
18D5
  8
SAPA_PROFIL
 10
19.929121685289498
 20
41.191238414799393
 30
0.0
  0
VERTEX
  5
18D6
  8
SAPA_PROFIL
 10
20.12912168528943
 20
41.191238414799393
 30
0.0
 42
-0.4142135623730951
  0
VERTEX
  5
18D7
  8
SAPA_PROFIL
 10
20.329121685289479
 20
40.991238414799341
 30
0.0
  0
VERTEX
  5
18D8
  8
SAPA_PROFIL
 10
20.32912168530039
 20
32.991238414799341
 30
0.0
 42
-0.4142135623730951
  0
VERTEX
  5
18D9
  8
SAPA_PROFIL
 10
20.129121685300571
 20
32.791238414800318
 30
0.0
  0
VERTEX
  5
18DA
  8
SAPA_PROFIL
 10
19.92912168530053
 20
32.791238414798393
 30
0.0
 42
0.4142135623730951
  0
VERTEX
  5
18DB
  8
SAPA_PROFIL
 10
19.7291216853015
 20
32.591238414799371
 30
0.0
  0
VERTEX
  5
18DC
  8
SAPA_PROFIL
 10
19.72912168530344
 20
30.991238414799351
 30
0.0
 42
0.4142135623730951
  0
VERTEX
  5
18DD
  8
SAPA_PROFIL
 10
19.929121685303478
 20
30.791238414799299
 30
0.0
  0
VERTEX
  5
18DE
  8
SAPA_PROFIL
 10
20.129121685303531
 20
30.791238414800439
 30
0.0
 42
-0.4142135623730951
  0
VERTEX
  5
18DF
  8
SAPA_PROFIL
 10
20.32912168530358
 20
30.59123841480039
 30
0.0
  0
VERTEX
  5
18E0
  8
SAPA_PROFIL
 10
20.329121685306539
 20
28.991238414799341
 30
0.0
 42
-0.4142135623730951
  0
VERTEX
  5
18E1
  8
SAPA_PROFIL
 10
20.029121685306588
 20
28.69123841479939
 30
0.0
  0
VERTEX
  5
18E2
  8
SAPA_PROFIL
 10
2.029121685306579
 20
28.691238414775398
 30
0.0
 42
-0.4142135624873408
  0
VERTEX
  5
18E3
  8
SAPA_PROFIL
 10
1.729121685306624
 20
28.99123841489234
 30
0.0
  0
VERTEX
  5
18E4
  8
SAPA_PROFIL
 10
1.7291216859305381
 20
30.591238414853368
 30
0.0
 42
-0.4142135622558857
  0
VERTEX
  5
18E5
  8
SAPA_PROFIL
 10
1.929121685929446
 20
30.791238414774401
 30
0.0
  0
VERTEX
  5
18E6
  8
SAPA_PROFIL
 10
2.1291216860914961
 20
30.791238414775311
 30
0.0
 42
0.414213562251557
  0
VERTEX
  5
18E7
  8
SAPA_PROFIL
 10
2.329121686090518
 20
30.991238414692369
 30
0.0
  0
VERTEX
  5
18E8
  8
SAPA_PROFIL
 10
2.329121686752516
 20
32.591238414692377
 30
0.0
 42
0.4142135624946331
  0
VERTEX
  5
18E9
  8
SAPA_PROFIL
 10
2.1291216867514482
 20
32.791238414775421
 30
0.0
  0
VERTEX
  5
18EA
  8
SAPA_PROFIL
 10
1.9291216851764981
 20
32.791238414774398
 30
0.0
 42
-0.4142135623730951
  0
VERTEX
  5
18EB
  8
SAPA_PROFIL
 10
1.7291216851765669
 20
32.99123841477433
 30
0.0
  0
VERTEX
  5
18EC
  8
SAPA_PROFIL
 10
1.7291216851655371
 20
40.99123841477433
 30
0.0
 42
-0.41421356237163
  0
VERTEX
  5
18ED
  8
SAPA_PROFIL
 10
1.9291216851645601
 20
41.191238414774261
 30
0.0
  0
VERTEX
  5
18EE
  8
SAPA_PROFIL
 10
2.129121686740532
 20
41.191238414775398
 30
0.0
 42
0.4142135624946331
  0
VERTEX
  5
18EF
  8
SAPA_PROFIL
 10
2.3291216867405771
 20
41.391238414858321
 30
0.0
  0
VERTEX
  5
18F0
  8
SAPA_PROFIL
 10
2.3291216860746
 20
42.991238414858337
 30
0.0
 42
0.4142135622515237
  0
VERTEX
  5
18F1
  8
SAPA_PROFIL
 10
2.1291216860745541
 20
43.191238414775398
 30
0.0
  0
VERTEX
  5
18F2
  8
SAPA_PROFIL
 10
1.9291216859135281
 20
43.191238414775398
 30
0.0
 42
-0.4142135622574175
  0
VERTEX
  5
18F3
  8
SAPA_PROFIL
 10
1.729121685913483
 20
43.391238414696311
 30
0.0
  0
VERTEX
  5
18F4
  8
SAPA_PROFIL
 10
1.729121685284567
 20
44.991238414657339
 30
0.0
 42
-0.4142135624873075
  0
VERTEX
  5
18F5
  8
SAPA_PROFIL
 10
2.0291216852834988
 20
45.291238414773261
 30
0.0
  0
VERTEX
  5
18F6
  8
SAPA_PROFIL
 10
20.029121685283499
 20
45.291238414799288
 30
0.0
 42
-0.414213562374094
  0
SEQEND
  5
18F7
  8
SAPA_PROFIL
  0
POLYLINE
  5
12B9
  8
SAPA_PROFIL
 66
     1
 10
0.0
 20
0.0
 30
0.0
 70
     1
  0
VERTEX
  5
18F8
  8
SAPA_PROFIL
 10
64.029121685236532
 20
31.33572478752431
 30
0.0
 42
-0.267949192431007
  0
VERTEX
  5
18F9
  8
SAPA_PROFIL
 10
63.779121685236532
 20
30.902712085632281
 30
0.0
  0
VERTEX
  5
18FA
  8
SAPA_PROFIL
 10
62.029121685236078
 20
29.892349114550239
 30
0.0
 42
0.2679491924311281
  0
VERTEX
  5
18FB
  8
SAPA_PROFIL
 10
61.529121685236092
 20
29.026323710765709
 30
0.0
  0
VERTEX
  5
18FC
  8
SAPA_PROFIL
 10
61.529121685236312
 20
27.640683064710728
 30
0.0
 42
0.57735026918954
  0
VERTEX
  5
18FD
  8
SAPA_PROFIL
 10
61.829121685236267
 20
27.46747798395392
 30
0.0
  0
VERTEX
  5
18FE
  8
SAPA_PROFIL
 10
63.429121685235948
 20
28.391238414657082
 30
0.0
  0
VERTEX
  5
18FF
  8
SAPA_PROFIL
 10
63.72912168523613
 20
28.391238414657082
 30
0.0
 42
-0.41421356237306
  0
VERTEX
  5
1900
  8
SAPA_PROFIL
 10
64.029121685236305
 20
28.0912384146569
 30
0.0
  0
VERTEX
  5
1901
  8
SAPA_PROFIL
 10
64.029121685236305
 20
24.238452010157388
 30
0.0
 42
0.2036002236709541
  0
VERTEX
  5
1902
  8
SAPA_PROFIL
 10
64.120846818200107
 20
24.022531701337002
 30
0.0
 42
-0.8292414158604859
  0
VERTEX
  5
1903
  8
SAPA_PROFIL
 10
63.924713529668679
 20
23.690536068317321
 30
0.0
  0
VERTEX
  5
1904
  8
SAPA_PROFIL
 10
63.75315948304479
 20
23.74259276837903
 30
0.0
  0
VERTEX
  5
1905
  8
SAPA_PROFIL
 10
61.867315791183962
 20
24.82715721535088
 30
0.0
  0
VERTEX
  5
1906
  8
SAPA_PROFIL
 10
61.877877157410701
 20
25.148914943568901
 30
0.0
 42
0.5773502691894565
  0
VERTEX
  5
1907
  8
SAPA_PROFIL
 10
61.583720857156102
 20
25.331868683679311
 30
0.0
  0
VERTEX
  5
1908
  8
SAPA_PROFIL
 10
61.299038573924918
 20
25.179734772571109
 30
0.0
 42
0.2216946626431577
  0
VERTEX
  5
1909
  8
SAPA_PROFIL
 10
60.893229668769671
 20
24.638854941093641
 30
0.0
  0
VERTEX
  5
190A
  8
SAPA_PROFIL
 10
60.511783072641947
 20
22.825624470435841
 30
0.0
 42
0.4757248385987928
  0
VERTEX
  5
190B
  8
SAPA_PROFIL
 10
60.81277916309979
 20
22.453967525585639
 30
0.0
  0
VERTEX
  5
190C
  8
SAPA_PROFIL
 10
62.31713697791043
 20
22.454051203373279
 30
0.0
  0
VERTEX
  5
190D
  8
SAPA_PROFIL
 10
62.33165538715776
 20
22.501896953371769
 30
0.0
 42
-0.4580511809928869
  0
VERTEX
  5
190E
  8
SAPA_PROFIL
 10
62.747035769706827
 20
22.685964669024639
 30
0.0
  0
VERTEX
  5
190F
  8
SAPA_PROFIL
 10
64.029121685236078
 20
22.191238414657271
 30
0.0
  0
VERTEX
  5
1910
  8
SAPA_PROFIL
 10
67.04160601874446
 20
22.191238414657271
 30
0.0
 42
0.2596812337301257
  0
VERTEX
  5
1911
  8
SAPA_PROFIL
 10
67.211636830284533
 20
22.285931609905319
 30
0.0
  0
VERTEX
  5
1912
  8
SAPA_PROFIL
 10
67.984167899354134
 20
23.533278207529388
 30
0.0
 42
0.5877032589249617
  0
VERTEX
  5
1913
  8
SAPA_PROFIL
 10
67.729121682044024
 20
23.991238414656991
 30
0.0
  0
VERTEX
  5
1914
  8
SAPA_PROFIL
 10
66.294942895653548
 20
23.991238414656991
 30
0.0
 42
-0.4683749459842228
  0
VERTEX
  5
1915
  8
SAPA_PROFIL
 10
66.029121682043964
 20
24.291238414657169
 30
0.0
  0
VERTEX
  5
1916
  8
SAPA_PROFIL
 10
66.029121682044206
 20
26.691238414656809
 30
0.0
 42
-0.4683749459847173
  0
VERTEX
  5
1917
  8
SAPA_PROFIL
 10
66.294942895653776
 20
26.991238414656991
 30
0.0
  0
VERTEX
  5
1918
  8
SAPA_PROFIL
 10
72.129121682044115
 20
26.991238414656991
 30
0.0
  0
VERTEX
  5
1919
  8
SAPA_PROFIL
 10
74.129121682044115
 20
26.991238414656991
 30
0.0
  0
VERTEX
  5
191A
  8
SAPA_PROFIL
 10
83.729121682044024
 20
26.991238414656991
 30
0.0
 42
-0.4142135623730951
  0
VERTEX
  5
191B
  8
SAPA_PROFIL
 10
84.029121682043979
 20
26.69123841465726
 30
0.0
  0
VERTEX
  5
191C
  8
SAPA_PROFIL
 10
84.029121682043979
 20
24.291238414657169
 30
0.0
 42
-0.4142135623730951
  0
VERTEX
  5
191D
  8
SAPA_PROFIL
 10
83.729121682044024
 20
23.991238414656991
 30
0.0
  0
VERTEX
  5
191E
  8
SAPA_PROFIL
 10
82.329121682043933
 20
23.991238414656991
 30
0.0
 42
0.5877032589248625
  0
VERTEX
  5
191F
  8
SAPA_PROFIL
 10
82.074075464734051
 20
23.533278207529388
 30
0.0
  0
VERTEX
  5
1920
  8
SAPA_PROFIL
 10
82.970474441976194
 20
22.085931609905501
 30
0.0
 42
0.2596812337300832
  0
VERTEX
  5
1921
  8
SAPA_PROFIL
 10
83.140505253516267
 20
21.991238414656991
 30
0.0
  0
VERTEX
  5
1922
  8
SAPA_PROFIL
 10
85.829121685193741
 20
21.991238414656991
 30
0.0
 42
0.4142135623731107
  0
VERTEX
  5
1923
  8
SAPA_PROFIL
 10
86.029121685193786
 20
22.191238414657271
 30
0.0
  0
VERTEX
  5
1924
  8
SAPA_PROFIL
 10
86.029121685193786
 20
51.791238414657172
 30
0.0
 42
0.4142135623730273
  0
VERTEX
  5
1925
  8
SAPA_PROFIL
 10
85.829121685193741
 20
51.991238414656991
 30
0.0
  0
VERTEX
  5
1926
  8
SAPA_PROFIL
 10
83.140505253516025
 20
51.991238414656991
 30
0.0
 42
0.2596812337302099
  0
VERTEX
  5
1927
  8
SAPA_PROFIL
 10
82.970474441975966
 20
51.896545219408942
 30
0.0
  0
VERTEX
  5
1928
  8
SAPA_PROFIL
 10
82.074075464733809
 20
50.449198621785037
 30
0.0
 42
0.5877032589250762
  0
VERTEX
  5
1929
  8
SAPA_PROFIL
 10
82.329121682043933
 20
49.991238414656991
 30
0.0
  0
VERTEX
  5
192A
  8
SAPA_PROFIL
 10
83.729121682044024
 20
49.991238414656991
 30
0.0
 42
-0.4142135623730951
  0
VERTEX
  5
192B
  8
SAPA_PROFIL
 10
84.029121682043979
 20
49.691238414657271
 30
0.0
  0
VERTEX
  5
192C
  8
SAPA_PROFIL
 10
84.029121682043979
 20
47.291238414657172
 30
0.0
 42
-0.4142135623730951
  0
VERTEX
  5
192D
  8
SAPA_PROFIL
 10
83.729121682044024
 20
46.991238414656991
 30
0.0
  0
VERTEX
  5
192E
  8
SAPA_PROFIL
 10
74.129121682043888
 20
46.991238414656991
 30
0.0
  0
VERTEX
  5
192F
  8
SAPA_PROFIL
 10
72.129121682043888
 20
46.991238414656991
 30
0.0
  0
VERTEX
  5
1930
  8
SAPA_PROFIL
 10
66.294942895654231
 20
46.991238414656991
 30
0.0
 42
-0.4683749459843959
  0
VERTEX
  5
1931
  8
SAPA_PROFIL
 10
66.029121682043964
 20
47.291238414656711
 30
0.0
  0
VERTEX
  5
1932
  8
SAPA_PROFIL
 10
66.029121682043964
 20
49.691238414657271
 30
0.0
 42
-0.4683749459842226
  0
VERTEX
  5
1933
  8
SAPA_PROFIL
 10
66.294942895653548
 20
49.991238414656991
 30
0.0
  0
VERTEX
  5
1934
  8
SAPA_PROFIL
 10
67.729121682043797
 20
49.991238414656991
 30
0.0
 42
0.5877032589249771
  0
VERTEX
  5
1935
  8
SAPA_PROFIL
 10
67.984167899353906
 20
50.449198621785037
 30
0.0
  0
VERTEX
  5
1936
  8
SAPA_PROFIL
 10
67.211636830284533
 20
51.696545219408662
 30
0.0
 42
0.2596812337301256
  0
VERTEX
  5
1937
  8
SAPA_PROFIL
 10
67.04160601874446
 20
51.791238414657172
 30
0.0
  0
VERTEX
  5
1938
  8
SAPA_PROFIL
 10
64.029121685236078
 20
51.791238414657172
 30
0.0
  0
VERTEX
  5
1939
  8
SAPA_PROFIL
 10
62.747035769707061
 20
51.296512160289787
 30
0.0
 42
-0.4580511809929225
  0
VERTEX
  5
193A
  8
SAPA_PROFIL
 10
62.331655387158207
 20
51.480579875942666
 30
0.0
  0
VERTEX
  5
193B
  8
SAPA_PROFIL
 10
62.31713697791065
 20
51.528425625941153
 30
0.0
  0
VERTEX
  5
193C
  8
SAPA_PROFIL
 10
60.812779163094547
 20
51.528509303728796
 30
0.0
 42
0.4757248385933691
  0
VERTEX
  5
193D
  8
SAPA_PROFIL
 10
60.511783072642402
 20
51.15685235887905
 30
0.0
  0
VERTEX
  5
193E
  8
SAPA_PROFIL
 10
60.893229668769898
 20
49.343621888220788
 30
0.0
 42
0.2350054070140314
  0
VERTEX
  5
193F
  8
SAPA_PROFIL
 10
61.335210461492359
 20
48.784572971337738
 30
0.0
 42
-0.0011882050611145
  0
VERTEX
  5
1940
  8
SAPA_PROFIL
 10
61.333852783809803
 20
48.784137379797002
 30
0.0
  0
VERTEX
  5
1941
  8
SAPA_PROFIL
 10
61.583720857156329
 20
48.650608145635132
 30
0.0
 42
0.5773502691894562
  0
VERTEX
  5
1942
  8
SAPA_PROFIL
 10
61.877877157410929
 20
48.833561885745077
 30
0.0
  0
VERTEX
  5
1943
  8
SAPA_PROFIL
 10
61.867315791184183
 20
49.155319613963549
 30
0.0
  0
VERTEX
  5
1944
  8
SAPA_PROFIL
 10
63.753159483045472
 20
50.23988406093541
 30
0.0
  0
VERTEX
  5
1945
  8
SAPA_PROFIL
 10
63.924713529668907
 20
50.291940760997122
 30
0.0
 42
-0.8292414158590609
  0
VERTEX
  5
1946
  8
SAPA_PROFIL
 10
64.120846818200789
 20
49.959945127978337
 30
0.0
 42
0.2036002236714843
  0
VERTEX
  5
1947
  8
SAPA_PROFIL
 10
64.029121685236532
 20
49.744024819157502
 30
0.0
  0
VERTEX
  5
1948
  8
SAPA_PROFIL
 10
64.029121685236532
 20
45.891238414657529
 30
0.0
 42
-0.4142135623731708
  0
VERTEX
  5
1949
  8
SAPA_PROFIL
 10
63.729121685236358
 20
45.591238414657347
 30
0.0
  0
VERTEX
  5
194A
  8
SAPA_PROFIL
 10
63.429121685236183
 20
45.591238414657347
 30
0.0
  0
VERTEX
  5
194B
  8
SAPA_PROFIL
 10
61.829121685236721
 20
46.514998845360971
 30
0.0
 42
0.5773502691897499
  0
VERTEX
  5
194C
  8
SAPA_PROFIL
 10
61.529121685236539
 20
46.341793764604162
 30
0.0
  0
VERTEX
  5
194D
  8
SAPA_PROFIL
 10
61.529121685236312
 20
44.95615311854872
 30
0.0
 42
0.2679491924311548
  0
VERTEX
  5
194E
  8
SAPA_PROFIL
 10
62.029121685236312
 20
44.090127714764193
 30
0.0
  0
VERTEX
  5
194F
  8
SAPA_PROFIL
 10
63.779121685236532
 20
43.079764743682162
 30
0.0
 42
-0.2679491924310984
  0
VERTEX
  5
1950
  8
SAPA_PROFIL
 10
64.029121685236532
 20
42.646752041789661
 30
0.0
  0
SEQEND
  5
1951
  8
SAPA_PROFIL
  0
POLYLINE
  5
12BA
  8
SAPA_PROFIL
 66
     1
 10
0.0
 20
0.0
 30
0.0
 70
     1
  0
VERTEX
  5
1952
  8
SAPA_PROFIL
 10
66.029121688636096
 20
28.691238414818869
 30
0.0
 42
-0.4142135623730951
  0
VERTEX
  5
1953
  8
SAPA_PROFIL
 10
65.729121688636084
 20
28.991238414818881
 30
0.0
  0
VERTEX
  5
1954
  8
SAPA_PROFIL
 10
65.729121688636084
 20
30.491238414818881
 30
0.0
 42
-0.414213562372978
  0
VERTEX
  5
1955
  8
SAPA_PROFIL
 10
65.929121688635973
 20
30.691238414818869
 30
0.0
  0
VERTEX
  5
1956
  8
SAPA_PROFIL
 10
66.029121687682448
 20
30.691238414818869
 30
0.0
 42
0.4142135624945221
  0
VERTEX
  5
1957
  8
SAPA_PROFIL
 10
66.329121687682459
 20
30.99123841494325
 30
0.0
  0
VERTEX
  5
1958
  8
SAPA_PROFIL
 10
66.329121687102031
 20
32.391238414943288
 30
0.0
 42
0.4142135622516715
  0
VERTEX
  5
1959
  8
SAPA_PROFIL
 10
66.02912168710202
 20
32.691238414818869
 30
0.0
  0
VERTEX
  5
195A
  8
SAPA_PROFIL
 10
65.929121688474083
 20
32.691238414818869
 30
0.0
 42
-0.4142135621360125
  0
VERTEX
  5
195B
  8
SAPA_PROFIL
 10
65.729121688474095
 20
32.891238414656968
 30
0.0
  0
VERTEX
  5
195C
  8
SAPA_PROFIL
 10
65.729121681998606
 20
41.091238414657013
 30
0.0
 42
-0.4142135626101776
  0
VERTEX
  5
195D
  8
SAPA_PROFIL
 10
65.929121681998595
 20
41.291238414818892
 30
0.0
  0
VERTEX
  5
195E
  8
SAPA_PROFIL
 10
66.029121683370704
 20
41.291238414818892
 30
0.0
 42
0.4142135624945291
  0
VERTEX
  5
195F
  8
SAPA_PROFIL
 10
66.329121683370715
 20
41.59123841494327
 30
0.0
  0
VERTEX
  5
1960
  8
SAPA_PROFIL
 10
66.32912168279023
 20
42.991238414943247
 30
0.0
 42
0.4142135622516611
  0
VERTEX
  5
1961
  8
SAPA_PROFIL
 10
66.029121682790219
 20
43.291238414818892
 30
0.0
  0
VERTEX
  5
1962
  8
SAPA_PROFIL
 10
65.929121682587606
 20
43.291238414818892
 30
0.0
 42
-0.4142135622584299
  0
VERTEX
  5
1963
  8
SAPA_PROFIL
 10
65.729121682587561
 20
43.4912384147406
 30
0.0
  0
VERTEX
  5
1964
  8
SAPA_PROFIL
 10
65.729121681963591
 20
44.991238414694109
 30
0.0
 42
-0.4142135624949384
  0
VERTEX
  5
1965
  8
SAPA_PROFIL
 10
66.029121681963602
 20
45.291238414818892
 30
0.0
  0
VERTEX
  5
1966
  8
SAPA_PROFIL
 10
84.029121692402796
 20
45.291238414818892
 30
0.0
 42
-0.4142135623730743
  0
VERTEX
  5
1967
  8
SAPA_PROFIL
 10
84.329121692402794
 20
44.99123841481893
 30
0.0
  0
VERTEX
  5
1968
  8
SAPA_PROFIL
 10
84.329121692402907
 20
43.491238414818881
 30
0.0
 42
-0.4142135623730951
  0
VERTEX
  5
1969
  8
SAPA_PROFIL
 10
84.129121692402904
 20
43.291238414818892
 30
0.0
  0
VERTEX
  5
196A
  8
SAPA_PROFIL
 10
84.029121692402796
 20
43.291238414818892
 30
0.0
 42
0.4142135623731125
  0
VERTEX
  5
196B
  8
SAPA_PROFIL
 10
83.729121692402785
 20
42.991238414818881
 30
0.0
  0
VERTEX
  5
196C
  8
SAPA_PROFIL
 10
83.729121692402785
 20
41.591238414818903
 30
0.0
 42
0.4142135623730951
  0
VERTEX
  5
196D
  8
SAPA_PROFIL
 10
84.029121692402796
 20
41.291238414818892
 30
0.0
  0
VERTEX
  5
196E
  8
SAPA_PROFIL
 10
84.129121692402805
 20
41.291238414818892
 30
0.0
 42
-0.4142135623730951
  0
VERTEX
  5
196F
  8
SAPA_PROFIL
 10
84.329121692402794
 20
41.091238414818903
 30
0.0
  0
VERTEX
  5
1970
  8
SAPA_PROFIL
 10
84.329121692402794
 20
32.891238414818858
 30
0.0
 42
-0.4142135623730951
  0
VERTEX
  5
1971
  8
SAPA_PROFIL
 10
84.129121692402805
 20
32.691238414818869
 30
0.0
  0
VERTEX
  5
1972
  8
SAPA_PROFIL
 10
84.029121692402796
 20
32.691238414818869
 30
0.0
 42
0.4142135623730951
  0
VERTEX
  5
1973
  8
SAPA_PROFIL
 10
83.729121692402785
 20
32.391238414818908
 30
0.0
  0
VERTEX
  5
1974
  8
SAPA_PROFIL
 10
83.729121692402785
 20
30.991238414818881
 30
0.0
 42
0.4142135623730951
  0
VERTEX
  5
1975
  8
SAPA_PROFIL
 10
84.029121692402796
 20
30.691238414818869
 30
0.0
  0
VERTEX
  5
1976
  8
SAPA_PROFIL
 10
84.129121692402805
 20
30.691238414818869
 30
0.0
 42
-0.4142135623730951
  0
VERTEX
  5
1977
  8
SAPA_PROFIL
 10
84.329121692402794
 20
30.491238414818881
 30
0.0
  0
VERTEX
  5
1978
  8
SAPA_PROFIL
 10
84.329121692402907
 20
28.991238414818881
 30
0.0
 42
-0.4142135623731159
  0
VERTEX
  5
1979
  8
SAPA_PROFIL
 10
84.029121692402896
 20
28.691238414818869
 30
0.0
  0
SEQEND
  5
197A
  8
SAPA_PROFIL
  0
POLYLINE
  5
12BB
  8
SAPA_PROFIL
 62
     4
 66
     1
 10
0.0
 20
0.0
 30
0.0
  0
VERTEX
  5
197B
  8
SAPA_PROFIL
 62
     4
 10
52.078450807775127
 20
49.087143136544157
 30
0.0
 42
-0.5571646428658034
  0
VERTEX
  5
197C
  8
SAPA_PROFIL
 62
     4
 10
51.541490303638291
 20
48.219424222388611
 30
0.0
  0
VERTEX
  5
197D
  8
SAPA_PROFIL
 62
     4
 10
34.516753067117101
 20
48.219424222389073
 30
0.0
 42
-0.5571645048035741
  0
VERTEX
  5
197E
  8
SAPA_PROFIL
 62
     4
 10
33.97979245015604
 20
49.087142910255238
 30
0.0
  0
VERTEX
  5
197F
  8
SAPA_PROFIL
 62
     4
 10
34.810499537702739
 20
50.753283566323269
 30
0.0
 42
-0.284385813979063
  0
VERTEX
  5
1980
  8
SAPA_PROFIL
 62
     4
 10
35.078979846183088
 20
50.91942422239071
 30
0.0
  0
VERTEX
  5
1981
  8
SAPA_PROFIL
 62
     4
 10
50.979263524572403
 20
50.919424222390703
 30
0.0
 42
-0.2843858139786238
  0
VERTEX
  5
1982
  8
SAPA_PROFIL
 62
     4
 10
51.247743833052681
 20
50.753283566323773
 30
0.0
  0
VERTEX
  5
1983
  8
SAPA_PROFIL
 62
     4
 10
52.078450920599849
 20
49.087142910254428
 30
0.0
  0
SEQEND
  5
1984
  8
SAPA_PROFIL
 62
     4
  0
POLYLINE
  5
12BC
  8
SAPA_PROFIL
 62
     4
 66
     1
 10
0.0
 20
0.0
 30
0.0
 70
     1
  0
VERTEX
  5
1985
  8
SAPA_PROFIL
 62
     4
 10
28.611510500710452
 20
51.276255736888281
 30
0.0
  0
VERTEX
  5
1986
  8
SAPA_PROFIL
 62
     4
 10
28.34748722233444
 20
51.682815932892417
 30
0.0
 42
0.2539676464751066
  0
VERTEX
  5
1987
  8
SAPA_PROFIL
 62
     4
 10
28.09588605194973
 20
51.819424222388527
 30
0.0
  0
VERTEX
  5
1988
  8
SAPA_PROFIL
 62
     4
 10
26.71438646674439
 20
51.819424222388527
 30
0.0
 42
0.3152987888790479
  0
VERTEX
  5
1989
  8
SAPA_PROFIL
 62
     4
 10
26.24454015635207
 20
51.49043429405036
 30
0.0
  0
VERTEX
  5
198A
  8
SAPA_PROFIL
 62
     4
 10
25.34887121544347
 20
49.029604103599091
 30
0.0
 42
-0.2694959974287434
  0
VERTEX
  5
198B
  8
SAPA_PROFIL
 62
     4
 10
25.11735216904211
 20
48.836472129255199
 30
0.0
 42
-0.0612686379508233
  0
VERTEX
  5
198C
  8
SAPA_PROFIL
 62
     4
 10
24.824676736188831
 20
48.822888758624671
 30
0.0
  0
VERTEX
  5
198D
  8
SAPA_PROFIL
 62
     4
 10
24.475258558880569
 20
48.62115207989585
 30
0.0
 42
-0.5773502691891679
  0
VERTEX
  5
198E
  8
SAPA_PROFIL
 62
     4
 10
24.16025855888098
 20
48.803017414690423
 30
0.0
  0
VERTEX
  5
198F
  8
SAPA_PROFIL
 62
     4
 10
24.160258558880741
 20
49.070131942816737
 30
0.0
  0
VERTEX
  5
1990
  8
SAPA_PROFIL
 62
     4
 10
22.76173085824648
 20
49.878815404125049
 30
0.0
 42
0.1318219888653519
  0
VERTEX
  5
1991
  8
SAPA_PROFIL
 62
     4
 10
22.61155775577414
 20
49.919107800662452
 30
0.0
  0
VERTEX
  5
1992
  8
SAPA_PROFIL
 62
     4
 10
22.429121685337361
 20
49.919107800656079
 30
0.0
 42
0.4142135623724291
  0
VERTEX
  5
1993
  8
SAPA_PROFIL
 62
     4
 10
22.029121685336818
 20
49.519107800656442
 30
0.0
  0
VERTEX
  5
1994
  8
SAPA_PROFIL
 62
     4
 10
22.029121685338179
 20
46.119107800655442
 30
0.0
 42
0.4142135623744271
  0
VERTEX
  5
1995
  8
SAPA_PROFIL
 62
     4
 10
22.429121685337361
 20
45.719107800654442
 30
0.0
  0
VERTEX
  5
1996
  8
SAPA_PROFIL
 62
     4
 10
22.608736927608671
 20
45.719107800653809
 30
0.0
 42
0.1316524975874005
  0
VERTEX
  5
1997
  8
SAPA_PROFIL
 62
     4
 10
22.758736927605479
 20
45.7593001795194
 30
0.0
  0
VERTEX
  5
1998
  8
SAPA_PROFIL
 62
     4
 10
24.36287482460774
 20
46.685449626171938
 30
0.0
 42
-0.1316524975875904
  0
VERTEX
  5
1999
  8
SAPA_PROFIL
 62
     4
 10
24.862874824609449
 20
46.819424222386701
 30
0.0
  0
VERTEX
  5
199A
  8
SAPA_PROFIL
 62
     4
 10
25.279121685336818
 20
46.819424222386701
 30
0.0
 42
-0.4142135623730951
  0
VERTEX
  5
199B
  8
SAPA_PROFIL
 62
     4
 10
26.279121685336811
 20
45.819424222386708
 30
0.0
  0
VERTEX
  5
199C
  8
SAPA_PROFIL
 62
     4
 10
26.279121685336811
 20
42.819424222389443
 30
0.0
 42
0.9999996830128083
  0
VERTEX
  5
199D
  8
SAPA_PROFIL
 62
     4
 10
27.279121685336818
 20
42.819424222387617
 30
0.0
  0
VERTEX
  5
199E
  8
SAPA_PROFIL
 62
     4
 10
27.279121685336818
 20
45.81942422238761
 30
0.0
 42
-0.4142135623730951
  0
VERTEX
  5
199F
  8
SAPA_PROFIL
 62
     4
 10
28.279121685336818
 20
46.81942422238761
 30
0.0
  0
VERTEX
  5
19A0
  8
SAPA_PROFIL
 62
     4
 10
57.779121685421401
 20
46.81942422238761
 30
0.0
 42
-0.4142135623730951
  0
VERTEX
  5
19A1
  8
SAPA_PROFIL
 62
     4
 10
58.779121685421401
 20
45.81942422238761
 30
0.0
  0
VERTEX
  5
19A2
  8
SAPA_PROFIL
 62
     4
 10
58.779121685421401
 20
42.819424222389429
 30
0.0
 42
0.9999999999999998
  0
VERTEX
  5
19A3
  8
SAPA_PROFIL
 62
     4
 10
59.779121685421401
 20
42.819424222389429
 30
0.0
  0
VERTEX
  5
19A4
  8
SAPA_PROFIL
 62
     4
 10
59.779121685421401
 20
45.81942422238761
 30
0.0
 42
-0.4142135623736278
  0
VERTEX
  5
19A5
  8
SAPA_PROFIL
 62
     4
 10
60.779121685421401
 20
46.81942422238761
 30
0.0
  0
VERTEX
  5
19A6
  8
SAPA_PROFIL
 62
     4
 10
61.195368546147861
 20
46.81942422238761
 30
0.0
 42
-0.1316524975874375
  0
VERTEX
  5
19A7
  8
SAPA_PROFIL
 62
     4
 10
61.69536854614806
 20
46.685449626171568
 30
0.0
  0
VERTEX
  5
19A8
  8
SAPA_PROFIL
 62
     4
 10
63.299506443150008
 20
45.759300179519393
 30
0.0
 42
0.1316524975874
  0
VERTEX
  5
19A9
  8
SAPA_PROFIL
 62
     4
 10
63.449506443149552
 20
45.719107800653809
 30
0.0
  0
VERTEX
  5
19AA
  8
SAPA_PROFIL
 62
     4
 10
63.629121685420849
 20
45.719107800654442
 30
0.0
 42
0.4142135623744271
  0
VERTEX
  5
19AB
  8
SAPA_PROFIL
 62
     4
 10
64.029121685420037
 20
46.119107800655442
 30
0.0
  0
VERTEX
  5
19AC
  8
SAPA_PROFIL
 62
     4
 10
64.029121685421401
 20
49.519107800656442
 30
0.0
 42
0.4142135623724291
  0
VERTEX
  5
19AD
  8
SAPA_PROFIL
 62
     4
 10
63.629121685420849
 20
49.919107800656079
 30
0.0
  0
VERTEX
  5
19AE
  8
SAPA_PROFIL
 62
     4
 10
63.446685614984077
 20
49.919107800662452
 30
0.0
 42
0.1318219888653524
  0
VERTEX
  5
19AF
  8
SAPA_PROFIL
 62
     4
 10
63.296512512511718
 20
49.878815404125049
 30
0.0
  0
VERTEX
  5
19B0
  8
SAPA_PROFIL
 62
     4
 10
61.897984812032078
 20
49.070131942900723
 30
0.0
  0
VERTEX
  5
19B1
  8
SAPA_PROFIL
 62
     4
 10
61.897984812032078
 20
48.80301741468768
 30
0.0
 42
-0.577350269189159
  0
VERTEX
  5
19B2
  8
SAPA_PROFIL
 62
     4
 10
61.582984812032478
 20
48.621152079893122
 30
0.0
  0
VERTEX
  5
19B3
  8
SAPA_PROFIL
 62
     4
 10
61.233566634813812
 20
48.822888758570222
 30
0.0
 42
-0.0612687673629489
  0
VERTEX
  5
19B4
  8
SAPA_PROFIL
 62
     4
 10
60.940891201713598
 20
48.836472129256428
 30
0.0
 42
-0.2694959974285039
  0
VERTEX
  5
19B5
  8
SAPA_PROFIL
 62
     4
 10
60.709372155313083
 20
49.02960410360037
 30
0.0
  0
VERTEX
  5
19B6
  8
SAPA_PROFIL
 62
     4
 10
59.813703214403411
 20
51.490434294053543
 30
0.0
 42
0.3152987888784035
  0
VERTEX
  5
19B7
  8
SAPA_PROFIL
 62
     4
 10
59.343856904010188
 20
51.819424222390118
 30
0.0
  0
VERTEX
  5
19B8
  8
SAPA_PROFIL
 62
     4
 10
57.962357318805751
 20
51.81942422238852
 30
0.0
 42
0.2539676464741841
  0
VERTEX
  5
19B9
  8
SAPA_PROFIL
 62
     4
 10
57.71075614842168
 20
51.682815932893249
 30
0.0
  0
VERTEX
  5
19BA
  8
SAPA_PROFIL
 62
     4
 10
57.446732870045039
 20
51.276255736888281
 30
0.0
 42
0.5862177598324623
  0
VERTEX
  5
19BB
  8
SAPA_PROFIL
 62
     4
 10
57.702474685283377
 20
50.81942422239176
 30
0.0
  0
VERTEX
  5
19BC
  8
SAPA_PROFIL
 62
     4
 10
58.643649365793202
 20
50.819424222399441
 30
0.0
 42
-0.3152987888813165
  0
VERTEX
  5
19BD
  8
SAPA_PROFIL
 62
     4
 10
59.113495676190951
 20
50.49043429406268
 30
0.0
  0
VERTEX
  5
19BE
  8
SAPA_PROFIL
 62
     4
 10
59.550259957314907
 20
49.290434294051451
 30
0.0
 42
-0.5205670505515651
  0
VERTEX
  5
19BF
  8
SAPA_PROFIL
 62
     4
 10
59.080413646921677
 20
48.619424222388702
 30
0.0
  0
VERTEX
  5
19C0
  8
SAPA_PROFIL
 62
     4
 10
54.063972706252827
 20
48.619424222388673
 30
0.0
 42
-0.3702522326300203
  0
VERTEX
  5
19C1
  8
SAPA_PROFIL
 62
     4
 10
53.7674493444595
 20
48.873884175054371
 30
0.0
 42
-0.0982365330332397
  0
VERTEX
  5
19C2
  8
SAPA_PROFIL
 62
     4
 10
53.676996586248563
 20
50.561570950049379
 30
0.0
 42
-0.3735060174783164
  0
VERTEX
  5
19C3
  8
SAPA_PROFIL
 62
     4
 10
53.974021254159538
 20
50.819424222389422
 30
0.0
  0
VERTEX
  5
19C4
  8
SAPA_PROFIL
 62
     4
 10
54.402474685282201
 20
50.819424222390339
 30
0.0
 42
0.5920056181162531
  0
VERTEX
  5
19C5
  8
SAPA_PROFIL
 62
     4
 10
54.6554834415996
 20
51.280627724918261
 30
0.0
  0
VERTEX
  5
19C6
  8
SAPA_PROFIL
 62
     4
 10
54.394299365443899
 20
51.682815932896553
 30
0.0
 42
0.2539676464746725
  0
VERTEX
  5
19C7
  8
SAPA_PROFIL
 62
     4
 10
54.142698195060142
 20
51.819424222391923
 30
0.0
  0
VERTEX
  5
19C8
  8
SAPA_PROFIL
 62
     4
 10
31.915545175694451
 20
51.819424222390353
 30
0.0
 42
0.2539676464741819
  0
VERTEX
  5
19C9
  8
SAPA_PROFIL
 62
     4
 10
31.663944005311588
 20
51.68281593289656
 30
0.0
  0
VERTEX
  5
19CA
  8
SAPA_PROFIL
 62
     4
 10
31.402759929157781
 20
51.280627724918233
 30
0.0
 42
0.5920055144124249
  0
VERTEX
  5
19CB
  8
SAPA_PROFIL
 62
     4
 10
31.655768685473291
 20
50.819424222390339
 30
0.0
  0
VERTEX
  5
19CC
  8
SAPA_PROFIL
 62
     4
 10
32.08422216276351
 20
50.819424247665353
 30
0.0
 42
-0.3735060174775405
  0
VERTEX
  5
19CD
  8
SAPA_PROFIL
 62
     4
 10
32.381246830673192
 20
50.56157097532526
 30
0.0
 42
-0.0355900683670349
  0
VERTEX
  5
19CE
  8
SAPA_PROFIL
 62
     4
 10
32.425140394705451
 20
49.945697388525467
 30
0.0
 42
-0.0624282003873116
  0
VERTEX
  5
19CF
  8
SAPA_PROFIL
 62
     4
 10
32.290794072462511
 20
48.873884200330338
 30
0.0
 42
-0.3702522326309292
  0
VERTEX
  5
19D0
  8
SAPA_PROFIL
 62
     4
 10
31.994270710669142
 20
48.619424247664618
 30
0.0
  0
VERTEX
  5
19D1
  8
SAPA_PROFIL
 62
     4
 10
26.977829723835619
 20
48.619424222388488
 30
0.0
 42
-0.5205670505515692
  0
VERTEX
  5
19D2
  8
SAPA_PROFIL
 62
     4
 10
26.5079834134424
 20
49.290434294051458
 30
0.0
  0
VERTEX
  5
19D3
  8
SAPA_PROFIL
 62
     4
 10
26.944747694567351
 20
50.490434294060897
 30
0.0
 42
-0.3152987888807539
  0
VERTEX
  5
19D4
  8
SAPA_PROFIL
 62
     4
 10
27.414594004963199
 20
50.819424222398531
 30
0.0
  0
VERTEX
  5
19D5
  8
SAPA_PROFIL
 62
     4
 10
28.355768685472292
 20
50.81942422239171
 30
0.0
 42
0.5862175119221242
  0
VERTEX
  5
19D6
  8
SAPA_PROFIL
 62
     4
 10
28.61151061645424
 20
51.276255548146843
 30
0.0
 42
-0.0000002084758573
  0
SEQEND
  5
19D7
  8
SAPA_PROFIL
 62
     4
  0
CIRCLE
  5
12BD
  8
SAPA_PROFIL
 62
     2
 10
4.0211152766842702
 20
81.129646037673183
 30
0.0
 40
0.8999999999999985
  0
POLYLINE
  5
12BE
  8
SAPA_PROFIL
 62
     2
 66
     1
 10
0.0
 20
0.0
 30
0.0
  0
VERTEX
  5
19D8
  8
SAPA_PROFIL
 62
     2
 10
5.3291216882573158
 20
79.729646037673206
 30
0.0
  0
VERTEX
  5
19D9
  8
SAPA_PROFIL
 62
     2
 10
4.2382028781045733
 20
79.922004457665594
 30
0.0
  0
VERTEX
  5
19DA
  8
SAPA_PROFIL
 62
     2
 10
4.122503338584635
 20
79.49020789776398
 30
0.0
 42
-0.4430158954262519
  0
VERTEX
  5
19DB
  8
SAPA_PROFIL
 62
     2
 10
3.8590269104776662
 20
79.35473085021988
 30
0.0
  0
VERTEX
  5
19DC
  8
SAPA_PROFIL
 62
     2
 10
2.5885391625594698
 20
79.831679043438839
 30
0.0
 42
-0.3125358528825162
  0
VERTEX
  5
19DD
  8
SAPA_PROFIL
 62
     2
 10
2.329121688257771
 20
80.206160756568224
 30
0.0
  0
VERTEX
  5
19DE
  8
SAPA_PROFIL
 62
     2
 10
2.3291216882573158
 20
82.076316072478562
 30
0.0
 42
-0.3125358528825104
  0
VERTEX
  5
19DF
  8
SAPA_PROFIL
 62
     2
 10
2.5885391625594698
 20
82.450797785607961
 30
0.0
  0
VERTEX
  5
19E0
  8
SAPA_PROFIL
 62
     2
 10
3.8590269104776662
 20
82.927745978827147
 30
0.0
 42
-0.4430158954262519
  0
VERTEX
  5
19E1
  8
SAPA_PROFIL
 62
     2
 10
4.1225033385845222
 20
82.792268931283047
 30
0.0
  0
VERTEX
  5
19E2
  8
SAPA_PROFIL
 62
     2
 10
4.2382028781045733
 20
82.360472371381206
 30
0.0
  0
VERTEX
  5
19E3
  8
SAPA_PROFIL
 62
     2
 10
5.3291216882573158
 20
82.552738414523446
 30
0.0
  0
SEQEND
  5
19E4
  8
SAPA_PROFIL
 62
     2
  0
POLYLINE
  5
12BF
  8
SAPA_PROFIL
 62
     2
 66
     1
 10
0.0
 20
0.0
 30
0.0
 70
     1
  0
VERTEX
  5
19E5
  8
SAPA_PROFIL
 62
     2
 10
5.3291216882573158
 20
79.741238414523536
 30
0.0
 42
0.285714285714282
  0
VERTEX
  5
19E6
  8
SAPA_PROFIL
 62
     2
 10
5.3291216882573158
 20
82.541238414523491
 30
0.0
  0
VERTEX
  5
19E7
  8
SAPA_PROFIL
 62
     2
 10
5.3291216882577714
 20
84.615018583911365
 30
0.0
 42
-0.3882600129940275
  0
VERTEX
  5
19E8
  8
SAPA_PROFIL
 62
     2
 10
5.6023324145373294
 20
84.913820081252766
 30
0.0
  0
VERTEX
  5
19E9
  8
SAPA_PROFIL
 62
     2
 10
9.5023324145374204
 20
85.380030005179265
 30
0.0
 42
-0.4406523138893894
  0
VERTEX
  5
19EA
  8
SAPA_PROFIL
 62
     2
 10
9.8291216882573167
 20
85.081228507837395
 30
0.0
  0
VERTEX
  5
19EB
  8
SAPA_PROFIL
 62
     2
 10
9.8291216882573167
 20
83.371436510917064
 30
0.0
 42
-0.3394542588634375
  0
VERTEX
  5
19EC
  8
SAPA_PROFIL
 62
     2
 10
9.6067674017883178
 20
83.081658763030532
 30
0.0
  0
VERTEX
  5
19ED
  8
SAPA_PROFIL
 62
     2
 10
9.3891816196207287
 20
82.879279035099103
 30
0.0
 42
0.3394542588633663
  0
VERTEX
  5
19EE
  8
SAPA_PROFIL
 62
     2
 10
9.1668273331517298
 20
82.589501287212329
 30
0.0
  0
VERTEX
  5
19EF
  8
SAPA_PROFIL
 62
     2
 10
9.1668273331517298
 20
79.692975541834471
 30
0.0
 42
0.3394542588634373
  0
VERTEX
  5
19F0
  8
SAPA_PROFIL
 62
     2
 10
9.3891816196207287
 20
79.403197793947925
 30
0.0
  0
VERTEX
  5
19F1
  8
SAPA_PROFIL
 62
     2
 10
9.6067674017883178
 20
79.200818066016495
 30
0.0
 42
-0.3394542588633662
  0
VERTEX
  5
19F2
  8
SAPA_PROFIL
 62
     2
 10
9.8291216882573167
 20
78.911040318129722
 30
0.0
  0
VERTEX
  5
19F3
  8
SAPA_PROFIL
 62
     2
 10
9.8291216882573167
 20
77.201248321209619
 30
0.0
 42
-0.4406523138893994
  0
VERTEX
  5
19F4
  8
SAPA_PROFIL
 62
     2
 10
9.5023324145374204
 20
76.90244682386799
 30
0.0
  0
VERTEX
  5
19F5
  8
SAPA_PROFIL
 62
     2
 10
5.6023324145373294
 20
77.368656747794262
 30
0.0
 42
-0.3882600129940462
  0
VERTEX
  5
19F6
  8
SAPA_PROFIL
 62
     2
 10
5.3291216882573158
 20
77.667458245135663
 30
0.0
  0
VERTEX
  5
19F7
  8
SAPA_PROFIL
 62
     2
 10
5.3291216882573158
 20
79.729646037673206
 30
0.0
  0
SEQEND
  5
19F8
  8
SAPA_PROFIL
 62
     2
  0
POLYLINE
  5
12C9
  8
SAPA_GLAS
 66
     1
 10
0.0
 20
0.0
 30
0.0
 70
     1
  0
VERTEX
  5
1A12
  8
SAPA_GLAS
 10
15.02655254835058
 20
6.9912384146567614
 30
0.0
  0
VERTEX
  5
1A13
  8
SAPA_GLAS
 10
30.02655254835058
 20
6.991238414656757
 30
0.0
  0
VERTEX
  5
1A14
  8
SAPA_GLAS
 10
30.02655254835058
 20
16.991238414656749
 30
0.0
  0
VERTEX
  5
1A15
  8
SAPA_GLAS
 10
15.02655254835058
 20
16.99123841465676
 30
0.0
  0
SEQEND
  5
1A16
  8
SAPA_GLAS
  0
POLYLINE
  5
12CA
  8
SAPA_GLAS
 66
     1
 10
0.0
 20
0.0
 30
0.0
 70
     1
  0
VERTEX
  5
1A17
  8
SAPA_GLAS
 10
34.02655254835058
 20
6.9912384146567561
 30
0.0
  0
VERTEX
  5
1A18
  8
SAPA_GLAS
 10
49.02655254835058
 20
6.9912384146567517
 30
0.0
  0
VERTEX
  5
1A19
  8
SAPA_GLAS
 10
49.02655254835058
 20
16.991238414656749
 30
0.0
  0
VERTEX
  5
1A1A
  8
SAPA_GLAS
 10
34.02655254835058
 20
16.991238414656749
 30
0.0
  0
SEQEND
  5
1A1B
  8
SAPA_GLAS
  0
POLYLINE
  5
12CB
  8
SAPA_GLAS
 66
     1
 10
0.0
 20
0.0
 30
0.0
  0
VERTEX
  5
1A1C
  8
SAPA_GLAS
 10
34.026552548350573
 20
-13.008761585343009
 30
0.0
  0
VERTEX
  5
1A1D
  8
SAPA_GLAS
 10
34.02655254835058
 20
16.99123841465698
 30
0.0
  0
VERTEX
  5
1A1E
  8
SAPA_GLAS
 10
30.02655254835058
 20
16.99123841465698
 30
0.0
  0
VERTEX
  5
1A1F
  8
SAPA_GLAS
 10
30.026552548350569
 20
-13.008761585343009
 30
0.0
  0
SEQEND
  5
1A20
  8
SAPA_GLAS
  0
POLYLINE
  5
12CC
  8
SAPA_GLAS
 66
     1
 10
0.0
 20
0.0
 30
0.0
  0
VERTEX
  5
1A21
  8
SAPA_GLAS
 10
55.026552548350573
 20
-13.00876158534302
 30
0.0
  0
VERTEX
  5
1A22
  8
SAPA_GLAS
 10
55.02655254835058
 20
16.99123841465698
 30
0.0
  0
VERTEX
  5
1A23
  8
SAPA_GLAS
 10
49.02655254835058
 20
16.99123841465698
 30
0.0
  0
VERTEX
  5
1A24
  8
SAPA_GLAS
 10
49.026552548350573
 20
-13.008761585343009
 30
0.0
  0
SEQEND
  5
1A25
  8
SAPA_GLAS
  0
POLYLINE
  5
12CD
  8
SAPA_GLAS
 66
     1
 10
0.0
 20
0.0
 30
0.0
  0
VERTEX
  5
1A26
  8
SAPA_GLAS
 10
9.0265525483505655
 20
-13.008761585343001
 30
0.0
  0
VERTEX
  5
1A27
  8
SAPA_GLAS
 10
9.0265525483505797
 20
16.991238414656991
 30
0.0
  0
VERTEX
  5
1A28
  8
SAPA_GLAS
 10
15.02655254835058
 20
16.991238414656991
 30
0.0
  0
VERTEX
  5
1A29
  8
SAPA_GLAS
 10
15.02655254835056
 20
-13.008761585343001
 30
0.0
  0
SEQEND
  5
1A2A
  8
SAPA_GLAS
  0
INSERT
  5
12D7
  8
SAPA_FYLLNING
  6
CONTINUOUS
  2
*X88
 10
0.0
 20
0.0
 30
0.0
1001
ACAD
1000
HATCH
1002
{
1070
    19
1000
HEX
1040
0.25
1040
0.0
1000
R14_HATCH_DATA
1000
12D7
1011
1.0
1021
0.0
1031
0.0
1021
0.0
1031
0.0
1011
0.0
1021
0.0
1031
0.0
1021
1.0
1031
0.0
1011
0.0
1021
0.0
1031
0.0
1021
0.0
1031
1.0
1040
0.0
1010
0.0
1020
0.0
1030
1.0
1000
HEX
1070
     0
1070
     0
1071
        1
1071
        7
1070
     1
1070
     1
1071
        2
1040
249.829692132893
1040
92.492714598623067
1040
1.0
1040
255.8296921328932
1040
92.492714598623067
1040
1.0
1071
        0
1070
     0
1070
     1
1040
0.0
1040
0.25
1070
     0
1070
     3
1040
0.0
1040
126.02912168844649
1040
21.992714598646639
1040
0.0
1040
1.374814999999999
1070
     2
1040
0.79375
1040
-1.587499999999999
1040
2.0943951023931948
1040
126.02912168844649
1040
21.992714598646639
1040
-1.190624715503902
1040
-0.6874074999999996
1070
     2
1040
0.7937499999999985
1040
-1.5874999999999959
1040
1.047197551196597
1040
126.8228716884465
1040
21.992714598646639
1040
-1.190624715503902
1040
0.6874075000000001
1070
     2
1040
0.79375
1040
-1.587499999999999
1040
0.0216905703044498
1071
        1
1040
253.11626407551819
1040
92.558650777284896
1040
0.0
1002
}
  0
INSERT
  5
12D8
  8
SAPA_FYLLNING
  6
CONTINUOUS
  2
*X89
 10
0.0
 20
0.0
 30
0.0
1001
ACAD
1000
HATCH
1002
{
1070
    19
1000
ANSI37
1040
0.25
1040
0.0
1000
R14_HATCH_DATA
1000
12D8
1011
1.0
1021
0.0
1031
0.0
1021
0.0
1031
0.0
1011
0.0
1021
0.0
1031
0.0
1021
1.0
1031
0.0
1011
0.0
1021
0.0
1031
0.0
1021
0.0
1031
1.0
1040
0.0
1010
0.0
1020
0.0
1030
1.0
1000
ANSI37
1070
     0
1070
     0
1071
        1
1071
        7
1070
     1
1070
     1
1071
        9
1040
249.8296921328926
1040
99.012916395974258
1040
0.0
1040
249.8296921328926
1040
92.492714598622399
1040
-1.0
1040
255.8296921328928
1040
92.492714598622399
1040
0.0
1040
255.8296921328928
1040
94.078501036245569
1040
0.1989123673796868
1040
255.74182416724929
1040
94.290633070601373
1040
0.0
1040
255.4761387422999
1040
94.556318495550357
1040
-0.4142135623730951
1040
255.4761387422995
1040
95.263425276737024
1040
0.0
1040
257.11756009853599
1040
96.90484663297363
1040
-0.2679491924312271
1040
257.40733784642282
1040
96.982492346504685
1040
0.0
1071
        0
1070
     0
1070
     1
1040
0.0
1040
0.25
1070
     0
1070
     2
1040
0.7853981633974483
1040
126.02912168844649
1040
21.992714598646639
1040
-0.5612660075668221
1040
0.5612660075668221
1070
     0
1040
2.3561944901923439
1040
126.02912168844649
1040
21.992714598646639
1040
-0.5612660075668221
1040
-0.5612660075668221
1070
     0
1040
0.0212842410303403
1071
        1
1040
251.92847411277569
1040
97.036599828685297
1040
0.0
1002
}
  0
INSERT
  5
12D9
  8
SAPA_FYLLNING
  6
CONTINUOUS
  2
*X90
 10
0.0
 20
0.0
 30
0.0
1001
ACAD
1000
HATCH
1002
{
1070
    19
1000
ANSI37
1040
0.25
1040
0.0
1000
R14_HATCH_DATA
1000
12D9
1011
1.0
1021
0.0
1031
0.0
1021
0.0
1031
0.0
1011
0.0
1021
0.0
1031
0.0
1021
1.0
1031
0.0
1011
0.0
1021
0.0
1031
0.0
1021
0.0
1031
1.0
1040
0.0
1010
0.0
1020
0.0
1030
1.0
1000
ANSI37
1070
     0
1070
     0
1071
        1
1071
        7
1070
     1
1070
     1
1071
        7
1040
9.8296921328924896
1040
119.0481851477461
1040
0.0
1040
9.6899848167289502
1040
116.74301454233451
1040
0.0
1040
8.4129648947961471
1040
116.1054315182778
1040
0.3394542588633754
1040
7.8798448771584333
1040
115.01083343834669
1040
0.0
1040
9.1944940163064643
1040
108.5674167300579
1040
0.0
1040
8.8315236364363159
1040
102.578405751332
1040
0.0
1040
9.8296921328924896
1040
102.51791068802019
1040
0.0
1071
        0
1070
     0
1070
     1
1040
0.0
1040
0.25
1070
     0
1070
     2
1040
0.7853981633974483
1040
-13.97087831155352
1040
21.992714598646639
1040
-0.5612660075668221
1040
0.5612660075668221
1070
     0
1040
2.3561944901923439
1040
-13.97087831155352
1040
21.992714598646639
1040
-0.5612660075668221
1040
-0.5612660075668221
1070
     0
1040
0.0258300345760058
1071
        1
1040
9.0198445554966611
1040
114.7258055286639
1040
0.0
1002
}
  0
INSERT
  5
12DA
  8
SAPA_FYLLNING
  6
CONTINUOUS
  2
*X91
 10
0.0
 20
0.0
 30
0.0
1001
ACAD
1000
HATCH
1002
{
1070
    19
1000
ANSI37
1040
0.25
1040
0.0
1000
R14_HATCH_DATA
1000
12DA
1011
1.0
1021
0.0
1031
0.0
1021
0.0
1031
0.0
1011
0.0
1021
0.0
1031
0.0
1021
1.0
1031
0.0
1011
0.0
1021
0.0
1031
0.0
1021
0.0
1031
1.0
1040
0.0
1010
0.0
1020
0.0
1030
1.0
1000
ANSI37
1070
     0
1070
     0
1071
        1
1071
        1
1071
        7
1070
     1
1040
9.8296921328926032
1040
99.549989723220591
1040
0.2521012888346945
1040
96.981183006489786
1070
     2
1040
0.3336662218741646
1040
96.701608053382685
1040
0.2912301370163656
1040
4.4285215654115753
1040
5.5058647730765582
1070
     0
1070
     1
1040
0.5412537229964869
1040
96.90586872528101
1040
1.5826750792286359
1040
95.864447369048747
1070
     2
1040
1.2291216886354259
1040
95.510893978455485
1040
0.4999999999999369
1040
5.4977871437820829
1040
6.2831853071795294
1070
     0
1070
     1
1040
1.7291216886353591
1040
95.510893978455528
1040
1.729121688635302
1040
89.016503498564859
1070
     2
1040
5.7794069107639521
1040
89.016503498564845
1040
4.0502852221286503
1040
3.1415926535898002
1040
6.2831853071795889
1070
     0
1070
     1
1040
9.8296921328926032
1040
89.01650349856483
1040
9.8296921328926032
1040
99.549989723220591
1071
        0
1070
     0
1070
     1
1040
0.0
1040
0.25
1070
     0
1070
     2
1040
0.7853981633974483
1040
-13.97087831155352
1040
21.992714598646639
1040
-0.5612660075668221
1040
0.5612660075668221
1070
     0
1040
2.3561944901923439
1040
-13.97087831155352
1040
21.992714598646639
1040
-0.5612660075668221
1040
-0.5612660075668221
1070
     0
1071
        1
1040
6.7352333836992671
1040
95.918533986783601
1040
0.0
1002
}
  0
INSERT
  5
12DB
  8
SAPA_FYLLNING
  6
CONTINUOUS
  2
*X92
 10
0.0
 20
0.0
 30
0.0
1001
ACAD
1000
HATCH
1002
{
1070
    19
1000
HEX
1040
0.25
1040
0.0
1000
R14_HATCH_DATA
1000
12DB
1011
1.0
1021
0.0
1031
0.0
1021
0.0
1031
0.0
1011
0.0
1021
0.0
1031
0.0
1021
1.0
1031
0.0
1011
0.0
1021
0.0
1031
0.0
1021
0.0
1031
1.0
1040
0.0
1010
0.0
1020
0.0
1030
1.0
1000
HEX
1070
     0
1070
     0
1071
        1
1071
        7
1070
     1
1070
     1
1071
        4
1040
1.729121688635189
1040
89.016503498565498
1040
0.4482391167472182
1040
6.2431904680551611
1040
84.992858982386181
1040
0.0
1040
6.2771195329542024
1040
84.996914896941433
1040
0.3785740520061987
1040
9.8296921328924896
1040
89.016503498565498
1040
1.0
1071
        0
1070
     0
1070
     1
1040
0.0
1040
0.25
1070
     0
1070
     3
1040
0.0
1040
-13.97087831155352
1040
21.992714598646639
1040
0.0
1040
1.374814999999999
1070
     2
1040
0.79375
1040
-1.587499999999999
1040
2.0943951023931948
1040
-13.97087831155352
1040
21.992714598646639
1040
-1.190624715503902
1040
-0.6874074999999996
1070
     2
1040
0.7937499999999994
1040
-1.5874999999999979
1040
1.047197551196597
1040
-13.177128311553529
1040
21.992714598646639
1040
-1.190624715503902
1040
0.6874075000000001
1070
     2
1040
0.79375
1040
-1.587499999999999
1040
0.0303180261480682
1071
        1
1040
5.9551845697507133
1040
89.028085596160139
1040
0.0
1002
}
  0
POLYLINE
  5
12E3
  8
SAPA_FOGBAND
 62
     2
 10
58.61792792013712
 20
12.217452968608656
 30
0.0
 66
     1
 70
     8
  0
VERTEX
  8
SAPA_FOGBAND
  5
1BCF
 10
58.6179
 20
12.2175
 30
0.000000
  70
    32
  0
VERTEX
  8
SAPA_FOGBAND
  5
1BD0
 10
58.5492
 20
12.2201
 30
0.000000
  70
    32
  0
VERTEX
  8
SAPA_FOGBAND
  5
1BD1
 10
58.4807
 20
12.2279
 30
0.000000
  70
    32
  0
VERTEX
  8
SAPA_FOGBAND
  5
1BD2
 10
58.4125
 20
12.2409
 30
0.000000
  70
    32
  0
VERTEX
  8
SAPA_FOGBAND
  5
1BD3
 10
58.3448
 20
12.2591
 30
0.000000
  70
    32
  0
VERTEX
  8
SAPA_FOGBAND
  5
1BD4
 10
58.2778
 20
12.2824
 30
0.000000
  70
    32
  0
VERTEX
  8
SAPA_FOGBAND
  5
1BD5
 10
58.2115
 20
12.3108
 30
0.000000
  70
    32
  0
VERTEX
  8
SAPA_FOGBAND
  5
1BD6
 10
58.1463
 20
12.3442
 30
0.000000
  70
    32
  0
VERTEX
  8
SAPA_FOGBAND
  5
1BD7
 10
58.0822
 20
12.3825
 30
0.000000
  70
    32
  0
VERTEX
  8
SAPA_FOGBAND
  5
1BD8
 10
58.0194
 20
12.4256
 30
0.000000
  70
    32
  0
VERTEX
  8
SAPA_FOGBAND
  5
1BD9
 10
57.9580
 20
12.4734
 30
0.000000
  70
    32
  0
VERTEX
  8
SAPA_FOGBAND
  5
1BDA
 10
57.8982
 20
12.5259
 30
0.000000
  70
    32
  0
VERTEX
  8
SAPA_FOGBAND
  5
1BDB
 10
57.8401
 20
12.5828
 30
0.000000
  70
    32
  0
VERTEX
  8
SAPA_FOGBAND
  5
1BDC
 10
57.7839
 20
12.6441
 30
0.000000
  70
    32
  0
VERTEX
  8
SAPA_FOGBAND
  5
1BDD
 10
57.7298
 20
12.7095
 30
0.000000
  70
    32
  0
VERTEX
  8
SAPA_FOGBAND
  5
1BDE
 10
57.6777
 20
12.7790
 30
0.000000
  70
    32
  0
VERTEX
  8
SAPA_FOGBAND
  5
1BDF
 10
57.6280
 20
12.8524
 30
0.000000
  70
    32
  0
VERTEX
  8
SAPA_FOGBAND
  5
1BE0
 10
57.5806
 20
12.9294
 30
0.000000
  70
    32
  0
VERTEX
  8
SAPA_FOGBAND
  5
1BE1
 10
57.5357
 20
13.0100
 30
0.000000
  70
    32
  0
VERTEX
  8
SAPA_FOGBAND
  5
1BE2
 10
57.4934
 20
13.0939
 30
0.000000
  70
    32
  0
VERTEX
  8
SAPA_FOGBAND
  5
1BE3
 10
57.4539
 20
13.1809
 30
0.000000
  70
    32
  0
VERTEX
  8
SAPA_FOGBAND
  5
1BE4
 10
57.4171
 20
13.2708
 30
0.000000
  70
    32
  0
VERTEX
  8
SAPA_FOGBAND
  5
1BE5
 10
57.3832
 20
13.3634
 30
0.000000
  70
    32
  0
VERTEX
  8
SAPA_FOGBAND
  5
1BE6
 10
57.3523
 20
13.4584
 30
0.000000
  70
    32
  0
VERTEX
  8
SAPA_FOGBAND
  5
1BE7
 10
57.3245
 20
13.5557
 30
0.000000
  70
    32
  0
VERTEX
  8
SAPA_FOGBAND
  5
1BE8
 10
57.2998
 20
13.6549
 30
0.000000
  70
    32
  0
VERTEX
  8
SAPA_FOGBAND
  5
1BE9
 10
57.2782
 20
13.7560
 30
0.000000
  70
    32
  0
VERTEX
  8
SAPA_FOGBAND
  5
1BEA
 10
57.2599
 20
13.8585
 30
0.000000
  70
    32
  0
VERTEX
  8
SAPA_FOGBAND
  5
1BEB
 10
57.2448
 20
13.9623
 30
0.000000
  70
    32
  0
VERTEX
  8
SAPA_FOGBAND
  5
1BEC
 10
57.2331
 20
14.0672
 30
0.000000
  70
    32
  0
VERTEX
  8
SAPA_FOGBAND
  5
1BED
 10
57.2247
 20
14.1728
 30
0.000000
  70
    32
  0
VERTEX
  8
SAPA_FOGBAND
  5
1BEE
 10
57.2196
 20
14.2789
 30
0.000000
  70
    32
  0
VERTEX
  8
SAPA_FOGBAND
  5
1BEF
 10
57.2179
 20
14.3852
 30
0.000000
  70
    32
  0
VERTEX
  8
SAPA_FOGBAND
  5
1BF0
 10
57.2196
 20
14.4916
 30
0.000000
  70
    32
  0
VERTEX
  8
SAPA_FOGBAND
  5
1BF1
 10
57.2247
 20
14.5977
 30
0.000000
  70
    32
  0
VERTEX
  8
SAPA_FOGBAND
  5
1BF2
 10
57.2331
 20
14.7033
 30
0.000000
  70
    32
  0
VERTEX
  8
SAPA_FOGBAND
  5
1BF3
 10
57.2448
 20
14.8082
 30
0.000000
  70
    32
  0
VERTEX
  8
SAPA_FOGBAND
  5
1BF4
 10
57.2599
 20
14.9120
 30
0.000000
  70
    32
  0
VERTEX
  8
SAPA_FOGBAND
  5
1BF5
 10
57.2782
 20
15.0145
 30
0.000000
  70
    32
  0
VERTEX
  8
SAPA_FOGBAND
  5
1BF6
 10
57.2998
 20
15.1155
 30
0.000000
  70
    32
  0
VERTEX
  8
SAPA_FOGBAND
  5
1BF7
 10
57.3245
 20
15.2148
 30
0.000000
  70
    32
  0
VERTEX
  8
SAPA_FOGBAND
  5
1BF8
 10
57.3523
 20
15.3121
 30
0.000000
  70
    32
  0
VERTEX
  8
SAPA_FOGBAND
  5
1BF9
 10
57.3832
 20
15.4071
 30
0.000000
  70
    32
  0
VERTEX
  8
SAPA_FOGBAND
  5
1BFA
 10
57.4171
 20
15.4997
 30
0.000000
  70
    32
  0
VERTEX
  8
SAPA_FOGBAND
  5
1BFB
 10
57.4539
 20
15.5896
 30
0.000000
  70
    32
  0
VERTEX
  8
SAPA_FOGBAND
  5
1BFC
 10
57.4934
 20
15.6766
 30
0.000000
  70
    32
  0
VERTEX
  8
SAPA_FOGBAND
  5
1BFD
 10
57.5357
 20
15.7605
 30
0.000000
  70
    32
  0
VERTEX
  8
SAPA_FOGBAND
  5
1BFE
 10
57.5806
 20
15.8410
 30
0.000000
  70
    32
  0
VERTEX
  8
SAPA_FOGBAND
  5
1BFF
 10
57.6280
 20
15.9181
 30
0.000000
  70
    32
  0
VERTEX
  8
SAPA_FOGBAND
  5
1C00
 10
57.6777
 20
15.9915
 30
0.000000
  70
    32
  0
VERTEX
  8
SAPA_FOGBAND
  5
1C01
 10
57.7298
 20
16.0610
 30
0.000000
  70
    32
  0
VERTEX
  8
SAPA_FOGBAND
  5
1C02
 10
57.7839
 20
16.1264
 30
0.000000
  70
    32
  0
VERTEX
  8
SAPA_FOGBAND
  5
1C03
 10
57.8401
 20
16.1877
 30
0.000000
  70
    32
  0
VERTEX
  8
SAPA_FOGBAND
  5
1C04
 10
57.8982
 20
16.2446
 30
0.000000
  70
    32
  0
VERTEX
  8
SAPA_FOGBAND
  5
1C05
 10
57.9580
 20
16.2971
 30
0.000000
  70
    32
  0
VERTEX
  8
SAPA_FOGBAND
  5
1C06
 10
58.0194
 20
16.3449
 30
0.000000
  70
    32
  0
VERTEX
  8
SAPA_FOGBAND
  5
1C07
 10
58.0822
 20
16.3880
 30
0.000000
  70
    32
  0
VERTEX
  8
SAPA_FOGBAND
  5
1C08
 10
58.1463
 20
16.4263
 30
0.000000
  70
    32
  0
VERTEX
  8
SAPA_FOGBAND
  5
1C09
 10
58.2115
 20
16.4597
 30
0.000000
  70
    32
  0
VERTEX
  8
SAPA_FOGBAND
  5
1C0A
 10
58.2778
 20
16.4881
 30
0.000000
  70
    32
  0
VERTEX
  8
SAPA_FOGBAND
  5
1C0B
 10
58.3448
 20
16.5114
 30
0.000000
  70
    32
  0
VERTEX
  8
SAPA_FOGBAND
  5
1C0C
 10
58.4125
 20
16.5296
 30
0.000000
  70
    32
  0
VERTEX
  8
SAPA_FOGBAND
  5
1C0D
 10
58.4807
 20
16.5426
 30
0.000000
  70
    32
  0
VERTEX
  8
SAPA_FOGBAND
  5
1C0E
 10
58.5492
 20
16.5504
 30
0.000000
  70
    32
  0
VERTEX
  8
SAPA_FOGBAND
  5
1C0F
 10
58.6179
 20
16.5530
 30
0.000000
  70
    32
  0
VERTEX
  8
SAPA_FOGBAND
  5
1C10
 10
58.6866
 20
16.5504
 30
0.000000
  70
    32
  0
VERTEX
  8
SAPA_FOGBAND
  5
1C11
 10
58.7552
 20
16.5426
 30
0.000000
  70
    32
  0
VERTEX
  8
SAPA_FOGBAND
  5
1C12
 10
58.8234
 20
16.5296
 30
0.000000
  70
    32
  0
VERTEX
  8
SAPA_FOGBAND
  5
1C13
 10
58.8911
 20
16.5114
 30
0.000000
  70
    32
  0
VERTEX
  8
SAPA_FOGBAND
  5
1C14
 10
58.9581
 20
16.4881
 30
0.000000
  70
    32
  0
VERTEX
  8
SAPA_FOGBAND
  5
1C15
 10
59.0243
 20
16.4597
 30
0.000000
  70
    32
  0
VERTEX
  8
SAPA_FOGBAND
  5
1C16
 10
59.0896
 20
16.4263
 30
0.000000
  70
    32
  0
VERTEX
  8
SAPA_FOGBAND
  5
1C17
 10
59.1537
 20
16.3880
 30
0.000000
  70
    32
  0
VERTEX
  8
SAPA_FOGBAND
  5
1C18
 10
59.2165
 20
16.3449
 30
0.000000
  70
    32
  0
VERTEX
  8
SAPA_FOGBAND
  5
1C19
 10
59.2779
 20
16.2971
 30
0.000000
  70
    32
  0
VERTEX
  8
SAPA_FOGBAND
  5
1C1A
 10
59.3377
 20
16.2446
 30
0.000000
  70
    32
  0
VERTEX
  8
SAPA_FOGBAND
  5
1C1B
 10
59.3957
 20
16.1877
 30
0.000000
  70
    32
  0
VERTEX
  8
SAPA_FOGBAND
  5
1C1C
 10
59.4519
 20
16.1264
 30
0.000000
  70
    32
  0
VERTEX
  8
SAPA_FOGBAND
  5
1C1D
 10
59.5061
 20
16.0610
 30
0.000000
  70
    32
  0
VERTEX
  8
SAPA_FOGBAND
  5
1C1E
 10
59.5581
 20
15.9915
 30
0.000000
  70
    32
  0
VERTEX
  8
SAPA_FOGBAND
  5
1C1F
 10
59.6079
 20
15.9181
 30
0.000000
  70
    32
  0
VERTEX
  8
SAPA_FOGBAND
  5
1C20
 10
59.6553
 20
15.8410
 30
0.000000
  70
    32
  0
VERTEX
  8
SAPA_FOGBAND
  5
1C21
 10
59.7001
 20
15.7605
 30
0.000000
  70
    32
  0
VERTEX
  8
SAPA_FOGBAND
  5
1C22
 10
59.7424
 20
15.6766
 30
0.000000
  70
    32
  0
VERTEX
  8
SAPA_FOGBAND
  5
1C23
 10
59.7820
 20
15.5896
 30
0.000000
  70
    32
  0
VERTEX
  8
SAPA_FOGBAND
  5
1C24
 10
59.8187
 20
15.4997
 30
0.000000
  70
    32
  0
VERTEX
  8
SAPA_FOGBAND
  5
1C25
 10
59.8526
 20
15.4071
 30
0.000000
  70
    32
  0
VERTEX
  8
SAPA_FOGBAND
  5
1C26
 10
59.8835
 20
15.3121
 30
0.000000
  70
    32
  0
VERTEX
  8
SAPA_FOGBAND
  5
1C27
 10
59.9114
 20
15.2148
 30
0.000000
  70
    32
  0
VERTEX
  8
SAPA_FOGBAND
  5
1C28
 10
59.9361
 20
15.1155
 30
0.000000
  70
    32
  0
VERTEX
  8
SAPA_FOGBAND
  5
1C29
 10
59.9576
 20
15.0145
 30
0.000000
  70
    32
  0
VERTEX
  8
SAPA_FOGBAND
  5
1C2A
 10
59.9760
 20
14.9120
 30
0.000000
  70
    32
  0
VERTEX
  8
SAPA_FOGBAND
  5
1C2B
 10
59.9910
 20
14.8082
 30
0.000000
  70
    32
  0
VERTEX
  8
SAPA_FOGBAND
  5
1C2C
 10
60.0028
 20
14.7033
 30
0.000000
  70
    32
  0
VERTEX
  8
SAPA_FOGBAND
  5
1C2D
 10
60.0112
 20
14.5977
 30
0.000000
  70
    32
  0
VERTEX
  8
SAPA_FOGBAND
  5
1C2E
 10
60.0162
 20
14.4916
 30
0.000000
  70
    32
  0
VERTEX
  8
SAPA_FOGBAND
  5
1C2F
 10
60.0179
 20
14.3852
 30
0.000000
  70
    32
  0
VERTEX
  8
SAPA_FOGBAND
  5
1C30
 10
60.0162
 20
14.2789
 30
0.000000
  70
    32
  0
VERTEX
  8
SAPA_FOGBAND
  5
1C31
 10
60.0112
 20
14.1728
 30
0.000000
  70
    32
  0
VERTEX
  8
SAPA_FOGBAND
  5
1C32
 10
60.0028
 20
14.0672
 30
0.000000
  70
    32
  0
VERTEX
  8
SAPA_FOGBAND
  5
1C33
 10
59.9910
 20
13.9623
 30
0.000000
  70
    32
  0
VERTEX
  8
SAPA_FOGBAND
  5
1C34
 10
59.9760
 20
13.8585
 30
0.000000
  70
    32
  0
VERTEX
  8
SAPA_FOGBAND
  5
1C35
 10
59.9576
 20
13.7560
 30
0.000000
  70
    32
  0
VERTEX
  8
SAPA_FOGBAND
  5
1C36
 10
59.9361
 20
13.6549
 30
0.000000
  70
    32
  0
VERTEX
  8
SAPA_FOGBAND
  5
1C37
 10
59.9114
 20
13.5557
 30
0.000000
  70
    32
  0
VERTEX
  8
SAPA_FOGBAND
  5
1C38
 10
59.8835
 20
13.4584
 30
0.000000
  70
    32
  0
VERTEX
  8
SAPA_FOGBAND
  5
1C39
 10
59.8526
 20
13.3634
 30
0.000000
  70
    32
  0
VERTEX
  8
SAPA_FOGBAND
  5
1C3A
 10
59.8187
 20
13.2708
 30
0.000000
  70
    32
  0
VERTEX
  8
SAPA_FOGBAND
  5
1C3B
 10
59.7820
 20
13.1809
 30
0.000000
  70
    32
  0
VERTEX
  8
SAPA_FOGBAND
  5
1C3C
 10
59.7424
 20
13.0939
 30
0.000000
  70
    32
  0
VERTEX
  8
SAPA_FOGBAND
  5
1C3D
 10
59.7001
 20
13.0100
 30
0.000000
  70
    32
  0
VERTEX
  8
SAPA_FOGBAND
  5
1C3E
 10
59.6553
 20
12.9294
 30
0.000000
  70
    32
  0
VERTEX
  8
SAPA_FOGBAND
  5
1C3F
 10
59.6079
 20
12.8524
 30
0.000000
  70
    32
  0
VERTEX
  8
SAPA_FOGBAND
  5
1C40
 10
59.5581
 20
12.7790
 30
0.000000
  70
    32
  0
VERTEX
  8
SAPA_FOGBAND
  5
1C41
 10
59.5061
 20
12.7095
 30
0.000000
  70
    32
  0
VERTEX
  8
SAPA_FOGBAND
  5
1C42
 10
59.4519
 20
12.6441
 30
0.000000
  70
    32
  0
VERTEX
  8
SAPA_FOGBAND
  5
1C43
 10
59.3957
 20
12.5828
 30
0.000000
  70
    32
  0
VERTEX
  8
SAPA_FOGBAND
  5
1C44
 10
59.3377
 20
12.5259
 30
0.000000
  70
    32
  0
VERTEX
  8
SAPA_FOGBAND
  5
1C45
 10
59.2779
 20
12.4734
 30
0.000000
  70
    32
  0
VERTEX
  8
SAPA_FOGBAND
  5
1C46
 10
59.2165
 20
12.4256
 30
0.000000
  70
    32
  0
VERTEX
  8
SAPA_FOGBAND
  5
1C47
 10
59.1537
 20
12.3825
 30
0.000000
  70
    32
  0
VERTEX
  8
SAPA_FOGBAND
  5
1C48
 10
59.0896
 20
12.3442
 30
0.000000
  70
    32
  0
VERTEX
  8
SAPA_FOGBAND
  5
1C49
 10
59.0243
 20
12.3108
 30
0.000000
  70
    32
  0
VERTEX
  8
SAPA_FOGBAND
  5
1C4A
 10
58.9581
 20
12.2824
 30
0.000000
  70
    32
  0
VERTEX
  8
SAPA_FOGBAND
  5
1C4B
 10
58.8911
 20
12.2591
 30
0.000000
  70
    32
  0
VERTEX
  8
SAPA_FOGBAND
  5
1C4C
 10
58.8234
 20
12.2409
 30
0.000000
  70
    32
  0
VERTEX
  8
SAPA_FOGBAND
  5
1C4D
 10
58.7552
 20
12.2279
 30
0.000000
  70
    32
  0
VERTEX
  8
SAPA_FOGBAND
  5
1C4E
 10
58.6866
 20
12.2201
 30
0.000000
  70
    32
  0
VERTEX
  8
SAPA_FOGBAND
  5
1C4F
 10
58.6179
 20
12.2175
 30
0.000000
  70
    32
  0
SEQEND
  8
SAPA_FOGBAND
  5
1C50
  0
POLYLINE
  5
12E4
  8
SAPA_FOGBAND
 62
     2
 10
60.352713942870047
 20
2.7000501095575888
 30
0.0
 66
     1
 70
     8
  0
VERTEX
  8
SAPA_FOGBAND
  5
1C51
 10
60.3527
 20
2.70005
 30
0.000000
  70
    32
  0
VERTEX
  8
SAPA_FOGBAND
  5
1C52
 10
60.2644
 20
2.70377
 30
0.000000
  70
    32
  0
VERTEX
  8
SAPA_FOGBAND
  5
1C53
 10
60.1763
 20
2.71491
 30
0.000000
  70
    32
  0
VERTEX
  8
SAPA_FOGBAND
  5
1C54
 10
60.0886
 20
2.73344
 30
0.000000
  70
    32
  0
VERTEX
  8
SAPA_FOGBAND
  5
1C55
 10
60.0016
 20
2.75933
 30
0.000000
  70
    32
  0
VERTEX
  8
SAPA_FOGBAND
  5
1C56
 10
59.9153
 20
2.79251
 30
0.000000
  70
    32
  0
VERTEX
  8
SAPA_FOGBAND
  5
1C57
 10
59.8302
 20
2.83290
 30
0.000000
  70
    32
  0
VERTEX
  8
SAPA_FOGBAND
  5
1C58
 10
59.7463
 20
2.88040
 30
0.000000
  70
    32
  0
VERTEX
  8
SAPA_FOGBAND
  5
1C59
 10
59.6639
 20
2.93490
 30
0.000000
  70
    32
  0
VERTEX
  8
SAPA_FOGBAND
  5
1C5A
 10
59.5831
 20
2.99626
 30
0.000000
  70
    32
  0
VERTEX
  8
SAPA_FOGBAND
  5
1C5B
 10
59.5042
 20
3.06435
 30
0.000000
  70
    32
  0
VERTEX
  8
SAPA_FOGBAND
  5
1C5C
 10
59.4273
 20
3.13899
 30
0.000000
  70
    32
  0
VERTEX
  8
SAPA_FOGBAND
  5
1C5D
 10
59.3527
 20
3.22000
 30
0.000000
  70
    32
  0
VERTEX
  8
SAPA_FOGBAND
  5
1C5E
 10
59.2805
 20
3.30720
 30
0.000000
  70
    32
  0
VERTEX
  8
SAPA_FOGBAND
  5
1C5F
 10
59.2108
 20
3.40036
 30
0.000000
  70
    32
  0
VERTEX
  8
SAPA_FOGBAND
  5
1C60
 10
59.1439
 20
3.49927
 30
0.000000
  70
    32
  0
VERTEX
  8
SAPA_FOGBAND
  5
1C61
 10
59.0799
 20
3.60369
 30
0.000000
  70
    32
  0
VERTEX
  8
SAPA_FOGBAND
  5
1C62
 10
59.0190
 20
3.71336
 30
0.000000
  70
    32
  0
VERTEX
  8
SAPA_FOGBAND
  5
1C63
 10
58.9613
 20
3.82803
 30
0.000000
  70
    32
  0
VERTEX
  8
SAPA_FOGBAND
  5
1C64
 10
58.9069
 20
3.94741
 30
0.000000
  70
    32
  0
VERTEX
  8
SAPA_FOGBAND
  5
1C65
 10
58.8561
 20
4.07121
 30
0.000000
  70
    32
  0
VERTEX
  8
SAPA_FOGBAND
  5
1C66
 10
58.8088
 20
4.19915
 30
0.000000
  70
    32
  0
VERTEX
  8
SAPA_FOGBAND
  5
1C67
 10
58.7653
 20
4.33091
 30
0.000000
  70
    32
  0
VERTEX
  8
SAPA_FOGBAND
  5
1C68
 10
58.7255
 20
4.46617
 30
0.000000
  70
    32
  0
VERTEX
  8
SAPA_FOGBAND
  5
1C69
 10
58.6897
 20
4.60461
 30
0.000000
  70
    32
  0
VERTEX
  8
SAPA_FOGBAND
  5
1C6A
 10
58.6579
 20
4.74589
 30
0.000000
  70
    32
  0
VERTEX
  8
SAPA_FOGBAND
  5
1C6B
 10
58.6302
 20
4.88968
 30
0.000000
  70
    32
  0
VERTEX
  8
SAPA_FOGBAND
  5
1C6C
 10
58.6067
 20
5.03562
 30
0.000000
  70
    32
  0
VERTEX
  8
SAPA_FOGBAND
  5
1C6D
 10
58.5873
 20
5.18337
 30
0.000000
  70
    32
  0
VERTEX
  8
SAPA_FOGBAND
  5
1C6E
 10
58.5722
 20
5.33257
 30
0.000000
  70
    32
  0
VERTEX
  8
SAPA_FOGBAND
  5
1C6F
 10
58.5614
 20
5.48286
 30
0.000000
  70
    32
  0
VERTEX
  8
SAPA_FOGBAND
  5
1C70
 10
58.5549
 20
5.63388
 30
0.000000
  70
    32
  0
VERTEX
  8
SAPA_FOGBAND
  5
1C71
 10
58.5527
 20
5.78527
 30
0.000000
  70
    32
  0
VERTEX
  8
SAPA_FOGBAND
  5
1C72
 10
58.5549
 20
5.93665
 30
0.000000
  70
    32
  0
VERTEX
  8
SAPA_FOGBAND
  5
1C73
 10
58.5614
 20
6.08767
 30
0.000000
  70
    32
  0
VERTEX
  8
SAPA_FOGBAND
  5
1C74
 10
58.5722
 20
6.23796
 30
0.000000
  70
    32
  0
VERTEX
  8
SAPA_FOGBAND
  5
1C75
 10
58.5873
 20
6.38717
 30
0.000000
  70
    32
  0
VERTEX
  8
SAPA_FOGBAND
  5
1C76
 10
58.6067
 20
6.53492
 30
0.000000
  70
    32
  0
VERTEX
  8
SAPA_FOGBAND
  5
1C77
 10
58.6302
 20
6.68086
 30
0.000000
  70
    32
  0
VERTEX
  8
SAPA_FOGBAND
  5
1C78
 10
58.6579
 20
6.82465
 30
0.000000
  70
    32
  0
VERTEX
  8
SAPA_FOGBAND
  5
1C79
 10
58.6897
 20
6.96593
 30
0.000000
  70
    32
  0
VERTEX
  8
SAPA_FOGBAND
  5
1C7A
 10
58.7255
 20
7.10437
 30
0.000000
  70
    32
  0
VERTEX
  8
SAPA_FOGBAND
  5
1C7B
 10
58.7653
 20
7.23963
 30
0.000000
  70
    32
  0
VERTEX
  8
SAPA_FOGBAND
  5
1C7C
 10
58.8088
 20
7.37139
 30
0.000000
  70
    32
  0
VERTEX
  8
SAPA_FOGBAND
  5
1C7D
 10
58.8561
 20
7.49933
 30
0.000000
  70
    32
  0
VERTEX
  8
SAPA_FOGBAND
  5
1C7E
 10
58.9069
 20
7.62313
 30
0.000000
  70
    32
  0
VERTEX
  8
SAPA_FOGBAND
  5
1C7F
 10
58.9613
 20
7.74251
 30
0.000000
  70
    32
  0
VERTEX
  8
SAPA_FOGBAND
  5
1C80
 10
59.0190
 20
7.85718
 30
0.000000
  70
    32
  0
VERTEX
  8
SAPA_FOGBAND
  5
1C81
 10
59.0799
 20
7.96685
 30
0.000000
  70
    32
  0
VERTEX
  8
SAPA_FOGBAND
  5
1C82
 10
59.1439
 20
8.07127
 30
0.000000
  70
    32
  0
VERTEX
  8
SAPA_FOGBAND
  5
1C83
 10
59.2108
 20
8.17018
 30
0.000000
  70
    32
  0
VERTEX
  8
SAPA_FOGBAND
  5
1C84
 10
59.2805
 20
8.26334
 30
0.000000
  70
    32
  0
VERTEX
  8
SAPA_FOGBAND
  5
1C85
 10
59.3527
 20
8.35054
 30
0.000000
  70
    32
  0
VERTEX
  8
SAPA_FOGBAND
  5
1C86
 10
59.4273
 20
8.43155
 30
0.000000
  70
    32
  0
VERTEX
  8
SAPA_FOGBAND
  5
1C87
 10
59.5042
 20
8.50619
 30
0.000000
  70
    32
  0
VERTEX
  8
SAPA_FOGBAND
  5
1C88
 10
59.5831
 20
8.57427
 30
0.000000
  70
    32
  0
VERTEX
  8
SAPA_FOGBAND
  5
1C89
 10
59.6639
 20
8.63564
 30
0.000000
  70
    32
  0
VERTEX
  8
SAPA_FOGBAND
  5
1C8A
 10
59.7463
 20
8.69014
 30
0.000000
  70
    32
  0
VERTEX
  8
SAPA_FOGBAND
  5
1C8B
 10
59.8302
 20
8.73764
 30
0.000000
  70
    32
  0
VERTEX
  8
SAPA_FOGBAND
  5
1C8C
 10
59.9153
 20
8.77803
 30
0.000000
  70
    32
  0
VERTEX
  8
SAPA_FOGBAND
  5
1C8D
 10
60.0016
 20
8.81121
 30
0.000000
  70
    32
  0
VERTEX
  8
SAPA_FOGBAND
  5
1C8E
 10
60.0886
 20
8.83710
 30
0.000000
  70
    32
  0
VERTEX
  8
SAPA_FOGBAND
  5
1C8F
 10
60.1763
 20
8.85563
 30
0.000000
  70
    32
  0
VERTEX
  8
SAPA_FOGBAND
  5
1C90
 10
60.2644
 20
8.86677
 30
0.000000
  70
    32
  0
VERTEX
  8
SAPA_FOGBAND
  5
1C91
 10
60.3527
 20
8.87049
 30
0.000000
  70
    32
  0
VERTEX
  8
SAPA_FOGBAND
  5
1C92
 10
60.4410
 20
8.86677
 30
0.000000
  70
    32
  0
VERTEX
  8
SAPA_FOGBAND
  5
1C93
 10
60.5291
 20
8.85563
 30
0.000000
  70
    32
  0
VERTEX
  8
SAPA_FOGBAND
  5
1C94
 10
60.6168
 20
8.83710
 30
0.000000
  70
    32
  0
VERTEX
  8
SAPA_FOGBAND
  5
1C95
 10
60.7039
 20
8.81121
 30
0.000000
  70
    32
  0
VERTEX
  8
SAPA_FOGBAND
  5
1C96
 10
60.7901
 20
8.77803
 30
0.000000
  70
    32
  0
VERTEX
  8
SAPA_FOGBAND
  5
1C97
 10
60.8752
 20
8.73764
 30
0.000000
  70
    32
  0
VERTEX
  8
SAPA_FOGBAND
  5
1C98
 10
60.9591
 20
8.69014
 30
0.000000
  70
    32
  0
VERTEX
  8
SAPA_FOGBAND
  5
1C99
 10
61.0415
 20
8.63564
 30
0.000000
  70
    32
  0
VERTEX
  8
SAPA_FOGBAND
  5
1C9A
 10
61.1223
 20
8.57427
 30
0.000000
  70
    32
  0
VERTEX
  8
SAPA_FOGBAND
  5
1C9B
 10
61.2012
 20
8.50619
 30
0.000000
  70
    32
  0
VERTEX
  8
SAPA_FOGBAND
  5
1C9C
 10
61.2781
 20
8.43155
 30
0.000000
  70
    32
  0
VERTEX
  8
SAPA_FOGBAND
  5
1C9D
 10
61.3527
 20
8.35054
 30
0.000000
  70
    32
  0
VERTEX
  8
SAPA_FOGBAND
  5
1C9E
 10
61.4250
 20
8.26334
 30
0.000000
  70
    32
  0
VERTEX
  8
SAPA_FOGBAND
  5
1C9F
 10
61.4946
 20
8.17018
 30
0.000000
  70
    32
  0
VERTEX
  8
SAPA_FOGBAND
  5
1CA0
 10
61.5615
 20
8.07127
 30
0.000000
  70
    32
  0
VERTEX
  8
SAPA_FOGBAND
  5
1CA1
 10
61.6255
 20
7.96685
 30
0.000000
  70
    32
  0
VERTEX
  8
SAPA_FOGBAND
  5
1CA2
 10
61.6864
 20
7.85718
 30
0.000000
  70
    32
  0
VERTEX
  8
SAPA_FOGBAND
  5
1CA3
 10
61.7441
 20
7.74251
 30
0.000000
  70
    32
  0
VERTEX
  8
SAPA_FOGBAND
  5
1CA4
 10
61.7985
 20
7.62313
 30
0.000000
  70
    32
  0
VERTEX
  8
SAPA_FOGBAND
  5
1CA5
 10
61.8494
 20
7.49933
 30
0.000000
  70
    32
  0
VERTEX
  8
SAPA_FOGBAND
  5
1CA6
 10
61.8966
 20
7.37139
 30
0.000000
  70
    32
  0
VERTEX
  8
SAPA_FOGBAND
  5
1CA7
 10
61.9402
 20
7.23963
 30
0.000000
  70
    32
  0
VERTEX
  8
SAPA_FOGBAND
  5
1CA8
 10
61.9799
 20
7.10437
 30
0.000000
  70
    32
  0
VERTEX
  8
SAPA_FOGBAND
  5
1CA9
 10
62.0157
 20
6.96593
 30
0.000000
  70
    32
  0
VERTEX
  8
SAPA_FOGBAND
  5
1CAA
 10
62.0475
 20
6.82465
 30
0.000000
  70
    32
  0
VERTEX
  8
SAPA_FOGBAND
  5
1CAB
 10
62.0752
 20
6.68086
 30
0.000000
  70
    32
  0
VERTEX
  8
SAPA_FOGBAND
  5
1CAC
 10
62.0988
 20
6.53492
 30
0.000000
  70
    32
  0
VERTEX
  8
SAPA_FOGBAND
  5
1CAD
 10
62.1181
 20
6.38717
 30
0.000000
  70
    32
  0
VERTEX
  8
SAPA_FOGBAND
  5
1CAE
 10
62.1332
 20
6.23796
 30
0.000000
  70
    32
  0
VERTEX
  8
SAPA_FOGBAND
  5
1CAF
 10
62.1440
 20
6.08767
 30
0.000000
  70
    32
  0
VERTEX
  8
SAPA_FOGBAND
  5
1CB0
 10
62.1505
 20
5.93665
 30
0.000000
  70
    32
  0
VERTEX
  8
SAPA_FOGBAND
  5
1CB1
 10
62.1527
 20
5.78527
 30
0.000000
  70
    32
  0
VERTEX
  8
SAPA_FOGBAND
  5
1CB2
 10
62.1505
 20
5.63388
 30
0.000000
  70
    32
  0
VERTEX
  8
SAPA_FOGBAND
  5
1CB3
 10
62.1440
 20
5.48286
 30
0.000000
  70
    32
  0
VERTEX
  8
SAPA_FOGBAND
  5
1CB4
 10
62.1332
 20
5.33257
 30
0.000000
  70
    32
  0
VERTEX
  8
SAPA_FOGBAND
  5
1CB5
 10
62.1181
 20
5.18337
 30
0.000000
  70
    32
  0
VERTEX
  8
SAPA_FOGBAND
  5
1CB6
 10
62.0988
 20
5.03562
 30
0.000000
  70
    32
  0
VERTEX
  8
SAPA_FOGBAND
  5
1CB7
 10
62.0752
 20
4.88968
 30
0.000000
  70
    32
  0
VERTEX
  8
SAPA_FOGBAND
  5
1CB8
 10
62.0475
 20
4.74589
 30
0.000000
  70
    32
  0
VERTEX
  8
SAPA_FOGBAND
  5
1CB9
 10
62.0157
 20
4.60461
 30
0.000000
  70
    32
  0
VERTEX
  8
SAPA_FOGBAND
  5
1CBA
 10
61.9799
 20
4.46617
 30
0.000000
  70
    32
  0
VERTEX
  8
SAPA_FOGBAND
  5
1CBB
 10
61.9402
 20
4.33091
 30
0.000000
  70
    32
  0
VERTEX
  8
SAPA_FOGBAND
  5
1CBC
 10
61.8966
 20
4.19915
 30
0.000000
  70
    32
  0
VERTEX
  8
SAPA_FOGBAND
  5
1CBD
 10
61.8494
 20
4.07121
 30
0.000000
  70
    32
  0
VERTEX
  8
SAPA_FOGBAND
  5
1CBE
 10
61.7985
 20
3.94741
 30
0.000000
  70
    32
  0
VERTEX
  8
SAPA_FOGBAND
  5
1CBF
 10
61.7441
 20
3.82803
 30
0.000000
  70
    32
  0
VERTEX
  8
SAPA_FOGBAND
  5
1CC0
 10
61.6864
 20
3.71336
 30
0.000000
  70
    32
  0
VERTEX
  8
SAPA_FOGBAND
  5
1CC1
 10
61.6255
 20
3.60369
 30
0.000000
  70
    32
  0
VERTEX
  8
SAPA_FOGBAND
  5
1CC2
 10
61.5615
 20
3.49927
 30
0.000000
  70
    32
  0
VERTEX
  8
SAPA_FOGBAND
  5
1CC3
 10
61.4946
 20
3.40036
 30
0.000000
  70
    32
  0
VERTEX
  8
SAPA_FOGBAND
  5
1CC4
 10
61.4250
 20
3.30720
 30
0.000000
  70
    32
  0
VERTEX
  8
SAPA_FOGBAND
  5
1CC5
 10
61.3527
 20
3.22000
 30
0.000000
  70
    32
  0
VERTEX
  8
SAPA_FOGBAND
  5
1CC6
 10
61.2781
 20
3.13899
 30
0.000000
  70
    32
  0
VERTEX
  8
SAPA_FOGBAND
  5
1CC7
 10
61.2012
 20
3.06435
 30
0.000000
  70
    32
  0
VERTEX
  8
SAPA_FOGBAND
  5
1CC8
 10
61.1223
 20
2.99626
 30
0.000000
  70
    32
  0
VERTEX
  8
SAPA_FOGBAND
  5
1CC9
 10
61.0415
 20
2.93490
 30
0.000000
  70
    32
  0
VERTEX
  8
SAPA_FOGBAND
  5
1CCA
 10
60.9591
 20
2.88040
 30
0.000000
  70
    32
  0
VERTEX
  8
SAPA_FOGBAND
  5
1CCB
 10
60.8752
 20
2.83290
 30
0.000000
  70
    32
  0
VERTEX
  8
SAPA_FOGBAND
  5
1CCC
 10
60.7901
 20
2.79251
 30
0.000000
  70
    32
  0
VERTEX
  8
SAPA_FOGBAND
  5
1CCD
 10
60.7039
 20
2.75933
 30
0.000000
  70
    32
  0
VERTEX
  8
SAPA_FOGBAND
  5
1CCE
 10
60.6168
 20
2.73344
 30
0.000000
  70
    32
  0
VERTEX
  8
SAPA_FOGBAND
  5
1CCF
 10
60.5291
 20
2.71491
 30
0.000000
  70
    32
  0
VERTEX
  8
SAPA_FOGBAND
  5
1CD0
 10
60.4410
 20
2.70377
 30
0.000000
  70
    32
  0
VERTEX
  8
SAPA_FOGBAND
  5
1CD1
 10
60.3527
 20
2.70005
 30
0.000000
  70
    32
  0
SEQEND
  8
SAPA_FOGBAND
  5
1CD2
  0
POLYLINE
  5
12E5
  8
SAPA_FOGBAND
 62
     2
 66
     1
 10
0.0
 20
0.0
 30
0.0
 70
     1
  0
VERTEX
  5
1BAF
  8
SAPA_FOGBAND
 62
     2
 10
55.052713942870056
 20
13.2289650675968
 30
0.0
  0
VERTEX
  5
1BB0
  8
SAPA_FOGBAND
 62
     2
 10
55.052713942870049
 20
-0.4514995817019081
 30
0.0
 42
0.427966335106886
  0
VERTEX
  5
1BB1
  8
SAPA_FOGBAND
 62
     2
 10
55.366726514229299
 20
-0.7511721494219171
 30
0.0
  0
VERTEX
  5
1BB2
  8
SAPA_FOGBAND
 62
     2
 10
63.566726514229302
 20
-0.2648722413422817
 30
0.0
 42
0.4005932428724212
  0
VERTEX
  5
1BB3
  8
SAPA_FOGBAND
 62
     2
 10
63.852713942870061
 20
0.0348003263777272
 30
0.0
  0
VERTEX
  5
1BB4
  8
SAPA_FOGBAND
 62
     2
 10
63.852713942870061
 20
1.8485004182981011
 30
0.0
  0
VERTEX
  5
1BB5
  8
SAPA_FOGBAND
 62
     2
 10
65.552713942870042
 20
1.8485004182981011
 30
0.0
 42
0.4142135623730951
  0
VERTEX
  5
1BB6
  8
SAPA_FOGBAND
 62
     2
 10
65.852713942870054
 20
2.1485004182980978
 30
0.0
  0
VERTEX
  5
1BB7
  8
SAPA_FOGBAND
 62
     2
 10
65.852713942870054
 20
9.5672811819240096
 30
0.0
 42
0.1379343940649207
  0
VERTEX
  5
1BB8
  8
SAPA_FOGBAND
 62
     2
 10
65.706137328015245
 20
10.088499490972421
 30
0.0
  0
VERTEX
  5
1BB9
  8
SAPA_FOGBAND
 62
     2
 10
58.298919090106949
 20
22.009109572822311
 30
0.0
 42
0.2613472755167645
  0
VERTEX
  5
1BBA
  8
SAPA_FOGBAND
 62
     2
 10
57.872207397534339
 20
22.248500418298111
 30
0.0
  0
VERTEX
  5
1BBB
  8
SAPA_FOGBAND
 62
     2
 10
56.877510780371132
 20
22.248500418298111
 30
0.0
 42
0.3915187749346393
  0
VERTEX
  5
1BBC
  8
SAPA_FOGBAND
 62
     2
 10
55.880559166366027
 20
21.326522718524579
 30
0.0
  0
VERTEX
  5
1BBD
  8
SAPA_FOGBAND
 62
     2
 10
55.054238135867507
 20
13.267976217710039
 30
0.0
 42
0.0195279011117891
  0
SEQEND
  5
1BBE
  8
SAPA_FOGBAND
 62
     2
  0
DIMENSION
  5
12F0
  8
SAPA_MATT
  2
*D81
 10
108.3328899039161
 20
51.991238414656991
 30
0.0
 11
108.3328899039161
 21
25.321688920634241
 31
0.0
 70
   128
 13
84.129121685193354
 23
-0.0087615853498164
 33
0.0
 14
85.829121685193741
 24
51.991238414656991
 34
0.0
 50
90.0
1001
ACAD
1000
DSTYLE
1002
{
1070
    40
1040
1.0
1002
}
  0
DIMENSION
  5
12F1
  8
SAPA_MATT
  2
*D80
 10
86.029121685193786
 20
-35.32908570194536
 30
0.0
 11
43.029121686857138
 21
-32.82908570194536
 31
0.0
 70
     0
 13
0.0291216885204939
 23
0.4912384148053662
 33
0.0
 14
86.029121685193786
 24
22.191238414657271
 34
0.0
1001
ACAD
1000
DSTYLE
1002
{
1070
    40
1040
1.0
1002
}
  0
DIMENSION
  5
12F2
  8
SAPA_MATT
  2
*D79
 10
-20.644279152199239
 20
96.991238414769825
 30
0.0
 11
-20.64427915219926
 21
48.491238093963538
 31
0.0
 70
   128
 13
0.5291216884925271
 23
-0.0087615851946339
 33
0.0
 14
0.3291216885994945
 24
96.991238414769825
 34
0.0
 50
90.0
1001
ACAD
1000
DSTYLE
1002
{
1070
    40
1040
1.0
1002
}
  0
DIMENSION
  5
12F3
  8
SAPA_MATT
  2
*D82
 10
249.82969213289249
 20
150.25452761490931
 30
0.0
 11
129.82969213289249
 21
152.75452761490931
 31
0.0
 70
     0
  1
237-242
 13
9.8296921328924896
 23
131.99271459872941
 33
0.0
 14
249.82969213289249
 24
131.99271459872941
 34
0.0
1001
ACAD
1000
DSTYLE
1002
{
1070
    40
1040
1.0
1002
}
  0
VIEWPORT
  5
C4
 67
     1
  8
0
 10
160.5543545598442
 20
116.00969601843509
 30
0.0
 40
404.96977709277462
 41
256.8421457311839
 68
     1
 69
     1
1001
ACAD
1000
MVIEW
1002
{
1070
    16
1010
0.0
1020
0.0
1030
0.0
1010
0.0
1020
0.0
1030
1.0
1040
-1.5707963267948959
1040
256.8421457311839
1040
104.2062515318394
1040
-147.70624390244481
1040
50.0
1040
0.0
1040
0.0
1070
     0
1070
     0
1070
     1
1070
     1
1070
     0
1070
     0
1070
     0
1070
     0
1040
0.0
1040
0.0
1040
0.0
1040
10.0
1040
10.0
1040
10.0
1040
10.0
1070
     0
1002
{
1002
}
1002
}
  0
ENDSEC
  0
EOF
