  0
SECTION
  2
HEADER
  9
$ACADVER
  1
AC1009
  9
$INSBASE
 10
0.0
 20
0.0
 30
0.0
  9
$EXTMIN
 10
-38.500568000652102
 20
-23.226071609508729
 30
0.0
  9
$EXTMAX
 10
153.49943199943061
 20
236.55858215299151
 30
0.0
  9
$LIMMIN
 10
0.0
 20
0.0
  9
$LIMMAX
 10
790.0
 20
790.0
  9
$ORTHOMODE
 70
     0
  9
$REGENMODE
 70
     1
  9
$FILLMODE
 70
     1
  9
$QTEXTMODE
 70
     0
  9
$MIRRTEXT
 70
     1
  9
$DRAGMODE
 70
     2
  9
$LTSCALE
 40
4.0
  9
$OSMODE
 70
   167
  9
$ATTMODE
 70
     1
  9
$TEXTSIZE
 40
3.5
  9
$TRACEWID
 40
0.05
  9
$TEXTSTYLE
  7
ISO
  9
$CLAYER
  8
0
  9
$CELTYPE
  6
BYLAYER
  9
$CECOLOR
 62
   256
  9
$DIMSCALE
 40
0.0
  9
$DIMASZ
 40
3.0
  9
$DIMEXO
 40
1.5
  9
$DIMDLI
 40
10.0
  9
$DIMRND
 40
0.0
  9
$DIMDLE
 40
0.0
  9
$DIMEXE
 40
1.5
  9
$DIMTP
 40
0.0
  9
$DIMTM
 40
0.0
  9
$DIMTXT
 40
3.0
  9
$DIMCEN
 40
-5.0
  9
$DIMTSZ
 40
0.0
  9
$DIMTOL
 70
     0
  9
$DIMLIM
 70
     0
  9
$DIMTIH
 70
     0
  9
$DIMTOH
 70
     0
  9
$DIMSE1
 70
     0
  9
$DIMSE2
 70
     0
  9
$DIMTAD
 70
     1
  9
$DIMZIN
 70
     8
  9
$DIMBLK
  1

  9
$DIMASO
 70
     1
  9
$DIMSHO
 70
     1
  9
$DIMPOST
  1

  9
$DIMAPOST
  1

  9
$DIMALT
 70
     0
  9
$DIMALTD
 70
     0
  9
$DIMALTF
 40
25.399999999999999
  9
$DIMLFAC
 40
-1.0
  9
$DIMTOFL
 70
     1
  9
$DIMTVP
 40
0.0
  9
$DIMTIX
 70
     0
  9
$DIMSOXD
 70
     0
  9
$DIMSAH
 70
     0
  9
$DIMBLK1
  1

  9
$DIMBLK2
  1

  9
$DIMSTYLE
  2
MASKIN
  9
$DIMCLRD
 70
   256
  9
$DIMCLRE
 70
   256
  9
$DIMCLRT
 70
     2
  9
$DIMTFAC
 40
1.0
  9
$DIMGAP
 40
1.0
  9
$LUNITS
 70
     2
  9
$LUPREC
 70
     8
  9
$SKETCHINC
 40
0.1
  9
$FILLETRAD
 40
0.0
  9
$AUNITS
 70
     0
  9
$AUPREC
 70
     8
  9
$MENU
  1
ACAD
  9
$ELEVATION
 40
0.0
  9
$PELEVATION
 40
0.0
  9
$THICKNESS
 40
0.0
  9
$LIMCHECK
 70
     0
  9
$BLIPMODE
 70
     0
  9
$CHAMFERA
 40
0.0
  9
$CHAMFERB
 40
0.0
  9
$SKPOLY
 70
     0
  9
$TDCREATE
 40
2457480.3216174422
  9
$TDUPDATE
 40
2457742.6918769791
  9
$TDINDWG
 40
0.1975052778
  9
$TDUSRTIMER
 40
0.1975052778
  9
$USRTIMER
 70
     1
  9
$ANGBASE
 50
0.0
  9
$ANGDIR
 70
     0
  9
$PDMODE
 70
     0
  9
$PDSIZE
 40
0.0
  9
$PLINEWID
 40
0.0
  9
$COORDS
 70
     1
  9
$SPLFRAME
 70
     0
  9
$SPLINETYPE
 70
     6
  9
$SPLINESEGS
 70
     8
  9
$ATTDIA
 70
     1
  9
$ATTREQ
 70
     1
  9
$HANDLING
 70
     1
  9
$HANDSEED
  5
1908
  9
$SURFTAB1
 70
     6
  9
$SURFTAB2
 70
     6
  9
$SURFTYPE
 70
     6
  9
$SURFU
 70
     6
  9
$SURFV
 70
     6
  9
$UCSNAME
  2

  9
$UCSORG
 10
0.0
 20
0.0
 30
0.0
  9
$UCSXDIR
 10
1.0
 20
0.0
 30
0.0
  9
$UCSYDIR
 10
0.0
 20
1.0
 30
0.0
  9
$PUCSNAME
  2

  9
$PUCSORG
 10
0.0
 20
0.0
 30
0.0
  9
$PUCSXDIR
 10
1.0
 20
0.0
 30
0.0
  9
$PUCSYDIR
 10
0.0
 20
1.0
 30
0.0
  9
$USERI1
 70
     0
  9
$USERI2
 70
     0
  9
$USERI3
 70
     0
  9
$USERI4
 70
     0
  9
$USERI5
 70
     0
  9
$USERR1
 40
0.0
  9
$USERR2
 40
0.0
  9
$USERR3
 40
0.0
  9
$USERR4
 40
0.0
  9
$USERR5
 40
0.0
  9
$WORLDVIEW
 70
     1
  9
$SHADEDGE
 70
     3
  9
$SHADEDIF
 70
    70
  9
$TILEMODE
 70
     1
  9
$MAXACTVP
 70
    16
  9
$PLIMCHECK
 70
     0
  9
$PEXTMIN
 10
1.0000000000000000E+020
 20
1.0000000000000000E+020
 30
1.0000000000000000E+020
  9
$PEXTMAX
 10
-1.0000000000000000E+020
 20
-1.0000000000000000E+020
 30
-1.0000000000000000E+020
  9
$PLIMMIN
 10
-5.069427490234375
 20
-5.8737497329711914
  9
$PLIMMAX
 10
291.89889526367187
 20
204.0995779037475
  9
$UNITMODE
 70
     0
  9
$VISRETAIN
 70
     1
  9
$PLINEGEN
 70
     0
  9
$PSLTSCALE
 70
     1
  0
ENDSEC
  0
SECTION
  2
TABLES
  0
TABLE
  2
VPORT
 70
     1
  0
VPORT
  2
*ACTIVE
 70
     0
 10
0.0
 20
0.0
 11
1.0
 21
1.0
 12
57.508004500910033
 22
308.56908775836382
 13
0.0
 23
0.0
 14
1.0
 24
1.0
 15
0.0
 25
0.0
 16
0.0
 26
0.0
 36
1.0
 17
0.0
 27
0.0
 37
0.0
 40
388.93009542749348
 41
1.6070763500931089
 42
50.0
 43
0.0
 44
0.0
 50
0.0
 51
0.0
 71
     0
 72
   100
 73
     1
 74
     1
 75
     0
 76
     0
 77
     0
 78
     0
  0
ENDTAB
  0
TABLE
  2
LTYPE
 70
    21
  0
LTYPE
  2
CONTINUOUS
 70
     0
  3
Solid line
 72
    65
 73
     0
 40
0.0
  0
LTYPE
  2
BYGG-020132$0$NEWDOT
 70
     0
  3
____ . ____ . ____ . ____ . ____ . ____ . ____
 72
    65
 73
     4
 40
2.0
 49
1.0
 49
-0.5
 49
0.0
 49
-0.5
  0
LTYPE
  2
BYGG-020132$0$DASHDOT
 70
     0
  3
__ . __ . __ . __ . __ . __ . __ . __ . __ . __
 72
    65
 73
     4
 40
1.0
 49
0.5
 49
-0.25
 49
0.0
 49
-0.25
  0
LTYPE
  2
BYGG-024882$0$NEWDOT
 70
     0
  3
____ . ____ . ____ . ____ . ____ . ____ . ____
 72
    65
 73
     4
 40
2.0
 49
1.0
 49
-0.5
 49
0.0
 49
-0.5
  0
LTYPE
  2
BYGG-035273$0$NEWDOT
 70
     0
  3
____ . ____ . ____ . ____ . ____ . ____ . ____
 72
    65
 73
     4
 40
2.0
 49
1.0
 49
-0.5
 49
0.0
 49
-0.5
  0
LTYPE
  2
BYGG-035273$0$DASHDOT
 70
     0
  3
__ . __ . __ . __ . __ . __ . __ . __ . __ . __
 72
    65
 73
     4
 40
1.0
 49
0.5
 49
-0.25
 49
0.0
 49
-0.25
  0
LTYPE
  2
BYGG-035273$0$DASHED
 70
     0
  3
__ __ __ __ __ __ __ __ __ __ __ __ __ __ __
 72
    65
 73
     2
 40
0.75
 49
0.5
 49
-0.25
  0
LTYPE
  2
BYGG-035273$0$PHANTOM
 70
     0
  3
Phantom ______  __  __  ______  __  __  ______
 72
    65
 73
     6
 40
63.5
 49
31.75
 49
-6.3499999999999988
 49
6.3499999999999988
 49
-6.3499999999999988
 49
6.3499999999999988
 49
-6.3499999999999988
  0
LTYPE
  2
BYGG-025652$0$NEWDOT
 70
     0
  3
____ . ____ . ____ . ____ . ____ . ____ . ____
 72
    65
 73
     4
 40
2.0
 49
1.0
 49
-0.5
 49
0.0
 49
-0.5
  0
LTYPE
  2
BYGG-025652$0$DASHDOT
 70
     0
  3
__ . __ . __ . __ . __ . __ . __ . __ . __ . __
 72
    65
 73
     4
 40
1.0
 49
0.5
 49
-0.25
 49
0.0
 49
-0.25
  0
LTYPE
  2
BYGG-025652$0$DASHED
 70
     0
  3
__ __ __ __ __ __ __ __ __ __ __ __ __ __ __
 72
    65
 73
     2
 40
0.75
 49
0.5
 49
-0.25
  0
LTYPE
  2
BYGG-025652$0$PHANTOM
 70
     0
  3
Phantom ______  __  __  ______  __  __  ______
 72
    65
 73
     6
 40
63.5
 49
31.75
 49
-6.3499999999999988
 49
6.3499999999999988
 49
-6.3499999999999988
 49
6.3499999999999988
 49
-6.3499999999999988
  0
LTYPE
  2
BYGG-014411$0$NEWDOT
 70
     0
  3
____ . ____ . ____ . ____ . ____ . ____ . ____
 72
    65
 73
     4
 40
2.0
 49
1.0
 49
-0.5
 49
0.0
 49
-0.5
  0
LTYPE
  2
BYGG-014411$0$ZIGZAG
 70
     0
  3
Zig zag /\/\/\/\/\/\/\/\/\/\/\/\/\/\/\/\/\/\/\/\/\/\/\/
 72
    65
 73
     4
 40
20.32254
 49
0.00254
 49
-5.0800000000000001
 49
-10.16
 49
-5.0800000000000001
  0
LTYPE
  2
BYGG-036381$0$NEWDOT
 70
     0
  3
____ . ____ . ____ . ____ . ____ . ____ . ____
 72
    65
 73
     4
 40
2.0
 49
1.0
 49
-0.5
 49
0.0
 49
-0.5
  0
LTYPE
  2
BYGG-036381$0$ZIGZAG
 70
     0
  3
Zig zag /\/\/\/\/\/\/\/\/\/\/\/\/\/\/\/\/\/\/\/\/\/\/\/
 72
    65
 73
     4
 40
20.32254
 49
0.00254
 49
-5.0800000000000001
 49
-10.16
 49
-5.0800000000000001
  0
LTYPE
  2
BYGG-024882$0$DASHDOT
 70
     0
  3
__ . __ . __ . __ . __ . __ . __ . __ . __ . __
 72
    65
 73
     4
 40
1.0
 49
0.5
 49
-0.25
 49
0.0
 49
-0.25
  0
LTYPE
  2
BYGG-014090$0$PHANTOM2
 70
     0
  3
Phantom (.5x) ___ _ _ ___ _ _ ___ _ _ ___ _ _
 72
    65
 73
     6
 40
1.25
 49
0.625
 49
-0.125
 49
0.125
 49
-0.125
 49
0.125
 49
-0.125
  0
LTYPE
  2
BYGG-025652$0$PHANTOM2
 70
     0
  3
Phantom (.5x) ___ _ _ ___ _ _ ___ _ _ ___ _ _
 72
    65
 73
     6
 40
1.25
 49
0.625
 49
-0.125
 49
0.125
 49
-0.125
 49
0.125
 49
-0.125
  0
LTYPE
  2
BYGG-014411$0$PHANTOM2
 70
     0
  3
Phantom (.5x) ___ _ _ ___ _ _ ___ _ _ ___ _ _
 72
    65
 73
     6
 40
1.25
 49
0.625
 49
-0.125
 49
0.125
 49
-0.125
 49
0.125
 49
-0.125
  0
LTYPE
  2
BYGG-014088$0$PHANTOM2
 70
     0
  3
Phantom (.5x) ___ _ _ ___ _ _ ___ _ _ ___ _ _
 72
    65
 73
     6
 40
1.25
 49
0.625
 49
-0.125
 49
0.125
 49
-0.125
 49
0.125
 49
-0.125
  0
ENDTAB
  0
TABLE
  2
LAYER
 70
   118
  0
LAYER
  2
0
 70
     0
 62
     7
  6
CONTINUOUS
  0
LAYER
  2
DEFPOINTS
 70
     0
 62
     7
  6
CONTINUOUS
  0
LAYER
  2
SAPA_ANSLUTNING
 70
     0
 62
     6
  6
CONTINUOUS
  0
LAYER
  2
SAPA_ARTIKELNR
 70
     0
 62
     4
  6
CONTINUOUS
  0
LAYER
  2
SAPA_FYLLNING
 70
     0
 62
     4
  6
CONTINUOUS
  0
LAYER
  2
SAPA_MATT
 70
     0
 62
     1
  6
CONTINUOUS
  0
LAYER
  2
SAPA_GLAS
 70
     0
 62
     4
  6
CONTINUOUS
  0
LAYER
  2
SAPA_FOGBAND
 70
     0
 62
     2
  6
CONTINUOUS
  0
LAYER
  2
SAPA_PROFIL
 70
     0
 62
     7
  6
CONTINUOUS
  0
ENDTAB
  0
TABLE
  2
STYLE
 70
    27
  0
STYLE
  2
STANDARD
 70
     0
 40
0.0
 41
1.0
 50
0.0
 71
     0
 42
0.2
  3
txt
  4

  0
STYLE
  2
ISO
 70
     0
 40
0.0
 41
1.0
 50
0.0
 71
     0
 42
3.5
  3
txt
  4

  0
STYLE
  2

 70
     1
 40
0.0
 41
1.0
 50
0.0
 71
     0
 42
0.2
  3
ltypeshp.shx
  4

  0
STYLE
  2
BYGG-015465$0$STANDARD
 70
     0
 40
0.0
 41
1.0
 50
0.0
 71
     0
 42
0.2
  3
txt
  4

  0
STYLE
  2
BYGG-015465$0$ISO
 70
     0
 40
0.0
 41
1.0
 50
0.0
 71
     0
 42
3.5
  3
txt
  4

  0
STYLE
  2
BYGG-01443301$0$STANDARD
 70
     0
 40
0.0
 41
1.0
 50
0.0
 71
     0
 42
0.2
  3
txt
  4

  0
STYLE
  2
BYGG-01443301$0$ISO
 70
     0
 40
0.0
 41
1.0
 50
0.0
 71
     0
 42
3.5
  3
isocp3.shx
  4

  0
STYLE
  2
BYGG-035273$0$STANDARD
 70
     0
 40
0.0
 41
1.0
 50
0.0
 71
     0
 42
0.2
  3
txt
  4

  0
STYLE
  2
BYGG-035273$0$ISO
 70
     0
 40
0.0
 41
1.0
 50
0.0
 71
     0
 42
3.5
  3
txt
  4

  0
STYLE
  2
BYGG-028980$0$STANDARD
 70
     0
 40
0.0
 41
1.0
 50
0.0
 71
     0
 42
0.2
  3
txt
  4

  0
STYLE
  2
BYGG-028980$0$ISO
 70
     0
 40
0.0
 41
1.0
 50
0.0
 71
     0
 42
3.5
  3
txt
  4

  0
STYLE
  2
BYGG-024882$0$STANDARD
 70
     0
 40
0.0
 41
1.0
 50
0.0
 71
     0
 42
0.2
  3
txt
  4

  0
STYLE
  2
BYGG-024882$0$ISO
 70
     0
 40
0.0
 41
1.0
 50
0.0
 71
     0
 42
3.5
  3
txt
  4

  0
STYLE
  2
BYGG-020132$0$STANDARD
 70
     0
 40
0.0
 41
1.0
 50
0.0
 71
     0
 42
0.2
  3
txt
  4

  0
STYLE
  2
BYGG-020132$0$ISO
 70
     0
 40
0.0
 41
1.0
 50
0.0
 71
     0
 42
3.5
  3
txt
  4

  0
STYLE
  2
BYGG-014090$0$STANDARD
 70
     0
 40
0.0
 41
1.0
 50
0.0
 71
     0
 42
0.2
  3
txt
  4

  0
STYLE
  2
BYGG-014090$0$SIMPLEX
 70
     0
 40
0.0
 41
1.0
 50
0.0
 71
     0
 42
0.2
  3
simplex
  4

  0
STYLE
  2
BYGG-025652$0$STANDARD
 70
     0
 40
0.0
 41
1.0
 50
0.0
 71
     0
 42
0.2
  3
txt
  4

  0
STYLE
  2
BYGG-025652$0$ISO
 70
     0
 40
0.0
 41
1.0
 50
0.0
 71
     0
 42
3.5
  3
txt
  4

  0
STYLE
  2
BYGG-025652$0$ANNOTATIVE
 70
     0
 40
0.0
 41
1.0
 50
0.0
 71
     0
 42
0.2
  3
txt
  4

  0
STYLE
  2
BYGG-014411$0$STANDARD
 70
     0
 40
0.0
 41
1.0
 50
0.0
 71
     0
 42
0.2
  3
txt
  4

  0
STYLE
  2
BYGG-014411$0$ISO
 70
     0
 40
0.0
 41
1.0
 50
0.0
 71
     0
 42
3.5
  3
isocp3.shx
  4

  0
STYLE
  2
BYGG-014088$0$STANDARD
 70
     0
 40
0.0
 41
1.0
 50
0.0
 71
     0
 42
0.4
  3
txt
  4

  0
STYLE
  2
BYGG-036382$0$STANDARD
 70
     0
 40
0.0
 41
1.0
 50
0.0
 71
     0
 42
0.2
  3
txt
  4

  0
STYLE
  2
BYGG-036382$0$ISO
 70
     0
 40
0.0
 41
1.0
 50
0.0
 71
     0
 42
3.5
  3
txt
  4

  0
STYLE
  2
BYGG-036381$0$STANDARD
 70
     0
 40
0.0
 41
1.0
 50
0.0
 71
     0
 42
0.2
  3
txt
  4

  0
STYLE
  2
BYGG-036381$0$ISO
 70
     0
 40
0.0
 41
1.0
 50
0.0
 71
     0
 42
3.5
  3
txt
  4

  0
ENDTAB
  0
TABLE
  2
VIEW
 70
     0
  0
ENDTAB
  0
TABLE
  2
UCS
 70
     0
  0
ENDTAB
  0
TABLE
  2
APPID
 70
    24
  0
APPID
  2
ACAD
 70
     0
  0
APPID
  2
ACAD_DSTYLE_DIMTEXT_FILL
 70
     0
  0
APPID
  2
ACAD_DSTYLE_DIMEXT_LENGTH
 70
     0
  0
APPID
  2
ACAD_DSTYLE_DIMEXT_ENABLED
 70
     0
  0
APPID
  2
ACAD_DSTYLE_DIM_LINETYPE
 70
     0
  0
APPID
  2
ACAD_DSTYLE_DIM_EXT1_LINETYPE
 70
     0
  0
APPID
  2
ACAD_DSTYLE_DIM_EXT2_LINETYPE
 70
     0
  0
APPID
  2
ACAD_DSTYLE_DIMJOGGED_JOGA
 70
     0
  0
APPID
  2
ACAD_DSTYLE_DIMARC_LENGTH_
 70
     0
  0
APPID
  2
ACAD_PSEXT
 70
     0
  0
APPID
  2
ACAD_MLEADERVER
 70
     0
  0
APPID
  2
ACAD_NAV_VCDISPLAY
 70
     0
  0
APPID
  2
ACAECLAYERSTANDARD
 70
     0
  0
APPID
  2
ACAD_DSTYLE_DIMJAG
 70
     0
  0
APPID
  2
ACAD_DSTYLE_DIMTALN
 70
     0
  0
APPID
  2
ACAD_EXEMPT_FROM_CAD_STANDARDS
 70
     0
  0
APPID
  2
ACDBDYNAMICBLOCKGUID
 70
     0
  0
APPID
  2
ACDBBLOCKREPETAG
 70
     0
  0
APPID
  2
ACADANNOTATIVE
 70
     0
  0
APPID
  2
AMG_ARCHIVE11
 70
     0
  0
APPID
  2
ACAD_DSTYLE_DIMRADIAL_EXTENSION
 70
     0
  0
APPID
  2
ACAD_OBJECT_CHANGE_GUID
 70
     0
  0
APPID
  2
ACCMTRANSPARENCY
 70
     0
  0
APPID
  2
ACADANNOMONITORALERTICONDI
 70
     0
  0
ENDTAB
  0
TABLE
  2
DIMSTYLE
 70
    24
  0
DIMSTYLE
  2
STANDARD
 70
     0
  3

  4

  5

  6

  7

 40
1.0
 41
0.18
 42
0.0625
 43
0.38
 44
0.18
 45
0.0
 46
0.0
 47
0.0
 48
0.0
140
0.18
141
0.09
142
0.0
143
25.399999999999999
144
1.0
145
0.0
146
1.0
147
0.09
 71
     0
 72
     0
 73
     1
 74
     1
 75
     0
 76
     0
 77
     0
 78
     0
170
     0
171
     2
172
     0
173
     0
174
     0
175
     0
176
     0
177
     0
178
     0
  0
DIMSTYLE
  2
MASKIN
 70
     0
  3

  4

  5

  6

  7

 40
0.0
 41
3.0
 42
1.5
 43
10.0
 44
1.5
 45
0.0
 46
0.0
 47
0.0
 48
0.0
140
3.0
141
-5.0
142
0.0
143
25.399999999999999
144
-1.0
145
0.0
146
1.0
147
1.0
 71
     0
 72
     0
 73
     0
 74
     0
 75
     0
 76
     0
 77
     1
 78
     8
170
     0
171
     0
172
     1
173
     0
174
     0
175
     0
176
   256
177
   256
178
     2
  0
DIMSTYLE
  2
BYGG-015465$0$STANDARD
 70
     0
  3

  4

  5

  6

  7

 40
1.0
 41
0.18
 42
0.0625
 43
0.38
 44
0.18
 45
0.0
 46
0.0
 47
0.0
 48
0.0
140
0.18
141
0.09
142
0.0
143
25.399999999999999
144
1.0
145
0.0
146
1.0
147
0.09
 71
     0
 72
     0
 73
     1
 74
     1
 75
     0
 76
     0
 77
     0
 78
     0
170
     0
171
     2
172
     0
173
     0
174
     0
175
     0
176
     0
177
     0
178
     0
  0
DIMSTYLE
  2
BYGG-015465$0$MASKIN
 70
     0
  3

  4

  5

  6

  7

 40
0.0
 41
3.0
 42
1.5
 43
10.0
 44
1.5
 45
0.0
 46
0.0
 47
0.0
 48
0.0
140
3.0
141
-5.0
142
0.0
143
25.399999999999999
144
-1.0
145
0.0
146
1.0
147
1.0
 71
     0
 72
     0
 73
     0
 74
     0
 75
     0
 76
     0
 77
     1
 78
     8
170
     0
171
     0
172
     1
173
     0
174
     0
175
     0
176
   256
177
   256
178
     2
  0
DIMSTYLE
  2
BYGG-01443301$0$MASKIN
 70
     0
  3

  4

  5

  6

  7

 40
0.0
 41
3.0
 42
1.5
 43
10.0
 44
1.5
 45
0.0
 46
0.0
 47
0.0
 48
0.0
140
3.0
141
-5.0
142
0.0
143
25.399999999999999
144
-1.0
145
0.0
146
1.0
147
1.0
 71
     0
 72
     0
 73
     0
 74
     0
 75
     0
 76
     0
 77
     1
 78
     8
170
     0
171
     0
172
     1
173
     0
174
     0
175
     0
176
   256
177
   256
178
   256
  0
DIMSTYLE
  2
BYGG-035273$0$STANDARD
 70
     0
  3

  4

  5

  6

  7

 40
1.0
 41
0.18
 42
0.0625
 43
0.38
 44
0.18
 45
0.0
 46
0.0
 47
0.0
 48
0.0
140
0.18
141
0.09
142
0.0
143
25.399999999999999
144
1.0
145
0.0
146
1.0
147
0.09
 71
     0
 72
     0
 73
     1
 74
     1
 75
     0
 76
     0
 77
     0
 78
     0
170
     0
171
     2
172
     0
173
     0
174
     0
175
     0
176
     0
177
     0
178
     0
  0
DIMSTYLE
  2
BYGG-035273$0$MASKIN
 70
     0
  3

  4

  5

  6

  7

 40
0.0
 41
3.0
 42
1.5
 43
10.0
 44
1.5
 45
0.0
 46
0.0
 47
0.0
 48
0.0
140
3.0
141
-5.0
142
0.0
143
25.399999999999999
144
-1.0
145
0.0
146
1.0
147
1.0
 71
     0
 72
     0
 73
     0
 74
     0
 75
     0
 76
     0
 77
     1
 78
     8
170
     0
171
     0
172
     1
173
     0
174
     0
175
     0
176
   256
177
   256
178
     2
  0
DIMSTYLE
  2
BYGG-028980$0$STANDARD
 70
     0
  3

  4

  5

  6

  7

 40
1.0
 41
0.18
 42
0.0625
 43
0.38
 44
0.18
 45
0.0
 46
0.0
 47
0.0
 48
0.0
140
0.18
141
0.09
142
0.0
143
25.399999999999999
144
1.0
145
0.0
146
1.0
147
0.09
 71
     0
 72
     0
 73
     1
 74
     1
 75
     0
 76
     0
 77
     0
 78
     0
170
     0
171
     2
172
     0
173
     0
174
     0
175
     0
176
     0
177
     0
178
     0
  0
DIMSTYLE
  2
BYGG-028980$0$MASKIN
 70
     0
  3

  4

  5

  6

  7

 40
0.0
 41
3.0
 42
1.5
 43
10.0
 44
1.5
 45
0.0
 46
0.0
 47
0.0
 48
0.0
140
3.0
141
-5.0
142
0.0
143
25.399999999999999
144
-1.0
145
0.0
146
1.0
147
1.0
 71
     0
 72
     0
 73
     0
 74
     0
 75
     0
 76
     0
 77
     1
 78
     8
170
     0
171
     0
172
     1
173
     0
174
     0
175
     0
176
   256
177
   256
178
     2
  0
DIMSTYLE
  2
BYGG-024882$0$STANDARD
 70
     0
  3

  4

  5

  6

  7

 40
1.0
 41
0.18
 42
0.0625
 43
0.38
 44
0.18
 45
0.0
 46
0.0
 47
0.0
 48
0.0
140
0.18
141
0.09
142
0.0
143
25.399999999999999
144
1.0
145
0.0
146
1.0
147
0.09
 71
     0
 72
     0
 73
     1
 74
     1
 75
     0
 76
     0
 77
     0
 78
     0
170
     0
171
     2
172
     0
173
     0
174
     0
175
     0
176
     0
177
     0
178
     0
  0
DIMSTYLE
  2
BYGG-024882$0$MASKIN
 70
     0
  3

  4

  5

  6

  7

 40
0.0
 41
3.0
 42
1.5
 43
10.0
 44
1.5
 45
0.0
 46
0.0
 47
0.0
 48
0.0
140
3.0
141
-5.0
142
0.0
143
25.399999999999999
144
-1.0
145
0.0
146
1.0
147
1.0
 71
     0
 72
     0
 73
     0
 74
     0
 75
     0
 76
     0
 77
     1
 78
     8
170
     0
171
     0
172
     1
173
     0
174
     0
175
     0
176
   256
177
   256
178
     2
  0
DIMSTYLE
  2
BYGG-020132$0$MASKIN
 70
     0
  3

  4

  5

  6

  7

 40
0.0
 41
3.0
 42
1.5
 43
10.0
 44
1.5
 45
0.0
 46
0.0
 47
0.0
 48
0.0
140
3.0
141
-5.0
142
0.0
143
25.399999999999999
144
-1.0
145
0.0
146
1.0
147
1.0
 71
     0
 72
     0
 73
     0
 74
     0
 75
     0
 76
     0
 77
     1
 78
     8
170
     0
171
     0
172
     1
173
     0
174
     0
175
     0
176
   256
177
   256
178
     2
  0
DIMSTYLE
  2
BYGG-020132$0$STANDARD
 70
     0
  3

  4

  5

  6

  7

 40
1.0
 41
0.18
 42
0.0625
 43
0.38
 44
0.18
 45
0.0
 46
0.0
 47
0.0
 48
0.0
140
0.18
141
0.09
142
0.0
143
25.399999999999999
144
1.0
145
0.0
146
1.0
147
0.09
 71
     0
 72
     0
 73
     1
 74
     1
 75
     0
 76
     0
 77
     0
 78
     0
170
     0
171
     2
172
     0
173
     0
174
     0
175
     0
176
     0
177
     0
178
     0
  0
DIMSTYLE
  2
BYGG-014090$0$STANDARD
 70
     0
  3

  4

  5

  6

  7

 40
1.0
 41
0.18
 42
0.0625
 43
0.38
 44
0.18
 45
0.0
 46
0.0
 47
0.0
 48
0.0
140
0.18
141
0.09
142
0.0
143
25.399999999999999
144
1.0
145
0.0
146
1.0
147
0.09
 71
     0
 72
     0
 73
     1
 74
     1
 75
     0
 76
     0
 77
     0
 78
     0
170
     0
171
     2
172
     0
173
     0
174
     0
175
     0
176
     0
177
     0
178
     0
  0
DIMSTYLE
  2
BYGG-025652$0$STANDARD
 70
     0
  3

  4

  5

  6

  7

 40
1.0
 41
0.18
 42
0.0625
 43
0.38
 44
0.18
 45
0.0
 46
0.0
 47
0.0
 48
0.0
140
0.18
141
0.09
142
0.0
143
25.399999999999999
144
1.0
145
0.0
146
1.0
147
0.09
 71
     0
 72
     0
 73
     1
 74
     1
 75
     0
 76
     0
 77
     0
 78
     0
170
     0
171
     2
172
     0
173
     0
174
     0
175
     0
176
     0
177
     0
178
     0
  0
DIMSTYLE
  2
BYGG-025652$0$MASKIN
 70
     0
  3

  4

  5

  6

  7

 40
0.0
 41
3.0
 42
1.5
 43
10.0
 44
1.5
 45
0.0
 46
0.0
 47
0.0
 48
0.0
140
3.0
141
-5.0
142
0.0
143
25.399999999999999
144
-1.0
145
0.0
146
1.0
147
1.0
 71
     0
 72
     0
 73
     0
 74
     0
 75
     0
 76
     0
 77
     1
 78
     8
170
     0
171
     0
172
     1
173
     0
174
     0
175
     0
176
   256
177
   256
178
     2
  0
DIMSTYLE
  2
BYGG-025652$0$ANNOTATIVE
 70
     0
  3

  4

  5

  6

  7

 40
1.0
 41
0.18
 42
0.0625
 43
0.38
 44
0.18
 45
0.0
 46
0.0
 47
0.0
 48
0.0
140
0.18
141
0.09
142
0.0
143
25.399999999999999
144
1.0
145
0.0
146
1.0
147
0.09
 71
     0
 72
     0
 73
     1
 74
     1
 75
     0
 76
     0
 77
     0
 78
     0
170
     0
171
     2
172
     0
173
     0
174
     0
175
     0
176
     0
177
     0
178
     0
  0
DIMSTYLE
  2
BYGG-014411$0$MASKIN
 70
     0
  3

  4

  5

  6

  7

 40
0.0
 41
3.0
 42
1.5
 43
10.0
 44
1.5
 45
0.0
 46
0.0
 47
0.0
 48
0.0
140
3.0
141
-5.0
142
0.0
143
25.399999999999999
144
-1.0
145
0.0
146
1.0
147
1.0
 71
     0
 72
     0
 73
     0
 74
     0
 75
     0
 76
     0
 77
     1
 78
     8
170
     0
171
     0
172
     1
173
     0
174
     0
175
     0
176
   256
177
   256
178
   256
  0
DIMSTYLE
  2
BYGG-014411$0$STANDARD
 70
     0
  3

  4

  5

  6

  7

 40
1.0
 41
0.18
 42
0.0625
 43
0.38
 44
0.18
 45
0.0
 46
0.0
 47
0.0
 48
0.0
140
0.18
141
0.09
142
0.0
143
25.399999999999999
144
1.0
145
0.0
146
1.0
147
0.09
 71
     0
 72
     0
 73
     1
 74
     1
 75
     0
 76
     0
 77
     0
 78
     0
170
     0
171
     2
172
     0
173
     0
174
     0
175
     0
176
     0
177
     0
178
     0
  0
DIMSTYLE
  2
BYGG-014088$0$STANDARD
 70
     0
  3

  4

  5

  6

  7

 40
1.0
 41
0.18
 42
0.0625
 43
0.38
 44
0.18
 45
0.0
 46
0.0
 47
0.0
 48
0.0
140
0.18
141
0.09
142
0.0
143
25.399999999999999
144
1.0
145
0.0
146
1.0
147
0.09
 71
     0
 72
     0
 73
     1
 74
     1
 75
     0
 76
     0
 77
     0
 78
     0
170
     0
171
     2
172
     0
173
     0
174
     0
175
     0
176
     0
177
     0
178
     0
  0
DIMSTYLE
  2
BYGG-036382$0$STANDARD
 70
     0
  3

  4

  5

  6

  7

 40
1.0
 41
0.18
 42
0.0625
 43
0.38
 44
0.18
 45
0.0
 46
0.0
 47
0.0
 48
0.0
140
0.18
141
0.09
142
0.0
143
25.399999999999999
144
1.0
145
0.0
146
1.0
147
0.09
 71
     0
 72
     0
 73
     1
 74
     1
 75
     0
 76
     0
 77
     0
 78
     0
170
     0
171
     2
172
     0
173
     0
174
     0
175
     0
176
     0
177
     0
178
     0
  0
DIMSTYLE
  2
BYGG-036382$0$MASKIN
 70
     0
  3

  4

  5

  6

  7

 40
0.0
 41
3.0
 42
1.5
 43
10.0
 44
1.5
 45
0.0
 46
0.0
 47
0.0
 48
0.0
140
3.0
141
-5.0
142
0.0
143
25.399999999999999
144
-1.0
145
0.0
146
1.0
147
1.0
 71
     0
 72
     0
 73
     0
 74
     0
 75
     0
 76
     0
 77
     1
 78
     8
170
     0
171
     0
172
     1
173
     0
174
     0
175
     0
176
   256
177
   256
178
     2
  0
DIMSTYLE
  2
BYGG-036381$0$STANDARD
 70
     0
  3

  4

  5

  6

  7

 40
1.0
 41
0.18
 42
0.0625
 43
0.38
 44
0.18
 45
0.0
 46
0.0
 47
0.0
 48
0.0
140
0.18
141
0.09
142
0.0
143
25.399999999999999
144
1.0
145
0.0
146
1.0
147
0.09
 71
     0
 72
     0
 73
     1
 74
     1
 75
     0
 76
     0
 77
     0
 78
     0
170
     0
171
     2
172
     0
173
     0
174
     0
175
     0
176
     0
177
     0
178
     0
  0
DIMSTYLE
  2
BYGG-036381$0$MASKIN
 70
     0
  3

  4

  5

  6

  7

 40
0.0
 41
3.0
 42
1.5
 43
10.0
 44
1.5
 45
0.0
 46
0.0
 47
0.0
 48
0.0
140
3.0
141
-5.0
142
0.0
143
25.399999999999999
144
-1.0
145
0.0
146
1.0
147
1.0
 71
     0
 72
     0
 73
     0
 74
     0
 75
     0
 76
     0
 77
     1
 78
     8
170
     0
171
     0
172
     1
173
     0
174
     0
175
     0
176
   256
177
   256
178
     2
  0
ENDTAB
  0
ENDSEC
  0
SECTION
  2
BLOCKS
  0
BLOCK
  8
0
  2
$MODEL_SPACE
 70
     0
 10
0.0
 20
0.0
 30
0.0
  3
$MODEL_SPACE
  1

  0
ENDBLK
  5
37
  8
0
  0
BLOCK
 67
     1
  8
0
  2
$PAPER_SPACE
 70
     0
 10
0.0
 20
0.0
 30
0.0
  3
$PAPER_SPACE
  1

  0
ENDBLK
  5
35
 67
     1
  8
0
  0
BLOCK
  8
0
  2
*D75
 70
     1
 10
0.0
 20
0.0
 30
0.0
  3
*D75
  1

  0
LINE
  5
FF4
  8
SAPA_MATT
 10
0.0004540916625898
 20
-1.000000000035161
 30
0.0
 11
0.0004540916625886
 21
-21.4999999999572
 31
0.0
  0
LINE
  5
FF5
  8
SAPA_MATT
 10
97.000454091627105
 20
-1.199999999928326
 30
0.0
 11
97.000454091627105
 21
-21.4999999999572
 31
0.0
  0
LINE
  5
FF6
  8
SAPA_MATT
 10
3.0004540916625881
 20
-19.9999999999572
 30
0.0
 11
94.000454091627091
 21
-19.9999999999572
 31
0.0
  0
SOLID
  5
FF7
  8
SAPA_MATT
 10
3.0004540916625881
 20
-19.4999999999572
 30
0.0
 11
3.0004540916625881
 21
-20.4999999999572
 31
0.0
 12
0.0004540916625887
 22
-19.9999999999572
 32
0.0
 13
0.0004540916625887
 23
-19.9999999999572
 33
0.0
  0
SOLID
  5
FF8
  8
SAPA_MATT
 10
94.000454091627091
 20
-19.4999999999572
 30
0.0
 11
94.000454091627091
 21
-20.4999999999572
 31
0.0
 12
97.000454091627105
 22
-19.9999999999572
 32
0.0
 13
97.000454091627105
 23
-19.9999999999572
 33
0.0
  0
INSERT
  5
FF9
  8
0
  2
*U90
 10
0.0
 20
0.0
 30
0.0
  0
POINT
  5
FFA
  8
DEFPOINTS
 62
     0
 10
0.0004540916625899
 20
0.4999999999648388
 30
0.0
  0
POINT
  5
FFB
  8
DEFPOINTS
 62
     0
 10
97.000454091627105
 20
0.3000000000716732
 30
0.0
  0
POINT
  5
FFC
  8
DEFPOINTS
 62
     0
 10
97.000454091627105
 20
-19.9999999999572
 30
0.0
  0
ENDBLK
  5
FAB
  8
0
  0
BLOCK
  8
0
  2
*D76
 70
     1
 10
0.0
 20
0.0
 30
0.0
  3
*D76
  1

  0
LINE
  5
FEB
  8
SAPA_MATT
 10
-0.999545908337005
 20
-0.0000000000071938
 30
0.0
 11
-34.500568000652102
 21
-0.0000000000071843
 31
0.0
  0
LINE
  5
FEC
  8
SAPA_MATT
 10
20.699431999430669
 20
85.999999996809578
 30
0.0
 11
-34.500568000652073
 21
85.999999996809578
 31
0.0
  0
LINE
  5
FED
  8
SAPA_MATT
 10
-33.000568000652102
 20
2.9999999999928151
 30
0.0
 11
-33.000568000652081
 21
82.999999996809592
 31
0.0
  0
SOLID
  5
FEE
  8
SAPA_MATT
 10
-33.500568000652102
 20
2.9999999999928151
 30
0.0
 11
-32.500568000652102
 21
2.9999999999928142
 31
0.0
 12
-33.000568000652102
 22
-0.0000000000071848
 32
0.0
 13
-33.000568000652102
 23
-0.0000000000071848
 33
0.0
  0
SOLID
  5
FEF
  8
SAPA_MATT
 10
-33.500568000652081
 20
82.999999996809592
 30
0.0
 11
-32.500568000652081
 21
82.999999996809592
 31
0.0
 12
-33.000568000652081
 22
85.999999996809578
 32
0.0
 13
-33.000568000652081
 23
85.999999996809578
 33
0.0
  0
INSERT
  5
FF0
  8
0
  2
*U89
 10
0.0
 20
0.0
 30
0.0
  0
POINT
  5
FF1
  8
DEFPOINTS
 62
     0
 10
0.500454091662995
 20
-0.0000000000071942
 30
0.0
  0
POINT
  5
FF2
  8
DEFPOINTS
 62
     0
 10
22.199431999430669
 20
85.999999996809578
 30
0.0
  0
POINT
  5
FF3
  8
DEFPOINTS
 62
     0
 10
-33.000568000652081
 20
85.999999996809578
 30
0.0
  0
ENDBLK
  5
FB7
  8
0
  0
BLOCK
  8
0
  2
*D77
 70
     1
 10
0.0
 20
0.0
 30
0.0
  3
*D77
  1

  0
LINE
  5
FE2
  8
SAPA_MATT
 10
51.999431999430627
 20
87.299999996809646
 30
0.0
 11
51.999431999430627
 21
107.49999999680961
 31
0.0
  0
LINE
  5
FE3
  8
SAPA_MATT
 10
-0.0005680006657939
 20
85.700000001630315
 30
0.0
 11
-0.0005680006657926
 21
107.49999999680961
 31
0.0
  0
LINE
  5
FE4
  8
SAPA_MATT
 10
48.999431999430627
 20
105.99999999680961
 30
0.0
 11
2.9994319993342069
 21
105.99999999680961
 31
0.0
  0
SOLID
  5
FE5
  8
SAPA_MATT
 10
48.999431999430627
 20
106.49999999680961
 30
0.0
 11
48.999431999430627
 21
105.49999999680961
 31
0.0
 12
51.999431999430627
 22
105.99999999680961
 32
0.0
 13
51.999431999430627
 23
105.99999999680961
 33
0.0
  0
SOLID
  5
FE6
  8
SAPA_MATT
 10
2.9994319993342069
 20
106.49999999680961
 30
0.0
 11
2.9994319993342069
 21
105.49999999680961
 31
0.0
 12
-0.0005680006657927
 22
105.99999999680961
 32
0.0
 13
-0.0005680006657927
 23
105.99999999680961
 33
0.0
  0
INSERT
  5
FE7
  8
0
  2
*U88
 10
0.0
 20
0.0
 30
0.0
  0
POINT
  5
FE8
  8
DEFPOINTS
 62
     0
 10
51.999431999430627
 20
85.799999996809646
 30
0.0
  0
POINT
  5
FE9
  8
DEFPOINTS
 62
     0
 10
-0.000568000665794
 20
84.200000001630315
 30
0.0
  0
POINT
  5
FEA
  8
DEFPOINTS
 62
     0
 10
-0.0005680006657927
 20
105.99999999680961
 30
0.0
  0
ENDBLK
  5
FC3
  8
0
  0
BLOCK
  8
0
  2
*D78
 70
     1
 10
0.0
 20
0.0
 30
0.0
  3
*D78
  1

  0
LINE
  5
FD9
  8
SAPA_MATT
 10
133.49943199943061
 20
9.8005704443239612
 30
0.0
 11
153.4994319994305
 21
9.8005704443239559
 31
0.0
  0
LINE
  5
FDA
  8
SAPA_MATT
 10
133.4994319994305
 20
209.80057044432399
 30
0.0
 11
153.49943199943061
 21
209.80057044432399
 31
0.0
  0
LINE
  5
FDB
  8
SAPA_MATT
 10
151.9994319994305
 20
12.800570444323951
 30
0.0
 11
151.99943199943061
 21
206.80057044432399
 31
0.0
  0
SOLID
  5
FDC
  8
SAPA_MATT
 10
151.4994319994305
 20
12.800570444323951
 30
0.0
 11
152.4994319994305
 21
12.800570444323951
 31
0.0
 12
151.9994319994305
 22
9.8005704443239559
 32
0.0
 13
151.9994319994305
 23
9.8005704443239559
 33
0.0
  0
SOLID
  5
FDD
  8
SAPA_MATT
 10
151.49943199943061
 20
206.80057044432399
 30
0.0
 11
152.49943199943061
 21
206.80057044432399
 31
0.0
 12
151.99943199943061
 22
209.80057044432399
 32
0.0
 13
151.99943199943061
 23
209.80057044432399
 33
0.0
  0
INSERT
  5
FDE
  8
0
  2
*U87
 10
0.0
 20
0.0
 30
0.0
  0
POINT
  5
FDF
  8
DEFPOINTS
 62
     0
 10
131.99943199943061
 20
9.8005704443239612
 30
0.0
  0
POINT
  5
FE0
  8
DEFPOINTS
 62
     0
 10
131.9994319994305
 20
209.80057044432399
 30
0.0
  0
POINT
  5
FE1
  8
DEFPOINTS
 62
     0
 10
151.99943199943061
 20
209.80057044432399
 30
0.0
  0
ENDBLK
  5
FCF
  8
0
  0
BLOCK
  8
0
  2
*X79
 70
     1
 10
0.0
 20
0.0
 30
0.0
  3
*X79
  1

  0
LINE
  5
16A3
  8
0
 62
     0
 10
93.489837622955903
 20
210.618735206081
 30
0.0
 11
94.177245287209786
 21
211.01561020608091
 31
0.0
  0
LINE
  5
16A4
  8
0
 62
     0
 10
94.864653115717616
 20
212.9999849215848
 30
0.0
 11
95.450825987751514
 21
213.33841198704519
 31
0.0
  0
LINE
  5
16A5
  8
0
 62
     0
 10
92.80243012295594
 20
211.80935992158479
 30
0.0
 11
93.489837787209837
 21
212.20623492158481
 31
0.0
  0
LINE
  5
16A6
  8
0
 62
     0
 10
90.74020713019425
 20
210.6187349215848
 30
0.0
 11
91.427614794448147
 21
211.0156099215848
 31
0.0
  0
LINE
  5
16A7
  8
0
 62
     0
 10
94.177245615717609
 20
214.1906096370887
 30
0.0
 11
94.864653279971506
 21
214.58748463708869
 31
0.0
  0
LINE
  5
16A8
  8
0
 62
     0
 10
92.115022622955919
 20
212.99998463708869
 30
0.0
 11
92.802430287209816
 21
213.39685963708871
 31
0.0
  0
LINE
  5
16A9
  8
0
 62
     0
 10
90.052799630194244
 20
211.8093596370887
 30
0.0
 11
90.740207294448126
 21
212.2062346370887
 31
0.0
  0
LINE
  5
16AA
  8
0
 62
     0
 10
93.489838115717603
 20
215.3812343525926
 30
0.0
 11
93.7461831626334
 21
215.52923523443491
 31
0.0
  0
LINE
  5
16AB
  8
0
 62
     0
 10
91.427615122955913
 20
214.19060935259259
 30
0.0
 11
92.115022787209824
 21
214.58748435259261
 31
0.0
  0
LINE
  5
16AC
  8
0
 62
     0
 10
89.512963391022012
 20
213.08518465975621
 30
0.0
 11
90.052799794448134
 21
213.3968593525926
 31
0.0
  0
LINE
  5
16AD
  8
0
 62
     0
 10
91.427589006586103
 20
211.01559541228389
 30
0.0
 11
92.114996670840014
 21
210.61872041228389
 31
0.0
  0
LINE
  5
16AE
  8
0
 62
     0
 10
89.587800155343402
 20
212.0777980008009
 30
0.0
 11
90.052773678078324
 21
211.80934541228379
 31
0.0
  0
LINE
  5
16AF
  8
0
 62
     0
 10
94.177219499347814
 20
211.0155951277878
 30
0.0
 11
94.670873104940512
 21
210.73058408571239
 31
0.0
  0
LINE
  5
16B0
  8
0
 62
     0
 10
92.114996506586124
 20
212.20622012778779
 30
0.0
 11
92.80240417084002
 21
211.80934512778779
 31
0.0
  0
LINE
  5
16B1
  8
0
 62
     0
 10
90.052773513824434
 20
213.3968451277878
 30
0.0
 11
90.740181178078331
 21
212.9999701277878
 31
0.0
  0
LINE
  5
16B2
  8
0
 62
     0
 10
94.864626999347806
 20
212.20621984329171
 30
0.0
 11
95.366244723770876
 21
211.9166107150657
 31
0.0
  0
LINE
  5
16B3
  8
0
 62
     0
 10
92.802404006586116
 20
213.3968448432916
 30
0.0
 11
93.489811670840012
 21
212.99996984329169
 31
0.0
  0
LINE
  5
16B4
  8
0
 62
     0
 10
90.740181013824426
 20
214.58746984329159
 30
0.0
 11
91.427588678078337
 21
214.19059484329171
 31
0.0
  0
LINE
  5
16B5
  8
0
 62
     0
 10
93.489811506586122
 20
214.58746955879559
 30
0.0
 11
94.177219170840004
 21
214.1905945587956
 31
0.0
  0
LINE
  5
16B6
  8
0
 62
     0
 10
91.617998961339836
 20
215.66816103566609
 30
0.0
 11
92.114996178078329
 21
215.38121955879561
 31
0.0
  0
LINE
  5
16B7
  8
0
 62
     0
 10
94.864626999347877
 20
214.58749999987791
 30
0.0
 11
94.864626999347877
 21
214.64606566563069
 31
0.0
  0
LINE
  5
16B8
  8
0
 62
     0
 10
94.864626999347877
 20
212.20624999987791
 30
0.0
 11
94.864626999347877
 21
212.9999999998779
 31
0.0
  0
LINE
  5
16B9
  8
0
 62
     0
 10
93.489811999347879
 20
214.58749999987791
 30
0.0
 11
93.489811999347879
 21
215.38124999987789
 31
0.0
  0
LINE
  5
16BA
  8
0
 62
     0
 10
93.489811999347879
 20
212.20624999987791
 30
0.0
 11
93.489811999347879
 21
212.9999999998779
 31
0.0
  0
LINE
  5
16BB
  8
0
 62
     0
 10
93.489811999347879
 20
209.96876051857859
 30
0.0
 11
93.489811999347879
 21
210.61874999987791
 31
0.0
  0
LINE
  5
16BC
  8
0
 62
     0
 10
92.114996999347895
 20
214.58749999987791
 30
0.0
 11
92.114996999347895
 21
215.38124999987789
 31
0.0
  0
LINE
  5
16BD
  8
0
 62
     0
 10
92.114996999347895
 20
212.20624999987791
 30
0.0
 11
92.114996999347895
 21
212.9999999998779
 31
0.0
  0
LINE
  5
16BE
  8
0
 62
     0
 10
92.114996999347895
 20
209.82530411493599
 30
0.0
 11
92.114996999347895
 21
210.61874999987791
 31
0.0
  0
LINE
  5
16BF
  8
0
 62
     0
 10
90.740181999347897
 20
214.58749999987791
 30
0.0
 11
90.740181999347897
 21
215.23059913501609
 31
0.0
  0
LINE
  5
16C0
  8
0
 62
     0
 10
90.740181999347897
 20
212.20624999987791
 30
0.0
 11
90.740181999347897
 21
212.9999999998779
 31
0.0
  0
LINE
  5
16C1
  8
0
 62
     0
 10
90.740181999347897
 20
210.37054175363309
 30
0.0
 11
90.740181999347897
 21
210.61874999987791
 31
0.0
  0
ENDBLK
  5
16C3
  8
0
  0
BLOCK
  8
0
  2
*X80
 70
     1
 10
0.0
 20
0.0
 30
0.0
  3
*X80
  1

  0
LINE
  5
16C5
  8
0
 62
     0
 10
93.385571797211711
 20
209.93443083526819
 30
0.0
 11
93.519432188155861
 21
209.80057044432399
 31
0.0
  0
LINE
  5
16C6
  8
0
 62
     0
 10
94.148241661545683
 20
210.2942929860678
 30
0.0
 11
94.64196420328949
 21
209.80057044432399
 31
0.0
  0
LINE
  5
16C7
  8
0
 62
     0
 10
94.749140350932194
 20
210.81592631181499
 30
0.0
 11
95.764496218423133
 21
209.80057044432399
 31
0.0
  0
LINE
  5
16C8
  8
0
 62
     0
 10
95.197885740901796
 20
211.489712936979
 30
0.0
 11
96.887028233556777
 21
209.80057044432399
 31
0.0
  0
LINE
  5
16C9
  8
0
 62
     0
 10
95.464704895745967
 20
212.34542579726849
 30
0.0
 11
98.009560248690434
 21
209.80057044432399
 31
0.0
  0
LINE
  5
16CA
  8
0
 62
     0
 10
95.411638425085144
 20
213.52102428306301
 30
0.0
 11
98.97847114082839
 21
209.9541915673197
 31
0.0
  0
LINE
  5
16CB
  8
0
 62
     0
 10
93.132092263823878
 20
215.80057044432419
 30
0.0
 11
93.21988583806241
 21
215.71277687008569
 31
0.0
  0
LINE
  5
16CC
  8
0
 62
     0
 10
94.709907153307185
 20
215.3452875699746
 30
0.0
 11
98.567595906728144
 21
211.4875988165536
 31
0.0
  0
LINE
  5
16CD
  8
0
 62
     0
 10
95.500426181061385
 20
215.67730055735399
 30
0.0
 11
98.156720672627898
 21
213.0210060657875
 31
0.0
  0
LINE
  5
16CE
  8
0
 62
     0
 10
96.0616921886282
 20
216.23856656492089
 30
0.0
 11
97.745845438527638
 21
214.55441331502141
 31
0.0
  0
LINE
  5
16CF
  8
0
 62
     0
 10
96.622958196195015
 20
216.7998325724877
 30
0.0
 11
97.334970204427407
 21
216.08782056425531
 31
0.0
  0
LINE
  5
16D0
  8
0
 62
     0
 10
98.653657808180881
 20
209.80057044432399
 30
0.0
 11
98.942293970165295
 21
210.08920660630849
 31
0.0
  0
LINE
  5
16D1
  8
0
 62
     0
 10
97.531125793047266
 20
209.80057044432399
 30
0.0
 11
98.705075043154196
 21
210.97451969443091
 31
0.0
  0
LINE
  5
16D2
  8
0
 62
     0
 10
96.408593777913609
 20
209.80057044432411
 30
0.0
 11
98.467856116143054
 21
211.8598327825535
 31
0.0
  0
LINE
  5
16D3
  8
0
 62
     0
 10
95.286061762779966
 20
209.80057044432399
 30
0.0
 11
98.230637189131954
 21
212.745145870676
 31
0.0
  0
LINE
  5
16D4
  8
0
 62
     0
 10
94.163529747646336
 20
209.80057044432411
 30
0.0
 11
97.993418262120784
 21
213.6304589587985
 31
0.0
  0
LINE
  5
16D5
  8
0
 62
     0
 10
95.438259402472909
 20
212.1978321142843
 30
0.0
 11
97.75619933510967
 21
214.515772046921
 31
0.0
  0
LINE
  5
16D6
  8
0
 62
     0
 10
93.040997732512665
 20
209.80057044432399
 30
0.0
 11
93.102170329363474
 21
209.8617430411748
 31
0.0
  0
LINE
  5
16D7
  8
0
 62
     0
 10
95.451667701919604
 20
213.33377242886459
 30
0.0
 11
97.518980408098528
 21
215.4010851350435
 31
0.0
  0
LINE
  5
16D8
  8
0
 62
     0
 10
95.167527110518535
 20
214.17216385259721
 30
0.0
 11
97.281761481087415
 21
216.28639822316609
 31
0.0
  0
LINE
  5
16D9
  8
0
 62
     0
 10
94.705953027606398
 20
214.8331217848187
 30
0.0
 11
97.044542554076273
 21
217.17171131128859
 31
0.0
  0
LINE
  5
16DA
  8
0
 62
     0
 10
94.092772023824779
 20
215.34247279617071
 30
0.0
 11
94.380176088818615
 21
215.6298768611646
 31
0.0
  0
LINE
  5
16DB
  8
0
 62
     0
 10
93.315274051380484
 20
215.68750683886009
 30
0.0
 11
93.428337656844619
 21
215.80057044432419
 31
0.0
  0
ENDBLK
  5
16DD
  8
0
  0
BLOCK
  8
0
  2
*X81
 70
     1
 10
0.0
 20
0.0
 30
0.0
  3
*X81
  1

  0
LINE
  5
16DF
  8
0
 62
     0
 10
89.353326594783056
 20
1.7134745243324041
 30
0.0
 11
89.366801119048702
 21
1.700000000066751
 31
0.0
  0
LINE
  5
16E0
  8
0
 62
     0
 10
90.287091698600705
 20
1.9022414356483841
 30
0.0
 11
90.489333134182317
 21
1.7000000000667681
 31
0.0
  0
LINE
  5
16E1
  8
0
 62
     0
 10
91.0615711568758
 20
2.2502939925069319
 30
0.0
 11
91.61186514931596
 21
1.7000000000667761
 31
0.0
  0
LINE
  5
16E2
  8
0
 62
     0
 10
91.712627153144865
 20
2.721770011371532
 30
0.0
 11
92.734397164449604
 21
1.7000000000667861
 31
0.0
  0
LINE
  5
16E3
  8
0
 62
     0
 10
92.252002619291744
 20
3.304926560358278
 30
0.0
 11
93.856929179583204
 21
1.7000000000668001
 31
0.0
  0
LINE
  5
16E4
  8
0
 62
     0
 10
92.676983322754737
 20
4.0024778720289218
 30
0.0
 11
94.979461194716833
 21
1.7000000000668081
 31
0.0
  0
LINE
  5
16E5
  8
0
 62
     0
 10
92.968404936196535
 20
4.8335882737207641
 30
0.0
 11
97.114788212179377
 21
0.6872049977379433
 31
0.0
  0
LINE
  5
16E6
  8
0
 62
     0
 10
93.072221087143404
 20
5.852304137907562
 30
0.0
 11
97.352007139190505
 21
1.5725180858604579
 31
0.0
  0
LINE
  5
16E7
  8
0
 62
     0
 10
89.123954780726933
 20
9.8005704443240447
 30
0.0
 11
89.125239814978244
 21
9.7992854100727165
 31
0.0
  0
LINE
  5
16E8
  8
0
 62
     0
 10
92.777949874405905
 20
7.2691073657786802
 30
0.0
 11
97.589226066201633
 21
2.4578311739829699
 31
0.0
  0
LINE
  5
16E9
  8
0
 62
     0
 10
90.246486795860548
 20
9.8005704443240447
 30
0.0
 11
90.542043042849372
 21
9.5050141973352353
 31
0.0
  0
LINE
  5
16EA
  8
0
 62
     0
 10
91.369018810994191
 20
9.8005704443240482
 30
0.0
 11
97.826444993212746
 21
3.3431442621054961
 31
0.0
  0
LINE
  5
16EB
  8
0
 62
     0
 10
92.491550826127849
 20
9.8005704443240447
 30
0.0
 11
98.063663920223902
 21
4.2284573502279983
 31
0.0
  0
LINE
  5
16EC
  8
0
 62
     0
 10
93.614082841261492
 20
9.8005704443240553
 30
0.0
 11
98.300882847235016
 21
5.113770438350528
 31
0.0
  0
LINE
  5
16ED
  8
0
 62
     0
 10
94.736614856395136
 20
9.8005704443240447
 30
0.0
 11
98.538101774246144
 21
5.9990835264730364
 31
0.0
  0
LINE
  5
16EE
  8
0
 62
     0
 10
95.859146871528765
 20
9.8005704443240553
 30
0.0
 11
98.775320701257272
 21
6.8843966145955511
 31
0.0
  0
LINE
  5
16EF
  8
0
 62
     0
 10
96.981678886662422
 20
9.8005704443240482
 30
0.0
 11
99.012539628268414
 21
7.7697097027180604
 31
0.0
  0
LINE
  5
16F0
  8
0
 62
     0
 10
98.104210901796066
 20
9.8005704443240518
 30
0.0
 11
99.249758555279541
 21
8.6550227908405901
 31
0.0
  0
LINE
  5
16F1
  8
0
 62
     0
 10
99.226742916929695
 20
9.8005704443240482
 30
0.0
 11
99.486977482290655
 21
9.5403358789630879
 31
0.0
  0
LINE
  5
16F2
  8
0
 62
     0
 10
96.990975601889843
 20
0.3748147852031352
 30
0.0
 11
97.045764019172836
 21
0.4296032024861276
 31
0.0
  0
LINE
  5
16F3
  8
0
 62
     0
 10
96.459173480981605
 20
0.9655446794285396
 30
0.0
 11
97.456639253273096
 21
1.9630104517200231
 31
0.0
  0
LINE
  5
16F4
  8
0
 62
     0
 10
95.897907473414733
 20
1.5268106869953251
 30
0.0
 11
97.867514487373342
 21
3.496417700953919
 31
0.0
  0
LINE
  5
16F5
  8
0
 62
     0
 10
94.948564771352594
 20
1.7000000000668081
 30
0.0
 11
98.278389721473587
 21
5.0298249501878161
 31
0.0
  0
LINE
  5
16F6
  8
0
 62
     0
 10
93.826032756218936
 20
1.7000000000668001
 30
0.0
 11
98.689264955573833
 21
6.5632321994217051
 31
0.0
  0
LINE
  5
16F7
  8
0
 62
     0
 10
92.703500741085293
 20
1.700000000066793
 30
0.0
 11
99.100140189674093
 21
8.0966394486556013
 31
0.0
  0
LINE
  5
16F8
  8
0
 62
     0
 10
91.580968725951635
 20
1.700000000066779
 30
0.0
 11
99.511015423774325
 21
9.6300466978894832
 31
0.0
  0
LINE
  5
16F9
  8
0
 62
     0
 10
92.590425655387904
 20
3.831988944636691
 30
0.0
 11
98.55900715507525
 21
9.8005704443240447
 31
0.0
  0
LINE
  5
16FA
  8
0
 62
     0
 10
90.458436710817949
 20
1.700000000066765
 30
0.0
 11
90.941517176824775
 21
2.1830804660735761
 31
0.0
  0
LINE
  5
16FB
  8
0
 62
     0
 10
93.060380629610506
 20
5.4244759339929507
 30
0.0
 11
97.436475139941621
 21
9.8005704443240447
 31
0.0
  0
LINE
  5
16FC
  8
0
 62
     0
 10
89.33590469568432
 20
1.700000000066751
 30
0.0
 11
89.349030187468514
 21
1.7131254918509591
 31
0.0
  0
LINE
  5
16FD
  8
0
 62
     0
 10
93.005069600014124
 20
6.4916969195301979
 30
0.0
 11
96.313943124807963
 21
9.8005704443240518
 31
0.0
  0
LINE
  5
16FE
  8
0
 62
     0
 10
92.743192898304699
 20
7.3523522329544164
 30
0.0
 11
95.191411109674306
 21
9.8005704443240376
 31
0.0
  0
LINE
  5
16FF
  8
0
 62
     0
 10
92.341317524698212
 20
8.0730088744815802
 30
0.0
 11
94.068879094540677
 21
9.8005704443240447
 31
0.0
  0
LINE
  5
1700
  8
0
 62
     0
 10
91.822919715215221
 20
8.6771430801322467
 30
0.0
 11
92.946347079407033
 21
9.8005704443240447
 31
0.0
  0
LINE
  5
1701
  8
0
 62
     0
 10
91.193366114113076
 20
9.1701214941637446
 30
0.0
 11
91.823815064273376
 21
9.8005704443240518
 31
0.0
  0
LINE
  5
1702
  8
0
 62
     0
 10
90.443935904004348
 20
9.5432232991886465
 30
0.0
 11
90.701283049139747
 21
9.8005704443240518
 31
0.0
  0
LINE
  5
1703
  8
0
 62
     0
 10
89.545001109032214
 20
9.7668205193501691
 30
0.0
 11
89.578751034006103
 21
9.8005704443240518
 31
0.0
  0
ENDBLK
  5
1705
  8
0
  0
BLOCK
  8
0
  2
*X82
 70
     1
 10
0.0
 20
0.0
 30
0.0
  3
*X82
  1

  0
LINE
  5
1707
  8
0
 62
     0
 10
92.115011289436978
 20
3.4625042673194142
 30
0.0
 11
92.511017559675864
 21
3.6911385940426191
 31
0.0
  0
LINE
  5
1708
  8
0
 62
     0
 10
90.052788296675288
 20
2.271879267319413
 30
0.0
 11
90.740195960929185
 21
2.6687542673194131
 31
0.0
  0
LINE
  5
1709
  8
0
 62
     0
 10
91.427603789437001
 20
4.6531289828233291
 30
0.0
 11
92.115011453690883
 21
5.0500039828233287
 31
0.0
  0
LINE
  5
170A
  8
0
 62
     0
 10
89.365380796675311
 20
3.4625039828233271
 30
0.0
 11
90.052788460929193
 21
3.859378982823328
 31
0.0
  0
LINE
  5
170B
  8
0
 62
     0
 10
87.303157803913635
 20
2.2718789828233259
 30
0.0
 11
87.990565468167517
 21
2.6687539828233269
 31
0.0
  0
LINE
  5
170C
  8
0
 62
     0
 10
92.802419282198684
 20
7.0343786983272318
 30
0.0
 11
92.854400685261325
 21
7.0643901753783123
 31
0.0
  0
LINE
  5
170D
  8
0
 62
     0
 10
90.740196289436994
 20
5.8437536983272311
 30
0.0
 11
91.427603953690891
 21
6.2406286983272308
 31
0.0
  0
LINE
  5
170E
  8
0
 62
     0
 10
88.677973296675304
 20
4.6531286983272286
 30
0.0
 11
89.365380960929201
 21
5.0500036983272301
 31
0.0
  0
LINE
  5
170F
  8
0
 62
     0
 10
86.615750303913615
 20
3.4625036983272279
 30
0.0
 11
87.303157968167525
 21
3.859378698327228
 31
0.0
  0
LINE
  5
1710
  8
0
 62
     0
 10
92.115011782198664
 20
8.2250034138311303
 30
0.0
 11
92.193886180689901
 21
8.2705415690322042
 31
0.0
  0
LINE
  5
1711
  8
0
 62
     0
 10
90.052788789436974
 20
7.0343784138311278
 30
0.0
 11
90.740196453690885
 21
7.4312534138311293
 31
0.0
  0
LINE
  5
1712
  8
0
 62
     0
 10
87.990565796675298
 20
5.8437534138311271
 30
0.0
 11
88.677973460929195
 21
6.2406284138311268
 31
0.0
  0
LINE
  5
1713
  8
0
 62
     0
 10
85.928342803913608
 20
4.6531284138311246
 30
0.0
 11
86.615750468167505
 21
5.0500034138311261
 31
0.0
  0
LINE
  5
1714
  8
0
 62
     0
 10
89.365381289436982
 20
8.2250031293350272
 30
0.0
 11
90.052788953690865
 21
8.6218781293350286
 31
0.0
  0
LINE
  5
1715
  8
0
 62
     0
 10
87.303158296675306
 20
7.0343781293350283
 30
0.0
 11
87.990565960929189
 21
7.4312531293350279
 31
0.0
  0
LINE
  5
1716
  8
0
 62
     0
 10
85.240935303913588
 20
5.8437531293350258
 30
0.0
 11
85.928342968167499
 21
6.2406281293350272
 31
0.0
  0
LINE
  5
1717
  8
0
 62
     0
 10
88.67797378943699
 20
9.4156278448389266
 30
0.0
 11
89.325189699001967
 21
9.7892981244500756
 31
0.0
  0
LINE
  5
1718
  8
0
 62
     0
 10
86.6157507966753
 20
8.2250028448389259
 30
0.0
 11
87.303158460929197
 21
8.6218778448389255
 31
0.0
  0
LINE
  5
1719
  8
0
 62
     0
 10
86.615746854581744
 20
2.6687403270106498
 30
0.0
 11
87.303154518835655
 21
2.271865327010651
 31
0.0
  0
LINE
  5
171A
  8
0
 62
     0
 10
89.365377347343426
 20
2.6687400425145542
 30
0.0
 11
90.052785011597337
 21
2.2718650425145541
 31
0.0
  0
LINE
  5
171B
  8
0
 62
     0
 10
87.30315435458175
 20
3.8593650425145531
 30
0.0
 11
87.990562018835647
 21
3.4624900425145531
 31
0.0
  0
LINE
  5
171C
  8
0
 62
     0
 10
85.24093136182006
 20
5.0499900425145521
 30
0.0
 11
85.928339026073957
 21
4.6531150425145524
 31
0.0
  0
LINE
  5
171D
  8
0
 62
     0
 10
90.052784847343432
 20
3.8593647580184549
 30
0.0
 11
90.740192511597314
 21
3.4624897580184548
 31
0.0
  0
LINE
  5
171E
  8
0
 62
     0
 10
87.990561854581756
 20
5.0499897580184543
 30
0.0
 11
88.677969518835638
 21
4.6531147580184538
 31
0.0
  0
LINE
  5
171F
  8
0
 62
     0
 10
85.928338861820038
 20
6.2406147580184532
 30
0.0
 11
86.615746526073949
 21
5.8437397580184527
 31
0.0
  0
LINE
  5
1720
  8
0
 62
     0
 10
90.740192347343424
 20
5.0499894735223521
 30
0.0
 11
91.427600011597335
 21
4.6531144735223533
 31
0.0
  0
LINE
  5
1721
  8
0
 62
     0
 10
88.677969354581748
 20
6.240614473522351
 30
0.0
 11
89.365377018835645
 21
5.8437394735223522
 31
0.0
  0
LINE
  5
1722
  8
0
 62
     0
 10
86.615746361820058
 20
7.4312394735223499
 30
0.0
 11
87.303154026073955
 21
7.0343644735223512
 31
0.0
  0
LINE
  5
1723
  8
0
 62
     0
 10
91.42759984734343
 20
6.2406141890262647
 30
0.0
 11
92.115007511597327
 21
5.8437391890262651
 31
0.0
  0
LINE
  5
1724
  8
0
 62
     0
 10
89.365376854581754
 20
7.4312391890262637
 30
0.0
 11
90.052784518835637
 21
7.034364189026264
 31
0.0
  0
LINE
  5
1725
  8
0
 62
     0
 10
87.303153861820036
 20
8.6218641890262635
 30
0.0
 11
87.990561526073947
 21
8.2249891890262639
 31
0.0
  0
LINE
  5
1726
  8
0
 62
     0
 10
92.115007347343408
 20
7.4312389045301721
 30
0.0
 11
92.802415011597319
 21
7.0343639045301716
 31
0.0
  0
LINE
  5
1727
  8
0
 62
     0
 10
90.052784354581732
 20
8.621863904530171
 30
0.0
 11
90.740192018835629
 21
8.2249889045301714
 31
0.0
  0
LINE
  5
1728
  8
0
 62
     0
 10
88.169000916957046
 20
9.7094667793377454
 30
0.0
 11
88.677969026073924
 21
9.4156139045301703
 31
0.0
  0
LINE
  5
1729
  8
0
 62
     0
 10
92.114996999347866
 20
7.43124999987793
 30
0.0
 11
92.114996999347866
 21
8.2249999998779302
 31
0.0
  0
LINE
  5
172A
  8
0
 62
     0
 10
92.114996999347866
 20
5.0499999998779312
 30
0.0
 11
92.114996999347866
 21
5.8437499998779314
 31
0.0
  0
LINE
  5
172B
  8
0
 62
     0
 10
92.114996999347866
 20
3.133850448011013
 30
0.0
 11
92.114996999347866
 21
3.4624999998779309
 31
0.0
  0
LINE
  5
172C
  8
0
 62
     0
 10
90.740181999347868
 20
7.4312499998779318
 30
0.0
 11
90.740181999347868
 21
8.2249999998779302
 31
0.0
  0
LINE
  5
172D
  8
0
 62
     0
 10
90.740181999347868
 20
5.049999999877933
 30
0.0
 11
90.740181999347868
 21
5.8437499998779332
 31
0.0
  0
LINE
  5
172E
  8
0
 62
     0
 10
90.740181999347868
 20
2.6687499998779329
 30
0.0
 11
90.740181999347868
 21
3.4624999998779331
 31
0.0
  0
LINE
  5
172F
  8
0
 62
     0
 10
89.36536699934787
 20
7.4312499998779344
 30
0.0
 11
89.36536699934787
 21
8.2249999998779337
 31
0.0
  0
LINE
  5
1730
  8
0
 62
     0
 10
89.36536699934787
 20
5.0499999998779339
 30
0.0
 11
89.36536699934787
 21
5.8437499998779341
 31
0.0
  0
LINE
  5
1731
  8
0
 62
     0
 10
89.36536699934787
 20
2.6687499998779352
 30
0.0
 11
89.36536699934787
 21
3.4624999998779349
 31
0.0
  0
LINE
  5
1732
  8
0
 62
     0
 10
87.990551999347872
 20
7.4312499998779344
 30
0.0
 11
87.990551999347872
 21
8.2249999998779337
 31
0.0
  0
LINE
  5
1733
  8
0
 62
     0
 10
87.990551999347872
 20
5.0499999998779339
 30
0.0
 11
87.990551999347872
 21
5.8437499998779341
 31
0.0
  0
LINE
  5
1734
  8
0
 62
     0
 10
87.990551999347872
 20
2.6687499998779352
 30
0.0
 11
87.990551999347872
 21
3.4624999998779349
 31
0.0
  0
LINE
  5
1735
  8
0
 62
     0
 10
86.615736999347874
 20
7.4312499998779318
 30
0.0
 11
86.615736999347874
 21
8.2249999998779302
 31
0.0
  0
LINE
  5
1736
  8
0
 62
     0
 10
86.615736999347874
 20
5.049999999877933
 30
0.0
 11
86.615736999347874
 21
5.8437499998779332
 31
0.0
  0
LINE
  5
1737
  8
0
 62
     0
 10
86.615736999347874
 20
2.6687499998779329
 30
0.0
 11
86.615736999347874
 21
3.4624999998779331
 31
0.0
  0
LINE
  5
1738
  8
0
 62
     0
 10
85.240921999347876
 20
5.0499999998779339
 30
0.0
 11
85.240921999347876
 21
5.8437499998779341
 31
0.0
  0
ENDBLK
  5
173A
  8
0
  0
BLOCK
  8
0
  2
*X83
 70
     1
 10
0.0
 20
0.0
 30
0.0
  3
*X83
  1

  0
LINE
  5
173C
  8
0
 62
     0
 10
93.489837622955903
 20
210.618735206081
 30
0.0
 11
94.177245287209786
 21
211.01561020608091
 31
0.0
  0
LINE
  5
173D
  8
0
 62
     0
 10
94.864653115717616
 20
212.9999849215848
 30
0.0
 11
95.450825987751514
 21
213.33841198704519
 31
0.0
  0
LINE
  5
173E
  8
0
 62
     0
 10
92.80243012295594
 20
211.80935992158479
 30
0.0
 11
93.489837787209837
 21
212.20623492158481
 31
0.0
  0
LINE
  5
173F
  8
0
 62
     0
 10
90.74020713019425
 20
210.6187349215848
 30
0.0
 11
91.427614794448147
 21
211.0156099215848
 31
0.0
  0
LINE
  5
1740
  8
0
 62
     0
 10
94.177245615717609
 20
214.1906096370887
 30
0.0
 11
94.864653279971506
 21
214.58748463708869
 31
0.0
  0
LINE
  5
1741
  8
0
 62
     0
 10
92.115022622955919
 20
212.99998463708869
 30
0.0
 11
92.802430287209816
 21
213.39685963708871
 31
0.0
  0
LINE
  5
1742
  8
0
 62
     0
 10
90.052799630194244
 20
211.8093596370887
 30
0.0
 11
90.740207294448126
 21
212.2062346370887
 31
0.0
  0
LINE
  5
1743
  8
0
 62
     0
 10
93.489838115717603
 20
215.3812343525926
 30
0.0
 11
93.7461831626334
 21
215.52923523443491
 31
0.0
  0
LINE
  5
1744
  8
0
 62
     0
 10
91.427615122955913
 20
214.19060935259259
 30
0.0
 11
92.115022787209824
 21
214.58748435259261
 31
0.0
  0
LINE
  5
1745
  8
0
 62
     0
 10
89.512963391022012
 20
213.08518465975621
 30
0.0
 11
90.052799794448134
 21
213.3968593525926
 31
0.0
  0
LINE
  5
1746
  8
0
 62
     0
 10
91.427589006586103
 20
211.01559541228389
 30
0.0
 11
92.114996670840014
 21
210.61872041228389
 31
0.0
  0
LINE
  5
1747
  8
0
 62
     0
 10
89.587800155343402
 20
212.0777980008009
 30
0.0
 11
90.052773678078324
 21
211.80934541228379
 31
0.0
  0
LINE
  5
1748
  8
0
 62
     0
 10
94.177219499347814
 20
211.0155951277878
 30
0.0
 11
94.670873104940512
 21
210.73058408571239
 31
0.0
  0
LINE
  5
1749
  8
0
 62
     0
 10
92.114996506586124
 20
212.20622012778779
 30
0.0
 11
92.80240417084002
 21
211.80934512778779
 31
0.0
  0
LINE
  5
174A
  8
0
 62
     0
 10
90.052773513824434
 20
213.3968451277878
 30
0.0
 11
90.740181178078331
 21
212.9999701277878
 31
0.0
  0
LINE
  5
174B
  8
0
 62
     0
 10
94.864626999347806
 20
212.20621984329171
 30
0.0
 11
95.366244723770876
 21
211.9166107150657
 31
0.0
  0
LINE
  5
174C
  8
0
 62
     0
 10
92.802404006586116
 20
213.3968448432916
 30
0.0
 11
93.489811670840012
 21
212.99996984329169
 31
0.0
  0
LINE
  5
174D
  8
0
 62
     0
 10
90.740181013824426
 20
214.58746984329159
 30
0.0
 11
91.427588678078337
 21
214.19059484329171
 31
0.0
  0
LINE
  5
174E
  8
0
 62
     0
 10
93.489811506586122
 20
214.58746955879559
 30
0.0
 11
94.177219170840004
 21
214.1905945587956
 31
0.0
  0
LINE
  5
174F
  8
0
 62
     0
 10
91.617998961339836
 20
215.66816103566609
 30
0.0
 11
92.114996178078329
 21
215.38121955879561
 31
0.0
  0
LINE
  5
1750
  8
0
 62
     0
 10
94.864626999347877
 20
214.58749999987791
 30
0.0
 11
94.864626999347877
 21
214.64606566563069
 31
0.0
  0
LINE
  5
1751
  8
0
 62
     0
 10
94.864626999347877
 20
212.20624999987791
 30
0.0
 11
94.864626999347877
 21
212.9999999998779
 31
0.0
  0
LINE
  5
1752
  8
0
 62
     0
 10
93.489811999347879
 20
214.58749999987791
 30
0.0
 11
93.489811999347879
 21
215.38124999987789
 31
0.0
  0
LINE
  5
1753
  8
0
 62
     0
 10
93.489811999347879
 20
212.20624999987791
 30
0.0
 11
93.489811999347879
 21
212.9999999998779
 31
0.0
  0
LINE
  5
1754
  8
0
 62
     0
 10
93.489811999347879
 20
209.96876051857859
 30
0.0
 11
93.489811999347879
 21
210.61874999987791
 31
0.0
  0
LINE
  5
1755
  8
0
 62
     0
 10
92.114996999347895
 20
214.58749999987791
 30
0.0
 11
92.114996999347895
 21
215.38124999987789
 31
0.0
  0
LINE
  5
1756
  8
0
 62
     0
 10
92.114996999347895
 20
212.20624999987791
 30
0.0
 11
92.114996999347895
 21
212.9999999998779
 31
0.0
  0
LINE
  5
1757
  8
0
 62
     0
 10
92.114996999347895
 20
209.82530411493599
 30
0.0
 11
92.114996999347895
 21
210.61874999987791
 31
0.0
  0
LINE
  5
1758
  8
0
 62
     0
 10
90.740181999347897
 20
214.58749999987791
 30
0.0
 11
90.740181999347897
 21
215.23059913501609
 31
0.0
  0
LINE
  5
1759
  8
0
 62
     0
 10
90.740181999347897
 20
212.20624999987791
 30
0.0
 11
90.740181999347897
 21
212.9999999998779
 31
0.0
  0
LINE
  5
175A
  8
0
 62
     0
 10
90.740181999347897
 20
210.37054175363309
 30
0.0
 11
90.740181999347897
 21
210.61874999987791
 31
0.0
  0
ENDBLK
  5
175C
  8
0
  0
BLOCK
  8
0
  2
*X84
 70
     1
 10
0.0
 20
0.0
 30
0.0
  3
*X84
  1

  0
LINE
  5
175E
  8
0
 62
     0
 10
93.385571797211711
 20
209.93443083526819
 30
0.0
 11
93.519432188155861
 21
209.80057044432399
 31
0.0
  0
LINE
  5
175F
  8
0
 62
     0
 10
94.148241661545683
 20
210.2942929860678
 30
0.0
 11
94.64196420328949
 21
209.80057044432399
 31
0.0
  0
LINE
  5
1760
  8
0
 62
     0
 10
94.749140350932194
 20
210.81592631181499
 30
0.0
 11
95.764496218423133
 21
209.80057044432399
 31
0.0
  0
LINE
  5
1761
  8
0
 62
     0
 10
95.197885740901796
 20
211.489712936979
 30
0.0
 11
96.887028233556777
 21
209.80057044432399
 31
0.0
  0
LINE
  5
1762
  8
0
 62
     0
 10
95.464704895745967
 20
212.34542579726849
 30
0.0
 11
98.009560248690434
 21
209.80057044432399
 31
0.0
  0
LINE
  5
1763
  8
0
 62
     0
 10
95.411638425085144
 20
213.52102428306301
 30
0.0
 11
98.97847114082839
 21
209.9541915673197
 31
0.0
  0
LINE
  5
1764
  8
0
 62
     0
 10
93.132092263823878
 20
215.80057044432419
 30
0.0
 11
93.21988583806241
 21
215.71277687008569
 31
0.0
  0
LINE
  5
1765
  8
0
 62
     0
 10
94.709907153307185
 20
215.3452875699746
 30
0.0
 11
98.567595906728144
 21
211.4875988165536
 31
0.0
  0
LINE
  5
1766
  8
0
 62
     0
 10
95.500426181061385
 20
215.67730055735399
 30
0.0
 11
98.156720672627898
 21
213.0210060657875
 31
0.0
  0
LINE
  5
1767
  8
0
 62
     0
 10
96.0616921886282
 20
216.23856656492089
 30
0.0
 11
97.745845438527638
 21
214.55441331502141
 31
0.0
  0
LINE
  5
1768
  8
0
 62
     0
 10
96.622958196195015
 20
216.7998325724877
 30
0.0
 11
97.334970204427407
 21
216.08782056425531
 31
0.0
  0
LINE
  5
1769
  8
0
 62
     0
 10
98.653657808180881
 20
209.80057044432399
 30
0.0
 11
98.942293970165295
 21
210.08920660630849
 31
0.0
  0
LINE
  5
176A
  8
0
 62
     0
 10
97.531125793047266
 20
209.80057044432399
 30
0.0
 11
98.705075043154196
 21
210.97451969443091
 31
0.0
  0
LINE
  5
176B
  8
0
 62
     0
 10
96.408593777913609
 20
209.80057044432411
 30
0.0
 11
98.467856116143054
 21
211.8598327825535
 31
0.0
  0
LINE
  5
176C
  8
0
 62
     0
 10
95.286061762779966
 20
209.80057044432399
 30
0.0
 11
98.230637189131954
 21
212.745145870676
 31
0.0
  0
LINE
  5
176D
  8
0
 62
     0
 10
94.163529747646336
 20
209.80057044432411
 30
0.0
 11
97.993418262120784
 21
213.6304589587985
 31
0.0
  0
LINE
  5
176E
  8
0
 62
     0
 10
95.438259402472909
 20
212.1978321142843
 30
0.0
 11
97.75619933510967
 21
214.515772046921
 31
0.0
  0
LINE
  5
176F
  8
0
 62
     0
 10
93.040997732512665
 20
209.80057044432399
 30
0.0
 11
93.102170329363474
 21
209.8617430411748
 31
0.0
  0
LINE
  5
1770
  8
0
 62
     0
 10
95.451667701919604
 20
213.33377242886459
 30
0.0
 11
97.518980408098528
 21
215.4010851350435
 31
0.0
  0
LINE
  5
1771
  8
0
 62
     0
 10
95.167527110518535
 20
214.17216385259721
 30
0.0
 11
97.281761481087415
 21
216.28639822316609
 31
0.0
  0
LINE
  5
1772
  8
0
 62
     0
 10
94.705953027606398
 20
214.8331217848187
 30
0.0
 11
97.044542554076273
 21
217.17171131128859
 31
0.0
  0
LINE
  5
1773
  8
0
 62
     0
 10
94.092772023824779
 20
215.34247279617071
 30
0.0
 11
94.380176088818615
 21
215.6298768611646
 31
0.0
  0
LINE
  5
1774
  8
0
 62
     0
 10
93.315274051380484
 20
215.68750683886009
 30
0.0
 11
93.428337656844619
 21
215.80057044432419
 31
0.0
  0
ENDBLK
  5
1776
  8
0
  0
BLOCK
  8
0
  2
*X85
 70
     1
 10
0.0
 20
0.0
 30
0.0
  3
*X85
  1

  0
LINE
  5
1778
  8
0
 62
     0
 10
89.353326594783056
 20
1.7134745243324041
 30
0.0
 11
89.366801119048702
 21
1.700000000066751
 31
0.0
  0
LINE
  5
1779
  8
0
 62
     0
 10
90.287091698600705
 20
1.9022414356483841
 30
0.0
 11
90.489333134182317
 21
1.7000000000667681
 31
0.0
  0
LINE
  5
177A
  8
0
 62
     0
 10
91.0615711568758
 20
2.2502939925069319
 30
0.0
 11
91.61186514931596
 21
1.7000000000667761
 31
0.0
  0
LINE
  5
177B
  8
0
 62
     0
 10
91.712627153144865
 20
2.721770011371532
 30
0.0
 11
92.734397164449604
 21
1.7000000000667861
 31
0.0
  0
LINE
  5
177C
  8
0
 62
     0
 10
92.252002619291744
 20
3.304926560358278
 30
0.0
 11
93.856929179583204
 21
1.7000000000668001
 31
0.0
  0
LINE
  5
177D
  8
0
 62
     0
 10
92.676983322754737
 20
4.0024778720289218
 30
0.0
 11
94.979461194716833
 21
1.7000000000668081
 31
0.0
  0
LINE
  5
177E
  8
0
 62
     0
 10
92.968404936196535
 20
4.8335882737207641
 30
0.0
 11
97.114788212179377
 21
0.6872049977379433
 31
0.0
  0
LINE
  5
177F
  8
0
 62
     0
 10
93.072221087143404
 20
5.852304137907562
 30
0.0
 11
97.352007139190505
 21
1.5725180858604579
 31
0.0
  0
LINE
  5
1780
  8
0
 62
     0
 10
89.123954780726933
 20
9.8005704443240447
 30
0.0
 11
89.125239814978244
 21
9.7992854100727165
 31
0.0
  0
LINE
  5
1781
  8
0
 62
     0
 10
92.777949874405905
 20
7.2691073657786802
 30
0.0
 11
97.589226066201633
 21
2.4578311739829699
 31
0.0
  0
LINE
  5
1782
  8
0
 62
     0
 10
90.246486795860548
 20
9.8005704443240447
 30
0.0
 11
90.542043042849372
 21
9.5050141973352353
 31
0.0
  0
LINE
  5
1783
  8
0
 62
     0
 10
91.369018810994191
 20
9.8005704443240482
 30
0.0
 11
97.826444993212746
 21
3.3431442621054961
 31
0.0
  0
LINE
  5
1784
  8
0
 62
     0
 10
92.491550826127849
 20
9.8005704443240447
 30
0.0
 11
98.063663920223902
 21
4.2284573502279983
 31
0.0
  0
LINE
  5
1785
  8
0
 62
     0
 10
93.614082841261492
 20
9.8005704443240553
 30
0.0
 11
98.300882847235016
 21
5.113770438350528
 31
0.0
  0
LINE
  5
1786
  8
0
 62
     0
 10
94.736614856395136
 20
9.8005704443240447
 30
0.0
 11
98.538101774246144
 21
5.9990835264730364
 31
0.0
  0
LINE
  5
1787
  8
0
 62
     0
 10
95.859146871528765
 20
9.8005704443240553
 30
0.0
 11
98.775320701257272
 21
6.8843966145955511
 31
0.0
  0
LINE
  5
1788
  8
0
 62
     0
 10
96.981678886662422
 20
9.8005704443240482
 30
0.0
 11
99.012539628268414
 21
7.7697097027180604
 31
0.0
  0
LINE
  5
1789
  8
0
 62
     0
 10
98.104210901796066
 20
9.8005704443240518
 30
0.0
 11
99.249758555279541
 21
8.6550227908405901
 31
0.0
  0
LINE
  5
178A
  8
0
 62
     0
 10
99.226742916929695
 20
9.8005704443240482
 30
0.0
 11
99.486977482290655
 21
9.5403358789630879
 31
0.0
  0
LINE
  5
178B
  8
0
 62
     0
 10
96.990975601889843
 20
0.3748147852031352
 30
0.0
 11
97.045764019172836
 21
0.4296032024861276
 31
0.0
  0
LINE
  5
178C
  8
0
 62
     0
 10
96.459173480981605
 20
0.9655446794285396
 30
0.0
 11
97.456639253273096
 21
1.9630104517200231
 31
0.0
  0
LINE
  5
178D
  8
0
 62
     0
 10
95.897907473414733
 20
1.5268106869953251
 30
0.0
 11
97.867514487373342
 21
3.496417700953919
 31
0.0
  0
LINE
  5
178E
  8
0
 62
     0
 10
94.948564771352594
 20
1.7000000000668081
 30
0.0
 11
98.278389721473587
 21
5.0298249501878161
 31
0.0
  0
LINE
  5
178F
  8
0
 62
     0
 10
93.826032756218936
 20
1.7000000000668001
 30
0.0
 11
98.689264955573833
 21
6.5632321994217051
 31
0.0
  0
LINE
  5
1790
  8
0
 62
     0
 10
92.703500741085293
 20
1.700000000066793
 30
0.0
 11
99.100140189674093
 21
8.0966394486556013
 31
0.0
  0
LINE
  5
1791
  8
0
 62
     0
 10
91.580968725951635
 20
1.700000000066779
 30
0.0
 11
99.511015423774325
 21
9.6300466978894832
 31
0.0
  0
LINE
  5
1792
  8
0
 62
     0
 10
92.590425655387904
 20
3.831988944636691
 30
0.0
 11
98.55900715507525
 21
9.8005704443240447
 31
0.0
  0
LINE
  5
1793
  8
0
 62
     0
 10
90.458436710817949
 20
1.700000000066765
 30
0.0
 11
90.941517176824775
 21
2.1830804660735761
 31
0.0
  0
LINE
  5
1794
  8
0
 62
     0
 10
93.060380629610506
 20
5.4244759339929507
 30
0.0
 11
97.436475139941621
 21
9.8005704443240447
 31
0.0
  0
LINE
  5
1795
  8
0
 62
     0
 10
89.33590469568432
 20
1.700000000066751
 30
0.0
 11
89.349030187468514
 21
1.7131254918509591
 31
0.0
  0
LINE
  5
1796
  8
0
 62
     0
 10
93.005069600014124
 20
6.4916969195301979
 30
0.0
 11
96.313943124807963
 21
9.8005704443240518
 31
0.0
  0
LINE
  5
1797
  8
0
 62
     0
 10
92.743192898304699
 20
7.3523522329544164
 30
0.0
 11
95.191411109674306
 21
9.8005704443240376
 31
0.0
  0
LINE
  5
1798
  8
0
 62
     0
 10
92.341317524698212
 20
8.0730088744815802
 30
0.0
 11
94.068879094540677
 21
9.8005704443240447
 31
0.0
  0
LINE
  5
1799
  8
0
 62
     0
 10
91.822919715215221
 20
8.6771430801322467
 30
0.0
 11
92.946347079407033
 21
9.8005704443240447
 31
0.0
  0
LINE
  5
179A
  8
0
 62
     0
 10
91.193366114113076
 20
9.1701214941637446
 30
0.0
 11
91.823815064273376
 21
9.8005704443240518
 31
0.0
  0
LINE
  5
179B
  8
0
 62
     0
 10
90.443935904004348
 20
9.5432232991886465
 30
0.0
 11
90.701283049139747
 21
9.8005704443240518
 31
0.0
  0
LINE
  5
179C
  8
0
 62
     0
 10
89.545001109032214
 20
9.7668205193501691
 30
0.0
 11
89.578751034006103
 21
9.8005704443240518
 31
0.0
  0
ENDBLK
  5
179E
  8
0
  0
BLOCK
  8
0
  2
*X86
 70
     1
 10
0.0
 20
0.0
 30
0.0
  3
*X86
  1

  0
LINE
  5
17A0
  8
0
 62
     0
 10
92.115011289436978
 20
3.4625042673194142
 30
0.0
 11
92.511017559675864
 21
3.6911385940426178
 31
0.0
  0
LINE
  5
17A1
  8
0
 62
     0
 10
90.052788296675288
 20
2.271879267319413
 30
0.0
 11
90.740195960929185
 21
2.6687542673194118
 31
0.0
  0
LINE
  5
17A2
  8
0
 62
     0
 10
91.427603789437001
 20
4.6531289828233291
 30
0.0
 11
92.115011453690883
 21
5.0500039828233279
 31
0.0
  0
LINE
  5
17A3
  8
0
 62
     0
 10
89.365380796675311
 20
3.4625039828233271
 30
0.0
 11
90.052788460929193
 21
3.8593789828233271
 31
0.0
  0
LINE
  5
17A4
  8
0
 62
     0
 10
87.303157803913635
 20
2.2718789828233259
 30
0.0
 11
87.990565468167517
 21
2.668753982823326
 31
0.0
  0
LINE
  5
17A5
  8
0
 62
     0
 10
92.802419282198684
 20
7.0343786983272318
 30
0.0
 11
92.854400685261325
 21
7.0643901753783114
 31
0.0
  0
LINE
  5
17A6
  8
0
 62
     0
 10
90.740196289436994
 20
5.8437536983272311
 30
0.0
 11
91.427603953690891
 21
6.2406286983272299
 31
0.0
  0
LINE
  5
17A7
  8
0
 62
     0
 10
88.677973296675304
 20
4.6531286983272286
 30
0.0
 11
89.365380960929201
 21
5.0500036983272292
 31
0.0
  0
LINE
  5
17A8
  8
0
 62
     0
 10
86.615750303913615
 20
3.4625036983272279
 30
0.0
 11
87.303157968167525
 21
3.859378698327228
 31
0.0
  0
LINE
  5
17A9
  8
0
 62
     0
 10
92.115011782198664
 20
8.2250034138311303
 30
0.0
 11
92.193886180689901
 21
8.2705415690322042
 31
0.0
  0
LINE
  5
17AA
  8
0
 62
     0
 10
90.052788789436974
 20
7.0343784138311278
 30
0.0
 11
90.740196453690885
 21
7.4312534138311293
 31
0.0
  0
LINE
  5
17AB
  8
0
 62
     0
 10
87.990565796675298
 20
5.8437534138311271
 30
0.0
 11
88.677973460929195
 21
6.2406284138311268
 31
0.0
  0
LINE
  5
17AC
  8
0
 62
     0
 10
85.928342803913608
 20
4.6531284138311246
 30
0.0
 11
86.615750468167505
 21
5.0500034138311261
 31
0.0
  0
LINE
  5
17AD
  8
0
 62
     0
 10
89.365381289436982
 20
8.2250031293350272
 30
0.0
 11
90.052788953690865
 21
8.6218781293350286
 31
0.0
  0
LINE
  5
17AE
  8
0
 62
     0
 10
87.303158296675306
 20
7.0343781293350283
 30
0.0
 11
87.990565960929189
 21
7.4312531293350279
 31
0.0
  0
LINE
  5
17AF
  8
0
 62
     0
 10
85.240935303913588
 20
5.8437531293350258
 30
0.0
 11
85.928342968167499
 21
6.2406281293350272
 31
0.0
  0
LINE
  5
17B0
  8
0
 62
     0
 10
88.67797378943699
 20
9.4156278448389266
 30
0.0
 11
89.325189699001967
 21
9.7892981244500756
 31
0.0
  0
LINE
  5
17B1
  8
0
 62
     0
 10
86.6157507966753
 20
8.2250028448389259
 30
0.0
 11
87.303158460929197
 21
8.6218778448389255
 31
0.0
  0
LINE
  5
17B2
  8
0
 62
     0
 10
86.615746854581744
 20
2.6687403270106498
 30
0.0
 11
87.303154518835655
 21
2.271865327010651
 31
0.0
  0
LINE
  5
17B3
  8
0
 62
     0
 10
89.365377347343426
 20
2.6687400425145542
 30
0.0
 11
90.052785011597337
 21
2.2718650425145541
 31
0.0
  0
LINE
  5
17B4
  8
0
 62
     0
 10
87.30315435458175
 20
3.8593650425145531
 30
0.0
 11
87.990562018835647
 21
3.4624900425145531
 31
0.0
  0
LINE
  5
17B5
  8
0
 62
     0
 10
85.24093136182006
 20
5.0499900425145521
 30
0.0
 11
85.928339026073957
 21
4.6531150425145524
 31
0.0
  0
LINE
  5
17B6
  8
0
 62
     0
 10
90.052784847343432
 20
3.8593647580184549
 30
0.0
 11
90.740192511597314
 21
3.4624897580184548
 31
0.0
  0
LINE
  5
17B7
  8
0
 62
     0
 10
87.990561854581756
 20
5.0499897580184543
 30
0.0
 11
88.677969518835638
 21
4.6531147580184538
 31
0.0
  0
LINE
  5
17B8
  8
0
 62
     0
 10
85.928338861820038
 20
6.2406147580184532
 30
0.0
 11
86.615746526073949
 21
5.8437397580184527
 31
0.0
  0
LINE
  5
17B9
  8
0
 62
     0
 10
90.740192347343424
 20
5.0499894735223521
 30
0.0
 11
91.427600011597335
 21
4.6531144735223533
 31
0.0
  0
LINE
  5
17BA
  8
0
 62
     0
 10
88.677969354581748
 20
6.240614473522351
 30
0.0
 11
89.365377018835645
 21
5.8437394735223522
 31
0.0
  0
LINE
  5
17BB
  8
0
 62
     0
 10
86.615746361820058
 20
7.4312394735223499
 30
0.0
 11
87.303154026073955
 21
7.0343644735223512
 31
0.0
  0
LINE
  5
17BC
  8
0
 62
     0
 10
91.42759984734343
 20
6.2406141890262647
 30
0.0
 11
92.115007511597327
 21
5.8437391890262651
 31
0.0
  0
LINE
  5
17BD
  8
0
 62
     0
 10
89.365376854581754
 20
7.4312391890262637
 30
0.0
 11
90.052784518835637
 21
7.034364189026264
 31
0.0
  0
LINE
  5
17BE
  8
0
 62
     0
 10
87.303153861820036
 20
8.6218641890262635
 30
0.0
 11
87.990561526073947
 21
8.2249891890262639
 31
0.0
  0
LINE
  5
17BF
  8
0
 62
     0
 10
92.115007347343408
 20
7.4312389045301721
 30
0.0
 11
92.802415011597319
 21
7.0343639045301716
 31
0.0
  0
LINE
  5
17C0
  8
0
 62
     0
 10
90.052784354581732
 20
8.621863904530171
 30
0.0
 11
90.740192018835629
 21
8.2249889045301714
 31
0.0
  0
LINE
  5
17C1
  8
0
 62
     0
 10
88.169000916957046
 20
9.7094667793377454
 30
0.0
 11
88.677969026073924
 21
9.4156139045301703
 31
0.0
  0
LINE
  5
17C2
  8
0
 62
     0
 10
92.114996999347866
 20
7.43124999987793
 30
0.0
 11
92.114996999347866
 21
8.2249999998779302
 31
0.0
  0
LINE
  5
17C3
  8
0
 62
     0
 10
92.114996999347866
 20
5.0499999998779312
 30
0.0
 11
92.114996999347866
 21
5.8437499998779314
 31
0.0
  0
LINE
  5
17C4
  8
0
 62
     0
 10
92.114996999347866
 20
3.133850448011013
 30
0.0
 11
92.114996999347866
 21
3.4624999998779309
 31
0.0
  0
LINE
  5
17C5
  8
0
 62
     0
 10
90.740181999347868
 20
7.4312499998779318
 30
0.0
 11
90.740181999347868
 21
8.2249999998779302
 31
0.0
  0
LINE
  5
17C6
  8
0
 62
     0
 10
90.740181999347868
 20
5.049999999877933
 30
0.0
 11
90.740181999347868
 21
5.8437499998779332
 31
0.0
  0
LINE
  5
17C7
  8
0
 62
     0
 10
90.740181999347868
 20
2.6687499998779329
 30
0.0
 11
90.740181999347868
 21
3.4624999998779331
 31
0.0
  0
LINE
  5
17C8
  8
0
 62
     0
 10
89.36536699934787
 20
7.4312499998779344
 30
0.0
 11
89.36536699934787
 21
8.2249999998779337
 31
0.0
  0
LINE
  5
17C9
  8
0
 62
     0
 10
89.36536699934787
 20
5.0499999998779339
 30
0.0
 11
89.36536699934787
 21
5.8437499998779341
 31
0.0
  0
LINE
  5
17CA
  8
0
 62
     0
 10
89.36536699934787
 20
2.6687499998779352
 30
0.0
 11
89.36536699934787
 21
3.4624999998779349
 31
0.0
  0
LINE
  5
17CB
  8
0
 62
     0
 10
87.990551999347872
 20
7.4312499998779344
 30
0.0
 11
87.990551999347872
 21
8.2249999998779337
 31
0.0
  0
LINE
  5
17CC
  8
0
 62
     0
 10
87.990551999347872
 20
5.0499999998779339
 30
0.0
 11
87.990551999347872
 21
5.8437499998779341
 31
0.0
  0
LINE
  5
17CD
  8
0
 62
     0
 10
87.990551999347872
 20
2.6687499998779352
 30
0.0
 11
87.990551999347872
 21
3.4624999998779349
 31
0.0
  0
LINE
  5
17CE
  8
0
 62
     0
 10
86.615736999347874
 20
7.4312499998779318
 30
0.0
 11
86.615736999347874
 21
8.2249999998779302
 31
0.0
  0
LINE
  5
17CF
  8
0
 62
     0
 10
86.615736999347874
 20
5.049999999877933
 30
0.0
 11
86.615736999347874
 21
5.8437499998779332
 31
0.0
  0
LINE
  5
17D0
  8
0
 62
     0
 10
86.615736999347874
 20
2.6687499998779329
 30
0.0
 11
86.615736999347874
 21
3.4624999998779331
 31
0.0
  0
LINE
  5
17D1
  8
0
 62
     0
 10
85.240921999347876
 20
5.0499999998779339
 30
0.0
 11
85.240921999347876
 21
5.8437499998779341
 31
0.0
  0
ENDBLK
  5
17D3
  8
0
  0
BLOCK
  8
0
  2
*U87
 70
     1
 10
0.0
 20
0.0
 30
0.0
  3
*U87
  1

  0
TEXT
  5
17F5
  8
SAPA_MATT
 62
     2
 10
150.9994319994305
 20
102.750570444324
 30
0.0
 40
3.0
  1
197-202
 50
90.0
  7
ISO
  0
ENDBLK
  5
17F7
  8
0
  0
BLOCK
  8
0
  2
*U88
 70
     1
 10
0.0
 20
0.0
 30
0.0
  3
*U88
  1

  0
TEXT
  5
17F9
  8
SAPA_MATT
 62
     2
 10
23.899431999382418
 20
106.99999999680961
 30
0.0
 40
3.0
  1
52
  7
ISO
  0
ENDBLK
  5
17FB
  8
0
  0
BLOCK
  8
0
  2
*U89
 70
     1
 10
0.0
 20
0.0
 30
0.0
  3
*U89
  1

  0
TEXT
  5
17FD
  8
SAPA_MATT
 62
     2
 10
-34.000568000652102
 20
40.899999998401192
 30
0.0
 40
3.0
  1
86
 50
90.0
  7
ISO
  0
ENDBLK
  5
17FF
  8
0
  0
BLOCK
  8
0
  2
*U90
 70
     1
 10
0.0
 20
0.0
 30
0.0
  3
*U90
  1

  0
TEXT
  5
1801
  8
SAPA_MATT
 62
     2
 10
46.400454091644853
 20
-18.9999999999572
 30
0.0
 40
3.0
  1
97
  7
ISO
  0
ENDBLK
  5
1803
  8
0
  0
ENDSEC
  0
SECTION
  2
ENTITIES
  0
LINE
  5
923
  8
SAPA_ANSLUTNING
 10
131.99943199943061
 20
9.8005704443239612
 30
0.0
 11
71.999431999447637
 21
9.8005704443239487
 31
0.0
  0
LINE
  5
924
  8
SAPA_ANSLUTNING
 10
71.99943199944677
 20
10.4005704442291
 30
0.0
 11
131.99943199943061
 21
10.40057044432395
 31
0.0
  0
LINE
  5
926
  8
SAPA_ANSLUTNING
 10
131.9994319994305
 20
209.80057044432399
 30
0.0
 11
71.99943199930334
 21
209.80057044432399
 31
0.0
  0
LINE
  5
927
  8
SAPA_ANSLUTNING
 10
71.999431999304193
 20
209.2005704442245
 30
0.0
 11
131.9994319994305
 21
209.200570444324
 31
0.0
  0
CIRCLE
  5
928
  8
SAPA_ANSLUTNING
 10
89.023220899266732
 20
5.7502852221952976
 30
0.0
 40
4.0502852221286458
  0
LINE
  5
929
  8
SAPA_ANSLUTNING
 10
96.990231839513797
 20
0.222354286540881
 30
0.0
 11
99.556707123922465
 21
9.8005704443239487
 31
0.0
  0
CIRCLE
  5
92C
  8
SAPA_ANSLUTNING
 10
92.499431999324258
 20
212.80057044432459
 30
0.0
 40
3.0000000000000848
1001
ACAD
1000
ASC_BOUNDS
1002
{
1070
    19
1005
F8A
1002
}
  0
LINE
  5
92D
  8
SAPA_ANSLUTNING
 10
96.989209747206587
 20
217.37821615785401
 30
0.0
 11
99.019633796676146
 21
209.80057044432399
 31
0.0
  0
LINE
  5
92F
  8
SAPA_ANSLUTNING
 10
71.99943199930334
 20
209.80057044432399
 30
0.0
 11
71.999431999447637
 21
9.8005704443239487
 31
0.0
  0
TEXT
  5
933
  8
SAPA_ARTIKELNR
 10
43.31935461438843
 20
-6.1116793964392846
 30
0.0
 40
3.5
  1
86117
 50
180.0
 51
180.0
  7
ISO
 71
     6
 72
     4
 11
48.744354614388421
 21
-4.3616793964392864
 31
0.0
  0
TEXT
  5
934
  8
SAPA_ARTIKELNR
 10
4.9732462433236684
 20
88.005333496904115
 30
0.0
 40
3.5
  1
42728
 50
180.0
 51
180.0
  7
ISO
 71
     6
 72
     4
 11
11.273246243323671
 21
89.755333496904115
 31
0.0
  0
TEXT
  5
936
  8
SAPA_ARTIKELNR
 10
61.995270100524877
 20
70.511676976216151
 30
0.0
 40
3.5
  1
42793
 50
270.0
 51
180.0
  7
ISO
 71
     6
 72
     4
 11
60.24527010052487
 21
76.811676976216134
 31
0.0
  0
POLYLINE
  5
9C4
  8
SAPA_ANSLUTNING
 66
     1
 10
0.0
 20
0.0
 30
0.0
  0
VERTEX
  5
1061
  8
SAPA_ANSLUTNING
 10
59.302032393883522
 20
108.71608634924171
 30
0.0
  0
VERTEX
  5
1062
  8
SAPA_ANSLUTNING
 10
67.793431704363073
 20
108.71608634924171
 30
0.0
 42
-0.9999999999999998
  0
VERTEX
  5
1063
  8
SAPA_ANSLUTNING
 10
67.793431704363073
 20
100.30408575907759
 30
0.0
  0
VERTEX
  5
1064
  8
SAPA_ANSLUTNING
 10
59.302032393883628
 20
100.30408575907749
 30
0.0
 42
0.9999999999999998
  0
VERTEX
  5
1065
  8
SAPA_ANSLUTNING
 10
59.302032393883628
 20
91.892085168902554
 30
0.0
  0
VERTEX
  5
1066
  8
SAPA_ANSLUTNING
 10
67.793431704363186
 20
91.892085168902597
 30
0.0
 42
-0.9999999999999998
  0
VERTEX
  5
1067
  8
SAPA_ANSLUTNING
 10
67.793431704363186
 20
83.480084578738499
 30
0.0
  0
VERTEX
  5
1068
  8
SAPA_ANSLUTNING
 10
60.886396368861888
 20
83.480084578738499
 30
0.0
 42
0.9999999999999998
  0
VERTEX
  5
1069
  8
SAPA_ANSLUTNING
 10
60.886396368861888
 20
75.068083988563515
 30
0.0
  0
VERTEX
  5
106A
  8
SAPA_ANSLUTNING
 10
67.793431704363186
 20
75.068083988563501
 30
0.0
 42
-0.9999999999999998
  0
VERTEX
  5
106B
  8
SAPA_ANSLUTNING
 10
67.793431704363186
 20
66.656083398399403
 30
0.0
  0
VERTEX
  5
106C
  8
SAPA_ANSLUTNING
 10
55.900309927541862
 20
66.656083398399389
 30
0.0
 42
0.9999999999999998
  0
VERTEX
  5
106D
  8
SAPA_ANSLUTNING
 10
55.900309927541862
 20
58.244082808224398
 30
0.0
  0
VERTEX
  5
106E
  8
SAPA_ANSLUTNING
 10
67.793431704363186
 20
58.244082808224391
 30
0.0
 42
-0.9999999999999998
  0
VERTEX
  5
106F
  8
SAPA_ANSLUTNING
 10
67.793431704363186
 20
49.832082218060293
 30
0.0
  0
VERTEX
  5
1070
  8
SAPA_ANSLUTNING
 10
55.900309927541862
 20
49.832082218060293
 30
0.0
 42
0.9999999999999998
  0
VERTEX
  5
1071
  8
SAPA_ANSLUTNING
 10
55.900309927541862
 20
41.420081627885281
 30
0.0
  0
VERTEX
  5
1072
  8
SAPA_ANSLUTNING
 10
67.793431704363186
 20
41.420081627885281
 30
0.0
 42
-0.9999999999999998
  0
VERTEX
  5
1073
  8
SAPA_ANSLUTNING
 10
67.793431704363186
 20
33.008081037721183
 30
0.0
  0
VERTEX
  5
1074
  8
SAPA_ANSLUTNING
 10
55.900309927541862
 20
33.008081037721183
 30
0.0
 42
0.9999999999999998
  0
VERTEX
  5
1075
  8
SAPA_ANSLUTNING
 10
55.900309927541862
 20
24.596080447546171
 30
0.0
  0
VERTEX
  5
1076
  8
SAPA_ANSLUTNING
 10
67.793431704363186
 20
24.596080447546179
 30
0.0
 42
-0.9999999999999998
  0
VERTEX
  5
1077
  8
SAPA_ANSLUTNING
 10
67.793431704363186
 20
16.184079857382081
 30
0.0
  0
VERTEX
  5
1078
  8
SAPA_ANSLUTNING
 10
55.900309927541862
 20
16.184079857382081
 30
0.0
  0
SEQEND
  5
1079
  8
SAPA_ANSLUTNING
  0
TEXT
  5
A98
  8
SAPA_ARTIKELNR
 10
68.857666078608773
 20
220.21307713613879
 30
0.0
 40
3.5
  1
42880
 50
180.0
 51
180.0
  7
ISO
 71
     6
 72
     4
 11
75.15766607860877
 21
221.96307713613879
 31
0.0
  0
POLYLINE
  5
F44
  8
SAPA_PROFIL
 66
     1
 10
0.0
 20
0.0
 30
0.0
 70
     1
  0
VERTEX
  5
1391
  8
SAPA_PROFIL
 10
54.9298133330431
 20
87.707734161428107
 30
0.0
 42
0.6370702608040425
  0
VERTEX
  5
1392
  8
SAPA_PROFIL
 10
54.700000000106172
 20
88.200570444332385
 30
0.0
  0
VERTEX
  5
1393
  8
SAPA_PROFIL
 10
54.476324816301869
 20
88.200570444332413
 30
0.0
 42
-0.6370702608052643
  0
VERTEX
  5
1394
  8
SAPA_PROFIL
 10
54.24651148336504
 20
88.693406727236749
 30
0.0
  0
VERTEX
  5
1395
  8
SAPA_PROFIL
 10
54.929813333043221
 20
89.507734161428004
 30
0.0
 42
0.6370702608045286
  0
VERTEX
  5
1396
  8
SAPA_PROFIL
 10
54.700000000106172
 20
90.000570444332325
 30
0.0
  0
VERTEX
  5
1397
  8
SAPA_PROFIL
 10
54.476324816301869
 20
90.000570444332325
 30
0.0
 42
-0.6370702608054076
  0
VERTEX
  5
1398
  8
SAPA_PROFIL
 10
54.24651148336504
 20
90.493406727236916
 30
0.0
  0
VERTEX
  5
1399
  8
SAPA_PROFIL
 10
54.929813333043022
 20
91.307734161427902
 30
0.0
 42
0.6370702608048892
  0
VERTEX
  5
139A
  8
SAPA_PROFIL
 10
54.700000000106172
 20
91.800570444332536
 30
0.0
  0
VERTEX
  5
139B
  8
SAPA_PROFIL
 10
54.476324816302103
 20
91.800570444332379
 30
0.0
 42
-0.6370702608051136
  0
VERTEX
  5
139C
  8
SAPA_PROFIL
 10
54.24651148336504
 20
92.293406727236885
 30
0.0
  0
VERTEX
  5
139D
  8
SAPA_PROFIL
 10
54.929813333043022
 20
93.107734161427857
 30
0.0
 42
0.6370702608048892
  0
VERTEX
  5
139E
  8
SAPA_PROFIL
 10
54.700000000106172
 20
93.600570444332476
 30
0.0
  0
VERTEX
  5
139F
  8
SAPA_PROFIL
 10
54.299999999971043
 20
93.600570444332703
 30
0.0
 42
-0.4142135623708974
  0
VERTEX
  5
13A0
  8
SAPA_PROFIL
 10
53.99999999997128
 20
93.900570444330626
 30
0.0
  0
VERTEX
  5
13A1
  8
SAPA_PROFIL
 10
53.999999999673953
 20
197.10057044433481
 30
0.0
 42
-0.4142135623728287
  0
VERTEX
  5
13A2
  8
SAPA_PROFIL
 10
54.999999999692591
 20
198.10057044434799
 30
0.0
  0
VERTEX
  5
13A3
  8
SAPA_PROFIL
 10
59.599999999567423
 20
198.10057044434899
 30
0.0
 42
0.4142135623730077
  0
VERTEX
  5
13A4
  8
SAPA_PROFIL
 10
59.899999999566717
 20
198.4005704443486
 30
0.0
  0
VERTEX
  5
13A5
  8
SAPA_PROFIL
 10
59.899999999566717
 20
200.70057044434839
 30
0.0
 42
0.4142135623730951
  0
VERTEX
  5
13A6
  8
SAPA_PROFIL
 10
59.599999999566542
 20
201.0005704443486
 30
0.0
  0
VERTEX
  5
13A7
  8
SAPA_PROFIL
 10
59.099999999567437
 20
201.0005704443486
 30
0.0
 42
0.4142135623730951
  0
VERTEX
  5
13A8
  8
SAPA_PROFIL
 10
58.799999999567262
 20
200.70057044434839
 30
0.0
  0
VERTEX
  5
13A9
  8
SAPA_PROFIL
 10
58.79999999956712
 20
200.36394351971859
 30
0.0
 42
-0.553524574347029
  0
VERTEX
  5
13AA
  8
SAPA_PROFIL
 10
54.48944578800819
 20
202.13646284240511
 30
0.0
  0
VERTEX
  5
13AB
  8
SAPA_PROFIL
 10
54.776776694700821
 20
202.42379374909731
 30
0.0
 42
0.4142135623731421
  0
VERTEX
  5
13AC
  8
SAPA_PROFIL
 10
54.776776694700857
 20
202.77734713969059
 30
0.0
  0
VERTEX
  5
13AD
  8
SAPA_PROFIL
 10
54.489445788018323
 20
203.0646780463733
 30
0.0
 42
-0.5535245743365356
  0
VERTEX
  5
13AE
  8
SAPA_PROFIL
 10
58.799999999567262
 20
204.83719736898891
 30
0.0
  0
VERTEX
  5
13AF
  8
SAPA_PROFIL
 10
58.799999999567262
 20
204.50057044434851
 30
0.0
 42
0.4142135623730951
  0
VERTEX
  5
13B0
  8
SAPA_PROFIL
 10
59.099999999567437
 20
204.20057044434839
 30
0.0
  0
VERTEX
  5
13B1
  8
SAPA_PROFIL
 10
59.599999999566542
 20
204.20057044434839
 30
0.0
 42
0.4142135623730951
  0
VERTEX
  5
13B2
  8
SAPA_PROFIL
 10
59.899999999566717
 20
204.50057044434851
 30
0.0
  0
VERTEX
  5
13B3
  8
SAPA_PROFIL
 10
59.899999999566717
 20
206.8005704443483
 30
0.0
 42
0.4142135623730744
  0
VERTEX
  5
13B4
  8
SAPA_PROFIL
 10
59.599999999567437
 20
207.10057044434851
 30
0.0
  0
VERTEX
  5
13B5
  8
SAPA_PROFIL
 10
54.999999999648928
 20
207.10057044434851
 30
0.0
 42
-0.4142135623730951
  0
VERTEX
  5
13B6
  8
SAPA_PROFIL
 10
53.999999999674401
 20
208.1005704443312
 30
0.0
  0
VERTEX
  5
13B7
  8
SAPA_PROFIL
 10
53.999999999626773
 20
215.1005704443464
 30
0.0
 42
-0.4142135623752928
  0
VERTEX
  5
13B8
  8
SAPA_PROFIL
 10
54.4999999996271
 20
215.6005704443501
 30
0.0
  0
VERTEX
  5
13B9
  8
SAPA_PROFIL
 10
86.999999999940897
 20
215.60057044432921
 30
0.0
 42
-0.4142135623728287
  0
VERTEX
  5
13BA
  8
SAPA_PROFIL
 10
87.499999999940428
 20
215.10057044432921
 30
0.0
  0
VERTEX
  5
13BB
  8
SAPA_PROFIL
 10
87.499999999940655
 20
210.10057044432369
 30
0.0
 42
0.4142135623728953
  0
VERTEX
  5
13BC
  8
SAPA_PROFIL
 10
87.799999999940596
 20
209.80057044432351
 30
0.0
  0
VERTEX
  5
13BD
  8
SAPA_PROFIL
 10
89.199999999939763
 20
209.80057044432351
 30
0.0
 42
0.4142135623733406
  0
VERTEX
  5
13BE
  8
SAPA_PROFIL
 10
89.499999999939746
 20
210.10057044432409
 30
0.0
  0
VERTEX
  5
13BF
  8
SAPA_PROFIL
 10
89.49999999993247
 20
215.30057044432311
 30
0.0
 42
-0.4142135623736278
  0
VERTEX
  5
13C0
  8
SAPA_PROFIL
 10
89.999999999932484
 20
215.80057044432351
 30
0.0
  0
VERTEX
  5
13C1
  8
SAPA_PROFIL
 10
94.085786437558923
 20
215.8005704443236
 30
0.0
 42
-0.1989123673796446
  0
VERTEX
  5
13C2
  8
SAPA_PROFIL
 10
94.297918471915182
 20
215.7127024786796
 30
0.0
  0
VERTEX
  5
13C3
  8
SAPA_PROFIL
 10
94.56360389686418
 20
215.44701705373009
 30
0.0
 42
0.414213562373048
  0
VERTEX
  5
13C4
  8
SAPA_PROFIL
 10
95.270710678050804
 20
215.44701705373021
 30
0.0
  0
VERTEX
  5
13C5
  8
SAPA_PROFIL
 10
96.91213203428741
 20
217.08843840996721
 30
0.0
 42
0.6681786379187616
  0
VERTEX
  5
13C6
  8
SAPA_PROFIL
 10
96.699999999931606
 20
217.60057044432281
 30
0.0
  0
VERTEX
  5
13C7
  8
SAPA_PROFIL
 10
52.499999999613692
 20
217.60057044435149
 30
0.0
 42
0.4142135623754925
  0
VERTEX
  5
13C8
  8
SAPA_PROFIL
 10
51.999999999613237
 20
217.1005704443478
 30
0.0
  0
VERTEX
  5
13C9
  8
SAPA_PROFIL
 10
52.000000000092072
 20
76.100570444345436
 30
0.0
 42
0.7336498725448476
  0
VERTEX
  5
13CA
  8
SAPA_PROFIL
 10
52.909888712527781
 20
75.814229313130369
 30
0.0
  0
VERTEX
  5
13CB
  8
SAPA_PROFIL
 10
54.945933227566847
 20
78.728765765611001
 30
0.0
 42
0.606441717362567
  0
VERTEX
  5
13CC
  8
SAPA_PROFIL
 10
54.700000000106172
 20
79.200570444332158
 30
0.0
  0
VERTEX
  5
13CD
  8
SAPA_PROFIL
 10
54.476324816301869
 20
79.200570444332129
 30
0.0
 42
-0.6370702608054076
  0
VERTEX
  5
13CE
  8
SAPA_PROFIL
 10
54.24651148336504
 20
79.693406727236734
 30
0.0
  0
VERTEX
  5
13CF
  8
SAPA_PROFIL
 10
54.929813333041892
 20
80.507734161426583
 30
0.0
 42
0.6370702608052336
  0
VERTEX
  5
13D0
  8
SAPA_PROFIL
 10
54.700000000106172
 20
81.000570444332325
 30
0.0
  0
VERTEX
  5
13D1
  8
SAPA_PROFIL
 10
54.476324816301869
 20
81.000570444332311
 30
0.0
 42
-0.6370702608054076
  0
VERTEX
  5
13D2
  8
SAPA_PROFIL
 10
54.24651148336504
 20
81.493406727236945
 30
0.0
  0
VERTEX
  5
13D3
  8
SAPA_PROFIL
 10
54.929813333041892
 20
82.307734161426566
 30
0.0
 42
0.6370702608058605
  0
VERTEX
  5
13D4
  8
SAPA_PROFIL
 10
54.700000000106172
 20
82.800570444332521
 30
0.0
  0
VERTEX
  5
13D5
  8
SAPA_PROFIL
 10
54.476324816302103
 20
82.800570444332379
 30
0.0
 42
-0.6370702608051136
  0
VERTEX
  5
13D6
  8
SAPA_PROFIL
 10
54.24651148336504
 20
83.293406727236885
 30
0.0
  0
VERTEX
  5
13D7
  8
SAPA_PROFIL
 10
54.929813333041942
 20
84.107734161426649
 30
0.0
 42
0.6370702608057057
  0
VERTEX
  5
13D8
  8
SAPA_PROFIL
 10
54.700000000106172
 20
84.600570444332476
 30
0.0
  0
VERTEX
  5
13D9
  8
SAPA_PROFIL
 10
54.476324816302132
 20
84.600570444332106
 30
0.0
 42
-0.6370702608047383
  0
VERTEX
  5
13DA
  8
SAPA_PROFIL
 10
54.24651148336504
 20
85.09340672723684
 30
0.0
  0
VERTEX
  5
13DB
  8
SAPA_PROFIL
 10
54.929813333043022
 20
85.907734161427811
 30
0.0
 42
0.6370702608048892
  0
VERTEX
  5
13DC
  8
SAPA_PROFIL
 10
54.700000000106172
 20
86.40057044433243
 30
0.0
  0
VERTEX
  5
13DD
  8
SAPA_PROFIL
 10
54.476324816301869
 20
86.400570444332374
 30
0.0
 42
-0.6370702608052951
  0
VERTEX
  5
13DE
  8
SAPA_PROFIL
 10
54.24651148336504
 20
86.893406727236794
 30
0.0
  0
SEQEND
  5
13DF
  8
SAPA_PROFIL
  0
POLYLINE
  5
F45
  8
SAPA_PROFIL
 66
     1
 10
0.0
 20
0.0
 30
0.0
 70
     1
  0
VERTEX
  5
13E0
  8
SAPA_PROFIL
 10
21.499999999851919
 20
83.104759985975946
 30
0.0
  0
VERTEX
  5
13E1
  8
SAPA_PROFIL
 10
21.499999999851919
 20
82.862216048128801
 30
0.0
 42
0.2011813370902256
  0
VERTEX
  5
13E2
  8
SAPA_PROFIL
 10
21.559818146991969
 20
82.719565958298233
 30
0.0
  0
VERTEX
  5
13E3
  8
SAPA_PROFIL
 10
22.486565505721671
 20
81.808853865274344
 30
0.0
  0
VERTEX
  5
13E4
  8
SAPA_PROFIL
 10
23.999999999853738
 20
81.822061408017532
 30
0.0
 42
-0.4931454260356012
  0
VERTEX
  5
13E5
  8
SAPA_PROFIL
 10
25.571264960091579
 20
82.042888297065176
 30
0.0
  0
VERTEX
  5
13E6
  8
SAPA_PROFIL
 10
26.638914796915909
 20
80.993711724452396
 30
0.0
 42
-0.6681786379164681
  0
VERTEX
  5
13E7
  8
SAPA_PROFIL
 10
26.497545916462229
 20
80.643811466967463
 30
0.0
  0
VERTEX
  5
13E8
  8
SAPA_PROFIL
 10
21.999999999851919
 20
80.604561978370157
 30
0.0
  0
VERTEX
  5
13E9
  8
SAPA_PROFIL
 10
19.88590714826222
 20
82.682075237599918
 30
0.0
 42
0.2038501166358263
  0
VERTEX
  5
13EA
  8
SAPA_PROFIL
 10
19.521600368844421
 20
82.825258094205935
 30
0.0
  0
VERTEX
  5
13EB
  8
SAPA_PROFIL
 10
4.4168871162499954
 20
82.406631984917055
 30
0.0
 42
0.4061212134736873
  0
VERTEX
  5
13EC
  8
SAPA_PROFIL
 10
1.499999999858403
 20
79.407783497817604
 30
0.0
  0
VERTEX
  5
13ED
  8
SAPA_PROFIL
 10
1.499999999858403
 20
67.623592254349546
 30
0.0
 42
0.4142135623730951
  0
VERTEX
  5
13EE
  8
SAPA_PROFIL
 10
1.999999999858403
 20
67.123592254349546
 30
0.0
  0
VERTEX
  5
13EF
  8
SAPA_PROFIL
 10
13.585786437483479
 20
67.123592254349546
 30
0.0
 42
0.198912367379658
  0
VERTEX
  5
13F0
  8
SAPA_PROFIL
 10
14.292893218670031
 20
67.416485473162993
 30
0.0
  0
VERTEX
  5
13F1
  8
SAPA_PROFIL
 10
14.673491992060571
 20
67.797084246553482
 30
0.0
 42
-0.1830252782112529
  0
VERTEX
  5
13F2
  8
SAPA_PROFIL
 10
15.96515980079192
 20
68.379112788301086
 30
0.0
  0
VERTEX
  5
13F3
  8
SAPA_PROFIL
 10
26.398231829597709
 20
69.102177515631624
 30
0.0
 42
-0.668178637923616
  0
VERTEX
  5
13F4
  8
SAPA_PROFIL
 10
26.611614149131299
 20
68.587027025842644
 30
0.0
  0
VERTEX
  5
13F5
  8
SAPA_PROFIL
 10
24.612132034208742
 20
66.587544910920073
 30
0.0
 42
-0.7332303362588345
  0
VERTEX
  5
13F6
  8
SAPA_PROFIL
 10
24.104557673949049
 20
66.851771398577284
 30
0.0
  0
VERTEX
  5
13F7
  8
SAPA_PROFIL
 10
24.213141784735122
 20
67.467582491975691
 30
0.0
 42
0.4663076581593561
  0
VERTEX
  5
13F8
  8
SAPA_PROFIL
 10
23.917699458831692
 20
67.819676945275887
 30
0.0
  0
VERTEX
  5
13F9
  8
SAPA_PROFIL
 10
16.15822233347939
 20
67.088517323395422
 30
0.0
 42
0.183025278211264
  0
VERTEX
  5
13FA
  8
SAPA_PROFIL
 10
15.512388429113679
 20
66.79750305252162
 30
0.0
  0
VERTEX
  5
13FB
  8
SAPA_PROFIL
 10
15.124264068568721
 20
66.409378691976599
 30
0.0
 42
-0.1989123673796518
  0
VERTEX
  5
13FC
  8
SAPA_PROFIL
 10
13.710050506195669
 20
65.823592254349705
 30
0.0
  0
VERTEX
  5
13FD
  8
SAPA_PROFIL
 10
2.2999999998428962
 20
65.823592254349592
 30
0.0
 42
0.4142135623732283
  0
VERTEX
  5
13FE
  8
SAPA_PROFIL
 10
1.7999999998428959
 20
65.323592254349364
 30
0.0
  0
VERTEX
  5
13FF
  8
SAPA_PROFIL
 10
1.7999999998438621
 20
64.123592254350001
 30
0.0
 42
-0.4142135623732062
  0
VERTEX
  5
1400
  8
SAPA_PROFIL
 10
1.4999999998438509
 20
63.823592254349933
 30
0.0
  0
VERTEX
  5
1401
  8
SAPA_PROFIL
 10
0.2999999998583576
 20
63.823592254349592
 30
0.0
 42
-0.4142135623716247
  0
VERTEX
  5
1402
  8
SAPA_PROFIL
 10
-0.0000000001416538
 20
64.12359225435091
 30
0.0
  0
VERTEX
  5
1403
  8
SAPA_PROFIL
 10
-0.0000000001551825
 20
84.099999996672921
 30
0.0
 42
-0.4142135623732938
  0
VERTEX
  5
1404
  8
SAPA_PROFIL
 10
0.1999999998448061
 20
84.299999996672966
 30
0.0
  0
VERTEX
  5
1405
  8
SAPA_PROFIL
 10
21.795376113530612
 20
84.299999996672966
 30
0.0
 42
-0.4210020197690384
  0
VERTEX
  5
1406
  8
SAPA_PROFIL
 10
21.999999999851919
 20
84.100053454628949
 30
0.0
  0
VERTEX
  5
1407
  8
SAPA_PROFIL
 10
21.999999999858399
 20
83.512070291433417
 30
0.0
  0
VERTEX
  5
1408
  8
SAPA_PROFIL
 10
21.699999999858392
 20
83.512070291433417
 30
0.0
 42
0.41421356237322
  0
VERTEX
  5
1409
  8
SAPA_PROFIL
 10
21.49999999985852
 20
83.312070291433372
 30
0.0
  0
VERTEX
  5
140A
  8
SAPA_PROFIL
 10
21.49999999985841
 20
83.094892525963758
 30
0.0
  0
SEQEND
  5
140B
  8
SAPA_PROFIL
  0
CIRCLE
  5
F46
  8
SAPA_PROFIL
 62
     2
 10
3.3366590724380099
 20
3.1894244482570571
 30
0.0
 40
0.8999999999999985
  0
POLYLINE
  5
F47
  8
SAPA_PROFIL
 62
     2
 66
     1
 10
0.0
 20
0.0
 30
0.0
  0
VERTEX
  5
140C
  8
SAPA_PROFIL
 62
     2
 10
1.936659072438033
 20
4.4974308598301027
 30
0.0
  0
VERTEX
  5
140D
  8
SAPA_PROFIL
 62
     2
 10
2.129017492430421
 20
3.4065120496773602
 30
0.0
  0
VERTEX
  5
140E
  8
SAPA_PROFIL
 62
     2
 10
1.697220932528807
 20
3.2908125101574219
 30
0.0
 42
0.4430158954262519
  0
VERTEX
  5
140F
  8
SAPA_PROFIL
 62
     2
 10
1.561743884984707
 20
3.0273360820504531
 30
0.0
  0
VERTEX
  5
1410
  8
SAPA_PROFIL
 62
     2
 10
2.0386920782036659
 20
1.7568483341322569
 30
0.0
 42
0.3125358528825162
  0
VERTEX
  5
1411
  8
SAPA_PROFIL
 62
     2
 10
2.4131737913330649
 20
1.4974308598305579
 30
0.0
  0
VERTEX
  5
1412
  8
SAPA_PROFIL
 62
     2
 10
4.2833291072433886
 20
1.4974308598301029
 30
0.0
 42
0.3125358528825104
  0
VERTEX
  5
1413
  8
SAPA_PROFIL
 62
     2
 10
4.657810820372787
 20
1.7568483341322569
 30
0.0
  0
VERTEX
  5
1414
  8
SAPA_PROFIL
 62
     2
 10
5.1347590135919736
 20
3.0273360820504531
 30
0.0
 42
0.4430158954262519
  0
VERTEX
  5
1415
  8
SAPA_PROFIL
 62
     2
 10
4.9992819660478736
 20
3.2908125101573091
 30
0.0
  0
VERTEX
  5
1416
  8
SAPA_PROFIL
 62
     2
 10
4.5674854061460328
 20
3.4065120496773602
 30
0.0
  0
VERTEX
  5
1417
  8
SAPA_PROFIL
 62
     2
 10
4.7597514492882729
 20
4.4974308598301027
 30
0.0
  0
SEQEND
  5
1418
  8
SAPA_PROFIL
 62
     2
  0
POLYLINE
  5
F48
  8
SAPA_PROFIL
 62
     2
 66
     1
 10
0.0
 20
0.0
 30
0.0
 70
     1
  0
VERTEX
  5
1419
  8
SAPA_PROFIL
 62
     2
 10
1.9482514492883629
 20
4.4974308598301027
 30
0.0
 42
-0.285714285714282
  0
VERTEX
  5
141A
  8
SAPA_PROFIL
 62
     2
 10
4.7482514492883183
 20
4.4974308598301027
 30
0.0
  0
VERTEX
  5
141B
  8
SAPA_PROFIL
 62
     2
 10
6.822031618676192
 20
4.4974308598305583
 30
0.0
 42
0.3882600129940275
  0
VERTEX
  5
141C
  8
SAPA_PROFIL
 62
     2
 10
7.1208331160175931
 20
4.7706415861101164
 30
0.0
  0
VERTEX
  5
141D
  8
SAPA_PROFIL
 62
     2
 10
7.587043039944092
 20
8.6706415861102073
 30
0.0
 42
0.4406523138893894
  0
VERTEX
  5
141E
  8
SAPA_PROFIL
 62
     2
 10
7.2882415426022362
 20
8.9974308598301036
 30
0.0
  0
VERTEX
  5
141F
  8
SAPA_PROFIL
 62
     2
 10
5.578449545681905
 20
8.9974308598301036
 30
0.0
 42
0.3394542588634375
  0
VERTEX
  5
1420
  8
SAPA_PROFIL
 62
     2
 10
5.2886717977953586
 20
8.7750765733611047
 30
0.0
  0
VERTEX
  5
1421
  8
SAPA_PROFIL
 62
     2
 10
5.08629206986393
 20
8.5574907911935156
 30
0.0
 42
-0.3394542588633663
  0
VERTEX
  5
1422
  8
SAPA_PROFIL
 62
     2
 10
4.7965143219771562
 20
8.3351365047245167
 30
0.0
  0
VERTEX
  5
1423
  8
SAPA_PROFIL
 62
     2
 10
1.8999885765992981
 20
8.3351365047245167
 30
0.0
 42
-0.3394542588634373
  0
VERTEX
  5
1424
  8
SAPA_PROFIL
 62
     2
 10
1.6102108287127519
 20
8.5574907911935156
 30
0.0
  0
VERTEX
  5
1425
  8
SAPA_PROFIL
 62
     2
 10
1.407831100781322
 20
8.7750765733611047
 30
0.0
 42
0.3394542588633662
  0
VERTEX
  5
1426
  8
SAPA_PROFIL
 62
     2
 10
1.118053352894548
 20
8.9974308598301036
 30
0.0
  0
VERTEX
  5
1427
  8
SAPA_PROFIL
 62
     2
 10
-0.5917386440255541
 20
8.9974308598301036
 30
0.0
 42
0.4406523138893994
  0
VERTEX
  5
1428
  8
SAPA_PROFIL
 62
     2
 10
-0.8905401413671825
 20
8.6706415861102073
 30
0.0
  0
VERTEX
  5
1429
  8
SAPA_PROFIL
 62
     2
 10
-0.424330217440911
 20
4.7706415861101164
 30
0.0
 42
0.3882600129940462
  0
VERTEX
  5
142A
  8
SAPA_PROFIL
 62
     2
 10
-0.1255287200995099
 20
4.4974308598301027
 30
0.0
  0
VERTEX
  5
142B
  8
SAPA_PROFIL
 62
     2
 10
1.936659072438033
 20
4.4974308598301027
 30
0.0
  0
SEQEND
  5
142C
  8
SAPA_PROFIL
 62
     2
  0
POLYLINE
  5
F49
  8
SAPA_PROFIL
 62
     4
 66
     1
 10
0.0
 20
0.0
 30
0.0
  0
VERTEX
  5
142D
  8
SAPA_PROFIL
 62
     4
 10
24.904095277964469
 20
52.049329119254622
 30
0.0
 42
-0.5571646428658034
  0
VERTEX
  5
142E
  8
SAPA_PROFIL
 62
     4
 10
25.771814192120019
 20
51.512368615117801
 30
0.0
  0
VERTEX
  5
142F
  8
SAPA_PROFIL
 62
     4
 10
25.771814192119571
 20
34.487631378596589
 30
0.0
 42
-0.5571645048035741
  0
VERTEX
  5
1430
  8
SAPA_PROFIL
 62
     4
 10
24.904095504253402
 20
33.950670761635543
 30
0.0
  0
VERTEX
  5
1431
  8
SAPA_PROFIL
 62
     4
 10
23.237954848185371
 20
34.781377849182242
 30
0.0
 42
-0.284385813979063
  0
VERTEX
  5
1432
  8
SAPA_PROFIL
 62
     4
 10
23.07181419211793
 20
35.049858157662591
 30
0.0
  0
VERTEX
  5
1433
  8
SAPA_PROFIL
 62
     4
 10
23.07181419211793
 20
50.950141836051898
 30
0.0
 42
-0.2843858139786238
  0
VERTEX
  5
1434
  8
SAPA_PROFIL
 62
     4
 10
23.237954848184859
 20
51.218622144532169
 30
0.0
  0
VERTEX
  5
1435
  8
SAPA_PROFIL
 62
     4
 10
24.904095504254201
 20
52.049329232079337
 30
0.0
  0
SEQEND
  5
1436
  8
SAPA_PROFIL
 62
     4
  0
POLYLINE
  5
F4A
  8
SAPA_PROFIL
 62
     4
 66
     1
 10
0.0
 20
0.0
 30
0.0
 70
     1
  0
VERTEX
  5
1437
  8
SAPA_PROFIL
 62
     4
 10
22.714982677620348
 20
28.582388812189951
 30
0.0
  0
VERTEX
  5
1438
  8
SAPA_PROFIL
 62
     4
 10
22.308422481616208
 20
28.318365533813932
 30
0.0
 42
0.2539676464751066
  0
VERTEX
  5
1439
  8
SAPA_PROFIL
 62
     4
 10
22.17181419212011
 20
28.066764363429229
 30
0.0
  0
VERTEX
  5
143A
  8
SAPA_PROFIL
 62
     4
 10
22.17181419212011
 20
26.685264778223878
 30
0.0
 42
0.3152987888790479
  0
VERTEX
  5
143B
  8
SAPA_PROFIL
 62
     4
 10
22.50080412045827
 20
26.215418467831569
 30
0.0
  0
VERTEX
  5
143C
  8
SAPA_PROFIL
 62
     4
 10
24.961634310909549
 20
25.319749526922958
 30
0.0
 42
-0.2694959974287434
  0
VERTEX
  5
143D
  8
SAPA_PROFIL
 62
     4
 10
25.154766285253441
 20
25.088230480521599
 30
0.0
 42
-0.0612686379508233
  0
VERTEX
  5
143E
  8
SAPA_PROFIL
 62
     4
 10
25.168349655883961
 20
24.79555504766833
 30
0.0
  0
VERTEX
  5
143F
  8
SAPA_PROFIL
 62
     4
 10
25.370086334612779
 20
24.446136870360061
 30
0.0
 42
-0.5773502691891679
  0
VERTEX
  5
1440
  8
SAPA_PROFIL
 62
     4
 10
25.18822099981822
 20
24.131136870360478
 30
0.0
  0
VERTEX
  5
1441
  8
SAPA_PROFIL
 62
     4
 10
24.9211064716919
 20
24.13113687036024
 30
0.0
  0
VERTEX
  5
1442
  8
SAPA_PROFIL
 62
     4
 10
24.11242301038358
 20
22.732609169725979
 30
0.0
 42
0.1318219888653519
  0
VERTEX
  5
1443
  8
SAPA_PROFIL
 62
     4
 10
24.072130613846191
 20
22.582436067253632
 30
0.0
  0
VERTEX
  5
1444
  8
SAPA_PROFIL
 62
     4
 10
24.072130613852561
 20
22.399999996816849
 30
0.0
 42
0.4142135623724291
  0
VERTEX
  5
1445
  8
SAPA_PROFIL
 62
     4
 10
24.47213061385219
 20
21.99999999681631
 30
0.0
  0
VERTEX
  5
1446
  8
SAPA_PROFIL
 62
     4
 10
27.872130613853191
 20
21.999999996817682
 30
0.0
 42
0.4142135623744271
  0
VERTEX
  5
1447
  8
SAPA_PROFIL
 62
     4
 10
28.272130613854191
 20
22.399999996816849
 30
0.0
  0
VERTEX
  5
1448
  8
SAPA_PROFIL
 62
     4
 10
28.27213061385482
 20
22.579615239088159
 30
0.0
 42
0.1316524975874005
  0
VERTEX
  5
1449
  8
SAPA_PROFIL
 62
     4
 10
28.231938234989229
 20
22.729615239084971
 30
0.0
  0
VERTEX
  5
144A
  8
SAPA_PROFIL
 62
     4
 10
27.305788788336692
 20
24.333753136087228
 30
0.0
 42
-0.1316524975875904
  0
VERTEX
  5
144B
  8
SAPA_PROFIL
 62
     4
 10
27.171814192121928
 20
24.833753136088941
 30
0.0
  0
VERTEX
  5
144C
  8
SAPA_PROFIL
 62
     4
 10
27.171814192121928
 20
25.24999999681631
 30
0.0
 42
-0.4142135623730951
  0
VERTEX
  5
144D
  8
SAPA_PROFIL
 62
     4
 10
28.171814192121928
 20
26.24999999681631
 30
0.0
  0
VERTEX
  5
144E
  8
SAPA_PROFIL
 62
     4
 10
31.1718141921192
 20
26.24999999681631
 30
0.0
 42
0.9999996830128083
  0
VERTEX
  5
144F
  8
SAPA_PROFIL
 62
     4
 10
31.171814192121019
 20
27.24999999681631
 30
0.0
  0
VERTEX
  5
1450
  8
SAPA_PROFIL
 62
     4
 10
28.171814192121019
 20
27.24999999681631
 30
0.0
 42
-0.4142135623730951
  0
VERTEX
  5
1451
  8
SAPA_PROFIL
 62
     4
 10
27.171814192121019
 20
28.24999999681631
 30
0.0
  0
VERTEX
  5
1452
  8
SAPA_PROFIL
 62
     4
 10
27.171814192121019
 20
57.749999996900897
 30
0.0
 42
-0.4142135623730951
  0
VERTEX
  5
1453
  8
SAPA_PROFIL
 62
     4
 10
28.171814192121019
 20
58.74999999690089
 30
0.0
  0
VERTEX
  5
1454
  8
SAPA_PROFIL
 62
     4
 10
31.171814192119211
 20
58.74999999690089
 30
0.0
 42
0.9999999999999998
  0
VERTEX
  5
1455
  8
SAPA_PROFIL
 62
     4
 10
31.171814192119211
 20
59.749999996900897
 30
0.0
  0
VERTEX
  5
1456
  8
SAPA_PROFIL
 62
     4
 10
28.171814192121019
 20
59.749999996900897
 30
0.0
 42
-0.4142135623736278
  0
VERTEX
  5
1457
  8
SAPA_PROFIL
 62
     4
 10
27.171814192121019
 20
60.74999999690089
 30
0.0
  0
VERTEX
  5
1458
  8
SAPA_PROFIL
 62
     4
 10
27.171814192121019
 20
61.166246857627357
 30
0.0
 42
-0.1316524975874375
  0
VERTEX
  5
1459
  8
SAPA_PROFIL
 62
     4
 10
27.305788788337061
 20
61.666246857627549
 30
0.0
  0
VERTEX
  5
145A
  8
SAPA_PROFIL
 62
     4
 10
28.23193823498924
 20
63.270384754629497
 30
0.0
 42
0.1316524975874
  0
VERTEX
  5
145B
  8
SAPA_PROFIL
 62
     4
 10
28.27213061385482
 20
63.42038475462904
 30
0.0
  0
VERTEX
  5
145C
  8
SAPA_PROFIL
 62
     4
 10
28.272130613854191
 20
63.599999996900351
 30
0.0
 42
0.4142135623744271
  0
VERTEX
  5
145D
  8
SAPA_PROFIL
 62
     4
 10
27.872130613853191
 20
63.999999996899533
 30
0.0
  0
VERTEX
  5
145E
  8
SAPA_PROFIL
 62
     4
 10
24.47213061385219
 20
63.999999996900897
 30
0.0
 42
0.4142135623724291
  0
VERTEX
  5
145F
  8
SAPA_PROFIL
 62
     4
 10
24.072130613852561
 20
63.599999996900351
 30
0.0
  0
VERTEX
  5
1460
  8
SAPA_PROFIL
 62
     4
 10
24.072130613846191
 20
63.417563926463572
 30
0.0
 42
0.1318219888653524
  0
VERTEX
  5
1461
  8
SAPA_PROFIL
 62
     4
 10
24.11242301038358
 20
63.267390823991221
 30
0.0
  0
VERTEX
  5
1462
  8
SAPA_PROFIL
 62
     4
 10
24.92110647160791
 20
61.868863123511566
 30
0.0
  0
VERTEX
  5
1463
  8
SAPA_PROFIL
 62
     4
 10
25.188220999820949
 20
61.868863123511566
 30
0.0
 42
-0.577350269189159
  0
VERTEX
  5
1464
  8
SAPA_PROFIL
 62
     4
 10
25.370086334615522
 20
61.553863123511967
 30
0.0
  0
VERTEX
  5
1465
  8
SAPA_PROFIL
 62
     4
 10
25.16834965593841
 20
61.204444946293307
 30
0.0
 42
-0.0612687673629489
  0
VERTEX
  5
1466
  8
SAPA_PROFIL
 62
     4
 10
25.154766285252212
 20
60.911769513193093
 30
0.0
 42
-0.2694959974285039
  0
VERTEX
  5
1467
  8
SAPA_PROFIL
 62
     4
 10
24.961634310908259
 20
60.680250466792572
 30
0.0
  0
VERTEX
  5
1468
  8
SAPA_PROFIL
 62
     4
 10
22.50080412045509
 20
59.784581525882921
 30
0.0
 42
0.3152987888784035
  0
VERTEX
  5
1469
  8
SAPA_PROFIL
 62
     4
 10
22.171814192118511
 20
59.314735215489691
 30
0.0
  0
VERTEX
  5
146A
  8
SAPA_PROFIL
 62
     4
 10
22.17181419212011
 20
57.93323563028526
 30
0.0
 42
0.2539676464741841
  0
VERTEX
  5
146B
  8
SAPA_PROFIL
 62
     4
 10
22.308422481615381
 20
57.681634459901183
 30
0.0
  0
VERTEX
  5
146C
  8
SAPA_PROFIL
 62
     4
 10
22.714982677620359
 20
57.417611181524528
 30
0.0
 42
0.5862177598324623
  0
VERTEX
  5
146D
  8
SAPA_PROFIL
 62
     4
 10
23.171814192116869
 20
57.673352996762873
 30
0.0
  0
VERTEX
  5
146E
  8
SAPA_PROFIL
 62
     4
 10
23.171814192109199
 20
58.61452767727269
 30
0.0
 42
-0.3152987888813165
  0
VERTEX
  5
146F
  8
SAPA_PROFIL
 62
     4
 10
23.500804120445949
 20
59.084373987670453
 30
0.0
  0
VERTEX
  5
1470
  8
SAPA_PROFIL
 62
     4
 10
24.700804120457182
 20
59.521138268794402
 30
0.0
 42
-0.5205670505515651
  0
VERTEX
  5
1471
  8
SAPA_PROFIL
 62
     4
 10
25.371814192119931
 20
59.051291958401173
 30
0.0
  0
VERTEX
  5
1472
  8
SAPA_PROFIL
 62
     4
 10
25.37181419211996
 20
54.034851017732322
 30
0.0
 42
-0.3702522326300203
  0
VERTEX
  5
1473
  8
SAPA_PROFIL
 62
     4
 10
25.117354239454251
 20
53.738327655938988
 30
0.0
 42
-0.0982365330332397
  0
VERTEX
  5
1474
  8
SAPA_PROFIL
 62
     4
 10
23.429667464459239
 20
53.647874897728059
 30
0.0
 42
-0.3735060174783164
  0
VERTEX
  5
1475
  8
SAPA_PROFIL
 62
     4
 10
23.171814192119211
 20
53.944899565639027
 30
0.0
  0
VERTEX
  5
1476
  8
SAPA_PROFIL
 62
     4
 10
23.171814192118291
 20
54.373352996761703
 30
0.0
 42
0.5920056181162531
  0
VERTEX
  5
1477
  8
SAPA_PROFIL
 62
     4
 10
22.710610689590371
 20
54.626361753079102
 30
0.0
  0
VERTEX
  5
1478
  8
SAPA_PROFIL
 62
     4
 10
22.30842248161207
 20
54.365177676923402
 30
0.0
 42
0.2539676464746725
  0
VERTEX
  5
1479
  8
SAPA_PROFIL
 62
     4
 10
22.17181419211671
 20
54.11357650653963
 30
0.0
  0
VERTEX
  5
147A
  8
SAPA_PROFIL
 62
     4
 10
22.171814192118291
 20
31.886423487173939
 30
0.0
 42
0.2539676464741819
  0
VERTEX
  5
147B
  8
SAPA_PROFIL
 62
     4
 10
22.30842248161207
 20
31.63482231679108
 30
0.0
  0
VERTEX
  5
147C
  8
SAPA_PROFIL
 62
     4
 10
22.7106106895904
 20
31.37363824063728
 30
0.0
 42
0.5920055144124249
  0
VERTEX
  5
147D
  8
SAPA_PROFIL
 62
     4
 10
23.171814192118291
 20
31.626646996952779
 30
0.0
  0
VERTEX
  5
147E
  8
SAPA_PROFIL
 62
     4
 10
23.17181416684328
 20
32.055100474243012
 30
0.0
 42
-0.3735060174775405
  0
VERTEX
  5
147F
  8
SAPA_PROFIL
 62
     4
 10
23.42966743918338
 20
32.352125142152687
 30
0.0
 42
-0.0355900683670349
  0
VERTEX
  5
1480
  8
SAPA_PROFIL
 62
     4
 10
24.045541025983169
 20
32.396018706184947
 30
0.0
 42
-0.0624282003873116
  0
VERTEX
  5
1481
  8
SAPA_PROFIL
 62
     4
 10
25.117354214178292
 20
32.261672383942013
 30
0.0
 42
-0.3702522326309292
  0
VERTEX
  5
1482
  8
SAPA_PROFIL
 62
     4
 10
25.371814166844011
 20
31.96514902214863
 30
0.0
  0
VERTEX
  5
1483
  8
SAPA_PROFIL
 62
     4
 10
25.371814192120151
 20
26.948708035315121
 30
0.0
 42
-0.5205670505515692
  0
VERTEX
  5
1484
  8
SAPA_PROFIL
 62
     4
 10
24.700804120457182
 20
26.478861724921899
 30
0.0
  0
VERTEX
  5
1485
  8
SAPA_PROFIL
 62
     4
 10
23.500804120447729
 20
26.91562600604685
 30
0.0
 42
-0.3152987888807539
  0
VERTEX
  5
1486
  8
SAPA_PROFIL
 62
     4
 10
23.171814192110102
 20
27.385472316442701
 30
0.0
  0
VERTEX
  5
1487
  8
SAPA_PROFIL
 62
     4
 10
23.17181419211693
 20
28.32664699695178
 30
0.0
 42
0.5862175119221242
  0
VERTEX
  5
1488
  8
SAPA_PROFIL
 62
     4
 10
22.71498286636179
 20
28.582388927933739
 30
0.0
 42
-0.0000002084758573
  0
SEQEND
  5
1489
  8
SAPA_PROFIL
 62
     4
  0
POLYLINE
  5
F4B
  8
SAPA_PROFIL
 66
     1
 10
0.0
 20
0.0
 30
0.0
 70
     1
  0
VERTEX
  5
148A
  8
SAPA_PROFIL
 10
25.33915408512485
 20
24.445400824861899
 30
0.0
 42
-0.5773502691897539
  0
VERTEX
  5
148B
  8
SAPA_PROFIL
 10
25.156200345014671
 20
24.15124452460719
 30
0.0
  0
VERTEX
  5
148C
  8
SAPA_PROFIL
 10
24.834442616796419
 20
24.16180589083416
 30
0.0
  0
VERTEX
  5
148D
  8
SAPA_PROFIL
 10
23.749878169824679
 20
22.275962198973041
 30
0.0
  0
VERTEX
  5
148E
  8
SAPA_PROFIL
 10
23.691804532835651
 20
22.084579198979331
 30
0.0
 42
0.7625858545243252
  0
VERTEX
  5
148F
  8
SAPA_PROFIL
 10
24.0221306138526
 20
21.89999999678184
 30
0.0
 42
-0.2134217652834343
  0
VERTEX
  5
1490
  8
SAPA_PROFIL
 10
24.245737411602711
 20
21.99999999678198
 30
0.0
  0
VERTEX
  5
1491
  8
SAPA_PROFIL
 10
28.098523816102681
 20
21.999999996852011
 30
0.0
 42
0.4142135623730951
  0
VERTEX
  5
1492
  8
SAPA_PROFIL
 10
28.398523816102632
 20
22.299999996851959
 30
0.0
  0
VERTEX
  5
1493
  8
SAPA_PROFIL
 10
28.398523816102632
 20
22.599999996851921
 30
0.0
  0
VERTEX
  5
1494
  8
SAPA_PROFIL
 10
27.474763385392642
 20
24.19999999685205
 30
0.0
 42
-0.5773502691868622
  0
VERTEX
  5
1495
  8
SAPA_PROFIL
 10
27.647968466152641
 20
24.499999996852011
 30
0.0
  0
VERTEX
  5
1496
  8
SAPA_PROFIL
 10
29.03360911221262
 20
24.499999996848139
 30
0.0
 42
-0.2679491924305262
  0
VERTEX
  5
1497
  8
SAPA_PROFIL
 10
29.899634515992599
 20
23.999999996852011
 30
0.0
  0
VERTEX
  5
1498
  8
SAPA_PROFIL
 10
30.909191339972729
 20
22.250135163822051
 30
0.0
 42
0.268032828299991
  0
VERTEX
  5
1499
  8
SAPA_PROFIL
 10
31.342282052463251
 20
21.99999999676697
 30
0.0
  0
VERTEX
  5
149A
  8
SAPA_PROFIL
 10
42.655673763072969
 20
21.99999999678198
 30
0.0
 42
0.26803282829961
  0
VERTEX
  5
149B
  8
SAPA_PROFIL
 10
43.088764475562932
 20
22.250135163822051
 30
0.0
  0
VERTEX
  5
149C
  8
SAPA_PROFIL
 10
44.098321299539748
 20
23.999999996854051
 30
0.0
 42
-0.267949192430527
  0
VERTEX
  5
149D
  8
SAPA_PROFIL
 10
44.964346703323031
 20
24.499999996852011
 30
0.0
  0
VERTEX
  5
149E
  8
SAPA_PROFIL
 10
46.349987349383007
 20
24.49999999685474
 30
0.0
 42
-0.5773502691868419
  0
VERTEX
  5
149F
  8
SAPA_PROFIL
 10
46.523192430143013
 20
24.19999999685205
 30
0.0
  0
VERTEX
  5
14A0
  8
SAPA_PROFIL
 10
45.599431999433023
 20
22.599999996851921
 30
0.0
  0
VERTEX
  5
14A1
  8
SAPA_PROFIL
 10
45.599431999433023
 20
22.299999996851959
 30
0.0
 42
0.4142135623730951
  0
VERTEX
  5
14A2
  8
SAPA_PROFIL
 10
45.899431999432977
 20
21.999999996852011
 30
0.0
  0
VERTEX
  5
14A3
  8
SAPA_PROFIL
 10
49.752218403932943
 20
21.999999996852232
 30
0.0
 42
-0.2134217652834343
  0
VERTEX
  5
14A4
  8
SAPA_PROFIL
 10
49.975825201683051
 20
21.899999996852099
 30
0.0
 42
0.7625858545243255
  0
VERTEX
  5
14A5
  8
SAPA_PROFIL
 10
50.306151282700057
 20
22.084579199049578
 30
0.0
  0
VERTEX
  5
14A6
  8
SAPA_PROFIL
 10
50.248077645710971
 20
22.275962199043299
 30
0.0
  0
VERTEX
  5
14A7
  8
SAPA_PROFIL
 10
49.163513198739217
 20
24.161805890904411
 30
0.0
  0
VERTEX
  5
14A8
  8
SAPA_PROFIL
 10
48.84175547052098
 20
24.151244524677331
 30
0.0
 42
-0.5773502691897534
  0
VERTEX
  5
14A9
  8
SAPA_PROFIL
 10
48.658801730410801
 20
24.445400824932278
 30
0.0
  0
VERTEX
  5
14AA
  8
SAPA_PROFIL
 10
48.810935641519571
 20
24.73008310816391
 30
0.0
 42
-0.2216946626430088
  0
VERTEX
  5
14AB
  8
SAPA_PROFIL
 10
49.351815472996343
 20
25.13589201331871
 30
0.0
  0
VERTEX
  5
14AC
  8
SAPA_PROFIL
 10
51.165045943654597
 20
25.517338609446419
 30
0.0
 42
-0.476975532698165
  0
VERTEX
  5
14AD
  8
SAPA_PROFIL
 10
51.536702818600482
 20
25.215085784939959
 30
0.0
  0
VERTEX
  5
14AE
  8
SAPA_PROFIL
 10
51.536619210716822
 20
23.711984704177951
 30
0.0
  0
VERTEX
  5
14AF
  8
SAPA_PROFIL
 10
51.488773460718342
 20
23.697466294930841
 30
0.0
 42
0.4142135623731108
  0
VERTEX
  5
14B0
  8
SAPA_PROFIL
 10
51.288809416210938
 20
23.323281339455029
 30
0.0
  0
VERTEX
  5
14B1
  8
SAPA_PROFIL
 10
51.799999999992899
 20
22.00069481219964
 30
0.0
  0
VERTEX
  5
14B2
  8
SAPA_PROFIL
 10
51.799999999992451
 20
18.987515663246079
 30
0.0
 42
-0.2596812337296443
  0
VERTEX
  5
14B3
  8
SAPA_PROFIL
 10
51.705306804743941
 20
18.817484851707029
 30
0.0
  0
VERTEX
  5
14B4
  8
SAPA_PROFIL
 10
50.45796020711839
 20
18.044953782639929
 30
0.0
 42
-0.5877032589250569
  0
VERTEX
  5
14B5
  8
SAPA_PROFIL
 10
49.999999999991928
 20
18.299999999949019
 30
0.0
  0
VERTEX
  5
14B6
  8
SAPA_PROFIL
 10
49.999999999993861
 20
19.699999999948538
 30
0.0
 42
0.414213562373428
  0
VERTEX
  5
14B7
  8
SAPA_PROFIL
 10
49.69999999999402
 20
19.999999999949061
 30
0.0
  0
VERTEX
  5
14B8
  8
SAPA_PROFIL
 10
47.299999999993467
 20
19.99999999995293
 30
0.0
 42
0.4142135623732061
  0
VERTEX
  5
14B9
  8
SAPA_PROFIL
 10
46.999999999992937
 20
19.69999999995343
 30
0.0
  0
VERTEX
  5
14BA
  8
SAPA_PROFIL
 10
46.999999999972033
 20
2.2999999999528842
 30
0.0
 42
0.4142135623722071
  0
VERTEX
  5
14BB
  8
SAPA_PROFIL
 10
47.299999999969032
 20
1.9999999999529301
 30
0.0
  0
VERTEX
  5
14BC
  8
SAPA_PROFIL
 10
49.699999999967872
 20
2.0000000000189821
 30
0.0
 42
0.4142135623730951
  0
VERTEX
  5
14BD
  8
SAPA_PROFIL
 10
49.999999999966001
 20
2.300000000020983
 30
0.0
  0
VERTEX
  5
14BE
  8
SAPA_PROFIL
 10
49.999999999960998
 20
3.7000000000209599
 30
0.0
 42
-0.5877032589240117
  0
VERTEX
  5
14BF
  8
SAPA_PROFIL
 10
50.457960207087012
 20
3.9550462173330021
 30
0.0
  0
VERTEX
  5
14C0
  8
SAPA_PROFIL
 10
51.90530680471511
 20
3.058647240096203
 30
0.0
 42
-0.259681233730399
  0
VERTEX
  5
14C1
  8
SAPA_PROFIL
 10
51.999999999962931
 20
2.888616428557039
 30
0.0
  0
VERTEX
  5
14C2
  8
SAPA_PROFIL
 10
51.999999999965041
 20
2.5000000000163669
 30
0.0
 42
0.4142135623715633
  0
VERTEX
  5
14C3
  8
SAPA_PROFIL
 10
52.499999999965041
 20
2.0000000000189821
 30
0.0
  0
VERTEX
  5
14C4
  8
SAPA_PROFIL
 10
77.299999999582383
 20
2.0000000000189231
 30
0.0
 42
0.4142135623739942
  0
VERTEX
  5
14C5
  8
SAPA_PROFIL
 10
77.799999999582383
 20
2.5000000000204601
 30
0.0
  0
VERTEX
  5
14C6
  8
SAPA_PROFIL
 10
77.799999999576926
 20
4.3005704443189599
 30
0.0
 42
-0.4241420668422755
  0
VERTEX
  5
14C7
  8
SAPA_PROFIL
 10
78.833772233454965
 20
5.2999999997303986
 30
0.0
 42
-0.2988658713647619
  0
VERTEX
  5
14C8
  8
SAPA_PROFIL
 10
79.771052370414282
 20
4.7291418729625958
 30
0.0
 42
-0.5507604245873982
  0
VERTEX
  5
14C9
  8
SAPA_PROFIL
 10
79.499999999569013
 20
4.3005704443679589
 30
0.0
  0
VERTEX
  5
14CA
  8
SAPA_PROFIL
 10
79.199999999576903
 20
4.3005704443489741
 30
0.0
 42
0.4142135623702647
  0
VERTEX
  5
14CB
  8
SAPA_PROFIL
 10
78.999999999589022
 20
4.1005704443368769
 30
0.0
  0
VERTEX
  5
14CC
  8
SAPA_PROFIL
 10
78.999999999607098
 20
3.8005704442200532
 30
0.0
 42
0.4142135623563536
  0
VERTEX
  5
14CD
  8
SAPA_PROFIL
 10
80.799999999610009
 20
2.0005704443259389
 30
0.0
  0
VERTEX
  5
14CE
  8
SAPA_PROFIL
 10
81.499999999826059
 20
2.000570444327872
 30
0.0
 42
0.4142135623558171
  0
VERTEX
  5
14CF
  8
SAPA_PROFIL
 10
83.299999999823953
 20
3.800570444225055
 30
0.0
  0
VERTEX
  5
14D0
  8
SAPA_PROFIL
 10
83.299999999839997
 20
4.100570444343016
 30
0.0
 42
0.4142135623717631
  0
VERTEX
  5
14D1
  8
SAPA_PROFIL
 10
83.099999999853026
 20
4.3005704443549986
 30
0.0
  0
VERTEX
  5
14D2
  8
SAPA_PROFIL
 10
82.799999999862962
 20
4.3005704443727337
 30
0.0
 42
-0.5507604245839719
  0
VERTEX
  5
14D3
  8
SAPA_PROFIL
 10
82.528947629015875
 20
4.7291418729590724
 30
0.0
 42
-0.2988658713671755
  0
VERTEX
  5
14D4
  8
SAPA_PROFIL
 10
83.46622776597394
 20
5.2999999997368787
 30
0.0
 42
-0.4241420668413794
  0
VERTEX
  5
14D5
  8
SAPA_PROFIL
 10
84.499999999852989
 20
4.3005704443279411
 30
0.0
  0
VERTEX
  5
14D6
  8
SAPA_PROFIL
 10
84.499999999852207
 20
2.2000000000738789
 30
0.0
 42
0.414213562373195
  0
VERTEX
  5
14D7
  8
SAPA_PROFIL
 10
84.999999999852193
 20
1.700000000073709
 30
0.0
  0
VERTEX
  5
14D8
  8
SAPA_PROFIL
 10
95.51715728749474
 20
1.7000000000739359
 30
0.0
 42
-0.198912367379658
  0
VERTEX
  5
14D9
  8
SAPA_PROFIL
 10
95.870710678088017
 20
1.553553390667213
 30
0.0
  0
VERTEX
  5
14DA
  8
SAPA_PROFIL
 10
96.912132034320393
 20
0.5121320344350071
 30
0.0
 42
-0.6681786379192989
  0
VERTEX
  5
14DB
  8
SAPA_PROFIL
 10
96.699999999964334
 20
0.0000000000788933
 30
0.0
  0
VERTEX
  5
14DC
  8
SAPA_PROFIL
 10
0.5
 20
0.0
 30
0.0
 42
-0.4142135623567124
  0
VERTEX
  5
14DD
  8
SAPA_PROFIL
 10
0.0
 20
0.4999999999720331
 30
0.0
  0
VERTEX
  5
14DE
  8
SAPA_PROFIL
 10
-0.0000000002070237
 20
4.1999999999840147
 30
0.0
 42
-0.414213562390632
  0
VERTEX
  5
14DF
  8
SAPA_PROFIL
 10
0.2999999997940676
 20
4.5
 30
0.0
  0
VERTEX
  5
14E0
  8
SAPA_PROFIL
 10
1.067544467820994
 20
4.4999999999990896
 30
0.0
 42
-0.2896898632850871
  0
VERTEX
  5
14E1
  8
SAPA_PROFIL
 10
1.971052370697975
 20
3.9285714286279472
 30
0.0
 42
-0.5507604245891342
  0
VERTEX
  5
14E2
  8
SAPA_PROFIL
 10
1.699999999851002
 20
3.5000000000400169
 30
0.0
  0
VERTEX
  5
14E3
  8
SAPA_PROFIL
 10
1.4999999998290141
 20
3.5000000000279661
 30
0.0
 42
0.4142135623672125
  0
VERTEX
  5
14E4
  8
SAPA_PROFIL
 10
1.1999999998458859
 20
3.2000000000169839
 30
0.0
  0
VERTEX
  5
14E5
  8
SAPA_PROFIL
 10
1.199999999902956
 20
1.6999999988370289
 30
0.0
 42
0.4142135623613076
  0
VERTEX
  5
14E6
  8
SAPA_PROFIL
 10
1.699999999911938
 20
1.1999999988460099
 30
0.0
  0
VERTEX
  5
14E7
  8
SAPA_PROFIL
 10
4.9999999999030251
 20
1.1999999988410079
 30
0.0
 42
0.414213562384816
  0
VERTEX
  5
14E8
  8
SAPA_PROFIL
 10
5.4999999999039337
 20
1.699999998859993
 30
0.0
  0
VERTEX
  5
14E9
  8
SAPA_PROFIL
 10
5.4999999998459543
 20
3.2000000002499291
 30
0.0
 42
0.4142135623779789
  0
VERTEX
  5
14EA
  8
SAPA_PROFIL
 10
5.1999999998289459
 20
3.5000000002379461
 30
0.0
  0
VERTEX
  5
14EB
  8
SAPA_PROFIL
 10
4.9999999998519788
 20
3.5000000002270322
 30
0.0
 42
-0.5507604245847541
  0
VERTEX
  5
14EC
  8
SAPA_PROFIL
 10
4.7289476289539598
 20
3.9285714287809692
 30
0.0
 42
-0.2896898633203854
  0
VERTEX
  5
14ED
  8
SAPA_PROFIL
 10
5.6324555318890361
 20
4.5000000002660272
 30
0.0
  0
VERTEX
  5
14EE
  8
SAPA_PROFIL
 10
6.6299273439529989
 20
4.5000000002660272
 30
0.0
 42
-0.0436609429083866
  0
VERTEX
  5
14EF
  8
SAPA_PROFIL
 10
6.7167514327859399
 20
4.4924038767719594
 30
0.0
  0
VERTEX
  5
14F0
  8
SAPA_PROFIL
 10
8.2868240887700022
 20
4.2155577058470044
 30
0.0
 42
-0.8390996311771717
  0
VERTEX
  5
14F1
  8
SAPA_PROFIL
 10
8.2868240887689808
 20
3.2307499528350259
 30
0.0
  0
VERTEX
  5
14F2
  8
SAPA_PROFIL
 10
7.113175911101961
 20
3.0238041132540721
 30
0.0
 42
0.3639702342665017
  0
VERTEX
  5
14F3
  8
SAPA_PROFIL
 10
6.6999999999343336
 20
2.5314002367490498
 30
0.0
  0
VERTEX
  5
14F4
  8
SAPA_PROFIL
 10
6.6999999999329702
 20
1.699999998839075
 30
0.0
 42
0.4373282586277949
  0
VERTEX
  5
14F5
  8
SAPA_PROFIL
 10
7.2390944572549643
 20
1.201530718534058
 30
0.0
  0
VERTEX
  5
14F6
  8
SAPA_PROFIL
 10
21.712153278645928
 20
1.7883294815369459
 30
0.0
 42
0.4023941304319243
  0
VERTEX
  5
14F7
  8
SAPA_PROFIL
 10
21.99999999997101
 20
2.0880832101499869
 30
0.0
  0
VERTEX
  5
14F8
  8
SAPA_PROFIL
 10
21.99999999997101
 20
2.888616428514978
 30
0.0
 42
-0.2596812337287306
  0
VERTEX
  5
14F9
  8
SAPA_PROFIL
 10
22.094693195218952
 20
3.0586472400550511
 30
0.0
  0
VERTEX
  5
14FA
  8
SAPA_PROFIL
 10
23.542039792844999
 20
3.9550462172950338
 30
0.0
 42
-0.5877032589232099
  0
VERTEX
  5
14FB
  8
SAPA_PROFIL
 10
23.9999999999709
 20
3.6999999999850379
 30
0.0
  0
VERTEX
  5
14FC
  8
SAPA_PROFIL
 10
23.99999999996999
 20
2.2999999999849461
 30
0.0
 42
0.414213562372984
  0
VERTEX
  5
14FD
  8
SAPA_PROFIL
 10
24.299999999968922
 20
1.9999999999840821
 30
0.0
  0
VERTEX
  5
14FE
  8
SAPA_PROFIL
 10
26.699999999970029
 20
1.9999999999810121
 30
0.0
 42
0.4142135623720961
  0
VERTEX
  5
14FF
  8
SAPA_PROFIL
 10
26.999999999969081
 20
2.2999999999810798
 30
0.0
  0
VERTEX
  5
1500
  8
SAPA_PROFIL
 10
26.999999999982951
 20
11.89999999998008
 30
0.0
 42
0.414213562373983
  0
VERTEX
  5
1501
  8
SAPA_PROFIL
 10
26.699999999982989
 20
12.199999999980941
 30
0.0
  0
VERTEX
  5
1502
  8
SAPA_PROFIL
 10
22.299999999983921
 20
12.19999999998708
 30
0.0
 42
-0.4142135623732059
  0
VERTEX
  5
1503
  8
SAPA_PROFIL
 10
21.999999999982951
 20
12.49999999998704
 30
0.0
  0
VERTEX
  5
1504
  8
SAPA_PROFIL
 10
21.99999999998602
 20
13.984088065340069
 30
0.0
 42
-0.2596812337310292
  0
VERTEX
  5
1505
  8
SAPA_PROFIL
 10
22.094693195234981
 20
14.15411887688003
 30
0.0
  0
VERTEX
  5
1506
  8
SAPA_PROFIL
 10
22.742039792859028
 20
14.555046221430979
 30
0.0
 42
-0.587703258924552
  0
VERTEX
  5
1507
  8
SAPA_PROFIL
 10
23.199999999985891
 20
14.30000000412099
 30
0.0
  0
VERTEX
  5
1508
  8
SAPA_PROFIL
 10
23.199999999985948
 20
13.899999999985081
 30
0.0
 42
0.4142135623722071
  0
VERTEX
  5
1509
  8
SAPA_PROFIL
 10
23.49999999998499
 20
13.599999999984901
 30
0.0
  0
VERTEX
  5
150A
  8
SAPA_PROFIL
 10
26.699999999984929
 20
13.599999999981041
 30
0.0
 42
0.4142135623733725
  0
VERTEX
  5
150B
  8
SAPA_PROFIL
 10
26.99999999998585
 20
13.89999999997997
 30
0.0
  0
VERTEX
  5
150C
  8
SAPA_PROFIL
 10
26.999999999993982
 20
19.699999999979578
 30
0.0
 42
0.4142135623730948
  0
VERTEX
  5
150D
  8
SAPA_PROFIL
 10
26.699999999994471
 20
19.999999999979991
 30
0.0
  0
VERTEX
  5
150E
  8
SAPA_PROFIL
 10
24.299999999993929
 20
19.99999999998408
 30
0.0
 42
0.4142135623726511
  0
VERTEX
  5
150F
  8
SAPA_PROFIL
 10
23.999999999993982
 20
19.699999999984581
 30
0.0
  0
VERTEX
  5
1510
  8
SAPA_PROFIL
 10
23.999999999991928
 20
18.299999999984951
 30
0.0
 42
-0.5877032589253235
  0
VERTEX
  5
1511
  8
SAPA_PROFIL
 10
23.542039792863989
 20
18.044953782675059
 30
0.0
  0
VERTEX
  5
1512
  8
SAPA_PROFIL
 10
22.294693195240939
 20
18.81748485174602
 30
0.0
 42
-0.2596812337293086
  0
VERTEX
  5
1513
  8
SAPA_PROFIL
 10
22.19999999999192
 20
18.987515663285979
 30
0.0
  0
VERTEX
  5
1514
  8
SAPA_PROFIL
 10
22.200000000007599
 20
22.00598366313363
 30
0.0
  0
VERTEX
  5
1515
  8
SAPA_PROFIL
 10
22.709146399324709
 20
23.323281339384781
 30
0.0
 42
0.4142135623730953
  0
VERTEX
  5
1516
  8
SAPA_PROFIL
 10
22.509182354817309
 20
23.697466294860579
 30
0.0
  0
VERTEX
  5
1517
  8
SAPA_PROFIL
 10
22.461336604818818
 20
23.711984704107689
 30
0.0
  0
VERTEX
  5
1518
  8
SAPA_PROFIL
 10
22.461252996935229
 20
25.2150857848697
 30
0.0
 42
-0.4769755326981653
  0
VERTEX
  5
1519
  8
SAPA_PROFIL
 10
22.832909871881039
 20
25.517338609376171
 30
0.0
  0
VERTEX
  5
151A
  8
SAPA_PROFIL
 10
24.646140342539301
 20
25.135892013248451
 30
0.0
 42
-0.2216946626430223
  0
VERTEX
  5
151B
  8
SAPA_PROFIL
 10
25.18702017401608
 20
24.730083108093648
 30
0.0
  0
SEQEND
  5
151C
  8
SAPA_PROFIL
  0
POLYLINE
  5
F4C
  8
SAPA_PROFIL
 66
     1
 10
0.0
 20
0.0
 30
0.0
 70
     1
  0
VERTEX
  5
151D
  8
SAPA_PROFIL
 10
44.999999999993967
 20
20.299999996763969
 30
0.0
  0
VERTEX
  5
151E
  8
SAPA_PROFIL
 10
43.399999999994982
 20
20.299999996766019
 30
0.0
 42
0.4142135623730951
  0
VERTEX
  5
151F
  8
SAPA_PROFIL
 10
43.19999999999402
 20
20.09999999676597
 30
0.0
  0
VERTEX
  5
1520
  8
SAPA_PROFIL
 10
43.199999999995043
 20
19.899999996765921
 30
0.0
 42
-0.4142135623715967
  0
VERTEX
  5
1521
  8
SAPA_PROFIL
 10
42.999999999993967
 20
19.699999996765989
 30
0.0
  0
VERTEX
  5
1522
  8
SAPA_PROFIL
 10
41.399999999993952
 20
19.699999996769058
 30
0.0
 42
-0.4142135623730951
  0
VERTEX
  5
1523
  8
SAPA_PROFIL
 10
41.19999999999402
 20
19.89999999676899
 30
0.0
  0
VERTEX
  5
1524
  8
SAPA_PROFIL
 10
41.19999999999402
 20
20.099999996768918
 30
0.0
 42
0.4142135623730951
  0
VERTEX
  5
1525
  8
SAPA_PROFIL
 10
40.999999999993967
 20
20.299999996768971
 30
0.0
  0
VERTEX
  5
1526
  8
SAPA_PROFIL
 10
32.999999999993982
 20
20.299999996779881
 30
0.0
 42
0.4142135623730951
  0
VERTEX
  5
1527
  8
SAPA_PROFIL
 10
32.799999999994952
 20
20.09999999678007
 30
0.0
  0
VERTEX
  5
1528
  8
SAPA_PROFIL
 10
32.79999999999302
 20
19.899999996780021
 30
0.0
 42
-0.4142135623730951
  0
VERTEX
  5
1529
  8
SAPA_PROFIL
 10
32.599999999993997
 20
19.699999996780999
 30
0.0
  0
VERTEX
  5
152A
  8
SAPA_PROFIL
 10
30.999999999993982
 20
19.699999996782928
 30
0.0
 42
-0.4142135623730951
  0
VERTEX
  5
152B
  8
SAPA_PROFIL
 10
30.799999999993929
 20
19.899999996782981
 30
0.0
  0
VERTEX
  5
152C
  8
SAPA_PROFIL
 10
30.79999999999507
 20
20.099999996783019
 30
0.0
 42
0.4142135623730951
  0
VERTEX
  5
152D
  8
SAPA_PROFIL
 10
30.599999999995031
 20
20.299999996783072
 30
0.0
  0
VERTEX
  5
152E
  8
SAPA_PROFIL
 10
28.999999999993982
 20
20.299999996786031
 30
0.0
 42
0.4142135623730951
  0
VERTEX
  5
152F
  8
SAPA_PROFIL
 10
28.69999999999402
 20
19.99999999678607
 30
0.0
  0
VERTEX
  5
1530
  8
SAPA_PROFIL
 10
28.699999999970029
 20
1.9999999967860711
 30
0.0
 42
0.4142135624873408
  0
VERTEX
  5
1531
  8
SAPA_PROFIL
 10
29.00000000008697
 20
1.6999999967861159
 30
0.0
  0
VERTEX
  5
1532
  8
SAPA_PROFIL
 10
30.600000000047999
 20
1.6999999974100299
 30
0.0
 42
0.4142135622558857
  0
VERTEX
  5
1533
  8
SAPA_PROFIL
 10
30.799999999969032
 20
1.8999999974089381
 30
0.0
  0
VERTEX
  5
1534
  8
SAPA_PROFIL
 10
30.799999999969941
 20
2.0999999975709871
 30
0.0
 42
-0.414213562251557
  0
VERTEX
  5
1535
  8
SAPA_PROFIL
 10
30.999999999886999
 20
2.2999999975700098
 30
0.0
  0
VERTEX
  5
1536
  8
SAPA_PROFIL
 10
32.599999999887018
 20
2.2999999982320078
 30
0.0
 42
-0.4142135624946331
  0
VERTEX
  5
1537
  8
SAPA_PROFIL
 10
32.799999999970062
 20
2.0999999982309401
 30
0.0
  0
VERTEX
  5
1538
  8
SAPA_PROFIL
 10
32.799999999969032
 20
1.89999999665599
 30
0.0
 42
0.4142135623730951
  0
VERTEX
  5
1539
  8
SAPA_PROFIL
 10
32.999999999968963
 20
1.6999999966560591
 30
0.0
  0
VERTEX
  5
153A
  8
SAPA_PROFIL
 10
40.999999999968963
 20
1.699999996645031
 30
0.0
 42
0.41421356237163
  0
VERTEX
  5
153B
  8
SAPA_PROFIL
 10
41.199999999968888
 20
1.8999999966440531
 30
0.0
  0
VERTEX
  5
153C
  8
SAPA_PROFIL
 10
41.199999999970032
 20
2.0999999982200261
 30
0.0
 42
-0.4142135624946331
  0
VERTEX
  5
153D
  8
SAPA_PROFIL
 10
41.400000000052948
 20
2.2999999982200712
 30
0.0
  0
VERTEX
  5
153E
  8
SAPA_PROFIL
 10
43.000000000052971
 20
2.2999999975540941
 30
0.0
 42
-0.4142135622515237
  0
VERTEX
  5
153F
  8
SAPA_PROFIL
 10
43.199999999970032
 20
2.0999999975540482
 30
0.0
  0
VERTEX
  5
1540
  8
SAPA_PROFIL
 10
43.199999999970032
 20
1.8999999973930219
 30
0.0
 42
0.4142135622574175
  0
VERTEX
  5
1541
  8
SAPA_PROFIL
 10
43.399999999890952
 20
1.6999999973929769
 30
0.0
  0
VERTEX
  5
1542
  8
SAPA_PROFIL
 10
44.99999999985198
 20
1.6999999967640591
 30
0.0
 42
0.4142135624873075
  0
VERTEX
  5
1543
  8
SAPA_PROFIL
 10
45.299999999967888
 20
1.9999999967629909
 30
0.0
  0
VERTEX
  5
1544
  8
SAPA_PROFIL
 10
45.299999999993922
 20
19.999999996762991
 30
0.0
 42
0.414213562374094
  0
SEQEND
  5
1545
  8
SAPA_PROFIL
  0
POLYLINE
  5
F4D
  8
SAPA_PROFIL
 66
     1
 10
0.0
 20
0.0
 30
0.0
 70
     1
  0
VERTEX
  5
1546
  8
SAPA_PROFIL
 10
31.344486372718961
 20
63.999999996716042
 30
0.0
 42
0.267949192431007
  0
VERTEX
  5
1547
  8
SAPA_PROFIL
 10
30.911473670826918
 20
63.749999996716042
 30
0.0
  0
VERTEX
  5
1548
  8
SAPA_PROFIL
 10
29.901110699744891
 20
61.99999999671558
 30
0.0
 42
-0.2679491924311281
  0
VERTEX
  5
1549
  8
SAPA_PROFIL
 10
29.035085295960361
 20
61.499999996715587
 30
0.0
  0
VERTEX
  5
154A
  8
SAPA_PROFIL
 10
27.64944464990538
 20
61.499999996715822
 30
0.0
 42
-0.57735026918954
  0
VERTEX
  5
154B
  8
SAPA_PROFIL
 10
27.476239569148561
 20
61.799999996715769
 30
0.0
  0
VERTEX
  5
154C
  8
SAPA_PROFIL
 10
28.39999999985173
 20
63.399999996715451
 30
0.0
  0
VERTEX
  5
154D
  8
SAPA_PROFIL
 10
28.39999999985173
 20
63.699999996715633
 30
0.0
 42
0.41421356237306
  0
VERTEX
  5
154E
  8
SAPA_PROFIL
 10
28.099999999851551
 20
63.999999996715822
 30
0.0
  0
VERTEX
  5
154F
  8
SAPA_PROFIL
 10
24.24721359535204
 20
63.999999996715822
 30
0.0
 42
-0.2036002236709541
  0
VERTEX
  5
1550
  8
SAPA_PROFIL
 10
24.03129328653165
 20
64.091725129679617
 30
0.0
 42
0.8292414158604859
  0
VERTEX
  5
1551
  8
SAPA_PROFIL
 10
23.699297653511959
 20
63.895591841148189
 30
0.0
  0
VERTEX
  5
1552
  8
SAPA_PROFIL
 10
23.751354353573682
 20
63.724037794524293
 30
0.0
  0
VERTEX
  5
1553
  8
SAPA_PROFIL
 10
24.835918800545532
 20
61.838194102663458
 30
0.0
  0
VERTEX
  5
1554
  8
SAPA_PROFIL
 10
25.157676528763549
 20
61.848755468890211
 30
0.0
 42
-0.5773502691894565
  0
VERTEX
  5
1555
  8
SAPA_PROFIL
 10
25.340630268873952
 20
61.554599168635598
 30
0.0
  0
VERTEX
  5
1556
  8
SAPA_PROFIL
 10
25.188496357765761
 20
61.26991688540442
 30
0.0
 42
-0.2216946626431577
  0
VERTEX
  5
1557
  8
SAPA_PROFIL
 10
24.647616526288289
 20
60.86410798024918
 30
0.0
  0
VERTEX
  5
1558
  8
SAPA_PROFIL
 10
22.834386055630489
 20
60.48266138412145
 30
0.0
 42
-0.4757248385987928
  0
VERTEX
  5
1559
  8
SAPA_PROFIL
 10
22.462729110780291
 20
60.783657474579293
 30
0.0
  0
VERTEX
  5
155A
  8
SAPA_PROFIL
 10
22.462812788567931
 20
62.288015289389932
 30
0.0
  0
VERTEX
  5
155B
  8
SAPA_PROFIL
 10
22.510658538566421
 20
62.302533698637262
 30
0.0
 42
0.4580511809928869
  0
VERTEX
  5
155C
  8
SAPA_PROFIL
 10
22.69472625421929
 20
62.717914081186343
 30
0.0
  0
VERTEX
  5
155D
  8
SAPA_PROFIL
 10
22.199999999851912
 20
63.999999996715587
 30
0.0
  0
VERTEX
  5
155E
  8
SAPA_PROFIL
 10
22.199999999851912
 20
67.01248433022397
 30
0.0
 42
-0.2596812337301257
  0
VERTEX
  5
155F
  8
SAPA_PROFIL
 10
22.29469319509997
 20
67.182515141764043
 30
0.0
  0
VERTEX
  5
1560
  8
SAPA_PROFIL
 10
23.54203979272404
 20
67.955046210833643
 30
0.0
 42
-0.5877032589249617
  0
VERTEX
  5
1561
  8
SAPA_PROFIL
 10
23.999999999851639
 20
67.699999993523534
 30
0.0
  0
VERTEX
  5
1562
  8
SAPA_PROFIL
 10
23.999999999851639
 20
66.265821207133044
 30
0.0
 42
0.4683749459842228
  0
VERTEX
  5
1563
  8
SAPA_PROFIL
 10
24.299999999851821
 20
65.999999993523474
 30
0.0
  0
VERTEX
  5
1564
  8
SAPA_PROFIL
 10
26.69999999985146
 20
65.999999993523716
 30
0.0
 42
0.4683749459847173
  0
VERTEX
  5
1565
  8
SAPA_PROFIL
 10
26.999999999851639
 20
66.265821207133285
 30
0.0
  0
VERTEX
  5
1566
  8
SAPA_PROFIL
 10
26.999999999851639
 20
72.099999993523625
 30
0.0
  0
VERTEX
  5
1567
  8
SAPA_PROFIL
 10
26.999999999851639
 20
74.099999993523625
 30
0.0
  0
VERTEX
  5
1568
  8
SAPA_PROFIL
 10
26.999999999851649
 20
83.699999993523505
 30
0.0
 42
0.4142135623730951
  0
VERTEX
  5
1569
  8
SAPA_PROFIL
 10
26.699999999851919
 20
83.999999993523474
 30
0.0
  0
VERTEX
  5
156A
  8
SAPA_PROFIL
 10
24.299999999851831
 20
83.999999993523474
 30
0.0
 42
0.4142135623730951
  0
VERTEX
  5
156B
  8
SAPA_PROFIL
 10
23.999999999851649
 20
83.699999993523505
 30
0.0
  0
VERTEX
  5
156C
  8
SAPA_PROFIL
 10
23.999999999851649
 20
82.299999993523443
 30
0.0
 42
-0.5877032589248625
  0
VERTEX
  5
156D
  8
SAPA_PROFIL
 10
23.542039792724051
 20
82.044953776213561
 30
0.0
  0
VERTEX
  5
156E
  8
SAPA_PROFIL
 10
22.094693195100159
 20
82.941352753455703
 30
0.0
 42
-0.2596812337300832
  0
VERTEX
  5
156F
  8
SAPA_PROFIL
 10
21.999999999851639
 20
83.111383564995776
 30
0.0
  0
VERTEX
  5
1570
  8
SAPA_PROFIL
 10
21.999999999851639
 20
85.799999996673236
 30
0.0
 42
-0.4142135623731107
  0
VERTEX
  5
1571
  8
SAPA_PROFIL
 10
22.199999999851919
 20
85.999999996673282
 30
0.0
  0
VERTEX
  5
1572
  8
SAPA_PROFIL
 10
51.799999999851828
 20
85.999999996673282
 30
0.0
 42
-0.4142135623730273
  0
VERTEX
  5
1573
  8
SAPA_PROFIL
 10
51.999999999851639
 20
85.799999996673236
 30
0.0
  0
VERTEX
  5
1574
  8
SAPA_PROFIL
 10
51.999999999851639
 20
83.111383564995535
 30
0.0
 42
-0.2596812337302099
  0
VERTEX
  5
1575
  8
SAPA_PROFIL
 10
51.90530680460359
 20
82.941352753455462
 30
0.0
  0
VERTEX
  5
1576
  8
SAPA_PROFIL
 10
50.457960206979699
 20
82.044953776213319
 30
0.0
 42
-0.5877032589250762
  0
VERTEX
  5
1577
  8
SAPA_PROFIL
 10
49.999999999851639
 20
82.299999993523414
 30
0.0
  0
VERTEX
  5
1578
  8
SAPA_PROFIL
 10
49.999999999851639
 20
83.699999993523505
 30
0.0
 42
0.4142135623730951
  0
VERTEX
  5
1579
  8
SAPA_PROFIL
 10
49.699999999851919
 20
83.999999993523474
 30
0.0
  0
VERTEX
  5
157A
  8
SAPA_PROFIL
 10
47.299999999851821
 20
83.999999993523474
 30
0.0
 42
0.4142135623730951
  0
VERTEX
  5
157B
  8
SAPA_PROFIL
 10
46.999999999851639
 20
83.699999993523505
 30
0.0
  0
VERTEX
  5
157C
  8
SAPA_PROFIL
 10
46.999999999851639
 20
74.099999993523397
 30
0.0
  0
VERTEX
  5
157D
  8
SAPA_PROFIL
 10
46.999999999851639
 20
72.099999993523397
 30
0.0
  0
VERTEX
  5
157E
  8
SAPA_PROFIL
 10
46.999999999851639
 20
66.26582120713374
 30
0.0
 42
0.4683749459843959
  0
VERTEX
  5
157F
  8
SAPA_PROFIL
 10
47.299999999851373
 20
65.999999993523474
 30
0.0
  0
VERTEX
  5
1580
  8
SAPA_PROFIL
 10
49.699999999851919
 20
65.999999993523474
 30
0.0
 42
0.4683749459842226
  0
VERTEX
  5
1581
  8
SAPA_PROFIL
 10
49.999999999851639
 20
66.265821207133044
 30
0.0
  0
VERTEX
  5
1582
  8
SAPA_PROFIL
 10
49.999999999851639
 20
67.699999993523306
 30
0.0
 42
-0.5877032589249771
  0
VERTEX
  5
1583
  8
SAPA_PROFIL
 10
50.457960206979699
 20
67.955046210833416
 30
0.0
  0
VERTEX
  5
1584
  8
SAPA_PROFIL
 10
51.70530680460331
 20
67.182515141764043
 30
0.0
 42
-0.2596812337301256
  0
VERTEX
  5
1585
  8
SAPA_PROFIL
 10
51.799999999851828
 20
67.01248433022397
 30
0.0
  0
VERTEX
  5
1586
  8
SAPA_PROFIL
 10
51.799999999851828
 20
63.99999999671558
 30
0.0
  0
VERTEX
  5
1587
  8
SAPA_PROFIL
 10
51.305273745484449
 20
62.717914081186549
 30
0.0
 42
0.4580511809929225
  0
VERTEX
  5
1588
  8
SAPA_PROFIL
 10
51.489341461137322
 20
62.302533698637703
 30
0.0
  0
VERTEX
  5
1589
  8
SAPA_PROFIL
 10
51.537187211135802
 20
62.288015289390152
 30
0.0
  0
VERTEX
  5
158A
  8
SAPA_PROFIL
 10
51.537270888923437
 20
60.783657474574049
 30
0.0
 42
-0.4757248385933691
  0
VERTEX
  5
158B
  8
SAPA_PROFIL
 10
51.165613944073691
 20
60.482661384121897
 30
0.0
  0
VERTEX
  5
158C
  8
SAPA_PROFIL
 10
49.352383473415429
 20
60.864107980249393
 30
0.0
 42
-0.2350054070140314
  0
VERTEX
  5
158D
  8
SAPA_PROFIL
 10
48.793334556532393
 20
61.306088772971847
 30
0.0
 42
0.0011882050611145
  0
VERTEX
  5
158E
  8
SAPA_PROFIL
 10
48.792898964991657
 20
61.304731095289291
 30
0.0
  0
VERTEX
  5
158F
  8
SAPA_PROFIL
 10
48.659369730829788
 20
61.554599168635818
 30
0.0
 42
-0.5773502691894562
  0
VERTEX
  5
1590
  8
SAPA_PROFIL
 10
48.842323470939732
 20
61.848755468890417
 30
0.0
  0
VERTEX
  5
1591
  8
SAPA_PROFIL
 10
49.164081199158211
 20
61.838194102663692
 30
0.0
  0
VERTEX
  5
1592
  8
SAPA_PROFIL
 10
50.248645646130072
 20
63.724037794524968
 30
0.0
  0
VERTEX
  5
1593
  8
SAPA_PROFIL
 10
50.30070234619177
 20
63.895591841148402
 30
0.0
 42
0.8292414158590609
  0
VERTEX
  5
1594
  8
SAPA_PROFIL
 10
49.968706713172992
 20
64.091725129680299
 30
0.0
 42
-0.2036002236714843
  0
VERTEX
  5
1595
  8
SAPA_PROFIL
 10
49.752786404352157
 20
63.999999996716028
 30
0.0
  0
VERTEX
  5
1596
  8
SAPA_PROFIL
 10
45.899999999852191
 20
63.999999996716028
 30
0.0
 42
0.4142135623731708
  0
VERTEX
  5
1597
  8
SAPA_PROFIL
 10
45.599999999852002
 20
63.699999996715853
 30
0.0
  0
VERTEX
  5
1598
  8
SAPA_PROFIL
 10
45.599999999852002
 20
63.399999996715671
 30
0.0
  0
VERTEX
  5
1599
  8
SAPA_PROFIL
 10
46.523760430555633
 20
61.799999996716217
 30
0.0
 42
-0.5773502691897499
  0
VERTEX
  5
159A
  8
SAPA_PROFIL
 10
46.350555349798817
 20
61.499999996716028
 30
0.0
  0
VERTEX
  5
159B
  8
SAPA_PROFIL
 10
44.964914703743382
 20
61.499999996715808
 30
0.0
 42
-0.2679491924311548
  0
VERTEX
  5
159C
  8
SAPA_PROFIL
 10
44.098889299958849
 20
61.999999996715808
 30
0.0
  0
VERTEX
  5
159D
  8
SAPA_PROFIL
 10
43.08852632887681
 20
63.749999996716042
 30
0.0
 42
0.2679491924310984
  0
VERTEX
  5
159E
  8
SAPA_PROFIL
 10
42.655513626984323
 20
63.999999996716028
 30
0.0
  0
SEQEND
  5
159F
  8
SAPA_PROFIL
  0
POLYLINE
  5
F4E
  8
SAPA_PROFIL
 66
     1
 10
0.0
 20
0.0
 30
0.0
 70
     1
  0
VERTEX
  5
15A0
  8
SAPA_PROFIL
 10
28.700000000013521
 20
66.000000000115605
 30
0.0
 42
0.4142135623730951
  0
VERTEX
  5
15A1
  8
SAPA_PROFIL
 10
29.000000000013529
 20
65.700000000115594
 30
0.0
  0
VERTEX
  5
15A2
  8
SAPA_PROFIL
 10
30.500000000013529
 20
65.700000000115594
 30
0.0
 42
0.414213562372978
  0
VERTEX
  5
15A3
  8
SAPA_PROFIL
 10
30.700000000013521
 20
65.900000000115483
 30
0.0
  0
VERTEX
  5
15A4
  8
SAPA_PROFIL
 10
30.700000000013521
 20
65.999999999161957
 30
0.0
 42
-0.4142135624945221
  0
VERTEX
  5
15A5
  8
SAPA_PROFIL
 10
31.000000000137899
 20
66.299999999161969
 30
0.0
  0
VERTEX
  5
15A6
  8
SAPA_PROFIL
 10
32.400000000137943
 20
66.299999998581541
 30
0.0
 42
-0.4142135622516715
  0
VERTEX
  5
15A7
  8
SAPA_PROFIL
 10
32.700000000013517
 20
65.999999998581529
 30
0.0
  0
VERTEX
  5
15A8
  8
SAPA_PROFIL
 10
32.700000000013517
 20
65.899999999953593
 30
0.0
 42
0.4142135621360125
  0
VERTEX
  5
15A9
  8
SAPA_PROFIL
 10
32.899999999851623
 20
65.699999999953604
 30
0.0
  0
VERTEX
  5
15AA
  8
SAPA_PROFIL
 10
41.099999999851661
 20
65.699999993478116
 30
0.0
 42
0.4142135626101776
  0
VERTEX
  5
15AB
  8
SAPA_PROFIL
 10
41.300000000013547
 20
65.899999993478104
 30
0.0
  0
VERTEX
  5
15AC
  8
SAPA_PROFIL
 10
41.300000000013547
 20
65.999999994850214
 30
0.0
 42
-0.4142135624945291
  0
VERTEX
  5
15AD
  8
SAPA_PROFIL
 10
41.600000000137932
 20
66.299999994850225
 30
0.0
  0
VERTEX
  5
15AE
  8
SAPA_PROFIL
 10
43.000000000137909
 20
66.29999999426974
 30
0.0
 42
-0.4142135622516611
  0
VERTEX
  5
15AF
  8
SAPA_PROFIL
 10
43.30000000001354
 20
65.999999994269729
 30
0.0
  0
VERTEX
  5
15B0
  8
SAPA_PROFIL
 10
43.30000000001354
 20
65.899999994067116
 30
0.0
 42
0.4142135622584299
  0
VERTEX
  5
15B1
  8
SAPA_PROFIL
 10
43.499999999935262
 20
65.69999999406707
 30
0.0
  0
VERTEX
  5
15B2
  8
SAPA_PROFIL
 10
44.999999999888757
 20
65.6999999934431
 30
0.0
 42
0.4142135624949384
  0
VERTEX
  5
15B3
  8
SAPA_PROFIL
 10
45.30000000001354
 20
65.999999993443112
 30
0.0
  0
VERTEX
  5
15B4
  8
SAPA_PROFIL
 10
45.30000000001354
 20
84.000000003882278
 30
0.0
 42
0.4142135623730743
  0
VERTEX
  5
15B5
  8
SAPA_PROFIL
 10
45.000000000013593
 20
84.300000003882289
 30
0.0
  0
VERTEX
  5
15B6
  8
SAPA_PROFIL
 10
43.500000000013543
 20
84.300000003882403
 30
0.0
 42
0.4142135623730951
  0
VERTEX
  5
15B7
  8
SAPA_PROFIL
 10
43.30000000001354
 20
84.100000003882414
 30
0.0
  0
VERTEX
  5
15B8
  8
SAPA_PROFIL
 10
43.30000000001354
 20
84.000000003882278
 30
0.0
 42
-0.4142135623731125
  0
VERTEX
  5
15B9
  8
SAPA_PROFIL
 10
43.000000000013529
 20
83.700000003882266
 30
0.0
  0
VERTEX
  5
15BA
  8
SAPA_PROFIL
 10
41.600000000013559
 20
83.700000003882266
 30
0.0
 42
-0.4142135623730951
  0
VERTEX
  5
15BB
  8
SAPA_PROFIL
 10
41.300000000013547
 20
84.000000003882278
 30
0.0
  0
VERTEX
  5
15BC
  8
SAPA_PROFIL
 10
41.300000000013547
 20
84.1000000038823
 30
0.0
 42
0.4142135623730951
  0
VERTEX
  5
15BD
  8
SAPA_PROFIL
 10
41.100000000013551
 20
84.300000003882289
 30
0.0
  0
VERTEX
  5
15BE
  8
SAPA_PROFIL
 10
32.900000000013513
 20
84.300000003882289
 30
0.0
 42
0.4142135623730951
  0
VERTEX
  5
15BF
  8
SAPA_PROFIL
 10
32.700000000013532
 20
84.1000000038823
 30
0.0
  0
VERTEX
  5
15C0
  8
SAPA_PROFIL
 10
32.700000000013532
 20
84.000000003882278
 30
0.0
 42
-0.4142135623730951
  0
VERTEX
  5
15C1
  8
SAPA_PROFIL
 10
32.40000000001357
 20
83.700000003882266
 30
0.0
  0
VERTEX
  5
15C2
  8
SAPA_PROFIL
 10
31.000000000013539
 20
83.700000003882266
 30
0.0
 42
-0.4142135623730951
  0
VERTEX
  5
15C3
  8
SAPA_PROFIL
 10
30.700000000013521
 20
84.000000003882278
 30
0.0
  0
VERTEX
  5
15C4
  8
SAPA_PROFIL
 10
30.700000000013521
 20
84.1000000038823
 30
0.0
 42
0.4142135623730951
  0
VERTEX
  5
15C5
  8
SAPA_PROFIL
 10
30.500000000013539
 20
84.300000003882289
 30
0.0
  0
VERTEX
  5
15C6
  8
SAPA_PROFIL
 10
29.000000000013539
 20
84.300000003882403
 30
0.0
 42
0.4142135623731159
  0
VERTEX
  5
15C7
  8
SAPA_PROFIL
 10
28.700000000013532
 20
84.000000003882391
 30
0.0
  0
SEQEND
  5
15C8
  8
SAPA_PROFIL
  0
POLYLINE
  5
F4F
  8
SAPA_PROFIL
 62
     4
 66
     1
 10
0.0
 20
0.0
 30
0.0
  0
VERTEX
  5
15C9
  8
SAPA_PROFIL
 62
     4
 10
49.095904721738812
 20
52.049329119254622
 30
0.0
 42
0.5571646428658034
  0
VERTEX
  5
15CA
  8
SAPA_PROFIL
 62
     4
 10
48.228185807583259
 20
51.512368615117801
 30
0.0
  0
VERTEX
  5
15CB
  8
SAPA_PROFIL
 62
     4
 10
48.228185807583714
 20
34.487631378596589
 30
0.0
 42
0.5571645048035741
  0
VERTEX
  5
15CC
  8
SAPA_PROFIL
 62
     4
 10
49.095904495449879
 20
33.950670761635543
 30
0.0
  0
VERTEX
  5
15CD
  8
SAPA_PROFIL
 62
     4
 10
50.76204515151791
 20
34.781377849182242
 30
0.0
 42
0.284385813979063
  0
VERTEX
  5
15CE
  8
SAPA_PROFIL
 62
     4
 10
50.928185807585351
 20
35.049858157662591
 30
0.0
  0
VERTEX
  5
15CF
  8
SAPA_PROFIL
 62
     4
 10
50.928185807585351
 20
50.950141836051898
 30
0.0
 42
0.2843858139786238
  0
VERTEX
  5
15D0
  8
SAPA_PROFIL
 62
     4
 10
50.762045151518421
 20
51.218622144532169
 30
0.0
  0
VERTEX
  5
15D1
  8
SAPA_PROFIL
 62
     4
 10
49.095904495449069
 20
52.049329232079337
 30
0.0
  0
SEQEND
  5
15D2
  8
SAPA_PROFIL
 62
     4
  0
POLYLINE
  5
F50
  8
SAPA_PROFIL
 62
     4
 66
     1
 10
0.0
 20
0.0
 30
0.0
 70
     1
  0
VERTEX
  5
15D3
  8
SAPA_PROFIL
 62
     4
 10
51.285017322082922
 20
28.582388812189951
 30
0.0
  0
VERTEX
  5
15D4
  8
SAPA_PROFIL
 62
     4
 10
51.691577518087072
 20
28.318365533813932
 30
0.0
 42
-0.2539676464751066
  0
VERTEX
  5
15D5
  8
SAPA_PROFIL
 62
     4
 10
51.828185807583168
 20
28.066764363429229
 30
0.0
  0
VERTEX
  5
15D6
  8
SAPA_PROFIL
 62
     4
 10
51.828185807583168
 20
26.685264778223878
 30
0.0
 42
-0.3152987888790479
  0
VERTEX
  5
15D7
  8
SAPA_PROFIL
 62
     4
 10
51.499195879245001
 20
26.215418467831569
 30
0.0
  0
VERTEX
  5
15D8
  8
SAPA_PROFIL
 62
     4
 10
49.038365688793732
 20
25.319749526922958
 30
0.0
 42
0.2694959974287434
  0
VERTEX
  5
15D9
  8
SAPA_PROFIL
 62
     4
 10
48.84523371444984
 20
25.088230480521599
 30
0.0
 42
0.0612686379508233
  0
VERTEX
  5
15DA
  8
SAPA_PROFIL
 62
     4
 10
48.831650343819312
 20
24.79555504766833
 30
0.0
  0
VERTEX
  5
15DB
  8
SAPA_PROFIL
 62
     4
 10
48.629913665090491
 20
24.446136870360061
 30
0.0
 42
0.5773502691891679
  0
VERTEX
  5
15DC
  8
SAPA_PROFIL
 62
     4
 10
48.811778999885057
 20
24.131136870360478
 30
0.0
  0
VERTEX
  5
15DD
  8
SAPA_PROFIL
 62
     4
 10
49.078893528011378
 20
24.13113687036024
 30
0.0
  0
VERTEX
  5
15DE
  8
SAPA_PROFIL
 62
     4
 10
49.88757698931969
 20
22.732609169725979
 30
0.0
 42
-0.1318219888653519
  0
VERTEX
  5
15DF
  8
SAPA_PROFIL
 62
     4
 10
49.927869385857093
 20
22.582436067253632
 30
0.0
  0
VERTEX
  5
15E0
  8
SAPA_PROFIL
 62
     4
 10
49.927869385850727
 20
22.399999996816849
 30
0.0
 42
-0.4142135623724291
  0
VERTEX
  5
15E1
  8
SAPA_PROFIL
 62
     4
 10
49.527869385851091
 20
21.99999999681631
 30
0.0
  0
VERTEX
  5
15E2
  8
SAPA_PROFIL
 62
     4
 10
46.12786938585009
 20
21.999999996817682
 30
0.0
 42
-0.4142135623744271
  0
VERTEX
  5
15E3
  8
SAPA_PROFIL
 62
     4
 10
45.72786938584909
 20
22.399999996816849
 30
0.0
  0
VERTEX
  5
15E4
  8
SAPA_PROFIL
 62
     4
 10
45.72786938584845
 20
22.579615239088159
 30
0.0
 42
-0.1316524975874005
  0
VERTEX
  5
15E5
  8
SAPA_PROFIL
 62
     4
 10
45.768061764714041
 20
22.729615239084971
 30
0.0
  0
VERTEX
  5
15E6
  8
SAPA_PROFIL
 62
     4
 10
46.694211211366579
 20
24.333753136087228
 30
0.0
 42
0.1316524975875904
  0
VERTEX
  5
15E7
  8
SAPA_PROFIL
 62
     4
 10
46.828185807581349
 20
24.833753136088941
 30
0.0
  0
VERTEX
  5
15E8
  8
SAPA_PROFIL
 62
     4
 10
46.828185807581349
 20
25.24999999681631
 30
0.0
 42
0.4142135623730951
  0
VERTEX
  5
15E9
  8
SAPA_PROFIL
 62
     4
 10
45.828185807581349
 20
26.24999999681631
 30
0.0
  0
VERTEX
  5
15EA
  8
SAPA_PROFIL
 62
     4
 10
42.828185807584077
 20
26.24999999681631
 30
0.0
 42
-0.9999996830128083
  0
VERTEX
  5
15EB
  8
SAPA_PROFIL
 62
     4
 10
42.828185807582258
 20
27.24999999681631
 30
0.0
  0
VERTEX
  5
15EC
  8
SAPA_PROFIL
 62
     4
 10
45.828185807582258
 20
27.24999999681631
 30
0.0
 42
0.4142135623730951
  0
VERTEX
  5
15ED
  8
SAPA_PROFIL
 62
     4
 10
46.828185807582251
 20
28.24999999681631
 30
0.0
  0
VERTEX
  5
15EE
  8
SAPA_PROFIL
 62
     4
 10
46.828185807582251
 20
57.749999996900897
 30
0.0
 42
0.4142135623730951
  0
VERTEX
  5
15EF
  8
SAPA_PROFIL
 62
     4
 10
45.828185807582258
 20
58.74999999690089
 30
0.0
  0
VERTEX
  5
15F0
  8
SAPA_PROFIL
 62
     4
 10
42.828185807584077
 20
58.74999999690089
 30
0.0
 42
-0.9999999999999998
  0
VERTEX
  5
15F1
  8
SAPA_PROFIL
 62
     4
 10
42.828185807584077
 20
59.749999996900897
 30
0.0
  0
VERTEX
  5
15F2
  8
SAPA_PROFIL
 62
     4
 10
45.828185807582258
 20
59.749999996900897
 30
0.0
 42
0.4142135623736278
  0
VERTEX
  5
15F3
  8
SAPA_PROFIL
 62
     4
 10
46.828185807582251
 20
60.74999999690089
 30
0.0
  0
VERTEX
  5
15F4
  8
SAPA_PROFIL
 62
     4
 10
46.828185807582251
 20
61.166246857627357
 30
0.0
 42
0.1316524975874375
  0
VERTEX
  5
15F5
  8
SAPA_PROFIL
 62
     4
 10
46.694211211366223
 20
61.666246857627549
 30
0.0
  0
VERTEX
  5
15F6
  8
SAPA_PROFIL
 62
     4
 10
45.768061764714041
 20
63.270384754629497
 30
0.0
 42
-0.1316524975874
  0
VERTEX
  5
15F7
  8
SAPA_PROFIL
 62
     4
 10
45.727869385848457
 20
63.42038475462904
 30
0.0
  0
VERTEX
  5
15F8
  8
SAPA_PROFIL
 62
     4
 10
45.72786938584909
 20
63.599999996900351
 30
0.0
 42
-0.4142135623744271
  0
VERTEX
  5
15F9
  8
SAPA_PROFIL
 62
     4
 10
46.12786938585009
 20
63.999999996899533
 30
0.0
  0
VERTEX
  5
15FA
  8
SAPA_PROFIL
 62
     4
 10
49.527869385851091
 20
63.999999996900897
 30
0.0
 42
-0.4142135623724291
  0
VERTEX
  5
15FB
  8
SAPA_PROFIL
 62
     4
 10
49.927869385850727
 20
63.599999996900351
 30
0.0
  0
VERTEX
  5
15FC
  8
SAPA_PROFIL
 62
     4
 10
49.927869385857093
 20
63.417563926463572
 30
0.0
 42
-0.1318219888653524
  0
VERTEX
  5
15FD
  8
SAPA_PROFIL
 62
     4
 10
49.88757698931969
 20
63.267390823991221
 30
0.0
  0
VERTEX
  5
15FE
  8
SAPA_PROFIL
 62
     4
 10
49.078893528095371
 20
61.868863123511566
 30
0.0
  0
VERTEX
  5
15FF
  8
SAPA_PROFIL
 62
     4
 10
48.811778999882328
 20
61.868863123511566
 30
0.0
 42
0.577350269189159
  0
VERTEX
  5
1600
  8
SAPA_PROFIL
 62
     4
 10
48.629913665087763
 20
61.553863123511967
 30
0.0
  0
VERTEX
  5
1601
  8
SAPA_PROFIL
 62
     4
 10
48.831650343764871
 20
61.204444946293307
 30
0.0
 42
0.0612687673629489
  0
VERTEX
  5
1602
  8
SAPA_PROFIL
 62
     4
 10
48.845233714451084
 20
60.911769513193093
 30
0.0
 42
0.2694959974285039
  0
VERTEX
  5
1603
  8
SAPA_PROFIL
 62
     4
 10
49.038365688795018
 20
60.680250466792572
 30
0.0
  0
VERTEX
  5
1604
  8
SAPA_PROFIL
 62
     4
 10
51.499195879248191
 20
59.784581525882921
 30
0.0
 42
-0.3152987888784035
  0
VERTEX
  5
1605
  8
SAPA_PROFIL
 62
     4
 10
51.828185807584767
 20
59.314735215489691
 30
0.0
  0
VERTEX
  5
1606
  8
SAPA_PROFIL
 62
     4
 10
51.828185807583168
 20
57.93323563028526
 30
0.0
 42
-0.2539676464741841
  0
VERTEX
  5
1607
  8
SAPA_PROFIL
 62
     4
 10
51.69157751808789
 20
57.681634459901183
 30
0.0
  0
VERTEX
  5
1608
  8
SAPA_PROFIL
 62
     4
 10
51.285017322082922
 20
57.417611181524528
 30
0.0
 42
-0.5862177598324623
  0
VERTEX
  5
1609
  8
SAPA_PROFIL
 62
     4
 10
50.828185807586408
 20
57.673352996762873
 30
0.0
  0
VERTEX
  5
160A
  8
SAPA_PROFIL
 62
     4
 10
50.828185807594082
 20
58.61452767727269
 30
0.0
 42
0.3152987888813165
  0
VERTEX
  5
160B
  8
SAPA_PROFIL
 62
     4
 10
50.499195879257329
 20
59.084373987670453
 30
0.0
  0
VERTEX
  5
160C
  8
SAPA_PROFIL
 62
     4
 10
49.299195879246099
 20
59.521138268794402
 30
0.0
 42
0.5205670505515651
  0
VERTEX
  5
160D
  8
SAPA_PROFIL
 62
     4
 10
48.62818580758335
 20
59.051291958401173
 30
0.0
  0
VERTEX
  5
160E
  8
SAPA_PROFIL
 62
     4
 10
48.628185807583321
 20
54.034851017732322
 30
0.0
 42
0.3702522326300203
  0
VERTEX
  5
160F
  8
SAPA_PROFIL
 62
     4
 10
48.882645760249019
 20
53.738327655938988
 30
0.0
 42
0.0982365330332397
  0
VERTEX
  5
1610
  8
SAPA_PROFIL
 62
     4
 10
50.570332535244027
 20
53.647874897728059
 30
0.0
 42
0.3735060174783164
  0
VERTEX
  5
1611
  8
SAPA_PROFIL
 62
     4
 10
50.82818580758407
 20
53.944899565639027
 30
0.0
  0
VERTEX
  5
1612
  8
SAPA_PROFIL
 62
     4
 10
50.82818580758498
 20
54.373352996761703
 30
0.0
 42
-0.5920056181162531
  0
VERTEX
  5
1613
  8
SAPA_PROFIL
 62
     4
 10
51.289389310112902
 20
54.626361753079102
 30
0.0
  0
VERTEX
  5
1614
  8
SAPA_PROFIL
 62
     4
 10
51.691577518091201
 20
54.365177676923402
 30
0.0
 42
-0.2539676464746725
  0
VERTEX
  5
1615
  8
SAPA_PROFIL
 62
     4
 10
51.828185807586557
 20
54.11357650653963
 30
0.0
  0
VERTEX
  5
1616
  8
SAPA_PROFIL
 62
     4
 10
51.828185807584987
 20
31.886423487173939
 30
0.0
 42
-0.2539676464741819
  0
VERTEX
  5
1617
  8
SAPA_PROFIL
 62
     4
 10
51.691577518091201
 20
31.63482231679108
 30
0.0
  0
VERTEX
  5
1618
  8
SAPA_PROFIL
 62
     4
 10
51.289389310112867
 20
31.37363824063728
 30
0.0
 42
-0.5920055144124249
  0
VERTEX
  5
1619
  8
SAPA_PROFIL
 62
     4
 10
50.82818580758498
 20
31.626646996952779
 30
0.0
  0
VERTEX
  5
161A
  8
SAPA_PROFIL
 62
     4
 10
50.828185832859987
 20
32.055100474243012
 30
0.0
 42
0.3735060174775405
  0
VERTEX
  5
161B
  8
SAPA_PROFIL
 62
     4
 10
50.570332560519901
 20
32.352125142152687
 30
0.0
 42
0.0355900683670349
  0
VERTEX
  5
161C
  8
SAPA_PROFIL
 62
     4
 10
49.954458973720108
 20
32.396018706184947
 30
0.0
 42
0.0624282003873116
  0
VERTEX
  5
161D
  8
SAPA_PROFIL
 62
     4
 10
48.882645785524979
 20
32.261672383942013
 30
0.0
 42
0.3702522326309292
  0
VERTEX
  5
161E
  8
SAPA_PROFIL
 62
     4
 10
48.628185832859259
 20
31.96514902214863
 30
0.0
  0
VERTEX
  5
161F
  8
SAPA_PROFIL
 62
     4
 10
48.628185807583129
 20
26.948708035315121
 30
0.0
 42
0.5205670505515692
  0
VERTEX
  5
1620
  8
SAPA_PROFIL
 62
     4
 10
49.299195879246099
 20
26.478861724921899
 30
0.0
  0
VERTEX
  5
1621
  8
SAPA_PROFIL
 62
     4
 10
50.499195879255538
 20
26.91562600604685
 30
0.0
 42
0.3152987888807539
  0
VERTEX
  5
1622
  8
SAPA_PROFIL
 62
     4
 10
50.828185807593172
 20
27.385472316442701
 30
0.0
  0
VERTEX
  5
1623
  8
SAPA_PROFIL
 62
     4
 10
50.828185807586351
 20
28.32664699695178
 30
0.0
 42
-0.5862175119221242
  0
VERTEX
  5
1624
  8
SAPA_PROFIL
 62
     4
 10
51.285017133341491
 20
28.582388927933739
 30
0.0
 42
0.0000002084758573
  0
SEQEND
  5
1625
  8
SAPA_PROFIL
 62
     4
  0
CIRCLE
  5
F51
  8
SAPA_PROFIL
 62
     2
 10
81.138407622867817
 20
3.9919935881638362
 30
0.0
 40
0.8999999999999985
  0
POLYLINE
  5
F52
  8
SAPA_PROFIL
 62
     2
 66
     1
 10
0.0
 20
0.0
 30
0.0
  0
VERTEX
  5
1626
  8
SAPA_PROFIL
 62
     2
 10
79.738407622867825
 20
5.2999999997368832
 30
0.0
  0
VERTEX
  5
1627
  8
SAPA_PROFIL
 62
     2
 10
79.930766042860228
 20
4.2090811895841389
 30
0.0
  0
VERTEX
  5
1628
  8
SAPA_PROFIL
 62
     2
 10
79.498969482958614
 20
4.0933816500642024
 30
0.0
 42
0.4430158954262519
  0
VERTEX
  5
1629
  8
SAPA_PROFIL
 62
     2
 10
79.363492435414514
 20
3.8299052219572332
 30
0.0
  0
VERTEX
  5
162A
  8
SAPA_PROFIL
 62
     2
 10
79.840440628633473
 20
2.5594174740390372
 30
0.0
 42
0.3125358528825162
  0
VERTEX
  5
162B
  8
SAPA_PROFIL
 62
     2
 10
80.214922341762872
 20
2.299999999737337
 30
0.0
  0
VERTEX
  5
162C
  8
SAPA_PROFIL
 62
     2
 10
82.085077657673196
 20
2.2999999997368832
 30
0.0
 42
0.3125358528825104
  0
VERTEX
  5
162D
  8
SAPA_PROFIL
 62
     2
 10
82.459559370802594
 20
2.5594174740390372
 30
0.0
  0
VERTEX
  5
162E
  8
SAPA_PROFIL
 62
     2
 10
82.936507564021767
 20
3.8299052219572332
 30
0.0
 42
0.4430158954262519
  0
VERTEX
  5
162F
  8
SAPA_PROFIL
 62
     2
 10
82.801030516477695
 20
4.0933816500640878
 30
0.0
  0
VERTEX
  5
1630
  8
SAPA_PROFIL
 62
     2
 10
82.36923395657584
 20
4.2090811895841389
 30
0.0
  0
VERTEX
  5
1631
  8
SAPA_PROFIL
 62
     2
 10
82.561499999718095
 20
5.2999999997368832
 30
0.0
  0
SEQEND
  5
1632
  8
SAPA_PROFIL
 62
     2
  0
POLYLINE
  5
F53
  8
SAPA_PROFIL
 62
     2
 66
     1
 10
0.0
 20
0.0
 30
0.0
 70
     1
  0
VERTEX
  5
1633
  8
SAPA_PROFIL
 62
     2
 10
79.74999999971817
 20
5.2999999997368832
 30
0.0
 42
-0.285714285714282
  0
VERTEX
  5
1634
  8
SAPA_PROFIL
 62
     2
 10
82.549999999718125
 20
5.2999999997368832
 30
0.0
  0
VERTEX
  5
1635
  8
SAPA_PROFIL
 62
     2
 10
84.623780169105999
 20
5.299999999737337
 30
0.0
 42
0.3882600129940275
  0
VERTEX
  5
1636
  8
SAPA_PROFIL
 62
     2
 10
84.9225816664474
 20
5.573210726016895
 30
0.0
  0
VERTEX
  5
1637
  8
SAPA_PROFIL
 62
     2
 10
85.388791590373899
 20
9.4732107260169869
 30
0.0
 42
0.4406523138893894
  0
VERTEX
  5
1638
  8
SAPA_PROFIL
 62
     2
 10
85.089990093032043
 20
9.7999999997368832
 30
0.0
  0
VERTEX
  5
1639
  8
SAPA_PROFIL
 62
     2
 10
83.380198096111712
 20
9.7999999997368832
 30
0.0
 42
0.3394542588634375
  0
VERTEX
  5
163A
  8
SAPA_PROFIL
 62
     2
 10
83.090420348225166
 20
9.5776457132678843
 30
0.0
  0
VERTEX
  5
163B
  8
SAPA_PROFIL
 62
     2
 10
82.888040620293737
 20
9.3600599311002952
 30
0.0
 42
-0.3394542588633663
  0
VERTEX
  5
163C
  8
SAPA_PROFIL
 62
     2
 10
82.598262872406977
 20
9.1377056446312963
 30
0.0
  0
VERTEX
  5
163D
  8
SAPA_PROFIL
 62
     2
 10
79.701737127029105
 20
9.1377056446312963
 30
0.0
 42
-0.3394542588634373
  0
VERTEX
  5
163E
  8
SAPA_PROFIL
 62
     2
 10
79.411959379142559
 20
9.3600599311002952
 30
0.0
  0
VERTEX
  5
163F
  8
SAPA_PROFIL
 62
     2
 10
79.209579651211129
 20
9.5776457132678843
 30
0.0
 42
0.3394542588633662
  0
VERTEX
  5
1640
  8
SAPA_PROFIL
 62
     2
 10
78.919801903324355
 20
9.7999999997368832
 30
0.0
  0
VERTEX
  5
1641
  8
SAPA_PROFIL
 62
     2
 10
77.210009906404252
 20
9.7999999997368832
 30
0.0
 42
0.4406523138893994
  0
VERTEX
  5
1642
  8
SAPA_PROFIL
 62
     2
 10
76.911208409062624
 20
9.4732107260169869
 30
0.0
  0
VERTEX
  5
1643
  8
SAPA_PROFIL
 62
     2
 10
77.377418332988896
 20
5.573210726016895
 30
0.0
 42
0.3882600129940462
  0
VERTEX
  5
1644
  8
SAPA_PROFIL
 62
     2
 10
77.676219830330297
 20
5.2999999997368832
 30
0.0
  0
VERTEX
  5
1645
  8
SAPA_PROFIL
 62
     2
 10
79.738407622867825
 20
5.2999999997368832
 30
0.0
  0
SEQEND
  5
1646
  8
SAPA_PROFIL
 62
     2
  0
POLYLINE
  5
F54
  8
SAPA_PROFIL
 66
     1
 10
0.0
 20
0.0
 30
0.0
 70
     1
  0
VERTEX
  5
1647
  8
SAPA_PROFIL
 10
48.41171875731203
 20
79.999999996859458
 30
0.0
 42
0.2679491924315167
  0
VERTEX
  5
1648
  8
SAPA_PROFIL
 10
48.151911136176352
 20
80.149999996859435
 30
0.0
  0
VERTEX
  5
1649
  8
SAPA_PROFIL
 10
47.799431999424598
 20
80.14999999685898
 30
0.0
 42
-0.4142135623730951
  0
VERTEX
  5
164A
  8
SAPA_PROFIL
 10
47.4994319994235
 20
80.449999996859958
 30
0.0
  0
VERTEX
  5
164B
  8
SAPA_PROFIL
 10
47.499431999420089
 20
83.249999993659458
 30
0.0
 42
-0.4142135623728859
  0
VERTEX
  5
164C
  8
SAPA_PROFIL
 10
47.99943199941913
 20
83.749999993660083
 30
0.0
  0
VERTEX
  5
164D
  8
SAPA_PROFIL
 10
48.999431999427721
 20
83.749999993662016
 30
0.0
 42
-0.4142135623733615
  0
VERTEX
  5
164E
  8
SAPA_PROFIL
 10
49.999431999429653
 20
82.749999993663039
 30
0.0
  0
VERTEX
  5
164F
  8
SAPA_PROFIL
 10
49.99943199943101
 20
81.383974589875152
 30
0.0
 42
0.1316524975871477
  0
VERTEX
  5
1650
  8
SAPA_PROFIL
 10
50.0664192975388
 20
81.133974589875663
 30
0.0
  0
VERTEX
  5
1651
  8
SAPA_PROFIL
 10
51.632444701330137
 20
78.421539024565504
 30
0.0
 42
-0.1316524975872168
  0
VERTEX
  5
1652
  8
SAPA_PROFIL
 10
51.699431999437927
 20
78.171539024565845
 30
0.0
  0
VERTEX
  5
1653
  8
SAPA_PROFIL
 10
51.699431999443561
 20
70.24999999366554
 30
0.0
 42
0.4142135623729286
  0
VERTEX
  5
1654
  8
SAPA_PROFIL
 10
51.999431999443509
 20
69.949999993665685
 30
0.0
  0
VERTEX
  5
1655
  8
SAPA_PROFIL
 10
55.475990422514712
 20
69.949999993665074
 30
0.0
 42
0.4244748162096643
  0
VERTEX
  5
1656
  8
SAPA_PROFIL
 10
55.775807670620509
 20
70.260469842675832
 30
0.0
  0
VERTEX
  5
1657
  8
SAPA_PROFIL
 10
55.219823441660651
 20
86.18177504448164
 30
0.0
 42
0.4142135623730951
  0
VERTEX
  5
1658
  8
SAPA_PROFIL
 10
54.909536344544172
 20
86.471122443576618
 30
0.0
  0
VERTEX
  5
1659
  8
SAPA_PROFIL
 10
54.3099018483328
 20
86.450182745555097
 30
0.0
 42
-0.6370702608075453
  0
VERTEX
  5
165A
  8
SAPA_PROFIL
 10
54.063028773239978
 20
86.934698436258529
 30
0.0
  0
VERTEX
  5
165B
  8
SAPA_PROFIL
 10
55.448764180542362
 20
88.708358875268857
 30
0.0
 42
-0.7002075382097091
  0
VERTEX
  5
165C
  8
SAPA_PROFIL
 10
56.342464970855239
 20
88.417977885957271
 30
0.0
  0
VERTEX
  5
165D
  8
SAPA_PROFIL
 10
57.070825201406819
 20
67.560469842679353
 30
0.0
 42
-0.4244748162048541
  0
VERTEX
  5
165E
  8
SAPA_PROFIL
 10
56.771007953305912
 20
67.249999993668609
 30
0.0
  0
VERTEX
  5
165F
  8
SAPA_PROFIL
 10
56.049431999447741
 20
67.2499999936569
 30
0.0
 42
-0.4142135623740385
  0
VERTEX
  5
1660
  8
SAPA_PROFIL
 10
55.749431999446593
 20
67.549999993657195
 30
0.0
  0
VERTEX
  5
1661
  8
SAPA_PROFIL
 10
55.749431999446642
 20
68.449999993654217
 30
0.0
 42
0.4142135623724291
  0
VERTEX
  5
1662
  8
SAPA_PROFIL
 10
55.44943199944737
 20
68.749999993654171
 30
0.0
  0
VERTEX
  5
1663
  8
SAPA_PROFIL
 10
50.499431999441242
 20
68.74999999366554
 30
0.0
 42
0.4142135623740522
  0
VERTEX
  5
1664
  8
SAPA_PROFIL
 10
49.999431999440098
 20
68.249999993665028
 30
0.0
  0
VERTEX
  5
1665
  8
SAPA_PROFIL
 10
49.999431999441519
 20
66.749999993664403
 30
0.0
 42
-0.4142135623729374
  0
VERTEX
  5
1666
  8
SAPA_PROFIL
 10
49.499431999442258
 20
66.249999993663934
 30
0.0
  0
VERTEX
  5
1667
  8
SAPA_PROFIL
 10
47.999431999442209
 20
66.249999993661788
 30
0.0
 42
-0.4142135623731454
  0
VERTEX
  5
1668
  8
SAPA_PROFIL
 10
47.49943199944147
 20
66.749999993661163
 30
0.0
  0
VERTEX
  5
1669
  8
SAPA_PROFIL
 10
47.4994319994384
 20
69.149999996860117
 30
0.0
 42
-0.414213562373503
  0
VERTEX
  5
166A
  8
SAPA_PROFIL
 10
47.999431999438457
 20
69.649999996860799
 30
0.0
  0
VERTEX
  5
166B
  8
SAPA_PROFIL
 10
48.499431999444262
 20
69.649999996860743
 30
0.0
 42
0.414213562373547
  0
VERTEX
  5
166C
  8
SAPA_PROFIL
 10
49.499431999444312
 20
70.649999996862221
 30
0.0
  0
VERTEX
  5
166D
  8
SAPA_PROFIL
 10
49.499431999433618
 20
77.982050801225228
 30
0.0
 42
0.1316524975870585
  0
VERTEX
  5
166E
  8
SAPA_PROFIL
 10
49.432444701325828
 20
78.232050801224545
 30
0.0
  0
SEQEND
  5
166F
  8
SAPA_PROFIL
  0
POLYLINE
  5
F82
  8
SAPA_GLAS
 66
     1
 10
0.0
 20
0.0
 30
0.0
 70
     1
  0
VERTEX
  5
1689
  8
SAPA_GLAS
 10
6.9999999998513927
 20
14.9974308598301
 30
0.0
  0
VERTEX
  5
168A
  8
SAPA_GLAS
 10
6.9999999998513927
 20
29.997430859830111
 30
0.0
  0
VERTEX
  5
168B
  8
SAPA_GLAS
 10
16.99999999985139
 20
29.997430859830111
 30
0.0
  0
VERTEX
  5
168C
  8
SAPA_GLAS
 10
16.99999999985139
 20
14.9974308598301
 30
0.0
  0
SEQEND
  5
168D
  8
SAPA_GLAS
  0
POLYLINE
  5
F83
  8
SAPA_GLAS
 66
     1
 10
0.0
 20
0.0
 30
0.0
 70
     1
  0
VERTEX
  5
168E
  8
SAPA_GLAS
 10
6.9999999998513927
 20
33.997430859830096
 30
0.0
  0
VERTEX
  5
168F
  8
SAPA_GLAS
 10
6.9999999998513927
 20
48.997430859830096
 30
0.0
  0
VERTEX
  5
1690
  8
SAPA_GLAS
 10
16.99999999985139
 20
48.997430859830096
 30
0.0
  0
VERTEX
  5
1691
  8
SAPA_GLAS
 10
16.99999999985139
 20
33.997430859830096
 30
0.0
  0
SEQEND
  5
1692
  8
SAPA_GLAS
  0
POLYLINE
  5
F84
  8
SAPA_GLAS
 66
     1
 10
0.0
 20
0.0
 30
0.0
  0
VERTEX
  5
1693
  8
SAPA_GLAS
 10
-13.00000000014837
 20
33.997430859830096
 30
0.0
  0
VERTEX
  5
1694
  8
SAPA_GLAS
 10
16.999999999851621
 20
33.997430859830096
 30
0.0
  0
VERTEX
  5
1695
  8
SAPA_GLAS
 10
16.999999999851621
 20
29.997430859830111
 30
0.0
  0
VERTEX
  5
1696
  8
SAPA_GLAS
 10
-13.00000000014837
 20
29.997430859830111
 30
0.0
  0
SEQEND
  5
1697
  8
SAPA_GLAS
  0
POLYLINE
  5
F85
  8
SAPA_GLAS
 66
     1
 10
0.0
 20
0.0
 30
0.0
  0
VERTEX
  5
1698
  8
SAPA_GLAS
 10
-13.00000000014837
 20
54.997430859830096
 30
0.0
  0
VERTEX
  5
1699
  8
SAPA_GLAS
 10
16.999999999851621
 20
54.997430859830096
 30
0.0
  0
VERTEX
  5
169A
  8
SAPA_GLAS
 10
16.999999999851621
 20
48.997430859830096
 30
0.0
  0
VERTEX
  5
169B
  8
SAPA_GLAS
 10
-13.00000000014837
 20
48.997430859830096
 30
0.0
  0
SEQEND
  5
169C
  8
SAPA_GLAS
  0
POLYLINE
  5
F86
  8
SAPA_GLAS
 66
     1
 10
0.0
 20
0.0
 30
0.0
  0
VERTEX
  5
169D
  8
SAPA_GLAS
 10
-13.00000000014837
 20
8.9974308598301036
 30
0.0
  0
VERTEX
  5
169E
  8
SAPA_GLAS
 10
16.999999999851621
 20
8.9974308598301036
 30
0.0
  0
VERTEX
  5
169F
  8
SAPA_GLAS
 10
16.999999999851621
 20
14.9974308598301
 30
0.0
  0
VERTEX
  5
16A0
  8
SAPA_GLAS
 10
-13.00000000014837
 20
14.9974308598301
 30
0.0
  0
SEQEND
  5
16A1
  8
SAPA_GLAS
  0
INSERT
  5
F8F
  8
SAPA_FYLLNING
  6
CONTINUOUS
  2
*X83
 10
0.0
 20
0.0
 30
0.0
1001
ACAD
1000
HATCH
1002
{
1070
    19
1000
HEX
1040
0.25
1040
-1.5707963267948959
1000
R14_HATCH_DATA
1000
F8F
1011
1.0
1021
0.0
1031
0.0
1021
0.0
1031
0.0
1011
0.0
1021
0.0
1031
0.0
1021
1.0
1031
0.0
1011
0.0
1021
0.0
1031
0.0
1021
0.0
1031
1.0
1040
0.0
1010
0.0
1020
0.0
1030
1.0
1000
HEX
1070
     0
1070
     0
1071
        1
1071
        7
1070
     1
1070
     1
1071
        2
1040
89.499431999324173
1040
212.80057044432459
1040
1.0
1040
95.499431999324344
1040
212.80057044432459
1040
1.0
1071
        0
1070
     0
1070
     1
1040
-1.5707963267948959
1040
0.25
1070
     0
1070
     3
1040
1.5707963267948959
1040
21.99943199934788
1040
85.999999999877915
1040
1.374814999999999
1040
0.0000000000000003
1070
     2
1040
0.79375
1040
-1.587499999999999
1040
5.7595865315812871
1040
21.99943199934788
1040
85.999999999877915
1040
-0.6874074999999995
1040
-1.1906247155039029
1070
     2
1040
0.7937499999999998
1040
-1.587499999999999
1040
0.5235987755982995
1040
21.99943199934788
1040
86.793749999877932
1040
0.6874075000000003
1040
-1.190624715503902
1070
     2
1040
0.7937499999999998
1040
-1.587499999999999
1040
0.0216905703044498
1071
        1
1040
92.565368177986088
1040
213.08714238694969
1040
0.0
1002
}
  0
INSERT
  5
F90
  8
SAPA_FYLLNING
  6
CONTINUOUS
  2
*X84
 10
0.0
 20
0.0
 30
0.0
1001
ACAD
1000
HATCH
1002
{
1070
    19
1000
ANSI37
1040
0.25
1040
-1.5707963267948959
1000
R14_HATCH_DATA
1000
F90
1011
1.0
1021
0.0
1031
0.0
1021
0.0
1031
0.0
1011
0.0
1021
0.0
1031
0.0
1021
1.0
1031
0.0
1011
0.0
1021
0.0
1031
0.0
1021
0.0
1031
1.0
1040
0.0
1010
0.0
1020
0.0
1030
1.0
1000
ANSI37
1070
     0
1070
     0
1071
        1
1071
        7
1070
     1
1070
     1
1071
        9
1040
99.019633796675464
1040
209.80057044432411
1040
0.0
1040
92.499431999323605
1040
209.80057044432411
1040
1.0
1040
92.499431999323605
1040
215.80057044432419
1040
0.0
1040
94.085218436946775
1040
215.80057044432419
1040
-0.1989123673796868
1040
94.297350471302593
1040
215.7127024786808
1040
0.0
1040
94.563035896251549
1040
215.44701705373129
1040
0.4142135623730951
1040
95.270142677438216
1040
215.44701705373089
1040
0.0
1040
96.911564033674836
1040
217.08843840996749
1040
0.2679491924312271
1040
96.989209747205877
1040
217.3782161578543
1040
0.0
1071
        0
1070
     0
1070
     1
1040
-1.5707963267948959
1040
0.25
1070
     0
1070
     2
1040
0.7853981633974485
1040
21.99943199934788
1040
85.999999999877915
1040
0.5612660075668222
1040
-0.5612660075668219
1070
     0
1040
5.4977871437821371
1040
21.99943199934788
1040
85.999999999877915
1040
-0.5612660075668219
1040
-0.5612660075668222
1070
     0
1040
0.0212842410303403
1071
        1
1040
97.043317229386503
1040
211.89935242420719
1040
0.0
1002
}
  0
INSERT
  5
F91
  8
SAPA_FYLLNING
  6
CONTINUOUS
  2
*X85
 10
0.0
 20
0.0
 30
0.0
1001
ACAD
1000
HATCH
1002
{
1070
    19
1000
ANSI37
1040
0.25
1040
-1.5707963267948959
1000
R14_HATCH_DATA
1000
F91
1011
1.0
1021
0.0
1031
0.0
1021
0.0
1031
0.0
1011
0.0
1021
0.0
1031
0.0
1021
1.0
1031
0.0
1011
0.0
1021
0.0
1031
0.0
1021
0.0
1031
1.0
1040
0.0
1010
0.0
1020
0.0
1030
1.0
1000
ANSI37
1070
     0
1070
     0
1071
        1
1071
        7
1070
     1
1070
     1
1071
        7
1040
99.556707123921797
1040
9.8005704443240553
1040
0.0
1040
96.990231839513115
1040
0.222354286541016
1040
0.2679491924311903
1040
96.912586125982244
1040
0.5121320344279461
1040
0.0
1040
95.871164769749981
1040
1.5535533906600949
1040
0.198912367379658
1040
95.517611379156762
1040
1.7000000000668181
1040
0.0
1040
89.023220899266107
1040
1.700000000066747
1040
1.0
1040
89.023220899266065
1040
9.8005704443240482
1040
0.0
1071
        0
1070
     0
1070
     1
1040
-1.5707963267948959
1040
0.25
1070
     0
1070
     2
1040
0.7853981633974485
1040
21.99943199934788
1040
-14.000000000122069
1040
0.5612660075668222
1040
-0.5612660075668219
1070
     0
1040
5.4977871437821371
1040
21.99943199934788
1040
-14.000000000122069
1040
-0.5612660075668219
1040
-0.5612660075668222
1070
     0
1040
0.0363322098761133
1071
        1
1040
95.925251387484835
1040
6.7061116951307262
1040
0.0
1002
}
  0
INSERT
  5
F92
  8
SAPA_FYLLNING
  6
CONTINUOUS
  2
*X86
 10
0.0
 20
0.0
 30
0.0
1001
ACAD
1000
HATCH
1002
{
1070
    19
1000
HEX
1040
0.25
1040
-1.5707963267948959
1000
R14_HATCH_DATA
1000
F92
1011
1.0
1021
0.0
1031
0.0
1021
0.0
1031
0.0
1011
0.0
1021
0.0
1031
0.0
1021
1.0
1031
0.0
1011
0.0
1021
0.0
1031
0.0
1021
0.0
1031
1.0
1040
0.0
1010
0.0
1020
0.0
1030
1.0
1000
HEX
1070
     0
1070
     0
1071
        1
1071
        7
1070
     1
1070
     1
1071
        4
1040
85.003632297641559
1040
6.2479978443766662
1040
0.0
1040
84.999576383088467
1040
6.2140687794957863
1040
0.0286974018603331
1040
84.972935677138096
1040
5.7502852221952976
1040
1.0
1040
93.073506121395383
1040
5.7502852221952976
1040
0.9402247308380761
1071
        0
1070
     0
1070
     1
1040
-1.5707963267948959
1040
0.25
1070
     0
1070
     3
1040
1.5707963267948959
1040
21.99943199934788
1040
-14.000000000122069
1040
1.374814999999999
1040
0.0000000000000003
1070
     2
1040
0.79375
1040
-1.587499999999999
1040
5.7595865315812871
1040
21.99943199934788
1040
-14.000000000122069
1040
-0.6874074999999995
1040
-1.1906247155039029
1070
     2
1040
0.7937499999999998
1040
-1.587499999999999
1040
0.5235987755982995
1040
21.99943199934788
1040
-13.20625000012207
1040
0.6874075000000003
1040
-1.190624715503902
1070
     2
1040
0.7937499999999998
1040
-1.587499999999999
1040
0.0303180261480682
1071
        1
1040
89.034802996861373
1040
5.9260628811821716
1040
0.0
1002
}
  0
POLYLINE
  5
F9A
  8
SAPA_FOGBAND
 62
     2
 10
12.226214553803294
 20
58.588806231616658
 30
0.0
 66
     1
 70
     8
  0
VERTEX
  8
SAPA_FOGBAND
  5
1804
 10
12.2262
 20
58.5888
 30
0.000000
  70
    32
  0
VERTEX
  8
SAPA_FOGBAND
  5
1805
 10
12.2288
 20
58.5201
 30
0.000000
  70
    32
  0
VERTEX
  8
SAPA_FOGBAND
  5
1806
 10
12.2367
 20
58.4516
 30
0.000000
  70
    32
  0
VERTEX
  8
SAPA_FOGBAND
  5
1807
 10
12.2497
 20
58.3834
 30
0.000000
  70
    32
  0
VERTEX
  8
SAPA_FOGBAND
  5
1808
 10
12.2679
 20
58.3157
 30
0.000000
  70
    32
  0
VERTEX
  8
SAPA_FOGBAND
  5
1809
 10
12.2912
 20
58.2486
 30
0.000000
  70
    32
  0
VERTEX
  8
SAPA_FOGBAND
  5
180A
 10
12.3196
 20
58.1824
 30
0.000000
  70
    32
  0
VERTEX
  8
SAPA_FOGBAND
  5
180B
 10
12.3529
 20
58.1172
 30
0.000000
  70
    32
  0
VERTEX
  8
SAPA_FOGBAND
  5
180C
 10
12.3912
 20
58.0530
 30
0.000000
  70
    32
  0
VERTEX
  8
SAPA_FOGBAND
  5
180D
 10
12.4343
 20
57.9902
 30
0.000000
  70
    32
  0
VERTEX
  8
SAPA_FOGBAND
  5
180E
 10
12.4822
 20
57.9289
 30
0.000000
  70
    32
  0
VERTEX
  8
SAPA_FOGBAND
  5
180F
 10
12.5346
 20
57.8691
 30
0.000000
  70
    32
  0
VERTEX
  8
SAPA_FOGBAND
  5
1810
 10
12.5916
 20
57.8110
 30
0.000000
  70
    32
  0
VERTEX
  8
SAPA_FOGBAND
  5
1811
 10
12.6528
 20
57.7548
 30
0.000000
  70
    32
  0
VERTEX
  8
SAPA_FOGBAND
  5
1812
 10
12.7183
 20
57.7007
 30
0.000000
  70
    32
  0
VERTEX
  8
SAPA_FOGBAND
  5
1813
 10
12.7878
 20
57.6486
 30
0.000000
  70
    32
  0
VERTEX
  8
SAPA_FOGBAND
  5
1814
 10
12.8611
 20
57.5989
 30
0.000000
  70
    32
  0
VERTEX
  8
SAPA_FOGBAND
  5
1815
 10
12.9382
 20
57.5515
 30
0.000000
  70
    32
  0
VERTEX
  8
SAPA_FOGBAND
  5
1816
 10
13.0188
 20
57.5066
 30
0.000000
  70
    32
  0
VERTEX
  8
SAPA_FOGBAND
  5
1817
 10
13.1027
 20
57.4643
 30
0.000000
  70
    32
  0
VERTEX
  8
SAPA_FOGBAND
  5
1818
 10
13.1896
 20
57.4247
 30
0.000000
  70
    32
  0
VERTEX
  8
SAPA_FOGBAND
  5
1819
 10
13.2795
 20
57.3880
 30
0.000000
  70
    32
  0
VERTEX
  8
SAPA_FOGBAND
  5
181A
 10
13.3721
 20
57.3541
 30
0.000000
  70
    32
  0
VERTEX
  8
SAPA_FOGBAND
  5
181B
 10
13.4672
 20
57.3232
 30
0.000000
  70
    32
  0
VERTEX
  8
SAPA_FOGBAND
  5
181C
 10
13.5644
 20
57.2954
 30
0.000000
  70
    32
  0
VERTEX
  8
SAPA_FOGBAND
  5
181D
 10
13.6637
 20
57.2706
 30
0.000000
  70
    32
  0
VERTEX
  8
SAPA_FOGBAND
  5
181E
 10
13.7647
 20
57.2491
 30
0.000000
  70
    32
  0
VERTEX
  8
SAPA_FOGBAND
  5
181F
 10
13.8673
 20
57.2308
 30
0.000000
  70
    32
  0
VERTEX
  8
SAPA_FOGBAND
  5
1820
 10
13.9711
 20
57.2157
 30
0.000000
  70
    32
  0
VERTEX
  8
SAPA_FOGBAND
  5
1821
 10
14.0759
 20
57.2040
 30
0.000000
  70
    32
  0
VERTEX
  8
SAPA_FOGBAND
  5
1822
 10
14.1815
 20
57.1955
 30
0.000000
  70
    32
  0
VERTEX
  8
SAPA_FOGBAND
  5
1823
 10
14.2876
 20
57.1905
 30
0.000000
  70
    32
  0
VERTEX
  8
SAPA_FOGBAND
  5
1824
 10
14.3940
 20
57.1888
 30
0.000000
  70
    32
  0
VERTEX
  8
SAPA_FOGBAND
  5
1825
 10
14.5004
 20
57.1905
 30
0.000000
  70
    32
  0
VERTEX
  8
SAPA_FOGBAND
  5
1826
 10
14.6065
 20
57.1955
 30
0.000000
  70
    32
  0
VERTEX
  8
SAPA_FOGBAND
  5
1827
 10
14.7121
 20
57.2040
 30
0.000000
  70
    32
  0
VERTEX
  8
SAPA_FOGBAND
  5
1828
 10
14.8169
 20
57.2157
 30
0.000000
  70
    32
  0
VERTEX
  8
SAPA_FOGBAND
  5
1829
 10
14.9207
 20
57.2308
 30
0.000000
  70
    32
  0
VERTEX
  8
SAPA_FOGBAND
  5
182A
 10
15.0233
 20
57.2491
 30
0.000000
  70
    32
  0
VERTEX
  8
SAPA_FOGBAND
  5
182B
 10
15.1243
 20
57.2706
 30
0.000000
  70
    32
  0
VERTEX
  8
SAPA_FOGBAND
  5
182C
 10
15.2236
 20
57.2954
 30
0.000000
  70
    32
  0
VERTEX
  8
SAPA_FOGBAND
  5
182D
 10
15.3209
 20
57.3232
 30
0.000000
  70
    32
  0
VERTEX
  8
SAPA_FOGBAND
  5
182E
 10
15.4159
 20
57.3541
 30
0.000000
  70
    32
  0
VERTEX
  8
SAPA_FOGBAND
  5
182F
 10
15.5085
 20
57.3880
 30
0.000000
  70
    32
  0
VERTEX
  8
SAPA_FOGBAND
  5
1830
 10
15.5984
 20
57.4247
 30
0.000000
  70
    32
  0
VERTEX
  8
SAPA_FOGBAND
  5
1831
 10
15.6854
 20
57.4643
 30
0.000000
  70
    32
  0
VERTEX
  8
SAPA_FOGBAND
  5
1832
 10
15.7692
 20
57.5066
 30
0.000000
  70
    32
  0
VERTEX
  8
SAPA_FOGBAND
  5
1833
 10
15.8498
 20
57.5515
 30
0.000000
  70
    32
  0
VERTEX
  8
SAPA_FOGBAND
  5
1834
 10
15.9269
 20
57.5989
 30
0.000000
  70
    32
  0
VERTEX
  8
SAPA_FOGBAND
  5
1835
 10
16.0002
 20
57.6486
 30
0.000000
  70
    32
  0
VERTEX
  8
SAPA_FOGBAND
  5
1836
 10
16.0697
 20
57.7007
 30
0.000000
  70
    32
  0
VERTEX
  8
SAPA_FOGBAND
  5
1837
 10
16.1352
 20
57.7548
 30
0.000000
  70
    32
  0
VERTEX
  8
SAPA_FOGBAND
  5
1838
 10
16.1965
 20
57.8110
 30
0.000000
  70
    32
  0
VERTEX
  8
SAPA_FOGBAND
  5
1839
 10
16.2534
 20
57.8691
 30
0.000000
  70
    32
  0
VERTEX
  8
SAPA_FOGBAND
  5
183A
 10
16.3058
 20
57.9289
 30
0.000000
  70
    32
  0
VERTEX
  8
SAPA_FOGBAND
  5
183B
 10
16.3537
 20
57.9902
 30
0.000000
  70
    32
  0
VERTEX
  8
SAPA_FOGBAND
  5
183C
 10
16.3968
 20
58.0530
 30
0.000000
  70
    32
  0
VERTEX
  8
SAPA_FOGBAND
  5
183D
 10
16.4351
 20
58.1172
 30
0.000000
  70
    32
  0
VERTEX
  8
SAPA_FOGBAND
  5
183E
 10
16.4684
 20
58.1824
 30
0.000000
  70
    32
  0
VERTEX
  8
SAPA_FOGBAND
  5
183F
 10
16.4968
 20
58.2486
 30
0.000000
  70
    32
  0
VERTEX
  8
SAPA_FOGBAND
  5
1840
 10
16.5201
 20
58.3157
 30
0.000000
  70
    32
  0
VERTEX
  8
SAPA_FOGBAND
  5
1841
 10
16.5383
 20
58.3834
 30
0.000000
  70
    32
  0
VERTEX
  8
SAPA_FOGBAND
  5
1842
 10
16.5514
 20
58.4516
 30
0.000000
  70
    32
  0
VERTEX
  8
SAPA_FOGBAND
  5
1843
 10
16.5592
 20
58.5201
 30
0.000000
  70
    32
  0
VERTEX
  8
SAPA_FOGBAND
  5
1844
 10
16.5618
 20
58.5888
 30
0.000000
  70
    32
  0
VERTEX
  8
SAPA_FOGBAND
  5
1845
 10
16.5592
 20
58.6575
 30
0.000000
  70
    32
  0
VERTEX
  8
SAPA_FOGBAND
  5
1846
 10
16.5514
 20
58.7260
 30
0.000000
  70
    32
  0
VERTEX
  8
SAPA_FOGBAND
  5
1847
 10
16.5383
 20
58.7942
 30
0.000000
  70
    32
  0
VERTEX
  8
SAPA_FOGBAND
  5
1848
 10
16.5201
 20
58.8619
 30
0.000000
  70
    32
  0
VERTEX
  8
SAPA_FOGBAND
  5
1849
 10
16.4968
 20
58.9290
 30
0.000000
  70
    32
  0
VERTEX
  8
SAPA_FOGBAND
  5
184A
 10
16.4684
 20
58.9952
 30
0.000000
  70
    32
  0
VERTEX
  8
SAPA_FOGBAND
  5
184B
 10
16.4351
 20
59.0605
 30
0.000000
  70
    32
  0
VERTEX
  8
SAPA_FOGBAND
  5
184C
 10
16.3968
 20
59.1246
 30
0.000000
  70
    32
  0
VERTEX
  8
SAPA_FOGBAND
  5
184D
 10
16.3537
 20
59.1874
 30
0.000000
  70
    32
  0
VERTEX
  8
SAPA_FOGBAND
  5
184E
 10
16.3058
 20
59.2488
 30
0.000000
  70
    32
  0
VERTEX
  8
SAPA_FOGBAND
  5
184F
 10
16.2534
 20
59.3086
 30
0.000000
  70
    32
  0
VERTEX
  8
SAPA_FOGBAND
  5
1850
 10
16.1965
 20
59.3666
 30
0.000000
  70
    32
  0
VERTEX
  8
SAPA_FOGBAND
  5
1851
 10
16.1352
 20
59.4228
 30
0.000000
  70
    32
  0
VERTEX
  8
SAPA_FOGBAND
  5
1852
 10
16.0697
 20
59.4770
 30
0.000000
  70
    32
  0
VERTEX
  8
SAPA_FOGBAND
  5
1853
 10
16.0002
 20
59.5290
 30
0.000000
  70
    32
  0
VERTEX
  8
SAPA_FOGBAND
  5
1854
 10
15.9269
 20
59.5788
 30
0.000000
  70
    32
  0
VERTEX
  8
SAPA_FOGBAND
  5
1855
 10
15.8498
 20
59.6261
 30
0.000000
  70
    32
  0
VERTEX
  8
SAPA_FOGBAND
  5
1856
 10
15.7692
 20
59.6710
 30
0.000000
  70
    32
  0
VERTEX
  8
SAPA_FOGBAND
  5
1857
 10
15.6854
 20
59.7133
 30
0.000000
  70
    32
  0
VERTEX
  8
SAPA_FOGBAND
  5
1858
 10
15.5984
 20
59.7529
 30
0.000000
  70
    32
  0
VERTEX
  8
SAPA_FOGBAND
  5
1859
 10
15.5085
 20
59.7896
 30
0.000000
  70
    32
  0
VERTEX
  8
SAPA_FOGBAND
  5
185A
 10
15.4159
 20
59.8235
 30
0.000000
  70
    32
  0
VERTEX
  8
SAPA_FOGBAND
  5
185B
 10
15.3209
 20
59.8544
 30
0.000000
  70
    32
  0
VERTEX
  8
SAPA_FOGBAND
  5
185C
 10
15.2236
 20
59.8822
 30
0.000000
  70
    32
  0
VERTEX
  8
SAPA_FOGBAND
  5
185D
 10
15.1243
 20
59.9070
 30
0.000000
  70
    32
  0
VERTEX
  8
SAPA_FOGBAND
  5
185E
 10
15.0233
 20
59.9285
 30
0.000000
  70
    32
  0
VERTEX
  8
SAPA_FOGBAND
  5
185F
 10
14.9207
 20
59.9468
 30
0.000000
  70
    32
  0
VERTEX
  8
SAPA_FOGBAND
  5
1860
 10
14.8169
 20
59.9619
 30
0.000000
  70
    32
  0
VERTEX
  8
SAPA_FOGBAND
  5
1861
 10
14.7121
 20
59.9737
 30
0.000000
  70
    32
  0
VERTEX
  8
SAPA_FOGBAND
  5
1862
 10
14.6065
 20
59.9821
 30
0.000000
  70
    32
  0
VERTEX
  8
SAPA_FOGBAND
  5
1863
 10
14.5004
 20
59.9871
 30
0.000000
  70
    32
  0
VERTEX
  8
SAPA_FOGBAND
  5
1864
 10
14.3940
 20
59.9888
 30
0.000000
  70
    32
  0
VERTEX
  8
SAPA_FOGBAND
  5
1865
 10
14.2876
 20
59.9871
 30
0.000000
  70
    32
  0
VERTEX
  8
SAPA_FOGBAND
  5
1866
 10
14.1815
 20
59.9821
 30
0.000000
  70
    32
  0
VERTEX
  8
SAPA_FOGBAND
  5
1867
 10
14.0759
 20
59.9737
 30
0.000000
  70
    32
  0
VERTEX
  8
SAPA_FOGBAND
  5
1868
 10
13.9711
 20
59.9619
 30
0.000000
  70
    32
  0
VERTEX
  8
SAPA_FOGBAND
  5
1869
 10
13.8673
 20
59.9468
 30
0.000000
  70
    32
  0
VERTEX
  8
SAPA_FOGBAND
  5
186A
 10
13.7647
 20
59.9285
 30
0.000000
  70
    32
  0
VERTEX
  8
SAPA_FOGBAND
  5
186B
 10
13.6637
 20
59.9070
 30
0.000000
  70
    32
  0
VERTEX
  8
SAPA_FOGBAND
  5
186C
 10
13.5644
 20
59.8822
 30
0.000000
  70
    32
  0
VERTEX
  8
SAPA_FOGBAND
  5
186D
 10
13.4672
 20
59.8544
 30
0.000000
  70
    32
  0
VERTEX
  8
SAPA_FOGBAND
  5
186E
 10
13.3721
 20
59.8235
 30
0.000000
  70
    32
  0
VERTEX
  8
SAPA_FOGBAND
  5
186F
 10
13.2795
 20
59.7896
 30
0.000000
  70
    32
  0
VERTEX
  8
SAPA_FOGBAND
  5
1870
 10
13.1896
 20
59.7529
 30
0.000000
  70
    32
  0
VERTEX
  8
SAPA_FOGBAND
  5
1871
 10
13.1027
 20
59.7133
 30
0.000000
  70
    32
  0
VERTEX
  8
SAPA_FOGBAND
  5
1872
 10
13.0188
 20
59.6710
 30
0.000000
  70
    32
  0
VERTEX
  8
SAPA_FOGBAND
  5
1873
 10
12.9382
 20
59.6261
 30
0.000000
  70
    32
  0
VERTEX
  8
SAPA_FOGBAND
  5
1874
 10
12.8611
 20
59.5788
 30
0.000000
  70
    32
  0
VERTEX
  8
SAPA_FOGBAND
  5
1875
 10
12.7878
 20
59.5290
 30
0.000000
  70
    32
  0
VERTEX
  8
SAPA_FOGBAND
  5
1876
 10
12.7183
 20
59.4770
 30
0.000000
  70
    32
  0
VERTEX
  8
SAPA_FOGBAND
  5
1877
 10
12.6528
 20
59.4228
 30
0.000000
  70
    32
  0
VERTEX
  8
SAPA_FOGBAND
  5
1878
 10
12.5916
 20
59.3666
 30
0.000000
  70
    32
  0
VERTEX
  8
SAPA_FOGBAND
  5
1879
 10
12.5346
 20
59.3086
 30
0.000000
  70
    32
  0
VERTEX
  8
SAPA_FOGBAND
  5
187A
 10
12.4822
 20
59.2488
 30
0.000000
  70
    32
  0
VERTEX
  8
SAPA_FOGBAND
  5
187B
 10
12.4343
 20
59.1874
 30
0.000000
  70
    32
  0
VERTEX
  8
SAPA_FOGBAND
  5
187C
 10
12.3912
 20
59.1246
 30
0.000000
  70
    32
  0
VERTEX
  8
SAPA_FOGBAND
  5
187D
 10
12.3529
 20
59.0605
 30
0.000000
  70
    32
  0
VERTEX
  8
SAPA_FOGBAND
  5
187E
 10
12.3196
 20
58.9952
 30
0.000000
  70
    32
  0
VERTEX
  8
SAPA_FOGBAND
  5
187F
 10
12.2912
 20
58.9290
 30
0.000000
  70
    32
  0
VERTEX
  8
SAPA_FOGBAND
  5
1880
 10
12.2679
 20
58.8619
 30
0.000000
  70
    32
  0
VERTEX
  8
SAPA_FOGBAND
  5
1881
 10
12.2497
 20
58.7942
 30
0.000000
  70
    32
  0
VERTEX
  8
SAPA_FOGBAND
  5
1882
 10
12.2367
 20
58.7260
 30
0.000000
  70
    32
  0
VERTEX
  8
SAPA_FOGBAND
  5
1883
 10
12.2288
 20
58.6575
 30
0.000000
  70
    32
  0
VERTEX
  8
SAPA_FOGBAND
  5
1884
 10
12.2262
 20
58.5888
 30
0.000000
  70
    32
  0
SEQEND
  8
SAPA_FOGBAND
  5
1885
  0
POLYLINE
  5
F9B
  8
SAPA_FOGBAND
 62
     2
 10
2.7088116947522316
 20
60.323592254349592
 30
0.0
 66
     1
 70
     8
  0
VERTEX
  8
SAPA_FOGBAND
  5
1886
 10
2.70881
 20
60.3236
 30
0.000000
  70
    32
  0
VERTEX
  8
SAPA_FOGBAND
  5
1887
 10
2.71253
 20
60.2353
 30
0.000000
  70
    32
  0
VERTEX
  8
SAPA_FOGBAND
  5
1888
 10
2.72367
 20
60.1472
 30
0.000000
  70
    32
  0
VERTEX
  8
SAPA_FOGBAND
  5
1889
 10
2.74220
 20
60.0595
 30
0.000000
  70
    32
  0
VERTEX
  8
SAPA_FOGBAND
  5
188A
 10
2.76809
 20
59.9724
 30
0.000000
  70
    32
  0
VERTEX
  8
SAPA_FOGBAND
  5
188B
 10
2.80127
 20
59.8862
 30
0.000000
  70
    32
  0
VERTEX
  8
SAPA_FOGBAND
  5
188C
 10
2.84166
 20
59.8011
 30
0.000000
  70
    32
  0
VERTEX
  8
SAPA_FOGBAND
  5
188D
 10
2.88916
 20
59.7172
 30
0.000000
  70
    32
  0
VERTEX
  8
SAPA_FOGBAND
  5
188E
 10
2.94366
 20
59.6348
 30
0.000000
  70
    32
  0
VERTEX
  8
SAPA_FOGBAND
  5
188F
 10
3.00503
 20
59.5540
 30
0.000000
  70
    32
  0
VERTEX
  8
SAPA_FOGBAND
  5
1890
 10
3.07311
 20
59.4751
 30
0.000000
  70
    32
  0
VERTEX
  8
SAPA_FOGBAND
  5
1891
 10
3.14775
 20
59.3982
 30
0.000000
  70
    32
  0
VERTEX
  8
SAPA_FOGBAND
  5
1892
 10
3.22876
 20
59.3236
 30
0.000000
  70
    32
  0
VERTEX
  8
SAPA_FOGBAND
  5
1893
 10
3.31596
 20
59.2513
 30
0.000000
  70
    32
  0
VERTEX
  8
SAPA_FOGBAND
  5
1894
 10
3.40912
 20
59.1817
 30
0.000000
  70
    32
  0
VERTEX
  8
SAPA_FOGBAND
  5
1895
 10
3.50803
 20
59.1148
 30
0.000000
  70
    32
  0
VERTEX
  8
SAPA_FOGBAND
  5
1896
 10
3.61245
 20
59.0508
 30
0.000000
  70
    32
  0
VERTEX
  8
SAPA_FOGBAND
  5
1897
 10
3.72212
 20
58.9899
 30
0.000000
  70
    32
  0
VERTEX
  8
SAPA_FOGBAND
  5
1898
 10
3.83679
 20
58.9322
 30
0.000000
  70
    32
  0
VERTEX
  8
SAPA_FOGBAND
  5
1899
 10
3.95617
 20
58.8778
 30
0.000000
  70
    32
  0
VERTEX
  8
SAPA_FOGBAND
  5
189A
 10
4.07997
 20
58.8269
 30
0.000000
  70
    32
  0
VERTEX
  8
SAPA_FOGBAND
  5
189B
 10
4.20791
 20
58.7797
 30
0.000000
  70
    32
  0
VERTEX
  8
SAPA_FOGBAND
  5
189C
 10
4.33967
 20
58.7361
 30
0.000000
  70
    32
  0
VERTEX
  8
SAPA_FOGBAND
  5
189D
 10
4.47493
 20
58.6964
 30
0.000000
  70
    32
  0
VERTEX
  8
SAPA_FOGBAND
  5
189E
 10
4.61337
 20
58.6606
 30
0.000000
  70
    32
  0
VERTEX
  8
SAPA_FOGBAND
  5
189F
 10
4.75465
 20
58.6288
 30
0.000000
  70
    32
  0
VERTEX
  8
SAPA_FOGBAND
  5
18A0
 10
4.89844
 20
58.6011
 30
0.000000
  70
    32
  0
VERTEX
  8
SAPA_FOGBAND
  5
18A1
 10
5.04438
 20
58.5775
 30
0.000000
  70
    32
  0
VERTEX
  8
SAPA_FOGBAND
  5
18A2
 10
5.19213
 20
58.5582
 30
0.000000
  70
    32
  0
VERTEX
  8
SAPA_FOGBAND
  5
18A3
 10
5.34134
 20
58.5431
 30
0.000000
  70
    32
  0
VERTEX
  8
SAPA_FOGBAND
  5
18A4
 10
5.49163
 20
58.5323
 30
0.000000
  70
    32
  0
VERTEX
  8
SAPA_FOGBAND
  5
18A5
 10
5.64265
 20
58.5258
 30
0.000000
  70
    32
  0
VERTEX
  8
SAPA_FOGBAND
  5
18A6
 10
5.79403
 20
58.5236
 30
0.000000
  70
    32
  0
VERTEX
  8
SAPA_FOGBAND
  5
18A7
 10
5.94542
 20
58.5258
 30
0.000000
  70
    32
  0
VERTEX
  8
SAPA_FOGBAND
  5
18A8
 10
6.09644
 20
58.5323
 30
0.000000
  70
    32
  0
VERTEX
  8
SAPA_FOGBAND
  5
18A9
 10
6.24673
 20
58.5431
 30
0.000000
  70
    32
  0
VERTEX
  8
SAPA_FOGBAND
  5
18AA
 10
6.39593
 20
58.5582
 30
0.000000
  70
    32
  0
VERTEX
  8
SAPA_FOGBAND
  5
18AB
 10
6.54368
 20
58.5775
 30
0.000000
  70
    32
  0
VERTEX
  8
SAPA_FOGBAND
  5
18AC
 10
6.68962
 20
58.6011
 30
0.000000
  70
    32
  0
VERTEX
  8
SAPA_FOGBAND
  5
18AD
 10
6.83341
 20
58.6288
 30
0.000000
  70
    32
  0
VERTEX
  8
SAPA_FOGBAND
  5
18AE
 10
6.97469
 20
58.6606
 30
0.000000
  70
    32
  0
VERTEX
  8
SAPA_FOGBAND
  5
18AF
 10
7.11313
 20
58.6964
 30
0.000000
  70
    32
  0
VERTEX
  8
SAPA_FOGBAND
  5
18B0
 10
7.24839
 20
58.7361
 30
0.000000
  70
    32
  0
VERTEX
  8
SAPA_FOGBAND
  5
18B1
 10
7.38015
 20
58.7797
 30
0.000000
  70
    32
  0
VERTEX
  8
SAPA_FOGBAND
  5
18B2
 10
7.50809
 20
58.8269
 30
0.000000
  70
    32
  0
VERTEX
  8
SAPA_FOGBAND
  5
18B3
 10
7.63189
 20
58.8778
 30
0.000000
  70
    32
  0
VERTEX
  8
SAPA_FOGBAND
  5
18B4
 10
7.75127
 20
58.9322
 30
0.000000
  70
    32
  0
VERTEX
  8
SAPA_FOGBAND
  5
18B5
 10
7.86594
 20
58.9899
 30
0.000000
  70
    32
  0
VERTEX
  8
SAPA_FOGBAND
  5
18B6
 10
7.97561
 20
59.0508
 30
0.000000
  70
    32
  0
VERTEX
  8
SAPA_FOGBAND
  5
18B7
 10
8.08003
 20
59.1148
 30
0.000000
  70
    32
  0
VERTEX
  8
SAPA_FOGBAND
  5
18B8
 10
8.17894
 20
59.1817
 30
0.000000
  70
    32
  0
VERTEX
  8
SAPA_FOGBAND
  5
18B9
 10
8.27210
 20
59.2513
 30
0.000000
  70
    32
  0
VERTEX
  8
SAPA_FOGBAND
  5
18BA
 10
8.35930
 20
59.3236
 30
0.000000
  70
    32
  0
VERTEX
  8
SAPA_FOGBAND
  5
18BB
 10
8.44031
 20
59.3982
 30
0.000000
  70
    32
  0
VERTEX
  8
SAPA_FOGBAND
  5
18BC
 10
8.51495
 20
59.4751
 30
0.000000
  70
    32
  0
VERTEX
  8
SAPA_FOGBAND
  5
18BD
 10
8.58304
 20
59.5540
 30
0.000000
  70
    32
  0
VERTEX
  8
SAPA_FOGBAND
  5
18BE
 10
8.64440
 20
59.6348
 30
0.000000
  70
    32
  0
VERTEX
  8
SAPA_FOGBAND
  5
18BF
 10
8.69890
 20
59.7172
 30
0.000000
  70
    32
  0
VERTEX
  8
SAPA_FOGBAND
  5
18C0
 10
8.74640
 20
59.8011
 30
0.000000
  70
    32
  0
VERTEX
  8
SAPA_FOGBAND
  5
18C1
 10
8.78679
 20
59.8862
 30
0.000000
  70
    32
  0
VERTEX
  8
SAPA_FOGBAND
  5
18C2
 10
8.81997
 20
59.9724
 30
0.000000
  70
    32
  0
VERTEX
  8
SAPA_FOGBAND
  5
18C3
 10
8.84586
 20
60.0595
 30
0.000000
  70
    32
  0
VERTEX
  8
SAPA_FOGBAND
  5
18C4
 10
8.86439
 20
60.1472
 30
0.000000
  70
    32
  0
VERTEX
  8
SAPA_FOGBAND
  5
18C5
 10
8.87553
 20
60.2353
 30
0.000000
  70
    32
  0
VERTEX
  8
SAPA_FOGBAND
  5
18C6
 10
8.87925
 20
60.3236
 30
0.000000
  70
    32
  0
VERTEX
  8
SAPA_FOGBAND
  5
18C7
 10
8.87553
 20
60.4119
 30
0.000000
  70
    32
  0
VERTEX
  8
SAPA_FOGBAND
  5
18C8
 10
8.86439
 20
60.5000
 30
0.000000
  70
    32
  0
VERTEX
  8
SAPA_FOGBAND
  5
18C9
 10
8.84586
 20
60.5877
 30
0.000000
  70
    32
  0
VERTEX
  8
SAPA_FOGBAND
  5
18CA
 10
8.81997
 20
60.6748
 30
0.000000
  70
    32
  0
VERTEX
  8
SAPA_FOGBAND
  5
18CB
 10
8.78679
 20
60.7610
 30
0.000000
  70
    32
  0
VERTEX
  8
SAPA_FOGBAND
  5
18CC
 10
8.74640
 20
60.8461
 30
0.000000
  70
    32
  0
VERTEX
  8
SAPA_FOGBAND
  5
18CD
 10
8.69890
 20
60.9300
 30
0.000000
  70
    32
  0
VERTEX
  8
SAPA_FOGBAND
  5
18CE
 10
8.64440
 20
61.0124
 30
0.000000
  70
    32
  0
VERTEX
  8
SAPA_FOGBAND
  5
18CF
 10
8.58304
 20
61.0932
 30
0.000000
  70
    32
  0
VERTEX
  8
SAPA_FOGBAND
  5
18D0
 10
8.51495
 20
61.1721
 30
0.000000
  70
    32
  0
VERTEX
  8
SAPA_FOGBAND
  5
18D1
 10
8.44031
 20
61.2490
 30
0.000000
  70
    32
  0
VERTEX
  8
SAPA_FOGBAND
  5
18D2
 10
8.35930
 20
61.3236
 30
0.000000
  70
    32
  0
VERTEX
  8
SAPA_FOGBAND
  5
18D3
 10
8.27210
 20
61.3959
 30
0.000000
  70
    32
  0
VERTEX
  8
SAPA_FOGBAND
  5
18D4
 10
8.17894
 20
61.4655
 30
0.000000
  70
    32
  0
VERTEX
  8
SAPA_FOGBAND
  5
18D5
 10
8.08003
 20
61.5324
 30
0.000000
  70
    32
  0
VERTEX
  8
SAPA_FOGBAND
  5
18D6
 10
7.97561
 20
61.5964
 30
0.000000
  70
    32
  0
VERTEX
  8
SAPA_FOGBAND
  5
18D7
 10
7.86594
 20
61.6573
 30
0.000000
  70
    32
  0
VERTEX
  8
SAPA_FOGBAND
  5
18D8
 10
7.75127
 20
61.7150
 30
0.000000
  70
    32
  0
VERTEX
  8
SAPA_FOGBAND
  5
18D9
 10
7.63189
 20
61.7694
 30
0.000000
  70
    32
  0
VERTEX
  8
SAPA_FOGBAND
  5
18DA
 10
7.50809
 20
61.8202
 30
0.000000
  70
    32
  0
VERTEX
  8
SAPA_FOGBAND
  5
18DB
 10
7.38015
 20
61.8675
 30
0.000000
  70
    32
  0
VERTEX
  8
SAPA_FOGBAND
  5
18DC
 10
7.24839
 20
61.9111
 30
0.000000
  70
    32
  0
VERTEX
  8
SAPA_FOGBAND
  5
18DD
 10
7.11313
 20
61.9508
 30
0.000000
  70
    32
  0
VERTEX
  8
SAPA_FOGBAND
  5
18DE
 10
6.97469
 20
61.9866
 30
0.000000
  70
    32
  0
VERTEX
  8
SAPA_FOGBAND
  5
18DF
 10
6.83341
 20
62.0184
 30
0.000000
  70
    32
  0
VERTEX
  8
SAPA_FOGBAND
  5
18E0
 10
6.68962
 20
62.0461
 30
0.000000
  70
    32
  0
VERTEX
  8
SAPA_FOGBAND
  5
18E1
 10
6.54368
 20
62.0696
 30
0.000000
  70
    32
  0
VERTEX
  8
SAPA_FOGBAND
  5
18E2
 10
6.39593
 20
62.0890
 30
0.000000
  70
    32
  0
VERTEX
  8
SAPA_FOGBAND
  5
18E3
 10
6.24673
 20
62.1041
 30
0.000000
  70
    32
  0
VERTEX
  8
SAPA_FOGBAND
  5
18E4
 10
6.09644
 20
62.1149
 30
0.000000
  70
    32
  0
VERTEX
  8
SAPA_FOGBAND
  5
18E5
 10
5.94542
 20
62.1214
 30
0.000000
  70
    32
  0
VERTEX
  8
SAPA_FOGBAND
  5
18E6
 10
5.79403
 20
62.1236
 30
0.000000
  70
    32
  0
VERTEX
  8
SAPA_FOGBAND
  5
18E7
 10
5.64265
 20
62.1214
 30
0.000000
  70
    32
  0
VERTEX
  8
SAPA_FOGBAND
  5
18E8
 10
5.49163
 20
62.1149
 30
0.000000
  70
    32
  0
VERTEX
  8
SAPA_FOGBAND
  5
18E9
 10
5.34134
 20
62.1041
 30
0.000000
  70
    32
  0
VERTEX
  8
SAPA_FOGBAND
  5
18EA
 10
5.19213
 20
62.0890
 30
0.000000
  70
    32
  0
VERTEX
  8
SAPA_FOGBAND
  5
18EB
 10
5.04438
 20
62.0696
 30
0.000000
  70
    32
  0
VERTEX
  8
SAPA_FOGBAND
  5
18EC
 10
4.89844
 20
62.0461
 30
0.000000
  70
    32
  0
VERTEX
  8
SAPA_FOGBAND
  5
18ED
 10
4.75465
 20
62.0184
 30
0.000000
  70
    32
  0
VERTEX
  8
SAPA_FOGBAND
  5
18EE
 10
4.61337
 20
61.9866
 30
0.000000
  70
    32
  0
VERTEX
  8
SAPA_FOGBAND
  5
18EF
 10
4.47493
 20
61.9508
 30
0.000000
  70
    32
  0
VERTEX
  8
SAPA_FOGBAND
  5
18F0
 10
4.33967
 20
61.9111
 30
0.000000
  70
    32
  0
VERTEX
  8
SAPA_FOGBAND
  5
18F1
 10
4.20791
 20
61.8675
 30
0.000000
  70
    32
  0
VERTEX
  8
SAPA_FOGBAND
  5
18F2
 10
4.07997
 20
61.8202
 30
0.000000
  70
    32
  0
VERTEX
  8
SAPA_FOGBAND
  5
18F3
 10
3.95617
 20
61.7694
 30
0.000000
  70
    32
  0
VERTEX
  8
SAPA_FOGBAND
  5
18F4
 10
3.83679
 20
61.7150
 30
0.000000
  70
    32
  0
VERTEX
  8
SAPA_FOGBAND
  5
18F5
 10
3.72212
 20
61.6573
 30
0.000000
  70
    32
  0
VERTEX
  8
SAPA_FOGBAND
  5
18F6
 10
3.61245
 20
61.5964
 30
0.000000
  70
    32
  0
VERTEX
  8
SAPA_FOGBAND
  5
18F7
 10
3.50803
 20
61.5324
 30
0.000000
  70
    32
  0
VERTEX
  8
SAPA_FOGBAND
  5
18F8
 10
3.40912
 20
61.4655
 30
0.000000
  70
    32
  0
VERTEX
  8
SAPA_FOGBAND
  5
18F9
 10
3.31596
 20
61.3959
 30
0.000000
  70
    32
  0
VERTEX
  8
SAPA_FOGBAND
  5
18FA
 10
3.22876
 20
61.3236
 30
0.000000
  70
    32
  0
VERTEX
  8
SAPA_FOGBAND
  5
18FB
 10
3.14775
 20
61.2490
 30
0.000000
  70
    32
  0
VERTEX
  8
SAPA_FOGBAND
  5
18FC
 10
3.07311
 20
61.1721
 30
0.000000
  70
    32
  0
VERTEX
  8
SAPA_FOGBAND
  5
18FD
 10
3.00503
 20
61.0932
 30
0.000000
  70
    32
  0
VERTEX
  8
SAPA_FOGBAND
  5
18FE
 10
2.94366
 20
61.0124
 30
0.000000
  70
    32
  0
VERTEX
  8
SAPA_FOGBAND
  5
18FF
 10
2.88916
 20
60.9300
 30
0.000000
  70
    32
  0
VERTEX
  8
SAPA_FOGBAND
  5
1900
 10
2.84166
 20
60.8461
 30
0.000000
  70
    32
  0
VERTEX
  8
SAPA_FOGBAND
  5
1901
 10
2.80127
 20
60.7610
 30
0.000000
  70
    32
  0
VERTEX
  8
SAPA_FOGBAND
  5
1902
 10
2.76809
 20
60.6748
 30
0.000000
  70
    32
  0
VERTEX
  8
SAPA_FOGBAND
  5
1903
 10
2.74220
 20
60.5877
 30
0.000000
  70
    32
  0
VERTEX
  8
SAPA_FOGBAND
  5
1904
 10
2.72367
 20
60.5000
 30
0.000000
  70
    32
  0
VERTEX
  8
SAPA_FOGBAND
  5
1905
 10
2.71253
 20
60.4119
 30
0.000000
  70
    32
  0
VERTEX
  8
SAPA_FOGBAND
  5
1906
 10
2.70881
 20
60.3236
 30
0.000000
  70
    32
  0
SEQEND
  8
SAPA_FOGBAND
  5
1907
  0
POLYLINE
  5
F9C
  8
SAPA_FOGBAND
 62
     2
 66
     1
 10
0.0
 20
0.0
 30
0.0
 70
     1
  0
VERTEX
  5
17E4
  8
SAPA_FOGBAND
 62
     2
 10
13.237726652791441
 20
55.023592254349587
 30
0.0
  0
VERTEX
  5
17E5
  8
SAPA_FOGBAND
 62
     2
 10
-0.4427379965072653
 20
55.023592254349587
 30
0.0
 42
-0.427966335106886
  0
VERTEX
  5
17E6
  8
SAPA_FOGBAND
 62
     2
 10
-0.7424105642272743
 20
55.337604825708851
 30
0.0
  0
VERTEX
  5
17E7
  8
SAPA_FOGBAND
 62
     2
 10
-0.2561106561476372
 20
63.537604825708833
 30
0.0
 42
-0.4005932428724212
  0
VERTEX
  5
17E8
  8
SAPA_FOGBAND
 62
     2
 10
0.0435619115723718
 20
63.823592254349592
 30
0.0
  0
VERTEX
  5
17E9
  8
SAPA_FOGBAND
 62
     2
 10
1.8572620034927461
 20
63.823592254349592
 30
0.0
  0
VERTEX
  5
17EA
  8
SAPA_FOGBAND
 62
     2
 10
1.8572620034927461
 20
65.52359225434958
 30
0.0
 42
-0.4142135623730951
  0
VERTEX
  5
17EB
  8
SAPA_FOGBAND
 62
     2
 10
2.1572620034927432
 20
65.823592254349592
 30
0.0
  0
VERTEX
  5
17EC
  8
SAPA_FOGBAND
 62
     2
 10
9.5760427671186541
 20
65.823592254349592
 30
0.0
 42
-0.1379343940649207
  0
VERTEX
  5
17ED
  8
SAPA_FOGBAND
 62
     2
 10
10.09726107616707
 20
65.677015639494797
 30
0.0
  0
VERTEX
  5
17EE
  8
SAPA_FOGBAND
 62
     2
 10
22.017871158016959
 20
58.26979740158648
 30
0.0
 42
-0.2613472755167645
  0
VERTEX
  5
17EF
  8
SAPA_FOGBAND
 62
     2
 10
22.257262003492752
 20
57.84308570901387
 30
0.0
  0
VERTEX
  5
17F0
  8
SAPA_FOGBAND
 62
     2
 10
22.257262003492752
 20
56.848389091850663
 30
0.0
 42
-0.3915187749346393
  0
VERTEX
  5
17F1
  8
SAPA_FOGBAND
 62
     2
 10
21.335284303719231
 20
55.851437477845558
 30
0.0
  0
VERTEX
  5
17F2
  8
SAPA_FOGBAND
 62
     2
 10
13.27673780290468
 20
55.025116447347038
 30
0.0
 42
-0.0195279011117891
  0
SEQEND
  5
17F3
  8
SAPA_FOGBAND
 62
     2
  0
DIMENSION
  5
FA5
  8
SAPA_MATT
  2
*D78
 10
151.99943199943061
 20
209.80057044432399
 30
0.0
 11
149.4994319994305
 21
109.80057044432399
 31
0.0
 70
     0
  1
197-202
 13
131.99943199943061
 23
9.8005704443239612
 33
0.0
 14
131.9994319994305
 24
209.80057044432399
 34
0.0
 50
90.0
1001
ACAD
1000
DSTYLE
1002
{
1070
    40
1040
1.0
1002
}
  0
DIMENSION
  5
FA6
  8
SAPA_MATT
  2
*D77
 10
-0.0005680006657927
 20
105.99999999680961
 30
0.0
 11
25.99943199938242
 21
108.49999999680961
 31
0.0
 70
     0
 13
51.999431999430627
 23
85.799999996809646
 33
0.0
 14
-0.000568000665794
 24
84.200000001630315
 34
0.0
1001
ACAD
1000
DSTYLE
1002
{
1070
    40
1040
1.0
1002
}
  0
DIMENSION
  5
FA7
  8
SAPA_MATT
  2
*D76
 10
-33.000568000652081
 20
85.999999996809578
 30
0.0
 11
-35.500568000652102
 21
42.999999998401186
 31
0.0
 70
     0
 13
0.500454091662995
 23
-0.0000000000071942
 33
0.0
 14
22.199431999430669
 24
85.999999996809578
 34
0.0
 50
90.0
1001
ACAD
1000
DSTYLE
1002
{
1070
    40
1040
1.0
1002
}
  0
DIMENSION
  5
FA8
  8
SAPA_MATT
  2
*D75
 10
97.000454091627105
 20
-19.9999999999572
 30
0.0
 11
48.500454091644841
 21
-17.4999999999572
 31
0.0
 70
     0
 13
0.0004540916625899
 23
0.4999999999648388
 33
0.0
 14
97.000454091627105
 24
0.3000000000716732
 34
0.0
1001
ACAD
1000
DSTYLE
1002
{
1070
    40
1040
1.0
1002
}
  0
VIEWPORT
  5
C4
 67
     1
  8
0
 10
160.5543545598442
 20
116.00969601843509
 30
0.0
 40
404.96977709277462
 41
256.8421457311839
 68
     1
 69
     1
1001
ACAD
1000
MVIEW
1002
{
1070
    16
1010
0.0
1020
0.0
1030
0.0
1010
0.0
1020
0.0
1030
1.0
1040
-1.5707963267948959
1040
256.8421457311839
1040
102.1562485694885
1040
-121.90624046325679
1040
50.0
1040
0.0
1040
0.0
1070
     0
1070
     0
1070
     1
1070
     1
1070
     0
1070
     0
1070
     0
1070
     0
1040
0.0
1040
0.0
1040
0.0
1040
10.0
1040
10.0
1040
10.0
1040
10.0
1070
     0
1002
{
1002
}
1002
}
  0
ENDSEC
  0
EOF
