  0
SECTION
  2
HEADER
  9
$ACADVER
  1
AC1009
  9
$INSBASE
 10
0.0
 20
0.0
 30
0.0
  9
$EXTMIN
 10
-29.026071609587721
 20
-36.730926792995433
 30
0.0
  9
$EXTMAX
 10
272.3429012458663
 20
135.20056800061641
 30
0.0
  9
$LIMMIN
 10
0.0
 20
0.0
  9
$LIMMAX
 10
790.0
 20
790.0
  9
$ORTHOMODE
 70
     0
  9
$REGENMODE
 70
     1
  9
$FILLMODE
 70
     1
  9
$QTEXTMODE
 70
     0
  9
$MIRRTEXT
 70
     1
  9
$DRAGMODE
 70
     2
  9
$LTSCALE
 40
4.0
  9
$OSMODE
 70
   167
  9
$ATTMODE
 70
     1
  9
$TEXTSIZE
 40
3.5
  9
$TRACEWID
 40
0.05
  9
$TEXTSTYLE
  7
ISO
  9
$CLAYER
  8
0
  9
$CELTYPE
  6
BYLAYER
  9
$CECOLOR
 62
   256
  9
$DIMSCALE
 40
0.0
  9
$DIMASZ
 40
3.0
  9
$DIMEXO
 40
1.5
  9
$DIMDLI
 40
10.0
  9
$DIMRND
 40
0.0
  9
$DIMDLE
 40
0.0
  9
$DIMEXE
 40
1.5
  9
$DIMTP
 40
0.0
  9
$DIMTM
 40
0.0
  9
$DIMTXT
 40
3.0
  9
$DIMCEN
 40
-5.0
  9
$DIMTSZ
 40
0.0
  9
$DIMTOL
 70
     0
  9
$DIMLIM
 70
     0
  9
$DIMTIH
 70
     0
  9
$DIMTOH
 70
     0
  9
$DIMSE1
 70
     0
  9
$DIMSE2
 70
     0
  9
$DIMTAD
 70
     1
  9
$DIMZIN
 70
     8
  9
$DIMBLK
  1

  9
$DIMASO
 70
     1
  9
$DIMSHO
 70
     1
  9
$DIMPOST
  1

  9
$DIMAPOST
  1

  9
$DIMALT
 70
     0
  9
$DIMALTD
 70
     0
  9
$DIMALTF
 40
25.399999999999999
  9
$DIMLFAC
 40
-1.0
  9
$DIMTOFL
 70
     1
  9
$DIMTVP
 40
0.0
  9
$DIMTIX
 70
     0
  9
$DIMSOXD
 70
     0
  9
$DIMSAH
 70
     0
  9
$DIMBLK1
  1

  9
$DIMBLK2
  1

  9
$DIMSTYLE
  2
MASKIN
  9
$DIMCLRD
 70
   256
  9
$DIMCLRE
 70
   256
  9
$DIMCLRT
 70
     2
  9
$DIMTFAC
 40
1.0
  9
$DIMGAP
 40
1.0
  9
$LUNITS
 70
     2
  9
$LUPREC
 70
     8
  9
$SKETCHINC
 40
0.1
  9
$FILLETRAD
 40
0.0
  9
$AUNITS
 70
     0
  9
$AUPREC
 70
     8
  9
$MENU
  1
ACAD
  9
$ELEVATION
 40
0.0
  9
$PELEVATION
 40
0.0
  9
$THICKNESS
 40
0.0
  9
$LIMCHECK
 70
     0
  9
$BLIPMODE
 70
     0
  9
$CHAMFERA
 40
0.0
  9
$CHAMFERB
 40
0.0
  9
$SKPOLY
 70
     0
  9
$TDCREATE
 40
2457480.4180725468
  9
$TDUPDATE
 40
2457743.4426980671
  9
$TDINDWG
 40
0.0435475116
  9
$TDUSRTIMER
 40
0.0435473958
  9
$USRTIMER
 70
     1
  9
$ANGBASE
 50
0.0
  9
$ANGDIR
 70
     0
  9
$PDMODE
 70
     0
  9
$PDSIZE
 40
0.0
  9
$PLINEWID
 40
0.0
  9
$COORDS
 70
     1
  9
$SPLFRAME
 70
     0
  9
$SPLINETYPE
 70
     6
  9
$SPLINESEGS
 70
     8
  9
$ATTDIA
 70
     1
  9
$ATTREQ
 70
     1
  9
$HANDLING
 70
     1
  9
$HANDSEED
  5
1873
  9
$SURFTAB1
 70
     6
  9
$SURFTAB2
 70
     6
  9
$SURFTYPE
 70
     6
  9
$SURFU
 70
     6
  9
$SURFV
 70
     6
  9
$UCSNAME
  2

  9
$UCSORG
 10
0.0
 20
0.0
 30
0.0
  9
$UCSXDIR
 10
1.0
 20
0.0
 30
0.0
  9
$UCSYDIR
 10
0.0
 20
1.0
 30
0.0
  9
$PUCSNAME
  2

  9
$PUCSORG
 10
0.0
 20
0.0
 30
0.0
  9
$PUCSXDIR
 10
1.0
 20
0.0
 30
0.0
  9
$PUCSYDIR
 10
0.0
 20
1.0
 30
0.0
  9
$USERI1
 70
     0
  9
$USERI2
 70
     0
  9
$USERI3
 70
     0
  9
$USERI4
 70
     0
  9
$USERI5
 70
     0
  9
$USERR1
 40
0.0
  9
$USERR2
 40
0.0
  9
$USERR3
 40
0.0
  9
$USERR4
 40
0.0
  9
$USERR5
 40
0.0
  9
$WORLDVIEW
 70
     1
  9
$SHADEDGE
 70
     3
  9
$SHADEDIF
 70
    70
  9
$TILEMODE
 70
     1
  9
$MAXACTVP
 70
    16
  9
$PLIMCHECK
 70
     0
  9
$PEXTMIN
 10
1.0000000000000000E+020
 20
1.0000000000000000E+020
 30
1.0000000000000000E+020
  9
$PEXTMAX
 10
-1.0000000000000000E+020
 20
-1.0000000000000000E+020
 30
-1.0000000000000000E+020
  9
$PLIMMIN
 10
-5.069427490234375
 20
-5.8737497329711914
  9
$PLIMMAX
 10
291.89889526367187
 20
204.0995779037475
  9
$UNITMODE
 70
     0
  9
$VISRETAIN
 70
     1
  9
$PLINEGEN
 70
     0
  9
$PSLTSCALE
 70
     1
  0
ENDSEC
  0
SECTION
  2
TABLES
  0
TABLE
  2
VPORT
 70
     1
  0
VPORT
  2
*ACTIVE
 70
     0
 10
0.0
 20
0.0
 11
1.0
 21
1.0
 12
121.6567367880982
 22
185.2701740099908
 13
0.0
 23
0.0
 14
1.0
 24
1.0
 15
0.0
 25
0.0
 16
0.0
 26
0.0
 36
1.0
 17
0.0
 27
0.0
 37
0.0
 40
256.02036046855488
 41
1.6070763500931089
 42
50.0
 43
0.0
 44
0.0
 50
0.0
 51
0.0
 71
     0
 72
   100
 73
     1
 74
     1
 75
     0
 76
     0
 77
     0
 78
     0
  0
ENDTAB
  0
TABLE
  2
LTYPE
 70
    25
  0
LTYPE
  2
CONTINUOUS
 70
     0
  3
Solid line
 72
    65
 73
     0
 40
0.0
  0
LTYPE
  2
BYGG-035273$0$NEWDOT
 70
     0
  3
____ . ____ . ____ . ____ . ____ . ____ . ____
 72
    65
 73
     4
 40
2.0
 49
1.0
 49
-0.5
 49
0.0
 49
-0.5
  0
LTYPE
  2
BYGG-035273$0$DASHDOT
 70
     0
  3
__ . __ . __ . __ . __ . __ . __ . __ . __ . __
 72
    65
 73
     4
 40
1.0
 49
0.5
 49
-0.25
 49
0.0
 49
-0.25
  0
LTYPE
  2
BYGG-035273$0$DASHED
 70
     0
  3
__ __ __ __ __ __ __ __ __ __ __ __ __ __ __
 72
    65
 73
     2
 40
0.75
 49
0.5
 49
-0.25
  0
LTYPE
  2
BYGG-035273$0$PHANTOM
 70
     0
  3
Phantom ______  __  __  ______  __  __  ______
 72
    65
 73
     6
 40
63.5
 49
31.75
 49
-6.3499999999999988
 49
6.3499999999999988
 49
-6.3499999999999988
 49
6.3499999999999988
 49
-6.3499999999999988
  0
LTYPE
  2
BYGG-024882$0$NEWDOT
 70
     0
  3
____ . ____ . ____ . ____ . ____ . ____ . ____
 72
    65
 73
     4
 40
2.0
 49
1.0
 49
-0.5
 49
0.0
 49
-0.5
  0
LTYPE
  2
BYGG-020132$0$NEWDOT
 70
     0
  3
____ . ____ . ____ . ____ . ____ . ____ . ____
 72
    65
 73
     4
 40
2.0
 49
1.0
 49
-0.5
 49
0.0
 49
-0.5
  0
LTYPE
  2
BYGG-020132$0$DASHDOT
 70
     0
  3
__ . __ . __ . __ . __ . __ . __ . __ . __ . __
 72
    65
 73
     4
 40
1.0
 49
0.5
 49
-0.25
 49
0.0
 49
-0.25
  0
LTYPE
  2
BYGG-025652$0$NEWDOT
 70
     0
  3
____ . ____ . ____ . ____ . ____ . ____ . ____
 72
    65
 73
     4
 40
2.0
 49
1.0
 49
-0.5
 49
0.0
 49
-0.5
  0
LTYPE
  2
BYGG-025652$0$DASHDOT
 70
     0
  3
__ . __ . __ . __ . __ . __ . __ . __ . __ . __
 72
    65
 73
     4
 40
1.0
 49
0.5
 49
-0.25
 49
0.0
 49
-0.25
  0
LTYPE
  2
BYGG-025652$0$DASHED
 70
     0
  3
__ __ __ __ __ __ __ __ __ __ __ __ __ __ __
 72
    65
 73
     2
 40
0.75
 49
0.5
 49
-0.25
  0
LTYPE
  2
BYGG-025652$0$PHANTOM
 70
     0
  3
Phantom ______  __  __  ______  __  __  ______
 72
    65
 73
     6
 40
63.5
 49
31.75
 49
-6.3499999999999988
 49
6.3499999999999988
 49
-6.3499999999999988
 49
6.3499999999999988
 49
-6.3499999999999988
  0
LTYPE
  2
BYGG-014411$0$NEWDOT
 70
     0
  3
____ . ____ . ____ . ____ . ____ . ____ . ____
 72
    65
 73
     4
 40
2.0
 49
1.0
 49
-0.5
 49
0.0
 49
-0.5
  0
LTYPE
  2
BYGG-014411$0$ZIGZAG
 70
     0
  3
Zig zag /\/\/\/\/\/\/\/\/\/\/\/\/\/\/\/\/\/\/\/\/\/\/\/
 72
    65
 73
     4
 40
20.32254
 49
0.00254
 49
-5.0800000000000001
 49
-10.16
 49
-5.0800000000000001
  0
LTYPE
  2
BYGG-036387$0$NEWDOT
 70
     0
  3
____ . ____ . ____ . ____ . ____ . ____ . ____
 72
    65
 73
     4
 40
2.0
 49
1.0
 49
-0.5
 49
0.0
 49
-0.5
  0
LTYPE
  2
BYGG-036387$0$DASHDOT
 70
     0
  3
__ . __ . __ . __ . __ . __ . __ . __ . __ . __
 72
    65
 73
     4
 40
1.0
 49
0.5
 49
-0.25
 49
0.0
 49
-0.25
  0
LTYPE
  2
BYGG-036387$0$DASHED
 70
     0
  3
__ __ __ __ __ __ __ __ __ __ __ __ __ __ __
 72
    65
 73
     2
 40
0.75
 49
0.5
 49
-0.25
  0
LTYPE
  2
BYGG-036387$0$PHANTOM
 70
     0
  3
Phantom ______  __  __  ______  __  __  ______
 72
    65
 73
     6
 40
63.5
 49
31.75
 49
-6.3499999999999988
 49
6.3499999999999988
 49
-6.3499999999999988
 49
6.3499999999999988
 49
-6.3499999999999988
  0
LTYPE
  2
BYGG-036386$0$NEWDOT
 70
     0
  3
____ . ____ . ____ . ____ . ____ . ____ . ____
 72
    65
 73
     4
 40
2.0
 49
1.0
 49
-0.5
 49
0.0
 49
-0.5
  0
LTYPE
  2
BYGG-036386$0$ZIGZAG
 70
     0
  3
Zig zag /\/\/\/\/\/\/\/\/\/\/\/\/\/\/\/\/\/\/\/\/\/\/\/
 72
    65
 73
     4
 40
20.32254
 49
0.00254
 49
-5.0800000000000001
 49
-10.16
 49
-5.0800000000000001
  0
LTYPE
  2
BYGG-024882$0$DASHDOT
 70
     0
  3
__ . __ . __ . __ . __ . __ . __ . __ . __ . __
 72
    65
 73
     4
 40
1.0
 49
0.5
 49
-0.25
 49
0.0
 49
-0.25
  0
LTYPE
  2
BYGG-014090$0$PHANTOM2
 70
     0
  3
Phantom (.5x) ___ _ _ ___ _ _ ___ _ _ ___ _ _
 72
    65
 73
     6
 40
1.25
 49
0.625
 49
-0.125
 49
0.125
 49
-0.125
 49
0.125
 49
-0.125
  0
LTYPE
  2
BYGG-025652$0$PHANTOM2
 70
     0
  3
Phantom (.5x) ___ _ _ ___ _ _ ___ _ _ ___ _ _
 72
    65
 73
     6
 40
1.25
 49
0.625
 49
-0.125
 49
0.125
 49
-0.125
 49
0.125
 49
-0.125
  0
LTYPE
  2
BYGG-014411$0$PHANTOM2
 70
     0
  3
Phantom (.5x) ___ _ _ ___ _ _ ___ _ _ ___ _ _
 72
    65
 73
     6
 40
1.25
 49
0.625
 49
-0.125
 49
0.125
 49
-0.125
 49
0.125
 49
-0.125
  0
LTYPE
  2
BYGG-014088$0$PHANTOM2
 70
     0
  3
Phantom (.5x) ___ _ _ ___ _ _ ___ _ _ ___ _ _
 72
    65
 73
     6
 40
1.25
 49
0.625
 49
-0.125
 49
0.125
 49
-0.125
 49
0.125
 49
-0.125
  0
ENDTAB
  0
TABLE
  2
LAYER
 70
   140
  0
LAYER
  2
0
 70
     0
 62
     7
  6
CONTINUOUS
  0
LAYER
  2
DEFPOINTS
 70
     0
 62
     7
  6
CONTINUOUS
  0
LAYER
  2
SAPA_ANSLUTNING
 70
     0
 62
     6
  6
CONTINUOUS
  0
LAYER
  2
SAPA_ARTIKELNR
 70
     0
 62
     4
  6
CONTINUOUS
  0
LAYER
  2
SAPA_FYLLNING
 70
     0
 62
     4
  6
CONTINUOUS
  0
LAYER
  2
SAPA_MATT
 70
     0
 62
     1
  6
CONTINUOUS
  0
LAYER
  2
SAPA_GLAS
 70
     0
 62
     4
  6
CONTINUOUS
  0
LAYER
  2
SAPA_FOGBAND
 70
     0
 62
     2
  6
CONTINUOUS
  0
LAYER
  2
SAPA_PROFIL
 70
     0
 62
     7
  6
CONTINUOUS
  0
ENDTAB
  0
TABLE
  2
STYLE
 70
    27
  0
STYLE
  2
STANDARD
 70
     0
 40
0.0
 41
1.0
 50
0.0
 71
     0
 42
0.2
  3
txt
  4

  0
STYLE
  2
ISO
 70
     0
 40
0.0
 41
1.0
 50
0.0
 71
     0
 42
3.5
  3
txt
  4

  0
STYLE
  2

 70
     1
 40
0.0
 41
1.0
 50
0.0
 71
     0
 42
0.2
  3
ltypeshp.shx
  4

  0
STYLE
  2
BYGG-015465$0$STANDARD
 70
     0
 40
0.0
 41
1.0
 50
0.0
 71
     0
 42
0.2
  3
txt
  4

  0
STYLE
  2
BYGG-015465$0$ISO
 70
     0
 40
0.0
 41
1.0
 50
0.0
 71
     0
 42
3.5
  3
txt
  4

  0
STYLE
  2
BYGG-01443301$0$STANDARD
 70
     0
 40
0.0
 41
1.0
 50
0.0
 71
     0
 42
0.2
  3
txt
  4

  0
STYLE
  2
BYGG-01443301$0$ISO
 70
     0
 40
0.0
 41
1.0
 50
0.0
 71
     0
 42
3.5
  3
isocp3.shx
  4

  0
STYLE
  2
BYGG-035273$0$STANDARD
 70
     0
 40
0.0
 41
1.0
 50
0.0
 71
     0
 42
0.2
  3
txt
  4

  0
STYLE
  2
BYGG-035273$0$ISO
 70
     0
 40
0.0
 41
1.0
 50
0.0
 71
     0
 42
3.5
  3
txt
  4

  0
STYLE
  2
BYGG-028980$0$STANDARD
 70
     0
 40
0.0
 41
1.0
 50
0.0
 71
     0
 42
0.2
  3
txt
  4

  0
STYLE
  2
BYGG-028980$0$ISO
 70
     0
 40
0.0
 41
1.0
 50
0.0
 71
     0
 42
3.5
  3
txt
  4

  0
STYLE
  2
BYGG-024882$0$STANDARD
 70
     0
 40
0.0
 41
1.0
 50
0.0
 71
     0
 42
0.2
  3
txt
  4

  0
STYLE
  2
BYGG-024882$0$ISO
 70
     0
 40
0.0
 41
1.0
 50
0.0
 71
     0
 42
3.5
  3
txt
  4

  0
STYLE
  2
BYGG-020132$0$STANDARD
 70
     0
 40
0.0
 41
1.0
 50
0.0
 71
     0
 42
0.2
  3
txt
  4

  0
STYLE
  2
BYGG-020132$0$ISO
 70
     0
 40
0.0
 41
1.0
 50
0.0
 71
     0
 42
3.5
  3
txt
  4

  0
STYLE
  2
BYGG-014090$0$STANDARD
 70
     0
 40
0.0
 41
1.0
 50
0.0
 71
     0
 42
0.2
  3
txt
  4

  0
STYLE
  2
BYGG-014090$0$SIMPLEX
 70
     0
 40
0.0
 41
1.0
 50
0.0
 71
     0
 42
0.2
  3
simplex
  4

  0
STYLE
  2
BYGG-025652$0$STANDARD
 70
     0
 40
0.0
 41
1.0
 50
0.0
 71
     0
 42
0.2
  3
txt
  4

  0
STYLE
  2
BYGG-025652$0$ISO
 70
     0
 40
0.0
 41
1.0
 50
0.0
 71
     0
 42
3.5
  3
txt
  4

  0
STYLE
  2
BYGG-025652$0$ANNOTATIVE
 70
     0
 40
0.0
 41
1.0
 50
0.0
 71
     0
 42
0.2
  3
txt
  4

  0
STYLE
  2
BYGG-014411$0$STANDARD
 70
     0
 40
0.0
 41
1.0
 50
0.0
 71
     0
 42
0.2
  3
txt
  4

  0
STYLE
  2
BYGG-014411$0$ISO
 70
     0
 40
0.0
 41
1.0
 50
0.0
 71
     0
 42
3.5
  3
isocp3.shx
  4

  0
STYLE
  2
BYGG-014088$0$STANDARD
 70
     0
 40
0.0
 41
1.0
 50
0.0
 71
     0
 42
0.4
  3
txt
  4

  0
STYLE
  2
BYGG-036387$0$STANDARD
 70
     0
 40
0.0
 41
1.0
 50
0.0
 71
     0
 42
0.2
  3
txt
  4

  0
STYLE
  2
BYGG-036387$0$ISO
 70
     0
 40
0.0
 41
1.0
 50
0.0
 71
     0
 42
3.5
  3
txt
  4

  0
STYLE
  2
BYGG-036386$0$STANDARD
 70
     0
 40
0.0
 41
1.0
 50
0.0
 71
     0
 42
0.2
  3
txt
  4

  0
STYLE
  2
BYGG-036386$0$ISO
 70
     0
 40
0.0
 41
1.0
 50
0.0
 71
     0
 42
3.5
  3
txt
  4

  0
ENDTAB
  0
TABLE
  2
VIEW
 70
     0
  0
ENDTAB
  0
TABLE
  2
UCS
 70
     0
  0
ENDTAB
  0
TABLE
  2
APPID
 70
    22
  0
APPID
  2
ACAD
 70
     0
  0
APPID
  2
ACAD_DSTYLE_DIMTEXT_FILL
 70
     0
  0
APPID
  2
ACAD_DSTYLE_DIMEXT_LENGTH
 70
     0
  0
APPID
  2
ACAD_DSTYLE_DIMEXT_ENABLED
 70
     0
  0
APPID
  2
ACAD_DSTYLE_DIM_LINETYPE
 70
     0
  0
APPID
  2
ACAD_DSTYLE_DIM_EXT1_LINETYPE
 70
     0
  0
APPID
  2
ACAD_DSTYLE_DIM_EXT2_LINETYPE
 70
     0
  0
APPID
  2
ACAD_DSTYLE_DIMJOGGED_JOGA
 70
     0
  0
APPID
  2
ACAD_DSTYLE_DIMARC_LENGTH_
 70
     0
  0
APPID
  2
ACAD_PSEXT
 70
     0
  0
APPID
  2
ACAD_MLEADERVER
 70
     0
  0
APPID
  2
ACAD_NAV_VCDISPLAY
 70
     0
  0
APPID
  2
ACAECLAYERSTANDARD
 70
     0
  0
APPID
  2
AMG_ARCHIVE11
 70
     0
  0
APPID
  2
ACADANNOTATIVE
 70
     0
  0
APPID
  2
ACAD_DSTYLE_DIMRADIAL_EXTENSION
 70
     0
  0
APPID
  2
ACAD_EXEMPT_FROM_CAD_STANDARDS
 70
     0
  0
APPID
  2
ACAD_OBJECT_CHANGE_GUID
 70
     0
  0
APPID
  2
ACCMTRANSPARENCY
 70
     0
  0
APPID
  2
ACDBDYNAMICBLOCKGUID
 70
     0
  0
APPID
  2
ACDBBLOCKREPETAG
 70
     0
  0
APPID
  2
ACADANNOMONITORALERTICONDI
 70
     0
  0
ENDTAB
  0
TABLE
  2
DIMSTYLE
 70
    24
  0
DIMSTYLE
  2
STANDARD
 70
     0
  3

  4

  5

  6

  7

 40
1.0
 41
0.18
 42
0.0625
 43
0.38
 44
0.18
 45
0.0
 46
0.0
 47
0.0
 48
0.0
140
0.18
141
0.09
142
0.0
143
25.399999999999999
144
1.0
145
0.0
146
1.0
147
0.09
 71
     0
 72
     0
 73
     1
 74
     1
 75
     0
 76
     0
 77
     0
 78
     0
170
     0
171
     2
172
     0
173
     0
174
     0
175
     0
176
     0
177
     0
178
     0
  0
DIMSTYLE
  2
MASKIN
 70
     0
  3

  4

  5

  6

  7

 40
0.0
 41
3.0
 42
1.5
 43
10.0
 44
1.5
 45
0.0
 46
0.0
 47
0.0
 48
0.0
140
3.0
141
-5.0
142
0.0
143
25.399999999999999
144
-1.0
145
0.0
146
1.0
147
1.0
 71
     0
 72
     0
 73
     0
 74
     0
 75
     0
 76
     0
 77
     1
 78
     8
170
     0
171
     0
172
     1
173
     0
174
     0
175
     0
176
   256
177
   256
178
     2
  0
DIMSTYLE
  2
BYGG-015465$0$STANDARD
 70
     0
  3

  4

  5

  6

  7

 40
1.0
 41
0.18
 42
0.0625
 43
0.38
 44
0.18
 45
0.0
 46
0.0
 47
0.0
 48
0.0
140
0.18
141
0.09
142
0.0
143
25.399999999999999
144
1.0
145
0.0
146
1.0
147
0.09
 71
     0
 72
     0
 73
     1
 74
     1
 75
     0
 76
     0
 77
     0
 78
     0
170
     0
171
     2
172
     0
173
     0
174
     0
175
     0
176
     0
177
     0
178
     0
  0
DIMSTYLE
  2
BYGG-015465$0$MASKIN
 70
     0
  3

  4

  5

  6

  7

 40
0.0
 41
3.0
 42
1.5
 43
10.0
 44
1.5
 45
0.0
 46
0.0
 47
0.0
 48
0.0
140
3.0
141
-5.0
142
0.0
143
25.399999999999999
144
-1.0
145
0.0
146
1.0
147
1.0
 71
     0
 72
     0
 73
     0
 74
     0
 75
     0
 76
     0
 77
     1
 78
     8
170
     0
171
     0
172
     1
173
     0
174
     0
175
     0
176
   256
177
   256
178
     2
  0
DIMSTYLE
  2
BYGG-01443301$0$MASKIN
 70
     0
  3

  4

  5

  6

  7

 40
0.0
 41
3.0
 42
1.5
 43
10.0
 44
1.5
 45
0.0
 46
0.0
 47
0.0
 48
0.0
140
3.0
141
-5.0
142
0.0
143
25.399999999999999
144
-1.0
145
0.0
146
1.0
147
1.0
 71
     0
 72
     0
 73
     0
 74
     0
 75
     0
 76
     0
 77
     1
 78
     8
170
     0
171
     0
172
     1
173
     0
174
     0
175
     0
176
   256
177
   256
178
   256
  0
DIMSTYLE
  2
BYGG-035273$0$STANDARD
 70
     0
  3

  4

  5

  6

  7

 40
1.0
 41
0.18
 42
0.0625
 43
0.38
 44
0.18
 45
0.0
 46
0.0
 47
0.0
 48
0.0
140
0.18
141
0.09
142
0.0
143
25.399999999999999
144
1.0
145
0.0
146
1.0
147
0.09
 71
     0
 72
     0
 73
     1
 74
     1
 75
     0
 76
     0
 77
     0
 78
     0
170
     0
171
     2
172
     0
173
     0
174
     0
175
     0
176
     0
177
     0
178
     0
  0
DIMSTYLE
  2
BYGG-035273$0$MASKIN
 70
     0
  3

  4

  5

  6

  7

 40
0.0
 41
3.0
 42
1.5
 43
10.0
 44
1.5
 45
0.0
 46
0.0
 47
0.0
 48
0.0
140
3.0
141
-5.0
142
0.0
143
25.399999999999999
144
-1.0
145
0.0
146
1.0
147
1.0
 71
     0
 72
     0
 73
     0
 74
     0
 75
     0
 76
     0
 77
     1
 78
     8
170
     0
171
     0
172
     1
173
     0
174
     0
175
     0
176
   256
177
   256
178
     2
  0
DIMSTYLE
  2
BYGG-028980$0$STANDARD
 70
     0
  3

  4

  5

  6

  7

 40
1.0
 41
0.18
 42
0.0625
 43
0.38
 44
0.18
 45
0.0
 46
0.0
 47
0.0
 48
0.0
140
0.18
141
0.09
142
0.0
143
25.399999999999999
144
1.0
145
0.0
146
1.0
147
0.09
 71
     0
 72
     0
 73
     1
 74
     1
 75
     0
 76
     0
 77
     0
 78
     0
170
     0
171
     2
172
     0
173
     0
174
     0
175
     0
176
     0
177
     0
178
     0
  0
DIMSTYLE
  2
BYGG-028980$0$MASKIN
 70
     0
  3

  4

  5

  6

  7

 40
0.0
 41
3.0
 42
1.5
 43
10.0
 44
1.5
 45
0.0
 46
0.0
 47
0.0
 48
0.0
140
3.0
141
-5.0
142
0.0
143
25.399999999999999
144
-1.0
145
0.0
146
1.0
147
1.0
 71
     0
 72
     0
 73
     0
 74
     0
 75
     0
 76
     0
 77
     1
 78
     8
170
     0
171
     0
172
     1
173
     0
174
     0
175
     0
176
   256
177
   256
178
     2
  0
DIMSTYLE
  2
BYGG-024882$0$STANDARD
 70
     0
  3

  4

  5

  6

  7

 40
1.0
 41
0.18
 42
0.0625
 43
0.38
 44
0.18
 45
0.0
 46
0.0
 47
0.0
 48
0.0
140
0.18
141
0.09
142
0.0
143
25.399999999999999
144
1.0
145
0.0
146
1.0
147
0.09
 71
     0
 72
     0
 73
     1
 74
     1
 75
     0
 76
     0
 77
     0
 78
     0
170
     0
171
     2
172
     0
173
     0
174
     0
175
     0
176
     0
177
     0
178
     0
  0
DIMSTYLE
  2
BYGG-024882$0$MASKIN
 70
     0
  3

  4

  5

  6

  7

 40
0.0
 41
3.0
 42
1.5
 43
10.0
 44
1.5
 45
0.0
 46
0.0
 47
0.0
 48
0.0
140
3.0
141
-5.0
142
0.0
143
25.399999999999999
144
-1.0
145
0.0
146
1.0
147
1.0
 71
     0
 72
     0
 73
     0
 74
     0
 75
     0
 76
     0
 77
     1
 78
     8
170
     0
171
     0
172
     1
173
     0
174
     0
175
     0
176
   256
177
   256
178
     2
  0
DIMSTYLE
  2
BYGG-020132$0$MASKIN
 70
     0
  3

  4

  5

  6

  7

 40
0.0
 41
3.0
 42
1.5
 43
10.0
 44
1.5
 45
0.0
 46
0.0
 47
0.0
 48
0.0
140
3.0
141
-5.0
142
0.0
143
25.399999999999999
144
-1.0
145
0.0
146
1.0
147
1.0
 71
     0
 72
     0
 73
     0
 74
     0
 75
     0
 76
     0
 77
     1
 78
     8
170
     0
171
     0
172
     1
173
     0
174
     0
175
     0
176
   256
177
   256
178
     2
  0
DIMSTYLE
  2
BYGG-020132$0$STANDARD
 70
     0
  3

  4

  5

  6

  7

 40
1.0
 41
0.18
 42
0.0625
 43
0.38
 44
0.18
 45
0.0
 46
0.0
 47
0.0
 48
0.0
140
0.18
141
0.09
142
0.0
143
25.399999999999999
144
1.0
145
0.0
146
1.0
147
0.09
 71
     0
 72
     0
 73
     1
 74
     1
 75
     0
 76
     0
 77
     0
 78
     0
170
     0
171
     2
172
     0
173
     0
174
     0
175
     0
176
     0
177
     0
178
     0
  0
DIMSTYLE
  2
BYGG-014090$0$STANDARD
 70
     0
  3

  4

  5

  6

  7

 40
1.0
 41
0.18
 42
0.0625
 43
0.38
 44
0.18
 45
0.0
 46
0.0
 47
0.0
 48
0.0
140
0.18
141
0.09
142
0.0
143
25.399999999999999
144
1.0
145
0.0
146
1.0
147
0.09
 71
     0
 72
     0
 73
     1
 74
     1
 75
     0
 76
     0
 77
     0
 78
     0
170
     0
171
     2
172
     0
173
     0
174
     0
175
     0
176
     0
177
     0
178
     0
  0
DIMSTYLE
  2
BYGG-025652$0$STANDARD
 70
     0
  3

  4

  5

  6

  7

 40
1.0
 41
0.18
 42
0.0625
 43
0.38
 44
0.18
 45
0.0
 46
0.0
 47
0.0
 48
0.0
140
0.18
141
0.09
142
0.0
143
25.399999999999999
144
1.0
145
0.0
146
1.0
147
0.09
 71
     0
 72
     0
 73
     1
 74
     1
 75
     0
 76
     0
 77
     0
 78
     0
170
     0
171
     2
172
     0
173
     0
174
     0
175
     0
176
     0
177
     0
178
     0
  0
DIMSTYLE
  2
BYGG-025652$0$MASKIN
 70
     0
  3

  4

  5

  6

  7

 40
0.0
 41
3.0
 42
1.5
 43
10.0
 44
1.5
 45
0.0
 46
0.0
 47
0.0
 48
0.0
140
3.0
141
-5.0
142
0.0
143
25.399999999999999
144
-1.0
145
0.0
146
1.0
147
1.0
 71
     0
 72
     0
 73
     0
 74
     0
 75
     0
 76
     0
 77
     1
 78
     8
170
     0
171
     0
172
     1
173
     0
174
     0
175
     0
176
   256
177
   256
178
     2
  0
DIMSTYLE
  2
BYGG-025652$0$ANNOTATIVE
 70
     0
  3

  4

  5

  6

  7

 40
1.0
 41
0.18
 42
0.0625
 43
0.38
 44
0.18
 45
0.0
 46
0.0
 47
0.0
 48
0.0
140
0.18
141
0.09
142
0.0
143
25.399999999999999
144
1.0
145
0.0
146
1.0
147
0.09
 71
     0
 72
     0
 73
     1
 74
     1
 75
     0
 76
     0
 77
     0
 78
     0
170
     0
171
     2
172
     0
173
     0
174
     0
175
     0
176
     0
177
     0
178
     0
  0
DIMSTYLE
  2
BYGG-014411$0$MASKIN
 70
     0
  3

  4

  5

  6

  7

 40
0.0
 41
3.0
 42
1.5
 43
10.0
 44
1.5
 45
0.0
 46
0.0
 47
0.0
 48
0.0
140
3.0
141
-5.0
142
0.0
143
25.399999999999999
144
-1.0
145
0.0
146
1.0
147
1.0
 71
     0
 72
     0
 73
     0
 74
     0
 75
     0
 76
     0
 77
     1
 78
     8
170
     0
171
     0
172
     1
173
     0
174
     0
175
     0
176
   256
177
   256
178
   256
  0
DIMSTYLE
  2
BYGG-014411$0$STANDARD
 70
     0
  3

  4

  5

  6

  7

 40
1.0
 41
0.18
 42
0.0625
 43
0.38
 44
0.18
 45
0.0
 46
0.0
 47
0.0
 48
0.0
140
0.18
141
0.09
142
0.0
143
25.399999999999999
144
1.0
145
0.0
146
1.0
147
0.09
 71
     0
 72
     0
 73
     1
 74
     1
 75
     0
 76
     0
 77
     0
 78
     0
170
     0
171
     2
172
     0
173
     0
174
     0
175
     0
176
     0
177
     0
178
     0
  0
DIMSTYLE
  2
BYGG-014088$0$STANDARD
 70
     0
  3

  4

  5

  6

  7

 40
1.0
 41
0.18
 42
0.0625
 43
0.38
 44
0.18
 45
0.0
 46
0.0
 47
0.0
 48
0.0
140
0.18
141
0.09
142
0.0
143
25.399999999999999
144
1.0
145
0.0
146
1.0
147
0.09
 71
     0
 72
     0
 73
     1
 74
     1
 75
     0
 76
     0
 77
     0
 78
     0
170
     0
171
     2
172
     0
173
     0
174
     0
175
     0
176
     0
177
     0
178
     0
  0
DIMSTYLE
  2
BYGG-036387$0$STANDARD
 70
     0
  3

  4

  5

  6

  7

 40
1.0
 41
0.18
 42
0.0625
 43
0.38
 44
0.18
 45
0.0
 46
0.0
 47
0.0
 48
0.0
140
0.18
141
0.09
142
0.0
143
25.399999999999999
144
1.0
145
0.0
146
1.0
147
0.09
 71
     0
 72
     0
 73
     1
 74
     1
 75
     0
 76
     0
 77
     0
 78
     0
170
     0
171
     2
172
     0
173
     0
174
     0
175
     0
176
     0
177
     0
178
     0
  0
DIMSTYLE
  2
BYGG-036387$0$MASKIN
 70
     0
  3

  4

  5

  6

  7

 40
0.0
 41
3.0
 42
1.5
 43
10.0
 44
1.5
 45
0.0
 46
0.0
 47
0.0
 48
0.0
140
3.0
141
-5.0
142
0.0
143
25.399999999999999
144
-1.0
145
0.0
146
1.0
147
1.0
 71
     0
 72
     0
 73
     0
 74
     0
 75
     0
 76
     0
 77
     1
 78
     8
170
     0
171
     0
172
     1
173
     0
174
     0
175
     0
176
   256
177
   256
178
     2
  0
DIMSTYLE
  2
BYGG-036386$0$STANDARD
 70
     0
  3

  4

  5

  6

  7

 40
1.0
 41
0.18
 42
0.0625
 43
0.38
 44
0.18
 45
0.0
 46
0.0
 47
0.0
 48
0.0
140
0.18
141
0.09
142
0.0
143
25.399999999999999
144
1.0
145
0.0
146
1.0
147
0.09
 71
     0
 72
     0
 73
     1
 74
     1
 75
     0
 76
     0
 77
     0
 78
     0
170
     0
171
     2
172
     0
173
     0
174
     0
175
     0
176
     0
177
     0
178
     0
  0
DIMSTYLE
  2
BYGG-036386$0$MASKIN
 70
     0
  3

  4

  5

  6

  7

 40
0.0
 41
3.0
 42
1.5
 43
10.0
 44
1.5
 45
0.0
 46
0.0
 47
0.0
 48
0.0
140
3.0
141
-5.0
142
0.0
143
25.399999999999999
144
-1.0
145
0.0
146
1.0
147
1.0
 71
     0
 72
     0
 73
     0
 74
     0
 75
     0
 76
     0
 77
     1
 78
     8
170
     0
171
     0
172
     1
173
     0
174
     0
175
     0
176
   256
177
   256
178
     2
  0
ENDTAB
  0
ENDSEC
  0
SECTION
  2
BLOCKS
  0
BLOCK
  8
0
  2
$MODEL_SPACE
 70
     0
 10
0.0
 20
0.0
 30
0.0
  3
$MODEL_SPACE
  1

  0
ENDBLK
  5
37
  8
0
  0
BLOCK
 67
     1
  8
0
  2
$PAPER_SPACE
 70
     0
 10
0.0
 20
0.0
 30
0.0
  3
$PAPER_SPACE
  1

  0
ENDBLK
  5
35
 67
     1
  8
0
  0
BLOCK
  8
0
  2
*D75
 70
     1
 10
0.0
 20
0.0
 30
0.0
  3
*D75
  1

  0
LINE
  5
1010
  8
SAPA_MATT
 10
-1.3000000001141201
 20
96.699545908301758
 30
0.0
 11
-21.80000000003616
 21
96.699545908301758
 31
0.0
  0
LINE
  5
1011
  8
SAPA_MATT
 10
-1.5000000000073039
 20
-0.3004540916627216
 30
0.0
 11
-21.800000000036182
 21
-0.3004540916627159
 31
0.0
  0
LINE
  5
1012
  8
SAPA_MATT
 10
-20.30000000003616
 20
93.699545908301744
 30
0.0
 11
-20.300000000036182
 21
2.6995459083372828
 31
0.0
  0
SOLID
  5
1013
  8
SAPA_MATT
 10
-20.80000000003616
 20
93.699545908301744
 30
0.0
 11
-19.80000000003616
 21
93.699545908301744
 31
0.0
 12
-20.30000000003616
 22
96.699545908301758
 32
0.0
 13
-20.30000000003616
 23
96.699545908301758
 33
0.0
  0
SOLID
  5
1014
  8
SAPA_MATT
 10
-20.800000000036182
 20
2.6995459083372828
 30
0.0
 11
-19.800000000036182
 21
2.6995459083372828
 31
0.0
 12
-20.300000000036182
 22
-0.3004540916627163
 32
0.0
 13
-20.300000000036182
 23
-0.3004540916627163
 33
0.0
  0
INSERT
  5
1015
  8
0
  2
*U85
 10
0.0
 20
0.0
 30
0.0
  0
POINT
  5
1016
  8
DEFPOINTS
 62
     0
 10
0.199999999885879
 20
96.699545908301758
 30
0.0
  0
POINT
  5
1017
  8
DEFPOINTS
 62
     0
 10
-0.0000000000073044
 20
-0.3004540916627221
 30
0.0
  0
POINT
  5
1018
  8
DEFPOINTS
 62
     0
 10
-20.300000000036182
 20
-0.3004540916627163
 30
0.0
  0
ENDBLK
  5
FD0
  8
0
  0
BLOCK
  8
0
  2
*D76
 70
     1
 10
0.0
 20
0.0
 30
0.0
  3
*D76
  1

  0
LINE
  5
1007
  8
SAPA_MATT
 10
-0.3000000000861539
 20
97.699545908301374
 30
0.0
 11
-0.3000000000861518
 21
131.20056800061641
 31
0.0
  0
LINE
  5
1008
  8
SAPA_MATT
 10
85.699999996730611
 20
76.000568000533661
 30
0.0
 11
85.699999996730611
 21
131.20056800061641
 31
0.0
  0
LINE
  5
1009
  8
SAPA_MATT
 10
2.6999999999138482
 20
129.70056800061641
 30
0.0
 11
82.699999996730611
 21
129.70056800061641
 31
0.0
  0
SOLID
  5
100A
  8
SAPA_MATT
 10
2.6999999999138482
 20
130.20056800061641
 30
0.0
 11
2.6999999999138482
 21
129.20056800061641
 31
0.0
 12
-0.300000000086152
 22
129.70056800061641
 32
0.0
 13
-0.300000000086152
 23
129.70056800061641
 33
0.0
  0
SOLID
  5
100B
  8
SAPA_MATT
 10
82.699999996730611
 20
130.20056800061641
 30
0.0
 11
82.699999996730611
 21
129.20056800061641
 31
0.0
 12
85.699999996730611
 22
129.70056800061641
 32
0.0
 13
85.699999996730611
 23
129.70056800061641
 33
0.0
  0
INSERT
  5
100C
  8
0
  2
*U84
 10
0.0
 20
0.0
 30
0.0
  0
POINT
  5
100D
  8
DEFPOINTS
 62
     0
 10
-0.300000000086154
 20
96.19954590830136
 30
0.0
  0
POINT
  5
100E
  8
DEFPOINTS
 62
     0
 10
85.699999996730611
 20
74.500568000533661
 30
0.0
  0
POINT
  5
100F
  8
DEFPOINTS
 62
     0
 10
85.699999996730611
 20
129.70056800061641
 30
0.0
  0
ENDBLK
  5
FDC
  8
0
  0
BLOCK
  8
0
  2
*D77
 70
     1
 10
0.0
 20
0.0
 30
0.0
  3
*D77
  1

  0
LINE
  5
FFE
  8
SAPA_MATT
 10
86.999999996730665
 20
44.700568000533707
 30
0.0
 11
107.1999999967306
 21
44.700568000533707
 31
0.0
  0
LINE
  5
FFF
  8
SAPA_MATT
 10
85.400000001551348
 20
96.700568000630156
 30
0.0
 11
107.1999999967306
 21
96.700568000630128
 31
0.0
  0
LINE
  5
1000
  8
SAPA_MATT
 10
105.6999999967306
 20
47.700568000533707
 30
0.0
 11
105.6999999967306
 21
93.700568000630128
 31
0.0
  0
SOLID
  5
1001
  8
SAPA_MATT
 10
105.1999999967306
 20
47.700568000533707
 30
0.0
 11
106.1999999967306
 21
47.700568000533707
 31
0.0
 12
105.6999999967306
 22
44.700568000533707
 32
0.0
 13
105.6999999967306
 23
44.700568000533707
 33
0.0
  0
SOLID
  5
1002
  8
SAPA_MATT
 10
105.1999999967306
 20
93.700568000630128
 30
0.0
 11
106.1999999967306
 21
93.700568000630128
 31
0.0
 12
105.6999999967306
 22
96.700568000630128
 32
0.0
 13
105.6999999967306
 23
96.700568000630128
 33
0.0
  0
INSERT
  5
1003
  8
0
  2
*U83
 10
0.0
 20
0.0
 30
0.0
  0
POINT
  5
1004
  8
DEFPOINTS
 62
     0
 10
85.499999996730665
 20
44.700568000533707
 30
0.0
  0
POINT
  5
1005
  8
DEFPOINTS
 62
     0
 10
83.900000001551348
 20
96.700568000630156
 30
0.0
  0
POINT
  5
1006
  8
DEFPOINTS
 62
     0
 10
105.6999999967306
 20
96.700568000630128
 30
0.0
  0
ENDBLK
  5
FE8
  8
0
  0
BLOCK
  8
0
  2
*D78
 70
     1
 10
0.0
 20
0.0
 30
0.0
  3
*D78
  1

  0
LINE
  5
1019
  8
SAPA_MATT
 10
9.5005704440795782
 20
-21.799431999386201
 30
0.0
 11
9.5005704440795764
 21
-36.730926792995433
 31
0.0
  0
LINE
  5
101A
  8
SAPA_MATT
 10
249.5005704440793
 20
-21.799431999386272
 30
0.0
 11
249.5005704440793
 21
-36.730926792995433
 31
0.0
  0
LINE
  5
101B
  8
SAPA_MATT
 10
12.500570444079569
 20
-35.230926792995433
 30
0.0
 11
246.5005704440793
 21
-35.230926792995433
 31
0.0
  0
SOLID
  5
101C
  8
SAPA_MATT
 10
12.500570444079569
 20
-34.73092679299544
 30
0.0
 11
12.500570444079569
 21
-35.73092679299544
 31
0.0
 12
9.5005704440795764
 22
-35.230926792995433
 32
0.0
 13
9.5005704440795764
 23
-35.230926792995433
 33
0.0
  0
SOLID
  5
101D
  8
SAPA_MATT
 10
246.5005704440793
 20
-34.73092679299544
 30
0.0
 11
246.5005704440793
 21
-35.73092679299544
 31
0.0
 12
249.5005704440793
 22
-35.230926792995433
 32
0.0
 13
249.5005704440793
 23
-35.230926792995433
 33
0.0
  0
INSERT
  5
101E
  8
0
  2
*U86
 10
0.0
 20
0.0
 30
0.0
  0
POINT
  5
101F
  8
DEFPOINTS
 62
     0
 10
9.5005704440795782
 20
-20.29943199938619
 30
0.0
  0
POINT
  5
1020
  8
DEFPOINTS
 62
     0
 10
249.5005704440793
 20
-20.299431999386272
 30
0.0
  0
POINT
  5
1021
  8
DEFPOINTS
 62
     0
 10
249.5005704440793
 20
-35.230926792995433
 30
0.0
  0
ENDBLK
  5
FF4
  8
0
  0
BLOCK
  8
0
  2
*X79
 70
     1
 10
0.0
 20
0.0
 30
0.0
  3
*X79
  1

  0
LINE
  5
16C8
  8
0
 62
     0
 10
250.31873520600189
 20
3.2101623770083978
 30
0.0
 11
250.71561020600191
 21
2.5227547127544998
 31
0.0
  0
LINE
  5
16C9
  8
0
 62
     0
 10
252.6999849215058
 20
1.8353468842466889
 30
0.0
 11
253.0384119869662
 21
1.2491740122128141
 31
0.0
  0
LINE
  5
16CA
  8
0
 62
     0
 10
251.50935992150579
 20
3.8975698770083831
 30
0.0
 11
251.90623492150581
 21
3.2101622127544851
 31
0.0
  0
LINE
  5
16CB
  8
0
 62
     0
 10
250.31873492150581
 20
5.9597928697700784
 30
0.0
 11
250.7156099215058
 21
5.2723852055161791
 31
0.0
  0
LINE
  5
16CC
  8
0
 62
     0
 10
253.8906096370097
 20
2.5227543842467051
 30
0.0
 11
254.2874846370097
 21
1.8353467199928071
 31
0.0
  0
LINE
  5
16CD
  8
0
 62
     0
 10
252.69998463700969
 20
4.584977377008399
 30
0.0
 11
253.09685963700969
 21
3.897569712754501
 31
0.0
  0
LINE
  5
16CE
  8
0
 62
     0
 10
251.50935963700971
 20
6.6472003697700934
 30
0.0
 11
251.9062346370097
 21
5.9597927055161941
 31
0.0
  0
LINE
  5
16CF
  8
0
 62
     0
 10
255.0812343525136
 20
3.2101618842466921
 30
0.0
 11
255.22923523435591
 21
2.9538168373308258
 31
0.0
  0
LINE
  5
16D0
  8
0
 62
     0
 10
253.89060935251359
 20
5.2723848770083848
 30
0.0
 11
254.28748435251359
 21
4.5849772127544881
 31
0.0
  0
LINE
  5
16D1
  8
0
 62
     0
 10
252.78518465967721
 20
7.187036608942293
 30
0.0
 11
253.0968593525136
 21
6.6472002055161807
 31
0.0
  0
LINE
  5
16D2
  8
0
 62
     0
 10
250.71559541220489
 20
5.2724109933782168
 30
0.0
 11
250.3187204122049
 21
4.5850033291243193
 31
0.0
  0
LINE
  5
16D3
  8
0
 62
     0
 10
251.7777980007219
 20
7.1121998446208892
 30
0.0
 11
251.50934541220491
 21
6.6472263218860128
 31
0.0
  0
LINE
  5
16D4
  8
0
 62
     0
 10
250.71559512770881
 20
2.5227805006165109
 30
0.0
 11
250.4305840856334
 21
2.0291268950238348
 31
0.0
  0
LINE
  5
16D5
  8
0
 62
     0
 10
251.90622012770871
 20
4.5850034933782062
 30
0.0
 11
251.50934512770871
 21
3.8975958291243069
 31
0.0
  0
LINE
  5
16D6
  8
0
 62
     0
 10
253.09684512770869
 20
6.6472264861399006
 30
0.0
 11
252.6999701277087
 21
5.9598188218860031
 31
0.0
  0
LINE
  5
16D7
  8
0
 62
     0
 10
251.90621984321271
 20
1.835373000616521
 30
0.0
 11
251.61661071498679
 21
1.333755276193437
 31
0.0
  0
LINE
  5
16D8
  8
0
 62
     0
 10
253.09684484321269
 20
3.8975959933782152
 30
0.0
 11
252.6999698432127
 21
3.2101883291243172
 31
0.0
  0
LINE
  5
16D9
  8
0
 62
     0
 10
254.2874698432127
 20
5.9598189861399096
 30
0.0
 11
253.89059484321271
 21
5.272411321886012
 31
0.0
  0
LINE
  5
16DA
  8
0
 62
     0
 10
254.28746955871651
 20
3.2101884933782161
 30
0.0
 11
253.8905945587166
 21
2.5227808291243181
 31
0.0
  0
LINE
  5
16DB
  8
0
 62
     0
 10
255.36816103558701
 20
5.0820010386245729
 30
0.0
 11
255.0812195587165
 21
4.5850038218860121
 31
0.0
  0
LINE
  5
16DC
  8
0
 62
     0
 10
254.287499999799
 20
1.835373000616439
 30
0.0
 11
254.34606566555181
 21
1.835373000616439
 31
0.0
  0
LINE
  5
16DD
  8
0
 62
     0
 10
251.906249999799
 20
1.8353730006164399
 30
0.0
 11
252.69999999979891
 21
1.835373000616439
 31
0.0
  0
LINE
  5
16DE
  8
0
 62
     0
 10
254.287499999799
 20
3.2101880006164518
 30
0.0
 11
255.0812499997989
 21
3.2101880006164518
 31
0.0
  0
LINE
  5
16DF
  8
0
 62
     0
 10
251.906249999799
 20
3.2101880006164518
 30
0.0
 11
252.69999999979891
 21
3.2101880006164518
 31
0.0
  0
LINE
  5
16E0
  8
0
 62
     0
 10
249.6687605184996
 20
3.2101880006164532
 30
0.0
 11
250.31874999979891
 21
3.2101880006164532
 31
0.0
  0
LINE
  5
16E1
  8
0
 62
     0
 10
254.287499999799
 20
4.5850030006164513
 30
0.0
 11
255.0812499997989
 21
4.5850030006164513
 31
0.0
  0
LINE
  5
16E2
  8
0
 62
     0
 10
251.906249999799
 20
4.5850030006164513
 30
0.0
 11
252.69999999979891
 21
4.5850030006164513
 31
0.0
  0
LINE
  5
16E3
  8
0
 62
     0
 10
249.52530411485699
 20
4.5850030006164513
 30
0.0
 11
250.31874999979891
 21
4.5850030006164513
 31
0.0
  0
LINE
  5
16E4
  8
0
 62
     0
 10
254.287499999799
 20
5.9598180006164494
 30
0.0
 11
254.9305991349371
 21
5.9598180006164494
 31
0.0
  0
LINE
  5
16E5
  8
0
 62
     0
 10
251.906249999799
 20
5.9598180006164494
 30
0.0
 11
252.69999999979891
 21
5.9598180006164494
 31
0.0
  0
LINE
  5
16E6
  8
0
 62
     0
 10
250.07054175355421
 20
5.9598180006164494
 30
0.0
 11
250.31874999979891
 21
5.9598180006164494
 31
0.0
  0
ENDBLK
  5
16E8
  8
0
  0
BLOCK
  8
0
  2
*X80
 70
     1
 10
0.0
 20
0.0
 30
0.0
  3
*X80
  1

  0
LINE
  5
16EA
  8
0
 62
     0
 10
249.63443083518919
 20
3.3144282027526191
 30
0.0
 11
249.50054190114619
 21
3.180539268709647
 31
0.0
  0
LINE
  5
16EB
  8
0
 62
     0
 10
249.99429298598889
 20
2.5517583384186291
 30
0.0
 11
249.50051048885581
 21
2.0579758412855109
 31
0.0
  0
LINE
  5
16EC
  8
0
 62
     0
 10
250.515926311736
 20
1.9508596490321251
 30
0.0
 11
249.5004790765652
 21
0.9354124138613607
 31
0.0
  0
LINE
  5
16ED
  8
0
 62
     0
 10
251.18971293690001
 20
1.5021142590625121
 30
0.0
 11
249.5004476642747
 21
-0.1871510135628043
 31
0.0
  0
LINE
  5
16EE
  8
0
 62
     0
 10
252.04542579718949
 20
1.235295104218362
 30
0.0
 11
249.50041625198421
 21
-1.309714440986937
 31
0.0
  0
LINE
  5
16EF
  8
0
 62
     0
 10
253.2210242829839
 20
1.288361574879139
 30
0.0
 11
249.65520801227959
 21
-2.277454695825174
 31
0.0
  0
LINE
  5
16F0
  8
0
 62
     0
 10
255.50057044424531
 20
3.567907736140469
 30
0.0
 11
255.41277687000681
 21
3.480114161901962
 31
0.0
  0
LINE
  5
16F1
  8
0
 62
     0
 10
255.04528756989561
 20
1.990092846657141
 30
0.0
 11
251.1888161287811
 21
-1.866378594457309
 31
0.0
  0
LINE
  5
16F2
  8
0
 62
     0
 10
255.37730055727499
 20
1.1995738189029579
 30
0.0
 11
252.7224242452827
 21
-1.455302493089458
 31
0.0
  0
LINE
  5
16F3
  8
0
 62
     0
 10
255.93856656484189
 20
0.6383078113361336
 30
0.0
 11
254.25603236178409
 21
-1.044226391721615
 31
0.0
  0
LINE
  5
16F4
  8
0
 62
     0
 10
256.49983257240871
 20
0.0770418037693155
 30
0.0
 11
255.78964047828561
 21
-0.6331502903537505
 31
0.0
  0
LINE
  5
16F5
  8
0
 62
     0
 10
249.50039823756629
 20
-1.953485601537863
 30
0.0
 11
249.78860967363761
 21
-2.2416970376092129
 31
0.0
  0
LINE
  5
16F6
  8
0
 62
     0
 10
249.5004296480989
 20
-0.8309849969367775
 30
0.0
 11
250.67385581983609
 21
-2.0044111686739958
 31
0.0
  0
LINE
  5
16F7
  8
0
 62
     0
 10
249.5004610586314
 20
0.2915156076643228
 30
0.0
 11
251.55910196603449
 21
-1.767125299738765
 31
0.0
  0
LINE
  5
16F8
  8
0
 62
     0
 10
249.50049246916399
 20
1.4140162122653801
 30
0.0
 11
252.44434811223289
 21
-1.5298394308035479
 31
0.0
  0
LINE
  5
16F9
  8
0
 62
     0
 10
249.50052387969649
 20
2.53651681686648
 30
0.0
 11
253.32959425843131
 21
-1.292553561868317
 31
0.0
  0
LINE
  5
16FA
  8
0
 62
     0
 10
251.8978321142053
 20
1.261740597491396
 30
0.0
 11
254.2148404046298
 21
-1.055267692933114
 31
0.0
  0
LINE
  5
16FB
  8
0
 62
     0
 10
249.5005552902291
 20
3.659017421467567
 30
0.0
 11
249.56174304109589
 21
3.5978296706008019
 31
0.0
  0
LINE
  5
16FC
  8
0
 62
     0
 10
253.03377242878571
 20
1.2483322980446581
 30
0.0
 11
255.10008655082819
 21
-0.8179818239978828
 31
0.0
  0
LINE
  5
16FD
  8
0
 62
     0
 10
253.87216385251821
 20
1.5324728894457129
 30
0.0
 11
255.98533269702659
 21
-0.5806959550626658
 31
0.0
  0
LINE
  5
16FE
  8
0
 62
     0
 10
254.53312178473971
 20
1.994046972357864
 30
0.0
 11
256.87057884322502
 21
-0.3434100861274629
 31
0.0
  0
LINE
  5
16FF
  8
0
 62
     0
 10
255.04247279609169
 20
2.6072279761394981
 30
0.0
 11
255.32987686108561
 21
2.3198239111456331
 31
0.0
  0
LINE
  5
1700
  8
0
 62
     0
 10
255.38750683878109
 20
3.3847259485837631
 30
0.0
 11
255.50057044424531
 21
3.271662343119587
 31
0.0
  0
ENDBLK
  5
1702
  8
0
  0
BLOCK
  8
0
  2
*X81
 70
     1
 10
0.0
 20
0.0
 30
0.0
  3
*X81
  1

  0
LINE
  5
1704
  8
0
 62
     0
 10
250.31873520600189
 20
3.2101623770083978
 30
0.0
 11
250.71561020600191
 21
2.5227547127544998
 31
0.0
  0
LINE
  5
1705
  8
0
 62
     0
 10
252.6999849215058
 20
1.8353468842466889
 30
0.0
 11
253.0384119869662
 21
1.2491740122128141
 31
0.0
  0
LINE
  5
1706
  8
0
 62
     0
 10
251.50935992150579
 20
3.8975698770083831
 30
0.0
 11
251.90623492150581
 21
3.2101622127544851
 31
0.0
  0
LINE
  5
1707
  8
0
 62
     0
 10
250.31873492150581
 20
5.9597928697700784
 30
0.0
 11
250.7156099215058
 21
5.2723852055161791
 31
0.0
  0
LINE
  5
1708
  8
0
 62
     0
 10
253.8906096370097
 20
2.5227543842467051
 30
0.0
 11
254.2874846370097
 21
1.8353467199928071
 31
0.0
  0
LINE
  5
1709
  8
0
 62
     0
 10
252.69998463700969
 20
4.584977377008399
 30
0.0
 11
253.09685963700969
 21
3.897569712754501
 31
0.0
  0
LINE
  5
170A
  8
0
 62
     0
 10
251.50935963700971
 20
6.6472003697700934
 30
0.0
 11
251.9062346370097
 21
5.9597927055161941
 31
0.0
  0
LINE
  5
170B
  8
0
 62
     0
 10
255.0812343525136
 20
3.2101618842466921
 30
0.0
 11
255.22923523435591
 21
2.9538168373308258
 31
0.0
  0
LINE
  5
170C
  8
0
 62
     0
 10
253.89060935251359
 20
5.2723848770083848
 30
0.0
 11
254.28748435251359
 21
4.5849772127544881
 31
0.0
  0
LINE
  5
170D
  8
0
 62
     0
 10
252.78518465967721
 20
7.187036608942293
 30
0.0
 11
253.0968593525136
 21
6.6472002055161807
 31
0.0
  0
LINE
  5
170E
  8
0
 62
     0
 10
250.71559541220489
 20
5.2724109933782168
 30
0.0
 11
250.3187204122049
 21
4.5850033291243193
 31
0.0
  0
LINE
  5
170F
  8
0
 62
     0
 10
251.7777980007219
 20
7.1121998446208892
 30
0.0
 11
251.50934541220491
 21
6.6472263218860128
 31
0.0
  0
LINE
  5
1710
  8
0
 62
     0
 10
250.71559512770881
 20
2.5227805006165109
 30
0.0
 11
250.4305840856334
 21
2.0291268950238348
 31
0.0
  0
LINE
  5
1711
  8
0
 62
     0
 10
251.90622012770871
 20
4.5850034933782062
 30
0.0
 11
251.50934512770871
 21
3.8975958291243069
 31
0.0
  0
LINE
  5
1712
  8
0
 62
     0
 10
253.09684512770869
 20
6.6472264861399006
 30
0.0
 11
252.6999701277087
 21
5.9598188218860031
 31
0.0
  0
LINE
  5
1713
  8
0
 62
     0
 10
251.90621984321271
 20
1.835373000616521
 30
0.0
 11
251.61661071498679
 21
1.333755276193437
 31
0.0
  0
LINE
  5
1714
  8
0
 62
     0
 10
253.09684484321269
 20
3.8975959933782152
 30
0.0
 11
252.6999698432127
 21
3.2101883291243172
 31
0.0
  0
LINE
  5
1715
  8
0
 62
     0
 10
254.2874698432127
 20
5.9598189861399096
 30
0.0
 11
253.89059484321271
 21
5.272411321886012
 31
0.0
  0
LINE
  5
1716
  8
0
 62
     0
 10
254.28746955871651
 20
3.2101884933782161
 30
0.0
 11
253.8905945587166
 21
2.5227808291243181
 31
0.0
  0
LINE
  5
1717
  8
0
 62
     0
 10
255.36816103558701
 20
5.0820010386245729
 30
0.0
 11
255.0812195587165
 21
4.5850038218860121
 31
0.0
  0
LINE
  5
1718
  8
0
 62
     0
 10
254.287499999799
 20
1.835373000616439
 30
0.0
 11
254.34606566555181
 21
1.835373000616439
 31
0.0
  0
LINE
  5
1719
  8
0
 62
     0
 10
251.906249999799
 20
1.8353730006164399
 30
0.0
 11
252.69999999979891
 21
1.835373000616439
 31
0.0
  0
LINE
  5
171A
  8
0
 62
     0
 10
254.287499999799
 20
3.2101880006164518
 30
0.0
 11
255.0812499997989
 21
3.2101880006164518
 31
0.0
  0
LINE
  5
171B
  8
0
 62
     0
 10
251.906249999799
 20
3.2101880006164518
 30
0.0
 11
252.69999999979891
 21
3.2101880006164518
 31
0.0
  0
LINE
  5
171C
  8
0
 62
     0
 10
249.6687605184996
 20
3.2101880006164532
 30
0.0
 11
250.31874999979891
 21
3.2101880006164532
 31
0.0
  0
LINE
  5
171D
  8
0
 62
     0
 10
254.287499999799
 20
4.5850030006164513
 30
0.0
 11
255.0812499997989
 21
4.5850030006164513
 31
0.0
  0
LINE
  5
171E
  8
0
 62
     0
 10
251.906249999799
 20
4.5850030006164513
 30
0.0
 11
252.69999999979891
 21
4.5850030006164513
 31
0.0
  0
LINE
  5
171F
  8
0
 62
     0
 10
249.52530411485699
 20
4.5850030006164513
 30
0.0
 11
250.31874999979891
 21
4.5850030006164513
 31
0.0
  0
LINE
  5
1720
  8
0
 62
     0
 10
254.287499999799
 20
5.9598180006164494
 30
0.0
 11
254.9305991349371
 21
5.9598180006164494
 31
0.0
  0
LINE
  5
1721
  8
0
 62
     0
 10
251.906249999799
 20
5.9598180006164494
 30
0.0
 11
252.69999999979891
 21
5.9598180006164494
 31
0.0
  0
LINE
  5
1722
  8
0
 62
     0
 10
250.07054175355421
 20
5.9598180006164494
 30
0.0
 11
250.31874999979891
 21
5.9598180006164494
 31
0.0
  0
ENDBLK
  5
1724
  8
0
  0
BLOCK
  8
0
  2
*X82
 70
     1
 10
0.0
 20
0.0
 30
0.0
  3
*X82
  1

  0
LINE
  5
1726
  8
0
 62
     0
 10
249.63443083518919
 20
3.3144282027526191
 30
0.0
 11
249.50054190114619
 21
3.180539268709647
 31
0.0
  0
LINE
  5
1727
  8
0
 62
     0
 10
249.99429298598889
 20
2.5517583384186291
 30
0.0
 11
249.50051048885581
 21
2.0579758412855109
 31
0.0
  0
LINE
  5
1728
  8
0
 62
     0
 10
250.515926311736
 20
1.9508596490321251
 30
0.0
 11
249.5004790765652
 21
0.9354124138613607
 31
0.0
  0
LINE
  5
1729
  8
0
 62
     0
 10
251.18971293690001
 20
1.5021142590625121
 30
0.0
 11
249.5004476642747
 21
-0.1871510135628043
 31
0.0
  0
LINE
  5
172A
  8
0
 62
     0
 10
252.04542579718949
 20
1.235295104218362
 30
0.0
 11
249.50041625198421
 21
-1.309714440986937
 31
0.0
  0
LINE
  5
172B
  8
0
 62
     0
 10
253.2210242829839
 20
1.288361574879139
 30
0.0
 11
249.65520801227959
 21
-2.277454695825174
 31
0.0
  0
LINE
  5
172C
  8
0
 62
     0
 10
255.50057044424531
 20
3.567907736140469
 30
0.0
 11
255.41277687000681
 21
3.480114161901962
 31
0.0
  0
LINE
  5
172D
  8
0
 62
     0
 10
255.04528756989561
 20
1.990092846657141
 30
0.0
 11
251.1888161287811
 21
-1.866378594457309
 31
0.0
  0
LINE
  5
172E
  8
0
 62
     0
 10
255.37730055727499
 20
1.1995738189029579
 30
0.0
 11
252.7224242452827
 21
-1.455302493089458
 31
0.0
  0
LINE
  5
172F
  8
0
 62
     0
 10
255.93856656484189
 20
0.6383078113361336
 30
0.0
 11
254.25603236178409
 21
-1.044226391721615
 31
0.0
  0
LINE
  5
1730
  8
0
 62
     0
 10
256.49983257240871
 20
0.0770418037693155
 30
0.0
 11
255.78964047828561
 21
-0.6331502903537505
 31
0.0
  0
LINE
  5
1731
  8
0
 62
     0
 10
249.50039823756629
 20
-1.953485601537863
 30
0.0
 11
249.78860967363761
 21
-2.2416970376092129
 31
0.0
  0
LINE
  5
1732
  8
0
 62
     0
 10
249.5004296480989
 20
-0.8309849969367775
 30
0.0
 11
250.67385581983609
 21
-2.0044111686739958
 31
0.0
  0
LINE
  5
1733
  8
0
 62
     0
 10
249.5004610586314
 20
0.2915156076643228
 30
0.0
 11
251.55910196603449
 21
-1.767125299738765
 31
0.0
  0
LINE
  5
1734
  8
0
 62
     0
 10
249.50049246916399
 20
1.4140162122653801
 30
0.0
 11
252.44434811223289
 21
-1.5298394308035479
 31
0.0
  0
LINE
  5
1735
  8
0
 62
     0
 10
249.50052387969649
 20
2.53651681686648
 30
0.0
 11
253.32959425843131
 21
-1.292553561868317
 31
0.0
  0
LINE
  5
1736
  8
0
 62
     0
 10
251.8978321142053
 20
1.261740597491396
 30
0.0
 11
254.2148404046298
 21
-1.055267692933114
 31
0.0
  0
LINE
  5
1737
  8
0
 62
     0
 10
249.5005552902291
 20
3.659017421467567
 30
0.0
 11
249.56174304109589
 21
3.5978296706008019
 31
0.0
  0
LINE
  5
1738
  8
0
 62
     0
 10
253.03377242878571
 20
1.2483322980446581
 30
0.0
 11
255.10008655082819
 21
-0.8179818239978828
 31
0.0
  0
LINE
  5
1739
  8
0
 62
     0
 10
253.87216385251821
 20
1.5324728894457129
 30
0.0
 11
255.98533269702659
 21
-0.5806959550626658
 31
0.0
  0
LINE
  5
173A
  8
0
 62
     0
 10
254.53312178473971
 20
1.994046972357864
 30
0.0
 11
256.87057884322502
 21
-0.3434100861274629
 31
0.0
  0
LINE
  5
173B
  8
0
 62
     0
 10
255.04247279609169
 20
2.6072279761394981
 30
0.0
 11
255.32987686108561
 21
2.3198239111456331
 31
0.0
  0
LINE
  5
173C
  8
0
 62
     0
 10
255.38750683878109
 20
3.3847259485837631
 30
0.0
 11
255.50057044424531
 21
3.271662343119587
 31
0.0
  0
ENDBLK
  5
173E
  8
0
  0
BLOCK
  8
0
  2
*U83
 70
     1
 10
0.0
 20
0.0
 30
0.0
  3
*U83
  1

  0
TEXT
  5
1760
  8
SAPA_MATT
 62
     2
 10
104.6999999967306
 20
68.600568000581944
 30
0.0
 40
3.0
  1
52
 50
90.0
  7
ISO
  0
ENDBLK
  5
1762
  8
0
  0
BLOCK
  8
0
  2
*U84
 70
     1
 10
0.0
 20
0.0
 30
0.0
  3
*U84
  1

  0
TEXT
  5
1764
  8
SAPA_MATT
 62
     2
 10
40.599999998322232
 20
130.70056800061641
 30
0.0
 40
3.0
  1
86
  7
ISO
  0
ENDBLK
  5
1766
  8
0
  0
BLOCK
  8
0
  2
*U85
 70
     1
 10
0.0
 20
0.0
 30
0.0
  3
*U85
  1

  0
TEXT
  5
1768
  8
SAPA_MATT
 62
     2
 10
-21.300000000036171
 20
46.099545908319527
 30
0.0
 40
3.0
  1
97
 50
90.0
  7
ISO
  0
ENDBLK
  5
176A
  8
0
  0
BLOCK
  8
0
  2
*U86
 70
     1
 10
0.0
 20
0.0
 30
0.0
  3
*U86
  1

  0
TEXT
  5
176C
  8
SAPA_MATT
 62
     2
 10
122.0005704440794
 20
-34.230926792995433
 30
0.0
 40
3.0
  1
237-242
  7
ISO
  0
ENDBLK
  5
176E
  8
0
  0
ENDSEC
  0
SECTION
  2
ENTITIES
  0
CIRCLE
  5
816
  8
SAPA_ANSLUTNING
 10
252.5005704442456
 20
4.200568000640053
 30
0.0
 40
3.0000000000000848
1001
ACAD
1000
ASC_BOUNDS
1002
{
1070
    19
1005
FAF
1002
}
  0
LINE
  5
817
  8
SAPA_ANSLUTNING
 10
257.10595200615768
 20
-0.2803140501894674
 30
0.0
 11
249.500570444245
 21
-2.3196337967118188
 31
0.0
  0
POLYLINE
  5
818
  8
SAPA_ANSLUTNING
 66
     1
 10
0.0
 20
0.0
 30
0.0
  0
VERTEX
  5
1086
  8
SAPA_ANSLUTNING
 10
100.0040857589986
 20
24.700568000623502
 30
0.0
  0
VERTEX
  5
1087
  8
SAPA_ANSLUTNING
 10
100.0040857589986
 20
37.397967606080712
 30
0.0
 42
0.9999999999999998
  0
VERTEX
  5
1088
  8
SAPA_ANSLUTNING
 10
91.592085168823601
 20
37.397967606080712
 30
0.0
  0
VERTEX
  5
1089
  8
SAPA_ANSLUTNING
 10
91.592085168823616
 20
28.906568295601161
 30
0.0
 42
-0.9999999999999998
  0
VERTEX
  5
108A
  8
SAPA_ANSLUTNING
 10
83.180084578659518
 20
28.906568295601161
 30
0.0
  0
VERTEX
  5
108B
  8
SAPA_ANSLUTNING
 10
83.180084578659518
 20
35.813603631102453
 30
0.0
 42
0.9999999999999998
  0
VERTEX
  5
108C
  8
SAPA_ANSLUTNING
 10
74.76808398848452
 20
35.813603631102453
 30
0.0
  0
VERTEX
  5
108D
  8
SAPA_ANSLUTNING
 10
74.76808398848452
 20
28.906568295601161
 30
0.0
 42
-0.8765017488727152
  0
VERTEX
  5
108E
  8
SAPA_ANSLUTNING
 10
66.500570444244971
 20
27.813614221017801
 30
0.0
 42
-0.8765017488727152
  0
SEQEND
  5
108F
  8
SAPA_ANSLUTNING
  0
TEXT
  5
81C
  8
SAPA_ARTIKELNR
 10
-2.9588240781161521
 20
42.573543645451757
 30
0.0
 40
3.5
  1
86117
 50
270.0
 51
180.0
  7
ISO
 71
     6
 72
     4
 11
-4.7088240781161508
 21
47.998543645451761
 31
0.0
  0
TEXT
  5
81D
  8
SAPA_ARTIKELNR
 10
90.735317278430387
 20
79.126753756640667
 30
0.0
 40
3.5
  1
42728
 50
270.0
 51
180.0
  7
ISO
 71
     6
 72
     4
 11
88.985317278430387
 21
85.426753756640665
 31
0.0
  0
TEXT
  5
81F
  8
SAPA_ARTIKELNR
 10
69.928134828807103
 20
34.704729899439471
 30
0.0
 40
3.5
  1
42793
 50
180.0
 51
180.0
  7
ISO
 71
     6
 72
     4
 11
76.2281348288071
 21
36.454729899439471
 31
0.0
  0
POLYLINE
  5
821
  8
SAPA_ANSLUTNING
 66
     1
 10
0.0
 20
0.0
 30
0.0
  0
VERTEX
  5
1090
  8
SAPA_ANSLUTNING
 10
22.500570444244971
 20
24.700568000516721
 30
0.0
  0
VERTEX
  5
1091
  8
SAPA_ANSLUTNING
 10
22.500570444244971
 20
44.900568000533788
 30
0.0
  0
VERTEX
  5
1092
  8
SAPA_ANSLUTNING
 10
66.500570444244971
 20
44.900568000533788
 30
0.0
  0
VERTEX
  5
1093
  8
SAPA_ANSLUTNING
 10
66.500570444244971
 20
24.700568000516721
 30
0.0
  0
SEQEND
  5
1094
  8
SAPA_ANSLUTNING
  0
POLYLINE
  5
822
  8
SAPA_ANSLUTNING
 66
     1
 10
0.0
 20
0.0
 30
0.0
  0
VERTEX
  5
1095
  8
SAPA_ANSLUTNING
 10
53.747090299170559
 20
24.700568000581651
 30
0.0
  0
VERTEX
  5
1096
  8
SAPA_ANSLUTNING
 10
46.500570444244971
 20
44.900568000533788
 30
0.0
  0
VERTEX
  5
1097
  8
SAPA_ANSLUTNING
 10
38.500570444244971
 20
24.700568000552781
 30
0.0
  0
VERTEX
  5
1098
  8
SAPA_ANSLUTNING
 10
30.500570444244971
 20
44.900568000533788
 30
0.0
  0
VERTEX
  5
1099
  8
SAPA_ANSLUTNING
 10
22.500570444244971
 20
24.700568000523941
 30
0.0
  0
SEQEND
  5
109A
  8
SAPA_ANSLUTNING
  0
POLYLINE
  5
828
  8
SAPA_ANSLUTNING
 66
     1
 10
0.0
 20
0.0
 30
0.0
  0
VERTEX
  5
109B
  8
SAPA_ANSLUTNING
 10
66.500570444244971
 20
32.898030634094781
 30
0.0
  0
VERTEX
  5
109C
  8
SAPA_ANSLUTNING
 10
61.747090299116138
 20
44.900568000533788
 30
0.0
  0
VERTEX
  5
109D
  8
SAPA_ANSLUTNING
 10
53.747090299116131
 20
24.700568000523941
 30
0.0
  0
SEQEND
  5
109E
  8
SAPA_ANSLUTNING
  0
LINE
  5
8D8
  8
SAPA_ANSLUTNING
 10
10.100570444079491
 20
-20.29943199938619
 30
0.0
 11
10.100570444079491
 21
24.700568000623502
 31
0.0
  0
LINE
  5
905
  8
SAPA_ANSLUTNING
 10
249.50057044407939
 20
24.700568000623502
 30
0.0
 11
249.5005704440793
 21
-20.29943199938619
 31
0.0
  0
LINE
  5
906
  8
SAPA_ANSLUTNING
 10
9.5005704440795782
 20
-20.29943199938619
 30
0.0
 11
9.5005704440795782
 21
24.700568000623502
 31
0.0
  0
LINE
  5
907
  8
SAPA_ANSLUTNING
 10
9.5005704440795782
 20
24.700568000623502
 30
0.0
 11
249.50057044407939
 21
24.700568000623431
 31
0.0
  0
LINE
  5
908
  8
SAPA_ANSLUTNING
 10
248.90057044407951
 20
24.700568000623502
 30
0.0
 11
248.90057044407951
 21
-20.299431999386169
 31
0.0
  0
TEXT
  5
9AC
  8
SAPA_ARTIKELNR
 10
263.45421789428298
 20
15.72354264630529
 30
0.0
 40
3.5
  1
42882
 50
270.0
 51
180.0
  7
ISO
 71
     6
 72
     4
 11
261.70421789428298
 21
22.023542646305291
 31
0.0
  0
POLYLINE
  5
F69
  8
SAPA_PROFIL
 66
     1
 10
0.0
 20
0.0
 30
0.0
 70
     1
  0
VERTEX
  5
13B6
  8
SAPA_PROFIL
 10
244.5371973687441
 20
37.900568000818311
 30
0.0
 42
0.5535245743366085
  0
VERTEX
  5
13B7
  8
SAPA_PROFIL
 10
242.76467804612869
 20
42.211122212367819
 30
0.0
  0
VERTEX
  5
13B8
  8
SAPA_PROFIL
 10
242.47734713944601
 20
41.923791305684972
 30
0.0
 42
-0.4142135623731421
  0
VERTEX
  5
13B9
  8
SAPA_PROFIL
 10
242.12379374885259
 20
41.923791305684993
 30
0.0
  0
VERTEX
  5
13BA
  8
SAPA_PROFIL
 10
241.8364628421607
 20
42.211122212376949
 30
0.0
 42
0.5535245743469748
  0
VERTEX
  5
13BB
  8
SAPA_PROFIL
 10
240.06394351947381
 20
37.900568000818737
 30
0.0
  0
VERTEX
  5
13BC
  8
SAPA_PROFIL
 10
240.40057044410401
 20
37.900568000818573
 30
0.0
 42
-0.414213562372873
  0
VERTEX
  5
13BD
  8
SAPA_PROFIL
 10
240.70057044410399
 20
37.600568000818392
 30
0.0
  0
VERTEX
  5
13BE
  8
SAPA_PROFIL
 10
240.70057044410419
 20
37.100568000818839
 30
0.0
 42
-0.414213562372665
  0
VERTEX
  5
13BF
  8
SAPA_PROFIL
 10
240.40057044410401
 20
36.800568000818657
 30
0.0
  0
VERTEX
  5
13C0
  8
SAPA_PROFIL
 10
238.10057044410411
 20
36.800568000818657
 30
0.0
 42
-0.4142135623730951
  0
VERTEX
  5
13C1
  8
SAPA_PROFIL
 10
237.8005704441043
 20
37.100568000818392
 30
0.0
  0
VERTEX
  5
13C2
  8
SAPA_PROFIL
 10
237.80057044410341
 20
41.400568000711239
 30
0.0
 42
0.4142135623736611
  0
VERTEX
  5
13C3
  8
SAPA_PROFIL
 10
236.8005704441016
 20
42.400568000711012
 30
0.0
  0
VERTEX
  5
13C4
  8
SAPA_PROFIL
 10
93.600570444100114
 20
42.400568000416399
 30
0.0
 42
0.4142135623723464
  0
VERTEX
  5
13C5
  8
SAPA_PROFIL
 10
93.300570444100714
 20
42.100568000416636
 30
0.0
  0
VERTEX
  5
13C6
  8
SAPA_PROFIL
 10
93.300570444100686
 20
42.000568000281241
 30
0.0
 42
-0.637070260804782
  0
VERTEX
  5
13C7
  8
SAPA_PROFIL
 10
92.807734161196294
 20
41.77075466734442
 30
0.0
  0
VERTEX
  5
13C8
  8
SAPA_PROFIL
 10
91.993406727005322
 20
42.454056517022593
 30
0.0
 42
0.6370702608053477
  0
VERTEX
  5
13C9
  8
SAPA_PROFIL
 10
91.500570444100703
 20
42.224243184085338
 30
0.0
  0
VERTEX
  5
13CA
  8
SAPA_PROFIL
 10
91.500570444100873
 20
42.000568000281241
 30
0.0
 42
-0.6370702608049355
  0
VERTEX
  5
13CB
  8
SAPA_PROFIL
 10
91.007734161196169
 20
41.77075466734442
 30
0.0
  0
VERTEX
  5
13CC
  8
SAPA_PROFIL
 10
90.193406727005055
 20
42.454056517022593
 30
0.0
 42
0.6370702608053194
  0
VERTEX
  5
13CD
  8
SAPA_PROFIL
 10
89.700570444100578
 20
42.224243184085338
 30
0.0
  0
VERTEX
  5
13CE
  8
SAPA_PROFIL
 10
89.700570444100691
 20
42.000568000281241
 30
0.0
 42
-0.6370702608043289
  0
VERTEX
  5
13CF
  8
SAPA_PROFIL
 10
89.207734161196242
 20
41.77075466734442
 30
0.0
  0
VERTEX
  5
13D0
  8
SAPA_PROFIL
 10
88.393406727004916
 20
42.454056517022593
 30
0.0
 42
0.6370702608051309
  0
VERTEX
  5
13D1
  8
SAPA_PROFIL
 10
87.900570444100666
 20
42.224243184085338
 30
0.0
  0
VERTEX
  5
13D2
  8
SAPA_PROFIL
 10
87.900570444100794
 20
42.000568000281241
 30
0.0
 42
-0.6370702608042995
  0
VERTEX
  5
13D3
  8
SAPA_PROFIL
 10
87.407734161196274
 20
41.77075466734442
 30
0.0
  0
VERTEX
  5
13D4
  8
SAPA_PROFIL
 10
86.593406727004975
 20
42.454056517022593
 30
0.0
 42
0.6370702608051309
  0
VERTEX
  5
13D5
  8
SAPA_PROFIL
 10
86.100570444100725
 20
42.224243184085338
 30
0.0
  0
VERTEX
  5
13D6
  8
SAPA_PROFIL
 10
86.100570444100498
 20
42.000568000281241
 30
0.0
 42
-0.6370702608047666
  0
VERTEX
  5
13D7
  8
SAPA_PROFIL
 10
85.607734161196205
 20
41.77075466734442
 30
0.0
  0
VERTEX
  5
13D8
  8
SAPA_PROFIL
 10
84.793406727005205
 20
42.454056517022593
 30
0.0
 42
0.6370702608053223
  0
VERTEX
  5
13D9
  8
SAPA_PROFIL
 10
84.300570444100657
 20
42.224243184085338
 30
0.0
  0
VERTEX
  5
13DA
  8
SAPA_PROFIL
 10
84.300570444100615
 20
42.000568000281241
 30
0.0
 42
-0.6370702608054398
  0
VERTEX
  5
13DB
  8
SAPA_PROFIL
 10
83.807734161195043
 20
41.770754667345329
 30
0.0
  0
VERTEX
  5
13DC
  8
SAPA_PROFIL
 10
82.993406727005265
 20
42.454056517022558
 30
0.0
 42
0.6370702608053286
  0
VERTEX
  5
13DD
  8
SAPA_PROFIL
 10
82.500570444100674
 20
42.224243184085338
 30
0.0
  0
VERTEX
  5
13DE
  8
SAPA_PROFIL
 10
82.500570444100788
 20
42.000568000281241
 30
0.0
 42
-0.6370702608055612
  0
VERTEX
  5
13DF
  8
SAPA_PROFIL
 10
82.007734161194946
 20
41.770754667345329
 30
0.0
  0
VERTEX
  5
13E0
  8
SAPA_PROFIL
 10
81.193406727004998
 20
42.454056517022131
 30
0.0
 42
0.6370702608052288
  0
VERTEX
  5
13E1
  8
SAPA_PROFIL
 10
80.700570444100606
 20
42.224243184085303
 30
0.0
  0
VERTEX
  5
13E2
  8
SAPA_PROFIL
 10
80.700570444100521
 20
42.000568000281241
 30
0.0
 42
-0.6370702608054464
  0
VERTEX
  5
13E3
  8
SAPA_PROFIL
 10
80.207734161194864
 20
41.770754667345329
 30
0.0
  0
VERTEX
  5
13E4
  8
SAPA_PROFIL
 10
79.393406727005129
 20
42.45405651702211
 30
0.0
 42
0.6370702608049216
  0
VERTEX
  5
13E5
  8
SAPA_PROFIL
 10
78.900570444100424
 20
42.224243184085793
 30
0.0
  0
VERTEX
  5
13E6
  8
SAPA_PROFIL
 10
78.900570444100197
 20
42.000568000281241
 30
0.0
 42
-0.6064417173624969
  0
VERTEX
  5
13E7
  8
SAPA_PROFIL
 10
78.428765765379211
 20
41.754634772820573
 30
0.0
  0
VERTEX
  5
13E8
  8
SAPA_PROFIL
 10
75.514229312898522
 20
43.790679287859632
 30
0.0
 42
-0.7336498725449036
  0
VERTEX
  5
13E9
  8
SAPA_PROFIL
 10
75.800570444113603
 20
44.700568000295618
 30
0.0
  0
VERTEX
  5
13EA
  8
SAPA_PROFIL
 10
256.80057044410358
 20
44.70056800077213
 30
0.0
 42
-0.4142135623753592
  0
VERTEX
  5
13EB
  8
SAPA_PROFIL
 10
257.30057044410711
 20
44.200568000771682
 30
0.0
  0
VERTEX
  5
13EC
  8
SAPA_PROFIL
 10
257.30057044407857
 20
0.000568000453768
 30
0.0
 42
-0.66817863791893
  0
VERTEX
  5
13ED
  8
SAPA_PROFIL
 10
256.78843840972257
 20
-0.2115640339020217
 30
0.0
  0
VERTEX
  5
13EE
  8
SAPA_PROFIL
 10
255.147017053486
 20
1.429857322334527
 30
0.0
 42
-0.4142135623729537
  0
VERTEX
  5
13EF
  8
SAPA_PROFIL
 10
255.14701705348619
 20
2.1369641035211941
 30
0.0
  0
VERTEX
  5
13F0
  8
SAPA_PROFIL
 10
255.41270247843551
 20
2.4026495284701919
 30
0.0
 42
0.198912367379707
  0
VERTEX
  5
13F1
  8
SAPA_PROFIL
 10
255.50057044407939
 20
2.614781562826209
 30
0.0
  0
VERTEX
  5
13F2
  8
SAPA_PROFIL
 10
255.50057044407939
 20
6.700568000452904
 30
0.0
 42
0.4142135623734946
  0
VERTEX
  5
13F3
  8
SAPA_PROFIL
 10
255.0005704440787
 20
7.200568000452904
 30
0.0
  0
VERTEX
  5
13F4
  8
SAPA_PROFIL
 10
249.80057044408031
 20
7.2005680004453998
 30
0.0
 42
-0.414213562373761
  0
VERTEX
  5
13F5
  8
SAPA_PROFIL
 10
249.50057044407939
 20
7.5005680004455817
 30
0.0
  0
VERTEX
  5
13F6
  8
SAPA_PROFIL
 10
249.50057044407939
 20
8.900568000444764
 30
0.0
 42
-0.4142135623728733
  0
VERTEX
  5
13F7
  8
SAPA_PROFIL
 10
249.80057044407931
 20
9.2005680004447186
 30
0.0
  0
VERTEX
  5
13F8
  8
SAPA_PROFIL
 10
254.50057044408479
 20
9.2005680004449442
 30
0.0
 42
0.4142135623728287
  0
VERTEX
  5
13F9
  8
SAPA_PROFIL
 10
255.00057044408479
 20
9.7005680004444912
 30
0.0
  0
VERTEX
  5
13FA
  8
SAPA_PROFIL
 10
255.00057044410579
 20
41.900568000758312
 30
0.0
 42
0.4142135623753592
  0
VERTEX
  5
13FB
  8
SAPA_PROFIL
 10
254.50057044410229
 20
42.40056800075876
 30
0.0
  0
VERTEX
  5
13FC
  8
SAPA_PROFIL
 10
247.80057044409111
 20
42.40056800074057
 30
0.0
 42
0.414213562372995
  0
VERTEX
  5
13FD
  8
SAPA_PROFIL
 10
246.80057044410361
 20
41.400568000736932
 30
0.0
  0
VERTEX
  5
13FE
  8
SAPA_PROFIL
 10
246.8005704441039
 20
37.100568000818392
 30
0.0
 42
-0.414213562372887
  0
VERTEX
  5
13FF
  8
SAPA_PROFIL
 10
246.50057044410389
 20
36.800568000818657
 30
0.0
  0
VERTEX
  5
1400
  8
SAPA_PROFIL
 10
244.20057044410399
 20
36.800568000818657
 30
0.0
 42
-0.4142135623728731
  0
VERTEX
  5
1401
  8
SAPA_PROFIL
 10
243.90057044410401
 20
37.100568000818839
 30
0.0
  0
VERTEX
  5
1402
  8
SAPA_PROFIL
 10
243.90057044410381
 20
37.600568000818392
 30
0.0
 42
-0.4142135623730951
  0
VERTEX
  5
1403
  8
SAPA_PROFIL
 10
244.20057044410399
 20
37.900568000818573
 30
0.0
  0
SEQEND
  5
1404
  8
SAPA_PROFIL
  0
POLYLINE
  5
F6A
  8
SAPA_PROFIL
 66
     1
 10
0.0
 20
0.0
 30
0.0
 70
     1
  0
VERTEX
  5
1405
  8
SAPA_PROFIL
 10
82.804759985896965
 20
75.200000000112425
 30
0.0
  0
VERTEX
  5
1406
  8
SAPA_PROFIL
 10
82.562216048049834
 20
75.200000000112425
 30
0.0
 42
0.2011813370902256
  0
VERTEX
  5
1407
  8
SAPA_PROFIL
 10
82.419565958219266
 20
75.140181852972376
 30
0.0
  0
VERTEX
  5
1408
  8
SAPA_PROFIL
 10
81.508853865195363
 20
74.213434494242676
 30
0.0
  0
VERTEX
  5
1409
  8
SAPA_PROFIL
 10
81.522061407938565
 20
72.700000000110606
 30
0.0
 42
-0.4931454260356012
  0
VERTEX
  5
140A
  8
SAPA_PROFIL
 10
81.742888296986223
 20
71.128735039872765
 30
0.0
  0
VERTEX
  5
140B
  8
SAPA_PROFIL
 10
80.693711724373415
 20
70.061085203048435
 30
0.0
 42
-0.6681786379164681
  0
VERTEX
  5
140C
  8
SAPA_PROFIL
 10
80.343811466888496
 20
70.202454083502118
 30
0.0
  0
VERTEX
  5
140D
  8
SAPA_PROFIL
 10
80.30456197829119
 20
74.700000000112425
 30
0.0
  0
VERTEX
  5
140E
  8
SAPA_PROFIL
 10
82.382075237520951
 20
76.814092851702128
 30
0.0
 42
0.2038501166358263
  0
VERTEX
  5
140F
  8
SAPA_PROFIL
 10
82.525258094126968
 20
77.17839963111993
 30
0.0
  0
VERTEX
  5
1410
  8
SAPA_PROFIL
 10
82.106631984838089
 20
92.283112883714338
 30
0.0
 42
0.4061212134736873
  0
VERTEX
  5
1411
  8
SAPA_PROFIL
 10
79.107783497738623
 20
95.200000000105945
 30
0.0
  0
VERTEX
  5
1412
  8
SAPA_PROFIL
 10
67.323592254270579
 20
95.200000000105945
 30
0.0
 42
0.4142135623730951
  0
VERTEX
  5
1413
  8
SAPA_PROFIL
 10
66.823592254270579
 20
94.700000000105945
 30
0.0
  0
VERTEX
  5
1414
  8
SAPA_PROFIL
 10
66.823592254270579
 20
83.114213562480884
 30
0.0
 42
0.198912367379658
  0
VERTEX
  5
1415
  8
SAPA_PROFIL
 10
67.116485473084026
 20
82.407106781294317
 30
0.0
  0
VERTEX
  5
1416
  8
SAPA_PROFIL
 10
67.497084246474515
 20
82.026508007903786
 30
0.0
 42
-0.1830252782112529
  0
VERTEX
  5
1417
  8
SAPA_PROFIL
 10
68.079112788222119
 20
80.734840199172424
 30
0.0
  0
VERTEX
  5
1418
  8
SAPA_PROFIL
 10
68.802177515552671
 20
70.301768170366643
 30
0.0
 42
-0.668178637923616
  0
VERTEX
  5
1419
  8
SAPA_PROFIL
 10
68.287027025763678
 20
70.088385850833049
 30
0.0
  0
VERTEX
  5
141A
  8
SAPA_PROFIL
 10
66.28754491084112
 20
72.087867965755606
 30
0.0
 42
-0.7332303362588345
  0
VERTEX
  5
141B
  8
SAPA_PROFIL
 10
66.551771398498317
 20
72.595442326015302
 30
0.0
  0
VERTEX
  5
141C
  8
SAPA_PROFIL
 10
67.167582491896724
 20
72.486858215229233
 30
0.0
 42
0.4663076581593561
  0
VERTEX
  5
141D
  8
SAPA_PROFIL
 10
67.51967694519692
 20
72.782300541132656
 30
0.0
  0
VERTEX
  5
141E
  8
SAPA_PROFIL
 10
66.788517323316455
 20
80.541777666484961
 30
0.0
 42
0.183025278211264
  0
VERTEX
  5
141F
  8
SAPA_PROFIL
 10
66.497503052442653
 20
81.187611570850649
 30
0.0
  0
VERTEX
  5
1420
  8
SAPA_PROFIL
 10
66.109378691897632
 20
81.575735931395627
 30
0.0
 42
-0.1989123673796518
  0
VERTEX
  5
1421
  8
SAPA_PROFIL
 10
65.523592254270739
 20
82.989949493768677
 30
0.0
  0
VERTEX
  5
1422
  8
SAPA_PROFIL
 10
65.523592254270625
 20
94.400000000121466
 30
0.0
 42
0.4142135623732283
  0
VERTEX
  5
1423
  8
SAPA_PROFIL
 10
65.023592254270383
 20
94.900000000121452
 30
0.0
  0
VERTEX
  5
1424
  8
SAPA_PROFIL
 10
63.823592254271027
 20
94.900000000120485
 30
0.0
 42
-0.4142135623732062
  0
VERTEX
  5
1425
  8
SAPA_PROFIL
 10
63.523592254270973
 20
95.200000000120497
 30
0.0
  0
VERTEX
  5
1426
  8
SAPA_PROFIL
 10
63.523592254270618
 20
96.400000000106004
 30
0.0
 42
-0.4142135623716247
  0
VERTEX
  5
1427
  8
SAPA_PROFIL
 10
63.823592254271936
 20
96.700000000106016
 30
0.0
  0
VERTEX
  5
1428
  8
SAPA_PROFIL
 10
83.799999996593954
 20
96.70000000011953
 30
0.0
 42
-0.4142135623732938
  0
VERTEX
  5
1429
  8
SAPA_PROFIL
 10
83.999999996593985
 20
96.500000000119556
 30
0.0
  0
VERTEX
  5
142A
  8
SAPA_PROFIL
 10
83.999999996593985
 20
74.90462388643374
 30
0.0
 42
-0.4210020197690384
  0
VERTEX
  5
142B
  8
SAPA_PROFIL
 10
83.800053454549982
 20
74.700000000112425
 30
0.0
  0
VERTEX
  5
142C
  8
SAPA_PROFIL
 10
83.212070291354451
 20
74.700000000105945
 30
0.0
  0
VERTEX
  5
142D
  8
SAPA_PROFIL
 10
83.212070291354451
 20
75.000000000105956
 30
0.0
 42
0.41421356237322
  0
VERTEX
  5
142E
  8
SAPA_PROFIL
 10
83.012070291354405
 20
75.200000000105831
 30
0.0
  0
VERTEX
  5
142F
  8
SAPA_PROFIL
 10
82.794892525884791
 20
75.200000000105945
 30
0.0
  0
SEQEND
  5
1430
  8
SAPA_PROFIL
  0
CIRCLE
  5
F6B
  8
SAPA_PROFIL
 62
     2
 10
2.8894244481780329
 20
93.363340927526338
 30
0.0
 40
0.8999999999999985
  0
POLYLINE
  5
F6C
  8
SAPA_PROFIL
 62
     2
 66
     1
 10
0.0
 20
0.0
 30
0.0
  0
VERTEX
  5
1431
  8
SAPA_PROFIL
 62
     2
 10
4.197430859751079
 20
94.763340927526315
 30
0.0
  0
VERTEX
  5
1432
  8
SAPA_PROFIL
 62
     2
 10
3.106512049598336
 20
94.570982507533927
 30
0.0
  0
VERTEX
  5
1433
  8
SAPA_PROFIL
 62
     2
 10
2.9908125100783991
 20
95.002779067435526
 30
0.0
 42
0.4430158954262519
  0
VERTEX
  5
1434
  8
SAPA_PROFIL
 62
     2
 10
2.727336081971429
 20
95.13825611497964
 30
0.0
  0
VERTEX
  5
1435
  8
SAPA_PROFIL
 62
     2
 10
1.456848334053233
 20
94.661307921760681
 30
0.0
 42
0.3125358528825162
  0
VERTEX
  5
1436
  8
SAPA_PROFIL
 62
     2
 10
1.197430859751534
 20
94.286826208631282
 30
0.0
  0
VERTEX
  5
1437
  8
SAPA_PROFIL
 62
     2
 10
1.197430859751079
 20
92.416670892720958
 30
0.0
 42
0.3125358528825104
  0
VERTEX
  5
1438
  8
SAPA_PROFIL
 62
     2
 10
1.456848334053233
 20
92.04218917959156
 30
0.0
  0
VERTEX
  5
1439
  8
SAPA_PROFIL
 62
     2
 10
2.727336081971429
 20
91.565240986372373
 30
0.0
 42
0.4430158954262519
  0
VERTEX
  5
143A
  8
SAPA_PROFIL
 62
     2
 10
2.990812510078285
 20
91.700718033916473
 30
0.0
  0
VERTEX
  5
143B
  8
SAPA_PROFIL
 62
     2
 10
3.106512049598336
 20
92.132514593818314
 30
0.0
  0
VERTEX
  5
143C
  8
SAPA_PROFIL
 62
     2
 10
4.197430859751079
 20
91.940248550676074
 30
0.0
  0
SEQEND
  5
143D
  8
SAPA_PROFIL
 62
     2
  0
POLYLINE
  5
F6D
  8
SAPA_PROFIL
 62
     2
 66
     1
 10
0.0
 20
0.0
 30
0.0
 70
     1
  0
VERTEX
  5
143E
  8
SAPA_PROFIL
 62
     2
 10
4.197430859751079
 20
94.751748550675984
 30
0.0
 42
-0.285714285714282
  0
VERTEX
  5
143F
  8
SAPA_PROFIL
 62
     2
 10
4.197430859751079
 20
91.951748550676044
 30
0.0
  0
VERTEX
  5
1440
  8
SAPA_PROFIL
 62
     2
 10
4.1974308597515337
 20
89.877968381288156
 30
0.0
 42
0.3882600129940275
  0
VERTEX
  5
1441
  8
SAPA_PROFIL
 62
     2
 10
4.4706415860310917
 20
89.579166883946755
 30
0.0
  0
VERTEX
  5
1442
  8
SAPA_PROFIL
 62
     2
 10
8.3706415860311836
 20
89.112956960020256
 30
0.0
 42
0.4406523138893894
  0
VERTEX
  5
1443
  8
SAPA_PROFIL
 62
     2
 10
8.6974308597510799
 20
89.411758457362112
 30
0.0
  0
VERTEX
  5
1444
  8
SAPA_PROFIL
 62
     2
 10
8.6974308597510799
 20
91.121550454282428
 30
0.0
 42
0.3394542588634375
  0
VERTEX
  5
1445
  8
SAPA_PROFIL
 62
     2
 10
8.4750765732820792
 20
91.411328202168988
 30
0.0
  0
VERTEX
  5
1446
  8
SAPA_PROFIL
 62
     2
 10
8.2574907911144901
 20
91.613707930100404
 30
0.0
 42
-0.3394542588633663
  0
VERTEX
  5
1447
  8
SAPA_PROFIL
 62
     2
 10
8.035136504645493
 20
91.903485677987206
 30
0.0
  0
VERTEX
  5
1448
  8
SAPA_PROFIL
 62
     2
 10
8.035136504645493
 20
94.800011423365035
 30
0.0
 42
-0.3394542588634373
  0
VERTEX
  5
1449
  8
SAPA_PROFIL
 62
     2
 10
8.2574907911144901
 20
95.089789171251596
 30
0.0
  0
VERTEX
  5
144A
  8
SAPA_PROFIL
 62
     2
 10
8.4750765732820792
 20
95.292168899183025
 30
0.0
 42
0.3394542588633662
  0
VERTEX
  5
144B
  8
SAPA_PROFIL
 62
     2
 10
8.6974308597510799
 20
95.581946647069785
 30
0.0
  0
VERTEX
  5
144C
  8
SAPA_PROFIL
 62
     2
 10
8.6974308597510799
 20
97.291738643989902
 30
0.0
 42
0.4406523138893994
  0
VERTEX
  5
144D
  8
SAPA_PROFIL
 62
     2
 10
8.3706415860311836
 20
97.590540141331545
 30
0.0
  0
VERTEX
  5
144E
  8
SAPA_PROFIL
 62
     2
 10
4.4706415860310917
 20
97.124330217405259
 30
0.0
 42
0.3882600129940462
  0
VERTEX
  5
144F
  8
SAPA_PROFIL
 62
     2
 10
4.197430859751079
 20
96.825528720063858
 30
0.0
  0
VERTEX
  5
1450
  8
SAPA_PROFIL
 62
     2
 10
4.197430859751079
 20
94.763340927526315
 30
0.0
  0
SEQEND
  5
1451
  8
SAPA_PROFIL
 62
     2
  0
POLYLINE
  5
F6E
  8
SAPA_PROFIL
 62
     4
 66
     1
 10
0.0
 20
0.0
 30
0.0
  0
VERTEX
  5
1452
  8
SAPA_PROFIL
 62
     4
 10
51.749329119175648
 20
71.795904721999875
 30
0.0
 42
-0.5571646428658034
  0
VERTEX
  5
1453
  8
SAPA_PROFIL
 62
     4
 10
51.212368615038827
 20
70.928185807844315
 30
0.0
  0
VERTEX
  5
1454
  8
SAPA_PROFIL
 62
     4
 10
34.187631378517622
 20
70.928185807844784
 30
0.0
 42
-0.5571645048035741
  0
VERTEX
  5
1455
  8
SAPA_PROFIL
 62
     4
 10
33.650670761556569
 20
71.795904495710943
 30
0.0
  0
VERTEX
  5
1456
  8
SAPA_PROFIL
 62
     4
 10
34.481377849103268
 20
73.46204515177898
 30
0.0
 42
-0.284385813979063
  0
VERTEX
  5
1457
  8
SAPA_PROFIL
 62
     4
 10
34.749858157583617
 20
73.628185807846421
 30
0.0
  0
VERTEX
  5
1458
  8
SAPA_PROFIL
 62
     4
 10
50.650141835972931
 20
73.628185807846421
 30
0.0
 42
-0.2843858139786238
  0
VERTEX
  5
1459
  8
SAPA_PROFIL
 62
     4
 10
50.918622144453202
 20
73.462045151779478
 30
0.0
  0
VERTEX
  5
145A
  8
SAPA_PROFIL
 62
     4
 10
51.749329232000377
 20
71.795904495710133
 30
0.0
  0
SEQEND
  5
145B
  8
SAPA_PROFIL
 62
     4
  0
POLYLINE
  5
F6F
  8
SAPA_PROFIL
 62
     4
 66
     1
 10
0.0
 20
0.0
 30
0.0
 70
     1
  0
VERTEX
  5
145C
  8
SAPA_PROFIL
 62
     4
 10
28.28238881211098
 20
73.985017322343992
 30
0.0
  0
VERTEX
  5
145D
  8
SAPA_PROFIL
 62
     4
 10
28.018365533734968
 20
74.391577518348114
 30
0.0
 42
0.2539676464751066
  0
VERTEX
  5
145E
  8
SAPA_PROFIL
 62
     4
 10
27.766764363350259
 20
74.528185807844224
 30
0.0
  0
VERTEX
  5
145F
  8
SAPA_PROFIL
 62
     4
 10
26.385264778144911
 20
74.528185807844224
 30
0.0
 42
0.3152987888790479
  0
VERTEX
  5
1460
  8
SAPA_PROFIL
 62
     4
 10
25.915418467752598
 20
74.199195879506078
 30
0.0
  0
VERTEX
  5
1461
  8
SAPA_PROFIL
 62
     4
 10
25.019749526843992
 20
71.738365689054802
 30
0.0
 42
-0.2694959974287434
  0
VERTEX
  5
1462
  8
SAPA_PROFIL
 62
     4
 10
24.788230480442639
 20
71.545233714710903
 30
0.0
 42
-0.0612686379508233
  0
VERTEX
  5
1463
  8
SAPA_PROFIL
 62
     4
 10
24.49555504758936
 20
71.53165034408039
 30
0.0
  0
VERTEX
  5
1464
  8
SAPA_PROFIL
 62
     4
 10
24.146136870281101
 20
71.329913665351569
 30
0.0
 42
-0.5773502691891679
  0
VERTEX
  5
1465
  8
SAPA_PROFIL
 62
     4
 10
23.831136870281512
 20
71.511779000146134
 30
0.0
  0
VERTEX
  5
1466
  8
SAPA_PROFIL
 62
     4
 10
23.83113687028127
 20
71.778893528272448
 30
0.0
  0
VERTEX
  5
1467
  8
SAPA_PROFIL
 62
     4
 10
22.432609169647009
 20
72.587576989580768
 30
0.0
 42
0.1318219888653519
  0
VERTEX
  5
1468
  8
SAPA_PROFIL
 62
     4
 10
22.282436067174672
 20
72.627869386118164
 30
0.0
  0
VERTEX
  5
1469
  8
SAPA_PROFIL
 62
     4
 10
22.099999996737889
 20
72.627869386111797
 30
0.0
 42
0.4142135623724291
  0
VERTEX
  5
146A
  8
SAPA_PROFIL
 62
     4
 10
21.69999999673734
 20
72.227869386112161
 30
0.0
  0
VERTEX
  5
146B
  8
SAPA_PROFIL
 62
     4
 10
21.699999996738711
 20
68.827869386111161
 30
0.0
 42
0.4142135623744271
  0
VERTEX
  5
146C
  8
SAPA_PROFIL
 62
     4
 10
22.099999996737889
 20
68.42786938611016
 30
0.0
  0
VERTEX
  5
146D
  8
SAPA_PROFIL
 62
     4
 10
22.279615239009189
 20
68.427869386109521
 30
0.0
 42
0.1316524975874005
  0
VERTEX
  5
146E
  8
SAPA_PROFIL
 62
     4
 10
22.429615239006012
 20
68.468061764975118
 30
0.0
  0
VERTEX
  5
146F
  8
SAPA_PROFIL
 62
     4
 10
24.033753136008269
 20
69.394211211627649
 30
0.0
 42
-0.1316524975875904
  0
VERTEX
  5
1470
  8
SAPA_PROFIL
 62
     4
 10
24.53375313600997
 20
69.528185807842419
 30
0.0
  0
VERTEX
  5
1471
  8
SAPA_PROFIL
 62
     4
 10
24.94999999673734
 20
69.528185807842419
 30
0.0
 42
-0.4142135623730951
  0
VERTEX
  5
1472
  8
SAPA_PROFIL
 62
     4
 10
25.94999999673734
 20
68.528185807842419
 30
0.0
  0
VERTEX
  5
1473
  8
SAPA_PROFIL
 62
     4
 10
25.94999999673734
 20
65.528185807845134
 30
0.0
 42
0.9999996830128083
  0
VERTEX
  5
1474
  8
SAPA_PROFIL
 62
     4
 10
26.94999999673735
 20
65.528185807843315
 30
0.0
  0
VERTEX
  5
1475
  8
SAPA_PROFIL
 62
     4
 10
26.94999999673735
 20
68.528185807843329
 30
0.0
 42
-0.4142135623730951
  0
VERTEX
  5
1476
  8
SAPA_PROFIL
 62
     4
 10
27.94999999673735
 20
69.528185807843329
 30
0.0
  0
VERTEX
  5
1477
  8
SAPA_PROFIL
 62
     4
 10
57.449999996821923
 20
69.528185807843315
 30
0.0
 42
-0.4142135623730951
  0
VERTEX
  5
1478
  8
SAPA_PROFIL
 62
     4
 10
58.44999999682193
 20
68.528185807843315
 30
0.0
  0
VERTEX
  5
1479
  8
SAPA_PROFIL
 62
     4
 10
58.44999999682193
 20
65.528185807845134
 30
0.0
 42
0.9999999999999998
  0
VERTEX
  5
147A
  8
SAPA_PROFIL
 62
     4
 10
59.44999999682193
 20
65.528185807845134
 30
0.0
  0
VERTEX
  5
147B
  8
SAPA_PROFIL
 62
     4
 10
59.44999999682193
 20
68.528185807843315
 30
0.0
 42
-0.4142135623736278
  0
VERTEX
  5
147C
  8
SAPA_PROFIL
 62
     4
 10
60.44999999682193
 20
69.528185807843315
 30
0.0
  0
VERTEX
  5
147D
  8
SAPA_PROFIL
 62
     4
 10
60.86624685754839
 20
69.528185807843315
 30
0.0
 42
-0.1316524975874375
  0
VERTEX
  5
147E
  8
SAPA_PROFIL
 62
     4
 10
61.366246857548589
 20
69.39421121162728
 30
0.0
  0
VERTEX
  5
147F
  8
SAPA_PROFIL
 62
     4
 10
62.97038475455053
 20
68.468061764975104
 30
0.0
 42
0.1316524975874
  0
VERTEX
  5
1480
  8
SAPA_PROFIL
 62
     4
 10
63.120384754550081
 20
68.427869386109521
 30
0.0
  0
VERTEX
  5
1481
  8
SAPA_PROFIL
 62
     4
 10
63.299999996821377
 20
68.427869386110146
 30
0.0
 42
0.4142135623744271
  0
VERTEX
  5
1482
  8
SAPA_PROFIL
 62
     4
 10
63.699999996820573
 20
68.827869386111146
 30
0.0
  0
VERTEX
  5
1483
  8
SAPA_PROFIL
 62
     4
 10
63.699999996821923
 20
72.227869386112147
 30
0.0
 42
0.4142135623724291
  0
VERTEX
  5
1484
  8
SAPA_PROFIL
 62
     4
 10
63.299999996821377
 20
72.627869386111783
 30
0.0
  0
VERTEX
  5
1485
  8
SAPA_PROFIL
 62
     4
 10
63.117563926384612
 20
72.627869386118149
 30
0.0
 42
0.1318219888653524
  0
VERTEX
  5
1486
  8
SAPA_PROFIL
 62
     4
 10
62.967390823912247
 20
72.587576989580768
 30
0.0
  0
VERTEX
  5
1487
  8
SAPA_PROFIL
 62
     4
 10
61.5688631234326
 20
71.77889352835642
 30
0.0
  0
VERTEX
  5
1488
  8
SAPA_PROFIL
 62
     4
 10
61.5688631234326
 20
71.511779000143392
 30
0.0
 42
-0.577350269189159
  0
VERTEX
  5
1489
  8
SAPA_PROFIL
 62
     4
 10
61.253863123433007
 20
71.329913665348826
 30
0.0
  0
VERTEX
  5
148A
  8
SAPA_PROFIL
 62
     4
 10
60.90444494621434
 20
71.531650344025934
 30
0.0
 42
-0.0612687673629489
  0
VERTEX
  5
148B
  8
SAPA_PROFIL
 62
     4
 10
60.611769513114133
 20
71.545233714712126
 30
0.0
 42
-0.2694959974285039
  0
VERTEX
  5
148C
  8
SAPA_PROFIL
 62
     4
 10
60.380250466713612
 20
71.738365689056081
 30
0.0
  0
VERTEX
  5
148D
  8
SAPA_PROFIL
 62
     4
 10
59.484581525803947
 20
74.199195879509247
 30
0.0
 42
0.3152987888784035
  0
VERTEX
  5
148E
  8
SAPA_PROFIL
 62
     4
 10
59.014735215410717
 20
74.52818580784583
 30
0.0
  0
VERTEX
  5
148F
  8
SAPA_PROFIL
 62
     4
 10
57.633235630206279
 20
74.528185807844224
 30
0.0
 42
0.2539676464741841
  0
VERTEX
  5
1490
  8
SAPA_PROFIL
 62
     4
 10
57.381634459822209
 20
74.391577518348953
 30
0.0
  0
VERTEX
  5
1491
  8
SAPA_PROFIL
 62
     4
 10
57.117611181445568
 20
73.985017322343964
 30
0.0
 42
0.5862177598324623
  0
VERTEX
  5
1492
  8
SAPA_PROFIL
 62
     4
 10
57.373352996683913
 20
73.528185807847478
 30
0.0
  0
VERTEX
  5
1493
  8
SAPA_PROFIL
 62
     4
 10
58.31452767719373
 20
73.528185807855124
 30
0.0
 42
-0.3152987888813165
  0
VERTEX
  5
1494
  8
SAPA_PROFIL
 62
     4
 10
58.784373987591479
 20
73.199195879518385
 30
0.0
  0
VERTEX
  5
1495
  8
SAPA_PROFIL
 62
     4
 10
59.221138268715443
 20
71.999195879507155
 30
0.0
 42
-0.5205670505515651
  0
VERTEX
  5
1496
  8
SAPA_PROFIL
 62
     4
 10
58.751291958322213
 20
71.328185807844406
 30
0.0
  0
VERTEX
  5
1497
  8
SAPA_PROFIL
 62
     4
 10
53.734851017653362
 20
71.328185807844392
 30
0.0
 42
-0.3702522326300203
  0
VERTEX
  5
1498
  8
SAPA_PROFIL
 62
     4
 10
53.438327655860029
 20
71.58264576051009
 30
0.0
 42
-0.0982365330332397
  0
VERTEX
  5
1499
  8
SAPA_PROFIL
 62
     4
 10
53.347874897649092
 20
73.270332535505105
 30
0.0
 42
-0.3735060174783164
  0
VERTEX
  5
149A
  8
SAPA_PROFIL
 62
     4
 10
53.64489956556006
 20
73.528185807845134
 30
0.0
  0
VERTEX
  5
149B
  8
SAPA_PROFIL
 62
     4
 10
54.073352996682729
 20
73.528185807846043
 30
0.0
 42
0.5920056181162531
  0
VERTEX
  5
149C
  8
SAPA_PROFIL
 62
     4
 10
54.326361753000128
 20
73.989389310373966
 30
0.0
  0
VERTEX
  5
149D
  8
SAPA_PROFIL
 62
     4
 10
54.065177676844428
 20
74.391577518352264
 30
0.0
 42
0.2539676464746725
  0
VERTEX
  5
149E
  8
SAPA_PROFIL
 62
     4
 10
53.813576506460663
 20
74.528185807847635
 30
0.0
  0
VERTEX
  5
149F
  8
SAPA_PROFIL
 62
     4
 10
31.586423487094969
 20
74.528185807846043
 30
0.0
 42
0.2539676464741819
  0
VERTEX
  5
14A0
  8
SAPA_PROFIL
 62
     4
 10
31.33482231671212
 20
74.391577518352278
 30
0.0
  0
VERTEX
  5
14A1
  8
SAPA_PROFIL
 62
     4
 10
31.07363824055831
 20
73.989389310373937
 30
0.0
 42
0.5920055144124249
  0
VERTEX
  5
14A2
  8
SAPA_PROFIL
 62
     4
 10
31.326646996873819
 20
73.528185807846057
 30
0.0
  0
VERTEX
  5
14A3
  8
SAPA_PROFIL
 62
     4
 10
31.755100474164038
 20
73.528185833121057
 30
0.0
 42
-0.3735060174775405
  0
VERTEX
  5
14A4
  8
SAPA_PROFIL
 62
     4
 10
32.05212514207372
 20
73.270332560780972
 30
0.0
 42
-0.0355900683670349
  0
VERTEX
  5
14A5
  8
SAPA_PROFIL
 62
     4
 10
32.09601870610598
 20
72.654458973981178
 30
0.0
 42
-0.0624282003873116
  0
VERTEX
  5
14A6
  8
SAPA_PROFIL
 62
     4
 10
31.961672383863039
 20
71.582645785786056
 30
0.0
 42
-0.3702522326309292
  0
VERTEX
  5
14A7
  8
SAPA_PROFIL
 62
     4
 10
31.665149022069659
 20
71.32818583312033
 30
0.0
  0
VERTEX
  5
14A8
  8
SAPA_PROFIL
 62
     4
 10
26.648708035236151
 20
71.328185807844193
 30
0.0
 42
-0.5205670505515692
  0
VERTEX
  5
14A9
  8
SAPA_PROFIL
 62
     4
 10
26.178861724842928
 20
71.999195879507155
 30
0.0
  0
VERTEX
  5
14AA
  8
SAPA_PROFIL
 62
     4
 10
26.615626005967879
 20
73.199195879516608
 30
0.0
 42
-0.3152987888807539
  0
VERTEX
  5
14AB
  8
SAPA_PROFIL
 62
     4
 10
27.085472316363731
 20
73.528185807854243
 30
0.0
  0
VERTEX
  5
14AC
  8
SAPA_PROFIL
 62
     4
 10
28.02664699687282
 20
73.528185807847422
 30
0.0
 42
0.5862175119221242
  0
VERTEX
  5
14AD
  8
SAPA_PROFIL
 62
     4
 10
28.282388927854772
 20
73.985017133602554
 30
0.0
 42
-0.0000002084758573
  0
SEQEND
  5
14AE
  8
SAPA_PROFIL
 62
     4
  0
POLYLINE
  5
F70
  8
SAPA_PROFIL
 66
     1
 10
0.0
 20
0.0
 30
0.0
 70
     1
  0
VERTEX
  5
14AF
  8
SAPA_PROFIL
 10
24.145400824782929
 20
71.360845914839501
 30
0.0
 42
-0.5773502691897539
  0
VERTEX
  5
14B0
  8
SAPA_PROFIL
 10
23.851244524528219
 20
71.54379965494968
 30
0.0
  0
VERTEX
  5
14B1
  8
SAPA_PROFIL
 10
23.861805890755178
 20
71.865557383167925
 30
0.0
  0
VERTEX
  5
14B2
  8
SAPA_PROFIL
 10
21.97596219889407
 20
72.950121830139665
 30
0.0
  0
VERTEX
  5
14B3
  8
SAPA_PROFIL
 10
21.784579198900349
 20
73.008195467128701
 30
0.0
 42
0.7625858545243252
  0
VERTEX
  5
14B4
  8
SAPA_PROFIL
 10
21.599999996702859
 20
72.677869386111752
 30
0.0
 42
-0.2134217652834343
  0
VERTEX
  5
14B5
  8
SAPA_PROFIL
 10
21.699999996702999
 20
72.454262588361644
 30
0.0
  0
VERTEX
  5
14B6
  8
SAPA_PROFIL
 10
21.69999999677303
 20
68.601476183861678
 30
0.0
 42
0.4142135623730951
  0
VERTEX
  5
14B7
  8
SAPA_PROFIL
 10
21.999999996772988
 20
68.301476183861723
 30
0.0
  0
VERTEX
  5
14B8
  8
SAPA_PROFIL
 10
22.29999999677295
 20
68.301476183861723
 30
0.0
  0
VERTEX
  5
14B9
  8
SAPA_PROFIL
 10
23.899999996773079
 20
69.225236614571713
 30
0.0
 42
-0.5773502691868622
  0
VERTEX
  5
14BA
  8
SAPA_PROFIL
 10
24.19999999677303
 20
69.052031533811714
 30
0.0
  0
VERTEX
  5
14BB
  8
SAPA_PROFIL
 10
24.199999996769169
 20
67.666390887751731
 30
0.0
 42
-0.2679491924305262
  0
VERTEX
  5
14BC
  8
SAPA_PROFIL
 10
23.699999996773041
 20
66.800365483971746
 30
0.0
  0
VERTEX
  5
14BD
  8
SAPA_PROFIL
 10
21.950135163743081
 20
65.790808659991626
 30
0.0
 42
0.268032828299991
  0
VERTEX
  5
14BE
  8
SAPA_PROFIL
 10
21.699999996687989
 20
65.357717947501101
 30
0.0
  0
VERTEX
  5
14BF
  8
SAPA_PROFIL
 10
21.699999996702999
 20
54.044326236891379
 30
0.0
 42
0.26803282829961
  0
VERTEX
  5
14C0
  8
SAPA_PROFIL
 10
21.950135163743081
 20
53.611235524401422
 30
0.0
  0
VERTEX
  5
14C1
  8
SAPA_PROFIL
 10
23.69999999677508
 20
52.6016787004246
 30
0.0
 42
-0.267949192430527
  0
VERTEX
  5
14C2
  8
SAPA_PROFIL
 10
24.19999999677303
 20
51.735653296641317
 30
0.0
  0
VERTEX
  5
14C3
  8
SAPA_PROFIL
 10
24.199999996775759
 20
50.350012650581327
 30
0.0
 42
-0.5773502691868419
  0
VERTEX
  5
14C4
  8
SAPA_PROFIL
 10
23.899999996773079
 20
50.176807569821342
 30
0.0
  0
VERTEX
  5
14C5
  8
SAPA_PROFIL
 10
22.29999999677295
 20
51.100568000531332
 30
0.0
  0
VERTEX
  5
14C6
  8
SAPA_PROFIL
 10
21.999999996772988
 20
51.100568000531332
 30
0.0
 42
0.4142135623730951
  0
VERTEX
  5
14C7
  8
SAPA_PROFIL
 10
21.69999999677303
 20
50.800568000531371
 30
0.0
  0
VERTEX
  5
14C8
  8
SAPA_PROFIL
 10
21.699999996773261
 20
46.947781596031398
 30
0.0
 42
-0.2134217652834343
  0
VERTEX
  5
14C9
  8
SAPA_PROFIL
 10
21.599999996773121
 20
46.72417479828129
 30
0.0
 42
0.7625858545243255
  0
VERTEX
  5
14CA
  8
SAPA_PROFIL
 10
21.784579198970611
 20
46.393848717264291
 30
0.0
  0
VERTEX
  5
14CB
  8
SAPA_PROFIL
 10
21.975962198964329
 20
46.451922354253377
 30
0.0
  0
VERTEX
  5
14CC
  8
SAPA_PROFIL
 10
23.86180589082544
 20
47.536486801225116
 30
0.0
  0
VERTEX
  5
14CD
  8
SAPA_PROFIL
 10
23.851244524598361
 20
47.858244529443368
 30
0.0
 42
-0.5773502691897534
  0
VERTEX
  5
14CE
  8
SAPA_PROFIL
 10
24.145400824853301
 20
48.04119826955354
 30
0.0
  0
VERTEX
  5
14CF
  8
SAPA_PROFIL
 10
24.430083108084929
 20
47.889064358444777
 30
0.0
 42
-0.2216946626430088
  0
VERTEX
  5
14D0
  8
SAPA_PROFIL
 10
24.835892013239729
 20
47.348184526967991
 30
0.0
  0
VERTEX
  5
14D1
  8
SAPA_PROFIL
 10
25.217338609367449
 20
45.534954056309743
 30
0.0
 42
-0.476975532698165
  0
VERTEX
  5
14D2
  8
SAPA_PROFIL
 10
24.915085784860981
 20
45.163297181363873
 30
0.0
  0
VERTEX
  5
14D3
  8
SAPA_PROFIL
 10
23.41198470409898
 20
45.163380789247533
 30
0.0
  0
VERTEX
  5
14D4
  8
SAPA_PROFIL
 10
23.397466294851871
 20
45.211226539246013
 30
0.0
 42
0.4142135623731108
  0
VERTEX
  5
14D5
  8
SAPA_PROFIL
 10
23.023281339376059
 20
45.41119058375341
 30
0.0
  0
VERTEX
  5
14D6
  8
SAPA_PROFIL
 10
21.700694812120659
 20
44.899999999971442
 30
0.0
  0
VERTEX
  5
14D7
  8
SAPA_PROFIL
 10
18.687515663167112
 20
44.899999999971897
 30
0.0
 42
-0.2596812337296443
  0
VERTEX
  5
14D8
  8
SAPA_PROFIL
 10
18.517484851628058
 20
44.994693195220407
 30
0.0
  0
VERTEX
  5
14D9
  8
SAPA_PROFIL
 10
17.744953782560959
 20
46.242039792845958
 30
0.0
 42
-0.5877032589250569
  0
VERTEX
  5
14DA
  8
SAPA_PROFIL
 10
17.999999999870042
 20
46.69999999997242
 30
0.0
  0
VERTEX
  5
14DB
  8
SAPA_PROFIL
 10
19.399999999869571
 20
46.69999999997048
 30
0.0
 42
0.414213562373428
  0
VERTEX
  5
14DC
  8
SAPA_PROFIL
 10
19.699999999870091
 20
46.999999999970321
 30
0.0
  0
VERTEX
  5
14DD
  8
SAPA_PROFIL
 10
19.699999999873949
 20
49.399999999970881
 30
0.0
 42
0.4142135623732061
  0
VERTEX
  5
14DE
  8
SAPA_PROFIL
 10
19.399999999874449
 20
49.699999999971389
 30
0.0
  0
VERTEX
  5
14DF
  8
SAPA_PROFIL
 10
1.99999999987391
 20
49.699999999992308
 30
0.0
 42
0.4142135623722071
  0
VERTEX
  5
14E0
  8
SAPA_PROFIL
 10
1.6999999998739559
 20
49.399999999995323
 30
0.0
  0
VERTEX
  5
14E1
  8
SAPA_PROFIL
 10
1.6999999999400079
 20
46.999999999996469
 30
0.0
 42
0.4142135623730951
  0
VERTEX
  5
14E2
  8
SAPA_PROFIL
 10
1.9999999999420091
 20
46.699999999998333
 30
0.0
  0
VERTEX
  5
14E3
  8
SAPA_PROFIL
 10
3.3999999999419859
 20
46.700000000003342
 30
0.0
 42
-0.5877032589240117
  0
VERTEX
  5
14E4
  8
SAPA_PROFIL
 10
3.6550462172540281
 20
46.242039792877343
 30
0.0
  0
VERTEX
  5
14E5
  8
SAPA_PROFIL
 10
2.7586472400172291
 20
44.794693195249231
 30
0.0
 42
-0.259681233730399
  0
VERTEX
  5
14E6
  8
SAPA_PROFIL
 10
2.5886164284780651
 20
44.700000000001403
 30
0.0
  0
VERTEX
  5
14E7
  8
SAPA_PROFIL
 10
2.1999999999373929
 20
44.699999999999299
 30
0.0
 42
0.4142135623715633
  0
VERTEX
  5
14E8
  8
SAPA_PROFIL
 10
1.6999999999400079
 20
44.199999999999299
 30
0.0
  0
VERTEX
  5
14E9
  8
SAPA_PROFIL
 10
1.6999999999399511
 20
19.400000000381961
 30
0.0
 42
0.4142135623739942
  0
VERTEX
  5
14EA
  8
SAPA_PROFIL
 10
2.1999999999414861
 20
18.900000000381961
 30
0.0
  0
VERTEX
  5
14EB
  8
SAPA_PROFIL
 10
4.0005704442399859
 20
18.900000000387418
 30
0.0
 42
-0.4241420668422755
  0
VERTEX
  5
14EC
  8
SAPA_PROFIL
 10
4.9999999996514246
 20
17.866227766509379
 30
0.0
 42
-0.2988658713647619
  0
VERTEX
  5
14ED
  8
SAPA_PROFIL
 10
4.4291418728836218
 20
16.928947629550059
 30
0.0
 42
-0.5507604245873982
  0
VERTEX
  5
14EE
  8
SAPA_PROFIL
 10
4.0005704442889849
 20
17.200000000395331
 30
0.0
  0
VERTEX
  5
14EF
  8
SAPA_PROFIL
 10
4.0005704442700001
 20
17.500000000387441
 30
0.0
 42
0.4142135623702647
  0
VERTEX
  5
14F0
  8
SAPA_PROFIL
 10
3.8005704442579029
 20
17.700000000375319
 30
0.0
  0
VERTEX
  5
14F1
  8
SAPA_PROFIL
 10
3.5005704441410792
 20
17.70000000035725
 30
0.0
 42
0.4142135623563536
  0
VERTEX
  5
14F2
  8
SAPA_PROFIL
 10
1.7005704442469669
 20
15.900000000354339
 30
0.0
  0
VERTEX
  5
14F3
  8
SAPA_PROFIL
 10
1.7005704442488989
 20
15.20000000013829
 30
0.0
 42
0.4142135623558171
  0
VERTEX
  5
14F4
  8
SAPA_PROFIL
 10
3.500570444146081
 20
13.400000000140381
 30
0.0
  0
VERTEX
  5
14F5
  8
SAPA_PROFIL
 10
3.800570444264042
 20
13.400000000124351
 30
0.0
 42
0.4142135623717631
  0
VERTEX
  5
14F6
  8
SAPA_PROFIL
 10
4.0005704442760246
 20
13.60000000011132
 30
0.0
  0
VERTEX
  5
14F7
  8
SAPA_PROFIL
 10
4.0005704442937597
 20
13.900000000101381
 30
0.0
 42
-0.5507604245839719
  0
VERTEX
  5
14F8
  8
SAPA_PROFIL
 10
4.4291418728800984
 20
14.17105237094847
 30
0.0
 42
-0.2988658713671755
  0
VERTEX
  5
14F9
  8
SAPA_PROFIL
 10
4.9999999996579048
 20
13.233772233990409
 30
0.0
 42
-0.4241420668413794
  0
VERTEX
  5
14FA
  8
SAPA_PROFIL
 10
4.000570444248968
 20
12.20000000011134
 30
0.0
  0
VERTEX
  5
14FB
  8
SAPA_PROFIL
 10
1.8999999999949071
 20
12.200000000112141
 30
0.0
 42
0.414213562373195
  0
VERTEX
  5
14FC
  8
SAPA_PROFIL
 10
1.399999999994737
 20
11.700000000112141
 30
0.0
  0
VERTEX
  5
14FD
  8
SAPA_PROFIL
 10
1.3999999999949639
 20
1.182842712469607
 30
0.0
 42
-0.198912367379658
  0
VERTEX
  5
14FE
  8
SAPA_PROFIL
 10
1.253553390588241
 20
0.829289321876331
 30
0.0
  0
VERTEX
  5
14FF
  8
SAPA_PROFIL
 10
0.2121320343560349
 20
-0.2121320343560455
 30
0.0
 42
-0.6681786379192989
  0
VERTEX
  5
1500
  8
SAPA_PROFIL
 10
-0.3000000000000789
 20
0.0
 30
0.0
  0
VERTEX
  5
1501
  8
SAPA_PROFIL
 10
-0.3000000000789775
 20
96.199999999964348
 30
0.0
 42
-0.4142135623567124
  0
VERTEX
  5
1502
  8
SAPA_PROFIL
 10
0.1999999998930555
 20
96.699999999964334
 30
0.0
  0
VERTEX
  5
1503
  8
SAPA_PROFIL
 10
3.8999999999050381
 20
96.700000000171386
 30
0.0
 42
-0.414213562390632
  0
VERTEX
  5
1504
  8
SAPA_PROFIL
 10
4.1999999999210216
 20
96.40000000017028
 30
0.0
  0
VERTEX
  5
1505
  8
SAPA_PROFIL
 10
4.1999999999201121
 20
95.632455532143354
 30
0.0
 42
-0.2896898632850871
  0
VERTEX
  5
1506
  8
SAPA_PROFIL
 10
3.6285714285489692
 20
94.728947629266372
 30
0.0
 42
-0.5507604245891342
  0
VERTEX
  5
1507
  8
SAPA_PROFIL
 10
3.1999999999610398
 20
95.000000000113346
 30
0.0
  0
VERTEX
  5
1508
  8
SAPA_PROFIL
 10
3.199999999948989
 20
95.200000000135333
 30
0.0
 42
0.4142135623672125
  0
VERTEX
  5
1509
  8
SAPA_PROFIL
 10
2.8999999999380068
 20
95.500000000118476
 30
0.0
  0
VERTEX
  5
150A
  8
SAPA_PROFIL
 10
1.3999999987580509
 20
95.500000000061391
 30
0.0
 42
0.4142135623613076
  0
VERTEX
  5
150B
  8
SAPA_PROFIL
 10
0.8999999987670329
 20
95.000000000052424
 30
0.0
  0
VERTEX
  5
150C
  8
SAPA_PROFIL
 10
0.8999999987620306
 20
91.700000000061308
 30
0.0
 42
0.414213562384816
  0
VERTEX
  5
150D
  8
SAPA_PROFIL
 10
1.3999999987810161
 20
91.200000000060413
 30
0.0
  0
VERTEX
  5
150E
  8
SAPA_PROFIL
 10
2.9000000001709512
 20
91.200000000118393
 30
0.0
 42
0.4142135623779789
  0
VERTEX
  5
150F
  8
SAPA_PROFIL
 10
3.200000000158969
 20
91.500000000135387
 30
0.0
  0
VERTEX
  5
1510
  8
SAPA_PROFIL
 10
3.2000000001480551
 20
91.700000000112368
 30
0.0
 42
-0.5507604245847541
  0
VERTEX
  5
1511
  8
SAPA_PROFIL
 10
3.6285714287019921
 20
91.971052371010387
 30
0.0
 42
-0.2896898633203854
  0
VERTEX
  5
1512
  8
SAPA_PROFIL
 10
4.2000000001870488
 20
91.067544468075312
 30
0.0
  0
VERTEX
  5
1513
  8
SAPA_PROFIL
 10
4.2000000001870488
 20
90.070072656011348
 30
0.0
 42
-0.0436609429083866
  0
VERTEX
  5
1514
  8
SAPA_PROFIL
 10
4.192403876692981
 20
89.983248567178407
 30
0.0
  0
VERTEX
  5
1515
  8
SAPA_PROFIL
 10
3.915557705768026
 20
88.413175911194344
 30
0.0
 42
-0.8390996311771717
  0
VERTEX
  5
1516
  8
SAPA_PROFIL
 10
2.9307499527560479
 20
88.413175911195367
 30
0.0
  0
VERTEX
  5
1517
  8
SAPA_PROFIL
 10
2.723804113175095
 20
89.586824088862386
 30
0.0
 42
0.3639702342665017
  0
VERTEX
  5
1518
  8
SAPA_PROFIL
 10
2.2314002366700718
 20
90.000000000030013
 30
0.0
  0
VERTEX
  5
1519
  8
SAPA_PROFIL
 10
1.3999999987600971
 20
90.000000000031378
 30
0.0
 42
0.4373282586277949
  0
VERTEX
  5
151A
  8
SAPA_PROFIL
 10
0.9015307184550813
 20
89.460905542709384
 30
0.0
  0
VERTEX
  5
151B
  8
SAPA_PROFIL
 10
1.4883294814579699
 20
74.987846721318419
 30
0.0
 42
0.4023941304319243
  0
VERTEX
  5
151C
  8
SAPA_PROFIL
 10
1.7880832100710109
 20
74.699999999993338
 30
0.0
  0
VERTEX
  5
151D
  8
SAPA_PROFIL
 10
2.5886164284360009
 20
74.699999999993338
 30
0.0
 42
-0.2596812337287306
  0
VERTEX
  5
151E
  8
SAPA_PROFIL
 10
2.758647239976074
 20
74.605306804745396
 30
0.0
  0
VERTEX
  5
151F
  8
SAPA_PROFIL
 10
3.6550462172160572
 20
73.157960207119345
 30
0.0
 42
-0.5877032589232099
  0
VERTEX
  5
1520
  8
SAPA_PROFIL
 10
3.3999999999060608
 20
72.699999999993452
 30
0.0
  0
VERTEX
  5
1521
  8
SAPA_PROFIL
 10
1.9999999999059701
 20
72.699999999994361
 30
0.0
 42
0.414213562372984
  0
VERTEX
  5
1522
  8
SAPA_PROFIL
 10
1.6999999999051061
 20
72.39999999999543
 30
0.0
  0
VERTEX
  5
1523
  8
SAPA_PROFIL
 10
1.6999999999020361
 20
69.999999999994316
 30
0.0
 42
0.4142135623720961
  0
VERTEX
  5
1524
  8
SAPA_PROFIL
 10
1.9999999999021041
 20
69.699999999995271
 30
0.0
  0
VERTEX
  5
1525
  8
SAPA_PROFIL
 10
11.599999999901099
 20
69.699999999981401
 30
0.0
 42
0.414213562373983
  0
VERTEX
  5
1526
  8
SAPA_PROFIL
 10
11.89999999990197
 20
69.999999999981355
 30
0.0
  0
VERTEX
  5
1527
  8
SAPA_PROFIL
 10
11.899999999908109
 20
74.399999999980423
 30
0.0
 42
-0.4142135623732059
  0
VERTEX
  5
1528
  8
SAPA_PROFIL
 10
12.19999999990806
 20
74.699999999981401
 30
0.0
  0
VERTEX
  5
1529
  8
SAPA_PROFIL
 10
13.68408806526109
 20
74.699999999978331
 30
0.0
 42
-0.2596812337310292
  0
VERTEX
  5
152A
  8
SAPA_PROFIL
 10
13.85411887680106
 20
74.605306804729366
 30
0.0
  0
VERTEX
  5
152B
  8
SAPA_PROFIL
 10
14.255046221352011
 20
73.957960207105316
 30
0.0
 42
-0.587703258924552
  0
VERTEX
  5
152C
  8
SAPA_PROFIL
 10
14.000000004042009
 20
73.499999999978456
 30
0.0
  0
VERTEX
  5
152D
  8
SAPA_PROFIL
 10
13.5999999999061
 20
73.4999999999784
 30
0.0
 42
0.4142135623722071
  0
VERTEX
  5
152E
  8
SAPA_PROFIL
 10
13.29999999990592
 20
73.199999999979354
 30
0.0
  0
VERTEX
  5
152F
  8
SAPA_PROFIL
 10
13.299999999902059
 20
69.999999999979423
 30
0.0
 42
0.4142135623733725
  0
VERTEX
  5
1530
  8
SAPA_PROFIL
 10
13.599999999900991
 20
69.699999999978502
 30
0.0
  0
VERTEX
  5
1531
  8
SAPA_PROFIL
 10
19.399999999900601
 20
69.699999999970373
 30
0.0
 42
0.4142135623730948
  0
VERTEX
  5
1532
  8
SAPA_PROFIL
 10
19.69999999990101
 20
69.999999999969873
 30
0.0
  0
VERTEX
  5
1533
  8
SAPA_PROFIL
 10
19.699999999905099
 20
72.399999999970419
 30
0.0
 42
0.4142135623726511
  0
VERTEX
  5
1534
  8
SAPA_PROFIL
 10
19.39999999990561
 20
72.699999999970373
 30
0.0
  0
VERTEX
  5
1535
  8
SAPA_PROFIL
 10
17.99999999990597
 20
72.69999999997242
 30
0.0
 42
-0.5877032589253235
  0
VERTEX
  5
1536
  8
SAPA_PROFIL
 10
17.744953782596092
 20
73.157960207100359
 30
0.0
  0
VERTEX
  5
1537
  8
SAPA_PROFIL
 10
18.517484851667049
 20
74.405306804723409
 30
0.0
 42
-0.2596812337293086
  0
VERTEX
  5
1538
  8
SAPA_PROFIL
 10
18.687515663207009
 20
74.499999999972431
 30
0.0
  0
VERTEX
  5
1539
  8
SAPA_PROFIL
 10
21.705983663054649
 20
74.499999999956742
 30
0.0
  0
VERTEX
  5
153A
  8
SAPA_PROFIL
 10
23.0232813393058
 20
73.990853600639625
 30
0.0
 42
0.4142135623730953
  0
VERTEX
  5
153B
  8
SAPA_PROFIL
 10
23.397466294781609
 20
74.190817645147035
 30
0.0
  0
VERTEX
  5
153C
  8
SAPA_PROFIL
 10
23.411984704028718
 20
74.238663395145522
 30
0.0
  0
VERTEX
  5
153D
  8
SAPA_PROFIL
 10
24.915085784790719
 20
74.238747003029118
 30
0.0
 42
-0.4769755326981653
  0
VERTEX
  5
153E
  8
SAPA_PROFIL
 10
25.21733860929719
 20
73.867090128083305
 30
0.0
  0
VERTEX
  5
153F
  8
SAPA_PROFIL
 10
24.83589201316947
 20
72.053859657425051
 30
0.0
 42
-0.2216946626430223
  0
VERTEX
  5
1540
  8
SAPA_PROFIL
 10
24.430083108014671
 20
71.512979825948264
 30
0.0
  0
SEQEND
  5
1541
  8
SAPA_PROFIL
  0
POLYLINE
  5
F71
  8
SAPA_PROFIL
 66
     1
 10
0.0
 20
0.0
 30
0.0
 70
     1
  0
VERTEX
  5
1542
  8
SAPA_PROFIL
 10
19.999999996684991
 20
51.699999999970373
 30
0.0
  0
VERTEX
  5
1543
  8
SAPA_PROFIL
 10
19.999999996687041
 20
53.299999999969373
 30
0.0
 42
0.4142135623730951
  0
VERTEX
  5
1544
  8
SAPA_PROFIL
 10
19.799999996686989
 20
53.499999999970328
 30
0.0
  0
VERTEX
  5
1545
  8
SAPA_PROFIL
 10
19.59999999668695
 20
53.499999999969297
 30
0.0
 42
-0.4142135623715967
  0
VERTEX
  5
1546
  8
SAPA_PROFIL
 10
19.399999996687018
 20
53.69999999997038
 30
0.0
  0
VERTEX
  5
1547
  8
SAPA_PROFIL
 10
19.399999996690092
 20
55.299999999970389
 30
0.0
 42
-0.4142135623730951
  0
VERTEX
  5
1548
  8
SAPA_PROFIL
 10
19.59999999669002
 20
55.499999999970328
 30
0.0
  0
VERTEX
  5
1549
  8
SAPA_PROFIL
 10
19.799999996689952
 20
55.499999999970328
 30
0.0
 42
0.4142135623730951
  0
VERTEX
  5
154A
  8
SAPA_PROFIL
 10
19.999999996690001
 20
55.699999999970373
 30
0.0
  0
VERTEX
  5
154B
  8
SAPA_PROFIL
 10
19.999999996700911
 20
63.69999999997038
 30
0.0
 42
0.4142135623730951
  0
VERTEX
  5
154C
  8
SAPA_PROFIL
 10
19.799999996701089
 20
63.899999999969388
 30
0.0
  0
VERTEX
  5
154D
  8
SAPA_PROFIL
 10
19.59999999670104
 20
63.899999999971328
 30
0.0
 42
-0.4142135623730951
  0
VERTEX
  5
154E
  8
SAPA_PROFIL
 10
19.399999996702022
 20
64.09999999997035
 30
0.0
  0
VERTEX
  5
154F
  8
SAPA_PROFIL
 10
19.399999996703961
 20
65.699999999970373
 30
0.0
 42
-0.4142135623730951
  0
VERTEX
  5
1550
  8
SAPA_PROFIL
 10
19.599999996704
 20
65.899999999970419
 30
0.0
  0
VERTEX
  5
1551
  8
SAPA_PROFIL
 10
19.799999996704049
 20
65.899999999969282
 30
0.0
 42
0.4142135623730951
  0
VERTEX
  5
1552
  8
SAPA_PROFIL
 10
19.999999996704091
 20
66.099999999969327
 30
0.0
  0
VERTEX
  5
1553
  8
SAPA_PROFIL
 10
19.99999999670705
 20
67.699999999970373
 30
0.0
 42
0.4142135623730951
  0
VERTEX
  5
1554
  8
SAPA_PROFIL
 10
19.699999996707088
 20
67.999999999970328
 30
0.0
  0
VERTEX
  5
1555
  8
SAPA_PROFIL
 10
1.6999999967070949
 20
67.999999999994316
 30
0.0
 42
0.4142135624873408
  0
VERTEX
  5
1556
  8
SAPA_PROFIL
 10
1.399999996707141
 20
67.699999999877377
 30
0.0
  0
VERTEX
  5
1557
  8
SAPA_PROFIL
 10
1.399999997331054
 20
66.099999999916349
 30
0.0
 42
0.4142135622558857
  0
VERTEX
  5
1558
  8
SAPA_PROFIL
 10
1.599999997329963
 20
65.899999999995316
 30
0.0
  0
VERTEX
  5
1559
  8
SAPA_PROFIL
 10
1.799999997492012
 20
65.899999999994407
 30
0.0
 42
-0.414213562251557
  0
VERTEX
  5
155A
  8
SAPA_PROFIL
 10
1.9999999974910341
 20
65.700000000077353
 30
0.0
  0
VERTEX
  5
155B
  8
SAPA_PROFIL
 10
1.9999999981530321
 20
64.10000000007733
 30
0.0
 42
-0.4142135624946331
  0
VERTEX
  5
155C
  8
SAPA_PROFIL
 10
1.7999999981519641
 20
63.899999999994293
 30
0.0
  0
VERTEX
  5
155D
  8
SAPA_PROFIL
 10
1.5999999965770151
 20
63.899999999995309
 30
0.0
 42
0.4142135623730951
  0
VERTEX
  5
155E
  8
SAPA_PROFIL
 10
1.3999999965770831
 20
63.699999999995391
 30
0.0
  0
VERTEX
  5
155F
  8
SAPA_PROFIL
 10
1.399999996566055
 20
55.699999999995377
 30
0.0
 42
0.41421356237163
  0
VERTEX
  5
1560
  8
SAPA_PROFIL
 10
1.5999999965650771
 20
55.499999999995453
 30
0.0
  0
VERTEX
  5
1561
  8
SAPA_PROFIL
 10
1.7999999981410499
 20
55.499999999994323
 30
0.0
 42
-0.4142135624946331
  0
VERTEX
  5
1562
  8
SAPA_PROFIL
 10
1.999999998141095
 20
55.299999999911392
 30
0.0
  0
VERTEX
  5
1563
  8
SAPA_PROFIL
 10
1.9999999974751179
 20
53.699999999911363
 30
0.0
 42
-0.4142135622515237
  0
VERTEX
  5
1564
  8
SAPA_PROFIL
 10
1.799999997475072
 20
53.499999999994323
 30
0.0
  0
VERTEX
  5
1565
  8
SAPA_PROFIL
 10
1.599999997314046
 20
53.499999999994323
 30
0.0
 42
0.4142135622574175
  0
VERTEX
  5
1566
  8
SAPA_PROFIL
 10
1.3999999973140009
 20
53.300000000073389
 30
0.0
  0
VERTEX
  5
1567
  8
SAPA_PROFIL
 10
1.3999999966850849
 20
51.700000000112368
 30
0.0
 42
0.4142135624873075
  0
VERTEX
  5
1568
  8
SAPA_PROFIL
 10
1.6999999966840169
 20
51.399999999996453
 30
0.0
  0
VERTEX
  5
1569
  8
SAPA_PROFIL
 10
19.699999996684021
 20
51.399999999970419
 30
0.0
 42
0.414213562374094
  0
SEQEND
  5
156A
  8
SAPA_PROFIL
  0
POLYLINE
  5
F72
  8
SAPA_PROFIL
 66
     1
 10
0.0
 20
0.0
 30
0.0
 70
     1
  0
VERTEX
  5
156B
  8
SAPA_PROFIL
 10
63.699999996637047
 20
65.355513627245386
 30
0.0
 42
0.267949192431007
  0
VERTEX
  5
156C
  8
SAPA_PROFIL
 10
63.449999996637061
 20
65.788526329137426
 30
0.0
  0
VERTEX
  5
156D
  8
SAPA_PROFIL
 10
61.699999996636599
 20
66.798889300219443
 30
0.0
 42
-0.2679491924311281
  0
VERTEX
  5
156E
  8
SAPA_PROFIL
 10
61.199999996636599
 20
67.664914704003991
 30
0.0
  0
VERTEX
  5
156F
  8
SAPA_PROFIL
 10
61.199999996636834
 20
69.050555350058971
 30
0.0
 42
-0.57735026918954
  0
VERTEX
  5
1570
  8
SAPA_PROFIL
 10
61.499999996636781
 20
69.223760430815787
 30
0.0
  0
VERTEX
  5
1571
  8
SAPA_PROFIL
 10
63.099999996636463
 20
68.300000000112618
 30
0.0
  0
VERTEX
  5
1572
  8
SAPA_PROFIL
 10
63.399999996636637
 20
68.300000000112618
 30
0.0
 42
0.41421356237306
  0
VERTEX
  5
1573
  8
SAPA_PROFIL
 10
63.699999996636834
 20
68.6000000001128
 30
0.0
  0
VERTEX
  5
1574
  8
SAPA_PROFIL
 10
63.699999996636834
 20
72.452786404612311
 30
0.0
 42
-0.2036002236709541
  0
VERTEX
  5
1575
  8
SAPA_PROFIL
 10
63.791725129600628
 20
72.668706713432684
 30
0.0
 42
0.8292414158604859
  0
VERTEX
  5
1576
  8
SAPA_PROFIL
 10
63.595591841069201
 20
73.000702346452385
 30
0.0
  0
VERTEX
  5
1577
  8
SAPA_PROFIL
 10
63.424037794445312
 20
72.948645646390673
 30
0.0
  0
VERTEX
  5
1578
  8
SAPA_PROFIL
 10
61.538194102584477
 20
71.86408119941882
 30
0.0
  0
VERTEX
  5
1579
  8
SAPA_PROFIL
 10
61.548755468811223
 20
71.542323471200802
 30
0.0
 42
-0.5773502691894565
  0
VERTEX
  5
157A
  8
SAPA_PROFIL
 10
61.254599168556609
 20
71.359369731090396
 30
0.0
  0
VERTEX
  5
157B
  8
SAPA_PROFIL
 10
60.969916885325432
 20
71.511503642198591
 30
0.0
 42
-0.2216946626431577
  0
VERTEX
  5
157C
  8
SAPA_PROFIL
 10
60.564107980170192
 20
72.052383473676059
 30
0.0
  0
VERTEX
  5
157D
  8
SAPA_PROFIL
 10
60.182661384042461
 20
73.865613944333845
 30
0.0
 42
-0.4757248385987928
  0
VERTEX
  5
157E
  8
SAPA_PROFIL
 10
60.483657474500298
 20
74.23727088918406
 30
0.0
  0
VERTEX
  5
157F
  8
SAPA_PROFIL
 10
61.988015289310937
 20
74.237187211396417
 30
0.0
  0
VERTEX
  5
1580
  8
SAPA_PROFIL
 10
62.002533698558267
 20
74.18934146139793
 30
0.0
 42
0.4580511809928869
  0
VERTEX
  5
1581
  8
SAPA_PROFIL
 10
62.417914081107348
 20
74.005273745745043
 30
0.0
  0
VERTEX
  5
1582
  8
SAPA_PROFIL
 10
63.699999996636599
 20
74.500000000112436
 30
0.0
  0
VERTEX
  5
1583
  8
SAPA_PROFIL
 10
66.712484330144974
 20
74.500000000112436
 30
0.0
 42
-0.2596812337301257
  0
VERTEX
  5
1584
  8
SAPA_PROFIL
 10
66.882515141685047
 20
74.405306804864381
 30
0.0
  0
VERTEX
  5
1585
  8
SAPA_PROFIL
 10
67.655046210754662
 20
73.157960207240308
 30
0.0
 42
-0.5877032589249617
  0
VERTEX
  5
1586
  8
SAPA_PROFIL
 10
67.399999993444538
 20
72.700000000112709
 30
0.0
  0
VERTEX
  5
1587
  8
SAPA_PROFIL
 10
65.965821207054063
 20
72.700000000112709
 30
0.0
 42
0.4683749459842228
  0
VERTEX
  5
1588
  8
SAPA_PROFIL
 10
65.699999993444493
 20
72.400000000112527
 30
0.0
  0
VERTEX
  5
1589
  8
SAPA_PROFIL
 10
65.69999999344472
 20
70.000000000112891
 30
0.0
 42
0.4683749459847173
  0
VERTEX
  5
158A
  8
SAPA_PROFIL
 10
65.96582120705429
 20
69.700000000112709
 30
0.0
  0
VERTEX
  5
158B
  8
SAPA_PROFIL
 10
71.799999993444629
 20
69.700000000112695
 30
0.0
  0
VERTEX
  5
158C
  8
SAPA_PROFIL
 10
73.799999993444615
 20
69.700000000112695
 30
0.0
  0
VERTEX
  5
158D
  8
SAPA_PROFIL
 10
83.399999993444538
 20
69.700000000112681
 30
0.0
 42
0.4142135623730951
  0
VERTEX
  5
158E
  8
SAPA_PROFIL
 10
83.699999993444479
 20
70.000000000112394
 30
0.0
  0
VERTEX
  5
158F
  8
SAPA_PROFIL
 10
83.699999993444479
 20
72.400000000112485
 30
0.0
 42
0.4142135623730951
  0
VERTEX
  5
1590
  8
SAPA_PROFIL
 10
83.399999993444538
 20
72.700000000112681
 30
0.0
  0
VERTEX
  5
1591
  8
SAPA_PROFIL
 10
81.999999993444447
 20
72.700000000112681
 30
0.0
 42
-0.5877032589248625
  0
VERTEX
  5
1592
  8
SAPA_PROFIL
 10
81.744953776134565
 20
73.157960207240279
 30
0.0
  0
VERTEX
  5
1593
  8
SAPA_PROFIL
 10
82.641352753376694
 20
74.605306804864171
 30
0.0
 42
-0.2596812337300832
  0
VERTEX
  5
1594
  8
SAPA_PROFIL
 10
82.811383564916795
 20
74.700000000112681
 30
0.0
  0
VERTEX
  5
1595
  8
SAPA_PROFIL
 10
85.499999996594255
 20
74.700000000112681
 30
0.0
 42
-0.4142135623731107
  0
VERTEX
  5
1596
  8
SAPA_PROFIL
 10
85.6999999965943
 20
74.500000000112394
 30
0.0
  0
VERTEX
  5
1597
  8
SAPA_PROFIL
 10
85.699999996594286
 20
44.900000000112513
 30
0.0
 42
-0.4142135623730273
  0
VERTEX
  5
1598
  8
SAPA_PROFIL
 10
85.499999996594255
 20
44.700000000112688
 30
0.0
  0
VERTEX
  5
1599
  8
SAPA_PROFIL
 10
82.81138356491654
 20
44.700000000112688
 30
0.0
 42
-0.2596812337302099
  0
VERTEX
  5
159A
  8
SAPA_PROFIL
 10
82.641352753376466
 20
44.794693195360743
 30
0.0
  0
VERTEX
  5
159B
  8
SAPA_PROFIL
 10
81.744953776134324
 20
46.242039792984642
 30
0.0
 42
-0.5877032589250762
  0
VERTEX
  5
159C
  8
SAPA_PROFIL
 10
81.999999993444433
 20
46.700000000112702
 30
0.0
  0
VERTEX
  5
159D
  8
SAPA_PROFIL
 10
83.399999993444524
 20
46.700000000112702
 30
0.0
 42
0.4142135623730951
  0
VERTEX
  5
159E
  8
SAPA_PROFIL
 10
83.699999993444479
 20
47.000000000112422
 30
0.0
  0
VERTEX
  5
159F
  8
SAPA_PROFIL
 10
83.699999993444479
 20
49.400000000112513
 30
0.0
 42
0.4142135623730951
  0
VERTEX
  5
15A0
  8
SAPA_PROFIL
 10
83.399999993444524
 20
49.700000000112688
 30
0.0
  0
VERTEX
  5
15A1
  8
SAPA_PROFIL
 10
73.799999993444402
 20
49.700000000112688
 30
0.0
  0
VERTEX
  5
15A2
  8
SAPA_PROFIL
 10
71.799999993444402
 20
49.700000000112688
 30
0.0
  0
VERTEX
  5
15A3
  8
SAPA_PROFIL
 10
65.965821207054745
 20
49.700000000112688
 30
0.0
 42
0.4683749459843959
  0
VERTEX
  5
15A4
  8
SAPA_PROFIL
 10
65.699999993444493
 20
49.400000000112968
 30
0.0
  0
VERTEX
  5
15A5
  8
SAPA_PROFIL
 10
65.699999993444493
 20
47.000000000112422
 30
0.0
 42
0.4683749459842226
  0
VERTEX
  5
15A6
  8
SAPA_PROFIL
 10
65.965821207054063
 20
46.700000000112702
 30
0.0
  0
VERTEX
  5
15A7
  8
SAPA_PROFIL
 10
67.399999993444311
 20
46.700000000112702
 30
0.0
 42
-0.5877032589249771
  0
VERTEX
  5
15A8
  8
SAPA_PROFIL
 10
67.655046210754421
 20
46.242039792984642
 30
0.0
  0
VERTEX
  5
15A9
  8
SAPA_PROFIL
 10
66.882515141685047
 20
44.994693195361023
 30
0.0
 42
-0.2596812337301256
  0
VERTEX
  5
15AA
  8
SAPA_PROFIL
 10
66.712484330144974
 20
44.900000000112513
 30
0.0
  0
VERTEX
  5
15AB
  8
SAPA_PROFIL
 10
63.699999996636578
 20
44.900000000112513
 30
0.0
  0
VERTEX
  5
15AC
  8
SAPA_PROFIL
 10
62.417914081107561
 20
45.394726254479892
 30
0.0
 42
0.4580511809929225
  0
VERTEX
  5
15AD
  8
SAPA_PROFIL
 10
62.002533698558722
 20
45.210658538827019
 30
0.0
  0
VERTEX
  5
15AE
  8
SAPA_PROFIL
 10
61.988015289311157
 20
45.162812788828532
 30
0.0
  0
VERTEX
  5
15AF
  8
SAPA_PROFIL
 10
60.483657474495047
 20
45.162729111040903
 30
0.0
 42
-0.4757248385933691
  0
VERTEX
  5
15B0
  8
SAPA_PROFIL
 10
60.182661384042909
 20
45.534386055890643
 30
0.0
  0
VERTEX
  5
15B1
  8
SAPA_PROFIL
 10
60.564107980170398
 20
47.347616526548897
 30
0.0
 42
-0.2350054070140314
  0
VERTEX
  5
15B2
  8
SAPA_PROFIL
 10
61.006088772892852
 20
47.906665443431962
 30
0.0
 42
0.0011882050611145
  0
VERTEX
  5
15B3
  8
SAPA_PROFIL
 10
61.004731095210289
 20
47.907101034972698
 30
0.0
  0
VERTEX
  5
15B4
  8
SAPA_PROFIL
 10
61.25459916855683
 20
48.040630269134567
 30
0.0
 42
-0.5773502691894562
  0
VERTEX
  5
15B5
  8
SAPA_PROFIL
 10
61.548755468811429
 20
47.857676529024609
 30
0.0
  0
VERTEX
  5
15B6
  8
SAPA_PROFIL
 10
61.53819410258469
 20
47.535918800806137
 30
0.0
  0
VERTEX
  5
15B7
  8
SAPA_PROFIL
 10
63.424037794445972
 20
46.451354353834269
 30
0.0
  0
VERTEX
  5
15B8
  8
SAPA_PROFIL
 10
63.595591841069421
 20
46.399297653772557
 30
0.0
 42
0.8292414158590609
  0
VERTEX
  5
15B9
  8
SAPA_PROFIL
 10
63.791725129601289
 20
46.731293286791328
 30
0.0
 42
-0.2036002236714843
  0
VERTEX
  5
15BA
  8
SAPA_PROFIL
 10
63.69999999663704
 20
46.947213595612183
 30
0.0
  0
VERTEX
  5
15BB
  8
SAPA_PROFIL
 10
63.69999999663704
 20
50.800000000112149
 30
0.0
 42
0.4142135623731708
  0
VERTEX
  5
15BC
  8
SAPA_PROFIL
 10
63.399999996636858
 20
51.100000000112331
 30
0.0
  0
VERTEX
  5
15BD
  8
SAPA_PROFIL
 10
63.099999996636683
 20
51.100000000112331
 30
0.0
  0
VERTEX
  5
15BE
  8
SAPA_PROFIL
 10
61.499999996637221
 20
50.176239569408722
 30
0.0
 42
-0.5773502691897499
  0
VERTEX
  5
15BF
  8
SAPA_PROFIL
 10
61.19999999663704
 20
50.349444650165537
 30
0.0
  0
VERTEX
  5
15C0
  8
SAPA_PROFIL
 10
61.199999996636819
 20
51.735085296220973
 30
0.0
 42
-0.2679491924311548
  0
VERTEX
  5
15C1
  8
SAPA_PROFIL
 10
61.699999996636819
 20
52.601110700005513
 30
0.0
  0
VERTEX
  5
15C2
  8
SAPA_PROFIL
 10
63.449999996637047
 20
53.611473671087531
 30
0.0
 42
0.2679491924310984
  0
VERTEX
  5
15C3
  8
SAPA_PROFIL
 10
63.69999999663704
 20
54.044486372980018
 30
0.0
  0
SEQEND
  5
15C4
  8
SAPA_PROFIL
  0
POLYLINE
  5
F73
  8
SAPA_PROFIL
 66
     1
 10
0.0
 20
0.0
 30
0.0
 70
     1
  0
VERTEX
  5
15C5
  8
SAPA_PROFIL
 10
65.700000000036624
 20
67.99999999995083
 30
0.0
 42
0.4142135623730951
  0
VERTEX
  5
15C6
  8
SAPA_PROFIL
 10
65.400000000036613
 20
67.699999999950819
 30
0.0
  0
VERTEX
  5
15C7
  8
SAPA_PROFIL
 10
65.400000000036613
 20
66.199999999950819
 30
0.0
 42
0.414213562372978
  0
VERTEX
  5
15C8
  8
SAPA_PROFIL
 10
65.600000000036488
 20
65.99999999995083
 30
0.0
  0
VERTEX
  5
15C9
  8
SAPA_PROFIL
 10
65.699999999082962
 20
65.99999999995083
 30
0.0
 42
-0.4142135624945221
  0
VERTEX
  5
15CA
  8
SAPA_PROFIL
 10
65.999999999082974
 20
65.699999999826446
 30
0.0
  0
VERTEX
  5
15CB
  8
SAPA_PROFIL
 10
65.999999998502545
 20
64.299999999826412
 30
0.0
 42
-0.4142135622516715
  0
VERTEX
  5
15CC
  8
SAPA_PROFIL
 10
65.699999998502534
 20
63.999999999950823
 30
0.0
  0
VERTEX
  5
15CD
  8
SAPA_PROFIL
 10
65.599999999874598
 20
63.999999999950823
 30
0.0
 42
0.4142135621360125
  0
VERTEX
  5
15CE
  8
SAPA_PROFIL
 10
65.399999999874609
 20
63.800000000112718
 30
0.0
  0
VERTEX
  5
15CF
  8
SAPA_PROFIL
 10
65.399999993399121
 20
55.600000000112672
 30
0.0
 42
0.4142135626101776
  0
VERTEX
  5
15D0
  8
SAPA_PROFIL
 10
65.599999993399109
 20
55.399999999950793
 30
0.0
  0
VERTEX
  5
15D1
  8
SAPA_PROFIL
 10
65.699999994771218
 20
55.399999999950793
 30
0.0
 42
-0.4142135624945291
  0
VERTEX
  5
15D2
  8
SAPA_PROFIL
 10
65.99999999477123
 20
55.099999999826409
 30
0.0
  0
VERTEX
  5
15D3
  8
SAPA_PROFIL
 10
65.999999994190745
 20
53.699999999826431
 30
0.0
 42
-0.4142135622516611
  0
VERTEX
  5
15D4
  8
SAPA_PROFIL
 10
65.699999994190733
 20
53.399999999950793
 30
0.0
  0
VERTEX
  5
15D5
  8
SAPA_PROFIL
 10
65.599999993988121
 20
53.399999999950793
 30
0.0
 42
0.4142135622584299
  0
VERTEX
  5
15D6
  8
SAPA_PROFIL
 10
65.399999993988075
 20
53.200000000029078
 30
0.0
  0
VERTEX
  5
15D7
  8
SAPA_PROFIL
 10
65.399999993364105
 20
51.700000000075583
 30
0.0
 42
0.4142135624949384
  0
VERTEX
  5
15D8
  8
SAPA_PROFIL
 10
65.699999993364116
 20
51.399999999950801
 30
0.0
  0
VERTEX
  5
15D9
  8
SAPA_PROFIL
 10
83.700000003803268
 20
51.399999999950801
 30
0.0
 42
0.4142135623730743
  0
VERTEX
  5
15DA
  8
SAPA_PROFIL
 10
84.000000003803294
 20
51.699999999950741
 30
0.0
  0
VERTEX
  5
15DB
  8
SAPA_PROFIL
 10
84.000000003803407
 20
53.199999999950798
 30
0.0
 42
0.4142135623730951
  0
VERTEX
  5
15DC
  8
SAPA_PROFIL
 10
83.800000003803405
 20
53.399999999950793
 30
0.0
  0
VERTEX
  5
15DD
  8
SAPA_PROFIL
 10
83.700000003803268
 20
53.399999999950793
 30
0.0
 42
-0.4142135623731125
  0
VERTEX
  5
15DE
  8
SAPA_PROFIL
 10
83.400000003803257
 20
53.699999999950798
 30
0.0
  0
VERTEX
  5
15DF
  8
SAPA_PROFIL
 10
83.400000003803257
 20
55.099999999950782
 30
0.0
 42
-0.4142135623730951
  0
VERTEX
  5
15E0
  8
SAPA_PROFIL
 10
83.700000003803268
 20
55.399999999950793
 30
0.0
  0
VERTEX
  5
15E1
  8
SAPA_PROFIL
 10
83.800000003803305
 20
55.399999999950793
 30
0.0
 42
0.4142135623730951
  0
VERTEX
  5
15E2
  8
SAPA_PROFIL
 10
84.000000003803294
 20
55.599999999950782
 30
0.0
  0
VERTEX
  5
15E3
  8
SAPA_PROFIL
 10
84.000000003803294
 20
63.79999999995082
 30
0.0
 42
0.4142135623730951
  0
VERTEX
  5
15E4
  8
SAPA_PROFIL
 10
83.800000003803319
 20
63.999999999950809
 30
0.0
  0
VERTEX
  5
15E5
  8
SAPA_PROFIL
 10
83.700000003803297
 20
63.999999999950809
 30
0.0
 42
-0.4142135623730951
  0
VERTEX
  5
15E6
  8
SAPA_PROFIL
 10
83.400000003803285
 20
64.299999999950757
 30
0.0
  0
VERTEX
  5
15E7
  8
SAPA_PROFIL
 10
83.400000003803285
 20
65.699999999950791
 30
0.0
 42
-0.4142135623730951
  0
VERTEX
  5
15E8
  8
SAPA_PROFIL
 10
83.700000003803297
 20
65.999999999950802
 30
0.0
  0
VERTEX
  5
15E9
  8
SAPA_PROFIL
 10
83.800000003803319
 20
65.999999999950802
 30
0.0
 42
0.4142135623730951
  0
VERTEX
  5
15EA
  8
SAPA_PROFIL
 10
84.000000003803294
 20
66.199999999950791
 30
0.0
  0
VERTEX
  5
15EB
  8
SAPA_PROFIL
 10
84.000000003803436
 20
67.699999999950791
 30
0.0
 42
0.4142135623731159
  0
VERTEX
  5
15EC
  8
SAPA_PROFIL
 10
83.700000003803424
 20
67.999999999950802
 30
0.0
  0
SEQEND
  5
15ED
  8
SAPA_PROFIL
  0
POLYLINE
  5
F74
  8
SAPA_PROFIL
 62
     4
 66
     1
 10
0.0
 20
0.0
 30
0.0
  0
VERTEX
  5
15EE
  8
SAPA_PROFIL
 62
     4
 10
51.749329119175648
 20
47.604095278225522
 30
0.0
 42
0.5571646428658034
  0
VERTEX
  5
15EF
  8
SAPA_PROFIL
 62
     4
 10
51.21236861503882
 20
48.471814192381082
 30
0.0
  0
VERTEX
  5
15F0
  8
SAPA_PROFIL
 62
     4
 10
34.187631378517622
 20
48.47181419238062
 30
0.0
 42
0.5571645048035741
  0
VERTEX
  5
15F1
  8
SAPA_PROFIL
 62
     4
 10
33.650670761556569
 20
47.604095504514447
 30
0.0
  0
VERTEX
  5
15F2
  8
SAPA_PROFIL
 62
     4
 10
34.481377849103261
 20
45.937954848446431
 30
0.0
 42
0.284385813979063
  0
VERTEX
  5
15F3
  8
SAPA_PROFIL
 62
     4
 10
34.74985815758361
 20
45.77181419237899
 30
0.0
  0
VERTEX
  5
15F4
  8
SAPA_PROFIL
 62
     4
 10
50.650141835972917
 20
45.771814192378983
 30
0.0
 42
0.2843858139786238
  0
VERTEX
  5
15F5
  8
SAPA_PROFIL
 62
     4
 10
50.918622144453202
 20
45.937954848445912
 30
0.0
  0
VERTEX
  5
15F6
  8
SAPA_PROFIL
 62
     4
 10
51.74932923200037
 20
47.604095504515257
 30
0.0
  0
SEQEND
  5
15F7
  8
SAPA_PROFIL
 62
     4
  0
POLYLINE
  5
F75
  8
SAPA_PROFIL
 62
     4
 66
     1
 10
0.0
 20
0.0
 30
0.0
 70
     1
  0
VERTEX
  5
15F8
  8
SAPA_PROFIL
 62
     4
 10
28.28238881211098
 20
45.414982677881412
 30
0.0
  0
VERTEX
  5
15F9
  8
SAPA_PROFIL
 62
     4
 10
28.018365533734961
 20
45.008422481877268
 30
0.0
 42
-0.2539676464751066
  0
VERTEX
  5
15FA
  8
SAPA_PROFIL
 62
     4
 10
27.766764363350259
 20
44.871814192381173
 30
0.0
  0
VERTEX
  5
15FB
  8
SAPA_PROFIL
 62
     4
 10
26.385264778144911
 20
44.871814192381173
 30
0.0
 42
-0.3152987888790479
  0
VERTEX
  5
15FC
  8
SAPA_PROFIL
 62
     4
 10
25.915418467752598
 20
45.200804120719333
 30
0.0
  0
VERTEX
  5
15FD
  8
SAPA_PROFIL
 62
     4
 10
25.019749526843992
 20
47.661634311170602
 30
0.0
 42
0.2694959974287434
  0
VERTEX
  5
15FE
  8
SAPA_PROFIL
 62
     4
 10
24.788230480442628
 20
47.854766285514501
 30
0.0
 42
0.0612686379508233
  0
VERTEX
  5
15FF
  8
SAPA_PROFIL
 62
     4
 10
24.49555504758936
 20
47.868349656145007
 30
0.0
  0
VERTEX
  5
1600
  8
SAPA_PROFIL
 62
     4
 10
24.14613687028109
 20
48.070086334873842
 30
0.0
 42
0.5773502691891679
  0
VERTEX
  5
1601
  8
SAPA_PROFIL
 62
     4
 10
23.831136870281512
 20
47.88822100007927
 30
0.0
  0
VERTEX
  5
1602
  8
SAPA_PROFIL
 62
     4
 10
23.831136870281259
 20
47.621106471952949
 30
0.0
  0
VERTEX
  5
1603
  8
SAPA_PROFIL
 62
     4
 10
22.432609169647009
 20
46.812423010644643
 30
0.0
 42
-0.1318219888653519
  0
VERTEX
  5
1604
  8
SAPA_PROFIL
 62
     4
 10
22.282436067174661
 20
46.772130614107247
 30
0.0
  0
VERTEX
  5
1605
  8
SAPA_PROFIL
 62
     4
 10
22.099999996737878
 20
46.772130614113621
 30
0.0
 42
-0.4142135623724291
  0
VERTEX
  5
1606
  8
SAPA_PROFIL
 62
     4
 10
21.69999999673734
 20
47.17213061411325
 30
0.0
  0
VERTEX
  5
1607
  8
SAPA_PROFIL
 62
     4
 10
21.699999996738711
 20
50.572130614114258
 30
0.0
 42
-0.4142135623744271
  0
VERTEX
  5
1608
  8
SAPA_PROFIL
 62
     4
 10
22.099999996737878
 20
50.972130614115258
 30
0.0
  0
VERTEX
  5
1609
  8
SAPA_PROFIL
 62
     4
 10
22.279615239009189
 20
50.972130614115883
 30
0.0
 42
-0.1316524975874005
  0
VERTEX
  5
160A
  8
SAPA_PROFIL
 62
     4
 10
22.429615239006001
 20
50.931938235250293
 30
0.0
  0
VERTEX
  5
160B
  8
SAPA_PROFIL
 62
     4
 10
24.033753136008261
 20
50.005788788597762
 30
0.0
 42
0.1316524975875904
  0
VERTEX
  5
160C
  8
SAPA_PROFIL
 62
     4
 10
24.53375313600997
 20
49.871814192382992
 30
0.0
  0
VERTEX
  5
160D
  8
SAPA_PROFIL
 62
     4
 10
24.94999999673734
 20
49.871814192382992
 30
0.0
 42
0.4142135623730951
  0
VERTEX
  5
160E
  8
SAPA_PROFIL
 62
     4
 10
25.94999999673734
 20
50.871814192382992
 30
0.0
  0
VERTEX
  5
160F
  8
SAPA_PROFIL
 62
     4
 10
25.94999999673734
 20
53.871814192380263
 30
0.0
 42
-0.9999996830128083
  0
VERTEX
  5
1610
  8
SAPA_PROFIL
 62
     4
 10
26.94999999673734
 20
53.871814192382082
 30
0.0
  0
VERTEX
  5
1611
  8
SAPA_PROFIL
 62
     4
 10
26.94999999673734
 20
50.871814192382082
 30
0.0
 42
0.4142135623730951
  0
VERTEX
  5
1612
  8
SAPA_PROFIL
 62
     4
 10
27.94999999673734
 20
49.871814192382082
 30
0.0
  0
VERTEX
  5
1613
  8
SAPA_PROFIL
 62
     4
 10
57.449999996821923
 20
49.871814192382082
 30
0.0
 42
0.4142135623730951
  0
VERTEX
  5
1614
  8
SAPA_PROFIL
 62
     4
 10
58.449999996821923
 20
50.871814192382068
 30
0.0
  0
VERTEX
  5
1615
  8
SAPA_PROFIL
 62
     4
 10
58.449999996821923
 20
53.871814192380249
 30
0.0
 42
-0.9999999999999998
  0
VERTEX
  5
1616
  8
SAPA_PROFIL
 62
     4
 10
59.449999996821923
 20
53.871814192380249
 30
0.0
  0
VERTEX
  5
1617
  8
SAPA_PROFIL
 62
     4
 10
59.449999996821923
 20
50.871814192382068
 30
0.0
 42
0.4142135623736278
  0
VERTEX
  5
1618
  8
SAPA_PROFIL
 62
     4
 10
60.449999996821923
 20
49.871814192382082
 30
0.0
  0
VERTEX
  5
1619
  8
SAPA_PROFIL
 62
     4
 10
60.866246857548383
 20
49.871814192382082
 30
0.0
 42
0.1316524975874375
  0
VERTEX
  5
161A
  8
SAPA_PROFIL
 62
     4
 10
61.366246857548582
 20
50.00578878859811
 30
0.0
  0
VERTEX
  5
161B
  8
SAPA_PROFIL
 62
     4
 10
62.97038475455053
 20
50.931938235250279
 30
0.0
 42
-0.1316524975874
  0
VERTEX
  5
161C
  8
SAPA_PROFIL
 62
     4
 10
63.120384754550081
 20
50.972130614115869
 30
0.0
  0
VERTEX
  5
161D
  8
SAPA_PROFIL
 62
     4
 10
63.29999999682137
 20
50.972130614115237
 30
0.0
 42
-0.4142135623744271
  0
VERTEX
  5
161E
  8
SAPA_PROFIL
 62
     4
 10
63.699999996820559
 20
50.572130614114243
 30
0.0
  0
VERTEX
  5
161F
  8
SAPA_PROFIL
 62
     4
 10
63.699999996821923
 20
47.172130614113243
 30
0.0
 42
-0.4142135623724291
  0
VERTEX
  5
1620
  8
SAPA_PROFIL
 62
     4
 10
63.29999999682137
 20
46.7721306141136
 30
0.0
  0
VERTEX
  5
1621
  8
SAPA_PROFIL
 62
     4
 10
63.117563926384598
 20
46.77213061410724
 30
0.0
 42
-0.1318219888653524
  0
VERTEX
  5
1622
  8
SAPA_PROFIL
 62
     4
 10
62.967390823912247
 20
46.812423010644629
 30
0.0
  0
VERTEX
  5
1623
  8
SAPA_PROFIL
 62
     4
 10
61.5688631234326
 20
47.621106471868963
 30
0.0
  0
VERTEX
  5
1624
  8
SAPA_PROFIL
 62
     4
 10
61.5688631234326
 20
47.888221000081998
 30
0.0
 42
0.577350269189159
  0
VERTEX
  5
1625
  8
SAPA_PROFIL
 62
     4
 10
61.253863123433
 20
48.070086334876571
 30
0.0
  0
VERTEX
  5
1626
  8
SAPA_PROFIL
 62
     4
 10
60.90444494621434
 20
47.868349656199463
 30
0.0
 42
0.0612687673629489
  0
VERTEX
  5
1627
  8
SAPA_PROFIL
 62
     4
 10
60.611769513114133
 20
47.85476628551325
 30
0.0
 42
0.2694959974285039
  0
VERTEX
  5
1628
  8
SAPA_PROFIL
 62
     4
 10
60.380250466713612
 20
47.661634311169308
 30
0.0
  0
VERTEX
  5
1629
  8
SAPA_PROFIL
 62
     4
 10
59.484581525803939
 20
45.200804120716143
 30
0.0
 42
-0.3152987888784035
  0
VERTEX
  5
162A
  8
SAPA_PROFIL
 62
     4
 10
59.01473521541071
 20
44.87181419237956
 30
0.0
  0
VERTEX
  5
162B
  8
SAPA_PROFIL
 62
     4
 10
57.633235630206279
 20
44.871814192381159
 30
0.0
 42
-0.2539676464741841
  0
VERTEX
  5
162C
  8
SAPA_PROFIL
 62
     4
 10
57.381634459822202
 20
45.008422481876437
 30
0.0
  0
VERTEX
  5
162D
  8
SAPA_PROFIL
 62
     4
 10
57.117611181445561
 20
45.414982677881412
 30
0.0
 42
-0.5862177598324623
  0
VERTEX
  5
162E
  8
SAPA_PROFIL
 62
     4
 10
57.373352996683913
 20
45.871814192377919
 30
0.0
  0
VERTEX
  5
162F
  8
SAPA_PROFIL
 62
     4
 10
58.314527677193723
 20
45.871814192370252
 30
0.0
 42
0.3152987888813165
  0
VERTEX
  5
1630
  8
SAPA_PROFIL
 62
     4
 10
58.784373987591472
 20
46.200804120706998
 30
0.0
  0
VERTEX
  5
1631
  8
SAPA_PROFIL
 62
     4
 10
59.221138268715428
 20
47.400804120718227
 30
0.0
 42
0.5205670505515651
  0
VERTEX
  5
1632
  8
SAPA_PROFIL
 62
     4
 10
58.751291958322199
 20
48.071814192380977
 30
0.0
  0
VERTEX
  5
1633
  8
SAPA_PROFIL
 62
     4
 10
53.734851017653362
 20
48.071814192381012
 30
0.0
 42
0.3702522326300203
  0
VERTEX
  5
1634
  8
SAPA_PROFIL
 62
     4
 10
53.438327655860022
 20
47.817354239715307
 30
0.0
 42
0.0982365330332397
  0
VERTEX
  5
1635
  8
SAPA_PROFIL
 62
     4
 10
53.347874897649092
 20
46.129667464720299
 30
0.0
 42
0.3735060174783164
  0
VERTEX
  5
1636
  8
SAPA_PROFIL
 62
     4
 10
53.64489956556006
 20
45.871814192380263
 30
0.0
  0
VERTEX
  5
1637
  8
SAPA_PROFIL
 62
     4
 10
54.073352996682722
 20
45.871814192379347
 30
0.0
 42
-0.5920056181162531
  0
VERTEX
  5
1638
  8
SAPA_PROFIL
 62
     4
 10
54.326361753000121
 20
45.410610689851417
 30
0.0
  0
VERTEX
  5
1639
  8
SAPA_PROFIL
 62
     4
 10
54.065177676844421
 20
45.008422481873119
 30
0.0
 42
-0.2539676464746725
  0
VERTEX
  5
163A
  8
SAPA_PROFIL
 62
     4
 10
53.813576506460663
 20
44.871814192377769
 30
0.0
  0
VERTEX
  5
163B
  8
SAPA_PROFIL
 62
     4
 10
31.586423487094969
 20
44.871814192379347
 30
0.0
 42
-0.2539676464741819
  0
VERTEX
  5
163C
  8
SAPA_PROFIL
 62
     4
 10
31.33482231671211
 20
45.008422481873133
 30
0.0
  0
VERTEX
  5
163D
  8
SAPA_PROFIL
 62
     4
 10
31.07363824055831
 20
45.41061068985146
 30
0.0
 42
-0.5920055144124249
  0
VERTEX
  5
163E
  8
SAPA_PROFIL
 62
     4
 10
31.326646996873809
 20
45.871814192379347
 30
0.0
  0
VERTEX
  5
163F
  8
SAPA_PROFIL
 62
     4
 10
31.755100474164031
 20
45.871814167104347
 30
0.0
 42
0.3735060174775405
  0
VERTEX
  5
1640
  8
SAPA_PROFIL
 62
     4
 10
32.05212514207372
 20
46.129667439444432
 30
0.0
 42
0.0355900683670349
  0
VERTEX
  5
1641
  8
SAPA_PROFIL
 62
     4
 10
32.096018706105973
 20
46.745541026244219
 30
0.0
 42
0.0624282003873116
  0
VERTEX
  5
1642
  8
SAPA_PROFIL
 62
     4
 10
31.961672383863039
 20
47.817354214439348
 30
0.0
 42
0.3702522326309292
  0
VERTEX
  5
1643
  8
SAPA_PROFIL
 62
     4
 10
31.665149022069659
 20
48.071814167105067
 30
0.0
  0
VERTEX
  5
1644
  8
SAPA_PROFIL
 62
     4
 10
26.648708035236151
 20
48.071814192381211
 30
0.0
 42
0.5205670505515692
  0
VERTEX
  5
1645
  8
SAPA_PROFIL
 62
     4
 10
26.178861724842928
 20
47.400804120718242
 30
0.0
  0
VERTEX
  5
1646
  8
SAPA_PROFIL
 62
     4
 10
26.615626005967879
 20
46.200804120708789
 30
0.0
 42
0.3152987888807539
  0
VERTEX
  5
1647
  8
SAPA_PROFIL
 62
     4
 10
27.085472316363731
 20
45.871814192371168
 30
0.0
  0
VERTEX
  5
1648
  8
SAPA_PROFIL
 62
     4
 10
28.02664699687281
 20
45.87181419237799
 30
0.0
 42
-0.5862175119221242
  0
VERTEX
  5
1649
  8
SAPA_PROFIL
 62
     4
 10
28.282388927854772
 20
45.414982866622843
 30
0.0
 42
0.0000002084758573
  0
SEQEND
  5
164A
  8
SAPA_PROFIL
 62
     4
  0
CIRCLE
  5
F76
  8
SAPA_PROFIL
 62
     2
 10
3.6919935880847561
 20
15.561592377096529
 30
0.0
 40
0.8999999999999985
  0
POLYLINE
  5
F77
  8
SAPA_PROFIL
 62
     2
 66
     1
 10
0.0
 20
0.0
 30
0.0
  0
VERTEX
  5
164B
  8
SAPA_PROFIL
 62
     2
 10
4.9999999996578017
 20
16.961592377096508
 30
0.0
  0
VERTEX
  5
164C
  8
SAPA_PROFIL
 62
     2
 10
3.9090811895050588
 20
16.76923395710412
 30
0.0
  0
VERTEX
  5
164D
  8
SAPA_PROFIL
 62
     2
 10
3.793381649985121
 20
17.20103051700573
 30
0.0
 42
0.4430158954262519
  0
VERTEX
  5
164E
  8
SAPA_PROFIL
 62
     2
 10
3.5299052218781521
 20
17.33650756454983
 30
0.0
  0
VERTEX
  5
164F
  8
SAPA_PROFIL
 62
     2
 10
2.2594174739599562
 20
16.859559371330871
 30
0.0
 42
0.3125358528825162
  0
VERTEX
  5
1650
  8
SAPA_PROFIL
 62
     2
 10
1.9999999996582569
 20
16.485077658201469
 30
0.0
  0
VERTEX
  5
1651
  8
SAPA_PROFIL
 62
     2
 10
1.999999999657802
 20
14.61492234229115
 30
0.0
 42
0.3125358528825104
  0
VERTEX
  5
1652
  8
SAPA_PROFIL
 62
     2
 10
2.2594174739599562
 20
14.24044062916175
 30
0.0
  0
VERTEX
  5
1653
  8
SAPA_PROFIL
 62
     2
 10
3.5299052218781521
 20
13.76349243594257
 30
0.0
 42
0.4430158954262519
  0
VERTEX
  5
1654
  8
SAPA_PROFIL
 62
     2
 10
3.7933816499850082
 20
13.89896948348666
 30
0.0
  0
VERTEX
  5
1655
  8
SAPA_PROFIL
 62
     2
 10
3.9090811895050588
 20
14.3307660433885
 30
0.0
  0
VERTEX
  5
1656
  8
SAPA_PROFIL
 62
     2
 10
4.9999999996578017
 20
14.138500000246269
 30
0.0
  0
SEQEND
  5
1657
  8
SAPA_PROFIL
 62
     2
  0
POLYLINE
  5
F78
  8
SAPA_PROFIL
 62
     2
 66
     1
 10
0.0
 20
0.0
 30
0.0
 70
     1
  0
VERTEX
  5
1658
  8
SAPA_PROFIL
 62
     2
 10
4.9999999996578017
 20
16.950000000246181
 30
0.0
 42
-0.285714285714282
  0
VERTEX
  5
1659
  8
SAPA_PROFIL
 62
     2
 10
4.9999999996578017
 20
14.150000000246219
 30
0.0
  0
VERTEX
  5
165A
  8
SAPA_PROFIL
 62
     2
 10
4.9999999996582574
 20
12.076219830858349
 30
0.0
 42
0.3882600129940275
  0
VERTEX
  5
165B
  8
SAPA_PROFIL
 62
     2
 10
5.2732107259378154
 20
11.77741833351695
 30
0.0
  0
VERTEX
  5
165C
  8
SAPA_PROFIL
 62
     2
 10
9.1732107259379063
 20
11.311208409590449
 30
0.0
 42
0.4406523138893894
  0
VERTEX
  5
165D
  8
SAPA_PROFIL
 62
     2
 10
9.4999999996578026
 20
11.6100099069323
 30
0.0
  0
VERTEX
  5
165E
  8
SAPA_PROFIL
 62
     2
 10
9.4999999996578026
 20
13.31980190385263
 30
0.0
 42
0.3394542588634375
  0
VERTEX
  5
165F
  8
SAPA_PROFIL
 62
     2
 10
9.2776457131888037
 20
13.60957965173918
 30
0.0
  0
VERTEX
  5
1660
  8
SAPA_PROFIL
 62
     2
 10
9.0600599310212147
 20
13.811959379670609
 30
0.0
 42
-0.3394542588633663
  0
VERTEX
  5
1661
  8
SAPA_PROFIL
 62
     2
 10
8.8377056445522157
 20
14.10173712755738
 30
0.0
  0
VERTEX
  5
1662
  8
SAPA_PROFIL
 62
     2
 10
8.8377056445522157
 20
16.998262872935239
 30
0.0
 42
-0.3394542588634373
  0
VERTEX
  5
1663
  8
SAPA_PROFIL
 62
     2
 10
9.0600599310212147
 20
17.288040620821789
 30
0.0
  0
VERTEX
  5
1664
  8
SAPA_PROFIL
 62
     2
 10
9.2776457131888037
 20
17.490420348753219
 30
0.0
 42
0.3394542588633662
  0
VERTEX
  5
1665
  8
SAPA_PROFIL
 62
     2
 10
9.4999999996578026
 20
17.780198096639989
 30
0.0
  0
VERTEX
  5
1666
  8
SAPA_PROFIL
 62
     2
 10
9.4999999996578026
 20
19.489990093560088
 30
0.0
 42
0.4406523138893994
  0
VERTEX
  5
1667
  8
SAPA_PROFIL
 62
     2
 10
9.1732107259379063
 20
19.78879159090172
 30
0.0
  0
VERTEX
  5
1668
  8
SAPA_PROFIL
 62
     2
 10
5.2732107259378154
 20
19.322581666975449
 30
0.0
 42
0.3882600129940462
  0
VERTEX
  5
1669
  8
SAPA_PROFIL
 62
     2
 10
4.9999999996578017
 20
19.023780169634051
 30
0.0
  0
VERTEX
  5
166A
  8
SAPA_PROFIL
 62
     2
 10
4.9999999996578017
 20
16.961592377096508
 30
0.0
  0
SEQEND
  5
166B
  8
SAPA_PROFIL
 62
     2
  0
POLYLINE
  5
F79
  8
SAPA_PROFIL
 66
     1
 10
0.0
 20
0.0
 30
0.0
 70
     1
  0
VERTEX
  5
166C
  8
SAPA_PROFIL
 10
79.699999996780434
 20
48.288281242652197
 30
0.0
 42
0.2679491924315167
  0
VERTEX
  5
166D
  8
SAPA_PROFIL
 10
79.849999996780411
 20
48.548088863787882
 30
0.0
  0
VERTEX
  5
166E
  8
SAPA_PROFIL
 10
79.849999996779957
 20
48.900568000539629
 30
0.0
 42
-0.4142135623730951
  0
VERTEX
  5
166F
  8
SAPA_PROFIL
 10
80.149999996780934
 20
49.200568000540727
 30
0.0
  0
VERTEX
  5
1670
  8
SAPA_PROFIL
 10
82.949999993580434
 20
49.200568000544138
 30
0.0
 42
-0.4142135623728859
  0
VERTEX
  5
1671
  8
SAPA_PROFIL
 10
83.449999993581059
 20
48.700568000545097
 30
0.0
  0
VERTEX
  5
1672
  8
SAPA_PROFIL
 10
83.449999993582978
 20
47.700568000536521
 30
0.0
 42
-0.4142135623733615
  0
VERTEX
  5
1673
  8
SAPA_PROFIL
 10
82.449999993584015
 20
46.700568000534581
 30
0.0
  0
VERTEX
  5
1674
  8
SAPA_PROFIL
 10
81.083974589796128
 20
46.700568000533217
 30
0.0
 42
0.1316524975871477
  0
VERTEX
  5
1675
  8
SAPA_PROFIL
 10
80.83397458979664
 20
46.633580702425427
 30
0.0
  0
VERTEX
  5
1676
  8
SAPA_PROFIL
 10
78.121539024486481
 20
45.06755529863409
 30
0.0
 42
-0.1316524975872168
  0
VERTEX
  5
1677
  8
SAPA_PROFIL
 10
77.871539024486822
 20
45.0005680005263
 30
0.0
  0
VERTEX
  5
1678
  8
SAPA_PROFIL
 10
69.949999993586516
 20
45.000568000520673
 30
0.0
 42
0.4142135623729286
  0
VERTEX
  5
1679
  8
SAPA_PROFIL
 10
69.649999993586675
 20
44.700568000520718
 30
0.0
  0
VERTEX
  5
167A
  8
SAPA_PROFIL
 10
69.64999999358605
 20
41.224009577449522
 30
0.0
 42
0.4244748162096643
  0
VERTEX
  5
167B
  8
SAPA_PROFIL
 10
69.960469842596808
 20
40.924192329343718
 30
0.0
  0
VERTEX
  5
167C
  8
SAPA_PROFIL
 10
85.881775044402616
 20
41.480176558303583
 30
0.0
 42
0.4142135623730951
  0
VERTEX
  5
167D
  8
SAPA_PROFIL
 10
86.171122443497595
 20
41.790463655420062
 30
0.0
  0
VERTEX
  5
167E
  8
SAPA_PROFIL
 10
86.150182745476059
 20
42.390098151631427
 30
0.0
 42
-0.6370702608075453
  0
VERTEX
  5
167F
  8
SAPA_PROFIL
 10
86.634698436179505
 20
42.636971226724249
 30
0.0
  0
VERTEX
  5
1680
  8
SAPA_PROFIL
 10
88.408358875189819
 20
41.251235819421879
 30
0.0
 42
-0.7002075382097091
  0
VERTEX
  5
1681
  8
SAPA_PROFIL
 10
88.117977885878247
 20
40.357535029108988
 30
0.0
  0
VERTEX
  5
1682
  8
SAPA_PROFIL
 10
67.260469842600344
 20
39.629174798557422
 30
0.0
 42
-0.4244748162048541
  0
VERTEX
  5
1683
  8
SAPA_PROFIL
 10
66.949999993589586
 20
39.928992046658323
 30
0.0
  0
VERTEX
  5
1684
  8
SAPA_PROFIL
 10
66.949999993577876
 20
40.6505680005165
 30
0.0
 42
-0.4142135623740385
  0
VERTEX
  5
1685
  8
SAPA_PROFIL
 10
67.249999993578172
 20
40.950568000517642
 30
0.0
  0
VERTEX
  5
1686
  8
SAPA_PROFIL
 10
68.149999993575193
 20
40.950568000517592
 30
0.0
 42
0.4142135623724291
  0
VERTEX
  5
1687
  8
SAPA_PROFIL
 10
68.449999993575148
 20
41.250568000516857
 30
0.0
  0
VERTEX
  5
1688
  8
SAPA_PROFIL
 10
68.449999993586516
 20
46.200568000522992
 30
0.0
 42
0.4142135623740522
  0
VERTEX
  5
1689
  8
SAPA_PROFIL
 10
67.949999993586005
 20
46.700568000524129
 30
0.0
  0
VERTEX
  5
168A
  8
SAPA_PROFIL
 10
66.449999993585379
 20
46.700568000522708
 30
0.0
 42
-0.4142135623729374
  0
VERTEX
  5
168B
  8
SAPA_PROFIL
 10
65.949999993584925
 20
47.200568000521969
 30
0.0
  0
VERTEX
  5
168C
  8
SAPA_PROFIL
 10
65.949999993582765
 20
48.700568000522033
 30
0.0
 42
-0.4142135623731454
  0
VERTEX
  5
168D
  8
SAPA_PROFIL
 10
66.449999993582139
 20
49.200568000522757
 30
0.0
  0
VERTEX
  5
168E
  8
SAPA_PROFIL
 10
68.849999996781094
 20
49.200568000525827
 30
0.0
 42
-0.414213562373503
  0
VERTEX
  5
168F
  8
SAPA_PROFIL
 10
69.349999996781776
 20
48.70056800052577
 30
0.0
  0
VERTEX
  5
1690
  8
SAPA_PROFIL
 10
69.349999996781719
 20
48.200568000519979
 30
0.0
 42
0.414213562373547
  0
VERTEX
  5
1691
  8
SAPA_PROFIL
 10
70.349999996783197
 20
47.200568000519922
 30
0.0
  0
VERTEX
  5
1692
  8
SAPA_PROFIL
 10
77.682050801146204
 20
47.200568000530602
 30
0.0
 42
0.1316524975870585
  0
VERTEX
  5
1693
  8
SAPA_PROFIL
 10
77.932050801145522
 20
47.267555298638392
 30
0.0
  0
SEQEND
  5
1694
  8
SAPA_PROFIL
  0
POLYLINE
  5
FA7
  8
SAPA_GLAS
 66
     1
 10
0.0
 20
0.0
 30
0.0
 70
     1
  0
VERTEX
  5
16AE
  8
SAPA_GLAS
 10
14.69743085975113
 20
89.700000000112965
 30
0.0
  0
VERTEX
  5
16AF
  8
SAPA_GLAS
 10
29.69743085975114
 20
89.700000000112965
 30
0.0
  0
VERTEX
  5
16B0
  8
SAPA_GLAS
 10
29.69743085975114
 20
79.700000000112965
 30
0.0
  0
VERTEX
  5
16B1
  8
SAPA_GLAS
 10
14.69743085975113
 20
79.700000000112965
 30
0.0
  0
SEQEND
  5
16B2
  8
SAPA_GLAS
  0
POLYLINE
  5
FA8
  8
SAPA_GLAS
 66
     1
 10
0.0
 20
0.0
 30
0.0
 70
     1
  0
VERTEX
  5
16B3
  8
SAPA_GLAS
 10
33.697430859751137
 20
89.700000000112965
 30
0.0
  0
VERTEX
  5
16B4
  8
SAPA_GLAS
 10
48.69743085975113
 20
89.700000000112965
 30
0.0
  0
VERTEX
  5
16B5
  8
SAPA_GLAS
 10
48.69743085975113
 20
79.700000000112965
 30
0.0
  0
VERTEX
  5
16B6
  8
SAPA_GLAS
 10
33.697430859751137
 20
79.700000000112965
 30
0.0
  0
SEQEND
  5
16B7
  8
SAPA_GLAS
  0
POLYLINE
  5
FA9
  8
SAPA_GLAS
 66
     1
 10
0.0
 20
0.0
 30
0.0
  0
VERTEX
  5
16B8
  8
SAPA_GLAS
 10
33.697430859751137
 20
109.70000000011269
 30
0.0
  0
VERTEX
  5
16B9
  8
SAPA_GLAS
 10
33.697430859751137
 20
79.700000000112738
 30
0.0
  0
VERTEX
  5
16BA
  8
SAPA_GLAS
 10
29.69743085975114
 20
79.700000000112738
 30
0.0
  0
VERTEX
  5
16BB
  8
SAPA_GLAS
 10
29.69743085975114
 20
109.70000000011269
 30
0.0
  0
SEQEND
  5
16BC
  8
SAPA_GLAS
  0
POLYLINE
  5
FAA
  8
SAPA_GLAS
 66
     1
 10
0.0
 20
0.0
 30
0.0
  0
VERTEX
  5
16BD
  8
SAPA_GLAS
 10
54.697430859751137
 20
109.70000000011269
 30
0.0
  0
VERTEX
  5
16BE
  8
SAPA_GLAS
 10
54.697430859751137
 20
79.700000000112738
 30
0.0
  0
VERTEX
  5
16BF
  8
SAPA_GLAS
 10
48.69743085975113
 20
79.700000000112738
 30
0.0
  0
VERTEX
  5
16C0
  8
SAPA_GLAS
 10
48.697430859751137
 20
109.70000000011269
 30
0.0
  0
SEQEND
  5
16C1
  8
SAPA_GLAS
  0
POLYLINE
  5
FAB
  8
SAPA_GLAS
 66
     1
 10
0.0
 20
0.0
 30
0.0
  0
VERTEX
  5
16C2
  8
SAPA_GLAS
 10
8.6974308597511367
 20
109.70000000011269
 30
0.0
  0
VERTEX
  5
16C3
  8
SAPA_GLAS
 10
8.6974308597511367
 20
79.700000000112738
 30
0.0
  0
VERTEX
  5
16C4
  8
SAPA_GLAS
 10
14.69743085975113
 20
79.700000000112738
 30
0.0
  0
VERTEX
  5
16C5
  8
SAPA_GLAS
 10
14.69743085975113
 20
109.70000000011269
 30
0.0
  0
SEQEND
  5
16C6
  8
SAPA_GLAS
  0
INSERT
  5
FB2
  8
SAPA_FYLLNING
  6
CONTINUOUS
  2
*X81
 10
0.0
 20
0.0
 30
0.0
1001
ACAD
1000
HATCH
1002
{
1070
    19
1000
HEX
1040
0.25
1040
-3.1415926535897931
1000
R14_HATCH_DATA
1000
FB2
1011
1.0
1021
0.0
1031
0.0
1021
0.0
1031
0.0
1011
0.0
1021
0.0
1031
0.0
1021
1.0
1031
0.0
1011
0.0
1021
0.0
1031
0.0
1021
0.0
1031
1.0
1040
0.0
1010
0.0
1020
0.0
1030
1.0
1000
HEX
1070
     0
1070
     0
1071
        1
1071
        7
1070
     1
1070
     1
1071
        2
1040
255.50057044424571
1040
4.200568000640053
1040
1.0
1040
249.50057044424551
1040
4.200568000640053
1040
1.0
1071
        0
1070
     0
1070
     1
1040
-3.1415926535897931
1040
0.25
1070
     0
1070
     3
1040
6.2831853071795862
1040
125.69999999979891
1040
74.700568000616471
1040
0.0
1040
-1.374814999999999
1070
     2
1040
0.79375
1040
-1.587499999999999
1040
4.1887902047863914
1040
125.69999999979891
1040
74.700568000616471
1040
-1.190624715503902
1040
0.6874074999999996
1070
     2
1040
0.7937499999999998
1040
-1.587499999999999
1040
5.2359877559829879
1040
126.49374999979889
1040
74.700568000616471
1040
-1.190624715503902
1040
-0.6874075000000001
1070
     2
1040
0.7937499999999998
1040
-1.587499999999999
1040
0.0216905703044498
1071
        1
1040
252.7871423868707
1040
4.1346318219782239
1040
0.0
1002
}
  0
INSERT
  5
FB3
  8
SAPA_FYLLNING
  6
CONTINUOUS
  2
*X82
 10
0.0
 20
0.0
 30
0.0
1001
ACAD
1000
HATCH
1002
{
1070
    19
1000
ANSI37
1040
0.25
1040
-3.1415926535897931
1000
R14_HATCH_DATA
1000
FB3
1011
1.0
1021
0.0
1031
0.0
1021
0.0
1031
0.0
1011
0.0
1021
0.0
1031
0.0
1021
1.0
1031
0.0
1011
0.0
1021
0.0
1031
0.0
1021
0.0
1031
1.0
1040
0.0
1010
0.0
1020
0.0
1030
1.0
1000
ANSI37
1070
     0
1070
     0
1071
        1
1071
        1
1071
        9
1070
     1
1040
249.5003880108107
1040
-2.3189534346051621
1040
249.500570444245
1040
4.2005680006407209
1070
     2
1040
252.5005704442452
1040
4.2005680006407218
1040
3.0000000000001128
1040
3.1415926535897931
1040
6.2831853071795862
1070
     1
1070
     1
1040
255.50057044424531
1040
4.2005680006407209
1040
255.50057044424531
1040
2.614781563017551
1070
     2
1040
255.20057044424581
1040
2.614781563016908
1040
0.2999999999994998
1040
6.2831853071774431
1040
7.0685834705749819
1070
     0
1070
     1
1040
255.4127024786018
1040
2.4026495286617329
1040
255.14701705365241
1040
2.1369641037127631
1070
     2
1040
255.50057044424551
1040
1.7834107131192021
1040
0.5000000000000844
1040
2.3561944901917009
1040
3.9269908169865979
1070
     1
1070
     1
1040
255.14701705365189
1040
1.429857322526096
1040
256.7884384098885
1040
-0.2115640337105091
1070
     2
1040
257.00056983175648
1040
0.000566089214558
1040
0.2999982153212699
1040
3.9269877553311541
1040
4.8774207744766294
1070
     1
1070
     1
1040
257.04985464651787
1040
-0.2953560901331496
1040
249.5003880108107
1040
-2.3189534346051621
1071
        0
1070
     0
1070
     1
1040
-3.1415926535897931
1040
0.25
1070
     0
1070
     2
1040
5.4977871437821371
1040
125.69999999979891
1040
74.700568000616471
1040
-0.5612660075668221
1040
-0.5612660075668221
1070
     0
1040
3.9269908169872401
1040
125.69999999979891
1040
74.700568000616471
1040
-0.5612660075668221
1040
0.5612660075668221
1070
     0
1071
        1
1040
251.5993524241282
1040
-0.3433172294221762
1040
0.0
1002
}
  0
POLYLINE
  5
FBB
  8
SAPA_FOGBAND
 62
     2
 10
58.288806231537691
 20
84.47378544616106
 30
0.0
 66
     1
 70
     8
  0
VERTEX
  8
SAPA_FOGBAND
  5
176F
 10
58.2888
 20
84.4738
 30
0.000000
  70
    32
  0
VERTEX
  8
SAPA_FOGBAND
  5
1770
 10
58.2201
 20
84.4712
 30
0.000000
  70
    32
  0
VERTEX
  8
SAPA_FOGBAND
  5
1771
 10
58.1516
 20
84.4633
 30
0.000000
  70
    32
  0
VERTEX
  8
SAPA_FOGBAND
  5
1772
 10
58.0834
 20
84.4503
 30
0.000000
  70
    32
  0
VERTEX
  8
SAPA_FOGBAND
  5
1773
 10
58.0157
 20
84.4321
 30
0.000000
  70
    32
  0
VERTEX
  8
SAPA_FOGBAND
  5
1774
 10
57.9486
 20
84.4088
 30
0.000000
  70
    32
  0
VERTEX
  8
SAPA_FOGBAND
  5
1775
 10
57.8824
 20
84.3804
 30
0.000000
  70
    32
  0
VERTEX
  8
SAPA_FOGBAND
  5
1776
 10
57.8172
 20
84.3471
 30
0.000000
  70
    32
  0
VERTEX
  8
SAPA_FOGBAND
  5
1777
 10
57.7530
 20
84.3088
 30
0.000000
  70
    32
  0
VERTEX
  8
SAPA_FOGBAND
  5
1778
 10
57.6902
 20
84.2657
 30
0.000000
  70
    32
  0
VERTEX
  8
SAPA_FOGBAND
  5
1779
 10
57.6289
 20
84.2178
 30
0.000000
  70
    32
  0
VERTEX
  8
SAPA_FOGBAND
  5
177A
 10
57.5691
 20
84.1654
 30
0.000000
  70
    32
  0
VERTEX
  8
SAPA_FOGBAND
  5
177B
 10
57.5110
 20
84.1084
 30
0.000000
  70
    32
  0
VERTEX
  8
SAPA_FOGBAND
  5
177C
 10
57.4548
 20
84.0472
 30
0.000000
  70
    32
  0
VERTEX
  8
SAPA_FOGBAND
  5
177D
 10
57.4007
 20
83.9817
 30
0.000000
  70
    32
  0
VERTEX
  8
SAPA_FOGBAND
  5
177E
 10
57.3486
 20
83.9122
 30
0.000000
  70
    32
  0
VERTEX
  8
SAPA_FOGBAND
  5
177F
 10
57.2989
 20
83.8389
 30
0.000000
  70
    32
  0
VERTEX
  8
SAPA_FOGBAND
  5
1780
 10
57.2515
 20
83.7618
 30
0.000000
  70
    32
  0
VERTEX
  8
SAPA_FOGBAND
  5
1781
 10
57.2066
 20
83.6812
 30
0.000000
  70
    32
  0
VERTEX
  8
SAPA_FOGBAND
  5
1782
 10
57.1643
 20
83.5973
 30
0.000000
  70
    32
  0
VERTEX
  8
SAPA_FOGBAND
  5
1783
 10
57.1247
 20
83.5104
 30
0.000000
  70
    32
  0
VERTEX
  8
SAPA_FOGBAND
  5
1784
 10
57.0880
 20
83.4205
 30
0.000000
  70
    32
  0
VERTEX
  8
SAPA_FOGBAND
  5
1785
 10
57.0541
 20
83.3279
 30
0.000000
  70
    32
  0
VERTEX
  8
SAPA_FOGBAND
  5
1786
 10
57.0232
 20
83.2328
 30
0.000000
  70
    32
  0
VERTEX
  8
SAPA_FOGBAND
  5
1787
 10
56.9954
 20
83.1356
 30
0.000000
  70
    32
  0
VERTEX
  8
SAPA_FOGBAND
  5
1788
 10
56.9706
 20
83.0363
 30
0.000000
  70
    32
  0
VERTEX
  8
SAPA_FOGBAND
  5
1789
 10
56.9491
 20
82.9353
 30
0.000000
  70
    32
  0
VERTEX
  8
SAPA_FOGBAND
  5
178A
 10
56.9308
 20
82.8327
 30
0.000000
  70
    32
  0
VERTEX
  8
SAPA_FOGBAND
  5
178B
 10
56.9157
 20
82.7289
 30
0.000000
  70
    32
  0
VERTEX
  8
SAPA_FOGBAND
  5
178C
 10
56.9040
 20
82.6241
 30
0.000000
  70
    32
  0
VERTEX
  8
SAPA_FOGBAND
  5
178D
 10
56.8955
 20
82.5185
 30
0.000000
  70
    32
  0
VERTEX
  8
SAPA_FOGBAND
  5
178E
 10
56.8905
 20
82.4124
 30
0.000000
  70
    32
  0
VERTEX
  8
SAPA_FOGBAND
  5
178F
 10
56.8888
 20
82.3060
 30
0.000000
  70
    32
  0
VERTEX
  8
SAPA_FOGBAND
  5
1790
 10
56.8905
 20
82.1996
 30
0.000000
  70
    32
  0
VERTEX
  8
SAPA_FOGBAND
  5
1791
 10
56.8955
 20
82.0935
 30
0.000000
  70
    32
  0
VERTEX
  8
SAPA_FOGBAND
  5
1792
 10
56.9040
 20
81.9879
 30
0.000000
  70
    32
  0
VERTEX
  8
SAPA_FOGBAND
  5
1793
 10
56.9157
 20
81.8831
 30
0.000000
  70
    32
  0
VERTEX
  8
SAPA_FOGBAND
  5
1794
 10
56.9308
 20
81.7793
 30
0.000000
  70
    32
  0
VERTEX
  8
SAPA_FOGBAND
  5
1795
 10
56.9491
 20
81.6767
 30
0.000000
  70
    32
  0
VERTEX
  8
SAPA_FOGBAND
  5
1796
 10
56.9706
 20
81.5757
 30
0.000000
  70
    32
  0
VERTEX
  8
SAPA_FOGBAND
  5
1797
 10
56.9954
 20
81.4764
 30
0.000000
  70
    32
  0
VERTEX
  8
SAPA_FOGBAND
  5
1798
 10
57.0232
 20
81.3791
 30
0.000000
  70
    32
  0
VERTEX
  8
SAPA_FOGBAND
  5
1799
 10
57.0541
 20
81.2841
 30
0.000000
  70
    32
  0
VERTEX
  8
SAPA_FOGBAND
  5
179A
 10
57.0880
 20
81.1915
 30
0.000000
  70
    32
  0
VERTEX
  8
SAPA_FOGBAND
  5
179B
 10
57.1247
 20
81.1016
 30
0.000000
  70
    32
  0
VERTEX
  8
SAPA_FOGBAND
  5
179C
 10
57.1643
 20
81.0146
 30
0.000000
  70
    32
  0
VERTEX
  8
SAPA_FOGBAND
  5
179D
 10
57.2066
 20
80.9308
 30
0.000000
  70
    32
  0
VERTEX
  8
SAPA_FOGBAND
  5
179E
 10
57.2515
 20
80.8502
 30
0.000000
  70
    32
  0
VERTEX
  8
SAPA_FOGBAND
  5
179F
 10
57.2989
 20
80.7731
 30
0.000000
  70
    32
  0
VERTEX
  8
SAPA_FOGBAND
  5
17A0
 10
57.3486
 20
80.6998
 30
0.000000
  70
    32
  0
VERTEX
  8
SAPA_FOGBAND
  5
17A1
 10
57.4007
 20
80.6303
 30
0.000000
  70
    32
  0
VERTEX
  8
SAPA_FOGBAND
  5
17A2
 10
57.4548
 20
80.5648
 30
0.000000
  70
    32
  0
VERTEX
  8
SAPA_FOGBAND
  5
17A3
 10
57.5110
 20
80.5035
 30
0.000000
  70
    32
  0
VERTEX
  8
SAPA_FOGBAND
  5
17A4
 10
57.5691
 20
80.4466
 30
0.000000
  70
    32
  0
VERTEX
  8
SAPA_FOGBAND
  5
17A5
 10
57.6289
 20
80.3942
 30
0.000000
  70
    32
  0
VERTEX
  8
SAPA_FOGBAND
  5
17A6
 10
57.6902
 20
80.3463
 30
0.000000
  70
    32
  0
VERTEX
  8
SAPA_FOGBAND
  5
17A7
 10
57.7530
 20
80.3032
 30
0.000000
  70
    32
  0
VERTEX
  8
SAPA_FOGBAND
  5
17A8
 10
57.8172
 20
80.2649
 30
0.000000
  70
    32
  0
VERTEX
  8
SAPA_FOGBAND
  5
17A9
 10
57.8824
 20
80.2316
 30
0.000000
  70
    32
  0
VERTEX
  8
SAPA_FOGBAND
  5
17AA
 10
57.9486
 20
80.2032
 30
0.000000
  70
    32
  0
VERTEX
  8
SAPA_FOGBAND
  5
17AB
 10
58.0157
 20
80.1799
 30
0.000000
  70
    32
  0
VERTEX
  8
SAPA_FOGBAND
  5
17AC
 10
58.0834
 20
80.1617
 30
0.000000
  70
    32
  0
VERTEX
  8
SAPA_FOGBAND
  5
17AD
 10
58.1516
 20
80.1486
 30
0.000000
  70
    32
  0
VERTEX
  8
SAPA_FOGBAND
  5
17AE
 10
58.2201
 20
80.1408
 30
0.000000
  70
    32
  0
VERTEX
  8
SAPA_FOGBAND
  5
17AF
 10
58.2888
 20
80.1382
 30
0.000000
  70
    32
  0
VERTEX
  8
SAPA_FOGBAND
  5
17B0
 10
58.3575
 20
80.1408
 30
0.000000
  70
    32
  0
VERTEX
  8
SAPA_FOGBAND
  5
17B1
 10
58.4260
 20
80.1486
 30
0.000000
  70
    32
  0
VERTEX
  8
SAPA_FOGBAND
  5
17B2
 10
58.4942
 20
80.1617
 30
0.000000
  70
    32
  0
VERTEX
  8
SAPA_FOGBAND
  5
17B3
 10
58.5619
 20
80.1799
 30
0.000000
  70
    32
  0
VERTEX
  8
SAPA_FOGBAND
  5
17B4
 10
58.6290
 20
80.2032
 30
0.000000
  70
    32
  0
VERTEX
  8
SAPA_FOGBAND
  5
17B5
 10
58.6952
 20
80.2316
 30
0.000000
  70
    32
  0
VERTEX
  8
SAPA_FOGBAND
  5
17B6
 10
58.7605
 20
80.2649
 30
0.000000
  70
    32
  0
VERTEX
  8
SAPA_FOGBAND
  5
17B7
 10
58.8246
 20
80.3032
 30
0.000000
  70
    32
  0
VERTEX
  8
SAPA_FOGBAND
  5
17B8
 10
58.8874
 20
80.3463
 30
0.000000
  70
    32
  0
VERTEX
  8
SAPA_FOGBAND
  5
17B9
 10
58.9488
 20
80.3942
 30
0.000000
  70
    32
  0
VERTEX
  8
SAPA_FOGBAND
  5
17BA
 10
59.0086
 20
80.4466
 30
0.000000
  70
    32
  0
VERTEX
  8
SAPA_FOGBAND
  5
17BB
 10
59.0666
 20
80.5035
 30
0.000000
  70
    32
  0
VERTEX
  8
SAPA_FOGBAND
  5
17BC
 10
59.1228
 20
80.5648
 30
0.000000
  70
    32
  0
VERTEX
  8
SAPA_FOGBAND
  5
17BD
 10
59.1770
 20
80.6303
 30
0.000000
  70
    32
  0
VERTEX
  8
SAPA_FOGBAND
  5
17BE
 10
59.2290
 20
80.6998
 30
0.000000
  70
    32
  0
VERTEX
  8
SAPA_FOGBAND
  5
17BF
 10
59.2788
 20
80.7731
 30
0.000000
  70
    32
  0
VERTEX
  8
SAPA_FOGBAND
  5
17C0
 10
59.3261
 20
80.8502
 30
0.000000
  70
    32
  0
VERTEX
  8
SAPA_FOGBAND
  5
17C1
 10
59.3710
 20
80.9308
 30
0.000000
  70
    32
  0
VERTEX
  8
SAPA_FOGBAND
  5
17C2
 10
59.4133
 20
81.0146
 30
0.000000
  70
    32
  0
VERTEX
  8
SAPA_FOGBAND
  5
17C3
 10
59.4529
 20
81.1016
 30
0.000000
  70
    32
  0
VERTEX
  8
SAPA_FOGBAND
  5
17C4
 10
59.4896
 20
81.1915
 30
0.000000
  70
    32
  0
VERTEX
  8
SAPA_FOGBAND
  5
17C5
 10
59.5235
 20
81.2841
 30
0.000000
  70
    32
  0
VERTEX
  8
SAPA_FOGBAND
  5
17C6
 10
59.5544
 20
81.3791
 30
0.000000
  70
    32
  0
VERTEX
  8
SAPA_FOGBAND
  5
17C7
 10
59.5822
 20
81.4764
 30
0.000000
  70
    32
  0
VERTEX
  8
SAPA_FOGBAND
  5
17C8
 10
59.6070
 20
81.5757
 30
0.000000
  70
    32
  0
VERTEX
  8
SAPA_FOGBAND
  5
17C9
 10
59.6285
 20
81.6767
 30
0.000000
  70
    32
  0
VERTEX
  8
SAPA_FOGBAND
  5
17CA
 10
59.6468
 20
81.7793
 30
0.000000
  70
    32
  0
VERTEX
  8
SAPA_FOGBAND
  5
17CB
 10
59.6619
 20
81.8831
 30
0.000000
  70
    32
  0
VERTEX
  8
SAPA_FOGBAND
  5
17CC
 10
59.6737
 20
81.9879
 30
0.000000
  70
    32
  0
VERTEX
  8
SAPA_FOGBAND
  5
17CD
 10
59.6821
 20
82.0935
 30
0.000000
  70
    32
  0
VERTEX
  8
SAPA_FOGBAND
  5
17CE
 10
59.6871
 20
82.1996
 30
0.000000
  70
    32
  0
VERTEX
  8
SAPA_FOGBAND
  5
17CF
 10
59.6888
 20
82.3060
 30
0.000000
  70
    32
  0
VERTEX
  8
SAPA_FOGBAND
  5
17D0
 10
59.6871
 20
82.4124
 30
0.000000
  70
    32
  0
VERTEX
  8
SAPA_FOGBAND
  5
17D1
 10
59.6821
 20
82.5185
 30
0.000000
  70
    32
  0
VERTEX
  8
SAPA_FOGBAND
  5
17D2
 10
59.6737
 20
82.6241
 30
0.000000
  70
    32
  0
VERTEX
  8
SAPA_FOGBAND
  5
17D3
 10
59.6619
 20
82.7289
 30
0.000000
  70
    32
  0
VERTEX
  8
SAPA_FOGBAND
  5
17D4
 10
59.6468
 20
82.8327
 30
0.000000
  70
    32
  0
VERTEX
  8
SAPA_FOGBAND
  5
17D5
 10
59.6285
 20
82.9353
 30
0.000000
  70
    32
  0
VERTEX
  8
SAPA_FOGBAND
  5
17D6
 10
59.6070
 20
83.0363
 30
0.000000
  70
    32
  0
VERTEX
  8
SAPA_FOGBAND
  5
17D7
 10
59.5822
 20
83.1356
 30
0.000000
  70
    32
  0
VERTEX
  8
SAPA_FOGBAND
  5
17D8
 10
59.5544
 20
83.2328
 30
0.000000
  70
    32
  0
VERTEX
  8
SAPA_FOGBAND
  5
17D9
 10
59.5235
 20
83.3279
 30
0.000000
  70
    32
  0
VERTEX
  8
SAPA_FOGBAND
  5
17DA
 10
59.4896
 20
83.4205
 30
0.000000
  70
    32
  0
VERTEX
  8
SAPA_FOGBAND
  5
17DB
 10
59.4529
 20
83.5104
 30
0.000000
  70
    32
  0
VERTEX
  8
SAPA_FOGBAND
  5
17DC
 10
59.4133
 20
83.5973
 30
0.000000
  70
    32
  0
VERTEX
  8
SAPA_FOGBAND
  5
17DD
 10
59.3710
 20
83.6812
 30
0.000000
  70
    32
  0
VERTEX
  8
SAPA_FOGBAND
  5
17DE
 10
59.3261
 20
83.7618
 30
0.000000
  70
    32
  0
VERTEX
  8
SAPA_FOGBAND
  5
17DF
 10
59.2788
 20
83.8389
 30
0.000000
  70
    32
  0
VERTEX
  8
SAPA_FOGBAND
  5
17E0
 10
59.2290
 20
83.9122
 30
0.000000
  70
    32
  0
VERTEX
  8
SAPA_FOGBAND
  5
17E1
 10
59.1770
 20
83.9817
 30
0.000000
  70
    32
  0
VERTEX
  8
SAPA_FOGBAND
  5
17E2
 10
59.1228
 20
84.0472
 30
0.000000
  70
    32
  0
VERTEX
  8
SAPA_FOGBAND
  5
17E3
 10
59.0666
 20
84.1084
 30
0.000000
  70
    32
  0
VERTEX
  8
SAPA_FOGBAND
  5
17E4
 10
59.0086
 20
84.1654
 30
0.000000
  70
    32
  0
VERTEX
  8
SAPA_FOGBAND
  5
17E5
 10
58.9488
 20
84.2178
 30
0.000000
  70
    32
  0
VERTEX
  8
SAPA_FOGBAND
  5
17E6
 10
58.8874
 20
84.2657
 30
0.000000
  70
    32
  0
VERTEX
  8
SAPA_FOGBAND
  5
17E7
 10
58.8246
 20
84.3088
 30
0.000000
  70
    32
  0
VERTEX
  8
SAPA_FOGBAND
  5
17E8
 10
58.7605
 20
84.3471
 30
0.000000
  70
    32
  0
VERTEX
  8
SAPA_FOGBAND
  5
17E9
 10
58.6952
 20
84.3804
 30
0.000000
  70
    32
  0
VERTEX
  8
SAPA_FOGBAND
  5
17EA
 10
58.6290
 20
84.4088
 30
0.000000
  70
    32
  0
VERTEX
  8
SAPA_FOGBAND
  5
17EB
 10
58.5619
 20
84.4321
 30
0.000000
  70
    32
  0
VERTEX
  8
SAPA_FOGBAND
  5
17EC
 10
58.4942
 20
84.4503
 30
0.000000
  70
    32
  0
VERTEX
  8
SAPA_FOGBAND
  5
17ED
 10
58.4260
 20
84.4633
 30
0.000000
  70
    32
  0
VERTEX
  8
SAPA_FOGBAND
  5
17EE
 10
58.3575
 20
84.4712
 30
0.000000
  70
    32
  0
VERTEX
  8
SAPA_FOGBAND
  5
17EF
 10
58.2888
 20
84.4738
 30
0.000000
  70
    32
  0
SEQEND
  8
SAPA_FOGBAND
  5
17F0
  0
POLYLINE
  5
FBC
  8
SAPA_FOGBAND
 62
     2
 10
60.023592254270632
 20
93.991188305212134
 30
0.0
 66
     1
 70
     8
  0
VERTEX
  8
SAPA_FOGBAND
  5
17F1
 10
60.0236
 20
93.9912
 30
0.000000
  70
    32
  0
VERTEX
  8
SAPA_FOGBAND
  5
17F2
 10
59.9353
 20
93.9875
 30
0.000000
  70
    32
  0
VERTEX
  8
SAPA_FOGBAND
  5
17F3
 10
59.8472
 20
93.9763
 30
0.000000
  70
    32
  0
VERTEX
  8
SAPA_FOGBAND
  5
17F4
 10
59.7595
 20
93.9578
 30
0.000000
  70
    32
  0
VERTEX
  8
SAPA_FOGBAND
  5
17F5
 10
59.6724
 20
93.9319
 30
0.000000
  70
    32
  0
VERTEX
  8
SAPA_FOGBAND
  5
17F6
 10
59.5862
 20
93.8987
 30
0.000000
  70
    32
  0
VERTEX
  8
SAPA_FOGBAND
  5
17F7
 10
59.5011
 20
93.8583
 30
0.000000
  70
    32
  0
VERTEX
  8
SAPA_FOGBAND
  5
17F8
 10
59.4172
 20
93.8108
 30
0.000000
  70
    32
  0
VERTEX
  8
SAPA_FOGBAND
  5
17F9
 10
59.3348
 20
93.7563
 30
0.000000
  70
    32
  0
VERTEX
  8
SAPA_FOGBAND
  5
17FA
 10
59.2540
 20
93.6950
 30
0.000000
  70
    32
  0
VERTEX
  8
SAPA_FOGBAND
  5
17FB
 10
59.1751
 20
93.6269
 30
0.000000
  70
    32
  0
VERTEX
  8
SAPA_FOGBAND
  5
17FC
 10
59.0982
 20
93.5522
 30
0.000000
  70
    32
  0
VERTEX
  8
SAPA_FOGBAND
  5
17FD
 10
59.0236
 20
93.4712
 30
0.000000
  70
    32
  0
VERTEX
  8
SAPA_FOGBAND
  5
17FE
 10
58.9513
 20
93.3840
 30
0.000000
  70
    32
  0
VERTEX
  8
SAPA_FOGBAND
  5
17FF
 10
58.8817
 20
93.2909
 30
0.000000
  70
    32
  0
VERTEX
  8
SAPA_FOGBAND
  5
1800
 10
58.8148
 20
93.1920
 30
0.000000
  70
    32
  0
VERTEX
  8
SAPA_FOGBAND
  5
1801
 10
58.7508
 20
93.0875
 30
0.000000
  70
    32
  0
VERTEX
  8
SAPA_FOGBAND
  5
1802
 10
58.6899
 20
92.9779
 30
0.000000
  70
    32
  0
VERTEX
  8
SAPA_FOGBAND
  5
1803
 10
58.6322
 20
92.8632
 30
0.000000
  70
    32
  0
VERTEX
  8
SAPA_FOGBAND
  5
1804
 10
58.5778
 20
92.7438
 30
0.000000
  70
    32
  0
VERTEX
  8
SAPA_FOGBAND
  5
1805
 10
58.5269
 20
92.6200
 30
0.000000
  70
    32
  0
VERTEX
  8
SAPA_FOGBAND
  5
1806
 10
58.4797
 20
92.4921
 30
0.000000
  70
    32
  0
VERTEX
  8
SAPA_FOGBAND
  5
1807
 10
58.4361
 20
92.3603
 30
0.000000
  70
    32
  0
VERTEX
  8
SAPA_FOGBAND
  5
1808
 10
58.3964
 20
92.2251
 30
0.000000
  70
    32
  0
VERTEX
  8
SAPA_FOGBAND
  5
1809
 10
58.3606
 20
92.0866
 30
0.000000
  70
    32
  0
VERTEX
  8
SAPA_FOGBAND
  5
180A
 10
58.3288
 20
91.9453
 30
0.000000
  70
    32
  0
VERTEX
  8
SAPA_FOGBAND
  5
180B
 10
58.3011
 20
91.8016
 30
0.000000
  70
    32
  0
VERTEX
  8
SAPA_FOGBAND
  5
180C
 10
58.2775
 20
91.6556
 30
0.000000
  70
    32
  0
VERTEX
  8
SAPA_FOGBAND
  5
180D
 10
58.2582
 20
91.5079
 30
0.000000
  70
    32
  0
VERTEX
  8
SAPA_FOGBAND
  5
180E
 10
58.2431
 20
91.3587
 30
0.000000
  70
    32
  0
VERTEX
  8
SAPA_FOGBAND
  5
180F
 10
58.2323
 20
91.2084
 30
0.000000
  70
    32
  0
VERTEX
  8
SAPA_FOGBAND
  5
1810
 10
58.2258
 20
91.0574
 30
0.000000
  70
    32
  0
VERTEX
  8
SAPA_FOGBAND
  5
1811
 10
58.2236
 20
90.9060
 30
0.000000
  70
    32
  0
VERTEX
  8
SAPA_FOGBAND
  5
1812
 10
58.2258
 20
90.7546
 30
0.000000
  70
    32
  0
VERTEX
  8
SAPA_FOGBAND
  5
1813
 10
58.2323
 20
90.6036
 30
0.000000
  70
    32
  0
VERTEX
  8
SAPA_FOGBAND
  5
1814
 10
58.2431
 20
90.4533
 30
0.000000
  70
    32
  0
VERTEX
  8
SAPA_FOGBAND
  5
1815
 10
58.2582
 20
90.3041
 30
0.000000
  70
    32
  0
VERTEX
  8
SAPA_FOGBAND
  5
1816
 10
58.2775
 20
90.1563
 30
0.000000
  70
    32
  0
VERTEX
  8
SAPA_FOGBAND
  5
1817
 10
58.3011
 20
90.0104
 30
0.000000
  70
    32
  0
VERTEX
  8
SAPA_FOGBAND
  5
1818
 10
58.3288
 20
89.8666
 30
0.000000
  70
    32
  0
VERTEX
  8
SAPA_FOGBAND
  5
1819
 10
58.3606
 20
89.7253
 30
0.000000
  70
    32
  0
VERTEX
  8
SAPA_FOGBAND
  5
181A
 10
58.3964
 20
89.5869
 30
0.000000
  70
    32
  0
VERTEX
  8
SAPA_FOGBAND
  5
181B
 10
58.4361
 20
89.4516
 30
0.000000
  70
    32
  0
VERTEX
  8
SAPA_FOGBAND
  5
181C
 10
58.4797
 20
89.3198
 30
0.000000
  70
    32
  0
VERTEX
  8
SAPA_FOGBAND
  5
181D
 10
58.5269
 20
89.1919
 30
0.000000
  70
    32
  0
VERTEX
  8
SAPA_FOGBAND
  5
181E
 10
58.5778
 20
89.0681
 30
0.000000
  70
    32
  0
VERTEX
  8
SAPA_FOGBAND
  5
181F
 10
58.6322
 20
88.9487
 30
0.000000
  70
    32
  0
VERTEX
  8
SAPA_FOGBAND
  5
1820
 10
58.6899
 20
88.8341
 30
0.000000
  70
    32
  0
VERTEX
  8
SAPA_FOGBAND
  5
1821
 10
58.7508
 20
88.7244
 30
0.000000
  70
    32
  0
VERTEX
  8
SAPA_FOGBAND
  5
1822
 10
58.8148
 20
88.6200
 30
0.000000
  70
    32
  0
VERTEX
  8
SAPA_FOGBAND
  5
1823
 10
58.8817
 20
88.5211
 30
0.000000
  70
    32
  0
VERTEX
  8
SAPA_FOGBAND
  5
1824
 10
58.9513
 20
88.4279
 30
0.000000
  70
    32
  0
VERTEX
  8
SAPA_FOGBAND
  5
1825
 10
59.0236
 20
88.3407
 30
0.000000
  70
    32
  0
VERTEX
  8
SAPA_FOGBAND
  5
1826
 10
59.0982
 20
88.2597
 30
0.000000
  70
    32
  0
VERTEX
  8
SAPA_FOGBAND
  5
1827
 10
59.1751
 20
88.1850
 30
0.000000
  70
    32
  0
VERTEX
  8
SAPA_FOGBAND
  5
1828
 10
59.2540
 20
88.1170
 30
0.000000
  70
    32
  0
VERTEX
  8
SAPA_FOGBAND
  5
1829
 10
59.3348
 20
88.0556
 30
0.000000
  70
    32
  0
VERTEX
  8
SAPA_FOGBAND
  5
182A
 10
59.4172
 20
88.0011
 30
0.000000
  70
    32
  0
VERTEX
  8
SAPA_FOGBAND
  5
182B
 10
59.5011
 20
87.9536
 30
0.000000
  70
    32
  0
VERTEX
  8
SAPA_FOGBAND
  5
182C
 10
59.5862
 20
87.9132
 30
0.000000
  70
    32
  0
VERTEX
  8
SAPA_FOGBAND
  5
182D
 10
59.6724
 20
87.8800
 30
0.000000
  70
    32
  0
VERTEX
  8
SAPA_FOGBAND
  5
182E
 10
59.7595
 20
87.8541
 30
0.000000
  70
    32
  0
VERTEX
  8
SAPA_FOGBAND
  5
182F
 10
59.8472
 20
87.8356
 30
0.000000
  70
    32
  0
VERTEX
  8
SAPA_FOGBAND
  5
1830
 10
59.9353
 20
87.8245
 30
0.000000
  70
    32
  0
VERTEX
  8
SAPA_FOGBAND
  5
1831
 10
60.0236
 20
87.8208
 30
0.000000
  70
    32
  0
VERTEX
  8
SAPA_FOGBAND
  5
1832
 10
60.1119
 20
87.8245
 30
0.000000
  70
    32
  0
VERTEX
  8
SAPA_FOGBAND
  5
1833
 10
60.2000
 20
87.8356
 30
0.000000
  70
    32
  0
VERTEX
  8
SAPA_FOGBAND
  5
1834
 10
60.2877
 20
87.8541
 30
0.000000
  70
    32
  0
VERTEX
  8
SAPA_FOGBAND
  5
1835
 10
60.3748
 20
87.8800
 30
0.000000
  70
    32
  0
VERTEX
  8
SAPA_FOGBAND
  5
1836
 10
60.4610
 20
87.9132
 30
0.000000
  70
    32
  0
VERTEX
  8
SAPA_FOGBAND
  5
1837
 10
60.5461
 20
87.9536
 30
0.000000
  70
    32
  0
VERTEX
  8
SAPA_FOGBAND
  5
1838
 10
60.6300
 20
88.0011
 30
0.000000
  70
    32
  0
VERTEX
  8
SAPA_FOGBAND
  5
1839
 10
60.7124
 20
88.0556
 30
0.000000
  70
    32
  0
VERTEX
  8
SAPA_FOGBAND
  5
183A
 10
60.7932
 20
88.1170
 30
0.000000
  70
    32
  0
VERTEX
  8
SAPA_FOGBAND
  5
183B
 10
60.8721
 20
88.1850
 30
0.000000
  70
    32
  0
VERTEX
  8
SAPA_FOGBAND
  5
183C
 10
60.9490
 20
88.2597
 30
0.000000
  70
    32
  0
VERTEX
  8
SAPA_FOGBAND
  5
183D
 10
61.0236
 20
88.3407
 30
0.000000
  70
    32
  0
VERTEX
  8
SAPA_FOGBAND
  5
183E
 10
61.0959
 20
88.4279
 30
0.000000
  70
    32
  0
VERTEX
  8
SAPA_FOGBAND
  5
183F
 10
61.1655
 20
88.5211
 30
0.000000
  70
    32
  0
VERTEX
  8
SAPA_FOGBAND
  5
1840
 10
61.2324
 20
88.6200
 30
0.000000
  70
    32
  0
VERTEX
  8
SAPA_FOGBAND
  5
1841
 10
61.2964
 20
88.7244
 30
0.000000
  70
    32
  0
VERTEX
  8
SAPA_FOGBAND
  5
1842
 10
61.3573
 20
88.8341
 30
0.000000
  70
    32
  0
VERTEX
  8
SAPA_FOGBAND
  5
1843
 10
61.4150
 20
88.9487
 30
0.000000
  70
    32
  0
VERTEX
  8
SAPA_FOGBAND
  5
1844
 10
61.4694
 20
89.0681
 30
0.000000
  70
    32
  0
VERTEX
  8
SAPA_FOGBAND
  5
1845
 10
61.5202
 20
89.1919
 30
0.000000
  70
    32
  0
VERTEX
  8
SAPA_FOGBAND
  5
1846
 10
61.5675
 20
89.3198
 30
0.000000
  70
    32
  0
VERTEX
  8
SAPA_FOGBAND
  5
1847
 10
61.6111
 20
89.4516
 30
0.000000
  70
    32
  0
VERTEX
  8
SAPA_FOGBAND
  5
1848
 10
61.6508
 20
89.5869
 30
0.000000
  70
    32
  0
VERTEX
  8
SAPA_FOGBAND
  5
1849
 10
61.6866
 20
89.7253
 30
0.000000
  70
    32
  0
VERTEX
  8
SAPA_FOGBAND
  5
184A
 10
61.7184
 20
89.8666
 30
0.000000
  70
    32
  0
VERTEX
  8
SAPA_FOGBAND
  5
184B
 10
61.7461
 20
90.0104
 30
0.000000
  70
    32
  0
VERTEX
  8
SAPA_FOGBAND
  5
184C
 10
61.7696
 20
90.1563
 30
0.000000
  70
    32
  0
VERTEX
  8
SAPA_FOGBAND
  5
184D
 10
61.7890
 20
90.3041
 30
0.000000
  70
    32
  0
VERTEX
  8
SAPA_FOGBAND
  5
184E
 10
61.8041
 20
90.4533
 30
0.000000
  70
    32
  0
VERTEX
  8
SAPA_FOGBAND
  5
184F
 10
61.8149
 20
90.6036
 30
0.000000
  70
    32
  0
VERTEX
  8
SAPA_FOGBAND
  5
1850
 10
61.8214
 20
90.7546
 30
0.000000
  70
    32
  0
VERTEX
  8
SAPA_FOGBAND
  5
1851
 10
61.8236
 20
90.9060
 30
0.000000
  70
    32
  0
VERTEX
  8
SAPA_FOGBAND
  5
1852
 10
61.8214
 20
91.0574
 30
0.000000
  70
    32
  0
VERTEX
  8
SAPA_FOGBAND
  5
1853
 10
61.8149
 20
91.2084
 30
0.000000
  70
    32
  0
VERTEX
  8
SAPA_FOGBAND
  5
1854
 10
61.8041
 20
91.3587
 30
0.000000
  70
    32
  0
VERTEX
  8
SAPA_FOGBAND
  5
1855
 10
61.7890
 20
91.5079
 30
0.000000
  70
    32
  0
VERTEX
  8
SAPA_FOGBAND
  5
1856
 10
61.7696
 20
91.6556
 30
0.000000
  70
    32
  0
VERTEX
  8
SAPA_FOGBAND
  5
1857
 10
61.7461
 20
91.8016
 30
0.000000
  70
    32
  0
VERTEX
  8
SAPA_FOGBAND
  5
1858
 10
61.7184
 20
91.9453
 30
0.000000
  70
    32
  0
VERTEX
  8
SAPA_FOGBAND
  5
1859
 10
61.6866
 20
92.0866
 30
0.000000
  70
    32
  0
VERTEX
  8
SAPA_FOGBAND
  5
185A
 10
61.6508
 20
92.2251
 30
0.000000
  70
    32
  0
VERTEX
  8
SAPA_FOGBAND
  5
185B
 10
61.6111
 20
92.3603
 30
0.000000
  70
    32
  0
VERTEX
  8
SAPA_FOGBAND
  5
185C
 10
61.5675
 20
92.4921
 30
0.000000
  70
    32
  0
VERTEX
  8
SAPA_FOGBAND
  5
185D
 10
61.5202
 20
92.6200
 30
0.000000
  70
    32
  0
VERTEX
  8
SAPA_FOGBAND
  5
185E
 10
61.4694
 20
92.7438
 30
0.000000
  70
    32
  0
VERTEX
  8
SAPA_FOGBAND
  5
185F
 10
61.4150
 20
92.8632
 30
0.000000
  70
    32
  0
VERTEX
  8
SAPA_FOGBAND
  5
1860
 10
61.3573
 20
92.9779
 30
0.000000
  70
    32
  0
VERTEX
  8
SAPA_FOGBAND
  5
1861
 10
61.2964
 20
93.0875
 30
0.000000
  70
    32
  0
VERTEX
  8
SAPA_FOGBAND
  5
1862
 10
61.2324
 20
93.1920
 30
0.000000
  70
    32
  0
VERTEX
  8
SAPA_FOGBAND
  5
1863
 10
61.1655
 20
93.2909
 30
0.000000
  70
    32
  0
VERTEX
  8
SAPA_FOGBAND
  5
1864
 10
61.0959
 20
93.3840
 30
0.000000
  70
    32
  0
VERTEX
  8
SAPA_FOGBAND
  5
1865
 10
61.0236
 20
93.4712
 30
0.000000
  70
    32
  0
VERTEX
  8
SAPA_FOGBAND
  5
1866
 10
60.9490
 20
93.5522
 30
0.000000
  70
    32
  0
VERTEX
  8
SAPA_FOGBAND
  5
1867
 10
60.8721
 20
93.6269
 30
0.000000
  70
    32
  0
VERTEX
  8
SAPA_FOGBAND
  5
1868
 10
60.7932
 20
93.6950
 30
0.000000
  70
    32
  0
VERTEX
  8
SAPA_FOGBAND
  5
1869
 10
60.7124
 20
93.7563
 30
0.000000
  70
    32
  0
VERTEX
  8
SAPA_FOGBAND
  5
186A
 10
60.6300
 20
93.8108
 30
0.000000
  70
    32
  0
VERTEX
  8
SAPA_FOGBAND
  5
186B
 10
60.5461
 20
93.8583
 30
0.000000
  70
    32
  0
VERTEX
  8
SAPA_FOGBAND
  5
186C
 10
60.4610
 20
93.8987
 30
0.000000
  70
    32
  0
VERTEX
  8
SAPA_FOGBAND
  5
186D
 10
60.3748
 20
93.9319
 30
0.000000
  70
    32
  0
VERTEX
  8
SAPA_FOGBAND
  5
186E
 10
60.2877
 20
93.9578
 30
0.000000
  70
    32
  0
VERTEX
  8
SAPA_FOGBAND
  5
186F
 10
60.2000
 20
93.9763
 30
0.000000
  70
    32
  0
VERTEX
  8
SAPA_FOGBAND
  5
1870
 10
60.1119
 20
93.9875
 30
0.000000
  70
    32
  0
VERTEX
  8
SAPA_FOGBAND
  5
1871
 10
60.0236
 20
93.9912
 30
0.000000
  70
    32
  0
SEQEND
  8
SAPA_FOGBAND
  5
1872
  0
POLYLINE
  5
FBD
  8
SAPA_FOGBAND
 62
     2
 66
     1
 10
0.0
 20
0.0
 30
0.0
 70
     1
  0
VERTEX
  5
174F
  8
SAPA_FOGBAND
 62
     2
 10
54.723592254270621
 20
83.462273347172925
 30
0.0
  0
VERTEX
  5
1750
  8
SAPA_FOGBAND
 62
     2
 10
54.723592254270621
 20
97.142737996471624
 30
0.0
 42
-0.427966335106886
  0
VERTEX
  5
1751
  8
SAPA_FOGBAND
 62
     2
 10
55.037604825629877
 20
97.442410564191633
 30
0.0
  0
VERTEX
  5
1752
  8
SAPA_FOGBAND
 62
     2
 10
63.237604825629873
 20
96.956110656112017
 30
0.0
 42
-0.4005932428724212
  0
VERTEX
  5
1753
  8
SAPA_FOGBAND
 62
     2
 10
63.523592254270618
 20
96.656438088391994
 30
0.0
  0
VERTEX
  5
1754
  8
SAPA_FOGBAND
 62
     2
 10
63.523592254270618
 20
94.842737996471598
 30
0.0
  0
VERTEX
  5
1755
  8
SAPA_FOGBAND
 62
     2
 10
65.223592254270613
 20
94.842737996471598
 30
0.0
 42
-0.4142135623730951
  0
VERTEX
  5
1756
  8
SAPA_FOGBAND
 62
     2
 10
65.523592254270625
 20
94.542737996471615
 30
0.0
  0
VERTEX
  5
1757
  8
SAPA_FOGBAND
 62
     2
 10
65.523592254270625
 20
87.123957232845697
 30
0.0
 42
-0.1379343940649207
  0
VERTEX
  5
1758
  8
SAPA_FOGBAND
 62
     2
 10
65.377015639415831
 20
86.60273892379729
 30
0.0
  0
VERTEX
  5
1759
  8
SAPA_FOGBAND
 62
     2
 10
57.969797401507513
 20
74.682128841947403
 30
0.0
 42
-0.2613472755167645
  0
VERTEX
  5
175A
  8
SAPA_FOGBAND
 62
     2
 10
57.543085708934903
 20
74.442737996471607
 30
0.0
  0
VERTEX
  5
175B
  8
SAPA_FOGBAND
 62
     2
 10
56.548389091771689
 20
74.442737996471607
 30
0.0
 42
-0.3915187749346393
  0
VERTEX
  5
175C
  8
SAPA_FOGBAND
 62
     2
 10
55.551437477766598
 20
75.364715696245128
 30
0.0
  0
VERTEX
  5
175D
  8
SAPA_FOGBAND
 62
     2
 10
54.725116447268071
 20
83.423262197059685
 30
0.0
 42
-0.0195279011117891
  0
SEQEND
  5
175E
  8
SAPA_FOGBAND
 62
     2
  0
DIMENSION
  5
FC8
  8
SAPA_MATT
  2
*D78
 10
249.5005704440793
 20
-35.230926792995433
 30
0.0
 11
129.50057044407939
 21
-32.730926792995433
 31
0.0
 70
     0
  1
237-242
 13
9.5005704440795782
 23
-20.29943199938619
 33
0.0
 14
249.5005704440793
 24
-20.299431999386272
 34
0.0
1001
ACAD
1000
DSTYLE
1002
{
1070
    40
1040
1.0
1002
}
  0
DIMENSION
  5
FCB
  8
SAPA_MATT
  2
*D77
 10
105.6999999967306
 20
96.700568000630128
 30
0.0
 11
103.1999999967306
 21
70.700568000581939
 31
0.0
 70
     0
 13
85.499999996730665
 23
44.700568000533707
 33
0.0
 14
83.900000001551348
 24
96.700568000630156
 34
0.0
 50
270.0
1001
ACAD
1000
DSTYLE
1002
{
1070
    40
1040
1.0
1002
}
  0
DIMENSION
  5
FCC
  8
SAPA_MATT
  2
*D76
 10
85.699999996730611
 20
129.70056800061641
 30
0.0
 11
42.69999999832222
 21
132.20056800061641
 31
0.0
 70
     0
 13
-0.300000000086154
 23
96.19954590830136
 33
0.0
 14
85.699999996730611
 24
74.500568000533661
 34
0.0
1001
ACAD
1000
DSTYLE
1002
{
1070
    40
1040
1.0
1002
}
  0
DIMENSION
  5
FCD
  8
SAPA_MATT
  2
*D75
 10
-20.300000000036182
 20
-0.3004540916627163
 30
0.0
 11
-22.800000000036171
 21
48.199545908319521
 31
0.0
 70
     0
 13
0.199999999885879
 23
96.699545908301758
 33
0.0
 14
-0.0000000000073044
 24
-0.3004540916627221
 34
0.0
 50
270.0
1001
ACAD
1000
DSTYLE
1002
{
1070
    40
1040
1.0
1002
}
  0
VIEWPORT
  5
C4
 67
     1
  8
0
 10
160.5543545598442
 20
116.00969601843509
 30
0.0
 40
404.96977709277462
 41
256.8421457311839
 68
     1
 69
     1
1001
ACAD
1000
MVIEW
1002
{
1070
    16
1010
0.0
1020
0.0
1030
0.0
1010
0.0
1020
0.0
1030
1.0
1040
-1.5707963267948959
1040
256.8421457311839
1040
102.1562485694885
1040
-121.90624046325679
1040
50.0
1040
0.0
1040
0.0
1070
     0
1070
     0
1070
     1
1070
     1
1070
     0
1070
     0
1070
     0
1070
     0
1040
0.0
1040
0.0
1040
0.0
1040
10.0
1040
10.0
1040
10.0
1040
10.0
1070
     0
1002
{
1002
}
1002
}
  0
ENDSEC
  0
EOF
