  0
SECTION
  2
HEADER
  9
$ACADVER
  1
AC1009
  9
$INSBASE
 10
0.0
 20
0.0
 30
0.0
  9
$EXTMIN
 10
-55.954423715370211
 20
-29.026071609587671
 30
0.0
  9
$EXTMAX
 10
154.82503425639501
 20
232.2585821529604
 30
0.0000000195376815
  9
$LIMMIN
 10
0.0
 20
0.0
  9
$LIMMAX
 10
790.0
 20
790.0
  9
$ORTHOMODE
 70
     0
  9
$REGENMODE
 70
     1
  9
$FILLMODE
 70
     1
  9
$QTEXTMODE
 70
     0
  9
$MIRRTEXT
 70
     1
  9
$DRAGMODE
 70
     2
  9
$LTSCALE
 40
4.0
  9
$OSMODE
 70
   167
  9
$ATTMODE
 70
     1
  9
$TEXTSIZE
 40
3.5
  9
$TRACEWID
 40
0.05
  9
$TEXTSTYLE
  7
ISO
  9
$CLAYER
  8
0
  9
$CELTYPE
  6
BYLAYER
  9
$CECOLOR
 62
   256
  9
$DIMSCALE
 40
0.0
  9
$DIMASZ
 40
3.0
  9
$DIMEXO
 40
1.5
  9
$DIMDLI
 40
10.0
  9
$DIMRND
 40
0.0
  9
$DIMDLE
 40
0.0
  9
$DIMEXE
 40
1.5
  9
$DIMTP
 40
0.0
  9
$DIMTM
 40
0.0
  9
$DIMTXT
 40
3.0
  9
$DIMCEN
 40
-5.0
  9
$DIMTSZ
 40
0.0
  9
$DIMTOL
 70
     0
  9
$DIMLIM
 70
     0
  9
$DIMTIH
 70
     0
  9
$DIMTOH
 70
     0
  9
$DIMSE1
 70
     0
  9
$DIMSE2
 70
     0
  9
$DIMTAD
 70
     1
  9
$DIMZIN
 70
     8
  9
$DIMBLK
  1

  9
$DIMASO
 70
     1
  9
$DIMSHO
 70
     1
  9
$DIMPOST
  1

  9
$DIMAPOST
  1

  9
$DIMALT
 70
     0
  9
$DIMALTD
 70
     0
  9
$DIMALTF
 40
25.399999999999999
  9
$DIMLFAC
 40
-1.0
  9
$DIMTOFL
 70
     1
  9
$DIMTVP
 40
0.0
  9
$DIMTIX
 70
     0
  9
$DIMSOXD
 70
     0
  9
$DIMSAH
 70
     0
  9
$DIMBLK1
  1

  9
$DIMBLK2
  1

  9
$DIMSTYLE
  2
MASKIN
  9
$DIMCLRD
 70
   256
  9
$DIMCLRE
 70
   256
  9
$DIMCLRT
 70
     2
  9
$DIMTFAC
 40
1.0
  9
$DIMGAP
 40
1.0
  9
$LUNITS
 70
     2
  9
$LUPREC
 70
     8
  9
$SKETCHINC
 40
0.1
  9
$FILLETRAD
 40
0.0
  9
$AUNITS
 70
     0
  9
$AUPREC
 70
     8
  9
$MENU
  1
ACAD
  9
$ELEVATION
 40
0.0
  9
$PELEVATION
 40
0.0
  9
$THICKNESS
 40
0.0
  9
$LIMCHECK
 70
     0
  9
$BLIPMODE
 70
     0
  9
$CHAMFERA
 40
0.0
  9
$CHAMFERB
 40
0.0
  9
$SKPOLY
 70
     0
  9
$TDCREATE
 40
2457430.5893634032
  9
$TDUPDATE
 40
2457743.4758235072
  9
$TDINDWG
 40
0.1905295023
  9
$TDUSRTIMER
 40
0.1905293866
  9
$USRTIMER
 70
     1
  9
$ANGBASE
 50
0.0
  9
$ANGDIR
 70
     0
  9
$PDMODE
 70
     0
  9
$PDSIZE
 40
0.0
  9
$PLINEWID
 40
0.0
  9
$COORDS
 70
     1
  9
$SPLFRAME
 70
     0
  9
$SPLINETYPE
 70
     6
  9
$SPLINESEGS
 70
     8
  9
$ATTDIA
 70
     1
  9
$ATTREQ
 70
     1
  9
$HANDLING
 70
     1
  9
$HANDSEED
  5
20DE
  9
$SURFTAB1
 70
     6
  9
$SURFTAB2
 70
     6
  9
$SURFTYPE
 70
     6
  9
$SURFU
 70
     6
  9
$SURFV
 70
     6
  9
$UCSNAME
  2

  9
$UCSORG
 10
0.0
 20
0.0
 30
0.0
  9
$UCSXDIR
 10
1.0
 20
0.0
 30
0.0
  9
$UCSYDIR
 10
0.0
 20
1.0
 30
0.0
  9
$PUCSNAME
  2

  9
$PUCSORG
 10
0.0
 20
0.0
 30
0.0
  9
$PUCSXDIR
 10
1.0
 20
0.0
 30
0.0
  9
$PUCSYDIR
 10
0.0
 20
1.0
 30
0.0
  9
$USERI1
 70
     0
  9
$USERI2
 70
     0
  9
$USERI3
 70
     0
  9
$USERI4
 70
     0
  9
$USERI5
 70
     0
  9
$USERR1
 40
0.0
  9
$USERR2
 40
0.0
  9
$USERR3
 40
0.0
  9
$USERR4
 40
0.0
  9
$USERR5
 40
0.0
  9
$WORLDVIEW
 70
     1
  9
$SHADEDGE
 70
     3
  9
$SHADEDIF
 70
    70
  9
$TILEMODE
 70
     1
  9
$MAXACTVP
 70
    16
  9
$PLIMCHECK
 70
     0
  9
$PEXTMIN
 10
1.0000000000000000E+020
 20
1.0000000000000000E+020
 30
1.0000000000000000E+020
  9
$PEXTMAX
 10
-1.0000000000000000E+020
 20
-1.0000000000000000E+020
 30
-1.0000000000000000E+020
  9
$PLIMMIN
 10
-5.069427490234375
 20
-5.8737497329711914
  9
$PLIMMAX
 10
291.89889526367187
 20
204.0995779037475
  9
$UNITMODE
 70
     0
  9
$VISRETAIN
 70
     1
  9
$PLINEGEN
 70
     0
  9
$PSLTSCALE
 70
     1
  0
ENDSEC
  0
SECTION
  2
TABLES
  0
TABLE
  2
VPORT
 70
     1
  0
VPORT
  2
*ACTIVE
 70
     0
 10
0.0
 20
0.0
 11
1.0
 21
1.0
 12
49.951249213555961
 22
308.31201315374238
 13
0.0
 23
0.0
 14
1.0
 24
1.0
 15
0.0
 25
0.0
 16
0.0
 26
0.0
 36
1.0
 17
0.0
 27
0.0
 37
0.0
 40
388.97959551369888
 41
1.6070763500931089
 42
50.0
 43
0.0
 44
0.0
 50
0.0
 51
0.0
 71
     0
 72
   100
 73
     1
 74
     1
 75
     0
 76
     0
 77
     0
 78
     0
  0
ENDTAB
  0
TABLE
  2
LTYPE
 70
    28
  0
LTYPE
  2
CONTINUOUS
 70
     0
  3
Solid line
 72
    65
 73
     0
 40
0.0
  0
LTYPE
  2
BYGG-035273$0$NEWDOT
 70
     0
  3
____ . ____ . ____ . ____ . ____ . ____ . ____
 72
    65
 73
     4
 40
2.0
 49
1.0
 49
-0.5
 49
0.0
 49
-0.5
  0
LTYPE
  2
BYGG-035273$0$DASHDOT
 70
     0
  3
__ . __ . __ . __ . __ . __ . __ . __ . __ . __
 72
    65
 73
     4
 40
1.0
 49
0.5
 49
-0.25
 49
0.0
 49
-0.25
  0
LTYPE
  2
BYGG-035273$0$DASHED
 70
     0
  3
__ __ __ __ __ __ __ __ __ __ __ __ __ __ __
 72
    65
 73
     2
 40
0.75
 49
0.5
 49
-0.25
  0
LTYPE
  2
BYGG-035273$0$PHANTOM
 70
     0
  3
Phantom ______  __  __  ______  __  __  ______
 72
    65
 73
     6
 40
63.5
 49
31.75
 49
-6.3499999999999988
 49
6.3499999999999988
 49
-6.3499999999999988
 49
6.3499999999999988
 49
-6.3499999999999988
  0
LTYPE
  2
BYGG-024882$0$NEWDOT
 70
     0
  3
____ . ____ . ____ . ____ . ____ . ____ . ____
 72
    65
 73
     4
 40
2.0
 49
1.0
 49
-0.5
 49
0.0
 49
-0.5
  0
LTYPE
  2
BYGG-020132$0$NEWDOT
 70
     0
  3
____ . ____ . ____ . ____ . ____ . ____ . ____
 72
    65
 73
     4
 40
2.0
 49
1.0
 49
-0.5
 49
0.0
 49
-0.5
  0
LTYPE
  2
BYGG-020132$0$DASHDOT
 70
     0
  3
__ . __ . __ . __ . __ . __ . __ . __ . __ . __
 72
    65
 73
     4
 40
1.0
 49
0.5
 49
-0.25
 49
0.0
 49
-0.25
  0
LTYPE
  2
BYGG-024798$0$NEWDOT
 70
     0
  3
____ . ____ . ____ . ____ . ____ . ____ . ____
 72
    65
 73
     4
 40
2.0
 49
1.0
 49
-0.5
 49
0.0
 49
-0.5
  0
LTYPE
  2
BYGG-024799$0$NEWDOT
 70
     0
  3
____ . ____ . ____ . ____ . ____ . ____ . ____
 72
    65
 73
     4
 40
2.0
 49
1.0
 49
-0.5
 49
0.0
 49
-0.5
  0
LTYPE
  2
BYGG-024799$0$DASHDOT
 70
     0
  3
__ . __ . __ . __ . __ . __ . __ . __ . __ . __
 72
    65
 73
     4
 40
1.0
 49
0.5
 49
-0.25
 49
0.0
 49
-0.25
  0
LTYPE
  2
BYGG-025652$0$NEWDOT
 70
     0
  3
____ . ____ . ____ . ____ . ____ . ____ . ____
 72
    65
 73
     4
 40
2.0
 49
1.0
 49
-0.5
 49
0.0
 49
-0.5
  0
LTYPE
  2
BYGG-025652$0$DASHDOT
 70
     0
  3
__ . __ . __ . __ . __ . __ . __ . __ . __ . __
 72
    65
 73
     4
 40
1.0
 49
0.5
 49
-0.25
 49
0.0
 49
-0.25
  0
LTYPE
  2
BYGG-025652$0$DASHED
 70
     0
  3
__ __ __ __ __ __ __ __ __ __ __ __ __ __ __
 72
    65
 73
     2
 40
0.75
 49
0.5
 49
-0.25
  0
LTYPE
  2
BYGG-025652$0$PHANTOM
 70
     0
  3
Phantom ______  __  __  ______  __  __  ______
 72
    65
 73
     6
 40
63.5
 49
31.75
 49
-6.3499999999999988
 49
6.3499999999999988
 49
-6.3499999999999988
 49
6.3499999999999988
 49
-6.3499999999999988
  0
LTYPE
  2
BYGG-014411$0$NEWDOT
 70
     0
  3
____ . ____ . ____ . ____ . ____ . ____ . ____
 72
    65
 73
     4
 40
2.0
 49
1.0
 49
-0.5
 49
0.0
 49
-0.5
  0
LTYPE
  2
BYGG-014411$0$ZIGZAG
 70
     0
  3
Zig zag /\/\/\/\/\/\/\/\/\/\/\/\/\/\/\/\/\/\/\/\/\/\/\/
 72
    65
 73
     4
 40
20.32254
 49
0.00254
 49
-5.0800000000000001
 49
-10.16
 49
-5.0800000000000001
  0
LTYPE
  2
BYGG-036381$0$NEWDOT
 70
     0
  3
____ . ____ . ____ . ____ . ____ . ____ . ____
 72
    65
 73
     4
 40
2.0
 49
1.0
 49
-0.5
 49
0.0
 49
-0.5
  0
LTYPE
  2
BYGG-036381$0$ZIGZAG
 70
     0
  3
Zig zag /\/\/\/\/\/\/\/\/\/\/\/\/\/\/\/\/\/\/\/\/\/\/\/
 72
    65
 73
     4
 40
20.32254
 49
0.00254
 49
-5.0800000000000001
 49
-10.16
 49
-5.0800000000000001
  0
LTYPE
  2
BYGG-024882$0$DASHDOT
 70
     0
  3
__ . __ . __ . __ . __ . __ . __ . __ . __ . __
 72
    65
 73
     4
 40
1.0
 49
0.5
 49
-0.25
 49
0.0
 49
-0.25
  0
LTYPE
  2
BYGG-014090$0$PHANTOM2
 70
     0
  3
Phantom (.5x) ___ _ _ ___ _ _ ___ _ _ ___ _ _
 72
    65
 73
     6
 40
1.25
 49
0.625
 49
-0.125
 49
0.125
 49
-0.125
 49
0.125
 49
-0.125
  0
LTYPE
  2
BYGG-030185$0$PHANTOM2
 70
     0
  3
Phantom (.5x) ___ _ _ ___ _ _ ___ _ _ ___ _ _
 72
    65
 73
     6
 40
1.25
 49
0.625
 49
-0.125
 49
0.125
 49
-0.125
 49
0.125
 49
-0.125
  0
LTYPE
  2
BYGG-024798$0$DASHDOT
 70
     0
  3
__ . __ . __ . __ . __ . __ . __ . __ . __ . __
 72
    65
 73
     4
 40
1.0
 49
0.5
 49
-0.25
 49
0.0
 49
-0.25
  0
LTYPE
  2
BYGG-014089$0$PHANTOM2
 70
     0
  3
Phantom (.5x) ___ _ _ ___ _ _ ___ _ _ ___ _ _
 72
    65
 73
     6
 40
1.25
 49
0.625
 49
-0.125
 49
0.125
 49
-0.125
 49
0.125
 49
-0.125
  0
LTYPE
  2
BYGG-014108$0$PHANTOM2
 70
     0
  3
Phantom (.5x) ___ _ _ ___ _ _ ___ _ _ ___ _ _
 72
    65
 73
     6
 40
1.25
 49
0.625
 49
-0.125
 49
0.125
 49
-0.125
 49
0.125
 49
-0.125
  0
LTYPE
  2
BYGG-025652$0$PHANTOM2
 70
     0
  3
Phantom (.5x) ___ _ _ ___ _ _ ___ _ _ ___ _ _
 72
    65
 73
     6
 40
1.25
 49
0.625
 49
-0.125
 49
0.125
 49
-0.125
 49
0.125
 49
-0.125
  0
LTYPE
  2
BYGG-014411$0$PHANTOM2
 70
     0
  3
Phantom (.5x) ___ _ _ ___ _ _ ___ _ _ ___ _ _
 72
    65
 73
     6
 40
1.25
 49
0.625
 49
-0.125
 49
0.125
 49
-0.125
 49
0.125
 49
-0.125
  0
LTYPE
  2
BYGG-014088$0$PHANTOM2
 70
     0
  3
Phantom (.5x) ___ _ _ ___ _ _ ___ _ _ ___ _ _
 72
    65
 73
     6
 40
1.25
 49
0.625
 49
-0.125
 49
0.125
 49
-0.125
 49
0.125
 49
-0.125
  0
ENDTAB
  0
TABLE
  2
LAYER
 70
   150
  0
LAYER
  2
0
 70
     0
 62
     7
  6
CONTINUOUS
  0
LAYER
  2
DEFPOINTS
 70
     0
 62
     7
  6
CONTINUOUS
  0
LAYER
  2
SAPA_ANSLUTNING
 70
     0
 62
     6
  6
CONTINUOUS
  0
LAYER
  2
SAPA_ARTIKELNR
 70
     0
 62
     4
  6
CONTINUOUS
  0
LAYER
  2
SAPA_FYLLNING
 70
     0
 62
     4
  6
CONTINUOUS
  0
LAYER
  2
SAPA_MATT
 70
     0
 62
     1
  6
CONTINUOUS
  0
LAYER
  2
SAPA_GLAS
 70
     0
 62
     4
  6
CONTINUOUS
  0
LAYER
  2
SAPA_FOGBAND
 70
     0
 62
     2
  6
CONTINUOUS
  0
LAYER
  2
SAPA_PROFIL
 70
     0
 62
     7
  6
CONTINUOUS
  0
ENDTAB
  0
TABLE
  2
STYLE
 70
    39
  0
STYLE
  2
STANDARD
 70
     0
 40
0.0
 41
1.0
 50
0.0
 71
     0
 42
0.2
  3
txt
  4

  0
STYLE
  2
ISO
 70
     0
 40
0.0
 41
1.0
 50
0.0
 71
     0
 42
3.5
  3
txt
  4

  0
STYLE
  2

 70
     1
 40
0.0
 41
1.0
 50
0.0
 71
     0
 42
0.2
  3
ltypeshp.shx
  4

  0
STYLE
  2
BYGG-035273$0$STANDARD
 70
     0
 40
0.0
 41
1.0
 50
0.0
 71
     0
 42
0.2
  3
txt
  4

  0
STYLE
  2
BYGG-035273$0$ISO
 70
     0
 40
0.0
 41
1.0
 50
0.0
 71
     0
 42
3.5
  3
txt
  4

  0
STYLE
  2
BYGG-028980$0$STANDARD
 70
     0
 40
0.0
 41
1.0
 50
0.0
 71
     0
 42
0.2
  3
txt
  4

  0
STYLE
  2
BYGG-028980$0$ISO
 70
     0
 40
0.0
 41
1.0
 50
0.0
 71
     0
 42
3.5
  3
txt
  4

  0
STYLE
  2
BYGG-024882$0$STANDARD
 70
     0
 40
0.0
 41
1.0
 50
0.0
 71
     0
 42
0.2
  3
txt
  4

  0
STYLE
  2
BYGG-024882$0$ISO
 70
     0
 40
0.0
 41
1.0
 50
0.0
 71
     0
 42
3.5
  3
txt
  4

  0
STYLE
  2
BYGG-020132$0$STANDARD
 70
     0
 40
0.0
 41
1.0
 50
0.0
 71
     0
 42
0.2
  3
txt
  4

  0
STYLE
  2
BYGG-020132$0$ISO
 70
     0
 40
0.0
 41
1.0
 50
0.0
 71
     0
 42
3.5
  3
txt
  4

  0
STYLE
  2
BYGG-014090$0$STANDARD
 70
     0
 40
0.0
 41
1.0
 50
0.0
 71
     0
 42
0.2
  3
txt
  4

  0
STYLE
  2
BYGG-014090$0$SIMPLEX
 70
     0
 40
0.0
 41
1.0
 50
0.0
 71
     0
 42
0.2
  3
simplex
  4

  0
STYLE
  2
BYGG-015465$0$STANDARD
 70
     0
 40
0.0
 41
1.0
 50
0.0
 71
     0
 42
0.2
  3
txt
  4

  0
STYLE
  2
BYGG-015465$0$ISO
 70
     0
 40
0.0
 41
1.0
 50
0.0
 71
     0
 42
3.5
  3
txt
  4

  0
STYLE
  2
BYGG-01443301$0$STANDARD
 70
     0
 40
0.0
 41
1.0
 50
0.0
 71
     0
 42
0.2
  3
txt
  4

  0
STYLE
  2
BYGG-01443301$0$ISO
 70
     0
 40
0.0
 41
1.0
 50
0.0
 71
     0
 42
3.5
  3
isocp3.shx
  4

  0
STYLE
  2
BYGG-030185$0$STANDARD
 70
     0
 40
0.0
 41
1.0
 50
0.0
 71
     0
 42
0.2
  3
txt
  4

  0
STYLE
  2
BYGG-030185$0$ISO
 70
     0
 40
0.0
 41
1.0
 50
0.0
 71
     0
 42
7.0
  3
ISO
  4

  0
STYLE
  2
BYGG-024798$0$STANDARD
 70
     0
 40
0.0
 41
1.0
 50
0.0
 71
     0
 42
0.2
  3
txt
  4

  0
STYLE
  2
BYGG-024798$0$ISO
 70
     0
 40
0.0
 41
1.0
 50
0.0
 71
     0
 42
3.5
  3
txt
  4

  0
STYLE
  2
BYGG-024799$0$STANDARD
 70
     0
 40
0.0
 41
1.0
 50
0.0
 71
     0
 42
0.2
  3
txt
  4

  0
STYLE
  2
BYGG-024799$0$ISO
 70
     0
 40
0.0
 41
1.0
 50
0.0
 71
     0
 42
3.5
  3
txt
  4

  0
STYLE
  2
BYGG-014089$0$STANDARD
 70
     0
 40
0.0
 41
1.0
 50
0.0
 71
     0
 42
0.2
  3
txt
  4

  0
STYLE
  2
BYGG-014089$0$ANNOTATIVE
 70
     0
 40
0.0
 41
1.0
 50
0.0
 71
     0
 42
3.5
  3
txt
  4

  0
STYLE
  2
BYGG-014108$0$STANDARD
 70
     0
 40
0.0
 41
1.0
 50
0.0
 71
     0
 42
0.4
  3
txt
  4

  0
STYLE
  2
BYGG-014108$0$SIMPLEX
 70
     0
 40
0.0
 41
1.0
 50
0.0
 71
     0
 42
0.2
  3
simplex
  4

  0
STYLE
  2
BYGG-019611$0$STANDARD
 70
     0
 40
0.0
 41
1.0
 50
0.0
 71
     0
 42
0.2
  3
txt
  4

  0
STYLE
  2
BYGG-019611$0$ISO
 70
     0
 40
0.0
 41
1.0
 50
0.0
 71
     0
 42
3.5
  3
txt
  4

  0
STYLE
  2
BYGG-025652$0$STANDARD
 70
     0
 40
0.0
 41
1.0
 50
0.0
 71
     0
 42
0.2
  3
txt
  4

  0
STYLE
  2
BYGG-025652$0$ISO
 70
     0
 40
0.0
 41
1.0
 50
0.0
 71
     0
 42
3.5
  3
txt
  4

  0
STYLE
  2
BYGG-025652$0$ANNOTATIVE
 70
     0
 40
0.0
 41
1.0
 50
0.0
 71
     0
 42
0.2
  3
txt
  4

  0
STYLE
  2
BYGG-014411$0$STANDARD
 70
     0
 40
0.0
 41
1.0
 50
0.0
 71
     0
 42
0.2
  3
txt
  4

  0
STYLE
  2
BYGG-014411$0$ISO
 70
     0
 40
0.0
 41
1.0
 50
0.0
 71
     0
 42
3.5
  3
isocp3.shx
  4

  0
STYLE
  2
BYGG-014088$0$STANDARD
 70
     0
 40
0.0
 41
1.0
 50
0.0
 71
     0
 42
0.4
  3
txt
  4

  0
STYLE
  2
BYGG-036382$0$STANDARD
 70
     0
 40
0.0
 41
1.0
 50
0.0
 71
     0
 42
0.2
  3
txt
  4

  0
STYLE
  2
BYGG-036382$0$ISO
 70
     0
 40
0.0
 41
1.0
 50
0.0
 71
     0
 42
3.5
  3
txt
  4

  0
STYLE
  2
BYGG-036381$0$STANDARD
 70
     0
 40
0.0
 41
1.0
 50
0.0
 71
     0
 42
0.2
  3
txt
  4

  0
STYLE
  2
BYGG-036381$0$ISO
 70
     0
 40
0.0
 41
1.0
 50
0.0
 71
     0
 42
3.5
  3
txt
  4

  0
ENDTAB
  0
TABLE
  2
VIEW
 70
     0
  0
ENDTAB
  0
TABLE
  2
UCS
 70
     0
  0
ENDTAB
  0
TABLE
  2
APPID
 70
    33
  0
APPID
  2
ACAD
 70
     0
  0
APPID
  2
ACAD_DSTYLE_DIMTEXT_FILL
 70
     0
  0
APPID
  2
ACAD_DSTYLE_DIMEXT_LENGTH
 70
     0
  0
APPID
  2
ACAD_DSTYLE_DIMEXT_ENABLED
 70
     0
  0
APPID
  2
ACAD_DSTYLE_DIM_LINETYPE
 70
     0
  0
APPID
  2
ACAD_DSTYLE_DIM_EXT1_LINETYPE
 70
     0
  0
APPID
  2
ACAD_DSTYLE_DIM_EXT2_LINETYPE
 70
     0
  0
APPID
  2
ACAD_DSTYLE_DIMJOGGED_JOGA
 70
     0
  0
APPID
  2
ACAD_DSTYLE_DIMARC_LENGTH_
 70
     0
  0
APPID
  2
ACAD_PSEXT
 70
     0
  0
APPID
  2
ACAD_MLEADERVER
 70
     0
  0
APPID
  2
ACAD_NAV_VCDISPLAY
 70
     0
  0
APPID
  2
ACAECLAYERSTANDARD
 70
     0
  0
APPID
  2
ACAD_DSTYLE_DIMRADIAL_EXTENSION
 70
     0
  0
APPID
  2
ACAD_EXEMPT_FROM_CAD_STANDARDS
 70
     0
  0
APPID
  2
ACAD_OBJECT_CHANGE_GUID
 70
     0
  0
APPID
  2
ACADANNOTATIVE
 70
     0
  0
APPID
  2
ACCMTRANSPARENCY
 70
     0
  0
APPID
  2
ACDBDYNAMICBLOCKGUID
 70
     0
  0
APPID
  2
ACDBBLOCKREPETAG
 70
     0
  0
APPID
  2
AMG_ARCHIVE11
 70
     0
  0
APPID
  2
AVE_RENDER
 70
     0
  0
APPID
  2
AVE_ENTITY_MATERIAL
 70
     0
  0
APPID
  2
AVE_FINISH
 70
     0
  0
APPID
  2
AVE_MATERIAL
 70
     0
  0
APPID
  2
AVE_GLOBAL
 70
     0
  0
APPID
  2
4M_RENDER
 70
     0
  0
APPID
  2
LIBMAN
 70
     0
  0
APPID
  2
AUTOBUILD
 70
     0
  0
APPID
  2
ACAUTHENVIRON
 70
     0
  0
APPID
  2
ACDBDYNAMICBLOCKTRUENAME
 70
     0
  0
APPID
  2
ACADANNOMONITORALERTICONDI
 70
     0
  0
APPID
  2
AEC_XDATA_BOUND_SPACE
 70
     0
  0
ENDTAB
  0
TABLE
  2
DIMSTYLE
 70
    34
  0
DIMSTYLE
  2
STANDARD
 70
     0
  3

  4

  5

  6

  7

 40
1.0
 41
0.18
 42
0.0625
 43
0.38
 44
0.18
 45
0.0
 46
0.0
 47
0.0
 48
0.0
140
0.18
141
0.09
142
0.0
143
25.399999999999999
144
1.0
145
0.0
146
1.0
147
0.09
 71
     0
 72
     0
 73
     1
 74
     1
 75
     0
 76
     0
 77
     0
 78
     0
170
     0
171
     2
172
     0
173
     0
174
     0
175
     0
176
     0
177
     0
178
     0
  0
DIMSTYLE
  2
MASKIN
 70
     0
  3

  4

  5

  6

  7

 40
0.0
 41
3.0
 42
1.5
 43
10.0
 44
1.5
 45
0.0
 46
0.0
 47
0.0
 48
0.0
140
3.0
141
-5.0
142
0.0
143
25.399999999999999
144
-1.0
145
0.0
146
1.0
147
1.0
 71
     0
 72
     0
 73
     0
 74
     0
 75
     0
 76
     0
 77
     1
 78
     8
170
     0
171
     0
172
     1
173
     0
174
     0
175
     0
176
   256
177
   256
178
     2
  0
DIMSTYLE
  2
BYGG-035273$0$STANDARD
 70
     0
  3

  4

  5

  6

  7

 40
1.0
 41
0.18
 42
0.0625
 43
0.38
 44
0.18
 45
0.0
 46
0.0
 47
0.0
 48
0.0
140
0.18
141
0.09
142
0.0
143
25.399999999999999
144
1.0
145
0.0
146
1.0
147
0.09
 71
     0
 72
     0
 73
     1
 74
     1
 75
     0
 76
     0
 77
     0
 78
     0
170
     0
171
     2
172
     0
173
     0
174
     0
175
     0
176
     0
177
     0
178
     0
  0
DIMSTYLE
  2
BYGG-035273$0$MASKIN
 70
     0
  3

  4

  5

  6

  7

 40
0.0
 41
3.0
 42
1.5
 43
10.0
 44
1.5
 45
0.0
 46
0.0
 47
0.0
 48
0.0
140
3.0
141
-5.0
142
0.0
143
25.399999999999999
144
-1.0
145
0.0
146
1.0
147
1.0
 71
     0
 72
     0
 73
     0
 74
     0
 75
     0
 76
     0
 77
     1
 78
     8
170
     0
171
     0
172
     1
173
     0
174
     0
175
     0
176
   256
177
   256
178
     2
  0
DIMSTYLE
  2
BYGG-028980$0$STANDARD
 70
     0
  3

  4

  5

  6

  7

 40
1.0
 41
0.18
 42
0.0625
 43
0.38
 44
0.18
 45
0.0
 46
0.0
 47
0.0
 48
0.0
140
0.18
141
0.09
142
0.0
143
25.399999999999999
144
1.0
145
0.0
146
1.0
147
0.09
 71
     0
 72
     0
 73
     1
 74
     1
 75
     0
 76
     0
 77
     0
 78
     0
170
     0
171
     2
172
     0
173
     0
174
     0
175
     0
176
     0
177
     0
178
     0
  0
DIMSTYLE
  2
BYGG-028980$0$MASKIN
 70
     0
  3

  4

  5

  6

  7

 40
0.0
 41
3.0
 42
1.5
 43
10.0
 44
1.5
 45
0.0
 46
0.0
 47
0.0
 48
0.0
140
3.0
141
-5.0
142
0.0
143
25.399999999999999
144
-1.0
145
0.0
146
1.0
147
1.0
 71
     0
 72
     0
 73
     0
 74
     0
 75
     0
 76
     0
 77
     1
 78
     8
170
     0
171
     0
172
     1
173
     0
174
     0
175
     0
176
   256
177
   256
178
     2
  0
DIMSTYLE
  2
BYGG-024882$0$STANDARD
 70
     0
  3

  4

  5

  6

  7

 40
1.0
 41
0.18
 42
0.0625
 43
0.38
 44
0.18
 45
0.0
 46
0.0
 47
0.0
 48
0.0
140
0.18
141
0.09
142
0.0
143
25.399999999999999
144
1.0
145
0.0
146
1.0
147
0.09
 71
     0
 72
     0
 73
     1
 74
     1
 75
     0
 76
     0
 77
     0
 78
     0
170
     0
171
     2
172
     0
173
     0
174
     0
175
     0
176
     0
177
     0
178
     0
  0
DIMSTYLE
  2
BYGG-024882$0$MASKIN
 70
     0
  3

  4

  5

  6

  7

 40
0.0
 41
3.0
 42
1.5
 43
10.0
 44
1.5
 45
0.0
 46
0.0
 47
0.0
 48
0.0
140
3.0
141
-5.0
142
0.0
143
25.399999999999999
144
-1.0
145
0.0
146
1.0
147
1.0
 71
     0
 72
     0
 73
     0
 74
     0
 75
     0
 76
     0
 77
     1
 78
     8
170
     0
171
     0
172
     1
173
     0
174
     0
175
     0
176
   256
177
   256
178
     2
  0
DIMSTYLE
  2
BYGG-020132$0$MASKIN
 70
     0
  3

  4

  5

  6

  7

 40
0.0
 41
3.0
 42
1.5
 43
10.0
 44
1.5
 45
0.0
 46
0.0
 47
0.0
 48
0.0
140
3.0
141
-5.0
142
0.0
143
25.399999999999999
144
-1.0
145
0.0
146
1.0
147
1.0
 71
     0
 72
     0
 73
     0
 74
     0
 75
     0
 76
     0
 77
     1
 78
     8
170
     0
171
     0
172
     1
173
     0
174
     0
175
     0
176
   256
177
   256
178
     2
  0
DIMSTYLE
  2
BYGG-020132$0$STANDARD
 70
     0
  3

  4

  5

  6

  7

 40
1.0
 41
0.18
 42
0.0625
 43
0.38
 44
0.18
 45
0.0
 46
0.0
 47
0.0
 48
0.0
140
0.18
141
0.09
142
0.0
143
25.399999999999999
144
1.0
145
0.0
146
1.0
147
0.09
 71
     0
 72
     0
 73
     1
 74
     1
 75
     0
 76
     0
 77
     0
 78
     0
170
     0
171
     2
172
     0
173
     0
174
     0
175
     0
176
     0
177
     0
178
     0
  0
DIMSTYLE
  2
BYGG-014090$0$STANDARD
 70
     0
  3

  4

  5

  6

  7

 40
1.0
 41
0.18
 42
0.0625
 43
0.38
 44
0.18
 45
0.0
 46
0.0
 47
0.0
 48
0.0
140
0.18
141
0.09
142
0.0
143
25.399999999999999
144
1.0
145
0.0
146
1.0
147
0.09
 71
     0
 72
     0
 73
     1
 74
     1
 75
     0
 76
     0
 77
     0
 78
     0
170
     0
171
     2
172
     0
173
     0
174
     0
175
     0
176
     0
177
     0
178
     0
  0
DIMSTYLE
  2
BYGG-015465$0$STANDARD
 70
     0
  3

  4

  5

  6

  7

 40
1.0
 41
0.18
 42
0.0625
 43
0.38
 44
0.18
 45
0.0
 46
0.0
 47
0.0
 48
0.0
140
0.18
141
0.09
142
0.0
143
25.399999999999999
144
1.0
145
0.0
146
1.0
147
0.09
 71
     0
 72
     0
 73
     1
 74
     1
 75
     0
 76
     0
 77
     0
 78
     0
170
     0
171
     2
172
     0
173
     0
174
     0
175
     0
176
     0
177
     0
178
     0
  0
DIMSTYLE
  2
BYGG-015465$0$MASKIN
 70
     0
  3

  4

  5

  6

  7

 40
0.0
 41
3.0
 42
1.5
 43
10.0
 44
1.5
 45
0.0
 46
0.0
 47
0.0
 48
0.0
140
3.0
141
-5.0
142
0.0
143
25.399999999999999
144
-1.0
145
0.0
146
1.0
147
1.0
 71
     0
 72
     0
 73
     0
 74
     0
 75
     0
 76
     0
 77
     1
 78
     8
170
     0
171
     0
172
     1
173
     0
174
     0
175
     0
176
   256
177
   256
178
     2
  0
DIMSTYLE
  2
BYGG-01443301$0$MASKIN
 70
     0
  3

  4

  5

  6

  7

 40
0.0
 41
3.0
 42
1.5
 43
10.0
 44
1.5
 45
0.0
 46
0.0
 47
0.0
 48
0.0
140
3.0
141
-5.0
142
0.0
143
25.399999999999999
144
-1.0
145
0.0
146
1.0
147
1.0
 71
     0
 72
     0
 73
     0
 74
     0
 75
     0
 76
     0
 77
     1
 78
     8
170
     0
171
     0
172
     1
173
     0
174
     0
175
     0
176
   256
177
   256
178
   256
  0
DIMSTYLE
  2
BYGG-030185$0$STANDARD
 70
     0
  3

  4

  5

  6

  7

 40
1.0
 41
0.18
 42
0.0625
 43
0.38
 44
0.18
 45
0.0
 46
0.0
 47
0.0
 48
0.0
140
0.18
141
0.09
142
0.0
143
25.399999999999999
144
1.0
145
0.0
146
1.0
147
0.09
 71
     0
 72
     0
 73
     1
 74
     1
 75
     0
 76
     0
 77
     0
 78
     0
170
     0
171
     2
172
     0
173
     0
174
     0
175
     0
176
     0
177
     0
178
     0
  0
DIMSTYLE
  2
BYGG-030185$0$MASKIN
 70
     0
  3

  4

  5

  6

  7

 40
0.0
 41
3.0
 42
1.5
 43
10.0
 44
1.5
 45
0.0
 46
0.0
 47
0.0
 48
0.0
140
3.0
141
-5.0
142
0.0
143
25.399999999999999
144
-1.0
145
0.0
146
1.0
147
1.0
 71
     0
 72
     0
 73
     0
 74
     1
 75
     0
 76
     0
 77
     1
 78
     8
170
     0
171
     0
172
     1
173
     0
174
     0
175
     0
176
   256
177
   256
178
     2
  0
DIMSTYLE
  2
BYGG-024798$0$MASKIN
 70
     0
  3

  4

  5

  6

  7

 40
0.0
 41
3.0
 42
1.5
 43
10.0
 44
1.5
 45
0.0
 46
0.0
 47
0.0
 48
0.0
140
3.0
141
-5.0
142
0.0
143
25.399999999999999
144
-1.0
145
0.0
146
1.0
147
1.0
 71
     0
 72
     0
 73
     0
 74
     0
 75
     0
 76
     0
 77
     1
 78
     8
170
     0
171
     0
172
     1
173
     0
174
     0
175
     0
176
   256
177
   256
178
     2
  0
DIMSTYLE
  2
BYGG-024798$0$STANDARD
 70
     0
  3

  4

  5

  6

  7

 40
1.0
 41
0.18
 42
0.0625
 43
0.38
 44
0.18
 45
0.0
 46
0.0
 47
0.0
 48
0.0
140
0.18
141
0.09
142
0.0
143
25.399999999999999
144
1.0
145
0.0
146
1.0
147
0.09
 71
     0
 72
     0
 73
     1
 74
     1
 75
     0
 76
     0
 77
     0
 78
     0
170
     0
171
     2
172
     0
173
     0
174
     0
175
     0
176
     0
177
     0
178
     0
  0
DIMSTYLE
  2
BYGG-024799$0$MASKIN
 70
     0
  3

  4

  5

  6

  7

 40
0.0
 41
3.0
 42
1.5
 43
10.0
 44
1.5
 45
0.0
 46
0.0
 47
0.0
 48
0.0
140
3.0
141
-5.0
142
0.0
143
25.399999999999999
144
-1.0
145
0.0
146
1.0
147
1.0
 71
     0
 72
     0
 73
     0
 74
     0
 75
     0
 76
     0
 77
     1
 78
     8
170
     0
171
     0
172
     1
173
     0
174
     0
175
     0
176
   256
177
   256
178
     2
  0
DIMSTYLE
  2
BYGG-024799$0$STANDARD
 70
     0
  3

  4

  5

  6

  7

 40
1.0
 41
0.18
 42
0.0625
 43
0.38
 44
0.18
 45
0.0
 46
0.0
 47
0.0
 48
0.0
140
0.18
141
0.09
142
0.0
143
25.399999999999999
144
1.0
145
0.0
146
1.0
147
0.09
 71
     0
 72
     0
 73
     1
 74
     1
 75
     0
 76
     0
 77
     0
 78
     0
170
     0
171
     2
172
     0
173
     0
174
     0
175
     0
176
     0
177
     0
178
     0
  0
DIMSTYLE
  2
BYGG-014089$0$STANDARD
 70
     0
  3

  4

  5

  6

  7

 40
1.0
 41
0.18
 42
0.0625
 43
0.38
 44
0.18
 45
0.0
 46
0.0
 47
0.0
 48
0.0
140
0.18
141
0.09
142
0.0
143
25.399999999999999
144
1.0
145
0.0
146
1.0
147
0.09
 71
     0
 72
     0
 73
     1
 74
     1
 75
     0
 76
     0
 77
     0
 78
     0
170
     0
171
     2
172
     0
173
     0
174
     0
175
     0
176
     0
177
     0
178
     0
  0
DIMSTYLE
  2
BYGG-014108$0$STANDARD
 70
     0
  3

  4

  5

  6

  7

 40
1.0
 41
0.18
 42
0.0625
 43
0.38
 44
0.18
 45
0.0
 46
0.0
 47
0.0
 48
0.0
140
0.18
141
0.09
142
0.0
143
25.399999999999999
144
1.0
145
0.0
146
1.0
147
0.09
 71
     0
 72
     0
 73
     1
 74
     1
 75
     0
 76
     0
 77
     0
 78
     0
170
     0
171
     2
172
     0
173
     0
174
     0
175
     0
176
     0
177
     0
178
     0
  0
DIMSTYLE
  2
BYGG-019611$0$STANDARD
 70
     0
  3

  4

  5

  6

  7

 40
1.0
 41
0.18
 42
0.0625
 43
0.38
 44
0.18
 45
0.0
 46
0.0
 47
0.0
 48
0.0
140
0.18
141
0.09
142
0.0
143
25.399999999999999
144
1.0
145
0.0
146
1.0
147
0.09
 71
     0
 72
     0
 73
     1
 74
     1
 75
     0
 76
     0
 77
     0
 78
     0
170
     0
171
     2
172
     0
173
     0
174
     0
175
     0
176
     0
177
     0
178
     0
  0
DIMSTYLE
  2
BYGG-019611$0$MASKIN
 70
     0
  3

  4

  5

  6

  7

 40
0.0
 41
3.0
 42
1.5
 43
10.0
 44
1.5
 45
0.0
 46
0.0
 47
0.0
 48
0.0
140
3.0
141
-5.0
142
0.0
143
25.399999999999999
144
-1.0
145
0.0
146
1.0
147
1.0
 71
     0
 72
     0
 73
     0
 74
     0
 75
     0
 76
     0
 77
     1
 78
     8
170
     0
171
     0
172
     1
173
     0
174
     0
175
     0
176
   256
177
   256
178
     2
  0
DIMSTYLE
  2
BYGG-025652$0$STANDARD
 70
     0
  3

  4

  5

  6

  7

 40
1.0
 41
0.18
 42
0.0625
 43
0.38
 44
0.18
 45
0.0
 46
0.0
 47
0.0
 48
0.0
140
0.18
141
0.09
142
0.0
143
25.399999999999999
144
1.0
145
0.0
146
1.0
147
0.09
 71
     0
 72
     0
 73
     1
 74
     1
 75
     0
 76
     0
 77
     0
 78
     0
170
     0
171
     2
172
     0
173
     0
174
     0
175
     0
176
     0
177
     0
178
     0
  0
DIMSTYLE
  2
BYGG-025652$0$MASKIN
 70
     0
  3

  4

  5

  6

  7

 40
0.0
 41
3.0
 42
1.5
 43
10.0
 44
1.5
 45
0.0
 46
0.0
 47
0.0
 48
0.0
140
3.0
141
-5.0
142
0.0
143
25.399999999999999
144
-1.0
145
0.0
146
1.0
147
1.0
 71
     0
 72
     0
 73
     0
 74
     0
 75
     0
 76
     0
 77
     1
 78
     8
170
     0
171
     0
172
     1
173
     0
174
     0
175
     0
176
   256
177
   256
178
     2
  0
DIMSTYLE
  2
BYGG-025652$0$ANNOTATIVE
 70
     0
  3

  4

  5

  6

  7

 40
1.0
 41
0.18
 42
0.0625
 43
0.38
 44
0.18
 45
0.0
 46
0.0
 47
0.0
 48
0.0
140
0.18
141
0.09
142
0.0
143
25.399999999999999
144
1.0
145
0.0
146
1.0
147
0.09
 71
     0
 72
     0
 73
     1
 74
     1
 75
     0
 76
     0
 77
     0
 78
     0
170
     0
171
     2
172
     0
173
     0
174
     0
175
     0
176
     0
177
     0
178
     0
  0
DIMSTYLE
  2
BYGG-014411$0$MASKIN
 70
     0
  3

  4

  5

  6

  7

 40
0.0
 41
3.0
 42
1.5
 43
10.0
 44
1.5
 45
0.0
 46
0.0
 47
0.0
 48
0.0
140
3.0
141
-5.0
142
0.0
143
25.399999999999999
144
-1.0
145
0.0
146
1.0
147
1.0
 71
     0
 72
     0
 73
     0
 74
     0
 75
     0
 76
     0
 77
     1
 78
     8
170
     0
171
     0
172
     1
173
     0
174
     0
175
     0
176
   256
177
   256
178
   256
  0
DIMSTYLE
  2
BYGG-014411$0$STANDARD
 70
     0
  3

  4

  5

  6

  7

 40
1.0
 41
0.18
 42
0.0625
 43
0.38
 44
0.18
 45
0.0
 46
0.0
 47
0.0
 48
0.0
140
0.18
141
0.09
142
0.0
143
25.399999999999999
144
1.0
145
0.0
146
1.0
147
0.09
 71
     0
 72
     0
 73
     1
 74
     1
 75
     0
 76
     0
 77
     0
 78
     0
170
     0
171
     2
172
     0
173
     0
174
     0
175
     0
176
     0
177
     0
178
     0
  0
DIMSTYLE
  2
BYGG-014088$0$STANDARD
 70
     0
  3

  4

  5

  6

  7

 40
1.0
 41
0.18
 42
0.0625
 43
0.38
 44
0.18
 45
0.0
 46
0.0
 47
0.0
 48
0.0
140
0.18
141
0.09
142
0.0
143
25.399999999999999
144
1.0
145
0.0
146
1.0
147
0.09
 71
     0
 72
     0
 73
     1
 74
     1
 75
     0
 76
     0
 77
     0
 78
     0
170
     0
171
     2
172
     0
173
     0
174
     0
175
     0
176
     0
177
     0
178
     0
  0
DIMSTYLE
  2
BYGG-036382$0$STANDARD
 70
     0
  3

  4

  5

  6

  7

 40
1.0
 41
0.18
 42
0.0625
 43
0.38
 44
0.18
 45
0.0
 46
0.0
 47
0.0
 48
0.0
140
0.18
141
0.09
142
0.0
143
25.399999999999999
144
1.0
145
0.0
146
1.0
147
0.09
 71
     0
 72
     0
 73
     1
 74
     1
 75
     0
 76
     0
 77
     0
 78
     0
170
     0
171
     2
172
     0
173
     0
174
     0
175
     0
176
     0
177
     0
178
     0
  0
DIMSTYLE
  2
BYGG-036382$0$MASKIN
 70
     0
  3

  4

  5

  6

  7

 40
0.0
 41
3.0
 42
1.5
 43
10.0
 44
1.5
 45
0.0
 46
0.0
 47
0.0
 48
0.0
140
3.0
141
-5.0
142
0.0
143
25.399999999999999
144
-1.0
145
0.0
146
1.0
147
1.0
 71
     0
 72
     0
 73
     0
 74
     0
 75
     0
 76
     0
 77
     1
 78
     8
170
     0
171
     0
172
     1
173
     0
174
     0
175
     0
176
   256
177
   256
178
     2
  0
DIMSTYLE
  2
BYGG-036381$0$STANDARD
 70
     0
  3

  4

  5

  6

  7

 40
1.0
 41
0.18
 42
0.0625
 43
0.38
 44
0.18
 45
0.0
 46
0.0
 47
0.0
 48
0.0
140
0.18
141
0.09
142
0.0
143
25.399999999999999
144
1.0
145
0.0
146
1.0
147
0.09
 71
     0
 72
     0
 73
     1
 74
     1
 75
     0
 76
     0
 77
     0
 78
     0
170
     0
171
     2
172
     0
173
     0
174
     0
175
     0
176
     0
177
     0
178
     0
  0
DIMSTYLE
  2
BYGG-036381$0$MASKIN
 70
     0
  3

  4

  5

  6

  7

 40
0.0
 41
3.0
 42
1.5
 43
10.0
 44
1.5
 45
0.0
 46
0.0
 47
0.0
 48
0.0
140
3.0
141
-5.0
142
0.0
143
25.399999999999999
144
-1.0
145
0.0
146
1.0
147
1.0
 71
     0
 72
     0
 73
     0
 74
     0
 75
     0
 76
     0
 77
     1
 78
     8
170
     0
171
     0
172
     1
173
     0
174
     0
175
     0
176
   256
177
   256
178
     2
  0
ENDTAB
  0
ENDSEC
  0
SECTION
  2
BLOCKS
  0
BLOCK
  8
0
  2
$MODEL_SPACE
 70
     0
 10
0.0
 20
0.0
 30
0.0
  3
$MODEL_SPACE
  1

  0
ENDBLK
  5
37
  8
0
  0
BLOCK
 67
     1
  8
0
  2
$PAPER_SPACE
 70
     0
 10
0.0
 20
0.0
 30
0.0
  3
$PAPER_SPACE
  1

  0
ENDBLK
  5
35
 67
     1
  8
0
  0
BLOCK
  8
0
  2
*D96
 70
     1
 10
0.0
 20
0.0
 30
0.0
  3
*D96
  1

  0
LINE
  5
12C9
  8
SAPA_MATT
 10
101.70000000229039
 20
-1.3000000071568669
 30
0.0
 11
101.70000000229039
 21
-14.88945198034577
 31
0.0
  0
LINE
  5
12CA
  8
SAPA_MATT
 10
139.20000000229041
 20
-1.3000000071568669
 30
0.0
 11
139.20000000229041
 21
-14.88945198034577
 31
0.0
  0
LINE
  5
12CB
  8
SAPA_MATT
 10
104.70000000229039
 20
-13.38945198034577
 30
0.0
 11
136.20000000229041
 21
-13.38945198034577
 31
0.0
  0
SOLID
  5
12CC
  8
SAPA_MATT
 10
104.70000000229039
 20
-12.88945198034577
 30
0.0
 11
104.70000000229039
 21
-13.88945198034577
 31
0.0
 12
101.70000000229039
 22
-13.38945198034577
 32
0.0
 13
101.70000000229039
 23
-13.38945198034577
 33
0.0
  0
SOLID
  5
12CD
  8
SAPA_MATT
 10
136.20000000229041
 20
-12.88945198034577
 30
0.0
 11
136.20000000229041
 21
-13.88945198034577
 31
0.0
 12
139.20000000229041
 22
-13.38945198034577
 32
0.0
 13
139.20000000229041
 23
-13.38945198034577
 33
0.0
  0
INSERT
  5
12CE
  8
0
  2
*U112
 10
0.0
 20
0.0
 30
0.0
  0
POINT
  5
12CF
  8
DEFPOINTS
 62
     0
 10
101.70000000229039
 20
0.1999999928431322
 30
0.0
  0
POINT
  5
12D0
  8
DEFPOINTS
 62
     0
 10
139.20000000229041
 20
0.1999999928431322
 30
0.0
  0
POINT
  5
12D1
  8
DEFPOINTS
 62
     0
 10
139.20000000229041
 20
-13.38945198034577
 30
0.0
  0
ENDBLK
  5
1270
  8
0
  0
BLOCK
  8
0
  2
*D97
 70
     1
 10
0.0
 20
0.0
 30
0.0
  3
*D97
  1

  0
LINE
  5
12BE
  8
SAPA_MATT
 10
96.699999999964334
 20
-1.3000000001069389
 30
0.0
 11
96.699999999964334
 21
-14.88945198034577
 31
0.0
  0
LINE
  5
12BF
  8
SAPA_MATT
 10
101.70000000229039
 20
-1.3000000001069389
 30
0.0
 11
101.70000000229039
 21
-14.88945198034577
 31
0.0
  0
LINE
  5
12C0
  8
SAPA_MATT
 10
93.699999999964348
 20
-13.38945198034577
 30
0.0
 11
90.699999999964348
 21
-13.38945198034577
 31
0.0
  0
LINE
  5
12C1
  8
SAPA_MATT
 10
104.70000000229039
 20
-13.38945198034577
 30
0.0
 11
107.70000000229039
 21
-13.38945198034577
 31
0.0
  0
LINE
  5
12C2
  8
SAPA_MATT
 10
96.699999999964334
 20
-13.38945198034577
 30
0.0
 11
101.70000000229039
 21
-13.38945198034577
 31
0.0
  0
SOLID
  5
12C3
  8
SAPA_MATT
 10
93.699999999964348
 20
-12.88945198034577
 30
0.0
 11
93.699999999964348
 21
-13.88945198034577
 31
0.0
 12
96.699999999964334
 22
-13.38945198034577
 32
0.0
 13
96.699999999964334
 23
-13.38945198034577
 33
0.0
  0
SOLID
  5
12C4
  8
SAPA_MATT
 10
104.70000000229039
 20
-12.88945198034577
 30
0.0
 11
104.70000000229039
 21
-13.88945198034577
 31
0.0
 12
101.70000000229039
 22
-13.38945198034577
 32
0.0
 13
101.70000000229039
 23
-13.38945198034577
 33
0.0
  0
INSERT
  5
12C5
  8
0
  2
*U111
 10
0.0
 20
0.0
 30
0.0
  0
POINT
  5
12C6
  8
DEFPOINTS
 62
     0
 10
96.699999999964334
 20
0.1999999998930605
 30
0.0
  0
POINT
  5
12C7
  8
DEFPOINTS
 62
     0
 10
101.70000000229039
 20
0.1999999998930605
 30
0.0
  0
POINT
  5
12C8
  8
DEFPOINTS
 62
     0
 10
101.70000000229039
 20
-13.38945198034577
 30
0.0
  0
ENDBLK
  5
127C
  8
0
  0
BLOCK
  8
0
  2
*D98
 70
     1
 10
0.0
 20
0.0
 30
0.0
  3
*D98
  1

  0
LINE
  5
12B5
  8
SAPA_MATT
 10
-0.3000000000001013
 20
-1.49999999999998
 30
0.0
 11
-0.3000000000001021
 21
-14.88945198034577
 31
0.0
  0
LINE
  5
12B6
  8
SAPA_MATT
 10
96.699999999964334
 20
-1.3000000001069389
 30
0.0
 11
96.699999999964334
 21
-14.88945198034577
 31
0.0
  0
LINE
  5
12B7
  8
SAPA_MATT
 10
2.699999999999898
 20
-13.38945198034577
 30
0.0
 11
93.699999999964348
 21
-13.38945198034577
 31
0.0
  0
SOLID
  5
12B8
  8
SAPA_MATT
 10
2.699999999999898
 20
-12.88945198034577
 30
0.0
 11
2.699999999999898
 21
-13.88945198034577
 31
0.0
 12
-0.300000000000102
 22
-13.38945198034577
 32
0.0
 13
-0.300000000000102
 23
-13.38945198034577
 33
0.0
  0
SOLID
  5
12B9
  8
SAPA_MATT
 10
93.699999999964348
 20
-12.88945198034577
 30
0.0
 11
93.699999999964348
 21
-13.88945198034577
 31
0.0
 12
96.699999999964334
 22
-13.38945198034577
 32
0.0
 13
96.699999999964334
 23
-13.38945198034577
 33
0.0
  0
INSERT
  5
12BA
  8
0
  2
*U110
 10
0.0
 20
0.0
 30
0.0
  0
POINT
  5
12BB
  8
DEFPOINTS
 62
     0
 10
-0.3000000000001012
 20
0.0000000000000196
 30
0.0
  0
POINT
  5
12BC
  8
DEFPOINTS
 62
     0
 10
96.699999999964334
 20
0.1999999998930605
 30
0.0
  0
POINT
  5
12BD
  8
DEFPOINTS
 62
     0
 10
96.699999999964334
 20
-13.38945198034577
 30
0.0
  0
ENDBLK
  5
128A
  8
0
  0
BLOCK
  8
0
  2
*D99
 70
     1
 10
0.0
 20
0.0
 30
0.0
  3
*D99
  1

  0
LINE
  5
12AC
  8
SAPA_MATT
 10
-0.3000000000001013
 20
-1.49999999999998
 30
0.0
 11
-0.3000000000001029
 21
-28.114674685652581
 31
0.0
  0
LINE
  5
12AD
  8
SAPA_MATT
 10
139.20000000229041
 20
-1.3000000071568669
 30
0.0
 11
139.20000000229041
 21
-28.114674685652581
 31
0.0
  0
LINE
  5
12AE
  8
SAPA_MATT
 10
2.6999999999998971
 20
-26.614674685652581
 30
0.0
 11
136.20000000229041
 21
-26.614674685652581
 31
0.0
  0
SOLID
  5
12AF
  8
SAPA_MATT
 10
2.6999999999998971
 20
-26.11467468565257
 30
0.0
 11
2.6999999999998971
 21
-27.11467468565257
 31
0.0
 12
-0.3000000000001028
 22
-26.614674685652581
 32
0.0
 13
-0.3000000000001028
 23
-26.614674685652581
 33
0.0
  0
SOLID
  5
12B0
  8
SAPA_MATT
 10
136.20000000229041
 20
-26.11467468565257
 30
0.0
 11
136.20000000229041
 21
-27.11467468565257
 31
0.0
 12
139.20000000229041
 22
-26.614674685652581
 32
0.0
 13
139.20000000229041
 23
-26.614674685652581
 33
0.0
  0
INSERT
  5
12B1
  8
0
  2
*U109
 10
0.0
 20
0.0
 30
0.0
  0
POINT
  5
12B2
  8
DEFPOINTS
 62
     0
 10
-0.3000000000001012
 20
0.0000000000000196
 30
0.0
  0
POINT
  5
12B3
  8
DEFPOINTS
 62
     0
 10
139.20000000229041
 20
0.1999999928431322
 30
0.0
  0
POINT
  5
12B4
  8
DEFPOINTS
 62
     0
 10
139.20000000229041
 20
-26.614674685652581
 30
0.0
  0
ENDBLK
  5
1296
  8
0
  0
BLOCK
  8
0
  2
*D100
 70
     1
 10
0.0
 20
0.0
 30
0.0
  3
*D100
  1

  0
LINE
  5
12D2
  8
SAPA_MATT
 10
-36.801476183959842
 20
209.500570444293
 30
0.0
 11
-51.954423715370169
 21
209.500570444293
 31
0.0
  0
LINE
  5
12D3
  8
SAPA_MATT
 10
-36.801476183959842
 20
9.5005704442929773
 30
0.0
 11
-51.954423715370218
 21
9.5005704442929808
 31
0.0
  0
LINE
  5
12D4
  8
SAPA_MATT
 10
-50.454423715370169
 20
206.500570444293
 30
0.0
 11
-50.454423715370218
 21
12.500570444292981
 31
0.0
  0
SOLID
  5
12D5
  8
SAPA_MATT
 10
-50.954423715370183
 20
206.500570444293
 30
0.0
 11
-49.954423715370169
 21
206.500570444293
 31
0.0
 12
-50.454423715370169
 22
209.500570444293
 32
0.0
 13
-50.454423715370169
 23
209.500570444293
 33
0.0
  0
SOLID
  5
12D6
  8
SAPA_MATT
 10
-50.954423715370211
 20
12.500570444292981
 30
0.0
 11
-49.954423715370218
 21
12.500570444292981
 31
0.0
 12
-50.454423715370218
 22
9.5005704442929808
 32
0.0
 13
-50.454423715370218
 23
9.5005704442929808
 33
0.0
  0
INSERT
  5
12D7
  8
0
  2
*U113
 10
0.0
 20
0.0
 30
0.0
  0
POINT
  5
12D8
  8
DEFPOINTS
 62
     0
 10
-35.301476183959842
 20
209.500570444293
 30
0.0
  0
POINT
  5
12D9
  8
DEFPOINTS
 62
     0
 10
-35.301476183959842
 20
9.5005704442929755
 30
0.0
  0
POINT
  5
12DA
  8
DEFPOINTS
 62
     0
 10
-50.454423715370218
 20
9.5005704442929808
 30
0.0
  0
ENDBLK
  5
12A2
  8
0
  0
BLOCK
  8
0
  2
*X101
 70
     1
 10
0.0
 20
0.0
 30
0.0
  3
*X101
  1

  0
LINE
  5
1D7D
  8
0
 62
     0
 10
6.1810773713731102
 20
211.5093462657411
 30
0.0
 11
6.8684850356270069
 21
211.9062212657411
 31
0.0
  0
LINE
  5
1D7E
  8
0
 62
     0
 10
4.1188543786114158
 20
210.31872126574109
 30
0.0
 11
4.8062620428653142
 21
210.71559626574111
 31
0.0
  0
LINE
  5
1D7F
  8
0
 62
     0
 10
5.4936698713731271
 20
212.699970981245
 30
0.0
 11
6.1810775356270238
 21
213.096845981245
 31
0.0
  0
LINE
  5
1D80
  8
0
 62
     0
 10
3.4314468786114332
 20
211.5093459812451
 30
0.0
 11
4.1188545428653311
 21
211.90622098124501
 31
0.0
  0
LINE
  5
1D81
  8
0
 62
     0
 10
1.870648342858299
 20
210.6082185264772
 30
0.0
 11
2.0566315501036381
 21
210.715595981245
 31
0.0
  0
LINE
  5
1D82
  8
0
 62
     0
 10
4.8062623713731094
 20
213.8905956967489
 30
0.0
 11
5.4936700356270061
 21
214.2874706967489
 31
0.0
  0
LINE
  5
1D83
  8
0
 62
     0
 10
2.744039378611415
 20
212.69997069674889
 30
0.0
 11
3.431447042865313
 21
213.09684569674889
 31
0.0
  0
LINE
  5
1D84
  8
0
 62
     0
 10
1.270133483461138
 20
211.8490107314237
 30
0.0
 11
1.369224050103619
 21
211.90622069674899
 31
0.0
  0
LINE
  5
1D85
  8
0
 62
     0
 10
4.1188548713731228
 20
215.0812204122528
 30
0.0
 11
4.7550114332744959
 21
215.4485055745134
 31
0.0
  0
LINE
  5
1D86
  8
0
 62
     0
 10
2.0566318786114302
 20
213.89059541225279
 30
0.0
 11
2.7440395428653281
 21
214.2874704122529
 31
0.0
  0
LINE
  5
1D87
  8
0
 62
     0
 10
4.1188287550033014
 20
209.5249843525616
 30
0.0
 11
4.160701919538921
 21
209.5008088697451
 31
0.0
  0
LINE
  5
1D88
  8
0
 62
     0
 10
2.0566057622416061
 20
210.71560935256159
 30
0.0
 11
2.7440134264955041
 21
210.31873435256159
 31
0.0
  0
LINE
  5
1D89
  8
0
 62
     0
 10
4.8062362550033164
 20
210.7156090680655
 30
0.0
 11
5.493643919257214
 21
210.31873406806551
 31
0.0
  0
LINE
  5
1D8A
  8
0
 62
     0
 10
2.7440132622416211
 20
211.90623406806549
 30
0.0
 11
3.4314209264955191
 21
211.50935906806549
 31
0.0
  0
LINE
  5
1D8B
  8
0
 62
     0
 10
1.2125587487607561
 20
212.7904197436753
 30
0.0
 11
1.3691979337338249
 21
212.6999840680655
 31
0.0
  0
LINE
  5
1D8C
  8
0
 62
     0
 10
5.493643755003303
 20
211.90623378356941
 30
0.0
 11
6.1810514192572006
 21
211.50935878356941
 31
0.0
  0
LINE
  5
1D8D
  8
0
 62
     0
 10
3.4314207622416091
 20
213.09685878356939
 30
0.0
 11
4.1188284264955071
 21
212.69998378356939
 31
0.0
  0
LINE
  5
1D8E
  8
0
 62
     0
 10
1.6694209217383069
 20
214.11414986579609
 30
0.0
 11
2.0566054337338122
 21
213.89060878356941
 31
0.0
  0
LINE
  5
1D8F
  8
0
 62
     0
 10
6.1810512550032941
 20
213.09685849907331
 30
0.0
 11
6.8684589192571934
 21
212.69998349907331
 31
0.0
  0
LINE
  5
1D90
  8
0
 62
     0
 10
4.1188282622415988
 20
214.28748349907329
 30
0.0
 11
4.8062359264954981
 21
213.89060849907329
 31
0.0
  0
LINE
  5
1D91
  8
0
 62
     0
 10
2.7062012150394419
 20
215.10306410504
 30
0.0
 11
2.744012933733802
 21
215.08123349907331
 31
0.0
  0
LINE
  5
1D92
  8
0
 62
     0
 10
4.9197046500765822
 20
215.41259692164101
 30
0.0
 11
5.4936434264954901
 21
215.0812332145772
 31
0.0
  0
LINE
  5
1D93
  8
0
 62
     0
 10
6.8684829003263852
 20
211.90624999984701
 30
0.0
 11
6.8684829003263852
 21
212.69999999984691
 31
0.0
  0
LINE
  5
1D94
  8
0
 62
     0
 10
5.4936679003263871
 20
214.28749999984689
 30
0.0
 11
5.4936679003263871
 21
215.0812499998469
 31
0.0
  0
LINE
  5
1D95
  8
0
 62
     0
 10
5.4936679003263871
 20
211.90624999984701
 30
0.0
 11
5.4936679003263871
 21
212.69999999984691
 31
0.0
  0
LINE
  5
1D96
  8
0
 62
     0
 10
5.4936679003263871
 20
209.79453980861811
 30
0.0
 11
5.4936679003263871
 21
210.31874999984689
 31
0.0
  0
LINE
  5
1D97
  8
0
 62
     0
 10
4.118852900326381
 20
214.28749999984689
 30
0.0
 11
4.118852900326381
 21
215.0812499998469
 31
0.0
  0
LINE
  5
1D98
  8
0
 62
     0
 10
4.118852900326381
 20
211.90624999984689
 30
0.0
 11
4.118852900326381
 21
212.69999999984691
 31
0.0
  0
LINE
  5
1D99
  8
0
 62
     0
 10
4.118852900326381
 20
209.5249999998469
 30
0.0
 11
4.118852900326381
 21
210.31874999984689
 31
0.0
  0
LINE
  5
1D9A
  8
0
 62
     0
 10
2.7440379003263828
 20
214.28749999984689
 30
0.0
 11
2.7440379003263828
 21
215.0812499998469
 31
0.0
  0
LINE
  5
1D9B
  8
0
 62
     0
 10
2.7440379003263828
 20
211.90624999984701
 30
0.0
 11
2.7440379003263828
 21
212.69999999984691
 31
0.0
  0
LINE
  5
1D9C
  8
0
 62
     0
 10
2.7440379003263828
 20
209.87674294983421
 30
0.0
 11
2.7440379003263828
 21
210.31874999984689
 31
0.0
  0
LINE
  5
1D9D
  8
0
 62
     0
 10
1.3692229003263849
 20
211.90624999984701
 30
0.0
 11
1.3692229003263849
 21
212.69999999984691
 31
0.0
  0
ENDBLK
  5
1D9F
  8
0
  0
BLOCK
  8
0
  2
*X102
 70
     1
 10
0.0
 20
0.0
 30
0.0
  3
*X102
  1

  0
LINE
  5
1DA1
  8
0
 62
     0
 10
-2.134545759966286
 20
210.19895740168829
 30
0.0
 11
-1.436158802571085
 21
209.500570444293
 31
0.0
  0
LINE
  5
1DA2
  8
0
 62
     0
 10
-1.89732683295513
 20
211.08427048981071
 30
0.0
 11
-0.3136267874374283
 21
209.500570444293
 31
0.0
  0
LINE
  5
1DA3
  8
0
 62
     0
 10
-1.660107905944016
 20
211.96958357793321
 30
0.0
 11
0.8089052276962149
 21
209.500570444293
 31
0.0
  0
LINE
  5
1DA4
  8
0
 62
     0
 10
-1.422888978932874
 20
212.85489666605579
 30
0.0
 11
1.9314372428298581
 21
209.500570444293
 31
0.0
  0
LINE
  5
1DA5
  8
0
 62
     0
 10
2.5797516401796652
 20
209.9747880620769
 30
0.0
 11
3.0539692579634869
 21
209.500570444293
 31
0.0
  0
LINE
  5
1DA6
  8
0
 62
     0
 10
-1.185670051921732
 20
213.74020975417821
 30
0.0
 11
1.6727414339308231
 21
210.8817982683257
 31
0.0
  0
LINE
  5
1DA7
  8
0
 62
     0
 10
4.1764198410393334
 20
209.50065187635079
 30
0.0
 11
4.1765012730971591
 21
209.500570444293
 31
0.0
  0
LINE
  5
1DA8
  8
0
 62
     0
 10
-0.9484511249106049
 20
214.6255228423008
 30
0.0
 11
1.1986052482048131
 21
212.47846646918541
 31
0.0
  0
LINE
  5
1DA9
  8
0
 62
     0
 10
-0.7112321978994772
 20
215.5108359304233
 30
0.0
 11
1.3519433106380629
 21
213.4476604218857
 31
0.0
  0
LINE
  5
1DAA
  8
0
 62
     0
 10
-0.4740132708883352
 20
216.3961490185458
 30
0.0
 11
1.7245988358506561
 21
214.19753691180679
 31
0.0
  0
LINE
  5
1DAB
  8
0
 62
     0
 10
1.9957872199935589
 20
215.0488805427976
 30
0.0
 11
2.2570388869042972
 21
214.78762887588681
 31
0.0
  0
LINE
  5
1DAC
  8
0
 62
     0
 10
2.666629333631505
 20
215.5005704442932
 30
0.0
 11
2.9423086162005769
 21
215.2248911617242
 31
0.0
  0
LINE
  5
1DAD
  8
0
 62
     0
 10
3.7891613487651341
 20
215.5005704442932
 30
0.0
 11
3.8139171990989662
 21
215.4758145939594
 31
0.0
  0
LINE
  5
1DAE
  8
0
 62
     0
 10
3.6980668174538631
 20
209.500570444293
 30
0.0
 11
3.734215039755497
 21
209.53671866659471
 31
0.0
  0
LINE
  5
1DAF
  8
0
 62
     0
 10
2.5755348023202091
 20
209.50057044429309
 30
0.0
 11
2.8805497588794391
 21
209.80558540085229
 31
0.0
  0
LINE
  5
1DB0
  8
0
 62
     0
 10
1.4530027871865761
 20
209.500570444293
 30
0.0
 11
2.2082623894297981
 21
210.2558300465362
 31
0.0
  0
LINE
  5
1DB1
  8
0
 62
     0
 10
0.3304707720529194
 20
209.500570444293
 30
0.0
 11
1.6880529827447111
 21
210.85815265498479
 31
0.0
  0
LINE
  5
1DB2
  8
0
 62
     0
 10
-0.7920612430807204
 20
209.500570444293
 30
0.0
 11
1.3298939489202151
 21
211.622525636294
 31
0.0
  0
LINE
  5
1DB3
  8
0
 62
     0
 10
4.083188898093681
 20
215.49835260060109
 30
0.0
 11
4.0854067417858673
 21
215.5005704442932
 31
0.0
  0
LINE
  5
1DB4
  8
0
 62
     0
 10
-1.914593258214367
 20
209.500570444293
 30
0.0
 11
1.200741659839192
 21
212.61590536234661
 31
0.0
  0
LINE
  5
1DB5
  8
0
 62
     0
 10
2.2024333983537998
 20
214.74012911599479
 30
0.0
 11
2.9628747266522382
 21
215.5005704442932
 31
0.0
  0
LINE
  5
1DB6
  8
0
 62
     0
 10
-2.0598060972115171
 20
210.47788962042949
 30
0.0
 11
1.958965144445439
 21
214.4966608620864
 31
0.0
  0
LINE
  5
1DB7
  8
0
 62
     0
 10
-1.648930863111264
 20
212.0112968696634
 30
0.0
 11
1.458533101480352
 21
215.118760834255
 31
0.0
  0
LINE
  5
1DB8
  8
0
 62
     0
 10
-1.2380556290110181
 20
213.5447041188973
 30
0.0
 11
0.8960352219120615
 21
215.67879496982039
 31
0.0
  0
LINE
  5
1DB9
  8
0
 62
     0
 10
-0.8271803949107692
 20
215.0781113681312
 30
0.0
 11
0.3347692143452541
 21
216.2400609773872
 31
0.0
  0
LINE
  5
1DBA
  8
0
 62
     0
 10
-0.4163051608105022
 20
216.61151861736511
 30
0.0
 11
-0.2261048935449388
 21
216.8017188846307
 31
0.0
  0
ENDBLK
  5
1DBC
  8
0
  0
BLOCK
  8
0
  2
*X103
 70
     1
 10
0.0
 20
0.0
 30
0.0
  3
*X103
  1

  0
LINE
  5
1DBE
  8
0
 62
     0
 10
-0.5379742096560634
 20
0.8393123985481594
 30
0.0
 11
-0.062712078008154
 21
0.3640502669002501
 31
0.0
  0
LINE
  5
1DBF
  8
0
 62
     0
 10
-0.9488494437563304
 20
2.3727196477820551
 30
0.0
 11
0.4985539295586961
 21
0.9253162744670291
 31
0.0
  0
LINE
  5
1DC0
  8
0
 62
     0
 10
-1.359724677856583
 20
3.906126897015965
 30
0.0
 11
1.1474832455971009
 21
1.3989189735622809
 31
0.0
  0
LINE
  5
1DC1
  8
0
 62
     0
 10
-1.7705999119568501
 20
5.4395341462498621
 30
0.0
 11
2.2689342342571801
 21
1.4000000000358239
 31
0.0
  0
LINE
  5
1DC2
  8
0
 62
     0
 10
-2.1814751460571031
 20
6.9729413954837716
 30
0.0
 11
3.3914662493908518
 21
1.400000000035817
 31
0.0
  0
LINE
  5
1DC3
  8
0
 62
     0
 10
-2.5923503801573702
 20
8.5063486447176686
 30
0.0
 11
4.5139982645245089
 21
1.400000000035788
 31
0.0
  0
LINE
  5
1DC4
  8
0
 62
     0
 10
-2.4640401645991399
 20
9.5005704442930963
 30
0.0
 11
5.6365302796581807
 21
1.4000000000357671
 31
0.0
  0
LINE
  5
1DC5
  8
0
 62
     0
 10
6.619068456489507
 20
1.539993838338084
 30
0.0
 11
6.7590622947918462
 21
1.4000000000357531
 31
0.0
  0
LINE
  5
1DC6
  8
0
 62
     0
 10
-1.3415081494654819
 20
9.5005704442930821
 30
0.0
 11
3.764443532378372
 21
4.3946187624492259
 31
0.0
  0
LINE
  5
1DC7
  8
0
 62
     0
 10
-0.2189761343318395
 20
9.5005704442930821
 30
0.0
 11
3.6294814053370739
 21
5.6521129046241683
 31
0.0
  0
LINE
  5
1DC8
  8
0
 62
     0
 10
0.903555880801818
 20
9.5005704442930679
 30
0.0
 11
3.7940520276566749
 21
6.6100742974382101
 31
0.0
  0
LINE
  5
1DC9
  8
0
 62
     0
 10
2.0260878959354609
 20
9.5005704442930679
 30
0.0
 11
4.1253331022153708
 21
7.4013252380131567
 31
0.0
  0
LINE
  5
1DCA
  8
0
 62
     0
 10
3.1486199110691109
 20
9.5005704442930607
 30
0.0
 11
4.5827349357983422
 21
8.0664554195638303
 31
0.0
  0
LINE
  5
1DCB
  8
0
 62
     0
 10
4.2711519262027622
 20
9.5005704442930536
 30
0.0
 11
5.152414012157962
 21
8.6193083583378538
 31
0.0
  0
LINE
  5
1DCC
  8
0
 62
     0
 10
5.3936839413364188
 20
9.5005704442930465
 30
0.0
 11
5.835410459169629
 21
9.0588439264598364
 31
0.0
  0
LINE
  5
1DCD
  8
0
 62
     0
 10
6.516215956470063
 20
9.5005704442930394
 30
0.0
 11
6.6484070610138479
 21
9.3683793397492536
 31
0.0
  0
LINE
  5
1DCE
  8
0
 62
     0
 10
7.6387479716037197
 20
9.5005704442930323
 30
0.0
 11
7.6389064424978406
 21
9.5004119733989114
 31
0.0
  0
LINE
  5
1DCF
  8
0
 62
     0
 10
6.7281658714273753
 20
1.4000000000357531
 30
0.0
 11
6.8194906674404079
 21
1.4913247960487861
 31
0.0
  0
LINE
  5
1DD0
  8
0
 62
     0
 10
5.6056338562937489
 20
1.4000000000357671
 30
0.0
 11
5.9781104970773837
 21
1.772476640819405
 31
0.0
  0
LINE
  5
1DD1
  8
0
 62
     0
 10
4.4831018411601269
 20
1.4000000000357919
 30
0.0
 11
5.2724387845657361
 21
2.1893369434414001
 31
0.0
  0
LINE
  5
1DD2
  8
0
 62
     0
 10
3.3605698260264951
 20
1.400000000035809
 30
0.0
 11
4.6818515985900433
 21
2.7212817725993581
 31
0.0
  0
LINE
  5
1DD3
  8
0
 62
     0
 10
2.2380378108928691
 20
1.400000000035827
 30
0.0
 11
4.2027035549727669
 21
3.3646657441157251
 31
0.0
  0
LINE
  5
1DD4
  8
0
 62
     0
 10
1.110620502761527
 20
1.3951147070381249
 30
0.0
 11
3.8456357476081382
 21
4.1301299518847401
 31
0.0
  0
LINE
  5
1DD5
  8
0
 62
     0
 10
-0.3070400019802477
 20
-0.0225457977036463
 30
0.0
 11
-0.3019877987612496
 21
-0.0174935944846517
 31
0.0
  0
LINE
  5
1DD6
  8
0
 62
     0
 10
-0.5442589289913898
 20
0.8627672904188514
 30
0.0
 11
3.6441604276324071
 21
5.051186647042651
 31
0.0
  0
LINE
  5
1DD7
  8
0
 62
     0
 10
6.8953095396623487
 20
9.4248677742062377
 30
0.0
 11
6.9710122097491443
 21
9.5005704442930359
 31
0.0
  0
LINE
  5
1DD8
  8
0
 62
     0
 10
-0.7814778560025176
 20
1.7480803785413661
 30
0.0
 11
3.7001523641628071
 21
6.2297105987066947
 31
0.0
  0
LINE
  5
1DD9
  8
0
 62
     0
 10
-1.0186967830136551
 20
2.633393466663875
 30
0.0
 11
5.8484801946155081
 21
9.5005704442930394
 31
0.0
  0
LINE
  5
1DDA
  8
0
 62
     0
 10
-1.2559157100247831
 20
3.5187065547863901
 30
0.0
 11
4.7259481794818683
 21
9.5005704442930412
 31
0.0
  0
LINE
  5
1DDB
  8
0
 62
     0
 10
-1.4931346370359251
 20
4.4040196429088923
 30
0.0
 11
3.6034161643482281
 21
9.5005704442930501
 31
0.0
  0
LINE
  5
1DDC
  8
0
 62
     0
 10
-1.7303535640470491
 20
5.2893327310314113
 30
0.0
 11
2.4808841492145879
 21
9.5005704442930501
 31
0.0
  0
LINE
  5
1DDD
  8
0
 62
     0
 10
-1.9675724910581811
 20
6.1746458191539233
 30
0.0
 11
1.3583521340809559
 21
9.5005704442930607
 31
0.0
  0
LINE
  5
1DDE
  8
0
 62
     0
 10
-2.2047914180693158
 20
7.0599589072764379
 30
0.0
 11
0.2358201189473199
 21
9.5005704442930732
 31
0.0
  0
LINE
  5
1DDF
  8
0
 62
     0
 10
-2.4420103450804471
 20
7.9452719953989499
 30
0.0
 11
-0.8867118961863234
 21
9.5005704442930732
 31
0.0
  0
LINE
  5
1DE0
  8
0
 62
     0
 10
-2.679229272091586
 20
8.8305850835214557
 30
0.0
 11
-2.0092439113199561
 21
9.5005704442930856
 31
0.0
  0
ENDBLK
  5
1DE2
  8
0
  0
BLOCK
  8
0
  2
*X104
 70
     1
 10
0.0
 20
0.0
 30
0.0
  3
*X104
  1

  0
LINE
  5
1DE4
  8
0
 62
     0
 10
10.99291952337758
 20
3.1624911804679239
 30
0.0
 11
11.03256357097915
 21
3.1853796820224591
 31
0.0
  0
LINE
  5
1DE5
  8
0
 62
     0
 10
8.9306965306158883
 20
1.9718661804679229
 30
0.0
 11
9.6181041948697867
 21
2.3687411804679228
 31
0.0
  0
LINE
  5
1DE6
  8
0
 62
     0
 10
10.30551202337757
 20
4.3531158959718246
 30
0.0
 11
10.992919687631471
 21
4.7499908959718251
 31
0.0
  0
LINE
  5
1DE7
  8
0
 62
     0
 10
8.2432890306158768
 20
3.1624908959718239
 30
0.0
 11
8.9306966948697752
 21
3.559365895971824
 31
0.0
  0
LINE
  5
1DE8
  8
0
 62
     0
 10
6.1810660378541842
 20
1.9718658959718229
 30
0.0
 11
6.8684737021080808
 21
2.3687408959718228
 31
0.0
  0
LINE
  5
1DE9
  8
0
 62
     0
 10
9.6181045233775802
 20
5.5437406114757266
 30
0.0
 11
10.30551218763148
 21
5.940615611475728
 31
0.0
  0
LINE
  5
1DEA
  8
0
 62
     0
 10
7.5558815306158884
 20
4.353115611475725
 30
0.0
 11
8.2432891948697868
 21
4.7499906114757264
 31
0.0
  0
LINE
  5
1DEB
  8
0
 62
     0
 10
5.493658537854194
 20
3.1624906114757239
 30
0.0
 11
6.1810662021080924
 21
3.5593656114757248
 31
0.0
  0
LINE
  5
1DEC
  8
0
 62
     0
 10
8.9306970233775704
 20
6.7343653269796251
 30
0.0
 11
9.6181046876314689
 21
7.1312403269796256
 31
0.0
  0
LINE
  5
1DED
  8
0
 62
     0
 10
6.868474030615876
 20
5.5437403269796244
 30
0.0
 11
7.5558816948697736
 21
5.940615326979624
 31
0.0
  0
LINE
  5
1DEE
  8
0
 62
     0
 10
4.8062510378541834
 20
4.3531153269796219
 30
0.0
 11
5.49365870210808
 21
4.7499903269796233
 31
0.0
  0
LINE
  5
1DEF
  8
0
 62
     0
 10
8.2432895233775767
 20
7.924990042483536
 30
0.0
 11
8.9306971876314751
 21
8.3218650424835374
 31
0.0
  0
LINE
  5
1DF0
  8
0
 62
     0
 10
6.1810665306158832
 20
6.7343650424835353
 30
0.0
 11
6.8684741948697798
 21
7.1312400424835349
 31
0.0
  0
LINE
  5
1DF1
  8
0
 62
     0
 10
4.1188435378541888
 20
5.5437400424835328
 30
0.0
 11
4.8062512021080872
 21
5.9406150424835342
 31
0.0
  0
LINE
  5
1DF2
  8
0
 62
     0
 10
7.5558820233775723
 20
9.1156147579874336
 30
0.0
 11
8.1700002693932792
 21
9.4701760926388641
 31
0.0
  0
LINE
  5
1DF3
  8
0
 62
     0
 10
5.4936590306158779
 20
7.924989757987432
 30
0.0
 11
6.1810666948697763
 21
8.3218647579874325
 31
0.0
  0
LINE
  5
1DF4
  8
0
 62
     0
 10
3.9457746253374562
 20
7.0313182799255101
 30
0.0
 11
4.1188437021080819
 21
7.1312397579874309
 31
0.0
  0
LINE
  5
1DF5
  8
0
 62
     0
 10
5.4936550885223223
 20
2.3687534138000972
 30
0.0
 11
6.1810627527762199
 21
1.971878413800098
 31
0.0
  0
LINE
  5
1DF6
  8
0
 62
     0
 10
8.2432855812840184
 20
2.3687531293040038
 30
0.0
 11
8.9306932455379169
 21
1.9718781293040051
 31
0.0
  0
LINE
  5
1DF7
  8
0
 62
     0
 10
6.1810625885223232
 20
3.5593781293040032
 30
0.0
 11
6.8684702527762207
 21
3.162503129304004
 31
0.0
  0
LINE
  5
1DF8
  8
0
 62
     0
 10
4.1188395957606279
 20
4.7500031293040017
 30
0.0
 11
4.8062472600145272
 21
4.3531281293040021
 31
0.0
  0
LINE
  5
1DF9
  8
0
 62
     0
 10
8.9306930812840175
 20
3.5593778448079059
 30
0.0
 11
9.6181007455379142
 21
3.1625028448079071
 31
0.0
  0
LINE
  5
1DFA
  8
0
 62
     0
 10
6.8684700885223222
 20
4.7500028448079048
 30
0.0
 11
7.5558777527762198
 21
4.353127844807906
 31
0.0
  0
LINE
  5
1DFB
  8
0
 62
     0
 10
4.806247095760626
 20
5.9406278448079037
 30
0.0
 11
5.4936547600145254
 21
5.5437528448079041
 31
0.0
  0
LINE
  5
1DFC
  8
0
 62
     0
 10
9.6181005812840166
 20
4.7500025603118106
 30
0.0
 11
10.30550824553791
 21
4.3531275603118109
 31
0.0
  0
LINE
  5
1DFD
  8
0
 62
     0
 10
7.5558775885223213
 20
5.9406275603118104
 30
0.0
 11
8.2432852527762197
 21
5.5437525603118099
 31
0.0
  0
LINE
  5
1DFE
  8
0
 62
     0
 10
5.493654595760626
 20
7.1312525603118093
 30
0.0
 11
6.1810622600145253
 21
6.7343775603118088
 31
0.0
  0
LINE
  5
1DFF
  8
0
 62
     0
 10
10.305508081284019
 20
5.9406272758157161
 30
0.0
 11
10.992915745537919
 21
5.5437522758157156
 31
0.0
  0
LINE
  5
1E00
  8
0
 62
     0
 10
8.2432850885223221
 20
7.1312522758157151
 30
0.0
 11
8.9306927527762223
 21
6.7343772758157154
 31
0.0
  0
LINE
  5
1E01
  8
0
 62
     0
 10
6.1810620957606277
 20
8.321877275815714
 30
0.0
 11
6.868469760014527
 21
7.9250022758157144
 31
0.0
  0
LINE
  5
1E02
  8
0
 62
     0
 10
10.992915581284
 20
7.1312519913196191
 30
0.0
 11
11.47423245465631
 21
6.8533635649126072
 31
0.0
  0
LINE
  5
1E03
  8
0
 62
     0
 10
8.9306925885223105
 20
8.3218769913196162
 30
0.0
 11
9.6181002527762072
 21
7.9250019913196184
 31
0.0
  0
LINE
  5
1E04
  8
0
 62
     0
 10
6.9900876352976899
 20
9.4422857834545724
 30
0.0
 11
7.5558772600145137
 21
9.1156269913196173
 31
0.0
  0
LINE
  5
1E05
  8
0
 62
     0
 10
10.99292790032638
 20
7.1312499998469496
 30
0.0
 11
10.99292790032638
 21
7.7728712164206391
 31
0.0
  0
LINE
  5
1E06
  8
0
 62
     0
 10
10.99292790032638
 20
4.74999999984695
 30
0.0
 11
10.99292790032638
 21
5.543749999846951
 31
0.0
  0
LINE
  5
1E07
  8
0
 62
     0
 10
10.99292790032638
 20
3.127699227908042
 30
0.0
 11
10.99292790032638
 21
3.162499999846951
 31
0.0
  0
LINE
  5
1E08
  8
0
 62
     0
 10
9.6181129003263823
 20
7.1312499998469523
 30
0.0
 11
9.6181129003263823
 21
7.9249999998469516
 31
0.0
  0
LINE
  5
1E09
  8
0
 62
     0
 10
9.6181129003263823
 20
4.7499999998469518
 30
0.0
 11
9.6181129003263823
 21
5.5437499998469519
 31
0.0
  0
LINE
  5
1E0A
  8
0
 62
     0
 10
9.6181129003263823
 20
2.368749999846953
 30
0.0
 11
9.6181129003263823
 21
3.1624999998469532
 31
0.0
  0
LINE
  5
1E0B
  8
0
 62
     0
 10
8.2432979003263771
 20
7.1312499998469523
 30
0.0
 11
8.2432979003263771
 21
7.9249999998469516
 31
0.0
  0
LINE
  5
1E0C
  8
0
 62
     0
 10
8.2432979003263771
 20
4.7499999998469518
 30
0.0
 11
8.2432979003263771
 21
5.5437499998469519
 31
0.0
  0
LINE
  5
1E0D
  8
0
 62
     0
 10
8.2432979003263771
 20
2.368749999846953
 30
0.0
 11
8.2432979003263771
 21
3.1624999998469532
 31
0.0
  0
LINE
  5
1E0E
  8
0
 62
     0
 10
6.8684829003263781
 20
7.1312499998469523
 30
0.0
 11
6.8684829003263781
 21
7.9249999998469516
 31
0.0
  0
LINE
  5
1E0F
  8
0
 62
     0
 10
6.8684829003263781
 20
4.7499999998469518
 30
0.0
 11
6.8684829003263781
 21
5.5437499998469519
 31
0.0
  0
LINE
  5
1E10
  8
0
 62
     0
 10
6.8684829003263781
 20
2.368749999846953
 30
0.0
 11
6.8684829003263781
 21
3.1624999998469532
 31
0.0
  0
LINE
  5
1E11
  8
0
 62
     0
 10
5.4936679003263791
 20
7.1312499998469523
 30
0.0
 11
5.4936679003263791
 21
7.9249999998469516
 31
0.0
  0
LINE
  5
1E12
  8
0
 62
     0
 10
5.4936679003263791
 20
4.7499999998469518
 30
0.0
 11
5.4936679003263791
 21
5.5437499998469519
 31
0.0
  0
LINE
  5
1E13
  8
0
 62
     0
 10
5.4936679003263791
 20
2.368749999846953
 30
0.0
 11
5.4936679003263791
 21
3.1624999998469532
 31
0.0
  0
LINE
  5
1E14
  8
0
 62
     0
 10
4.1188529003263739
 20
7.1312499998469461
 30
0.0
 11
4.1188529003263739
 21
7.3894895615136704
 31
0.0
  0
LINE
  5
1E15
  8
0
 62
     0
 10
4.1188529003263739
 20
4.7499999998469473
 30
0.0
 11
4.1188529003263739
 21
5.5437499998469466
 31
0.0
  0
ENDBLK
  5
1E17
  8
0
  0
BLOCK
  8
0
  2
*X105
 70
     1
 10
0.0
 20
0.0
 30
0.0
  3
*X105
  1

  0
LINE
  5
1E19
  8
0
 62
     0
 10
6.1810773713731102
 20
211.5093462657411
 30
0.0
 11
6.8684850356270069
 21
211.9062212657411
 31
0.0
  0
LINE
  5
1E1A
  8
0
 62
     0
 10
4.1188543786114158
 20
210.31872126574109
 30
0.0
 11
4.8062620428653142
 21
210.71559626574111
 31
0.0
  0
LINE
  5
1E1B
  8
0
 62
     0
 10
5.4936698713731271
 20
212.699970981245
 30
0.0
 11
6.1810775356270238
 21
213.096845981245
 31
0.0
  0
LINE
  5
1E1C
  8
0
 62
     0
 10
3.4314468786114332
 20
211.5093459812451
 30
0.0
 11
4.1188545428653311
 21
211.90622098124501
 31
0.0
  0
LINE
  5
1E1D
  8
0
 62
     0
 10
1.870648342858299
 20
210.6082185264772
 30
0.0
 11
2.0566315501036381
 21
210.715595981245
 31
0.0
  0
LINE
  5
1E1E
  8
0
 62
     0
 10
4.8062623713731094
 20
213.8905956967489
 30
0.0
 11
5.4936700356270061
 21
214.2874706967489
 31
0.0
  0
LINE
  5
1E1F
  8
0
 62
     0
 10
2.744039378611415
 20
212.69997069674889
 30
0.0
 11
3.431447042865313
 21
213.09684569674889
 31
0.0
  0
LINE
  5
1E20
  8
0
 62
     0
 10
1.270133483461138
 20
211.8490107314237
 30
0.0
 11
1.369224050103619
 21
211.90622069674899
 31
0.0
  0
LINE
  5
1E21
  8
0
 62
     0
 10
4.1188548713731228
 20
215.0812204122528
 30
0.0
 11
4.7550114332744959
 21
215.4485055745134
 31
0.0
  0
LINE
  5
1E22
  8
0
 62
     0
 10
2.0566318786114302
 20
213.89059541225279
 30
0.0
 11
2.7440395428653281
 21
214.2874704122529
 31
0.0
  0
LINE
  5
1E23
  8
0
 62
     0
 10
4.1188287550033014
 20
209.5249843525616
 30
0.0
 11
4.160701919538921
 21
209.5008088697451
 31
0.0
  0
LINE
  5
1E24
  8
0
 62
     0
 10
2.0566057622416061
 20
210.71560935256159
 30
0.0
 11
2.7440134264955041
 21
210.31873435256159
 31
0.0
  0
LINE
  5
1E25
  8
0
 62
     0
 10
4.8062362550033164
 20
210.7156090680655
 30
0.0
 11
5.493643919257214
 21
210.31873406806551
 31
0.0
  0
LINE
  5
1E26
  8
0
 62
     0
 10
2.7440132622416211
 20
211.90623406806549
 30
0.0
 11
3.4314209264955191
 21
211.50935906806549
 31
0.0
  0
LINE
  5
1E27
  8
0
 62
     0
 10
1.2125587487607561
 20
212.7904197436753
 30
0.0
 11
1.3691979337338249
 21
212.6999840680655
 31
0.0
  0
LINE
  5
1E28
  8
0
 62
     0
 10
5.493643755003303
 20
211.90623378356941
 30
0.0
 11
6.1810514192572006
 21
211.50935878356941
 31
0.0
  0
LINE
  5
1E29
  8
0
 62
     0
 10
3.4314207622416091
 20
213.09685878356939
 30
0.0
 11
4.1188284264955071
 21
212.69998378356939
 31
0.0
  0
LINE
  5
1E2A
  8
0
 62
     0
 10
1.6694209217383069
 20
214.11414986579609
 30
0.0
 11
2.0566054337338122
 21
213.89060878356941
 31
0.0
  0
LINE
  5
1E2B
  8
0
 62
     0
 10
6.1810512550032941
 20
213.09685849907331
 30
0.0
 11
6.8684589192571934
 21
212.69998349907331
 31
0.0
  0
LINE
  5
1E2C
  8
0
 62
     0
 10
4.1188282622415988
 20
214.28748349907329
 30
0.0
 11
4.8062359264954981
 21
213.89060849907329
 31
0.0
  0
LINE
  5
1E2D
  8
0
 62
     0
 10
2.7062012150394419
 20
215.10306410504
 30
0.0
 11
2.744012933733802
 21
215.08123349907331
 31
0.0
  0
LINE
  5
1E2E
  8
0
 62
     0
 10
4.9197046500765822
 20
215.41259692164101
 30
0.0
 11
5.4936434264954901
 21
215.0812332145772
 31
0.0
  0
LINE
  5
1E2F
  8
0
 62
     0
 10
6.8684829003263852
 20
211.90624999984701
 30
0.0
 11
6.8684829003263852
 21
212.69999999984691
 31
0.0
  0
LINE
  5
1E30
  8
0
 62
     0
 10
5.4936679003263871
 20
214.28749999984689
 30
0.0
 11
5.4936679003263871
 21
215.0812499998469
 31
0.0
  0
LINE
  5
1E31
  8
0
 62
     0
 10
5.4936679003263871
 20
211.90624999984701
 30
0.0
 11
5.4936679003263871
 21
212.69999999984691
 31
0.0
  0
LINE
  5
1E32
  8
0
 62
     0
 10
5.4936679003263871
 20
209.79453980861811
 30
0.0
 11
5.4936679003263871
 21
210.31874999984689
 31
0.0
  0
LINE
  5
1E33
  8
0
 62
     0
 10
4.118852900326381
 20
214.28749999984689
 30
0.0
 11
4.118852900326381
 21
215.0812499998469
 31
0.0
  0
LINE
  5
1E34
  8
0
 62
     0
 10
4.118852900326381
 20
211.90624999984689
 30
0.0
 11
4.118852900326381
 21
212.69999999984691
 31
0.0
  0
LINE
  5
1E35
  8
0
 62
     0
 10
4.118852900326381
 20
209.5249999998469
 30
0.0
 11
4.118852900326381
 21
210.31874999984689
 31
0.0
  0
LINE
  5
1E36
  8
0
 62
     0
 10
2.7440379003263828
 20
214.28749999984689
 30
0.0
 11
2.7440379003263828
 21
215.0812499998469
 31
0.0
  0
LINE
  5
1E37
  8
0
 62
     0
 10
2.7440379003263828
 20
211.90624999984701
 30
0.0
 11
2.7440379003263828
 21
212.69999999984691
 31
0.0
  0
LINE
  5
1E38
  8
0
 62
     0
 10
2.7440379003263828
 20
209.87674294983421
 30
0.0
 11
2.7440379003263828
 21
210.31874999984689
 31
0.0
  0
LINE
  5
1E39
  8
0
 62
     0
 10
1.3692229003263849
 20
211.90624999984701
 30
0.0
 11
1.3692229003263849
 21
212.69999999984691
 31
0.0
  0
ENDBLK
  5
1E3B
  8
0
  0
BLOCK
  8
0
  2
*X106
 70
     1
 10
0.0
 20
0.0
 30
0.0
  3
*X106
  1

  0
LINE
  5
1E3D
  8
0
 62
     0
 10
-2.134545759966286
 20
210.19895740168829
 30
0.0
 11
-1.436158802571085
 21
209.500570444293
 31
0.0
  0
LINE
  5
1E3E
  8
0
 62
     0
 10
-1.89732683295513
 20
211.08427048981071
 30
0.0
 11
-0.3136267874374283
 21
209.500570444293
 31
0.0
  0
LINE
  5
1E3F
  8
0
 62
     0
 10
-1.660107905944016
 20
211.96958357793321
 30
0.0
 11
0.8089052276962149
 21
209.500570444293
 31
0.0
  0
LINE
  5
1E40
  8
0
 62
     0
 10
-1.422888978932874
 20
212.85489666605579
 30
0.0
 11
1.9314372428298581
 21
209.500570444293
 31
0.0
  0
LINE
  5
1E41
  8
0
 62
     0
 10
2.5797516401796652
 20
209.9747880620769
 30
0.0
 11
3.0539692579634869
 21
209.500570444293
 31
0.0
  0
LINE
  5
1E42
  8
0
 62
     0
 10
-1.185670051921732
 20
213.74020975417821
 30
0.0
 11
1.6727414339308231
 21
210.8817982683257
 31
0.0
  0
LINE
  5
1E43
  8
0
 62
     0
 10
4.1764198410393334
 20
209.50065187635079
 30
0.0
 11
4.1765012730971591
 21
209.500570444293
 31
0.0
  0
LINE
  5
1E44
  8
0
 62
     0
 10
-0.9484511249106049
 20
214.6255228423008
 30
0.0
 11
1.1986052482048131
 21
212.47846646918541
 31
0.0
  0
LINE
  5
1E45
  8
0
 62
     0
 10
-0.7112321978994772
 20
215.5108359304233
 30
0.0
 11
1.3519433106380629
 21
213.4476604218857
 31
0.0
  0
LINE
  5
1E46
  8
0
 62
     0
 10
-0.4740132708883352
 20
216.3961490185458
 30
0.0
 11
1.7245988358506561
 21
214.19753691180679
 31
0.0
  0
LINE
  5
1E47
  8
0
 62
     0
 10
1.9957872199935589
 20
215.0488805427976
 30
0.0
 11
2.2570388869042972
 21
214.78762887588681
 31
0.0
  0
LINE
  5
1E48
  8
0
 62
     0
 10
2.666629333631505
 20
215.5005704442932
 30
0.0
 11
2.9423086162005769
 21
215.2248911617242
 31
0.0
  0
LINE
  5
1E49
  8
0
 62
     0
 10
3.7891613487651341
 20
215.5005704442932
 30
0.0
 11
3.8139171990989662
 21
215.4758145939594
 31
0.0
  0
LINE
  5
1E4A
  8
0
 62
     0
 10
3.6980668174538631
 20
209.500570444293
 30
0.0
 11
3.734215039755497
 21
209.53671866659471
 31
0.0
  0
LINE
  5
1E4B
  8
0
 62
     0
 10
2.5755348023202091
 20
209.50057044429309
 30
0.0
 11
2.8805497588794391
 21
209.80558540085229
 31
0.0
  0
LINE
  5
1E4C
  8
0
 62
     0
 10
1.4530027871865761
 20
209.500570444293
 30
0.0
 11
2.2082623894297981
 21
210.2558300465362
 31
0.0
  0
LINE
  5
1E4D
  8
0
 62
     0
 10
0.3304707720529194
 20
209.500570444293
 30
0.0
 11
1.6880529827447111
 21
210.85815265498479
 31
0.0
  0
LINE
  5
1E4E
  8
0
 62
     0
 10
-0.7920612430807204
 20
209.500570444293
 30
0.0
 11
1.3298939489202151
 21
211.622525636294
 31
0.0
  0
LINE
  5
1E4F
  8
0
 62
     0
 10
4.083188898093681
 20
215.49835260060109
 30
0.0
 11
4.0854067417858673
 21
215.5005704442932
 31
0.0
  0
LINE
  5
1E50
  8
0
 62
     0
 10
-1.914593258214367
 20
209.500570444293
 30
0.0
 11
1.200741659839192
 21
212.61590536234661
 31
0.0
  0
LINE
  5
1E51
  8
0
 62
     0
 10
2.2024333983537998
 20
214.74012911599479
 30
0.0
 11
2.9628747266522382
 21
215.5005704442932
 31
0.0
  0
LINE
  5
1E52
  8
0
 62
     0
 10
-2.0598060972115171
 20
210.47788962042949
 30
0.0
 11
1.958965144445439
 21
214.4966608620864
 31
0.0
  0
LINE
  5
1E53
  8
0
 62
     0
 10
-1.648930863111264
 20
212.0112968696634
 30
0.0
 11
1.458533101480352
 21
215.118760834255
 31
0.0
  0
LINE
  5
1E54
  8
0
 62
     0
 10
-1.2380556290110181
 20
213.5447041188973
 30
0.0
 11
0.8960352219120615
 21
215.67879496982039
 31
0.0
  0
LINE
  5
1E55
  8
0
 62
     0
 10
-0.8271803949107692
 20
215.0781113681312
 30
0.0
 11
0.3347692143452541
 21
216.2400609773872
 31
0.0
  0
LINE
  5
1E56
  8
0
 62
     0
 10
-0.4163051608105022
 20
216.61151861736511
 30
0.0
 11
-0.2261048935449388
 21
216.8017188846307
 31
0.0
  0
ENDBLK
  5
1E58
  8
0
  0
BLOCK
  8
0
  2
*X107
 70
     1
 10
0.0
 20
0.0
 30
0.0
  3
*X107
  1

  0
LINE
  5
1E5A
  8
0
 62
     0
 10
-0.5379742096560634
 20
0.8393123985481594
 30
0.0
 11
-0.062712078008154
 21
0.3640502669002501
 31
0.0
  0
LINE
  5
1E5B
  8
0
 62
     0
 10
-0.9488494437563304
 20
2.3727196477820551
 30
0.0
 11
0.4985539295586961
 21
0.9253162744670291
 31
0.0
  0
LINE
  5
1E5C
  8
0
 62
     0
 10
-1.359724677856583
 20
3.906126897015965
 30
0.0
 11
1.1474832455971009
 21
1.3989189735622809
 31
0.0
  0
LINE
  5
1E5D
  8
0
 62
     0
 10
-1.7705999119568501
 20
5.4395341462498621
 30
0.0
 11
2.2689342342571801
 21
1.4000000000358239
 31
0.0
  0
LINE
  5
1E5E
  8
0
 62
     0
 10
-2.1814751460571031
 20
6.9729413954837716
 30
0.0
 11
3.3914662493908518
 21
1.400000000035817
 31
0.0
  0
LINE
  5
1E5F
  8
0
 62
     0
 10
-2.5923503801573702
 20
8.5063486447176686
 30
0.0
 11
4.5139982645245089
 21
1.400000000035788
 31
0.0
  0
LINE
  5
1E60
  8
0
 62
     0
 10
-2.4640401645991399
 20
9.5005704442930963
 30
0.0
 11
5.6365302796581807
 21
1.4000000000357671
 31
0.0
  0
LINE
  5
1E61
  8
0
 62
     0
 10
6.619068456489507
 20
1.539993838338084
 30
0.0
 11
6.7590622947918462
 21
1.4000000000357531
 31
0.0
  0
LINE
  5
1E62
  8
0
 62
     0
 10
-1.3415081494654819
 20
9.5005704442930821
 30
0.0
 11
3.764443532378372
 21
4.3946187624492259
 31
0.0
  0
LINE
  5
1E63
  8
0
 62
     0
 10
-0.2189761343318395
 20
9.5005704442930821
 30
0.0
 11
3.6294814053370739
 21
5.6521129046241683
 31
0.0
  0
LINE
  5
1E64
  8
0
 62
     0
 10
0.903555880801818
 20
9.5005704442930679
 30
0.0
 11
3.7940520276566749
 21
6.6100742974382101
 31
0.0
  0
LINE
  5
1E65
  8
0
 62
     0
 10
2.0260878959354609
 20
9.5005704442930679
 30
0.0
 11
4.1253331022153708
 21
7.4013252380131567
 31
0.0
  0
LINE
  5
1E66
  8
0
 62
     0
 10
3.1486199110691109
 20
9.5005704442930607
 30
0.0
 11
4.5827349357983422
 21
8.0664554195638303
 31
0.0
  0
LINE
  5
1E67
  8
0
 62
     0
 10
4.2711519262027622
 20
9.5005704442930536
 30
0.0
 11
5.152414012157962
 21
8.6193083583378538
 31
0.0
  0
LINE
  5
1E68
  8
0
 62
     0
 10
5.3936839413364188
 20
9.5005704442930465
 30
0.0
 11
5.835410459169629
 21
9.0588439264598364
 31
0.0
  0
LINE
  5
1E69
  8
0
 62
     0
 10
6.516215956470063
 20
9.5005704442930394
 30
0.0
 11
6.6484070610138479
 21
9.3683793397492536
 31
0.0
  0
LINE
  5
1E6A
  8
0
 62
     0
 10
7.6387479716037197
 20
9.5005704442930323
 30
0.0
 11
7.6389064424978406
 21
9.5004119733989114
 31
0.0
  0
LINE
  5
1E6B
  8
0
 62
     0
 10
6.7281658714273753
 20
1.4000000000357531
 30
0.0
 11
6.8194906674404079
 21
1.4913247960487861
 31
0.0
  0
LINE
  5
1E6C
  8
0
 62
     0
 10
5.6056338562937489
 20
1.4000000000357671
 30
0.0
 11
5.9781104970773837
 21
1.772476640819405
 31
0.0
  0
LINE
  5
1E6D
  8
0
 62
     0
 10
4.4831018411601269
 20
1.4000000000357919
 30
0.0
 11
5.2724387845657361
 21
2.1893369434414001
 31
0.0
  0
LINE
  5
1E6E
  8
0
 62
     0
 10
3.3605698260264951
 20
1.400000000035809
 30
0.0
 11
4.6818515985900433
 21
2.7212817725993581
 31
0.0
  0
LINE
  5
1E6F
  8
0
 62
     0
 10
2.2380378108928691
 20
1.400000000035827
 30
0.0
 11
4.2027035549727669
 21
3.3646657441157251
 31
0.0
  0
LINE
  5
1E70
  8
0
 62
     0
 10
1.110620502761527
 20
1.3951147070381249
 30
0.0
 11
3.8456357476081382
 21
4.1301299518847401
 31
0.0
  0
LINE
  5
1E71
  8
0
 62
     0
 10
-0.3070400019802477
 20
-0.0225457977036463
 30
0.0
 11
-0.3019877987612496
 21
-0.0174935944846517
 31
0.0
  0
LINE
  5
1E72
  8
0
 62
     0
 10
-0.5442589289913898
 20
0.8627672904188514
 30
0.0
 11
3.6441604276324071
 21
5.051186647042651
 31
0.0
  0
LINE
  5
1E73
  8
0
 62
     0
 10
6.8953095396623487
 20
9.4248677742062377
 30
0.0
 11
6.9710122097491443
 21
9.5005704442930359
 31
0.0
  0
LINE
  5
1E74
  8
0
 62
     0
 10
-0.7814778560025176
 20
1.7480803785413661
 30
0.0
 11
3.7001523641628071
 21
6.2297105987066947
 31
0.0
  0
LINE
  5
1E75
  8
0
 62
     0
 10
-1.0186967830136551
 20
2.633393466663875
 30
0.0
 11
5.8484801946155081
 21
9.5005704442930394
 31
0.0
  0
LINE
  5
1E76
  8
0
 62
     0
 10
-1.2559157100247831
 20
3.5187065547863901
 30
0.0
 11
4.7259481794818683
 21
9.5005704442930412
 31
0.0
  0
LINE
  5
1E77
  8
0
 62
     0
 10
-1.4931346370359251
 20
4.4040196429088923
 30
0.0
 11
3.6034161643482281
 21
9.5005704442930501
 31
0.0
  0
LINE
  5
1E78
  8
0
 62
     0
 10
-1.7303535640470491
 20
5.2893327310314113
 30
0.0
 11
2.4808841492145879
 21
9.5005704442930501
 31
0.0
  0
LINE
  5
1E79
  8
0
 62
     0
 10
-1.9675724910581811
 20
6.1746458191539233
 30
0.0
 11
1.3583521340809559
 21
9.5005704442930607
 31
0.0
  0
LINE
  5
1E7A
  8
0
 62
     0
 10
-2.2047914180693158
 20
7.0599589072764379
 30
0.0
 11
0.2358201189473199
 21
9.5005704442930732
 31
0.0
  0
LINE
  5
1E7B
  8
0
 62
     0
 10
-2.4420103450804471
 20
7.9452719953989499
 30
0.0
 11
-0.8867118961863234
 21
9.5005704442930732
 31
0.0
  0
LINE
  5
1E7C
  8
0
 62
     0
 10
-2.679229272091586
 20
8.8305850835214557
 30
0.0
 11
-2.0092439113199561
 21
9.5005704442930856
 31
0.0
  0
ENDBLK
  5
1E7E
  8
0
  0
BLOCK
  8
0
  2
*X108
 70
     1
 10
0.0
 20
0.0
 30
0.0
  3
*X108
  1

  0
LINE
  5
1E80
  8
0
 62
     0
 10
10.99291952337758
 20
3.1624911804679239
 30
0.0
 11
11.03256357097915
 21
3.1853796820224591
 31
0.0
  0
LINE
  5
1E81
  8
0
 62
     0
 10
8.9306965306158883
 20
1.9718661804679229
 30
0.0
 11
9.6181041948697867
 21
2.3687411804679228
 31
0.0
  0
LINE
  5
1E82
  8
0
 62
     0
 10
10.30551202337757
 20
4.3531158959718246
 30
0.0
 11
10.992919687631471
 21
4.7499908959718251
 31
0.0
  0
LINE
  5
1E83
  8
0
 62
     0
 10
8.2432890306158768
 20
3.1624908959718239
 30
0.0
 11
8.9306966948697752
 21
3.559365895971824
 31
0.0
  0
LINE
  5
1E84
  8
0
 62
     0
 10
6.1810660378541842
 20
1.9718658959718229
 30
0.0
 11
6.8684737021080808
 21
2.3687408959718228
 31
0.0
  0
LINE
  5
1E85
  8
0
 62
     0
 10
9.6181045233775802
 20
5.5437406114757266
 30
0.0
 11
10.30551218763148
 21
5.940615611475728
 31
0.0
  0
LINE
  5
1E86
  8
0
 62
     0
 10
7.5558815306158884
 20
4.353115611475725
 30
0.0
 11
8.2432891948697868
 21
4.7499906114757264
 31
0.0
  0
LINE
  5
1E87
  8
0
 62
     0
 10
5.493658537854194
 20
3.1624906114757239
 30
0.0
 11
6.1810662021080924
 21
3.5593656114757248
 31
0.0
  0
LINE
  5
1E88
  8
0
 62
     0
 10
8.9306970233775704
 20
6.7343653269796251
 30
0.0
 11
9.6181046876314689
 21
7.1312403269796256
 31
0.0
  0
LINE
  5
1E89
  8
0
 62
     0
 10
6.868474030615876
 20
5.5437403269796244
 30
0.0
 11
7.5558816948697736
 21
5.940615326979624
 31
0.0
  0
LINE
  5
1E8A
  8
0
 62
     0
 10
4.8062510378541834
 20
4.3531153269796219
 30
0.0
 11
5.49365870210808
 21
4.7499903269796233
 31
0.0
  0
LINE
  5
1E8B
  8
0
 62
     0
 10
8.2432895233775767
 20
7.924990042483536
 30
0.0
 11
8.9306971876314751
 21
8.3218650424835374
 31
0.0
  0
LINE
  5
1E8C
  8
0
 62
     0
 10
6.1810665306158832
 20
6.7343650424835353
 30
0.0
 11
6.8684741948697798
 21
7.1312400424835349
 31
0.0
  0
LINE
  5
1E8D
  8
0
 62
     0
 10
4.1188435378541888
 20
5.5437400424835328
 30
0.0
 11
4.8062512021080872
 21
5.9406150424835342
 31
0.0
  0
LINE
  5
1E8E
  8
0
 62
     0
 10
7.5558820233775723
 20
9.1156147579874336
 30
0.0
 11
8.1700002693932792
 21
9.4701760926388641
 31
0.0
  0
LINE
  5
1E8F
  8
0
 62
     0
 10
5.4936590306158779
 20
7.924989757987432
 30
0.0
 11
6.1810666948697763
 21
8.3218647579874325
 31
0.0
  0
LINE
  5
1E90
  8
0
 62
     0
 10
3.9457746253374562
 20
7.0313182799255101
 30
0.0
 11
4.1188437021080819
 21
7.1312397579874309
 31
0.0
  0
LINE
  5
1E91
  8
0
 62
     0
 10
5.4936550885223223
 20
2.3687534138000972
 30
0.0
 11
6.1810627527762199
 21
1.971878413800098
 31
0.0
  0
LINE
  5
1E92
  8
0
 62
     0
 10
8.2432855812840184
 20
2.3687531293040038
 30
0.0
 11
8.9306932455379169
 21
1.9718781293040051
 31
0.0
  0
LINE
  5
1E93
  8
0
 62
     0
 10
6.1810625885223232
 20
3.5593781293040032
 30
0.0
 11
6.8684702527762207
 21
3.162503129304004
 31
0.0
  0
LINE
  5
1E94
  8
0
 62
     0
 10
4.1188395957606279
 20
4.7500031293040017
 30
0.0
 11
4.8062472600145272
 21
4.3531281293040021
 31
0.0
  0
LINE
  5
1E95
  8
0
 62
     0
 10
8.9306930812840175
 20
3.5593778448079059
 30
0.0
 11
9.6181007455379142
 21
3.1625028448079071
 31
0.0
  0
LINE
  5
1E96
  8
0
 62
     0
 10
6.8684700885223222
 20
4.7500028448079048
 30
0.0
 11
7.5558777527762198
 21
4.353127844807906
 31
0.0
  0
LINE
  5
1E97
  8
0
 62
     0
 10
4.806247095760626
 20
5.9406278448079037
 30
0.0
 11
5.4936547600145254
 21
5.5437528448079041
 31
0.0
  0
LINE
  5
1E98
  8
0
 62
     0
 10
9.6181005812840166
 20
4.7500025603118106
 30
0.0
 11
10.30550824553791
 21
4.3531275603118109
 31
0.0
  0
LINE
  5
1E99
  8
0
 62
     0
 10
7.5558775885223213
 20
5.9406275603118104
 30
0.0
 11
8.2432852527762197
 21
5.5437525603118099
 31
0.0
  0
LINE
  5
1E9A
  8
0
 62
     0
 10
5.493654595760626
 20
7.1312525603118093
 30
0.0
 11
6.1810622600145253
 21
6.7343775603118088
 31
0.0
  0
LINE
  5
1E9B
  8
0
 62
     0
 10
10.305508081284019
 20
5.9406272758157161
 30
0.0
 11
10.992915745537919
 21
5.5437522758157156
 31
0.0
  0
LINE
  5
1E9C
  8
0
 62
     0
 10
8.2432850885223221
 20
7.1312522758157151
 30
0.0
 11
8.9306927527762223
 21
6.7343772758157154
 31
0.0
  0
LINE
  5
1E9D
  8
0
 62
     0
 10
6.1810620957606277
 20
8.321877275815714
 30
0.0
 11
6.868469760014527
 21
7.9250022758157144
 31
0.0
  0
LINE
  5
1E9E
  8
0
 62
     0
 10
10.992915581284
 20
7.1312519913196191
 30
0.0
 11
11.47423245465631
 21
6.8533635649126072
 31
0.0
  0
LINE
  5
1E9F
  8
0
 62
     0
 10
8.9306925885223105
 20
8.3218769913196162
 30
0.0
 11
9.6181002527762072
 21
7.9250019913196184
 31
0.0
  0
LINE
  5
1EA0
  8
0
 62
     0
 10
6.9900876352976899
 20
9.4422857834545724
 30
0.0
 11
7.5558772600145137
 21
9.1156269913196173
 31
0.0
  0
LINE
  5
1EA1
  8
0
 62
     0
 10
10.99292790032638
 20
7.1312499998469496
 30
0.0
 11
10.99292790032638
 21
7.7728712164206391
 31
0.0
  0
LINE
  5
1EA2
  8
0
 62
     0
 10
10.99292790032638
 20
4.74999999984695
 30
0.0
 11
10.99292790032638
 21
5.543749999846951
 31
0.0
  0
LINE
  5
1EA3
  8
0
 62
     0
 10
10.99292790032638
 20
3.127699227908042
 30
0.0
 11
10.99292790032638
 21
3.162499999846951
 31
0.0
  0
LINE
  5
1EA4
  8
0
 62
     0
 10
9.6181129003263823
 20
7.1312499998469523
 30
0.0
 11
9.6181129003263823
 21
7.9249999998469516
 31
0.0
  0
LINE
  5
1EA5
  8
0
 62
     0
 10
9.6181129003263823
 20
4.7499999998469518
 30
0.0
 11
9.6181129003263823
 21
5.5437499998469519
 31
0.0
  0
LINE
  5
1EA6
  8
0
 62
     0
 10
9.6181129003263823
 20
2.368749999846953
 30
0.0
 11
9.6181129003263823
 21
3.1624999998469532
 31
0.0
  0
LINE
  5
1EA7
  8
0
 62
     0
 10
8.2432979003263771
 20
7.1312499998469523
 30
0.0
 11
8.2432979003263771
 21
7.9249999998469516
 31
0.0
  0
LINE
  5
1EA8
  8
0
 62
     0
 10
8.2432979003263771
 20
4.7499999998469518
 30
0.0
 11
8.2432979003263771
 21
5.5437499998469519
 31
0.0
  0
LINE
  5
1EA9
  8
0
 62
     0
 10
8.2432979003263771
 20
2.368749999846953
 30
0.0
 11
8.2432979003263771
 21
3.1624999998469532
 31
0.0
  0
LINE
  5
1EAA
  8
0
 62
     0
 10
6.8684829003263781
 20
7.1312499998469523
 30
0.0
 11
6.8684829003263781
 21
7.9249999998469516
 31
0.0
  0
LINE
  5
1EAB
  8
0
 62
     0
 10
6.8684829003263781
 20
4.7499999998469518
 30
0.0
 11
6.8684829003263781
 21
5.5437499998469519
 31
0.0
  0
LINE
  5
1EAC
  8
0
 62
     0
 10
6.8684829003263781
 20
2.368749999846953
 30
0.0
 11
6.8684829003263781
 21
3.1624999998469532
 31
0.0
  0
LINE
  5
1EAD
  8
0
 62
     0
 10
5.4936679003263791
 20
7.1312499998469523
 30
0.0
 11
5.4936679003263791
 21
7.9249999998469516
 31
0.0
  0
LINE
  5
1EAE
  8
0
 62
     0
 10
5.4936679003263791
 20
4.7499999998469518
 30
0.0
 11
5.4936679003263791
 21
5.5437499998469519
 31
0.0
  0
LINE
  5
1EAF
  8
0
 62
     0
 10
5.4936679003263791
 20
2.368749999846953
 30
0.0
 11
5.4936679003263791
 21
3.1624999998469532
 31
0.0
  0
LINE
  5
1EB0
  8
0
 62
     0
 10
4.1188529003263739
 20
7.1312499998469461
 30
0.0
 11
4.1188529003263739
 21
7.3894895615136704
 31
0.0
  0
LINE
  5
1EB1
  8
0
 62
     0
 10
4.1188529003263739
 20
4.7499999998469473
 30
0.0
 11
4.1188529003263739
 21
5.5437499998469466
 31
0.0
  0
ENDBLK
  5
1EB3
  8
0
  0
BLOCK
  8
0
  2
*U109
 70
     1
 10
0.0
 20
0.0
 30
0.0
  3
*U109
  1

  0
TEXT
  5
1FC7
  8
SAPA_MATT
 62
     2
 10
65.10000000114519
 20
-25.614674685652581
 30
0.0
 40
3.0
  1
139.5
  7
ISO
  0
ENDBLK
  5
1FC9
  8
0
  0
BLOCK
  8
0
  2
*U110
 70
     1
 10
0.0
 20
0.0
 30
0.0
  3
*U110
  1

  0
TEXT
  5
1FCB
  8
SAPA_MATT
 62
     2
 10
46.099999999982131
 20
-12.38945198034577
 30
0.0
 40
3.0
  1
97
  7
ISO
  0
ENDBLK
  5
1FCD
  8
0
  0
BLOCK
  8
0
  2
*U111
 70
     1
 10
0.0
 20
0.0
 30
0.0
  3
*U111
  1

  0
TEXT
  5
1FCF
  8
SAPA_MATT
 62
     2
 10
98.15000000112741
 20
-12.38945198034577
 30
0.0
 40
3.0
  1
5
  7
ISO
  0
ENDBLK
  5
1FD1
  8
0
  0
BLOCK
  8
0
  2
*U112
 70
     1
 10
0.0
 20
0.0
 30
0.0
  3
*U112
  1

  0
TEXT
  5
1FD3
  8
SAPA_MATT
 62
     2
 10
116.8500000022904
 20
-12.38945198034577
 30
0.0
 40
3.0
  1
37.5
  7
ISO
  0
ENDBLK
  5
1FD5
  8
0
  0
BLOCK
  8
0
  2
*U113
 70
     1
 10
0.0
 20
0.0
 30
0.0
  3
*U113
  1

  0
TEXT
  5
1FD7
  8
SAPA_MATT
 62
     2
 10
-51.454423715370211
 20
102.45057044429289
 30
0.0
 40
3.0
  1
197-202
 50
90.0
  7
ISO
  0
ENDBLK
  5
1FD9
  8
0
  0
ENDSEC
  0
SECTION
  2
ENTITIES
  0
LINE
  5
80A
  8
SAPA_ANSLUTNING
 10
-35.301476183959842
 20
9.5005704442929755
 30
0.0
 11
24.698523816023108
 21
9.5005704442929755
 31
0.0
  0
LINE
  5
80B
  8
SAPA_ANSLUTNING
 10
24.698523816024021
 20
10.100570444198119
 30
0.0
 11
-35.301476183959842
 21
10.10057044429294
 31
0.0
  0
LINE
  5
80D
  8
SAPA_ANSLUTNING
 10
-35.301476183959842
 20
209.500570444293
 30
0.0
 11
24.698523816167501
 21
209.500570444293
 31
0.0
  0
LINE
  5
80E
  8
SAPA_ANSLUTNING
 10
24.698523816166588
 20
208.90057044419351
 30
0.0
 11
-35.301476183959842
 21
208.9005704442929
 31
0.0
  0
CIRCLE
  5
80F
  8
SAPA_ANSLUTNING
 10
7.674734916204101
 20
5.4502852221643252
 30
0.0
 40
4.0502852221286458
  0
LINE
  5
810
  8
SAPA_ANSLUTNING
 10
-0.2922760240429625
 20
-0.0776457134900852
 30
0.0
 11
-2.8587513084517009
 21
9.5005704442929755
 31
0.0
  0
CIRCLE
  5
813
  8
SAPA_ANSLUTNING
 10
4.198523816146575
 20
212.5005704442936
 30
0.0
 40
3.0000000000000848
1001
ACAD
1000
ASC_BOUNDS
1002
{
1070
    19
1005
1237
1002
}
  0
LINE
  5
814
  8
SAPA_ANSLUTNING
 10
-0.2912539317358096
 20
217.07821615782311
 30
0.0
 11
-2.3216779812054251
 21
209.500570444293
 31
0.0
  0
LINE
  5
815
  8
SAPA_ANSLUTNING
 10
24.698523816023108
 20
209.500570444293
 30
0.0
 11
24.698523816023108
 21
9.5005704442929755
 31
0.0
  0
POLYLINE
  5
816
  8
SAPA_ANSLUTNING
 66
     1
 10
0.0
 20
0.0
 30
0.0
  0
VERTEX
  5
1345
  8
SAPA_ANSLUTNING
 10
37.395923421587213
 20
108.4160863492107
 30
0.0
  0
VERTEX
  5
1346
  8
SAPA_ANSLUTNING
 10
28.904524111107659
 20
108.4160863492107
 30
0.0
 42
0.9999999999999998
  0
VERTEX
  5
1347
  8
SAPA_ANSLUTNING
 10
28.904524111107659
 20
100.0040857590466
 30
0.0
  0
VERTEX
  5
1348
  8
SAPA_ANSLUTNING
 10
37.395923421587099
 20
100.0040857590466
 30
0.0
 42
-0.9999999999999998
  0
VERTEX
  5
1349
  8
SAPA_ANSLUTNING
 10
37.395923421587099
 20
91.592085168871563
 30
0.0
  0
VERTEX
  5
134A
  8
SAPA_ANSLUTNING
 10
28.904524111107548
 20
91.592085168871606
 30
0.0
 42
0.9999999999999998
  0
VERTEX
  5
134B
  8
SAPA_ANSLUTNING
 10
28.904524111107548
 20
83.180084578707508
 30
0.0
  0
VERTEX
  5
134C
  8
SAPA_ANSLUTNING
 10
35.81155944660884
 20
83.180084578707508
 30
0.0
 42
-0.9999999999999998
  0
VERTEX
  5
134D
  8
SAPA_ANSLUTNING
 10
35.81155944660884
 20
74.768083988532496
 30
0.0
  0
VERTEX
  5
134E
  8
SAPA_ANSLUTNING
 10
28.904524111107548
 20
74.768083988532496
 30
0.0
 42
0.9999999999999998
  0
VERTEX
  5
134F
  8
SAPA_ANSLUTNING
 10
28.904524111107548
 20
66.356083398368412
 30
0.0
  0
VERTEX
  5
1350
  8
SAPA_ANSLUTNING
 10
40.797645887928859
 20
66.356083398368412
 30
0.0
 42
-0.9999999999999998
  0
VERTEX
  5
1351
  8
SAPA_ANSLUTNING
 10
40.797645887928859
 20
57.9440828081934
 30
0.0
  0
VERTEX
  5
1352
  8
SAPA_ANSLUTNING
 10
28.904524111107548
 20
57.9440828081934
 30
0.0
 42
0.9999999999999998
  0
VERTEX
  5
1353
  8
SAPA_ANSLUTNING
 10
28.904524111107548
 20
49.532082218029302
 30
0.0
  0
VERTEX
  5
1354
  8
SAPA_ANSLUTNING
 10
40.797645887928859
 20
49.532082218029302
 30
0.0
 42
-0.9999999999999998
  0
VERTEX
  5
1355
  8
SAPA_ANSLUTNING
 10
40.797645887928859
 20
41.12008162785429
 30
0.0
  0
VERTEX
  5
1356
  8
SAPA_ANSLUTNING
 10
28.904524111107548
 20
41.12008162785429
 30
0.0
 42
0.9999999999999998
  0
VERTEX
  5
1357
  8
SAPA_ANSLUTNING
 10
28.904524111107548
 20
32.708081037690192
 30
0.0
  0
VERTEX
  5
1358
  8
SAPA_ANSLUTNING
 10
40.797645887928859
 20
32.708081037690192
 30
0.0
 42
-0.9999999999999998
  0
VERTEX
  5
1359
  8
SAPA_ANSLUTNING
 10
40.797645887928859
 20
24.29608044751518
 30
0.0
  0
VERTEX
  5
135A
  8
SAPA_ANSLUTNING
 10
28.904524111107548
 20
24.29608044751518
 30
0.0
 42
0.9999999999999998
  0
VERTEX
  5
135B
  8
SAPA_ANSLUTNING
 10
28.904524111107548
 20
15.884079857351081
 30
0.0
  0
VERTEX
  5
135C
  8
SAPA_ANSLUTNING
 10
40.797645887928859
 20
15.884079857351081
 30
0.0
  0
SEQEND
  5
135D
  8
SAPA_ANSLUTNING
  0
TEXT
  5
924
  8
SAPA_ARTIKELNR
 10
42.194349421236893
 20
-6.4032404497145858
 30
0.0
 40
3.5
  1
86117
 50
180.0
 51
180.0
  7
ISO
 71
     6
 72
     4
 11
47.61934942123689
 21
-4.6532404497145867
 31
0.0
  0
TEXT
  5
925
  8
SAPA_ARTIKELNR
 10
122.0651289826415
 20
86.402514693363514
 30
0.0
 40
3.5
  1
42728
 50
180.0
 51
180.0
  7
ISO
 71
     6
 72
     4
 11
128.36512898264141
 21
88.152514693363514
 31
0.0
  0
TEXT
  5
926
  8
SAPA_ARTIKELNR
 10
85.167929051283224
 20
97.808592440673465
 30
0.0
 40
3.5
  1
86302
 50
180.0
 51
180.0
  7
ISO
 71
     6
 72
     4
 11
91.292929051283224
 21
99.558592440673465
 31
0.0
  0
TEXT
  5
927
  8
SAPA_ARTIKELNR
 10
37.388902342861229
 20
70.657606725720484
 30
0.0
 40
3.5
  1
42793
 50
270.0
 51
180.0
  7
ISO
 71
     6
 72
     4
 11
35.638902342861229
 21
76.957606725720481
 31
0.0
  0
TEXT
  5
AC6
  8
SAPA_ARTIKELNR
 10
15.67820577813257
 20
219.9100865963685
 30
0.0
 40
3.5
  1
42880
 50
180.0
 51
180.0
  7
ISO
 71
     6
 72
     4
 11
21.97820577813258
 21
221.6600865963685
 31
0.0
  0
POLYLINE
  5
1201
  8
SAPA_PROFIL
 66
     1
 10
0.0
 20
0.0
 30
0.0
 70
     1
  0
VERTEX
  5
187F
  8
SAPA_PROFIL
 10
41.770186666921262
 20
87.407734161397016
 30
0.0
 42
-0.6370702608040425
  0
VERTEX
  5
1880
  8
SAPA_PROFIL
 10
41.999999999858197
 20
87.90057044430128
 30
0.0
  0
VERTEX
  5
1881
  8
SAPA_PROFIL
 10
42.223675183662493
 20
87.900570444301309
 30
0.0
 42
0.6370702608052643
  0
VERTEX
  5
1882
  8
SAPA_PROFIL
 10
42.453488516599322
 20
88.393406727205644
 30
0.0
  0
VERTEX
  5
1883
  8
SAPA_PROFIL
 10
41.770186666921148
 20
89.207734161396914
 30
0.0
 42
-0.6370702608045286
  0
VERTEX
  5
1884
  8
SAPA_PROFIL
 10
41.999999999858197
 20
89.700570444301249
 30
0.0
  0
VERTEX
  5
1885
  8
SAPA_PROFIL
 10
42.223675183662493
 20
89.700570444301221
 30
0.0
 42
0.6370702608054076
  0
VERTEX
  5
1886
  8
SAPA_PROFIL
 10
42.453488516599322
 20
90.19340672720584
 30
0.0
  0
VERTEX
  5
1887
  8
SAPA_PROFIL
 10
41.77018666692134
 20
91.007734161396812
 30
0.0
 42
-0.6370702608048892
  0
VERTEX
  5
1888
  8
SAPA_PROFIL
 10
41.999999999858197
 20
91.500570444301431
 30
0.0
  0
VERTEX
  5
1889
  8
SAPA_PROFIL
 10
42.223675183662259
 20
91.500570444301289
 30
0.0
 42
0.6370702608051136
  0
VERTEX
  5
188A
  8
SAPA_PROFIL
 10
42.453488516599322
 20
91.993406727205794
 30
0.0
  0
VERTEX
  5
188B
  8
SAPA_PROFIL
 10
41.77018666692134
 20
92.807734161396766
 30
0.0
 42
-0.6370702608048892
  0
VERTEX
  5
188C
  8
SAPA_PROFIL
 10
41.999999999858197
 20
93.300570444301385
 30
0.0
  0
VERTEX
  5
188D
  8
SAPA_PROFIL
 10
42.399999999993327
 20
93.300570444301599
 30
0.0
 42
0.4142135623708974
  0
VERTEX
  5
188E
  8
SAPA_PROFIL
 10
42.699999999993082
 20
93.600570444299521
 30
0.0
  0
VERTEX
  5
188F
  8
SAPA_PROFIL
 10
42.700000000290409
 20
196.8005704443037
 30
0.0
 42
0.4142135623728287
  0
VERTEX
  5
1890
  8
SAPA_PROFIL
 10
41.700000000271757
 20
197.80057044431689
 30
0.0
  0
VERTEX
  5
1891
  8
SAPA_PROFIL
 10
37.100000000396939
 20
197.80057044431791
 30
0.0
 42
-0.4142135623730077
  0
VERTEX
  5
1892
  8
SAPA_PROFIL
 10
36.800000000397638
 20
198.1005704443175
 30
0.0
  0
VERTEX
  5
1893
  8
SAPA_PROFIL
 10
36.800000000397638
 20
200.40057044431731
 30
0.0
 42
-0.4142135623730951
  0
VERTEX
  5
1894
  8
SAPA_PROFIL
 10
37.10000000039782
 20
200.70057044431749
 30
0.0
  0
VERTEX
  5
1895
  8
SAPA_PROFIL
 10
37.600000000396911
 20
200.70057044431749
 30
0.0
 42
-0.4142135623730951
  0
VERTEX
  5
1896
  8
SAPA_PROFIL
 10
37.9000000003971
 20
200.40057044431731
 30
0.0
  0
VERTEX
  5
1897
  8
SAPA_PROFIL
 10
37.900000000397242
 20
200.06394351968751
 30
0.0
 42
0.553524574347029
  0
VERTEX
  5
1898
  8
SAPA_PROFIL
 10
42.210554211956151
 20
201.836462842374
 30
0.0
  0
VERTEX
  5
1899
  8
SAPA_PROFIL
 10
41.923223305263512
 20
202.12379374906621
 30
0.0
 42
-0.4142135623731421
  0
VERTEX
  5
189A
  8
SAPA_PROFIL
 10
41.923223305263491
 20
202.47734713965951
 30
0.0
  0
VERTEX
  5
189B
  8
SAPA_PROFIL
 10
42.210554211946032
 20
202.7646780463422
 30
0.0
 42
0.5535245743365356
  0
VERTEX
  5
189C
  8
SAPA_PROFIL
 10
37.900000000397092
 20
204.53719736895781
 30
0.0
  0
VERTEX
  5
189D
  8
SAPA_PROFIL
 10
37.900000000397092
 20
204.20057044431741
 30
0.0
 42
-0.4142135623730951
  0
VERTEX
  5
189E
  8
SAPA_PROFIL
 10
37.600000000396911
 20
203.90057044431731
 30
0.0
  0
VERTEX
  5
189F
  8
SAPA_PROFIL
 10
37.100000000397813
 20
203.90057044431731
 30
0.0
 42
-0.4142135623730951
  0
VERTEX
  5
18A0
  8
SAPA_PROFIL
 10
36.800000000397631
 20
204.20057044431741
 30
0.0
  0
VERTEX
  5
18A1
  8
SAPA_PROFIL
 10
36.800000000397631
 20
206.50057044431719
 30
0.0
 42
-0.4142135623730744
  0
VERTEX
  5
18A2
  8
SAPA_PROFIL
 10
37.100000000396903
 20
206.8005704443174
 30
0.0
  0
VERTEX
  5
18A3
  8
SAPA_PROFIL
 10
41.700000000315413
 20
206.8005704443174
 30
0.0
 42
0.4142135623730951
  0
VERTEX
  5
18A4
  8
SAPA_PROFIL
 10
42.700000000289947
 20
207.80057044430009
 30
0.0
  0
VERTEX
  5
18A5
  8
SAPA_PROFIL
 10
42.700000000337582
 20
214.8005704443153
 30
0.0
 42
0.4142135623752928
  0
VERTEX
  5
18A6
  8
SAPA_PROFIL
 10
42.200000000337234
 20
215.30057044431899
 30
0.0
  0
VERTEX
  5
18A7
  8
SAPA_PROFIL
 10
9.7000000000234632
 20
215.3005704442981
 30
0.0
 42
0.4142135623728287
  0
VERTEX
  5
18A8
  8
SAPA_PROFIL
 10
9.2000000000239197
 20
214.80057044429799
 30
0.0
  0
VERTEX
  5
18A9
  8
SAPA_PROFIL
 10
9.2000000000236941
 20
209.80057044429259
 30
0.0
 42
-0.4142135623728953
  0
VERTEX
  5
18AA
  8
SAPA_PROFIL
 10
8.9000000000237396
 20
209.50057044429241
 30
0.0
  0
VERTEX
  5
18AB
  8
SAPA_PROFIL
 10
7.5000000000245857
 20
209.50057044429241
 30
0.0
 42
-0.4142135623733406
  0
VERTEX
  5
18AC
  8
SAPA_PROFIL
 10
7.2000000000246027
 20
209.80057044429299
 30
0.0
  0
VERTEX
  5
18AD
  8
SAPA_PROFIL
 10
7.2000000000318769
 20
215.00057044429201
 30
0.0
 42
0.4142135623736278
  0
VERTEX
  5
18AE
  8
SAPA_PROFIL
 10
6.7000000000318769
 20
215.50057044429241
 30
0.0
  0
VERTEX
  5
18AF
  8
SAPA_PROFIL
 10
2.614213562405411
 20
215.50057044429249
 30
0.0
 42
0.1989123673796446
  0
VERTEX
  5
18B0
  8
SAPA_PROFIL
 10
2.4020815280491661
 20
215.4127024786485
 30
0.0
  0
VERTEX
  5
18B1
  8
SAPA_PROFIL
 10
2.1363961031001679
 20
215.14701705369899
 30
0.0
 42
-0.414213562373048
  0
VERTEX
  5
18B2
  8
SAPA_PROFIL
 10
1.429289321913529
 20
215.1470170536991
 30
0.0
  0
VERTEX
  5
18B3
  8
SAPA_PROFIL
 10
-0.2121320343230621
 20
216.78843840993619
 30
0.0
 42
-0.6681786379187616
  0
VERTEX
  5
18B4
  8
SAPA_PROFIL
 10
0.0000000000327417
 20
217.30057044429171
 30
0.0
  0
VERTEX
  5
18B5
  8
SAPA_PROFIL
 10
44.200000000350663
 20
217.3005704443203
 30
0.0
 42
-0.4142135623754925
  0
VERTEX
  5
18B6
  8
SAPA_PROFIL
 10
44.70000000035111
 20
216.80057044431669
 30
0.0
  0
VERTEX
  5
18B7
  8
SAPA_PROFIL
 10
44.69999999987229
 20
75.800570444314332
 30
0.0
 42
-0.7336498725448476
  0
VERTEX
  5
18B8
  8
SAPA_PROFIL
 10
43.790111287436581
 20
75.514229313099264
 30
0.0
  0
VERTEX
  5
18B9
  8
SAPA_PROFIL
 10
41.754066772397522
 20
78.428765765579897
 30
0.0
 42
-0.606441717362567
  0
VERTEX
  5
18BA
  8
SAPA_PROFIL
 10
41.999999999858197
 20
78.900570444301053
 30
0.0
  0
VERTEX
  5
18BB
  8
SAPA_PROFIL
 10
42.223675183662493
 20
78.900570444301025
 30
0.0
 42
0.6370702608054076
  0
VERTEX
  5
18BC
  8
SAPA_PROFIL
 10
42.453488516599322
 20
79.393406727205644
 30
0.0
  0
VERTEX
  5
18BD
  8
SAPA_PROFIL
 10
41.770186666922477
 20
80.207734161395464
 30
0.0
 42
-0.6370702608052336
  0
VERTEX
  5
18BE
  8
SAPA_PROFIL
 10
41.999999999858197
 20
80.700570444301235
 30
0.0
  0
VERTEX
  5
18BF
  8
SAPA_PROFIL
 10
42.223675183662493
 20
80.700570444301206
 30
0.0
 42
0.6370702608054076
  0
VERTEX
  5
18C0
  8
SAPA_PROFIL
 10
42.453488516599322
 20
81.193406727205826
 30
0.0
  0
VERTEX
  5
18C1
  8
SAPA_PROFIL
 10
41.770186666922477
 20
82.007734161395447
 30
0.0
 42
-0.6370702608058605
  0
VERTEX
  5
18C2
  8
SAPA_PROFIL
 10
41.999999999858197
 20
82.500570444301417
 30
0.0
  0
VERTEX
  5
18C3
  8
SAPA_PROFIL
 10
42.223675183662259
 20
82.500570444301275
 30
0.0
 42
0.6370702608051136
  0
VERTEX
  5
18C4
  8
SAPA_PROFIL
 10
42.453488516599322
 20
82.99340672720578
 30
0.0
  0
VERTEX
  5
18C5
  8
SAPA_PROFIL
 10
41.770186666922427
 20
83.807734161395558
 30
0.0
 42
-0.6370702608057057
  0
VERTEX
  5
18C6
  8
SAPA_PROFIL
 10
41.999999999858197
 20
84.300570444301371
 30
0.0
  0
VERTEX
  5
18C7
  8
SAPA_PROFIL
 10
42.22367518366223
 20
84.300570444301002
 30
0.0
 42
0.6370702608047383
  0
VERTEX
  5
18C8
  8
SAPA_PROFIL
 10
42.453488516599322
 20
84.793406727205735
 30
0.0
  0
VERTEX
  5
18C9
  8
SAPA_PROFIL
 10
41.77018666692134
 20
85.607734161396706
 30
0.0
 42
-0.6370702608048892
  0
VERTEX
  5
18CA
  8
SAPA_PROFIL
 10
41.999999999858197
 20
86.100570444301326
 30
0.0
  0
VERTEX
  5
18CB
  8
SAPA_PROFIL
 10
42.223675183662493
 20
86.100570444301255
 30
0.0
 42
0.6370702608052951
  0
VERTEX
  5
18CC
  8
SAPA_PROFIL
 10
42.453488516599322
 20
86.593406727205689
 30
0.0
  0
SEQEND
  5
18CD
  8
SAPA_PROFIL
  0
POLYLINE
  5
1202
  8
SAPA_PROFIL
 66
     1
 10
0.0
 20
0.0
 30
0.0
 70
     1
  0
VERTEX
  5
18CE
  8
SAPA_PROFIL
 10
91.688496764701682
 20
60.969916881531603
 30
0.0
  0
VERTEX
  5
18CF
  8
SAPA_PROFIL
 10
91.840630675810459
 20
61.254599164763249
 30
0.0
 42
0.5773502691897463
  0
VERTEX
  5
18D0
  8
SAPA_PROFIL
 10
91.657676935700266
 20
61.548755465018061
 30
0.0
  0
VERTEX
  5
18D1
  8
SAPA_PROFIL
 10
91.335919207482021
 20
61.538194098791088
 30
0.0
  0
VERTEX
  5
18D2
  8
SAPA_PROFIL
 10
90.251354760510281
 20
63.42403779065215
 30
0.0
  0
VERTEX
  5
18D3
  8
SAPA_PROFIL
 10
90.193281123521203
 20
63.615420790645871
 30
0.0
 42
-0.7625858545243257
  0
VERTEX
  5
18D4
  8
SAPA_PROFIL
 10
90.523607204538195
 20
63.79999999284334
 30
0.0
 42
0.2134217652834389
  0
VERTEX
  5
18D5
  8
SAPA_PROFIL
 10
90.747214002288317
 20
63.69999999284321
 30
0.0
  0
VERTEX
  5
18D6
  8
SAPA_PROFIL
 10
94.600000002288283
 20
63.69999999284321
 30
0.0
 42
-0.4142139999998963
  0
VERTEX
  5
18D7
  8
SAPA_PROFIL
 10
94.900000002288294
 20
63.399999992843178
 30
0.0
  0
VERTEX
  5
18D8
  8
SAPA_PROFIL
 10
94.900000002288294
 20
63.099999992843223
 30
0.0
  0
VERTEX
  5
18D9
  8
SAPA_PROFIL
 10
93.976240002288264
 20
61.499999992843243
 30
0.0
 42
0.5773500000002674
  0
VERTEX
  5
18DA
  8
SAPA_PROFIL
 10
94.149445002288346
 20
61.199999992843189
 30
0.0
  0
VERTEX
  5
18DB
  8
SAPA_PROFIL
 10
95.535086002288296
 20
61.199999992843189
 30
0.0
 42
0.267949000000023
  0
VERTEX
  5
18DC
  8
SAPA_PROFIL
 10
96.401111002288346
 20
61.699999992843189
 30
0.0
  0
VERTEX
  5
18DD
  8
SAPA_PROFIL
 10
97.411474002288315
 20
63.449999992843217
 30
0.0
 42
-0.2679489999999919
  0
VERTEX
  5
18DE
  8
SAPA_PROFIL
 10
97.844487002288361
 20
63.69999999284321
 30
0.0
  0
VERTEX
  5
18DF
  8
SAPA_PROFIL
 10
107.8555140022883
 20
63.69999999284321
 30
0.0
 42
-0.2679490000000193
  0
VERTEX
  5
18E0
  8
SAPA_PROFIL
 10
108.2885270022883
 20
63.449999992843217
 30
0.0
  0
VERTEX
  5
18E1
  8
SAPA_PROFIL
 10
109.2988900022883
 20
61.69999999284321
 30
0.0
 42
0.2679490000000211
  0
VERTEX
  5
18E2
  8
SAPA_PROFIL
 10
110.1649150022883
 20
61.199999992843203
 30
0.0
  0
VERTEX
  5
18E3
  8
SAPA_PROFIL
 10
111.5505560022883
 20
61.199999992843203
 30
0.0
 42
0.5773499999999721
  0
VERTEX
  5
18E4
  8
SAPA_PROFIL
 10
111.7237610022883
 20
61.499999992843208
 30
0.0
  0
VERTEX
  5
18E5
  8
SAPA_PROFIL
 10
110.8000000022883
 20
63.09999999284323
 30
0.0
  0
VERTEX
  5
18E6
  8
SAPA_PROFIL
 10
110.8000000022883
 20
63.399999992843178
 30
0.0
 42
-0.4142139999999657
  0
VERTEX
  5
18E7
  8
SAPA_PROFIL
 10
111.1000000022883
 20
63.69999999284321
 30
0.0
  0
VERTEX
  5
18E8
  8
SAPA_PROFIL
 10
114.9527870022883
 20
63.699999992843111
 30
0.0
 42
0.2134217652834387
  0
VERTEX
  5
18E9
  8
SAPA_PROFIL
 10
115.1763938000385
 20
63.799999992843247
 30
0.0
 42
-0.7625858545243244
  0
VERTEX
  5
18EA
  8
SAPA_PROFIL
 10
115.5067198810554
 20
63.615420790645771
 30
0.0
  0
VERTEX
  5
18EB
  8
SAPA_PROFIL
 10
115.4486462440663
 20
63.424037790652037
 30
0.0
  0
VERTEX
  5
18EC
  8
SAPA_PROFIL
 10
114.3640817970946
 20
61.538194098790989
 30
0.0
  0
VERTEX
  5
18ED
  8
SAPA_PROFIL
 10
114.0423240688763
 20
61.548755465017969
 30
0.0
 42
0.5773502691897466
  0
VERTEX
  5
18EE
  8
SAPA_PROFIL
 10
113.8593703287662
 20
61.254599164763121
 30
0.0
  0
VERTEX
  5
18EF
  8
SAPA_PROFIL
 10
114.0115042398749
 20
60.969916881531461
 30
0.0
 42
0.2216946626430191
  0
VERTEX
  5
18F0
  8
SAPA_PROFIL
 10
114.5523840713517
 20
60.564107976376697
 30
0.0
  0
VERTEX
  5
18F1
  8
SAPA_PROFIL
 10
116.36561454200999
 20
60.18266138024898
 30
0.0
 42
0.4769755326981641
  0
VERTEX
  5
18F2
  8
SAPA_PROFIL
 10
116.73727141695591
 20
60.484914204755448
 30
0.0
  0
VERTEX
  5
18F3
  8
SAPA_PROFIL
 10
116.7371878090722
 20
61.988015285517449
 30
0.0
  0
VERTEX
  5
18F4
  8
SAPA_PROFIL
 10
116.6893420590737
 20
62.002533694764558
 30
0.0
 42
-0.4142135623730953
  0
VERTEX
  5
18F5
  8
SAPA_PROFIL
 10
116.4893780145663
 20
62.37671865024037
 30
0.0
  0
VERTEX
  5
18F6
  8
SAPA_PROFIL
 10
117.0000000022883
 20
63.697834067674542
 30
0.0
  0
VERTEX
  5
18F7
  8
SAPA_PROFIL
 10
117.0000000022883
 20
63.699999992843217
 30
0.0
  0
VERTEX
  5
18F8
  8
SAPA_PROFIL
 10
117.0000000022883
 20
66.692484992843205
 30
0.0
 42
0.2596809999999277
  0
VERTEX
  5
18F9
  8
SAPA_PROFIL
 10
116.9053070022883
 20
66.862515992843214
 30
0.0
  0
VERTEX
  5
18FA
  8
SAPA_PROFIL
 10
115.6579610022883
 20
67.655046992843211
 30
0.0
 42
0.5877030000000004
  0
VERTEX
  5
18FB
  8
SAPA_PROFIL
 10
115.20000000228831
 20
67.399999992843192
 30
0.0
  0
VERTEX
  5
18FC
  8
SAPA_PROFIL
 10
115.20000000228831
 20
65.999999992843215
 30
0.0
 42
-0.4142135623731089
  0
VERTEX
  5
18FD
  8
SAPA_PROFIL
 10
114.90000000228829
 20
65.699999992843232
 30
0.0
  0
VERTEX
  5
18FE
  8
SAPA_PROFIL
 10
112.5000000022883
 20
65.699999992843232
 30
0.0
 42
-0.4142135623731088
  0
VERTEX
  5
18FF
  8
SAPA_PROFIL
 10
112.20000000228831
 20
65.9999999928432
 30
0.0
  0
VERTEX
  5
1900
  8
SAPA_PROFIL
 10
112.20000000228831
 20
71.799999992843155
 30
0.0
  0
VERTEX
  5
1901
  8
SAPA_PROFIL
 10
112.20000000228831
 20
73.799999992843155
 30
0.0
  0
VERTEX
  5
1902
  8
SAPA_PROFIL
 10
112.20000000228831
 20
83.399999992843192
 30
0.0
 42
-0.4142139999999172
  0
VERTEX
  5
1903
  8
SAPA_PROFIL
 10
112.5000000022883
 20
83.699999992843189
 30
0.0
  0
VERTEX
  5
1904
  8
SAPA_PROFIL
 10
114.90000000228829
 20
83.699999992843189
 30
0.0
 42
-0.4142139999999103
  0
VERTEX
  5
1905
  8
SAPA_PROFIL
 10
115.20000000228831
 20
83.399999992843192
 30
0.0
  0
VERTEX
  5
1906
  8
SAPA_PROFIL
 10
115.20000000228831
 20
81.999999992843215
 30
0.0
 42
0.5877030000000132
  0
VERTEX
  5
1907
  8
SAPA_PROFIL
 10
115.6579610022883
 20
81.744953992843207
 30
0.0
  0
VERTEX
  5
1908
  8
SAPA_PROFIL
 10
117.1053070022883
 20
82.64135299284321
 30
0.0
 42
0.259681000000005
  0
VERTEX
  5
1909
  8
SAPA_PROFIL
 10
117.20000000228831
 20
82.811383992843176
 30
0.0
  0
VERTEX
  5
190A
  8
SAPA_PROFIL
 10
117.20000000228831
 20
85.432050992843216
 30
0.0
 42
0.1316520000000017
  0
VERTEX
  5
190B
  8
SAPA_PROFIL
 10
117.0660260022883
 20
85.932050992843244
 30
0.0
  0
VERTEX
  5
190C
  8
SAPA_PROFIL
 10
112.5811980022883
 20
93.699999992843217
 30
0.0
 42
0.267948999999994
  0
VERTEX
  5
190D
  8
SAPA_PROFIL
 10
109.9831220022883
 20
95.199999992843203
 30
0.0
  0
VERTEX
  5
190E
  8
SAPA_PROFIL
 10
71.700000002288306
 20
95.199999992843189
 30
0.0
 42
0.4142140000000114
  0
VERTEX
  5
190F
  8
SAPA_PROFIL
 10
68.700000002288306
 20
92.199999992843203
 30
0.0
  0
VERTEX
  5
1910
  8
SAPA_PROFIL
 10
68.70000000228822
 20
91.699999992843189
 30
0.0
 42
0.4241420000000259
  0
VERTEX
  5
1911
  8
SAPA_PROFIL
 10
69.733773002288316
 20
90.700570992843254
 30
0.0
 42
0.2988660000000032
  0
VERTEX
  5
1912
  8
SAPA_PROFIL
 10
70.671053002288261
 20
91.271428992843241
 30
0.0
 42
0.55075999999996
  0
VERTEX
  5
1913
  8
SAPA_PROFIL
 10
70.400000002288309
 20
91.699999992843189
 30
0.0
  0
VERTEX
  5
1914
  8
SAPA_PROFIL
 10
70.100000002288297
 20
91.699999992843189
 30
0.0
 42
-0.4142139999998339
  0
VERTEX
  5
1915
  8
SAPA_PROFIL
 10
69.900000002288309
 20
91.899999992843192
 30
0.0
  0
VERTEX
  5
1916
  8
SAPA_PROFIL
 10
69.900000002288309
 20
92.199999992843217
 30
0.0
 42
-0.4142139999999946
  0
VERTEX
  5
1917
  8
SAPA_PROFIL
 10
71.700000002288306
 20
93.999999992843229
 30
0.0
  0
VERTEX
  5
1918
  8
SAPA_PROFIL
 10
72.400000002288309
 20
93.999999992843229
 30
0.0
 42
-0.4142139999999852
  0
VERTEX
  5
1919
  8
SAPA_PROFIL
 10
74.200000002288306
 20
92.199999992843217
 30
0.0
  0
VERTEX
  5
191A
  8
SAPA_PROFIL
 10
74.200000002288306
 20
91.899999992843192
 30
0.0
 42
-0.4142139999998025
  0
VERTEX
  5
191B
  8
SAPA_PROFIL
 10
74.000000002288317
 20
91.699999992843203
 30
0.0
  0
VERTEX
  5
191C
  8
SAPA_PROFIL
 10
73.700000002288306
 20
91.699999992843189
 30
0.0
 42
0.5507599999999105
  0
VERTEX
  5
191D
  8
SAPA_PROFIL
 10
73.428948002288251
 20
91.271428992843184
 30
0.0
 42
0.2988660000000063
  0
VERTEX
  5
191E
  8
SAPA_PROFIL
 10
74.366228002288295
 20
90.700570992843154
 30
0.0
 42
0.4241419999999882
  0
VERTEX
  5
191F
  8
SAPA_PROFIL
 10
75.400000002288309
 20
91.699999992843203
 30
0.0
  0
VERTEX
  5
1920
  8
SAPA_PROFIL
 10
75.400000002288309
 20
92.999999992843215
 30
0.0
 42
-0.4142140000000128
  0
VERTEX
  5
1921
  8
SAPA_PROFIL
 10
76.400000002288294
 20
93.999999992843229
 30
0.0
  0
VERTEX
  5
1922
  8
SAPA_PROFIL
 10
90.227929002288334
 20
93.226409992843202
 30
0.0
 42
-0.3979379999999925
  0
VERTEX
  5
1923
  8
SAPA_PROFIL
 10
90.70000000228832
 20
92.727190992843205
 30
0.0
  0
VERTEX
  5
1924
  8
SAPA_PROFIL
 10
90.70000000228832
 20
88.199999992843217
 30
0.0
 42
-0.4142140000000251
  0
VERTEX
  5
1925
  8
SAPA_PROFIL
 10
90.200000002288306
 20
87.699999992843203
 30
0.0
  0
VERTEX
  5
1926
  8
SAPA_PROFIL
 10
86.700000002288306
 20
87.699999992843203
 30
0.0
 42
0.4142140000000128
  0
VERTEX
  5
1927
  8
SAPA_PROFIL
 10
86.200000002288334
 20
87.199999992843217
 30
0.0
  0
VERTEX
  5
1928
  8
SAPA_PROFIL
 10
86.200000002288306
 20
83.499999992843186
 30
0.0
 42
0.4142139999999104
  0
VERTEX
  5
1929
  8
SAPA_PROFIL
 10
86.500000002288346
 20
83.199999992843175
 30
0.0
  0
VERTEX
  5
192A
  8
SAPA_PROFIL
 10
87.400000002288294
 20
83.199999992843175
 30
0.0
 42
0.4142139999999101
  0
VERTEX
  5
192B
  8
SAPA_PROFIL
 10
87.700000002288306
 20
83.499999992843186
 30
0.0
  0
VERTEX
  5
192C
  8
SAPA_PROFIL
 10
87.700000002288306
 20
85.499999992843215
 30
0.0
 42
-0.4142139999999691
  0
VERTEX
  5
192D
  8
SAPA_PROFIL
 10
87.900000002288309
 20
85.699999992843217
 30
0.0
  0
VERTEX
  5
192E
  8
SAPA_PROFIL
 10
90.70000000228832
 20
85.699999992843217
 30
0.0
 42
-0.577350269189605
  0
VERTEX
  5
192F
  8
SAPA_PROFIL
 10
90.873205083045207
 20
85.399999992843206
 30
0.0
  0
VERTEX
  5
1930
  8
SAPA_PROFIL
 10
90.70000000228832
 20
85.099999992843209
 30
0.0
  0
VERTEX
  5
1931
  8
SAPA_PROFIL
 10
90.700000002288263
 20
81.304999992843165
 30
0.0
 42
0.414213999999992
  0
VERTEX
  5
1932
  8
SAPA_PROFIL
 10
91.200000002288334
 20
80.804999992843179
 30
0.0
  0
VERTEX
  5
1933
  8
SAPA_PROFIL
 10
91.900000002288309
 20
80.804999992843179
 30
0.0
 42
-0.4142139999998548
  0
VERTEX
  5
1934
  8
SAPA_PROFIL
 10
92.20000000228832
 20
80.504999992843238
 30
0.0
  0
VERTEX
  5
1935
  8
SAPA_PROFIL
 10
92.20000000228832
 20
75.324615992843221
 30
0.0
  0
VERTEX
  5
1936
  8
SAPA_PROFIL
 10
92.500000002288331
 20
74.804999992843179
 30
0.0
  0
VERTEX
  5
1937
  8
SAPA_PROFIL
 10
92.20000000228832
 20
74.285384992843206
 30
0.0
  0
VERTEX
  5
1938
  8
SAPA_PROFIL
 10
92.20000000228832
 20
69.10499999284319
 30
0.0
 42
-0.4142140000000351
  0
VERTEX
  5
1939
  8
SAPA_PROFIL
 10
91.900000002288309
 20
68.804999992843165
 30
0.0
  0
VERTEX
  5
193A
  8
SAPA_PROFIL
 10
91.200000002288334
 20
68.804999992843236
 30
0.0
 42
0.4142140000000461
  0
VERTEX
  5
193B
  8
SAPA_PROFIL
 10
90.70000000228832
 20
68.304999992843179
 30
0.0
  0
VERTEX
  5
193C
  8
SAPA_PROFIL
 10
90.70000000228832
 20
66.299999992843183
 30
0.0
  0
VERTEX
  5
193D
  8
SAPA_PROFIL
 10
90.873205083045207
 20
65.9999999928432
 30
0.0
 42
-0.5773502691896303
  0
VERTEX
  5
193E
  8
SAPA_PROFIL
 10
90.70000000228832
 20
65.699999992843217
 30
0.0
  0
VERTEX
  5
193F
  8
SAPA_PROFIL
 10
87.900000002288309
 20
65.699999992843217
 30
0.0
 42
-0.414213999999813
  0
VERTEX
  5
1940
  8
SAPA_PROFIL
 10
87.700000002288306
 20
65.899999992843178
 30
0.0
  0
VERTEX
  5
1941
  8
SAPA_PROFIL
 10
87.700000002288348
 20
67.899999992843178
 30
0.0
 42
0.4142139999998962
  0
VERTEX
  5
1942
  8
SAPA_PROFIL
 10
87.400000002288294
 20
68.199999992843217
 30
0.0
  0
VERTEX
  5
1943
  8
SAPA_PROFIL
 10
86.500000002288346
 20
68.199999992843175
 30
0.0
 42
0.4142139999999103
  0
VERTEX
  5
1944
  8
SAPA_PROFIL
 10
86.200000002288334
 20
67.899999992843178
 30
0.0
  0
VERTEX
  5
1945
  8
SAPA_PROFIL
 10
86.200000002288334
 20
64.199999992843203
 30
0.0
 42
0.414214000000021
  0
VERTEX
  5
1946
  8
SAPA_PROFIL
 10
86.700000002288306
 20
63.69999999284321
 30
0.0
  0
VERTEX
  5
1947
  8
SAPA_PROFIL
 10
88.400000002288309
 20
63.69999999284321
 30
0.0
 42
-0.4142135623730951
  0
VERTEX
  5
1948
  8
SAPA_PROFIL
 10
88.700000002288334
 20
63.399999992843199
 30
0.0
  0
VERTEX
  5
1949
  8
SAPA_PROFIL
 10
89.210622990010307
 20
62.37671865024047
 30
0.0
 42
-0.4142135623730953
  0
VERTEX
  5
194A
  8
SAPA_PROFIL
 10
89.010658945502897
 20
62.002533694764672
 30
0.0
  0
VERTEX
  5
194B
  8
SAPA_PROFIL
 10
88.962813195504424
 20
61.988015285517562
 30
0.0
  0
VERTEX
  5
194C
  8
SAPA_PROFIL
 10
88.962729587620785
 20
60.484914204755547
 30
0.0
 42
0.4769755326981643
  0
VERTEX
  5
194D
  8
SAPA_PROFIL
 10
89.334386462566641
 20
60.182661380249087
 30
0.0
  0
VERTEX
  5
194E
  8
SAPA_PROFIL
 10
91.147616933224896
 20
60.564107976376789
 30
0.0
 42
0.2216946626430193
  0
SEQEND
  5
194F
  8
SAPA_PROFIL
  0
POLYLINE
  5
1203
  8
SAPA_PROFIL
 66
     1
 10
0.0
 20
0.0
 30
0.0
 70
     1
  0
VERTEX
  5
1950
  8
SAPA_PROFIL
 10
108.6000000022883
 20
83.9999999928432
 30
0.0
  0
VERTEX
  5
1951
  8
SAPA_PROFIL
 10
110.20000000228831
 20
83.9999999928432
 30
0.0
 42
-0.414214000000042
  0
VERTEX
  5
1952
  8
SAPA_PROFIL
 10
110.5000000022883
 20
83.699999992843189
 30
0.0
  0
VERTEX
  5
1953
  8
SAPA_PROFIL
 10
110.5000000022883
 20
65.699999992843217
 30
0.0
 42
-0.4142140000001599
  0
VERTEX
  5
1954
  8
SAPA_PROFIL
 10
110.20000000228831
 20
65.399999992843178
 30
0.0
  0
VERTEX
  5
1955
  8
SAPA_PROFIL
 10
108.6000000022883
 20
65.399999992843178
 30
0.0
 42
-0.4142140000000628
  0
VERTEX
  5
1956
  8
SAPA_PROFIL
 10
108.40000000228829
 20
65.599999992843209
 30
0.0
  0
VERTEX
  5
1957
  8
SAPA_PROFIL
 10
108.40000000228829
 20
65.699999992843217
 30
0.0
 42
0.4142139999998963
  0
VERTEX
  5
1958
  8
SAPA_PROFIL
 10
108.1000000022883
 20
65.9999999928432
 30
0.0
  0
VERTEX
  5
1959
  8
SAPA_PROFIL
 10
106.70000000228831
 20
65.999999992843144
 30
0.0
 42
0.4142139999999518
  0
VERTEX
  5
195A
  8
SAPA_PROFIL
 10
106.40000000228829
 20
65.699999992843217
 30
0.0
  0
VERTEX
  5
195B
  8
SAPA_PROFIL
 10
106.40000000228829
 20
65.599999992843209
 30
0.0
 42
-0.4142139999999794
  0
VERTEX
  5
195C
  8
SAPA_PROFIL
 10
106.20000000228831
 20
65.399999992843178
 30
0.0
  0
VERTEX
  5
195D
  8
SAPA_PROFIL
 10
93.20000000228832
 20
65.399999992843178
 30
0.0
 42
-0.4142139999999962
  0
VERTEX
  5
195E
  8
SAPA_PROFIL
 10
92.700000002288306
 20
65.899999992843178
 30
0.0
  0
VERTEX
  5
195F
  8
SAPA_PROFIL
 10
92.700000002288306
 20
66.60499999284319
 30
0.0
 42
-0.4142140000000128
  0
VERTEX
  5
1960
  8
SAPA_PROFIL
 10
93.20000000228832
 20
67.10499999284319
 30
0.0
  0
VERTEX
  5
1961
  8
SAPA_PROFIL
 10
93.400000002288309
 20
67.10499999284319
 30
0.0
 42
0.4142140000000127
  0
VERTEX
  5
1962
  8
SAPA_PROFIL
 10
93.900000002288294
 20
67.60499999284319
 30
0.0
  0
VERTEX
  5
1963
  8
SAPA_PROFIL
 10
93.900000002288365
 20
82.004999992843224
 30
0.0
 42
0.4142139999999795
  0
VERTEX
  5
1964
  8
SAPA_PROFIL
 10
93.400000002288309
 20
82.504999992843238
 30
0.0
  0
VERTEX
  5
1965
  8
SAPA_PROFIL
 10
92.700000002288306
 20
82.504999992843238
 30
0.0
 42
-0.4142140000000462
  0
VERTEX
  5
1966
  8
SAPA_PROFIL
 10
92.20000000228832
 20
83.004999992843238
 30
0.0
  0
VERTEX
  5
1967
  8
SAPA_PROFIL
 10
92.20000000228832
 20
92.699999992843203
 30
0.0
 42
-0.4142140000000128
  0
VERTEX
  5
1968
  8
SAPA_PROFIL
 10
92.700000002288306
 20
93.199999992843217
 30
0.0
  0
VERTEX
  5
1969
  8
SAPA_PROFIL
 10
109.9831220022883
 20
93.199999992843217
 30
0.0
 42
-0.2679490000000162
  0
VERTEX
  5
196A
  8
SAPA_PROFIL
 10
110.8491470022883
 20
92.699999992843203
 30
0.0
  0
VERTEX
  5
196B
  8
SAPA_PROFIL
 10
114.7462620022883
 20
85.949999992843217
 30
0.0
 42
-0.5773500000000551
  0
VERTEX
  5
196C
  8
SAPA_PROFIL
 10
114.4864540022883
 20
85.499999992843215
 30
0.0
  0
VERTEX
  5
196D
  8
SAPA_PROFIL
 10
107.90000000228829
 20
85.4999999928432
 30
0.0
 42
0.4142140000000155
  0
VERTEX
  5
196E
  8
SAPA_PROFIL
 10
106.40000000228829
 20
83.9999999928432
 30
0.0
  0
VERTEX
  5
196F
  8
SAPA_PROFIL
 10
106.40000000228829
 20
83.799999992843169
 30
0.0
  0
VERTEX
  5
1970
  8
SAPA_PROFIL
 10
106.40000000228829
 20
83.699999992843189
 30
0.0
 42
0.4142140000000836
  0
VERTEX
  5
1971
  8
SAPA_PROFIL
 10
106.70000000228831
 20
83.399999992843192
 30
0.0
  0
VERTEX
  5
1972
  8
SAPA_PROFIL
 10
108.1000000022883
 20
83.39999999284305
 30
0.0
 42
0.4142140000000351
  0
VERTEX
  5
1973
  8
SAPA_PROFIL
 10
108.40000000228829
 20
83.699999992843189
 30
0.0
  0
VERTEX
  5
1974
  8
SAPA_PROFIL
 10
108.40000000228829
 20
83.799999992843169
 30
0.0
 42
-0.4142139999998962
  0
SEQEND
  5
1975
  8
SAPA_PROFIL
  0
POLYLINE
  5
1204
  8
SAPA_PROFIL
 66
     1
 10
0.0
 20
0.0
 30
0.0
 70
     1
  0
VERTEX
  5
1976
  8
SAPA_PROFIL
 10
115.17639400229039
 20
21.599999992843109
 30
0.0
 42
0.2134220000000103
  0
VERTEX
  5
1977
  8
SAPA_PROFIL
 10
114.95278700229051
 20
21.699999992843129
 30
0.0
  0
VERTEX
  5
1978
  8
SAPA_PROFIL
 10
111.1000000022904
 20
21.699999992843129
 30
0.0
 42
-0.414213999999924
  0
VERTEX
  5
1979
  8
SAPA_PROFIL
 10
110.8000000022903
 20
21.99999999284309
 30
0.0
  0
VERTEX
  5
197A
  8
SAPA_PROFIL
 10
110.8000000022904
 20
22.299999992843102
 30
0.0
  0
VERTEX
  5
197B
  8
SAPA_PROFIL
 10
111.7237610022904
 20
23.899999992843121
 30
0.0
 42
0.5773500000001196
  0
VERTEX
  5
197C
  8
SAPA_PROFIL
 10
111.55055600229041
 20
24.199999992843129
 30
0.0
  0
VERTEX
  5
197D
  8
SAPA_PROFIL
 10
110.1649150022904
 20
24.199999992843129
 30
0.0
 42
0.2679489999999719
  0
VERTEX
  5
197E
  8
SAPA_PROFIL
 10
109.29889000229041
 20
23.699999992843129
 30
0.0
  0
VERTEX
  5
197F
  8
SAPA_PROFIL
 10
108.28852700229039
 20
21.949999992843129
 30
0.0
 42
-0.267949000000012
  0
VERTEX
  5
1980
  8
SAPA_PROFIL
 10
107.85551400229041
 20
21.699999992843011
 30
0.0
  0
VERTEX
  5
1981
  8
SAPA_PROFIL
 10
97.844487002290435
 20
21.699999992843122
 30
0.0
 42
-0.2679490000000104
  0
VERTEX
  5
1982
  8
SAPA_PROFIL
 10
97.411474002290504
 20
21.94999999284315
 30
0.0
  0
VERTEX
  5
1983
  8
SAPA_PROFIL
 10
96.401111002290435
 20
23.699999992843129
 30
0.0
 42
0.2679489999999809
  0
VERTEX
  5
1984
  8
SAPA_PROFIL
 10
95.535086002290456
 20
24.199999992843129
 30
0.0
  0
VERTEX
  5
1985
  8
SAPA_PROFIL
 10
94.149445002290435
 20
24.199999992843129
 30
0.0
 42
0.5773500000001198
  0
VERTEX
  5
1986
  8
SAPA_PROFIL
 10
93.976240002290425
 20
23.899999992843121
 30
0.0
  0
VERTEX
  5
1987
  8
SAPA_PROFIL
 10
94.900000002290454
 20
22.299999992843102
 30
0.0
  0
VERTEX
  5
1988
  8
SAPA_PROFIL
 10
94.900000002290454
 20
21.99999999284309
 30
0.0
 42
-0.4142139999999795
  0
VERTEX
  5
1989
  8
SAPA_PROFIL
 10
94.600000002290443
 20
21.699999992843249
 30
0.0
  0
VERTEX
  5
198A
  8
SAPA_PROFIL
 10
90.747214002290463
 20
21.699999992843122
 30
0.0
 42
0.2134217652834391
  0
VERTEX
  5
198B
  8
SAPA_PROFIL
 10
90.523607204540355
 20
21.599999992842999
 30
0.0
 42
-0.7625858545243247
  0
VERTEX
  5
198C
  8
SAPA_PROFIL
 10
90.193281123523349
 20
21.784579195040479
 30
0.0
  0
VERTEX
  5
198D
  8
SAPA_PROFIL
 10
90.251354760512456
 20
21.975962195034199
 30
0.0
  0
VERTEX
  5
198E
  8
SAPA_PROFIL
 10
91.335919207484181
 20
23.861805886895251
 30
0.0
  0
VERTEX
  5
198F
  8
SAPA_PROFIL
 10
91.657676935702426
 20
23.851244520668271
 30
0.0
 42
0.5773502691897466
  0
VERTEX
  5
1990
  8
SAPA_PROFIL
 10
91.840630675812605
 20
24.145400820923118
 30
0.0
  0
VERTEX
  5
1991
  8
SAPA_PROFIL
 10
91.688496764703856
 20
24.430083104154761
 30
0.0
 42
0.2216946626430194
  0
VERTEX
  5
1992
  8
SAPA_PROFIL
 10
91.147616933227056
 20
24.83589200930955
 30
0.0
  0
VERTEX
  5
1993
  8
SAPA_PROFIL
 10
89.334386462568787
 20
25.217338605437259
 30
0.0
 42
0.4769755326981641
  0
VERTEX
  5
1994
  8
SAPA_PROFIL
 10
88.962729587622945
 20
24.915085780930799
 30
0.0
  0
VERTEX
  5
1995
  8
SAPA_PROFIL
 10
88.962813195506584
 20
23.411984700168791
 30
0.0
  0
VERTEX
  5
1996
  8
SAPA_PROFIL
 10
89.010658945505071
 20
23.397466290921681
 30
0.0
 42
-0.4142135623730951
  0
VERTEX
  5
1997
  8
SAPA_PROFIL
 10
89.210622990012467
 20
23.023281335445869
 30
0.0
  0
VERTEX
  5
1998
  8
SAPA_PROFIL
 10
88.700000002290537
 20
21.70216333074486
 30
0.0
  0
VERTEX
  5
1999
  8
SAPA_PROFIL
 10
88.700000002290466
 20
20.462103992843101
 30
0.0
 42
0.2914730000000021
  0
VERTEX
  5
199A
  8
SAPA_PROFIL
 10
89.277382002290466
 20
19.55579599284313
 30
0.0
  0
VERTEX
  5
199B
  8
SAPA_PROFIL
 10
91.769522002290472
 20
18.393691992843131
 30
0.0
 42
0.3888789999999682
  0
VERTEX
  5
199C
  8
SAPA_PROFIL
 10
93.058166002290449
 20
18.799999992843102
 30
0.0
  0
VERTEX
  5
199D
  8
SAPA_PROFIL
 10
93.144769002290474
 20
18.949999992843129
 30
0.0
 42
-0.2679490000000116
  0
VERTEX
  5
199E
  8
SAPA_PROFIL
 10
93.577781002290436
 20
19.199999992843171
 30
0.0
  0
VERTEX
  5
199F
  8
SAPA_PROFIL
 10
101.70000000229039
 20
19.199999992843129
 30
0.0
 42
-0.4142139999999962
  0
VERTEX
  5
19A0
  8
SAPA_PROFIL
 10
102.70000000229049
 20
18.199999992843129
 30
0.0
  0
VERTEX
  5
19A1
  8
SAPA_PROFIL
 10
102.70000000229039
 20
16.849999992843109
 30
0.0
 42
-0.4142140000000128
  0
VERTEX
  5
19A2
  8
SAPA_PROFIL
 10
102.20000000229039
 20
16.349999992843109
 30
0.0
  0
VERTEX
  5
19A3
  8
SAPA_PROFIL
 10
99.067767783477024
 20
16.349999992843109
 30
0.0
 42
0.198912367379658
  0
VERTEX
  5
19A4
  8
SAPA_PROFIL
 10
97.653554221103917
 20
15.7642135552162
 30
0.0
  0
VERTEX
  5
19A5
  8
SAPA_PROFIL
 10
94.920260606059372
 20
13.030919940171639
 30
0.0
 42
1.000556671980007
  0
VERTEX
  5
19A6
  8
SAPA_PROFIL
 10
95.980331002290455
 20
11.969669992843089
 30
0.0
  0
VERTEX
  5
19A7
  8
SAPA_PROFIL
 10
98.614214002290481
 20
14.60355299284312
 30
0.0
 42
-0.1989120000000246
  0
VERTEX
  5
19A8
  8
SAPA_PROFIL
 10
98.967767002290472
 20
14.749999992843129
 30
0.0
  0
VERTEX
  5
19A9
  8
SAPA_PROFIL
 10
102.20000000229039
 20
14.74999999284309
 30
0.0
 42
-0.4142140000000129
  0
VERTEX
  5
19AA
  8
SAPA_PROFIL
 10
102.70000000229039
 20
14.24999999284309
 30
0.0
  0
VERTEX
  5
19AB
  8
SAPA_PROFIL
 10
102.70000000229039
 20
7.2499999928430858
 30
0.0
 42
-0.4142140000000128
  0
VERTEX
  5
19AC
  8
SAPA_PROFIL
 10
102.20000000229039
 20
6.7499999928430858
 30
0.0
  0
VERTEX
  5
19AD
  8
SAPA_PROFIL
 10
95.000000002290477
 20
6.7499999928431427
 30
0.0
 42
0.4142140000000351
  0
VERTEX
  5
19AE
  8
SAPA_PROFIL
 10
94.700000002290466
 20
6.4499999928431322
 30
0.0
  0
VERTEX
  5
19AF
  8
SAPA_PROFIL
 10
94.700000002290466
 20
6.2877769928431411
 30
0.0
 42
0.3482370000000729
  0
VERTEX
  5
19B0
  8
SAPA_PROFIL
 10
94.931495002290461
 20
5.9957029928431353
 30
0.0
  0
VERTEX
  5
19B1
  8
SAPA_PROFIL
 10
98.53717000229048
 20
5.1499999928431768
 30
0.0
  0
VERTEX
  5
19B2
  8
SAPA_PROFIL
 10
102.20000000229039
 20
5.1499999928431768
 30
0.0
 42
-0.4142139999999796
  0
VERTEX
  5
19B3
  8
SAPA_PROFIL
 10
102.70000000229049
 20
4.6499999928431768
 30
0.0
  0
VERTEX
  5
19B4
  8
SAPA_PROFIL
 10
102.70000000229039
 20
2.1999999928431322
 30
0.0
 42
-0.414214000000017
  0
VERTEX
  5
19B5
  8
SAPA_PROFIL
 10
102.20000000229039
 20
1.699999992843132
 30
0.0
 42
0.4142140000000127
  0
VERTEX
  5
19B6
  8
SAPA_PROFIL
 10
101.70000000229039
 20
1.199999992843132
 30
0.0
  0
VERTEX
  5
19B7
  8
SAPA_PROFIL
 10
101.70000000229039
 20
0.1999999928431322
 30
0.0
 42
0.414214000000017
  0
VERTEX
  5
19B8
  8
SAPA_PROFIL
 10
102.20000000229039
 20
-0.3000000071568678
 30
0.0
  0
VERTEX
  5
19B9
  8
SAPA_PROFIL
 10
138.70000000229041
 20
-0.3000000071568678
 30
0.0
  0
VERTEX
  5
19BA
  8
SAPA_PROFIL
 10
139.20000000229041
 20
0.1999999928431322
 30
0.0
  0
VERTEX
  5
19BB
  8
SAPA_PROFIL
 10
139.20000000229041
 20
3.8999999928431772
 30
0.0
 42
0.4142139999999863
  0
VERTEX
  5
19BC
  8
SAPA_PROFIL
 10
138.9000000022904
 20
4.1999999928431322
 30
0.0
  0
VERTEX
  5
19BD
  8
SAPA_PROFIL
 10
138.13245600229041
 20
4.1999999928431322
 30
0.0
 42
0.2896899999999678
  0
VERTEX
  5
19BE
  8
SAPA_PROFIL
 10
137.22894800229051
 20
3.6285709928431649
 30
0.0
 42
0.5507599999999711
  0
VERTEX
  5
19BF
  8
SAPA_PROFIL
 10
137.50000000229051
 20
3.1999999928431322
 30
0.0
  0
VERTEX
  5
19C0
  8
SAPA_PROFIL
 10
137.70000000229049
 20
3.1999999928431322
 30
0.0
 42
-0.4142139999998755
  0
VERTEX
  5
19C1
  8
SAPA_PROFIL
 10
138.00000000229051
 20
2.8999999928431772
 30
0.0
  0
VERTEX
  5
19C2
  8
SAPA_PROFIL
 10
138.00000000229051
 20
1.399999992843177
 30
0.0
 42
-0.4142140000000503
  0
VERTEX
  5
19C3
  8
SAPA_PROFIL
 10
137.50000000229051
 20
0.8999999928431279
 30
0.0
  0
VERTEX
  5
19C4
  8
SAPA_PROFIL
 10
134.20000000229041
 20
0.8999999928431776
 30
0.0
 42
-0.4142140000000419
  0
VERTEX
  5
19C5
  8
SAPA_PROFIL
 10
133.70000000229049
 20
1.399999992843177
 30
0.0
  0
VERTEX
  5
19C6
  8
SAPA_PROFIL
 10
133.70000000229041
 20
2.8999999928431772
 30
0.0
 42
-0.4142139999999794
  0
VERTEX
  5
19C7
  8
SAPA_PROFIL
 10
134.00000000229051
 20
3.1999999928430181
 30
0.0
  0
VERTEX
  5
19C8
  8
SAPA_PROFIL
 10
134.20000000229041
 20
3.1999999928431322
 30
0.0
 42
0.5507599999999436
  0
VERTEX
  5
19C9
  8
SAPA_PROFIL
 10
134.4710530022904
 20
3.6285709928431649
 30
0.0
 42
0.2896899999999595
  0
VERTEX
  5
19CA
  8
SAPA_PROFIL
 10
133.56754500229039
 20
4.1999999928431322
 30
0.0
  0
VERTEX
  5
19CB
  8
SAPA_PROFIL
 10
132.5700730022904
 20
4.1999999928431322
 30
0.0
 42
0.0436610000000022
  0
VERTEX
  5
19CC
  8
SAPA_PROFIL
 10
132.48324900229039
 20
4.1924039928430972
 30
0.0
  0
VERTEX
  5
19CD
  8
SAPA_PROFIL
 10
130.91317600229041
 20
3.9155569928431211
 30
0.0
 42
0.8391000000000101
  0
VERTEX
  5
19CE
  8
SAPA_PROFIL
 10
130.91317600229041
 20
2.9307499928431322
 30
0.0
  0
VERTEX
  5
19CF
  8
SAPA_PROFIL
 10
132.0868250022904
 20
2.7238039928431732
 30
0.0
 42
-0.3639700000000376
  0
VERTEX
  5
19D0
  8
SAPA_PROFIL
 10
132.50000000229051
 20
2.2313999928430941
 30
0.0
  0
VERTEX
  5
19D1
  8
SAPA_PROFIL
 10
132.50000000229039
 20
1.399999992843177
 30
0.0
 42
-0.437328000000032
  0
VERTEX
  5
19D2
  8
SAPA_PROFIL
 10
131.96090600229039
 20
0.9015299928430948
 30
0.0
  0
VERTEX
  5
19D3
  8
SAPA_PROFIL
 10
117.48784700229039
 20
1.488328992843108
 30
0.0
 42
-0.4023939999998692
  0
VERTEX
  5
19D4
  8
SAPA_PROFIL
 10
117.2000000022903
 20
1.788082992843115
 30
0.0
  0
VERTEX
  5
19D5
  8
SAPA_PROFIL
 10
117.20000000229039
 20
2.5886159928431449
 30
0.0
 42
0.259680999999983
  0
VERTEX
  5
19D6
  8
SAPA_PROFIL
 10
117.1053070022904
 20
2.7586469928431319
 30
0.0
  0
VERTEX
  5
19D7
  8
SAPA_PROFIL
 10
115.65796100229051
 20
3.6550459928431769
 30
0.0
 42
0.5877029999999889
  0
VERTEX
  5
19D8
  8
SAPA_PROFIL
 10
115.20000000229039
 20
3.3999999928431772
 30
0.0
  0
VERTEX
  5
19D9
  8
SAPA_PROFIL
 10
115.20000000229039
 20
1.9999999928431429
 30
0.0
 42
-0.4142140000000349
  0
VERTEX
  5
19DA
  8
SAPA_PROFIL
 10
114.9000000022904
 20
1.699999992843245
 30
0.0
  0
VERTEX
  5
19DB
  8
SAPA_PROFIL
 10
112.50000000229051
 20
1.699999992843132
 30
0.0
 42
-0.4142140000000349
  0
VERTEX
  5
19DC
  8
SAPA_PROFIL
 10
112.2000000022903
 20
1.9999999928431429
 30
0.0
  0
VERTEX
  5
19DD
  8
SAPA_PROFIL
 10
112.20000000229039
 20
10.18038399284309
 30
0.0
  0
VERTEX
  5
19DE
  8
SAPA_PROFIL
 10
111.9000000022904
 20
10.699999992843139
 30
0.0
  0
VERTEX
  5
19DF
  8
SAPA_PROFIL
 10
112.20000000229039
 20
11.21961499284312
 30
0.0
  0
VERTEX
  5
19E0
  8
SAPA_PROFIL
 10
112.20000000229039
 20
19.399999992843131
 30
0.0
 42
-0.4142135623730882
  0
VERTEX
  5
19E1
  8
SAPA_PROFIL
 10
112.50000000229041
 20
19.699999992843129
 30
0.0
  0
VERTEX
  5
19E2
  8
SAPA_PROFIL
 10
114.9000000022904
 20
19.699999992843139
 30
0.0
 42
-0.4142135623730882
  0
VERTEX
  5
19E3
  8
SAPA_PROFIL
 10
115.20000000229039
 20
19.399999992843131
 30
0.0
  0
VERTEX
  5
19E4
  8
SAPA_PROFIL
 10
115.20000000229039
 20
17.99999999284309
 30
0.0
 42
0.5877029999999041
  0
VERTEX
  5
19E5
  8
SAPA_PROFIL
 10
115.65796100229051
 20
17.744952992843089
 30
0.0
  0
VERTEX
  5
19E6
  8
SAPA_PROFIL
 10
116.9053070022904
 20
18.537484992843101
 30
0.0
 42
0.2596809999999552
  0
VERTEX
  5
19E7
  8
SAPA_PROFIL
 10
117.00000000229041
 20
18.707514992843102
 30
0.0
  0
VERTEX
  5
19E8
  8
SAPA_PROFIL
 10
117.00000000229041
 20
21.702165918011691
 30
0.0
  0
VERTEX
  5
19E9
  8
SAPA_PROFIL
 10
116.4893780145685
 20
23.023281335445869
 30
0.0
 42
-0.4142135623730953
  0
VERTEX
  5
19EA
  8
SAPA_PROFIL
 10
116.6893420590759
 20
23.397466290921681
 30
0.0
  0
VERTEX
  5
19EB
  8
SAPA_PROFIL
 10
116.7371878090744
 20
23.411984700168791
 30
0.0
  0
VERTEX
  5
19EC
  8
SAPA_PROFIL
 10
116.737271416958
 20
24.915085780930799
 30
0.0
 42
0.4769755326981643
  0
VERTEX
  5
19ED
  8
SAPA_PROFIL
 10
116.3656145420121
 20
25.217338605437259
 30
0.0
  0
VERTEX
  5
19EE
  8
SAPA_PROFIL
 10
114.5523840713539
 20
24.83589200930955
 30
0.0
 42
0.2216946626430194
  0
VERTEX
  5
19EF
  8
SAPA_PROFIL
 10
114.0115042398771
 20
24.43008310415475
 30
0.0
  0
VERTEX
  5
19F0
  8
SAPA_PROFIL
 10
113.85937032876831
 20
24.145400820923101
 30
0.0
 42
0.5773502691897466
  0
VERTEX
  5
19F1
  8
SAPA_PROFIL
 10
114.0423240688785
 20
23.851244520668288
 30
0.0
  0
VERTEX
  5
19F2
  8
SAPA_PROFIL
 10
114.3640817970968
 20
23.861805886895251
 30
0.0
  0
VERTEX
  5
19F3
  8
SAPA_PROFIL
 10
115.4486462440685
 20
21.975962195034199
 30
0.0
  0
VERTEX
  5
19F4
  8
SAPA_PROFIL
 10
115.50671988105761
 20
21.784579195040489
 30
0.0
 42
-0.7625858545243257
  0
VERTEX
  5
19F5
  8
SAPA_PROFIL
 10
115.1763938000406
 20
21.599999992842999
 30
0.0
  0
SEQEND
  5
19F6
  8
SAPA_PROFIL
  0
POLYLINE
  5
1205
  8
SAPA_PROFIL
 66
     1
 10
0.0
 20
0.0
 30
0.0
 70
     1
  0
VERTEX
  5
19F7
  8
SAPA_PROFIL
 10
104.70000000229039
 20
19.99999999284309
 30
0.0
  0
VERTEX
  5
19F8
  8
SAPA_PROFIL
 10
110.20000000229039
 20
19.99999999284309
 30
0.0
 42
-0.4142139999999252
  0
VERTEX
  5
19F9
  8
SAPA_PROFIL
 10
110.50000000229041
 20
19.699999992843129
 30
0.0
  0
VERTEX
  5
19FA
  8
SAPA_PROFIL
 10
110.50000000229041
 20
1.699999992843132
 30
0.0
 42
-0.4142139999998691
  0
VERTEX
  5
19FB
  8
SAPA_PROFIL
 10
110.20000000229039
 20
1.399999992843177
 30
0.0
  0
VERTEX
  5
19FC
  8
SAPA_PROFIL
 10
104.70000000229039
 20
1.399999992843177
 30
0.0
 42
-0.4142135623730951
  0
VERTEX
  5
19FD
  8
SAPA_PROFIL
 10
104.4000000022904
 20
1.699999992843132
 30
0.0
  0
VERTEX
  5
19FE
  8
SAPA_PROFIL
 10
104.4000000022904
 20
19.699999992843129
 30
0.0
 42
-0.4142139999999803
  0
SEQEND
  5
19FF
  8
SAPA_PROFIL
  0
POLYLINE
  5
1206
  8
SAPA_PROFIL
 62
     4
 66
     1
 10
0.0
 20
0.0
 30
0.0
  0
VERTEX
  5
1A00
  8
SAPA_PROFIL
 62
     4
 10
114.2944288381765
 20
51.749329115197568
 30
0.0
 42
0.5571646428658034
  0
VERTEX
  5
1A01
  8
SAPA_PROFIL
 62
     4
 10
113.426709924021
 20
51.212368611060739
 30
0.0
  0
VERTEX
  5
1A02
  8
SAPA_PROFIL
 62
     4
 10
113.4267099240214
 20
34.187631374539542
 30
0.0
 42
0.5571645048035741
  0
VERTEX
  5
1A03
  8
SAPA_PROFIL
 62
     4
 10
114.2944286118876
 20
33.650670757578482
 30
0.0
  0
VERTEX
  5
1A04
  8
SAPA_PROFIL
 62
     4
 10
115.96056926795561
 20
34.481377845125181
 30
0.0
 42
0.284385813979063
  0
VERTEX
  5
1A05
  8
SAPA_PROFIL
 62
     4
 10
116.1267099240231
 20
34.74985815360553
 30
0.0
  0
VERTEX
  5
1A06
  8
SAPA_PROFIL
 62
     4
 10
116.1267099240231
 20
50.650141831994837
 30
0.0
 42
0.2843858139786238
  0
VERTEX
  5
1A07
  8
SAPA_PROFIL
 62
     4
 10
115.9605692679561
 20
50.918622140475122
 30
0.0
  0
VERTEX
  5
1A08
  8
SAPA_PROFIL
 62
     4
 10
114.2944286118868
 20
51.74932922802229
 30
0.0
  0
SEQEND
  5
1A09
  8
SAPA_PROFIL
 62
     4
  0
POLYLINE
  5
1207
  8
SAPA_PROFIL
 62
     4
 66
     1
 10
0.0
 20
0.0
 30
0.0
 70
     1
  0
VERTEX
  5
1A0A
  8
SAPA_PROFIL
 62
     4
 10
116.4835414385206
 20
28.2823888081329
 30
0.0
  0
VERTEX
  5
1A0B
  8
SAPA_PROFIL
 62
     4
 10
116.8901016345248
 20
28.018365529756881
 30
0.0
 42
-0.2539676464751066
  0
VERTEX
  5
1A0C
  8
SAPA_PROFIL
 62
     4
 10
117.02670992402091
 20
27.766764359372178
 30
0.0
  0
VERTEX
  5
1A0D
  8
SAPA_PROFIL
 62
     4
 10
117.02670992402091
 20
26.385264774166831
 30
0.0
 42
-0.3152987888790479
  0
VERTEX
  5
1A0E
  8
SAPA_PROFIL
 62
     4
 10
116.6977199956827
 20
25.915418463774511
 30
0.0
  0
VERTEX
  5
1A0F
  8
SAPA_PROFIL
 62
     4
 10
114.2368898052315
 20
25.019749522865911
 30
0.0
 42
0.2694959974287434
  0
VERTEX
  5
1A10
  8
SAPA_PROFIL
 62
     4
 10
114.0437578308876
 20
24.788230476464559
 30
0.0
 42
0.0612686379508233
  0
VERTEX
  5
1A11
  8
SAPA_PROFIL
 62
     4
 10
114.030174460257
 20
24.495555043611279
 30
0.0
  0
VERTEX
  5
1A12
  8
SAPA_PROFIL
 62
     4
 10
113.82843778152819
 20
24.14613686630301
 30
0.0
 42
0.5773502691891679
  0
VERTEX
  5
1A13
  8
SAPA_PROFIL
 62
     4
 10
114.0103031163228
 20
23.831136866303432
 30
0.0
  0
VERTEX
  5
1A14
  8
SAPA_PROFIL
 62
     4
 10
114.2774176444491
 20
23.831136866303179
 30
0.0
  0
VERTEX
  5
1A15
  8
SAPA_PROFIL
 62
     4
 10
115.08610110575739
 20
22.432609165668929
 30
0.0
 42
-0.1318219888653519
  0
VERTEX
  5
1A16
  8
SAPA_PROFIL
 62
     4
 10
115.1263935022948
 20
22.282436063196581
 30
0.0
  0
VERTEX
  5
1A17
  8
SAPA_PROFIL
 62
     4
 10
115.12639350228839
 20
22.099999992759798
 30
0.0
 42
-0.4142135623724291
  0
VERTEX
  5
1A18
  8
SAPA_PROFIL
 62
     4
 10
114.7263935022888
 20
21.69999999275926
 30
0.0
  0
VERTEX
  5
1A19
  8
SAPA_PROFIL
 62
     4
 10
111.3263935022878
 20
21.699999992760631
 30
0.0
 42
-0.4142135623744271
  0
VERTEX
  5
1A1A
  8
SAPA_PROFIL
 62
     4
 10
110.9263935022868
 20
22.099999992759798
 30
0.0
  0
VERTEX
  5
1A1B
  8
SAPA_PROFIL
 62
     4
 10
110.9263935022862
 20
22.279615235031109
 30
0.0
 42
-0.1316524975874005
  0
VERTEX
  5
1A1C
  8
SAPA_PROFIL
 62
     4
 10
110.9665858811518
 20
22.429615235027921
 30
0.0
  0
VERTEX
  5
1A1D
  8
SAPA_PROFIL
 62
     4
 10
111.8927353278043
 20
24.033753132030181
 30
0.0
 42
0.1316524975875904
  0
VERTEX
  5
1A1E
  8
SAPA_PROFIL
 62
     4
 10
112.0267099240191
 20
24.53375313203189
 30
0.0
  0
VERTEX
  5
1A1F
  8
SAPA_PROFIL
 62
     4
 10
112.0267099240191
 20
24.94999999275926
 30
0.0
 42
0.4142135623730951
  0
VERTEX
  5
1A20
  8
SAPA_PROFIL
 62
     4
 10
111.0267099240191
 20
25.94999999275926
 30
0.0
  0
VERTEX
  5
1A21
  8
SAPA_PROFIL
 62
     4
 10
108.0267099240218
 20
25.94999999275926
 30
0.0
 42
-0.9999996830128083
  0
VERTEX
  5
1A22
  8
SAPA_PROFIL
 62
     4
 10
108.02670992402
 20
26.94999999275926
 30
0.0
  0
VERTEX
  5
1A23
  8
SAPA_PROFIL
 62
     4
 10
111.02670992402
 20
26.94999999275926
 30
0.0
 42
0.4142135623730951
  0
VERTEX
  5
1A24
  8
SAPA_PROFIL
 62
     4
 10
112.02670992402
 20
27.94999999275926
 30
0.0
  0
VERTEX
  5
1A25
  8
SAPA_PROFIL
 62
     4
 10
112.02670992402
 20
57.449999992843843
 30
0.0
 42
0.4142135623730951
  0
VERTEX
  5
1A26
  8
SAPA_PROFIL
 62
     4
 10
111.02670992402
 20
58.449999992843843
 30
0.0
  0
VERTEX
  5
1A27
  8
SAPA_PROFIL
 62
     4
 10
108.0267099240218
 20
58.449999992843843
 30
0.0
 42
-0.9999999999999998
  0
VERTEX
  5
1A28
  8
SAPA_PROFIL
 62
     4
 10
108.0267099240218
 20
59.449999992843843
 30
0.0
  0
VERTEX
  5
1A29
  8
SAPA_PROFIL
 62
     4
 10
111.02670992402
 20
59.449999992843843
 30
0.0
 42
0.4142135623736278
  0
VERTEX
  5
1A2A
  8
SAPA_PROFIL
 62
     4
 10
112.02670992402
 20
60.449999992843843
 30
0.0
  0
VERTEX
  5
1A2B
  8
SAPA_PROFIL
 62
     4
 10
112.02670992402
 20
60.866246853570303
 30
0.0
 42
0.1316524975874375
  0
VERTEX
  5
1A2C
  8
SAPA_PROFIL
 62
     4
 10
111.8927353278039
 20
61.366246853570502
 30
0.0
  0
VERTEX
  5
1A2D
  8
SAPA_PROFIL
 62
     4
 10
110.9665858811518
 20
62.97038475057245
 30
0.0
 42
-0.1316524975874
  0
VERTEX
  5
1A2E
  8
SAPA_PROFIL
 62
     4
 10
110.9263935022862
 20
63.120384750572001
 30
0.0
  0
VERTEX
  5
1A2F
  8
SAPA_PROFIL
 62
     4
 10
110.9263935022868
 20
63.29999999284329
 30
0.0
 42
-0.4142135623744271
  0
VERTEX
  5
1A30
  8
SAPA_PROFIL
 62
     4
 10
111.3263935022878
 20
63.699999992842478
 30
0.0
  0
VERTEX
  5
1A31
  8
SAPA_PROFIL
 62
     4
 10
114.7263935022888
 20
63.699999992843843
 30
0.0
 42
-0.4142135623724291
  0
VERTEX
  5
1A32
  8
SAPA_PROFIL
 62
     4
 10
115.12639350228839
 20
63.29999999284329
 30
0.0
  0
VERTEX
  5
1A33
  8
SAPA_PROFIL
 62
     4
 10
115.1263935022948
 20
63.117563922406518
 30
0.0
 42
-0.1318219888653524
  0
VERTEX
  5
1A34
  8
SAPA_PROFIL
 62
     4
 10
115.08610110575739
 20
62.967390819934167
 30
0.0
  0
VERTEX
  5
1A35
  8
SAPA_PROFIL
 62
     4
 10
114.2774176445331
 20
61.56886311945452
 30
0.0
  0
VERTEX
  5
1A36
  8
SAPA_PROFIL
 62
     4
 10
114.01030311632
 20
61.56886311945452
 30
0.0
 42
0.577350269189159
  0
VERTEX
  5
1A37
  8
SAPA_PROFIL
 62
     4
 10
113.82843778152549
 20
61.25386311945492
 30
0.0
  0
VERTEX
  5
1A38
  8
SAPA_PROFIL
 62
     4
 10
114.0301744602026
 20
60.90444494223626
 30
0.0
 42
0.0612687673629489
  0
VERTEX
  5
1A39
  8
SAPA_PROFIL
 62
     4
 10
114.04375783088879
 20
60.611769509136053
 30
0.0
 42
0.2694959974285039
  0
VERTEX
  5
1A3A
  8
SAPA_PROFIL
 62
     4
 10
114.23688980523271
 20
60.380250462735532
 30
0.0
  0
VERTEX
  5
1A3B
  8
SAPA_PROFIL
 62
     4
 10
116.6977199956859
 20
59.484581521825859
 30
0.0
 42
-0.3152987888784035
  0
VERTEX
  5
1A3C
  8
SAPA_PROFIL
 62
     4
 10
117.0267099240225
 20
59.01473521143263
 30
0.0
  0
VERTEX
  5
1A3D
  8
SAPA_PROFIL
 62
     4
 10
117.02670992402091
 20
57.633235626228199
 30
0.0
 42
-0.2539676464741841
  0
VERTEX
  5
1A3E
  8
SAPA_PROFIL
 62
     4
 10
116.89010163452561
 20
57.381634455844122
 30
0.0
  0
VERTEX
  5
1A3F
  8
SAPA_PROFIL
 62
     4
 10
116.4835414385206
 20
57.117611177467481
 30
0.0
 42
-0.5862177598324623
  0
VERTEX
  5
1A40
  8
SAPA_PROFIL
 62
     4
 10
116.0267099240241
 20
57.373352992705833
 30
0.0
  0
VERTEX
  5
1A41
  8
SAPA_PROFIL
 62
     4
 10
116.02670992403181
 20
58.314527673215643
 30
0.0
 42
0.3152987888813165
  0
VERTEX
  5
1A42
  8
SAPA_PROFIL
 62
     4
 10
115.697719995695
 20
58.784373983613392
 30
0.0
  0
VERTEX
  5
1A43
  8
SAPA_PROFIL
 62
     4
 10
114.49771999568379
 20
59.221138264737348
 30
0.0
 42
0.5205670505515651
  0
VERTEX
  5
1A44
  8
SAPA_PROFIL
 62
     4
 10
113.8267099240211
 20
58.751291954344119
 30
0.0
  0
VERTEX
  5
1A45
  8
SAPA_PROFIL
 62
     4
 10
113.826709924021
 20
53.734851013675282
 30
0.0
 42
0.3702522326300203
  0
VERTEX
  5
1A46
  8
SAPA_PROFIL
 62
     4
 10
114.0811698766867
 20
53.438327651881949
 30
0.0
 42
0.0982365330332397
  0
VERTEX
  5
1A47
  8
SAPA_PROFIL
 62
     4
 10
115.7688566516817
 20
53.347874893671012
 30
0.0
 42
0.3735060174783164
  0
VERTEX
  5
1A48
  8
SAPA_PROFIL
 62
     4
 10
116.0267099240218
 20
53.64489956158198
 30
0.0
  0
VERTEX
  5
1A49
  8
SAPA_PROFIL
 62
     4
 10
116.0267099240227
 20
54.073352992704642
 30
0.0
 42
-0.5920056181162531
  0
VERTEX
  5
1A4A
  8
SAPA_PROFIL
 62
     4
 10
116.48791342655061
 20
54.326361749022041
 30
0.0
  0
VERTEX
  5
1A4B
  8
SAPA_PROFIL
 62
     4
 10
116.8901016345289
 20
54.065177672866341
 30
0.0
 42
-0.2539676464746725
  0
VERTEX
  5
1A4C
  8
SAPA_PROFIL
 62
     4
 10
117.0267099240243
 20
53.813576502482583
 30
0.0
  0
VERTEX
  5
1A4D
  8
SAPA_PROFIL
 62
     4
 10
117.0267099240227
 20
31.586423483116889
 30
0.0
 42
-0.2539676464741819
  0
VERTEX
  5
1A4E
  8
SAPA_PROFIL
 62
     4
 10
116.8901016345289
 20
31.33482231273403
 30
0.0
  0
VERTEX
  5
1A4F
  8
SAPA_PROFIL
 62
     4
 10
116.48791342655061
 20
31.073638236580219
 30
0.0
 42
-0.5920055144124249
  0
VERTEX
  5
1A50
  8
SAPA_PROFIL
 62
     4
 10
116.0267099240227
 20
31.326646992895729
 30
0.0
  0
VERTEX
  5
1A51
  8
SAPA_PROFIL
 62
     4
 10
116.0267099492977
 20
31.755100470185951
 30
0.0
 42
0.3735060174775405
  0
VERTEX
  5
1A52
  8
SAPA_PROFIL
 62
     4
 10
115.7688566769576
 20
32.05212513809564
 30
0.0
 42
0.0355900683670349
  0
VERTEX
  5
1A53
  8
SAPA_PROFIL
 62
     4
 10
115.1529830901578
 20
32.096018702127893
 30
0.0
 42
0.0624282003873116
  0
VERTEX
  5
1A54
  8
SAPA_PROFIL
 62
     4
 10
114.0811699019627
 20
31.961672379884959
 30
0.0
 42
0.3702522326309292
  0
VERTEX
  5
1A55
  8
SAPA_PROFIL
 62
     4
 10
113.826709949297
 20
31.665149018091579
 30
0.0
  0
VERTEX
  5
1A56
  8
SAPA_PROFIL
 62
     4
 10
113.8267099240208
 20
26.648708031258071
 30
0.0
 42
0.5205670505515692
  0
VERTEX
  5
1A57
  8
SAPA_PROFIL
 62
     4
 10
114.49771999568379
 20
26.178861720864841
 30
0.0
  0
VERTEX
  5
1A58
  8
SAPA_PROFIL
 62
     4
 10
115.69771999569321
 20
26.615626001989799
 30
0.0
 42
0.3152987888807539
  0
VERTEX
  5
1A59
  8
SAPA_PROFIL
 62
     4
 10
116.0267099240309
 20
27.085472312385651
 30
0.0
  0
VERTEX
  5
1A5A
  8
SAPA_PROFIL
 62
     4
 10
116.0267099240241
 20
28.02664699289474
 30
0.0
 42
-0.5862175119221242
  0
VERTEX
  5
1A5B
  8
SAPA_PROFIL
 62
     4
 10
116.48354124977919
 20
28.282388923876692
 30
0.0
 42
0.0000002084758573
  0
SEQEND
  5
1A5C
  8
SAPA_PROFIL
 62
     4
  0
POLYLINE
  5
1208
  8
SAPA_PROFIL
 62
     4
 66
     1
 10
0.0
 20
0.0
 30
0.0
  0
VERTEX
  5
1A5D
  8
SAPA_PROFIL
 62
     4
 10
91.405571761980056
 20
33.650670870403452
 30
0.0
 42
0.5571646428658034
  0
VERTEX
  5
1A5E
  8
SAPA_PROFIL
 62
     4
 10
92.273290676135616
 20
34.18763137454031
 30
0.0
  0
VERTEX
  5
1A5F
  8
SAPA_PROFIL
 62
     4
 10
92.273290676134707
 20
51.212368611061507
 30
0.0
 42
0.5571645048035741
  0
VERTEX
  5
1A60
  8
SAPA_PROFIL
 62
     4
 10
91.405571988268534
 20
51.749329228022539
 30
0.0
  0
VERTEX
  5
1A61
  8
SAPA_PROFIL
 62
     4
 10
89.739431332200525
 20
50.918622140475797
 30
0.0
 42
0.284385813979063
  0
VERTEX
  5
1A62
  8
SAPA_PROFIL
 62
     4
 10
89.573290676133084
 20
50.650141831995441
 30
0.0
  0
VERTEX
  5
1A63
  8
SAPA_PROFIL
 62
     4
 10
89.57329067613351
 20
34.749858153606127
 30
0.0
 42
0.2843858139786238
  0
VERTEX
  5
1A64
  8
SAPA_PROFIL
 62
     4
 10
89.739431332200439
 20
34.481377845125849
 30
0.0
  0
VERTEX
  5
1A65
  8
SAPA_PROFIL
 62
     4
 10
91.405571988269799
 20
33.65067075757873
 30
0.0
  0
SEQEND
  5
1A66
  8
SAPA_PROFIL
 62
     4
  0
POLYLINE
  5
1209
  8
SAPA_PROFIL
 62
     4
 66
     1
 10
0.0
 20
0.0
 30
0.0
 70
     1
  0
VERTEX
  5
1A67
  8
SAPA_PROFIL
 62
     4
 10
89.216459161635314
 20
57.117611177468071
 30
0.0
  0
VERTEX
  5
1A68
  8
SAPA_PROFIL
 62
     4
 10
88.809898965631177
 20
57.381634455844072
 30
0.0
 42
-0.2539676464751066
  0
VERTEX
  5
1A69
  8
SAPA_PROFIL
 62
     4
 10
88.673290676135068
 20
57.633235626228768
 30
0.0
  0
VERTEX
  5
1A6A
  8
SAPA_PROFIL
 62
     4
 10
88.673290676135025
 20
59.014735211434122
 30
0.0
 42
-0.3152987888790479
  0
VERTEX
  5
1A6B
  8
SAPA_PROFIL
 62
     4
 10
89.002280604473185
 20
59.484581521826442
 30
0.0
  0
VERTEX
  5
1A6C
  8
SAPA_PROFIL
 62
     4
 10
91.463110794924432
 20
60.380250462735113
 30
0.0
 42
0.2694959974287434
  0
VERTEX
  5
1A6D
  8
SAPA_PROFIL
 62
     4
 10
91.656242769268317
 20
60.611769509136472
 30
0.0
 42
0.0612686379508233
  0
VERTEX
  5
1A6E
  8
SAPA_PROFIL
 62
     4
 10
91.669826139898831
 20
60.904444941989752
 30
0.0
  0
VERTEX
  5
1A6F
  8
SAPA_PROFIL
 62
     4
 10
91.871562818627652
 20
61.253863119298018
 30
0.0
 42
0.5773502691891679
  0
VERTEX
  5
1A70
  8
SAPA_PROFIL
 62
     4
 10
91.689697483833072
 20
61.568863119297603
 30
0.0
  0
VERTEX
  5
1A71
  8
SAPA_PROFIL
 62
     4
 10
91.422582955706744
 20
61.568863119297838
 30
0.0
  0
VERTEX
  5
1A72
  8
SAPA_PROFIL
 62
     4
 10
90.613899494398396
 20
62.967390819932071
 30
0.0
 42
-0.1318219888653519
  0
VERTEX
  5
1A73
  8
SAPA_PROFIL
 62
     4
 10
90.573607097861014
 20
63.117563922404408
 30
0.0
  0
VERTEX
  5
1A74
  8
SAPA_PROFIL
 62
     4
 10
90.573607097867367
 20
63.299999992841187
 30
0.0
 42
-0.4142135623724291
  0
VERTEX
  5
1A75
  8
SAPA_PROFIL
 62
     4
 10
90.973607097866974
 20
63.699999992841747
 30
0.0
  0
VERTEX
  5
1A76
  8
SAPA_PROFIL
 62
     4
 10
94.373607097867989
 20
63.699999992840468
 30
0.0
 42
-0.4142135623744271
  0
VERTEX
  5
1A77
  8
SAPA_PROFIL
 62
     4
 10
94.773607097869004
 20
63.2999999928413
 30
0.0
  0
VERTEX
  5
1A78
  8
SAPA_PROFIL
 62
     4
 10
94.773607097869643
 20
63.120384750570011
 30
0.0
 42
-0.1316524975874005
  0
VERTEX
  5
1A79
  8
SAPA_PROFIL
 62
     4
 10
94.733414719004045
 20
62.970384750573189
 30
0.0
  0
VERTEX
  5
1A7A
  8
SAPA_PROFIL
 62
     4
 10
93.807265272351557
 20
61.366246853570907
 30
0.0
 42
0.1316524975875904
  0
VERTEX
  5
1A7B
  8
SAPA_PROFIL
 62
     4
 10
93.673290676136787
 20
60.866246853569201
 30
0.0
  0
VERTEX
  5
1A7C
  8
SAPA_PROFIL
 62
     4
 10
93.673290676136816
 20
60.449999992841832
 30
0.0
 42
0.4142135623730951
  0
VERTEX
  5
1A7D
  8
SAPA_PROFIL
 62
     4
 10
94.673290676136844
 20
59.449999992841853
 30
0.0
  0
VERTEX
  5
1A7E
  8
SAPA_PROFIL
 62
     4
 10
97.673290676134116
 20
59.449999992841931
 30
0.0
 42
-0.9999996830128083
  0
VERTEX
  5
1A7F
  8
SAPA_PROFIL
 62
     4
 10
97.673290676135963
 20
58.449999992841931
 30
0.0
  0
VERTEX
  5
1A80
  8
SAPA_PROFIL
 62
     4
 10
94.673290676135949
 20
58.449999992841853
 30
0.0
 42
0.4142135623730951
  0
VERTEX
  5
1A81
  8
SAPA_PROFIL
 62
     4
 10
93.673290676135991
 20
57.449999992841818
 30
0.0
  0
VERTEX
  5
1A82
  8
SAPA_PROFIL
 62
     4
 10
93.673290676136773
 20
27.949999992757238
 30
0.0
 42
0.4142135623730951
  0
VERTEX
  5
1A83
  8
SAPA_PROFIL
 62
     4
 10
94.673290676136816
 20
26.94999999275727
 30
0.0
  0
VERTEX
  5
1A84
  8
SAPA_PROFIL
 62
     4
 10
97.673290676134982
 20
26.949999992757348
 30
0.0
 42
-0.9999999999999998
  0
VERTEX
  5
1A85
  8
SAPA_PROFIL
 62
     4
 10
97.673290676135025
 20
25.949999992757348
 30
0.0
  0
VERTEX
  5
1A86
  8
SAPA_PROFIL
 62
     4
 10
94.673290676136816
 20
25.94999999275727
 30
0.0
 42
0.4142135623736278
  0
VERTEX
  5
1A87
  8
SAPA_PROFIL
 62
     4
 10
93.673290676136858
 20
24.949999992757238
 30
0.0
  0
VERTEX
  5
1A88
  8
SAPA_PROFIL
 62
     4
 10
93.673290676136858
 20
24.533753132030778
 30
0.0
 42
0.1316524975874375
  0
VERTEX
  5
1A89
  8
SAPA_PROFIL
 62
     4
 10
93.807265272352922
 20
24.03375313203059
 30
0.0
  0
VERTEX
  5
1A8A
  8
SAPA_PROFIL
 62
     4
 10
94.73341471900514
 20
22.42961523502867
 30
0.0
 42
-0.1316524975874
  0
VERTEX
  5
1A8B
  8
SAPA_PROFIL
 62
     4
 10
94.773607097870737
 20
22.279615235029119
 30
0.0
  0
VERTEX
  5
1A8C
  8
SAPA_PROFIL
 62
     4
 10
94.773607097870126
 20
22.099999992757809
 30
0.0
 42
-0.4142135623744271
  0
VERTEX
  5
1A8D
  8
SAPA_PROFIL
 62
     4
 10
94.373607097869112
 20
21.69999999275862
 30
0.0
  0
VERTEX
  5
1A8E
  8
SAPA_PROFIL
 62
     4
 10
90.973607097868097
 20
21.699999992757171
 30
0.0
 42
-0.4142135623724291
  0
VERTEX
  5
1A8F
  8
SAPA_PROFIL
 62
     4
 10
90.573607097868475
 20
22.099999992757699
 30
0.0
  0
VERTEX
  5
1A90
  8
SAPA_PROFIL
 62
     4
 10
90.573607097862094
 20
22.282436063194481
 30
0.0
 42
-0.1318219888653524
  0
VERTEX
  5
1A91
  8
SAPA_PROFIL
 62
     4
 10
90.613899494399476
 20
22.432609165666829
 30
0.0
  0
VERTEX
  5
1A92
  8
SAPA_PROFIL
 62
     4
 10
91.422582955623781
 20
23.831136866146501
 30
0.0
  0
VERTEX
  5
1A93
  8
SAPA_PROFIL
 62
     4
 10
91.689697483836824
 20
23.831136866146512
 30
0.0
 42
0.577350269189159
  0
VERTEX
  5
1A94
  8
SAPA_PROFIL
 62
     4
 10
91.871562818631375
 20
24.146136866146112
 30
0.0
  0
VERTEX
  5
1A95
  8
SAPA_PROFIL
 62
     4
 10
91.669826139954267
 20
24.495555043364771
 30
0.0
 42
0.0612687673629489
  0
VERTEX
  5
1A96
  8
SAPA_PROFIL
 62
     4
 10
91.656242769268033
 20
24.788230476464982
 30
0.0
 42
0.2694959974285039
  0
VERTEX
  5
1A97
  8
SAPA_PROFIL
 62
     4
 10
91.463110794924091
 20
25.019749522865499
 30
0.0
  0
VERTEX
  5
1A98
  8
SAPA_PROFIL
 62
     4
 10
89.002280604470883
 20
25.915418463775101
 30
0.0
 42
-0.3152987888784035
  0
VERTEX
  5
1A99
  8
SAPA_PROFIL
 62
     4
 10
88.673290676134314
 20
26.385264774168309
 30
0.0
  0
VERTEX
  5
1A9A
  8
SAPA_PROFIL
 62
     4
 10
88.673290676135863
 20
27.76676435937275
 30
0.0
 42
-0.2539676464741841
  0
VERTEX
  5
1A9B
  8
SAPA_PROFIL
 62
     4
 10
88.809898965631135
 20
28.018365529756831
 30
0.0
  0
VERTEX
  5
1A9C
  8
SAPA_PROFIL
 62
     4
 10
89.216459161636095
 20
28.282388808133479
 30
0.0
 42
-0.5862177598324623
  0
VERTEX
  5
1A9D
  8
SAPA_PROFIL
 62
     4
 10
89.673290676132609
 20
28.026646992895149
 30
0.0
  0
VERTEX
  5
1A9E
  8
SAPA_PROFIL
 62
     4
 10
89.673290676124978
 20
27.085472312385338
 30
0.0
 42
0.3152987888813165
  0
VERTEX
  5
1A9F
  8
SAPA_PROFIL
 62
     4
 10
90.002280604461745
 20
26.6156260019876
 30
0.0
  0
VERTEX
  5
1AA0
  8
SAPA_PROFIL
 62
     4
 10
91.202280604472989
 20
26.178861720863669
 30
0.0
 42
0.5205670505515651
  0
VERTEX
  5
1AA1
  8
SAPA_PROFIL
 62
     4
 10
91.873290676135724
 20
26.648708031256909
 30
0.0
  0
VERTEX
  5
1AA2
  8
SAPA_PROFIL
 62
     4
 10
91.873290676135611
 20
31.66514897192576
 30
0.0
 42
0.3702522326300203
  0
VERTEX
  5
1AA3
  8
SAPA_PROFIL
 62
     4
 10
91.618830723469898
 20
31.961672333719079
 30
0.0
 42
0.0982365330332397
  0
VERTEX
  5
1AA4
  8
SAPA_PROFIL
 62
     4
 10
89.931143948474897
 20
32.05212509192998
 30
0.0
 42
0.3735060174783164
  0
VERTEX
  5
1AA5
  8
SAPA_PROFIL
 62
     4
 10
89.673290676134869
 20
31.755100424018991
 30
0.0
  0
VERTEX
  5
1AA6
  8
SAPA_PROFIL
 62
     4
 10
89.673290676133959
 20
31.32664699289634
 30
0.0
 42
-0.5920056181162531
  0
VERTEX
  5
1AA7
  8
SAPA_PROFIL
 62
     4
 10
89.212087173606037
 20
31.073638236578919
 30
0.0
  0
VERTEX
  5
1AA8
  8
SAPA_PROFIL
 62
     4
 10
88.809898965627724
 20
31.334822312734609
 30
0.0
 42
-0.2539676464746725
  0
VERTEX
  5
1AA9
  8
SAPA_PROFIL
 62
     4
 10
88.673290676132368
 20
31.58642348311837
 30
0.0
  0
VERTEX
  5
1AAA
  8
SAPA_PROFIL
 62
     4
 10
88.673290676133362
 20
53.813576502484061
 30
0.0
 42
-0.2539676464741819
  0
VERTEX
  5
1AAB
  8
SAPA_PROFIL
 62
     4
 10
88.809898965627127
 20
54.065177672866923
 30
0.0
  0
VERTEX
  5
1AAC
  8
SAPA_PROFIL
 62
     4
 10
89.212087173605454
 20
54.326361749020741
 30
0.0
 42
-0.5920055144124249
  0
VERTEX
  5
1AAD
  8
SAPA_PROFIL
 62
     4
 10
89.673290676133334
 20
54.073352992705239
 30
0.0
  0
VERTEX
  5
1AAE
  8
SAPA_PROFIL
 62
     4
 10
89.673290650858334
 20
53.64489951541502
 30
0.0
 42
0.3735060174775405
  0
VERTEX
  5
1AAF
  8
SAPA_PROFIL
 62
     4
 10
89.931143923198434
 20
53.347874847505352
 30
0.0
 42
0.0355900683670349
  0
VERTEX
  5
1AB0
  8
SAPA_PROFIL
 62
     4
 10
90.547017509998227
 20
53.303981283473107
 30
0.0
 42
0.0624282003873116
  0
VERTEX
  5
1AB1
  8
SAPA_PROFIL
 62
     4
 10
91.618830698193364
 20
53.438327605716083
 30
0.0
 42
0.3702522326309292
  0
VERTEX
  5
1AB2
  8
SAPA_PROFIL
 62
     4
 10
91.873290650859076
 20
53.734850967509459
 30
0.0
  0
VERTEX
  5
1AB3
  8
SAPA_PROFIL
 62
     4
 10
91.873290676135085
 20
58.751291954342967
 30
0.0
 42
0.5205670505515692
  0
VERTEX
  5
1AB4
  8
SAPA_PROFIL
 62
     4
 10
91.202280604472094
 20
59.221138264736169
 30
0.0
  0
VERTEX
  5
1AB5
  8
SAPA_PROFIL
 62
     4
 10
90.002280604462655
 20
58.784373983611189
 30
0.0
 42
0.3152987888807539
  0
VERTEX
  5
1AB6
  8
SAPA_PROFIL
 62
     4
 10
89.673290676125049
 20
58.314527673215331
 30
0.0
  0
VERTEX
  5
1AB7
  8
SAPA_PROFIL
 62
     4
 10
89.673290676131899
 20
57.373352992706252
 30
0.0
 42
-0.5862175119221242
  0
VERTEX
  5
1AB8
  8
SAPA_PROFIL
 62
     4
 10
89.216459350376766
 20
57.117611061724283
 30
0.0
 42
0.0000002084758573
  0
SEQEND
  5
1AB9
  8
SAPA_PROFIL
 62
     4
  0
POLYLINE
  5
120A
  8
SAPA_PROFIL
 66
     1
 10
0.0
 20
0.0
 30
0.0
 70
     1
  0
VERTEX
  5
1ABA
  8
SAPA_PROFIL
 10
117.7000000000378
 20
82.804759982146265
 30
0.0
  0
VERTEX
  5
1ABB
  8
SAPA_PROFIL
 10
117.7000000000378
 20
82.562216044299134
 30
0.0
 42
-0.2011813370902256
  0
VERTEX
  5
1ABC
  8
SAPA_PROFIL
 10
117.6401818528978
 20
82.419565954468567
 30
0.0
  0
VERTEX
  5
1ABD
  8
SAPA_PROFIL
 10
116.7134344941681
 20
81.508853861444663
 30
0.0
  0
VERTEX
  5
1ABE
  8
SAPA_PROFIL
 10
115.200000000036
 20
81.522061404187866
 30
0.0
 42
0.4931454260356012
  0
VERTEX
  5
1ABF
  8
SAPA_PROFIL
 10
113.6287350397982
 20
81.742888293235524
 30
0.0
  0
VERTEX
  5
1AC0
  8
SAPA_PROFIL
 10
112.5610852029738
 20
80.693711720622744
 30
0.0
 42
0.6681786379164681
  0
VERTEX
  5
1AC1
  8
SAPA_PROFIL
 10
112.7024540834275
 20
80.343811463137797
 30
0.0
  0
VERTEX
  5
1AC2
  8
SAPA_PROFIL
 10
117.2000000000378
 20
80.304561974540476
 30
0.0
  0
VERTEX
  5
1AC3
  8
SAPA_PROFIL
 10
119.31409285162751
 20
82.382075233770266
 30
0.0
 42
-0.2038501166358263
  0
VERTEX
  5
1AC4
  8
SAPA_PROFIL
 10
119.67839963104529
 20
82.525258090376255
 30
0.0
  0
VERTEX
  5
1AC5
  8
SAPA_PROFIL
 10
134.78311288363969
 20
82.106631981087375
 30
0.0
 42
-0.4061212134736873
  0
VERTEX
  5
1AC6
  8
SAPA_PROFIL
 10
137.70000000003131
 20
79.107783493987924
 30
0.0
  0
VERTEX
  5
1AC7
  8
SAPA_PROFIL
 10
137.70000000003131
 20
67.32359225051988
 30
0.0
 42
-0.4142135623730951
  0
VERTEX
  5
1AC8
  8
SAPA_PROFIL
 10
137.20000000003131
 20
66.82359225051988
 30
0.0
  0
VERTEX
  5
1AC9
  8
SAPA_PROFIL
 10
125.61421356240631
 20
66.82359225051988
 30
0.0
 42
-0.198912367379658
  0
VERTEX
  5
1ACA
  8
SAPA_PROFIL
 10
124.9071067812197
 20
67.116485469333327
 30
0.0
  0
VERTEX
  5
1ACB
  8
SAPA_PROFIL
 10
124.52650800782919
 20
67.497084242723815
 30
0.0
 42
0.1830252782112529
  0
VERTEX
  5
1ACC
  8
SAPA_PROFIL
 10
123.2348401990978
 20
68.07911278447142
 30
0.0
  0
VERTEX
  5
1ACD
  8
SAPA_PROFIL
 10
112.80176817029199
 20
68.802177511801972
 30
0.0
 42
0.668178637923616
  0
VERTEX
  5
1ACE
  8
SAPA_PROFIL
 10
112.5883858507584
 20
68.287027022012964
 30
0.0
  0
VERTEX
  5
1ACF
  8
SAPA_PROFIL
 10
114.587867965681
 20
66.287544907090421
 30
0.0
 42
0.7332303362588345
  0
VERTEX
  5
1AD0
  8
SAPA_PROFIL
 10
115.0954423259407
 20
66.551771394747618
 30
0.0
  0
VERTEX
  5
1AD1
  8
SAPA_PROFIL
 10
114.9868582151546
 20
67.167582488146024
 30
0.0
 42
-0.4663076581593561
  0
VERTEX
  5
1AD2
  8
SAPA_PROFIL
 10
115.28230054105811
 20
67.519676941446221
 30
0.0
  0
VERTEX
  5
1AD3
  8
SAPA_PROFIL
 10
123.0417776664104
 20
66.788517319565756
 30
0.0
 42
-0.183025278211264
  0
VERTEX
  5
1AD4
  8
SAPA_PROFIL
 10
123.6876115707761
 20
66.497503048691954
 30
0.0
  0
VERTEX
  5
1AD5
  8
SAPA_PROFIL
 10
124.07573593132101
 20
66.109378688146933
 30
0.0
 42
0.1989123673796518
  0
VERTEX
  5
1AD6
  8
SAPA_PROFIL
 10
125.4899494936941
 20
65.523592250520039
 30
0.0
  0
VERTEX
  5
1AD7
  8
SAPA_PROFIL
 10
136.90000000004679
 20
65.523592250519926
 30
0.0
 42
-0.4142135623732283
  0
VERTEX
  5
1AD8
  8
SAPA_PROFIL
 10
137.4000000000469
 20
65.023592250519698
 30
0.0
  0
VERTEX
  5
1AD9
  8
SAPA_PROFIL
 10
137.40000000004591
 20
63.823592250520342
 30
0.0
 42
0.4142135623732062
  0
VERTEX
  5
1ADA
  8
SAPA_PROFIL
 10
137.70000000004589
 20
63.523592250520259
 30
0.0
  0
VERTEX
  5
1ADB
  8
SAPA_PROFIL
 10
138.90000000003141
 20
63.523592250519918
 30
0.0
 42
0.4142135623716247
  0
VERTEX
  5
1ADC
  8
SAPA_PROFIL
 10
139.20000000003139
 20
63.823592250521237
 30
0.0
  0
VERTEX
  5
1ADD
  8
SAPA_PROFIL
 10
139.20000000004489
 20
83.799999992843254
 30
0.0
 42
0.4142135623732938
  0
VERTEX
  5
1ADE
  8
SAPA_PROFIL
 10
139.00000000004491
 20
83.999999992843314
 30
0.0
  0
VERTEX
  5
1ADF
  8
SAPA_PROFIL
 10
117.4046238863591
 20
83.999999992843314
 30
0.0
 42
0.4210020197690384
  0
VERTEX
  5
1AE0
  8
SAPA_PROFIL
 10
117.2000000000378
 20
83.800053450799268
 30
0.0
  0
VERTEX
  5
1AE1
  8
SAPA_PROFIL
 10
117.2000000000313
 20
83.212070287603737
 30
0.0
  0
VERTEX
  5
1AE2
  8
SAPA_PROFIL
 10
117.50000000003141
 20
83.212070287603737
 30
0.0
 42
-0.41421356237322
  0
VERTEX
  5
1AE3
  8
SAPA_PROFIL
 10
117.7000000000312
 20
83.012070287603706
 30
0.0
  0
VERTEX
  5
1AE4
  8
SAPA_PROFIL
 10
117.70000000003139
 20
82.794892522134091
 30
0.0
  0
SEQEND
  5
1AE5
  8
SAPA_PROFIL
  0
CIRCLE
  5
120B
  8
SAPA_PROFIL
 62
     2
 10
135.8633409274517
 20
2.889424444427334
 30
0.0
 40
0.8999999999999985
  0
POLYLINE
  5
120C
  8
SAPA_PROFIL
 62
     2
 66
     1
 10
0.0
 20
0.0
 30
0.0
  0
VERTEX
  5
1AE6
  8
SAPA_PROFIL
 62
     2
 10
137.26334092745171
 20
4.1974308560003797
 30
0.0
  0
VERTEX
  5
1AE7
  8
SAPA_PROFIL
 62
     2
 10
137.07098250745929
 20
3.1065120458476372
 30
0.0
  0
VERTEX
  5
1AE8
  8
SAPA_PROFIL
 62
     2
 10
137.5027790673609
 20
2.9908125063276989
 30
0.0
 42
-0.4430158954262519
  0
VERTEX
  5
1AE9
  8
SAPA_PROFIL
 62
     2
 10
137.638256114905
 20
2.7273360782207301
 30
0.0
  0
VERTEX
  5
1AEA
  8
SAPA_PROFIL
 62
     2
 10
137.1613079216861
 20
1.4568483303025339
 30
0.0
 42
-0.3125358528825162
  0
VERTEX
  5
1AEB
  8
SAPA_PROFIL
 62
     2
 10
136.7868262085567
 20
1.1974308560008351
 30
0.0
  0
VERTEX
  5
1AEC
  8
SAPA_PROFIL
 62
     2
 10
134.91667089264641
 20
1.1974308560003799
 30
0.0
 42
-0.3125358528825104
  0
VERTEX
  5
1AED
  8
SAPA_PROFIL
 62
     2
 10
134.54218917951701
 20
1.4568483303025339
 30
0.0
  0
VERTEX
  5
1AEE
  8
SAPA_PROFIL
 62
     2
 10
134.06524098629779
 20
2.7273360782207301
 30
0.0
 42
-0.4430158954262519
  0
VERTEX
  5
1AEF
  8
SAPA_PROFIL
 62
     2
 10
134.20071803384189
 20
2.9908125063275861
 30
0.0
  0
VERTEX
  5
1AF0
  8
SAPA_PROFIL
 62
     2
 10
134.63251459374371
 20
3.1065120458476372
 30
0.0
  0
VERTEX
  5
1AF1
  8
SAPA_PROFIL
 62
     2
 10
134.4402485506015
 20
4.1974308560003797
 30
0.0
  0
SEQEND
  5
1AF2
  8
SAPA_PROFIL
 62
     2
  0
POLYLINE
  5
120D
  8
SAPA_PROFIL
 62
     2
 66
     1
 10
0.0
 20
0.0
 30
0.0
 70
     1
  0
VERTEX
  5
1AF3
  8
SAPA_PROFIL
 62
     2
 10
137.25174855060141
 20
4.1974308560003797
 30
0.0
 42
0.285714285714282
  0
VERTEX
  5
1AF4
  8
SAPA_PROFIL
 62
     2
 10
134.45174855060139
 20
4.1974308560003797
 30
0.0
  0
VERTEX
  5
1AF5
  8
SAPA_PROFIL
 62
     2
 10
132.37796838121361
 20
4.1974308560008353
 30
0.0
 42
-0.3882600129940275
  0
VERTEX
  5
1AF6
  8
SAPA_PROFIL
 62
     2
 10
132.0791668838722
 20
4.4706415822803933
 30
0.0
  0
VERTEX
  5
1AF7
  8
SAPA_PROFIL
 62
     2
 10
131.61295695994571
 20
8.3706415822804843
 30
0.0
 42
-0.4406523138893894
  0
VERTEX
  5
1AF8
  8
SAPA_PROFIL
 62
     2
 10
131.9117584572875
 20
8.6974308560003806
 30
0.0
  0
VERTEX
  5
1AF9
  8
SAPA_PROFIL
 62
     2
 10
133.62155045420781
 20
8.6974308560003806
 30
0.0
 42
-0.3394542588634375
  0
VERTEX
  5
1AFA
  8
SAPA_PROFIL
 62
     2
 10
133.91132820209441
 20
8.4750765695313817
 30
0.0
  0
VERTEX
  5
1AFB
  8
SAPA_PROFIL
 62
     2
 10
134.11370793002581
 20
8.2574907873637926
 30
0.0
 42
0.3394542588633663
  0
VERTEX
  5
1AFC
  8
SAPA_PROFIL
 62
     2
 10
134.40348567791261
 20
8.0351365008947937
 30
0.0
  0
VERTEX
  5
1AFD
  8
SAPA_PROFIL
 62
     2
 10
137.30001142329041
 20
8.0351365008947937
 30
0.0
 42
0.3394542588634373
  0
VERTEX
  5
1AFE
  8
SAPA_PROFIL
 62
     2
 10
137.58978917117699
 20
8.2574907873637926
 30
0.0
  0
VERTEX
  5
1AFF
  8
SAPA_PROFIL
 62
     2
 10
137.79216889910839
 20
8.4750765695313817
 30
0.0
 42
-0.3394542588633662
  0
VERTEX
  5
1B00
  8
SAPA_PROFIL
 62
     2
 10
138.08194664699519
 20
8.6974308560003806
 30
0.0
  0
VERTEX
  5
1B01
  8
SAPA_PROFIL
 62
     2
 10
139.79173864391529
 20
8.6974308560003806
 30
0.0
 42
-0.4406523138893994
  0
VERTEX
  5
1B02
  8
SAPA_PROFIL
 62
     2
 10
140.09054014125689
 20
8.3706415822804843
 30
0.0
  0
VERTEX
  5
1B03
  8
SAPA_PROFIL
 62
     2
 10
139.62433021733059
 20
4.4706415822803933
 30
0.0
 42
-0.3882600129940462
  0
VERTEX
  5
1B04
  8
SAPA_PROFIL
 62
     2
 10
139.32552871998931
 20
4.1974308560003797
 30
0.0
  0
VERTEX
  5
1B05
  8
SAPA_PROFIL
 62
     2
 10
137.26334092745171
 20
4.1974308560003797
 30
0.0
  0
SEQEND
  5
1B06
  8
SAPA_PROFIL
 62
     2
  0
POLYLINE
  5
120E
  8
SAPA_PROFIL
 66
     1
 10
0.0
 20
0.0
 30
0.0
 70
     1
  0
VERTEX
  5
1B07
  8
SAPA_PROFIL
 10
48.28623705815852
 20
79.699999996828353
 30
0.0
 42
-0.2679491924315167
  0
VERTEX
  5
1B08
  8
SAPA_PROFIL
 10
48.546044679294191
 20
79.84999999682833
 30
0.0
  0
VERTEX
  5
1B09
  8
SAPA_PROFIL
 10
48.898523816045952
 20
79.849999996827876
 30
0.0
 42
0.4142135623730951
  0
VERTEX
  5
1B0A
  8
SAPA_PROFIL
 10
49.198523816047043
 20
80.149999996828853
 30
0.0
  0
VERTEX
  5
1B0B
  8
SAPA_PROFIL
 10
49.198523816050447
 20
82.949999993628339
 30
0.0
 42
0.4142135623728859
  0
VERTEX
  5
1B0C
  8
SAPA_PROFIL
 10
48.698523816051413
 20
83.449999993628964
 30
0.0
  0
VERTEX
  5
1B0D
  8
SAPA_PROFIL
 10
47.69852381604283
 20
83.449999993630911
 30
0.0
 42
0.4142135623733615
  0
VERTEX
  5
1B0E
  8
SAPA_PROFIL
 10
46.698523816040897
 20
82.449999993631934
 30
0.0
  0
VERTEX
  5
1B0F
  8
SAPA_PROFIL
 10
46.69852381603954
 20
81.083974589844047
 30
0.0
 42
-0.1316524975871477
  0
VERTEX
  5
1B10
  8
SAPA_PROFIL
 10
46.63153651793175
 20
80.833974589844544
 30
0.0
  0
VERTEX
  5
1B11
  8
SAPA_PROFIL
 10
45.065511114140399
 20
78.1215390245344
 30
0.0
 42
0.1316524975872168
  0
VERTEX
  5
1B12
  8
SAPA_PROFIL
 10
44.998523816032609
 20
77.871539024534741
 30
0.0
  0
VERTEX
  5
1B13
  8
SAPA_PROFIL
 10
44.998523816026989
 20
69.949999993634435
 30
0.0
 42
-0.4142135623729286
  0
VERTEX
  5
1B14
  8
SAPA_PROFIL
 10
44.698523816027027
 20
69.649999993634594
 30
0.0
  0
VERTEX
  5
1B15
  8
SAPA_PROFIL
 10
41.221965392955831
 20
69.649999993633969
 30
0.0
 42
-0.4244748162096643
  0
VERTEX
  5
1B16
  8
SAPA_PROFIL
 10
40.922148144850041
 20
69.960469842644727
 30
0.0
  0
VERTEX
  5
1B17
  8
SAPA_PROFIL
 10
41.478132373809892
 20
85.881775044450535
 30
0.0
 42
-0.4142135623730951
  0
VERTEX
  5
1B18
  8
SAPA_PROFIL
 10
41.788419470926378
 20
86.171122443545528
 30
0.0
  0
VERTEX
  5
1B19
  8
SAPA_PROFIL
 10
42.388053967137743
 20
86.150182745523963
 30
0.0
 42
0.6370702608075453
  0
VERTEX
  5
1B1A
  8
SAPA_PROFIL
 10
42.634927042230572
 20
86.634698436227438
 30
0.0
  0
VERTEX
  5
1B1B
  8
SAPA_PROFIL
 10
41.249191634928188
 20
88.408358875237752
 30
0.0
 42
0.7002075382097091
  0
VERTEX
  5
1B1C
  8
SAPA_PROFIL
 10
40.355490844615296
 20
88.117977885926109
 30
0.0
  0
VERTEX
  5
1B1D
  8
SAPA_PROFIL
 10
39.627130614063731
 20
67.260469842648206
 30
0.0
 42
0.4244748162048541
  0
VERTEX
  5
1B1E
  8
SAPA_PROFIL
 10
39.926947862164639
 20
66.949999993637434
 30
0.0
  0
VERTEX
  5
1B1F
  8
SAPA_PROFIL
 10
40.648523816022809
 20
66.949999993625795
 30
0.0
 42
0.4142135623740385
  0
VERTEX
  5
1B20
  8
SAPA_PROFIL
 10
40.948523816023958
 20
67.249999993626091
 30
0.0
  0
VERTEX
  5
1B21
  8
SAPA_PROFIL
 10
40.948523816023901
 20
68.149999993623112
 30
0.0
 42
-0.4142135623724291
  0
VERTEX
  5
1B22
  8
SAPA_PROFIL
 10
41.24852381602318
 20
68.449999993623067
 30
0.0
  0
VERTEX
  5
1B23
  8
SAPA_PROFIL
 10
46.198523816029308
 20
68.449999993634435
 30
0.0
 42
-0.4142135623740522
  0
VERTEX
  5
1B24
  8
SAPA_PROFIL
 10
46.698523816030438
 20
67.949999993633924
 30
0.0
  0
VERTEX
  5
1B25
  8
SAPA_PROFIL
 10
46.698523816029017
 20
66.449999993633298
 30
0.0
 42
0.4142135623729374
  0
VERTEX
  5
1B26
  8
SAPA_PROFIL
 10
47.198523816028278
 20
65.949999993632844
 30
0.0
  0
VERTEX
  5
1B27
  8
SAPA_PROFIL
 10
48.698523816028342
 20
65.949999993630684
 30
0.0
 42
0.4142135623731454
  0
VERTEX
  5
1B28
  8
SAPA_PROFIL
 10
49.198523816029081
 20
66.449999993630058
 30
0.0
  0
VERTEX
  5
1B29
  8
SAPA_PROFIL
 10
49.19852381603215
 20
68.849999996829013
 30
0.0
 42
0.414213562373503
  0
VERTEX
  5
1B2A
  8
SAPA_PROFIL
 10
48.698523816032093
 20
69.349999996829695
 30
0.0
  0
VERTEX
  5
1B2B
  8
SAPA_PROFIL
 10
48.198523816026288
 20
69.349999996829638
 30
0.0
 42
-0.414213562373547
  0
VERTEX
  5
1B2C
  8
SAPA_PROFIL
 10
47.198523816026231
 20
70.349999996831116
 30
0.0
  0
VERTEX
  5
1B2D
  8
SAPA_PROFIL
 10
47.198523816036932
 20
77.682050801194123
 30
0.0
 42
-0.1316524975870585
  0
VERTEX
  5
1B2E
  8
SAPA_PROFIL
 10
47.265511114144722
 20
77.932050801193441
 30
0.0
  0
SEQEND
  5
1B2F
  8
SAPA_PROFIL
  0
POLYLINE
  5
120F
  8
SAPA_PROFIL
 62
     4
 66
     1
 10
0.0
 20
0.0
 30
0.0
  0
VERTEX
  5
1B30
  8
SAPA_PROFIL
 62
     4
 10
71.795904721999875
 20
51.749329119175648
 30
0.0
 42
0.5571646428658034
  0
VERTEX
  5
1B31
  8
SAPA_PROFIL
 62
     4
 10
70.928185807844329
 20
51.212368615038827
 30
0.0
  0
VERTEX
  5
1B32
  8
SAPA_PROFIL
 62
     4
 10
70.928185807844784
 20
34.187631378517629
 30
0.0
 42
0.5571645048035741
  0
VERTEX
  5
1B33
  8
SAPA_PROFIL
 62
     4
 10
71.795904495710957
 20
33.650670761556569
 30
0.0
  0
VERTEX
  5
1B34
  8
SAPA_PROFIL
 62
     4
 10
73.46204515177898
 20
34.481377849103268
 30
0.0
 42
0.284385813979063
  0
VERTEX
  5
1B35
  8
SAPA_PROFIL
 62
     4
 10
73.628185807846421
 20
34.749858157583617
 30
0.0
  0
VERTEX
  5
1B36
  8
SAPA_PROFIL
 62
     4
 10
73.628185807846421
 20
50.650141835972931
 30
0.0
 42
0.2843858139786238
  0
VERTEX
  5
1B37
  8
SAPA_PROFIL
 62
     4
 10
73.462045151779492
 20
50.918622144453209
 30
0.0
  0
VERTEX
  5
1B38
  8
SAPA_PROFIL
 62
     4
 10
71.795904495710147
 20
51.749329232000377
 30
0.0
  0
SEQEND
  5
1B39
  8
SAPA_PROFIL
 62
     4
  0
POLYLINE
  5
1210
  8
SAPA_PROFIL
 62
     4
 66
     1
 10
0.0
 20
0.0
 30
0.0
 70
     1
  0
VERTEX
  5
1B3A
  8
SAPA_PROFIL
 62
     4
 10
73.985017322343992
 20
28.28238881211098
 30
0.0
  0
VERTEX
  5
1B3B
  8
SAPA_PROFIL
 62
     4
 10
74.391577518348114
 20
28.018365533734968
 30
0.0
 42
-0.2539676464751066
  0
VERTEX
  5
1B3C
  8
SAPA_PROFIL
 62
     4
 10
74.528185807844224
 20
27.766764363350259
 30
0.0
  0
VERTEX
  5
1B3D
  8
SAPA_PROFIL
 62
     4
 10
74.528185807844224
 20
26.385264778144919
 30
0.0
 42
-0.3152987888790479
  0
VERTEX
  5
1B3E
  8
SAPA_PROFIL
 62
     4
 10
74.199195879506078
 20
25.915418467752598
 30
0.0
  0
VERTEX
  5
1B3F
  8
SAPA_PROFIL
 62
     4
 10
71.738365689054802
 20
25.019749526843992
 30
0.0
 42
0.2694959974287434
  0
VERTEX
  5
1B40
  8
SAPA_PROFIL
 62
     4
 10
71.545233714710903
 20
24.788230480442639
 30
0.0
 42
0.0612686379508233
  0
VERTEX
  5
1B41
  8
SAPA_PROFIL
 62
     4
 10
71.53165034408039
 20
24.49555504758937
 30
0.0
  0
VERTEX
  5
1B42
  8
SAPA_PROFIL
 62
     4
 10
71.329913665351569
 20
24.146136870281101
 30
0.0
 42
0.5773502691891679
  0
VERTEX
  5
1B43
  8
SAPA_PROFIL
 62
     4
 10
71.511779000146134
 20
23.831136870281512
 30
0.0
  0
VERTEX
  5
1B44
  8
SAPA_PROFIL
 62
     4
 10
71.778893528272448
 20
23.83113687028127
 30
0.0
  0
VERTEX
  5
1B45
  8
SAPA_PROFIL
 62
     4
 10
72.587576989580768
 20
22.432609169647019
 30
0.0
 42
-0.1318219888653519
  0
VERTEX
  5
1B46
  8
SAPA_PROFIL
 62
     4
 10
72.627869386118164
 20
22.282436067174672
 30
0.0
  0
VERTEX
  5
1B47
  8
SAPA_PROFIL
 62
     4
 10
72.627869386111797
 20
22.099999996737889
 30
0.0
 42
-0.4142135623724291
  0
VERTEX
  5
1B48
  8
SAPA_PROFIL
 62
     4
 10
72.227869386112161
 20
21.69999999673735
 30
0.0
  0
VERTEX
  5
1B49
  8
SAPA_PROFIL
 62
     4
 10
68.827869386111161
 20
21.699999996738711
 30
0.0
 42
-0.4142135623744271
  0
VERTEX
  5
1B4A
  8
SAPA_PROFIL
 62
     4
 10
68.42786938611016
 20
22.099999996737889
 30
0.0
  0
VERTEX
  5
1B4B
  8
SAPA_PROFIL
 62
     4
 10
68.427869386109521
 20
22.2796152390092
 30
0.0
 42
-0.1316524975874005
  0
VERTEX
  5
1B4C
  8
SAPA_PROFIL
 62
     4
 10
68.468061764975118
 20
22.429615239006012
 30
0.0
  0
VERTEX
  5
1B4D
  8
SAPA_PROFIL
 62
     4
 10
69.394211211627649
 20
24.033753136008269
 30
0.0
 42
0.1316524975875904
  0
VERTEX
  5
1B4E
  8
SAPA_PROFIL
 62
     4
 10
69.528185807842419
 20
24.533753136009981
 30
0.0
  0
VERTEX
  5
1B4F
  8
SAPA_PROFIL
 62
     4
 10
69.528185807842419
 20
24.94999999673735
 30
0.0
 42
0.4142135623730951
  0
VERTEX
  5
1B50
  8
SAPA_PROFIL
 62
     4
 10
68.528185807842419
 20
25.94999999673735
 30
0.0
  0
VERTEX
  5
1B51
  8
SAPA_PROFIL
 62
     4
 10
65.528185807845134
 20
25.94999999673735
 30
0.0
 42
-0.9999996830128083
  0
VERTEX
  5
1B52
  8
SAPA_PROFIL
 62
     4
 10
65.528185807843315
 20
26.94999999673735
 30
0.0
  0
VERTEX
  5
1B53
  8
SAPA_PROFIL
 62
     4
 10
68.528185807843329
 20
26.94999999673735
 30
0.0
 42
0.4142135623730951
  0
VERTEX
  5
1B54
  8
SAPA_PROFIL
 62
     4
 10
69.528185807843329
 20
27.94999999673735
 30
0.0
  0
VERTEX
  5
1B55
  8
SAPA_PROFIL
 62
     4
 10
69.528185807843329
 20
57.449999996821923
 30
0.0
 42
0.4142135623730951
  0
VERTEX
  5
1B56
  8
SAPA_PROFIL
 62
     4
 10
68.528185807843329
 20
58.44999999682193
 30
0.0
  0
VERTEX
  5
1B57
  8
SAPA_PROFIL
 62
     4
 10
65.528185807845134
 20
58.44999999682193
 30
0.0
 42
-0.9999999999999998
  0
VERTEX
  5
1B58
  8
SAPA_PROFIL
 62
     4
 10
65.528185807845134
 20
59.44999999682193
 30
0.0
  0
VERTEX
  5
1B59
  8
SAPA_PROFIL
 62
     4
 10
68.528185807843329
 20
59.44999999682193
 30
0.0
 42
0.4142135623736278
  0
VERTEX
  5
1B5A
  8
SAPA_PROFIL
 62
     4
 10
69.528185807843329
 20
60.44999999682193
 30
0.0
  0
VERTEX
  5
1B5B
  8
SAPA_PROFIL
 62
     4
 10
69.528185807843329
 20
60.86624685754839
 30
0.0
 42
0.1316524975874375
  0
VERTEX
  5
1B5C
  8
SAPA_PROFIL
 62
     4
 10
69.394211211627294
 20
61.366246857548589
 30
0.0
  0
VERTEX
  5
1B5D
  8
SAPA_PROFIL
 62
     4
 10
68.468061764975118
 20
62.97038475455053
 30
0.0
 42
-0.1316524975874
  0
VERTEX
  5
1B5E
  8
SAPA_PROFIL
 62
     4
 10
68.427869386109521
 20
63.120384754550081
 30
0.0
  0
VERTEX
  5
1B5F
  8
SAPA_PROFIL
 62
     4
 10
68.42786938611016
 20
63.299999996821377
 30
0.0
 42
-0.4142135623744271
  0
VERTEX
  5
1B60
  8
SAPA_PROFIL
 62
     4
 10
68.827869386111161
 20
63.699999996820573
 30
0.0
  0
VERTEX
  5
1B61
  8
SAPA_PROFIL
 62
     4
 10
72.227869386112161
 20
63.699999996821923
 30
0.0
 42
-0.4142135623724291
  0
VERTEX
  5
1B62
  8
SAPA_PROFIL
 62
     4
 10
72.627869386111797
 20
63.299999996821377
 30
0.0
  0
VERTEX
  5
1B63
  8
SAPA_PROFIL
 62
     4
 10
72.627869386118164
 20
63.117563926384612
 30
0.0
 42
-0.1318219888653524
  0
VERTEX
  5
1B64
  8
SAPA_PROFIL
 62
     4
 10
72.587576989580768
 20
62.967390823912261
 30
0.0
  0
VERTEX
  5
1B65
  8
SAPA_PROFIL
 62
     4
 10
71.778893528356434
 20
61.5688631234326
 30
0.0
  0
VERTEX
  5
1B66
  8
SAPA_PROFIL
 62
     4
 10
71.511779000143406
 20
61.5688631234326
 30
0.0
 42
0.577350269189159
  0
VERTEX
  5
1B67
  8
SAPA_PROFIL
 62
     4
 10
71.329913665348826
 20
61.253863123433007
 30
0.0
  0
VERTEX
  5
1B68
  8
SAPA_PROFIL
 62
     4
 10
71.531650344025934
 20
60.904444946214348
 30
0.0
 42
0.0612687673629489
  0
VERTEX
  5
1B69
  8
SAPA_PROFIL
 62
     4
 10
71.545233714712126
 20
60.611769513114133
 30
0.0
 42
0.2694959974285039
  0
VERTEX
  5
1B6A
  8
SAPA_PROFIL
 62
     4
 10
71.738365689056096
 20
60.380250466713612
 30
0.0
  0
VERTEX
  5
1B6B
  8
SAPA_PROFIL
 62
     4
 10
74.199195879509261
 20
59.484581525803947
 30
0.0
 42
-0.3152987888784035
  0
VERTEX
  5
1B6C
  8
SAPA_PROFIL
 62
     4
 10
74.52818580784583
 20
59.014735215410717
 30
0.0
  0
VERTEX
  5
1B6D
  8
SAPA_PROFIL
 62
     4
 10
74.528185807844224
 20
57.633235630206279
 30
0.0
 42
-0.2539676464741841
  0
VERTEX
  5
1B6E
  8
SAPA_PROFIL
 62
     4
 10
74.391577518348967
 20
57.381634459822209
 30
0.0
  0
VERTEX
  5
1B6F
  8
SAPA_PROFIL
 62
     4
 10
73.985017322343992
 20
57.117611181445568
 30
0.0
 42
-0.5862177598324623
  0
VERTEX
  5
1B70
  8
SAPA_PROFIL
 62
     4
 10
73.528185807847478
 20
57.373352996683913
 30
0.0
  0
VERTEX
  5
1B71
  8
SAPA_PROFIL
 62
     4
 10
73.528185807855152
 20
58.31452767719373
 30
0.0
 42
0.3152987888813165
  0
VERTEX
  5
1B72
  8
SAPA_PROFIL
 62
     4
 10
73.199195879518399
 20
58.784373987591479
 30
0.0
  0
VERTEX
  5
1B73
  8
SAPA_PROFIL
 62
     4
 10
71.999195879507155
 20
59.221138268715443
 30
0.0
 42
0.5205670505515651
  0
VERTEX
  5
1B74
  8
SAPA_PROFIL
 62
     4
 10
71.32818580784442
 20
58.751291958322213
 30
0.0
  0
VERTEX
  5
1B75
  8
SAPA_PROFIL
 62
     4
 10
71.328185807844392
 20
53.734851017653362
 30
0.0
 42
0.3702522326300203
  0
VERTEX
  5
1B76
  8
SAPA_PROFIL
 62
     4
 10
71.582645760510104
 20
53.438327655860043
 30
0.0
 42
0.0982365330332397
  0
VERTEX
  5
1B77
  8
SAPA_PROFIL
 62
     4
 10
73.270332535505105
 20
53.347874897649092
 30
0.0
 42
0.3735060174783164
  0
VERTEX
  5
1B78
  8
SAPA_PROFIL
 62
     4
 10
73.528185807845134
 20
53.644899565560067
 30
0.0
  0
VERTEX
  5
1B79
  8
SAPA_PROFIL
 62
     4
 10
73.528185807846057
 20
54.073352996682729
 30
0.0
 42
-0.5920056181162531
  0
VERTEX
  5
1B7A
  8
SAPA_PROFIL
 62
     4
 10
73.98938931037398
 20
54.326361753000128
 30
0.0
  0
VERTEX
  5
1B7B
  8
SAPA_PROFIL
 62
     4
 10
74.391577518352278
 20
54.065177676844428
 30
0.0
 42
-0.2539676464746725
  0
VERTEX
  5
1B7C
  8
SAPA_PROFIL
 62
     4
 10
74.528185807847635
 20
53.813576506460663
 30
0.0
  0
VERTEX
  5
1B7D
  8
SAPA_PROFIL
 62
     4
 10
74.528185807846043
 20
31.586423487094979
 30
0.0
 42
-0.2539676464741819
  0
VERTEX
  5
1B7E
  8
SAPA_PROFIL
 62
     4
 10
74.391577518352278
 20
31.33482231671212
 30
0.0
  0
VERTEX
  5
1B7F
  8
SAPA_PROFIL
 62
     4
 10
73.989389310373937
 20
31.07363824055831
 30
0.0
 42
-0.5920055144124249
  0
VERTEX
  5
1B80
  8
SAPA_PROFIL
 62
     4
 10
73.528185807846057
 20
31.326646996873819
 30
0.0
  0
VERTEX
  5
1B81
  8
SAPA_PROFIL
 62
     4
 10
73.528185833121057
 20
31.755100474164038
 30
0.0
 42
0.3735060174775405
  0
VERTEX
  5
1B82
  8
SAPA_PROFIL
 62
     4
 10
73.270332560780972
 20
32.052125142073727
 30
0.0
 42
0.0355900683670349
  0
VERTEX
  5
1B83
  8
SAPA_PROFIL
 62
     4
 10
72.654458973981193
 20
32.09601870610598
 30
0.0
 42
0.0624282003873116
  0
VERTEX
  5
1B84
  8
SAPA_PROFIL
 62
     4
 10
71.582645785786056
 20
31.961672383863039
 30
0.0
 42
0.3702522326309292
  0
VERTEX
  5
1B85
  8
SAPA_PROFIL
 62
     4
 10
71.32818583312033
 20
31.665149022069659
 30
0.0
  0
VERTEX
  5
1B86
  8
SAPA_PROFIL
 62
     4
 10
71.328185807844193
 20
26.648708035236162
 30
0.0
 42
0.5205670505515692
  0
VERTEX
  5
1B87
  8
SAPA_PROFIL
 62
     4
 10
71.999195879507155
 20
26.178861724842928
 30
0.0
  0
VERTEX
  5
1B88
  8
SAPA_PROFIL
 62
     4
 10
73.199195879516608
 20
26.615626005967879
 30
0.0
 42
0.3152987888807539
  0
VERTEX
  5
1B89
  8
SAPA_PROFIL
 62
     4
 10
73.528185807854243
 20
27.085472316363731
 30
0.0
  0
VERTEX
  5
1B8A
  8
SAPA_PROFIL
 62
     4
 10
73.528185807847422
 20
28.02664699687282
 30
0.0
 42
-0.5862175119221242
  0
VERTEX
  5
1B8B
  8
SAPA_PROFIL
 62
     4
 10
73.985017133602554
 20
28.282388927854779
 30
0.0
 42
0.0000002084758573
  0
SEQEND
  5
1B8C
  8
SAPA_PROFIL
 62
     4
  0
POLYLINE
  5
1211
  8
SAPA_PROFIL
 66
     1
 10
0.0
 20
0.0
 30
0.0
 70
     1
  0
VERTEX
  5
1B8D
  8
SAPA_PROFIL
 10
71.360845914839501
 20
24.14540082478295
 30
0.0
 42
0.5773502691897539
  0
VERTEX
  5
1B8E
  8
SAPA_PROFIL
 10
71.54379965494968
 20
23.85124452452823
 30
0.0
  0
VERTEX
  5
1B8F
  8
SAPA_PROFIL
 10
71.865557383167925
 20
23.8618058907552
 30
0.0
  0
VERTEX
  5
1B90
  8
SAPA_PROFIL
 10
72.950121830139665
 20
21.975962198894091
 30
0.0
  0
VERTEX
  5
1B91
  8
SAPA_PROFIL
 10
73.008195467128701
 20
21.784579198900371
 30
0.0
 42
-0.7625858545243252
  0
VERTEX
  5
1B92
  8
SAPA_PROFIL
 10
72.677869386111752
 20
21.599999996702881
 30
0.0
 42
0.2134217652834343
  0
VERTEX
  5
1B93
  8
SAPA_PROFIL
 10
72.454262588361644
 20
21.699999996703021
 30
0.0
  0
VERTEX
  5
1B94
  8
SAPA_PROFIL
 10
68.601476183861678
 20
21.699999996773052
 30
0.0
 42
-0.4142135623730951
  0
VERTEX
  5
1B95
  8
SAPA_PROFIL
 10
68.301476183861723
 20
21.999999996772999
 30
0.0
  0
VERTEX
  5
1B96
  8
SAPA_PROFIL
 10
68.301476183861723
 20
22.299999996772961
 30
0.0
  0
VERTEX
  5
1B97
  8
SAPA_PROFIL
 10
69.225236614571713
 20
23.899999996773101
 30
0.0
 42
0.5773502691868622
  0
VERTEX
  5
1B98
  8
SAPA_PROFIL
 10
69.052031533811714
 20
24.199999996773052
 30
0.0
  0
VERTEX
  5
1B99
  8
SAPA_PROFIL
 10
67.666390887751731
 20
24.19999999676919
 30
0.0
 42
0.2679491924305262
  0
VERTEX
  5
1B9A
  8
SAPA_PROFIL
 10
66.800365483971746
 20
23.699999996773052
 30
0.0
  0
VERTEX
  5
1B9B
  8
SAPA_PROFIL
 10
65.790808659991626
 20
21.950135163743091
 30
0.0
 42
-0.268032828299991
  0
VERTEX
  5
1B9C
  8
SAPA_PROFIL
 10
65.357717947501101
 20
21.69999999668801
 30
0.0
  0
VERTEX
  5
1B9D
  8
SAPA_PROFIL
 10
54.044326236891372
 20
21.699999996703021
 30
0.0
 42
-0.26803282829961
  0
VERTEX
  5
1B9E
  8
SAPA_PROFIL
 10
53.611235524401408
 20
21.950135163743081
 30
0.0
  0
VERTEX
  5
1B9F
  8
SAPA_PROFIL
 10
52.601678700424593
 20
23.699999996775091
 30
0.0
 42
0.267949192430527
  0
VERTEX
  5
1BA0
  8
SAPA_PROFIL
 10
51.73565329664131
 20
24.199999996773052
 30
0.0
  0
VERTEX
  5
1BA1
  8
SAPA_PROFIL
 10
50.350012650581327
 20
24.19999999677577
 30
0.0
 42
0.5773502691868419
  0
VERTEX
  5
1BA2
  8
SAPA_PROFIL
 10
50.176807569821328
 20
23.89999999677309
 30
0.0
  0
VERTEX
  5
1BA3
  8
SAPA_PROFIL
 10
51.100568000531318
 20
22.29999999677295
 30
0.0
  0
VERTEX
  5
1BA4
  8
SAPA_PROFIL
 10
51.100568000531318
 20
21.999999996772999
 30
0.0
 42
-0.4142135623730951
  0
VERTEX
  5
1BA5
  8
SAPA_PROFIL
 10
50.800568000531356
 20
21.699999996773052
 30
0.0
  0
VERTEX
  5
1BA6
  8
SAPA_PROFIL
 10
46.94778159603139
 20
21.699999996773268
 30
0.0
 42
0.2134217652834343
  0
VERTEX
  5
1BA7
  8
SAPA_PROFIL
 10
46.72417479828129
 20
21.599999996773139
 30
0.0
 42
-0.7625858545243255
  0
VERTEX
  5
1BA8
  8
SAPA_PROFIL
 10
46.393848717264277
 20
21.784579198970619
 30
0.0
  0
VERTEX
  5
1BA9
  8
SAPA_PROFIL
 10
46.451922354253369
 20
21.975962198964339
 30
0.0
  0
VERTEX
  5
1BAA
  8
SAPA_PROFIL
 10
47.536486801225116
 20
23.861805890825451
 30
0.0
  0
VERTEX
  5
1BAB
  8
SAPA_PROFIL
 10
47.858244529443361
 20
23.851244524598371
 30
0.0
 42
0.5773502691897534
  0
VERTEX
  5
1BAC
  8
SAPA_PROFIL
 10
48.04119826955354
 20
24.145400824853311
 30
0.0
  0
VERTEX
  5
1BAD
  8
SAPA_PROFIL
 10
47.88906435844477
 20
24.43008310808494
 30
0.0
 42
0.2216946626430088
  0
VERTEX
  5
1BAE
  8
SAPA_PROFIL
 10
47.348184526967977
 20
24.83589201323975
 30
0.0
  0
VERTEX
  5
1BAF
  8
SAPA_PROFIL
 10
45.534954056309729
 20
25.217338609367459
 30
0.0
 42
0.476975532698165
  0
VERTEX
  5
1BB0
  8
SAPA_PROFIL
 10
45.163297181363859
 20
24.915085784860992
 30
0.0
  0
VERTEX
  5
1BB1
  8
SAPA_PROFIL
 10
45.163380789247519
 20
23.41198470409898
 30
0.0
  0
VERTEX
  5
1BB2
  8
SAPA_PROFIL
 10
45.211226539245999
 20
23.397466294851881
 30
0.0
 42
-0.4142135623731108
  0
VERTEX
  5
1BB3
  8
SAPA_PROFIL
 10
45.411190583753402
 20
23.023281339376069
 30
0.0
  0
VERTEX
  5
1BB4
  8
SAPA_PROFIL
 10
44.899999999971428
 20
21.70069481212067
 30
0.0
  0
VERTEX
  5
1BB5
  8
SAPA_PROFIL
 10
44.89999999997189
 20
18.687515663167119
 30
0.0
 42
0.2596812337296443
  0
VERTEX
  5
1BB6
  8
SAPA_PROFIL
 10
44.9946931952204
 20
18.517484851628069
 30
0.0
  0
VERTEX
  5
1BB7
  8
SAPA_PROFIL
 10
46.242039792845951
 20
17.74495378256097
 30
0.0
 42
0.5877032589250569
  0
VERTEX
  5
1BB8
  8
SAPA_PROFIL
 10
46.699999999972412
 20
17.999999999870059
 30
0.0
  0
VERTEX
  5
1BB9
  8
SAPA_PROFIL
 10
46.69999999997048
 20
19.399999999869578
 30
0.0
 42
-0.414213562373428
  0
VERTEX
  5
1BBA
  8
SAPA_PROFIL
 10
46.999999999970314
 20
19.699999999870101
 30
0.0
  0
VERTEX
  5
1BBB
  8
SAPA_PROFIL
 10
49.399999999970873
 20
19.69999999987397
 30
0.0
 42
-0.4142135623732061
  0
VERTEX
  5
1BBC
  8
SAPA_PROFIL
 10
49.699999999971382
 20
19.399999999874471
 30
0.0
  0
VERTEX
  5
1BBD
  8
SAPA_PROFIL
 10
49.699999999992308
 20
1.9999999998739231
 30
0.0
 42
-0.4142135623722071
  0
VERTEX
  5
1BBE
  8
SAPA_PROFIL
 10
49.399999999995323
 20
1.6999999998739681
 30
0.0
  0
VERTEX
  5
1BBF
  8
SAPA_PROFIL
 10
46.999999999996469
 20
1.6999999999400199
 30
0.0
 42
-0.4142135623730951
  0
VERTEX
  5
1BC0
  8
SAPA_PROFIL
 10
46.699999999998333
 20
1.999999999942021
 30
0.0
  0
VERTEX
  5
1BC1
  8
SAPA_PROFIL
 10
46.700000000003342
 20
3.3999999999420001
 30
0.0
 42
0.5877032589240117
  0
VERTEX
  5
1BC2
  8
SAPA_PROFIL
 10
46.242039792877343
 20
3.6550462172540419
 30
0.0
  0
VERTEX
  5
1BC3
  8
SAPA_PROFIL
 10
44.794693195249231
 20
2.7586472400172388
 30
0.0
 42
0.259681233730399
  0
VERTEX
  5
1BC4
  8
SAPA_PROFIL
 10
44.700000000001403
 20
2.5886164284780762
 30
0.0
  0
VERTEX
  5
1BC5
  8
SAPA_PROFIL
 10
44.699999999999299
 20
2.199999999937404
 30
0.0
 42
-0.4142135623715633
  0
VERTEX
  5
1BC6
  8
SAPA_PROFIL
 10
44.199999999999299
 20
1.6999999999400199
 30
0.0
  0
VERTEX
  5
1BC7
  8
SAPA_PROFIL
 10
19.400000000381961
 20
1.699999999939958
 30
0.0
 42
-0.4142135623739942
  0
VERTEX
  5
1BC8
  8
SAPA_PROFIL
 10
18.900000000381961
 20
2.1999999999414932
 30
0.0
  0
VERTEX
  5
1BC9
  8
SAPA_PROFIL
 10
18.900000000387418
 20
4.000570444239993
 30
0.0
 42
0.4241420668422755
  0
VERTEX
  5
1BCA
  8
SAPA_PROFIL
 10
17.866227766509379
 20
4.9999999996514317
 30
0.0
 42
0.2988658713647619
  0
VERTEX
  5
1BCB
  8
SAPA_PROFIL
 10
16.928947629550059
 20
4.4291418728836289
 30
0.0
 42
0.5507604245873982
  0
VERTEX
  5
1BCC
  8
SAPA_PROFIL
 10
17.200000000395331
 20
4.000570444288992
 30
0.0
  0
VERTEX
  5
1BCD
  8
SAPA_PROFIL
 10
17.500000000387441
 20
4.0005704442700072
 30
0.0
 42
-0.4142135623702647
  0
VERTEX
  5
1BCE
  8
SAPA_PROFIL
 10
17.700000000375319
 20
3.80057044425791
 30
0.0
  0
VERTEX
  5
1BCF
  8
SAPA_PROFIL
 10
17.700000000357239
 20
3.5005704441410859
 30
0.0
 42
-0.4142135623563536
  0
VERTEX
  5
1BD0
  8
SAPA_PROFIL
 10
15.90000000035433
 20
1.700570444246972
 30
0.0
  0
VERTEX
  5
1BD1
  8
SAPA_PROFIL
 10
15.20000000013828
 20
1.7005704442489049
 30
0.0
 42
-0.4142135623558171
  0
VERTEX
  5
1BD2
  8
SAPA_PROFIL
 10
13.40000000014037
 20
3.5005704441460841
 30
0.0
  0
VERTEX
  5
1BD3
  8
SAPA_PROFIL
 10
13.400000000124351
 20
3.800570444264046
 30
0.0
 42
-0.4142135623717631
  0
VERTEX
  5
1BD4
  8
SAPA_PROFIL
 10
13.60000000011132
 20
4.000570444276029
 30
0.0
  0
VERTEX
  5
1BD5
  8
SAPA_PROFIL
 10
13.900000000101381
 20
4.0005704442937642
 30
0.0
 42
0.5507604245839719
  0
VERTEX
  5
1BD6
  8
SAPA_PROFIL
 10
14.17105237094847
 20
4.4291418728801046
 30
0.0
 42
0.2988658713671755
  0
VERTEX
  5
1BD7
  8
SAPA_PROFIL
 10
13.2337722339904
 20
4.9999999996579092
 30
0.0
 42
0.4241420668413794
  0
VERTEX
  5
1BD8
  8
SAPA_PROFIL
 10
12.20000000011134
 20
4.0005704442489707
 30
0.0
  0
VERTEX
  5
1BD9
  8
SAPA_PROFIL
 10
12.200000000112141
 20
1.899999999994912
 30
0.0
 42
-0.414213562373195
  0
VERTEX
  5
1BDA
  8
SAPA_PROFIL
 10
11.700000000112141
 20
1.3999999999947419
 30
0.0
  0
VERTEX
  5
1BDB
  8
SAPA_PROFIL
 10
1.182842712469607
 20
1.3999999999949659
 30
0.0
 42
0.198912367379658
  0
VERTEX
  5
1BDC
  8
SAPA_PROFIL
 10
0.829289321876331
 20
1.2535533905882419
 30
0.0
  0
VERTEX
  5
1BDD
  8
SAPA_PROFIL
 10
-0.2121320343560455
 20
0.2121320343560367
 30
0.0
 42
0.6681786379192989
  0
VERTEX
  5
1BDE
  8
SAPA_PROFIL
 10
0.0
 20
-0.3000000000000771
 30
0.0
  0
VERTEX
  5
1BDF
  8
SAPA_PROFIL
 10
96.199999999964348
 20
-0.3000000000789544
 30
0.0
 42
0.4142135623567124
  0
VERTEX
  5
1BE0
  8
SAPA_PROFIL
 10
96.699999999964334
 20
0.1999999998930786
 30
0.0
  0
VERTEX
  5
1BE1
  8
SAPA_PROFIL
 10
96.700000000171386
 20
3.8999999999050621
 30
0.0
 42
0.414213562390632
  0
VERTEX
  5
1BE2
  8
SAPA_PROFIL
 10
96.40000000017028
 20
4.1999999999210473
 30
0.0
  0
VERTEX
  5
1BE3
  8
SAPA_PROFIL
 10
95.632455532143354
 20
4.199999999920137
 30
0.0
 42
0.2896898632850871
  0
VERTEX
  5
1BE4
  8
SAPA_PROFIL
 10
94.728947629266372
 20
3.6285714285489941
 30
0.0
 42
0.5507604245891342
  0
VERTEX
  5
1BE5
  8
SAPA_PROFIL
 10
95.000000000113346
 20
3.1999999999610651
 30
0.0
  0
VERTEX
  5
1BE6
  8
SAPA_PROFIL
 10
95.200000000135333
 20
3.1999999999490139
 30
0.0
 42
-0.4142135623672125
  0
VERTEX
  5
1BE7
  8
SAPA_PROFIL
 10
95.500000000118476
 20
2.8999999999380321
 30
0.0
  0
VERTEX
  5
1BE8
  8
SAPA_PROFIL
 10
95.500000000061391
 20
1.399999998758074
 30
0.0
 42
-0.4142135623613076
  0
VERTEX
  5
1BE9
  8
SAPA_PROFIL
 10
95.000000000052424
 20
0.8999999987670559
 30
0.0
  0
VERTEX
  5
1BEA
  8
SAPA_PROFIL
 10
91.700000000061308
 20
0.8999999987620537
 30
0.0
 42
-0.414213562384816
  0
VERTEX
  5
1BEB
  8
SAPA_PROFIL
 10
91.200000000060413
 20
1.399999998781039
 30
0.0
  0
VERTEX
  5
1BEC
  8
SAPA_PROFIL
 10
91.200000000118393
 20
2.900000000170972
 30
0.0
 42
-0.4142135623779789
  0
VERTEX
  5
1BED
  8
SAPA_PROFIL
 10
91.500000000135387
 20
3.2000000001589899
 30
0.0
  0
VERTEX
  5
1BEE
  8
SAPA_PROFIL
 10
91.700000000112368
 20
3.200000000148076
 30
0.0
 42
0.5507604245847541
  0
VERTEX
  5
1BEF
  8
SAPA_PROFIL
 10
91.971052371010387
 20
3.628571428702013
 30
0.0
 42
0.2896898633203854
  0
VERTEX
  5
1BF0
  8
SAPA_PROFIL
 10
91.067544468075312
 20
4.2000000001870701
 30
0.0
  0
VERTEX
  5
1BF1
  8
SAPA_PROFIL
 10
90.070072656011348
 20
4.2000000001870701
 30
0.0
 42
0.0436609429083866
  0
VERTEX
  5
1BF2
  8
SAPA_PROFIL
 10
89.983248567178407
 20
4.1924038766930032
 30
0.0
  0
VERTEX
  5
1BF3
  8
SAPA_PROFIL
 10
88.413175911194344
 20
3.9155577057680482
 30
0.0
 42
0.8390996311771717
  0
VERTEX
  5
1BF4
  8
SAPA_PROFIL
 10
88.413175911195367
 20
2.9307499527560701
 30
0.0
  0
VERTEX
  5
1BF5
  8
SAPA_PROFIL
 10
89.586824088862386
 20
2.7238041131751158
 30
0.0
 42
-0.3639702342665017
  0
VERTEX
  5
1BF6
  8
SAPA_PROFIL
 10
90.000000000030013
 20
2.231400236670094
 30
0.0
  0
VERTEX
  5
1BF7
  8
SAPA_PROFIL
 10
90.000000000031378
 20
1.399999998760121
 30
0.0
 42
-0.4373282586277949
  0
VERTEX
  5
1BF8
  8
SAPA_PROFIL
 10
89.460905542709384
 20
0.9015307184551026
 30
0.0
  0
VERTEX
  5
1BF9
  8
SAPA_PROFIL
 10
74.987846721318419
 20
1.4883294814579899
 30
0.0
 42
-0.4023941304319243
  0
VERTEX
  5
1BFA
  8
SAPA_PROFIL
 10
74.699999999993338
 20
1.7880832100710311
 30
0.0
  0
VERTEX
  5
1BFB
  8
SAPA_PROFIL
 10
74.699999999993338
 20
2.5886164284360191
 30
0.0
 42
0.2596812337287306
  0
VERTEX
  5
1BFC
  8
SAPA_PROFIL
 10
74.605306804745396
 20
2.7586472399760922
 30
0.0
  0
VERTEX
  5
1BFD
  8
SAPA_PROFIL
 10
73.157960207119345
 20
3.655046217216074
 30
0.0
 42
0.5877032589232099
  0
VERTEX
  5
1BFE
  8
SAPA_PROFIL
 10
72.699999999993452
 20
3.399999999906079
 30
0.0
  0
VERTEX
  5
1BFF
  8
SAPA_PROFIL
 10
72.699999999994361
 20
1.9999999999059881
 30
0.0
 42
-0.414213562372984
  0
VERTEX
  5
1C00
  8
SAPA_PROFIL
 10
72.39999999999543
 20
1.6999999999051241
 30
0.0
  0
VERTEX
  5
1C01
  8
SAPA_PROFIL
 10
69.999999999994316
 20
1.6999999999020541
 30
0.0
 42
-0.4142135623720961
  0
VERTEX
  5
1C02
  8
SAPA_PROFIL
 10
69.699999999995271
 20
1.9999999999021221
 30
0.0
  0
VERTEX
  5
1C03
  8
SAPA_PROFIL
 10
69.699999999981401
 20
11.599999999901121
 30
0.0
 42
-0.414213562373983
  0
VERTEX
  5
1C04
  8
SAPA_PROFIL
 10
69.999999999981355
 20
11.899999999901979
 30
0.0
  0
VERTEX
  5
1C05
  8
SAPA_PROFIL
 10
74.399999999980423
 20
11.89999999990812
 30
0.0
 42
0.4142135623732059
  0
VERTEX
  5
1C06
  8
SAPA_PROFIL
 10
74.699999999981401
 20
12.19999999990808
 30
0.0
  0
VERTEX
  5
1C07
  8
SAPA_PROFIL
 10
74.699999999978331
 20
13.684088065261109
 30
0.0
 42
0.2596812337310292
  0
VERTEX
  5
1C08
  8
SAPA_PROFIL
 10
74.605306804729366
 20
13.854118876801071
 30
0.0
  0
VERTEX
  5
1C09
  8
SAPA_PROFIL
 10
73.957960207105316
 20
14.255046221352019
 30
0.0
 42
0.587703258924552
  0
VERTEX
  5
1C0A
  8
SAPA_PROFIL
 10
73.499999999978456
 20
14.000000004042031
 30
0.0
  0
VERTEX
  5
1C0B
  8
SAPA_PROFIL
 10
73.4999999999784
 20
13.599999999906119
 30
0.0
 42
-0.4142135623722071
  0
VERTEX
  5
1C0C
  8
SAPA_PROFIL
 10
73.199999999979354
 20
13.299999999905941
 30
0.0
  0
VERTEX
  5
1C0D
  8
SAPA_PROFIL
 10
69.999999999979423
 20
13.299999999902081
 30
0.0
 42
-0.4142135623733725
  0
VERTEX
  5
1C0E
  8
SAPA_PROFIL
 10
69.699999999978502
 20
13.59999999990101
 30
0.0
  0
VERTEX
  5
1C0F
  8
SAPA_PROFIL
 10
69.699999999970373
 20
19.399999999900619
 30
0.0
 42
-0.4142135623730948
  0
VERTEX
  5
1C10
  8
SAPA_PROFIL
 10
69.999999999969873
 20
19.699999999901031
 30
0.0
  0
VERTEX
  5
1C11
  8
SAPA_PROFIL
 10
72.399999999970419
 20
19.699999999905121
 30
0.0
 42
-0.4142135623726511
  0
VERTEX
  5
1C12
  8
SAPA_PROFIL
 10
72.699999999970373
 20
19.399999999905621
 30
0.0
  0
VERTEX
  5
1C13
  8
SAPA_PROFIL
 10
72.69999999997242
 20
17.999999999905992
 30
0.0
 42
0.5877032589253235
  0
VERTEX
  5
1C14
  8
SAPA_PROFIL
 10
73.157960207100359
 20
17.744953782596099
 30
0.0
  0
VERTEX
  5
1C15
  8
SAPA_PROFIL
 10
74.405306804723409
 20
18.517484851667071
 30
0.0
 42
0.2596812337293086
  0
VERTEX
  5
1C16
  8
SAPA_PROFIL
 10
74.499999999972431
 20
18.68751566320703
 30
0.0
  0
VERTEX
  5
1C17
  8
SAPA_PROFIL
 10
74.499999999956742
 20
21.705983663054671
 30
0.0
  0
VERTEX
  5
1C18
  8
SAPA_PROFIL
 10
73.990853600639625
 20
23.023281339305822
 30
0.0
 42
-0.4142135623730953
  0
VERTEX
  5
1C19
  8
SAPA_PROFIL
 10
74.190817645147035
 20
23.39746629478163
 30
0.0
  0
VERTEX
  5
1C1A
  8
SAPA_PROFIL
 10
74.238663395145522
 20
23.411984704028729
 30
0.0
  0
VERTEX
  5
1C1B
  8
SAPA_PROFIL
 10
74.238747003029118
 20
24.91508578479074
 30
0.0
 42
0.4769755326981653
  0
VERTEX
  5
1C1C
  8
SAPA_PROFIL
 10
73.867090128083305
 20
25.217338609297212
 30
0.0
  0
VERTEX
  5
1C1D
  8
SAPA_PROFIL
 10
72.053859657425051
 20
24.835892013169492
 30
0.0
 42
0.2216946626430223
  0
VERTEX
  5
1C1E
  8
SAPA_PROFIL
 10
71.512979825948264
 20
24.430083108014689
 30
0.0
  0
SEQEND
  5
1C1F
  8
SAPA_PROFIL
  0
POLYLINE
  5
1212
  8
SAPA_PROFIL
 66
     1
 10
0.0
 20
0.0
 30
0.0
 70
     1
  0
VERTEX
  5
1C20
  8
SAPA_PROFIL
 10
51.699999999970359
 20
19.999999996684998
 30
0.0
  0
VERTEX
  5
1C21
  8
SAPA_PROFIL
 10
53.299999999969359
 20
19.999999996687048
 30
0.0
 42
-0.4142135623730951
  0
VERTEX
  5
1C22
  8
SAPA_PROFIL
 10
53.499999999970321
 20
19.799999996686999
 30
0.0
  0
VERTEX
  5
1C23
  8
SAPA_PROFIL
 10
53.499999999969297
 20
19.599999996686961
 30
0.0
 42
0.4142135623715967
  0
VERTEX
  5
1C24
  8
SAPA_PROFIL
 10
53.699999999970373
 20
19.399999996687029
 30
0.0
  0
VERTEX
  5
1C25
  8
SAPA_PROFIL
 10
55.299999999970389
 20
19.399999996690099
 30
0.0
 42
0.4142135623730951
  0
VERTEX
  5
1C26
  8
SAPA_PROFIL
 10
55.499999999970321
 20
19.599999996690041
 30
0.0
  0
VERTEX
  5
1C27
  8
SAPA_PROFIL
 10
55.499999999970321
 20
19.799999996689969
 30
0.0
 42
-0.4142135623730951
  0
VERTEX
  5
1C28
  8
SAPA_PROFIL
 10
55.699999999970373
 20
19.999999996690011
 30
0.0
  0
VERTEX
  5
1C29
  8
SAPA_PROFIL
 10
63.699999999970373
 20
19.999999996700929
 30
0.0
 42
-0.4142135623730951
  0
VERTEX
  5
1C2A
  8
SAPA_PROFIL
 10
63.899999999969388
 20
19.799999996701111
 30
0.0
  0
VERTEX
  5
1C2B
  8
SAPA_PROFIL
 10
63.899999999971321
 20
19.599999996701062
 30
0.0
 42
0.4142135623730951
  0
VERTEX
  5
1C2C
  8
SAPA_PROFIL
 10
64.09999999997035
 20
19.399999996702039
 30
0.0
  0
VERTEX
  5
1C2D
  8
SAPA_PROFIL
 10
65.699999999970373
 20
19.399999996703968
 30
0.0
 42
0.4142135623730951
  0
VERTEX
  5
1C2E
  8
SAPA_PROFIL
 10
65.899999999970419
 20
19.599999996704021
 30
0.0
  0
VERTEX
  5
1C2F
  8
SAPA_PROFIL
 10
65.899999999969282
 20
19.79999999670407
 30
0.0
 42
-0.4142135623730951
  0
VERTEX
  5
1C30
  8
SAPA_PROFIL
 10
66.099999999969327
 20
19.999999996704108
 30
0.0
  0
VERTEX
  5
1C31
  8
SAPA_PROFIL
 10
67.699999999970373
 20
19.999999996707071
 30
0.0
 42
-0.4142135623730951
  0
VERTEX
  5
1C32
  8
SAPA_PROFIL
 10
67.999999999970328
 20
19.69999999670711
 30
0.0
  0
VERTEX
  5
1C33
  8
SAPA_PROFIL
 10
67.999999999994316
 20
1.6999999967071131
 30
0.0
 42
-0.4142135624873408
  0
VERTEX
  5
1C34
  8
SAPA_PROFIL
 10
67.699999999877377
 20
1.3999999967071579
 30
0.0
  0
VERTEX
  5
1C35
  8
SAPA_PROFIL
 10
66.099999999916349
 20
1.3999999973310719
 30
0.0
 42
-0.4142135622558857
  0
VERTEX
  5
1C36
  8
SAPA_PROFIL
 10
65.899999999995316
 20
1.5999999973299781
 30
0.0
  0
VERTEX
  5
1C37
  8
SAPA_PROFIL
 10
65.899999999994407
 20
1.799999997492028
 30
0.0
 42
0.414213562251557
  0
VERTEX
  5
1C38
  8
SAPA_PROFIL
 10
65.700000000077353
 20
1.9999999974910501
 30
0.0
  0
VERTEX
  5
1C39
  8
SAPA_PROFIL
 10
64.10000000007733
 20
1.9999999981530481
 30
0.0
 42
0.4142135624946331
  0
VERTEX
  5
1C3A
  8
SAPA_PROFIL
 10
63.899999999994293
 20
1.7999999981519801
 30
0.0
  0
VERTEX
  5
1C3B
  8
SAPA_PROFIL
 10
63.899999999995309
 20
1.5999999965770311
 30
0.0
 42
-0.4142135623730951
  0
VERTEX
  5
1C3C
  8
SAPA_PROFIL
 10
63.699999999995391
 20
1.3999999965770991
 30
0.0
  0
VERTEX
  5
1C3D
  8
SAPA_PROFIL
 10
55.699999999995377
 20
1.399999996566069
 30
0.0
 42
-0.41421356237163
  0
VERTEX
  5
1C3E
  8
SAPA_PROFIL
 10
55.499999999995453
 20
1.599999996565092
 30
0.0
  0
VERTEX
  5
1C3F
  8
SAPA_PROFIL
 10
55.499999999994323
 20
1.7999999981410639
 30
0.0
 42
0.4142135624946331
  0
VERTEX
  5
1C40
  8
SAPA_PROFIL
 10
55.299999999911392
 20
1.9999999981411101
 30
0.0
  0
VERTEX
  5
1C41
  8
SAPA_PROFIL
 10
53.699999999911363
 20
1.9999999974751319
 30
0.0
 42
0.4142135622515237
  0
VERTEX
  5
1C42
  8
SAPA_PROFIL
 10
53.499999999994323
 20
1.7999999974750871
 30
0.0
  0
VERTEX
  5
1C43
  8
SAPA_PROFIL
 10
53.499999999994323
 20
1.5999999973140611
 30
0.0
 42
-0.4142135622574175
  0
VERTEX
  5
1C44
  8
SAPA_PROFIL
 10
53.300000000073389
 20
1.3999999973140149
 30
0.0
  0
VERTEX
  5
1C45
  8
SAPA_PROFIL
 10
51.700000000112368
 20
1.3999999966851
 30
0.0
 42
-0.4142135624873075
  0
VERTEX
  5
1C46
  8
SAPA_PROFIL
 10
51.399999999996453
 20
1.6999999966840309
 30
0.0
  0
VERTEX
  5
1C47
  8
SAPA_PROFIL
 10
51.399999999970412
 20
19.699999996684021
 30
0.0
 42
-0.414213562374094
  0
SEQEND
  5
1C48
  8
SAPA_PROFIL
  0
POLYLINE
  5
1213
  8
SAPA_PROFIL
 66
     1
 10
0.0
 20
0.0
 30
0.0
 70
     1
  0
VERTEX
  5
1C49
  8
SAPA_PROFIL
 10
65.355513627245386
 20
63.699999996637068
 30
0.0
 42
-0.267949192431007
  0
VERTEX
  5
1C4A
  8
SAPA_PROFIL
 10
65.788526329137426
 20
63.449999996637061
 30
0.0
  0
VERTEX
  5
1C4B
  8
SAPA_PROFIL
 10
66.798889300219443
 20
61.699999996636613
 30
0.0
 42
0.2679491924311281
  0
VERTEX
  5
1C4C
  8
SAPA_PROFIL
 10
67.664914704003991
 20
61.19999999663662
 30
0.0
  0
VERTEX
  5
1C4D
  8
SAPA_PROFIL
 10
69.050555350058971
 20
61.199999996636841
 30
0.0
 42
0.57735026918954
  0
VERTEX
  5
1C4E
  8
SAPA_PROFIL
 10
69.223760430815787
 20
61.499999996636802
 30
0.0
  0
VERTEX
  5
1C4F
  8
SAPA_PROFIL
 10
68.300000000112618
 20
63.099999996636477
 30
0.0
  0
VERTEX
  5
1C50
  8
SAPA_PROFIL
 10
68.300000000112618
 20
63.399999996636659
 30
0.0
 42
-0.41421356237306
  0
VERTEX
  5
1C51
  8
SAPA_PROFIL
 10
68.6000000001128
 20
63.699999996636841
 30
0.0
  0
VERTEX
  5
1C52
  8
SAPA_PROFIL
 10
72.452786404612311
 20
63.699999996636848
 30
0.0
 42
0.2036002236709541
  0
VERTEX
  5
1C53
  8
SAPA_PROFIL
 10
72.668706713432684
 20
63.79172512960065
 30
0.0
 42
-0.8292414158604859
  0
VERTEX
  5
1C54
  8
SAPA_PROFIL
 10
73.000702346452385
 20
63.595591841069222
 30
0.0
  0
VERTEX
  5
1C55
  8
SAPA_PROFIL
 10
72.948645646390673
 20
63.424037794445319
 30
0.0
  0
VERTEX
  5
1C56
  8
SAPA_PROFIL
 10
71.86408119941882
 20
61.538194102584491
 30
0.0
  0
VERTEX
  5
1C57
  8
SAPA_PROFIL
 10
71.542323471200802
 20
61.54875546881123
 30
0.0
 42
0.5773502691894565
  0
VERTEX
  5
1C58
  8
SAPA_PROFIL
 10
71.359369731090396
 20
61.254599168556631
 30
0.0
  0
VERTEX
  5
1C59
  8
SAPA_PROFIL
 10
71.511503642198591
 20
60.969916885325453
 30
0.0
 42
0.2216946626431577
  0
VERTEX
  5
1C5A
  8
SAPA_PROFIL
 10
72.052383473676059
 20
60.564107980170199
 30
0.0
  0
VERTEX
  5
1C5B
  8
SAPA_PROFIL
 10
73.865613944333845
 20
60.18266138404249
 30
0.0
 42
0.4757248385987928
  0
VERTEX
  5
1C5C
  8
SAPA_PROFIL
 10
74.23727088918406
 20
60.483657474500319
 30
0.0
  0
VERTEX
  5
1C5D
  8
SAPA_PROFIL
 10
74.237187211396417
 20
61.988015289310958
 30
0.0
  0
VERTEX
  5
1C5E
  8
SAPA_PROFIL
 10
74.18934146139793
 20
62.002533698558288
 30
0.0
 42
-0.4580511809928869
  0
VERTEX
  5
1C5F
  8
SAPA_PROFIL
 10
74.005273745745043
 20
62.417914081107369
 30
0.0
  0
VERTEX
  5
1C60
  8
SAPA_PROFIL
 10
74.500000000112436
 20
63.69999999663662
 30
0.0
  0
VERTEX
  5
1C61
  8
SAPA_PROFIL
 10
74.500000000112436
 20
66.712484330145003
 30
0.0
 42
0.2596812337301257
  0
VERTEX
  5
1C62
  8
SAPA_PROFIL
 10
74.405306804864381
 20
66.882515141685076
 30
0.0
  0
VERTEX
  5
1C63
  8
SAPA_PROFIL
 10
73.157960207240308
 20
67.655046210754676
 30
0.0
 42
0.5877032589249617
  0
VERTEX
  5
1C64
  8
SAPA_PROFIL
 10
72.700000000112709
 20
67.399999993444567
 30
0.0
  0
VERTEX
  5
1C65
  8
SAPA_PROFIL
 10
72.700000000112709
 20
65.965821207054091
 30
0.0
 42
-0.4683749459842228
  0
VERTEX
  5
1C66
  8
SAPA_PROFIL
 10
72.400000000112527
 20
65.699999993444521
 30
0.0
  0
VERTEX
  5
1C67
  8
SAPA_PROFIL
 10
70.000000000112891
 20
65.699999993444735
 30
0.0
 42
-0.4683749459847173
  0
VERTEX
  5
1C68
  8
SAPA_PROFIL
 10
69.700000000112709
 20
65.965821207054319
 30
0.0
  0
VERTEX
  5
1C69
  8
SAPA_PROFIL
 10
69.700000000112709
 20
71.799999993444658
 30
0.0
  0
VERTEX
  5
1C6A
  8
SAPA_PROFIL
 10
69.700000000112709
 20
73.799999993444658
 30
0.0
  0
VERTEX
  5
1C6B
  8
SAPA_PROFIL
 10
69.700000000112709
 20
83.399999993444538
 30
0.0
 42
-0.4142135623730951
  0
VERTEX
  5
1C6C
  8
SAPA_PROFIL
 10
70.000000000112436
 20
83.699999993444493
 30
0.0
  0
VERTEX
  5
1C6D
  8
SAPA_PROFIL
 10
72.400000000112527
 20
83.699999993444493
 30
0.0
 42
-0.4142135623730951
  0
VERTEX
  5
1C6E
  8
SAPA_PROFIL
 10
72.700000000112709
 20
83.399999993444538
 30
0.0
  0
VERTEX
  5
1C6F
  8
SAPA_PROFIL
 10
72.700000000112709
 20
81.999999993444476
 30
0.0
 42
0.5877032589248625
  0
VERTEX
  5
1C70
  8
SAPA_PROFIL
 10
73.157960207240308
 20
81.744953776134594
 30
0.0
  0
VERTEX
  5
1C71
  8
SAPA_PROFIL
 10
74.605306804864199
 20
82.641352753376722
 30
0.0
 42
0.2596812337300832
  0
VERTEX
  5
1C72
  8
SAPA_PROFIL
 10
74.700000000112709
 20
82.811383564916795
 30
0.0
  0
VERTEX
  5
1C73
  8
SAPA_PROFIL
 10
74.700000000112709
 20
85.499999996594255
 30
0.0
 42
0.4142135623731107
  0
VERTEX
  5
1C74
  8
SAPA_PROFIL
 10
74.500000000112436
 20
85.699999996594315
 30
0.0
  0
VERTEX
  5
1C75
  8
SAPA_PROFIL
 10
44.90000000011252
 20
85.699999996594315
 30
0.0
 42
0.4142135623730273
  0
VERTEX
  5
1C76
  8
SAPA_PROFIL
 10
44.700000000112702
 20
85.499999996594255
 30
0.0
  0
VERTEX
  5
1C77
  8
SAPA_PROFIL
 10
44.700000000112702
 20
82.811383564916568
 30
0.0
 42
0.2596812337302099
  0
VERTEX
  5
1C78
  8
SAPA_PROFIL
 10
44.794693195360757
 20
82.641352753376495
 30
0.0
  0
VERTEX
  5
1C79
  8
SAPA_PROFIL
 10
46.242039792984649
 20
81.744953776134352
 30
0.0
 42
0.5877032589250762
  0
VERTEX
  5
1C7A
  8
SAPA_PROFIL
 10
46.700000000112702
 20
81.999999993444476
 30
0.0
  0
VERTEX
  5
1C7B
  8
SAPA_PROFIL
 10
46.700000000112702
 20
83.399999993444538
 30
0.0
 42
-0.4142135623730951
  0
VERTEX
  5
1C7C
  8
SAPA_PROFIL
 10
47.000000000112429
 20
83.699999993444493
 30
0.0
  0
VERTEX
  5
1C7D
  8
SAPA_PROFIL
 10
49.40000000011252
 20
83.699999993444493
 30
0.0
 42
-0.4142135623730951
  0
VERTEX
  5
1C7E
  8
SAPA_PROFIL
 10
49.700000000112709
 20
83.399999993444538
 30
0.0
  0
VERTEX
  5
1C7F
  8
SAPA_PROFIL
 10
49.700000000112709
 20
73.79999999344443
 30
0.0
  0
VERTEX
  5
1C80
  8
SAPA_PROFIL
 10
49.700000000112709
 20
71.79999999344443
 30
0.0
  0
VERTEX
  5
1C81
  8
SAPA_PROFIL
 10
49.700000000112723
 20
65.965821207054773
 30
0.0
 42
-0.4683749459843959
  0
VERTEX
  5
1C82
  8
SAPA_PROFIL
 10
49.400000000112989
 20
65.699999993444521
 30
0.0
  0
VERTEX
  5
1C83
  8
SAPA_PROFIL
 10
47.00000000011245
 20
65.699999993444521
 30
0.0
 42
-0.4683749459842226
  0
VERTEX
  5
1C84
  8
SAPA_PROFIL
 10
46.700000000112723
 20
65.965821207054091
 30
0.0
  0
VERTEX
  5
1C85
  8
SAPA_PROFIL
 10
46.700000000112702
 20
67.399999993444325
 30
0.0
 42
0.5877032589249771
  0
VERTEX
  5
1C86
  8
SAPA_PROFIL
 10
46.242039792984649
 20
67.655046210754435
 30
0.0
  0
VERTEX
  5
1C87
  8
SAPA_PROFIL
 10
44.994693195361052
 20
66.882515141685076
 30
0.0
 42
0.2596812337301256
  0
VERTEX
  5
1C88
  8
SAPA_PROFIL
 10
44.900000000112541
 20
66.712484330145003
 30
0.0
  0
VERTEX
  5
1C89
  8
SAPA_PROFIL
 10
44.900000000112541
 20
63.69999999663662
 30
0.0
  0
VERTEX
  5
1C8A
  8
SAPA_PROFIL
 10
45.39472625447992
 20
62.41791408110759
 30
0.0
 42
-0.4580511809929225
  0
VERTEX
  5
1C8B
  8
SAPA_PROFIL
 10
45.210658538827047
 20
62.002533698558743
 30
0.0
  0
VERTEX
  5
1C8C
  8
SAPA_PROFIL
 10
45.16281278882856
 20
61.988015289311178
 30
0.0
  0
VERTEX
  5
1C8D
  8
SAPA_PROFIL
 10
45.16272911104091
 20
60.483657474495082
 30
0.0
 42
0.4757248385933691
  0
VERTEX
  5
1C8E
  8
SAPA_PROFIL
 10
45.534386055890657
 20
60.18266138404293
 30
0.0
  0
VERTEX
  5
1C8F
  8
SAPA_PROFIL
 10
47.347616526548912
 20
60.564107980170427
 30
0.0
 42
0.2350054070140314
  0
VERTEX
  5
1C90
  8
SAPA_PROFIL
 10
47.906665443431969
 20
61.006088772892888
 30
0.0
 42
-0.0011882050611145
  0
VERTEX
  5
1C91
  8
SAPA_PROFIL
 10
47.907101034972698
 20
61.004731095210332
 30
0.0
  0
VERTEX
  5
1C92
  8
SAPA_PROFIL
 10
48.040630269134581
 20
61.254599168556851
 30
0.0
 42
0.5773502691894562
  0
VERTEX
  5
1C93
  8
SAPA_PROFIL
 10
47.85767652902463
 20
61.548755468811457
 30
0.0
  0
VERTEX
  5
1C94
  8
SAPA_PROFIL
 10
47.535918800806151
 20
61.538194102584718
 30
0.0
  0
VERTEX
  5
1C95
  8
SAPA_PROFIL
 10
46.451354353834297
 20
63.424037794446001
 30
0.0
  0
VERTEX
  5
1C96
  8
SAPA_PROFIL
 10
46.399297653772592
 20
63.595591841069442
 30
0.0
 42
-0.8292414158590609
  0
VERTEX
  5
1C97
  8
SAPA_PROFIL
 10
46.73129328679137
 20
63.791725129601318
 30
0.0
 42
0.2036002236714843
  0
VERTEX
  5
1C98
  8
SAPA_PROFIL
 10
46.947213595612212
 20
63.699999996637068
 30
0.0
  0
VERTEX
  5
1C99
  8
SAPA_PROFIL
 10
50.800000000112171
 20
63.699999996637068
 30
0.0
 42
-0.4142135623731708
  0
VERTEX
  5
1C9A
  8
SAPA_PROFIL
 10
51.10000000011236
 20
63.399999996636893
 30
0.0
  0
VERTEX
  5
1C9B
  8
SAPA_PROFIL
 10
51.10000000011236
 20
63.099999996636697
 30
0.0
  0
VERTEX
  5
1C9C
  8
SAPA_PROFIL
 10
50.176239569408729
 20
61.49999999663725
 30
0.0
 42
0.5773502691897499
  0
VERTEX
  5
1C9D
  8
SAPA_PROFIL
 10
50.349444650165552
 20
61.199999996637068
 30
0.0
  0
VERTEX
  5
1C9E
  8
SAPA_PROFIL
 10
51.735085296220987
 20
61.199999996636841
 30
0.0
 42
0.2679491924311548
  0
VERTEX
  5
1C9F
  8
SAPA_PROFIL
 10
52.60111070000552
 20
61.699999996636841
 30
0.0
  0
VERTEX
  5
1CA0
  8
SAPA_PROFIL
 10
53.611473671087552
 20
63.449999996637061
 30
0.0
 42
-0.2679491924310984
  0
VERTEX
  5
1CA1
  8
SAPA_PROFIL
 10
54.044486372980039
 20
63.699999996637068
 30
0.0
  0
SEQEND
  5
1CA2
  8
SAPA_PROFIL
  0
POLYLINE
  5
1214
  8
SAPA_PROFIL
 66
     1
 10
0.0
 20
0.0
 30
0.0
 70
     1
  0
VERTEX
  5
1CA3
  8
SAPA_PROFIL
 10
67.99999999995083
 20
65.700000000036653
 30
0.0
 42
-0.4142135623730951
  0
VERTEX
  5
1CA4
  8
SAPA_PROFIL
 10
67.699999999950819
 20
65.400000000036641
 30
0.0
  0
VERTEX
  5
1CA5
  8
SAPA_PROFIL
 10
66.199999999950819
 20
65.400000000036641
 30
0.0
 42
-0.414213562372978
  0
VERTEX
  5
1CA6
  8
SAPA_PROFIL
 10
65.99999999995083
 20
65.600000000036516
 30
0.0
  0
VERTEX
  5
1CA7
  8
SAPA_PROFIL
 10
65.99999999995083
 20
65.699999999082991
 30
0.0
 42
0.4142135624945221
  0
VERTEX
  5
1CA8
  8
SAPA_PROFIL
 10
65.699999999826446
 20
65.999999999083002
 30
0.0
  0
VERTEX
  5
1CA9
  8
SAPA_PROFIL
 10
64.299999999826412
 20
65.999999998502574
 30
0.0
 42
0.4142135622516715
  0
VERTEX
  5
1CAA
  8
SAPA_PROFIL
 10
63.999999999950838
 20
65.699999998502562
 30
0.0
  0
VERTEX
  5
1CAB
  8
SAPA_PROFIL
 10
63.999999999950838
 20
65.599999999874626
 30
0.0
 42
-0.4142135621360125
  0
VERTEX
  5
1CAC
  8
SAPA_PROFIL
 10
63.800000000112739
 20
65.399999999874638
 30
0.0
  0
VERTEX
  5
1CAD
  8
SAPA_PROFIL
 10
55.600000000112701
 20
65.399999993399149
 30
0.0
 42
-0.4142135626101776
  0
VERTEX
  5
1CAE
  8
SAPA_PROFIL
 10
55.399999999950822
 20
65.599999993399138
 30
0.0
  0
VERTEX
  5
1CAF
  8
SAPA_PROFIL
 10
55.399999999950822
 20
65.699999994771247
 30
0.0
 42
0.4142135624945291
  0
VERTEX
  5
1CB0
  8
SAPA_PROFIL
 10
55.09999999982643
 20
65.999999994771258
 30
0.0
  0
VERTEX
  5
1CB1
  8
SAPA_PROFIL
 10
53.699999999826453
 20
65.999999994190773
 30
0.0
 42
0.4142135622516611
  0
VERTEX
  5
1CB2
  8
SAPA_PROFIL
 10
53.399999999950822
 20
65.699999994190762
 30
0.0
  0
VERTEX
  5
1CB3
  8
SAPA_PROFIL
 10
53.399999999950822
 20
65.599999993988149
 30
0.0
 42
-0.4142135622584299
  0
VERTEX
  5
1CB4
  8
SAPA_PROFIL
 10
53.2000000000291
 20
65.399999993988104
 30
0.0
  0
VERTEX
  5
1CB5
  8
SAPA_PROFIL
 10
51.700000000075597
 20
65.399999993364133
 30
0.0
 42
-0.4142135624949384
  0
VERTEX
  5
1CB6
  8
SAPA_PROFIL
 10
51.399999999950822
 20
65.699999993364145
 30
0.0
  0
VERTEX
  5
1CB7
  8
SAPA_PROFIL
 10
51.399999999950801
 20
83.700000003803311
 30
0.0
 42
-0.4142135623730743
  0
VERTEX
  5
1CB8
  8
SAPA_PROFIL
 10
51.699999999950762
 20
84.000000003803322
 30
0.0
  0
VERTEX
  5
1CB9
  8
SAPA_PROFIL
 10
53.199999999950819
 20
84.000000003803436
 30
0.0
 42
-0.4142135623730951
  0
VERTEX
  5
1CBA
  8
SAPA_PROFIL
 10
53.399999999950808
 20
83.800000003803447
 30
0.0
  0
VERTEX
  5
1CBB
  8
SAPA_PROFIL
 10
53.399999999950808
 20
83.700000003803311
 30
0.0
 42
0.4142135623731125
  0
VERTEX
  5
1CBC
  8
SAPA_PROFIL
 10
53.699999999950819
 20
83.400000003803299
 30
0.0
  0
VERTEX
  5
1CBD
  8
SAPA_PROFIL
 10
55.099999999950803
 20
83.400000003803299
 30
0.0
 42
0.4142135623730951
  0
VERTEX
  5
1CBE
  8
SAPA_PROFIL
 10
55.399999999950808
 20
83.700000003803311
 30
0.0
  0
VERTEX
  5
1CBF
  8
SAPA_PROFIL
 10
55.399999999950808
 20
83.800000003803319
 30
0.0
 42
-0.4142135623730951
  0
VERTEX
  5
1CC0
  8
SAPA_PROFIL
 10
55.599999999950789
 20
84.000000003803322
 30
0.0
  0
VERTEX
  5
1CC1
  8
SAPA_PROFIL
 10
63.799999999950842
 20
84.000000003803322
 30
0.0
 42
-0.4142135623730951
  0
VERTEX
  5
1CC2
  8
SAPA_PROFIL
 10
63.99999999995083
 20
83.800000003803319
 30
0.0
  0
VERTEX
  5
1CC3
  8
SAPA_PROFIL
 10
63.99999999995083
 20
83.700000003803311
 30
0.0
 42
0.4142135623730951
  0
VERTEX
  5
1CC4
  8
SAPA_PROFIL
 10
64.299999999950785
 20
83.400000003803299
 30
0.0
  0
VERTEX
  5
1CC5
  8
SAPA_PROFIL
 10
65.699999999950819
 20
83.400000003803299
 30
0.0
 42
0.4142135623730951
  0
VERTEX
  5
1CC6
  8
SAPA_PROFIL
 10
65.99999999995083
 20
83.700000003803311
 30
0.0
  0
VERTEX
  5
1CC7
  8
SAPA_PROFIL
 10
65.99999999995083
 20
83.800000003803319
 30
0.0
 42
-0.4142135623730951
  0
VERTEX
  5
1CC8
  8
SAPA_PROFIL
 10
66.199999999950819
 20
84.000000003803322
 30
0.0
  0
VERTEX
  5
1CC9
  8
SAPA_PROFIL
 10
67.699999999950819
 20
84.000000003803436
 30
0.0
 42
-0.4142135623731159
  0
VERTEX
  5
1CCA
  8
SAPA_PROFIL
 10
67.99999999995083
 20
83.700000003803424
 30
0.0
  0
SEQEND
  5
1CCB
  8
SAPA_PROFIL
  0
POLYLINE
  5
1215
  8
SAPA_PROFIL
 62
     4
 66
     1
 10
0.0
 20
0.0
 30
0.0
  0
VERTEX
  5
1CCC
  8
SAPA_PROFIL
 62
     4
 10
47.604095278225543
 20
51.749329119175648
 30
0.0
 42
-0.5571646428658034
  0
VERTEX
  5
1CCD
  8
SAPA_PROFIL
 62
     4
 10
48.471814192381089
 20
51.212368615038827
 30
0.0
  0
VERTEX
  5
1CCE
  8
SAPA_PROFIL
 62
     4
 10
48.471814192380627
 20
34.187631378517629
 30
0.0
 42
-0.5571645048035741
  0
VERTEX
  5
1CCF
  8
SAPA_PROFIL
 62
     4
 10
47.604095504514468
 20
33.650670761556569
 30
0.0
  0
VERTEX
  5
1CD0
  8
SAPA_PROFIL
 62
     4
 10
45.937954848446431
 20
34.481377849103268
 30
0.0
 42
-0.284385813979063
  0
VERTEX
  5
1CD1
  8
SAPA_PROFIL
 62
     4
 10
45.77181419237899
 20
34.749858157583617
 30
0.0
  0
VERTEX
  5
1CD2
  8
SAPA_PROFIL
 62
     4
 10
45.77181419237899
 20
50.650141835972931
 30
0.0
 42
-0.2843858139786238
  0
VERTEX
  5
1CD3
  8
SAPA_PROFIL
 62
     4
 10
45.937954848445919
 20
50.918622144453209
 30
0.0
  0
VERTEX
  5
1CD4
  8
SAPA_PROFIL
 62
     4
 10
47.604095504515271
 20
51.749329232000377
 30
0.0
  0
SEQEND
  5
1CD5
  8
SAPA_PROFIL
 62
     4
  0
POLYLINE
  5
1216
  8
SAPA_PROFIL
 62
     4
 66
     1
 10
0.0
 20
0.0
 30
0.0
 70
     1
  0
VERTEX
  5
1CD6
  8
SAPA_PROFIL
 62
     4
 10
45.414982677881419
 20
28.28238881211098
 30
0.0
  0
VERTEX
  5
1CD7
  8
SAPA_PROFIL
 62
     4
 10
45.008422481877282
 20
28.018365533734968
 30
0.0
 42
0.2539676464751066
  0
VERTEX
  5
1CD8
  8
SAPA_PROFIL
 62
     4
 10
44.87181419238118
 20
27.766764363350259
 30
0.0
  0
VERTEX
  5
1CD9
  8
SAPA_PROFIL
 62
     4
 10
44.87181419238118
 20
26.385264778144919
 30
0.0
 42
0.3152987888790479
  0
VERTEX
  5
1CDA
  8
SAPA_PROFIL
 62
     4
 10
45.20080412071934
 20
25.915418467752598
 30
0.0
  0
VERTEX
  5
1CDB
  8
SAPA_PROFIL
 62
     4
 10
47.661634311170609
 20
25.019749526843992
 30
0.0
 42
-0.2694959974287434
  0
VERTEX
  5
1CDC
  8
SAPA_PROFIL
 62
     4
 10
47.854766285514501
 20
24.788230480442639
 30
0.0
 42
-0.0612686379508233
  0
VERTEX
  5
1CDD
  8
SAPA_PROFIL
 62
     4
 10
47.868349656145021
 20
24.49555504758937
 30
0.0
  0
VERTEX
  5
1CDE
  8
SAPA_PROFIL
 62
     4
 10
48.070086334873842
 20
24.146136870281101
 30
0.0
 42
-0.5773502691891679
  0
VERTEX
  5
1CDF
  8
SAPA_PROFIL
 62
     4
 10
47.888221000079277
 20
23.831136870281512
 30
0.0
  0
VERTEX
  5
1CE0
  8
SAPA_PROFIL
 62
     4
 10
47.621106471952963
 20
23.83113687028127
 30
0.0
  0
VERTEX
  5
1CE1
  8
SAPA_PROFIL
 62
     4
 10
46.81242301064465
 20
22.432609169647019
 30
0.0
 42
0.1318219888653519
  0
VERTEX
  5
1CE2
  8
SAPA_PROFIL
 62
     4
 10
46.772130614107247
 20
22.282436067174672
 30
0.0
  0
VERTEX
  5
1CE3
  8
SAPA_PROFIL
 62
     4
 10
46.772130614113621
 20
22.099999996737889
 30
0.0
 42
0.4142135623724291
  0
VERTEX
  5
1CE4
  8
SAPA_PROFIL
 62
     4
 10
47.17213061411325
 20
21.69999999673735
 30
0.0
  0
VERTEX
  5
1CE5
  8
SAPA_PROFIL
 62
     4
 10
50.572130614114258
 20
21.699999996738711
 30
0.0
 42
0.4142135623744271
  0
VERTEX
  5
1CE6
  8
SAPA_PROFIL
 62
     4
 10
50.972130614115258
 20
22.099999996737889
 30
0.0
  0
VERTEX
  5
1CE7
  8
SAPA_PROFIL
 62
     4
 10
50.972130614115898
 20
22.2796152390092
 30
0.0
 42
0.1316524975874005
  0
VERTEX
  5
1CE8
  8
SAPA_PROFIL
 62
     4
 10
50.9319382352503
 20
22.429615239006012
 30
0.0
  0
VERTEX
  5
1CE9
  8
SAPA_PROFIL
 62
     4
 10
50.005788788597762
 20
24.033753136008269
 30
0.0
 42
-0.1316524975875904
  0
VERTEX
  5
1CEA
  8
SAPA_PROFIL
 62
     4
 10
49.871814192382999
 20
24.533753136009981
 30
0.0
  0
VERTEX
  5
1CEB
  8
SAPA_PROFIL
 62
     4
 10
49.871814192382999
 20
24.94999999673735
 30
0.0
 42
-0.4142135623730951
  0
VERTEX
  5
1CEC
  8
SAPA_PROFIL
 62
     4
 10
50.871814192382999
 20
25.94999999673735
 30
0.0
  0
VERTEX
  5
1CED
  8
SAPA_PROFIL
 62
     4
 10
53.87181419238027
 20
25.94999999673735
 30
0.0
 42
0.9999996830128083
  0
VERTEX
  5
1CEE
  8
SAPA_PROFIL
 62
     4
 10
53.871814192382089
 20
26.94999999673735
 30
0.0
  0
VERTEX
  5
1CEF
  8
SAPA_PROFIL
 62
     4
 10
50.871814192382089
 20
26.94999999673735
 30
0.0
 42
-0.4142135623730951
  0
VERTEX
  5
1CF0
  8
SAPA_PROFIL
 62
     4
 10
49.871814192382089
 20
27.94999999673735
 30
0.0
  0
VERTEX
  5
1CF1
  8
SAPA_PROFIL
 62
     4
 10
49.871814192382089
 20
57.449999996821923
 30
0.0
 42
-0.4142135623730951
  0
VERTEX
  5
1CF2
  8
SAPA_PROFIL
 62
     4
 10
50.871814192382089
 20
58.44999999682193
 30
0.0
  0
VERTEX
  5
1CF3
  8
SAPA_PROFIL
 62
     4
 10
53.87181419238027
 20
58.44999999682193
 30
0.0
 42
0.9999999999999998
  0
VERTEX
  5
1CF4
  8
SAPA_PROFIL
 62
     4
 10
53.87181419238027
 20
59.44999999682193
 30
0.0
  0
VERTEX
  5
1CF5
  8
SAPA_PROFIL
 62
     4
 10
50.871814192382089
 20
59.44999999682193
 30
0.0
 42
-0.4142135623736278
  0
VERTEX
  5
1CF6
  8
SAPA_PROFIL
 62
     4
 10
49.871814192382089
 20
60.44999999682193
 30
0.0
  0
VERTEX
  5
1CF7
  8
SAPA_PROFIL
 62
     4
 10
49.871814192382089
 20
60.86624685754839
 30
0.0
 42
-0.1316524975874375
  0
VERTEX
  5
1CF8
  8
SAPA_PROFIL
 62
     4
 10
50.005788788598117
 20
61.366246857548589
 30
0.0
  0
VERTEX
  5
1CF9
  8
SAPA_PROFIL
 62
     4
 10
50.9319382352503
 20
62.97038475455053
 30
0.0
 42
0.1316524975874
  0
VERTEX
  5
1CFA
  8
SAPA_PROFIL
 62
     4
 10
50.972130614115891
 20
63.120384754550081
 30
0.0
  0
VERTEX
  5
1CFB
  8
SAPA_PROFIL
 62
     4
 10
50.972130614115258
 20
63.299999996821377
 30
0.0
 42
0.4142135623744271
  0
VERTEX
  5
1CFC
  8
SAPA_PROFIL
 62
     4
 10
50.572130614114258
 20
63.699999996820573
 30
0.0
  0
VERTEX
  5
1CFD
  8
SAPA_PROFIL
 62
     4
 10
47.17213061411325
 20
63.699999996821923
 30
0.0
 42
0.4142135623724291
  0
VERTEX
  5
1CFE
  8
SAPA_PROFIL
 62
     4
 10
46.772130614113621
 20
63.299999996821377
 30
0.0
  0
VERTEX
  5
1CFF
  8
SAPA_PROFIL
 62
     4
 10
46.772130614107247
 20
63.117563926384612
 30
0.0
 42
0.1318219888653524
  0
VERTEX
  5
1D00
  8
SAPA_PROFIL
 62
     4
 10
46.81242301064465
 20
62.967390823912261
 30
0.0
  0
VERTEX
  5
1D01
  8
SAPA_PROFIL
 62
     4
 10
47.621106471868977
 20
61.5688631234326
 30
0.0
  0
VERTEX
  5
1D02
  8
SAPA_PROFIL
 62
     4
 10
47.888221000082019
 20
61.5688631234326
 30
0.0
 42
-0.577350269189159
  0
VERTEX
  5
1D03
  8
SAPA_PROFIL
 62
     4
 10
48.070086334876578
 20
61.253863123433007
 30
0.0
  0
VERTEX
  5
1D04
  8
SAPA_PROFIL
 62
     4
 10
47.868349656199477
 20
60.904444946214348
 30
0.0
 42
-0.0612687673629489
  0
VERTEX
  5
1D05
  8
SAPA_PROFIL
 62
     4
 10
47.854766285513271
 20
60.611769513114133
 30
0.0
 42
-0.2694959974285039
  0
VERTEX
  5
1D06
  8
SAPA_PROFIL
 62
     4
 10
47.661634311169323
 20
60.380250466713612
 30
0.0
  0
VERTEX
  5
1D07
  8
SAPA_PROFIL
 62
     4
 10
45.200804120716157
 20
59.484581525803947
 30
0.0
 42
0.3152987888784035
  0
VERTEX
  5
1D08
  8
SAPA_PROFIL
 62
     4
 10
44.871814192379581
 20
59.014735215410717
 30
0.0
  0
VERTEX
  5
1D09
  8
SAPA_PROFIL
 62
     4
 10
44.87181419238118
 20
57.633235630206279
 30
0.0
 42
0.2539676464741841
  0
VERTEX
  5
1D0A
  8
SAPA_PROFIL
 62
     4
 10
45.008422481876451
 20
57.381634459822209
 30
0.0
  0
VERTEX
  5
1D0B
  8
SAPA_PROFIL
 62
     4
 10
45.414982677881419
 20
57.117611181445568
 30
0.0
 42
0.5862177598324623
  0
VERTEX
  5
1D0C
  8
SAPA_PROFIL
 62
     4
 10
45.871814192377933
 20
57.373352996683913
 30
0.0
  0
VERTEX
  5
1D0D
  8
SAPA_PROFIL
 62
     4
 10
45.871814192370259
 20
58.31452767719373
 30
0.0
 42
-0.3152987888813165
  0
VERTEX
  5
1D0E
  8
SAPA_PROFIL
 62
     4
 10
46.200804120707012
 20
58.784373987591479
 30
0.0
  0
VERTEX
  5
1D0F
  8
SAPA_PROFIL
 62
     4
 10
47.400804120718249
 20
59.221138268715443
 30
0.0
 42
-0.5205670505515651
  0
VERTEX
  5
1D10
  8
SAPA_PROFIL
 62
     4
 10
48.071814192380998
 20
58.751291958322213
 30
0.0
  0
VERTEX
  5
1D11
  8
SAPA_PROFIL
 62
     4
 10
48.071814192381019
 20
53.734851017653362
 30
0.0
 42
-0.3702522326300203
  0
VERTEX
  5
1D12
  8
SAPA_PROFIL
 62
     4
 10
47.817354239715307
 20
53.438327655860043
 30
0.0
 42
-0.0982365330332397
  0
VERTEX
  5
1D13
  8
SAPA_PROFIL
 62
     4
 10
46.129667464720313
 20
53.347874897649092
 30
0.0
 42
-0.3735060174783164
  0
VERTEX
  5
1D14
  8
SAPA_PROFIL
 62
     4
 10
45.87181419238027
 20
53.644899565560067
 30
0.0
  0
VERTEX
  5
1D15
  8
SAPA_PROFIL
 62
     4
 10
45.871814192379361
 20
54.073352996682729
 30
0.0
 42
0.5920056181162531
  0
VERTEX
  5
1D16
  8
SAPA_PROFIL
 62
     4
 10
45.410610689851431
 20
54.326361753000128
 30
0.0
  0
VERTEX
  5
1D17
  8
SAPA_PROFIL
 62
     4
 10
45.008422481873133
 20
54.065177676844428
 30
0.0
 42
0.2539676464746725
  0
VERTEX
  5
1D18
  8
SAPA_PROFIL
 62
     4
 10
44.871814192377776
 20
53.813576506460663
 30
0.0
  0
VERTEX
  5
1D19
  8
SAPA_PROFIL
 62
     4
 10
44.871814192379361
 20
31.586423487094979
 30
0.0
 42
0.2539676464741819
  0
VERTEX
  5
1D1A
  8
SAPA_PROFIL
 62
     4
 10
45.008422481873133
 20
31.33482231671212
 30
0.0
  0
VERTEX
  5
1D1B
  8
SAPA_PROFIL
 62
     4
 10
45.410610689851467
 20
31.07363824055831
 30
0.0
 42
0.5920055144124249
  0
VERTEX
  5
1D1C
  8
SAPA_PROFIL
 62
     4
 10
45.871814192379361
 20
31.326646996873819
 30
0.0
  0
VERTEX
  5
1D1D
  8
SAPA_PROFIL
 62
     4
 10
45.871814167104347
 20
31.755100474164038
 30
0.0
 42
-0.3735060174775405
  0
VERTEX
  5
1D1E
  8
SAPA_PROFIL
 62
     4
 10
46.129667439444439
 20
32.052125142073727
 30
0.0
 42
-0.0355900683670349
  0
VERTEX
  5
1D1F
  8
SAPA_PROFIL
 62
     4
 10
46.745541026244233
 20
32.09601870610598
 30
0.0
 42
-0.0624282003873116
  0
VERTEX
  5
1D20
  8
SAPA_PROFIL
 62
     4
 10
47.817354214439362
 20
31.961672383863039
 30
0.0
 42
-0.3702522326309292
  0
VERTEX
  5
1D21
  8
SAPA_PROFIL
 62
     4
 10
48.071814167105082
 20
31.665149022069659
 30
0.0
  0
VERTEX
  5
1D22
  8
SAPA_PROFIL
 62
     4
 10
48.071814192381218
 20
26.648708035236162
 30
0.0
 42
-0.5205670505515692
  0
VERTEX
  5
1D23
  8
SAPA_PROFIL
 62
     4
 10
47.400804120718249
 20
26.178861724842928
 30
0.0
  0
VERTEX
  5
1D24
  8
SAPA_PROFIL
 62
     4
 10
46.200804120708803
 20
26.615626005967879
 30
0.0
 42
-0.3152987888807539
  0
VERTEX
  5
1D25
  8
SAPA_PROFIL
 62
     4
 10
45.871814192371183
 20
27.085472316363731
 30
0.0
  0
VERTEX
  5
1D26
  8
SAPA_PROFIL
 62
     4
 10
45.871814192377997
 20
28.02664699687282
 30
0.0
 42
0.5862175119221242
  0
VERTEX
  5
1D27
  8
SAPA_PROFIL
 62
     4
 10
45.41498286662285
 20
28.282388927854779
 30
0.0
 42
-0.0000002084758573
  0
SEQEND
  5
1D28
  8
SAPA_PROFIL
 62
     4
  0
CIRCLE
  5
1217
  8
SAPA_PROFIL
 62
     2
 10
15.561592377096529
 20
3.691993588084812
 30
0.0
 40
0.8999999999999985
  0
POLYLINE
  5
1218
  8
SAPA_PROFIL
 62
     2
 66
     1
 10
0.0
 20
0.0
 30
0.0
  0
VERTEX
  5
1D29
  8
SAPA_PROFIL
 62
     2
 10
16.961592377096508
 20
4.9999999996578586
 30
0.0
  0
VERTEX
  5
1D2A
  8
SAPA_PROFIL
 62
     2
 10
16.76923395710412
 20
3.9090811895051161
 30
0.0
  0
VERTEX
  5
1D2B
  8
SAPA_PROFIL
 62
     2
 10
17.20103051700573
 20
3.7933816499851778
 30
0.0
 42
-0.4430158954262519
  0
VERTEX
  5
1D2C
  8
SAPA_PROFIL
 62
     2
 10
17.33650756454983
 20
3.529905221878209
 30
0.0
  0
VERTEX
  5
1D2D
  8
SAPA_PROFIL
 62
     2
 10
16.859559371330871
 20
2.259417473960013
 30
0.0
 42
-0.3125358528825162
  0
VERTEX
  5
1D2E
  8
SAPA_PROFIL
 62
     2
 10
16.485077658201469
 20
1.999999999658314
 30
0.0
  0
VERTEX
  5
1D2F
  8
SAPA_PROFIL
 62
     2
 10
14.61492234229115
 20
1.999999999657859
 30
0.0
 42
-0.3125358528825104
  0
VERTEX
  5
1D30
  8
SAPA_PROFIL
 62
     2
 10
14.24044062916175
 20
2.259417473960013
 30
0.0
  0
VERTEX
  5
1D31
  8
SAPA_PROFIL
 62
     2
 10
13.76349243594257
 20
3.529905221878209
 30
0.0
 42
-0.4430158954262519
  0
VERTEX
  5
1D32
  8
SAPA_PROFIL
 62
     2
 10
13.89896948348666
 20
3.7933816499850641
 30
0.0
  0
VERTEX
  5
1D33
  8
SAPA_PROFIL
 62
     2
 10
14.3307660433885
 20
3.9090811895051161
 30
0.0
  0
VERTEX
  5
1D34
  8
SAPA_PROFIL
 62
     2
 10
14.138500000246269
 20
4.9999999996578586
 30
0.0
  0
SEQEND
  5
1D35
  8
SAPA_PROFIL
 62
     2
  0
POLYLINE
  5
1219
  8
SAPA_PROFIL
 62
     2
 66
     1
 10
0.0
 20
0.0
 30
0.0
 70
     1
  0
VERTEX
  5
1D36
  8
SAPA_PROFIL
 62
     2
 10
16.950000000246181
 20
4.9999999996578586
 30
0.0
 42
0.285714285714282
  0
VERTEX
  5
1D37
  8
SAPA_PROFIL
 62
     2
 10
14.150000000246219
 20
4.9999999996578586
 30
0.0
  0
VERTEX
  5
1D38
  8
SAPA_PROFIL
 62
     2
 10
12.076219830858349
 20
4.9999999996583142
 30
0.0
 42
-0.3882600129940275
  0
VERTEX
  5
1D39
  8
SAPA_PROFIL
 62
     2
 10
11.77741833351695
 20
5.2732107259378722
 30
0.0
  0
VERTEX
  5
1D3A
  8
SAPA_PROFIL
 62
     2
 10
11.311208409590449
 20
9.1732107259379632
 30
0.0
 42
-0.4406523138893894
  0
VERTEX
  5
1D3B
  8
SAPA_PROFIL
 62
     2
 10
11.6100099069323
 20
9.4999999996578595
 30
0.0
  0
VERTEX
  5
1D3C
  8
SAPA_PROFIL
 62
     2
 10
13.31980190385263
 20
9.4999999996578595
 30
0.0
 42
-0.3394542588634375
  0
VERTEX
  5
1D3D
  8
SAPA_PROFIL
 62
     2
 10
13.60957965173918
 20
9.2776457131888606
 30
0.0
  0
VERTEX
  5
1D3E
  8
SAPA_PROFIL
 62
     2
 10
13.811959379670609
 20
9.0600599310212715
 30
0.0
 42
0.3394542588633663
  0
VERTEX
  5
1D3F
  8
SAPA_PROFIL
 62
     2
 10
14.10173712755738
 20
8.8377056445522726
 30
0.0
  0
VERTEX
  5
1D40
  8
SAPA_PROFIL
 62
     2
 10
16.998262872935239
 20
8.8377056445522726
 30
0.0
 42
0.3394542588634373
  0
VERTEX
  5
1D41
  8
SAPA_PROFIL
 62
     2
 10
17.288040620821789
 20
9.0600599310212715
 30
0.0
  0
VERTEX
  5
1D42
  8
SAPA_PROFIL
 62
     2
 10
17.490420348753219
 20
9.2776457131888606
 30
0.0
 42
-0.3394542588633662
  0
VERTEX
  5
1D43
  8
SAPA_PROFIL
 62
     2
 10
17.780198096639989
 20
9.4999999996578595
 30
0.0
  0
VERTEX
  5
1D44
  8
SAPA_PROFIL
 62
     2
 10
19.489990093560088
 20
9.4999999996578595
 30
0.0
 42
-0.4406523138893994
  0
VERTEX
  5
1D45
  8
SAPA_PROFIL
 62
     2
 10
19.78879159090172
 20
9.1732107259379632
 30
0.0
  0
VERTEX
  5
1D46
  8
SAPA_PROFIL
 62
     2
 10
19.322581666975449
 20
5.2732107259378722
 30
0.0
 42
-0.3882600129940462
  0
VERTEX
  5
1D47
  8
SAPA_PROFIL
 62
     2
 10
19.023780169634051
 20
4.9999999996578586
 30
0.0
  0
VERTEX
  5
1D48
  8
SAPA_PROFIL
 62
     2
 10
16.961592377096508
 20
4.9999999996578586
 30
0.0
  0
SEQEND
  5
1D49
  8
SAPA_PROFIL
 62
     2
  0
LINE
  5
121A
  8
SAPA_PROFIL
 10
22.94852683805647
 20
11.209220514692641
 30
0.0
 11
-3.3014731619435902
 21
11.209220515970941
 31
0.0
  0
ARC
  5
121B
  8
SAPA_PROFIL
 10
22.93713134204042
 20
11.870477426923561
 30
0.0
 40
0.6613550947128289
 50
270.9872852633776
 51
350.7431712857549
  0
LINE
  5
121C
  8
SAPA_PROFIL
 10
23.589873747123619
 20
207.1273937789569
 30
0.0
 11
23.589873742737641
 21
11.764091715314089
 31
0.0
  0
ARC
  5
121D
  8
SAPA_PROFIL
 10
22.841587529272541
 20
207.03836903362011
 30
0.0
 40
0.7535633145981409
 50
6.7846750554383668
 51
89.676980031182424
  0
LINE
  5
121E
  8
SAPA_PROFIL
 10
-3.3014731575086809
 20
207.79192037376421
 30
0.0
 11
22.8458359173909
 21
207.79192037248589
 31
0.0
  0
LINE
  5
121F
  8
SAPA_PROFIL
 10
-3.3014731574477159
 20
208.900570444875
 30
0.0
 11
-3.3014731575086809
 21
207.79192037376421
 31
0.0
  0
LINE
  5
1220
  8
SAPA_PROFIL
 10
23.49925778608883
 20
208.9005704435601
 30
0.0
 11
-3.3014731574477159
 21
208.900570444875
 31
0.0
  0
ARC
  5
1221
  8
SAPA_PROFIL
 10
23.464161584681602
 20
207.66295474080781
 30
0.0
 40
1.2381132303033431
 50
4.4592853357505016
 51
88.375646457488827
  0
LINE
  5
1222
  8
SAPA_PROFIL
 10
24.69852078954284
 20
11.24192202499739
 30
0.0
 11
24.69852684250338
 21
207.75921886358859
 31
0.0
  0
ARC
  5
1223
  8
SAPA_PROFIL
 10
23.649211684052212
 20
11.152525461613861
 30
0.0
 40
1.0531103192022879
 50
272.68403398399772
 51
4.8695918149193131
  0
LINE
  5
1224
  8
SAPA_PROFIL
 10
-3.3014731619953741
 20
10.100570444878439
 30
0.0
 11
23.698526838004511
 21
10.100570443563649
 31
0.0
  0
LINE
  5
1225
  8
SAPA_PROFIL
 10
-3.3014731619435902
 20
11.209220515970941
 30
0.0
 11
-3.3014731619953741
 21
10.100570444878439
 31
0.0
  0
POLYLINE
  5
122F
  8
SAPA_GLAS
 66
     1
 10
0.0
 20
0.0
 30
0.0
 70
     1
  0
VERTEX
  5
1D63
  8
SAPA_GLAS
 10
132.20000000003839
 20
14.69743085600042
 30
0.0
  0
VERTEX
  5
1D64
  8
SAPA_GLAS
 10
132.20000000003839
 20
29.69743085600042
 30
0.0
  0
VERTEX
  5
1D65
  8
SAPA_GLAS
 10
122.2000000000383
 20
29.69743085600042
 30
0.0
  0
VERTEX
  5
1D66
  8
SAPA_GLAS
 10
122.2000000000383
 20
14.69743085600042
 30
0.0
  0
SEQEND
  5
1D67
  8
SAPA_GLAS
  0
POLYLINE
  5
1230
  8
SAPA_GLAS
 66
     1
 10
0.0
 20
0.0
 30
0.0
 70
     1
  0
VERTEX
  5
1D68
  8
SAPA_GLAS
 10
132.20000000003839
 20
33.697430856000423
 30
0.0
  0
VERTEX
  5
1D69
  8
SAPA_GLAS
 10
132.20000000003839
 20
48.697430856000423
 30
0.0
  0
VERTEX
  5
1D6A
  8
SAPA_GLAS
 10
122.2000000000383
 20
48.697430856000423
 30
0.0
  0
VERTEX
  5
1D6B
  8
SAPA_GLAS
 10
122.2000000000383
 20
33.697430856000423
 30
0.0
  0
SEQEND
  5
1D6C
  8
SAPA_GLAS
  0
POLYLINE
  5
1231
  8
SAPA_GLAS
 66
     1
 10
0.0
 20
0.0
 30
0.0
  0
VERTEX
  5
1D6D
  8
SAPA_GLAS
 10
152.2000000000381
 20
33.697430856000423
 30
0.0
  0
VERTEX
  5
1D6E
  8
SAPA_GLAS
 10
122.2000000000381
 20
33.697430856000423
 30
0.0
  0
VERTEX
  5
1D6F
  8
SAPA_GLAS
 10
122.2000000000381
 20
29.69743085600042
 30
0.0
  0
VERTEX
  5
1D70
  8
SAPA_GLAS
 10
152.2000000000381
 20
29.69743085600042
 30
0.0
  0
SEQEND
  5
1D71
  8
SAPA_GLAS
  0
POLYLINE
  5
1232
  8
SAPA_GLAS
 66
     1
 10
0.0
 20
0.0
 30
0.0
  0
VERTEX
  5
1D72
  8
SAPA_GLAS
 10
152.2000000000381
 20
54.697430856000423
 30
0.0
  0
VERTEX
  5
1D73
  8
SAPA_GLAS
 10
122.2000000000381
 20
54.697430856000423
 30
0.0
  0
VERTEX
  5
1D74
  8
SAPA_GLAS
 10
122.2000000000381
 20
48.697430856000423
 30
0.0
  0
VERTEX
  5
1D75
  8
SAPA_GLAS
 10
152.2000000000381
 20
48.697430856000423
 30
0.0
  0
SEQEND
  5
1D76
  8
SAPA_GLAS
  0
POLYLINE
  5
1233
  8
SAPA_GLAS
 66
     1
 10
0.0
 20
0.0
 30
0.0
  0
VERTEX
  5
1D77
  8
SAPA_GLAS
 10
152.2000000000381
 20
8.6974308560004232
 30
0.0
  0
VERTEX
  5
1D78
  8
SAPA_GLAS
 10
122.2000000000381
 20
8.6974308560004232
 30
0.0
  0
VERTEX
  5
1D79
  8
SAPA_GLAS
 10
122.2000000000381
 20
14.69743085600042
 30
0.0
  0
VERTEX
  5
1D7A
  8
SAPA_GLAS
 10
152.2000000000381
 20
14.69743085600042
 30
0.0
  0
SEQEND
  5
1D7B
  8
SAPA_GLAS
  0
INSERT
  5
123C
  8
SAPA_FYLLNING
  6
CONTINUOUS
  2
*X105
 10
0.0
 20
0.0
 30
0.0
1001
ACAD
1000
HATCH
1002
{
1070
    19
1000
HEX
1040
0.25
1040
-1.5707963267948959
1000
R14_HATCH_DATA
1000
123C
1011
1.0
1021
0.0
1031
0.0
1021
0.0
1031
0.0
1011
0.0
1021
0.0
1031
0.0
1021
1.0
1031
0.0
1011
0.0
1021
0.0
1031
0.0
1021
0.0
1031
1.0
1040
0.0
1010
0.0
1020
0.0
1030
1.0
1000
HEX
1070
     0
1070
     0
1071
        1
1071
        7
1070
     1
1070
     1
1071
        2
1040
1.19852381614649
1040
212.5005704442936
1040
1.0
1040
7.1985238161466611
1040
212.5005704442936
1040
1.0
1071
        0
1070
     0
1070
     1
1040
-1.5707963267948959
1040
0.25
1070
     0
1070
     3
1040
1.5707963267948959
1040
67.360342900326373
1040
85.699999999846966
1040
1.374814999999999
1040
0.0000000000000003
1070
     2
1040
0.79375
1040
-1.587499999999999
1040
5.7595865315812871
1040
67.360342900326373
1040
85.699999999846966
1040
-0.6874074999999995
1040
-1.1906247155039029
1070
     2
1040
0.7937499999999998
1040
-1.587499999999999
1040
0.5235987755982995
1040
67.360342900326373
1040
86.493749999846955
1040
0.6874075000000003
1040
-1.190624715503902
1070
     2
1040
0.7937499999999998
1040
-1.587499999999999
1040
0.0216905703044498
1071
        1
1040
4.1325876374846748
1040
212.7871423869187
1040
0.0
1002
}
  0
INSERT
  5
123D
  8
SAPA_FYLLNING
  6
CONTINUOUS
  2
*X106
 10
0.0
 20
0.0
 30
0.0
1001
ACAD
1000
HATCH
1002
{
1070
    19
1000
ANSI37
1040
0.25
1040
-1.5707963267948959
1000
R14_HATCH_DATA
1000
123D
1011
1.0
1021
0.0
1031
0.0
1021
0.0
1031
0.0
1011
0.0
1021
0.0
1031
0.0
1021
1.0
1031
0.0
1011
0.0
1021
0.0
1031
0.0
1021
0.0
1031
1.0
1040
0.0
1010
0.0
1020
0.0
1030
1.0
1000
ANSI37
1070
     0
1070
     0
1071
        1
1071
        7
1070
     1
1070
     1
1071
        9
1040
-2.321677981204743
1040
209.500570444293
1040
0.0
1040
4.1985238161471443
1040
209.500570444293
1040
-1.0
1040
4.1985238161471443
1040
215.5005704442932
1040
0.0
1040
2.612737378524002
1040
215.5005704442932
1040
0.1989123673796868
1040
2.4006053441681838
1040
215.41270247864981
1040
0.0
1040
2.1349199192192141
1040
215.14701705370041
1040
-0.4142135623730951
1040
1.4278131380325469
1040
215.1470170536999
1040
0.0
1040
-0.2136082182040582
1040
216.78843840993659
1040
-0.2679491924312271
1040
-0.2912539317351275
1040
217.07821615782331
1040
0.0
1071
        0
1070
     0
1070
     1
1040
-1.5707963267948959
1040
0.25
1070
     0
1070
     2
1040
0.7853981633974485
1040
67.360342900326373
1040
85.699999999846966
1040
0.5612660075668222
1040
-0.5612660075668219
1070
     0
1040
5.4977871437821371
1040
67.360342900326373
1040
85.699999999846966
1040
-0.5612660075668219
1040
-0.5612660075668222
1070
     0
1040
0.0212842410303403
1071
        1
1040
-0.3453614139157253
1040
211.5993524241762
1040
0.0
1002
}
  0
INSERT
  5
123E
  8
SAPA_FYLLNING
  6
CONTINUOUS
  2
*X107
 10
0.0
 20
0.0
 30
0.0
1001
ACAD
1000
HATCH
1002
{
1070
    19
1000
ANSI37
1040
0.25
1040
-1.5707963267948959
1000
R14_HATCH_DATA
1000
123E
1011
1.0
1021
0.0
1031
0.0
1021
0.0
1031
0.0
1011
0.0
1021
0.0
1031
0.0
1021
1.0
1031
0.0
1011
0.0
1021
0.0
1031
0.0
1021
0.0
1031
1.0
1040
0.0
1010
0.0
1020
0.0
1030
1.0
1000
ANSI37
1070
     0
1070
     0
1071
        1
1071
        7
1070
     1
1070
     1
1071
        7
1040
-2.8587513084510192
1040
9.5005704442930892
1040
0.0
1040
-0.2922760240422804
1040
-0.0776457134899715
1040
-0.2679491924311903
1040
-0.2146303105114384
1040
0.2121320343969728
1040
0.0
1040
0.8267910457208245
1040
1.2535533906291221
1040
-0.198912367379658
1040
1.1803444363140441
1040
1.400000000035845
1040
0.0
1040
7.6747349162046703
1040
1.4000000000357311
1040
-1.0
1040
7.6747349162046703
1040
9.5005704442930323
1040
0.0
1071
        0
1070
     0
1070
     1
1040
-1.5707963267948959
1040
0.25
1070
     0
1070
     2
1040
0.7853981633974485
1040
67.360342900326373
1040
-14.30000000015303
1040
0.5612660075668222
1040
-0.5612660075668219
1070
     0
1040
5.4977871437821371
1040
67.360342900326373
1040
-14.30000000015303
1040
-0.5612660075668219
1040
-0.5612660075668222
1070
     0
1040
0.0363322098761133
1071
        1
1040
0.7727044279860138
1040
6.4061116950997521
1040
0.0
1002
}
  0
INSERT
  5
123F
  8
SAPA_FYLLNING
  6
CONTINUOUS
  2
*X108
 10
0.0
 20
0.0
 30
0.0
1001
ACAD
1000
HATCH
1002
{
1070
    19
1000
HEX
1040
0.25
1040
-1.5707963267948959
1000
R14_HATCH_DATA
1000
123F
1011
1.0
1021
0.0
1031
0.0
1021
0.0
1031
0.0
1011
0.0
1021
0.0
1031
0.0
1021
1.0
1031
0.0
1011
0.0
1021
0.0
1031
0.0
1021
0.0
1031
1.0
1040
0.0
1010
0.0
1020
0.0
1030
1.0
1000
HEX
1070
     0
1070
     0
1071
        1
1071
        7
1070
     1
1070
     1
1071
        4
1040
11.69432351782927
1040
5.9479978443457071
1040
0.0
1040
11.69837943238235
1040
5.9140687794647979
1040
-0.0286974018603331
1040
11.72502013833275
1040
5.4502852221643252
1040
-1.0
1040
3.6244496940754511
1040
5.4502852221643252
1040
-0.9402247308380761
1071
        0
1070
     0
1070
     1
1040
-1.5707963267948959
1040
0.25
1070
     0
1070
     3
1040
1.5707963267948959
1040
67.360342900326373
1040
-14.30000000015303
1040
1.374814999999999
1040
0.0000000000000003
1070
     2
1040
0.79375
1040
-1.587499999999999
1040
5.7595865315812871
1040
67.360342900326373
1040
-14.30000000015303
1040
-0.6874074999999995
1040
-1.1906247155039029
1070
     2
1040
0.7937499999999998
1040
-1.587499999999999
1040
0.5235987755982995
1040
67.360342900326373
1040
-13.50625000015304
1040
0.6874075000000003
1040
-1.190624715503902
1070
     2
1040
0.7937499999999998
1040
-1.587499999999999
1040
0.0303180261480682
1071
        1
1040
7.663152818609432
1040
5.6260628811511992
1040
0.0
1002
}
  0
POLYLINE
  5
1250
  8
SAPA_FOGBAND
 66
     1
 10
0.0
 20
0.0
 30
0.0
 70
     1
  0
VERTEX
  5
1F3D
  8
SAPA_FOGBAND
 10
86.005446441590834
 20
18.834575671420481
 30
0.0
 42
-0.1579553886371987
  0
VERTEX
  5
1F3E
  8
SAPA_FOGBAND
 10
89.269274485706887
 20
18.687516164956119
 30
0.0
 42
-1.0
  0
VERTEX
  5
1F3F
  8
SAPA_FOGBAND
 10
88.006651496767631
 20
15.316198442195001
 30
0.0
 42
-0.1276248526686838
  0
VERTEX
  5
1F40
  8
SAPA_FOGBAND
 10
86.238998988290064
 20
16.557510863880591
 30
0.0
  0
VERTEX
  5
1F41
  8
SAPA_FOGBAND
 10
85.329652464721335
 20
17.62689953645301
 30
0.0
 42
-0.5691506674918112
  0
VERTEX
  5
1F42
  8
SAPA_FOGBAND
 10
85.719888220439429
 20
18.7655907310901
 30
0.0
 42
0.0156300267407041
  0
SEQEND
  5
1F43
  8
SAPA_FOGBAND
  0
POLYLINE
  5
1251
  8
SAPA_FOGBAND
 66
     1
 10
0.0
 20
0.0
 30
0.0
 70
     1
  0
VERTEX
  5
1F44
  8
SAPA_FOGBAND
 10
74.702595001037594
 20
11.6250872958079
 30
0.0
 42
0.3888787318529789
  0
VERTEX
  5
1F45
  8
SAPA_FOGBAND
 10
75.988951195949198
 20
12.61214312031788
 30
0.0
  0
VERTEX
  5
1F46
  8
SAPA_FOGBAND
 10
76.115466130739719
 20
13.329644969904249
 30
0.0
 42
1.0
  0
VERTEX
  5
1F47
  8
SAPA_FOGBAND
 10
76.219655037340203
 20
13.92052962171155
 30
0.0
  0
VERTEX
  5
1F48
  8
SAPA_FOGBAND
 10
76.327058507589868
 20
14.52964496990452
 30
0.0
 42
0.9999999999999067
  0
VERTEX
  5
1F49
  8
SAPA_FOGBAND
 10
76.431247414189897
 20
15.120529621711819
 30
0.0
  0
VERTEX
  5
1F4A
  8
SAPA_FOGBAND
 10
76.492032020851283
 20
15.46525625638068
 30
0.0
 42
-0.3345953195020691
  0
VERTEX
  5
1F4B
  8
SAPA_FOGBAND
 10
78.692730245212374
 20
17.517440550634181
 30
0.0
  0
VERTEX
  5
1F4C
  8
SAPA_FOGBAND
 10
82.706537650224277
 20
17.870548323551329
 30
0.0
 42
-0.2564696513213821
  0
VERTEX
  5
1F4D
  8
SAPA_FOGBAND
 10
85.161031848931202
 20
16.744616157609329
 30
0.0
  0
VERTEX
  5
1F4E
  8
SAPA_FOGBAND
 10
85.705731577562005
 20
16.104050977390749
 30
0.0
 42
0.1276248526686853
  0
VERTEX
  5
1F4F
  8
SAPA_FOGBAND
 10
87.761141471141045
 20
14.660664440547031
 30
0.0
 42
1.0
  0
VERTEX
  5
1F50
  8
SAPA_FOGBAND
 10
89.514784511333914
 20
19.343050166604002
 30
0.0
 42
0.1579553886371977
  0
VERTEX
  5
1F51
  8
SAPA_FOGBAND
 10
85.819884838749317
 20
19.50953262675247
 30
0.0
 42
-0.0604483959424258
  0
VERTEX
  5
1F52
  8
SAPA_FOGBAND
 10
82.429772777764015
 20
19.408440092299401
 30
0.0
  0
VERTEX
  5
1F53
  8
SAPA_FOGBAND
 10
77.272206021396514
 20
19.620520933518119
 30
0.0
 42
-0.3286126757704555
  0
VERTEX
  5
1F54
  8
SAPA_FOGBAND
 10
75.839561914927003
 20
20.676076489073779
 30
0.0
 42
0.2704382184496639
  0
VERTEX
  5
1F55
  8
SAPA_FOGBAND
 10
74.721053389790654
 20
21.589752764213781
 30
0.0
  0
VERTEX
  5
1F56
  8
SAPA_FOGBAND
 10
74.920917154918357
 20
17.720520933518031
 30
0.0
  0
VERTEX
  5
1F57
  8
SAPA_FOGBAND
 10
73.720917154918538
 20
17.720520933518031
 30
0.0
  0
VERTEX
  5
1F58
  8
SAPA_FOGBAND
 10
72.659852749368952
 20
17.666049170478662
 30
0.0
  0
VERTEX
  5
1F59
  8
SAPA_FOGBAND
 10
72.660821759226678
 20
18.21589507928374
 30
0.0
 42
0.6068148963145658
  0
VERTEX
  5
1F5A
  8
SAPA_FOGBAND
 10
72.141230678404213
 20
18.331085648658782
 30
0.0
  0
VERTEX
  5
1F5B
  8
SAPA_FOGBAND
 10
70.764904992514062
 20
16.51567283863832
 30
0.0
 42
0.4400105308918406
  0
VERTEX
  5
1F5C
  8
SAPA_FOGBAND
 10
70.965626246600664
 20
14.99104354739992
 30
0.0
  0
VERTEX
  5
1F5D
  8
SAPA_FOGBAND
 10
72.982589170823417
 20
13.46784216598425
 30
0.0
 42
0.5205670505516999
  0
VERTEX
  5
1F5E
  8
SAPA_FOGBAND
 10
73.444439849615378
 20
13.63594206574029
 30
0.0
  0
VERTEX
  5
1F5F
  8
SAPA_FOGBAND
 10
73.471035480650343
 20
14.380781177172899
 30
0.0
  0
VERTEX
  5
1F60
  8
SAPA_FOGBAND
 10
74.760948289498742
 20
14.181270233718889
 30
0.0
  0
SEQEND
  5
1F61
  8
SAPA_FOGBAND
  0
CIRCLE
  5
1252
  8
SAPA_FOGBAND
 10
76.31611260359216
 20
18.201663369532611
 30
0.0
 40
0.3
  0
POLYLINE
  5
1253
  8
SAPA_FOGBAND
 66
     1
 10
0.0
 20
0.0
 30
0.0
 70
     1
  0
VERTEX
  5
1F62
  8
SAPA_FOGBAND
 10
72.507464886196544
 20
15.02052093351821
 30
0.0
  0
VERTEX
  5
1F63
  8
SAPA_FOGBAND
 10
74.420917154918357
 20
15.02052093351821
 30
0.0
 42
0.4142135623730951
  0
VERTEX
  5
1F64
  8
SAPA_FOGBAND
 10
74.920917154918357
 20
15.52052093351821
 30
0.0
  0
VERTEX
  5
1F65
  8
SAPA_FOGBAND
 10
74.920917154918357
 20
16.32052093351794
 30
0.0
 42
0.4142135623730951
  0
VERTEX
  5
1F66
  8
SAPA_FOGBAND
 10
74.420917154918357
 20
16.82052093351794
 30
0.0
  0
VERTEX
  5
1F67
  8
SAPA_FOGBAND
 10
72.344813342852035
 20
16.82052093351794
 30
0.0
 42
0.2216946626429447
  0
VERTEX
  5
1F68
  8
SAPA_FOGBAND
 10
71.885186676980183
 20
16.606193499330029
 30
0.0
  0
VERTEX
  5
1F69
  8
SAPA_FOGBAND
 10
71.525049629687715
 20
16.17699887939315
 30
0.0
 42
0.4400105308918337
  0
VERTEX
  5
1F6A
  8
SAPA_FOGBAND
 10
71.612214312629135
 20
15.514917380459419
 30
0.0
  0
VERTEX
  5
1F6B
  8
SAPA_FOGBAND
 10
72.163319024385714
 20
15.12902970694458
 30
0.0
 42
0.153914721059829
  0
SEQEND
  5
1F6C
  8
SAPA_FOGBAND
  0
POLYLINE
  5
1254
  8
SAPA_FOGBAND
 66
     1
 10
0.0
 20
0.0
 30
0.0
 70
     1
  0
VERTEX
  5
1F6D
  8
SAPA_FOGBAND
 10
93.961691587553617
 20
3.6000000000012249
 30
0.0
  0
VERTEX
  5
1F6E
  8
SAPA_FOGBAND
 10
93.961691587553617
 20
2.6000000000012249
 30
0.0
 42
-0.9999999999999998
  0
VERTEX
  5
1F6F
  8
SAPA_FOGBAND
 10
92.757532129674374
 20
2.6000000000012249
 30
0.0
  0
VERTEX
  5
1F70
  8
SAPA_FOGBAND
 10
92.757532129674374
 20
3.6000000000012249
 30
0.0
 42
-0.9999999999999998
  0
SEQEND
  5
1F71
  8
SAPA_FOGBAND
  0
POLYLINE
  5
1255
  8
SAPA_FOGBAND
 66
     1
 10
0.0
 20
0.0
 30
0.0
 70
     1
  0
VERTEX
  5
1F72
  8
SAPA_FOGBAND
 10
91.392327582428734
 20
2.6761477026448972
 30
0.0
  0
VERTEX
  5
1F73
  8
SAPA_FOGBAND
 10
92.250386292738199
 20
1.290382615699359
 30
0.0
 42
0.2528723899644565
  0
VERTEX
  5
1F74
  8
SAPA_FOGBAND
 10
92.417670568923441
 20
1.200000000001223
 30
0.0
  0
VERTEX
  5
1F75
  8
SAPA_FOGBAND
 10
94.301553148304521
 20
1.200000000001223
 30
0.0
 42
0.2528723899644564
  0
VERTEX
  5
1F76
  8
SAPA_FOGBAND
 10
94.468837424489763
 20
1.290382615699359
 30
0.0
  0
VERTEX
  5
1F77
  8
SAPA_FOGBAND
 10
95.326896134799213
 20
2.6761477026448972
 30
0.0
 42
0.5108224790788402
  0
VERTEX
  5
1F78
  8
SAPA_FOGBAND
 10
95.211375667634485
 20
2.9789502522045739
 30
0.0
  0
VERTEX
  5
1F79
  8
SAPA_FOGBAND
 10
94.809611858613991
 20
3.1000000000012249
 30
0.0
  0
VERTEX
  5
1F7A
  8
SAPA_FOGBAND
 10
94.809611858613991
 20
4.2000000000012241
 30
0.0
  0
VERTEX
  5
1F7B
  8
SAPA_FOGBAND
 10
96.674346462472258
 20
4.2000000000012241
 30
0.0
 42
0.0874886635259237
  0
VERTEX
  5
1F7C
  8
SAPA_FOGBAND
 10
96.742750491137386
 20
4.2120614758440409
 30
0.0
  0
VERTEX
  5
1F7D
  8
SAPA_FOGBAND
 10
100.2754946371775
 20
4.7678751902808152
 30
0.0
 42
0.9391885369168745
  0
VERTEX
  5
1F7E
  8
SAPA_FOGBAND
 10
100.162728667446
 20
5.1508317089534383
 30
0.0
  0
VERTEX
  5
1F7F
  8
SAPA_FOGBAND
 10
96.290534862209043
 20
5.0000000000012248
 30
0.0
  0
VERTEX
  5
1F80
  8
SAPA_FOGBAND
 10
95.460359895360398
 20
5.1947157805758604
 30
0.0
 42
0.0576596372120268
  0
VERTEX
  5
1F81
  8
SAPA_FOGBAND
 10
95.414689721338263
 20
5.2000000000012259
 30
0.0
  0
VERTEX
  5
1F82
  8
SAPA_FOGBAND
 10
91.009611858613994
 20
5.2000000000012241
 30
0.0
 42
0.4142135623730951
  0
VERTEX
  5
1F83
  8
SAPA_FOGBAND
 10
90.409611858613985
 20
4.6000000000012253
 30
0.0
  0
VERTEX
  5
1F84
  8
SAPA_FOGBAND
 10
90.409611858613985
 20
4.4000000000012243
 30
0.0
 42
0.4142135623730951
  0
VERTEX
  5
1F85
  8
SAPA_FOGBAND
 10
90.609611858613988
 20
4.2000000000012241
 30
0.0
  0
VERTEX
  5
1F86
  8
SAPA_FOGBAND
 10
91.909611858613985
 20
4.2000000000012241
 30
0.0
  0
VERTEX
  5
1F87
  8
SAPA_FOGBAND
 10
91.909611858613985
 20
3.1000000000012249
 30
0.0
  0
VERTEX
  5
1F88
  8
SAPA_FOGBAND
 10
91.507848049593477
 20
2.9789502522045739
 30
0.0
 42
0.51082247907884
  0
SEQEND
  5
1F89
  8
SAPA_FOGBAND
  0
POLYLINE
  5
1256
  8
SAPA_FOGBAND
 66
     1
 10
0.0
 20
0.0
 30
0.0000000195376815
 70
     1
  0
VERTEX
  5
1F8A
  8
SAPA_FOGBAND
 10
72.087868548878973
 20
92.750080442902771
 30
0.0000000195376815
  0
VERTEX
  5
1F8B
  8
SAPA_FOGBAND
 10
71.987868548878978
 20
92.750080442902771
 30
0.0000000195376815
 42
0.4142135623730959
  0
VERTEX
  5
1F8C
  8
SAPA_FOGBAND
 10
71.287868548878976
 20
92.050080442902797
 30
0.0000000195376815
  0
VERTEX
  5
1F8D
  8
SAPA_FOGBAND
 10
71.287868548878961
 20
90.950080442902788
 30
0.0000000195376815
 42
0.4142135623730961
  0
VERTEX
  5
1F8E
  8
SAPA_FOGBAND
 10
71.487868548878978
 20
90.750080442902757
 30
0.0000000195376815
  0
VERTEX
  5
1F8F
  8
SAPA_FOGBAND
 10
72.587868548878973
 20
90.750080442902757
 30
0.0000000195376815
 42
0.4142135623730956
  0
VERTEX
  5
1F90
  8
SAPA_FOGBAND
 10
72.78786854887899
 20
90.950080442902788
 30
0.0000000195376815
  0
VERTEX
  5
1F91
  8
SAPA_FOGBAND
 10
72.787868548878961
 20
92.050080442902797
 30
0.0000000195376815
 42
0.4142135623730946
  0
SEQEND
  5
1F92
  8
SAPA_FOGBAND
  0
POLYLINE
  5
1257
  8
SAPA_FOGBAND
 66
     1
 10
0.0
 20
0.0
 30
0.0000000195376815
 70
     1
  0
VERTEX
  5
1F93
  8
SAPA_FOGBAND
 10
73.587868548878973
 20
91.450080442902774
 30
0.0000000195376815
  0
VERTEX
  5
1F94
  8
SAPA_FOGBAND
 10
73.587868548878973
 20
90.802314877629698
 30
0.0000000195376815
 42
0.4416942457848324
  0
VERTEX
  5
1F95
  8
SAPA_FOGBAND
 10
73.806422908506889
 20
90.603177398136737
 30
0.0000000195376815
  0
VERTEX
  5
1F96
  8
SAPA_FOGBAND
 10
74.769314189251062
 20
90.692893463394796
 30
0.0000000195376815
 42
-0.4416942457847888
  0
VERTEX
  5
1F97
  8
SAPA_FOGBAND
 10
74.987868548878978
 20
90.493755983901877
 30
0.0000000195376815
  0
VERTEX
  5
1F98
  8
SAPA_FOGBAND
 10
74.987868548878978
 20
89.943773644310312
 30
0.0000000195376815
 42
-0.5445962197109612
  0
VERTEX
  5
1F99
  8
SAPA_FOGBAND
 10
74.282189503473901
 20
89.488036735248485
 30
0.0000000195376815
  0
VERTEX
  5
1F9A
  8
SAPA_FOGBAND
 10
73.923138350188637
 20
89.650080442902777
 30
0.0000000195376815
  0
VERTEX
  5
1F9B
  8
SAPA_FOGBAND
 10
72.450179111440747
 20
89.650080442902777
 30
0.0000000195376815
 42
-0.3364379234965429
  0
VERTEX
  5
1F9C
  8
SAPA_FOGBAND
 10
71.378435381825895
 20
89.837587260744527
 30
0.0000000195376815
  0
VERTEX
  5
1F9D
  8
SAPA_FOGBAND
 10
70.816571746002197
 20
89.837587260744527
 30
0.0000000195376815
 42
0.1919812372740509
  0
VERTEX
  5
1F9E
  8
SAPA_FOGBAND
 10
70.472584698402144
 20
89.700454882727257
 30
0.0000000195376815
  0
VERTEX
  5
1F9F
  8
SAPA_FOGBAND
 10
70.080717767998891
 20
89.328977406437147
 30
0.0000000195376815
 42
0.7712067734688043
  0
VERTEX
  5
1FA0
  8
SAPA_FOGBAND
 10
72.653149467873007
 20
86.519343410756505
 30
0.0000000195376815
 42
0.152544453744271
  0
VERTEX
  5
1FA1
  8
SAPA_FOGBAND
 10
73.522575217713182
 20
87.411218679510284
 30
0.0000000195376815
 42
-0.6229515670381967
  0
VERTEX
  5
1FA2
  8
SAPA_FOGBAND
 10
73.997515402488915
 20
87.311336395687761
 30
0.0000000195376815
 42
-0.2412896305485237
  0
VERTEX
  5
1FA3
  8
SAPA_FOGBAND
 10
73.9607641311908
 20
86.907871581345617
 30
0.0000000195376815
 42
-0.0924947384438033
  0
VERTEX
  5
1FA4
  8
SAPA_FOGBAND
 10
73.338771222460522
 20
86.217371169304201
 30
0.0000000195376815
 42
-0.8622191196043894
  0
VERTEX
  5
1FA5
  8
SAPA_FOGBAND
 10
69.514900068719228
 20
89.793282921280053
 30
0.0000000195376815
  0
VERTEX
  5
1FA6
  8
SAPA_FOGBAND
 10
69.084340930837968
 20
89.908650894569163
 30
0.0000000195376815
 42
-0.9163311740173991
  0
VERTEX
  5
1FA7
  8
SAPA_FOGBAND
 10
69.222730845978063
 20
90.693499104321489
 30
0.0000000195376815
  0
VERTEX
  5
1FA8
  8
SAPA_FOGBAND
 10
70.270437400329442
 20
90.601836658113967
 30
0.0000000195376815
 42
0.4400105308918151
  0
VERTEX
  5
1FA9
  8
SAPA_FOGBAND
 10
70.487868548878978
 20
90.801075597732293
 30
0.0000000195376815
  0
VERTEX
  5
1FAA
  8
SAPA_FOGBAND
 10
70.487868548878978
 20
91.650080442902777
 30
0.0000000195376815
  0
VERTEX
  5
1FAB
  8
SAPA_FOGBAND
 10
70.087868548878973
 20
91.650080442902777
 30
0.0000000195376815
 42
-0.5693809839207585
  0
VERTEX
  5
1FAC
  8
SAPA_FOGBAND
 10
69.912314503315443
 20
91.945896814605405
 30
0.0000000195376815
  0
VERTEX
  5
1FAD
  8
SAPA_FOGBAND
 10
70.617280103214469
 20
93.237529558010721
 30
0.0000000195376815
 42
-0.2743878130875472
  0
VERTEX
  5
1FAE
  8
SAPA_FOGBAND
 10
71.143942239905201
 20
93.550080442902768
 30
0.0000000195376815
  0
VERTEX
  5
1FAF
  8
SAPA_FOGBAND
 10
72.931794857852751
 20
93.550080442902768
 30
0.0000000195376815
 42
-0.2743878130875473
  0
VERTEX
  5
1FB0
  8
SAPA_FOGBAND
 10
73.458456994543468
 20
93.237529558010706
 30
0.0000000195376815
  0
VERTEX
  5
1FB1
  8
SAPA_FOGBAND
 10
74.163422594442565
 20
91.945896814605447
 30
0.0000000195376815
 42
-0.5693809839208271
  0
VERTEX
  5
1FB2
  8
SAPA_FOGBAND
 10
73.987868548878978
 20
91.650080442902734
 30
0.0000000195376815
  0
VERTEX
  5
1FB3
  8
SAPA_FOGBAND
 10
73.587868548878973
 20
91.650080442902777
 30
0.0000000195376815
  0
VERTEX
  5
1FB4
  8
SAPA_FOGBAND
 10
73.587868548878973
 20
90.801075597732293
 30
0.0000000195376815
  0
SEQEND
  5
1FB5
  8
SAPA_FOGBAND
  0
POLYLINE
  5
1258
  8
SAPA_FOGBAND
 62
     2
 10
126.9737854460864
 20
58.288806227786971
 30
0.0
 66
     1
 70
     8
  0
VERTEX
  8
SAPA_FOGBAND
  5
1FDA
 10
126.974
 20
58.2888
 30
0.000000
  70
    32
  0
VERTEX
  8
SAPA_FOGBAND
  5
1FDB
 10
126.971
 20
58.2201
 30
0.000000
  70
    32
  0
VERTEX
  8
SAPA_FOGBAND
  5
1FDC
 10
126.963
 20
58.1516
 30
0.000000
  70
    32
  0
VERTEX
  8
SAPA_FOGBAND
  5
1FDD
 10
126.950
 20
58.0834
 30
0.000000
  70
    32
  0
VERTEX
  8
SAPA_FOGBAND
  5
1FDE
 10
126.932
 20
58.0157
 30
0.000000
  70
    32
  0
VERTEX
  8
SAPA_FOGBAND
  5
1FDF
 10
126.909
 20
57.9486
 30
0.000000
  70
    32
  0
VERTEX
  8
SAPA_FOGBAND
  5
1FE0
 10
126.880
 20
57.8824
 30
0.000000
  70
    32
  0
VERTEX
  8
SAPA_FOGBAND
  5
1FE1
 10
126.847
 20
57.8172
 30
0.000000
  70
    32
  0
VERTEX
  8
SAPA_FOGBAND
  5
1FE2
 10
126.809
 20
57.7530
 30
0.000000
  70
    32
  0
VERTEX
  8
SAPA_FOGBAND
  5
1FE3
 10
126.766
 20
57.6902
 30
0.000000
  70
    32
  0
VERTEX
  8
SAPA_FOGBAND
  5
1FE4
 10
126.718
 20
57.6289
 30
0.000000
  70
    32
  0
VERTEX
  8
SAPA_FOGBAND
  5
1FE5
 10
126.665
 20
57.5691
 30
0.000000
  70
    32
  0
VERTEX
  8
SAPA_FOGBAND
  5
1FE6
 10
126.608
 20
57.5110
 30
0.000000
  70
    32
  0
VERTEX
  8
SAPA_FOGBAND
  5
1FE7
 10
126.547
 20
57.4548
 30
0.000000
  70
    32
  0
VERTEX
  8
SAPA_FOGBAND
  5
1FE8
 10
126.482
 20
57.4007
 30
0.000000
  70
    32
  0
VERTEX
  8
SAPA_FOGBAND
  5
1FE9
 10
126.412
 20
57.3486
 30
0.000000
  70
    32
  0
VERTEX
  8
SAPA_FOGBAND
  5
1FEA
 10
126.339
 20
57.2989
 30
0.000000
  70
    32
  0
VERTEX
  8
SAPA_FOGBAND
  5
1FEB
 10
126.262
 20
57.2515
 30
0.000000
  70
    32
  0
VERTEX
  8
SAPA_FOGBAND
  5
1FEC
 10
126.181
 20
57.2066
 30
0.000000
  70
    32
  0
VERTEX
  8
SAPA_FOGBAND
  5
1FED
 10
126.097
 20
57.1643
 30
0.000000
  70
    32
  0
VERTEX
  8
SAPA_FOGBAND
  5
1FEE
 10
126.010
 20
57.1247
 30
0.000000
  70
    32
  0
VERTEX
  8
SAPA_FOGBAND
  5
1FEF
 10
125.920
 20
57.0880
 30
0.000000
  70
    32
  0
VERTEX
  8
SAPA_FOGBAND
  5
1FF0
 10
125.828
 20
57.0541
 30
0.000000
  70
    32
  0
VERTEX
  8
SAPA_FOGBAND
  5
1FF1
 10
125.733
 20
57.0232
 30
0.000000
  70
    32
  0
VERTEX
  8
SAPA_FOGBAND
  5
1FF2
 10
125.636
 20
56.9954
 30
0.000000
  70
    32
  0
VERTEX
  8
SAPA_FOGBAND
  5
1FF3
 10
125.536
 20
56.9706
 30
0.000000
  70
    32
  0
VERTEX
  8
SAPA_FOGBAND
  5
1FF4
 10
125.435
 20
56.9491
 30
0.000000
  70
    32
  0
VERTEX
  8
SAPA_FOGBAND
  5
1FF5
 10
125.333
 20
56.9308
 30
0.000000
  70
    32
  0
VERTEX
  8
SAPA_FOGBAND
  5
1FF6
 10
125.229
 20
56.9157
 30
0.000000
  70
    32
  0
VERTEX
  8
SAPA_FOGBAND
  5
1FF7
 10
125.124
 20
56.9040
 30
0.000000
  70
    32
  0
VERTEX
  8
SAPA_FOGBAND
  5
1FF8
 10
125.018
 20
56.8955
 30
0.000000
  70
    32
  0
VERTEX
  8
SAPA_FOGBAND
  5
1FF9
 10
124.912
 20
56.8905
 30
0.000000
  70
    32
  0
VERTEX
  8
SAPA_FOGBAND
  5
1FFA
 10
124.806
 20
56.8888
 30
0.000000
  70
    32
  0
VERTEX
  8
SAPA_FOGBAND
  5
1FFB
 10
124.700
 20
56.8905
 30
0.000000
  70
    32
  0
VERTEX
  8
SAPA_FOGBAND
  5
1FFC
 10
124.594
 20
56.8955
 30
0.000000
  70
    32
  0
VERTEX
  8
SAPA_FOGBAND
  5
1FFD
 10
124.488
 20
56.9040
 30
0.000000
  70
    32
  0
VERTEX
  8
SAPA_FOGBAND
  5
1FFE
 10
124.383
 20
56.9157
 30
0.000000
  70
    32
  0
VERTEX
  8
SAPA_FOGBAND
  5
1FFF
 10
124.279
 20
56.9308
 30
0.000000
  70
    32
  0
VERTEX
  8
SAPA_FOGBAND
  5
2000
 10
124.177
 20
56.9491
 30
0.000000
  70
    32
  0
VERTEX
  8
SAPA_FOGBAND
  5
2001
 10
124.076
 20
56.9706
 30
0.000000
  70
    32
  0
VERTEX
  8
SAPA_FOGBAND
  5
2002
 10
123.976
 20
56.9954
 30
0.000000
  70
    32
  0
VERTEX
  8
SAPA_FOGBAND
  5
2003
 10
123.879
 20
57.0232
 30
0.000000
  70
    32
  0
VERTEX
  8
SAPA_FOGBAND
  5
2004
 10
123.784
 20
57.0541
 30
0.000000
  70
    32
  0
VERTEX
  8
SAPA_FOGBAND
  5
2005
 10
123.692
 20
57.0880
 30
0.000000
  70
    32
  0
VERTEX
  8
SAPA_FOGBAND
  5
2006
 10
123.602
 20
57.1247
 30
0.000000
  70
    32
  0
VERTEX
  8
SAPA_FOGBAND
  5
2007
 10
123.515
 20
57.1643
 30
0.000000
  70
    32
  0
VERTEX
  8
SAPA_FOGBAND
  5
2008
 10
123.431
 20
57.2066
 30
0.000000
  70
    32
  0
VERTEX
  8
SAPA_FOGBAND
  5
2009
 10
123.350
 20
57.2515
 30
0.000000
  70
    32
  0
VERTEX
  8
SAPA_FOGBAND
  5
200A
 10
123.273
 20
57.2989
 30
0.000000
  70
    32
  0
VERTEX
  8
SAPA_FOGBAND
  5
200B
 10
123.200
 20
57.3486
 30
0.000000
  70
    32
  0
VERTEX
  8
SAPA_FOGBAND
  5
200C
 10
123.130
 20
57.4007
 30
0.000000
  70
    32
  0
VERTEX
  8
SAPA_FOGBAND
  5
200D
 10
123.065
 20
57.4548
 30
0.000000
  70
    32
  0
VERTEX
  8
SAPA_FOGBAND
  5
200E
 10
123.004
 20
57.5110
 30
0.000000
  70
    32
  0
VERTEX
  8
SAPA_FOGBAND
  5
200F
 10
122.947
 20
57.5691
 30
0.000000
  70
    32
  0
VERTEX
  8
SAPA_FOGBAND
  5
2010
 10
122.894
 20
57.6289
 30
0.000000
  70
    32
  0
VERTEX
  8
SAPA_FOGBAND
  5
2011
 10
122.846
 20
57.6902
 30
0.000000
  70
    32
  0
VERTEX
  8
SAPA_FOGBAND
  5
2012
 10
122.803
 20
57.7530
 30
0.000000
  70
    32
  0
VERTEX
  8
SAPA_FOGBAND
  5
2013
 10
122.765
 20
57.8172
 30
0.000000
  70
    32
  0
VERTEX
  8
SAPA_FOGBAND
  5
2014
 10
122.732
 20
57.8824
 30
0.000000
  70
    32
  0
VERTEX
  8
SAPA_FOGBAND
  5
2015
 10
122.703
 20
57.9486
 30
0.000000
  70
    32
  0
VERTEX
  8
SAPA_FOGBAND
  5
2016
 10
122.680
 20
58.0157
 30
0.000000
  70
    32
  0
VERTEX
  8
SAPA_FOGBAND
  5
2017
 10
122.662
 20
58.0834
 30
0.000000
  70
    32
  0
VERTEX
  8
SAPA_FOGBAND
  5
2018
 10
122.649
 20
58.1516
 30
0.000000
  70
    32
  0
VERTEX
  8
SAPA_FOGBAND
  5
2019
 10
122.641
 20
58.2201
 30
0.000000
  70
    32
  0
VERTEX
  8
SAPA_FOGBAND
  5
201A
 10
122.638
 20
58.2888
 30
0.000000
  70
    32
  0
VERTEX
  8
SAPA_FOGBAND
  5
201B
 10
122.641
 20
58.3575
 30
0.000000
  70
    32
  0
VERTEX
  8
SAPA_FOGBAND
  5
201C
 10
122.649
 20
58.4260
 30
0.000000
  70
    32
  0
VERTEX
  8
SAPA_FOGBAND
  5
201D
 10
122.662
 20
58.4942
 30
0.000000
  70
    32
  0
VERTEX
  8
SAPA_FOGBAND
  5
201E
 10
122.680
 20
58.5619
 30
0.000000
  70
    32
  0
VERTEX
  8
SAPA_FOGBAND
  5
201F
 10
122.703
 20
58.6290
 30
0.000000
  70
    32
  0
VERTEX
  8
SAPA_FOGBAND
  5
2020
 10
122.732
 20
58.6952
 30
0.000000
  70
    32
  0
VERTEX
  8
SAPA_FOGBAND
  5
2021
 10
122.765
 20
58.7605
 30
0.000000
  70
    32
  0
VERTEX
  8
SAPA_FOGBAND
  5
2022
 10
122.803
 20
58.8246
 30
0.000000
  70
    32
  0
VERTEX
  8
SAPA_FOGBAND
  5
2023
 10
122.846
 20
58.8874
 30
0.000000
  70
    32
  0
VERTEX
  8
SAPA_FOGBAND
  5
2024
 10
122.894
 20
58.9488
 30
0.000000
  70
    32
  0
VERTEX
  8
SAPA_FOGBAND
  5
2025
 10
122.947
 20
59.0086
 30
0.000000
  70
    32
  0
VERTEX
  8
SAPA_FOGBAND
  5
2026
 10
123.004
 20
59.0666
 30
0.000000
  70
    32
  0
VERTEX
  8
SAPA_FOGBAND
  5
2027
 10
123.065
 20
59.1228
 30
0.000000
  70
    32
  0
VERTEX
  8
SAPA_FOGBAND
  5
2028
 10
123.130
 20
59.1770
 30
0.000000
  70
    32
  0
VERTEX
  8
SAPA_FOGBAND
  5
2029
 10
123.200
 20
59.2290
 30
0.000000
  70
    32
  0
VERTEX
  8
SAPA_FOGBAND
  5
202A
 10
123.273
 20
59.2788
 30
0.000000
  70
    32
  0
VERTEX
  8
SAPA_FOGBAND
  5
202B
 10
123.350
 20
59.3261
 30
0.000000
  70
    32
  0
VERTEX
  8
SAPA_FOGBAND
  5
202C
 10
123.431
 20
59.3710
 30
0.000000
  70
    32
  0
VERTEX
  8
SAPA_FOGBAND
  5
202D
 10
123.515
 20
59.4133
 30
0.000000
  70
    32
  0
VERTEX
  8
SAPA_FOGBAND
  5
202E
 10
123.602
 20
59.4529
 30
0.000000
  70
    32
  0
VERTEX
  8
SAPA_FOGBAND
  5
202F
 10
123.692
 20
59.4896
 30
0.000000
  70
    32
  0
VERTEX
  8
SAPA_FOGBAND
  5
2030
 10
123.784
 20
59.5235
 30
0.000000
  70
    32
  0
VERTEX
  8
SAPA_FOGBAND
  5
2031
 10
123.879
 20
59.5544
 30
0.000000
  70
    32
  0
VERTEX
  8
SAPA_FOGBAND
  5
2032
 10
123.976
 20
59.5822
 30
0.000000
  70
    32
  0
VERTEX
  8
SAPA_FOGBAND
  5
2033
 10
124.076
 20
59.6070
 30
0.000000
  70
    32
  0
VERTEX
  8
SAPA_FOGBAND
  5
2034
 10
124.177
 20
59.6285
 30
0.000000
  70
    32
  0
VERTEX
  8
SAPA_FOGBAND
  5
2035
 10
124.279
 20
59.6468
 30
0.000000
  70
    32
  0
VERTEX
  8
SAPA_FOGBAND
  5
2036
 10
124.383
 20
59.6619
 30
0.000000
  70
    32
  0
VERTEX
  8
SAPA_FOGBAND
  5
2037
 10
124.488
 20
59.6737
 30
0.000000
  70
    32
  0
VERTEX
  8
SAPA_FOGBAND
  5
2038
 10
124.594
 20
59.6821
 30
0.000000
  70
    32
  0
VERTEX
  8
SAPA_FOGBAND
  5
2039
 10
124.700
 20
59.6871
 30
0.000000
  70
    32
  0
VERTEX
  8
SAPA_FOGBAND
  5
203A
 10
124.806
 20
59.6888
 30
0.000000
  70
    32
  0
VERTEX
  8
SAPA_FOGBAND
  5
203B
 10
124.912
 20
59.6871
 30
0.000000
  70
    32
  0
VERTEX
  8
SAPA_FOGBAND
  5
203C
 10
125.018
 20
59.6821
 30
0.000000
  70
    32
  0
VERTEX
  8
SAPA_FOGBAND
  5
203D
 10
125.124
 20
59.6737
 30
0.000000
  70
    32
  0
VERTEX
  8
SAPA_FOGBAND
  5
203E
 10
125.229
 20
59.6619
 30
0.000000
  70
    32
  0
VERTEX
  8
SAPA_FOGBAND
  5
203F
 10
125.333
 20
59.6468
 30
0.000000
  70
    32
  0
VERTEX
  8
SAPA_FOGBAND
  5
2040
 10
125.435
 20
59.6285
 30
0.000000
  70
    32
  0
VERTEX
  8
SAPA_FOGBAND
  5
2041
 10
125.536
 20
59.6070
 30
0.000000
  70
    32
  0
VERTEX
  8
SAPA_FOGBAND
  5
2042
 10
125.636
 20
59.5822
 30
0.000000
  70
    32
  0
VERTEX
  8
SAPA_FOGBAND
  5
2043
 10
125.733
 20
59.5544
 30
0.000000
  70
    32
  0
VERTEX
  8
SAPA_FOGBAND
  5
2044
 10
125.828
 20
59.5235
 30
0.000000
  70
    32
  0
VERTEX
  8
SAPA_FOGBAND
  5
2045
 10
125.920
 20
59.4896
 30
0.000000
  70
    32
  0
VERTEX
  8
SAPA_FOGBAND
  5
2046
 10
126.010
 20
59.4529
 30
0.000000
  70
    32
  0
VERTEX
  8
SAPA_FOGBAND
  5
2047
 10
126.097
 20
59.4133
 30
0.000000
  70
    32
  0
VERTEX
  8
SAPA_FOGBAND
  5
2048
 10
126.181
 20
59.3710
 30
0.000000
  70
    32
  0
VERTEX
  8
SAPA_FOGBAND
  5
2049
 10
126.262
 20
59.3261
 30
0.000000
  70
    32
  0
VERTEX
  8
SAPA_FOGBAND
  5
204A
 10
126.339
 20
59.2788
 30
0.000000
  70
    32
  0
VERTEX
  8
SAPA_FOGBAND
  5
204B
 10
126.412
 20
59.2290
 30
0.000000
  70
    32
  0
VERTEX
  8
SAPA_FOGBAND
  5
204C
 10
126.482
 20
59.1770
 30
0.000000
  70
    32
  0
VERTEX
  8
SAPA_FOGBAND
  5
204D
 10
126.547
 20
59.1228
 30
0.000000
  70
    32
  0
VERTEX
  8
SAPA_FOGBAND
  5
204E
 10
126.608
 20
59.0666
 30
0.000000
  70
    32
  0
VERTEX
  8
SAPA_FOGBAND
  5
204F
 10
126.665
 20
59.0086
 30
0.000000
  70
    32
  0
VERTEX
  8
SAPA_FOGBAND
  5
2050
 10
126.718
 20
58.9488
 30
0.000000
  70
    32
  0
VERTEX
  8
SAPA_FOGBAND
  5
2051
 10
126.766
 20
58.8874
 30
0.000000
  70
    32
  0
VERTEX
  8
SAPA_FOGBAND
  5
2052
 10
126.809
 20
58.8246
 30
0.000000
  70
    32
  0
VERTEX
  8
SAPA_FOGBAND
  5
2053
 10
126.847
 20
58.7605
 30
0.000000
  70
    32
  0
VERTEX
  8
SAPA_FOGBAND
  5
2054
 10
126.880
 20
58.6952
 30
0.000000
  70
    32
  0
VERTEX
  8
SAPA_FOGBAND
  5
2055
 10
126.909
 20
58.6290
 30
0.000000
  70
    32
  0
VERTEX
  8
SAPA_FOGBAND
  5
2056
 10
126.932
 20
58.5619
 30
0.000000
  70
    32
  0
VERTEX
  8
SAPA_FOGBAND
  5
2057
 10
126.950
 20
58.4942
 30
0.000000
  70
    32
  0
VERTEX
  8
SAPA_FOGBAND
  5
2058
 10
126.963
 20
58.4260
 30
0.000000
  70
    32
  0
VERTEX
  8
SAPA_FOGBAND
  5
2059
 10
126.971
 20
58.3575
 30
0.000000
  70
    32
  0
VERTEX
  8
SAPA_FOGBAND
  5
205A
 10
126.974
 20
58.2888
 30
0.000000
  70
    32
  0
SEQEND
  8
SAPA_FOGBAND
  5
205B
  0
POLYLINE
  5
1259
  8
SAPA_FOGBAND
 62
     2
 10
136.49118830513754
 20
60.023592250519911
 30
0.0
 66
     1
 70
     8
  0
VERTEX
  8
SAPA_FOGBAND
  5
205C
 10
136.491
 20
60.0236
 30
0.000000
  70
    32
  0
VERTEX
  8
SAPA_FOGBAND
  5
205D
 10
136.487
 20
59.9353
 30
0.000000
  70
    32
  0
VERTEX
  8
SAPA_FOGBAND
  5
205E
 10
136.476
 20
59.8472
 30
0.000000
  70
    32
  0
VERTEX
  8
SAPA_FOGBAND
  5
205F
 10
136.458
 20
59.7595
 30
0.000000
  70
    32
  0
VERTEX
  8
SAPA_FOGBAND
  5
2060
 10
136.432
 20
59.6724
 30
0.000000
  70
    32
  0
VERTEX
  8
SAPA_FOGBAND
  5
2061
 10
136.399
 20
59.5862
 30
0.000000
  70
    32
  0
VERTEX
  8
SAPA_FOGBAND
  5
2062
 10
136.358
 20
59.5011
 30
0.000000
  70
    32
  0
VERTEX
  8
SAPA_FOGBAND
  5
2063
 10
136.311
 20
59.4172
 30
0.000000
  70
    32
  0
VERTEX
  8
SAPA_FOGBAND
  5
2064
 10
136.256
 20
59.3348
 30
0.000000
  70
    32
  0
VERTEX
  8
SAPA_FOGBAND
  5
2065
 10
136.195
 20
59.2540
 30
0.000000
  70
    32
  0
VERTEX
  8
SAPA_FOGBAND
  5
2066
 10
136.127
 20
59.1751
 30
0.000000
  70
    32
  0
VERTEX
  8
SAPA_FOGBAND
  5
2067
 10
136.052
 20
59.0982
 30
0.000000
  70
    32
  0
VERTEX
  8
SAPA_FOGBAND
  5
2068
 10
135.971
 20
59.0236
 30
0.000000
  70
    32
  0
VERTEX
  8
SAPA_FOGBAND
  5
2069
 10
135.884
 20
58.9513
 30
0.000000
  70
    32
  0
VERTEX
  8
SAPA_FOGBAND
  5
206A
 10
135.791
 20
58.8817
 30
0.000000
  70
    32
  0
VERTEX
  8
SAPA_FOGBAND
  5
206B
 10
135.692
 20
58.8148
 30
0.000000
  70
    32
  0
VERTEX
  8
SAPA_FOGBAND
  5
206C
 10
135.588
 20
58.7508
 30
0.000000
  70
    32
  0
VERTEX
  8
SAPA_FOGBAND
  5
206D
 10
135.478
 20
58.6899
 30
0.000000
  70
    32
  0
VERTEX
  8
SAPA_FOGBAND
  5
206E
 10
135.363
 20
58.6322
 30
0.000000
  70
    32
  0
VERTEX
  8
SAPA_FOGBAND
  5
206F
 10
135.244
 20
58.5778
 30
0.000000
  70
    32
  0
VERTEX
  8
SAPA_FOGBAND
  5
2070
 10
135.120
 20
58.5269
 30
0.000000
  70
    32
  0
VERTEX
  8
SAPA_FOGBAND
  5
2071
 10
134.992
 20
58.4797
 30
0.000000
  70
    32
  0
VERTEX
  8
SAPA_FOGBAND
  5
2072
 10
134.860
 20
58.4361
 30
0.000000
  70
    32
  0
VERTEX
  8
SAPA_FOGBAND
  5
2073
 10
134.725
 20
58.3964
 30
0.000000
  70
    32
  0
VERTEX
  8
SAPA_FOGBAND
  5
2074
 10
134.587
 20
58.3606
 30
0.000000
  70
    32
  0
VERTEX
  8
SAPA_FOGBAND
  5
2075
 10
134.445
 20
58.3288
 30
0.000000
  70
    32
  0
VERTEX
  8
SAPA_FOGBAND
  5
2076
 10
134.302
 20
58.3011
 30
0.000000
  70
    32
  0
VERTEX
  8
SAPA_FOGBAND
  5
2077
 10
134.156
 20
58.2775
 30
0.000000
  70
    32
  0
VERTEX
  8
SAPA_FOGBAND
  5
2078
 10
134.008
 20
58.2582
 30
0.000000
  70
    32
  0
VERTEX
  8
SAPA_FOGBAND
  5
2079
 10
133.859
 20
58.2431
 30
0.000000
  70
    32
  0
VERTEX
  8
SAPA_FOGBAND
  5
207A
 10
133.708
 20
58.2323
 30
0.000000
  70
    32
  0
VERTEX
  8
SAPA_FOGBAND
  5
207B
 10
133.557
 20
58.2258
 30
0.000000
  70
    32
  0
VERTEX
  8
SAPA_FOGBAND
  5
207C
 10
133.406
 20
58.2236
 30
0.000000
  70
    32
  0
VERTEX
  8
SAPA_FOGBAND
  5
207D
 10
133.255
 20
58.2258
 30
0.000000
  70
    32
  0
VERTEX
  8
SAPA_FOGBAND
  5
207E
 10
133.104
 20
58.2323
 30
0.000000
  70
    32
  0
VERTEX
  8
SAPA_FOGBAND
  5
207F
 10
132.953
 20
58.2431
 30
0.000000
  70
    32
  0
VERTEX
  8
SAPA_FOGBAND
  5
2080
 10
132.804
 20
58.2582
 30
0.000000
  70
    32
  0
VERTEX
  8
SAPA_FOGBAND
  5
2081
 10
132.656
 20
58.2775
 30
0.000000
  70
    32
  0
VERTEX
  8
SAPA_FOGBAND
  5
2082
 10
132.510
 20
58.3011
 30
0.000000
  70
    32
  0
VERTEX
  8
SAPA_FOGBAND
  5
2083
 10
132.367
 20
58.3288
 30
0.000000
  70
    32
  0
VERTEX
  8
SAPA_FOGBAND
  5
2084
 10
132.225
 20
58.3606
 30
0.000000
  70
    32
  0
VERTEX
  8
SAPA_FOGBAND
  5
2085
 10
132.087
 20
58.3964
 30
0.000000
  70
    32
  0
VERTEX
  8
SAPA_FOGBAND
  5
2086
 10
131.952
 20
58.4361
 30
0.000000
  70
    32
  0
VERTEX
  8
SAPA_FOGBAND
  5
2087
 10
131.820
 20
58.4797
 30
0.000000
  70
    32
  0
VERTEX
  8
SAPA_FOGBAND
  5
2088
 10
131.692
 20
58.5269
 30
0.000000
  70
    32
  0
VERTEX
  8
SAPA_FOGBAND
  5
2089
 10
131.568
 20
58.5778
 30
0.000000
  70
    32
  0
VERTEX
  8
SAPA_FOGBAND
  5
208A
 10
131.449
 20
58.6322
 30
0.000000
  70
    32
  0
VERTEX
  8
SAPA_FOGBAND
  5
208B
 10
131.334
 20
58.6899
 30
0.000000
  70
    32
  0
VERTEX
  8
SAPA_FOGBAND
  5
208C
 10
131.224
 20
58.7508
 30
0.000000
  70
    32
  0
VERTEX
  8
SAPA_FOGBAND
  5
208D
 10
131.120
 20
58.8148
 30
0.000000
  70
    32
  0
VERTEX
  8
SAPA_FOGBAND
  5
208E
 10
131.021
 20
58.8817
 30
0.000000
  70
    32
  0
VERTEX
  8
SAPA_FOGBAND
  5
208F
 10
130.928
 20
58.9513
 30
0.000000
  70
    32
  0
VERTEX
  8
SAPA_FOGBAND
  5
2090
 10
130.841
 20
59.0236
 30
0.000000
  70
    32
  0
VERTEX
  8
SAPA_FOGBAND
  5
2091
 10
130.760
 20
59.0982
 30
0.000000
  70
    32
  0
VERTEX
  8
SAPA_FOGBAND
  5
2092
 10
130.685
 20
59.1751
 30
0.000000
  70
    32
  0
VERTEX
  8
SAPA_FOGBAND
  5
2093
 10
130.617
 20
59.2540
 30
0.000000
  70
    32
  0
VERTEX
  8
SAPA_FOGBAND
  5
2094
 10
130.556
 20
59.3348
 30
0.000000
  70
    32
  0
VERTEX
  8
SAPA_FOGBAND
  5
2095
 10
130.501
 20
59.4172
 30
0.000000
  70
    32
  0
VERTEX
  8
SAPA_FOGBAND
  5
2096
 10
130.454
 20
59.5011
 30
0.000000
  70
    32
  0
VERTEX
  8
SAPA_FOGBAND
  5
2097
 10
130.413
 20
59.5862
 30
0.000000
  70
    32
  0
VERTEX
  8
SAPA_FOGBAND
  5
2098
 10
130.380
 20
59.6724
 30
0.000000
  70
    32
  0
VERTEX
  8
SAPA_FOGBAND
  5
2099
 10
130.354
 20
59.7595
 30
0.000000
  70
    32
  0
VERTEX
  8
SAPA_FOGBAND
  5
209A
 10
130.336
 20
59.8472
 30
0.000000
  70
    32
  0
VERTEX
  8
SAPA_FOGBAND
  5
209B
 10
130.324
 20
59.9353
 30
0.000000
  70
    32
  0
VERTEX
  8
SAPA_FOGBAND
  5
209C
 10
130.321
 20
60.0236
 30
0.000000
  70
    32
  0
VERTEX
  8
SAPA_FOGBAND
  5
209D
 10
130.324
 20
60.1119
 30
0.000000
  70
    32
  0
VERTEX
  8
SAPA_FOGBAND
  5
209E
 10
130.336
 20
60.2000
 30
0.000000
  70
    32
  0
VERTEX
  8
SAPA_FOGBAND
  5
209F
 10
130.354
 20
60.2877
 30
0.000000
  70
    32
  0
VERTEX
  8
SAPA_FOGBAND
  5
20A0
 10
130.380
 20
60.3748
 30
0.000000
  70
    32
  0
VERTEX
  8
SAPA_FOGBAND
  5
20A1
 10
130.413
 20
60.4610
 30
0.000000
  70
    32
  0
VERTEX
  8
SAPA_FOGBAND
  5
20A2
 10
130.454
 20
60.5461
 30
0.000000
  70
    32
  0
VERTEX
  8
SAPA_FOGBAND
  5
20A3
 10
130.501
 20
60.6300
 30
0.000000
  70
    32
  0
VERTEX
  8
SAPA_FOGBAND
  5
20A4
 10
130.556
 20
60.7124
 30
0.000000
  70
    32
  0
VERTEX
  8
SAPA_FOGBAND
  5
20A5
 10
130.617
 20
60.7932
 30
0.000000
  70
    32
  0
VERTEX
  8
SAPA_FOGBAND
  5
20A6
 10
130.685
 20
60.8721
 30
0.000000
  70
    32
  0
VERTEX
  8
SAPA_FOGBAND
  5
20A7
 10
130.760
 20
60.9490
 30
0.000000
  70
    32
  0
VERTEX
  8
SAPA_FOGBAND
  5
20A8
 10
130.841
 20
61.0236
 30
0.000000
  70
    32
  0
VERTEX
  8
SAPA_FOGBAND
  5
20A9
 10
130.928
 20
61.0959
 30
0.000000
  70
    32
  0
VERTEX
  8
SAPA_FOGBAND
  5
20AA
 10
131.021
 20
61.1655
 30
0.000000
  70
    32
  0
VERTEX
  8
SAPA_FOGBAND
  5
20AB
 10
131.120
 20
61.2324
 30
0.000000
  70
    32
  0
VERTEX
  8
SAPA_FOGBAND
  5
20AC
 10
131.224
 20
61.2964
 30
0.000000
  70
    32
  0
VERTEX
  8
SAPA_FOGBAND
  5
20AD
 10
131.334
 20
61.3573
 30
0.000000
  70
    32
  0
VERTEX
  8
SAPA_FOGBAND
  5
20AE
 10
131.449
 20
61.4150
 30
0.000000
  70
    32
  0
VERTEX
  8
SAPA_FOGBAND
  5
20AF
 10
131.568
 20
61.4694
 30
0.000000
  70
    32
  0
VERTEX
  8
SAPA_FOGBAND
  5
20B0
 10
131.692
 20
61.5202
 30
0.000000
  70
    32
  0
VERTEX
  8
SAPA_FOGBAND
  5
20B1
 10
131.820
 20
61.5675
 30
0.000000
  70
    32
  0
VERTEX
  8
SAPA_FOGBAND
  5
20B2
 10
131.952
 20
61.6111
 30
0.000000
  70
    32
  0
VERTEX
  8
SAPA_FOGBAND
  5
20B3
 10
132.087
 20
61.6508
 30
0.000000
  70
    32
  0
VERTEX
  8
SAPA_FOGBAND
  5
20B4
 10
132.225
 20
61.6866
 30
0.000000
  70
    32
  0
VERTEX
  8
SAPA_FOGBAND
  5
20B5
 10
132.367
 20
61.7184
 30
0.000000
  70
    32
  0
VERTEX
  8
SAPA_FOGBAND
  5
20B6
 10
132.510
 20
61.7461
 30
0.000000
  70
    32
  0
VERTEX
  8
SAPA_FOGBAND
  5
20B7
 10
132.656
 20
61.7696
 30
0.000000
  70
    32
  0
VERTEX
  8
SAPA_FOGBAND
  5
20B8
 10
132.804
 20
61.7890
 30
0.000000
  70
    32
  0
VERTEX
  8
SAPA_FOGBAND
  5
20B9
 10
132.953
 20
61.8041
 30
0.000000
  70
    32
  0
VERTEX
  8
SAPA_FOGBAND
  5
20BA
 10
133.104
 20
61.8149
 30
0.000000
  70
    32
  0
VERTEX
  8
SAPA_FOGBAND
  5
20BB
 10
133.255
 20
61.8214
 30
0.000000
  70
    32
  0
VERTEX
  8
SAPA_FOGBAND
  5
20BC
 10
133.406
 20
61.8236
 30
0.000000
  70
    32
  0
VERTEX
  8
SAPA_FOGBAND
  5
20BD
 10
133.557
 20
61.8214
 30
0.000000
  70
    32
  0
VERTEX
  8
SAPA_FOGBAND
  5
20BE
 10
133.708
 20
61.8149
 30
0.000000
  70
    32
  0
VERTEX
  8
SAPA_FOGBAND
  5
20BF
 10
133.859
 20
61.8041
 30
0.000000
  70
    32
  0
VERTEX
  8
SAPA_FOGBAND
  5
20C0
 10
134.008
 20
61.7890
 30
0.000000
  70
    32
  0
VERTEX
  8
SAPA_FOGBAND
  5
20C1
 10
134.156
 20
61.7696
 30
0.000000
  70
    32
  0
VERTEX
  8
SAPA_FOGBAND
  5
20C2
 10
134.302
 20
61.7461
 30
0.000000
  70
    32
  0
VERTEX
  8
SAPA_FOGBAND
  5
20C3
 10
134.445
 20
61.7184
 30
0.000000
  70
    32
  0
VERTEX
  8
SAPA_FOGBAND
  5
20C4
 10
134.587
 20
61.6866
 30
0.000000
  70
    32
  0
VERTEX
  8
SAPA_FOGBAND
  5
20C5
 10
134.725
 20
61.6508
 30
0.000000
  70
    32
  0
VERTEX
  8
SAPA_FOGBAND
  5
20C6
 10
134.860
 20
61.6111
 30
0.000000
  70
    32
  0
VERTEX
  8
SAPA_FOGBAND
  5
20C7
 10
134.992
 20
61.5675
 30
0.000000
  70
    32
  0
VERTEX
  8
SAPA_FOGBAND
  5
20C8
 10
135.120
 20
61.5202
 30
0.000000
  70
    32
  0
VERTEX
  8
SAPA_FOGBAND
  5
20C9
 10
135.244
 20
61.4694
 30
0.000000
  70
    32
  0
VERTEX
  8
SAPA_FOGBAND
  5
20CA
 10
135.363
 20
61.4150
 30
0.000000
  70
    32
  0
VERTEX
  8
SAPA_FOGBAND
  5
20CB
 10
135.478
 20
61.3573
 30
0.000000
  70
    32
  0
VERTEX
  8
SAPA_FOGBAND
  5
20CC
 10
135.588
 20
61.2964
 30
0.000000
  70
    32
  0
VERTEX
  8
SAPA_FOGBAND
  5
20CD
 10
135.692
 20
61.2324
 30
0.000000
  70
    32
  0
VERTEX
  8
SAPA_FOGBAND
  5
20CE
 10
135.791
 20
61.1655
 30
0.000000
  70
    32
  0
VERTEX
  8
SAPA_FOGBAND
  5
20CF
 10
135.884
 20
61.0959
 30
0.000000
  70
    32
  0
VERTEX
  8
SAPA_FOGBAND
  5
20D0
 10
135.971
 20
61.0236
 30
0.000000
  70
    32
  0
VERTEX
  8
SAPA_FOGBAND
  5
20D1
 10
136.052
 20
60.9490
 30
0.000000
  70
    32
  0
VERTEX
  8
SAPA_FOGBAND
  5
20D2
 10
136.127
 20
60.8721
 30
0.000000
  70
    32
  0
VERTEX
  8
SAPA_FOGBAND
  5
20D3
 10
136.195
 20
60.7932
 30
0.000000
  70
    32
  0
VERTEX
  8
SAPA_FOGBAND
  5
20D4
 10
136.256
 20
60.7124
 30
0.000000
  70
    32
  0
VERTEX
  8
SAPA_FOGBAND
  5
20D5
 10
136.311
 20
60.6300
 30
0.000000
  70
    32
  0
VERTEX
  8
SAPA_FOGBAND
  5
20D6
 10
136.358
 20
60.5461
 30
0.000000
  70
    32
  0
VERTEX
  8
SAPA_FOGBAND
  5
20D7
 10
136.399
 20
60.4610
 30
0.000000
  70
    32
  0
VERTEX
  8
SAPA_FOGBAND
  5
20D8
 10
136.432
 20
60.3748
 30
0.000000
  70
    32
  0
VERTEX
  8
SAPA_FOGBAND
  5
20D9
 10
136.458
 20
60.2877
 30
0.000000
  70
    32
  0
VERTEX
  8
SAPA_FOGBAND
  5
20DA
 10
136.476
 20
60.2000
 30
0.000000
  70
    32
  0
VERTEX
  8
SAPA_FOGBAND
  5
20DB
 10
136.487
 20
60.1119
 30
0.000000
  70
    32
  0
VERTEX
  8
SAPA_FOGBAND
  5
20DC
 10
136.491
 20
60.0236
 30
0.000000
  70
    32
  0
SEQEND
  8
SAPA_FOGBAND
  5
20DD
  0
POLYLINE
  5
125A
  8
SAPA_FOGBAND
 62
     2
 66
     1
 10
0.0
 20
0.0
 30
0.0
 70
     1
  0
VERTEX
  5
1FB6
  8
SAPA_FOGBAND
 62
     2
 10
125.9622733470983
 20
54.723592250519921
 30
0.0
  0
VERTEX
  5
1FB7
  8
SAPA_FOGBAND
 62
     2
 10
139.64273799639699
 20
54.723592250519921
 30
0.0
 42
0.427966335106886
  0
VERTEX
  5
1FB8
  8
SAPA_FOGBAND
 62
     2
 10
139.94241056411701
 20
55.037604821879171
 30
0.0
  0
VERTEX
  5
1FB9
  8
SAPA_FOGBAND
 62
     2
 10
139.4561106560374
 20
63.23760482187916
 30
0.0
 42
0.4005932428724212
  0
VERTEX
  5
1FBA
  8
SAPA_FOGBAND
 62
     2
 10
139.15643808831729
 20
63.523592250519911
 30
0.0
  0
VERTEX
  5
1FBB
  8
SAPA_FOGBAND
 62
     2
 10
137.34273799639701
 20
63.523592250519911
 30
0.0
  0
VERTEX
  5
1FBC
  8
SAPA_FOGBAND
 62
     2
 10
137.34273799639701
 20
65.2235922505199
 30
0.0
 42
0.4142135623730951
  0
VERTEX
  5
1FBD
  8
SAPA_FOGBAND
 62
     2
 10
137.04273799639699
 20
65.523592250519911
 30
0.0
  0
VERTEX
  5
1FBE
  8
SAPA_FOGBAND
 62
     2
 10
129.62395723277109
 20
65.523592250519911
 30
0.0
 42
0.1379343940649207
  0
VERTEX
  5
1FBF
  8
SAPA_FOGBAND
 62
     2
 10
129.10273892372271
 20
65.377015635665117
 30
0.0
  0
VERTEX
  5
1FC0
  8
SAPA_FOGBAND
 62
     2
 10
117.1821288418728
 20
57.9697973977568
 30
0.0
 42
0.2613472755167645
  0
VERTEX
  5
1FC1
  8
SAPA_FOGBAND
 62
     2
 10
116.942737996397
 20
57.54308570518419
 30
0.0
  0
VERTEX
  5
1FC2
  8
SAPA_FOGBAND
 62
     2
 10
116.942737996397
 20
56.548389088020983
 30
0.0
 42
0.3915187749346393
  0
VERTEX
  5
1FC3
  8
SAPA_FOGBAND
 62
     2
 10
117.86471569617051
 20
55.551437474015877
 30
0.0
  0
VERTEX
  5
1FC4
  8
SAPA_FOGBAND
 62
     2
 10
125.92326219698511
 20
54.725116443517372
 30
0.0
 42
0.0195279011117891
  0
SEQEND
  5
1FC5
  8
SAPA_FOGBAND
 62
     2
  0
LINE
  5
125B
  8
SAPA_FOGBAND
 10
69.700000258001296
 20
90.699999926818066
 30
0.0
 11
69.700000258001296
 21
90.699999926818066
 31
0.0
  0
DIMENSION
  5
1267
  8
SAPA_MATT
  2
*D100
 10
-50.454423715370218
 20
9.5005704442929808
 30
0.0
 11
-50.454423715370211
 21
109.500570444293
 31
0.0
 70
   128
  1
197-202
 13
-35.301476183959842
 23
209.500570444293
 33
0.0
 14
-35.301476183959842
 24
9.5005704442929755
 34
0.0
 50
90.0
1001
ACAD
1000
DSTYLE
1002
{
1070
    40
1040
1.0
1002
}
  0
DIMENSION
  5
126A
  8
SAPA_MATT
  2
*D99
 10
139.20000000229041
 20
-26.614674685652581
 30
0.0
 11
69.450000001145185
 21
-24.114674685652581
 31
0.0
 70
     0
 13
-0.3000000000001012
 23
0.0000000000000196
 33
0.0
 14
139.20000000229041
 24
0.1999999928431322
 34
0.0
1001
ACAD
1000
DSTYLE
1002
{
1070
    40
1040
1.0
1002
}
  0
DIMENSION
  5
126B
  8
SAPA_MATT
  2
*D98
 10
96.699999999964334
 20
-13.38945198034577
 30
0.0
 11
48.199999999982133
 21
-10.88945198034577
 31
0.0
 70
     0
 13
-0.3000000000001012
 23
0.0000000000000196
 33
0.0
 14
96.699999999964334
 24
0.1999999998930605
 34
0.0
1001
ACAD
1000
DSTYLE
1002
{
1070
    40
1040
1.0
1002
}
  0
DIMENSION
  5
126C
  8
SAPA_MATT
  2
*D97
 10
101.70000000229039
 20
-13.38945198034577
 30
0.0
 11
99.200000001127407
 21
-10.88945198034577
 31
0.0
 70
     0
 13
96.699999999964334
 23
0.1999999998930605
 33
0.0
 14
101.70000000229039
 24
0.1999999998930605
 34
0.0
1001
ACAD
1000
DSTYLE
1002
{
1070
    40
1040
1.0
1002
}
  0
DIMENSION
  5
126D
  8
SAPA_MATT
  2
*D96
 10
139.20000000229041
 20
-13.38945198034577
 30
0.0
 11
120.45000000229039
 21
-10.88945198034577
 31
0.0
 70
     0
 13
101.70000000229039
 23
0.1999999928431322
 33
0.0
 14
139.20000000229041
 24
0.1999999928431322
 34
0.0
1001
ACAD
1000
DSTYLE
1002
{
1070
    40
1040
1.0
1002
}
  0
VIEWPORT
  5
C4
 67
     1
  8
0
 10
160.5543545598442
 20
116.00969601843509
 30
0.0
 40
404.96977709277462
 41
256.8421457311839
 68
     1
 69
     1
1001
ACAD
1000
MVIEW
1002
{
1070
    16
1010
0.0
1020
0.0
1030
0.0
1010
0.0
1020
0.0
1030
1.0
1040
-1.5707963267948959
1040
256.8421457311839
1040
104.2062515318394
1040
-147.70624390244481
1040
50.0
1040
0.0
1040
0.0
1070
     0
1070
     0
1070
     1
1070
     1
1070
     0
1070
     0
1070
     0
1070
     0
1040
0.0
1040
0.0
1040
0.0
1040
10.0
1040
10.0
1040
10.0
1040
10.0
1070
     0
1002
{
1002
}
1002
}
  0
ENDSEC
  0
EOF
