  0
SECTION
  2
HEADER
  9
$ACADVER
  1
AC1009
  9
$INSBASE
 10
0.0
 20
0.0
 30
0.0
  9
$EXTMIN
 10
-31.736646070995729
 20
-31.617582331900199
 30
0.0
  9
$EXTMAX
 10
232.5585821601174
 20
197.20059980027801
 30
0.0000000195376815
  9
$LIMMIN
 10
0.0
 20
0.0
  9
$LIMMAX
 10
790.0
 20
790.0
  9
$ORTHOMODE
 70
     0
  9
$REGENMODE
 70
     1
  9
$FILLMODE
 70
     1
  9
$QTEXTMODE
 70
     0
  9
$MIRRTEXT
 70
     1
  9
$DRAGMODE
 70
     2
  9
$LTSCALE
 40
4.0
  9
$OSMODE
 70
   167
  9
$ATTMODE
 70
     1
  9
$TEXTSIZE
 40
3.5
  9
$TRACEWID
 40
0.05
  9
$TEXTSTYLE
  7
ISO
  9
$CLAYER
  8
0
  9
$CELTYPE
  6
BYLAYER
  9
$CECOLOR
 62
   256
  9
$DIMSCALE
 40
0.0
  9
$DIMASZ
 40
3.0
  9
$DIMEXO
 40
1.5
  9
$DIMDLI
 40
10.0
  9
$DIMRND
 40
0.0
  9
$DIMDLE
 40
0.0
  9
$DIMEXE
 40
1.5
  9
$DIMTP
 40
0.0
  9
$DIMTM
 40
0.0
  9
$DIMTXT
 40
3.0
  9
$DIMCEN
 40
-5.0
  9
$DIMTSZ
 40
0.0
  9
$DIMTOL
 70
     0
  9
$DIMLIM
 70
     0
  9
$DIMTIH
 70
     0
  9
$DIMTOH
 70
     0
  9
$DIMSE1
 70
     0
  9
$DIMSE2
 70
     0
  9
$DIMTAD
 70
     1
  9
$DIMZIN
 70
     8
  9
$DIMBLK
  1

  9
$DIMASO
 70
     1
  9
$DIMSHO
 70
     1
  9
$DIMPOST
  1

  9
$DIMAPOST
  1

  9
$DIMALT
 70
     0
  9
$DIMALTD
 70
     0
  9
$DIMALTF
 40
25.399999999999999
  9
$DIMLFAC
 40
-1.0
  9
$DIMTOFL
 70
     1
  9
$DIMTVP
 40
0.0
  9
$DIMTIX
 70
     0
  9
$DIMSOXD
 70
     0
  9
$DIMSAH
 70
     0
  9
$DIMBLK1
  1

  9
$DIMBLK2
  1

  9
$DIMSTYLE
  2
MASKIN
  9
$DIMCLRD
 70
   256
  9
$DIMCLRE
 70
   256
  9
$DIMCLRT
 70
     2
  9
$DIMTFAC
 40
1.0
  9
$DIMGAP
 40
1.0
  9
$LUNITS
 70
     2
  9
$LUPREC
 70
     8
  9
$SKETCHINC
 40
0.1
  9
$FILLETRAD
 40
0.0
  9
$AUNITS
 70
     0
  9
$AUPREC
 70
     8
  9
$MENU
  1
ACAD
  9
$ELEVATION
 40
0.0
  9
$PELEVATION
 40
0.0
  9
$THICKNESS
 40
0.0
  9
$LIMCHECK
 70
     0
  9
$BLIPMODE
 70
     0
  9
$CHAMFERA
 40
0.0
  9
$CHAMFERB
 40
0.0
  9
$SKPOLY
 70
     0
  9
$TDCREATE
 40
2457480.5169006712
  9
$TDUPDATE
 40
2457744.3860682291
  9
$TDINDWG
 40
0.0385441204
  9
$TDUSRTIMER
 40
0.0385441204
  9
$USRTIMER
 70
     1
  9
$ANGBASE
 50
0.0
  9
$ANGDIR
 70
     0
  9
$PDMODE
 70
     0
  9
$PDSIZE
 40
0.0
  9
$PLINEWID
 40
0.0
  9
$COORDS
 70
     1
  9
$SPLFRAME
 70
     0
  9
$SPLINETYPE
 70
     6
  9
$SPLINESEGS
 70
     8
  9
$ATTDIA
 70
     1
  9
$ATTREQ
 70
     1
  9
$HANDLING
 70
     1
  9
$HANDSEED
  5
22F4
  9
$SURFTAB1
 70
     6
  9
$SURFTAB2
 70
     6
  9
$SURFTYPE
 70
     6
  9
$SURFU
 70
     6
  9
$SURFV
 70
     6
  9
$UCSNAME
  2

  9
$UCSORG
 10
0.0
 20
0.0
 30
0.0
  9
$UCSXDIR
 10
1.0
 20
0.0
 30
0.0
  9
$UCSYDIR
 10
0.0
 20
1.0
 30
0.0
  9
$PUCSNAME
  2

  9
$PUCSORG
 10
0.0
 20
0.0
 30
0.0
  9
$PUCSXDIR
 10
1.0
 20
0.0
 30
0.0
  9
$PUCSYDIR
 10
0.0
 20
1.0
 30
0.0
  9
$USERI1
 70
     0
  9
$USERI2
 70
     0
  9
$USERI3
 70
     0
  9
$USERI4
 70
     0
  9
$USERI5
 70
     0
  9
$USERR1
 40
0.0
  9
$USERR2
 40
0.0
  9
$USERR3
 40
0.0
  9
$USERR4
 40
0.0
  9
$USERR5
 40
0.0
  9
$WORLDVIEW
 70
     1
  9
$SHADEDGE
 70
     3
  9
$SHADEDIF
 70
    70
  9
$TILEMODE
 70
     1
  9
$MAXACTVP
 70
    16
  9
$PLIMCHECK
 70
     0
  9
$PEXTMIN
 10
1.0000000000000000E+020
 20
1.0000000000000000E+020
 30
1.0000000000000000E+020
  9
$PEXTMAX
 10
-1.0000000000000000E+020
 20
-1.0000000000000000E+020
 30
-1.0000000000000000E+020
  9
$PLIMMIN
 10
-5.069427490234375
 20
-5.8737497329711914
  9
$PLIMMAX
 10
291.89889526367187
 20
204.0995779037475
  9
$UNITMODE
 70
     0
  9
$VISRETAIN
 70
     1
  9
$PLINEGEN
 70
     0
  9
$PSLTSCALE
 70
     1
  0
ENDSEC
  0
SECTION
  2
TABLES
  0
TABLE
  2
VPORT
 70
     1
  0
VPORT
  2
*ACTIVE
 70
     0
 10
0.0
 20
0.0
 11
1.0
 21
1.0
 12
100.4168507511849
 22
263.8337402661424
 13
0.0
 23
0.0
 14
1.0
 24
1.0
 15
0.0
 25
0.0
 16
0.0
 26
0.0
 36
1.0
 17
0.0
 27
0.0
 37
0.0
 40
338.4718416468354
 41
1.616257088846881
 42
50.0
 43
0.0
 44
0.0
 50
0.0
 51
0.0
 71
     0
 72
   100
 73
     1
 74
     1
 75
     0
 76
     0
 77
     0
 78
     0
  0
ENDTAB
  0
TABLE
  2
LTYPE
 70
    31
  0
LTYPE
  2
CONTINUOUS
 70
     0
  3
Solid line
 72
    65
 73
     0
 40
0.0
  0
LTYPE
  2
BYGG-035273$0$NEWDOT
 70
     0
  3
____ . ____ . ____ . ____ . ____ . ____ . ____
 72
    65
 73
     4
 40
2.0
 49
1.0
 49
-0.5
 49
0.0
 49
-0.5
  0
LTYPE
  2
BYGG-035273$0$DASHDOT
 70
     0
  3
__ . __ . __ . __ . __ . __ . __ . __ . __ . __
 72
    65
 73
     4
 40
1.0
 49
0.5
 49
-0.25
 49
0.0
 49
-0.25
  0
LTYPE
  2
BYGG-035273$0$DASHED
 70
     0
  3
__ __ __ __ __ __ __ __ __ __ __ __ __ __ __
 72
    65
 73
     2
 40
0.75
 49
0.5
 49
-0.25
  0
LTYPE
  2
BYGG-035273$0$PHANTOM
 70
     0
  3
Phantom ______  __  __  ______  __  __  ______
 72
    65
 73
     6
 40
63.5
 49
31.75
 49
-6.3499999999999988
 49
6.3499999999999988
 49
-6.3499999999999988
 49
6.3499999999999988
 49
-6.3499999999999988
  0
LTYPE
  2
BYGG-024882$0$NEWDOT
 70
     0
  3
____ . ____ . ____ . ____ . ____ . ____ . ____
 72
    65
 73
     4
 40
2.0
 49
1.0
 49
-0.5
 49
0.0
 49
-0.5
  0
LTYPE
  2
BYGG-020132$0$NEWDOT
 70
     0
  3
____ . ____ . ____ . ____ . ____ . ____ . ____
 72
    65
 73
     4
 40
2.0
 49
1.0
 49
-0.5
 49
0.0
 49
-0.5
  0
LTYPE
  2
BYGG-020132$0$DASHDOT
 70
     0
  3
__ . __ . __ . __ . __ . __ . __ . __ . __ . __
 72
    65
 73
     4
 40
1.0
 49
0.5
 49
-0.25
 49
0.0
 49
-0.25
  0
LTYPE
  2
BYGG-014196$0$DASHDOT
 70
     0
  3
__ . __ . __ . __ . __ . __ . __ . __ . __ . __
 72
    65
 73
     4
 40
1.0
 49
0.5
 49
-0.25
 49
0.0
 49
-0.25
  0
LTYPE
  2
BYGG-024798$0$NEWDOT
 70
     0
  3
____ . ____ . ____ . ____ . ____ . ____ . ____
 72
    65
 73
     4
 40
2.0
 49
1.0
 49
-0.5
 49
0.0
 49
-0.5
  0
LTYPE
  2
BYGG-024799$0$NEWDOT
 70
     0
  3
____ . ____ . ____ . ____ . ____ . ____ . ____
 72
    65
 73
     4
 40
2.0
 49
1.0
 49
-0.5
 49
0.0
 49
-0.5
  0
LTYPE
  2
BYGG-024799$0$DASHDOT
 70
     0
  3
__ . __ . __ . __ . __ . __ . __ . __ . __ . __
 72
    65
 73
     4
 40
1.0
 49
0.5
 49
-0.25
 49
0.0
 49
-0.25
  0
LTYPE
  2
BYGG-025652$0$NEWDOT
 70
     0
  3
____ . ____ . ____ . ____ . ____ . ____ . ____
 72
    65
 73
     4
 40
2.0
 49
1.0
 49
-0.5
 49
0.0
 49
-0.5
  0
LTYPE
  2
BYGG-025652$0$DASHDOT
 70
     0
  3
__ . __ . __ . __ . __ . __ . __ . __ . __ . __
 72
    65
 73
     4
 40
1.0
 49
0.5
 49
-0.25
 49
0.0
 49
-0.25
  0
LTYPE
  2
BYGG-025652$0$DASHED
 70
     0
  3
__ __ __ __ __ __ __ __ __ __ __ __ __ __ __
 72
    65
 73
     2
 40
0.75
 49
0.5
 49
-0.25
  0
LTYPE
  2
BYGG-025652$0$PHANTOM
 70
     0
  3
Phantom ______  __  __  ______  __  __  ______
 72
    65
 73
     6
 40
63.5
 49
31.75
 49
-6.3499999999999988
 49
6.3499999999999988
 49
-6.3499999999999988
 49
6.3499999999999988
 49
-6.3499999999999988
  0
LTYPE
  2
BYGG-014411$0$NEWDOT
 70
     0
  3
____ . ____ . ____ . ____ . ____ . ____ . ____
 72
    65
 73
     4
 40
2.0
 49
1.0
 49
-0.5
 49
0.0
 49
-0.5
  0
LTYPE
  2
BYGG-014411$0$ZIGZAG
 70
     0
  3
Zig zag /\/\/\/\/\/\/\/\/\/\/\/\/\/\/\/\/\/\/\/\/\/\/\/
 72
    65
 73
     4
 40
20.32254
 49
0.00254
 49
-5.0800000000000001
 49
-10.16
 49
-5.0800000000000001
  0
LTYPE
  2
BYGG-036381$0$NEWDOT
 70
     0
  3
____ . ____ . ____ . ____ . ____ . ____ . ____
 72
    65
 73
     4
 40
2.0
 49
1.0
 49
-0.5
 49
0.0
 49
-0.5
  0
LTYPE
  2
BYGG-036381$0$ZIGZAG
 70
     0
  3
Zig zag /\/\/\/\/\/\/\/\/\/\/\/\/\/\/\/\/\/\/\/\/\/\/\/
 72
    65
 73
     4
 40
20.32254
 49
0.00254
 49
-5.0800000000000001
 49
-10.16
 49
-5.0800000000000001
  0
LTYPE
  2
BYGG-024882$0$DASHDOT
 70
     0
  3
__ . __ . __ . __ . __ . __ . __ . __ . __ . __
 72
    65
 73
     4
 40
1.0
 49
0.5
 49
-0.25
 49
0.0
 49
-0.25
  0
LTYPE
  2
BYGG-014090$0$PHANTOM2
 70
     0
  3
Phantom (.5x) ___ _ _ ___ _ _ ___ _ _ ___ _ _
 72
    65
 73
     6
 40
1.25
 49
0.625
 49
-0.125
 49
0.125
 49
-0.125
 49
0.125
 49
-0.125
  0
LTYPE
  2
BYGG-021358$0$PHANTOM2
 70
     0
  3
___ _ _ ___ _ _ ___ _ _ ___ _ _
 72
    65
 73
     6
 40
1.25
 49
0.625
 49
-0.125
 49
0.125
 49
-0.125
 49
0.125
 49
-0.125
  0
LTYPE
  2
BYGG-014196$0$PHANTOM2
 70
     0
  3
Phantom (.5x) ___ _ _ ___ _ _ ___ _ _ ___ _ _
 72
    65
 73
     6
 40
1.25
 49
0.625
 49
-0.125
 49
0.125
 49
-0.125
 49
0.125
 49
-0.125
  0
LTYPE
  2
BYGG-030185$0$PHANTOM2
 70
     0
  3
Phantom (.5x) ___ _ _ ___ _ _ ___ _ _ ___ _ _
 72
    65
 73
     6
 40
1.25
 49
0.625
 49
-0.125
 49
0.125
 49
-0.125
 49
0.125
 49
-0.125
  0
LTYPE
  2
BYGG-024798$0$DASHDOT
 70
     0
  3
__ . __ . __ . __ . __ . __ . __ . __ . __ . __
 72
    65
 73
     4
 40
1.0
 49
0.5
 49
-0.25
 49
0.0
 49
-0.25
  0
LTYPE
  2
BYGG-014089$0$PHANTOM2
 70
     0
  3
Phantom (.5x) ___ _ _ ___ _ _ ___ _ _ ___ _ _
 72
    65
 73
     6
 40
1.25
 49
0.625
 49
-0.125
 49
0.125
 49
-0.125
 49
0.125
 49
-0.125
  0
LTYPE
  2
BYGG-014108$0$PHANTOM2
 70
     0
  3
Phantom (.5x) ___ _ _ ___ _ _ ___ _ _ ___ _ _
 72
    65
 73
     6
 40
1.25
 49
0.625
 49
-0.125
 49
0.125
 49
-0.125
 49
0.125
 49
-0.125
  0
LTYPE
  2
BYGG-025652$0$PHANTOM2
 70
     0
  3
Phantom (.5x) ___ _ _ ___ _ _ ___ _ _ ___ _ _
 72
    65
 73
     6
 40
1.25
 49
0.625
 49
-0.125
 49
0.125
 49
-0.125
 49
0.125
 49
-0.125
  0
LTYPE
  2
BYGG-014411$0$PHANTOM2
 70
     0
  3
Phantom (.5x) ___ _ _ ___ _ _ ___ _ _ ___ _ _
 72
    65
 73
     6
 40
1.25
 49
0.625
 49
-0.125
 49
0.125
 49
-0.125
 49
0.125
 49
-0.125
  0
LTYPE
  2
BYGG-014088$0$PHANTOM2
 70
     0
  3
Phantom (.5x) ___ _ _ ___ _ _ ___ _ _ ___ _ _
 72
    65
 73
     6
 40
1.25
 49
0.625
 49
-0.125
 49
0.125
 49
-0.125
 49
0.125
 49
-0.125
  0
ENDTAB
  0
TABLE
  2
LAYER
 70
   153
  0
LAYER
  2
0
 70
     0
 62
     7
  6
CONTINUOUS
  0
LAYER
  2
DEFPOINTS
 70
     0
 62
     7
  6
CONTINUOUS
  0
LAYER
  2
SAPA_ANSLUTNING
 70
     0
 62
     6
  6
CONTINUOUS
  0
LAYER
  2
SAPA_ARTIKELNR
 70
     0
 62
     4
  6
CONTINUOUS
  0
LAYER
  2
SAPA_FYLLNING
 70
     0
 62
     4
  6
CONTINUOUS
  0
LAYER
  2
SAPA_MATT
 70
     0
 62
     1
  6
CONTINUOUS
  0
LAYER
  2
SAPA_GLAS
 70
     0
 62
     4
  6
CONTINUOUS
  0
LAYER
  2
SAPA_FOGBAND
 70
     0
 62
     2
  6
CONTINUOUS
  0
LAYER
  2
SAPA_PROFIL
 70
     0
 62
     7
  6
CONTINUOUS
  0
ENDTAB
  0
TABLE
  2
STYLE
 70
    42
  0
STYLE
  2
STANDARD
 70
     0
 40
0.0
 41
1.0
 50
0.0
 71
     0
 42
0.2
  3
txt
  4

  0
STYLE
  2
ISO
 70
     0
 40
0.0
 41
1.0
 50
0.0
 71
     0
 42
3.5
  3
txt
  4

  0
STYLE
  2

 70
     1
 40
0.0
 41
1.0
 50
0.0
 71
     0
 42
0.2
  3
ltypeshp.shx
  4

  0
STYLE
  2
BYGG-035273$0$STANDARD
 70
     0
 40
0.0
 41
1.0
 50
0.0
 71
     0
 42
0.2
  3
txt
  4

  0
STYLE
  2
BYGG-035273$0$ISO
 70
     0
 40
0.0
 41
1.0
 50
0.0
 71
     0
 42
3.5
  3
txt
  4

  0
STYLE
  2
BYGG-028980$0$STANDARD
 70
     0
 40
0.0
 41
1.0
 50
0.0
 71
     0
 42
0.2
  3
txt
  4

  0
STYLE
  2
BYGG-028980$0$ISO
 70
     0
 40
0.0
 41
1.0
 50
0.0
 71
     0
 42
3.5
  3
txt
  4

  0
STYLE
  2
BYGG-024882$0$STANDARD
 70
     0
 40
0.0
 41
1.0
 50
0.0
 71
     0
 42
0.2
  3
txt
  4

  0
STYLE
  2
BYGG-024882$0$ISO
 70
     0
 40
0.0
 41
1.0
 50
0.0
 71
     0
 42
3.5
  3
txt
  4

  0
STYLE
  2
BYGG-020132$0$STANDARD
 70
     0
 40
0.0
 41
1.0
 50
0.0
 71
     0
 42
0.2
  3
txt
  4

  0
STYLE
  2
BYGG-020132$0$ISO
 70
     0
 40
0.0
 41
1.0
 50
0.0
 71
     0
 42
3.5
  3
txt
  4

  0
STYLE
  2
BYGG-014090$0$STANDARD
 70
     0
 40
0.0
 41
1.0
 50
0.0
 71
     0
 42
0.2
  3
txt
  4

  0
STYLE
  2
BYGG-014090$0$SIMPLEX
 70
     0
 40
0.0
 41
1.0
 50
0.0
 71
     0
 42
0.2
  3
simplex
  4

  0
STYLE
  2
BYGG-021358$0$STANDARD
 70
     0
 40
0.0
 41
1.0
 50
0.0
 71
     0
 42
0.2
  3
txt
  4

  0
STYLE
  2
BYGG-014196$0$STANDARD
 70
     0
 40
0.0
 41
1.0
 50
0.0
 71
     0
 42
0.2
  3
txt
  4

  0
STYLE
  2
BYGG-014196$0$ISO
 70
     0
 40
0.0
 41
1.0
 50
0.0
 71
     0
 42
3.5
  3
isocp3.shx
  4

  0
STYLE
  2
BYGG-015465$0$STANDARD
 70
     0
 40
0.0
 41
1.0
 50
0.0
 71
     0
 42
0.2
  3
txt
  4

  0
STYLE
  2
BYGG-015465$0$ISO
 70
     0
 40
0.0
 41
1.0
 50
0.0
 71
     0
 42
3.5
  3
txt
  4

  0
STYLE
  2
BYGG-01443301$0$STANDARD
 70
     0
 40
0.0
 41
1.0
 50
0.0
 71
     0
 42
0.2
  3
txt
  4

  0
STYLE
  2
BYGG-01443301$0$ISO
 70
     0
 40
0.0
 41
1.0
 50
0.0
 71
     0
 42
3.5
  3
isocp3.shx
  4

  0
STYLE
  2
BYGG-030185$0$STANDARD
 70
     0
 40
0.0
 41
1.0
 50
0.0
 71
     0
 42
0.2
  3
txt
  4

  0
STYLE
  2
BYGG-030185$0$ISO
 70
     0
 40
0.0
 41
1.0
 50
0.0
 71
     0
 42
7.0
  3
ISO
  4

  0
STYLE
  2
BYGG-024798$0$STANDARD
 70
     0
 40
0.0
 41
1.0
 50
0.0
 71
     0
 42
0.2
  3
txt
  4

  0
STYLE
  2
BYGG-024798$0$ISO
 70
     0
 40
0.0
 41
1.0
 50
0.0
 71
     0
 42
3.5
  3
txt
  4

  0
STYLE
  2
BYGG-024799$0$STANDARD
 70
     0
 40
0.0
 41
1.0
 50
0.0
 71
     0
 42
0.2
  3
txt
  4

  0
STYLE
  2
BYGG-024799$0$ISO
 70
     0
 40
0.0
 41
1.0
 50
0.0
 71
     0
 42
3.5
  3
txt
  4

  0
STYLE
  2
BYGG-014089$0$STANDARD
 70
     0
 40
0.0
 41
1.0
 50
0.0
 71
     0
 42
0.2
  3
txt
  4

  0
STYLE
  2
BYGG-014089$0$ANNOTATIVE
 70
     0
 40
0.0
 41
1.0
 50
0.0
 71
     0
 42
3.5
  3
txt
  4

  0
STYLE
  2
BYGG-014108$0$STANDARD
 70
     0
 40
0.0
 41
1.0
 50
0.0
 71
     0
 42
0.4
  3
txt
  4

  0
STYLE
  2
BYGG-014108$0$SIMPLEX
 70
     0
 40
0.0
 41
1.0
 50
0.0
 71
     0
 42
0.2
  3
simplex
  4

  0
STYLE
  2
BYGG-019611$0$STANDARD
 70
     0
 40
0.0
 41
1.0
 50
0.0
 71
     0
 42
0.2
  3
txt
  4

  0
STYLE
  2
BYGG-019611$0$ISO
 70
     0
 40
0.0
 41
1.0
 50
0.0
 71
     0
 42
3.5
  3
txt
  4

  0
STYLE
  2
BYGG-025652$0$STANDARD
 70
     0
 40
0.0
 41
1.0
 50
0.0
 71
     0
 42
0.2
  3
txt
  4

  0
STYLE
  2
BYGG-025652$0$ISO
 70
     0
 40
0.0
 41
1.0
 50
0.0
 71
     0
 42
3.5
  3
txt
  4

  0
STYLE
  2
BYGG-025652$0$ANNOTATIVE
 70
     0
 40
0.0
 41
1.0
 50
0.0
 71
     0
 42
0.2
  3
txt
  4

  0
STYLE
  2
BYGG-014411$0$STANDARD
 70
     0
 40
0.0
 41
1.0
 50
0.0
 71
     0
 42
0.2
  3
txt
  4

  0
STYLE
  2
BYGG-014411$0$ISO
 70
     0
 40
0.0
 41
1.0
 50
0.0
 71
     0
 42
3.5
  3
isocp3.shx
  4

  0
STYLE
  2
BYGG-014088$0$STANDARD
 70
     0
 40
0.0
 41
1.0
 50
0.0
 71
     0
 42
0.4
  3
txt
  4

  0
STYLE
  2
BYGG-036382$0$STANDARD
 70
     0
 40
0.0
 41
1.0
 50
0.0
 71
     0
 42
0.2
  3
txt
  4

  0
STYLE
  2
BYGG-036382$0$ISO
 70
     0
 40
0.0
 41
1.0
 50
0.0
 71
     0
 42
3.5
  3
txt
  4

  0
STYLE
  2
BYGG-036381$0$STANDARD
 70
     0
 40
0.0
 41
1.0
 50
0.0
 71
     0
 42
0.2
  3
txt
  4

  0
STYLE
  2
BYGG-036381$0$ISO
 70
     0
 40
0.0
 41
1.0
 50
0.0
 71
     0
 42
3.5
  3
txt
  4

  0
ENDTAB
  0
TABLE
  2
VIEW
 70
     0
  0
ENDTAB
  0
TABLE
  2
UCS
 70
     0
  0
ENDTAB
  0
TABLE
  2
APPID
 70
    32
  0
APPID
  2
ACAD
 70
     0
  0
APPID
  2
ACAD_DSTYLE_DIMTEXT_FILL
 70
     0
  0
APPID
  2
ACAD_DSTYLE_DIMEXT_LENGTH
 70
     0
  0
APPID
  2
ACAD_DSTYLE_DIMEXT_ENABLED
 70
     0
  0
APPID
  2
ACAD_DSTYLE_DIM_LINETYPE
 70
     0
  0
APPID
  2
ACAD_DSTYLE_DIM_EXT1_LINETYPE
 70
     0
  0
APPID
  2
ACAD_DSTYLE_DIM_EXT2_LINETYPE
 70
     0
  0
APPID
  2
ACAD_DSTYLE_DIMJOGGED_JOGA
 70
     0
  0
APPID
  2
ACAD_DSTYLE_DIMARC_LENGTH_
 70
     0
  0
APPID
  2
ACAD_PSEXT
 70
     0
  0
APPID
  2
ACAD_MLEADERVER
 70
     0
  0
APPID
  2
ACAD_NAV_VCDISPLAY
 70
     0
  0
APPID
  2
ACAECLAYERSTANDARD
 70
     0
  0
APPID
  2
ACAD_DSTYLE_DIMRADIAL_EXTENSION
 70
     0
  0
APPID
  2
ACAD_EXEMPT_FROM_CAD_STANDARDS
 70
     0
  0
APPID
  2
ACAD_OBJECT_CHANGE_GUID
 70
     0
  0
APPID
  2
ACADANNOTATIVE
 70
     0
  0
APPID
  2
ACCMTRANSPARENCY
 70
     0
  0
APPID
  2
ACDBDYNAMICBLOCKGUID
 70
     0
  0
APPID
  2
ACDBBLOCKREPETAG
 70
     0
  0
APPID
  2
AMG_ARCHIVE11
 70
     0
  0
APPID
  2
AVE_RENDER
 70
     0
  0
APPID
  2
AVE_ENTITY_MATERIAL
 70
     0
  0
APPID
  2
AVE_FINISH
 70
     0
  0
APPID
  2
AVE_MATERIAL
 70
     0
  0
APPID
  2
AVE_GLOBAL
 70
     0
  0
APPID
  2
4M_RENDER
 70
     0
  0
APPID
  2
LIBMAN
 70
     0
  0
APPID
  2
AUTOBUILD
 70
     0
  0
APPID
  2
ACAUTHENVIRON
 70
     0
  0
APPID
  2
ACDBDYNAMICBLOCKTRUENAME
 70
     0
  0
APPID
  2
AEC_XDATA_BOUND_SPACE
 70
     0
  0
ENDTAB
  0
TABLE
  2
DIMSTYLE
 70
    36
  0
DIMSTYLE
  2
STANDARD
 70
     0
  3

  4

  5

  6

  7

 40
1.0
 41
0.18
 42
0.0625
 43
0.38
 44
0.18
 45
0.0
 46
0.0
 47
0.0
 48
0.0
140
0.18
141
0.09
142
0.0
143
25.399999999999999
144
1.0
145
0.0
146
1.0
147
0.09
 71
     0
 72
     0
 73
     1
 74
     1
 75
     0
 76
     0
 77
     0
 78
     0
170
     0
171
     2
172
     0
173
     0
174
     0
175
     0
176
     0
177
     0
178
     0
  0
DIMSTYLE
  2
MASKIN
 70
     0
  3

  4

  5

  6

  7

 40
0.0
 41
3.0
 42
1.5
 43
10.0
 44
1.5
 45
0.0
 46
0.0
 47
0.0
 48
0.0
140
3.0
141
-5.0
142
0.0
143
25.399999999999999
144
-1.0
145
0.0
146
1.0
147
1.0
 71
     0
 72
     0
 73
     0
 74
     0
 75
     0
 76
     0
 77
     1
 78
     8
170
     0
171
     0
172
     1
173
     0
174
     0
175
     0
176
   256
177
   256
178
     2
  0
DIMSTYLE
  2
BYGG-035273$0$STANDARD
 70
     0
  3

  4

  5

  6

  7

 40
1.0
 41
0.18
 42
0.0625
 43
0.38
 44
0.18
 45
0.0
 46
0.0
 47
0.0
 48
0.0
140
0.18
141
0.09
142
0.0
143
25.399999999999999
144
1.0
145
0.0
146
1.0
147
0.09
 71
     0
 72
     0
 73
     1
 74
     1
 75
     0
 76
     0
 77
     0
 78
     0
170
     0
171
     2
172
     0
173
     0
174
     0
175
     0
176
     0
177
     0
178
     0
  0
DIMSTYLE
  2
BYGG-035273$0$MASKIN
 70
     0
  3

  4

  5

  6

  7

 40
0.0
 41
3.0
 42
1.5
 43
10.0
 44
1.5
 45
0.0
 46
0.0
 47
0.0
 48
0.0
140
3.0
141
-5.0
142
0.0
143
25.399999999999999
144
-1.0
145
0.0
146
1.0
147
1.0
 71
     0
 72
     0
 73
     0
 74
     0
 75
     0
 76
     0
 77
     1
 78
     8
170
     0
171
     0
172
     1
173
     0
174
     0
175
     0
176
   256
177
   256
178
     2
  0
DIMSTYLE
  2
BYGG-028980$0$STANDARD
 70
     0
  3

  4

  5

  6

  7

 40
1.0
 41
0.18
 42
0.0625
 43
0.38
 44
0.18
 45
0.0
 46
0.0
 47
0.0
 48
0.0
140
0.18
141
0.09
142
0.0
143
25.399999999999999
144
1.0
145
0.0
146
1.0
147
0.09
 71
     0
 72
     0
 73
     1
 74
     1
 75
     0
 76
     0
 77
     0
 78
     0
170
     0
171
     2
172
     0
173
     0
174
     0
175
     0
176
     0
177
     0
178
     0
  0
DIMSTYLE
  2
BYGG-028980$0$MASKIN
 70
     0
  3

  4

  5

  6

  7

 40
0.0
 41
3.0
 42
1.5
 43
10.0
 44
1.5
 45
0.0
 46
0.0
 47
0.0
 48
0.0
140
3.0
141
-5.0
142
0.0
143
25.399999999999999
144
-1.0
145
0.0
146
1.0
147
1.0
 71
     0
 72
     0
 73
     0
 74
     0
 75
     0
 76
     0
 77
     1
 78
     8
170
     0
171
     0
172
     1
173
     0
174
     0
175
     0
176
   256
177
   256
178
     2
  0
DIMSTYLE
  2
BYGG-024882$0$STANDARD
 70
     0
  3

  4

  5

  6

  7

 40
1.0
 41
0.18
 42
0.0625
 43
0.38
 44
0.18
 45
0.0
 46
0.0
 47
0.0
 48
0.0
140
0.18
141
0.09
142
0.0
143
25.399999999999999
144
1.0
145
0.0
146
1.0
147
0.09
 71
     0
 72
     0
 73
     1
 74
     1
 75
     0
 76
     0
 77
     0
 78
     0
170
     0
171
     2
172
     0
173
     0
174
     0
175
     0
176
     0
177
     0
178
     0
  0
DIMSTYLE
  2
BYGG-024882$0$MASKIN
 70
     0
  3

  4

  5

  6

  7

 40
0.0
 41
3.0
 42
1.5
 43
10.0
 44
1.5
 45
0.0
 46
0.0
 47
0.0
 48
0.0
140
3.0
141
-5.0
142
0.0
143
25.399999999999999
144
-1.0
145
0.0
146
1.0
147
1.0
 71
     0
 72
     0
 73
     0
 74
     0
 75
     0
 76
     0
 77
     1
 78
     8
170
     0
171
     0
172
     1
173
     0
174
     0
175
     0
176
   256
177
   256
178
     2
  0
DIMSTYLE
  2
BYGG-020132$0$MASKIN
 70
     0
  3

  4

  5

  6

  7

 40
0.0
 41
3.0
 42
1.5
 43
10.0
 44
1.5
 45
0.0
 46
0.0
 47
0.0
 48
0.0
140
3.0
141
-5.0
142
0.0
143
25.399999999999999
144
-1.0
145
0.0
146
1.0
147
1.0
 71
     0
 72
     0
 73
     0
 74
     0
 75
     0
 76
     0
 77
     1
 78
     8
170
     0
171
     0
172
     1
173
     0
174
     0
175
     0
176
   256
177
   256
178
     2
  0
DIMSTYLE
  2
BYGG-020132$0$STANDARD
 70
     0
  3

  4

  5

  6

  7

 40
1.0
 41
0.18
 42
0.0625
 43
0.38
 44
0.18
 45
0.0
 46
0.0
 47
0.0
 48
0.0
140
0.18
141
0.09
142
0.0
143
25.399999999999999
144
1.0
145
0.0
146
1.0
147
0.09
 71
     0
 72
     0
 73
     1
 74
     1
 75
     0
 76
     0
 77
     0
 78
     0
170
     0
171
     2
172
     0
173
     0
174
     0
175
     0
176
     0
177
     0
178
     0
  0
DIMSTYLE
  2
BYGG-014090$0$STANDARD
 70
     0
  3

  4

  5

  6

  7

 40
1.0
 41
0.18
 42
0.0625
 43
0.38
 44
0.18
 45
0.0
 46
0.0
 47
0.0
 48
0.0
140
0.18
141
0.09
142
0.0
143
25.399999999999999
144
1.0
145
0.0
146
1.0
147
0.09
 71
     0
 72
     0
 73
     1
 74
     1
 75
     0
 76
     0
 77
     0
 78
     0
170
     0
171
     2
172
     0
173
     0
174
     0
175
     0
176
     0
177
     0
178
     0
  0
DIMSTYLE
  2
BYGG-021358$0$STANDARD
 70
     0
  3

  4

  5

  6

  7

 40
1.0
 41
0.18
 42
0.0625
 43
0.38
 44
0.18
 45
0.0
 46
0.0
 47
0.0
 48
0.0
140
0.18
141
0.09
142
0.0
143
25.399999999999999
144
1.0
145
0.0
146
1.0
147
0.09
 71
     0
 72
     0
 73
     1
 74
     1
 75
     0
 76
     0
 77
     0
 78
     0
170
     0
171
     2
172
     0
173
     0
174
     0
175
     0
176
     0
177
     0
178
     0
  0
DIMSTYLE
  2
BYGG-014196$0$MASKIN
 70
     0
  3

  4

  5

  6

  7

 40
0.0
 41
3.0
 42
1.5
 43
10.0
 44
1.5
 45
0.0
 46
0.0
 47
0.0
 48
0.0
140
3.0
141
-5.0
142
0.0
143
25.399999999999999
144
-1.0
145
0.0
146
1.0
147
1.0
 71
     0
 72
     0
 73
     0
 74
     0
 75
     0
 76
     0
 77
     1
 78
     8
170
     0
171
     0
172
     1
173
     0
174
     0
175
     0
176
   256
177
   256
178
   256
  0
DIMSTYLE
  2
BYGG-015465$0$STANDARD
 70
     0
  3

  4

  5

  6

  7

 40
1.0
 41
0.18
 42
0.0625
 43
0.38
 44
0.18
 45
0.0
 46
0.0
 47
0.0
 48
0.0
140
0.18
141
0.09
142
0.0
143
25.399999999999999
144
1.0
145
0.0
146
1.0
147
0.09
 71
     0
 72
     0
 73
     1
 74
     1
 75
     0
 76
     0
 77
     0
 78
     0
170
     0
171
     2
172
     0
173
     0
174
     0
175
     0
176
     0
177
     0
178
     0
  0
DIMSTYLE
  2
BYGG-015465$0$MASKIN
 70
     0
  3

  4

  5

  6

  7

 40
0.0
 41
3.0
 42
1.5
 43
10.0
 44
1.5
 45
0.0
 46
0.0
 47
0.0
 48
0.0
140
3.0
141
-5.0
142
0.0
143
25.399999999999999
144
-1.0
145
0.0
146
1.0
147
1.0
 71
     0
 72
     0
 73
     0
 74
     0
 75
     0
 76
     0
 77
     1
 78
     8
170
     0
171
     0
172
     1
173
     0
174
     0
175
     0
176
   256
177
   256
178
     2
  0
DIMSTYLE
  2
BYGG-01443301$0$MASKIN
 70
     0
  3

  4

  5

  6

  7

 40
0.0
 41
3.0
 42
1.5
 43
10.0
 44
1.5
 45
0.0
 46
0.0
 47
0.0
 48
0.0
140
3.0
141
-5.0
142
0.0
143
25.399999999999999
144
-1.0
145
0.0
146
1.0
147
1.0
 71
     0
 72
     0
 73
     0
 74
     0
 75
     0
 76
     0
 77
     1
 78
     8
170
     0
171
     0
172
     1
173
     0
174
     0
175
     0
176
   256
177
   256
178
   256
  0
DIMSTYLE
  2
BYGG-030185$0$STANDARD
 70
     0
  3

  4

  5

  6

  7

 40
1.0
 41
0.18
 42
0.0625
 43
0.38
 44
0.18
 45
0.0
 46
0.0
 47
0.0
 48
0.0
140
0.18
141
0.09
142
0.0
143
25.399999999999999
144
1.0
145
0.0
146
1.0
147
0.09
 71
     0
 72
     0
 73
     1
 74
     1
 75
     0
 76
     0
 77
     0
 78
     0
170
     0
171
     2
172
     0
173
     0
174
     0
175
     0
176
     0
177
     0
178
     0
  0
DIMSTYLE
  2
BYGG-030185$0$MASKIN
 70
     0
  3

  4

  5

  6

  7

 40
0.0
 41
3.0
 42
1.5
 43
10.0
 44
1.5
 45
0.0
 46
0.0
 47
0.0
 48
0.0
140
3.0
141
-5.0
142
0.0
143
25.399999999999999
144
-1.0
145
0.0
146
1.0
147
1.0
 71
     0
 72
     0
 73
     0
 74
     1
 75
     0
 76
     0
 77
     1
 78
     8
170
     0
171
     0
172
     1
173
     0
174
     0
175
     0
176
   256
177
   256
178
     2
  0
DIMSTYLE
  2
BYGG-024798$0$MASKIN
 70
     0
  3

  4

  5

  6

  7

 40
0.0
 41
3.0
 42
1.5
 43
10.0
 44
1.5
 45
0.0
 46
0.0
 47
0.0
 48
0.0
140
3.0
141
-5.0
142
0.0
143
25.399999999999999
144
-1.0
145
0.0
146
1.0
147
1.0
 71
     0
 72
     0
 73
     0
 74
     0
 75
     0
 76
     0
 77
     1
 78
     8
170
     0
171
     0
172
     1
173
     0
174
     0
175
     0
176
   256
177
   256
178
     2
  0
DIMSTYLE
  2
BYGG-024798$0$STANDARD
 70
     0
  3

  4

  5

  6

  7

 40
1.0
 41
0.18
 42
0.0625
 43
0.38
 44
0.18
 45
0.0
 46
0.0
 47
0.0
 48
0.0
140
0.18
141
0.09
142
0.0
143
25.399999999999999
144
1.0
145
0.0
146
1.0
147
0.09
 71
     0
 72
     0
 73
     1
 74
     1
 75
     0
 76
     0
 77
     0
 78
     0
170
     0
171
     2
172
     0
173
     0
174
     0
175
     0
176
     0
177
     0
178
     0
  0
DIMSTYLE
  2
BYGG-024799$0$MASKIN
 70
     0
  3

  4

  5

  6

  7

 40
0.0
 41
3.0
 42
1.5
 43
10.0
 44
1.5
 45
0.0
 46
0.0
 47
0.0
 48
0.0
140
3.0
141
-5.0
142
0.0
143
25.399999999999999
144
-1.0
145
0.0
146
1.0
147
1.0
 71
     0
 72
     0
 73
     0
 74
     0
 75
     0
 76
     0
 77
     1
 78
     8
170
     0
171
     0
172
     1
173
     0
174
     0
175
     0
176
   256
177
   256
178
     2
  0
DIMSTYLE
  2
BYGG-024799$0$STANDARD
 70
     0
  3

  4

  5

  6

  7

 40
1.0
 41
0.18
 42
0.0625
 43
0.38
 44
0.18
 45
0.0
 46
0.0
 47
0.0
 48
0.0
140
0.18
141
0.09
142
0.0
143
25.399999999999999
144
1.0
145
0.0
146
1.0
147
0.09
 71
     0
 72
     0
 73
     1
 74
     1
 75
     0
 76
     0
 77
     0
 78
     0
170
     0
171
     2
172
     0
173
     0
174
     0
175
     0
176
     0
177
     0
178
     0
  0
DIMSTYLE
  2
BYGG-014089$0$STANDARD
 70
     0
  3

  4

  5

  6

  7

 40
1.0
 41
0.18
 42
0.0625
 43
0.38
 44
0.18
 45
0.0
 46
0.0
 47
0.0
 48
0.0
140
0.18
141
0.09
142
0.0
143
25.399999999999999
144
1.0
145
0.0
146
1.0
147
0.09
 71
     0
 72
     0
 73
     1
 74
     1
 75
     0
 76
     0
 77
     0
 78
     0
170
     0
171
     2
172
     0
173
     0
174
     0
175
     0
176
     0
177
     0
178
     0
  0
DIMSTYLE
  2
BYGG-014108$0$STANDARD
 70
     0
  3

  4

  5

  6

  7

 40
1.0
 41
0.18
 42
0.0625
 43
0.38
 44
0.18
 45
0.0
 46
0.0
 47
0.0
 48
0.0
140
0.18
141
0.09
142
0.0
143
25.399999999999999
144
1.0
145
0.0
146
1.0
147
0.09
 71
     0
 72
     0
 73
     1
 74
     1
 75
     0
 76
     0
 77
     0
 78
     0
170
     0
171
     2
172
     0
173
     0
174
     0
175
     0
176
     0
177
     0
178
     0
  0
DIMSTYLE
  2
BYGG-019611$0$STANDARD
 70
     0
  3

  4

  5

  6

  7

 40
1.0
 41
0.18
 42
0.0625
 43
0.38
 44
0.18
 45
0.0
 46
0.0
 47
0.0
 48
0.0
140
0.18
141
0.09
142
0.0
143
25.399999999999999
144
1.0
145
0.0
146
1.0
147
0.09
 71
     0
 72
     0
 73
     1
 74
     1
 75
     0
 76
     0
 77
     0
 78
     0
170
     0
171
     2
172
     0
173
     0
174
     0
175
     0
176
     0
177
     0
178
     0
  0
DIMSTYLE
  2
BYGG-019611$0$MASKIN
 70
     0
  3

  4

  5

  6

  7

 40
0.0
 41
3.0
 42
1.5
 43
10.0
 44
1.5
 45
0.0
 46
0.0
 47
0.0
 48
0.0
140
3.0
141
-5.0
142
0.0
143
25.399999999999999
144
-1.0
145
0.0
146
1.0
147
1.0
 71
     0
 72
     0
 73
     0
 74
     0
 75
     0
 76
     0
 77
     1
 78
     8
170
     0
171
     0
172
     1
173
     0
174
     0
175
     0
176
   256
177
   256
178
     2
  0
DIMSTYLE
  2
BYGG-025652$0$STANDARD
 70
     0
  3

  4

  5

  6

  7

 40
1.0
 41
0.18
 42
0.0625
 43
0.38
 44
0.18
 45
0.0
 46
0.0
 47
0.0
 48
0.0
140
0.18
141
0.09
142
0.0
143
25.399999999999999
144
1.0
145
0.0
146
1.0
147
0.09
 71
     0
 72
     0
 73
     1
 74
     1
 75
     0
 76
     0
 77
     0
 78
     0
170
     0
171
     2
172
     0
173
     0
174
     0
175
     0
176
     0
177
     0
178
     0
  0
DIMSTYLE
  2
BYGG-025652$0$MASKIN
 70
     0
  3

  4

  5

  6

  7

 40
0.0
 41
3.0
 42
1.5
 43
10.0
 44
1.5
 45
0.0
 46
0.0
 47
0.0
 48
0.0
140
3.0
141
-5.0
142
0.0
143
25.399999999999999
144
-1.0
145
0.0
146
1.0
147
1.0
 71
     0
 72
     0
 73
     0
 74
     0
 75
     0
 76
     0
 77
     1
 78
     8
170
     0
171
     0
172
     1
173
     0
174
     0
175
     0
176
   256
177
   256
178
     2
  0
DIMSTYLE
  2
BYGG-025652$0$ANNOTATIVE
 70
     0
  3

  4

  5

  6

  7

 40
1.0
 41
0.18
 42
0.0625
 43
0.38
 44
0.18
 45
0.0
 46
0.0
 47
0.0
 48
0.0
140
0.18
141
0.09
142
0.0
143
25.399999999999999
144
1.0
145
0.0
146
1.0
147
0.09
 71
     0
 72
     0
 73
     1
 74
     1
 75
     0
 76
     0
 77
     0
 78
     0
170
     0
171
     2
172
     0
173
     0
174
     0
175
     0
176
     0
177
     0
178
     0
  0
DIMSTYLE
  2
BYGG-014411$0$MASKIN
 70
     0
  3

  4

  5

  6

  7

 40
0.0
 41
3.0
 42
1.5
 43
10.0
 44
1.5
 45
0.0
 46
0.0
 47
0.0
 48
0.0
140
3.0
141
-5.0
142
0.0
143
25.399999999999999
144
-1.0
145
0.0
146
1.0
147
1.0
 71
     0
 72
     0
 73
     0
 74
     0
 75
     0
 76
     0
 77
     1
 78
     8
170
     0
171
     0
172
     1
173
     0
174
     0
175
     0
176
   256
177
   256
178
   256
  0
DIMSTYLE
  2
BYGG-014411$0$STANDARD
 70
     0
  3

  4

  5

  6

  7

 40
1.0
 41
0.18
 42
0.0625
 43
0.38
 44
0.18
 45
0.0
 46
0.0
 47
0.0
 48
0.0
140
0.18
141
0.09
142
0.0
143
25.399999999999999
144
1.0
145
0.0
146
1.0
147
0.09
 71
     0
 72
     0
 73
     1
 74
     1
 75
     0
 76
     0
 77
     0
 78
     0
170
     0
171
     2
172
     0
173
     0
174
     0
175
     0
176
     0
177
     0
178
     0
  0
DIMSTYLE
  2
BYGG-014088$0$STANDARD
 70
     0
  3

  4

  5

  6

  7

 40
1.0
 41
0.18
 42
0.0625
 43
0.38
 44
0.18
 45
0.0
 46
0.0
 47
0.0
 48
0.0
140
0.18
141
0.09
142
0.0
143
25.399999999999999
144
1.0
145
0.0
146
1.0
147
0.09
 71
     0
 72
     0
 73
     1
 74
     1
 75
     0
 76
     0
 77
     0
 78
     0
170
     0
171
     2
172
     0
173
     0
174
     0
175
     0
176
     0
177
     0
178
     0
  0
DIMSTYLE
  2
BYGG-036382$0$STANDARD
 70
     0
  3

  4

  5

  6

  7

 40
1.0
 41
0.18
 42
0.0625
 43
0.38
 44
0.18
 45
0.0
 46
0.0
 47
0.0
 48
0.0
140
0.18
141
0.09
142
0.0
143
25.399999999999999
144
1.0
145
0.0
146
1.0
147
0.09
 71
     0
 72
     0
 73
     1
 74
     1
 75
     0
 76
     0
 77
     0
 78
     0
170
     0
171
     2
172
     0
173
     0
174
     0
175
     0
176
     0
177
     0
178
     0
  0
DIMSTYLE
  2
BYGG-036382$0$MASKIN
 70
     0
  3

  4

  5

  6

  7

 40
0.0
 41
3.0
 42
1.5
 43
10.0
 44
1.5
 45
0.0
 46
0.0
 47
0.0
 48
0.0
140
3.0
141
-5.0
142
0.0
143
25.399999999999999
144
-1.0
145
0.0
146
1.0
147
1.0
 71
     0
 72
     0
 73
     0
 74
     0
 75
     0
 76
     0
 77
     1
 78
     8
170
     0
171
     0
172
     1
173
     0
174
     0
175
     0
176
   256
177
   256
178
     2
  0
DIMSTYLE
  2
BYGG-036381$0$STANDARD
 70
     0
  3

  4

  5

  6

  7

 40
1.0
 41
0.18
 42
0.0625
 43
0.38
 44
0.18
 45
0.0
 46
0.0
 47
0.0
 48
0.0
140
0.18
141
0.09
142
0.0
143
25.399999999999999
144
1.0
145
0.0
146
1.0
147
0.09
 71
     0
 72
     0
 73
     1
 74
     1
 75
     0
 76
     0
 77
     0
 78
     0
170
     0
171
     2
172
     0
173
     0
174
     0
175
     0
176
     0
177
     0
178
     0
  0
DIMSTYLE
  2
BYGG-036381$0$MASKIN
 70
     0
  3

  4

  5

  6

  7

 40
0.0
 41
3.0
 42
1.5
 43
10.0
 44
1.5
 45
0.0
 46
0.0
 47
0.0
 48
0.0
140
3.0
141
-5.0
142
0.0
143
25.399999999999999
144
-1.0
145
0.0
146
1.0
147
1.0
 71
     0
 72
     0
 73
     0
 74
     0
 75
     0
 76
     0
 77
     1
 78
     8
170
     0
171
     0
172
     1
173
     0
174
     0
175
     0
176
   256
177
   256
178
     2
  0
ENDTAB
  0
ENDSEC
  0
SECTION
  2
BLOCKS
  0
BLOCK
  8
0
  2
$MODEL_SPACE
 70
     0
 10
0.0
 20
0.0
 30
0.0
  3
$MODEL_SPACE
  1

  0
ENDBLK
  5
37
  8
0
  0
BLOCK
 67
     1
  8
0
  2
$PAPER_SPACE
 70
     0
 10
0.0
 20
0.0
 30
0.0
  3
$PAPER_SPACE
  1

  0
ENDBLK
  5
35
 67
     1
  8
0
  0
BLOCK
  8
0
  2
*D101
 70
     1
 10
0.0
 20
0.0
 30
0.0
  3
*D101
  1

  0
LINE
  5
146C
  8
SAPA_MATT
 10
-0.9999999999999916
 20
37.5
 30
0.0
 11
-13.711396133825991
 21
37.5
 31
0.0
  0
LINE
  5
146D
  8
SAPA_MATT
 10
-0.9999999999999916
 20
0.0000000000000075
 30
0.0
 11
-13.711396133826
 21
0.0000000000000111
 31
0.0
  0
LINE
  5
146E
  8
SAPA_MATT
 10
-12.211396133825991
 20
34.499999999999993
 30
0.0
 11
-12.211396133826
 21
3.0000000000000102
 31
0.0
  0
SOLID
  5
146F
  8
SAPA_MATT
 10
-12.711396133825991
 20
34.499999999999993
 30
0.0
 11
-11.711396133825991
 21
34.499999999999993
 31
0.0
 12
-12.211396133825991
 22
37.5
 32
0.0
 13
-12.211396133825991
 23
37.5
 33
0.0
  0
SOLID
  5
1470
  8
SAPA_MATT
 10
-12.711396133826
 20
3.0000000000000102
 30
0.0
 11
-11.711396133825991
 21
3.0000000000000102
 31
0.0
 12
-12.211396133826
 22
0.0000000000000107
 32
0.0
 13
-12.211396133826
 23
0.0000000000000107
 33
0.0
  0
INSERT
  5
1471
  8
0
  2
*U122
 10
0.0
 20
0.0
 30
0.0
  0
POINT
  5
1472
  8
DEFPOINTS
 62
     0
 10
0.5000000000000084
 20
37.5
 30
0.0
  0
POINT
  5
1473
  8
DEFPOINTS
 62
     0
 10
0.5000000000000084
 20
0.0000000000000071
 30
0.0
  0
POINT
  5
1474
  8
DEFPOINTS
 62
     0
 10
-12.211396133826
 20
0.0000000000000107
 30
0.0
  0
ENDBLK
  5
13F5
  8
0
  0
BLOCK
  8
0
  2
*D102
 70
     1
 10
0.0
 20
0.0
 30
0.0
  3
*D102
  1

  0
LINE
  5
1461
  8
SAPA_MATT
 10
-0.999999999999993
 20
37.499999999999993
 30
0.0
 11
-13.711396133825991
 21
37.499999999999993
 31
0.0
  0
LINE
  5
1462
  8
SAPA_MATT
 10
-0.9999999999999927
 20
42.500000002326111
 30
0.0
 11
-13.711396133825991
 21
42.500000002326111
 31
0.0
  0
LINE
  5
1463
  8
SAPA_MATT
 10
-12.211396133825991
 20
34.499999999999993
 30
0.0
 11
-12.211396133825991
 21
31.499999999999989
 31
0.0
  0
LINE
  5
1464
  8
SAPA_MATT
 10
-12.21139613382598
 20
45.500000002326111
 30
0.0
 11
-12.21139613382598
 21
48.500000002326111
 31
0.0
  0
LINE
  5
1465
  8
SAPA_MATT
 10
-12.211396133825991
 20
37.499999999999993
 30
0.0
 11
-12.211396133825991
 21
42.500000002326111
 31
0.0
  0
SOLID
  5
1466
  8
SAPA_MATT
 10
-12.711396133825991
 20
34.499999999999993
 30
0.0
 11
-11.711396133825991
 21
34.499999999999993
 31
0.0
 12
-12.211396133825991
 22
37.499999999999993
 32
0.0
 13
-12.211396133825991
 23
37.499999999999993
 33
0.0
  0
SOLID
  5
1467
  8
SAPA_MATT
 10
-12.71139613382598
 20
45.500000002326111
 30
0.0
 11
-11.71139613382598
 21
45.500000002326111
 31
0.0
 12
-12.211396133825991
 22
42.500000002326111
 32
0.0
 13
-12.211396133825991
 23
42.500000002326111
 33
0.0
  0
INSERT
  5
1468
  8
0
  2
*U121
 10
0.0
 20
0.0
 30
0.0
  0
POINT
  5
1469
  8
DEFPOINTS
 62
     0
 10
0.5000000000000071
 20
37.499999999999993
 30
0.0
  0
POINT
  5
146A
  8
DEFPOINTS
 62
     0
 10
0.5000000000000071
 20
42.500000002326111
 30
0.0
  0
POINT
  5
146B
  8
DEFPOINTS
 62
     0
 10
-12.211396133825991
 20
42.500000002326111
 30
0.0
  0
ENDBLK
  5
1401
  8
0
  0
BLOCK
  8
0
  2
*D103
 70
     1
 10
0.0
 20
0.0
 30
0.0
  3
*D103
  1

  0
LINE
  5
1458
  8
SAPA_MATT
 10
-0.9999999929501051
 20
42.500000002326111
 30
0.0
 11
-13.71139613382598
 21
42.500000002326111
 31
0.0
  0
LINE
  5
1459
  8
SAPA_MATT
 10
-1.1999999928431371
 20
139.50000000229051
 30
0.0
 11
-13.711396133825961
 21
139.50000000229051
 31
0.0
  0
LINE
  5
145A
  8
SAPA_MATT
 10
-12.21139613382598
 20
45.500000002326111
 30
0.0
 11
-12.211396133825961
 21
136.50000000229051
 31
0.0
  0
SOLID
  5
145B
  8
SAPA_MATT
 10
-12.71139613382598
 20
45.500000002326111
 30
0.0
 11
-11.71139613382598
 21
45.500000002326111
 31
0.0
 12
-12.21139613382598
 22
42.500000002326111
 32
0.0
 13
-12.21139613382598
 23
42.500000002326111
 33
0.0
  0
SOLID
  5
145C
  8
SAPA_MATT
 10
-12.711396133825961
 20
136.50000000229051
 30
0.0
 11
-11.711396133825961
 21
136.50000000229051
 31
0.0
 12
-12.211396133825961
 22
139.50000000229051
 32
0.0
 13
-12.211396133825961
 23
139.50000000229051
 33
0.0
  0
INSERT
  5
145D
  8
0
  2
*U120
 10
0.0
 20
0.0
 30
0.0
  0
POINT
  5
145E
  8
DEFPOINTS
 62
     0
 10
0.5000000070498949
 20
42.500000002326111
 30
0.0
  0
POINT
  5
145F
  8
DEFPOINTS
 62
     0
 10
0.3000000071568625
 20
139.50000000229051
 30
0.0
  0
POINT
  5
1460
  8
DEFPOINTS
 62
     0
 10
-12.211396133825961
 20
139.50000000229051
 30
0.0
  0
ENDBLK
  5
140F
  8
0
  0
BLOCK
  8
0
  2
*D104
 70
     1
 10
0.0
 20
0.0
 30
0.0
  3
*D104
  1

  0
LINE
  5
144F
  8
SAPA_MATT
 10
-1.1999999928431371
 20
139.50000000229051
 30
0.0
 11
-27.736646070995711
 21
139.50000000229051
 31
0.0
  0
LINE
  5
1450
  8
SAPA_MATT
 10
-1.0
 20
0.0000000000000004
 30
0.0
 11
-27.736646070995739
 21
0.000000000000008
 31
0.0
  0
LINE
  5
1451
  8
SAPA_MATT
 10
-26.2366460709957
 20
136.50000000229051
 30
0.0
 11
-26.236646070995739
 21
3.0000000000000071
 31
0.0
  0
SOLID
  5
1452
  8
SAPA_MATT
 10
-26.736646070995711
 20
136.50000000229051
 30
0.0
 11
-25.736646070995711
 21
136.50000000229051
 31
0.0
 12
-26.2366460709957
 22
139.50000000229051
 32
0.0
 13
-26.2366460709957
 23
139.50000000229051
 33
0.0
  0
SOLID
  5
1453
  8
SAPA_MATT
 10
-26.736646070995739
 20
3.0000000000000071
 30
0.0
 11
-25.736646070995739
 21
3.0000000000000071
 31
0.0
 12
-26.236646070995739
 22
0.0000000000000076
 32
0.0
 13
-26.236646070995739
 23
0.0000000000000076
 33
0.0
  0
INSERT
  5
1454
  8
0
  2
*U119
 10
0.0
 20
0.0
 30
0.0
  0
POINT
  5
1455
  8
DEFPOINTS
 62
     0
 10
0.3000000071568625
 20
139.50000000229051
 30
0.0
  0
POINT
  5
1456
  8
DEFPOINTS
 62
     0
 10
0.5
 20
0.0
 30
0.0
  0
POINT
  5
1457
  8
DEFPOINTS
 62
     0
 10
-26.236646070995739
 20
0.0000000000000076
 30
0.0
  0
ENDBLK
  5
141B
  8
0
  0
BLOCK
  8
0
  2
*D105
 70
     1
 10
0.0
 20
0.0
 30
0.0
  3
*D105
  1

  0
LINE
  5
1446
  8
SAPA_MATT
 10
0.0
 20
-0.9999999999999928
 30
0.0
 11
-0.0000000000000019
 21
-31.617582331900199
 31
0.0
  0
LINE
  5
1447
  8
SAPA_MATT
 10
95.500000000000085
 20
27.71687800000214
 30
0.0
 11
95.500000000000085
 21
-31.617582331900199
 31
0.0
  0
LINE
  5
1448
  8
SAPA_MATT
 10
2.9999999999999978
 20
-30.117582331900199
 30
0.0
 11
92.500000000000085
 21
-30.117582331900199
 31
0.0
  0
SOLID
  5
1449
  8
SAPA_MATT
 10
2.9999999999999978
 20
-29.617582331900199
 30
0.0
 11
2.9999999999999978
 21
-30.617582331900191
 31
0.0
 12
-0.0000000000000018
 22
-30.117582331900199
 32
0.0
 13
-0.0000000000000018
 23
-30.117582331900199
 33
0.0
  0
SOLID
  5
144A
  8
SAPA_MATT
 10
92.500000000000085
 20
-29.617582331900199
 30
0.0
 11
92.500000000000085
 21
-30.617582331900191
 31
0.0
 12
95.500000000000085
 22
-30.117582331900199
 32
0.0
 13
95.500000000000085
 23
-30.117582331900199
 33
0.0
  0
INSERT
  5
144B
  8
0
  2
*U118
 10
0.0
 20
0.0
 30
0.0
  0
POINT
  5
144C
  8
DEFPOINTS
 62
     0
 10
0.0000000000000001
 20
0.5000000000000071
 30
0.0
  0
POINT
  5
144D
  8
DEFPOINTS
 62
     0
 10
95.500000000000085
 20
29.21687800000214
 30
0.0
  0
POINT
  5
144E
  8
DEFPOINTS
 62
     0
 10
95.500000000000085
 20
-30.117582331900199
 30
0.0
  0
ENDBLK
  5
1427
  8
0
  0
BLOCK
  8
0
  2
*D106
 70
     1
 10
0.0
 20
0.0
 30
0.0
  3
*D106
  1

  0
LINE
  5
143D
  8
SAPA_MATT
 10
209.80057045145
 20
176.0014761862499
 30
0.0
 11
209.80057045145
 21
193.20059980027801
 31
0.0
  0
LINE
  5
143E
  8
SAPA_MATT
 10
9.8005704514499712
 20
176.0014761862499
 30
0.0
 11
9.8005704514499712
 21
193.20059980027801
 31
0.0
  0
LINE
  5
143F
  8
SAPA_MATT
 10
206.80057045145
 20
191.70059980027801
 30
0.0
 11
12.800570451449969
 21
191.70059980027801
 31
0.0
  0
SOLID
  5
1440
  8
SAPA_MATT
 10
206.80057045145
 20
192.20059980027801
 30
0.0
 11
206.80057045145
 21
191.20059980027801
 31
0.0
 12
209.80057045145
 22
191.70059980027801
 32
0.0
 13
209.80057045145
 23
191.70059980027801
 33
0.0
  0
SOLID
  5
1441
  8
SAPA_MATT
 10
12.800570451449969
 20
192.20059980027801
 30
0.0
 11
12.800570451449969
 21
191.20059980027801
 31
0.0
 12
9.8005704514499712
 22
191.70059980027801
 32
0.0
 13
9.8005704514499712
 23
191.70059980027801
 33
0.0
  0
INSERT
  5
1442
  8
0
  2
*U117
 10
0.0
 20
0.0
 30
0.0
  0
POINT
  5
1443
  8
DEFPOINTS
 62
     0
 10
209.80057045145
 20
174.50147618624979
 30
0.0
  0
POINT
  5
1444
  8
DEFPOINTS
 62
     0
 10
9.8005704514499712
 20
174.50147618624979
 30
0.0
  0
POINT
  5
1445
  8
DEFPOINTS
 62
     0
 10
9.8005704514499712
 20
191.70059980027801
 30
0.0
  0
ENDBLK
  5
1433
  8
0
  0
BLOCK
  8
0
  2
*X107
 70
     1
 10
0.0
 20
0.0
 30
0.0
  3
*X107
  1

  0
LINE
  5
1F53
  8
0
 62
     0
 10
215.38123435971849
 20
135.99188230253711
 30
0.0
 11
215.5292352415608
 21
136.248227349453
 31
0.0
  0
LINE
  5
1F54
  8
0
 62
     0
 10
214.19060935971851
 20
133.92965930977539
 30
0.0
 11
214.5874843597185
 21
134.61706697402931
 31
0.0
  0
LINE
  5
1F55
  8
0
 62
     0
 10
213.0851846668821
 20
132.01500757784149
 30
0.0
 11
213.39685935971849
 21
132.5548439812676
 31
0.0
  0
LINE
  5
1F56
  8
0
 62
     0
 10
214.19060964421459
 20
136.67928980253711
 30
0.0
 11
214.58748464421461
 21
137.36669746679101
 31
0.0
  0
LINE
  5
1F57
  8
0
 62
     0
 10
212.99998464421461
 20
134.61706680977539
 30
0.0
 11
213.3968596442146
 21
135.3044744740294
 31
0.0
  0
LINE
  5
1F58
  8
0
 62
     0
 10
211.8093596442146
 20
132.55484381701379
 30
0.0
 11
212.20623464421459
 21
133.24225148126769
 31
0.0
  0
LINE
  5
1F59
  8
0
 62
     0
 10
212.99998492871069
 20
137.3666973025372
 30
0.0
 11
213.33841199417111
 21
137.95287017457099
 31
0.0
  0
LINE
  5
1F5A
  8
0
 62
     0
 10
211.80935992871071
 20
135.30447430977549
 30
0.0
 11
212.2062349287107
 21
135.99188197402941
 31
0.0
  0
LINE
  5
1F5B
  8
0
 62
     0
 10
210.61873492871069
 20
133.2422513170138
 30
0.0
 11
211.01560992871069
 21
133.92965898126769
 31
0.0
  0
LINE
  5
1F5C
  8
0
 62
     0
 10
210.6187352132068
 20
135.99188180977541
 30
0.0
 11
211.0156102132068
 21
136.6792894740293
 31
0.0
  0
LINE
  5
1F5D
  8
0
 62
     0
 10
214.58746956592151
 20
135.99185569340571
 30
0.0
 11
214.19059456592149
 21
136.67926335765961
 31
0.0
  0
LINE
  5
1F5E
  8
0
 62
     0
 10
215.66816104279201
 20
134.12004314815931
 30
0.0
 11
215.3812195659215
 21
134.61704036489789
 31
0.0
  0
LINE
  5
1F5F
  8
0
 62
     0
 10
212.2062198504176
 20
137.36667118616731
 30
0.0
 11
211.91661072219159
 21
137.86828891059039
 31
0.0
  0
LINE
  5
1F60
  8
0
 62
     0
 10
213.39684485041749
 20
135.3044481934057
 30
0.0
 11
212.99996985041761
 21
135.9918558576596
 31
0.0
  0
LINE
  5
1F61
  8
0
 62
     0
 10
214.58746985041751
 20
133.24222520064399
 30
0.0
 11
214.1905948504176
 21
133.92963286489791
 31
0.0
  0
LINE
  5
1F62
  8
0
 62
     0
 10
211.0155951349137
 20
136.6792636861673
 30
0.0
 11
210.7305840928384
 21
137.17291729176
 31
0.0
  0
LINE
  5
1F63
  8
0
 62
     0
 10
212.20622013491371
 20
134.61704069340561
 30
0.0
 11
211.80934513491371
 21
135.3044483576596
 31
0.0
  0
LINE
  5
1F64
  8
0
 62
     0
 10
213.39684513491369
 20
132.55481770064401
 30
0.0
 11
212.9999701349137
 21
133.24222536489779
 31
0.0
  0
LINE
  5
1F65
  8
0
 62
     0
 10
211.01559541940981
 20
133.92963319340561
 30
0.0
 11
210.6187204194097
 21
134.6170408576595
 31
0.0
  0
LINE
  5
1F66
  8
0
 62
     0
 10
212.0777980079267
 20
132.08984434216299
 30
0.0
 11
211.80934541940971
 21
132.55481786489781
 31
0.0
  0
LINE
  5
1F67
  8
0
 62
     0
 10
214.5875000070038
 20
133.24222618616739
 30
0.0
 11
215.2305991421419
 21
133.24222618616739
 31
0.0
  0
LINE
  5
1F68
  8
0
 62
     0
 10
212.2062500070038
 20
133.24222618616739
 30
0.0
 11
213.00000000700379
 21
133.24222618616739
 31
0.0
  0
LINE
  5
1F69
  8
0
 62
     0
 10
210.3705417607591
 20
133.24222618616739
 30
0.0
 11
210.6187500070038
 21
133.24222618616739
 31
0.0
  0
LINE
  5
1F6A
  8
0
 62
     0
 10
214.5875000070038
 20
134.6170411861674
 30
0.0
 11
215.38125000700381
 21
134.6170411861674
 31
0.0
  0
LINE
  5
1F6B
  8
0
 62
     0
 10
212.2062500070038
 20
134.6170411861674
 30
0.0
 11
213.00000000700379
 21
134.6170411861674
 31
0.0
  0
LINE
  5
1F6C
  8
0
 62
     0
 10
209.82530412206191
 20
134.6170411861674
 30
0.0
 11
210.6187500070038
 21
134.6170411861674
 31
0.0
  0
LINE
  5
1F6D
  8
0
 62
     0
 10
214.5875000070038
 20
135.99185618616741
 30
0.0
 11
215.38125000700381
 21
135.99185618616741
 31
0.0
  0
LINE
  5
1F6E
  8
0
 62
     0
 10
212.2062500070038
 20
135.99185618616741
 30
0.0
 11
213.00000000700379
 21
135.99185618616741
 31
0.0
  0
LINE
  5
1F6F
  8
0
 62
     0
 10
209.96876052570451
 20
135.99185618616741
 30
0.0
 11
210.6187500070038
 21
135.99185618616741
 31
0.0
  0
LINE
  5
1F70
  8
0
 62
     0
 10
214.5875000070038
 20
137.36667118616739
 30
0.0
 11
214.64606567275669
 21
137.36667118616739
 31
0.0
  0
LINE
  5
1F71
  8
0
 62
     0
 10
212.2062500070038
 20
137.36667118616739
 30
0.0
 11
213.00000000700379
 21
137.36667118616739
 31
0.0
  0
ENDBLK
  5
1F73
  8
0
  0
BLOCK
  8
0
  2
*X108
 70
     1
 10
0.0
 20
0.0
 30
0.0
  3
*X108
  1

  0
LINE
  5
1F75
  8
0
 62
     0
 10
216.79983257961359
 20
139.1250023830145
 30
0.0
 11
216.0878205713812
 21
139.8370143912469
 31
0.0
  0
LINE
  5
1F76
  8
0
 62
     0
 10
216.23856657204681
 20
138.56373637544769
 30
0.0
 11
214.5544133221473
 21
140.2478896253472
 31
0.0
  0
LINE
  5
1F77
  8
0
 62
     0
 10
215.67730056447999
 20
138.0024703678809
 30
0.0
 11
213.02100607291331
 21
140.6587648594475
 31
0.0
  0
LINE
  5
1F78
  8
0
 62
     0
 10
215.34528757710049
 20
137.2119513401266
 30
0.0
 11
211.48759882367949
 21
141.06964009354769
 31
0.0
  0
LINE
  5
1F79
  8
0
 62
     0
 10
213.52102429018879
 20
137.9136826119047
 30
0.0
 11
209.95419157444559
 21
141.48051532764799
 31
0.0
  0
LINE
  5
1F7A
  8
0
 62
     0
 10
215.8005704514502
 20
135.63413645064341
 30
0.0
 11
215.7127768772117
 21
135.72193002488191
 31
0.0
  0
LINE
  5
1F7B
  8
0
 62
     0
 10
212.34542580439441
 20
137.96674908256551
 30
0.0
 11
209.80057045145
 21
140.51160443550989
 31
0.0
  0
LINE
  5
1F7C
  8
0
 62
     0
 10
211.48971294410489
 20
137.69992992772131
 30
0.0
 11
209.80057045145
 21
139.38907242037621
 31
0.0
  0
LINE
  5
1F7D
  8
0
 62
     0
 10
210.81592631894091
 20
137.2511845377517
 30
0.0
 11
209.80057045145
 21
138.26654040524261
 31
0.0
  0
LINE
  5
1F7E
  8
0
 62
     0
 10
210.29429299319369
 20
136.6502858483652
 30
0.0
 11
209.80057045145
 21
137.14400839010901
 31
0.0
  0
LINE
  5
1F7F
  8
0
 62
     0
 10
209.93443084239411
 20
135.88761598403121
 30
0.0
 11
209.80057045145
 21
136.02147637497529
 31
0.0
  0
LINE
  5
1F80
  8
0
 62
     0
 10
215.68750684598601
 20
135.81731823819999
 30
0.0
 11
215.8005704514502
 21
135.93038184366409
 31
0.0
  0
LINE
  5
1F81
  8
0
 62
     0
 10
215.3424728032966
 20
136.5948162106443
 30
0.0
 11
215.62987686829049
 21
136.88222027563819
 31
0.0
  0
LINE
  5
1F82
  8
0
 62
     0
 10
214.83312179194459
 20
137.207997214426
 30
0.0
 11
217.17171131841451
 21
139.5465867408958
 31
0.0
  0
LINE
  5
1F83
  8
0
 62
     0
 10
214.1721638597231
 20
137.66957129733811
 30
0.0
 11
216.28639823029201
 21
139.7838056679069
 31
0.0
  0
LINE
  5
1F84
  8
0
 62
     0
 10
213.3337724359906
 20
137.95371188873909
 30
0.0
 11
215.40108514216939
 21
140.02102459491809
 31
0.0
  0
LINE
  5
1F85
  8
0
 62
     0
 10
212.19783212141019
 20
137.9403035892924
 30
0.0
 11
214.51577205404701
 21
140.25824352192919
 31
0.0
  0
LINE
  5
1F86
  8
0
 62
     0
 10
209.80057045145
 20
135.54304191933221
 30
0.0
 11
209.8617430483007
 21
135.60421451618299
 31
0.0
  0
LINE
  5
1F87
  8
0
 62
     0
 10
209.80057045145
 20
136.6655739344659
 30
0.0
 11
213.63045896592439
 21
140.49546244894029
 31
0.0
  0
LINE
  5
1F88
  8
0
 62
     0
 10
209.80057045145
 20
137.7881059495995
 30
0.0
 11
212.74514587780189
 21
140.7326813759515
 31
0.0
  0
LINE
  5
1F89
  8
0
 62
     0
 10
209.80057045145
 20
138.9106379647331
 30
0.0
 11
211.8598327896795
 21
140.9699003029626
 31
0.0
  0
LINE
  5
1F8A
  8
0
 62
     0
 10
209.80057045144989
 20
140.03316997986681
 30
0.0
 11
210.97451970155689
 21
141.2071192299737
 31
0.0
  0
LINE
  5
1F8B
  8
0
 62
     0
 10
209.80057045144989
 20
141.15570199500041
 30
0.0
 11
210.08920661343441
 21
141.44433815698491
 31
0.0
  0
ENDBLK
  5
1F8D
  8
0
  0
BLOCK
  8
0
  2
*X109
 70
     1
 10
0.0
 20
0.0
 30
0.0
  3
*X109
  1

  0
LINE
  5
1F8F
  8
0
 62
     0
 10
9.8005704514498504
 20
160.81183136102129
 30
0.0
 11
9.7579924281263217
 21
160.85440938434479
 31
0.0
  0
LINE
  5
1F90
  8
0
 62
     0
 10
9.8005704514498504
 20
159.6892993458876
 30
0.0
 11
9.6938477386274826
 21
159.79602205871001
 31
0.0
  0
LINE
  5
1F91
  8
0
 62
     0
 10
9.8005704514498575
 20
158.566767330754
 30
0.0
 11
9.2971528116238318
 21
159.07018497057999
 31
0.0
  0
LINE
  5
1F92
  8
0
 62
     0
 10
9.8005704514498433
 20
157.44423531562029
 30
0.0
 11
8.5484358260286015
 21
158.69636994104161
 31
0.0
  0
LINE
  5
1F93
  8
0
 62
     0
 10
9.8005704514498504
 20
156.32170330048669
 30
0.0
 11
7.9426691954488566
 21
158.1796045564877
 31
0.0
  0
LINE
  5
1F94
  8
0
 62
     0
 10
9.8005704514498433
 20
155.19917128535309
 30
0.0
 11
7.9457124987281196
 21
157.0540292380748
 31
0.0
  0
LINE
  5
1F95
  8
0
 62
     0
 10
9.8005704514498504
 20
154.0766392702194
 30
0.0
 11
8.2334494116350143
 21
155.64376031003431
 31
0.0
  0
LINE
  5
1F96
  8
0
 62
     0
 10
9.8005704514498575
 20
152.9541072550858
 30
0.0
 11
8.5211863245419011
 21
154.2334913819937
 31
0.0
  0
LINE
  5
1F97
  8
0
 62
     0
 10
9.8005704514498468
 20
151.83157523995209
 30
0.0
 11
8.8089232374487878
 21
152.82322245395321
 31
0.0
  0
LINE
  5
1F98
  8
0
 62
     0
 10
9.8005704514498522
 20
150.70904322481849
 30
0.0
 11
9.0966601503556959
 21
151.41295352591271
 31
0.0
  0
LINE
  5
1F99
  8
0
 62
     0
 10
9.8005704514498468
 20
149.58651120968489
 30
0.0
 11
9.1165455331380212
 21
150.27053612799671
 31
0.0
  0
LINE
  5
1F9A
  8
0
 62
     0
 10
9.8005704514498522
 20
148.4639791945512
 30
0.0
 11
9.0524008436391874
 21
149.2121488023619
 31
0.0
  0
LINE
  5
1F9B
  8
0
 62
     0
 10
9.8005704514498468
 20
147.3414471794176
 30
0.0
 11
8.988256154140366
 21
148.15376147672711
 31
0.0
  0
LINE
  5
1F9C
  8
0
 62
     0
 10
9.8005704514498522
 20
146.21891516428391
 30
0.0
 11
8.924111464641534
 21
147.09537415109219
 31
0.0
  0
LINE
  5
1F9D
  8
0
 62
     0
 10
9.8005704514498468
 20
145.0963831491502
 30
0.0
 11
8.8599667751427233
 21
146.0369868254574
 31
0.0
  0
LINE
  5
1F9E
  8
0
 62
     0
 10
9.3060351617480208
 20
145.05664411272741
 30
0.0
 11
9.8005704514498433
 21
145.5511794024292
 31
0.0
  0
LINE
  5
1F9F
  8
0
 62
     0
 10
8.8403616719286333
 20
145.7135026380416
 30
0.0
 11
9.8005704514498575
 21
146.67371141756291
 31
0.0
  0
LINE
  5
1FA0
  8
0
 62
     0
 10
8.9127830959816734
 20
146.90845607722829
 30
0.0
 11
9.8005704514498575
 21
147.79624343269651
 31
0.0
  0
LINE
  5
1FA1
  8
0
 62
     0
 10
8.985204520034749
 20
148.10340951641501
 30
0.0
 11
9.8005704514498575
 21
148.91877544783009
 31
0.0
  0
LINE
  5
1FA2
  8
0
 62
     0
 10
9.0576259440877962
 20
149.2983629556017
 30
0.0
 11
9.8005704514498575
 21
150.0413074629638
 31
0.0
  0
LINE
  5
1FA3
  8
0
 62
     0
 10
9.1300473681408576
 20
150.49331639478839
 30
0.0
 11
9.8005704514498575
 21
151.1638394780974
 31
0.0
  0
LINE
  5
1FA4
  8
0
 62
     0
 10
9.0679360956927155
 20
151.55373713747389
 30
0.0
 11
9.8005704514498575
 21
152.28637149323109
 31
0.0
  0
LINE
  5
1FA5
  8
0
 62
     0
 10
8.8777165517519947
 20
152.48604960866689
 30
0.0
 11
9.8005704514498504
 21
153.40890350836469
 31
0.0
  0
LINE
  5
1FA6
  8
0
 62
     0
 10
8.6874970078112739
 20
153.4183620798598
 30
0.0
 11
9.8005704514498575
 21
154.5314355234984
 31
0.0
  0
LINE
  5
1FA7
  8
0
 62
     0
 10
8.4972774638705388
 20
154.35067455105269
 30
0.0
 11
9.8005704514498504
 21
155.653967538632
 31
0.0
  0
LINE
  5
1FA8
  8
0
 62
     0
 10
8.3070579199298251
 20
155.28298702224561
 30
0.0
 11
9.8005704514498646
 21
156.77649955376569
 31
0.0
  0
LINE
  5
1FA9
  8
0
 62
     0
 10
8.1168383759891043
 20
156.21529949343849
 30
0.0
 11
9.8005704514498575
 21
157.89903156889929
 31
0.0
  0
LINE
  5
1FAA
  8
0
 62
     0
 10
7.9266188320483693
 20
157.14761196463149
 30
0.0
 11
9.8005704514498575
 21
159.021563584033
 31
0.0
  0
LINE
  5
1FAB
  8
0
 62
     0
 10
9.7094187605654128
 20
160.05294390828209
 30
0.0
 11
9.8005704514498646
 21
160.1440955991666
 31
0.0
  0
LINE
  5
1FAC
  8
0
 62
     0
 10
9.7818401846184582
 20
161.24789734746881
 30
0.0
 11
9.8005704514498646
 21
161.26662761430021
 31
0.0
  0
ENDBLK
  5
1FAE
  8
0
  0
BLOCK
  8
0
  2
*X110
 70
     1
 10
0.0
 20
0.0
 30
0.0
  3
*X110
  1

  0
LINE
  5
1FB0
  8
0
 62
     0
 10
9.8005704514499712
 20
141.7287871037492
 30
0.0
 11
9.5403358860890322
 21
141.9890216691102
 31
0.0
  0
LINE
  5
1FB1
  8
0
 62
     0
 10
9.8005704514499605
 20
140.6062550886156
 30
0.0
 11
8.6550227979665166
 21
141.75180274209899
 31
0.0
  0
LINE
  5
1FB2
  8
0
 62
     0
 10
9.8005704514499747
 20
139.48372307348191
 30
0.0
 11
7.7697097098440011
 21
141.51458381508789
 31
0.0
  0
LINE
  5
1FB3
  8
0
 62
     0
 10
9.8005704514499605
 20
138.36119105834831
 30
0.0
 11
6.8843966217214989
 21
141.27736488807679
 31
0.0
  0
LINE
  5
1FB4
  8
0
 62
     0
 10
9.8005704514499641
 20
137.23865904321471
 30
0.0
 11
5.9990835335989798
 21
141.0401459610656
 31
0.0
  0
LINE
  5
1FB5
  8
0
 62
     0
 10
9.8005704514499747
 20
136.116127028081
 30
0.0
 11
5.1137704454764652
 21
140.80292703405451
 31
0.0
  0
LINE
  5
1FB6
  8
0
 62
     0
 10
9.8005704514499676
 20
134.99359501294731
 30
0.0
 11
4.2284573573539532
 21
140.56570810704341
 31
0.0
  0
LINE
  5
1FB7
  8
0
 62
     0
 10
9.8005704514499712
 20
133.87106299781371
 30
0.0
 11
3.3431442692314368
 21
140.32848918003231
 31
0.0
  0
LINE
  5
1FB8
  8
0
 62
     0
 10
7.2691073729046174
 20
135.27999406122541
 30
0.0
 11
2.4578311811089182
 21
140.09127025302109
 31
0.0
  0
LINE
  5
1FB9
  8
0
 62
     0
 10
9.8005704514499641
 20
132.74853098268011
 30
0.0
 11
9.5050142044611761
 21
133.04408722966889
 31
0.0
  0
LINE
  5
1FBA
  8
0
 62
     0
 10
5.8523041450335
 20
135.57426527396291
 30
0.0
 11
1.572518092986406
 21
139.85405132600999
 31
0.0
  0
LINE
  5
1FBB
  8
0
 62
     0
 10
9.8005704514499712
 20
131.62599896754639
 30
0.0
 11
9.7992854171986501
 21
131.6272840017977
 31
0.0
  0
LINE
  5
1FBC
  8
0
 62
     0
 10
4.8335882808467039
 20
135.47044912301601
 30
0.0
 11
0.6872050048638912
 21
139.61683239899889
 31
0.0
  0
LINE
  5
1FBD
  8
0
 62
     0
 10
4.0024778791548661
 20
135.17902750957421
 30
0.0
 11
1.7000000071927199
 21
137.48150538153641
 31
0.0
  0
LINE
  5
1FBE
  8
0
 62
     0
 10
3.3049265674842192
 20
134.75404680611121
 30
0.0
 11
1.700000007192713
 21
136.35897336640281
 31
0.0
  0
LINE
  5
1FBF
  8
0
 62
     0
 10
2.7217700184974731
 20
134.2146713399643
 30
0.0
 11
1.7000000071926951
 21
135.23644135126909
 31
0.0
  0
LINE
  5
1FC0
  8
0
 62
     0
 10
2.250293999632877
 20
133.56361534369529
 30
0.0
 11
1.700000007192688
 21
134.11390933613549
 31
0.0
  0
LINE
  5
1FC1
  8
0
 62
     0
 10
1.902241442774329
 20
132.78913588542019
 30
0.0
 11
1.7000000071926911
 21
132.99137732100189
 31
0.0
  0
LINE
  5
1FC2
  8
0
 62
     0
 10
1.7134745314583451
 20
131.85537078160249
 30
0.0
 11
1.7000000071926811
 21
131.86884530586821
 31
0.0
  0
LINE
  5
1FC3
  8
0
 62
     0
 10
9.7668205264760886
 20
132.04704529585169
 30
0.0
 11
9.8005704514499783
 21
132.08079522082559
 31
0.0
  0
LINE
  5
1FC4
  8
0
 62
     0
 10
9.5432233063145642
 20
132.94598009082389
 30
0.0
 11
9.8005704514499712
 21
133.20332723595931
 31
0.0
  0
LINE
  5
1FC5
  8
0
 62
     0
 10
9.1701215012896569
 20
133.69541030093259
 30
0.0
 11
9.8005704514499854
 21
134.32585925109291
 31
0.0
  0
LINE
  5
1FC6
  8
0
 62
     0
 10
8.6771430872581519
 20
134.32496390203471
 30
0.0
 11
9.8005704514499783
 21
135.44839126622651
 31
0.0
  0
LINE
  5
1FC7
  8
0
 62
     0
 10
8.0730088816074925
 20
134.8433617115177
 30
0.0
 11
9.8005704514499783
 21
136.57092328136019
 31
0.0
  0
LINE
  5
1FC8
  8
0
 62
     0
 10
7.3523522400803349
 20
135.24523708512419
 30
0.0
 11
9.8005704514499712
 21
137.6934552964938
 31
0.0
  0
LINE
  5
1FC9
  8
0
 62
     0
 10
6.4916969266561111
 20
135.5071137868336
 30
0.0
 11
9.8005704514499712
 21
138.81598731162751
 31
0.0
  0
LINE
  5
1FCA
  8
0
 62
     0
 10
5.4244759411188559
 20
135.56242481643
 30
0.0
 11
9.8005704514499641
 21
139.93851932676111
 31
0.0
  0
LINE
  5
1FCB
  8
0
 62
     0
 10
1.70000000719267
 20
131.83794888250381
 30
0.0
 11
1.713125498976886
 21
131.851074374288
 31
0.0
  0
LINE
  5
1FCC
  8
0
 62
     0
 10
3.8319889517625891
 20
135.09246984220741
 30
0.0
 11
9.8005704514499783
 21
141.0610513418948
 31
0.0
  0
LINE
  5
1FCD
  8
0
 62
     0
 10
1.700000007192684
 20
132.9604808976375
 30
0.0
 11
2.1830804731995168
 21
133.44356136364431
 31
0.0
  0
LINE
  5
1FCE
  8
0
 62
     0
 10
1.7000000071926991
 20
134.0830129127711
 30
0.0
 11
9.6300467050153884
 21
142.01305961059381
 31
0.0
  0
LINE
  5
1FCF
  8
0
 62
     0
 10
1.7000000071926991
 20
135.20554492790481
 30
0.0
 11
8.0966394557814851
 21
141.6021843764936
 31
0.0
  0
LINE
  5
1FD0
  8
0
 62
     0
 10
1.7000000071927199
 20
136.3280769430385
 30
0.0
 11
6.5632322065476103
 21
141.19130914239329
 31
0.0
  0
LINE
  5
1FD1
  8
0
 62
     0
 10
1.700000007192727
 20
137.4506089581721
 30
0.0
 11
5.029824957313707
 21
140.78043390829311
 31
0.0
  0
LINE
  5
1FD2
  8
0
 62
     0
 10
1.5268106941212449
 20
138.39995166023431
 30
0.0
 11
3.4964177080798251
 21
140.3695586741928
 31
0.0
  0
LINE
  5
1FD3
  8
0
 62
     0
 10
0.9655446865544448
 20
138.96121766780109
 30
0.0
 11
1.9630104588459281
 21
139.95868344009261
 31
0.0
  0
LINE
  5
1FD4
  8
0
 62
     0
 10
0.3748147923290475
 20
139.4930197887094
 30
0.0
 11
0.4296032096120328
 21
139.54780820599231
 31
0.0
  0
ENDBLK
  5
1FD6
  8
0
  0
BLOCK
  8
0
  2
*X111
 70
     1
 10
0.0
 20
0.0
 30
0.0
  3
*X111
  1

  0
LINE
  5
1FD8
  8
0
 62
     0
 10
9.4156278519648176
 20
131.18001797625649
 30
0.0
 11
9.7892981315759453
 21
131.82723388582141
 31
0.0
  0
LINE
  5
1FD9
  8
0
 62
     0
 10
8.2250028519648168
 20
129.1177949834948
 30
0.0
 11
8.6218778519648165
 21
129.8052026477487
 31
0.0
  0
LINE
  5
1FDA
  8
0
 62
     0
 10
8.2250031364609093
 20
131.8674254762565
 30
0.0
 11
8.6218781364609072
 21
132.5548331405104
 31
0.0
  0
LINE
  5
1FDB
  8
0
 62
     0
 10
7.0343781364609068
 20
129.80520248349481
 30
0.0
 11
7.4312531364609082
 21
130.49261014774871
 31
0.0
  0
LINE
  5
1FDC
  8
0
 62
     0
 10
5.8437531364609061
 20
127.74297949073311
 30
0.0
 11
6.2406281364609066
 21
128.43038715498699
 31
0.0
  0
LINE
  5
1FDD
  8
0
 62
     0
 10
8.2250034209570124
 20
134.6170559690182
 30
0.0
 11
8.270541576158088
 21
134.69593036750939
 31
0.0
  0
LINE
  5
1FDE
  8
0
 62
     0
 10
7.0343784209570099
 20
132.55483297625651
 30
0.0
 11
7.4312534209570114
 21
133.2422406405104
 31
0.0
  0
LINE
  5
1FDF
  8
0
 62
     0
 10
5.8437534209570101
 20
130.49260998349479
 30
0.0
 11
6.2406284209570098
 21
131.18001764774871
 31
0.0
  0
LINE
  5
1FE0
  8
0
 62
     0
 10
4.6531284209570094
 20
128.4303869907331
 30
0.0
 11
5.050003420957009
 21
129.11779465498699
 31
0.0
  0
LINE
  5
1FE1
  8
0
 62
     0
 10
7.0343787054531077
 20
135.3044634690182
 30
0.0
 11
7.064390182504181
 21
135.3564448720808
 31
0.0
  0
LINE
  5
1FE2
  8
0
 62
     0
 10
5.843753705453107
 20
133.24224047625651
 30
0.0
 11
6.2406287054531084
 21
133.92964814051041
 31
0.0
  0
LINE
  5
1FE3
  8
0
 62
     0
 10
4.6531287054531081
 20
131.18001748349479
 30
0.0
 11
5.0500037054531068
 21
131.86742514774869
 31
0.0
  0
LINE
  5
1FE4
  8
0
 62
     0
 10
3.4625037054531078
 20
129.1177944907331
 30
0.0
 11
3.8593787054531079
 21
129.805202154987
 31
0.0
  0
LINE
  5
1FE5
  8
0
 62
     0
 10
4.6531289899492068
 20
133.92964797625649
 30
0.0
 11
5.0500039899492073
 21
134.61705564051039
 31
0.0
  0
LINE
  5
1FE6
  8
0
 62
     0
 10
3.4625039899492069
 20
131.8674249834948
 30
0.0
 11
3.859378989949207
 21
132.5548326477487
 31
0.0
  0
LINE
  5
1FE7
  8
0
 62
     0
 10
2.2718789899492071
 20
129.80520199073311
 30
0.0
 11
2.6687539899492072
 21
130.49260965498701
 31
0.0
  0
LINE
  5
1FE8
  8
0
 62
     0
 10
3.462504274445299
 20
134.6170554762565
 30
0.0
 11
3.6911386011684679
 21
135.01306174649531
 31
0.0
  0
LINE
  5
1FE9
  8
0
 62
     0
 10
2.2718792744452991
 20
132.55483248349481
 30
0.0
 11
2.6687542744452988
 21
133.2422401477487
 31
0.0
  0
LINE
  5
1FEA
  8
0
 62
     0
 10
7.4312389116560906
 20
134.6170515341629
 30
0.0
 11
7.034363911656091
 21
135.30445919841679
 31
0.0
  0
LINE
  5
1FEB
  8
0
 62
     0
 10
8.6218639116560905
 20
132.55482854140121
 30
0.0
 11
8.2249889116560908
 21
133.2422362056551
 31
0.0
  0
LINE
  5
1FEC
  8
0
 62
     0
 10
9.7094667864636151
 20
130.67104510377661
 30
0.0
 11
9.4156139116560897
 21
131.18001321289341
 31
0.0
  0
LINE
  5
1FED
  8
0
 62
     0
 10
6.2406141961521993
 20
133.92964403416289
 30
0.0
 11
5.8437391961521987
 21
134.61705169841679
 31
0.0
  0
LINE
  5
1FEE
  8
0
 62
     0
 10
7.4312391961521982
 20
131.8674210414012
 30
0.0
 11
7.0343641961521977
 21
132.5548287056551
 31
0.0
  0
LINE
  5
1FEF
  8
0
 62
     0
 10
8.6218641961521971
 20
129.80519804863951
 30
0.0
 11
8.2249891961521975
 21
130.49260571289341
 31
0.0
  0
LINE
  5
1FF0
  8
0
 62
     0
 10
5.0499894806482732
 20
133.24223653416291
 30
0.0
 11
4.6531144806482727
 21
133.92964419841681
 31
0.0
  0
LINE
  5
1FF1
  8
0
 62
     0
 10
6.2406144806482722
 20
131.18001354140119
 30
0.0
 11
5.8437394806482716
 21
131.86742120565509
 31
0.0
  0
LINE
  5
1FF2
  8
0
 62
     0
 10
7.4312394806482711
 20
129.1177905486395
 30
0.0
 11
7.0343644806482706
 21
129.8051982128934
 31
0.0
  0
LINE
  5
1FF3
  8
0
 62
     0
 10
3.8593647651443899
 20
132.55482903416291
 30
0.0
 11
3.4624897651443911
 21
133.2422366984168
 31
0.0
  0
LINE
  5
1FF4
  8
0
 62
     0
 10
5.0499897651443879
 20
130.49260604140119
 30
0.0
 11
4.6531147651443892
 21
131.18001370565511
 31
0.0
  0
LINE
  5
1FF5
  8
0
 62
     0
 10
6.2406147651443868
 20
128.4303830486395
 30
0.0
 11
5.8437397651443881
 21
129.1177907128934
 31
0.0
  0
LINE
  5
1FF6
  8
0
 62
     0
 10
2.6687400496404821
 20
131.8674215341629
 30
0.0
 11
2.2718650496404829
 21
132.5548291984168
 31
0.0
  0
LINE
  5
1FF7
  8
0
 62
     0
 10
3.8593650496404801
 20
129.80519854140121
 30
0.0
 11
3.4624900496404809
 21
130.49260620565511
 31
0.0
  0
LINE
  5
1FF8
  8
0
 62
     0
 10
5.0499900496404786
 20
127.74297554863951
 30
0.0
 11
4.653115049640479
 21
128.43038321289339
 31
0.0
  0
LINE
  5
1FF9
  8
0
 62
     0
 10
2.6687403341365852
 20
129.1177910414012
 30
0.0
 11
2.2718653341365851
 21
129.8051987056551
 31
0.0
  0
LINE
  5
1FFA
  8
0
 62
     0
 10
5.0500000070038427
 20
127.74296618616739
 30
0.0
 11
5.8437500070038428
 21
127.74296618616739
 31
0.0
  0
LINE
  5
1FFB
  8
0
 62
     0
 10
7.4312500070038441
 20
129.11778118616741
 30
0.0
 11
8.2250000070038443
 21
129.11778118616741
 31
0.0
  0
LINE
  5
1FFC
  8
0
 62
     0
 10
5.0500000070038453
 20
129.11778118616741
 30
0.0
 11
5.8437500070038446
 21
129.11778118616741
 31
0.0
  0
LINE
  5
1FFD
  8
0
 62
     0
 10
2.6687500070038448
 20
129.11778118616741
 30
0.0
 11
3.462500007003845
 21
129.11778118616741
 31
0.0
  0
LINE
  5
1FFE
  8
0
 62
     0
 10
7.4312500070038441
 20
130.49259618616739
 30
0.0
 11
8.2250000070038443
 21
130.49259618616739
 31
0.0
  0
LINE
  5
1FFF
  8
0
 62
     0
 10
5.0500000070038453
 20
130.49259618616739
 30
0.0
 11
5.8437500070038446
 21
130.49259618616739
 31
0.0
  0
LINE
  5
2000
  8
0
 62
     0
 10
2.6687500070038448
 20
130.49259618616739
 30
0.0
 11
3.462500007003845
 21
130.49259618616739
 31
0.0
  0
LINE
  5
2001
  8
0
 62
     0
 10
7.4312500070038441
 20
131.8674111861674
 30
0.0
 11
8.2250000070038443
 21
131.8674111861674
 31
0.0
  0
LINE
  5
2002
  8
0
 62
     0
 10
5.0500000070038453
 20
131.8674111861674
 30
0.0
 11
5.8437500070038446
 21
131.8674111861674
 31
0.0
  0
LINE
  5
2003
  8
0
 62
     0
 10
2.6687500070038448
 20
131.8674111861674
 30
0.0
 11
3.462500007003845
 21
131.8674111861674
 31
0.0
  0
LINE
  5
2004
  8
0
 62
     0
 10
7.4312500070038441
 20
133.24222618616739
 30
0.0
 11
8.2250000070038443
 21
133.24222618616739
 31
0.0
  0
LINE
  5
2005
  8
0
 62
     0
 10
5.0500000070038453
 20
133.24222618616739
 30
0.0
 11
5.8437500070038446
 21
133.24222618616739
 31
0.0
  0
LINE
  5
2006
  8
0
 62
     0
 10
2.6687500070038448
 20
133.24222618616739
 30
0.0
 11
3.462500007003845
 21
133.24222618616739
 31
0.0
  0
LINE
  5
2007
  8
0
 62
     0
 10
7.4312500070038432
 20
134.6170411861674
 30
0.0
 11
8.2250000070038425
 21
134.6170411861674
 31
0.0
  0
LINE
  5
2008
  8
0
 62
     0
 10
5.0500000070038427
 20
134.6170411861674
 30
0.0
 11
5.8437500070038428
 21
134.6170411861674
 31
0.0
  0
LINE
  5
2009
  8
0
 62
     0
 10
3.1338504551369222
 20
134.6170411861674
 30
0.0
 11
3.4625000070038441
 21
134.6170411861674
 31
0.0
  0
ENDBLK
  5
200B
  8
0
  0
BLOCK
  8
0
  2
*X112
 70
     1
 10
0.0
 20
0.0
 30
0.0
  3
*X112
  1

  0
LINE
  5
200D
  8
0
 62
     0
 10
215.38123435971849
 20
135.99188230253711
 30
0.0
 11
215.5292352415608
 21
136.248227349453
 31
0.0
  0
LINE
  5
200E
  8
0
 62
     0
 10
214.19060935971851
 20
133.92965930977539
 30
0.0
 11
214.5874843597185
 21
134.61706697402931
 31
0.0
  0
LINE
  5
200F
  8
0
 62
     0
 10
213.0851846668821
 20
132.01500757784149
 30
0.0
 11
213.39685935971849
 21
132.5548439812676
 31
0.0
  0
LINE
  5
2010
  8
0
 62
     0
 10
214.19060964421459
 20
136.67928980253711
 30
0.0
 11
214.58748464421461
 21
137.36669746679101
 31
0.0
  0
LINE
  5
2011
  8
0
 62
     0
 10
212.99998464421461
 20
134.61706680977539
 30
0.0
 11
213.3968596442146
 21
135.3044744740294
 31
0.0
  0
LINE
  5
2012
  8
0
 62
     0
 10
211.8093596442146
 20
132.55484381701379
 30
0.0
 11
212.20623464421459
 21
133.24225148126769
 31
0.0
  0
LINE
  5
2013
  8
0
 62
     0
 10
212.99998492871069
 20
137.3666973025372
 30
0.0
 11
213.33841199417111
 21
137.95287017457099
 31
0.0
  0
LINE
  5
2014
  8
0
 62
     0
 10
211.80935992871071
 20
135.30447430977549
 30
0.0
 11
212.2062349287107
 21
135.99188197402941
 31
0.0
  0
LINE
  5
2015
  8
0
 62
     0
 10
210.61873492871069
 20
133.2422513170138
 30
0.0
 11
211.01560992871069
 21
133.92965898126769
 31
0.0
  0
LINE
  5
2016
  8
0
 62
     0
 10
210.6187352132068
 20
135.99188180977541
 30
0.0
 11
211.0156102132068
 21
136.6792894740293
 31
0.0
  0
LINE
  5
2017
  8
0
 62
     0
 10
214.58746956592151
 20
135.99185569340571
 30
0.0
 11
214.19059456592149
 21
136.67926335765961
 31
0.0
  0
LINE
  5
2018
  8
0
 62
     0
 10
215.66816104279201
 20
134.12004314815931
 30
0.0
 11
215.3812195659215
 21
134.61704036489789
 31
0.0
  0
LINE
  5
2019
  8
0
 62
     0
 10
212.2062198504176
 20
137.36667118616731
 30
0.0
 11
211.91661072219159
 21
137.86828891059039
 31
0.0
  0
LINE
  5
201A
  8
0
 62
     0
 10
213.39684485041749
 20
135.3044481934057
 30
0.0
 11
212.99996985041761
 21
135.9918558576596
 31
0.0
  0
LINE
  5
201B
  8
0
 62
     0
 10
214.58746985041751
 20
133.24222520064399
 30
0.0
 11
214.1905948504176
 21
133.92963286489791
 31
0.0
  0
LINE
  5
201C
  8
0
 62
     0
 10
211.0155951349137
 20
136.6792636861673
 30
0.0
 11
210.7305840928384
 21
137.17291729176
 31
0.0
  0
LINE
  5
201D
  8
0
 62
     0
 10
212.20622013491371
 20
134.61704069340561
 30
0.0
 11
211.80934513491371
 21
135.3044483576596
 31
0.0
  0
LINE
  5
201E
  8
0
 62
     0
 10
213.39684513491369
 20
132.55481770064401
 30
0.0
 11
212.9999701349137
 21
133.24222536489779
 31
0.0
  0
LINE
  5
201F
  8
0
 62
     0
 10
211.01559541940981
 20
133.92963319340561
 30
0.0
 11
210.6187204194097
 21
134.6170408576595
 31
0.0
  0
LINE
  5
2020
  8
0
 62
     0
 10
212.0777980079267
 20
132.08984434216299
 30
0.0
 11
211.80934541940971
 21
132.55481786489781
 31
0.0
  0
LINE
  5
2021
  8
0
 62
     0
 10
214.5875000070038
 20
133.24222618616739
 30
0.0
 11
215.2305991421419
 21
133.24222618616739
 31
0.0
  0
LINE
  5
2022
  8
0
 62
     0
 10
212.2062500070038
 20
133.24222618616739
 30
0.0
 11
213.00000000700379
 21
133.24222618616739
 31
0.0
  0
LINE
  5
2023
  8
0
 62
     0
 10
210.3705417607591
 20
133.24222618616739
 30
0.0
 11
210.6187500070038
 21
133.24222618616739
 31
0.0
  0
LINE
  5
2024
  8
0
 62
     0
 10
214.5875000070038
 20
134.6170411861674
 30
0.0
 11
215.38125000700381
 21
134.6170411861674
 31
0.0
  0
LINE
  5
2025
  8
0
 62
     0
 10
212.2062500070038
 20
134.6170411861674
 30
0.0
 11
213.00000000700379
 21
134.6170411861674
 31
0.0
  0
LINE
  5
2026
  8
0
 62
     0
 10
209.82530412206191
 20
134.6170411861674
 30
0.0
 11
210.6187500070038
 21
134.6170411861674
 31
0.0
  0
LINE
  5
2027
  8
0
 62
     0
 10
214.5875000070038
 20
135.99185618616741
 30
0.0
 11
215.38125000700381
 21
135.99185618616741
 31
0.0
  0
LINE
  5
2028
  8
0
 62
     0
 10
212.2062500070038
 20
135.99185618616741
 30
0.0
 11
213.00000000700379
 21
135.99185618616741
 31
0.0
  0
LINE
  5
2029
  8
0
 62
     0
 10
209.96876052570451
 20
135.99185618616741
 30
0.0
 11
210.6187500070038
 21
135.99185618616741
 31
0.0
  0
LINE
  5
202A
  8
0
 62
     0
 10
214.5875000070038
 20
137.36667118616739
 30
0.0
 11
214.64606567275669
 21
137.36667118616739
 31
0.0
  0
LINE
  5
202B
  8
0
 62
     0
 10
212.2062500070038
 20
137.36667118616739
 30
0.0
 11
213.00000000700379
 21
137.36667118616739
 31
0.0
  0
ENDBLK
  5
202D
  8
0
  0
BLOCK
  8
0
  2
*X113
 70
     1
 10
0.0
 20
0.0
 30
0.0
  3
*X113
  1

  0
LINE
  5
202F
  8
0
 62
     0
 10
216.79983257961359
 20
139.1250023830145
 30
0.0
 11
216.0878205713812
 21
139.8370143912469
 31
0.0
  0
LINE
  5
2030
  8
0
 62
     0
 10
216.23856657204681
 20
138.56373637544769
 30
0.0
 11
214.5544133221473
 21
140.2478896253472
 31
0.0
  0
LINE
  5
2031
  8
0
 62
     0
 10
215.67730056447999
 20
138.0024703678809
 30
0.0
 11
213.02100607291331
 21
140.6587648594475
 31
0.0
  0
LINE
  5
2032
  8
0
 62
     0
 10
215.34528757710049
 20
137.2119513401266
 30
0.0
 11
211.48759882367949
 21
141.06964009354769
 31
0.0
  0
LINE
  5
2033
  8
0
 62
     0
 10
213.52102429018879
 20
137.9136826119047
 30
0.0
 11
209.95419157444559
 21
141.48051532764799
 31
0.0
  0
LINE
  5
2034
  8
0
 62
     0
 10
215.8005704514502
 20
135.63413645064341
 30
0.0
 11
215.7127768772117
 21
135.72193002488191
 31
0.0
  0
LINE
  5
2035
  8
0
 62
     0
 10
212.34542580439441
 20
137.96674908256551
 30
0.0
 11
209.80057045145
 21
140.51160443550989
 31
0.0
  0
LINE
  5
2036
  8
0
 62
     0
 10
211.48971294410489
 20
137.69992992772131
 30
0.0
 11
209.80057045145
 21
139.38907242037621
 31
0.0
  0
LINE
  5
2037
  8
0
 62
     0
 10
210.81592631894091
 20
137.2511845377517
 30
0.0
 11
209.80057045145
 21
138.26654040524261
 31
0.0
  0
LINE
  5
2038
  8
0
 62
     0
 10
210.29429299319369
 20
136.6502858483652
 30
0.0
 11
209.80057045145
 21
137.14400839010901
 31
0.0
  0
LINE
  5
2039
  8
0
 62
     0
 10
209.93443084239411
 20
135.88761598403121
 30
0.0
 11
209.80057045145
 21
136.02147637497529
 31
0.0
  0
LINE
  5
203A
  8
0
 62
     0
 10
215.68750684598601
 20
135.81731823819999
 30
0.0
 11
215.8005704514502
 21
135.93038184366409
 31
0.0
  0
LINE
  5
203B
  8
0
 62
     0
 10
215.3424728032966
 20
136.5948162106443
 30
0.0
 11
215.62987686829049
 21
136.88222027563819
 31
0.0
  0
LINE
  5
203C
  8
0
 62
     0
 10
214.83312179194459
 20
137.207997214426
 30
0.0
 11
217.17171131841451
 21
139.5465867408958
 31
0.0
  0
LINE
  5
203D
  8
0
 62
     0
 10
214.1721638597231
 20
137.66957129733811
 30
0.0
 11
216.28639823029201
 21
139.7838056679069
 31
0.0
  0
LINE
  5
203E
  8
0
 62
     0
 10
213.3337724359906
 20
137.95371188873909
 30
0.0
 11
215.40108514216939
 21
140.02102459491809
 31
0.0
  0
LINE
  5
203F
  8
0
 62
     0
 10
212.19783212141019
 20
137.9403035892924
 30
0.0
 11
214.51577205404701
 21
140.25824352192919
 31
0.0
  0
LINE
  5
2040
  8
0
 62
     0
 10
209.80057045145
 20
135.54304191933221
 30
0.0
 11
209.8617430483007
 21
135.60421451618299
 31
0.0
  0
LINE
  5
2041
  8
0
 62
     0
 10
209.80057045145
 20
136.6655739344659
 30
0.0
 11
213.63045896592439
 21
140.49546244894029
 31
0.0
  0
LINE
  5
2042
  8
0
 62
     0
 10
209.80057045145
 20
137.7881059495995
 30
0.0
 11
212.74514587780189
 21
140.7326813759515
 31
0.0
  0
LINE
  5
2043
  8
0
 62
     0
 10
209.80057045145
 20
138.9106379647331
 30
0.0
 11
211.8598327896795
 21
140.9699003029626
 31
0.0
  0
LINE
  5
2044
  8
0
 62
     0
 10
209.80057045144989
 20
140.03316997986681
 30
0.0
 11
210.97451970155689
 21
141.2071192299737
 31
0.0
  0
LINE
  5
2045
  8
0
 62
     0
 10
209.80057045144989
 20
141.15570199500041
 30
0.0
 11
210.08920661343441
 21
141.44433815698491
 31
0.0
  0
ENDBLK
  5
2047
  8
0
  0
BLOCK
  8
0
  2
*X114
 70
     1
 10
0.0
 20
0.0
 30
0.0
  3
*X114
  1

  0
LINE
  5
2049
  8
0
 62
     0
 10
9.8005704514498504
 20
160.81183136102129
 30
0.0
 11
9.7579924281263217
 21
160.85440938434479
 31
0.0
  0
LINE
  5
204A
  8
0
 62
     0
 10
9.8005704514498504
 20
159.6892993458876
 30
0.0
 11
9.6938477386274826
 21
159.79602205871001
 31
0.0
  0
LINE
  5
204B
  8
0
 62
     0
 10
9.8005704514498575
 20
158.566767330754
 30
0.0
 11
9.2971528116238318
 21
159.07018497057999
 31
0.0
  0
LINE
  5
204C
  8
0
 62
     0
 10
9.8005704514498433
 20
157.44423531562029
 30
0.0
 11
8.5484358260286015
 21
158.69636994104161
 31
0.0
  0
LINE
  5
204D
  8
0
 62
     0
 10
9.8005704514498504
 20
156.32170330048669
 30
0.0
 11
7.9426691954488566
 21
158.1796045564877
 31
0.0
  0
LINE
  5
204E
  8
0
 62
     0
 10
9.8005704514498433
 20
155.19917128535309
 30
0.0
 11
7.9457124987281196
 21
157.0540292380748
 31
0.0
  0
LINE
  5
204F
  8
0
 62
     0
 10
9.8005704514498504
 20
154.0766392702194
 30
0.0
 11
8.2334494116350143
 21
155.64376031003431
 31
0.0
  0
LINE
  5
2050
  8
0
 62
     0
 10
9.8005704514498575
 20
152.9541072550858
 30
0.0
 11
8.5211863245419011
 21
154.2334913819937
 31
0.0
  0
LINE
  5
2051
  8
0
 62
     0
 10
9.8005704514498468
 20
151.83157523995209
 30
0.0
 11
8.8089232374487878
 21
152.82322245395321
 31
0.0
  0
LINE
  5
2052
  8
0
 62
     0
 10
9.8005704514498522
 20
150.70904322481849
 30
0.0
 11
9.0966601503556959
 21
151.41295352591271
 31
0.0
  0
LINE
  5
2053
  8
0
 62
     0
 10
9.8005704514498468
 20
149.58651120968489
 30
0.0
 11
9.1165455331380212
 21
150.27053612799671
 31
0.0
  0
LINE
  5
2054
  8
0
 62
     0
 10
9.8005704514498522
 20
148.4639791945512
 30
0.0
 11
9.0524008436391874
 21
149.2121488023619
 31
0.0
  0
LINE
  5
2055
  8
0
 62
     0
 10
9.8005704514498468
 20
147.3414471794176
 30
0.0
 11
8.988256154140366
 21
148.15376147672711
 31
0.0
  0
LINE
  5
2056
  8
0
 62
     0
 10
9.8005704514498522
 20
146.21891516428391
 30
0.0
 11
8.924111464641534
 21
147.09537415109219
 31
0.0
  0
LINE
  5
2057
  8
0
 62
     0
 10
9.8005704514498468
 20
145.0963831491502
 30
0.0
 11
8.8599667751427233
 21
146.0369868254574
 31
0.0
  0
LINE
  5
2058
  8
0
 62
     0
 10
9.3060351617480208
 20
145.05664411272741
 30
0.0
 11
9.8005704514498433
 21
145.5511794024292
 31
0.0
  0
LINE
  5
2059
  8
0
 62
     0
 10
8.8403616719286333
 20
145.7135026380416
 30
0.0
 11
9.8005704514498575
 21
146.67371141756291
 31
0.0
  0
LINE
  5
205A
  8
0
 62
     0
 10
8.9127830959816734
 20
146.90845607722829
 30
0.0
 11
9.8005704514498575
 21
147.79624343269651
 31
0.0
  0
LINE
  5
205B
  8
0
 62
     0
 10
8.985204520034749
 20
148.10340951641501
 30
0.0
 11
9.8005704514498575
 21
148.91877544783009
 31
0.0
  0
LINE
  5
205C
  8
0
 62
     0
 10
9.0576259440877962
 20
149.2983629556017
 30
0.0
 11
9.8005704514498575
 21
150.0413074629638
 31
0.0
  0
LINE
  5
205D
  8
0
 62
     0
 10
9.1300473681408576
 20
150.49331639478839
 30
0.0
 11
9.8005704514498575
 21
151.1638394780974
 31
0.0
  0
LINE
  5
205E
  8
0
 62
     0
 10
9.0679360956927155
 20
151.55373713747389
 30
0.0
 11
9.8005704514498575
 21
152.28637149323109
 31
0.0
  0
LINE
  5
205F
  8
0
 62
     0
 10
8.8777165517519947
 20
152.48604960866689
 30
0.0
 11
9.8005704514498504
 21
153.40890350836469
 31
0.0
  0
LINE
  5
2060
  8
0
 62
     0
 10
8.6874970078112739
 20
153.4183620798598
 30
0.0
 11
9.8005704514498575
 21
154.5314355234984
 31
0.0
  0
LINE
  5
2061
  8
0
 62
     0
 10
8.4972774638705388
 20
154.35067455105269
 30
0.0
 11
9.8005704514498504
 21
155.653967538632
 31
0.0
  0
LINE
  5
2062
  8
0
 62
     0
 10
8.3070579199298251
 20
155.28298702224561
 30
0.0
 11
9.8005704514498646
 21
156.77649955376569
 31
0.0
  0
LINE
  5
2063
  8
0
 62
     0
 10
8.1168383759891043
 20
156.21529949343849
 30
0.0
 11
9.8005704514498575
 21
157.89903156889929
 31
0.0
  0
LINE
  5
2064
  8
0
 62
     0
 10
7.9266188320483693
 20
157.14761196463149
 30
0.0
 11
9.8005704514498575
 21
159.021563584033
 31
0.0
  0
LINE
  5
2065
  8
0
 62
     0
 10
9.7094187605654128
 20
160.05294390828209
 30
0.0
 11
9.8005704514498646
 21
160.1440955991666
 31
0.0
  0
LINE
  5
2066
  8
0
 62
     0
 10
9.7818401846184582
 20
161.24789734746881
 30
0.0
 11
9.8005704514498646
 21
161.26662761430021
 31
0.0
  0
ENDBLK
  5
2068
  8
0
  0
BLOCK
  8
0
  2
*X115
 70
     1
 10
0.0
 20
0.0
 30
0.0
  3
*X115
  1

  0
LINE
  5
206A
  8
0
 62
     0
 10
9.8005704514499712
 20
141.7287871037492
 30
0.0
 11
9.5403358860890322
 21
141.9890216691102
 31
0.0
  0
LINE
  5
206B
  8
0
 62
     0
 10
9.8005704514499605
 20
140.6062550886156
 30
0.0
 11
8.6550227979665166
 21
141.75180274209899
 31
0.0
  0
LINE
  5
206C
  8
0
 62
     0
 10
9.8005704514499747
 20
139.48372307348191
 30
0.0
 11
7.7697097098440011
 21
141.51458381508789
 31
0.0
  0
LINE
  5
206D
  8
0
 62
     0
 10
9.8005704514499605
 20
138.36119105834831
 30
0.0
 11
6.8843966217214989
 21
141.27736488807679
 31
0.0
  0
LINE
  5
206E
  8
0
 62
     0
 10
9.8005704514499641
 20
137.23865904321471
 30
0.0
 11
5.9990835335989798
 21
141.0401459610656
 31
0.0
  0
LINE
  5
206F
  8
0
 62
     0
 10
9.8005704514499747
 20
136.116127028081
 30
0.0
 11
5.1137704454764652
 21
140.80292703405451
 31
0.0
  0
LINE
  5
2070
  8
0
 62
     0
 10
9.8005704514499676
 20
134.99359501294731
 30
0.0
 11
4.2284573573539532
 21
140.56570810704341
 31
0.0
  0
LINE
  5
2071
  8
0
 62
     0
 10
9.8005704514499712
 20
133.87106299781371
 30
0.0
 11
3.3431442692314368
 21
140.32848918003231
 31
0.0
  0
LINE
  5
2072
  8
0
 62
     0
 10
7.2691073729046174
 20
135.27999406122541
 30
0.0
 11
2.4578311811089182
 21
140.09127025302109
 31
0.0
  0
LINE
  5
2073
  8
0
 62
     0
 10
9.8005704514499641
 20
132.74853098268011
 30
0.0
 11
9.5050142044611761
 21
133.04408722966889
 31
0.0
  0
LINE
  5
2074
  8
0
 62
     0
 10
5.8523041450335
 20
135.57426527396291
 30
0.0
 11
1.572518092986406
 21
139.85405132600999
 31
0.0
  0
LINE
  5
2075
  8
0
 62
     0
 10
9.8005704514499712
 20
131.62599896754639
 30
0.0
 11
9.7992854171986501
 21
131.6272840017977
 31
0.0
  0
LINE
  5
2076
  8
0
 62
     0
 10
4.8335882808467039
 20
135.47044912301601
 30
0.0
 11
0.6872050048638912
 21
139.61683239899889
 31
0.0
  0
LINE
  5
2077
  8
0
 62
     0
 10
4.0024778791548661
 20
135.17902750957421
 30
0.0
 11
1.7000000071927199
 21
137.48150538153641
 31
0.0
  0
LINE
  5
2078
  8
0
 62
     0
 10
3.3049265674842192
 20
134.75404680611121
 30
0.0
 11
1.700000007192713
 21
136.35897336640281
 31
0.0
  0
LINE
  5
2079
  8
0
 62
     0
 10
2.7217700184974731
 20
134.2146713399643
 30
0.0
 11
1.7000000071926951
 21
135.23644135126909
 31
0.0
  0
LINE
  5
207A
  8
0
 62
     0
 10
2.250293999632877
 20
133.56361534369529
 30
0.0
 11
1.700000007192688
 21
134.11390933613549
 31
0.0
  0
LINE
  5
207B
  8
0
 62
     0
 10
1.902241442774329
 20
132.78913588542019
 30
0.0
 11
1.7000000071926911
 21
132.99137732100189
 31
0.0
  0
LINE
  5
207C
  8
0
 62
     0
 10
1.7134745314583451
 20
131.85537078160249
 30
0.0
 11
1.7000000071926811
 21
131.86884530586821
 31
0.0
  0
LINE
  5
207D
  8
0
 62
     0
 10
9.7668205264760886
 20
132.04704529585169
 30
0.0
 11
9.8005704514499783
 21
132.08079522082559
 31
0.0
  0
LINE
  5
207E
  8
0
 62
     0
 10
9.5432233063145642
 20
132.94598009082389
 30
0.0
 11
9.8005704514499712
 21
133.20332723595931
 31
0.0
  0
LINE
  5
207F
  8
0
 62
     0
 10
9.1701215012896569
 20
133.69541030093259
 30
0.0
 11
9.8005704514499854
 21
134.32585925109291
 31
0.0
  0
LINE
  5
2080
  8
0
 62
     0
 10
8.6771430872581519
 20
134.32496390203471
 30
0.0
 11
9.8005704514499783
 21
135.44839126622651
 31
0.0
  0
LINE
  5
2081
  8
0
 62
     0
 10
8.0730088816074925
 20
134.8433617115177
 30
0.0
 11
9.8005704514499783
 21
136.57092328136019
 31
0.0
  0
LINE
  5
2082
  8
0
 62
     0
 10
7.3523522400803349
 20
135.24523708512419
 30
0.0
 11
9.8005704514499712
 21
137.6934552964938
 31
0.0
  0
LINE
  5
2083
  8
0
 62
     0
 10
6.4916969266561111
 20
135.5071137868336
 30
0.0
 11
9.8005704514499712
 21
138.81598731162751
 31
0.0
  0
LINE
  5
2084
  8
0
 62
     0
 10
5.4244759411188559
 20
135.56242481643
 30
0.0
 11
9.8005704514499641
 21
139.93851932676111
 31
0.0
  0
LINE
  5
2085
  8
0
 62
     0
 10
1.70000000719267
 20
131.83794888250381
 30
0.0
 11
1.713125498976886
 21
131.851074374288
 31
0.0
  0
LINE
  5
2086
  8
0
 62
     0
 10
3.8319889517625891
 20
135.09246984220741
 30
0.0
 11
9.8005704514499783
 21
141.0610513418948
 31
0.0
  0
LINE
  5
2087
  8
0
 62
     0
 10
1.700000007192684
 20
132.9604808976375
 30
0.0
 11
2.1830804731995168
 21
133.44356136364431
 31
0.0
  0
LINE
  5
2088
  8
0
 62
     0
 10
1.7000000071926991
 20
134.0830129127711
 30
0.0
 11
9.6300467050153884
 21
142.01305961059381
 31
0.0
  0
LINE
  5
2089
  8
0
 62
     0
 10
1.7000000071926991
 20
135.20554492790481
 30
0.0
 11
8.0966394557814851
 21
141.6021843764936
 31
0.0
  0
LINE
  5
208A
  8
0
 62
     0
 10
1.7000000071927199
 20
136.3280769430385
 30
0.0
 11
6.5632322065476103
 21
141.19130914239329
 31
0.0
  0
LINE
  5
208B
  8
0
 62
     0
 10
1.700000007192727
 20
137.4506089581721
 30
0.0
 11
5.029824957313707
 21
140.78043390829311
 31
0.0
  0
LINE
  5
208C
  8
0
 62
     0
 10
1.5268106941212449
 20
138.39995166023431
 30
0.0
 11
3.4964177080798251
 21
140.3695586741928
 31
0.0
  0
LINE
  5
208D
  8
0
 62
     0
 10
0.9655446865544448
 20
138.96121766780109
 30
0.0
 11
1.9630104588459281
 21
139.95868344009261
 31
0.0
  0
LINE
  5
208E
  8
0
 62
     0
 10
0.3748147923290475
 20
139.4930197887094
 30
0.0
 11
0.4296032096120328
 21
139.54780820599231
 31
0.0
  0
ENDBLK
  5
2090
  8
0
  0
BLOCK
  8
0
  2
*X116
 70
     1
 10
0.0
 20
0.0
 30
0.0
  3
*X116
  1

  0
LINE
  5
2092
  8
0
 62
     0
 10
9.4156278519648176
 20
131.18001797625649
 30
0.0
 11
9.7892981315759453
 21
131.82723388582141
 31
0.0
  0
LINE
  5
2093
  8
0
 62
     0
 10
8.2250028519648168
 20
129.1177949834948
 30
0.0
 11
8.6218778519648165
 21
129.8052026477487
 31
0.0
  0
LINE
  5
2094
  8
0
 62
     0
 10
8.2250031364609093
 20
131.8674254762565
 30
0.0
 11
8.6218781364609072
 21
132.5548331405104
 31
0.0
  0
LINE
  5
2095
  8
0
 62
     0
 10
7.0343781364609068
 20
129.80520248349481
 30
0.0
 11
7.4312531364609082
 21
130.49261014774871
 31
0.0
  0
LINE
  5
2096
  8
0
 62
     0
 10
5.8437531364609061
 20
127.74297949073311
 30
0.0
 11
6.2406281364609066
 21
128.43038715498699
 31
0.0
  0
LINE
  5
2097
  8
0
 62
     0
 10
8.2250034209570124
 20
134.6170559690182
 30
0.0
 11
8.270541576158088
 21
134.69593036750939
 31
0.0
  0
LINE
  5
2098
  8
0
 62
     0
 10
7.0343784209570099
 20
132.55483297625651
 30
0.0
 11
7.4312534209570114
 21
133.2422406405104
 31
0.0
  0
LINE
  5
2099
  8
0
 62
     0
 10
5.8437534209570101
 20
130.49260998349479
 30
0.0
 11
6.2406284209570098
 21
131.18001764774871
 31
0.0
  0
LINE
  5
209A
  8
0
 62
     0
 10
4.6531284209570094
 20
128.4303869907331
 30
0.0
 11
5.050003420957009
 21
129.11779465498699
 31
0.0
  0
LINE
  5
209B
  8
0
 62
     0
 10
7.0343787054531077
 20
135.3044634690182
 30
0.0
 11
7.064390182504181
 21
135.3564448720808
 31
0.0
  0
LINE
  5
209C
  8
0
 62
     0
 10
5.843753705453107
 20
133.24224047625651
 30
0.0
 11
6.2406287054531084
 21
133.92964814051041
 31
0.0
  0
LINE
  5
209D
  8
0
 62
     0
 10
4.6531287054531081
 20
131.18001748349479
 30
0.0
 11
5.0500037054531068
 21
131.86742514774869
 31
0.0
  0
LINE
  5
209E
  8
0
 62
     0
 10
3.4625037054531078
 20
129.1177944907331
 30
0.0
 11
3.8593787054531079
 21
129.805202154987
 31
0.0
  0
LINE
  5
209F
  8
0
 62
     0
 10
4.6531289899492068
 20
133.92964797625649
 30
0.0
 11
5.0500039899492073
 21
134.61705564051039
 31
0.0
  0
LINE
  5
20A0
  8
0
 62
     0
 10
3.4625039899492069
 20
131.8674249834948
 30
0.0
 11
3.8593789899492079
 21
132.5548326477487
 31
0.0
  0
LINE
  5
20A1
  8
0
 62
     0
 10
2.2718789899492071
 20
129.80520199073311
 30
0.0
 11
2.6687539899492072
 21
130.49260965498701
 31
0.0
  0
LINE
  5
20A2
  8
0
 62
     0
 10
3.462504274445299
 20
134.6170554762565
 30
0.0
 11
3.6911386011684688
 21
135.01306174649531
 31
0.0
  0
LINE
  5
20A3
  8
0
 62
     0
 10
2.2718792744452991
 20
132.55483248349481
 30
0.0
 11
2.6687542744453001
 21
133.2422401477487
 31
0.0
  0
LINE
  5
20A4
  8
0
 62
     0
 10
7.4312389116560906
 20
134.6170515341629
 30
0.0
 11
7.034363911656091
 21
135.30445919841679
 31
0.0
  0
LINE
  5
20A5
  8
0
 62
     0
 10
8.6218639116560905
 20
132.55482854140121
 30
0.0
 11
8.2249889116560908
 21
133.2422362056551
 31
0.0
  0
LINE
  5
20A6
  8
0
 62
     0
 10
9.7094667864636151
 20
130.67104510377661
 30
0.0
 11
9.4156139116560897
 21
131.18001321289341
 31
0.0
  0
LINE
  5
20A7
  8
0
 62
     0
 10
6.2406141961521993
 20
133.92964403416289
 30
0.0
 11
5.8437391961521987
 21
134.61705169841679
 31
0.0
  0
LINE
  5
20A8
  8
0
 62
     0
 10
7.4312391961521982
 20
131.8674210414012
 30
0.0
 11
7.0343641961521977
 21
132.5548287056551
 31
0.0
  0
LINE
  5
20A9
  8
0
 62
     0
 10
8.6218641961521971
 20
129.80519804863951
 30
0.0
 11
8.2249891961521975
 21
130.49260571289341
 31
0.0
  0
LINE
  5
20AA
  8
0
 62
     0
 10
5.0499894806482732
 20
133.24223653416291
 30
0.0
 11
4.6531144806482727
 21
133.92964419841681
 31
0.0
  0
LINE
  5
20AB
  8
0
 62
     0
 10
6.2406144806482722
 20
131.18001354140119
 30
0.0
 11
5.8437394806482716
 21
131.86742120565509
 31
0.0
  0
LINE
  5
20AC
  8
0
 62
     0
 10
7.4312394806482711
 20
129.1177905486395
 30
0.0
 11
7.0343644806482706
 21
129.8051982128934
 31
0.0
  0
LINE
  5
20AD
  8
0
 62
     0
 10
3.8593647651443899
 20
132.55482903416291
 30
0.0
 11
3.4624897651443911
 21
133.2422366984168
 31
0.0
  0
LINE
  5
20AE
  8
0
 62
     0
 10
5.0499897651443879
 20
130.49260604140119
 30
0.0
 11
4.6531147651443892
 21
131.18001370565511
 31
0.0
  0
LINE
  5
20AF
  8
0
 62
     0
 10
6.2406147651443868
 20
128.4303830486395
 30
0.0
 11
5.8437397651443881
 21
129.1177907128934
 31
0.0
  0
LINE
  5
20B0
  8
0
 62
     0
 10
2.6687400496404821
 20
131.8674215341629
 30
0.0
 11
2.2718650496404829
 21
132.5548291984168
 31
0.0
  0
LINE
  5
20B1
  8
0
 62
     0
 10
3.8593650496404801
 20
129.80519854140121
 30
0.0
 11
3.4624900496404809
 21
130.49260620565511
 31
0.0
  0
LINE
  5
20B2
  8
0
 62
     0
 10
5.0499900496404786
 20
127.74297554863951
 30
0.0
 11
4.653115049640479
 21
128.43038321289339
 31
0.0
  0
LINE
  5
20B3
  8
0
 62
     0
 10
2.6687403341365852
 20
129.1177910414012
 30
0.0
 11
2.2718653341365851
 21
129.8051987056551
 31
0.0
  0
LINE
  5
20B4
  8
0
 62
     0
 10
5.0500000070038427
 20
127.74296618616739
 30
0.0
 11
5.8437500070038428
 21
127.74296618616739
 31
0.0
  0
LINE
  5
20B5
  8
0
 62
     0
 10
7.4312500070038441
 20
129.11778118616741
 30
0.0
 11
8.2250000070038443
 21
129.11778118616741
 31
0.0
  0
LINE
  5
20B6
  8
0
 62
     0
 10
5.0500000070038453
 20
129.11778118616741
 30
0.0
 11
5.8437500070038446
 21
129.11778118616741
 31
0.0
  0
LINE
  5
20B7
  8
0
 62
     0
 10
2.6687500070038448
 20
129.11778118616741
 30
0.0
 11
3.462500007003845
 21
129.11778118616741
 31
0.0
  0
LINE
  5
20B8
  8
0
 62
     0
 10
7.4312500070038441
 20
130.49259618616739
 30
0.0
 11
8.2250000070038443
 21
130.49259618616739
 31
0.0
  0
LINE
  5
20B9
  8
0
 62
     0
 10
5.0500000070038453
 20
130.49259618616739
 30
0.0
 11
5.8437500070038446
 21
130.49259618616739
 31
0.0
  0
LINE
  5
20BA
  8
0
 62
     0
 10
2.6687500070038448
 20
130.49259618616739
 30
0.0
 11
3.462500007003845
 21
130.49259618616739
 31
0.0
  0
LINE
  5
20BB
  8
0
 62
     0
 10
7.4312500070038441
 20
131.8674111861674
 30
0.0
 11
8.2250000070038443
 21
131.8674111861674
 31
0.0
  0
LINE
  5
20BC
  8
0
 62
     0
 10
5.0500000070038453
 20
131.8674111861674
 30
0.0
 11
5.8437500070038446
 21
131.8674111861674
 31
0.0
  0
LINE
  5
20BD
  8
0
 62
     0
 10
2.6687500070038448
 20
131.8674111861674
 30
0.0
 11
3.462500007003845
 21
131.8674111861674
 31
0.0
  0
LINE
  5
20BE
  8
0
 62
     0
 10
7.4312500070038441
 20
133.24222618616739
 30
0.0
 11
8.2250000070038443
 21
133.24222618616739
 31
0.0
  0
LINE
  5
20BF
  8
0
 62
     0
 10
5.0500000070038453
 20
133.24222618616739
 30
0.0
 11
5.8437500070038446
 21
133.24222618616739
 31
0.0
  0
LINE
  5
20C0
  8
0
 62
     0
 10
2.6687500070038448
 20
133.24222618616739
 30
0.0
 11
3.462500007003845
 21
133.24222618616739
 31
0.0
  0
LINE
  5
20C1
  8
0
 62
     0
 10
7.4312500070038432
 20
134.6170411861674
 30
0.0
 11
8.2250000070038425
 21
134.6170411861674
 31
0.0
  0
LINE
  5
20C2
  8
0
 62
     0
 10
5.0500000070038427
 20
134.6170411861674
 30
0.0
 11
5.8437500070038428
 21
134.6170411861674
 31
0.0
  0
LINE
  5
20C3
  8
0
 62
     0
 10
3.1338504551369222
 20
134.6170411861674
 30
0.0
 11
3.4625000070038441
 21
134.6170411861674
 31
0.0
  0
ENDBLK
  5
20C5
  8
0
  0
BLOCK
  8
0
  2
*U117
 70
     1
 10
0.0
 20
0.0
 30
0.0
  3
*U117
  1

  0
TEXT
  5
21D9
  8
SAPA_MATT
 62
     2
 10
102.7505704514499
 20
192.70059980027801
 30
0.0
 40
3.0
  1
197-202
  7
ISO
  0
ENDBLK
  5
21DB
  8
0
  0
BLOCK
  8
0
  2
*U118
 70
     1
 10
0.0
 20
0.0
 30
0.0
  3
*U118
  1

  0
TEXT
  5
21DD
  8
SAPA_MATT
 62
     2
 10
44.150000000000048
 20
-29.117582331900199
 30
0.0
 40
3.0
  1
95.5
  7
ISO
  0
ENDBLK
  5
21DF
  8
0
  0
BLOCK
  8
0
  2
*U119
 70
     1
 10
0.0
 20
0.0
 30
0.0
  3
*U119
  1

  0
TEXT
  5
21E1
  8
SAPA_MATT
 62
     2
 10
-27.236646070995739
 20
63.776335890952957
 30
0.0
 40
3.0
  1
139.5
 50
90.0
  7
ISO
  0
ENDBLK
  5
21E3
  8
0
  0
BLOCK
  8
0
  2
*U120
 70
     1
 10
0.0
 20
0.0
 30
0.0
  3
*U120
  1

  0
TEXT
  5
21E5
  8
SAPA_MATT
 62
     2
 10
-13.21139613382598
 20
89.200085111269345
 30
0.0
 40
3.0
  1
97
 50
90.0
  7
ISO
  0
ENDBLK
  5
21E7
  8
0
  0
BLOCK
  8
0
  2
*U121
 70
     1
 10
0.0
 20
0.0
 30
0.0
  3
*U121
  1

  0
TEXT
  5
21E9
  8
SAPA_MATT
 62
     2
 10
-13.211396133825991
 20
38.950000001163048
 30
0.0
 40
3.0
  1
5
 50
90.0
  7
ISO
  0
ENDBLK
  5
21EB
  8
0
  0
BLOCK
  8
0
  2
*U122
 70
     1
 10
0.0
 20
0.0
 30
0.0
  3
*U122
  1

  0
TEXT
  5
21ED
  8
SAPA_MATT
 62
     2
 10
-13.211396133825991
 20
15.15
 30
0.0
 40
3.0
  1
37.5
 50
90.0
  7
ISO
  0
ENDBLK
  5
21EF
  8
0
  0
ENDSEC
  0
SECTION
  2
ENTITIES
  0
CIRCLE
  5
7A1
  8
SAPA_ANSLUTNING
 10
5.7502852293212072
 20
131.52526508608619
 30
0.0
 40
4.0502852221286458
  0
LINE
  5
7A2
  8
SAPA_ANSLUTNING
 10
0.2223542936667968
 20
139.49227602633329
 30
0.0
 11
9.8005704514498575
 21
142.058751310742
 31
0.0
  0
CIRCLE
  5
7A4
  8
SAPA_ANSLUTNING
 10
212.80057045145051
 20
135.0014761861438
 30
0.0
 40
3.0000000000000848
1001
ACAD
1000
ASC_BOUNDS
1002
{
1070
    19
1005
13BC
1002
}
  0
LINE
  5
7A5
  8
SAPA_ANSLUTNING
 10
217.37821616497999
 20
139.4912539340261
 30
0.0
 11
209.8005704514498
 21
141.52167798349569
 31
0.0
  0
POLYLINE
  5
7A6
  8
SAPA_ANSLUTNING
 66
     1
 10
0.0
 20
0.0
 30
0.0
  0
VERTEX
  5
14E1
  8
SAPA_ANSLUTNING
 10
98.304085766207152
 20
114.50147618619189
 30
0.0
  0
VERTEX
  5
14E2
  8
SAPA_ANSLUTNING
 10
98.304085766203514
 20
101.8040765807031
 30
0.0
 42
-0.9999999999999998
  0
VERTEX
  5
14E3
  8
SAPA_ANSLUTNING
 10
89.892085176028502
 20
101.8040765807031
 30
0.0
  0
VERTEX
  5
14E4
  8
SAPA_ANSLUTNING
 10
89.892085176028502
 20
110.2954758911827
 30
0.0
 42
0.9999999999999998
  0
VERTEX
  5
14E5
  8
SAPA_ANSLUTNING
 10
81.480084585864404
 20
110.2954758911827
 30
0.0
  0
VERTEX
  5
14E6
  8
SAPA_ANSLUTNING
 10
81.480084585864404
 20
103.3884405556814
 30
0.0
 42
-0.9999999999999998
  0
VERTEX
  5
14E7
  8
SAPA_ANSLUTNING
 10
73.068083995689392
 20
103.3884405556814
 30
0.0
  0
VERTEX
  5
14E8
  8
SAPA_ANSLUTNING
 10
73.068083995689392
 20
110.2954758911827
 30
0.0
 42
0.9999999999999998
  0
VERTEX
  5
14E9
  8
SAPA_ANSLUTNING
 10
64.656083405525294
 20
110.2954758911827
 30
0.0
  0
VERTEX
  5
14EA
  8
SAPA_ANSLUTNING
 10
64.656083405525294
 20
98.402354114361401
 30
0.0
 42
-0.9999999999999998
  0
VERTEX
  5
14EB
  8
SAPA_ANSLUTNING
 10
56.244082815350311
 20
98.402354114361401
 30
0.0
  0
VERTEX
  5
14EC
  8
SAPA_ANSLUTNING
 10
56.244082815350311
 20
110.2954758911827
 30
0.0
 42
0.9999999999999998
  0
VERTEX
  5
14ED
  8
SAPA_ANSLUTNING
 10
47.832082225186213
 20
110.2954758911827
 30
0.0
  0
VERTEX
  5
14EE
  8
SAPA_ANSLUTNING
 10
47.832082225186213
 20
98.402354114361401
 30
0.0
 42
-0.9999999999999998
  0
VERTEX
  5
14EF
  8
SAPA_ANSLUTNING
 10
39.420081635011201
 20
98.402354114361401
 30
0.0
  0
VERTEX
  5
14F0
  8
SAPA_ANSLUTNING
 10
39.420081635011201
 20
110.2954758911827
 30
0.0
 42
0.9999999999999998
  0
VERTEX
  5
14F1
  8
SAPA_ANSLUTNING
 10
31.008081044847099
 20
110.2954758911827
 30
0.0
  0
VERTEX
  5
14F2
  8
SAPA_ANSLUTNING
 10
31.008081044847099
 20
98.402354114361401
 30
0.0
 42
-0.9999999999999998
  0
VERTEX
  5
14F3
  8
SAPA_ANSLUTNING
 10
22.596080454672091
 20
98.402354114361401
 30
0.0
  0
VERTEX
  5
14F4
  8
SAPA_ANSLUTNING
 10
22.596080454672091
 20
110.2954758911827
 30
0.0
  0
SEQEND
  5
14F5
  8
SAPA_ANSLUTNING
  0
LINE
  5
8AD
  8
SAPA_ANSLUTNING
 10
209.8005704514498
 20
114.50147618626229
 30
0.0
 11
9.8005704514498717
 21
114.50147618626229
 31
0.0
  0
LINE
  5
8B2
  8
SAPA_ANSLUTNING
 10
9.8005704514498575
 20
174.5014761862501
 30
0.0
 11
9.8005704514498575
 21
114.50147618626239
 31
0.0
  0
LINE
  5
8BC
  8
SAPA_ANSLUTNING
 10
10.400570451355719
 20
114.5014761862617
 30
0.0
 11
10.40057045144988
 21
174.5014761862501
 31
0.0
  0
LINE
  5
8C3
  8
SAPA_ANSLUTNING
 10
209.8005704514498
 20
174.5014761862501
 30
0.0
 11
209.8005704514498
 21
114.5014761861276
 31
0.0
  0
LINE
  5
8CD
  8
SAPA_ANSLUTNING
 10
209.20057045135121
 20
114.5014761861283
 30
0.0
 11
209.20057045144989
 21
174.5014761862501
 31
0.0
  0
TEXT
  5
93F
  8
SAPA_ARTIKELNR
 10
-6.6845848097205929
 20
156.01153467375011
 30
0.0
 40
3.4999999999999991
  1
42070
 50
205.92875215863239
 51
180.0
  7
ISO
 71
     6
 72
     4
 11
-1.7839454606137399
 21
160.34007183657829
 31
0.0
  0
TEXT
  5
940
  8
SAPA_ARTIKELNR
 10
-2.5956299443496951
 20
86.062480073176715
 30
0.0
 40
3.5
  1
86117
 50
270.0
 51
180.0
  7
ISO
 71
     6
 72
     4
 11
-4.3456299443496951
 21
91.487480073176712
 31
0.0
  0
TEXT
  5
941
  8
SAPA_ARTIKELNR
 10
90.448978743277337
 20
4.6136432319193146
 30
0.0
 40
3.5
  1
42728
 50
270.0
 51
180.0
  7
ISO
 71
     6
 72
     4
 11
88.698978743277337
 21
10.913643231919311
 31
0.0
  0
TEXT
  5
943
  8
SAPA_ARTIKELNR
 10
71.668574840861552
 20
102.4593059876233
 30
0.0
 40
3.5
  1
42793
 50
180.0
 51
180.0
  7
ISO
 71
     6
 72
     4
 11
77.96857484086155
 21
104.2093059876233
 31
0.0
  0
TEXT
  5
B10
  8
SAPA_ARTIKELNR
 10
-2.7042724485998511
 20
13.35298528693682
 30
0.0
 40
3.5
  1
86302
 50
270.0
 51
180.0
  7
ISO
 71
     6
 72
     4
 11
-4.4542724485998511
 21
19.477985286936821
 31
0.0
  0
TEXT
  5
DA8
  8
SAPA_ARTIKELNR
 10
223.7365230049692
 20
110.19180771887299
 30
0.0
 40
3.5
  1
42880
 50
270.0
 51
180.0
  7
ISO
 71
     6
 72
     4
 11
221.9865230049692
 21
116.49180771887301
 31
0.0
  0
POLYLINE
  5
1385
  8
SAPA_PROFIL
 66
     1
 10
0.0
 20
0.0
 30
0.0
 70
     1
  0
VERTEX
  5
1A3B
  8
SAPA_PROFIL
 10
87.707734168553998
 20
97.429813335369118
 30
0.0
 42
-0.6370702608040425
  0
VERTEX
  5
1A3C
  8
SAPA_PROFIL
 10
88.200570451458276
 20
97.200000002432176
 30
0.0
  0
VERTEX
  5
1A3D
  8
SAPA_PROFIL
 10
88.200570451458304
 20
96.976324818627901
 30
0.0
 42
0.6370702608052643
  0
VERTEX
  5
1A3E
  8
SAPA_PROFIL
 10
88.69340673436264
 20
96.746511485691059
 30
0.0
  0
VERTEX
  5
1A3F
  8
SAPA_PROFIL
 10
89.507734168553895
 20
97.429813335369246
 30
0.0
 42
-0.6370702608045286
  0
VERTEX
  5
1A40
  8
SAPA_PROFIL
 10
90.000570451458231
 20
97.200000002432176
 30
0.0
  0
VERTEX
  5
1A41
  8
SAPA_PROFIL
 10
90.000570451458216
 20
96.976324818627901
 30
0.0
 42
0.6370702608054076
  0
VERTEX
  5
1A42
  8
SAPA_PROFIL
 10
90.493406734362807
 20
96.746511485691059
 30
0.0
  0
VERTEX
  5
1A43
  8
SAPA_PROFIL
 10
91.307734168553793
 20
97.429813335369033
 30
0.0
 42
-0.6370702608048892
  0
VERTEX
  5
1A44
  8
SAPA_PROFIL
 10
91.800570451458427
 20
97.200000002432176
 30
0.0
  0
VERTEX
  5
1A45
  8
SAPA_PROFIL
 10
91.800570451458285
 20
96.976324818628115
 30
0.0
 42
0.6370702608051136
  0
VERTEX
  5
1A46
  8
SAPA_PROFIL
 10
92.293406734362776
 20
96.746511485691059
 30
0.0
  0
VERTEX
  5
1A47
  8
SAPA_PROFIL
 10
93.107734168553733
 20
97.429813335369033
 30
0.0
 42
-0.6370702608048892
  0
VERTEX
  5
1A48
  8
SAPA_PROFIL
 10
93.600570451458367
 20
97.200000002432176
 30
0.0
  0
VERTEX
  5
1A49
  8
SAPA_PROFIL
 10
93.600570451458594
 20
96.800000002297054
 30
0.0
 42
0.4142135623708974
  0
VERTEX
  5
1A4A
  8
SAPA_PROFIL
 10
93.900570451456517
 20
96.500000002297313
 30
0.0
  0
VERTEX
  5
1A4B
  8
SAPA_PROFIL
 10
197.1005704514607
 20
96.500000001999965
 30
0.0
 42
0.4142135623728287
  0
VERTEX
  5
1A4C
  8
SAPA_PROFIL
 10
198.10057045147391
 20
97.500000002018609
 30
0.0
  0
VERTEX
  5
1A4D
  8
SAPA_PROFIL
 10
198.10057045147491
 20
102.10000000189341
 30
0.0
 42
-0.4142135623730077
  0
VERTEX
  5
1A4E
  8
SAPA_PROFIL
 10
198.40057045147449
 20
102.40000000189271
 30
0.0
  0
VERTEX
  5
1A4F
  8
SAPA_PROFIL
 10
200.70057045147431
 20
102.40000000189271
 30
0.0
 42
-0.4142135623730951
  0
VERTEX
  5
1A50
  8
SAPA_PROFIL
 10
201.00057045147449
 20
102.1000000018925
 30
0.0
  0
VERTEX
  5
1A51
  8
SAPA_PROFIL
 10
201.00057045147449
 20
101.60000000189341
 30
0.0
 42
-0.4142135623730951
  0
VERTEX
  5
1A52
  8
SAPA_PROFIL
 10
200.70057045147431
 20
101.3000000018932
 30
0.0
  0
VERTEX
  5
1A53
  8
SAPA_PROFIL
 10
200.36394352684451
 20
101.3000000018931
 30
0.0
 42
0.553524574347029
  0
VERTEX
  5
1A54
  8
SAPA_PROFIL
 10
202.136462849531
 20
96.989445790334216
 30
0.0
  0
VERTEX
  5
1A55
  8
SAPA_PROFIL
 10
202.4237937562232
 20
97.276776697026861
 30
0.0
 42
-0.4142135623731421
  0
VERTEX
  5
1A56
  8
SAPA_PROFIL
 10
202.77734714681651
 20
97.276776697026875
 30
0.0
  0
VERTEX
  5
1A57
  8
SAPA_PROFIL
 10
203.06467805349919
 20
96.989445790344334
 30
0.0
 42
0.5535245743365356
  0
VERTEX
  5
1A58
  8
SAPA_PROFIL
 10
204.8371973761148
 20
101.3000000018932
 30
0.0
  0
VERTEX
  5
1A59
  8
SAPA_PROFIL
 10
204.5005704514744
 20
101.3000000018932
 30
0.0
 42
-0.4142135623730951
  0
VERTEX
  5
1A5A
  8
SAPA_PROFIL
 10
204.20057045147431
 20
101.60000000189341
 30
0.0
  0
VERTEX
  5
1A5B
  8
SAPA_PROFIL
 10
204.20057045147431
 20
102.1000000018925
 30
0.0
 42
-0.4142135623730951
  0
VERTEX
  5
1A5C
  8
SAPA_PROFIL
 10
204.5005704514744
 20
102.40000000189271
 30
0.0
  0
VERTEX
  5
1A5D
  8
SAPA_PROFIL
 10
206.80057045147419
 20
102.40000000189271
 30
0.0
 42
-0.4142135623730744
  0
VERTEX
  5
1A5E
  8
SAPA_PROFIL
 10
207.1005704514744
 20
102.10000000189341
 30
0.0
  0
VERTEX
  5
1A5F
  8
SAPA_PROFIL
 10
207.1005704514744
 20
97.500000001974954
 30
0.0
 42
0.4142135623730951
  0
VERTEX
  5
1A60
  8
SAPA_PROFIL
 10
208.10057045145709
 20
96.500000002000434
 30
0.0
  0
VERTEX
  5
1A61
  8
SAPA_PROFIL
 10
215.10057045147229
 20
96.500000001952785
 30
0.0
 42
0.4142135623752928
  0
VERTEX
  5
1A62
  8
SAPA_PROFIL
 10
215.60057045147599
 20
97.000000001953126
 30
0.0
  0
VERTEX
  5
1A63
  8
SAPA_PROFIL
 10
215.6005704514551
 20
129.50000000226689
 30
0.0
 42
0.4142135623728287
  0
VERTEX
  5
1A64
  8
SAPA_PROFIL
 10
215.10057045145501
 20
130.0000000022664
 30
0.0
  0
VERTEX
  5
1A65
  8
SAPA_PROFIL
 10
210.10057045144961
 20
130.00000000226669
 30
0.0
 42
-0.4142135623728953
  0
VERTEX
  5
1A66
  8
SAPA_PROFIL
 10
209.8005704514494
 20
130.30000000226659
 30
0.0
  0
VERTEX
  5
1A67
  8
SAPA_PROFIL
 10
209.8005704514494
 20
131.70000000226571
 30
0.0
 42
-0.4142135623733406
  0
VERTEX
  5
1A68
  8
SAPA_PROFIL
 10
210.10057045145001
 20
132.00000000226569
 30
0.0
  0
VERTEX
  5
1A69
  8
SAPA_PROFIL
 10
215.300570451449
 20
132.0000000022585
 30
0.0
 42
0.4142135623736278
  0
VERTEX
  5
1A6A
  8
SAPA_PROFIL
 10
215.8005704514494
 20
132.5000000022585
 30
0.0
  0
VERTEX
  5
1A6B
  8
SAPA_PROFIL
 10
215.80057045144949
 20
136.58578643988491
 30
0.0
 42
0.1989123673796446
  0
VERTEX
  5
1A6C
  8
SAPA_PROFIL
 10
215.71270248580549
 20
136.79791847424119
 30
0.0
  0
VERTEX
  5
1A6D
  8
SAPA_PROFIL
 10
215.44701706085601
 20
137.06360389919021
 30
0.0
 42
-0.414213562373048
  0
VERTEX
  5
1A6E
  8
SAPA_PROFIL
 10
215.4470170608561
 20
137.77071068037679
 30
0.0
  0
VERTEX
  5
1A6F
  8
SAPA_PROFIL
 10
217.0884384170931
 20
139.4121320366134
 30
0.0
 42
-0.6681786379187616
  0
VERTEX
  5
1A70
  8
SAPA_PROFIL
 10
217.6005704514487
 20
139.20000000225761
 30
0.0
  0
VERTEX
  5
1A71
  8
SAPA_PROFIL
 10
217.6005704514773
 20
95.000000001939711
 30
0.0
 42
-0.4142135623754925
  0
VERTEX
  5
1A72
  8
SAPA_PROFIL
 10
217.10057045147369
 20
94.500000001939256
 30
0.0
  0
VERTEX
  5
1A73
  8
SAPA_PROFIL
 10
76.100570451471327
 20
94.500000002418091
 30
0.0
 42
-0.7336498725448476
  0
VERTEX
  5
1A74
  8
SAPA_PROFIL
 10
75.81422932025626
 20
95.409888714853807
 30
0.0
  0
VERTEX
  5
1A75
  8
SAPA_PROFIL
 10
78.728765772736892
 20
97.445933229892859
 30
0.0
 42
-0.606441717362567
  0
VERTEX
  5
1A76
  8
SAPA_PROFIL
 10
79.200570451458049
 20
97.200000002432176
 30
0.0
  0
VERTEX
  5
1A77
  8
SAPA_PROFIL
 10
79.20057045145802
 20
96.976324818627901
 30
0.0
 42
0.6370702608054076
  0
VERTEX
  5
1A78
  8
SAPA_PROFIL
 10
79.693406734362625
 20
96.746511485691059
 30
0.0
  0
VERTEX
  5
1A79
  8
SAPA_PROFIL
 10
80.507734168552474
 20
97.429813335367896
 30
0.0
 42
-0.6370702608052336
  0
VERTEX
  5
1A7A
  8
SAPA_PROFIL
 10
81.000570451458216
 20
97.200000002432176
 30
0.0
  0
VERTEX
  5
1A7B
  8
SAPA_PROFIL
 10
81.000570451458202
 20
96.976324818627901
 30
0.0
 42
0.6370702608054076
  0
VERTEX
  5
1A7C
  8
SAPA_PROFIL
 10
81.493406734362836
 20
96.746511485691059
 30
0.0
  0
VERTEX
  5
1A7D
  8
SAPA_PROFIL
 10
82.307734168552457
 20
97.429813335367896
 30
0.0
 42
-0.6370702608058605
  0
VERTEX
  5
1A7E
  8
SAPA_PROFIL
 10
82.800570451458412
 20
97.200000002432176
 30
0.0
  0
VERTEX
  5
1A7F
  8
SAPA_PROFIL
 10
82.80057045145827
 20
96.976324818628115
 30
0.0
 42
0.6370702608051136
  0
VERTEX
  5
1A80
  8
SAPA_PROFIL
 10
83.293406734362776
 20
96.746511485691059
 30
0.0
  0
VERTEX
  5
1A81
  8
SAPA_PROFIL
 10
84.107734168552554
 20
97.429813335367953
 30
0.0
 42
-0.6370702608057057
  0
VERTEX
  5
1A82
  8
SAPA_PROFIL
 10
84.600570451458367
 20
97.200000002432176
 30
0.0
  0
VERTEX
  5
1A83
  8
SAPA_PROFIL
 10
84.600570451457997
 20
96.976324818628143
 30
0.0
 42
0.6370702608047383
  0
VERTEX
  5
1A84
  8
SAPA_PROFIL
 10
85.093406734362731
 20
96.746511485691059
 30
0.0
  0
VERTEX
  5
1A85
  8
SAPA_PROFIL
 10
85.907734168553702
 20
97.429813335369033
 30
0.0
 42
-0.6370702608048892
  0
VERTEX
  5
1A86
  8
SAPA_PROFIL
 10
86.400570451458321
 20
97.200000002432176
 30
0.0
  0
VERTEX
  5
1A87
  8
SAPA_PROFIL
 10
86.400570451458265
 20
96.976324818627901
 30
0.0
 42
0.6370702608052951
  0
VERTEX
  5
1A88
  8
SAPA_PROFIL
 10
86.893406734362685
 20
96.746511485691059
 30
0.0
  0
SEQEND
  5
1A89
  8
SAPA_PROFIL
  0
POLYLINE
  5
1386
  8
SAPA_PROFIL
 66
     1
 10
0.0
 20
0.0
 30
0.0
 70
     1
  0
VERTEX
  5
1A8A
  8
SAPA_PROFIL
 10
83.104759989302906
 20
21.500000002252591
 30
0.0
  0
VERTEX
  5
1A8B
  8
SAPA_PROFIL
 10
82.862216051455789
 20
21.500000002252591
 30
0.0
 42
-0.2011813370902256
  0
VERTEX
  5
1A8C
  8
SAPA_PROFIL
 10
82.719565961625236
 20
21.55981814939264
 30
0.0
  0
VERTEX
  5
1A8D
  8
SAPA_PROFIL
 10
81.808853868601304
 20
22.486565508122339
 30
0.0
  0
VERTEX
  5
1A8E
  8
SAPA_PROFIL
 10
81.822061411344521
 20
24.00000000225441
 30
0.0
 42
0.4931454260356012
  0
VERTEX
  5
1A8F
  8
SAPA_PROFIL
 10
82.042888300392164
 20
25.571264962492251
 30
0.0
  0
VERTEX
  5
1A90
  8
SAPA_PROFIL
 10
80.993711727779385
 20
26.638914799316581
 30
0.0
 42
0.6681786379164681
  0
VERTEX
  5
1A91
  8
SAPA_PROFIL
 10
80.643811470294452
 20
26.497545918862901
 30
0.0
  0
VERTEX
  5
1A92
  8
SAPA_PROFIL
 10
80.604561981697145
 20
22.000000002252591
 30
0.0
  0
VERTEX
  5
1A93
  8
SAPA_PROFIL
 10
82.682075240926906
 20
19.885907150662891
 30
0.0
 42
-0.2038501166358263
  0
VERTEX
  5
1A94
  8
SAPA_PROFIL
 10
82.825258097532924
 20
19.521600371245079
 30
0.0
  0
VERTEX
  5
1A95
  8
SAPA_PROFIL
 10
82.406631988244044
 20
4.4168871186506626
 30
0.0
 42
-0.4061212134736873
  0
VERTEX
  5
1A96
  8
SAPA_PROFIL
 10
79.407783501144593
 20
1.5000000022590709
 30
0.0
  0
VERTEX
  5
1A97
  8
SAPA_PROFIL
 10
67.623592257676535
 20
1.5000000022590709
 30
0.0
 42
-0.4142135623730951
  0
VERTEX
  5
1A98
  8
SAPA_PROFIL
 10
67.123592257676535
 20
2.0000000022590712
 30
0.0
  0
VERTEX
  5
1A99
  8
SAPA_PROFIL
 10
67.123592257676535
 20
13.58578643988414
 30
0.0
 42
-0.198912367379658
  0
VERTEX
  5
1A9A
  8
SAPA_PROFIL
 10
67.416485476489981
 20
14.292893221070701
 30
0.0
  0
VERTEX
  5
1A9B
  8
SAPA_PROFIL
 10
67.79708424988047
 20
14.673491994461241
 30
0.0
 42
0.1830252782112529
  0
VERTEX
  5
1A9C
  8
SAPA_PROFIL
 10
68.379112791628074
 20
15.96515980319259
 30
0.0
  0
VERTEX
  5
1A9D
  8
SAPA_PROFIL
 10
69.102177518958626
 20
26.39823183199837
 30
0.0
 42
0.668178637923616
  0
VERTEX
  5
1A9E
  8
SAPA_PROFIL
 10
68.587027029169633
 20
26.61161415153197
 30
0.0
  0
VERTEX
  5
1A9F
  8
SAPA_PROFIL
 10
66.587544914247076
 20
24.61213203660941
 30
0.0
 42
0.7332303362588345
  0
VERTEX
  5
1AA0
  8
SAPA_PROFIL
 10
66.851771401904273
 20
24.10455767634971
 30
0.0
  0
VERTEX
  5
1AA1
  8
SAPA_PROFIL
 10
67.467582495302679
 20
24.213141787135779
 30
0.0
 42
-0.4663076581593561
  0
VERTEX
  5
1AA2
  8
SAPA_PROFIL
 10
67.819676948602876
 20
23.91769946123236
 30
0.0
  0
VERTEX
  5
1AA3
  8
SAPA_PROFIL
 10
67.08851732672241
 20
16.158222335880051
 30
0.0
 42
-0.183025278211264
  0
VERTEX
  5
1AA4
  8
SAPA_PROFIL
 10
66.797503055848594
 20
15.512388431514349
 30
0.0
  0
VERTEX
  5
1AA5
  8
SAPA_PROFIL
 10
66.409378695303573
 20
15.124264070969391
 30
0.0
 42
0.1989123673796518
  0
VERTEX
  5
1AA6
  8
SAPA_PROFIL
 10
65.823592257676694
 20
13.710050508596339
 30
0.0
  0
VERTEX
  5
1AA7
  8
SAPA_PROFIL
 10
65.82359225767658
 20
2.3000000022435638
 30
0.0
 42
-0.4142135623732283
  0
VERTEX
  5
1AA8
  8
SAPA_PROFIL
 10
65.323592257676353
 20
1.800000002243564
 30
0.0
  0
VERTEX
  5
1AA9
  8
SAPA_PROFIL
 10
64.123592257676989
 20
1.8000000022445299
 30
0.0
 42
0.4142135623732062
  0
VERTEX
  5
1AAA
  8
SAPA_PROFIL
 10
63.823592257676921
 20
1.500000002244519
 30
0.0
  0
VERTEX
  5
1AAB
  8
SAPA_PROFIL
 10
63.82359225767658
 20
0.3000000022590257
 30
0.0
 42
0.4142135623716247
  0
VERTEX
  5
1AAC
  8
SAPA_PROFIL
 10
64.123592257677899
 20
0.0000000022590143
 30
0.0
  0
VERTEX
  5
1AAD
  8
SAPA_PROFIL
 10
84.099999999999909
 20
0.0000000022454856
 30
0.0
 42
0.4142135623732938
  0
VERTEX
  5
1AAE
  8
SAPA_PROFIL
 10
84.299999999999955
 20
0.2000000022454742
 30
0.0
  0
VERTEX
  5
1AAF
  8
SAPA_PROFIL
 10
84.299999999999955
 20
21.795376115931269
 30
0.0
 42
0.4210020197690384
  0
VERTEX
  5
1AB0
  8
SAPA_PROFIL
 10
84.100053457955937
 20
22.000000002252591
 30
0.0
  0
VERTEX
  5
1AB1
  8
SAPA_PROFIL
 10
83.512070294760406
 20
22.000000002259071
 30
0.0
  0
VERTEX
  5
1AB2
  8
SAPA_PROFIL
 10
83.512070294760406
 20
21.70000000225906
 30
0.0
 42
-0.41421356237322
  0
VERTEX
  5
1AB3
  8
SAPA_PROFIL
 10
83.31207029476036
 20
21.500000002259188
 30
0.0
  0
VERTEX
  5
1AB4
  8
SAPA_PROFIL
 10
83.094892529290746
 20
21.500000002259071
 30
0.0
  0
SEQEND
  5
1AB5
  8
SAPA_PROFIL
  0
CIRCLE
  5
1387
  8
SAPA_PROFIL
 62
     2
 10
3.1894244515839878
 20
3.3366590748387348
 30
0.0
 40
0.8999999999999985
  0
POLYLINE
  5
1388
  8
SAPA_PROFIL
 62
     2
 66
     1
 10
0.0
 20
0.0
 30
0.0
  0
VERTEX
  5
1AB6
  8
SAPA_PROFIL
 62
     2
 10
4.4974308631570352
 20
1.9366590748387571
 30
0.0
  0
VERTEX
  5
1AB7
  8
SAPA_PROFIL
 62
     2
 10
3.4065120530042909
 20
2.1290174948311451
 30
0.0
  0
VERTEX
  5
1AB8
  8
SAPA_PROFIL
 62
     2
 10
3.290812513484354
 20
1.697220934929532
 30
0.0
 42
-0.4430158954262519
  0
VERTEX
  5
1AB9
  8
SAPA_PROFIL
 62
     2
 10
3.0273360853773852
 20
1.5617438873854319
 30
0.0
  0
VERTEX
  5
1ABA
  8
SAPA_PROFIL
 62
     2
 10
1.756848337459189
 20
2.0386920806043909
 30
0.0
 42
-0.3125358528825162
  0
VERTEX
  5
1ABB
  8
SAPA_PROFIL
 62
     2
 10
1.4974308631574891
 20
2.4131737937337898
 30
0.0
  0
VERTEX
  5
1ABC
  8
SAPA_PROFIL
 62
     2
 10
1.497430863157035
 20
4.2833291096441144
 30
0.0
 42
-0.3125358528825104
  0
VERTEX
  5
1ABD
  8
SAPA_PROFIL
 62
     2
 10
1.756848337459189
 20
4.657810822773512
 30
0.0
  0
VERTEX
  5
1ABE
  8
SAPA_PROFIL
 62
     2
 10
3.0273360853773852
 20
5.1347590159926986
 30
0.0
 42
-0.4430158954262519
  0
VERTEX
  5
1ABF
  8
SAPA_PROFIL
 62
     2
 10
3.2908125134842399
 20
4.9992819684485994
 30
0.0
  0
VERTEX
  5
1AC0
  8
SAPA_PROFIL
 62
     2
 10
3.4065120530042909
 20
4.5674854085467578
 30
0.0
  0
VERTEX
  5
1AC1
  8
SAPA_PROFIL
 62
     2
 10
4.4974308631570352
 20
4.7597514516889978
 30
0.0
  0
SEQEND
  5
1AC2
  8
SAPA_PROFIL
 62
     2
  0
POLYLINE
  5
1389
  8
SAPA_PROFIL
 62
     2
 66
     1
 10
0.0
 20
0.0
 30
0.0
 70
     1
  0
VERTEX
  5
1AC3
  8
SAPA_PROFIL
 62
     2
 10
4.4974308631570352
 20
1.9482514516890881
 30
0.0
 42
0.285714285714282
  0
VERTEX
  5
1AC4
  8
SAPA_PROFIL
 62
     2
 10
4.4974308631570352
 20
4.7482514516890433
 30
0.0
  0
VERTEX
  5
1AC5
  8
SAPA_PROFIL
 62
     2
 10
4.4974308631574891
 20
6.8220316210769161
 30
0.0
 42
-0.3882600129940275
  0
VERTEX
  5
1AC6
  8
SAPA_PROFIL
 62
     2
 10
4.7706415894370471
 20
7.120833118418318
 30
0.0
  0
VERTEX
  5
1AC7
  8
SAPA_PROFIL
 62
     2
 10
8.6706415894371371
 20
7.5870430423448161
 30
0.0
 42
-0.4406523138893894
  0
VERTEX
  5
1AC8
  8
SAPA_PROFIL
 62
     2
 10
8.9974308631570352
 20
7.2882415450029612
 30
0.0
  0
VERTEX
  5
1AC9
  8
SAPA_PROFIL
 62
     2
 10
8.9974308631570352
 20
5.5784495480826299
 30
0.0
 42
-0.3394542588634375
  0
VERTEX
  5
1ACA
  8
SAPA_PROFIL
 62
     2
 10
8.7750765766880363
 20
5.2886718001960844
 30
0.0
  0
VERTEX
  5
1ACB
  8
SAPA_PROFIL
 62
     2
 10
8.5574907945204473
 20
5.0862920722646541
 30
0.0
 42
0.3394542588633663
  0
VERTEX
  5
1ACC
  8
SAPA_PROFIL
 62
     2
 10
8.3351365080514483
 20
4.7965143243778812
 30
0.0
  0
VERTEX
  5
1ACD
  8
SAPA_PROFIL
 62
     2
 10
8.3351365080514483
 20
1.899988579000023
 30
0.0
 42
0.3394542588634373
  0
VERTEX
  5
1ACE
  8
SAPA_PROFIL
 62
     2
 10
8.5574907945204473
 20
1.6102108311134771
 30
0.0
  0
VERTEX
  5
1ACF
  8
SAPA_PROFIL
 62
     2
 10
8.7750765766880363
 20
1.407831103182047
 30
0.0
 42
-0.3394542588633662
  0
VERTEX
  5
1AD0
  8
SAPA_PROFIL
 62
     2
 10
8.9974308631570352
 20
1.1180533552952729
 30
0.0
  0
VERTEX
  5
1AD1
  8
SAPA_PROFIL
 62
     2
 10
8.9974308631570352
 20
-0.5917386416248293
 30
0.0
 42
-0.4406523138893994
  0
VERTEX
  5
1AD2
  8
SAPA_PROFIL
 62
     2
 10
8.6706415894371371
 20
-0.8905401389664575
 30
0.0
  0
VERTEX
  5
1AD3
  8
SAPA_PROFIL
 62
     2
 10
4.7706415894370471
 20
-0.424330215040186
 30
0.0
 42
-0.3882600129940462
  0
VERTEX
  5
1AD4
  8
SAPA_PROFIL
 62
     2
 10
4.4974308631570352
 20
-0.1255287176987849
 30
0.0
  0
VERTEX
  5
1AD5
  8
SAPA_PROFIL
 62
     2
 10
4.4974308631570352
 20
1.9366590748387571
 30
0.0
  0
SEQEND
  5
1AD6
  8
SAPA_PROFIL
 62
     2
  0
POLYLINE
  5
138A
  8
SAPA_PROFIL
 66
     1
 10
0.0
 20
0.0
 30
0.0
 70
     1
  0
VERTEX
  5
1AD7
  8
SAPA_PROFIL
 10
61.269916888688492
 20
47.511503237588741
 30
0.0
  0
VERTEX
  5
1AD8
  8
SAPA_PROFIL
 10
61.554599171920138
 20
47.359369326479971
 30
0.0
 42
0.5773502691897463
  0
VERTEX
  5
1AD9
  8
SAPA_PROFIL
 10
61.84875547217495
 20
47.542323066590157
 30
0.0
  0
VERTEX
  5
1ADA
  8
SAPA_PROFIL
 10
61.838194105947977
 20
47.864080794808409
 30
0.0
  0
VERTEX
  5
1ADB
  8
SAPA_PROFIL
 10
63.724037797809032
 20
48.948645241780142
 30
0.0
  0
VERTEX
  5
1ADC
  8
SAPA_PROFIL
 10
63.915420797802753
 20
49.006718878769227
 30
0.0
 42
-0.7625858545243257
  0
VERTEX
  5
1ADD
  8
SAPA_PROFIL
 10
64.100000000000222
 20
48.676392797752229
 30
0.0
 42
0.2134217652834389
  0
VERTEX
  5
1ADE
  8
SAPA_PROFIL
 10
64.000000000000099
 20
48.452786000002106
 30
0.0
  0
VERTEX
  5
1ADF
  8
SAPA_PROFIL
 10
64.000000000000114
 20
44.600000000002133
 30
0.0
 42
-0.4142139999998963
  0
VERTEX
  5
1AE0
  8
SAPA_PROFIL
 10
63.700000000000067
 20
44.300000000002107
 30
0.0
  0
VERTEX
  5
1AE1
  8
SAPA_PROFIL
 10
63.400000000000112
 20
44.300000000002107
 30
0.0
  0
VERTEX
  5
1AE2
  8
SAPA_PROFIL
 10
61.800000000000132
 20
45.223760000002173
 30
0.0
 42
0.5773500000002674
  0
VERTEX
  5
1AE3
  8
SAPA_PROFIL
 10
61.500000000000078
 20
45.050555000002078
 30
0.0
  0
VERTEX
  5
1AE4
  8
SAPA_PROFIL
 10
61.500000000000078
 20
43.664914000002121
 30
0.0
 42
0.267949000000023
  0
VERTEX
  5
1AE5
  8
SAPA_PROFIL
 10
62.000000000000078
 20
42.798889000002077
 30
0.0
  0
VERTEX
  5
1AE6
  8
SAPA_PROFIL
 10
63.750000000000099
 20
41.788526000002101
 30
0.0
 42
-0.2679489999999919
  0
VERTEX
  5
1AE7
  8
SAPA_PROFIL
 10
64.000000000000114
 20
41.355513000002077
 30
0.0
  0
VERTEX
  5
1AE8
  8
SAPA_PROFIL
 10
64.000000000000114
 20
31.344486000002131
 30
0.0
 42
-0.2679490000000193
  0
VERTEX
  5
1AE9
  8
SAPA_PROFIL
 10
63.750000000000099
 20
30.911473000002111
 30
0.0
  0
VERTEX
  5
1AEA
  8
SAPA_PROFIL
 10
62.000000000000092
 20
29.901110000002131
 30
0.0
 42
0.2679490000000211
  0
VERTEX
  5
1AEB
  8
SAPA_PROFIL
 10
61.500000000000078
 20
29.035085000002091
 30
0.0
  0
VERTEX
  5
1AEC
  8
SAPA_PROFIL
 10
61.500000000000078
 20
27.649444000002131
 30
0.0
 42
0.5773499999999721
  0
VERTEX
  5
1AED
  8
SAPA_PROFIL
 10
61.80000000000009
 20
27.476239000002131
 30
0.0
  0
VERTEX
  5
1AEE
  8
SAPA_PROFIL
 10
63.400000000000112
 20
28.400000000002091
 30
0.0
  0
VERTEX
  5
1AEF
  8
SAPA_PROFIL
 10
63.700000000000081
 20
28.400000000002091
 30
0.0
 42
-0.4142139999999657
  0
VERTEX
  5
1AF0
  8
SAPA_PROFIL
 10
64.000000000000114
 20
28.10000000000214
 30
0.0
  0
VERTEX
  5
1AF1
  8
SAPA_PROFIL
 10
64.0
 20
24.247213000002098
 30
0.0
 42
0.2134217652834387
  0
VERTEX
  5
1AF2
  8
SAPA_PROFIL
 10
64.100000000000136
 20
24.023606202251958
 30
0.0
 42
-0.7625858545243244
  0
VERTEX
  5
1AF3
  8
SAPA_PROFIL
 10
63.915420797802653
 20
23.693280121234981
 30
0.0
  0
VERTEX
  5
1AF4
  8
SAPA_PROFIL
 10
63.724037797808933
 20
23.751353758224081
 30
0.0
  0
VERTEX
  5
1AF5
  8
SAPA_PROFIL
 10
61.838194105947871
 20
24.835918205195821
 30
0.0
  0
VERTEX
  5
1AF6
  8
SAPA_PROFIL
 10
61.848755472174851
 20
25.15767593341409
 30
0.0
 42
0.5773502691897466
  0
VERTEX
  5
1AF7
  8
SAPA_PROFIL
 10
61.55459917192001
 20
25.340629673524241
 30
0.0
  0
VERTEX
  5
1AF8
  8
SAPA_PROFIL
 10
61.26991688868835
 20
25.188495762415481
 30
0.0
 42
0.2216946626430191
  0
VERTEX
  5
1AF9
  8
SAPA_PROFIL
 10
60.864107983533579
 20
24.647615930938692
 30
0.0
  0
VERTEX
  5
1AFA
  8
SAPA_PROFIL
 10
60.482661387405862
 20
22.834385460280441
 30
0.0
 42
0.4769755326981641
  0
VERTEX
  5
1AFB
  8
SAPA_PROFIL
 10
60.784914211912337
 20
22.46272858533457
 30
0.0
  0
VERTEX
  5
1AFC
  8
SAPA_PROFIL
 10
62.288015292674352
 20
22.46281219321822
 30
0.0
  0
VERTEX
  5
1AFD
  8
SAPA_PROFIL
 10
62.30253370192144
 20
22.51065794321671
 30
0.0
 42
-0.4142135623730953
  0
VERTEX
  5
1AFE
  8
SAPA_PROFIL
 10
62.676718657397252
 20
22.7106219877241
 30
0.0
  0
VERTEX
  5
1AFF
  8
SAPA_PROFIL
 10
63.997834074831431
 20
22.200000000002099
 30
0.0
  0
VERTEX
  5
1B00
  8
SAPA_PROFIL
 10
64.000000000000114
 20
22.200000000002099
 30
0.0
  0
VERTEX
  5
1B01
  8
SAPA_PROFIL
 10
66.992485000000116
 20
22.200000000002099
 30
0.0
 42
0.2596809999999277
  0
VERTEX
  5
1B02
  8
SAPA_PROFIL
 10
67.162516000000096
 20
22.294693000002109
 30
0.0
  0
VERTEX
  5
1B03
  8
SAPA_PROFIL
 10
67.955047000000107
 20
23.542039000002099
 30
0.0
 42
0.5877030000000004
  0
VERTEX
  5
1B04
  8
SAPA_PROFIL
 10
67.700000000000074
 20
24.00000000000211
 30
0.0
  0
VERTEX
  5
1B05
  8
SAPA_PROFIL
 10
66.300000000000097
 20
24.00000000000211
 30
0.0
 42
-0.4142135623731089
  0
VERTEX
  5
1B06
  8
SAPA_PROFIL
 10
66.000000000000114
 20
24.300000000002122
 30
0.0
  0
VERTEX
  5
1B07
  8
SAPA_PROFIL
 10
66.000000000000114
 20
26.700000000002099
 30
0.0
 42
-0.4142135623731088
  0
VERTEX
  5
1B08
  8
SAPA_PROFIL
 10
66.300000000000097
 20
27.00000000000211
 30
0.0
  0
VERTEX
  5
1B09
  8
SAPA_PROFIL
 10
72.100000000000051
 20
27.00000000000211
 30
0.0
  0
VERTEX
  5
1B0A
  8
SAPA_PROFIL
 10
74.100000000000051
 20
27.00000000000211
 30
0.0
  0
VERTEX
  5
1B0B
  8
SAPA_PROFIL
 10
83.700000000000074
 20
27.000000000002121
 30
0.0
 42
-0.4142139999999172
  0
VERTEX
  5
1B0C
  8
SAPA_PROFIL
 10
84.000000000000071
 20
26.70000000000211
 30
0.0
  0
VERTEX
  5
1B0D
  8
SAPA_PROFIL
 10
84.000000000000071
 20
24.300000000002129
 30
0.0
 42
-0.4142139999999103
  0
VERTEX
  5
1B0E
  8
SAPA_PROFIL
 10
83.700000000000074
 20
24.000000000002121
 30
0.0
  0
VERTEX
  5
1B0F
  8
SAPA_PROFIL
 10
82.300000000000097
 20
24.000000000002121
 30
0.0
 42
0.5877030000000132
  0
VERTEX
  5
1B10
  8
SAPA_PROFIL
 10
82.044954000000089
 20
23.542039000002109
 30
0.0
  0
VERTEX
  5
1B11
  8
SAPA_PROFIL
 10
82.941353000000106
 20
22.094693000002149
 30
0.0
 42
0.259681000000005
  0
VERTEX
  5
1B12
  8
SAPA_PROFIL
 10
83.111384000000058
 20
22.000000000002121
 30
0.0
  0
VERTEX
  5
1B13
  8
SAPA_PROFIL
 10
85.732051000000112
 20
22.000000000002149
 30
0.0
 42
0.1316520000000017
  0
VERTEX
  5
1B14
  8
SAPA_PROFIL
 10
86.232051000000126
 20
22.133974000002141
 30
0.0
  0
VERTEX
  5
1B15
  8
SAPA_PROFIL
 10
94.000000000000114
 20
26.618802000002141
 30
0.0
 42
0.267948999999994
  0
VERTEX
  5
1B16
  8
SAPA_PROFIL
 10
95.500000000000085
 20
29.216878000002129
 30
0.0
  0
VERTEX
  5
1B17
  8
SAPA_PROFIL
 10
95.500000000000071
 20
67.500000000002132
 30
0.0
 42
0.4142140000000114
  0
VERTEX
  5
1B18
  8
SAPA_PROFIL
 10
92.500000000000085
 20
70.500000000002132
 30
0.0
  0
VERTEX
  5
1B19
  8
SAPA_PROFIL
 10
92.000000000000085
 20
70.500000000002217
 30
0.0
 42
0.4241420000000259
  0
VERTEX
  5
1B1A
  8
SAPA_PROFIL
 10
91.000571000000136
 20
69.466227000002121
 30
0.0
 42
0.2988660000000032
  0
VERTEX
  5
1B1B
  8
SAPA_PROFIL
 10
91.571429000000123
 20
68.528947000002177
 30
0.0
 42
0.55075999999996
  0
VERTEX
  5
1B1C
  8
SAPA_PROFIL
 10
92.000000000000085
 20
68.800000000002129
 30
0.0
  0
VERTEX
  5
1B1D
  8
SAPA_PROFIL
 10
92.000000000000085
 20
69.10000000000214
 30
0.0
 42
-0.4142139999998339
  0
VERTEX
  5
1B1E
  8
SAPA_PROFIL
 10
92.200000000000074
 20
69.300000000002115
 30
0.0
  0
VERTEX
  5
1B1F
  8
SAPA_PROFIL
 10
92.500000000000099
 20
69.300000000002115
 30
0.0
 42
-0.4142139999999946
  0
VERTEX
  5
1B20
  8
SAPA_PROFIL
 10
94.300000000000125
 20
67.500000000002132
 30
0.0
  0
VERTEX
  5
1B21
  8
SAPA_PROFIL
 10
94.300000000000125
 20
66.800000000002115
 30
0.0
 42
-0.4142139999999852
  0
VERTEX
  5
1B22
  8
SAPA_PROFIL
 10
92.500000000000099
 20
65.000000000002132
 30
0.0
  0
VERTEX
  5
1B23
  8
SAPA_PROFIL
 10
92.200000000000074
 20
65.000000000002132
 30
0.0
 42
-0.4142139999998025
  0
VERTEX
  5
1B24
  8
SAPA_PROFIL
 10
92.000000000000085
 20
65.20000000000212
 30
0.0
  0
VERTEX
  5
1B25
  8
SAPA_PROFIL
 10
92.000000000000085
 20
65.500000000002132
 30
0.0
 42
0.5507599999999105
  0
VERTEX
  5
1B26
  8
SAPA_PROFIL
 10
91.571429000000066
 20
65.771052000002186
 30
0.0
 42
0.2988660000000063
  0
VERTEX
  5
1B27
  8
SAPA_PROFIL
 10
91.000571000000036
 20
64.833772000002142
 30
0.0
 42
0.4241419999999882
  0
VERTEX
  5
1B28
  8
SAPA_PROFIL
 10
92.000000000000085
 20
63.800000000002129
 30
0.0
  0
VERTEX
  5
1B29
  8
SAPA_PROFIL
 10
93.300000000000097
 20
63.800000000002129
 30
0.0
 42
-0.4142140000000128
  0
VERTEX
  5
1B2A
  8
SAPA_PROFIL
 10
94.300000000000125
 20
62.800000000002129
 30
0.0
  0
VERTEX
  5
1B2B
  8
SAPA_PROFIL
 10
93.526410000000084
 20
48.972071000002082
 30
0.0
 42
-0.3979379999999925
  0
VERTEX
  5
1B2C
  8
SAPA_PROFIL
 10
93.027191000000087
 20
48.50000000000211
 30
0.0
  0
VERTEX
  5
1B2D
  8
SAPA_PROFIL
 10
88.500000000000099
 20
48.50000000000211
 30
0.0
 42
-0.4142140000000251
  0
VERTEX
  5
1B2E
  8
SAPA_PROFIL
 10
88.000000000000085
 20
49.00000000000211
 30
0.0
  0
VERTEX
  5
1B2F
  8
SAPA_PROFIL
 10
88.000000000000085
 20
52.500000000002117
 30
0.0
 42
0.4142140000000128
  0
VERTEX
  5
1B30
  8
SAPA_PROFIL
 10
87.500000000000099
 20
53.000000000002117
 30
0.0
  0
VERTEX
  5
1B31
  8
SAPA_PROFIL
 10
83.800000000000068
 20
53.000000000002132
 30
0.0
 42
0.4142139999999104
  0
VERTEX
  5
1B32
  8
SAPA_PROFIL
 10
83.500000000000057
 20
52.700000000002099
 30
0.0
  0
VERTEX
  5
1B33
  8
SAPA_PROFIL
 10
83.500000000000057
 20
51.800000000002122
 30
0.0
 42
0.4142139999999101
  0
VERTEX
  5
1B34
  8
SAPA_PROFIL
 10
83.800000000000068
 20
51.50000000000211
 30
0.0
  0
VERTEX
  5
1B35
  8
SAPA_PROFIL
 10
85.800000000000097
 20
51.50000000000211
 30
0.0
 42
-0.4142139999999691
  0
VERTEX
  5
1B36
  8
SAPA_PROFIL
 10
86.000000000000099
 20
51.300000000002129
 30
0.0
  0
VERTEX
  5
1B37
  8
SAPA_PROFIL
 10
86.000000000000099
 20
48.50000000000211
 30
0.0
 42
-0.577350269189605
  0
VERTEX
  5
1B38
  8
SAPA_PROFIL
 10
85.700000000000088
 20
48.326794919245238
 30
0.0
  0
VERTEX
  5
1B39
  8
SAPA_PROFIL
 10
85.400000000000091
 20
48.50000000000211
 30
0.0
  0
VERTEX
  5
1B3A
  8
SAPA_PROFIL
 10
81.605000000000061
 20
48.500000000002181
 30
0.0
 42
0.414213999999992
  0
VERTEX
  5
1B3B
  8
SAPA_PROFIL
 10
81.105000000000075
 20
48.000000000002117
 30
0.0
  0
VERTEX
  5
1B3C
  8
SAPA_PROFIL
 10
81.105000000000075
 20
47.300000000002122
 30
0.0
 42
-0.4142139999998548
  0
VERTEX
  5
1B3D
  8
SAPA_PROFIL
 10
80.805000000000135
 20
47.00000000000211
 30
0.0
  0
VERTEX
  5
1B3E
  8
SAPA_PROFIL
 10
75.624616000000103
 20
47.00000000000211
 30
0.0
  0
VERTEX
  5
1B3F
  8
SAPA_PROFIL
 10
75.105000000000061
 20
46.700000000002099
 30
0.0
  0
VERTEX
  5
1B40
  8
SAPA_PROFIL
 10
74.585385000000088
 20
47.00000000000211
 30
0.0
  0
VERTEX
  5
1B41
  8
SAPA_PROFIL
 10
69.405000000000072
 20
47.00000000000211
 30
0.0
 42
-0.4142140000000351
  0
VERTEX
  5
1B42
  8
SAPA_PROFIL
 10
69.105000000000061
 20
47.300000000002122
 30
0.0
  0
VERTEX
  5
1B43
  8
SAPA_PROFIL
 10
69.105000000000118
 20
48.00000000000211
 30
0.0
 42
0.4142140000000461
  0
VERTEX
  5
1B44
  8
SAPA_PROFIL
 10
68.605000000000061
 20
48.50000000000211
 30
0.0
  0
VERTEX
  5
1B45
  8
SAPA_PROFIL
 10
66.600000000000065
 20
48.50000000000211
 30
0.0
  0
VERTEX
  5
1B46
  8
SAPA_PROFIL
 10
66.300000000000082
 20
48.326794919245231
 30
0.0
 42
-0.5773502691896303
  0
VERTEX
  5
1B47
  8
SAPA_PROFIL
 10
66.000000000000099
 20
48.50000000000211
 30
0.0
  0
VERTEX
  5
1B48
  8
SAPA_PROFIL
 10
66.000000000000099
 20
51.300000000002122
 30
0.0
 42
-0.414213999999813
  0
VERTEX
  5
1B49
  8
SAPA_PROFIL
 10
66.20000000000006
 20
51.50000000000211
 30
0.0
  0
VERTEX
  5
1B4A
  8
SAPA_PROFIL
 10
68.20000000000006
 20
51.500000000002082
 30
0.0
 42
0.4142139999998962
  0
VERTEX
  5
1B4B
  8
SAPA_PROFIL
 10
68.500000000000099
 20
51.800000000002122
 30
0.0
  0
VERTEX
  5
1B4C
  8
SAPA_PROFIL
 10
68.500000000000057
 20
52.700000000002099
 30
0.0
 42
0.4142139999999103
  0
VERTEX
  5
1B4D
  8
SAPA_PROFIL
 10
68.20000000000006
 20
53.00000000000211
 30
0.0
  0
VERTEX
  5
1B4E
  8
SAPA_PROFIL
 10
64.500000000000085
 20
53.000000000002103
 30
0.0
 42
0.414214000000021
  0
VERTEX
  5
1B4F
  8
SAPA_PROFIL
 10
64.000000000000099
 20
52.50000000000211
 30
0.0
  0
VERTEX
  5
1B50
  8
SAPA_PROFIL
 10
64.000000000000099
 20
50.800000000002122
 30
0.0
 42
-0.4142135623730951
  0
VERTEX
  5
1B51
  8
SAPA_PROFIL
 10
63.700000000000081
 20
50.50000000000211
 30
0.0
  0
VERTEX
  5
1B52
  8
SAPA_PROFIL
 10
62.676718657397359
 20
49.989377012280123
 30
0.0
 42
-0.4142135623730953
  0
VERTEX
  5
1B53
  8
SAPA_PROFIL
 10
62.302533701921547
 20
50.189341056787519
 30
0.0
  0
VERTEX
  5
1B54
  8
SAPA_PROFIL
 10
62.288015292674451
 20
50.237186806786013
 30
0.0
  0
VERTEX
  5
1B55
  8
SAPA_PROFIL
 10
60.784914211912451
 20
50.237270414669652
 30
0.0
 42
0.4769755326981643
  0
VERTEX
  5
1B56
  8
SAPA_PROFIL
 10
60.482661387405969
 20
49.865613539723789
 30
0.0
  0
VERTEX
  5
1B57
  8
SAPA_PROFIL
 10
60.864107983533678
 20
48.052383069065527
 30
0.0
 42
0.2216946626430193
  0
SEQEND
  5
1B58
  8
SAPA_PROFIL
  0
POLYLINE
  5
138B
  8
SAPA_PROFIL
 66
     1
 10
0.0
 20
0.0
 30
0.0
 70
     1
  0
VERTEX
  5
1B59
  8
SAPA_PROFIL
 10
84.300000000000082
 20
30.60000000000214
 30
0.0
  0
VERTEX
  5
1B5A
  8
SAPA_PROFIL
 10
84.300000000000082
 20
29.000000000002121
 30
0.0
 42
-0.414214000000042
  0
VERTEX
  5
1B5B
  8
SAPA_PROFIL
 10
84.000000000000071
 20
28.700000000002099
 30
0.0
  0
VERTEX
  5
1B5C
  8
SAPA_PROFIL
 10
66.000000000000114
 20
28.700000000002099
 30
0.0
 42
-0.4142140000001599
  0
VERTEX
  5
1B5D
  8
SAPA_PROFIL
 10
65.700000000000074
 20
29.00000000000211
 30
0.0
  0
VERTEX
  5
1B5E
  8
SAPA_PROFIL
 10
65.700000000000074
 20
30.60000000000214
 30
0.0
 42
-0.4142140000000628
  0
VERTEX
  5
1B5F
  8
SAPA_PROFIL
 10
65.900000000000091
 20
30.800000000002122
 30
0.0
  0
VERTEX
  5
1B60
  8
SAPA_PROFIL
 10
66.000000000000114
 20
30.800000000002122
 30
0.0
 42
0.4142139999998963
  0
VERTEX
  5
1B61
  8
SAPA_PROFIL
 10
66.300000000000097
 20
31.100000000002129
 30
0.0
  0
VERTEX
  5
1B62
  8
SAPA_PROFIL
 10
66.30000000000004
 20
32.50000000000211
 30
0.0
 42
0.4142139999999518
  0
VERTEX
  5
1B63
  8
SAPA_PROFIL
 10
66.000000000000114
 20
32.800000000002122
 30
0.0
  0
VERTEX
  5
1B64
  8
SAPA_PROFIL
 10
65.900000000000091
 20
32.800000000002122
 30
0.0
 42
-0.4142139999999794
  0
VERTEX
  5
1B65
  8
SAPA_PROFIL
 10
65.700000000000074
 20
33.00000000000211
 30
0.0
  0
VERTEX
  5
1B66
  8
SAPA_PROFIL
 10
65.700000000000074
 20
46.00000000000211
 30
0.0
 42
-0.4142139999999962
  0
VERTEX
  5
1B67
  8
SAPA_PROFIL
 10
66.20000000000006
 20
46.500000000002103
 30
0.0
  0
VERTEX
  5
1B68
  8
SAPA_PROFIL
 10
66.905000000000072
 20
46.500000000002103
 30
0.0
 42
-0.4142140000000128
  0
VERTEX
  5
1B69
  8
SAPA_PROFIL
 10
67.405000000000086
 20
46.00000000000211
 30
0.0
  0
VERTEX
  5
1B6A
  8
SAPA_PROFIL
 10
67.405000000000086
 20
45.800000000002122
 30
0.0
 42
0.4142140000000127
  0
VERTEX
  5
1B6B
  8
SAPA_PROFIL
 10
67.905000000000086
 20
45.300000000002122
 30
0.0
  0
VERTEX
  5
1B6C
  8
SAPA_PROFIL
 10
82.305000000000106
 20
45.300000000002072
 30
0.0
 42
0.4142139999999795
  0
VERTEX
  5
1B6D
  8
SAPA_PROFIL
 10
82.805000000000121
 20
45.800000000002129
 30
0.0
  0
VERTEX
  5
1B6E
  8
SAPA_PROFIL
 10
82.805000000000121
 20
46.50000000000211
 30
0.0
 42
-0.4142140000000462
  0
VERTEX
  5
1B6F
  8
SAPA_PROFIL
 10
83.305000000000135
 20
47.00000000000211
 30
0.0
  0
VERTEX
  5
1B70
  8
SAPA_PROFIL
 10
93.000000000000085
 20
47.00000000000211
 30
0.0
 42
-0.4142140000000128
  0
VERTEX
  5
1B71
  8
SAPA_PROFIL
 10
93.500000000000099
 20
46.50000000000211
 30
0.0
  0
VERTEX
  5
1B72
  8
SAPA_PROFIL
 10
93.500000000000099
 20
29.216878000002129
 30
0.0
 42
-0.2679490000000162
  0
VERTEX
  5
1B73
  8
SAPA_PROFIL
 10
93.000000000000085
 20
28.35085300000209
 30
0.0
  0
VERTEX
  5
1B74
  8
SAPA_PROFIL
 10
86.250000000000099
 20
24.453738000002101
 30
0.0
 42
-0.5773500000000551
  0
VERTEX
  5
1B75
  8
SAPA_PROFIL
 10
85.800000000000097
 20
24.713546000002129
 30
0.0
  0
VERTEX
  5
1B76
  8
SAPA_PROFIL
 10
85.800000000000097
 20
31.300000000002129
 30
0.0
 42
0.4142140000000155
  0
VERTEX
  5
1B77
  8
SAPA_PROFIL
 10
84.300000000000082
 20
32.800000000002129
 30
0.0
  0
VERTEX
  5
1B78
  8
SAPA_PROFIL
 10
84.100000000000051
 20
32.800000000002129
 30
0.0
  0
VERTEX
  5
1B79
  8
SAPA_PROFIL
 10
84.000000000000071
 20
32.800000000002072
 30
0.0
 42
0.4142140000000836
  0
VERTEX
  5
1B7A
  8
SAPA_PROFIL
 10
83.700000000000074
 20
32.500000000002117
 30
0.0
  0
VERTEX
  5
1B7B
  8
SAPA_PROFIL
 10
83.699999999999946
 20
31.10000000000214
 30
0.0
 42
0.4142140000000351
  0
VERTEX
  5
1B7C
  8
SAPA_PROFIL
 10
84.000000000000071
 20
30.800000000002129
 30
0.0
  0
VERTEX
  5
1B7D
  8
SAPA_PROFIL
 10
84.100000000000051
 20
30.800000000002129
 30
0.0
 42
-0.4142139999998962
  0
SEQEND
  5
1B7E
  8
SAPA_PROFIL
  0
POLYLINE
  5
138C
  8
SAPA_PROFIL
 66
     1
 10
0.0
 20
0.0
 30
0.0
 70
     1
  0
VERTEX
  5
1B7F
  8
SAPA_PROFIL
 10
21.89999999999997
 20
24.023606000000029
 30
0.0
 42
0.2134220000000103
  0
VERTEX
  5
1B80
  8
SAPA_PROFIL
 10
21.999999999999989
 20
24.247212999999981
 30
0.0
  0
VERTEX
  5
1B81
  8
SAPA_PROFIL
 10
21.999999999999989
 20
28.100000000000019
 30
0.0
 42
-0.414213999999924
  0
VERTEX
  5
1B82
  8
SAPA_PROFIL
 10
22.299999999999951
 20
28.400000000000091
 30
0.0
  0
VERTEX
  5
1B83
  8
SAPA_PROFIL
 10
22.599999999999959
 20
28.400000000000031
 30
0.0
  0
VERTEX
  5
1B84
  8
SAPA_PROFIL
 10
24.199999999999982
 20
27.476239000000021
 30
0.0
 42
0.5773500000001196
  0
VERTEX
  5
1B85
  8
SAPA_PROFIL
 10
24.499999999999989
 20
27.64944400000002
 30
0.0
  0
VERTEX
  5
1B86
  8
SAPA_PROFIL
 10
24.499999999999989
 20
29.035085000000041
 30
0.0
 42
0.2679489999999719
  0
VERTEX
  5
1B87
  8
SAPA_PROFIL
 10
23.999999999999989
 20
29.901110000000021
 30
0.0
  0
VERTEX
  5
1B88
  8
SAPA_PROFIL
 10
22.249999999999989
 20
30.911473000000001
 30
0.0
 42
-0.267949000000012
  0
VERTEX
  5
1B89
  8
SAPA_PROFIL
 10
21.999999999999869
 20
31.344486000000021
 30
0.0
  0
VERTEX
  5
1B8A
  8
SAPA_PROFIL
 10
21.999999999999979
 20
41.35551300000003
 30
0.0
 42
-0.2679490000000104
  0
VERTEX
  5
1B8B
  8
SAPA_PROFIL
 10
22.250000000000011
 20
41.788525999999962
 30
0.0
  0
VERTEX
  5
1B8C
  8
SAPA_PROFIL
 10
23.999999999999989
 20
42.798889000000031
 30
0.0
 42
0.2679489999999809
  0
VERTEX
  5
1B8D
  8
SAPA_PROFIL
 10
24.499999999999989
 20
43.664914000000017
 30
0.0
  0
VERTEX
  5
1B8E
  8
SAPA_PROFIL
 10
24.499999999999989
 20
45.050555000000031
 30
0.0
 42
0.5773500000001198
  0
VERTEX
  5
1B8F
  8
SAPA_PROFIL
 10
24.199999999999982
 20
45.223760000000027
 30
0.0
  0
VERTEX
  5
1B90
  8
SAPA_PROFIL
 10
22.599999999999959
 20
44.300000000000011
 30
0.0
  0
VERTEX
  5
1B91
  8
SAPA_PROFIL
 10
22.299999999999951
 20
44.300000000000011
 30
0.0
 42
-0.4142139999999795
  0
VERTEX
  5
1B92
  8
SAPA_PROFIL
 10
22.000000000000099
 20
44.600000000000023
 30
0.0
  0
VERTEX
  5
1B93
  8
SAPA_PROFIL
 10
21.999999999999979
 20
48.452786000000003
 30
0.0
 42
0.2134217652834391
  0
VERTEX
  5
1B94
  8
SAPA_PROFIL
 10
21.89999999999986
 20
48.676392797750111
 30
0.0
 42
-0.7625858545243247
  0
VERTEX
  5
1B95
  8
SAPA_PROFIL
 10
22.084579202197339
 20
49.006718878767131
 30
0.0
  0
VERTEX
  5
1B96
  8
SAPA_PROFIL
 10
22.27596220219106
 20
48.948645241778038
 30
0.0
  0
VERTEX
  5
1B97
  8
SAPA_PROFIL
 10
24.161805894052112
 20
47.864080794806291
 30
0.0
  0
VERTEX
  5
1B98
  8
SAPA_PROFIL
 10
24.151244527825131
 20
47.54232306658804
 30
0.0
 42
0.5773502691897466
  0
VERTEX
  5
1B99
  8
SAPA_PROFIL
 10
24.445400828079968
 20
47.359369326477882
 30
0.0
  0
VERTEX
  5
1B9A
  8
SAPA_PROFIL
 10
24.730083111311622
 20
47.511503237586624
 30
0.0
 42
0.2216946626430194
  0
VERTEX
  5
1B9B
  8
SAPA_PROFIL
 10
25.1358920164664
 20
48.052383069063431
 30
0.0
  0
VERTEX
  5
1B9C
  8
SAPA_PROFIL
 10
25.51733861259412
 20
49.865613539721672
 30
0.0
 42
0.4769755326981641
  0
VERTEX
  5
1B9D
  8
SAPA_PROFIL
 10
25.215085788087649
 20
50.237270414667549
 30
0.0
  0
VERTEX
  5
1B9E
  8
SAPA_PROFIL
 10
23.711984707325652
 20
50.237186806783889
 30
0.0
  0
VERTEX
  5
1B9F
  8
SAPA_PROFIL
 10
23.697466298078542
 20
50.189341056785409
 30
0.0
 42
-0.4142135623730951
  0
VERTEX
  5
1BA0
  8
SAPA_PROFIL
 10
23.32328134260273
 20
49.989377012278013
 30
0.0
  0
VERTEX
  5
1BA1
  8
SAPA_PROFIL
 10
22.00216333790172
 20
50.499999999999957
 30
0.0
  0
VERTEX
  5
1BA2
  8
SAPA_PROFIL
 10
20.762103999999951
 20
50.500000000000007
 30
0.0
 42
0.2914730000000021
  0
VERTEX
  5
1BA3
  8
SAPA_PROFIL
 10
19.855795999999991
 20
49.922618
 30
0.0
  0
VERTEX
  5
1BA4
  8
SAPA_PROFIL
 10
18.693691999999992
 20
47.430477999999987
 30
0.0
 42
0.3888789999999682
  0
VERTEX
  5
1BA5
  8
SAPA_PROFIL
 10
19.099999999999952
 20
46.14183400000001
 30
0.0
  0
VERTEX
  5
1BA6
  8
SAPA_PROFIL
 10
19.249999999999989
 20
46.055230999999992
 30
0.0
 42
-0.2679490000000116
  0
VERTEX
  5
1BA7
  8
SAPA_PROFIL
 10
19.500000000000028
 20
45.62221900000003
 30
0.0
  0
VERTEX
  5
1BA8
  8
SAPA_PROFIL
 10
19.499999999999989
 20
37.5
 30
0.0
 42
-0.4142139999999962
  0
VERTEX
  5
1BA9
  8
SAPA_PROFIL
 10
18.499999999999989
 20
36.49999999999995
 30
0.0
  0
VERTEX
  5
1BAA
  8
SAPA_PROFIL
 10
17.14999999999997
 20
36.5
 30
0.0
 42
-0.4142140000000128
  0
VERTEX
  5
1BAB
  8
SAPA_PROFIL
 10
16.64999999999997
 20
37.0
 30
0.0
  0
VERTEX
  5
1BAC
  8
SAPA_PROFIL
 10
16.649999999999959
 20
40.132232218813442
 30
0.0
 42
0.198912367379658
  0
VERTEX
  5
1BAD
  8
SAPA_PROFIL
 10
16.064213562373059
 20
41.546445781186549
 30
0.0
  0
VERTEX
  5
1BAE
  8
SAPA_PROFIL
 10
13.3309199473285
 20
44.279739396231079
 30
0.0
 42
1.000556671980007
  0
VERTEX
  5
1BAF
  8
SAPA_PROFIL
 10
12.26966999999995
 20
43.219669000000003
 30
0.0
  0
VERTEX
  5
1BB0
  8
SAPA_PROFIL
 10
14.903552999999979
 20
40.58578599999997
 30
0.0
 42
-0.1989120000000246
  0
VERTEX
  5
1BB1
  8
SAPA_PROFIL
 10
15.04999999999999
 20
40.232233000000001
 30
0.0
  0
VERTEX
  5
1BB2
  8
SAPA_PROFIL
 10
15.04999999999994
 20
36.999999999999993
 30
0.0
 42
-0.4142140000000129
  0
VERTEX
  5
1BB3
  8
SAPA_PROFIL
 10
14.54999999999994
 20
36.499999999999993
 30
0.0
  0
VERTEX
  5
1BB4
  8
SAPA_PROFIL
 10
7.5499999999999456
 20
36.499999999999993
 30
0.0
 42
-0.4142140000000128
  0
VERTEX
  5
1BB5
  8
SAPA_PROFIL
 10
7.0499999999999456
 20
36.999999999999993
 30
0.0
  0
VERTEX
  5
1BB6
  8
SAPA_PROFIL
 10
7.0500000000000007
 20
44.199999999999989
 30
0.0
 42
0.4142140000000351
  0
VERTEX
  5
1BB7
  8
SAPA_PROFIL
 10
6.7499999999999902
 20
44.500000000000007
 30
0.0
  0
VERTEX
  5
1BB8
  8
SAPA_PROFIL
 10
6.5877769999999991
 20
44.499999999999993
 30
0.0
 42
0.3482370000000729
  0
VERTEX
  5
1BB9
  8
SAPA_PROFIL
 10
6.2957029999999934
 20
44.26850499999999
 30
0.0
  0
VERTEX
  5
1BBA
  8
SAPA_PROFIL
 10
5.4500000000000357
 20
40.662829999999971
 30
0.0
  0
VERTEX
  5
1BBB
  8
SAPA_PROFIL
 10
5.4500000000000366
 20
36.999999999999993
 30
0.0
 42
-0.4142139999999796
  0
VERTEX
  5
1BBC
  8
SAPA_PROFIL
 10
4.9500000000000366
 20
36.499999999999943
 30
0.0
  0
VERTEX
  5
1BBD
  8
SAPA_PROFIL
 10
2.499999999999992
 20
36.499999999999993
 30
0.0
 42
-0.414214000000017
  0
VERTEX
  5
1BBE
  8
SAPA_PROFIL
 10
1.9999999999999909
 20
36.999999999999993
 30
0.0
 42
0.4142140000000127
  0
VERTEX
  5
1BBF
  8
SAPA_PROFIL
 10
1.4999999999999909
 20
37.5
 30
0.0
  0
VERTEX
  5
1BC0
  8
SAPA_PROFIL
 10
0.4999999999999917
 20
37.5
 30
0.0
 42
0.414214000000017
  0
VERTEX
  5
1BC1
  8
SAPA_PROFIL
 10
-0.0000000000000082
 20
36.999999999999993
 30
0.0
  0
VERTEX
  5
1BC2
  8
SAPA_PROFIL
 10
-0.0000000000000001
 20
0.5000000000000071
 30
0.0
  0
VERTEX
  5
1BC3
  8
SAPA_PROFIL
 10
0.5
 20
0.0000000000000072
 30
0.0
  0
VERTEX
  5
1BC4
  8
SAPA_PROFIL
 10
4.2000000000000446
 20
0.000000000000008
 30
0.0
 42
0.4142139999999863
  0
VERTEX
  5
1BC5
  8
SAPA_PROFIL
 10
4.5
 20
0.3000000000000123
 30
0.0
  0
VERTEX
  5
1BC6
  8
SAPA_PROFIL
 10
4.5
 20
1.067544000000006
 30
0.0
 42
0.2896899999999678
  0
VERTEX
  5
1BC7
  8
SAPA_PROFIL
 10
3.9285710000000331
 20
1.971051999999994
 30
0.0
 42
0.5507599999999711
  0
VERTEX
  5
1BC8
  8
SAPA_PROFIL
 10
3.4999999999999991
 20
1.699999999999996
 30
0.0
  0
VERTEX
  5
1BC9
  8
SAPA_PROFIL
 10
3.4999999999999991
 20
1.5000000000000071
 30
0.0
 42
-0.4142139999998755
  0
VERTEX
  5
1BCA
  8
SAPA_PROFIL
 10
3.200000000000045
 20
1.1999999999999891
 30
0.0
  0
VERTEX
  5
1BCB
  8
SAPA_PROFIL
 10
1.700000000000045
 20
1.199999999999996
 30
0.0
 42
-0.4142140000000503
  0
VERTEX
  5
1BCC
  8
SAPA_PROFIL
 10
1.1999999999999951
 20
1.6999999999999951
 30
0.0
  0
VERTEX
  5
1BCD
  8
SAPA_PROFIL
 10
1.2000000000000439
 20
5.0000000000000071
 30
0.0
 42
-0.4142140000000419
  0
VERTEX
  5
1BCE
  8
SAPA_PROFIL
 10
1.7000000000000439
 20
5.4999999999999432
 30
0.0
  0
VERTEX
  5
1BCF
  8
SAPA_PROFIL
 10
3.2000000000000441
 20
5.5000000000000071
 30
0.0
 42
-0.4142139999999794
  0
VERTEX
  5
1BD0
  8
SAPA_PROFIL
 10
3.4999999999998841
 20
5.1999999999999957
 30
0.0
  0
VERTEX
  5
1BD1
  8
SAPA_PROFIL
 10
3.4999999999999978
 20
5.0000000000000071
 30
0.0
 42
0.5507599999999436
  0
VERTEX
  5
1BD2
  8
SAPA_PROFIL
 10
3.9285710000000318
 20
4.728947000000006
 30
0.0
 42
0.2896899999999595
  0
VERTEX
  5
1BD3
  8
SAPA_PROFIL
 10
4.4999999999999991
 20
5.6324549999999931
 30
0.0
  0
VERTEX
  5
1BD4
  8
SAPA_PROFIL
 10
4.4999999999999982
 20
6.6299270000000172
 30
0.0
 42
0.0436610000000022
  0
VERTEX
  5
1BD5
  8
SAPA_PROFIL
 10
4.4924039999999632
 20
6.716750999999995
 30
0.0
  0
VERTEX
  5
1BD6
  8
SAPA_PROFIL
 10
4.215556999999988
 20
8.2868240000000242
 30
0.0
 42
0.8391000000000101
  0
VERTEX
  5
1BD7
  8
SAPA_PROFIL
 10
3.2307499999999978
 20
8.2868240000000242
 30
0.0
  0
VERTEX
  5
1BD8
  8
SAPA_PROFIL
 10
3.0238040000000388
 20
7.1131750000000133
 30
0.0
 42
-0.3639700000000376
  0
VERTEX
  5
1BD9
  8
SAPA_PROFIL
 10
2.531399999999961
 20
6.699999999999946
 30
0.0
  0
VERTEX
  5
1BDA
  8
SAPA_PROFIL
 10
1.700000000000043
 20
6.6999999999999948
 30
0.0
 42
-0.437328000000032
  0
VERTEX
  5
1BDB
  8
SAPA_PROFIL
 10
1.2015299999999609
 20
7.239094000000029
 30
0.0
  0
VERTEX
  5
1BDC
  8
SAPA_PROFIL
 10
1.788328999999971
 20
21.712153000000001
 30
0.0
 42
-0.4023939999998692
  0
VERTEX
  5
1BDD
  8
SAPA_PROFIL
 10
2.0880829999999779
 20
22.00000000000011
 30
0.0
  0
VERTEX
  5
1BDE
  8
SAPA_PROFIL
 10
2.8886160000000078
 20
21.999999999999989
 30
0.0
 42
0.259680999999983
  0
VERTEX
  5
1BDF
  8
SAPA_PROFIL
 10
3.0586469999999948
 20
22.094692999999999
 30
0.0
  0
VERTEX
  5
1BE0
  8
SAPA_PROFIL
 10
3.9550460000000398
 20
23.542038999999981
 30
0.0
 42
0.5877029999999889
  0
VERTEX
  5
1BE1
  8
SAPA_PROFIL
 10
3.7000000000000401
 20
23.999999999999989
 30
0.0
  0
VERTEX
  5
1BE2
  8
SAPA_PROFIL
 10
2.300000000000006
 20
23.999999999999989
 30
0.0
 42
-0.4142140000000349
  0
VERTEX
  5
1BE3
  8
SAPA_PROFIL
 10
2.0000000000001079
 20
24.300000000000011
 30
0.0
  0
VERTEX
  5
1BE4
  8
SAPA_PROFIL
 10
1.9999999999999929
 20
26.699999999999982
 30
0.0
 42
-0.4142140000000349
  0
VERTEX
  5
1BE5
  8
SAPA_PROFIL
 10
2.3000000000000052
 20
27.00000000000011
 30
0.0
  0
VERTEX
  5
1BE6
  8
SAPA_PROFIL
 10
10.480383999999949
 20
27.0
 30
0.0
  0
VERTEX
  5
1BE7
  8
SAPA_PROFIL
 10
11.0
 20
27.300000000000011
 30
0.0
  0
VERTEX
  5
1BE8
  8
SAPA_PROFIL
 10
11.51961499999998
 20
27.0
 30
0.0
  0
VERTEX
  5
1BE9
  8
SAPA_PROFIL
 10
19.699999999999989
 20
27.0
 30
0.0
 42
-0.4142135623730882
  0
VERTEX
  5
1BEA
  8
SAPA_PROFIL
 10
19.999999999999989
 20
26.700000000000021
 30
0.0
  0
VERTEX
  5
1BEB
  8
SAPA_PROFIL
 10
20.0
 20
24.300000000000011
 30
0.0
 42
-0.4142135623730882
  0
VERTEX
  5
1BEC
  8
SAPA_PROFIL
 10
19.699999999999989
 20
24.0
 30
0.0
  0
VERTEX
  5
1BED
  8
SAPA_PROFIL
 10
18.29999999999994
 20
24.0
 30
0.0
 42
0.5877029999999041
  0
VERTEX
  5
1BEE
  8
SAPA_PROFIL
 10
18.04495299999996
 20
23.542038999999988
 30
0.0
  0
VERTEX
  5
1BEF
  8
SAPA_PROFIL
 10
18.837484999999969
 20
22.294692999999992
 30
0.0
 42
0.2596809999999552
  0
VERTEX
  5
1BF0
  8
SAPA_PROFIL
 10
19.007514999999959
 20
22.199999999999982
 30
0.0
  0
VERTEX
  5
1BF1
  8
SAPA_PROFIL
 10
22.002165925168558
 20
22.199999999999982
 30
0.0
  0
VERTEX
  5
1BF2
  8
SAPA_PROFIL
 10
23.323281342602741
 20
22.710621987721971
 30
0.0
 42
-0.4142135623730953
  0
VERTEX
  5
1BF3
  8
SAPA_PROFIL
 10
23.697466298078549
 20
22.510657943214579
 30
0.0
  0
VERTEX
  5
1BF4
  8
SAPA_PROFIL
 10
23.711984707325652
 20
22.462812193216092
 30
0.0
  0
VERTEX
  5
1BF5
  8
SAPA_PROFIL
 10
25.215085788087659
 20
22.46272858533246
 30
0.0
 42
0.4769755326981643
  0
VERTEX
  5
1BF6
  8
SAPA_PROFIL
 10
25.517338612594131
 20
22.834385460278309
 30
0.0
  0
VERTEX
  5
1BF7
  8
SAPA_PROFIL
 10
25.135892016466411
 20
24.647615930936571
 30
0.0
 42
0.2216946626430194
  0
VERTEX
  5
1BF8
  8
SAPA_PROFIL
 10
24.730083111311611
 20
25.18849576241335
 30
0.0
  0
VERTEX
  5
1BF9
  8
SAPA_PROFIL
 10
24.445400828079961
 20
25.34062967352213
 30
0.0
 42
0.5773502691897466
  0
VERTEX
  5
1BFA
  8
SAPA_PROFIL
 10
24.151244527825149
 20
25.157675933411941
 30
0.0
  0
VERTEX
  5
1BFB
  8
SAPA_PROFIL
 10
24.161805894052112
 20
24.835918205193689
 30
0.0
  0
VERTEX
  5
1BFC
  8
SAPA_PROFIL
 10
22.275962202191071
 20
23.751353758221949
 30
0.0
  0
VERTEX
  5
1BFD
  8
SAPA_PROFIL
 10
22.08457920219735
 20
23.693280121232871
 30
0.0
 42
-0.7625858545243257
  0
VERTEX
  5
1BFE
  8
SAPA_PROFIL
 10
21.899999999999871
 20
24.02360620224988
 30
0.0
  0
SEQEND
  5
1BFF
  8
SAPA_PROFIL
  0
POLYLINE
  5
138D
  8
SAPA_PROFIL
 66
     1
 10
0.0
 20
0.0
 30
0.0
 70
     1
  0
VERTEX
  5
1C00
  8
SAPA_PROFIL
 10
20.299999999999951
 20
34.5
 30
0.0
  0
VERTEX
  5
1C01
  8
SAPA_PROFIL
 10
20.299999999999951
 20
29.0
 30
0.0
 42
-0.4142139999999252
  0
VERTEX
  5
1C02
  8
SAPA_PROFIL
 10
19.999999999999989
 20
28.699999999999989
 30
0.0
  0
VERTEX
  5
1C03
  8
SAPA_PROFIL
 10
1.9999999999999929
 20
28.699999999999982
 30
0.0
 42
-0.4142139999998691
  0
VERTEX
  5
1C04
  8
SAPA_PROFIL
 10
1.700000000000039
 20
29.0
 30
0.0
  0
VERTEX
  5
1C05
  8
SAPA_PROFIL
 10
1.700000000000037
 20
34.499999999999993
 30
0.0
 42
-0.4142135623730951
  0
VERTEX
  5
1C06
  8
SAPA_PROFIL
 10
1.999999999999992
 20
34.799999999999997
 30
0.0
  0
VERTEX
  5
1C07
  8
SAPA_PROFIL
 10
19.999999999999989
 20
34.800000000000011
 30
0.0
 42
-0.4142139999999803
  0
SEQEND
  5
1C08
  8
SAPA_PROFIL
  0
POLYLINE
  5
138E
  8
SAPA_PROFIL
 62
     4
 66
     1
 10
0.0
 20
0.0
 30
0.0
  0
VERTEX
  5
1C09
  8
SAPA_PROFIL
 62
     4
 10
52.049329122354429
 20
24.905571164113908
 30
0.0
 42
0.5571646428658034
  0
VERTEX
  5
1C0A
  8
SAPA_PROFIL
 62
     4
 10
51.512368618217607
 20
25.773290078269468
 30
0.0
  0
VERTEX
  5
1C0B
  8
SAPA_PROFIL
 62
     4
 10
34.48763138169641
 20
25.77329007826901
 30
0.0
 42
0.5571645048035741
  0
VERTEX
  5
1C0C
  8
SAPA_PROFIL
 62
     4
 10
33.950670764735349
 20
24.905571390402841
 30
0.0
  0
VERTEX
  5
1C0D
  8
SAPA_PROFIL
 62
     4
 10
34.781377852282048
 20
23.23943073433481
 30
0.0
 42
0.284385813979063
  0
VERTEX
  5
1C0E
  8
SAPA_PROFIL
 62
     4
 10
35.049858160762398
 20
23.07329007826737
 30
0.0
  0
VERTEX
  5
1C0F
  8
SAPA_PROFIL
 62
     4
 10
50.950141839151712
 20
23.07329007826737
 30
0.0
 42
0.2843858139786238
  0
VERTEX
  5
1C10
  8
SAPA_PROFIL
 62
     4
 10
51.218622147631997
 20
23.239430734334299
 30
0.0
  0
VERTEX
  5
1C11
  8
SAPA_PROFIL
 62
     4
 10
52.049329235179151
 20
24.90557139040364
 30
0.0
  0
SEQEND
  5
1C12
  8
SAPA_PROFIL
 62
     4
  0
POLYLINE
  5
138F
  8
SAPA_PROFIL
 62
     4
 66
     1
 10
0.0
 20
0.0
 30
0.0
 70
     1
  0
VERTEX
  5
1C13
  8
SAPA_PROFIL
 62
     4
 10
28.582388815289761
 20
22.716458563769791
 30
0.0
  0
VERTEX
  5
1C14
  8
SAPA_PROFIL
 62
     4
 10
28.318365536913749
 20
22.309898367765651
 30
0.0
 42
-0.2539676464751066
  0
VERTEX
  5
1C15
  8
SAPA_PROFIL
 62
     4
 10
28.066764366529039
 20
22.173290078269542
 30
0.0
  0
VERTEX
  5
1C16
  8
SAPA_PROFIL
 62
     4
 10
26.685264781323699
 20
22.173290078269542
 30
0.0
 42
-0.3152987888790479
  0
VERTEX
  5
1C17
  8
SAPA_PROFIL
 62
     4
 10
26.215418470931379
 20
22.502280006607698
 30
0.0
  0
VERTEX
  5
1C18
  8
SAPA_PROFIL
 62
     4
 10
25.319749530022779
 20
24.963110197058981
 30
0.0
 42
0.2694959974287434
  0
VERTEX
  5
1C19
  8
SAPA_PROFIL
 62
     4
 10
25.08823048362142
 20
25.156242171402869
 30
0.0
 42
0.0612686379508233
  0
VERTEX
  5
1C1A
  8
SAPA_PROFIL
 62
     4
 10
24.79555505076814
 20
25.169825542033401
 30
0.0
  0
VERTEX
  5
1C1B
  8
SAPA_PROFIL
 62
     4
 10
24.446136873459881
 20
25.371562220762218
 30
0.0
 42
0.5773502691891679
  0
VERTEX
  5
1C1C
  8
SAPA_PROFIL
 62
     4
 10
24.131136873460289
 20
25.189696885967649
 30
0.0
  0
VERTEX
  5
1C1D
  8
SAPA_PROFIL
 62
     4
 10
24.131136873460051
 20
24.922582357841328
 30
0.0
  0
VERTEX
  5
1C1E
  8
SAPA_PROFIL
 62
     4
 10
22.7326091728258
 20
24.113898896533009
 30
0.0
 42
-0.1318219888653519
  0
VERTEX
  5
1C1F
  8
SAPA_PROFIL
 62
     4
 10
22.582436070353449
 20
24.07360649999562
 30
0.0
  0
VERTEX
  5
1C20
  8
SAPA_PROFIL
 62
     4
 10
22.39999999991667
 20
24.07360650000199
 30
0.0
 42
-0.4142135623724291
  0
VERTEX
  5
1C21
  8
SAPA_PROFIL
 62
     4
 10
21.999999999916131
 20
24.47360650000163
 30
0.0
  0
VERTEX
  5
1C22
  8
SAPA_PROFIL
 62
     4
 10
21.999999999917488
 20
27.87360650000263
 30
0.0
 42
-0.4142135623744271
  0
VERTEX
  5
1C23
  8
SAPA_PROFIL
 62
     4
 10
22.39999999991667
 20
28.273606500003631
 30
0.0
  0
VERTEX
  5
1C24
  8
SAPA_PROFIL
 62
     4
 10
22.57961524218798
 20
28.273606500004259
 30
0.0
 42
-0.1316524975874005
  0
VERTEX
  5
1C25
  8
SAPA_PROFIL
 62
     4
 10
22.729615242184789
 20
28.233414121138669
 30
0.0
  0
VERTEX
  5
1C26
  8
SAPA_PROFIL
 62
     4
 10
24.333753139187049
 20
27.307264674486131
 30
0.0
 42
0.1316524975875904
  0
VERTEX
  5
1C27
  8
SAPA_PROFIL
 62
     4
 10
24.833753139188762
 20
27.173290078271371
 30
0.0
  0
VERTEX
  5
1C28
  8
SAPA_PROFIL
 62
     4
 10
25.249999999916131
 20
27.173290078271371
 30
0.0
 42
0.4142135623730951
  0
VERTEX
  5
1C29
  8
SAPA_PROFIL
 62
     4
 10
26.249999999916131
 20
28.173290078271371
 30
0.0
  0
VERTEX
  5
1C2A
  8
SAPA_PROFIL
 62
     4
 10
26.249999999916131
 20
31.173290078268639
 30
0.0
 42
-0.9999996830128083
  0
VERTEX
  5
1C2B
  8
SAPA_PROFIL
 62
     4
 10
27.249999999916131
 20
31.173290078270451
 30
0.0
  0
VERTEX
  5
1C2C
  8
SAPA_PROFIL
 62
     4
 10
27.249999999916131
 20
28.173290078270458
 30
0.0
 42
0.4142135623730951
  0
VERTEX
  5
1C2D
  8
SAPA_PROFIL
 62
     4
 10
28.249999999916131
 20
27.173290078270458
 30
0.0
  0
VERTEX
  5
1C2E
  8
SAPA_PROFIL
 62
     4
 10
57.750000000000711
 20
27.173290078270469
 30
0.0
 42
0.4142135623730951
  0
VERTEX
  5
1C2F
  8
SAPA_PROFIL
 62
     4
 10
58.750000000000711
 20
28.173290078270458
 30
0.0
  0
VERTEX
  5
1C30
  8
SAPA_PROFIL
 62
     4
 10
58.750000000000711
 20
31.17329007826865
 30
0.0
 42
-0.9999999999999998
  0
VERTEX
  5
1C31
  8
SAPA_PROFIL
 62
     4
 10
59.750000000000711
 20
31.17329007826865
 30
0.0
  0
VERTEX
  5
1C32
  8
SAPA_PROFIL
 62
     4
 10
59.750000000000711
 20
28.173290078270458
 30
0.0
 42
0.4142135623736278
  0
VERTEX
  5
1C33
  8
SAPA_PROFIL
 62
     4
 10
60.750000000000711
 20
27.173290078270469
 30
0.0
  0
VERTEX
  5
1C34
  8
SAPA_PROFIL
 62
     4
 10
61.166246860727171
 20
27.173290078270469
 30
0.0
 42
0.1316524975874375
  0
VERTEX
  5
1C35
  8
SAPA_PROFIL
 62
     4
 10
61.666246860727362
 20
27.3072646744865
 30
0.0
  0
VERTEX
  5
1C36
  8
SAPA_PROFIL
 62
     4
 10
63.270384757729317
 20
28.233414121138669
 30
0.0
 42
-0.1316524975874
  0
VERTEX
  5
1C37
  8
SAPA_PROFIL
 62
     4
 10
63.420384757728861
 20
28.27360650000427
 30
0.0
  0
VERTEX
  5
1C38
  8
SAPA_PROFIL
 62
     4
 10
63.600000000000172
 20
28.273606500003631
 30
0.0
 42
-0.4142135623744271
  0
VERTEX
  5
1C39
  8
SAPA_PROFIL
 62
     4
 10
63.999999999999339
 20
27.87360650000263
 30
0.0
  0
VERTEX
  5
1C3A
  8
SAPA_PROFIL
 62
     4
 10
64.000000000000711
 20
24.47360650000164
 30
0.0
 42
-0.4142135623724291
  0
VERTEX
  5
1C3B
  8
SAPA_PROFIL
 62
     4
 10
63.600000000000172
 20
24.073606500002001
 30
0.0
  0
VERTEX
  5
1C3C
  8
SAPA_PROFIL
 62
     4
 10
63.417563929563379
 20
24.073606499995631
 30
0.0
 42
-0.1318219888653524
  0
VERTEX
  5
1C3D
  8
SAPA_PROFIL
 62
     4
 10
63.267390827091042
 20
24.113898896533019
 30
0.0
  0
VERTEX
  5
1C3E
  8
SAPA_PROFIL
 62
     4
 10
61.868863126611387
 20
24.92258235775736
 30
0.0
  0
VERTEX
  5
1C3F
  8
SAPA_PROFIL
 62
     4
 10
61.868863126611387
 20
25.189696885970388
 30
0.0
 42
0.577350269189159
  0
VERTEX
  5
1C40
  8
SAPA_PROFIL
 62
     4
 10
61.55386312661178
 20
25.371562220764961
 30
0.0
  0
VERTEX
  5
1C41
  8
SAPA_PROFIL
 62
     4
 10
61.204444949393128
 20
25.16982554208786
 30
0.0
 42
0.0612687673629489
  0
VERTEX
  5
1C42
  8
SAPA_PROFIL
 62
     4
 10
60.911769516292907
 20
25.156242171401651
 30
0.0
 42
0.2694959974285039
  0
VERTEX
  5
1C43
  8
SAPA_PROFIL
 62
     4
 10
60.680250469892393
 20
24.963110197057699
 30
0.0
  0
VERTEX
  5
1C44
  8
SAPA_PROFIL
 62
     4
 10
59.784581528982727
 20
22.502280006604529
 30
0.0
 42
-0.3152987888784035
  0
VERTEX
  5
1C45
  8
SAPA_PROFIL
 62
     4
 10
59.314735218589512
 20
22.173290078267961
 30
0.0
  0
VERTEX
  5
1C46
  8
SAPA_PROFIL
 62
     4
 10
57.933235633385067
 20
22.173290078269559
 30
0.0
 42
-0.2539676464741841
  0
VERTEX
  5
1C47
  8
SAPA_PROFIL
 62
     4
 10
57.681634463000989
 20
22.309898367764831
 30
0.0
  0
VERTEX
  5
1C48
  8
SAPA_PROFIL
 62
     4
 10
57.417611184624342
 20
22.716458563769802
 30
0.0
 42
-0.5862177598324623
  0
VERTEX
  5
1C49
  8
SAPA_PROFIL
 62
     4
 10
57.673352999862693
 20
23.173290078266309
 30
0.0
  0
VERTEX
  5
1C4A
  8
SAPA_PROFIL
 62
     4
 10
58.614527680372497
 20
23.173290078258638
 30
0.0
 42
0.3152987888813165
  0
VERTEX
  5
1C4B
  8
SAPA_PROFIL
 62
     4
 10
59.08437399077026
 20
23.502280006595392
 30
0.0
  0
VERTEX
  5
1C4C
  8
SAPA_PROFIL
 62
     4
 10
59.521138271894209
 20
24.702280006606632
 30
0.0
 42
0.5205670505515651
  0
VERTEX
  5
1C4D
  8
SAPA_PROFIL
 62
     4
 10
59.051291961500993
 20
25.37329007826937
 30
0.0
  0
VERTEX
  5
1C4E
  8
SAPA_PROFIL
 62
     4
 10
54.034851020832143
 20
25.373290078269399
 30
0.0
 42
0.3702522326300203
  0
VERTEX
  5
1C4F
  8
SAPA_PROFIL
 62
     4
 10
53.738327659038809
 20
25.118830125603701
 30
0.0
 42
0.0982365330332397
  0
VERTEX
  5
1C50
  8
SAPA_PROFIL
 62
     4
 10
53.647874900827873
 20
23.431143350608689
 30
0.0
 42
0.3735060174783164
  0
VERTEX
  5
1C51
  8
SAPA_PROFIL
 62
     4
 10
53.944899568738848
 20
23.17329007826865
 30
0.0
  0
VERTEX
  5
1C52
  8
SAPA_PROFIL
 62
     4
 10
54.37335299986151
 20
23.17329007826773
 30
0.0
 42
-0.5920056181162531
  0
VERTEX
  5
1C53
  8
SAPA_PROFIL
 62
     4
 10
54.626361756178909
 20
22.712086575739811
 30
0.0
  0
VERTEX
  5
1C54
  8
SAPA_PROFIL
 62
     4
 10
54.365177680023208
 20
22.309898367761509
 30
0.0
 42
-0.2539676464746725
  0
VERTEX
  5
1C55
  8
SAPA_PROFIL
 62
     4
 10
54.113576509639437
 20
22.173290078266149
 30
0.0
  0
VERTEX
  5
1C56
  8
SAPA_PROFIL
 62
     4
 10
31.88642349027376
 20
22.17329007826773
 30
0.0
 42
-0.2539676464741819
  0
VERTEX
  5
1C57
  8
SAPA_PROFIL
 62
     4
 10
31.634822319890901
 20
22.309898367761509
 30
0.0
  0
VERTEX
  5
1C58
  8
SAPA_PROFIL
 62
     4
 10
31.373638243737091
 20
22.712086575739839
 30
0.0
 42
-0.5920055144124249
  0
VERTEX
  5
1C59
  8
SAPA_PROFIL
 62
     4
 10
31.6266470000526
 20
23.17329007826773
 30
0.0
  0
VERTEX
  5
1C5A
  8
SAPA_PROFIL
 62
     4
 10
32.055100477342819
 20
23.173290052992719
 30
0.0
 42
0.3735060174775405
  0
VERTEX
  5
1C5B
  8
SAPA_PROFIL
 62
     4
 10
32.352125145252508
 20
23.431143325332819
 30
0.0
 42
0.0355900683670349
  0
VERTEX
  5
1C5C
  8
SAPA_PROFIL
 62
     4
 10
32.39601870928476
 20
24.047016912132602
 30
0.0
 42
0.0624282003873116
  0
VERTEX
  5
1C5D
  8
SAPA_PROFIL
 62
     4
 10
32.26167238704182
 20
25.118830100327731
 30
0.0
 42
0.3702522326309292
  0
VERTEX
  5
1C5E
  8
SAPA_PROFIL
 62
     4
 10
31.965149025248451
 20
25.37329005299345
 30
0.0
  0
VERTEX
  5
1C5F
  8
SAPA_PROFIL
 62
     4
 10
26.948708038414939
 20
25.37329007826958
 30
0.0
 42
0.5205670505515692
  0
VERTEX
  5
1C60
  8
SAPA_PROFIL
 62
     4
 10
26.478861728021709
 20
24.70228000660661
 30
0.0
  0
VERTEX
  5
1C61
  8
SAPA_PROFIL
 62
     4
 10
26.915626009146671
 20
23.502280006597172
 30
0.0
 42
0.3152987888807539
  0
VERTEX
  5
1C62
  8
SAPA_PROFIL
 62
     4
 10
27.385472319542519
 20
23.173290078259541
 30
0.0
  0
VERTEX
  5
1C63
  8
SAPA_PROFIL
 62
     4
 10
28.326647000051601
 20
23.173290078266358
 30
0.0
 42
-0.5862175119221242
  0
VERTEX
  5
1C64
  8
SAPA_PROFIL
 62
     4
 10
28.582388931033559
 20
22.71645875251123
 30
0.0
 42
0.0000002084758573
  0
SEQEND
  5
1C65
  8
SAPA_PROFIL
 62
     4
  0
POLYLINE
  5
1390
  8
SAPA_PROFIL
 62
     4
 66
     1
 10
0.0
 20
0.0
 30
0.0
  0
VERTEX
  5
1C66
  8
SAPA_PROFIL
 62
     4
 10
33.950670877560363
 20
47.794428240311163
 30
0.0
 42
0.5571646428658034
  0
VERTEX
  5
1C67
  8
SAPA_PROFIL
 62
     4
 10
34.487631381697192
 20
46.926709326155617
 30
0.0
  0
VERTEX
  5
1C68
  8
SAPA_PROFIL
 62
     4
 10
51.512368618218382
 20
46.926709326156079
 30
0.0
 42
0.5571645048035741
  0
VERTEX
  5
1C69
  8
SAPA_PROFIL
 62
     4
 10
52.049329235179442
 20
47.794428014022238
 30
0.0
  0
VERTEX
  5
1C6A
  8
SAPA_PROFIL
 62
     4
 10
51.218622147632743
 20
49.460568670090261
 30
0.0
 42
0.284385813979063
  0
VERTEX
  5
1C6B
  8
SAPA_PROFIL
 62
     4
 10
50.950141839152387
 20
49.626709326157709
 30
0.0
  0
VERTEX
  5
1C6C
  8
SAPA_PROFIL
 62
     4
 10
35.04985816076308
 20
49.626709326157709
 30
0.0
 42
0.2843858139786238
  0
VERTEX
  5
1C6D
  8
SAPA_PROFIL
 62
     4
 10
34.781377852282787
 20
49.46056867009078
 30
0.0
  0
VERTEX
  5
1C6E
  8
SAPA_PROFIL
 62
     4
 10
33.950670764735627
 20
47.794428014021427
 30
0.0
  0
SEQEND
  5
1C6F
  8
SAPA_PROFIL
 62
     4
  0
POLYLINE
  5
1391
  8
SAPA_PROFIL
 62
     4
 66
     1
 10
0.0
 20
0.0
 30
0.0
 70
     1
  0
VERTEX
  5
1C70
  8
SAPA_PROFIL
 62
     4
 10
57.417611184625031
 20
49.98354084065528
 30
0.0
  0
VERTEX
  5
1C71
  8
SAPA_PROFIL
 62
     4
 10
57.681634463001032
 20
50.390101036659431
 30
0.0
 42
-0.2539676464751066
  0
VERTEX
  5
1C72
  8
SAPA_PROFIL
 62
     4
 10
57.933235633385742
 20
50.526709326155533
 30
0.0
  0
VERTEX
  5
1C73
  8
SAPA_PROFIL
 62
     4
 10
59.314735218591103
 20
50.526709326155533
 30
0.0
 42
-0.3152987888790479
  0
VERTEX
  5
1C74
  8
SAPA_PROFIL
 62
     4
 10
59.784581528983402
 20
50.197719397817373
 30
0.0
  0
VERTEX
  5
1C75
  8
SAPA_PROFIL
 62
     4
 10
60.680250469892023
 20
47.73688920736609
 30
0.0
 42
0.2694959974287434
  0
VERTEX
  5
1C76
  8
SAPA_PROFIL
 62
     4
 10
60.911769516293369
 20
47.543757233022198
 30
0.0
 42
0.0612686379508233
  0
VERTEX
  5
1C77
  8
SAPA_PROFIL
 62
     4
 10
61.204444949146641
 20
47.530173862391678
 30
0.0
  0
VERTEX
  5
1C78
  8
SAPA_PROFIL
 62
     4
 10
61.553863126454907
 20
47.328437183662857
 30
0.0
 42
0.5773502691891679
  0
VERTEX
  5
1C79
  8
SAPA_PROFIL
 62
     4
 10
61.868863126454499
 20
47.510302518457429
 30
0.0
  0
VERTEX
  5
1C7A
  8
SAPA_PROFIL
 62
     4
 10
61.868863126454741
 20
47.777417046583743
 30
0.0
  0
VERTEX
  5
1C7B
  8
SAPA_PROFIL
 62
     4
 10
63.267390827089002
 20
48.586100507892063
 30
0.0
 42
-0.1318219888653519
  0
VERTEX
  5
1C7C
  8
SAPA_PROFIL
 62
     4
 10
63.417563929561339
 20
48.626392904429451
 30
0.0
  0
VERTEX
  5
1C7D
  8
SAPA_PROFIL
 62
     4
 10
63.599999999998118
 20
48.626392904423092
 30
0.0
 42
-0.4142135623724291
  0
VERTEX
  5
1C7E
  8
SAPA_PROFIL
 62
     4
 10
63.999999999998671
 20
48.226392904423449
 30
0.0
  0
VERTEX
  5
1C7F
  8
SAPA_PROFIL
 62
     4
 10
63.9999999999973
 20
44.826392904422448
 30
0.0
 42
-0.4142135623744271
  0
VERTEX
  5
1C80
  8
SAPA_PROFIL
 62
     4
 10
63.599999999998118
 20
44.426392904421441
 30
0.0
  0
VERTEX
  5
1C81
  8
SAPA_PROFIL
 62
     4
 10
63.420384757726822
 20
44.426392904420823
 30
0.0
 42
-0.1316524975874005
  0
VERTEX
  5
1C82
  8
SAPA_PROFIL
 62
     4
 10
63.27038475773
 20
44.466585283286413
 30
0.0
  0
VERTEX
  5
1C83
  8
SAPA_PROFIL
 62
     4
 10
61.666246860727753
 20
45.392734729938951
 30
0.0
 42
0.1316524975875904
  0
VERTEX
  5
1C84
  8
SAPA_PROFIL
 62
     4
 10
61.166246860726027
 20
45.526709326153707
 30
0.0
  0
VERTEX
  5
1C85
  8
SAPA_PROFIL
 62
     4
 10
60.749999999998657
 20
45.526709326153707
 30
0.0
 42
0.4142135623730951
  0
VERTEX
  5
1C86
  8
SAPA_PROFIL
 62
     4
 10
59.749999999998657
 20
44.526709326153707
 30
0.0
  0
VERTEX
  5
1C87
  8
SAPA_PROFIL
 62
     4
 10
59.749999999998657
 20
41.526709326156443
 30
0.0
 42
-0.9999996830128083
  0
VERTEX
  5
1C88
  8
SAPA_PROFIL
 62
     4
 10
58.749999999998657
 20
41.526709326154617
 30
0.0
  0
VERTEX
  5
1C89
  8
SAPA_PROFIL
 62
     4
 10
58.749999999998657
 20
44.526709326154617
 30
0.0
 42
0.4142135623730951
  0
VERTEX
  5
1C8A
  8
SAPA_PROFIL
 62
     4
 10
57.749999999998671
 20
45.526709326154617
 30
0.0
  0
VERTEX
  5
1C8B
  8
SAPA_PROFIL
 62
     4
 10
28.249999999914081
 20
45.526709326154617
 30
0.0
 42
0.4142135623730951
  0
VERTEX
  5
1C8C
  8
SAPA_PROFIL
 62
     4
 10
27.249999999914081
 20
44.526709326154609
 30
0.0
  0
VERTEX
  5
1C8D
  8
SAPA_PROFIL
 62
     4
 10
27.249999999914081
 20
41.526709326156428
 30
0.0
 42
-0.9999999999999998
  0
VERTEX
  5
1C8E
  8
SAPA_PROFIL
 62
     4
 10
26.249999999914081
 20
41.526709326156428
 30
0.0
  0
VERTEX
  5
1C8F
  8
SAPA_PROFIL
 62
     4
 10
26.249999999914081
 20
44.526709326154609
 30
0.0
 42
0.4142135623736278
  0
VERTEX
  5
1C90
  8
SAPA_PROFIL
 62
     4
 10
25.249999999914081
 20
45.526709326154609
 30
0.0
  0
VERTEX
  5
1C91
  8
SAPA_PROFIL
 62
     4
 10
24.833753139187621
 20
45.526709326154609
 30
0.0
 42
0.1316524975874375
  0
VERTEX
  5
1C92
  8
SAPA_PROFIL
 62
     4
 10
24.333753139187419
 20
45.392734729938567
 30
0.0
  0
VERTEX
  5
1C93
  8
SAPA_PROFIL
 62
     4
 10
22.729615242185481
 20
44.466585283286392
 30
0.0
 42
-0.1316524975874
  0
VERTEX
  5
1C94
  8
SAPA_PROFIL
 62
     4
 10
22.57961524218593
 20
44.426392904420801
 30
0.0
  0
VERTEX
  5
1C95
  8
SAPA_PROFIL
 62
     4
 10
22.39999999991463
 20
44.426392904421427
 30
0.0
 42
-0.4142135623744271
  0
VERTEX
  5
1C96
  8
SAPA_PROFIL
 62
     4
 10
21.999999999915449
 20
44.826392904422441
 30
0.0
  0
VERTEX
  5
1C97
  8
SAPA_PROFIL
 62
     4
 10
21.999999999914081
 20
48.226392904423442
 30
0.0
 42
-0.4142135623724291
  0
VERTEX
  5
1C98
  8
SAPA_PROFIL
 62
     4
 10
22.39999999991463
 20
48.626392904423078
 30
0.0
  0
VERTEX
  5
1C99
  8
SAPA_PROFIL
 62
     4
 10
22.58243607035141
 20
48.626392904429437
 30
0.0
 42
-0.1318219888653524
  0
VERTEX
  5
1C9A
  8
SAPA_PROFIL
 62
     4
 10
22.73260917282375
 20
48.586100507892063
 30
0.0
  0
VERTEX
  5
1C9B
  8
SAPA_PROFIL
 62
     4
 10
24.131136873303412
 20
47.777417046667722
 30
0.0
  0
VERTEX
  5
1C9C
  8
SAPA_PROFIL
 62
     4
 10
24.131136873303412
 20
47.510302518454687
 30
0.0
 42
0.577350269189159
  0
VERTEX
  5
1C9D
  8
SAPA_PROFIL
 62
     4
 10
24.446136873303011
 20
47.328437183660107
 30
0.0
  0
VERTEX
  5
1C9E
  8
SAPA_PROFIL
 62
     4
 10
24.795555050521671
 20
47.530173862337222
 30
0.0
 42
0.0612687673629489
  0
VERTEX
  5
1C9F
  8
SAPA_PROFIL
 62
     4
 10
25.088230483621881
 20
47.54375723302342
 30
0.0
 42
0.2694959974285039
  0
VERTEX
  5
1CA0
  8
SAPA_PROFIL
 62
     4
 10
25.319749530022399
 20
47.736889207367369
 30
0.0
  0
VERTEX
  5
1CA1
  8
SAPA_PROFIL
 62
     4
 10
26.215418470932072
 20
50.197719397820549
 30
0.0
 42
-0.3152987888784035
  0
VERTEX
  5
1CA2
  8
SAPA_PROFIL
 62
     4
 10
26.685264781325291
 20
50.526709326157111
 30
0.0
  0
VERTEX
  5
1CA3
  8
SAPA_PROFIL
 62
     4
 10
28.066764366529728
 20
50.526709326155519
 30
0.0
 42
-0.2539676464741841
  0
VERTEX
  5
1CA4
  8
SAPA_PROFIL
 62
     4
 10
28.318365536913799
 20
50.390101036660262
 30
0.0
  0
VERTEX
  5
1CA5
  8
SAPA_PROFIL
 62
     4
 10
28.58238881529045
 20
49.98354084065528
 30
0.0
 42
-0.5862177598324623
  0
VERTEX
  5
1CA6
  8
SAPA_PROFIL
 62
     4
 10
28.326647000052098
 20
49.526709326158773
 30
0.0
  0
VERTEX
  5
1CA7
  8
SAPA_PROFIL
 62
     4
 10
27.385472319542291
 20
49.52670932616644
 30
0.0
 42
0.3152987888813165
  0
VERTEX
  5
1CA8
  8
SAPA_PROFIL
 62
     4
 10
26.915626009144528
 20
49.19771939782968
 30
0.0
  0
VERTEX
  5
1CA9
  8
SAPA_PROFIL
 62
     4
 10
26.478861728020579
 20
47.99771939781845
 30
0.0
 42
0.5205670505515651
  0
VERTEX
  5
1CAA
  8
SAPA_PROFIL
 62
     4
 10
26.948708038413798
 20
47.326709326155708
 30
0.0
  0
VERTEX
  5
1CAB
  8
SAPA_PROFIL
 62
     4
 10
31.965148979082649
 20
47.326709326155679
 30
0.0
 42
0.3702522326300203
  0
VERTEX
  5
1CAC
  8
SAPA_PROFIL
 62
     4
 10
32.261672340875968
 20
47.581169278821378
 30
0.0
 42
0.0982365330332397
  0
VERTEX
  5
1CAD
  8
SAPA_PROFIL
 62
     4
 10
32.352125099086919
 20
49.268856053816393
 30
0.0
 42
0.3735060174783164
  0
VERTEX
  5
1CAE
  8
SAPA_PROFIL
 62
     4
 10
32.055100431175937
 20
49.526709326156421
 30
0.0
  0
VERTEX
  5
1CAF
  8
SAPA_PROFIL
 62
     4
 10
31.626647000053278
 20
49.526709326157352
 30
0.0
 42
-0.5920056181162531
  0
VERTEX
  5
1CB0
  8
SAPA_PROFIL
 62
     4
 10
31.37363824373589
 20
49.987912828685268
 30
0.0
  0
VERTEX
  5
1CB1
  8
SAPA_PROFIL
 62
     4
 10
31.63482231989159
 20
50.390101036663559
 30
0.0
 42
-0.2539676464746725
  0
VERTEX
  5
1CB2
  8
SAPA_PROFIL
 62
     4
 10
31.886423490275352
 20
50.526709326158922
 30
0.0
  0
VERTEX
  5
1CB3
  8
SAPA_PROFIL
 62
     4
 10
54.113576509641028
 20
50.526709326157352
 30
0.0
 42
-0.2539676464741819
  0
VERTEX
  5
1CB4
  8
SAPA_PROFIL
 62
     4
 10
54.365177680023891
 20
50.390101036663573
 30
0.0
  0
VERTEX
  5
1CB5
  8
SAPA_PROFIL
 62
     4
 10
54.626361756177701
 20
49.987912828685232
 30
0.0
 42
-0.5920055144124249
  0
VERTEX
  5
1CB6
  8
SAPA_PROFIL
 62
     4
 10
54.373352999862192
 20
49.526709326157352
 30
0.0
  0
VERTEX
  5
1CB7
  8
SAPA_PROFIL
 62
     4
 10
53.944899522571973
 20
49.526709351432359
 30
0.0
 42
0.3735060174775405
  0
VERTEX
  5
1CB8
  8
SAPA_PROFIL
 62
     4
 10
53.647874854662277
 20
49.268856079092266
 30
0.0
 42
0.0355900683670349
  0
VERTEX
  5
1CB9
  8
SAPA_PROFIL
 62
     4
 10
53.603981290630031
 20
48.65298249229248
 30
0.0
 42
0.0624282003873116
  0
VERTEX
  5
1CBA
  8
SAPA_PROFIL
 62
     4
 10
53.738327612872972
 20
47.581169304097351
 30
0.0
 42
0.3702522326309292
  0
VERTEX
  5
1CBB
  8
SAPA_PROFIL
 62
     4
 10
54.034850974666348
 20
47.326709351431631
 30
0.0
  0
VERTEX
  5
1CBC
  8
SAPA_PROFIL
 62
     4
 10
59.051291961499849
 20
47.326709326155488
 30
0.0
 42
0.5205670505515692
  0
VERTEX
  5
1CBD
  8
SAPA_PROFIL
 62
     4
 10
59.521138271893072
 20
47.997719397818457
 30
0.0
  0
VERTEX
  5
1CBE
  8
SAPA_PROFIL
 62
     4
 10
59.084373990768128
 20
49.19771939782791
 30
0.0
 42
0.3152987888807539
  0
VERTEX
  5
1CBF
  8
SAPA_PROFIL
 62
     4
 10
58.614527680372277
 20
49.526709326165538
 30
0.0
  0
VERTEX
  5
1CC0
  8
SAPA_PROFIL
 62
     4
 10
57.673352999863191
 20
49.526709326158709
 30
0.0
 42
-0.5862175119221242
  0
VERTEX
  5
1CC1
  8
SAPA_PROFIL
 62
     4
 10
57.417611068881229
 20
49.983540651913849
 30
0.0
 42
0.0000002084758573
  0
SEQEND
  5
1CC2
  8
SAPA_PROFIL
 62
     4
  0
POLYLINE
  5
1392
  8
SAPA_PROFIL
 66
     1
 10
0.0
 20
0.0
 30
0.0
 70
     1
  0
VERTEX
  5
1CC3
  8
SAPA_PROFIL
 10
80.000000003985178
 20
90.913762944131747
 30
0.0
 42
-0.2679491924315167
  0
VERTEX
  5
1CC4
  8
SAPA_PROFIL
 10
80.150000003985156
 20
90.653955322996069
 30
0.0
  0
VERTEX
  5
1CC5
  8
SAPA_PROFIL
 10
80.150000003984715
 20
90.301476186244315
 30
0.0
 42
0.4142135623730951
  0
VERTEX
  5
1CC6
  8
SAPA_PROFIL
 10
80.450000003985679
 20
90.001476186243224
 30
0.0
  0
VERTEX
  5
1CC7
  8
SAPA_PROFIL
 10
83.250000000785164
 20
90.001476186239813
 30
0.0
 42
0.4142135623728859
  0
VERTEX
  5
1CC8
  8
SAPA_PROFIL
 10
83.750000000785803
 20
90.501476186238847
 30
0.0
  0
VERTEX
  5
1CC9
  8
SAPA_PROFIL
 10
83.750000000787736
 20
91.50147618624743
 30
0.0
 42
0.4142135623733615
  0
VERTEX
  5
1CCA
  8
SAPA_PROFIL
 10
82.750000000788745
 20
92.501476186249363
 30
0.0
  0
VERTEX
  5
1CCB
  8
SAPA_PROFIL
 10
81.383974597000872
 20
92.501476186250727
 30
0.0
 42
-0.1316524975871477
  0
VERTEX
  5
1CCC
  8
SAPA_PROFIL
 10
81.133974597001384
 20
92.568463484358517
 30
0.0
  0
VERTEX
  5
1CCD
  8
SAPA_PROFIL
 10
78.421539031691225
 20
94.13448888814986
 30
0.0
 42
0.1316524975872168
  0
VERTEX
  5
1CCE
  8
SAPA_PROFIL
 10
78.171539031691566
 20
94.201476186257651
 30
0.0
  0
VERTEX
  5
1CCF
  8
SAPA_PROFIL
 10
70.25000000079126
 20
94.201476186263278
 30
0.0
 42
-0.4142135623729286
  0
VERTEX
  5
1CD0
  8
SAPA_PROFIL
 10
69.95000000079142
 20
94.501476186263218
 30
0.0
  0
VERTEX
  5
1CD1
  8
SAPA_PROFIL
 10
69.950000000790794
 20
97.978034609334443
 30
0.0
 42
-0.4244748162096643
  0
VERTEX
  5
1CD2
  8
SAPA_PROFIL
 10
70.260469849801552
 20
98.277851857440226
 30
0.0
  0
VERTEX
  5
1CD3
  8
SAPA_PROFIL
 10
86.181775051607346
 20
97.721867628480354
 30
0.0
 42
-0.4142135623730951
  0
VERTEX
  5
1CD4
  8
SAPA_PROFIL
 10
86.471122450702353
 20
97.411580531363882
 30
0.0
  0
VERTEX
  5
1CD5
  8
SAPA_PROFIL
 10
86.450182752680803
 20
96.811946035152516
 30
0.0
 42
0.6370702608075453
  0
VERTEX
  5
1CD6
  8
SAPA_PROFIL
 10
86.934698443384264
 20
96.565072960059695
 30
0.0
  0
VERTEX
  5
1CD7
  8
SAPA_PROFIL
 10
88.708358882394577
 20
97.950808367362072
 30
0.0
 42
0.7002075382097091
  0
VERTEX
  5
1CD8
  8
SAPA_PROFIL
 10
88.417977893083005
 20
98.844509157674963
 30
0.0
  0
VERTEX
  5
1CD9
  8
SAPA_PROFIL
 10
67.560469849805088
 20
99.57286938822655
 30
0.0
 42
0.4244748162048541
  0
VERTEX
  5
1CDA
  8
SAPA_PROFIL
 10
67.250000000794316
 20
99.273052140125614
 30
0.0
  0
VERTEX
  5
1CDB
  8
SAPA_PROFIL
 10
67.25000000078262
 20
98.55147618626745
 30
0.0
 42
0.4142135623740385
  0
VERTEX
  5
1CDC
  8
SAPA_PROFIL
 10
67.550000000782916
 20
98.251476186266302
 30
0.0
  0
VERTEX
  5
1CDD
  8
SAPA_PROFIL
 10
68.450000000779937
 20
98.251476186266373
 30
0.0
 42
-0.4142135623724291
  0
VERTEX
  5
1CDE
  8
SAPA_PROFIL
 10
68.750000000779892
 20
97.951476186267087
 30
0.0
  0
VERTEX
  5
1CDF
  8
SAPA_PROFIL
 10
68.75000000079126
 20
93.001476186260959
 30
0.0
 42
-0.4142135623740522
  0
VERTEX
  5
1CE0
  8
SAPA_PROFIL
 10
68.250000000790749
 20
92.501476186259822
 30
0.0
  0
VERTEX
  5
1CE1
  8
SAPA_PROFIL
 10
66.750000000790124
 20
92.501476186261243
 30
0.0
 42
0.4142135623729374
  0
VERTEX
  5
1CE2
  8
SAPA_PROFIL
 10
66.250000000789669
 20
92.001476186261982
 30
0.0
  0
VERTEX
  5
1CE3
  8
SAPA_PROFIL
 10
66.250000000787509
 20
90.501476186261925
 30
0.0
 42
0.4142135623731454
  0
VERTEX
  5
1CE4
  8
SAPA_PROFIL
 10
66.750000000786883
 20
90.001476186261186
 30
0.0
  0
VERTEX
  5
1CE5
  8
SAPA_PROFIL
 10
69.150000003985838
 20
90.001476186258117
 30
0.0
 42
0.414213562373503
  0
VERTEX
  5
1CE6
  8
SAPA_PROFIL
 10
69.65000000398652
 20
90.501476186258174
 30
0.0
  0
VERTEX
  5
1CE7
  8
SAPA_PROFIL
 10
69.650000003986463
 20
91.001476186263972
 30
0.0
 42
-0.414213562373547
  0
VERTEX
  5
1CE8
  8
SAPA_PROFIL
 10
70.650000003987941
 20
92.001476186264014
 30
0.0
  0
VERTEX
  5
1CE9
  8
SAPA_PROFIL
 10
77.982050808350948
 20
92.001476186253356
 30
0.0
 42
-0.1316524975870585
  0
VERTEX
  5
1CEA
  8
SAPA_PROFIL
 10
78.232050808350266
 20
91.934488888145566
 30
0.0
  0
SEQEND
  5
1CEB
  8
SAPA_PROFIL
  0
POLYLINE
  5
1393
  8
SAPA_PROFIL
 66
     1
 10
0.0
 20
0.0
 30
0.0
 70
     1
  0
VERTEX
  5
1CEC
  8
SAPA_PROFIL
 10
-8.4286618527257637
 20
149.76644657568019
 30
0.0
 42
0.9999999999999998
  0
VERTEX
  5
1CED
  8
SAPA_PROFIL
 10
-6.9312872929380021
 20
149.677736780841
 30
0.0
  0
VERTEX
  5
1CEE
  8
SAPA_PROFIL
 10
-6.8713853799983191
 20
150.68884948469901
 30
0.0
 42
-0.2679491924311268
  0
VERTEX
  5
1CEF
  8
SAPA_PROFIL
 10
-6.59621464140195
 20
151.10631932147811
 30
0.0
  0
VERTEX
  5
1CF0
  8
SAPA_PROFIL
 10
3.520175515983083
 20
156.17434091934189
 30
0.0
 42
-0.493145426031307
  0
VERTEX
  5
1CF1
  8
SAPA_PROFIL
 10
6.3750753657396606
 20
154.7886644749002
 30
0.0
  0
VERTEX
  5
1CF2
  8
SAPA_PROFIL
 10
6.9603719863012428
 20
151.93973434668041
 30
0.0
  0
VERTEX
  5
1CF3
  8
SAPA_PROFIL
 10
6.6448812292313191
 20
150.9908056969899
 30
0.0
  0
VERTEX
  5
1CF4
  8
SAPA_PROFIL
 10
7.3089321677070274
 20
150.24311836186291
 30
0.0
  0
VERTEX
  5
1CF5
  8
SAPA_PROFIL
 10
6.993441410637101
 20
149.2941897121724
 30
0.0
  0
VERTEX
  5
1CF6
  8
SAPA_PROFIL
 10
7.5352709179806023
 20
148.68411744667921
 30
0.0
  0
VERTEX
  5
1CF7
  8
SAPA_PROFIL
 10
7.3273881484312842
 20
145.1751659142609
 30
0.0
 42
0.4142135623730951
  0
VERTEX
  5
1CF8
  8
SAPA_PROFIL
 10
8.266497991730354
 20
144.11777634450971
 30
0.0
  0
VERTEX
  5
1CF9
  8
SAPA_PROFIL
 10
8.7656228449929436
 20
144.0882064128966
 30
0.0
  0
VERTEX
  5
1CFA
  8
SAPA_PROFIL
 10
9.2647476982555297
 20
144.05863648128349
 30
0.0
 42
0.4142135623730951
  0
VERTEX
  5
1CFB
  8
SAPA_PROFIL
 10
9.7934424831311642
 20
144.52819140293309
 30
0.0
  0
VERTEX
  5
1CFC
  8
SAPA_PROFIL
 10
9.8230124147442197
 20
145.02731625619569
 30
0.0
  0
VERTEX
  5
1CFD
  8
SAPA_PROFIL
 10
8.8247627082190476
 20
145.0864561194218
 30
0.0
  0
VERTEX
  5
1CFE
  8
SAPA_PROFIL
 10
9.1796018875756786
 20
151.0759543585728
 30
0.0
  0
VERTEX
  5
1CFF
  8
SAPA_PROFIL
 10
7.8562061787441229
 20
157.5175803205147
 30
0.0
 42
-0.3394542588633754
  0
VERTEX
  5
1D00
  8
SAPA_PROFIL
 10
8.3878396449575305
 20
158.61290117186229
 30
0.0
  0
VERTEX
  5
1D01
  8
SAPA_PROFIL
 10
9.6639927876361842
 20
159.2522173299642
 30
0.0
  0
VERTEX
  5
1D02
  8
SAPA_PROFIL
 10
9.8005704514498966
 20
161.55757627708709
 30
0.0
  0
VERTEX
  5
1D03
  8
SAPA_PROFIL
 10
-7.7501296306864953
 20
152.76517842665771
 30
0.0
 42
0.2679491924311207
  0
VERTEX
  5
1D04
  8
SAPA_PROFIL
 10
-8.3004711078792184
 20
151.9302387530997
 30
0.0
  0
SEQEND
  5
1D05
  8
SAPA_PROFIL
  0
POLYLINE
  5
1394
  8
SAPA_PROFIL
 62
     4
 66
     1
 10
0.0
 20
0.0
 30
0.0
  0
VERTEX
  5
1D06
  8
SAPA_PROFIL
 62
     4
 10
52.049329126332488
 20
67.404095280290576
 30
0.0
 42
0.5571646428658034
  0
VERTEX
  5
1D07
  8
SAPA_PROFIL
 62
     4
 10
51.512368622195652
 20
68.271814194446137
 30
0.0
  0
VERTEX
  5
1D08
  8
SAPA_PROFIL
 62
     4
 10
34.487631385674462
 20
68.271814194445668
 30
0.0
 42
0.5571645048035741
  0
VERTEX
  5
1D09
  8
SAPA_PROFIL
 62
     4
 10
33.950670768713408
 20
67.404095506579495
 30
0.0
  0
VERTEX
  5
1D0A
  8
SAPA_PROFIL
 62
     4
 10
34.7813778562601
 20
65.737954850511471
 30
0.0
 42
0.284385813979063
  0
VERTEX
  5
1D0B
  8
SAPA_PROFIL
 62
     4
 10
35.049858164740449
 20
65.57181419444403
 30
0.0
  0
VERTEX
  5
1D0C
  8
SAPA_PROFIL
 62
     4
 10
50.950141843129757
 20
65.571814194444045
 30
0.0
 42
0.2843858139786238
  0
VERTEX
  5
1D0D
  8
SAPA_PROFIL
 62
     4
 10
51.218622151610049
 20
65.737954850510974
 30
0.0
  0
VERTEX
  5
1D0E
  8
SAPA_PROFIL
 62
     4
 10
52.04932923915721
 20
67.404095506580319
 30
0.0
  0
SEQEND
  5
1D0F
  8
SAPA_PROFIL
 62
     4
  0
POLYLINE
  5
1395
  8
SAPA_PROFIL
 62
     4
 66
     1
 10
0.0
 20
0.0
 30
0.0
 70
     1
  0
VERTEX
  5
1D10
  8
SAPA_PROFIL
 62
     4
 10
28.582388819267809
 20
65.214982679946459
 30
0.0
  0
VERTEX
  5
1D11
  8
SAPA_PROFIL
 62
     4
 10
28.318365540891801
 20
64.808422483942323
 30
0.0
 42
-0.2539676464751066
  0
VERTEX
  5
1D12
  8
SAPA_PROFIL
 62
     4
 10
28.066764370507101
 20
64.671814194446213
 30
0.0
  0
VERTEX
  5
1D13
  8
SAPA_PROFIL
 62
     4
 10
26.685264785301751
 20
64.671814194446213
 30
0.0
 42
-0.3152987888790479
  0
VERTEX
  5
1D14
  8
SAPA_PROFIL
 62
     4
 10
26.215418474909441
 20
65.000804122784373
 30
0.0
  0
VERTEX
  5
1D15
  8
SAPA_PROFIL
 62
     4
 10
25.319749534000831
 20
67.461634313235649
 30
0.0
 42
0.2694959974287434
  0
VERTEX
  5
1D16
  8
SAPA_PROFIL
 62
     4
 10
25.088230487599478
 20
67.654766287579548
 30
0.0
 42
0.0612686379508233
  0
VERTEX
  5
1D17
  8
SAPA_PROFIL
 62
     4
 10
24.795555054746199
 20
67.668349658210062
 30
0.0
  0
VERTEX
  5
1D18
  8
SAPA_PROFIL
 62
     4
 10
24.44613687743793
 20
67.870086336938883
 30
0.0
 42
0.5773502691891679
  0
VERTEX
  5
1D19
  8
SAPA_PROFIL
 62
     4
 10
24.13113687743834
 20
67.688221002144317
 30
0.0
  0
VERTEX
  5
1D1A
  8
SAPA_PROFIL
 62
     4
 10
24.131136877438099
 20
67.421106474018003
 30
0.0
  0
VERTEX
  5
1D1B
  8
SAPA_PROFIL
 62
     4
 10
22.732609176803852
 20
66.612423012709684
 30
0.0
 42
-0.1318219888653519
  0
VERTEX
  5
1D1C
  8
SAPA_PROFIL
 62
     4
 10
22.582436074331511
 20
66.572130616172288
 30
0.0
  0
VERTEX
  5
1D1D
  8
SAPA_PROFIL
 62
     4
 10
22.400000003894728
 20
66.572130616178654
 30
0.0
 42
-0.4142135623724291
  0
VERTEX
  5
1D1E
  8
SAPA_PROFIL
 62
     4
 10
22.000000003894179
 20
66.972130616178291
 30
0.0
  0
VERTEX
  5
1D1F
  8
SAPA_PROFIL
 62
     4
 10
22.00000000389554
 20
70.372130616179291
 30
0.0
 42
-0.4142135623744271
  0
VERTEX
  5
1D20
  8
SAPA_PROFIL
 62
     4
 10
22.400000003894728
 20
70.772130616180291
 30
0.0
  0
VERTEX
  5
1D21
  8
SAPA_PROFIL
 62
     4
 10
22.579615246166028
 20
70.772130616180931
 30
0.0
 42
-0.1316524975874005
  0
VERTEX
  5
1D22
  8
SAPA_PROFIL
 62
     4
 10
22.729615246162851
 20
70.731938237315333
 30
0.0
  0
VERTEX
  5
1D23
  8
SAPA_PROFIL
 62
     4
 10
24.333753143165101
 20
69.805788790662803
 30
0.0
 42
0.1316524975875904
  0
VERTEX
  5
1D24
  8
SAPA_PROFIL
 62
     4
 10
24.83375314316681
 20
69.671814194448032
 30
0.0
  0
VERTEX
  5
1D25
  8
SAPA_PROFIL
 62
     4
 10
25.250000003894179
 20
69.671814194448032
 30
0.0
 42
0.4142135623730951
  0
VERTEX
  5
1D26
  8
SAPA_PROFIL
 62
     4
 10
26.250000003894179
 20
70.671814194448032
 30
0.0
  0
VERTEX
  5
1D27
  8
SAPA_PROFIL
 62
     4
 10
26.250000003894179
 20
73.671814194445304
 30
0.0
 42
-0.9999996830128083
  0
VERTEX
  5
1D28
  8
SAPA_PROFIL
 62
     4
 10
27.250000003894179
 20
73.671814194447123
 30
0.0
  0
VERTEX
  5
1D29
  8
SAPA_PROFIL
 62
     4
 10
27.250000003894179
 20
70.671814194447123
 30
0.0
 42
0.4142135623730951
  0
VERTEX
  5
1D2A
  8
SAPA_PROFIL
 62
     4
 10
28.250000003894179
 20
69.671814194447123
 30
0.0
  0
VERTEX
  5
1D2B
  8
SAPA_PROFIL
 62
     4
 10
57.750000003978762
 20
69.671814194447137
 30
0.0
 42
0.4142135623730951
  0
VERTEX
  5
1D2C
  8
SAPA_PROFIL
 62
     4
 10
58.750000003978762
 20
70.671814194447137
 30
0.0
  0
VERTEX
  5
1D2D
  8
SAPA_PROFIL
 62
     4
 10
58.750000003978762
 20
73.671814194445304
 30
0.0
 42
-0.9999999999999998
  0
VERTEX
  5
1D2E
  8
SAPA_PROFIL
 62
     4
 10
59.750000003978762
 20
73.671814194445304
 30
0.0
  0
VERTEX
  5
1D2F
  8
SAPA_PROFIL
 62
     4
 10
59.750000003978762
 20
70.671814194447137
 30
0.0
 42
0.4142135623736278
  0
VERTEX
  5
1D30
  8
SAPA_PROFIL
 62
     4
 10
60.750000003978762
 20
69.671814194447137
 30
0.0
  0
VERTEX
  5
1D31
  8
SAPA_PROFIL
 62
     4
 10
61.166246864705222
 20
69.671814194447137
 30
0.0
 42
0.1316524975874375
  0
VERTEX
  5
1D32
  8
SAPA_PROFIL
 62
     4
 10
61.666246864705421
 20
69.805788790663172
 30
0.0
  0
VERTEX
  5
1D33
  8
SAPA_PROFIL
 62
     4
 10
63.270384761707369
 20
70.731938237315347
 30
0.0
 42
-0.1316524975874
  0
VERTEX
  5
1D34
  8
SAPA_PROFIL
 62
     4
 10
63.420384761706913
 20
70.772130616180931
 30
0.0
  0
VERTEX
  5
1D35
  8
SAPA_PROFIL
 62
     4
 10
63.600000003978209
 20
70.772130616180306
 30
0.0
 42
-0.4142135623744271
  0
VERTEX
  5
1D36
  8
SAPA_PROFIL
 62
     4
 10
64.000000003977391
 20
70.372130616179305
 30
0.0
  0
VERTEX
  5
1D37
  8
SAPA_PROFIL
 62
     4
 10
64.000000003978755
 20
66.972130616178305
 30
0.0
 42
-0.4142135623724291
  0
VERTEX
  5
1D38
  8
SAPA_PROFIL
 62
     4
 10
63.600000003978209
 20
66.572130616178654
 30
0.0
  0
VERTEX
  5
1D39
  8
SAPA_PROFIL
 62
     4
 10
63.417563933541437
 20
66.572130616172302
 30
0.0
 42
-0.1318219888653524
  0
VERTEX
  5
1D3A
  8
SAPA_PROFIL
 62
     4
 10
63.267390831069093
 20
66.612423012709684
 30
0.0
  0
VERTEX
  5
1D3B
  8
SAPA_PROFIL
 62
     4
 10
61.868863130589439
 20
67.421106473934032
 30
0.0
  0
VERTEX
  5
1D3C
  8
SAPA_PROFIL
 62
     4
 10
61.868863130589439
 20
67.688221002147046
 30
0.0
 42
0.577350269189159
  0
VERTEX
  5
1D3D
  8
SAPA_PROFIL
 62
     4
 10
61.553863130589839
 20
67.870086336941625
 30
0.0
  0
VERTEX
  5
1D3E
  8
SAPA_PROFIL
 62
     4
 10
61.204444953371173
 20
67.668349658264503
 30
0.0
 42
0.0612687673629489
  0
VERTEX
  5
1D3F
  8
SAPA_PROFIL
 62
     4
 10
60.911769520270973
 20
67.654766287578312
 30
0.0
 42
0.2694959974285039
  0
VERTEX
  5
1D40
  8
SAPA_PROFIL
 62
     4
 10
60.680250473870437
 20
67.46163431323437
 30
0.0
  0
VERTEX
  5
1D41
  8
SAPA_PROFIL
 62
     4
 10
59.784581532960772
 20
65.000804122781204
 30
0.0
 42
-0.3152987888784035
  0
VERTEX
  5
1D42
  8
SAPA_PROFIL
 62
     4
 10
59.314735222567549
 20
64.671814194444622
 30
0.0
  0
VERTEX
  5
1D43
  8
SAPA_PROFIL
 62
     4
 10
57.933235637363111
 20
64.671814194446227
 30
0.0
 42
-0.2539676464741841
  0
VERTEX
  5
1D44
  8
SAPA_PROFIL
 62
     4
 10
57.681634466979041
 20
64.808422483941499
 30
0.0
  0
VERTEX
  5
1D45
  8
SAPA_PROFIL
 62
     4
 10
57.4176111886024
 20
65.214982679946473
 30
0.0
 42
-0.5862177598324623
  0
VERTEX
  5
1D46
  8
SAPA_PROFIL
 62
     4
 10
57.673353003840752
 20
65.671814194442973
 30
0.0
  0
VERTEX
  5
1D47
  8
SAPA_PROFIL
 62
     4
 10
58.614527684350548
 20
65.671814194435314
 30
0.0
 42
0.3152987888813165
  0
VERTEX
  5
1D48
  8
SAPA_PROFIL
 62
     4
 10
59.084373994748312
 20
66.000804122772067
 30
0.0
  0
VERTEX
  5
1D49
  8
SAPA_PROFIL
 62
     4
 10
59.521138275872261
 20
67.200804122783296
 30
0.0
 42
0.5205670505515651
  0
VERTEX
  5
1D4A
  8
SAPA_PROFIL
 62
     4
 10
59.051291965479038
 20
67.871814194446046
 30
0.0
  0
VERTEX
  5
1D4B
  8
SAPA_PROFIL
 62
     4
 10
54.034851024810187
 20
67.871814194446074
 30
0.0
 42
0.3702522326300203
  0
VERTEX
  5
1D4C
  8
SAPA_PROFIL
 62
     4
 10
53.738327663016861
 20
67.617354241780362
 30
0.0
 42
0.0982365330332397
  0
VERTEX
  5
1D4D
  8
SAPA_PROFIL
 62
     4
 10
53.647874904805917
 20
65.929667466785361
 30
0.0
 42
0.3735060174783164
  0
VERTEX
  5
1D4E
  8
SAPA_PROFIL
 62
     4
 10
53.944899572716913
 20
65.671814194445318
 30
0.0
  0
VERTEX
  5
1D4F
  8
SAPA_PROFIL
 62
     4
 10
54.373353003839561
 20
65.671814194444408
 30
0.0
 42
-0.5920056181162531
  0
VERTEX
  5
1D50
  8
SAPA_PROFIL
 62
     4
 10
54.626361760156961
 20
65.210610691916486
 30
0.0
  0
VERTEX
  5
1D51
  8
SAPA_PROFIL
 62
     4
 10
54.36517768400126
 20
64.808422483938187
 30
0.0
 42
-0.2539676464746725
  0
VERTEX
  5
1D52
  8
SAPA_PROFIL
 62
     4
 10
54.113576513617502
 20
64.671814194442817
 30
0.0
  0
VERTEX
  5
1D53
  8
SAPA_PROFIL
 62
     4
 10
31.886423494251812
 20
64.671814194444394
 30
0.0
 42
-0.2539676464741819
  0
VERTEX
  5
1D54
  8
SAPA_PROFIL
 62
     4
 10
31.63482232386896
 20
64.808422483938173
 30
0.0
  0
VERTEX
  5
1D55
  8
SAPA_PROFIL
 62
     4
 10
31.373638247715139
 20
65.210610691916514
 30
0.0
 42
-0.5920055144124249
  0
VERTEX
  5
1D56
  8
SAPA_PROFIL
 62
     4
 10
31.626647004030652
 20
65.671814194444394
 30
0.0
  0
VERTEX
  5
1D57
  8
SAPA_PROFIL
 62
     4
 10
32.055100481320871
 20
65.671814169169394
 30
0.0
 42
0.3735060174775405
  0
VERTEX
  5
1D58
  8
SAPA_PROFIL
 62
     4
 10
32.352125149230559
 20
65.92966744150948
 30
0.0
 42
0.0355900683670349
  0
VERTEX
  5
1D59
  8
SAPA_PROFIL
 62
     4
 10
32.396018713262812
 20
66.545541028309273
 30
0.0
 42
0.0624282003873116
  0
VERTEX
  5
1D5A
  8
SAPA_PROFIL
 62
     4
 10
32.261672391019871
 20
67.617354216504395
 30
0.0
 42
0.3702522326309292
  0
VERTEX
  5
1D5B
  8
SAPA_PROFIL
 62
     4
 10
31.965149029226499
 20
67.871814169170122
 30
0.0
  0
VERTEX
  5
1D5C
  8
SAPA_PROFIL
 62
     4
 10
26.94870804239299
 20
67.871814194446259
 30
0.0
 42
0.5205670505515692
  0
VERTEX
  5
1D5D
  8
SAPA_PROFIL
 62
     4
 10
26.478861731999771
 20
67.200804122783282
 30
0.0
  0
VERTEX
  5
1D5E
  8
SAPA_PROFIL
 62
     4
 10
26.915626013124719
 20
66.000804122773843
 30
0.0
 42
0.3152987888807539
  0
VERTEX
  5
1D5F
  8
SAPA_PROFIL
 62
     4
 10
27.38547232352057
 20
65.671814194436195
 30
0.0
  0
VERTEX
  5
1D60
  8
SAPA_PROFIL
 62
     4
 10
28.326647004029649
 20
65.67181419444303
 30
0.0
 42
-0.5862175119221242
  0
VERTEX
  5
1D61
  8
SAPA_PROFIL
 62
     4
 10
28.582388935011611
 20
65.214982868687898
 30
0.0
 42
0.0000002084758573
  0
SEQEND
  5
1D62
  8
SAPA_PROFIL
 62
     4
  0
POLYLINE
  5
1396
  8
SAPA_PROFIL
 66
     1
 10
0.0
 20
0.0
 30
0.0
 70
     1
  0
VERTEX
  5
1D63
  8
SAPA_PROFIL
 10
24.445400831939789
 20
67.839154087450964
 30
0.0
 42
0.5773502691897539
  0
VERTEX
  5
1D64
  8
SAPA_PROFIL
 10
24.15124453168508
 20
67.656200347340786
 30
0.0
  0
VERTEX
  5
1D65
  8
SAPA_PROFIL
 10
24.161805897912039
 20
67.334442619122541
 30
0.0
  0
VERTEX
  5
1D66
  8
SAPA_PROFIL
 10
22.275962206050931
 20
66.249878172150801
 30
0.0
  0
VERTEX
  5
1D67
  8
SAPA_PROFIL
 10
22.08457920605721
 20
66.191804535161765
 30
0.0
 42
-0.7625858545243252
  0
VERTEX
  5
1D68
  8
SAPA_PROFIL
 10
21.90000000385972
 20
66.522130616178714
 30
0.0
 42
0.2134217652834343
  0
VERTEX
  5
1D69
  8
SAPA_PROFIL
 10
22.00000000385986
 20
66.745737413928822
 30
0.0
  0
VERTEX
  5
1D6A
  8
SAPA_PROFIL
 10
22.000000003929891
 20
70.598523818428788
 30
0.0
 42
-0.4142135623730951
  0
VERTEX
  5
1D6B
  8
SAPA_PROFIL
 10
22.300000003929849
 20
70.898523818428743
 30
0.0
  0
VERTEX
  5
1D6C
  8
SAPA_PROFIL
 10
22.6000000039298
 20
70.898523818428743
 30
0.0
  0
VERTEX
  5
1D6D
  8
SAPA_PROFIL
 10
24.20000000392994
 20
69.974763387718752
 30
0.0
 42
0.5773502691868622
  0
VERTEX
  5
1D6E
  8
SAPA_PROFIL
 10
24.500000003929891
 20
70.147968468478751
 30
0.0
  0
VERTEX
  5
1D6F
  8
SAPA_PROFIL
 10
24.500000003926029
 20
71.533609114538734
 30
0.0
 42
0.2679491924305262
  0
VERTEX
  5
1D70
  8
SAPA_PROFIL
 10
24.000000003929891
 20
72.39963451831872
 30
0.0
  0
VERTEX
  5
1D71
  8
SAPA_PROFIL
 10
22.25013517089992
 20
73.40919134229884
 30
0.0
 42
-0.268032828299991
  0
VERTEX
  5
1D72
  8
SAPA_PROFIL
 10
22.00000000384485
 20
73.842282054789365
 30
0.0
  0
VERTEX
  5
1D73
  8
SAPA_PROFIL
 10
22.000000003859849
 20
85.155673765399087
 30
0.0
 42
-0.26803282829961
  0
VERTEX
  5
1D74
  8
SAPA_PROFIL
 10
22.25013517089992
 20
85.588764477889043
 30
0.0
  0
VERTEX
  5
1D75
  8
SAPA_PROFIL
 10
24.00000000393193
 20
86.598321301865866
 30
0.0
 42
0.267949192430527
  0
VERTEX
  5
1D76
  8
SAPA_PROFIL
 10
24.50000000392988
 20
87.464346705649135
 30
0.0
  0
VERTEX
  5
1D77
  8
SAPA_PROFIL
 10
24.50000000393262
 20
88.849987351709132
 30
0.0
 42
0.5773502691868419
  0
VERTEX
  5
1D78
  8
SAPA_PROFIL
 10
24.200000003929929
 20
89.023192432469116
 30
0.0
  0
VERTEX
  5
1D79
  8
SAPA_PROFIL
 10
22.600000003929789
 20
88.099432001759126
 30
0.0
  0
VERTEX
  5
1D7A
  8
SAPA_PROFIL
 10
22.300000003929838
 20
88.099432001759126
 30
0.0
 42
-0.4142135623730951
  0
VERTEX
  5
1D7B
  8
SAPA_PROFIL
 10
22.00000000392988
 20
88.399432001759095
 30
0.0
  0
VERTEX
  5
1D7C
  8
SAPA_PROFIL
 10
22.000000003930111
 20
92.252218406259061
 30
0.0
 42
0.2134217652834343
  0
VERTEX
  5
1D7D
  8
SAPA_PROFIL
 10
21.900000003929978
 20
92.475825204009155
 30
0.0
 42
-0.7625858545243255
  0
VERTEX
  5
1D7E
  8
SAPA_PROFIL
 10
22.084579206127462
 20
92.806151285026175
 30
0.0
  0
VERTEX
  5
1D7F
  8
SAPA_PROFIL
 10
22.275962206121179
 20
92.748077648037096
 30
0.0
  0
VERTEX
  5
1D80
  8
SAPA_PROFIL
 10
24.161805897982291
 20
91.663513201065328
 30
0.0
  0
VERTEX
  5
1D81
  8
SAPA_PROFIL
 10
24.151244531755211
 20
91.341755472847098
 30
0.0
 42
0.5773502691897534
  0
VERTEX
  5
1D82
  8
SAPA_PROFIL
 10
24.445400832010151
 20
91.158801732736919
 30
0.0
  0
VERTEX
  5
1D83
  8
SAPA_PROFIL
 10
24.730083115241779
 20
91.310935643845696
 30
0.0
 42
0.2216946626430088
  0
VERTEX
  5
1D84
  8
SAPA_PROFIL
 10
25.135892020396579
 20
91.851815475322468
 30
0.0
  0
VERTEX
  5
1D85
  8
SAPA_PROFIL
 10
25.517338616524299
 20
93.665045945980722
 30
0.0
 42
0.476975532698165
  0
VERTEX
  5
1D86
  8
SAPA_PROFIL
 10
25.215085792017831
 20
94.036702820926607
 30
0.0
  0
VERTEX
  5
1D87
  8
SAPA_PROFIL
 10
23.71198471125582
 20
94.03661921304294
 30
0.0
  0
VERTEX
  5
1D88
  8
SAPA_PROFIL
 10
23.697466302008721
 20
93.988773463044453
 30
0.0
 42
-0.4142135623731108
  0
VERTEX
  5
1D89
  8
SAPA_PROFIL
 10
23.323281346532909
 20
93.788809418537056
 30
0.0
  0
VERTEX
  5
1D8A
  8
SAPA_PROFIL
 10
22.000694819277509
 20
94.300000002319024
 30
0.0
  0
VERTEX
  5
1D8B
  8
SAPA_PROFIL
 10
18.987515670323958
 20
94.300000002318555
 30
0.0
 42
0.2596812337296443
  0
VERTEX
  5
1D8C
  8
SAPA_PROFIL
 10
18.817484858784908
 20
94.205306807070059
 30
0.0
  0
VERTEX
  5
1D8D
  8
SAPA_PROFIL
 10
18.044953789717809
 20
92.957960209444494
 30
0.0
 42
0.5877032589250569
  0
VERTEX
  5
1D8E
  8
SAPA_PROFIL
 10
18.300000007026888
 20
92.500000002318046
 30
0.0
  0
VERTEX
  5
1D8F
  8
SAPA_PROFIL
 10
19.700000007026421
 20
92.500000002319965
 30
0.0
 42
-0.414213562373428
  0
VERTEX
  5
1D90
  8
SAPA_PROFIL
 10
20.000000007026941
 20
92.200000002320138
 30
0.0
  0
VERTEX
  5
1D91
  8
SAPA_PROFIL
 10
20.00000000703081
 20
89.800000002319578
 30
0.0
 42
-0.4142135623732061
  0
VERTEX
  5
1D92
  8
SAPA_PROFIL
 10
19.700000007031299
 20
89.500000002319084
 30
0.0
  0
VERTEX
  5
1D93
  8
SAPA_PROFIL
 10
2.3000000070307598
 20
89.500000002298151
 30
0.0
 42
-0.4142135623722071
  0
VERTEX
  5
1D94
  8
SAPA_PROFIL
 10
2.0000000070308062
 20
89.800000002295135
 30
0.0
  0
VERTEX
  5
1D95
  8
SAPA_PROFIL
 10
2.0000000070968582
 20
92.20000000229399
 30
0.0
 42
-0.4142135623730951
  0
VERTEX
  5
1D96
  8
SAPA_PROFIL
 10
2.3000000070988591
 20
92.500000002292126
 30
0.0
  0
VERTEX
  5
1D97
  8
SAPA_PROFIL
 10
3.7000000070988341
 20
92.500000002287123
 30
0.0
 42
0.5877032589240117
  0
VERTEX
  5
1D98
  8
SAPA_PROFIL
 10
3.9550462244108759
 20
92.95796020941313
 30
0.0
  0
VERTEX
  5
1D99
  8
SAPA_PROFIL
 10
3.0586472471740769
 20
94.405306807041228
 30
0.0
 42
0.259681233730399
  0
VERTEX
  5
1D9A
  8
SAPA_PROFIL
 10
2.8886164356349129
 20
94.500000002289056
 30
0.0
  0
VERTEX
  5
1D9B
  8
SAPA_PROFIL
 10
2.5000000070942412
 20
94.500000002291145
 30
0.0
 42
-0.4142135623715633
  0
VERTEX
  5
1D9C
  8
SAPA_PROFIL
 10
2.000000007096856
 20
95.000000002291159
 30
0.0
  0
VERTEX
  5
1D9D
  8
SAPA_PROFIL
 10
2.0000000070967969
 20
119.8000000019085
 30
0.0
 42
-0.4142135623739942
  0
VERTEX
  5
1D9E
  8
SAPA_PROFIL
 10
2.5000000070983299
 20
120.3000000019085
 30
0.0
  0
VERTEX
  5
1D9F
  8
SAPA_PROFIL
 10
4.3005704513968306
 20
120.300000001903
 30
0.0
 42
0.4241420668422755
  0
VERTEX
  5
1DA0
  8
SAPA_PROFIL
 10
5.3000000068082702
 20
121.3337722357811
 30
0.0
 42
0.2988658713647619
  0
VERTEX
  5
1DA1
  8
SAPA_PROFIL
 10
4.7291418800404674
 20
122.2710523727404
 30
0.0
 42
0.5507604245873982
  0
VERTEX
  5
1DA2
  8
SAPA_PROFIL
 10
4.3005704514458296
 20
122.0000000018951
 30
0.0
  0
VERTEX
  5
1DA3
  8
SAPA_PROFIL
 10
4.3005704514268439
 20
121.70000000190301
 30
0.0
 42
-0.4142135623702647
  0
VERTEX
  5
1DA4
  8
SAPA_PROFIL
 10
4.1005704514147476
 20
121.5000000019151
 30
0.0
  0
VERTEX
  5
1DA5
  8
SAPA_PROFIL
 10
3.800570451297923
 20
121.5000000019332
 30
0.0
 42
-0.4142135623563536
  0
VERTEX
  5
1DA6
  8
SAPA_PROFIL
 10
2.000570451403811
 20
123.3000000019361
 30
0.0
  0
VERTEX
  5
1DA7
  8
SAPA_PROFIL
 10
2.0005704514057441
 20
124.00000000215221
 30
0.0
 42
-0.4142135623558171
  0
VERTEX
  5
1DA8
  8
SAPA_PROFIL
 10
3.8005704513029261
 20
125.8000000021501
 30
0.0
  0
VERTEX
  5
1DA9
  8
SAPA_PROFIL
 10
4.1005704514208867
 20
125.8000000021661
 30
0.0
 42
-0.4142135623717631
  0
VERTEX
  5
1DAA
  8
SAPA_PROFIL
 10
4.3005704514328702
 20
125.6000000021791
 30
0.0
  0
VERTEX
  5
1DAB
  8
SAPA_PROFIL
 10
4.3005704514506053
 20
125.30000000218909
 30
0.0
 42
0.5507604245839719
  0
VERTEX
  5
1DAC
  8
SAPA_PROFIL
 10
4.7291418800369431
 20
125.02894763134201
 30
0.0
 42
0.2988658713671755
  0
VERTEX
  5
1DAD
  8
SAPA_PROFIL
 10
5.3000000068147504
 20
125.9662277683
 30
0.0
 42
0.4241420668413794
  0
VERTEX
  5
1DAE
  8
SAPA_PROFIL
 10
4.3005704514058118
 20
127.00000000217911
 30
0.0
  0
VERTEX
  5
1DAF
  8
SAPA_PROFIL
 10
2.2000000071517518
 20
127.0000000021783
 30
0.0
 42
-0.414213562373195
  0
VERTEX
  5
1DB0
  8
SAPA_PROFIL
 10
1.7000000071515811
 20
127.5000000021783
 30
0.0
  0
VERTEX
  5
1DB1
  8
SAPA_PROFIL
 10
1.7000000071518071
 20
138.0171572898208
 30
0.0
 42
0.198912367379658
  0
VERTEX
  5
1DB2
  8
SAPA_PROFIL
 10
1.5535533977450831
 20
138.37071068041411
 30
0.0
  0
VERTEX
  5
1DB3
  8
SAPA_PROFIL
 10
0.5121320415128779
 20
139.41213203664651
 30
0.0
 42
0.6681786379192989
  0
VERTEX
  5
1DB4
  8
SAPA_PROFIL
 10
0.0000000071567641
 20
139.20000000229041
 30
0.0
  0
VERTEX
  5
1DB5
  8
SAPA_PROFIL
 10
0.0000000070778778
 20
43.000000002326111
 30
0.0
 42
0.4142135623567124
  0
VERTEX
  5
1DB6
  8
SAPA_PROFIL
 10
0.5000000070499109
 20
42.500000002326118
 30
0.0
  0
VERTEX
  5
1DB7
  8
SAPA_PROFIL
 10
4.2000000070618926
 20
42.500000002119087
 30
0.0
 42
0.414213562390632
  0
VERTEX
  5
1DB8
  8
SAPA_PROFIL
 10
4.500000007077877
 20
42.800000002120193
 30
0.0
  0
VERTEX
  5
1DB9
  8
SAPA_PROFIL
 10
4.5000000070769683
 20
43.567544470147112
 30
0.0
 42
0.2896898632850871
  0
VERTEX
  5
1DBA
  8
SAPA_PROFIL
 10
3.928571435705825
 20
44.471052373024087
 30
0.0
 42
0.5507604245891342
  0
VERTEX
  5
1DBB
  8
SAPA_PROFIL
 10
3.5000000071178952
 20
44.200000002177113
 30
0.0
  0
VERTEX
  5
1DBC
  8
SAPA_PROFIL
 10
3.5000000071058439
 20
44.000000002155133
 30
0.0
 42
-0.4142135623672125
  0
VERTEX
  5
1DBD
  8
SAPA_PROFIL
 10
3.2000000070948622
 20
43.700000002171997
 30
0.0
  0
VERTEX
  5
1DBE
  8
SAPA_PROFIL
 10
1.7000000059149061
 20
43.700000002229082
 30
0.0
 42
-0.4142135623613076
  0
VERTEX
  5
1DBF
  8
SAPA_PROFIL
 10
1.200000005923888
 20
44.200000002238049
 30
0.0
  0
VERTEX
  5
1DC0
  8
SAPA_PROFIL
 10
1.200000005918886
 20
47.500000002229143
 30
0.0
 42
-0.414213562384816
  0
VERTEX
  5
1DC1
  8
SAPA_PROFIL
 10
1.700000005937871
 20
48.000000002230053
 30
0.0
  0
VERTEX
  5
1DC2
  8
SAPA_PROFIL
 10
3.2000000073278061
 20
48.000000002172072
 30
0.0
 42
-0.4142135623779789
  0
VERTEX
  5
1DC3
  8
SAPA_PROFIL
 10
3.5000000073158239
 20
47.700000002155058
 30
0.0
  0
VERTEX
  5
1DC4
  8
SAPA_PROFIL
 10
3.50000000730491
 20
47.500000002178091
 30
0.0
 42
0.5507604245847541
  0
VERTEX
  5
1DC5
  8
SAPA_PROFIL
 10
3.928571435858847
 20
47.228947631280079
 30
0.0
 42
0.2896898633203854
  0
VERTEX
  5
1DC6
  8
SAPA_PROFIL
 10
4.500000007343905
 20
48.132455534215147
 30
0.0
  0
VERTEX
  5
1DC7
  8
SAPA_PROFIL
 10
4.500000007343905
 20
49.129927346279118
 30
0.0
 42
0.0436609429083866
  0
VERTEX
  5
1DC8
  8
SAPA_PROFIL
 10
4.4924038838498372
 20
49.216751435112059
 30
0.0
  0
VERTEX
  5
1DC9
  8
SAPA_PROFIL
 10
4.2155577129248822
 20
50.786824091096122
 30
0.0
 42
0.8390996311771717
  0
VERTEX
  5
1DCA
  8
SAPA_PROFIL
 10
3.2307499599129041
 20
50.786824091095099
 30
0.0
  0
VERTEX
  5
1DCB
  8
SAPA_PROFIL
 10
3.0238041203319499
 20
49.61317591342808
 30
0.0
 42
-0.3639702342665017
  0
VERTEX
  5
1DCC
  8
SAPA_PROFIL
 10
2.5314002438269281
 20
49.200000002260452
 30
0.0
  0
VERTEX
  5
1DCD
  8
SAPA_PROFIL
 10
1.7000000059169531
 20
49.200000002259081
 30
0.0
 42
-0.4373282586277949
  0
VERTEX
  5
1DCE
  8
SAPA_PROFIL
 10
1.2015307256119361
 20
49.739094459581082
 30
0.0
  0
VERTEX
  5
1DCF
  8
SAPA_PROFIL
 10
1.788329488614824
 20
64.212153280972046
 30
0.0
 42
-0.4023941304319243
  0
VERTEX
  5
1DD0
  8
SAPA_PROFIL
 10
2.0880832172278652
 20
64.500000002297128
 30
0.0
  0
VERTEX
  5
1DD1
  8
SAPA_PROFIL
 10
2.8886164355928532
 20
64.500000002297128
 30
0.0
 42
0.2596812337287306
  0
VERTEX
  5
1DD2
  8
SAPA_PROFIL
 10
3.0586472471329258
 20
64.59469319754507
 30
0.0
  0
VERTEX
  5
1DD3
  8
SAPA_PROFIL
 10
3.9550462243729081
 20
66.042039795171121
 30
0.0
 42
0.5877032589232099
  0
VERTEX
  5
1DD4
  8
SAPA_PROFIL
 10
3.7000000070629131
 20
66.500000002297014
 30
0.0
  0
VERTEX
  5
1DD5
  8
SAPA_PROFIL
 10
2.3000000070628221
 20
66.500000002296105
 30
0.0
 42
-0.414213562372984
  0
VERTEX
  5
1DD6
  8
SAPA_PROFIL
 10
2.0000000070619581
 20
66.800000002295036
 30
0.0
  0
VERTEX
  5
1DD7
  8
SAPA_PROFIL
 10
2.0000000070588881
 20
69.20000000229615
 30
0.0
 42
-0.4142135623720961
  0
VERTEX
  5
1DD8
  8
SAPA_PROFIL
 10
2.3000000070589559
 20
69.500000002295195
 30
0.0
  0
VERTEX
  5
1DD9
  8
SAPA_PROFIL
 10
11.900000007057949
 20
69.500000002309065
 30
0.0
 42
-0.414213562373983
  0
VERTEX
  5
1DDA
  8
SAPA_PROFIL
 10
12.20000000705882
 20
69.20000000230911
 30
0.0
  0
VERTEX
  5
1DDB
  8
SAPA_PROFIL
 10
12.200000007064959
 20
64.800000002310043
 30
0.0
 42
0.4142135623732059
  0
VERTEX
  5
1DDC
  8
SAPA_PROFIL
 10
12.50000000706491
 20
64.500000002309065
 30
0.0
  0
VERTEX
  5
1DDD
  8
SAPA_PROFIL
 10
13.984088072417951
 20
64.500000002312134
 30
0.0
 42
0.2596812337310292
  0
VERTEX
  5
1DDE
  8
SAPA_PROFIL
 10
14.15411888395791
 20
64.594693197561085
 30
0.0
  0
VERTEX
  5
1DDF
  8
SAPA_PROFIL
 10
14.555046228508861
 20
65.24203979518515
 30
0.0
 42
0.587703258924552
  0
VERTEX
  5
1DE0
  8
SAPA_PROFIL
 10
14.300000011198859
 20
65.700000002312009
 30
0.0
  0
VERTEX
  5
1DE1
  8
SAPA_PROFIL
 10
13.90000000706296
 20
65.700000002312066
 30
0.0
 42
-0.4142135623722071
  0
VERTEX
  5
1DE2
  8
SAPA_PROFIL
 10
13.60000000706278
 20
66.000000002311111
 30
0.0
  0
VERTEX
  5
1DE3
  8
SAPA_PROFIL
 10
13.60000000705891
 20
69.200000002311043
 30
0.0
 42
-0.4142135623733725
  0
VERTEX
  5
1DE4
  8
SAPA_PROFIL
 10
13.900000007057839
 20
69.500000002311964
 30
0.0
  0
VERTEX
  5
1DE5
  8
SAPA_PROFIL
 10
19.700000007057461
 20
69.500000002320093
 30
0.0
 42
-0.4142135623730948
  0
VERTEX
  5
1DE6
  8
SAPA_PROFIL
 10
20.000000007057871
 20
69.200000002320593
 30
0.0
  0
VERTEX
  5
1DE7
  8
SAPA_PROFIL
 10
20.00000000706196
 20
66.800000002320047
 30
0.0
 42
-0.4142135623726511
  0
VERTEX
  5
1DE8
  8
SAPA_PROFIL
 10
19.70000000706246
 20
66.500000002320093
 30
0.0
  0
VERTEX
  5
1DE9
  8
SAPA_PROFIL
 10
18.30000000706282
 20
66.500000002318046
 30
0.0
 42
0.5877032589253235
  0
VERTEX
  5
1DEA
  8
SAPA_PROFIL
 10
18.044953789752942
 20
66.042039795190107
 30
0.0
  0
VERTEX
  5
1DEB
  8
SAPA_PROFIL
 10
18.81748485882391
 20
64.794693197567057
 30
0.0
 42
0.2596812337293086
  0
VERTEX
  5
1DEC
  8
SAPA_PROFIL
 10
18.987515670363869
 20
64.700000002318035
 30
0.0
  0
VERTEX
  5
1DED
  8
SAPA_PROFIL
 10
22.00598367021151
 20
64.700000002333724
 30
0.0
  0
VERTEX
  5
1DEE
  8
SAPA_PROFIL
 10
23.323281346462661
 20
65.209146401650827
 30
0.0
 42
-0.4142135623730953
  0
VERTEX
  5
1DEF
  8
SAPA_PROFIL
 10
23.697466301938469
 20
65.00918235714343
 30
0.0
  0
VERTEX
  5
1DF0
  8
SAPA_PROFIL
 10
23.711984711185568
 20
64.961336607144943
 30
0.0
  0
VERTEX
  5
1DF1
  8
SAPA_PROFIL
 10
25.21508579194758
 20
64.961252999261333
 30
0.0
 42
0.4769755326981653
  0
VERTEX
  5
1DF2
  8
SAPA_PROFIL
 10
25.517338616454051
 20
65.332909874207161
 30
0.0
  0
VERTEX
  5
1DF3
  8
SAPA_PROFIL
 10
25.135892020326331
 20
67.146140344865415
 30
0.0
 42
0.2216946626430223
  0
VERTEX
  5
1DF4
  8
SAPA_PROFIL
 10
24.730083115171531
 20
67.687020176342202
 30
0.0
  0
SEQEND
  5
1DF5
  8
SAPA_PROFIL
  0
POLYLINE
  5
1397
  8
SAPA_PROFIL
 66
     1
 10
0.0
 20
0.0
 30
0.0
 70
     1
  0
VERTEX
  5
1DF6
  8
SAPA_PROFIL
 10
20.300000003841841
 20
87.500000002320093
 30
0.0
  0
VERTEX
  5
1DF7
  8
SAPA_PROFIL
 10
20.300000003843891
 20
85.900000002321093
 30
0.0
 42
-0.4142135623730951
  0
VERTEX
  5
1DF8
  8
SAPA_PROFIL
 10
20.100000003843849
 20
85.700000002320124
 30
0.0
  0
VERTEX
  5
1DF9
  8
SAPA_PROFIL
 10
19.9000000038438
 20
85.700000002321161
 30
0.0
 42
0.4142135623715967
  0
VERTEX
  5
1DFA
  8
SAPA_PROFIL
 10
19.700000003843869
 20
85.500000002320078
 30
0.0
  0
VERTEX
  5
1DFB
  8
SAPA_PROFIL
 10
19.700000003846931
 20
83.900000002320056
 30
0.0
 42
0.4142135623730951
  0
VERTEX
  5
1DFC
  8
SAPA_PROFIL
 10
19.90000000384687
 20
83.700000002320138
 30
0.0
  0
VERTEX
  5
1DFD
  8
SAPA_PROFIL
 10
20.100000003846802
 20
83.700000002320138
 30
0.0
 42
-0.4142135623730951
  0
VERTEX
  5
1DFE
  8
SAPA_PROFIL
 10
20.300000003846851
 20
83.500000002320093
 30
0.0
  0
VERTEX
  5
1DFF
  8
SAPA_PROFIL
 10
20.300000003857761
 20
75.500000002320093
 30
0.0
 42
-0.4142135623730951
  0
VERTEX
  5
1E00
  8
SAPA_PROFIL
 10
20.100000003857939
 20
75.30000000232107
 30
0.0
  0
VERTEX
  5
1E01
  8
SAPA_PROFIL
 10
19.900000003857901
 20
75.300000002319138
 30
0.0
 42
0.4142135623730951
  0
VERTEX
  5
1E02
  8
SAPA_PROFIL
 10
19.700000003858872
 20
75.100000002320115
 30
0.0
  0
VERTEX
  5
1E03
  8
SAPA_PROFIL
 10
19.700000003860811
 20
73.500000002320093
 30
0.0
 42
0.4142135623730951
  0
VERTEX
  5
1E04
  8
SAPA_PROFIL
 10
19.90000000386085
 20
73.300000002320047
 30
0.0
  0
VERTEX
  5
1E05
  8
SAPA_PROFIL
 10
20.100000003860899
 20
73.300000002321184
 30
0.0
 42
-0.4142135623730951
  0
VERTEX
  5
1E06
  8
SAPA_PROFIL
 10
20.300000003860941
 20
73.100000002321138
 30
0.0
  0
VERTEX
  5
1E07
  8
SAPA_PROFIL
 10
20.300000003863911
 20
71.500000002320093
 30
0.0
 42
-0.4142135623730951
  0
VERTEX
  5
1E08
  8
SAPA_PROFIL
 10
20.000000003863949
 20
71.200000002320138
 30
0.0
  0
VERTEX
  5
1E09
  8
SAPA_PROFIL
 10
2.0000000038639469
 20
71.20000000229615
 30
0.0
 42
-0.4142135624873408
  0
VERTEX
  5
1E0A
  8
SAPA_PROFIL
 10
1.700000003863992
 20
71.500000002413088
 30
0.0
  0
VERTEX
  5
1E0B
  8
SAPA_PROFIL
 10
1.700000004487906
 20
73.100000002374117
 30
0.0
 42
-0.4142135622558857
  0
VERTEX
  5
1E0C
  8
SAPA_PROFIL
 10
1.9000000044868139
 20
73.30000000229515
 30
0.0
  0
VERTEX
  5
1E0D
  8
SAPA_PROFIL
 10
2.100000004648864
 20
73.300000002296059
 30
0.0
 42
0.414213562251557
  0
VERTEX
  5
1E0E
  8
SAPA_PROFIL
 10
2.3000000046478859
 20
73.500000002213113
 30
0.0
  0
VERTEX
  5
1E0F
  8
SAPA_PROFIL
 10
2.3000000053098839
 20
75.100000002213136
 30
0.0
 42
0.4142135624946331
  0
VERTEX
  5
1E10
  8
SAPA_PROFIL
 10
2.1000000053088161
 20
75.300000002296173
 30
0.0
  0
VERTEX
  5
1E11
  8
SAPA_PROFIL
 10
1.900000003733866
 20
75.30000000229515
 30
0.0
 42
-0.4142135623730951
  0
VERTEX
  5
1E12
  8
SAPA_PROFIL
 10
1.7000000037339349
 20
75.500000002295081
 30
0.0
  0
VERTEX
  5
1E13
  8
SAPA_PROFIL
 10
1.7000000037229051
 20
83.500000002295081
 30
0.0
 42
-0.41421356237163
  0
VERTEX
  5
1E14
  8
SAPA_PROFIL
 10
1.900000003721928
 20
83.700000002294999
 30
0.0
  0
VERTEX
  5
1E15
  8
SAPA_PROFIL
 10
2.1000000052979
 20
83.700000002296136
 30
0.0
 42
0.4142135624946331
  0
VERTEX
  5
1E16
  8
SAPA_PROFIL
 10
2.300000005297945
 20
83.900000002379073
 30
0.0
  0
VERTEX
  5
1E17
  8
SAPA_PROFIL
 10
2.300000004631968
 20
85.500000002379096
 30
0.0
 42
0.4142135622515237
  0
VERTEX
  5
1E18
  8
SAPA_PROFIL
 10
2.100000004631922
 20
85.70000000229615
 30
0.0
  0
VERTEX
  5
1E19
  8
SAPA_PROFIL
 10
1.900000004470896
 20
85.70000000229615
 30
0.0
 42
-0.4142135622574175
  0
VERTEX
  5
1E1A
  8
SAPA_PROFIL
 10
1.700000004470851
 20
85.900000002217055
 30
0.0
  0
VERTEX
  5
1E1B
  8
SAPA_PROFIL
 10
1.7000000038419349
 20
87.500000002178083
 30
0.0
 42
-0.4142135624873075
  0
VERTEX
  5
1E1C
  8
SAPA_PROFIL
 10
2.0000000038408672
 20
87.800000002294013
 30
0.0
  0
VERTEX
  5
1E1D
  8
SAPA_PROFIL
 10
20.000000003840871
 20
87.800000002320047
 30
0.0
 42
-0.414213562374094
  0
SEQEND
  5
1E1E
  8
SAPA_PROFIL
  0
POLYLINE
  5
1398
  8
SAPA_PROFIL
 66
     1
 10
0.0
 20
0.0
 30
0.0
 70
     1
  0
VERTEX
  5
1E1F
  8
SAPA_PROFIL
 10
64.0000000037939
 20
73.844486375045051
 30
0.0
 42
-0.267949192431007
  0
VERTEX
  5
1E20
  8
SAPA_PROFIL
 10
63.7500000037939
 20
73.411473673153012
 30
0.0
  0
VERTEX
  5
1E21
  8
SAPA_PROFIL
 10
62.000000003793453
 20
72.40111070207098
 30
0.0
 42
0.2679491924311281
  0
VERTEX
  5
1E22
  8
SAPA_PROFIL
 10
61.500000003793453
 20
71.535085298286447
 30
0.0
  0
VERTEX
  5
1E23
  8
SAPA_PROFIL
 10
61.50000000379368
 20
70.149444652231466
 30
0.0
 42
0.57735026918954
  0
VERTEX
  5
1E24
  8
SAPA_PROFIL
 10
61.800000003793627
 20
69.97623957147465
 30
0.0
  0
VERTEX
  5
1E25
  8
SAPA_PROFIL
 10
63.400000003793309
 20
70.900000002177819
 30
0.0
  0
VERTEX
  5
1E26
  8
SAPA_PROFIL
 10
63.700000003793491
 20
70.900000002177819
 30
0.0
 42
-0.41421356237306
  0
VERTEX
  5
1E27
  8
SAPA_PROFIL
 10
64.000000003793673
 20
70.600000002177637
 30
0.0
  0
VERTEX
  5
1E28
  8
SAPA_PROFIL
 10
64.000000003793673
 20
66.747213597678126
 30
0.0
 42
0.2036002236709541
  0
VERTEX
  5
1E29
  8
SAPA_PROFIL
 10
64.091725136757475
 20
66.531293288857739
 30
0.0
 42
-0.8292414158604859
  0
VERTEX
  5
1E2A
  8
SAPA_PROFIL
 10
63.895591848226047
 20
66.199297655838052
 30
0.0
  0
VERTEX
  5
1E2B
  8
SAPA_PROFIL
 10
63.724037801602151
 20
66.251354355899764
 30
0.0
  0
VERTEX
  5
1E2C
  8
SAPA_PROFIL
 10
61.83819410974133
 20
67.335918802871603
 30
0.0
  0
VERTEX
  5
1E2D
  8
SAPA_PROFIL
 10
61.848755475968062
 20
67.657676531089635
 30
0.0
 42
0.5773502691894565
  0
VERTEX
  5
1E2E
  8
SAPA_PROFIL
 10
61.55459917571347
 20
67.840630271200041
 30
0.0
  0
VERTEX
  5
1E2F
  8
SAPA_PROFIL
 10
61.269916892482293
 20
67.688496360091847
 30
0.0
 42
0.2216946626431577
  0
VERTEX
  5
1E30
  8
SAPA_PROFIL
 10
60.864107987327031
 20
67.147616528614378
 30
0.0
  0
VERTEX
  5
1E31
  8
SAPA_PROFIL
 10
60.482661391199322
 20
65.334386057956578
 30
0.0
 42
0.4757248385987928
  0
VERTEX
  5
1E32
  8
SAPA_PROFIL
 10
60.783657481657151
 20
64.962729113106377
 30
0.0
  0
VERTEX
  5
1E33
  8
SAPA_PROFIL
 10
62.288015296467798
 20
64.96281279089402
 30
0.0
  0
VERTEX
  5
1E34
  8
SAPA_PROFIL
 10
62.302533705715128
 20
65.010658540892507
 30
0.0
 42
-0.4580511809928869
  0
VERTEX
  5
1E35
  8
SAPA_PROFIL
 10
62.717914088264202
 20
65.19472625654538
 30
0.0
  0
VERTEX
  5
1E36
  8
SAPA_PROFIL
 10
64.000000003793446
 20
64.700000002178001
 30
0.0
  0
VERTEX
  5
1E37
  8
SAPA_PROFIL
 10
67.012484337301814
 20
64.700000002178001
 30
0.0
 42
0.2596812337301257
  0
VERTEX
  5
1E38
  8
SAPA_PROFIL
 10
67.182515148841901
 20
64.794693197426056
 30
0.0
  0
VERTEX
  5
1E39
  8
SAPA_PROFIL
 10
67.955046217911502
 20
66.04203979505013
 30
0.0
 42
0.5877032589249617
  0
VERTEX
  5
1E3A
  8
SAPA_PROFIL
 10
67.700000000601392
 20
66.500000002177714
 30
0.0
  0
VERTEX
  5
1E3B
  8
SAPA_PROFIL
 10
66.265821214210916
 20
66.500000002177714
 30
0.0
 42
-0.4683749459842228
  0
VERTEX
  5
1E3C
  8
SAPA_PROFIL
 10
66.000000000601347
 20
66.80000000217791
 30
0.0
  0
VERTEX
  5
1E3D
  8
SAPA_PROFIL
 10
66.000000000601574
 20
69.200000002177546
 30
0.0
 42
-0.4683749459847173
  0
VERTEX
  5
1E3E
  8
SAPA_PROFIL
 10
66.265821214211144
 20
69.500000002177728
 30
0.0
  0
VERTEX
  5
1E3F
  8
SAPA_PROFIL
 10
72.100000000601483
 20
69.500000002177728
 30
0.0
  0
VERTEX
  5
1E40
  8
SAPA_PROFIL
 10
74.100000000601483
 20
69.500000002177728
 30
0.0
  0
VERTEX
  5
1E41
  8
SAPA_PROFIL
 10
83.700000000601392
 20
69.500000002177728
 30
0.0
 42
-0.4142135623730951
  0
VERTEX
  5
1E42
  8
SAPA_PROFIL
 10
84.000000000601347
 20
69.200000002178001
 30
0.0
  0
VERTEX
  5
1E43
  8
SAPA_PROFIL
 10
84.000000000601347
 20
66.80000000217791
 30
0.0
 42
-0.4142135623730951
  0
VERTEX
  5
1E44
  8
SAPA_PROFIL
 10
83.700000000601392
 20
66.500000002177714
 30
0.0
  0
VERTEX
  5
1E45
  8
SAPA_PROFIL
 10
82.300000000601301
 20
66.500000002177714
 30
0.0
 42
0.5877032589248625
  0
VERTEX
  5
1E46
  8
SAPA_PROFIL
 10
82.044953783291405
 20
66.04203979505013
 30
0.0
  0
VERTEX
  5
1E47
  8
SAPA_PROFIL
 10
82.941352760533562
 20
64.594693197426224
 30
0.0
 42
0.2596812337300832
  0
VERTEX
  5
1E48
  8
SAPA_PROFIL
 10
83.111383572073635
 20
64.500000002177728
 30
0.0
  0
VERTEX
  5
1E49
  8
SAPA_PROFIL
 10
85.800000003751109
 20
64.500000002177728
 30
0.0
 42
0.4142135623731107
  0
VERTEX
  5
1E4A
  8
SAPA_PROFIL
 10
86.000000003751154
 20
64.700000002178001
 30
0.0
  0
VERTEX
  5
1E4B
  8
SAPA_PROFIL
 10
86.000000003751154
 20
94.30000000217791
 30
0.0
 42
0.4142135623730273
  0
VERTEX
  5
1E4C
  8
SAPA_PROFIL
 10
85.800000003751109
 20
94.500000002177728
 30
0.0
  0
VERTEX
  5
1E4D
  8
SAPA_PROFIL
 10
83.111383572073393
 20
94.500000002177728
 30
0.0
 42
0.2596812337302099
  0
VERTEX
  5
1E4E
  8
SAPA_PROFIL
 10
82.941352760533334
 20
94.405306806929673
 30
0.0
  0
VERTEX
  5
1E4F
  8
SAPA_PROFIL
 10
82.044953783291177
 20
92.957960209305796
 30
0.0
 42
0.5877032589250762
  0
VERTEX
  5
1E50
  8
SAPA_PROFIL
 10
82.300000000601301
 20
92.500000002177714
 30
0.0
  0
VERTEX
  5
1E51
  8
SAPA_PROFIL
 10
83.700000000601392
 20
92.500000002177714
 30
0.0
 42
-0.4142135623730951
  0
VERTEX
  5
1E52
  8
SAPA_PROFIL
 10
84.000000000601347
 20
92.200000002177987
 30
0.0
  0
VERTEX
  5
1E53
  8
SAPA_PROFIL
 10
84.000000000601347
 20
89.800000002177896
 30
0.0
 42
-0.4142135623730951
  0
VERTEX
  5
1E54
  8
SAPA_PROFIL
 10
83.700000000601392
 20
89.500000002177728
 30
0.0
  0
VERTEX
  5
1E55
  8
SAPA_PROFIL
 10
74.100000000601256
 20
89.500000002177728
 30
0.0
  0
VERTEX
  5
1E56
  8
SAPA_PROFIL
 10
72.100000000601256
 20
89.500000002177728
 30
0.0
  0
VERTEX
  5
1E57
  8
SAPA_PROFIL
 10
66.265821214211599
 20
89.500000002177728
 30
0.0
 42
-0.4683749459843959
  0
VERTEX
  5
1E58
  8
SAPA_PROFIL
 10
66.000000000601347
 20
89.800000002177455
 30
0.0
  0
VERTEX
  5
1E59
  8
SAPA_PROFIL
 10
66.000000000601347
 20
92.200000002177987
 30
0.0
 42
-0.4683749459842226
  0
VERTEX
  5
1E5A
  8
SAPA_PROFIL
 10
66.265821214210916
 20
92.500000002177714
 30
0.0
  0
VERTEX
  5
1E5B
  8
SAPA_PROFIL
 10
67.700000000601165
 20
92.500000002177714
 30
0.0
 42
0.5877032589249771
  0
VERTEX
  5
1E5C
  8
SAPA_PROFIL
 10
67.955046217911274
 20
92.957960209305796
 30
0.0
  0
VERTEX
  5
1E5D
  8
SAPA_PROFIL
 10
67.182515148841901
 20
94.205306806929386
 30
0.0
 42
0.2596812337301256
  0
VERTEX
  5
1E5E
  8
SAPA_PROFIL
 10
67.012484337301814
 20
94.30000000217791
 30
0.0
  0
VERTEX
  5
1E5F
  8
SAPA_PROFIL
 10
64.000000003793446
 20
94.30000000217791
 30
0.0
  0
VERTEX
  5
1E60
  8
SAPA_PROFIL
 10
62.717914088264429
 20
93.805273747810531
 30
0.0
 42
-0.4580511809929225
  0
VERTEX
  5
1E61
  8
SAPA_PROFIL
 10
62.302533705715582
 20
93.989341463463404
 30
0.0
  0
VERTEX
  5
1E62
  8
SAPA_PROFIL
 10
62.288015296468018
 20
94.037187213461891
 30
0.0
  0
VERTEX
  5
1E63
  8
SAPA_PROFIL
 10
60.783657481651922
 20
94.037270891249534
 30
0.0
 42
0.4757248385933691
  0
VERTEX
  5
1E64
  8
SAPA_PROFIL
 10
60.48266139119977
 20
93.665613946399773
 30
0.0
  0
VERTEX
  5
1E65
  8
SAPA_PROFIL
 10
60.864107987327259
 20
91.852383475741533
 30
0.0
 42
0.2350054070140314
  0
VERTEX
  5
1E66
  8
SAPA_PROFIL
 10
61.306088780049727
 20
91.293334558858476
 30
0.0
 42
-0.0011882050611145
  0
VERTEX
  5
1E67
  8
SAPA_PROFIL
 10
61.304731102367157
 20
91.292898967317754
 30
0.0
  0
VERTEX
  5
1E68
  8
SAPA_PROFIL
 10
61.554599175713697
 20
91.15936973315587
 30
0.0
 42
0.5773502691894562
  0
VERTEX
  5
1E69
  8
SAPA_PROFIL
 10
61.848755475968296
 20
91.342323473265822
 30
0.0
  0
VERTEX
  5
1E6A
  8
SAPA_PROFIL
 10
61.838194109741551
 20
91.664081201484294
 30
0.0
  0
VERTEX
  5
1E6B
  8
SAPA_PROFIL
 10
63.72403780160284
 20
92.748645648456133
 30
0.0
  0
VERTEX
  5
1E6C
  8
SAPA_PROFIL
 10
63.895591848226282
 20
92.800702348517859
 30
0.0
 42
-0.8292414158590609
  0
VERTEX
  5
1E6D
  8
SAPA_PROFIL
 10
64.091725136758157
 20
92.468706715499081
 30
0.0
 42
0.2036002236714843
  0
VERTEX
  5
1E6E
  8
SAPA_PROFIL
 10
64.0000000037939
 20
92.252786406678226
 30
0.0
  0
VERTEX
  5
1E6F
  8
SAPA_PROFIL
 10
64.0000000037939
 20
88.400000002178274
 30
0.0
 42
-0.4142135623731708
  0
VERTEX
  5
1E70
  8
SAPA_PROFIL
 10
63.700000003793733
 20
88.100000002178106
 30
0.0
  0
VERTEX
  5
1E71
  8
SAPA_PROFIL
 10
63.400000003793551
 20
88.100000002178106
 30
0.0
  0
VERTEX
  5
1E72
  8
SAPA_PROFIL
 10
61.800000003794089
 20
89.023760432881716
 30
0.0
 42
0.5773502691897499
  0
VERTEX
  5
1E73
  8
SAPA_PROFIL
 10
61.500000003793907
 20
88.8505553521249
 30
0.0
  0
VERTEX
  5
1E74
  8
SAPA_PROFIL
 10
61.50000000379368
 20
87.464914706069465
 30
0.0
 42
0.2679491924311548
  0
VERTEX
  5
1E75
  8
SAPA_PROFIL
 10
62.00000000379368
 20
86.598889302284931
 30
0.0
  0
VERTEX
  5
1E76
  8
SAPA_PROFIL
 10
63.7500000037939
 20
85.5885263312029
 30
0.0
 42
-0.2679491924310984
  0
VERTEX
  5
1E77
  8
SAPA_PROFIL
 10
64.0000000037939
 20
85.155513629310406
 30
0.0
  0
SEQEND
  5
1E78
  8
SAPA_PROFIL
  0
POLYLINE
  5
1399
  8
SAPA_PROFIL
 66
     1
 10
0.0
 20
0.0
 30
0.0
 70
     1
  0
VERTEX
  5
1E79
  8
SAPA_PROFIL
 10
66.000000007193464
 20
71.200000002339607
 30
0.0
 42
-0.4142135623730951
  0
VERTEX
  5
1E7A
  8
SAPA_PROFIL
 10
65.700000007193466
 20
71.500000002339618
 30
0.0
  0
VERTEX
  5
1E7B
  8
SAPA_PROFIL
 10
65.700000007193466
 20
73.000000002339618
 30
0.0
 42
-0.414213562372978
  0
VERTEX
  5
1E7C
  8
SAPA_PROFIL
 10
65.900000007193341
 20
73.200000002339607
 30
0.0
  0
VERTEX
  5
1E7D
  8
SAPA_PROFIL
 10
66.000000006239816
 20
73.200000002339607
 30
0.0
 42
0.4142135624945221
  0
VERTEX
  5
1E7E
  8
SAPA_PROFIL
 10
66.300000006239827
 20
73.500000002463992
 30
0.0
  0
VERTEX
  5
1E7F
  8
SAPA_PROFIL
 10
66.300000005659399
 20
74.900000002464026
 30
0.0
 42
0.4142135622516715
  0
VERTEX
  5
1E80
  8
SAPA_PROFIL
 10
66.000000005659373
 20
75.200000002339607
 30
0.0
  0
VERTEX
  5
1E81
  8
SAPA_PROFIL
 10
65.900000007031451
 20
75.200000002339607
 30
0.0
 42
-0.4142135621360125
  0
VERTEX
  5
1E82
  8
SAPA_PROFIL
 10
65.700000007031463
 20
75.400000002177705
 30
0.0
  0
VERTEX
  5
1E83
  8
SAPA_PROFIL
 10
65.700000000555974
 20
83.600000002177751
 30
0.0
 42
-0.4142135626101776
  0
VERTEX
  5
1E84
  8
SAPA_PROFIL
 10
65.900000000555963
 20
83.800000002339615
 30
0.0
  0
VERTEX
  5
1E85
  8
SAPA_PROFIL
 10
66.000000001928072
 20
83.800000002339615
 30
0.0
 42
0.4142135624945291
  0
VERTEX
  5
1E86
  8
SAPA_PROFIL
 10
66.300000001928083
 20
84.100000002464014
 30
0.0
  0
VERTEX
  5
1E87
  8
SAPA_PROFIL
 10
66.300000001347598
 20
85.500000002463992
 30
0.0
 42
0.4142135622516611
  0
VERTEX
  5
1E88
  8
SAPA_PROFIL
 10
66.000000001347587
 20
85.800000002339644
 30
0.0
  0
VERTEX
  5
1E89
  8
SAPA_PROFIL
 10
65.900000001144974
 20
85.800000002339644
 30
0.0
 42
-0.4142135622584299
  0
VERTEX
  5
1E8A
  8
SAPA_PROFIL
 10
65.700000001144929
 20
86.000000002261345
 30
0.0
  0
VERTEX
  5
1E8B
  8
SAPA_PROFIL
 10
65.700000000520959
 20
87.500000002214847
 30
0.0
 42
-0.4142135624949384
  0
VERTEX
  5
1E8C
  8
SAPA_PROFIL
 10
66.00000000052097
 20
87.80000000233963
 30
0.0
  0
VERTEX
  5
1E8D
  8
SAPA_PROFIL
 10
84.000000010960164
 20
87.80000000233963
 30
0.0
 42
-0.4142135623730743
  0
VERTEX
  5
1E8E
  8
SAPA_PROFIL
 10
84.300000010960176
 20
87.500000002339675
 30
0.0
  0
VERTEX
  5
1E8F
  8
SAPA_PROFIL
 10
84.300000010960275
 20
86.000000002339604
 30
0.0
 42
-0.4142135623730951
  0
VERTEX
  5
1E90
  8
SAPA_PROFIL
 10
84.100000010960287
 20
85.800000002339644
 30
0.0
  0
VERTEX
  5
1E91
  8
SAPA_PROFIL
 10
84.000000010960164
 20
85.800000002339644
 30
0.0
 42
0.4142135623731125
  0
VERTEX
  5
1E92
  8
SAPA_PROFIL
 10
83.700000010960139
 20
85.500000002339618
 30
0.0
  0
VERTEX
  5
1E93
  8
SAPA_PROFIL
 10
83.700000010960139
 20
84.100000002339641
 30
0.0
 42
0.4142135623730951
  0
VERTEX
  5
1E94
  8
SAPA_PROFIL
 10
84.000000010960164
 20
83.800000002339615
 30
0.0
  0
VERTEX
  5
1E95
  8
SAPA_PROFIL
 10
84.100000010960173
 20
83.800000002339615
 30
0.0
 42
-0.4142135623730951
  0
VERTEX
  5
1E96
  8
SAPA_PROFIL
 10
84.300000010960176
 20
83.600000002339655
 30
0.0
  0
VERTEX
  5
1E97
  8
SAPA_PROFIL
 10
84.300000010960176
 20
75.400000002339596
 30
0.0
 42
-0.4142135623730951
  0
VERTEX
  5
1E98
  8
SAPA_PROFIL
 10
84.100000010960173
 20
75.200000002339607
 30
0.0
  0
VERTEX
  5
1E99
  8
SAPA_PROFIL
 10
84.000000010960164
 20
75.200000002339607
 30
0.0
 42
0.4142135623730951
  0
VERTEX
  5
1E9A
  8
SAPA_PROFIL
 10
83.700000010960139
 20
74.900000002339652
 30
0.0
  0
VERTEX
  5
1E9B
  8
SAPA_PROFIL
 10
83.700000010960139
 20
73.500000002339604
 30
0.0
 42
0.4142135623730951
  0
VERTEX
  5
1E9C
  8
SAPA_PROFIL
 10
84.000000010960164
 20
73.200000002339607
 30
0.0
  0
VERTEX
  5
1E9D
  8
SAPA_PROFIL
 10
84.100000010960173
 20
73.200000002339607
 30
0.0
 42
-0.4142135623730951
  0
VERTEX
  5
1E9E
  8
SAPA_PROFIL
 10
84.300000010960176
 20
73.000000002339618
 30
0.0
  0
VERTEX
  5
1E9F
  8
SAPA_PROFIL
 10
84.300000010960275
 20
71.500000002339618
 30
0.0
 42
-0.4142135623731159
  0
VERTEX
  5
1EA0
  8
SAPA_PROFIL
 10
84.000000010960264
 20
71.200000002339607
 30
0.0
  0
SEQEND
  5
1EA1
  8
SAPA_PROFIL
  0
POLYLINE
  5
139A
  8
SAPA_PROFIL
 62
     4
 66
     1
 10
0.0
 20
0.0
 30
0.0
  0
VERTEX
  5
1EA2
  8
SAPA_PROFIL
 62
     4
 10
52.049329126332502
 20
91.595904724064894
 30
0.0
 42
-0.5571646428658034
  0
VERTEX
  5
1EA3
  8
SAPA_PROFIL
 62
     4
 10
51.512368622195659
 20
90.728185809909348
 30
0.0
  0
VERTEX
  5
1EA4
  8
SAPA_PROFIL
 62
     4
 10
34.487631385674462
 20
90.728185809909803
 30
0.0
 42
-0.5571645048035741
  0
VERTEX
  5
1EA5
  8
SAPA_PROFIL
 62
     4
 10
33.950670768713408
 20
91.595904497775976
 30
0.0
  0
VERTEX
  5
1EA6
  8
SAPA_PROFIL
 62
     4
 10
34.781377856260107
 20
93.262045153844014
 30
0.0
 42
-0.284385813979063
  0
VERTEX
  5
1EA7
  8
SAPA_PROFIL
 62
     4
 10
35.049858164740463
 20
93.428185809911454
 30
0.0
  0
VERTEX
  5
1EA8
  8
SAPA_PROFIL
 62
     4
 10
50.950141843129771
 20
93.42818580991144
 30
0.0
 42
-0.2843858139786238
  0
VERTEX
  5
1EA9
  8
SAPA_PROFIL
 62
     4
 10
51.218622151610049
 20
93.262045153844525
 30
0.0
  0
VERTEX
  5
1EAA
  8
SAPA_PROFIL
 62
     4
 10
52.049329239157217
 20
91.595904497775166
 30
0.0
  0
SEQEND
  5
1EAB
  8
SAPA_PROFIL
 62
     4
  0
POLYLINE
  5
139B
  8
SAPA_PROFIL
 62
     4
 66
     1
 10
0.0
 20
0.0
 30
0.0
 70
     1
  0
VERTEX
  5
1EAC
  8
SAPA_PROFIL
 62
     4
 10
28.58238881926782
 20
93.785017324409026
 30
0.0
  0
VERTEX
  5
1EAD
  8
SAPA_PROFIL
 62
     4
 10
28.318365540891811
 20
94.191577520413162
 30
0.0
 42
0.2539676464751066
  0
VERTEX
  5
1EAE
  8
SAPA_PROFIL
 62
     4
 10
28.066764370507101
 20
94.328185809909272
 30
0.0
  0
VERTEX
  5
1EAF
  8
SAPA_PROFIL
 62
     4
 10
26.685264785301751
 20
94.328185809909272
 30
0.0
 42
0.3152987888790479
  0
VERTEX
  5
1EB0
  8
SAPA_PROFIL
 62
     4
 10
26.215418474909441
 20
93.999195881571111
 30
0.0
  0
VERTEX
  5
1EB1
  8
SAPA_PROFIL
 62
     4
 10
25.319749534000842
 20
91.538365691119836
 30
0.0
 42
-0.2694959974287434
  0
VERTEX
  5
1EB2
  8
SAPA_PROFIL
 62
     4
 10
25.088230487599478
 20
91.345233716775937
 30
0.0
 42
-0.0612686379508233
  0
VERTEX
  5
1EB3
  8
SAPA_PROFIL
 62
     4
 10
24.795555054746199
 20
91.331650346145423
 30
0.0
  0
VERTEX
  5
1EB4
  8
SAPA_PROFIL
 62
     4
 10
24.44613687743793
 20
91.129913667416602
 30
0.0
 42
-0.5773502691891679
  0
VERTEX
  5
1EB5
  8
SAPA_PROFIL
 62
     4
 10
24.131136877438351
 20
91.311779002211154
 30
0.0
  0
VERTEX
  5
1EB6
  8
SAPA_PROFIL
 62
     4
 10
24.131136877438109
 20
91.578893530337481
 30
0.0
  0
VERTEX
  5
1EB7
  8
SAPA_PROFIL
 62
     4
 10
22.732609176803852
 20
92.387576991645801
 30
0.0
 42
0.1318219888653519
  0
VERTEX
  5
1EB8
  8
SAPA_PROFIL
 62
     4
 10
22.582436074331511
 20
92.427869388183197
 30
0.0
  0
VERTEX
  5
1EB9
  8
SAPA_PROFIL
 62
     4
 10
22.400000003894728
 20
92.427869388176831
 30
0.0
 42
0.4142135623724291
  0
VERTEX
  5
1EBA
  8
SAPA_PROFIL
 62
     4
 10
22.000000003894179
 20
92.027869388177194
 30
0.0
  0
VERTEX
  5
1EBB
  8
SAPA_PROFIL
 62
     4
 10
22.000000003895551
 20
88.627869388176194
 30
0.0
 42
0.4142135623744271
  0
VERTEX
  5
1EBC
  8
SAPA_PROFIL
 62
     4
 10
22.400000003894728
 20
88.227869388175193
 30
0.0
  0
VERTEX
  5
1EBD
  8
SAPA_PROFIL
 62
     4
 10
22.579615246166028
 20
88.227869388174554
 30
0.0
 42
0.1316524975874005
  0
VERTEX
  5
1EBE
  8
SAPA_PROFIL
 62
     4
 10
22.729615246162851
 20
88.268061767040166
 30
0.0
  0
VERTEX
  5
1EBF
  8
SAPA_PROFIL
 62
     4
 10
24.333753143165101
 20
89.194211213692682
 30
0.0
 42
-0.1316524975875904
  0
VERTEX
  5
1EC0
  8
SAPA_PROFIL
 62
     4
 10
24.83375314316682
 20
89.328185809907467
 30
0.0
  0
VERTEX
  5
1EC1
  8
SAPA_PROFIL
 62
     4
 10
25.25000000389419
 20
89.328185809907467
 30
0.0
 42
-0.4142135623730951
  0
VERTEX
  5
1EC2
  8
SAPA_PROFIL
 62
     4
 10
26.250000003894179
 20
88.328185809907438
 30
0.0
  0
VERTEX
  5
1EC3
  8
SAPA_PROFIL
 62
     4
 10
26.250000003894179
 20
85.328185809910167
 30
0.0
 42
0.9999996830128083
  0
VERTEX
  5
1EC4
  8
SAPA_PROFIL
 62
     4
 10
27.250000003894179
 20
85.328185809908362
 30
0.0
  0
VERTEX
  5
1EC5
  8
SAPA_PROFIL
 62
     4
 10
27.250000003894179
 20
88.328185809908376
 30
0.0
 42
-0.4142135623730951
  0
VERTEX
  5
1EC6
  8
SAPA_PROFIL
 62
     4
 10
28.250000003894179
 20
89.328185809908362
 30
0.0
  0
VERTEX
  5
1EC7
  8
SAPA_PROFIL
 62
     4
 10
57.750000003978769
 20
89.328185809908348
 30
0.0
 42
-0.4142135623730951
  0
VERTEX
  5
1EC8
  8
SAPA_PROFIL
 62
     4
 10
58.750000003978769
 20
88.328185809908348
 30
0.0
  0
VERTEX
  5
1EC9
  8
SAPA_PROFIL
 62
     4
 10
58.750000003978769
 20
85.328185809910167
 30
0.0
 42
0.9999999999999998
  0
VERTEX
  5
1ECA
  8
SAPA_PROFIL
 62
     4
 10
59.750000003978762
 20
85.328185809910167
 30
0.0
  0
VERTEX
  5
1ECB
  8
SAPA_PROFIL
 62
     4
 10
59.750000003978762
 20
88.328185809908348
 30
0.0
 42
-0.4142135623736278
  0
VERTEX
  5
1ECC
  8
SAPA_PROFIL
 62
     4
 10
60.750000003978769
 20
89.328185809908348
 30
0.0
  0
VERTEX
  5
1ECD
  8
SAPA_PROFIL
 62
     4
 10
61.166246864705222
 20
89.328185809908348
 30
0.0
 42
-0.1316524975874375
  0
VERTEX
  5
1ECE
  8
SAPA_PROFIL
 62
     4
 10
61.666246864705428
 20
89.194211213692299
 30
0.0
  0
VERTEX
  5
1ECF
  8
SAPA_PROFIL
 62
     4
 10
63.270384761707383
 20
88.268061767040138
 30
0.0
 42
0.1316524975874
  0
VERTEX
  5
1ED0
  8
SAPA_PROFIL
 62
     4
 10
63.420384761706913
 20
88.227869388174554
 30
0.0
  0
VERTEX
  5
1ED1
  8
SAPA_PROFIL
 62
     4
 10
63.600000003978217
 20
88.227869388175179
 30
0.0
 42
0.4142135623744271
  0
VERTEX
  5
1ED2
  8
SAPA_PROFIL
 62
     4
 10
64.000000003977405
 20
88.627869388176194
 30
0.0
  0
VERTEX
  5
1ED3
  8
SAPA_PROFIL
 62
     4
 10
64.000000003978769
 20
92.02786938817718
 30
0.0
 42
0.4142135623724291
  0
VERTEX
  5
1ED4
  8
SAPA_PROFIL
 62
     4
 10
63.600000003978217
 20
92.427869388176816
 30
0.0
  0
VERTEX
  5
1ED5
  8
SAPA_PROFIL
 62
     4
 10
63.417563933541437
 20
92.427869388183169
 30
0.0
 42
0.1318219888653524
  0
VERTEX
  5
1ED6
  8
SAPA_PROFIL
 62
     4
 10
63.267390831069093
 20
92.387576991645801
 30
0.0
  0
VERTEX
  5
1ED7
  8
SAPA_PROFIL
 62
     4
 10
61.868863130589453
 20
91.578893530421453
 30
0.0
  0
VERTEX
  5
1ED8
  8
SAPA_PROFIL
 62
     4
 10
61.868863130589453
 20
91.311779002208425
 30
0.0
 42
-0.577350269189159
  0
VERTEX
  5
1ED9
  8
SAPA_PROFIL
 62
     4
 10
61.553863130589839
 20
91.129913667413859
 30
0.0
  0
VERTEX
  5
1EDA
  8
SAPA_PROFIL
 62
     4
 10
61.204444953371173
 20
91.331650346090967
 30
0.0
 42
-0.0612687673629489
  0
VERTEX
  5
1EDB
  8
SAPA_PROFIL
 62
     4
 10
60.911769520270973
 20
91.345233716777173
 30
0.0
 42
-0.2694959974285039
  0
VERTEX
  5
1EDC
  8
SAPA_PROFIL
 62
     4
 10
60.680250473870437
 20
91.538365691121115
 30
0.0
  0
VERTEX
  5
1EDD
  8
SAPA_PROFIL
 62
     4
 10
59.784581532960779
 20
93.999195881574295
 30
0.0
 42
0.3152987888784035
  0
VERTEX
  5
1EDE
  8
SAPA_PROFIL
 62
     4
 10
59.314735222567563
 20
94.328185809910863
 30
0.0
  0
VERTEX
  5
1EDF
  8
SAPA_PROFIL
 62
     4
 10
57.933235637363119
 20
94.328185809909243
 30
0.0
 42
0.2539676464741841
  0
VERTEX
  5
1EE0
  8
SAPA_PROFIL
 62
     4
 10
57.681634466979041
 20
94.191577520413986
 30
0.0
  0
VERTEX
  5
1EE1
  8
SAPA_PROFIL
 62
     4
 10
57.417611188602407
 20
93.785017324408997
 30
0.0
 42
0.5862177598324623
  0
VERTEX
  5
1EE2
  8
SAPA_PROFIL
 62
     4
 10
57.673353003840752
 20
93.328185809912512
 30
0.0
  0
VERTEX
  5
1EE3
  8
SAPA_PROFIL
 62
     4
 10
58.614527684350563
 20
93.328185809920157
 30
0.0
 42
-0.3152987888813165
  0
VERTEX
  5
1EE4
  8
SAPA_PROFIL
 62
     4
 10
59.084373994748319
 20
92.999195881583418
 30
0.0
  0
VERTEX
  5
1EE5
  8
SAPA_PROFIL
 62
     4
 10
59.521138275872268
 20
91.799195881572174
 30
0.0
 42
-0.5205670505515651
  0
VERTEX
  5
1EE6
  8
SAPA_PROFIL
 62
     4
 10
59.051291965479052
 20
91.128185809909439
 30
0.0
  0
VERTEX
  5
1EE7
  8
SAPA_PROFIL
 62
     4
 10
54.034851024810187
 20
91.128185809909425
 30
0.0
 42
-0.3702522326300203
  0
VERTEX
  5
1EE8
  8
SAPA_PROFIL
 62
     4
 10
53.738327663016868
 20
91.382645762575123
 30
0.0
 42
-0.0982365330332397
  0
VERTEX
  5
1EE9
  8
SAPA_PROFIL
 62
     4
 10
53.647874904805931
 20
93.070332537570138
 30
0.0
 42
-0.3735060174783164
  0
VERTEX
  5
1EEA
  8
SAPA_PROFIL
 62
     4
 10
53.944899572716913
 20
93.328185809910167
 30
0.0
  0
VERTEX
  5
1EEB
  8
SAPA_PROFIL
 62
     4
 10
54.373353003839561
 20
93.328185809911076
 30
0.0
 42
0.5920056181162531
  0
VERTEX
  5
1EEC
  8
SAPA_PROFIL
 62
     4
 10
54.626361760156961
 20
93.789389312438985
 30
0.0
  0
VERTEX
  5
1EED
  8
SAPA_PROFIL
 62
     4
 10
54.36517768400126
 20
94.191577520417297
 30
0.0
 42
0.2539676464746725
  0
VERTEX
  5
1EEE
  8
SAPA_PROFIL
 62
     4
 10
54.113576513617502
 20
94.328185809912654
 30
0.0
  0
VERTEX
  5
1EEF
  8
SAPA_PROFIL
 62
     4
 10
31.886423494251812
 20
94.328185809911076
 30
0.0
 42
0.2539676464741819
  0
VERTEX
  5
1EF0
  8
SAPA_PROFIL
 62
     4
 10
31.63482232386896
 20
94.191577520417326
 30
0.0
  0
VERTEX
  5
1EF1
  8
SAPA_PROFIL
 62
     4
 10
31.373638247715149
 20
93.789389312438971
 30
0.0
 42
0.5920055144124249
  0
VERTEX
  5
1EF2
  8
SAPA_PROFIL
 62
     4
 10
31.626647004030659
 20
93.328185809911091
 30
0.0
  0
VERTEX
  5
1EF3
  8
SAPA_PROFIL
 62
     4
 10
32.055100481320878
 20
93.32818583518609
 30
0.0
 42
-0.3735060174775405
  0
VERTEX
  5
1EF4
  8
SAPA_PROFIL
 62
     4
 10
32.352125149230559
 20
93.070332562846005
 30
0.0
 42
-0.0355900683670349
  0
VERTEX
  5
1EF5
  8
SAPA_PROFIL
 62
     4
 10
32.396018713262819
 20
92.454458976046226
 30
0.0
 42
-0.0624282003873116
  0
VERTEX
  5
1EF6
  8
SAPA_PROFIL
 62
     4
 10
32.261672391019879
 20
91.382645787851104
 30
0.0
 42
-0.3702522326309292
  0
VERTEX
  5
1EF7
  8
SAPA_PROFIL
 62
     4
 10
31.965149029226499
 20
91.128185835185377
 30
0.0
  0
VERTEX
  5
1EF8
  8
SAPA_PROFIL
 62
     4
 10
26.94870804239299
 20
91.128185809909226
 30
0.0
 42
-0.5205670505515692
  0
VERTEX
  5
1EF9
  8
SAPA_PROFIL
 62
     4
 10
26.478861731999771
 20
91.799195881572203
 30
0.0
  0
VERTEX
  5
1EFA
  8
SAPA_PROFIL
 62
     4
 10
26.915626013124719
 20
92.999195881581642
 30
0.0
 42
-0.3152987888807539
  0
VERTEX
  5
1EFB
  8
SAPA_PROFIL
 62
     4
 10
27.38547232352057
 20
93.328185809919276
 30
0.0
  0
VERTEX
  5
1EFC
  8
SAPA_PROFIL
 62
     4
 10
28.32664700402966
 20
93.328185809912455
 30
0.0
 42
0.5862175119221242
  0
VERTEX
  5
1EFD
  8
SAPA_PROFIL
 62
     4
 10
28.582388935011611
 20
93.785017135667587
 30
0.0
 42
-0.0000002084758573
  0
SEQEND
  5
1EFE
  8
SAPA_PROFIL
 62
     4
  0
CIRCLE
  5
139C
  8
SAPA_PROFIL
 62
     2
 10
3.9919935952415808
 20
123.63840762519381
 30
0.0
 40
0.8999999999999985
  0
POLYLINE
  5
139D
  8
SAPA_PROFIL
 62
     2
 66
     1
 10
0.0
 20
0.0
 30
0.0
  0
VERTEX
  5
1EFF
  8
SAPA_PROFIL
 62
     2
 10
5.3000000068146269
 20
122.2384076251938
 30
0.0
  0
VERTEX
  5
1F00
  8
SAPA_PROFIL
 62
     2
 10
4.2090811966618844
 20
122.4307660451862
 30
0.0
  0
VERTEX
  5
1F01
  8
SAPA_PROFIL
 62
     2
 10
4.093381657141947
 20
121.9989694852846
 30
0.0
 42
-0.4430158954262519
  0
VERTEX
  5
1F02
  8
SAPA_PROFIL
 62
     2
 10
3.8299052290349769
 20
121.8634924377405
 30
0.0
  0
VERTEX
  5
1F03
  8
SAPA_PROFIL
 62
     2
 10
2.5594174811167809
 20
122.34044063095951
 30
0.0
 42
-0.3125358528825162
  0
VERTEX
  5
1F04
  8
SAPA_PROFIL
 62
     2
 10
2.3000000068150821
 20
122.7149223440889
 30
0.0
  0
VERTEX
  5
1F05
  8
SAPA_PROFIL
 62
     2
 10
2.3000000068146269
 20
124.5850776599992
 30
0.0
 42
-0.3125358528825104
  0
VERTEX
  5
1F06
  8
SAPA_PROFIL
 62
     2
 10
2.5594174811167809
 20
124.9595593731286
 30
0.0
  0
VERTEX
  5
1F07
  8
SAPA_PROFIL
 62
     2
 10
3.8299052290349769
 20
125.4365075663478
 30
0.0
 42
-0.4430158954262519
  0
VERTEX
  5
1F08
  8
SAPA_PROFIL
 62
     2
 10
4.0933816571418333
 20
125.3010305188037
 30
0.0
  0
VERTEX
  5
1F09
  8
SAPA_PROFIL
 62
     2
 10
4.2090811966618844
 20
124.8692339589019
 30
0.0
  0
VERTEX
  5
1F0A
  8
SAPA_PROFIL
 62
     2
 10
5.3000000068146269
 20
125.0615000020441
 30
0.0
  0
SEQEND
  5
1F0B
  8
SAPA_PROFIL
 62
     2
  0
POLYLINE
  5
139E
  8
SAPA_PROFIL
 62
     2
 66
     1
 10
0.0
 20
0.0
 30
0.0
 70
     1
  0
VERTEX
  5
1F0C
  8
SAPA_PROFIL
 62
     2
 10
5.3000000068146269
 20
122.2500000020442
 30
0.0
 42
0.285714285714282
  0
VERTEX
  5
1F0D
  8
SAPA_PROFIL
 62
     2
 10
5.3000000068146269
 20
125.0500000020441
 30
0.0
  0
VERTEX
  5
1F0E
  8
SAPA_PROFIL
 62
     2
 10
5.3000000068150817
 20
127.123780171432
 30
0.0
 42
-0.3882600129940275
  0
VERTEX
  5
1F0F
  8
SAPA_PROFIL
 62
     2
 10
5.5732107330946397
 20
127.4225816687734
 30
0.0
  0
VERTEX
  5
1F10
  8
SAPA_PROFIL
 62
     2
 10
9.4732107330947315
 20
127.8887915926999
 30
0.0
 42
-0.4406523138893894
  0
VERTEX
  5
1F11
  8
SAPA_PROFIL
 62
     2
 10
9.8000000068146278
 20
127.589990095358
 30
0.0
  0
VERTEX
  5
1F12
  8
SAPA_PROFIL
 62
     2
 10
9.8000000068146278
 20
125.8801980984377
 30
0.0
 42
-0.3394542588634375
  0
VERTEX
  5
1F13
  8
SAPA_PROFIL
 62
     2
 10
9.5776457203456289
 20
125.5904203505512
 30
0.0
  0
VERTEX
  5
1F14
  8
SAPA_PROFIL
 62
     2
 10
9.3600599381780398
 20
125.3880406226197
 30
0.0
 42
0.3394542588633663
  0
VERTEX
  5
1F15
  8
SAPA_PROFIL
 62
     2
 10
9.1377056517090391
 20
125.098262874733
 30
0.0
  0
VERTEX
  5
1F16
  8
SAPA_PROFIL
 62
     2
 10
9.1377056517090391
 20
122.2017371293551
 30
0.0
 42
0.3394542588634373
  0
VERTEX
  5
1F17
  8
SAPA_PROFIL
 62
     2
 10
9.3600599381780398
 20
121.91195938146861
 30
0.0
  0
VERTEX
  5
1F18
  8
SAPA_PROFIL
 62
     2
 10
9.5776457203456289
 20
121.70957965353711
 30
0.0
 42
-0.3394542588633662
  0
VERTEX
  5
1F19
  8
SAPA_PROFIL
 62
     2
 10
9.8000000068146278
 20
121.4198019056504
 30
0.0
  0
VERTEX
  5
1F1A
  8
SAPA_PROFIL
 62
     2
 10
9.8000000068146278
 20
119.7100099087303
 30
0.0
 42
-0.4406523138893994
  0
VERTEX
  5
1F1B
  8
SAPA_PROFIL
 62
     2
 10
9.4732107330947315
 20
119.4112084113886
 30
0.0
  0
VERTEX
  5
1F1C
  8
SAPA_PROFIL
 62
     2
 10
5.5732107330946397
 20
119.8774183353149
 30
0.0
 42
-0.3882600129940462
  0
VERTEX
  5
1F1D
  8
SAPA_PROFIL
 62
     2
 10
5.3000000068146269
 20
120.1762198326563
 30
0.0
  0
VERTEX
  5
1F1E
  8
SAPA_PROFIL
 62
     2
 10
5.3000000068146269
 20
122.2384076251938
 30
0.0
  0
SEQEND
  5
1F1F
  8
SAPA_PROFIL
 62
     2
  0
LINE
  5
139F
  8
SAPA_PROFIL
 10
11.50922052184951
 20
116.251473164229
 30
0.0
 11
11.50922052312781
 21
142.501473164229
 31
0.0
  0
ARC
  5
13A0
  8
SAPA_PROFIL
 10
12.170477434080411
 20
116.262868660245
 30
0.0
 40
0.661355094712819
 50
180.9872852633795
 51
260.74317128575632
  0
LINE
  5
13A1
  8
SAPA_PROFIL
 10
207.4273937861137
 20
115.6101262551618
 30
0.0
 11
12.064091722470961
 21
115.6101262595478
 31
0.0
  0
ARC
  5
13A2
  8
SAPA_PROFIL
 10
207.33836904077691
 20
116.3584124730129
 30
0.0
 40
0.7535633145981692
 50
276.78467505544029
 51
359.67698003118352
  0
LINE
  5
13A3
  8
SAPA_PROFIL
 10
208.0919203809211
 20
142.5014731597941
 30
0.0
 11
208.0919203796428
 21
116.35416408489451
 31
0.0
  0
LINE
  5
13A4
  8
SAPA_PROFIL
 10
209.2005704520318
 20
142.50147315973319
 30
0.0
 11
208.0919203809211
 21
142.5014731597941
 31
0.0
  0
LINE
  5
13A5
  8
SAPA_PROFIL
 10
209.2005704507169
 20
115.7007422161966
 30
0.0
 11
209.2005704520318
 21
142.50147315973319
 31
0.0
  0
ARC
  5
13A6
  8
SAPA_PROFIL
 10
207.96295474796469
 20
115.7358384176038
 30
0.0
 40
1.238113230303324
 50
274.45928533575187
 51
358.37564645748978
  0
LINE
  5
13A7
  8
SAPA_PROFIL
 10
11.541922032154259
 20
114.50147921274259
 30
0.0
 11
208.05921887074541
 21
114.50147315978199
 31
0.0
  0
ARC
  5
13A8
  8
SAPA_PROFIL
 10
11.45252546877072
 20
115.5507883182332
 30
0.0
 40
1.053110319202295
 50
182.68403398399769
 51
274.86959181491972
  0
LINE
  5
13A9
  8
SAPA_PROFIL
 10
10.400570452035289
 20
142.50147316428081
 30
0.0
 11
10.400570450720499
 21
115.5014731642809
 31
0.0
  0
LINE
  5
13AA
  8
SAPA_PROFIL
 10
11.50922052312781
 20
142.501473164229
 30
0.0
 11
10.400570452035289
 21
142.50147316428081
 31
0.0
  0
POLYLINE
  5
13B4
  8
SAPA_GLAS
 66
     1
 10
0.0
 20
0.0
 30
0.0
 70
     1
  0
VERTEX
  5
1F39
  8
SAPA_GLAS
 10
14.99743086315712
 20
7.0000000022520741
 30
0.0
  0
VERTEX
  5
1F3A
  8
SAPA_GLAS
 10
29.99743086315712
 20
7.0000000022520696
 30
0.0
  0
VERTEX
  5
1F3B
  8
SAPA_GLAS
 10
29.99743086315712
 20
17.000000002252069
 30
0.0
  0
VERTEX
  5
1F3C
  8
SAPA_GLAS
 10
14.99743086315712
 20
17.000000002252069
 30
0.0
  0
SEQEND
  5
1F3D
  8
SAPA_GLAS
  0
POLYLINE
  5
13B5
  8
SAPA_GLAS
 66
     1
 10
0.0
 20
0.0
 30
0.0
 70
     1
  0
VERTEX
  5
1F3E
  8
SAPA_GLAS
 10
33.99743086315712
 20
7.0000000022520679
 30
0.0
  0
VERTEX
  5
1F3F
  8
SAPA_GLAS
 10
48.99743086315712
 20
7.0000000022520652
 30
0.0
  0
VERTEX
  5
1F40
  8
SAPA_GLAS
 10
48.99743086315712
 20
17.000000002252062
 30
0.0
  0
VERTEX
  5
1F41
  8
SAPA_GLAS
 10
33.99743086315712
 20
17.000000002252069
 30
0.0
  0
SEQEND
  5
1F42
  8
SAPA_GLAS
  0
POLYLINE
  5
13B6
  8
SAPA_GLAS
 66
     1
 10
0.0
 20
0.0
 30
0.0
  0
VERTEX
  5
1F43
  8
SAPA_GLAS
 10
33.997430863157113
 20
-12.9999999977477
 30
0.0
  0
VERTEX
  5
1F44
  8
SAPA_GLAS
 10
33.99743086315712
 20
17.000000002252289
 30
0.0
  0
VERTEX
  5
1F45
  8
SAPA_GLAS
 10
29.99743086315712
 20
17.0000000022523
 30
0.0
  0
VERTEX
  5
1F46
  8
SAPA_GLAS
 10
29.997430863157099
 20
-12.9999999977477
 30
0.0
  0
SEQEND
  5
1F47
  8
SAPA_GLAS
  0
POLYLINE
  5
13B7
  8
SAPA_GLAS
 66
     1
 10
0.0
 20
0.0
 30
0.0
  0
VERTEX
  5
1F48
  8
SAPA_GLAS
 10
54.997430863157113
 20
-12.999999997747709
 30
0.0
  0
VERTEX
  5
1F49
  8
SAPA_GLAS
 10
54.99743086315712
 20
17.000000002252289
 30
0.0
  0
VERTEX
  5
1F4A
  8
SAPA_GLAS
 10
48.99743086315712
 20
17.000000002252289
 30
0.0
  0
VERTEX
  5
1F4B
  8
SAPA_GLAS
 10
48.997430863157113
 20
-12.9999999977477
 30
0.0
  0
SEQEND
  5
1F4C
  8
SAPA_GLAS
  0
POLYLINE
  5
13B8
  8
SAPA_GLAS
 66
     1
 10
0.0
 20
0.0
 30
0.0
  0
VERTEX
  5
1F4D
  8
SAPA_GLAS
 10
8.9974308631571063
 20
-12.99999999774769
 30
0.0
  0
VERTEX
  5
1F4E
  8
SAPA_GLAS
 10
8.9974308631571205
 20
17.0000000022523
 30
0.0
  0
VERTEX
  5
1F4F
  8
SAPA_GLAS
 10
14.99743086315712
 20
17.0000000022523
 30
0.0
  0
VERTEX
  5
1F50
  8
SAPA_GLAS
 10
14.997430863157099
 20
-12.99999999774769
 30
0.0
  0
SEQEND
  5
1F51
  8
SAPA_GLAS
  0
INSERT
  5
13C2
  8
SAPA_FYLLNING
  6
CONTINUOUS
  2
*X112
 10
0.0
 20
0.0
 30
0.0
1001
ACAD
1000
HATCH
1002
{
1070
    19
1000
HEX
1040
0.25
1040
0.0
1000
R14_HATCH_DATA
1000
13C2
1011
1.0
1021
0.0
1031
0.0
1021
0.0
1031
0.0
1011
0.0
1021
0.0
1031
0.0
1021
1.0
1031
0.0
1011
0.0
1021
0.0
1031
0.0
1021
0.0
1031
1.0
1040
0.0
1010
0.0
1020
0.0
1030
1.0
1000
HEX
1070
     0
1070
     0
1071
        1
1071
        7
1070
     1
1070
     1
1071
        2
1040
209.8005704514504
1040
135.0014761861438
1040
1.0
1040
215.8005704514506
1040
135.0014761861438
1040
1.0
1071
        0
1070
     0
1070
     1
1040
0.0
1040
0.25
1070
     0
1070
     3
1040
0.0
1040
86.000000007003848
1040
64.501476186167395
1040
0.0
1040
1.374814999999999
1070
     2
1040
0.79375
1040
-1.587499999999999
1040
2.0943951023931948
1040
86.000000007003848
1040
64.501476186167395
1040
-1.190624715503902
1040
-0.6874074999999996
1070
     2
1040
0.7937499999999984
1040
-1.5874999999999959
1040
1.047197551196597
1040
86.793750007003837
1040
64.501476186167395
1040
-1.190624715503902
1040
0.6874075000000001
1070
     2
1040
0.79375
1040
-1.587499999999999
1040
0.0216905703044498
1071
        1
1040
213.08714239407561
1040
135.06741236480559
1040
0.0
1002
}
  0
INSERT
  5
13C3
  8
SAPA_FYLLNING
  6
CONTINUOUS
  2
*X113
 10
0.0
 20
0.0
 30
0.0
1001
ACAD
1000
HATCH
1002
{
1070
    19
1000
ANSI37
1040
0.25
1040
0.0
1000
R14_HATCH_DATA
1000
13C3
1011
1.0
1021
0.0
1031
0.0
1021
0.0
1031
0.0
1011
0.0
1021
0.0
1031
0.0
1021
1.0
1031
0.0
1011
0.0
1021
0.0
1031
0.0
1021
0.0
1031
1.0
1040
0.0
1010
0.0
1020
0.0
1030
1.0
1000
ANSI37
1070
     0
1070
     0
1071
        1
1071
        7
1070
     1
1070
     1
1071
        9
1040
209.80057045145
1040
141.52167798349501
1040
0.0
1040
209.80057045145
1040
135.00147618614309
1040
-1.0
1040
215.8005704514502
1040
135.00147618614309
1040
0.0
1040
215.8005704514502
1040
136.58726262376629
1040
0.1989123673796868
1040
215.71270248580669
1040
136.79939465812211
1040
0.0
1040
215.44701706085721
1040
137.06508008307111
1040
-0.4142135623730951
1040
215.44701706085681
1040
137.7721868642578
1040
0.0
1040
217.08843841709341
1040
139.4136082204943
1040
-0.2679491924312271
1040
217.37821616498019
1040
139.49125393402539
1040
0.0
1071
        0
1070
     0
1070
     1
1040
0.0
1040
0.25
1070
     0
1070
     2
1040
0.7853981633974483
1040
86.000000007003848
1040
64.501476186167395
1040
-0.5612660075668221
1040
0.5612660075668221
1070
     0
1040
2.3561944901923439
1040
86.000000007003848
1040
64.501476186167395
1040
-0.5612660075668221
1040
-0.5612660075668221
1070
     0
1040
0.0212842410303403
1071
        1
1040
211.89935243133311
1040
139.54536141620599
1040
0.0
1002
}
  0
INSERT
  5
13C4
  8
SAPA_FYLLNING
  6
CONTINUOUS
  2
*X114
 10
0.0
 20
0.0
 30
0.0
1001
ACAD
1000
HATCH
1002
{
1070
    19
1000
ANSI37
1040
0.25
1040
0.0
1000
R14_HATCH_DATA
1000
13C4
1011
1.0
1021
0.0
1031
0.0
1021
0.0
1031
0.0
1011
0.0
1021
0.0
1031
0.0
1021
1.0
1031
0.0
1011
0.0
1021
0.0
1031
0.0
1021
0.0
1031
1.0
1040
0.0
1010
0.0
1020
0.0
1030
1.0
1000
ANSI37
1070
     0
1070
     0
1071
        1
1071
        7
1070
     1
1070
     1
1071
        7
1040
9.8005704514498575
1040
161.55694673526679
1040
0.0
1040
9.6608631352863181
1040
159.2517761298553
1040
0.0
1040
8.383843213353515
1040
158.61419310579851
1040
0.3394542588633754
1040
7.8507231957158012
1040
157.5195950258674
1040
0.0
1040
9.1653723348638323
1040
151.07617831757861
1040
0.0
1040
8.8024019549936838
1040
145.08716733885271
1040
0.0
1040
9.8005704514498575
1040
145.0266722755409
1040
0.0
1071
        0
1070
     0
1070
     1
1040
0.0
1040
0.25
1070
     0
1070
     2
1040
0.7853981633974483
1040
-13.99999999299615
1040
64.501476186167395
1040
-0.5612660075668221
1040
0.5612660075668221
1070
     0
1040
2.3561944901923439
1040
-13.99999999299615
1040
64.501476186167395
1040
-0.5612660075668221
1040
-0.5612660075668221
1070
     0
1040
0.0258300345760058
1071
        1
1040
8.990722874054029
1040
157.23456711618471
1040
0.0
1002
}
  0
INSERT
  5
13C5
  8
SAPA_FYLLNING
  6
CONTINUOUS
  2
*X115
 10
0.0
 20
0.0
 30
0.0
1001
ACAD
1000
HATCH
1002
{
1070
    19
1000
ANSI37
1040
0.25
1040
0.0
1000
R14_HATCH_DATA
1000
13C5
1011
1.0
1021
0.0
1031
0.0
1021
0.0
1031
0.0
1011
0.0
1021
0.0
1031
0.0
1021
1.0
1031
0.0
1011
0.0
1021
0.0
1031
0.0
1021
0.0
1031
1.0
1040
0.0
1010
0.0
1020
0.0
1030
1.0
1000
ANSI37
1070
     0
1070
     0
1071
        1
1071
        7
1070
     1
1070
     1
1071
        7
1040
9.8005704514499712
1040
142.05875131074129
1040
0.0
1040
0.2223542936669105
1040
139.4922760263326
1040
-0.2679491924311903
1040
0.5121320415538549
1040
139.41463031280171
1040
0.0
1040
1.5535533977860041
1040
138.3732089565695
1040
-0.198912367379658
1040
1.700000007192727
1040
138.01965556597631
1040
0.0
1040
1.70000000719267
1040
131.5252650860856
1040
-1.0
1040
9.8005704514499712
1040
131.52526508608551
1040
0.0
1071
        0
1070
     0
1070
     1
1040
0.0
1040
0.25
1070
     0
1070
     2
1040
0.7853981633974483
1040
-13.99999999299615
1040
64.501476186167395
1040
-0.5612660075668221
1040
0.5612660075668221
1070
     0
1040
2.3561944901923439
1040
-13.99999999299615
1040
64.501476186167395
1040
-0.5612660075668221
1040
-0.5612660075668221
1070
     0
1040
0.0363322098761133
1071
        1
1040
6.7061117022566341
1040
138.42729557430431
1040
0.0
1002
}
  0
INSERT
  5
13C6
  8
SAPA_FYLLNING
  6
CONTINUOUS
  2
*X116
 10
0.0
 20
0.0
 30
0.0
1001
ACAD
1000
HATCH
1002
{
1070
    19
1000
HEX
1040
0.25
1040
0.0
1000
R14_HATCH_DATA
1000
13C6
1011
1.0
1021
0.0
1031
0.0
1021
0.0
1031
0.0
1011
0.0
1021
0.0
1031
0.0
1021
1.0
1031
0.0
1011
0.0
1021
0.0
1031
0.0
1021
0.0
1031
1.0
1040
0.0
1010
0.0
1020
0.0
1030
1.0
1000
HEX
1070
     0
1070
     0
1071
        1
1071
        7
1070
     1
1070
     1
1071
        4
1040
1.7000000071925561
1040
131.52526508608619
1040
0.4482391167472182
1040
6.214068786612529
1040
127.5016205699069
1040
0.0
1040
6.2479978515115704
1040
127.5056764844622
1040
0.3785740520061987
1040
9.8005704514498575
1040
131.52526508608619
1040
1.0
1071
        0
1070
     0
1070
     1
1040
0.0
1040
0.25
1070
     0
1070
     3
1040
0.0
1040
-13.99999999299615
1040
64.501476186167395
1040
0.0
1040
1.374814999999999
1070
     2
1040
0.79375
1040
-1.587499999999999
1040
2.0943951023931948
1040
-13.99999999299615
1040
64.501476186167395
1040
-1.190624715503902
1040
-0.6874074999999996
1070
     2
1040
0.7937499999999992
1040
-1.5874999999999979
1040
1.047197551196597
1040
-13.20624999299616
1040
64.501476186167395
1040
-1.190624715503902
1040
0.6874075000000001
1070
     2
1040
0.79375
1040
-1.587499999999999
1040
0.0303180261480682
1071
        1
1040
5.9260628883080813
1040
131.53684718368089
1040
0.0
1002
}
  0
POLYLINE
  5
13D7
  8
SAPA_FOGBAND
 62
     2
 10
58.588806234943661
 20
12.226214556203965
 30
0.0
 66
     1
 70
     8
  0
VERTEX
  8
SAPA_FOGBAND
  5
21F0
 10
58.5888
 20
12.2262
 30
0.000000
  70
    32
  0
VERTEX
  8
SAPA_FOGBAND
  5
21F1
 10
58.5201
 20
12.2288
 30
0.000000
  70
    32
  0
VERTEX
  8
SAPA_FOGBAND
  5
21F2
 10
58.4516
 20
12.2367
 30
0.000000
  70
    32
  0
VERTEX
  8
SAPA_FOGBAND
  5
21F3
 10
58.3834
 20
12.2497
 30
0.000000
  70
    32
  0
VERTEX
  8
SAPA_FOGBAND
  5
21F4
 10
58.3157
 20
12.2679
 30
0.000000
  70
    32
  0
VERTEX
  8
SAPA_FOGBAND
  5
21F5
 10
58.2486
 20
12.2912
 30
0.000000
  70
    32
  0
VERTEX
  8
SAPA_FOGBAND
  5
21F6
 10
58.1824
 20
12.3196
 30
0.000000
  70
    32
  0
VERTEX
  8
SAPA_FOGBAND
  5
21F7
 10
58.1172
 20
12.3529
 30
0.000000
  70
    32
  0
VERTEX
  8
SAPA_FOGBAND
  5
21F8
 10
58.0530
 20
12.3912
 30
0.000000
  70
    32
  0
VERTEX
  8
SAPA_FOGBAND
  5
21F9
 10
57.9902
 20
12.4343
 30
0.000000
  70
    32
  0
VERTEX
  8
SAPA_FOGBAND
  5
21FA
 10
57.9289
 20
12.4822
 30
0.000000
  70
    32
  0
VERTEX
  8
SAPA_FOGBAND
  5
21FB
 10
57.8691
 20
12.5346
 30
0.000000
  70
    32
  0
VERTEX
  8
SAPA_FOGBAND
  5
21FC
 10
57.8110
 20
12.5916
 30
0.000000
  70
    32
  0
VERTEX
  8
SAPA_FOGBAND
  5
21FD
 10
57.7548
 20
12.6528
 30
0.000000
  70
    32
  0
VERTEX
  8
SAPA_FOGBAND
  5
21FE
 10
57.7007
 20
12.7183
 30
0.000000
  70
    32
  0
VERTEX
  8
SAPA_FOGBAND
  5
21FF
 10
57.6486
 20
12.7878
 30
0.000000
  70
    32
  0
VERTEX
  8
SAPA_FOGBAND
  5
2200
 10
57.5989
 20
12.8611
 30
0.000000
  70
    32
  0
VERTEX
  8
SAPA_FOGBAND
  5
2201
 10
57.5515
 20
12.9382
 30
0.000000
  70
    32
  0
VERTEX
  8
SAPA_FOGBAND
  5
2202
 10
57.5066
 20
13.0188
 30
0.000000
  70
    32
  0
VERTEX
  8
SAPA_FOGBAND
  5
2203
 10
57.4643
 20
13.1027
 30
0.000000
  70
    32
  0
VERTEX
  8
SAPA_FOGBAND
  5
2204
 10
57.4247
 20
13.1896
 30
0.000000
  70
    32
  0
VERTEX
  8
SAPA_FOGBAND
  5
2205
 10
57.3880
 20
13.2795
 30
0.000000
  70
    32
  0
VERTEX
  8
SAPA_FOGBAND
  5
2206
 10
57.3541
 20
13.3721
 30
0.000000
  70
    32
  0
VERTEX
  8
SAPA_FOGBAND
  5
2207
 10
57.3232
 20
13.4672
 30
0.000000
  70
    32
  0
VERTEX
  8
SAPA_FOGBAND
  5
2208
 10
57.2954
 20
13.5644
 30
0.000000
  70
    32
  0
VERTEX
  8
SAPA_FOGBAND
  5
2209
 10
57.2706
 20
13.6637
 30
0.000000
  70
    32
  0
VERTEX
  8
SAPA_FOGBAND
  5
220A
 10
57.2491
 20
13.7647
 30
0.000000
  70
    32
  0
VERTEX
  8
SAPA_FOGBAND
  5
220B
 10
57.2308
 20
13.8673
 30
0.000000
  70
    32
  0
VERTEX
  8
SAPA_FOGBAND
  5
220C
 10
57.2157
 20
13.9711
 30
0.000000
  70
    32
  0
VERTEX
  8
SAPA_FOGBAND
  5
220D
 10
57.2040
 20
14.0759
 30
0.000000
  70
    32
  0
VERTEX
  8
SAPA_FOGBAND
  5
220E
 10
57.1955
 20
14.1815
 30
0.000000
  70
    32
  0
VERTEX
  8
SAPA_FOGBAND
  5
220F
 10
57.1905
 20
14.2876
 30
0.000000
  70
    32
  0
VERTEX
  8
SAPA_FOGBAND
  5
2210
 10
57.1888
 20
14.3940
 30
0.000000
  70
    32
  0
VERTEX
  8
SAPA_FOGBAND
  5
2211
 10
57.1905
 20
14.5004
 30
0.000000
  70
    32
  0
VERTEX
  8
SAPA_FOGBAND
  5
2212
 10
57.1955
 20
14.6065
 30
0.000000
  70
    32
  0
VERTEX
  8
SAPA_FOGBAND
  5
2213
 10
57.2040
 20
14.7121
 30
0.000000
  70
    32
  0
VERTEX
  8
SAPA_FOGBAND
  5
2214
 10
57.2157
 20
14.8169
 30
0.000000
  70
    32
  0
VERTEX
  8
SAPA_FOGBAND
  5
2215
 10
57.2308
 20
14.9207
 30
0.000000
  70
    32
  0
VERTEX
  8
SAPA_FOGBAND
  5
2216
 10
57.2491
 20
15.0233
 30
0.000000
  70
    32
  0
VERTEX
  8
SAPA_FOGBAND
  5
2217
 10
57.2706
 20
15.1243
 30
0.000000
  70
    32
  0
VERTEX
  8
SAPA_FOGBAND
  5
2218
 10
57.2954
 20
15.2236
 30
0.000000
  70
    32
  0
VERTEX
  8
SAPA_FOGBAND
  5
2219
 10
57.3232
 20
15.3209
 30
0.000000
  70
    32
  0
VERTEX
  8
SAPA_FOGBAND
  5
221A
 10
57.3541
 20
15.4159
 30
0.000000
  70
    32
  0
VERTEX
  8
SAPA_FOGBAND
  5
221B
 10
57.3880
 20
15.5085
 30
0.000000
  70
    32
  0
VERTEX
  8
SAPA_FOGBAND
  5
221C
 10
57.4247
 20
15.5984
 30
0.000000
  70
    32
  0
VERTEX
  8
SAPA_FOGBAND
  5
221D
 10
57.4643
 20
15.6854
 30
0.000000
  70
    32
  0
VERTEX
  8
SAPA_FOGBAND
  5
221E
 10
57.5066
 20
15.7692
 30
0.000000
  70
    32
  0
VERTEX
  8
SAPA_FOGBAND
  5
221F
 10
57.5515
 20
15.8498
 30
0.000000
  70
    32
  0
VERTEX
  8
SAPA_FOGBAND
  5
2220
 10
57.5989
 20
15.9269
 30
0.000000
  70
    32
  0
VERTEX
  8
SAPA_FOGBAND
  5
2221
 10
57.6486
 20
16.0002
 30
0.000000
  70
    32
  0
VERTEX
  8
SAPA_FOGBAND
  5
2222
 10
57.7007
 20
16.0697
 30
0.000000
  70
    32
  0
VERTEX
  8
SAPA_FOGBAND
  5
2223
 10
57.7548
 20
16.1352
 30
0.000000
  70
    32
  0
VERTEX
  8
SAPA_FOGBAND
  5
2224
 10
57.8110
 20
16.1965
 30
0.000000
  70
    32
  0
VERTEX
  8
SAPA_FOGBAND
  5
2225
 10
57.8691
 20
16.2534
 30
0.000000
  70
    32
  0
VERTEX
  8
SAPA_FOGBAND
  5
2226
 10
57.9289
 20
16.3058
 30
0.000000
  70
    32
  0
VERTEX
  8
SAPA_FOGBAND
  5
2227
 10
57.9902
 20
16.3537
 30
0.000000
  70
    32
  0
VERTEX
  8
SAPA_FOGBAND
  5
2228
 10
58.0530
 20
16.3968
 30
0.000000
  70
    32
  0
VERTEX
  8
SAPA_FOGBAND
  5
2229
 10
58.1172
 20
16.4351
 30
0.000000
  70
    32
  0
VERTEX
  8
SAPA_FOGBAND
  5
222A
 10
58.1824
 20
16.4684
 30
0.000000
  70
    32
  0
VERTEX
  8
SAPA_FOGBAND
  5
222B
 10
58.2486
 20
16.4968
 30
0.000000
  70
    32
  0
VERTEX
  8
SAPA_FOGBAND
  5
222C
 10
58.3157
 20
16.5201
 30
0.000000
  70
    32
  0
VERTEX
  8
SAPA_FOGBAND
  5
222D
 10
58.3834
 20
16.5383
 30
0.000000
  70
    32
  0
VERTEX
  8
SAPA_FOGBAND
  5
222E
 10
58.4516
 20
16.5514
 30
0.000000
  70
    32
  0
VERTEX
  8
SAPA_FOGBAND
  5
222F
 10
58.5201
 20
16.5592
 30
0.000000
  70
    32
  0
VERTEX
  8
SAPA_FOGBAND
  5
2230
 10
58.5888
 20
16.5618
 30
0.000000
  70
    32
  0
VERTEX
  8
SAPA_FOGBAND
  5
2231
 10
58.6575
 20
16.5592
 30
0.000000
  70
    32
  0
VERTEX
  8
SAPA_FOGBAND
  5
2232
 10
58.7260
 20
16.5514
 30
0.000000
  70
    32
  0
VERTEX
  8
SAPA_FOGBAND
  5
2233
 10
58.7942
 20
16.5383
 30
0.000000
  70
    32
  0
VERTEX
  8
SAPA_FOGBAND
  5
2234
 10
58.8619
 20
16.5201
 30
0.000000
  70
    32
  0
VERTEX
  8
SAPA_FOGBAND
  5
2235
 10
58.9290
 20
16.4968
 30
0.000000
  70
    32
  0
VERTEX
  8
SAPA_FOGBAND
  5
2236
 10
58.9952
 20
16.4684
 30
0.000000
  70
    32
  0
VERTEX
  8
SAPA_FOGBAND
  5
2237
 10
59.0605
 20
16.4351
 30
0.000000
  70
    32
  0
VERTEX
  8
SAPA_FOGBAND
  5
2238
 10
59.1246
 20
16.3968
 30
0.000000
  70
    32
  0
VERTEX
  8
SAPA_FOGBAND
  5
2239
 10
59.1874
 20
16.3537
 30
0.000000
  70
    32
  0
VERTEX
  8
SAPA_FOGBAND
  5
223A
 10
59.2488
 20
16.3058
 30
0.000000
  70
    32
  0
VERTEX
  8
SAPA_FOGBAND
  5
223B
 10
59.3086
 20
16.2534
 30
0.000000
  70
    32
  0
VERTEX
  8
SAPA_FOGBAND
  5
223C
 10
59.3666
 20
16.1965
 30
0.000000
  70
    32
  0
VERTEX
  8
SAPA_FOGBAND
  5
223D
 10
59.4228
 20
16.1352
 30
0.000000
  70
    32
  0
VERTEX
  8
SAPA_FOGBAND
  5
223E
 10
59.4770
 20
16.0697
 30
0.000000
  70
    32
  0
VERTEX
  8
SAPA_FOGBAND
  5
223F
 10
59.5290
 20
16.0002
 30
0.000000
  70
    32
  0
VERTEX
  8
SAPA_FOGBAND
  5
2240
 10
59.5788
 20
15.9269
 30
0.000000
  70
    32
  0
VERTEX
  8
SAPA_FOGBAND
  5
2241
 10
59.6261
 20
15.8498
 30
0.000000
  70
    32
  0
VERTEX
  8
SAPA_FOGBAND
  5
2242
 10
59.6710
 20
15.7692
 30
0.000000
  70
    32
  0
VERTEX
  8
SAPA_FOGBAND
  5
2243
 10
59.7133
 20
15.6854
 30
0.000000
  70
    32
  0
VERTEX
  8
SAPA_FOGBAND
  5
2244
 10
59.7529
 20
15.5984
 30
0.000000
  70
    32
  0
VERTEX
  8
SAPA_FOGBAND
  5
2245
 10
59.7896
 20
15.5085
 30
0.000000
  70
    32
  0
VERTEX
  8
SAPA_FOGBAND
  5
2246
 10
59.8235
 20
15.4159
 30
0.000000
  70
    32
  0
VERTEX
  8
SAPA_FOGBAND
  5
2247
 10
59.8544
 20
15.3209
 30
0.000000
  70
    32
  0
VERTEX
  8
SAPA_FOGBAND
  5
2248
 10
59.8822
 20
15.2236
 30
0.000000
  70
    32
  0
VERTEX
  8
SAPA_FOGBAND
  5
2249
 10
59.9070
 20
15.1243
 30
0.000000
  70
    32
  0
VERTEX
  8
SAPA_FOGBAND
  5
224A
 10
59.9285
 20
15.0233
 30
0.000000
  70
    32
  0
VERTEX
  8
SAPA_FOGBAND
  5
224B
 10
59.9468
 20
14.9207
 30
0.000000
  70
    32
  0
VERTEX
  8
SAPA_FOGBAND
  5
224C
 10
59.9619
 20
14.8169
 30
0.000000
  70
    32
  0
VERTEX
  8
SAPA_FOGBAND
  5
224D
 10
59.9737
 20
14.7121
 30
0.000000
  70
    32
  0
VERTEX
  8
SAPA_FOGBAND
  5
224E
 10
59.9821
 20
14.6065
 30
0.000000
  70
    32
  0
VERTEX
  8
SAPA_FOGBAND
  5
224F
 10
59.9871
 20
14.5004
 30
0.000000
  70
    32
  0
VERTEX
  8
SAPA_FOGBAND
  5
2250
 10
59.9888
 20
14.3940
 30
0.000000
  70
    32
  0
VERTEX
  8
SAPA_FOGBAND
  5
2251
 10
59.9871
 20
14.2876
 30
0.000000
  70
    32
  0
VERTEX
  8
SAPA_FOGBAND
  5
2252
 10
59.9821
 20
14.1815
 30
0.000000
  70
    32
  0
VERTEX
  8
SAPA_FOGBAND
  5
2253
 10
59.9737
 20
14.0759
 30
0.000000
  70
    32
  0
VERTEX
  8
SAPA_FOGBAND
  5
2254
 10
59.9619
 20
13.9711
 30
0.000000
  70
    32
  0
VERTEX
  8
SAPA_FOGBAND
  5
2255
 10
59.9468
 20
13.8673
 30
0.000000
  70
    32
  0
VERTEX
  8
SAPA_FOGBAND
  5
2256
 10
59.9285
 20
13.7647
 30
0.000000
  70
    32
  0
VERTEX
  8
SAPA_FOGBAND
  5
2257
 10
59.9070
 20
13.6637
 30
0.000000
  70
    32
  0
VERTEX
  8
SAPA_FOGBAND
  5
2258
 10
59.8822
 20
13.5644
 30
0.000000
  70
    32
  0
VERTEX
  8
SAPA_FOGBAND
  5
2259
 10
59.8544
 20
13.4672
 30
0.000000
  70
    32
  0
VERTEX
  8
SAPA_FOGBAND
  5
225A
 10
59.8235
 20
13.3721
 30
0.000000
  70
    32
  0
VERTEX
  8
SAPA_FOGBAND
  5
225B
 10
59.7896
 20
13.2795
 30
0.000000
  70
    32
  0
VERTEX
  8
SAPA_FOGBAND
  5
225C
 10
59.7529
 20
13.1896
 30
0.000000
  70
    32
  0
VERTEX
  8
SAPA_FOGBAND
  5
225D
 10
59.7133
 20
13.1027
 30
0.000000
  70
    32
  0
VERTEX
  8
SAPA_FOGBAND
  5
225E
 10
59.6710
 20
13.0188
 30
0.000000
  70
    32
  0
VERTEX
  8
SAPA_FOGBAND
  5
225F
 10
59.6261
 20
12.9382
 30
0.000000
  70
    32
  0
VERTEX
  8
SAPA_FOGBAND
  5
2260
 10
59.5788
 20
12.8611
 30
0.000000
  70
    32
  0
VERTEX
  8
SAPA_FOGBAND
  5
2261
 10
59.5290
 20
12.7878
 30
0.000000
  70
    32
  0
VERTEX
  8
SAPA_FOGBAND
  5
2262
 10
59.4770
 20
12.7183
 30
0.000000
  70
    32
  0
VERTEX
  8
SAPA_FOGBAND
  5
2263
 10
59.4228
 20
12.6528
 30
0.000000
  70
    32
  0
VERTEX
  8
SAPA_FOGBAND
  5
2264
 10
59.3666
 20
12.5916
 30
0.000000
  70
    32
  0
VERTEX
  8
SAPA_FOGBAND
  5
2265
 10
59.3086
 20
12.5346
 30
0.000000
  70
    32
  0
VERTEX
  8
SAPA_FOGBAND
  5
2266
 10
59.2488
 20
12.4822
 30
0.000000
  70
    32
  0
VERTEX
  8
SAPA_FOGBAND
  5
2267
 10
59.1874
 20
12.4343
 30
0.000000
  70
    32
  0
VERTEX
  8
SAPA_FOGBAND
  5
2268
 10
59.1246
 20
12.3912
 30
0.000000
  70
    32
  0
VERTEX
  8
SAPA_FOGBAND
  5
2269
 10
59.0605
 20
12.3529
 30
0.000000
  70
    32
  0
VERTEX
  8
SAPA_FOGBAND
  5
226A
 10
58.9952
 20
12.3196
 30
0.000000
  70
    32
  0
VERTEX
  8
SAPA_FOGBAND
  5
226B
 10
58.9290
 20
12.2912
 30
0.000000
  70
    32
  0
VERTEX
  8
SAPA_FOGBAND
  5
226C
 10
58.8619
 20
12.2679
 30
0.000000
  70
    32
  0
VERTEX
  8
SAPA_FOGBAND
  5
226D
 10
58.7942
 20
12.2497
 30
0.000000
  70
    32
  0
VERTEX
  8
SAPA_FOGBAND
  5
226E
 10
58.7260
 20
12.2367
 30
0.000000
  70
    32
  0
VERTEX
  8
SAPA_FOGBAND
  5
226F
 10
58.6575
 20
12.2288
 30
0.000000
  70
    32
  0
VERTEX
  8
SAPA_FOGBAND
  5
2270
 10
58.5888
 20
12.2262
 30
0.000000
  70
    32
  0
SEQEND
  8
SAPA_FOGBAND
  5
2271
  0
POLYLINE
  5
13D8
  8
SAPA_FOGBAND
 62
     2
 10
60.323592257676601
 20
2.7088116971529006
 30
0.0
 66
     1
 70
     8
  0
VERTEX
  8
SAPA_FOGBAND
  5
2272
 10
60.3236
 20
2.70881
 30
0.000000
  70
    32
  0
VERTEX
  8
SAPA_FOGBAND
  5
2273
 10
60.2353
 20
2.71253
 30
0.000000
  70
    32
  0
VERTEX
  8
SAPA_FOGBAND
  5
2274
 10
60.1472
 20
2.72367
 30
0.000000
  70
    32
  0
VERTEX
  8
SAPA_FOGBAND
  5
2275
 10
60.0595
 20
2.74220
 30
0.000000
  70
    32
  0
VERTEX
  8
SAPA_FOGBAND
  5
2276
 10
59.9724
 20
2.76809
 30
0.000000
  70
    32
  0
VERTEX
  8
SAPA_FOGBAND
  5
2277
 10
59.8862
 20
2.80127
 30
0.000000
  70
    32
  0
VERTEX
  8
SAPA_FOGBAND
  5
2278
 10
59.8011
 20
2.84166
 30
0.000000
  70
    32
  0
VERTEX
  8
SAPA_FOGBAND
  5
2279
 10
59.7172
 20
2.88916
 30
0.000000
  70
    32
  0
VERTEX
  8
SAPA_FOGBAND
  5
227A
 10
59.6348
 20
2.94366
 30
0.000000
  70
    32
  0
VERTEX
  8
SAPA_FOGBAND
  5
227B
 10
59.5540
 20
3.00503
 30
0.000000
  70
    32
  0
VERTEX
  8
SAPA_FOGBAND
  5
227C
 10
59.4751
 20
3.07311
 30
0.000000
  70
    32
  0
VERTEX
  8
SAPA_FOGBAND
  5
227D
 10
59.3982
 20
3.14775
 30
0.000000
  70
    32
  0
VERTEX
  8
SAPA_FOGBAND
  5
227E
 10
59.3236
 20
3.22876
 30
0.000000
  70
    32
  0
VERTEX
  8
SAPA_FOGBAND
  5
227F
 10
59.2513
 20
3.31596
 30
0.000000
  70
    32
  0
VERTEX
  8
SAPA_FOGBAND
  5
2280
 10
59.1817
 20
3.40912
 30
0.000000
  70
    32
  0
VERTEX
  8
SAPA_FOGBAND
  5
2281
 10
59.1148
 20
3.50803
 30
0.000000
  70
    32
  0
VERTEX
  8
SAPA_FOGBAND
  5
2282
 10
59.0508
 20
3.61245
 30
0.000000
  70
    32
  0
VERTEX
  8
SAPA_FOGBAND
  5
2283
 10
58.9899
 20
3.72212
 30
0.000000
  70
    32
  0
VERTEX
  8
SAPA_FOGBAND
  5
2284
 10
58.9322
 20
3.83679
 30
0.000000
  70
    32
  0
VERTEX
  8
SAPA_FOGBAND
  5
2285
 10
58.8778
 20
3.95617
 30
0.000000
  70
    32
  0
VERTEX
  8
SAPA_FOGBAND
  5
2286
 10
58.8269
 20
4.07997
 30
0.000000
  70
    32
  0
VERTEX
  8
SAPA_FOGBAND
  5
2287
 10
58.7797
 20
4.20791
 30
0.000000
  70
    32
  0
VERTEX
  8
SAPA_FOGBAND
  5
2288
 10
58.7361
 20
4.33967
 30
0.000000
  70
    32
  0
VERTEX
  8
SAPA_FOGBAND
  5
2289
 10
58.6964
 20
4.47493
 30
0.000000
  70
    32
  0
VERTEX
  8
SAPA_FOGBAND
  5
228A
 10
58.6606
 20
4.61337
 30
0.000000
  70
    32
  0
VERTEX
  8
SAPA_FOGBAND
  5
228B
 10
58.6288
 20
4.75465
 30
0.000000
  70
    32
  0
VERTEX
  8
SAPA_FOGBAND
  5
228C
 10
58.6011
 20
4.89844
 30
0.000000
  70
    32
  0
VERTEX
  8
SAPA_FOGBAND
  5
228D
 10
58.5775
 20
5.04438
 30
0.000000
  70
    32
  0
VERTEX
  8
SAPA_FOGBAND
  5
228E
 10
58.5582
 20
5.19213
 30
0.000000
  70
    32
  0
VERTEX
  8
SAPA_FOGBAND
  5
228F
 10
58.5431
 20
5.34134
 30
0.000000
  70
    32
  0
VERTEX
  8
SAPA_FOGBAND
  5
2290
 10
58.5323
 20
5.49163
 30
0.000000
  70
    32
  0
VERTEX
  8
SAPA_FOGBAND
  5
2291
 10
58.5258
 20
5.64265
 30
0.000000
  70
    32
  0
VERTEX
  8
SAPA_FOGBAND
  5
2292
 10
58.5236
 20
5.79403
 30
0.000000
  70
    32
  0
VERTEX
  8
SAPA_FOGBAND
  5
2293
 10
58.5258
 20
5.94542
 30
0.000000
  70
    32
  0
VERTEX
  8
SAPA_FOGBAND
  5
2294
 10
58.5323
 20
6.09644
 30
0.000000
  70
    32
  0
VERTEX
  8
SAPA_FOGBAND
  5
2295
 10
58.5431
 20
6.24673
 30
0.000000
  70
    32
  0
VERTEX
  8
SAPA_FOGBAND
  5
2296
 10
58.5582
 20
6.39593
 30
0.000000
  70
    32
  0
VERTEX
  8
SAPA_FOGBAND
  5
2297
 10
58.5775
 20
6.54368
 30
0.000000
  70
    32
  0
VERTEX
  8
SAPA_FOGBAND
  5
2298
 10
58.6011
 20
6.68962
 30
0.000000
  70
    32
  0
VERTEX
  8
SAPA_FOGBAND
  5
2299
 10
58.6288
 20
6.83341
 30
0.000000
  70
    32
  0
VERTEX
  8
SAPA_FOGBAND
  5
229A
 10
58.6606
 20
6.97469
 30
0.000000
  70
    32
  0
VERTEX
  8
SAPA_FOGBAND
  5
229B
 10
58.6964
 20
7.11313
 30
0.000000
  70
    32
  0
VERTEX
  8
SAPA_FOGBAND
  5
229C
 10
58.7361
 20
7.24839
 30
0.000000
  70
    32
  0
VERTEX
  8
SAPA_FOGBAND
  5
229D
 10
58.7797
 20
7.38015
 30
0.000000
  70
    32
  0
VERTEX
  8
SAPA_FOGBAND
  5
229E
 10
58.8269
 20
7.50809
 30
0.000000
  70
    32
  0
VERTEX
  8
SAPA_FOGBAND
  5
229F
 10
58.8778
 20
7.63189
 30
0.000000
  70
    32
  0
VERTEX
  8
SAPA_FOGBAND
  5
22A0
 10
58.9322
 20
7.75127
 30
0.000000
  70
    32
  0
VERTEX
  8
SAPA_FOGBAND
  5
22A1
 10
58.9899
 20
7.86594
 30
0.000000
  70
    32
  0
VERTEX
  8
SAPA_FOGBAND
  5
22A2
 10
59.0508
 20
7.97561
 30
0.000000
  70
    32
  0
VERTEX
  8
SAPA_FOGBAND
  5
22A3
 10
59.1148
 20
8.08003
 30
0.000000
  70
    32
  0
VERTEX
  8
SAPA_FOGBAND
  5
22A4
 10
59.1817
 20
8.17894
 30
0.000000
  70
    32
  0
VERTEX
  8
SAPA_FOGBAND
  5
22A5
 10
59.2513
 20
8.27210
 30
0.000000
  70
    32
  0
VERTEX
  8
SAPA_FOGBAND
  5
22A6
 10
59.3236
 20
8.35930
 30
0.000000
  70
    32
  0
VERTEX
  8
SAPA_FOGBAND
  5
22A7
 10
59.3982
 20
8.44031
 30
0.000000
  70
    32
  0
VERTEX
  8
SAPA_FOGBAND
  5
22A8
 10
59.4751
 20
8.51495
 30
0.000000
  70
    32
  0
VERTEX
  8
SAPA_FOGBAND
  5
22A9
 10
59.5540
 20
8.58304
 30
0.000000
  70
    32
  0
VERTEX
  8
SAPA_FOGBAND
  5
22AA
 10
59.6348
 20
8.64440
 30
0.000000
  70
    32
  0
VERTEX
  8
SAPA_FOGBAND
  5
22AB
 10
59.7172
 20
8.69890
 30
0.000000
  70
    32
  0
VERTEX
  8
SAPA_FOGBAND
  5
22AC
 10
59.8011
 20
8.74640
 30
0.000000
  70
    32
  0
VERTEX
  8
SAPA_FOGBAND
  5
22AD
 10
59.8862
 20
8.78679
 30
0.000000
  70
    32
  0
VERTEX
  8
SAPA_FOGBAND
  5
22AE
 10
59.9724
 20
8.81997
 30
0.000000
  70
    32
  0
VERTEX
  8
SAPA_FOGBAND
  5
22AF
 10
60.0595
 20
8.84586
 30
0.000000
  70
    32
  0
VERTEX
  8
SAPA_FOGBAND
  5
22B0
 10
60.1472
 20
8.86439
 30
0.000000
  70
    32
  0
VERTEX
  8
SAPA_FOGBAND
  5
22B1
 10
60.2353
 20
8.87553
 30
0.000000
  70
    32
  0
VERTEX
  8
SAPA_FOGBAND
  5
22B2
 10
60.3236
 20
8.87925
 30
0.000000
  70
    32
  0
VERTEX
  8
SAPA_FOGBAND
  5
22B3
 10
60.4119
 20
8.87553
 30
0.000000
  70
    32
  0
VERTEX
  8
SAPA_FOGBAND
  5
22B4
 10
60.5000
 20
8.86439
 30
0.000000
  70
    32
  0
VERTEX
  8
SAPA_FOGBAND
  5
22B5
 10
60.5877
 20
8.84586
 30
0.000000
  70
    32
  0
VERTEX
  8
SAPA_FOGBAND
  5
22B6
 10
60.6748
 20
8.81997
 30
0.000000
  70
    32
  0
VERTEX
  8
SAPA_FOGBAND
  5
22B7
 10
60.7610
 20
8.78679
 30
0.000000
  70
    32
  0
VERTEX
  8
SAPA_FOGBAND
  5
22B8
 10
60.8461
 20
8.74640
 30
0.000000
  70
    32
  0
VERTEX
  8
SAPA_FOGBAND
  5
22B9
 10
60.9300
 20
8.69890
 30
0.000000
  70
    32
  0
VERTEX
  8
SAPA_FOGBAND
  5
22BA
 10
61.0124
 20
8.64440
 30
0.000000
  70
    32
  0
VERTEX
  8
SAPA_FOGBAND
  5
22BB
 10
61.0932
 20
8.58304
 30
0.000000
  70
    32
  0
VERTEX
  8
SAPA_FOGBAND
  5
22BC
 10
61.1721
 20
8.51495
 30
0.000000
  70
    32
  0
VERTEX
  8
SAPA_FOGBAND
  5
22BD
 10
61.2490
 20
8.44031
 30
0.000000
  70
    32
  0
VERTEX
  8
SAPA_FOGBAND
  5
22BE
 10
61.3236
 20
8.35930
 30
0.000000
  70
    32
  0
VERTEX
  8
SAPA_FOGBAND
  5
22BF
 10
61.3959
 20
8.27210
 30
0.000000
  70
    32
  0
VERTEX
  8
SAPA_FOGBAND
  5
22C0
 10
61.4655
 20
8.17894
 30
0.000000
  70
    32
  0
VERTEX
  8
SAPA_FOGBAND
  5
22C1
 10
61.5324
 20
8.08003
 30
0.000000
  70
    32
  0
VERTEX
  8
SAPA_FOGBAND
  5
22C2
 10
61.5964
 20
7.97561
 30
0.000000
  70
    32
  0
VERTEX
  8
SAPA_FOGBAND
  5
22C3
 10
61.6573
 20
7.86594
 30
0.000000
  70
    32
  0
VERTEX
  8
SAPA_FOGBAND
  5
22C4
 10
61.7150
 20
7.75127
 30
0.000000
  70
    32
  0
VERTEX
  8
SAPA_FOGBAND
  5
22C5
 10
61.7694
 20
7.63189
 30
0.000000
  70
    32
  0
VERTEX
  8
SAPA_FOGBAND
  5
22C6
 10
61.8202
 20
7.50809
 30
0.000000
  70
    32
  0
VERTEX
  8
SAPA_FOGBAND
  5
22C7
 10
61.8675
 20
7.38015
 30
0.000000
  70
    32
  0
VERTEX
  8
SAPA_FOGBAND
  5
22C8
 10
61.9111
 20
7.24839
 30
0.000000
  70
    32
  0
VERTEX
  8
SAPA_FOGBAND
  5
22C9
 10
61.9508
 20
7.11313
 30
0.000000
  70
    32
  0
VERTEX
  8
SAPA_FOGBAND
  5
22CA
 10
61.9866
 20
6.97469
 30
0.000000
  70
    32
  0
VERTEX
  8
SAPA_FOGBAND
  5
22CB
 10
62.0184
 20
6.83341
 30
0.000000
  70
    32
  0
VERTEX
  8
SAPA_FOGBAND
  5
22CC
 10
62.0461
 20
6.68962
 30
0.000000
  70
    32
  0
VERTEX
  8
SAPA_FOGBAND
  5
22CD
 10
62.0696
 20
6.54368
 30
0.000000
  70
    32
  0
VERTEX
  8
SAPA_FOGBAND
  5
22CE
 10
62.0890
 20
6.39593
 30
0.000000
  70
    32
  0
VERTEX
  8
SAPA_FOGBAND
  5
22CF
 10
62.1041
 20
6.24673
 30
0.000000
  70
    32
  0
VERTEX
  8
SAPA_FOGBAND
  5
22D0
 10
62.1149
 20
6.09644
 30
0.000000
  70
    32
  0
VERTEX
  8
SAPA_FOGBAND
  5
22D1
 10
62.1214
 20
5.94542
 30
0.000000
  70
    32
  0
VERTEX
  8
SAPA_FOGBAND
  5
22D2
 10
62.1236
 20
5.79403
 30
0.000000
  70
    32
  0
VERTEX
  8
SAPA_FOGBAND
  5
22D3
 10
62.1214
 20
5.64265
 30
0.000000
  70
    32
  0
VERTEX
  8
SAPA_FOGBAND
  5
22D4
 10
62.1149
 20
5.49163
 30
0.000000
  70
    32
  0
VERTEX
  8
SAPA_FOGBAND
  5
22D5
 10
62.1041
 20
5.34134
 30
0.000000
  70
    32
  0
VERTEX
  8
SAPA_FOGBAND
  5
22D6
 10
62.0890
 20
5.19213
 30
0.000000
  70
    32
  0
VERTEX
  8
SAPA_FOGBAND
  5
22D7
 10
62.0696
 20
5.04438
 30
0.000000
  70
    32
  0
VERTEX
  8
SAPA_FOGBAND
  5
22D8
 10
62.0461
 20
4.89844
 30
0.000000
  70
    32
  0
VERTEX
  8
SAPA_FOGBAND
  5
22D9
 10
62.0184
 20
4.75465
 30
0.000000
  70
    32
  0
VERTEX
  8
SAPA_FOGBAND
  5
22DA
 10
61.9866
 20
4.61337
 30
0.000000
  70
    32
  0
VERTEX
  8
SAPA_FOGBAND
  5
22DB
 10
61.9508
 20
4.47493
 30
0.000000
  70
    32
  0
VERTEX
  8
SAPA_FOGBAND
  5
22DC
 10
61.9111
 20
4.33967
 30
0.000000
  70
    32
  0
VERTEX
  8
SAPA_FOGBAND
  5
22DD
 10
61.8675
 20
4.20791
 30
0.000000
  70
    32
  0
VERTEX
  8
SAPA_FOGBAND
  5
22DE
 10
61.8202
 20
4.07997
 30
0.000000
  70
    32
  0
VERTEX
  8
SAPA_FOGBAND
  5
22DF
 10
61.7694
 20
3.95617
 30
0.000000
  70
    32
  0
VERTEX
  8
SAPA_FOGBAND
  5
22E0
 10
61.7150
 20
3.83679
 30
0.000000
  70
    32
  0
VERTEX
  8
SAPA_FOGBAND
  5
22E1
 10
61.6573
 20
3.72212
 30
0.000000
  70
    32
  0
VERTEX
  8
SAPA_FOGBAND
  5
22E2
 10
61.5964
 20
3.61245
 30
0.000000
  70
    32
  0
VERTEX
  8
SAPA_FOGBAND
  5
22E3
 10
61.5324
 20
3.50803
 30
0.000000
  70
    32
  0
VERTEX
  8
SAPA_FOGBAND
  5
22E4
 10
61.4655
 20
3.40912
 30
0.000000
  70
    32
  0
VERTEX
  8
SAPA_FOGBAND
  5
22E5
 10
61.3959
 20
3.31596
 30
0.000000
  70
    32
  0
VERTEX
  8
SAPA_FOGBAND
  5
22E6
 10
61.3236
 20
3.22876
 30
0.000000
  70
    32
  0
VERTEX
  8
SAPA_FOGBAND
  5
22E7
 10
61.2490
 20
3.14775
 30
0.000000
  70
    32
  0
VERTEX
  8
SAPA_FOGBAND
  5
22E8
 10
61.1721
 20
3.07311
 30
0.000000
  70
    32
  0
VERTEX
  8
SAPA_FOGBAND
  5
22E9
 10
61.0932
 20
3.00503
 30
0.000000
  70
    32
  0
VERTEX
  8
SAPA_FOGBAND
  5
22EA
 10
61.0124
 20
2.94366
 30
0.000000
  70
    32
  0
VERTEX
  8
SAPA_FOGBAND
  5
22EB
 10
60.9300
 20
2.88916
 30
0.000000
  70
    32
  0
VERTEX
  8
SAPA_FOGBAND
  5
22EC
 10
60.8461
 20
2.84166
 30
0.000000
  70
    32
  0
VERTEX
  8
SAPA_FOGBAND
  5
22ED
 10
60.7610
 20
2.80127
 30
0.000000
  70
    32
  0
VERTEX
  8
SAPA_FOGBAND
  5
22EE
 10
60.6748
 20
2.76809
 30
0.000000
  70
    32
  0
VERTEX
  8
SAPA_FOGBAND
  5
22EF
 10
60.5877
 20
2.74220
 30
0.000000
  70
    32
  0
VERTEX
  8
SAPA_FOGBAND
  5
22F0
 10
60.5000
 20
2.72367
 30
0.000000
  70
    32
  0
VERTEX
  8
SAPA_FOGBAND
  5
22F1
 10
60.4119
 20
2.71253
 30
0.000000
  70
    32
  0
VERTEX
  8
SAPA_FOGBAND
  5
22F2
 10
60.3236
 20
2.70881
 30
0.000000
  70
    32
  0
SEQEND
  8
SAPA_FOGBAND
  5
22F3
  0
POLYLINE
  5
13D9
  8
SAPA_FOGBAND
 62
     2
 66
     1
 10
0.0
 20
0.0
 30
0.0
 70
     1
  0
VERTEX
  5
214F
  8
SAPA_FOGBAND
 62
     2
 10
55.02359225767659
 20
13.237726655192111
 30
0.0
  0
VERTEX
  5
2150
  8
SAPA_FOGBAND
 62
     2
 10
55.02359225767659
 20
-0.4427379941065955
 30
0.0
 42
0.427966335106886
  0
VERTEX
  5
2151
  8
SAPA_FOGBAND
 62
     2
 10
55.33760482903584
 20
-0.7424105618266044
 30
0.0
  0
VERTEX
  5
2152
  8
SAPA_FOGBAND
 62
     2
 10
63.537604829035843
 20
-0.2561106537469691
 30
0.0
 42
0.4005932428724212
  0
VERTEX
  5
2153
  8
SAPA_FOGBAND
 62
     2
 10
63.823592257676587
 20
0.0435619139730399
 30
0.0
  0
VERTEX
  5
2154
  8
SAPA_FOGBAND
 62
     2
 10
63.823592257676587
 20
1.8572620058934139
 30
0.0
  0
VERTEX
  5
2155
  8
SAPA_FOGBAND
 62
     2
 10
65.523592257676583
 20
1.8572620058934139
 30
0.0
 42
0.4142135623730951
  0
VERTEX
  5
2156
  8
SAPA_FOGBAND
 62
     2
 10
65.823592257676594
 20
2.1572620058934109
 30
0.0
  0
VERTEX
  5
2157
  8
SAPA_FOGBAND
 62
     2
 10
65.823592257676594
 20
9.5760427695193222
 30
0.0
 42
0.1379343940649207
  0
VERTEX
  5
2158
  8
SAPA_FOGBAND
 62
     2
 10
65.6770156428218
 20
10.09726107856773
 30
0.0
  0
VERTEX
  5
2159
  8
SAPA_FOGBAND
 62
     2
 10
58.26979740491349
 20
22.01787116041762
 30
0.0
 42
0.2613472755167645
  0
VERTEX
  5
215A
  8
SAPA_FOGBAND
 62
     2
 10
57.84308571234088
 20
22.25726200589342
 30
0.0
  0
VERTEX
  5
215B
  8
SAPA_FOGBAND
 62
     2
 10
56.848389095177673
 20
22.25726200589342
 30
0.0
 42
0.3915187749346393
  0
VERTEX
  5
215C
  8
SAPA_FOGBAND
 62
     2
 10
55.851437481172567
 20
21.335284306119899
 30
0.0
  0
VERTEX
  5
215D
  8
SAPA_FOGBAND
 62
     2
 10
55.025116450674041
 20
13.27673780530535
 30
0.0
 42
0.0195279011117891
  0
SEQEND
  5
215E
  8
SAPA_FOGBAND
 62
     2
  0
POLYLINE
  5
13DA
  8
SAPA_FOGBAND
 66
     1
 10
0.0
 20
0.0
 30
0.0
 70
     1
  0
VERTEX
  5
215F
  8
SAPA_FOGBAND
 10
19.13457567857742
 20
53.194553560699603
 30
0.0
 42
-0.1579553886371987
  0
VERTEX
  5
2160
  8
SAPA_FOGBAND
 10
18.987516172113061
 20
49.93072551658355
 30
0.0
 42
-1.0
  0
VERTEX
  5
2161
  8
SAPA_FOGBAND
 10
15.616198449351939
 20
51.193348505522813
 30
0.0
 42
-0.1276248526686838
  0
VERTEX
  5
2162
  8
SAPA_FOGBAND
 10
16.85751087103753
 20
52.961001014000367
 30
0.0
  0
VERTEX
  5
2163
  8
SAPA_FOGBAND
 10
17.926899543609949
 20
53.870347537569103
 30
0.0
 42
-0.5691506674918112
  0
VERTEX
  5
2164
  8
SAPA_FOGBAND
 10
19.065590738247039
 20
53.480111781851001
 30
0.0
 42
0.0156300267407041
  0
SEQEND
  5
2165
  8
SAPA_FOGBAND
  0
POLYLINE
  5
13DB
  8
SAPA_FOGBAND
 66
     1
 10
0.0
 20
0.0
 30
0.0
 70
     1
  0
VERTEX
  5
2166
  8
SAPA_FOGBAND
 10
11.92508730296484
 20
64.497405001252844
 30
0.0
 42
0.3888787318529789
  0
VERTEX
  5
2167
  8
SAPA_FOGBAND
 10
12.91214312747482
 20
63.211048806341232
 30
0.0
  0
VERTEX
  5
2168
  8
SAPA_FOGBAND
 10
13.62964497706119
 20
63.084533871550718
 30
0.0
 42
1.0
  0
VERTEX
  5
2169
  8
SAPA_FOGBAND
 10
14.220529628868491
 20
62.980344964950241
 30
0.0
  0
VERTEX
  5
216A
  8
SAPA_FOGBAND
 10
14.829644977061459
 20
62.872941494700562
 30
0.0
 42
0.9999999999999067
  0
VERTEX
  5
216B
  8
SAPA_FOGBAND
 10
15.42052962886876
 20
62.76875258810054
 30
0.0
  0
VERTEX
  5
216C
  8
SAPA_FOGBAND
 10
15.765256263537619
 20
62.70796798143914
 30
0.0
 42
-0.3345953195020691
  0
VERTEX
  5
216D
  8
SAPA_FOGBAND
 10
17.817440557791109
 20
60.50726975707807
 30
0.0
  0
VERTEX
  5
216E
  8
SAPA_FOGBAND
 10
18.170548330708272
 20
56.49346235206616
 30
0.0
 42
-0.2564696513213821
  0
VERTEX
  5
216F
  8
SAPA_FOGBAND
 10
17.044616164766271
 20
54.038968153359228
 30
0.0
  0
VERTEX
  5
2170
  8
SAPA_FOGBAND
 10
16.404050984547691
 20
53.494268424728432
 30
0.0
 42
0.1276248526686853
  0
VERTEX
  5
2171
  8
SAPA_FOGBAND
 10
14.96066444770398
 20
51.438858531149371
 30
0.0
 42
1.0
  0
VERTEX
  5
2172
  8
SAPA_FOGBAND
 10
19.64305017376094
 20
49.685215490956523
 30
0.0
 42
0.1579553886371977
  0
VERTEX
  5
2173
  8
SAPA_FOGBAND
 10
19.809532633909409
 20
53.38011516354112
 30
0.0
 42
-0.0604483959424258
  0
VERTEX
  5
2174
  8
SAPA_FOGBAND
 10
19.70844009945634
 20
56.770227224526423
 30
0.0
  0
VERTEX
  5
2175
  8
SAPA_FOGBAND
 10
19.920520940675061
 20
61.92779398089391
 30
0.0
 42
-0.3286126757704555
  0
VERTEX
  5
2176
  8
SAPA_FOGBAND
 10
20.976076496230721
 20
63.360438087363427
 30
0.0
 42
0.2704382184496639
  0
VERTEX
  5
2177
  8
SAPA_FOGBAND
 10
21.88975277137072
 20
64.478946612499783
 30
0.0
  0
VERTEX
  5
2178
  8
SAPA_FOGBAND
 10
18.02052094067497
 20
64.279082847372081
 30
0.0
  0
VERTEX
  5
2179
  8
SAPA_FOGBAND
 10
18.02052094067497
 20
65.479082847371885
 30
0.0
  0
VERTEX
  5
217A
  8
SAPA_FOGBAND
 10
17.96604917763559
 20
66.540147252921486
 30
0.0
  0
VERTEX
  5
217B
  8
SAPA_FOGBAND
 10
18.515895086440679
 20
66.539178243063745
 30
0.0
 42
0.6068148963145658
  0
VERTEX
  5
217C
  8
SAPA_FOGBAND
 10
18.631085655815721
 20
67.058769323886224
 30
0.0
  0
VERTEX
  5
217D
  8
SAPA_FOGBAND
 10
16.815672845795259
 20
68.435095009776376
 30
0.0
 42
0.4400105308918406
  0
VERTEX
  5
217E
  8
SAPA_FOGBAND
 10
15.291043554556859
 20
68.234373755689774
 30
0.0
  0
VERTEX
  5
217F
  8
SAPA_FOGBAND
 10
13.76784217314119
 20
66.217410831467021
 30
0.0
 42
0.5205670505516999
  0
VERTEX
  5
2180
  8
SAPA_FOGBAND
 10
13.93594207289723
 20
65.755560152675059
 30
0.0
  0
VERTEX
  5
2181
  8
SAPA_FOGBAND
 10
14.68078118432984
 20
65.72896452164008
 30
0.0
  0
VERTEX
  5
2182
  8
SAPA_FOGBAND
 10
14.48127024087583
 20
64.439051712791695
 30
0.0
  0
SEQEND
  5
2183
  8
SAPA_FOGBAND
  0
CIRCLE
  5
13DC
  8
SAPA_FOGBAND
 10
18.50166337668955
 20
62.88388739869827
 30
0.0
 40
0.3
  0
POLYLINE
  5
13DD
  8
SAPA_FOGBAND
 66
     1
 10
0.0
 20
0.0
 30
0.0
 70
     1
  0
VERTEX
  5
2184
  8
SAPA_FOGBAND
 10
15.32052094067515
 20
66.692535116093893
 30
0.0
  0
VERTEX
  5
2185
  8
SAPA_FOGBAND
 10
15.32052094067515
 20
64.779082847372081
 30
0.0
 42
0.4142135623730951
  0
VERTEX
  5
2186
  8
SAPA_FOGBAND
 10
15.82052094067515
 20
64.279082847372081
 30
0.0
  0
VERTEX
  5
2187
  8
SAPA_FOGBAND
 10
16.620520940674879
 20
64.279082847372081
 30
0.0
 42
0.4142135623730951
  0
VERTEX
  5
2188
  8
SAPA_FOGBAND
 10
17.120520940674879
 20
64.779082847372081
 30
0.0
  0
VERTEX
  5
2189
  8
SAPA_FOGBAND
 10
17.120520940674879
 20
66.855186659438402
 30
0.0
 42
0.2216946626429447
  0
VERTEX
  5
218A
  8
SAPA_FOGBAND
 10
16.906193506486972
 20
67.31481332531024
 30
0.0
  0
VERTEX
  5
218B
  8
SAPA_FOGBAND
 10
16.476998886550088
 20
67.674950372602723
 30
0.0
 42
0.4400105308918337
  0
VERTEX
  5
218C
  8
SAPA_FOGBAND
 10
15.81491738761636
 20
67.587785689661303
 30
0.0
  0
VERTEX
  5
218D
  8
SAPA_FOGBAND
 10
15.429029714101519
 20
67.036680977904723
 30
0.0
 42
0.153914721059829
  0
SEQEND
  5
218E
  8
SAPA_FOGBAND
  0
POLYLINE
  5
13DE
  8
SAPA_FOGBAND
 66
     1
 10
0.0
 20
0.0
 30
0.0
 70
     1
  0
VERTEX
  5
218F
  8
SAPA_FOGBAND
 10
3.9000000071581069
 20
45.238308414736842
 30
0.0
  0
VERTEX
  5
2190
  8
SAPA_FOGBAND
 10
2.9000000071581069
 20
45.238308414736842
 30
0.0
 42
-0.9999999999999998
  0
VERTEX
  5
2191
  8
SAPA_FOGBAND
 10
2.9000000071581069
 20
46.442467872616071
 30
0.0
  0
VERTEX
  5
2192
  8
SAPA_FOGBAND
 10
3.9000000071581069
 20
46.442467872616071
 30
0.0
 42
-0.9999999999999998
  0
SEQEND
  5
2193
  8
SAPA_FOGBAND
  0
POLYLINE
  5
13DF
  8
SAPA_FOGBAND
 66
     1
 10
0.0
 20
0.0
 30
0.0
 70
     1
  0
VERTEX
  5
2194
  8
SAPA_FOGBAND
 10
2.9761477098017788
 20
47.807672419861703
 30
0.0
  0
VERTEX
  5
2195
  8
SAPA_FOGBAND
 10
1.590382622856241
 20
46.949613709552239
 30
0.0
 42
0.2528723899644565
  0
VERTEX
  5
2196
  8
SAPA_FOGBAND
 10
1.500000007158105
 20
46.782329433367011
 30
0.0
  0
VERTEX
  5
2197
  8
SAPA_FOGBAND
 10
1.500000007158105
 20
44.898446853985909
 30
0.0
 42
0.2528723899644564
  0
VERTEX
  5
2198
  8
SAPA_FOGBAND
 10
1.590382622856241
 20
44.731162577800688
 30
0.0
  0
VERTEX
  5
2199
  8
SAPA_FOGBAND
 10
2.9761477098017788
 20
43.873103867491217
 30
0.0
 42
0.5108224790788402
  0
VERTEX
  5
219A
  8
SAPA_FOGBAND
 10
3.2789502593614559
 20
43.98862433465596
 30
0.0
  0
VERTEX
  5
219B
  8
SAPA_FOGBAND
 10
3.4000000071581069
 20
44.390388143676461
 30
0.0
  0
VERTEX
  5
219C
  8
SAPA_FOGBAND
 10
4.5000000071581061
 20
44.390388143676461
 30
0.0
  0
VERTEX
  5
219D
  8
SAPA_FOGBAND
 10
4.5000000071581052
 20
42.525653539818187
 30
0.0
 42
0.0874886635259237
  0
VERTEX
  5
219E
  8
SAPA_FOGBAND
 10
4.512061483000922
 20
42.457249511153051
 30
0.0
  0
VERTEX
  5
219F
  8
SAPA_FOGBAND
 10
5.0678751974376972
 20
38.924505365112942
 30
0.0
 42
0.9391885369168745
  0
VERTEX
  5
21A0
  8
SAPA_FOGBAND
 10
5.4508317161103204
 20
39.037271334844441
 30
0.0
  0
VERTEX
  5
21A1
  8
SAPA_FOGBAND
 10
5.300000007158105
 20
42.909465140081423
 30
0.0
  0
VERTEX
  5
21A2
  8
SAPA_FOGBAND
 10
5.4947157877327424
 20
43.73964010693004
 30
0.0
 42
0.0576596372120268
  0
VERTEX
  5
21A3
  8
SAPA_FOGBAND
 10
5.5000000071581079
 20
43.785310280952167
 30
0.0
  0
VERTEX
  5
21A4
  8
SAPA_FOGBAND
 10
5.5000000071581061
 20
48.190388143676472
 30
0.0
 42
0.4142135623730951
  0
VERTEX
  5
21A5
  8
SAPA_FOGBAND
 10
4.9000000071581074
 20
48.790388143676459
 30
0.0
  0
VERTEX
  5
21A6
  8
SAPA_FOGBAND
 10
4.7000000071581063
 20
48.790388143676459
 30
0.0
 42
0.4142135623730951
  0
VERTEX
  5
21A7
  8
SAPA_FOGBAND
 10
4.5000000071581061
 20
48.590388143676471
 30
0.0
  0
VERTEX
  5
21A8
  8
SAPA_FOGBAND
 10
4.5000000071581061
 20
47.290388143676473
 30
0.0
  0
VERTEX
  5
21A9
  8
SAPA_FOGBAND
 10
3.4000000071581069
 20
47.290388143676473
 30
0.0
  0
VERTEX
  5
21AA
  8
SAPA_FOGBAND
 10
3.2789502593614559
 20
47.692151952696967
 30
0.0
 42
0.51082247907884
  0
SEQEND
  5
21AB
  8
SAPA_FOGBAND
  0
POLYLINE
  5
13E0
  8
SAPA_FOGBAND
 66
     1
 10
0.0
 20
0.0
 30
0.0000000195376815
 70
     1
  0
VERTEX
  5
21AC
  8
SAPA_FOGBAND
 10
93.050080450059653
 20
67.112131453411465
 30
0.0000000195376815
  0
VERTEX
  5
21AD
  8
SAPA_FOGBAND
 10
93.050080450059653
 20
67.212131453411445
 30
0.0000000195376815
 42
0.4142135623730959
  0
VERTEX
  5
21AE
  8
SAPA_FOGBAND
 10
92.350080450059664
 20
67.912131453411448
 30
0.0000000195376815
  0
VERTEX
  5
21AF
  8
SAPA_FOGBAND
 10
91.250080450059684
 20
67.912131453411476
 30
0.0000000195376815
 42
0.4142135623730961
  0
VERTEX
  5
21B0
  8
SAPA_FOGBAND
 10
91.050080450059639
 20
67.712131453411459
 30
0.0000000195376815
  0
VERTEX
  5
21B1
  8
SAPA_FOGBAND
 10
91.050080450059639
 20
66.612131453411465
 30
0.0000000195376815
 42
0.4142135623730956
  0
VERTEX
  5
21B2
  8
SAPA_FOGBAND
 10
91.250080450059684
 20
66.412131453411433
 30
0.0000000195376815
  0
VERTEX
  5
21B3
  8
SAPA_FOGBAND
 10
92.350080450059664
 20
66.412131453411476
 30
0.0000000195376815
 42
0.4142135623730946
  0
SEQEND
  5
21B4
  8
SAPA_FOGBAND
  0
POLYLINE
  5
13E1
  8
SAPA_FOGBAND
 66
     1
 10
0.0
 20
0.0
 30
0.0000000195376815
 70
     1
  0
VERTEX
  5
21B5
  8
SAPA_FOGBAND
 10
91.75008045005967
 20
65.612131453411465
 30
0.0000000195376815
  0
VERTEX
  5
21B6
  8
SAPA_FOGBAND
 10
91.102314884786594
 20
65.612131453411465
 30
0.0000000195376815
 42
0.4416942457848324
  0
VERTEX
  5
21B7
  8
SAPA_FOGBAND
 10
90.903177405293619
 20
65.393577093783549
 30
0.0000000195376815
  0
VERTEX
  5
21B8
  8
SAPA_FOGBAND
 10
90.992893470551664
 20
64.430685813039375
 30
0.0000000195376815
 42
-0.4416942457847888
  0
VERTEX
  5
21B9
  8
SAPA_FOGBAND
 10
90.793755991058759
 20
64.212131453411459
 30
0.0000000195376815
  0
VERTEX
  5
21BA
  8
SAPA_FOGBAND
 10
90.243773651467194
 20
64.212131453411459
 30
0.0000000195376815
 42
-0.5445962197109612
  0
VERTEX
  5
21BB
  8
SAPA_FOGBAND
 10
89.788036742405353
 20
64.917810498816536
 30
0.0000000195376815
  0
VERTEX
  5
21BC
  8
SAPA_FOGBAND
 10
89.950080450059644
 20
65.2768616521018
 30
0.0000000195376815
  0
VERTEX
  5
21BD
  8
SAPA_FOGBAND
 10
89.950080450059644
 20
66.749820890849691
 30
0.0000000195376815
 42
-0.3364379234965429
  0
VERTEX
  5
21BE
  8
SAPA_FOGBAND
 10
90.137587267901424
 20
67.821564620464542
 30
0.0000000195376815
  0
VERTEX
  5
21BF
  8
SAPA_FOGBAND
 10
90.137587267901424
 20
68.383428256288241
 30
0.0000000195376815
 42
0.1919812372740509
  0
VERTEX
  5
21C0
  8
SAPA_FOGBAND
 10
90.000454889884139
 20
68.727415303888293
 30
0.0000000195376815
  0
VERTEX
  5
21C1
  8
SAPA_FOGBAND
 10
89.628977413594029
 20
69.119282234291546
 30
0.0000000195376815
 42
0.7712067734688043
  0
VERTEX
  5
21C2
  8
SAPA_FOGBAND
 10
86.819343417913373
 20
66.54685053441743
 30
0.0000000195376815
 42
0.152544453744271
  0
VERTEX
  5
21C3
  8
SAPA_FOGBAND
 10
87.711218686667166
 20
65.677424784577255
 30
0.0000000195376815
 42
-0.6229515670381967
  0
VERTEX
  5
21C4
  8
SAPA_FOGBAND
 10
87.611336402844643
 20
65.202484599801508
 30
0.0000000195376815
 42
-0.2412896305485237
  0
VERTEX
  5
21C5
  8
SAPA_FOGBAND
 10
87.207871588502485
 20
65.239235871099638
 30
0.0000000195376815
 42
-0.0924947384438033
  0
VERTEX
  5
21C6
  8
SAPA_FOGBAND
 10
86.517371176461083
 20
65.861228779829915
 30
0.0000000195376815
 42
-0.8622191196043894
  0
VERTEX
  5
21C7
  8
SAPA_FOGBAND
 10
90.093282928436921
 20
69.685099933571209
 30
0.0000000195376815
  0
VERTEX
  5
21C8
  8
SAPA_FOGBAND
 10
90.208650901726045
 20
70.115659071452455
 30
0.0000000195376815
 42
-0.9163311740173991
  0
VERTEX
  5
21C9
  8
SAPA_FOGBAND
 10
90.993499111478386
 20
69.977269156312374
 30
0.0000000195376815
  0
VERTEX
  5
21CA
  8
SAPA_FOGBAND
 10
90.901836665270835
 20
68.929562601960995
 30
0.0000000195376815
 42
0.4400105308918151
  0
VERTEX
  5
21CB
  8
SAPA_FOGBAND
 10
91.101075604889175
 20
68.712131453411459
 30
0.0000000195376815
  0
VERTEX
  5
21CC
  8
SAPA_FOGBAND
 10
91.950080450059659
 20
68.712131453411459
 30
0.0000000195376815
  0
VERTEX
  5
21CD
  8
SAPA_FOGBAND
 10
91.950080450059659
 20
69.112131453411465
 30
0.0000000195376815
 42
-0.5693809839207585
  0
VERTEX
  5
21CE
  8
SAPA_FOGBAND
 10
92.245896821762301
 20
69.287685498974994
 30
0.0000000195376815
  0
VERTEX
  5
21CF
  8
SAPA_FOGBAND
 10
93.537529565167603
 20
68.582719899075968
 30
0.0000000195376815
 42
-0.2743878130875472
  0
VERTEX
  5
21D0
  8
SAPA_FOGBAND
 10
93.850080450059664
 20
68.056057762385237
 30
0.0000000195376815
  0
VERTEX
  5
21D1
  8
SAPA_FOGBAND
 10
93.850080450059664
 20
66.268205144437687
 30
0.0000000195376815
 42
-0.2743878130875473
  0
VERTEX
  5
21D2
  8
SAPA_FOGBAND
 10
93.537529565167588
 20
65.741543007746955
 30
0.0000000195376815
  0
VERTEX
  5
21D3
  8
SAPA_FOGBAND
 10
92.245896821762329
 20
65.036577407847872
 30
0.0000000195376815
 42
-0.5693809839208271
  0
VERTEX
  5
21D4
  8
SAPA_FOGBAND
 10
91.950080450059616
 20
65.212131453411459
 30
0.0000000195376815
  0
VERTEX
  5
21D5
  8
SAPA_FOGBAND
 10
91.950080450059659
 20
65.612131453411465
 30
0.0000000195376815
  0
VERTEX
  5
21D6
  8
SAPA_FOGBAND
 10
91.101075604889175
 20
65.612131453411465
 30
0.0000000195376815
  0
SEQEND
  5
21D7
  8
SAPA_FOGBAND
  0
LINE
  5
13E2
  8
SAPA_FOGBAND
 10
90.999999933974934
 20
69.499999744289141
 30
0.0
 11
90.999999933974934
 21
69.499999744289141
 31
0.0
  0
DIMENSION
  5
13ED
  8
SAPA_MATT
  2
*D106
 10
9.8005704514499712
 20
191.70059980027801
 30
0.0
 11
109.8005704514499
 21
191.70059980027801
 31
0.0
 70
   128
  1
197-202
 13
209.80057045145
 23
174.50147618624979
 33
0.0
 14
9.8005704514499712
 24
174.50147618624979
 34
0.0
1001
ACAD
1000
DSTYLE
1002
{
1070
    40
1040
1.0
1002
}
  0
DIMENSION
  5
13EE
  8
SAPA_MATT
  2
*D105
 10
95.500000000000085
 20
-30.117582331900199
 30
0.0
 11
47.750000000000043
 21
-27.617582331900199
 31
0.0
 70
     0
 13
0.0000000000000001
 23
0.5000000000000071
 33
0.0
 14
95.500000000000085
 24
29.21687800000214
 34
0.0
1001
ACAD
1000
DSTYLE
1002
{
1070
    40
1040
1.0
1002
}
  0
DIMENSION
  5
13EF
  8
SAPA_MATT
  2
*D104
 10
-26.236646070995739
 20
0.0000000000000076
 30
0.0
 11
-26.236646070995729
 21
68.126335890952959
 31
0.0
 70
   128
 13
0.3000000071568625
 23
139.50000000229051
 33
0.0
 14
0.5
 24
0.0
 34
0.0
 50
90.0
1001
ACAD
1000
DSTYLE
1002
{
1070
    40
1040
1.0
1002
}
  0
DIMENSION
  5
13F0
  8
SAPA_MATT
  2
*D103
 10
-12.211396133825961
 20
139.50000000229051
 30
0.0
 11
-12.21139613382598
 21
91.30008511126934
 31
0.0
 70
   128
 13
0.5000000070498949
 23
42.500000002326111
 33
0.0
 14
0.3000000071568625
 24
139.50000000229051
 34
0.0
 50
90.0
1001
ACAD
1000
DSTYLE
1002
{
1070
    40
1040
1.0
1002
}
  0
DIMENSION
  5
13F1
  8
SAPA_MATT
  2
*D102
 10
-12.211396133825991
 20
42.500000002326111
 30
0.0
 11
-14.711396133825991
 21
40.000000001163038
 31
0.0
 70
     0
 13
0.5000000000000071
 23
37.499999999999993
 33
0.0
 14
0.5000000000000071
 24
42.500000002326111
 34
0.0
 50
90.0
1001
ACAD
1000
DSTYLE
1002
{
1070
    40
1040
1.0
1002
}
  0
DIMENSION
  5
13F2
  8
SAPA_MATT
  2
*D101
 10
-12.211396133826
 20
0.0000000000000107
 30
0.0
 11
-14.711396133825991
 21
18.75
 31
0.0
 70
     0
 13
0.5000000000000084
 23
37.5
 33
0.0
 14
0.5000000000000084
 24
0.0000000000000071
 34
0.0
 50
90.0
1001
ACAD
1000
DSTYLE
1002
{
1070
    40
1040
1.0
1002
}
  0
VIEWPORT
  5
C4
 67
     1
  8
0
 10
160.5543545598442
 20
116.00969601843509
 30
0.0
 40
404.96977709277462
 41
256.8421457311839
 68
     1
 69
     1
1001
ACAD
1000
MVIEW
1002
{
1070
    16
1010
0.0
1020
0.0
1030
0.0
1010
0.0
1020
0.0
1030
1.0
1040
-1.5707963267948959
1040
256.8421457311839
1040
102.1562485694885
1040
-121.90624046325679
1040
50.0
1040
0.0
1040
0.0
1070
     0
1070
     0
1070
     1
1070
     1
1070
     0
1070
     0
1070
     0
1070
     0
1040
0.0
1040
0.0
1040
0.0
1040
10.0
1040
10.0
1040
10.0
1040
10.0
1070
     0
1002
{
1002
}
1002
}
  0
ENDSEC
  0
EOF
