  0
SECTION
  2
HEADER
  9
$ACADVER
  1
AC1009
  9
$INSBASE
 10
0.0
 20
0.0
 30
0.0
  9
$EXTMIN
 10
-45.427207388985678
 20
-36.731494793416459
 30
0.0
  9
$EXTMAX
 10
232.25858215274701
 20
171.82328570420631
 30
0.0000000195376815
  9
$LIMMIN
 10
0.0
 20
0.0
  9
$LIMMAX
 10
790.0
 20
790.0
  9
$ORTHOMODE
 70
     0
  9
$REGENMODE
 70
     1
  9
$FILLMODE
 70
     1
  9
$QTEXTMODE
 70
     0
  9
$MIRRTEXT
 70
     1
  9
$DRAGMODE
 70
     2
  9
$LTSCALE
 40
4.0
  9
$OSMODE
 70
   167
  9
$ATTMODE
 70
     1
  9
$TEXTSIZE
 40
3.5
  9
$TRACEWID
 40
0.05
  9
$TEXTSTYLE
  7
ISO
  9
$CLAYER
  8
0
  9
$CELTYPE
  6
BYLAYER
  9
$CECOLOR
 62
   256
  9
$DIMSCALE
 40
0.0
  9
$DIMASZ
 40
3.0
  9
$DIMEXO
 40
1.5
  9
$DIMDLI
 40
10.0
  9
$DIMRND
 40
0.0
  9
$DIMDLE
 40
0.0
  9
$DIMEXE
 40
1.5
  9
$DIMTP
 40
0.0
  9
$DIMTM
 40
0.0
  9
$DIMTXT
 40
3.0
  9
$DIMCEN
 40
-5.0
  9
$DIMTSZ
 40
0.0
  9
$DIMTOL
 70
     0
  9
$DIMLIM
 70
     0
  9
$DIMTIH
 70
     0
  9
$DIMTOH
 70
     0
  9
$DIMSE1
 70
     0
  9
$DIMSE2
 70
     0
  9
$DIMTAD
 70
     1
  9
$DIMZIN
 70
     8
  9
$DIMBLK
  1

  9
$DIMASO
 70
     1
  9
$DIMSHO
 70
     1
  9
$DIMPOST
  1

  9
$DIMAPOST
  1

  9
$DIMALT
 70
     0
  9
$DIMALTD
 70
     0
  9
$DIMALTF
 40
25.399999999999999
  9
$DIMLFAC
 40
-1.0
  9
$DIMTOFL
 70
     1
  9
$DIMTVP
 40
0.0
  9
$DIMTIX
 70
     0
  9
$DIMSOXD
 70
     0
  9
$DIMSAH
 70
     0
  9
$DIMBLK1
  1

  9
$DIMBLK2
  1

  9
$DIMSTYLE
  2
MASKIN
  9
$DIMCLRD
 70
   256
  9
$DIMCLRE
 70
   256
  9
$DIMCLRT
 70
     2
  9
$DIMTFAC
 40
1.0
  9
$DIMGAP
 40
1.0
  9
$LUNITS
 70
     2
  9
$LUPREC
 70
     8
  9
$SKETCHINC
 40
0.1
  9
$FILLETRAD
 40
0.0
  9
$AUNITS
 70
     0
  9
$AUPREC
 70
     8
  9
$MENU
  1
ACAD
  9
$ELEVATION
 40
0.0
  9
$PELEVATION
 40
0.0
  9
$THICKNESS
 40
0.0
  9
$LIMCHECK
 70
     0
  9
$BLIPMODE
 70
     0
  9
$CHAMFERA
 40
0.0
  9
$CHAMFERB
 40
0.0
  9
$SKPOLY
 70
     0
  9
$TDCREATE
 40
2457480.5423407871
  9
$TDUPDATE
 40
2457744.3879457409
  9
$TDINDWG
 40
0.0291860764
  9
$TDUSRTIMER
 40
0.0291860764
  9
$USRTIMER
 70
     1
  9
$ANGBASE
 50
0.0
  9
$ANGDIR
 70
     0
  9
$PDMODE
 70
     0
  9
$PDSIZE
 40
0.0
  9
$PLINEWID
 40
0.0
  9
$COORDS
 70
     1
  9
$SPLFRAME
 70
     0
  9
$SPLINETYPE
 70
     6
  9
$SPLINESEGS
 70
     8
  9
$ATTDIA
 70
     1
  9
$ATTREQ
 70
     1
  9
$HANDLING
 70
     1
  9
$HANDSEED
  5
2219
  9
$SURFTAB1
 70
     6
  9
$SURFTAB2
 70
     6
  9
$SURFTYPE
 70
     6
  9
$SURFU
 70
     6
  9
$SURFV
 70
     6
  9
$UCSNAME
  2

  9
$UCSORG
 10
0.0
 20
0.0
 30
0.0
  9
$UCSXDIR
 10
1.0
 20
0.0
 30
0.0
  9
$UCSYDIR
 10
0.0
 20
1.0
 30
0.0
  9
$PUCSNAME
  2

  9
$PUCSORG
 10
0.0
 20
0.0
 30
0.0
  9
$PUCSXDIR
 10
1.0
 20
0.0
 30
0.0
  9
$PUCSYDIR
 10
0.0
 20
1.0
 30
0.0
  9
$USERI1
 70
     0
  9
$USERI2
 70
     0
  9
$USERI3
 70
     0
  9
$USERI4
 70
     0
  9
$USERI5
 70
     0
  9
$USERR1
 40
0.0
  9
$USERR2
 40
0.0
  9
$USERR3
 40
0.0
  9
$USERR4
 40
0.0
  9
$USERR5
 40
0.0
  9
$WORLDVIEW
 70
     1
  9
$SHADEDGE
 70
     3
  9
$SHADEDIF
 70
    70
  9
$TILEMODE
 70
     1
  9
$MAXACTVP
 70
    16
  9
$PLIMCHECK
 70
     0
  9
$PEXTMIN
 10
1.0000000000000000E+020
 20
1.0000000000000000E+020
 30
1.0000000000000000E+020
  9
$PEXTMAX
 10
-1.0000000000000000E+020
 20
-1.0000000000000000E+020
 30
-1.0000000000000000E+020
  9
$PLIMMIN
 10
-5.069427490234375
 20
-5.8737497329711914
  9
$PLIMMAX
 10
291.89889526367187
 20
204.0995779037475
  9
$UNITMODE
 70
     0
  9
$VISRETAIN
 70
     1
  9
$PLINEGEN
 70
     0
  9
$PSLTSCALE
 70
     1
  0
ENDSEC
  0
SECTION
  2
TABLES
  0
TABLE
  2
VPORT
 70
     1
  0
VPORT
  2
*ACTIVE
 70
     0
 10
0.0
 20
0.0
 11
1.0
 21
1.0
 12
93.421841557772595
 22
232.5526119258177
 13
0.0
 23
0.0
 14
1.0
 24
1.0
 15
0.0
 25
0.0
 16
0.0
 26
0.0
 36
1.0
 17
0.0
 27
0.0
 37
0.0
 40
308.48570008412361
 41
1.616257088846881
 42
50.0
 43
0.0
 44
0.0
 50
0.0
 51
0.0
 71
     0
 72
   100
 73
     1
 74
     1
 75
     0
 76
     0
 77
     0
 78
     0
  0
ENDTAB
  0
TABLE
  2
LTYPE
 70
    28
  0
LTYPE
  2
CONTINUOUS
 70
     0
  3
Solid line
 72
    65
 73
     0
 40
0.0
  0
LTYPE
  2
BYGG-035273$0$NEWDOT
 70
     0
  3
____ . ____ . ____ . ____ . ____ . ____ . ____
 72
    65
 73
     4
 40
2.0
 49
1.0
 49
-0.5
 49
0.0
 49
-0.5
  0
LTYPE
  2
BYGG-035273$0$DASHDOT
 70
     0
  3
__ . __ . __ . __ . __ . __ . __ . __ . __ . __
 72
    65
 73
     4
 40
1.0
 49
0.5
 49
-0.25
 49
0.0
 49
-0.25
  0
LTYPE
  2
BYGG-035273$0$DASHED
 70
     0
  3
__ __ __ __ __ __ __ __ __ __ __ __ __ __ __
 72
    65
 73
     2
 40
0.75
 49
0.5
 49
-0.25
  0
LTYPE
  2
BYGG-035273$0$PHANTOM
 70
     0
  3
Phantom ______  __  __  ______  __  __  ______
 72
    65
 73
     6
 40
63.5
 49
31.75
 49
-6.3499999999999988
 49
6.3499999999999988
 49
-6.3499999999999988
 49
6.3499999999999988
 49
-6.3499999999999988
  0
LTYPE
  2
BYGG-024882$0$NEWDOT
 70
     0
  3
____ . ____ . ____ . ____ . ____ . ____ . ____
 72
    65
 73
     4
 40
2.0
 49
1.0
 49
-0.5
 49
0.0
 49
-0.5
  0
LTYPE
  2
BYGG-020132$0$NEWDOT
 70
     0
  3
____ . ____ . ____ . ____ . ____ . ____ . ____
 72
    65
 73
     4
 40
2.0
 49
1.0
 49
-0.5
 49
0.0
 49
-0.5
  0
LTYPE
  2
BYGG-020132$0$DASHDOT
 70
     0
  3
__ . __ . __ . __ . __ . __ . __ . __ . __ . __
 72
    65
 73
     4
 40
1.0
 49
0.5
 49
-0.25
 49
0.0
 49
-0.25
  0
LTYPE
  2
BYGG-024798$0$NEWDOT
 70
     0
  3
____ . ____ . ____ . ____ . ____ . ____ . ____
 72
    65
 73
     4
 40
2.0
 49
1.0
 49
-0.5
 49
0.0
 49
-0.5
  0
LTYPE
  2
BYGG-024799$0$NEWDOT
 70
     0
  3
____ . ____ . ____ . ____ . ____ . ____ . ____
 72
    65
 73
     4
 40
2.0
 49
1.0
 49
-0.5
 49
0.0
 49
-0.5
  0
LTYPE
  2
BYGG-024799$0$DASHDOT
 70
     0
  3
__ . __ . __ . __ . __ . __ . __ . __ . __ . __
 72
    65
 73
     4
 40
1.0
 49
0.5
 49
-0.25
 49
0.0
 49
-0.25
  0
LTYPE
  2
BYGG-025652$0$NEWDOT
 70
     0
  3
____ . ____ . ____ . ____ . ____ . ____ . ____
 72
    65
 73
     4
 40
2.0
 49
1.0
 49
-0.5
 49
0.0
 49
-0.5
  0
LTYPE
  2
BYGG-025652$0$DASHDOT
 70
     0
  3
__ . __ . __ . __ . __ . __ . __ . __ . __ . __
 72
    65
 73
     4
 40
1.0
 49
0.5
 49
-0.25
 49
0.0
 49
-0.25
  0
LTYPE
  2
BYGG-025652$0$DASHED
 70
     0
  3
__ __ __ __ __ __ __ __ __ __ __ __ __ __ __
 72
    65
 73
     2
 40
0.75
 49
0.5
 49
-0.25
  0
LTYPE
  2
BYGG-025652$0$PHANTOM
 70
     0
  3
Phantom ______  __  __  ______  __  __  ______
 72
    65
 73
     6
 40
63.5
 49
31.75
 49
-6.3499999999999988
 49
6.3499999999999988
 49
-6.3499999999999988
 49
6.3499999999999988
 49
-6.3499999999999988
  0
LTYPE
  2
BYGG-014411$0$NEWDOT
 70
     0
  3
____ . ____ . ____ . ____ . ____ . ____ . ____
 72
    65
 73
     4
 40
2.0
 49
1.0
 49
-0.5
 49
0.0
 49
-0.5
  0
LTYPE
  2
BYGG-014411$0$ZIGZAG
 70
     0
  3
Zig zag /\/\/\/\/\/\/\/\/\/\/\/\/\/\/\/\/\/\/\/\/\/\/\/
 72
    65
 73
     4
 40
20.32254
 49
0.00254
 49
-5.0800000000000001
 49
-10.16
 49
-5.0800000000000001
  0
LTYPE
  2
BYGG-036381$0$NEWDOT
 70
     0
  3
____ . ____ . ____ . ____ . ____ . ____ . ____
 72
    65
 73
     4
 40
2.0
 49
1.0
 49
-0.5
 49
0.0
 49
-0.5
  0
LTYPE
  2
BYGG-036381$0$ZIGZAG
 70
     0
  3
Zig zag /\/\/\/\/\/\/\/\/\/\/\/\/\/\/\/\/\/\/\/\/\/\/\/
 72
    65
 73
     4
 40
20.32254
 49
0.00254
 49
-5.0800000000000001
 49
-10.16
 49
-5.0800000000000001
  0
LTYPE
  2
BYGG-024882$0$DASHDOT
 70
     0
  3
__ . __ . __ . __ . __ . __ . __ . __ . __ . __
 72
    65
 73
     4
 40
1.0
 49
0.5
 49
-0.25
 49
0.0
 49
-0.25
  0
LTYPE
  2
BYGG-014090$0$PHANTOM2
 70
     0
  3
Phantom (.5x) ___ _ _ ___ _ _ ___ _ _ ___ _ _
 72
    65
 73
     6
 40
1.25
 49
0.625
 49
-0.125
 49
0.125
 49
-0.125
 49
0.125
 49
-0.125
  0
LTYPE
  2
BYGG-030185$0$PHANTOM2
 70
     0
  3
Phantom (.5x) ___ _ _ ___ _ _ ___ _ _ ___ _ _
 72
    65
 73
     6
 40
1.25
 49
0.625
 49
-0.125
 49
0.125
 49
-0.125
 49
0.125
 49
-0.125
  0
LTYPE
  2
BYGG-024798$0$DASHDOT
 70
     0
  3
__ . __ . __ . __ . __ . __ . __ . __ . __ . __
 72
    65
 73
     4
 40
1.0
 49
0.5
 49
-0.25
 49
0.0
 49
-0.25
  0
LTYPE
  2
BYGG-014089$0$PHANTOM2
 70
     0
  3
Phantom (.5x) ___ _ _ ___ _ _ ___ _ _ ___ _ _
 72
    65
 73
     6
 40
1.25
 49
0.625
 49
-0.125
 49
0.125
 49
-0.125
 49
0.125
 49
-0.125
  0
LTYPE
  2
BYGG-014108$0$PHANTOM2
 70
     0
  3
Phantom (.5x) ___ _ _ ___ _ _ ___ _ _ ___ _ _
 72
    65
 73
     6
 40
1.25
 49
0.625
 49
-0.125
 49
0.125
 49
-0.125
 49
0.125
 49
-0.125
  0
LTYPE
  2
BYGG-025652$0$PHANTOM2
 70
     0
  3
Phantom (.5x) ___ _ _ ___ _ _ ___ _ _ ___ _ _
 72
    65
 73
     6
 40
1.25
 49
0.625
 49
-0.125
 49
0.125
 49
-0.125
 49
0.125
 49
-0.125
  0
LTYPE
  2
BYGG-014411$0$PHANTOM2
 70
     0
  3
Phantom (.5x) ___ _ _ ___ _ _ ___ _ _ ___ _ _
 72
    65
 73
     6
 40
1.25
 49
0.625
 49
-0.125
 49
0.125
 49
-0.125
 49
0.125
 49
-0.125
  0
LTYPE
  2
BYGG-014088$0$PHANTOM2
 70
     0
  3
Phantom (.5x) ___ _ _ ___ _ _ ___ _ _ ___ _ _
 72
    65
 73
     6
 40
1.25
 49
0.625
 49
-0.125
 49
0.125
 49
-0.125
 49
0.125
 49
-0.125
  0
ENDTAB
  0
TABLE
  2
LAYER
 70
   150
  0
LAYER
  2
0
 70
     0
 62
     7
  6
CONTINUOUS
  0
LAYER
  2
DEFPOINTS
 70
     0
 62
     7
  6
CONTINUOUS
  0
LAYER
  2
SAPA_ANSLUTNING
 70
     0
 62
     6
  6
CONTINUOUS
  0
LAYER
  2
SAPA_ARTIKELNR
 70
     0
 62
     4
  6
CONTINUOUS
  0
LAYER
  2
SAPA_FYLLNING
 70
     0
 62
     4
  6
CONTINUOUS
  0
LAYER
  2
SAPA_MATT
 70
     0
 62
     1
  6
CONTINUOUS
  0
LAYER
  2
SAPA_GLAS
 70
     0
 62
     4
  6
CONTINUOUS
  0
LAYER
  2
SAPA_FOGBAND
 70
     0
 62
     2
  6
CONTINUOUS
  0
LAYER
  2
SAPA_PROFIL
 70
     0
 62
     7
  6
CONTINUOUS
  0
ENDTAB
  0
TABLE
  2
STYLE
 70
    39
  0
STYLE
  2
STANDARD
 70
     0
 40
0.0
 41
1.0
 50
0.0
 71
     0
 42
0.2
  3
txt
  4

  0
STYLE
  2
ISO
 70
     0
 40
0.0
 41
1.0
 50
0.0
 71
     0
 42
3.5
  3
txt
  4

  0
STYLE
  2

 70
     1
 40
0.0
 41
1.0
 50
0.0
 71
     0
 42
0.2
  3
ltypeshp.shx
  4

  0
STYLE
  2
BYGG-035273$0$STANDARD
 70
     0
 40
0.0
 41
1.0
 50
0.0
 71
     0
 42
0.2
  3
txt
  4

  0
STYLE
  2
BYGG-035273$0$ISO
 70
     0
 40
0.0
 41
1.0
 50
0.0
 71
     0
 42
3.5
  3
txt
  4

  0
STYLE
  2
BYGG-028980$0$STANDARD
 70
     0
 40
0.0
 41
1.0
 50
0.0
 71
     0
 42
0.2
  3
txt
  4

  0
STYLE
  2
BYGG-028980$0$ISO
 70
     0
 40
0.0
 41
1.0
 50
0.0
 71
     0
 42
3.5
  3
txt
  4

  0
STYLE
  2
BYGG-024882$0$STANDARD
 70
     0
 40
0.0
 41
1.0
 50
0.0
 71
     0
 42
0.2
  3
txt
  4

  0
STYLE
  2
BYGG-024882$0$ISO
 70
     0
 40
0.0
 41
1.0
 50
0.0
 71
     0
 42
3.5
  3
txt
  4

  0
STYLE
  2
BYGG-020132$0$STANDARD
 70
     0
 40
0.0
 41
1.0
 50
0.0
 71
     0
 42
0.2
  3
txt
  4

  0
STYLE
  2
BYGG-020132$0$ISO
 70
     0
 40
0.0
 41
1.0
 50
0.0
 71
     0
 42
3.5
  3
txt
  4

  0
STYLE
  2
BYGG-014090$0$STANDARD
 70
     0
 40
0.0
 41
1.0
 50
0.0
 71
     0
 42
0.2
  3
txt
  4

  0
STYLE
  2
BYGG-014090$0$SIMPLEX
 70
     0
 40
0.0
 41
1.0
 50
0.0
 71
     0
 42
0.2
  3
simplex
  4

  0
STYLE
  2
BYGG-030185$0$STANDARD
 70
     0
 40
0.0
 41
1.0
 50
0.0
 71
     0
 42
0.2
  3
txt
  4

  0
STYLE
  2
BYGG-030185$0$ISO
 70
     0
 40
0.0
 41
1.0
 50
0.0
 71
     0
 42
7.0
  3
ISO
  4

  0
STYLE
  2
BYGG-024798$0$STANDARD
 70
     0
 40
0.0
 41
1.0
 50
0.0
 71
     0
 42
0.2
  3
txt
  4

  0
STYLE
  2
BYGG-024798$0$ISO
 70
     0
 40
0.0
 41
1.0
 50
0.0
 71
     0
 42
3.5
  3
txt
  4

  0
STYLE
  2
BYGG-024799$0$STANDARD
 70
     0
 40
0.0
 41
1.0
 50
0.0
 71
     0
 42
0.2
  3
txt
  4

  0
STYLE
  2
BYGG-024799$0$ISO
 70
     0
 40
0.0
 41
1.0
 50
0.0
 71
     0
 42
3.5
  3
txt
  4

  0
STYLE
  2
BYGG-014089$0$STANDARD
 70
     0
 40
0.0
 41
1.0
 50
0.0
 71
     0
 42
0.2
  3
txt
  4

  0
STYLE
  2
BYGG-014089$0$ANNOTATIVE
 70
     0
 40
0.0
 41
1.0
 50
0.0
 71
     0
 42
3.5
  3
txt
  4

  0
STYLE
  2
BYGG-014108$0$STANDARD
 70
     0
 40
0.0
 41
1.0
 50
0.0
 71
     0
 42
0.4
  3
txt
  4

  0
STYLE
  2
BYGG-014108$0$SIMPLEX
 70
     0
 40
0.0
 41
1.0
 50
0.0
 71
     0
 42
0.2
  3
simplex
  4

  0
STYLE
  2
BYGG-019611$0$STANDARD
 70
     0
 40
0.0
 41
1.0
 50
0.0
 71
     0
 42
0.2
  3
txt
  4

  0
STYLE
  2
BYGG-019611$0$ISO
 70
     0
 40
0.0
 41
1.0
 50
0.0
 71
     0
 42
3.5
  3
txt
  4

  0
STYLE
  2
BYGG-025652$0$STANDARD
 70
     0
 40
0.0
 41
1.0
 50
0.0
 71
     0
 42
0.2
  3
txt
  4

  0
STYLE
  2
BYGG-025652$0$ISO
 70
     0
 40
0.0
 41
1.0
 50
0.0
 71
     0
 42
3.5
  3
txt
  4

  0
STYLE
  2
BYGG-025652$0$ANNOTATIVE
 70
     0
 40
0.0
 41
1.0
 50
0.0
 71
     0
 42
0.2
  3
txt
  4

  0
STYLE
  2
BYGG-014411$0$STANDARD
 70
     0
 40
0.0
 41
1.0
 50
0.0
 71
     0
 42
0.2
  3
txt
  4

  0
STYLE
  2
BYGG-014411$0$ISO
 70
     0
 40
0.0
 41
1.0
 50
0.0
 71
     0
 42
3.5
  3
isocp3.shx
  4

  0
STYLE
  2
BYGG-014088$0$STANDARD
 70
     0
 40
0.0
 41
1.0
 50
0.0
 71
     0
 42
0.4
  3
txt
  4

  0
STYLE
  2
BYGG-015465$0$STANDARD
 70
     0
 40
0.0
 41
1.0
 50
0.0
 71
     0
 42
0.2
  3
txt
  4

  0
STYLE
  2
BYGG-015465$0$ISO
 70
     0
 40
0.0
 41
1.0
 50
0.0
 71
     0
 42
3.5
  3
txt
  4

  0
STYLE
  2
BYGG-01443301$0$STANDARD
 70
     0
 40
0.0
 41
1.0
 50
0.0
 71
     0
 42
0.2
  3
txt
  4

  0
STYLE
  2
BYGG-01443301$0$ISO
 70
     0
 40
0.0
 41
1.0
 50
0.0
 71
     0
 42
3.5
  3
isocp3.shx
  4

  0
STYLE
  2
BYGG-036382$0$STANDARD
 70
     0
 40
0.0
 41
1.0
 50
0.0
 71
     0
 42
0.2
  3
txt
  4

  0
STYLE
  2
BYGG-036382$0$ISO
 70
     0
 40
0.0
 41
1.0
 50
0.0
 71
     0
 42
3.5
  3
txt
  4

  0
STYLE
  2
BYGG-036381$0$STANDARD
 70
     0
 40
0.0
 41
1.0
 50
0.0
 71
     0
 42
0.2
  3
txt
  4

  0
STYLE
  2
BYGG-036381$0$ISO
 70
     0
 40
0.0
 41
1.0
 50
0.0
 71
     0
 42
3.5
  3
txt
  4

  0
ENDTAB
  0
TABLE
  2
VIEW
 70
     0
  0
ENDTAB
  0
TABLE
  2
UCS
 70
     0
  0
ENDTAB
  0
TABLE
  2
APPID
 70
    32
  0
APPID
  2
ACAD
 70
     0
  0
APPID
  2
ACAD_DSTYLE_DIMTEXT_FILL
 70
     0
  0
APPID
  2
ACAD_DSTYLE_DIMEXT_LENGTH
 70
     0
  0
APPID
  2
ACAD_DSTYLE_DIMEXT_ENABLED
 70
     0
  0
APPID
  2
ACAD_DSTYLE_DIM_LINETYPE
 70
     0
  0
APPID
  2
ACAD_DSTYLE_DIM_EXT1_LINETYPE
 70
     0
  0
APPID
  2
ACAD_DSTYLE_DIM_EXT2_LINETYPE
 70
     0
  0
APPID
  2
ACAD_DSTYLE_DIMJOGGED_JOGA
 70
     0
  0
APPID
  2
ACAD_DSTYLE_DIMARC_LENGTH_
 70
     0
  0
APPID
  2
ACAD_PSEXT
 70
     0
  0
APPID
  2
ACAD_MLEADERVER
 70
     0
  0
APPID
  2
ACAD_NAV_VCDISPLAY
 70
     0
  0
APPID
  2
ACAECLAYERSTANDARD
 70
     0
  0
APPID
  2
AMG_ARCHIVE11
 70
     0
  0
APPID
  2
ACADANNOTATIVE
 70
     0
  0
APPID
  2
ACAD_DSTYLE_DIMRADIAL_EXTENSION
 70
     0
  0
APPID
  2
ACAD_EXEMPT_FROM_CAD_STANDARDS
 70
     0
  0
APPID
  2
ACAD_OBJECT_CHANGE_GUID
 70
     0
  0
APPID
  2
ACCMTRANSPARENCY
 70
     0
  0
APPID
  2
ACDBDYNAMICBLOCKGUID
 70
     0
  0
APPID
  2
ACDBBLOCKREPETAG
 70
     0
  0
APPID
  2
AVE_RENDER
 70
     0
  0
APPID
  2
AVE_ENTITY_MATERIAL
 70
     0
  0
APPID
  2
AVE_FINISH
 70
     0
  0
APPID
  2
AVE_MATERIAL
 70
     0
  0
APPID
  2
AVE_GLOBAL
 70
     0
  0
APPID
  2
4M_RENDER
 70
     0
  0
APPID
  2
LIBMAN
 70
     0
  0
APPID
  2
AUTOBUILD
 70
     0
  0
APPID
  2
ACAUTHENVIRON
 70
     0
  0
APPID
  2
ACDBDYNAMICBLOCKTRUENAME
 70
     0
  0
APPID
  2
AEC_XDATA_BOUND_SPACE
 70
     0
  0
ENDTAB
  0
TABLE
  2
DIMSTYLE
 70
    34
  0
DIMSTYLE
  2
STANDARD
 70
     0
  3

  4

  5

  6

  7

 40
1.0
 41
0.18
 42
0.0625
 43
0.38
 44
0.18
 45
0.0
 46
0.0
 47
0.0
 48
0.0
140
0.18
141
0.09
142
0.0
143
25.399999999999999
144
1.0
145
0.0
146
1.0
147
0.09
 71
     0
 72
     0
 73
     1
 74
     1
 75
     0
 76
     0
 77
     0
 78
     0
170
     0
171
     2
172
     0
173
     0
174
     0
175
     0
176
     0
177
     0
178
     0
  0
DIMSTYLE
  2
MASKIN
 70
     0
  3

  4

  5

  6

  7

 40
0.0
 41
3.0
 42
1.5
 43
10.0
 44
1.5
 45
0.0
 46
0.0
 47
0.0
 48
0.0
140
3.0
141
-5.0
142
0.0
143
25.399999999999999
144
-1.0
145
0.0
146
1.0
147
1.0
 71
     0
 72
     0
 73
     0
 74
     0
 75
     0
 76
     0
 77
     1
 78
     8
170
     0
171
     0
172
     1
173
     0
174
     0
175
     0
176
   256
177
   256
178
     2
  0
DIMSTYLE
  2
BYGG-035273$0$STANDARD
 70
     0
  3

  4

  5

  6

  7

 40
1.0
 41
0.18
 42
0.0625
 43
0.38
 44
0.18
 45
0.0
 46
0.0
 47
0.0
 48
0.0
140
0.18
141
0.09
142
0.0
143
25.399999999999999
144
1.0
145
0.0
146
1.0
147
0.09
 71
     0
 72
     0
 73
     1
 74
     1
 75
     0
 76
     0
 77
     0
 78
     0
170
     0
171
     2
172
     0
173
     0
174
     0
175
     0
176
     0
177
     0
178
     0
  0
DIMSTYLE
  2
BYGG-035273$0$MASKIN
 70
     0
  3

  4

  5

  6

  7

 40
0.0
 41
3.0
 42
1.5
 43
10.0
 44
1.5
 45
0.0
 46
0.0
 47
0.0
 48
0.0
140
3.0
141
-5.0
142
0.0
143
25.399999999999999
144
-1.0
145
0.0
146
1.0
147
1.0
 71
     0
 72
     0
 73
     0
 74
     0
 75
     0
 76
     0
 77
     1
 78
     8
170
     0
171
     0
172
     1
173
     0
174
     0
175
     0
176
   256
177
   256
178
     2
  0
DIMSTYLE
  2
BYGG-028980$0$STANDARD
 70
     0
  3

  4

  5

  6

  7

 40
1.0
 41
0.18
 42
0.0625
 43
0.38
 44
0.18
 45
0.0
 46
0.0
 47
0.0
 48
0.0
140
0.18
141
0.09
142
0.0
143
25.399999999999999
144
1.0
145
0.0
146
1.0
147
0.09
 71
     0
 72
     0
 73
     1
 74
     1
 75
     0
 76
     0
 77
     0
 78
     0
170
     0
171
     2
172
     0
173
     0
174
     0
175
     0
176
     0
177
     0
178
     0
  0
DIMSTYLE
  2
BYGG-028980$0$MASKIN
 70
     0
  3

  4

  5

  6

  7

 40
0.0
 41
3.0
 42
1.5
 43
10.0
 44
1.5
 45
0.0
 46
0.0
 47
0.0
 48
0.0
140
3.0
141
-5.0
142
0.0
143
25.399999999999999
144
-1.0
145
0.0
146
1.0
147
1.0
 71
     0
 72
     0
 73
     0
 74
     0
 75
     0
 76
     0
 77
     1
 78
     8
170
     0
171
     0
172
     1
173
     0
174
     0
175
     0
176
   256
177
   256
178
     2
  0
DIMSTYLE
  2
BYGG-024882$0$STANDARD
 70
     0
  3

  4

  5

  6

  7

 40
1.0
 41
0.18
 42
0.0625
 43
0.38
 44
0.18
 45
0.0
 46
0.0
 47
0.0
 48
0.0
140
0.18
141
0.09
142
0.0
143
25.399999999999999
144
1.0
145
0.0
146
1.0
147
0.09
 71
     0
 72
     0
 73
     1
 74
     1
 75
     0
 76
     0
 77
     0
 78
     0
170
     0
171
     2
172
     0
173
     0
174
     0
175
     0
176
     0
177
     0
178
     0
  0
DIMSTYLE
  2
BYGG-024882$0$MASKIN
 70
     0
  3

  4

  5

  6

  7

 40
0.0
 41
3.0
 42
1.5
 43
10.0
 44
1.5
 45
0.0
 46
0.0
 47
0.0
 48
0.0
140
3.0
141
-5.0
142
0.0
143
25.399999999999999
144
-1.0
145
0.0
146
1.0
147
1.0
 71
     0
 72
     0
 73
     0
 74
     0
 75
     0
 76
     0
 77
     1
 78
     8
170
     0
171
     0
172
     1
173
     0
174
     0
175
     0
176
   256
177
   256
178
     2
  0
DIMSTYLE
  2
BYGG-020132$0$MASKIN
 70
     0
  3

  4

  5

  6

  7

 40
0.0
 41
3.0
 42
1.5
 43
10.0
 44
1.5
 45
0.0
 46
0.0
 47
0.0
 48
0.0
140
3.0
141
-5.0
142
0.0
143
25.399999999999999
144
-1.0
145
0.0
146
1.0
147
1.0
 71
     0
 72
     0
 73
     0
 74
     0
 75
     0
 76
     0
 77
     1
 78
     8
170
     0
171
     0
172
     1
173
     0
174
     0
175
     0
176
   256
177
   256
178
     2
  0
DIMSTYLE
  2
BYGG-020132$0$STANDARD
 70
     0
  3

  4

  5

  6

  7

 40
1.0
 41
0.18
 42
0.0625
 43
0.38
 44
0.18
 45
0.0
 46
0.0
 47
0.0
 48
0.0
140
0.18
141
0.09
142
0.0
143
25.399999999999999
144
1.0
145
0.0
146
1.0
147
0.09
 71
     0
 72
     0
 73
     1
 74
     1
 75
     0
 76
     0
 77
     0
 78
     0
170
     0
171
     2
172
     0
173
     0
174
     0
175
     0
176
     0
177
     0
178
     0
  0
DIMSTYLE
  2
BYGG-014090$0$STANDARD
 70
     0
  3

  4

  5

  6

  7

 40
1.0
 41
0.18
 42
0.0625
 43
0.38
 44
0.18
 45
0.0
 46
0.0
 47
0.0
 48
0.0
140
0.18
141
0.09
142
0.0
143
25.399999999999999
144
1.0
145
0.0
146
1.0
147
0.09
 71
     0
 72
     0
 73
     1
 74
     1
 75
     0
 76
     0
 77
     0
 78
     0
170
     0
171
     2
172
     0
173
     0
174
     0
175
     0
176
     0
177
     0
178
     0
  0
DIMSTYLE
  2
BYGG-030185$0$STANDARD
 70
     0
  3

  4

  5

  6

  7

 40
1.0
 41
0.18
 42
0.0625
 43
0.38
 44
0.18
 45
0.0
 46
0.0
 47
0.0
 48
0.0
140
0.18
141
0.09
142
0.0
143
25.399999999999999
144
1.0
145
0.0
146
1.0
147
0.09
 71
     0
 72
     0
 73
     1
 74
     1
 75
     0
 76
     0
 77
     0
 78
     0
170
     0
171
     2
172
     0
173
     0
174
     0
175
     0
176
     0
177
     0
178
     0
  0
DIMSTYLE
  2
BYGG-030185$0$MASKIN
 70
     0
  3

  4

  5

  6

  7

 40
0.0
 41
3.0
 42
1.5
 43
10.0
 44
1.5
 45
0.0
 46
0.0
 47
0.0
 48
0.0
140
3.0
141
-5.0
142
0.0
143
25.399999999999999
144
-1.0
145
0.0
146
1.0
147
1.0
 71
     0
 72
     0
 73
     0
 74
     1
 75
     0
 76
     0
 77
     1
 78
     8
170
     0
171
     0
172
     1
173
     0
174
     0
175
     0
176
   256
177
   256
178
     2
  0
DIMSTYLE
  2
BYGG-024798$0$MASKIN
 70
     0
  3

  4

  5

  6

  7

 40
0.0
 41
3.0
 42
1.5
 43
10.0
 44
1.5
 45
0.0
 46
0.0
 47
0.0
 48
0.0
140
3.0
141
-5.0
142
0.0
143
25.399999999999999
144
-1.0
145
0.0
146
1.0
147
1.0
 71
     0
 72
     0
 73
     0
 74
     0
 75
     0
 76
     0
 77
     1
 78
     8
170
     0
171
     0
172
     1
173
     0
174
     0
175
     0
176
   256
177
   256
178
     2
  0
DIMSTYLE
  2
BYGG-024798$0$STANDARD
 70
     0
  3

  4

  5

  6

  7

 40
1.0
 41
0.18
 42
0.0625
 43
0.38
 44
0.18
 45
0.0
 46
0.0
 47
0.0
 48
0.0
140
0.18
141
0.09
142
0.0
143
25.399999999999999
144
1.0
145
0.0
146
1.0
147
0.09
 71
     0
 72
     0
 73
     1
 74
     1
 75
     0
 76
     0
 77
     0
 78
     0
170
     0
171
     2
172
     0
173
     0
174
     0
175
     0
176
     0
177
     0
178
     0
  0
DIMSTYLE
  2
BYGG-024799$0$MASKIN
 70
     0
  3

  4

  5

  6

  7

 40
0.0
 41
3.0
 42
1.5
 43
10.0
 44
1.5
 45
0.0
 46
0.0
 47
0.0
 48
0.0
140
3.0
141
-5.0
142
0.0
143
25.399999999999999
144
-1.0
145
0.0
146
1.0
147
1.0
 71
     0
 72
     0
 73
     0
 74
     0
 75
     0
 76
     0
 77
     1
 78
     8
170
     0
171
     0
172
     1
173
     0
174
     0
175
     0
176
   256
177
   256
178
     2
  0
DIMSTYLE
  2
BYGG-024799$0$STANDARD
 70
     0
  3

  4

  5

  6

  7

 40
1.0
 41
0.18
 42
0.0625
 43
0.38
 44
0.18
 45
0.0
 46
0.0
 47
0.0
 48
0.0
140
0.18
141
0.09
142
0.0
143
25.399999999999999
144
1.0
145
0.0
146
1.0
147
0.09
 71
     0
 72
     0
 73
     1
 74
     1
 75
     0
 76
     0
 77
     0
 78
     0
170
     0
171
     2
172
     0
173
     0
174
     0
175
     0
176
     0
177
     0
178
     0
  0
DIMSTYLE
  2
BYGG-014089$0$STANDARD
 70
     0
  3

  4

  5

  6

  7

 40
1.0
 41
0.18
 42
0.0625
 43
0.38
 44
0.18
 45
0.0
 46
0.0
 47
0.0
 48
0.0
140
0.18
141
0.09
142
0.0
143
25.399999999999999
144
1.0
145
0.0
146
1.0
147
0.09
 71
     0
 72
     0
 73
     1
 74
     1
 75
     0
 76
     0
 77
     0
 78
     0
170
     0
171
     2
172
     0
173
     0
174
     0
175
     0
176
     0
177
     0
178
     0
  0
DIMSTYLE
  2
BYGG-014108$0$STANDARD
 70
     0
  3

  4

  5

  6

  7

 40
1.0
 41
0.18
 42
0.0625
 43
0.38
 44
0.18
 45
0.0
 46
0.0
 47
0.0
 48
0.0
140
0.18
141
0.09
142
0.0
143
25.399999999999999
144
1.0
145
0.0
146
1.0
147
0.09
 71
     0
 72
     0
 73
     1
 74
     1
 75
     0
 76
     0
 77
     0
 78
     0
170
     0
171
     2
172
     0
173
     0
174
     0
175
     0
176
     0
177
     0
178
     0
  0
DIMSTYLE
  2
BYGG-019611$0$STANDARD
 70
     0
  3

  4

  5

  6

  7

 40
1.0
 41
0.18
 42
0.0625
 43
0.38
 44
0.18
 45
0.0
 46
0.0
 47
0.0
 48
0.0
140
0.18
141
0.09
142
0.0
143
25.399999999999999
144
1.0
145
0.0
146
1.0
147
0.09
 71
     0
 72
     0
 73
     1
 74
     1
 75
     0
 76
     0
 77
     0
 78
     0
170
     0
171
     2
172
     0
173
     0
174
     0
175
     0
176
     0
177
     0
178
     0
  0
DIMSTYLE
  2
BYGG-019611$0$MASKIN
 70
     0
  3

  4

  5

  6

  7

 40
0.0
 41
3.0
 42
1.5
 43
10.0
 44
1.5
 45
0.0
 46
0.0
 47
0.0
 48
0.0
140
3.0
141
-5.0
142
0.0
143
25.399999999999999
144
-1.0
145
0.0
146
1.0
147
1.0
 71
     0
 72
     0
 73
     0
 74
     0
 75
     0
 76
     0
 77
     1
 78
     8
170
     0
171
     0
172
     1
173
     0
174
     0
175
     0
176
   256
177
   256
178
     2
  0
DIMSTYLE
  2
BYGG-025652$0$STANDARD
 70
     0
  3

  4

  5

  6

  7

 40
1.0
 41
0.18
 42
0.0625
 43
0.38
 44
0.18
 45
0.0
 46
0.0
 47
0.0
 48
0.0
140
0.18
141
0.09
142
0.0
143
25.399999999999999
144
1.0
145
0.0
146
1.0
147
0.09
 71
     0
 72
     0
 73
     1
 74
     1
 75
     0
 76
     0
 77
     0
 78
     0
170
     0
171
     2
172
     0
173
     0
174
     0
175
     0
176
     0
177
     0
178
     0
  0
DIMSTYLE
  2
BYGG-025652$0$MASKIN
 70
     0
  3

  4

  5

  6

  7

 40
0.0
 41
3.0
 42
1.5
 43
10.0
 44
1.5
 45
0.0
 46
0.0
 47
0.0
 48
0.0
140
3.0
141
-5.0
142
0.0
143
25.399999999999999
144
-1.0
145
0.0
146
1.0
147
1.0
 71
     0
 72
     0
 73
     0
 74
     0
 75
     0
 76
     0
 77
     1
 78
     8
170
     0
171
     0
172
     1
173
     0
174
     0
175
     0
176
   256
177
   256
178
     2
  0
DIMSTYLE
  2
BYGG-025652$0$ANNOTATIVE
 70
     0
  3

  4

  5

  6

  7

 40
1.0
 41
0.18
 42
0.0625
 43
0.38
 44
0.18
 45
0.0
 46
0.0
 47
0.0
 48
0.0
140
0.18
141
0.09
142
0.0
143
25.399999999999999
144
1.0
145
0.0
146
1.0
147
0.09
 71
     0
 72
     0
 73
     1
 74
     1
 75
     0
 76
     0
 77
     0
 78
     0
170
     0
171
     2
172
     0
173
     0
174
     0
175
     0
176
     0
177
     0
178
     0
  0
DIMSTYLE
  2
BYGG-014411$0$MASKIN
 70
     0
  3

  4

  5

  6

  7

 40
0.0
 41
3.0
 42
1.5
 43
10.0
 44
1.5
 45
0.0
 46
0.0
 47
0.0
 48
0.0
140
3.0
141
-5.0
142
0.0
143
25.399999999999999
144
-1.0
145
0.0
146
1.0
147
1.0
 71
     0
 72
     0
 73
     0
 74
     0
 75
     0
 76
     0
 77
     1
 78
     8
170
     0
171
     0
172
     1
173
     0
174
     0
175
     0
176
   256
177
   256
178
   256
  0
DIMSTYLE
  2
BYGG-014411$0$STANDARD
 70
     0
  3

  4

  5

  6

  7

 40
1.0
 41
0.18
 42
0.0625
 43
0.38
 44
0.18
 45
0.0
 46
0.0
 47
0.0
 48
0.0
140
0.18
141
0.09
142
0.0
143
25.399999999999999
144
1.0
145
0.0
146
1.0
147
0.09
 71
     0
 72
     0
 73
     1
 74
     1
 75
     0
 76
     0
 77
     0
 78
     0
170
     0
171
     2
172
     0
173
     0
174
     0
175
     0
176
     0
177
     0
178
     0
  0
DIMSTYLE
  2
BYGG-014088$0$STANDARD
 70
     0
  3

  4

  5

  6

  7

 40
1.0
 41
0.18
 42
0.0625
 43
0.38
 44
0.18
 45
0.0
 46
0.0
 47
0.0
 48
0.0
140
0.18
141
0.09
142
0.0
143
25.399999999999999
144
1.0
145
0.0
146
1.0
147
0.09
 71
     0
 72
     0
 73
     1
 74
     1
 75
     0
 76
     0
 77
     0
 78
     0
170
     0
171
     2
172
     0
173
     0
174
     0
175
     0
176
     0
177
     0
178
     0
  0
DIMSTYLE
  2
BYGG-015465$0$STANDARD
 70
     0
  3

  4

  5

  6

  7

 40
1.0
 41
0.18
 42
0.0625
 43
0.38
 44
0.18
 45
0.0
 46
0.0
 47
0.0
 48
0.0
140
0.18
141
0.09
142
0.0
143
25.399999999999999
144
1.0
145
0.0
146
1.0
147
0.09
 71
     0
 72
     0
 73
     1
 74
     1
 75
     0
 76
     0
 77
     0
 78
     0
170
     0
171
     2
172
     0
173
     0
174
     0
175
     0
176
     0
177
     0
178
     0
  0
DIMSTYLE
  2
BYGG-015465$0$MASKIN
 70
     0
  3

  4

  5

  6

  7

 40
0.0
 41
3.0
 42
1.5
 43
10.0
 44
1.5
 45
0.0
 46
0.0
 47
0.0
 48
0.0
140
3.0
141
-5.0
142
0.0
143
25.399999999999999
144
-1.0
145
0.0
146
1.0
147
1.0
 71
     0
 72
     0
 73
     0
 74
     0
 75
     0
 76
     0
 77
     1
 78
     8
170
     0
171
     0
172
     1
173
     0
174
     0
175
     0
176
   256
177
   256
178
     2
  0
DIMSTYLE
  2
BYGG-01443301$0$MASKIN
 70
     0
  3

  4

  5

  6

  7

 40
0.0
 41
3.0
 42
1.5
 43
10.0
 44
1.5
 45
0.0
 46
0.0
 47
0.0
 48
0.0
140
3.0
141
-5.0
142
0.0
143
25.399999999999999
144
-1.0
145
0.0
146
1.0
147
1.0
 71
     0
 72
     0
 73
     0
 74
     0
 75
     0
 76
     0
 77
     1
 78
     8
170
     0
171
     0
172
     1
173
     0
174
     0
175
     0
176
   256
177
   256
178
   256
  0
DIMSTYLE
  2
BYGG-036382$0$STANDARD
 70
     0
  3

  4

  5

  6

  7

 40
1.0
 41
0.18
 42
0.0625
 43
0.38
 44
0.18
 45
0.0
 46
0.0
 47
0.0
 48
0.0
140
0.18
141
0.09
142
0.0
143
25.399999999999999
144
1.0
145
0.0
146
1.0
147
0.09
 71
     0
 72
     0
 73
     1
 74
     1
 75
     0
 76
     0
 77
     0
 78
     0
170
     0
171
     2
172
     0
173
     0
174
     0
175
     0
176
     0
177
     0
178
     0
  0
DIMSTYLE
  2
BYGG-036382$0$MASKIN
 70
     0
  3

  4

  5

  6

  7

 40
0.0
 41
3.0
 42
1.5
 43
10.0
 44
1.5
 45
0.0
 46
0.0
 47
0.0
 48
0.0
140
3.0
141
-5.0
142
0.0
143
25.399999999999999
144
-1.0
145
0.0
146
1.0
147
1.0
 71
     0
 72
     0
 73
     0
 74
     0
 75
     0
 76
     0
 77
     1
 78
     8
170
     0
171
     0
172
     1
173
     0
174
     0
175
     0
176
   256
177
   256
178
     2
  0
DIMSTYLE
  2
BYGG-036381$0$STANDARD
 70
     0
  3

  4

  5

  6

  7

 40
1.0
 41
0.18
 42
0.0625
 43
0.38
 44
0.18
 45
0.0
 46
0.0
 47
0.0
 48
0.0
140
0.18
141
0.09
142
0.0
143
25.399999999999999
144
1.0
145
0.0
146
1.0
147
0.09
 71
     0
 72
     0
 73
     1
 74
     1
 75
     0
 76
     0
 77
     0
 78
     0
170
     0
171
     2
172
     0
173
     0
174
     0
175
     0
176
     0
177
     0
178
     0
  0
DIMSTYLE
  2
BYGG-036381$0$MASKIN
 70
     0
  3

  4

  5

  6

  7

 40
0.0
 41
3.0
 42
1.5
 43
10.0
 44
1.5
 45
0.0
 46
0.0
 47
0.0
 48
0.0
140
3.0
141
-5.0
142
0.0
143
25.399999999999999
144
-1.0
145
0.0
146
1.0
147
1.0
 71
     0
 72
     0
 73
     0
 74
     0
 75
     0
 76
     0
 77
     1
 78
     8
170
     0
171
     0
172
     1
173
     0
174
     0
175
     0
176
   256
177
   256
178
     2
  0
ENDTAB
  0
ENDSEC
  0
SECTION
  2
BLOCKS
  0
BLOCK
  8
0
  2
$MODEL_SPACE
 70
     0
 10
0.0
 20
0.0
 30
0.0
  3
$MODEL_SPACE
  1

  0
ENDBLK
  5
37
  8
0
  0
BLOCK
 67
     1
  8
0
  2
$PAPER_SPACE
 70
     0
 10
0.0
 20
0.0
 30
0.0
  3
$PAPER_SPACE
  1

  0
ENDBLK
  5
35
 67
     1
  8
0
  0
BLOCK
  8
0
  2
*D98
 70
     1
 10
0.0
 20
0.0
 30
0.0
  3
*D98
  1

  0
LINE
  5
14C0
  8
SAPA_MATT
 10
-1.3000000001141201
 20
96.699545908301758
 30
0.0
 11
-21.80000000003616
 21
96.699545908301758
 31
0.0
  0
LINE
  5
14C1
  8
SAPA_MATT
 10
-1.5000000000073039
 20
-0.3004540916627216
 30
0.0
 11
-21.800000000036182
 21
-0.3004540916627159
 31
0.0
  0
LINE
  5
14C2
  8
SAPA_MATT
 10
-20.30000000003616
 20
93.699545908301744
 30
0.0
 11
-20.300000000036182
 21
2.6995459083372828
 31
0.0
  0
SOLID
  5
14C3
  8
SAPA_MATT
 10
-20.80000000003616
 20
93.699545908301744
 30
0.0
 11
-19.80000000003616
 21
93.699545908301744
 31
0.0
 12
-20.30000000003616
 22
96.699545908301758
 32
0.0
 13
-20.30000000003616
 23
96.699545908301758
 33
0.0
  0
SOLID
  5
14C4
  8
SAPA_MATT
 10
-20.800000000036182
 20
2.6995459083372828
 30
0.0
 11
-19.800000000036182
 21
2.6995459083372828
 31
0.0
 12
-20.300000000036182
 22
-0.3004540916627163
 32
0.0
 13
-20.300000000036182
 23
-0.3004540916627163
 33
0.0
  0
INSERT
  5
14C5
  8
0
  2
*U115
 10
0.0
 20
0.0
 30
0.0
  0
POINT
  5
14C6
  8
DEFPOINTS
 62
     0
 10
0.199999999885879
 20
96.699545908301758
 30
0.0
  0
POINT
  5
14C7
  8
DEFPOINTS
 62
     0
 10
-0.0000000000073044
 20
-0.3004540916627221
 30
0.0
  0
POINT
  5
14C8
  8
DEFPOINTS
 62
     0
 10
-20.300000000036182
 20
-0.3004540916627163
 30
0.0
  0
ENDBLK
  5
1434
  8
0
  0
BLOCK
  8
0
  2
*D99
 70
     1
 10
0.0
 20
0.0
 30
0.0
  3
*D99
  1

  0
LINE
  5
14B5
  8
SAPA_MATT
 10
-1.300000000106919
 20
96.699999999964334
 30
0.0
 11
-21.80000000003615
 21
96.699999999964334
 31
0.0
  0
LINE
  5
14B6
  8
SAPA_MATT
 10
-1.3000003460956
 20
101.7000000022903
 30
0.0
 11
-21.80000000003615
 21
101.7000000022903
 31
0.0
  0
LINE
  5
14B7
  8
SAPA_MATT
 10
-20.30000000003615
 20
93.699999999964348
 30
0.0
 11
-20.30000000003615
 21
90.699999999964348
 31
0.0
  0
LINE
  5
14B8
  8
SAPA_MATT
 10
-20.300000000036139
 20
104.7000000022903
 30
0.0
 11
-20.300000000036139
 21
107.7000000022903
 31
0.0
  0
LINE
  5
14B9
  8
SAPA_MATT
 10
-20.30000000003615
 20
96.699999999964334
 30
0.0
 11
-20.30000000003615
 21
101.7000000022903
 31
0.0
  0
SOLID
  5
14BA
  8
SAPA_MATT
 10
-20.800000000036139
 20
93.699999999964348
 30
0.0
 11
-19.800000000036139
 21
93.699999999964348
 31
0.0
 12
-20.30000000003615
 22
96.699999999964334
 32
0.0
 13
-20.30000000003615
 23
96.699999999964334
 33
0.0
  0
SOLID
  5
14BB
  8
SAPA_MATT
 10
-20.800000000036139
 20
104.7000000022903
 30
0.0
 11
-19.800000000036139
 21
104.7000000022903
 31
0.0
 12
-20.30000000003615
 22
101.7000000022903
 32
0.0
 13
-20.30000000003615
 23
101.7000000022903
 33
0.0
  0
INSERT
  5
14BC
  8
0
  2
*U114
 10
0.0
 20
0.0
 30
0.0
  0
POINT
  5
14BD
  8
DEFPOINTS
 62
     0
 10
0.1999999998930804
 20
96.699999999964334
 30
0.0
  0
POINT
  5
14BE
  8
DEFPOINTS
 62
     0
 10
0.1999996539043991
 20
101.7000000022903
 30
0.0
  0
POINT
  5
14BF
  8
DEFPOINTS
 62
     0
 10
-20.30000000003615
 20
101.7000000022903
 30
0.0
  0
ENDBLK
  5
1440
  8
0
  0
BLOCK
  8
0
  2
*D100
 70
     1
 10
0.0
 20
0.0
 30
0.0
  3
*D100
  1

  0
LINE
  5
14AC
  8
SAPA_MATT
 10
-1.3000000071568469
 20
101.70000000229049
 30
0.0
 11
-21.80000000003616
 21
101.70000000229049
 31
0.0
  0
LINE
  5
14AD
  8
SAPA_MATT
 10
-1.3000000071568401
 20
139.20000000229049
 30
0.0
 11
-21.80000000003615
 21
139.20000000229049
 31
0.0
  0
LINE
  5
14AE
  8
SAPA_MATT
 10
-20.30000000003616
 20
104.70000000229049
 30
0.0
 11
-20.30000000003615
 21
136.20000000229049
 31
0.0
  0
SOLID
  5
14AF
  8
SAPA_MATT
 10
-20.80000000003616
 20
104.70000000229049
 30
0.0
 11
-19.80000000003616
 21
104.70000000229049
 31
0.0
 12
-20.30000000003616
 22
101.70000000229049
 32
0.0
 13
-20.30000000003616
 23
101.70000000229049
 33
0.0
  0
SOLID
  5
14B0
  8
SAPA_MATT
 10
-20.80000000003615
 20
136.20000000229049
 30
0.0
 11
-19.80000000003615
 21
136.20000000229049
 31
0.0
 12
-20.30000000003615
 22
139.20000000229049
 32
0.0
 13
-20.30000000003615
 23
139.20000000229049
 33
0.0
  0
INSERT
  5
14B1
  8
0
  2
*U113
 10
0.0
 20
0.0
 30
0.0
  0
POINT
  5
14B2
  8
DEFPOINTS
 62
     0
 10
0.1999999928431523
 20
101.70000000229049
 30
0.0
  0
POINT
  5
14B3
  8
DEFPOINTS
 62
     0
 10
0.1999999928431594
 20
139.20000000229049
 30
0.0
  0
POINT
  5
14B4
  8
DEFPOINTS
 62
     0
 10
-20.30000000003615
 20
139.20000000229049
 30
0.0
  0
ENDBLK
  5
144E
  8
0
  0
BLOCK
  8
0
  2
*D101
 70
     1
 10
0.0
 20
0.0
 30
0.0
  3
*D101
  1

  0
LINE
  5
14A3
  8
SAPA_MATT
 10
-1.5
 20
-0.3000000000000891
 30
0.0
 11
-41.427207388985678
 21
-0.3000000000000778
 31
0.0
  0
LINE
  5
14A4
  8
SAPA_MATT
 10
-1.3000000071568389
 20
139.20000000229041
 30
0.0
 11
-41.427207388985657
 21
139.20000000229041
 31
0.0
  0
LINE
  5
14A5
  8
SAPA_MATT
 10
-39.927207388985693
 20
2.699999999999922
 30
0.0
 11
-39.927207388985657
 21
136.20000000229041
 31
0.0
  0
SOLID
  5
14A6
  8
SAPA_MATT
 10
-40.427207388985693
 20
2.699999999999922
 30
0.0
 11
-39.427207388985678
 21
2.699999999999922
 31
0.0
 12
-39.927207388985693
 22
-0.3000000000000782
 32
0.0
 13
-39.927207388985693
 23
-0.3000000000000782
 33
0.0
  0
SOLID
  5
14A7
  8
SAPA_MATT
 10
-40.42720738898565
 20
136.20000000229041
 30
0.0
 11
-39.427207388985657
 21
136.20000000229041
 31
0.0
 12
-39.927207388985657
 22
139.20000000229041
 32
0.0
 13
-39.927207388985657
 23
139.20000000229041
 33
0.0
  0
INSERT
  5
14A8
  8
0
  2
*U112
 10
0.0
 20
0.0
 30
0.0
  0
POINT
  5
14A9
  8
DEFPOINTS
 62
     0
 10
0.0
 20
-0.3000000000000895
 30
0.0
  0
POINT
  5
14AA
  8
DEFPOINTS
 62
     0
 10
0.1999999928431606
 20
139.20000000229041
 30
0.0
  0
POINT
  5
14AB
  8
DEFPOINTS
 62
     0
 10
-39.927207388985657
 20
139.20000000229041
 30
0.0
  0
ENDBLK
  5
145A
  8
0
  0
BLOCK
  8
0
  2
*D102
 70
     1
 10
0.0
 20
0.0
 30
0.0
  3
*D102
  1

  0
LINE
  5
149A
  8
SAPA_MATT
 10
-0.3000000071568393
 20
140.20000000229041
 30
0.0
 11
-0.3000000071568376
 21
167.82328570420631
 31
0.0
  0
LINE
  5
149B
  8
SAPA_MATT
 10
95.199999992843232
 20
111.4831220022883
 30
0.0
 11
95.199999992843232
 21
167.82328570420631
 31
0.0
  0
LINE
  5
149C
  8
SAPA_MATT
 10
2.6999999928431619
 20
166.32328570420631
 30
0.0
 11
92.199999992843246
 21
166.32328570420631
 31
0.0
  0
SOLID
  5
149D
  8
SAPA_MATT
 10
2.6999999928431619
 20
166.82328570420631
 30
0.0
 11
2.6999999928431619
 21
165.82328570420631
 31
0.0
 12
-0.3000000071568377
 22
166.32328570420631
 32
0.0
 13
-0.3000000071568377
 23
166.32328570420631
 33
0.0
  0
SOLID
  5
149E
  8
SAPA_MATT
 10
92.199999992843246
 20
166.82328570420631
 30
0.0
 11
92.199999992843246
 21
165.82328570420631
 31
0.0
 12
95.199999992843232
 22
166.32328570420631
 32
0.0
 13
95.199999992843232
 23
166.32328570420631
 33
0.0
  0
INSERT
  5
149F
  8
0
  2
*U111
 10
0.0
 20
0.0
 30
0.0
  0
POINT
  5
14A0
  8
DEFPOINTS
 62
     0
 10
-0.3000000071568394
 20
138.70000000229041
 30
0.0
  0
POINT
  5
14A1
  8
DEFPOINTS
 62
     0
 10
95.199999992843232
 20
109.9831220022883
 30
0.0
  0
POINT
  5
14A2
  8
DEFPOINTS
 62
     0
 10
95.199999992843232
 20
166.32328570420631
 30
0.0
  0
ENDBLK
  5
1466
  8
0
  0
BLOCK
  8
0
  2
*D103
 70
     1
 10
0.0
 20
0.0
 30
0.0
  3
*D103
  1

  0
LINE
  5
1491
  8
SAPA_MATT
 10
85.299999992843127
 20
139.19999970229509
 30
0.0
 11
126.4114101544896
 21
139.19999970229509
 31
0.0
  0
LINE
  5
1492
  8
SAPA_MATT
 10
118.3005704441029
 20
44.700000000351068
 30
0.0
 11
126.4114101544896
 21
44.700000000351068
 31
0.0
  0
LINE
  5
1493
  8
SAPA_MATT
 10
124.9114101544896
 20
136.19999970229509
 30
0.0
 11
124.9114101544896
 21
47.700000000351068
 31
0.0
  0
SOLID
  5
1494
  8
SAPA_MATT
 10
124.4114101544896
 20
136.19999970229509
 30
0.0
 11
125.4114101544896
 21
136.19999970229509
 31
0.0
 12
124.9114101544896
 22
139.19999970229509
 32
0.0
 13
124.9114101544896
 23
139.19999970229509
 33
0.0
  0
SOLID
  5
1495
  8
SAPA_MATT
 10
124.4114101544896
 20
47.700000000351068
 30
0.0
 11
125.4114101544896
 21
47.700000000351068
 31
0.0
 12
124.9114101544896
 22
44.700000000351068
 32
0.0
 13
124.9114101544896
 23
44.700000000351068
 33
0.0
  0
INSERT
  5
1496
  8
0
  2
*U110
 10
0.0
 20
0.0
 30
0.0
  0
POINT
  5
1497
  8
DEFPOINTS
 62
     0
 10
83.799999992843112
 20
139.19999970229509
 30
0.0
  0
POINT
  5
1498
  8
DEFPOINTS
 62
     0
 10
116.8005704441029
 20
44.700000000351068
 30
0.0
  0
POINT
  5
1499
  8
DEFPOINTS
 62
     0
 10
124.9114101544896
 20
44.700000000351068
 30
0.0
  0
ENDBLK
  5
1472
  8
0
  0
BLOCK
  8
0
  2
*D104
 70
     1
 10
0.0
 20
0.0
 30
0.0
  3
*D104
  1

  0
LINE
  5
1488
  8
SAPA_MATT
 10
9.5005704440795782
 20
-21.79999999980722
 30
0.0
 11
9.5005704440795764
 21
-36.731494793416459
 31
0.0
  0
LINE
  5
1489
  8
SAPA_MATT
 10
209.5005704440793
 20
-21.799999999807291
 30
0.0
 11
209.5005704440793
 21
-36.731494793416459
 31
0.0
  0
LINE
  5
148A
  8
SAPA_MATT
 10
12.500570444079569
 20
-35.231494793416459
 30
0.0
 11
206.5005704440793
 21
-35.231494793416459
 31
0.0
  0
SOLID
  5
148B
  8
SAPA_MATT
 10
12.500570444079569
 20
-34.731494793416459
 30
0.0
 11
12.500570444079569
 21
-35.731494793416459
 31
0.0
 12
9.5005704440795764
 22
-35.231494793416459
 32
0.0
 13
9.5005704440795764
 23
-35.231494793416459
 33
0.0
  0
SOLID
  5
148C
  8
SAPA_MATT
 10
206.5005704440793
 20
-34.731494793416459
 30
0.0
 11
206.5005704440793
 21
-35.731494793416459
 31
0.0
 12
209.5005704440793
 22
-35.231494793416459
 32
0.0
 13
209.5005704440793
 23
-35.231494793416459
 33
0.0
  0
INSERT
  5
148D
  8
0
  2
*U109
 10
0.0
 20
0.0
 30
0.0
  0
POINT
  5
148E
  8
DEFPOINTS
 62
     0
 10
9.5005704440795782
 20
-20.29999999980722
 30
0.0
  0
POINT
  5
148F
  8
DEFPOINTS
 62
     0
 10
209.5005704440793
 20
-20.299999999807291
 30
0.0
  0
POINT
  5
1490
  8
DEFPOINTS
 62
     0
 10
209.5005704440793
 20
-35.231494793416459
 30
0.0
  0
ENDBLK
  5
147E
  8
0
  0
BLOCK
  8
0
  2
*X105
 70
     1
 10
0.0
 20
0.0
 30
0.0
  3
*X105
  1

  0
LINE
  5
1F70
  8
0
 62
     0
 10
210.31873520600189
 20
3.2101623770083978
 30
0.0
 11
210.71561020600191
 21
2.5227547127544998
 31
0.0
  0
LINE
  5
1F71
  8
0
 62
     0
 10
212.6999849215058
 20
1.8353468842466889
 30
0.0
 11
213.0384119869662
 21
1.2491740122128141
 31
0.0
  0
LINE
  5
1F72
  8
0
 62
     0
 10
211.50935992150579
 20
3.8975698770083831
 30
0.0
 11
211.90623492150581
 21
3.2101622127544851
 31
0.0
  0
LINE
  5
1F73
  8
0
 62
     0
 10
210.31873492150581
 20
5.9597928697700784
 30
0.0
 11
210.7156099215058
 21
5.2723852055161791
 31
0.0
  0
LINE
  5
1F74
  8
0
 62
     0
 10
213.8906096370097
 20
2.5227543842467051
 30
0.0
 11
214.2874846370097
 21
1.8353467199928071
 31
0.0
  0
LINE
  5
1F75
  8
0
 62
     0
 10
212.69998463700969
 20
4.584977377008399
 30
0.0
 11
213.09685963700969
 21
3.897569712754501
 31
0.0
  0
LINE
  5
1F76
  8
0
 62
     0
 10
211.50935963700971
 20
6.6472003697700934
 30
0.0
 11
211.9062346370097
 21
5.9597927055161941
 31
0.0
  0
LINE
  5
1F77
  8
0
 62
     0
 10
215.0812343525136
 20
3.2101618842466921
 30
0.0
 11
215.22923523435591
 21
2.9538168373308258
 31
0.0
  0
LINE
  5
1F78
  8
0
 62
     0
 10
213.89060935251359
 20
5.2723848770083848
 30
0.0
 11
214.28748435251359
 21
4.5849772127544881
 31
0.0
  0
LINE
  5
1F79
  8
0
 62
     0
 10
212.78518465967721
 20
7.187036608942293
 30
0.0
 11
213.0968593525136
 21
6.6472002055161807
 31
0.0
  0
LINE
  5
1F7A
  8
0
 62
     0
 10
210.71559541220489
 20
5.2724109933782168
 30
0.0
 11
210.3187204122049
 21
4.5850033291243193
 31
0.0
  0
LINE
  5
1F7B
  8
0
 62
     0
 10
211.7777980007219
 20
7.1121998446208892
 30
0.0
 11
211.50934541220491
 21
6.6472263218860128
 31
0.0
  0
LINE
  5
1F7C
  8
0
 62
     0
 10
210.7155951277087
 20
2.5227805006165109
 30
0.0
 11
210.4305840856334
 21
2.0291268950238348
 31
0.0
  0
LINE
  5
1F7D
  8
0
 62
     0
 10
211.90622012770871
 20
4.5850034933782062
 30
0.0
 11
211.5093451277088
 21
3.8975958291243069
 31
0.0
  0
LINE
  5
1F7E
  8
0
 62
     0
 10
213.09684512770869
 20
6.6472264861399006
 30
0.0
 11
212.6999701277087
 21
5.9598188218860031
 31
0.0
  0
LINE
  5
1F7F
  8
0
 62
     0
 10
211.90621984321271
 20
1.835373000616521
 30
0.0
 11
211.61661071498679
 21
1.333755276193437
 31
0.0
  0
LINE
  5
1F80
  8
0
 62
     0
 10
213.09684484321269
 20
3.8975959933782152
 30
0.0
 11
212.6999698432127
 21
3.2101883291243172
 31
0.0
  0
LINE
  5
1F81
  8
0
 62
     0
 10
214.2874698432127
 20
5.9598189861399096
 30
0.0
 11
213.89059484321271
 21
5.272411321886012
 31
0.0
  0
LINE
  5
1F82
  8
0
 62
     0
 10
214.28746955871659
 20
3.2101884933782161
 30
0.0
 11
213.89059455871649
 21
2.5227808291243181
 31
0.0
  0
LINE
  5
1F83
  8
0
 62
     0
 10
215.36816103558701
 20
5.0820010386245729
 30
0.0
 11
215.0812195587165
 21
4.5850038218860121
 31
0.0
  0
LINE
  5
1F84
  8
0
 62
     0
 10
214.28749999979891
 20
1.835373000616439
 30
0.0
 11
214.34606566555181
 21
1.835373000616439
 31
0.0
  0
LINE
  5
1F85
  8
0
 62
     0
 10
211.906249999799
 20
1.8353730006164399
 30
0.0
 11
212.69999999979891
 21
1.835373000616439
 31
0.0
  0
LINE
  5
1F86
  8
0
 62
     0
 10
214.28749999979891
 20
3.2101880006164518
 30
0.0
 11
215.0812499997989
 21
3.2101880006164518
 31
0.0
  0
LINE
  5
1F87
  8
0
 62
     0
 10
211.906249999799
 20
3.2101880006164518
 30
0.0
 11
212.69999999979891
 21
3.2101880006164518
 31
0.0
  0
LINE
  5
1F88
  8
0
 62
     0
 10
209.6687605184996
 20
3.2101880006164532
 30
0.0
 11
210.31874999979891
 21
3.2101880006164532
 31
0.0
  0
LINE
  5
1F89
  8
0
 62
     0
 10
214.28749999979891
 20
4.5850030006164513
 30
0.0
 11
215.0812499997989
 21
4.5850030006164513
 31
0.0
  0
LINE
  5
1F8A
  8
0
 62
     0
 10
211.906249999799
 20
4.5850030006164513
 30
0.0
 11
212.69999999979891
 21
4.5850030006164513
 31
0.0
  0
LINE
  5
1F8B
  8
0
 62
     0
 10
209.52530411485699
 20
4.5850030006164513
 30
0.0
 11
210.31874999979891
 21
4.5850030006164513
 31
0.0
  0
LINE
  5
1F8C
  8
0
 62
     0
 10
214.28749999979891
 20
5.9598180006164494
 30
0.0
 11
214.9305991349371
 21
5.9598180006164494
 31
0.0
  0
LINE
  5
1F8D
  8
0
 62
     0
 10
211.906249999799
 20
5.9598180006164494
 30
0.0
 11
212.69999999979891
 21
5.9598180006164494
 31
0.0
  0
LINE
  5
1F8E
  8
0
 62
     0
 10
210.07054175355421
 20
5.9598180006164494
 30
0.0
 11
210.31874999979891
 21
5.9598180006164494
 31
0.0
  0
ENDBLK
  5
1F90
  8
0
  0
BLOCK
  8
0
  2
*X106
 70
     1
 10
0.0
 20
0.0
 30
0.0
  3
*X106
  1

  0
LINE
  5
1F92
  8
0
 62
     0
 10
209.63443083518919
 20
3.3144282027526231
 30
0.0
 11
209.50057044424511
 21
3.1805678118084901
 31
0.0
  0
LINE
  5
1F93
  8
0
 62
     0
 10
209.99429298598889
 20
2.551758338418622
 30
0.0
 11
209.50057044424511
 21
2.0580357966748331
 31
0.0
  0
LINE
  5
1F94
  8
0
 62
     0
 10
210.515926311736
 20
1.950859649032114
 30
0.0
 11
209.50057044424511
 21
0.9355037815411897
 31
0.0
  0
LINE
  5
1F95
  8
0
 62
     0
 10
211.18971293690001
 20
1.502114259062487
 30
0.0
 11
209.50057044424511
 21
-0.1870282335924607
 31
0.0
  0
LINE
  5
1F96
  8
0
 62
     0
 10
212.04542579718949
 20
1.2352951042183269
 30
0.0
 11
209.50057044424511
 21
-1.3095602487261
 31
0.0
  0
LINE
  5
1F97
  8
0
 62
     0
 10
213.2210242829839
 20
1.288361574879072
 30
0.0
 11
209.6541915672407
 21
-2.2784711408640801
 31
0.0
  0
LINE
  5
1F98
  8
0
 62
     0
 10
215.5005704442452
 20
3.567907736140433
 30
0.0
 11
215.41277687000681
 21
3.4801141619020082
 31
0.0
  0
LINE
  5
1F99
  8
0
 62
     0
 10
215.04528756989561
 20
1.990092846657141
 30
0.0
 11
211.1875988164746
 21
-1.8675959067638239
 31
0.0
  0
LINE
  5
1F9A
  8
0
 62
     0
 10
215.37730055727499
 20
1.1995738189029579
 30
0.0
 11
212.72100606570851
 21
-1.4567206726635851
 31
0.0
  0
LINE
  5
1F9B
  8
0
 62
     0
 10
215.93856656484189
 20
0.6383078113361443
 30
0.0
 11
214.25441331494241
 21
-1.0458454385633571
 31
0.0
  0
LINE
  5
1F9C
  8
0
 62
     0
 10
216.49983257240871
 20
0.0770418037693297
 30
0.0
 11
215.78782056417629
 21
-0.6349702044630911
 31
0.0
  0
LINE
  5
1F9D
  8
0
 62
     0
 10
209.50057044424511
 20
-1.9536578082166181
 30
0.0
 11
209.7892066062295
 21
-2.2422939702010041
 31
0.0
  0
LINE
  5
1F9E
  8
0
 62
     0
 10
209.50057044424511
 20
-0.8311257930829611
 30
0.0
 11
210.67451969435189
 21
-2.0050750431898758
 31
0.0
  0
LINE
  5
1F9F
  8
0
 62
     0
 10
209.50057044424511
 20
0.2914062220506821
 30
0.0
 11
211.55983278247439
 21
-1.767856116178748
 31
0.0
  0
LINE
  5
1FA0
  8
0
 62
     0
 10
209.50057044424511
 20
1.413938237184311
 30
0.0
 11
212.445145870597
 21
-1.53063718916762
 31
0.0
  0
LINE
  5
1FA1
  8
0
 62
     0
 10
209.50057044424511
 20
2.5364702523179679
 30
0.0
 11
213.3304589587195
 21
-1.293418262156492
 31
0.0
  0
LINE
  5
1FA2
  8
0
 62
     0
 10
211.89783211420519
 20
1.261740597491396
 30
0.0
 11
214.21577204684201
 21
-1.0561993351453649
 31
0.0
  0
LINE
  5
1FA3
  8
0
 62
     0
 10
209.500570444245
 20
3.6590022674516121
 30
0.0
 11
209.56174304109581
 21
3.5978296706008019
 31
0.0
  0
LINE
  5
1FA4
  8
0
 62
     0
 10
213.03377242878571
 20
1.2483322980446581
 30
0.0
 11
215.10108513496451
 21
-0.8189804081342231
 31
0.0
  0
LINE
  5
1FA5
  8
0
 62
     0
 10
213.87216385251821
 20
1.5324728894457129
 30
0.0
 11
215.98639822308701
 21
-0.5817614811231096
 31
0.0
  0
LINE
  5
1FA6
  8
0
 62
     0
 10
214.53312178473971
 20
1.994046972357864
 30
0.0
 11
216.87171131120951
 21
-0.3445425541119675
 31
0.0
  0
LINE
  5
1FA7
  8
0
 62
     0
 10
215.04247279609169
 20
2.6072279761394981
 30
0.0
 11
215.32987686108561
 21
2.3198239111456611
 31
0.0
  0
LINE
  5
1FA8
  8
0
 62
     0
 10
215.38750683878109
 20
3.3847259485837631
 30
0.0
 11
215.5005704442452
 21
3.2716623431196288
 31
0.0
  0
ENDBLK
  5
1FAA
  8
0
  0
BLOCK
  8
0
  2
*X107
 70
     1
 10
0.0
 20
0.0
 30
0.0
  3
*X107
  1

  0
LINE
  5
1FAC
  8
0
 62
     0
 10
210.31873520600189
 20
3.2101623770083978
 30
0.0
 11
210.71561020600191
 21
2.5227547127544998
 31
0.0
  0
LINE
  5
1FAD
  8
0
 62
     0
 10
212.6999849215058
 20
1.8353468842466889
 30
0.0
 11
213.0384119869662
 21
1.2491740122128141
 31
0.0
  0
LINE
  5
1FAE
  8
0
 62
     0
 10
211.50935992150579
 20
3.8975698770083831
 30
0.0
 11
211.90623492150581
 21
3.2101622127544851
 31
0.0
  0
LINE
  5
1FAF
  8
0
 62
     0
 10
210.31873492150581
 20
5.9597928697700784
 30
0.0
 11
210.7156099215058
 21
5.2723852055161791
 31
0.0
  0
LINE
  5
1FB0
  8
0
 62
     0
 10
213.8906096370097
 20
2.5227543842467051
 30
0.0
 11
214.2874846370097
 21
1.8353467199928071
 31
0.0
  0
LINE
  5
1FB1
  8
0
 62
     0
 10
212.69998463700969
 20
4.584977377008399
 30
0.0
 11
213.09685963700969
 21
3.897569712754501
 31
0.0
  0
LINE
  5
1FB2
  8
0
 62
     0
 10
211.50935963700971
 20
6.6472003697700934
 30
0.0
 11
211.9062346370097
 21
5.9597927055161941
 31
0.0
  0
LINE
  5
1FB3
  8
0
 62
     0
 10
215.0812343525136
 20
3.2101618842466921
 30
0.0
 11
215.22923523435591
 21
2.9538168373308258
 31
0.0
  0
LINE
  5
1FB4
  8
0
 62
     0
 10
213.89060935251359
 20
5.2723848770083848
 30
0.0
 11
214.28748435251359
 21
4.5849772127544881
 31
0.0
  0
LINE
  5
1FB5
  8
0
 62
     0
 10
212.78518465967721
 20
7.187036608942293
 30
0.0
 11
213.0968593525136
 21
6.6472002055161807
 31
0.0
  0
LINE
  5
1FB6
  8
0
 62
     0
 10
210.71559541220489
 20
5.2724109933782168
 30
0.0
 11
210.3187204122049
 21
4.5850033291243193
 31
0.0
  0
LINE
  5
1FB7
  8
0
 62
     0
 10
211.7777980007219
 20
7.1121998446208892
 30
0.0
 11
211.50934541220491
 21
6.6472263218860128
 31
0.0
  0
LINE
  5
1FB8
  8
0
 62
     0
 10
210.7155951277087
 20
2.5227805006165109
 30
0.0
 11
210.4305840856334
 21
2.0291268950238348
 31
0.0
  0
LINE
  5
1FB9
  8
0
 62
     0
 10
211.90622012770871
 20
4.5850034933782062
 30
0.0
 11
211.5093451277088
 21
3.8975958291243069
 31
0.0
  0
LINE
  5
1FBA
  8
0
 62
     0
 10
213.09684512770869
 20
6.6472264861399006
 30
0.0
 11
212.6999701277087
 21
5.9598188218860031
 31
0.0
  0
LINE
  5
1FBB
  8
0
 62
     0
 10
211.90621984321271
 20
1.835373000616521
 30
0.0
 11
211.61661071498679
 21
1.333755276193437
 31
0.0
  0
LINE
  5
1FBC
  8
0
 62
     0
 10
213.09684484321269
 20
3.8975959933782152
 30
0.0
 11
212.6999698432127
 21
3.2101883291243172
 31
0.0
  0
LINE
  5
1FBD
  8
0
 62
     0
 10
214.2874698432127
 20
5.9598189861399096
 30
0.0
 11
213.89059484321271
 21
5.272411321886012
 31
0.0
  0
LINE
  5
1FBE
  8
0
 62
     0
 10
214.28746955871659
 20
3.2101884933782161
 30
0.0
 11
213.89059455871649
 21
2.5227808291243181
 31
0.0
  0
LINE
  5
1FBF
  8
0
 62
     0
 10
215.36816103558701
 20
5.0820010386245729
 30
0.0
 11
215.0812195587165
 21
4.5850038218860121
 31
0.0
  0
LINE
  5
1FC0
  8
0
 62
     0
 10
214.28749999979891
 20
1.835373000616439
 30
0.0
 11
214.34606566555181
 21
1.835373000616439
 31
0.0
  0
LINE
  5
1FC1
  8
0
 62
     0
 10
211.906249999799
 20
1.8353730006164399
 30
0.0
 11
212.69999999979891
 21
1.835373000616439
 31
0.0
  0
LINE
  5
1FC2
  8
0
 62
     0
 10
214.28749999979891
 20
3.2101880006164518
 30
0.0
 11
215.0812499997989
 21
3.2101880006164518
 31
0.0
  0
LINE
  5
1FC3
  8
0
 62
     0
 10
211.906249999799
 20
3.2101880006164518
 30
0.0
 11
212.69999999979891
 21
3.2101880006164518
 31
0.0
  0
LINE
  5
1FC4
  8
0
 62
     0
 10
209.6687605184996
 20
3.2101880006164532
 30
0.0
 11
210.31874999979891
 21
3.2101880006164532
 31
0.0
  0
LINE
  5
1FC5
  8
0
 62
     0
 10
214.28749999979891
 20
4.5850030006164513
 30
0.0
 11
215.0812499997989
 21
4.5850030006164513
 31
0.0
  0
LINE
  5
1FC6
  8
0
 62
     0
 10
211.906249999799
 20
4.5850030006164513
 30
0.0
 11
212.69999999979891
 21
4.5850030006164513
 31
0.0
  0
LINE
  5
1FC7
  8
0
 62
     0
 10
209.52530411485699
 20
4.5850030006164513
 30
0.0
 11
210.31874999979891
 21
4.5850030006164513
 31
0.0
  0
LINE
  5
1FC8
  8
0
 62
     0
 10
214.28749999979891
 20
5.9598180006164494
 30
0.0
 11
214.9305991349371
 21
5.9598180006164494
 31
0.0
  0
LINE
  5
1FC9
  8
0
 62
     0
 10
211.906249999799
 20
5.9598180006164494
 30
0.0
 11
212.69999999979891
 21
5.9598180006164494
 31
0.0
  0
LINE
  5
1FCA
  8
0
 62
     0
 10
210.07054175355421
 20
5.9598180006164494
 30
0.0
 11
210.31874999979891
 21
5.9598180006164494
 31
0.0
  0
ENDBLK
  5
1FCC
  8
0
  0
BLOCK
  8
0
  2
*X108
 70
     1
 10
0.0
 20
0.0
 30
0.0
  3
*X108
  1

  0
LINE
  5
1FCE
  8
0
 62
     0
 10
209.63443083518919
 20
3.3144282027526231
 30
0.0
 11
209.50057044424511
 21
3.1805678118084901
 31
0.0
  0
LINE
  5
1FCF
  8
0
 62
     0
 10
209.99429298598889
 20
2.551758338418622
 30
0.0
 11
209.50057044424511
 21
2.0580357966748331
 31
0.0
  0
LINE
  5
1FD0
  8
0
 62
     0
 10
210.515926311736
 20
1.950859649032114
 30
0.0
 11
209.50057044424511
 21
0.9355037815411897
 31
0.0
  0
LINE
  5
1FD1
  8
0
 62
     0
 10
211.18971293690001
 20
1.502114259062487
 30
0.0
 11
209.50057044424511
 21
-0.1870282335924607
 31
0.0
  0
LINE
  5
1FD2
  8
0
 62
     0
 10
212.04542579718949
 20
1.2352951042183269
 30
0.0
 11
209.50057044424511
 21
-1.3095602487261
 31
0.0
  0
LINE
  5
1FD3
  8
0
 62
     0
 10
213.2210242829839
 20
1.288361574879072
 30
0.0
 11
209.6541915672407
 21
-2.2784711408640801
 31
0.0
  0
LINE
  5
1FD4
  8
0
 62
     0
 10
215.5005704442452
 20
3.567907736140433
 30
0.0
 11
215.41277687000681
 21
3.4801141619020082
 31
0.0
  0
LINE
  5
1FD5
  8
0
 62
     0
 10
215.04528756989561
 20
1.990092846657141
 30
0.0
 11
211.1875988164746
 21
-1.8675959067638239
 31
0.0
  0
LINE
  5
1FD6
  8
0
 62
     0
 10
215.37730055727499
 20
1.1995738189029579
 30
0.0
 11
212.72100606570851
 21
-1.4567206726635851
 31
0.0
  0
LINE
  5
1FD7
  8
0
 62
     0
 10
215.93856656484189
 20
0.6383078113361443
 30
0.0
 11
214.25441331494241
 21
-1.0458454385633571
 31
0.0
  0
LINE
  5
1FD8
  8
0
 62
     0
 10
216.49983257240871
 20
0.0770418037693297
 30
0.0
 11
215.78782056417629
 21
-0.6349702044630911
 31
0.0
  0
LINE
  5
1FD9
  8
0
 62
     0
 10
209.50057044424511
 20
-1.9536578082166181
 30
0.0
 11
209.7892066062295
 21
-2.2422939702010041
 31
0.0
  0
LINE
  5
1FDA
  8
0
 62
     0
 10
209.50057044424511
 20
-0.8311257930829611
 30
0.0
 11
210.67451969435189
 21
-2.0050750431898758
 31
0.0
  0
LINE
  5
1FDB
  8
0
 62
     0
 10
209.50057044424511
 20
0.2914062220506821
 30
0.0
 11
211.55983278247439
 21
-1.767856116178748
 31
0.0
  0
LINE
  5
1FDC
  8
0
 62
     0
 10
209.50057044424511
 20
1.413938237184311
 30
0.0
 11
212.445145870597
 21
-1.53063718916762
 31
0.0
  0
LINE
  5
1FDD
  8
0
 62
     0
 10
209.50057044424511
 20
2.5364702523179679
 30
0.0
 11
213.3304589587195
 21
-1.293418262156492
 31
0.0
  0
LINE
  5
1FDE
  8
0
 62
     0
 10
211.89783211420519
 20
1.261740597491396
 30
0.0
 11
214.21577204684201
 21
-1.0561993351453649
 31
0.0
  0
LINE
  5
1FDF
  8
0
 62
     0
 10
209.500570444245
 20
3.6590022674516121
 30
0.0
 11
209.56174304109581
 21
3.5978296706008019
 31
0.0
  0
LINE
  5
1FE0
  8
0
 62
     0
 10
213.03377242878571
 20
1.2483322980446581
 30
0.0
 11
215.10108513496451
 21
-0.8189804081342231
 31
0.0
  0
LINE
  5
1FE1
  8
0
 62
     0
 10
213.87216385251821
 20
1.5324728894457129
 30
0.0
 11
215.98639822308701
 21
-0.5817614811231096
 31
0.0
  0
LINE
  5
1FE2
  8
0
 62
     0
 10
214.53312178473971
 20
1.994046972357864
 30
0.0
 11
216.87171131120951
 21
-0.3445425541119675
 31
0.0
  0
LINE
  5
1FE3
  8
0
 62
     0
 10
215.04247279609169
 20
2.6072279761394981
 30
0.0
 11
215.32987686108561
 21
2.3198239111456611
 31
0.0
  0
LINE
  5
1FE4
  8
0
 62
     0
 10
215.38750683878109
 20
3.3847259485837631
 30
0.0
 11
215.5005704442452
 21
3.2716623431196288
 31
0.0
  0
ENDBLK
  5
1FE6
  8
0
  0
BLOCK
  8
0
  2
*U109
 70
     1
 10
0.0
 20
0.0
 30
0.0
  3
*U109
  1

  0
TEXT
  5
20FA
  8
SAPA_MATT
 62
     2
 10
102.4505704440794
 20
-34.231494793416459
 30
0.0
 40
3.0
  1
197-202
  7
ISO
  0
ENDBLK
  5
20FC
  8
0
  0
BLOCK
  8
0
  2
*U110
 70
     1
 10
0.0
 20
0.0
 30
0.0
  3
*U110
  1

  0
TEXT
  5
20FE
  8
SAPA_MATT
 62
     2
 10
123.9114101544896
 20
88.791988772732509
 30
0.0
 40
3.0
  1
94.5
 50
90.0
  7
ISO
  0
ENDBLK
  5
2100
  8
0
  0
BLOCK
  8
0
  2
*U111
 70
     1
 10
0.0
 20
0.0
 30
0.0
  3
*U111
  1

  0
TEXT
  5
2102
  8
SAPA_MATT
 62
     2
 10
43.849999992843202
 20
167.32328570420631
 30
0.0
 40
3.0
  1
95.5
  7
ISO
  0
ENDBLK
  5
2104
  8
0
  0
BLOCK
  8
0
  2
*U112
 70
     1
 10
0.0
 20
0.0
 30
0.0
  3
*U112
  1

  0
TEXT
  5
2106
  8
SAPA_MATT
 62
     2
 10
-40.927207388985678
 20
65.10000000114519
 30
0.0
 40
3.0
  1
139.5
 50
90.0
  7
ISO
  0
ENDBLK
  5
2108
  8
0
  0
BLOCK
  8
0
  2
*U113
 70
     1
 10
0.0
 20
0.0
 30
0.0
  3
*U113
  1

  0
TEXT
  5
210A
  8
SAPA_MATT
 62
     2
 10
-21.300000000036171
 20
116.8500000022905
 30
0.0
 40
3.0
  1
37.5
 50
90.0
  7
ISO
  0
ENDBLK
  5
210C
  8
0
  0
BLOCK
  8
0
  2
*U114
 70
     1
 10
0.0
 20
0.0
 30
0.0
  3
*U114
  1

  0
TEXT
  5
210E
  8
SAPA_MATT
 62
     2
 10
-21.30000000003616
 20
98.150000001127339
 30
0.0
 40
3.0
  1
5
 50
90.0
  7
ISO
  0
ENDBLK
  5
2110
  8
0
  0
BLOCK
  8
0
  2
*U115
 70
     1
 10
0.0
 20
0.0
 30
0.0
  3
*U115
  1

  0
TEXT
  5
2112
  8
SAPA_MATT
 62
     2
 10
-21.300000000036171
 20
46.099545908319527
 30
0.0
 40
3.0
  1
97
 50
90.0
  7
ISO
  0
ENDBLK
  5
2114
  8
0
  0
ENDSEC
  0
SECTION
  2
ENTITIES
  0
CIRCLE
  5
798
  8
SAPA_ANSLUTNING
 10
212.5005704442456
 20
4.200568000640053
 30
0.0
 40
3.0000000000000848
1001
ACAD
1000
ASC_BOUNDS
1002
{
1070
    19
1005
13FF
1002
}
  0
LINE
  5
799
  8
SAPA_ANSLUTNING
 10
216.8951888826729
 20
-0.2803140501894674
 30
0.0
 11
209.500570444245
 21
-2.3196337967118188
 31
0.0
  0
POLYLINE
  5
79A
  8
SAPA_ANSLUTNING
 66
     1
 10
0.0
 20
0.0
 30
0.0
  0
VERTEX
  5
1533
  8
SAPA_ANSLUTNING
 10
100.0040857589986
 20
24.700568000623502
 30
0.0
  0
VERTEX
  5
1534
  8
SAPA_ANSLUTNING
 10
100.0040857589986
 20
37.397967606080712
 30
0.0
 42
0.9999999999999998
  0
VERTEX
  5
1535
  8
SAPA_ANSLUTNING
 10
91.592085168823601
 20
37.397967606080712
 30
0.0
  0
VERTEX
  5
1536
  8
SAPA_ANSLUTNING
 10
91.592085168823616
 20
28.906568295601161
 30
0.0
 42
-0.9999999999999998
  0
VERTEX
  5
1537
  8
SAPA_ANSLUTNING
 10
83.180084578659518
 20
28.906568295601161
 30
0.0
  0
VERTEX
  5
1538
  8
SAPA_ANSLUTNING
 10
83.180084578659518
 20
35.813603631102453
 30
0.0
 42
0.9999999999999998
  0
VERTEX
  5
1539
  8
SAPA_ANSLUTNING
 10
74.76808398848452
 20
35.813603631102453
 30
0.0
  0
VERTEX
  5
153A
  8
SAPA_ANSLUTNING
 10
74.76808398848452
 20
28.906568295601161
 30
0.0
 42
-0.8765017488727152
  0
VERTEX
  5
153B
  8
SAPA_ANSLUTNING
 10
66.500570444244971
 20
27.813614221017801
 30
0.0
 42
-0.8765017488727152
  0
SEQEND
  5
153C
  8
SAPA_ANSLUTNING
  0
POLYLINE
  5
79E
  8
SAPA_ANSLUTNING
 66
     1
 10
0.0
 20
0.0
 30
0.0
  0
VERTEX
  5
153D
  8
SAPA_ANSLUTNING
 10
22.500570444244971
 20
24.700568000516721
 30
0.0
  0
VERTEX
  5
153E
  8
SAPA_ANSLUTNING
 10
22.500570444244971
 20
44.900568000533788
 30
0.0
  0
VERTEX
  5
153F
  8
SAPA_ANSLUTNING
 10
66.500570444244971
 20
44.900568000533788
 30
0.0
  0
VERTEX
  5
1540
  8
SAPA_ANSLUTNING
 10
66.500570444244971
 20
24.700568000516721
 30
0.0
  0
SEQEND
  5
1541
  8
SAPA_ANSLUTNING
  0
POLYLINE
  5
79F
  8
SAPA_ANSLUTNING
 66
     1
 10
0.0
 20
0.0
 30
0.0
  0
VERTEX
  5
1542
  8
SAPA_ANSLUTNING
 10
53.747090299170559
 20
24.700568000581651
 30
0.0
  0
VERTEX
  5
1543
  8
SAPA_ANSLUTNING
 10
46.500570444244971
 20
44.900568000533788
 30
0.0
  0
VERTEX
  5
1544
  8
SAPA_ANSLUTNING
 10
38.500570444244971
 20
24.700568000552781
 30
0.0
  0
VERTEX
  5
1545
  8
SAPA_ANSLUTNING
 10
30.500570444244971
 20
44.900568000533788
 30
0.0
  0
VERTEX
  5
1546
  8
SAPA_ANSLUTNING
 10
22.500570444244971
 20
24.700568000523941
 30
0.0
  0
SEQEND
  5
1547
  8
SAPA_ANSLUTNING
  0
POLYLINE
  5
7A2
  8
SAPA_ANSLUTNING
 66
     1
 10
0.0
 20
0.0
 30
0.0
  0
VERTEX
  5
1548
  8
SAPA_ANSLUTNING
 10
9.5005704440795782
 20
-20.29943199938619
 30
0.0
  0
VERTEX
  5
1549
  8
SAPA_ANSLUTNING
 10
9.5005704440795782
 20
24.700568000623502
 30
0.0
  0
VERTEX
  5
154A
  8
SAPA_ANSLUTNING
 10
209.50057044407939
 20
24.700568000623502
 30
0.0
  0
VERTEX
  5
154B
  8
SAPA_ANSLUTNING
 10
209.5005704440793
 20
-20.29943199938619
 30
0.0
  0
SEQEND
  5
154C
  8
SAPA_ANSLUTNING
  0
POLYLINE
  5
7A4
  8
SAPA_ANSLUTNING
 66
     1
 10
0.0
 20
0.0
 30
0.0
  0
VERTEX
  5
154D
  8
SAPA_ANSLUTNING
 10
66.500570444244971
 20
32.898030634094781
 30
0.0
  0
VERTEX
  5
154E
  8
SAPA_ANSLUTNING
 10
61.747090299116138
 20
44.900568000533788
 30
0.0
  0
VERTEX
  5
154F
  8
SAPA_ANSLUTNING
 10
53.747090299116131
 20
24.700568000523941
 30
0.0
  0
SEQEND
  5
1550
  8
SAPA_ANSLUTNING
  0
LINE
  5
8F9
  8
SAPA_ANSLUTNING
 10
10.100570444079491
 20
-20.29943199938619
 30
0.0
 11
10.100570444079491
 21
24.700568000623502
 31
0.0
  0
LINE
  5
914
  8
SAPA_ANSLUTNING
 10
208.90057044407939
 20
-20.299431999386169
 30
0.0
 11
208.90057044407939
 21
24.700568000623502
 31
0.0
  0
TEXT
  5
A22
  8
SAPA_ARTIKELNR
 10
70.178134828669741
 20
34.704161899011282
 30
0.0
 40
3.5
  1
42793
 50
180.0
 51
180.0
  7
ISO
 71
     6
 72
     4
 11
76.478134828669738
 21
36.454161899011282
 31
0.0
  0
TEXT
  5
A2A
  8
SAPA_ARTIKELNR
 10
-2.9588240781161592
 20
42.573543645451778
 30
0.0
 40
3.5
  1
86117
 50
270.0
 51
180.0
  7
ISO
 71
     6
 72
     4
 11
-4.7088240781161579
 21
47.998543645451782
 31
0.0
  0
TEXT
  5
A32
  8
SAPA_ARTIKELNR
 10
-2.9588240852334211
 20
114.22354334776
 30
0.0
 40
3.5
  1
86302
 50
270.0
 51
180.0
  7
ISO
 71
     6
 72
     4
 11
-4.7088240852334202
 21
120.34854334776
 31
0.0
  0
TEXT
  5
A3B
  8
SAPA_ARTIKELNR
 10
90.735317274679517
 20
121.6267534588163
 30
0.0
 40
3.5
  1
42728
 50
270.0
 51
180.0
  7
ISO
 71
     6
 72
     4
 11
88.985317274679517
 21
127.92675345881629
 31
0.0
  0
TEXT
  5
DD4
  8
SAPA_ARTIKELNR
 10
223.45421789428309
 20
15.722974645884261
 30
0.0
 40
3.5
  1
42880
 50
270.0
 51
180.0
  7
ISO
 71
     6
 72
     4
 11
221.704217894283
 21
22.022974645884261
 31
0.0
  0
POLYLINE
  5
13A5
  8
SAPA_PROFIL
 66
     1
 10
0.0
 20
0.0
 30
0.0
 70
     1
  0
VERTEX
  5
1A72
  8
SAPA_PROFIL
 10
87.407734161183484
 20
41.770186666921227
 30
0.0
 42
0.6370702608040425
  0
VERTEX
  5
1A73
  8
SAPA_PROFIL
 10
87.900570444087776
 20
41.999999999858169
 30
0.0
  0
VERTEX
  5
1A74
  8
SAPA_PROFIL
 10
87.900570444087805
 20
42.223675183662472
 30
0.0
 42
-0.6370702608052643
  0
VERTEX
  5
1A75
  8
SAPA_PROFIL
 10
88.393406726992126
 20
42.453488516599293
 30
0.0
  0
VERTEX
  5
1A76
  8
SAPA_PROFIL
 10
89.207734161183396
 20
41.77018666692112
 30
0.0
 42
0.6370702608045286
  0
VERTEX
  5
1A77
  8
SAPA_PROFIL
 10
89.700570444087745
 20
41.999999999858169
 30
0.0
  0
VERTEX
  5
1A78
  8
SAPA_PROFIL
 10
89.700570444087703
 20
42.223675183662472
 30
0.0
 42
-0.6370702608054076
  0
VERTEX
  5
1A79
  8
SAPA_PROFIL
 10
90.193406726992322
 20
42.453488516599293
 30
0.0
  0
VERTEX
  5
1A7A
  8
SAPA_PROFIL
 10
91.007734161183294
 20
41.770186666921319
 30
0.0
 42
0.6370702608048892
  0
VERTEX
  5
1A7B
  8
SAPA_PROFIL
 10
91.500570444087913
 20
41.999999999858169
 30
0.0
  0
VERTEX
  5
1A7C
  8
SAPA_PROFIL
 10
91.500570444087771
 20
42.22367518366223
 30
0.0
 42
-0.6370702608051136
  0
VERTEX
  5
1A7D
  8
SAPA_PROFIL
 10
91.993406726992276
 20
42.453488516599293
 30
0.0
  0
VERTEX
  5
1A7E
  8
SAPA_PROFIL
 10
92.807734161183248
 20
41.770186666921319
 30
0.0
 42
0.6370702608048892
  0
VERTEX
  5
1A7F
  8
SAPA_PROFIL
 10
93.300570444087867
 20
41.999999999858169
 30
0.0
  0
VERTEX
  5
1A80
  8
SAPA_PROFIL
 10
93.300570444088095
 20
42.399999999993291
 30
0.0
 42
-0.4142135623708974
  0
VERTEX
  5
1A81
  8
SAPA_PROFIL
 10
93.600570444086003
 20
42.699999999993047
 30
0.0
  0
VERTEX
  5
1A82
  8
SAPA_PROFIL
 10
196.8005704440902
 20
42.700000000290402
 30
0.0
 42
-0.4142135623728287
  0
VERTEX
  5
1A83
  8
SAPA_PROFIL
 10
197.80057044410341
 20
41.70000000027175
 30
0.0
  0
VERTEX
  5
1A84
  8
SAPA_PROFIL
 10
197.80057044410441
 20
37.100000000396932
 30
0.0
 42
0.4142135623730077
  0
VERTEX
  5
1A85
  8
SAPA_PROFIL
 10
198.10057044410399
 20
36.800000000397631
 30
0.0
  0
VERTEX
  5
1A86
  8
SAPA_PROFIL
 10
200.40057044410381
 20
36.800000000397631
 30
0.0
 42
0.4142135623730951
  0
VERTEX
  5
1A87
  8
SAPA_PROFIL
 10
200.70057044410399
 20
37.100000000397813
 30
0.0
  0
VERTEX
  5
1A88
  8
SAPA_PROFIL
 10
200.70057044410399
 20
37.600000000396911
 30
0.0
 42
0.4142135623730951
  0
VERTEX
  5
1A89
  8
SAPA_PROFIL
 10
200.40057044410381
 20
37.900000000397092
 30
0.0
  0
VERTEX
  5
1A8A
  8
SAPA_PROFIL
 10
200.0639435194739
 20
37.900000000397227
 30
0.0
 42
-0.553524574347029
  0
VERTEX
  5
1A8B
  8
SAPA_PROFIL
 10
201.8364628421605
 20
42.210554211956151
 30
0.0
  0
VERTEX
  5
1A8C
  8
SAPA_PROFIL
 10
202.12379374885259
 20
41.923223305263512
 30
0.0
 42
0.4142135623731421
  0
VERTEX
  5
1A8D
  8
SAPA_PROFIL
 10
202.47734713944601
 20
41.923223305263491
 30
0.0
  0
VERTEX
  5
1A8E
  8
SAPA_PROFIL
 10
202.76467804612861
 20
42.210554211946032
 30
0.0
 42
-0.5535245743365356
  0
VERTEX
  5
1A8F
  8
SAPA_PROFIL
 10
204.5371973687443
 20
37.900000000397092
 30
0.0
  0
VERTEX
  5
1A90
  8
SAPA_PROFIL
 10
204.20057044410399
 20
37.900000000397092
 30
0.0
 42
0.4142135623730951
  0
VERTEX
  5
1A91
  8
SAPA_PROFIL
 10
203.90057044410381
 20
37.600000000396911
 30
0.0
  0
VERTEX
  5
1A92
  8
SAPA_PROFIL
 10
203.90057044410381
 20
37.100000000397813
 30
0.0
 42
0.4142135623730951
  0
VERTEX
  5
1A93
  8
SAPA_PROFIL
 10
204.20057044410399
 20
36.800000000397631
 30
0.0
  0
VERTEX
  5
1A94
  8
SAPA_PROFIL
 10
206.50057044410369
 20
36.800000000397631
 30
0.0
 42
0.4142135623730744
  0
VERTEX
  5
1A95
  8
SAPA_PROFIL
 10
206.8005704441039
 20
37.100000000396903
 30
0.0
  0
VERTEX
  5
1A96
  8
SAPA_PROFIL
 10
206.8005704441039
 20
41.700000000315413
 30
0.0
 42
-0.4142135623730951
  0
VERTEX
  5
1A97
  8
SAPA_PROFIL
 10
207.80057044408659
 20
42.700000000289947
 30
0.0
  0
VERTEX
  5
1A98
  8
SAPA_PROFIL
 10
214.80057044410179
 20
42.700000000337582
 30
0.0
 42
-0.4142135623752928
  0
VERTEX
  5
1A99
  8
SAPA_PROFIL
 10
215.30057044410549
 20
42.200000000337234
 30
0.0
  0
VERTEX
  5
1A9A
  8
SAPA_PROFIL
 10
215.30057044408451
 20
9.7000000000234632
 30
0.0
 42
-0.4142135623728287
  0
VERTEX
  5
1A9B
  8
SAPA_PROFIL
 10
214.8005704440846
 20
9.2000000000239197
 30
0.0
  0
VERTEX
  5
1A9C
  8
SAPA_PROFIL
 10
209.80057044407911
 20
9.2000000000236923
 30
0.0
 42
0.4142135623728953
  0
VERTEX
  5
1A9D
  8
SAPA_PROFIL
 10
209.5005704440789
 20
8.9000000000237378
 30
0.0
  0
VERTEX
  5
1A9E
  8
SAPA_PROFIL
 10
209.5005704440789
 20
7.5000000000245839
 30
0.0
 42
0.4142135623733406
  0
VERTEX
  5
1A9F
  8
SAPA_PROFIL
 10
209.8005704440796
 20
7.2000000000246009
 30
0.0
  0
VERTEX
  5
1AA0
  8
SAPA_PROFIL
 10
215.00057044407839
 20
7.2000000000318769
 30
0.0
 42
-0.4142135623736278
  0
VERTEX
  5
1AA1
  8
SAPA_PROFIL
 10
215.5005704440789
 20
6.7000000000318769
 30
0.0
  0
VERTEX
  5
1AA2
  8
SAPA_PROFIL
 10
215.50057044407899
 20
2.6142135624054101
 30
0.0
 42
-0.1989123673796446
  0
VERTEX
  5
1AA3
  8
SAPA_PROFIL
 10
215.41270247843499
 20
2.4020815280491661
 30
0.0
  0
VERTEX
  5
1AA4
  8
SAPA_PROFIL
 10
215.14701705348551
 20
2.136396103100167
 30
0.0
 42
0.414213562373048
  0
VERTEX
  5
1AA5
  8
SAPA_PROFIL
 10
215.1470170534856
 20
1.429289321913529
 30
0.0
  0
VERTEX
  5
1AA6
  8
SAPA_PROFIL
 10
216.78843840972269
 20
-0.2121320343230622
 30
0.0
 42
0.6681786379187616
  0
VERTEX
  5
1AA7
  8
SAPA_PROFIL
 10
217.3005704440782
 20
0.0000000000327418
 30
0.0
  0
VERTEX
  5
1AA8
  8
SAPA_PROFIL
 10
217.3005704441068
 20
44.200000000350663
 30
0.0
 42
0.4142135623754925
  0
VERTEX
  5
1AA9
  8
SAPA_PROFIL
 10
216.80057044410319
 20
44.70000000035111
 30
0.0
  0
VERTEX
  5
1AAA
  8
SAPA_PROFIL
 10
75.800570444100813
 20
44.699999999872247
 30
0.0
 42
0.7336498725448476
  0
VERTEX
  5
1AAB
  8
SAPA_PROFIL
 10
75.51422931288576
 20
43.790111287436552
 30
0.0
  0
VERTEX
  5
1AAC
  8
SAPA_PROFIL
 10
78.428765765366393
 20
41.754066772397493
 30
0.0
 42
0.606441717362567
  0
VERTEX
  5
1AAD
  8
SAPA_PROFIL
 10
78.900570444087549
 20
41.999999999858169
 30
0.0
  0
VERTEX
  5
1AAE
  8
SAPA_PROFIL
 10
78.900570444087521
 20
42.223675183662472
 30
0.0
 42
-0.6370702608054076
  0
VERTEX
  5
1AAF
  8
SAPA_PROFIL
 10
79.39340672699214
 20
42.453488516599293
 30
0.0
  0
VERTEX
  5
1AB0
  8
SAPA_PROFIL
 10
80.207734161181975
 20
41.770186666922449
 30
0.0
 42
0.6370702608052336
  0
VERTEX
  5
1AB1
  8
SAPA_PROFIL
 10
80.700570444087731
 20
41.999999999858169
 30
0.0
  0
VERTEX
  5
1AB2
  8
SAPA_PROFIL
 10
80.700570444087703
 20
42.223675183662472
 30
0.0
 42
-0.6370702608054076
  0
VERTEX
  5
1AB3
  8
SAPA_PROFIL
 10
81.193406726992322
 20
42.453488516599293
 30
0.0
  0
VERTEX
  5
1AB4
  8
SAPA_PROFIL
 10
82.007734161181943
 20
41.770186666922449
 30
0.0
 42
0.6370702608058605
  0
VERTEX
  5
1AB5
  8
SAPA_PROFIL
 10
82.500570444087913
 20
41.999999999858169
 30
0.0
  0
VERTEX
  5
1AB6
  8
SAPA_PROFIL
 10
82.500570444087771
 20
42.22367518366223
 30
0.0
 42
-0.6370702608051136
  0
VERTEX
  5
1AB7
  8
SAPA_PROFIL
 10
82.993406726992276
 20
42.453488516599293
 30
0.0
  0
VERTEX
  5
1AB8
  8
SAPA_PROFIL
 10
83.807734161182054
 20
41.770186666922399
 30
0.0
 42
0.6370702608057057
  0
VERTEX
  5
1AB9
  8
SAPA_PROFIL
 10
84.300570444087867
 20
41.999999999858169
 30
0.0
  0
VERTEX
  5
1ABA
  8
SAPA_PROFIL
 10
84.300570444087498
 20
42.223675183662209
 30
0.0
 42
-0.6370702608047383
  0
VERTEX
  5
1ABB
  8
SAPA_PROFIL
 10
84.793406726992231
 20
42.453488516599293
 30
0.0
  0
VERTEX
  5
1ABC
  8
SAPA_PROFIL
 10
85.607734161183217
 20
41.770186666921319
 30
0.0
 42
0.6370702608048892
  0
VERTEX
  5
1ABD
  8
SAPA_PROFIL
 10
86.100570444087808
 20
41.999999999858169
 30
0.0
  0
VERTEX
  5
1ABE
  8
SAPA_PROFIL
 10
86.100570444087765
 20
42.223675183662472
 30
0.0
 42
-0.6370702608052951
  0
VERTEX
  5
1ABF
  8
SAPA_PROFIL
 10
86.593406726992185
 20
42.453488516599293
 30
0.0
  0
SEQEND
  5
1AC0
  8
SAPA_PROFIL
  0
POLYLINE
  5
13A6
  8
SAPA_PROFIL
 66
     1
 10
0.0
 20
0.0
 30
0.0
 70
     1
  0
VERTEX
  5
1AC1
  8
SAPA_PROFIL
 10
79.949999996642987
 20
48.287713242224008
 30
0.0
 42
0.2679491924315167
  0
VERTEX
  5
1AC2
  8
SAPA_PROFIL
 10
80.099999996642964
 20
48.547520863359694
 30
0.0
  0
VERTEX
  5
1AC3
  8
SAPA_PROFIL
 10
80.099999996642495
 20
48.900000000111447
 30
0.0
 42
-0.4142135623730951
  0
VERTEX
  5
1AC4
  8
SAPA_PROFIL
 10
80.399999996643487
 20
49.200000000112539
 30
0.0
  0
VERTEX
  5
1AC5
  8
SAPA_PROFIL
 10
83.199999993442987
 20
49.200000000115949
 30
0.0
 42
-0.4142135623728859
  0
VERTEX
  5
1AC6
  8
SAPA_PROFIL
 10
83.699999993443612
 20
48.700000000116923
 30
0.0
  0
VERTEX
  5
1AC7
  8
SAPA_PROFIL
 10
83.699999993445545
 20
47.700000000108332
 30
0.0
 42
-0.4142135623733615
  0
VERTEX
  5
1AC8
  8
SAPA_PROFIL
 10
82.699999993446568
 20
46.7000000001064
 30
0.0
  0
VERTEX
  5
1AC9
  8
SAPA_PROFIL
 10
81.333974589658681
 20
46.700000000105028
 30
0.0
 42
0.1316524975871477
  0
VERTEX
  5
1ACA
  8
SAPA_PROFIL
 10
81.083974589659192
 20
46.633012701997238
 30
0.0
  0
VERTEX
  5
1ACB
  8
SAPA_PROFIL
 10
78.371539024349033
 20
45.066987298205902
 30
0.0
 42
-0.1316524975872168
  0
VERTEX
  5
1ACC
  8
SAPA_PROFIL
 10
78.121539024349374
 20
45.000000000098112
 30
0.0
  0
VERTEX
  5
1ACD
  8
SAPA_PROFIL
 10
70.199999993449069
 20
45.000000000092477
 30
0.0
 42
0.4142135623729286
  0
VERTEX
  5
1ACE
  8
SAPA_PROFIL
 10
69.899999993449228
 20
44.700000000092523
 30
0.0
  0
VERTEX
  5
1ACF
  8
SAPA_PROFIL
 10
69.899999993448603
 20
41.223441577021333
 30
0.0
 42
0.4244748162096643
  0
VERTEX
  5
1AD0
  8
SAPA_PROFIL
 10
70.210469842459361
 20
40.923624328915537
 30
0.0
  0
VERTEX
  5
1AD1
  8
SAPA_PROFIL
 10
86.131775044265154
 20
41.479608557875387
 30
0.0
 42
0.4142135623730951
  0
VERTEX
  5
1AD2
  8
SAPA_PROFIL
 10
86.421122443360176
 20
41.789895654991881
 30
0.0
  0
VERTEX
  5
1AD3
  8
SAPA_PROFIL
 10
86.400182745338611
 20
42.389530151203239
 30
0.0
 42
-0.6370702608075453
  0
VERTEX
  5
1AD4
  8
SAPA_PROFIL
 10
86.884698436042086
 20
42.636403226296068
 30
0.0
  0
VERTEX
  5
1AD5
  8
SAPA_PROFIL
 10
88.658358875052386
 20
41.250667818993691
 30
0.0
 42
-0.7002075382097091
  0
VERTEX
  5
1AD6
  8
SAPA_PROFIL
 10
88.367977885740785
 20
40.356967028680792
 30
0.0
  0
VERTEX
  5
1AD7
  8
SAPA_PROFIL
 10
67.510469842462896
 20
39.628606798129233
 30
0.0
 42
-0.4244748162048541
  0
VERTEX
  5
1AD8
  8
SAPA_PROFIL
 10
67.199999993452138
 20
39.928424046230141
 30
0.0
  0
VERTEX
  5
1AD9
  8
SAPA_PROFIL
 10
67.199999993440429
 20
40.650000000088312
 30
0.0
 42
-0.4142135623740385
  0
VERTEX
  5
1ADA
  8
SAPA_PROFIL
 10
67.499999993440724
 20
40.95000000008946
 30
0.0
  0
VERTEX
  5
1ADB
  8
SAPA_PROFIL
 10
68.399999993437746
 20
40.950000000089403
 30
0.0
 42
0.4142135623724291
  0
VERTEX
  5
1ADC
  8
SAPA_PROFIL
 10
68.6999999934377
 20
41.250000000088669
 30
0.0
  0
VERTEX
  5
1ADD
  8
SAPA_PROFIL
 10
68.699999993449069
 20
46.200000000094803
 30
0.0
 42
0.4142135623740522
  0
VERTEX
  5
1ADE
  8
SAPA_PROFIL
 10
68.199999993448543
 20
46.70000000009594
 30
0.0
  0
VERTEX
  5
1ADF
  8
SAPA_PROFIL
 10
66.699999993447932
 20
46.700000000094512
 30
0.0
 42
-0.4142135623729374
  0
VERTEX
  5
1AE0
  8
SAPA_PROFIL
 10
66.199999993447477
 20
47.20000000009378
 30
0.0
  0
VERTEX
  5
1AE1
  8
SAPA_PROFIL
 10
66.199999993445317
 20
48.70000000009383
 30
0.0
 42
-0.4142135623731454
  0
VERTEX
  5
1AE2
  8
SAPA_PROFIL
 10
66.699999993444692
 20
49.200000000094583
 30
0.0
  0
VERTEX
  5
1AE3
  8
SAPA_PROFIL
 10
69.099999996643646
 20
49.200000000097639
 30
0.0
 42
-0.414213562373503
  0
VERTEX
  5
1AE4
  8
SAPA_PROFIL
 10
69.599999996644314
 20
48.700000000097589
 30
0.0
  0
VERTEX
  5
1AE5
  8
SAPA_PROFIL
 10
69.599999996644272
 20
48.200000000091791
 30
0.0
 42
0.414213562373547
  0
VERTEX
  5
1AE6
  8
SAPA_PROFIL
 10
70.599999996645749
 20
47.200000000091727
 30
0.0
  0
VERTEX
  5
1AE7
  8
SAPA_PROFIL
 10
77.932050801008756
 20
47.20000000010242
 30
0.0
 42
0.1316524975870585
  0
VERTEX
  5
1AE8
  8
SAPA_PROFIL
 10
78.182050801008074
 20
47.266987298210211
 30
0.0
  0
SEQEND
  5
1AE9
  8
SAPA_PROFIL
  0
POLYLINE
  5
13A7
  8
SAPA_PROFIL
 66
     1
 10
0.0
 20
0.0
 30
0.0
 70
     1
  0
VERTEX
  5
1AEA
  8
SAPA_PROFIL
 10
82.804759982146095
 20
117.699999702288
 30
0.0
  0
VERTEX
  5
1AEB
  8
SAPA_PROFIL
 10
82.562216044298964
 20
117.699999702288
 30
0.0
 42
0.2011813370902256
  0
VERTEX
  5
1AEC
  8
SAPA_PROFIL
 10
82.419565954468396
 20
117.640181555148
 30
0.0
  0
VERTEX
  5
1AED
  8
SAPA_PROFIL
 10
81.508853861444507
 20
116.71343419641831
 30
0.0
  0
VERTEX
  5
1AEE
  8
SAPA_PROFIL
 10
81.522061404187696
 20
115.19999970228621
 30
0.0
 42
-0.4931454260356012
  0
VERTEX
  5
1AEF
  8
SAPA_PROFIL
 10
81.742888293235339
 20
113.62873474204829
 30
0.0
  0
VERTEX
  5
1AF0
  8
SAPA_PROFIL
 10
80.693711720622559
 20
112.56108490522401
 30
0.0
 42
-0.6681786379164681
  0
VERTEX
  5
1AF1
  8
SAPA_PROFIL
 10
80.343811463137627
 20
112.7024537856777
 30
0.0
  0
VERTEX
  5
1AF2
  8
SAPA_PROFIL
 10
80.30456197454032
 20
117.199999702288
 30
0.0
  0
VERTEX
  5
1AF3
  8
SAPA_PROFIL
 10
82.382075233770081
 20
119.3140925538777
 30
0.0
 42
0.2038501166358263
  0
VERTEX
  5
1AF4
  8
SAPA_PROFIL
 10
82.525258090376099
 20
119.6783993332955
 30
0.0
  0
VERTEX
  5
1AF5
  8
SAPA_PROFIL
 10
82.106631981087219
 20
134.78311258588991
 30
0.0
 42
0.4061212134736873
  0
VERTEX
  5
1AF6
  8
SAPA_PROFIL
 10
79.107783493987768
 20
137.6999997022815
 30
0.0
  0
VERTEX
  5
1AF7
  8
SAPA_PROFIL
 10
67.32359225051971
 20
137.6999997022815
 30
0.0
 42
0.4142135623730951
  0
VERTEX
  5
1AF8
  8
SAPA_PROFIL
 10
66.82359225051971
 20
137.1999997022815
 30
0.0
  0
VERTEX
  5
1AF9
  8
SAPA_PROFIL
 10
66.82359225051971
 20
125.6142132646565
 30
0.0
 42
0.198912367379658
  0
VERTEX
  5
1AFA
  8
SAPA_PROFIL
 10
67.116485469333156
 20
124.9071064834699
 30
0.0
  0
VERTEX
  5
1AFB
  8
SAPA_PROFIL
 10
67.497084242723645
 20
124.5265077100794
 30
0.0
 42
-0.1830252782112529
  0
VERTEX
  5
1AFC
  8
SAPA_PROFIL
 10
68.079112784471249
 20
123.234839901348
 30
0.0
  0
VERTEX
  5
1AFD
  8
SAPA_PROFIL
 10
68.802177511801801
 20
112.8017678725422
 30
0.0
 42
-0.668178637923616
  0
VERTEX
  5
1AFE
  8
SAPA_PROFIL
 10
68.287027022012794
 20
112.58838555300861
 30
0.0
  0
VERTEX
  5
1AFF
  8
SAPA_PROFIL
 10
66.28754490709025
 20
114.58786766793121
 30
0.0
 42
-0.7332303362588345
  0
VERTEX
  5
1B00
  8
SAPA_PROFIL
 10
66.551771394747433
 20
115.0954420281909
 30
0.0
  0
VERTEX
  5
1B01
  8
SAPA_PROFIL
 10
67.167582488145854
 20
114.98685791740481
 30
0.0
 42
0.4663076581593561
  0
VERTEX
  5
1B02
  8
SAPA_PROFIL
 10
67.51967694144605
 20
115.2823002433082
 30
0.0
  0
VERTEX
  5
1B03
  8
SAPA_PROFIL
 10
66.788517319565585
 20
123.0417773686605
 30
0.0
 42
0.183025278211264
  0
VERTEX
  5
1B04
  8
SAPA_PROFIL
 10
66.497503048691783
 20
123.68761127302621
 30
0.0
  0
VERTEX
  5
1B05
  8
SAPA_PROFIL
 10
66.109378688146762
 20
124.0757356335712
 30
0.0
 42
-0.1989123673796518
  0
VERTEX
  5
1B06
  8
SAPA_PROFIL
 10
65.523592250519854
 20
125.48994919594431
 30
0.0
  0
VERTEX
  5
1B07
  8
SAPA_PROFIL
 10
65.523592250519755
 20
136.89999970229701
 30
0.0
 42
0.4142135623732283
  0
VERTEX
  5
1B08
  8
SAPA_PROFIL
 10
65.023592250519528
 20
137.39999970229701
 30
0.0
  0
VERTEX
  5
1B09
  8
SAPA_PROFIL
 10
63.823592250520171
 20
137.3999997022961
 30
0.0
 42
-0.4142135623732062
  0
VERTEX
  5
1B0A
  8
SAPA_PROFIL
 10
63.523592250520089
 20
137.69999970229611
 30
0.0
  0
VERTEX
  5
1B0B
  8
SAPA_PROFIL
 10
63.523592250519762
 20
138.8999997022816
 30
0.0
 42
-0.4142135623716247
  0
VERTEX
  5
1B0C
  8
SAPA_PROFIL
 10
63.823592250521067
 20
139.19999970228159
 30
0.0
  0
VERTEX
  5
1B0D
  8
SAPA_PROFIL
 10
83.799999992843084
 20
139.19999970229509
 30
0.0
 42
-0.4142135623732938
  0
VERTEX
  5
1B0E
  8
SAPA_PROFIL
 10
83.999999992843129
 20
138.9999997022951
 30
0.0
  0
VERTEX
  5
1B0F
  8
SAPA_PROFIL
 10
83.999999992843129
 20
117.4046235886093
 30
0.0
 42
-0.4210020197690384
  0
VERTEX
  5
1B10
  8
SAPA_PROFIL
 10
83.800053450799112
 20
117.199999702288
 30
0.0
  0
VERTEX
  5
1B11
  8
SAPA_PROFIL
 10
83.212070287603581
 20
117.1999997022815
 30
0.0
  0
VERTEX
  5
1B12
  8
SAPA_PROFIL
 10
83.212070287603581
 20
117.4999997022815
 30
0.0
 42
0.41421356237322
  0
VERTEX
  5
1B13
  8
SAPA_PROFIL
 10
83.012070287603535
 20
117.6999997022814
 30
0.0
  0
VERTEX
  5
1B14
  8
SAPA_PROFIL
 10
82.794892522133935
 20
117.6999997022815
 30
0.0
  0
SEQEND
  5
1B15
  8
SAPA_PROFIL
  0
CIRCLE
  5
13A8
  8
SAPA_PROFIL
 62
     2
 10
2.8894244444271631
 20
135.8633406297019
 30
0.0
 40
0.8999999999999985
  0
POLYLINE
  5
13A9
  8
SAPA_PROFIL
 62
     2
 66
     1
 10
0.0
 20
0.0
 30
0.0
  0
VERTEX
  5
1B16
  8
SAPA_PROFIL
 62
     2
 10
4.19743085600021
 20
137.2633406297019
 30
0.0
  0
VERTEX
  5
1B17
  8
SAPA_PROFIL
 62
     2
 10
3.1065120458474662
 20
137.07098220970951
 30
0.0
  0
VERTEX
  5
1B18
  8
SAPA_PROFIL
 62
     2
 10
2.9908125063275288
 20
137.5027787696111
 30
0.0
 42
0.4430158954262519
  0
VERTEX
  5
1B19
  8
SAPA_PROFIL
 62
     2
 10
2.72733607822056
 20
137.6382558171552
 30
0.0
  0
VERTEX
  5
1B1A
  8
SAPA_PROFIL
 62
     2
 10
1.456848330302364
 20
137.1613076239363
 30
0.0
 42
0.3125358528825162
  0
VERTEX
  5
1B1B
  8
SAPA_PROFIL
 62
     2
 10
1.1974308560006639
 20
136.7868259108069
 30
0.0
  0
VERTEX
  5
1B1C
  8
SAPA_PROFIL
 62
     2
 10
1.19743085600021
 20
134.9166705948966
 30
0.0
 42
0.3125358528825104
  0
VERTEX
  5
1B1D
  8
SAPA_PROFIL
 62
     2
 10
1.456848330302364
 20
134.54218888176709
 30
0.0
  0
VERTEX
  5
1B1E
  8
SAPA_PROFIL
 62
     2
 10
2.72733607822056
 20
134.06524068854799
 30
0.0
 42
0.4430158954262519
  0
VERTEX
  5
1B1F
  8
SAPA_PROFIL
 62
     2
 10
2.9908125063274151
 20
134.20071773609209
 30
0.0
  0
VERTEX
  5
1B20
  8
SAPA_PROFIL
 62
     2
 10
3.1065120458474662
 20
134.6325142959939
 30
0.0
  0
VERTEX
  5
1B21
  8
SAPA_PROFIL
 62
     2
 10
4.19743085600021
 20
134.44024825285169
 30
0.0
  0
SEQEND
  5
1B22
  8
SAPA_PROFIL
 62
     2
  0
POLYLINE
  5
13AA
  8
SAPA_PROFIL
 62
     2
 66
     1
 10
0.0
 20
0.0
 30
0.0
 70
     1
  0
VERTEX
  5
1B23
  8
SAPA_PROFIL
 62
     2
 10
4.19743085600021
 20
137.2517482528516
 30
0.0
 42
-0.285714285714282
  0
VERTEX
  5
1B24
  8
SAPA_PROFIL
 62
     2
 10
4.19743085600021
 20
134.45174825285159
 30
0.0
  0
VERTEX
  5
1B25
  8
SAPA_PROFIL
 62
     2
 10
4.1974308560006639
 20
132.3779680834638
 30
0.0
 42
0.3882600129940275
  0
VERTEX
  5
1B26
  8
SAPA_PROFIL
 62
     2
 10
4.4706415822802219
 20
132.07916658612231
 30
0.0
  0
VERTEX
  5
1B27
  8
SAPA_PROFIL
 62
     2
 10
8.3706415822803137
 20
131.6129566621959
 30
0.0
 42
0.4406523138893894
  0
VERTEX
  5
1B28
  8
SAPA_PROFIL
 62
     2
 10
8.69743085600021
 20
131.9117581595377
 30
0.0
  0
VERTEX
  5
1B29
  8
SAPA_PROFIL
 62
     2
 10
8.69743085600021
 20
133.621550156458
 30
0.0
 42
0.3394542588634375
  0
VERTEX
  5
1B2A
  8
SAPA_PROFIL
 62
     2
 10
8.4750765695312111
 20
133.9113279043446
 30
0.0
  0
VERTEX
  5
1B2B
  8
SAPA_PROFIL
 62
     2
 10
8.2574907873636221
 20
134.113707632276
 30
0.0
 42
-0.3394542588633663
  0
VERTEX
  5
1B2C
  8
SAPA_PROFIL
 62
     2
 10
8.0351365008946232
 20
134.40348538016281
 30
0.0
  0
VERTEX
  5
1B2D
  8
SAPA_PROFIL
 62
     2
 10
8.0351365008946232
 20
137.30001112554061
 30
0.0
 42
-0.3394542588634373
  0
VERTEX
  5
1B2E
  8
SAPA_PROFIL
 62
     2
 10
8.2574907873636221
 20
137.58978887342721
 30
0.0
  0
VERTEX
  5
1B2F
  8
SAPA_PROFIL
 62
     2
 10
8.4750765695312111
 20
137.79216860135861
 30
0.0
 42
0.3394542588633662
  0
VERTEX
  5
1B30
  8
SAPA_PROFIL
 62
     2
 10
8.69743085600021
 20
138.08194634924541
 30
0.0
  0
VERTEX
  5
1B31
  8
SAPA_PROFIL
 62
     2
 10
8.69743085600021
 20
139.79173834616549
 30
0.0
 42
0.4406523138893994
  0
VERTEX
  5
1B32
  8
SAPA_PROFIL
 62
     2
 10
8.3706415822803137
 20
140.09053984350709
 30
0.0
  0
VERTEX
  5
1B33
  8
SAPA_PROFIL
 62
     2
 10
4.4706415822802219
 20
139.62432991958079
 30
0.0
 42
0.3882600129940462
  0
VERTEX
  5
1B34
  8
SAPA_PROFIL
 62
     2
 10
4.19743085600021
 20
139.32552842223939
 30
0.0
  0
VERTEX
  5
1B35
  8
SAPA_PROFIL
 62
     2
 10
4.19743085600021
 20
137.2633406297019
 30
0.0
  0
SEQEND
  5
1B36
  8
SAPA_PROFIL
 62
     2
  0
POLYLINE
  5
13AB
  8
SAPA_PROFIL
 66
     1
 10
0.0
 20
0.0
 30
0.0
 70
     1
  0
VERTEX
  5
1B37
  8
SAPA_PROFIL
 10
60.969916881531617
 20
91.688496764701696
 30
0.0
  0
VERTEX
  5
1B38
  8
SAPA_PROFIL
 10
61.25459916476327
 20
91.840630675810473
 30
0.0
 42
-0.5773502691897463
  0
VERTEX
  5
1B39
  8
SAPA_PROFIL
 10
61.548755465018083
 20
91.65767693570028
 30
0.0
  0
VERTEX
  5
1B3A
  8
SAPA_PROFIL
 10
61.538194098791116
 20
91.335919207482036
 30
0.0
  0
VERTEX
  5
1B3B
  8
SAPA_PROFIL
 10
63.424037790652172
 20
90.251354760510296
 30
0.0
  0
VERTEX
  5
1B3C
  8
SAPA_PROFIL
 10
63.615420790645892
 20
90.193281123521217
 30
0.0
 42
0.7625858545243257
  0
VERTEX
  5
1B3D
  8
SAPA_PROFIL
 10
63.799999992843361
 20
90.523607204538209
 30
0.0
 42
-0.2134217652834389
  0
VERTEX
  5
1B3E
  8
SAPA_PROFIL
 10
63.699999992843239
 20
90.747214002288331
 30
0.0
  0
VERTEX
  5
1B3F
  8
SAPA_PROFIL
 10
63.699999992843239
 20
94.600000002288311
 30
0.0
 42
0.4142139999998963
  0
VERTEX
  5
1B40
  8
SAPA_PROFIL
 10
63.399999992843192
 20
94.900000002288323
 30
0.0
  0
VERTEX
  5
1B41
  8
SAPA_PROFIL
 10
63.099999992843237
 20
94.900000002288323
 30
0.0
  0
VERTEX
  5
1B42
  8
SAPA_PROFIL
 10
61.499999992843257
 20
93.976240002288279
 30
0.0
 42
-0.5773500000002674
  0
VERTEX
  5
1B43
  8
SAPA_PROFIL
 10
61.19999999284321
 20
94.14944500228836
 30
0.0
  0
VERTEX
  5
1B44
  8
SAPA_PROFIL
 10
61.19999999284321
 20
95.535086002288324
 30
0.0
 42
-0.267949000000023
  0
VERTEX
  5
1B45
  8
SAPA_PROFIL
 10
61.69999999284321
 20
96.401111002288346
 30
0.0
  0
VERTEX
  5
1B46
  8
SAPA_PROFIL
 10
63.449999992843239
 20
97.411474002288344
 30
0.0
 42
0.2679489999999919
  0
VERTEX
  5
1B47
  8
SAPA_PROFIL
 10
63.699999992843239
 20
97.844487002288361
 30
0.0
  0
VERTEX
  5
1B48
  8
SAPA_PROFIL
 10
63.699999992843239
 20
107.8555140022883
 30
0.0
 42
0.2679490000000193
  0
VERTEX
  5
1B49
  8
SAPA_PROFIL
 10
63.449999992843253
 20
108.2885270022883
 30
0.0
  0
VERTEX
  5
1B4A
  8
SAPA_PROFIL
 10
61.699999992843232
 20
109.2988900022883
 30
0.0
 42
-0.2679490000000211
  0
VERTEX
  5
1B4B
  8
SAPA_PROFIL
 10
61.19999999284321
 20
110.1649150022883
 30
0.0
  0
VERTEX
  5
1B4C
  8
SAPA_PROFIL
 10
61.19999999284321
 20
111.5505560022883
 30
0.0
 42
-0.5773499999999721
  0
VERTEX
  5
1B4D
  8
SAPA_PROFIL
 10
61.499999992843229
 20
111.7237610022883
 30
0.0
  0
VERTEX
  5
1B4E
  8
SAPA_PROFIL
 10
63.099999992843252
 20
110.8000000022883
 30
0.0
  0
VERTEX
  5
1B4F
  8
SAPA_PROFIL
 10
63.399999992843199
 20
110.8000000022883
 30
0.0
 42
0.4142139999999657
  0
VERTEX
  5
1B50
  8
SAPA_PROFIL
 10
63.699999992843239
 20
111.1000000022883
 30
0.0
  0
VERTEX
  5
1B51
  8
SAPA_PROFIL
 10
63.699999992843132
 20
114.9527870022883
 30
0.0
 42
-0.2134217652834387
  0
VERTEX
  5
1B52
  8
SAPA_PROFIL
 10
63.799999992843269
 20
115.1763938000385
 30
0.0
 42
0.7625858545243244
  0
VERTEX
  5
1B53
  8
SAPA_PROFIL
 10
63.615420790645778
 20
115.5067198810554
 30
0.0
  0
VERTEX
  5
1B54
  8
SAPA_PROFIL
 10
63.424037790652072
 20
115.4486462440663
 30
0.0
  0
VERTEX
  5
1B55
  8
SAPA_PROFIL
 10
61.53819409879101
 20
114.3640817970946
 30
0.0
  0
VERTEX
  5
1B56
  8
SAPA_PROFIL
 10
61.54875546501799
 20
114.0423240688763
 30
0.0
 42
-0.5773502691897466
  0
VERTEX
  5
1B57
  8
SAPA_PROFIL
 10
61.25459916476315
 20
113.8593703287662
 30
0.0
  0
VERTEX
  5
1B58
  8
SAPA_PROFIL
 10
60.969916881531489
 20
114.0115042398749
 30
0.0
 42
-0.2216946626430191
  0
VERTEX
  5
1B59
  8
SAPA_PROFIL
 10
60.564107976376711
 20
114.5523840713517
 30
0.0
  0
VERTEX
  5
1B5A
  8
SAPA_PROFIL
 10
60.182661380249002
 20
116.36561454200999
 30
0.0
 42
-0.4769755326981641
  0
VERTEX
  5
1B5B
  8
SAPA_PROFIL
 10
60.484914204755469
 20
116.73727141695591
 30
0.0
  0
VERTEX
  5
1B5C
  8
SAPA_PROFIL
 10
61.98801528551747
 20
116.7371878090722
 30
0.0
  0
VERTEX
  5
1B5D
  8
SAPA_PROFIL
 10
62.00253369476458
 20
116.6893420590737
 30
0.0
 42
0.4142135623730953
  0
VERTEX
  5
1B5E
  8
SAPA_PROFIL
 10
62.376718650240392
 20
116.4893780145663
 30
0.0
  0
VERTEX
  5
1B5F
  8
SAPA_PROFIL
 10
63.69783406767457
 20
117.0000000022883
 30
0.0
  0
VERTEX
  5
1B60
  8
SAPA_PROFIL
 10
63.699999992843239
 20
117.0000000022883
 30
0.0
  0
VERTEX
  5
1B61
  8
SAPA_PROFIL
 10
66.692484992843248
 20
117.0000000022883
 30
0.0
 42
-0.2596809999999277
  0
VERTEX
  5
1B62
  8
SAPA_PROFIL
 10
66.862515992843214
 20
116.9053070022883
 30
0.0
  0
VERTEX
  5
1B63
  8
SAPA_PROFIL
 10
67.655046992843239
 20
115.6579610022883
 30
0.0
 42
-0.5877030000000004
  0
VERTEX
  5
1B64
  8
SAPA_PROFIL
 10
67.399999992843206
 20
115.20000000228831
 30
0.0
  0
VERTEX
  5
1B65
  8
SAPA_PROFIL
 10
65.999999992843229
 20
115.20000000228831
 30
0.0
 42
0.4142135623731089
  0
VERTEX
  5
1B66
  8
SAPA_PROFIL
 10
65.699999992843246
 20
114.90000000228829
 30
0.0
  0
VERTEX
  5
1B67
  8
SAPA_PROFIL
 10
65.699999992843246
 20
112.5000000022883
 30
0.0
 42
0.4142135623731088
  0
VERTEX
  5
1B68
  8
SAPA_PROFIL
 10
65.999999992843229
 20
112.20000000228831
 30
0.0
  0
VERTEX
  5
1B69
  8
SAPA_PROFIL
 10
71.799999992843183
 20
112.20000000228831
 30
0.0
  0
VERTEX
  5
1B6A
  8
SAPA_PROFIL
 10
73.799999992843183
 20
112.20000000228831
 30
0.0
  0
VERTEX
  5
1B6B
  8
SAPA_PROFIL
 10
83.399999992843206
 20
112.20000000228831
 30
0.0
 42
0.4142139999999172
  0
VERTEX
  5
1B6C
  8
SAPA_PROFIL
 10
83.699999992843203
 20
112.5000000022883
 30
0.0
  0
VERTEX
  5
1B6D
  8
SAPA_PROFIL
 10
83.699999992843203
 20
114.90000000228829
 30
0.0
 42
0.4142139999999103
  0
VERTEX
  5
1B6E
  8
SAPA_PROFIL
 10
83.399999992843206
 20
115.20000000228831
 30
0.0
  0
VERTEX
  5
1B6F
  8
SAPA_PROFIL
 10
81.999999992843215
 20
115.20000000228831
 30
0.0
 42
-0.5877030000000132
  0
VERTEX
  5
1B70
  8
SAPA_PROFIL
 10
81.744953992843236
 20
115.6579610022883
 30
0.0
  0
VERTEX
  5
1B71
  8
SAPA_PROFIL
 10
82.641352992843238
 20
117.1053070022883
 30
0.0
 42
-0.259681000000005
  0
VERTEX
  5
1B72
  8
SAPA_PROFIL
 10
82.81138399284319
 20
117.20000000228831
 30
0.0
  0
VERTEX
  5
1B73
  8
SAPA_PROFIL
 10
85.432050992843244
 20
117.20000000228831
 30
0.0
 42
-0.1316520000000017
  0
VERTEX
  5
1B74
  8
SAPA_PROFIL
 10
85.932050992843244
 20
117.0660260022883
 30
0.0
  0
VERTEX
  5
1B75
  8
SAPA_PROFIL
 10
93.699999992843246
 20
112.5811980022883
 30
0.0
 42
-0.267948999999994
  0
VERTEX
  5
1B76
  8
SAPA_PROFIL
 10
95.199999992843232
 20
109.9831220022883
 30
0.0
  0
VERTEX
  5
1B77
  8
SAPA_PROFIL
 10
95.199999992843203
 20
71.700000002288306
 30
0.0
 42
-0.4142140000000114
  0
VERTEX
  5
1B78
  8
SAPA_PROFIL
 10
92.199999992843246
 20
68.700000002288306
 30
0.0
  0
VERTEX
  5
1B79
  8
SAPA_PROFIL
 10
91.699999992843232
 20
68.70000000228822
 30
0.0
 42
-0.4241420000000259
  0
VERTEX
  5
1B7A
  8
SAPA_PROFIL
 10
90.700570992843254
 20
69.733773002288316
 30
0.0
 42
-0.2988660000000032
  0
VERTEX
  5
1B7B
  8
SAPA_PROFIL
 10
91.271428992843255
 20
70.671053002288261
 30
0.0
 42
-0.55075999999996
  0
VERTEX
  5
1B7C
  8
SAPA_PROFIL
 10
91.699999992843232
 20
70.400000002288309
 30
0.0
  0
VERTEX
  5
1B7D
  8
SAPA_PROFIL
 10
91.699999992843232
 20
70.100000002288297
 30
0.0
 42
0.4142139999998339
  0
VERTEX
  5
1B7E
  8
SAPA_PROFIL
 10
91.899999992843206
 20
69.900000002288309
 30
0.0
  0
VERTEX
  5
1B7F
  8
SAPA_PROFIL
 10
92.199999992843246
 20
69.900000002288309
 30
0.0
 42
0.4142139999999946
  0
VERTEX
  5
1B80
  8
SAPA_PROFIL
 10
93.999999992843229
 20
71.700000002288306
 30
0.0
  0
VERTEX
  5
1B81
  8
SAPA_PROFIL
 10
93.999999992843229
 20
72.400000002288309
 30
0.0
 42
0.4142139999999852
  0
VERTEX
  5
1B82
  8
SAPA_PROFIL
 10
92.199999992843246
 20
74.200000002288306
 30
0.0
  0
VERTEX
  5
1B83
  8
SAPA_PROFIL
 10
91.899999992843206
 20
74.200000002288306
 30
0.0
 42
0.4142139999998025
  0
VERTEX
  5
1B84
  8
SAPA_PROFIL
 10
91.699999992843232
 20
74.000000002288317
 30
0.0
  0
VERTEX
  5
1B85
  8
SAPA_PROFIL
 10
91.699999992843203
 20
73.700000002288306
 30
0.0
 42
-0.5507599999999105
  0
VERTEX
  5
1B86
  8
SAPA_PROFIL
 10
91.271428992843198
 20
73.428948002288251
 30
0.0
 42
-0.2988660000000063
  0
VERTEX
  5
1B87
  8
SAPA_PROFIL
 10
90.700570992843168
 20
74.366228002288295
 30
0.0
 42
-0.4241419999999882
  0
VERTEX
  5
1B88
  8
SAPA_PROFIL
 10
91.699999992843232
 20
75.400000002288309
 30
0.0
  0
VERTEX
  5
1B89
  8
SAPA_PROFIL
 10
92.999999992843215
 20
75.400000002288309
 30
0.0
 42
0.4142140000000128
  0
VERTEX
  5
1B8A
  8
SAPA_PROFIL
 10
93.999999992843229
 20
76.400000002288294
 30
0.0
  0
VERTEX
  5
1B8B
  8
SAPA_PROFIL
 10
93.226409992843216
 20
90.227929002288334
 30
0.0
 42
0.3979379999999925
  0
VERTEX
  5
1B8C
  8
SAPA_PROFIL
 10
92.727190992843234
 20
90.70000000228832
 30
0.0
  0
VERTEX
  5
1B8D
  8
SAPA_PROFIL
 10
88.199999992843232
 20
90.70000000228832
 30
0.0
 42
0.4142140000000251
  0
VERTEX
  5
1B8E
  8
SAPA_PROFIL
 10
87.699999992843232
 20
90.200000002288306
 30
0.0
  0
VERTEX
  5
1B8F
  8
SAPA_PROFIL
 10
87.699999992843232
 20
86.700000002288306
 30
0.0
 42
-0.4142140000000128
  0
VERTEX
  5
1B90
  8
SAPA_PROFIL
 10
87.199999992843246
 20
86.200000002288334
 30
0.0
  0
VERTEX
  5
1B91
  8
SAPA_PROFIL
 10
83.499999992843215
 20
86.200000002288306
 30
0.0
 42
-0.4142139999999104
  0
VERTEX
  5
1B92
  8
SAPA_PROFIL
 10
83.199999992843203
 20
86.500000002288346
 30
0.0
  0
VERTEX
  5
1B93
  8
SAPA_PROFIL
 10
83.199999992843203
 20
87.400000002288294
 30
0.0
 42
-0.4142139999999101
  0
VERTEX
  5
1B94
  8
SAPA_PROFIL
 10
83.499999992843215
 20
87.700000002288306
 30
0.0
  0
VERTEX
  5
1B95
  8
SAPA_PROFIL
 10
85.499999992843243
 20
87.700000002288306
 30
0.0
 42
0.4142139999999691
  0
VERTEX
  5
1B96
  8
SAPA_PROFIL
 10
85.699999992843232
 20
87.900000002288309
 30
0.0
  0
VERTEX
  5
1B97
  8
SAPA_PROFIL
 10
85.699999992843232
 20
90.70000000228832
 30
0.0
 42
0.577350269189605
  0
VERTEX
  5
1B98
  8
SAPA_PROFIL
 10
85.39999999284322
 20
90.873205083045207
 30
0.0
  0
VERTEX
  5
1B99
  8
SAPA_PROFIL
 10
85.099999992843223
 20
90.70000000228832
 30
0.0
  0
VERTEX
  5
1B9A
  8
SAPA_PROFIL
 10
81.304999992843193
 20
90.700000002288263
 30
0.0
 42
-0.414213999999992
  0
VERTEX
  5
1B9B
  8
SAPA_PROFIL
 10
80.804999992843179
 20
91.200000002288334
 30
0.0
  0
VERTEX
  5
1B9C
  8
SAPA_PROFIL
 10
80.804999992843179
 20
91.900000002288309
 30
0.0
 42
0.4142139999998548
  0
VERTEX
  5
1B9D
  8
SAPA_PROFIL
 10
80.504999992843238
 20
92.20000000228832
 30
0.0
  0
VERTEX
  5
1B9E
  8
SAPA_PROFIL
 10
75.324615992843235
 20
92.200000002288334
 30
0.0
  0
VERTEX
  5
1B9F
  8
SAPA_PROFIL
 10
74.804999992843193
 20
92.500000002288346
 30
0.0
  0
VERTEX
  5
1BA0
  8
SAPA_PROFIL
 10
74.285384992843234
 20
92.200000002288334
 30
0.0
  0
VERTEX
  5
1BA1
  8
SAPA_PROFIL
 10
69.104999992843204
 20
92.200000002288334
 30
0.0
 42
0.4142140000000351
  0
VERTEX
  5
1BA2
  8
SAPA_PROFIL
 10
68.804999992843193
 20
91.900000002288337
 30
0.0
  0
VERTEX
  5
1BA3
  8
SAPA_PROFIL
 10
68.804999992843236
 20
91.200000002288334
 30
0.0
 42
-0.4142140000000461
  0
VERTEX
  5
1BA4
  8
SAPA_PROFIL
 10
68.304999992843193
 20
90.700000002288334
 30
0.0
  0
VERTEX
  5
1BA5
  8
SAPA_PROFIL
 10
66.299999992843183
 20
90.700000002288334
 30
0.0
  0
VERTEX
  5
1BA6
  8
SAPA_PROFIL
 10
65.999999992843215
 20
90.873205083045207
 30
0.0
 42
0.5773502691896303
  0
VERTEX
  5
1BA7
  8
SAPA_PROFIL
 10
65.699999992843232
 20
90.700000002288334
 30
0.0
  0
VERTEX
  5
1BA8
  8
SAPA_PROFIL
 10
65.699999992843232
 20
87.900000002288323
 30
0.0
 42
0.414213999999813
  0
VERTEX
  5
1BA9
  8
SAPA_PROFIL
 10
65.899999992843192
 20
87.700000002288334
 30
0.0
  0
VERTEX
  5
1BAA
  8
SAPA_PROFIL
 10
67.899999992843192
 20
87.700000002288363
 30
0.0
 42
-0.4142139999998962
  0
VERTEX
  5
1BAB
  8
SAPA_PROFIL
 10
68.199999992843232
 20
87.400000002288323
 30
0.0
  0
VERTEX
  5
1BAC
  8
SAPA_PROFIL
 10
68.199999992843189
 20
86.500000002288346
 30
0.0
 42
-0.4142139999999103
  0
VERTEX
  5
1BAD
  8
SAPA_PROFIL
 10
67.899999992843192
 20
86.200000002288334
 30
0.0
  0
VERTEX
  5
1BAE
  8
SAPA_PROFIL
 10
64.199999992843232
 20
86.200000002288334
 30
0.0
 42
-0.414214000000021
  0
VERTEX
  5
1BAF
  8
SAPA_PROFIL
 10
63.699999992843232
 20
86.700000002288334
 30
0.0
  0
VERTEX
  5
1BB0
  8
SAPA_PROFIL
 10
63.699999992843239
 20
88.400000002288309
 30
0.0
 42
0.4142135623730951
  0
VERTEX
  5
1BB1
  8
SAPA_PROFIL
 10
63.399999992843227
 20
88.700000002288334
 30
0.0
  0
VERTEX
  5
1BB2
  8
SAPA_PROFIL
 10
62.376718650240498
 20
89.210622990010322
 30
0.0
 42
0.4142135623730953
  0
VERTEX
  5
1BB3
  8
SAPA_PROFIL
 10
62.002533694764679
 20
89.010658945502925
 30
0.0
  0
VERTEX
  5
1BB4
  8
SAPA_PROFIL
 10
61.988015285517577
 20
88.962813195504438
 30
0.0
  0
VERTEX
  5
1BB5
  8
SAPA_PROFIL
 10
60.484914204755569
 20
88.962729587620814
 30
0.0
 42
-0.4769755326981643
  0
VERTEX
  5
1BB6
  8
SAPA_PROFIL
 10
60.182661380249108
 20
89.334386462566655
 30
0.0
  0
VERTEX
  5
1BB7
  8
SAPA_PROFIL
 10
60.56410797637681
 20
91.147616933224896
 30
0.0
 42
-0.2216946626430193
  0
SEQEND
  5
1BB8
  8
SAPA_PROFIL
  0
POLYLINE
  5
13AC
  8
SAPA_PROFIL
 66
     1
 10
0.0
 20
0.0
 30
0.0
 70
     1
  0
VERTEX
  5
1BB9
  8
SAPA_PROFIL
 10
83.999999992843215
 20
108.6000000022883
 30
0.0
  0
VERTEX
  5
1BBA
  8
SAPA_PROFIL
 10
83.999999992843215
 20
110.20000000228831
 30
0.0
 42
0.414214000000042
  0
VERTEX
  5
1BBB
  8
SAPA_PROFIL
 10
83.699999992843203
 20
110.5000000022883
 30
0.0
  0
VERTEX
  5
1BBC
  8
SAPA_PROFIL
 10
65.699999992843246
 20
110.5000000022883
 30
0.0
 42
0.4142140000001599
  0
VERTEX
  5
1BBD
  8
SAPA_PROFIL
 10
65.399999992843206
 20
110.20000000228831
 30
0.0
  0
VERTEX
  5
1BBE
  8
SAPA_PROFIL
 10
65.399999992843206
 20
108.6000000022883
 30
0.0
 42
0.4142140000000628
  0
VERTEX
  5
1BBF
  8
SAPA_PROFIL
 10
65.599999992843237
 20
108.40000000228829
 30
0.0
  0
VERTEX
  5
1BC0
  8
SAPA_PROFIL
 10
65.699999992843246
 20
108.40000000228829
 30
0.0
 42
-0.4142139999998963
  0
VERTEX
  5
1BC1
  8
SAPA_PROFIL
 10
65.999999992843229
 20
108.1000000022883
 30
0.0
  0
VERTEX
  5
1BC2
  8
SAPA_PROFIL
 10
65.999999992843172
 20
106.70000000228831
 30
0.0
 42
-0.4142139999999518
  0
VERTEX
  5
1BC3
  8
SAPA_PROFIL
 10
65.699999992843246
 20
106.40000000228829
 30
0.0
  0
VERTEX
  5
1BC4
  8
SAPA_PROFIL
 10
65.599999992843237
 20
106.40000000228829
 30
0.0
 42
0.4142139999999794
  0
VERTEX
  5
1BC5
  8
SAPA_PROFIL
 10
65.399999992843206
 20
106.20000000228831
 30
0.0
  0
VERTEX
  5
1BC6
  8
SAPA_PROFIL
 10
65.399999992843192
 20
93.200000002288334
 30
0.0
 42
0.4142139999999962
  0
VERTEX
  5
1BC7
  8
SAPA_PROFIL
 10
65.899999992843192
 20
92.700000002288334
 30
0.0
  0
VERTEX
  5
1BC8
  8
SAPA_PROFIL
 10
66.604999992843204
 20
92.700000002288334
 30
0.0
 42
0.4142140000000128
  0
VERTEX
  5
1BC9
  8
SAPA_PROFIL
 10
67.104999992843204
 20
93.200000002288334
 30
0.0
  0
VERTEX
  5
1BCA
  8
SAPA_PROFIL
 10
67.104999992843204
 20
93.400000002288309
 30
0.0
 42
-0.4142140000000127
  0
VERTEX
  5
1BCB
  8
SAPA_PROFIL
 10
67.604999992843204
 20
93.900000002288323
 30
0.0
  0
VERTEX
  5
1BCC
  8
SAPA_PROFIL
 10
82.004999992843224
 20
93.900000002288365
 30
0.0
 42
-0.4142139999999795
  0
VERTEX
  5
1BCD
  8
SAPA_PROFIL
 10
82.504999992843253
 20
93.400000002288309
 30
0.0
  0
VERTEX
  5
1BCE
  8
SAPA_PROFIL
 10
82.504999992843253
 20
92.700000002288306
 30
0.0
 42
0.4142140000000462
  0
VERTEX
  5
1BCF
  8
SAPA_PROFIL
 10
83.004999992843238
 20
92.20000000228832
 30
0.0
  0
VERTEX
  5
1BD0
  8
SAPA_PROFIL
 10
92.699999992843232
 20
92.20000000228832
 30
0.0
 42
0.4142140000000128
  0
VERTEX
  5
1BD1
  8
SAPA_PROFIL
 10
93.199999992843232
 20
92.700000002288306
 30
0.0
  0
VERTEX
  5
1BD2
  8
SAPA_PROFIL
 10
93.199999992843232
 20
109.9831220022883
 30
0.0
 42
0.2679490000000162
  0
VERTEX
  5
1BD3
  8
SAPA_PROFIL
 10
92.699999992843232
 20
110.8491470022883
 30
0.0
  0
VERTEX
  5
1BD4
  8
SAPA_PROFIL
 10
85.949999992843246
 20
114.7462620022883
 30
0.0
 42
0.5773500000000551
  0
VERTEX
  5
1BD5
  8
SAPA_PROFIL
 10
85.499999992843243
 20
114.4864540022883
 30
0.0
  0
VERTEX
  5
1BD6
  8
SAPA_PROFIL
 10
85.499999992843215
 20
107.90000000228829
 30
0.0
 42
-0.4142140000000155
  0
VERTEX
  5
1BD7
  8
SAPA_PROFIL
 10
83.999999992843215
 20
106.40000000228829
 30
0.0
  0
VERTEX
  5
1BD8
  8
SAPA_PROFIL
 10
83.799999992843183
 20
106.40000000228829
 30
0.0
  0
VERTEX
  5
1BD9
  8
SAPA_PROFIL
 10
83.699999992843203
 20
106.40000000228829
 30
0.0
 42
-0.4142140000000836
  0
VERTEX
  5
1BDA
  8
SAPA_PROFIL
 10
83.399999992843206
 20
106.70000000228831
 30
0.0
  0
VERTEX
  5
1BDB
  8
SAPA_PROFIL
 10
83.399999992843064
 20
108.1000000022883
 30
0.0
 42
-0.4142140000000351
  0
VERTEX
  5
1BDC
  8
SAPA_PROFIL
 10
83.699999992843203
 20
108.40000000228829
 30
0.0
  0
VERTEX
  5
1BDD
  8
SAPA_PROFIL
 10
83.799999992843183
 20
108.40000000228829
 30
0.0
 42
0.4142139999998962
  0
SEQEND
  5
1BDE
  8
SAPA_PROFIL
  0
POLYLINE
  5
13AD
  8
SAPA_PROFIL
 66
     1
 10
0.0
 20
0.0
 30
0.0
 70
     1
  0
VERTEX
  5
1BDF
  8
SAPA_PROFIL
 10
21.599999992843131
 20
115.17639400229039
 30
0.0
 42
-0.2134220000000103
  0
VERTEX
  5
1BE0
  8
SAPA_PROFIL
 10
21.699999992843161
 20
114.95278700229051
 30
0.0
  0
VERTEX
  5
1BE1
  8
SAPA_PROFIL
 10
21.699999992843161
 20
111.1000000022904
 30
0.0
 42
0.414213999999924
  0
VERTEX
  5
1BE2
  8
SAPA_PROFIL
 10
21.999999992843112
 20
110.8000000022903
 30
0.0
  0
VERTEX
  5
1BE3
  8
SAPA_PROFIL
 10
22.299999992843119
 20
110.8000000022904
 30
0.0
  0
VERTEX
  5
1BE4
  8
SAPA_PROFIL
 10
23.899999992843149
 20
111.7237610022904
 30
0.0
 42
-0.5773500000001196
  0
VERTEX
  5
1BE5
  8
SAPA_PROFIL
 10
24.199999992843161
 20
111.55055600229041
 30
0.0
  0
VERTEX
  5
1BE6
  8
SAPA_PROFIL
 10
24.19999999284315
 20
110.1649150022904
 30
0.0
 42
-0.2679489999999719
  0
VERTEX
  5
1BE7
  8
SAPA_PROFIL
 10
23.69999999284315
 20
109.29889000229041
 30
0.0
  0
VERTEX
  5
1BE8
  8
SAPA_PROFIL
 10
21.94999999284315
 20
108.28852700229039
 30
0.0
 42
0.267949000000012
  0
VERTEX
  5
1BE9
  8
SAPA_PROFIL
 10
21.699999992843029
 20
107.85551400229041
 30
0.0
  0
VERTEX
  5
1BEA
  8
SAPA_PROFIL
 10
21.69999999284315
 20
97.844487002290435
 30
0.0
 42
0.2679490000000104
  0
VERTEX
  5
1BEB
  8
SAPA_PROFIL
 10
21.949999992843178
 20
97.411474002290504
 30
0.0
  0
VERTEX
  5
1BEC
  8
SAPA_PROFIL
 10
23.69999999284315
 20
96.401111002290435
 30
0.0
 42
-0.2679489999999809
  0
VERTEX
  5
1BED
  8
SAPA_PROFIL
 10
24.19999999284315
 20
95.535086002290441
 30
0.0
  0
VERTEX
  5
1BEE
  8
SAPA_PROFIL
 10
24.19999999284315
 20
94.149445002290435
 30
0.0
 42
-0.5773500000001198
  0
VERTEX
  5
1BEF
  8
SAPA_PROFIL
 10
23.899999992843139
 20
93.976240002290425
 30
0.0
  0
VERTEX
  5
1BF0
  8
SAPA_PROFIL
 10
22.299999992843119
 20
94.900000002290454
 30
0.0
  0
VERTEX
  5
1BF1
  8
SAPA_PROFIL
 10
21.999999992843112
 20
94.900000002290454
 30
0.0
 42
0.4142139999999795
  0
VERTEX
  5
1BF2
  8
SAPA_PROFIL
 10
21.699999992843271
 20
94.600000002290443
 30
0.0
  0
VERTEX
  5
1BF3
  8
SAPA_PROFIL
 10
21.699999992843139
 20
90.747214002290463
 30
0.0
 42
-0.2134217652834391
  0
VERTEX
  5
1BF4
  8
SAPA_PROFIL
 10
21.599999992843021
 20
90.523607204540355
 30
0.0
 42
0.7625858545243247
  0
VERTEX
  5
1BF5
  8
SAPA_PROFIL
 10
21.7845791950405
 20
90.193281123523334
 30
0.0
  0
VERTEX
  5
1BF6
  8
SAPA_PROFIL
 10
21.975962195034221
 20
90.251354760512427
 30
0.0
  0
VERTEX
  5
1BF7
  8
SAPA_PROFIL
 10
23.861805886895279
 20
91.335919207484167
 30
0.0
  0
VERTEX
  5
1BF8
  8
SAPA_PROFIL
 10
23.851244520668288
 20
91.657676935702426
 30
0.0
 42
-0.5773502691897466
  0
VERTEX
  5
1BF9
  8
SAPA_PROFIL
 10
24.14540082092314
 20
91.840630675812591
 30
0.0
  0
VERTEX
  5
1BFA
  8
SAPA_PROFIL
 10
24.430083104154779
 20
91.688496764703856
 30
0.0
 42
-0.2216946626430194
  0
VERTEX
  5
1BFB
  8
SAPA_PROFIL
 10
24.835892009309571
 20
91.147616933227027
 30
0.0
  0
VERTEX
  5
1BFC
  8
SAPA_PROFIL
 10
25.217338605437281
 20
89.334386462568787
 30
0.0
 42
-0.4769755326981641
  0
VERTEX
  5
1BFD
  8
SAPA_PROFIL
 10
24.915085780930809
 20
88.962729587622917
 30
0.0
  0
VERTEX
  5
1BFE
  8
SAPA_PROFIL
 10
23.411984700168802
 20
88.962813195506584
 30
0.0
  0
VERTEX
  5
1BFF
  8
SAPA_PROFIL
 10
23.397466290921699
 20
89.010658945505057
 30
0.0
 42
0.4142135623730951
  0
VERTEX
  5
1C00
  8
SAPA_PROFIL
 10
23.023281335445891
 20
89.210622990012453
 30
0.0
  0
VERTEX
  5
1C01
  8
SAPA_PROFIL
 10
21.702163330744881
 20
88.700000002290508
 30
0.0
  0
VERTEX
  5
1C02
  8
SAPA_PROFIL
 10
20.462103992843119
 20
88.700000002290466
 30
0.0
 42
-0.2914730000000021
  0
VERTEX
  5
1C03
  8
SAPA_PROFIL
 10
19.555795992843141
 20
89.277382002290466
 30
0.0
  0
VERTEX
  5
1C04
  8
SAPA_PROFIL
 10
18.393691992843149
 20
91.769522002290472
 30
0.0
 42
-0.3888789999999682
  0
VERTEX
  5
1C05
  8
SAPA_PROFIL
 10
18.799999992843119
 20
93.058166002290449
 30
0.0
  0
VERTEX
  5
1C06
  8
SAPA_PROFIL
 10
18.94999999284315
 20
93.144769002290474
 30
0.0
 42
0.2679490000000116
  0
VERTEX
  5
1C07
  8
SAPA_PROFIL
 10
19.199999992843189
 20
93.577781002290436
 30
0.0
  0
VERTEX
  5
1C08
  8
SAPA_PROFIL
 10
19.19999999284315
 20
101.70000000229039
 30
0.0
 42
0.4142139999999962
  0
VERTEX
  5
1C09
  8
SAPA_PROFIL
 10
18.19999999284315
 20
102.70000000229049
 30
0.0
  0
VERTEX
  5
1C0A
  8
SAPA_PROFIL
 10
16.849999992843131
 20
102.70000000229039
 30
0.0
 42
0.4142140000000128
  0
VERTEX
  5
1C0B
  8
SAPA_PROFIL
 10
16.349999992843131
 20
102.20000000229039
 30
0.0
  0
VERTEX
  5
1C0C
  8
SAPA_PROFIL
 10
16.349999992843131
 20
99.067767783477024
 30
0.0
 42
-0.198912367379658
  0
VERTEX
  5
1C0D
  8
SAPA_PROFIL
 10
15.764213555216219
 20
97.653554221103917
 30
0.0
  0
VERTEX
  5
1C0E
  8
SAPA_PROFIL
 10
13.03091994017166
 20
94.920260606059372
 30
0.0
 42
-1.000556671980007
  0
VERTEX
  5
1C0F
  8
SAPA_PROFIL
 10
11.969669992843111
 20
95.980331002290455
 30
0.0
  0
VERTEX
  5
1C10
  8
SAPA_PROFIL
 10
14.60355299284314
 20
98.614214002290481
 30
0.0
 42
0.1989120000000246
  0
VERTEX
  5
1C11
  8
SAPA_PROFIL
 10
14.74999999284316
 20
98.967767002290472
 30
0.0
  0
VERTEX
  5
1C12
  8
SAPA_PROFIL
 10
14.749999992843099
 20
102.20000000229039
 30
0.0
 42
0.4142140000000129
  0
VERTEX
  5
1C13
  8
SAPA_PROFIL
 10
14.24999999284311
 20
102.70000000229039
 30
0.0
  0
VERTEX
  5
1C14
  8
SAPA_PROFIL
 10
7.249999992843108
 20
102.70000000229039
 30
0.0
 42
0.4142140000000128
  0
VERTEX
  5
1C15
  8
SAPA_PROFIL
 10
6.749999992843108
 20
102.20000000229039
 30
0.0
  0
VERTEX
  5
1C16
  8
SAPA_PROFIL
 10
6.7499999928431631
 20
95.000000002290477
 30
0.0
 42
-0.4142140000000351
  0
VERTEX
  5
1C17
  8
SAPA_PROFIL
 10
6.4499999928431517
 20
94.700000002290466
 30
0.0
  0
VERTEX
  5
1C18
  8
SAPA_PROFIL
 10
6.2877769928431624
 20
94.700000002290466
 30
0.0
 42
-0.3482370000000729
  0
VERTEX
  5
1C19
  8
SAPA_PROFIL
 10
5.9957029928431549
 20
94.931495002290461
 30
0.0
  0
VERTEX
  5
1C1A
  8
SAPA_PROFIL
 10
5.1499999928431981
 20
98.53717000229048
 30
0.0
  0
VERTEX
  5
1C1B
  8
SAPA_PROFIL
 10
5.1499999928431981
 20
102.20000000229039
 30
0.0
 42
0.4142139999999796
  0
VERTEX
  5
1C1C
  8
SAPA_PROFIL
 10
4.6499999928431981
 20
102.70000000229049
 30
0.0
  0
VERTEX
  5
1C1D
  8
SAPA_PROFIL
 10
2.1999999928431531
 20
102.70000000229039
 30
0.0
 42
0.414214000000017
  0
VERTEX
  5
1C1E
  8
SAPA_PROFIL
 10
1.6999999928431531
 20
102.20000000229039
 30
0.0
 42
-0.4142140000000127
  0
VERTEX
  5
1C1F
  8
SAPA_PROFIL
 10
1.1999999928431531
 20
101.70000000229039
 30
0.0
  0
VERTEX
  5
1C20
  8
SAPA_PROFIL
 10
0.1999999928431537
 20
101.70000000229039
 30
0.0
 42
-0.414214000000017
  0
VERTEX
  5
1C21
  8
SAPA_PROFIL
 10
-0.3000000071568461
 20
102.20000000229039
 30
0.0
  0
VERTEX
  5
1C22
  8
SAPA_PROFIL
 10
-0.3000000071568395
 20
138.70000000229041
 30
0.0
  0
VERTEX
  5
1C23
  8
SAPA_PROFIL
 10
0.1999999928431606
 20
139.20000000229041
 30
0.0
  0
VERTEX
  5
1C24
  8
SAPA_PROFIL
 10
3.8999999928432061
 20
139.20000000229041
 30
0.0
 42
-0.4142139999999863
  0
VERTEX
  5
1C25
  8
SAPA_PROFIL
 10
4.1999999928431597
 20
138.9000000022904
 30
0.0
  0
VERTEX
  5
1C26
  8
SAPA_PROFIL
 10
4.1999999928431597
 20
138.13245600229041
 30
0.0
 42
-0.2896899999999678
  0
VERTEX
  5
1C27
  8
SAPA_PROFIL
 10
3.6285709928431928
 20
137.22894800229051
 30
0.0
 42
-0.5507599999999711
  0
VERTEX
  5
1C28
  8
SAPA_PROFIL
 10
3.1999999928431602
 20
137.50000000229051
 30
0.0
  0
VERTEX
  5
1C29
  8
SAPA_PROFIL
 10
3.1999999928431602
 20
137.70000000229049
 30
0.0
 42
0.4142139999998755
  0
VERTEX
  5
1C2A
  8
SAPA_PROFIL
 10
2.8999999928432061
 20
138.00000000229051
 30
0.0
  0
VERTEX
  5
1C2B
  8
SAPA_PROFIL
 10
1.399999992843205
 20
138.00000000229051
 30
0.0
 42
0.4142140000000503
  0
VERTEX
  5
1C2C
  8
SAPA_PROFIL
 10
0.8999999928431561
 20
137.50000000229051
 30
0.0
  0
VERTEX
  5
1C2D
  8
SAPA_PROFIL
 10
0.8999999928432051
 20
134.20000000229041
 30
0.0
 42
0.4142140000000419
  0
VERTEX
  5
1C2E
  8
SAPA_PROFIL
 10
1.3999999928432041
 20
133.70000000229049
 30
0.0
  0
VERTEX
  5
1C2F
  8
SAPA_PROFIL
 10
2.8999999928432052
 20
133.70000000229041
 30
0.0
 42
0.4142139999999794
  0
VERTEX
  5
1C30
  8
SAPA_PROFIL
 10
3.199999992843046
 20
134.00000000229051
 30
0.0
  0
VERTEX
  5
1C31
  8
SAPA_PROFIL
 10
3.1999999928431588
 20
134.20000000229041
 30
0.0
 42
-0.5507599999999436
  0
VERTEX
  5
1C32
  8
SAPA_PROFIL
 10
3.6285709928431928
 20
134.4710530022904
 30
0.0
 42
-0.2896899999999595
  0
VERTEX
  5
1C33
  8
SAPA_PROFIL
 10
4.1999999928431588
 20
133.56754500229039
 30
0.0
  0
VERTEX
  5
1C34
  8
SAPA_PROFIL
 10
4.1999999928431588
 20
132.5700730022904
 30
0.0
 42
-0.0436610000000022
  0
VERTEX
  5
1C35
  8
SAPA_PROFIL
 10
4.1924039928431238
 20
132.48324900229039
 30
0.0
  0
VERTEX
  5
1C36
  8
SAPA_PROFIL
 10
3.9155569928431482
 20
130.91317600229041
 30
0.0
 42
-0.8391000000000101
  0
VERTEX
  5
1C37
  8
SAPA_PROFIL
 10
2.9307499928431588
 20
130.91317600229041
 30
0.0
  0
VERTEX
  5
1C38
  8
SAPA_PROFIL
 10
2.7238039928431999
 20
132.0868250022904
 30
0.0
 42
0.3639700000000376
  0
VERTEX
  5
1C39
  8
SAPA_PROFIL
 10
2.2313999928431212
 20
132.50000000229051
 30
0.0
  0
VERTEX
  5
1C3A
  8
SAPA_PROFIL
 10
1.3999999928432041
 20
132.50000000229039
 30
0.0
 42
0.437328000000032
  0
VERTEX
  5
1C3B
  8
SAPA_PROFIL
 10
0.9015299928431219
 20
131.96090600229039
 30
0.0
  0
VERTEX
  5
1C3C
  8
SAPA_PROFIL
 10
1.488328992843132
 20
117.48784700229039
 30
0.0
 42
0.4023939999998692
  0
VERTEX
  5
1C3D
  8
SAPA_PROFIL
 10
1.788082992843139
 20
117.2000000022903
 30
0.0
  0
VERTEX
  5
1C3E
  8
SAPA_PROFIL
 10
2.5886159928431689
 20
117.20000000229039
 30
0.0
 42
-0.259680999999983
  0
VERTEX
  5
1C3F
  8
SAPA_PROFIL
 10
2.7586469928431572
 20
117.1053070022904
 30
0.0
  0
VERTEX
  5
1C40
  8
SAPA_PROFIL
 10
3.6550459928432009
 20
115.65796100229051
 30
0.0
 42
-0.5877029999999889
  0
VERTEX
  5
1C41
  8
SAPA_PROFIL
 10
3.3999999928432012
 20
115.20000000229039
 30
0.0
  0
VERTEX
  5
1C42
  8
SAPA_PROFIL
 10
1.9999999928431671
 20
115.20000000229039
 30
0.0
 42
0.4142140000000349
  0
VERTEX
  5
1C43
  8
SAPA_PROFIL
 10
1.699999992843269
 20
114.9000000022904
 30
0.0
  0
VERTEX
  5
1C44
  8
SAPA_PROFIL
 10
1.6999999928431551
 20
112.50000000229051
 30
0.0
 42
0.4142140000000349
  0
VERTEX
  5
1C45
  8
SAPA_PROFIL
 10
1.9999999928431671
 20
112.2000000022903
 30
0.0
  0
VERTEX
  5
1C46
  8
SAPA_PROFIL
 10
10.18038399284311
 20
112.20000000229039
 30
0.0
  0
VERTEX
  5
1C47
  8
SAPA_PROFIL
 10
10.699999992843161
 20
111.9000000022904
 30
0.0
  0
VERTEX
  5
1C48
  8
SAPA_PROFIL
 10
11.219614992843139
 20
112.20000000229039
 30
0.0
  0
VERTEX
  5
1C49
  8
SAPA_PROFIL
 10
19.39999999284316
 20
112.20000000229039
 30
0.0
 42
0.4142135623730882
  0
VERTEX
  5
1C4A
  8
SAPA_PROFIL
 10
19.699999992843161
 20
112.50000000229041
 30
0.0
  0
VERTEX
  5
1C4B
  8
SAPA_PROFIL
 10
19.699999992843161
 20
114.9000000022904
 30
0.0
 42
0.4142135623730882
  0
VERTEX
  5
1C4C
  8
SAPA_PROFIL
 10
19.39999999284316
 20
115.20000000229039
 30
0.0
  0
VERTEX
  5
1C4D
  8
SAPA_PROFIL
 10
17.999999992843112
 20
115.20000000229039
 30
0.0
 42
-0.5877029999999041
  0
VERTEX
  5
1C4E
  8
SAPA_PROFIL
 10
17.744952992843121
 20
115.65796100229051
 30
0.0
  0
VERTEX
  5
1C4F
  8
SAPA_PROFIL
 10
18.53748499284313
 20
116.9053070022904
 30
0.0
 42
-0.2596809999999552
  0
VERTEX
  5
1C50
  8
SAPA_PROFIL
 10
18.70751499284313
 20
117.00000000229041
 30
0.0
  0
VERTEX
  5
1C51
  8
SAPA_PROFIL
 10
21.702165918011719
 20
117.00000000229041
 30
0.0
  0
VERTEX
  5
1C52
  8
SAPA_PROFIL
 10
23.023281335445901
 20
116.4893780145685
 30
0.0
 42
0.4142135623730953
  0
VERTEX
  5
1C53
  8
SAPA_PROFIL
 10
23.397466290921709
 20
116.6893420590759
 30
0.0
  0
VERTEX
  5
1C54
  8
SAPA_PROFIL
 10
23.411984700168809
 20
116.7371878090744
 30
0.0
  0
VERTEX
  5
1C55
  8
SAPA_PROFIL
 10
24.91508578093082
 20
116.737271416958
 30
0.0
 42
-0.4769755326981643
  0
VERTEX
  5
1C56
  8
SAPA_PROFIL
 10
25.217338605437291
 20
116.3656145420121
 30
0.0
  0
VERTEX
  5
1C57
  8
SAPA_PROFIL
 10
24.835892009309571
 20
114.5523840713539
 30
0.0
 42
-0.2216946626430194
  0
VERTEX
  5
1C58
  8
SAPA_PROFIL
 10
24.430083104154772
 20
114.0115042398771
 30
0.0
  0
VERTEX
  5
1C59
  8
SAPA_PROFIL
 10
24.145400820923129
 20
113.85937032876831
 30
0.0
 42
-0.5773502691897466
  0
VERTEX
  5
1C5A
  8
SAPA_PROFIL
 10
23.85124452066831
 20
114.0423240688785
 30
0.0
  0
VERTEX
  5
1C5B
  8
SAPA_PROFIL
 10
23.861805886895279
 20
114.3640817970968
 30
0.0
  0
VERTEX
  5
1C5C
  8
SAPA_PROFIL
 10
21.975962195034221
 20
115.4486462440685
 30
0.0
  0
VERTEX
  5
1C5D
  8
SAPA_PROFIL
 10
21.784579195040511
 20
115.50671988105761
 30
0.0
 42
0.7625858545243257
  0
VERTEX
  5
1C5E
  8
SAPA_PROFIL
 10
21.599999992843031
 20
115.1763938000406
 30
0.0
  0
SEQEND
  5
1C5F
  8
SAPA_PROFIL
  0
POLYLINE
  5
13AE
  8
SAPA_PROFIL
 66
     1
 10
0.0
 20
0.0
 30
0.0
 70
     1
  0
VERTEX
  5
1C60
  8
SAPA_PROFIL
 10
19.999999992843112
 20
104.70000000229039
 30
0.0
  0
VERTEX
  5
1C61
  8
SAPA_PROFIL
 10
19.999999992843112
 20
110.20000000229039
 30
0.0
 42
0.4142139999999252
  0
VERTEX
  5
1C62
  8
SAPA_PROFIL
 10
19.699999992843161
 20
110.50000000229041
 30
0.0
  0
VERTEX
  5
1C63
  8
SAPA_PROFIL
 10
1.6999999928431551
 20
110.50000000229041
 30
0.0
 42
0.4142139999998691
  0
VERTEX
  5
1C64
  8
SAPA_PROFIL
 10
1.3999999928432001
 20
110.20000000229039
 30
0.0
  0
VERTEX
  5
1C65
  8
SAPA_PROFIL
 10
1.399999992843199
 20
104.70000000229039
 30
0.0
 42
0.4142135623730951
  0
VERTEX
  5
1C66
  8
SAPA_PROFIL
 10
1.699999992843154
 20
104.4000000022904
 30
0.0
  0
VERTEX
  5
1C67
  8
SAPA_PROFIL
 10
19.69999999284315
 20
104.4000000022904
 30
0.0
 42
0.4142139999999803
  0
SEQEND
  5
1C68
  8
SAPA_PROFIL
  0
POLYLINE
  5
13AF
  8
SAPA_PROFIL
 62
     4
 66
     1
 10
0.0
 20
0.0
 30
0.0
  0
VERTEX
  5
1C69
  8
SAPA_PROFIL
 62
     4
 10
51.749329115197582
 20
114.2944288381765
 30
0.0
 42
-0.5571646428658034
  0
VERTEX
  5
1C6A
  8
SAPA_PROFIL
 62
     4
 10
51.212368611060747
 20
113.426709924021
 30
0.0
  0
VERTEX
  5
1C6B
  8
SAPA_PROFIL
 62
     4
 10
34.187631374539563
 20
113.4267099240214
 30
0.0
 42
-0.5571645048035741
  0
VERTEX
  5
1C6C
  8
SAPA_PROFIL
 62
     4
 10
33.650670757578503
 20
114.2944286118876
 30
0.0
  0
VERTEX
  5
1C6D
  8
SAPA_PROFIL
 62
     4
 10
34.481377845125202
 20
115.96056926795561
 30
0.0
 42
-0.284385813979063
  0
VERTEX
  5
1C6E
  8
SAPA_PROFIL
 62
     4
 10
34.749858153605537
 20
116.1267099240231
 30
0.0
  0
VERTEX
  5
1C6F
  8
SAPA_PROFIL
 62
     4
 10
50.650141831994858
 20
116.1267099240231
 30
0.0
 42
-0.2843858139786238
  0
VERTEX
  5
1C70
  8
SAPA_PROFIL
 62
     4
 10
50.918622140475136
 20
115.9605692679561
 30
0.0
  0
VERTEX
  5
1C71
  8
SAPA_PROFIL
 62
     4
 10
51.749329228022312
 20
114.2944286118868
 30
0.0
  0
SEQEND
  5
1C72
  8
SAPA_PROFIL
 62
     4
  0
POLYLINE
  5
13B0
  8
SAPA_PROFIL
 62
     4
 66
     1
 10
0.0
 20
0.0
 30
0.0
 70
     1
  0
VERTEX
  5
1C73
  8
SAPA_PROFIL
 62
     4
 10
28.282388808132911
 20
116.4835414385207
 30
0.0
  0
VERTEX
  5
1C74
  8
SAPA_PROFIL
 62
     4
 10
28.018365529756899
 20
116.8901016345248
 30
0.0
 42
0.2539676464751066
  0
VERTEX
  5
1C75
  8
SAPA_PROFIL
 62
     4
 10
27.766764359372189
 20
117.02670992402091
 30
0.0
  0
VERTEX
  5
1C76
  8
SAPA_PROFIL
 62
     4
 10
26.385264774166849
 20
117.02670992402091
 30
0.0
 42
0.3152987888790479
  0
VERTEX
  5
1C77
  8
SAPA_PROFIL
 62
     4
 10
25.915418463774529
 20
116.6977199956827
 30
0.0
  0
VERTEX
  5
1C78
  8
SAPA_PROFIL
 62
     4
 10
25.019749522865929
 20
114.2368898052315
 30
0.0
 42
-0.2694959974287434
  0
VERTEX
  5
1C79
  8
SAPA_PROFIL
 62
     4
 10
24.78823047646457
 20
114.0437578308876
 30
0.0
 42
-0.0612686379508233
  0
VERTEX
  5
1C7A
  8
SAPA_PROFIL
 62
     4
 10
24.49555504361129
 20
114.030174460257
 30
0.0
  0
VERTEX
  5
1C7B
  8
SAPA_PROFIL
 62
     4
 10
24.146136866303021
 20
113.82843778152819
 30
0.0
 42
-0.5773502691891679
  0
VERTEX
  5
1C7C
  8
SAPA_PROFIL
 62
     4
 10
23.831136866303439
 20
114.0103031163228
 30
0.0
  0
VERTEX
  5
1C7D
  8
SAPA_PROFIL
 62
     4
 10
23.831136866303201
 20
114.2774176444491
 30
0.0
  0
VERTEX
  5
1C7E
  8
SAPA_PROFIL
 62
     4
 10
22.432609165668939
 20
115.08610110575739
 30
0.0
 42
0.1318219888653519
  0
VERTEX
  5
1C7F
  8
SAPA_PROFIL
 62
     4
 10
22.282436063196599
 20
115.1263935022948
 30
0.0
  0
VERTEX
  5
1C80
  8
SAPA_PROFIL
 62
     4
 10
22.09999999275982
 20
115.12639350228849
 30
0.0
 42
0.4142135623724291
  0
VERTEX
  5
1C81
  8
SAPA_PROFIL
 62
     4
 10
21.699999992759281
 20
114.7263935022888
 30
0.0
  0
VERTEX
  5
1C82
  8
SAPA_PROFIL
 62
     4
 10
21.699999992760642
 20
111.3263935022878
 30
0.0
 42
0.4142135623744271
  0
VERTEX
  5
1C83
  8
SAPA_PROFIL
 62
     4
 10
22.09999999275982
 20
110.9263935022868
 30
0.0
  0
VERTEX
  5
1C84
  8
SAPA_PROFIL
 62
     4
 10
22.27961523503112
 20
110.9263935022862
 30
0.0
 42
0.1316524975874005
  0
VERTEX
  5
1C85
  8
SAPA_PROFIL
 62
     4
 10
22.429615235027939
 20
110.9665858811518
 30
0.0
  0
VERTEX
  5
1C86
  8
SAPA_PROFIL
 62
     4
 10
24.033753132030199
 20
111.8927353278043
 30
0.0
 42
-0.1316524975875904
  0
VERTEX
  5
1C87
  8
SAPA_PROFIL
 62
     4
 10
24.533753132031912
 20
112.0267099240191
 30
0.0
  0
VERTEX
  5
1C88
  8
SAPA_PROFIL
 62
     4
 10
24.949999992759281
 20
112.0267099240191
 30
0.0
 42
-0.4142135623730951
  0
VERTEX
  5
1C89
  8
SAPA_PROFIL
 62
     4
 10
25.94999999275927
 20
111.0267099240191
 30
0.0
  0
VERTEX
  5
1C8A
  8
SAPA_PROFIL
 62
     4
 10
25.94999999275927
 20
108.0267099240218
 30
0.0
 42
0.9999996830128083
  0
VERTEX
  5
1C8B
  8
SAPA_PROFIL
 62
     4
 10
26.94999999275927
 20
108.02670992402
 30
0.0
  0
VERTEX
  5
1C8C
  8
SAPA_PROFIL
 62
     4
 10
26.94999999275927
 20
111.02670992402
 30
0.0
 42
-0.4142135623730951
  0
VERTEX
  5
1C8D
  8
SAPA_PROFIL
 62
     4
 10
27.949999992759281
 20
112.02670992402
 30
0.0
  0
VERTEX
  5
1C8E
  8
SAPA_PROFIL
 62
     4
 10
57.44999999284385
 20
112.02670992402
 30
0.0
 42
-0.4142135623730951
  0
VERTEX
  5
1C8F
  8
SAPA_PROFIL
 62
     4
 10
58.449999992843857
 20
111.02670992402
 30
0.0
  0
VERTEX
  5
1C90
  8
SAPA_PROFIL
 62
     4
 10
58.449999992843857
 20
108.0267099240218
 30
0.0
 42
0.9999999999999998
  0
VERTEX
  5
1C91
  8
SAPA_PROFIL
 62
     4
 10
59.449999992843857
 20
108.0267099240218
 30
0.0
  0
VERTEX
  5
1C92
  8
SAPA_PROFIL
 62
     4
 10
59.449999992843857
 20
111.02670992402
 30
0.0
 42
-0.4142135623736278
  0
VERTEX
  5
1C93
  8
SAPA_PROFIL
 62
     4
 10
60.44999999284385
 20
112.02670992402
 30
0.0
  0
VERTEX
  5
1C94
  8
SAPA_PROFIL
 62
     4
 10
60.866246853570317
 20
112.02670992402
 30
0.0
 42
-0.1316524975874375
  0
VERTEX
  5
1C95
  8
SAPA_PROFIL
 62
     4
 10
61.366246853570523
 20
111.8927353278039
 30
0.0
  0
VERTEX
  5
1C96
  8
SAPA_PROFIL
 62
     4
 10
62.970384750572457
 20
110.9665858811518
 30
0.0
 42
0.1316524975874
  0
VERTEX
  5
1C97
  8
SAPA_PROFIL
 62
     4
 10
63.120384750572001
 20
110.9263935022862
 30
0.0
  0
VERTEX
  5
1C98
  8
SAPA_PROFIL
 62
     4
 10
63.299999992843311
 20
110.9263935022868
 30
0.0
 42
0.4142135623744271
  0
VERTEX
  5
1C99
  8
SAPA_PROFIL
 62
     4
 10
63.699999992842493
 20
111.3263935022878
 30
0.0
  0
VERTEX
  5
1C9A
  8
SAPA_PROFIL
 62
     4
 10
63.69999999284385
 20
114.7263935022888
 30
0.0
 42
0.4142135623724291
  0
VERTEX
  5
1C9B
  8
SAPA_PROFIL
 62
     4
 10
63.299999992843311
 20
115.12639350228839
 30
0.0
  0
VERTEX
  5
1C9C
  8
SAPA_PROFIL
 62
     4
 10
63.117563922406532
 20
115.1263935022948
 30
0.0
 42
0.1318219888653524
  0
VERTEX
  5
1C9D
  8
SAPA_PROFIL
 62
     4
 10
62.967390819934181
 20
115.08610110575739
 30
0.0
  0
VERTEX
  5
1C9E
  8
SAPA_PROFIL
 62
     4
 10
61.568863119454527
 20
114.2774176445331
 30
0.0
  0
VERTEX
  5
1C9F
  8
SAPA_PROFIL
 62
     4
 10
61.568863119454527
 20
114.01030311632
 30
0.0
 42
-0.577350269189159
  0
VERTEX
  5
1CA0
  8
SAPA_PROFIL
 62
     4
 10
61.253863119454941
 20
113.82843778152549
 30
0.0
  0
VERTEX
  5
1CA1
  8
SAPA_PROFIL
 62
     4
 10
60.904444942236267
 20
114.0301744602026
 30
0.0
 42
-0.0612687673629489
  0
VERTEX
  5
1CA2
  8
SAPA_PROFIL
 62
     4
 10
60.61176950913606
 20
114.04375783088879
 30
0.0
 42
-0.2694959974285039
  0
VERTEX
  5
1CA3
  8
SAPA_PROFIL
 62
     4
 10
60.380250462735539
 20
114.23688980523271
 30
0.0
  0
VERTEX
  5
1CA4
  8
SAPA_PROFIL
 62
     4
 10
59.484581521825874
 20
116.6977199956859
 30
0.0
 42
0.3152987888784035
  0
VERTEX
  5
1CA5
  8
SAPA_PROFIL
 62
     4
 10
59.014735211432651
 20
117.0267099240225
 30
0.0
  0
VERTEX
  5
1CA6
  8
SAPA_PROFIL
 62
     4
 10
57.633235626228213
 20
117.02670992402091
 30
0.0
 42
0.2539676464741841
  0
VERTEX
  5
1CA7
  8
SAPA_PROFIL
 62
     4
 10
57.381634455844129
 20
116.89010163452561
 30
0.0
  0
VERTEX
  5
1CA8
  8
SAPA_PROFIL
 62
     4
 10
57.117611177467502
 20
116.4835414385206
 30
0.0
 42
0.5862177598324623
  0
VERTEX
  5
1CA9
  8
SAPA_PROFIL
 62
     4
 10
57.37335299270584
 20
116.0267099240241
 30
0.0
  0
VERTEX
  5
1CAA
  8
SAPA_PROFIL
 62
     4
 10
58.31452767321565
 20
116.02670992403181
 30
0.0
 42
-0.3152987888813165
  0
VERTEX
  5
1CAB
  8
SAPA_PROFIL
 62
     4
 10
58.784373983613413
 20
115.697719995695
 30
0.0
  0
VERTEX
  5
1CAC
  8
SAPA_PROFIL
 62
     4
 10
59.221138264737363
 20
114.49771999568379
 30
0.0
 42
-0.5205670505515651
  0
VERTEX
  5
1CAD
  8
SAPA_PROFIL
 62
     4
 10
58.75129195434414
 20
113.8267099240211
 30
0.0
  0
VERTEX
  5
1CAE
  8
SAPA_PROFIL
 62
     4
 10
53.734851013675289
 20
113.8267099240211
 30
0.0
 42
-0.3702522326300203
  0
VERTEX
  5
1CAF
  8
SAPA_PROFIL
 62
     4
 10
53.438327651881963
 20
114.0811698766867
 30
0.0
 42
-0.0982365330332397
  0
VERTEX
  5
1CB0
  8
SAPA_PROFIL
 62
     4
 10
53.347874893671012
 20
115.7688566516818
 30
0.0
 42
-0.3735060174783164
  0
VERTEX
  5
1CB1
  8
SAPA_PROFIL
 62
     4
 10
53.644899561582001
 20
116.0267099240218
 30
0.0
  0
VERTEX
  5
1CB2
  8
SAPA_PROFIL
 62
     4
 10
54.073352992704649
 20
116.0267099240227
 30
0.0
 42
0.5920056181162531
  0
VERTEX
  5
1CB3
  8
SAPA_PROFIL
 62
     4
 10
54.326361749022062
 20
116.48791342655061
 30
0.0
  0
VERTEX
  5
1CB4
  8
SAPA_PROFIL
 62
     4
 10
54.065177672866362
 20
116.8901016345289
 30
0.0
 42
0.2539676464746725
  0
VERTEX
  5
1CB5
  8
SAPA_PROFIL
 62
     4
 10
53.81357650248259
 20
117.0267099240243
 30
0.0
  0
VERTEX
  5
1CB6
  8
SAPA_PROFIL
 62
     4
 10
31.586423483116899
 20
117.0267099240227
 30
0.0
 42
0.2539676464741819
  0
VERTEX
  5
1CB7
  8
SAPA_PROFIL
 62
     4
 10
31.334822312734051
 20
116.8901016345289
 30
0.0
  0
VERTEX
  5
1CB8
  8
SAPA_PROFIL
 62
     4
 10
31.073638236580241
 20
116.48791342655061
 30
0.0
 42
0.5920055144124249
  0
VERTEX
  5
1CB9
  8
SAPA_PROFIL
 62
     4
 10
31.32664699289575
 20
116.0267099240227
 30
0.0
  0
VERTEX
  5
1CBA
  8
SAPA_PROFIL
 62
     4
 10
31.755100470185969
 20
116.0267099492977
 30
0.0
 42
-0.3735060174775405
  0
VERTEX
  5
1CBB
  8
SAPA_PROFIL
 62
     4
 10
32.052125138095647
 20
115.7688566769576
 30
0.0
 42
-0.0355900683670349
  0
VERTEX
  5
1CBC
  8
SAPA_PROFIL
 62
     4
 10
32.096018702127907
 20
115.1529830901578
 30
0.0
 42
-0.0624282003873116
  0
VERTEX
  5
1CBD
  8
SAPA_PROFIL
 62
     4
 10
31.96167237988497
 20
114.0811699019627
 30
0.0
 42
-0.3702522326309292
  0
VERTEX
  5
1CBE
  8
SAPA_PROFIL
 62
     4
 10
31.66514901809159
 20
113.826709949297
 30
0.0
  0
VERTEX
  5
1CBF
  8
SAPA_PROFIL
 62
     4
 10
26.648708031258082
 20
113.8267099240209
 30
0.0
 42
-0.5205670505515692
  0
VERTEX
  5
1CC0
  8
SAPA_PROFIL
 62
     4
 10
26.178861720864859
 20
114.49771999568379
 30
0.0
  0
VERTEX
  5
1CC1
  8
SAPA_PROFIL
 62
     4
 10
26.61562600198981
 20
115.6977199956933
 30
0.0
 42
-0.3152987888807539
  0
VERTEX
  5
1CC2
  8
SAPA_PROFIL
 62
     4
 10
27.085472312385662
 20
116.0267099240309
 30
0.0
  0
VERTEX
  5
1CC3
  8
SAPA_PROFIL
 62
     4
 10
28.026646992894751
 20
116.0267099240241
 30
0.0
 42
0.5862175119221242
  0
VERTEX
  5
1CC4
  8
SAPA_PROFIL
 62
     4
 10
28.282388923876699
 20
116.48354124977919
 30
0.0
 42
-0.0000002084758573
  0
SEQEND
  5
1CC5
  8
SAPA_PROFIL
 62
     4
  0
POLYLINE
  5
13B1
  8
SAPA_PROFIL
 62
     4
 66
     1
 10
0.0
 20
0.0
 30
0.0
  0
VERTEX
  5
1CC6
  8
SAPA_PROFIL
 62
     4
 10
33.650670870403466
 20
91.405571761980084
 30
0.0
 42
-0.5571646428658034
  0
VERTEX
  5
1CC7
  8
SAPA_PROFIL
 62
     4
 10
34.187631374540317
 20
92.273290676135616
 30
0.0
  0
VERTEX
  5
1CC8
  8
SAPA_PROFIL
 62
     4
 10
51.212368611061521
 20
92.273290676134707
 30
0.0
 42
-0.5571645048035741
  0
VERTEX
  5
1CC9
  8
SAPA_PROFIL
 62
     4
 10
51.74932922802256
 20
91.405571988268534
 30
0.0
  0
VERTEX
  5
1CCA
  8
SAPA_PROFIL
 62
     4
 10
50.918622140475811
 20
89.739431332200525
 30
0.0
 42
-0.284385813979063
  0
VERTEX
  5
1CCB
  8
SAPA_PROFIL
 62
     4
 10
50.650141831995448
 20
89.573290676133084
 30
0.0
  0
VERTEX
  5
1CCC
  8
SAPA_PROFIL
 62
     4
 10
34.749858153606141
 20
89.57329067613351
 30
0.0
 42
-0.2843858139786238
  0
VERTEX
  5
1CCD
  8
SAPA_PROFIL
 62
     4
 10
34.481377845125863
 20
89.739431332200439
 30
0.0
  0
VERTEX
  5
1CCE
  8
SAPA_PROFIL
 62
     4
 10
33.650670757578737
 20
91.405571988269799
 30
0.0
  0
SEQEND
  5
1CCF
  8
SAPA_PROFIL
 62
     4
  0
POLYLINE
  5
13B2
  8
SAPA_PROFIL
 62
     4
 66
     1
 10
0.0
 20
0.0
 30
0.0
 70
     1
  0
VERTEX
  5
1CD0
  8
SAPA_PROFIL
 62
     4
 10
57.117611177468078
 20
89.216459161635314
 30
0.0
  0
VERTEX
  5
1CD1
  8
SAPA_PROFIL
 62
     4
 10
57.381634455844079
 20
88.809898965631206
 30
0.0
 42
0.2539676464751066
  0
VERTEX
  5
1CD2
  8
SAPA_PROFIL
 62
     4
 10
57.633235626228789
 20
88.673290676135096
 30
0.0
  0
VERTEX
  5
1CD3
  8
SAPA_PROFIL
 62
     4
 10
59.014735211434129
 20
88.673290676135025
 30
0.0
 42
0.3152987888790479
  0
VERTEX
  5
1CD4
  8
SAPA_PROFIL
 62
     4
 10
59.484581521826449
 20
89.002280604473185
 30
0.0
  0
VERTEX
  5
1CD5
  8
SAPA_PROFIL
 62
     4
 10
60.380250462735127
 20
91.463110794924432
 30
0.0
 42
-0.2694959974287434
  0
VERTEX
  5
1CD6
  8
SAPA_PROFIL
 62
     4
 10
60.611769509136479
 20
91.656242769268317
 30
0.0
 42
-0.0612686379508233
  0
VERTEX
  5
1CD7
  8
SAPA_PROFIL
 62
     4
 10
60.904444941989759
 20
91.669826139898831
 30
0.0
  0
VERTEX
  5
1CD8
  8
SAPA_PROFIL
 62
     4
 10
61.253863119298039
 20
91.871562818627652
 30
0.0
 42
-0.5773502691891679
  0
VERTEX
  5
1CD9
  8
SAPA_PROFIL
 62
     4
 10
61.568863119297617
 20
91.689697483833072
 30
0.0
  0
VERTEX
  5
1CDA
  8
SAPA_PROFIL
 62
     4
 10
61.568863119297852
 20
91.422582955706744
 30
0.0
  0
VERTEX
  5
1CDB
  8
SAPA_PROFIL
 62
     4
 10
62.967390819932092
 20
90.613899494398396
 30
0.0
 42
0.1318219888653519
  0
VERTEX
  5
1CDC
  8
SAPA_PROFIL
 62
     4
 10
63.117563922404429
 20
90.573607097861014
 30
0.0
  0
VERTEX
  5
1CDD
  8
SAPA_PROFIL
 62
     4
 10
63.299999992841208
 20
90.573607097867367
 30
0.0
 42
0.4142135623724291
  0
VERTEX
  5
1CDE
  8
SAPA_PROFIL
 62
     4
 10
63.699999992841768
 20
90.973607097866974
 30
0.0
  0
VERTEX
  5
1CDF
  8
SAPA_PROFIL
 62
     4
 10
63.699999992840489
 20
94.373607097867989
 30
0.0
 42
0.4142135623744271
  0
VERTEX
  5
1CE0
  8
SAPA_PROFIL
 62
     4
 10
63.299999992841322
 20
94.773607097869004
 30
0.0
  0
VERTEX
  5
1CE1
  8
SAPA_PROFIL
 62
     4
 10
63.120384750570011
 20
94.773607097869643
 30
0.0
 42
0.1316524975874005
  0
VERTEX
  5
1CE2
  8
SAPA_PROFIL
 62
     4
 10
62.970384750573203
 20
94.733414719004045
 30
0.0
  0
VERTEX
  5
1CE3
  8
SAPA_PROFIL
 62
     4
 10
61.366246853570921
 20
93.807265272351557
 30
0.0
 42
-0.1316524975875904
  0
VERTEX
  5
1CE4
  8
SAPA_PROFIL
 62
     4
 10
60.866246853569208
 20
93.673290676136787
 30
0.0
  0
VERTEX
  5
1CE5
  8
SAPA_PROFIL
 62
     4
 10
60.449999992841839
 20
93.673290676136816
 30
0.0
 42
-0.4142135623730951
  0
VERTEX
  5
1CE6
  8
SAPA_PROFIL
 62
     4
 10
59.449999992841867
 20
94.673290676136844
 30
0.0
  0
VERTEX
  5
1CE7
  8
SAPA_PROFIL
 62
     4
 10
59.449999992841953
 20
97.673290676134116
 30
0.0
 42
0.9999996830128083
  0
VERTEX
  5
1CE8
  8
SAPA_PROFIL
 62
     4
 10
58.449999992841938
 20
97.673290676135963
 30
0.0
  0
VERTEX
  5
1CE9
  8
SAPA_PROFIL
 62
     4
 10
58.449999992841867
 20
94.673290676135949
 30
0.0
 42
-0.4142135623730951
  0
VERTEX
  5
1CEA
  8
SAPA_PROFIL
 62
     4
 10
57.449999992841839
 20
93.673290676135991
 30
0.0
  0
VERTEX
  5
1CEB
  8
SAPA_PROFIL
 62
     4
 10
27.94999999275726
 20
93.673290676136787
 30
0.0
 42
-0.4142135623730951
  0
VERTEX
  5
1CEC
  8
SAPA_PROFIL
 62
     4
 10
26.949999992757281
 20
94.673290676136816
 30
0.0
  0
VERTEX
  5
1CED
  8
SAPA_PROFIL
 62
     4
 10
26.949999992757359
 20
97.673290676134997
 30
0.0
 42
0.9999999999999998
  0
VERTEX
  5
1CEE
  8
SAPA_PROFIL
 62
     4
 10
25.949999992757359
 20
97.673290676135025
 30
0.0
  0
VERTEX
  5
1CEF
  8
SAPA_PROFIL
 62
     4
 10
25.949999992757281
 20
94.673290676136844
 30
0.0
 42
-0.4142135623736278
  0
VERTEX
  5
1CF0
  8
SAPA_PROFIL
 62
     4
 10
24.94999999275726
 20
93.673290676136858
 30
0.0
  0
VERTEX
  5
1CF1
  8
SAPA_PROFIL
 62
     4
 10
24.5337531320308
 20
93.673290676136858
 30
0.0
 42
-0.1316524975874375
  0
VERTEX
  5
1CF2
  8
SAPA_PROFIL
 62
     4
 10
24.033753132030601
 20
93.807265272352922
 30
0.0
  0
VERTEX
  5
1CF3
  8
SAPA_PROFIL
 62
     4
 10
22.429615235028681
 20
94.73341471900514
 30
0.0
 42
0.1316524975874
  0
VERTEX
  5
1CF4
  8
SAPA_PROFIL
 62
     4
 10
22.27961523502913
 20
94.773607097870737
 30
0.0
  0
VERTEX
  5
1CF5
  8
SAPA_PROFIL
 62
     4
 10
22.09999999275783
 20
94.773607097870126
 30
0.0
 42
0.4142135623744271
  0
VERTEX
  5
1CF6
  8
SAPA_PROFIL
 62
     4
 10
21.699999992758642
 20
94.373607097869126
 30
0.0
  0
VERTEX
  5
1CF7
  8
SAPA_PROFIL
 62
     4
 10
21.699999992757181
 20
90.973607097868125
 30
0.0
 42
0.4142135623724291
  0
VERTEX
  5
1CF8
  8
SAPA_PROFIL
 62
     4
 10
22.09999999275772
 20
90.573607097868475
 30
0.0
  0
VERTEX
  5
1CF9
  8
SAPA_PROFIL
 62
     4
 10
22.282436063194499
 20
90.573607097862109
 30
0.0
 42
0.1318219888653524
  0
VERTEX
  5
1CFA
  8
SAPA_PROFIL
 62
     4
 10
22.43260916566684
 20
90.61389949439949
 30
0.0
  0
VERTEX
  5
1CFB
  8
SAPA_PROFIL
 62
     4
 10
23.831136866146519
 20
91.422582955623795
 30
0.0
  0
VERTEX
  5
1CFC
  8
SAPA_PROFIL
 62
     4
 10
23.831136866146519
 20
91.689697483836824
 30
0.0
 42
-0.577350269189159
  0
VERTEX
  5
1CFD
  8
SAPA_PROFIL
 62
     4
 10
24.146136866146129
 20
91.871562818631375
 30
0.0
  0
VERTEX
  5
1CFE
  8
SAPA_PROFIL
 62
     4
 10
24.495555043364782
 20
91.669826139954267
 30
0.0
 42
-0.0612687673629489
  0
VERTEX
  5
1CFF
  8
SAPA_PROFIL
 62
     4
 10
24.788230476464999
 20
91.656242769268033
 30
0.0
 42
-0.2694959974285039
  0
VERTEX
  5
1D00
  8
SAPA_PROFIL
 62
     4
 10
25.01974952286551
 20
91.463110794924091
 30
0.0
  0
VERTEX
  5
1D01
  8
SAPA_PROFIL
 62
     4
 10
25.915418463775111
 20
89.002280604470911
 30
0.0
 42
0.3152987888784035
  0
VERTEX
  5
1D02
  8
SAPA_PROFIL
 62
     4
 10
26.385264774168331
 20
88.673290676134314
 30
0.0
  0
VERTEX
  5
1D03
  8
SAPA_PROFIL
 62
     4
 10
27.766764359372772
 20
88.673290676135863
 30
0.0
 42
0.2539676464741841
  0
VERTEX
  5
1D04
  8
SAPA_PROFIL
 62
     4
 10
28.018365529756839
 20
88.809898965631135
 30
0.0
  0
VERTEX
  5
1D05
  8
SAPA_PROFIL
 62
     4
 10
28.282388808133501
 20
89.216459161636095
 30
0.0
 42
0.5862177598324623
  0
VERTEX
  5
1D06
  8
SAPA_PROFIL
 62
     4
 10
28.02664699289517
 20
89.673290676132609
 30
0.0
  0
VERTEX
  5
1D07
  8
SAPA_PROFIL
 62
     4
 10
27.08547231238536
 20
89.673290676124992
 30
0.0
 42
-0.3152987888813165
  0
VERTEX
  5
1D08
  8
SAPA_PROFIL
 62
     4
 10
26.615626001987611
 20
90.002280604461745
 30
0.0
  0
VERTEX
  5
1D09
  8
SAPA_PROFIL
 62
     4
 10
26.178861720863679
 20
91.202280604472989
 30
0.0
 42
-0.5205670505515651
  0
VERTEX
  5
1D0A
  8
SAPA_PROFIL
 62
     4
 10
26.64870803125693
 20
91.873290676135724
 30
0.0
  0
VERTEX
  5
1D0B
  8
SAPA_PROFIL
 62
     4
 10
31.66514897192577
 20
91.873290676135625
 30
0.0
 42
-0.3702522326300203
  0
VERTEX
  5
1D0C
  8
SAPA_PROFIL
 62
     4
 10
31.9616723337191
 20
91.618830723469912
 30
0.0
 42
-0.0982365330332397
  0
VERTEX
  5
1D0D
  8
SAPA_PROFIL
 62
     4
 10
32.052125091930002
 20
89.931143948474897
 30
0.0
 42
-0.3735060174783164
  0
VERTEX
  5
1D0E
  8
SAPA_PROFIL
 62
     4
 10
31.755100424018998
 20
89.673290676134869
 30
0.0
  0
VERTEX
  5
1D0F
  8
SAPA_PROFIL
 62
     4
 10
31.32664699289635
 20
89.673290676133959
 30
0.0
 42
0.5920056181162531
  0
VERTEX
  5
1D10
  8
SAPA_PROFIL
 62
     4
 10
31.07363823657894
 20
89.212087173606037
 30
0.0
  0
VERTEX
  5
1D11
  8
SAPA_PROFIL
 62
     4
 10
31.334822312734619
 20
88.809898965627724
 30
0.0
 42
0.2539676464746725
  0
VERTEX
  5
1D12
  8
SAPA_PROFIL
 62
     4
 10
31.586423483118391
 20
88.673290676132396
 30
0.0
  0
VERTEX
  5
1D13
  8
SAPA_PROFIL
 62
     4
 10
53.813576502484068
 20
88.673290676133362
 30
0.0
 42
0.2539676464741819
  0
VERTEX
  5
1D14
  8
SAPA_PROFIL
 62
     4
 10
54.06517767286693
 20
88.809898965627127
 30
0.0
  0
VERTEX
  5
1D15
  8
SAPA_PROFIL
 62
     4
 10
54.326361749020748
 20
89.212087173605454
 30
0.0
 42
0.5920055144124249
  0
VERTEX
  5
1D16
  8
SAPA_PROFIL
 62
     4
 10
54.07335299270526
 20
89.673290676133334
 30
0.0
  0
VERTEX
  5
1D17
  8
SAPA_PROFIL
 62
     4
 10
53.644899515415041
 20
89.673290650858362
 30
0.0
 42
-0.3735060174775405
  0
VERTEX
  5
1D18
  8
SAPA_PROFIL
 62
     4
 10
53.347874847505352
 20
89.931143923198462
 30
0.0
 42
-0.0355900683670349
  0
VERTEX
  5
1D19
  8
SAPA_PROFIL
 62
     4
 10
53.303981283473121
 20
90.547017509998227
 30
0.0
 42
-0.0624282003873116
  0
VERTEX
  5
1D1A
  8
SAPA_PROFIL
 62
     4
 10
53.43832760571609
 20
91.618830698193364
 30
0.0
 42
-0.3702522326309292
  0
VERTEX
  5
1D1B
  8
SAPA_PROFIL
 62
     4
 10
53.734850967509473
 20
91.873290650859076
 30
0.0
  0
VERTEX
  5
1D1C
  8
SAPA_PROFIL
 62
     4
 10
58.751291954342982
 20
91.873290676135085
 30
0.0
 42
-0.5205670505515692
  0
VERTEX
  5
1D1D
  8
SAPA_PROFIL
 62
     4
 10
59.221138264736183
 20
91.202280604472094
 30
0.0
  0
VERTEX
  5
1D1E
  8
SAPA_PROFIL
 62
     4
 10
58.784373983611196
 20
90.002280604462655
 30
0.0
 42
-0.3152987888807539
  0
VERTEX
  5
1D1F
  8
SAPA_PROFIL
 62
     4
 10
58.314527673215338
 20
89.673290676125049
 30
0.0
  0
VERTEX
  5
1D20
  8
SAPA_PROFIL
 62
     4
 10
57.373352992706252
 20
89.673290676131899
 30
0.0
 42
0.5862175119221242
  0
VERTEX
  5
1D21
  8
SAPA_PROFIL
 62
     4
 10
57.11761106172429
 20
89.216459350376766
 30
0.0
 42
-0.0000002084758573
  0
SEQEND
  5
1D22
  8
SAPA_PROFIL
 62
     4
  0
POLYLINE
  5
13B3
  8
SAPA_PROFIL
 62
     4
 66
     1
 10
0.0
 20
0.0
 30
0.0
  0
VERTEX
  5
1D23
  8
SAPA_PROFIL
 62
     4
 10
51.749329119175648
 20
71.795904721999875
 30
0.0
 42
-0.5571646428658034
  0
VERTEX
  5
1D24
  8
SAPA_PROFIL
 62
     4
 10
51.212368615038827
 20
70.928185807844315
 30
0.0
  0
VERTEX
  5
1D25
  8
SAPA_PROFIL
 62
     4
 10
34.187631378517622
 20
70.928185807844784
 30
0.0
 42
-0.5571645048035741
  0
VERTEX
  5
1D26
  8
SAPA_PROFIL
 62
     4
 10
33.650670761556569
 20
71.795904495710943
 30
0.0
  0
VERTEX
  5
1D27
  8
SAPA_PROFIL
 62
     4
 10
34.481377849103268
 20
73.46204515177898
 30
0.0
 42
-0.284385813979063
  0
VERTEX
  5
1D28
  8
SAPA_PROFIL
 62
     4
 10
34.749858157583617
 20
73.628185807846421
 30
0.0
  0
VERTEX
  5
1D29
  8
SAPA_PROFIL
 62
     4
 10
50.650141835972931
 20
73.628185807846421
 30
0.0
 42
-0.2843858139786238
  0
VERTEX
  5
1D2A
  8
SAPA_PROFIL
 62
     4
 10
50.918622144453202
 20
73.462045151779478
 30
0.0
  0
VERTEX
  5
1D2B
  8
SAPA_PROFIL
 62
     4
 10
51.749329232000377
 20
71.795904495710133
 30
0.0
  0
SEQEND
  5
1D2C
  8
SAPA_PROFIL
 62
     4
  0
POLYLINE
  5
13B4
  8
SAPA_PROFIL
 62
     4
 66
     1
 10
0.0
 20
0.0
 30
0.0
 70
     1
  0
VERTEX
  5
1D2D
  8
SAPA_PROFIL
 62
     4
 10
28.28238881211098
 20
73.985017322343992
 30
0.0
  0
VERTEX
  5
1D2E
  8
SAPA_PROFIL
 62
     4
 10
28.018365533734968
 20
74.391577518348114
 30
0.0
 42
0.2539676464751066
  0
VERTEX
  5
1D2F
  8
SAPA_PROFIL
 62
     4
 10
27.766764363350259
 20
74.528185807844224
 30
0.0
  0
VERTEX
  5
1D30
  8
SAPA_PROFIL
 62
     4
 10
26.385264778144911
 20
74.528185807844224
 30
0.0
 42
0.3152987888790479
  0
VERTEX
  5
1D31
  8
SAPA_PROFIL
 62
     4
 10
25.915418467752598
 20
74.199195879506078
 30
0.0
  0
VERTEX
  5
1D32
  8
SAPA_PROFIL
 62
     4
 10
25.019749526843992
 20
71.738365689054802
 30
0.0
 42
-0.2694959974287434
  0
VERTEX
  5
1D33
  8
SAPA_PROFIL
 62
     4
 10
24.788230480442639
 20
71.545233714710903
 30
0.0
 42
-0.0612686379508233
  0
VERTEX
  5
1D34
  8
SAPA_PROFIL
 62
     4
 10
24.49555504758936
 20
71.53165034408039
 30
0.0
  0
VERTEX
  5
1D35
  8
SAPA_PROFIL
 62
     4
 10
24.146136870281101
 20
71.329913665351569
 30
0.0
 42
-0.5773502691891679
  0
VERTEX
  5
1D36
  8
SAPA_PROFIL
 62
     4
 10
23.831136870281512
 20
71.511779000146134
 30
0.0
  0
VERTEX
  5
1D37
  8
SAPA_PROFIL
 62
     4
 10
23.83113687028127
 20
71.778893528272448
 30
0.0
  0
VERTEX
  5
1D38
  8
SAPA_PROFIL
 62
     4
 10
22.432609169647009
 20
72.587576989580768
 30
0.0
 42
0.1318219888653519
  0
VERTEX
  5
1D39
  8
SAPA_PROFIL
 62
     4
 10
22.282436067174672
 20
72.627869386118164
 30
0.0
  0
VERTEX
  5
1D3A
  8
SAPA_PROFIL
 62
     4
 10
22.099999996737889
 20
72.627869386111797
 30
0.0
 42
0.4142135623724291
  0
VERTEX
  5
1D3B
  8
SAPA_PROFIL
 62
     4
 10
21.69999999673734
 20
72.227869386112161
 30
0.0
  0
VERTEX
  5
1D3C
  8
SAPA_PROFIL
 62
     4
 10
21.699999996738711
 20
68.827869386111161
 30
0.0
 42
0.4142135623744271
  0
VERTEX
  5
1D3D
  8
SAPA_PROFIL
 62
     4
 10
22.099999996737889
 20
68.42786938611016
 30
0.0
  0
VERTEX
  5
1D3E
  8
SAPA_PROFIL
 62
     4
 10
22.279615239009189
 20
68.427869386109521
 30
0.0
 42
0.1316524975874005
  0
VERTEX
  5
1D3F
  8
SAPA_PROFIL
 62
     4
 10
22.429615239006012
 20
68.468061764975118
 30
0.0
  0
VERTEX
  5
1D40
  8
SAPA_PROFIL
 62
     4
 10
24.033753136008269
 20
69.394211211627649
 30
0.0
 42
-0.1316524975875904
  0
VERTEX
  5
1D41
  8
SAPA_PROFIL
 62
     4
 10
24.53375313600997
 20
69.528185807842419
 30
0.0
  0
VERTEX
  5
1D42
  8
SAPA_PROFIL
 62
     4
 10
24.94999999673734
 20
69.528185807842419
 30
0.0
 42
-0.4142135623730951
  0
VERTEX
  5
1D43
  8
SAPA_PROFIL
 62
     4
 10
25.94999999673734
 20
68.528185807842419
 30
0.0
  0
VERTEX
  5
1D44
  8
SAPA_PROFIL
 62
     4
 10
25.94999999673734
 20
65.528185807845134
 30
0.0
 42
0.9999996830128083
  0
VERTEX
  5
1D45
  8
SAPA_PROFIL
 62
     4
 10
26.94999999673735
 20
65.528185807843315
 30
0.0
  0
VERTEX
  5
1D46
  8
SAPA_PROFIL
 62
     4
 10
26.94999999673735
 20
68.528185807843329
 30
0.0
 42
-0.4142135623730951
  0
VERTEX
  5
1D47
  8
SAPA_PROFIL
 62
     4
 10
27.94999999673735
 20
69.528185807843329
 30
0.0
  0
VERTEX
  5
1D48
  8
SAPA_PROFIL
 62
     4
 10
57.449999996821923
 20
69.528185807843315
 30
0.0
 42
-0.4142135623730951
  0
VERTEX
  5
1D49
  8
SAPA_PROFIL
 62
     4
 10
58.44999999682193
 20
68.528185807843315
 30
0.0
  0
VERTEX
  5
1D4A
  8
SAPA_PROFIL
 62
     4
 10
58.44999999682193
 20
65.528185807845134
 30
0.0
 42
0.9999999999999998
  0
VERTEX
  5
1D4B
  8
SAPA_PROFIL
 62
     4
 10
59.44999999682193
 20
65.528185807845134
 30
0.0
  0
VERTEX
  5
1D4C
  8
SAPA_PROFIL
 62
     4
 10
59.44999999682193
 20
68.528185807843315
 30
0.0
 42
-0.4142135623736278
  0
VERTEX
  5
1D4D
  8
SAPA_PROFIL
 62
     4
 10
60.44999999682193
 20
69.528185807843315
 30
0.0
  0
VERTEX
  5
1D4E
  8
SAPA_PROFIL
 62
     4
 10
60.86624685754839
 20
69.528185807843315
 30
0.0
 42
-0.1316524975874375
  0
VERTEX
  5
1D4F
  8
SAPA_PROFIL
 62
     4
 10
61.366246857548589
 20
69.39421121162728
 30
0.0
  0
VERTEX
  5
1D50
  8
SAPA_PROFIL
 62
     4
 10
62.97038475455053
 20
68.468061764975104
 30
0.0
 42
0.1316524975874
  0
VERTEX
  5
1D51
  8
SAPA_PROFIL
 62
     4
 10
63.120384754550081
 20
68.427869386109521
 30
0.0
  0
VERTEX
  5
1D52
  8
SAPA_PROFIL
 62
     4
 10
63.299999996821377
 20
68.427869386110146
 30
0.0
 42
0.4142135623744271
  0
VERTEX
  5
1D53
  8
SAPA_PROFIL
 62
     4
 10
63.699999996820573
 20
68.827869386111146
 30
0.0
  0
VERTEX
  5
1D54
  8
SAPA_PROFIL
 62
     4
 10
63.699999996821923
 20
72.227869386112147
 30
0.0
 42
0.4142135623724291
  0
VERTEX
  5
1D55
  8
SAPA_PROFIL
 62
     4
 10
63.299999996821377
 20
72.627869386111783
 30
0.0
  0
VERTEX
  5
1D56
  8
SAPA_PROFIL
 62
     4
 10
63.117563926384612
 20
72.627869386118149
 30
0.0
 42
0.1318219888653524
  0
VERTEX
  5
1D57
  8
SAPA_PROFIL
 62
     4
 10
62.967390823912247
 20
72.587576989580768
 30
0.0
  0
VERTEX
  5
1D58
  8
SAPA_PROFIL
 62
     4
 10
61.5688631234326
 20
71.77889352835642
 30
0.0
  0
VERTEX
  5
1D59
  8
SAPA_PROFIL
 62
     4
 10
61.5688631234326
 20
71.511779000143392
 30
0.0
 42
-0.577350269189159
  0
VERTEX
  5
1D5A
  8
SAPA_PROFIL
 62
     4
 10
61.253863123433007
 20
71.329913665348826
 30
0.0
  0
VERTEX
  5
1D5B
  8
SAPA_PROFIL
 62
     4
 10
60.90444494621434
 20
71.531650344025934
 30
0.0
 42
-0.0612687673629489
  0
VERTEX
  5
1D5C
  8
SAPA_PROFIL
 62
     4
 10
60.611769513114133
 20
71.545233714712126
 30
0.0
 42
-0.2694959974285039
  0
VERTEX
  5
1D5D
  8
SAPA_PROFIL
 62
     4
 10
60.380250466713612
 20
71.738365689056081
 30
0.0
  0
VERTEX
  5
1D5E
  8
SAPA_PROFIL
 62
     4
 10
59.484581525803947
 20
74.199195879509247
 30
0.0
 42
0.3152987888784035
  0
VERTEX
  5
1D5F
  8
SAPA_PROFIL
 62
     4
 10
59.014735215410717
 20
74.52818580784583
 30
0.0
  0
VERTEX
  5
1D60
  8
SAPA_PROFIL
 62
     4
 10
57.633235630206279
 20
74.528185807844224
 30
0.0
 42
0.2539676464741841
  0
VERTEX
  5
1D61
  8
SAPA_PROFIL
 62
     4
 10
57.381634459822209
 20
74.391577518348953
 30
0.0
  0
VERTEX
  5
1D62
  8
SAPA_PROFIL
 62
     4
 10
57.117611181445568
 20
73.985017322343964
 30
0.0
 42
0.5862177598324623
  0
VERTEX
  5
1D63
  8
SAPA_PROFIL
 62
     4
 10
57.373352996683913
 20
73.528185807847478
 30
0.0
  0
VERTEX
  5
1D64
  8
SAPA_PROFIL
 62
     4
 10
58.31452767719373
 20
73.528185807855124
 30
0.0
 42
-0.3152987888813165
  0
VERTEX
  5
1D65
  8
SAPA_PROFIL
 62
     4
 10
58.784373987591479
 20
73.199195879518385
 30
0.0
  0
VERTEX
  5
1D66
  8
SAPA_PROFIL
 62
     4
 10
59.221138268715443
 20
71.999195879507155
 30
0.0
 42
-0.5205670505515651
  0
VERTEX
  5
1D67
  8
SAPA_PROFIL
 62
     4
 10
58.751291958322213
 20
71.328185807844406
 30
0.0
  0
VERTEX
  5
1D68
  8
SAPA_PROFIL
 62
     4
 10
53.734851017653362
 20
71.328185807844392
 30
0.0
 42
-0.3702522326300203
  0
VERTEX
  5
1D69
  8
SAPA_PROFIL
 62
     4
 10
53.438327655860029
 20
71.58264576051009
 30
0.0
 42
-0.0982365330332397
  0
VERTEX
  5
1D6A
  8
SAPA_PROFIL
 62
     4
 10
53.347874897649092
 20
73.270332535505105
 30
0.0
 42
-0.3735060174783164
  0
VERTEX
  5
1D6B
  8
SAPA_PROFIL
 62
     4
 10
53.64489956556006
 20
73.528185807845134
 30
0.0
  0
VERTEX
  5
1D6C
  8
SAPA_PROFIL
 62
     4
 10
54.073352996682729
 20
73.528185807846043
 30
0.0
 42
0.5920056181162531
  0
VERTEX
  5
1D6D
  8
SAPA_PROFIL
 62
     4
 10
54.326361753000128
 20
73.989389310373966
 30
0.0
  0
VERTEX
  5
1D6E
  8
SAPA_PROFIL
 62
     4
 10
54.065177676844428
 20
74.391577518352264
 30
0.0
 42
0.2539676464746725
  0
VERTEX
  5
1D6F
  8
SAPA_PROFIL
 62
     4
 10
53.813576506460663
 20
74.528185807847635
 30
0.0
  0
VERTEX
  5
1D70
  8
SAPA_PROFIL
 62
     4
 10
31.586423487094969
 20
74.528185807846043
 30
0.0
 42
0.2539676464741819
  0
VERTEX
  5
1D71
  8
SAPA_PROFIL
 62
     4
 10
31.33482231671212
 20
74.391577518352278
 30
0.0
  0
VERTEX
  5
1D72
  8
SAPA_PROFIL
 62
     4
 10
31.07363824055831
 20
73.989389310373937
 30
0.0
 42
0.5920055144124249
  0
VERTEX
  5
1D73
  8
SAPA_PROFIL
 62
     4
 10
31.326646996873819
 20
73.528185807846057
 30
0.0
  0
VERTEX
  5
1D74
  8
SAPA_PROFIL
 62
     4
 10
31.755100474164038
 20
73.528185833121057
 30
0.0
 42
-0.3735060174775405
  0
VERTEX
  5
1D75
  8
SAPA_PROFIL
 62
     4
 10
32.05212514207372
 20
73.270332560780972
 30
0.0
 42
-0.0355900683670349
  0
VERTEX
  5
1D76
  8
SAPA_PROFIL
 62
     4
 10
32.09601870610598
 20
72.654458973981178
 30
0.0
 42
-0.0624282003873116
  0
VERTEX
  5
1D77
  8
SAPA_PROFIL
 62
     4
 10
31.961672383863039
 20
71.582645785786056
 30
0.0
 42
-0.3702522326309292
  0
VERTEX
  5
1D78
  8
SAPA_PROFIL
 62
     4
 10
31.665149022069659
 20
71.32818583312033
 30
0.0
  0
VERTEX
  5
1D79
  8
SAPA_PROFIL
 62
     4
 10
26.648708035236151
 20
71.328185807844193
 30
0.0
 42
-0.5205670505515692
  0
VERTEX
  5
1D7A
  8
SAPA_PROFIL
 62
     4
 10
26.178861724842928
 20
71.999195879507155
 30
0.0
  0
VERTEX
  5
1D7B
  8
SAPA_PROFIL
 62
     4
 10
26.615626005967879
 20
73.199195879516608
 30
0.0
 42
-0.3152987888807539
  0
VERTEX
  5
1D7C
  8
SAPA_PROFIL
 62
     4
 10
27.085472316363731
 20
73.528185807854243
 30
0.0
  0
VERTEX
  5
1D7D
  8
SAPA_PROFIL
 62
     4
 10
28.02664699687282
 20
73.528185807847422
 30
0.0
 42
0.5862175119221242
  0
VERTEX
  5
1D7E
  8
SAPA_PROFIL
 62
     4
 10
28.282388927854772
 20
73.985017133602554
 30
0.0
 42
-0.0000002084758573
  0
SEQEND
  5
1D7F
  8
SAPA_PROFIL
 62
     4
  0
POLYLINE
  5
13B5
  8
SAPA_PROFIL
 66
     1
 10
0.0
 20
0.0
 30
0.0
 70
     1
  0
VERTEX
  5
1D80
  8
SAPA_PROFIL
 10
24.145400824782929
 20
71.360845914839501
 30
0.0
 42
-0.5773502691897539
  0
VERTEX
  5
1D81
  8
SAPA_PROFIL
 10
23.851244524528219
 20
71.54379965494968
 30
0.0
  0
VERTEX
  5
1D82
  8
SAPA_PROFIL
 10
23.861805890755178
 20
71.865557383167925
 30
0.0
  0
VERTEX
  5
1D83
  8
SAPA_PROFIL
 10
21.97596219889407
 20
72.950121830139665
 30
0.0
  0
VERTEX
  5
1D84
  8
SAPA_PROFIL
 10
21.784579198900349
 20
73.008195467128701
 30
0.0
 42
0.7625858545243252
  0
VERTEX
  5
1D85
  8
SAPA_PROFIL
 10
21.599999996702859
 20
72.677869386111752
 30
0.0
 42
-0.2134217652834343
  0
VERTEX
  5
1D86
  8
SAPA_PROFIL
 10
21.699999996702999
 20
72.454262588361644
 30
0.0
  0
VERTEX
  5
1D87
  8
SAPA_PROFIL
 10
21.69999999677303
 20
68.601476183861678
 30
0.0
 42
0.4142135623730951
  0
VERTEX
  5
1D88
  8
SAPA_PROFIL
 10
21.999999996772988
 20
68.301476183861723
 30
0.0
  0
VERTEX
  5
1D89
  8
SAPA_PROFIL
 10
22.29999999677295
 20
68.301476183861723
 30
0.0
  0
VERTEX
  5
1D8A
  8
SAPA_PROFIL
 10
23.899999996773079
 20
69.225236614571713
 30
0.0
 42
-0.5773502691868622
  0
VERTEX
  5
1D8B
  8
SAPA_PROFIL
 10
24.19999999677303
 20
69.052031533811714
 30
0.0
  0
VERTEX
  5
1D8C
  8
SAPA_PROFIL
 10
24.199999996769169
 20
67.666390887751731
 30
0.0
 42
-0.2679491924305262
  0
VERTEX
  5
1D8D
  8
SAPA_PROFIL
 10
23.699999996773041
 20
66.800365483971746
 30
0.0
  0
VERTEX
  5
1D8E
  8
SAPA_PROFIL
 10
21.950135163743081
 20
65.790808659991626
 30
0.0
 42
0.268032828299991
  0
VERTEX
  5
1D8F
  8
SAPA_PROFIL
 10
21.699999996687989
 20
65.357717947501101
 30
0.0
  0
VERTEX
  5
1D90
  8
SAPA_PROFIL
 10
21.699999996702999
 20
54.044326236891379
 30
0.0
 42
0.26803282829961
  0
VERTEX
  5
1D91
  8
SAPA_PROFIL
 10
21.950135163743081
 20
53.611235524401422
 30
0.0
  0
VERTEX
  5
1D92
  8
SAPA_PROFIL
 10
23.69999999677508
 20
52.6016787004246
 30
0.0
 42
-0.267949192430527
  0
VERTEX
  5
1D93
  8
SAPA_PROFIL
 10
24.19999999677303
 20
51.735653296641317
 30
0.0
  0
VERTEX
  5
1D94
  8
SAPA_PROFIL
 10
24.199999996775759
 20
50.350012650581327
 30
0.0
 42
-0.5773502691868419
  0
VERTEX
  5
1D95
  8
SAPA_PROFIL
 10
23.899999996773079
 20
50.176807569821342
 30
0.0
  0
VERTEX
  5
1D96
  8
SAPA_PROFIL
 10
22.29999999677295
 20
51.100568000531332
 30
0.0
  0
VERTEX
  5
1D97
  8
SAPA_PROFIL
 10
21.999999996772988
 20
51.100568000531332
 30
0.0
 42
0.4142135623730951
  0
VERTEX
  5
1D98
  8
SAPA_PROFIL
 10
21.69999999677303
 20
50.800568000531371
 30
0.0
  0
VERTEX
  5
1D99
  8
SAPA_PROFIL
 10
21.699999996773261
 20
46.947781596031398
 30
0.0
 42
-0.2134217652834343
  0
VERTEX
  5
1D9A
  8
SAPA_PROFIL
 10
21.599999996773121
 20
46.72417479828129
 30
0.0
 42
0.7625858545243255
  0
VERTEX
  5
1D9B
  8
SAPA_PROFIL
 10
21.784579198970611
 20
46.393848717264291
 30
0.0
  0
VERTEX
  5
1D9C
  8
SAPA_PROFIL
 10
21.975962198964329
 20
46.451922354253377
 30
0.0
  0
VERTEX
  5
1D9D
  8
SAPA_PROFIL
 10
23.86180589082544
 20
47.536486801225116
 30
0.0
  0
VERTEX
  5
1D9E
  8
SAPA_PROFIL
 10
23.851244524598361
 20
47.858244529443368
 30
0.0
 42
-0.5773502691897534
  0
VERTEX
  5
1D9F
  8
SAPA_PROFIL
 10
24.145400824853301
 20
48.04119826955354
 30
0.0
  0
VERTEX
  5
1DA0
  8
SAPA_PROFIL
 10
24.430083108084929
 20
47.889064358444777
 30
0.0
 42
-0.2216946626430088
  0
VERTEX
  5
1DA1
  8
SAPA_PROFIL
 10
24.835892013239729
 20
47.348184526967991
 30
0.0
  0
VERTEX
  5
1DA2
  8
SAPA_PROFIL
 10
25.217338609367449
 20
45.534954056309743
 30
0.0
 42
-0.476975532698165
  0
VERTEX
  5
1DA3
  8
SAPA_PROFIL
 10
24.915085784860981
 20
45.163297181363873
 30
0.0
  0
VERTEX
  5
1DA4
  8
SAPA_PROFIL
 10
23.41198470409898
 20
45.163380789247533
 30
0.0
  0
VERTEX
  5
1DA5
  8
SAPA_PROFIL
 10
23.397466294851871
 20
45.211226539246013
 30
0.0
 42
0.4142135623731108
  0
VERTEX
  5
1DA6
  8
SAPA_PROFIL
 10
23.023281339376059
 20
45.41119058375341
 30
0.0
  0
VERTEX
  5
1DA7
  8
SAPA_PROFIL
 10
21.700694812120659
 20
44.899999999971442
 30
0.0
  0
VERTEX
  5
1DA8
  8
SAPA_PROFIL
 10
18.687515663167112
 20
44.899999999971897
 30
0.0
 42
-0.2596812337296443
  0
VERTEX
  5
1DA9
  8
SAPA_PROFIL
 10
18.517484851628058
 20
44.994693195220407
 30
0.0
  0
VERTEX
  5
1DAA
  8
SAPA_PROFIL
 10
17.744953782560959
 20
46.242039792845958
 30
0.0
 42
-0.5877032589250569
  0
VERTEX
  5
1DAB
  8
SAPA_PROFIL
 10
17.999999999870042
 20
46.69999999997242
 30
0.0
  0
VERTEX
  5
1DAC
  8
SAPA_PROFIL
 10
19.399999999869571
 20
46.69999999997048
 30
0.0
 42
0.414213562373428
  0
VERTEX
  5
1DAD
  8
SAPA_PROFIL
 10
19.699999999870091
 20
46.999999999970321
 30
0.0
  0
VERTEX
  5
1DAE
  8
SAPA_PROFIL
 10
19.699999999873949
 20
49.399999999970881
 30
0.0
 42
0.4142135623732061
  0
VERTEX
  5
1DAF
  8
SAPA_PROFIL
 10
19.399999999874449
 20
49.699999999971389
 30
0.0
  0
VERTEX
  5
1DB0
  8
SAPA_PROFIL
 10
1.99999999987391
 20
49.699999999992308
 30
0.0
 42
0.4142135623722071
  0
VERTEX
  5
1DB1
  8
SAPA_PROFIL
 10
1.6999999998739559
 20
49.399999999995323
 30
0.0
  0
VERTEX
  5
1DB2
  8
SAPA_PROFIL
 10
1.6999999999400079
 20
46.999999999996469
 30
0.0
 42
0.4142135623730951
  0
VERTEX
  5
1DB3
  8
SAPA_PROFIL
 10
1.9999999999420091
 20
46.699999999998333
 30
0.0
  0
VERTEX
  5
1DB4
  8
SAPA_PROFIL
 10
3.3999999999419859
 20
46.700000000003342
 30
0.0
 42
-0.5877032589240117
  0
VERTEX
  5
1DB5
  8
SAPA_PROFIL
 10
3.6550462172540281
 20
46.242039792877343
 30
0.0
  0
VERTEX
  5
1DB6
  8
SAPA_PROFIL
 10
2.7586472400172291
 20
44.794693195249231
 30
0.0
 42
-0.259681233730399
  0
VERTEX
  5
1DB7
  8
SAPA_PROFIL
 10
2.5886164284780651
 20
44.700000000001403
 30
0.0
  0
VERTEX
  5
1DB8
  8
SAPA_PROFIL
 10
2.1999999999373929
 20
44.699999999999299
 30
0.0
 42
0.4142135623715633
  0
VERTEX
  5
1DB9
  8
SAPA_PROFIL
 10
1.6999999999400079
 20
44.199999999999299
 30
0.0
  0
VERTEX
  5
1DBA
  8
SAPA_PROFIL
 10
1.6999999999399511
 20
19.400000000381961
 30
0.0
 42
0.4142135623739942
  0
VERTEX
  5
1DBB
  8
SAPA_PROFIL
 10
2.1999999999414861
 20
18.900000000381961
 30
0.0
  0
VERTEX
  5
1DBC
  8
SAPA_PROFIL
 10
4.0005704442399859
 20
18.900000000387418
 30
0.0
 42
-0.4241420668422755
  0
VERTEX
  5
1DBD
  8
SAPA_PROFIL
 10
4.9999999996514246
 20
17.866227766509379
 30
0.0
 42
-0.2988658713647619
  0
VERTEX
  5
1DBE
  8
SAPA_PROFIL
 10
4.4291418728836218
 20
16.928947629550059
 30
0.0
 42
-0.5507604245873982
  0
VERTEX
  5
1DBF
  8
SAPA_PROFIL
 10
4.0005704442889849
 20
17.200000000395331
 30
0.0
  0
VERTEX
  5
1DC0
  8
SAPA_PROFIL
 10
4.0005704442700001
 20
17.500000000387441
 30
0.0
 42
0.4142135623702647
  0
VERTEX
  5
1DC1
  8
SAPA_PROFIL
 10
3.8005704442579029
 20
17.700000000375319
 30
0.0
  0
VERTEX
  5
1DC2
  8
SAPA_PROFIL
 10
3.5005704441410792
 20
17.70000000035725
 30
0.0
 42
0.4142135623563536
  0
VERTEX
  5
1DC3
  8
SAPA_PROFIL
 10
1.7005704442469669
 20
15.900000000354339
 30
0.0
  0
VERTEX
  5
1DC4
  8
SAPA_PROFIL
 10
1.7005704442488989
 20
15.20000000013829
 30
0.0
 42
0.4142135623558171
  0
VERTEX
  5
1DC5
  8
SAPA_PROFIL
 10
3.500570444146081
 20
13.400000000140381
 30
0.0
  0
VERTEX
  5
1DC6
  8
SAPA_PROFIL
 10
3.800570444264042
 20
13.400000000124351
 30
0.0
 42
0.4142135623717631
  0
VERTEX
  5
1DC7
  8
SAPA_PROFIL
 10
4.0005704442760246
 20
13.60000000011132
 30
0.0
  0
VERTEX
  5
1DC8
  8
SAPA_PROFIL
 10
4.0005704442937597
 20
13.900000000101381
 30
0.0
 42
-0.5507604245839719
  0
VERTEX
  5
1DC9
  8
SAPA_PROFIL
 10
4.4291418728800984
 20
14.17105237094847
 30
0.0
 42
-0.2988658713671755
  0
VERTEX
  5
1DCA
  8
SAPA_PROFIL
 10
4.9999999996579048
 20
13.233772233990409
 30
0.0
 42
-0.4241420668413794
  0
VERTEX
  5
1DCB
  8
SAPA_PROFIL
 10
4.000570444248968
 20
12.20000000011134
 30
0.0
  0
VERTEX
  5
1DCC
  8
SAPA_PROFIL
 10
1.8999999999949071
 20
12.200000000112141
 30
0.0
 42
0.414213562373195
  0
VERTEX
  5
1DCD
  8
SAPA_PROFIL
 10
1.399999999994737
 20
11.700000000112141
 30
0.0
  0
VERTEX
  5
1DCE
  8
SAPA_PROFIL
 10
1.3999999999949639
 20
1.182842712469607
 30
0.0
 42
-0.198912367379658
  0
VERTEX
  5
1DCF
  8
SAPA_PROFIL
 10
1.253553390588241
 20
0.829289321876331
 30
0.0
  0
VERTEX
  5
1DD0
  8
SAPA_PROFIL
 10
0.2121320343560349
 20
-0.2121320343560455
 30
0.0
 42
-0.6681786379192989
  0
VERTEX
  5
1DD1
  8
SAPA_PROFIL
 10
-0.3000000000000789
 20
0.0
 30
0.0
  0
VERTEX
  5
1DD2
  8
SAPA_PROFIL
 10
-0.3000000000789775
 20
96.199999999964348
 30
0.0
 42
-0.4142135623567124
  0
VERTEX
  5
1DD3
  8
SAPA_PROFIL
 10
0.1999999998930555
 20
96.699999999964334
 30
0.0
  0
VERTEX
  5
1DD4
  8
SAPA_PROFIL
 10
3.8999999999050381
 20
96.700000000171386
 30
0.0
 42
-0.414213562390632
  0
VERTEX
  5
1DD5
  8
SAPA_PROFIL
 10
4.1999999999210216
 20
96.40000000017028
 30
0.0
  0
VERTEX
  5
1DD6
  8
SAPA_PROFIL
 10
4.1999999999201121
 20
95.632455532143354
 30
0.0
 42
-0.2896898632850871
  0
VERTEX
  5
1DD7
  8
SAPA_PROFIL
 10
3.6285714285489692
 20
94.728947629266372
 30
0.0
 42
-0.5507604245891342
  0
VERTEX
  5
1DD8
  8
SAPA_PROFIL
 10
3.1999999999610398
 20
95.000000000113346
 30
0.0
  0
VERTEX
  5
1DD9
  8
SAPA_PROFIL
 10
3.199999999948989
 20
95.200000000135333
 30
0.0
 42
0.4142135623672125
  0
VERTEX
  5
1DDA
  8
SAPA_PROFIL
 10
2.8999999999380068
 20
95.500000000118476
 30
0.0
  0
VERTEX
  5
1DDB
  8
SAPA_PROFIL
 10
1.3999999987580509
 20
95.500000000061391
 30
0.0
 42
0.4142135623613076
  0
VERTEX
  5
1DDC
  8
SAPA_PROFIL
 10
0.8999999987670329
 20
95.000000000052424
 30
0.0
  0
VERTEX
  5
1DDD
  8
SAPA_PROFIL
 10
0.8999999987620306
 20
91.700000000061308
 30
0.0
 42
0.414213562384816
  0
VERTEX
  5
1DDE
  8
SAPA_PROFIL
 10
1.3999999987810161
 20
91.200000000060413
 30
0.0
  0
VERTEX
  5
1DDF
  8
SAPA_PROFIL
 10
2.9000000001709512
 20
91.200000000118393
 30
0.0
 42
0.4142135623779789
  0
VERTEX
  5
1DE0
  8
SAPA_PROFIL
 10
3.200000000158969
 20
91.500000000135387
 30
0.0
  0
VERTEX
  5
1DE1
  8
SAPA_PROFIL
 10
3.2000000001480551
 20
91.700000000112368
 30
0.0
 42
-0.5507604245847541
  0
VERTEX
  5
1DE2
  8
SAPA_PROFIL
 10
3.6285714287019921
 20
91.971052371010387
 30
0.0
 42
-0.2896898633203854
  0
VERTEX
  5
1DE3
  8
SAPA_PROFIL
 10
4.2000000001870488
 20
91.067544468075312
 30
0.0
  0
VERTEX
  5
1DE4
  8
SAPA_PROFIL
 10
4.2000000001870488
 20
90.070072656011348
 30
0.0
 42
-0.0436609429083866
  0
VERTEX
  5
1DE5
  8
SAPA_PROFIL
 10
4.192403876692981
 20
89.983248567178407
 30
0.0
  0
VERTEX
  5
1DE6
  8
SAPA_PROFIL
 10
3.915557705768026
 20
88.413175911194344
 30
0.0
 42
-0.8390996311771717
  0
VERTEX
  5
1DE7
  8
SAPA_PROFIL
 10
2.9307499527560479
 20
88.413175911195367
 30
0.0
  0
VERTEX
  5
1DE8
  8
SAPA_PROFIL
 10
2.723804113175095
 20
89.586824088862386
 30
0.0
 42
0.3639702342665017
  0
VERTEX
  5
1DE9
  8
SAPA_PROFIL
 10
2.2314002366700718
 20
90.000000000030013
 30
0.0
  0
VERTEX
  5
1DEA
  8
SAPA_PROFIL
 10
1.3999999987600971
 20
90.000000000031378
 30
0.0
 42
0.4373282586277949
  0
VERTEX
  5
1DEB
  8
SAPA_PROFIL
 10
0.9015307184550813
 20
89.460905542709384
 30
0.0
  0
VERTEX
  5
1DEC
  8
SAPA_PROFIL
 10
1.4883294814579699
 20
74.987846721318419
 30
0.0
 42
0.4023941304319243
  0
VERTEX
  5
1DED
  8
SAPA_PROFIL
 10
1.7880832100710109
 20
74.699999999993338
 30
0.0
  0
VERTEX
  5
1DEE
  8
SAPA_PROFIL
 10
2.5886164284360009
 20
74.699999999993338
 30
0.0
 42
-0.2596812337287306
  0
VERTEX
  5
1DEF
  8
SAPA_PROFIL
 10
2.758647239976074
 20
74.605306804745396
 30
0.0
  0
VERTEX
  5
1DF0
  8
SAPA_PROFIL
 10
3.6550462172160572
 20
73.157960207119345
 30
0.0
 42
-0.5877032589232099
  0
VERTEX
  5
1DF1
  8
SAPA_PROFIL
 10
3.3999999999060608
 20
72.699999999993452
 30
0.0
  0
VERTEX
  5
1DF2
  8
SAPA_PROFIL
 10
1.9999999999059701
 20
72.699999999994361
 30
0.0
 42
0.414213562372984
  0
VERTEX
  5
1DF3
  8
SAPA_PROFIL
 10
1.6999999999051061
 20
72.39999999999543
 30
0.0
  0
VERTEX
  5
1DF4
  8
SAPA_PROFIL
 10
1.6999999999020361
 20
69.999999999994316
 30
0.0
 42
0.4142135623720961
  0
VERTEX
  5
1DF5
  8
SAPA_PROFIL
 10
1.9999999999021041
 20
69.699999999995271
 30
0.0
  0
VERTEX
  5
1DF6
  8
SAPA_PROFIL
 10
11.599999999901099
 20
69.699999999981401
 30
0.0
 42
0.414213562373983
  0
VERTEX
  5
1DF7
  8
SAPA_PROFIL
 10
11.89999999990197
 20
69.999999999981355
 30
0.0
  0
VERTEX
  5
1DF8
  8
SAPA_PROFIL
 10
11.899999999908109
 20
74.399999999980423
 30
0.0
 42
-0.4142135623732059
  0
VERTEX
  5
1DF9
  8
SAPA_PROFIL
 10
12.19999999990806
 20
74.699999999981401
 30
0.0
  0
VERTEX
  5
1DFA
  8
SAPA_PROFIL
 10
13.68408806526109
 20
74.699999999978331
 30
0.0
 42
-0.2596812337310292
  0
VERTEX
  5
1DFB
  8
SAPA_PROFIL
 10
13.85411887680106
 20
74.605306804729366
 30
0.0
  0
VERTEX
  5
1DFC
  8
SAPA_PROFIL
 10
14.255046221352011
 20
73.957960207105316
 30
0.0
 42
-0.587703258924552
  0
VERTEX
  5
1DFD
  8
SAPA_PROFIL
 10
14.000000004042009
 20
73.499999999978456
 30
0.0
  0
VERTEX
  5
1DFE
  8
SAPA_PROFIL
 10
13.5999999999061
 20
73.4999999999784
 30
0.0
 42
0.4142135623722071
  0
VERTEX
  5
1DFF
  8
SAPA_PROFIL
 10
13.29999999990592
 20
73.199999999979354
 30
0.0
  0
VERTEX
  5
1E00
  8
SAPA_PROFIL
 10
13.299999999902059
 20
69.999999999979423
 30
0.0
 42
0.4142135623733725
  0
VERTEX
  5
1E01
  8
SAPA_PROFIL
 10
13.599999999900991
 20
69.699999999978502
 30
0.0
  0
VERTEX
  5
1E02
  8
SAPA_PROFIL
 10
19.399999999900601
 20
69.699999999970373
 30
0.0
 42
0.4142135623730948
  0
VERTEX
  5
1E03
  8
SAPA_PROFIL
 10
19.69999999990101
 20
69.999999999969873
 30
0.0
  0
VERTEX
  5
1E04
  8
SAPA_PROFIL
 10
19.699999999905099
 20
72.399999999970419
 30
0.0
 42
0.4142135623726511
  0
VERTEX
  5
1E05
  8
SAPA_PROFIL
 10
19.39999999990561
 20
72.699999999970373
 30
0.0
  0
VERTEX
  5
1E06
  8
SAPA_PROFIL
 10
17.99999999990597
 20
72.69999999997242
 30
0.0
 42
-0.5877032589253235
  0
VERTEX
  5
1E07
  8
SAPA_PROFIL
 10
17.744953782596092
 20
73.157960207100359
 30
0.0
  0
VERTEX
  5
1E08
  8
SAPA_PROFIL
 10
18.517484851667049
 20
74.405306804723409
 30
0.0
 42
-0.2596812337293086
  0
VERTEX
  5
1E09
  8
SAPA_PROFIL
 10
18.687515663207009
 20
74.499999999972431
 30
0.0
  0
VERTEX
  5
1E0A
  8
SAPA_PROFIL
 10
21.705983663054649
 20
74.499999999956742
 30
0.0
  0
VERTEX
  5
1E0B
  8
SAPA_PROFIL
 10
23.0232813393058
 20
73.990853600639625
 30
0.0
 42
0.4142135623730953
  0
VERTEX
  5
1E0C
  8
SAPA_PROFIL
 10
23.397466294781609
 20
74.190817645147035
 30
0.0
  0
VERTEX
  5
1E0D
  8
SAPA_PROFIL
 10
23.411984704028718
 20
74.238663395145522
 30
0.0
  0
VERTEX
  5
1E0E
  8
SAPA_PROFIL
 10
24.915085784790719
 20
74.238747003029118
 30
0.0
 42
-0.4769755326981653
  0
VERTEX
  5
1E0F
  8
SAPA_PROFIL
 10
25.21733860929719
 20
73.867090128083305
 30
0.0
  0
VERTEX
  5
1E10
  8
SAPA_PROFIL
 10
24.83589201316947
 20
72.053859657425051
 30
0.0
 42
-0.2216946626430223
  0
VERTEX
  5
1E11
  8
SAPA_PROFIL
 10
24.430083108014671
 20
71.512979825948264
 30
0.0
  0
SEQEND
  5
1E12
  8
SAPA_PROFIL
  0
POLYLINE
  5
13B6
  8
SAPA_PROFIL
 66
     1
 10
0.0
 20
0.0
 30
0.0
 70
     1
  0
VERTEX
  5
1E13
  8
SAPA_PROFIL
 10
19.999999996684991
 20
51.699999999970373
 30
0.0
  0
VERTEX
  5
1E14
  8
SAPA_PROFIL
 10
19.999999996687041
 20
53.299999999969373
 30
0.0
 42
0.4142135623730951
  0
VERTEX
  5
1E15
  8
SAPA_PROFIL
 10
19.799999996686989
 20
53.499999999970328
 30
0.0
  0
VERTEX
  5
1E16
  8
SAPA_PROFIL
 10
19.59999999668695
 20
53.499999999969297
 30
0.0
 42
-0.4142135623715967
  0
VERTEX
  5
1E17
  8
SAPA_PROFIL
 10
19.399999996687018
 20
53.69999999997038
 30
0.0
  0
VERTEX
  5
1E18
  8
SAPA_PROFIL
 10
19.399999996690092
 20
55.299999999970389
 30
0.0
 42
-0.4142135623730951
  0
VERTEX
  5
1E19
  8
SAPA_PROFIL
 10
19.59999999669002
 20
55.499999999970328
 30
0.0
  0
VERTEX
  5
1E1A
  8
SAPA_PROFIL
 10
19.799999996689952
 20
55.499999999970328
 30
0.0
 42
0.4142135623730951
  0
VERTEX
  5
1E1B
  8
SAPA_PROFIL
 10
19.999999996690001
 20
55.699999999970373
 30
0.0
  0
VERTEX
  5
1E1C
  8
SAPA_PROFIL
 10
19.999999996700911
 20
63.69999999997038
 30
0.0
 42
0.4142135623730951
  0
VERTEX
  5
1E1D
  8
SAPA_PROFIL
 10
19.799999996701089
 20
63.899999999969388
 30
0.0
  0
VERTEX
  5
1E1E
  8
SAPA_PROFIL
 10
19.59999999670104
 20
63.899999999971328
 30
0.0
 42
-0.4142135623730951
  0
VERTEX
  5
1E1F
  8
SAPA_PROFIL
 10
19.399999996702022
 20
64.09999999997035
 30
0.0
  0
VERTEX
  5
1E20
  8
SAPA_PROFIL
 10
19.399999996703961
 20
65.699999999970373
 30
0.0
 42
-0.4142135623730951
  0
VERTEX
  5
1E21
  8
SAPA_PROFIL
 10
19.599999996704
 20
65.899999999970419
 30
0.0
  0
VERTEX
  5
1E22
  8
SAPA_PROFIL
 10
19.799999996704049
 20
65.899999999969282
 30
0.0
 42
0.4142135623730951
  0
VERTEX
  5
1E23
  8
SAPA_PROFIL
 10
19.999999996704091
 20
66.099999999969327
 30
0.0
  0
VERTEX
  5
1E24
  8
SAPA_PROFIL
 10
19.99999999670705
 20
67.699999999970373
 30
0.0
 42
0.4142135623730951
  0
VERTEX
  5
1E25
  8
SAPA_PROFIL
 10
19.699999996707088
 20
67.999999999970328
 30
0.0
  0
VERTEX
  5
1E26
  8
SAPA_PROFIL
 10
1.6999999967070949
 20
67.999999999994316
 30
0.0
 42
0.4142135624873408
  0
VERTEX
  5
1E27
  8
SAPA_PROFIL
 10
1.399999996707141
 20
67.699999999877377
 30
0.0
  0
VERTEX
  5
1E28
  8
SAPA_PROFIL
 10
1.399999997331054
 20
66.099999999916349
 30
0.0
 42
0.4142135622558857
  0
VERTEX
  5
1E29
  8
SAPA_PROFIL
 10
1.599999997329963
 20
65.899999999995316
 30
0.0
  0
VERTEX
  5
1E2A
  8
SAPA_PROFIL
 10
1.799999997492012
 20
65.899999999994407
 30
0.0
 42
-0.414213562251557
  0
VERTEX
  5
1E2B
  8
SAPA_PROFIL
 10
1.9999999974910341
 20
65.700000000077353
 30
0.0
  0
VERTEX
  5
1E2C
  8
SAPA_PROFIL
 10
1.9999999981530321
 20
64.10000000007733
 30
0.0
 42
-0.4142135624946331
  0
VERTEX
  5
1E2D
  8
SAPA_PROFIL
 10
1.7999999981519641
 20
63.899999999994293
 30
0.0
  0
VERTEX
  5
1E2E
  8
SAPA_PROFIL
 10
1.5999999965770151
 20
63.899999999995309
 30
0.0
 42
0.4142135623730951
  0
VERTEX
  5
1E2F
  8
SAPA_PROFIL
 10
1.3999999965770831
 20
63.699999999995391
 30
0.0
  0
VERTEX
  5
1E30
  8
SAPA_PROFIL
 10
1.399999996566055
 20
55.699999999995377
 30
0.0
 42
0.41421356237163
  0
VERTEX
  5
1E31
  8
SAPA_PROFIL
 10
1.5999999965650771
 20
55.499999999995453
 30
0.0
  0
VERTEX
  5
1E32
  8
SAPA_PROFIL
 10
1.7999999981410499
 20
55.499999999994323
 30
0.0
 42
-0.4142135624946331
  0
VERTEX
  5
1E33
  8
SAPA_PROFIL
 10
1.999999998141095
 20
55.299999999911392
 30
0.0
  0
VERTEX
  5
1E34
  8
SAPA_PROFIL
 10
1.9999999974751179
 20
53.699999999911363
 30
0.0
 42
-0.4142135622515237
  0
VERTEX
  5
1E35
  8
SAPA_PROFIL
 10
1.799999997475072
 20
53.499999999994323
 30
0.0
  0
VERTEX
  5
1E36
  8
SAPA_PROFIL
 10
1.599999997314046
 20
53.499999999994323
 30
0.0
 42
0.4142135622574175
  0
VERTEX
  5
1E37
  8
SAPA_PROFIL
 10
1.3999999973140009
 20
53.300000000073389
 30
0.0
  0
VERTEX
  5
1E38
  8
SAPA_PROFIL
 10
1.3999999966850849
 20
51.700000000112368
 30
0.0
 42
0.4142135624873075
  0
VERTEX
  5
1E39
  8
SAPA_PROFIL
 10
1.6999999966840169
 20
51.399999999996453
 30
0.0
  0
VERTEX
  5
1E3A
  8
SAPA_PROFIL
 10
19.699999996684021
 20
51.399999999970419
 30
0.0
 42
0.414213562374094
  0
SEQEND
  5
1E3B
  8
SAPA_PROFIL
  0
POLYLINE
  5
13B7
  8
SAPA_PROFIL
 66
     1
 10
0.0
 20
0.0
 30
0.0
 70
     1
  0
VERTEX
  5
1E3C
  8
SAPA_PROFIL
 10
63.699999996637047
 20
65.355513627245386
 30
0.0
 42
0.267949192431007
  0
VERTEX
  5
1E3D
  8
SAPA_PROFIL
 10
63.449999996637061
 20
65.788526329137426
 30
0.0
  0
VERTEX
  5
1E3E
  8
SAPA_PROFIL
 10
61.699999996636599
 20
66.798889300219443
 30
0.0
 42
-0.2679491924311281
  0
VERTEX
  5
1E3F
  8
SAPA_PROFIL
 10
61.199999996636599
 20
67.664914704003991
 30
0.0
  0
VERTEX
  5
1E40
  8
SAPA_PROFIL
 10
61.199999996636834
 20
69.050555350058971
 30
0.0
 42
-0.57735026918954
  0
VERTEX
  5
1E41
  8
SAPA_PROFIL
 10
61.499999996636781
 20
69.223760430815787
 30
0.0
  0
VERTEX
  5
1E42
  8
SAPA_PROFIL
 10
63.099999996636463
 20
68.300000000112618
 30
0.0
  0
VERTEX
  5
1E43
  8
SAPA_PROFIL
 10
63.399999996636637
 20
68.300000000112618
 30
0.0
 42
0.41421356237306
  0
VERTEX
  5
1E44
  8
SAPA_PROFIL
 10
63.699999996636834
 20
68.6000000001128
 30
0.0
  0
VERTEX
  5
1E45
  8
SAPA_PROFIL
 10
63.699999996636834
 20
72.452786404612311
 30
0.0
 42
-0.2036002236709541
  0
VERTEX
  5
1E46
  8
SAPA_PROFIL
 10
63.791725129600628
 20
72.668706713432684
 30
0.0
 42
0.8292414158604859
  0
VERTEX
  5
1E47
  8
SAPA_PROFIL
 10
63.595591841069201
 20
73.000702346452385
 30
0.0
  0
VERTEX
  5
1E48
  8
SAPA_PROFIL
 10
63.424037794445312
 20
72.948645646390673
 30
0.0
  0
VERTEX
  5
1E49
  8
SAPA_PROFIL
 10
61.538194102584477
 20
71.86408119941882
 30
0.0
  0
VERTEX
  5
1E4A
  8
SAPA_PROFIL
 10
61.548755468811223
 20
71.542323471200802
 30
0.0
 42
-0.5773502691894565
  0
VERTEX
  5
1E4B
  8
SAPA_PROFIL
 10
61.254599168556609
 20
71.359369731090396
 30
0.0
  0
VERTEX
  5
1E4C
  8
SAPA_PROFIL
 10
60.969916885325432
 20
71.511503642198591
 30
0.0
 42
-0.2216946626431577
  0
VERTEX
  5
1E4D
  8
SAPA_PROFIL
 10
60.564107980170192
 20
72.052383473676059
 30
0.0
  0
VERTEX
  5
1E4E
  8
SAPA_PROFIL
 10
60.182661384042461
 20
73.865613944333845
 30
0.0
 42
-0.4757248385987928
  0
VERTEX
  5
1E4F
  8
SAPA_PROFIL
 10
60.483657474500298
 20
74.23727088918406
 30
0.0
  0
VERTEX
  5
1E50
  8
SAPA_PROFIL
 10
61.988015289310937
 20
74.237187211396417
 30
0.0
  0
VERTEX
  5
1E51
  8
SAPA_PROFIL
 10
62.002533698558267
 20
74.18934146139793
 30
0.0
 42
0.4580511809928869
  0
VERTEX
  5
1E52
  8
SAPA_PROFIL
 10
62.417914081107348
 20
74.005273745745043
 30
0.0
  0
VERTEX
  5
1E53
  8
SAPA_PROFIL
 10
63.699999996636599
 20
74.500000000112436
 30
0.0
  0
VERTEX
  5
1E54
  8
SAPA_PROFIL
 10
66.712484330144974
 20
74.500000000112436
 30
0.0
 42
-0.2596812337301257
  0
VERTEX
  5
1E55
  8
SAPA_PROFIL
 10
66.882515141685047
 20
74.405306804864381
 30
0.0
  0
VERTEX
  5
1E56
  8
SAPA_PROFIL
 10
67.655046210754662
 20
73.157960207240308
 30
0.0
 42
-0.5877032589249617
  0
VERTEX
  5
1E57
  8
SAPA_PROFIL
 10
67.399999993444538
 20
72.700000000112709
 30
0.0
  0
VERTEX
  5
1E58
  8
SAPA_PROFIL
 10
65.965821207054063
 20
72.700000000112709
 30
0.0
 42
0.4683749459842228
  0
VERTEX
  5
1E59
  8
SAPA_PROFIL
 10
65.699999993444493
 20
72.400000000112527
 30
0.0
  0
VERTEX
  5
1E5A
  8
SAPA_PROFIL
 10
65.69999999344472
 20
70.000000000112891
 30
0.0
 42
0.4683749459847173
  0
VERTEX
  5
1E5B
  8
SAPA_PROFIL
 10
65.96582120705429
 20
69.700000000112709
 30
0.0
  0
VERTEX
  5
1E5C
  8
SAPA_PROFIL
 10
71.799999993444629
 20
69.700000000112695
 30
0.0
  0
VERTEX
  5
1E5D
  8
SAPA_PROFIL
 10
73.799999993444615
 20
69.700000000112695
 30
0.0
  0
VERTEX
  5
1E5E
  8
SAPA_PROFIL
 10
83.399999993444538
 20
69.700000000112681
 30
0.0
 42
0.4142135623730951
  0
VERTEX
  5
1E5F
  8
SAPA_PROFIL
 10
83.699999993444479
 20
70.000000000112394
 30
0.0
  0
VERTEX
  5
1E60
  8
SAPA_PROFIL
 10
83.699999993444479
 20
72.400000000112485
 30
0.0
 42
0.4142135623730951
  0
VERTEX
  5
1E61
  8
SAPA_PROFIL
 10
83.399999993444538
 20
72.700000000112681
 30
0.0
  0
VERTEX
  5
1E62
  8
SAPA_PROFIL
 10
81.999999993444447
 20
72.700000000112681
 30
0.0
 42
-0.5877032589248625
  0
VERTEX
  5
1E63
  8
SAPA_PROFIL
 10
81.744953776134565
 20
73.157960207240279
 30
0.0
  0
VERTEX
  5
1E64
  8
SAPA_PROFIL
 10
82.641352753376694
 20
74.605306804864171
 30
0.0
 42
-0.2596812337300832
  0
VERTEX
  5
1E65
  8
SAPA_PROFIL
 10
82.811383564916795
 20
74.700000000112681
 30
0.0
  0
VERTEX
  5
1E66
  8
SAPA_PROFIL
 10
85.499999996594255
 20
74.700000000112681
 30
0.0
 42
-0.4142135623731107
  0
VERTEX
  5
1E67
  8
SAPA_PROFIL
 10
85.6999999965943
 20
74.500000000112394
 30
0.0
  0
VERTEX
  5
1E68
  8
SAPA_PROFIL
 10
85.699999996594286
 20
44.900000000112513
 30
0.0
 42
-0.4142135623730273
  0
VERTEX
  5
1E69
  8
SAPA_PROFIL
 10
85.499999996594255
 20
44.700000000112688
 30
0.0
  0
VERTEX
  5
1E6A
  8
SAPA_PROFIL
 10
82.81138356491654
 20
44.700000000112688
 30
0.0
 42
-0.2596812337302099
  0
VERTEX
  5
1E6B
  8
SAPA_PROFIL
 10
82.641352753376466
 20
44.794693195360743
 30
0.0
  0
VERTEX
  5
1E6C
  8
SAPA_PROFIL
 10
81.744953776134324
 20
46.242039792984642
 30
0.0
 42
-0.5877032589250762
  0
VERTEX
  5
1E6D
  8
SAPA_PROFIL
 10
81.999999993444433
 20
46.700000000112702
 30
0.0
  0
VERTEX
  5
1E6E
  8
SAPA_PROFIL
 10
83.399999993444524
 20
46.700000000112702
 30
0.0
 42
0.4142135623730951
  0
VERTEX
  5
1E6F
  8
SAPA_PROFIL
 10
83.699999993444479
 20
47.000000000112422
 30
0.0
  0
VERTEX
  5
1E70
  8
SAPA_PROFIL
 10
83.699999993444479
 20
49.400000000112513
 30
0.0
 42
0.4142135623730951
  0
VERTEX
  5
1E71
  8
SAPA_PROFIL
 10
83.399999993444524
 20
49.700000000112688
 30
0.0
  0
VERTEX
  5
1E72
  8
SAPA_PROFIL
 10
73.799999993444402
 20
49.700000000112688
 30
0.0
  0
VERTEX
  5
1E73
  8
SAPA_PROFIL
 10
71.799999993444402
 20
49.700000000112688
 30
0.0
  0
VERTEX
  5
1E74
  8
SAPA_PROFIL
 10
65.965821207054745
 20
49.700000000112688
 30
0.0
 42
0.4683749459843959
  0
VERTEX
  5
1E75
  8
SAPA_PROFIL
 10
65.699999993444493
 20
49.400000000112968
 30
0.0
  0
VERTEX
  5
1E76
  8
SAPA_PROFIL
 10
65.699999993444493
 20
47.000000000112422
 30
0.0
 42
0.4683749459842226
  0
VERTEX
  5
1E77
  8
SAPA_PROFIL
 10
65.965821207054063
 20
46.700000000112702
 30
0.0
  0
VERTEX
  5
1E78
  8
SAPA_PROFIL
 10
67.399999993444311
 20
46.700000000112702
 30
0.0
 42
-0.5877032589249771
  0
VERTEX
  5
1E79
  8
SAPA_PROFIL
 10
67.655046210754421
 20
46.242039792984642
 30
0.0
  0
VERTEX
  5
1E7A
  8
SAPA_PROFIL
 10
66.882515141685047
 20
44.994693195361023
 30
0.0
 42
-0.2596812337301256
  0
VERTEX
  5
1E7B
  8
SAPA_PROFIL
 10
66.712484330144974
 20
44.900000000112513
 30
0.0
  0
VERTEX
  5
1E7C
  8
SAPA_PROFIL
 10
63.699999996636578
 20
44.900000000112513
 30
0.0
  0
VERTEX
  5
1E7D
  8
SAPA_PROFIL
 10
62.417914081107561
 20
45.394726254479892
 30
0.0
 42
0.4580511809929225
  0
VERTEX
  5
1E7E
  8
SAPA_PROFIL
 10
62.002533698558722
 20
45.210658538827019
 30
0.0
  0
VERTEX
  5
1E7F
  8
SAPA_PROFIL
 10
61.988015289311157
 20
45.162812788828532
 30
0.0
  0
VERTEX
  5
1E80
  8
SAPA_PROFIL
 10
60.483657474495047
 20
45.162729111040903
 30
0.0
 42
-0.4757248385933691
  0
VERTEX
  5
1E81
  8
SAPA_PROFIL
 10
60.182661384042909
 20
45.534386055890643
 30
0.0
  0
VERTEX
  5
1E82
  8
SAPA_PROFIL
 10
60.564107980170398
 20
47.347616526548897
 30
0.0
 42
-0.2350054070140314
  0
VERTEX
  5
1E83
  8
SAPA_PROFIL
 10
61.006088772892852
 20
47.906665443431962
 30
0.0
 42
0.0011882050611145
  0
VERTEX
  5
1E84
  8
SAPA_PROFIL
 10
61.004731095210289
 20
47.907101034972698
 30
0.0
  0
VERTEX
  5
1E85
  8
SAPA_PROFIL
 10
61.25459916855683
 20
48.040630269134567
 30
0.0
 42
-0.5773502691894562
  0
VERTEX
  5
1E86
  8
SAPA_PROFIL
 10
61.548755468811429
 20
47.857676529024609
 30
0.0
  0
VERTEX
  5
1E87
  8
SAPA_PROFIL
 10
61.53819410258469
 20
47.535918800806137
 30
0.0
  0
VERTEX
  5
1E88
  8
SAPA_PROFIL
 10
63.424037794445972
 20
46.451354353834269
 30
0.0
  0
VERTEX
  5
1E89
  8
SAPA_PROFIL
 10
63.595591841069421
 20
46.399297653772557
 30
0.0
 42
0.8292414158590609
  0
VERTEX
  5
1E8A
  8
SAPA_PROFIL
 10
63.791725129601289
 20
46.731293286791328
 30
0.0
 42
-0.2036002236714843
  0
VERTEX
  5
1E8B
  8
SAPA_PROFIL
 10
63.69999999663704
 20
46.947213595612183
 30
0.0
  0
VERTEX
  5
1E8C
  8
SAPA_PROFIL
 10
63.69999999663704
 20
50.800000000112149
 30
0.0
 42
0.4142135623731708
  0
VERTEX
  5
1E8D
  8
SAPA_PROFIL
 10
63.399999996636858
 20
51.100000000112331
 30
0.0
  0
VERTEX
  5
1E8E
  8
SAPA_PROFIL
 10
63.099999996636683
 20
51.100000000112331
 30
0.0
  0
VERTEX
  5
1E8F
  8
SAPA_PROFIL
 10
61.499999996637221
 20
50.176239569408722
 30
0.0
 42
-0.5773502691897499
  0
VERTEX
  5
1E90
  8
SAPA_PROFIL
 10
61.19999999663704
 20
50.349444650165537
 30
0.0
  0
VERTEX
  5
1E91
  8
SAPA_PROFIL
 10
61.199999996636819
 20
51.735085296220973
 30
0.0
 42
-0.2679491924311548
  0
VERTEX
  5
1E92
  8
SAPA_PROFIL
 10
61.699999996636819
 20
52.601110700005513
 30
0.0
  0
VERTEX
  5
1E93
  8
SAPA_PROFIL
 10
63.449999996637047
 20
53.611473671087531
 30
0.0
 42
0.2679491924310984
  0
VERTEX
  5
1E94
  8
SAPA_PROFIL
 10
63.69999999663704
 20
54.044486372980018
 30
0.0
  0
SEQEND
  5
1E95
  8
SAPA_PROFIL
  0
POLYLINE
  5
13B8
  8
SAPA_PROFIL
 66
     1
 10
0.0
 20
0.0
 30
0.0
 70
     1
  0
VERTEX
  5
1E96
  8
SAPA_PROFIL
 10
65.700000000036624
 20
67.99999999995083
 30
0.0
 42
0.4142135623730951
  0
VERTEX
  5
1E97
  8
SAPA_PROFIL
 10
65.400000000036613
 20
67.699999999950819
 30
0.0
  0
VERTEX
  5
1E98
  8
SAPA_PROFIL
 10
65.400000000036613
 20
66.199999999950819
 30
0.0
 42
0.414213562372978
  0
VERTEX
  5
1E99
  8
SAPA_PROFIL
 10
65.600000000036488
 20
65.99999999995083
 30
0.0
  0
VERTEX
  5
1E9A
  8
SAPA_PROFIL
 10
65.699999999082962
 20
65.99999999995083
 30
0.0
 42
-0.4142135624945221
  0
VERTEX
  5
1E9B
  8
SAPA_PROFIL
 10
65.999999999082974
 20
65.699999999826446
 30
0.0
  0
VERTEX
  5
1E9C
  8
SAPA_PROFIL
 10
65.999999998502545
 20
64.299999999826412
 30
0.0
 42
-0.4142135622516715
  0
VERTEX
  5
1E9D
  8
SAPA_PROFIL
 10
65.699999998502534
 20
63.999999999950823
 30
0.0
  0
VERTEX
  5
1E9E
  8
SAPA_PROFIL
 10
65.599999999874598
 20
63.999999999950823
 30
0.0
 42
0.4142135621360125
  0
VERTEX
  5
1E9F
  8
SAPA_PROFIL
 10
65.399999999874609
 20
63.800000000112718
 30
0.0
  0
VERTEX
  5
1EA0
  8
SAPA_PROFIL
 10
65.399999993399121
 20
55.600000000112672
 30
0.0
 42
0.4142135626101776
  0
VERTEX
  5
1EA1
  8
SAPA_PROFIL
 10
65.599999993399109
 20
55.399999999950793
 30
0.0
  0
VERTEX
  5
1EA2
  8
SAPA_PROFIL
 10
65.699999994771218
 20
55.399999999950793
 30
0.0
 42
-0.4142135624945291
  0
VERTEX
  5
1EA3
  8
SAPA_PROFIL
 10
65.99999999477123
 20
55.099999999826409
 30
0.0
  0
VERTEX
  5
1EA4
  8
SAPA_PROFIL
 10
65.999999994190745
 20
53.699999999826431
 30
0.0
 42
-0.4142135622516611
  0
VERTEX
  5
1EA5
  8
SAPA_PROFIL
 10
65.699999994190733
 20
53.399999999950793
 30
0.0
  0
VERTEX
  5
1EA6
  8
SAPA_PROFIL
 10
65.599999993988121
 20
53.399999999950793
 30
0.0
 42
0.4142135622584299
  0
VERTEX
  5
1EA7
  8
SAPA_PROFIL
 10
65.399999993988075
 20
53.200000000029078
 30
0.0
  0
VERTEX
  5
1EA8
  8
SAPA_PROFIL
 10
65.399999993364105
 20
51.700000000075583
 30
0.0
 42
0.4142135624949384
  0
VERTEX
  5
1EA9
  8
SAPA_PROFIL
 10
65.699999993364116
 20
51.399999999950801
 30
0.0
  0
VERTEX
  5
1EAA
  8
SAPA_PROFIL
 10
83.700000003803268
 20
51.399999999950801
 30
0.0
 42
0.4142135623730743
  0
VERTEX
  5
1EAB
  8
SAPA_PROFIL
 10
84.000000003803294
 20
51.699999999950741
 30
0.0
  0
VERTEX
  5
1EAC
  8
SAPA_PROFIL
 10
84.000000003803407
 20
53.199999999950798
 30
0.0
 42
0.4142135623730951
  0
VERTEX
  5
1EAD
  8
SAPA_PROFIL
 10
83.800000003803405
 20
53.399999999950793
 30
0.0
  0
VERTEX
  5
1EAE
  8
SAPA_PROFIL
 10
83.700000003803268
 20
53.399999999950793
 30
0.0
 42
-0.4142135623731125
  0
VERTEX
  5
1EAF
  8
SAPA_PROFIL
 10
83.400000003803257
 20
53.699999999950798
 30
0.0
  0
VERTEX
  5
1EB0
  8
SAPA_PROFIL
 10
83.400000003803257
 20
55.099999999950782
 30
0.0
 42
-0.4142135623730951
  0
VERTEX
  5
1EB1
  8
SAPA_PROFIL
 10
83.700000003803268
 20
55.399999999950793
 30
0.0
  0
VERTEX
  5
1EB2
  8
SAPA_PROFIL
 10
83.800000003803305
 20
55.399999999950793
 30
0.0
 42
0.4142135623730951
  0
VERTEX
  5
1EB3
  8
SAPA_PROFIL
 10
84.000000003803294
 20
55.599999999950782
 30
0.0
  0
VERTEX
  5
1EB4
  8
SAPA_PROFIL
 10
84.000000003803294
 20
63.79999999995082
 30
0.0
 42
0.4142135623730951
  0
VERTEX
  5
1EB5
  8
SAPA_PROFIL
 10
83.800000003803319
 20
63.999999999950809
 30
0.0
  0
VERTEX
  5
1EB6
  8
SAPA_PROFIL
 10
83.700000003803297
 20
63.999999999950809
 30
0.0
 42
-0.4142135623730951
  0
VERTEX
  5
1EB7
  8
SAPA_PROFIL
 10
83.400000003803285
 20
64.299999999950757
 30
0.0
  0
VERTEX
  5
1EB8
  8
SAPA_PROFIL
 10
83.400000003803285
 20
65.699999999950791
 30
0.0
 42
-0.4142135623730951
  0
VERTEX
  5
1EB9
  8
SAPA_PROFIL
 10
83.700000003803297
 20
65.999999999950802
 30
0.0
  0
VERTEX
  5
1EBA
  8
SAPA_PROFIL
 10
83.800000003803319
 20
65.999999999950802
 30
0.0
 42
0.4142135623730951
  0
VERTEX
  5
1EBB
  8
SAPA_PROFIL
 10
84.000000003803294
 20
66.199999999950791
 30
0.0
  0
VERTEX
  5
1EBC
  8
SAPA_PROFIL
 10
84.000000003803436
 20
67.699999999950791
 30
0.0
 42
0.4142135623731159
  0
VERTEX
  5
1EBD
  8
SAPA_PROFIL
 10
83.700000003803424
 20
67.999999999950802
 30
0.0
  0
SEQEND
  5
1EBE
  8
SAPA_PROFIL
  0
POLYLINE
  5
13B9
  8
SAPA_PROFIL
 62
     4
 66
     1
 10
0.0
 20
0.0
 30
0.0
  0
VERTEX
  5
1EBF
  8
SAPA_PROFIL
 62
     4
 10
51.749329119175648
 20
47.604095278225522
 30
0.0
 42
0.5571646428658034
  0
VERTEX
  5
1EC0
  8
SAPA_PROFIL
 62
     4
 10
51.21236861503882
 20
48.471814192381082
 30
0.0
  0
VERTEX
  5
1EC1
  8
SAPA_PROFIL
 62
     4
 10
34.187631378517622
 20
48.47181419238062
 30
0.0
 42
0.5571645048035741
  0
VERTEX
  5
1EC2
  8
SAPA_PROFIL
 62
     4
 10
33.650670761556569
 20
47.604095504514447
 30
0.0
  0
VERTEX
  5
1EC3
  8
SAPA_PROFIL
 62
     4
 10
34.481377849103261
 20
45.937954848446431
 30
0.0
 42
0.284385813979063
  0
VERTEX
  5
1EC4
  8
SAPA_PROFIL
 62
     4
 10
34.74985815758361
 20
45.77181419237899
 30
0.0
  0
VERTEX
  5
1EC5
  8
SAPA_PROFIL
 62
     4
 10
50.650141835972917
 20
45.771814192378983
 30
0.0
 42
0.2843858139786238
  0
VERTEX
  5
1EC6
  8
SAPA_PROFIL
 62
     4
 10
50.918622144453202
 20
45.937954848445912
 30
0.0
  0
VERTEX
  5
1EC7
  8
SAPA_PROFIL
 62
     4
 10
51.74932923200037
 20
47.604095504515257
 30
0.0
  0
SEQEND
  5
1EC8
  8
SAPA_PROFIL
 62
     4
  0
POLYLINE
  5
13BA
  8
SAPA_PROFIL
 62
     4
 66
     1
 10
0.0
 20
0.0
 30
0.0
 70
     1
  0
VERTEX
  5
1EC9
  8
SAPA_PROFIL
 62
     4
 10
28.28238881211098
 20
45.414982677881412
 30
0.0
  0
VERTEX
  5
1ECA
  8
SAPA_PROFIL
 62
     4
 10
28.018365533734961
 20
45.008422481877268
 30
0.0
 42
-0.2539676464751066
  0
VERTEX
  5
1ECB
  8
SAPA_PROFIL
 62
     4
 10
27.766764363350259
 20
44.871814192381173
 30
0.0
  0
VERTEX
  5
1ECC
  8
SAPA_PROFIL
 62
     4
 10
26.385264778144911
 20
44.871814192381173
 30
0.0
 42
-0.3152987888790479
  0
VERTEX
  5
1ECD
  8
SAPA_PROFIL
 62
     4
 10
25.915418467752598
 20
45.200804120719333
 30
0.0
  0
VERTEX
  5
1ECE
  8
SAPA_PROFIL
 62
     4
 10
25.019749526843992
 20
47.661634311170602
 30
0.0
 42
0.2694959974287434
  0
VERTEX
  5
1ECF
  8
SAPA_PROFIL
 62
     4
 10
24.788230480442628
 20
47.854766285514501
 30
0.0
 42
0.0612686379508233
  0
VERTEX
  5
1ED0
  8
SAPA_PROFIL
 62
     4
 10
24.49555504758936
 20
47.868349656145007
 30
0.0
  0
VERTEX
  5
1ED1
  8
SAPA_PROFIL
 62
     4
 10
24.14613687028109
 20
48.070086334873842
 30
0.0
 42
0.5773502691891679
  0
VERTEX
  5
1ED2
  8
SAPA_PROFIL
 62
     4
 10
23.831136870281512
 20
47.88822100007927
 30
0.0
  0
VERTEX
  5
1ED3
  8
SAPA_PROFIL
 62
     4
 10
23.831136870281259
 20
47.621106471952949
 30
0.0
  0
VERTEX
  5
1ED4
  8
SAPA_PROFIL
 62
     4
 10
22.432609169647009
 20
46.812423010644643
 30
0.0
 42
-0.1318219888653519
  0
VERTEX
  5
1ED5
  8
SAPA_PROFIL
 62
     4
 10
22.282436067174661
 20
46.772130614107247
 30
0.0
  0
VERTEX
  5
1ED6
  8
SAPA_PROFIL
 62
     4
 10
22.099999996737878
 20
46.772130614113621
 30
0.0
 42
-0.4142135623724291
  0
VERTEX
  5
1ED7
  8
SAPA_PROFIL
 62
     4
 10
21.69999999673734
 20
47.17213061411325
 30
0.0
  0
VERTEX
  5
1ED8
  8
SAPA_PROFIL
 62
     4
 10
21.699999996738711
 20
50.572130614114258
 30
0.0
 42
-0.4142135623744271
  0
VERTEX
  5
1ED9
  8
SAPA_PROFIL
 62
     4
 10
22.099999996737878
 20
50.972130614115258
 30
0.0
  0
VERTEX
  5
1EDA
  8
SAPA_PROFIL
 62
     4
 10
22.279615239009189
 20
50.972130614115883
 30
0.0
 42
-0.1316524975874005
  0
VERTEX
  5
1EDB
  8
SAPA_PROFIL
 62
     4
 10
22.429615239006001
 20
50.931938235250293
 30
0.0
  0
VERTEX
  5
1EDC
  8
SAPA_PROFIL
 62
     4
 10
24.033753136008261
 20
50.005788788597762
 30
0.0
 42
0.1316524975875904
  0
VERTEX
  5
1EDD
  8
SAPA_PROFIL
 62
     4
 10
24.53375313600997
 20
49.871814192382992
 30
0.0
  0
VERTEX
  5
1EDE
  8
SAPA_PROFIL
 62
     4
 10
24.94999999673734
 20
49.871814192382992
 30
0.0
 42
0.4142135623730951
  0
VERTEX
  5
1EDF
  8
SAPA_PROFIL
 62
     4
 10
25.94999999673734
 20
50.871814192382992
 30
0.0
  0
VERTEX
  5
1EE0
  8
SAPA_PROFIL
 62
     4
 10
25.94999999673734
 20
53.871814192380263
 30
0.0
 42
-0.9999996830128083
  0
VERTEX
  5
1EE1
  8
SAPA_PROFIL
 62
     4
 10
26.94999999673734
 20
53.871814192382082
 30
0.0
  0
VERTEX
  5
1EE2
  8
SAPA_PROFIL
 62
     4
 10
26.94999999673734
 20
50.871814192382082
 30
0.0
 42
0.4142135623730951
  0
VERTEX
  5
1EE3
  8
SAPA_PROFIL
 62
     4
 10
27.94999999673734
 20
49.871814192382082
 30
0.0
  0
VERTEX
  5
1EE4
  8
SAPA_PROFIL
 62
     4
 10
57.449999996821923
 20
49.871814192382082
 30
0.0
 42
0.4142135623730951
  0
VERTEX
  5
1EE5
  8
SAPA_PROFIL
 62
     4
 10
58.449999996821923
 20
50.871814192382068
 30
0.0
  0
VERTEX
  5
1EE6
  8
SAPA_PROFIL
 62
     4
 10
58.449999996821923
 20
53.871814192380249
 30
0.0
 42
-0.9999999999999998
  0
VERTEX
  5
1EE7
  8
SAPA_PROFIL
 62
     4
 10
59.449999996821923
 20
53.871814192380249
 30
0.0
  0
VERTEX
  5
1EE8
  8
SAPA_PROFIL
 62
     4
 10
59.449999996821923
 20
50.871814192382068
 30
0.0
 42
0.4142135623736278
  0
VERTEX
  5
1EE9
  8
SAPA_PROFIL
 62
     4
 10
60.449999996821923
 20
49.871814192382082
 30
0.0
  0
VERTEX
  5
1EEA
  8
SAPA_PROFIL
 62
     4
 10
60.866246857548383
 20
49.871814192382082
 30
0.0
 42
0.1316524975874375
  0
VERTEX
  5
1EEB
  8
SAPA_PROFIL
 62
     4
 10
61.366246857548582
 20
50.00578878859811
 30
0.0
  0
VERTEX
  5
1EEC
  8
SAPA_PROFIL
 62
     4
 10
62.97038475455053
 20
50.931938235250279
 30
0.0
 42
-0.1316524975874
  0
VERTEX
  5
1EED
  8
SAPA_PROFIL
 62
     4
 10
63.120384754550081
 20
50.972130614115869
 30
0.0
  0
VERTEX
  5
1EEE
  8
SAPA_PROFIL
 62
     4
 10
63.29999999682137
 20
50.972130614115237
 30
0.0
 42
-0.4142135623744271
  0
VERTEX
  5
1EEF
  8
SAPA_PROFIL
 62
     4
 10
63.699999996820559
 20
50.572130614114243
 30
0.0
  0
VERTEX
  5
1EF0
  8
SAPA_PROFIL
 62
     4
 10
63.699999996821923
 20
47.172130614113243
 30
0.0
 42
-0.4142135623724291
  0
VERTEX
  5
1EF1
  8
SAPA_PROFIL
 62
     4
 10
63.29999999682137
 20
46.7721306141136
 30
0.0
  0
VERTEX
  5
1EF2
  8
SAPA_PROFIL
 62
     4
 10
63.117563926384598
 20
46.77213061410724
 30
0.0
 42
-0.1318219888653524
  0
VERTEX
  5
1EF3
  8
SAPA_PROFIL
 62
     4
 10
62.967390823912247
 20
46.812423010644629
 30
0.0
  0
VERTEX
  5
1EF4
  8
SAPA_PROFIL
 62
     4
 10
61.5688631234326
 20
47.621106471868963
 30
0.0
  0
VERTEX
  5
1EF5
  8
SAPA_PROFIL
 62
     4
 10
61.5688631234326
 20
47.888221000081998
 30
0.0
 42
0.577350269189159
  0
VERTEX
  5
1EF6
  8
SAPA_PROFIL
 62
     4
 10
61.253863123433
 20
48.070086334876571
 30
0.0
  0
VERTEX
  5
1EF7
  8
SAPA_PROFIL
 62
     4
 10
60.90444494621434
 20
47.868349656199463
 30
0.0
 42
0.0612687673629489
  0
VERTEX
  5
1EF8
  8
SAPA_PROFIL
 62
     4
 10
60.611769513114133
 20
47.85476628551325
 30
0.0
 42
0.2694959974285039
  0
VERTEX
  5
1EF9
  8
SAPA_PROFIL
 62
     4
 10
60.380250466713612
 20
47.661634311169308
 30
0.0
  0
VERTEX
  5
1EFA
  8
SAPA_PROFIL
 62
     4
 10
59.484581525803939
 20
45.200804120716143
 30
0.0
 42
-0.3152987888784035
  0
VERTEX
  5
1EFB
  8
SAPA_PROFIL
 62
     4
 10
59.01473521541071
 20
44.87181419237956
 30
0.0
  0
VERTEX
  5
1EFC
  8
SAPA_PROFIL
 62
     4
 10
57.633235630206279
 20
44.871814192381159
 30
0.0
 42
-0.2539676464741841
  0
VERTEX
  5
1EFD
  8
SAPA_PROFIL
 62
     4
 10
57.381634459822202
 20
45.008422481876437
 30
0.0
  0
VERTEX
  5
1EFE
  8
SAPA_PROFIL
 62
     4
 10
57.117611181445561
 20
45.414982677881412
 30
0.0
 42
-0.5862177598324623
  0
VERTEX
  5
1EFF
  8
SAPA_PROFIL
 62
     4
 10
57.373352996683913
 20
45.871814192377919
 30
0.0
  0
VERTEX
  5
1F00
  8
SAPA_PROFIL
 62
     4
 10
58.314527677193723
 20
45.871814192370252
 30
0.0
 42
0.3152987888813165
  0
VERTEX
  5
1F01
  8
SAPA_PROFIL
 62
     4
 10
58.784373987591472
 20
46.200804120706998
 30
0.0
  0
VERTEX
  5
1F02
  8
SAPA_PROFIL
 62
     4
 10
59.221138268715428
 20
47.400804120718227
 30
0.0
 42
0.5205670505515651
  0
VERTEX
  5
1F03
  8
SAPA_PROFIL
 62
     4
 10
58.751291958322199
 20
48.071814192380977
 30
0.0
  0
VERTEX
  5
1F04
  8
SAPA_PROFIL
 62
     4
 10
53.734851017653362
 20
48.071814192381012
 30
0.0
 42
0.3702522326300203
  0
VERTEX
  5
1F05
  8
SAPA_PROFIL
 62
     4
 10
53.438327655860022
 20
47.817354239715307
 30
0.0
 42
0.0982365330332397
  0
VERTEX
  5
1F06
  8
SAPA_PROFIL
 62
     4
 10
53.347874897649092
 20
46.129667464720299
 30
0.0
 42
0.3735060174783164
  0
VERTEX
  5
1F07
  8
SAPA_PROFIL
 62
     4
 10
53.64489956556006
 20
45.871814192380263
 30
0.0
  0
VERTEX
  5
1F08
  8
SAPA_PROFIL
 62
     4
 10
54.073352996682722
 20
45.871814192379347
 30
0.0
 42
-0.5920056181162531
  0
VERTEX
  5
1F09
  8
SAPA_PROFIL
 62
     4
 10
54.326361753000121
 20
45.410610689851417
 30
0.0
  0
VERTEX
  5
1F0A
  8
SAPA_PROFIL
 62
     4
 10
54.065177676844421
 20
45.008422481873119
 30
0.0
 42
-0.2539676464746725
  0
VERTEX
  5
1F0B
  8
SAPA_PROFIL
 62
     4
 10
53.813576506460663
 20
44.871814192377769
 30
0.0
  0
VERTEX
  5
1F0C
  8
SAPA_PROFIL
 62
     4
 10
31.586423487094969
 20
44.871814192379347
 30
0.0
 42
-0.2539676464741819
  0
VERTEX
  5
1F0D
  8
SAPA_PROFIL
 62
     4
 10
31.33482231671211
 20
45.008422481873133
 30
0.0
  0
VERTEX
  5
1F0E
  8
SAPA_PROFIL
 62
     4
 10
31.07363824055831
 20
45.41061068985146
 30
0.0
 42
-0.5920055144124249
  0
VERTEX
  5
1F0F
  8
SAPA_PROFIL
 62
     4
 10
31.326646996873809
 20
45.871814192379347
 30
0.0
  0
VERTEX
  5
1F10
  8
SAPA_PROFIL
 62
     4
 10
31.755100474164031
 20
45.871814167104347
 30
0.0
 42
0.3735060174775405
  0
VERTEX
  5
1F11
  8
SAPA_PROFIL
 62
     4
 10
32.05212514207372
 20
46.129667439444432
 30
0.0
 42
0.0355900683670349
  0
VERTEX
  5
1F12
  8
SAPA_PROFIL
 62
     4
 10
32.096018706105973
 20
46.745541026244219
 30
0.0
 42
0.0624282003873116
  0
VERTEX
  5
1F13
  8
SAPA_PROFIL
 62
     4
 10
31.961672383863039
 20
47.817354214439348
 30
0.0
 42
0.3702522326309292
  0
VERTEX
  5
1F14
  8
SAPA_PROFIL
 62
     4
 10
31.665149022069659
 20
48.071814167105067
 30
0.0
  0
VERTEX
  5
1F15
  8
SAPA_PROFIL
 62
     4
 10
26.648708035236151
 20
48.071814192381211
 30
0.0
 42
0.5205670505515692
  0
VERTEX
  5
1F16
  8
SAPA_PROFIL
 62
     4
 10
26.178861724842928
 20
47.400804120718242
 30
0.0
  0
VERTEX
  5
1F17
  8
SAPA_PROFIL
 62
     4
 10
26.615626005967879
 20
46.200804120708789
 30
0.0
 42
0.3152987888807539
  0
VERTEX
  5
1F18
  8
SAPA_PROFIL
 62
     4
 10
27.085472316363731
 20
45.871814192371168
 30
0.0
  0
VERTEX
  5
1F19
  8
SAPA_PROFIL
 62
     4
 10
28.02664699687281
 20
45.87181419237799
 30
0.0
 42
-0.5862175119221242
  0
VERTEX
  5
1F1A
  8
SAPA_PROFIL
 62
     4
 10
28.282388927854772
 20
45.414982866622843
 30
0.0
 42
0.0000002084758573
  0
SEQEND
  5
1F1B
  8
SAPA_PROFIL
 62
     4
  0
CIRCLE
  5
13BB
  8
SAPA_PROFIL
 62
     2
 10
3.6919935880847561
 20
15.561592377096529
 30
0.0
 40
0.8999999999999985
  0
POLYLINE
  5
13BC
  8
SAPA_PROFIL
 62
     2
 66
     1
 10
0.0
 20
0.0
 30
0.0
  0
VERTEX
  5
1F1C
  8
SAPA_PROFIL
 62
     2
 10
4.9999999996578017
 20
16.961592377096508
 30
0.0
  0
VERTEX
  5
1F1D
  8
SAPA_PROFIL
 62
     2
 10
3.9090811895050588
 20
16.76923395710412
 30
0.0
  0
VERTEX
  5
1F1E
  8
SAPA_PROFIL
 62
     2
 10
3.793381649985121
 20
17.20103051700573
 30
0.0
 42
0.4430158954262519
  0
VERTEX
  5
1F1F
  8
SAPA_PROFIL
 62
     2
 10
3.5299052218781521
 20
17.33650756454983
 30
0.0
  0
VERTEX
  5
1F20
  8
SAPA_PROFIL
 62
     2
 10
2.2594174739599562
 20
16.859559371330871
 30
0.0
 42
0.3125358528825162
  0
VERTEX
  5
1F21
  8
SAPA_PROFIL
 62
     2
 10
1.9999999996582569
 20
16.485077658201469
 30
0.0
  0
VERTEX
  5
1F22
  8
SAPA_PROFIL
 62
     2
 10
1.999999999657802
 20
14.61492234229115
 30
0.0
 42
0.3125358528825104
  0
VERTEX
  5
1F23
  8
SAPA_PROFIL
 62
     2
 10
2.2594174739599562
 20
14.24044062916175
 30
0.0
  0
VERTEX
  5
1F24
  8
SAPA_PROFIL
 62
     2
 10
3.5299052218781521
 20
13.76349243594257
 30
0.0
 42
0.4430158954262519
  0
VERTEX
  5
1F25
  8
SAPA_PROFIL
 62
     2
 10
3.7933816499850082
 20
13.89896948348666
 30
0.0
  0
VERTEX
  5
1F26
  8
SAPA_PROFIL
 62
     2
 10
3.9090811895050588
 20
14.3307660433885
 30
0.0
  0
VERTEX
  5
1F27
  8
SAPA_PROFIL
 62
     2
 10
4.9999999996578017
 20
14.138500000246269
 30
0.0
  0
SEQEND
  5
1F28
  8
SAPA_PROFIL
 62
     2
  0
POLYLINE
  5
13BD
  8
SAPA_PROFIL
 62
     2
 66
     1
 10
0.0
 20
0.0
 30
0.0
 70
     1
  0
VERTEX
  5
1F29
  8
SAPA_PROFIL
 62
     2
 10
4.9999999996578017
 20
16.950000000246181
 30
0.0
 42
-0.285714285714282
  0
VERTEX
  5
1F2A
  8
SAPA_PROFIL
 62
     2
 10
4.9999999996578017
 20
14.150000000246219
 30
0.0
  0
VERTEX
  5
1F2B
  8
SAPA_PROFIL
 62
     2
 10
4.9999999996582574
 20
12.076219830858349
 30
0.0
 42
0.3882600129940275
  0
VERTEX
  5
1F2C
  8
SAPA_PROFIL
 62
     2
 10
5.2732107259378154
 20
11.77741833351695
 30
0.0
  0
VERTEX
  5
1F2D
  8
SAPA_PROFIL
 62
     2
 10
9.1732107259379063
 20
11.311208409590449
 30
0.0
 42
0.4406523138893894
  0
VERTEX
  5
1F2E
  8
SAPA_PROFIL
 62
     2
 10
9.4999999996578026
 20
11.6100099069323
 30
0.0
  0
VERTEX
  5
1F2F
  8
SAPA_PROFIL
 62
     2
 10
9.4999999996578026
 20
13.31980190385263
 30
0.0
 42
0.3394542588634375
  0
VERTEX
  5
1F30
  8
SAPA_PROFIL
 62
     2
 10
9.2776457131888037
 20
13.60957965173918
 30
0.0
  0
VERTEX
  5
1F31
  8
SAPA_PROFIL
 62
     2
 10
9.0600599310212147
 20
13.811959379670609
 30
0.0
 42
-0.3394542588633663
  0
VERTEX
  5
1F32
  8
SAPA_PROFIL
 62
     2
 10
8.8377056445522157
 20
14.10173712755738
 30
0.0
  0
VERTEX
  5
1F33
  8
SAPA_PROFIL
 62
     2
 10
8.8377056445522157
 20
16.998262872935239
 30
0.0
 42
-0.3394542588634373
  0
VERTEX
  5
1F34
  8
SAPA_PROFIL
 62
     2
 10
9.0600599310212147
 20
17.288040620821789
 30
0.0
  0
VERTEX
  5
1F35
  8
SAPA_PROFIL
 62
     2
 10
9.2776457131888037
 20
17.490420348753219
 30
0.0
 42
0.3394542588633662
  0
VERTEX
  5
1F36
  8
SAPA_PROFIL
 62
     2
 10
9.4999999996578026
 20
17.780198096639989
 30
0.0
  0
VERTEX
  5
1F37
  8
SAPA_PROFIL
 62
     2
 10
9.4999999996578026
 20
19.489990093560088
 30
0.0
 42
0.4406523138893994
  0
VERTEX
  5
1F38
  8
SAPA_PROFIL
 62
     2
 10
9.1732107259379063
 20
19.78879159090172
 30
0.0
  0
VERTEX
  5
1F39
  8
SAPA_PROFIL
 62
     2
 10
5.2732107259378154
 20
19.322581666975449
 30
0.0
 42
0.3882600129940462
  0
VERTEX
  5
1F3A
  8
SAPA_PROFIL
 62
     2
 10
4.9999999996578017
 20
19.023780169634051
 30
0.0
  0
VERTEX
  5
1F3B
  8
SAPA_PROFIL
 62
     2
 10
4.9999999996578017
 20
16.961592377096508
 30
0.0
  0
SEQEND
  5
1F3C
  8
SAPA_PROFIL
 62
     2
  0
LINE
  5
13BE
  8
SAPA_PROFIL
 10
207.7919203736798
 20
22.950571022656849
 30
0.0
 11
207.79192037240151
 21
-3.299428977343204
 31
0.0
  0
ARC
  5
13BF
  8
SAPA_PROFIL
 10
207.13066346144879
 20
22.93917552664082
 30
0.0
 40
0.6613550947128446
 50
0.9872852633763903
 51
80.743171285754144
  0
LINE
  5
13C0
  8
SAPA_PROFIL
 10
11.87374710941554
 20
23.59191793172403
 30
0.0
 11
207.2370491730583
 21
23.591917927338049
 31
0.0
  0
ARC
  5
13C1
  8
SAPA_PROFIL
 10
11.962771854752379
 20
22.843631713872941
 30
0.0
 40
0.7535633145981674
 50
96.784675055440246
 51
179.67698003118349
  0
LINE
  5
13C2
  8
SAPA_PROFIL
 10
11.2092205146082
 20
-3.29942897290828
 30
0.0
 11
11.2092205158865
 21
22.84788010199129
 31
0.0
  0
LINE
  5
13C3
  8
SAPA_PROFIL
 10
10.10057044349742
 20
-3.2994289728473438
 30
0.0
 11
11.2092205146082
 21
-3.29942897290828
 31
0.0
  0
LINE
  5
13C4
  8
SAPA_PROFIL
 10
10.10057044481232
 20
23.501301970689219
 30
0.0
 11
10.10057044349742
 21
-3.2994289728473438
 31
0.0
  0
ARC
  5
13C5
  8
SAPA_PROFIL
 10
11.33818614756459
 20
23.46620576928197
 30
0.0
 40
1.238113230303358
 50
94.459285335750764
 51
178.37564645748819
  0
LINE
  5
13C6
  8
SAPA_PROFIL
 10
207.759218863375
 20
24.70056497414323
 30
0.0
 11
11.241922024783889
 21
24.70057102710377
 31
0.0
  0
ARC
  5
13C7
  8
SAPA_PROFIL
 10
207.84861542675861
 20
23.651255868652608
 30
0.0
 40
1.0531103192022759
 50
2.6840339839966001
 51
94.869591814917655
  0
LINE
  5
13C8
  8
SAPA_PROFIL
 10
208.9005704434939
 20
-3.2994289773949879
 30
0.0
 11
208.90057044480881
 21
23.700571022604901
 31
0.0
  0
LINE
  5
13C9
  8
SAPA_PROFIL
 10
207.79192037240151
 20
-3.299428977343204
 30
0.0
 11
208.9005704434939
 21
-3.2994289773949879
 31
0.0
  0
POLYLINE
  5
13F7
  8
SAPA_GLAS
 66
     1
 10
0.0
 20
0.0
 30
0.0
 70
     1
  0
VERTEX
  5
1F56
  8
SAPA_GLAS
 10
14.697430856000279
 20
132.19999970228849
 30
0.0
  0
VERTEX
  5
1F57
  8
SAPA_GLAS
 10
29.697430856000281
 20
132.19999970228849
 30
0.0
  0
VERTEX
  5
1F58
  8
SAPA_GLAS
 10
29.697430856000281
 20
122.19999970228859
 30
0.0
  0
VERTEX
  5
1F59
  8
SAPA_GLAS
 10
14.697430856000279
 20
122.19999970228859
 30
0.0
  0
SEQEND
  5
1F5A
  8
SAPA_GLAS
  0
POLYLINE
  5
13F8
  8
SAPA_GLAS
 66
     1
 10
0.0
 20
0.0
 30
0.0
 70
     1
  0
VERTEX
  5
1F5B
  8
SAPA_GLAS
 10
33.697430856000281
 20
132.19999970228849
 30
0.0
  0
VERTEX
  5
1F5C
  8
SAPA_GLAS
 10
48.697430856000281
 20
132.19999970228849
 30
0.0
  0
VERTEX
  5
1F5D
  8
SAPA_GLAS
 10
48.697430856000281
 20
122.19999970228859
 30
0.0
  0
VERTEX
  5
1F5E
  8
SAPA_GLAS
 10
33.697430856000281
 20
122.19999970228859
 30
0.0
  0
SEQEND
  5
1F5F
  8
SAPA_GLAS
  0
POLYLINE
  5
13F9
  8
SAPA_GLAS
 66
     1
 10
0.0
 20
0.0
 30
0.0
  0
VERTEX
  5
1F60
  8
SAPA_GLAS
 10
33.697430856000281
 20
152.1999997022883
 30
0.0
  0
VERTEX
  5
1F61
  8
SAPA_GLAS
 10
33.697430856000281
 20
122.1999997022883
 30
0.0
  0
VERTEX
  5
1F62
  8
SAPA_GLAS
 10
29.697430856000281
 20
122.1999997022883
 30
0.0
  0
VERTEX
  5
1F63
  8
SAPA_GLAS
 10
29.697430856000281
 20
152.1999997022883
 30
0.0
  0
SEQEND
  5
1F64
  8
SAPA_GLAS
  0
POLYLINE
  5
13FA
  8
SAPA_GLAS
 66
     1
 10
0.0
 20
0.0
 30
0.0
  0
VERTEX
  5
1F65
  8
SAPA_GLAS
 10
54.697430856000288
 20
152.1999997022883
 30
0.0
  0
VERTEX
  5
1F66
  8
SAPA_GLAS
 10
54.697430856000281
 20
122.1999997022883
 30
0.0
  0
VERTEX
  5
1F67
  8
SAPA_GLAS
 10
48.697430856000281
 20
122.1999997022883
 30
0.0
  0
VERTEX
  5
1F68
  8
SAPA_GLAS
 10
48.697430856000281
 20
152.1999997022883
 30
0.0
  0
SEQEND
  5
1F69
  8
SAPA_GLAS
  0
POLYLINE
  5
13FB
  8
SAPA_GLAS
 66
     1
 10
0.0
 20
0.0
 30
0.0
  0
VERTEX
  5
1F6A
  8
SAPA_GLAS
 10
8.6974308560002811
 20
152.1999997022883
 30
0.0
  0
VERTEX
  5
1F6B
  8
SAPA_GLAS
 10
8.6974308560002811
 20
122.1999997022883
 30
0.0
  0
VERTEX
  5
1F6C
  8
SAPA_GLAS
 10
14.697430856000279
 20
122.1999997022883
 30
0.0
  0
VERTEX
  5
1F6D
  8
SAPA_GLAS
 10
14.697430856000279
 20
152.1999997022883
 30
0.0
  0
SEQEND
  5
1F6E
  8
SAPA_GLAS
  0
INSERT
  5
1402
  8
SAPA_FYLLNING
  6
CONTINUOUS
  2
*X107
 10
0.0
 20
0.0
 30
0.0
1001
ACAD
1000
HATCH
1002
{
1070
    19
1000
HEX
1040
0.25
1040
-3.1415926535897931
1000
R14_HATCH_DATA
1000
1402
1011
1.0
1021
0.0
1031
0.0
1021
0.0
1031
0.0
1011
0.0
1021
0.0
1031
0.0
1021
1.0
1031
0.0
1011
0.0
1021
0.0
1031
0.0
1021
0.0
1031
1.0
1040
0.0
1010
0.0
1020
0.0
1030
1.0
1000
HEX
1070
     0
1070
     0
1071
        1
1071
        7
1070
     1
1070
     1
1071
        2
1040
215.50057044424571
1040
4.200568000640053
1040
1.0
1040
209.50057044424551
1040
4.200568000640053
1040
1.0
1071
        0
1070
     0
1070
     1
1040
-3.1415926535897931
1040
0.25
1070
     0
1070
     3
1040
6.2831853071795862
1040
85.699999999798976
1040
74.700568000616471
1040
0.0
1040
-1.374814999999999
1070
     2
1040
0.79375
1040
-1.587499999999999
1040
4.1887902047863914
1040
85.699999999798976
1040
74.700568000616471
1040
-1.190624715503902
1040
0.6874074999999996
1070
     2
1040
0.7937499999999998
1040
-1.587499999999999
1040
5.2359877559829879
1040
86.493749999798965
1040
74.700568000616471
1040
-1.190624715503902
1040
-0.6874075000000001
1070
     2
1040
0.7937499999999998
1040
-1.587499999999999
1040
0.0216905703044498
1071
        1
1040
212.7871423868707
1040
4.1346318219782239
1040
0.0
1002
}
  0
INSERT
  5
1403
  8
SAPA_FYLLNING
  6
CONTINUOUS
  2
*X108
 10
0.0
 20
0.0
 30
0.0
1001
ACAD
1000
HATCH
1002
{
1070
    19
1000
ANSI37
1040
0.25
1040
-3.1415926535897931
1000
R14_HATCH_DATA
1000
1403
1011
1.0
1021
0.0
1031
0.0
1021
0.0
1031
0.0
1011
0.0
1021
0.0
1031
0.0
1021
1.0
1031
0.0
1011
0.0
1021
0.0
1031
0.0
1021
0.0
1031
1.0
1040
0.0
1010
0.0
1020
0.0
1030
1.0
1000
ANSI37
1070
     0
1070
     0
1071
        1
1071
        7
1070
     1
1070
     1
1071
        9
1040
209.50057044424511
1040
-2.3196337967111371
1040
0.0
1040
209.50057044424511
1040
4.2005680006407209
1040
1.0
1040
215.5005704442452
1040
4.2005680006407209
1040
0.0
1040
215.5005704442452
1040
2.614781563017551
1040
-0.1989123673796868
1040
215.4127024786018
1040
2.4026495286617329
1040
0.0
1040
215.14701705365241
1040
2.1369641037127631
1040
0.4142135623730951
1040
215.14701705365189
1040
1.429857322526096
1040
0.0
1040
216.7884384098885
1040
-0.2115640337105091
1040
0.2679491924312271
1040
217.0782161577753
1040
-0.28920974724155
1040
0.0
1071
        0
1070
     0
1070
     1
1040
-3.1415926535897931
1040
0.25
1070
     0
1070
     2
1040
5.4977871437821371
1040
85.699999999798976
1040
74.700568000616471
1040
-0.5612660075668221
1040
-0.5612660075668221
1070
     0
1040
3.9269908169872401
1040
85.699999999798976
1040
74.700568000616471
1040
-0.5612660075668221
1040
0.5612660075668221
1070
     0
1040
0.0212842410303403
1071
        1
1040
211.5993524241282
1040
-0.3433172294221762
1040
0.0
1002
}
  0
POLYLINE
  5
1414
  8
SAPA_FOGBAND
 62
     2
 10
58.288806227786829
 20
126.9737851483366
 30
0.0
 66
     1
 70
     8
  0
VERTEX
  8
SAPA_FOGBAND
  5
2115
 10
58.2888
 20
126.974
 30
0.000000
  70
    32
  0
VERTEX
  8
SAPA_FOGBAND
  5
2116
 10
58.2201
 20
126.971
 30
0.000000
  70
    32
  0
VERTEX
  8
SAPA_FOGBAND
  5
2117
 10
58.1516
 20
126.963
 30
0.000000
  70
    32
  0
VERTEX
  8
SAPA_FOGBAND
  5
2118
 10
58.0834
 20
126.950
 30
0.000000
  70
    32
  0
VERTEX
  8
SAPA_FOGBAND
  5
2119
 10
58.0157
 20
126.932
 30
0.000000
  70
    32
  0
VERTEX
  8
SAPA_FOGBAND
  5
211A
 10
57.9486
 20
126.909
 30
0.000000
  70
    32
  0
VERTEX
  8
SAPA_FOGBAND
  5
211B
 10
57.8824
 20
126.880
 30
0.000000
  70
    32
  0
VERTEX
  8
SAPA_FOGBAND
  5
211C
 10
57.8172
 20
126.847
 30
0.000000
  70
    32
  0
VERTEX
  8
SAPA_FOGBAND
  5
211D
 10
57.7530
 20
126.809
 30
0.000000
  70
    32
  0
VERTEX
  8
SAPA_FOGBAND
  5
211E
 10
57.6902
 20
126.766
 30
0.000000
  70
    32
  0
VERTEX
  8
SAPA_FOGBAND
  5
211F
 10
57.6289
 20
126.718
 30
0.000000
  70
    32
  0
VERTEX
  8
SAPA_FOGBAND
  5
2120
 10
57.5691
 20
126.665
 30
0.000000
  70
    32
  0
VERTEX
  8
SAPA_FOGBAND
  5
2121
 10
57.5110
 20
126.608
 30
0.000000
  70
    32
  0
VERTEX
  8
SAPA_FOGBAND
  5
2122
 10
57.4548
 20
126.547
 30
0.000000
  70
    32
  0
VERTEX
  8
SAPA_FOGBAND
  5
2123
 10
57.4007
 20
126.482
 30
0.000000
  70
    32
  0
VERTEX
  8
SAPA_FOGBAND
  5
2124
 10
57.3486
 20
126.412
 30
0.000000
  70
    32
  0
VERTEX
  8
SAPA_FOGBAND
  5
2125
 10
57.2989
 20
126.339
 30
0.000000
  70
    32
  0
VERTEX
  8
SAPA_FOGBAND
  5
2126
 10
57.2515
 20
126.262
 30
0.000000
  70
    32
  0
VERTEX
  8
SAPA_FOGBAND
  5
2127
 10
57.2066
 20
126.181
 30
0.000000
  70
    32
  0
VERTEX
  8
SAPA_FOGBAND
  5
2128
 10
57.1643
 20
126.097
 30
0.000000
  70
    32
  0
VERTEX
  8
SAPA_FOGBAND
  5
2129
 10
57.1247
 20
126.010
 30
0.000000
  70
    32
  0
VERTEX
  8
SAPA_FOGBAND
  5
212A
 10
57.0880
 20
125.920
 30
0.000000
  70
    32
  0
VERTEX
  8
SAPA_FOGBAND
  5
212B
 10
57.0541
 20
125.828
 30
0.000000
  70
    32
  0
VERTEX
  8
SAPA_FOGBAND
  5
212C
 10
57.0232
 20
125.733
 30
0.000000
  70
    32
  0
VERTEX
  8
SAPA_FOGBAND
  5
212D
 10
56.9954
 20
125.636
 30
0.000000
  70
    32
  0
VERTEX
  8
SAPA_FOGBAND
  5
212E
 10
56.9706
 20
125.536
 30
0.000000
  70
    32
  0
VERTEX
  8
SAPA_FOGBAND
  5
212F
 10
56.9491
 20
125.435
 30
0.000000
  70
    32
  0
VERTEX
  8
SAPA_FOGBAND
  5
2130
 10
56.9308
 20
125.333
 30
0.000000
  70
    32
  0
VERTEX
  8
SAPA_FOGBAND
  5
2131
 10
56.9157
 20
125.229
 30
0.000000
  70
    32
  0
VERTEX
  8
SAPA_FOGBAND
  5
2132
 10
56.9040
 20
125.124
 30
0.000000
  70
    32
  0
VERTEX
  8
SAPA_FOGBAND
  5
2133
 10
56.8955
 20
125.018
 30
0.000000
  70
    32
  0
VERTEX
  8
SAPA_FOGBAND
  5
2134
 10
56.8905
 20
124.912
 30
0.000000
  70
    32
  0
VERTEX
  8
SAPA_FOGBAND
  5
2135
 10
56.8888
 20
124.806
 30
0.000000
  70
    32
  0
VERTEX
  8
SAPA_FOGBAND
  5
2136
 10
56.8905
 20
124.700
 30
0.000000
  70
    32
  0
VERTEX
  8
SAPA_FOGBAND
  5
2137
 10
56.8955
 20
124.594
 30
0.000000
  70
    32
  0
VERTEX
  8
SAPA_FOGBAND
  5
2138
 10
56.9040
 20
124.488
 30
0.000000
  70
    32
  0
VERTEX
  8
SAPA_FOGBAND
  5
2139
 10
56.9157
 20
124.383
 30
0.000000
  70
    32
  0
VERTEX
  8
SAPA_FOGBAND
  5
213A
 10
56.9308
 20
124.279
 30
0.000000
  70
    32
  0
VERTEX
  8
SAPA_FOGBAND
  5
213B
 10
56.9491
 20
124.177
 30
0.000000
  70
    32
  0
VERTEX
  8
SAPA_FOGBAND
  5
213C
 10
56.9706
 20
124.076
 30
0.000000
  70
    32
  0
VERTEX
  8
SAPA_FOGBAND
  5
213D
 10
56.9954
 20
123.976
 30
0.000000
  70
    32
  0
VERTEX
  8
SAPA_FOGBAND
  5
213E
 10
57.0232
 20
123.879
 30
0.000000
  70
    32
  0
VERTEX
  8
SAPA_FOGBAND
  5
213F
 10
57.0541
 20
123.784
 30
0.000000
  70
    32
  0
VERTEX
  8
SAPA_FOGBAND
  5
2140
 10
57.0880
 20
123.692
 30
0.000000
  70
    32
  0
VERTEX
  8
SAPA_FOGBAND
  5
2141
 10
57.1247
 20
123.602
 30
0.000000
  70
    32
  0
VERTEX
  8
SAPA_FOGBAND
  5
2142
 10
57.1643
 20
123.515
 30
0.000000
  70
    32
  0
VERTEX
  8
SAPA_FOGBAND
  5
2143
 10
57.2066
 20
123.431
 30
0.000000
  70
    32
  0
VERTEX
  8
SAPA_FOGBAND
  5
2144
 10
57.2515
 20
123.350
 30
0.000000
  70
    32
  0
VERTEX
  8
SAPA_FOGBAND
  5
2145
 10
57.2989
 20
123.273
 30
0.000000
  70
    32
  0
VERTEX
  8
SAPA_FOGBAND
  5
2146
 10
57.3486
 20
123.200
 30
0.000000
  70
    32
  0
VERTEX
  8
SAPA_FOGBAND
  5
2147
 10
57.4007
 20
123.130
 30
0.000000
  70
    32
  0
VERTEX
  8
SAPA_FOGBAND
  5
2148
 10
57.4548
 20
123.065
 30
0.000000
  70
    32
  0
VERTEX
  8
SAPA_FOGBAND
  5
2149
 10
57.5110
 20
123.004
 30
0.000000
  70
    32
  0
VERTEX
  8
SAPA_FOGBAND
  5
214A
 10
57.5691
 20
122.947
 30
0.000000
  70
    32
  0
VERTEX
  8
SAPA_FOGBAND
  5
214B
 10
57.6289
 20
122.894
 30
0.000000
  70
    32
  0
VERTEX
  8
SAPA_FOGBAND
  5
214C
 10
57.6902
 20
122.846
 30
0.000000
  70
    32
  0
VERTEX
  8
SAPA_FOGBAND
  5
214D
 10
57.7530
 20
122.803
 30
0.000000
  70
    32
  0
VERTEX
  8
SAPA_FOGBAND
  5
214E
 10
57.8172
 20
122.765
 30
0.000000
  70
    32
  0
VERTEX
  8
SAPA_FOGBAND
  5
214F
 10
57.8824
 20
122.732
 30
0.000000
  70
    32
  0
VERTEX
  8
SAPA_FOGBAND
  5
2150
 10
57.9486
 20
122.703
 30
0.000000
  70
    32
  0
VERTEX
  8
SAPA_FOGBAND
  5
2151
 10
58.0157
 20
122.680
 30
0.000000
  70
    32
  0
VERTEX
  8
SAPA_FOGBAND
  5
2152
 10
58.0834
 20
122.662
 30
0.000000
  70
    32
  0
VERTEX
  8
SAPA_FOGBAND
  5
2153
 10
58.1516
 20
122.649
 30
0.000000
  70
    32
  0
VERTEX
  8
SAPA_FOGBAND
  5
2154
 10
58.2201
 20
122.641
 30
0.000000
  70
    32
  0
VERTEX
  8
SAPA_FOGBAND
  5
2155
 10
58.2888
 20
122.638
 30
0.000000
  70
    32
  0
VERTEX
  8
SAPA_FOGBAND
  5
2156
 10
58.3575
 20
122.641
 30
0.000000
  70
    32
  0
VERTEX
  8
SAPA_FOGBAND
  5
2157
 10
58.4260
 20
122.649
 30
0.000000
  70
    32
  0
VERTEX
  8
SAPA_FOGBAND
  5
2158
 10
58.4942
 20
122.662
 30
0.000000
  70
    32
  0
VERTEX
  8
SAPA_FOGBAND
  5
2159
 10
58.5619
 20
122.680
 30
0.000000
  70
    32
  0
VERTEX
  8
SAPA_FOGBAND
  5
215A
 10
58.6290
 20
122.703
 30
0.000000
  70
    32
  0
VERTEX
  8
SAPA_FOGBAND
  5
215B
 10
58.6952
 20
122.732
 30
0.000000
  70
    32
  0
VERTEX
  8
SAPA_FOGBAND
  5
215C
 10
58.7605
 20
122.765
 30
0.000000
  70
    32
  0
VERTEX
  8
SAPA_FOGBAND
  5
215D
 10
58.8246
 20
122.803
 30
0.000000
  70
    32
  0
VERTEX
  8
SAPA_FOGBAND
  5
215E
 10
58.8874
 20
122.846
 30
0.000000
  70
    32
  0
VERTEX
  8
SAPA_FOGBAND
  5
215F
 10
58.9488
 20
122.894
 30
0.000000
  70
    32
  0
VERTEX
  8
SAPA_FOGBAND
  5
2160
 10
59.0086
 20
122.947
 30
0.000000
  70
    32
  0
VERTEX
  8
SAPA_FOGBAND
  5
2161
 10
59.0666
 20
123.004
 30
0.000000
  70
    32
  0
VERTEX
  8
SAPA_FOGBAND
  5
2162
 10
59.1228
 20
123.065
 30
0.000000
  70
    32
  0
VERTEX
  8
SAPA_FOGBAND
  5
2163
 10
59.1770
 20
123.130
 30
0.000000
  70
    32
  0
VERTEX
  8
SAPA_FOGBAND
  5
2164
 10
59.2290
 20
123.200
 30
0.000000
  70
    32
  0
VERTEX
  8
SAPA_FOGBAND
  5
2165
 10
59.2788
 20
123.273
 30
0.000000
  70
    32
  0
VERTEX
  8
SAPA_FOGBAND
  5
2166
 10
59.3261
 20
123.350
 30
0.000000
  70
    32
  0
VERTEX
  8
SAPA_FOGBAND
  5
2167
 10
59.3710
 20
123.431
 30
0.000000
  70
    32
  0
VERTEX
  8
SAPA_FOGBAND
  5
2168
 10
59.4133
 20
123.515
 30
0.000000
  70
    32
  0
VERTEX
  8
SAPA_FOGBAND
  5
2169
 10
59.4529
 20
123.602
 30
0.000000
  70
    32
  0
VERTEX
  8
SAPA_FOGBAND
  5
216A
 10
59.4896
 20
123.692
 30
0.000000
  70
    32
  0
VERTEX
  8
SAPA_FOGBAND
  5
216B
 10
59.5235
 20
123.784
 30
0.000000
  70
    32
  0
VERTEX
  8
SAPA_FOGBAND
  5
216C
 10
59.5544
 20
123.879
 30
0.000000
  70
    32
  0
VERTEX
  8
SAPA_FOGBAND
  5
216D
 10
59.5822
 20
123.976
 30
0.000000
  70
    32
  0
VERTEX
  8
SAPA_FOGBAND
  5
216E
 10
59.6070
 20
124.076
 30
0.000000
  70
    32
  0
VERTEX
  8
SAPA_FOGBAND
  5
216F
 10
59.6285
 20
124.177
 30
0.000000
  70
    32
  0
VERTEX
  8
SAPA_FOGBAND
  5
2170
 10
59.6468
 20
124.279
 30
0.000000
  70
    32
  0
VERTEX
  8
SAPA_FOGBAND
  5
2171
 10
59.6619
 20
124.383
 30
0.000000
  70
    32
  0
VERTEX
  8
SAPA_FOGBAND
  5
2172
 10
59.6737
 20
124.488
 30
0.000000
  70
    32
  0
VERTEX
  8
SAPA_FOGBAND
  5
2173
 10
59.6821
 20
124.594
 30
0.000000
  70
    32
  0
VERTEX
  8
SAPA_FOGBAND
  5
2174
 10
59.6871
 20
124.700
 30
0.000000
  70
    32
  0
VERTEX
  8
SAPA_FOGBAND
  5
2175
 10
59.6888
 20
124.806
 30
0.000000
  70
    32
  0
VERTEX
  8
SAPA_FOGBAND
  5
2176
 10
59.6871
 20
124.912
 30
0.000000
  70
    32
  0
VERTEX
  8
SAPA_FOGBAND
  5
2177
 10
59.6821
 20
125.018
 30
0.000000
  70
    32
  0
VERTEX
  8
SAPA_FOGBAND
  5
2178
 10
59.6737
 20
125.124
 30
0.000000
  70
    32
  0
VERTEX
  8
SAPA_FOGBAND
  5
2179
 10
59.6619
 20
125.229
 30
0.000000
  70
    32
  0
VERTEX
  8
SAPA_FOGBAND
  5
217A
 10
59.6468
 20
125.333
 30
0.000000
  70
    32
  0
VERTEX
  8
SAPA_FOGBAND
  5
217B
 10
59.6285
 20
125.435
 30
0.000000
  70
    32
  0
VERTEX
  8
SAPA_FOGBAND
  5
217C
 10
59.6070
 20
125.536
 30
0.000000
  70
    32
  0
VERTEX
  8
SAPA_FOGBAND
  5
217D
 10
59.5822
 20
125.636
 30
0.000000
  70
    32
  0
VERTEX
  8
SAPA_FOGBAND
  5
217E
 10
59.5544
 20
125.733
 30
0.000000
  70
    32
  0
VERTEX
  8
SAPA_FOGBAND
  5
217F
 10
59.5235
 20
125.828
 30
0.000000
  70
    32
  0
VERTEX
  8
SAPA_FOGBAND
  5
2180
 10
59.4896
 20
125.920
 30
0.000000
  70
    32
  0
VERTEX
  8
SAPA_FOGBAND
  5
2181
 10
59.4529
 20
126.010
 30
0.000000
  70
    32
  0
VERTEX
  8
SAPA_FOGBAND
  5
2182
 10
59.4133
 20
126.097
 30
0.000000
  70
    32
  0
VERTEX
  8
SAPA_FOGBAND
  5
2183
 10
59.3710
 20
126.181
 30
0.000000
  70
    32
  0
VERTEX
  8
SAPA_FOGBAND
  5
2184
 10
59.3261
 20
126.262
 30
0.000000
  70
    32
  0
VERTEX
  8
SAPA_FOGBAND
  5
2185
 10
59.2788
 20
126.339
 30
0.000000
  70
    32
  0
VERTEX
  8
SAPA_FOGBAND
  5
2186
 10
59.2290
 20
126.412
 30
0.000000
  70
    32
  0
VERTEX
  8
SAPA_FOGBAND
  5
2187
 10
59.1770
 20
126.482
 30
0.000000
  70
    32
  0
VERTEX
  8
SAPA_FOGBAND
  5
2188
 10
59.1228
 20
126.547
 30
0.000000
  70
    32
  0
VERTEX
  8
SAPA_FOGBAND
  5
2189
 10
59.0666
 20
126.608
 30
0.000000
  70
    32
  0
VERTEX
  8
SAPA_FOGBAND
  5
218A
 10
59.0086
 20
126.665
 30
0.000000
  70
    32
  0
VERTEX
  8
SAPA_FOGBAND
  5
218B
 10
58.9488
 20
126.718
 30
0.000000
  70
    32
  0
VERTEX
  8
SAPA_FOGBAND
  5
218C
 10
58.8874
 20
126.766
 30
0.000000
  70
    32
  0
VERTEX
  8
SAPA_FOGBAND
  5
218D
 10
58.8246
 20
126.809
 30
0.000000
  70
    32
  0
VERTEX
  8
SAPA_FOGBAND
  5
218E
 10
58.7605
 20
126.847
 30
0.000000
  70
    32
  0
VERTEX
  8
SAPA_FOGBAND
  5
218F
 10
58.6952
 20
126.880
 30
0.000000
  70
    32
  0
VERTEX
  8
SAPA_FOGBAND
  5
2190
 10
58.6290
 20
126.909
 30
0.000000
  70
    32
  0
VERTEX
  8
SAPA_FOGBAND
  5
2191
 10
58.5619
 20
126.932
 30
0.000000
  70
    32
  0
VERTEX
  8
SAPA_FOGBAND
  5
2192
 10
58.4942
 20
126.950
 30
0.000000
  70
    32
  0
VERTEX
  8
SAPA_FOGBAND
  5
2193
 10
58.4260
 20
126.963
 30
0.000000
  70
    32
  0
VERTEX
  8
SAPA_FOGBAND
  5
2194
 10
58.3575
 20
126.971
 30
0.000000
  70
    32
  0
VERTEX
  8
SAPA_FOGBAND
  5
2195
 10
58.2888
 20
126.974
 30
0.000000
  70
    32
  0
SEQEND
  8
SAPA_FOGBAND
  5
2196
  0
POLYLINE
  5
1415
  8
SAPA_FOGBAND
 62
     2
 10
60.023592250519769
 20
136.49118800738773
 30
0.0
 66
     1
 70
     8
  0
VERTEX
  8
SAPA_FOGBAND
  5
2197
 10
60.0236
 20
136.491
 30
0.000000
  70
    32
  0
VERTEX
  8
SAPA_FOGBAND
  5
2198
 10
59.9353
 20
136.487
 30
0.000000
  70
    32
  0
VERTEX
  8
SAPA_FOGBAND
  5
2199
 10
59.8472
 20
136.476
 30
0.000000
  70
    32
  0
VERTEX
  8
SAPA_FOGBAND
  5
219A
 10
59.7595
 20
136.458
 30
0.000000
  70
    32
  0
VERTEX
  8
SAPA_FOGBAND
  5
219B
 10
59.6724
 20
136.432
 30
0.000000
  70
    32
  0
VERTEX
  8
SAPA_FOGBAND
  5
219C
 10
59.5862
 20
136.399
 30
0.000000
  70
    32
  0
VERTEX
  8
SAPA_FOGBAND
  5
219D
 10
59.5011
 20
136.358
 30
0.000000
  70
    32
  0
VERTEX
  8
SAPA_FOGBAND
  5
219E
 10
59.4172
 20
136.311
 30
0.000000
  70
    32
  0
VERTEX
  8
SAPA_FOGBAND
  5
219F
 10
59.3348
 20
136.256
 30
0.000000
  70
    32
  0
VERTEX
  8
SAPA_FOGBAND
  5
21A0
 10
59.2540
 20
136.195
 30
0.000000
  70
    32
  0
VERTEX
  8
SAPA_FOGBAND
  5
21A1
 10
59.1751
 20
136.127
 30
0.000000
  70
    32
  0
VERTEX
  8
SAPA_FOGBAND
  5
21A2
 10
59.0982
 20
136.052
 30
0.000000
  70
    32
  0
VERTEX
  8
SAPA_FOGBAND
  5
21A3
 10
59.0236
 20
135.971
 30
0.000000
  70
    32
  0
VERTEX
  8
SAPA_FOGBAND
  5
21A4
 10
58.9513
 20
135.884
 30
0.000000
  70
    32
  0
VERTEX
  8
SAPA_FOGBAND
  5
21A5
 10
58.8817
 20
135.791
 30
0.000000
  70
    32
  0
VERTEX
  8
SAPA_FOGBAND
  5
21A6
 10
58.8148
 20
135.692
 30
0.000000
  70
    32
  0
VERTEX
  8
SAPA_FOGBAND
  5
21A7
 10
58.7508
 20
135.588
 30
0.000000
  70
    32
  0
VERTEX
  8
SAPA_FOGBAND
  5
21A8
 10
58.6899
 20
135.478
 30
0.000000
  70
    32
  0
VERTEX
  8
SAPA_FOGBAND
  5
21A9
 10
58.6322
 20
135.363
 30
0.000000
  70
    32
  0
VERTEX
  8
SAPA_FOGBAND
  5
21AA
 10
58.5778
 20
135.244
 30
0.000000
  70
    32
  0
VERTEX
  8
SAPA_FOGBAND
  5
21AB
 10
58.5269
 20
135.120
 30
0.000000
  70
    32
  0
VERTEX
  8
SAPA_FOGBAND
  5
21AC
 10
58.4797
 20
134.992
 30
0.000000
  70
    32
  0
VERTEX
  8
SAPA_FOGBAND
  5
21AD
 10
58.4361
 20
134.860
 30
0.000000
  70
    32
  0
VERTEX
  8
SAPA_FOGBAND
  5
21AE
 10
58.3964
 20
134.725
 30
0.000000
  70
    32
  0
VERTEX
  8
SAPA_FOGBAND
  5
21AF
 10
58.3606
 20
134.587
 30
0.000000
  70
    32
  0
VERTEX
  8
SAPA_FOGBAND
  5
21B0
 10
58.3288
 20
134.445
 30
0.000000
  70
    32
  0
VERTEX
  8
SAPA_FOGBAND
  5
21B1
 10
58.3011
 20
134.302
 30
0.000000
  70
    32
  0
VERTEX
  8
SAPA_FOGBAND
  5
21B2
 10
58.2775
 20
134.156
 30
0.000000
  70
    32
  0
VERTEX
  8
SAPA_FOGBAND
  5
21B3
 10
58.2582
 20
134.008
 30
0.000000
  70
    32
  0
VERTEX
  8
SAPA_FOGBAND
  5
21B4
 10
58.2431
 20
133.859
 30
0.000000
  70
    32
  0
VERTEX
  8
SAPA_FOGBAND
  5
21B5
 10
58.2323
 20
133.708
 30
0.000000
  70
    32
  0
VERTEX
  8
SAPA_FOGBAND
  5
21B6
 10
58.2258
 20
133.557
 30
0.000000
  70
    32
  0
VERTEX
  8
SAPA_FOGBAND
  5
21B7
 10
58.2236
 20
133.406
 30
0.000000
  70
    32
  0
VERTEX
  8
SAPA_FOGBAND
  5
21B8
 10
58.2258
 20
133.255
 30
0.000000
  70
    32
  0
VERTEX
  8
SAPA_FOGBAND
  5
21B9
 10
58.2323
 20
133.104
 30
0.000000
  70
    32
  0
VERTEX
  8
SAPA_FOGBAND
  5
21BA
 10
58.2431
 20
132.953
 30
0.000000
  70
    32
  0
VERTEX
  8
SAPA_FOGBAND
  5
21BB
 10
58.2582
 20
132.804
 30
0.000000
  70
    32
  0
VERTEX
  8
SAPA_FOGBAND
  5
21BC
 10
58.2775
 20
132.656
 30
0.000000
  70
    32
  0
VERTEX
  8
SAPA_FOGBAND
  5
21BD
 10
58.3011
 20
132.510
 30
0.000000
  70
    32
  0
VERTEX
  8
SAPA_FOGBAND
  5
21BE
 10
58.3288
 20
132.367
 30
0.000000
  70
    32
  0
VERTEX
  8
SAPA_FOGBAND
  5
21BF
 10
58.3606
 20
132.225
 30
0.000000
  70
    32
  0
VERTEX
  8
SAPA_FOGBAND
  5
21C0
 10
58.3964
 20
132.087
 30
0.000000
  70
    32
  0
VERTEX
  8
SAPA_FOGBAND
  5
21C1
 10
58.4361
 20
131.952
 30
0.000000
  70
    32
  0
VERTEX
  8
SAPA_FOGBAND
  5
21C2
 10
58.4797
 20
131.820
 30
0.000000
  70
    32
  0
VERTEX
  8
SAPA_FOGBAND
  5
21C3
 10
58.5269
 20
131.692
 30
0.000000
  70
    32
  0
VERTEX
  8
SAPA_FOGBAND
  5
21C4
 10
58.5778
 20
131.568
 30
0.000000
  70
    32
  0
VERTEX
  8
SAPA_FOGBAND
  5
21C5
 10
58.6322
 20
131.449
 30
0.000000
  70
    32
  0
VERTEX
  8
SAPA_FOGBAND
  5
21C6
 10
58.6899
 20
131.334
 30
0.000000
  70
    32
  0
VERTEX
  8
SAPA_FOGBAND
  5
21C7
 10
58.7508
 20
131.224
 30
0.000000
  70
    32
  0
VERTEX
  8
SAPA_FOGBAND
  5
21C8
 10
58.8148
 20
131.120
 30
0.000000
  70
    32
  0
VERTEX
  8
SAPA_FOGBAND
  5
21C9
 10
58.8817
 20
131.021
 30
0.000000
  70
    32
  0
VERTEX
  8
SAPA_FOGBAND
  5
21CA
 10
58.9513
 20
130.928
 30
0.000000
  70
    32
  0
VERTEX
  8
SAPA_FOGBAND
  5
21CB
 10
59.0236
 20
130.841
 30
0.000000
  70
    32
  0
VERTEX
  8
SAPA_FOGBAND
  5
21CC
 10
59.0982
 20
130.760
 30
0.000000
  70
    32
  0
VERTEX
  8
SAPA_FOGBAND
  5
21CD
 10
59.1751
 20
130.685
 30
0.000000
  70
    32
  0
VERTEX
  8
SAPA_FOGBAND
  5
21CE
 10
59.2540
 20
130.617
 30
0.000000
  70
    32
  0
VERTEX
  8
SAPA_FOGBAND
  5
21CF
 10
59.3348
 20
130.556
 30
0.000000
  70
    32
  0
VERTEX
  8
SAPA_FOGBAND
  5
21D0
 10
59.4172
 20
130.501
 30
0.000000
  70
    32
  0
VERTEX
  8
SAPA_FOGBAND
  5
21D1
 10
59.5011
 20
130.454
 30
0.000000
  70
    32
  0
VERTEX
  8
SAPA_FOGBAND
  5
21D2
 10
59.5862
 20
130.413
 30
0.000000
  70
    32
  0
VERTEX
  8
SAPA_FOGBAND
  5
21D3
 10
59.6724
 20
130.380
 30
0.000000
  70
    32
  0
VERTEX
  8
SAPA_FOGBAND
  5
21D4
 10
59.7595
 20
130.354
 30
0.000000
  70
    32
  0
VERTEX
  8
SAPA_FOGBAND
  5
21D5
 10
59.8472
 20
130.336
 30
0.000000
  70
    32
  0
VERTEX
  8
SAPA_FOGBAND
  5
21D6
 10
59.9353
 20
130.324
 30
0.000000
  70
    32
  0
VERTEX
  8
SAPA_FOGBAND
  5
21D7
 10
60.0236
 20
130.321
 30
0.000000
  70
    32
  0
VERTEX
  8
SAPA_FOGBAND
  5
21D8
 10
60.1119
 20
130.324
 30
0.000000
  70
    32
  0
VERTEX
  8
SAPA_FOGBAND
  5
21D9
 10
60.2000
 20
130.336
 30
0.000000
  70
    32
  0
VERTEX
  8
SAPA_FOGBAND
  5
21DA
 10
60.2877
 20
130.354
 30
0.000000
  70
    32
  0
VERTEX
  8
SAPA_FOGBAND
  5
21DB
 10
60.3748
 20
130.380
 30
0.000000
  70
    32
  0
VERTEX
  8
SAPA_FOGBAND
  5
21DC
 10
60.4610
 20
130.413
 30
0.000000
  70
    32
  0
VERTEX
  8
SAPA_FOGBAND
  5
21DD
 10
60.5461
 20
130.454
 30
0.000000
  70
    32
  0
VERTEX
  8
SAPA_FOGBAND
  5
21DE
 10
60.6300
 20
130.501
 30
0.000000
  70
    32
  0
VERTEX
  8
SAPA_FOGBAND
  5
21DF
 10
60.7124
 20
130.556
 30
0.000000
  70
    32
  0
VERTEX
  8
SAPA_FOGBAND
  5
21E0
 10
60.7932
 20
130.617
 30
0.000000
  70
    32
  0
VERTEX
  8
SAPA_FOGBAND
  5
21E1
 10
60.8721
 20
130.685
 30
0.000000
  70
    32
  0
VERTEX
  8
SAPA_FOGBAND
  5
21E2
 10
60.9490
 20
130.760
 30
0.000000
  70
    32
  0
VERTEX
  8
SAPA_FOGBAND
  5
21E3
 10
61.0236
 20
130.841
 30
0.000000
  70
    32
  0
VERTEX
  8
SAPA_FOGBAND
  5
21E4
 10
61.0959
 20
130.928
 30
0.000000
  70
    32
  0
VERTEX
  8
SAPA_FOGBAND
  5
21E5
 10
61.1655
 20
131.021
 30
0.000000
  70
    32
  0
VERTEX
  8
SAPA_FOGBAND
  5
21E6
 10
61.2324
 20
131.120
 30
0.000000
  70
    32
  0
VERTEX
  8
SAPA_FOGBAND
  5
21E7
 10
61.2964
 20
131.224
 30
0.000000
  70
    32
  0
VERTEX
  8
SAPA_FOGBAND
  5
21E8
 10
61.3573
 20
131.334
 30
0.000000
  70
    32
  0
VERTEX
  8
SAPA_FOGBAND
  5
21E9
 10
61.4150
 20
131.449
 30
0.000000
  70
    32
  0
VERTEX
  8
SAPA_FOGBAND
  5
21EA
 10
61.4694
 20
131.568
 30
0.000000
  70
    32
  0
VERTEX
  8
SAPA_FOGBAND
  5
21EB
 10
61.5202
 20
131.692
 30
0.000000
  70
    32
  0
VERTEX
  8
SAPA_FOGBAND
  5
21EC
 10
61.5675
 20
131.820
 30
0.000000
  70
    32
  0
VERTEX
  8
SAPA_FOGBAND
  5
21ED
 10
61.6111
 20
131.952
 30
0.000000
  70
    32
  0
VERTEX
  8
SAPA_FOGBAND
  5
21EE
 10
61.6508
 20
132.087
 30
0.000000
  70
    32
  0
VERTEX
  8
SAPA_FOGBAND
  5
21EF
 10
61.6866
 20
132.225
 30
0.000000
  70
    32
  0
VERTEX
  8
SAPA_FOGBAND
  5
21F0
 10
61.7184
 20
132.367
 30
0.000000
  70
    32
  0
VERTEX
  8
SAPA_FOGBAND
  5
21F1
 10
61.7461
 20
132.510
 30
0.000000
  70
    32
  0
VERTEX
  8
SAPA_FOGBAND
  5
21F2
 10
61.7696
 20
132.656
 30
0.000000
  70
    32
  0
VERTEX
  8
SAPA_FOGBAND
  5
21F3
 10
61.7890
 20
132.804
 30
0.000000
  70
    32
  0
VERTEX
  8
SAPA_FOGBAND
  5
21F4
 10
61.8041
 20
132.953
 30
0.000000
  70
    32
  0
VERTEX
  8
SAPA_FOGBAND
  5
21F5
 10
61.8149
 20
133.104
 30
0.000000
  70
    32
  0
VERTEX
  8
SAPA_FOGBAND
  5
21F6
 10
61.8214
 20
133.255
 30
0.000000
  70
    32
  0
VERTEX
  8
SAPA_FOGBAND
  5
21F7
 10
61.8236
 20
133.406
 30
0.000000
  70
    32
  0
VERTEX
  8
SAPA_FOGBAND
  5
21F8
 10
61.8214
 20
133.557
 30
0.000000
  70
    32
  0
VERTEX
  8
SAPA_FOGBAND
  5
21F9
 10
61.8149
 20
133.708
 30
0.000000
  70
    32
  0
VERTEX
  8
SAPA_FOGBAND
  5
21FA
 10
61.8041
 20
133.859
 30
0.000000
  70
    32
  0
VERTEX
  8
SAPA_FOGBAND
  5
21FB
 10
61.7890
 20
134.008
 30
0.000000
  70
    32
  0
VERTEX
  8
SAPA_FOGBAND
  5
21FC
 10
61.7696
 20
134.156
 30
0.000000
  70
    32
  0
VERTEX
  8
SAPA_FOGBAND
  5
21FD
 10
61.7461
 20
134.302
 30
0.000000
  70
    32
  0
VERTEX
  8
SAPA_FOGBAND
  5
21FE
 10
61.7184
 20
134.445
 30
0.000000
  70
    32
  0
VERTEX
  8
SAPA_FOGBAND
  5
21FF
 10
61.6866
 20
134.587
 30
0.000000
  70
    32
  0
VERTEX
  8
SAPA_FOGBAND
  5
2200
 10
61.6508
 20
134.725
 30
0.000000
  70
    32
  0
VERTEX
  8
SAPA_FOGBAND
  5
2201
 10
61.6111
 20
134.860
 30
0.000000
  70
    32
  0
VERTEX
  8
SAPA_FOGBAND
  5
2202
 10
61.5675
 20
134.992
 30
0.000000
  70
    32
  0
VERTEX
  8
SAPA_FOGBAND
  5
2203
 10
61.5202
 20
135.120
 30
0.000000
  70
    32
  0
VERTEX
  8
SAPA_FOGBAND
  5
2204
 10
61.4694
 20
135.244
 30
0.000000
  70
    32
  0
VERTEX
  8
SAPA_FOGBAND
  5
2205
 10
61.4150
 20
135.363
 30
0.000000
  70
    32
  0
VERTEX
  8
SAPA_FOGBAND
  5
2206
 10
61.3573
 20
135.478
 30
0.000000
  70
    32
  0
VERTEX
  8
SAPA_FOGBAND
  5
2207
 10
61.2964
 20
135.588
 30
0.000000
  70
    32
  0
VERTEX
  8
SAPA_FOGBAND
  5
2208
 10
61.2324
 20
135.692
 30
0.000000
  70
    32
  0
VERTEX
  8
SAPA_FOGBAND
  5
2209
 10
61.1655
 20
135.791
 30
0.000000
  70
    32
  0
VERTEX
  8
SAPA_FOGBAND
  5
220A
 10
61.0959
 20
135.884
 30
0.000000
  70
    32
  0
VERTEX
  8
SAPA_FOGBAND
  5
220B
 10
61.0236
 20
135.971
 30
0.000000
  70
    32
  0
VERTEX
  8
SAPA_FOGBAND
  5
220C
 10
60.9490
 20
136.052
 30
0.000000
  70
    32
  0
VERTEX
  8
SAPA_FOGBAND
  5
220D
 10
60.8721
 20
136.127
 30
0.000000
  70
    32
  0
VERTEX
  8
SAPA_FOGBAND
  5
220E
 10
60.7932
 20
136.195
 30
0.000000
  70
    32
  0
VERTEX
  8
SAPA_FOGBAND
  5
220F
 10
60.7124
 20
136.256
 30
0.000000
  70
    32
  0
VERTEX
  8
SAPA_FOGBAND
  5
2210
 10
60.6300
 20
136.311
 30
0.000000
  70
    32
  0
VERTEX
  8
SAPA_FOGBAND
  5
2211
 10
60.5461
 20
136.358
 30
0.000000
  70
    32
  0
VERTEX
  8
SAPA_FOGBAND
  5
2212
 10
60.4610
 20
136.399
 30
0.000000
  70
    32
  0
VERTEX
  8
SAPA_FOGBAND
  5
2213
 10
60.3748
 20
136.432
 30
0.000000
  70
    32
  0
VERTEX
  8
SAPA_FOGBAND
  5
2214
 10
60.2877
 20
136.458
 30
0.000000
  70
    32
  0
VERTEX
  8
SAPA_FOGBAND
  5
2215
 10
60.2000
 20
136.476
 30
0.000000
  70
    32
  0
VERTEX
  8
SAPA_FOGBAND
  5
2216
 10
60.1119
 20
136.487
 30
0.000000
  70
    32
  0
VERTEX
  8
SAPA_FOGBAND
  5
2217
 10
60.0236
 20
136.491
 30
0.000000
  70
    32
  0
SEQEND
  8
SAPA_FOGBAND
  5
2218
  0
POLYLINE
  5
1416
  8
SAPA_FOGBAND
 62
     2
 66
     1
 10
0.0
 20
0.0
 30
0.0
 70
     1
  0
VERTEX
  5
2070
  8
SAPA_FOGBAND
 62
     2
 10
54.723592250519772
 20
125.9622730493485
 30
0.0
  0
VERTEX
  5
2071
  8
SAPA_FOGBAND
 62
     2
 10
54.723592250519772
 20
139.64273769864721
 30
0.0
 42
-0.427966335106886
  0
VERTEX
  5
2072
  8
SAPA_FOGBAND
 62
     2
 10
55.037604821879029
 20
139.9424102663672
 30
0.0
  0
VERTEX
  5
2073
  8
SAPA_FOGBAND
 62
     2
 10
63.237604821879017
 20
139.45611035828759
 30
0.0
 42
-0.4005932428724212
  0
VERTEX
  5
2074
  8
SAPA_FOGBAND
 62
     2
 10
63.523592250519762
 20
139.15643779056751
 30
0.0
  0
VERTEX
  5
2075
  8
SAPA_FOGBAND
 62
     2
 10
63.523592250519762
 20
137.3427376986472
 30
0.0
  0
VERTEX
  5
2076
  8
SAPA_FOGBAND
 62
     2
 10
65.223592250519744
 20
137.3427376986472
 30
0.0
 42
-0.4142135623730951
  0
VERTEX
  5
2077
  8
SAPA_FOGBAND
 62
     2
 10
65.523592250519769
 20
137.04273769864719
 30
0.0
  0
VERTEX
  5
2078
  8
SAPA_FOGBAND
 62
     2
 10
65.523592250519769
 20
129.62395693502131
 30
0.0
 42
-0.1379343940649207
  0
VERTEX
  5
2079
  8
SAPA_FOGBAND
 62
     2
 10
65.377015635664975
 20
129.1027386259729
 30
0.0
  0
VERTEX
  5
207A
  8
SAPA_FOGBAND
 62
     2
 10
57.969797397756651
 20
117.182128544123
 30
0.0
 42
-0.2613472755167645
  0
VERTEX
  5
207B
  8
SAPA_FOGBAND
 62
     2
 10
57.543085705184041
 20
116.94273769864721
 30
0.0
  0
VERTEX
  5
207C
  8
SAPA_FOGBAND
 62
     2
 10
56.548389088020841
 20
116.94273769864721
 30
0.0
 42
-0.3915187749346393
  0
VERTEX
  5
207D
  8
SAPA_FOGBAND
 62
     2
 10
55.551437474015742
 20
117.8647153984207
 30
0.0
  0
VERTEX
  5
207E
  8
SAPA_FOGBAND
 62
     2
 10
54.725116443517223
 20
125.9232618992353
 30
0.0
 42
-0.0195279011117891
  0
SEQEND
  5
207F
  8
SAPA_FOGBAND
 62
     2
  0
POLYLINE
  5
1417
  8
SAPA_FOGBAND
 66
     1
 10
0.0
 20
0.0
 30
0.0
 70
     1
  0
VERTEX
  5
2080
  8
SAPA_FOGBAND
 10
18.834575671420509
 20
86.005446441590834
 30
0.0
 42
0.1579553886371987
  0
VERTEX
  5
2081
  8
SAPA_FOGBAND
 10
18.687516164956151
 20
89.269274485706902
 30
0.0
 42
1.0
  0
VERTEX
  5
2082
  8
SAPA_FOGBAND
 10
15.316198442195031
 20
88.006651496767645
 30
0.0
 42
0.1276248526686838
  0
VERTEX
  5
2083
  8
SAPA_FOGBAND
 10
16.557510863880619
 20
86.238998988290064
 30
0.0
  0
VERTEX
  5
2084
  8
SAPA_FOGBAND
 10
17.626899536453038
 20
85.329652464721349
 30
0.0
 42
0.5691506674918112
  0
VERTEX
  5
2085
  8
SAPA_FOGBAND
 10
18.765590731090128
 20
85.719888220439444
 30
0.0
 42
-0.0156300267407041
  0
SEQEND
  5
2086
  8
SAPA_FOGBAND
  0
POLYLINE
  5
1418
  8
SAPA_FOGBAND
 66
     1
 10
0.0
 20
0.0
 30
0.0
 70
     1
  0
VERTEX
  5
2087
  8
SAPA_FOGBAND
 10
11.62508729580793
 20
74.702595001037608
 30
0.0
 42
-0.3888787318529789
  0
VERTEX
  5
2088
  8
SAPA_FOGBAND
 10
12.61214312031791
 20
75.988951195949213
 30
0.0
  0
VERTEX
  5
2089
  8
SAPA_FOGBAND
 10
13.32964496990428
 20
76.115466130739733
 30
0.0
 42
-1.0
  0
VERTEX
  5
208A
  8
SAPA_FOGBAND
 10
13.92052962171158
 20
76.219655037340203
 30
0.0
  0
VERTEX
  5
208B
  8
SAPA_FOGBAND
 10
14.529644969904551
 20
76.327058507589882
 30
0.0
 42
-0.9999999999999067
  0
VERTEX
  5
208C
  8
SAPA_FOGBAND
 10
15.120529621711849
 20
76.431247414189912
 30
0.0
  0
VERTEX
  5
208D
  8
SAPA_FOGBAND
 10
15.465256256380711
 20
76.492032020851312
 30
0.0
 42
0.3345953195020691
  0
VERTEX
  5
208E
  8
SAPA_FOGBAND
 10
17.517440550634198
 20
78.692730245212388
 30
0.0
  0
VERTEX
  5
208F
  8
SAPA_FOGBAND
 10
17.870548323551361
 20
82.706537650224277
 30
0.0
 42
0.2564696513213821
  0
VERTEX
  5
2090
  8
SAPA_FOGBAND
 10
16.74461615760935
 20
85.161031848931216
 30
0.0
  0
VERTEX
  5
2091
  8
SAPA_FOGBAND
 10
16.104050977390781
 20
85.70573157756202
 30
0.0
 42
-0.1276248526686853
  0
VERTEX
  5
2092
  8
SAPA_FOGBAND
 10
14.660664440547061
 20
87.761141471141073
 30
0.0
 42
-1.0
  0
VERTEX
  5
2093
  8
SAPA_FOGBAND
 10
19.34305016660403
 20
89.514784511333929
 30
0.0
 42
-0.1579553886371977
  0
VERTEX
  5
2094
  8
SAPA_FOGBAND
 10
19.509532626752499
 20
85.819884838749331
 30
0.0
 42
0.0604483959424258
  0
VERTEX
  5
2095
  8
SAPA_FOGBAND
 10
19.408440092299429
 20
82.429772777764015
 30
0.0
  0
VERTEX
  5
2096
  8
SAPA_FOGBAND
 10
19.620520933518151
 20
77.272206021396542
 30
0.0
 42
0.3286126757704555
  0
VERTEX
  5
2097
  8
SAPA_FOGBAND
 10
20.676076489073811
 20
75.839561914927017
 30
0.0
 42
-0.2704382184496639
  0
VERTEX
  5
2098
  8
SAPA_FOGBAND
 10
21.589752764213809
 20
74.721053389790669
 30
0.0
  0
VERTEX
  5
2099
  8
SAPA_FOGBAND
 10
17.72052093351806
 20
74.920917154918371
 30
0.0
  0
VERTEX
  5
209A
  8
SAPA_FOGBAND
 10
17.72052093351806
 20
73.720917154918553
 30
0.0
  0
VERTEX
  5
209B
  8
SAPA_FOGBAND
 10
17.666049170478679
 20
72.659852749368966
 30
0.0
  0
VERTEX
  5
209C
  8
SAPA_FOGBAND
 10
18.215895079283769
 20
72.660821759226693
 30
0.0
 42
-0.6068148963145658
  0
VERTEX
  5
209D
  8
SAPA_FOGBAND
 10
18.33108564865881
 20
72.141230678404213
 30
0.0
  0
VERTEX
  5
209E
  8
SAPA_FOGBAND
 10
16.515672838638348
 20
70.764904992514076
 30
0.0
 42
-0.4400105308918406
  0
VERTEX
  5
209F
  8
SAPA_FOGBAND
 10
14.991043547399951
 20
70.965626246600678
 30
0.0
  0
VERTEX
  5
20A0
  8
SAPA_FOGBAND
 10
13.46784216598428
 20
72.982589170823431
 30
0.0
 42
-0.5205670505516999
  0
VERTEX
  5
20A1
  8
SAPA_FOGBAND
 10
13.63594206574032
 20
73.444439849615392
 30
0.0
  0
VERTEX
  5
20A2
  8
SAPA_FOGBAND
 10
14.380781177172929
 20
73.471035480650372
 30
0.0
  0
VERTEX
  5
20A3
  8
SAPA_FOGBAND
 10
14.181270233718919
 20
74.760948289498756
 30
0.0
  0
SEQEND
  5
20A4
  8
SAPA_FOGBAND
  0
CIRCLE
  5
1419
  8
SAPA_FOGBAND
 10
18.201663369532639
 20
76.316112603592174
 30
0.0
 40
0.3
  0
POLYLINE
  5
141A
  8
SAPA_FOGBAND
 66
     1
 10
0.0
 20
0.0
 30
0.0
 70
     1
  0
VERTEX
  5
20A5
  8
SAPA_FOGBAND
 10
15.02052093351824
 20
72.507464886196558
 30
0.0
  0
VERTEX
  5
20A6
  8
SAPA_FOGBAND
 10
15.02052093351824
 20
74.420917154918371
 30
0.0
 42
-0.4142135623730951
  0
VERTEX
  5
20A7
  8
SAPA_FOGBAND
 10
15.52052093351824
 20
74.920917154918371
 30
0.0
  0
VERTEX
  5
20A8
  8
SAPA_FOGBAND
 10
16.320520933517969
 20
74.920917154918371
 30
0.0
 42
-0.4142135623730951
  0
VERTEX
  5
20A9
  8
SAPA_FOGBAND
 10
16.820520933517969
 20
74.420917154918371
 30
0.0
  0
VERTEX
  5
20AA
  8
SAPA_FOGBAND
 10
16.820520933517969
 20
72.344813342852049
 30
0.0
 42
-0.2216946626429447
  0
VERTEX
  5
20AB
  8
SAPA_FOGBAND
 10
16.606193499330061
 20
71.885186676980211
 30
0.0
  0
VERTEX
  5
20AC
  8
SAPA_FOGBAND
 10
16.176998879393182
 20
71.525049629687729
 30
0.0
 42
-0.4400105308918337
  0
VERTEX
  5
20AD
  8
SAPA_FOGBAND
 10
15.514917380459449
 20
71.612214312629149
 30
0.0
  0
VERTEX
  5
20AE
  8
SAPA_FOGBAND
 10
15.12902970694461
 20
72.163319024385729
 30
0.0
 42
-0.153914721059829
  0
SEQEND
  5
20AF
  8
SAPA_FOGBAND
  0
POLYLINE
  5
141B
  8
SAPA_FOGBAND
 66
     1
 10
0.0
 20
0.0
 30
0.0
 70
     1
  0
VERTEX
  5
20B0
  8
SAPA_FOGBAND
 10
3.6000000000012391
 20
93.961691587553617
 30
0.0
  0
VERTEX
  5
20B1
  8
SAPA_FOGBAND
 10
2.6000000000012391
 20
93.961691587553617
 30
0.0
 42
0.9999999999999998
  0
VERTEX
  5
20B2
  8
SAPA_FOGBAND
 10
2.6000000000012391
 20
92.757532129674388
 30
0.0
  0
VERTEX
  5
20B3
  8
SAPA_FOGBAND
 10
3.6000000000012391
 20
92.757532129674388
 30
0.0
 42
0.9999999999999998
  0
SEQEND
  5
20B4
  8
SAPA_FOGBAND
  0
POLYLINE
  5
141C
  8
SAPA_FOGBAND
 66
     1
 10
0.0
 20
0.0
 30
0.0
 70
     1
  0
VERTEX
  5
20B5
  8
SAPA_FOGBAND
 10
2.676147702644911
 20
91.392327582428763
 30
0.0
  0
VERTEX
  5
20B6
  8
SAPA_FOGBAND
 10
1.290382615699373
 20
92.250386292738227
 30
0.0
 42
-0.2528723899644565
  0
VERTEX
  5
20B7
  8
SAPA_FOGBAND
 10
1.200000000001237
 20
92.417670568923455
 30
0.0
  0
VERTEX
  5
20B8
  8
SAPA_FOGBAND
 10
1.200000000001237
 20
94.301553148304549
 30
0.0
 42
-0.2528723899644564
  0
VERTEX
  5
20B9
  8
SAPA_FOGBAND
 10
1.290382615699373
 20
94.468837424489777
 30
0.0
  0
VERTEX
  5
20BA
  8
SAPA_FOGBAND
 10
2.676147702644911
 20
95.326896134799242
 30
0.0
 42
-0.5108224790788402
  0
VERTEX
  5
20BB
  8
SAPA_FOGBAND
 10
2.9789502522045881
 20
95.211375667634513
 30
0.0
  0
VERTEX
  5
20BC
  8
SAPA_FOGBAND
 10
3.1000000000012391
 20
94.809611858614005
 30
0.0
  0
VERTEX
  5
20BD
  8
SAPA_FOGBAND
 10
4.2000000000012392
 20
94.809611858614005
 30
0.0
  0
VERTEX
  5
20BE
  8
SAPA_FOGBAND
 10
4.2000000000012374
 20
96.674346462472286
 30
0.0
 42
-0.0874886635259237
  0
VERTEX
  5
20BF
  8
SAPA_FOGBAND
 10
4.2120614758440542
 20
96.7427504911374
 30
0.0
  0
VERTEX
  5
20C0
  8
SAPA_FOGBAND
 10
4.7678751902808267
 20
100.2754946371775
 30
0.0
 42
-0.9391885369168745
  0
VERTEX
  5
20C1
  8
SAPA_FOGBAND
 10
5.1508317089534499
 20
100.162728667446
 30
0.0
  0
VERTEX
  5
20C2
  8
SAPA_FOGBAND
 10
5.0000000000012381
 20
96.290534862209043
 30
0.0
  0
VERTEX
  5
20C3
  8
SAPA_FOGBAND
 10
5.1947157805758737
 20
95.460359895360426
 30
0.0
 42
-0.0576596372120268
  0
VERTEX
  5
20C4
  8
SAPA_FOGBAND
 10
5.2000000000012401
 20
95.414689721338291
 30
0.0
  0
VERTEX
  5
20C5
  8
SAPA_FOGBAND
 10
5.2000000000012392
 20
91.009611858613994
 30
0.0
 42
-0.4142135623730951
  0
VERTEX
  5
20C6
  8
SAPA_FOGBAND
 10
4.6000000000012387
 20
90.409611858613999
 30
0.0
  0
VERTEX
  5
20C7
  8
SAPA_FOGBAND
 10
4.4000000000012376
 20
90.409611858613999
 30
0.0
 42
-0.4142135623730951
  0
VERTEX
  5
20C8
  8
SAPA_FOGBAND
 10
4.2000000000012392
 20
90.609611858613988
 30
0.0
  0
VERTEX
  5
20C9
  8
SAPA_FOGBAND
 10
4.2000000000012392
 20
91.909611858613999
 30
0.0
  0
VERTEX
  5
20CA
  8
SAPA_FOGBAND
 10
3.1000000000012391
 20
91.909611858613999
 30
0.0
  0
VERTEX
  5
20CB
  8
SAPA_FOGBAND
 10
2.9789502522045881
 20
91.507848049593477
 30
0.0
 42
-0.51082247907884
  0
SEQEND
  5
20CC
  8
SAPA_FOGBAND
  0
POLYLINE
  5
141D
  8
SAPA_FOGBAND
 66
     1
 10
0.0
 20
0.0
 30
0.0000000195376815
 70
     1
  0
VERTEX
  5
20CD
  8
SAPA_FOGBAND
 10
92.750080442902785
 20
72.087868548878973
 30
0.0000000195376815
  0
VERTEX
  5
20CE
  8
SAPA_FOGBAND
 10
92.750080442902785
 20
71.987868548878978
 30
0.0000000195376815
 42
-0.4142135623730959
  0
VERTEX
  5
20CF
  8
SAPA_FOGBAND
 10
92.050080442902797
 20
71.287868548878976
 30
0.0000000195376815
  0
VERTEX
  5
20D0
  8
SAPA_FOGBAND
 10
90.950080442902788
 20
71.287868548878961
 30
0.0000000195376815
 42
-0.4142135623730961
  0
VERTEX
  5
20D1
  8
SAPA_FOGBAND
 10
90.750080442902785
 20
71.487868548878978
 30
0.0000000195376815
  0
VERTEX
  5
20D2
  8
SAPA_FOGBAND
 10
90.750080442902785
 20
72.587868548878973
 30
0.0000000195376815
 42
-0.4142135623730956
  0
VERTEX
  5
20D3
  8
SAPA_FOGBAND
 10
90.950080442902788
 20
72.78786854887899
 30
0.0000000195376815
  0
VERTEX
  5
20D4
  8
SAPA_FOGBAND
 10
92.050080442902797
 20
72.787868548878961
 30
0.0000000195376815
 42
-0.4142135623730946
  0
SEQEND
  5
20D5
  8
SAPA_FOGBAND
  0
POLYLINE
  5
141E
  8
SAPA_FOGBAND
 66
     1
 10
0.0
 20
0.0
 30
0.0000000195376815
 70
     1
  0
VERTEX
  5
20D6
  8
SAPA_FOGBAND
 10
91.450080442902802
 20
73.587868548878973
 30
0.0000000195376815
  0
VERTEX
  5
20D7
  8
SAPA_FOGBAND
 10
90.802314877629698
 20
73.587868548878973
 30
0.0000000195376815
 42
-0.4416942457848324
  0
VERTEX
  5
20D8
  8
SAPA_FOGBAND
 10
90.603177398136765
 20
73.806422908506889
 30
0.0000000195376815
  0
VERTEX
  5
20D9
  8
SAPA_FOGBAND
 10
90.69289346339481
 20
74.769314189251062
 30
0.0000000195376815
 42
0.4416942457847888
  0
VERTEX
  5
20DA
  8
SAPA_FOGBAND
 10
90.493755983901906
 20
74.987868548878978
 30
0.0000000195376815
  0
VERTEX
  5
20DB
  8
SAPA_FOGBAND
 10
89.943773644310326
 20
74.987868548878978
 30
0.0000000195376815
 42
0.5445962197109612
  0
VERTEX
  5
20DC
  8
SAPA_FOGBAND
 10
89.488036735248485
 20
74.282189503473901
 30
0.0000000195376815
  0
VERTEX
  5
20DD
  8
SAPA_FOGBAND
 10
89.650080442902791
 20
73.923138350188637
 30
0.0000000195376815
  0
VERTEX
  5
20DE
  8
SAPA_FOGBAND
 10
89.650080442902791
 20
72.450179111440747
 30
0.0000000195376815
 42
0.3364379234965429
  0
VERTEX
  5
20DF
  8
SAPA_FOGBAND
 10
89.837587260744527
 20
71.378435381825895
 30
0.0000000195376815
  0
VERTEX
  5
20E0
  8
SAPA_FOGBAND
 10
89.837587260744527
 20
70.816571746002197
 30
0.0000000195376815
 42
-0.1919812372740509
  0
VERTEX
  5
20E1
  8
SAPA_FOGBAND
 10
89.700454882727257
 20
70.472584698402144
 30
0.0000000195376815
  0
VERTEX
  5
20E2
  8
SAPA_FOGBAND
 10
89.328977406437176
 20
70.080717767998891
 30
0.0000000195376815
 42
-0.7712067734688043
  0
VERTEX
  5
20E3
  8
SAPA_FOGBAND
 10
86.519343410756505
 20
72.653149467873007
 30
0.0000000195376815
 42
-0.152544453744271
  0
VERTEX
  5
20E4
  8
SAPA_FOGBAND
 10
87.411218679510284
 20
73.522575217713182
 30
0.0000000195376815
 42
0.6229515670381967
  0
VERTEX
  5
20E5
  8
SAPA_FOGBAND
 10
87.311336395687775
 20
73.997515402488915
 30
0.0000000195376815
 42
0.2412896305485237
  0
VERTEX
  5
20E6
  8
SAPA_FOGBAND
 10
86.907871581345631
 20
73.9607641311908
 30
0.0000000195376815
 42
0.0924947384438033
  0
VERTEX
  5
20E7
  8
SAPA_FOGBAND
 10
86.217371169304215
 20
73.338771222460522
 30
0.0000000195376815
 42
0.8622191196043894
  0
VERTEX
  5
20E8
  8
SAPA_FOGBAND
 10
89.793282921280053
 20
69.514900068719228
 30
0.0000000195376815
  0
VERTEX
  5
20E9
  8
SAPA_FOGBAND
 10
89.908650894569163
 20
69.084340930837968
 30
0.0000000195376815
 42
0.9163311740173991
  0
VERTEX
  5
20EA
  8
SAPA_FOGBAND
 10
90.693499104321504
 20
69.222730845978063
 30
0.0000000195376815
  0
VERTEX
  5
20EB
  8
SAPA_FOGBAND
 10
90.601836658113967
 20
70.270437400329442
 30
0.0000000195376815
 42
-0.4400105308918151
  0
VERTEX
  5
20EC
  8
SAPA_FOGBAND
 10
90.801075597732293
 20
70.487868548878978
 30
0.0000000195376815
  0
VERTEX
  5
20ED
  8
SAPA_FOGBAND
 10
91.650080442902777
 20
70.487868548878978
 30
0.0000000195376815
  0
VERTEX
  5
20EE
  8
SAPA_FOGBAND
 10
91.650080442902777
 20
70.087868548878973
 30
0.0000000195376815
 42
0.5693809839207585
  0
VERTEX
  5
20EF
  8
SAPA_FOGBAND
 10
91.945896814605405
 20
69.912314503315443
 30
0.0000000195376815
  0
VERTEX
  5
20F0
  8
SAPA_FOGBAND
 10
93.237529558010721
 20
70.617280103214469
 30
0.0000000195376815
 42
0.2743878130875472
  0
VERTEX
  5
20F1
  8
SAPA_FOGBAND
 10
93.550080442902797
 20
71.143942239905201
 30
0.0000000195376815
  0
VERTEX
  5
20F2
  8
SAPA_FOGBAND
 10
93.550080442902797
 20
72.931794857852751
 30
0.0000000195376815
 42
0.2743878130875473
  0
VERTEX
  5
20F3
  8
SAPA_FOGBAND
 10
93.237529558010721
 20
73.458456994543482
 30
0.0000000195376815
  0
VERTEX
  5
20F4
  8
SAPA_FOGBAND
 10
91.945896814605476
 20
74.163422594442565
 30
0.0000000195376815
 42
0.5693809839208271
  0
VERTEX
  5
20F5
  8
SAPA_FOGBAND
 10
91.650080442902734
 20
73.987868548878978
 30
0.0000000195376815
  0
VERTEX
  5
20F6
  8
SAPA_FOGBAND
 10
91.650080442902805
 20
73.587868548878973
 30
0.0000000195376815
  0
VERTEX
  5
20F7
  8
SAPA_FOGBAND
 10
90.801075597732321
 20
73.587868548878973
 30
0.0000000195376815
  0
SEQEND
  5
20F8
  8
SAPA_FOGBAND
  0
LINE
  5
141F
  8
SAPA_FOGBAND
 10
90.699999926818066
 20
69.700000258001296
 30
0.0
 11
90.699999926818066
 21
69.700000258001296
 31
0.0
  0
DIMENSION
  5
142B
  8
SAPA_MATT
  2
*D104
 10
209.5005704440793
 20
-35.231494793416459
 30
0.0
 11
109.5005704440794
 21
-32.731494793416459
 31
0.0
 70
     0
  1
197-202
 13
9.5005704440795782
 23
-20.29999999980722
 33
0.0
 14
209.5005704440793
 24
-20.299999999807291
 34
0.0
1001
ACAD
1000
DSTYLE
1002
{
1070
    40
1040
1.0
1002
}
  0
DIMENSION
  5
142C
  8
SAPA_MATT
  2
*D103
 10
124.9114101544896
 20
44.700000000351068
 30
0.0
 11
124.9114101544896
 21
92.541988772732509
 31
0.0
 70
   128
  1
94.5
 13
83.799999992843112
 23
139.19999970229509
 33
0.0
 14
116.8005704441029
 24
44.700000000351068
 34
0.0
 50
90.0
1001
ACAD
1000
DSTYLE
1002
{
1070
    40
1040
1.0
1002
}
  0
DIMENSION
  5
142D
  8
SAPA_MATT
  2
*D102
 10
95.199999992843232
 20
166.32328570420631
 30
0.0
 11
47.449999992843203
 21
168.82328570420631
 31
0.0
 70
     0
 13
-0.3000000071568394
 23
138.70000000229041
 33
0.0
 14
95.199999992843232
 24
109.9831220022883
 34
0.0
1001
ACAD
1000
DSTYLE
1002
{
1070
    40
1040
1.0
1002
}
  0
DIMENSION
  5
142E
  8
SAPA_MATT
  2
*D101
 10
-39.927207388985657
 20
139.20000000229041
 30
0.0
 11
-42.427207388985678
 21
69.450000001145185
 31
0.0
 70
     0
 13
0.0
 23
-0.3000000000000895
 33
0.0
 14
0.1999999928431606
 24
139.20000000229041
 34
0.0
 50
90.0
1001
ACAD
1000
DSTYLE
1002
{
1070
    40
1040
1.0
1002
}
  0
DIMENSION
  5
142F
  8
SAPA_MATT
  2
*D100
 10
-20.30000000003615
 20
139.20000000229049
 30
0.0
 11
-22.800000000036171
 21
120.45000000229049
 31
0.0
 70
     0
 13
0.1999999928431523
 23
101.70000000229049
 33
0.0
 14
0.1999999928431594
 24
139.20000000229049
 34
0.0
 50
90.0
1001
ACAD
1000
DSTYLE
1002
{
1070
    40
1040
1.0
1002
}
  0
DIMENSION
  5
1430
  8
SAPA_MATT
  2
*D99
 10
-20.30000000003615
 20
101.7000000022903
 30
0.0
 11
-22.80000000003616
 21
99.200000001127336
 31
0.0
 70
     0
 13
0.1999999998930804
 23
96.699999999964334
 33
0.0
 14
0.1999996539043991
 24
101.7000000022903
 34
0.0
 50
90.0
1001
ACAD
1000
DSTYLE
1002
{
1070
    40
1040
1.0
1002
}
  0
DIMENSION
  5
1431
  8
SAPA_MATT
  2
*D98
 10
-20.300000000036182
 20
-0.3004540916627163
 30
0.0
 11
-22.800000000036171
 21
48.199545908319521
 31
0.0
 70
     0
 13
0.199999999885879
 23
96.699545908301758
 33
0.0
 14
-0.0000000000073044
 24
-0.3004540916627221
 34
0.0
 50
270.0
1001
ACAD
1000
DSTYLE
1002
{
1070
    40
1040
1.0
1002
}
  0
VIEWPORT
  5
C4
 67
     1
  8
0
 10
160.5543545598442
 20
116.00969601843509
 30
0.0
 40
404.96977709277462
 41
256.8421457311839
 68
     1
 69
     1
1001
ACAD
1000
MVIEW
1002
{
1070
    16
1010
0.0
1020
0.0
1030
0.0
1010
0.0
1020
0.0
1030
1.0
1040
-1.5707963267948959
1040
256.8421457311839
1040
102.1562485694885
1040
-121.90624046325679
1040
50.0
1040
0.0
1040
0.0
1070
     0
1070
     0
1070
     1
1070
     1
1070
     0
1070
     0
1070
     0
1070
     0
1040
0.0
1040
0.0
1040
0.0
1040
10.0
1040
10.0
1040
10.0
1040
10.0
1070
     0
1002
{
1002
}
1002
}
  0
ENDSEC
  0
EOF
