  0
SECTION
  2
HEADER
  9
$ACADVER
  1
AC1009
  9
$INSBASE
 10
0.0
 20
0.0
 30
0.0
  9
$EXTMIN
 10
-80.753631930778283
 20
-2437.3034682377429
 30
0.0
  9
$EXTMAX
 10
7563.018507678592
 20
3501.5788486969318
 30
0.0
  9
$LIMMIN
 10
0.0
 20
0.0
  9
$LIMMAX
 10
790.0
 20
790.0
  9
$ORTHOMODE
 70
     1
  9
$REGENMODE
 70
     1
  9
$FILLMODE
 70
     1
  9
$QTEXTMODE
 70
     0
  9
$MIRRTEXT
 70
     1
  9
$DRAGMODE
 70
     2
  9
$LTSCALE
 40
4.0
  9
$OSMODE
 70
    37
  9
$ATTMODE
 70
     1
  9
$TEXTSIZE
 40
3.5
  9
$TRACEWID
 40
0.05
  9
$TEXTSTYLE
  7
ISO
  9
$CLAYER
  8
SAPA_ELEVATION
  9
$CELTYPE
  6
BYLAYER
  9
$CECOLOR
 62
   256
  9
$DIMSCALE
 40
0.0
  9
$DIMASZ
 40
3.0
  9
$DIMEXO
 40
1.5
  9
$DIMDLI
 40
10.0
  9
$DIMRND
 40
0.0
  9
$DIMDLE
 40
0.0
  9
$DIMEXE
 40
1.5
  9
$DIMTP
 40
0.0
  9
$DIMTM
 40
0.0
  9
$DIMTXT
 40
3.0
  9
$DIMCEN
 40
-5.0
  9
$DIMTSZ
 40
0.0
  9
$DIMTOL
 70
     0
  9
$DIMLIM
 70
     0
  9
$DIMTIH
 70
     0
  9
$DIMTOH
 70
     0
  9
$DIMSE1
 70
     0
  9
$DIMSE2
 70
     0
  9
$DIMTAD
 70
     1
  9
$DIMZIN
 70
     8
  9
$DIMBLK
  1

  9
$DIMASO
 70
     1
  9
$DIMSHO
 70
     1
  9
$DIMPOST
  1

  9
$DIMAPOST
  1

  9
$DIMALT
 70
     0
  9
$DIMALTD
 70
     0
  9
$DIMALTF
 40
25.399999999999999
  9
$DIMLFAC
 40
-1.0
  9
$DIMTOFL
 70
     1
  9
$DIMTVP
 40
0.0
  9
$DIMTIX
 70
     0
  9
$DIMSOXD
 70
     0
  9
$DIMSAH
 70
     0
  9
$DIMBLK1
  1

  9
$DIMBLK2
  1

  9
$DIMSTYLE
  2
MASKIN
  9
$DIMCLRD
 70
   256
  9
$DIMCLRE
 70
   256
  9
$DIMCLRT
 70
     2
  9
$DIMTFAC
 40
1.0
  9
$DIMGAP
 40
1.0
  9
$LUNITS
 70
     2
  9
$LUPREC
 70
     8
  9
$SKETCHINC
 40
0.1
  9
$FILLETRAD
 40
0.0
  9
$AUNITS
 70
     0
  9
$AUPREC
 70
     8
  9
$MENU
  1
ACAD
  9
$ELEVATION
 40
0.0
  9
$PELEVATION
 40
0.0
  9
$THICKNESS
 40
0.0
  9
$LIMCHECK
 70
     0
  9
$BLIPMODE
 70
     0
  9
$CHAMFERA
 40
0.0
  9
$CHAMFERB
 40
0.0
  9
$SKPOLY
 70
     0
  9
$TDCREATE
 40
2455271.5983197689
  9
$TDUPDATE
 40
2455691.4292339468
  9
$TDINDWG
 40
0.2232827083
  9
$TDUSRTIMER
 40
0.2232827083
  9
$USRTIMER
 70
     1
  9
$ANGBASE
 50
0.0
  9
$ANGDIR
 70
     0
  9
$PDMODE
 70
     0
  9
$PDSIZE
 40
0.0
  9
$PLINEWID
 40
0.0
  9
$COORDS
 70
     1
  9
$SPLFRAME
 70
     0
  9
$SPLINETYPE
 70
     6
  9
$SPLINESEGS
 70
     8
  9
$ATTDIA
 70
     0
  9
$ATTREQ
 70
     1
  9
$HANDLING
 70
     1
  9
$HANDSEED
  5
11D
  9
$SURFTAB1
 70
     6
  9
$SURFTAB2
 70
     6
  9
$SURFTYPE
 70
     6
  9
$SURFU
 70
     6
  9
$SURFV
 70
     6
  9
$UCSNAME
  2

  9
$UCSORG
 10
0.0
 20
0.0
 30
0.0
  9
$UCSXDIR
 10
1.0
 20
0.0
 30
0.0
  9
$UCSYDIR
 10
0.0
 20
1.0
 30
0.0
  9
$PUCSNAME
  2

  9
$PUCSORG
 10
0.0
 20
0.0
 30
0.0
  9
$PUCSXDIR
 10
1.0
 20
0.0
 30
0.0
  9
$PUCSYDIR
 10
0.0
 20
1.0
 30
0.0
  9
$USERI1
 70
     0
  9
$USERI2
 70
     0
  9
$USERI3
 70
     0
  9
$USERI4
 70
     0
  9
$USERI5
 70
     0
  9
$USERR1
 40
0.0
  9
$USERR2
 40
0.0
  9
$USERR3
 40
0.0
  9
$USERR4
 40
0.0
  9
$USERR5
 40
0.0
  9
$WORLDVIEW
 70
     1
  9
$SHADEDGE
 70
     3
  9
$SHADEDIF
 70
    70
  9
$TILEMODE
 70
     1
  9
$MAXACTVP
 70
    16
  9
$PLIMCHECK
 70
     0
  9
$PEXTMIN
 10
5.869999703752308
 20
-0.0000001723469722
 30
0.0
  9
$PEXTMAX
 10
185.86836054690431
 20
282.99999982765303
 30
0.0
  9
$PLIMMIN
 10
-14.406514999948911
 20
-4.2536696474310238
  9
$PLIMMAX
 10
195.56681263676981
 20
292.67232522561591
  9
$UNITMODE
 70
     0
  9
$VISRETAIN
 70
     1
  9
$PLINEGEN
 70
     0
  9
$PSLTSCALE
 70
     1
  0
ENDSEC
  0
SECTION
  2
TABLES
  0
TABLE
  2
VPORT
 70
     1
  0
VPORT
  2
*ACTIVE
 70
     0
 10
0.0
 20
0.0
 11
1.0
 21
1.0
 12
3861.6011254080458
 22
1437.2348291329799
 13
0.0
 23
0.0
 14
1.0
 24
1.0
 15
0.0
 25
0.0
 16
0.0
 26
0.0
 36
1.0
 17
0.0
 27
0.0
 37
0.0
 40
4136.1959634438017
 41
2.362397820163487
 42
50.0
 43
0.0
 44
0.0
 50
0.0
 51
0.0
 71
     0
 72
   100
 73
     1
 74
     1
 75
     0
 76
     0
 77
     0
 78
     0
  0
ENDTAB
  0
TABLE
  2
LTYPE
 70
     1
  0
LTYPE
  2
CONTINUOUS
 70
     0
  3
Solid line
 72
    65
 73
     0
 40
0.0
  0
ENDTAB
  0
TABLE
  2
LAYER
 70
     4
  0
LAYER
  2
0
 70
     1
 62
    -7
  6
CONTINUOUS
  0
LAYER
  2
DEFPOINTS
 70
     1
 62
    -7
  6
CONTINUOUS
  0
LAYER
  2
SAPA_ELEVATION
 70
     0
 62
     7
  6
CONTINUOUS
  0
LAYER
  2
SAPA_MATT
 70
     0
 62
     1
  6
CONTINUOUS
  0
ENDTAB
  0
TABLE
  2
STYLE
 70
     2
  0
STYLE
  2
STANDARD
 70
     0
 40
0.0
 41
1.0
 50
0.0
 71
     0
 42
0.2
  3
txt
  4

  0
STYLE
  2
ISO
 70
     0
 40
0.0
 41
1.0
 50
0.0
 71
     0
 42
3.5
  3
txt
  4

  0
ENDTAB
  0
TABLE
  2
VIEW
 70
     0
  0
ENDTAB
  0
TABLE
  2
UCS
 70
     0
  0
ENDTAB
  0
TABLE
  2
APPID
 70
     4
  0
APPID
  2
ACAD
 70
     0
  0
APPID
  2
ACAD_DSTYLE_DIMJOGGED_JOGA
 70
     0
  0
APPID
  2
ACAD_PSEXT
 70
     0
  0
APPID
  2
ACAECLAYERSTANDARD
 70
     0
  0
ENDTAB
  0
TABLE
  2
DIMSTYLE
 70
     1
  0
DIMSTYLE
  2
MASKIN
 70
     0
  3

  4

  5

  6

  7

 40
0.0
 41
3.0
 42
1.5
 43
10.0
 44
1.5
 45
0.0
 46
0.0
 47
0.0
 48
0.0
140
3.0
141
-5.0
142
0.0
143
25.399999999999999
144
-1.0
145
0.0
146
1.0
147
1.0
 71
     0
 72
     0
 73
     0
 74
     0
 75
     0
 76
     0
 77
     1
 78
     8
170
     0
171
     0
172
     1
173
     0
174
     0
175
     0
176
   256
177
   256
178
     2
  0
ENDTAB
  0
ENDSEC
  0
SECTION
  2
BLOCKS
  0
BLOCK
  8
0
  2
$MODEL_SPACE
 70
     0
 10
0.0
 20
0.0
 30
0.0
  3
$MODEL_SPACE
  1

  0
ENDBLK
  5
F
  8
0
  0
BLOCK
 67
     1
  8
0
  2
$PAPER_SPACE
 70
     0
 10
0.0
 20
0.0
 30
0.0
  3
$PAPER_SPACE
  1

  0
ENDBLK
  5
15
 67
     1
  8
0
  0
BLOCK
  8
0
  2
BYGG-022835
 70
     4
 10
37.192247119631077
 20
140.8127622184482
 30
0.0
  3
BYGG-022835
  1
\\spnves96\pspdata$\2010\03\0\BYGG-022835.dwg
  0
ENDBLK
  5
8D
  8
0
  0
BLOCK
  8
0
  2
BYGG-022836
 70
     4
 10
37.192247119631077
 20
140.8127622184482
 30
0.0
  3
BYGG-022836
  1
\\spnves96\pspdata$\2010\03\0\BYGG-022836.dwg
  0
ENDBLK
  5
89
  8
0
  0
BLOCK
  8
0
  2
BYGG-022934
 70
     4
 10
37.192247119631077
 20
140.8127622184482
 30
0.0
  3
BYGG-022934
  1
\\spnves96\pspdata$\2010\03\0\BYGG-022934.dwg
  0
ENDBLK
  5
85
  8
0
  0
BLOCK
  8
0
  2
BYGG-022937
 70
     4
 10
37.192247119631077
 20
140.8127622184482
 30
0.0
  3
BYGG-022937
  1
\\spnves96\pspdata$\2010\03\0\BYGG-022937.dwg
  0
ENDBLK
  5
81
  8
0
  0
BLOCK
  8
0
  2
*D4
 70
     1
 10
0.0
 20
0.0
 30
0.0
  3
*D4
  1

  0
LINE
  5
66
  8
SAPA_MATT
 10
1700.0
 20
2708.0000000255591
 30
0.0
 11
1700.0
 21
3263.946272858373
 31
0.0
  0
LINE
  5
67
  8
SAPA_MATT
 10
3353.0
 20
2708.0000000255591
 30
0.0
 11
3353.0
 21
3263.946272858373
 31
0.0
  0
LINE
  5
68
  8
SAPA_MATT
 10
1850.0000000511179
 20
3188.946272832814
 30
0.0
 11
3202.9999999488809
 21
3188.946272832814
 31
0.0
  0
SOLID
  5
69
  8
SAPA_MATT
 10
1850.0000000511179
 20
3213.9462728413332
 30
0.0
 11
1850.0000000511179
 21
3163.9462728242938
 31
0.0
 12
1700.0
 22
3188.946272832814
 32
0.0
 13
1700.0
 23
3188.946272832814
 33
0.0
  0
SOLID
  5
6A
  8
SAPA_MATT
 10
3202.9999999488809
 20
3213.9462728413332
 30
0.0
 11
3202.9999999488809
 21
3163.9462728242938
 31
0.0
 12
3353.0
 22
3188.946272832814
 32
0.0
 13
3353.0
 23
3188.946272832814
 33
0.0
  0
INSERT
  5
6B
  8
SAPA_ELEVATION
  2
*U6
 10
0.0
 20
0.0
 30
0.0
  0
POINT
  5
6C
  8
DEFPOINTS
 62
     0
 10
1700.0
 20
2633.0
 30
0.0
  0
POINT
  5
6E
  8
DEFPOINTS
 62
     0
 10
3353.0
 20
2633.0
 30
0.0
  0
POINT
  5
6F
  8
DEFPOINTS
 62
     0
 10
3353.0
 20
3188.946272832814
 30
0.0
  0
ENDBLK
  5
70
  8
0
  0
BLOCK
  8
0
  2
*D5
 70
     1
 10
0.0
 20
0.0
 30
0.0
  3
*D5
  1

  0
LINE
  5
74
  8
SAPA_MATT
 10
6973.6923079820308
 20
2655.0000000000009
 30
0.0
 11
7563.018507678592
 21
2655.0000000000009
 31
0.0
  0
LINE
  5
75
  8
SAPA_MATT
 10
6973.6923079820308
 20
524.99999999999613
 30
0.0
 11
7563.018507678591
 21
524.99999999999602
 31
0.0
  0
LINE
  5
76
  8
SAPA_MATT
 10
7503.0185076785929
 20
2535.0000000000009
 30
0.0
 11
7503.018507678591
 21
644.99999999999602
 31
0.0
  0
SOLID
  5
77
  8
SAPA_MATT
 10
7483.018507678592
 20
2535.0000000000009
 30
0.0
 11
7523.018507678592
 21
2535.0000000000009
 31
0.0
 12
7503.0185076785929
 22
2655.0000000000009
 32
0.0
 13
7503.0185076785929
 23
2655.0000000000009
 33
0.0
  0
SOLID
  5
78
  8
SAPA_MATT
 10
7483.018507678591
 20
644.99999999999602
 30
0.0
 11
7523.018507678592
 21
644.99999999999602
 31
0.0
 12
7503.018507678591
 22
524.99999999999602
 32
0.0
 13
7503.018507678591
 23
524.99999999999602
 33
0.0
  0
INSERT
  5
79
  8
SAPA_ELEVATION
  2
*U7
 10
0.0
 20
0.0
 30
0.0
  0
POINT
  5
7A
  8
DEFPOINTS
 62
     0
 10
6913.6923079820317
 20
2655.0000000000009
 30
0.0
  0
POINT
  5
7B
  8
DEFPOINTS
 62
     0
 10
6913.6923079820317
 20
524.99999999999613
 30
0.0
  0
POINT
  5
7C
  8
DEFPOINTS
 62
     0
 10
7503.018507678591
 20
524.99999999999602
 30
0.0
  0
ENDBLK
  5
7D
  8
0
  0
BLOCK
  8
0
  2
*U6
 70
     1
 10
0.0
 20
0.0
 30
0.0
  3
*U6
  1

  0
TEXT
  5
115
  8
SAPA_MATT
 62
     2
 10
2045.2499998359949
 20
3239.0788486074748
 30
0.0
 40
175.00000005963801
  1
Max 1650
  7
ISO
  0
ENDBLK
  5
118
  8
0
  0
BLOCK
  8
0
  2
*U7
 70
     1
 10
0.0
 20
0.0
 30
0.0
  3
*U7
  1

  0
TEXT
  5
11A
  8
SAPA_MATT
 62
     2
 10
7421.018507678592
 20
581.99999999999955
 30
0.0
 40
140.0
  1
Max dörrbladshöjd 2140
 50
90.0
  7
ISO
  0
ENDBLK
  5
11C
  8
0
  0
ENDSEC
  0
SECTION
  2
ENTITIES
  0
DIMENSION
  5
62
  8
SAPA_MATT
  2
*D4
 10
3353.0
 20
3188.946272832814
 30
0.0
 11
2526.5
 21
3326.5125607584828
 31
0.0
  1
Max 1650
 13
1700.0
 23
2633.0
 33
0.0
 14
3353.0
 24
2633.0
 34
0.0
1001
ACAD
1000
DSTYLE
1002
{
1070
   140
1040
3.5
1070
    40
1040
50.00000001703944
1002
}
  0
DIMENSION
  5
71
  8
SAPA_MATT
  2
*D5
 10
7503.018507678591
 20
524.99999999999602
 30
0.0
 11
7372.018507678591
 21
1589.9999999999991
 31
0.0
  1
Max dörrbladshöjd 2140
 13
6913.6923079820317
 23
2655.0000000000009
 33
0.0
 14
6913.6923079820317
 24
524.99999999999613
 34
0.0
 50
90.0
1001
ACAD
1000
DSTYLE
1002
{
1070
   140
1040
3.5
1070
    40
1040
40.0
1002
}
  0
INSERT
  5
7E
  8
SAPA_ELEVATION
  2
BYGG-022937
 10
1842.4737982513179
 20
-1715.9470164562861
 30
0.0
  0
INSERT
  5
82
  8
SAPA_ELEVATION
  2
BYGG-022934
 10
984.57809743726102
 20
-2285.4473853704999
 30
0.0
  0
INSERT
  5
86
  8
SAPA_ELEVATION
  2
BYGG-022836
 10
56.51001983990863
 20
-1741.876442195555
 30
0.0
  0
INSERT
  5
8A
  8
SAPA_ELEVATION
  2
BYGG-022835
 10
991.09075025518177
 20
-1320.782925874822
 30
0.0
  0
LINE
  5
8E
  8
SAPA_ELEVATION
 62
     1
 10
5077.7042225942423
 20
2424.7473006012629
 30
0.0
 11
5077.7042225942423
 21
2469.4726711197791
 31
0.0
  0
LINE
  5
8F
  8
SAPA_ELEVATION
 62
     1
 10
5024.0337779720221
 20
2424.747300601261
 30
0.0
 11
5024.0337779720221
 21
2469.4726711197791
 31
0.0
  0
LINE
  5
90
  8
SAPA_ELEVATION
 62
     1
 10
5077.7042225942423
 20
2335.2965595642299
 30
0.0
 11
5077.7042225942423
 21
2380.021930082748
 31
0.0
  0
LINE
  5
91
  8
SAPA_ELEVATION
 62
     1
 10
5144.7922783720187
 20
2380.021930082748
 30
0.0
 11
5144.7922783720187
 21
2424.747300601261
 31
0.0
  0
LINE
  5
92
  8
SAPA_ELEVATION
 62
     1
 10
5049.7508660201693
 20
2380.021930082748
 30
0.0
 11
5049.7508660201693
 21
2424.747300601261
 31
0.0
  0
LINE
  5
93
  8
SAPA_ELEVATION
 62
     1
 10
5024.0337779720221
 20
2335.2965595642299
 30
0.0
 11
5024.0337779720221
 21
2380.0219300827462
 31
0.0
  0
LINE
  5
94
  8
SAPA_ELEVATION
 62
     1
 10
5077.7042225942423
 20
2335.2965595642299
 30
0.0
 11
5024.0337779720221
 21
2335.2965595642299
 31
0.0
  0
LINE
  5
95
  8
SAPA_ELEVATION
 62
     1
 10
5077.7042225942423
 20
2469.4726711197791
 30
0.0
 11
5024.0337779720221
 21
2469.4726711197791
 31
0.0
  0
LINE
  5
96
  8
SAPA_ELEVATION
 62
     1
 10
5144.7922783720187
 20
780.82422375528017
 30
0.0
 11
5024.0337779720221
 21
780.82422375528017
 31
0.0
  0
LINE
  5
97
  8
SAPA_ELEVATION
 62
     1
 10
5144.7922783720187
 20
736.09885323676758
 30
0.0
 11
5024.0337779720221
 21
736.09885323676485
 31
0.0
  0
LINE
  5
98
  8
SAPA_ELEVATION
 62
     1
 10
5077.7042225942432
 20
825.54959427379811
 30
0.0
 11
5024.0337779720221
 21
825.54959427379811
 31
0.0
  0
LINE
  5
99
  8
SAPA_ELEVATION
 62
     1
 10
5077.7042225942432
 20
691.37348271824965
 30
0.0
 11
5024.0337779720221
 21
691.37348271824965
 31
0.0
  0
LINE
  5
9A
  8
SAPA_ELEVATION
 62
     1
 10
5024.0337779720221
 20
691.37348271824965
 30
0.0
 11
5024.0337779720221
 21
736.09885323676485
 31
0.0
  0
LINE
  5
9B
  8
SAPA_ELEVATION
 62
     1
 10
5049.7508660201702
 20
736.09885323676758
 30
0.0
 11
5049.7508660201702
 21
780.82422375528017
 31
0.0
  0
LINE
  5
9C
  8
SAPA_ELEVATION
 62
     1
 10
5144.7922783720187
 20
736.09885323676758
 30
0.0
 11
5144.7922783720187
 21
780.82422375528017
 31
0.0
  0
LINE
  5
9D
  8
SAPA_ELEVATION
 62
     1
 10
5077.7042225942432
 20
691.37348271824965
 30
0.0
 11
5077.7042225942432
 21
736.09885323676758
 31
0.0
  0
LINE
  5
9E
  8
SAPA_ELEVATION
 62
     1
 10
5024.0337779720221
 20
780.82422375528017
 30
0.0
 11
5024.0337779720221
 21
825.54959427379811
 31
0.0
  0
LINE
  5
9F
  8
SAPA_ELEVATION
 62
     1
 10
5077.7042225942432
 20
780.82422375528279
 30
0.0
 11
5077.7042225942432
 21
825.54959427379811
 31
0.0
  0
LINE
  5
A0
  8
SAPA_ELEVATION
 62
     1
 10
5144.7922783720187
 20
2380.021930082748
 30
0.0
 11
5024.0337779720221
 21
2380.0219300827462
 31
0.0
  0
LINE
  5
A1
  8
SAPA_ELEVATION
 62
     1
 10
5144.7922783720187
 20
2424.747300601261
 30
0.0
 11
5024.0337779720221
 21
2424.747300601261
 31
0.0
  0
LINE
  5
A2
  8
SAPA_ELEVATION
 62
     1
 10
6895.0218633598106
 20
2424.7473006012629
 30
0.0
 11
6895.0218633598106
 21
2469.4726711197791
 31
0.0
  0
LINE
  5
A3
  8
SAPA_ELEVATION
 62
     1
 10
6948.6923079820317
 20
2424.747300601261
 30
0.0
 11
6948.6923079820317
 21
2469.4726711197791
 31
0.0
  0
LINE
  5
A4
  8
SAPA_ELEVATION
 62
     1
 10
6895.0218633598106
 20
2335.2965595642299
 30
0.0
 11
6895.0218633598106
 21
2380.021930082748
 31
0.0
  0
LINE
  5
A5
  8
SAPA_ELEVATION
 62
     1
 10
6827.9338075820342
 20
2380.021930082748
 30
0.0
 11
6827.9338075820342
 21
2424.747300601261
 31
0.0
  0
LINE
  5
A6
  8
SAPA_ELEVATION
 62
     1
 10
6922.9752199338827
 20
2380.021930082748
 30
0.0
 11
6922.9752199338827
 21
2424.747300601261
 31
0.0
  0
LINE
  5
A7
  8
SAPA_ELEVATION
 62
     1
 10
6948.6923079820317
 20
2335.2965595642299
 30
0.0
 11
6948.6923079820317
 21
2380.0219300827462
 31
0.0
  0
LINE
  5
A8
  8
SAPA_ELEVATION
 62
     1
 10
6895.0218633598106
 20
2335.2965595642299
 30
0.0
 11
6948.6923079820317
 21
2335.2965595642299
 31
0.0
  0
LINE
  5
A9
  8
SAPA_ELEVATION
 62
     1
 10
6895.0218633598106
 20
2469.4726711197791
 30
0.0
 11
6948.6923079820317
 21
2469.4726711197791
 31
0.0
  0
LINE
  5
AA
  8
SAPA_ELEVATION
 62
     1
 10
6827.9338075820342
 20
780.82422375528017
 30
0.0
 11
6948.6923079820317
 21
780.82422375528017
 31
0.0
  0
LINE
  5
AB
  8
SAPA_ELEVATION
 62
     1
 10
6827.9338075820342
 20
736.09885323676758
 30
0.0
 11
6948.6923079820317
 21
736.09885323676485
 31
0.0
  0
LINE
  5
AC
  8
SAPA_ELEVATION
 62
     1
 10
6895.0218633598106
 20
825.54959427379811
 30
0.0
 11
6948.6923079820317
 21
825.54959427379811
 31
0.0
  0
LINE
  5
AD
  8
SAPA_ELEVATION
 62
     1
 10
6895.0218633598106
 20
691.37348271824965
 30
0.0
 11
6948.6923079820317
 21
691.37348271824965
 31
0.0
  0
LINE
  5
AE
  8
SAPA_ELEVATION
 62
     1
 10
6948.6923079820317
 20
691.37348271824965
 30
0.0
 11
6948.6923079820317
 21
736.09885323676485
 31
0.0
  0
LINE
  5
AF
  8
SAPA_ELEVATION
 62
     1
 10
6922.9752199338827
 20
736.09885323676758
 30
0.0
 11
6922.9752199338827
 21
780.82422375528017
 31
0.0
  0
LINE
  5
B0
  8
SAPA_ELEVATION
 62
     1
 10
6827.9338075820342
 20
736.09885323676758
 30
0.0
 11
6827.9338075820342
 21
780.82422375528017
 31
0.0
  0
LINE
  5
B1
  8
SAPA_ELEVATION
 62
     1
 10
6895.0218633598106
 20
691.37348271824965
 30
0.0
 11
6895.0218633598106
 21
736.09885323676758
 31
0.0
  0
LINE
  5
B2
  8
SAPA_ELEVATION
 62
     1
 10
6948.6923079820317
 20
780.82422375528017
 30
0.0
 11
6948.6923079820317
 21
825.54959427379811
 31
0.0
  0
LINE
  5
B3
  8
SAPA_ELEVATION
 62
     1
 10
6895.0218633598106
 20
780.82422375528279
 30
0.0
 11
6895.0218633598106
 21
825.54959427379811
 31
0.0
  0
LINE
  5
B4
  8
SAPA_ELEVATION
 62
     1
 10
6827.9338075820342
 20
2380.021930082748
 30
0.0
 11
6948.6923079820317
 21
2380.0219300827462
 31
0.0
  0
LINE
  5
B5
  8
SAPA_ELEVATION
 62
     1
 10
6827.9338075820342
 20
2424.747300601261
 30
0.0
 11
6948.6923079820317
 21
2424.747300601261
 31
0.0
  0
LINE
  5
B6
  8
SAPA_ELEVATION
 62
     1
 10
6079.8461539910149
 20
603.00000000000443
 30
0.0
 11
6079.8461539910149
 21
1569.8076924569971
 31
0.0
  0
LINE
  5
B7
  8
SAPA_ELEVATION
 62
     1
 10
6805.6923079820317
 20
602.99999999999875
 30
0.0
 11
6079.8461539910149
 21
603.00000000000443
 31
0.0
  0
LINE
  5
B8
  8
SAPA_ELEVATION
 62
     1
 10
6805.6923079820317
 20
1569.8076924569959
 30
0.0
 11
6805.6923079820317
 21
602.99999999999875
 31
0.0
  0
LINE
  5
B9
  8
SAPA_ELEVATION
 62
     1
 10
6079.8461539910149
 20
1569.8076924569971
 30
0.0
 11
6805.6923079820317
 21
1569.8076924569959
 31
0.0
  0
LINE
  5
BA
  8
SAPA_ELEVATION
 62
     1
 10
6001.8461539910149
 20
2655.0000000000018
 30
0.0
 11
6001.8461539910159
 21
520.00000000000011
 31
0.0
  0
LINE
  5
BB
  8
SAPA_ELEVATION
 62
     1
 10
6883.1153849010152
 20
2625.0
 30
0.0
 11
6001.8461539910149
 21
2625.0
 31
0.0
  0
LINE
  5
BC
  8
SAPA_ELEVATION
 62
     1
 10
6883.6923079820299
 20
524.99999999999625
 30
0.0
 11
6883.6923079820299
 21
2625.0
 31
0.0
  0
LINE
  5
BD
  8
SAPA_ELEVATION
 62
     1
 10
6001.8461539910159
 20
525.00000000000193
 30
0.0
 11
6913.6923079820317
 21
524.99999999999613
 31
0.0
  0
LINE
  5
BE
  8
SAPA_ELEVATION
 62
     1
 10
6079.8461539910159
 20
1658.8076924569971
 30
0.0
 11
6805.6923079820317
 21
1658.8076924569971
 31
0.0
  0
LINE
  5
BF
  8
SAPA_ELEVATION
 62
     1
 10
6079.8461539910149
 20
2547.0000000000009
 30
0.0
 11
6079.8461539910159
 21
1658.8076924569971
 31
0.0
  0
LINE
  5
C0
  8
SAPA_ELEVATION
 62
     1
 10
6805.6923079820317
 20
2547.0000000000009
 30
0.0
 11
6079.8461539910149
 21
2547.0000000000009
 31
0.0
  0
LINE
  5
C1
  8
SAPA_ELEVATION
 62
     1
 10
6805.6923079820317
 20
1658.8076924569971
 30
0.0
 11
6805.6923079820317
 21
2547.0000000000009
 31
0.0
  0
LINE
  5
C2
  8
SAPA_ELEVATION
 62
     1
 10
5893.8461539910149
 20
603.00000000000443
 30
0.0
 11
5893.8461539910149
 21
1569.8076924569971
 31
0.0
  0
LINE
  5
C3
  8
SAPA_ELEVATION
 62
     1
 10
5167.9999999999991
 20
602.99999999999886
 30
0.0
 11
5893.8461539910149
 21
603.00000000000443
 31
0.0
  0
LINE
  5
C4
  8
SAPA_ELEVATION
 62
     1
 10
5167.9999999999991
 20
1569.8076924569971
 30
0.0
 11
5167.9999999999991
 21
602.99999999999886
 31
0.0
  0
LINE
  5
C5
  8
SAPA_ELEVATION
 62
     1
 10
5893.8461539910149
 20
1569.8076924569971
 30
0.0
 11
5167.9999999999991
 21
1569.8076924569971
 31
0.0
  0
LINE
  5
C6
  8
SAPA_ELEVATION
 62
     1
 10
5893.8461539910159
 20
1658.8076924569971
 30
0.0
 11
5167.9999999999991
 21
1658.8076924569971
 31
0.0
  0
LINE
  5
C7
  8
SAPA_ELEVATION
 62
     1
 10
5893.8461539910149
 20
2547.0000000000009
 30
0.0
 11
5893.8461539910159
 21
1658.8076924569971
 31
0.0
  0
LINE
  5
C8
  8
SAPA_ELEVATION
 62
     1
 10
5167.9999999999991
 20
2547.0000000000009
 30
0.0
 11
5893.8461539910149
 21
2547.0000000000009
 31
0.0
  0
LINE
  5
C9
  8
SAPA_ELEVATION
 62
     1
 10
5167.9999999999991
 20
1658.8076924569971
 30
0.0
 11
5167.9999999999991
 21
2547.0000000000009
 31
0.0
  0
LINE
  5
CA
  8
SAPA_ELEVATION
 62
     1
 10
5971.8461539910149
 20
2625.0
 30
0.0
 11
5971.8461539910149
 21
525.00000000000193
 31
0.0
  0
LINE
  5
CB
  8
SAPA_ELEVATION
 62
     1
 10
5089.9999999999982
 20
2625.0000000000009
 30
0.0
 11
5971.8461539910149
 21
2625.0
 31
0.0
  0
LINE
  5
CC
  8
SAPA_ELEVATION
 62
     1
 10
5089.9999999999991
 20
524.99999999999659
 30
0.0
 11
5089.9999999999982
 21
2625.0000000000009
 31
0.0
  0
LINE
  5
CD
  8
SAPA_ELEVATION
 62
     1
 10
5971.8461539910149
 20
525.00000000000193
 30
0.0
 11
5059.9999999999982
 21
524.99999999999636
 31
0.0
  0
LINE
  5
CE
  8
SAPA_ELEVATION
 10
6958.6923079820317
 20
2700.0
 30
0.0
 11
6958.6923079820317
 21
500.0
 31
0.0
  0
LINE
  5
CF
  8
SAPA_ELEVATION
 62
     1
 10
5059.9999999999982
 20
2469.4726711197782
 30
0.0
 11
5059.9999999999982
 21
2655.0000000000018
 31
0.0
  0
LINE
  5
D0
  8
SAPA_ELEVATION
 62
     1
 10
5059.9999999999982
 20
825.54959427377059
 30
0.0
 11
5059.9999999999982
 21
2335.2965595642272
 31
0.0
  0
LINE
  5
D1
  8
SAPA_ELEVATION
 62
     1
 10
6913.6923079820317
 20
691.37348271822043
 30
0.0
 11
6913.6923079820317
 21
499.99999999999977
 31
0.0
  0
LINE
  5
D2
  8
SAPA_ELEVATION
 62
     1
 10
6913.6923079820317
 20
2335.2965595642272
 30
0.0
 11
6913.6923079820317
 21
825.54959427377037
 31
0.0
  0
LINE
  5
D3
  8
SAPA_ELEVATION
 10
0.0
 20
500.0
 30
0.0
 11
6958.6923079820317
 21
500.0
 31
0.0
  0
LINE
  5
D4
  8
SAPA_ELEVATION
 62
     1
 10
6913.6923079820317
 20
2655.0000000000009
 30
0.0
 11
6913.6923079820317
 21
2469.4726711197782
 31
0.0
  0
LINE
  5
D5
  8
SAPA_ELEVATION
 62
     1
 10
5059.9999999999982
 20
500.0
 30
0.0
 11
5059.9999999999982
 21
691.37348271822054
 31
0.0
  0
LINE
  5
D6
  8
SAPA_ELEVATION
 62
     1
 10
5977.6153847610149
 20
520.00000000000011
 30
0.0
 11
6913.6923079820317
 21
520.0
 31
0.0
  0
LINE
  5
D7
  8
SAPA_ELEVATION
 62
     1
 10
5987.3461539930067
 20
520.0
 30
0.0
 11
5059.9999999999982
 21
520.0
 31
0.0
  0
LINE
  5
D8
  8
SAPA_ELEVATION
 62
     1
 10
5059.9999999999982
 20
2655.0000000000018
 30
0.0
 11
5167.9999999999991
 21
2547.0000000000009
 31
0.0
  0
LINE
  5
D9
  8
SAPA_ELEVATION
 62
     1
 10
6001.8461539910149
 20
2655.0000000000009
 30
0.0
 11
5893.8461539910149
 21
2547.0000000000009
 31
0.0
  0
LINE
  5
DA
  8
SAPA_ELEVATION
 62
     1
 10
6001.8461539910149
 20
2625.0
 30
0.0
 11
6079.8461539910149
 21
2547.0000000000009
 31
0.0
  0
LINE
  5
DB
  8
SAPA_ELEVATION
 62
     1
 10
6913.6923079820317
 20
2655.0000000000009
 30
0.0
 11
6805.6923079820317
 21
2547.0000000000009
 31
0.0
  0
LINE
  5
DC
  8
SAPA_ELEVATION
 62
     1
 10
6883.6923079820299
 20
524.99999999999625
 30
0.0
 11
6805.6923079820317
 21
602.99999999999875
 31
0.0
  0
LINE
  5
DD
  8
SAPA_ELEVATION
 62
     1
 10
6079.8461539910149
 20
603.00000000000443
 30
0.0
 11
6001.8461539910159
 21
525.00000000000193
 31
0.0
  0
LINE
  5
DE
  8
SAPA_ELEVATION
 62
     1
 10
5893.8461539910149
 20
603.00000000000443
 30
0.0
 11
5971.8461539910149
 21
525.00000000000182
 31
0.0
  0
LINE
  5
DF
  8
SAPA_ELEVATION
 62
     1
 10
5089.9999999999991
 20
524.99999999999659
 30
0.0
 11
5167.9999999999991
 21
602.99999999999886
 31
0.0
  0
LINE
  5
E0
  8
SAPA_ELEVATION
 62
     1
 10
5059.9999999999982
 20
2655.0000000000018
 30
0.0
 11
6913.6923079820317
 21
2655.0000000000009
 31
0.0
  0
LINE
  5
E1
  8
SAPA_ELEVATION
 62
     1
 10
4985.9999999999982
 20
500.0
 30
0.0
 11
4985.9999999999982
 21
2633.0
 31
0.0
  0
LINE
  5
E2
  8
SAPA_ELEVATION
 62
     1
 10
3356.0
 20
567.0
 30
0.0
 11
3356.0000000000009
 21
2633.0
 31
0.0
  0
LINE
  5
E3
  8
SAPA_ELEVATION
 62
     1
 10
1703.0
 20
567.0
 30
0.0
 11
1702.9999999999991
 21
2633.0
 31
0.0
  0
LINE
  5
E4
  8
SAPA_ELEVATION
 62
     1
 10
3353.0
 20
567.0
 30
0.0
 11
3353.0
 21
2633.0
 31
0.0
  0
LINE
  5
E5
  8
SAPA_ELEVATION
 62
     1
 10
1700.0
 20
567.0
 30
0.0
 11
1699.9999999999991
 21
2633.0
 31
0.0
  0
LINE
  5
E6
  8
SAPA_ELEVATION
 62
     1
 10
67.0
 20
567.0
 30
0.0
 11
66.999999999999545
 21
2633.0
 31
0.0
  0
LINE
  5
E7
  8
SAPA_ELEVATION
 62
     1
 10
66.999999999999545
 20
2633.0
 30
0.0
 11
4985.9999999999982
 21
2633.0
 31
0.0
  0
LINE
  5
E8
  8
SAPA_ELEVATION
 62
     1
 10
4985.9999999999982
 20
567.0
 30
0.0
 11
67.0
 21
567.0
 31
0.0
  0
LINE
  5
E9
  8
SAPA_ELEVATION
 10
0.0
 20
500.0
 30
0.0
 11
-0.0000000000004547
 21
2700.0
 31
0.0
  0
LINE
  5
EA
  8
SAPA_ELEVATION
 10
-0.0000000000004547
 20
2700.0
 30
0.0
 11
6958.6923079820317
 21
2700.0000000000009
 31
0.0
  0
LINE
  5
EB
  8
SAPA_ELEVATION
 10
6913.6923079819198
 20
0.0
 30
0.0
 11
6001.6934047965606
 21
-165.23254448332011
 31
0.0
  0
LINE
  5
EC
  8
SAPA_ELEVATION
 10
5059.9999999999982
 20
0.0
 30
0.0
 11
5971.9989031854693
 21
-165.23254448334049
 31
0.0
  0
LINE
  5
ED
  8
SAPA_ELEVATION
 10
5986.8461539910159
 20
-0.0000000000000124
 30
0.0
 11
5986.8461539910149
 21
49.999999999999957
 31
0.0
  0
LINE
  5
EE
  8
SAPA_ELEVATION
 10
6079.8461539910159
 20
49.999999999999972
 30
0.0
 11
6079.8461539910159
 21
-0.0000000000000125
 31
0.0
  0
LINE
  5
EF
  8
SAPA_ELEVATION
 10
5893.8461539910168
 20
49.999999999999972
 30
0.0
 11
5893.8461539910168
 21
-0.0000000000000122
 31
0.0
  0
LINE
  5
F0
  8
SAPA_ELEVATION
 10
6805.6923079820317
 20
50.0
 30
0.0
 11
6805.6923079820317
 21
-0.0000000000000139
 31
0.0
  0
LINE
  5
F1
  8
SAPA_ELEVATION
 10
5167.9999999999991
 20
50.0
 30
0.0
 11
5167.9999999999991
 21
-0.0000000000000108
 31
0.0
  0
LINE
  5
F2
  8
SAPA_ELEVATION
 10
0.0
 20
0.0
 30
0.0
 11
0.0
 21
50.0
 31
0.0
  0
LINE
  5
F3
  8
SAPA_ELEVATION
 10
67.0
 20
-0.0000000000004547
 30
0.0
 11
67.0
 21
49.999999999999538
 31
0.0
  0
LINE
  5
F4
  8
SAPA_ELEVATION
 10
4985.9999999999991
 20
0.0
 30
0.0
 11
4985.9999999999991
 21
50.0
 31
0.0
  0
LINE
  5
F5
  8
SAPA_ELEVATION
 10
5059.9999999999982
 20
0.0
 30
0.0
 11
5059.9999999999982
 21
50.0
 31
0.0
  0
LINE
  5
F6
  8
SAPA_ELEVATION
 10
6958.6923079820317
 20
49.999999999999993
 30
0.0
 11
6958.6923079820317
 21
-0.0000000000000142
 31
0.0
  0
LINE
  5
F7
  8
SAPA_ELEVATION
 10
0.0
 20
0.0
 30
0.0
 11
6958.6923079820317
 21
-0.0000000000000147
 31
0.0
  0
LINE
  5
F8
  8
SAPA_ELEVATION
 10
0.0
 20
50.0
 30
0.0
 11
6958.6923079820317
 21
49.999999999999957
 31
0.0
  0
LINE
  5
F9
  8
SAPA_ELEVATION
 10
6913.6923079820317
 20
0.0
 30
0.0
 11
6913.6923079820317
 21
50.0
 31
0.0
  0
ENDSEC
  0
EOF
