  0
SECTION
  2
HEADER
  9
$ACADVER
  1
AC1009
  9
$INSBASE
 10
119.5764141936595
 20
54.501590843837732
 30
0.0
  9
$EXTMIN
 10
-15.00118110236204
 20
-39.77908306909228
 30
0.0
  9
$EXTMAX
 10
78.828212161271722
 20
165.9156750223828
 30
0.0
  9
$LIMMIN
 10
0.0
 20
0.0
  9
$LIMMAX
 10
420.0
 20
297.0
  9
$ORTHOMODE
 70
     0
  9
$REGENMODE
 70
     1
  9
$FILLMODE
 70
     1
  9
$QTEXTMODE
 70
     0
  9
$MIRRTEXT
 70
     1
  9
$DRAGMODE
 70
     2
  9
$LTSCALE
 40
7.0
  9
$OSMODE
 70
   167
  9
$ATTMODE
 70
     1
  9
$TEXTSIZE
 40
3.5
  9
$TRACEWID
 40
0.05
  9
$TEXTSTYLE
  7
ISO
  9
$CLAYER
  8
0
  9
$CELTYPE
  6
BYLAYER
  9
$CECOLOR
 62
   256
  9
$DIMSCALE
 40
0.0
  9
$DIMASZ
 40
3.0
  9
$DIMEXO
 40
1.5
  9
$DIMDLI
 40
10.0
  9
$DIMRND
 40
0.0
  9
$DIMDLE
 40
0.0
  9
$DIMEXE
 40
1.5
  9
$DIMTP
 40
0.0
  9
$DIMTM
 40
0.0
  9
$DIMTXT
 40
3.0
  9
$DIMCEN
 40
-5.0
  9
$DIMTSZ
 40
0.0
  9
$DIMTOL
 70
     0
  9
$DIMLIM
 70
     0
  9
$DIMTIH
 70
     0
  9
$DIMTOH
 70
     1
  9
$DIMSE1
 70
     0
  9
$DIMSE2
 70
     0
  9
$DIMTAD
 70
     1
  9
$DIMZIN
 70
     8
  9
$DIMBLK
  1

  9
$DIMASO
 70
     1
  9
$DIMSHO
 70
     1
  9
$DIMPOST
  1

  9
$DIMAPOST
  1

  9
$DIMALT
 70
     0
  9
$DIMALTD
 70
     0
  9
$DIMALTF
 40
25.399999999999999
  9
$DIMLFAC
 40
-1.0
  9
$DIMTOFL
 70
     1
  9
$DIMTVP
 40
0.0
  9
$DIMTIX
 70
     0
  9
$DIMSOXD
 70
     0
  9
$DIMSAH
 70
     0
  9
$DIMBLK1
  1

  9
$DIMBLK2
  1

  9
$DIMSTYLE
  2
MASKIN
  9
$DIMCLRD
 70
   256
  9
$DIMCLRE
 70
   256
  9
$DIMCLRT
 70
     2
  9
$DIMTFAC
 40
1.0
  9
$DIMGAP
 40
1.0
  9
$LUNITS
 70
     2
  9
$LUPREC
 70
     2
  9
$SKETCHINC
 40
0.1
  9
$FILLETRAD
 40
0.0
  9
$AUNITS
 70
     0
  9
$AUPREC
 70
     2
  9
$MENU
  1
ACAD
  9
$ELEVATION
 40
0.0
  9
$PELEVATION
 40
0.0
  9
$THICKNESS
 40
0.0
  9
$LIMCHECK
 70
     0
  9
$BLIPMODE
 70
     0
  9
$CHAMFERA
 40
0.0
  9
$CHAMFERB
 40
0.0
  9
$SKPOLY
 70
     0
  9
$TDCREATE
 40
2449499.413659838
  9
$TDUPDATE
 40
2454882.5514081018
  9
$TDINDWG
 40
0.1865668056
  9
$TDUSRTIMER
 40
0.1865668056
  9
$USRTIMER
 70
     1
  9
$ANGBASE
 50
0.0
  9
$ANGDIR
 70
     0
  9
$PDMODE
 70
     3
  9
$PDSIZE
 40
0.0
  9
$PLINEWID
 40
0.0
  9
$COORDS
 70
     1
  9
$SPLFRAME
 70
     0
  9
$SPLINETYPE
 70
     6
  9
$SPLINESEGS
 70
     8
  9
$ATTDIA
 70
     0
  9
$ATTREQ
 70
     1
  9
$HANDLING
 70
     1
  9
$HANDSEED
  5
D83
  9
$SURFTAB1
 70
     6
  9
$SURFTAB2
 70
     6
  9
$SURFTYPE
 70
     6
  9
$SURFU
 70
     6
  9
$SURFV
 70
     6
  9
$UCSNAME
  2

  9
$UCSORG
 10
0.0
 20
0.0
 30
0.0
  9
$UCSXDIR
 10
1.0
 20
0.0
 30
0.0
  9
$UCSYDIR
 10
0.0
 20
1.0
 30
0.0
  9
$PUCSNAME
  2

  9
$PUCSORG
 10
0.0
 20
0.0
 30
0.0
  9
$PUCSXDIR
 10
1.0
 20
0.0
 30
0.0
  9
$PUCSYDIR
 10
0.0
 20
1.0
 30
0.0
  9
$USERI1
 70
     0
  9
$USERI2
 70
     0
  9
$USERI3
 70
     0
  9
$USERI4
 70
     0
  9
$USERI5
 70
     0
  9
$USERR1
 40
0.0
  9
$USERR2
 40
0.0
  9
$USERR3
 40
0.0
  9
$USERR4
 40
0.0
  9
$USERR5
 40
0.0
  9
$WORLDVIEW
 70
     1
  9
$SHADEDGE
 70
     1
  9
$SHADEDIF
 70
    70
  9
$TILEMODE
 70
     1
  9
$MAXACTVP
 70
    16
  9
$PLIMCHECK
 70
     0
  9
$PEXTMIN
 10
0.0
 20
0.0
 30
0.0
  9
$PEXTMAX
 10
0.0
 20
0.0
 30
0.0
  9
$PLIMMIN
 10
0.0
 20
0.0
  9
$PLIMMAX
 10
12.0
 20
9.0
  9
$UNITMODE
 70
     0
  9
$VISRETAIN
 70
     1
  9
$PLINEGEN
 70
     0
  9
$PSLTSCALE
 70
     1
  0
ENDSEC
  0
SECTION
  2
TABLES
  0
TABLE
  2
VPORT
 70
     1
  0
VPORT
  2
*ACTIVE
 70
     0
 10
0.0
 20
0.0
 11
1.0
 21
1.0
 12
78.045316006909445
 22
63.06454235585592
 13
0.0
 23
0.0
 14
5.0
 24
5.0
 15
0.0
 25
0.0
 16
0.0
 26
0.0
 36
1.0
 17
0.0
 27
0.0
 37
0.0
 40
207.3148968694212
 41
1.995238095238095
 42
50.0
 43
0.0
 44
0.0
 50
0.0
 51
0.0
 71
     0
 72
   100
 73
     1
 74
     0
 75
     0
 76
     0
 77
     0
 78
     0
  0
ENDTAB
  0
TABLE
  2
LTYPE
 70
     8
  0
LTYPE
  2
CONTINUOUS
 70
     0
  3
Solid line
 72
    65
 73
     0
 40
0.0
  0
LTYPE
  2
BYGG-014555$0$NEWDOT
 70
     0
  3
____ . ____ . ____ . ____ . ____ . ____ . ____
 72
    65
 73
     4
 40
2.0
 49
1.0
 49
-0.5
 49
0.0
 49
-0.5
  0
LTYPE
  2
BYGG-014543$0$NEWDOT
 70
     0
  3
____ . ____ . ____ . ____ . ____ . ____ . ____
 72
    65
 73
     4
 40
2.0
 49
1.0
 49
-0.5
 49
0.0
 49
-0.5
  0
LTYPE
  2
BYGG-021997$0$NEWDOT
 70
     0
  3
____ . ____ . ____ . ____ . ____ . ____ . ____
 72
    65
 73
     4
 40
2.0
 49
1.0
 49
-0.5
 49
0.0
 49
-0.5
  0
LTYPE
  2
BYGG-021997$0$DASHDOT
 70
     0
  3
__ . __ . __ . __ . __ . __ . __ . __ . __ . __
 72
    65
 73
     4
 40
1.0
 49
0.5
 49
-0.25
 49
0.0
 49
-0.25
  0
LTYPE
  2
BYGG-021997$0$DASHED
 70
     0
  3
__ __ __ __ __ __ __ __ __ __ __ __ __ __ __
 72
    65
 73
     2
 40
0.75
 49
0.5
 49
-0.25
  0
LTYPE
  2
BYGG-021997$0$PHANTOM
 70
     0
  3
Phantom ______  __  __  ______  __  __  ______
 72
    65
 73
     6
 40
63.5
 49
31.75
 49
-6.3499999999999988
 49
6.3499999999999988
 49
-6.3499999999999988
 49
6.3499999999999988
 49
-6.3499999999999988
  0
LTYPE
  2
BYGG-014203$0$DASHDOT
 70
     0
  3
__ . __ . __ . __ . __ . __ . __ . __ . __ . __
 72
    65
 73
     4
 40
1.0
 49
0.5
 49
-0.25
 49
0.0
 49
-0.25
  0
ENDTAB
  0
TABLE
  2
LAYER
 70
    71
  0
LAYER
  2
0
 70
     0
 62
     7
  6
CONTINUOUS
  0
LAYER
  2
DEFPOINTS
 70
     0
 62
     7
  6
CONTINUOUS
  0
LAYER
  2
SAPA_ARTIKELNR
 70
     0
 62
     4
  6
CONTINUOUS
  0
LAYER
  2
SAPA_LIGHT
 70
     1
 62
     1
  6
CONTINUOUS
  0
LAYER
  2
SAPA_ANSLUTNING
 70
     0
 62
     6
  6
CONTINUOUS
  0
LAYER
  2
BYGG-014193$0$MATT
 70
     0
 62
    -1
  6
CONTINUOUS
  0
LAYER
  2
SAPA_MATT
 70
     0
 62
     1
  6
CONTINUOUS
  0
LAYER
  2
SAPA_GLAS
 70
     0
 62
     4
  6
CONTINUOUS
  0
LAYER
  2
SAPA_FOGBAND
 70
     0
 62
     2
  6
CONTINUOUS
  0
LAYER
  2
SAPA_PROFIL
 70
     0
 62
     7
  6
CONTINUOUS
  0
LAYER
  2
SAPA_BESLAG
 70
     0
 62
     1
  6
CONTINUOUS
  0
ENDTAB
  0
TABLE
  2
STYLE
 70
    15
  0
STYLE
  2
STANDARD
 70
     0
 40
0.0
 41
1.0
 50
0.0
 71
     0
 42
0.2
  3
txt
  4

  0
STYLE
  2
ISO
 70
     0
 40
0.0
 41
1.0
 50
0.0
 71
     0
 42
3.5
  3
isocp3.shx
  4

  0
STYLE
  2
BYGG-021429$0$STANDARD
 70
     0
 40
0.0
 41
1.0
 50
0.0
 71
     0
 42
0.2
  3
txt
  4

  0
STYLE
  2
BYGG-014543$0$STANDARD
 70
     0
 40
0.0
 41
1.0
 50
0.0
 71
     0
 42
0.2
  3
txt
  4

  0
STYLE
  2
BYGG-014543$0$ISO
 70
     0
 40
0.0
 41
1.0
 50
0.0
 71
     0
 42
2.5
  3
isocp3.shx
  4

  0
STYLE
  2
BYGG-021997$0$STANDARD
 70
     0
 40
0.0
 41
1.0
 50
0.0
 71
     0
 42
0.2
  3
txt
  4

  0
STYLE
  2
BYGG-021997$0$ISO
 70
     0
 40
0.0
 41
1.0
 50
0.0
 71
     0
 42
3.5
  3
txt
  4

  0
STYLE
  2
BYGG-014203$0$STANDARD
 70
     0
 40
0.0
 41
1.0
 50
0.0
 71
     0
 42
0.2
  3
txt
  4

  0
STYLE
  2
BYGG-014203$0$ISO
 70
     0
 40
0.0
 41
1.0
 50
0.0
 71
     0
 42
3.5
  3
isocp3.shx
  4

  0
STYLE
  2
BYGG-019753$0$STANDARD
 70
     0
 40
0.0
 41
1.0
 50
0.0
 71
     0
 42
0.2
  3
txt
  4

  0
STYLE
  2
BYGG-019753$0$ISO
 70
     0
 40
0.0
 41
1.0
 50
0.0
 71
     0
 42
3.5
  3
txt
  4

  0
STYLE
  2
BYGG-014555$0$STANDARD
 70
     0
 40
0.0
 41
1.0
 50
0.0
 71
     0
 42
0.2
  3
txt
  4

  0
STYLE
  2
BYGG-014555$0$ISO
 70
     0
 40
0.0
 41
1.0
 50
0.0
 71
     0
 42
2.5
  3
isocp3.shx
  4

  0
STYLE
  2
BYGG-021499$0$STANDARD
 70
     0
 40
0.0
 41
1.0
 50
0.0
 71
     0
 42
0.2
  3
txt
  4

  0
STYLE
  2
BYGG-014193$0$STANDARD
 70
     0
 40
0.0
 41
1.0
 50
0.0
 71
     0
 42
0.2
  3
txt
  4

  0
ENDTAB
  0
TABLE
  2
VIEW
 70
     0
  0
ENDTAB
  0
TABLE
  2
UCS
 70
     0
  0
ENDTAB
  0
TABLE
  2
APPID
 70
    17
  0
APPID
  2
ACAD
 70
     0
  0
APPID
  2
ACAECLAYERSTANDARD
 70
     0
  0
APPID
  2
ACAD_PSEXT
 70
     0
  0
APPID
  2
ACAD_MLEADERVER
 70
     0
  0
APPID
  2
ACAD_DSTYLE_DIMTEXT_FILL
 70
     0
  0
APPID
  2
ACAD_DSTYLE_DIMEXT_LENGTH
 70
     0
  0
APPID
  2
ACAD_DSTYLE_DIMEXT_ENABLED
 70
     0
  0
APPID
  2
ACAD_DSTYLE_DIM_LINETYPE
 70
     0
  0
APPID
  2
ACAD_DSTYLE_DIM_EXT1_LINETYPE
 70
     0
  0
APPID
  2
ACAD_DSTYLE_DIM_EXT2_LINETYPE
 70
     0
  0
APPID
  2
ACAD_DSTYLE_DIMJOGGED_JOGA
 70
     0
  0
APPID
  2
ACAD_DSTYLE_DIMARC_LENGTH_
 70
     0
  0
APPID
  2
ACAD_EXEMPT_FROM_CAD_STANDARDS
 70
     0
  0
APPID
  2
AMG_ARCHIVE11
 70
     0
  0
APPID
  2
ACAD_DSTYLE_DIMJAG
 70
     0
  0
APPID
  2
ACAD_DSTYLE_DIMTALN
 70
     0
  0
APPID
  2
ACADANNOTATIVE
 70
     0
  0
ENDTAB
  0
TABLE
  2
DIMSTYLE
 70
    15
  0
DIMSTYLE
  2
MASKIN
 70
     0
  3

  4

  5

  6

  7

 40
0.0
 41
3.0
 42
1.5
 43
10.0
 44
1.5
 45
0.0
 46
0.0
 47
0.0
 48
0.0
140
3.0
141
-5.0
142
0.0
143
25.399999999999999
144
-1.0
145
0.0
146
1.0
147
1.0
 71
     0
 72
     0
 73
     0
 74
     1
 75
     0
 76
     0
 77
     1
 78
     8
170
     0
171
     0
172
     1
173
     0
174
     0
175
     0
176
   256
177
   256
178
     2
  0
DIMSTYLE
  2
STANDARD
 70
     0
  3

  4

  5

  6

  7

 40
1.0
 41
0.18
 42
0.0625
 43
0.38
 44
0.18
 45
0.0
 46
0.0
 47
0.0
 48
0.0
140
0.18
141
0.09
142
0.0
143
25.399999999999999
144
1.0
145
0.0
146
1.0
147
0.09
 71
     0
 72
     0
 73
     1
 74
     1
 75
     0
 76
     0
 77
     0
 78
     0
170
     0
171
     2
172
     0
173
     0
174
     0
175
     0
176
     0
177
     0
178
     0
  0
DIMSTYLE
  2
BYGG-021429$0$STANDARD
 70
     0
  3

  4

  5

  6

  7

 40
1.0
 41
0.18
 42
0.0625
 43
0.38
 44
0.18
 45
0.0
 46
0.0
 47
0.0
 48
0.0
140
0.18
141
0.09
142
0.0
143
25.399999999999999
144
1.0
145
0.0
146
1.0
147
0.09
 71
     0
 72
     0
 73
     1
 74
     1
 75
     0
 76
     0
 77
     0
 78
     0
170
     0
171
     2
172
     0
173
     0
174
     0
175
     0
176
     0
177
     0
178
     0
  0
DIMSTYLE
  2
BYGG-014543$0$STANDARD
 70
     0
  3

  4

  5

  6

  7

 40
1.0
 41
0.18
 42
0.0625
 43
0.38
 44
0.18
 45
0.0
 46
0.0
 47
0.0
 48
0.0
140
0.18
141
0.09
142
0.0
143
25.399999999999999
144
1.0
145
0.0
146
1.0
147
0.09
 71
     0
 72
     0
 73
     1
 74
     1
 75
     0
 76
     0
 77
     0
 78
     0
170
     0
171
     2
172
     0
173
     0
174
     0
175
     0
176
     0
177
     0
178
     0
  0
DIMSTYLE
  2
BYGG-014543$0$MASKIN
 70
     0
  3

  4

  5

  6

  7

 40
0.0
 41
3.0
 42
1.5
 43
10.0
 44
1.5
 45
0.0
 46
0.0
 47
0.0
 48
0.0
140
3.0
141
-5.0
142
0.0
143
25.399999999999999
144
-1.0
145
0.0
146
1.0
147
1.0
 71
     0
 72
     0
 73
     0
 74
     1
 75
     0
 76
     0
 77
     1
 78
     8
170
     0
171
     0
172
     1
173
     0
174
     0
175
     0
176
   256
177
   256
178
     2
  0
DIMSTYLE
  2
BYGG-021997$0$STANDARD
 70
     0
  3

  4

  5

  6

  7

 40
1.0
 41
0.18
 42
0.0625
 43
0.38
 44
0.18
 45
0.0
 46
0.0
 47
0.0
 48
0.0
140
0.18
141
0.09
142
0.0
143
25.399999999999999
144
1.0
145
0.0
146
1.0
147
0.09
 71
     0
 72
     0
 73
     1
 74
     1
 75
     0
 76
     0
 77
     0
 78
     0
170
     0
171
     2
172
     0
173
     0
174
     0
175
     0
176
     0
177
     0
178
     0
  0
DIMSTYLE
  2
BYGG-021997$0$MASKIN
 70
     0
  3

  4

  5

  6

  7

 40
0.0
 41
3.0
 42
1.5
 43
10.0
 44
1.5
 45
0.0
 46
0.0
 47
0.0
 48
0.0
140
3.0
141
-5.0
142
0.0
143
25.399999999999999
144
-1.0
145
0.0
146
1.0
147
1.0
 71
     0
 72
     0
 73
     0
 74
     0
 75
     0
 76
     0
 77
     1
 78
     8
170
     0
171
     0
172
     1
173
     0
174
     0
175
     0
176
   256
177
   256
178
     2
  0
DIMSTYLE
  2
BYGG-014203$0$STANDARD
 70
     0
  3

  4

  5

  6

  7

 40
1.0
 41
0.18
 42
0.0625
 43
0.38
 44
0.18
 45
0.0
 46
0.0
 47
0.0
 48
0.0
140
0.18
141
0.09
142
0.0
143
25.399999999999999
144
1.0
145
0.0
146
1.0
147
0.09
 71
     0
 72
     0
 73
     1
 74
     1
 75
     0
 76
     0
 77
     0
 78
     0
170
     0
171
     2
172
     0
173
     0
174
     0
175
     0
176
     0
177
     0
178
     0
  0
DIMSTYLE
  2
BYGG-014203$0$MASKIN
 70
     0
  3

  4

  5

  6

  7

 40
0.0
 41
3.0
 42
1.5
 43
10.0
 44
1.5
 45
0.0
 46
0.0
 47
0.0
 48
0.0
140
3.0
141
-5.0
142
0.0
143
25.399999999999999
144
-1.0
145
0.0
146
1.0
147
1.0
 71
     0
 72
     0
 73
     0
 74
     0
 75
     0
 76
     0
 77
     1
 78
     8
170
     0
171
     0
172
     1
173
     0
174
     0
175
     0
176
   256
177
   256
178
   256
  0
DIMSTYLE
  2
BYGG-019753$0$STANDARD
 70
     0
  3

  4

  5

  6

  7

 40
1.0
 41
0.18
 42
0.0625
 43
0.38
 44
0.18
 45
0.0
 46
0.0
 47
0.0
 48
0.0
140
0.18
141
0.09
142
0.0
143
25.399999999999999
144
1.0
145
0.0
146
1.0
147
0.09
 71
     0
 72
     0
 73
     1
 74
     1
 75
     0
 76
     0
 77
     0
 78
     0
170
     0
171
     2
172
     0
173
     0
174
     0
175
     0
176
     0
177
     0
178
     0
  0
DIMSTYLE
  2
BYGG-019753$0$MASKIN
 70
     0
  3

  4

  5

  6

  7

 40
0.0
 41
3.0
 42
1.5
 43
10.0
 44
1.5
 45
0.0
 46
0.0
 47
0.0
 48
0.0
140
3.0
141
-5.0
142
0.0
143
25.399999999999999
144
-1.0
145
0.0
146
1.0
147
1.0
 71
     0
 72
     0
 73
     0
 74
     0
 75
     0
 76
     0
 77
     1
 78
     8
170
     0
171
     0
172
     1
173
     0
174
     0
175
     0
176
   256
177
   256
178
     2
  0
DIMSTYLE
  2
BYGG-014555$0$STANDARD
 70
     0
  3

  4

  5

  6

  7

 40
1.0
 41
0.18
 42
0.0625
 43
0.38
 44
0.18
 45
0.0
 46
0.0
 47
0.0
 48
0.0
140
0.18
141
0.09
142
0.0
143
25.399999999999999
144
1.0
145
0.0
146
1.0
147
0.09
 71
     0
 72
     0
 73
     1
 74
     1
 75
     0
 76
     0
 77
     0
 78
     0
170
     0
171
     2
172
     0
173
     0
174
     0
175
     0
176
     0
177
     0
178
     0
  0
DIMSTYLE
  2
BYGG-014555$0$MASKIN
 70
     0
  3

  4

  5

  6

  7

 40
0.0
 41
3.0
 42
1.5
 43
10.0
 44
1.5
 45
0.0
 46
0.0
 47
0.0
 48
0.0
140
3.0
141
-5.0
142
0.0
143
25.399999999999999
144
-1.0
145
0.0
146
1.0
147
1.0
 71
     0
 72
     0
 73
     0
 74
     1
 75
     0
 76
     0
 77
     1
 78
     8
170
     0
171
     0
172
     1
173
     0
174
     0
175
     0
176
   256
177
   256
178
     2
  0
DIMSTYLE
  2
BYGG-021499$0$STANDARD
 70
     0
  3

  4

  5

  6

  7

 40
1.0
 41
0.18
 42
0.0625
 43
0.38
 44
0.18
 45
0.0
 46
0.0
 47
0.0
 48
0.0
140
0.18
141
0.09
142
0.0
143
25.399999999999999
144
1.0
145
0.0
146
1.0
147
0.09
 71
     0
 72
     0
 73
     1
 74
     1
 75
     0
 76
     0
 77
     0
 78
     0
170
     0
171
     2
172
     0
173
     0
174
     0
175
     0
176
     0
177
     0
178
     0
  0
DIMSTYLE
  2
BYGG-014193$0$STANDARD
 70
     0
  3

  4

  5

  6

  7

 40
1.0
 41
0.18
 42
0.0625
 43
0.38
 44
0.18
 45
0.0
 46
0.0
 47
0.0
 48
0.0
140
0.18
141
0.09
142
0.0
143
25.399999999999999
144
1.0
145
0.0
146
1.0
147
0.09
 71
     0
 72
     0
 73
     1
 74
     1
 75
     0
 76
     0
 77
     0
 78
     0
170
     0
171
     2
172
     0
173
     0
174
     0
175
     0
176
     0
177
     0
178
     0
  0
ENDTAB
  0
ENDSEC
  0
SECTION
  2
BLOCKS
  0
BLOCK
  8
0
  2
$MODEL_SPACE
 70
     0
 10
0.0
 20
0.0
 30
0.0
  3
$MODEL_SPACE
  1

  0
ENDBLK
  5
D
  8
0
  0
BLOCK
 67
     1
  8
0
  2
$PAPER_SPACE
 70
     0
 10
0.0
 20
0.0
 30
0.0
  3
$PAPER_SPACE
  1

  0
ENDBLK
  5
13
 67
     1
  8
0
  0
BLOCK
  8
0
  2
BYGG-014193
 70
     0
 10
365.45232074597618
 20
73.062449759402725
 30
0.0
  3
BYGG-014193
  1
\\spnves09\compass$\2004\10\0\BYGG-014193.dwg
  0
POLYLINE
  5
494
  8
0
 66
     1
 10
0.0
 20
0.0
 30
0.0
 70
     1
  0
VERTEX
  5
8BD
  8
0
 10
10.825972216461819
 20
25.9779970912187
 30
0.0
 42
-0.4095289747066464
  0
VERTEX
  5
8BE
  8
0
 10
11.82584388889097
 20
26.961977145097929
 30
0.0
  0
VERTEX
  5
8BF
  8
0
 10
36.750633780985993
 20
26.961977145097929
 30
0.0
 42
-0.4095289747066465
  0
VERTEX
  5
8C0
  8
0
 10
37.750505453415087
 20
25.9779970912187
 30
0.0
  0
VERTEX
  5
8C1
  8
0
 10
38.073050824859308
 20
5.8465948037768953
 30
0.0
 42
0.4663187362303805
  0
VERTEX
  5
8C2
  8
0
 10
38.66770576093171
 20
5.3636584537813974
 30
0.0
  0
VERTEX
  5
8C3
  8
0
 10
43.133877264221553
 20
6.2253244338201617
 30
0.0
 42
0.3594307989875152
  0
VERTEX
  5
8C4
  8
0
 10
43.539158164363762
 20
6.7162707568759847
 30
0.0
  0
VERTEX
  5
8C5
  8
0
 10
43.539158164363762
 20
7.4619771450978192
 30
0.0
 42
-0.6681786379192989
  0
VERTEX
  5
8C6
  8
0
 10
44.392711554956968
 20
7.8155305356911517
 30
0.0
  0
VERTEX
  5
8C7
  8
0
 10
46.5234444697914
 20
5.6602028914095959
 30
0.0
 42
-0.5388096138364681
  0
VERTEX
  5
8C8
  8
0
 10
45.217704611649253
 20
3.5218179771362079
 30
0.0
  0
VERTEX
  5
8C9
  8
0
 10
44.702022015361131
 20
3.3362041392035162
 30
0.0
 42
0.4453134940460101
  0
VERTEX
  5
8CA
  8
0
 10
44.633633730032841
 20
2.6660016088146099
 30
0.0
  0
VERTEX
  5
8CB
  8
0
 10
45.395867961020883
 20
1.5873062059965259
 30
0.0
 42
-0.6681786379193231
  0
VERTEX
  5
8CC
  8
0
 10
45.183735926664937
 20
1.0751741716406391
 30
0.0
  0
VERTEX
  5
8CD
  8
0
 10
44.661452236684973
 20
0.9619771450978191
 30
0.0
 42
-0.3594307989874839
  0
VERTEX
  5
8CE
  8
0
 10
44.170505913629029
 20
1.3672580452400209
 30
0.0
  0
VERTEX
  5
8CF
  8
0
 10
43.900459274280422
 20
3.4310008805242092
 30
0.0
  0
VERTEX
  5
8D0
  8
0
 10
43.879019433417803
 20
3.5421274754157248
 30
0.0
 42
-0.4142135623730921
  0
VERTEX
  5
8D1
  8
0
 10
44.275246656615927
 20
4.1277928983295729
 30
0.0
  0
VERTEX
  5
8D2
  8
0
 10
45.502612464255719
 20
4.3645906479741248
 30
0.0
  0
VERTEX
  5
8D3
  8
0
 10
45.294230444568427
 20
5.4199954745939181
 30
0.0
  0
VERTEX
  5
8D4
  8
0
 10
37.930035598729717
 20
3.9992089767262651
 30
0.0
  0
VERTEX
  5
8D5
  8
0
 10
38.138417618417009
 20
2.919127066003341
 30
0.0
  0
VERTEX
  5
8D6
  8
0
 10
39.267594161445629
 20
3.1369809956763102
 30
0.0
 42
-0.9999999999999532
  0
VERTEX
  5
8D7
  8
0
 10
39.49492000110439
 20
1.9587098203421069
 30
0.0
  0
VERTEX
  5
8D8
  8
0
 10
37.328674188892649
 20
1.5471498232847689
 30
0.0
 42
-0.4663187362303669
  0
VERTEX
  5
8D9
  8
0
 10
36.734019252820246
 20
2.0300861732802669
 30
0.0
  0
VERTEX
  5
8DA
  8
0
 10
36.356991244243723
 20
25.561977145097838
 30
0.0
  0
VERTEX
  5
8DB
  8
0
 10
12.219486425633191
 20
25.561977145097838
 30
0.0
  0
VERTEX
  5
8DC
  8
0
 10
11.84245841705666
 20
2.0300861732802669
 30
0.0
 42
-0.4663187362303668
  0
VERTEX
  5
8DD
  8
0
 10
11.247803480984309
 20
1.5471498232847689
 30
0.0
  0
VERTEX
  5
8DE
  8
0
 10
9.0815576687725184
 20
1.9587098203421069
 30
0.0
 42
-0.9999999999999532
  0
VERTEX
  5
8DF
  8
0
 10
9.3088835084313342
 20
3.1369809956763102
 30
0.0
  0
VERTEX
  5
8E0
  8
0
 10
10.438060051459949
 20
2.919127066003341
 30
0.0
  0
VERTEX
  5
8E1
  8
0
 10
10.64644207114719
 20
3.9992089767262651
 30
0.0
  0
VERTEX
  5
8E2
  8
0
 10
3.2822472253085371
 20
5.4199954745939181
 30
0.0
  0
VERTEX
  5
8E3
  8
0
 10
3.073865205621245
 20
4.3645906479741248
 30
0.0
  0
VERTEX
  5
8E4
  8
0
 10
4.3012310132610301
 20
4.1277928983294601
 30
0.0
 42
-0.4142135623730919
  0
VERTEX
  5
8E5
  8
0
 10
4.697458236459112
 20
3.5421274754157248
 30
0.0
  0
VERTEX
  5
8E6
  8
0
 10
4.6760183955965431
 20
3.4310008805242092
 30
0.0
  0
VERTEX
  5
8E7
  8
0
 10
4.4059717562479364
 20
1.3672580452400209
 30
0.0
 42
-0.3594307989874839
  0
VERTEX
  5
8E8
  8
0
 10
3.9150254331919991
 20
0.9619771450978191
 30
0.0
  0
VERTEX
  5
8E9
  8
0
 10
3.3927417432120128
 20
1.0751741716405261
 30
0.0
 42
-0.6681786379193233
  0
VERTEX
  5
8EA
  8
0
 10
3.180609708856081
 20
1.5873062059965259
 30
0.0
  0
VERTEX
  5
8EB
  8
0
 10
3.9428439398440669
 20
2.6660016088146099
 30
0.0
 42
0.4453134940460101
  0
VERTEX
  5
8EC
  8
0
 10
3.8744556545158271
 20
3.3362041392035162
 30
0.0
  0
VERTEX
  5
8ED
  8
0
 10
3.3587730582277109
 20
3.5218179771362079
 30
0.0
 42
-0.5388096138364684
  0
VERTEX
  5
8EE
  8
0
 10
2.0530332000855651
 20
5.6602028914095959
 30
0.0
  0
VERTEX
  5
8EF
  8
0
 10
4.1837661149199334
 20
7.8155305356911517
 30
0.0
 42
-0.6681786379192989
  0
VERTEX
  5
8F0
  8
0
 10
5.0373195055132101
 20
7.4619771450978192
 30
0.0
  0
VERTEX
  5
8F1
  8
0
 10
5.0373195055132101
 20
6.7162707568759847
 30
0.0
 42
0.3594307989875152
  0
VERTEX
  5
8F2
  8
0
 10
5.442600405655412
 20
6.2253244338201617
 30
0.0
  0
VERTEX
  5
8F3
  8
0
 10
9.9087719089452548
 20
5.3636584537813974
 30
0.0
 42
0.4663187362303803
  0
VERTEX
  5
8F4
  8
0
 10
10.50342684501766
 20
5.8465948037768953
 30
0.0
  0
SEQEND
  5
8F5
  8
0
  0
DIMENSION
  5
495
  8
BYGG-014193$0$MATT
  2
*D27
 10
51.583081346756643
 20
0.9619771450978172
 30
0.0
 11
47.045684807191734
 21
14.090476585403589
 31
0.0
 70
   128
  3
BYGG-014193$0$STANDARD
 13
36.750633780985957
 23
26.961977145097929
 33
0.0
 14
44.661452236685037
 24
0.9619771450978191
 34
0.0
 50
90.0
1001
ACAD
1000
DSTYLE
1002
{
1070
   287
1070
     5
1070
    41
1040
3.0
1070
    42
1040
1.5
1070
    43
1040
10.0
1070
    44
1040
1.5
1070
    73
1070
     0
1070
    74
1070
     0
1070
    77
1070
     1
1070
    78
1070
     8
1070
   140
1040
3.0
1070
   141
1040
-5.0
1070
   171
1070
     0
1070
   176
1070
   256
1070
   177
1070
   256
1070
   178
1070
   256
1070
   179
1070
     2
1070
   271
1070
     8
1070
   272
1070
     8
1070
   274
1070
     0
1070
   279
1070
     2
1070
   284
1070
     8
1070
   285
1070
     8
1070
   286
1070
     8
1002
}
  0
DIMENSION
  5
4A6
  8
BYGG-014193$0$MATT
  2
*D28
 10
37.750505453415087
 20
32.20834742715445
 30
0.0
 11
24.220626075127139
 21
35.351450655614713
 31
0.0
 70
   128
  1
27
  3
BYGG-014193$0$STANDARD
 13
10.825972216461819
 23
25.9779970912187
 33
0.0
 14
37.750505453415087
 24
25.977997091218761
 34
0.0
1001
ACAD
1000
DSTYLE
1002
{
1070
   287
1070
     5
1070
    41
1040
3.0
1070
    42
1040
1.5
1070
    43
1040
10.0
1070
    44
1040
1.5
1070
    73
1070
     0
1070
    74
1070
     0
1070
    77
1070
     1
1070
    78
1070
     8
1070
   140
1040
3.0
1070
   141
1040
-5.0
1070
   171
1070
     0
1070
   176
1070
   256
1070
   177
1070
   256
1070
   178
1070
   256
1070
   179
1070
     2
1070
   271
1070
     8
1070
   272
1070
     8
1070
   274
1070
     0
1070
   279
1070
     2
1070
   284
1070
     8
1070
   285
1070
     8
1070
   286
1070
     8
1002
}
  0
ENDBLK
  5
34E
  8
0
  0
BLOCK
  8
0
  2
*D27
 70
     1
 10
0.0
 20
0.0
 30
0.0
  3
*D27
  1

  0
LINE
  5
49C
  8
BYGG-014193$0$MATT
 10
38.250633780985957
 20
26.961977145097929
 30
0.0
 11
53.083081346756643
 21
26.961977145097929
 31
0.0
  0
LINE
  5
49D
  8
BYGG-014193$0$MATT
 10
46.161452236685037
 20
0.9619771450978188
 30
0.0
 11
53.083081346756629
 21
0.9619771450978166
 31
0.0
  0
LINE
  5
49E
  8
BYGG-014193$0$MATT
 10
51.583081346756643
 20
23.961977145097929
 30
0.0
 11
51.583081346756643
 21
3.961977145097817
 31
0.0
  0
INSERT
  5
49F
  8
0
  2
*U52
 10
0.0
 20
0.0
 30
0.0
  0
SOLID
  5
4A0
  8
BYGG-014193$0$MATT
 10
51.083081346756643
 20
23.961977145097929
 30
0.0
 11
52.08308134675665
 21
23.961977145097929
 31
0.0
 12
51.583081346756643
 22
26.961977145097929
 32
0.0
 13
51.583081346756643
 23
26.961977145097929
 33
0.0
  0
SOLID
  5
4A1
  8
BYGG-014193$0$MATT
 10
51.083081346756629
 20
3.961977145097817
 30
0.0
 11
52.083081346756643
 21
3.961977145097817
 31
0.0
 12
51.583081346756643
 22
0.9619771450978172
 32
0.0
 13
51.583081346756643
 23
0.9619771450978172
 33
0.0
  0
POINT
  5
4A2
  8
DEFPOINTS
 62
     0
 10
36.750633780985957
 20
26.961977145097929
 30
0.0
  0
POINT
  5
4A3
  8
DEFPOINTS
 62
     0
 10
44.661452236685037
 20
0.9619771450978191
 30
0.0
  0
POINT
  5
4A4
  8
DEFPOINTS
 62
     0
 10
51.583081346756643
 20
0.9619771450978172
 30
0.0
  0
ENDBLK
  5
4A5
  8
0
  0
BLOCK
  8
0
  2
*D28
 70
     1
 10
0.0
 20
0.0
 30
0.0
  3
*D28
  1

  0
LINE
  5
4AB
  8
BYGG-014193$0$MATT
 10
10.825972216461819
 20
27.4779970912187
 30
0.0
 11
10.825972216461819
 21
33.70834742715445
 31
0.0
  0
LINE
  5
4AC
  8
BYGG-014193$0$MATT
 10
37.750505453415087
 20
27.477997091218761
 30
0.0
 11
37.750505453415087
 21
33.70834742715445
 31
0.0
  0
LINE
  5
4AD
  8
BYGG-014193$0$MATT
 10
13.825972216461819
 20
32.20834742715445
 30
0.0
 11
34.750505453415087
 21
32.20834742715445
 31
0.0
  0
INSERT
  5
4AE
  8
0
  2
*U53
 10
0.0
 20
0.0
 30
0.0
  0
SOLID
  5
4AF
  8
BYGG-014193$0$MATT
 10
13.825972216461819
 20
32.70834742715445
 30
0.0
 11
13.825972216461819
 21
31.70834742715445
 31
0.0
 12
10.825972216461819
 22
32.20834742715445
 32
0.0
 13
10.825972216461819
 23
32.20834742715445
 33
0.0
  0
SOLID
  5
4B0
  8
BYGG-014193$0$MATT
 10
34.750505453415087
 20
32.70834742715445
 30
0.0
 11
34.750505453415087
 21
31.70834742715445
 31
0.0
 12
37.750505453415087
 22
32.20834742715445
 32
0.0
 13
37.750505453415087
 23
32.20834742715445
 33
0.0
  0
POINT
  5
4B1
  8
DEFPOINTS
 62
     0
 10
10.825972216461819
 20
25.9779970912187
 30
0.0
  0
POINT
  5
4B2
  8
DEFPOINTS
 62
     0
 10
37.750505453415087
 20
25.977997091218761
 30
0.0
  0
POINT
  5
4B3
  8
DEFPOINTS
 62
     0
 10
37.750505453415087
 20
32.20834742715445
 30
0.0
  0
ENDBLK
  5
4B4
  8
0
  0
BLOCK
  8
0
  2
*D39
 70
     1
 10
0.0
 20
0.0
 30
0.0
  3
*D39
  1

  0
LINE
  5
6CA
  8
SAPA_MATT
 10
7.8282121612717237
 20
-30.0
 30
0.0
 11
-12.55786575277512
 21
-30.0
 31
0.0
  0
LINE
  5
6CB
  8
SAPA_MATT
 10
8.3282121612717201
 20
-10.0
 30
0.0
 11
-12.557865752775109
 21
-9.9999999999999911
 31
0.0
  0
LINE
  5
6CC
  8
SAPA_MATT
 10
-11.05786575277512
 20
-26.999999999999989
 30
0.0
 11
-11.057865752775109
 21
-12.999999999999989
 31
0.0
  0
SOLID
  5
6CD
  8
SAPA_MATT
 10
-11.557865752775109
 20
-26.999999999999989
 30
0.0
 11
-10.557865752775109
 21
-26.999999999999989
 31
0.0
 12
-11.05786575277512
 22
-30.0
 32
0.0
 13
-11.05786575277512
 23
-30.0
 33
0.0
  0
SOLID
  5
6CE
  8
SAPA_MATT
 10
-11.557865752775109
 20
-12.999999999999989
 30
0.0
 11
-10.557865752775109
 21
-12.999999999999989
 31
0.0
 12
-11.057865752775109
 22
-9.9999999999999947
 32
0.0
 13
-11.057865752775109
 23
-9.9999999999999947
 33
0.0
  0
INSERT
  5
6CF
  8
0
  2
*U68
 10
0.0
 20
0.0
 30
0.0
  0
POINT
  5
6D0
  8
DEFPOINTS
 62
     0
 10
9.3282121612717237
 20
-30.0
 30
0.0
  0
POINT
  5
6D1
  8
DEFPOINTS
 62
     0
 10
9.8282121612717201
 20
-10.0
 30
0.0
  0
POINT
  5
6D2
  8
DEFPOINTS
 62
     0
 10
-11.057865752775109
 20
-9.9999999999999947
 30
0.0
  0
ENDBLK
  5
69F
  8
0
  0
BLOCK
  8
0
  2
*D40
 70
     1
 10
0.0
 20
0.0
 30
0.0
  3
*D40
  1

  0
LINE
  5
6C1
  8
SAPA_MATT
 10
8.3282121612717201
 20
-10.0
 30
0.0
 11
-12.557865752775109
 21
-9.9999999999999911
 31
0.0
  0
LINE
  5
6C2
  8
SAPA_MATT
 10
7.3499999999999091
 20
0.0000000000000004
 30
0.0
 11
-12.557865752775109
 21
0.0000000000000061
 31
0.0
  0
LINE
  5
6C3
  8
SAPA_MATT
 10
-11.057865752775109
 20
-6.9999999999999929
 30
0.0
 11
-11.057865752775109
 21
-2.9999999999999938
 31
0.0
  0
SOLID
  5
6C4
  8
SAPA_MATT
 10
-11.557865752775109
 20
-6.9999999999999929
 30
0.0
 11
-10.557865752775109
 21
-6.9999999999999929
 31
0.0
 12
-11.057865752775109
 22
-9.9999999999999947
 32
0.0
 13
-11.057865752775109
 23
-9.9999999999999947
 33
0.0
  0
SOLID
  5
6C5
  8
SAPA_MATT
 10
-11.557865752775109
 20
-2.9999999999999938
 30
0.0
 11
-10.557865752775109
 21
-2.9999999999999938
 31
0.0
 12
-11.057865752775109
 22
0.0000000000000056
 32
0.0
 13
-11.057865752775109
 23
0.0000000000000056
 33
0.0
  0
INSERT
  5
6C6
  8
0
  2
*U67
 10
0.0
 20
0.0
 30
0.0
  0
POINT
  5
6C7
  8
DEFPOINTS
 62
     0
 10
9.8282121612717201
 20
-10.0
 30
0.0
  0
POINT
  5
6C8
  8
DEFPOINTS
 62
     0
 10
8.8499999999999091
 20
0.0
 30
0.0
  0
POINT
  5
6C9
  8
DEFPOINTS
 62
     0
 10
-11.057865752775109
 20
0.0000000000000056
 30
0.0
  0
ENDBLK
  5
6AB
  8
0
  0
BLOCK
  8
0
  2
*D41
 70
     1
 10
0.0
 20
0.0
 30
0.0
  3
*D41
  1

  0
LINE
  5
6B8
  8
SAPA_MATT
 10
7.3499999999999091
 20
0.0000000000000004
 30
0.0
 11
-12.64999999999984
 21
0.0000000000000061
 31
0.0
  0
LINE
  5
6B9
  8
SAPA_MATT
 10
7.6500000000000341
 20
150.0
 30
0.0
 11
-12.64999999999981
 21
150.0
 31
0.0
  0
LINE
  5
6BA
  8
SAPA_MATT
 10
-11.14999999999984
 20
3.0000000000000049
 30
0.0
 11
-11.1499999999998
 21
147.0
 31
0.0
  0
SOLID
  5
6BB
  8
SAPA_MATT
 10
-11.64999999999984
 20
3.0000000000000049
 30
0.0
 11
-10.64999999999984
 21
3.0000000000000049
 31
0.0
 12
-11.14999999999984
 22
0.0000000000000057
 32
0.0
 13
-11.14999999999984
 23
0.0000000000000057
 33
0.0
  0
SOLID
  5
6BC
  8
SAPA_MATT
 10
-11.6499999999998
 20
147.0
 30
0.0
 11
-10.6499999999998
 21
147.0
 31
0.0
 12
-11.1499999999998
 22
150.0
 32
0.0
 13
-11.1499999999998
 23
150.0
 33
0.0
  0
INSERT
  5
6BD
  8
0
  2
*U66
 10
0.0
 20
0.0
 30
0.0
  0
POINT
  5
6BE
  8
DEFPOINTS
 62
     0
 10
8.8499999999999091
 20
0.0
 30
0.0
  0
POINT
  5
6BF
  8
DEFPOINTS
 62
     0
 10
9.1500000000000341
 20
150.0
 30
0.0
  0
POINT
  5
6C0
  8
DEFPOINTS
 62
     0
 10
-11.1499999999998
 20
150.0
 30
0.0
  0
ENDBLK
  5
6B7
  8
0
  0
BLOCK
  8
0
  2
*U43
 70
     1
 10
0.0
 20
0.0
 30
0.0
  3
*U43
  1

  0
TEXT
  5
726
  8
0
 62
     2
 10
-12.14999999999983
 20
72.148818897637796
 30
0.0
 40
3.0
  1
150
 50
90.0
  7
ISO
  0
ENDBLK
  5
728
  8
0
  0
BLOCK
  8
0
  2
*U44
 70
     1
 10
0.0
 20
0.0
 30
0.0
  3
*U44
  1

  0
TEXT
  5
72A
  8
0
 62
     2
 10
-12.057865752775109
 20
-6.8011811023622002
 30
0.0
 40
3.0
  1
10
 50
90.0
  7
ISO
  0
ENDBLK
  5
72C
  8
0
  0
BLOCK
  8
0
  2
*U45
 70
     1
 10
0.0
 20
0.0
 30
0.0
  3
*U45
  1

  0
TEXT
  5
72E
  8
0
 62
     2
 10
-12.05816102836566
 20
-22.063090551181102
 30
0.0
 40
3.0
  1
20
 50
90.0
  7
ISO
  0
ENDBLK
  5
730
  8
0
  0
BLOCK
  8
0
  2
*U46
 70
     1
 10
0.0
 20
0.0
 30
0.0
  3
*U46
  1

  0
TEXT
  5
732
  8
SAPA_ARTIKELNR
 10
65.005582945979384
 20
67.317297794102842
 30
0.0
 40
3.5
  1
68020
 50
90.0
  7
ISO
  0
ENDBLK
  5
734
  8
0
  0
BLOCK
  8
0
  2
*U47
 70
     1
 10
0.0
 20
0.0
 30
0.0
  3
*U47
  1

  0
TEXT
  5
736
  8
SAPA_ARTIKELNR
 10
65.005582945979384
 20
133.427785877688
 30
0.0
 40
3.5
  1
42077
 50
90.0
  7
ISO
  0
ENDBLK
  5
738
  8
0
  0
BLOCK
  8
0
  2
*U48
 70
     1
 10
0.0
 20
0.0
 30
0.0
  3
*U48
  1

  0
TEXT
  5
73A
  8
SAPA_ARTIKELNR
 10
65.005582945979384
 20
6.0723697855790748
 30
0.0
 40
3.5
  1
42064
 50
90.0
  7
ISO
  0
ENDBLK
  5
73C
  8
0
  0
BLOCK
  8
0
  2
*U49
 70
     1
 10
0.0
 20
0.0
 30
0.0
  3
*U49
  1

  0
TEXT
  5
73E
  8
SAPA_ARTIKELNR
 10
65.004893969601426
 20
-26.217591692759239
 30
0.0
 40
3.5
  1
68041
 50
90.0
  7
ISO
  0
ENDBLK
  5
740
  8
0
  0
BLOCK
  8
0
  2
*U50
 70
     1
 10
0.0
 20
0.0
 30
0.0
  3
*U50
  1

  0
TEXT
  5
8AB
  8
0
 62
     2
 10
355.03004320525582
 20
348.69687909202088
 30
0.0
 40
3.0
  1
50
  7
BYGG-014555$0$ISO
  0
ENDBLK
  5
8AD
  8
0
  0
BLOCK
  8
0
  2
*U51
 70
     1
 10
0.0
 20
0.0
 30
0.0
  3
*U51
  1

  0
TEXT
  5
8AF
  8
0
 62
     2
 10
391.0162108149454
 20
363.9128716099321
 30
0.0
 40
3.0
  1
20
 50
90.0
  7
BYGG-014555$0$ISO
  0
ENDBLK
  5
8B1
  8
0
  0
BLOCK
  8
0
  2
*U52
 70
     1
 10
0.0
 20
0.0
 30
0.0
  3
*U52
  1

  0
TEXT
  5
8F7
  8
BYGG-014193$0$MATT
 10
48.545684807191741
 20
11.590476585403589
 30
0.0
 40
3.0
  1
26
 50
90.0
  7
BYGG-014193$0$STANDARD
  0
ENDBLK
  5
8F9
  8
0
  0
BLOCK
  8
0
  2
*U53
 70
     1
 10
0.0
 20
0.0
 30
0.0
  3
*U53
  1

  0
TEXT
  5
8FB
  8
BYGG-014193$0$MATT
 10
21.720626075127139
 20
33.851450655614713
 30
0.0
 40
3.0
  1
27
  7
BYGG-014193$0$STANDARD
  0
ENDBLK
  5
8FD
  8
0
  0
BLOCK
  8
0
  2
*U54
 70
     1
 10
0.0
 20
0.0
 30
0.0
  3
*U54
  1

  0
TEXT
  5
9A0
  8
0
 62
     2
 10
484.65517851898881
 20
471.2688258978115
 30
0.0
 40
6.0
  1
150
  7
BYGG-014543$0$ISO
  0
ENDBLK
  5
9A2
  8
0
  0
BLOCK
  8
0
  2
*U55
 70
     1
 10
0.0
 20
0.0
 30
0.0
  3
*U55
  1

  0
TEXT
  5
9A4
  8
0
 62
     2
 10
579.65765187766419
 20
504.89419270020397
 30
0.0
 40
6.0
  1
50
 50
90.0
  7
BYGG-014543$0$ISO
  0
ENDBLK
  5
9A6
  8
0
  0
BLOCK
  8
0
  2
*U56
 70
     1
 10
0.0
 20
0.0
 30
0.0
  3
*U56
  1

  0
TEXT
  5
9E3
  8
0
 10
269.13695666615928
 20
387.12121780868893
 30
0.0
 40
3.0
  1
22
 50
90.0
  7
BYGG-014203$0$ISO
  0
ENDBLK
  5
9E5
  8
0
  0
BLOCK
  8
0
  2
*U57
 70
     1
 10
0.0
 20
0.0
 30
0.0
  3
*U57
  1

  0
TEXT
  5
9E7
  8
0
 10
243.50583563664401
 20
406.8346351471406
 30
0.0
 40
3.0
  1
29
  7
BYGG-014203$0$ISO
  0
ENDBLK
  5
9E9
  8
0
  0
BLOCK
  8
0
  2
*U58
 70
     1
 10
0.0
 20
0.0
 30
0.0
  3
*U58
  1

  0
TEXT
  5
9EC
  8
0
 10
89.477352001818133
 20
536.91038923748056
 30
0.0
 40
3.0
  1
29.00259511
  7
BYGG-014203$0$ISO
  0
ENDBLK
  5
9EE
  8
0
  0
BLOCK
  8
0
  2
*U59
 70
     1
 10
0.0
 20
0.0
 30
0.0
  3
*U59
  1

  0
TEXT
  5
9F0
  8
0
 10
139.81857160131429
 20
500.42082458589999
 30
0.0
 40
3.0
  1
21.99913956
 50
90.0
  7
BYGG-014203$0$ISO
  0
ENDBLK
  5
9F2
  8
0
  0
BLOCK
  8
0
  2
*U60
 70
     1
 10
0.0
 20
0.0
 30
0.0
  3
*U60
  1

  0
TEXT
  5
A00
  8
0
 10
67.809226247701886
 20
137.14731307552319
 30
0.0
 40
3.0
  1
22
 50
90.0
  7
BYGG-014203$0$ISO
  0
ENDBLK
  5
A02
  8
0
  0
BLOCK
  8
0
  2
*U61
 70
     1
 10
0.0
 20
0.0
 30
0.0
  3
*U61
  1

  0
TEXT
  5
A04
  8
0
 10
42.178105218186687
 20
156.86073041397509
 30
0.0
 40
3.0
  1
29
  7
BYGG-014203$0$ISO
  0
ENDBLK
  5
A06
  8
0
  0
BLOCK
  8
0
  2
*U62
 70
     1
 10
0.0
 20
0.0
 30
0.0
  3
*U62
  1

  0
TEXT
  5
C94
  8
0
 62
     2
 10
31.727031058909521
 20
-37.27908306909228
 30
0.0
 40
3.0
  1
50
  7
BYGG-014555$0$ISO
  0
ENDBLK
  5
C96
  8
0
  0
BLOCK
  8
0
  2
*U63
 70
     1
 10
0.0
 20
0.0
 30
0.0
  3
*U63
  1

  0
TEXT
  5
C98
  8
0
 62
     2
 10
67.713198668599148
 20
-22.063090551181102
 30
0.0
 40
3.0
  1
20
 50
90.0
  7
BYGG-014555$0$ISO
  0
ENDBLK
  5
C9A
  8
0
  0
BLOCK
  8
0
  2
*U64
 70
     1
 10
0.0
 20
0.0
 30
0.0
  3
*U64
  1

  0
TEXT
  5
C9C
  8
0
 62
     2
 10
-7.9777290071169151
 20
69.297637795275563
 30
0.0
 40
6.0
  1
150
 50
90.0
  7
BYGG-014543$0$ISO
  0
ENDBLK
  5
C9E
  8
0
  0
BLOCK
  8
0
  2
*U65
 70
     1
 10
0.0
 20
0.0
 30
0.0
  3
*U65
  1

  0
TEXT
  5
CA0
  8
0
 62
     2
 10
29.647637795275621
 20
-14.300111153950979
 30
0.0
 40
6.0
  1
50
  7
BYGG-014543$0$ISO
  0
ENDBLK
  5
CA2
  8
0
  0
BLOCK
  8
0
  2
*U66
 70
     1
 10
0.0
 20
0.0
 30
0.0
  3
*U66
  1

  0
TEXT
  5
D78
  8
SAPA_MATT
 62
     2
 10
-12.14999999999983
 20
72.148818897637796
 30
0.0
 40
3.0
  1
150
 50
90.0
  7
ISO
  0
ENDBLK
  5
D7A
  8
0
  0
BLOCK
  8
0
  2
*U67
 70
     1
 10
0.0
 20
0.0
 30
0.0
  3
*U67
  1

  0
TEXT
  5
D7C
  8
SAPA_MATT
 62
     2
 10
-12.057865752775109
 20
-6.8011811023622002
 30
0.0
 40
3.0
  1
10
 50
90.0
  7
ISO
  0
ENDBLK
  5
D7E
  8
0
  0
BLOCK
  8
0
  2
*U68
 70
     1
 10
0.0
 20
0.0
 30
0.0
  3
*U68
  1

  0
TEXT
  5
D80
  8
SAPA_MATT
 62
     2
 10
-12.05816102836566
 20
-22.063090551181102
 30
0.0
 40
3.0
  1
20
 50
90.0
  7
ISO
  0
ENDBLK
  5
D82
  8
0
  0
ENDSEC
  0
SECTION
  2
ENTITIES
  0
POLYLINE
  5
7F
  8
SAPA_LIGHT
 66
     1
 10
0.0
 20
0.0
 30
0.0
 70
     1
  0
VERTEX
  5
714
  8
SAPA_LIGHT
 10
58.828212161271722
 20
-30.000000000000021
 30
0.0
  0
VERTEX
  5
715
  8
SAPA_LIGHT
 10
8.8282121612717201
 20
-30.000000000000021
 30
0.0
  0
VERTEX
  5
716
  8
SAPA_LIGHT
 10
8.8282121612717201
 20
-9.9999999999999574
 30
0.0
  0
VERTEX
  5
717
  8
SAPA_LIGHT
 10
58.828212161271722
 20
-9.9999999999999574
 30
0.0
  0
SEQEND
  5
718
  8
SAPA_LIGHT
  0
POLYLINE
  5
81
  8
SAPA_LIGHT
 66
     1
 10
0.0
 20
0.0
 30
0.0
  0
VERTEX
  5
719
  8
SAPA_LIGHT
 10
23.250000000000341
 20
150.00265903299581
 30
0.0
  0
VERTEX
  5
71A
  8
SAPA_LIGHT
 10
58.850000000000129
 20
150.00265903299581
 30
0.0
  0
VERTEX
  5
71B
  8
SAPA_LIGHT
 10
58.850000000000129
 20
0.0026590329958509
 30
0.0
  0
VERTEX
  5
71C
  8
SAPA_LIGHT
 10
8.8500000000001933
 20
0.0026590329958509
 30
0.0
  0
VERTEX
  5
71D
  8
SAPA_LIGHT
 10
8.8500000000001933
 20
150.00265903299581
 30
0.0
  0
VERTEX
  5
71E
  8
SAPA_LIGHT
 10
17.250000000000281
 20
150.00265903299581
 30
0.0
  0
SEQEND
  5
71F
  8
SAPA_LIGHT
  0
POLYLINE
  5
82
  8
SAPA_LIGHT
 66
     1
 10
0.0
 20
0.0
 30
0.0
 70
     1
  0
VERTEX
  5
720
  8
SAPA_LIGHT
 10
23.250000000000231
 20
132.9999999999998
 30
0.0
  0
VERTEX
  5
721
  8
SAPA_LIGHT
 10
17.250000000000281
 20
132.9999999999998
 30
0.0
  0
VERTEX
  5
722
  8
SAPA_LIGHT
 10
17.250000000000281
 20
165.9156750223828
 30
0.0
  0
VERTEX
  5
723
  8
SAPA_LIGHT
 10
23.250000000000512
 20
165.9156750223828
 30
0.0
  0
SEQEND
  5
724
  8
SAPA_LIGHT
  0
INSERT
  5
209
  8
0
  2
*U46
 10
0.0
 20
0.0
 30
0.0
  0
INSERT
  5
20A
  8
0
  2
*U47
 10
0.0
 20
0.0
 30
0.0
  0
INSERT
  5
20B
  8
0
  2
*U48
 10
0.0
 20
0.0
 30
0.0
  0
INSERT
  5
20C
  8
0
  2
*U49
 10
0.0
 20
0.0
 30
0.0
  0
LINE
  5
33E
  8
SAPA_ANSLUTNING
 10
58.828212161271722
 20
-11.0
 30
0.0
 11
78.828212161271722
 21
-11.0
 31
0.0
  0
LINE
  5
33F
  8
SAPA_ANSLUTNING
 10
-11.171787838728269
 20
-11.0
 30
0.0
 11
8.8282121612717201
 21
-11.0
 31
0.0
  0
LINE
  5
341
  8
SAPA_LIGHT
 10
58.828212161271722
 20
-11.0
 30
0.0
 11
78.828212161271722
 21
-11.0
 31
0.0
  0
LINE
  5
342
  8
SAPA_LIGHT
 10
8.8282121612717201
 20
-11.0
 30
0.0
 11
-11.171787838728269
 21
-11.0
 31
0.0
  0
POLYLINE
  5
63A
  8
SAPA_PROFIL
 66
     1
 10
0.0
 20
0.0
 30
0.0
 70
     1
  0
VERTEX
  5
B4D
  8
SAPA_PROFIL
 10
23.728212161271699
 20
-16.999999999999542
 30
0.0
  0
VERTEX
  5
B4E
  8
SAPA_PROFIL
 10
19.828212161271718
 20
-17.0
 30
0.0
 42
0.5769223638781051
  0
VERTEX
  5
B4F
  8
SAPA_PROFIL
 10
15.928212161271739
 20
-23.744994432064232
 30
0.0
 42
-0.1313259594334748
  0
VERTEX
  5
B50
  8
SAPA_PROFIL
 10
16.528212161271771
 20
-25.989988864128581
 30
0.0
  0
VERTEX
  5
B51
  8
SAPA_PROFIL
 10
16.528212161271771
 20
-27.199999999999989
 30
0.0
 42
-0.4142135623730951
  0
VERTEX
  5
B52
  8
SAPA_PROFIL
 10
15.528212161271769
 20
-28.199999999999989
 30
0.0
  0
VERTEX
  5
B53
  8
SAPA_PROFIL
 10
11.628212161271669
 20
-28.199999999999989
 30
0.0
 42
-0.4142135623730951
  0
VERTEX
  5
B54
  8
SAPA_PROFIL
 10
10.628212161271669
 20
-27.199999999999989
 30
0.0
  0
VERTEX
  5
B55
  8
SAPA_PROFIL
 10
10.628212161271669
 20
-14.0
 30
0.0
 42
-0.4142135623730951
  0
VERTEX
  5
B56
  8
SAPA_PROFIL
 10
11.628212161271669
 20
-13.0
 30
0.0
  0
VERTEX
  5
B57
  8
SAPA_PROFIL
 10
33.428212161271631
 20
-13.0
 30
0.0
  0
VERTEX
  5
B58
  8
SAPA_PROFIL
 10
33.828212161271722
 20
-12.599999999999961
 30
0.0
  0
VERTEX
  5
B59
  8
SAPA_PROFIL
 10
34.228212161271699
 20
-13.0
 30
0.0
  0
VERTEX
  5
B5A
  8
SAPA_PROFIL
 10
56.028212161271647
 20
-13.0
 30
0.0
 42
-0.4142135623730951
  0
VERTEX
  5
B5B
  8
SAPA_PROFIL
 10
57.028212161271661
 20
-14.0
 30
0.0
  0
VERTEX
  5
B5C
  8
SAPA_PROFIL
 10
57.028212161271661
 20
-27.199999999999989
 30
0.0
 42
-0.4142135623730951
  0
VERTEX
  5
B5D
  8
SAPA_PROFIL
 10
56.028212161271647
 20
-28.199999999999989
 30
0.0
  0
VERTEX
  5
B5E
  8
SAPA_PROFIL
 10
52.128212161271669
 20
-28.199999999999989
 30
0.0
 42
-0.4142135623730951
  0
VERTEX
  5
B5F
  8
SAPA_PROFIL
 10
51.128212161271676
 20
-27.199999999999989
 30
0.0
  0
VERTEX
  5
B60
  8
SAPA_PROFIL
 10
51.128212161271676
 20
-25.989988864128581
 30
0.0
 42
-0.1313259594334748
  0
VERTEX
  5
B61
  8
SAPA_PROFIL
 10
51.728212161271578
 20
-23.744994432064232
 30
0.0
 42
0.5769223638781068
  0
VERTEX
  5
B62
  8
SAPA_PROFIL
 10
47.828212161271722
 20
-16.99999999999994
 30
0.0
  0
VERTEX
  5
B63
  8
SAPA_PROFIL
 10
43.928212161271617
 20
-16.999999999999542
 30
0.0
 42
0.4142135623730951
  0
VERTEX
  5
B64
  8
SAPA_PROFIL
 10
43.428212161271631
 20
-17.499999999999542
 30
0.0
  0
VERTEX
  5
B65
  8
SAPA_PROFIL
 10
43.428212161271631
 20
-21.5
 30
0.0
  0
VERTEX
  5
B66
  8
SAPA_PROFIL
 10
43.428212161271631
 20
-22.0
 30
0.0
  0
VERTEX
  5
B67
  8
SAPA_PROFIL
 10
24.228212161271699
 20
-22.0
 30
0.0
  0
VERTEX
  5
B68
  8
SAPA_PROFIL
 10
24.228212161271699
 20
-21.5
 30
0.0
  0
VERTEX
  5
B69
  8
SAPA_PROFIL
 10
24.228212161271699
 20
-17.499999999999542
 30
0.0
 42
0.4142135623730951
  0
SEQEND
  5
B6A
  8
SAPA_PROFIL
  0
POLYLINE
  5
63B
  8
SAPA_PROFIL
 66
     1
 10
0.0
 20
0.0
 30
0.0
 70
     1
  0
VERTEX
  5
B6B
  8
SAPA_PROFIL
 10
49.325802695268749
 20
-27.81006990492773
 30
0.0
  0
VERTEX
  5
B6C
  8
SAPA_PROFIL
 10
49.328212161271608
 20
-27.810353444305012
 30
0.0
  0
VERTEX
  5
B6D
  8
SAPA_PROFIL
 10
49.328212161271843
 20
-23.923324163210388
 30
0.0
 42
0.0247814694318612
  0
VERTEX
  5
B6E
  8
SAPA_PROFIL
 10
49.560623775178662
 20
-23.763017896526659
 30
0.0
  0
VERTEX
  5
B6F
  8
SAPA_PROFIL
 10
49.560623775178662
 20
-23.232411613906951
 30
0.0
  0
VERTEX
  5
B70
  8
SAPA_PROFIL
 10
50.091230057798377
 20
-23.232411613906951
 30
0.0
 42
0.5765964874796224
  0
VERTEX
  5
B71
  8
SAPA_PROFIL
 10
48.203407461853772
 20
-18.674804699417621
 30
0.0
  0
VERTEX
  5
B72
  8
SAPA_PROFIL
 10
47.828212161271722
 20
-19.04999999999972
 30
0.0
  0
VERTEX
  5
B73
  8
SAPA_PROFIL
 10
47.453016860689779
 20
-18.67480469941961
 30
0.0
 42
0.576596487479657
  0
VERTEX
  5
B74
  8
SAPA_PROFIL
 10
45.565194264745287
 20
-23.232411613907061
 30
0.0
  0
VERTEX
  5
B75
  8
SAPA_PROFIL
 10
46.09580054736454
 20
-23.232411613907061
 30
0.0
  0
VERTEX
  5
B76
  8
SAPA_PROFIL
 10
46.095800547364661
 20
-23.763017896526659
 30
0.0
 42
0.0324535495921299
  0
VERTEX
  5
B77
  8
SAPA_PROFIL
 10
46.403212161271881
 20
-23.96817240078531
 30
0.0
  0
VERTEX
  5
B78
  8
SAPA_PROFIL
 10
45.578212161271722
 20
-25.397114317029949
 30
0.0
 42
-0.079534545142671
  0
VERTEX
  5
B79
  8
SAPA_PROFIL
 10
44.474110195021687
 20
-24.49999999999994
 30
0.0
  0
VERTEX
  5
B7A
  8
SAPA_PROFIL
 10
34.228212161271699
 20
-24.49999999999994
 30
0.0
  0
VERTEX
  5
B7B
  8
SAPA_PROFIL
 10
33.828212161271722
 20
-24.099999999999969
 30
0.0
  0
VERTEX
  5
B7C
  8
SAPA_PROFIL
 10
33.428212161271631
 20
-24.49999999999994
 30
0.0
  0
VERTEX
  5
B7D
  8
SAPA_PROFIL
 10
23.182314127521629
 20
-24.49999999999994
 30
0.0
 42
-0.0795345451426699
  0
VERTEX
  5
B7E
  8
SAPA_PROFIL
 10
22.078212161272059
 20
-25.397114317030631
 30
0.0
  0
VERTEX
  5
B7F
  8
SAPA_PROFIL
 10
21.253212161271559
 20
-23.96817240078531
 30
0.0
 42
0.0324535495921269
  0
VERTEX
  5
B80
  8
SAPA_PROFIL
 10
21.560623775178779
 20
-23.763017896526659
 30
0.0
  0
VERTEX
  5
B81
  8
SAPA_PROFIL
 10
21.560623775178779
 20
-23.232411613907061
 30
0.0
  0
VERTEX
  5
B82
  8
SAPA_PROFIL
 10
22.09123005779816
 20
-23.232411613907178
 30
0.0
 42
0.5765964874796641
  0
VERTEX
  5
B83
  8
SAPA_PROFIL
 10
20.203407461853772
 20
-18.674804699417621
 30
0.0
  0
VERTEX
  5
B84
  8
SAPA_PROFIL
 10
19.828212161271718
 20
-19.04999999999972
 30
0.0
  0
VERTEX
  5
B85
  8
SAPA_PROFIL
 10
19.453016860689779
 20
-18.67480469941961
 30
0.0
 42
0.5765964874796238
  0
VERTEX
  5
B86
  8
SAPA_PROFIL
 10
17.565194264744939
 20
-23.232411613906951
 30
0.0
  0
VERTEX
  5
B87
  8
SAPA_PROFIL
 10
18.095800547364771
 20
-23.232411613906951
 30
0.0
  0
VERTEX
  5
B88
  8
SAPA_PROFIL
 10
18.095800547364771
 20
-23.763017896526659
 30
0.0
 42
0.0247814694318589
  0
VERTEX
  5
B89
  8
SAPA_PROFIL
 10
18.328212161271718
 20
-23.923324163210001
 30
0.0
  0
VERTEX
  5
B8A
  8
SAPA_PROFIL
 10
18.328212161271718
 20
-27.810353444305122
 30
0.0
  0
VERTEX
  5
B8B
  8
SAPA_PROFIL
 10
18.330621627274581
 20
-27.81006990492773
 30
0.0
 42
0.944860514891134
  0
VERTEX
  5
B8C
  8
SAPA_PROFIL
 10
19.828212161271718
 20
-27.81006990492773
 30
0.0
  0
VERTEX
  5
B8D
  8
SAPA_PROFIL
 10
19.828212161271718
 20
-27.49999999999995
 30
0.0
  0
VERTEX
  5
B8E
  8
SAPA_PROFIL
 10
20.828212161271718
 20
-27.49999999999995
 30
0.0
 42
-0.4142135623730951
  0
VERTEX
  5
B8F
  8
SAPA_PROFIL
 10
21.328212161271718
 20
-27.99999999999994
 30
0.0
  0
VERTEX
  5
B90
  8
SAPA_PROFIL
 10
21.328212161271718
 20
-28.199999999999989
 30
0.0
  0
VERTEX
  5
B91
  8
SAPA_PROFIL
 10
21.328212161271718
 20
-29.49999999999994
 30
0.0
 42
-0.4142135623730951
  0
VERTEX
  5
B92
  8
SAPA_PROFIL
 10
20.828212161271718
 20
-29.99999999999995
 30
0.0
  0
VERTEX
  5
B93
  8
SAPA_PROFIL
 10
9.3282121612717201
 20
-30.0
 30
0.0
 42
-0.4142135623730951
  0
VERTEX
  5
B94
  8
SAPA_PROFIL
 10
8.8282121612717201
 20
-29.5
 30
0.0
  0
VERTEX
  5
B95
  8
SAPA_PROFIL
 10
8.8282121612717201
 20
-11.0
 30
0.0
 42
-0.4142135623730951
  0
VERTEX
  5
B96
  8
SAPA_PROFIL
 10
9.8282121612717201
 20
-10.0
 30
0.0
  0
VERTEX
  5
B97
  8
SAPA_PROFIL
 10
17.578212161271718
 20
-10.0
 30
0.0
  0
VERTEX
  5
B98
  8
SAPA_PROFIL
 10
17.578212161271718
 20
-10.5
 30
0.0
  0
VERTEX
  5
B99
  8
SAPA_PROFIL
 10
20.078212161271718
 20
-10.5
 30
0.0
  0
VERTEX
  5
B9A
  8
SAPA_PROFIL
 10
20.078212161271718
 20
-10.0
 30
0.0
  0
VERTEX
  5
B9B
  8
SAPA_PROFIL
 10
22.578212161271718
 20
-10.0
 30
0.0
  0
VERTEX
  5
B9C
  8
SAPA_PROFIL
 10
22.578212161271718
 20
-10.5
 30
0.0
  0
VERTEX
  5
B9D
  8
SAPA_PROFIL
 10
25.078212161271718
 20
-10.5
 30
0.0
  0
VERTEX
  5
B9E
  8
SAPA_PROFIL
 10
25.078212161271718
 20
-10.0
 30
0.0
  0
VERTEX
  5
B9F
  8
SAPA_PROFIL
 10
27.578212161271718
 20
-10.0
 30
0.0
  0
VERTEX
  5
BA0
  8
SAPA_PROFIL
 10
27.578212161271718
 20
-10.5
 30
0.0
  0
VERTEX
  5
BA1
  8
SAPA_PROFIL
 10
30.078212161271718
 20
-10.5
 30
0.0
  0
VERTEX
  5
BA2
  8
SAPA_PROFIL
 10
30.078212161271718
 20
-10.0
 30
0.0
  0
VERTEX
  5
BA3
  8
SAPA_PROFIL
 10
32.578212161271722
 20
-10.0
 30
0.0
  0
VERTEX
  5
BA4
  8
SAPA_PROFIL
 10
32.578212161271722
 20
-10.5
 30
0.0
  0
VERTEX
  5
BA5
  8
SAPA_PROFIL
 10
35.078212161271722
 20
-10.5
 30
0.0
  0
VERTEX
  5
BA6
  8
SAPA_PROFIL
 10
35.078212161271722
 20
-10.0
 30
0.0
  0
VERTEX
  5
BA7
  8
SAPA_PROFIL
 10
37.578212161271722
 20
-10.0
 30
0.0
  0
VERTEX
  5
BA8
  8
SAPA_PROFIL
 10
37.578212161271722
 20
-10.5
 30
0.0
  0
VERTEX
  5
BA9
  8
SAPA_PROFIL
 10
40.078212161271722
 20
-10.5
 30
0.0
  0
VERTEX
  5
BAA
  8
SAPA_PROFIL
 10
40.078212161271722
 20
-10.0
 30
0.0
  0
VERTEX
  5
BAB
  8
SAPA_PROFIL
 10
42.578212161271722
 20
-10.0
 30
0.0
  0
VERTEX
  5
BAC
  8
SAPA_PROFIL
 10
42.578212161271722
 20
-10.5
 30
0.0
  0
VERTEX
  5
BAD
  8
SAPA_PROFIL
 10
45.078212161271722
 20
-10.5
 30
0.0
  0
VERTEX
  5
BAE
  8
SAPA_PROFIL
 10
45.078212161271722
 20
-10.0
 30
0.0
  0
VERTEX
  5
BAF
  8
SAPA_PROFIL
 10
47.578212161271722
 20
-10.0
 30
0.0
  0
VERTEX
  5
BB0
  8
SAPA_PROFIL
 10
47.578212161271722
 20
-10.5
 30
0.0
  0
VERTEX
  5
BB1
  8
SAPA_PROFIL
 10
50.078212161271722
 20
-10.5
 30
0.0
  0
VERTEX
  5
BB2
  8
SAPA_PROFIL
 10
50.078212161271722
 20
-10.0
 30
0.0
  0
VERTEX
  5
BB3
  8
SAPA_PROFIL
 10
57.828212161271722
 20
-10.0
 30
0.0
 42
-0.4142135623730951
  0
VERTEX
  5
BB4
  8
SAPA_PROFIL
 10
58.828212161271722
 20
-11.0
 30
0.0
  0
VERTEX
  5
BB5
  8
SAPA_PROFIL
 10
58.828212161271722
 20
-29.5
 30
0.0
 42
-0.4142135623730951
  0
VERTEX
  5
BB6
  8
SAPA_PROFIL
 10
58.328212161271722
 20
-30.0
 30
0.0
  0
VERTEX
  5
BB7
  8
SAPA_PROFIL
 10
46.828212161271722
 20
-29.99999999999995
 30
0.0
 42
-0.4142135623730951
  0
VERTEX
  5
BB8
  8
SAPA_PROFIL
 10
46.328212161271722
 20
-29.49999999999994
 30
0.0
  0
VERTEX
  5
BB9
  8
SAPA_PROFIL
 10
46.328212161271722
 20
-28.199999999999989
 30
0.0
  0
VERTEX
  5
BBA
  8
SAPA_PROFIL
 10
46.328212161271722
 20
-27.99999999999994
 30
0.0
 42
-0.4142135623730951
  0
VERTEX
  5
BBB
  8
SAPA_PROFIL
 10
46.828212161271722
 20
-27.49999999999995
 30
0.0
  0
VERTEX
  5
BBC
  8
SAPA_PROFIL
 10
47.828212161271722
 20
-27.49999999999995
 30
0.0
  0
VERTEX
  5
BBD
  8
SAPA_PROFIL
 10
47.828212161271722
 20
-27.810353444305012
 30
0.0
 42
1.0
  0
VERTEX
  5
BBE
  8
SAPA_PROFIL
 10
49.328212161271722
 20
-27.810353444305122
 30
0.0
 42
0.8892228952715917
  0
SEQEND
  5
BBF
  8
SAPA_PROFIL
  0
INSERT
  5
63C
  8
SAPA_PROFIL
  2
BYGG-014193
 10
375.01408191103769
 20
71.900472614304704
 30
0.0
  0
POLYLINE
  5
63D
  8
SAPA_PROFIL
 66
     1
 10
0.0
 20
0.0
 30
0.0
  0
VERTEX
  5
BC0
  8
SAPA_PROFIL
 10
42.52844481936657
 20
130.87873692155171
 30
0.0
  0
VERTEX
  5
BC1
  8
SAPA_PROFIL
 10
41.847404885508269
 20
148.0000000000021
 30
0.0
 42
-0.4142135623730951
  0
VERTEX
  5
BC2
  8
SAPA_PROFIL
 10
42.347404885508261
 20
148.5000000000021
 30
0.0
  0
VERTEX
  5
BC3
  8
SAPA_PROFIL
 10
54.147018368516989
 20
148.50000000000199
 30
0.0
 42
-0.4076767287637263
  0
VERTEX
  5
BC4
  8
SAPA_PROFIL
 10
57.14626820090654
 20
145.5671036491851
 30
0.0
  0
VERTEX
  5
BC5
  8
SAPA_PROFIL
 10
57.300707423017343
 20
130.87873692155171
 30
0.0
 42
-0.4182129759575463
  0
VERTEX
  5
BC6
  8
SAPA_PROFIL
 10
56.805195702160169
 20
130.3675758094962
 30
0.0
  0
VERTEX
  5
BC7
  8
SAPA_PROFIL
 10
54.330547946040809
 20
130.35474820797049
 30
0.0
  0
VERTEX
  5
BC8
  8
SAPA_PROFIL
 10
52.704489989847247
 20
128.7000596103467
 30
0.0
  0
VERTEX
  5
BC9
  8
SAPA_PROFIL
 10
52.704489989847247
 20
124.15098357605849
 30
0.0
 42
0.4293387945586749
  0
VERTEX
  5
BCA
  8
SAPA_PROFIL
 10
53.022601125836587
 20
123.854257054974
 30
0.0
  0
VERTEX
  5
BCB
  8
SAPA_PROFIL
 10
54.10405685110706
 20
123.92689673110171
 30
0.0
 42
0.4883397947196161
  0
VERTEX
  5
BCC
  8
SAPA_PROFIL
 10
53.883433916908842
 20
125.4886185571101
 30
0.0
  0
VERTEX
  5
BCD
  8
SAPA_PROFIL
 10
53.883433916908842
 20
128.18769983314451
 30
0.0
  0
VERTEX
  5
BCE
  8
SAPA_PROFIL
 10
54.838057137106723
 20
129.1591314795206
 30
0.0
  0
VERTEX
  5
BCF
  8
SAPA_PROFIL
 10
57.337183279991791
 20
129.1591314795206
 30
0.0
  0
VERTEX
  5
BD0
  8
SAPA_PROFIL
 10
57.337183279991791
 20
128.68535581300571
 30
0.0
  0
VERTEX
  5
BD1
  8
SAPA_PROFIL
 10
58.850000000000023
 20
128.68535581300571
 30
0.0
  0
VERTEX
  5
BD2
  8
SAPA_PROFIL
 10
58.850000000000129
 20
149.70264070669421
 30
0.0
 42
0.4116378201539302
  0
VERTEX
  5
BD3
  8
SAPA_PROFIL
 10
58.550011522329783
 20
150.00000000000199
 30
0.0
  0
VERTEX
  5
BD4
  8
SAPA_PROFIL
 10
30.14740488550828
 20
150.0000000000021
 30
0.0
 42
0.414213562373095
  0
VERTEX
  5
BD5
  8
SAPA_PROFIL
 10
29.847404885508212
 20
149.70000000000209
 30
0.0
  0
VERTEX
  5
BD6
  8
SAPA_PROFIL
 10
29.847404885508269
 20
148.49000000000211
 30
0.0
 42
0.4142135623731037
  0
VERTEX
  5
BD7
  8
SAPA_PROFIL
 10
30.837404885508221
 20
147.5000000000021
 30
0.0
  0
VERTEX
  5
BD8
  8
SAPA_PROFIL
 10
30.847404885508269
 20
147.5000000000021
 30
0.0
  0
VERTEX
  5
BD9
  8
SAPA_PROFIL
 10
30.847404885508269
 20
148.7500000000021
 30
0.0
  0
VERTEX
  5
BDA
  8
SAPA_PROFIL
 10
32.347404885508269
 20
148.7500000000021
 30
0.0
 42
-0.4142135623730951
  0
VERTEX
  5
BDB
  8
SAPA_PROFIL
 10
32.847404885508269
 20
148.2500000000021
 30
0.0
  0
VERTEX
  5
BDC
  8
SAPA_PROFIL
 10
32.847404885508269
 20
140.2500000000021
 30
0.0
 42
-0.4142135623730951
  0
VERTEX
  5
BDD
  8
SAPA_PROFIL
 10
32.347404885508269
 20
139.7500000000021
 30
0.0
  0
VERTEX
  5
BDE
  8
SAPA_PROFIL
 10
30.847404885508269
 20
139.7500000000021
 30
0.0
  0
VERTEX
  5
BDF
  8
SAPA_PROFIL
 10
30.847404885508269
 20
141.0000000000021
 30
0.0
  0
VERTEX
  5
BE0
  8
SAPA_PROFIL
 10
30.837404885508221
 20
141.0000000000021
 30
0.0
 42
0.414213562373095
  0
VERTEX
  5
BE1
  8
SAPA_PROFIL
 10
29.847404885508212
 20
140.01000000000209
 30
0.0
  0
VERTEX
  5
BE2
  8
SAPA_PROFIL
 10
29.847404885508269
 20
139.5000000000021
 30
0.0
 42
0.4142135623730953
  0
VERTEX
  5
BE3
  8
SAPA_PROFIL
 10
30.847404885508269
 20
138.5000000000021
 30
0.0
  0
VERTEX
  5
BE4
  8
SAPA_PROFIL
 10
32.347404885508269
 20
138.5000000000021
 30
0.0
 42
0.4142135623730951
  0
VERTEX
  5
BE5
  8
SAPA_PROFIL
 10
34.047404885508257
 20
140.20000000000209
 30
0.0
  0
VERTEX
  5
BE6
  8
SAPA_PROFIL
 10
34.047404885508321
 20
148.0000000000021
 30
0.0
 42
-0.414213562373095
  0
VERTEX
  5
BE7
  8
SAPA_PROFIL
 10
34.547404885508307
 20
148.5000000000021
 30
0.0
  0
VERTEX
  5
BE8
  8
SAPA_PROFIL
 10
40.047404885508307
 20
148.5000000000021
 30
0.0
 42
-0.4142135623730951
  0
VERTEX
  5
BE9
  8
SAPA_PROFIL
 10
40.547404885508307
 20
148.0000000000021
 30
0.0
  0
VERTEX
  5
BEA
  8
SAPA_PROFIL
 10
41.218614531974623
 20
130.87873692155171
 30
0.0
  0
VERTEX
  5
BEB
  8
SAPA_PROFIL
 10
41.875552982703958
 20
125.475790157802
 30
0.0
 42
-0.4666505291506209
  0
VERTEX
  5
BEC
  8
SAPA_PROFIL
 10
41.613721451659409
 20
125.19598859188331
 30
0.0
  0
VERTEX
  5
BED
  8
SAPA_PROFIL
 10
40.891065358100462
 20
125.2355314858016
 30
0.0
 42
0.7332303362618522
  0
VERTEX
  5
BEE
  8
SAPA_PROFIL
 10
40.690890769530277
 20
124.69945546314931
 30
0.0
  0
VERTEX
  5
BEF
  8
SAPA_PROFIL
 10
42.80099810906799
 20
123.92854534564491
 30
0.0
 42
0.668178637919333
  0
VERTEX
  5
BF0
  8
SAPA_PROFIL
 10
43.283345961158801
 20
124.2017115408392
 30
0.0
  0
VERTEX
  5
BF1
  8
SAPA_PROFIL
 10
42.52844481936657
 20
130.87873692155171
 30
0.0
  0
VERTEX
  5
BF2
  8
SAPA_PROFIL
 10
42.537978271529667
 20
130.87873692155171
 30
0.0
  0
SEQEND
  5
BF3
  8
SAPA_PROFIL
  0
POLYLINE
  5
63E
  8
SAPA_PROFIL
 66
     1
 10
0.0
 20
0.0
 30
0.0
 70
     1
  0
VERTEX
  5
BF4
  8
SAPA_PROFIL
 10
10.35000000000008
 20
148.25
 30
0.0
  0
VERTEX
  5
BF5
  8
SAPA_PROFIL
 10
10.35000000000008
 20
140.25
 30
0.0
 42
0.4142135623730951
  0
VERTEX
  5
BF6
  8
SAPA_PROFIL
 10
10.85000000000008
 20
139.75
 30
0.0
  0
VERTEX
  5
BF7
  8
SAPA_PROFIL
 10
12.35000000000008
 20
139.75
 30
0.0
  0
VERTEX
  5
BF8
  8
SAPA_PROFIL
 10
12.35000000000008
 20
141.0
 30
0.0
  0
VERTEX
  5
BF9
  8
SAPA_PROFIL
 10
12.36000000000007
 20
141.0
 30
0.0
 42
-0.4142135623730951
  0
VERTEX
  5
BFA
  8
SAPA_PROFIL
 10
13.35000000000008
 20
140.00999999999999
 30
0.0
  0
VERTEX
  5
BFB
  8
SAPA_PROFIL
 10
13.35000000000008
 20
139.49000000000001
 30
0.0
 42
-0.4142135623730951
  0
VERTEX
  5
BFC
  8
SAPA_PROFIL
 10
12.36000000000007
 20
138.5
 30
0.0
  0
VERTEX
  5
BFD
  8
SAPA_PROFIL
 10
11.15000000000015
 20
138.5
 30
0.0
 42
0.4142135623730951
  0
VERTEX
  5
BFE
  8
SAPA_PROFIL
 10
10.65000000000015
 20
138.0
 30
0.0
  0
VERTEX
  5
BFF
  8
SAPA_PROFIL
 10
10.65000000000015
 20
128.0
 30
0.0
  0
VERTEX
  5
C00
  8
SAPA_PROFIL
 10
11.85000000000008
 20
128.0
 30
0.0
  0
VERTEX
  5
C01
  8
SAPA_PROFIL
 10
12.85000000000008
 20
127.0
 30
0.0
  0
VERTEX
  5
C02
  8
SAPA_PROFIL
 10
12.85000000000008
 20
126.0
 30
0.0
  0
VERTEX
  5
C03
  8
SAPA_PROFIL
 10
10.65000000000015
 20
126.0
 30
0.0
  0
VERTEX
  5
C04
  8
SAPA_PROFIL
 10
10.65000000000015
 20
123.0
 30
0.0
  0
VERTEX
  5
C05
  8
SAPA_PROFIL
 10
29.35000000000008
 20
123.0
 30
0.0
  0
VERTEX
  5
C06
  8
SAPA_PROFIL
 10
29.35000000000008
 20
126.0
 30
0.0
  0
VERTEX
  5
C07
  8
SAPA_PROFIL
 10
26.85000000000008
 20
126.0
 30
0.0
  0
VERTEX
  5
C08
  8
SAPA_PROFIL
 10
26.85000000000008
 20
127.0
 30
0.0
  0
VERTEX
  5
C09
  8
SAPA_PROFIL
 10
27.650000000000151
 20
127.8
 30
0.0
  0
VERTEX
  5
C0A
  8
SAPA_PROFIL
 10
33.330384757729462
 20
127.8
 30
0.0
  0
VERTEX
  5
C0B
  8
SAPA_PROFIL
 10
33.85000000000008
 20
127.5
 30
0.0
  0
VERTEX
  5
C0C
  8
SAPA_PROFIL
 10
34.369615242270761
 20
127.8
 30
0.0
  0
VERTEX
  5
C0D
  8
SAPA_PROFIL
 10
40.050000000000061
 20
127.8
 30
0.0
  0
VERTEX
  5
C0E
  8
SAPA_PROFIL
 10
40.850000000000023
 20
127.0
 30
0.0
  0
VERTEX
  5
C0F
  8
SAPA_PROFIL
 10
40.850000000000023
 20
126.0
 30
0.0
  0
VERTEX
  5
C10
  8
SAPA_PROFIL
 10
38.350000000000023
 20
126.0
 30
0.0
  0
VERTEX
  5
C11
  8
SAPA_PROFIL
 10
38.350000000000023
 20
123.0
 30
0.0
  0
VERTEX
  5
C12
  8
SAPA_PROFIL
 10
57.050000000000068
 20
123.0
 30
0.0
  0
VERTEX
  5
C13
  8
SAPA_PROFIL
 10
57.050000000000068
 20
126.0
 30
0.0
  0
VERTEX
  5
C14
  8
SAPA_PROFIL
 10
54.850000000000023
 20
126.0
 30
0.0
  0
VERTEX
  5
C15
  8
SAPA_PROFIL
 10
54.850000000000023
 20
127.0
 30
0.0
  0
VERTEX
  5
C16
  8
SAPA_PROFIL
 10
55.850000000000023
 20
128.0
 30
0.0
  0
VERTEX
  5
C17
  8
SAPA_PROFIL
 10
58.850000000000023
 20
128.0
 30
0.0
  0
VERTEX
  5
C18
  8
SAPA_PROFIL
 10
58.850000000000023
 20
0.0
 30
0.0
  0
VERTEX
  5
C19
  8
SAPA_PROFIL
 10
55.850000000000023
 20
0.0
 30
0.0
  0
VERTEX
  5
C1A
  8
SAPA_PROFIL
 10
54.850000000000023
 20
1.0
 30
0.0
  0
VERTEX
  5
C1B
  8
SAPA_PROFIL
 10
54.850000000000023
 20
2.0
 30
0.0
  0
VERTEX
  5
C1C
  8
SAPA_PROFIL
 10
57.049999999999947
 20
2.0
 30
0.0
  0
VERTEX
  5
C1D
  8
SAPA_PROFIL
 10
57.049999999999947
 20
25.5
 30
0.0
 42
0.4142135623730951
  0
VERTEX
  5
C1E
  8
SAPA_PROFIL
 10
56.049999999999947
 20
26.5
 30
0.0
  0
VERTEX
  5
C1F
  8
SAPA_PROFIL
 10
54.850002371485971
 20
26.5
 30
0.0
 42
-0.3172174763920461
  0
VERTEX
  5
C20
  8
SAPA_PROFIL
 10
51.270188076793147
 20
29.02526606914785
 30
0.0
 42
0.4814060708635898
  0
VERTEX
  5
C21
  8
SAPA_PROFIL
 10
50.531054720146017
 20
29.279579927592302
 30
0.0
 42
-0.0772943986899826
  0
VERTEX
  5
C22
  8
SAPA_PROFIL
 10
49.122727272727161
 20
28.664695946555639
 30
0.0
 42
0.3406875359425185
  0
VERTEX
  5
C23
  8
SAPA_PROFIL
 10
48.75
 20
28.18116554121071
 30
0.0
  0
VERTEX
  5
C24
  8
SAPA_PROFIL
 10
48.75
 20
26.5
 30
0.0
  0
VERTEX
  5
C25
  8
SAPA_PROFIL
 10
46.950000000000038
 20
26.5
 30
0.0
  0
VERTEX
  5
C26
  8
SAPA_PROFIL
 10
46.950000000000038
 20
28.18116554121071
 30
0.0
 42
0.3406875359425307
  0
VERTEX
  5
C27
  8
SAPA_PROFIL
 10
46.577272727272877
 20
28.664695946555639
 30
0.0
 42
-0.077294398689983
  0
VERTEX
  5
C28
  8
SAPA_PROFIL
 10
45.168945279853922
 20
29.279579927592302
 30
0.0
 42
0.4814060708635808
  0
VERTEX
  5
C29
  8
SAPA_PROFIL
 10
44.429811923206891
 20
29.02526606914785
 30
0.0
 42
-0.3172172005078511
  0
VERTEX
  5
C2A
  8
SAPA_PROFIL
 10
40.850001438560298
 20
26.500000000000341
 30
0.0
  0
VERTEX
  5
C2B
  8
SAPA_PROFIL
 10
34.369615242270697
 20
26.5
 30
0.0
  0
VERTEX
  5
C2C
  8
SAPA_PROFIL
 10
33.850000000000023
 20
26.800000000000072
 30
0.0
  0
VERTEX
  5
C2D
  8
SAPA_PROFIL
 10
33.330384757729291
 20
26.5
 30
0.0
  0
VERTEX
  5
C2E
  8
SAPA_PROFIL
 10
26.849998561439751
 20
26.5
 30
0.0
 42
-0.317217200507851
  0
VERTEX
  5
C2F
  8
SAPA_PROFIL
 10
23.270188076793151
 20
29.02526606914785
 30
0.0
 42
0.4814060708635807
  0
VERTEX
  5
C30
  8
SAPA_PROFIL
 10
22.53105472014607
 20
29.279579927592302
 30
0.0
 42
-0.077294398689983
  0
VERTEX
  5
C31
  8
SAPA_PROFIL
 10
21.122727272727161
 20
28.664695946555529
 30
0.0
 42
0.3406875359425307
  0
VERTEX
  5
C32
  8
SAPA_PROFIL
 10
20.75
 20
28.181165541210589
 30
0.0
  0
VERTEX
  5
C33
  8
SAPA_PROFIL
 10
20.75
 20
26.5
 30
0.0
  0
VERTEX
  5
C34
  8
SAPA_PROFIL
 10
18.950000000000038
 20
26.5
 30
0.0
  0
VERTEX
  5
C35
  8
SAPA_PROFIL
 10
18.949999999999989
 20
28.181165541210589
 30
0.0
 42
0.3406875359425185
  0
VERTEX
  5
C36
  8
SAPA_PROFIL
 10
18.577272727272881
 20
28.664695946555529
 30
0.0
 42
-0.0772943986899827
  0
VERTEX
  5
C37
  8
SAPA_PROFIL
 10
17.168945279853912
 20
29.279579927592181
 30
0.0
 42
0.4814060708635715
  0
VERTEX
  5
C38
  8
SAPA_PROFIL
 10
16.429811923206898
 20
29.02526606914785
 30
0.0
 42
-0.3172174763920495
  0
VERTEX
  5
C39
  8
SAPA_PROFIL
 10
12.849997628513959
 20
26.5
 30
0.0
  0
VERTEX
  5
C3A
  8
SAPA_PROFIL
 10
11.649999999999981
 20
26.5
 30
0.0
 42
0.414213562373095
  0
VERTEX
  5
C3B
  8
SAPA_PROFIL
 10
10.64999999999997
 20
25.5
 30
0.0
  0
VERTEX
  5
C3C
  8
SAPA_PROFIL
 10
10.64999999999997
 20
2.0
 30
0.0
  0
VERTEX
  5
C3D
  8
SAPA_PROFIL
 10
12.850000000000019
 20
2.0
 30
0.0
  0
VERTEX
  5
C3E
  8
SAPA_PROFIL
 10
12.850000000000019
 20
1.0
 30
0.0
  0
VERTEX
  5
C3F
  8
SAPA_PROFIL
 10
11.850000000000019
 20
0.0
 30
0.0
  0
VERTEX
  5
C40
  8
SAPA_PROFIL
 10
8.8500000000000227
 20
0.0
 30
0.0
  0
VERTEX
  5
C41
  8
SAPA_PROFIL
 10
8.8500000000001364
 20
149.69999999999999
 30
0.0
 42
-0.4142135623730951
  0
VERTEX
  5
C42
  8
SAPA_PROFIL
 10
9.1500000000001478
 20
150.0
 30
0.0
  0
VERTEX
  5
C43
  8
SAPA_PROFIL
 10
13.05000000000012
 20
150.0
 30
0.0
 42
-0.4142135623730951
  0
VERTEX
  5
C44
  8
SAPA_PROFIL
 10
13.35000000000008
 20
149.69999999999999
 30
0.0
  0
VERTEX
  5
C45
  8
SAPA_PROFIL
 10
13.35000000000008
 20
148.49000000000001
 30
0.0
 42
-0.4142135623730951
  0
VERTEX
  5
C46
  8
SAPA_PROFIL
 10
12.36000000000007
 20
147.5
 30
0.0
  0
VERTEX
  5
C47
  8
SAPA_PROFIL
 10
12.35000000000008
 20
147.5
 30
0.0
  0
VERTEX
  5
C48
  8
SAPA_PROFIL
 10
12.35000000000008
 20
148.75
 30
0.0
  0
VERTEX
  5
C49
  8
SAPA_PROFIL
 10
10.85000000000008
 20
148.75
 30
0.0
 42
0.4142135623730951
  0
SEQEND
  5
C4A
  8
SAPA_PROFIL
  0
POLYLINE
  5
63F
  8
SAPA_PROFIL
 66
     1
 10
0.0
 20
0.0
 30
0.0
 70
     1
  0
VERTEX
  5
C4B
  8
SAPA_PROFIL
 10
22.094533826605019
 20
35.088888888888619
 30
0.0
 42
-0.5627218711633653
  0
VERTEX
  5
C4C
  8
SAPA_PROFIL
 10
20.22439504323421
 20
30.775604956765498
 30
0.0
  0
VERTEX
  5
C4D
  8
SAPA_PROFIL
 10
19.850000000000019
 20
31.14999999999975
 30
0.0
  0
VERTEX
  5
C4E
  8
SAPA_PROFIL
 10
19.475604956767139
 20
30.77560495676698
 30
0.0
 42
-0.5627218711631925
  0
VERTEX
  5
C4F
  8
SAPA_PROFIL
 10
17.60546617339503
 20
35.088888888888619
 30
0.0
 42
-0.1757213873472601
  0
VERTEX
  5
C50
  8
SAPA_PROFIL
 10
17.88550099400112
 20
35.283321904116413
 30
0.0
 42
0.3402319204271726
  0
VERTEX
  5
C51
  8
SAPA_PROFIL
 10
18.25
 20
35.756977370151283
 30
0.0
  0
VERTEX
  5
C52
  8
SAPA_PROFIL
 10
18.25
 20
35.800000000000068
 30
0.0
 42
0.4142135623730951
  0
VERTEX
  5
C53
  8
SAPA_PROFIL
 10
17.75
 20
36.300000000000068
 30
0.0
  0
VERTEX
  5
C54
  8
SAPA_PROFIL
 10
16.850000000000019
 20
36.299999999999947
 30
0.0
 42
0.414213562373095
  0
VERTEX
  5
C55
  8
SAPA_PROFIL
 10
14.850000000000019
 20
34.299999999999962
 30
0.0
  0
VERTEX
  5
C56
  8
SAPA_PROFIL
 10
14.850000000000019
 20
30.300000000000072
 30
0.0
 42
-0.4142135623730951
  0
VERTEX
  5
C57
  8
SAPA_PROFIL
 10
12.850000000000019
 20
28.300000000000072
 30
0.0
  0
VERTEX
  5
C58
  8
SAPA_PROFIL
 10
12.84999762851402
 20
28.300000000000072
 30
0.0
  0
VERTEX
  5
C59
  8
SAPA_PROFIL
 10
11.649999999999981
 20
28.300000000000072
 30
0.0
 42
-0.4142135623730951
  0
VERTEX
  5
C5A
  8
SAPA_PROFIL
 10
10.64999999999997
 20
29.300000000000072
 30
0.0
  0
VERTEX
  5
C5B
  8
SAPA_PROFIL
 10
10.65000000000015
 20
121.2
 30
0.0
  0
VERTEX
  5
C5C
  8
SAPA_PROFIL
 10
31.755000000000109
 20
121.2
 30
0.0
 42
0.4142135623730951
  0
VERTEX
  5
C5D
  8
SAPA_PROFIL
 10
32.250000000000121
 20
121.69499999999999
 30
0.0
  0
VERTEX
  5
C5E
  8
SAPA_PROFIL
 10
32.250000000000121
 20
121.705
 30
0.0
 42
0.4142135623730951
  0
VERTEX
  5
C5F
  8
SAPA_PROFIL
 10
31.755000000000109
 20
122.2
 30
0.0
  0
VERTEX
  5
C60
  8
SAPA_PROFIL
 10
31.595000000000081
 20
122.2
 30
0.0
 42
-0.4142135623730826
  0
VERTEX
  5
C61
  8
SAPA_PROFIL
 10
31.10000000000008
 20
122.69499999999999
 30
0.0
  0
VERTEX
  5
C62
  8
SAPA_PROFIL
 10
31.10000000000008
 20
123.5000000000001
 30
0.0
 42
-0.374756460117969
  0
VERTEX
  5
C63
  8
SAPA_PROFIL
 10
33.475604956763682
 20
126.2243950432361
 30
0.0
  0
VERTEX
  5
C64
  8
SAPA_PROFIL
 10
33.85000000000008
 20
125.8499999999997
 30
0.0
  0
VERTEX
  5
C65
  8
SAPA_PROFIL
 10
34.22439504323637
 20
126.22439504323449
 30
0.0
 42
-0.3747564601179689
  0
VERTEX
  5
C66
  8
SAPA_PROFIL
 10
36.60000000000008
 20
123.5000000000001
 30
0.0
  0
VERTEX
  5
C67
  8
SAPA_PROFIL
 10
36.60000000000008
 20
122.69499999999999
 30
0.0
 42
-0.4142135623730824
  0
VERTEX
  5
C68
  8
SAPA_PROFIL
 10
36.105000000000132
 20
122.2
 30
0.0
  0
VERTEX
  5
C69
  8
SAPA_PROFIL
 10
35.945000000000107
 20
122.1999999999999
 30
0.0
 42
0.4142135623730951
  0
VERTEX
  5
C6A
  8
SAPA_PROFIL
 10
35.450000000000109
 20
121.705
 30
0.0
  0
VERTEX
  5
C6B
  8
SAPA_PROFIL
 10
35.450000000000109
 20
121.69499999999999
 30
0.0
 42
0.4142135623730951
  0
VERTEX
  5
C6C
  8
SAPA_PROFIL
 10
35.945000000000107
 20
121.2
 30
0.0
  0
VERTEX
  5
C6D
  8
SAPA_PROFIL
 10
57.050000000000068
 20
121.1999999999999
 30
0.0
  0
VERTEX
  5
C6E
  8
SAPA_PROFIL
 10
57.049999999999947
 20
29.300000000000072
 30
0.0
 42
-0.4142135623730951
  0
VERTEX
  5
C6F
  8
SAPA_PROFIL
 10
56.049999999999947
 20
28.300000000000072
 30
0.0
  0
VERTEX
  5
C70
  8
SAPA_PROFIL
 10
54.850002371485971
 20
28.300000000000072
 30
0.0
  0
VERTEX
  5
C71
  8
SAPA_PROFIL
 10
54.850000000000023
 20
28.300000000000072
 30
0.0
 42
-0.4142135623730951
  0
VERTEX
  5
C72
  8
SAPA_PROFIL
 10
52.850000000000023
 20
30.300000000000072
 30
0.0
  0
VERTEX
  5
C73
  8
SAPA_PROFIL
 10
52.850000000000023
 20
34.300000000000068
 30
0.0
 42
0.4142135623730951
  0
VERTEX
  5
C74
  8
SAPA_PROFIL
 10
50.850000000000023
 20
36.300000000000068
 30
0.0
  0
VERTEX
  5
C75
  8
SAPA_PROFIL
 10
49.950000000000038
 20
36.300000000000068
 30
0.0
 42
0.4142135623730951
  0
VERTEX
  5
C76
  8
SAPA_PROFIL
 10
49.450000000000038
 20
35.800000000000068
 30
0.0
  0
VERTEX
  5
C77
  8
SAPA_PROFIL
 10
49.450000000000038
 20
35.75697737015139
 30
0.0
 42
0.3402319204271726
  0
VERTEX
  5
C78
  8
SAPA_PROFIL
 10
49.814499005998869
 20
35.283321904116413
 30
0.0
 42
-0.1757213873472602
  0
VERTEX
  5
C79
  8
SAPA_PROFIL
 10
50.094533826605023
 20
35.088888888888619
 30
0.0
 42
-0.5627218711633901
  0
VERTEX
  5
C7A
  8
SAPA_PROFIL
 10
48.224395043233471
 20
30.77560495676585
 30
0.0
  0
VERTEX
  5
C7B
  8
SAPA_PROFIL
 10
47.850000000000023
 20
31.149999999999181
 30
0.0
  0
VERTEX
  5
C7C
  8
SAPA_PROFIL
 10
47.475604956762822
 20
30.775604956761981
 30
0.0
 42
-0.5627218711638518
  0
VERTEX
  5
C7D
  8
SAPA_PROFIL
 10
45.60546617339503
 20
35.088888888888619
 30
0.0
 42
-0.1757213873471214
  0
VERTEX
  5
C7E
  8
SAPA_PROFIL
 10
45.885500994000608
 20
35.283321904117088
 30
0.0
 42
0.3402319204270061
  0
VERTEX
  5
C7F
  8
SAPA_PROFIL
 10
46.25
 20
35.756977370149123
 30
0.0
  0
VERTEX
  5
C80
  8
SAPA_PROFIL
 10
46.25
 20
35.799999999999962
 30
0.0
 42
0.4142135623731031
  0
VERTEX
  5
C81
  8
SAPA_PROFIL
 10
45.75
 20
36.300000000000068
 30
0.0
  0
VERTEX
  5
C82
  8
SAPA_PROFIL
 10
44.850000000000023
 20
36.300000000000068
 30
0.0
 42
0.4142135623730951
  0
VERTEX
  5
C83
  8
SAPA_PROFIL
 10
42.850000000000023
 20
34.300000000000068
 30
0.0
  0
VERTEX
  5
C84
  8
SAPA_PROFIL
 10
42.849999999999909
 20
30.300000000000072
 30
0.0
 42
-0.4142135623730951
  0
VERTEX
  5
C85
  8
SAPA_PROFIL
 10
40.849999999999909
 20
28.300000000000072
 30
0.0
  0
VERTEX
  5
C86
  8
SAPA_PROFIL
 10
39.25
 20
28.300000000000072
 30
0.0
  0
VERTEX
  5
C87
  8
SAPA_PROFIL
 10
38.049999999999962
 20
29.500000000000121
 30
0.0
  0
VERTEX
  5
C88
  8
SAPA_PROFIL
 10
29.649999999999981
 20
29.500000000000121
 30
0.0
  0
VERTEX
  5
C89
  8
SAPA_PROFIL
 10
28.449999999999928
 20
28.299999999999962
 30
0.0
  0
VERTEX
  5
C8A
  8
SAPA_PROFIL
 10
26.850000000000019
 20
28.300000000000072
 30
0.0
 42
-0.4142135623730951
  0
VERTEX
  5
C8B
  8
SAPA_PROFIL
 10
24.850000000000019
 20
30.300000000000072
 30
0.0
  0
VERTEX
  5
C8C
  8
SAPA_PROFIL
 10
24.850000000000019
 20
34.300000000000068
 30
0.0
 42
0.4142135623730951
  0
VERTEX
  5
C8D
  8
SAPA_PROFIL
 10
22.850000000000019
 20
36.300000000000068
 30
0.0
  0
VERTEX
  5
C8E
  8
SAPA_PROFIL
 10
21.949999999999928
 20
36.299999999999947
 30
0.0
 42
0.414213562373103
  0
VERTEX
  5
C8F
  8
SAPA_PROFIL
 10
21.449999999999928
 20
35.799999999999962
 30
0.0
  0
VERTEX
  5
C90
  8
SAPA_PROFIL
 10
21.449999999999928
 20
35.756977370149123
 30
0.0
 42
0.3402319204270058
  0
VERTEX
  5
C91
  8
SAPA_PROFIL
 10
21.814499005998641
 20
35.283321904114253
 30
0.0
 42
-0.1757213873471214
  0
SEQEND
  5
C92
  8
SAPA_PROFIL
  0
POLYLINE
  5
669
  8
SAPA_GLAS
 66
     1
 10
0.0
 20
0.0
 30
0.0
  0
VERTEX
  5
CA8
  8
SAPA_GLAS
 10
17.25000000000022
 20
161.79999999999981
 30
0.0
  0
VERTEX
  5
CA9
  8
SAPA_GLAS
 10
17.25000000000022
 20
132.9999999999998
 30
0.0
  0
VERTEX
  5
CAA
  8
SAPA_GLAS
 10
23.25000000000022
 20
132.9999999999998
 30
0.0
  0
VERTEX
  5
CAB
  8
SAPA_GLAS
 10
23.250000000000451
 20
161.79999999999981
 30
0.0
  0
SEQEND
  5
CAC
  8
SAPA_GLAS
  0
POLYLINE
  5
67C
  8
SAPA_FOGBAND
 66
     1
 10
0.0
 20
0.0
 30
0.0
 70
     1
  0
VERTEX
  5
D12
  8
SAPA_FOGBAND
 10
49.065358435989019
 20
2.2373567716660321
 30
0.0
  0
VERTEX
  5
D13
  8
SAPA_FOGBAND
 10
49.017166696863221
 20
2.438528070816278
 30
0.0
  0
VERTEX
  5
D14
  8
SAPA_FOGBAND
 10
53.486492374500749
 20
3.5091806839609938
 30
0.0
  0
VERTEX
  5
D15
  8
SAPA_FOGBAND
 10
53.534684113626547
 20
3.308009384810747
 30
0.0
  0
SEQEND
  5
D16
  8
SAPA_FOGBAND
  0
LINE
  5
67D
  8
SAPA_FOGBAND
 10
51.705666577482589
 20
2.869857738275345
 30
0.0
 11
56.273138147260973
 21
-8.5875476916833815
 31
0.0
  0
LINE
  5
67E
  8
SAPA_FOGBAND
 10
51.537662658786637
 20
2.8296114354672448
 30
0.0
 11
55.485651515993759
 21
-8.7525595324114658
 31
0.0
  0
LINE
  5
67F
  8
SAPA_FOGBAND
 10
50.809319558960453
 20
2.6551326663327921
 30
0.0
 11
52.882733347602759
 21
-9.3288333148909253
 31
0.0
  0
LINE
  5
680
  8
SAPA_FOGBAND
 10
51.09181815974955
 20
2.7228068272600461
 30
0.0
 11
53.821291739906599
 21
-9.1039962661305491
 31
0.0
  0
LINE
  5
681
  8
SAPA_FOGBAND
 10
51.300698445365008
 20
2.7728452983313221
 30
0.0
 11
54.531029210648001
 21
-8.9103394814550931
 31
0.0
  0
POLYLINE
  5
682
  8
SAPA_FOGBAND
 66
     1
 10
0.0
 20
0.0
 30
0.0
 70
     1
  0
VERTEX
  5
D17
  8
SAPA_FOGBAND
 10
18.634641564010732
 20
2.237356771666037
 30
0.0
  0
VERTEX
  5
D18
  8
SAPA_FOGBAND
 10
18.68283330313653
 20
2.4385280708162842
 30
0.0
  0
VERTEX
  5
D19
  8
SAPA_FOGBAND
 10
14.213507625499
 20
3.5091806839610009
 30
0.0
  0
VERTEX
  5
D1A
  8
SAPA_FOGBAND
 10
14.165315886373209
 20
3.308009384810755
 30
0.0
  0
SEQEND
  5
D1B
  8
SAPA_FOGBAND
  0
LINE
  5
683
  8
SAPA_FOGBAND
 10
15.994333422517171
 20
2.8698577382753512
 30
0.0
 11
11.42686185273879
 21
-8.5875476916833726
 31
0.0
  0
LINE
  5
684
  8
SAPA_FOGBAND
 10
16.16233734121311
 20
2.829611435467251
 30
0.0
 11
12.21434848400599
 21
-8.7525595324114551
 31
0.0
  0
LINE
  5
685
  8
SAPA_FOGBAND
 10
16.890680441039311
 20
2.6551326663327992
 30
0.0
 11
14.81726665239699
 21
-9.3288333148909182
 31
0.0
  0
LINE
  5
686
  8
SAPA_FOGBAND
 10
16.608181840250211
 20
2.7228068272600532
 30
0.0
 11
13.878708260093161
 21
-9.1039962661305402
 31
0.0
  0
LINE
  5
687
  8
SAPA_FOGBAND
 10
16.399301554634739
 20
2.7728452983313279
 30
0.0
 11
13.168970789351761
 21
-8.910339481455086
 31
0.0
  0
POLYLINE
  5
688
  8
SAPA_FOGBAND
 66
     1
 10
0.0
 20
0.0
 30
0.0
 70
     1
  0
VERTEX
  5
D1C
  8
SAPA_FOGBAND
 10
29.839251262205149
 20
139.49339784034919
 30
0.0
  0
VERTEX
  5
D1D
  8
SAPA_FOGBAND
 10
29.839251262205149
 20
140.69339784034921
 30
0.0
 42
-0.4142135623730951
  0
VERTEX
  5
D1E
  8
SAPA_FOGBAND
 10
30.1392512622051
 20
140.99339784034919
 30
0.0
  0
VERTEX
  5
D1F
  8
SAPA_FOGBAND
 10
31.039251262205202
 20
140.99339784034919
 30
0.0
  0
VERTEX
  5
D20
  8
SAPA_FOGBAND
 10
31.039251262205202
 20
140.64339784034931
 30
0.0
 42
0.6681786379192988
  0
VERTEX
  5
D21
  8
SAPA_FOGBAND
 10
31.551383296561202
 20
140.43126580599321
 30
0.0
  0
VERTEX
  5
D22
  8
SAPA_FOGBAND
 10
32.404936687154297
 20
141.28481919658651
 30
0.0
 42
0.1989123673796552
  0
VERTEX
  5
D23
  8
SAPA_FOGBAND
 10
32.639251262205107
 20
141.85050462153569
 30
0.0
  0
VERTEX
  5
D24
  8
SAPA_FOGBAND
 10
32.639251262205107
 20
142.01319974395551
 30
0.0
 42
0.3394542588633746
  0
VERTEX
  5
D25
  8
SAPA_FOGBAND
 10
32.416896975735881
 20
142.30297749184231
 30
0.0
  0
VERTEX
  5
D26
  8
SAPA_FOGBAND
 10
31.061605548674379
 20
142.6661267352321
 30
0.0
 42
-0.3394542588633746
  0
VERTEX
  5
D27
  8
SAPA_FOGBAND
 10
30.839251262205149
 20
142.9559044831189
 30
0.0
  0
VERTEX
  5
D28
  8
SAPA_FOGBAND
 10
30.839251262205149
 20
145.53089119757939
 30
0.0
 42
-0.3394542588633746
  0
VERTEX
  5
D29
  8
SAPA_FOGBAND
 10
31.061605548674379
 20
145.8206689454662
 30
0.0
  0
VERTEX
  5
D2A
  8
SAPA_FOGBAND
 10
32.416896975735881
 20
146.18381818885629
 30
0.0
 42
0.3394542588633744
  0
VERTEX
  5
D2B
  8
SAPA_FOGBAND
 10
32.639251262205107
 20
146.47359593674281
 30
0.0
  0
VERTEX
  5
D2C
  8
SAPA_FOGBAND
 10
32.639251262205107
 20
146.63629105916289
 30
0.0
 42
0.1989123673796526
  0
VERTEX
  5
D2D
  8
SAPA_FOGBAND
 10
32.404936687154297
 20
147.20197648411201
 30
0.0
  0
VERTEX
  5
D2E
  8
SAPA_FOGBAND
 10
31.551383296561202
 20
148.0555298747054
 30
0.0
 42
0.6681786379193474
  0
VERTEX
  5
D2F
  8
SAPA_FOGBAND
 10
31.039251262205202
 20
147.8433978403493
 30
0.0
  0
VERTEX
  5
D30
  8
SAPA_FOGBAND
 10
31.039251262205202
 20
147.49339784034919
 30
0.0
  0
VERTEX
  5
D31
  8
SAPA_FOGBAND
 10
30.139251262205111
 20
147.49339784034919
 30
0.0
 42
-0.4142135623730951
  0
VERTEX
  5
D32
  8
SAPA_FOGBAND
 10
29.839251262205149
 20
147.79339784034929
 30
0.0
  0
VERTEX
  5
D33
  8
SAPA_FOGBAND
 10
29.839251262205149
 20
149.89339784034919
 30
0.0
 42
-0.4142135623730951
  0
VERTEX
  5
D34
  8
SAPA_FOGBAND
 10
30.139251262205111
 20
150.19339784034921
 30
0.0
  0
VERTEX
  5
D35
  8
SAPA_FOGBAND
 10
31.539251262205202
 20
150.19339784034921
 30
0.0
 42
0.7754026414786132
  0
VERTEX
  5
D36
  8
SAPA_FOGBAND
 10
31.683959130511091
 20
150.75618983575691
 30
0.0
 42
-0.1086822875051356
  0
VERTEX
  5
D37
  8
SAPA_FOGBAND
 10
23.75587674037433
 20
154.90623799434769
 30
0.0
 42
0.8680589103334746
  0
VERTEX
  5
D38
  8
SAPA_FOGBAND
 10
23.399036837712401
 20
154.43131396458401
 30
0.0
  0
VERTEX
  5
D39
  8
SAPA_FOGBAND
 10
26.22683715885637
 20
150.46127856743229
 30
0.0
 42
-0.1989123673796536
  0
VERTEX
  5
D3A
  8
SAPA_FOGBAND
 10
26.519730377669699
 20
149.75417178624571
 30
0.0
  0
VERTEX
  5
D3B
  8
SAPA_FOGBAND
 10
26.519730377669699
 20
146.920852821826
 30
0.0
 42
-0.577350269189628
  0
VERTEX
  5
D3C
  8
SAPA_FOGBAND
 10
26.069730377669881
 20
146.66104520069069
 30
0.0
  0
VERTEX
  5
D3D
  8
SAPA_FOGBAND
 10
23.764976274315579
 20
148.79917389710249
 30
0.0
 42
0.8769764629927301
  0
VERTEX
  5
D3E
  8
SAPA_FOGBAND
 10
23.40284423995945
 20
148.32723424161119
 30
0.0
  0
VERTEX
  5
D3F
  8
SAPA_FOGBAND
 10
26.22683715885637
 20
144.36100624670641
 30
0.0
 42
-0.198912367379658
  0
VERTEX
  5
D40
  8
SAPA_FOGBAND
 10
26.519730377669699
 20
143.65389946551969
 30
0.0
  0
VERTEX
  5
D41
  8
SAPA_FOGBAND
 10
26.519730377669699
 20
141.42162510329831
 30
0.0
 42
-0.5773502691896441
  0
VERTEX
  5
D42
  8
SAPA_FOGBAND
 10
26.069730377669881
 20
141.1618174821628
 30
0.0
  0
VERTEX
  5
D43
  8
SAPA_FOGBAND
 10
23.76584502749597
 20
143.29944460369211
 30
0.0
 42
0.87697646299276
  0
VERTEX
  5
D44
  8
SAPA_FOGBAND
 10
23.40371299313983
 20
142.82750494820081
 30
0.0
  0
VERTEX
  5
D45
  8
SAPA_FOGBAND
 10
26.30269180617006
 20
138.78629105916269
 30
0.0
 42
0.198912367379658
  0
VERTEX
  5
D46
  8
SAPA_FOGBAND
 10
27.009798587356499
 20
138.49339784034919
 30
0.0
  0
VERTEX
  5
D47
  8
SAPA_FOGBAND
 10
28.839251262205149
 20
138.49339784034919
 30
0.0
  0
VERTEX
  5
D48
  8
SAPA_FOGBAND
 10
28.829319471891949
 20
138.49339784034919
 30
0.0
  0
SEQEND
  5
D49
  8
SAPA_FOGBAND
  0
POLYLINE
  5
689
  8
SAPA_FOGBAND
 66
     1
 10
0.0
 20
0.0
 30
0.0
 70
     1
  0
VERTEX
  5
D4A
  8
SAPA_FOGBAND
 10
14.34757432886158
 20
138.4934045876891
 30
0.0
 42
-0.4142135623730951
  0
VERTEX
  5
D4B
  8
SAPA_FOGBAND
 10
13.34757432886158
 20
139.4934045876891
 30
0.0
  0
VERTEX
  5
D4C
  8
SAPA_FOGBAND
 10
13.34757432886158
 20
140.6934045876892
 30
0.0
 42
0.4142135623730951
  0
VERTEX
  5
D4D
  8
SAPA_FOGBAND
 10
13.04757432886162
 20
140.9934045876891
 30
0.0
  0
VERTEX
  5
D4E
  8
SAPA_FOGBAND
 10
12.14757432886176
 20
140.9934045876891
 30
0.0
  0
VERTEX
  5
D4F
  8
SAPA_FOGBAND
 10
12.14757432886176
 20
140.64340458768899
 30
0.0
 42
-0.6681786379193472
  0
VERTEX
  5
D50
  8
SAPA_FOGBAND
 10
11.63544229450576
 20
140.4312725533332
 30
0.0
  0
VERTEX
  5
D51
  8
SAPA_FOGBAND
 10
10.78188890391243
 20
141.28482594392639
 30
0.0
 42
-0.1989123673796526
  0
VERTEX
  5
D52
  8
SAPA_FOGBAND
 10
10.54757432886162
 20
141.85051136887569
 30
0.0
  0
VERTEX
  5
D53
  8
SAPA_FOGBAND
 10
10.54757432886162
 20
142.01320649129539
 30
0.0
 42
-0.3394542588633746
  0
VERTEX
  5
D54
  8
SAPA_FOGBAND
 10
10.76992861533085
 20
142.30298423918219
 30
0.0
  0
VERTEX
  5
D55
  8
SAPA_FOGBAND
 10
12.125220042392581
 20
142.66613348257209
 30
0.0
 42
0.3394542588633744
  0
VERTEX
  5
D56
  8
SAPA_FOGBAND
 10
12.34757432886158
 20
142.9559112304589
 30
0.0
  0
VERTEX
  5
D57
  8
SAPA_FOGBAND
 10
12.34757432886158
 20
145.53089794491939
 30
0.0
 42
0.3394542588633746
  0
VERTEX
  5
D58
  8
SAPA_FOGBAND
 10
12.125220042392581
 20
145.82067569280611
 30
0.0
  0
VERTEX
  5
D59
  8
SAPA_FOGBAND
 10
10.76992861533085
 20
146.183824936196
 30
0.0
 42
-0.3394542588633747
  0
VERTEX
  5
D5A
  8
SAPA_FOGBAND
 10
10.54757432886162
 20
146.47360268408281
 30
0.0
  0
VERTEX
  5
D5B
  8
SAPA_FOGBAND
 10
10.54757432886162
 20
146.6362978065026
 30
0.0
 42
-0.1989123673796526
  0
VERTEX
  5
D5C
  8
SAPA_FOGBAND
 10
10.78188890391243
 20
147.201983231452
 30
0.0
  0
VERTEX
  5
D5D
  8
SAPA_FOGBAND
 10
11.63544229450576
 20
148.05553662204511
 30
0.0
 42
-0.6681786379193474
  0
VERTEX
  5
D5E
  8
SAPA_FOGBAND
 10
12.14757432886176
 20
147.84340458768929
 30
0.0
  0
VERTEX
  5
D5F
  8
SAPA_FOGBAND
 10
12.14757432886176
 20
147.4934045876891
 30
0.0
  0
VERTEX
  5
D60
  8
SAPA_FOGBAND
 10
13.04757432886162
 20
147.4934045876891
 30
0.0
 42
0.4142135623730951
  0
VERTEX
  5
D61
  8
SAPA_FOGBAND
 10
13.34757432886158
 20
147.79340458768911
 30
0.0
  0
VERTEX
  5
D62
  8
SAPA_FOGBAND
 10
13.34757432886158
 20
149.89340458768919
 30
0.0
 42
0.4142135623730951
  0
VERTEX
  5
D63
  8
SAPA_FOGBAND
 10
13.04757432886163
 20
150.1934045876892
 30
0.0
  0
VERTEX
  5
D64
  8
SAPA_FOGBAND
 10
11.64757432886176
 20
150.1934045876892
 30
0.0
 42
-0.7754026414785753
  0
VERTEX
  5
D65
  8
SAPA_FOGBAND
 10
11.502866460555881
 20
150.75619658309691
 30
0.0
  0
VERTEX
  5
D66
  8
SAPA_FOGBAND
 10
16.773530258996509
 20
154.27589909364221
 30
0.0
 42
-0.8680589103334742
  0
VERTEX
  5
D67
  8
SAPA_FOGBAND
 10
17.13037016165822
 20
153.8009750638787
 30
0.0
  0
VERTEX
  5
D68
  8
SAPA_FOGBAND
 10
15.14046754767514
 20
150.46128531477231
 30
0.0
 42
0.198912367379658
  0
VERTEX
  5
D69
  8
SAPA_FOGBAND
 10
14.84757432886158
 20
149.75417853358559
 30
0.0
  0
VERTEX
  5
D6A
  8
SAPA_FOGBAND
 10
14.84757432886158
 20
146.92085956916591
 30
0.0
 42
0.5773502691896282
  0
VERTEX
  5
D6B
  8
SAPA_FOGBAND
 10
15.29757432886162
 20
146.66105194803069
 30
0.0
  0
VERTEX
  5
D6C
  8
SAPA_FOGBAND
 10
16.76443072505549
 20
148.16883499639701
 30
0.0
 42
-0.8769764629927299
  0
VERTEX
  5
D6D
  8
SAPA_FOGBAND
 10
17.126562759411389
 20
147.69689534090571
 30
0.0
  0
VERTEX
  5
D6E
  8
SAPA_FOGBAND
 10
15.14046754767514
 20
144.3610129940464
 30
0.0
 42
0.198912367379658
  0
VERTEX
  5
D6F
  8
SAPA_FOGBAND
 10
14.84757432886158
 20
143.65390621285971
 30
0.0
  0
VERTEX
  5
D70
  8
SAPA_FOGBAND
 10
14.84757432886158
 20
141.42163185063811
 30
0.0
 42
0.5773502691896282
  0
VERTEX
  5
D71
  8
SAPA_FOGBAND
 10
15.29757432886162
 20
141.1618242295028
 30
0.0
  0
VERTEX
  5
D72
  8
SAPA_FOGBAND
 10
16.763561971875099
 20
142.6691057029866
 30
0.0
 42
-0.8769764629927299
  0
VERTEX
  5
D73
  8
SAPA_FOGBAND
 10
17.125694006231011
 20
142.1971660474953
 30
0.0
  0
VERTEX
  5
D74
  8
SAPA_FOGBAND
 10
15.06461290036145
 20
138.78629780650269
 30
0.0
 42
-0.198912367379658
  0
VERTEX
  5
D75
  8
SAPA_FOGBAND
 10
14.357506119174779
 20
138.4934045876891
 30
0.0
  0
SEQEND
  5
D76
  8
SAPA_FOGBAND
  0
DIMENSION
  5
691
  8
SAPA_MATT
  2
*D41
 10
-11.1499999999998
 20
150.0
 30
0.0
 11
-13.64999999999983
 21
75.0
 31
0.0
 70
     0
 13
8.8499999999999091
 23
0.0
 33
0.0
 14
9.1500000000000341
 24
150.0
 34
0.0
 50
90.0
1001
ACAD
1000
DSTYLE
1002
{
1070
    40
1040
1.0
1002
}
  0
DIMENSION
  5
692
  8
SAPA_MATT
  2
*D40
 10
-11.057865752775109
 20
0.0000000000000056
 30
0.0
 11
-13.557865752775109
 21
-4.9999999999999947
 31
0.0
 70
     0
 13
9.8282121612717201
 23
-10.0
 33
0.0
 14
8.8499999999999091
 24
0.0
 34
0.0
 50
90.0
1001
ACAD
1000
DSTYLE
1002
{
1070
    40
1040
1.0
1002
}
  0
DIMENSION
  5
693
  8
SAPA_MATT
  2
*D39
 10
-11.057865752775109
 20
-9.9999999999999947
 30
0.0
 11
-13.55816102836566
 21
-20.0
 31
0.0
 70
     0
 13
9.3282121612717237
 23
-30.0
 33
0.0
 14
9.8282121612717201
 24
-10.0
 34
0.0
 50
90.0
1001
ACAD
1000
DSTYLE
1002
{
1070
    40
1040
1.0
1002
}
  0
ARC
  5
6EC
  8
SAPA_BESLAG
 10
24.249999999999861
 20
17.201944722176101
 30
0.0
 40
2.0
 50
90.0
 51
180.0
  0
ARC
  5
6ED
  8
SAPA_BESLAG
 10
43.449999999999811
 20
17.201944722176041
 30
0.0
 40
2.0
 50
0.0
 51
90.0
  0
LINE
  5
6EE
  8
SAPA_BESLAG
 10
41.349999999999817
 20
4.2019447221760409
 30
0.0
 11
45.449999999999818
 21
4.2019447221760409
 31
0.0
  0
LINE
  5
6EF
  8
SAPA_BESLAG
 10
26.34999999999982
 20
9.9019447221760331
 30
0.0
 11
26.34999999999982
 21
4.2019447221760453
 31
0.0
  0
LINE
  5
6F0
  8
SAPA_BESLAG
 10
41.349999999999817
 20
9.9019447221760313
 30
0.0
 11
41.349999999999817
 21
4.2019447221760409
 31
0.0
  0
LINE
  5
6F1
  8
SAPA_BESLAG
 10
22.249999999999829
 20
4.2019447221760453
 30
0.0
 11
26.34999999999982
 21
4.2019447221760453
 31
0.0
  0
LINE
  5
6F2
  8
SAPA_BESLAG
 10
24.249999999999861
 20
19.201944722176101
 30
0.0
 11
43.449999999999811
 21
19.201944722176041
 31
0.0
  0
LINE
  5
6F3
  8
SAPA_BESLAG
 10
22.249999999999829
 20
4.2019447221760453
 30
0.0
 11
22.249999999999861
 21
17.201944722176101
 31
0.0
  0
LINE
  5
6F4
  8
SAPA_BESLAG
 10
45.449999999999818
 20
4.2019447221760409
 30
0.0
 11
45.449999999999818
 21
17.201944722176041
 31
0.0
  0
LINE
  5
6F5
  8
SAPA_BESLAG
 10
27.84999999999982
 20
5.4019447221760331
 30
0.0
 11
39.849999999999831
 21
5.4019447221760313
 31
0.0
  0
ARC
  5
6F6
  8
SAPA_BESLAG
 10
33.849999999999817
 20
9.9019447221760331
 30
0.0
 40
7.5
 50
323.1301023541555
 51
216.8698976458445
  0
LINE
  5
6F7
  8
SAPA_BESLAG
 10
39.849999999999831
 20
2.401944722175974
 30
0.0
 11
39.849999999999831
 21
5.4019447221760313
 31
0.0
  0
LINE
  5
6F8
  8
SAPA_BESLAG
 10
27.84999999999982
 20
2.4019447221760331
 30
0.0
 11
27.84999999999982
 21
5.4019447221760331
 31
0.0
  0
LINE
  5
6F9
  8
SAPA_BESLAG
 10
24.849999999999831
 20
2.4019447221760331
 30
0.0
 11
42.849999999999817
 21
2.4019447221759731
 31
0.0
  0
LINE
  5
6FA
  8
SAPA_BESLAG
 10
24.849999999999831
 20
-4.5980552778239661
 30
0.0
 11
24.849999999999831
 21
2.4019447221760331
 31
0.0
  0
LINE
  5
6FB
  8
SAPA_BESLAG
 10
42.849999999999817
 20
-4.5980552778239687
 30
0.0
 11
42.849999999999817
 21
2.4019447221760299
 31
0.0
  0
LINE
  5
6FC
  8
SAPA_BESLAG
 10
33.849999999999817
 20
-4.5980552778239669
 30
0.0
 11
33.849999999999817
 21
2.4019447221760322
 31
0.0
  0
LINE
  5
6FD
  8
SAPA_BESLAG
 10
23.84999999999982
 20
-9.7980552778239538
 30
0.0
 11
23.84999999999982
 21
-4.5980552778239661
 31
0.0
  0
LINE
  5
6FE
  8
SAPA_BESLAG
 10
43.849999999999817
 20
-9.7980552778239591
 30
0.0
 11
23.84999999999982
 21
-9.7980552778239538
 31
0.0
  0
LINE
  5
6FF
  8
SAPA_BESLAG
 10
43.849999999999817
 20
-4.5980552778239687
 30
0.0
 11
43.849999999999817
 21
-9.7980552778239591
 31
0.0
  0
LINE
  5
700
  8
SAPA_BESLAG
 10
23.84999999999982
 20
-4.5980552778239661
 30
0.0
 11
43.849999999999817
 21
-4.5980552778239687
 31
0.0
  0
ENDSEC
  0
EOF
