  0
SECTION
  2
HEADER
  9
$ACADVER
  1
AC1009
  9
$INSBASE
 10
69.764868393921986
 20
297.20846420016039
 30
0.0
  9
$EXTMIN
 10
-49.251450077059197
 20
-0.0000000000065938
 30
0.0
  9
$EXTMAX
 10
67.687961435755767
 20
247.0473434247692
 30
0.0
  9
$LIMMIN
 10
0.0
 20
0.0
  9
$LIMMAX
 10
998.0
 20
710.0
  9
$ORTHOMODE
 70
     0
  9
$REGENMODE
 70
     1
  9
$FILLMODE
 70
     1
  9
$QTEXTMODE
 70
     0
  9
$MIRRTEXT
 70
     1
  9
$DRAGMODE
 70
     2
  9
$LTSCALE
 40
7.0
  9
$OSMODE
 70
   167
  9
$ATTMODE
 70
     1
  9
$TEXTSIZE
 40
6.0
  9
$TRACEWID
 40
0.05
  9
$TEXTSTYLE
  7
ISO
  9
$CLAYER
  8
0
  9
$CELTYPE
  6
BYLAYER
  9
$CECOLOR
 62
   256
  9
$DIMSCALE
 40
0.0
  9
$DIMASZ
 40
3.0
  9
$DIMEXO
 40
1.5
  9
$DIMDLI
 40
10.0
  9
$DIMRND
 40
0.0
  9
$DIMDLE
 40
0.0
  9
$DIMEXE
 40
1.5
  9
$DIMTP
 40
0.0
  9
$DIMTM
 40
0.0
  9
$DIMTXT
 40
3.0
  9
$DIMCEN
 40
-5.0
  9
$DIMTSZ
 40
0.0
  9
$DIMTOL
 70
     0
  9
$DIMLIM
 70
     0
  9
$DIMTIH
 70
     0
  9
$DIMTOH
 70
     1
  9
$DIMSE1
 70
     0
  9
$DIMSE2
 70
     0
  9
$DIMTAD
 70
     1
  9
$DIMZIN
 70
     8
  9
$DIMBLK
  1

  9
$DIMASO
 70
     1
  9
$DIMSHO
 70
     1
  9
$DIMPOST
  1

  9
$DIMAPOST
  1

  9
$DIMALT
 70
     0
  9
$DIMALTD
 70
     0
  9
$DIMALTF
 40
25.399999999999999
  9
$DIMLFAC
 40
-1.0
  9
$DIMTOFL
 70
     1
  9
$DIMTVP
 40
0.0
  9
$DIMTIX
 70
     0
  9
$DIMSOXD
 70
     0
  9
$DIMSAH
 70
     0
  9
$DIMBLK1
  1

  9
$DIMBLK2
  1

  9
$DIMSTYLE
  2
MASKIN
  9
$DIMCLRD
 70
   256
  9
$DIMCLRE
 70
   256
  9
$DIMCLRT
 70
     2
  9
$DIMTFAC
 40
1.0
  9
$DIMGAP
 40
1.0
  9
$LUNITS
 70
     2
  9
$LUPREC
 70
     2
  9
$SKETCHINC
 40
0.1
  9
$FILLETRAD
 40
0.0
  9
$AUNITS
 70
     0
  9
$AUPREC
 70
     2
  9
$MENU
  1
ACAD
  9
$ELEVATION
 40
0.0
  9
$PELEVATION
 40
0.0
  9
$THICKNESS
 40
0.0
  9
$LIMCHECK
 70
     0
  9
$BLIPMODE
 70
     0
  9
$CHAMFERA
 40
0.0
  9
$CHAMFERB
 40
0.0
  9
$SKPOLY
 70
     0
  9
$TDCREATE
 40
2450148.467949653
  9
$TDUPDATE
 40
2456366.383275243
  9
$TDINDWG
 40
0.3737595833
  9
$TDUSRTIMER
 40
0.3737595833
  9
$USRTIMER
 70
     1
  9
$ANGBASE
 50
0.0
  9
$ANGDIR
 70
     0
  9
$PDMODE
 70
     3
  9
$PDSIZE
 40
-5.0
  9
$PLINEWID
 40
0.0
  9
$COORDS
 70
     1
  9
$SPLFRAME
 70
     0
  9
$SPLINETYPE
 70
     6
  9
$SPLINESEGS
 70
     8
  9
$ATTDIA
 70
     0
  9
$ATTREQ
 70
     1
  9
$HANDLING
 70
     1
  9
$HANDSEED
  5
1AD3
  9
$SURFTAB1
 70
     6
  9
$SURFTAB2
 70
     6
  9
$SURFTYPE
 70
     6
  9
$SURFU
 70
     6
  9
$SURFV
 70
     6
  9
$UCSNAME
  2

  9
$UCSORG
 10
0.0
 20
0.0
 30
0.0
  9
$UCSXDIR
 10
1.0
 20
0.0
 30
0.0
  9
$UCSYDIR
 10
0.0
 20
1.0
 30
0.0
  9
$PUCSNAME
  2

  9
$PUCSORG
 10
0.0
 20
0.0
 30
0.0
  9
$PUCSXDIR
 10
1.0
 20
0.0
 30
0.0
  9
$PUCSYDIR
 10
0.0
 20
1.0
 30
0.0
  9
$USERI1
 70
     0
  9
$USERI2
 70
     0
  9
$USERI3
 70
     0
  9
$USERI4
 70
     0
  9
$USERI5
 70
     0
  9
$USERR1
 40
0.0
  9
$USERR2
 40
0.0
  9
$USERR3
 40
0.0
  9
$USERR4
 40
0.0
  9
$USERR5
 40
0.0
  9
$WORLDVIEW
 70
     1
  9
$SHADEDGE
 70
     1
  9
$SHADEDIF
 70
    70
  9
$TILEMODE
 70
     1
  9
$MAXACTVP
 70
    16
  9
$PLIMCHECK
 70
     0
  9
$PEXTMIN
 10
3.7456423012465052
 20
-0.0043171380120839
 30
-0.0015258207003583
  9
$PEXTMAX
 10
188.45270920080051
 20
283.00283307759548
 30
0.0000000349246037
  9
$PLIMMIN
 10
-14.12592836160286
 20
-5.4102505909481797
  9
$PLIMMAX
 10
195.84739927511589
 20
291.55807216295813
  9
$UNITMODE
 70
     0
  9
$VISRETAIN
 70
     1
  9
$PLINEGEN
 70
     0
  9
$PSLTSCALE
 70
     1
  0
ENDSEC
  0
SECTION
  2
TABLES
  0
TABLE
  2
VPORT
 70
     1
  0
VPORT
  2
*ACTIVE
 70
     0
 10
0.0
 20
0.0
 11
1.0
 21
1.0
 12
9.202619879758231
 22
162.86162854303399
 13
0.0
 23
0.0
 14
5.0
 24
5.0
 15
10.0
 25
10.0
 16
0.0
 26
0.0
 36
1.0
 17
0.0
 27
0.0
 37
0.0
 40
203.7450905086111
 41
2.8418491484184911
 42
50.0
 43
0.0
 44
0.0
 50
0.0
 51
0.0
 71
     0
 72
   100
 73
     1
 74
     0
 75
     0
 76
     0
 77
     0
 78
     1
  0
ENDTAB
  0
TABLE
  2
LTYPE
 70
    21
  0
LTYPE
  2
CONTINUOUS
 70
     0
  3
Solid line
 72
    65
 73
     0
 40
0.0
  0
LTYPE
  2
BYGG-014247$0$DASHDOT
 70
     0
  3
__ . __ . __ . __ . __ . __ . __ . __ . __ . __
 72
    65
 73
     4
 40
1.0
 49
0.5
 49
-0.25
 49
0.0
 49
-0.25
  0
LTYPE
  2
BYGG-014565$0$NEWDOT
 70
     0
  3
____ . ____ . ____ . ____ . ____ . ____ . ____
 72
    65
 73
     4
 40
2.0
 49
1.0
 49
-0.5
 49
0.0
 49
-0.5
  0
LTYPE
  2
BYGG-022308$0$NEWDOT
 70
     0
  3
____ . ____ . ____ . ____ . ____ . ____ . ____
 72
    65
 73
     4
 40
2.0
 49
1.0
 49
-0.5
 49
0.0
 49
-0.5
  0
LTYPE
  2
BYGG-022308$0$DASHDOT
 70
     0
  3
__ . __ . __ . __ . __ . __ . __ . __ . __ . __
 72
    65
 73
     4
 40
1.0
 49
0.5
 49
-0.25
 49
0.0
 49
-0.25
  0
LTYPE
  2
BYGG-022308$0$DASHED
 70
     0
  3
__ __ __ __ __ __ __ __ __ __ __ __ __ __ __
 72
    65
 73
     2
 40
0.75
 49
0.5
 49
-0.25
  0
LTYPE
  2
BYGG-022308$0$PHANTOM
 70
     0
  3
Phantom ______  __  __  ______  __  __  ______
 72
    65
 73
     6
 40
63.5
 49
31.75
 49
-6.3499999999999988
 49
6.3499999999999988
 49
-6.3499999999999988
 49
6.3499999999999988
 49
-6.3499999999999988
  0
LTYPE
  2
BYGG-014533$0$NEWDOT
 70
     0
  3
____ . ____ . ____ . ____ . ____ . ____ . ____
 72
    65
 73
     4
 40
2.0
 49
1.0
 49
-0.5
 49
0.0
 49
-0.5
  0
LTYPE
  2
BYGG-021997$0$NEWDOT
 70
     0
  3
____ . ____ . ____ . ____ . ____ . ____ . ____
 72
    65
 73
     4
 40
2.0
 49
1.0
 49
-0.5
 49
0.0
 49
-0.5
  0
LTYPE
  2
BYGG-021997$0$DASHDOT
 70
     0
  3
__ . __ . __ . __ . __ . __ . __ . __ . __ . __
 72
    65
 73
     4
 40
1.0
 49
0.5
 49
-0.25
 49
0.0
 49
-0.25
  0
LTYPE
  2
BYGG-021997$0$DASHED
 70
     0
  3
__ __ __ __ __ __ __ __ __ __ __ __ __ __ __
 72
    65
 73
     2
 40
0.75
 49
0.5
 49
-0.25
  0
LTYPE
  2
BYGG-021997$0$PHANTOM
 70
     0
  3
Phantom ______  __  __  ______  __  __  ______
 72
    65
 73
     6
 40
63.5
 49
31.75
 49
-6.3499999999999988
 49
6.3499999999999988
 49
-6.3499999999999988
 49
6.3499999999999988
 49
-6.3499999999999988
  0
LTYPE
  2
BYGG-014565$0$ZIGZAG
 70
     0
  3
Zig zag /\/\/\/\/\/\/\/\/\/\/\/\/\/\/\/\/\/\/\/\/\/\/\/
 72
    65
 73
     4
 40
20.32254
 49
0.00254
 49
-5.0800000000000001
 49
-10.16
 49
-5.0800000000000001
  0
LTYPE
  2
BYGG-014533$0$ZIGZAG
 70
     0
  3
Zig zag /\/\/\/\/\/\/\/\/\/\/\/\/\/\/\/\/\/\/\/\/\/\/\/
 72
    65
 73
     4
 40
20.32254
 49
0.00254
 49
-5.0800000000000001
 49
-10.16
 49
-5.0800000000000001
  0
LTYPE
  2
BYGG-014203$0$ZIGZAG
 70
     0
  3
Zig zag /\/\/\/\/\/\/\/\/\/\/\/\/\/\/\/\/\/\/\/\/\/\/\/
 72
    65
 73
     4
 40
20.32254
 49
0.00254
 49
-5.0800000000000001
 49
-10.16
 49
-5.0800000000000001
  0
LTYPE
  2
BYGG-014203$0$NEWDOT
 70
     0
  3
____ . ____ . ____ . ____ . ____ . ____ . ____
 72
    65
 73
     4
 40
2.0
 49
1.0
 49
-0.5
 49
0.0
 49
-0.5
  0
LTYPE
  2
PHANTOM2
 70
     0
  3
Phantom (.5x) ___ _ _ ___ _ _ ___ _ _ ___ _ _
 72
    65
 73
     6
 40
1.25
 49
0.625
 49
-0.125
 49
0.125
 49
-0.125
 49
0.125
 49
-0.125
  0
LTYPE
  2
BYGG-028766$0$NEWDOT
 70
     0
  3
____ . ____ . ____ . ____ . ____ . ____ . ____
 72
    65
 73
     4
 40
2.0
 49
1.0
 49
-0.5
 49
0.0
 49
-0.5
  0
LTYPE
  2
BYGG-028766$0$DASHDOT
 70
     0
  3
__ . __ . __ . __ . __ . __ . __ . __ . __ . __
 72
    65
 73
     4
 40
1.0
 49
0.5
 49
-0.25
 49
0.0
 49
-0.25
  0
LTYPE
  2
BYGG-028766$0$DASHED
 70
     0
  3
__ __ __ __ __ __ __ __ __ __ __ __ __ __ __
 72
    65
 73
     2
 40
0.75
 49
0.5
 49
-0.25
  0
LTYPE
  2
BYGG-028766$0$PHANTOM
 70
     0
  3
Phantom ______  __  __  ______  __  __  ______
 72
    65
 73
     6
 40
63.5
 49
31.75
 49
-6.3499999999999988
 49
6.3499999999999988
 49
-6.3499999999999988
 49
6.3499999999999988
 49
-6.3499999999999988
  0
ENDTAB
  0
TABLE
  2
LAYER
 70
   123
  0
LAYER
  2
0
 70
     0
 62
     7
  6
CONTINUOUS
  0
LAYER
  2
DEFPOINTS
 70
     0
 62
     7
  6
CONTINUOUS
  0
LAYER
  2
SAPA_PROFIL
 70
     0
 62
     7
  6
CONTINUOUS
  0
LAYER
  2
SAPA_ARTIKELNR
 70
     0
 62
     4
  6
CONTINUOUS
  0
LAYER
  2
SAPA_MATT
 70
     0
 62
     1
  6
CONTINUOUS
  0
LAYER
  2
SAPA_ANSLUTNING
 70
     0
 62
     6
  6
CONTINUOUS
  0
LAYER
  2
SAPA_LIGHT
 70
     1
 62
     1
  6
CONTINUOUS
  0
LAYER
  2
SAPA_GLAS
 70
     0
 62
     4
  6
CONTINUOUS
  0
LAYER
  2
SAPA_FOGBAND
 70
     0
 62
     2
  6
CONTINUOUS
  0
ENDTAB
  0
TABLE
  2
STYLE
 70
    20
  0
STYLE
  2
STANDARD
 70
     0
 40
0.0
 41
1.0
 50
0.0
 71
     0
 42
0.2
  3
txt
  4

  0
STYLE
  2
ISO
 70
     0
 40
0.0
 41
1.0
 50
0.0
 71
     0
 42
6.0
  3
isocp3.shx
  4

  0
STYLE
  2

 70
     1
 40
0.0
 41
1.0
 50
0.0
 71
     0
 42
0.2
  3
ltypeshp.shx
  4

  0
STYLE
  2
BYGG-021741$0$STANDARD
 70
     0
 40
0.0
 41
1.0
 50
0.0
 71
     0
 42
0.2
  3
txt
  4

  0
STYLE
  2
BYGG-014247$0$STANDARD
 70
     0
 40
0.0
 41
1.0
 50
0.0
 71
     0
 42
0.2
  3
txt
  4

  0
STYLE
  2
BYGG-014247$0$ISO
 70
     0
 40
0.0
 41
1.0
 50
0.0
 71
     0
 42
3.5
  3
isocp3.shx
  4

  0
STYLE
  2
BYGG-028766$0$STANDARD
 70
     0
 40
0.0
 41
1.0
 50
0.0
 71
     0
 42
0.2
  3
txt
  4

  0
STYLE
  2
BYGG-028766$0$ISO
 70
     0
 40
0.0
 41
1.0
 50
0.0
 71
     0
 42
3.5
  3
txt
  4

  0
STYLE
  2
BYGG-022466$0$STANDARD
 70
     0
 40
0.0
 41
1.0
 50
0.0
 71
     0
 42
0.2
  3
txt
  4

  0
STYLE
  2
BYGG-022466$0$ISO
 70
     0
 40
0.0
 41
1.0
 50
0.0
 71
     0
 42
3.5
  3
txt
  4

  0
STYLE
  2
BYGG-014565$0$STANDARD
 70
     0
 40
0.0
 41
1.0
 50
0.0
 71
     0
 42
0.2
  3
isocp3.shx
  4

  0
STYLE
  2
BYGG-014565$0$ISO
 70
     0
 40
0.0
 41
1.0
 50
0.0
 71
     0
 42
3.5
  3
isocp3.shx
  4

  0
STYLE
  2
BYGG-022308$0$STANDARD
 70
     0
 40
0.0
 41
1.0
 50
0.0
 71
     0
 42
0.2
  3
txt
  4

  0
STYLE
  2
BYGG-022308$0$ISO
 70
     0
 40
0.0
 41
1.0
 50
0.0
 71
     0
 42
3.5
  3
txt
  4

  0
STYLE
  2
BYGG-014533$0$STANDARD
 70
     0
 40
0.0
 41
1.0
 50
0.0
 71
     0
 42
0.2
  3
txt
  4

  0
STYLE
  2
BYGG-014533$0$ISO
 70
     0
 40
0.0
 41
1.0
 50
0.0
 71
     0
 42
2.5
  3
isocp3.shx
  4

  0
STYLE
  2
BYGG-021997$0$STANDARD
 70
     0
 40
0.0
 41
1.0
 50
0.0
 71
     0
 42
0.2
  3
txt
  4

  0
STYLE
  2
BYGG-021997$0$ISO
 70
     0
 40
0.0
 41
1.0
 50
0.0
 71
     0
 42
3.5
  3
txt
  4

  0
STYLE
  2
BYGG-014203$0$STANDARD
 70
     0
 40
0.0
 41
1.0
 50
0.0
 71
     0
 42
0.2
  3
txt
  4

  0
STYLE
  2
BYGG-014203$0$ISO
 70
     0
 40
0.0
 41
1.0
 50
0.0
 71
     0
 42
3.5
  3
isocp3.shx
  4

  0
ENDTAB
  0
TABLE
  2
VIEW
 70
     0
  0
ENDTAB
  0
TABLE
  2
UCS
 70
     0
  0
ENDTAB
  0
TABLE
  2
APPID
 70
    18
  0
APPID
  2
ACAD
 70
     0
  0
APPID
  2
ACAD_DSTYLE_DIMTEXT_FILL
 70
     0
  0
APPID
  2
ACAECLAYERSTANDARD
 70
     0
  0
APPID
  2
ACAD_MLEADERVER
 70
     0
  0
APPID
  2
AMG_ARCHIVE11
 70
     0
  0
APPID
  2
ACAD_DSTYLE_DIMEXT_LENGTH
 70
     0
  0
APPID
  2
ACAD_DSTYLE_DIMEXT_ENABLED
 70
     0
  0
APPID
  2
ACAD_DSTYLE_DIM_LINETYPE
 70
     0
  0
APPID
  2
ACAD_DSTYLE_DIM_EXT1_LINETYPE
 70
     0
  0
APPID
  2
ACAD_DSTYLE_DIM_EXT2_LINETYPE
 70
     0
  0
APPID
  2
ACAD_PSEXT
 70
     0
  0
APPID
  2
ACAD_DSTYLE_DIMJOGGED_JOGA
 70
     0
  0
APPID
  2
ACAD_DSTYLE_DIMARC_LENGTH_
 70
     0
  0
APPID
  2
ACAD_EXEMPT_FROM_CAD_STANDARDS
 70
     0
  0
APPID
  2
ACADANNOTATIVE
 70
     0
  0
APPID
  2
ACAD_NAV_VCDISPLAY
 70
     0
  0
APPID
  2
AEC_XDATA_BOUND_SPACE
 70
     0
  0
APPID
  2
ACCMTRANSPARENCY
 70
     0
  0
ENDTAB
  0
TABLE
  2
DIMSTYLE
 70
    17
  0
DIMSTYLE
  2
MASKIN
 70
     0
  3

  4

  5

  6

  7

 40
0.0
 41
3.0
 42
1.5
 43
10.0
 44
1.5
 45
0.0
 46
0.0
 47
0.0
 48
0.0
140
3.0
141
-5.0
142
0.0
143
25.399999999999999
144
-1.0
145
0.0
146
1.0
147
1.0
 71
     0
 72
     0
 73
     0
 74
     1
 75
     0
 76
     0
 77
     1
 78
     8
170
     0
171
     0
172
     1
173
     0
174
     0
175
     0
176
   256
177
   256
178
     2
  0
DIMSTYLE
  2
BYGG-021741$0$STANDARD
 70
     0
  3

  4

  5

  6

  7

 40
1.0
 41
0.18
 42
0.0625
 43
0.38
 44
0.18
 45
0.0
 46
0.0
 47
0.0
 48
0.0
140
0.18
141
0.09
142
0.0
143
25.399999999999999
144
1.0
145
0.0
146
1.0
147
0.09
 71
     0
 72
     0
 73
     1
 74
     1
 75
     0
 76
     0
 77
     0
 78
     0
170
     0
171
     2
172
     0
173
     0
174
     0
175
     0
176
     0
177
     0
178
     0
  0
DIMSTYLE
  2
BYGG-014247$0$MASKIN
 70
     0
  3

  4

  5

  6

  7

 40
0.0
 41
3.0
 42
1.5
 43
10.0
 44
1.5
 45
0.0
 46
0.0
 47
0.0
 48
0.0
140
3.0
141
-5.0
142
0.0
143
25.399999999999999
144
-1.0
145
0.0
146
1.0
147
1.0
 71
     0
 72
     0
 73
     0
 74
     0
 75
     0
 76
     0
 77
     1
 78
     8
170
     0
171
     0
172
     1
173
     0
174
     0
175
     0
176
   256
177
   256
178
   256
  0
DIMSTYLE
  2
BYGG-028766$0$STANDARD
 70
     0
  3

  4

  5

  6

  7

 40
1.0
 41
0.18
 42
0.0625
 43
0.38
 44
0.18
 45
0.0
 46
0.0
 47
0.0
 48
0.0
140
0.18
141
0.09
142
0.0
143
25.399999999999999
144
1.0
145
0.0
146
1.0
147
0.09
 71
     0
 72
     0
 73
     1
 74
     1
 75
     0
 76
     0
 77
     0
 78
     0
170
     0
171
     2
172
     0
173
     0
174
     0
175
     0
176
     0
177
     0
178
     0
  0
DIMSTYLE
  2
BYGG-028766$0$MASKIN
 70
     0
  3

  4

  5

  6

  7

 40
0.0
 41
3.0
 42
1.5
 43
10.0
 44
1.5
 45
0.0
 46
0.0
 47
0.0
 48
0.0
140
3.0
141
-5.0
142
0.0
143
25.399999999999999
144
-1.0
145
0.0
146
1.0
147
1.0
 71
     0
 72
     0
 73
     0
 74
     0
 75
     0
 76
     0
 77
     1
 78
     8
170
     0
171
     0
172
     1
173
     0
174
     0
175
     0
176
   256
177
   256
178
     2
  0
DIMSTYLE
  2
BYGG-022466$0$MASKIN
 70
     0
  3

  4

  5

  6

  7

 40
0.0
 41
3.0
 42
1.5
 43
10.0
 44
1.5
 45
0.0
 46
0.0
 47
0.0
 48
0.0
140
3.0
141
-5.0
142
0.0
143
25.399999999999999
144
-1.0
145
0.0
146
1.0
147
1.0
 71
     0
 72
     0
 73
     0
 74
     0
 75
     0
 76
     0
 77
     1
 78
     8
170
     0
171
     0
172
     1
173
     0
174
     0
175
     0
176
   256
177
   256
178
     2
  0
DIMSTYLE
  2
BYGG-022466$0$STANDARD
 70
     0
  3

  4

  5

  6

  7

 40
1.0
 41
0.18
 42
0.0625
 43
0.38
 44
0.18
 45
0.0
 46
0.0
 47
0.0
 48
0.0
140
0.18
141
0.09
142
0.0
143
25.399999999999999
144
1.0
145
0.0
146
1.0
147
0.09
 71
     0
 72
     0
 73
     1
 74
     1
 75
     0
 76
     0
 77
     0
 78
     0
170
     0
171
     2
172
     0
173
     0
174
     0
175
     0
176
     0
177
     0
178
     0
  0
DIMSTYLE
  2
BYGG-014565$0$STANDARD
 70
     0
  3

  4

  5

  6

  7

 40
1.0
 41
0.18
 42
0.0625
 43
0.38
 44
0.18
 45
0.0
 46
0.0
 47
0.0
 48
0.0
140
0.18
141
0.09
142
0.0
143
25.399999999999999
144
1.0
145
0.0
146
1.0
147
0.09
 71
     0
 72
     0
 73
     1
 74
     1
 75
     0
 76
     0
 77
     0
 78
     0
170
     0
171
     2
172
     0
173
     0
174
     0
175
     0
176
     0
177
     0
178
     0
  0
DIMSTYLE
  2
BYGG-014565$0$MASKIN
 70
     0
  3

  4

  5

  6

  7

 40
0.0
 41
3.0
 42
1.5
 43
10.0
 44
1.5
 45
0.0
 46
0.0
 47
0.0
 48
0.0
140
3.0
141
-5.0
142
0.0
143
25.399999999999999
144
-1.0
145
0.0
146
1.0
147
1.0
 71
     0
 72
     0
 73
     0
 74
     0
 75
     0
 76
     0
 77
     1
 78
     8
170
     0
171
     0
172
     1
173
     0
174
     0
175
     0
176
   256
177
   256
178
     2
  0
DIMSTYLE
  2
BYGG-022308$0$STANDARD
 70
     0
  3

  4

  5

  6

  7

 40
1.0
 41
0.18
 42
0.0625
 43
0.38
 44
0.18
 45
0.0
 46
0.0
 47
0.0
 48
0.0
140
0.18
141
0.09
142
0.0
143
25.399999999999999
144
1.0
145
0.0
146
1.0
147
0.09
 71
     0
 72
     0
 73
     1
 74
     1
 75
     0
 76
     0
 77
     0
 78
     0
170
     0
171
     2
172
     0
173
     0
174
     0
175
     0
176
     0
177
     0
178
     0
  0
DIMSTYLE
  2
BYGG-022308$0$MASKIN
 70
     0
  3

  4

  5

  6

  7

 40
0.0
 41
3.0
 42
1.5
 43
10.0
 44
1.5
 45
0.0
 46
0.0
 47
0.0
 48
0.0
140
3.0
141
-5.0
142
0.0
143
25.399999999999999
144
-1.0
145
0.0
146
1.0
147
1.0
 71
     0
 72
     0
 73
     0
 74
     0
 75
     0
 76
     0
 77
     1
 78
     8
170
     0
171
     0
172
     1
173
     0
174
     0
175
     0
176
   256
177
   256
178
     2
  0
DIMSTYLE
  2
BYGG-014533$0$STANDARD
 70
     0
  3

  4

  5

  6

  7

 40
1.0
 41
0.18
 42
0.0625
 43
0.38
 44
0.18
 45
0.0
 46
0.0
 47
0.0
 48
0.0
140
0.18
141
0.09
142
0.0
143
25.399999999999999
144
1.0
145
0.0
146
1.0
147
0.09
 71
     0
 72
     0
 73
     1
 74
     1
 75
     0
 76
     0
 77
     0
 78
     0
170
     0
171
     2
172
     0
173
     0
174
     0
175
     0
176
     0
177
     0
178
     0
  0
DIMSTYLE
  2
BYGG-014533$0$MASKIN
 70
     0
  3

  4

  5

  6

  7

 40
0.0
 41
3.0
 42
1.5
 43
10.0
 44
1.5
 45
0.0
 46
0.0
 47
0.0
 48
0.0
140
3.0
141
-5.0
142
0.0
143
25.399999999999999
144
-1.0
145
0.0
146
1.0
147
1.0
 71
     0
 72
     0
 73
     0
 74
     1
 75
     0
 76
     0
 77
     1
 78
     8
170
     0
171
     0
172
     1
173
     0
174
     0
175
     0
176
   256
177
   256
178
     2
  0
DIMSTYLE
  2
BYGG-021997$0$STANDARD
 70
     0
  3

  4

  5

  6

  7

 40
1.0
 41
0.18
 42
0.0625
 43
0.38
 44
0.18
 45
0.0
 46
0.0
 47
0.0
 48
0.0
140
0.18
141
0.09
142
0.0
143
25.399999999999999
144
1.0
145
0.0
146
1.0
147
0.09
 71
     0
 72
     0
 73
     1
 74
     1
 75
     0
 76
     0
 77
     0
 78
     0
170
     0
171
     2
172
     0
173
     0
174
     0
175
     0
176
     0
177
     0
178
     0
  0
DIMSTYLE
  2
BYGG-021997$0$MASKIN
 70
     0
  3

  4

  5

  6

  7

 40
0.0
 41
3.0
 42
1.5
 43
10.0
 44
1.5
 45
0.0
 46
0.0
 47
0.0
 48
0.0
140
3.0
141
-5.0
142
0.0
143
25.399999999999999
144
-1.0
145
0.0
146
1.0
147
1.0
 71
     0
 72
     0
 73
     0
 74
     0
 75
     0
 76
     0
 77
     1
 78
     8
170
     0
171
     0
172
     1
173
     0
174
     0
175
     0
176
   256
177
   256
178
     2
  0
DIMSTYLE
  2
BYGG-014203$0$STANDARD
 70
     0
  3

  4

  5

  6

  7

 40
1.0
 41
0.18
 42
0.0625
 43
0.38
 44
0.18
 45
0.0
 46
0.0
 47
0.0
 48
0.0
140
0.18
141
0.09
142
0.0
143
25.399999999999999
144
1.0
145
0.0
146
1.0
147
0.09
 71
     0
 72
     0
 73
     1
 74
     1
 75
     0
 76
     0
 77
     0
 78
     0
170
     0
171
     2
172
     0
173
     0
174
     0
175
     0
176
     0
177
     0
178
     0
  0
DIMSTYLE
  2
BYGG-014203$0$MASKIN
 70
     0
  3

  4

  5

  6

  7

 40
0.0
 41
3.0
 42
1.5
 43
10.0
 44
1.5
 45
0.0
 46
0.0
 47
0.0
 48
0.0
140
3.0
141
-5.0
142
0.0
143
25.399999999999999
144
-1.0
145
0.0
146
1.0
147
1.0
 71
     0
 72
     0
 73
     0
 74
     0
 75
     0
 76
     0
 77
     1
 78
     8
170
     0
171
     0
172
     1
173
     0
174
     0
175
     0
176
   256
177
   256
178
   256
  0
ENDTAB
  0
ENDSEC
  0
SECTION
  2
BLOCKS
  0
BLOCK
  8
0
  2
$MODEL_SPACE
 70
     0
 10
0.0
 20
0.0
 30
0.0
  3
$MODEL_SPACE
  1

  0
ENDBLK
  5
9
  8
0
  0
BLOCK
 67
     1
  8
0
  2
$PAPER_SPACE
 70
     0
 10
0.0
 20
0.0
 30
0.0
  3
$PAPER_SPACE
  1

  0
ENDBLK
  5
E
 67
     1
  8
0
  0
BLOCK
  8
0
  2
*D63
 70
     1
 10
0.0
 20
0.0
 30
0.0
  3
*D63
  1

  0
LINE
  5
1438
  8
SAPA_MATT
 10
-13.4000000000001
 20
222.69616232240691
 30
0.0
 11
-13.4000000000001
 21
244.69616232240691
 31
0.0
  0
LINE
  5
1439
  8
SAPA_MATT
 10
46.599999999999888
 20
222.69616232240691
 30
0.0
 11
46.599999999999888
 21
244.69616232240691
 31
0.0
  0
LINE
  5
143A
  8
SAPA_MATT
 10
-10.4000000000001
 20
243.19616232240691
 30
0.0
 11
43.599999999999888
 21
243.19616232240691
 31
0.0
  0
SOLID
  5
143B
  8
SAPA_MATT
 10
-10.4000000000001
 20
243.69616232240691
 30
0.0
 11
-10.4000000000001
 21
242.69616232240691
 31
0.0
 12
-13.4000000000001
 22
243.19616232240691
 32
0.0
 13
-13.4000000000001
 23
243.19616232240691
 33
0.0
  0
SOLID
  5
143C
  8
SAPA_MATT
 10
43.599999999999888
 20
243.69616232240691
 30
0.0
 11
43.599999999999888
 21
242.69616232240691
 31
0.0
 12
46.599999999999888
 22
243.19616232240691
 32
0.0
 13
46.599999999999888
 23
243.19616232240691
 33
0.0
  0
INSERT
  5
143D
  8
0
  2
*U79
 10
0.0
 20
0.0
 30
0.0
  0
POINT
  5
143E
  8
DEFPOINTS
 62
     0
 10
-13.4000000000001
 20
221.19616232240691
 30
0.0
  0
POINT
  5
143F
  8
DEFPOINTS
 62
     0
 10
46.599999999999888
 20
221.19616232240691
 30
0.0
  0
POINT
  5
1440
  8
DEFPOINTS
 62
     0
 10
46.599999999999888
 20
243.19616232240691
 30
0.0
  0
ENDBLK
  5
13CE
  8
0
  0
BLOCK
  8
0
  2
*D64
 70
     1
 10
0.0
 20
0.0
 30
0.0
  3
*D64
  1

  0
LINE
  5
142F
  8
SAPA_MATT
 10
-9.3999999999999631
 20
16.199999999999878
 30
0.0
 11
-34.900000000000126
 21
16.199999999999878
 31
0.0
  0
LINE
  5
1430
  8
SAPA_MATT
 10
-10.485786437626629
 20
136.2000000000001
 30
0.0
 11
-34.900000000000112
 21
136.2000000000001
 31
0.0
  0
LINE
  5
1431
  8
SAPA_MATT
 10
-33.400000000000141
 20
19.199999999999878
 30
0.0
 11
-33.400000000000112
 21
133.2000000000001
 31
0.0
  0
SOLID
  5
1432
  8
SAPA_MATT
 10
-33.900000000000126
 20
19.199999999999878
 30
0.0
 11
-32.900000000000126
 21
19.199999999999878
 31
0.0
 12
-33.400000000000141
 22
16.199999999999878
 32
0.0
 13
-33.400000000000141
 23
16.199999999999878
 33
0.0
  0
SOLID
  5
1433
  8
SAPA_MATT
 10
-33.900000000000112
 20
133.2000000000001
 30
0.0
 11
-32.900000000000119
 21
133.2000000000001
 31
0.0
 12
-33.400000000000112
 22
136.2000000000001
 32
0.0
 13
-33.400000000000112
 23
136.2000000000001
 33
0.0
  0
INSERT
  5
1434
  8
0
  2
*U78
 10
0.0
 20
0.0
 30
0.0
  0
POINT
  5
1435
  8
DEFPOINTS
 62
     0
 10
-7.8999999999999631
 20
16.199999999999871
 30
0.0
  0
POINT
  5
1436
  8
DEFPOINTS
 62
     0
 10
-8.9857864376266292
 20
136.2000000000001
 30
0.0
  0
POINT
  5
1437
  8
DEFPOINTS
 62
     0
 10
-33.400000000000112
 20
136.2000000000001
 30
0.0
  0
ENDBLK
  5
13DA
  8
0
  0
BLOCK
  8
0
  2
*D65
 70
     1
 10
0.0
 20
0.0
 30
0.0
  3
*D65
  1

  0
LINE
  5
1426
  8
SAPA_MATT
 10
-10.485786437626629
 20
136.2000000000001
 30
0.0
 11
-34.900000000000112
 21
136.2000000000001
 31
0.0
  0
LINE
  5
1427
  8
SAPA_MATT
 10
-9.8999999999999631
 20
166.2000000000003
 30
0.0
 11
-34.900000000000112
 21
166.2000000000003
 31
0.0
  0
LINE
  5
1428
  8
SAPA_MATT
 10
-33.400000000000112
 20
139.2000000000001
 30
0.0
 11
-33.400000000000098
 21
163.2000000000003
 31
0.0
  0
SOLID
  5
1429
  8
SAPA_MATT
 10
-33.900000000000112
 20
139.2000000000001
 30
0.0
 11
-32.900000000000119
 21
139.2000000000001
 31
0.0
 12
-33.400000000000112
 22
136.2000000000001
 32
0.0
 13
-33.400000000000112
 23
136.2000000000001
 33
0.0
  0
SOLID
  5
142A
  8
SAPA_MATT
 10
-33.900000000000112
 20
163.2000000000003
 30
0.0
 11
-32.900000000000112
 21
163.2000000000003
 31
0.0
 12
-33.400000000000098
 22
166.2000000000003
 32
0.0
 13
-33.400000000000098
 23
166.2000000000003
 33
0.0
  0
INSERT
  5
142B
  8
0
  2
*U77
 10
0.0
 20
0.0
 30
0.0
  0
POINT
  5
142C
  8
DEFPOINTS
 62
     0
 10
-8.9857864376266292
 20
136.2000000000001
 30
0.0
  0
POINT
  5
142D
  8
DEFPOINTS
 62
     0
 10
-8.3999999999999631
 20
166.2000000000003
 30
0.0
  0
POINT
  5
142E
  8
DEFPOINTS
 62
     0
 10
-33.400000000000098
 20
166.2000000000003
 30
0.0
  0
ENDBLK
  5
13E6
  8
0
  0
BLOCK
  8
0
  2
*D66
 70
     1
 10
0.0
 20
0.0
 30
0.0
  3
*D66
  1

  0
LINE
  5
141D
  8
SAPA_MATT
 10
-9.8999999999999631
 20
166.2000000000003
 30
0.0
 11
-34.900000000000119
 21
166.2000000000003
 31
0.0
  0
LINE
  5
141E
  8
SAPA_MATT
 10
-8.3999999999999062
 20
211.2000000000003
 30
0.0
 11
-34.900000000000112
 21
211.2000000000003
 31
0.0
  0
LINE
  5
141F
  8
SAPA_MATT
 10
-33.400000000000119
 20
169.2000000000003
 30
0.0
 11
-33.400000000000098
 21
208.2000000000003
 31
0.0
  0
SOLID
  5
1420
  8
SAPA_MATT
 10
-33.900000000000119
 20
169.2000000000003
 30
0.0
 11
-32.900000000000119
 21
169.2000000000003
 31
0.0
 12
-33.400000000000119
 22
166.2000000000003
 32
0.0
 13
-33.400000000000119
 23
166.2000000000003
 33
0.0
  0
SOLID
  5
1421
  8
SAPA_MATT
 10
-33.900000000000112
 20
208.2000000000003
 30
0.0
 11
-32.900000000000112
 21
208.2000000000003
 31
0.0
 12
-33.400000000000098
 22
211.2000000000003
 32
0.0
 13
-33.400000000000098
 23
211.2000000000003
 33
0.0
  0
INSERT
  5
1422
  8
0
  2
*U76
 10
0.0
 20
0.0
 30
0.0
  0
POINT
  5
1423
  8
DEFPOINTS
 62
     0
 10
-8.3999999999999631
 20
166.2000000000003
 30
0.0
  0
POINT
  5
1424
  8
DEFPOINTS
 62
     0
 10
-6.8999999999999062
 20
211.2000000000003
 30
0.0
  0
POINT
  5
1425
  8
DEFPOINTS
 62
     0
 10
-33.400000000000098
 20
211.2000000000003
 30
0.0
  0
ENDBLK
  5
13F2
  8
0
  0
BLOCK
  8
0
  2
*D67
 70
     1
 10
0.0
 20
0.0
 30
0.0
  3
*D67
  1

  0
LINE
  5
1441
  8
SAPA_MATT
 10
-9.8999999999999915
 20
211.2000000000001
 30
0.0
 11
-46.90000000000007
 21
211.2000000000001
 31
0.0
  0
LINE
  5
1442
  8
SAPA_MATT
 10
-9.3999999999999773
 20
16.199999999999889
 30
0.0
 11
-46.900000000000112
 21
16.1999999999999
 31
0.0
  0
LINE
  5
1443
  8
SAPA_MATT
 10
-45.400000000000077
 20
208.2000000000001
 30
0.0
 11
-45.400000000000119
 21
19.1999999999999
 31
0.0
  0
SOLID
  5
1444
  8
SAPA_MATT
 10
-45.90000000000007
 20
208.2000000000001
 30
0.0
 11
-44.900000000000077
 21
208.2000000000001
 31
0.0
 12
-45.400000000000077
 22
211.2000000000001
 32
0.0
 13
-45.400000000000077
 23
211.2000000000001
 33
0.0
  0
SOLID
  5
1445
  8
SAPA_MATT
 10
-45.900000000000119
 20
19.1999999999999
 30
0.0
 11
-44.900000000000112
 21
19.1999999999999
 31
0.0
 12
-45.400000000000119
 22
16.1999999999999
 32
0.0
 13
-45.400000000000119
 23
16.1999999999999
 33
0.0
  0
INSERT
  5
1446
  8
0
  2
*U80
 10
0.0
 20
0.0
 30
0.0
  0
POINT
  5
1447
  8
DEFPOINTS
 62
     0
 10
-8.3999999999999915
 20
211.2000000000001
 30
0.0
  0
POINT
  5
1448
  8
DEFPOINTS
 62
     0
 10
-7.8999999999999773
 20
16.199999999999889
 30
0.0
  0
POINT
  5
1449
  8
DEFPOINTS
 62
     0
 10
-45.400000000000119
 20
16.1999999999999
 30
0.0
  0
ENDBLK
  5
13FE
  8
0
  0
BLOCK
  8
0
  2
*D68
 70
     1
 10
0.0
 20
0.0
 30
0.0
  3
*D68
  1

  0
LINE
  5
1414
  8
SAPA_MATT
 10
-8.3999999999999915
 20
212.7000000000003
 30
0.0
 11
-8.3999999999999897
 21
232.69616232240691
 31
0.0
  0
LINE
  5
1415
  8
SAPA_MATT
 10
41.60000000000003
 20
212.70000000000019
 30
0.0
 11
41.60000000000003
 21
232.69616232240691
 31
0.0
  0
LINE
  5
1416
  8
SAPA_MATT
 10
-5.3999999999999888
 20
231.19616232240691
 30
0.0
 11
38.600000000000037
 21
231.19616232240691
 31
0.0
  0
SOLID
  5
1417
  8
SAPA_MATT
 10
-5.3999999999999888
 20
231.69616232240691
 30
0.0
 11
-5.3999999999999888
 21
230.69616232240691
 31
0.0
 12
-8.3999999999999897
 22
231.19616232240691
 32
0.0
 13
-8.3999999999999897
 23
231.19616232240691
 33
0.0
  0
SOLID
  5
1418
  8
SAPA_MATT
 10
38.600000000000037
 20
231.69616232240691
 30
0.0
 11
38.600000000000037
 21
230.69616232240691
 31
0.0
 12
41.60000000000003
 22
231.19616232240691
 32
0.0
 13
41.60000000000003
 23
231.19616232240691
 33
0.0
  0
INSERT
  5
1419
  8
0
  2
*U75
 10
0.0
 20
0.0
 30
0.0
  0
POINT
  5
141A
  8
DEFPOINTS
 62
     0
 10
-8.3999999999999915
 20
211.2000000000003
 30
0.0
  0
POINT
  5
141B
  8
DEFPOINTS
 62
     0
 10
41.60000000000003
 20
211.20000000000019
 30
0.0
  0
POINT
  5
141C
  8
DEFPOINTS
 62
     0
 10
41.60000000000003
 20
231.19616232240691
 30
0.0
  0
ENDBLK
  5
140A
  8
0
  0
BLOCK
  8
0
  2
*X69
 70
     1
 10
0.0
 20
0.0
 30
0.0
  3
*X69
  1

  0
LINE
  5
148B
  8
0
 62
     0
 10
37.397631571448528
 20
211.11604812615269
 30
0.0
 11
37.553614638181962
 21
211.3862187228554
 31
0.0
  0
LINE
  5
148C
  8
0
 62
     0
 10
36.085131571448528
 20
208.84273144121849
 30
0.0
 11
36.522631571448528
 21
209.6005036695299
 31
0.0
  0
LINE
  5
148D
  8
0
 62
     0
 10
34.772631571448528
 20
206.5694147562844
 30
0.0
 11
35.210131571448528
 21
207.32718698459581
 31
0.0
  0
LINE
  5
148E
  8
0
 62
     0
 10
37.397631571121792
 20
214.14713703958691
 30
0.0
 11
37.710500877255413
 21
214.6890425739391
 31
0.0
  0
LINE
  5
148F
  8
0
 62
     0
 10
36.085131571121799
 20
211.87382035465271
 30
0.0
 11
36.522631571121792
 21
212.63159258296409
 31
0.0
  0
LINE
  5
1490
  8
0
 62
     0
 10
34.772631571121792
 20
209.60050366971859
 30
0.0
 11
35.210131571121792
 21
210.35827589802989
 31
0.0
  0
LINE
  5
1491
  8
0
 62
     0
 10
33.460131571121792
 20
207.32718698478439
 30
0.0
 11
33.897631571121799
 21
208.0849592130958
 31
0.0
  0
LINE
  5
1492
  8
0
 62
     0
 10
36.085131570795113
 20
214.90490926808681
 30
0.0
 11
36.52263157079512
 21
215.66268149639819
 31
0.0
  0
LINE
  5
1493
  8
0
 62
     0
 10
34.772631570795113
 20
212.6315925831527
 30
0.0
 11
35.21013157079512
 21
213.38936481146411
 31
0.0
  0
LINE
  5
1494
  8
0
 62
     0
 10
33.460131570795113
 20
210.35827589821849
 30
0.0
 11
33.897631570795113
 21
211.1160481265299
 31
0.0
  0
LINE
  5
1495
  8
0
 62
     0
 10
32.14763157079512
 20
208.08495921328441
 30
0.0
 11
32.585131570795113
 21
208.84273144159579
 31
0.0
  0
LINE
  5
1496
  8
0
 62
     0
 10
36.085131570468427
 20
217.93599818152089
 30
0.0
 11
36.522631570468441
 21
218.6937704098323
 31
0.0
  0
LINE
  5
1497
  8
0
 62
     0
 10
34.772631570468441
 20
215.6626814965868
 30
0.0
 11
35.210131570468427
 21
216.42045372489821
 31
0.0
  0
LINE
  5
1498
  8
0
 62
     0
 10
33.460131570468441
 20
213.38936481165271
 30
0.0
 11
33.897631570468427
 21
214.14713703996401
 31
0.0
  0
LINE
  5
1499
  8
0
 62
     0
 10
32.147631570468441
 20
211.11604812671851
 30
0.0
 11
32.585131570468441
 21
211.87382035502989
 31
0.0
  0
LINE
  5
149A
  8
0
 62
     0
 10
30.85680898326768
 20
208.8802778221293
 30
0.0
 11
31.272631570468441
 21
209.6005036700958
 31
0.0
  0
LINE
  5
149B
  8
0
 62
     0
 10
34.772631570141762
 20
218.69377041002099
 30
0.0
 11
35.210131570141762
 21
219.4515426383324
 31
0.0
  0
LINE
  5
149C
  8
0
 62
     0
 10
33.460131570141762
 20
216.42045372508679
 30
0.0
 11
33.897631570141762
 21
217.1782259533982
 31
0.0
  0
LINE
  5
149D
  8
0
 62
     0
 10
32.147631570141748
 20
214.1471370401527
 30
0.0
 11
32.585131570141762
 21
214.90490926846411
 31
0.0
  0
LINE
  5
149E
  8
0
 62
     0
 10
30.835131570141758
 20
211.87382035521861
 30
0.0
 11
31.272631570141758
 21
212.63159258352991
 31
0.0
  0
LINE
  5
149F
  8
0
 62
     0
 10
33.460131569815019
 20
219.45154263852089
 30
0.0
 11
33.897631569815019
 21
220.2093148668323
 31
0.0
  0
LINE
  5
14A0
  8
0
 62
     0
 10
32.147631569815019
 20
217.1782259535868
 30
0.0
 11
32.585131569815019
 21
217.93599818189821
 31
0.0
  0
LINE
  5
14A1
  8
0
 62
     0
 10
30.835131569815019
 20
214.90490926865269
 30
0.0
 11
31.272631569815019
 21
215.66268149696401
 31
0.0
  0
LINE
  5
14A2
  8
0
 62
     0
 10
29.925439185401391
 20
213.3292758395898
 30
0.0
 11
29.960131569815019
 21
213.3893648120299
 31
0.0
  0
LINE
  5
14A3
  8
0
 62
     0
 10
32.14763156948834
 20
220.20931486702099
 30
0.0
 11
32.31716683147971
 21
220.50295855446461
 31
0.0
  0
LINE
  5
14A4
  8
0
 62
     0
 10
30.83513156948834
 20
217.93599818208679
 30
0.0
 11
31.27263156948834
 21
218.6937704103982
 31
0.0
  0
LINE
  5
14A5
  8
0
 62
     0
 10
0.6476315649146619
 20
208.08495921667949
 30
0.0
 11
1.085131564914662
 21
208.8427314449909
 31
0.0
  0
LINE
  5
14A6
  8
0
 62
     0
 10
0.6476315645879263
 20
211.1160481301136
 30
0.0
 11
1.0851315645879269
 21
211.87382035842501
 31
0.0
  0
LINE
  5
14A7
  8
0
 62
     0
 10
-0.6648684354120742
 20
208.84273144517951
 30
0.0
 11
-0.2273684354120733
 21
209.60050367349081
 31
0.0
  0
LINE
  5
14A8
  8
0
 62
     0
 10
-1.9039966729386031
 20
206.6964983806902
 30
0.0
 11
-1.5398684354120731
 21
207.32718698855669
 31
0.0
  0
LINE
  5
14A9
  8
0
 62
     0
 10
0.6476315642612474
 20
214.1471370435477
 30
0.0
 11
1.085131564261248
 21
214.90490927185911
 31
0.0
  0
LINE
  5
14AA
  8
0
 62
     0
 10
-0.6648684357387531
 20
211.87382035861361
 30
0.0
 11
-0.2273684357387524
 21
212.631592586925
 31
0.0
  0
LINE
  5
14AB
  8
0
 62
     0
 10
-1.9773684357387531
 20
209.6005036736795
 30
0.0
 11
-1.539868435738752
 21
210.35827590199079
 31
0.0
  0
LINE
  5
14AC
  8
0
 62
     0
 10
-3.2898684357387529
 20
207.3271869887453
 30
0.0
 11
-2.8523684357387529
 21
208.08495921705671
 31
0.0
  0
LINE
  5
14AD
  8
0
 62
     0
 10
0.6476315639345682
 20
217.178225956982
 30
0.0
 11
1.085131563934568
 21
217.9359981852933
 31
0.0
  0
LINE
  5
14AE
  8
0
 62
     0
 10
-0.6648684360654322
 20
214.9049092720478
 30
0.0
 11
-0.227368436065432
 21
215.66268150035921
 31
0.0
  0
LINE
  5
14AF
  8
0
 62
     0
 10
-1.977368436065432
 20
212.63159258711369
 30
0.0
 11
-1.539868436065432
 21
213.38936481542501
 31
0.0
  0
LINE
  5
14B0
  8
0
 62
     0
 10
-3.289868436065432
 20
210.35827590217951
 30
0.0
 11
-2.852368436065432
 21
211.1160481304909
 31
0.0
  0
LINE
  5
14B1
  8
0
 62
     0
 10
-4.6023684360654613
 20
208.08495921724531
 30
0.0
 11
-4.1648684360654613
 21
208.84273144555669
 31
0.0
  0
LINE
  5
14B2
  8
0
 62
     0
 10
0.6476315636078607
 20
220.20931487041599
 30
0.0
 11
0.9289070944094262
 21
220.6964983806902
 31
0.0
  0
LINE
  5
14B3
  8
0
 62
     0
 10
-0.6648684363921398
 20
217.93599818548191
 30
0.0
 11
-0.2273684363921395
 21
218.69377041379329
 31
0.0
  0
LINE
  5
14B4
  8
0
 62
     0
 10
-1.97736843639214
 20
215.66268150054771
 30
0.0
 11
-1.5398684363921391
 21
216.42045372885909
 31
0.0
  0
LINE
  5
14B5
  8
0
 62
     0
 10
-3.28986843639214
 20
213.38936481561359
 30
0.0
 11
-2.85236843639214
 21
214.147137043925
 31
0.0
  0
LINE
  5
14B6
  8
0
 62
     0
 10
-4.5966022762776504
 20
211.1260354129623
 30
0.0
 11
-4.1648684363921404
 21
211.8738203589908
 31
0.0
  0
LINE
  5
14B7
  8
0
 62
     0
 10
-1.97736843671879
 20
218.69377041398189
 30
0.0
 11
-1.53986843671879
 21
219.4515426422933
 31
0.0
  0
LINE
  5
14B8
  8
0
 62
     0
 10
-3.2898684367187911
 20
216.42045372904781
 30
0.0
 11
-2.8523684367187911
 21
217.17822595735919
 31
0.0
  0
LINE
  5
14B9
  8
0
 62
     0
 10
-4.6023684367187911
 20
214.14713704411369
 30
0.0
 11
-4.1648684367187911
 21
214.90490927242499
 31
0.0
  0
LINE
  5
14BA
  8
0
 62
     0
 10
-5.9148684367187911
 20
211.87382035917949
 30
0.0
 11
-5.4773684367187911
 21
212.6315925874909
 31
0.0
  0
LINE
  5
14BB
  8
0
 62
     0
 10
-3.2898684370455271
 20
219.45154264248191
 30
0.0
 11
-2.8523684370455271
 21
220.20931487079329
 31
0.0
  0
LINE
  5
14BC
  8
0
 62
     0
 10
-4.6023684370455271
 20
217.1782259575478
 30
0.0
 11
-4.1648684370455271
 21
217.93599818585921
 31
0.0
  0
LINE
  5
14BD
  8
0
 62
     0
 10
-5.9148684370455271
 20
214.90490927261371
 30
0.0
 11
-5.4773684370455271
 21
215.662681500925
 31
0.0
  0
LINE
  5
14BE
  8
0
 62
     0
 10
-7.2273684370455271
 20
212.63159258767951
 30
0.0
 11
-6.7898684370455271
 21
213.38936481599089
 31
0.0
  0
LINE
  5
14BF
  8
0
 62
     0
 10
-4.6023684373722062
 20
220.2093148709819
 30
0.0
 11
-4.321092906897376
 21
220.6964983806902
 31
0.0
  0
LINE
  5
14C0
  8
0
 62
     0
 10
-5.9148684373722062
 20
217.9359981860477
 30
0.0
 11
-5.4773684373722062
 21
218.69377041435911
 31
0.0
  0
LINE
  5
14C1
  8
0
 62
     0
 10
-7.2273684373722062
 20
215.66268150111361
 30
0.0
 11
-6.7898684373722062
 21
216.42045372942499
 31
0.0
  0
LINE
  5
14C2
  8
0
 62
     0
 10
-8.2251174677562631
 20
213.9345294872858
 30
0.0
 11
-8.1023684373722062
 21
214.14713704449079
 31
0.0
  0
LINE
  5
14C3
  8
0
 62
     0
 10
-7.2273684376988854
 20
218.6937704145478
 30
0.0
 11
-6.7898684376988854
 21
219.45154264285921
 31
0.0
  0
LINE
  5
14C4
  8
0
 62
     0
 10
-8.2251174677562346
 20
216.96561840128589
 30
0.0
 11
-8.1023684376988854
 21
217.17822595792501
 31
0.0
  0
LINE
  5
14C5
  8
0
 62
     0
 10
-8.2251174677562062
 20
219.9967073152859
 30
0.0
 11
-8.1023684380255645
 21
220.2093148713592
 31
0.0
  0
LINE
  5
14C6
  8
0
 62
     0
 10
36.522631688077951
 20
218.69377043661589
 30
0.0
 11
36.085131688077951
 21
219.45154266492719
 31
0.0
  0
LINE
  5
14C7
  8
0
 62
     0
 10
33.8976316877513
 20
220.20931489304999
 30
0.0
 11
33.4601316877513
 21
220.9670871213614
 31
0.0
  0
LINE
  5
14C8
  8
0
 62
     0
 10
35.2101316877513
 20
217.93599820811579
 30
0.0
 11
34.7726316877513
 21
218.6937704364272
 31
0.0
  0
LINE
  5
14C9
  8
0
 62
     0
 10
36.5226316877513
 20
215.6626815231817
 30
0.0
 11
36.0851316877513
 21
216.42045375149311
 31
0.0
  0
LINE
  5
14CA
  8
0
 62
     0
 10
37.744857084116781
 20
213.54572503837571
 30
0.0
 11
37.3976316877513
 21
214.14713706655891
 31
0.0
  0
LINE
  5
14CB
  8
0
 62
     0
 10
32.585131687424543
 20
219.45154266455
 30
0.0
 11
32.147631687424543
 21
220.2093148928613
 31
0.0
  0
LINE
  5
14CC
  8
0
 62
     0
 10
33.897631687424543
 20
217.1782259796158
 30
0.0
 11
33.460131687424543
 21
217.93599820792721
 31
0.0
  0
LINE
  5
14CD
  8
0
 62
     0
 10
35.210131687424543
 20
214.90490929468169
 30
0.0
 11
34.772631687424543
 21
215.6626815229931
 31
0.0
  0
LINE
  5
14CE
  8
0
 62
     0
 10
36.522631687424543
 20
212.63159260974751
 30
0.0
 11
36.085131687424543
 21
213.3893648380589
 31
0.0
  0
LINE
  5
14CF
  8
0
 62
     0
 10
37.47861544249028
 20
210.9757801747632
 30
0.0
 11
37.397631687424543
 21
211.11604815312481
 31
0.0
  0
LINE
  5
14D0
  8
0
 62
     0
 10
31.27263168709786
 20
218.69377043604999
 30
0.0
 11
31.097719747907579
 21
218.99672680157801
 31
0.0
  0
LINE
  5
14D1
  8
0
 62
     0
 10
32.585131687097856
 20
216.42045375111579
 30
0.0
 11
32.147631687097856
 21
217.1782259794272
 31
0.0
  0
LINE
  5
14D2
  8
0
 62
     0
 10
33.897631687097856
 20
214.1471370661817
 30
0.0
 11
33.460131687097856
 21
214.90490929449311
 31
0.0
  0
LINE
  5
14D3
  8
0
 62
     0
 10
35.210131687097856
 20
211.87382038124761
 30
0.0
 11
34.772631687097856
 21
212.63159260955891
 31
0.0
  0
LINE
  5
14D4
  8
0
 62
     0
 10
36.522631687097856
 20
209.60050369631341
 30
0.0
 11
36.085131687097856
 21
210.35827592462479
 31
0.0
  0
LINE
  5
14D5
  8
0
 62
     0
 10
31.272631686771181
 20
215.6626815226158
 30
0.0
 11
30.835131686771181
 21
216.42045375092721
 31
0.0
  0
LINE
  5
14D6
  8
0
 62
     0
 10
32.585131686771177
 20
213.38936483768171
 30
0.0
 11
32.147631686771177
 21
214.14713706599309
 31
0.0
  0
LINE
  5
14D7
  8
0
 62
     0
 10
33.897631686771177
 20
211.1160481527476
 30
0.0
 11
33.460131686771177
 21
211.87382038105889
 31
0.0
  0
LINE
  5
14D8
  8
0
 62
     0
 10
35.210131686771177
 20
208.84273146781339
 30
0.0
 11
34.772631686771177
 21
209.6005036961248
 31
0.0
  0
LINE
  5
14D9
  8
0
 62
     0
 10
31.272631686444502
 20
212.63159260918161
 30
0.0
 11
30.835131686444502
 21
213.3893648374931
 31
0.0
  0
LINE
  5
14DA
  8
0
 62
     0
 10
32.585131686444498
 20
210.35827592424749
 30
0.0
 11
32.147631686444498
 21
211.1160481525589
 31
0.0
  0
LINE
  5
14DB
  8
0
 62
     0
 10
33.897631686444498
 20
208.08495923931341
 30
0.0
 11
33.460131686444498
 21
208.8427314676247
 31
0.0
  0
LINE
  5
14DC
  8
0
 62
     0
 10
34.804543655496794
 20
206.5141416309225
 30
0.0
 11
34.772631686444498
 21
206.56941478269059
 31
0.0
  0
LINE
  5
14DD
  8
0
 62
     0
 10
31.272631686117791
 20
209.60050369574751
 30
0.0
 11
30.835131686117791
 21
210.3582759240588
 31
0.0
  0
LINE
  5
14DE
  8
0
 62
     0
 10
32.585131686117791
 20
207.3271870108133
 30
0.0
 11
32.147631686117791
 21
208.08495923912469
 31
0.0
  0
LINE
  5
14DF
  8
0
 62
     0
 10
1.0851316815441101
 20
219.45154266115489
 30
0.0
 11
0.6476316815441133
 21
220.2093148894663
 31
0.0
  0
LINE
  5
14E0
  8
0
 62
     0
 10
-0.2273683187825679
 20
218.6937704326549
 30
0.0
 11
-0.6648683187825653
 21
219.45154266096631
 31
0.0
  0
LINE
  5
14E1
  8
0
 62
     0
 10
1.085131681217431
 20
216.4204537477207
 30
0.0
 11
0.6476316812174341
 21
217.17822597603219
 31
0.0
  0
LINE
  5
14E2
  8
0
 62
     0
 10
-2.8523683191093019
 20
220.209314889089
 30
0.0
 11
-3.1336438391301131
 21
220.6964983806904
 31
0.0
  0
LINE
  5
14E3
  8
0
 62
     0
 10
-1.539868319109303
 20
217.93599820415491
 30
0.0
 11
-1.9773683191093001
 21
218.69377043246621
 31
0.0
  0
LINE
  5
14E4
  8
0
 62
     0
 10
-0.2273683191093039
 20
215.6626815192208
 30
0.0
 11
-0.6648683191093012
 21
216.42045374753209
 31
0.0
  0
LINE
  5
14E5
  8
0
 62
     0
 10
1.085131680890695
 20
213.3893648342866
 30
0.0
 11
0.6476316808906982
 21
214.14713706259801
 31
0.0
  0
LINE
  5
14E6
  8
0
 62
     0
 10
-4.1648683194360077
 20
219.4515426605891
 30
0.0
 11
-4.6023683194360059
 21
220.20931488890039
 31
0.0
  0
LINE
  5
14E7
  8
0
 62
     0
 10
-2.852368319436009
 20
217.1782259756549
 30
0.0
 11
-3.2898683194360072
 21
217.93599820396631
 31
0.0
  0
LINE
  5
14E8
  8
0
 62
     0
 10
-1.5398683194360101
 20
214.9049092907207
 30
0.0
 11
-1.9773683194360081
 21
215.66268151903211
 31
0.0
  0
LINE
  5
14E9
  8
0
 62
     0
 10
-0.2273683194360114
 20
212.63159260578661
 30
0.0
 11
-0.6648683194360088
 21
213.38936483409799
 31
0.0
  0
LINE
  5
14EA
  8
0
 62
     0
 10
1.085131680563987
 20
210.35827592085249
 30
0.0
 11
0.6476316805639906
 21
211.11604814916379
 31
0.0
  0
LINE
  5
14EB
  8
0
 62
     0
 10
-5.4773683197626593
 20
218.693770432089
 30
0.0
 11
-5.9148683197626566
 21
219.45154266040041
 31
0.0
  0
LINE
  5
14EC
  8
0
 62
     0
 10
-4.1648683197626593
 20
216.4204537471548
 30
0.0
 11
-4.6023683197626566
 21
217.1782259754662
 31
0.0
  0
LINE
  5
14ED
  8
0
 62
     0
 10
-2.852368319762661
 20
214.14713706222071
 30
0.0
 11
-3.2898683197626579
 21
214.90490929053209
 31
0.0
  0
LINE
  5
14EE
  8
0
 62
     0
 10
-1.539868319762661
 20
211.87382037728659
 30
0.0
 11
-1.977368319762659
 21
212.63159260559789
 31
0.0
  0
LINE
  5
14EF
  8
0
 62
     0
 10
-0.2273683197626621
 20
209.60050369235239
 30
0.0
 11
-0.6648683197626604
 21
210.3582759206638
 31
0.0
  0
LINE
  5
14F0
  8
0
 62
     0
 10
1.085131680237337
 20
207.3271870074183
 30
0.0
 11
0.647631680237339
 21
208.08495923572971
 31
0.0
  0
LINE
  5
14F1
  8
0
 62
     0
 10
-8.1023683200893686
 20
220.20931488852321
 30
0.0
 11
-8.2251174677562044
 21
220.42192264886791
 31
0.0
  0
LINE
  5
14F2
  8
0
 62
     0
 10
-6.7898683200893677
 20
217.93599820358909
 30
0.0
 11
-7.2273683200893659
 21
218.69377043190039
 31
0.0
  0
LINE
  5
14F3
  8
0
 62
     0
 10
-5.4773683200893677
 20
215.66268151865489
 30
0.0
 11
-5.9148683200893659
 21
216.4204537469663
 31
0.0
  0
LINE
  5
14F4
  8
0
 62
     0
 10
-4.1648683200893677
 20
213.3893648337208
 30
0.0
 11
-4.6023683200893659
 21
214.14713706203219
 31
0.0
  0
LINE
  5
14F5
  8
0
 62
     0
 10
-2.8523683200893681
 20
211.1160481487866
 30
0.0
 11
-3.2898683200893659
 21
211.87382037709801
 31
0.0
  0
LINE
  5
14F6
  8
0
 62
     0
 10
-1.539868320089369
 20
208.84273146385249
 30
0.0
 11
-1.977368320089367
 21
209.60050369216381
 31
0.0
  0
LINE
  5
14F7
  8
0
 62
     0
 10
-0.3007400717820605
 20
206.6964983806904
 30
0.0
 11
-0.6648683200893686
 21
207.3271870072297
 31
0.0
  0
LINE
  5
14F8
  8
0
 62
     0
 10
-8.1023683204160761
 20
217.17822597508899
 30
0.0
 11
-8.2251174677562044
 21
217.3908337348679
 31
0.0
  0
LINE
  5
14F9
  8
0
 62
     0
 10
-6.7898683204160752
 20
214.9049092901549
 30
0.0
 11
-7.2273683204160744
 21
215.66268151846629
 31
0.0
  0
LINE
  5
14FA
  8
0
 62
     0
 10
-5.4773683204160761
 20
212.63159260522079
 30
0.0
 11
-5.9148683204160752
 21
213.38936483353211
 31
0.0
  0
LINE
  5
14FB
  8
0
 62
     0
 10
-2.8523683204161041
 20
208.0849592353525
 30
0.0
 11
-3.2898683204161032
 21
208.84273146366391
 31
0.0
  0
LINE
  5
14FC
  8
0
 62
     0
 10
-8.1023683207427553
 20
214.14713706165489
 30
0.0
 11
-8.2251174677562346
 21
214.359744820868
 31
0.0
  0
LINE
  5
14FD
  8
0
 62
     0
 10
-6.7898683207427553
 20
211.8738203767208
 30
0.0
 11
-7.2273683207427553
 21
212.6315926050321
 31
0.0
  0
LINE
  5
14FE
  8
0
 62
     0
 10
-4.1648683207427553
 20
207.3271870068524
 30
0.0
 11
-4.6023683207427553
 21
208.08495923516389
 31
0.0
  0
LINE
  5
14FF
  8
0
 62
     0
 10
-5.5645462174266811
 20
206.72041132414009
 30
0.0
 11
-5.9148683210694619
 21
207.32718700666379
 31
0.0
  0
LINE
  5
1500
  8
0
 62
     0
 10
35.210131606077901
 20
207.3271870973883
 30
0.0
 11
35.801523323620188
 21
207.3271870973883
 31
0.0
  0
LINE
  5
1501
  8
0
 62
     0
 10
32.585131606077887
 20
207.3271870973883
 30
0.0
 11
33.460131606077887
 21
207.3271870973883
 31
0.0
  0
LINE
  5
1502
  8
0
 62
     0
 10
1.0851316060778939
 20
207.3271870973883
 30
0.0
 11
1.7748825322437789
 21
207.3271870973883
 31
0.0
  0
LINE
  5
1503
  8
0
 62
     0
 10
-1.5398683939221049
 20
207.3271870973883
 30
0.0
 11
-0.664868393922106
 21
207.3271870973883
 31
0.0
  0
LINE
  5
1504
  8
0
 62
     0
 10
-4.1648683939221049
 20
207.3271870973883
 30
0.0
 11
-3.2898683939221049
 21
207.3271870973883
 31
0.0
  0
LINE
  5
1505
  8
0
 62
     0
 10
-6.3245591390902831
 20
207.3271870973883
 30
0.0
 11
-5.9148683939221049
 21
207.3271870973883
 31
0.0
  0
LINE
  5
1506
  8
0
 62
     0
 10
35.210131606077901
 20
208.84273155438831
 30
0.0
 11
36.085131606077901
 21
208.84273155438831
 31
0.0
  0
LINE
  5
1507
  8
0
 62
     0
 10
32.585131606077887
 20
208.84273155438831
 30
0.0
 11
33.460131606077887
 21
208.84273155438831
 31
0.0
  0
LINE
  5
1508
  8
0
 62
     0
 10
1.0851316060778939
 20
208.84273155438831
 30
0.0
 11
1.7748825322437789
 21
208.84273155438831
 31
0.0
  0
LINE
  5
1509
  8
0
 62
     0
 10
-1.5398683939221049
 20
208.84273155438831
 30
0.0
 11
-0.664868393922106
 21
208.84273155438831
 31
0.0
  0
LINE
  5
150A
  8
0
 62
     0
 10
-4.1648683939221049
 20
208.84273155438831
 30
0.0
 11
-3.2898683939221049
 21
208.84273155438831
 31
0.0
  0
LINE
  5
150B
  8
0
 62
     0
 10
35.210131606077901
 20
210.3582760113882
 30
0.0
 11
36.085131606077901
 21
210.3582760113882
 31
0.0
  0
LINE
  5
150C
  8
0
 62
     0
 10
32.585131606077887
 20
210.3582760113882
 30
0.0
 11
33.460131606077887
 21
210.3582760113882
 31
0.0
  0
LINE
  5
150D
  8
0
 62
     0
 10
30.327320583027589
 20
210.3582760113882
 30
0.0
 11
30.835131606077901
 21
210.3582760113882
 31
0.0
  0
LINE
  5
150E
  8
0
 62
     0
 10
1.0851316060778939
 20
210.3582760113882
 30
0.0
 11
1.7748825322437789
 21
210.3582760113882
 31
0.0
  0
LINE
  5
150F
  8
0
 62
     0
 10
-1.5398683939221049
 20
210.3582760113882
 30
0.0
 11
-0.664868393922106
 21
210.3582760113882
 31
0.0
  0
LINE
  5
1510
  8
0
 62
     0
 10
-3.9523756455840409
 20
210.3582760113882
 30
0.0
 11
-3.2898683939221049
 21
210.3582760113882
 31
0.0
  0
LINE
  5
1511
  8
0
 62
     0
 10
35.210131606077901
 20
211.87382046838829
 30
0.0
 11
36.085131606077901
 21
211.87382046838829
 31
0.0
  0
LINE
  5
1512
  8
0
 62
     0
 10
32.585131606077887
 20
211.87382046838829
 30
0.0
 11
33.460131606077887
 21
211.87382046838829
 31
0.0
  0
LINE
  5
1513
  8
0
 62
     0
 10
30.03985635546022
 20
211.87382046838829
 30
0.0
 11
30.835131606077901
 21
211.87382046838829
 31
0.0
  0
LINE
  5
1514
  8
0
 62
     0
 10
1.0851316060778939
 20
211.87382046838829
 30
0.0
 11
1.7748825322437789
 21
211.87382046838829
 31
0.0
  0
LINE
  5
1515
  8
0
 62
     0
 10
-1.5398683939221049
 20
211.87382046838829
 30
0.0
 11
-0.664868393922106
 21
211.87382046838829
 31
0.0
  0
LINE
  5
1516
  8
0
 62
     0
 10
-4.1648683939221049
 20
211.87382046838829
 30
0.0
 11
-3.2898683939221049
 21
211.87382046838829
 31
0.0
  0
LINE
  5
1517
  8
0
 62
     0
 10
-6.7898683939221049
 20
211.87382046838829
 30
0.0
 11
-5.9148683939221049
 21
211.87382046838829
 31
0.0
  0
LINE
  5
1518
  8
0
 62
     0
 10
35.210131606077901
 20
213.38936492538829
 30
0.0
 11
36.085131606077901
 21
213.38936492538829
 31
0.0
  0
LINE
  5
1519
  8
0
 62
     0
 10
32.585131606077887
 20
213.38936492538829
 30
0.0
 11
33.460131606077887
 21
213.38936492538829
 31
0.0
  0
LINE
  5
151A
  8
0
 62
     0
 10
29.960131606077901
 20
213.38936492538829
 30
0.0
 11
30.835131606077901
 21
213.38936492538829
 31
0.0
  0
LINE
  5
151B
  8
0
 62
     0
 10
1.0851316060778939
 20
213.38936492538829
 30
0.0
 11
1.7748825322437789
 21
213.38936492538829
 31
0.0
  0
LINE
  5
151C
  8
0
 62
     0
 10
-1.5398683939221049
 20
213.38936492538829
 30
0.0
 11
-0.664868393922106
 21
213.38936492538829
 31
0.0
  0
LINE
  5
151D
  8
0
 62
     0
 10
-4.1648683939221049
 20
213.38936492538829
 30
0.0
 11
-3.2898683939221049
 21
213.38936492538829
 31
0.0
  0
LINE
  5
151E
  8
0
 62
     0
 10
-6.7898683939221049
 20
213.38936492538829
 30
0.0
 11
-5.9148683939221049
 21
213.38936492538829
 31
0.0
  0
LINE
  5
151F
  8
0
 62
     0
 10
35.210131606077901
 20
214.9049093823883
 30
0.0
 11
36.085131606077901
 21
214.9049093823883
 31
0.0
  0
LINE
  5
1520
  8
0
 62
     0
 10
32.585131606077887
 20
214.9049093823883
 30
0.0
 11
33.460131606077887
 21
214.9049093823883
 31
0.0
  0
LINE
  5
1521
  8
0
 62
     0
 10
29.97278909351472
 20
214.9049093823883
 30
0.0
 11
30.835131606077901
 21
214.9049093823883
 31
0.0
  0
LINE
  5
1522
  8
0
 62
     0
 10
1.0851316060778939
 20
214.9049093823883
 30
0.0
 11
1.7748825322437789
 21
214.9049093823883
 31
0.0
  0
LINE
  5
1523
  8
0
 62
     0
 10
-1.5398683939221049
 20
214.9049093823883
 30
0.0
 11
-0.664868393922106
 21
214.9049093823883
 31
0.0
  0
LINE
  5
1524
  8
0
 62
     0
 10
-4.1648683939221049
 20
214.9049093823883
 30
0.0
 11
-3.2898683939221049
 21
214.9049093823883
 31
0.0
  0
LINE
  5
1525
  8
0
 62
     0
 10
-6.7898683939221049
 20
214.9049093823883
 30
0.0
 11
-5.9148683939221049
 21
214.9049093823883
 31
0.0
  0
LINE
  5
1526
  8
0
 62
     0
 10
35.210131606077901
 20
216.4204538393883
 30
0.0
 11
36.085131606077901
 21
216.4204538393883
 31
0.0
  0
LINE
  5
1527
  8
0
 62
     0
 10
32.585131606077887
 20
216.4204538393883
 30
0.0
 11
33.460131606077887
 21
216.4204538393883
 31
0.0
  0
LINE
  5
1528
  8
0
 62
     0
 10
30.1880139045033
 20
216.4204538393883
 30
0.0
 11
30.835131606077901
 21
216.4204538393883
 31
0.0
  0
LINE
  5
1529
  8
0
 62
     0
 10
1.0851316060778939
 20
216.4204538393883
 30
0.0
 11
1.7748825322437789
 21
216.4204538393883
 31
0.0
  0
LINE
  5
152A
  8
0
 62
     0
 10
-1.5398683939221049
 20
216.4204538393883
 30
0.0
 11
-0.664868393922106
 21
216.4204538393883
 31
0.0
  0
LINE
  5
152B
  8
0
 62
     0
 10
-4.1648683939221049
 20
216.4204538393883
 30
0.0
 11
-3.2898683939221049
 21
216.4204538393883
 31
0.0
  0
LINE
  5
152C
  8
0
 62
     0
 10
-6.7898683939221049
 20
216.4204538393883
 30
0.0
 11
-5.9148683939221049
 21
216.4204538393883
 31
0.0
  0
LINE
  5
152D
  8
0
 62
     0
 10
35.210131606077901
 20
217.93599829638831
 30
0.0
 11
36.085131606077901
 21
217.93599829638831
 31
0.0
  0
LINE
  5
152E
  8
0
 62
     0
 10
32.585131606077887
 20
217.93599829638831
 30
0.0
 11
33.460131606077887
 21
217.93599829638831
 31
0.0
  0
LINE
  5
152F
  8
0
 62
     0
 10
30.614295099496449
 20
217.93599829638831
 30
0.0
 11
30.835131606077901
 21
217.93599829638831
 31
0.0
  0
LINE
  5
1530
  8
0
 62
     0
 10
1.0851316060778939
 20
217.93599829638831
 30
0.0
 11
1.7748825322437789
 21
217.93599829638831
 31
0.0
  0
LINE
  5
1531
  8
0
 62
     0
 10
-1.5398683939221049
 20
217.93599829638831
 30
0.0
 11
-0.664868393922106
 21
217.93599829638831
 31
0.0
  0
LINE
  5
1532
  8
0
 62
     0
 10
-4.1648683939221049
 20
217.93599829638831
 30
0.0
 11
-3.2898683939221049
 21
217.93599829638831
 31
0.0
  0
LINE
  5
1533
  8
0
 62
     0
 10
-6.7898683939221049
 20
217.93599829638831
 30
0.0
 11
-5.9148683939221049
 21
217.93599829638831
 31
0.0
  0
LINE
  5
1534
  8
0
 62
     0
 10
35.210131606077901
 20
219.45154275338831
 30
0.0
 11
36.085131606077901
 21
219.45154275338831
 31
0.0
  0
LINE
  5
1535
  8
0
 62
     0
 10
32.585131606077887
 20
219.45154275338831
 30
0.0
 11
33.460131606077887
 21
219.45154275338831
 31
0.0
  0
LINE
  5
1536
  8
0
 62
     0
 10
1.0851316060778939
 20
219.45154275338831
 30
0.0
 11
1.7748825322437789
 21
219.45154275338831
 31
0.0
  0
LINE
  5
1537
  8
0
 62
     0
 10
-1.5398683939221049
 20
219.45154275338831
 30
0.0
 11
-0.664868393922106
 21
219.45154275338831
 31
0.0
  0
LINE
  5
1538
  8
0
 62
     0
 10
-4.1648683939221049
 20
219.45154275338831
 30
0.0
 11
-3.2898683939221049
 21
219.45154275338831
 31
0.0
  0
LINE
  5
1539
  8
0
 62
     0
 10
-6.7898683939221049
 20
219.45154275338831
 30
0.0
 11
-5.9148683939221049
 21
219.45154275338831
 31
0.0
  0
LINE
  5
153A
  8
0
 62
     0
 10
33.059251167678013
 20
220.9670872103882
 30
0.0
 11
33.460131606077887
 21
220.9670872103882
 31
0.0
  0
ENDBLK
  5
153C
  8
0
  0
BLOCK
  8
0
  2
*X70
 70
     1
 10
0.0
 20
0.0
 30
0.0
  3
*X70
  1

  0
LINE
  5
153E
  8
0
 62
     0
 10
41.708592508501368
 20
221.03682031708399
 30
0.0
 11
41.549250503178563
 21
221.19616232240679
 31
0.0
  0
LINE
  5
153F
  8
0
 62
     0
 10
41.254031745678191
 20
219.72361412694079
 30
0.0
 11
39.781483550212158
 21
221.19616232240691
 31
0.0
  0
LINE
  5
1540
  8
0
 62
     0
 10
40.929487821447992
 20
218.2803910982046
 30
0.0
 11
38.013716597245804
 21
221.19616232240679
 31
0.0
  0
LINE
  5
1541
  8
0
 62
     0
 10
40.767740114172589
 20
216.6743718525137
 30
0.0
 11
36.245949644279371
 21
221.19616232240691
 31
0.0
  0
LINE
  5
1542
  8
0
 62
     0
 10
34.783770025084777
 20
220.89057498863511
 30
0.0
 11
34.478182691313037
 21
221.19616232240691
 31
0.0
  0
LINE
  5
1543
  8
0
 62
     0
 10
40.830407711496179
 20
214.84393730222371
 30
0.0
 11
36.417429566063703
 21
219.25691544765621
 31
0.0
  0
LINE
  5
1544
  8
0
 62
     0
 10
41.260688278837357
 20
212.6458897819162
 30
0.0
 11
37.476317463758591
 21
216.430260596995
 31
0.0
  0
LINE
  5
1545
  8
0
 62
     0
 10
40.938811107786897
 20
211.2000000000003
 30
0.0
 11
37.727451544596143
 21
214.4113595631911
 31
0.0
  0
LINE
  5
1546
  8
0
 62
     0
 10
39.171044154820613
 20
211.20000000000019
 30
0.0
 11
37.707465591514143
 21
212.6635785633066
 31
0.0
  0
LINE
  5
1547
  8
0
 62
     0
 10
38.001638600927151
 20
210.60163860092729
 30
0.0
 11
37.502749182093311
 21
211.10052801976121
 31
0.0
  0
LINE
  5
1548
  8
0
 62
     0
 10
37.600000000000023
 20
209.23551024888809
 30
0.0
 11
37.138433990542438
 21
209.6970762583457
 31
0.0
  0
LINE
  5
1549
  8
0
 62
     0
 10
36.606669184578827
 20
208.4610741113429
 30
0.0
 11
36.603903941326543
 21
208.46383935459519
 31
0.0
  0
LINE
  5
154A
  8
0
 62
     0
 10
40.825427237458662
 20
211.2000000000001
 30
0.0
 11
41.507278383126497
 21
211.88185114566801
 31
0.0
  0
LINE
  5
154B
  8
0
 62
     0
 10
39.057660284492329
 20
211.2000000000001
 30
0.0
 11
41.103296446511592
 21
213.24563616201939
 31
0.0
  0
LINE
  5
154C
  8
0
 62
     0
 10
36.868428399083371
 20
209.01076811459129
 30
0.0
 11
37.60000000000008
 21
209.74233971550791
 31
0.0
  0
LINE
  5
154D
  8
0
 62
     0
 10
37.568810027894081
 20
211.47891669636829
 30
0.0
 11
40.84064609382181
 21
214.750752762296
 31
0.0
  0
LINE
  5
154E
  8
0
 62
     0
 10
37.742947921404152
 20
213.42082154284481
 30
0.0
 11
40.761115582341688
 21
216.43898920378231
 31
0.0
  0
LINE
  5
154F
  8
0
 62
     0
 10
37.673301553609178
 20
215.1189421280161
 30
0.0
 11
40.948827984956722
 21
218.39446855936359
 31
0.0
  0
LINE
  5
1550
  8
0
 62
     0
 10
37.431781903737317
 20
216.64518943111059
 30
0.0
 11
41.632424284659287
 21
220.8458318120326
 31
0.0
  0
LINE
  5
1551
  8
0
 62
     0
 10
37.025057688788031
 20
218.00623216912771
 30
0.0
 11
40.214987842067153
 21
221.19616232240679
 31
0.0
  0
LINE
  5
1552
  8
0
 62
     0
 10
36.451759050380133
 20
219.20070048368621
 30
0.0
 11
38.447220889100777
 21
221.19616232240679
 31
0.0
  0
LINE
  5
1553
  8
0
 62
     0
 10
35.678985314347642
 20
220.1956937006201
 30
0.0
 11
36.679453936134401
 21
221.19616232240679
 31
0.0
  0
LINE
  5
1554
  8
0
 62
     0
 10
34.661146459127451
 20
220.9456217983662
 30
0.0
 11
34.911686983168067
 21
221.19616232240679
 31
0.0
  0
ENDBLK
  5
1556
  8
0
  0
BLOCK
  8
0
  2
*U71
 70
     1
 10
0.0
 20
0.0
 30
0.0
  3
*U71
  1

  0
SOLID
  5
1942
  8
SAPA_FOGBAND
  6
CONTINUOUS
 62
     2
 10
-6.5109449858177832
 20
151.1903051283488
 30
0.0
 11
-6.6912225495909832
 21
151.11563171644229
 31
0.0
 12
-6.3306674220445833
 22
151.11563171644229
 32
0.0
 13
-6.3306674220445833
 23
151.11563171644229
 33
0.0
210
0.0
220
0.0
230
1.0
  0
SOLID
  5
1943
  8
SAPA_FOGBAND
  6
CONTINUOUS
 62
     2
 10
-6.6912225495909832
 20
151.11563171644229
 30
0.0
 11
-6.7658959614974217
 21
150.93535415266911
 31
0.0
 12
-6.255994010138143
 22
150.93535415266911
 32
0.0
 13
-6.255994010138143
 23
150.93535415266911
 33
0.0
210
0.0
220
0.0
230
1.0
  0
SOLID
  5
1944
  8
SAPA_FOGBAND
  6
CONTINUOUS
 62
     2
 10
6.6912225495909832
 20
151.11563171644229
 30
0.0
 11
6.3306674220445833
 21
151.11563171644229
 31
0.0
 12
6.255994010138143
 22
150.93535415266911
 32
0.0
 13
6.255994010138143
 23
150.93535415266911
 33
0.0
210
0.0
220
0.0
230
-1.0
  0
SOLID
  5
1945
  8
SAPA_FOGBAND
  6
CONTINUOUS
 62
     2
 10
6.6912225495909832
 20
150.75507658889589
 30
0.0
 11
6.3306674220445842
 21
150.75507658889589
 31
0.0
 12
6.5109449858177832
 22
150.6804031769895
 32
0.0
 13
6.5109449858177832
 23
150.6804031769895
 33
0.0
210
0.0
220
0.0
230
-1.0
  0
SOLID
  5
1946
  8
SAPA_FOGBAND
  6
CONTINUOUS
 62
     2
 10
-6.7658959614974217
 20
150.93535415266911
 30
0.0
 11
-6.6912225495909832
 21
150.75507658889589
 31
0.0
 12
-6.3306674220445842
 22
150.75507658889589
 32
0.0
 13
-6.3306674220445842
 23
150.75507658889589
 33
0.0
210
0.0
220
0.0
230
1.0
  0
SOLID
  5
1947
  8
SAPA_FOGBAND
  6
CONTINUOUS
 62
     2
 10
6.7658959614974217
 20
150.93535415266911
 30
0.0
 11
6.255994010138143
 21
150.93535415266911
 31
0.0
 12
6.3306674220445842
 22
150.75507658889589
 32
0.0
 13
6.3306674220445842
 23
150.75507658889589
 33
0.0
210
0.0
220
0.0
230
-1.0
  0
LINE
  5
1948
  8
SAPA_FOGBAND
  6
CONTINUOUS
 62
     2
 10
-6.5109449858177832
 20
151.1903051283488
 30
0.0
 11
-6.6912225495909832
 21
151.11563171644229
 31
0.0
  0
LINE
  5
1949
  8
SAPA_FOGBAND
  6
CONTINUOUS
 62
     2
 10
-6.3306674220445833
 20
151.11563171644229
 30
0.0
 11
-6.5109449858177832
 21
151.1903051283488
 31
0.0
  0
LINE
  5
194A
  8
SAPA_FOGBAND
  6
CONTINUOUS
 62
     2
 10
-6.6912225495909832
 20
151.11563171644229
 30
0.0
 11
-6.7658959614974217
 21
150.93535415266911
 31
0.0
  0
LINE
  5
194B
  8
SAPA_FOGBAND
  6
CONTINUOUS
 62
     2
 10
-6.3306674220445833
 20
151.11563171644229
 30
0.0
 11
-6.255994010138143
 21
150.93535415266911
 31
0.0
  0
LINE
  5
194C
  8
SAPA_FOGBAND
  6
CONTINUOUS
 62
     2
 10
-6.3306674220445842
 20
150.75507658889589
 30
0.0
 11
-6.5109449858177832
 21
150.6804031769895
 31
0.0
  0
LINE
  5
194D
  8
SAPA_FOGBAND
  6
CONTINUOUS
 62
     2
 10
-6.5109449858177832
 20
150.6804031769895
 30
0.0
 11
-6.6912225495909832
 21
150.75507658889589
 31
0.0
  0
LINE
  5
194E
  8
SAPA_FOGBAND
  6
CONTINUOUS
 62
     2
 10
-6.7658959614974217
 20
150.93535415266911
 30
0.0
 11
-6.6912225495909832
 21
150.75507658889589
 31
0.0
  0
LINE
  5
194F
  8
SAPA_FOGBAND
  6
CONTINUOUS
 62
     2
 10
-6.255994010138143
 20
150.93535415266911
 30
0.0
 11
-6.3306674220445842
 21
150.75507658889589
 31
0.0
  0
ENDBLK
  5
1951
  8
0
  0
BLOCK
  8
0
  2
*U72
 70
     1
 10
0.0
 20
0.0
 30
0.0
  3
*U72
  1

  0
SOLID
  5
197C
  8
SAPA_FOGBAND
  6
CONTINUOUS
 62
     2
 10
39.712036186968298
 20
151.7682564793034
 30
0.0
 11
39.531758623195103
 21
151.69358306739699
 31
0.0
 12
39.892313750741501
 22
151.69358306739699
 32
0.0
 13
39.892313750741501
 23
151.69358306739699
 33
0.0
210
0.0
220
0.0
230
1.0
  0
SOLID
  5
197D
  8
SAPA_FOGBAND
  6
CONTINUOUS
 62
     2
 10
39.531758623195103
 20
151.69358306739699
 30
0.0
 11
39.457085211288657
 21
151.5133055036238
 31
0.0
 12
39.966987162647939
 22
151.5133055036238
 32
0.0
 13
39.966987162647939
 23
151.5133055036238
 33
0.0
210
0.0
220
0.0
230
1.0
  0
SOLID
  5
197E
  8
SAPA_FOGBAND
  6
CONTINUOUS
 62
     2
 10
-39.531758623195103
 20
151.69358306739699
 30
0.0
 11
-39.892313750741501
 21
151.69358306739699
 31
0.0
 12
-39.966987162647939
 22
151.5133055036238
 32
0.0
 13
-39.966987162647939
 23
151.5133055036238
 33
0.0
210
0.0
220
0.0
230
-1.0
  0
SOLID
  5
197F
  8
SAPA_FOGBAND
  6
CONTINUOUS
 62
     2
 10
-39.531758623195103
 20
151.33302793985061
 30
0.0
 11
-39.892313750741501
 21
151.33302793985061
 31
0.0
 12
-39.712036186968298
 22
151.25835452794419
 32
0.0
 13
-39.712036186968298
 23
151.25835452794419
 33
0.0
210
0.0
220
0.0
230
-1.0
  0
SOLID
  5
1980
  8
SAPA_FOGBAND
  6
CONTINUOUS
 62
     2
 10
39.457085211288657
 20
151.5133055036238
 30
0.0
 11
39.531758623195103
 21
151.33302793985061
 31
0.0
 12
39.892313750741501
 22
151.33302793985061
 32
0.0
 13
39.892313750741501
 23
151.33302793985061
 33
0.0
210
0.0
220
0.0
230
1.0
  0
SOLID
  5
1981
  8
SAPA_FOGBAND
  6
CONTINUOUS
 62
     2
 10
-39.457085211288657
 20
151.5133055036238
 30
0.0
 11
-39.966987162647939
 21
151.5133055036238
 31
0.0
 12
-39.892313750741501
 22
151.33302793985061
 32
0.0
 13
-39.892313750741501
 23
151.33302793985061
 33
0.0
210
0.0
220
0.0
230
-1.0
  0
LINE
  5
1982
  8
SAPA_FOGBAND
  6
CONTINUOUS
 62
     2
 10
39.712036186968298
 20
151.7682564793034
 30
0.0
 11
39.531758623195103
 21
151.69358306739699
 31
0.0
  0
LINE
  5
1983
  8
SAPA_FOGBAND
  6
CONTINUOUS
 62
     2
 10
39.892313750741501
 20
151.69358306739699
 30
0.0
 11
39.712036186968298
 21
151.7682564793034
 31
0.0
  0
LINE
  5
1984
  8
SAPA_FOGBAND
  6
CONTINUOUS
 62
     2
 10
39.531758623195103
 20
151.69358306739699
 30
0.0
 11
39.457085211288657
 21
151.5133055036238
 31
0.0
  0
LINE
  5
1985
  8
SAPA_FOGBAND
  6
CONTINUOUS
 62
     2
 10
39.892313750741501
 20
151.69358306739699
 30
0.0
 11
39.966987162647939
 21
151.5133055036238
 31
0.0
  0
LINE
  5
1986
  8
SAPA_FOGBAND
  6
CONTINUOUS
 62
     2
 10
39.892313750741501
 20
151.33302793985061
 30
0.0
 11
39.712036186968298
 21
151.25835452794419
 31
0.0
  0
LINE
  5
1987
  8
SAPA_FOGBAND
  6
CONTINUOUS
 62
     2
 10
39.712036186968298
 20
151.25835452794419
 30
0.0
 11
39.531758623195103
 21
151.33302793985061
 31
0.0
  0
LINE
  5
1988
  8
SAPA_FOGBAND
  6
CONTINUOUS
 62
     2
 10
39.457085211288657
 20
151.5133055036238
 30
0.0
 11
39.531758623195103
 21
151.33302793985061
 31
0.0
  0
LINE
  5
1989
  8
SAPA_FOGBAND
  6
CONTINUOUS
 62
     2
 10
39.966987162647939
 20
151.5133055036238
 30
0.0
 11
39.892313750741501
 21
151.33302793985061
 31
0.0
  0
ENDBLK
  5
198B
  8
0
  0
BLOCK
  8
0
  2
*U73
 70
     1
 10
0.0
 20
0.0
 30
0.0
  3
*U73
  1

  0
SOLID
  5
1A11
  8
SAPA_FOGBAND
  6
CONTINUOUS
 62
     2
 10
-6.5109449858177832
 20
151.1903051283488
 30
0.0
 11
-6.6912225495909832
 21
151.11563171644229
 31
0.0
 12
-6.3306674220445833
 22
151.11563171644229
 32
0.0
 13
-6.3306674220445833
 23
151.11563171644229
 33
0.0
210
0.0
220
0.0
230
1.0
  0
SOLID
  5
1A12
  8
SAPA_FOGBAND
  6
CONTINUOUS
 62
     2
 10
-6.6912225495909832
 20
151.11563171644229
 30
0.0
 11
-6.7658959614974217
 21
150.93535415266911
 31
0.0
 12
-6.255994010138143
 22
150.93535415266911
 32
0.0
 13
-6.255994010138143
 23
150.93535415266911
 33
0.0
210
0.0
220
0.0
230
1.0
  0
SOLID
  5
1A13
  8
SAPA_FOGBAND
  6
CONTINUOUS
 62
     2
 10
6.6912225495909832
 20
151.11563171644229
 30
0.0
 11
6.3306674220445833
 21
151.11563171644229
 31
0.0
 12
6.255994010138143
 22
150.93535415266911
 32
0.0
 13
6.255994010138143
 23
150.93535415266911
 33
0.0
210
0.0
220
0.0
230
-1.0
  0
SOLID
  5
1A14
  8
SAPA_FOGBAND
  6
CONTINUOUS
 62
     2
 10
6.6912225495909832
 20
150.75507658889589
 30
0.0
 11
6.3306674220445842
 21
150.75507658889589
 31
0.0
 12
6.5109449858177832
 22
150.6804031769895
 32
0.0
 13
6.5109449858177832
 23
150.6804031769895
 33
0.0
210
0.0
220
0.0
230
-1.0
  0
SOLID
  5
1A15
  8
SAPA_FOGBAND
  6
CONTINUOUS
 62
     2
 10
-6.7658959614974217
 20
150.93535415266911
 30
0.0
 11
-6.6912225495909832
 21
150.75507658889589
 31
0.0
 12
-6.3306674220445842
 22
150.75507658889589
 32
0.0
 13
-6.3306674220445842
 23
150.75507658889589
 33
0.0
210
0.0
220
0.0
230
1.0
  0
SOLID
  5
1A16
  8
SAPA_FOGBAND
  6
CONTINUOUS
 62
     2
 10
6.7658959614974217
 20
150.93535415266911
 30
0.0
 11
6.255994010138143
 21
150.93535415266911
 31
0.0
 12
6.3306674220445842
 22
150.75507658889589
 32
0.0
 13
6.3306674220445842
 23
150.75507658889589
 33
0.0
210
0.0
220
0.0
230
-1.0
  0
LINE
  5
1A17
  8
SAPA_FOGBAND
  6
CONTINUOUS
 62
     2
 10
-6.5109449858177832
 20
151.1903051283488
 30
0.0
 11
-6.6912225495909832
 21
151.11563171644229
 31
0.0
  0
LINE
  5
1A18
  8
SAPA_FOGBAND
  6
CONTINUOUS
 62
     2
 10
-6.3306674220445833
 20
151.11563171644229
 30
0.0
 11
-6.5109449858177832
 21
151.1903051283488
 31
0.0
  0
LINE
  5
1A19
  8
SAPA_FOGBAND
  6
CONTINUOUS
 62
     2
 10
-6.6912225495909832
 20
151.11563171644229
 30
0.0
 11
-6.7658959614974217
 21
150.93535415266911
 31
0.0
  0
LINE
  5
1A1A
  8
SAPA_FOGBAND
  6
CONTINUOUS
 62
     2
 10
-6.3306674220445833
 20
151.11563171644229
 30
0.0
 11
-6.255994010138143
 21
150.93535415266911
 31
0.0
  0
LINE
  5
1A1B
  8
SAPA_FOGBAND
  6
CONTINUOUS
 62
     2
 10
-6.3306674220445842
 20
150.75507658889589
 30
0.0
 11
-6.5109449858177832
 21
150.6804031769895
 31
0.0
  0
LINE
  5
1A1C
  8
SAPA_FOGBAND
  6
CONTINUOUS
 62
     2
 10
-6.5109449858177832
 20
150.6804031769895
 30
0.0
 11
-6.6912225495909832
 21
150.75507658889589
 31
0.0
  0
LINE
  5
1A1D
  8
SAPA_FOGBAND
  6
CONTINUOUS
 62
     2
 10
-6.7658959614974217
 20
150.93535415266911
 30
0.0
 11
-6.6912225495909832
 21
150.75507658889589
 31
0.0
  0
LINE
  5
1A1E
  8
SAPA_FOGBAND
  6
CONTINUOUS
 62
     2
 10
-6.255994010138143
 20
150.93535415266911
 30
0.0
 11
-6.3306674220445842
 21
150.75507658889589
 31
0.0
  0
ENDBLK
  5
1A20
  8
0
  0
BLOCK
  8
0
  2
*U74
 70
     1
 10
0.0
 20
0.0
 30
0.0
  3
*U74
  1

  0
SOLID
  5
1A4B
  8
SAPA_FOGBAND
  6
CONTINUOUS
 62
     2
 10
39.712036186968298
 20
151.7682564793034
 30
0.0
 11
39.531758623195103
 21
151.69358306739699
 31
0.0
 12
39.892313750741501
 22
151.69358306739699
 32
0.0
 13
39.892313750741501
 23
151.69358306739699
 33
0.0
210
0.0
220
0.0
230
1.0
  0
SOLID
  5
1A4C
  8
SAPA_FOGBAND
  6
CONTINUOUS
 62
     2
 10
39.531758623195103
 20
151.69358306739699
 30
0.0
 11
39.457085211288657
 21
151.5133055036238
 31
0.0
 12
39.966987162647939
 22
151.5133055036238
 32
0.0
 13
39.966987162647939
 23
151.5133055036238
 33
0.0
210
0.0
220
0.0
230
1.0
  0
SOLID
  5
1A4D
  8
SAPA_FOGBAND
  6
CONTINUOUS
 62
     2
 10
-39.531758623195103
 20
151.69358306739699
 30
0.0
 11
-39.892313750741501
 21
151.69358306739699
 31
0.0
 12
-39.966987162647939
 22
151.5133055036238
 32
0.0
 13
-39.966987162647939
 23
151.5133055036238
 33
0.0
210
0.0
220
0.0
230
-1.0
  0
SOLID
  5
1A4E
  8
SAPA_FOGBAND
  6
CONTINUOUS
 62
     2
 10
-39.531758623195103
 20
151.33302793985061
 30
0.0
 11
-39.892313750741501
 21
151.33302793985061
 31
0.0
 12
-39.712036186968298
 22
151.25835452794419
 32
0.0
 13
-39.712036186968298
 23
151.25835452794419
 33
0.0
210
0.0
220
0.0
230
-1.0
  0
SOLID
  5
1A4F
  8
SAPA_FOGBAND
  6
CONTINUOUS
 62
     2
 10
39.457085211288657
 20
151.5133055036238
 30
0.0
 11
39.531758623195103
 21
151.33302793985061
 31
0.0
 12
39.892313750741501
 22
151.33302793985061
 32
0.0
 13
39.892313750741501
 23
151.33302793985061
 33
0.0
210
0.0
220
0.0
230
1.0
  0
SOLID
  5
1A50
  8
SAPA_FOGBAND
  6
CONTINUOUS
 62
     2
 10
-39.457085211288657
 20
151.5133055036238
 30
0.0
 11
-39.966987162647939
 21
151.5133055036238
 31
0.0
 12
-39.892313750741501
 22
151.33302793985061
 32
0.0
 13
-39.892313750741501
 23
151.33302793985061
 33
0.0
210
0.0
220
0.0
230
-1.0
  0
LINE
  5
1A51
  8
SAPA_FOGBAND
  6
CONTINUOUS
 62
     2
 10
39.712036186968298
 20
151.7682564793034
 30
0.0
 11
39.531758623195103
 21
151.69358306739699
 31
0.0
  0
LINE
  5
1A52
  8
SAPA_FOGBAND
  6
CONTINUOUS
 62
     2
 10
39.892313750741501
 20
151.69358306739699
 30
0.0
 11
39.712036186968298
 21
151.7682564793034
 31
0.0
  0
LINE
  5
1A53
  8
SAPA_FOGBAND
  6
CONTINUOUS
 62
     2
 10
39.531758623195103
 20
151.69358306739699
 30
0.0
 11
39.457085211288657
 21
151.5133055036238
 31
0.0
  0
LINE
  5
1A54
  8
SAPA_FOGBAND
  6
CONTINUOUS
 62
     2
 10
39.892313750741501
 20
151.69358306739699
 30
0.0
 11
39.966987162647939
 21
151.5133055036238
 31
0.0
  0
LINE
  5
1A55
  8
SAPA_FOGBAND
  6
CONTINUOUS
 62
     2
 10
39.892313750741501
 20
151.33302793985061
 30
0.0
 11
39.712036186968298
 21
151.25835452794419
 31
0.0
  0
LINE
  5
1A56
  8
SAPA_FOGBAND
  6
CONTINUOUS
 62
     2
 10
39.712036186968298
 20
151.25835452794419
 30
0.0
 11
39.531758623195103
 21
151.33302793985061
 31
0.0
  0
LINE
  5
1A57
  8
SAPA_FOGBAND
  6
CONTINUOUS
 62
     2
 10
39.457085211288657
 20
151.5133055036238
 30
0.0
 11
39.531758623195103
 21
151.33302793985061
 31
0.0
  0
LINE
  5
1A58
  8
SAPA_FOGBAND
  6
CONTINUOUS
 62
     2
 10
39.966987162647939
 20
151.5133055036238
 30
0.0
 11
39.892313750741501
 21
151.33302793985061
 31
0.0
  0
ENDBLK
  5
1A5A
  8
0
  0
BLOCK
  8
0
  2
*U75
 70
     1
 10
0.0
 20
0.0
 30
0.0
  3
*U75
  1

  0
TEXT
  5
1ABC
  8
SAPA_MATT
 62
     2
 10
14.49881889763782
 20
232.19616232240691
 30
0.0
 40
3.0
  1
50
  7
ISO
  0
ENDBLK
  5
1ABE
  8
0
  0
BLOCK
  8
0
  2
*U76
 70
     1
 10
0.0
 20
0.0
 30
0.0
  3
*U76
  1

  0
TEXT
  5
1AC0
  8
SAPA_MATT
 62
     2
 10
-34.400000000000141
 20
186.38786796564429
 30
0.0
 40
3.0
  1
45
 50
90.0
  7
ISO
  0
ENDBLK
  5
1AC2
  8
0
  0
BLOCK
  8
0
  2
*U77
 70
     1
 10
0.0
 20
0.0
 30
0.0
  3
*U77
  1

  0
TEXT
  5
1AC4
  8
SAPA_MATT
 62
     2
 10
-34.400000000000141
 20
149.09881889763801
 30
0.0
 40
3.0
  1
30
 50
90.0
  7
ISO
  0
ENDBLK
  5
1AC6
  8
0
  0
BLOCK
  8
0
  2
*U78
 70
     1
 10
0.0
 20
0.0
 30
0.0
  3
*U78
  1

  0
TEXT
  5
1AC8
  8
SAPA_MATT
 62
     2
 10
-34.400295275590693
 20
73.348818897637784
 30
0.0
 40
3.0
  1
120
 50
90.0
  7
ISO
  0
ENDBLK
  5
1ACA
  8
0
  0
BLOCK
  8
0
  2
*U79
 70
     1
 10
0.0
 20
0.0
 30
0.0
  3
*U79
  1

  0
TEXT
  5
1ACC
  8
SAPA_MATT
 62
     2
 10
14.588582677165251
 20
244.19616232240691
 30
0.0
 40
3.0
  1
60
  7
ISO
  0
ENDBLK
  5
1ACE
  8
0
  0
BLOCK
  8
0
  2
*U80
 70
     1
 10
0.0
 20
0.0
 30
0.0
  3
*U80
  1

  0
TEXT
  5
1AD0
  8
SAPA_MATT
 62
     2
 10
-46.400000000000119
 20
110.7826264699026
 30
0.0
 40
3.0
  1
195
 50
90.0
  7
ISO
  0
ENDBLK
  5
1AD2
  8
0
  0
ENDSEC
  0
SECTION
  2
ENTITIES
  0
LINE
  5
16B
  8
SAPA_ANSLUTNING
 10
57.531708941802961
 20
221.19616232240691
 30
0.0
 11
-24.502554041098559
 21
221.19616232240691
 31
0.0
  0
TEXT
  5
195
  8
SAPA_ARTIKELNR
 10
47.070569778627672
 20
182.03579301532119
 30
0.0
 40
3.5
  1
68005
 50
90.0
  7
ISO
  0
TEXT
  5
197
  8
SAPA_ARTIKELNR
 10
53.097771137475277
 20
142.17754745465271
 30
0.0
 40
3.5
  1
42138
 50
90.0
  7
ISO
  0
TEXT
  5
198
  8
SAPA_ARTIKELNR
 10
-15.48317003855567
 20
145.21211150651791
 30
0.0
 40
3.5
  1
42138
 50
90.0
  7
ISO
  0
TEXT
  5
199
  8
SAPA_ARTIKELNR
 10
53.097771137475277
 20
79.248006407463492
 30
0.0
 40
3.5
  1
68057
 50
90.0
  7
ISO
  0
POLYLINE
  5
28D
  8
SAPA_ANSLUTNING
 66
     1
 10
0.0
 20
0.0
 30
0.0
 70
     1
1001
ACAD
1000
ASC_BOUNDS
1002
{
1070
    19
1005
2F4
1002
}
  0
VERTEX
  5
1460
  8
SAPA_ANSLUTNING
 10
-5.3251174677562432
 20
208.8711995413789
 30
0.0
  0
VERTEX
  5
1461
  8
SAPA_ANSLUTNING
 10
-3.922017512671629
 20
208.8711995413789
 30
0.0
  0
VERTEX
  5
1462
  8
SAPA_ANSLUTNING
 10
-3.922017512671629
 20
210.32209659742551
 30
0.0
  0
VERTEX
  5
1463
  8
SAPA_ANSLUTNING
 10
-5.075277542098461
 20
211.6964983806902
 30
0.0
  0
VERTEX
  5
1464
  8
SAPA_ANSLUTNING
 10
-8.2251174677562204
 20
211.6964983806902
 30
0.0
  0
VERTEX
  5
1465
  8
SAPA_ANSLUTNING
 10
-8.2251174677562204
 20
220.6964983806902
 30
0.0
  0
VERTEX
  5
1466
  8
SAPA_ANSLUTNING
 10
1.7748825322437789
 20
220.6964983806902
 30
0.0
  0
VERTEX
  5
1467
  8
SAPA_ANSLUTNING
 10
1.7748825322437789
 20
206.6964983806902
 30
0.0
  0
VERTEX
  5
1468
  8
SAPA_ANSLUTNING
 10
-5.34175670595718
 20
206.6964983806902
 30
0.0
 42
-1.0039478385010081
  0
SEQEND
  5
1469
  8
SAPA_ANSLUTNING
  0
POLYLINE
  5
28E
  8
SAPA_ANSLUTNING
 66
     1
 10
0.0
 20
0.0
 30
0.0
 70
     1
1001
ACAD
1000
ASC_BOUNDS
1002
{
1070
    19
1005
2F4
1002
}
  0
VERTEX
  5
146A
  8
SAPA_ANSLUTNING
 10
29.920602792390799
 20
213.6972352327995
 30
0.0
 42
-0.0538647880861898
  0
VERTEX
  5
146B
  8
SAPA_ANSLUTNING
 10
30.243680237216012
 20
216.68750099266271
 30
0.0
 42
-0.0677080186897121
  0
VERTEX
  5
146C
  8
SAPA_ANSLUTNING
 10
31.06655837123607
 20
218.9385647418548
 30
0.0
 42
-0.1053277233169234
  0
VERTEX
  5
146D
  8
SAPA_ANSLUTNING
 10
32.491920348086268
 20
220.6461715881658
 30
0.0
 42
-0.1678920096872386
  0
VERTEX
  5
146E
  8
SAPA_ANSLUTNING
 10
33.833139871561428
 20
221.10959450937179
 30
0.0
 42
-0.1678920096872382
  0
VERTEX
  5
146F
  8
SAPA_ANSLUTNING
 10
35.174359395036603
 20
220.6461715881658
 30
0.0
 42
-0.1053277233169209
  0
VERTEX
  5
1470
  8
SAPA_ANSLUTNING
 10
36.599721371886787
 20
218.9385647418548
 30
0.0
 42
-0.06770801868971
  0
VERTEX
  5
1471
  8
SAPA_ANSLUTNING
 10
37.422599505906852
 20
216.68750099266279
 30
0.0
 42
-0.053864788086187
  0
VERTEX
  5
1472
  8
SAPA_ANSLUTNING
 10
37.745676950732047
 20
213.6972352327995
 30
0.0
 42
-0.0538647880861851
  0
VERTEX
  5
1473
  8
SAPA_ANSLUTNING
 10
37.422599505906859
 20
210.70696947293629
 30
0.0
 42
-0.0677080186897099
  0
VERTEX
  5
1474
  8
SAPA_ANSLUTNING
 10
36.599721371886787
 20
208.45590572374439
 30
0.0
 42
-0.1053277233169203
  0
VERTEX
  5
1475
  8
SAPA_ANSLUTNING
 10
35.174359395036603
 20
206.7482988774334
 30
0.0
 42
-0.1678920096872382
  0
VERTEX
  5
1476
  8
SAPA_ANSLUTNING
 10
33.833139871561428
 20
206.28487595622741
 30
0.0
 42
-0.167892009687245
  0
VERTEX
  5
1477
  8
SAPA_ANSLUTNING
 10
32.491920348086239
 20
206.7482988774334
 30
0.0
 42
-0.1053277233169226
  0
VERTEX
  5
1478
  8
SAPA_ANSLUTNING
 10
31.06655837123607
 20
208.45590572374439
 30
0.0
 42
-0.0677080186897082
  0
VERTEX
  5
1479
  8
SAPA_ANSLUTNING
 10
30.243680237216001
 20
210.70696947293629
 30
0.0
 42
-0.0538647880861872
  0
SEQEND
  5
147A
  8
SAPA_ANSLUTNING
  0
ARC
  5
28F
  8
SAPA_ANSLUTNING
 10
53.568378558050583
 20
216.1963303515486
 30
0.0
 40
12.809561594665579
 50
157.02556890674009
 51
202.97443109325991
  0
POLYLINE
  5
293
  8
SAPA_ANSLUTNING
 66
     1
 10
0.0
 20
0.0
 30
0.0
  0
VERTEX
  5
147B
  8
SAPA_ANSLUTNING
 10
2.7137265757919802
 20
208.68637564103861
 30
0.0
 42
1.0
  0
VERTEX
  5
147C
  8
SAPA_ANSLUTNING
 10
6.7137265757919797
 20
208.68637564103861
 30
0.0
  0
VERTEX
  5
147D
  8
SAPA_ANSLUTNING
 10
6.7137265757917532
 20
219.1429860874874
 30
0.0
 42
-0.9999989466455052
  0
VERTEX
  5
147E
  8
SAPA_ANSLUTNING
 10
10.71372657578743
 20
219.1429903009076
 30
0.0
  0
VERTEX
  5
147F
  8
SAPA_ANSLUTNING
 10
10.71372657578743
 20
213.14298937332009
 30
0.0
 42
1.0
  0
VERTEX
  5
1480
  8
SAPA_ANSLUTNING
 10
14.71372657578743
 20
213.14298937332009
 30
0.0
  0
VERTEX
  5
1481
  8
SAPA_ANSLUTNING
 10
14.713726575787319
 20
219.14299293268579
 30
0.0
 42
-0.9999974985601644
  0
VERTEX
  5
1482
  8
SAPA_ANSLUTNING
 10
18.7137265757748
 20
219.14299293268579
 30
0.0
  0
VERTEX
  5
1483
  8
SAPA_ANSLUTNING
 10
18.713726575774679
 20
213.14298937332009
 30
0.0
 42
1.0
  0
VERTEX
  5
1484
  8
SAPA_ANSLUTNING
 10
22.713726575774711
 20
213.14298937332009
 30
0.0
  0
VERTEX
  5
1485
  8
SAPA_ANSLUTNING
 10
22.7137265757747
 20
219.1429903009076
 30
0.0
 42
-0.9999989466455052
  0
VERTEX
  5
1486
  8
SAPA_ANSLUTNING
 10
26.71372657577038
 20
219.1429860874874
 30
0.0
  0
VERTEX
  5
1487
  8
SAPA_ANSLUTNING
 10
26.713726575770149
 20
208.68637564103861
 30
0.0
 42
1.0
  0
VERTEX
  5
1488
  8
SAPA_ANSLUTNING
 10
30.713726575770149
 20
208.68637564103861
 30
0.0
  0
SEQEND
  5
1489
  8
SAPA_ANSLUTNING
  0
INSERT
  5
2F4
  8
SAPA_ANSLUTNING
  6
CONTINUOUS
  2
*X69
 10
0.0
 20
0.0
 30
0.0
1001
ACAD
1000
HATCH
1002
{
1070
    19
1000
HEX
1040
7.0
1040
0.0
1000
ASC_BOUNDS
1070
     2
1070
     1
1070
     1
1005
28E
1070
     1
1070
     1
1005
28D
1000
ASC_SEEDPOINT
1011
-2.7111486052279901
1021
0.0
1031
0.0
1021
216.96935765333501
1031
0.0
1000
R14_HATCH_DATA
1000
2F4
1011
1.0
1021
0.0
1031
0.0
1021
0.0
1031
0.0
1011
0.0
1021
0.0
1031
0.0
1021
1.0
1031
0.0
1011
0.0
1021
0.0
1031
0.0
1021
0.0
1031
1.0
1040
0.0
1010
0.0
1020
0.0
1030
1.0
1000
HEX
1070
     0
1070
     1
1071
        2
1071
        7
1070
     1
1070
     1
1071
        9
1040
-8.2251174677562204
1040
220.6964983806902
1040
0.0
1040
-8.2251174677562204
1040
211.6964983806902
1040
0.0
1040
-5.0752775420984442
1040
211.6964983806902
1040
0.0
1040
-3.922017512671629
1040
210.32209659742551
1040
0.0
1040
-3.922017512671629
1040
208.8711995413789
1040
0.0
1040
-5.3503251947416119
1040
208.8711995413789
1040
0.9923779948559721
1040
-5.34175670595718
1040
206.6964983806902
1040
0.0
1040
1.7748825322437789
1040
206.6964983806902
1040
0.0
1040
1.7748825322437789
1040
220.6964983806902
1040
0.0
1071
        1
1005
28D
1071
        7
1070
     1
1070
     1
1071
       16
1040
37.422599505906852
1040
216.68750099266271
1040
0.0677080186897125
1040
36.59972137188678
1040
218.9385647418548
1040
0.1053277233169188
1040
35.174359395036632
1040
220.6461715881658
1040
0.1678920096872427
1040
33.833139871561428
1040
221.10959450937179
1040
0.1678920096872353
1040
32.491920348086303
1040
220.6461715881658
1040
0.1053277233169349
1040
31.066558371235971
1040
218.93856474185461
1040
0.0677080186896919
1040
30.2436802372161
1040
216.68750099266319
1040
0.0538647880861987
1040
29.920602792390799
1040
213.6972352327995
1040
0.0538647880861799
1040
30.243680237215901
1040
210.70696947293669
1040
0.0677080186897271
1040
31.066558371236191
1040
208.45590572374411
1040
0.1053277233169103
1040
32.491920348086232
1040
206.7482988774334
1040
0.1678920096872458
1040
33.833139871561428
1040
206.28487595622741
1040
0.1678920096872419
1040
35.174359395036632
1040
206.7482988774334
1040
0.1053277233169149
1040
36.599721371886737
1040
208.45590572374431
1040
0.0677080186897307
1040
37.422599505906987
1040
210.706969472937
1040
0.0538647880861732
1040
37.745676950732047
1040
213.6972352327995
1040
0.0538647880861854
1071
        1
1005
28E
1070
     0
1070
     1
1040
0.0
1040
7.0
1070
     0
1070
     3
1040
0.0
1040
-88.164868393922106
1040
-326.14446176661181
1040
0.0
1040
1.5155444570000001
1070
     2
1040
0.875
1040
-1.75
1040
2.0943951023931948
1040
-88.164868393922106
1040
-326.14446176661181
1040
-1.312500000326692
1040
-0.7577722284999997
1070
     2
1040
0.8749999999999998
1040
-1.7499999999999989
1040
1.047197551196597
1040
-87.289868393922106
1040
-326.14446176661181
1040
-1.312500000326692
1040
0.7577722285000003
1070
     2
1040
0.875
1040
-1.75
1040
0.1004818818266199
1071
        2
1040
-2.7111486052279901
1040
216.96935765333501
1040
0.0
1040
35.490598271014854
1040
215.5626107751558
1040
0.0
1002
}
  0
INSERT
  5
308
  8
SAPA_ANSLUTNING
  6
CONTINUOUS
  2
*X70
 10
0.0
 20
0.0
 30
0.0
1001
ACAD
1000
HATCH
1002
{
1070
    19
1000
ANSI37
1040
10.0
1040
0.0
1000
R14_HATCH_DATA
1000
308
1011
1.0
1021
0.0
1031
0.0
1021
0.0
1031
0.0
1011
0.0
1021
0.0
1031
0.0
1021
1.0
1031
0.0
1011
0.0
1021
0.0
1031
0.0
1021
0.0
1031
1.0
1040
0.0
1010
0.0
1020
0.0
1030
1.0
1000
ANSI37
1070
     0
1070
     0
1071
        1
1071
        7
1070
     1
1070
     1
1071
       14
1040
41.774882532244028
1040
221.19616232240691
1040
0.0
1040
33.833139871561428
1040
221.19616232240691
1040
0.0
1040
33.833139871561428
1040
221.10959450937179
1040
-0.1678920096872382
1040
35.174359395036603
1040
220.6461715881658
1040
-0.1053277233169209
1040
36.599721371886787
1040
218.9385647418548
1040
-0.06770801868971
1040
37.422599505906852
1040
216.68750099266279
1040
-0.053864788086187
1040
37.745676950732047
1040
213.6972352327995
1040
-0.0538647880861851
1040
37.422599505906859
1040
210.70696947293629
1040
-0.0677080186897096
1040
36.599721371886808
1040
208.45590572374439
1040
0.0
1040
37.600000000000037
1040
209.20000000000019
1040
0.0
1040
37.600000000000037
1040
210.20000000000019
1040
0.0
1040
38.60000000000008
1040
211.20000000000019
1040
0.0
1040
41.600000000000662
1040
211.20000000000019
1040
0.0
1040
41.77488253224417
1040
211.19649838069
1040
-0.2032199431463407
1071
        0
1070
     0
1070
     1
1040
0.0
1040
10.0
1070
     0
1070
     2
1040
0.7853981633974483
1040
-88.164868393922106
1040
-326.14446176661181
1040
-0.8838834764831842
1040
0.8838834764831844
1070
     0
1040
2.3561944901923439
1040
-88.164868393922106
1040
-326.14446176661181
1040
-0.8838834764831844
1040
-0.8838834764831842
1070
     0
1040
0.0390651268545045
1071
        1
1040
39.407611092569539
1040
217.93841569225771
1040
0.0
1002
}
  0
POLYLINE
  5
352
  8
SAPA_LIGHT
 66
     1
 10
0.0
 20
0.0
 30
0.0
 70
     1
  0
VERTEX
  5
1557
  8
SAPA_LIGHT
 10
-8.3999999999999915
 20
211.20000000000019
 30
0.0
  0
VERTEX
  5
1558
  8
SAPA_LIGHT
 10
41.60000000000003
 20
211.20000000000019
 30
0.0
  0
VERTEX
  5
1559
  8
SAPA_LIGHT
 10
41.60000000000003
 20
157.2031420000003
 30
0.0
  0
VERTEX
  5
155A
  8
SAPA_LIGHT
 10
-8.3999999999999915
 20
157.2031420000003
 30
0.0
  0
SEQEND
  5
155B
  8
SAPA_LIGHT
  0
POLYLINE
  5
353
  8
SAPA_LIGHT
 66
     1
 10
0.0
 20
0.0
 30
0.0
  0
VERTEX
  5
155C
  8
SAPA_LIGHT
 10
0.5000000000003518
 20
16.199999999997569
 30
0.0
  0
VERTEX
  5
155D
  8
SAPA_LIGHT
 10
-13.4000000000001
 20
16.199999999999871
 30
0.0
  0
VERTEX
  5
155E
  8
SAPA_LIGHT
 10
-13.4000000000001
 20
145.1968580000003
 30
0.0
  0
VERTEX
  5
155F
  8
SAPA_LIGHT
 10
46.599999999999923
 20
145.1968580000003
 30
0.0
  0
VERTEX
  5
1560
  8
SAPA_LIGHT
 10
46.599999999999952
 20
16.199999999997662
 30
0.0
  0
VERTEX
  5
1561
  8
SAPA_LIGHT
 10
6.5000000000003482
 20
16.199999999997662
 30
0.0
  0
SEQEND
  5
1562
  8
SAPA_LIGHT
  0
POLYLINE
  5
354
  8
SAPA_LIGHT
 66
     1
 10
0.0
 20
0.0
 30
0.0
  0
VERTEX
  5
1563
  8
SAPA_LIGHT
 10
0.5000000000003535
 20
-0.000000000006537
 30
0.0
  0
VERTEX
  5
1564
  8
SAPA_LIGHT
 10
0.5000000000003535
 20
33.199999999993388
 30
0.0
  0
VERTEX
  5
1565
  8
SAPA_LIGHT
 10
6.5000000000003526
 20
33.199999999993388
 30
0.0
  0
VERTEX
  5
1566
  8
SAPA_LIGHT
 10
6.5000000000003526
 20
-0.0000000000065938
 30
0.0
  0
VERTEX
  5
1567
  8
SAPA_LIGHT
 10
0.5000000000003535
 20
-0.000000000006537
 30
0.0
  0
SEQEND
  5
1568
  8
SAPA_LIGHT
  0
LINE
  5
3D1
  8
SAPA_LIGHT
 10
57.531708941802961
 20
221.19616232240691
 30
0.0
 11
-24.502554041098559
 21
221.19616232240691
 31
0.0
  0
LINE
  5
1396
  8
SAPA_PROFIL
 10
-4.399999999994975
 20
25.49999999999595
 30
0.0
 11
-4.399999999994975
 21
25.49999999999595
 31
0.0
  0
POLYLINE
  5
1397
  8
SAPA_PROFIL
 66
     1
 10
0.0
 20
0.0
 30
0.0
 70
     1
  0
VERTEX
  5
1749
  8
SAPA_PROFIL
 10
14.600000000000019
 20
41.499999999999929
 30
0.0
 42
0.4142135623730951
  0
VERTEX
  5
174A
  8
SAPA_PROFIL
 10
14.89999999999997
 20
41.199999999999847
 30
0.0
  0
VERTEX
  5
174B
  8
SAPA_PROFIL
 10
15.733974596215029
 20
41.199999999999847
 30
0.0
  0
VERTEX
  5
174C
  8
SAPA_PROFIL
 10
16.600000000000019
 20
40.699999999999861
 30
0.0
  0
VERTEX
  5
174D
  8
SAPA_PROFIL
 10
17.466025403783991
 20
41.199999999999847
 30
0.0
  0
VERTEX
  5
174E
  8
SAPA_PROFIL
 10
18.300000000000072
 20
41.199999999999847
 30
0.0
 42
0.4142135623730951
  0
VERTEX
  5
174F
  8
SAPA_PROFIL
 10
18.600000000000019
 20
41.499999999999929
 30
0.0
  0
VERTEX
  5
1750
  8
SAPA_PROFIL
 10
18.600000000000019
 20
45.199999999999861
 30
0.0
  0
VERTEX
  5
1751
  8
SAPA_PROFIL
 10
19.600000000000019
 20
46.199999999999847
 30
0.0
  0
VERTEX
  5
1752
  8
SAPA_PROFIL
 10
33.699999999999932
 20
46.199999999999868
 30
0.0
 42
0.4142135623730951
  0
VERTEX
  5
1753
  8
SAPA_PROFIL
 10
34.0
 20
46.499999999999943
 30
0.0
  0
VERTEX
  5
1754
  8
SAPA_PROFIL
 10
34.0
 20
49.89999999999992
 30
0.0
 42
-0.4142135623730951
  0
VERTEX
  5
1755
  8
SAPA_PROFIL
 10
34.300000000000068
 20
50.199999999999882
 30
0.0
  0
VERTEX
  5
1756
  8
SAPA_PROFIL
 10
35.899999999999977
 20
50.199999999999882
 30
0.0
 42
-0.4142135623730951
  0
VERTEX
  5
1757
  8
SAPA_PROFIL
 10
36.199999999999932
 20
49.89999999999992
 30
0.0
  0
VERTEX
  5
1758
  8
SAPA_PROFIL
 10
36.199999999999932
 20
46.499999999999943
 30
0.0
 42
0.4142135623730951
  0
VERTEX
  5
1759
  8
SAPA_PROFIL
 10
36.5
 20
46.199999999999868
 30
0.0
  0
VERTEX
  5
175A
  8
SAPA_PROFIL
 10
43.300000000000068
 20
46.199999999999868
 30
0.0
 42
0.4142135623730951
  0
VERTEX
  5
175B
  8
SAPA_PROFIL
 10
43.600000000000023
 20
46.499999999999943
 30
0.0
  0
VERTEX
  5
175C
  8
SAPA_PROFIL
 10
43.600000000000023
 20
122.6999999999998
 30
0.0
 42
0.4142135623730951
  0
VERTEX
  5
175D
  8
SAPA_PROFIL
 10
43.300000000000068
 20
122.9999999999999
 30
0.0
  0
VERTEX
  5
175E
  8
SAPA_PROFIL
 10
36.5
 20
122.9999999999999
 30
0.0
 42
0.4142135623730951
  0
VERTEX
  5
175F
  8
SAPA_PROFIL
 10
36.199999999999932
 20
122.6999999999998
 30
0.0
  0
VERTEX
  5
1760
  8
SAPA_PROFIL
 10
36.199999999999932
 20
119.2999999999999
 30
0.0
 42
-0.4142135623730951
  0
VERTEX
  5
1761
  8
SAPA_PROFIL
 10
35.899999999999977
 20
118.9999999999999
 30
0.0
  0
VERTEX
  5
1762
  8
SAPA_PROFIL
 10
34.300000000000068
 20
118.9999999999998
 30
0.0
 42
-0.4142135623730951
  0
VERTEX
  5
1763
  8
SAPA_PROFIL
 10
34.0
 20
119.2999999999999
 30
0.0
  0
VERTEX
  5
1764
  8
SAPA_PROFIL
 10
34.0
 20
123.89999999999991
 30
0.0
 42
0.4142135623730951
  0
VERTEX
  5
1765
  8
SAPA_PROFIL
 10
33.699999999999932
 20
124.1999999999998
 30
0.0
  0
VERTEX
  5
1766
  8
SAPA_PROFIL
 10
-0.5
 20
124.1999999999998
 30
0.0
 42
0.4142135623730951
  0
VERTEX
  5
1767
  8
SAPA_PROFIL
 10
-0.8000000000000682
 20
123.89999999999991
 30
0.0
  0
VERTEX
  5
1768
  8
SAPA_PROFIL
 10
-0.8000000000000682
 20
119.2999999999999
 30
0.0
 42
-0.4142135623730951
  0
VERTEX
  5
1769
  8
SAPA_PROFIL
 10
-1.1000000000000221
 20
118.9999999999998
 30
0.0
  0
VERTEX
  5
176A
  8
SAPA_PROFIL
 10
-2.6999999999999309
 20
118.9999999999999
 30
0.0
 42
-0.4142135623730951
  0
VERTEX
  5
176B
  8
SAPA_PROFIL
 10
-3.0
 20
119.2999999999999
 30
0.0
  0
VERTEX
  5
176C
  8
SAPA_PROFIL
 10
-3.0
 20
122.6999999999998
 30
0.0
 42
0.4142135623730951
  0
VERTEX
  5
176D
  8
SAPA_PROFIL
 10
-3.3000000000000682
 20
122.9999999999999
 30
0.0
  0
VERTEX
  5
176E
  8
SAPA_PROFIL
 10
-10.100000000000019
 20
122.9999999999999
 30
0.0
 42
0.4142135623730951
  0
VERTEX
  5
176F
  8
SAPA_PROFIL
 10
-10.399999999999981
 20
122.6999999999998
 30
0.0
  0
VERTEX
  5
1770
  8
SAPA_PROFIL
 10
-10.399999999999981
 20
45.699999999999861
 30
0.0
  0
VERTEX
  5
1771
  8
SAPA_PROFIL
 10
-6.987867965643999
 20
42.287867965643883
 30
0.0
 42
0.1989123673797207
  0
VERTEX
  5
1772
  8
SAPA_PROFIL
 10
-6.7757359312880681
 20
42.199999999999861
 30
0.0
  0
VERTEX
  5
1773
  8
SAPA_PROFIL
 10
-3.3000000000000682
 20
42.199999999999861
 30
0.0
 42
0.4142135623730951
  0
VERTEX
  5
1774
  8
SAPA_PROFIL
 10
-3.0
 20
42.499999999999922
 30
0.0
  0
VERTEX
  5
1775
  8
SAPA_PROFIL
 10
-3.0
 20
49.899999999999913
 30
0.0
 42
-0.4142135623730951
  0
VERTEX
  5
1776
  8
SAPA_PROFIL
 10
-2.6999999999999309
 20
50.199999999999861
 30
0.0
  0
VERTEX
  5
1777
  8
SAPA_PROFIL
 10
-1.1000000000000221
 20
50.199999999999861
 30
0.0
 42
-0.4142135623730951
  0
VERTEX
  5
1778
  8
SAPA_PROFIL
 10
-0.8000000000000682
 20
49.899999999999913
 30
0.0
  0
VERTEX
  5
1779
  8
SAPA_PROFIL
 10
-0.8000000000000682
 20
41.499999999999929
 30
0.0
 42
0.4142135623730951
  0
VERTEX
  5
177A
  8
SAPA_PROFIL
 10
-0.5
 20
41.199999999999847
 30
0.0
  0
VERTEX
  5
177B
  8
SAPA_PROFIL
 10
12.30000000000007
 20
41.199999999999847
 30
0.0
 42
0.4142135623730951
  0
VERTEX
  5
177C
  8
SAPA_PROFIL
 10
12.600000000000019
 20
41.499999999999929
 30
0.0
  0
VERTEX
  5
177D
  8
SAPA_PROFIL
 10
12.600000000000019
 20
45.499999999999922
 30
0.0
 42
-0.6681786379192989
  0
VERTEX
  5
177E
  8
SAPA_PROFIL
 10
13.45355339059336
 20
45.853553390593142
 30
0.0
  0
VERTEX
  5
177F
  8
SAPA_PROFIL
 10
14.600000000000019
 20
44.707106781186937
 30
0.0
  0
SEQEND
  5
1780
  8
SAPA_PROFIL
  0
POLYLINE
  5
1398
  8
SAPA_PROFIL
 66
     1
 10
0.0
 20
0.0
 30
0.0
 70
     1
  0
VERTEX
  5
1781
  8
SAPA_PROFIL
 10
-13.399999999999981
 20
130.9573593128809
 30
0.0
 42
-0.1989123673796595
  0
VERTEX
  5
1782
  8
SAPA_PROFIL
 10
-12.521320343559641
 20
133.0786796564405
 30
0.0
  0
VERTEX
  5
1783
  8
SAPA_PROFIL
 10
-9.6928932188139925
 20
135.907106781187
 30
0.0
 42
-0.1989123673796811
  0
VERTEX
  5
1784
  8
SAPA_PROFIL
 10
-8.9857864376269845
 20
136.19999999999979
 30
0.0
  0
VERTEX
  5
1785
  8
SAPA_PROFIL
 10
-6.6000000000001364
 20
136.2000000000003
 30
0.0
 42
-0.2504916501726618
  0
VERTEX
  5
1786
  8
SAPA_PROFIL
 10
-5.5999999999999091
 20
135.19999999999979
 30
0.0
  0
VERTEX
  5
1787
  8
SAPA_PROFIL
 10
-5.5999999999997954
 20
134.49999999999989
 30
0.0
 42
-0.4142135623730951
  0
VERTEX
  5
1788
  8
SAPA_PROFIL
 10
-5.8999999999998627
 20
134.19999999999979
 30
0.0
  0
VERTEX
  5
1789
  8
SAPA_PROFIL
 10
-6.3499999999999091
 20
134.19999999999979
 30
0.0
 42
0.4142135623730951
  0
VERTEX
  5
178A
  8
SAPA_PROFIL
 10
-6.6499999999998627
 20
133.89999999999989
 30
0.0
  0
VERTEX
  5
178B
  8
SAPA_PROFIL
 10
-6.6499999999998627
 20
133.19999999999999
 30
0.0
 42
0.4142135623731506
  0
VERTEX
  5
178C
  8
SAPA_PROFIL
 10
-6.3499999999999091
 20
132.89999999999989
 30
0.0
  0
VERTEX
  5
178D
  8
SAPA_PROFIL
 10
-5.8999999999998627
 20
132.89999999999989
 30
0.0
 42
-0.4142135623731506
  0
VERTEX
  5
178E
  8
SAPA_PROFIL
 10
-5.5999999999999091
 20
132.59999999999991
 30
0.0
  0
VERTEX
  5
178F
  8
SAPA_PROFIL
 10
-5.5999999999997954
 20
132.09999999999991
 30
0.0
 42
-0.4142135623730951
  0
VERTEX
  5
1790
  8
SAPA_PROFIL
 10
-6.0999999999997954
 20
131.59999999999991
 30
0.0
  0
VERTEX
  5
1791
  8
SAPA_PROFIL
 10
-7.4999999999997717
 20
131.59999999999991
 30
0.0
 42
0.4142135623730951
  0
VERTEX
  5
1792
  8
SAPA_PROFIL
 10
-8.4999999999997726
 20
130.59999999999991
 30
0.0
  0
VERTEX
  5
1793
  8
SAPA_PROFIL
 10
-8.4999999999998863
 20
130.19999999999979
 30
0.0
 42
0.9999999999999998
  0
VERTEX
  5
1794
  8
SAPA_PROFIL
 10
-1.29999999999984
 20
130.19999999999979
 30
0.0
  0
VERTEX
  5
1795
  8
SAPA_PROFIL
 10
-1.299999999999613
 20
131.30000000000001
 30
0.0
 42
0.4142135623732059
  0
VERTEX
  5
1796
  8
SAPA_PROFIL
 10
-1.5999999999997949
 20
131.59999999999999
 30
0.0
  0
VERTEX
  5
1797
  8
SAPA_PROFIL
 10
-1.899999999999749
 20
131.5999999999998
 30
0.0
 42
-0.4142135623733948
  0
VERTEX
  5
1798
  8
SAPA_PROFIL
 10
-2.3999999999999768
 20
132.09999999999991
 30
0.0
  0
VERTEX
  5
1799
  8
SAPA_PROFIL
 10
-2.3999999999999768
 20
132.59999999999991
 30
0.0
 42
-0.4142135623730397
  0
VERTEX
  5
179A
  8
SAPA_PROFIL
 10
-2.1000000000000218
 20
132.89999999999989
 30
0.0
  0
VERTEX
  5
179B
  8
SAPA_PROFIL
 10
-1.6499999999998629
 20
132.89999999999989
 30
0.0
 42
0.4142135623731505
  0
VERTEX
  5
179C
  8
SAPA_PROFIL
 10
-1.3499999999999091
 20
133.19999999999999
 30
0.0
  0
VERTEX
  5
179D
  8
SAPA_PROFIL
 10
-1.3499999999997949
 20
133.89999999999989
 30
0.0
 42
0.4142135623730951
  0
VERTEX
  5
179E
  8
SAPA_PROFIL
 10
-1.6499999999998629
 20
134.19999999999979
 30
0.0
  0
VERTEX
  5
179F
  8
SAPA_PROFIL
 10
-2.1000000000000218
 20
134.19999999999979
 30
0.0
 42
-0.4142135623730951
  0
VERTEX
  5
17A0
  8
SAPA_PROFIL
 10
-2.3999999999999768
 20
134.49999999999989
 30
0.0
  0
VERTEX
  5
17A1
  8
SAPA_PROFIL
 10
-2.3999999999995221
 20
135.2000000000003
 30
0.0
 42
-0.2504916501726643
  0
VERTEX
  5
17A2
  8
SAPA_PROFIL
 10
-1.400000000000545
 20
136.2000000000003
 30
0.0
  0
VERTEX
  5
17A3
  8
SAPA_PROFIL
 10
0.8999999999999772
 20
136.19999999999979
 30
0.0
 42
-0.4142135623730951
  0
VERTEX
  5
17A4
  8
SAPA_PROFIL
 10
1.899999999999977
 20
135.19999999999979
 30
0.0
  0
VERTEX
  5
17A5
  8
SAPA_PROFIL
 10
1.899999999999977
 20
127.4999999999999
 30
0.0
 42
0.4142135623730951
  0
VERTEX
  5
17A6
  8
SAPA_PROFIL
 10
2.1999999999999309
 20
127.1999999999998
 30
0.0
  0
VERTEX
  5
17A7
  8
SAPA_PROFIL
 10
15.733974596215029
 20
127.1999999999998
 30
0.0
  0
VERTEX
  5
17A8
  8
SAPA_PROFIL
 10
16.600000000000019
 20
126.6999999999998
 30
0.0
  0
VERTEX
  5
17A9
  8
SAPA_PROFIL
 10
17.466025403783991
 20
127.1999999999998
 30
0.0
  0
VERTEX
  5
17AA
  8
SAPA_PROFIL
 10
31.0
 20
127.1999999999998
 30
0.0
 42
0.4142135623730951
  0
VERTEX
  5
17AB
  8
SAPA_PROFIL
 10
31.300000000000072
 20
127.4999999999999
 30
0.0
  0
VERTEX
  5
17AC
  8
SAPA_PROFIL
 10
31.300000000000072
 20
135.19999999999979
 30
0.0
 42
-0.4142135623730951
  0
VERTEX
  5
17AD
  8
SAPA_PROFIL
 10
32.300000000000068
 20
136.19999999999979
 30
0.0
  0
VERTEX
  5
17AE
  8
SAPA_PROFIL
 10
34.60000000000003
 20
136.19999999999979
 30
0.0
 42
-0.2504916501726643
  0
VERTEX
  5
17AF
  8
SAPA_PROFIL
 10
35.599999999999568
 20
135.2000000000003
 30
0.0
  0
VERTEX
  5
17B0
  8
SAPA_PROFIL
 10
35.600000000000023
 20
134.49999999999989
 30
0.0
 42
-0.4142135623730951
  0
VERTEX
  5
17B1
  8
SAPA_PROFIL
 10
35.300000000000068
 20
134.19999999999979
 30
0.0
  0
VERTEX
  5
17B2
  8
SAPA_PROFIL
 10
34.849999999999909
 20
134.19999999999979
 30
0.0
 42
0.4142135623730951
  0
VERTEX
  5
17B3
  8
SAPA_PROFIL
 10
34.549999999999841
 20
133.89999999999989
 30
0.0
  0
VERTEX
  5
17B4
  8
SAPA_PROFIL
 10
34.549999999999962
 20
133.19999999999999
 30
0.0
 42
0.4142135623731506
  0
VERTEX
  5
17B5
  8
SAPA_PROFIL
 10
34.849999999999909
 20
132.89999999999989
 30
0.0
  0
VERTEX
  5
17B6
  8
SAPA_PROFIL
 10
35.300000000000068
 20
132.89999999999989
 30
0.0
 42
-0.4142135623730397
  0
VERTEX
  5
17B7
  8
SAPA_PROFIL
 10
35.600000000000023
 20
132.59999999999991
 30
0.0
  0
VERTEX
  5
17B8
  8
SAPA_PROFIL
 10
35.600000000000023
 20
132.09999999999991
 30
0.0
 42
-0.4142135623733948
  0
VERTEX
  5
17B9
  8
SAPA_PROFIL
 10
35.099999999999802
 20
131.5999999999998
 30
0.0
  0
VERTEX
  5
17BA
  8
SAPA_PROFIL
 10
34.799999999999841
 20
131.59999999999999
 30
0.0
 42
0.4142135623732059
  0
VERTEX
  5
17BB
  8
SAPA_PROFIL
 10
34.499999999999659
 20
131.30000000000001
 30
0.0
  0
VERTEX
  5
17BC
  8
SAPA_PROFIL
 10
34.499999999999893
 20
130.19999999999979
 30
0.0
 42
0.9999999999999998
  0
VERTEX
  5
17BD
  8
SAPA_PROFIL
 10
41.699999999999932
 20
130.19999999999979
 30
0.0
  0
VERTEX
  5
17BE
  8
SAPA_PROFIL
 10
41.699999999999818
 20
130.59999999999991
 30
0.0
 42
0.4142135623730951
  0
VERTEX
  5
17BF
  8
SAPA_PROFIL
 10
40.699999999999811
 20
131.59999999999991
 30
0.0
  0
VERTEX
  5
17C0
  8
SAPA_PROFIL
 10
39.299999999999841
 20
131.59999999999991
 30
0.0
 42
-0.4142135623730951
  0
VERTEX
  5
17C1
  8
SAPA_PROFIL
 10
38.799999999999841
 20
132.09999999999991
 30
0.0
  0
VERTEX
  5
17C2
  8
SAPA_PROFIL
 10
38.799999999999947
 20
132.59999999999991
 30
0.0
 42
-0.4142135623731506
  0
VERTEX
  5
17C3
  8
SAPA_PROFIL
 10
39.099999999999909
 20
132.89999999999989
 30
0.0
  0
VERTEX
  5
17C4
  8
SAPA_PROFIL
 10
39.549999999999962
 20
132.89999999999989
 30
0.0
 42
0.4142135623731505
  0
VERTEX
  5
17C5
  8
SAPA_PROFIL
 10
39.849999999999909
 20
133.19999999999999
 30
0.0
  0
VERTEX
  5
17C6
  8
SAPA_PROFIL
 10
39.849999999999909
 20
133.89999999999989
 30
0.0
 42
0.4142135623730951
  0
VERTEX
  5
17C7
  8
SAPA_PROFIL
 10
39.549999999999962
 20
134.19999999999979
 30
0.0
  0
VERTEX
  5
17C8
  8
SAPA_PROFIL
 10
39.099999999999909
 20
134.19999999999979
 30
0.0
 42
-0.4142135623730951
  0
VERTEX
  5
17C9
  8
SAPA_PROFIL
 10
38.799999999999841
 20
134.49999999999989
 30
0.0
  0
VERTEX
  5
17CA
  8
SAPA_PROFIL
 10
38.799999999999947
 20
135.19999999999979
 30
0.0
 42
-0.2504916501726621
  0
VERTEX
  5
17CB
  8
SAPA_PROFIL
 10
39.800000000000182
 20
136.2000000000003
 30
0.0
  0
VERTEX
  5
17CC
  8
SAPA_PROFIL
 10
42.185786437626909
 20
136.19999999999979
 30
0.0
 42
-0.1989123673796728
  0
VERTEX
  5
17CD
  8
SAPA_PROFIL
 10
42.89289321881347
 20
135.90710678118651
 30
0.0
  0
VERTEX
  5
17CE
  8
SAPA_PROFIL
 10
45.721320343559
 20
133.07867965643979
 30
0.0
 42
-0.1989123673796584
  0
VERTEX
  5
17CF
  8
SAPA_PROFIL
 10
46.600000000000023
 20
130.9573593128809
 30
0.0
  0
VERTEX
  5
17D0
  8
SAPA_PROFIL
 10
46.600000000000023
 20
124.2053328888191
 30
0.0
  0
VERTEX
  5
17D1
  8
SAPA_PROFIL
 10
46.600000000000023
 20
43.442640687119876
 30
0.0
 42
-0.1989123673796596
  0
VERTEX
  5
17D2
  8
SAPA_PROFIL
 10
45.721320343559
 20
41.321320343559869
 30
0.0
  0
VERTEX
  5
17D3
  8
SAPA_PROFIL
 10
42.892893218813583
 20
38.492893218813322
 30
0.0
 42
-0.1989123673796371
  0
VERTEX
  5
17D4
  8
SAPA_PROFIL
 10
42.18578643762703
 20
38.199999999999882
 30
0.0
  0
VERTEX
  5
17D5
  8
SAPA_PROFIL
 10
39.100000000000023
 20
38.199999999999882
 30
0.0
  0
VERTEX
  5
17D6
  8
SAPA_PROFIL
 10
38.100000000000023
 20
39.199999999999868
 30
0.0
  0
VERTEX
  5
17D7
  8
SAPA_PROFIL
 10
38.100000000000023
 20
39.89999999999992
 30
0.0
 42
-0.4142135623730951
  0
VERTEX
  5
17D8
  8
SAPA_PROFIL
 10
38.399999999999977
 20
40.199999999999882
 30
0.0
  0
VERTEX
  5
17D9
  8
SAPA_PROFIL
 10
40.14999999999997
 20
40.199999999999882
 30
0.0
 42
0.4142135623730951
  0
VERTEX
  5
17DA
  8
SAPA_PROFIL
 10
40.449999999999932
 20
40.499999999999943
 30
0.0
  0
VERTEX
  5
17DB
  8
SAPA_PROFIL
 10
40.449999999999932
 20
42.949999999999868
 30
0.0
 42
0.4142135623730951
  0
VERTEX
  5
17DC
  8
SAPA_PROFIL
 10
40.14999999999997
 20
43.249999999999943
 30
0.0
  0
VERTEX
  5
17DD
  8
SAPA_PROFIL
 10
22.050000000000072
 20
43.249999999999929
 30
0.0
 42
0.4142135623730951
  0
VERTEX
  5
17DE
  8
SAPA_PROFIL
 10
21.75
 20
42.949999999999861
 30
0.0
  0
VERTEX
  5
17DF
  8
SAPA_PROFIL
 10
21.75
 20
40.499999999999922
 30
0.0
 42
0.4142135623730951
  0
VERTEX
  5
17E0
  8
SAPA_PROFIL
 10
22.050000000000072
 20
40.199999999999861
 30
0.0
  0
VERTEX
  5
17E1
  8
SAPA_PROFIL
 10
23.800000000000072
 20
40.199999999999861
 30
0.0
 42
-0.4142135623730951
  0
VERTEX
  5
17E2
  8
SAPA_PROFIL
 10
24.100000000000019
 20
39.899999999999913
 30
0.0
  0
VERTEX
  5
17E3
  8
SAPA_PROFIL
 10
24.100000000000019
 20
39.199999999999861
 30
0.0
  0
VERTEX
  5
17E4
  8
SAPA_PROFIL
 10
23.100000000000019
 20
38.199999999999861
 30
0.0
  0
VERTEX
  5
17E5
  8
SAPA_PROFIL
 10
17.466025403783991
 20
38.199999999999861
 30
0.0
  0
VERTEX
  5
17E6
  8
SAPA_PROFIL
 10
16.600000000000019
 20
38.699999999999861
 30
0.0
  0
VERTEX
  5
17E7
  8
SAPA_PROFIL
 10
15.733974596215029
 20
38.199999999999861
 30
0.0
  0
VERTEX
  5
17E8
  8
SAPA_PROFIL
 10
-3.3999999999999768
 20
38.199999999999861
 30
0.0
 42
0.4142135623730951
  0
VERTEX
  5
17E9
  8
SAPA_PROFIL
 10
-4.3999999999999773
 20
37.199999999999861
 30
0.0
  0
VERTEX
  5
17EA
  8
SAPA_PROFIL
 10
-4.3999999999999773
 20
27.964911064067831
 30
0.0
 42
0.3475404855922902
  0
VERTEX
  5
17EB
  8
SAPA_PROFIL
 10
-4.1692307692308068
 20
27.673008510821589
 30
0.0
 42
-0.347540485592353
  0
VERTEX
  5
17EC
  8
SAPA_PROFIL
 10
-3.3999999999999768
 20
26.699999999999861
 30
0.0
  0
VERTEX
  5
17ED
  8
SAPA_PROFIL
 10
-3.3999999999999768
 20
26.132455532037891
 30
0.0
 42
-0.2896898633048417
  0
VERTEX
  5
17EE
  8
SAPA_PROFIL
 10
-3.9714285714354669
 20
25.228947629129429
 30
0.0
 42
-0.5507604245820768
  0
VERTEX
  5
17EF
  8
SAPA_PROFIL
 10
-4.399999999994975
 20
25.49999999999595
 30
0.0
  0
VERTEX
  5
17F0
  8
SAPA_PROFIL
 10
-4.3999999999990669
 20
26.15000000000196
 30
0.0
 42
0.4142135623714856
  0
VERTEX
  5
17F1
  8
SAPA_PROFIL
 10
-4.6999999999990223
 20
26.449999999999861
 30
0.0
  0
VERTEX
  5
17F2
  8
SAPA_PROFIL
 10
-6.1000000000000218
 20
26.449999999999861
 30
0.0
 42
0.4142135623730951
  0
VERTEX
  5
17F3
  8
SAPA_PROFIL
 10
-6.3999999999999773
 20
26.14999999999991
 30
0.0
  0
VERTEX
  5
17F4
  8
SAPA_PROFIL
 10
-6.3999999999999773
 20
17.749999999999929
 30
0.0
 42
0.4142135623730951
  0
VERTEX
  5
17F5
  8
SAPA_PROFIL
 10
-6.1000000000000218
 20
17.449999999999971
 30
0.0
  0
VERTEX
  5
17F6
  8
SAPA_PROFIL
 10
-4.6999999999999309
 20
17.449999999999861
 30
0.0
 42
0.4142135623730951
  0
VERTEX
  5
17F7
  8
SAPA_PROFIL
 10
-4.3999999999999773
 20
17.749999999999929
 30
0.0
  0
VERTEX
  5
17F8
  8
SAPA_PROFIL
 10
-4.3999999999990669
 20
18.399999999999899
 30
0.0
  0
VERTEX
  5
17F9
  8
SAPA_PROFIL
 10
-4.3999999999999773
 20
18.400000000003882
 30
0.0
 42
-0.5507604245871307
  0
VERTEX
  5
17FA
  8
SAPA_PROFIL
 10
-3.9714285714268271
 20
18.671052370871209
 30
0.0
 42
-0.2896898633034174
  0
VERTEX
  5
17FB
  8
SAPA_PROFIL
 10
-3.3999999999999768
 20
17.76754446796194
 30
0.0
  0
VERTEX
  5
17FC
  8
SAPA_PROFIL
 10
-3.3999999999999768
 20
16.499999999999929
 30
0.0
 42
-0.4142135623730951
  0
VERTEX
  5
17FD
  8
SAPA_PROFIL
 10
-3.6999999999999309
 20
16.199999999999861
 30
0.0
  0
VERTEX
  5
17FE
  8
SAPA_PROFIL
 10
-7.8999999999999773
 20
16.199999999999861
 30
0.0
 42
-0.4142135623730951
  0
VERTEX
  5
17FF
  8
SAPA_PROFIL
 10
-8.8999999999999773
 20
17.199999999999861
 30
0.0
  0
VERTEX
  5
1800
  8
SAPA_PROFIL
 10
-8.8999999999999773
 20
36.457359312880889
 30
0.0
 42
0.1989123673796595
  0
VERTEX
  5
1801
  8
SAPA_PROFIL
 10
-9.7786796564403176
 20
38.578679656440542
 30
0.0
  0
VERTEX
  5
1802
  8
SAPA_PROFIL
 10
-12.52132034355998
 20
41.321320343559847
 30
0.0
 42
-0.1989123673796601
  0
VERTEX
  5
1803
  8
SAPA_PROFIL
 10
-13.399999999999981
 20
43.442640687119862
 30
0.0
  0
SEQEND
  5
1804
  8
SAPA_PROFIL
  0
POLYLINE
  5
1399
  8
SAPA_PROFIL
 66
     1
 10
0.0
 20
0.0
 30
0.0
  0
VERTEX
  5
1805
  8
SAPA_PROFIL
 10
25.77844481936669
 20
35.321263078439237
 30
0.0
  0
VERTEX
  5
1806
  8
SAPA_PROFIL
 10
25.097404885508379
 20
18.199999999988901
 30
0.0
 42
0.4142135623730951
  0
VERTEX
  5
1807
  8
SAPA_PROFIL
 10
25.597404885508389
 20
17.699999999988901
 30
0.0
  0
VERTEX
  5
1808
  8
SAPA_PROFIL
 10
37.397018368517109
 20
17.699999999988961
 30
0.0
 42
0.4076767287637263
  0
VERTEX
  5
1809
  8
SAPA_PROFIL
 10
40.396268200906661
 20
20.632896350805879
 30
0.0
  0
VERTEX
  5
180A
  8
SAPA_PROFIL
 10
40.550707423017457
 20
35.321263078439237
 30
0.0
 42
0.4182129759575463
  0
VERTEX
  5
180B
  8
SAPA_PROFIL
 10
40.05519570216029
 20
35.832424190494748
 30
0.0
  0
VERTEX
  5
180C
  8
SAPA_PROFIL
 10
37.580547946040923
 20
35.845251792020463
 30
0.0
  0
VERTEX
  5
180D
  8
SAPA_PROFIL
 10
35.95448998984736
 20
37.49994038964428
 30
0.0
  0
VERTEX
  5
180E
  8
SAPA_PROFIL
 10
35.95448998984736
 20
42.049016423932471
 30
0.0
 42
-0.4293387945586749
  0
VERTEX
  5
180F
  8
SAPA_PROFIL
 10
36.272601125836701
 20
42.345742945016973
 30
0.0
  0
VERTEX
  5
1810
  8
SAPA_PROFIL
 10
37.354056851107181
 20
42.273103268889251
 30
0.0
 42
-0.4883397947196161
  0
VERTEX
  5
1811
  8
SAPA_PROFIL
 10
37.133433916908963
 20
40.711381442880914
 30
0.0
  0
VERTEX
  5
1812
  8
SAPA_PROFIL
 10
37.133433916908963
 20
38.012300166846501
 30
0.0
  0
VERTEX
  5
1813
  8
SAPA_PROFIL
 10
38.08805713710683
 20
37.040868520470383
 30
0.0
  0
VERTEX
  5
1814
  8
SAPA_PROFIL
 10
40.587183279991898
 20
37.040868520470383
 30
0.0
  0
VERTEX
  5
1815
  8
SAPA_PROFIL
 10
40.587183279991898
 20
37.514644186985272
 30
0.0
  0
VERTEX
  5
1816
  8
SAPA_PROFIL
 10
42.100000000000144
 20
37.514644186985272
 30
0.0
  0
VERTEX
  5
1817
  8
SAPA_PROFIL
 10
42.100000000000243
 20
16.497359293296821
 30
0.0
 42
-0.4116378201539302
  0
VERTEX
  5
1818
  8
SAPA_PROFIL
 10
41.800011522329889
 20
16.199999999988961
 30
0.0
  0
VERTEX
  5
1819
  8
SAPA_PROFIL
 10
13.39740488550839
 20
16.19999999998884
 30
0.0
 42
-0.414213562373095
  0
VERTEX
  5
181A
  8
SAPA_PROFIL
 10
13.09740488550832
 20
16.499999999988859
 30
0.0
  0
VERTEX
  5
181B
  8
SAPA_PROFIL
 10
13.09740488550838
 20
17.709999999988838
 30
0.0
 42
-0.4142135623731037
  0
VERTEX
  5
181C
  8
SAPA_PROFIL
 10
14.087404885508329
 20
18.699999999988901
 30
0.0
  0
VERTEX
  5
181D
  8
SAPA_PROFIL
 10
14.09740488550838
 20
18.699999999988901
 30
0.0
  0
VERTEX
  5
181E
  8
SAPA_PROFIL
 10
14.09740488550838
 20
17.449999999988901
 30
0.0
  0
VERTEX
  5
181F
  8
SAPA_PROFIL
 10
15.59740488550838
 20
17.449999999988901
 30
0.0
 42
0.4142135623730951
  0
VERTEX
  5
1820
  8
SAPA_PROFIL
 10
16.097404885508379
 20
17.949999999988901
 30
0.0
  0
VERTEX
  5
1821
  8
SAPA_PROFIL
 10
16.097404885508379
 20
25.949999999988901
 30
0.0
 42
0.4142135623730951
  0
VERTEX
  5
1822
  8
SAPA_PROFIL
 10
15.59740488550838
 20
26.449999999988911
 30
0.0
  0
VERTEX
  5
1823
  8
SAPA_PROFIL
 10
14.09740488550838
 20
26.449999999988911
 30
0.0
  0
VERTEX
  5
1824
  8
SAPA_PROFIL
 10
14.09740488550838
 20
25.199999999988911
 30
0.0
  0
VERTEX
  5
1825
  8
SAPA_PROFIL
 10
14.087404885508329
 20
25.199999999988911
 30
0.0
 42
-0.414213562373095
  0
VERTEX
  5
1826
  8
SAPA_PROFIL
 10
13.09740488550832
 20
26.18999999998886
 30
0.0
  0
VERTEX
  5
1827
  8
SAPA_PROFIL
 10
13.09740488550838
 20
26.699999999988851
 30
0.0
 42
-0.4142135623730953
  0
VERTEX
  5
1828
  8
SAPA_PROFIL
 10
14.09740488550838
 20
27.699999999988911
 30
0.0
  0
VERTEX
  5
1829
  8
SAPA_PROFIL
 10
15.59740488550838
 20
27.699999999988911
 30
0.0
 42
-0.4142135623730951
  0
VERTEX
  5
182A
  8
SAPA_PROFIL
 10
17.297404885508371
 20
25.999999999988919
 30
0.0
  0
VERTEX
  5
182B
  8
SAPA_PROFIL
 10
17.297404885508431
 20
18.199999999988901
 30
0.0
 42
0.414213562373095
  0
VERTEX
  5
182C
  8
SAPA_PROFIL
 10
17.797404885508421
 20
17.699999999988901
 30
0.0
  0
VERTEX
  5
182D
  8
SAPA_PROFIL
 10
23.297404885508431
 20
17.699999999988901
 30
0.0
 42
0.4142135623730951
  0
VERTEX
  5
182E
  8
SAPA_PROFIL
 10
23.797404885508431
 20
18.199999999988901
 30
0.0
  0
VERTEX
  5
182F
  8
SAPA_PROFIL
 10
24.46861453197474
 20
35.321263078439237
 30
0.0
  0
VERTEX
  5
1830
  8
SAPA_PROFIL
 10
25.125552982704079
 20
40.724209842188941
 30
0.0
 42
0.4666505291506209
  0
VERTEX
  5
1831
  8
SAPA_PROFIL
 10
24.863721451659529
 20
41.004011408107708
 30
0.0
  0
VERTEX
  5
1832
  8
SAPA_PROFIL
 10
24.14106535810058
 20
40.964468514189377
 30
0.0
 42
-0.7332303362618522
  0
VERTEX
  5
1833
  8
SAPA_PROFIL
 10
23.940890769530402
 20
41.500544536841687
 30
0.0
  0
VERTEX
  5
1834
  8
SAPA_PROFIL
 10
26.050998109068111
 20
42.271454654346087
 30
0.0
 42
-0.668178637919333
  0
VERTEX
  5
1835
  8
SAPA_PROFIL
 10
26.533345961158918
 20
41.998288459151802
 30
0.0
  0
VERTEX
  5
1836
  8
SAPA_PROFIL
 10
25.77844481936669
 20
35.321263078439237
 30
0.0
  0
VERTEX
  5
1837
  8
SAPA_PROFIL
 10
25.787978271529798
 20
35.321263078439237
 30
0.0
  0
SEQEND
  5
1838
  8
SAPA_PROFIL
  0
POLYLINE
  5
139A
  8
SAPA_PROFIL
 66
     1
 10
0.0
 20
0.0
 30
0.0
 70
     1
  0
VERTEX
  5
1839
  8
SAPA_PROFIL
 10
39.800000000000068
 20
204.40000000000029
 30
0.0
  0
VERTEX
  5
183A
  8
SAPA_PROFIL
 10
39.800000000000068
 20
173.0000000000002
 30
0.0
  0
VERTEX
  5
183B
  8
SAPA_PROFIL
 10
18.69500000000005
 20
173.00000000000031
 30
0.0
 42
0.4142135623732293
  0
VERTEX
  5
183C
  8
SAPA_PROFIL
 10
18.200000000000038
 20
172.50500000000019
 30
0.0
  0
VERTEX
  5
183D
  8
SAPA_PROFIL
 10
18.200000000000038
 20
172.49500000000029
 30
0.0
 42
0.414213562373095
  0
VERTEX
  5
183E
  8
SAPA_PROFIL
 10
18.69500000000005
 20
172.0000000000002
 30
0.0
  0
VERTEX
  5
183F
  8
SAPA_PROFIL
 10
18.855000000000022
 20
172.0000000000002
 30
0.0
 42
-0.414213562373028
  0
VERTEX
  5
1840
  8
SAPA_PROFIL
 10
19.350000000000019
 20
171.50500000000031
 30
0.0
  0
VERTEX
  5
1841
  8
SAPA_PROFIL
 10
19.350000000000019
 20
170.70000000000019
 30
0.0
 42
-0.3747564601179658
  0
VERTEX
  5
1842
  8
SAPA_PROFIL
 10
16.97439504323631
 20
167.97560495676589
 30
0.0
  0
VERTEX
  5
1843
  8
SAPA_PROFIL
 10
16.600000000000019
 20
168.35000000000059
 30
0.0
  0
VERTEX
  5
1844
  8
SAPA_PROFIL
 10
16.225604956763501
 20
167.9756049567641
 30
0.0
 42
-0.3747564601179647
  0
VERTEX
  5
1845
  8
SAPA_PROFIL
 10
13.850000000000019
 20
170.7000000000001
 30
0.0
  0
VERTEX
  5
1846
  8
SAPA_PROFIL
 10
13.850000000000019
 20
171.50500000000031
 30
0.0
 42
-0.4142135623730281
  0
VERTEX
  5
1847
  8
SAPA_PROFIL
 10
14.34500000000002
 20
172.0000000000002
 30
0.0
  0
VERTEX
  5
1848
  8
SAPA_PROFIL
 10
14.50499999999999
 20
172.0000000000002
 30
0.0
 42
0.4142135623730951
  0
VERTEX
  5
1849
  8
SAPA_PROFIL
 10
15.0
 20
172.49500000000029
 30
0.0
  0
VERTEX
  5
184A
  8
SAPA_PROFIL
 10
15.00000000000011
 20
172.50500000000019
 30
0.0
 42
0.4142135623732296
  0
VERTEX
  5
184B
  8
SAPA_PROFIL
 10
14.50499999999999
 20
173.0000000000002
 30
0.0
  0
VERTEX
  5
184C
  8
SAPA_PROFIL
 10
-6.6000000000000218
 20
173.0000000000002
 30
0.0
  0
VERTEX
  5
184D
  8
SAPA_PROFIL
 10
-6.6000000000000218
 20
204.40000000000029
 30
0.0
  0
VERTEX
  5
184E
  8
SAPA_PROFIL
 10
14.50499999999999
 20
204.40000000000029
 30
0.0
 42
0.4142135623731625
  0
VERTEX
  5
184F
  8
SAPA_PROFIL
 10
15.0
 20
204.89500000000021
 30
0.0
  0
VERTEX
  5
1850
  8
SAPA_PROFIL
 10
15.0
 20
204.9050000000002
 30
0.0
 42
0.4142135623731625
  0
VERTEX
  5
1851
  8
SAPA_PROFIL
 10
14.50499999999999
 20
205.40000000000009
 30
0.0
  0
VERTEX
  5
1852
  8
SAPA_PROFIL
 10
14.34500000000002
 20
205.4000000000002
 30
0.0
 42
-0.4142135623729606
  0
VERTEX
  5
1853
  8
SAPA_PROFIL
 10
13.850000000000129
 20
205.89500000000021
 30
0.0
  0
VERTEX
  5
1854
  8
SAPA_PROFIL
 10
13.850000000000019
 20
206.7000000000003
 30
0.0
 42
-0.3747564601179647
  0
VERTEX
  5
1855
  8
SAPA_PROFIL
 10
16.225604956763501
 20
209.4243950432363
 30
0.0
  0
VERTEX
  5
1856
  8
SAPA_PROFIL
 10
16.600000000000019
 20
209.05000000000001
 30
0.0
  0
VERTEX
  5
1857
  8
SAPA_PROFIL
 10
16.97439504323631
 20
209.42439504323471
 30
0.0
 42
-0.3747564601179658
  0
VERTEX
  5
1858
  8
SAPA_PROFIL
 10
19.350000000000019
 20
206.7000000000003
 30
0.0
  0
VERTEX
  5
1859
  8
SAPA_PROFIL
 10
19.350000000000019
 20
205.89500000000021
 30
0.0
 42
-0.4142135623730281
  0
VERTEX
  5
185A
  8
SAPA_PROFIL
 10
18.855000000000022
 20
205.40000000000009
 30
0.0
  0
VERTEX
  5
185B
  8
SAPA_PROFIL
 10
18.69500000000005
 20
205.40000000000009
 30
0.0
 42
0.4142135623731625
  0
VERTEX
  5
185C
  8
SAPA_PROFIL
 10
18.200000000000038
 20
204.9050000000002
 30
0.0
  0
VERTEX
  5
185D
  8
SAPA_PROFIL
 10
18.200000000000038
 20
204.89500000000021
 30
0.0
 42
0.4142135623731625
  0
VERTEX
  5
185E
  8
SAPA_PROFIL
 10
18.69500000000005
 20
204.40000000000029
 30
0.0
  0
SEQEND
  5
185F
  8
SAPA_PROFIL
  0
POLYLINE
  5
139B
  8
SAPA_PROFIL
 66
     1
 10
0.0
 20
0.0
 30
0.0
 70
     1
  0
VERTEX
  5
1860
  8
SAPA_PROFIL
 10
39.800000000000068
 20
209.2000000000003
 30
0.0
  0
VERTEX
  5
1861
  8
SAPA_PROFIL
 10
37.600000000000023
 20
209.2000000000003
 30
0.0
  0
VERTEX
  5
1862
  8
SAPA_PROFIL
 10
37.600000000000023
 20
210.2000000000003
 30
0.0
  0
VERTEX
  5
1863
  8
SAPA_PROFIL
 10
38.600000000000023
 20
211.2000000000003
 30
0.0
  0
VERTEX
  5
1864
  8
SAPA_PROFIL
 10
41.600000000000023
 20
211.2000000000003
 30
0.0
  0
VERTEX
  5
1865
  8
SAPA_PROFIL
 10
41.600000000000023
 20
166.2000000000003
 30
0.0
  0
VERTEX
  5
1866
  8
SAPA_PROFIL
 10
38.600000000000023
 20
166.2000000000003
 30
0.0
  0
VERTEX
  5
1867
  8
SAPA_PROFIL
 10
37.600000000000023
 20
167.2000000000003
 30
0.0
  0
VERTEX
  5
1868
  8
SAPA_PROFIL
 10
37.600000000000023
 20
168.2000000000003
 30
0.0
  0
VERTEX
  5
1869
  8
SAPA_PROFIL
 10
39.800000000000068
 20
168.2000000000003
 30
0.0
  0
VERTEX
  5
186A
  8
SAPA_PROFIL
 10
39.800000000000068
 20
171.2000000000003
 30
0.0
  0
VERTEX
  5
186B
  8
SAPA_PROFIL
 10
21.100000000000019
 20
171.2000000000003
 30
0.0
  0
VERTEX
  5
186C
  8
SAPA_PROFIL
 10
21.100000000000019
 20
168.2000000000003
 30
0.0
  0
VERTEX
  5
186D
  8
SAPA_PROFIL
 10
23.600000000000019
 20
168.2000000000003
 30
0.0
  0
VERTEX
  5
186E
  8
SAPA_PROFIL
 10
23.600000000000019
 20
167.2000000000003
 30
0.0
  0
VERTEX
  5
186F
  8
SAPA_PROFIL
 10
22.800000000000072
 20
166.4000000000002
 30
0.0
  0
VERTEX
  5
1870
  8
SAPA_PROFIL
 10
17.119615242270701
 20
166.4000000000002
 30
0.0
  0
VERTEX
  5
1871
  8
SAPA_PROFIL
 10
16.600000000000019
 20
166.70000000000019
 30
0.0
  0
VERTEX
  5
1872
  8
SAPA_PROFIL
 10
16.080384757729352
 20
166.4000000000002
 30
0.0
  0
VERTEX
  5
1873
  8
SAPA_PROFIL
 10
10.399999999999981
 20
166.4000000000002
 30
0.0
  0
VERTEX
  5
1874
  8
SAPA_PROFIL
 10
9.6000000000000227
 20
167.2000000000003
 30
0.0
  0
VERTEX
  5
1875
  8
SAPA_PROFIL
 10
9.6000000000000227
 20
168.2000000000003
 30
0.0
  0
VERTEX
  5
1876
  8
SAPA_PROFIL
 10
12.100000000000019
 20
168.2000000000003
 30
0.0
  0
VERTEX
  5
1877
  8
SAPA_PROFIL
 10
12.100000000000019
 20
171.2000000000003
 30
0.0
  0
VERTEX
  5
1878
  8
SAPA_PROFIL
 10
-6.6000000000000218
 20
171.2000000000003
 30
0.0
  0
VERTEX
  5
1879
  8
SAPA_PROFIL
 10
-6.6000000000000218
 20
168.2000000000003
 30
0.0
  0
VERTEX
  5
187A
  8
SAPA_PROFIL
 10
-4.3999999999999773
 20
168.2000000000003
 30
0.0
  0
VERTEX
  5
187B
  8
SAPA_PROFIL
 10
-4.3999999999999773
 20
167.2000000000003
 30
0.0
  0
VERTEX
  5
187C
  8
SAPA_PROFIL
 10
-5.3999999999999773
 20
166.2000000000003
 30
0.0
  0
VERTEX
  5
187D
  8
SAPA_PROFIL
 10
-8.3999999999999773
 20
166.2000000000003
 30
0.0
  0
VERTEX
  5
187E
  8
SAPA_PROFIL
 10
-8.3999999999999773
 20
211.2000000000003
 30
0.0
  0
VERTEX
  5
187F
  8
SAPA_PROFIL
 10
-5.3999999999999773
 20
211.2000000000003
 30
0.0
  0
VERTEX
  5
1880
  8
SAPA_PROFIL
 10
-4.3999999999999773
 20
210.2000000000003
 30
0.0
  0
VERTEX
  5
1881
  8
SAPA_PROFIL
 10
-4.3999999999999773
 20
209.2000000000003
 30
0.0
  0
VERTEX
  5
1882
  8
SAPA_PROFIL
 10
-6.6000000000000218
 20
209.2000000000003
 30
0.0
  0
VERTEX
  5
1883
  8
SAPA_PROFIL
 10
-6.6000000000000218
 20
206.2000000000003
 30
0.0
  0
VERTEX
  5
1884
  8
SAPA_PROFIL
 10
12.100000000000019
 20
206.2000000000003
 30
0.0
  0
VERTEX
  5
1885
  8
SAPA_PROFIL
 10
12.100000000000019
 20
209.2000000000003
 30
0.0
  0
VERTEX
  5
1886
  8
SAPA_PROFIL
 10
9.6000000000000227
 20
209.2000000000003
 30
0.0
  0
VERTEX
  5
1887
  8
SAPA_PROFIL
 10
9.6000000000000227
 20
210.2000000000003
 30
0.0
  0
VERTEX
  5
1888
  8
SAPA_PROFIL
 10
10.399999999999981
 20
211.0000000000002
 30
0.0
  0
VERTEX
  5
1889
  8
SAPA_PROFIL
 10
16.080384757729352
 20
211.0000000000002
 30
0.0
  0
VERTEX
  5
188A
  8
SAPA_PROFIL
 10
16.600000000000019
 20
210.7000000000003
 30
0.0
  0
VERTEX
  5
188B
  8
SAPA_PROFIL
 10
17.119615242270701
 20
211.0000000000002
 30
0.0
  0
VERTEX
  5
188C
  8
SAPA_PROFIL
 10
22.800000000000072
 20
211.0000000000002
 30
0.0
  0
VERTEX
  5
188D
  8
SAPA_PROFIL
 10
23.600000000000019
 20
210.2000000000003
 30
0.0
  0
VERTEX
  5
188E
  8
SAPA_PROFIL
 10
23.600000000000019
 20
209.2000000000003
 30
0.0
  0
VERTEX
  5
188F
  8
SAPA_PROFIL
 10
21.100000000000019
 20
209.2000000000003
 30
0.0
  0
VERTEX
  5
1890
  8
SAPA_PROFIL
 10
21.100000000000019
 20
206.2000000000003
 30
0.0
  0
VERTEX
  5
1891
  8
SAPA_PROFIL
 10
39.800000000000068
 20
206.2000000000003
 30
0.0
  0
SEQEND
  5
1892
  8
SAPA_PROFIL
  0
POLYLINE
  5
139C
  8
SAPA_PROFIL
 66
     1
 10
0.0
 20
0.0
 30
0.0
 70
     1
  0
VERTEX
  5
1893
  8
SAPA_PROFIL
 10
3.4309605363588669
 20
154.2012645250357
 30
0.0
 42
0.4557262555325856
  0
VERTEX
  5
1894
  8
SAPA_PROFIL
 10
4.0005465671999332
 20
154.69639810769129
 30
0.0
  0
VERTEX
  5
1895
  8
SAPA_PROFIL
 10
4.0005465671999332
 20
156.2031420000003
 30
0.0
  0
VERTEX
  5
1896
  8
SAPA_PROFIL
 10
5.5005465671999332
 20
156.2031420000003
 30
0.0
  0
VERTEX
  5
1897
  8
SAPA_PROFIL
 10
5.5005465671999332
 20
157.2031420000003
 30
0.0
  0
VERTEX
  5
1898
  8
SAPA_PROFIL
 10
15.73301516341561
 20
157.2031420000003
 30
0.0
  0
VERTEX
  5
1899
  8
SAPA_PROFIL
 10
16.599040567200031
 20
157.7031420000003
 30
0.0
  0
VERTEX
  5
189A
  8
SAPA_PROFIL
 10
17.465065970984401
 20
157.2031420000003
 30
0.0
  0
VERTEX
  5
189B
  8
SAPA_PROFIL
 10
27.69753456720013
 20
157.2031420000003
 30
0.0
  0
VERTEX
  5
189C
  8
SAPA_PROFIL
 10
27.69753456720013
 20
156.2031420000003
 30
0.0
  0
VERTEX
  5
189D
  8
SAPA_PROFIL
 10
29.19753456720014
 20
156.2031420000003
 30
0.0
  0
VERTEX
  5
189E
  8
SAPA_PROFIL
 10
29.19753456720014
 20
154.2031420000003
 30
0.0
  0
VERTEX
  5
189F
  8
SAPA_PROFIL
 10
35.031482513027129
 20
153.1744595731023
 30
0.0
 42
0.4142135623730531
  0
VERTEX
  5
18A0
  8
SAPA_PROFIL
 10
35.610710478366613
 20
153.58003936077489
 30
0.0
  0
VERTEX
  5
18A1
  8
SAPA_PROFIL
 10
35.697534567200137
 20
154.07244323728099
 30
0.0
  0
VERTEX
  5
18A2
  8
SAPA_PROFIL
 10
35.008169140091503
 20
154.1939969616478
 30
0.0
 42
-0.6705660098148247
  0
VERTEX
  5
18A3
  8
SAPA_PROFIL
 10
34.889815006213198
 20
154.73631431490119
 30
0.0
  0
VERTEX
  5
18A4
  8
SAPA_PROFIL
 10
37.276663415024082
 20
156.38425312612239
 30
0.0
 42
-0.4103557430781616
  0
VERTEX
  5
18A5
  8
SAPA_PROFIL
 10
37.95874765018953
 20
156.26398327234679
 30
0.0
  0
VERTEX
  5
18A6
  8
SAPA_PROFIL
 10
39.638023218477841
 20
153.89907709705739
 30
0.0
 42
-0.6705660098148535
  0
VERTEX
  5
18A7
  8
SAPA_PROFIL
 10
39.341323253345202
 20
153.42994497991339
 30
0.0
  0
VERTEX
  5
18A8
  8
SAPA_PROFIL
 10
38.651957826236703
 20
153.55149870428031
 30
0.0
  0
VERTEX
  5
18A9
  8
SAPA_PROFIL
 10
38.565133737403229
 20
153.05909482777409
 30
0.0
 42
0.4142135623731039
  0
VERTEX
  5
18AA
  8
SAPA_PROFIL
 10
38.97071352507588
 20
152.4798668624347
 30
0.0
  0
VERTEX
  5
18AB
  8
SAPA_PROFIL
 10
39.406404583385822
 20
152.4030427736011
 30
0.0
  0
VERTEX
  5
18AC
  8
SAPA_PROFIL
 10
40.992888562344959
 20
152.40571336131691
 30
0.0
 42
-0.4147066859862996
  0
VERTEX
  5
18AD
  8
SAPA_PROFIL
 10
43.997938567200023
 20
149.40571761174471
 30
0.0
  0
VERTEX
  5
18AE
  8
SAPA_PROFIL
 10
43.997938567200023
 20
141.6990890000003
 30
0.0
 42
0.6638253569871671
  0
VERTEX
  5
18AF
  8
SAPA_PROFIL
 10
44.877124760134599
 20
141.3411151930132
 30
0.0
  0
VERTEX
  5
18B0
  8
SAPA_PROFIL
 10
46.85616295779333
 20
143.32015339067181
 30
0.0
 42
0.1989123673796449
  0
VERTEX
  5
18B1
  8
SAPA_PROFIL
 10
47.002609567199997
 20
143.67370678126511
 30
0.0
  0
VERTEX
  5
18B2
  8
SAPA_PROFIL
 10
47.002609567199997
 20
155.49198175566531
 30
0.0
 42
0.1989123673796422
  0
VERTEX
  5
18B3
  8
SAPA_PROFIL
 10
46.856162957793302
 20
155.84553514625861
 30
0.0
  0
VERTEX
  5
18B4
  8
SAPA_PROFIL
 10
41.495416176606717
 20
161.2062819274451
 30
0.0
 42
-0.1989123673796659
  0
VERTEX
  5
18B5
  8
SAPA_PROFIL
 10
41.348969567200001
 20
161.55983531803841
 30
0.0
  0
VERTEX
  5
18B6
  8
SAPA_PROFIL
 10
41.348969567200001
 20
166.2000000000003
 30
0.0
  0
VERTEX
  5
18B7
  8
SAPA_PROFIL
 10
38.098969567200001
 20
166.2000000000003
 30
0.0
  0
VERTEX
  5
18B8
  8
SAPA_PROFIL
 10
36.598969567200001
 20
167.7000000000003
 30
0.0
  0
VERTEX
  5
18B9
  8
SAPA_PROFIL
 10
35.098969567200001
 20
166.2000000000003
 30
0.0
  0
VERTEX
  5
18BA
  8
SAPA_PROFIL
 10
31.500000567200011
 20
166.2000000000003
 30
0.0
 42
-0.4142140000000165
  0
VERTEX
  5
18BB
  8
SAPA_PROFIL
 10
31.000000567200011
 20
166.7000000000003
 30
0.0
  0
VERTEX
  5
18BC
  8
SAPA_PROFIL
 10
31.000000567200011
 20
168.2031420000003
 30
0.0
 42
0.4142140000000145
  0
VERTEX
  5
18BD
  8
SAPA_PROFIL
 10
30.000000567200011
 20
169.2031420000003
 30
0.0
  0
VERTEX
  5
18BE
  8
SAPA_PROFIL
 10
29.000000567199979
 20
169.2031420000003
 30
0.0
  0
VERTEX
  5
18BF
  8
SAPA_PROFIL
 10
27.055005143511611
 20
161.94432286807771
 30
0.0
 42
-0.3394542338034085
  0
VERTEX
  5
18C0
  8
SAPA_PROFIL
 10
26.089079340485899
 20
161.2031420000003
 30
0.0
  0
VERTEX
  5
18C1
  8
SAPA_PROFIL
 10
7.1109206595143064
 20
161.2031420000003
 30
0.0
 42
-0.3394542744563553
  0
VERTEX
  5
18C2
  8
SAPA_PROFIL
 10
6.1449948187500922
 20
161.94432300891961
 30
0.0
  0
VERTEX
  5
18C3
  8
SAPA_PROFIL
 10
4.2000005671999361
 20
169.2031420000003
 30
0.0
  0
VERTEX
  5
18C4
  8
SAPA_PROFIL
 10
3.2000005671999361
 20
169.2031420000003
 30
0.0
 42
0.4142139999999982
  0
VERTEX
  5
18C5
  8
SAPA_PROFIL
 10
2.2000005672000489
 20
168.2031420000003
 30
0.0
  0
VERTEX
  5
18C6
  8
SAPA_PROFIL
 10
2.2000005671999361
 20
166.7127360000004
 30
0.0
 42
-0.4142140000000124
  0
VERTEX
  5
18C7
  8
SAPA_PROFIL
 10
1.7000005671999641
 20
166.21273600000029
 30
0.0
  0
VERTEX
  5
18C8
  8
SAPA_PROFIL
 10
-1.8999994327999721
 20
166.21273600000029
 30
0.0
  0
VERTEX
  5
18C9
  8
SAPA_PROFIL
 10
-3.3999994327999721
 20
167.7127360000004
 30
0.0
  0
VERTEX
  5
18CA
  8
SAPA_PROFIL
 10
-4.8999994327999721
 20
166.21273600000029
 30
0.0
  0
VERTEX
  5
18CB
  8
SAPA_PROFIL
 10
-8.1499994328000298
 20
166.21273600000029
 30
0.0
  0
VERTEX
  5
18CC
  8
SAPA_PROFIL
 10
-8.1499994328000298
 20
158.20018194300201
 30
0.0
 42
0.3780475071674513
  0
VERTEX
  5
18CD
  8
SAPA_PROFIL
 10
-5.5241344202833602
 20
155.223602864405
 30
0.0
  0
VERTEX
  5
18CE
  8
SAPA_PROFIL
 10
-2.6332528742048278
 20
154.86023945207859
 30
0.0
 42
0.4247728136669583
  0
VERTEX
  5
18CF
  8
SAPA_PROFIL
 10
-1.4994534328000091
 20
155.74698300000031
 30
0.0
  0
VERTEX
  5
18D0
  8
SAPA_PROFIL
 10
-2.7494534328000659
 20
155.74698300000031
 30
0.0
  0
VERTEX
  5
18D1
  8
SAPA_PROFIL
 10
-2.7494534328000659
 20
156.84698300000031
 30
0.0
  0
VERTEX
  5
18D2
  8
SAPA_PROFIL
 10
2.4505465672000071
 20
156.84698300000031
 30
0.0
  0
VERTEX
  5
18D3
  8
SAPA_PROFIL
 10
2.4505465672000071
 20
155.74698300000031
 30
0.0
  0
VERTEX
  5
18D4
  8
SAPA_PROFIL
 10
1.2005465672000071
 20
155.74698300000031
 30
0.0
  0
VERTEX
  5
18D5
  8
SAPA_PROFIL
 10
1.2005465672000071
 20
155.3734608566476
 30
0.0
 42
0.3760477967976817
  0
VERTEX
  5
18D6
  8
SAPA_PROFIL
 10
2.068889466739364
 20
154.382165538441
 30
0.0
  0
SEQEND
  5
18D7
  8
SAPA_PROFIL
  0
POLYLINE
  5
139D
  8
SAPA_PROFIL
 66
     1
 10
0.0
 20
0.0
 30
0.0
 70
     1
  0
VERTEX
  5
18D8
  8
SAPA_PROFIL
 10
29.76862563141643
 20
148.19873547496479
 30
0.0
 42
0.4557262555325856
  0
VERTEX
  5
18D9
  8
SAPA_PROFIL
 10
29.199039600575361
 20
147.70360189230919
 30
0.0
  0
VERTEX
  5
18DA
  8
SAPA_PROFIL
 10
29.199039600575361
 20
146.1968580000003
 30
0.0
  0
VERTEX
  5
18DB
  8
SAPA_PROFIL
 10
27.699039600575361
 20
146.1968580000003
 30
0.0
  0
VERTEX
  5
18DC
  8
SAPA_PROFIL
 10
27.699039600575361
 20
145.1968580000003
 30
0.0
  0
VERTEX
  5
18DD
  8
SAPA_PROFIL
 10
17.466571004359679
 20
145.1968580000003
 30
0.0
  0
VERTEX
  5
18DE
  8
SAPA_PROFIL
 10
16.600545600575259
 20
144.69685800000019
 30
0.0
  0
VERTEX
  5
18DF
  8
SAPA_PROFIL
 10
15.734520196790889
 20
145.1968580000003
 30
0.0
  0
VERTEX
  5
18E0
  8
SAPA_PROFIL
 10
5.5020516005751849
 20
145.1968580000003
 30
0.0
  0
VERTEX
  5
18E1
  8
SAPA_PROFIL
 10
5.5020516005751849
 20
146.1968580000003
 30
0.0
  0
VERTEX
  5
18E2
  8
SAPA_PROFIL
 10
4.0020516005751707
 20
146.1968580000003
 30
0.0
  0
VERTEX
  5
18E3
  8
SAPA_PROFIL
 10
4.0020516005751707
 20
148.1968580000003
 30
0.0
  0
VERTEX
  5
18E4
  8
SAPA_PROFIL
 10
-1.83189634525182
 20
149.22554042689831
 30
0.0
 42
0.4142135623730531
  0
VERTEX
  5
18E5
  8
SAPA_PROFIL
 10
-2.4111243105913038
 20
148.81996063922571
 30
0.0
  0
VERTEX
  5
18E6
  8
SAPA_PROFIL
 10
-2.4979483994248279
 20
148.3275567627195
 30
0.0
  0
VERTEX
  5
18E7
  8
SAPA_PROFIL
 10
-1.808582972316187
 20
148.2060030383528
 30
0.0
 42
-0.6705660098148247
  0
VERTEX
  5
18E8
  8
SAPA_PROFIL
 10
-1.690228838437889
 20
147.6636856850993
 30
0.0
  0
VERTEX
  5
18E9
  8
SAPA_PROFIL
 10
-4.0770772472487664
 20
146.01574687387819
 30
0.0
 42
-0.4103557430781616
  0
VERTEX
  5
18EA
  8
SAPA_PROFIL
 10
-4.7591614824142141
 20
146.13601672765381
 30
0.0
  0
VERTEX
  5
18EB
  8
SAPA_PROFIL
 10
-6.4384370507025324
 20
148.50092290294319
 30
0.0
 42
-0.6705660098148535
  0
VERTEX
  5
18EC
  8
SAPA_PROFIL
 10
-6.1417370855698863
 20
148.9700550200871
 30
0.0
  0
VERTEX
  5
18ED
  8
SAPA_PROFIL
 10
-5.452371658461387
 20
148.8485012957203
 30
0.0
  0
VERTEX
  5
18EE
  8
SAPA_PROFIL
 10
-5.3655475696279211
 20
149.3409051722264
 30
0.0
 42
0.4142135623731039
  0
VERTEX
  5
18EF
  8
SAPA_PROFIL
 10
-5.7711273573005712
 20
149.9201331375659
 30
0.0
  0
VERTEX
  5
18F0
  8
SAPA_PROFIL
 10
-6.2068184156105133
 20
149.9969572263995
 30
0.0
  0
VERTEX
  5
18F1
  8
SAPA_PROFIL
 10
-7.7933023945696496
 20
149.99428663868369
 30
0.0
 42
-0.4147066859862996
  0
VERTEX
  5
18F2
  8
SAPA_PROFIL
 10
-10.79835239942471
 20
152.99428238825581
 30
0.0
  0
VERTEX
  5
18F3
  8
SAPA_PROFIL
 10
-10.79835239942471
 20
160.7009110000003
 30
0.0
 42
0.6638253569871671
  0
VERTEX
  5
18F4
  8
SAPA_PROFIL
 10
-11.6775385923593
 20
161.05888480698729
 30
0.0
  0
VERTEX
  5
18F5
  8
SAPA_PROFIL
 10
-13.65657679001802
 20
159.0798466093288
 30
0.0
 42
0.1989123673796449
  0
VERTEX
  5
18F6
  8
SAPA_PROFIL
 10
-13.80302339942469
 20
158.72629321873549
 30
0.0
  0
VERTEX
  5
18F7
  8
SAPA_PROFIL
 10
-13.80302339942469
 20
146.9080182443353
 30
0.0
 42
0.1989123673796422
  0
VERTEX
  5
18F8
  8
SAPA_PROFIL
 10
-13.65657679001799
 20
146.55446485374199
 30
0.0
  0
VERTEX
  5
18F9
  8
SAPA_PROFIL
 10
-8.2958300088314161
 20
141.19371807255541
 30
0.0
 42
-0.1989123673796659
  0
VERTEX
  5
18FA
  8
SAPA_PROFIL
 10
-8.1493833994246927
 20
140.84016468196219
 30
0.0
  0
VERTEX
  5
18FB
  8
SAPA_PROFIL
 10
-8.1493833994246927
 20
136.2000000000003
 30
0.0
  0
VERTEX
  5
18FC
  8
SAPA_PROFIL
 10
-4.8993833994246918
 20
136.2000000000003
 30
0.0
  0
VERTEX
  5
18FD
  8
SAPA_PROFIL
 10
-3.3993833994246918
 20
134.7000000000003
 30
0.0
  0
VERTEX
  5
18FE
  8
SAPA_PROFIL
 10
-1.899383399424692
 20
136.2000000000003
 30
0.0
  0
VERTEX
  5
18FF
  8
SAPA_PROFIL
 10
1.6995856005753041
 20
136.2000000000003
 30
0.0
 42
-0.4142140000000165
  0
VERTEX
  5
1900
  8
SAPA_PROFIL
 10
2.1995856005753041
 20
135.7000000000003
 30
0.0
  0
VERTEX
  5
1901
  8
SAPA_PROFIL
 10
2.1995856005753041
 20
134.1968580000003
 30
0.0
 42
0.4142140000000145
  0
VERTEX
  5
1902
  8
SAPA_PROFIL
 10
3.1995856005753041
 20
133.19685800000019
 30
0.0
  0
VERTEX
  5
1903
  8
SAPA_PROFIL
 10
4.1995856005753316
 20
133.1968580000003
 30
0.0
  0
VERTEX
  5
1904
  8
SAPA_PROFIL
 10
6.1445810242637
 20
140.45567713192281
 30
0.0
 42
-0.3394542338034085
  0
VERTEX
  5
1905
  8
SAPA_PROFIL
 10
7.1105068272894121
 20
141.1968580000003
 30
0.0
  0
VERTEX
  5
1906
  8
SAPA_PROFIL
 10
26.088665508260991
 20
141.1968580000003
 30
0.0
 42
-0.3394542744563553
  0
VERTEX
  5
1907
  8
SAPA_PROFIL
 10
27.054591349025198
 20
140.45567699108099
 30
0.0
  0
VERTEX
  5
1908
  8
SAPA_PROFIL
 10
28.999585600575362
 20
133.19685800000019
 30
0.0
  0
VERTEX
  5
1909
  8
SAPA_PROFIL
 10
29.999585600575362
 20
133.19685800000019
 30
0.0
 42
0.4142139999999982
  0
VERTEX
  5
190A
  8
SAPA_PROFIL
 10
30.999585600575251
 20
134.19685800000019
 30
0.0
  0
VERTEX
  5
190B
  8
SAPA_PROFIL
 10
30.999585600575362
 20
135.6872640000002
 30
0.0
 42
-0.4142140000000124
  0
VERTEX
  5
190C
  8
SAPA_PROFIL
 10
31.49958560057533
 20
136.1872640000002
 30
0.0
  0
VERTEX
  5
190D
  8
SAPA_PROFIL
 10
35.099585600575267
 20
136.1872640000002
 30
0.0
  0
VERTEX
  5
190E
  8
SAPA_PROFIL
 10
36.599585600575267
 20
134.6872640000002
 30
0.0
  0
VERTEX
  5
190F
  8
SAPA_PROFIL
 10
38.099585600575267
 20
136.1872640000002
 30
0.0
  0
VERTEX
  5
1910
  8
SAPA_PROFIL
 10
41.349585600575317
 20
136.1872640000002
 30
0.0
  0
VERTEX
  5
1911
  8
SAPA_PROFIL
 10
41.349585600575317
 20
144.19981805699859
 30
0.0
 42
0.3780475071674513
  0
VERTEX
  5
1912
  8
SAPA_PROFIL
 10
38.723720588058647
 20
147.17639713559561
 30
0.0
  0
VERTEX
  5
1913
  8
SAPA_PROFIL
 10
35.832839041980122
 20
147.5397605479219
 30
0.0
 42
0.4247728136669583
  0
VERTEX
  5
1914
  8
SAPA_PROFIL
 10
34.699039600575311
 20
146.65301700000029
 30
0.0
  0
VERTEX
  5
1915
  8
SAPA_PROFIL
 10
35.949039600575361
 20
146.65301700000029
 30
0.0
  0
VERTEX
  5
1916
  8
SAPA_PROFIL
 10
35.949039600575361
 20
145.55301700000021
 30
0.0
  0
VERTEX
  5
1917
  8
SAPA_PROFIL
 10
30.749039600575291
 20
145.55301700000021
 30
0.0
  0
VERTEX
  5
1918
  8
SAPA_PROFIL
 10
30.749039600575291
 20
146.65301700000029
 30
0.0
  0
VERTEX
  5
1919
  8
SAPA_PROFIL
 10
31.999039600575291
 20
146.65301700000029
 30
0.0
  0
VERTEX
  5
191A
  8
SAPA_PROFIL
 10
31.999039600575291
 20
147.02653914335301
 30
0.0
 42
0.3760477967976817
  0
VERTEX
  5
191B
  8
SAPA_PROFIL
 10
31.13069670103593
 20
148.0178344615596
 30
0.0
  0
SEQEND
  5
191C
  8
SAPA_PROFIL
  0
LINE
  5
13A5
  8
SAPA_GLAS
 10
6.5000000000003544
 20
33.199999999991249
 30
0.0
 11
0.5000000000003546
 21
33.199999999991249
 31
0.0
  0
LINE
  5
13A6
  8
SAPA_GLAS
 10
0.5000000000003482
 20
4.3999999999911799
 30
0.0
 11
0.5000000000003546
 21
33.199999999991249
 31
0.0
  0
LINE
  5
13A7
  8
SAPA_GLAS
 10
6.5000000000005747
 20
4.3999999999911781
 30
0.0
 11
6.5000000000003544
 21
33.199999999991249
 31
0.0
  0
POLYLINE
  5
13B4
  8
SAPA_FOGBAND
 62
     2
 66
     1
 10
0.0
 20
0.0
 30
0.0
  0
VERTEX
  5
19EC
  8
SAPA_FOGBAND
 62
     2
 10
-4.309455648071487
 20
154.30955606588299
 30
0.0
 42
0.1803090304626144
  0
VERTEX
  5
19ED
  8
SAPA_FOGBAND
 62
     2
 10
-6.1498673248852311
 20
155.69755369024199
 30
0.0
  0
VERTEX
  5
19EE
  8
SAPA_FOGBAND
 62
     2
 10
-8.6152265308110092
 20
156.4315975790401
 30
0.0
 42
-0.3317810211360308
  0
VERTEX
  5
19EF
  8
SAPA_FOGBAND
 62
     2
 10
-9.3298636479702814
 20
157.39001712448811
 30
0.0
  0
VERTEX
  5
19F0
  8
SAPA_FOGBAND
 62
     2
 10
-9.3298636479703951
 20
158.6237442830878
 30
0.0
 42
0.2679491924312111
  0
VERTEX
  5
19F1
  8
SAPA_FOGBAND
 62
     2
 10
-9.4798636479704861
 20
158.8835519042205
 30
0.0
  0
VERTEX
  5
19F2
  8
SAPA_FOGBAND
 62
     2
 10
-10.38305179084403
 20
159.4050078216367
 30
0.0
 42
0.5773502691894719
  0
VERTEX
  5
19F3
  8
SAPA_FOGBAND
 62
     2
 10
-10.83305179084385
 20
159.14520020050131
 30
0.0
  0
VERTEX
  5
19F4
  8
SAPA_FOGBAND
 62
     2
 10
-10.83305179084396
 20
153.14335943644781
 30
0.0
 42
0.4147066859862881
  0
VERTEX
  5
19F5
  8
SAPA_FOGBAND
 62
     2
 10
-7.8280017859889837
 20
150.1433636868758
 30
0.0
  0
VERTEX
  5
19F6
  8
SAPA_FOGBAND
 62
     2
 10
-5.6460105883750726
 20
150.14703671412681
 30
0.0
 42
-0.4565417232955612
  0
VERTEX
  5
19F7
  8
SAPA_FOGBAND
 62
     2
 10
-5.2962084823341762
 20
149.76398008790491
 30
0.0
  0
VERTEX
  5
19F8
  8
SAPA_FOGBAND
 62
     2
 10
-5.4743378158451002
 20
148.75375843722361
 30
0.0
  0
VERTEX
  5
19F9
  8
SAPA_FOGBAND
 62
     2
 10
-5.8682609170500051
 20
148.8232177082904
 30
0.0
 42
0.6720594905598717
  0
VERTEX
  5
19FA
  8
SAPA_FOGBAND
 62
     2
 10
-6.0655826679285907
 20
148.50979241213781
 30
0.0
  0
VERTEX
  5
19FB
  8
SAPA_FOGBAND
 62
     2
 10
-4.7453747988628221
 20
146.66668330455451
 30
0.0
 42
0.4079520108343612
  0
VERTEX
  5
19FC
  8
SAPA_FOGBAND
 62
     2
 10
-3.9187374606996128
 20
146.52092483857521
 30
0.0
  0
VERTEX
  5
19FD
  8
SAPA_FOGBAND
 62
     2
 10
-2.0477674270944659
 20
147.80134318167711
 30
0.0
 42
0.6720594905598635
  0
VERTEX
  5
19FE
  8
SAPA_FOGBAND
 62
     2
 10
-2.1259914556036348
 20
148.16335463315619
 30
0.0
  0
VERTEX
  5
19FF
  8
SAPA_FOGBAND
 62
     2
 10
-2.5199145568084829
 20
148.23281390422289
 30
0.0
  0
VERTEX
  5
1A00
  8
SAPA_FOGBAND
 62
     2
 10
-2.3636311969082691
 20
149.1191408819339
 30
0.0
 42
-0.4142135623730951
  0
VERTEX
  5
1A01
  8
SAPA_FOGBAND
 62
     2
 10
-2.0160944177045468
 20
149.36248875453751
 30
0.0
  0
VERTEX
  5
1A02
  8
SAPA_FOGBAND
 62
     2
 10
-0.6177483570809806
 20
149.15441198728141
 30
0.0
 42
0.4313344489874135
  0
VERTEX
  5
1A03
  8
SAPA_FOGBAND
 62
     2
 10
-0.2676851511726532
 20
149.41500287893771
 30
0.0
  0
VERTEX
  5
1A04
  8
SAPA_FOGBAND
 62
     2
 10
-0.1848762991112911
 20
150.12299240322821
 30
0.0
 42
0.3972974670000809
  0
VERTEX
  5
1A05
  8
SAPA_FOGBAND
 62
     2
 10
-0.5946667979581511
 20
150.67348200347999
 30
0.0
  0
VERTEX
  5
1A06
  8
SAPA_FOGBAND
 62
     2
 10
-6.095127103493776
 20
151.64336156166181
 30
0.0
  0
VERTEX
  5
1A07
  8
SAPA_FOGBAND
 62
     2
 10
-7.8305267884164174
 20
151.64336156166181
 30
0.0
 42
-0.4147066859863004
  0
VERTEX
  5
1A08
  8
SAPA_FOGBAND
 62
     2
 10
-9.3330517908439639
 20
153.14335943644781
 30
0.0
  0
VERTEX
  5
1A09
  8
SAPA_FOGBAND
 62
     2
 10
-9.3330517908438502
 20
155.3458860260339
 30
0.0
 42
-0.601131774324047
  0
VERTEX
  5
1A0A
  8
SAPA_FOGBAND
 62
     2
 10
-8.4134728382667241
 20
155.27798334846989
 30
0.0
 42
0.2227389711612139
  0
VERTEX
  5
1A0B
  8
SAPA_FOGBAND
 62
     2
 10
-8.2856036690479264
 20
155.16631050934231
 30
0.0
  0
VERTEX
  5
1A0C
  8
SAPA_FOGBAND
 62
     2
 10
-6.4637664960100061
 20
154.6432921902491
 30
0.0
 42
-0.1796843201953831
  0
VERTEX
  5
1A0D
  8
SAPA_FOGBAND
 62
     2
 10
-5.2396946306682777
 20
153.72244622306161
 30
0.0
 42
1.0
  0
VERTEX
  5
1A0E
  8
SAPA_FOGBAND
 62
     2
 10
-4.3137595268726692
 20
154.31628473946051
 30
0.0
  0
SEQEND
  5
1A0F
  8
SAPA_FOGBAND
 62
     2
  0
INSERT
  5
13B5
  8
SAPA_FOGBAND
  6
CONTINUOUS
 62
     2
  2
*U73
 10
0.0
 20
0.0
 30
0.0
1001
ACAD
1002
{
1000
R14_HATCH_DATA
1000
13B5
1011
1.0
1021
0.0
1031
0.0
1021
0.0
1031
0.0
1011
0.0
1021
0.0
1031
0.0
1021
1.0
1031
0.0
1011
0.0
1021
0.0
1031
0.0
1021
0.0
1031
1.0
1040
0.0
1010
0.0
1020
0.0
1030
1.0
1000
SOLID
1070
     1
1070
     0
1071
        1
1071
        1
1071
        1
1070
     2
1040
-6.5109449858177832
1040
150.93535415266911
1040
0.2549509756796394
1040
1.5707963267948959
1040
7.8539816339744819
1070
     1
1071
        0
1070
     0
1070
     1
1071
        1
1040
2.469774194703465
1040
143.8255060126838
1040
0.0
1002
}
  0
POLYLINE
  5
13B6
  8
SAPA_FOGBAND
 62
     2
 66
     1
 10
0.0
 20
0.0
 30
0.0
 70
     1
  0
VERTEX
  5
1A21
  8
SAPA_FOGBAND
 62
     2
 10
-3.3484389499204741
 20
149.29278905960081
 30
0.0
 42
1.0
  0
VERTEX
  5
1A22
  8
SAPA_FOGBAND
 62
     2
 10
-4.3332467029326791
 20
149.4664372372678
 30
0.0
  0
VERTEX
  5
1A23
  8
SAPA_FOGBAND
 62
     2
 10
-4.5937189694330938
 20
147.98922560774949
 30
0.0
 42
0.9999999999999998
  0
VERTEX
  5
1A24
  8
SAPA_FOGBAND
 62
     2
 10
-3.6089112164208892
 20
147.8155774300825
 30
0.0
  0
SEQEND
  5
1A25
  8
SAPA_FOGBAND
 62
     2
  0
POLYLINE
  5
13B7
  8
SAPA_FOGBAND
 62
     2
 66
     1
 10
0.0
 20
0.0
 30
0.0
  0
VERTEX
  5
1A26
  8
SAPA_FOGBAND
 62
     2
 10
37.51054684922201
 20
148.13910359041
 30
0.0
 42
0.1803090304626144
  0
VERTEX
  5
1A27
  8
SAPA_FOGBAND
 62
     2
 10
39.350958526035747
 20
146.75110596605089
 30
0.0
  0
VERTEX
  5
1A28
  8
SAPA_FOGBAND
 62
     2
 10
41.816317731961519
 20
146.01706207725289
 30
0.0
 42
-0.3317810211360308
  0
VERTEX
  5
1A29
  8
SAPA_FOGBAND
 62
     2
 10
42.530954849120789
 20
145.05864253180479
 30
0.0
  0
VERTEX
  5
1A2A
  8
SAPA_FOGBAND
 62
     2
 10
42.530954849120903
 20
143.82491537320519
 30
0.0
 42
0.2679491924312111
  0
VERTEX
  5
1A2B
  8
SAPA_FOGBAND
 62
     2
 10
42.680954849121001
 20
143.56510775207249
 30
0.0
  0
VERTEX
  5
1A2C
  8
SAPA_FOGBAND
 62
     2
 10
43.584142991994547
 20
143.0436518346562
 30
0.0
 42
0.5773502691894719
  0
VERTEX
  5
1A2D
  8
SAPA_FOGBAND
 62
     2
 10
44.034142991994358
 20
143.30345945579171
 30
0.0
  0
VERTEX
  5
1A2E
  8
SAPA_FOGBAND
 62
     2
 10
44.034142991994479
 20
149.30530021984509
 30
0.0
 42
0.4147066859862881
  0
VERTEX
  5
1A2F
  8
SAPA_FOGBAND
 62
     2
 10
41.029092987139492
 20
152.3052959694171
 30
0.0
  0
VERTEX
  5
1A30
  8
SAPA_FOGBAND
 62
     2
 10
38.847101789525588
 20
152.30162294216609
 30
0.0
 42
-0.4565417232955612
  0
VERTEX
  5
1A31
  8
SAPA_FOGBAND
 62
     2
 10
38.497299683484691
 20
152.68467956838799
 30
0.0
  0
VERTEX
  5
1A32
  8
SAPA_FOGBAND
 62
     2
 10
38.675429016995608
 20
153.69490121906929
 30
0.0
  0
VERTEX
  5
1A33
  8
SAPA_FOGBAND
 62
     2
 10
39.06935211820052
 20
153.6254419480025
 30
0.0
 42
0.6720594905598717
  0
VERTEX
  5
1A34
  8
SAPA_FOGBAND
 62
     2
 10
39.266673869079114
 20
153.93886724415509
 30
0.0
  0
VERTEX
  5
1A35
  8
SAPA_FOGBAND
 62
     2
 10
37.946466000013338
 20
155.78197635173839
 30
0.0
 42
0.4079520108343612
  0
VERTEX
  5
1A36
  8
SAPA_FOGBAND
 62
     2
 10
37.119828661850129
 20
155.92773481771769
 30
0.0
  0
VERTEX
  5
1A37
  8
SAPA_FOGBAND
 62
     2
 10
35.248858628244982
 20
154.64731647461579
 30
0.0
 42
0.6720594905598635
  0
VERTEX
  5
1A38
  8
SAPA_FOGBAND
 62
     2
 10
35.32708265675415
 20
154.2853050231368
 30
0.0
  0
VERTEX
  5
1A39
  8
SAPA_FOGBAND
 62
     2
 10
35.721005757958999
 20
154.21584575207001
 30
0.0
  0
VERTEX
  5
1A3A
  8
SAPA_FOGBAND
 62
     2
 10
35.564722398058791
 20
153.32951877435909
 30
0.0
 42
-0.4142135623730951
  0
VERTEX
  5
1A3B
  8
SAPA_FOGBAND
 62
     2
 10
35.217185618855062
 20
153.08617090175539
 30
0.0
  0
VERTEX
  5
1A3C
  8
SAPA_FOGBAND
 62
     2
 10
33.818839558231502
 20
153.2942476690115
 30
0.0
 42
0.4313344489874135
  0
VERTEX
  5
1A3D
  8
SAPA_FOGBAND
 62
     2
 10
33.468776352323168
 20
153.03365677735519
 30
0.0
  0
VERTEX
  5
1A3E
  8
SAPA_FOGBAND
 62
     2
 10
33.385967500261813
 20
152.32566725306469
 30
0.0
 42
0.3972974670000809
  0
VERTEX
  5
1A3F
  8
SAPA_FOGBAND
 62
     2
 10
33.795757999108673
 20
151.77517765281291
 30
0.0
  0
VERTEX
  5
1A40
  8
SAPA_FOGBAND
 62
     2
 10
39.296218304644292
 20
150.8052980946311
 30
0.0
  0
VERTEX
  5
1A41
  8
SAPA_FOGBAND
 62
     2
 10
41.031617989566932
 20
150.8052980946311
 30
0.0
 42
-0.4147066859863004
  0
VERTEX
  5
1A42
  8
SAPA_FOGBAND
 62
     2
 10
42.534142991994472
 20
149.30530021984509
 30
0.0
  0
VERTEX
  5
1A43
  8
SAPA_FOGBAND
 62
     2
 10
42.534142991994372
 20
147.10277363025901
 30
0.0
 42
-0.601131774324047
  0
VERTEX
  5
1A44
  8
SAPA_FOGBAND
 62
     2
 10
41.614564039417232
 20
147.17067630782299
 30
0.0
 42
0.2227389711612139
  0
VERTEX
  5
1A45
  8
SAPA_FOGBAND
 62
     2
 10
41.486694870198427
 20
147.28234914695071
 30
0.0
  0
VERTEX
  5
1A46
  8
SAPA_FOGBAND
 62
     2
 10
39.664857697160521
 20
147.8053674660438
 30
0.0
 42
-0.1796843201953831
  0
VERTEX
  5
1A47
  8
SAPA_FOGBAND
 62
     2
 10
38.440785831818793
 20
148.72621343323141
 30
0.0
 42
1.0
  0
VERTEX
  5
1A48
  8
SAPA_FOGBAND
 62
     2
 10
37.514850728023191
 20
148.1323749168325
 30
0.0
  0
SEQEND
  5
1A49
  8
SAPA_FOGBAND
 62
     2
  0
INSERT
  5
13B8
  8
SAPA_FOGBAND
  6
CONTINUOUS
 62
     2
  2
*U74
 10
0.0
 20
0.0
 30
0.0
1001
ACAD
1002
{
1000
R14_HATCH_DATA
1000
13B8
1011
1.0
1021
0.0
1031
0.0
1021
0.0
1031
0.0
1011
0.0
1021
0.0
1031
0.0
1021
1.0
1031
0.0
1011
0.0
1021
0.0
1031
0.0
1021
0.0
1031
1.0
1040
0.0
1010
0.0
1020
0.0
1030
1.0
1000
SOLID
1070
     1
1070
     0
1071
        1
1071
        1
1071
        1
1070
     2
1040
39.712036186968298
1040
151.5133055036238
1040
0.2549509756796394
1040
-1.5707963267948959
1040
4.7123889803846888
1070
     1
1071
        0
1070
     0
1070
     1
1071
        1
1040
30.73131700644705
1040
158.62315364360919
1040
0.0
1002
}
  0
POLYLINE
  5
13B9
  8
SAPA_FOGBAND
 62
     2
 66
     1
 10
0.0
 20
0.0
 30
0.0
 70
     1
  0
VERTEX
  5
1A5B
  8
SAPA_FOGBAND
 62
     2
 10
36.549530151070989
 20
153.1558705966921
 30
0.0
 42
1.0
  0
VERTEX
  5
1A5C
  8
SAPA_FOGBAND
 62
     2
 10
37.534337904083188
 20
152.98222241902511
 30
0.0
  0
VERTEX
  5
1A5D
  8
SAPA_FOGBAND
 62
     2
 10
37.794810170583609
 20
154.45943404854339
 30
0.0
 42
0.9999999999999998
  0
VERTEX
  5
1A5E
  8
SAPA_FOGBAND
 62
     2
 10
36.810002417571411
 20
154.6330822262104
 30
0.0
  0
SEQEND
  5
1A5F
  8
SAPA_FOGBAND
 62
     2
  0
POLYLINE
  5
13BA
  8
SAPA_FOGBAND
 66
     1
 10
0.0
 20
0.0
 30
0.0
 70
     1
  0
VERTEX
  5
1A60
  8
SAPA_FOGBAND
 10
13.089251262205281
 20
26.706602159641829
 30
0.0
  0
VERTEX
  5
1A61
  8
SAPA_FOGBAND
 10
13.089251262205281
 20
25.50660215964179
 30
0.0
 42
0.4142135623730951
  0
VERTEX
  5
1A62
  8
SAPA_FOGBAND
 10
13.38925126220523
 20
25.206602159641829
 30
0.0
  0
VERTEX
  5
1A63
  8
SAPA_FOGBAND
 10
14.289251262205321
 20
25.206602159641829
 30
0.0
  0
VERTEX
  5
1A64
  8
SAPA_FOGBAND
 10
14.289251262205321
 20
25.556602159641741
 30
0.0
 42
-0.6681786379192988
  0
VERTEX
  5
1A65
  8
SAPA_FOGBAND
 10
14.801383296561321
 20
25.76873419399778
 30
0.0
  0
VERTEX
  5
1A66
  8
SAPA_FOGBAND
 10
15.65493668715443
 20
24.91518080340445
 30
0.0
 42
-0.1989123673796552
  0
VERTEX
  5
1A67
  8
SAPA_FOGBAND
 10
15.88925126220523
 20
24.349495378455298
 30
0.0
  0
VERTEX
  5
1A68
  8
SAPA_FOGBAND
 10
15.88925126220523
 20
24.186800256035511
 30
0.0
 42
-0.3394542588633746
  0
VERTEX
  5
1A69
  8
SAPA_FOGBAND
 10
15.666896975736
 20
23.89702250814873
 30
0.0
  0
VERTEX
  5
1A6A
  8
SAPA_FOGBAND
 10
14.3116055486745
 20
23.533873264758839
 30
0.0
 42
0.3394542588633746
  0
VERTEX
  5
1A6B
  8
SAPA_FOGBAND
 10
14.089251262205281
 20
23.244095516872061
 30
0.0
  0
VERTEX
  5
1A6C
  8
SAPA_FOGBAND
 10
14.089251262205281
 20
20.669108802411589
 30
0.0
 42
0.3394542588633746
  0
VERTEX
  5
1A6D
  8
SAPA_FOGBAND
 10
14.3116055486745
 20
20.379331054524819
 30
0.0
  0
VERTEX
  5
1A6E
  8
SAPA_FOGBAND
 10
15.666896975736
 20
20.0161818111347
 30
0.0
 42
-0.3394542588633744
  0
VERTEX
  5
1A6F
  8
SAPA_FOGBAND
 10
15.88925126220523
 20
19.72640406324815
 30
0.0
  0
VERTEX
  5
1A70
  8
SAPA_FOGBAND
 10
15.88925126220523
 20
19.563708940828128
 30
0.0
 42
-0.1989123673796526
  0
VERTEX
  5
1A71
  8
SAPA_FOGBAND
 10
15.65493668715443
 20
18.99802351587898
 30
0.0
  0
VERTEX
  5
1A72
  8
SAPA_FOGBAND
 10
14.801383296561321
 20
18.14447012528565
 30
0.0
 42
-0.6681786379193474
  0
VERTEX
  5
1A73
  8
SAPA_FOGBAND
 10
14.289251262205321
 20
18.356602159641689
 30
0.0
  0
VERTEX
  5
1A74
  8
SAPA_FOGBAND
 10
14.289251262205321
 20
18.706602159641829
 30
0.0
  0
VERTEX
  5
1A75
  8
SAPA_FOGBAND
 10
13.38925126220523
 20
18.706602159641829
 30
0.0
 42
0.4142135623730951
  0
VERTEX
  5
1A76
  8
SAPA_FOGBAND
 10
13.08925126220527
 20
18.40660215964165
 30
0.0
  0
VERTEX
  5
1A77
  8
SAPA_FOGBAND
 10
13.08925126220527
 20
16.306602159641741
 30
0.0
 42
0.4142135623730951
  0
VERTEX
  5
1A78
  8
SAPA_FOGBAND
 10
13.38925126220523
 20
16.00660215964178
 30
0.0
  0
VERTEX
  5
1A79
  8
SAPA_FOGBAND
 10
14.789251262205321
 20
16.00660215964178
 30
0.0
 42
-0.7754026414786132
  0
VERTEX
  5
1A7A
  8
SAPA_FOGBAND
 10
14.9339591305112
 20
15.443810164234099
 30
0.0
 42
0.1086822875051356
  0
VERTEX
  5
1A7B
  8
SAPA_FOGBAND
 10
7.0058767403744548
 20
11.29376200564327
 30
0.0
 42
-0.8680589103334746
  0
VERTEX
  5
1A7C
  8
SAPA_FOGBAND
 10
6.6490368377125231
 20
11.76868603540704
 30
0.0
  0
VERTEX
  5
1A7D
  8
SAPA_FOGBAND
 10
9.4768371588564921
 20
15.73872143255864
 30
0.0
 42
0.1989123673796536
  0
VERTEX
  5
1A7E
  8
SAPA_FOGBAND
 10
9.7697303776698252
 20
16.445828213745308
 30
0.0
  0
VERTEX
  5
1A7F
  8
SAPA_FOGBAND
 10
9.7697303776698252
 20
19.279147178165051
 30
0.0
 42
0.577350269189628
  0
VERTEX
  5
1A80
  8
SAPA_FOGBAND
 10
9.3197303776700071
 20
19.538954799300271
 30
0.0
  0
VERTEX
  5
1A81
  8
SAPA_FOGBAND
 10
7.0149762743157087
 20
17.40082610288853
 30
0.0
 42
-0.8769764629927301
  0
VERTEX
  5
1A82
  8
SAPA_FOGBAND
 10
6.6528442399595731
 20
17.872765758379799
 30
0.0
  0
VERTEX
  5
1A83
  8
SAPA_FOGBAND
 10
9.4768371588564921
 20
21.83899375328458
 30
0.0
 42
0.198912367379658
  0
VERTEX
  5
1A84
  8
SAPA_FOGBAND
 10
9.7697303776698252
 20
22.54610053447125
 30
0.0
  0
VERTEX
  5
1A85
  8
SAPA_FOGBAND
 10
9.7697303776698288
 20
24.778374896692711
 30
0.0
 42
0.5773502691896441
  0
VERTEX
  5
1A86
  8
SAPA_FOGBAND
 10
9.3197303776700107
 20
25.038182517828162
 30
0.0
  0
VERTEX
  5
1A87
  8
SAPA_FOGBAND
 10
7.0158450274960948
 20
22.900555396298909
 30
0.0
 42
-0.87697646299276
  0
VERTEX
  5
1A88
  8
SAPA_FOGBAND
 10
6.6537129931399592
 20
23.372495051790182
 30
0.0
  0
VERTEX
  5
1A89
  8
SAPA_FOGBAND
 10
9.5526918061701842
 20
27.413708940828268
 30
0.0
 42
-0.198912367379658
  0
VERTEX
  5
1A8A
  8
SAPA_FOGBAND
 10
10.25979858735662
 20
27.706602159641829
 30
0.0
  0
VERTEX
  5
1A8B
  8
SAPA_FOGBAND
 10
12.089251262205281
 20
27.706602159641829
 30
0.0
  0
VERTEX
  5
1A8C
  8
SAPA_FOGBAND
 10
12.07931947189207
 20
27.706602159641829
 30
0.0
  0
SEQEND
  5
1A8D
  8
SAPA_FOGBAND
  0
POLYLINE
  5
13BB
  8
SAPA_FOGBAND
 66
     1
 10
0.0
 20
0.0
 30
0.0
 70
     1
  0
VERTEX
  5
1A8E
  8
SAPA_FOGBAND
 10
-2.4024256711382899
 20
27.706595412301869
 30
0.0
 42
0.4142135623730951
  0
VERTEX
  5
1A8F
  8
SAPA_FOGBAND
 10
-3.4024256711382912
 20
26.706595412301869
 30
0.0
  0
VERTEX
  5
1A90
  8
SAPA_FOGBAND
 10
-3.4024256711382912
 20
25.50659541230182
 30
0.0
 42
-0.4142135623730951
  0
VERTEX
  5
1A91
  8
SAPA_FOGBAND
 10
-3.7024256711382462
 20
25.206595412301869
 30
0.0
  0
VERTEX
  5
1A92
  8
SAPA_FOGBAND
 10
-4.6024256711381089
 20
25.206595412301869
 30
0.0
  0
VERTEX
  5
1A93
  8
SAPA_FOGBAND
 10
-4.6024256711381089
 20
25.556595412302009
 30
0.0
 42
0.6681786379193472
  0
VERTEX
  5
1A94
  8
SAPA_FOGBAND
 10
-5.1145577054941089
 20
25.76872744665782
 30
0.0
  0
VERTEX
  5
1A95
  8
SAPA_FOGBAND
 10
-5.9681110960874433
 20
24.9151740560646
 30
0.0
 42
0.1989123673796526
  0
VERTEX
  5
1A96
  8
SAPA_FOGBAND
 10
-6.2024256711382462
 20
24.349488631115339
 30
0.0
  0
VERTEX
  5
1A97
  8
SAPA_FOGBAND
 10
-6.2024256711382462
 20
24.186793508695551
 30
0.0
 42
0.3394542588633746
  0
VERTEX
  5
1A98
  8
SAPA_FOGBAND
 10
-5.980071384669019
 20
23.89701576080877
 30
0.0
  0
VERTEX
  5
1A99
  8
SAPA_FOGBAND
 10
-4.6247799576072897
 20
23.533866517418868
 30
0.0
 42
-0.3394542588633744
  0
VERTEX
  5
1A9A
  8
SAPA_FOGBAND
 10
-4.4024256711382908
 20
23.244088769532102
 30
0.0
  0
VERTEX
  5
1A9B
  8
SAPA_FOGBAND
 10
-4.4024256711382916
 20
20.66910205507163
 30
0.0
 42
-0.3394542588633746
  0
VERTEX
  5
1A9C
  8
SAPA_FOGBAND
 10
-4.6247799576072914
 20
20.379324307184859
 30
0.0
  0
VERTEX
  5
1A9D
  8
SAPA_FOGBAND
 10
-5.9800713846690199
 20
20.016175063794961
 30
0.0
 42
0.3394542588633747
  0
VERTEX
  5
1A9E
  8
SAPA_FOGBAND
 10
-6.2024256711382471
 20
19.726397315908191
 30
0.0
  0
VERTEX
  5
1A9F
  8
SAPA_FOGBAND
 10
-6.2024256711382471
 20
19.563702193488389
 30
0.0
 42
0.1989123673796526
  0
VERTEX
  5
1AA0
  8
SAPA_FOGBAND
 10
-5.9681110960874442
 20
18.998016768539021
 30
0.0
  0
VERTEX
  5
1AA1
  8
SAPA_FOGBAND
 10
-5.1145577054941107
 20
18.144463377945911
 30
0.0
 42
0.6681786379193474
  0
VERTEX
  5
1AA2
  8
SAPA_FOGBAND
 10
-4.6024256711381106
 20
18.356595412301729
 30
0.0
  0
VERTEX
  5
1AA3
  8
SAPA_FOGBAND
 10
-4.6024256711381097
 20
18.706595412301859
 30
0.0
  0
VERTEX
  5
1AA4
  8
SAPA_FOGBAND
 10
-3.7024256711382471
 20
18.706595412301859
 30
0.0
 42
-0.4142135623730951
  0
VERTEX
  5
1AA5
  8
SAPA_FOGBAND
 10
-3.4024256711382921
 20
18.406595412301911
 30
0.0
  0
VERTEX
  5
1AA6
  8
SAPA_FOGBAND
 10
-3.402425671138293
 20
16.306595412301771
 30
0.0
 42
-0.4142135623730951
  0
VERTEX
  5
1AA7
  8
SAPA_FOGBAND
 10
-3.7024256711382471
 20
16.00659541230182
 30
0.0
  0
VERTEX
  5
1AA8
  8
SAPA_FOGBAND
 10
-5.1024256711381106
 20
16.00659541230182
 30
0.0
 42
0.7754026414785753
  0
VERTEX
  5
1AA9
  8
SAPA_FOGBAND
 10
-5.2471335394439969
 20
15.44380341689414
 30
0.0
  0
VERTEX
  5
1AAA
  8
SAPA_FOGBAND
 10
0.0235302589966383
 20
11.92410090634878
 30
0.0
 42
0.8680589103334742
  0
VERTEX
  5
1AAB
  8
SAPA_FOGBAND
 10
0.3803701616583428
 20
12.399024936112321
 30
0.0
  0
VERTEX
  5
1AAC
  8
SAPA_FOGBAND
 10
-1.6095324523247321
 20
15.73871468521868
 30
0.0
 42
-0.198912367379658
  0
VERTEX
  5
1AAD
  8
SAPA_FOGBAND
 10
-1.902425671138293
 20
16.445821466405349
 30
0.0
  0
VERTEX
  5
1AAE
  8
SAPA_FOGBAND
 10
-1.9024256711382921
 20
19.27914043082508
 30
0.0
 42
-0.5773502691896282
  0
VERTEX
  5
1AAF
  8
SAPA_FOGBAND
 10
-1.4524256711382471
 20
19.5389480519603
 30
0.0
  0
VERTEX
  5
1AB0
  8
SAPA_FOGBAND
 10
0.0144307250556141
 20
18.03116500359404
 30
0.0
 42
0.8769764629927299
  0
VERTEX
  5
1AB1
  8
SAPA_FOGBAND
 10
0.3765627594115233
 20
18.503104659085309
 30
0.0
  0
VERTEX
  5
1AB2
  8
SAPA_FOGBAND
 10
-1.609532452324731
 20
21.83898700594462
 30
0.0
 42
-0.198912367379658
  0
VERTEX
  5
1AB3
  8
SAPA_FOGBAND
 10
-1.9024256711382921
 20
22.54609378713128
 30
0.0
  0
VERTEX
  5
1AB4
  8
SAPA_FOGBAND
 10
-1.902425671138291
 20
24.778368149352861
 30
0.0
 42
-0.5773502691896282
  0
VERTEX
  5
1AB5
  8
SAPA_FOGBAND
 10
-1.4524256711382451
 20
25.038175770488198
 30
0.0
  0
VERTEX
  5
1AB6
  8
SAPA_FOGBAND
 10
0.013561971875231
 20
23.530894297004419
 30
0.0
 42
0.8769764629927299
  0
VERTEX
  5
1AB7
  8
SAPA_FOGBAND
 10
0.3756940062311401
 20
24.002833952495688
 30
0.0
  0
VERTEX
  5
1AB8
  8
SAPA_FOGBAND
 10
-1.6853870996384199
 20
27.413702193488302
 30
0.0
 42
0.198912367379658
  0
VERTEX
  5
1AB9
  8
SAPA_FOGBAND
 10
-2.3924938808250871
 20
27.706595412301869
 30
0.0
  0
SEQEND
  5
1ABA
  8
SAPA_FOGBAND
  0
DIMENSION
  5
13C6
  8
SAPA_MATT
  2
*D68
 10
41.60000000000003
 20
231.19616232240691
 30
0.0
 11
16.600000000000019
 21
233.69616232240691
 31
0.0
 70
     0
 13
-8.3999999999999915
 23
211.2000000000003
 33
0.0
 14
41.60000000000003
 24
211.20000000000019
 34
0.0
1001
ACAD
1000
DSTYLE
1002
{
1070
    40
1040
1.0
1002
}
  0
DIMENSION
  5
13C7
  8
SAPA_MATT
  2
*D66
 10
-33.400000000000098
 20
211.2000000000003
 30
0.0
 11
-35.900000000000141
 21
188.70000000000019
 31
0.0
 70
     0
 13
-8.3999999999999631
 23
166.2000000000003
 33
0.0
 14
-6.8999999999999062
 24
211.2000000000003
 34
0.0
 50
90.0
1001
ACAD
1000
DSTYLE
1002
{
1070
    40
1040
1.0
1002
}
  0
DIMENSION
  5
13C8
  8
SAPA_MATT
  2
*D65
 10
-33.400000000000098
 20
166.2000000000003
 30
0.0
 11
-35.900000000000141
 21
151.20000000000019
 31
0.0
 70
     0
 13
-8.9857864376266292
 23
136.2000000000001
 33
0.0
 14
-8.3999999999999631
 24
166.2000000000003
 34
0.0
 50
90.0
1001
ACAD
1000
DSTYLE
1002
{
1070
    40
1040
1.0
1002
}
  0
DIMENSION
  5
13C9
  8
SAPA_MATT
  2
*D64
 10
-33.400000000000112
 20
136.2000000000001
 30
0.0
 11
-35.900295275590693
 21
76.199999999999989
 31
0.0
 70
     0
 13
-7.8999999999999631
 23
16.199999999999871
 33
0.0
 14
-8.9857864376266292
 24
136.2000000000001
 34
0.0
 50
90.0
1001
ACAD
1000
DSTYLE
1002
{
1070
    40
1040
1.0
1002
}
  0
DIMENSION
  5
13CA
  8
SAPA_MATT
  2
*D63
 10
46.599999999999888
 20
243.19616232240691
 30
0.0
 11
16.599999999999891
 21
245.69616232240691
 31
0.0
 70
     0
 13
-13.4000000000001
 23
221.19616232240691
 33
0.0
 14
46.599999999999888
 24
221.19616232240691
 34
0.0
1001
ACAD
1000
DSTYLE
1002
{
1070
    40
1040
1.0
1002
}
  0
DIMENSION
  5
13CB
  8
SAPA_MATT
  2
*D67
 10
-45.400000000000119
 20
16.1999999999999
 30
0.0
 11
-47.900000000000119
 21
113.7
 31
0.0
 70
     0
  1
195
 13
-8.3999999999999915
 23
211.2000000000001
 33
0.0
 14
-7.8999999999999773
 24
16.199999999999889
 34
0.0
 50
90.0
1001
ACAD
1000
DSTYLE
1002
{
1070
    40
1040
1.0
1002
}
  0
ENDSEC
  0
EOF
