  0
SECTION
  2
HEADER
  9
$ACADVER
  1
AC1009
  9
$INSBASE
 10
34.978764781829341
 20
314.79097932011791
 30
0.0
  9
$EXTMIN
 10
-3.8514500770590678
 20
-16.060000000002098
 30
0.0
  9
$EXTMAX
 10
115.6948335013642
 20
240.4908450440789
 30
0.0
  9
$LIMMIN
 10
0.0
 20
0.0
  9
$LIMMAX
 10
998.0
 20
710.0
  9
$ORTHOMODE
 70
     0
  9
$REGENMODE
 70
     1
  9
$FILLMODE
 70
     1
  9
$QTEXTMODE
 70
     0
  9
$MIRRTEXT
 70
     1
  9
$DRAGMODE
 70
     2
  9
$LTSCALE
 40
7.0
  9
$OSMODE
 70
   167
  9
$ATTMODE
 70
     1
  9
$TEXTSIZE
 40
6.0
  9
$TRACEWID
 40
0.05
  9
$TEXTSTYLE
  7
ISO
  9
$CLAYER
  8
0
  9
$CELTYPE
  6
BYLAYER
  9
$CECOLOR
 62
   256
  9
$DIMSCALE
 40
0.0
  9
$DIMASZ
 40
3.0
  9
$DIMEXO
 40
1.5
  9
$DIMDLI
 40
10.0
  9
$DIMRND
 40
0.0
  9
$DIMDLE
 40
0.0
  9
$DIMEXE
 40
1.5
  9
$DIMTP
 40
0.0
  9
$DIMTM
 40
0.0
  9
$DIMTXT
 40
3.0
  9
$DIMCEN
 40
-5.0
  9
$DIMTSZ
 40
0.0
  9
$DIMTOL
 70
     0
  9
$DIMLIM
 70
     0
  9
$DIMTIH
 70
     0
  9
$DIMTOH
 70
     1
  9
$DIMSE1
 70
     0
  9
$DIMSE2
 70
     0
  9
$DIMTAD
 70
     1
  9
$DIMZIN
 70
     8
  9
$DIMBLK
  1

  9
$DIMASO
 70
     1
  9
$DIMSHO
 70
     1
  9
$DIMPOST
  1

  9
$DIMAPOST
  1

  9
$DIMALT
 70
     0
  9
$DIMALTD
 70
     0
  9
$DIMALTF
 40
25.399999999999999
  9
$DIMLFAC
 40
-1.0
  9
$DIMTOFL
 70
     1
  9
$DIMTVP
 40
0.0
  9
$DIMTIX
 70
     0
  9
$DIMSOXD
 70
     0
  9
$DIMSAH
 70
     0
  9
$DIMBLK1
  1

  9
$DIMBLK2
  1

  9
$DIMSTYLE
  2
MASKIN
  9
$DIMCLRD
 70
   256
  9
$DIMCLRE
 70
   256
  9
$DIMCLRT
 70
     2
  9
$DIMTFAC
 40
1.0
  9
$DIMGAP
 40
1.0
  9
$LUNITS
 70
     2
  9
$LUPREC
 70
     2
  9
$SKETCHINC
 40
0.1
  9
$FILLETRAD
 40
0.0
  9
$AUNITS
 70
     0
  9
$AUPREC
 70
     2
  9
$MENU
  1
ACAD
  9
$ELEVATION
 40
0.0
  9
$PELEVATION
 40
0.0
  9
$THICKNESS
 40
0.0
  9
$LIMCHECK
 70
     0
  9
$BLIPMODE
 70
     0
  9
$CHAMFERA
 40
0.0
  9
$CHAMFERB
 40
0.0
  9
$SKPOLY
 70
     0
  9
$TDCREATE
 40
2450148.468107292
  9
$TDUPDATE
 40
2456366.385688113
  9
$TDINDWG
 40
0.2426748958
  9
$TDUSRTIMER
 40
0.2426748958
  9
$USRTIMER
 70
     1
  9
$ANGBASE
 50
0.0
  9
$ANGDIR
 70
     0
  9
$PDMODE
 70
     3
  9
$PDSIZE
 40
-5.0
  9
$PLINEWID
 40
0.0
  9
$COORDS
 70
     1
  9
$SPLFRAME
 70
     0
  9
$SPLINETYPE
 70
     6
  9
$SPLINESEGS
 70
     8
  9
$ATTDIA
 70
     0
  9
$ATTREQ
 70
     1
  9
$HANDLING
 70
     1
  9
$HANDSEED
  5
11E1
  9
$SURFTAB1
 70
     6
  9
$SURFTAB2
 70
     6
  9
$SURFTYPE
 70
     6
  9
$SURFU
 70
     6
  9
$SURFV
 70
     6
  9
$UCSNAME
  2

  9
$UCSORG
 10
0.0
 20
0.0
 30
0.0
  9
$UCSXDIR
 10
1.0
 20
0.0
 30
0.0
  9
$UCSYDIR
 10
0.0
 20
1.0
 30
0.0
  9
$PUCSNAME
  2

  9
$PUCSORG
 10
0.0
 20
0.0
 30
0.0
  9
$PUCSXDIR
 10
1.0
 20
0.0
 30
0.0
  9
$PUCSYDIR
 10
0.0
 20
1.0
 30
0.0
  9
$USERI1
 70
     0
  9
$USERI2
 70
     0
  9
$USERI3
 70
     0
  9
$USERI4
 70
     0
  9
$USERI5
 70
     0
  9
$USERR1
 40
0.0
  9
$USERR2
 40
0.0
  9
$USERR3
 40
0.0
  9
$USERR4
 40
0.0
  9
$USERR5
 40
0.0
  9
$WORLDVIEW
 70
     1
  9
$SHADEDGE
 70
     1
  9
$SHADEDIF
 70
    70
  9
$TILEMODE
 70
     1
  9
$MAXACTVP
 70
    16
  9
$PLIMCHECK
 70
     0
  9
$PEXTMIN
 10
1.0000000000000000E+020
 20
1.0000000000000000E+020
 30
1.0000000000000000E+020
  9
$PEXTMAX
 10
-1.0000000000000000E+020
 20
-1.0000000000000000E+020
 30
-1.0000000000000000E+020
  9
$PLIMMIN
 10
0.0
 20
0.0
  9
$PLIMMAX
 10
12.0
 20
9.0
  9
$UNITMODE
 70
     0
  9
$VISRETAIN
 70
     1
  9
$PLINEGEN
 70
     0
  9
$PSLTSCALE
 70
     1
  0
ENDSEC
  0
SECTION
  2
TABLES
  0
TABLE
  2
VPORT
 70
     1
  0
VPORT
  2
*ACTIVE
 70
     0
 10
0.0
 20
0.0
 11
1.0
 21
1.0
 12
220.95733054763551
 22
235.35279909923531
 13
0.0
 23
0.0
 14
5.0
 24
5.0
 15
10.0
 25
10.0
 16
0.0
 26
0.0
 36
1.0
 17
0.0
 27
0.0
 37
0.0
 40
313.88864754792149
 41
2.8418491484184911
 42
50.0
 43
0.0
 44
0.0
 50
0.0
 51
0.0
 71
     0
 72
   100
 73
     1
 74
     0
 75
     0
 76
     0
 77
     0
 78
     0
  0
ENDTAB
  0
TABLE
  2
LTYPE
 70
    21
  0
LTYPE
  2
CONTINUOUS
 70
     0
  3
Solid line
 72
    65
 73
     0
 40
0.0
  0
LTYPE
  2
BYGG-014565$0$NEWDOT
 70
     0
  3
____ . ____ . ____ . ____ . ____ . ____ . ____
 72
    65
 73
     4
 40
2.0
 49
1.0
 49
-0.5
 49
0.0
 49
-0.5
  0
LTYPE
  2
BYGG-014247$0$DASHDOT
 70
     0
  3
__ . __ . __ . __ . __ . __ . __ . __ . __ . __
 72
    65
 73
     4
 40
1.0
 49
0.5
 49
-0.25
 49
0.0
 49
-0.25
  0
LTYPE
  2
BYGG-022308$0$NEWDOT
 70
     0
  3
____ . ____ . ____ . ____ . ____ . ____ . ____
 72
    65
 73
     4
 40
2.0
 49
1.0
 49
-0.5
 49
0.0
 49
-0.5
  0
LTYPE
  2
BYGG-022308$0$DASHDOT
 70
     0
  3
__ . __ . __ . __ . __ . __ . __ . __ . __ . __
 72
    65
 73
     4
 40
1.0
 49
0.5
 49
-0.25
 49
0.0
 49
-0.25
  0
LTYPE
  2
BYGG-022308$0$DASHED
 70
     0
  3
__ __ __ __ __ __ __ __ __ __ __ __ __ __ __
 72
    65
 73
     2
 40
0.75
 49
0.5
 49
-0.25
  0
LTYPE
  2
BYGG-022308$0$PHANTOM
 70
     0
  3
Phantom ______  __  __  ______  __  __  ______
 72
    65
 73
     6
 40
63.5
 49
31.75
 49
-6.3499999999999988
 49
6.3499999999999988
 49
-6.3499999999999988
 49
6.3499999999999988
 49
-6.3499999999999988
  0
LTYPE
  2
BYGG-014533$0$NEWDOT
 70
     0
  3
____ . ____ . ____ . ____ . ____ . ____ . ____
 72
    65
 73
     4
 40
2.0
 49
1.0
 49
-0.5
 49
0.0
 49
-0.5
  0
LTYPE
  2
BYGG-021997$0$NEWDOT
 70
     0
  3
____ . ____ . ____ . ____ . ____ . ____ . ____
 72
    65
 73
     4
 40
2.0
 49
1.0
 49
-0.5
 49
0.0
 49
-0.5
  0
LTYPE
  2
BYGG-021997$0$DASHDOT
 70
     0
  3
__ . __ . __ . __ . __ . __ . __ . __ . __ . __
 72
    65
 73
     4
 40
1.0
 49
0.5
 49
-0.25
 49
0.0
 49
-0.25
  0
LTYPE
  2
BYGG-021997$0$DASHED
 70
     0
  3
__ __ __ __ __ __ __ __ __ __ __ __ __ __ __
 72
    65
 73
     2
 40
0.75
 49
0.5
 49
-0.25
  0
LTYPE
  2
BYGG-021997$0$PHANTOM
 70
     0
  3
Phantom ______  __  __  ______  __  __  ______
 72
    65
 73
     6
 40
63.5
 49
31.75
 49
-6.3499999999999988
 49
6.3499999999999988
 49
-6.3499999999999988
 49
6.3499999999999988
 49
-6.3499999999999988
  0
LTYPE
  2
BYGG-014565$0$ZIGZAG
 70
     0
  3
Zig zag /\/\/\/\/\/\/\/\/\/\/\/\/\/\/\/\/\/\/\/\/\/\/\/
 72
    65
 73
     4
 40
20.32254
 49
0.00254
 49
-5.0800000000000001
 49
-10.16
 49
-5.0800000000000001
  0
LTYPE
  2
BYGG-014533$0$ZIGZAG
 70
     0
  3
Zig zag /\/\/\/\/\/\/\/\/\/\/\/\/\/\/\/\/\/\/\/\/\/\/\/
 72
    65
 73
     4
 40
20.32254
 49
0.00254
 49
-5.0800000000000001
 49
-10.16
 49
-5.0800000000000001
  0
LTYPE
  2
BYGG-014203$0$ZIGZAG
 70
     0
  3
Zig zag /\/\/\/\/\/\/\/\/\/\/\/\/\/\/\/\/\/\/\/\/\/\/\/
 72
    65
 73
     4
 40
20.32254
 49
0.00254
 49
-5.0800000000000001
 49
-10.16
 49
-5.0800000000000001
  0
LTYPE
  2
BYGG-014203$0$NEWDOT
 70
     0
  3
____ . ____ . ____ . ____ . ____ . ____ . ____
 72
    65
 73
     4
 40
2.0
 49
1.0
 49
-0.5
 49
0.0
 49
-0.5
  0
LTYPE
  2
PHANTOM2
 70
     0
  3
Phantom (.5x) ___ _ _ ___ _ _ ___ _ _ ___ _ _
 72
    65
 73
     6
 40
1.25
 49
0.625
 49
-0.125
 49
0.125
 49
-0.125
 49
0.125
 49
-0.125
  0
LTYPE
  2
BYGG-028766$0$NEWDOT
 70
     0
  3
____ . ____ . ____ . ____ . ____ . ____ . ____
 72
    65
 73
     4
 40
2.0
 49
1.0
 49
-0.5
 49
0.0
 49
-0.5
  0
LTYPE
  2
BYGG-028766$0$DASHDOT
 70
     0
  3
__ . __ . __ . __ . __ . __ . __ . __ . __ . __
 72
    65
 73
     4
 40
1.0
 49
0.5
 49
-0.25
 49
0.0
 49
-0.25
  0
LTYPE
  2
BYGG-028766$0$DASHED
 70
     0
  3
__ __ __ __ __ __ __ __ __ __ __ __ __ __ __
 72
    65
 73
     2
 40
0.75
 49
0.5
 49
-0.25
  0
LTYPE
  2
BYGG-028766$0$PHANTOM
 70
     0
  3
Phantom ______  __  __  ______  __  __  ______
 72
    65
 73
     6
 40
63.5
 49
31.75
 49
-6.3499999999999988
 49
6.3499999999999988
 49
-6.3499999999999988
 49
6.3499999999999988
 49
-6.3499999999999988
  0
ENDTAB
  0
TABLE
  2
LAYER
 70
   123
  0
LAYER
  2
0
 70
     0
 62
     7
  6
CONTINUOUS
  0
LAYER
  2
DEFPOINTS
 70
     0
 62
     7
  6
CONTINUOUS
  0
LAYER
  2
SAPA_ANSLUTNING
 70
     0
 62
     6
  6
CONTINUOUS
  0
LAYER
  2
SAPA_PROFIL
 70
     0
 62
     7
  6
CONTINUOUS
  0
LAYER
  2
SAPA_ARTIKELNR
 70
     0
 62
     4
  6
CONTINUOUS
  0
LAYER
  2
SAPA_MATT
 70
     0
 62
     1
  6
CONTINUOUS
  0
LAYER
  2
SAPA_LIGHT
 70
     1
 62
     1
  6
CONTINUOUS
  0
LAYER
  2
SAPA_GLAS
 70
     0
 62
     4
  6
CONTINUOUS
  0
LAYER
  2
SAPA_FOGBAND
 70
     0
 62
     2
  6
CONTINUOUS
  0
ENDTAB
  0
TABLE
  2
STYLE
 70
    20
  0
STYLE
  2
STANDARD
 70
     0
 40
0.0
 41
1.0
 50
0.0
 71
     0
 42
0.2
  3
txt
  4

  0
STYLE
  2
ISO
 70
     0
 40
0.0
 41
1.0
 50
0.0
 71
     0
 42
6.0
  3
isocp3.shx
  4

  0
STYLE
  2

 70
     1
 40
0.0
 41
1.0
 50
0.0
 71
     0
 42
0.2
  3
ltypeshp.shx
  4

  0
STYLE
  2
BYGG-022466$0$STANDARD
 70
     0
 40
0.0
 41
1.0
 50
0.0
 71
     0
 42
0.2
  3
txt
  4

  0
STYLE
  2
BYGG-022466$0$ISO
 70
     0
 40
0.0
 41
1.0
 50
0.0
 71
     0
 42
3.5
  3
txt
  4

  0
STYLE
  2
BYGG-014565$0$STANDARD
 70
     0
 40
0.0
 41
1.0
 50
0.0
 71
     0
 42
0.2
  3
isocp3.shx
  4

  0
STYLE
  2
BYGG-014565$0$ISO
 70
     0
 40
0.0
 41
1.0
 50
0.0
 71
     0
 42
3.5
  3
isocp3.shx
  4

  0
STYLE
  2
BYGG-021741$0$STANDARD
 70
     0
 40
0.0
 41
1.0
 50
0.0
 71
     0
 42
0.2
  3
txt
  4

  0
STYLE
  2
BYGG-014247$0$STANDARD
 70
     0
 40
0.0
 41
1.0
 50
0.0
 71
     0
 42
0.2
  3
txt
  4

  0
STYLE
  2
BYGG-014247$0$ISO
 70
     0
 40
0.0
 41
1.0
 50
0.0
 71
     0
 42
3.5
  3
isocp3.shx
  4

  0
STYLE
  2
BYGG-028766$0$STANDARD
 70
     0
 40
0.0
 41
1.0
 50
0.0
 71
     0
 42
0.2
  3
txt
  4

  0
STYLE
  2
BYGG-028766$0$ISO
 70
     0
 40
0.0
 41
1.0
 50
0.0
 71
     0
 42
3.5
  3
txt
  4

  0
STYLE
  2
BYGG-022308$0$STANDARD
 70
     0
 40
0.0
 41
1.0
 50
0.0
 71
     0
 42
0.2
  3
txt
  4

  0
STYLE
  2
BYGG-022308$0$ISO
 70
     0
 40
0.0
 41
1.0
 50
0.0
 71
     0
 42
3.5
  3
txt
  4

  0
STYLE
  2
BYGG-014533$0$STANDARD
 70
     0
 40
0.0
 41
1.0
 50
0.0
 71
     0
 42
0.2
  3
txt
  4

  0
STYLE
  2
BYGG-014533$0$ISO
 70
     0
 40
0.0
 41
1.0
 50
0.0
 71
     0
 42
2.5
  3
isocp3.shx
  4

  0
STYLE
  2
BYGG-021997$0$STANDARD
 70
     0
 40
0.0
 41
1.0
 50
0.0
 71
     0
 42
0.2
  3
txt
  4

  0
STYLE
  2
BYGG-021997$0$ISO
 70
     0
 40
0.0
 41
1.0
 50
0.0
 71
     0
 42
3.5
  3
txt
  4

  0
STYLE
  2
BYGG-014203$0$STANDARD
 70
     0
 40
0.0
 41
1.0
 50
0.0
 71
     0
 42
0.2
  3
txt
  4

  0
STYLE
  2
BYGG-014203$0$ISO
 70
     0
 40
0.0
 41
1.0
 50
0.0
 71
     0
 42
3.5
  3
isocp3.shx
  4

  0
ENDTAB
  0
TABLE
  2
VIEW
 70
     0
  0
ENDTAB
  0
TABLE
  2
UCS
 70
     0
  0
ENDTAB
  0
TABLE
  2
APPID
 70
    18
  0
APPID
  2
ACAD
 70
     0
  0
APPID
  2
ACAECLAYERSTANDARD
 70
     0
  0
APPID
  2
ACAD_MLEADERVER
 70
     0
  0
APPID
  2
ACAD_DSTYLE_DIMTEXT_FILL
 70
     0
  0
APPID
  2
ACAD_DSTYLE_DIMEXT_LENGTH
 70
     0
  0
APPID
  2
ACAD_DSTYLE_DIMEXT_ENABLED
 70
     0
  0
APPID
  2
ACAD_DSTYLE_DIM_LINETYPE
 70
     0
  0
APPID
  2
ACAD_DSTYLE_DIM_EXT1_LINETYPE
 70
     0
  0
APPID
  2
ACAD_DSTYLE_DIM_EXT2_LINETYPE
 70
     0
  0
APPID
  2
ACAD_DSTYLE_DIMJOGGED_JOGA
 70
     0
  0
APPID
  2
ACAD_DSTYLE_DIMARC_LENGTH_
 70
     0
  0
APPID
  2
ACAD_PSEXT
 70
     0
  0
APPID
  2
AMG_ARCHIVE11
 70
     0
  0
APPID
  2
ACAD_EXEMPT_FROM_CAD_STANDARDS
 70
     0
  0
APPID
  2
ACADANNOTATIVE
 70
     0
  0
APPID
  2
ACAD_NAV_VCDISPLAY
 70
     0
  0
APPID
  2
AEC_XDATA_BOUND_SPACE
 70
     0
  0
APPID
  2
ACCMTRANSPARENCY
 70
     0
  0
ENDTAB
  0
TABLE
  2
DIMSTYLE
 70
    17
  0
DIMSTYLE
  2
MASKIN
 70
     0
  3

  4

  5

  6

  7

 40
0.0
 41
3.0
 42
1.5
 43
10.0
 44
1.5
 45
0.0
 46
0.0
 47
0.0
 48
0.0
140
3.0
141
-5.0
142
0.0
143
25.399999999999999
144
-1.0
145
0.0
146
1.0
147
1.0
 71
     0
 72
     0
 73
     0
 74
     1
 75
     0
 76
     0
 77
     1
 78
     8
170
     0
171
     0
172
     1
173
     0
174
     0
175
     0
176
   256
177
   256
178
     2
  0
DIMSTYLE
  2
BYGG-022466$0$MASKIN
 70
     0
  3

  4

  5

  6

  7

 40
0.0
 41
3.0
 42
1.5
 43
10.0
 44
1.5
 45
0.0
 46
0.0
 47
0.0
 48
0.0
140
3.0
141
-5.0
142
0.0
143
25.399999999999999
144
-1.0
145
0.0
146
1.0
147
1.0
 71
     0
 72
     0
 73
     0
 74
     0
 75
     0
 76
     0
 77
     1
 78
     8
170
     0
171
     0
172
     1
173
     0
174
     0
175
     0
176
   256
177
   256
178
     2
  0
DIMSTYLE
  2
BYGG-022466$0$STANDARD
 70
     0
  3

  4

  5

  6

  7

 40
1.0
 41
0.18
 42
0.0625
 43
0.38
 44
0.18
 45
0.0
 46
0.0
 47
0.0
 48
0.0
140
0.18
141
0.09
142
0.0
143
25.399999999999999
144
1.0
145
0.0
146
1.0
147
0.09
 71
     0
 72
     0
 73
     1
 74
     1
 75
     0
 76
     0
 77
     0
 78
     0
170
     0
171
     2
172
     0
173
     0
174
     0
175
     0
176
     0
177
     0
178
     0
  0
DIMSTYLE
  2
BYGG-014565$0$STANDARD
 70
     0
  3

  4

  5

  6

  7

 40
1.0
 41
0.18
 42
0.0625
 43
0.38
 44
0.18
 45
0.0
 46
0.0
 47
0.0
 48
0.0
140
0.18
141
0.09
142
0.0
143
25.399999999999999
144
1.0
145
0.0
146
1.0
147
0.09
 71
     0
 72
     0
 73
     1
 74
     1
 75
     0
 76
     0
 77
     0
 78
     0
170
     0
171
     2
172
     0
173
     0
174
     0
175
     0
176
     0
177
     0
178
     0
  0
DIMSTYLE
  2
BYGG-014565$0$MASKIN
 70
     0
  3

  4

  5

  6

  7

 40
0.0
 41
3.0
 42
1.5
 43
10.0
 44
1.5
 45
0.0
 46
0.0
 47
0.0
 48
0.0
140
3.0
141
-5.0
142
0.0
143
25.399999999999999
144
-1.0
145
0.0
146
1.0
147
1.0
 71
     0
 72
     0
 73
     0
 74
     0
 75
     0
 76
     0
 77
     1
 78
     8
170
     0
171
     0
172
     1
173
     0
174
     0
175
     0
176
   256
177
   256
178
     2
  0
DIMSTYLE
  2
BYGG-021741$0$STANDARD
 70
     0
  3

  4

  5

  6

  7

 40
1.0
 41
0.18
 42
0.0625
 43
0.38
 44
0.18
 45
0.0
 46
0.0
 47
0.0
 48
0.0
140
0.18
141
0.09
142
0.0
143
25.399999999999999
144
1.0
145
0.0
146
1.0
147
0.09
 71
     0
 72
     0
 73
     1
 74
     1
 75
     0
 76
     0
 77
     0
 78
     0
170
     0
171
     2
172
     0
173
     0
174
     0
175
     0
176
     0
177
     0
178
     0
  0
DIMSTYLE
  2
BYGG-014247$0$MASKIN
 70
     0
  3

  4

  5

  6

  7

 40
0.0
 41
3.0
 42
1.5
 43
10.0
 44
1.5
 45
0.0
 46
0.0
 47
0.0
 48
0.0
140
3.0
141
-5.0
142
0.0
143
25.399999999999999
144
-1.0
145
0.0
146
1.0
147
1.0
 71
     0
 72
     0
 73
     0
 74
     0
 75
     0
 76
     0
 77
     1
 78
     8
170
     0
171
     0
172
     1
173
     0
174
     0
175
     0
176
   256
177
   256
178
   256
  0
DIMSTYLE
  2
BYGG-028766$0$STANDARD
 70
     0
  3

  4

  5

  6

  7

 40
1.0
 41
0.18
 42
0.0625
 43
0.38
 44
0.18
 45
0.0
 46
0.0
 47
0.0
 48
0.0
140
0.18
141
0.09
142
0.0
143
25.399999999999999
144
1.0
145
0.0
146
1.0
147
0.09
 71
     0
 72
     0
 73
     1
 74
     1
 75
     0
 76
     0
 77
     0
 78
     0
170
     0
171
     2
172
     0
173
     0
174
     0
175
     0
176
     0
177
     0
178
     0
  0
DIMSTYLE
  2
BYGG-028766$0$MASKIN
 70
     0
  3

  4

  5

  6

  7

 40
0.0
 41
3.0
 42
1.5
 43
10.0
 44
1.5
 45
0.0
 46
0.0
 47
0.0
 48
0.0
140
3.0
141
-5.0
142
0.0
143
25.399999999999999
144
-1.0
145
0.0
146
1.0
147
1.0
 71
     0
 72
     0
 73
     0
 74
     0
 75
     0
 76
     0
 77
     1
 78
     8
170
     0
171
     0
172
     1
173
     0
174
     0
175
     0
176
   256
177
   256
178
     2
  0
DIMSTYLE
  2
BYGG-022308$0$STANDARD
 70
     0
  3

  4

  5

  6

  7

 40
1.0
 41
0.18
 42
0.0625
 43
0.38
 44
0.18
 45
0.0
 46
0.0
 47
0.0
 48
0.0
140
0.18
141
0.09
142
0.0
143
25.399999999999999
144
1.0
145
0.0
146
1.0
147
0.09
 71
     0
 72
     0
 73
     1
 74
     1
 75
     0
 76
     0
 77
     0
 78
     0
170
     0
171
     2
172
     0
173
     0
174
     0
175
     0
176
     0
177
     0
178
     0
  0
DIMSTYLE
  2
BYGG-022308$0$MASKIN
 70
     0
  3

  4

  5

  6

  7

 40
0.0
 41
3.0
 42
1.5
 43
10.0
 44
1.5
 45
0.0
 46
0.0
 47
0.0
 48
0.0
140
3.0
141
-5.0
142
0.0
143
25.399999999999999
144
-1.0
145
0.0
146
1.0
147
1.0
 71
     0
 72
     0
 73
     0
 74
     0
 75
     0
 76
     0
 77
     1
 78
     8
170
     0
171
     0
172
     1
173
     0
174
     0
175
     0
176
   256
177
   256
178
     2
  0
DIMSTYLE
  2
BYGG-014533$0$STANDARD
 70
     0
  3

  4

  5

  6

  7

 40
1.0
 41
0.18
 42
0.0625
 43
0.38
 44
0.18
 45
0.0
 46
0.0
 47
0.0
 48
0.0
140
0.18
141
0.09
142
0.0
143
25.399999999999999
144
1.0
145
0.0
146
1.0
147
0.09
 71
     0
 72
     0
 73
     1
 74
     1
 75
     0
 76
     0
 77
     0
 78
     0
170
     0
171
     2
172
     0
173
     0
174
     0
175
     0
176
     0
177
     0
178
     0
  0
DIMSTYLE
  2
BYGG-014533$0$MASKIN
 70
     0
  3

  4

  5

  6

  7

 40
0.0
 41
3.0
 42
1.5
 43
10.0
 44
1.5
 45
0.0
 46
0.0
 47
0.0
 48
0.0
140
3.0
141
-5.0
142
0.0
143
25.399999999999999
144
-1.0
145
0.0
146
1.0
147
1.0
 71
     0
 72
     0
 73
     0
 74
     1
 75
     0
 76
     0
 77
     1
 78
     8
170
     0
171
     0
172
     1
173
     0
174
     0
175
     0
176
   256
177
   256
178
     2
  0
DIMSTYLE
  2
BYGG-021997$0$STANDARD
 70
     0
  3

  4

  5

  6

  7

 40
1.0
 41
0.18
 42
0.0625
 43
0.38
 44
0.18
 45
0.0
 46
0.0
 47
0.0
 48
0.0
140
0.18
141
0.09
142
0.0
143
25.399999999999999
144
1.0
145
0.0
146
1.0
147
0.09
 71
     0
 72
     0
 73
     1
 74
     1
 75
     0
 76
     0
 77
     0
 78
     0
170
     0
171
     2
172
     0
173
     0
174
     0
175
     0
176
     0
177
     0
178
     0
  0
DIMSTYLE
  2
BYGG-021997$0$MASKIN
 70
     0
  3

  4

  5

  6

  7

 40
0.0
 41
3.0
 42
1.5
 43
10.0
 44
1.5
 45
0.0
 46
0.0
 47
0.0
 48
0.0
140
3.0
141
-5.0
142
0.0
143
25.399999999999999
144
-1.0
145
0.0
146
1.0
147
1.0
 71
     0
 72
     0
 73
     0
 74
     0
 75
     0
 76
     0
 77
     1
 78
     8
170
     0
171
     0
172
     1
173
     0
174
     0
175
     0
176
   256
177
   256
178
     2
  0
DIMSTYLE
  2
BYGG-014203$0$STANDARD
 70
     0
  3

  4

  5

  6

  7

 40
1.0
 41
0.18
 42
0.0625
 43
0.38
 44
0.18
 45
0.0
 46
0.0
 47
0.0
 48
0.0
140
0.18
141
0.09
142
0.0
143
25.399999999999999
144
1.0
145
0.0
146
1.0
147
0.09
 71
     0
 72
     0
 73
     1
 74
     1
 75
     0
 76
     0
 77
     0
 78
     0
170
     0
171
     2
172
     0
173
     0
174
     0
175
     0
176
     0
177
     0
178
     0
  0
DIMSTYLE
  2
BYGG-014203$0$MASKIN
 70
     0
  3

  4

  5

  6

  7

 40
0.0
 41
3.0
 42
1.5
 43
10.0
 44
1.5
 45
0.0
 46
0.0
 47
0.0
 48
0.0
140
3.0
141
-5.0
142
0.0
143
25.399999999999999
144
-1.0
145
0.0
146
1.0
147
1.0
 71
     0
 72
     0
 73
     0
 74
     0
 75
     0
 76
     0
 77
     1
 78
     8
170
     0
171
     0
172
     1
173
     0
174
     0
175
     0
176
   256
177
   256
178
   256
  0
ENDTAB
  0
ENDSEC
  0
SECTION
  2
BLOCKS
  0
BLOCK
  8
0
  2
$MODEL_SPACE
 70
     0
 10
0.0
 20
0.0
 30
0.0
  3
$MODEL_SPACE
  1

  0
ENDBLK
  5
B
  8
0
  0
BLOCK
 67
     1
  8
0
  2
$PAPER_SPACE
 70
     0
 10
0.0
 20
0.0
 30
0.0
  3
$PAPER_SPACE
  1

  0
ENDBLK
  5
10
 67
     1
  8
0
  0
BLOCK
  8
0
  2
*D63
 70
     1
 10
0.0
 20
0.0
 30
0.0
  3
*D63
  1

  0
LINE
  5
B43
  8
SAPA_MATT
 10
35.756576790018087
 20
195.1399999999999
 30
0.0
 11
10.49999999999998
 21
195.1399999999999
 31
0.0
  0
LINE
  5
B44
  8
SAPA_MATT
 10
35.756576790018087
 20
150.13999999999999
 30
0.0
 11
10.49999999999998
 21
150.13999999999999
 31
0.0
  0
LINE
  5
B45
  8
SAPA_MATT
 10
11.999999999999989
 20
192.13999999999999
 30
0.0
 11
11.99999999999998
 21
153.13999999999999
 31
0.0
  0
SOLID
  5
B46
  8
SAPA_MATT
 10
11.499999999999989
 20
192.13999999999999
 30
0.0
 11
12.499999999999989
 21
192.13999999999999
 31
0.0
 12
11.999999999999989
 22
195.1399999999999
 32
0.0
 13
11.999999999999989
 23
195.1399999999999
 33
0.0
  0
SOLID
  5
B47
  8
SAPA_MATT
 10
11.49999999999998
 20
153.13999999999999
 30
0.0
 11
12.49999999999998
 21
153.13999999999999
 31
0.0
 12
11.99999999999998
 22
150.13999999999999
 32
0.0
 13
11.99999999999998
 23
150.13999999999999
 33
0.0
  0
INSERT
  5
B48
  8
0
  2
*U79
 10
0.0
 20
0.0
 30
0.0
  0
POINT
  5
B49
  8
DEFPOINTS
 62
     0
 10
37.256576790018087
 20
195.1399999999999
 30
0.0
  0
POINT
  5
B4A
  8
DEFPOINTS
 62
     0
 10
37.256576790018087
 20
150.13999999999999
 30
0.0
  0
POINT
  5
B4B
  8
DEFPOINTS
 62
     0
 10
11.99999999999998
 20
150.13999999999999
 30
0.0
  0
ENDBLK
  5
AD9
  8
0
  0
BLOCK
  8
0
  2
*D64
 70
     1
 10
0.0
 20
0.0
 30
0.0
  3
*D64
  1

  0
LINE
  5
B3A
  8
SAPA_MATT
 10
35.756576790018087
 20
150.13999999999999
 30
0.0
 11
10.49999999999998
 21
150.13999999999999
 31
0.0
  0
LINE
  5
B3B
  8
SAPA_MATT
 10
35.170790352390888
 20
120.14
 30
0.0
 11
10.49999999999997
 21
120.14
 31
0.0
  0
LINE
  5
B3C
  8
SAPA_MATT
 10
11.99999999999997
 20
147.13999999999999
 30
0.0
 11
11.99999999999997
 21
123.14
 31
0.0
  0
SOLID
  5
B3D
  8
SAPA_MATT
 10
11.49999999999997
 20
147.13999999999999
 30
0.0
 11
12.49999999999998
 21
147.13999999999999
 31
0.0
 12
11.99999999999998
 22
150.13999999999999
 32
0.0
 13
11.99999999999998
 23
150.13999999999999
 33
0.0
  0
SOLID
  5
B3E
  8
SAPA_MATT
 10
11.49999999999997
 20
123.14
 30
0.0
 11
12.49999999999997
 21
123.14
 31
0.0
 12
11.99999999999997
 22
120.14
 32
0.0
 13
11.99999999999997
 23
120.14
 33
0.0
  0
INSERT
  5
B3F
  8
0
  2
*U78
 10
0.0
 20
0.0
 30
0.0
  0
POINT
  5
B40
  8
DEFPOINTS
 62
     0
 10
37.256576790018087
 20
150.13999999999999
 30
0.0
  0
POINT
  5
B41
  8
DEFPOINTS
 62
     0
 10
36.670790352390888
 20
120.14
 30
0.0
  0
POINT
  5
B42
  8
DEFPOINTS
 62
     0
 10
11.99999999999997
 20
120.14
 30
0.0
  0
ENDBLK
  5
AE5
  8
0
  0
BLOCK
  8
0
  2
*D65
 70
     1
 10
0.0
 20
0.0
 30
0.0
  3
*D65
  1

  0
LINE
  5
B31
  8
SAPA_MATT
 10
35.170790352390888
 20
120.14
 30
0.0
 11
10.49999999999998
 21
120.14
 31
0.0
  0
LINE
  5
B32
  8
SAPA_MATT
 10
36.256576790017903
 20
0.1399999999999868
 30
0.0
 11
10.49999999999995
 21
0.1399999999999941
 31
0.0
  0
LINE
  5
B33
  8
SAPA_MATT
 10
11.99999999999997
 20
117.14
 30
0.0
 11
11.99999999999995
 21
3.139999999999993
 31
0.0
  0
SOLID
  5
B34
  8
SAPA_MATT
 10
11.49999999999997
 20
117.14
 30
0.0
 11
12.49999999999998
 21
117.14
 31
0.0
 12
11.99999999999997
 22
120.14
 32
0.0
 13
11.99999999999997
 23
120.14
 33
0.0
  0
SOLID
  5
B35
  8
SAPA_MATT
 10
11.49999999999995
 20
3.139999999999993
 30
0.0
 11
12.49999999999995
 21
3.139999999999993
 31
0.0
 12
11.99999999999995
 22
0.1399999999999937
 32
0.0
 13
11.99999999999995
 23
0.1399999999999937
 33
0.0
  0
INSERT
  5
B36
  8
0
  2
*U77
 10
0.0
 20
0.0
 30
0.0
  0
POINT
  5
B37
  8
DEFPOINTS
 62
     0
 10
36.670790352390888
 20
120.14
 30
0.0
  0
POINT
  5
B38
  8
DEFPOINTS
 62
     0
 10
37.756576790017903
 20
0.1399999999999864
 30
0.0
  0
POINT
  5
B39
  8
DEFPOINTS
 62
     0
 10
11.99999999999995
 20
0.1399999999999937
 30
0.0
  0
ENDBLK
  5
AF1
  8
0
  0
BLOCK
  8
0
  2
*D66
 70
     1
 10
0.0
 20
0.0
 30
0.0
  3
*D66
  1

  0
LINE
  5
B28
  8
SAPA_MATT
 10
37.256576790018087
 20
206.13966394171661
 30
0.0
 11
37.256576790018087
 21
226.13966394171669
 31
0.0
  0
LINE
  5
B29
  8
SAPA_MATT
 10
87.256576790018116
 20
206.13966394171661
 30
0.0
 11
87.256576790018116
 21
226.13966394171669
 31
0.0
  0
LINE
  5
B2A
  8
SAPA_MATT
 10
40.256576790018087
 20
224.63966394171669
 30
0.0
 11
84.256576790018144
 21
224.63966394171669
 31
0.0
  0
SOLID
  5
B2B
  8
SAPA_MATT
 10
40.256576790018087
 20
225.13966394171661
 30
0.0
 11
40.256576790018087
 21
224.13966394171669
 31
0.0
 12
37.256576790018087
 22
224.63966394171669
 32
0.0
 13
37.256576790018087
 23
224.63966394171669
 33
0.0
  0
SOLID
  5
B2C
  8
SAPA_MATT
 10
84.256576790018144
 20
225.13966394171661
 30
0.0
 11
84.256576790018144
 21
224.13966394171669
 31
0.0
 12
87.256576790018116
 22
224.63966394171669
 32
0.0
 13
87.256576790018116
 23
224.63966394171669
 33
0.0
  0
INSERT
  5
B2D
  8
0
  2
*U76
 10
0.0
 20
0.0
 30
0.0
  0
POINT
  5
B2E
  8
DEFPOINTS
 62
     0
 10
37.256576790018087
 20
204.63966394171669
 30
0.0
  0
POINT
  5
B2F
  8
DEFPOINTS
 62
     0
 10
87.256576790018116
 20
204.63966394171669
 30
0.0
  0
POINT
  5
B30
  8
DEFPOINTS
 62
     0
 10
87.256576790018116
 20
224.63966394171669
 30
0.0
  0
ENDBLK
  5
AFD
  8
0
  0
BLOCK
  8
0
  2
*D67
 70
     1
 10
0.0
 20
0.0
 30
0.0
  3
*D67
  1

  0
LINE
  5
B1F
  8
SAPA_MATT
 10
32.25657679001791
 20
206.13966394171661
 30
0.0
 11
32.25657679001791
 21
238.13966394171669
 31
0.0
  0
LINE
  5
B20
  8
SAPA_MATT
 10
92.256576790017888
 20
206.13966394171661
 30
0.0
 11
92.256576790017888
 21
238.13966394171669
 31
0.0
  0
LINE
  5
B21
  8
SAPA_MATT
 10
35.25657679001791
 20
236.63966394171669
 30
0.0
 11
89.256576790017903
 21
236.63966394171669
 31
0.0
  0
SOLID
  5
B22
  8
SAPA_MATT
 10
35.25657679001791
 20
237.13966394171669
 30
0.0
 11
35.25657679001791
 21
236.13966394171669
 31
0.0
 12
32.25657679001791
 22
236.63966394171669
 32
0.0
 13
32.25657679001791
 23
236.63966394171669
 33
0.0
  0
SOLID
  5
B23
  8
SAPA_MATT
 10
89.256576790017903
 20
237.13966394171669
 30
0.0
 11
89.256576790017903
 21
236.13966394171669
 31
0.0
 12
92.256576790017888
 22
236.63966394171669
 32
0.0
 13
92.256576790017888
 23
236.63966394171669
 33
0.0
  0
INSERT
  5
B24
  8
0
  2
*U75
 10
0.0
 20
0.0
 30
0.0
  0
POINT
  5
B25
  8
DEFPOINTS
 62
     0
 10
32.25657679001791
 20
204.63966394171669
 30
0.0
  0
POINT
  5
B26
  8
DEFPOINTS
 62
     0
 10
92.256576790017888
 20
204.63966394171669
 30
0.0
  0
POINT
  5
B27
  8
DEFPOINTS
 62
     0
 10
92.256576790017888
 20
236.63966394171669
 30
0.0
  0
ENDBLK
  5
B09
  8
0
  0
BLOCK
  8
0
  2
*D68
 70
     1
 10
0.0
 20
0.0
 30
0.0
  3
*D68
  1

  0
LINE
  5
B4C
  8
SAPA_MATT
 10
13.50365658815524
 20
195.13999999999979
 30
0.0
 11
-1.499999999999956
 21
195.13999999999979
 31
0.0
  0
LINE
  5
B4D
  8
SAPA_MATT
 10
15.75365658815524
 20
0.0000000000000004
 30
0.0
 11
-1.5
 21
0.0000000000000053
 31
0.0
  0
LINE
  5
B4E
  8
SAPA_MATT
 10
0.0000000000000427
 20
192.13999999999979
 30
0.0
 11
0.0000000000000007
 21
3.000000000000004
 31
0.0
  0
SOLID
  5
B4F
  8
SAPA_MATT
 10
-0.4999999999999573
 20
192.13999999999979
 30
0.0
 11
0.5000000000000427
 21
192.13999999999979
 31
0.0
 12
0.0000000000000433
 22
195.13999999999979
 32
0.0
 13
0.0000000000000433
 23
195.13999999999979
 33
0.0
  0
SOLID
  5
B50
  8
SAPA_MATT
 10
-0.4999999999999993
 20
3.000000000000004
 30
0.0
 11
0.5000000000000007
 21
3.000000000000004
 31
0.0
 12
0.0
 22
0.0000000000000049
 32
0.0
 13
0.0
 23
0.0000000000000049
 33
0.0
  0
INSERT
  5
B51
  8
0
  2
*U80
 10
0.0
 20
0.0
 30
0.0
  0
POINT
  5
B52
  8
DEFPOINTS
 62
     0
 10
15.00365658815524
 20
195.13999999999979
 30
0.0
  0
POINT
  5
B53
  8
DEFPOINTS
 62
     0
 10
17.253656588155241
 20
0.0
 30
0.0
  0
POINT
  5
B54
  8
DEFPOINTS
 62
     0
 10
0.0
 20
0.0000000000000049
 30
0.0
  0
ENDBLK
  5
B15
  8
0
  0
BLOCK
  8
0
  2
*X69
 70
     1
 10
0.0
 20
0.0
 30
0.0
  3
*X69
  1

  0
LINE
  5
B6F
  8
0
 62
     0
 10
82.879325829222836
 20
194.55954974546239
 30
0.0
 11
83.035308895956248
 21
194.8297203421651
 31
0.0
  0
LINE
  5
B70
  8
0
 62
     0
 10
81.566825829222836
 20
192.2862330605283
 30
0.0
 11
82.004325829222836
 21
193.04400528883971
 31
0.0
  0
LINE
  5
B71
  8
0
 62
     0
 10
80.254325829222836
 20
190.0129163755941
 30
0.0
 11
80.691825829222836
 21
190.77068860390551
 31
0.0
  0
LINE
  5
B72
  8
0
 62
     0
 10
82.879325828896128
 20
197.59063865889661
 30
0.0
 11
83.192195135029749
 21
198.1325441932488
 31
0.0
  0
LINE
  5
B73
  8
0
 62
     0
 10
81.566825828896128
 20
195.31732197396249
 30
0.0
 11
82.004325828896128
 21
196.07509420227379
 31
0.0
  0
LINE
  5
B74
  8
0
 62
     0
 10
80.254325828896114
 20
193.04400528902829
 30
0.0
 11
80.691825828896128
 21
193.8017775173397
 31
0.0
  0
LINE
  5
B75
  8
0
 62
     0
 10
78.941825828896114
 20
190.7706886040942
 30
0.0
 11
79.379325828896128
 21
191.5284608324055
 31
0.0
  0
LINE
  5
B76
  8
0
 62
     0
 10
81.566825828569506
 20
198.3484108873966
 30
0.0
 11
82.004325828569506
 21
199.10618311570801
 31
0.0
  0
LINE
  5
B77
  8
0
 62
     0
 10
80.254325828569506
 20
196.07509420246251
 30
0.0
 11
80.691825828569506
 21
196.83286643077389
 31
0.0
  0
LINE
  5
B78
  8
0
 62
     0
 10
78.941825828569506
 20
193.80177751752839
 30
0.0
 11
79.379325828569506
 21
194.55954974583969
 31
0.0
  0
LINE
  5
B79
  8
0
 62
     0
 10
77.629325828569506
 20
191.52846083259419
 30
0.0
 11
78.066825828569506
 21
192.2862330609056
 31
0.0
  0
LINE
  5
B7A
  8
0
 62
     0
 10
81.566825828242742
 20
201.3794998008307
 30
0.0
 11
82.004325828242756
 21
202.13727202914211
 31
0.0
  0
LINE
  5
B7B
  8
0
 62
     0
 10
80.254325828242742
 20
199.1061831158965
 30
0.0
 11
80.691825828242727
 21
199.86395534420791
 31
0.0
  0
LINE
  5
B7C
  8
0
 62
     0
 10
78.941825828242742
 20
196.83286643096241
 30
0.0
 11
79.379325828242742
 21
197.59063865927379
 31
0.0
  0
LINE
  5
B7D
  8
0
 62
     0
 10
77.629325828242742
 20
194.55954974602821
 30
0.0
 11
78.066825828242742
 21
195.31732197433959
 31
0.0
  0
LINE
  5
B7E
  8
0
 62
     0
 10
76.338503241041991
 20
192.323779441439
 30
0.0
 11
76.754325828242742
 21
193.0440052894055
 31
0.0
  0
LINE
  5
B7F
  8
0
 62
     0
 10
80.254325827916077
 20
202.1372720293308
 30
0.0
 11
80.691825827916063
 21
202.8950442576421
 31
0.0
  0
LINE
  5
B80
  8
0
 62
     0
 10
78.941825827916063
 20
199.8639553443966
 30
0.0
 11
79.379325827916063
 21
200.62172757270801
 31
0.0
  0
LINE
  5
B81
  8
0
 62
     0
 10
77.629325827916063
 20
197.5906386594624
 30
0.0
 11
78.066825827916063
 21
198.34841088777381
 31
0.0
  0
LINE
  5
B82
  8
0
 62
     0
 10
76.316825827916063
 20
195.31732197452831
 30
0.0
 11
76.754325827916063
 21
196.07509420283969
 31
0.0
  0
LINE
  5
B83
  8
0
 62
     0
 10
78.941825827589355
 20
202.8950442578307
 30
0.0
 11
79.379325827589355
 21
203.65281648614209
 31
0.0
  0
LINE
  5
B84
  8
0
 62
     0
 10
77.629325827589355
 20
200.6217275728965
 30
0.0
 11
78.066825827589355
 21
201.37949980120791
 31
0.0
  0
LINE
  5
B85
  8
0
 62
     0
 10
76.316825827589355
 20
198.34841088796239
 30
0.0
 11
76.754325827589355
 21
199.10618311627371
 31
0.0
  0
LINE
  5
B86
  8
0
 62
     0
 10
75.40713344317578
 20
196.77277745889961
 30
0.0
 11
75.441825827589355
 21
196.8328664313396
 31
0.0
  0
LINE
  5
B87
  8
0
 62
     0
 10
77.629325827262676
 20
203.65281648633081
 30
0.0
 11
77.79886108925399
 21
203.9464601737742
 31
0.0
  0
LINE
  5
B88
  8
0
 62
     0
 10
76.316825827262676
 20
201.37949980139661
 30
0.0
 11
76.754325827262676
 21
202.13727202970799
 31
0.0
  0
LINE
  5
B89
  8
0
 62
     0
 10
46.129325822688941
 20
191.52846083598919
 30
0.0
 11
46.566825822688941
 21
192.28623306430049
 31
0.0
  0
LINE
  5
B8A
  8
0
 62
     0
 10
46.129325822362283
 20
194.55954974942341
 30
0.0
 11
46.566825822362283
 21
195.31732197773479
 31
0.0
  0
LINE
  5
B8B
  8
0
 62
     0
 10
44.81682582236229
 20
192.28623306448921
 30
0.0
 11
45.25432582236229
 21
193.04400529280059
 31
0.0
  0
LINE
  5
B8C
  8
0
 62
     0
 10
43.577697584835732
 20
190.13999999999999
 30
0.0
 11
43.941825822362283
 21
190.7706886078665
 31
0.0
  0
LINE
  5
B8D
  8
0
 62
     0
 10
46.129325822035582
 20
197.59063866285749
 30
0.0
 11
46.566825822035582
 21
198.3484108911689
 31
0.0
  0
LINE
  5
B8E
  8
0
 62
     0
 10
44.816825822035582
 20
195.3173219779234
 30
0.0
 11
45.254325822035582
 21
196.0750942062347
 31
0.0
  0
LINE
  5
B8F
  8
0
 62
     0
 10
43.504325822035582
 20
193.0440052929892
 30
0.0
 11
43.941825822035582
 21
193.80177752130061
 31
0.0
  0
LINE
  5
B90
  8
0
 62
     0
 10
42.191825822035582
 20
190.77068860805511
 30
0.0
 11
42.629325822035582
 21
191.52846083636641
 31
0.0
  0
LINE
  5
B91
  8
0
 62
     0
 10
46.129325821708903
 20
200.6217275762917
 30
0.0
 11
46.566825821708903
 21
201.37949980460311
 31
0.0
  0
LINE
  5
B92
  8
0
 62
     0
 10
44.816825821708903
 20
198.3484108913575
 30
0.0
 11
45.254325821708903
 21
199.10618311966891
 31
0.0
  0
LINE
  5
B93
  8
0
 62
     0
 10
43.504325821708903
 20
196.07509420642339
 30
0.0
 11
43.941825821708903
 21
196.8328664347348
 31
0.0
  0
LINE
  5
B94
  8
0
 62
     0
 10
42.191825821708903
 20
193.8017775214893
 30
0.0
 11
42.629325821708903
 21
194.5595497498006
 31
0.0
  0
LINE
  5
B95
  8
0
 62
     0
 10
40.879325821708903
 20
191.5284608365551
 30
0.0
 11
41.316825821708903
 21
192.28623306486651
 31
0.0
  0
LINE
  5
B96
  8
0
 62
     0
 10
46.12932582138216
 20
203.65281648972581
 30
0.0
 11
46.410601352183733
 21
204.13999999999999
 31
0.0
  0
LINE
  5
B97
  8
0
 62
     0
 10
44.81682582138216
 20
201.37949980479161
 30
0.0
 11
45.254325821382167
 21
202.13727203310299
 31
0.0
  0
LINE
  5
B98
  8
0
 62
     0
 10
43.504325821382167
 20
199.10618311985749
 30
0.0
 11
43.94182582138216
 21
199.86395534816879
 31
0.0
  0
LINE
  5
B99
  8
0
 62
     0
 10
42.19182582138216
 20
196.83286643492329
 30
0.0
 11
42.62932582138216
 21
197.5906386632347
 31
0.0
  0
LINE
  5
B9A
  8
0
 62
     0
 10
40.88509198149665
 20
194.56953703227211
 30
0.0
 11
41.316825821382167
 21
195.3173219783005
 31
0.0
  0
LINE
  5
B9B
  8
0
 62
     0
 10
43.504325821055509
 20
202.13727203329171
 30
0.0
 11
43.941825821055517
 21
202.895044261603
 31
0.0
  0
LINE
  5
B9C
  8
0
 62
     0
 10
42.191825821055517
 20
199.86395534835751
 30
0.0
 11
42.629325821055509
 21
200.62172757666889
 31
0.0
  0
LINE
  5
B9D
  8
0
 62
     0
 10
40.879325821055509
 20
197.59063866342339
 30
0.0
 11
41.316825821055509
 21
198.3484108917348
 31
0.0
  0
LINE
  5
B9E
  8
0
 62
     0
 10
39.566825821055517
 20
195.31732197848919
 30
0.0
 11
40.004325821055517
 21
196.0750942068006
 31
0.0
  0
LINE
  5
B9F
  8
0
 62
     0
 10
42.191825820728809
 20
202.8950442617917
 30
0.0
 11
42.629325820728802
 21
203.65281649010311
 31
0.0
  0
LINE
  5
BA0
  8
0
 62
     0
 10
40.879325820728802
 20
200.6217275768575
 30
0.0
 11
41.316825820728809
 21
201.3794998051689
 31
0.0
  0
LINE
  5
BA1
  8
0
 62
     0
 10
39.566825820728809
 20
198.34841089192341
 30
0.0
 11
40.004325820728809
 21
199.10618312023479
 31
0.0
  0
LINE
  5
BA2
  8
0
 62
     0
 10
38.254325820728809
 20
196.07509420698929
 30
0.0
 11
38.691825820728809
 21
196.83286643530059
 31
0.0
  0
LINE
  5
BA3
  8
0
 62
     0
 10
40.879325820402123
 20
203.6528164902916
 30
0.0
 11
41.160601350876952
 21
204.1399999999999
 31
0.0
  0
LINE
  5
BA4
  8
0
 62
     0
 10
39.56682582040213
 20
201.37949980535751
 30
0.0
 11
40.00432582040213
 21
202.13727203366881
 31
0.0
  0
LINE
  5
BA5
  8
0
 62
     0
 10
38.25432582040213
 20
199.10618312042331
 30
0.0
 11
38.69182582040213
 21
199.86395534873469
 31
0.0
  0
LINE
  5
BA6
  8
0
 62
     0
 10
37.25657679001808
 20
197.37803110659561
 30
0.0
 11
37.37932582040213
 21
197.5906386638006
 31
0.0
  0
LINE
  5
BA7
  8
0
 62
     0
 10
38.254325820075401
 20
202.1372720338575
 30
0.0
 11
38.691825820075387
 21
202.89504426216891
 31
0.0
  0
LINE
  5
BA8
  8
0
 62
     0
 10
37.25657679001808
 20
200.40912002059559
 30
0.0
 11
37.379325820075401
 21
200.62172757723471
 31
0.0
  0
LINE
  5
BA9
  8
0
 62
     0
 10
37.256576790018102
 20
203.4402089345956
 30
0.0
 11
37.379325819748743
 21
203.6528164906689
 31
0.0
  0
LINE
  5
BAA
  8
0
 62
     0
 10
82.004325945852315
 20
202.13727205592559
 30
0.0
 11
81.566825945852315
 21
202.89504428423689
 31
0.0
  0
LINE
  5
BAB
  8
0
 62
     0
 10
79.379325945525636
 20
203.65281651235969
 30
0.0
 11
78.941825945525636
 21
204.4105887406711
 31
0.0
  0
LINE
  5
BAC
  8
0
 62
     0
 10
80.691825945525636
 20
201.3794998274256
 30
0.0
 11
80.254325945525636
 21
202.1372720557369
 31
0.0
  0
LINE
  5
BAD
  8
0
 62
     0
 10
82.004325945525636
 20
199.1061831424914
 30
0.0
 11
81.566825945525636
 21
199.86395537080281
 31
0.0
  0
LINE
  5
BAE
  8
0
 62
     0
 10
83.226551341891053
 20
196.98922665768549
 30
0.0
 11
82.879325945525636
 21
197.59063868586861
 31
0.0
  0
LINE
  5
BAF
  8
0
 62
     0
 10
78.066825945198929
 20
202.89504428385959
 30
0.0
 11
77.629325945198929
 21
203.652816512171
 31
0.0
  0
LINE
  5
BB0
  8
0
 62
     0
 10
79.379325945198914
 20
200.6217275989255
 30
0.0
 11
78.941825945198929
 21
201.37949982723691
 31
0.0
  0
LINE
  5
BB1
  8
0
 62
     0
 10
80.691825945198914
 20
198.3484109139913
 30
0.0
 11
80.254325945198929
 21
199.10618314230271
 31
0.0
  0
LINE
  5
BB2
  8
0
 62
     0
 10
82.004325945198929
 20
196.07509422905721
 30
0.0
 11
81.566825945198914
 21
196.8328664573686
 31
0.0
  0
LINE
  5
BB3
  8
0
 62
     0
 10
82.960309700264617
 20
194.4192817940729
 30
0.0
 11
82.879325945198914
 21
194.55954977243439
 31
0.0
  0
LINE
  5
BB4
  8
0
 62
     0
 10
76.754325944872249
 20
202.13727205535969
 30
0.0
 11
76.579414005681969
 21
202.44022842088759
 31
0.0
  0
LINE
  5
BB5
  8
0
 62
     0
 10
78.066825944872249
 20
199.86395537042549
 30
0.0
 11
77.629325944872235
 21
200.6217275987369
 31
0.0
  0
LINE
  5
BB6
  8
0
 62
     0
 10
79.379325944872249
 20
197.5906386854914
 30
0.0
 11
78.941825944872249
 21
198.3484109138027
 31
0.0
  0
LINE
  5
BB7
  8
0
 62
     0
 10
80.691825944872249
 20
195.3173220005572
 30
0.0
 11
80.254325944872264
 21
196.07509422886861
 31
0.0
  0
LINE
  5
BB8
  8
0
 62
     0
 10
82.004325944872235
 20
193.04400531562311
 30
0.0
 11
81.566825944872249
 21
193.80177754393441
 31
0.0
  0
LINE
  5
BB9
  8
0
 62
     0
 10
76.75432594454557
 20
199.1061831419255
 30
0.0
 11
76.31682594454557
 21
199.86395537023691
 31
0.0
  0
LINE
  5
BBA
  8
0
 62
     0
 10
78.06682594454557
 20
196.8328664569913
 30
0.0
 11
77.62932594454557
 21
197.59063868530271
 31
0.0
  0
LINE
  5
BBB
  8
0
 62
     0
 10
79.37932594454557
 20
194.55954977205721
 30
0.0
 11
78.94182594454557
 21
195.31732200036859
 31
0.0
  0
LINE
  5
BBC
  8
0
 62
     0
 10
80.691825944545585
 20
192.28623308712301
 30
0.0
 11
80.25432594454557
 21
193.04400531543439
 31
0.0
  0
LINE
  5
BBD
  8
0
 62
     0
 10
76.754325944218891
 20
196.07509422849131
 30
0.0
 11
76.316825944218891
 21
196.83286645680269
 31
0.0
  0
LINE
  5
BBE
  8
0
 62
     0
 10
78.066825944218891
 20
193.80177754355719
 30
0.0
 11
77.629325944218891
 21
194.55954977186849
 31
0.0
  0
LINE
  5
BBF
  8
0
 62
     0
 10
79.379325944218891
 20
191.52846085862299
 30
0.0
 11
78.941825944218891
 21
192.2862330869344
 31
0.0
  0
LINE
  5
BC0
  8
0
 62
     0
 10
80.286237913271151
 20
189.95764325023219
 30
0.0
 11
80.254325944218891
 21
190.01291640200029
 31
0.0
  0
LINE
  5
BC1
  8
0
 62
     0
 10
76.754325943892127
 20
193.04400531505721
 30
0.0
 11
76.316825943892127
 21
193.80177754336859
 31
0.0
  0
LINE
  5
BC2
  8
0
 62
     0
 10
78.066825943892127
 20
190.77068863012309
 30
0.0
 11
77.629325943892127
 21
191.52846085843441
 31
0.0
  0
LINE
  5
BC3
  8
0
 62
     0
 10
46.566825939318498
 20
202.8950442804645
 30
0.0
 11
46.129325939318512
 21
203.65281650877591
 31
0.0
  0
LINE
  5
BC4
  8
0
 62
     0
 10
45.254325938991819
 20
202.1372720519646
 30
0.0
 11
44.816825938991819
 21
202.8950442802759
 31
0.0
  0
LINE
  5
BC5
  8
0
 62
     0
 10
46.566825938991833
 20
199.8639553670304
 30
0.0
 11
46.129325938991819
 21
200.62172759534181
 31
0.0
  0
LINE
  5
BC6
  8
0
 62
     0
 10
42.629325938665033
 20
203.65281650839879
 30
0.0
 11
42.348050418644213
 21
204.14000000000021
 31
0.0
  0
LINE
  5
BC7
  8
0
 62
     0
 10
43.941825938665033
 20
201.37949982346461
 30
0.0
 11
43.504325938665033
 21
202.13727205177599
 31
0.0
  0
LINE
  5
BC8
  8
0
 62
     0
 10
45.254325938665033
 20
199.1061831385305
 30
0.0
 11
44.816825938665033
 21
199.86395536684179
 31
0.0
  0
LINE
  5
BC9
  8
0
 62
     0
 10
46.566825938665033
 20
196.8328664535963
 30
0.0
 11
46.129325938665033
 21
197.59063868190771
 31
0.0
  0
LINE
  5
BCA
  8
0
 62
     0
 10
41.316825938338347
 20
202.89504427989871
 30
0.0
 11
40.879325938338347
 21
203.65281650821009
 31
0.0
  0
LINE
  5
BCB
  8
0
 62
     0
 10
42.629325938338347
 20
200.6217275949646
 30
0.0
 11
42.191825938338347
 21
201.37949982327601
 31
0.0
  0
LINE
  5
BCC
  8
0
 62
     0
 10
43.941825938338347
 20
198.3484109100304
 30
0.0
 11
43.504325938338347
 21
199.10618313834181
 31
0.0
  0
LINE
  5
BCD
  8
0
 62
     0
 10
45.254325938338347
 20
196.07509422509631
 30
0.0
 11
44.816825938338347
 21
196.83286645340769
 31
0.0
  0
LINE
  5
BCE
  8
0
 62
     0
 10
46.566825938338347
 20
193.80177754016211
 30
0.0
 11
46.129325938338347
 21
194.55954976847349
 31
0.0
  0
LINE
  5
BCF
  8
0
 62
     0
 10
40.004325938011696
 20
202.1372720513987
 30
0.0
 11
39.566825938011711
 21
202.89504427971011
 31
0.0
  0
LINE
  5
BD0
  8
0
 62
     0
 10
41.316825938011696
 20
199.8639553664645
 30
0.0
 11
40.879325938011696
 21
200.62172759477599
 31
0.0
  0
LINE
  5
BD1
  8
0
 62
     0
 10
42.629325938011696
 20
197.59063868153041
 30
0.0
 11
42.191825938011696
 21
198.34841090984179
 31
0.0
  0
LINE
  5
BD2
  8
0
 62
     0
 10
43.941825938011696
 20
195.31732199659629
 30
0.0
 11
43.504325938011696
 21
196.07509422490759
 31
0.0
  0
LINE
  5
BD3
  8
0
 62
     0
 10
45.254325938011696
 20
193.04400531166209
 30
0.0
 11
44.816825938011696
 21
193.8017775399735
 31
0.0
  0
LINE
  5
BD4
  8
0
 62
     0
 10
46.566825938011696
 20
190.770688626728
 30
0.0
 11
46.129325938011696
 21
191.52846085503941
 31
0.0
  0
LINE
  5
BD5
  8
0
 62
     0
 10
37.379325937685032
 20
203.65281650783291
 30
0.0
 11
37.256576790018222
 21
203.86542426817761
 31
0.0
  0
LINE
  5
BD6
  8
0
 62
     0
 10
38.691825937685032
 20
201.37949982289871
 30
0.0
 11
38.254325937685017
 21
202.13727205121009
 31
0.0
  0
LINE
  5
BD7
  8
0
 62
     0
 10
40.004325937685017
 20
199.10618313796459
 30
0.0
 11
39.566825937685032
 21
199.86395536627589
 31
0.0
  0
LINE
  5
BD8
  8
0
 62
     0
 10
41.316825937685017
 20
196.83286645303039
 30
0.0
 11
40.879325937685017
 21
197.5906386813418
 31
0.0
  0
LINE
  5
BD9
  8
0
 62
     0
 10
42.629325937685017
 20
194.5595497680963
 30
0.0
 11
42.191825937685017
 21
195.31732199640771
 31
0.0
  0
LINE
  5
BDA
  8
0
 62
     0
 10
43.941825937685017
 20
192.2862330831621
 30
0.0
 11
43.504325937685017
 21
193.04400531147351
 31
0.0
  0
LINE
  5
BDB
  8
0
 62
     0
 10
45.180954185992249
 20
190.14000000000021
 30
0.0
 11
44.816825937685017
 21
190.7706886265394
 31
0.0
  0
LINE
  5
BDC
  8
0
 62
     0
 10
37.379325937358317
 20
200.62172759439869
 30
0.0
 11
37.256576790018158
 21
200.8343353541776
 31
0.0
  0
LINE
  5
BDD
  8
0
 62
     0
 10
38.691825937358317
 20
198.34841090946449
 30
0.0
 11
38.254325937358317
 21
199.1061831377759
 31
0.0
  0
LINE
  5
BDE
  8
0
 62
     0
 10
40.004325937358317
 20
196.0750942245304
 30
0.0
 11
39.566825937358317
 21
196.83286645284181
 31
0.0
  0
LINE
  5
BDF
  8
0
 62
     0
 10
42.62932593735826
 20
191.52846085466209
 30
0.0
 11
42.191825937358253
 21
192.2862330829735
 31
0.0
  0
LINE
  5
BE0
  8
0
 62
     0
 10
37.379325937031609
 20
197.59063868096459
 30
0.0
 11
37.25657679001813
 21
197.8032464401777
 31
0.0
  0
LINE
  5
BE1
  8
0
 62
     0
 10
38.691825937031609
 20
195.31732199603039
 30
0.0
 11
38.254325937031609
 21
196.0750942243418
 31
0.0
  0
LINE
  5
BE2
  8
0
 62
     0
 10
41.316825937031581
 20
190.7706886261621
 30
0.0
 11
40.879325937031581
 21
191.52846085447351
 31
0.0
  0
LINE
  5
BE3
  8
0
 62
     0
 10
39.917148040347662
 20
190.1639129434499
 30
0.0
 11
39.56682593670493
 21
190.77068862597349
 31
0.0
  0
LINE
  5
BE4
  8
0
 62
     0
 10
80.691825863852216
 20
190.770688716698
 30
0.0
 11
81.283217581394581
 21
190.770688716698
 31
0.0
  0
LINE
  5
BE5
  8
0
 62
     0
 10
78.066825863852216
 20
190.770688716698
 30
0.0
 11
78.941825863852216
 21
190.770688716698
 31
0.0
  0
LINE
  5
BE6
  8
0
 62
     0
 10
46.566825863852209
 20
190.770688716698
 30
0.0
 11
47.256576790018087
 21
190.770688716698
 31
0.0
  0
LINE
  5
BE7
  8
0
 62
     0
 10
43.941825863852209
 20
190.770688716698
 30
0.0
 11
44.816825863852209
 21
190.770688716698
 31
0.0
  0
LINE
  5
BE8
  8
0
 62
     0
 10
41.316825863852202
 20
190.770688716698
 30
0.0
 11
42.191825863852209
 21
190.770688716698
 31
0.0
  0
LINE
  5
BE9
  8
0
 62
     0
 10
39.157135118684067
 20
190.770688716698
 30
0.0
 11
39.566825863852209
 21
190.770688716698
 31
0.0
  0
LINE
  5
BEA
  8
0
 62
     0
 10
80.691825863852216
 20
192.28623317369801
 30
0.0
 11
81.566825863852216
 21
192.28623317369801
 31
0.0
  0
LINE
  5
BEB
  8
0
 62
     0
 10
78.066825863852216
 20
192.28623317369801
 30
0.0
 11
78.941825863852216
 21
192.28623317369801
 31
0.0
  0
LINE
  5
BEC
  8
0
 62
     0
 10
46.566825863852209
 20
192.28623317369801
 30
0.0
 11
47.256576790018087
 21
192.28623317369801
 31
0.0
  0
LINE
  5
BED
  8
0
 62
     0
 10
43.941825863852209
 20
192.28623317369801
 30
0.0
 11
44.816825863852209
 21
192.28623317369801
 31
0.0
  0
LINE
  5
BEE
  8
0
 62
     0
 10
41.316825863852202
 20
192.28623317369801
 30
0.0
 11
42.191825863852209
 21
192.28623317369801
 31
0.0
  0
LINE
  5
BEF
  8
0
 62
     0
 10
80.691825863852216
 20
193.80177763069801
 30
0.0
 11
81.566825863852216
 21
193.80177763069801
 31
0.0
  0
LINE
  5
BF0
  8
0
 62
     0
 10
78.066825863852216
 20
193.80177763069801
 30
0.0
 11
78.941825863852216
 21
193.80177763069801
 31
0.0
  0
LINE
  5
BF1
  8
0
 62
     0
 10
75.809014840801865
 20
193.80177763069801
 30
0.0
 11
76.316825863852216
 21
193.80177763069801
 31
0.0
  0
LINE
  5
BF2
  8
0
 62
     0
 10
46.566825863852209
 20
193.80177763069801
 30
0.0
 11
47.256576790018087
 21
193.80177763069801
 31
0.0
  0
LINE
  5
BF3
  8
0
 62
     0
 10
43.941825863852209
 20
193.80177763069801
 30
0.0
 11
44.816825863852209
 21
193.80177763069801
 31
0.0
  0
LINE
  5
BF4
  8
0
 62
     0
 10
41.529318612190274
 20
193.80177763069801
 30
0.0
 11
42.191825863852209
 21
193.80177763069801
 31
0.0
  0
LINE
  5
BF5
  8
0
 62
     0
 10
80.691825863852216
 20
195.31732208769799
 30
0.0
 11
81.566825863852216
 21
195.31732208769799
 31
0.0
  0
LINE
  5
BF6
  8
0
 62
     0
 10
78.066825863852216
 20
195.31732208769799
 30
0.0
 11
78.941825863852216
 21
195.31732208769799
 31
0.0
  0
LINE
  5
BF7
  8
0
 62
     0
 10
75.521550613234524
 20
195.31732208769799
 30
0.0
 11
76.316825863852216
 21
195.31732208769799
 31
0.0
  0
LINE
  5
BF8
  8
0
 62
     0
 10
46.566825863852209
 20
195.31732208769799
 30
0.0
 11
47.256576790018087
 21
195.31732208769799
 31
0.0
  0
LINE
  5
BF9
  8
0
 62
     0
 10
43.941825863852209
 20
195.31732208769799
 30
0.0
 11
44.816825863852209
 21
195.31732208769799
 31
0.0
  0
LINE
  5
BFA
  8
0
 62
     0
 10
41.316825863852202
 20
195.31732208769799
 30
0.0
 11
42.191825863852209
 21
195.31732208769799
 31
0.0
  0
LINE
  5
BFB
  8
0
 62
     0
 10
38.691825863852209
 20
195.31732208769799
 30
0.0
 11
39.566825863852209
 21
195.31732208769799
 31
0.0
  0
LINE
  5
BFC
  8
0
 62
     0
 10
80.691825863852216
 20
196.83286654469799
 30
0.0
 11
81.566825863852216
 21
196.83286654469799
 31
0.0
  0
LINE
  5
BFD
  8
0
 62
     0
 10
78.066825863852216
 20
196.83286654469799
 30
0.0
 11
78.941825863852216
 21
196.83286654469799
 31
0.0
  0
LINE
  5
BFE
  8
0
 62
     0
 10
75.441825863852216
 20
196.83286654469799
 30
0.0
 11
76.316825863852216
 21
196.83286654469799
 31
0.0
  0
LINE
  5
BFF
  8
0
 62
     0
 10
46.566825863852209
 20
196.83286654469799
 30
0.0
 11
47.256576790018087
 21
196.83286654469799
 31
0.0
  0
LINE
  5
C00
  8
0
 62
     0
 10
43.941825863852209
 20
196.83286654469799
 30
0.0
 11
44.816825863852209
 21
196.83286654469799
 31
0.0
  0
LINE
  5
C01
  8
0
 62
     0
 10
41.316825863852202
 20
196.83286654469799
 30
0.0
 11
42.191825863852209
 21
196.83286654469799
 31
0.0
  0
LINE
  5
C02
  8
0
 62
     0
 10
38.691825863852209
 20
196.83286654469799
 30
0.0
 11
39.566825863852209
 21
196.83286654469799
 31
0.0
  0
LINE
  5
C03
  8
0
 62
     0
 10
80.691825863852216
 20
198.34841100169811
 30
0.0
 11
81.566825863852216
 21
198.34841100169811
 31
0.0
  0
LINE
  5
C04
  8
0
 62
     0
 10
78.066825863852216
 20
198.34841100169811
 30
0.0
 11
78.941825863852216
 21
198.34841100169811
 31
0.0
  0
LINE
  5
C05
  8
0
 62
     0
 10
75.454483351289042
 20
198.34841100169811
 30
0.0
 11
76.316825863852216
 21
198.34841100169811
 31
0.0
  0
LINE
  5
C06
  8
0
 62
     0
 10
46.566825863852209
 20
198.34841100169811
 30
0.0
 11
47.256576790018087
 21
198.34841100169811
 31
0.0
  0
LINE
  5
C07
  8
0
 62
     0
 10
43.941825863852209
 20
198.34841100169811
 30
0.0
 11
44.816825863852209
 21
198.34841100169811
 31
0.0
  0
LINE
  5
C08
  8
0
 62
     0
 10
41.316825863852202
 20
198.34841100169811
 30
0.0
 11
42.191825863852209
 21
198.34841100169811
 31
0.0
  0
LINE
  5
C09
  8
0
 62
     0
 10
38.691825863852209
 20
198.34841100169811
 30
0.0
 11
39.566825863852209
 21
198.34841100169811
 31
0.0
  0
LINE
  5
C0A
  8
0
 62
     0
 10
80.691825863852216
 20
199.863955458698
 30
0.0
 11
81.566825863852216
 21
199.863955458698
 31
0.0
  0
LINE
  5
C0B
  8
0
 62
     0
 10
78.066825863852216
 20
199.863955458698
 30
0.0
 11
78.941825863852216
 21
199.863955458698
 31
0.0
  0
LINE
  5
C0C
  8
0
 62
     0
 10
75.66970816227763
 20
199.863955458698
 30
0.0
 11
76.316825863852216
 21
199.863955458698
 31
0.0
  0
LINE
  5
C0D
  8
0
 62
     0
 10
46.566825863852209
 20
199.863955458698
 30
0.0
 11
47.256576790018087
 21
199.863955458698
 31
0.0
  0
LINE
  5
C0E
  8
0
 62
     0
 10
43.941825863852209
 20
199.863955458698
 30
0.0
 11
44.816825863852209
 21
199.863955458698
 31
0.0
  0
LINE
  5
C0F
  8
0
 62
     0
 10
41.316825863852202
 20
199.863955458698
 30
0.0
 11
42.191825863852209
 21
199.863955458698
 31
0.0
  0
LINE
  5
C10
  8
0
 62
     0
 10
38.691825863852209
 20
199.863955458698
 30
0.0
 11
39.566825863852209
 21
199.863955458698
 31
0.0
  0
LINE
  5
C11
  8
0
 62
     0
 10
80.691825863852216
 20
201.37949991569809
 30
0.0
 11
81.566825863852216
 21
201.37949991569809
 31
0.0
  0
LINE
  5
C12
  8
0
 62
     0
 10
78.066825863852216
 20
201.37949991569809
 30
0.0
 11
78.941825863852216
 21
201.37949991569809
 31
0.0
  0
LINE
  5
C13
  8
0
 62
     0
 10
76.095989357270753
 20
201.37949991569809
 30
0.0
 11
76.316825863852216
 21
201.37949991569809
 31
0.0
  0
LINE
  5
C14
  8
0
 62
     0
 10
46.566825863852209
 20
201.37949991569809
 30
0.0
 11
47.256576790018087
 21
201.37949991569809
 31
0.0
  0
LINE
  5
C15
  8
0
 62
     0
 10
43.941825863852209
 20
201.37949991569809
 30
0.0
 11
44.816825863852209
 21
201.37949991569809
 31
0.0
  0
LINE
  5
C16
  8
0
 62
     0
 10
41.316825863852202
 20
201.37949991569809
 30
0.0
 11
42.191825863852209
 21
201.37949991569809
 31
0.0
  0
LINE
  5
C17
  8
0
 62
     0
 10
38.691825863852209
 20
201.37949991569809
 30
0.0
 11
39.566825863852209
 21
201.37949991569809
 31
0.0
  0
LINE
  5
C18
  8
0
 62
     0
 10
80.691825863852216
 20
202.89504437269801
 30
0.0
 11
81.566825863852216
 21
202.89504437269801
 31
0.0
  0
LINE
  5
C19
  8
0
 62
     0
 10
78.066825863852216
 20
202.89504437269801
 30
0.0
 11
78.941825863852216
 21
202.89504437269801
 31
0.0
  0
LINE
  5
C1A
  8
0
 62
     0
 10
46.566825863852209
 20
202.89504437269801
 30
0.0
 11
47.256576790018087
 21
202.89504437269801
 31
0.0
  0
LINE
  5
C1B
  8
0
 62
     0
 10
43.941825863852209
 20
202.89504437269801
 30
0.0
 11
44.816825863852209
 21
202.89504437269801
 31
0.0
  0
LINE
  5
C1C
  8
0
 62
     0
 10
41.316825863852202
 20
202.89504437269801
 30
0.0
 11
42.191825863852209
 21
202.89504437269801
 31
0.0
  0
LINE
  5
C1D
  8
0
 62
     0
 10
38.691825863852209
 20
202.89504437269801
 30
0.0
 11
39.566825863852209
 21
202.89504437269801
 31
0.0
  0
LINE
  5
C1E
  8
0
 62
     0
 10
78.540945425452293
 20
204.41058882969801
 30
0.0
 11
78.941825863852216
 21
204.41058882969801
 31
0.0
  0
ENDBLK
  5
C20
  8
0
  0
BLOCK
  8
0
  2
*X70
 70
     1
 10
0.0
 20
0.0
 30
0.0
  3
*X70
  1

  0
LINE
  5
C2C
  8
0
 62
     0
 10
87.190286766275705
 20
204.48032193639381
 30
0.0
 11
87.030944760952863
 21
204.63966394171669
 31
0.0
  0
LINE
  5
C2D
  8
0
 62
     0
 10
86.735726003452527
 20
203.1671157462506
 30
0.0
 11
85.263177807986466
 21
204.63966394171669
 31
0.0
  0
LINE
  5
C2E
  8
0
 62
     0
 10
86.411182079222314
 20
201.72389271751439
 30
0.0
 11
83.495410855020111
 21
204.63966394171661
 31
0.0
  0
LINE
  5
C2F
  8
0
 62
     0
 10
86.249434371946919
 20
200.1178734718234
 30
0.0
 11
81.727643902053714
 21
204.63966394171669
 31
0.0
  0
LINE
  5
C30
  8
0
 62
     0
 10
80.265464282859114
 20
204.33407660794481
 30
0.0
 11
79.959876949087374
 21
204.63966394171661
 31
0.0
  0
LINE
  5
C31
  8
0
 62
     0
 10
86.312101969270515
 20
198.28743892153341
 30
0.0
 11
81.899123823838039
 21
202.70041706696591
 31
0.0
  0
LINE
  5
C32
  8
0
 62
     0
 10
86.742382536611714
 20
196.0893914012259
 30
0.0
 11
82.958011721532927
 21
199.8737622163047
 31
0.0
  0
LINE
  5
C33
  8
0
 62
     0
 10
86.420505365561255
 20
194.64350161931
 30
0.0
 11
83.209145802370472
 21
197.8548611825008
 31
0.0
  0
LINE
  5
C34
  8
0
 62
     0
 10
84.652738412594928
 20
194.64350161930989
 30
0.0
 11
83.189159849288387
 21
196.1070801826165
 31
0.0
  0
LINE
  5
C35
  8
0
 62
     0
 10
83.483332858701488
 20
194.04514022023699
 30
0.0
 11
82.984443439867619
 21
194.54402963907091
 31
0.0
  0
LINE
  5
C36
  8
0
 62
     0
 10
83.081694257774345
 20
192.67901186819779
 30
0.0
 11
82.620128248316774
 21
193.1405778776554
 31
0.0
  0
LINE
  5
C37
  8
0
 62
     0
 10
82.08836344235317
 20
191.9045757306526
 30
0.0
 11
82.085598199100914
 21
191.90734097390489
 31
0.0
  0
LINE
  5
C38
  8
0
 62
     0
 10
86.307121495232991
 20
194.64350161930989
 30
0.0
 11
86.988972640900826
 21
195.32535276497771
 31
0.0
  0
LINE
  5
C39
  8
0
 62
     0
 10
84.539354542266693
 20
194.64350161930989
 30
0.0
 11
86.5849907042859
 21
196.68913778132921
 31
0.0
  0
LINE
  5
C3A
  8
0
 62
     0
 10
82.350122656857664
 20
192.45426973390099
 30
0.0
 11
83.081694257774387
 21
193.18584133481761
 31
0.0
  0
LINE
  5
C3B
  8
0
 62
     0
 10
83.050504285668424
 20
194.9224183156781
 30
0.0
 11
86.322340351596154
 21
198.19425438160579
 31
0.0
  0
LINE
  5
C3C
  8
0
 62
     0
 10
83.224642179178403
 20
196.86432316215439
 30
0.0
 11
86.242809840115996
 21
199.8824908230921
 31
0.0
  0
LINE
  5
C3D
  8
0
 62
     0
 10
83.154995811383486
 20
198.5624437473258
 30
0.0
 11
86.430522242731044
 21
201.8379701786734
 31
0.0
  0
LINE
  5
C3E
  8
0
 62
     0
 10
82.913476161511596
 20
200.08869105042029
 30
0.0
 11
87.114118542433644
 21
204.28933343134241
 31
0.0
  0
LINE
  5
C3F
  8
0
 62
     0
 10
82.506751946562332
 20
201.4497337884375
 30
0.0
 11
85.696682099841468
 21
204.63966394171661
 31
0.0
  0
LINE
  5
C40
  8
0
 62
     0
 10
81.933453308154455
 20
202.64420210299599
 30
0.0
 11
83.928915146875099
 21
204.63966394171661
 31
0.0
  0
LINE
  5
C41
  8
0
 62
     0
 10
81.160679572121978
 20
203.63919531992991
 30
0.0
 11
82.161148193908787
 21
204.63966394171661
 31
0.0
  0
LINE
  5
C42
  8
0
 62
     0
 10
80.142840716901745
 20
204.38912341767599
 30
0.0
 11
80.393381240942375
 21
204.63966394171661
 31
0.0
  0
ENDBLK
  5
C44
  8
0
  0
BLOCK
  8
0
  2
*U71
 70
     1
 10
0.0
 20
0.0
 30
0.0
  3
*U71
  1

  0
SOLID
  5
1050
  8
SAPA_FOGBAND
  6
CONTINUOUS
 62
     2
 10
39.145631804200193
 20
135.6595968230109
 30
0.0
 11
38.96535424042699
 21
135.58492341110451
 31
0.0
 12
39.325909367973388
 22
135.58492341110451
 32
0.0
 13
39.325909367973388
 23
135.58492341110451
 33
0.0
210
0.0
220
0.0
230
1.0
  0
SOLID
  5
1051
  8
SAPA_FOGBAND
  6
CONTINUOUS
 62
     2
 10
38.96535424042699
 20
135.58492341110451
 30
0.0
 11
38.890680828520551
 21
135.4046458473313
 31
0.0
 12
39.400582779879826
 22
135.4046458473313
 32
0.0
 13
39.400582779879826
 23
135.4046458473313
 33
0.0
210
0.0
220
0.0
230
1.0
  0
SOLID
  5
1052
  8
SAPA_FOGBAND
  6
CONTINUOUS
 62
     2
 10
-38.96535424042699
 20
135.58492341110451
 30
0.0
 11
-39.325909367973388
 21
135.58492341110451
 31
0.0
 12
-39.400582779879826
 22
135.4046458473313
 32
0.0
 13
-39.400582779879826
 23
135.4046458473313
 33
0.0
210
0.0
220
0.0
230
-1.0
  0
SOLID
  5
1053
  8
SAPA_FOGBAND
  6
CONTINUOUS
 62
     2
 10
-38.96535424042699
 20
135.22436828355811
 30
0.0
 11
-39.325909367973388
 21
135.22436828355811
 31
0.0
 12
-39.145631804200193
 22
135.14969487165169
 32
0.0
 13
-39.145631804200193
 23
135.14969487165169
 33
0.0
210
0.0
220
0.0
230
-1.0
  0
SOLID
  5
1054
  8
SAPA_FOGBAND
  6
CONTINUOUS
 62
     2
 10
38.890680828520551
 20
135.4046458473313
 30
0.0
 11
38.96535424042699
 21
135.22436828355811
 31
0.0
 12
39.325909367973388
 22
135.22436828355811
 32
0.0
 13
39.325909367973388
 23
135.22436828355811
 33
0.0
210
0.0
220
0.0
230
1.0
  0
SOLID
  5
1055
  8
SAPA_FOGBAND
  6
CONTINUOUS
 62
     2
 10
-38.890680828520551
 20
135.4046458473313
 30
0.0
 11
-39.400582779879826
 21
135.4046458473313
 31
0.0
 12
-39.325909367973388
 22
135.22436828355811
 32
0.0
 13
-39.325909367973388
 23
135.22436828355811
 33
0.0
210
0.0
220
0.0
230
-1.0
  0
LINE
  5
1056
  8
SAPA_FOGBAND
  6
CONTINUOUS
 62
     2
 10
39.145631804200193
 20
135.6595968230109
 30
0.0
 11
38.96535424042699
 21
135.58492341110451
 31
0.0
  0
LINE
  5
1057
  8
SAPA_FOGBAND
  6
CONTINUOUS
 62
     2
 10
39.325909367973388
 20
135.58492341110451
 30
0.0
 11
39.145631804200193
 21
135.6595968230109
 31
0.0
  0
LINE
  5
1058
  8
SAPA_FOGBAND
  6
CONTINUOUS
 62
     2
 10
38.96535424042699
 20
135.58492341110451
 30
0.0
 11
38.890680828520551
 21
135.4046458473313
 31
0.0
  0
LINE
  5
1059
  8
SAPA_FOGBAND
  6
CONTINUOUS
 62
     2
 10
39.325909367973388
 20
135.58492341110451
 30
0.0
 11
39.400582779879826
 21
135.4046458473313
 31
0.0
  0
LINE
  5
105A
  8
SAPA_FOGBAND
  6
CONTINUOUS
 62
     2
 10
39.325909367973388
 20
135.22436828355811
 30
0.0
 11
39.145631804200193
 21
135.14969487165169
 31
0.0
  0
LINE
  5
105B
  8
SAPA_FOGBAND
  6
CONTINUOUS
 62
     2
 10
39.145631804200193
 20
135.14969487165169
 30
0.0
 11
38.96535424042699
 21
135.22436828355811
 31
0.0
  0
LINE
  5
105C
  8
SAPA_FOGBAND
  6
CONTINUOUS
 62
     2
 10
38.890680828520551
 20
135.4046458473313
 30
0.0
 11
38.96535424042699
 21
135.22436828355811
 31
0.0
  0
LINE
  5
105D
  8
SAPA_FOGBAND
  6
CONTINUOUS
 62
     2
 10
39.400582779879826
 20
135.4046458473313
 30
0.0
 11
39.325909367973388
 21
135.22436828355811
 31
0.0
  0
ENDBLK
  5
105F
  8
0
  0
BLOCK
  8
0
  2
*U72
 70
     1
 10
0.0
 20
0.0
 30
0.0
  3
*U72
  1

  0
SOLID
  5
108A
  8
SAPA_FOGBAND
  6
CONTINUOUS
 62
     2
 10
85.368612976986256
 20
135.08164547205621
 30
0.0
 11
85.188335413213053
 21
135.00697206014979
 31
0.0
 12
85.548890540759487
 22
135.00697206014979
 32
0.0
 13
85.548890540759487
 23
135.00697206014979
 33
0.0
210
0.0
220
0.0
230
1.0
  0
SOLID
  5
108B
  8
SAPA_FOGBAND
  6
CONTINUOUS
 62
     2
 10
85.188335413213053
 20
135.00697206014979
 30
0.0
 11
85.113662001306636
 21
134.8266944963766
 31
0.0
 12
85.623563952665904
 22
134.8266944963766
 32
0.0
 13
85.623563952665904
 23
134.8266944963766
 33
0.0
210
0.0
220
0.0
230
1.0
  0
SOLID
  5
108C
  8
SAPA_FOGBAND
  6
CONTINUOUS
 62
     2
 10
-85.188335413213053
 20
135.00697206014979
 30
0.0
 11
-85.548890540759487
 21
135.00697206014979
 31
0.0
 12
-85.623563952665904
 22
134.8266944963766
 32
0.0
 13
-85.623563952665904
 23
134.8266944963766
 33
0.0
210
0.0
220
0.0
230
-1.0
  0
SOLID
  5
108D
  8
SAPA_FOGBAND
  6
CONTINUOUS
 62
     2
 10
-85.188335413213053
 20
134.64641693260339
 30
0.0
 11
-85.548890540759487
 21
134.64641693260339
 31
0.0
 12
-85.368612976986256
 22
134.571743520697
 32
0.0
 13
-85.368612976986256
 23
134.571743520697
 33
0.0
210
0.0
220
0.0
230
-1.0
  0
SOLID
  5
108E
  8
SAPA_FOGBAND
  6
CONTINUOUS
 62
     2
 10
85.113662001306636
 20
134.8266944963766
 30
0.0
 11
85.188335413213053
 21
134.64641693260339
 31
0.0
 12
85.548890540759487
 22
134.64641693260339
 32
0.0
 13
85.548890540759487
 23
134.64641693260339
 33
0.0
210
0.0
220
0.0
230
1.0
  0
SOLID
  5
108F
  8
SAPA_FOGBAND
  6
CONTINUOUS
 62
     2
 10
-85.113662001306636
 20
134.8266944963766
 30
0.0
 11
-85.623563952665904
 21
134.8266944963766
 31
0.0
 12
-85.548890540759487
 22
134.64641693260339
 32
0.0
 13
-85.548890540759487
 23
134.64641693260339
 33
0.0
210
0.0
220
0.0
230
-1.0
  0
LINE
  5
1090
  8
SAPA_FOGBAND
  6
CONTINUOUS
 62
     2
 10
85.368612976986256
 20
135.08164547205621
 30
0.0
 11
85.188335413213053
 21
135.00697206014979
 31
0.0
  0
LINE
  5
1091
  8
SAPA_FOGBAND
  6
CONTINUOUS
 62
     2
 10
85.548890540759487
 20
135.00697206014979
 30
0.0
 11
85.368612976986256
 21
135.08164547205621
 31
0.0
  0
LINE
  5
1092
  8
SAPA_FOGBAND
  6
CONTINUOUS
 62
     2
 10
85.188335413213053
 20
135.00697206014979
 30
0.0
 11
85.113662001306636
 21
134.8266944963766
 31
0.0
  0
LINE
  5
1093
  8
SAPA_FOGBAND
  6
CONTINUOUS
 62
     2
 10
85.548890540759487
 20
135.00697206014979
 30
0.0
 11
85.623563952665904
 21
134.8266944963766
 31
0.0
  0
LINE
  5
1094
  8
SAPA_FOGBAND
  6
CONTINUOUS
 62
     2
 10
85.548890540759487
 20
134.64641693260339
 30
0.0
 11
85.368612976986256
 21
134.571743520697
 31
0.0
  0
LINE
  5
1095
  8
SAPA_FOGBAND
  6
CONTINUOUS
 62
     2
 10
85.368612976986256
 20
134.571743520697
 30
0.0
 11
85.188335413213053
 21
134.64641693260339
 31
0.0
  0
LINE
  5
1096
  8
SAPA_FOGBAND
  6
CONTINUOUS
 62
     2
 10
85.113662001306636
 20
134.8266944963766
 30
0.0
 11
85.188335413213053
 21
134.64641693260339
 31
0.0
  0
LINE
  5
1097
  8
SAPA_FOGBAND
  6
CONTINUOUS
 62
     2
 10
85.623563952665904
 20
134.8266944963766
 30
0.0
 11
85.548890540759487
 21
134.64641693260339
 31
0.0
  0
ENDBLK
  5
1099
  8
0
  0
BLOCK
  8
0
  2
*U73
 70
     1
 10
0.0
 20
0.0
 30
0.0
  3
*U73
  1

  0
SOLID
  5
111F
  8
SAPA_FOGBAND
  6
CONTINUOUS
 62
     2
 10
39.145631804200193
 20
135.6595968230109
 30
0.0
 11
38.96535424042699
 21
135.58492341110451
 31
0.0
 12
39.325909367973388
 22
135.58492341110451
 32
0.0
 13
39.325909367973388
 23
135.58492341110451
 33
0.0
210
0.0
220
0.0
230
1.0
  0
SOLID
  5
1120
  8
SAPA_FOGBAND
  6
CONTINUOUS
 62
     2
 10
38.96535424042699
 20
135.58492341110451
 30
0.0
 11
38.890680828520551
 21
135.4046458473313
 31
0.0
 12
39.400582779879826
 22
135.4046458473313
 32
0.0
 13
39.400582779879826
 23
135.4046458473313
 33
0.0
210
0.0
220
0.0
230
1.0
  0
SOLID
  5
1121
  8
SAPA_FOGBAND
  6
CONTINUOUS
 62
     2
 10
-38.96535424042699
 20
135.58492341110451
 30
0.0
 11
-39.325909367973388
 21
135.58492341110451
 31
0.0
 12
-39.400582779879826
 22
135.4046458473313
 32
0.0
 13
-39.400582779879826
 23
135.4046458473313
 33
0.0
210
0.0
220
0.0
230
-1.0
  0
SOLID
  5
1122
  8
SAPA_FOGBAND
  6
CONTINUOUS
 62
     2
 10
-38.96535424042699
 20
135.22436828355811
 30
0.0
 11
-39.325909367973388
 21
135.22436828355811
 31
0.0
 12
-39.145631804200193
 22
135.14969487165169
 32
0.0
 13
-39.145631804200193
 23
135.14969487165169
 33
0.0
210
0.0
220
0.0
230
-1.0
  0
SOLID
  5
1123
  8
SAPA_FOGBAND
  6
CONTINUOUS
 62
     2
 10
38.890680828520551
 20
135.4046458473313
 30
0.0
 11
38.96535424042699
 21
135.22436828355811
 31
0.0
 12
39.325909367973388
 22
135.22436828355811
 32
0.0
 13
39.325909367973388
 23
135.22436828355811
 33
0.0
210
0.0
220
0.0
230
1.0
  0
SOLID
  5
1124
  8
SAPA_FOGBAND
  6
CONTINUOUS
 62
     2
 10
-38.890680828520551
 20
135.4046458473313
 30
0.0
 11
-39.400582779879826
 21
135.4046458473313
 31
0.0
 12
-39.325909367973388
 22
135.22436828355811
 32
0.0
 13
-39.325909367973388
 23
135.22436828355811
 33
0.0
210
0.0
220
0.0
230
-1.0
  0
LINE
  5
1125
  8
SAPA_FOGBAND
  6
CONTINUOUS
 62
     2
 10
39.145631804200193
 20
135.6595968230109
 30
0.0
 11
38.96535424042699
 21
135.58492341110451
 31
0.0
  0
LINE
  5
1126
  8
SAPA_FOGBAND
  6
CONTINUOUS
 62
     2
 10
39.325909367973388
 20
135.58492341110451
 30
0.0
 11
39.145631804200193
 21
135.6595968230109
 31
0.0
  0
LINE
  5
1127
  8
SAPA_FOGBAND
  6
CONTINUOUS
 62
     2
 10
38.96535424042699
 20
135.58492341110451
 30
0.0
 11
38.890680828520551
 21
135.4046458473313
 31
0.0
  0
LINE
  5
1128
  8
SAPA_FOGBAND
  6
CONTINUOUS
 62
     2
 10
39.325909367973388
 20
135.58492341110451
 30
0.0
 11
39.400582779879826
 21
135.4046458473313
 31
0.0
  0
LINE
  5
1129
  8
SAPA_FOGBAND
  6
CONTINUOUS
 62
     2
 10
39.325909367973388
 20
135.22436828355811
 30
0.0
 11
39.145631804200193
 21
135.14969487165169
 31
0.0
  0
LINE
  5
112A
  8
SAPA_FOGBAND
  6
CONTINUOUS
 62
     2
 10
39.145631804200193
 20
135.14969487165169
 30
0.0
 11
38.96535424042699
 21
135.22436828355811
 31
0.0
  0
LINE
  5
112B
  8
SAPA_FOGBAND
  6
CONTINUOUS
 62
     2
 10
38.890680828520551
 20
135.4046458473313
 30
0.0
 11
38.96535424042699
 21
135.22436828355811
 31
0.0
  0
LINE
  5
112C
  8
SAPA_FOGBAND
  6
CONTINUOUS
 62
     2
 10
39.400582779879826
 20
135.4046458473313
 30
0.0
 11
39.325909367973388
 21
135.22436828355811
 31
0.0
  0
ENDBLK
  5
112E
  8
0
  0
BLOCK
  8
0
  2
*U74
 70
     1
 10
0.0
 20
0.0
 30
0.0
  3
*U74
  1

  0
SOLID
  5
1159
  8
SAPA_FOGBAND
  6
CONTINUOUS
 62
     2
 10
85.368612976986256
 20
135.08164547205621
 30
0.0
 11
85.188335413213053
 21
135.00697206014979
 31
0.0
 12
85.548890540759487
 22
135.00697206014979
 32
0.0
 13
85.548890540759487
 23
135.00697206014979
 33
0.0
210
0.0
220
0.0
230
1.0
  0
SOLID
  5
115A
  8
SAPA_FOGBAND
  6
CONTINUOUS
 62
     2
 10
85.188335413213053
 20
135.00697206014979
 30
0.0
 11
85.113662001306636
 21
134.8266944963766
 31
0.0
 12
85.623563952665904
 22
134.8266944963766
 32
0.0
 13
85.623563952665904
 23
134.8266944963766
 33
0.0
210
0.0
220
0.0
230
1.0
  0
SOLID
  5
115B
  8
SAPA_FOGBAND
  6
CONTINUOUS
 62
     2
 10
-85.188335413213053
 20
135.00697206014979
 30
0.0
 11
-85.548890540759487
 21
135.00697206014979
 31
0.0
 12
-85.623563952665904
 22
134.8266944963766
 32
0.0
 13
-85.623563952665904
 23
134.8266944963766
 33
0.0
210
0.0
220
0.0
230
-1.0
  0
SOLID
  5
115C
  8
SAPA_FOGBAND
  6
CONTINUOUS
 62
     2
 10
-85.188335413213053
 20
134.64641693260339
 30
0.0
 11
-85.548890540759487
 21
134.64641693260339
 31
0.0
 12
-85.368612976986256
 22
134.571743520697
 32
0.0
 13
-85.368612976986256
 23
134.571743520697
 33
0.0
210
0.0
220
0.0
230
-1.0
  0
SOLID
  5
115D
  8
SAPA_FOGBAND
  6
CONTINUOUS
 62
     2
 10
85.113662001306636
 20
134.8266944963766
 30
0.0
 11
85.188335413213053
 21
134.64641693260339
 31
0.0
 12
85.548890540759487
 22
134.64641693260339
 32
0.0
 13
85.548890540759487
 23
134.64641693260339
 33
0.0
210
0.0
220
0.0
230
1.0
  0
SOLID
  5
115E
  8
SAPA_FOGBAND
  6
CONTINUOUS
 62
     2
 10
-85.113662001306636
 20
134.8266944963766
 30
0.0
 11
-85.623563952665904
 21
134.8266944963766
 31
0.0
 12
-85.548890540759487
 22
134.64641693260339
 32
0.0
 13
-85.548890540759487
 23
134.64641693260339
 33
0.0
210
0.0
220
0.0
230
-1.0
  0
LINE
  5
115F
  8
SAPA_FOGBAND
  6
CONTINUOUS
 62
     2
 10
85.368612976986256
 20
135.08164547205621
 30
0.0
 11
85.188335413213053
 21
135.00697206014979
 31
0.0
  0
LINE
  5
1160
  8
SAPA_FOGBAND
  6
CONTINUOUS
 62
     2
 10
85.548890540759487
 20
135.00697206014979
 30
0.0
 11
85.368612976986256
 21
135.08164547205621
 31
0.0
  0
LINE
  5
1161
  8
SAPA_FOGBAND
  6
CONTINUOUS
 62
     2
 10
85.188335413213053
 20
135.00697206014979
 30
0.0
 11
85.113662001306636
 21
134.8266944963766
 31
0.0
  0
LINE
  5
1162
  8
SAPA_FOGBAND
  6
CONTINUOUS
 62
     2
 10
85.548890540759487
 20
135.00697206014979
 30
0.0
 11
85.623563952665904
 21
134.8266944963766
 31
0.0
  0
LINE
  5
1163
  8
SAPA_FOGBAND
  6
CONTINUOUS
 62
     2
 10
85.548890540759487
 20
134.64641693260339
 30
0.0
 11
85.368612976986256
 21
134.571743520697
 31
0.0
  0
LINE
  5
1164
  8
SAPA_FOGBAND
  6
CONTINUOUS
 62
     2
 10
85.368612976986256
 20
134.571743520697
 30
0.0
 11
85.188335413213053
 21
134.64641693260339
 31
0.0
  0
LINE
  5
1165
  8
SAPA_FOGBAND
  6
CONTINUOUS
 62
     2
 10
85.113662001306636
 20
134.8266944963766
 30
0.0
 11
85.188335413213053
 21
134.64641693260339
 31
0.0
  0
LINE
  5
1166
  8
SAPA_FOGBAND
  6
CONTINUOUS
 62
     2
 10
85.623563952665904
 20
134.8266944963766
 30
0.0
 11
85.548890540759487
 21
134.64641693260339
 31
0.0
  0
ENDBLK
  5
1168
  8
0
  0
BLOCK
  8
0
  2
*U75
 70
     1
 10
0.0
 20
0.0
 30
0.0
  3
*U75
  1

  0
TEXT
  5
11CA
  8
SAPA_MATT
 62
     2
 10
60.245159467183257
 20
237.63966394171661
 30
0.0
 40
3.0
  1
60
  7
ISO
  0
ENDBLK
  5
11CC
  8
0
  0
BLOCK
  8
0
  2
*U76
 70
     1
 10
0.0
 20
0.0
 30
0.0
  3
*U76
  1

  0
TEXT
  5
11CE
  8
SAPA_MATT
 62
     2
 10
60.155395687655911
 20
225.63966394171669
 30
0.0
 40
3.0
  1
50
  7
ISO
  0
ENDBLK
  5
11D0
  8
0
  0
BLOCK
  8
0
  2
*U77
 70
     1
 10
0.0
 20
0.0
 30
0.0
  3
*U77
  1

  0
TEXT
  5
11D2
  8
SAPA_MATT
 62
     2
 10
10.9997047244094
 20
57.288818897637803
 30
0.0
 40
3.0
  1
120
 50
90.0
  7
ISO
  0
ENDBLK
  5
11D4
  8
0
  0
BLOCK
  8
0
  2
*U78
 70
     1
 10
0.0
 20
0.0
 30
0.0
  3
*U78
  1

  0
TEXT
  5
11D6
  8
SAPA_MATT
 62
     2
 10
10.99999999999995
 20
133.03881889763781
 30
0.0
 40
3.0
  1
30
 50
90.0
  7
ISO
  0
ENDBLK
  5
11D8
  8
0
  0
BLOCK
  8
0
  2
*U79
 70
     1
 10
0.0
 20
0.0
 30
0.0
  3
*U79
  1

  0
TEXT
  5
11DA
  8
SAPA_MATT
 62
     2
 10
10.99999999999995
 20
170.327867965644
 30
0.0
 40
3.0
  1
45
 50
90.0
  7
ISO
  0
ENDBLK
  5
11DC
  8
0
  0
BLOCK
  8
0
  2
*U80
 70
     1
 10
0.0
 20
0.0
 30
0.0
  3
*U80
  1

  0
TEXT
  5
11DE
  8
SAPA_MATT
 62
     2
 10
-0.9999999999999943
 20
94.652626469902557
 30
0.0
 40
3.0
  1
195
 50
90.0
  7
ISO
  0
ENDBLK
  5
11E0
  8
0
  0
ENDSEC
  0
SECTION
  2
ENTITIES
  0
TEXT
  5
3A
  8
SAPA_ARTIKELNR
 10
92.727146568645736
 20
165.9757930153209
 30
0.0
 40
3.5
  1
68005
 50
90.0
  7
ISO
  0
TEXT
  5
3C
  8
SAPA_ARTIKELNR
 10
98.754347927493427
 20
129.8192851633107
 30
0.0
 40
3.5
  1
42138
 50
90.0
  7
ISO
  0
TEXT
  5
3D
  8
SAPA_ARTIKELNR
 10
30.173406751462419
 20
125.4288520669952
 30
0.0
 40
3.5
  1
42138
 50
90.0
  7
ISO
  0
TEXT
  5
3E
  8
SAPA_ARTIKELNR
 10
98.754347927493427
 20
63.188006407463263
 30
0.0
 40
3.5
  1
68057
 50
90.0
  7
ISO
  0
LINE
  5
72
  8
SAPA_PROFIL
 10
61.95657727333024
 20
129.1587810285551
 30
0.0
 11
51.156577273330591
 21
129.1587810285551
 31
0.0
  0
INSERT
  5
11B
  8
SAPA_ANSLUTNING
  6
CONTINUOUS
  2
*X69
 10
0.0
 20
0.0
 30
0.0
1001
ACAD
1000
HATCH
1002
{
1070
    19
1000
HEX
1040
7.0
1040
0.0
1000
ASC_BOUNDS
1070
     2
1070
     1
1070
     1
1005
120
1070
     1
1070
     1
1005
11E
1000
ASC_SEEDPOINT
1011
42.770545652546332
1021
0.0
1031
0.0
1021
200.41285927264471
1031
0.0
1000
R14_HATCH_DATA
1000
11B
1011
1.0
1021
0.0
1031
0.0
1021
0.0
1031
0.0
1011
0.0
1021
0.0
1031
0.0
1021
1.0
1031
0.0
1011
0.0
1021
0.0
1031
0.0
1021
0.0
1031
1.0
1040
0.0
1010
0.0
1020
0.0
1030
1.0
1000
HEX
1070
     0
1070
     1
1071
        2
1071
        7
1070
     1
1070
     1
1071
        9
1040
37.256576790018087
1040
204.13999999999999
1040
0.0
1040
37.256576790018087
1040
195.13999999999999
1040
0.0
1040
40.406416715675839
1040
195.13999999999999
1040
0.0
1040
41.559676745102678
1040
193.76559821673521
1040
0.0
1040
41.559676745102678
1040
192.3147011606886
1040
0.0
1040
40.131369063032771
1040
192.3147011606886
1040
0.9923779948559721
1040
40.139937551817127
1040
190.13999999999999
1040
0.0
1040
47.256576790018087
1040
190.1399999999999
1040
0.0
1040
47.25657679001808
1040
204.13999999999999
1040
0.0
1071
        1
1005
11E
1071
        7
1070
     1
1070
     1
1071
       16
1040
82.904293763681153
1040
200.1310026119726
1040
0.067708018689712
1040
82.08141562966108
1040
202.3820663611647
1040
0.1053277233169147
1040
80.656053652810897
1040
204.0896732074755
1040
0.167892009687236
1040
79.314834129335736
1040
204.55309612868149
1040
0.1678920096872403
1040
77.973614605860561
1040
204.08967320747561
1040
0.1053277233169189
1040
76.54825262901042
1040
202.3820663611647
1040
0.0677080186896989
1040
75.725374494990433
1040
200.131002611973
1040
0.0538647880861998
1040
75.402297050165103
1040
197.14073685210931
1040
0.0538647880861804
1040
75.725374494990191
1040
194.15047109224651
1040
0.0677080186897338
1040
76.548252629010619
1040
191.89940734305361
1040
0.1053277233168976
1040
77.973614605860547
1040
190.1918004967431
1040
0.1678920096872461
1040
79.314834129335736
1040
189.72837757553711
1040
0.1678920096872444
1040
80.656053652810968
1040
190.1918004967431
1040
0.10532772331691
1040
82.081415629661024
1040
191.89940734305389
1040
0.0677080186897359
1040
82.904293763681338
1040
194.15047109224679
1040
0.0538647880861716
1040
83.227371208506355
1040
197.14073685210931
1040
0.0538647880861885
1071
        1
1005
120
1070
     0
1070
     1
1040
0.0
1040
7.0
1070
     0
1070
     3
1040
0.0
1040
-42.683174136147791
1040
-342.700960147302
1040
0.0
1040
1.5155444570000001
1070
     2
1040
0.875
1040
-1.75
1040
2.0943951023931948
1040
-42.683174136147791
1040
-342.700960147302
1040
-1.312500000326692
1040
-0.7577722284999997
1070
     2
1040
0.8749999999999998
1040
-1.7499999999999989
1040
1.047197551196597
1040
-41.808174136147791
1040
-342.700960147302
1040
-1.312500000326692
1040
0.7577722285000003
1070
     2
1040
0.875
1040
-1.75
1040
0.1004818818266199
1071
        2
1040
42.770545652546332
1040
200.41285927264471
1040
0.0
1040
80.972292528789154
1040
199.0061123944655
1040
0.0
1002
}
  0
POLYLINE
  5
11E
  8
SAPA_ANSLUTNING
 66
     1
 10
0.0
 20
0.0
 30
0.0
 70
     1
1001
ACAD
1000
ASC_BOUNDS
1002
{
1070
    19
1005
11B
1002
}
  0
VERTEX
  5
C21
  8
SAPA_ANSLUTNING
 10
40.156576790018072
 20
192.3147011606886
 30
0.0
  0
VERTEX
  5
C22
  8
SAPA_ANSLUTNING
 10
41.559676745102678
 20
192.3147011606886
 30
0.0
  0
VERTEX
  5
C23
  8
SAPA_ANSLUTNING
 10
41.559676745102678
 20
193.76559821673521
 30
0.0
  0
VERTEX
  5
C24
  8
SAPA_ANSLUTNING
 10
40.406416715675853
 20
195.1399999999999
 30
0.0
  0
VERTEX
  5
C25
  8
SAPA_ANSLUTNING
 10
37.256576790018087
 20
195.1399999999999
 30
0.0
  0
VERTEX
  5
C26
  8
SAPA_ANSLUTNING
 10
37.256576790018087
 20
204.13999999999999
 30
0.0
  0
VERTEX
  5
C27
  8
SAPA_ANSLUTNING
 10
47.256576790018087
 20
204.13999999999999
 30
0.0
  0
VERTEX
  5
C28
  8
SAPA_ANSLUTNING
 10
47.256576790018087
 20
190.13999999999999
 30
0.0
  0
VERTEX
  5
C29
  8
SAPA_ANSLUTNING
 10
40.139937551817127
 20
190.13999999999999
 30
0.0
 42
-1.0039478385010081
  0
SEQEND
  5
C2A
  8
SAPA_ANSLUTNING
  0
INSERT
  5
11F
  8
SAPA_ANSLUTNING
  6
CONTINUOUS
  2
*X70
 10
0.0
 20
0.0
 30
0.0
1001
ACAD
1000
HATCH
1002
{
1070
    19
1000
ANSI37
1040
10.0
1040
0.0
1000
R14_HATCH_DATA
1000
11F
1011
1.0
1021
0.0
1031
0.0
1021
0.0
1031
0.0
1011
0.0
1021
0.0
1031
0.0
1021
1.0
1031
0.0
1011
0.0
1021
0.0
1031
0.0
1021
0.0
1031
1.0
1040
0.0
1010
0.0
1020
0.0
1030
1.0
1000
ANSI37
1070
     0
1070
     0
1071
        1
1071
        7
1070
     1
1070
     1
1071
       14
1040
87.256576790018357
1040
204.63966394171669
1040
0.0
1040
79.314834129335736
1040
204.63966394171669
1040
0.0
1040
79.314834129335736
1040
204.55309612868149
1040
-0.1678920096872382
1040
80.656053652810925
1040
204.08967320747561
1040
-0.1053277233169209
1040
82.081415629661095
1040
202.38206636116459
1040
-0.06770801868971
1040
82.904293763681139
1040
200.1310026119726
1040
-0.053864788086187
1040
83.227371208506355
1040
197.14073685210931
1040
-0.0538647880861851
1040
82.904293763681181
1040
194.15047109224611
1040
-0.0677080186897096
1040
82.081415629661137
1040
191.89940734305409
1040
0.0
1040
83.081694257774345
1040
192.64350161931
1040
0.0
1040
83.081694257774345
1040
193.64350161931
1040
0.0
1040
84.081694257774387
1040
194.64350161930989
1040
0.0
1040
87.081694257774984
1040
194.64350161930989
1040
0.0
1040
87.256576790018499
1040
194.6399999999997
1040
-0.2032199431463407
1071
        0
1070
     0
1070
     1
1040
0.0
1040
10.0
1070
     0
1070
     2
1040
0.7853981633974483
1040
-42.683174136147791
1040
-342.700960147302
1040
-0.8838834764831842
1040
0.8838834764831844
1070
     0
1040
2.3561944901923439
1040
-42.683174136147791
1040
-342.700960147302
1040
-0.8838834764831844
1040
-0.8838834764831842
1070
     0
1040
0.0390651268545045
1071
        1
1040
84.889305350343847
1040
201.38191731156741
1040
0.0
1002
}
  0
POLYLINE
  5
120
  8
SAPA_ANSLUTNING
 66
     1
 10
0.0
 20
0.0
 30
0.0
 70
     1
1001
ACAD
1000
ASC_BOUNDS
1002
{
1070
    19
1005
11B
1002
}
  0
VERTEX
  5
C45
  8
SAPA_ANSLUTNING
 10
75.402297050165103
 20
197.14073685210931
 30
0.0
 42
-0.0538647880861898
  0
VERTEX
  5
C46
  8
SAPA_ANSLUTNING
 10
75.725374494990319
 20
200.13100261197249
 30
0.0
 42
-0.0677080186897121
  0
VERTEX
  5
C47
  8
SAPA_ANSLUTNING
 10
76.548252629010392
 20
202.38206636116459
 30
0.0
 42
-0.1053277233169234
  0
VERTEX
  5
C48
  8
SAPA_ANSLUTNING
 10
77.973614605860575
 20
204.08967320747561
 30
0.0
 42
-0.1678920096872386
  0
VERTEX
  5
C49
  8
SAPA_ANSLUTNING
 10
79.314834129335736
 20
204.55309612868149
 30
0.0
 42
-0.1678920096872382
  0
VERTEX
  5
C4A
  8
SAPA_ANSLUTNING
 10
80.656053652810925
 20
204.08967320747561
 30
0.0
 42
-0.1053277233169209
  0
VERTEX
  5
C4B
  8
SAPA_ANSLUTNING
 10
82.081415629661095
 20
202.38206636116459
 30
0.0
 42
-0.06770801868971
  0
VERTEX
  5
C4C
  8
SAPA_ANSLUTNING
 10
82.904293763681139
 20
200.1310026119726
 30
0.0
 42
-0.053864788086187
  0
VERTEX
  5
C4D
  8
SAPA_ANSLUTNING
 10
83.227371208506355
 20
197.14073685210931
 30
0.0
 42
-0.0538647880861851
  0
VERTEX
  5
C4E
  8
SAPA_ANSLUTNING
 10
82.904293763681181
 20
194.15047109224611
 30
0.0
 42
-0.0677080186897099
  0
VERTEX
  5
C4F
  8
SAPA_ANSLUTNING
 10
82.081415629661095
 20
191.89940734305409
 30
0.0
 42
-0.1053277233169203
  0
VERTEX
  5
C50
  8
SAPA_ANSLUTNING
 10
80.656053652810925
 20
190.1918004967431
 30
0.0
 42
-0.1678920096872382
  0
VERTEX
  5
C51
  8
SAPA_ANSLUTNING
 10
79.314834129335736
 20
189.72837757553711
 30
0.0
 42
-0.167892009687245
  0
VERTEX
  5
C52
  8
SAPA_ANSLUTNING
 10
77.973614605860547
 20
190.1918004967431
 30
0.0
 42
-0.1053277233169226
  0
VERTEX
  5
C53
  8
SAPA_ANSLUTNING
 10
76.548252629010392
 20
191.89940734305409
 30
0.0
 42
-0.0677080186897082
  0
VERTEX
  5
C54
  8
SAPA_ANSLUTNING
 10
75.725374494990319
 20
194.15047109224611
 30
0.0
 42
-0.0538647880861872
  0
SEQEND
  5
C55
  8
SAPA_ANSLUTNING
  0
ARC
  5
121
  8
SAPA_ANSLUTNING
 10
99.050072815824905
 20
199.63983197085841
 30
0.0
 40
12.809561594665579
 50
157.02556890674009
 51
202.97443109325971
  0
POLYLINE
  5
122
  8
SAPA_ANSLUTNING
 66
     1
 10
0.0
 20
0.0
 30
0.0
  0
VERTEX
  5
C56
  8
SAPA_ANSLUTNING
 10
48.195420833566303
 20
192.12987726034839
 30
0.0
 42
1.0
  0
VERTEX
  5
C57
  8
SAPA_ANSLUTNING
 10
52.195420833566288
 20
192.12987726034839
 30
0.0
  0
VERTEX
  5
C58
  8
SAPA_ANSLUTNING
 10
52.195420833566068
 20
202.5864877067971
 30
0.0
 42
-0.9999989466455052
  0
VERTEX
  5
C59
  8
SAPA_ANSLUTNING
 10
56.195420833561748
 20
202.5864919202173
 30
0.0
  0
VERTEX
  5
C5A
  8
SAPA_ANSLUTNING
 10
56.195420833561748
 20
196.58649099262979
 30
0.0
 42
1.0
  0
VERTEX
  5
C5B
  8
SAPA_ANSLUTNING
 10
60.195420833561741
 20
196.58649099262979
 30
0.0
  0
VERTEX
  5
C5C
  8
SAPA_ANSLUTNING
 10
60.195420833561641
 20
202.58649455199549
 30
0.0
 42
-0.9999974985601644
  0
VERTEX
  5
C5D
  8
SAPA_ANSLUTNING
 10
64.195420833549122
 20
202.58649455199549
 30
0.0
  0
VERTEX
  5
C5E
  8
SAPA_ANSLUTNING
 10
64.195420833549008
 20
196.58649099262979
 30
0.0
 42
1.0
  0
VERTEX
  5
C5F
  8
SAPA_ANSLUTNING
 10
68.195420833549036
 20
196.58649099262979
 30
0.0
  0
VERTEX
  5
C60
  8
SAPA_ANSLUTNING
 10
68.195420833548994
 20
202.5864919202173
 30
0.0
 42
-0.9999989466455052
  0
VERTEX
  5
C61
  8
SAPA_ANSLUTNING
 10
72.195420833544674
 20
202.5864877067971
 30
0.0
  0
VERTEX
  5
C62
  8
SAPA_ANSLUTNING
 10
72.19542083354446
 20
192.12987726034839
 30
0.0
 42
1.0
  0
VERTEX
  5
C63
  8
SAPA_ANSLUTNING
 10
76.19542083354446
 20
192.12987726034839
 30
0.0
  0
SEQEND
  5
C64
  8
SAPA_ANSLUTNING
  0
LINE
  5
123
  8
SAPA_ANSLUTNING
 10
103.0134031995773
 20
204.63966394171669
 30
0.0
 11
20.979140216675749
 21
204.63966394171669
 31
0.0
  0
POLYLINE
  5
124
  8
SAPA_LIGHT
 66
     1
 10
0.0
 20
0.0
 30
0.0
 70
     1
  0
VERTEX
  5
C65
  8
SAPA_LIGHT
 10
37.256576790018102
 20
195.1399999999999
 30
0.0
  0
VERTEX
  5
C66
  8
SAPA_LIGHT
 10
87.256576790018116
 20
195.1400000000001
 30
0.0
  0
VERTEX
  5
C67
  8
SAPA_LIGHT
 10
87.256576790018116
 20
141.14000000000021
 30
0.0
  0
VERTEX
  5
C68
  8
SAPA_LIGHT
 10
37.256576790018102
 20
141.1400000000001
 30
0.0
  0
SEQEND
  5
C69
  8
SAPA_LIGHT
  0
POLYLINE
  5
126
  8
SAPA_LIGHT
 66
     1
 10
0.0
 20
0.0
 30
0.0
  0
VERTEX
  5
C6A
  8
SAPA_LIGHT
 10
45.656576790018221
 20
0.1399999999999864
 30
0.0
  0
VERTEX
  5
C6B
  8
SAPA_LIGHT
 10
32.256576790017988
 20
0.1399999999999864
 30
0.0
  0
VERTEX
  5
C6C
  8
SAPA_LIGHT
 10
32.256576790017988
 20
129.15878102855521
 30
0.0
  0
VERTEX
  5
C6D
  8
SAPA_LIGHT
 10
92.256576790018016
 20
129.15878102855521
 30
0.0
  0
VERTEX
  5
C6E
  8
SAPA_LIGHT
 10
92.256576790018016
 20
0.1399999999999864
 30
0.0
  0
VERTEX
  5
C6F
  8
SAPA_LIGHT
 10
51.656576790018349
 20
0.1399999999999864
 30
0.0
  0
SEQEND
  5
C70
  8
SAPA_LIGHT
  0
POLYLINE
  5
127
  8
SAPA_LIGHT
 66
     1
 10
0.0
 20
0.0
 30
0.0
  0
VERTEX
  5
C71
  8
SAPA_LIGHT
 10
46.156576790018221
 20
-16.060000000002042
 30
0.0
  0
VERTEX
  5
C72
  8
SAPA_LIGHT
 10
46.156576790018221
 20
17.13999999999789
 30
0.0
  0
VERTEX
  5
C73
  8
SAPA_LIGHT
 10
52.156576790018221
 20
17.13999999999789
 30
0.0
  0
VERTEX
  5
C74
  8
SAPA_LIGHT
 10
52.156576790018221
 20
-16.060000000002098
 30
0.0
  0
VERTEX
  5
C75
  8
SAPA_LIGHT
 10
46.156576790018221
 20
-16.060000000002042
 30
0.0
  0
SEQEND
  5
C76
  8
SAPA_LIGHT
  0
LINE
  5
131
  8
SAPA_LIGHT
 10
103.0134031995773
 20
204.63966394171669
 30
0.0
 11
20.979140216675759
 21
204.63966394171669
 31
0.0
  0
POLYLINE
  5
AA1
  8
SAPA_PROFIL
 66
     1
 10
0.0
 20
0.0
 30
0.0
  0
VERTEX
  5
E57
  8
SAPA_PROFIL
 10
71.435021609384563
 20
19.261263078443729
 30
0.0
  0
VERTEX
  5
E58
  8
SAPA_PROFIL
 10
70.753981675526262
 20
2.1399999999933921
 30
0.0
 42
0.4142135623730951
  0
VERTEX
  5
E59
  8
SAPA_PROFIL
 10
71.253981675526262
 20
1.6399999999933921
 30
0.0
  0
VERTEX
  5
E5A
  8
SAPA_PROFIL
 10
83.053595158534989
 20
1.6399999999934489
 30
0.0
 42
0.4076767287637263
  0
VERTEX
  5
E5B
  8
SAPA_PROFIL
 10
86.052844990924527
 20
4.5728963508103666
 30
0.0
  0
VERTEX
  5
E5C
  8
SAPA_PROFIL
 10
86.207284213035337
 20
19.261263078443729
 30
0.0
 42
0.4182129759575463
  0
VERTEX
  5
E5D
  8
SAPA_PROFIL
 10
85.711772492178156
 20
19.77242419049924
 30
0.0
  0
VERTEX
  5
E5E
  8
SAPA_PROFIL
 10
83.237124736058803
 20
19.785251792024951
 30
0.0
  0
VERTEX
  5
E5F
  8
SAPA_PROFIL
 10
81.61106677986524
 20
21.439940389648768
 30
0.0
  0
VERTEX
  5
E60
  8
SAPA_PROFIL
 10
81.61106677986524
 20
25.98901642393696
 30
0.0
 42
-0.4293387945586749
  0
VERTEX
  5
E61
  8
SAPA_PROFIL
 10
81.929177915854581
 20
26.285742945021472
 30
0.0
  0
VERTEX
  5
E62
  8
SAPA_PROFIL
 10
83.010633641125054
 20
26.21310326889375
 30
0.0
 42
-0.4883397947196161
  0
VERTEX
  5
E63
  8
SAPA_PROFIL
 10
82.790010706926836
 20
24.651381442885398
 30
0.0
  0
VERTEX
  5
E64
  8
SAPA_PROFIL
 10
82.790010706926836
 20
21.952300166850989
 30
0.0
  0
VERTEX
  5
E65
  8
SAPA_PROFIL
 10
83.744633927124696
 20
20.980868520474871
 30
0.0
  0
VERTEX
  5
E66
  8
SAPA_PROFIL
 10
86.243760070009785
 20
20.980868520474871
 30
0.0
  0
VERTEX
  5
E67
  8
SAPA_PROFIL
 10
86.243760070009785
 20
21.45464418698975
 30
0.0
  0
VERTEX
  5
E68
  8
SAPA_PROFIL
 10
87.756576790018016
 20
21.45464418698975
 30
0.0
  0
VERTEX
  5
E69
  8
SAPA_PROFIL
 10
87.75657679001813
 20
0.4373592933013129
 30
0.0
 42
-0.4116378201539302
  0
VERTEX
  5
E6A
  8
SAPA_PROFIL
 10
87.456588312347776
 20
0.1399999999934494
 30
0.0
  0
VERTEX
  5
E6B
  8
SAPA_PROFIL
 10
59.053981675526273
 20
0.1399999999933357
 30
0.0
 42
-0.414213562373095
  0
VERTEX
  5
E6C
  8
SAPA_PROFIL
 10
58.753981675526212
 20
0.4399999999933471
 30
0.0
  0
VERTEX
  5
E6D
  8
SAPA_PROFIL
 10
58.753981675526262
 20
1.6499999999933259
 30
0.0
 42
-0.4142135623731037
  0
VERTEX
  5
E6E
  8
SAPA_PROFIL
 10
59.743981675526207
 20
2.6399999999933921
 30
0.0
  0
VERTEX
  5
E6F
  8
SAPA_PROFIL
 10
59.753981675526262
 20
2.6399999999933921
 30
0.0
  0
VERTEX
  5
E70
  8
SAPA_PROFIL
 10
59.753981675526262
 20
1.3899999999933921
 30
0.0
  0
VERTEX
  5
E71
  8
SAPA_PROFIL
 10
61.253981675526262
 20
1.3899999999933921
 30
0.0
 42
0.4142135623730951
  0
VERTEX
  5
E72
  8
SAPA_PROFIL
 10
61.753981675526262
 20
1.8899999999933921
 30
0.0
  0
VERTEX
  5
E73
  8
SAPA_PROFIL
 10
61.753981675526262
 20
9.8899999999933925
 30
0.0
 42
0.4142135623730951
  0
VERTEX
  5
E74
  8
SAPA_PROFIL
 10
61.253981675526262
 20
10.389999999993391
 30
0.0
  0
VERTEX
  5
E75
  8
SAPA_PROFIL
 10
59.753981675526262
 20
10.389999999993391
 30
0.0
  0
VERTEX
  5
E76
  8
SAPA_PROFIL
 10
59.753981675526262
 20
9.1399999999933925
 30
0.0
  0
VERTEX
  5
E77
  8
SAPA_PROFIL
 10
59.743981675526207
 20
9.1399999999933925
 30
0.0
 42
-0.414213562373095
  0
VERTEX
  5
E78
  8
SAPA_PROFIL
 10
58.753981675526212
 20
10.129999999993339
 30
0.0
  0
VERTEX
  5
E79
  8
SAPA_PROFIL
 10
58.753981675526262
 20
10.63999999999333
 30
0.0
 42
-0.4142135623730953
  0
VERTEX
  5
E7A
  8
SAPA_PROFIL
 10
59.753981675526262
 20
11.639999999993391
 30
0.0
  0
VERTEX
  5
E7B
  8
SAPA_PROFIL
 10
61.253981675526262
 20
11.639999999993391
 30
0.0
 42
-0.4142135623730951
  0
VERTEX
  5
E7C
  8
SAPA_PROFIL
 10
62.953981675526251
 20
9.9399999999934021
 30
0.0
  0
VERTEX
  5
E7D
  8
SAPA_PROFIL
 10
62.9539816755263
 20
2.1399999999933921
 30
0.0
 42
0.414213562373095
  0
VERTEX
  5
E7E
  8
SAPA_PROFIL
 10
63.4539816755263
 20
1.6399999999933921
 30
0.0
  0
VERTEX
  5
E7F
  8
SAPA_PROFIL
 10
68.953981675526308
 20
1.6399999999933921
 30
0.0
 42
0.4142135623730951
  0
VERTEX
  5
E80
  8
SAPA_PROFIL
 10
69.453981675526308
 20
2.1399999999933921
 30
0.0
  0
VERTEX
  5
E81
  8
SAPA_PROFIL
 10
70.125191321992617
 20
19.261263078443729
 30
0.0
  0
VERTEX
  5
E82
  8
SAPA_PROFIL
 10
70.782129772721959
 20
24.664209842193429
 30
0.0
 42
0.4666505291506209
  0
VERTEX
  5
E83
  8
SAPA_PROFIL
 10
70.520298241677409
 20
24.9440114081122
 30
0.0
  0
VERTEX
  5
E84
  8
SAPA_PROFIL
 10
69.797642148118456
 20
24.904468514193869
 30
0.0
 42
-0.7332303362618522
  0
VERTEX
  5
E85
  8
SAPA_PROFIL
 10
69.597467559548278
 20
25.440544536846179
 30
0.0
  0
VERTEX
  5
E86
  8
SAPA_PROFIL
 10
71.707574899085984
 20
26.211454654350579
 30
0.0
 42
-0.668178637919333
  0
VERTEX
  5
E87
  8
SAPA_PROFIL
 10
72.189922751176795
 20
25.938288459156301
 30
0.0
  0
VERTEX
  5
E88
  8
SAPA_PROFIL
 10
71.435021609384563
 20
19.261263078443729
 30
0.0
  0
VERTEX
  5
E89
  8
SAPA_PROFIL
 10
71.444555061547675
 20
19.261263078443729
 30
0.0
  0
SEQEND
  5
E8A
  8
SAPA_PROFIL
  0
POLYLINE
  5
AA2
  8
SAPA_PROFIL
 66
     1
 10
0.0
 20
0.0
 30
0.0
 70
     1
  0
VERTEX
  5
E8B
  8
SAPA_PROFIL
 10
39.056576790018092
 20
156.94
 30
0.0
  0
VERTEX
  5
E8C
  8
SAPA_PROFIL
 10
39.056576790018092
 20
188.34000000000009
 30
0.0
  0
VERTEX
  5
E8D
  8
SAPA_PROFIL
 10
60.161576790018103
 20
188.34
 30
0.0
 42
0.4142135623732293
  0
VERTEX
  5
E8E
  8
SAPA_PROFIL
 10
60.656576790018107
 20
188.83500000000009
 30
0.0
  0
VERTEX
  5
E8F
  8
SAPA_PROFIL
 10
60.656576790018107
 20
188.845
 30
0.0
 42
0.414213562373095
  0
VERTEX
  5
E90
  8
SAPA_PROFIL
 10
60.161576790018103
 20
189.34000000000009
 30
0.0
  0
VERTEX
  5
E91
  8
SAPA_PROFIL
 10
60.001576790018127
 20
189.34000000000009
 30
0.0
 42
-0.414213562373028
  0
VERTEX
  5
E92
  8
SAPA_PROFIL
 10
59.50657679001813
 20
189.83500000000001
 30
0.0
  0
VERTEX
  5
E93
  8
SAPA_PROFIL
 10
59.50657679001813
 20
190.6400000000001
 30
0.0
 42
-0.3747564601179658
  0
VERTEX
  5
E94
  8
SAPA_PROFIL
 10
61.882181746781832
 20
193.36439504323451
 30
0.0
  0
VERTEX
  5
E95
  8
SAPA_PROFIL
 10
62.256576790018123
 20
192.98999999999981
 30
0.0
  0
VERTEX
  5
E96
  8
SAPA_PROFIL
 10
62.630971833254648
 20
193.36439504323619
 30
0.0
 42
-0.3747564601179647
  0
VERTEX
  5
E97
  8
SAPA_PROFIL
 10
65.00657679001813
 20
190.64000000000021
 30
0.0
  0
VERTEX
  5
E98
  8
SAPA_PROFIL
 10
65.00657679001813
 20
189.83500000000001
 30
0.0
 42
-0.4142135623730281
  0
VERTEX
  5
E99
  8
SAPA_PROFIL
 10
64.511576790018125
 20
189.34000000000009
 30
0.0
  0
VERTEX
  5
E9A
  8
SAPA_PROFIL
 10
64.351576790018143
 20
189.34000000000009
 30
0.0
 42
0.4142135623730951
  0
VERTEX
  5
E9B
  8
SAPA_PROFIL
 10
63.856576790018153
 20
188.845
 30
0.0
  0
VERTEX
  5
E9C
  8
SAPA_PROFIL
 10
63.856576790018039
 20
188.83500000000009
 30
0.0
 42
0.4142135623732296
  0
VERTEX
  5
E9D
  8
SAPA_PROFIL
 10
64.351576790018143
 20
188.34000000000009
 30
0.0
  0
VERTEX
  5
E9E
  8
SAPA_PROFIL
 10
85.456576790018175
 20
188.34000000000009
 30
0.0
  0
VERTEX
  5
E9F
  8
SAPA_PROFIL
 10
85.456576790018175
 20
156.94
 30
0.0
  0
VERTEX
  5
EA0
  8
SAPA_PROFIL
 10
64.351576790018143
 20
156.94
 30
0.0
 42
0.4142135623731625
  0
VERTEX
  5
EA1
  8
SAPA_PROFIL
 10
63.856576790018153
 20
156.44500000000011
 30
0.0
  0
VERTEX
  5
EA2
  8
SAPA_PROFIL
 10
63.856576790018153
 20
156.43500000000009
 30
0.0
 42
0.4142135623731625
  0
VERTEX
  5
EA3
  8
SAPA_PROFIL
 10
64.351576790018143
 20
155.9400000000002
 30
0.0
  0
VERTEX
  5
EA4
  8
SAPA_PROFIL
 10
64.511576790018125
 20
155.94000000000011
 30
0.0
 42
-0.4142135623729606
  0
VERTEX
  5
EA5
  8
SAPA_PROFIL
 10
65.006576790018016
 20
155.44500000000011
 30
0.0
  0
VERTEX
  5
EA6
  8
SAPA_PROFIL
 10
65.00657679001813
 20
154.6400000000001
 30
0.0
 42
-0.3747564601179647
  0
VERTEX
  5
EA7
  8
SAPA_PROFIL
 10
62.630971833254648
 20
151.9156049567641
 30
0.0
  0
VERTEX
  5
EA8
  8
SAPA_PROFIL
 10
62.256576790018123
 20
152.29000000000039
 30
0.0
  0
VERTEX
  5
EA9
  8
SAPA_PROFIL
 10
61.882181746781832
 20
151.91560495676569
 30
0.0
 42
-0.3747564601179658
  0
VERTEX
  5
EAA
  8
SAPA_PROFIL
 10
59.50657679001813
 20
154.6400000000001
 30
0.0
  0
VERTEX
  5
EAB
  8
SAPA_PROFIL
 10
59.50657679001813
 20
155.44500000000011
 30
0.0
 42
-0.4142135623730281
  0
VERTEX
  5
EAC
  8
SAPA_PROFIL
 10
60.001576790018127
 20
155.9400000000002
 30
0.0
  0
VERTEX
  5
EAD
  8
SAPA_PROFIL
 10
60.161576790018103
 20
155.9400000000002
 30
0.0
 42
0.4142135623731625
  0
VERTEX
  5
EAE
  8
SAPA_PROFIL
 10
60.656576790018107
 20
156.43500000000009
 30
0.0
  0
VERTEX
  5
EAF
  8
SAPA_PROFIL
 10
60.656576790018107
 20
156.44500000000011
 30
0.0
 42
0.4142135623731625
  0
VERTEX
  5
EB0
  8
SAPA_PROFIL
 10
60.161576790018103
 20
156.94
 30
0.0
  0
SEQEND
  5
EB1
  8
SAPA_PROFIL
  0
POLYLINE
  5
AA3
  8
SAPA_PROFIL
 66
     1
 10
0.0
 20
0.0
 30
0.0
 70
     1
  0
VERTEX
  5
EB2
  8
SAPA_PROFIL
 10
39.056576790018092
 20
152.1400000000001
 30
0.0
  0
VERTEX
  5
EB3
  8
SAPA_PROFIL
 10
41.25657679001813
 20
152.1400000000001
 30
0.0
  0
VERTEX
  5
EB4
  8
SAPA_PROFIL
 10
41.25657679001813
 20
151.1400000000001
 30
0.0
  0
VERTEX
  5
EB5
  8
SAPA_PROFIL
 10
40.256576790018123
 20
150.1400000000001
 30
0.0
  0
VERTEX
  5
EB6
  8
SAPA_PROFIL
 10
37.25657679001813
 20
150.1400000000001
 30
0.0
  0
VERTEX
  5
EB7
  8
SAPA_PROFIL
 10
37.25657679001813
 20
195.1400000000001
 30
0.0
  0
VERTEX
  5
EB8
  8
SAPA_PROFIL
 10
40.256576790018123
 20
195.1400000000001
 30
0.0
  0
VERTEX
  5
EB9
  8
SAPA_PROFIL
 10
41.25657679001813
 20
194.1400000000001
 30
0.0
  0
VERTEX
  5
EBA
  8
SAPA_PROFIL
 10
41.25657679001813
 20
193.1400000000001
 30
0.0
  0
VERTEX
  5
EBB
  8
SAPA_PROFIL
 10
39.056576790018092
 20
193.1400000000001
 30
0.0
  0
VERTEX
  5
EBC
  8
SAPA_PROFIL
 10
39.056576790018092
 20
190.1400000000001
 30
0.0
  0
VERTEX
  5
EBD
  8
SAPA_PROFIL
 10
57.75657679001813
 20
190.1400000000001
 30
0.0
  0
VERTEX
  5
EBE
  8
SAPA_PROFIL
 10
57.75657679001813
 20
193.1400000000001
 30
0.0
  0
VERTEX
  5
EBF
  8
SAPA_PROFIL
 10
55.25657679001813
 20
193.1400000000001
 30
0.0
  0
VERTEX
  5
EC0
  8
SAPA_PROFIL
 10
55.25657679001813
 20
194.1400000000001
 30
0.0
  0
VERTEX
  5
EC1
  8
SAPA_PROFIL
 10
56.056576790018077
 20
194.9400000000002
 30
0.0
  0
VERTEX
  5
EC2
  8
SAPA_PROFIL
 10
61.736961547747448
 20
194.9400000000002
 30
0.0
  0
VERTEX
  5
EC3
  8
SAPA_PROFIL
 10
62.256576790018123
 20
194.6400000000001
 30
0.0
  0
VERTEX
  5
EC4
  8
SAPA_PROFIL
 10
62.776192032288797
 20
194.9400000000002
 30
0.0
  0
VERTEX
  5
EC5
  8
SAPA_PROFIL
 10
68.456576790018175
 20
194.9400000000002
 30
0.0
  0
VERTEX
  5
EC6
  8
SAPA_PROFIL
 10
69.25657679001813
 20
194.1400000000001
 30
0.0
  0
VERTEX
  5
EC7
  8
SAPA_PROFIL
 10
69.25657679001813
 20
193.1400000000001
 30
0.0
  0
VERTEX
  5
EC8
  8
SAPA_PROFIL
 10
66.75657679001813
 20
193.1400000000001
 30
0.0
  0
VERTEX
  5
EC9
  8
SAPA_PROFIL
 10
66.75657679001813
 20
190.1400000000001
 30
0.0
  0
VERTEX
  5
ECA
  8
SAPA_PROFIL
 10
85.456576790018175
 20
190.1400000000001
 30
0.0
  0
VERTEX
  5
ECB
  8
SAPA_PROFIL
 10
85.456576790018175
 20
193.1400000000001
 30
0.0
  0
VERTEX
  5
ECC
  8
SAPA_PROFIL
 10
83.256576790018116
 20
193.1400000000001
 30
0.0
  0
VERTEX
  5
ECD
  8
SAPA_PROFIL
 10
83.256576790018116
 20
194.1400000000001
 30
0.0
  0
VERTEX
  5
ECE
  8
SAPA_PROFIL
 10
84.256576790018144
 20
195.1400000000001
 30
0.0
  0
VERTEX
  5
ECF
  8
SAPA_PROFIL
 10
87.256576790018116
 20
195.1400000000001
 30
0.0
  0
VERTEX
  5
ED0
  8
SAPA_PROFIL
 10
87.256576790018116
 20
150.1400000000001
 30
0.0
  0
VERTEX
  5
ED1
  8
SAPA_PROFIL
 10
84.256576790018144
 20
150.1400000000001
 30
0.0
  0
VERTEX
  5
ED2
  8
SAPA_PROFIL
 10
83.256576790018116
 20
151.1400000000001
 30
0.0
  0
VERTEX
  5
ED3
  8
SAPA_PROFIL
 10
83.256576790018116
 20
152.1400000000001
 30
0.0
  0
VERTEX
  5
ED4
  8
SAPA_PROFIL
 10
85.456576790018175
 20
152.1400000000001
 30
0.0
  0
VERTEX
  5
ED5
  8
SAPA_PROFIL
 10
85.456576790018175
 20
155.1400000000001
 30
0.0
  0
VERTEX
  5
ED6
  8
SAPA_PROFIL
 10
66.75657679001813
 20
155.1400000000001
 30
0.0
  0
VERTEX
  5
ED7
  8
SAPA_PROFIL
 10
66.75657679001813
 20
152.1400000000001
 30
0.0
  0
VERTEX
  5
ED8
  8
SAPA_PROFIL
 10
69.25657679001813
 20
152.1400000000001
 30
0.0
  0
VERTEX
  5
ED9
  8
SAPA_PROFIL
 10
69.25657679001813
 20
151.1400000000001
 30
0.0
  0
VERTEX
  5
EDA
  8
SAPA_PROFIL
 10
68.456576790018175
 20
150.34000000000009
 30
0.0
  0
VERTEX
  5
EDB
  8
SAPA_PROFIL
 10
62.776192032288797
 20
150.34000000000009
 30
0.0
  0
VERTEX
  5
EDC
  8
SAPA_PROFIL
 10
62.256576790018123
 20
150.6400000000001
 30
0.0
  0
VERTEX
  5
EDD
  8
SAPA_PROFIL
 10
61.736961547747448
 20
150.34000000000009
 30
0.0
  0
VERTEX
  5
EDE
  8
SAPA_PROFIL
 10
56.056576790018077
 20
150.34000000000009
 30
0.0
  0
VERTEX
  5
EDF
  8
SAPA_PROFIL
 10
55.25657679001813
 20
151.1400000000001
 30
0.0
  0
VERTEX
  5
EE0
  8
SAPA_PROFIL
 10
55.25657679001813
 20
152.1400000000001
 30
0.0
  0
VERTEX
  5
EE1
  8
SAPA_PROFIL
 10
57.75657679001813
 20
152.1400000000001
 30
0.0
  0
VERTEX
  5
EE2
  8
SAPA_PROFIL
 10
57.75657679001813
 20
155.1400000000001
 30
0.0
  0
VERTEX
  5
EE3
  8
SAPA_PROFIL
 10
39.056576790018092
 20
155.1400000000001
 30
0.0
  0
SEQEND
  5
EE4
  8
SAPA_PROFIL
  0
POLYLINE
  5
AA4
  8
SAPA_PROFIL
 66
     1
 10
0.0
 20
0.0
 30
0.0
 70
     1
  0
VERTEX
  5
EE5
  8
SAPA_PROFIL
 10
49.087537326376811
 20
132.1387354749647
 30
0.0
 42
-0.4557262555325856
  0
VERTEX
  5
EE6
  8
SAPA_PROFIL
 10
49.65712335721787
 20
131.64360189230911
 30
0.0
  0
VERTEX
  5
EE7
  8
SAPA_PROFIL
 10
49.65712335721787
 20
130.1368580000001
 30
0.0
  0
VERTEX
  5
EE8
  8
SAPA_PROFIL
 10
51.15712335721787
 20
130.1368580000001
 30
0.0
  0
VERTEX
  5
EE9
  8
SAPA_PROFIL
 10
51.15712335721787
 20
129.1368580000001
 30
0.0
  0
VERTEX
  5
EEA
  8
SAPA_PROFIL
 10
61.389591953433552
 20
129.1368580000001
 30
0.0
  0
VERTEX
  5
EEB
  8
SAPA_PROFIL
 10
62.255617357217972
 20
128.6368580000001
 30
0.0
  0
VERTEX
  5
EEC
  8
SAPA_PROFIL
 10
63.121642761002327
 20
129.1368580000001
 30
0.0
  0
VERTEX
  5
EED
  8
SAPA_PROFIL
 10
73.354111357218045
 20
129.1368580000001
 30
0.0
  0
VERTEX
  5
EEE
  8
SAPA_PROFIL
 10
73.354111357218045
 20
130.1368580000001
 30
0.0
  0
VERTEX
  5
EEF
  8
SAPA_PROFIL
 10
74.854111357218073
 20
130.1368580000001
 30
0.0
  0
VERTEX
  5
EF0
  8
SAPA_PROFIL
 10
74.854111357218073
 20
132.1368580000001
 30
0.0
  0
VERTEX
  5
EF1
  8
SAPA_PROFIL
 10
80.688059303045065
 20
133.1655404268981
 30
0.0
 42
-0.4142135623730531
  0
VERTEX
  5
EF2
  8
SAPA_PROFIL
 10
81.267287268384564
 20
132.75996063922551
 30
0.0
  0
VERTEX
  5
EF3
  8
SAPA_PROFIL
 10
81.354111357218073
 20
132.26755676271941
 30
0.0
  0
VERTEX
  5
EF4
  8
SAPA_PROFIL
 10
80.664745930109419
 20
132.14600303835269
 30
0.0
 42
0.6705660098148247
  0
VERTEX
  5
EF5
  8
SAPA_PROFIL
 10
80.546391796231134
 20
131.60368568509921
 30
0.0
  0
VERTEX
  5
EF6
  8
SAPA_PROFIL
 10
82.933240205042011
 20
129.9557468738781
 30
0.0
 42
0.4103557430781616
  0
VERTEX
  5
EF7
  8
SAPA_PROFIL
 10
83.615324440207445
 20
130.07601672765361
 30
0.0
  0
VERTEX
  5
EF8
  8
SAPA_PROFIL
 10
85.294600008495777
 20
132.4409229029431
 30
0.0
 42
0.6705660098148535
  0
VERTEX
  5
EF9
  8
SAPA_PROFIL
 10
84.997900043363131
 20
132.91005502008699
 30
0.0
  0
VERTEX
  5
EFA
  8
SAPA_PROFIL
 10
84.308534616254633
 20
132.78850129572021
 30
0.0
  0
VERTEX
  5
EFB
  8
SAPA_PROFIL
 10
84.221710527421166
 20
133.28090517222631
 30
0.0
 42
-0.4142135623731039
  0
VERTEX
  5
EFC
  8
SAPA_PROFIL
 10
84.627290315093816
 20
133.86013313756581
 30
0.0
  0
VERTEX
  5
EFD
  8
SAPA_PROFIL
 10
85.062981373403758
 20
133.93695722639939
 30
0.0
  0
VERTEX
  5
EFE
  8
SAPA_PROFIL
 10
86.649465352362895
 20
133.9342866386836
 30
0.0
 42
0.4147066859862996
  0
VERTEX
  5
EFF
  8
SAPA_PROFIL
 10
89.654515357217946
 20
136.9342823882557
 30
0.0
  0
VERTEX
  5
F00
  8
SAPA_PROFIL
 10
89.654515357217946
 20
144.6409110000001
 30
0.0
 42
-0.6638253569871671
  0
VERTEX
  5
F01
  8
SAPA_PROFIL
 10
90.533701550152529
 20
144.99888480698721
 30
0.0
  0
VERTEX
  5
F02
  8
SAPA_PROFIL
 10
92.512739747811267
 20
143.01984660932871
 30
0.0
 42
-0.1989123673796449
  0
VERTEX
  5
F03
  8
SAPA_PROFIL
 10
92.659186357217934
 20
142.6662932187354
 30
0.0
  0
VERTEX
  5
F04
  8
SAPA_PROFIL
 10
92.659186357217934
 20
130.84801824433521
 30
0.0
 42
-0.1989123673796422
  0
VERTEX
  5
F05
  8
SAPA_PROFIL
 10
92.512739747811239
 20
130.4944648537419
 30
0.0
  0
VERTEX
  5
F06
  8
SAPA_PROFIL
 10
87.151992966624675
 20
125.1337180725553
 30
0.0
 42
0.1989123673796659
  0
VERTEX
  5
F07
  8
SAPA_PROFIL
 10
87.005546357217924
 20
124.78016468196201
 30
0.0
  0
VERTEX
  5
F08
  8
SAPA_PROFIL
 10
87.005546357217924
 20
120.1400000000002
 30
0.0
  0
VERTEX
  5
F09
  8
SAPA_PROFIL
 10
83.755546357217938
 20
120.1400000000002
 30
0.0
  0
VERTEX
  5
F0A
  8
SAPA_PROFIL
 10
82.255546357217938
 20
118.6400000000002
 30
0.0
  0
VERTEX
  5
F0B
  8
SAPA_PROFIL
 10
80.755546357217924
 20
120.1400000000002
 30
0.0
  0
VERTEX
  5
F0C
  8
SAPA_PROFIL
 10
77.156577357217941
 20
120.1400000000002
 30
0.0
 42
0.4142140000000165
  0
VERTEX
  5
F0D
  8
SAPA_PROFIL
 10
76.656577357217941
 20
119.6400000000002
 30
0.0
  0
VERTEX
  5
F0E
  8
SAPA_PROFIL
 10
76.656577357217941
 20
118.1368580000002
 30
0.0
 42
-0.4142140000000145
  0
VERTEX
  5
F0F
  8
SAPA_PROFIL
 10
75.656577357217941
 20
117.1368580000001
 30
0.0
  0
VERTEX
  5
F10
  8
SAPA_PROFIL
 10
74.656577357217913
 20
117.1368580000002
 30
0.0
  0
VERTEX
  5
F11
  8
SAPA_PROFIL
 10
72.711581933529544
 20
124.3956771319227
 30
0.0
 42
0.3394542338034085
  0
VERTEX
  5
F12
  8
SAPA_PROFIL
 10
71.745656130503832
 20
125.1368580000001
 30
0.0
  0
VERTEX
  5
F13
  8
SAPA_PROFIL
 10
52.76749744953225
 20
125.1368580000001
 30
0.0
 42
0.3394542744563553
  0
VERTEX
  5
F14
  8
SAPA_PROFIL
 10
51.801571608768022
 20
124.3956769910809
 30
0.0
  0
VERTEX
  5
F15
  8
SAPA_PROFIL
 10
49.856577357217873
 20
117.1368580000001
 30
0.0
  0
VERTEX
  5
F16
  8
SAPA_PROFIL
 10
48.856577357217873
 20
117.1368580000001
 30
0.0
 42
-0.4142139999999982
  0
VERTEX
  5
F17
  8
SAPA_PROFIL
 10
47.856577357217979
 20
118.1368580000001
 30
0.0
  0
VERTEX
  5
F18
  8
SAPA_PROFIL
 10
47.856577357217873
 20
119.6272640000001
 30
0.0
 42
0.4142140000000124
  0
VERTEX
  5
F19
  8
SAPA_PROFIL
 10
47.356577357217887
 20
120.1272640000001
 30
0.0
  0
VERTEX
  5
F1A
  8
SAPA_PROFIL
 10
43.756577357217957
 20
120.1272640000001
 30
0.0
  0
VERTEX
  5
F1B
  8
SAPA_PROFIL
 10
42.256577357217957
 20
118.6272640000001
 30
0.0
  0
VERTEX
  5
F1C
  8
SAPA_PROFIL
 10
40.756577357217957
 20
120.1272640000001
 30
0.0
  0
VERTEX
  5
F1D
  8
SAPA_PROFIL
 10
37.506577357217907
 20
120.1272640000001
 30
0.0
  0
VERTEX
  5
F1E
  8
SAPA_PROFIL
 10
37.506577357217907
 20
128.13981805699851
 30
0.0
 42
-0.3780475071674513
  0
VERTEX
  5
F1F
  8
SAPA_PROFIL
 10
40.132442369734576
 20
131.11639713559549
 30
0.0
  0
VERTEX
  5
F20
  8
SAPA_PROFIL
 10
43.023323915813108
 20
131.47976054792181
 30
0.0
 42
-0.4247728136669583
  0
VERTEX
  5
F21
  8
SAPA_PROFIL
 10
44.15712335721792
 20
130.59301700000009
 30
0.0
  0
VERTEX
  5
F22
  8
SAPA_PROFIL
 10
42.90712335721787
 20
130.59301700000009
 30
0.0
  0
VERTEX
  5
F23
  8
SAPA_PROFIL
 10
42.90712335721787
 20
129.49301700000009
 30
0.0
  0
VERTEX
  5
F24
  8
SAPA_PROFIL
 10
48.107123357217937
 20
129.49301700000009
 30
0.0
  0
VERTEX
  5
F25
  8
SAPA_PROFIL
 10
48.107123357217937
 20
130.59301700000009
 30
0.0
  0
VERTEX
  5
F26
  8
SAPA_PROFIL
 10
46.857123357217937
 20
130.59301700000009
 30
0.0
  0
VERTEX
  5
F27
  8
SAPA_PROFIL
 10
46.857123357217937
 20
130.96653914335289
 30
0.0
 42
-0.3760477967976817
  0
VERTEX
  5
F28
  8
SAPA_PROFIL
 10
47.725466256757301
 20
131.95783446155949
 30
0.0
  0
SEQEND
  5
F29
  8
SAPA_PROFIL
  0
POLYLINE
  5
AA5
  8
SAPA_PROFIL
 66
     1
 10
0.0
 20
0.0
 30
0.0
 70
     1
  0
VERTEX
  5
F2A
  8
SAPA_PROFIL
 10
75.425202421434449
 20
138.14126452503561
 30
0.0
 42
-0.4557262555325856
  0
VERTEX
  5
F2B
  8
SAPA_PROFIL
 10
74.855616390593383
 20
138.63639810769121
 30
0.0
  0
VERTEX
  5
F2C
  8
SAPA_PROFIL
 10
74.855616390593383
 20
140.1431420000001
 30
0.0
  0
VERTEX
  5
F2D
  8
SAPA_PROFIL
 10
73.355616390593383
 20
140.1431420000001
 30
0.0
  0
VERTEX
  5
F2E
  8
SAPA_PROFIL
 10
73.355616390593383
 20
141.14314200000021
 30
0.0
  0
VERTEX
  5
F2F
  8
SAPA_PROFIL
 10
63.123147794377701
 20
141.14314200000021
 30
0.0
  0
VERTEX
  5
F30
  8
SAPA_PROFIL
 10
62.257122390593281
 20
141.64314200000021
 30
0.0
  0
VERTEX
  5
F31
  8
SAPA_PROFIL
 10
61.391096986808918
 20
141.14314200000021
 30
0.0
  0
VERTEX
  5
F32
  8
SAPA_PROFIL
 10
51.158628390593186
 20
141.14314200000021
 30
0.0
  0
VERTEX
  5
F33
  8
SAPA_PROFIL
 10
51.158628390593186
 20
140.1431420000001
 30
0.0
  0
VERTEX
  5
F34
  8
SAPA_PROFIL
 10
49.658628390593179
 20
140.1431420000001
 30
0.0
  0
VERTEX
  5
F35
  8
SAPA_PROFIL
 10
49.658628390593179
 20
138.1431420000001
 30
0.0
  0
VERTEX
  5
F36
  8
SAPA_PROFIL
 10
43.824680444766187
 20
137.1144595731021
 30
0.0
 42
-0.4142135623730531
  0
VERTEX
  5
F37
  8
SAPA_PROFIL
 10
43.245452479426703
 20
137.52003936077469
 30
0.0
  0
VERTEX
  5
F38
  8
SAPA_PROFIL
 10
43.158628390593179
 20
138.01244323728091
 30
0.0
  0
VERTEX
  5
F39
  8
SAPA_PROFIL
 10
43.847993817701813
 20
138.1339969616476
 30
0.0
 42
0.6705660098148247
  0
VERTEX
  5
F3A
  8
SAPA_PROFIL
 10
43.966347951580119
 20
138.67631431490111
 30
0.0
  0
VERTEX
  5
F3B
  8
SAPA_PROFIL
 10
41.579499542769241
 20
140.32425312612219
 30
0.0
 42
0.4103557430781616
  0
VERTEX
  5
F3C
  8
SAPA_PROFIL
 10
40.897415307603787
 20
140.2039832723467
 30
0.0
  0
VERTEX
  5
F3D
  8
SAPA_PROFIL
 10
39.218139739315482
 20
137.83907709705721
 30
0.0
 42
0.6705660098148535
  0
VERTEX
  5
F3E
  8
SAPA_PROFIL
 10
39.514839704448121
 20
137.3699449799133
 30
0.0
  0
VERTEX
  5
F3F
  8
SAPA_PROFIL
 10
40.20420513155662
 20
137.4914987042801
 30
0.0
  0
VERTEX
  5
F40
  8
SAPA_PROFIL
 10
40.29102922039008
 20
136.999094827774
 30
0.0
 42
-0.4142135623731039
  0
VERTEX
  5
F41
  8
SAPA_PROFIL
 10
39.885449432717436
 20
136.4198668624345
 30
0.0
  0
VERTEX
  5
F42
  8
SAPA_PROFIL
 10
39.449758374407487
 20
136.3430427736009
 30
0.0
  0
VERTEX
  5
F43
  8
SAPA_PROFIL
 10
37.863274395448357
 20
136.34571336131671
 30
0.0
 42
0.4147066859862996
  0
VERTEX
  5
F44
  8
SAPA_PROFIL
 10
34.858224390593293
 20
133.34571761174459
 30
0.0
  0
VERTEX
  5
F45
  8
SAPA_PROFIL
 10
34.858224390593307
 20
125.6390890000002
 30
0.0
 42
-0.6638253569871671
  0
VERTEX
  5
F46
  8
SAPA_PROFIL
 10
33.979038197658717
 20
125.28111519301309
 30
0.0
  0
VERTEX
  5
F47
  8
SAPA_PROFIL
 10
31.999999999999989
 20
127.2601533906716
 30
0.0
 42
-0.1989123673796449
  0
VERTEX
  5
F48
  8
SAPA_PROFIL
 10
31.853553390593319
 20
127.61370678126499
 30
0.0
  0
VERTEX
  5
F49
  8
SAPA_PROFIL
 10
31.853553390593319
 20
139.43198175566511
 30
0.0
 42
-0.1989123673796422
  0
VERTEX
  5
F4A
  8
SAPA_PROFIL
 10
32.000000000000007
 20
139.78553514625841
 30
0.0
  0
VERTEX
  5
F4B
  8
SAPA_PROFIL
 10
37.360746781186592
 20
145.14628192744499
 30
0.0
 42
0.1989123673796659
  0
VERTEX
  5
F4C
  8
SAPA_PROFIL
 10
37.507193390593322
 20
145.49983531803821
 30
0.0
  0
VERTEX
  5
F4D
  8
SAPA_PROFIL
 10
37.507193390593322
 20
150.1400000000001
 30
0.0
  0
VERTEX
  5
F4E
  8
SAPA_PROFIL
 10
40.757193390593322
 20
150.1400000000001
 30
0.0
  0
VERTEX
  5
F4F
  8
SAPA_PROFIL
 10
42.257193390593308
 20
151.6400000000001
 30
0.0
  0
VERTEX
  5
F50
  8
SAPA_PROFIL
 10
43.757193390593308
 20
150.1400000000001
 30
0.0
  0
VERTEX
  5
F51
  8
SAPA_PROFIL
 10
47.356162390593312
 20
150.1400000000001
 30
0.0
 42
0.4142140000000165
  0
VERTEX
  5
F52
  8
SAPA_PROFIL
 10
47.856162390593312
 20
150.6400000000001
 30
0.0
  0
VERTEX
  5
F53
  8
SAPA_PROFIL
 10
47.856162390593312
 20
152.1431420000001
 30
0.0
 42
-0.4142140000000145
  0
VERTEX
  5
F54
  8
SAPA_PROFIL
 10
48.856162390593312
 20
153.14314200000021
 30
0.0
  0
VERTEX
  5
F55
  8
SAPA_PROFIL
 10
49.85616239059334
 20
153.1431420000001
 30
0.0
  0
VERTEX
  5
F56
  8
SAPA_PROFIL
 10
51.801157814281702
 20
145.88432286807759
 30
0.0
 42
0.3394542338034085
  0
VERTEX
  5
F57
  8
SAPA_PROFIL
 10
52.767083617307421
 20
145.14314200000021
 30
0.0
  0
VERTEX
  5
F58
  8
SAPA_PROFIL
 10
71.74524229827901
 20
145.14314200000021
 30
0.0
 42
0.3394542744563553
  0
VERTEX
  5
F59
  8
SAPA_PROFIL
 10
72.711168139043224
 20
145.88432300891941
 30
0.0
  0
VERTEX
  5
F5A
  8
SAPA_PROFIL
 10
74.65616239059338
 20
153.14314200000021
 30
0.0
  0
VERTEX
  5
F5B
  8
SAPA_PROFIL
 10
75.656162390593366
 20
153.14314200000021
 30
0.0
 42
-0.4142139999999982
  0
VERTEX
  5
F5C
  8
SAPA_PROFIL
 10
76.656162390593266
 20
152.14314200000021
 30
0.0
  0
VERTEX
  5
F5D
  8
SAPA_PROFIL
 10
76.65616239059338
 20
150.6527360000002
 30
0.0
 42
0.4142140000000124
  0
VERTEX
  5
F5E
  8
SAPA_PROFIL
 10
77.156162390593352
 20
150.1527360000002
 30
0.0
  0
VERTEX
  5
F5F
  8
SAPA_PROFIL
 10
80.756162390593275
 20
150.1527360000002
 30
0.0
  0
VERTEX
  5
F60
  8
SAPA_PROFIL
 10
82.256162390593289
 20
151.6527360000002
 30
0.0
  0
VERTEX
  5
F61
  8
SAPA_PROFIL
 10
83.756162390593289
 20
150.1527360000002
 30
0.0
  0
VERTEX
  5
F62
  8
SAPA_PROFIL
 10
87.006162390593346
 20
150.1527360000002
 30
0.0
  0
VERTEX
  5
F63
  8
SAPA_PROFIL
 10
87.006162390593346
 20
142.14018194300181
 30
0.0
 42
-0.3780475071674513
  0
VERTEX
  5
F64
  8
SAPA_PROFIL
 10
84.380297378076676
 20
139.16360286440479
 30
0.0
  0
VERTEX
  5
F65
  8
SAPA_PROFIL
 10
81.489415831998144
 20
138.8002394520785
 30
0.0
 42
-0.4247728136669583
  0
VERTEX
  5
F66
  8
SAPA_PROFIL
 10
80.355616390593326
 20
139.68698300000011
 30
0.0
  0
VERTEX
  5
F67
  8
SAPA_PROFIL
 10
81.605616390593383
 20
139.68698300000011
 30
0.0
  0
VERTEX
  5
F68
  8
SAPA_PROFIL
 10
81.605616390593383
 20
140.78698300000019
 30
0.0
  0
VERTEX
  5
F69
  8
SAPA_PROFIL
 10
76.405616390593309
 20
140.78698300000019
 30
0.0
  0
VERTEX
  5
F6A
  8
SAPA_PROFIL
 10
76.405616390593309
 20
139.68698300000011
 30
0.0
  0
VERTEX
  5
F6B
  8
SAPA_PROFIL
 10
77.655616390593309
 20
139.68698300000011
 30
0.0
  0
VERTEX
  5
F6C
  8
SAPA_PROFIL
 10
77.655616390593309
 20
139.3134608566474
 30
0.0
 42
-0.3760477967976817
  0
VERTEX
  5
F6D
  8
SAPA_PROFIL
 10
76.787273491053952
 20
138.3221655384408
 30
0.0
  0
SEQEND
  5
F6E
  8
SAPA_PROFIL
  0
LINE
  5
AA6
  8
SAPA_PROFIL
 10
41.256576790022898
 20
9.4399999999960045
 30
0.0
 11
41.256576790022898
 21
9.4399999999960045
 31
0.0
  0
POLYLINE
  5
AA7
  8
SAPA_PROFIL
 66
     1
 10
0.0
 20
0.0
 30
0.0
 70
     1
  0
VERTEX
  5
F6F
  8
SAPA_PROFIL
 10
60.256576790017903
 20
25.439999999999991
 30
0.0
 42
0.4142135623730951
  0
VERTEX
  5
F70
  8
SAPA_PROFIL
 10
60.556576790017857
 20
25.139999999999919
 30
0.0
  0
VERTEX
  5
F71
  8
SAPA_PROFIL
 10
61.390551386232907
 20
25.139999999999919
 30
0.0
  0
VERTEX
  5
F72
  8
SAPA_PROFIL
 10
62.256576790017903
 20
24.639999999999912
 30
0.0
  0
VERTEX
  5
F73
  8
SAPA_PROFIL
 10
63.122602193801868
 20
25.139999999999919
 30
0.0
  0
VERTEX
  5
F74
  8
SAPA_PROFIL
 10
63.956576790017948
 20
25.139999999999919
 30
0.0
 42
0.4142135623730951
  0
VERTEX
  5
F75
  8
SAPA_PROFIL
 10
64.256576790017903
 20
25.439999999999991
 30
0.0
  0
VERTEX
  5
F76
  8
SAPA_PROFIL
 10
64.256576790017903
 20
29.139999999999919
 30
0.0
  0
VERTEX
  5
F77
  8
SAPA_PROFIL
 10
65.256576790017903
 20
30.139999999999919
 30
0.0
  0
VERTEX
  5
F78
  8
SAPA_PROFIL
 10
79.356576790017812
 20
30.13999999999993
 30
0.0
 42
0.4142135623730951
  0
VERTEX
  5
F79
  8
SAPA_PROFIL
 10
79.65657679001788
 20
30.440000000000001
 30
0.0
  0
VERTEX
  5
F7A
  8
SAPA_PROFIL
 10
79.65657679001788
 20
33.839999999999982
 30
0.0
 42
-0.4142135623730951
  0
VERTEX
  5
F7B
  8
SAPA_PROFIL
 10
79.956576790017934
 20
34.13999999999993
 30
0.0
  0
VERTEX
  5
F7C
  8
SAPA_PROFIL
 10
81.556576790017857
 20
34.13999999999993
 30
0.0
 42
-0.4142135623730951
  0
VERTEX
  5
F7D
  8
SAPA_PROFIL
 10
81.856576790017812
 20
33.839999999999982
 30
0.0
  0
VERTEX
  5
F7E
  8
SAPA_PROFIL
 10
81.856576790017812
 20
30.440000000000001
 30
0.0
 42
0.4142135623730951
  0
VERTEX
  5
F7F
  8
SAPA_PROFIL
 10
82.15657679001788
 20
30.13999999999993
 30
0.0
  0
VERTEX
  5
F80
  8
SAPA_PROFIL
 10
88.956576790017948
 20
30.13999999999993
 30
0.0
 42
0.4142135623730951
  0
VERTEX
  5
F81
  8
SAPA_PROFIL
 10
89.256576790017903
 20
30.440000000000001
 30
0.0
  0
VERTEX
  5
F82
  8
SAPA_PROFIL
 10
89.256576790017903
 20
106.6399999999999
 30
0.0
 42
0.4142135623730951
  0
VERTEX
  5
F83
  8
SAPA_PROFIL
 10
88.956576790017948
 20
106.94
 30
0.0
  0
VERTEX
  5
F84
  8
SAPA_PROFIL
 10
82.15657679001788
 20
106.94
 30
0.0
 42
0.4142135623730951
  0
VERTEX
  5
F85
  8
SAPA_PROFIL
 10
81.856576790017812
 20
106.6399999999999
 30
0.0
  0
VERTEX
  5
F86
  8
SAPA_PROFIL
 10
81.856576790017812
 20
103.2399999999999
 30
0.0
 42
-0.4142135623730951
  0
VERTEX
  5
F87
  8
SAPA_PROFIL
 10
81.556576790017857
 20
102.94
 30
0.0
  0
VERTEX
  5
F88
  8
SAPA_PROFIL
 10
79.956576790017934
 20
102.9399999999998
 30
0.0
 42
-0.4142135623730951
  0
VERTEX
  5
F89
  8
SAPA_PROFIL
 10
79.65657679001788
 20
103.2399999999999
 30
0.0
  0
VERTEX
  5
F8A
  8
SAPA_PROFIL
 10
79.65657679001788
 20
107.8399999999999
 30
0.0
 42
0.4142135623730951
  0
VERTEX
  5
F8B
  8
SAPA_PROFIL
 10
79.356576790017812
 20
108.1399999999999
 30
0.0
  0
VERTEX
  5
F8C
  8
SAPA_PROFIL
 10
45.15657679001788
 20
108.1399999999999
 30
0.0
 42
0.4142135623730951
  0
VERTEX
  5
F8D
  8
SAPA_PROFIL
 10
44.856576790017812
 20
107.8399999999999
 30
0.0
  0
VERTEX
  5
F8E
  8
SAPA_PROFIL
 10
44.856576790017812
 20
103.2399999999999
 30
0.0
 42
-0.4142135623730951
  0
VERTEX
  5
F8F
  8
SAPA_PROFIL
 10
44.55657679001785
 20
102.9399999999998
 30
0.0
  0
VERTEX
  5
F90
  8
SAPA_PROFIL
 10
42.956576790017941
 20
102.94
 30
0.0
 42
-0.4142135623730951
  0
VERTEX
  5
F91
  8
SAPA_PROFIL
 10
42.65657679001788
 20
103.2399999999999
 30
0.0
  0
VERTEX
  5
F92
  8
SAPA_PROFIL
 10
42.65657679001788
 20
106.6399999999999
 30
0.0
 42
0.4142135623730951
  0
VERTEX
  5
F93
  8
SAPA_PROFIL
 10
42.356576790017812
 20
106.94
 30
0.0
  0
VERTEX
  5
F94
  8
SAPA_PROFIL
 10
35.556576790017857
 20
106.94
 30
0.0
 42
0.4142135623730951
  0
VERTEX
  5
F95
  8
SAPA_PROFIL
 10
35.25657679001791
 20
106.6399999999999
 30
0.0
  0
VERTEX
  5
F96
  8
SAPA_PROFIL
 10
35.25657679001791
 20
29.639999999999912
 30
0.0
  0
VERTEX
  5
F97
  8
SAPA_PROFIL
 10
38.66870882437388
 20
26.227867965643942
 30
0.0
 42
0.1989123673797207
  0
VERTEX
  5
F98
  8
SAPA_PROFIL
 10
38.880840858729812
 20
26.139999999999919
 30
0.0
  0
VERTEX
  5
F99
  8
SAPA_PROFIL
 10
42.356576790017812
 20
26.139999999999919
 30
0.0
 42
0.4142135623730951
  0
VERTEX
  5
F9A
  8
SAPA_PROFIL
 10
42.65657679001788
 20
26.43999999999998
 30
0.0
  0
VERTEX
  5
F9B
  8
SAPA_PROFIL
 10
42.65657679001788
 20
33.839999999999961
 30
0.0
 42
-0.4142135623730951
  0
VERTEX
  5
F9C
  8
SAPA_PROFIL
 10
42.956576790017941
 20
34.139999999999922
 30
0.0
  0
VERTEX
  5
F9D
  8
SAPA_PROFIL
 10
44.55657679001785
 20
34.139999999999922
 30
0.0
 42
-0.4142135623730951
  0
VERTEX
  5
F9E
  8
SAPA_PROFIL
 10
44.856576790017812
 20
33.839999999999961
 30
0.0
  0
VERTEX
  5
F9F
  8
SAPA_PROFIL
 10
44.856576790017812
 20
25.439999999999991
 30
0.0
 42
0.4142135623730951
  0
VERTEX
  5
FA0
  8
SAPA_PROFIL
 10
45.15657679001788
 20
25.139999999999919
 30
0.0
  0
VERTEX
  5
FA1
  8
SAPA_PROFIL
 10
57.956576790017948
 20
25.139999999999919
 30
0.0
 42
0.4142135623730951
  0
VERTEX
  5
FA2
  8
SAPA_PROFIL
 10
58.256576790017903
 20
25.439999999999991
 30
0.0
  0
VERTEX
  5
FA3
  8
SAPA_PROFIL
 10
58.256576790017903
 20
29.439999999999991
 30
0.0
 42
-0.6681786379192989
  0
VERTEX
  5
FA4
  8
SAPA_PROFIL
 10
59.110130180611229
 20
29.79355339059321
 30
0.0
  0
VERTEX
  5
FA5
  8
SAPA_PROFIL
 10
60.256576790017903
 20
28.647106781186991
 30
0.0
  0
SEQEND
  5
FA6
  8
SAPA_PROFIL
  0
POLYLINE
  5
AA8
  8
SAPA_PROFIL
 66
     1
 10
0.0
 20
0.0
 30
0.0
 70
     1
  0
VERTEX
  5
FA7
  8
SAPA_PROFIL
 10
32.256576790017903
 20
114.89735931288089
 30
0.0
 42
-0.1989123673796595
  0
VERTEX
  5
FA8
  8
SAPA_PROFIL
 10
33.135256446458243
 20
117.0186796564406
 30
0.0
  0
VERTEX
  5
FA9
  8
SAPA_PROFIL
 10
35.963683571203887
 20
119.84710678118699
 30
0.0
 42
-0.1989123673796811
  0
VERTEX
  5
FAA
  8
SAPA_PROFIL
 10
36.670790352390902
 20
120.1399999999999
 30
0.0
  0
VERTEX
  5
FAB
  8
SAPA_PROFIL
 10
39.056576790017751
 20
120.1400000000004
 30
0.0
 42
-0.2504916501726618
  0
VERTEX
  5
FAC
  8
SAPA_PROFIL
 10
40.056576790017971
 20
119.1399999999999
 30
0.0
  0
VERTEX
  5
FAD
  8
SAPA_PROFIL
 10
40.056576790018077
 20
118.44
 30
0.0
 42
-0.4142135623730951
  0
VERTEX
  5
FAE
  8
SAPA_PROFIL
 10
39.756576790018023
 20
118.1399999999999
 30
0.0
  0
VERTEX
  5
FAF
  8
SAPA_PROFIL
 10
39.306576790017971
 20
118.1399999999999
 30
0.0
 42
0.4142135623730951
  0
VERTEX
  5
FB0
  8
SAPA_PROFIL
 10
39.006576790018023
 20
117.8399999999999
 30
0.0
  0
VERTEX
  5
FB1
  8
SAPA_PROFIL
 10
39.006576790018023
 20
117.14
 30
0.0
 42
0.4142135623731506
  0
VERTEX
  5
FB2
  8
SAPA_PROFIL
 10
39.306576790017971
 20
116.8399999999999
 30
0.0
  0
VERTEX
  5
FB3
  8
SAPA_PROFIL
 10
39.756576790018023
 20
116.8399999999999
 30
0.0
 42
-0.4142135623731506
  0
VERTEX
  5
FB4
  8
SAPA_PROFIL
 10
40.056576790017971
 20
116.54000000000001
 30
0.0
  0
VERTEX
  5
FB5
  8
SAPA_PROFIL
 10
40.056576790018077
 20
116.04000000000001
 30
0.0
 42
-0.4142135623730951
  0
VERTEX
  5
FB6
  8
SAPA_PROFIL
 10
39.556576790018077
 20
115.54000000000001
 30
0.0
  0
VERTEX
  5
FB7
  8
SAPA_PROFIL
 10
38.156576790018107
 20
115.54000000000001
 30
0.0
 42
0.4142135623730951
  0
VERTEX
  5
FB8
  8
SAPA_PROFIL
 10
37.156576790018107
 20
114.54000000000001
 30
0.0
  0
VERTEX
  5
FB9
  8
SAPA_PROFIL
 10
37.156576790017994
 20
114.1399999999999
 30
0.0
 42
0.9999999999999998
  0
VERTEX
  5
FBA
  8
SAPA_PROFIL
 10
44.356576790018039
 20
114.1399999999999
 30
0.0
  0
VERTEX
  5
FBB
  8
SAPA_PROFIL
 10
44.356576790018273
 20
115.23999999999999
 30
0.0
 42
0.4142135623732059
  0
VERTEX
  5
FBC
  8
SAPA_PROFIL
 10
44.056576790018077
 20
115.54000000000011
 30
0.0
  0
VERTEX
  5
FBD
  8
SAPA_PROFIL
 10
43.75657679001813
 20
115.53999999999991
 30
0.0
 42
-0.4142135623733948
  0
VERTEX
  5
FBE
  8
SAPA_PROFIL
 10
43.256576790017903
 20
116.04000000000001
 30
0.0
  0
VERTEX
  5
FBF
  8
SAPA_PROFIL
 10
43.256576790017903
 20
116.54000000000001
 30
0.0
 42
-0.4142135623730397
  0
VERTEX
  5
FC0
  8
SAPA_PROFIL
 10
43.556576790017857
 20
116.8399999999999
 30
0.0
  0
VERTEX
  5
FC1
  8
SAPA_PROFIL
 10
44.006576790018023
 20
116.8399999999999
 30
0.0
 42
0.4142135623731505
  0
VERTEX
  5
FC2
  8
SAPA_PROFIL
 10
44.306576790017971
 20
117.14
 30
0.0
  0
VERTEX
  5
FC3
  8
SAPA_PROFIL
 10
44.306576790018077
 20
117.8399999999999
 30
0.0
 42
0.4142135623730951
  0
VERTEX
  5
FC4
  8
SAPA_PROFIL
 10
44.006576790018023
 20
118.1399999999999
 30
0.0
  0
VERTEX
  5
FC5
  8
SAPA_PROFIL
 10
43.556576790017857
 20
118.1399999999999
 30
0.0
 42
-0.4142135623730951
  0
VERTEX
  5
FC6
  8
SAPA_PROFIL
 10
43.256576790017903
 20
118.44
 30
0.0
  0
VERTEX
  5
FC7
  8
SAPA_PROFIL
 10
43.25657679001835
 20
119.1400000000004
 30
0.0
 42
-0.2504916501726643
  0
VERTEX
  5
FC8
  8
SAPA_PROFIL
 10
44.256576790017327
 20
120.1400000000004
 30
0.0
  0
VERTEX
  5
FC9
  8
SAPA_PROFIL
 10
46.556576790017857
 20
120.1399999999999
 30
0.0
 42
-0.4142135623730951
  0
VERTEX
  5
FCA
  8
SAPA_PROFIL
 10
47.55657679001785
 20
119.1399999999999
 30
0.0
  0
VERTEX
  5
FCB
  8
SAPA_PROFIL
 10
47.55657679001785
 20
111.44
 30
0.0
 42
0.4142135623730951
  0
VERTEX
  5
FCC
  8
SAPA_PROFIL
 10
47.856576790017812
 20
111.1399999999999
 30
0.0
  0
VERTEX
  5
FCD
  8
SAPA_PROFIL
 10
61.390551386232907
 20
111.1399999999999
 30
0.0
  0
VERTEX
  5
FCE
  8
SAPA_PROFIL
 10
62.256576790017903
 20
110.6399999999999
 30
0.0
  0
VERTEX
  5
FCF
  8
SAPA_PROFIL
 10
63.122602193801868
 20
111.1399999999999
 30
0.0
  0
VERTEX
  5
FD0
  8
SAPA_PROFIL
 10
76.65657679001788
 20
111.1399999999999
 30
0.0
 42
0.4142135623730951
  0
VERTEX
  5
FD1
  8
SAPA_PROFIL
 10
76.956576790017934
 20
111.44
 30
0.0
  0
VERTEX
  5
FD2
  8
SAPA_PROFIL
 10
76.956576790017934
 20
119.1399999999999
 30
0.0
 42
-0.4142135623730951
  0
VERTEX
  5
FD3
  8
SAPA_PROFIL
 10
77.956576790017948
 20
120.1399999999999
 30
0.0
  0
VERTEX
  5
FD4
  8
SAPA_PROFIL
 10
80.256576790017903
 20
120.1399999999999
 30
0.0
 42
-0.2504916501726643
  0
VERTEX
  5
FD5
  8
SAPA_PROFIL
 10
81.256576790017448
 20
119.1400000000004
 30
0.0
  0
VERTEX
  5
FD6
  8
SAPA_PROFIL
 10
81.256576790017903
 20
118.44
 30
0.0
 42
-0.4142135623730951
  0
VERTEX
  5
FD7
  8
SAPA_PROFIL
 10
80.956576790017934
 20
118.1399999999999
 30
0.0
  0
VERTEX
  5
FD8
  8
SAPA_PROFIL
 10
80.506576790017775
 20
118.1399999999999
 30
0.0
 42
0.4142135623730951
  0
VERTEX
  5
FD9
  8
SAPA_PROFIL
 10
80.206576790017721
 20
117.8399999999999
 30
0.0
  0
VERTEX
  5
FDA
  8
SAPA_PROFIL
 10
80.206576790017834
 20
117.14
 30
0.0
 42
0.4142135623731506
  0
VERTEX
  5
FDB
  8
SAPA_PROFIL
 10
80.506576790017775
 20
116.8399999999999
 30
0.0
  0
VERTEX
  5
FDC
  8
SAPA_PROFIL
 10
80.956576790017934
 20
116.8399999999999
 30
0.0
 42
-0.4142135623730397
  0
VERTEX
  5
FDD
  8
SAPA_PROFIL
 10
81.256576790017903
 20
116.54000000000001
 30
0.0
  0
VERTEX
  5
FDE
  8
SAPA_PROFIL
 10
81.256576790017903
 20
116.04000000000001
 30
0.0
 42
-0.4142135623733948
  0
VERTEX
  5
FDF
  8
SAPA_PROFIL
 10
80.756576790017675
 20
115.53999999999991
 30
0.0
  0
VERTEX
  5
FE0
  8
SAPA_PROFIL
 10
80.456576790017721
 20
115.54000000000011
 30
0.0
 42
0.4142135623732059
  0
VERTEX
  5
FE1
  8
SAPA_PROFIL
 10
80.156576790017525
 20
115.23999999999999
 30
0.0
  0
VERTEX
  5
FE2
  8
SAPA_PROFIL
 10
80.156576790017766
 20
114.1399999999999
 30
0.0
 42
0.9999999999999998
  0
VERTEX
  5
FE3
  8
SAPA_PROFIL
 10
87.356576790017797
 20
114.1399999999999
 30
0.0
  0
VERTEX
  5
FE4
  8
SAPA_PROFIL
 10
87.356576790017698
 20
114.54000000000001
 30
0.0
 42
0.4142135623730951
  0
VERTEX
  5
FE5
  8
SAPA_PROFIL
 10
86.356576790017698
 20
115.54000000000001
 30
0.0
  0
VERTEX
  5
FE6
  8
SAPA_PROFIL
 10
84.956576790017706
 20
115.54000000000001
 30
0.0
 42
-0.4142135623730951
  0
VERTEX
  5
FE7
  8
SAPA_PROFIL
 10
84.456576790017721
 20
116.04000000000001
 30
0.0
  0
VERTEX
  5
FE8
  8
SAPA_PROFIL
 10
84.456576790017834
 20
116.54000000000001
 30
0.0
 42
-0.4142135623731506
  0
VERTEX
  5
FE9
  8
SAPA_PROFIL
 10
84.756576790017789
 20
116.8399999999999
 30
0.0
  0
VERTEX
  5
FEA
  8
SAPA_PROFIL
 10
85.206576790017834
 20
116.8399999999999
 30
0.0
 42
0.4142135623731505
  0
VERTEX
  5
FEB
  8
SAPA_PROFIL
 10
85.506576790017775
 20
117.14
 30
0.0
  0
VERTEX
  5
FEC
  8
SAPA_PROFIL
 10
85.506576790017775
 20
117.8399999999999
 30
0.0
 42
0.4142135623730951
  0
VERTEX
  5
FED
  8
SAPA_PROFIL
 10
85.206576790017834
 20
118.1399999999999
 30
0.0
  0
VERTEX
  5
FEE
  8
SAPA_PROFIL
 10
84.756576790017789
 20
118.1399999999999
 30
0.0
 42
-0.4142135623730951
  0
VERTEX
  5
FEF
  8
SAPA_PROFIL
 10
84.456576790017721
 20
118.44
 30
0.0
  0
VERTEX
  5
FF0
  8
SAPA_PROFIL
 10
84.456576790017834
 20
119.1399999999999
 30
0.0
 42
-0.2504916501726621
  0
VERTEX
  5
FF1
  8
SAPA_PROFIL
 10
85.456576790018062
 20
120.1400000000004
 30
0.0
  0
VERTEX
  5
FF2
  8
SAPA_PROFIL
 10
87.842363227644796
 20
120.1399999999999
 30
0.0
 42
-0.1989123673796728
  0
VERTEX
  5
FF3
  8
SAPA_PROFIL
 10
88.549470008831335
 20
119.8471067811865
 30
0.0
  0
VERTEX
  5
FF4
  8
SAPA_PROFIL
 10
91.377897133576894
 20
117.0186796564399
 30
0.0
 42
-0.1989123673796584
  0
VERTEX
  5
FF5
  8
SAPA_PROFIL
 10
92.256576790017888
 20
114.89735931288089
 30
0.0
  0
VERTEX
  5
FF6
  8
SAPA_PROFIL
 10
92.256576790017888
 20
108.1453328888191
 30
0.0
  0
VERTEX
  5
FF7
  8
SAPA_PROFIL
 10
92.256576790017888
 20
27.382640687119931
 30
0.0
 42
-0.1989123673796596
  0
VERTEX
  5
FF8
  8
SAPA_PROFIL
 10
91.377897133576894
 20
25.26132034355993
 30
0.0
  0
VERTEX
  5
FF9
  8
SAPA_PROFIL
 10
88.549470008831463
 20
22.43289321881338
 30
0.0
 42
-0.1989123673796371
  0
VERTEX
  5
FFA
  8
SAPA_PROFIL
 10
87.842363227644896
 20
22.13999999999993
 30
0.0
  0
VERTEX
  5
FFB
  8
SAPA_PROFIL
 10
84.756576790017888
 20
22.13999999999993
 30
0.0
  0
VERTEX
  5
FFC
  8
SAPA_PROFIL
 10
83.756576790017903
 20
23.13999999999993
 30
0.0
  0
VERTEX
  5
FFD
  8
SAPA_PROFIL
 10
83.756576790017903
 20
23.839999999999979
 30
0.0
 42
-0.4142135623730951
  0
VERTEX
  5
FFE
  8
SAPA_PROFIL
 10
84.056576790017857
 20
24.13999999999993
 30
0.0
  0
VERTEX
  5
FFF
  8
SAPA_PROFIL
 10
85.806576790017857
 20
24.13999999999993
 30
0.0
 42
0.4142135623730951
  0
VERTEX
  5
1000
  8
SAPA_PROFIL
 10
86.106576790017797
 20
24.440000000000001
 30
0.0
  0
VERTEX
  5
1001
  8
SAPA_PROFIL
 10
86.106576790017797
 20
26.88999999999993
 30
0.0
 42
0.4142135623730951
  0
VERTEX
  5
1002
  8
SAPA_PROFIL
 10
85.806576790017857
 20
27.190000000000001
 30
0.0
  0
VERTEX
  5
1003
  8
SAPA_PROFIL
 10
67.706576790017948
 20
27.18999999999998
 30
0.0
 42
0.4142135623730951
  0
VERTEX
  5
1004
  8
SAPA_PROFIL
 10
67.40657679001788
 20
26.889999999999919
 30
0.0
  0
VERTEX
  5
1005
  8
SAPA_PROFIL
 10
67.40657679001788
 20
24.439999999999991
 30
0.0
 42
0.4142135623730951
  0
VERTEX
  5
1006
  8
SAPA_PROFIL
 10
67.706576790017948
 20
24.139999999999919
 30
0.0
  0
VERTEX
  5
1007
  8
SAPA_PROFIL
 10
69.456576790017934
 20
24.139999999999919
 30
0.0
 42
-0.4142135623730951
  0
VERTEX
  5
1008
  8
SAPA_PROFIL
 10
69.756576790017903
 20
23.839999999999961
 30
0.0
  0
VERTEX
  5
1009
  8
SAPA_PROFIL
 10
69.756576790017903
 20
23.139999999999919
 30
0.0
  0
VERTEX
  5
100A
  8
SAPA_PROFIL
 10
68.756576790017903
 20
22.139999999999912
 30
0.0
  0
VERTEX
  5
100B
  8
SAPA_PROFIL
 10
63.122602193801868
 20
22.139999999999912
 30
0.0
  0
VERTEX
  5
100C
  8
SAPA_PROFIL
 10
62.256576790017903
 20
22.639999999999919
 30
0.0
  0
VERTEX
  5
100D
  8
SAPA_PROFIL
 10
61.390551386232907
 20
22.139999999999912
 30
0.0
  0
VERTEX
  5
100E
  8
SAPA_PROFIL
 10
42.256576790017903
 20
22.139999999999912
 30
0.0
 42
0.4142135623730951
  0
VERTEX
  5
100F
  8
SAPA_PROFIL
 10
41.256576790017903
 20
21.139999999999912
 30
0.0
  0
VERTEX
  5
1010
  8
SAPA_PROFIL
 10
41.256576790017903
 20
11.904911064067891
 30
0.0
 42
0.3475404855922902
  0
VERTEX
  5
1011
  8
SAPA_PROFIL
 10
41.487346020787072
 20
11.61300851082164
 30
0.0
 42
-0.347540485592353
  0
VERTEX
  5
1012
  8
SAPA_PROFIL
 10
42.256576790017903
 20
10.63999999999991
 30
0.0
  0
VERTEX
  5
1013
  8
SAPA_PROFIL
 10
42.256576790017903
 20
10.072455532037949
 30
0.0
 42
-0.2896898633048417
  0
VERTEX
  5
1014
  8
SAPA_PROFIL
 10
41.685148218582412
 20
9.1689476291294767
 30
0.0
 42
-0.5507604245820768
  0
VERTEX
  5
1015
  8
SAPA_PROFIL
 10
41.256576790022898
 20
9.4399999999960045
 30
0.0
  0
VERTEX
  5
1016
  8
SAPA_PROFIL
 10
41.256576790018812
 20
10.090000000002011
 30
0.0
 42
0.4142135623714856
  0
VERTEX
  5
1017
  8
SAPA_PROFIL
 10
40.95657679001885
 20
10.38999999999991
 30
0.0
  0
VERTEX
  5
1018
  8
SAPA_PROFIL
 10
39.556576790017857
 20
10.38999999999991
 30
0.0
 42
0.4142135623730951
  0
VERTEX
  5
1019
  8
SAPA_PROFIL
 10
39.256576790017903
 20
10.089999999999961
 30
0.0
  0
VERTEX
  5
101A
  8
SAPA_PROFIL
 10
39.256576790017903
 20
1.6899999999999831
 30
0.0
 42
0.4142135623730951
  0
VERTEX
  5
101B
  8
SAPA_PROFIL
 10
39.556576790017857
 20
1.3900000000000281
 30
0.0
  0
VERTEX
  5
101C
  8
SAPA_PROFIL
 10
40.956576790017948
 20
1.3899999999999151
 30
0.0
 42
0.4142135623730951
  0
VERTEX
  5
101D
  8
SAPA_PROFIL
 10
41.256576790017903
 20
1.6899999999999831
 30
0.0
  0
VERTEX
  5
101E
  8
SAPA_PROFIL
 10
41.256576790018812
 20
2.3399999999999599
 30
0.0
  0
VERTEX
  5
101F
  8
SAPA_PROFIL
 10
41.256576790017903
 20
2.3400000000039389
 30
0.0
 42
-0.5507604245871307
  0
VERTEX
  5
1020
  8
SAPA_PROFIL
 10
41.685148218591053
 20
2.611052370871263
 30
0.0
 42
-0.2896898633034174
  0
VERTEX
  5
1021
  8
SAPA_PROFIL
 10
42.256576790017903
 20
1.707544467961994
 30
0.0
  0
VERTEX
  5
1022
  8
SAPA_PROFIL
 10
42.256576790017903
 20
0.4399999999999836
 30
0.0
 42
-0.4142135623730951
  0
VERTEX
  5
1023
  8
SAPA_PROFIL
 10
41.956576790017941
 20
0.1399999999999153
 30
0.0
  0
VERTEX
  5
1024
  8
SAPA_PROFIL
 10
37.75657679001791
 20
0.1399999999999153
 30
0.0
 42
-0.4142135623730951
  0
VERTEX
  5
1025
  8
SAPA_PROFIL
 10
36.756576790017903
 20
1.1399999999999151
 30
0.0
  0
VERTEX
  5
1026
  8
SAPA_PROFIL
 10
36.756576790017903
 20
20.397359312880941
 30
0.0
 42
0.1989123673796595
  0
VERTEX
  5
1027
  8
SAPA_PROFIL
 10
35.877897133577562
 20
22.5186796564406
 30
0.0
  0
VERTEX
  5
1028
  8
SAPA_PROFIL
 10
33.135256446457902
 20
25.26132034355992
 30
0.0
 42
-0.1989123673796601
  0
VERTEX
  5
1029
  8
SAPA_PROFIL
 10
32.256576790017903
 20
27.38264068711992
 30
0.0
  0
SEQEND
  5
102A
  8
SAPA_PROFIL
  0
LINE
  5
AB0
  8
SAPA_GLAS
 10
52.156576790018221
 20
17.13999999999573
 30
0.0
 11
46.156576790018221
 21
17.13999999999573
 31
0.0
  0
LINE
  5
AB1
  8
SAPA_GLAS
 10
46.156576790018207
 20
-11.66000000000434
 30
0.0
 11
46.156576790018221
 21
17.13999999999573
 31
0.0
  0
LINE
  5
AB2
  8
SAPA_GLAS
 10
52.156576790018441
 20
-11.66000000000434
 30
0.0
 11
52.156576790018221
 21
17.13999999999573
 31
0.0
  0
POLYLINE
  5
ABF
  8
SAPA_FOGBAND
 62
     2
 66
     1
 10
0.0
 20
0.0
 30
0.0
  0
VERTEX
  5
10FA
  8
SAPA_FOGBAND
 62
     2
 10
41.347121141946481
 20
132.0304439341175
 30
0.0
 42
-0.1803090304626144
  0
VERTEX
  5
10FB
  8
SAPA_FOGBAND
 62
     2
 10
39.506709465132751
 20
130.64244630975841
 30
0.0
  0
VERTEX
  5
10FC
  8
SAPA_FOGBAND
 62
     2
 10
37.041350259206972
 20
129.9084024209603
 30
0.0
 42
0.3317810211360308
  0
VERTEX
  5
10FD
  8
SAPA_FOGBAND
 62
     2
 10
36.326713142047687
 20
128.9499828755124
 30
0.0
  0
VERTEX
  5
10FE
  8
SAPA_FOGBAND
 62
     2
 10
36.326713142047581
 20
127.7162557169127
 30
0.0
 42
-0.2679491924312111
  0
VERTEX
  5
10FF
  8
SAPA_FOGBAND
 62
     2
 10
36.17671314204749
 20
127.45644809578
 30
0.0
  0
VERTEX
  5
1100
  8
SAPA_FOGBAND
 62
     2
 10
35.273524999173951
 20
126.9349921783637
 30
0.0
 42
-0.5773502691894719
  0
VERTEX
  5
1101
  8
SAPA_FOGBAND
 62
     2
 10
34.823524999174133
 20
127.19479979949919
 30
0.0
  0
VERTEX
  5
1102
  8
SAPA_FOGBAND
 62
     2
 10
34.823524999174012
 20
133.19664056355259
 30
0.0
 42
-0.4147066859862881
  0
VERTEX
  5
1103
  8
SAPA_FOGBAND
 62
     2
 10
37.828575004028991
 20
136.1966363131246
 30
0.0
  0
VERTEX
  5
1104
  8
SAPA_FOGBAND
 62
     2
 10
40.010566201642902
 20
136.19296328587359
 30
0.0
 42
0.4565417232955612
  0
VERTEX
  5
1105
  8
SAPA_FOGBAND
 62
     2
 10
40.3603683076838
 20
136.57601991209549
 30
0.0
  0
VERTEX
  5
1106
  8
SAPA_FOGBAND
 62
     2
 10
40.182238974172868
 20
137.58624156277679
 30
0.0
  0
VERTEX
  5
1107
  8
SAPA_FOGBAND
 62
     2
 10
39.788315872967971
 20
137.51678229171
 30
0.0
 42
-0.6720594905598717
  0
VERTEX
  5
1108
  8
SAPA_FOGBAND
 62
     2
 10
39.590994122089391
 20
137.83020758786259
 30
0.0
  0
VERTEX
  5
1109
  8
SAPA_FOGBAND
 62
     2
 10
40.911201991155153
 20
139.673316695446
 30
0.0
 42
-0.4079520108343612
  0
VERTEX
  5
110A
  8
SAPA_FOGBAND
 62
     2
 10
41.737839329318362
 20
139.81907516142519
 30
0.0
  0
VERTEX
  5
110B
  8
SAPA_FOGBAND
 62
     2
 10
43.608809362923509
 20
138.53865681832329
 30
0.0
 42
-0.6720594905598635
  0
VERTEX
  5
110C
  8
SAPA_FOGBAND
 62
     2
 10
43.53058533441434
 20
138.1766453668443
 30
0.0
  0
VERTEX
  5
110D
  8
SAPA_FOGBAND
 62
     2
 10
43.136662233209492
 20
138.10718609577751
 30
0.0
  0
VERTEX
  5
110E
  8
SAPA_FOGBAND
 62
     2
 10
43.2929455931097
 20
137.22085911806661
 30
0.0
 42
0.4142135623730951
  0
VERTEX
  5
110F
  8
SAPA_FOGBAND
 62
     2
 10
43.640482372313429
 20
136.97751124546289
 30
0.0
  0
VERTEX
  5
1110
  8
SAPA_FOGBAND
 62
     2
 10
45.038828432936988
 20
137.18558801271899
 30
0.0
 42
-0.4313344489874135
  0
VERTEX
  5
1111
  8
SAPA_FOGBAND
 62
     2
 10
45.388891638845323
 20
136.92499712106269
 30
0.0
  0
VERTEX
  5
1112
  8
SAPA_FOGBAND
 62
     2
 10
45.471700490906677
 20
136.21700759677219
 30
0.0
 42
-0.3972974670000809
  0
VERTEX
  5
1113
  8
SAPA_FOGBAND
 62
     2
 10
45.061909992059817
 20
135.66651799652041
 30
0.0
  0
VERTEX
  5
1114
  8
SAPA_FOGBAND
 62
     2
 10
39.561449686524199
 20
134.6966384383386
 30
0.0
  0
VERTEX
  5
1115
  8
SAPA_FOGBAND
 62
     2
 10
37.826050001601558
 20
134.6966384383386
 30
0.0
 42
0.4147066859863004
  0
VERTEX
  5
1116
  8
SAPA_FOGBAND
 62
     2
 10
36.323524999174012
 20
133.19664056355259
 30
0.0
  0
VERTEX
  5
1117
  8
SAPA_FOGBAND
 62
     2
 10
36.323524999174133
 20
130.99411397396651
 30
0.0
 42
0.601131774324047
  0
VERTEX
  5
1118
  8
SAPA_FOGBAND
 62
     2
 10
37.243103951751252
 20
131.06201665153051
 30
0.0
 42
-0.2227389711612139
  0
VERTEX
  5
1119
  8
SAPA_FOGBAND
 62
     2
 10
37.370973120970049
 20
131.17368949065821
 30
0.0
  0
VERTEX
  5
111A
  8
SAPA_FOGBAND
 62
     2
 10
39.19281029400797
 20
131.6967078097513
 30
0.0
 42
0.1796843201953831
  0
VERTEX
  5
111B
  8
SAPA_FOGBAND
 62
     2
 10
40.416882159349697
 20
132.61755377693891
 30
0.0
 42
-1.0
  0
VERTEX
  5
111C
  8
SAPA_FOGBAND
 62
     2
 10
41.342817263145299
 20
132.02371526053989
 30
0.0
  0
SEQEND
  5
111D
  8
SAPA_FOGBAND
 62
     2
  0
INSERT
  5
AC0
  8
SAPA_FOGBAND
  6
CONTINUOUS
 62
     2
  2
*U73
 10
0.0
 20
0.0
 30
0.0
1001
ACAD
1002
{
1000
R14_HATCH_DATA
1000
AC0
1011
1.0
1021
0.0
1031
0.0
1021
0.0
1031
0.0
1011
0.0
1021
0.0
1031
0.0
1021
1.0
1031
0.0
1011
0.0
1021
0.0
1031
0.0
1021
0.0
1031
1.0
1040
0.0
1010
0.0
1020
0.0
1030
1.0
1000
SOLID
1070
     1
1070
     0
1071
        1
1071
        1
1071
        1
1070
     2
1040
39.145631804200193
1040
135.4046458473313
1040
0.2549509756796394
1040
1.5707963267948959
1040
7.8539816339744819
1070
     0
1071
        0
1070
     0
1070
     1
1071
        1
1040
48.126350984721441
1040
142.51449398731671
1040
0.0
1002
}
  0
POLYLINE
  5
AC1
  8
SAPA_FOGBAND
 62
     2
 66
     1
 10
0.0
 20
0.0
 30
0.0
 70
     1
  0
VERTEX
  5
112F
  8
SAPA_FOGBAND
 62
     2
 10
42.308137840097487
 20
137.04721094039959
 30
0.0
 42
-1.0
  0
VERTEX
  5
1130
  8
SAPA_FOGBAND
 62
     2
 10
41.323330087085289
 20
136.8735627627326
 30
0.0
  0
VERTEX
  5
1131
  8
SAPA_FOGBAND
 62
     2
 10
41.062857820584867
 20
138.35077439225091
 30
0.0
 42
-0.9999999999999998
  0
VERTEX
  5
1132
  8
SAPA_FOGBAND
 62
     2
 10
42.047665573597079
 20
138.5244225699179
 30
0.0
  0
SEQEND
  5
1133
  8
SAPA_FOGBAND
 62
     2
  0
POLYLINE
  5
AC2
  8
SAPA_FOGBAND
 62
     2
 66
     1
 10
0.0
 20
0.0
 30
0.0
  0
VERTEX
  5
1134
  8
SAPA_FOGBAND
 62
     2
 10
83.167123639239975
 20
138.2008964095904
 30
0.0
 42
-0.1803090304626144
  0
VERTEX
  5
1135
  8
SAPA_FOGBAND
 62
     2
 10
85.007535316053719
 20
139.58889403394949
 30
0.0
  0
VERTEX
  5
1136
  8
SAPA_FOGBAND
 62
     2
 10
87.472894521979498
 20
140.32293792274751
 30
0.0
 42
0.3317810211360308
  0
VERTEX
  5
1137
  8
SAPA_FOGBAND
 62
     2
 10
88.187531639138768
 20
141.28135746819561
 30
0.0
  0
VERTEX
  5
1138
  8
SAPA_FOGBAND
 62
     2
 10
88.187531639138868
 20
142.51508462679519
 30
0.0
 42
-0.2679491924312111
  0
VERTEX
  5
1139
  8
SAPA_FOGBAND
 62
     2
 10
88.337531639138973
 20
142.77489224792791
 30
0.0
  0
VERTEX
  5
113A
  8
SAPA_FOGBAND
 62
     2
 10
89.240719782012519
 20
143.2963481653442
 30
0.0
 42
-0.5773502691894719
  0
VERTEX
  5
113B
  8
SAPA_FOGBAND
 62
     2
 10
89.690719782012323
 20
143.03654054420869
 30
0.0
  0
VERTEX
  5
113C
  8
SAPA_FOGBAND
 62
     2
 10
89.690719782012451
 20
137.03469978015531
 30
0.0
 42
-0.4147066859862881
  0
VERTEX
  5
113D
  8
SAPA_FOGBAND
 62
     2
 10
86.685669777157457
 20
134.0347040305833
 30
0.0
  0
VERTEX
  5
113E
  8
SAPA_FOGBAND
 62
     2
 10
84.503678579543561
 20
134.03837705783431
 30
0.0
 42
0.4565417232955612
  0
VERTEX
  5
113F
  8
SAPA_FOGBAND
 62
     2
 10
84.153876473502663
 20
133.65532043161241
 30
0.0
  0
VERTEX
  5
1140
  8
SAPA_FOGBAND
 62
     2
 10
84.332005807013573
 20
132.64509878093111
 30
0.0
  0
VERTEX
  5
1141
  8
SAPA_FOGBAND
 62
     2
 10
84.725928908218478
 20
132.7145580519979
 30
0.0
 42
-0.6720594905598717
  0
VERTEX
  5
1142
  8
SAPA_FOGBAND
 62
     2
 10
84.923250659097079
 20
132.40113275584531
 30
0.0
  0
VERTEX
  5
1143
  8
SAPA_FOGBAND
 62
     2
 10
83.60304279003131
 20
130.55802364826201
 30
0.0
 42
-0.4079520108343612
  0
VERTEX
  5
1144
  8
SAPA_FOGBAND
 62
     2
 10
82.776405451868115
 20
130.41226518228271
 30
0.0
  0
VERTEX
  5
1145
  8
SAPA_FOGBAND
 62
     2
 10
80.905435418262954
 20
131.69268352538461
 30
0.0
 42
-0.6720594905598635
  0
VERTEX
  5
1146
  8
SAPA_FOGBAND
 62
     2
 10
80.983659446772123
 20
132.0546949768636
 30
0.0
  0
VERTEX
  5
1147
  8
SAPA_FOGBAND
 62
     2
 10
81.377582547976971
 20
132.12415424793039
 30
0.0
  0
VERTEX
  5
1148
  8
SAPA_FOGBAND
 62
     2
 10
81.221299188076756
 20
133.01048122564131
 30
0.0
 42
0.4142135623730951
  0
VERTEX
  5
1149
  8
SAPA_FOGBAND
 62
     2
 10
80.873762408873034
 20
133.25382909824501
 30
0.0
  0
VERTEX
  5
114A
  8
SAPA_FOGBAND
 62
     2
 10
79.475416348249468
 20
133.0457523309889
 30
0.0
 42
-0.4313344489874135
  0
VERTEX
  5
114B
  8
SAPA_FOGBAND
 62
     2
 10
79.12535314234114
 20
133.30634322264521
 30
0.0
  0
VERTEX
  5
114C
  8
SAPA_FOGBAND
 62
     2
 10
79.042544290279778
 20
134.01433274693571
 30
0.0
 42
-0.3972974670000809
  0
VERTEX
  5
114D
  8
SAPA_FOGBAND
 62
     2
 10
79.452334789126638
 20
134.56482234718749
 30
0.0
  0
VERTEX
  5
114E
  8
SAPA_FOGBAND
 62
     2
 10
84.952795094662264
 20
135.5347019053693
 30
0.0
  0
VERTEX
  5
114F
  8
SAPA_FOGBAND
 62
     2
 10
86.688194779584904
 20
135.5347019053693
 30
0.0
 42
0.4147066859863004
  0
VERTEX
  5
1150
  8
SAPA_FOGBAND
 62
     2
 10
88.190719782012451
 20
137.03469978015531
 30
0.0
  0
VERTEX
  5
1151
  8
SAPA_FOGBAND
 62
     2
 10
88.190719782012337
 20
139.23722636974139
 30
0.0
 42
0.601131774324047
  0
VERTEX
  5
1152
  8
SAPA_FOGBAND
 62
     2
 10
87.271140829435197
 20
139.16932369217739
 30
0.0
 42
-0.2227389711612139
  0
VERTEX
  5
1153
  8
SAPA_FOGBAND
 62
     2
 10
87.143271660216413
 20
139.05765085304969
 30
0.0
  0
VERTEX
  5
1154
  8
SAPA_FOGBAND
 62
     2
 10
85.321434487178493
 20
138.5346325339566
 30
0.0
 42
0.1796843201953831
  0
VERTEX
  5
1155
  8
SAPA_FOGBAND
 62
     2
 10
84.097362621836766
 20
137.61378656676899
 30
0.0
 42
-1.0
  0
VERTEX
  5
1156
  8
SAPA_FOGBAND
 62
     2
 10
83.171427518041156
 20
138.20762508316801
 30
0.0
  0
SEQEND
  5
1157
  8
SAPA_FOGBAND
 62
     2
  0
INSERT
  5
AC3
  8
SAPA_FOGBAND
  6
CONTINUOUS
 62
     2
  2
*U74
 10
0.0
 20
0.0
 30
0.0
1001
ACAD
1002
{
1000
R14_HATCH_DATA
1000
AC3
1011
1.0
1021
0.0
1031
0.0
1021
0.0
1031
0.0
1011
0.0
1021
0.0
1031
0.0
1021
1.0
1031
0.0
1011
0.0
1021
0.0
1031
0.0
1021
0.0
1031
1.0
1040
0.0
1010
0.0
1020
0.0
1030
1.0
1000
SOLID
1070
     1
1070
     0
1071
        1
1071
        1
1071
        1
1070
     2
1040
85.368612976986256
1040
134.8266944963766
1040
0.2549509756796394
1040
-1.5707963267948959
1040
4.7123889803846888
1070
     0
1071
        0
1070
     0
1070
     1
1071
        1
1040
76.387893796465022
1040
127.7168463563912
1040
0.0
1002
}
  0
POLYLINE
  5
AC4
  8
SAPA_FOGBAND
 62
     2
 66
     1
 10
0.0
 20
0.0
 30
0.0
 70
     1
  0
VERTEX
  5
1169
  8
SAPA_FOGBAND
 62
     2
 10
82.206106941088976
 20
133.1841294033083
 30
0.0
 42
-1.0
  0
VERTEX
  5
116A
  8
SAPA_FOGBAND
 62
     2
 10
83.190914694101167
 20
133.35777758097529
 30
0.0
  0
VERTEX
  5
116B
  8
SAPA_FOGBAND
 62
     2
 10
83.451386960601596
 20
131.88056595145699
 30
0.0
 42
-0.9999999999999998
  0
VERTEX
  5
116C
  8
SAPA_FOGBAND
 62
     2
 10
82.466579207589376
 20
131.70691777379
 30
0.0
  0
SEQEND
  5
116D
  8
SAPA_FOGBAND
 62
     2
  0
POLYLINE
  5
AC5
  8
SAPA_FOGBAND
 66
     1
 10
0.0
 20
0.0
 30
0.0
 70
     1
  0
VERTEX
  5
116E
  8
SAPA_FOGBAND
 10
58.745828052223139
 20
10.64660215964631
 30
0.0
  0
VERTEX
  5
116F
  8
SAPA_FOGBAND
 10
58.745828052223139
 20
9.4466021596462646
 30
0.0
 42
0.4142135623730951
  0
VERTEX
  5
1170
  8
SAPA_FOGBAND
 10
59.045828052223101
 20
9.1466021596463101
 30
0.0
  0
VERTEX
  5
1171
  8
SAPA_FOGBAND
 10
59.945828052223192
 20
9.1466021596463101
 30
0.0
  0
VERTEX
  5
1172
  8
SAPA_FOGBAND
 10
59.945828052223192
 20
9.4966021596462191
 30
0.0
 42
-0.6681786379192988
  0
VERTEX
  5
1173
  8
SAPA_FOGBAND
 10
60.457960086579192
 20
9.7087341940022647
 30
0.0
  0
VERTEX
  5
1174
  8
SAPA_FOGBAND
 10
61.311513477172298
 20
8.8551808034089312
 30
0.0
 42
-0.1989123673796552
  0
VERTEX
  5
1175
  8
SAPA_FOGBAND
 10
61.545828052223101
 20
8.2894953784597796
 30
0.0
  0
VERTEX
  5
1176
  8
SAPA_FOGBAND
 10
61.545828052223101
 20
8.1268002560399886
 30
0.0
 42
-0.3394542588633746
  0
VERTEX
  5
1177
  8
SAPA_FOGBAND
 10
61.323473765753867
 20
7.8370225081532139
 30
0.0
  0
VERTEX
  5
1178
  8
SAPA_FOGBAND
 10
59.968182338692372
 20
7.4738732647633164
 30
0.0
 42
0.3394542588633746
  0
VERTEX
  5
1179
  8
SAPA_FOGBAND
 10
59.745828052223153
 20
7.1840955168765417
 30
0.0
  0
VERTEX
  5
117A
  8
SAPA_FOGBAND
 10
59.745828052223153
 20
4.6091088024160767
 30
0.0
 42
0.3394542588633746
  0
VERTEX
  5
117B
  8
SAPA_FOGBAND
 10
59.968182338692372
 20
4.3193310545293029
 30
0.0
  0
VERTEX
  5
117C
  8
SAPA_FOGBAND
 10
61.323473765753867
 20
3.9561818111391771
 30
0.0
 42
-0.3394542588633744
  0
VERTEX
  5
117D
  8
SAPA_FOGBAND
 10
61.545828052223101
 20
3.6664040632526311
 30
0.0
  0
VERTEX
  5
117E
  8
SAPA_FOGBAND
 10
61.545828052223101
 20
3.5037089408326132
 30
0.0
 42
-0.1989123673796526
  0
VERTEX
  5
117F
  8
SAPA_FOGBAND
 10
61.311513477172298
 20
2.9380235158834611
 30
0.0
  0
VERTEX
  5
1180
  8
SAPA_FOGBAND
 10
60.457960086579192
 20
2.0844701252901281
 30
0.0
 42
-0.6681786379193474
  0
VERTEX
  5
1181
  8
SAPA_FOGBAND
 10
59.945828052223192
 20
2.2966021596461732
 30
0.0
  0
VERTEX
  5
1182
  8
SAPA_FOGBAND
 10
59.945828052223192
 20
2.6466021596463101
 30
0.0
  0
VERTEX
  5
1183
  8
SAPA_FOGBAND
 10
59.045828052223101
 20
2.6466021596463101
 30
0.0
 42
0.4142135623730951
  0
VERTEX
  5
1184
  8
SAPA_FOGBAND
 10
58.745828052223139
 20
2.3466021596461282
 30
0.0
  0
VERTEX
  5
1185
  8
SAPA_FOGBAND
 10
58.745828052223132
 20
0.2466021596462191
 30
0.0
 42
0.4142135623730951
  0
VERTEX
  5
1186
  8
SAPA_FOGBAND
 10
59.045828052223087
 20
-0.0533978403537354
 30
0.0
  0
VERTEX
  5
1187
  8
SAPA_FOGBAND
 10
60.445828052223192
 20
-0.0533978403537354
 30
0.0
 42
-0.7754026414786132
  0
VERTEX
  5
1188
  8
SAPA_FOGBAND
 10
60.590535920529071
 20
-0.6161898357614142
 30
0.0
 42
0.1086822875051356
  0
VERTEX
  5
1189
  8
SAPA_FOGBAND
 10
52.66245353039232
 20
-4.766237994352247
 30
0.0
 42
-0.8680589103334746
  0
VERTEX
  5
118A
  8
SAPA_FOGBAND
 10
52.305613627730381
 20
-4.2913139645884772
 30
0.0
  0
VERTEX
  5
118B
  8
SAPA_FOGBAND
 10
55.133413948874363
 20
-0.3212785674368721
 30
0.0
 42
0.1989123673796536
  0
VERTEX
  5
118C
  8
SAPA_FOGBAND
 10
55.426307167687689
 20
0.3858282137497948
 30
0.0
  0
VERTEX
  5
118D
  8
SAPA_FOGBAND
 10
55.426307167687689
 20
3.2191471781695258
 30
0.0
 42
0.577350269189628
  0
VERTEX
  5
118E
  8
SAPA_FOGBAND
 10
54.976307167687878
 20
3.4789547993047498
 30
0.0
  0
VERTEX
  5
118F
  8
SAPA_FOGBAND
 10
52.671553064333573
 20
1.3408261028930091
 30
0.0
 42
-0.8769764629927301
  0
VERTEX
  5
1190
  8
SAPA_FOGBAND
 10
52.309421029977443
 20
1.812765758384278
 30
0.0
  0
VERTEX
  5
1191
  8
SAPA_FOGBAND
 10
55.13341394887437
 20
5.7789937532890612
 30
0.0
 42
0.198912367379658
  0
VERTEX
  5
1192
  8
SAPA_FOGBAND
 10
55.426307167687689
 20
6.4861005344757281
 30
0.0
  0
VERTEX
  5
1193
  8
SAPA_FOGBAND
 10
55.426307167687689
 20
8.7183748966971883
 30
0.0
 42
0.5773502691896441
  0
VERTEX
  5
1194
  8
SAPA_FOGBAND
 10
54.976307167687878
 20
8.9781825178326393
 30
0.0
  0
VERTEX
  5
1195
  8
SAPA_FOGBAND
 10
52.672421817513957
 20
6.8405553963033929
 30
0.0
 42
-0.87697646299276
  0
VERTEX
  5
1196
  8
SAPA_FOGBAND
 10
52.310289783157828
 20
7.3124950517946621
 30
0.0
  0
VERTEX
  5
1197
  8
SAPA_FOGBAND
 10
55.209268596188053
 20
11.35370894083275
 30
0.0
 42
-0.198912367379658
  0
VERTEX
  5
1198
  8
SAPA_FOGBAND
 10
55.916375377374493
 20
11.64660215964631
 30
0.0
  0
VERTEX
  5
1199
  8
SAPA_FOGBAND
 10
57.745828052223153
 20
11.64660215964631
 30
0.0
  0
VERTEX
  5
119A
  8
SAPA_FOGBAND
 10
57.735896261909943
 20
11.64660215964631
 30
0.0
  0
SEQEND
  5
119B
  8
SAPA_FOGBAND
  0
POLYLINE
  5
AC6
  8
SAPA_FOGBAND
 66
     1
 10
0.0
 20
0.0
 30
0.0
 70
     1
  0
VERTEX
  5
119C
  8
SAPA_FOGBAND
 10
43.254151118879577
 20
11.64659541230634
 30
0.0
 42
0.4142135623730951
  0
VERTEX
  5
119D
  8
SAPA_FOGBAND
 10
42.25415111887957
 20
10.64659541230634
 30
0.0
  0
VERTEX
  5
119E
  8
SAPA_FOGBAND
 10
42.25415111887957
 20
9.4465954123063014
 30
0.0
 42
-0.4142135623730951
  0
VERTEX
  5
119F
  8
SAPA_FOGBAND
 10
41.954151118879622
 20
9.1465954123063469
 30
0.0
  0
VERTEX
  5
11A0
  8
SAPA_FOGBAND
 10
41.054151118879759
 20
9.1465954123063469
 30
0.0
  0
VERTEX
  5
11A1
  8
SAPA_FOGBAND
 10
41.054151118879759
 20
9.4965954123064833
 30
0.0
 42
0.6681786379193472
  0
VERTEX
  5
11A2
  8
SAPA_FOGBAND
 10
40.542019084523758
 20
9.7087274466623015
 30
0.0
  0
VERTEX
  5
11A3
  8
SAPA_FOGBAND
 10
39.688465693930432
 20
8.8551740560690817
 30
0.0
 42
0.1989123673796526
  0
VERTEX
  5
11A4
  8
SAPA_FOGBAND
 10
39.454151118879622
 20
8.2894886311198164
 30
0.0
  0
VERTEX
  5
11A5
  8
SAPA_FOGBAND
 10
39.454151118879622
 20
8.1267935087000254
 30
0.0
 42
0.3394542588633746
  0
VERTEX
  5
11A6
  8
SAPA_FOGBAND
 10
39.676505405348848
 20
7.8370157608132507
 30
0.0
  0
VERTEX
  5
11A7
  8
SAPA_FOGBAND
 10
41.031796832410578
 20
7.4738665174233532
 30
0.0
 42
-0.3394542588633744
  0
VERTEX
  5
11A8
  8
SAPA_FOGBAND
 10
41.25415111887957
 20
7.1840887695365794
 30
0.0
  0
VERTEX
  5
11A9
  8
SAPA_FOGBAND
 10
41.25415111887957
 20
4.6091020550761144
 30
0.0
 42
-0.3394542588633746
  0
VERTEX
  5
11AA
  8
SAPA_FOGBAND
 10
41.031796832410578
 20
4.3193243071893423
 30
0.0
  0
VERTEX
  5
11AB
  8
SAPA_FOGBAND
 10
39.676505405348848
 20
3.9561750637994431
 30
0.0
 42
0.3394542588633747
  0
VERTEX
  5
11AC
  8
SAPA_FOGBAND
 10
39.454151118879622
 20
3.6663973159126702
 30
0.0
  0
VERTEX
  5
11AD
  8
SAPA_FOGBAND
 10
39.454151118879622
 20
3.5037021934928791
 30
0.0
 42
0.1989123673796526
  0
VERTEX
  5
11AE
  8
SAPA_FOGBAND
 10
39.688465693930432
 20
2.9380167685435001
 30
0.0
  0
VERTEX
  5
11AF
  8
SAPA_FOGBAND
 10
40.542019084523751
 20
2.084463377950394
 30
0.0
 42
0.6681786379193474
  0
VERTEX
  5
11B0
  8
SAPA_FOGBAND
 10
41.054151118879751
 20
2.2965954123062118
 30
0.0
  0
VERTEX
  5
11B1
  8
SAPA_FOGBAND
 10
41.054151118879759
 20
2.6465954123063482
 30
0.0
  0
VERTEX
  5
11B2
  8
SAPA_FOGBAND
 10
41.954151118879622
 20
2.6465954123063482
 30
0.0
 42
-0.4142135623730951
  0
VERTEX
  5
11B3
  8
SAPA_FOGBAND
 10
42.25415111887957
 20
2.3465954123063919
 30
0.0
  0
VERTEX
  5
11B4
  8
SAPA_FOGBAND
 10
42.25415111887957
 20
0.2465954123062559
 30
0.0
 42
-0.4142135623730951
  0
VERTEX
  5
11B5
  8
SAPA_FOGBAND
 10
41.954151118879608
 20
-0.0534045876936968
 30
0.0
  0
VERTEX
  5
11B6
  8
SAPA_FOGBAND
 10
40.554151118879751
 20
-0.0534045876936968
 30
0.0
 42
0.7754026414785753
  0
VERTEX
  5
11B7
  8
SAPA_FOGBAND
 10
40.409443250573858
 20
-0.6161965831013756
 30
0.0
  0
VERTEX
  5
11B8
  8
SAPA_FOGBAND
 10
45.680107049014502
 20
-4.135899093646735
 30
0.0
 42
0.8680589103334742
  0
VERTEX
  5
11B9
  8
SAPA_FOGBAND
 10
46.036946951676207
 20
-3.6609750638831922
 30
0.0
  0
VERTEX
  5
11BA
  8
SAPA_FOGBAND
 10
44.04704433769313
 20
-0.3212853147768371
 30
0.0
 42
-0.198912367379658
  0
VERTEX
  5
11BB
  8
SAPA_FOGBAND
 10
43.754151118879562
 20
0.3858214664098298
 30
0.0
  0
VERTEX
  5
11BC
  8
SAPA_FOGBAND
 10
43.754151118879562
 20
3.2191404308295608
 30
0.0
 42
-0.5773502691896282
  0
VERTEX
  5
11BD
  8
SAPA_FOGBAND
 10
44.204151118879608
 20
3.4789480519647848
 30
0.0
  0
VERTEX
  5
11BE
  8
SAPA_FOGBAND
 10
45.67100751507347
 20
1.9711650035985211
 30
0.0
 42
0.8769764629927299
  0
VERTEX
  5
11BF
  8
SAPA_FOGBAND
 10
46.033139549429379
 20
2.4431046590897898
 30
0.0
  0
VERTEX
  5
11C0
  8
SAPA_FOGBAND
 10
44.04704433769313
 20
5.7789870059490971
 30
0.0
 42
-0.198912367379658
  0
VERTEX
  5
11C1
  8
SAPA_FOGBAND
 10
43.75415111887957
 20
6.486093787135764
 30
0.0
  0
VERTEX
  5
11C2
  8
SAPA_FOGBAND
 10
43.75415111887957
 20
8.7183681493573388
 30
0.0
 42
-0.5773502691896282
  0
VERTEX
  5
11C3
  8
SAPA_FOGBAND
 10
44.204151118879622
 20
8.9781757704926761
 30
0.0
  0
VERTEX
  5
11C4
  8
SAPA_FOGBAND
 10
45.670138761893092
 20
7.4708942970089041
 30
0.0
 42
0.8769764629927299
  0
VERTEX
  5
11C5
  8
SAPA_FOGBAND
 10
46.032270796249001
 20
7.9428339525001732
 30
0.0
  0
VERTEX
  5
11C6
  8
SAPA_FOGBAND
 10
43.97118969037944
 20
11.353702193492779
 30
0.0
 42
0.198912367379658
  0
VERTEX
  5
11C7
  8
SAPA_FOGBAND
 10
43.264082909192773
 20
11.64659541230634
 30
0.0
  0
SEQEND
  5
11C8
  8
SAPA_FOGBAND
  0
DIMENSION
  5
AD1
  8
SAPA_MATT
  2
*D67
 10
92.256576790017888
 20
236.63966394171669
 30
0.0
 11
62.256576790017903
 21
239.13966394171669
 31
0.0
 70
     0
 13
32.25657679001791
 23
204.63966394171669
 33
0.0
 14
92.256576790017888
 24
204.63966394171669
 34
0.0
1001
ACAD
1000
DSTYLE
1002
{
1070
    40
1040
1.0
1002
}
  0
DIMENSION
  5
AD2
  8
SAPA_MATT
  2
*D66
 10
87.256576790018116
 20
224.63966394171669
 30
0.0
 11
62.256576790018123
 21
227.13966394171661
 31
0.0
 70
     0
 13
37.256576790018087
 23
204.63966394171669
 33
0.0
 14
87.256576790018116
 24
204.63966394171669
 34
0.0
1001
ACAD
1000
DSTYLE
1002
{
1070
    40
1040
1.0
1002
}
  0
DIMENSION
  5
AD3
  8
SAPA_MATT
  2
*D65
 10
11.99999999999995
 20
0.1399999999999937
 30
0.0
 11
9.4997047244094031
 21
60.140000000000001
 31
0.0
 70
     0
 13
36.670790352390888
 23
120.14
 33
0.0
 14
37.756576790017903
 24
0.1399999999999864
 34
0.0
 50
90.0
1001
ACAD
1000
DSTYLE
1002
{
1070
    40
1040
1.0
1002
}
  0
DIMENSION
  5
AD4
  8
SAPA_MATT
  2
*D64
 10
11.99999999999997
 20
120.14
 30
0.0
 11
9.4999999999999538
 21
135.13999999999999
 31
0.0
 70
     0
 13
37.256576790018087
 23
150.13999999999999
 33
0.0
 14
36.670790352390888
 24
120.14
 34
0.0
 50
90.0
1001
ACAD
1000
DSTYLE
1002
{
1070
    40
1040
1.0
1002
}
  0
DIMENSION
  5
AD5
  8
SAPA_MATT
  2
*D63
 10
11.99999999999998
 20
150.13999999999999
 30
0.0
 11
9.4999999999999556
 21
172.63999999999999
 31
0.0
 70
     0
 13
37.256576790018087
 23
195.1399999999999
 33
0.0
 14
37.256576790018087
 24
150.13999999999999
 34
0.0
 50
90.0
1001
ACAD
1000
DSTYLE
1002
{
1070
    40
1040
1.0
1002
}
  0
DIMENSION
  5
AD6
  8
SAPA_MATT
  2
*D68
 10
0.0
 20
0.0000000000000049
 30
0.0
 11
-2.4999999999999938
 21
97.569999999999936
 31
0.0
 70
     0
  1
195
 13
15.00365658815524
 23
195.13999999999979
 33
0.0
 14
17.253656588155241
 24
0.0
 34
0.0
 50
90.0
1001
ACAD
1000
DSTYLE
1002
{
1070
    40
1040
1.0
1002
}
  0
ENDSEC
  0
EOF
