  0
SECTION
  2
HEADER
  9
$ACADVER
  1
AC1009
  9
$INSBASE
 10
69.764868393921986
 20
297.20846420016039
 30
0.0
  9
$EXTMIN
 10
-32.120000000000474
 20
-46.900000000000112
 30
0.0
  9
$EXTMAX
 10
206.02975283955939
 20
70.038256711346335
 30
0.0
  9
$LIMMIN
 10
0.0
 20
0.0
  9
$LIMMAX
 10
998.0
 20
710.0
  9
$ORTHOMODE
 70
     0
  9
$REGENMODE
 70
     1
  9
$FILLMODE
 70
     1
  9
$QTEXTMODE
 70
     0
  9
$MIRRTEXT
 70
     1
  9
$DRAGMODE
 70
     2
  9
$LTSCALE
 40
7.0
  9
$OSMODE
 70
    37
  9
$ATTMODE
 70
     1
  9
$TEXTSIZE
 40
6.0
  9
$TRACEWID
 40
0.05
  9
$TEXTSTYLE
  7
ISO
  9
$CLAYER
  8
0
  9
$CELTYPE
  6
BYLAYER
  9
$CECOLOR
 62
   256
  9
$DIMSCALE
 40
0.0
  9
$DIMASZ
 40
3.0
  9
$DIMEXO
 40
1.5
  9
$DIMDLI
 40
10.0
  9
$DIMRND
 40
0.0
  9
$DIMDLE
 40
0.0
  9
$DIMEXE
 40
1.5
  9
$DIMTP
 40
0.0
  9
$DIMTM
 40
0.0
  9
$DIMTXT
 40
3.0
  9
$DIMCEN
 40
-5.0
  9
$DIMTSZ
 40
0.0
  9
$DIMTOL
 70
     0
  9
$DIMLIM
 70
     0
  9
$DIMTIH
 70
     0
  9
$DIMTOH
 70
     1
  9
$DIMSE1
 70
     0
  9
$DIMSE2
 70
     0
  9
$DIMTAD
 70
     1
  9
$DIMZIN
 70
     8
  9
$DIMBLK
  1

  9
$DIMASO
 70
     1
  9
$DIMSHO
 70
     1
  9
$DIMPOST
  1

  9
$DIMAPOST
  1

  9
$DIMALT
 70
     0
  9
$DIMALTD
 70
     0
  9
$DIMALTF
 40
25.399999999999999
  9
$DIMLFAC
 40
-1.0
  9
$DIMTOFL
 70
     1
  9
$DIMTVP
 40
0.0
  9
$DIMTIX
 70
     0
  9
$DIMSOXD
 70
     0
  9
$DIMSAH
 70
     0
  9
$DIMBLK1
  1

  9
$DIMBLK2
  1

  9
$DIMSTYLE
  2
MASKIN
  9
$DIMCLRD
 70
   256
  9
$DIMCLRE
 70
   256
  9
$DIMCLRT
 70
     2
  9
$DIMTFAC
 40
1.0
  9
$DIMGAP
 40
1.0
  9
$LUNITS
 70
     2
  9
$LUPREC
 70
     2
  9
$SKETCHINC
 40
0.1
  9
$FILLETRAD
 40
0.0
  9
$AUNITS
 70
     0
  9
$AUPREC
 70
     2
  9
$MENU
  1
ACAD
  9
$ELEVATION
 40
0.0
  9
$PELEVATION
 40
0.0
  9
$THICKNESS
 40
0.0
  9
$LIMCHECK
 70
     0
  9
$BLIPMODE
 70
     0
  9
$CHAMFERA
 40
0.0
  9
$CHAMFERB
 40
0.0
  9
$SKPOLY
 70
     0
  9
$TDCREATE
 40
2450148.50961632
  9
$TDUPDATE
 40
2455825.6905066441
  9
$TDINDWG
 40
0.3708022338
  9
$TDUSRTIMER
 40
0.3708022338
  9
$USRTIMER
 70
     1
  9
$ANGBASE
 50
0.0
  9
$ANGDIR
 70
     0
  9
$PDMODE
 70
     3
  9
$PDSIZE
 40
-5.0
  9
$PLINEWID
 40
0.0
  9
$COORDS
 70
     1
  9
$SPLFRAME
 70
     0
  9
$SPLINETYPE
 70
     6
  9
$SPLINESEGS
 70
     8
  9
$ATTDIA
 70
     0
  9
$ATTREQ
 70
     1
  9
$HANDLING
 70
     1
  9
$HANDSEED
  5
1D09
  9
$SURFTAB1
 70
     6
  9
$SURFTAB2
 70
     6
  9
$SURFTYPE
 70
     6
  9
$SURFU
 70
     6
  9
$SURFV
 70
     6
  9
$UCSNAME
  2

  9
$UCSORG
 10
0.0
 20
0.0
 30
0.0
  9
$UCSXDIR
 10
1.0
 20
0.0
 30
0.0
  9
$UCSYDIR
 10
0.0
 20
1.0
 30
0.0
  9
$PUCSNAME
  2

  9
$PUCSORG
 10
0.0
 20
0.0
 30
0.0
  9
$PUCSXDIR
 10
1.0
 20
0.0
 30
0.0
  9
$PUCSYDIR
 10
0.0
 20
1.0
 30
0.0
  9
$USERI1
 70
     0
  9
$USERI2
 70
     0
  9
$USERI3
 70
     0
  9
$USERI4
 70
     0
  9
$USERI5
 70
     0
  9
$USERR1
 40
0.0
  9
$USERR2
 40
0.0
  9
$USERR3
 40
0.0
  9
$USERR4
 40
0.0
  9
$USERR5
 40
0.0
  9
$WORLDVIEW
 70
     1
  9
$SHADEDGE
 70
     1
  9
$SHADEDIF
 70
    70
  9
$TILEMODE
 70
     1
  9
$MAXACTVP
 70
    16
  9
$PLIMCHECK
 70
     0
  9
$PEXTMIN
 10
3.7456423012465052
 20
-0.0043171380120839
 30
-0.0015258207003583
  9
$PEXTMAX
 10
188.45270920080051
 20
283.00283307759548
 30
0.0000000349246037
  9
$PLIMMIN
 10
-14.12592836160286
 20
-5.4102505909481797
  9
$PLIMMAX
 10
195.84739927511589
 20
291.55807216295813
  9
$UNITMODE
 70
     0
  9
$VISRETAIN
 70
     1
  9
$PLINEGEN
 70
     0
  9
$PSLTSCALE
 70
     1
  0
ENDSEC
  0
SECTION
  2
TABLES
  0
TABLE
  2
VPORT
 70
     1
  0
VPORT
  2
*ACTIVE
 70
     0
 10
0.0
 20
0.0
 11
1.0
 21
1.0
 12
86.954618331489698
 22
38.338669723983877
 13
0.0
 23
0.0
 14
5.0
 24
5.0
 15
10.0
 25
10.0
 16
0.0
 26
0.0
 36
1.0
 17
0.0
 27
0.0
 37
0.0
 40
171.38539486446231
 41
1.556552962298025
 42
50.0
 43
0.0
 44
0.0
 50
0.0
 51
0.0
 71
     0
 72
   100
 73
     1
 74
     0
 75
     0
 76
     0
 77
     0
 78
     1
  0
ENDTAB
  0
TABLE
  2
LTYPE
 70
    21
  0
LTYPE
  2
CONTINUOUS
 70
     0
  3
Solid line
 72
    65
 73
     0
 40
0.0
  0
LTYPE
  2
BYGG-014247$0$DASHDOT
 70
     0
  3
__ . __ . __ . __ . __ . __ . __ . __ . __ . __
 72
    65
 73
     4
 40
1.0
 49
0.5
 49
-0.25
 49
0.0
 49
-0.25
  0
LTYPE
  2
BYGG-014565$0$NEWDOT
 70
     0
  3
____ . ____ . ____ . ____ . ____ . ____ . ____
 72
    65
 73
     4
 40
2.0
 49
1.0
 49
-0.5
 49
0.0
 49
-0.5
  0
LTYPE
  2
BYGG-022308$0$NEWDOT
 70
     0
  3
____ . ____ . ____ . ____ . ____ . ____ . ____
 72
    65
 73
     4
 40
2.0
 49
1.0
 49
-0.5
 49
0.0
 49
-0.5
  0
LTYPE
  2
BYGG-022308$0$DASHDOT
 70
     0
  3
__ . __ . __ . __ . __ . __ . __ . __ . __ . __
 72
    65
 73
     4
 40
1.0
 49
0.5
 49
-0.25
 49
0.0
 49
-0.25
  0
LTYPE
  2
BYGG-022308$0$DASHED
 70
     0
  3
__ __ __ __ __ __ __ __ __ __ __ __ __ __ __
 72
    65
 73
     2
 40
0.75
 49
0.5
 49
-0.25
  0
LTYPE
  2
BYGG-022308$0$PHANTOM
 70
     0
  3
Phantom ______  __  __  ______  __  __  ______
 72
    65
 73
     6
 40
63.5
 49
31.75
 49
-6.3499999999999988
 49
6.3499999999999988
 49
-6.3499999999999988
 49
6.3499999999999988
 49
-6.3499999999999988
  0
LTYPE
  2
BYGG-014533$0$NEWDOT
 70
     0
  3
____ . ____ . ____ . ____ . ____ . ____ . ____
 72
    65
 73
     4
 40
2.0
 49
1.0
 49
-0.5
 49
0.0
 49
-0.5
  0
LTYPE
  2
BYGG-021997$0$NEWDOT
 70
     0
  3
____ . ____ . ____ . ____ . ____ . ____ . ____
 72
    65
 73
     4
 40
2.0
 49
1.0
 49
-0.5
 49
0.0
 49
-0.5
  0
LTYPE
  2
BYGG-021997$0$DASHDOT
 70
     0
  3
__ . __ . __ . __ . __ . __ . __ . __ . __ . __
 72
    65
 73
     4
 40
1.0
 49
0.5
 49
-0.25
 49
0.0
 49
-0.25
  0
LTYPE
  2
BYGG-021997$0$DASHED
 70
     0
  3
__ __ __ __ __ __ __ __ __ __ __ __ __ __ __
 72
    65
 73
     2
 40
0.75
 49
0.5
 49
-0.25
  0
LTYPE
  2
BYGG-021997$0$PHANTOM
 70
     0
  3
Phantom ______  __  __  ______  __  __  ______
 72
    65
 73
     6
 40
63.5
 49
31.75
 49
-6.3499999999999988
 49
6.3499999999999988
 49
-6.3499999999999988
 49
6.3499999999999988
 49
-6.3499999999999988
  0
LTYPE
  2
BYGG-026564$0$NEWDOT
 70
     0
  3
____ . ____ . ____ . ____ . ____ . ____ . ____
 72
    65
 73
     4
 40
2.0
 49
1.0
 49
-0.5
 49
0.0
 49
-0.5
  0
LTYPE
  2
BYGG-026564$0$DASHDOT
 70
     0
  3
__ . __ . __ . __ . __ . __ . __ . __ . __ . __
 72
    65
 73
     4
 40
1.0
 49
0.5
 49
-0.25
 49
0.0
 49
-0.25
  0
LTYPE
  2
BYGG-026564$0$DASHED
 70
     0
  3
__ __ __ __ __ __ __ __ __ __ __ __ __ __ __
 72
    65
 73
     2
 40
0.75
 49
0.5
 49
-0.25
  0
LTYPE
  2
BYGG-026564$0$PHANTOM
 70
     0
  3
Phantom ______  __  __  ______  __  __  ______
 72
    65
 73
     6
 40
63.5
 49
31.75
 49
-6.3499999999999988
 49
6.3499999999999988
 49
-6.3499999999999988
 49
6.3499999999999988
 49
-6.3499999999999988
  0
LTYPE
  2
BYGG-026564$0$HIDDEN
 70
     0
  3
_ _ _ _ _ _ _ _ _ _ _ _ _ _ _ _ _ _ _ _ _ _ _
 72
    65
 73
     2
 40
0.375
 49
0.25
 49
-0.125
  0
LTYPE
  2
BYGG-014565$0$ZIGZAG
 70
     0
  3
Zig zag /\/\/\/\/\/\/\/\/\/\/\/\/\/\/\/\/\/\/\/\/\/\/\/
 72
    65
 73
     4
 40
20.32254
 49
0.00254
 49
-5.0800000000000001
 49
-10.16
 49
-5.0800000000000001
  0
LTYPE
  2
BYGG-014533$0$ZIGZAG
 70
     0
  3
Zig zag /\/\/\/\/\/\/\/\/\/\/\/\/\/\/\/\/\/\/\/\/\/\/\/
 72
    65
 73
     4
 40
20.32254
 49
0.00254
 49
-5.0800000000000001
 49
-10.16
 49
-5.0800000000000001
  0
LTYPE
  2
BYGG-014203$0$ZIGZAG
 70
     0
  3
Zig zag /\/\/\/\/\/\/\/\/\/\/\/\/\/\/\/\/\/\/\/\/\/\/\/
 72
    65
 73
     4
 40
20.32254
 49
0.00254
 49
-5.0800000000000001
 49
-10.16
 49
-5.0800000000000001
  0
LTYPE
  2
BYGG-014203$0$NEWDOT
 70
     0
  3
____ . ____ . ____ . ____ . ____ . ____ . ____
 72
    65
 73
     4
 40
2.0
 49
1.0
 49
-0.5
 49
0.0
 49
-0.5
  0
ENDTAB
  0
TABLE
  2
LAYER
 70
   127
  0
LAYER
  2
0
 70
     0
 62
     7
  6
CONTINUOUS
  0
LAYER
  2
DEFPOINTS
 70
     0
 62
     7
  6
CONTINUOUS
  0
LAYER
  2
SAPA_PROFIL
 70
     0
 62
     7
  6
CONTINUOUS
  0
LAYER
  2
SAPA_ARTIKELNR
 70
     0
 62
     4
  6
CONTINUOUS
  0
LAYER
  2
SAPA_MATT
 70
     0
 62
     1
  6
CONTINUOUS
  0
LAYER
  2
SAPA_ANSLUTNING
 70
     0
 62
     6
  6
CONTINUOUS
  0
LAYER
  2
SAPA_LIGHT
 70
     1
 62
     1
  6
CONTINUOUS
  0
LAYER
  2
SAPA_GLAS
 70
     0
 62
     4
  6
CONTINUOUS
  0
LAYER
  2
SAPA_FOGBAND
 70
     0
 62
     2
  6
CONTINUOUS
  0
ENDTAB
  0
TABLE
  2
STYLE
 70
    21
  0
STYLE
  2
STANDARD
 70
     0
 40
0.0
 41
1.0
 50
0.0
 71
     0
 42
0.2
  3
txt
  4

  0
STYLE
  2
ISO
 70
     0
 40
0.0
 41
1.0
 50
0.0
 71
     0
 42
6.0
  3
isocp3.shx
  4

  0
STYLE
  2

 70
     1
 40
0.0
 41
1.0
 50
0.0
 71
     0
 42
0.2
  3
ltypeshp.shx
  4

  0
STYLE
  2
BYGG-021741$0$STANDARD
 70
     0
 40
0.0
 41
1.0
 50
0.0
 71
     0
 42
0.2
  3
txt
  4

  0
STYLE
  2
BYGG-014247$0$STANDARD
 70
     0
 40
0.0
 41
1.0
 50
0.0
 71
     0
 42
0.2
  3
txt
  4

  0
STYLE
  2
BYGG-014247$0$ISO
 70
     0
 40
0.0
 41
1.0
 50
0.0
 71
     0
 42
3.5
  3
isocp3.shx
  4

  0
STYLE
  2
BYGG-026564$0$STANDARD
 70
     0
 40
0.0
 41
1.0
 50
0.0
 71
     0
 42
0.2
  3
txt
  4

  0
STYLE
  2
BYGG-026564$0$ISO
 70
     0
 40
0.0
 41
1.0
 50
0.0
 71
     0
 42
3.5
  3
txt
  4

  0
STYLE
  2
BYGG-026564$0$SIMPLEX
 70
     0
 40
0.0
 41
1.0
 50
0.0
 71
     0
 42
0.4
  3
simplex
  4

  0
STYLE
  2
BYGG-022466$0$STANDARD
 70
     0
 40
0.0
 41
1.0
 50
0.0
 71
     0
 42
0.2
  3
txt
  4

  0
STYLE
  2
BYGG-022466$0$ISO
 70
     0
 40
0.0
 41
1.0
 50
0.0
 71
     0
 42
3.5
  3
txt
  4

  0
STYLE
  2
BYGG-014565$0$STANDARD
 70
     0
 40
0.0
 41
1.0
 50
0.0
 71
     0
 42
0.2
  3
isocp3.shx
  4

  0
STYLE
  2
BYGG-014565$0$ISO
 70
     0
 40
0.0
 41
1.0
 50
0.0
 71
     0
 42
3.5
  3
isocp3.shx
  4

  0
STYLE
  2
BYGG-022308$0$STANDARD
 70
     0
 40
0.0
 41
1.0
 50
0.0
 71
     0
 42
0.2
  3
txt
  4

  0
STYLE
  2
BYGG-022308$0$ISO
 70
     0
 40
0.0
 41
1.0
 50
0.0
 71
     0
 42
3.5
  3
txt
  4

  0
STYLE
  2
BYGG-014533$0$STANDARD
 70
     0
 40
0.0
 41
1.0
 50
0.0
 71
     0
 42
0.2
  3
txt
  4

  0
STYLE
  2
BYGG-014533$0$ISO
 70
     0
 40
0.0
 41
1.0
 50
0.0
 71
     0
 42
2.5
  3
isocp3.shx
  4

  0
STYLE
  2
BYGG-021997$0$STANDARD
 70
     0
 40
0.0
 41
1.0
 50
0.0
 71
     0
 42
0.2
  3
txt
  4

  0
STYLE
  2
BYGG-021997$0$ISO
 70
     0
 40
0.0
 41
1.0
 50
0.0
 71
     0
 42
3.5
  3
txt
  4

  0
STYLE
  2
BYGG-014203$0$STANDARD
 70
     0
 40
0.0
 41
1.0
 50
0.0
 71
     0
 42
0.2
  3
txt
  4

  0
STYLE
  2
BYGG-014203$0$ISO
 70
     0
 40
0.0
 41
1.0
 50
0.0
 71
     0
 42
3.5
  3
isocp3.shx
  4

  0
ENDTAB
  0
TABLE
  2
VIEW
 70
     0
  0
ENDTAB
  0
TABLE
  2
UCS
 70
     0
  0
ENDTAB
  0
TABLE
  2
APPID
 70
    16
  0
APPID
  2
ACAD
 70
     0
  0
APPID
  2
ACAD_DSTYLE_DIMTEXT_FILL
 70
     0
  0
APPID
  2
ACAECLAYERSTANDARD
 70
     0
  0
APPID
  2
ACAD_MLEADERVER
 70
     0
  0
APPID
  2
AMG_ARCHIVE11
 70
     0
  0
APPID
  2
ACAD_DSTYLE_DIMEXT_LENGTH
 70
     0
  0
APPID
  2
ACAD_DSTYLE_DIMEXT_ENABLED
 70
     0
  0
APPID
  2
ACAD_DSTYLE_DIM_LINETYPE
 70
     0
  0
APPID
  2
ACAD_DSTYLE_DIM_EXT1_LINETYPE
 70
     0
  0
APPID
  2
ACAD_DSTYLE_DIM_EXT2_LINETYPE
 70
     0
  0
APPID
  2
ACAD_PSEXT
 70
     0
  0
APPID
  2
ACAD_DSTYLE_DIMJOGGED_JOGA
 70
     0
  0
APPID
  2
ACAD_DSTYLE_DIMARC_LENGTH_
 70
     0
  0
APPID
  2
ACAD_EXEMPT_FROM_CAD_STANDARDS
 70
     0
  0
APPID
  2
ACADANNOTATIVE
 70
     0
  0
APPID
  2
AEC_XDATA_BOUND_SPACE
 70
     0
  0
ENDTAB
  0
TABLE
  2
DIMSTYLE
 70
    17
  0
DIMSTYLE
  2
MASKIN
 70
     0
  3

  4

  5

  6

  7

 40
0.0
 41
3.0
 42
1.5
 43
10.0
 44
1.5
 45
0.0
 46
0.0
 47
0.0
 48
0.0
140
3.0
141
-5.0
142
0.0
143
25.399999999999999
144
-1.0
145
0.0
146
1.0
147
1.0
 71
     0
 72
     0
 73
     0
 74
     1
 75
     0
 76
     0
 77
     1
 78
     8
170
     0
171
     0
172
     1
173
     0
174
     0
175
     0
176
   256
177
   256
178
     2
  0
DIMSTYLE
  2
BYGG-021741$0$STANDARD
 70
     0
  3

  4

  5

  6

  7

 40
1.0
 41
0.18
 42
0.0625
 43
0.38
 44
0.18
 45
0.0
 46
0.0
 47
0.0
 48
0.0
140
0.18
141
0.09
142
0.0
143
25.399999999999999
144
1.0
145
0.0
146
1.0
147
0.09
 71
     0
 72
     0
 73
     1
 74
     1
 75
     0
 76
     0
 77
     0
 78
     0
170
     0
171
     2
172
     0
173
     0
174
     0
175
     0
176
     0
177
     0
178
     0
  0
DIMSTYLE
  2
BYGG-014247$0$MASKIN
 70
     0
  3

  4

  5

  6

  7

 40
0.0
 41
3.0
 42
1.5
 43
10.0
 44
1.5
 45
0.0
 46
0.0
 47
0.0
 48
0.0
140
3.0
141
-5.0
142
0.0
143
25.399999999999999
144
-1.0
145
0.0
146
1.0
147
1.0
 71
     0
 72
     0
 73
     0
 74
     0
 75
     0
 76
     0
 77
     1
 78
     8
170
     0
171
     0
172
     1
173
     0
174
     0
175
     0
176
   256
177
   256
178
   256
  0
DIMSTYLE
  2
BYGG-026564$0$STANDARD
 70
     0
  3

  4

  5

  6

  7

 40
1.0
 41
0.18
 42
0.0625
 43
0.38
 44
0.18
 45
0.0
 46
0.0
 47
0.0
 48
0.0
140
0.18
141
0.09
142
0.0
143
25.399999999999999
144
1.0
145
0.0
146
1.0
147
0.09
 71
     0
 72
     0
 73
     1
 74
     1
 75
     0
 76
     0
 77
     0
 78
     0
170
     0
171
     2
172
     0
173
     0
174
     0
175
     0
176
     0
177
     0
178
     0
  0
DIMSTYLE
  2
BYGG-026564$0$MASKIN
 70
     0
  3

  4

  5

  6

  7

 40
0.0
 41
3.0
 42
1.5
 43
10.0
 44
1.5
 45
0.0
 46
0.0
 47
0.0
 48
0.0
140
3.0
141
-5.0
142
0.0
143
25.399999999999999
144
-1.0
145
0.0
146
1.0
147
1.0
 71
     0
 72
     0
 73
     0
 74
     0
 75
     0
 76
     0
 77
     1
 78
     8
170
     0
171
     0
172
     1
173
     0
174
     0
175
     0
176
   256
177
   256
178
     2
  0
DIMSTYLE
  2
BYGG-022466$0$MASKIN
 70
     0
  3

  4

  5

  6

  7

 40
0.0
 41
3.0
 42
1.5
 43
10.0
 44
1.5
 45
0.0
 46
0.0
 47
0.0
 48
0.0
140
3.0
141
-5.0
142
0.0
143
25.399999999999999
144
-1.0
145
0.0
146
1.0
147
1.0
 71
     0
 72
     0
 73
     0
 74
     0
 75
     0
 76
     0
 77
     1
 78
     8
170
     0
171
     0
172
     1
173
     0
174
     0
175
     0
176
   256
177
   256
178
     2
  0
DIMSTYLE
  2
BYGG-022466$0$STANDARD
 70
     0
  3

  4

  5

  6

  7

 40
1.0
 41
0.18
 42
0.0625
 43
0.38
 44
0.18
 45
0.0
 46
0.0
 47
0.0
 48
0.0
140
0.18
141
0.09
142
0.0
143
25.399999999999999
144
1.0
145
0.0
146
1.0
147
0.09
 71
     0
 72
     0
 73
     1
 74
     1
 75
     0
 76
     0
 77
     0
 78
     0
170
     0
171
     2
172
     0
173
     0
174
     0
175
     0
176
     0
177
     0
178
     0
  0
DIMSTYLE
  2
BYGG-014565$0$STANDARD
 70
     0
  3

  4

  5

  6

  7

 40
1.0
 41
0.18
 42
0.0625
 43
0.38
 44
0.18
 45
0.0
 46
0.0
 47
0.0
 48
0.0
140
0.18
141
0.09
142
0.0
143
25.399999999999999
144
1.0
145
0.0
146
1.0
147
0.09
 71
     0
 72
     0
 73
     1
 74
     1
 75
     0
 76
     0
 77
     0
 78
     0
170
     0
171
     2
172
     0
173
     0
174
     0
175
     0
176
     0
177
     0
178
     0
  0
DIMSTYLE
  2
BYGG-014565$0$MASKIN
 70
     0
  3

  4

  5

  6

  7

 40
0.0
 41
3.0
 42
1.5
 43
10.0
 44
1.5
 45
0.0
 46
0.0
 47
0.0
 48
0.0
140
3.0
141
-5.0
142
0.0
143
25.399999999999999
144
-1.0
145
0.0
146
1.0
147
1.0
 71
     0
 72
     0
 73
     0
 74
     0
 75
     0
 76
     0
 77
     1
 78
     8
170
     0
171
     0
172
     1
173
     0
174
     0
175
     0
176
   256
177
   256
178
     2
  0
DIMSTYLE
  2
BYGG-022308$0$STANDARD
 70
     0
  3

  4

  5

  6

  7

 40
1.0
 41
0.18
 42
0.0625
 43
0.38
 44
0.18
 45
0.0
 46
0.0
 47
0.0
 48
0.0
140
0.18
141
0.09
142
0.0
143
25.399999999999999
144
1.0
145
0.0
146
1.0
147
0.09
 71
     0
 72
     0
 73
     1
 74
     1
 75
     0
 76
     0
 77
     0
 78
     0
170
     0
171
     2
172
     0
173
     0
174
     0
175
     0
176
     0
177
     0
178
     0
  0
DIMSTYLE
  2
BYGG-022308$0$MASKIN
 70
     0
  3

  4

  5

  6

  7

 40
0.0
 41
3.0
 42
1.5
 43
10.0
 44
1.5
 45
0.0
 46
0.0
 47
0.0
 48
0.0
140
3.0
141
-5.0
142
0.0
143
25.399999999999999
144
-1.0
145
0.0
146
1.0
147
1.0
 71
     0
 72
     0
 73
     0
 74
     0
 75
     0
 76
     0
 77
     1
 78
     8
170
     0
171
     0
172
     1
173
     0
174
     0
175
     0
176
   256
177
   256
178
     2
  0
DIMSTYLE
  2
BYGG-014533$0$STANDARD
 70
     0
  3

  4

  5

  6

  7

 40
1.0
 41
0.18
 42
0.0625
 43
0.38
 44
0.18
 45
0.0
 46
0.0
 47
0.0
 48
0.0
140
0.18
141
0.09
142
0.0
143
25.399999999999999
144
1.0
145
0.0
146
1.0
147
0.09
 71
     0
 72
     0
 73
     1
 74
     1
 75
     0
 76
     0
 77
     0
 78
     0
170
     0
171
     2
172
     0
173
     0
174
     0
175
     0
176
     0
177
     0
178
     0
  0
DIMSTYLE
  2
BYGG-014533$0$MASKIN
 70
     0
  3

  4

  5

  6

  7

 40
0.0
 41
3.0
 42
1.5
 43
10.0
 44
1.5
 45
0.0
 46
0.0
 47
0.0
 48
0.0
140
3.0
141
-5.0
142
0.0
143
25.399999999999999
144
-1.0
145
0.0
146
1.0
147
1.0
 71
     0
 72
     0
 73
     0
 74
     1
 75
     0
 76
     0
 77
     1
 78
     8
170
     0
171
     0
172
     1
173
     0
174
     0
175
     0
176
   256
177
   256
178
     2
  0
DIMSTYLE
  2
BYGG-021997$0$STANDARD
 70
     0
  3

  4

  5

  6

  7

 40
1.0
 41
0.18
 42
0.0625
 43
0.38
 44
0.18
 45
0.0
 46
0.0
 47
0.0
 48
0.0
140
0.18
141
0.09
142
0.0
143
25.399999999999999
144
1.0
145
0.0
146
1.0
147
0.09
 71
     0
 72
     0
 73
     1
 74
     1
 75
     0
 76
     0
 77
     0
 78
     0
170
     0
171
     2
172
     0
173
     0
174
     0
175
     0
176
     0
177
     0
178
     0
  0
DIMSTYLE
  2
BYGG-021997$0$MASKIN
 70
     0
  3

  4

  5

  6

  7

 40
0.0
 41
3.0
 42
1.5
 43
10.0
 44
1.5
 45
0.0
 46
0.0
 47
0.0
 48
0.0
140
3.0
141
-5.0
142
0.0
143
25.399999999999999
144
-1.0
145
0.0
146
1.0
147
1.0
 71
     0
 72
     0
 73
     0
 74
     0
 75
     0
 76
     0
 77
     1
 78
     8
170
     0
171
     0
172
     1
173
     0
174
     0
175
     0
176
   256
177
   256
178
     2
  0
DIMSTYLE
  2
BYGG-014203$0$STANDARD
 70
     0
  3

  4

  5

  6

  7

 40
1.0
 41
0.18
 42
0.0625
 43
0.38
 44
0.18
 45
0.0
 46
0.0
 47
0.0
 48
0.0
140
0.18
141
0.09
142
0.0
143
25.399999999999999
144
1.0
145
0.0
146
1.0
147
0.09
 71
     0
 72
     0
 73
     1
 74
     1
 75
     0
 76
     0
 77
     0
 78
     0
170
     0
171
     2
172
     0
173
     0
174
     0
175
     0
176
     0
177
     0
178
     0
  0
DIMSTYLE
  2
BYGG-014203$0$MASKIN
 70
     0
  3

  4

  5

  6

  7

 40
0.0
 41
3.0
 42
1.5
 43
10.0
 44
1.5
 45
0.0
 46
0.0
 47
0.0
 48
0.0
140
3.0
141
-5.0
142
0.0
143
25.399999999999999
144
-1.0
145
0.0
146
1.0
147
1.0
 71
     0
 72
     0
 73
     0
 74
     0
 75
     0
 76
     0
 77
     1
 78
     8
170
     0
171
     0
172
     1
173
     0
174
     0
175
     0
176
   256
177
   256
178
   256
  0
ENDTAB
  0
ENDSEC
  0
SECTION
  2
BLOCKS
  0
BLOCK
  8
0
  2
$MODEL_SPACE
 70
     0
 10
0.0
 20
0.0
 30
0.0
  3
$MODEL_SPACE
  1

  0
ENDBLK
  5
9
  8
0
  0
BLOCK
 67
     1
  8
0
  2
$PAPER_SPACE
 70
     0
 10
0.0
 20
0.0
 30
0.0
  3
$PAPER_SPACE
  1

  0
ENDBLK
  5
E
 67
     1
  8
0
  0
BLOCK
  8
SAPA_PROFIL
  2
*D0
 70
     1
 10
0.0
 20
0.0
 30
0.0
  3
*D0
  1

  0
LINE
  5
D99
  8
SAPA_MATT
 10
179.07999999999959
 20
-9.899999999999979
 30
0.0
 11
179.07999999999959
 21
-46.900000000000112
 31
0.0
  0
LINE
  5
D9A
  8
SAPA_MATT
 10
-16.06000000000024
 20
-9.4000000000001052
 30
0.0
 11
-16.06000000000024
 21
-46.900000000000112
 31
0.0
  0
LINE
  5
D9B
  8
SAPA_MATT
 10
176.07999999999959
 20
-45.400000000000119
 30
0.0
 11
-13.06000000000024
 21
-45.400000000000119
 31
0.0
  0
SOLID
  5
D9C
  8
SAPA_MATT
 10
176.07999999999959
 20
-44.900000000000112
 30
0.0
 11
176.07999999999959
 21
-45.900000000000119
 31
0.0
 12
179.07999999999959
 22
-45.400000000000119
 32
0.0
 13
179.07999999999959
 23
-45.400000000000119
 33
0.0
  0
SOLID
  5
D9D
  8
SAPA_MATT
 10
-13.06000000000024
 20
-44.900000000000112
 30
0.0
 11
-13.06000000000024
 21
-45.900000000000119
 31
0.0
 12
-16.06000000000024
 22
-45.400000000000119
 32
0.0
 13
-16.06000000000024
 23
-45.400000000000119
 33
0.0
  0
INSERT
  5
D9E
  8
0
  2
*U65
 10
0.0
 20
0.0
 30
0.0
  0
POINT
  5
D9F
  8
DEFPOINTS
 62
     0
 10
179.07999999999959
 20
-8.399999999999979
 30
0.0
  0
POINT
  5
DA0
  8
DEFPOINTS
 62
     0
 10
-16.06000000000024
 20
-7.9000000000001043
 30
0.0
  0
POINT
  5
DA1
  8
DEFPOINTS
 62
     0
 10
-16.06000000000024
 20
-45.400000000000119
 30
0.0
  0
ENDBLK
  5
1FF
  8
SAPA_PROFIL
  0
BLOCK
  8
0
  2
*D1
 70
     1
 10
0.0
 20
0.0
 30
0.0
  3
*D1
  1

  0
LINE
  5
DA2
  8
SAPA_MATT
 10
190.57616232240639
 20
-13.400000000000089
 30
0.0
 11
206.02975283955939
 21
-13.400000000000089
 31
0.0
  0
LINE
  5
DA3
  8
SAPA_MATT
 10
190.57616232240639
 20
46.599999999999909
 30
0.0
 11
206.02975283955939
 21
46.599999999999909
 31
0.0
  0
LINE
  5
DA4
  8
SAPA_MATT
 10
204.52975283955939
 20
-10.400000000000089
 30
0.0
 11
204.52975283955939
 21
43.599999999999909
 31
0.0
  0
SOLID
  5
DA5
  8
SAPA_MATT
 10
204.02975283955939
 20
-10.400000000000089
 30
0.0
 11
205.02975283955939
 21
-10.400000000000089
 31
0.0
 12
204.52975283955939
 22
-13.400000000000089
 32
0.0
 13
204.52975283955939
 23
-13.400000000000089
 33
0.0
  0
SOLID
  5
DA6
  8
SAPA_MATT
 10
204.02975283955939
 20
43.599999999999909
 30
0.0
 11
205.02975283955939
 21
43.599999999999909
 31
0.0
 12
204.52975283955939
 22
46.599999999999909
 32
0.0
 13
204.52975283955939
 23
46.599999999999909
 33
0.0
  0
INSERT
  5
DA7
  8
0
  2
*U66
 10
0.0
 20
0.0
 30
0.0
  0
POINT
  5
DA8
  8
DEFPOINTS
 62
     0
 10
189.07616232240639
 20
-13.400000000000089
 30
0.0
  0
POINT
  5
DA9
  8
DEFPOINTS
 62
     0
 10
189.07616232240639
 20
46.599999999999909
 30
0.0
  0
POINT
  5
DAA
  8
DEFPOINTS
 62
     0
 10
204.52975283955939
 20
46.599999999999909
 30
0.0
  0
ENDBLK
  5
32C
  8
0
  0
BLOCK
  8
0
  2
*D60
 70
     1
 10
0.0
 20
0.0
 30
0.0
  3
*D60
  1

  0
LINE
  5
11C8
  8
SAPA_MATT
 10
-15.92000000000059
 20
-9.3999999999999631
 30
0.0
 11
-15.92000000000059
 21
-34.900000000000112
 31
0.0
  0
LINE
  5
11C9
  8
SAPA_MATT
 10
104.0799999999996
 20
-10.48578643762662
 30
0.0
 11
104.0799999999996
 21
-34.900000000000112
 31
0.0
  0
LINE
  5
11CA
  8
SAPA_MATT
 10
-12.92000000000059
 20
-33.400000000000098
 30
0.0
 11
101.0799999999996
 21
-33.400000000000098
 31
0.0
  0
SOLID
  5
11CB
  8
SAPA_MATT
 10
-12.92000000000059
 20
-32.900000000000112
 30
0.0
 11
-12.92000000000059
 21
-33.900000000000112
 31
0.0
 12
-15.92000000000059
 22
-33.400000000000098
 32
0.0
 13
-15.92000000000059
 23
-33.400000000000098
 33
0.0
  0
SOLID
  5
11CC
  8
SAPA_MATT
 10
101.0799999999996
 20
-32.900000000000112
 30
0.0
 11
101.0799999999996
 21
-33.900000000000112
 31
0.0
 12
104.0799999999996
 22
-33.400000000000098
 32
0.0
 13
104.0799999999996
 23
-33.400000000000098
 33
0.0
  0
INSERT
  5
11CD
  8
0
  2
*U98
 10
0.0
 20
0.0
 30
0.0
  0
POINT
  5
11CE
  8
DEFPOINTS
 62
     0
 10
-15.92000000000059
 20
-7.8999999999999622
 30
0.0
  0
POINT
  5
11CF
  8
DEFPOINTS
 62
     0
 10
104.0799999999996
 20
-8.9857864376266203
 30
0.0
  0
POINT
  5
11D0
  8
DEFPOINTS
 62
     0
 10
104.0799999999996
 20
-33.400000000000098
 30
0.0
  0
ENDBLK
  5
1194
  8
0
  0
BLOCK
  8
0
  2
*D61
 70
     1
 10
0.0
 20
0.0
 30
0.0
  3
*D61
  1

  0
LINE
  5
11BF
  8
SAPA_MATT
 10
104.0799999999996
 20
-10.48578643762662
 30
0.0
 11
104.0799999999996
 21
-34.900000000000098
 31
0.0
  0
LINE
  5
11C0
  8
SAPA_MATT
 10
134.07999999999981
 20
-9.8999999999999524
 30
0.0
 11
134.07999999999981
 21
-34.900000000000098
 31
0.0
  0
LINE
  5
11C1
  8
SAPA_MATT
 10
107.0799999999996
 20
-33.400000000000098
 30
0.0
 11
131.07999999999981
 21
-33.400000000000098
 31
0.0
  0
SOLID
  5
11C2
  8
SAPA_MATT
 10
107.0799999999996
 20
-32.900000000000098
 30
0.0
 11
107.0799999999996
 21
-33.900000000000098
 31
0.0
 12
104.0799999999996
 22
-33.400000000000098
 32
0.0
 13
104.0799999999996
 23
-33.400000000000098
 33
0.0
  0
SOLID
  5
11C3
  8
SAPA_MATT
 10
131.07999999999981
 20
-32.900000000000098
 30
0.0
 11
131.07999999999981
 21
-33.900000000000098
 31
0.0
 12
134.07999999999981
 22
-33.400000000000098
 32
0.0
 13
134.07999999999981
 23
-33.400000000000098
 33
0.0
  0
INSERT
  5
11C4
  8
0
  2
*U97
 10
0.0
 20
0.0
 30
0.0
  0
POINT
  5
11C5
  8
DEFPOINTS
 62
     0
 10
104.0799999999996
 20
-8.9857864376266203
 30
0.0
  0
POINT
  5
11C6
  8
DEFPOINTS
 62
     0
 10
134.07999999999981
 20
-8.3999999999999524
 30
0.0
  0
POINT
  5
11C7
  8
DEFPOINTS
 62
     0
 10
134.07999999999981
 20
-33.400000000000098
 30
0.0
  0
ENDBLK
  5
11A0
  8
0
  0
BLOCK
  8
0
  2
*D62
 70
     1
 10
0.0
 20
0.0
 30
0.0
  3
*D62
  1

  0
LINE
  5
11B6
  8
SAPA_MATT
 10
134.07999999999981
 20
-9.8999999999999524
 30
0.0
 11
134.07999999999981
 21
-34.900000000000091
 31
0.0
  0
LINE
  5
11B7
  8
SAPA_MATT
 10
179.0799999999999
 20
-8.3999999999998902
 30
0.0
 11
179.0799999999999
 21
-34.900000000000091
 31
0.0
  0
LINE
  5
11B8
  8
SAPA_MATT
 10
137.07999999999981
 20
-33.400000000000091
 30
0.0
 11
176.07999999999981
 21
-33.400000000000091
 31
0.0
  0
SOLID
  5
11B9
  8
SAPA_MATT
 10
137.07999999999981
 20
-32.900000000000091
 30
0.0
 11
137.07999999999981
 21
-33.900000000000091
 31
0.0
 12
134.07999999999981
 22
-33.400000000000091
 32
0.0
 13
134.07999999999981
 23
-33.400000000000091
 33
0.0
  0
SOLID
  5
11BA
  8
SAPA_MATT
 10
176.07999999999981
 20
-32.900000000000091
 30
0.0
 11
176.07999999999981
 21
-33.900000000000091
 31
0.0
 12
179.0799999999999
 22
-33.400000000000091
 32
0.0
 13
179.0799999999999
 23
-33.400000000000091
 33
0.0
  0
INSERT
  5
11BB
  8
0
  2
*U96
 10
0.0
 20
0.0
 30
0.0
  0
POINT
  5
11BC
  8
DEFPOINTS
 62
     0
 10
134.07999999999981
 20
-8.3999999999999524
 30
0.0
  0
POINT
  5
11BD
  8
DEFPOINTS
 62
     0
 10
179.0799999999999
 20
-6.899999999999892
 30
0.0
  0
POINT
  5
11BE
  8
DEFPOINTS
 62
     0
 10
179.0799999999999
 20
-33.400000000000091
 30
0.0
  0
ENDBLK
  5
11AC
  8
0
  0
BLOCK
  8
0
  2
*X63
 70
     1
 10
0.0
 20
0.0
 30
0.0
  3
*X63
  1

  0
LINE
  5
1210
  8
0
 62
     0
 10
187.8767073152853
 20
-8.2251174677561494
 30
0.0
 11
188.0893148713586
 21
-8.1023684380255094
 31
0.0
  0
LINE
  5
1211
  8
0
 62
     0
 10
186.5737704145472
 20
-7.2273684376987992
 30
0.0
 11
187.33154264285861
 21
-6.7898684376988001
 31
0.0
  0
LINE
  5
1212
  8
0
 62
     0
 10
184.84561840128529
 20
-8.2251174677561778
 30
0.0
 11
185.05822595792449
 21
-8.1023684376988019
 31
0.0
  0
LINE
  5
1213
  8
0
 62
     0
 10
188.08931487098141
 20
-4.602368437372033
 30
0.0
 11
188.5764983806898
 21
-4.3210929068971478
 31
0.0
  0
LINE
  5
1214
  8
0
 62
     0
 10
185.81599818604721
 20
-5.914868437372033
 30
0.0
 11
186.57377041435859
 21
-5.4773684373720348
 31
0.0
  0
LINE
  5
1215
  8
0
 62
     0
 10
183.54268150111309
 20
-7.2273684373720339
 30
0.0
 11
184.3004537294245
 21
-6.7898684373720357
 31
0.0
  0
LINE
  5
1216
  8
0
 62
     0
 10
181.8145294872854
 20
-8.2251174677560925
 30
0.0
 11
182.0271370444903
 21
-8.1023684373720375
 31
0.0
  0
LINE
  5
1217
  8
0
 62
     0
 10
187.33154264248139
 20
-3.2898684370454392
 30
0.0
 11
188.0893148707928
 21
-2.8523684370454401
 31
0.0
  0
LINE
  5
1218
  8
0
 62
     0
 10
185.05822595754719
 20
-4.6023684370454401
 30
0.0
 11
185.8159981858586
 21
-4.164868437045441
 31
0.0
  0
LINE
  5
1219
  8
0
 62
     0
 10
182.78490927261311
 20
-5.9148684370454401
 30
0.0
 11
183.54268150092449
 21
-5.4773684370454419
 31
0.0
  0
LINE
  5
121A
  8
0
 62
     0
 10
180.5115925876789
 20
-7.227368437045441
 30
0.0
 11
181.26936481599029
 21
-6.7898684370454427
 31
0.0
  0
LINE
  5
121B
  8
0
 62
     0
 10
186.57377041398141
 20
-1.9773684367187321
 30
0.0
 11
187.3315426422927
 21
-1.539868436718733
 31
0.0
  0
LINE
  5
121C
  8
0
 62
     0
 10
184.30045372904721
 20
-3.2898684367187321
 30
0.0
 11
185.05822595735859
 21
-2.8523684367187339
 31
0.0
  0
LINE
  5
121D
  8
0
 62
     0
 10
182.02713704411309
 20
-4.6023684367187334
 30
0.0
 11
182.78490927242439
 21
-4.1648684367187352
 31
0.0
  0
LINE
  5
121E
  8
0
 62
     0
 10
179.75382035917889
 20
-5.9148684367187343
 30
0.0
 11
180.5115925874903
 21
-5.4773684367187361
 31
0.0
  0
LINE
  5
121F
  8
0
 62
     0
 10
188.08931487041551
 20
0.6476315636079764
 30
0.0
 11
188.57649838068991
 21
0.9289070944095969
 31
0.0
  0
LINE
  5
1220
  8
0
 62
     0
 10
185.81599818548139
 20
-0.6648684363920246
 30
0.0
 11
186.5737704137928
 21
-0.2273684363920261
 31
0.0
  0
LINE
  5
1221
  8
0
 62
     0
 10
183.5426815005473
 20
-1.977368436392025
 30
0.0
 11
184.3004537288586
 21
-1.5398684363920261
 31
0.0
  0
LINE
  5
1222
  8
0
 62
     0
 10
181.2693648156131
 20
-3.2898684363920259
 30
0.0
 11
182.02713704392451
 21
-2.8523684363920272
 31
0.0
  0
LINE
  5
1223
  8
0
 62
     0
 10
179.00603541296181
 20
-4.5966022762775358
 30
0.0
 11
179.75382035899031
 21
-4.1648684363920276
 31
0.0
  0
LINE
  5
1224
  8
0
 62
     0
 10
185.05822595698129
 20
0.6476315639346546
 30
0.0
 11
185.8159981852927
 21
1.0851315639346539
 31
0.0
  0
LINE
  5
1225
  8
0
 62
     0
 10
182.7849092720472
 20
-0.6648684360653463
 30
0.0
 11
183.54268150035861
 21
-0.2273684360653461
 31
0.0
  0
LINE
  5
1226
  8
0
 62
     0
 10
180.51159258711311
 20
-1.977368436065347
 30
0.0
 11
181.26936481542441
 21
-1.5398684360653461
 31
0.0
  0
LINE
  5
1227
  8
0
 62
     0
 10
178.23827590217891
 20
-3.2898684360653481
 30
0.0
 11
178.99604813049029
 21
-2.8523684360653472
 31
0.0
  0
LINE
  5
1228
  8
0
 62
     0
 10
175.96495921724471
 20
-4.602368436065376
 30
0.0
 11
176.72273144555609
 21
-4.164868436065376
 31
0.0
  0
LINE
  5
1229
  8
0
 62
     0
 10
182.02713704354721
 20
0.6476315642613622
 30
0.0
 11
182.7849092718586
 21
1.085131564261361
 31
0.0
  0
LINE
  5
122A
  8
0
 62
     0
 10
179.7538203586131
 20
-0.6648684357386389
 30
0.0
 11
180.51159258692451
 21
-0.2273684357386394
 31
0.0
  0
LINE
  5
122B
  8
0
 62
     0
 10
177.48050367367901
 20
-1.977368435738639
 30
0.0
 11
178.23827590199031
 21
-1.5398684357386401
 31
0.0
  0
LINE
  5
122C
  8
0
 62
     0
 10
175.20718698874481
 20
-3.2898684357386401
 30
0.0
 11
175.96495921705619
 21
-2.8523684357386401
 31
0.0
  0
LINE
  5
122D
  8
0
 62
     0
 10
178.99604813011311
 20
0.6476315645880688
 30
0.0
 11
179.75382035842449
 21
1.0851315645880679
 31
0.0
  0
LINE
  5
122E
  8
0
 62
     0
 10
176.72273144517899
 20
-0.6648684354119321
 30
0.0
 11
177.48050367349029
 21
-0.2273684354119325
 31
0.0
  0
LINE
  5
122F
  8
0
 62
     0
 10
174.5764983806898
 20
-1.903996672938461
 30
0.0
 11
175.2071869885562
 21
-1.539868435411933
 31
0.0
  0
LINE
  5
1230
  8
0
 62
     0
 10
175.96495921667901
 20
0.6476315649147466
 30
0.0
 11
176.7227314449903
 21
1.0851315649147459
 31
0.0
  0
LINE
  5
1231
  8
0
 62
     0
 10
188.08931486702051
 20
32.147631569488482
 30
0.0
 11
188.38295855446421
 21
32.317166831479973
 31
0.0
  0
LINE
  5
1232
  8
0
 62
     0
 10
185.8159981820863
 20
30.835131569488482
 30
0.0
 11
186.57377041039771
 21
31.272631569488482
 31
0.0
  0
LINE
  5
1233
  8
0
 62
     0
 10
187.3315426385204
 20
33.460131569815111
 30
0.0
 11
188.08931486683181
 21
33.897631569815111
 31
0.0
  0
LINE
  5
1234
  8
0
 62
     0
 10
185.0582259535862
 20
32.147631569815097
 30
0.0
 11
185.81599818189761
 21
32.585131569815111
 31
0.0
  0
LINE
  5
1235
  8
0
 62
     0
 10
182.78490926865209
 20
30.835131569815101
 30
0.0
 11
183.5426814969635
 21
31.272631569815111
 31
0.0
  0
LINE
  5
1236
  8
0
 62
     0
 10
181.2092758395892
 20
29.925439185401469
 30
0.0
 11
181.26936481202929
 21
29.960131569815101
 31
0.0
  0
LINE
  5
1237
  8
0
 62
     0
 10
186.5737704100205
 20
34.772631570141868
 30
0.0
 11
187.3315426383318
 21
35.210131570141868
 31
0.0
  0
LINE
  5
1238
  8
0
 62
     0
 10
184.3004537250863
 20
33.460131570141868
 30
0.0
 11
185.05822595339771
 21
33.897631570141868
 31
0.0
  0
LINE
  5
1239
  8
0
 62
     0
 10
182.02713704015221
 20
32.147631570141868
 30
0.0
 11
182.78490926846351
 21
32.585131570141868
 31
0.0
  0
LINE
  5
123A
  8
0
 62
     0
 10
179.75382035521801
 20
30.835131570141868
 30
0.0
 11
180.51159258352939
 21
31.272631570141868
 31
0.0
  0
LINE
  5
123B
  8
0
 62
     0
 10
185.8159981815204
 20
36.085131570468491
 30
0.0
 11
186.57377040983181
 21
36.522631570468491
 31
0.0
  0
LINE
  5
123C
  8
0
 62
     0
 10
183.5426814965862
 20
34.772631570468491
 30
0.0
 11
184.30045372489761
 21
35.210131570468491
 31
0.0
  0
LINE
  5
123D
  8
0
 62
     0
 10
181.26936481165211
 20
33.460131570468491
 30
0.0
 11
182.02713703996349
 21
33.897631570468491
 31
0.0
  0
LINE
  5
123E
  8
0
 62
     0
 10
178.99604812671799
 20
32.147631570468491
 30
0.0
 11
179.7538203550294
 21
32.585131570468491
 31
0.0
  0
LINE
  5
123F
  8
0
 62
     0
 10
176.76027782212881
 20
30.85680898326774
 30
0.0
 11
177.4805036700952
 21
31.272631570468491
 31
0.0
  0
LINE
  5
1240
  8
0
 62
     0
 10
182.78490926808621
 20
36.085131570795198
 30
0.0
 11
183.54268149639759
 21
36.522631570795198
 31
0.0
  0
LINE
  5
1241
  8
0
 62
     0
 10
180.51159258315209
 20
34.772631570795198
 30
0.0
 11
181.2693648114635
 21
35.210131570795198
 31
0.0
  0
LINE
  5
1242
  8
0
 62
     0
 10
178.23827589821801
 20
33.460131570795198
 30
0.0
 11
178.9960481265293
 21
33.897631570795198
 31
0.0
  0
LINE
  5
1243
  8
0
 62
     0
 10
175.96495921328381
 20
32.147631570795198
 30
0.0
 11
176.72273144159519
 21
32.585131570795198
 31
0.0
  0
LINE
  5
1244
  8
0
 62
     0
 10
182.02713703958619
 20
37.397631571121877
 30
0.0
 11
182.5690425739383
 21
37.710500877255441
 31
0.0
  0
LINE
  5
1245
  8
0
 62
     0
 10
179.75382035465211
 20
36.085131571121877
 30
0.0
 11
180.5115925829634
 21
36.522631571121877
 31
0.0
  0
LINE
  5
1246
  8
0
 62
     0
 10
177.4805036697179
 20
34.772631571121877
 30
0.0
 11
178.23827589802929
 21
35.210131571121877
 31
0.0
  0
LINE
  5
1247
  8
0
 62
     0
 10
175.20718698478379
 20
33.460131571121877
 30
0.0
 11
175.9649592130952
 21
33.897631571121877
 31
0.0
  0
LINE
  5
1248
  8
0
 62
     0
 10
178.99604812615209
 20
37.397631571448613
 30
0.0
 11
179.2662187228548
 21
37.55361463818199
 31
0.0
  0
LINE
  5
1249
  8
0
 62
     0
 10
176.722731441218
 20
36.085131571448613
 30
0.0
 11
177.48050366952941
 21
36.52263157144862
 31
0.0
  0
LINE
  5
124A
  8
0
 62
     0
 10
174.44941475628389
 20
34.772631571448613
 30
0.0
 11
175.20718698459521
 21
35.210131571448613
 31
0.0
  0
LINE
  5
124B
  8
0
 62
     0
 10
174.6004113241394
 20
-5.5645462174265692
 30
0.0
 11
175.2071870066633
 21
-5.9148683210694051
 31
0.0
  0
LINE
  5
124C
  8
0
 62
     0
 10
182.0271370616542
 20
-8.1023683207427286
 30
0.0
 11
182.23974482086729
 21
-8.2251174677562062
 31
0.0
  0
LINE
  5
124D
  8
0
 62
     0
 10
179.75382037672011
 20
-6.7898683207427277
 30
0.0
 11
180.5115926050315
 21
-7.2273683207427259
 31
0.0
  0
LINE
  5
124E
  8
0
 62
     0
 10
175.20718700685191
 20
-4.1648683207427561
 30
0.0
 11
175.96495923516329
 21
-4.6023683207427544
 31
0.0
  0
LINE
  5
124F
  8
0
 62
     0
 10
185.05822597508839
 20
-8.1023683204160193
 30
0.0
 11
185.27083373486749
 21
-8.2251174677562631
 31
0.0
  0
LINE
  5
1250
  8
0
 62
     0
 10
182.78490929015419
 20
-6.7898683204160193
 30
0.0
 11
183.5426815184656
 21
-7.2273683204160184
 31
0.0
  0
LINE
  5
1251
  8
0
 62
     0
 10
180.5115926052201
 20
-5.4773683204160202
 30
0.0
 11
181.26936483353151
 21
-5.9148683204160193
 31
0.0
  0
LINE
  5
1252
  8
0
 62
     0
 10
175.96495923535181
 20
-2.8523683204160482
 30
0.0
 11
176.72273146366319
 21
-3.2898683204160468
 31
0.0
  0
LINE
  5
1253
  8
0
 62
     0
 10
188.08931488852261
 20
-8.1023683200893366
 30
0.0
 11
188.30192264886739
 21
-8.2251174677562027
 31
0.0
  0
LINE
  5
1254
  8
0
 62
     0
 10
185.81599820358849
 20
-6.7898683200893357
 30
0.0
 11
186.5737704318999
 21
-7.2273683200893357
 31
0.0
  0
LINE
  5
1255
  8
0
 62
     0
 10
183.54268151865429
 20
-5.4773683200893366
 30
0.0
 11
184.3004537469657
 21
-5.9148683200893366
 31
0.0
  0
LINE
  5
1256
  8
0
 62
     0
 10
181.2693648337202
 20
-4.1648683200893384
 30
0.0
 11
182.02713706203161
 21
-4.6023683200893384
 31
0.0
  0
LINE
  5
1257
  8
0
 62
     0
 10
178.996048148786
 20
-2.8523683200893388
 30
0.0
 11
179.75382037709741
 21
-3.2898683200893388
 31
0.0
  0
LINE
  5
1258
  8
0
 62
     0
 10
176.72273146385189
 20
-1.5398683200893399
 30
0.0
 11
177.4805036921633
 21
-1.9773683200893399
 31
0.0
  0
LINE
  5
1259
  8
0
 62
     0
 10
174.57649838068971
 20
-0.3007400717819753
 30
0.0
 11
175.20718700722909
 21
-0.6648683200893421
 31
0.0
  0
LINE
  5
125A
  8
0
 62
     0
 10
186.57377043208839
 20
-5.4773683197626557
 30
0.0
 11
187.3315426603998
 21
-5.9148683197626557
 31
0.0
  0
LINE
  5
125B
  8
0
 62
     0
 10
184.30045374715431
 20
-4.1648683197626566
 30
0.0
 11
185.05822597546569
 21
-4.6023683197626566
 31
0.0
  0
LINE
  5
125C
  8
0
 62
     0
 10
182.02713706222011
 20
-2.8523683197626579
 30
0.0
 11
182.78490929053149
 21
-3.2898683197626579
 31
0.0
  0
LINE
  5
125D
  8
0
 62
     0
 10
179.75382037728599
 20
-1.539868319762659
 30
0.0
 11
180.5115926055974
 21
-1.977368319762659
 31
0.0
  0
LINE
  5
125E
  8
0
 62
     0
 10
177.4805036923519
 20
-0.2273683197626606
 30
0.0
 11
178.2382759206632
 21
-0.6648683197626609
 31
0.0
  0
LINE
  5
125F
  8
0
 62
     0
 10
175.2071870074177
 20
1.0851316802373381
 30
0.0
 11
175.96495923572911
 21
0.6476316802373381
 31
0.0
  0
LINE
  5
1260
  8
0
 62
     0
 10
187.3315426605885
 20
-4.164868319436005
 30
0.0
 11
188.08931488889991
 21
-4.6023683194360059
 31
0.0
  0
LINE
  5
1261
  8
0
 62
     0
 10
185.05822597565441
 20
-2.8523683194360059
 30
0.0
 11
185.81599820396571
 21
-3.2898683194360059
 31
0.0
  0
LINE
  5
1262
  8
0
 62
     0
 10
182.78490929072021
 20
-1.5398683194360081
 30
0.0
 11
183.54268151903159
 21
-1.9773683194360081
 31
0.0
  0
LINE
  5
1263
  8
0
 62
     0
 10
180.51159260578609
 20
-0.227368319436009
 30
0.0
 11
181.2693648340975
 21
-0.6648683194360093
 31
0.0
  0
LINE
  5
1264
  8
0
 62
     0
 10
178.23827592085189
 20
1.085131680563989
 30
0.0
 11
178.9960481491633
 21
0.6476316805639897
 31
0.0
  0
LINE
  5
1265
  8
0
 62
     0
 10
188.08931488908851
 20
-2.8523683191092992
 30
0.0
 11
188.57649838068971
 21
-3.133643839129999
 31
0.0
  0
LINE
  5
1266
  8
0
 62
     0
 10
185.81599820415431
 20
-1.5398683191093001
 30
0.0
 11
186.57377043246569
 21
-1.9773683191093001
 31
0.0
  0
LINE
  5
1267
  8
0
 62
     0
 10
183.5426815192202
 20
-0.2273683191093014
 30
0.0
 11
184.30045374753161
 21
-0.6648683191093017
 31
0.0
  0
LINE
  5
1268
  8
0
 62
     0
 10
181.26936483428599
 20
1.085131680890697
 30
0.0
 11
182.0271370625974
 21
0.6476316808906973
 31
0.0
  0
LINE
  5
1269
  8
0
 62
     0
 10
186.5737704326543
 20
-0.2273683187825086
 30
0.0
 11
187.3315426609656
 21
-0.6648683187825089
 31
0.0
  0
LINE
  5
126A
  8
0
 62
     0
 10
184.3004537477201
 20
1.08513168121749
 30
0.0
 11
185.05822597603151
 21
0.6476316812174902
 31
0.0
  0
LINE
  5
126B
  8
0
 62
     0
 10
187.33154266115429
 20
1.0851316815441401
 30
0.0
 11
188.08931488946561
 21
0.6476316815441408
 31
0.0
  0
LINE
  5
126C
  8
0
 62
     0
 10
177.48050369574699
 20
31.272631686117791
 30
0.0
 11
178.23827592405831
 21
30.835131686117791
 31
0.0
  0
LINE
  5
126D
  8
0
 62
     0
 10
175.20718701081279
 20
32.585131686117791
 30
0.0
 11
175.9649592391242
 21
32.147631686117791
 31
0.0
  0
LINE
  5
126E
  8
0
 62
     0
 10
180.51159260918109
 20
31.27263168644453
 30
0.0
 11
181.2693648374925
 21
30.83513168644453
 31
0.0
  0
LINE
  5
126F
  8
0
 62
     0
 10
178.23827592424701
 20
32.585131686444527
 30
0.0
 11
178.9960481525583
 21
32.147631686444527
 31
0.0
  0
LINE
  5
1270
  8
0
 62
     0
 10
175.9649592393128
 20
33.897631686444527
 30
0.0
 11
176.72273146762419
 21
33.460131686444527
 31
0.0
  0
LINE
  5
1271
  8
0
 62
     0
 10
174.39414163092181
 20
34.804543655496872
 30
0.0
 11
174.44941478269001
 21
34.772631686444527
 31
0.0
  0
LINE
  5
1272
  8
0
 62
     0
 10
183.5426815226152
 20
31.272631686771209
 30
0.0
 11
184.30045375092661
 21
30.835131686771209
 31
0.0
  0
LINE
  5
1273
  8
0
 62
     0
 10
181.26936483768111
 20
32.585131686771213
 30
0.0
 11
182.02713706599241
 21
32.147631686771213
 31
0.0
  0
LINE
  5
1274
  8
0
 62
     0
 10
178.99604815274691
 20
33.897631686771213
 30
0.0
 11
179.75382038105829
 21
33.460131686771213
 31
0.0
  0
LINE
  5
1275
  8
0
 62
     0
 10
176.72273146781279
 20
35.210131686771213
 30
0.0
 11
177.48050369612409
 21
34.772631686771213
 31
0.0
  0
LINE
  5
1276
  8
0
 62
     0
 10
186.57377043604939
 20
31.27263168709786
 30
0.0
 11
186.87672680157729
 21
31.0977197479076
 31
0.0
  0
LINE
  5
1277
  8
0
 62
     0
 10
184.3004537511153
 20
32.585131687097856
 30
0.0
 11
185.05822597942671
 21
32.147631687097856
 31
0.0
  0
LINE
  5
1278
  8
0
 62
     0
 10
182.0271370661811
 20
33.897631687097856
 30
0.0
 11
182.78490929449251
 21
33.460131687097856
 31
0.0
  0
LINE
  5
1279
  8
0
 62
     0
 10
179.75382038124701
 20
35.210131687097856
 30
0.0
 11
180.51159260955839
 21
34.772631687097856
 31
0.0
  0
LINE
  5
127A
  8
0
 62
     0
 10
177.48050369631289
 20
36.522631687097856
 30
0.0
 11
178.23827592462419
 21
36.085131687097856
 31
0.0
  0
LINE
  5
127B
  8
0
 62
     0
 10
187.3315426645494
 20
32.585131687424543
 30
0.0
 11
188.08931489286081
 21
32.147631687424543
 31
0.0
  0
LINE
  5
127C
  8
0
 62
     0
 10
185.05822597961529
 20
33.897631687424543
 30
0.0
 11
185.81599820792661
 21
33.460131687424543
 31
0.0
  0
LINE
  5
127D
  8
0
 62
     0
 10
182.78490929468111
 20
35.210131687424543
 30
0.0
 11
183.5426815229925
 21
34.772631687424543
 31
0.0
  0
LINE
  5
127E
  8
0
 62
     0
 10
180.511592609747
 20
36.522631687424543
 30
0.0
 11
181.26936483805841
 21
36.085131687424543
 31
0.0
  0
LINE
  5
127F
  8
0
 62
     0
 10
178.8557801747626
 20
37.47861544249028
 30
0.0
 11
178.99604815312421
 21
37.397631687424543
 31
0.0
  0
LINE
  5
1280
  8
0
 62
     0
 10
188.0893148930495
 20
33.897631687751272
 30
0.0
 11
188.84708712136089
 21
33.460131687751272
 31
0.0
  0
LINE
  5
1281
  8
0
 62
     0
 10
185.8159982081153
 20
35.210131687751272
 30
0.0
 11
186.57377043642671
 21
34.772631687751272
 31
0.0
  0
LINE
  5
1282
  8
0
 62
     0
 10
183.54268152318119
 20
36.522631687751272
 30
0.0
 11
184.3004537514926
 21
36.085131687751272
 31
0.0
  0
LINE
  5
1283
  8
0
 62
     0
 10
181.42572503837519
 20
37.744857084116717
 30
0.0
 11
182.0271370665584
 21
37.397631687751272
 31
0.0
  0
LINE
  5
1284
  8
0
 62
     0
 10
186.57377043661529
 20
36.522631688077951
 30
0.0
 11
187.3315426649267
 21
36.085131688077951
 31
0.0
  0
LINE
  5
1285
  8
0
 62
     0
 10
188.84708721038771
 20
33.059251167677999
 30
0.0
 11
188.84708721038771
 21
33.460131606077908
 31
0.0
  0
LINE
  5
1286
  8
0
 62
     0
 10
187.33154275338779
 20
35.210131606077908
 30
0.0
 11
187.33154275338779
 21
36.085131606077908
 31
0.0
  0
LINE
  5
1287
  8
0
 62
     0
 10
187.33154275338779
 20
32.585131606077908
 30
0.0
 11
187.33154275338779
 21
33.460131606077908
 31
0.0
  0
LINE
  5
1288
  8
0
 62
     0
 10
187.33154275338779
 20
1.0851316060779079
 30
0.0
 11
187.33154275338779
 21
1.7748825322437931
 31
0.0
  0
LINE
  5
1289
  8
0
 62
     0
 10
187.33154275338779
 20
-1.539868393922091
 30
0.0
 11
187.33154275338779
 21
-0.6648683939220917
 31
0.0
  0
LINE
  5
128A
  8
0
 62
     0
 10
187.33154275338779
 20
-4.1648683939220907
 30
0.0
 11
187.33154275338779
 21
-3.2898683939220912
 31
0.0
  0
LINE
  5
128B
  8
0
 62
     0
 10
187.33154275338779
 20
-6.7898683939220907
 30
0.0
 11
187.33154275338779
 21
-5.9148683939220907
 31
0.0
  0
LINE
  5
128C
  8
0
 62
     0
 10
185.81599829638779
 20
35.210131606077908
 30
0.0
 11
185.81599829638779
 21
36.085131606077908
 31
0.0
  0
LINE
  5
128D
  8
0
 62
     0
 10
185.81599829638779
 20
32.585131606077908
 30
0.0
 11
185.81599829638779
 21
33.460131606077908
 31
0.0
  0
LINE
  5
128E
  8
0
 62
     0
 10
185.81599829638779
 20
30.614295099496491
 30
0.0
 11
185.81599829638779
 21
30.835131606077908
 31
0.0
  0
LINE
  5
128F
  8
0
 62
     0
 10
185.81599829638779
 20
1.0851316060779079
 30
0.0
 11
185.81599829638779
 21
1.7748825322437931
 31
0.0
  0
LINE
  5
1290
  8
0
 62
     0
 10
185.81599829638779
 20
-1.539868393922091
 30
0.0
 11
185.81599829638779
 21
-0.6648683939220917
 31
0.0
  0
LINE
  5
1291
  8
0
 62
     0
 10
185.81599829638779
 20
-4.1648683939220907
 30
0.0
 11
185.81599829638779
 21
-3.2898683939220912
 31
0.0
  0
LINE
  5
1292
  8
0
 62
     0
 10
185.81599829638779
 20
-6.7898683939220907
 30
0.0
 11
185.81599829638779
 21
-5.9148683939220907
 31
0.0
  0
LINE
  5
1293
  8
0
 62
     0
 10
184.3004538393877
 20
35.210131606077908
 30
0.0
 11
184.3004538393877
 21
36.085131606077908
 31
0.0
  0
LINE
  5
1294
  8
0
 62
     0
 10
184.3004538393877
 20
32.585131606077908
 30
0.0
 11
184.3004538393877
 21
33.460131606077908
 31
0.0
  0
LINE
  5
1295
  8
0
 62
     0
 10
184.3004538393877
 20
30.188013904503318
 30
0.0
 11
184.3004538393877
 21
30.835131606077908
 31
0.0
  0
LINE
  5
1296
  8
0
 62
     0
 10
184.3004538393877
 20
1.0851316060779079
 30
0.0
 11
184.3004538393877
 21
1.7748825322437931
 31
0.0
  0
LINE
  5
1297
  8
0
 62
     0
 10
184.3004538393877
 20
-1.539868393922091
 30
0.0
 11
184.3004538393877
 21
-0.6648683939220917
 31
0.0
  0
LINE
  5
1298
  8
0
 62
     0
 10
184.3004538393877
 20
-4.1648683939220907
 30
0.0
 11
184.3004538393877
 21
-3.2898683939220912
 31
0.0
  0
LINE
  5
1299
  8
0
 62
     0
 10
184.3004538393877
 20
-6.7898683939220907
 30
0.0
 11
184.3004538393877
 21
-5.9148683939220907
 31
0.0
  0
LINE
  5
129A
  8
0
 62
     0
 10
182.78490938238781
 20
35.210131606077908
 30
0.0
 11
182.78490938238781
 21
36.085131606077908
 31
0.0
  0
LINE
  5
129B
  8
0
 62
     0
 10
182.78490938238781
 20
32.585131606077908
 30
0.0
 11
182.78490938238781
 21
33.460131606077908
 31
0.0
  0
LINE
  5
129C
  8
0
 62
     0
 10
182.78490938238781
 20
29.972789093514741
 30
0.0
 11
182.78490938238781
 21
30.835131606077908
 31
0.0
  0
LINE
  5
129D
  8
0
 62
     0
 10
182.78490938238781
 20
1.0851316060779079
 30
0.0
 11
182.78490938238781
 21
1.7748825322437931
 31
0.0
  0
LINE
  5
129E
  8
0
 62
     0
 10
182.78490938238781
 20
-1.539868393922091
 30
0.0
 11
182.78490938238781
 21
-0.6648683939220917
 31
0.0
  0
LINE
  5
129F
  8
0
 62
     0
 10
182.78490938238781
 20
-4.1648683939220907
 30
0.0
 11
182.78490938238781
 21
-3.2898683939220912
 31
0.0
  0
LINE
  5
12A0
  8
0
 62
     0
 10
182.78490938238781
 20
-6.7898683939220907
 30
0.0
 11
182.78490938238781
 21
-5.9148683939220907
 31
0.0
  0
LINE
  5
12A1
  8
0
 62
     0
 10
181.2693649253878
 20
35.210131606077908
 30
0.0
 11
181.2693649253878
 21
36.085131606077908
 31
0.0
  0
LINE
  5
12A2
  8
0
 62
     0
 10
181.2693649253878
 20
32.585131606077908
 30
0.0
 11
181.2693649253878
 21
33.460131606077908
 31
0.0
  0
LINE
  5
12A3
  8
0
 62
     0
 10
181.2693649253878
 20
29.960131606077908
 30
0.0
 11
181.2693649253878
 21
30.835131606077908
 31
0.0
  0
LINE
  5
12A4
  8
0
 62
     0
 10
181.2693649253878
 20
1.0851316060779079
 30
0.0
 11
181.2693649253878
 21
1.7748825322437931
 31
0.0
  0
LINE
  5
12A5
  8
0
 62
     0
 10
181.2693649253878
 20
-1.539868393922091
 30
0.0
 11
181.2693649253878
 21
-0.6648683939220917
 31
0.0
  0
LINE
  5
12A6
  8
0
 62
     0
 10
181.2693649253878
 20
-4.1648683939220907
 30
0.0
 11
181.2693649253878
 21
-3.2898683939220912
 31
0.0
  0
LINE
  5
12A7
  8
0
 62
     0
 10
181.2693649253878
 20
-6.7898683939220907
 30
0.0
 11
181.2693649253878
 21
-5.9148683939220907
 31
0.0
  0
LINE
  5
12A8
  8
0
 62
     0
 10
179.7538204683878
 20
35.210131606077908
 30
0.0
 11
179.7538204683878
 21
36.085131606077908
 31
0.0
  0
LINE
  5
12A9
  8
0
 62
     0
 10
179.7538204683878
 20
32.585131606077908
 30
0.0
 11
179.7538204683878
 21
33.460131606077908
 31
0.0
  0
LINE
  5
12AA
  8
0
 62
     0
 10
179.7538204683878
 20
30.039856355460259
 30
0.0
 11
179.7538204683878
 21
30.835131606077908
 31
0.0
  0
LINE
  5
12AB
  8
0
 62
     0
 10
179.7538204683878
 20
1.0851316060779079
 30
0.0
 11
179.7538204683878
 21
1.7748825322437931
 31
0.0
  0
LINE
  5
12AC
  8
0
 62
     0
 10
179.7538204683878
 20
-1.539868393922091
 30
0.0
 11
179.7538204683878
 21
-0.6648683939220917
 31
0.0
  0
LINE
  5
12AD
  8
0
 62
     0
 10
179.7538204683878
 20
-4.1648683939220907
 30
0.0
 11
179.7538204683878
 21
-3.2898683939220912
 31
0.0
  0
LINE
  5
12AE
  8
0
 62
     0
 10
179.7538204683878
 20
-6.7898683939220907
 30
0.0
 11
179.7538204683878
 21
-5.9148683939220907
 31
0.0
  0
LINE
  5
12AF
  8
0
 62
     0
 10
178.23827601138771
 20
35.210131606077908
 30
0.0
 11
178.23827601138771
 21
36.085131606077908
 31
0.0
  0
LINE
  5
12B0
  8
0
 62
     0
 10
178.23827601138771
 20
32.585131606077908
 30
0.0
 11
178.23827601138771
 21
33.460131606077908
 31
0.0
  0
LINE
  5
12B1
  8
0
 62
     0
 10
178.23827601138771
 20
30.32732058302761
 30
0.0
 11
178.23827601138771
 21
30.835131606077908
 31
0.0
  0
LINE
  5
12B2
  8
0
 62
     0
 10
178.23827601138771
 20
1.0851316060779079
 30
0.0
 11
178.23827601138771
 21
1.7748825322437931
 31
0.0
  0
LINE
  5
12B3
  8
0
 62
     0
 10
178.23827601138771
 20
-1.539868393922091
 30
0.0
 11
178.23827601138771
 21
-0.6648683939220917
 31
0.0
  0
LINE
  5
12B4
  8
0
 62
     0
 10
178.23827601138771
 20
-3.9523756455840271
 30
0.0
 11
178.23827601138771
 21
-3.2898683939220912
 31
0.0
  0
LINE
  5
12B5
  8
0
 62
     0
 10
176.72273155438779
 20
35.210131606077908
 30
0.0
 11
176.72273155438779
 21
36.085131606077908
 31
0.0
  0
LINE
  5
12B6
  8
0
 62
     0
 10
176.72273155438779
 20
32.585131606077908
 30
0.0
 11
176.72273155438779
 21
33.460131606077908
 31
0.0
  0
LINE
  5
12B7
  8
0
 62
     0
 10
176.72273155438779
 20
1.0851316060779079
 30
0.0
 11
176.72273155438779
 21
1.7748825322437931
 31
0.0
  0
LINE
  5
12B8
  8
0
 62
     0
 10
176.72273155438779
 20
-1.539868393922091
 30
0.0
 11
176.72273155438779
 21
-0.6648683939220917
 31
0.0
  0
LINE
  5
12B9
  8
0
 62
     0
 10
176.72273155438779
 20
-4.1648683939220907
 30
0.0
 11
176.72273155438779
 21
-3.2898683939220912
 31
0.0
  0
LINE
  5
12BA
  8
0
 62
     0
 10
175.20718709738779
 20
35.210131606077908
 30
0.0
 11
175.20718709738779
 21
35.801523323620223
 31
0.0
  0
LINE
  5
12BB
  8
0
 62
     0
 10
175.20718709738779
 20
32.585131606077908
 30
0.0
 11
175.20718709738779
 21
33.460131606077908
 31
0.0
  0
LINE
  5
12BC
  8
0
 62
     0
 10
175.20718709738779
 20
1.0851316060779079
 30
0.0
 11
175.20718709738779
 21
1.7748825322437931
 31
0.0
  0
LINE
  5
12BD
  8
0
 62
     0
 10
175.20718709738779
 20
-1.539868393922091
 30
0.0
 11
175.20718709738779
 21
-0.6648683939220917
 31
0.0
  0
LINE
  5
12BE
  8
0
 62
     0
 10
175.20718709738779
 20
-4.1648683939220907
 30
0.0
 11
175.20718709738779
 21
-3.2898683939220912
 31
0.0
  0
LINE
  5
12BF
  8
0
 62
     0
 10
175.20718709738779
 20
-6.3245591390902538
 30
0.0
 11
175.20718709738779
 21
-5.9148683939220907
 31
0.0
  0
ENDBLK
  5
12C1
  8
0
  0
BLOCK
  8
0
  2
*X64
 70
     1
 10
0.0
 20
0.0
 30
0.0
  3
*X64
  1

  0
LINE
  5
12C3
  8
0
 62
     0
 10
176.34107411134241
 20
36.60666918457872
 30
0.0
 11
176.34383935459459
 21
36.603903941326507
 31
0.0
  0
LINE
  5
12C4
  8
0
 62
     0
 10
177.11551024888749
 20
37.600000000000023
 30
0.0
 11
177.5770762583451
 21
37.138433990542467
 31
0.0
  0
LINE
  5
12C5
  8
0
 62
     0
 10
178.4816386009268
 20
38.001638600927087
 30
0.0
 11
178.98052801976061
 21
37.502749182093282
 31
0.0
  0
LINE
  5
12C6
  8
0
 62
     0
 10
179.0799999999997
 20
39.171044154820521
 30
0.0
 11
180.54357856330611
 21
37.707465591514172
 31
0.0
  0
LINE
  5
12C7
  8
0
 62
     0
 10
179.0799999999997
 20
40.938811107786897
 30
0.0
 11
182.2913595631905
 21
37.727451544596171
 31
0.0
  0
LINE
  5
12C8
  8
0
 62
     0
 10
180.52588978191551
 20
41.260688278837442
 30
0.0
 11
184.3102605969944
 21
37.476317463758619
 31
0.0
  0
LINE
  5
12C9
  8
0
 62
     0
 10
188.77057498863471
 20
34.783770025084657
 30
0.0
 11
189.07616232240639
 21
34.478182691312981
 31
0.0
  0
LINE
  5
12CA
  8
0
 62
     0
 10
182.72393730222311
 20
40.830407711496292
 30
0.0
 11
187.1369154476555
 21
36.417429566063902
 31
0.0
  0
LINE
  5
12CB
  8
0
 62
     0
 10
184.5543718525131
 20
40.767740114172632
 30
0.0
 11
189.07616232240639
 21
36.245949644279342
 31
0.0
  0
LINE
  5
12CC
  8
0
 62
     0
 10
186.160391098204
 20
40.929487821447957
 30
0.0
 11
189.07616232240639
 21
38.01371659724569
 31
0.0
  0
LINE
  5
12CD
  8
0
 62
     0
 10
187.6036141269403
 20
41.254031745678191
 30
0.0
 11
189.07616232240639
 21
39.78148355021208
 31
0.0
  0
LINE
  5
12CE
  8
0
 62
     0
 10
188.91682031708351
 20
41.708592508501297
 30
0.0
 11
189.07616232240639
 21
41.549250503178421
 31
0.0
  0
LINE
  5
12CF
  8
0
 62
     0
 10
188.82562179836569
 20
34.661146459127387
 30
0.0
 11
189.0761623224063
 21
34.911686983167947
 31
0.0
  0
LINE
  5
12D0
  8
0
 62
     0
 10
188.07569370061961
 20
35.678985314347642
 30
0.0
 11
189.0761623224063
 21
36.679453936134401
 31
0.0
  0
LINE
  5
12D1
  8
0
 62
     0
 10
187.08070048368569
 20
36.451759050380133
 30
0.0
 11
189.07616232240639
 21
38.447220889100777
 31
0.0
  0
LINE
  5
12D2
  8
0
 62
     0
 10
185.8862321691272
 20
37.025057688787967
 30
0.0
 11
189.07616232240639
 21
40.214987842067103
 31
0.0
  0
LINE
  5
12D3
  8
0
 62
     0
 10
184.52518943111019
 20
37.431781903737317
 30
0.0
 11
188.7258318120322
 21
41.632424284659287
 31
0.0
  0
LINE
  5
12D4
  8
0
 62
     0
 10
182.9989421280157
 20
37.673301553609228
 30
0.0
 11
186.2744685593631
 21
40.948827984956722
 31
0.0
  0
LINE
  5
12D5
  8
0
 62
     0
 10
181.30082154284429
 20
37.742947921404088
 30
0.0
 11
184.31898920378191
 21
40.761115582341617
 31
0.0
  0
LINE
  5
12D6
  8
0
 62
     0
 10
179.3589166963678
 20
37.568810027894081
 30
0.0
 11
182.6307527622956
 21
40.84064609382181
 31
0.0
  0
LINE
  5
12D7
  8
0
 62
     0
 10
179.0799999999997
 20
39.057660284492329
 30
0.0
 11
181.12563616201891
 21
41.103296446511592
 31
0.0
  0
LINE
  5
12D8
  8
0
 62
     0
 10
176.8907681145908
 20
36.868428399083491
 30
0.0
 11
177.62233971550751
 21
37.600000000000144
 31
0.0
  0
LINE
  5
12D9
  8
0
 62
     0
 10
179.0799999999997
 20
40.825427237458662
 30
0.0
 11
179.76185114566749
 21
41.507278383126497
 31
0.0
  0
ENDBLK
  5
12DB
  8
0
  0
BLOCK
  8
0
  2
*U65
 70
     1
 10
0.0
 20
0.0
 30
0.0
  3
*U65
  1

  0
TEXT
  5
12F2
  8
SAPA_MATT
 62
     2
 10
78.592626469902328
 20
-44.400000000000112
 30
0.0
 40
3.0
  1
195
  7
ISO
  0
ENDBLK
  5
12F4
  8
0
  0
BLOCK
  8
0
  2
*U66
 70
     1
 10
0.0
 20
0.0
 30
0.0
  3
*U66
  1

  0
TEXT
  5
12F6
  8
SAPA_MATT
 62
     2
 10
203.52975283955939
 20
14.58858267716529
 30
0.0
 40
3.0
  1
60
 50
90.0
  7
ISO
  0
ENDBLK
  5
12F8
  8
0
  0
BLOCK
  8
0
  2
*U67
 70
     1
 10
0.0
 20
0.0
 30
0.0
  3
*U67
  1

  0
TEXT
  5
12FA
  8
0
 62
     2
 10
41.228818897637311
 20
-32.399704724409553
 30
0.0
 40
3.0
  1
120
  7
ISO
  0
ENDBLK
  5
12FC
  8
0
  0
BLOCK
  8
0
  2
*U68
 70
     1
 10
0.0
 20
0.0
 30
0.0
  3
*U68
  1

  0
TEXT
  5
12FE
  8
0
 62
     2
 10
116.9788188976375
 20
-32.400000000000098
 30
0.0
 40
3.0
  1
30
  7
ISO
  0
ENDBLK
  5
1300
  8
0
  0
BLOCK
  8
0
  2
*U69
 70
     1
 10
0.0
 20
0.0
 30
0.0
  3
*U69
  1

  0
TEXT
  5
1302
  8
0
 62
     2
 10
154.26786796564389
 20
-32.400000000000091
 30
0.0
 40
3.0
  1
45
  7
ISO
  0
ENDBLK
  5
1304
  8
0
  0
BLOCK
  8
0
  2
*U70
 70
     1
 10
0.0
 20
0.0
 30
0.0
  3
*U70
  1

  0
TEXT
  5
1514
  8
0
 10
200.7066197366058
 20
121.9761478607964
 30
0.0
 40
3.0
  1
55.15
 50
90.0
  7
BYGG-014247$0$ISO
  0
ENDBLK
  5
1516
  8
0
  0
BLOCK
  8
0
  2
*U71
 70
     1
 10
0.0
 20
0.0
 30
0.0
  3
*U71
  1

  0
TEXT
  5
1520
  8
0
 10
169.4719591245163
 20
80.624583302187148
 30
0.0
 40
3.0
  1
25
  7
BYGG-014247$0$ISO
  0
ENDBLK
  5
1522
  8
0
  0
BLOCK
  8
0
  2
*U72
 70
     1
 10
0.0
 20
0.0
 30
0.0
  3
*U72
  1

  0
TEXT
  5
152B
  8
0
 10
176.20834500782911
 20
165.11646576828349
 30
0.0
 40
3.0
  1
12
  7
BYGG-014247$0$ISO
  0
ENDBLK
  5
152D
  8
0
  0
BLOCK
  8
0
  2
*U73
 70
     1
 10
0.0
 20
0.0
 30
0.0
  3
*U73
  1

  0
TEXT
  5
1643
  8
0
 62
     2
 10
190.89256628367221
 20
659.2717623260628
 30
0.0
 40
3.0
  1
60
 50
90.0
  7
BYGG-014565$0$ISO
  0
ENDBLK
  5
1645
  8
0
  0
BLOCK
  8
0
  2
*U74
 70
     1
 10
0.0
 20
0.0
 30
0.0
  3
*U74
  1

  0
TEXT
  5
1647
  8
0
 62
     2
 10
113.7344761310633
 20
618.04985164983123
 30
0.0
 40
3.0
  1
120
  7
BYGG-014565$0$ISO
  0
ENDBLK
  5
1649
  8
0
  0
BLOCK
  8
0
  2
*U75
 70
     1
 10
0.0
 20
0.0
 30
0.0
  3
*U75
  1

  0
TEXT
  5
166C
  8
0
 62
     2
 10
822.46231930336307
 20
606.73114493365938
 30
0.0
 40
3.0
  1
45
  7
BYGG-014533$0$ISO
  0
ENDBLK
  5
166E
  8
0
  0
BLOCK
  8
0
  2
*U76
 70
     1
 10
0.0
 20
0.0
 30
0.0
  3
*U76
  1

  0
TEXT
  5
1670
  8
0
 62
     2
 10
857.95933842027637
 20
642.22349427798235
 30
0.0
 40
3.0
  1
50
 50
90.0
  7
BYGG-014533$0$ISO
  0
ENDBLK
  5
1672
  8
0
  0
BLOCK
  8
0
  2
*U77
 70
     1
 10
0.0
 20
0.0
 30
0.0
  3
*U77
  1

  0
TEXT
  5
1703
  8
0
 10
270.93920250063343
 20
387.08892739371998
 30
0.0
 40
3.0
  1
22
 50
90.0
  7
BYGG-014203$0$ISO
  0
ENDBLK
  5
1705
  8
0
  0
BLOCK
  8
0
  2
*U78
 70
     1
 10
0.0
 20
0.0
 30
0.0
  3
*U78
  1

  0
TEXT
  5
1707
  8
0
 10
243.50583563664401
 20
408.3346351471406
 30
0.0
 40
3.0
  1
29
  7
BYGG-014203$0$ISO
  0
ENDBLK
  5
1709
  8
0
  0
BLOCK
  8
0
  2
*U79
 70
     1
 10
0.0
 20
0.0
 30
0.0
  3
*U79
  1

  0
SOLID
  5
170C
  8
0
  6
CONTINUOUS
 10
4.7491523350893203
 20
4.1961905468704446
 30
0.0
 11
4.5688747713161204
 21
4.1215171349640061
 31
0.0
 12
4.9294298988625203
 22
4.1215171349640061
 32
0.0
 13
4.9294298988625203
 23
4.1215171349640061
 33
0.0
210
0.0
220
0.0
230
1.0
  0
SOLID
  5
170D
  8
0
  6
CONTINUOUS
 10
4.5688747713161204
 20
4.1215171349640061
 30
0.0
 11
4.494201359409681
 21
3.9412395711908061
 31
0.0
 12
5.0041033107689588
 22
3.9412395711908061
 32
0.0
 13
5.0041033107689588
 23
3.9412395711908061
 33
0.0
210
0.0
220
0.0
230
1.0
  0
SOLID
  5
170E
  8
0
  6
CONTINUOUS
 10
-4.5688747713161204
 20
4.1215171349640061
 30
0.0
 11
-4.9294298988625203
 21
4.1215171349640061
 31
0.0
 12
-5.0041033107689588
 22
3.9412395711908061
 32
0.0
 13
-5.0041033107689588
 23
3.9412395711908061
 33
0.0
210
0.0
220
0.0
230
-1.0
  0
SOLID
  5
170F
  8
0
  6
CONTINUOUS
 10
-4.5688747713161204
 20
3.7609620074176058
 30
0.0
 11
-4.9294298988625194
 21
3.7609620074176058
 31
0.0
 12
-4.7491523350893203
 22
3.6862885955111659
 32
0.0
 13
-4.7491523350893203
 23
3.6862885955111659
 33
0.0
210
0.0
220
0.0
230
-1.0
  0
SOLID
  5
1710
  8
0
  6
CONTINUOUS
 10
4.494201359409681
 20
3.9412395711908061
 30
0.0
 11
4.5688747713161204
 21
3.7609620074176058
 31
0.0
 12
4.9294298988625194
 22
3.7609620074176058
 32
0.0
 13
4.9294298988625194
 23
3.7609620074176058
 33
0.0
210
0.0
220
0.0
230
1.0
  0
SOLID
  5
1711
  8
0
  6
CONTINUOUS
 10
-4.494201359409681
 20
3.9412395711908061
 30
0.0
 11
-5.0041033107689588
 21
3.9412395711908061
 31
0.0
 12
-4.9294298988625194
 22
3.7609620074176058
 32
0.0
 13
-4.9294298988625194
 23
3.7609620074176058
 33
0.0
210
0.0
220
0.0
230
-1.0
  0
LINE
  5
1712
  8
0
  6
CONTINUOUS
 10
4.7491523350893203
 20
4.1961905468704446
 30
0.0
 11
4.5688747713161204
 21
4.1215171349640061
 31
0.0
  0
LINE
  5
1713
  8
0
  6
CONTINUOUS
 10
4.9294298988625203
 20
4.1215171349640061
 30
0.0
 11
4.7491523350893203
 21
4.1961905468704446
 31
0.0
  0
LINE
  5
1714
  8
0
  6
CONTINUOUS
 10
4.5688747713161204
 20
4.1215171349640061
 30
0.0
 11
4.494201359409681
 21
3.9412395711908061
 31
0.0
  0
LINE
  5
1715
  8
0
  6
CONTINUOUS
 10
4.9294298988625203
 20
4.1215171349640061
 30
0.0
 11
5.0041033107689588
 21
3.9412395711908061
 31
0.0
  0
LINE
  5
1716
  8
0
  6
CONTINUOUS
 10
4.9294298988625194
 20
3.7609620074176058
 30
0.0
 11
4.7491523350893203
 21
3.6862885955111659
 31
0.0
  0
LINE
  5
1717
  8
0
  6
CONTINUOUS
 10
4.7491523350893203
 20
3.6862885955111659
 30
0.0
 11
4.5688747713161204
 21
3.7609620074176058
 31
0.0
  0
LINE
  5
1718
  8
0
  6
CONTINUOUS
 10
4.494201359409681
 20
3.9412395711908061
 30
0.0
 11
4.5688747713161204
 21
3.7609620074176058
 31
0.0
  0
LINE
  5
1719
  8
0
  6
CONTINUOUS
 10
5.0041033107689588
 20
3.9412395711908061
 30
0.0
 11
4.9294298988625194
 21
3.7609620074176058
 31
0.0
  0
ENDBLK
  5
171B
  8
0
  0
BLOCK
  8
0
  2
*U80
 70
     1
 10
0.0
 20
0.0
 30
0.0
  3
*U80
  1

  0
TEXT
  5
1752
  8
0
 10
87.469380871085576
 20
18.187748634931349
 30
0.0
 40
3.0
  1
55.15
 50
270.0
  7
BYGG-014247$0$ISO
  0
ENDBLK
  5
1754
  8
0
  0
BLOCK
  8
0
  2
*U81
 70
     1
 10
0.0
 20
0.0
 30
0.0
  3
*U81
  1

  0
TEXT
  5
1756
  8
0
 10
118.7040414831751
 20
-33.988670543570997
 30
0.0
 40
3.0
  1
25
 50
180.0
  7
BYGG-014247$0$ISO
  0
ENDBLK
  5
1758
  8
0
  0
BLOCK
  8
0
  2
*U82
 70
     1
 10
0.0
 20
0.0
 30
0.0
  3
*U82
  1

  0
TEXT
  5
175A
  8
0
 10
111.9676555998623
 20
50.503211922525331
 30
0.0
 40
3.0
  1
12
 50
180.0
  7
BYGG-014247$0$ISO
  0
ENDBLK
  5
175C
  8
0
  0
BLOCK
  8
0
  2
*U83
 70
     1
 10
0.0
 20
0.0
 30
0.0
  3
*U83
  1

  0
TEXT
  5
175E
  8
0
 10
150.69061912891411
 20
15.011837532844011
 30
0.0
 40
3.0
  1
55.15
 50
90.0
  7
BYGG-014247$0$ISO
  0
ENDBLK
  5
1760
  8
0
  0
BLOCK
  8
0
  2
*U84
 70
     1
 10
0.0
 20
0.0
 30
0.0
  3
*U84
  1

  0
TEXT
  5
1762
  8
0
 10
119.4559585168245
 20
67.188256711346312
 30
0.0
 40
3.0
  1
25
  7
BYGG-014247$0$ISO
  0
ENDBLK
  5
1764
  8
0
  0
BLOCK
  8
0
  2
*U85
 70
     1
 10
0.0
 20
0.0
 30
0.0
  3
*U85
  1

  0
TEXT
  5
1766
  8
0
 10
126.1923444001373
 20
-17.303625754749991
 30
0.0
 40
3.0
  1
12
  7
BYGG-014247$0$ISO
  0
ENDBLK
  5
1768
  8
0
  0
BLOCK
  8
0
  2
*U86
 70
     1
 10
0.0
 20
0.0
 30
0.0
  3
*U86
  1

  0
TEXT
  5
176A
  8
0
 62
     2
 10
154.2678679656438
 20
56.193530446685031
 30
0.0
 40
3.0
  1
45
  7
BYGG-014533$0$ISO
  0
ENDBLK
  5
176C
  8
0
  0
BLOCK
  8
0
  2
*U87
 70
     1
 10
0.0
 20
0.0
 30
0.0
  3
*U87
  1

  0
TEXT
  5
176E
  8
0
 62
     2
 10
189.76488708255721
 20
14.49881889763785
 30
0.0
 40
3.0
  1
50
 50
90.0
  7
BYGG-014533$0$ISO
  0
ENDBLK
  5
1770
  8
0
  0
BLOCK
  8
0
  2
*U88
 70
     1
 10
0.0
 20
0.0
 30
0.0
  3
*U88
  1

  0
TEXT
  5
1772
  8
0
 10
-7.3390187235471984
 20
49.861472082176078
 30
0.0
 40
3.0
  1
22
  7
BYGG-014203$0$ISO
  0
ENDBLK
  5
1774
  8
0
  0
BLOCK
  8
0
  2
*U89
 70
     1
 10
0.0
 20
0.0
 30
0.0
  3
*U89
  1

  0
TEXT
  5
1776
  8
0
 10
-24.28073041397576
 20
25.428105218186818
 30
0.0
 40
3.0
  1
29
 50
90.0
  7
BYGG-014203$0$ISO
  0
ENDBLK
  5
1778
  8
0
  0
BLOCK
  8
0
  2
*U90
 70
     1
 10
0.0
 20
0.0
 30
0.0
  3
*U90
  1

  0
TEXT
  5
177A
  8
0
 62
     2
 10
118.3869090502462
 20
14.588582677165389
 30
0.0
 40
3.0
  1
60
 50
90.0
  7
BYGG-014565$0$ISO
  0
ENDBLK
  5
177C
  8
0
  0
BLOCK
  8
0
  2
*U91
 70
     1
 10
0.0
 20
0.0
 30
0.0
  3
*U91
  1

  0
TEXT
  5
177E
  8
0
 62
     2
 10
41.228818897637197
 20
-26.633327999066331
 30
0.0
 40
3.0
  1
120
  7
BYGG-014565$0$ISO
  0
ENDBLK
  5
1780
  8
0
  0
BLOCK
  8
0
  2
*U92
 70
     1
 10
0.0
 20
0.0
 30
0.0
  3
*U92
  1

  0
SOLID
  5
1B68
  8
SAPA_FOGBAND
  6
CONTINUOUS
 10
119.0000278233707
 20
41.734654984612739
 30
0.0
 11
118.8197502595975
 21
41.6599815727063
 31
0.0
 12
119.1803053871439
 22
41.6599815727063
 32
0.0
 13
119.1803053871439
 23
41.6599815727063
 33
0.0
210
0.0
220
0.0
230
1.0
  0
SOLID
  5
1B69
  8
SAPA_FOGBAND
  6
CONTINUOUS
 10
118.8197502595975
 20
41.6599815727063
 30
0.0
 11
118.7450768476911
 21
41.479704008933091
 31
0.0
 12
119.25497879905041
 22
41.479704008933091
 32
0.0
 13
119.25497879905041
 23
41.479704008933091
 33
0.0
210
0.0
220
0.0
230
1.0
  0
SOLID
  5
1B6A
  8
SAPA_FOGBAND
  6
CONTINUOUS
 10
-118.8197502595975
 20
41.6599815727063
 30
0.0
 11
-119.1803053871439
 21
41.6599815727063
 31
0.0
 12
-119.25497879905041
 22
41.479704008933091
 32
0.0
 13
-119.25497879905041
 23
41.479704008933091
 33
0.0
210
0.0
220
0.0
230
-1.0
  0
SOLID
  5
1B6B
  8
SAPA_FOGBAND
  6
CONTINUOUS
 10
-118.8197502595975
 20
41.299426445159888
 30
0.0
 11
-119.1803053871439
 21
41.299426445159888
 31
0.0
 12
-119.0000278233707
 22
41.22475303325345
 32
0.0
 13
-119.0000278233707
 23
41.22475303325345
 33
0.0
210
0.0
220
0.0
230
-1.0
  0
SOLID
  5
1B6C
  8
SAPA_FOGBAND
  6
CONTINUOUS
 10
118.7450768476911
 20
41.479704008933091
 30
0.0
 11
118.8197502595975
 21
41.299426445159888
 31
0.0
 12
119.1803053871439
 22
41.299426445159888
 32
0.0
 13
119.1803053871439
 23
41.299426445159888
 33
0.0
210
0.0
220
0.0
230
1.0
  0
SOLID
  5
1B6D
  8
SAPA_FOGBAND
  6
CONTINUOUS
 10
-118.7450768476911
 20
41.479704008933091
 30
0.0
 11
-119.25497879905041
 21
41.479704008933091
 31
0.0
 12
-119.1803053871439
 22
41.299426445159888
 32
0.0
 13
-119.1803053871439
 23
41.299426445159888
 33
0.0
210
0.0
220
0.0
230
-1.0
  0
LINE
  5
1B6E
  8
SAPA_FOGBAND
  6
CONTINUOUS
 10
119.0000278233707
 20
41.734654984612739
 30
0.0
 11
118.8197502595975
 21
41.6599815727063
 31
0.0
  0
LINE
  5
1B6F
  8
SAPA_FOGBAND
  6
CONTINUOUS
 10
119.1803053871439
 20
41.6599815727063
 30
0.0
 11
119.0000278233707
 21
41.734654984612739
 31
0.0
  0
LINE
  5
1B70
  8
SAPA_FOGBAND
  6
CONTINUOUS
 10
118.8197502595975
 20
41.6599815727063
 30
0.0
 11
118.7450768476911
 21
41.479704008933091
 31
0.0
  0
LINE
  5
1B71
  8
SAPA_FOGBAND
  6
CONTINUOUS
 10
119.1803053871439
 20
41.6599815727063
 30
0.0
 11
119.25497879905041
 21
41.479704008933091
 31
0.0
  0
LINE
  5
1B72
  8
SAPA_FOGBAND
  6
CONTINUOUS
 10
119.1803053871439
 20
41.299426445159888
 30
0.0
 11
119.0000278233707
 21
41.22475303325345
 31
0.0
  0
LINE
  5
1B73
  8
SAPA_FOGBAND
  6
CONTINUOUS
 10
119.0000278233707
 20
41.22475303325345
 30
0.0
 11
118.8197502595975
 21
41.299426445159888
 31
0.0
  0
LINE
  5
1B74
  8
SAPA_FOGBAND
  6
CONTINUOUS
 10
118.7450768476911
 20
41.479704008933091
 30
0.0
 11
118.8197502595975
 21
41.299426445159888
 31
0.0
  0
LINE
  5
1B75
  8
SAPA_FOGBAND
  6
CONTINUOUS
 10
119.25497879905041
 20
41.479704008933091
 30
0.0
 11
119.1803053871439
 21
41.299426445159888
 31
0.0
  0
ENDBLK
  5
1B77
  8
0
  0
BLOCK
  8
0
  2
*U93
 70
     1
 10
0.0
 20
0.0
 30
0.0
  3
*U93
  1

  0
SOLID
  5
1BAD
  8
SAPA_FOGBAND
  6
CONTINUOUS
 10
119.175725176629
 20
-8.0266728654777975
 30
0.0
 11
118.9954476128558
 21
-8.1013462773842377
 31
0.0
 12
119.3560027404022
 22
-8.1013462773842377
 32
0.0
 13
119.3560027404022
 23
-8.1013462773842377
 33
0.0
210
0.0
220
0.0
230
1.0
  0
SOLID
  5
1BAE
  8
SAPA_FOGBAND
  6
CONTINUOUS
 10
118.9954476128558
 20
-8.1013462773842377
 30
0.0
 11
118.9207742009493
 21
-8.2816238411574368
 31
0.0
 12
119.43067615230861
 22
-8.2816238411574368
 32
0.0
 13
119.43067615230861
 23
-8.2816238411574368
 33
0.0
210
0.0
220
0.0
230
1.0
  0
SOLID
  5
1BAF
  8
SAPA_FOGBAND
  6
CONTINUOUS
 10
-118.9954476128558
 20
-8.1013462773842377
 30
0.0
 11
-119.3560027404022
 21
-8.1013462773842377
 31
0.0
 12
-119.43067615230861
 22
-8.2816238411574368
 32
0.0
 13
-119.43067615230861
 23
-8.2816238411574368
 33
0.0
210
0.0
220
0.0
230
-1.0
  0
SOLID
  5
1BB0
  8
SAPA_FOGBAND
  6
CONTINUOUS
 10
-118.9954476128558
 20
-8.4619014049306358
 30
0.0
 11
-119.3560027404022
 21
-8.4619014049306358
 31
0.0
 12
-119.175725176629
 22
-8.5365748168370761
 32
0.0
 13
-119.175725176629
 23
-8.5365748168370761
 33
0.0
210
0.0
220
0.0
230
-1.0
  0
SOLID
  5
1BB1
  8
SAPA_FOGBAND
  6
CONTINUOUS
 10
118.9207742009493
 20
-8.2816238411574368
 30
0.0
 11
118.9954476128558
 21
-8.4619014049306358
 31
0.0
 12
119.3560027404022
 22
-8.4619014049306358
 32
0.0
 13
119.3560027404022
 23
-8.4619014049306358
 33
0.0
210
0.0
220
0.0
230
1.0
  0
SOLID
  5
1BB2
  8
SAPA_FOGBAND
  6
CONTINUOUS
 10
-118.9207742009493
 20
-8.2816238411574368
 30
0.0
 11
-119.43067615230861
 21
-8.2816238411574368
 31
0.0
 12
-119.3560027404022
 22
-8.4619014049306358
 32
0.0
 13
-119.3560027404022
 23
-8.4619014049306358
 33
0.0
210
0.0
220
0.0
230
-1.0
  0
LINE
  5
1BB3
  8
SAPA_FOGBAND
  6
CONTINUOUS
 10
119.175725176629
 20
-8.0266728654777975
 30
0.0
 11
118.9954476128558
 21
-8.1013462773842377
 31
0.0
  0
LINE
  5
1BB4
  8
SAPA_FOGBAND
  6
CONTINUOUS
 10
119.3560027404022
 20
-8.1013462773842377
 30
0.0
 11
119.175725176629
 21
-8.0266728654777975
 31
0.0
  0
LINE
  5
1BB5
  8
SAPA_FOGBAND
  6
CONTINUOUS
 10
118.9954476128558
 20
-8.1013462773842377
 30
0.0
 11
118.9207742009493
 21
-8.2816238411574368
 31
0.0
  0
LINE
  5
1BB6
  8
SAPA_FOGBAND
  6
CONTINUOUS
 10
119.3560027404022
 20
-8.1013462773842377
 30
0.0
 11
119.43067615230861
 21
-8.2816238411574368
 31
0.0
  0
LINE
  5
1BB7
  8
SAPA_FOGBAND
  6
CONTINUOUS
 10
119.3560027404022
 20
-8.4619014049306358
 30
0.0
 11
119.175725176629
 21
-8.5365748168370761
 31
0.0
  0
LINE
  5
1BB8
  8
SAPA_FOGBAND
  6
CONTINUOUS
 10
119.175725176629
 20
-8.5365748168370761
 30
0.0
 11
118.9954476128558
 21
-8.4619014049306358
 31
0.0
  0
LINE
  5
1BB9
  8
SAPA_FOGBAND
  6
CONTINUOUS
 10
118.9207742009493
 20
-8.2816238411574368
 30
0.0
 11
118.9954476128558
 21
-8.4619014049306358
 31
0.0
  0
LINE
  5
1BBA
  8
SAPA_FOGBAND
  6
CONTINUOUS
 10
119.43067615230861
 20
-8.2816238411574368
 30
0.0
 11
119.3560027404022
 21
-8.4619014049306358
 31
0.0
  0
ENDBLK
  5
1BBC
  8
0
  0
BLOCK
  8
0
  2
*U94
 70
     1
 10
0.0
 20
0.0
 30
0.0
  3
*U94
  1

  0
SOLID
  5
1C4D
  8
SAPA_FOGBAND
  6
CONTINUOUS
 10
119.0000278233707
 20
41.734654984612739
 30
0.0
 11
118.8197502595975
 21
41.6599815727063
 31
0.0
 12
119.1803053871439
 22
41.6599815727063
 32
0.0
 13
119.1803053871439
 23
41.6599815727063
 33
0.0
210
0.0
220
0.0
230
1.0
  0
SOLID
  5
1C4E
  8
SAPA_FOGBAND
  6
CONTINUOUS
 10
118.8197502595975
 20
41.6599815727063
 30
0.0
 11
118.7450768476911
 21
41.479704008933091
 31
0.0
 12
119.25497879905041
 22
41.479704008933091
 32
0.0
 13
119.25497879905041
 23
41.479704008933091
 33
0.0
210
0.0
220
0.0
230
1.0
  0
SOLID
  5
1C4F
  8
SAPA_FOGBAND
  6
CONTINUOUS
 10
-118.8197502595975
 20
41.6599815727063
 30
0.0
 11
-119.1803053871439
 21
41.6599815727063
 31
0.0
 12
-119.25497879905041
 22
41.479704008933091
 32
0.0
 13
-119.25497879905041
 23
41.479704008933091
 33
0.0
210
0.0
220
0.0
230
-1.0
  0
SOLID
  5
1C50
  8
SAPA_FOGBAND
  6
CONTINUOUS
 10
-118.8197502595975
 20
41.299426445159888
 30
0.0
 11
-119.1803053871439
 21
41.299426445159888
 31
0.0
 12
-119.0000278233707
 22
41.22475303325345
 32
0.0
 13
-119.0000278233707
 23
41.22475303325345
 33
0.0
210
0.0
220
0.0
230
-1.0
  0
SOLID
  5
1C51
  8
SAPA_FOGBAND
  6
CONTINUOUS
 10
118.7450768476911
 20
41.479704008933091
 30
0.0
 11
118.8197502595975
 21
41.299426445159888
 31
0.0
 12
119.1803053871439
 22
41.299426445159888
 32
0.0
 13
119.1803053871439
 23
41.299426445159888
 33
0.0
210
0.0
220
0.0
230
1.0
  0
SOLID
  5
1C52
  8
SAPA_FOGBAND
  6
CONTINUOUS
 10
-118.7450768476911
 20
41.479704008933091
 30
0.0
 11
-119.25497879905041
 21
41.479704008933091
 31
0.0
 12
-119.1803053871439
 22
41.299426445159888
 32
0.0
 13
-119.1803053871439
 23
41.299426445159888
 33
0.0
210
0.0
220
0.0
230
-1.0
  0
LINE
  5
1C53
  8
SAPA_FOGBAND
  6
CONTINUOUS
 10
119.0000278233707
 20
41.734654984612739
 30
0.0
 11
118.8197502595975
 21
41.6599815727063
 31
0.0
  0
LINE
  5
1C54
  8
SAPA_FOGBAND
  6
CONTINUOUS
 10
119.1803053871439
 20
41.6599815727063
 30
0.0
 11
119.0000278233707
 21
41.734654984612739
 31
0.0
  0
LINE
  5
1C55
  8
SAPA_FOGBAND
  6
CONTINUOUS
 10
118.8197502595975
 20
41.6599815727063
 30
0.0
 11
118.7450768476911
 21
41.479704008933091
 31
0.0
  0
LINE
  5
1C56
  8
SAPA_FOGBAND
  6
CONTINUOUS
 10
119.1803053871439
 20
41.6599815727063
 30
0.0
 11
119.25497879905041
 21
41.479704008933091
 31
0.0
  0
LINE
  5
1C57
  8
SAPA_FOGBAND
  6
CONTINUOUS
 10
119.1803053871439
 20
41.299426445159888
 30
0.0
 11
119.0000278233707
 21
41.22475303325345
 31
0.0
  0
LINE
  5
1C58
  8
SAPA_FOGBAND
  6
CONTINUOUS
 10
119.0000278233707
 20
41.22475303325345
 30
0.0
 11
118.8197502595975
 21
41.299426445159888
 31
0.0
  0
LINE
  5
1C59
  8
SAPA_FOGBAND
  6
CONTINUOUS
 10
118.7450768476911
 20
41.479704008933091
 30
0.0
 11
118.8197502595975
 21
41.299426445159888
 31
0.0
  0
LINE
  5
1C5A
  8
SAPA_FOGBAND
  6
CONTINUOUS
 10
119.25497879905041
 20
41.479704008933091
 30
0.0
 11
119.1803053871439
 21
41.299426445159888
 31
0.0
  0
ENDBLK
  5
1C5C
  8
0
  0
BLOCK
  8
0
  2
*U95
 70
     1
 10
0.0
 20
0.0
 30
0.0
  3
*U95
  1

  0
SOLID
  5
1C92
  8
SAPA_FOGBAND
  6
CONTINUOUS
 10
119.175725176629
 20
-8.0266728654777975
 30
0.0
 11
118.9954476128558
 21
-8.1013462773842377
 31
0.0
 12
119.3560027404022
 22
-8.1013462773842377
 32
0.0
 13
119.3560027404022
 23
-8.1013462773842377
 33
0.0
210
0.0
220
0.0
230
1.0
  0
SOLID
  5
1C93
  8
SAPA_FOGBAND
  6
CONTINUOUS
 10
118.9954476128558
 20
-8.1013462773842377
 30
0.0
 11
118.9207742009493
 21
-8.2816238411574368
 31
0.0
 12
119.43067615230861
 22
-8.2816238411574368
 32
0.0
 13
119.43067615230861
 23
-8.2816238411574368
 33
0.0
210
0.0
220
0.0
230
1.0
  0
SOLID
  5
1C94
  8
SAPA_FOGBAND
  6
CONTINUOUS
 10
-118.9954476128558
 20
-8.1013462773842377
 30
0.0
 11
-119.3560027404022
 21
-8.1013462773842377
 31
0.0
 12
-119.43067615230861
 22
-8.2816238411574368
 32
0.0
 13
-119.43067615230861
 23
-8.2816238411574368
 33
0.0
210
0.0
220
0.0
230
-1.0
  0
SOLID
  5
1C95
  8
SAPA_FOGBAND
  6
CONTINUOUS
 10
-118.9954476128558
 20
-8.4619014049306358
 30
0.0
 11
-119.3560027404022
 21
-8.4619014049306358
 31
0.0
 12
-119.175725176629
 22
-8.5365748168370761
 32
0.0
 13
-119.175725176629
 23
-8.5365748168370761
 33
0.0
210
0.0
220
0.0
230
-1.0
  0
SOLID
  5
1C96
  8
SAPA_FOGBAND
  6
CONTINUOUS
 10
118.9207742009493
 20
-8.2816238411574368
 30
0.0
 11
118.9954476128558
 21
-8.4619014049306358
 31
0.0
 12
119.3560027404022
 22
-8.4619014049306358
 32
0.0
 13
119.3560027404022
 23
-8.4619014049306358
 33
0.0
210
0.0
220
0.0
230
1.0
  0
SOLID
  5
1C97
  8
SAPA_FOGBAND
  6
CONTINUOUS
 10
-118.9207742009493
 20
-8.2816238411574368
 30
0.0
 11
-119.43067615230861
 21
-8.2816238411574368
 31
0.0
 12
-119.3560027404022
 22
-8.4619014049306358
 32
0.0
 13
-119.3560027404022
 23
-8.4619014049306358
 33
0.0
210
0.0
220
0.0
230
-1.0
  0
LINE
  5
1C98
  8
SAPA_FOGBAND
  6
CONTINUOUS
 10
119.175725176629
 20
-8.0266728654777975
 30
0.0
 11
118.9954476128558
 21
-8.1013462773842377
 31
0.0
  0
LINE
  5
1C99
  8
SAPA_FOGBAND
  6
CONTINUOUS
 10
119.3560027404022
 20
-8.1013462773842377
 30
0.0
 11
119.175725176629
 21
-8.0266728654777975
 31
0.0
  0
LINE
  5
1C9A
  8
SAPA_FOGBAND
  6
CONTINUOUS
 10
118.9954476128558
 20
-8.1013462773842377
 30
0.0
 11
118.9207742009493
 21
-8.2816238411574368
 31
0.0
  0
LINE
  5
1C9B
  8
SAPA_FOGBAND
  6
CONTINUOUS
 10
119.3560027404022
 20
-8.1013462773842377
 30
0.0
 11
119.43067615230861
 21
-8.2816238411574368
 31
0.0
  0
LINE
  5
1C9C
  8
SAPA_FOGBAND
  6
CONTINUOUS
 10
119.3560027404022
 20
-8.4619014049306358
 30
0.0
 11
119.175725176629
 21
-8.5365748168370761
 31
0.0
  0
LINE
  5
1C9D
  8
SAPA_FOGBAND
  6
CONTINUOUS
 10
119.175725176629
 20
-8.5365748168370761
 30
0.0
 11
118.9954476128558
 21
-8.4619014049306358
 31
0.0
  0
LINE
  5
1C9E
  8
SAPA_FOGBAND
  6
CONTINUOUS
 10
118.9207742009493
 20
-8.2816238411574368
 30
0.0
 11
118.9954476128558
 21
-8.4619014049306358
 31
0.0
  0
LINE
  5
1C9F
  8
SAPA_FOGBAND
  6
CONTINUOUS
 10
119.43067615230861
 20
-8.2816238411574368
 30
0.0
 11
119.3560027404022
 21
-8.4619014049306358
 31
0.0
  0
ENDBLK
  5
1CA1
  8
0
  0
BLOCK
  8
0
  2
*U96
 70
     1
 10
0.0
 20
0.0
 30
0.0
  3
*U96
  1

  0
TEXT
  5
1CFE
  8
SAPA_MATT
 62
     2
 10
154.26786796564389
 20
-32.400000000000091
 30
0.0
 40
3.0
  1
45
  7
ISO
  0
ENDBLK
  5
1D00
  8
0
  0
BLOCK
  8
0
  2
*U97
 70
     1
 10
0.0
 20
0.0
 30
0.0
  3
*U97
  1

  0
TEXT
  5
1D02
  8
SAPA_MATT
 62
     2
 10
116.9788188976375
 20
-32.400000000000098
 30
0.0
 40
3.0
  1
30
  7
ISO
  0
ENDBLK
  5
1D04
  8
0
  0
BLOCK
  8
0
  2
*U98
 70
     1
 10
0.0
 20
0.0
 30
0.0
  3
*U98
  1

  0
TEXT
  5
1D06
  8
SAPA_MATT
 62
     2
 10
41.228818897637311
 20
-32.399704724409553
 30
0.0
 40
3.0
  1
120
  7
ISO
  0
ENDBLK
  5
1D08
  8
0
  0
ENDSEC
  0
SECTION
  2
ENTITIES
  0
LINE
  5
16B
  8
SAPA_ANSLUTNING
 10
189.07616232240639
 20
57.531708941802968
 30
0.0
 11
189.07616232240639
 21
-24.502554041098549
 31
0.0
  0
TEXT
  5
195
  8
SAPA_ARTIKELNR
 10
150.3078831044858
 20
44.448790972262287
 30
0.0
 40
3.5
  1
68005
  7
ISO
  0
TEXT
  5
197
  8
SAPA_ARTIKELNR
 10
111.2338199746715
 20
50.178907939686532
 30
0.0
 40
3.5
  1
42138
  7
ISO
  0
TEXT
  5
198
  8
SAPA_ARTIKELNR
 10
113.8435951732212
 20
-19.893598339952909
 30
0.0
 40
3.5
  1
42138
  7
ISO
  0
TEXT
  5
199
  8
SAPA_ARTIKELNR
 10
48.304278927482237
 20
50.178907939686532
 30
0.0
 40
3.5
  1
68057
  7
ISO
  0
DIMENSION
  5
19B
  8
SAPA_MATT
  2
*D0
 10
-16.06000000000024
 20
-45.400000000000119
 30
0.0
 11
81.509999999999707
 21
-42.900000000000119
 31
0.0
 70
     0
  1
195
 13
179.07999999999959
 23
-8.399999999999979
 33
0.0
 14
-16.06000000000024
 24
-7.9000000000001043
 34
0.0
 50
0.000000000000007
1001
ACAD
1000
DSTYLE
1002
{
1070
    40
1040
1.0
1002
}
  0
POLYLINE
  5
28D
  8
SAPA_ANSLUTNING
 66
     1
 10
0.0
 20
0.0
 30
0.0
 70
     1
1001
ACAD
1000
ASC_BOUNDS
1002
{
1070
    19
1005
2F4
1002
}
  0
VERTEX
  5
11E5
  8
SAPA_ANSLUTNING
 10
176.75119954137841
 20
-5.3251174677562298
 30
0.0
  0
VERTEX
  5
11E6
  8
SAPA_ANSLUTNING
 10
176.75119954137841
 20
-3.922017512671617
 30
0.0
  0
VERTEX
  5
11E7
  8
SAPA_ANSLUTNING
 10
178.202096597425
 20
-3.922017512671617
 30
0.0
  0
VERTEX
  5
11E8
  8
SAPA_ANSLUTNING
 10
179.57649838068971
 20
-5.0752775420984477
 30
0.0
  0
VERTEX
  5
11E9
  8
SAPA_ANSLUTNING
 10
179.57649838068971
 20
-8.225117467756208
 30
0.0
  0
VERTEX
  5
11EA
  8
SAPA_ANSLUTNING
 10
188.57649838068971
 20
-8.2251174677562062
 30
0.0
  0
VERTEX
  5
11EB
  8
SAPA_ANSLUTNING
 10
188.57649838068971
 20
1.7748825322437931
 30
0.0
  0
VERTEX
  5
11EC
  8
SAPA_ANSLUTNING
 10
174.5764983806898
 20
1.774882532243792
 30
0.0
  0
VERTEX
  5
11ED
  8
SAPA_ANSLUTNING
 10
174.5764983806898
 20
-5.3417567059571676
 30
0.0
 42
1.0039478385010081
  0
SEQEND
  5
11EE
  8
SAPA_ANSLUTNING
  0
POLYLINE
  5
28E
  8
SAPA_ANSLUTNING
 66
     1
 10
0.0
 20
0.0
 30
0.0
 70
     1
1001
ACAD
1000
ASC_BOUNDS
1002
{
1070
    19
1005
2F4
1002
}
  0
VERTEX
  5
11EF
  8
SAPA_ANSLUTNING
 10
181.57723523279901
 20
29.92060279239081
 30
0.0
 42
0.0538647880861898
  0
VERTEX
  5
11F0
  8
SAPA_ANSLUTNING
 10
184.56750099266219
 20
30.243680237216029
 30
0.0
 42
0.0677080186897121
  0
VERTEX
  5
11F1
  8
SAPA_ANSLUTNING
 10
186.81856474185429
 20
31.066558371236091
 30
0.0
 42
0.1053277233169234
  0
VERTEX
  5
11F2
  8
SAPA_ANSLUTNING
 10
188.5261715881654
 20
32.491920348086282
 30
0.0
 42
0.1678920096872386
  0
VERTEX
  5
11F3
  8
SAPA_ANSLUTNING
 10
188.9895945093713
 20
33.83313987156145
 30
0.0
 42
0.1678920096872382
  0
VERTEX
  5
11F4
  8
SAPA_ANSLUTNING
 10
188.5261715881654
 20
35.174359395036618
 30
0.0
 42
0.1053277233169209
  0
VERTEX
  5
11F5
  8
SAPA_ANSLUTNING
 10
186.81856474185429
 20
36.599721371886801
 30
0.0
 42
0.06770801868971
  0
VERTEX
  5
11F6
  8
SAPA_ANSLUTNING
 10
184.5675009926623
 20
37.422599505906859
 30
0.0
 42
0.053864788086187
  0
VERTEX
  5
11F7
  8
SAPA_ANSLUTNING
 10
181.57723523279901
 20
37.745676950732062
 30
0.0
 42
0.0538647880861851
  0
VERTEX
  5
11F8
  8
SAPA_ANSLUTNING
 10
178.58696947293589
 20
37.422599505906881
 30
0.0
 42
0.0677080186897099
  0
VERTEX
  5
11F9
  8
SAPA_ANSLUTNING
 10
176.33590572374391
 20
36.599721371886801
 30
0.0
 42
0.1053277233169203
  0
VERTEX
  5
11FA
  8
SAPA_ANSLUTNING
 10
174.62829887743291
 20
35.174359395036618
 30
0.0
 42
0.1678920096872382
  0
VERTEX
  5
11FB
  8
SAPA_ANSLUTNING
 10
174.16487595622689
 20
33.83313987156145
 30
0.0
 42
0.167892009687245
  0
VERTEX
  5
11FC
  8
SAPA_ANSLUTNING
 10
174.62829887743291
 20
32.491920348086261
 30
0.0
 42
0.1053277233169226
  0
VERTEX
  5
11FD
  8
SAPA_ANSLUTNING
 10
176.33590572374391
 20
31.066558371236091
 30
0.0
 42
0.0677080186897082
  0
VERTEX
  5
11FE
  8
SAPA_ANSLUTNING
 10
178.58696947293589
 20
30.243680237216012
 30
0.0
 42
0.0538647880861872
  0
SEQEND
  5
11FF
  8
SAPA_ANSLUTNING
  0
ARC
  5
28F
  8
SAPA_ANSLUTNING
 10
184.07633035154819
 20
53.568378558050597
 30
0.0
 40
12.809561594665579
 50
247.0255689067402
 51
292.97443109325991
  0
POLYLINE
  5
293
  8
SAPA_ANSLUTNING
 66
     1
 10
0.0
 20
0.0
 30
0.0
  0
VERTEX
  5
1200
  8
SAPA_ANSLUTNING
 10
176.56637564103821
 20
2.7137265757919931
 30
0.0
 42
-1.0
  0
VERTEX
  5
1201
  8
SAPA_ANSLUTNING
 10
176.56637564103821
 20
6.7137265757919931
 30
0.0
  0
VERTEX
  5
1202
  8
SAPA_ANSLUTNING
 10
187.02298608748691
 20
6.7137265757917657
 30
0.0
 42
0.9999989466455052
  0
VERTEX
  5
1203
  8
SAPA_ANSLUTNING
 10
187.02299030090711
 20
10.713726575787449
 30
0.0
  0
VERTEX
  5
1204
  8
SAPA_ANSLUTNING
 10
181.0229893733196
 20
10.71372657578744
 30
0.0
 42
-1.0
  0
VERTEX
  5
1205
  8
SAPA_ANSLUTNING
 10
181.0229893733196
 20
14.71372657578744
 30
0.0
  0
VERTEX
  5
1206
  8
SAPA_ANSLUTNING
 10
187.0229929326853
 20
14.71372657578733
 30
0.0
 42
0.9999974985601644
  0
VERTEX
  5
1207
  8
SAPA_ANSLUTNING
 10
187.0229929326853
 20
18.71372657577481
 30
0.0
  0
VERTEX
  5
1208
  8
SAPA_ANSLUTNING
 10
181.0229893733196
 20
18.7137265757747
 30
0.0
 42
-1.0
  0
VERTEX
  5
1209
  8
SAPA_ANSLUTNING
 10
181.0229893733196
 20
22.713726575774729
 30
0.0
  0
VERTEX
  5
120A
  8
SAPA_ANSLUTNING
 10
187.02299030090711
 20
22.713726575774711
 30
0.0
 42
0.9999989466455052
  0
VERTEX
  5
120B
  8
SAPA_ANSLUTNING
 10
187.02298608748691
 20
26.713726575770401
 30
0.0
  0
VERTEX
  5
120C
  8
SAPA_ANSLUTNING
 10
176.56637564103821
 20
26.713726575770171
 30
0.0
 42
-1.0
  0
VERTEX
  5
120D
  8
SAPA_ANSLUTNING
 10
176.56637564103821
 20
30.713726575770171
 30
0.0
  0
SEQEND
  5
120E
  8
SAPA_ANSLUTNING
  0
INSERT
  5
2F4
  8
SAPA_ANSLUTNING
  6
CONTINUOUS
  2
*X63
 10
0.0
 20
0.0
 30
0.0
1001
ACAD
1000
HATCH
1002
{
1070
    19
1000
HEX
1040
7.0
1040
1.5707963267948959
1000
ASC_BOUNDS
1070
     2
1070
     1
1070
     1
1005
28E
1070
     1
1070
     1
1005
28D
1000
ASC_SEEDPOINT
1011
184.84935765333449
1021
0.0
1031
0.0
1021
-2.7111486052279758
1031
0.0
1000
R14_HATCH_DATA
1000
2F4
1011
1.0
1021
0.0
1031
0.0
1021
0.0
1031
0.0
1011
0.0
1021
0.0
1031
0.0
1021
1.0
1031
0.0
1011
0.0
1021
0.0
1031
0.0
1021
0.0
1031
1.0
1040
0.0
1010
0.0
1020
0.0
1030
1.0
1000
HEX
1070
     0
1070
     1
1071
        2
1071
        7
1070
     1
1070
     1
1071
        9
1040
188.57649838068971
1040
1.7748825322437931
1040
0.0
1040
174.57649838068971
1040
1.774882532243792
1040
0.0
1040
174.5764983806898
1040
-5.3417567059571676
1040
0.9923779948559721
1040
176.75119954137841
1040
-5.3503251947416031
1040
0.0
1040
176.75119954137841
1040
-3.922017512671617
1040
0.0
1040
178.202096597425
1040
-3.922017512671617
1040
0.0
1040
179.57649838068971
1040
-5.0752775420984149
1040
0.0
1040
179.57649838068971
1040
-8.2251174677562062
1040
0.0
1040
188.5764983806898
1040
-8.2251174677562062
1040
0.0
1071
        1
1005
28D
1071
        7
1070
     1
1070
     1
1071
       16
1040
181.57723523279901
1040
37.745676950732062
1040
0.0538647880861851
1040
178.58696947293589
1040
37.422599505906881
1040
0.0677080186897099
1040
176.33590572374391
1040
36.599721371886801
1040
0.1053277233169203
1040
174.62829887743291
1040
35.174359395036618
1040
0.1678920096872382
1040
174.16487595622689
1040
33.83313987156145
1040
0.167892009687245
1040
174.62829887743291
1040
32.491920348086261
1040
0.1053277233169226
1040
176.33590572374391
1040
31.066558371236091
1040
0.0677080186897082
1040
178.58696947293589
1040
30.243680237216012
1040
0.0538647880861872
1040
181.57723523279901
1040
29.92060279239081
1040
0.0538647880861898
1040
184.56750099266219
1040
30.243680237216029
1040
0.0677080186897121
1040
186.81856474185429
1040
31.066558371236091
1040
0.1053277233169234
1040
188.5261715881654
1040
32.491920348086282
1040
0.1678920096872386
1040
188.9895945093713
1040
33.83313987156145
1040
0.1678920096872382
1040
188.5261715881654
1040
35.174359395036618
1040
0.105327723316921
1040
186.81856474185429
1040
36.599721371886801
1040
0.06770801868971
1040
184.5675009926623
1040
37.422599505906859
1040
0.053864788086187
1071
        1
1005
28E
1070
     0
1070
     1
1040
1.5707963267948959
1040
7.0
1070
     0
1070
     3
1040
1.5707963267948959
1040
-358.26446176661221
1040
-88.16486839392212
1040
1.5155444570000001
1040
0.0000000000000001
1070
     2
1040
0.875
1040
-1.75
1040
5.7595865315812871
1040
-358.26446176661221
1040
-88.16486839392212
1040
-0.7577722284999996
1040
-1.312500000326692
1070
     2
1040
0.8749999999999998
1040
-1.7499999999999989
1040
0.5235987755982993
1040
-358.26446176661221
1040
-87.289868393922106
1040
0.7577722285000004
1040
-1.312500000326692
1070
     2
1040
0.875
1040
-1.75
1040
0.1004818818266199
1071
        2
1040
184.84935765333449
1040
-2.7111486052279758
1040
0.0
1040
183.44261077515529
1040
35.490598271014861
1040
0.0
1002
}
  0
INSERT
  5
308
  8
SAPA_ANSLUTNING
  6
CONTINUOUS
  2
*X64
 10
0.0
 20
0.0
 30
0.0
1001
ACAD
1000
HATCH
1002
{
1070
    19
1000
ANSI37
1040
10.0
1040
1.5707963267948959
1000
R14_HATCH_DATA
1000
308
1011
1.0
1021
0.0
1031
0.0
1021
0.0
1031
0.0
1011
0.0
1021
0.0
1031
0.0
1021
1.0
1031
0.0
1011
0.0
1021
0.0
1031
0.0
1021
0.0
1031
1.0
1040
0.0
1010
0.0
1020
0.0
1030
1.0
1000
ANSI37
1070
     0
1070
     0
1071
        1
1071
        7
1070
     1
1070
     1
1071
       14
1040
189.07616232240639
1040
41.77488253224405
1040
0.0
1040
189.07616232240639
1040
33.83313987156145
1040
0.0
1040
188.9895945093713
1040
33.83313987156145
1040
0.1678920096872382
1040
188.5261715881654
1040
35.174359395036618
1040
0.1053277233169209
1040
186.81856474185429
1040
36.599721371886801
1040
0.06770801868971
1040
184.5675009926623
1040
37.422599505906859
1040
0.053864788086187
1040
181.57723523279901
1040
37.745676950732062
1040
0.0538647880861851
1040
178.58696947293589
1040
37.422599505906881
1040
0.0677080186897096
1040
176.33590572374391
1040
36.59972137188683
1040
0.0
1040
177.0799999999997
1040
37.600000000000051
1040
0.0
1040
178.0799999999997
1040
37.600000000000051
1040
0.0
1040
179.0799999999997
1040
38.600000000000101
1040
0.0
1040
179.0799999999997
1040
41.600000000000669
1040
0.0
1040
179.07649838068949
1040
41.774882532244192
1040
0.2032199431463407
1071
        0
1070
     0
1070
     1
1040
1.5707963267948959
1040
10.0
1070
     0
1070
     2
1040
0.7853981633974484
1040
-358.26446176661221
1040
-88.16486839392212
1040
0.8838834764831844
1040
-0.8838834764831842
1070
     0
1040
5.4977871437821371
1040
-358.26446176661221
1040
-88.16486839392212
1040
-0.8838834764831842
1040
-0.8838834764831844
1070
     0
1040
0.0390651268545045
1071
        1
1040
185.81841569225719
1040
39.40761109256956
1040
0.0
1002
}
  0
DIMENSION
  5
320
  8
SAPA_MATT
  2
*D1
 10
204.52975283955939
 20
46.599999999999909
 30
0.0
 11
202.02975283955939
 21
16.599999999999941
 31
0.0
 70
     0
 13
189.07616232240639
 23
-13.400000000000089
 33
0.0
 14
189.07616232240639
 24
46.599999999999909
 34
0.0
 50
90.0
1001
ACAD
1000
DSTYLE
1002
{
1070
    40
1040
1.0
1002
}
  0
POLYLINE
  5
352
  8
SAPA_LIGHT
 66
     1
 10
0.0
 20
0.0
 30
0.0
 70
     1
  0
VERTEX
  5
12DC
  8
SAPA_LIGHT
 10
179.0799999999997
 20
-8.399999999999979
 30
0.0
  0
VERTEX
  5
12DD
  8
SAPA_LIGHT
 10
179.0799999999997
 20
41.600000000000051
 30
0.0
  0
VERTEX
  5
12DE
  8
SAPA_LIGHT
 10
125.0831419999999
 20
41.600000000000037
 30
0.0
  0
VERTEX
  5
12DF
  8
SAPA_LIGHT
 10
125.0831419999999
 20
-8.3999999999999826
 30
0.0
  0
SEQEND
  5
12E0
  8
SAPA_LIGHT
  0
POLYLINE
  5
353
  8
SAPA_LIGHT
 66
     1
 10
0.0
 20
0.0
 30
0.0
  0
VERTEX
  5
12E1
  8
SAPA_LIGHT
 10
-15.92000000000289
 20
0.5000000000000018
 30
0.0
  0
VERTEX
  5
12E2
  8
SAPA_LIGHT
 10
-15.92000000000059
 20
-13.4000000000001
 30
0.0
  0
VERTEX
  5
12E3
  8
SAPA_LIGHT
 10
113.0768579999998
 20
-13.400000000000089
 30
0.0
  0
VERTEX
  5
12E4
  8
SAPA_LIGHT
 10
113.0768579999998
 20
46.59999999999993
 30
0.0
  0
VERTEX
  5
12E5
  8
SAPA_LIGHT
 10
-15.92000000000281
 20
46.599999999999952
 30
0.0
  0
VERTEX
  5
12E6
  8
SAPA_LIGHT
 10
-15.92000000000281
 20
6.4999999999999849
 30
0.0
  0
SEQEND
  5
12E7
  8
SAPA_LIGHT
  0
POLYLINE
  5
354
  8
SAPA_LIGHT
 66
     1
 10
0.0
 20
0.0
 30
0.0
  0
VERTEX
  5
12E8
  8
SAPA_LIGHT
 10
-32.12000000000041
 20
0.5
 30
0.0
  0
VERTEX
  5
12E9
  8
SAPA_LIGHT
 10
1.079999999999522
 20
0.500000000000002
 30
0.0
  0
VERTEX
  5
12EA
  8
SAPA_LIGHT
 10
1.079999999999522
 20
6.5000000000000009
 30
0.0
  0
VERTEX
  5
12EB
  8
SAPA_LIGHT
 10
-32.120000000000474
 20
6.5
 30
0.0
  0
VERTEX
  5
12EC
  8
SAPA_LIGHT
 10
-32.12000000000041
 20
0.5
 30
0.0
  0
SEQEND
  5
12ED
  8
SAPA_LIGHT
  0
LINE
  5
3D1
  8
SAPA_LIGHT
 10
189.07616232240639
 20
57.531708941802968
 30
0.0
 11
189.07616232240639
 21
-24.502554041098549
 31
0.0
  0
LINE
  5
115E
  8
SAPA_PROFIL
 10
-6.6200000000044952
 20
-4.399999999994975
 30
0.0
 11
-6.6200000000044952
 21
-4.399999999994975
 31
0.0
  0
POLYLINE
  5
115F
  8
SAPA_PROFIL
 66
     1
 10
0.0
 20
0.0
 30
0.0
 70
     1
  0
VERTEX
  5
1955
  8
SAPA_PROFIL
 10
9.3799999999994839
 20
14.600000000000019
 30
0.0
 42
-0.4142135623730951
  0
VERTEX
  5
1956
  8
SAPA_PROFIL
 10
9.0799999999994156
 20
14.89999999999997
 30
0.0
  0
VERTEX
  5
1957
  8
SAPA_PROFIL
 10
9.0799999999994156
 20
15.733974596215029
 30
0.0
  0
VERTEX
  5
1958
  8
SAPA_PROFIL
 10
8.5799999999994156
 20
16.600000000000019
 30
0.0
  0
VERTEX
  5
1959
  8
SAPA_PROFIL
 10
9.0799999999994156
 20
17.466025403783991
 30
0.0
  0
VERTEX
  5
195A
  8
SAPA_PROFIL
 10
9.0799999999994156
 20
18.300000000000072
 30
0.0
 42
-0.4142135623730951
  0
VERTEX
  5
195B
  8
SAPA_PROFIL
 10
9.3799999999994839
 20
18.600000000000019
 30
0.0
  0
VERTEX
  5
195C
  8
SAPA_PROFIL
 10
13.07999999999941
 20
18.600000000000019
 30
0.0
  0
VERTEX
  5
195D
  8
SAPA_PROFIL
 10
14.07999999999941
 20
19.600000000000019
 30
0.0
  0
VERTEX
  5
195E
  8
SAPA_PROFIL
 10
14.07999999999941
 20
33.699999999999932
 30
0.0
 42
-0.4142135623730951
  0
VERTEX
  5
195F
  8
SAPA_PROFIL
 10
14.37999999999948
 20
34.0
 30
0.0
  0
VERTEX
  5
1960
  8
SAPA_PROFIL
 10
17.779999999999461
 20
34.0
 30
0.0
 42
0.4142135623730951
  0
VERTEX
  5
1961
  8
SAPA_PROFIL
 10
18.079999999999409
 20
34.300000000000068
 30
0.0
  0
VERTEX
  5
1962
  8
SAPA_PROFIL
 10
18.079999999999409
 20
35.899999999999977
 30
0.0
 42
0.4142135623730951
  0
VERTEX
  5
1963
  8
SAPA_PROFIL
 10
17.779999999999461
 20
36.199999999999932
 30
0.0
  0
VERTEX
  5
1964
  8
SAPA_PROFIL
 10
14.37999999999948
 20
36.199999999999932
 30
0.0
 42
-0.4142135623730951
  0
VERTEX
  5
1965
  8
SAPA_PROFIL
 10
14.07999999999941
 20
36.5
 30
0.0
  0
VERTEX
  5
1966
  8
SAPA_PROFIL
 10
14.07999999999941
 20
43.300000000000068
 30
0.0
 42
-0.4142135623730951
  0
VERTEX
  5
1967
  8
SAPA_PROFIL
 10
14.37999999999948
 20
43.600000000000023
 30
0.0
  0
VERTEX
  5
1968
  8
SAPA_PROFIL
 10
90.579999999999416
 20
43.600000000000023
 30
0.0
 42
-0.4142135623730951
  0
VERTEX
  5
1969
  8
SAPA_PROFIL
 10
90.879999999999484
 20
43.300000000000068
 30
0.0
  0
VERTEX
  5
196A
  8
SAPA_PROFIL
 10
90.879999999999484
 20
36.5
 30
0.0
 42
-0.4142135623730951
  0
VERTEX
  5
196B
  8
SAPA_PROFIL
 10
90.579999999999416
 20
36.199999999999932
 30
0.0
  0
VERTEX
  5
196C
  8
SAPA_PROFIL
 10
87.179999999999438
 20
36.199999999999932
 30
0.0
 42
0.4142135623730951
  0
VERTEX
  5
196D
  8
SAPA_PROFIL
 10
86.879999999999484
 20
35.899999999999977
 30
0.0
  0
VERTEX
  5
196E
  8
SAPA_PROFIL
 10
86.879999999999356
 20
34.300000000000068
 30
0.0
 42
0.4142135623730951
  0
VERTEX
  5
196F
  8
SAPA_PROFIL
 10
87.179999999999438
 20
34.0
 30
0.0
  0
VERTEX
  5
1970
  8
SAPA_PROFIL
 10
91.779999999999447
 20
34.0
 30
0.0
 42
-0.4142135623730951
  0
VERTEX
  5
1971
  8
SAPA_PROFIL
 10
92.079999999999416
 20
33.699999999999932
 30
0.0
  0
VERTEX
  5
1972
  8
SAPA_PROFIL
 10
92.079999999999416
 20
-0.5
 30
0.0
 42
-0.4142135623730951
  0
VERTEX
  5
1973
  8
SAPA_PROFIL
 10
91.779999999999447
 20
-0.8000000000000682
 30
0.0
  0
VERTEX
  5
1974
  8
SAPA_PROFIL
 10
87.179999999999438
 20
-0.8000000000000682
 30
0.0
 42
0.4142135623730951
  0
VERTEX
  5
1975
  8
SAPA_PROFIL
 10
86.879999999999356
 20
-1.1000000000000221
 30
0.0
  0
VERTEX
  5
1976
  8
SAPA_PROFIL
 10
86.879999999999484
 20
-2.6999999999999309
 30
0.0
 42
0.4142135623730951
  0
VERTEX
  5
1977
  8
SAPA_PROFIL
 10
87.179999999999438
 20
-3.0
 30
0.0
  0
VERTEX
  5
1978
  8
SAPA_PROFIL
 10
90.579999999999416
 20
-3.0
 30
0.0
 42
-0.4142135623730951
  0
VERTEX
  5
1979
  8
SAPA_PROFIL
 10
90.879999999999484
 20
-3.3000000000000682
 30
0.0
  0
VERTEX
  5
197A
  8
SAPA_PROFIL
 10
90.879999999999484
 20
-10.100000000000019
 30
0.0
 42
-0.4142135623730951
  0
VERTEX
  5
197B
  8
SAPA_PROFIL
 10
90.579999999999416
 20
-10.399999999999981
 30
0.0
  0
VERTEX
  5
197C
  8
SAPA_PROFIL
 10
13.57999999999941
 20
-10.399999999999981
 30
0.0
  0
VERTEX
  5
197D
  8
SAPA_PROFIL
 10
10.16786796564344
 20
-6.987867965643999
 30
0.0
 42
-0.1989123673797207
  0
VERTEX
  5
197E
  8
SAPA_PROFIL
 10
10.07999999999941
 20
-6.7757359312880681
 30
0.0
  0
VERTEX
  5
197F
  8
SAPA_PROFIL
 10
10.07999999999941
 20
-3.3000000000000682
 30
0.0
 42
-0.4142135623730951
  0
VERTEX
  5
1980
  8
SAPA_PROFIL
 10
10.37999999999948
 20
-3.0
 30
0.0
  0
VERTEX
  5
1981
  8
SAPA_PROFIL
 10
17.779999999999461
 20
-3.0
 30
0.0
 42
0.4142135623730951
  0
VERTEX
  5
1982
  8
SAPA_PROFIL
 10
18.079999999999409
 20
-2.6999999999999309
 30
0.0
  0
VERTEX
  5
1983
  8
SAPA_PROFIL
 10
18.079999999999409
 20
-1.1000000000000221
 30
0.0
 42
0.4142135623730951
  0
VERTEX
  5
1984
  8
SAPA_PROFIL
 10
17.779999999999461
 20
-0.8000000000000682
 30
0.0
  0
VERTEX
  5
1985
  8
SAPA_PROFIL
 10
9.3799999999994839
 20
-0.8000000000000682
 30
0.0
 42
-0.4142135623730951
  0
VERTEX
  5
1986
  8
SAPA_PROFIL
 10
9.0799999999994156
 20
-0.5
 30
0.0
  0
VERTEX
  5
1987
  8
SAPA_PROFIL
 10
9.0799999999994156
 20
12.30000000000007
 30
0.0
 42
-0.4142135623730951
  0
VERTEX
  5
1988
  8
SAPA_PROFIL
 10
9.3799999999994839
 20
12.600000000000019
 30
0.0
  0
VERTEX
  5
1989
  8
SAPA_PROFIL
 10
13.37999999999948
 20
12.600000000000019
 30
0.0
 42
0.6681786379192989
  0
VERTEX
  5
198A
  8
SAPA_PROFIL
 10
13.7335533905927
 20
13.45355339059336
 30
0.0
  0
VERTEX
  5
198B
  8
SAPA_PROFIL
 10
12.58710678118649
 20
14.600000000000019
 30
0.0
  0
SEQEND
  5
198C
  8
SAPA_PROFIL
  0
POLYLINE
  5
1160
  8
SAPA_PROFIL
 66
     1
 10
0.0
 20
0.0
 30
0.0
 70
     1
  0
VERTEX
  5
198D
  8
SAPA_PROFIL
 10
98.837359312880423
 20
-13.399999999999981
 30
0.0
 42
0.1989123673796595
  0
VERTEX
  5
198E
  8
SAPA_PROFIL
 10
100.9586796564401
 20
-12.521320343559641
 30
0.0
  0
VERTEX
  5
198F
  8
SAPA_PROFIL
 10
103.78710678118649
 20
-9.6928932188139925
 30
0.0
 42
0.1989123673796811
  0
VERTEX
  5
1990
  8
SAPA_PROFIL
 10
104.0799999999994
 20
-8.9857864376269845
 30
0.0
  0
VERTEX
  5
1991
  8
SAPA_PROFIL
 10
104.0799999999998
 20
-6.6000000000001364
 30
0.0
 42
0.2504916501726618
  0
VERTEX
  5
1992
  8
SAPA_PROFIL
 10
103.0799999999994
 20
-5.5999999999999091
 30
0.0
  0
VERTEX
  5
1993
  8
SAPA_PROFIL
 10
102.3799999999995
 20
-5.5999999999997954
 30
0.0
 42
0.4142135623730951
  0
VERTEX
  5
1994
  8
SAPA_PROFIL
 10
102.0799999999994
 20
-5.8999999999998627
 30
0.0
  0
VERTEX
  5
1995
  8
SAPA_PROFIL
 10
102.0799999999994
 20
-6.3499999999999091
 30
0.0
 42
-0.4142135623730951
  0
VERTEX
  5
1996
  8
SAPA_PROFIL
 10
101.7799999999994
 20
-6.6499999999998627
 30
0.0
  0
VERTEX
  5
1997
  8
SAPA_PROFIL
 10
101.0799999999995
 20
-6.6499999999998627
 30
0.0
 42
-0.4142135623731506
  0
VERTEX
  5
1998
  8
SAPA_PROFIL
 10
100.7799999999994
 20
-6.3499999999999091
 30
0.0
  0
VERTEX
  5
1999
  8
SAPA_PROFIL
 10
100.7799999999994
 20
-5.8999999999998627
 30
0.0
 42
0.4142135623731506
  0
VERTEX
  5
199A
  8
SAPA_PROFIL
 10
100.47999999999951
 20
-5.5999999999999091
 30
0.0
  0
VERTEX
  5
199B
  8
SAPA_PROFIL
 10
99.979999999999507
 20
-5.5999999999997954
 30
0.0
 42
0.4142135623730951
  0
VERTEX
  5
199C
  8
SAPA_PROFIL
 10
99.479999999999507
 20
-6.0999999999997954
 30
0.0
  0
VERTEX
  5
199D
  8
SAPA_PROFIL
 10
99.479999999999507
 20
-7.4999999999997717
 30
0.0
 42
-0.4142135623730951
  0
VERTEX
  5
199E
  8
SAPA_PROFIL
 10
98.479999999999507
 20
-8.4999999999997726
 30
0.0
  0
VERTEX
  5
199F
  8
SAPA_PROFIL
 10
98.079999999999416
 20
-8.4999999999998863
 30
0.0
 42
-0.9999999999999998
  0
VERTEX
  5
19A0
  8
SAPA_PROFIL
 10
98.079999999999416
 20
-1.29999999999984
 30
0.0
  0
VERTEX
  5
19A1
  8
SAPA_PROFIL
 10
99.179999999999566
 20
-1.299999999999613
 30
0.0
 42
-0.4142135623732059
  0
VERTEX
  5
19A2
  8
SAPA_PROFIL
 10
99.479999999999634
 20
-1.5999999999997949
 30
0.0
  0
VERTEX
  5
19A3
  8
SAPA_PROFIL
 10
99.479999999999393
 20
-1.899999999999749
 30
0.0
 42
0.4142135623733948
  0
VERTEX
  5
19A4
  8
SAPA_PROFIL
 10
99.979999999999507
 20
-2.3999999999999768
 30
0.0
  0
VERTEX
  5
19A5
  8
SAPA_PROFIL
 10
100.47999999999951
 20
-2.3999999999999768
 30
0.0
 42
0.4142135623730397
  0
VERTEX
  5
19A6
  8
SAPA_PROFIL
 10
100.7799999999994
 20
-2.1000000000000218
 30
0.0
  0
VERTEX
  5
19A7
  8
SAPA_PROFIL
 10
100.7799999999994
 20
-1.6499999999998629
 30
0.0
 42
-0.4142135623731505
  0
VERTEX
  5
19A8
  8
SAPA_PROFIL
 10
101.0799999999995
 20
-1.3499999999999091
 30
0.0
  0
VERTEX
  5
19A9
  8
SAPA_PROFIL
 10
101.7799999999994
 20
-1.3499999999997949
 30
0.0
 42
-0.4142135623730951
  0
VERTEX
  5
19AA
  8
SAPA_PROFIL
 10
102.0799999999994
 20
-1.6499999999998629
 30
0.0
  0
VERTEX
  5
19AB
  8
SAPA_PROFIL
 10
102.0799999999994
 20
-2.1000000000000218
 30
0.0
 42
0.4142135623730951
  0
VERTEX
  5
19AC
  8
SAPA_PROFIL
 10
102.3799999999995
 20
-2.3999999999999768
 30
0.0
  0
VERTEX
  5
19AD
  8
SAPA_PROFIL
 10
103.0799999999999
 20
-2.3999999999995221
 30
0.0
 42
0.2504916501726643
  0
VERTEX
  5
19AE
  8
SAPA_PROFIL
 10
104.0799999999998
 20
-1.400000000000545
 30
0.0
  0
VERTEX
  5
19AF
  8
SAPA_PROFIL
 10
104.0799999999994
 20
0.8999999999999772
 30
0.0
 42
0.4142135623730951
  0
VERTEX
  5
19B0
  8
SAPA_PROFIL
 10
103.0799999999994
 20
1.899999999999977
 30
0.0
  0
VERTEX
  5
19B1
  8
SAPA_PROFIL
 10
95.379999999999484
 20
1.899999999999977
 30
0.0
 42
-0.4142135623730951
  0
VERTEX
  5
19B2
  8
SAPA_PROFIL
 10
95.079999999999416
 20
2.1999999999999309
 30
0.0
  0
VERTEX
  5
19B3
  8
SAPA_PROFIL
 10
95.079999999999416
 20
15.733974596215029
 30
0.0
  0
VERTEX
  5
19B4
  8
SAPA_PROFIL
 10
94.579999999999416
 20
16.600000000000019
 30
0.0
  0
VERTEX
  5
19B5
  8
SAPA_PROFIL
 10
95.079999999999416
 20
17.466025403783991
 30
0.0
  0
VERTEX
  5
19B6
  8
SAPA_PROFIL
 10
95.079999999999416
 20
31.0
 30
0.0
 42
-0.4142135623730951
  0
VERTEX
  5
19B7
  8
SAPA_PROFIL
 10
95.379999999999484
 20
31.300000000000072
 30
0.0
  0
VERTEX
  5
19B8
  8
SAPA_PROFIL
 10
103.0799999999994
 20
31.300000000000072
 30
0.0
 42
0.4142135623730951
  0
VERTEX
  5
19B9
  8
SAPA_PROFIL
 10
104.0799999999994
 20
32.300000000000068
 30
0.0
  0
VERTEX
  5
19BA
  8
SAPA_PROFIL
 10
104.0799999999994
 20
34.60000000000003
 30
0.0
 42
0.2504916501726643
  0
VERTEX
  5
19BB
  8
SAPA_PROFIL
 10
103.0799999999999
 20
35.599999999999568
 30
0.0
  0
VERTEX
  5
19BC
  8
SAPA_PROFIL
 10
102.3799999999995
 20
35.600000000000023
 30
0.0
 42
0.4142135623730951
  0
VERTEX
  5
19BD
  8
SAPA_PROFIL
 10
102.0799999999994
 20
35.300000000000068
 30
0.0
  0
VERTEX
  5
19BE
  8
SAPA_PROFIL
 10
102.0799999999994
 20
34.849999999999909
 30
0.0
 42
-0.4142135623730951
  0
VERTEX
  5
19BF
  8
SAPA_PROFIL
 10
101.7799999999994
 20
34.549999999999841
 30
0.0
  0
VERTEX
  5
19C0
  8
SAPA_PROFIL
 10
101.0799999999995
 20
34.549999999999962
 30
0.0
 42
-0.4142135623731506
  0
VERTEX
  5
19C1
  8
SAPA_PROFIL
 10
100.7799999999994
 20
34.849999999999909
 30
0.0
  0
VERTEX
  5
19C2
  8
SAPA_PROFIL
 10
100.7799999999994
 20
35.300000000000068
 30
0.0
 42
0.4142135623730397
  0
VERTEX
  5
19C3
  8
SAPA_PROFIL
 10
100.47999999999951
 20
35.600000000000023
 30
0.0
  0
VERTEX
  5
19C4
  8
SAPA_PROFIL
 10
99.979999999999507
 20
35.600000000000023
 30
0.0
 42
0.4142135623733948
  0
VERTEX
  5
19C5
  8
SAPA_PROFIL
 10
99.479999999999393
 20
35.099999999999802
 30
0.0
  0
VERTEX
  5
19C6
  8
SAPA_PROFIL
 10
99.479999999999634
 20
34.799999999999841
 30
0.0
 42
-0.4142135623732059
  0
VERTEX
  5
19C7
  8
SAPA_PROFIL
 10
99.179999999999566
 20
34.499999999999659
 30
0.0
  0
VERTEX
  5
19C8
  8
SAPA_PROFIL
 10
98.079999999999416
 20
34.499999999999893
 30
0.0
 42
-0.9999999999999998
  0
VERTEX
  5
19C9
  8
SAPA_PROFIL
 10
98.079999999999416
 20
41.699999999999932
 30
0.0
  0
VERTEX
  5
19CA
  8
SAPA_PROFIL
 10
98.479999999999507
 20
41.699999999999818
 30
0.0
 42
-0.4142135623730951
  0
VERTEX
  5
19CB
  8
SAPA_PROFIL
 10
99.479999999999507
 20
40.699999999999811
 30
0.0
  0
VERTEX
  5
19CC
  8
SAPA_PROFIL
 10
99.479999999999507
 20
39.299999999999841
 30
0.0
 42
0.4142135623730951
  0
VERTEX
  5
19CD
  8
SAPA_PROFIL
 10
99.979999999999507
 20
38.799999999999841
 30
0.0
  0
VERTEX
  5
19CE
  8
SAPA_PROFIL
 10
100.47999999999951
 20
38.799999999999947
 30
0.0
 42
0.4142135623731506
  0
VERTEX
  5
19CF
  8
SAPA_PROFIL
 10
100.7799999999994
 20
39.099999999999909
 30
0.0
  0
VERTEX
  5
19D0
  8
SAPA_PROFIL
 10
100.7799999999994
 20
39.549999999999962
 30
0.0
 42
-0.4142135623731505
  0
VERTEX
  5
19D1
  8
SAPA_PROFIL
 10
101.0799999999995
 20
39.849999999999909
 30
0.0
  0
VERTEX
  5
19D2
  8
SAPA_PROFIL
 10
101.7799999999994
 20
39.849999999999909
 30
0.0
 42
-0.4142135623730951
  0
VERTEX
  5
19D3
  8
SAPA_PROFIL
 10
102.0799999999994
 20
39.549999999999962
 30
0.0
  0
VERTEX
  5
19D4
  8
SAPA_PROFIL
 10
102.0799999999994
 20
39.099999999999909
 30
0.0
 42
0.4142135623730951
  0
VERTEX
  5
19D5
  8
SAPA_PROFIL
 10
102.3799999999995
 20
38.799999999999841
 30
0.0
  0
VERTEX
  5
19D6
  8
SAPA_PROFIL
 10
103.0799999999994
 20
38.799999999999947
 30
0.0
 42
0.2504916501726621
  0
VERTEX
  5
19D7
  8
SAPA_PROFIL
 10
104.0799999999998
 20
39.800000000000182
 30
0.0
  0
VERTEX
  5
19D8
  8
SAPA_PROFIL
 10
104.0799999999994
 20
42.185786437626909
 30
0.0
 42
0.1989123673796728
  0
VERTEX
  5
19D9
  8
SAPA_PROFIL
 10
103.7871067811861
 20
42.89289321881347
 30
0.0
  0
VERTEX
  5
19DA
  8
SAPA_PROFIL
 10
100.9586796564394
 20
45.721320343559
 30
0.0
 42
0.1989123673796584
  0
VERTEX
  5
19DB
  8
SAPA_PROFIL
 10
98.837359312880423
 20
46.600000000000023
 30
0.0
  0
VERTEX
  5
19DC
  8
SAPA_PROFIL
 10
92.085332888818655
 20
46.600000000000023
 30
0.0
  0
VERTEX
  5
19DD
  8
SAPA_PROFIL
 10
11.322640687119421
 20
46.600000000000023
 30
0.0
 42
0.1989123673796596
  0
VERTEX
  5
19DE
  8
SAPA_PROFIL
 10
9.2013203435594164
 20
45.721320343559
 30
0.0
  0
VERTEX
  5
19DF
  8
SAPA_PROFIL
 10
6.3728932188128624
 20
42.892893218813583
 30
0.0
 42
0.1989123673796371
  0
VERTEX
  5
19E0
  8
SAPA_PROFIL
 10
6.0799999999994148
 20
42.18578643762703
 30
0.0
  0
VERTEX
  5
19E1
  8
SAPA_PROFIL
 10
6.0799999999994148
 20
39.100000000000023
 30
0.0
  0
VERTEX
  5
19E2
  8
SAPA_PROFIL
 10
7.0799999999994148
 20
38.100000000000023
 30
0.0
  0
VERTEX
  5
19E3
  8
SAPA_PROFIL
 10
7.7799999999994611
 20
38.100000000000023
 30
0.0
 42
0.4142135623730951
  0
VERTEX
  5
19E4
  8
SAPA_PROFIL
 10
8.0799999999994156
 20
38.399999999999977
 30
0.0
  0
VERTEX
  5
19E5
  8
SAPA_PROFIL
 10
8.0799999999994156
 20
40.14999999999997
 30
0.0
 42
-0.4142135623730951
  0
VERTEX
  5
19E6
  8
SAPA_PROFIL
 10
8.3799999999994839
 20
40.449999999999932
 30
0.0
  0
VERTEX
  5
19E7
  8
SAPA_PROFIL
 10
10.82999999999941
 20
40.449999999999932
 30
0.0
 42
-0.4142135623730951
  0
VERTEX
  5
19E8
  8
SAPA_PROFIL
 10
11.12999999999948
 20
40.14999999999997
 30
0.0
  0
VERTEX
  5
19E9
  8
SAPA_PROFIL
 10
11.12999999999948
 20
22.050000000000072
 30
0.0
 42
-0.4142135623730951
  0
VERTEX
  5
19EA
  8
SAPA_PROFIL
 10
10.82999999999941
 20
21.75
 30
0.0
  0
VERTEX
  5
19EB
  8
SAPA_PROFIL
 10
8.3799999999994839
 20
21.75
 30
0.0
 42
-0.4142135623730951
  0
VERTEX
  5
19EC
  8
SAPA_PROFIL
 10
8.0799999999994156
 20
22.050000000000072
 30
0.0
  0
VERTEX
  5
19ED
  8
SAPA_PROFIL
 10
8.0799999999994156
 20
23.800000000000072
 30
0.0
 42
0.4142135623730951
  0
VERTEX
  5
19EE
  8
SAPA_PROFIL
 10
7.7799999999994611
 20
24.100000000000019
 30
0.0
  0
VERTEX
  5
19EF
  8
SAPA_PROFIL
 10
7.0799999999994148
 20
24.100000000000019
 30
0.0
  0
VERTEX
  5
19F0
  8
SAPA_PROFIL
 10
6.0799999999994148
 20
23.100000000000019
 30
0.0
  0
VERTEX
  5
19F1
  8
SAPA_PROFIL
 10
6.0799999999994148
 20
17.466025403783991
 30
0.0
  0
VERTEX
  5
19F2
  8
SAPA_PROFIL
 10
6.5799999999994148
 20
16.600000000000019
 30
0.0
  0
VERTEX
  5
19F3
  8
SAPA_PROFIL
 10
6.0799999999994148
 20
15.733974596215029
 30
0.0
  0
VERTEX
  5
19F4
  8
SAPA_PROFIL
 10
6.0799999999994148
 20
-3.3999999999999768
 30
0.0
 42
-0.4142135623730951
  0
VERTEX
  5
19F5
  8
SAPA_PROFIL
 10
5.0799999999994148
 20
-4.3999999999999773
 30
0.0
  0
VERTEX
  5
19F6
  8
SAPA_PROFIL
 10
-4.1550889359326098
 20
-4.3999999999999773
 30
0.0
 42
-0.3475404855922902
  0
VERTEX
  5
19F7
  8
SAPA_PROFIL
 10
-4.4469914891788562
 20
-4.1692307692308068
 30
0.0
 42
0.347540485592353
  0
VERTEX
  5
19F8
  8
SAPA_PROFIL
 10
-5.4200000000005844
 20
-3.3999999999999768
 30
0.0
  0
VERTEX
  5
19F9
  8
SAPA_PROFIL
 10
-5.9875444679625502
 20
-3.3999999999999768
 30
0.0
 42
0.2896898633048417
  0
VERTEX
  5
19FA
  8
SAPA_PROFIL
 10
-6.8910523708710221
 20
-3.9714285714354669
 30
0.0
 42
0.5507604245820768
  0
VERTEX
  5
19FB
  8
SAPA_PROFIL
 10
-6.6200000000044952
 20
-4.399999999994975
 30
0.0
  0
VERTEX
  5
19FC
  8
SAPA_PROFIL
 10
-5.9699999999984916
 20
-4.3999999999990669
 30
0.0
 42
-0.4142135623714856
  0
VERTEX
  5
19FD
  8
SAPA_PROFIL
 10
-5.6700000000005844
 20
-4.6999999999990223
 30
0.0
  0
VERTEX
  5
19FE
  8
SAPA_PROFIL
 10
-5.6700000000005844
 20
-6.1000000000000218
 30
0.0
 42
-0.4142135623730951
  0
VERTEX
  5
19FF
  8
SAPA_PROFIL
 10
-5.970000000000538
 20
-6.3999999999999773
 30
0.0
  0
VERTEX
  5
1A00
  8
SAPA_PROFIL
 10
-14.370000000000511
 20
-6.3999999999999773
 30
0.0
 42
-0.4142135623730951
  0
VERTEX
  5
1A01
  8
SAPA_PROFIL
 10
-14.670000000000471
 20
-6.1000000000000218
 30
0.0
  0
VERTEX
  5
1A02
  8
SAPA_PROFIL
 10
-14.670000000000581
 20
-4.6999999999999309
 30
0.0
 42
-0.4142135623730951
  0
VERTEX
  5
1A03
  8
SAPA_PROFIL
 10
-14.370000000000511
 20
-4.3999999999999773
 30
0.0
  0
VERTEX
  5
1A04
  8
SAPA_PROFIL
 10
-13.720000000000541
 20
-4.3999999999990669
 30
0.0
  0
VERTEX
  5
1A05
  8
SAPA_PROFIL
 10
-13.71999999999656
 20
-4.3999999999999773
 30
0.0
 42
0.5507604245871307
  0
VERTEX
  5
1A06
  8
SAPA_PROFIL
 10
-13.448947629129229
 20
-3.9714285714268271
 30
0.0
 42
0.2896898633034174
  0
VERTEX
  5
1A07
  8
SAPA_PROFIL
 10
-14.352455532038499
 20
-3.3999999999999768
 30
0.0
  0
VERTEX
  5
1A08
  8
SAPA_PROFIL
 10
-15.620000000000511
 20
-3.3999999999999768
 30
0.0
 42
0.4142135623730951
  0
VERTEX
  5
1A09
  8
SAPA_PROFIL
 10
-15.920000000000581
 20
-3.6999999999999309
 30
0.0
  0
VERTEX
  5
1A0A
  8
SAPA_PROFIL
 10
-15.920000000000581
 20
-7.8999999999999773
 30
0.0
 42
0.4142135623730951
  0
VERTEX
  5
1A0B
  8
SAPA_PROFIL
 10
-14.920000000000581
 20
-8.8999999999999773
 30
0.0
  0
VERTEX
  5
1A0C
  8
SAPA_PROFIL
 10
4.3373593128804373
 20
-8.8999999999999773
 30
0.0
 42
-0.1989123673796595
  0
VERTEX
  5
1A0D
  8
SAPA_PROFIL
 10
6.458679656440097
 20
-9.7786796564403176
 30
0.0
  0
VERTEX
  5
1A0E
  8
SAPA_PROFIL
 10
9.2013203435594164
 20
-12.52132034355998
 30
0.0
 42
0.1989123673796601
  0
VERTEX
  5
1A0F
  8
SAPA_PROFIL
 10
11.322640687119421
 20
-13.399999999999981
 30
0.0
  0
SEQEND
  5
1A10
  8
SAPA_PROFIL
  0
POLYLINE
  5
1161
  8
SAPA_PROFIL
 66
     1
 10
0.0
 20
0.0
 30
0.0
  0
VERTEX
  5
1A11
  8
SAPA_PROFIL
 10
3.2012630784475391
 20
25.778444819366712
 30
0.0
  0
VERTEX
  5
1A12
  8
SAPA_PROFIL
 10
-13.920000000002799
 20
25.097404885508411
 30
0.0
 42
-0.4142135623730951
  0
VERTEX
  5
1A13
  8
SAPA_PROFIL
 10
-14.420000000002799
 20
25.597404885508411
 30
0.0
  0
VERTEX
  5
1A14
  8
SAPA_PROFIL
 10
-14.420000000002741
 20
37.397018368517138
 30
0.0
 42
-0.4076767287637263
  0
VERTEX
  5
1A15
  8
SAPA_PROFIL
 10
-11.487103649185819
 20
40.396268200906661
 30
0.0
  0
VERTEX
  5
1A16
  8
SAPA_PROFIL
 10
3.2012630784475391
 20
40.550707423017457
 30
0.0
 42
-0.4182129759575463
  0
VERTEX
  5
1A17
  8
SAPA_PROFIL
 10
3.7124241905030431
 20
40.05519570216029
 30
0.0
  0
VERTEX
  5
1A18
  8
SAPA_PROFIL
 10
3.7252517920287569
 20
37.580547946040952
 30
0.0
  0
VERTEX
  5
1A19
  8
SAPA_PROFIL
 10
5.3799403896525737
 20
35.954489989847389
 30
0.0
  0
VERTEX
  5
1A1A
  8
SAPA_PROFIL
 10
9.9290164239407641
 20
35.954489989847389
 30
0.0
 42
0.4293387945586749
  0
VERTEX
  5
1A1B
  8
SAPA_PROFIL
 10
10.225742945025271
 20
36.272601125836729
 30
0.0
  0
VERTEX
  5
1A1C
  8
SAPA_PROFIL
 10
10.153103268897549
 20
37.354056851107202
 30
0.0
 42
0.4883397947196161
  0
VERTEX
  5
1A1D
  8
SAPA_PROFIL
 10
8.591381442889201
 20
37.133433916908977
 30
0.0
  0
VERTEX
  5
1A1E
  8
SAPA_PROFIL
 10
5.8923001668547954
 20
37.133433916908977
 30
0.0
  0
VERTEX
  5
1A1F
  8
SAPA_PROFIL
 10
4.9208685204786766
 20
38.08805713710683
 30
0.0
  0
VERTEX
  5
1A20
  8
SAPA_PROFIL
 10
4.9208685204786766
 20
40.587183279991898
 30
0.0
  0
VERTEX
  5
1A21
  8
SAPA_PROFIL
 10
5.3946441869935589
 20
40.587183279991898
 30
0.0
  0
VERTEX
  5
1A22
  8
SAPA_PROFIL
 10
5.3946441869935589
 20
42.100000000000144
 30
0.0
  0
VERTEX
  5
1A23
  8
SAPA_PROFIL
 10
-15.622640706694879
 20
42.100000000000243
 30
0.0
 42
0.4116378201539302
  0
VERTEX
  5
1A24
  8
SAPA_PROFIL
 10
-15.920000000002741
 20
41.800011522329889
 30
0.0
  0
VERTEX
  5
1A25
  8
SAPA_PROFIL
 10
-15.920000000002799
 20
13.39740488550842
 30
0.0
 42
0.414213562373095
  0
VERTEX
  5
1A26
  8
SAPA_PROFIL
 10
-15.62000000000279
 20
13.09740488550835
 30
0.0
  0
VERTEX
  5
1A27
  8
SAPA_PROFIL
 10
-14.41000000000281
 20
13.097404885508411
 30
0.0
 42
0.4142135623731037
  0
VERTEX
  5
1A28
  8
SAPA_PROFIL
 10
-13.420000000002799
 20
14.087404885508359
 30
0.0
  0
VERTEX
  5
1A29
  8
SAPA_PROFIL
 10
-13.420000000002799
 20
14.097404885508411
 30
0.0
  0
VERTEX
  5
1A2A
  8
SAPA_PROFIL
 10
-14.670000000002799
 20
14.097404885508411
 30
0.0
  0
VERTEX
  5
1A2B
  8
SAPA_PROFIL
 10
-14.670000000002799
 20
15.597404885508411
 30
0.0
 42
-0.4142135623730951
  0
VERTEX
  5
1A2C
  8
SAPA_PROFIL
 10
-14.170000000002799
 20
16.097404885508411
 30
0.0
  0
VERTEX
  5
1A2D
  8
SAPA_PROFIL
 10
-6.1700000000028012
 20
16.097404885508411
 30
0.0
 42
-0.4142135623730951
  0
VERTEX
  5
1A2E
  8
SAPA_PROFIL
 10
-5.6700000000028012
 20
15.597404885508411
 30
0.0
  0
VERTEX
  5
1A2F
  8
SAPA_PROFIL
 10
-5.6700000000028012
 20
14.097404885508411
 30
0.0
  0
VERTEX
  5
1A30
  8
SAPA_PROFIL
 10
-6.9200000000028012
 20
14.097404885508411
 30
0.0
  0
VERTEX
  5
1A31
  8
SAPA_PROFIL
 10
-6.9200000000028012
 20
14.087404885508359
 30
0.0
 42
0.414213562373095
  0
VERTEX
  5
1A32
  8
SAPA_PROFIL
 10
-5.9300000000027921
 20
13.09740488550835
 30
0.0
  0
VERTEX
  5
1A33
  8
SAPA_PROFIL
 10
-5.4200000000028012
 20
13.097404885508411
 30
0.0
 42
0.4142135623730953
  0
VERTEX
  5
1A34
  8
SAPA_PROFIL
 10
-4.4200000000028012
 20
14.097404885508411
 30
0.0
  0
VERTEX
  5
1A35
  8
SAPA_PROFIL
 10
-4.4200000000028012
 20
15.597404885508411
 30
0.0
 42
0.4142135623730951
  0
VERTEX
  5
1A36
  8
SAPA_PROFIL
 10
-6.120000000002789
 20
17.297404885508399
 30
0.0
  0
VERTEX
  5
1A37
  8
SAPA_PROFIL
 10
-13.920000000002799
 20
17.297404885508449
 30
0.0
 42
-0.414213562373095
  0
VERTEX
  5
1A38
  8
SAPA_PROFIL
 10
-14.420000000002799
 20
17.797404885508449
 30
0.0
  0
VERTEX
  5
1A39
  8
SAPA_PROFIL
 10
-14.420000000002799
 20
23.29740488550846
 30
0.0
 42
-0.4142135623730951
  0
VERTEX
  5
1A3A
  8
SAPA_PROFIL
 10
-13.920000000002799
 20
23.797404885508449
 30
0.0
  0
VERTEX
  5
1A3B
  8
SAPA_PROFIL
 10
3.2012630784475391
 20
24.468614531974769
 30
0.0
  0
VERTEX
  5
1A3C
  8
SAPA_PROFIL
 10
8.6042098421972355
 20
25.125552982704111
 30
0.0
 42
-0.4666505291506209
  0
VERTEX
  5
1A3D
  8
SAPA_PROFIL
 10
8.8840114081160095
 20
24.863721451659561
 30
0.0
  0
VERTEX
  5
1A3E
  8
SAPA_PROFIL
 10
8.8444685141976702
 20
24.141065358100612
 30
0.0
 42
0.7332303362618522
  0
VERTEX
  5
1A3F
  8
SAPA_PROFIL
 10
9.3805445368499818
 20
23.94089076953043
 30
0.0
  0
VERTEX
  5
1A40
  8
SAPA_PROFIL
 10
10.15145465435438
 20
26.050998109068129
 30
0.0
 42
0.668178637919333
  0
VERTEX
  5
1A41
  8
SAPA_PROFIL
 10
9.8782884591601032
 20
26.53334596115894
 30
0.0
  0
VERTEX
  5
1A42
  8
SAPA_PROFIL
 10
3.2012630784475391
 20
25.778444819366712
 30
0.0
  0
VERTEX
  5
1A43
  8
SAPA_PROFIL
 10
3.2012630784475391
 20
25.78797827152982
 30
0.0
  0
SEQEND
  5
1A44
  8
SAPA_PROFIL
  0
POLYLINE
  5
1162
  8
SAPA_PROFIL
 66
     1
 10
0.0
 20
0.0
 30
0.0
 70
     1
  0
VERTEX
  5
1A45
  8
SAPA_PROFIL
 10
172.2799999999998
 20
39.800000000000068
 30
0.0
  0
VERTEX
  5
1A46
  8
SAPA_PROFIL
 10
140.87999999999971
 20
39.800000000000068
 30
0.0
  0
VERTEX
  5
1A47
  8
SAPA_PROFIL
 10
140.87999999999991
 20
18.69500000000005
 30
0.0
 42
-0.4142135623732293
  0
VERTEX
  5
1A48
  8
SAPA_PROFIL
 10
140.38499999999971
 20
18.200000000000038
 30
0.0
  0
VERTEX
  5
1A49
  8
SAPA_PROFIL
 10
140.37499999999989
 20
18.200000000000038
 30
0.0
 42
-0.414213562373095
  0
VERTEX
  5
1A4A
  8
SAPA_PROFIL
 10
139.87999999999971
 20
18.69500000000005
 30
0.0
  0
VERTEX
  5
1A4B
  8
SAPA_PROFIL
 10
139.87999999999971
 20
18.855000000000022
 30
0.0
 42
0.414213562373028
  0
VERTEX
  5
1A4C
  8
SAPA_PROFIL
 10
139.38499999999979
 20
19.350000000000019
 30
0.0
  0
VERTEX
  5
1A4D
  8
SAPA_PROFIL
 10
138.57999999999981
 20
19.350000000000019
 30
0.0
 42
0.3747564601179658
  0
VERTEX
  5
1A4E
  8
SAPA_PROFIL
 10
135.8556049567654
 20
16.97439504323631
 30
0.0
  0
VERTEX
  5
1A4F
  8
SAPA_PROFIL
 10
136.2300000000001
 20
16.600000000000019
 30
0.0
  0
VERTEX
  5
1A50
  8
SAPA_PROFIL
 10
135.8556049567637
 20
16.225604956763501
 30
0.0
 42
0.3747564601179647
  0
VERTEX
  5
1A51
  8
SAPA_PROFIL
 10
138.5799999999997
 20
13.850000000000019
 30
0.0
  0
VERTEX
  5
1A52
  8
SAPA_PROFIL
 10
139.38499999999979
 20
13.850000000000019
 30
0.0
 42
0.4142135623730281
  0
VERTEX
  5
1A53
  8
SAPA_PROFIL
 10
139.87999999999971
 20
14.34500000000002
 30
0.0
  0
VERTEX
  5
1A54
  8
SAPA_PROFIL
 10
139.87999999999971
 20
14.50499999999999
 30
0.0
 42
-0.4142135623730951
  0
VERTEX
  5
1A55
  8
SAPA_PROFIL
 10
140.37499999999989
 20
15.0
 30
0.0
  0
VERTEX
  5
1A56
  8
SAPA_PROFIL
 10
140.38499999999971
 20
15.00000000000011
 30
0.0
 42
-0.4142135623732296
  0
VERTEX
  5
1A57
  8
SAPA_PROFIL
 10
140.87999999999971
 20
14.50499999999999
 30
0.0
  0
VERTEX
  5
1A58
  8
SAPA_PROFIL
 10
140.87999999999971
 20
-6.6000000000000218
 30
0.0
  0
VERTEX
  5
1A59
  8
SAPA_PROFIL
 10
172.2799999999998
 20
-6.6000000000000218
 30
0.0
  0
VERTEX
  5
1A5A
  8
SAPA_PROFIL
 10
172.2799999999998
 20
14.50499999999999
 30
0.0
 42
-0.4142135623731625
  0
VERTEX
  5
1A5B
  8
SAPA_PROFIL
 10
172.77499999999969
 20
15.0
 30
0.0
  0
VERTEX
  5
1A5C
  8
SAPA_PROFIL
 10
172.78499999999971
 20
15.0
 30
0.0
 42
-0.4142135623731625
  0
VERTEX
  5
1A5D
  8
SAPA_PROFIL
 10
173.2799999999996
 20
14.50499999999999
 30
0.0
  0
VERTEX
  5
1A5E
  8
SAPA_PROFIL
 10
173.27999999999969
 20
14.34500000000002
 30
0.0
 42
0.4142135623729606
  0
VERTEX
  5
1A5F
  8
SAPA_PROFIL
 10
173.77499999999969
 20
13.850000000000129
 30
0.0
  0
VERTEX
  5
1A60
  8
SAPA_PROFIL
 10
174.57999999999981
 20
13.850000000000019
 30
0.0
 42
0.3747564601179647
  0
VERTEX
  5
1A61
  8
SAPA_PROFIL
 10
177.30439504323579
 20
16.225604956763501
 30
0.0
  0
VERTEX
  5
1A62
  8
SAPA_PROFIL
 10
176.9299999999995
 20
16.600000000000019
 30
0.0
  0
VERTEX
  5
1A63
  8
SAPA_PROFIL
 10
177.30439504323419
 20
16.97439504323631
 30
0.0
 42
0.3747564601179658
  0
VERTEX
  5
1A64
  8
SAPA_PROFIL
 10
174.57999999999981
 20
19.350000000000019
 30
0.0
  0
VERTEX
  5
1A65
  8
SAPA_PROFIL
 10
173.77499999999969
 20
19.350000000000019
 30
0.0
 42
0.4142135623730281
  0
VERTEX
  5
1A66
  8
SAPA_PROFIL
 10
173.2799999999996
 20
18.855000000000022
 30
0.0
  0
VERTEX
  5
1A67
  8
SAPA_PROFIL
 10
173.2799999999996
 20
18.69500000000005
 30
0.0
 42
-0.4142135623731625
  0
VERTEX
  5
1A68
  8
SAPA_PROFIL
 10
172.78499999999971
 20
18.200000000000038
 30
0.0
  0
VERTEX
  5
1A69
  8
SAPA_PROFIL
 10
172.77499999999969
 20
18.200000000000038
 30
0.0
 42
-0.4142135623731625
  0
VERTEX
  5
1A6A
  8
SAPA_PROFIL
 10
172.2799999999998
 20
18.69500000000005
 30
0.0
  0
SEQEND
  5
1A6B
  8
SAPA_PROFIL
  0
POLYLINE
  5
1163
  8
SAPA_PROFIL
 66
     1
 10
0.0
 20
0.0
 30
0.0
 70
     1
  0
VERTEX
  5
1A6C
  8
SAPA_PROFIL
 10
177.07999999999981
 20
39.800000000000068
 30
0.0
  0
VERTEX
  5
1A6D
  8
SAPA_PROFIL
 10
177.07999999999981
 20
37.600000000000023
 30
0.0
  0
VERTEX
  5
1A6E
  8
SAPA_PROFIL
 10
178.07999999999981
 20
37.600000000000023
 30
0.0
  0
VERTEX
  5
1A6F
  8
SAPA_PROFIL
 10
179.07999999999981
 20
38.600000000000023
 30
0.0
  0
VERTEX
  5
1A70
  8
SAPA_PROFIL
 10
179.07999999999981
 20
41.600000000000023
 30
0.0
  0
VERTEX
  5
1A71
  8
SAPA_PROFIL
 10
134.07999999999981
 20
41.600000000000023
 30
0.0
  0
VERTEX
  5
1A72
  8
SAPA_PROFIL
 10
134.07999999999981
 20
38.600000000000023
 30
0.0
  0
VERTEX
  5
1A73
  8
SAPA_PROFIL
 10
135.07999999999981
 20
37.600000000000023
 30
0.0
  0
VERTEX
  5
1A74
  8
SAPA_PROFIL
 10
136.07999999999981
 20
37.600000000000023
 30
0.0
  0
VERTEX
  5
1A75
  8
SAPA_PROFIL
 10
136.07999999999981
 20
39.800000000000068
 30
0.0
  0
VERTEX
  5
1A76
  8
SAPA_PROFIL
 10
139.07999999999981
 20
39.800000000000068
 30
0.0
  0
VERTEX
  5
1A77
  8
SAPA_PROFIL
 10
139.07999999999981
 20
21.100000000000019
 30
0.0
  0
VERTEX
  5
1A78
  8
SAPA_PROFIL
 10
136.07999999999981
 20
21.100000000000019
 30
0.0
  0
VERTEX
  5
1A79
  8
SAPA_PROFIL
 10
136.07999999999981
 20
23.600000000000019
 30
0.0
  0
VERTEX
  5
1A7A
  8
SAPA_PROFIL
 10
135.07999999999981
 20
23.600000000000019
 30
0.0
  0
VERTEX
  5
1A7B
  8
SAPA_PROFIL
 10
134.27999999999969
 20
22.800000000000072
 30
0.0
  0
VERTEX
  5
1A7C
  8
SAPA_PROFIL
 10
134.27999999999969
 20
17.119615242270701
 30
0.0
  0
VERTEX
  5
1A7D
  8
SAPA_PROFIL
 10
134.57999999999981
 20
16.600000000000019
 30
0.0
  0
VERTEX
  5
1A7E
  8
SAPA_PROFIL
 10
134.27999999999969
 20
16.080384757729352
 30
0.0
  0
VERTEX
  5
1A7F
  8
SAPA_PROFIL
 10
134.27999999999969
 20
10.399999999999981
 30
0.0
  0
VERTEX
  5
1A80
  8
SAPA_PROFIL
 10
135.07999999999981
 20
9.6000000000000227
 30
0.0
  0
VERTEX
  5
1A81
  8
SAPA_PROFIL
 10
136.07999999999981
 20
9.6000000000000227
 30
0.0
  0
VERTEX
  5
1A82
  8
SAPA_PROFIL
 10
136.07999999999981
 20
12.100000000000019
 30
0.0
  0
VERTEX
  5
1A83
  8
SAPA_PROFIL
 10
139.07999999999981
 20
12.100000000000019
 30
0.0
  0
VERTEX
  5
1A84
  8
SAPA_PROFIL
 10
139.07999999999981
 20
-6.6000000000000218
 30
0.0
  0
VERTEX
  5
1A85
  8
SAPA_PROFIL
 10
136.07999999999981
 20
-6.6000000000000218
 30
0.0
  0
VERTEX
  5
1A86
  8
SAPA_PROFIL
 10
136.07999999999981
 20
-4.3999999999999773
 30
0.0
  0
VERTEX
  5
1A87
  8
SAPA_PROFIL
 10
135.07999999999981
 20
-4.3999999999999773
 30
0.0
  0
VERTEX
  5
1A88
  8
SAPA_PROFIL
 10
134.07999999999981
 20
-5.3999999999999773
 30
0.0
  0
VERTEX
  5
1A89
  8
SAPA_PROFIL
 10
134.07999999999981
 20
-8.3999999999999773
 30
0.0
  0
VERTEX
  5
1A8A
  8
SAPA_PROFIL
 10
179.07999999999981
 20
-8.3999999999999773
 30
0.0
  0
VERTEX
  5
1A8B
  8
SAPA_PROFIL
 10
179.07999999999981
 20
-5.3999999999999773
 30
0.0
  0
VERTEX
  5
1A8C
  8
SAPA_PROFIL
 10
178.07999999999981
 20
-4.3999999999999773
 30
0.0
  0
VERTEX
  5
1A8D
  8
SAPA_PROFIL
 10
177.07999999999981
 20
-4.3999999999999773
 30
0.0
  0
VERTEX
  5
1A8E
  8
SAPA_PROFIL
 10
177.07999999999981
 20
-6.6000000000000218
 30
0.0
  0
VERTEX
  5
1A8F
  8
SAPA_PROFIL
 10
174.07999999999981
 20
-6.6000000000000218
 30
0.0
  0
VERTEX
  5
1A90
  8
SAPA_PROFIL
 10
174.07999999999981
 20
12.100000000000019
 30
0.0
  0
VERTEX
  5
1A91
  8
SAPA_PROFIL
 10
177.07999999999981
 20
12.100000000000019
 30
0.0
  0
VERTEX
  5
1A92
  8
SAPA_PROFIL
 10
177.07999999999981
 20
9.6000000000000227
 30
0.0
  0
VERTEX
  5
1A93
  8
SAPA_PROFIL
 10
178.07999999999981
 20
9.6000000000000227
 30
0.0
  0
VERTEX
  5
1A94
  8
SAPA_PROFIL
 10
178.87999999999971
 20
10.399999999999981
 30
0.0
  0
VERTEX
  5
1A95
  8
SAPA_PROFIL
 10
178.87999999999971
 20
16.080384757729352
 30
0.0
  0
VERTEX
  5
1A96
  8
SAPA_PROFIL
 10
178.57999999999981
 20
16.600000000000019
 30
0.0
  0
VERTEX
  5
1A97
  8
SAPA_PROFIL
 10
178.87999999999971
 20
17.119615242270701
 30
0.0
  0
VERTEX
  5
1A98
  8
SAPA_PROFIL
 10
178.87999999999971
 20
22.800000000000072
 30
0.0
  0
VERTEX
  5
1A99
  8
SAPA_PROFIL
 10
178.07999999999981
 20
23.600000000000019
 30
0.0
  0
VERTEX
  5
1A9A
  8
SAPA_PROFIL
 10
177.07999999999981
 20
23.600000000000019
 30
0.0
  0
VERTEX
  5
1A9B
  8
SAPA_PROFIL
 10
177.07999999999981
 20
21.100000000000019
 30
0.0
  0
VERTEX
  5
1A9C
  8
SAPA_PROFIL
 10
174.07999999999981
 20
21.100000000000019
 30
0.0
  0
VERTEX
  5
1A9D
  8
SAPA_PROFIL
 10
174.07999999999981
 20
39.800000000000068
 30
0.0
  0
SEQEND
  5
1A9E
  8
SAPA_PROFIL
  0
POLYLINE
  5
1164
  8
SAPA_PROFIL
 66
     1
 10
0.0
 20
0.0
 30
0.0
 70
     1
  0
VERTEX
  5
1A9F
  8
SAPA_PROFIL
 10
122.08126452503529
 20
3.4309605363588949
 30
0.0
 42
-0.4557262555325856
  0
VERTEX
  5
1AA0
  8
SAPA_PROFIL
 10
122.57639810769091
 20
4.0005465671999607
 30
0.0
  0
VERTEX
  5
1AA1
  8
SAPA_PROFIL
 10
124.0831419999999
 20
4.0005465671999607
 30
0.0
  0
VERTEX
  5
1AA2
  8
SAPA_PROFIL
 10
124.0831419999999
 20
5.5005465671999607
 30
0.0
  0
VERTEX
  5
1AA3
  8
SAPA_PROFIL
 10
125.0831419999999
 20
5.5005465671999607
 30
0.0
  0
VERTEX
  5
1AA4
  8
SAPA_PROFIL
 10
125.0831419999999
 20
15.73301516341564
 30
0.0
  0
VERTEX
  5
1AA5
  8
SAPA_PROFIL
 10
125.5831419999999
 20
16.59904056720006
 30
0.0
  0
VERTEX
  5
1AA6
  8
SAPA_PROFIL
 10
125.0831419999999
 20
17.465065970984419
 30
0.0
  0
VERTEX
  5
1AA7
  8
SAPA_PROFIL
 10
125.0831419999999
 20
27.69753456720014
 30
0.0
  0
VERTEX
  5
1AA8
  8
SAPA_PROFIL
 10
124.0831419999999
 20
27.69753456720014
 30
0.0
  0
VERTEX
  5
1AA9
  8
SAPA_PROFIL
 10
124.0831419999999
 20
29.197534567200151
 30
0.0
  0
VERTEX
  5
1AAA
  8
SAPA_PROFIL
 10
122.0831419999999
 20
29.19753456720014
 30
0.0
  0
VERTEX
  5
1AAB
  8
SAPA_PROFIL
 10
121.05445957310179
 20
35.031482513027129
 30
0.0
 42
-0.4142135623730531
  0
VERTEX
  5
1AAC
  8
SAPA_PROFIL
 10
121.4600393607744
 20
35.610710478366613
 30
0.0
  0
VERTEX
  5
1AAD
  8
SAPA_PROFIL
 10
121.95244323728051
 20
35.697534567200137
 30
0.0
  0
VERTEX
  5
1AAE
  8
SAPA_PROFIL
 10
122.0739969616473
 20
35.008169140091503
 30
0.0
 42
0.6705660098148247
  0
VERTEX
  5
1AAF
  8
SAPA_PROFIL
 10
122.61631431490071
 20
34.889815006213198
 30
0.0
  0
VERTEX
  5
1AB0
  8
SAPA_PROFIL
 10
124.2642531261219
 20
37.276663415024089
 30
0.0
 42
0.4103557430781616
  0
VERTEX
  5
1AB1
  8
SAPA_PROFIL
 10
124.1439832723463
 20
37.958747650189537
 30
0.0
  0
VERTEX
  5
1AB2
  8
SAPA_PROFIL
 10
121.7790770970569
 20
39.638023218477841
 30
0.0
 42
0.6705660098148535
  0
VERTEX
  5
1AB3
  8
SAPA_PROFIL
 10
121.309944979913
 20
39.341323253345202
 30
0.0
  0
VERTEX
  5
1AB4
  8
SAPA_PROFIL
 10
121.4314987042798
 20
38.651957826236703
 30
0.0
  0
VERTEX
  5
1AB5
  8
SAPA_PROFIL
 10
120.9390948277737
 20
38.565133737403229
 30
0.0
 42
-0.4142135623731039
  0
VERTEX
  5
1AB6
  8
SAPA_PROFIL
 10
120.3598668624342
 20
38.97071352507588
 30
0.0
  0
VERTEX
  5
1AB7
  8
SAPA_PROFIL
 10
120.2830427736006
 20
39.406404583385822
 30
0.0
  0
VERTEX
  5
1AB8
  8
SAPA_PROFIL
 10
120.2857133613164
 20
40.992888562344959
 30
0.0
 42
0.4147066859862996
  0
VERTEX
  5
1AB9
  8
SAPA_PROFIL
 10
117.2857176117442
 20
43.997938567200023
 30
0.0
  0
VERTEX
  5
1ABA
  8
SAPA_PROFIL
 10
109.5790889999998
 20
43.997938567200023
 30
0.0
 42
-0.6638253569871671
  0
VERTEX
  5
1ABB
  8
SAPA_PROFIL
 10
109.22111519301269
 20
44.877124760134599
 30
0.0
  0
VERTEX
  5
1ABC
  8
SAPA_PROFIL
 10
111.2001533906713
 20
46.85616295779333
 30
0.0
 42
-0.1989123673796449
  0
VERTEX
  5
1ABD
  8
SAPA_PROFIL
 10
111.55370678126459
 20
47.002609567199997
 30
0.0
  0
VERTEX
  5
1ABE
  8
SAPA_PROFIL
 10
123.37198175566481
 20
47.002609567199997
 30
0.0
 42
-0.1989123673796422
  0
VERTEX
  5
1ABF
  8
SAPA_PROFIL
 10
123.7255351462581
 20
46.856162957793302
 30
0.0
  0
VERTEX
  5
1AC0
  8
SAPA_PROFIL
 10
129.08628192744459
 20
41.495416176606732
 30
0.0
 42
0.1989123673796659
  0
VERTEX
  5
1AC1
  8
SAPA_PROFIL
 10
129.43983531803789
 20
41.348969567200008
 30
0.0
  0
VERTEX
  5
1AC2
  8
SAPA_PROFIL
 10
134.07999999999981
 20
41.348969567200008
 30
0.0
  0
VERTEX
  5
1AC3
  8
SAPA_PROFIL
 10
134.07999999999981
 20
38.098969567200022
 30
0.0
  0
VERTEX
  5
1AC4
  8
SAPA_PROFIL
 10
135.57999999999981
 20
36.598969567200022
 30
0.0
  0
VERTEX
  5
1AC5
  8
SAPA_PROFIL
 10
134.07999999999981
 20
35.098969567200022
 30
0.0
  0
VERTEX
  5
1AC6
  8
SAPA_PROFIL
 10
134.07999999999981
 20
31.500000567200019
 30
0.0
 42
0.4142140000000165
  0
VERTEX
  5
1AC7
  8
SAPA_PROFIL
 10
134.57999999999981
 20
31.000000567200019
 30
0.0
  0
VERTEX
  5
1AC8
  8
SAPA_PROFIL
 10
136.08314199999981
 20
31.000000567200019
 30
0.0
 42
-0.4142140000000145
  0
VERTEX
  5
1AC9
  8
SAPA_PROFIL
 10
137.08314199999981
 20
30.000000567200019
 30
0.0
  0
VERTEX
  5
1ACA
  8
SAPA_PROFIL
 10
137.08314199999981
 20
29.00000056719999
 30
0.0
  0
VERTEX
  5
1ACB
  8
SAPA_PROFIL
 10
129.8243228680773
 20
27.055005143511622
 30
0.0
 42
0.3394542338034085
  0
VERTEX
  5
1ACC
  8
SAPA_PROFIL
 10
129.0831419999999
 20
26.08907934048591
 30
0.0
  0
VERTEX
  5
1ACD
  8
SAPA_PROFIL
 10
129.0831419999999
 20
7.1109206595143339
 30
0.0
 42
0.3394542744563553
  0
VERTEX
  5
1ACE
  8
SAPA_PROFIL
 10
129.82432300891909
 20
6.1449948187501198
 30
0.0
  0
VERTEX
  5
1ACF
  8
SAPA_PROFIL
 10
137.0831419999999
 20
4.2000005671999636
 30
0.0
  0
VERTEX
  5
1AD0
  8
SAPA_PROFIL
 10
137.0831419999999
 20
3.2000005671999641
 30
0.0
 42
-0.4142139999999982
  0
VERTEX
  5
1AD1
  8
SAPA_PROFIL
 10
136.0831419999999
 20
2.2000005672000782
 30
0.0
  0
VERTEX
  5
1AD2
  8
SAPA_PROFIL
 10
134.59273599999989
 20
2.2000005671999641
 30
0.0
 42
0.4142140000000124
  0
VERTEX
  5
1AD3
  8
SAPA_PROFIL
 10
134.09273599999989
 20
1.700000567199992
 30
0.0
  0
VERTEX
  5
1AD4
  8
SAPA_PROFIL
 10
134.09273599999989
 20
-1.8999994327999441
 30
0.0
  0
VERTEX
  5
1AD5
  8
SAPA_PROFIL
 10
135.59273599999989
 20
-3.3999994327999441
 30
0.0
  0
VERTEX
  5
1AD6
  8
SAPA_PROFIL
 10
134.09273599999989
 20
-4.8999994327999437
 30
0.0
  0
VERTEX
  5
1AD7
  8
SAPA_PROFIL
 10
134.09273599999989
 20
-8.1499994328000014
 30
0.0
  0
VERTEX
  5
1AD8
  8
SAPA_PROFIL
 10
126.08018194300151
 20
-8.1499994328000014
 30
0.0
 42
-0.3780475071674513
  0
VERTEX
  5
1AD9
  8
SAPA_PROFIL
 10
123.10360286440449
 20
-5.5241344202833309
 30
0.0
  0
VERTEX
  5
1ADA
  8
SAPA_PROFIL
 10
122.7402394520782
 20
-2.6332528742047989
 30
0.0
 42
-0.4247728136669583
  0
VERTEX
  5
1ADB
  8
SAPA_PROFIL
 10
123.6269829999999
 20
-1.4994534327999809
 30
0.0
  0
VERTEX
  5
1ADC
  8
SAPA_PROFIL
 10
123.6269829999999
 20
-2.749453432800038
 30
0.0
  0
VERTEX
  5
1ADD
  8
SAPA_PROFIL
 10
124.7269829999999
 20
-2.749453432800038
 30
0.0
  0
VERTEX
  5
1ADE
  8
SAPA_PROFIL
 10
124.7269829999999
 20
2.4505465672000351
 30
0.0
  0
VERTEX
  5
1ADF
  8
SAPA_PROFIL
 10
123.6269829999999
 20
2.4505465672000351
 30
0.0
  0
VERTEX
  5
1AE0
  8
SAPA_PROFIL
 10
123.6269829999999
 20
1.2005465672000351
 30
0.0
  0
VERTEX
  5
1AE1
  8
SAPA_PROFIL
 10
123.2534608566471
 20
1.2005465672000351
 30
0.0
 42
-0.3760477967976817
  0
VERTEX
  5
1AE2
  8
SAPA_PROFIL
 10
122.2621655384405
 20
2.068889466739392
 30
0.0
  0
SEQEND
  5
1AE3
  8
SAPA_PROFIL
  0
POLYLINE
  5
1165
  8
SAPA_PROFIL
 66
     1
 10
0.0
 20
0.0
 30
0.0
 70
     1
  0
VERTEX
  5
1AE4
  8
SAPA_PROFIL
 10
116.0787354749643
 20
29.768625631416441
 30
0.0
 42
-0.4557262555325856
  0
VERTEX
  5
1AE5
  8
SAPA_PROFIL
 10
115.58360189230871
 20
29.199039600575379
 30
0.0
  0
VERTEX
  5
1AE6
  8
SAPA_PROFIL
 10
114.0768579999998
 20
29.199039600575379
 30
0.0
  0
VERTEX
  5
1AE7
  8
SAPA_PROFIL
 10
114.0768579999998
 20
27.699039600575379
 30
0.0
  0
VERTEX
  5
1AE8
  8
SAPA_PROFIL
 10
113.0768579999998
 20
27.699039600575379
 30
0.0
  0
VERTEX
  5
1AE9
  8
SAPA_PROFIL
 10
113.0768579999998
 20
17.46657100435969
 30
0.0
  0
VERTEX
  5
1AEA
  8
SAPA_PROFIL
 10
112.5768579999998
 20
16.60054560057527
 30
0.0
  0
VERTEX
  5
1AEB
  8
SAPA_PROFIL
 10
113.0768579999998
 20
15.734520196790911
 30
0.0
  0
VERTEX
  5
1AEC
  8
SAPA_PROFIL
 10
113.0768579999998
 20
5.5020516005752
 30
0.0
  0
VERTEX
  5
1AED
  8
SAPA_PROFIL
 10
114.0768579999998
 20
5.5020516005752
 30
0.0
  0
VERTEX
  5
1AEE
  8
SAPA_PROFIL
 10
114.0768579999998
 20
4.0020516005751849
 30
0.0
  0
VERTEX
  5
1AEF
  8
SAPA_PROFIL
 10
116.0768579999998
 20
4.0020516005751849
 30
0.0
  0
VERTEX
  5
1AF0
  8
SAPA_PROFIL
 10
117.1055404268978
 20
-1.831896345251806
 30
0.0
 42
-0.4142135623730531
  0
VERTEX
  5
1AF1
  8
SAPA_PROFIL
 10
116.6999606392252
 20
-2.4111243105912901
 30
0.0
  0
VERTEX
  5
1AF2
  8
SAPA_PROFIL
 10
116.20755676271909
 20
-2.4979483994248142
 30
0.0
  0
VERTEX
  5
1AF3
  8
SAPA_PROFIL
 10
116.0860030383523
 20
-1.808582972316173
 30
0.0
 42
0.6705660098148247
  0
VERTEX
  5
1AF4
  8
SAPA_PROFIL
 10
115.54368568509889
 20
-1.6902288384378741
 30
0.0
  0
VERTEX
  5
1AF5
  8
SAPA_PROFIL
 10
113.8957468738777
 20
-4.0770772472487522
 30
0.0
 42
0.4103557430781616
  0
VERTEX
  5
1AF6
  8
SAPA_PROFIL
 10
114.01601672765329
 20
-4.759161482414199
 30
0.0
  0
VERTEX
  5
1AF7
  8
SAPA_PROFIL
 10
116.3809229029427
 20
-6.4384370507025181
 30
0.0
 42
0.6705660098148535
  0
VERTEX
  5
1AF8
  8
SAPA_PROFIL
 10
116.8500550200866
 20
-6.1417370855698721
 30
0.0
  0
VERTEX
  5
1AF9
  8
SAPA_PROFIL
 10
116.72850129571979
 20
-5.4523716584613728
 30
0.0
  0
VERTEX
  5
1AFA
  8
SAPA_PROFIL
 10
117.2209051722259
 20
-5.365547569627906
 30
0.0
 42
-0.4142135623731039
  0
VERTEX
  5
1AFB
  8
SAPA_PROFIL
 10
117.8001331375654
 20
-5.771127357300557
 30
0.0
  0
VERTEX
  5
1AFC
  8
SAPA_PROFIL
 10
117.876957226399
 20
-6.2068184156104991
 30
0.0
  0
VERTEX
  5
1AFD
  8
SAPA_PROFIL
 10
117.8742866386832
 20
-7.7933023945696362
 30
0.0
 42
0.4147066859862996
  0
VERTEX
  5
1AFE
  8
SAPA_PROFIL
 10
120.87428238825539
 20
-10.798352399424701
 30
0.0
  0
VERTEX
  5
1AFF
  8
SAPA_PROFIL
 10
128.58091099999979
 20
-10.798352399424701
 30
0.0
 42
-0.6638253569871671
  0
VERTEX
  5
1B00
  8
SAPA_PROFIL
 10
128.93888480698689
 20
-11.67753859235928
 30
0.0
  0
VERTEX
  5
1B01
  8
SAPA_PROFIL
 10
126.9598466093283
 20
-13.65657679001801
 30
0.0
 42
-0.1989123673796449
  0
VERTEX
  5
1B02
  8
SAPA_PROFIL
 10
126.606293218735
 20
-13.803023399424671
 30
0.0
  0
VERTEX
  5
1B03
  8
SAPA_PROFIL
 10
114.78801824433479
 20
-13.803023399424671
 30
0.0
 42
-0.1989123673796422
  0
VERTEX
  5
1B04
  8
SAPA_PROFIL
 10
114.4344648537415
 20
-13.656576790017979
 30
0.0
  0
VERTEX
  5
1B05
  8
SAPA_PROFIL
 10
109.073718072555
 20
-8.2958300088314019
 30
0.0
 42
0.1989123673796659
  0
VERTEX
  5
1B06
  8
SAPA_PROFIL
 10
108.72016468196171
 20
-8.1493833994246785
 30
0.0
  0
VERTEX
  5
1B07
  8
SAPA_PROFIL
 10
104.0799999999998
 20
-8.1493833994246785
 30
0.0
  0
VERTEX
  5
1B08
  8
SAPA_PROFIL
 10
104.0799999999998
 20
-4.8993833994246776
 30
0.0
  0
VERTEX
  5
1B09
  8
SAPA_PROFIL
 10
102.5799999999998
 20
-3.399383399424678
 30
0.0
  0
VERTEX
  5
1B0A
  8
SAPA_PROFIL
 10
104.0799999999998
 20
-1.899383399424678
 30
0.0
  0
VERTEX
  5
1B0B
  8
SAPA_PROFIL
 10
104.0799999999998
 20
1.699585600575318
 30
0.0
 42
0.4142140000000165
  0
VERTEX
  5
1B0C
  8
SAPA_PROFIL
 10
103.5799999999998
 20
2.1995856005753178
 30
0.0
  0
VERTEX
  5
1B0D
  8
SAPA_PROFIL
 10
102.0768579999998
 20
2.1995856005753178
 30
0.0
 42
-0.4142140000000145
  0
VERTEX
  5
1B0E
  8
SAPA_PROFIL
 10
101.0768579999998
 20
3.1995856005753178
 30
0.0
  0
VERTEX
  5
1B0F
  8
SAPA_PROFIL
 10
101.0768579999998
 20
4.1995856005753458
 30
0.0
  0
VERTEX
  5
1B10
  8
SAPA_PROFIL
 10
108.3356771319224
 20
6.1445810242637151
 30
0.0
 42
0.3394542338034085
  0
VERTEX
  5
1B11
  8
SAPA_PROFIL
 10
109.0768579999998
 20
7.1105068272894272
 30
0.0
  0
VERTEX
  5
1B12
  8
SAPA_PROFIL
 10
109.0768579999998
 20
26.088665508260998
 30
0.0
 42
0.3394542744563553
  0
VERTEX
  5
1B13
  8
SAPA_PROFIL
 10
108.3356769910805
 20
27.05459134902522
 30
0.0
  0
VERTEX
  5
1B14
  8
SAPA_PROFIL
 10
101.0768579999998
 20
28.999585600575369
 30
0.0
  0
VERTEX
  5
1B15
  8
SAPA_PROFIL
 10
101.0768579999998
 20
29.999585600575369
 30
0.0
 42
-0.4142139999999982
  0
VERTEX
  5
1B16
  8
SAPA_PROFIL
 10
102.0768579999998
 20
30.999585600575259
 30
0.0
  0
VERTEX
  5
1B17
  8
SAPA_PROFIL
 10
103.5672639999997
 20
30.999585600575369
 30
0.0
 42
0.4142140000000124
  0
VERTEX
  5
1B18
  8
SAPA_PROFIL
 10
104.0672639999997
 20
31.49958560057534
 30
0.0
  0
VERTEX
  5
1B19
  8
SAPA_PROFIL
 10
104.0672639999997
 20
35.099585600575281
 30
0.0
  0
VERTEX
  5
1B1A
  8
SAPA_PROFIL
 10
102.5672639999997
 20
36.599585600575281
 30
0.0
  0
VERTEX
  5
1B1B
  8
SAPA_PROFIL
 10
104.0672639999997
 20
38.099585600575281
 30
0.0
  0
VERTEX
  5
1B1C
  8
SAPA_PROFIL
 10
104.0672639999997
 20
41.349585600575331
 30
0.0
  0
VERTEX
  5
1B1D
  8
SAPA_PROFIL
 10
112.07981805699811
 20
41.349585600575331
 30
0.0
 42
-0.3780475071674513
  0
VERTEX
  5
1B1E
  8
SAPA_PROFIL
 10
115.05639713559511
 20
38.723720588058669
 30
0.0
  0
VERTEX
  5
1B1F
  8
SAPA_PROFIL
 10
115.4197605479214
 20
35.832839041980137
 30
0.0
 42
-0.4247728136669583
  0
VERTEX
  5
1B20
  8
SAPA_PROFIL
 10
114.5330169999998
 20
34.699039600575318
 30
0.0
  0
VERTEX
  5
1B21
  8
SAPA_PROFIL
 10
114.5330169999998
 20
35.949039600575382
 30
0.0
  0
VERTEX
  5
1B22
  8
SAPA_PROFIL
 10
113.43301699999979
 20
35.949039600575382
 30
0.0
  0
VERTEX
  5
1B23
  8
SAPA_PROFIL
 10
113.43301699999979
 20
30.749039600575301
 30
0.0
  0
VERTEX
  5
1B24
  8
SAPA_PROFIL
 10
114.5330169999998
 20
30.749039600575301
 30
0.0
  0
VERTEX
  5
1B25
  8
SAPA_PROFIL
 10
114.5330169999998
 20
31.999039600575301
 30
0.0
  0
VERTEX
  5
1B26
  8
SAPA_PROFIL
 10
114.9065391433526
 20
31.999039600575301
 30
0.0
 42
-0.3760477967976817
  0
VERTEX
  5
1B27
  8
SAPA_PROFIL
 10
115.8978344615591
 20
31.130696701035951
 30
0.0
  0
SEQEND
  5
1B28
  8
SAPA_PROFIL
  0
POLYLINE
  5
116B
  8
SAPA_GLAS
 66
     1
 10
0.0
 20
0.0
 30
0.0
  0
VERTEX
  5
1B2E
  8
SAPA_GLAS
 10
-27.72000000000055
 20
0.5000000000003555
 30
0.0
  0
VERTEX
  5
1B2F
  8
SAPA_GLAS
 10
1.079999999999522
 20
0.5000000000003555
 30
0.0
  0
VERTEX
  5
1B30
  8
SAPA_GLAS
 10
1.079999999999522
 20
6.5000000000003553
 30
0.0
  0
VERTEX
  5
1B31
  8
SAPA_GLAS
 10
-27.72000000000055
 20
6.5000000000005818
 30
0.0
  0
SEQEND
  5
1B32
  8
SAPA_GLAS
  0
POLYLINE
  5
117C
  8
SAPA_FOGBAND
 66
     1
 10
0.0
 20
0.0
 30
0.0
 70
     1
  0
VERTEX
  5
1C18
  8
SAPA_FOGBAND
 10
122.48017556991761
 20
36.806991384196543
 30
0.0
  0
VERTEX
  5
1C19
  8
SAPA_FOGBAND
 10
121.0029639403993
 20
36.546519117696121
 30
0.0
 42
-1.0
  0
VERTEX
  5
1C1A
  8
SAPA_FOGBAND
 10
120.82931576273251
 20
37.531326870708327
 30
0.0
  0
VERTEX
  5
1C1B
  8
SAPA_FOGBAND
 10
122.3065273922507
 20
37.791799137208741
 30
0.0
 42
-0.9999999999999998
  0
SEQEND
  5
1C1C
  8
SAPA_FOGBAND
  0
POLYLINE
  5
117D
  8
SAPA_FOGBAND
 66
     1
 10
0.0
 20
0.0
 30
0.0
  0
VERTEX
  5
1C1D
  8
SAPA_FOGBAND
 10
118.7796784587953
 20
40.355678620602887
 30
0.0
  0
VERTEX
  5
1C1E
  8
SAPA_FOGBAND
 10
118.7796784587953
 20
39.47158683144314
 30
0.0
 42
0.044131587116972
  0
VERTEX
  5
1C1F
  8
SAPA_FOGBAND
 10
118.8107189838919
 20
39.12059026993861
 30
0.0
  0
VERTEX
  5
1C20
  8
SAPA_FOGBAND
 10
119.93244229855409
 20
32.828141879114369
 30
0.0
 42
-0.51794817552104
  0
VERTEX
  5
1C21
  8
SAPA_FOGBAND
 10
119.702813643325
 20
32.595738979594458
 30
0.0
 42
-0.256035075286107
  0
VERTEX
  5
1C22
  8
SAPA_FOGBAND
 10
117.2476764624799
 20
34.485708039441661
 30
0.0
 42
0.0503535055675395
  0
VERTEX
  5
1C23
  8
SAPA_FOGBAND
 10
117.2259039460415
 20
34.519478801918083
 30
0.0
 42
-0.2540279951327155
  0
VERTEX
  5
1C24
  8
SAPA_FOGBAND
 10
117.22818099034841
 20
35.858014490300221
 30
0.0
 42
0.1435946900963506
  0
VERTEX
  5
1C25
  8
SAPA_FOGBAND
 10
117.2513116008522
 20
35.96816705626766
 30
0.0
 42
-0.0233508054218105
  0
VERTEX
  5
1C26
  8
SAPA_FOGBAND
 10
117.2348578209749
 20
38.58606004776302
 30
0.0
 42
0.0340924937683871
  0
VERTEX
  5
1C27
  8
SAPA_FOGBAND
 10
117.2332687019253
 20
38.613255990760443
 30
0.0
 42
-0.2467308326003479
  0
VERTEX
  5
1C28
  8
SAPA_FOGBAND
 10
117.94292473288451
 20
41.785434163581051
 30
0.0
 42
-0.4180751713660579
  0
VERTEX
  5
1C29
  8
SAPA_FOGBAND
 10
118.227431863112
 20
41.774995333740172
 30
0.0
 42
-0.1876945004404132
  0
VERTEX
  5
1C2A
  8
SAPA_FOGBAND
 10
118.7796784587953
 20
40.355678740483668
 30
0.0
  0
SEQEND
  5
1C2B
  8
SAPA_FOGBAND
  0
POLYLINE
  5
117E
  8
SAPA_FOGBAND
 66
     1
 10
0.0
 20
0.0
 30
0.0
  0
VERTEX
  5
1C2C
  8
SAPA_FOGBAND
 10
115.6119166760996
 20
35.181227334286589
 30
0.0
 42
-0.0143850088623774
  0
VERTEX
  5
1C2D
  8
SAPA_FOGBAND
 10
115.6515592099357
 20
35.139538542086441
 30
0.0
 42
-0.2651165110231096
  0
VERTEX
  5
1C2E
  8
SAPA_FOGBAND
 10
115.8524502166364
 20
39.117329491663
 30
0.0
 42
-0.9078892500667688
  0
VERTEX
  5
1C2F
  8
SAPA_FOGBAND
 10
116.3880832071666
 20
38.853214994429848
 30
0.0
 42
0.3125051264089063
  0
VERTEX
  5
1C30
  8
SAPA_FOGBAND
 10
116.51961221877831
 20
35.91647137778628
 30
0.0
 42
-0.0203225602963811
  0
VERTEX
  5
1C31
  8
SAPA_FOGBAND
 10
116.5133683554282
 20
38.541835545081668
 30
0.0
 42
0.0306532727106981
  0
VERTEX
  5
1C32
  8
SAPA_FOGBAND
 10
116.51206793453819
 20
38.566300605819052
 30
0.0
 42
-0.2112224772463461
  0
VERTEX
  5
1C33
  8
SAPA_FOGBAND
 10
117.03599909251921
 20
41.988588354992842
 30
0.0
 42
0.5233245991436544
  0
VERTEX
  5
1C34
  8
SAPA_FOGBAND
 10
116.9498366283228
 20
42.305744897258379
 30
0.0
 42
0.0855230035730003
  0
VERTEX
  5
1C35
  8
SAPA_FOGBAND
 10
116.0796784587953
 20
42.455678620602853
 30
0.0
  0
VERTEX
  5
1C36
  8
SAPA_FOGBAND
 10
109.6094540632412
 20
42.178017980249031
 30
0.0
 42
-0.4586905831423799
  0
VERTEX
  5
1C37
  8
SAPA_FOGBAND
 10
109.3796784587954
 20
42.375789093862423
 30
0.0
  0
VERTEX
  5
1C38
  8
SAPA_FOGBAND
 10
109.3796784587953
 20
43.655678620602899
 30
0.0
 42
-0.4142135623730951
  0
VERTEX
  5
1C39
  8
SAPA_FOGBAND
 10
109.5796784587953
 20
43.855678620602937
 30
0.0
  0
VERTEX
  5
1C3A
  8
SAPA_FOGBAND
 10
116.67967845879519
 20
43.85567862060288
 30
0.0
 42
-0.4142136125334971
  0
VERTEX
  5
1C3B
  8
SAPA_FOGBAND
 10
120.17967845879529
 20
40.355678620602887
 30
0.0
  0
VERTEX
  5
1C3C
  8
SAPA_FOGBAND
 10
120.17967845879539
 20
38.78973097601353
 30
0.0
 42
0.466307658155004
  0
VERTEX
  5
1C3D
  8
SAPA_FOGBAND
 10
120.53177291209531
 20
38.49428865010983
 30
0.0
  0
VERTEX
  5
1C3E
  8
SAPA_FOGBAND
 10
121.54199456277659
 20
38.672417983620797
 30
0.0
  0
VERTEX
  5
1C3F
  8
SAPA_FOGBAND
 10
121.4725352917098
 20
39.066341084825709
 30
0.0
 42
-0.6720594905596488
  0
VERTEX
  5
1C40
  8
SAPA_FOGBAND
 10
121.7859605878625
 20
39.263662835704409
 30
0.0
  0
VERTEX
  5
1C41
  8
SAPA_FOGBAND
 10
123.62906969544581
 20
37.94345496663847
 30
0.0
 42
-0.4079520108343429
  0
VERTEX
  5
1C42
  8
SAPA_FOGBAND
 10
123.77482816142501
 20
37.11681762847526
 30
0.0
  0
VERTEX
  5
1C43
  8
SAPA_FOGBAND
 10
122.49440981832321
 20
35.245847594870114
 30
0.0
 42
-0.6720594905597137
  0
VERTEX
  5
1C44
  8
SAPA_FOGBAND
 10
122.1323983668441
 20
35.324071623379282
 30
0.0
  0
VERTEX
  5
1C45
  8
SAPA_FOGBAND
 10
122.06293909577749
 20
35.717994724584187
 30
0.0
  0
VERTEX
  5
1C46
  8
SAPA_FOGBAND
 10
121.1766121180664
 20
35.561711364683923
 30
0.0
 42
0.414213562373214
  0
VERTEX
  5
1C47
  8
SAPA_FOGBAND
 10
120.93326424546289
 20
35.214174585480201
 30
0.0
  0
VERTEX
  5
1C48
  8
SAPA_FOGBAND
 10
121.4838179311289
 20
32.09182947723891
 30
0.0
 42
-0.3634650901427803
  0
VERTEX
  5
1C49
  8
SAPA_FOGBAND
 10
121.35559567706071
 20
31.86928368395554
 30
0.0
 42
-0.3506085486976247
  0
VERTEX
  5
1C4A
  8
SAPA_FOGBAND
 10
115.6515592099357
 20
35.139538542086441
 30
0.0
  0
SEQEND
  5
1C4B
  8
SAPA_FOGBAND
  0
CIRCLE
  5
117F
  8
SAPA_FOGBAND
 10
119.0000278233707
 20
41.479704008933091
 30
0.0
 40
0.2549509756796394
  0
INSERT
  5
1180
  8
SAPA_FOGBAND
  6
CONTINUOUS
  2
*U94
 10
0.0
 20
0.0
 30
0.0
1001
ACAD
1002
{
1000
R14_HATCH_DATA
1000
1180
1011
1.0
1021
0.0
1031
0.0
1021
0.0
1031
0.0
1011
0.0
1021
0.0
1031
0.0
1021
1.0
1031
0.0
1011
0.0
1021
0.0
1031
0.0
1021
0.0
1031
1.0
1040
0.0
1010
0.0
1020
0.0
1030
1.0
1000
SOLID
1070
     1
1070
     1
1071
        1
1071
        1
1071
        1
1070
     2
1040
119.0000278233707
1040
41.479704008933091
1040
0.2549509756796394
1040
-3.1415926535897931
1040
3.1415926535897931
1070
     0
1071
        1
1005
117F
1070
     0
1070
     1
1071
        1
1040
126.1098759633561
1040
32.498984828411849
1040
0.0
1002
}
  0
POLYLINE
  5
1181
  8
SAPA_FOGBAND
 66
     1
 10
0.0
 20
0.0
 30
0.0
 70
     1
  0
VERTEX
  5
1C5D
  8
SAPA_FOGBAND
 10
115.6955774300821
 20
-3.6089112164208741
 30
0.0
  0
VERTEX
  5
1C5E
  8
SAPA_FOGBAND
 10
117.1727890596003
 20
-3.348438949920459
 30
0.0
 42
-1.0
  0
VERTEX
  5
1C5F
  8
SAPA_FOGBAND
 10
117.3464372372672
 20
-4.3332467029326649
 30
0.0
  0
VERTEX
  5
1C60
  8
SAPA_FOGBAND
 10
115.869225607749
 20
-4.5937189694330796
 30
0.0
 42
-0.9999999999999998
  0
SEQEND
  5
1C61
  8
SAPA_FOGBAND
  0
POLYLINE
  5
1182
  8
SAPA_FOGBAND
 66
     1
 10
0.0
 20
0.0
 30
0.0
  0
VERTEX
  5
1C62
  8
SAPA_FOGBAND
 10
119.3960745412044
 20
-7.1575984528272256
 30
0.0
  0
VERTEX
  5
1C63
  8
SAPA_FOGBAND
 10
119.3960745412044
 20
-6.2735066636674706
 30
0.0
 42
0.044131587116972
  0
VERTEX
  5
1C64
  8
SAPA_FOGBAND
 10
119.3650340161078
 20
-5.9225101021629412
 30
0.0
  0
VERTEX
  5
1C65
  8
SAPA_FOGBAND
 10
118.24331070144559
 20
0.3699382886612925
 30
0.0
 42
-0.51794817552104
  0
VERTEX
  5
1C66
  8
SAPA_FOGBAND
 10
118.4729393566746
 20
0.602341188181204
 30
0.0
 42
-0.256035075286107
  0
VERTEX
  5
1C67
  8
SAPA_FOGBAND
 10
120.9280765375198
 20
-1.287627871665999
 30
0.0
 42
0.0503535055675395
  0
VERTEX
  5
1C68
  8
SAPA_FOGBAND
 10
120.9498490539582
 20
-1.3213986341424211
 30
0.0
 42
-0.2540279951327155
  0
VERTEX
  5
1C69
  8
SAPA_FOGBAND
 10
120.9475720096513
 20
-2.659934322524558
 30
0.0
 42
0.1435946900963506
  0
VERTEX
  5
1C6A
  8
SAPA_FOGBAND
 10
120.9244413991475
 20
-2.7700868884919978
 30
0.0
 42
-0.0233508054218105
  0
VERTEX
  5
1C6B
  8
SAPA_FOGBAND
 10
120.94089517902481
 20
-5.3879798799873511
 30
0.0
 42
0.0340924937683871
  0
VERTEX
  5
1C6C
  8
SAPA_FOGBAND
 10
120.94248429807431
 20
-5.4151758229847742
 30
0.0
 42
-0.2467308326003479
  0
VERTEX
  5
1C6D
  8
SAPA_FOGBAND
 10
120.2328282671152
 20
-8.5873539958053975
 30
0.0
 42
-0.4180751713660579
  0
VERTEX
  5
1C6E
  8
SAPA_FOGBAND
 10
119.9483211368877
 20
-8.5769151659645022
 30
0.0
 42
-0.1876945004404132
  0
VERTEX
  5
1C6F
  8
SAPA_FOGBAND
 10
119.3960745412044
 20
-7.1575985727080074
 30
0.0
  0
SEQEND
  5
1C70
  8
SAPA_FOGBAND
  0
POLYLINE
  5
1183
  8
SAPA_FOGBAND
 66
     1
 10
0.0
 20
0.0
 30
0.0
  0
VERTEX
  5
1C71
  8
SAPA_FOGBAND
 10
122.56383632390011
 20
-1.983147166510927
 30
0.0
 42
-0.0143850088623774
  0
VERTEX
  5
1C72
  8
SAPA_FOGBAND
 10
122.524193790064
 20
-1.9414583743107789
 30
0.0
 42
-0.2651165110231096
  0
VERTEX
  5
1C73
  8
SAPA_FOGBAND
 10
122.3233027833633
 20
-5.919249323887338
 30
0.0
 42
-0.9078892500667688
  0
VERTEX
  5
1C74
  8
SAPA_FOGBAND
 10
121.7876697928331
 20
-5.6551348266541863
 30
0.0
 42
0.3125051264089063
  0
VERTEX
  5
1C75
  8
SAPA_FOGBAND
 10
121.6561407812214
 20
-2.718391210010608
 30
0.0
 42
-0.0203225602963811
  0
VERTEX
  5
1C76
  8
SAPA_FOGBAND
 10
121.6623846445715
 20
-5.3437553773060049
 30
0.0
 42
0.0306532727106981
  0
VERTEX
  5
1C77
  8
SAPA_FOGBAND
 10
121.66368506546149
 20
-5.3682204380433847
 30
0.0
 42
-0.2112224772463461
  0
VERTEX
  5
1C78
  8
SAPA_FOGBAND
 10
121.1397539074805
 20
-8.7905081872171813
 30
0.0
 42
0.5233245991436544
  0
VERTEX
  5
1C79
  8
SAPA_FOGBAND
 10
121.2259163716769
 20
-9.1076647294827175
 30
0.0
 42
0.0855230035730003
  0
VERTEX
  5
1C7A
  8
SAPA_FOGBAND
 10
122.0960745412043
 20
-9.2575984528271924
 30
0.0
  0
VERTEX
  5
1C7B
  8
SAPA_FOGBAND
 10
128.5662989367585
 20
-8.9799378124733753
 30
0.0
 42
-0.4586905831423799
  0
VERTEX
  5
1C7C
  8
SAPA_FOGBAND
 10
128.79607454120429
 20
-9.1777089260867601
 30
0.0
  0
VERTEX
  5
1C7D
  8
SAPA_FOGBAND
 10
128.7960745412044
 20
-10.457598452827231
 30
0.0
 42
-0.4142135623730951
  0
VERTEX
  5
1C7E
  8
SAPA_FOGBAND
 10
128.5960745412043
 20
-10.65759845282728
 30
0.0
  0
VERTEX
  5
1C7F
  8
SAPA_FOGBAND
 10
121.49607454120439
 20
-10.657598452827219
 30
0.0
 42
-0.4142136125334971
  0
VERTEX
  5
1C80
  8
SAPA_FOGBAND
 10
117.99607454120439
 20
-7.1575984528272247
 30
0.0
  0
VERTEX
  5
1C81
  8
SAPA_FOGBAND
 10
117.99607454120429
 20
-5.5916508082378691
 30
0.0
 42
0.466307658155004
  0
VERTEX
  5
1C82
  8
SAPA_FOGBAND
 10
117.6439800879043
 20
-5.2962084823341611
 30
0.0
  0
VERTEX
  5
1C83
  8
SAPA_FOGBAND
 10
116.63375843722309
 20
-5.4743378158451419
 30
0.0
  0
VERTEX
  5
1C84
  8
SAPA_FOGBAND
 10
116.7032177082898
 20
-5.8682609170500468
 30
0.0
 42
-0.6720594905596488
  0
VERTEX
  5
1C85
  8
SAPA_FOGBAND
 10
116.3897924121372
 20
-6.065582667928747
 30
0.0
  0
VERTEX
  5
1C86
  8
SAPA_FOGBAND
 10
114.54668330455389
 20
-4.7453747988628079
 30
0.0
 42
-0.4079520108343429
  0
VERTEX
  5
1C87
  8
SAPA_FOGBAND
 10
114.4009248385747
 20
-3.9187374606995991
 30
0.0
  0
VERTEX
  5
1C88
  8
SAPA_FOGBAND
 10
115.6813431816765
 20
-2.0477674270944521
 30
0.0
 42
-0.6720594905597137
  0
VERTEX
  5
1C89
  8
SAPA_FOGBAND
 10
116.0433546331556
 20
-2.125991455603621
 30
0.0
  0
VERTEX
  5
1C8A
  8
SAPA_FOGBAND
 10
116.11281390422231
 20
-2.5199145568085259
 30
0.0
  0
VERTEX
  5
1C8B
  8
SAPA_FOGBAND
 10
116.9991408819333
 20
-2.363631196908254
 30
0.0
 42
0.414213562373214
  0
VERTEX
  5
1C8C
  8
SAPA_FOGBAND
 10
117.24248875453679
 20
-2.0160944177045321
 30
0.0
  0
VERTEX
  5
1C8D
  8
SAPA_FOGBAND
 10
116.69193506887081
 20
1.1062506905367571
 30
0.0
 42
-0.3634650901427803
  0
VERTEX
  5
1C8E
  8
SAPA_FOGBAND
 10
116.820157322939
 20
1.3287964838201161
 30
0.0
 42
-0.3506085486976247
  0
VERTEX
  5
1C8F
  8
SAPA_FOGBAND
 10
122.524193790064
 20
-1.9414583743107801
 30
0.0
  0
SEQEND
  5
1C90
  8
SAPA_FOGBAND
  0
CIRCLE
  5
1184
  8
SAPA_FOGBAND
 10
119.175725176629
 20
-8.2816238411574368
 30
0.0
 40
0.2549509756796394
  0
INSERT
  5
1185
  8
SAPA_FOGBAND
  6
CONTINUOUS
  2
*U95
 10
0.0
 20
0.0
 30
0.0
1001
ACAD
1002
{
1000
R14_HATCH_DATA
1000
1185
1011
1.0
1021
0.0
1031
0.0
1021
0.0
1031
0.0
1011
0.0
1021
0.0
1031
0.0
1021
1.0
1031
0.0
1011
0.0
1021
0.0
1031
0.0
1021
0.0
1031
1.0
1040
0.0
1010
0.0
1020
0.0
1030
1.0
1000
SOLID
1070
     1
1070
     1
1071
        1
1071
        1
1071
        1
1070
     2
1040
119.175725176629
1040
-8.2816238411574368
1040
0.2549509756796394
1040
-0.0000000000000001
1040
6.2831853071795862
1070
     0
1071
        1
1005
1184
1070
     0
1070
     1
1071
        1
1040
112.0658770366436
1040
0.6990953393638116
1040
0.0
1002
}
  0
POLYLINE
  5
1186
  8
SAPA_FOGBAND
 66
     1
 10
0.0
 20
0.0
 30
0.0
 70
     1
  0
VERTEX
  5
1CA2
  8
SAPA_FOGBAND
 10
-5.4133978403498944
 20
13.089251262205281
 30
0.0
  0
VERTEX
  5
1CA3
  8
SAPA_FOGBAND
 10
-6.6133978403499389
 20
13.089251262205281
 30
0.0
 42
-0.4142135623730951
  0
VERTEX
  5
1CA4
  8
SAPA_FOGBAND
 10
-6.9133978403498944
 20
13.38925126220523
 30
0.0
  0
VERTEX
  5
1CA5
  8
SAPA_FOGBAND
 10
-6.9133978403498944
 20
14.289251262205321
 30
0.0
  0
VERTEX
  5
1CA6
  8
SAPA_FOGBAND
 10
-6.5633978403499853
 20
14.289251262205321
 30
0.0
 42
0.6681786379192988
  0
VERTEX
  5
1CA7
  8
SAPA_FOGBAND
 10
-6.3512658059939389
 20
14.801383296561321
 30
0.0
  0
VERTEX
  5
1CA8
  8
SAPA_FOGBAND
 10
-7.2048191965872732
 20
15.65493668715443
 30
0.0
 42
0.1989123673796552
  0
VERTEX
  5
1CA9
  8
SAPA_FOGBAND
 10
-7.770504621536424
 20
15.88925126220523
 30
0.0
  0
VERTEX
  5
1CAA
  8
SAPA_FOGBAND
 10
-7.933199743956215
 20
15.88925126220523
 30
0.0
 42
0.3394542588633746
  0
VERTEX
  5
1CAB
  8
SAPA_FOGBAND
 10
-8.2229774918429897
 20
15.666896975736011
 30
0.0
  0
VERTEX
  5
1CAC
  8
SAPA_FOGBAND
 10
-8.5861267352328881
 20
14.31160554867451
 30
0.0
 42
-0.3394542588633746
  0
VERTEX
  5
1CAD
  8
SAPA_FOGBAND
 10
-8.8759044831196618
 20
14.089251262205281
 30
0.0
  0
VERTEX
  5
1CAE
  8
SAPA_FOGBAND
 10
-11.45089119758012
 20
14.089251262205281
 30
0.0
 42
-0.3394542588633746
  0
VERTEX
  5
1CAF
  8
SAPA_FOGBAND
 10
-11.740668945466901
 20
14.31160554867451
 30
0.0
  0
VERTEX
  5
1CB0
  8
SAPA_FOGBAND
 10
-12.103818188857019
 20
15.666896975736011
 30
0.0
 42
0.3394542588633744
  0
VERTEX
  5
1CB1
  8
SAPA_FOGBAND
 10
-12.393595936743569
 20
15.88925126220523
 30
0.0
  0
VERTEX
  5
1CB2
  8
SAPA_FOGBAND
 10
-12.556291059163589
 20
15.88925126220523
 30
0.0
 42
0.1989123673796526
  0
VERTEX
  5
1CB3
  8
SAPA_FOGBAND
 10
-13.121976484112739
 20
15.65493668715443
 30
0.0
  0
VERTEX
  5
1CB4
  8
SAPA_FOGBAND
 10
-13.975529874706069
 20
14.801383296561321
 30
0.0
 42
0.6681786379193474
  0
VERTEX
  5
1CB5
  8
SAPA_FOGBAND
 10
-13.763397840350031
 20
14.289251262205321
 30
0.0
  0
VERTEX
  5
1CB6
  8
SAPA_FOGBAND
 10
-13.413397840349891
 20
14.289251262205321
 30
0.0
  0
VERTEX
  5
1CB7
  8
SAPA_FOGBAND
 10
-13.413397840349891
 20
13.38925126220523
 30
0.0
 42
-0.4142135623730951
  0
VERTEX
  5
1CB8
  8
SAPA_FOGBAND
 10
-13.713397840350069
 20
13.089251262205281
 30
0.0
  0
VERTEX
  5
1CB9
  8
SAPA_FOGBAND
 10
-15.81339784034998
 20
13.089251262205281
 30
0.0
 42
-0.4142135623730951
  0
VERTEX
  5
1CBA
  8
SAPA_FOGBAND
 10
-16.11339784034994
 20
13.38925126220523
 30
0.0
  0
VERTEX
  5
1CBB
  8
SAPA_FOGBAND
 10
-16.11339784034994
 20
14.789251262205321
 30
0.0
 42
0.7754026414786132
  0
VERTEX
  5
1CBC
  8
SAPA_FOGBAND
 10
-16.676189835757619
 20
14.93395913051121
 30
0.0
 42
-0.1086822875051356
  0
VERTEX
  5
1CBD
  8
SAPA_FOGBAND
 10
-20.82623799434845
 20
7.0058767403744611
 30
0.0
 42
0.8680589103334746
  0
VERTEX
  5
1CBE
  8
SAPA_FOGBAND
 10
-20.35131396458468
 20
6.6490368377125293
 30
0.0
  0
VERTEX
  5
1CBF
  8
SAPA_FOGBAND
 10
-16.381278567433078
 20
9.4768371588564975
 30
0.0
 42
-0.1989123673796536
  0
VERTEX
  5
1CC0
  8
SAPA_FOGBAND
 10
-15.67417178624641
 20
9.7697303776698305
 30
0.0
  0
VERTEX
  5
1CC1
  8
SAPA_FOGBAND
 10
-12.84085282182668
 20
9.7697303776698305
 30
0.0
 42
-0.577350269189628
  0
VERTEX
  5
1CC2
  8
SAPA_FOGBAND
 10
-12.581045200691451
 20
9.3197303776700124
 30
0.0
  0
VERTEX
  5
1CC3
  8
SAPA_FOGBAND
 10
-14.71917389710319
 20
7.014976274315714
 30
0.0
 42
0.8769764629927301
  0
VERTEX
  5
1CC4
  8
SAPA_FOGBAND
 10
-14.247234241611929
 20
6.6528442399595766
 30
0.0
  0
VERTEX
  5
1CC5
  8
SAPA_FOGBAND
 10
-10.28100624670714
 20
9.4768371588564975
 30
0.0
 42
-0.198912367379658
  0
VERTEX
  5
1CC6
  8
SAPA_FOGBAND
 10
-9.5738994655204763
 20
9.7697303776698305
 30
0.0
  0
VERTEX
  5
1CC7
  8
SAPA_FOGBAND
 10
-7.3416251032990161
 20
9.7697303776698305
 30
0.0
 42
-0.5773502691896441
  0
VERTEX
  5
1CC8
  8
SAPA_FOGBAND
 10
-7.0818174821635651
 20
9.3197303776700124
 30
0.0
  0
VERTEX
  5
1CC9
  8
SAPA_FOGBAND
 10
-9.2194446036928142
 20
7.0158450274960984
 30
0.0
 42
0.87697646299276
  0
VERTEX
  5
1CCA
  8
SAPA_FOGBAND
 10
-8.747504948201545
 20
6.653712993139961
 30
0.0
  0
VERTEX
  5
1CCB
  8
SAPA_FOGBAND
 10
-4.7062910591634539
 20
9.5526918061701878
 30
0.0
 42
0.198912367379658
  0
VERTEX
  5
1CCC
  8
SAPA_FOGBAND
 10
-4.4133978403498944
 20
10.25979858735662
 30
0.0
  0
VERTEX
  5
1CCD
  8
SAPA_FOGBAND
 10
-4.4133978403498944
 20
12.089251262205281
 30
0.0
  0
VERTEX
  5
1CCE
  8
SAPA_FOGBAND
 10
-4.4133978403498944
 20
12.079319471892081
 30
0.0
  0
SEQEND
  5
1CCF
  8
SAPA_FOGBAND
  0
POLYLINE
  5
1187
  8
SAPA_FOGBAND
 66
     1
 10
0.0
 20
0.0
 30
0.0
 70
     1
  0
VERTEX
  5
1CD0
  8
SAPA_FOGBAND
 10
-4.4134045876898611
 20
-2.4024256711382881
 30
0.0
 42
-0.4142135623730951
  0
VERTEX
  5
1CD1
  8
SAPA_FOGBAND
 10
-5.4134045876898611
 20
-3.4024256711382881
 30
0.0
  0
VERTEX
  5
1CD2
  8
SAPA_FOGBAND
 10
-6.6134045876899057
 20
-3.4024256711382881
 30
0.0
 42
0.4142135623730951
  0
VERTEX
  5
1CD3
  8
SAPA_FOGBAND
 10
-6.9134045876898611
 20
-3.7024256711382431
 30
0.0
  0
VERTEX
  5
1CD4
  8
SAPA_FOGBAND
 10
-6.9134045876898611
 20
-4.6024256711381071
 30
0.0
  0
VERTEX
  5
1CD5
  8
SAPA_FOGBAND
 10
-6.5634045876897238
 20
-4.6024256711381071
 30
0.0
 42
-0.6681786379193472
  0
VERTEX
  5
1CD6
  8
SAPA_FOGBAND
 10
-6.3512725533339056
 20
-5.1145577054941072
 30
0.0
  0
VERTEX
  5
1CD7
  8
SAPA_FOGBAND
 10
-7.2048259439271263
 20
-5.9681110960874397
 30
0.0
 42
-0.1989123673796526
  0
VERTEX
  5
1CD8
  8
SAPA_FOGBAND
 10
-7.7705113688763907
 20
-6.2024256711382426
 30
0.0
  0
VERTEX
  5
1CD9
  8
SAPA_FOGBAND
 10
-7.9332064912961817
 20
-6.2024256711382426
 30
0.0
 42
-0.3394542588633746
  0
VERTEX
  5
1CDA
  8
SAPA_FOGBAND
 10
-8.2229842391829564
 20
-5.9800713846690172
 30
0.0
  0
VERTEX
  5
1CDB
  8
SAPA_FOGBAND
 10
-8.5861334825728548
 20
-4.624779957607287
 30
0.0
 42
0.3394542588633744
  0
VERTEX
  5
1CDC
  8
SAPA_FOGBAND
 10
-8.8759112304596286
 20
-4.4024256711382881
 30
0.0
  0
VERTEX
  5
1CDD
  8
SAPA_FOGBAND
 10
-11.45089794492009
 20
-4.4024256711382881
 30
0.0
 42
0.3394542588633746
  0
VERTEX
  5
1CDE
  8
SAPA_FOGBAND
 10
-11.740675692806869
 20
-4.624779957607287
 30
0.0
  0
VERTEX
  5
1CDF
  8
SAPA_FOGBAND
 10
-12.10382493619676
 20
-5.9800713846690172
 30
0.0
 42
-0.3394542588633747
  0
VERTEX
  5
1CE0
  8
SAPA_FOGBAND
 10
-12.39360268408354
 20
-6.2024256711382426
 30
0.0
  0
VERTEX
  5
1CE1
  8
SAPA_FOGBAND
 10
-12.556297806503331
 20
-6.2024256711382426
 30
0.0
 42
-0.1989123673796526
  0
VERTEX
  5
1CE2
  8
SAPA_FOGBAND
 10
-13.12198323145271
 20
-5.9681110960874397
 30
0.0
  0
VERTEX
  5
1CE3
  8
SAPA_FOGBAND
 10
-13.97553662204581
 20
-5.1145577054941072
 30
0.0
 42
-0.6681786379193474
  0
VERTEX
  5
1CE4
  8
SAPA_FOGBAND
 10
-13.763404587689999
 20
-4.6024256711381071
 30
0.0
  0
VERTEX
  5
1CE5
  8
SAPA_FOGBAND
 10
-13.413404587689859
 20
-4.6024256711381071
 30
0.0
  0
VERTEX
  5
1CE6
  8
SAPA_FOGBAND
 10
-13.413404587689859
 20
-3.7024256711382431
 30
0.0
 42
0.4142135623730951
  0
VERTEX
  5
1CE7
  8
SAPA_FOGBAND
 10
-13.71340458768981
 20
-3.4024256711382881
 30
0.0
  0
VERTEX
  5
1CE8
  8
SAPA_FOGBAND
 10
-15.81340458768995
 20
-3.4024256711382881
 30
0.0
 42
0.4142135623730951
  0
VERTEX
  5
1CE9
  8
SAPA_FOGBAND
 10
-16.11340458768991
 20
-3.7024256711382431
 30
0.0
  0
VERTEX
  5
1CEA
  8
SAPA_FOGBAND
 10
-16.11340458768991
 20
-5.1024256711381071
 30
0.0
 42
-0.7754026414785753
  0
VERTEX
  5
1CEB
  8
SAPA_FOGBAND
 10
-16.676196583097578
 20
-5.2471335394439933
 30
0.0
  0
VERTEX
  5
1CEC
  8
SAPA_FOGBAND
 10
-20.195899093642939
 20
0.023530258996644
 30
0.0
 42
-0.8680589103334742
  0
VERTEX
  5
1CED
  8
SAPA_FOGBAND
 10
-19.720975063879401
 20
0.3803701616583484
 30
0.0
  0
VERTEX
  5
1CEE
  8
SAPA_FOGBAND
 10
-16.381285314773042
 20
-1.6095324523247281
 30
0.0
 42
0.198912367379658
  0
VERTEX
  5
1CEF
  8
SAPA_FOGBAND
 10
-15.674178533586369
 20
-1.9024256711382881
 30
0.0
  0
VERTEX
  5
1CF0
  8
SAPA_FOGBAND
 10
-12.840859569166639
 20
-1.9024256711382881
 30
0.0
 42
0.5773502691896282
  0
VERTEX
  5
1CF1
  8
SAPA_FOGBAND
 10
-12.581051948031419
 20
-1.4524256711382431
 30
0.0
  0
VERTEX
  5
1CF2
  8
SAPA_FOGBAND
 10
-14.088834996397679
 20
0.0144307250556184
 30
0.0
 42
-0.8769764629927299
  0
VERTEX
  5
1CF3
  8
SAPA_FOGBAND
 10
-13.616895340906421
 20
0.3765627594115275
 30
0.0
  0
VERTEX
  5
1CF4
  8
SAPA_FOGBAND
 10
-10.28101299404711
 20
-1.6095324523247281
 30
0.0
 42
0.198912367379658
  0
VERTEX
  5
1CF5
  8
SAPA_FOGBAND
 10
-9.5739062128604431
 20
-1.9024256711382881
 30
0.0
  0
VERTEX
  5
1CF6
  8
SAPA_FOGBAND
 10
-7.3416318506388691
 20
-1.9024256711382881
 30
0.0
 42
0.5773502691896282
  0
VERTEX
  5
1CF7
  8
SAPA_FOGBAND
 10
-7.081824229503531
 20
-1.4524256711382431
 30
0.0
  0
VERTEX
  5
1CF8
  8
SAPA_FOGBAND
 10
-8.5891057029873021
 20
0.013561971875234
 30
0.0
 42
-0.8769764629927299
  0
VERTEX
  5
1CF9
  8
SAPA_FOGBAND
 10
-8.1171660474960348
 20
0.3756940062311431
 30
0.0
  0
VERTEX
  5
1CFA
  8
SAPA_FOGBAND
 10
-4.7062978065034207
 20
-1.6853870996384179
 30
0.0
 42
-0.198912367379658
  0
VERTEX
  5
1CFB
  8
SAPA_FOGBAND
 10
-4.4134045876898611
 20
-2.3924938808250849
 30
0.0
  0
SEQEND
  5
1CFC
  8
SAPA_FOGBAND
  0
DIMENSION
  5
118F
  8
SAPA_MATT
  2
*D62
 10
179.0799999999999
 20
-33.400000000000091
 30
0.0
 11
156.57999999999981
 21
-30.900000000000091
 31
0.0
 70
     0
 13
134.07999999999981
 23
-8.3999999999999524
 33
0.0
 14
179.0799999999999
 24
-6.899999999999892
 34
0.0
 50
0.000000000000007
1001
ACAD
1000
DSTYLE
1002
{
1070
    40
1040
1.0
1002
}
  0
DIMENSION
  5
1190
  8
SAPA_MATT
  2
*D61
 10
134.07999999999981
 20
-33.400000000000098
 30
0.0
 11
119.0799999999997
 21
-30.900000000000102
 31
0.0
 70
     0
 13
104.0799999999996
 23
-8.9857864376266203
 33
0.0
 14
134.07999999999981
 24
-8.3999999999999524
 34
0.0
 50
0.000000000000007
1001
ACAD
1000
DSTYLE
1002
{
1070
    40
1040
1.0
1002
}
  0
DIMENSION
  5
1191
  8
SAPA_MATT
  2
*D60
 10
104.0799999999996
 20
-33.400000000000098
 30
0.0
 11
44.079999999999522
 21
-30.899704724409549
 31
0.0
 70
     0
 13
-15.92000000000059
 23
-7.8999999999999622
 33
0.0
 14
104.0799999999996
 24
-8.9857864376266203
 34
0.0
 50
0.000000000000007
1001
ACAD
1000
DSTYLE
1002
{
1070
    40
1040
1.0
1002
}
  0
ENDSEC
  0
EOF
