  0
SECTION
  2
HEADER
  9
$ACADVER
  1
AC1009
  9
$INSBASE
 10
120.2578405227143
 20
378.4930879043871
 30
0.0
  9
$EXTMIN
 10
-18.65012400759052
 20
12.637343556275139
 30
0.0
  9
$EXTMAX
 10
71.076934240332889
 20
133.4265138387583
 30
0.0
  9
$LIMMIN
 10
0.0
 20
0.0
  9
$LIMMAX
 10
420.0
 20
297.0
  9
$ORTHOMODE
 70
     0
  9
$REGENMODE
 70
     1
  9
$FILLMODE
 70
     1
  9
$QTEXTMODE
 70
     0
  9
$MIRRTEXT
 70
     1
  9
$DRAGMODE
 70
     2
  9
$LTSCALE
 40
7.0
  9
$OSMODE
 70
   167
  9
$ATTMODE
 70
     1
  9
$TEXTSIZE
 40
5.25
  9
$TRACEWID
 40
0.05
  9
$TEXTSTYLE
  7
ISO
  9
$CLAYER
  8
0
  9
$CELTYPE
  6
BYLAYER
  9
$CECOLOR
 62
   256
  9
$DIMSCALE
 40
0.0
  9
$DIMASZ
 40
3.0
  9
$DIMEXO
 40
1.5
  9
$DIMDLI
 40
10.0
  9
$DIMRND
 40
0.0
  9
$DIMDLE
 40
0.0
  9
$DIMEXE
 40
1.5
  9
$DIMTP
 40
0.0
  9
$DIMTM
 40
0.0
  9
$DIMTXT
 40
3.0
  9
$DIMCEN
 40
-5.0
  9
$DIMTSZ
 40
0.0
  9
$DIMTOL
 70
     0
  9
$DIMLIM
 70
     0
  9
$DIMTIH
 70
     0
  9
$DIMTOH
 70
     1
  9
$DIMSE1
 70
     0
  9
$DIMSE2
 70
     0
  9
$DIMTAD
 70
     1
  9
$DIMZIN
 70
     8
  9
$DIMBLK
  1

  9
$DIMASO
 70
     1
  9
$DIMSHO
 70
     1
  9
$DIMPOST
  1

  9
$DIMAPOST
  1

  9
$DIMALT
 70
     0
  9
$DIMALTD
 70
     0
  9
$DIMALTF
 40
25.399999999999999
  9
$DIMLFAC
 40
-1.0
  9
$DIMTOFL
 70
     1
  9
$DIMTVP
 40
0.0
  9
$DIMTIX
 70
     0
  9
$DIMSOXD
 70
     0
  9
$DIMSAH
 70
     0
  9
$DIMBLK1
  1

  9
$DIMBLK2
  1

  9
$DIMSTYLE
  2
MASKIN
  9
$DIMCLRD
 70
   256
  9
$DIMCLRE
 70
   256
  9
$DIMCLRT
 70
     2
  9
$DIMTFAC
 40
1.0
  9
$DIMGAP
 40
1.0
  9
$LUNITS
 70
     2
  9
$LUPREC
 70
     2
  9
$SKETCHINC
 40
0.1
  9
$FILLETRAD
 40
0.0
  9
$AUNITS
 70
     0
  9
$AUPREC
 70
     2
  9
$MENU
  1
ACAD
  9
$ELEVATION
 40
0.0
  9
$PELEVATION
 40
0.0
  9
$THICKNESS
 40
0.0
  9
$LIMCHECK
 70
     0
  9
$BLIPMODE
 70
     0
  9
$CHAMFERA
 40
0.0
  9
$CHAMFERB
 40
0.0
  9
$SKPOLY
 70
     0
  9
$TDCREATE
 40
2450345.5798625001
  9
$TDUPDATE
 40
2454887.3873521299
  9
$TDINDWG
 40
0.4571169676
  9
$TDUSRTIMER
 40
0.4571169676
  9
$USRTIMER
 70
     1
  9
$ANGBASE
 50
0.0
  9
$ANGDIR
 70
     0
  9
$PDMODE
 70
     3
  9
$PDSIZE
 40
0.0
  9
$PLINEWID
 40
0.0
  9
$COORDS
 70
     1
  9
$SPLFRAME
 70
     0
  9
$SPLINETYPE
 70
     6
  9
$SPLINESEGS
 70
     8
  9
$ATTDIA
 70
     0
  9
$ATTREQ
 70
     1
  9
$HANDLING
 70
     1
  9
$HANDSEED
  5
111A
  9
$SURFTAB1
 70
     6
  9
$SURFTAB2
 70
     6
  9
$SURFTYPE
 70
     6
  9
$SURFU
 70
     6
  9
$SURFV
 70
     6
  9
$UCSNAME
  2

  9
$UCSORG
 10
0.0
 20
0.0
 30
0.0
  9
$UCSXDIR
 10
1.0
 20
0.0
 30
0.0
  9
$UCSYDIR
 10
0.0
 20
1.0
 30
0.0
  9
$PUCSNAME
  2

  9
$PUCSORG
 10
0.0
 20
0.0
 30
0.0
  9
$PUCSXDIR
 10
1.0
 20
0.0
 30
0.0
  9
$PUCSYDIR
 10
0.0
 20
1.0
 30
0.0
  9
$USERI1
 70
     0
  9
$USERI2
 70
     0
  9
$USERI3
 70
     0
  9
$USERI4
 70
     0
  9
$USERI5
 70
     0
  9
$USERR1
 40
0.0
  9
$USERR2
 40
0.0
  9
$USERR3
 40
0.0
  9
$USERR4
 40
0.0
  9
$USERR5
 40
0.0
  9
$WORLDVIEW
 70
     1
  9
$SHADEDGE
 70
     1
  9
$SHADEDIF
 70
    70
  9
$TILEMODE
 70
     1
  9
$MAXACTVP
 70
    16
  9
$PLIMCHECK
 70
     0
  9
$PEXTMIN
 10
1.049636599258096
 20
0.7996597240971078
 30
-0.0000000000112498
  9
$PEXTMAX
 10
9.4503627310769716
 20
7.200340082697454
 30
0.0000000000002956
  9
$PLIMMIN
 10
-0.2500002402958907
 20
-0.2499999962453767
  9
$PLIMMAX
 10
10.74999951940822
 20
8.2499997634587334
  9
$UNITMODE
 70
     0
  9
$VISRETAIN
 70
     1
  9
$PLINEGEN
 70
     0
  9
$PSLTSCALE
 70
     1
  0
ENDSEC
  0
SECTION
  2
TABLES
  0
TABLE
  2
VPORT
 70
     1
  0
VPORT
  2
*ACTIVE
 70
     0
 10
0.0
 20
0.0
 11
1.0
 21
1.0
 12
68.324100901784362
 22
89.307786913750633
 13
0.0
 23
0.0
 14
5.0
 24
5.0
 15
0.0
 25
0.0
 16
0.0
 26
0.0
 36
1.0
 17
0.0
 27
0.0
 37
0.0
 40
156.65307136542521
 41
1.995238095238095
 42
50.0
 43
0.0
 44
0.0
 50
0.0
 51
0.0
 71
     0
 72
   100
 73
     1
 74
     0
 75
     0
 76
     0
 77
     0
 78
     0
  0
ENDTAB
  0
TABLE
  2
LTYPE
 70
     8
  0
LTYPE
  2
CONTINUOUS
 70
     0
  3
Solid line
 72
    65
 73
     0
 40
0.0
  0
LTYPE
  2
BYGG-022629$0$NEWDOT
 70
     0
  3
____ . ____ . ____ . ____ . ____ . ____ . ____
 72
    65
 73
     4
 40
2.0
 49
1.0
 49
-0.5
 49
0.0
 49
-0.5
  0
LTYPE
  2
BYGG-022629$0$DASHDOT
 70
     0
  3
__ . __ . __ . __ . __ . __ . __ . __ . __ . __
 72
    65
 73
     4
 40
1.0
 49
0.5
 49
-0.25
 49
0.0
 49
-0.25
  0
LTYPE
  2
BYGG-022629$0$DASHED
 70
     0
  3
__ __ __ __ __ __ __ __ __ __ __ __ __ __ __
 72
    65
 73
     2
 40
0.75
 49
0.5
 49
-0.25
  0
LTYPE
  2
BYGG-022629$0$PHANTOM
 70
     0
  3
Phantom ______  __  __  ______  __  __  ______
 72
    65
 73
     6
 40
63.5
 49
31.75
 49
-6.3499999999999988
 49
6.3499999999999988
 49
-6.3499999999999988
 49
6.3499999999999988
 49
-6.3499999999999988
  0
LTYPE
  2
BYGG-014203$0$DASHDOT
 70
     0
  3
__ . __ . __ . __ . __ . __ . __ . __ . __ . __
 72
    65
 73
     4
 40
1.0
 49
0.5
 49
-0.25
 49
0.0
 49
-0.25
  0
LTYPE
  2
BYGG-014568$0$NEWDOT
 70
     0
  3
____ . ____ . ____ . ____ . ____ . ____ . ____
 72
    65
 73
     4
 40
2.0
 49
1.0
 49
-0.5
 49
0.0
 49
-0.5
  0
LTYPE
  2
BYGG-014568$0$DOT_CENTER
 70
     0
  3
Dot_Center
 72
    65
 73
     4
 40
2.0
 49
1.25
 49
-0.25
 49
0.25
 49
-0.25
  0
ENDTAB
  0
TABLE
  2
LAYER
 70
    69
  0
LAYER
  2
0
 70
     0
 62
     7
  6
CONTINUOUS
  0
LAYER
  2
DEFPOINTS
 70
     0
 62
     7
  6
CONTINUOUS
  0
LAYER
  2
SAPA_ARTIKELNR
 70
     0
 62
     4
  6
CONTINUOUS
  0
LAYER
  2
SAPA_LIGHT
 70
     1
 62
     1
  6
CONTINUOUS
  0
LAYER
  2
MATT
 70
     0
 62
     1
  6
CONTINUOUS
  0
LAYER
  2
SAPA_GLAS
 70
     0
 62
     4
  6
CONTINUOUS
  0
LAYER
  2
SAPA_ANSLUTNING
 70
     0
 62
     6
  6
CONTINUOUS
  0
LAYER
  2
SAPA_MATT
 70
     0
 62
     1
  6
CONTINUOUS
  0
LAYER
  2
SAPA_FOGBAND
 70
     0
 62
     2
  6
CONTINUOUS
  0
LAYER
  2
SAPA_PROFIL
 70
     0
 62
     7
  6
CONTINUOUS
  0
ENDTAB
  0
TABLE
  2
STYLE
 70
    14
  0
STYLE
  2
STANDARD
 70
     0
 40
0.0
 41
1.0
 50
0.0
 71
     0
 42
0.2
  3
txt
  4

  0
STYLE
  2
ISO
 70
     0
 40
0.0
 41
1.0
 50
0.0
 71
     0
 42
5.25
  3
isocp3.shx
  4

  0
STYLE
  2
BYGG-022629$0$STANDARD
 70
     0
 40
0.0
 41
1.0
 50
0.0
 71
     0
 42
0.2
  3
txt
  4

  0
STYLE
  2
BYGG-022629$0$ISO
 70
     0
 40
0.0
 41
1.0
 50
0.0
 71
     0
 42
3.5
  3
txt
  4

  0
STYLE
  2
BYGG-014203$0$STANDARD
 70
     0
 40
0.0
 41
1.0
 50
0.0
 71
     0
 42
0.2
  3
txt
  4

  0
STYLE
  2
BYGG-014203$0$ISO
 70
     0
 40
0.0
 41
1.0
 50
0.0
 71
     0
 42
3.5
  3
isocp3.shx
  4

  0
STYLE
  2
BYGG-021745$0$STANDARD
 70
     0
 40
0.0
 41
1.0
 50
0.0
 71
     0
 42
0.2
  3
txt
  4

  0
STYLE
  2
BYGG-021745$0$ISO
 70
     0
 40
0.0
 41
1.0
 50
0.0
 71
     0
 42
3.5
  3
iso
  4

  0
STYLE
  2
BYGG-014568$0$STANDARD
 70
     0
 40
0.0
 41
1.0
 50
0.0
 71
     0
 42
0.2
  3
txt
  4

  0
STYLE
  2
BYGG-014568$0$ISO
 70
     0
 40
0.0
 41
1.0
 50
0.0
 71
     0
 42
3.5
  3
isocp3.shx
  4

  0
STYLE
  2
BYGG-022907$0$STANDARD
 70
     0
 40
0.0
 41
1.0
 50
0.0
 71
     0
 42
0.2
  3
txt
  4

  0
STYLE
  2
BYGG-022907$0$ISO
 70
     0
 40
0.0
 41
1.0
 50
0.0
 71
     0
 42
3.5
  3
txt
  4

  0
STYLE
  2
BYGG-011885$0$STANDARD
 70
     0
 40
0.0
 41
1.0
 50
0.0
 71
     0
 42
0.2
  3
txt
  4

  0
STYLE
  2
BYGG-011885$0$ISO
 70
     0
 40
0.0
 41
1.0
 50
0.0
 71
     0
 42
3.5
  3
isocp3.shx
  4

  0
ENDTAB
  0
TABLE
  2
VIEW
 70
     0
  0
ENDTAB
  0
TABLE
  2
UCS
 70
     0
  0
ENDTAB
  0
TABLE
  2
APPID
 70
    17
  0
APPID
  2
ACAD
 70
     0
  0
APPID
  2
ACAECLAYERSTANDARD
 70
     0
  0
APPID
  2
ACAD_MLEADERVER
 70
     0
  0
APPID
  2
ACAD_DSTYLE_DIMTEXT_FILL
 70
     0
  0
APPID
  2
ACAD_DSTYLE_DIMEXT_LENGTH
 70
     0
  0
APPID
  2
ACAD_DSTYLE_DIMEXT_ENABLED
 70
     0
  0
APPID
  2
ACAD_DSTYLE_DIM_LINETYPE
 70
     0
  0
APPID
  2
ACAD_DSTYLE_DIM_EXT1_LINETYPE
 70
     0
  0
APPID
  2
ACAD_DSTYLE_DIM_EXT2_LINETYPE
 70
     0
  0
APPID
  2
ACAD_DSTYLE_DIMJOGGED_JOGA
 70
     0
  0
APPID
  2
ACAD_DSTYLE_DIMARC_LENGTH_
 70
     0
  0
APPID
  2
ACAD_PSEXT
 70
     0
  0
APPID
  2
AMG_ARCHIVE11
 70
     0
  0
APPID
  2
ACAD_EXEMPT_FROM_CAD_STANDARDS
 70
     0
  0
APPID
  2
ACAD_DSTYLE_DIMJAG
 70
     0
  0
APPID
  2
ACAD_DSTYLE_DIMTALN
 70
     0
  0
APPID
  2
ACADANNOTATIVE
 70
     0
  0
ENDTAB
  0
TABLE
  2
DIMSTYLE
 70
    10
  0
DIMSTYLE
  2
MASKIN
 70
     0
  3

  4

  5

  6

  7

 40
0.0
 41
3.0
 42
1.5
 43
10.0
 44
1.5
 45
0.0
 46
0.0
 47
0.0
 48
0.0
140
3.0
141
-5.0
142
0.0
143
25.399999999999999
144
-1.0
145
0.0
146
1.0
147
1.0
 71
     0
 72
     0
 73
     0
 74
     1
 75
     0
 76
     0
 77
     1
 78
     8
170
     0
171
     0
172
     1
173
     0
174
     0
175
     0
176
   256
177
   256
178
     2
  0
DIMSTYLE
  2
BYGG-022629$0$STANDARD
 70
     0
  3

  4

  5

  6

  7

 40
1.0
 41
0.18
 42
0.0625
 43
0.38
 44
0.18
 45
0.0
 46
0.0
 47
0.0
 48
0.0
140
0.18
141
0.09
142
0.0
143
25.399999999999999
144
1.0
145
0.0
146
1.0
147
0.09
 71
     0
 72
     0
 73
     1
 74
     1
 75
     0
 76
     0
 77
     0
 78
     0
170
     0
171
     2
172
     0
173
     0
174
     0
175
     0
176
     0
177
     0
178
     0
  0
DIMSTYLE
  2
BYGG-022629$0$MASKIN
 70
     0
  3

  4

  5

  6

  7

 40
0.0
 41
3.0
 42
1.5
 43
10.0
 44
1.5
 45
0.0
 46
0.0
 47
0.0
 48
0.0
140
3.0
141
-5.0
142
0.0
143
25.399999999999999
144
-1.0
145
0.0
146
1.0
147
1.0
 71
     0
 72
     0
 73
     0
 74
     0
 75
     0
 76
     0
 77
     1
 78
     8
170
     0
171
     0
172
     1
173
     0
174
     0
175
     0
176
   256
177
   256
178
     2
  0
DIMSTYLE
  2
BYGG-014203$0$STANDARD
 70
     0
  3

  4

  5

  6

  7

 40
1.0
 41
0.18
 42
0.0625
 43
0.38
 44
0.18
 45
0.0
 46
0.0
 47
0.0
 48
0.0
140
0.18
141
0.09
142
0.0
143
25.399999999999999
144
1.0
145
0.0
146
1.0
147
0.09
 71
     0
 72
     0
 73
     1
 74
     1
 75
     0
 76
     0
 77
     0
 78
     0
170
     0
171
     2
172
     0
173
     0
174
     0
175
     0
176
     0
177
     0
178
     0
  0
DIMSTYLE
  2
BYGG-014203$0$MASKIN
 70
     0
  3

  4

  5

  6

  7

 40
0.0
 41
3.0
 42
1.5
 43
10.0
 44
1.5
 45
0.0
 46
0.0
 47
0.0
 48
0.0
140
3.0
141
-5.0
142
0.0
143
25.399999999999999
144
-1.0
145
0.0
146
1.0
147
1.0
 71
     0
 72
     0
 73
     0
 74
     0
 75
     0
 76
     0
 77
     1
 78
     8
170
     0
171
     0
172
     1
173
     0
174
     0
175
     0
176
   256
177
   256
178
   256
  0
DIMSTYLE
  2
BYGG-021745$0$STANDARD
 70
     0
  3

  4

  5

  6

  7

 40
1.0
 41
0.18
 42
0.0625
 43
0.38
 44
0.18
 45
0.0
 46
0.0
 47
0.0
 48
0.0
140
0.18
141
0.09
142
0.0
143
25.399999999999999
144
1.0
145
0.0
146
1.0
147
0.09
 71
     0
 72
     0
 73
     1
 74
     1
 75
     0
 76
     0
 77
     0
 78
     0
170
     0
171
     2
172
     0
173
     0
174
     0
175
     0
176
     0
177
     0
178
     0
  0
DIMSTYLE
  2
BYGG-014568$0$STANDARD
 70
     0
  3

  4

  5

  6

  7

 40
1.0
 41
0.18
 42
0.0625
 43
0.38
 44
0.18
 45
0.0
 46
0.0
 47
0.0
 48
0.0
140
0.18
141
0.09
142
0.0
143
25.399999999999999
144
1.0
145
0.0
146
1.0
147
0.09
 71
     0
 72
     0
 73
     1
 74
     1
 75
     0
 76
     0
 77
     0
 78
     0
170
     0
171
     2
172
     0
173
     0
174
     0
175
     0
176
     0
177
     0
178
     0
  0
DIMSTYLE
  2
BYGG-014568$0$MASKIN
 70
     0
  3

  4

  5

  6

  7

 40
0.0
 41
3.0
 42
1.5
 43
10.0
 44
1.5
 45
0.0
 46
0.0
 47
0.0
 48
0.0
140
3.0
141
-5.0
142
0.0
143
25.399999999999999
144
-1.0
145
0.0
146
1.0
147
1.0
 71
     0
 72
     0
 73
     0
 74
     0
 75
     0
 76
     0
 77
     1
 78
     8
170
     0
171
     0
172
     1
173
     0
174
     0
175
     0
176
   256
177
   256
178
     2
  0
DIMSTYLE
  2
BYGG-022907$0$MASKIN
 70
     0
  3

  4

  5

  6

  7

 40
0.0
 41
3.0
 42
1.5
 43
10.0
 44
1.5
 45
0.0
 46
0.0
 47
0.0
 48
0.0
140
3.0
141
-5.0
142
0.0
143
25.399999999999999
144
-1.0
145
0.0
146
1.0
147
1.0
 71
     0
 72
     0
 73
     0
 74
     0
 75
     0
 76
     0
 77
     1
 78
     8
170
     0
171
     0
172
     1
173
     0
174
     0
175
     0
176
   256
177
   256
178
     2
  0
DIMSTYLE
  2
BYGG-011885$0$MASKIN
 70
     0
  3

  4

  5

  6

  7

 40
0.0
 41
3.0
 42
1.5
 43
10.0
 44
1.5
 45
0.0
 46
0.0
 47
0.0
 48
0.0
140
3.0
141
-5.0
142
0.0
143
25.399999999999999
144
-1.0
145
0.0
146
1.0
147
1.0
 71
     0
 72
     0
 73
     0
 74
     0
 75
     0
 76
     0
 77
     1
 78
     8
170
     0
171
     0
172
     1
173
     0
174
     0
175
     0
176
   256
177
   256
178
     2
  0
ENDTAB
  0
ENDSEC
  0
SECTION
  2
BLOCKS
  0
BLOCK
  8
0
  2
$MODEL_SPACE
 70
     0
 10
0.0
 20
0.0
 30
0.0
  3
$MODEL_SPACE
  1

  0
ENDBLK
  5
D
  8
0
  0
BLOCK
 67
     1
  8
0
  2
$PAPER_SPACE
 70
     0
 10
0.0
 20
0.0
 30
0.0
  3
$PAPER_SPACE
  1

  0
ENDBLK
  5
12
 67
     1
  8
0
  0
BLOCK
  8
0
  2
BYGG-022629$0$18049
 70
     0
 10
0.0
 20
0.0
 30
0.0
  3
BYGG-022629$0$18049
  1

  0
LINE
  5
88F
  8
0
 10
1.257104106126135
 20
1.175882970362522
 30
0.0
 11
0.4756705193898512
 21
3.7049892555045281
 31
0.0
  0
LINE
  5
890
  8
0
 10
4.2044423602476391
 20
-3.6036842434053251
 30
0.0
 11
1.257104106126135
 21
1.175882970362522
 31
0.0
  0
LINE
  5
891
  8
0
 10
1.8046723971954881
 20
-1.3930204203302869
 30
0.0
 11
3.8614632483672291
 21
-4.0897212559317486
 31
0.0
  0
LINE
  5
892
  8
0
 10
1.5165716772223581
 20
-5.4492779234504951
 30
0.0
 11
1.365416573142894
 21
-1.670607021296405
 31
0.0
  0
LINE
  5
893
  8
0
 10
-1.360859991273756
 20
-1.626983735284284
 30
0.0
 11
-2.700553210624562
 21
-2.0440140738289752
 31
0.0
  0
LINE
  5
894
  8
0
 10
4.2213954165827374
 20
-11.20389088691797
 30
0.0
 11
1.8374940511294251
 21
-6.144112628652123
 31
0.0
  0
ARC
  5
895
  8
0
 10
-15.61932099734079
 20
-27.035324816149512
 30
0.0
 40
24.584181139217058
 50
49.137781603725038
 51
55.430876072989847
  0
ARC
  5
896
  8
0
 10
0.6928349840118671
 20
-8.6374822721460305
 30
0.0
 40
0.3000000000000043
 50
139.5071087518125
 51
319.08060320227031
  0
ARC
  5
897
  8
0
 10
2.5157725486285609
 20
-5.4093077022735647
 30
0.0
 40
0.9999999999999417
 50
182.29073520949271
 51
227.290735209491
  0
ARC
  5
898
  8
0
 10
-1.547436887770814
 20
-6.4109931887336984
 30
0.0
 40
0.3999999999999566
 50
92.290735209487536
 51
252.11880956275439
  0
LINE
  5
899
  8
0
 10
-0.264463843413381
 20
-5.9593515526413512
 30
0.0
 11
-1.5634249762415491
 21
-6.0113128401712279
 31
0.0
  0
ARC
  5
89A
  8
0
 10
-0.2764549097664855
 20
-5.6595912912194422
 30
0.0
 40
0.3000000000000553
 50
272.2907352094972
 51
2.2907352094997808
  0
LINE
  5
89B
  8
0
 10
-0.0606321128159806
 20
-3.5492783949131872
 30
0.0
 11
0.023305351655452
 21
-5.6476002248663226
 31
0.0
  0
ARC
  5
89C
  8
0
 10
-0.3603923742378612
 20
-3.561269461266249
 30
0.0
 40
0.3000000000000252
 50
2.2907352094893678
 51
92.290735209491856
  0
LINE
  5
89D
  8
0
 10
-1.271664224856621
 20
-3.2974823989035249
 30
0.0
 11
-0.3723834405909372
 21
-3.26150919984434
 31
0.0
  0
LINE
  5
89E
  8
0
 10
-1.2576746474447731
 20
-3.6472027038957431
 30
0.0
 11
-1.271664224856621
 21
-3.2974823989035249
 31
0.0
  0
ARC
  5
89F
  8
0
 10
-1.557434908866596
 20
-3.6591937702488049
 30
0.0
 40
0.2999999999999189
 50
227.29073520948009
 51
2.2907352094898008
  0
LINE
  5
8A0
  8
0
 10
-2.6479064675971951
 20
-3.060880674298005
 30
0.0
 11
-1.760918458116336
 21
-3.8796352481622871
 31
0.0
  0
ARC
  5
8A1
  8
0
 10
-2.1052836695978661
 20
-2.4730367331951579
 30
0.0
 40
0.7999999999999711
 50
182.29073520948941
 51
227.2907352094899
  0
LINE
  5
8A2
  8
0
 10
-2.911147326750366
 20
-2.3424478020412489
 30
0.0
 11
-2.9046443667228621
 21
-2.5050129101366561
 31
0.0
  0
ARC
  5
8A3
  8
0
 10
-2.6113870653285431
 20
-2.3304567356881871
 30
0.0
 40
0.2999999999999028
 50
107.2907352094865
 51
182.29073520948981
  0
ARC
  5
8A4
  8
0
 10
1.665176834564803
 20
-1.658615954943286
 30
0.0
 40
0.3000000000000269
 50
62.29073520950076
 51
182.29073520950001
  0
ARC
  5
8A5
  8
0
 10
-1.45002613656969
 20
-1.340541073425072
 30
0.0
 40
0.2999999999999088
 50
287.29073520947099
 51
2.2907352094791711
  0
LINE
  5
8A6
  8
0
 10
-1.2531886636523799
 20
1.24437896187652
 30
0.0
 11
-1.150265875147894
 21
-1.3285500070720671
 31
0.0
  0
ARC
  5
8A7
  8
0
 10
-1.552948925074346
 20
1.2323878955234591
 30
0.0
 40
0.3000000000000847
 50
2.2907352094887168
 51
77.290735209486655
  0
LINE
  5
8A8
  8
0
 10
-2.8556712716364099
 20
1.8337253324163489
 30
0.0
 11
-1.4869477411285881
 21
1.5250375900693589
 31
0.0
  0
ARC
  5
8A9
  8
0
 10
-2.7896700876906229
 20
2.1263750269621928
 30
0.0
 40
0.3000000000000366
 50
182.29073520947821
 51
257.29073520947901
  0
LINE
  5
8AA
  8
0
 10
-3.0959333091400651
 20
2.276949068704595
 30
0.0
 11
-3.0894303491125461
 21
2.1143839606091879
 31
0.0
  0
ARC
  5
8AB
  8
0
 10
-2.296572612015197
 20
2.3089252456460372
 30
0.0
 40
0.7999999999998441
 50
137.29073520948589
 51
182.29073520948569
  0
LINE
  5
8AC
  8
0
 10
-2.0656619792536191
 20
3.7385360531263241
 30
0.0
 11
-2.8844165531179149
 21
2.8515480436453231
 31
0.0
  0
ARC
  5
8AD
  8
0
 10
-1.8452205013400651
 20
3.5350525038765559
 30
0.0
 40
0.3000000000000082
 50
2.2907352094784108
 51
137.29073520948529
  0
LINE
  5
8AE
  8
0
 10
-1.5434617288593271
 20
3.497083526659253
 30
0.0
 11
-1.5454602399181701
 21
3.5470435702295608
 31
0.0
  0
ARC
  5
8AF
  8
0
 10
-1.2437014674374249
 20
3.5090745930123139
 30
0.0
 40
0.3000000000000243
 50
182.29073520948921
 51
272.29073520948782
  0
LINE
  5
8B0
  8
0
 10
-0.6321898782405812
 20
3.2332964642965289
 30
0.0
 11
-1.23171040108437
 21
3.2093143315904049
 31
0.0
  0
ARC
  5
8B1
  8
0
 10
-0.6441809445936002
 20
3.5330567257183811
 30
0.0
 40
0.2999999999999656
 50
272.2907352094814
 51
2.2907352094787372
  0
LINE
  5
8B2
  8
0
 10
-0.3464191942305916
 20
3.5950078356417521
 30
0.0
 11
-0.344420683171748
 21
3.5450477920713861
 31
0.0
  0
ARC
  5
8B3
  8
0
 10
-0.046658932808711
 20
3.606998901994813
 30
0.0
 40
0.2999999999999673
 50
92.290735209486854
 51
182.2907352094893
  0
LINE
  5
8B4
  8
0
 10
0.177049383927411
 20
3.9161876544667962
 30
0.0
 11
-0.0586499991617586
 21
3.9067591634166661
 31
0.0
  0
ARC
  5
8B5
  8
0
 10
0.1890404502804017
 20
3.6164273930448871
 30
0.0
 40
0.3000000000000138
 50
17.169902926059759
 51
92.290735209475557
  0
CIRCLE
  5
8B6
  8
0
 10
0.0
 20
0.0
 30
0.0
 40
0.2
  0
ARC
  5
8B7
  8
0
 10
4.000958810997929
 20
-3.8241257213188642
 30
0.0
 40
0.2999999999999325
 50
242.29073520948819
 51
47.290735209489483
  0
ARC
  5
8B8
  8
0
 10
4.017911867332927
 20
-11.42433236483151
 30
0.0
 40
0.2999999999999948
 50
222.87790223034321
 51
47.290735209474143
  0
ARC
  5
8B9
  8
0
 10
-25.590924134226238
 20
-39.188544039530477
 30
0.0
 40
40.30140653252819
 50
43.041593976239149
 51
48.867350427507773
  0
ENDBLK
  5
8BA
  8
0
  0
BLOCK
  8
0
  2
BYGG-022629$0$18058
 70
     0
 10
0.0
 20
0.0
 30
0.0
  3
BYGG-022629$0$18058
  1

  0
POLYLINE
  5
8BE
  8
0
 66
     1
 10
0.0
 20
0.0
 30
0.0
 70
     1
  0
VERTEX
  5
B0F
  8
0
 10
4.8334507297417977
 20
-5.2617122271897747
 30
0.0
 42
0.6997223268137053
  0
VERTEX
  5
B10
  8
0
 10
4.575936757014289
 20
-4.5556296340060376
 30
0.0
  0
VERTEX
  5
B11
  8
0
 10
3.3759367570143008
 20
-4.5556296340060376
 30
0.0
 42
-0.4142135623730951
  0
VERTEX
  5
B12
  8
0
 10
3.1759367570143122
 20
-4.355629634006049
 30
0.0
  0
VERTEX
  5
B13
  8
0
 10
3.1759367570142838
 20
-1.555629634006038
 30
0.0
 42
-0.59729408155688
  0
VERTEX
  5
B14
  8
0
 10
3.486028500133556
 20
-1.38865715694186
 30
0.0
  0
VERTEX
  5
B15
  8
0
 10
3.778230334995953
 20
-1.5813177074005571
 30
0.0
 42
0.7267081950900313
  0
VERTEX
  5
B16
  8
0
 10
4.447090661358259
 20
-1.0471071155557179
 30
0.0
  0
VERTEX
  5
B17
  8
0
 10
0.5873176626473935
 20
5.5050401533857212
 30
0.0
 42
0.7363258036229955
  0
VERTEX
  5
B18
  8
0
 10
-0.7166888610518641
 20
5.2103713392397699
 30
0.0
  0
VERTEX
  5
B19
  8
0
 10
-1.3240632429856301
 20
1.765780049277339
 30
0.0
  0
VERTEX
  5
B1A
  8
0
 10
-2.7574321456306592
 20
-2.6694904128274279
 30
0.0
 42
0.885993824690421
  0
VERTEX
  5
B1B
  8
0
 10
-2.3382360028933951
 20
-3.0926345791103809
 30
0.0
  0
VERTEX
  5
B1C
  8
0
 10
-1.624063242985442
 20
-0.9471580705006203
 30
0.0
 42
-0.5773502691892892
  0
VERTEX
  5
B1D
  8
0
 10
-1.3240632429856301
 20
-1.120363151257606
 30
0.0
  0
VERTEX
  5
B1E
  8
0
 10
-1.3240632429856869
 20
-5.6510692487698293
 30
0.0
 42
-0.1989123673796363
  0
VERTEX
  5
B1F
  8
0
 10
-1.3826418867483881
 20
-5.7924906050071172
 30
0.0
  0
VERTEX
  5
B20
  8
0
 10
-2.7562272241133172
 20
-10.167977501831951
 30
0.0
 42
0.7660459440748996
  0
VERTEX
  5
B21
  8
0
 10
-2.4141837562942068
 20
-10.635523841217941
 30
0.0
  0
VERTEX
  5
B22
  8
0
 10
1.832706186540491
 20
-6.8303485721410757
 30
0.0
 42
-0.3419987131192184
  0
VERTEX
  5
B23
  8
0
 10
1.953259031429212
 20
-6.851959023057872
 30
0.0
 42
0.7745966692401299
  0
VERTEX
  5
B24
  8
0
 10
2.4681048871406972
 20
-6.5828238435410071
 30
0.0
 42
-0.3419987131192394
  0
VERTEX
  5
B25
  8
0
 10
2.519167327488105
 20
-6.4715016661200471
 30
0.0
  0
SEQEND
  5
B26
  8
0
  0
CIRCLE
  5
8BF
  8
0
 10
0.0
 20
0.0
 30
0.0
 40
0.2
  0
ENDBLK
  5
8C0
  8
0
  0
BLOCK
  8
0
  2
*D39
 70
     1
 10
0.0
 20
0.0
 30
0.0
  3
*D39
  1

  0
LINE
  5
AB1
  8
SAPA_MATT
 10
5.7269342403328931
 20
117.70997293121781
 30
0.0
 11
-15.183714873084391
 21
117.70997293121781
 31
0.0
  0
LINE
  5
AB2
  8
SAPA_MATT
 10
4.6411478027057447
 20
39.709972931217813
 30
0.0
 11
-15.18371487308441
 21
39.709972931217813
 31
0.0
  0
LINE
  5
AB3
  8
SAPA_MATT
 10
-13.683714873084391
 20
114.70997293121781
 30
0.0
 11
-13.68371487308441
 21
42.709972931217798
 31
0.0
  0
SOLID
  5
AB4
  8
SAPA_MATT
 10
-14.183714873084391
 20
114.70997293121781
 30
0.0
 11
-13.183714873084391
 21
114.70997293121781
 31
0.0
 12
-13.683714873084391
 22
117.70997293121781
 32
0.0
 13
-13.683714873084391
 23
117.70997293121781
 33
0.0
  0
SOLID
  5
AB5
  8
SAPA_MATT
 10
-14.18371487308441
 20
42.709972931217798
 30
0.0
 11
-13.18371487308441
 21
42.709972931217798
 31
0.0
 12
-13.68371487308441
 22
39.709972931217813
 32
0.0
 13
-13.68371487308441
 23
39.709972931217813
 33
0.0
  0
INSERT
  5
AB6
  8
0
  2
*U55
 10
0.0
 20
0.0
 30
0.0
  0
POINT
  5
AB7
  8
DEFPOINTS
 62
     0
 10
7.2269342403328931
 20
117.70997293121781
 30
0.0
  0
POINT
  5
AB8
  8
DEFPOINTS
 62
     0
 10
6.1411478027057447
 20
39.709972931217813
 30
0.0
  0
POINT
  5
AB9
  8
DEFPOINTS
 62
     0
 10
-13.68371487308441
 20
39.709972931217813
 30
0.0
  0
ENDBLK
  5
A9B
  8
0
  0
BLOCK
  8
0
  2
*D40
 70
     1
 10
0.0
 20
0.0
 30
0.0
  3
*D40
  1

  0
LINE
  5
AA8
  8
SAPA_MATT
 10
4.6411478027057447
 20
39.709972931217813
 30
0.0
 11
-15.132447090313009
 21
39.709972931217813
 31
0.0
  0
LINE
  5
AA9
  8
SAPA_MATT
 10
4.6411478027057438
 20
24.709972931217809
 30
0.0
 11
-15.132447090313009
 21
24.709972931217809
 31
0.0
  0
LINE
  5
AAA
  8
SAPA_MATT
 10
-13.632447090313001
 20
36.709972931217813
 30
0.0
 11
-13.632447090313009
 21
27.709972931217809
 31
0.0
  0
SOLID
  5
AAB
  8
SAPA_MATT
 10
-14.132447090313001
 20
36.709972931217813
 30
0.0
 11
-13.132447090313001
 21
36.709972931217813
 31
0.0
 12
-13.632447090313001
 22
39.709972931217813
 32
0.0
 13
-13.632447090313001
 23
39.709972931217813
 33
0.0
  0
SOLID
  5
AAC
  8
SAPA_MATT
 10
-14.132447090313009
 20
27.709972931217809
 30
0.0
 11
-13.132447090313009
 21
27.709972931217809
 31
0.0
 12
-13.632447090313009
 22
24.709972931217809
 32
0.0
 13
-13.632447090313009
 23
24.709972931217809
 33
0.0
  0
INSERT
  5
AAD
  8
0
  2
*U54
 10
0.0
 20
0.0
 30
0.0
  0
POINT
  5
AAE
  8
DEFPOINTS
 62
     0
 10
6.1411478027057447
 20
39.709972931217813
 30
0.0
  0
POINT
  5
AAF
  8
DEFPOINTS
 62
     0
 10
6.1411478027057438
 20
24.709972931217809
 30
0.0
  0
POINT
  5
AB0
  8
DEFPOINTS
 62
     0
 10
-13.632447090313009
 20
24.709972931217809
 30
0.0
  0
ENDBLK
  5
AA7
  8
0
  0
BLOCK
  8
0
  2
*U41
 70
     1
 10
0.0
 20
0.0
 30
0.0
  3
*U41
  1

  0
TEXT
  5
ADC
  8
SAPA_ARTIKELNR
 10
66.758918848382081
 20
65.593541810570088
 30
0.0
 40
3.5
  1
68059
 50
90.0
  7
ISO
  0
ENDBLK
  5
ADE
  8
0
  0
BLOCK
  8
0
  2
*U42
 70
     1
 10
0.0
 20
0.0
 30
0.0
  3
*U42
  1

  0
TEXT
  5
AEB
  8
MATT
 62
     2
 10
-14.68371487308441
 20
76.609972931217797
 30
0.0
 40
3.0
  1
78
 50
90.0
  7
ISO
  0
ENDBLK
  5
AED
  8
0
  0
BLOCK
  8
0
  2
*U43
 70
     1
 10
0.0
 20
0.0
 30
0.0
  3
*U43
  1

  0
TEXT
  5
AEF
  8
MATT
 62
     2
 10
-14.632447090313009
 20
27.497840896861842
 30
0.0
 40
3.0
  1
10-15
 50
90.0
  7
ISO
  0
ENDBLK
  5
AF1
  8
0
  0
BLOCK
  8
0
  2
*U44
 70
     1
 10
0.0
 20
0.0
 30
0.0
  3
*U44
  1

  0
TEXT
  5
CDA
  8
0
 10
269.13695666615928
 20
387.12121780868893
 30
0.0
 40
3.0
  1
22
 50
90.0
  7
BYGG-014203$0$ISO
  0
ENDBLK
  5
CDC
  8
0
  0
BLOCK
  8
0
  2
*U45
 70
     1
 10
0.0
 20
0.0
 30
0.0
  3
*U45
  1

  0
TEXT
  5
CDE
  8
0
 10
243.50583563664401
 20
406.8346351471406
 30
0.0
 40
3.0
  1
29
  7
BYGG-014203$0$ISO
  0
ENDBLK
  5
CE0
  8
0
  0
BLOCK
  8
0
  2
*U46
 70
     1
 10
0.0
 20
0.0
 30
0.0
  3
*U46
  1

  0
TEXT
  5
CE3
  8
0
 10
89.477352001818133
 20
536.91038923748056
 30
0.0
 40
3.0
  1
29.00259511
  7
BYGG-014203$0$ISO
  0
ENDBLK
  5
CE5
  8
0
  0
BLOCK
  8
0
  2
*U47
 70
     1
 10
0.0
 20
0.0
 30
0.0
  3
*U47
  1

  0
TEXT
  5
CE7
  8
0
 10
139.81857160131429
 20
500.42082458589999
 30
0.0
 40
3.0
  1
21.99913956
 50
90.0
  7
BYGG-014203$0$ISO
  0
ENDBLK
  5
CE9
  8
0
  0
BLOCK
  8
0
  2
*U48
 70
     1
 10
0.0
 20
0.0
 30
0.0
  3
*U48
  1

  0
TEXT
  5
DB7
  8
0
 62
     2
 10
245.33733479012039
 20
615.75612140097405
 30
0.0
 40
3.0
  1
78
  7
BYGG-014568$0$ISO
  0
ENDBLK
  5
DB9
  8
0
  0
BLOCK
  8
0
  2
*U49
 70
     1
 10
0.0
 20
0.0
 30
0.0
  3
*U49
  1

  0
TEXT
  5
DBB
  8
0
 62
     2
 10
311.00996416506302
 20
659.27176232606303
 30
0.0
 40
3.0
  1
60
 50
90.0
  7
BYGG-014568$0$ISO
  0
ENDBLK
  5
DBD
  8
0
  0
BLOCK
  8
0
  2
*U50
 70
     1
 10
0.0
 20
0.0
 30
0.0
  3
*U50
  1

  0
TEXT
  5
DFF
  8
0
 10
66.186160488034716
 20
104.85728600674121
 30
0.0
 40
3.0
  1
22
 50
90.0
  7
BYGG-014203$0$ISO
  0
ENDBLK
  5
E01
  8
0
  0
BLOCK
  8
0
  2
*U51
 70
     1
 10
0.0
 20
0.0
 30
0.0
  3
*U51
  1

  0
TEXT
  5
E03
  8
0
 10
40.555039458519531
 20
124.570703345193
 30
0.0
 40
3.0
  1
29
  7
BYGG-014203$0$ISO
  0
ENDBLK
  5
E05
  8
0
  0
BLOCK
  8
0
  2
*U52
 70
     1
 10
0.0
 20
0.0
 30
0.0
  3
*U52
  1

  0
TEXT
  5
E07
  8
0
 62
     2
 10
-15.80012400759051
 20
76.609972931217797
 30
0.0
 40
3.0
  1
78
 50
90.0
  7
BYGG-014568$0$ISO
  0
ENDBLK
  5
E09
  8
0
  0
BLOCK
  8
0
  2
*U53
 70
     1
 10
0.0
 20
0.0
 30
0.0
  3
*U53
  1

  0
TEXT
  5
E0B
  8
0
 62
     2
 10
29.715516917498221
 20
15.137343556275139
 30
0.0
 40
3.0
  1
60
  7
BYGG-014568$0$ISO
  0
ENDBLK
  5
E0D
  8
0
  0
BLOCK
  8
0
  2
*U54
 70
     1
 10
0.0
 20
0.0
 30
0.0
  3
*U54
  1

  0
TEXT
  5
1113
  8
SAPA_MATT
 62
     2
 10
-14.632447090313009
 20
27.497840896861842
 30
0.0
 40
3.0
  1
10-15
 50
90.0
  7
ISO
  0
ENDBLK
  5
1115
  8
0
  0
BLOCK
  8
0
  2
*U55
 70
     1
 10
0.0
 20
0.0
 30
0.0
  3
*U55
  1

  0
TEXT
  5
1117
  8
SAPA_MATT
 62
     2
 10
-14.68371487308441
 20
76.609972931217797
 30
0.0
 40
3.0
  1
78
 50
90.0
  7
ISO
  0
ENDBLK
  5
1119
  8
0
  0
ENDSEC
  0
SECTION
  2
ENTITIES
  0
POLYLINE
  5
67B
  8
SAPA_LIGHT
 66
     1
 10
0.0
 20
0.0
 30
0.0
  0
VERTEX
  5
ACE
  8
SAPA_LIGHT
 10
57.259913930295419
 20
14.72854237866232
 30
0.0
  0
VERTEX
  5
ACF
  8
SAPA_LIGHT
 10
57.26280549655533
 20
14.72854237866232
 30
0.0
  0
SEQEND
  5
AD0
  8
SAPA_LIGHT
  0
POLYLINE
  5
67C
  8
SAPA_LIGHT
 66
     1
 10
0.0
 20
0.0
 30
0.0
 70
     1
  0
VERTEX
  5
AD1
  8
SAPA_LIGHT
 10
16.194214175252569
 20
100.92023273486539
 30
0.0
  0
VERTEX
  5
AD2
  8
SAPA_LIGHT
 10
22.194214175252579
 20
100.92023273486539
 30
0.0
  0
VERTEX
  5
AD3
  8
SAPA_LIGHT
 10
22.194214175252579
 20
133.4265138387583
 30
0.0
  0
VERTEX
  5
AD4
  8
SAPA_LIGHT
 10
16.194214175252569
 20
133.4265138387583
 30
0.0
  0
SEQEND
  5
AD5
  8
SAPA_LIGHT
  0
POLYLINE
  5
682
  8
SAPA_GLAS
 62
     6
 66
     1
 10
0.0
 20
0.0
 30
0.0
 70
     1
  0
VERTEX
  5
AD6
  8
SAPA_GLAS
 62
     6
 10
14.698764336947569
 20
98.863932876606697
 30
0.0
  0
VERTEX
  5
AD7
  8
SAPA_GLAS
 62
     6
 10
14.698764336947569
 20
96.863932876606711
 30
0.0
  0
VERTEX
  5
AD8
  8
SAPA_GLAS
 62
     6
 10
23.698764336947569
 20
96.863932876606711
 30
0.0
  0
VERTEX
  5
AD9
  8
SAPA_GLAS
 62
     6
 10
23.698764336947569
 20
98.863932876606697
 30
0.0
  0
SEQEND
  5
ADA
  8
SAPA_GLAS
 62
     6
  0
INSERT
  5
751
  8
0
  2
*U41
 10
0.0
 20
0.0
 30
0.0
  0
POLYLINE
  5
7B1
  8
SAPA_LIGHT
 66
     1
 10
0.0
 20
0.0
 30
0.0
  0
VERTEX
  5
ADF
  8
SAPA_LIGHT
 10
22.194214175252569
 20
117.70997293121761
 30
0.0
  0
VERTEX
  5
AE0
  8
SAPA_LIGHT
 10
57.226934240332803
 20
117.70997293121771
 30
0.0
  0
VERTEX
  5
AE1
  8
SAPA_LIGHT
 10
57.226934240332803
 20
95.417079712401986
 30
0.0
  0
VERTEX
  5
AE2
  8
SAPA_LIGHT
 10
61.726934240332781
 20
95.417079712401943
 30
0.0
  0
VERTEX
  5
AE3
  8
SAPA_LIGHT
 10
61.726934240332866
 20
39.709972931215361
 30
0.0
  0
VERTEX
  5
AE4
  8
SAPA_LIGHT
 10
1.726934240332838
 20
39.709972931215361
 30
0.0
  0
VERTEX
  5
AE5
  8
SAPA_LIGHT
 10
1.726934240332809
 20
95.417079712401915
 30
0.0
  0
VERTEX
  5
AE6
  8
SAPA_LIGHT
 10
6.2337305802898584
 20
95.334920417612764
 30
0.0
  0
VERTEX
  5
AE7
  8
SAPA_LIGHT
 10
6.2337305802898859
 20
117.6278136364285
 30
0.0
  0
VERTEX
  5
AE8
  8
SAPA_LIGHT
 10
16.194214175252561
 20
117.7131883848766
 30
0.0
  0
SEQEND
  5
AE9
  8
SAPA_LIGHT
  0
LINE
  5
835
  8
SAPA_ANSLUTNING
 10
6.1411478027057447
 20
24.709972931217809
 30
0.0
 11
61.687928706410389
 21
24.709972931217809
 31
0.0
  0
LINE
  5
84D
  8
SAPA_LIGHT
 10
6.1411478027057447
 20
24.709972931217809
 30
0.0
 11
61.687928706410389
 21
24.709972931217809
 31
0.0
  0
POLYLINE
  5
A5B
  8
SAPA_PROFIL
  6
CONTINUOUS
 66
     1
 10
0.0
 20
0.0
 30
0.0
 70
     1
  0
VERTEX
  5
EFB
  8
SAPA_PROFIL
  6
CONTINUOUS
 10
5.0269342403329338
 20
52.909972931217851
 30
0.0
 42
-0.4142135623730951
  0
VERTEX
  5
EFC
  8
SAPA_PROFIL
  6
CONTINUOUS
 10
4.7269342403328656
 20
53.209972931217813
 30
0.0
  0
VERTEX
  5
EFD
  8
SAPA_PROFIL
  6
CONTINUOUS
 10
4.7269342403329802
 20
88.085708862505783
 30
0.0
 42
-0.198912367379658
  0
VERTEX
  5
EFE
  8
SAPA_PROFIL
  6
CONTINUOUS
 10
4.8148022059768891
 20
88.297840896861828
 30
0.0
  0
VERTEX
  5
EFF
  8
SAPA_PROFIL
  6
CONTINUOUS
 10
8.1390662746888438
 20
91.622104965573669
 30
0.0
 42
-0.1989123673796998
  0
VERTEX
  5
F00
  8
SAPA_PROFIL
  6
CONTINUOUS
 10
8.3511983090448894
 20
91.709972931217806
 30
0.0
  0
VERTEX
  5
F01
  8
SAPA_PROFIL
  6
CONTINUOUS
 10
11.826934240332889
 20
91.709972931217706
 30
0.0
 42
-0.4142135623730951
  0
VERTEX
  5
F02
  8
SAPA_PROFIL
  6
CONTINUOUS
 10
12.12693424033284
 20
91.409972931217737
 30
0.0
  0
VERTEX
  5
F03
  8
SAPA_PROFIL
  6
CONTINUOUS
 10
12.126934240332959
 20
84.00997293121776
 30
0.0
 42
0.4142135623730951
  0
VERTEX
  5
F04
  8
SAPA_PROFIL
  6
CONTINUOUS
 10
12.42693424033291
 20
83.709972931217806
 30
0.0
  0
VERTEX
  5
F05
  8
SAPA_PROFIL
  6
CONTINUOUS
 10
14.026934240332929
 20
83.709972931217806
 30
0.0
 42
0.4142135623730951
  0
VERTEX
  5
F06
  8
SAPA_PROFIL
  6
CONTINUOUS
 10
14.326934240332889
 20
84.00997293121776
 30
0.0
  0
VERTEX
  5
F07
  8
SAPA_PROFIL
  6
CONTINUOUS
 10
14.326934240332889
 20
92.409972931217737
 30
0.0
 42
-0.4142135623730951
  0
VERTEX
  5
F08
  8
SAPA_PROFIL
  6
CONTINUOUS
 10
14.62693424033284
 20
92.709972931217806
 30
0.0
  0
VERTEX
  5
F09
  8
SAPA_PROFIL
  6
CONTINUOUS
 10
27.426934240332908
 20
92.709972931217692
 30
0.0
 42
-0.4142135623730951
  0
VERTEX
  5
F0A
  8
SAPA_PROFIL
  6
CONTINUOUS
 10
27.72693424033287
 20
92.409972931217737
 30
0.0
  0
VERTEX
  5
F0B
  8
SAPA_PROFIL
  6
CONTINUOUS
 10
27.72693424033287
 20
88.409972931217723
 30
0.0
 42
0.6681786379192989
  0
VERTEX
  5
F0C
  8
SAPA_PROFIL
  6
CONTINUOUS
 10
28.580487630925859
 20
88.056419540624745
 30
0.0
  0
VERTEX
  5
F0D
  8
SAPA_PROFIL
  6
CONTINUOUS
 10
29.72693424033287
 20
89.202866150031767
 30
0.0
  0
VERTEX
  5
F0E
  8
SAPA_PROFIL
  6
CONTINUOUS
 10
29.72693424033287
 20
92.409972931217737
 30
0.0
 42
-0.4142135623730951
  0
VERTEX
  5
F0F
  8
SAPA_PROFIL
  6
CONTINUOUS
 10
30.026934240332821
 20
92.709972931217806
 30
0.0
  0
VERTEX
  5
F10
  8
SAPA_PROFIL
  6
CONTINUOUS
 10
30.860908836548901
 20
92.709972931217806
 30
0.0
  0
VERTEX
  5
F11
  8
SAPA_PROFIL
  6
CONTINUOUS
 10
31.72693424033287
 20
93.209972931217806
 30
0.0
  0
VERTEX
  5
F12
  8
SAPA_PROFIL
  6
CONTINUOUS
 10
32.592959644116831
 20
92.709972931217806
 30
0.0
  0
VERTEX
  5
F13
  8
SAPA_PROFIL
  6
CONTINUOUS
 10
33.426934240332912
 20
92.709972931217692
 30
0.0
 42
-0.4142135623730951
  0
VERTEX
  5
F14
  8
SAPA_PROFIL
  6
CONTINUOUS
 10
33.726934240332866
 20
92.409972931217737
 30
0.0
  0
VERTEX
  5
F15
  8
SAPA_PROFIL
  6
CONTINUOUS
 10
33.726934240332866
 20
88.709972931217806
 30
0.0
  0
VERTEX
  5
F16
  8
SAPA_PROFIL
  6
CONTINUOUS
 10
34.726934240332866
 20
87.709972931217806
 30
0.0
  0
VERTEX
  5
F17
  8
SAPA_PROFIL
  6
CONTINUOUS
 10
48.826934240332889
 20
87.709972931217806
 30
0.0
 42
-0.4142135623730951
  0
VERTEX
  5
F18
  8
SAPA_PROFIL
  6
CONTINUOUS
 10
49.126934240332837
 20
87.409972931217737
 30
0.0
  0
VERTEX
  5
F19
  8
SAPA_PROFIL
  6
CONTINUOUS
 10
49.126934240332837
 20
84.00997293121776
 30
0.0
 42
0.4142135623730951
  0
VERTEX
  5
F1A
  8
SAPA_PROFIL
  6
CONTINUOUS
 10
49.426934240332912
 20
83.709972931217806
 30
0.0
  0
VERTEX
  5
F1B
  8
SAPA_PROFIL
  6
CONTINUOUS
 10
51.026934240332821
 20
83.709972931217806
 30
0.0
 42
0.4142135623730951
  0
VERTEX
  5
F1C
  8
SAPA_PROFIL
  6
CONTINUOUS
 10
51.326934240332768
 20
84.00997293121776
 30
0.0
  0
VERTEX
  5
F1D
  8
SAPA_PROFIL
  6
CONTINUOUS
 10
51.326934240332889
 20
87.409972931217737
 30
0.0
 42
-0.4142135623730951
  0
VERTEX
  5
F1E
  8
SAPA_PROFIL
  6
CONTINUOUS
 10
51.626934240332837
 20
87.709972931217692
 30
0.0
  0
VERTEX
  5
F1F
  8
SAPA_PROFIL
  6
CONTINUOUS
 10
58.426934240332912
 20
87.709972931217806
 30
0.0
 42
-0.4142135623730951
  0
VERTEX
  5
F20
  8
SAPA_PROFIL
  6
CONTINUOUS
 10
58.726934240332859
 20
87.409972931217737
 30
0.0
  0
VERTEX
  5
F21
  8
SAPA_PROFIL
  6
CONTINUOUS
 10
58.726934240332859
 20
53.209972931217813
 30
0.0
 42
-0.4142135623730951
  0
VERTEX
  5
F22
  8
SAPA_PROFIL
  6
CONTINUOUS
 10
58.426934240332912
 20
52.909972931217851
 30
0.0
  0
VERTEX
  5
F23
  8
SAPA_PROFIL
  6
CONTINUOUS
 10
51.626934240332837
 20
52.90997293121773
 30
0.0
 42
-0.4142135623730951
  0
VERTEX
  5
F24
  8
SAPA_PROFIL
  6
CONTINUOUS
 10
51.326934240332889
 20
53.209972931217813
 30
0.0
  0
VERTEX
  5
F25
  8
SAPA_PROFIL
  6
CONTINUOUS
 10
51.326934240332889
 20
56.609972931217783
 30
0.0
 42
0.4142135623730951
  0
VERTEX
  5
F26
  8
SAPA_PROFIL
  6
CONTINUOUS
 10
51.026934240332821
 20
56.909972931217737
 30
0.0
  0
VERTEX
  5
F27
  8
SAPA_PROFIL
  6
CONTINUOUS
 10
49.426934240332912
 20
56.909972931217737
 30
0.0
 42
0.4142135623730951
  0
VERTEX
  5
F28
  8
SAPA_PROFIL
  6
CONTINUOUS
 10
49.126934240332957
 20
56.609972931217783
 30
0.0
  0
VERTEX
  5
F29
  8
SAPA_PROFIL
  6
CONTINUOUS
 10
49.126934240332837
 20
52.00997293121776
 30
0.0
 42
-0.4142135623730951
  0
VERTEX
  5
F2A
  8
SAPA_PROFIL
  6
CONTINUOUS
 10
48.826934240332889
 20
51.709972931217798
 30
0.0
  0
VERTEX
  5
F2B
  8
SAPA_PROFIL
  6
CONTINUOUS
 10
14.62693424033284
 20
51.709972931217798
 30
0.0
 42
-0.4142135623730951
  0
VERTEX
  5
F2C
  8
SAPA_PROFIL
  6
CONTINUOUS
 10
14.326934240332889
 20
52.00997293121776
 30
0.0
  0
VERTEX
  5
F2D
  8
SAPA_PROFIL
  6
CONTINUOUS
 10
14.326934240332889
 20
56.609972931217783
 30
0.0
 42
0.4142135623730951
  0
VERTEX
  5
F2E
  8
SAPA_PROFIL
  6
CONTINUOUS
 10
14.026934240332929
 20
56.909972931217737
 30
0.0
  0
VERTEX
  5
F2F
  8
SAPA_PROFIL
  6
CONTINUOUS
 10
12.42693424033291
 20
56.909972931217737
 30
0.0
 42
0.4142135623730951
  0
VERTEX
  5
F30
  8
SAPA_PROFIL
  6
CONTINUOUS
 10
12.126934240332959
 20
56.609972931217783
 30
0.0
  0
VERTEX
  5
F31
  8
SAPA_PROFIL
  6
CONTINUOUS
 10
12.12693424033284
 20
53.209972931217813
 30
0.0
 42
-0.4142135623730951
  0
VERTEX
  5
F32
  8
SAPA_PROFIL
  6
CONTINUOUS
 10
11.826934240332889
 20
52.909972931217851
 30
0.0
  0
SEQEND
  5
F33
  8
SAPA_PROFIL
  6
CONTINUOUS
  0
POLYLINE
  5
A5C
  8
SAPA_PROFIL
  6
CONTINUOUS
 66
     1
 10
0.0
 20
0.0
 30
0.0
 70
     1
  0
VERTEX
  5
F34
  8
SAPA_PROFIL
  6
CONTINUOUS
 10
9.5269342403327073
 20
41.40997293121773
 30
0.0
 42
0.4142135623730951
  0
VERTEX
  5
F35
  8
SAPA_PROFIL
  6
CONTINUOUS
 10
9.2269342403327528
 20
41.709972931217798
 30
0.0
  0
VERTEX
  5
F36
  8
SAPA_PROFIL
  6
CONTINUOUS
 10
8.7769342403327073
 20
41.709972931217919
 30
0.0
 42
-0.4142135623730951
  0
VERTEX
  5
F37
  8
SAPA_PROFIL
  6
CONTINUOUS
 10
8.4769342403327528
 20
42.009972931217867
 30
0.0
  0
VERTEX
  5
F38
  8
SAPA_PROFIL
  6
CONTINUOUS
 10
8.4769342403327528
 20
42.709972931217692
 30
0.0
 42
-0.4142135623731506
  0
VERTEX
  5
F39
  8
SAPA_PROFIL
  6
CONTINUOUS
 10
8.7769342403327073
 20
43.00997293121776
 30
0.0
  0
VERTEX
  5
F3A
  8
SAPA_PROFIL
  6
CONTINUOUS
 10
9.2269342403327528
 20
43.00997293121776
 30
0.0
 42
0.4142135623731506
  0
VERTEX
  5
F3B
  8
SAPA_PROFIL
  6
CONTINUOUS
 10
9.5269342403327073
 20
43.309972931217821
 30
0.0
  0
VERTEX
  5
F3C
  8
SAPA_PROFIL
  6
CONTINUOUS
 10
9.5269342403328192
 20
43.809972931217821
 30
0.0
 42
0.4142135623730951
  0
VERTEX
  5
F3D
  8
SAPA_PROFIL
  6
CONTINUOUS
 10
9.0269342403328192
 20
44.309972931217828
 30
0.0
  0
VERTEX
  5
F3E
  8
SAPA_PROFIL
  6
CONTINUOUS
 10
7.6269342403328428
 20
44.309972931217828
 30
0.0
 42
-0.4142135623730951
  0
VERTEX
  5
F3F
  8
SAPA_PROFIL
  6
CONTINUOUS
 10
6.6269342403328428
 20
45.309972931217828
 30
0.0
  0
VERTEX
  5
F40
  8
SAPA_PROFIL
  6
CONTINUOUS
 10
6.62693424033273
 20
45.709972931217798
 30
0.0
 42
-0.9999999999999998
  0
VERTEX
  5
F41
  8
SAPA_PROFIL
  6
CONTINUOUS
 10
13.82693424033277
 20
45.709972931217798
 30
0.0
  0
VERTEX
  5
F42
  8
SAPA_PROFIL
  6
CONTINUOUS
 10
13.826934240332889
 20
44.609972931217662
 30
0.0
 42
-0.4142135623732059
  0
VERTEX
  5
F43
  8
SAPA_PROFIL
  6
CONTINUOUS
 10
13.526934240332819
 20
44.309972931217601
 30
0.0
  0
VERTEX
  5
F44
  8
SAPA_PROFIL
  6
CONTINUOUS
 10
13.22693424033298
 20
44.309972931217828
 30
0.0
 42
0.4142135623733948
  0
VERTEX
  5
F45
  8
SAPA_PROFIL
  6
CONTINUOUS
 10
12.726934240332641
 20
43.809972931217821
 30
0.0
  0
VERTEX
  5
F46
  8
SAPA_PROFIL
  6
CONTINUOUS
 10
12.726934240332641
 20
43.309972931217821
 30
0.0
 42
0.4142135623730397
  0
VERTEX
  5
F47
  8
SAPA_PROFIL
  6
CONTINUOUS
 10
13.02693424033259
 20
43.009972931217867
 30
0.0
  0
VERTEX
  5
F48
  8
SAPA_PROFIL
  6
CONTINUOUS
 10
13.476934240332749
 20
43.00997293121776
 30
0.0
 42
-0.4142135623731505
  0
VERTEX
  5
F49
  8
SAPA_PROFIL
  6
CONTINUOUS
 10
13.7769342403327
 20
42.709972931217692
 30
0.0
  0
VERTEX
  5
F4A
  8
SAPA_PROFIL
  6
CONTINUOUS
 10
13.7769342403327
 20
42.009972931217867
 30
0.0
 42
-0.4142135623730951
  0
VERTEX
  5
F4B
  8
SAPA_PROFIL
  6
CONTINUOUS
 10
13.476934240332749
 20
41.709972931217798
 30
0.0
  0
VERTEX
  5
F4C
  8
SAPA_PROFIL
  6
CONTINUOUS
 10
13.026934240332711
 20
41.709972931217798
 30
0.0
 42
0.4142135623730951
  0
VERTEX
  5
F4D
  8
SAPA_PROFIL
  6
CONTINUOUS
 10
12.726934240332641
 20
41.40997293121773
 30
0.0
  0
VERTEX
  5
F4E
  8
SAPA_PROFIL
  6
CONTINUOUS
 10
12.7269342403332
 20
40.709972931217351
 30
0.0
 42
0.2504916501726643
  0
VERTEX
  5
F4F
  8
SAPA_PROFIL
  6
CONTINUOUS
 10
13.726934240332641
 20
39.709972931217813
 30
0.0
  0
VERTEX
  5
F50
  8
SAPA_PROFIL
  6
CONTINUOUS
 10
16.026934240332711
 20
39.709972931217813
 30
0.0
 42
0.4142135623730951
  0
VERTEX
  5
F51
  8
SAPA_PROFIL
  6
CONTINUOUS
 10
17.0269342403327
 20
40.709972931217798
 30
0.0
  0
VERTEX
  5
F52
  8
SAPA_PROFIL
  6
CONTINUOUS
 10
17.0269342403327
 20
48.40997293121773
 30
0.0
 42
-0.4142135623730951
  0
VERTEX
  5
F53
  8
SAPA_PROFIL
  6
CONTINUOUS
 10
17.326934240332658
 20
48.709972931217813
 30
0.0
  0
VERTEX
  5
F54
  8
SAPA_PROFIL
  6
CONTINUOUS
 10
30.860908836548901
 20
48.709972931217813
 30
0.0
  0
VERTEX
  5
F55
  8
SAPA_PROFIL
  6
CONTINUOUS
 10
31.72693424033287
 20
49.209972931217798
 30
0.0
  0
VERTEX
  5
F56
  8
SAPA_PROFIL
  6
CONTINUOUS
 10
32.592959644116831
 20
48.709972931217813
 30
0.0
  0
VERTEX
  5
F57
  8
SAPA_PROFIL
  6
CONTINUOUS
 10
46.126934240332837
 20
48.709972931217692
 30
0.0
 42
-0.4142135623730951
  0
VERTEX
  5
F58
  8
SAPA_PROFIL
  6
CONTINUOUS
 10
46.426934240333033
 20
48.40997293121773
 30
0.0
  0
VERTEX
  5
F59
  8
SAPA_PROFIL
  6
CONTINUOUS
 10
46.426934240333033
 20
40.709972931217798
 30
0.0
 42
0.4142135623730951
  0
VERTEX
  5
F5A
  8
SAPA_PROFIL
  6
CONTINUOUS
 10
47.426934240333019
 20
39.709972931217813
 30
0.0
  0
VERTEX
  5
F5B
  8
SAPA_PROFIL
  6
CONTINUOUS
 10
49.726934240333087
 20
39.709972931217813
 30
0.0
 42
0.2504916501726643
  0
VERTEX
  5
F5C
  8
SAPA_PROFIL
  6
CONTINUOUS
 10
50.726934240332533
 20
40.709972931217351
 30
0.0
  0
VERTEX
  5
F5D
  8
SAPA_PROFIL
  6
CONTINUOUS
 10
50.726934240333087
 20
41.40997293121773
 30
0.0
 42
0.4142135623730951
  0
VERTEX
  5
F5E
  8
SAPA_PROFIL
  6
CONTINUOUS
 10
50.426934240333019
 20
41.709972931217798
 30
0.0
  0
VERTEX
  5
F5F
  8
SAPA_PROFIL
  6
CONTINUOUS
 10
49.97693424033298
 20
41.709972931217798
 30
0.0
 42
-0.4142135623730951
  0
VERTEX
  5
F60
  8
SAPA_PROFIL
  6
CONTINUOUS
 10
49.676934240333033
 20
42.009972931217867
 30
0.0
  0
VERTEX
  5
F61
  8
SAPA_PROFIL
  6
CONTINUOUS
 10
49.676934240333033
 20
42.709972931217692
 30
0.0
 42
-0.4142135623731506
  0
VERTEX
  5
F62
  8
SAPA_PROFIL
  6
CONTINUOUS
 10
49.97693424033298
 20
43.00997293121776
 30
0.0
  0
VERTEX
  5
F63
  8
SAPA_PROFIL
  6
CONTINUOUS
 10
50.426934240333139
 20
43.009972931217867
 30
0.0
 42
0.4142135623730397
  0
VERTEX
  5
F64
  8
SAPA_PROFIL
  6
CONTINUOUS
 10
50.726934240333087
 20
43.309972931217821
 30
0.0
  0
VERTEX
  5
F65
  8
SAPA_PROFIL
  6
CONTINUOUS
 10
50.726934240333087
 20
43.809972931217821
 30
0.0
 42
0.4142135623733948
  0
VERTEX
  5
F66
  8
SAPA_PROFIL
  6
CONTINUOUS
 10
50.226934240332753
 20
44.309972931217828
 30
0.0
  0
VERTEX
  5
F67
  8
SAPA_PROFIL
  6
CONTINUOUS
 10
49.926934240332912
 20
44.309972931217601
 30
0.0
 42
-0.4142135623732059
  0
VERTEX
  5
F68
  8
SAPA_PROFIL
  6
CONTINUOUS
 10
49.626934240332837
 20
44.609972931217662
 30
0.0
  0
VERTEX
  5
F69
  8
SAPA_PROFIL
  6
CONTINUOUS
 10
49.626934240332957
 20
45.709972931217798
 30
0.0
 42
-0.9999999999999998
  0
VERTEX
  5
F6A
  8
SAPA_PROFIL
  6
CONTINUOUS
 10
56.826934240333003
 20
45.709972931217798
 30
0.0
  0
VERTEX
  5
F6B
  8
SAPA_PROFIL
  6
CONTINUOUS
 10
56.826934240332882
 20
45.309972931217828
 30
0.0
 42
-0.4142135623730951
  0
VERTEX
  5
F6C
  8
SAPA_PROFIL
  6
CONTINUOUS
 10
55.826934240332889
 20
44.309972931217828
 30
0.0
  0
VERTEX
  5
F6D
  8
SAPA_PROFIL
  6
CONTINUOUS
 10
54.426934240332912
 20
44.309972931217828
 30
0.0
 42
0.4142135623730951
  0
VERTEX
  5
F6E
  8
SAPA_PROFIL
  6
CONTINUOUS
 10
53.926934240332912
 20
43.809972931217821
 30
0.0
  0
VERTEX
  5
F6F
  8
SAPA_PROFIL
  6
CONTINUOUS
 10
53.926934240333033
 20
43.309972931217821
 30
0.0
 42
0.4142135623731506
  0
VERTEX
  5
F70
  8
SAPA_PROFIL
  6
CONTINUOUS
 10
54.22693424033298
 20
43.00997293121776
 30
0.0
  0
VERTEX
  5
F71
  8
SAPA_PROFIL
  6
CONTINUOUS
 10
54.676934240333033
 20
43.00997293121776
 30
0.0
 42
-0.4142135623731505
  0
VERTEX
  5
F72
  8
SAPA_PROFIL
  6
CONTINUOUS
 10
54.97693424033298
 20
42.709972931217692
 30
0.0
  0
VERTEX
  5
F73
  8
SAPA_PROFIL
  6
CONTINUOUS
 10
54.97693424033298
 20
42.009972931217867
 30
0.0
 42
-0.4142135623730951
  0
VERTEX
  5
F74
  8
SAPA_PROFIL
  6
CONTINUOUS
 10
54.676934240333033
 20
41.709972931217919
 30
0.0
  0
VERTEX
  5
F75
  8
SAPA_PROFIL
  6
CONTINUOUS
 10
54.22693424033298
 20
41.709972931217798
 30
0.0
 42
0.4142135623730951
  0
VERTEX
  5
F76
  8
SAPA_PROFIL
  6
CONTINUOUS
 10
53.926934240333033
 20
41.40997293121773
 30
0.0
  0
VERTEX
  5
F77
  8
SAPA_PROFIL
  6
CONTINUOUS
 10
53.926934240333033
 20
40.709972931217798
 30
0.0
 42
0.2504916501726753
  0
VERTEX
  5
F78
  8
SAPA_PROFIL
  6
CONTINUOUS
 10
54.926934240333253
 20
39.709972931217351
 30
0.0
  0
VERTEX
  5
F79
  8
SAPA_PROFIL
  6
CONTINUOUS
 10
57.31272067795998
 20
39.709972931217813
 30
0.0
 42
0.1989123673796728
  0
VERTEX
  5
F7A
  8
SAPA_PROFIL
  6
CONTINUOUS
 10
58.019827459146541
 20
40.002866150031252
 30
0.0
  0
VERTEX
  5
F7B
  8
SAPA_PROFIL
  6
CONTINUOUS
 10
60.848254583892071
 20
42.831293274777693
 30
0.0
 42
0.1989123673796725
  0
VERTEX
  5
F7C
  8
SAPA_PROFIL
  6
CONTINUOUS
 10
61.726934240332866
 20
44.952613618336777
 30
0.0
  0
VERTEX
  5
F7D
  8
SAPA_PROFIL
  6
CONTINUOUS
 10
61.726934240332866
 20
90.467332244098813
 30
0.0
 42
0.1989123673796575
  0
VERTEX
  5
F7E
  8
SAPA_PROFIL
  6
CONTINUOUS
 10
60.84825458389286
 20
92.588652587657805
 30
0.0
  0
VERTEX
  5
F7F
  8
SAPA_PROFIL
  6
CONTINUOUS
 10
58.01982745914642
 20
95.417079712404359
 30
0.0
 42
0.198912367379658
  0
VERTEX
  5
F80
  8
SAPA_PROFIL
  6
CONTINUOUS
 10
57.312720677959881
 20
95.709972931217806
 30
0.0
  0
VERTEX
  5
F81
  8
SAPA_PROFIL
  6
CONTINUOUS
 10
54.226934240332866
 20
95.709972931217806
 30
0.0
  0
VERTEX
  5
F82
  8
SAPA_PROFIL
  6
CONTINUOUS
 10
53.226934240332859
 20
94.709972931217806
 30
0.0
  0
VERTEX
  5
F83
  8
SAPA_PROFIL
  6
CONTINUOUS
 10
53.226934240332859
 20
93.709972931217806
 30
0.0
  0
VERTEX
  5
F84
  8
SAPA_PROFIL
  6
CONTINUOUS
 10
55.276934240332821
 20
93.709972931217692
 30
0.0
 42
-0.4142135623730951
  0
VERTEX
  5
F85
  8
SAPA_PROFIL
  6
CONTINUOUS
 10
55.576934240332882
 20
93.409972931217723
 30
0.0
  0
VERTEX
  5
F86
  8
SAPA_PROFIL
  6
CONTINUOUS
 10
55.576934240332783
 20
90.959972931217806
 30
0.0
 42
-0.4142135623730951
  0
VERTEX
  5
F87
  8
SAPA_PROFIL
  6
CONTINUOUS
 10
55.276934240332821
 20
90.659972931217723
 30
0.0
  0
VERTEX
  5
F88
  8
SAPA_PROFIL
  6
CONTINUOUS
 10
37.176934240332912
 20
90.659972931217851
 30
0.0
 42
-0.414213562373095
  0
VERTEX
  5
F89
  8
SAPA_PROFIL
  6
CONTINUOUS
 10
36.876934240332837
 20
90.959972931217806
 30
0.0
  0
VERTEX
  5
F8A
  8
SAPA_PROFIL
  6
CONTINUOUS
 10
36.876934240332957
 20
93.409972931217723
 30
0.0
 42
-0.4142135623730951
  0
VERTEX
  5
F8B
  8
SAPA_PROFIL
  6
CONTINUOUS
 10
37.176934240332912
 20
93.709972931217806
 30
0.0
  0
VERTEX
  5
F8C
  8
SAPA_PROFIL
  6
CONTINUOUS
 10
38.926934240332912
 20
93.709972931217806
 30
0.0
 42
0.4142135623730951
  0
VERTEX
  5
F8D
  8
SAPA_PROFIL
  6
CONTINUOUS
 10
39.226934240332866
 20
94.00997293121776
 30
0.0
  0
VERTEX
  5
F8E
  8
SAPA_PROFIL
  6
CONTINUOUS
 10
39.226934240332866
 20
94.709972931217806
 30
0.0
  0
VERTEX
  5
F8F
  8
SAPA_PROFIL
  6
CONTINUOUS
 10
38.226934240332866
 20
95.709972931217806
 30
0.0
  0
VERTEX
  5
F90
  8
SAPA_PROFIL
  6
CONTINUOUS
 10
32.592959644116831
 20
95.709972931217806
 30
0.0
  0
VERTEX
  5
F91
  8
SAPA_PROFIL
  6
CONTINUOUS
 10
31.72693424033287
 20
95.209972931217806
 30
0.0
  0
VERTEX
  5
F92
  8
SAPA_PROFIL
  6
CONTINUOUS
 10
30.860908836548901
 20
95.709972931217806
 30
0.0
  0
VERTEX
  5
F93
  8
SAPA_PROFIL
  6
CONTINUOUS
 10
11.726934240332859
 20
95.709972931217806
 30
0.0
 42
-0.4142135623730951
  0
VERTEX
  5
F94
  8
SAPA_PROFIL
  6
CONTINUOUS
 10
10.726934240332859
 20
96.709972931217806
 30
0.0
  0
VERTEX
  5
F95
  8
SAPA_PROFIL
  6
CONTINUOUS
 10
10.726934240332859
 20
106.20997293121781
 30
0.0
 42
0.4142135623730951
  0
VERTEX
  5
F96
  8
SAPA_PROFIL
  6
CONTINUOUS
 10
11.726934240332859
 20
107.20997293121781
 30
0.0
  0
VERTEX
  5
F97
  8
SAPA_PROFIL
  6
CONTINUOUS
 10
11.726934240332859
 20
107.7775173991827
 30
0.0
 42
0.2896898633030159
  0
VERTEX
  5
F98
  8
SAPA_PROFIL
  6
CONTINUOUS
 10
11.15550566890351
 20
108.6810253020883
 30
0.0
 42
0.5507604245859661
  0
VERTEX
  5
F99
  8
SAPA_PROFIL
  6
CONTINUOUS
 10
10.726934240334909
 20
108.40997293121769
 30
0.0
  0
VERTEX
  5
F9A
  8
SAPA_PROFIL
  6
CONTINUOUS
 10
10.726934240332859
 20
107.7599729312177
 30
0.0
 42
-0.4142135623730951
  0
VERTEX
  5
F9B
  8
SAPA_PROFIL
  6
CONTINUOUS
 10
10.42693424033291
 20
107.45997293121781
 30
0.0
  0
VERTEX
  5
F9C
  8
SAPA_PROFIL
  6
CONTINUOUS
 10
9.2269342403328665
 20
107.45997293121781
 30
0.0
 42
-0.4142135623730951
  0
VERTEX
  5
F9D
  8
SAPA_PROFIL
  6
CONTINUOUS
 10
8.7269342403328665
 20
107.95997293121781
 30
0.0
  0
VERTEX
  5
F9E
  8
SAPA_PROFIL
  6
CONTINUOUS
 10
8.7269342403328665
 20
115.95997293121781
 30
0.0
 42
-0.4142135623730951
  0
VERTEX
  5
F9F
  8
SAPA_PROFIL
  6
CONTINUOUS
 10
9.2269342403328665
 20
116.45997293121781
 30
0.0
  0
VERTEX
  5
FA0
  8
SAPA_PROFIL
  6
CONTINUOUS
 10
10.42693424033291
 20
116.45997293121781
 30
0.0
 42
-0.4142135623730951
  0
VERTEX
  5
FA1
  8
SAPA_PROFIL
  6
CONTINUOUS
 10
10.726934240332859
 20
116.15997293121769
 30
0.0
  0
VERTEX
  5
FA2
  8
SAPA_PROFIL
  6
CONTINUOUS
 10
10.726934240332859
 20
115.5099729312177
 30
0.0
 42
0.5507604245859089
  0
VERTEX
  5
FA3
  8
SAPA_PROFIL
  6
CONTINUOUS
 10
11.15550566890408
 20
115.2389205603461
 30
0.0
 42
0.2896898633030179
  0
VERTEX
  5
FA4
  8
SAPA_PROFIL
  6
CONTINUOUS
 10
11.72693424033184
 20
116.1424284632528
 30
0.0
  0
VERTEX
  5
FA5
  8
SAPA_PROFIL
  6
CONTINUOUS
 10
11.726934240332859
 20
117.40997293121769
 30
0.0
 42
0.4142135623730951
  0
VERTEX
  5
FA6
  8
SAPA_PROFIL
  6
CONTINUOUS
 10
11.42693424033291
 20
117.70997293121771
 30
0.0
  0
VERTEX
  5
FA7
  8
SAPA_PROFIL
  6
CONTINUOUS
 10
7.2269342403328656
 20
117.70997293121781
 30
0.0
 42
0.4142135623730951
  0
VERTEX
  5
FA8
  8
SAPA_PROFIL
  6
CONTINUOUS
 10
6.2269342403328656
 20
116.70997293121781
 30
0.0
  0
VERTEX
  5
FA9
  8
SAPA_PROFIL
  6
CONTINUOUS
 10
6.2269342403328656
 20
97.452613618336784
 30
0.0
 42
-0.1989123673796595
  0
VERTEX
  5
FAA
  8
SAPA_PROFIL
  6
CONTINUOUS
 10
5.3482545838925262
 20
95.331293274777124
 30
0.0
  0
VERTEX
  5
FAB
  8
SAPA_PROFIL
  6
CONTINUOUS
 10
2.6056138967728648
 20
92.588652587657805
 30
0.0
 42
0.1989123673796574
  0
VERTEX
  5
FAC
  8
SAPA_PROFIL
  6
CONTINUOUS
 10
1.726934240332866
 20
90.467332244098813
 30
0.0
  0
VERTEX
  5
FAD
  8
SAPA_PROFIL
  6
CONTINUOUS
 10
1.726934240332866
 20
44.952613618336777
 30
0.0
 42
0.1989123673796727
  0
VERTEX
  5
FAE
  8
SAPA_PROFIL
  6
CONTINUOUS
 10
2.6056138967736611
 20
42.831293274777693
 30
0.0
  0
VERTEX
  5
FAF
  8
SAPA_PROFIL
  6
CONTINUOUS
 10
5.4340410215191923
 20
40.002866150031252
 30
0.0
 42
0.1989123673796728
  0
VERTEX
  5
FB0
  8
SAPA_PROFIL
  6
CONTINUOUS
 10
6.1411478027057447
 20
39.709972931217813
 30
0.0
  0
VERTEX
  5
FB1
  8
SAPA_PROFIL
  6
CONTINUOUS
 10
8.5269342403324782
 20
39.709972931217351
 30
0.0
 42
0.2504916501726754
  0
VERTEX
  5
FB2
  8
SAPA_PROFIL
  6
CONTINUOUS
 10
9.5269342403327073
 20
40.709972931217798
 30
0.0
  0
SEQEND
  5
FB3
  8
SAPA_PROFIL
  6
CONTINUOUS
  0
POLYLINE
  5
A5D
  8
SAPA_PROFIL
 66
     1
 10
0.0
 20
0.0
 30
0.0
  0
VERTEX
  5
FB4
  8
SAPA_PROFIL
 10
40.905379059699413
 20
98.588709852769796
 30
0.0
  0
VERTEX
  5
FB5
  8
SAPA_PROFIL
 10
40.224339125841112
 20
115.70997293122009
 30
0.0
 42
-0.4142135623730951
  0
VERTEX
  5
FB6
  8
SAPA_PROFIL
 10
40.724339125841112
 20
116.20997293122009
 30
0.0
  0
VERTEX
  5
FB7
  8
SAPA_PROFIL
 10
52.523952608849839
 20
116.20997293122009
 30
0.0
 42
-0.4076767287637263
  0
VERTEX
  5
FB8
  8
SAPA_PROFIL
 10
55.523202441239391
 20
113.2770765804031
 30
0.0
  0
VERTEX
  5
FB9
  8
SAPA_PROFIL
 10
55.677641663350187
 20
98.588709852769796
 30
0.0
 42
-0.4182129759575463
  0
VERTEX
  5
FBA
  8
SAPA_PROFIL
 10
55.18212994249302
 20
98.077548740714292
 30
0.0
  0
VERTEX
  5
FBB
  8
SAPA_PROFIL
 10
52.707482186373653
 20
98.064721139188563
 30
0.0
  0
VERTEX
  5
FBC
  8
SAPA_PROFIL
 10
51.08142423018009
 20
96.41003254156476
 30
0.0
  0
VERTEX
  5
FBD
  8
SAPA_PROFIL
 10
51.08142423018009
 20
91.860956507276555
 30
0.0
 42
0.4293387945586749
  0
VERTEX
  5
FBE
  8
SAPA_PROFIL
 10
51.399535366169431
 20
91.564229986192061
 30
0.0
  0
VERTEX
  5
FBF
  8
SAPA_PROFIL
 10
52.480991091439897
 20
91.636869662319782
 30
0.0
 42
0.4883397947196161
  0
VERTEX
  5
FC0
  8
SAPA_PROFIL
 10
52.260368157241679
 20
93.198591488328134
 30
0.0
  0
VERTEX
  5
FC1
  8
SAPA_PROFIL
 10
52.260368157241679
 20
95.897672764362525
 30
0.0
  0
VERTEX
  5
FC2
  8
SAPA_PROFIL
 10
53.214991377439553
 20
96.869104410738657
 30
0.0
  0
VERTEX
  5
FC3
  8
SAPA_PROFIL
 10
55.714117520324642
 20
96.869104410738657
 30
0.0
  0
VERTEX
  5
FC4
  8
SAPA_PROFIL
 10
55.714117520324642
 20
96.395328744223775
 30
0.0
  0
VERTEX
  5
FC5
  8
SAPA_PROFIL
 10
57.226934240332866
 20
96.395328744223775
 30
0.0
  0
VERTEX
  5
FC6
  8
SAPA_PROFIL
 10
57.22693424033298
 20
117.4126136379122
 30
0.0
 42
0.4116378201539302
  0
VERTEX
  5
FC7
  8
SAPA_PROFIL
 10
56.926945762662619
 20
117.70997293121999
 30
0.0
  0
VERTEX
  5
FC8
  8
SAPA_PROFIL
 10
28.524339125841131
 20
117.70997293122009
 30
0.0
 42
0.414213562373095
  0
VERTEX
  5
FC9
  8
SAPA_PROFIL
 10
28.224339125841059
 20
117.4099729312201
 30
0.0
  0
VERTEX
  5
FCA
  8
SAPA_PROFIL
 10
28.224339125841109
 20
116.1999729312201
 30
0.0
 42
0.4142135623731037
  0
VERTEX
  5
FCB
  8
SAPA_PROFIL
 10
29.214339125841061
 20
115.20997293122009
 30
0.0
  0
VERTEX
  5
FCC
  8
SAPA_PROFIL
 10
29.224339125841109
 20
115.20997293122009
 30
0.0
  0
VERTEX
  5
FCD
  8
SAPA_PROFIL
 10
29.224339125841109
 20
116.45997293122009
 30
0.0
  0
VERTEX
  5
FCE
  8
SAPA_PROFIL
 10
30.724339125841119
 20
116.45997293122009
 30
0.0
 42
-0.4142135623730951
  0
VERTEX
  5
FCF
  8
SAPA_PROFIL
 10
31.224339125841109
 20
115.95997293122009
 30
0.0
  0
VERTEX
  5
FD0
  8
SAPA_PROFIL
 10
31.224339125841109
 20
107.95997293122009
 30
0.0
 42
-0.4142135623730951
  0
VERTEX
  5
FD1
  8
SAPA_PROFIL
 10
30.724339125841119
 20
107.45997293122009
 30
0.0
  0
VERTEX
  5
FD2
  8
SAPA_PROFIL
 10
29.224339125841109
 20
107.45997293122009
 30
0.0
  0
VERTEX
  5
FD3
  8
SAPA_PROFIL
 10
29.224339125841109
 20
108.70997293122009
 30
0.0
  0
VERTEX
  5
FD4
  8
SAPA_PROFIL
 10
29.214339125841061
 20
108.70997293122009
 30
0.0
 42
0.414213562373095
  0
VERTEX
  5
FD5
  8
SAPA_PROFIL
 10
28.224339125841059
 20
107.7199729312201
 30
0.0
  0
VERTEX
  5
FD6
  8
SAPA_PROFIL
 10
28.224339125841109
 20
107.20997293122009
 30
0.0
 42
0.4142135623730953
  0
VERTEX
  5
FD7
  8
SAPA_PROFIL
 10
29.224339125841109
 20
106.20997293122009
 30
0.0
  0
VERTEX
  5
FD8
  8
SAPA_PROFIL
 10
30.724339125841119
 20
106.20997293122009
 30
0.0
 42
0.4142135623730951
  0
VERTEX
  5
FD9
  8
SAPA_PROFIL
 10
32.424339125841101
 20
107.9099729312201
 30
0.0
  0
VERTEX
  5
FDA
  8
SAPA_PROFIL
 10
32.424339125841158
 20
115.70997293122009
 30
0.0
 42
-0.414213562373095
  0
VERTEX
  5
FDB
  8
SAPA_PROFIL
 10
32.924339125841158
 20
116.20997293122009
 30
0.0
  0
VERTEX
  5
FDC
  8
SAPA_PROFIL
 10
38.424339125841158
 20
116.20997293122009
 30
0.0
 42
-0.4142135623730951
  0
VERTEX
  5
FDD
  8
SAPA_PROFIL
 10
38.924339125841158
 20
115.70997293122009
 30
0.0
  0
VERTEX
  5
FDE
  8
SAPA_PROFIL
 10
39.595548772307467
 20
98.588709852769796
 30
0.0
  0
VERTEX
  5
FDF
  8
SAPA_PROFIL
 10
40.252487223036809
 20
93.185763089020085
 30
0.0
 42
-0.4666505291506209
  0
VERTEX
  5
FE0
  8
SAPA_PROFIL
 10
39.990655691992259
 20
92.905961523101325
 30
0.0
  0
VERTEX
  5
FE1
  8
SAPA_PROFIL
 10
39.267999598433313
 20
92.945504417019663
 30
0.0
 42
0.7332303362618522
  0
VERTEX
  5
FE2
  8
SAPA_PROFIL
 10
39.067825009863128
 20
92.409428394367353
 30
0.0
  0
VERTEX
  5
FE3
  8
SAPA_PROFIL
 10
41.177932349400827
 20
91.638518276862953
 30
0.0
 42
0.668178637919333
  0
VERTEX
  5
FE4
  8
SAPA_PROFIL
 10
41.660280201491638
 20
91.911684472057246
 30
0.0
  0
VERTEX
  5
FE5
  8
SAPA_PROFIL
 10
40.905379059699413
 20
98.588709852769796
 30
0.0
  0
VERTEX
  5
FE6
  8
SAPA_PROFIL
 10
40.914912511862518
 20
98.588709852769796
 30
0.0
  0
SEQEND
  5
FE7
  8
SAPA_PROFIL
  0
POLYLINE
  5
A6B
  8
SAPA_GLAS
 66
     1
 10
0.0
 20
0.0
 30
0.0
 70
     1
  0
VERTEX
  5
1005
  8
SAPA_GLAS
 10
24.096744014072321
 20
95.714256134061017
 30
0.0
  0
VERTEX
  5
1006
  8
SAPA_GLAS
 10
37.196744014072337
 20
95.714256134060975
 30
0.0
  0
VERTEX
  5
1007
  8
SAPA_GLAS
 10
37.196744014072337
 20
96.714256134061003
 30
0.0
  0
VERTEX
  5
1008
  8
SAPA_GLAS
 10
25.096744014072311
 20
96.714256134061017
 30
0.0
  0
VERTEX
  5
1009
  8
SAPA_GLAS
 10
25.096744014072311
 20
108.714256134061
 30
0.0
  0
VERTEX
  5
100A
  8
SAPA_GLAS
 10
24.096744014072321
 20
108.714256134061
 30
0.0
  0
SEQEND
  5
100B
  8
SAPA_GLAS
  0
LINE
  5
A6C
  8
SAPA_GLAS
 62
     1
 10
22.496744014072309
 20
111.2634092868777
 30
0.0
 11
22.496744014072291
 21
100.5142579328792
 31
0.0
  0
LINE
  5
A6D
  8
SAPA_GLAS
 62
     1
 10
15.891326767944159
 20
100.5142579328792
 30
0.0
 11
15.891326767944181
 21
111.20546280157799
 31
0.0
  0
POLYLINE
  5
A6E
  8
SAPA_GLAS
 62
     6
 66
     1
 10
0.0
 20
0.0
 30
0.0
 70
     1
  0
VERTEX
  5
100C
  8
SAPA_GLAS
 62
     6
 10
22.496744014072291
 20
96.709972934865775
 30
0.0
  0
VERTEX
  5
100D
  8
SAPA_GLAS
 62
     6
 10
22.496744014072291
 20
108.7099729348657
 30
0.0
  0
VERTEX
  5
100E
  8
SAPA_GLAS
 62
     6
 10
24.096744014072321
 20
108.7099729348657
 30
0.0
  0
VERTEX
  5
100F
  8
SAPA_GLAS
 62
     6
 10
24.096744014072321
 20
96.709972934865775
 30
0.0
  0
SEQEND
  5
1010
  8
SAPA_GLAS
 62
     6
  0
POLYLINE
  5
A6F
  8
SAPA_GLAS
 62
     6
 66
     1
 10
0.0
 20
0.0
 30
0.0
 70
     1
  0
VERTEX
  5
1011
  8
SAPA_GLAS
 62
     6
 10
14.311983499190299
 20
96.709972934865775
 30
0.0
  0
VERTEX
  5
1012
  8
SAPA_GLAS
 62
     6
 10
14.311983499190299
 20
108.7099729348657
 30
0.0
  0
VERTEX
  5
1013
  8
SAPA_GLAS
 62
     6
 10
15.91198349919032
 20
108.7099729348657
 30
0.0
  0
VERTEX
  5
1014
  8
SAPA_GLAS
 62
     6
 10
15.91198349919032
 20
96.709972934865775
 30
0.0
  0
SEQEND
  5
1015
  8
SAPA_GLAS
 62
     6
  0
POLYLINE
  5
A70
  8
SAPA_GLAS
 66
     1
 10
0.0
 20
0.0
 30
0.0
 70
     1
  0
VERTEX
  5
1016
  8
SAPA_GLAS
 10
14.311983499190299
 20
96.709972934865775
 30
0.0
  0
VERTEX
  5
1017
  8
SAPA_GLAS
 10
37.711738386551922
 20
96.709972934865746
 30
0.0
  0
VERTEX
  5
1018
  8
SAPA_GLAS
 10
37.711738386551922
 20
95.709972934865746
 30
0.0
  0
VERTEX
  5
1019
  8
SAPA_GLAS
 10
13.311983499190299
 20
95.709972934865775
 30
0.0
  0
VERTEX
  5
101A
  8
SAPA_GLAS
 10
13.311983499190299
 20
108.7099729348657
 30
0.0
  0
VERTEX
  5
101B
  8
SAPA_GLAS
 10
14.311983499190299
 20
108.7099729348655
 30
0.0
  0
SEQEND
  5
101C
  8
SAPA_GLAS
  0
LINE
  5
A71
  8
SAPA_GLAS
 62
     1
 10
22.376744014072401
 20
100.71425793287921
 30
0.0
 11
15.891326767944159
 21
100.71425793287921
 31
0.0
  0
POLYLINE
  5
A72
  8
SAPA_GLAS
 66
     1
 10
0.0
 20
0.0
 30
0.0
  0
VERTEX
  5
101D
  8
SAPA_GLAS
 10
22.194214175252579
 20
133.4265138387583
 30
0.0
  0
VERTEX
  5
101E
  8
SAPA_GLAS
 10
22.194214175252551
 20
100.92023273486539
 30
0.0
  0
VERTEX
  5
101F
  8
SAPA_GLAS
 10
16.194214175252551
 20
100.92023273486539
 30
0.0
  0
VERTEX
  5
1020
  8
SAPA_GLAS
 10
16.194214175252569
 20
133.4265138387583
 30
0.0
  0
SEQEND
  5
1021
  8
SAPA_GLAS
  0
LINE
  5
A73
  8
SAPA_GLAS
  6
BYGG-022629$0$DASHDOT
 62
     2
 10
32.19885666095108
 20
90.406866119229946
 30
0.0
 11
32.19885666095108
 21
101.7916278972457
 31
0.0
  0
POLYLINE
  5
A80
  8
SAPA_FOGBAND
 66
     1
 10
0.0
 20
0.0
 30
0.0
 70
     1
  0
VERTEX
  5
109A
  8
SAPA_FOGBAND
 10
10.72706054028342
 20
25.087448768483181
 30
0.0
  0
VERTEX
  5
109B
  8
SAPA_FOGBAND
 10
10.56979922951709
 20
31.34396294911085
 30
0.0
 42
-0.1593733635673558
  0
VERTEX
  5
109C
  8
SAPA_FOGBAND
 10
10.605468799805379
 20
31.463077312714411
 30
0.0
 42
0.5327880064124698
  0
VERTEX
  5
109D
  8
SAPA_FOGBAND
 10
10.36411372751215
 20
32.081639058976187
 30
0.0
 42
-0.6764759177002223
  0
VERTEX
  5
109E
  8
SAPA_FOGBAND
 10
9.3189733822895064
 20
38.494377803299201
 30
0.0
  0
VERTEX
  5
109F
  8
SAPA_FOGBAND
 10
8.0746407946840932
 20
38.603242798370573
 30
0.0
 42
-0.3888787318529909
  0
VERTEX
  5
10A0
  8
SAPA_FOGBAND
 10
7.5269342403326851
 20
39.200959617225593
 30
0.0
  0
VERTEX
  5
10A1
  8
SAPA_FOGBAND
 10
7.5269342403326851
 20
39.497499838519232
 30
0.0
 42
-0.4142135623730951
  0
VERTEX
  5
10A2
  8
SAPA_FOGBAND
 10
7.7269342403327306
 20
39.697499838519207
 30
0.0
  0
VERTEX
  5
10A3
  8
SAPA_FOGBAND
 10
9.1269342403327087
 20
39.697499838519207
 30
0.0
 42
0.4142135623730951
  0
VERTEX
  5
10A4
  8
SAPA_FOGBAND
 10
9.6269342403327087
 20
40.197499838519207
 30
0.0
  0
VERTEX
  5
10A5
  8
SAPA_FOGBAND
 10
9.6269342403328224
 20
41.54403444092339
 30
0.0
 42
0.3394542588633722
  0
VERTEX
  5
10A6
  8
SAPA_FOGBAND
 10
9.4786980493532624
 20
41.73721960618122
 30
0.0
  0
VERTEX
  5
10A7
  8
SAPA_FOGBAND
 10
9.1751704313122442
 20
41.818549586315847
 30
0.0
 42
-0.4663076581549915
  0
VERTEX
  5
10A8
  8
SAPA_FOGBAND
 10
9.0456726829254208
 20
42.096258403921809
 30
0.0
  0
VERTEX
  5
10A9
  8
SAPA_FOGBAND
 10
9.5081957977400648
 20
43.088142424537473
 30
0.0
 42
0.1095178116832386
  0
VERTEX
  5
10AA
  8
SAPA_FOGBAND
 10
9.5269342403326842
 20
43.172666076885612
 30
0.0
  0
VERTEX
  5
10AB
  8
SAPA_FOGBAND
 10
9.5269342403326842
 20
44.2743569782075
 30
0.0
 42
0.3394542588634028
  0
VERTEX
  5
10AC
  8
SAPA_FOGBAND
 10
9.4528161448430197
 20
44.370949560836443
 30
0.0
  0
VERTEX
  5
10AD
  8
SAPA_FOGBAND
 10
9.2751704313122687
 20
44.418549586315812
 30
0.0
 42
-0.4663076581549915
  0
VERTEX
  5
10AE
  8
SAPA_FOGBAND
 10
9.1456726829254436
 20
44.696258403921782
 30
0.0
  0
VERTEX
  5
10AF
  8
SAPA_FOGBAND
 10
9.5081957977400648
 20
45.473691732486493
 30
0.0
 42
0.1095178116832386
  0
VERTEX
  5
10B0
  8
SAPA_FOGBAND
 10
9.5269342403326842
 20
45.558215384834632
 30
0.0
  0
VERTEX
  5
10B1
  8
SAPA_FOGBAND
 10
9.5269342403326842
 20
45.833733296402222
 30
0.0
 42
-0.0874886635259268
  0
VERTEX
  5
10B2
  8
SAPA_FOGBAND
 10
9.6475489987609322
 20
46.517773583053561
 30
0.0
  0
VERTEX
  5
10B3
  8
SAPA_FOGBAND
 10
9.9571916990446212
 20
47.36850991018207
 30
0.0
 42
-0.3152987888789804
  0
VERTEX
  5
10B4
  8
SAPA_FOGBAND
 10
10.427038009437609
 20
47.697499838519207
 30
0.0
  0
VERTEX
  5
10B5
  8
SAPA_FOGBAND
 10
11.826830471227909
 20
47.697499838519207
 30
0.0
 42
-0.3152987888789804
  0
VERTEX
  5
10B6
  8
SAPA_FOGBAND
 10
12.296676781620789
 20
47.36850991018202
 30
0.0
  0
VERTEX
  5
10B7
  8
SAPA_FOGBAND
 10
12.60631948190448
 20
46.517773583053561
 30
0.0
 42
-0.0874886635259269
  0
VERTEX
  5
10B8
  8
SAPA_FOGBAND
 10
12.72693424033273
 20
45.833733296402222
 30
0.0
  0
VERTEX
  5
10B9
  8
SAPA_FOGBAND
 10
12.72693424033273
 20
45.558215384834632
 30
0.0
 42
0.1095178116832386
  0
VERTEX
  5
10BA
  8
SAPA_FOGBAND
 10
12.745672682925459
 20
45.473691732486493
 30
0.0
  0
VERTEX
  5
10BB
  8
SAPA_FOGBAND
 10
13.10819579774008
 20
44.696258403921782
 30
0.0
 42
-0.4663076581549913
  0
VERTEX
  5
10BC
  8
SAPA_FOGBAND
 10
12.978698049353261
 20
44.418549586315812
 30
0.0
  0
VERTEX
  5
10BD
  8
SAPA_FOGBAND
 10
12.80105233582251
 20
44.370949560836443
 30
0.0
 42
0.3394542588634028
  0
VERTEX
  5
10BE
  8
SAPA_FOGBAND
 10
12.72693424033273
 20
44.2743569782075
 30
0.0
  0
VERTEX
  5
10BF
  8
SAPA_FOGBAND
 10
12.72693424033273
 20
43.172666076885612
 30
0.0
 42
0.1095178116832386
  0
VERTEX
  5
10C0
  8
SAPA_FOGBAND
 10
12.745672682925459
 20
43.088142424537473
 30
0.0
  0
VERTEX
  5
10C1
  8
SAPA_FOGBAND
 10
13.20819579774011
 20
42.096258403921809
 30
0.0
 42
-0.4663076581549913
  0
VERTEX
  5
10C2
  8
SAPA_FOGBAND
 10
13.07869804935317
 20
41.818549586315847
 30
0.0
  0
VERTEX
  5
10C3
  8
SAPA_FOGBAND
 10
12.77517043131227
 20
41.73721960618122
 30
0.0
 42
0.3394542588633723
  0
VERTEX
  5
10C4
  8
SAPA_FOGBAND
 10
12.626934240332711
 20
41.54403444092339
 30
0.0
  0
VERTEX
  5
10C5
  8
SAPA_FOGBAND
 10
12.626934240332711
 20
40.197499838519207
 30
0.0
 42
0.4142135623730951
  0
VERTEX
  5
10C6
  8
SAPA_FOGBAND
 10
13.126934240332711
 20
39.697499838519207
 30
0.0
  0
VERTEX
  5
10C7
  8
SAPA_FOGBAND
 10
14.526934240332681
 20
39.697499838519207
 30
0.0
 42
-0.4142135623730951
  0
VERTEX
  5
10C8
  8
SAPA_FOGBAND
 10
14.72693424033273
 20
39.497499838519232
 30
0.0
  0
VERTEX
  5
10C9
  8
SAPA_FOGBAND
 10
14.72693424033273
 20
39.200959617225593
 30
0.0
 42
-0.3888787318529909
  0
VERTEX
  5
10CA
  8
SAPA_FOGBAND
 10
14.179227685981321
 20
38.603242798370573
 30
0.0
  0
VERTEX
  5
10CB
  8
SAPA_FOGBAND
 10
12.934895098375909
 20
38.494377803299201
 30
0.0
 42
-0.6764759177002223
  0
VERTEX
  5
10CC
  8
SAPA_FOGBAND
 10
11.889754753153261
 20
32.081639058976187
 30
0.0
 42
0.5327880064123889
  0
VERTEX
  5
10CD
  8
SAPA_FOGBAND
 10
11.648399680860029
 20
31.463077312714521
 30
0.0
 42
-0.1593733635673034
  0
VERTEX
  5
10CE
  8
SAPA_FOGBAND
 10
11.684069251148321
 20
31.34396294911102
 30
0.0
  0
VERTEX
  5
10CF
  8
SAPA_FOGBAND
 10
11.526807940381991
 20
25.087448768483181
 30
0.0
 42
-0.9751802379498954
  0
SEQEND
  5
10D0
  8
SAPA_FOGBAND
  0
CIRCLE
  5
A81
  8
SAPA_FOGBAND
 10
11.126934240332711
 20
35.497499838519232
 30
0.0
 40
2.7999999999999989
  0
POLYLINE
  5
A82
  8
SAPA_FOGBAND
 66
     1
 10
0.0
 20
0.0
 30
0.0
 70
     1
  0
VERTEX
  5
10D1
  8
SAPA_FOGBAND
 10
11.72693424033273
 20
42.397499838519202
 30
0.0
  0
VERTEX
  5
10D2
  8
SAPA_FOGBAND
 10
11.72693424033273
 20
45.997499838519218
 30
0.0
 42
0.9999999999999998
  0
VERTEX
  5
10D3
  8
SAPA_FOGBAND
 10
10.526934240332681
 20
45.997499838519218
 30
0.0
  0
VERTEX
  5
10D4
  8
SAPA_FOGBAND
 10
10.526934240332681
 20
42.397499838519202
 30
0.0
 42
0.9999999999999998
  0
SEQEND
  5
10D5
  8
SAPA_FOGBAND
  0
POLYLINE
  5
A83
  8
SAPA_FOGBAND
 66
     1
 10
0.0
 20
0.0
 30
0.0
 70
     1
  0
VERTEX
  5
10D6
  8
SAPA_FOGBAND
 10
52.726807940382287
 20
25.087448768483181
 30
0.0
  0
VERTEX
  5
10D7
  8
SAPA_FOGBAND
 10
52.884069251148617
 20
31.34396294911085
 30
0.0
 42
0.1593733635673558
  0
VERTEX
  5
10D8
  8
SAPA_FOGBAND
 10
52.848399680860318
 20
31.463077312714411
 30
0.0
 42
-0.5327880064124698
  0
VERTEX
  5
10D9
  8
SAPA_FOGBAND
 10
53.089754753153557
 20
32.081639058976187
 30
0.0
 42
0.6764759177002223
  0
VERTEX
  5
10DA
  8
SAPA_FOGBAND
 10
54.134895098376212
 20
38.494377803299201
 30
0.0
  0
VERTEX
  5
10DB
  8
SAPA_FOGBAND
 10
55.379227685981618
 20
38.603242798370573
 30
0.0
 42
0.3888787318529909
  0
VERTEX
  5
10DC
  8
SAPA_FOGBAND
 10
55.926934240333033
 20
39.200959617225593
 30
0.0
  0
VERTEX
  5
10DD
  8
SAPA_FOGBAND
 10
55.926934240333033
 20
39.497499838519232
 30
0.0
 42
0.4142135623730951
  0
VERTEX
  5
10DE
  8
SAPA_FOGBAND
 10
55.72693424033298
 20
39.697499838519207
 30
0.0
  0
VERTEX
  5
10DF
  8
SAPA_FOGBAND
 10
54.326934240333003
 20
39.697499838519207
 30
0.0
 42
-0.4142135623730951
  0
VERTEX
  5
10E0
  8
SAPA_FOGBAND
 10
53.826934240333003
 20
40.197499838519207
 30
0.0
  0
VERTEX
  5
10E1
  8
SAPA_FOGBAND
 10
53.826934240332889
 20
41.54403444092339
 30
0.0
 42
-0.3394542588633722
  0
VERTEX
  5
10E2
  8
SAPA_FOGBAND
 10
53.975170431312442
 20
41.73721960618122
 30
0.0
  0
VERTEX
  5
10E3
  8
SAPA_FOGBAND
 10
54.278698049353473
 20
41.818549586315847
 30
0.0
 42
0.4663076581549915
  0
VERTEX
  5
10E4
  8
SAPA_FOGBAND
 10
54.408195797740291
 20
42.096258403921809
 30
0.0
  0
VERTEX
  5
10E5
  8
SAPA_FOGBAND
 10
53.945672682925647
 20
43.088142424537473
 30
0.0
 42
-0.1095178116832386
  0
VERTEX
  5
10E6
  8
SAPA_FOGBAND
 10
53.926934240333033
 20
43.172666076885612
 30
0.0
  0
VERTEX
  5
10E7
  8
SAPA_FOGBAND
 10
53.926934240333033
 20
44.2743569782075
 30
0.0
 42
-0.3394542588634028
  0
VERTEX
  5
10E8
  8
SAPA_FOGBAND
 10
54.001052335822692
 20
44.370949560836443
 30
0.0
  0
VERTEX
  5
10E9
  8
SAPA_FOGBAND
 10
54.178698049353443
 20
44.418549586315812
 30
0.0
 42
0.4663076581549915
  0
VERTEX
  5
10EA
  8
SAPA_FOGBAND
 10
54.308195797740268
 20
44.696258403921782
 30
0.0
  0
VERTEX
  5
10EB
  8
SAPA_FOGBAND
 10
53.945672682925647
 20
45.473691732486493
 30
0.0
 42
-0.1095178116832386
  0
VERTEX
  5
10EC
  8
SAPA_FOGBAND
 10
53.926934240333033
 20
45.558215384834632
 30
0.0
  0
VERTEX
  5
10ED
  8
SAPA_FOGBAND
 10
53.926934240333033
 20
45.833733296402222
 30
0.0
 42
0.0874886635259268
  0
VERTEX
  5
10EE
  8
SAPA_FOGBAND
 10
53.806319481904779
 20
46.517773583053561
 30
0.0
  0
VERTEX
  5
10EF
  8
SAPA_FOGBAND
 10
53.49667678162109
 20
47.36850991018207
 30
0.0
 42
0.3152987888789804
  0
VERTEX
  5
10F0
  8
SAPA_FOGBAND
 10
53.026830471228088
 20
47.697499838519207
 30
0.0
  0
VERTEX
  5
10F1
  8
SAPA_FOGBAND
 10
51.627038009437797
 20
47.697499838519207
 30
0.0
 42
0.3152987888789804
  0
VERTEX
  5
10F2
  8
SAPA_FOGBAND
 10
51.157191699044908
 20
47.36850991018202
 30
0.0
  0
VERTEX
  5
10F3
  8
SAPA_FOGBAND
 10
50.847548998761233
 20
46.517773583053561
 30
0.0
 42
0.0874886635259269
  0
VERTEX
  5
10F4
  8
SAPA_FOGBAND
 10
50.72693424033298
 20
45.833733296402222
 30
0.0
  0
VERTEX
  5
10F5
  8
SAPA_FOGBAND
 10
50.72693424033298
 20
45.558215384834632
 30
0.0
 42
-0.1095178116832386
  0
VERTEX
  5
10F6
  8
SAPA_FOGBAND
 10
50.708195797740238
 20
45.473691732486493
 30
0.0
  0
VERTEX
  5
10F7
  8
SAPA_FOGBAND
 10
50.345672682925617
 20
44.696258403921782
 30
0.0
 42
0.4663076581549913
  0
VERTEX
  5
10F8
  8
SAPA_FOGBAND
 10
50.475170431312449
 20
44.418549586315812
 30
0.0
  0
VERTEX
  5
10F9
  8
SAPA_FOGBAND
 10
50.6528161448432
 20
44.370949560836443
 30
0.0
 42
-0.3394542588634028
  0
VERTEX
  5
10FA
  8
SAPA_FOGBAND
 10
50.72693424033298
 20
44.2743569782075
 30
0.0
  0
VERTEX
  5
10FB
  8
SAPA_FOGBAND
 10
50.72693424033298
 20
43.172666076885612
 30
0.0
 42
-0.1095178116832386
  0
VERTEX
  5
10FC
  8
SAPA_FOGBAND
 10
50.708195797740238
 20
43.088142424537473
 30
0.0
  0
VERTEX
  5
10FD
  8
SAPA_FOGBAND
 10
50.245672682925601
 20
42.096258403921809
 30
0.0
 42
0.4663076581549913
  0
VERTEX
  5
10FE
  8
SAPA_FOGBAND
 10
50.37517043131254
 20
41.818549586315847
 30
0.0
  0
VERTEX
  5
10FF
  8
SAPA_FOGBAND
 10
50.67869804935345
 20
41.73721960618122
 30
0.0
 42
-0.3394542588633723
  0
VERTEX
  5
1100
  8
SAPA_FOGBAND
 10
50.826934240333003
 20
41.54403444092339
 30
0.0
  0
VERTEX
  5
1101
  8
SAPA_FOGBAND
 10
50.826934240333003
 20
40.197499838519207
 30
0.0
 42
-0.4142135623730951
  0
VERTEX
  5
1102
  8
SAPA_FOGBAND
 10
50.326934240333003
 20
39.697499838519207
 30
0.0
  0
VERTEX
  5
1103
  8
SAPA_FOGBAND
 10
48.926934240333033
 20
39.697499838519207
 30
0.0
 42
0.4142135623730951
  0
VERTEX
  5
1104
  8
SAPA_FOGBAND
 10
48.72693424033298
 20
39.497499838519232
 30
0.0
  0
VERTEX
  5
1105
  8
SAPA_FOGBAND
 10
48.72693424033298
 20
39.200959617225593
 30
0.0
 42
0.3888787318529909
  0
VERTEX
  5
1106
  8
SAPA_FOGBAND
 10
49.274640794684387
 20
38.603242798370573
 30
0.0
  0
VERTEX
  5
1107
  8
SAPA_FOGBAND
 10
50.518973382289801
 20
38.494377803299201
 30
0.0
 42
0.6764759177002223
  0
VERTEX
  5
1108
  8
SAPA_FOGBAND
 10
51.564113727512449
 20
32.081639058976187
 30
0.0
 42
-0.5327880064123889
  0
VERTEX
  5
1109
  8
SAPA_FOGBAND
 10
51.805468799805681
 20
31.463077312714521
 30
0.0
 42
0.1593733635673034
  0
VERTEX
  5
110A
  8
SAPA_FOGBAND
 10
51.769799229517389
 20
31.34396294911102
 30
0.0
  0
VERTEX
  5
110B
  8
SAPA_FOGBAND
 10
51.927060540283719
 20
25.087448768483181
 30
0.0
 42
0.9751802379498954
  0
SEQEND
  5
110C
  8
SAPA_FOGBAND
  0
CIRCLE
  5
A84
  8
SAPA_FOGBAND
 10
52.326934240333003
 20
35.497499838519232
 30
0.0
 40
2.7999999999999989
  0
POLYLINE
  5
A85
  8
SAPA_FOGBAND
 66
     1
 10
0.0
 20
0.0
 30
0.0
 70
     1
  0
VERTEX
  5
110D
  8
SAPA_FOGBAND
 10
51.72693424033298
 20
42.397499838519202
 30
0.0
  0
VERTEX
  5
110E
  8
SAPA_FOGBAND
 10
51.72693424033298
 20
45.997499838519218
 30
0.0
 42
-0.9999999999999998
  0
VERTEX
  5
110F
  8
SAPA_FOGBAND
 10
52.926934240333019
 20
45.997499838519218
 30
0.0
  0
VERTEX
  5
1110
  8
SAPA_FOGBAND
 10
52.926934240333019
 20
42.397499838519202
 30
0.0
 42
-0.9999999999999998
  0
SEQEND
  5
1111
  8
SAPA_FOGBAND
  0
INSERT
  5
A86
  8
SAPA_FOGBAND
  2
BYGG-022629$0$18058
 10
25.08284069123334
 20
113.3128790521403
 30
0.0
 41
-1.0
 50
180.0
  0
INSERT
  5
A87
  8
SAPA_FOGBAND
  2
BYGG-022629$0$18049
 10
11.796327360747981
 20
111.6632913592521
 30
0.0
 41
-1.0
 50
180.0
  0
DIMENSION
  5
A8E
  8
SAPA_MATT
  2
*D40
 10
-13.632447090313009
 20
24.709972931217809
 30
0.0
 11
-16.132447090313011
 21
32.209972931217813
 31
0.0
 70
     0
  1
10-15
 13
6.1411478027057447
 23
39.709972931217813
 33
0.0
 14
6.1411478027057438
 24
24.709972931217809
 34
0.0
 50
90.0
1001
ACAD
1000
DSTYLE
1002
{
1070
    40
1040
1.0
1002
}
  0
DIMENSION
  5
A8F
  8
SAPA_MATT
  2
*D39
 10
-13.68371487308441
 20
39.709972931217813
 30
0.0
 11
-16.183714873084408
 21
78.709972931217806
 31
0.0
 70
     0
 13
7.2269342403328931
 23
117.70997293121781
 33
0.0
 14
6.1411478027057447
 24
39.709972931217813
 34
0.0
 50
90.0
1001
ACAD
1000
DSTYLE
1002
{
1070
    40
1040
1.0
1002
}
  0
VIEWPORT
  5
2FC
 67
     1
  8
0
 10
5.2499996651675342
 20
3.9999999033972808
 30
0.0
 40
13.786839016452429
 41
8.9929997457669497
 68
     1
 69
     1
1001
ACAD
1000
MVIEW
1002
{
1070
    16
1010
0.0
1020
0.0
1030
0.0
1010
0.0
1020
0.0
1030
1.0
1040
0.0
1040
8.9929997457669497
1040
5.2499996651675342
1040
3.9999999033972808
1040
50.0
1040
0.0
1040
0.0
1070
     0
1070
     0
1070
     1
1070
     1
1070
     0
1070
     0
1070
     0
1070
     0
1040
0.0
1040
0.0
1040
0.0
1040
10.0
1040
10.0
1040
10.0
1040
10.0
1070
     0
1002
{
1002
}
1002
}
  0
VIEWPORT
  5
300
 67
     1
  8
MATT
 10
5.2499997615814209
 20
3.9999997615814209
 30
0.0
 40
8.3999996185302752
 41
6.3999996185302743
 68
     2
 69
     2
1001
ACAD
1000
MVIEW
1002
{
1070
    16
1010
0.0
1020
0.0
1030
0.0
1010
0.0
1020
0.0
1030
1.0
1040
0.0
1040
254.32482763017811
1040
82.806740721764584
1040
125.9177201456914
1040
50.0
1040
0.0
1040
0.0
1070
     0
1070
   100
1070
     1
1070
     0
1070
     0
1070
     0
1070
     0
1070
     0
1040
0.0
1040
0.0
1040
0.0
1040
5.0
1040
5.0
1040
0.0
1040
0.0
1070
     0
1002
{
1002
}
1002
}
  0
ENDSEC
  0
EOF
