  0
SECTION
  2
HEADER
  9
$ACADVER
  1
AC1009
  9
$INSBASE
 10
120.2578405227143
 20
378.4930879043871
 30
0.0
  9
$EXTMIN
 10
-17.535191251037169
 20
14.72854237866232
 30
0.0
  9
$EXTMAX
 10
71.079418158686636
 20
175.47629082644701
 30
0.0
  9
$LIMMIN
 10
0.0
 20
0.0
  9
$LIMMAX
 10
420.0
 20
297.0
  9
$ORTHOMODE
 70
     0
  9
$REGENMODE
 70
     1
  9
$FILLMODE
 70
     1
  9
$QTEXTMODE
 70
     0
  9
$MIRRTEXT
 70
     1
  9
$DRAGMODE
 70
     2
  9
$LTSCALE
 40
7.0
  9
$OSMODE
 70
   167
  9
$ATTMODE
 70
     1
  9
$TEXTSIZE
 40
5.25
  9
$TRACEWID
 40
0.05
  9
$TEXTSTYLE
  7
ISO
  9
$CLAYER
  8
0
  9
$CELTYPE
  6
BYLAYER
  9
$CECOLOR
 62
   256
  9
$DIMSCALE
 40
0.0
  9
$DIMASZ
 40
3.0
  9
$DIMEXO
 40
1.5
  9
$DIMDLI
 40
10.0
  9
$DIMRND
 40
0.0
  9
$DIMDLE
 40
0.0
  9
$DIMEXE
 40
1.5
  9
$DIMTP
 40
0.0
  9
$DIMTM
 40
0.0
  9
$DIMTXT
 40
3.0
  9
$DIMCEN
 40
-5.0
  9
$DIMTSZ
 40
0.0
  9
$DIMTOL
 70
     0
  9
$DIMLIM
 70
     0
  9
$DIMTIH
 70
     0
  9
$DIMTOH
 70
     1
  9
$DIMSE1
 70
     0
  9
$DIMSE2
 70
     0
  9
$DIMTAD
 70
     1
  9
$DIMZIN
 70
     8
  9
$DIMBLK
  1

  9
$DIMASO
 70
     1
  9
$DIMSHO
 70
     1
  9
$DIMPOST
  1

  9
$DIMAPOST
  1

  9
$DIMALT
 70
     0
  9
$DIMALTD
 70
     0
  9
$DIMALTF
 40
25.399999999999999
  9
$DIMLFAC
 40
-1.0
  9
$DIMTOFL
 70
     1
  9
$DIMTVP
 40
0.0
  9
$DIMTIX
 70
     0
  9
$DIMSOXD
 70
     0
  9
$DIMSAH
 70
     0
  9
$DIMBLK1
  1

  9
$DIMBLK2
  1

  9
$DIMSTYLE
  2
MASKIN
  9
$DIMCLRD
 70
   256
  9
$DIMCLRE
 70
   256
  9
$DIMCLRT
 70
     2
  9
$DIMTFAC
 40
1.0
  9
$DIMGAP
 40
1.0
  9
$LUNITS
 70
     2
  9
$LUPREC
 70
     2
  9
$SKETCHINC
 40
0.1
  9
$FILLETRAD
 40
0.0
  9
$AUNITS
 70
     0
  9
$AUPREC
 70
     2
  9
$MENU
  1
ACAD
  9
$ELEVATION
 40
0.0
  9
$PELEVATION
 40
0.0
  9
$THICKNESS
 40
0.0
  9
$LIMCHECK
 70
     0
  9
$BLIPMODE
 70
     0
  9
$CHAMFERA
 40
0.0
  9
$CHAMFERB
 40
0.0
  9
$SKPOLY
 70
     0
  9
$TDCREATE
 40
2450345.5798625001
  9
$TDUPDATE
 40
2454887.3874581018
  9
$TDINDWG
 40
0.4526621759
  9
$TDUSRTIMER
 40
0.4526621759
  9
$USRTIMER
 70
     1
  9
$ANGBASE
 50
0.0
  9
$ANGDIR
 70
     0
  9
$PDMODE
 70
     3
  9
$PDSIZE
 40
0.0
  9
$PLINEWID
 40
0.0
  9
$COORDS
 70
     1
  9
$SPLFRAME
 70
     0
  9
$SPLINETYPE
 70
     6
  9
$SPLINESEGS
 70
     8
  9
$ATTDIA
 70
     0
  9
$ATTREQ
 70
     1
  9
$HANDLING
 70
     1
  9
$HANDSEED
  5
113A
  9
$SURFTAB1
 70
     6
  9
$SURFTAB2
 70
     6
  9
$SURFTYPE
 70
     6
  9
$SURFU
 70
     6
  9
$SURFV
 70
     6
  9
$UCSNAME
  2

  9
$UCSORG
 10
0.0
 20
0.0
 30
0.0
  9
$UCSXDIR
 10
1.0
 20
0.0
 30
0.0
  9
$UCSYDIR
 10
0.0
 20
1.0
 30
0.0
  9
$PUCSNAME
  2

  9
$PUCSORG
 10
0.0
 20
0.0
 30
0.0
  9
$PUCSXDIR
 10
1.0
 20
0.0
 30
0.0
  9
$PUCSYDIR
 10
0.0
 20
1.0
 30
0.0
  9
$USERI1
 70
     0
  9
$USERI2
 70
     0
  9
$USERI3
 70
     0
  9
$USERI4
 70
     0
  9
$USERI5
 70
     0
  9
$USERR1
 40
0.0
  9
$USERR2
 40
0.0
  9
$USERR3
 40
0.0
  9
$USERR4
 40
0.0
  9
$USERR5
 40
0.0
  9
$WORLDVIEW
 70
     1
  9
$SHADEDGE
 70
     1
  9
$SHADEDIF
 70
    70
  9
$TILEMODE
 70
     1
  9
$MAXACTVP
 70
    16
  9
$PLIMCHECK
 70
     0
  9
$PEXTMIN
 10
1.049636599258096
 20
0.7996597240971078
 30
-0.0000000000112498
  9
$PEXTMAX
 10
9.4503627310769716
 20
7.200340082697454
 30
0.0000000000002956
  9
$PLIMMIN
 10
-0.2500002402958907
 20
-0.2499999962453767
  9
$PLIMMAX
 10
10.74999951940822
 20
8.2499997634587334
  9
$UNITMODE
 70
     0
  9
$VISRETAIN
 70
     1
  9
$PLINEGEN
 70
     0
  9
$PSLTSCALE
 70
     1
  0
ENDSEC
  0
SECTION
  2
TABLES
  0
TABLE
  2
VPORT
 70
     1
  0
VPORT
  2
*ACTIVE
 70
     0
 10
0.0
 20
0.0
 11
1.0
 21
1.0
 12
60.671566952374221
 22
95.103356037059982
 13
0.0
 23
0.0
 14
5.0
 24
5.0
 15
0.0
 25
0.0
 16
0.0
 26
0.0
 36
1.0
 17
0.0
 27
0.0
 37
0.0
 40
162.0909371366489
 41
1.995238095238095
 42
50.0
 43
0.0
 44
0.0
 50
0.0
 51
0.0
 71
     0
 72
   100
 73
     1
 74
     0
 75
     0
 76
     0
 77
     0
 78
     0
  0
ENDTAB
  0
TABLE
  2
LTYPE
 70
     7
  0
LTYPE
  2
CONTINUOUS
 70
     0
  3
Solid line
 72
    65
 73
     0
 40
0.0
  0
LTYPE
  2
BYGG-022629$0$NEWDOT
 70
     0
  3
____ . ____ . ____ . ____ . ____ . ____ . ____
 72
    65
 73
     4
 40
2.0
 49
1.0
 49
-0.5
 49
0.0
 49
-0.5
  0
LTYPE
  2
BYGG-022629$0$DASHDOT
 70
     0
  3
__ . __ . __ . __ . __ . __ . __ . __ . __ . __
 72
    65
 73
     4
 40
1.0
 49
0.5
 49
-0.25
 49
0.0
 49
-0.25
  0
LTYPE
  2
BYGG-022629$0$DASHED
 70
     0
  3
__ __ __ __ __ __ __ __ __ __ __ __ __ __ __
 72
    65
 73
     2
 40
0.75
 49
0.5
 49
-0.25
  0
LTYPE
  2
BYGG-022629$0$PHANTOM
 70
     0
  3
Phantom ______  __  __  ______  __  __  ______
 72
    65
 73
     6
 40
63.5
 49
31.75
 49
-6.3499999999999988
 49
6.3499999999999988
 49
-6.3499999999999988
 49
6.3499999999999988
 49
-6.3499999999999988
  0
LTYPE
  2
BYGG-014203$0$DASHDOT
 70
     0
  3
__ . __ . __ . __ . __ . __ . __ . __ . __ . __
 72
    65
 73
     4
 40
1.0
 49
0.5
 49
-0.25
 49
0.0
 49
-0.25
  0
LTYPE
  2
BYGG-014565$0$NEWDOT
 70
     0
  3
____ . ____ . ____ . ____ . ____ . ____ . ____
 72
    65
 73
     4
 40
2.0
 49
1.0
 49
-0.5
 49
0.0
 49
-0.5
  0
ENDTAB
  0
TABLE
  2
LAYER
 70
    66
  0
LAYER
  2
0
 70
     0
 62
     7
  6
CONTINUOUS
  0
LAYER
  2
DEFPOINTS
 70
     0
 62
     7
  6
CONTINUOUS
  0
LAYER
  2
SAPA_ARTIKELNR
 70
     0
 62
     4
  6
CONTINUOUS
  0
LAYER
  2
SAPA_LIGHT
 70
     1
 62
     1
  6
CONTINUOUS
  0
LAYER
  2
MATT
 70
     0
 62
     1
  6
CONTINUOUS
  0
LAYER
  2
SAPA_GLAS
 70
     0
 62
     4
  6
CONTINUOUS
  0
LAYER
  2
SAPA_ANSLUTNING
 70
     0
 62
     6
  6
CONTINUOUS
  0
LAYER
  2
SAPA_MATT
 70
     0
 62
     1
  6
CONTINUOUS
  0
LAYER
  2
SAPA_FOGBAND
 70
     0
 62
     2
  6
CONTINUOUS
  0
LAYER
  2
SAPA_PROFIL
 70
     0
 62
     7
  6
CONTINUOUS
  0
ENDTAB
  0
TABLE
  2
STYLE
 70
    14
  0
STYLE
  2
STANDARD
 70
     0
 40
0.0
 41
1.0
 50
0.0
 71
     0
 42
0.2
  3
txt
  4

  0
STYLE
  2
ISO
 70
     0
 40
0.0
 41
1.0
 50
0.0
 71
     0
 42
5.25
  3
isocp3.shx
  4

  0
STYLE
  2
BYGG-022629$0$STANDARD
 70
     0
 40
0.0
 41
1.0
 50
0.0
 71
     0
 42
0.2
  3
txt
  4

  0
STYLE
  2
BYGG-022629$0$ISO
 70
     0
 40
0.0
 41
1.0
 50
0.0
 71
     0
 42
3.5
  3
txt
  4

  0
STYLE
  2
BYGG-014203$0$STANDARD
 70
     0
 40
0.0
 41
1.0
 50
0.0
 71
     0
 42
0.2
  3
txt
  4

  0
STYLE
  2
BYGG-014203$0$ISO
 70
     0
 40
0.0
 41
1.0
 50
0.0
 71
     0
 42
3.5
  3
isocp3.shx
  4

  0
STYLE
  2
BYGG-022907$0$STANDARD
 70
     0
 40
0.0
 41
1.0
 50
0.0
 71
     0
 42
0.2
  3
txt
  4

  0
STYLE
  2
BYGG-022907$0$ISO
 70
     0
 40
0.0
 41
1.0
 50
0.0
 71
     0
 42
3.5
  3
txt
  4

  0
STYLE
  2
BYGG-011885$0$STANDARD
 70
     0
 40
0.0
 41
1.0
 50
0.0
 71
     0
 42
0.2
  3
txt
  4

  0
STYLE
  2
BYGG-011885$0$ISO
 70
     0
 40
0.0
 41
1.0
 50
0.0
 71
     0
 42
3.5
  3
isocp3.shx
  4

  0
STYLE
  2
BYGG-022466$0$STANDARD
 70
     0
 40
0.0
 41
1.0
 50
0.0
 71
     0
 42
0.2
  3
txt
  4

  0
STYLE
  2
BYGG-022466$0$ISO
 70
     0
 40
0.0
 41
1.0
 50
0.0
 71
     0
 42
3.5
  3
txt
  4

  0
STYLE
  2
BYGG-014565$0$STANDARD
 70
     0
 40
0.0
 41
1.0
 50
0.0
 71
     0
 42
0.2
  3
isocp3.shx
  4

  0
STYLE
  2
BYGG-014565$0$ISO
 70
     0
 40
0.0
 41
1.0
 50
0.0
 71
     0
 42
3.5
  3
isocp3.shx
  4

  0
ENDTAB
  0
TABLE
  2
VIEW
 70
     0
  0
ENDTAB
  0
TABLE
  2
UCS
 70
     0
  0
ENDTAB
  0
TABLE
  2
APPID
 70
    17
  0
APPID
  2
ACAD
 70
     0
  0
APPID
  2
ACAECLAYERSTANDARD
 70
     0
  0
APPID
  2
ACAD_MLEADERVER
 70
     0
  0
APPID
  2
ACAD_DSTYLE_DIMTEXT_FILL
 70
     0
  0
APPID
  2
ACAD_DSTYLE_DIMEXT_LENGTH
 70
     0
  0
APPID
  2
ACAD_DSTYLE_DIMEXT_ENABLED
 70
     0
  0
APPID
  2
ACAD_DSTYLE_DIM_LINETYPE
 70
     0
  0
APPID
  2
ACAD_DSTYLE_DIM_EXT1_LINETYPE
 70
     0
  0
APPID
  2
ACAD_DSTYLE_DIM_EXT2_LINETYPE
 70
     0
  0
APPID
  2
ACAD_DSTYLE_DIMJOGGED_JOGA
 70
     0
  0
APPID
  2
ACAD_DSTYLE_DIMARC_LENGTH_
 70
     0
  0
APPID
  2
ACAD_PSEXT
 70
     0
  0
APPID
  2
AMG_ARCHIVE11
 70
     0
  0
APPID
  2
ACAD_EXEMPT_FROM_CAD_STANDARDS
 70
     0
  0
APPID
  2
ACAD_DSTYLE_DIMJAG
 70
     0
  0
APPID
  2
ACAD_DSTYLE_DIMTALN
 70
     0
  0
APPID
  2
ACADANNOTATIVE
 70
     0
  0
ENDTAB
  0
TABLE
  2
DIMSTYLE
 70
    10
  0
DIMSTYLE
  2
MASKIN
 70
     0
  3

  4

  5

  6

  7

 40
0.0
 41
3.0
 42
1.5
 43
10.0
 44
1.5
 45
0.0
 46
0.0
 47
0.0
 48
0.0
140
3.0
141
-5.0
142
0.0
143
25.399999999999999
144
-1.0
145
0.0
146
1.0
147
1.0
 71
     0
 72
     0
 73
     0
 74
     1
 75
     0
 76
     0
 77
     1
 78
     8
170
     0
171
     0
172
     1
173
     0
174
     0
175
     0
176
   256
177
   256
178
     2
  0
DIMSTYLE
  2
BYGG-022629$0$STANDARD
 70
     0
  3

  4

  5

  6

  7

 40
1.0
 41
0.18
 42
0.0625
 43
0.38
 44
0.18
 45
0.0
 46
0.0
 47
0.0
 48
0.0
140
0.18
141
0.09
142
0.0
143
25.399999999999999
144
1.0
145
0.0
146
1.0
147
0.09
 71
     0
 72
     0
 73
     1
 74
     1
 75
     0
 76
     0
 77
     0
 78
     0
170
     0
171
     2
172
     0
173
     0
174
     0
175
     0
176
     0
177
     0
178
     0
  0
DIMSTYLE
  2
BYGG-022629$0$MASKIN
 70
     0
  3

  4

  5

  6

  7

 40
0.0
 41
3.0
 42
1.5
 43
10.0
 44
1.5
 45
0.0
 46
0.0
 47
0.0
 48
0.0
140
3.0
141
-5.0
142
0.0
143
25.399999999999999
144
-1.0
145
0.0
146
1.0
147
1.0
 71
     0
 72
     0
 73
     0
 74
     0
 75
     0
 76
     0
 77
     1
 78
     8
170
     0
171
     0
172
     1
173
     0
174
     0
175
     0
176
   256
177
   256
178
     2
  0
DIMSTYLE
  2
BYGG-014203$0$STANDARD
 70
     0
  3

  4

  5

  6

  7

 40
1.0
 41
0.18
 42
0.0625
 43
0.38
 44
0.18
 45
0.0
 46
0.0
 47
0.0
 48
0.0
140
0.18
141
0.09
142
0.0
143
25.399999999999999
144
1.0
145
0.0
146
1.0
147
0.09
 71
     0
 72
     0
 73
     1
 74
     1
 75
     0
 76
     0
 77
     0
 78
     0
170
     0
171
     2
172
     0
173
     0
174
     0
175
     0
176
     0
177
     0
178
     0
  0
DIMSTYLE
  2
BYGG-014203$0$MASKIN
 70
     0
  3

  4

  5

  6

  7

 40
0.0
 41
3.0
 42
1.5
 43
10.0
 44
1.5
 45
0.0
 46
0.0
 47
0.0
 48
0.0
140
3.0
141
-5.0
142
0.0
143
25.399999999999999
144
-1.0
145
0.0
146
1.0
147
1.0
 71
     0
 72
     0
 73
     0
 74
     0
 75
     0
 76
     0
 77
     1
 78
     8
170
     0
171
     0
172
     1
173
     0
174
     0
175
     0
176
   256
177
   256
178
   256
  0
DIMSTYLE
  2
BYGG-022907$0$MASKIN
 70
     0
  3

  4

  5

  6

  7

 40
0.0
 41
3.0
 42
1.5
 43
10.0
 44
1.5
 45
0.0
 46
0.0
 47
0.0
 48
0.0
140
3.0
141
-5.0
142
0.0
143
25.399999999999999
144
-1.0
145
0.0
146
1.0
147
1.0
 71
     0
 72
     0
 73
     0
 74
     0
 75
     0
 76
     0
 77
     1
 78
     8
170
     0
171
     0
172
     1
173
     0
174
     0
175
     0
176
   256
177
   256
178
     2
  0
DIMSTYLE
  2
BYGG-011885$0$MASKIN
 70
     0
  3

  4

  5

  6

  7

 40
0.0
 41
3.0
 42
1.5
 43
10.0
 44
1.5
 45
0.0
 46
0.0
 47
0.0
 48
0.0
140
3.0
141
-5.0
142
0.0
143
25.399999999999999
144
-1.0
145
0.0
146
1.0
147
1.0
 71
     0
 72
     0
 73
     0
 74
     0
 75
     0
 76
     0
 77
     1
 78
     8
170
     0
171
     0
172
     1
173
     0
174
     0
175
     0
176
   256
177
   256
178
     2
  0
DIMSTYLE
  2
BYGG-022466$0$MASKIN
 70
     0
  3

  4

  5

  6

  7

 40
0.0
 41
3.0
 42
1.5
 43
10.0
 44
1.5
 45
0.0
 46
0.0
 47
0.0
 48
0.0
140
3.0
141
-5.0
142
0.0
143
25.399999999999999
144
-1.0
145
0.0
146
1.0
147
1.0
 71
     0
 72
     0
 73
     0
 74
     0
 75
     0
 76
     0
 77
     1
 78
     8
170
     0
171
     0
172
     1
173
     0
174
     0
175
     0
176
   256
177
   256
178
     2
  0
DIMSTYLE
  2
BYGG-014565$0$STANDARD
 70
     0
  3

  4

  5

  6

  7

 40
1.0
 41
0.18
 42
0.0625
 43
0.38
 44
0.18
 45
0.0
 46
0.0
 47
0.0
 48
0.0
140
0.18
141
0.09
142
0.0
143
25.399999999999999
144
1.0
145
0.0
146
1.0
147
0.09
 71
     0
 72
     0
 73
     1
 74
     1
 75
     0
 76
     0
 77
     0
 78
     0
170
     0
171
     2
172
     0
173
     0
174
     0
175
     0
176
     0
177
     0
178
     0
  0
DIMSTYLE
  2
BYGG-014565$0$MASKIN
 70
     0
  3

  4

  5

  6

  7

 40
0.0
 41
3.0
 42
1.5
 43
10.0
 44
1.5
 45
0.0
 46
0.0
 47
0.0
 48
0.0
140
3.0
141
-5.0
142
0.0
143
25.399999999999999
144
-1.0
145
0.0
146
1.0
147
1.0
 71
     0
 72
     0
 73
     0
 74
     0
 75
     0
 76
     0
 77
     1
 78
     8
170
     0
171
     0
172
     1
173
     0
174
     0
175
     0
176
   256
177
   256
178
     2
  0
ENDTAB
  0
ENDSEC
  0
SECTION
  2
BLOCKS
  0
BLOCK
  8
0
  2
$MODEL_SPACE
 70
     0
 10
0.0
 20
0.0
 30
0.0
  3
$MODEL_SPACE
  1

  0
ENDBLK
  5
D
  8
0
  0
BLOCK
 67
     1
  8
0
  2
$PAPER_SPACE
 70
     0
 10
0.0
 20
0.0
 30
0.0
  3
$PAPER_SPACE
  1

  0
ENDBLK
  5
12
 67
     1
  8
0
  0
BLOCK
  8
0
  2
BYGG-022629$0$18049
 70
     0
 10
0.0
 20
0.0
 30
0.0
  3
BYGG-022629$0$18049
  1

  0
LINE
  5
8A2
  8
0
 10
1.257104106126135
 20
1.175882970362522
 30
0.0
 11
0.4756705193898512
 21
3.7049892555045281
 31
0.0
  0
LINE
  5
8A3
  8
0
 10
4.2044423602476391
 20
-3.6036842434053251
 30
0.0
 11
1.257104106126135
 21
1.175882970362522
 31
0.0
  0
LINE
  5
8A4
  8
0
 10
1.8046723971954881
 20
-1.3930204203302869
 30
0.0
 11
3.8614632483672291
 21
-4.0897212559317486
 31
0.0
  0
LINE
  5
8A5
  8
0
 10
1.5165716772223581
 20
-5.4492779234504951
 30
0.0
 11
1.365416573142894
 21
-1.670607021296405
 31
0.0
  0
LINE
  5
8A6
  8
0
 10
-1.360859991273756
 20
-1.626983735284284
 30
0.0
 11
-2.700553210624562
 21
-2.0440140738289752
 31
0.0
  0
LINE
  5
8A7
  8
0
 10
4.2213954165827374
 20
-11.20389088691797
 30
0.0
 11
1.8374940511294251
 21
-6.144112628652123
 31
0.0
  0
ARC
  5
8A8
  8
0
 10
-15.61932099734079
 20
-27.035324816149512
 30
0.0
 40
24.584181139217058
 50
49.137781603725038
 51
55.430876072989847
  0
ARC
  5
8A9
  8
0
 10
0.6928349840118671
 20
-8.6374822721460305
 30
0.0
 40
0.3000000000000043
 50
139.5071087518125
 51
319.08060320227031
  0
ARC
  5
8AA
  8
0
 10
2.5157725486285609
 20
-5.4093077022735647
 30
0.0
 40
0.9999999999999417
 50
182.29073520949271
 51
227.290735209491
  0
ARC
  5
8AB
  8
0
 10
-1.547436887770814
 20
-6.4109931887336984
 30
0.0
 40
0.3999999999999566
 50
92.290735209487536
 51
252.11880956275439
  0
LINE
  5
8AC
  8
0
 10
-0.264463843413381
 20
-5.9593515526413512
 30
0.0
 11
-1.5634249762415491
 21
-6.0113128401712279
 31
0.0
  0
ARC
  5
8AD
  8
0
 10
-0.2764549097664855
 20
-5.6595912912194422
 30
0.0
 40
0.3000000000000553
 50
272.2907352094972
 51
2.2907352094997808
  0
LINE
  5
8AE
  8
0
 10
-0.0606321128159806
 20
-3.5492783949131872
 30
0.0
 11
0.023305351655452
 21
-5.6476002248663226
 31
0.0
  0
ARC
  5
8AF
  8
0
 10
-0.3603923742378612
 20
-3.561269461266249
 30
0.0
 40
0.3000000000000252
 50
2.2907352094893678
 51
92.290735209491856
  0
LINE
  5
8B0
  8
0
 10
-1.271664224856621
 20
-3.2974823989035249
 30
0.0
 11
-0.3723834405909372
 21
-3.26150919984434
 31
0.0
  0
LINE
  5
8B1
  8
0
 10
-1.2576746474447731
 20
-3.6472027038957431
 30
0.0
 11
-1.271664224856621
 21
-3.2974823989035249
 31
0.0
  0
ARC
  5
8B2
  8
0
 10
-1.557434908866596
 20
-3.6591937702488049
 30
0.0
 40
0.2999999999999189
 50
227.29073520948009
 51
2.2907352094898008
  0
LINE
  5
8B3
  8
0
 10
-2.6479064675971951
 20
-3.060880674298005
 30
0.0
 11
-1.760918458116336
 21
-3.8796352481622871
 31
0.0
  0
ARC
  5
8B4
  8
0
 10
-2.1052836695978661
 20
-2.4730367331951579
 30
0.0
 40
0.7999999999999711
 50
182.29073520948941
 51
227.2907352094899
  0
LINE
  5
8B5
  8
0
 10
-2.911147326750366
 20
-2.3424478020412489
 30
0.0
 11
-2.9046443667228621
 21
-2.5050129101366561
 31
0.0
  0
ARC
  5
8B6
  8
0
 10
-2.6113870653285431
 20
-2.3304567356881871
 30
0.0
 40
0.2999999999999028
 50
107.2907352094865
 51
182.29073520948981
  0
ARC
  5
8B7
  8
0
 10
1.665176834564803
 20
-1.658615954943286
 30
0.0
 40
0.3000000000000269
 50
62.29073520950076
 51
182.29073520950001
  0
ARC
  5
8B8
  8
0
 10
-1.45002613656969
 20
-1.340541073425072
 30
0.0
 40
0.2999999999999088
 50
287.29073520947099
 51
2.2907352094791711
  0
LINE
  5
8B9
  8
0
 10
-1.2531886636523799
 20
1.24437896187652
 30
0.0
 11
-1.150265875147894
 21
-1.3285500070720671
 31
0.0
  0
ARC
  5
8BA
  8
0
 10
-1.552948925074346
 20
1.2323878955234591
 30
0.0
 40
0.3000000000000847
 50
2.2907352094887168
 51
77.290735209486655
  0
LINE
  5
8BB
  8
0
 10
-2.8556712716364099
 20
1.8337253324163489
 30
0.0
 11
-1.4869477411285881
 21
1.5250375900693589
 31
0.0
  0
ARC
  5
8BC
  8
0
 10
-2.7896700876906229
 20
2.1263750269621928
 30
0.0
 40
0.3000000000000366
 50
182.29073520947821
 51
257.29073520947901
  0
LINE
  5
8BD
  8
0
 10
-3.0959333091400651
 20
2.276949068704595
 30
0.0
 11
-3.0894303491125461
 21
2.1143839606091879
 31
0.0
  0
ARC
  5
8BE
  8
0
 10
-2.296572612015197
 20
2.3089252456460372
 30
0.0
 40
0.7999999999998441
 50
137.29073520948589
 51
182.29073520948569
  0
LINE
  5
8BF
  8
0
 10
-2.0656619792536191
 20
3.7385360531263241
 30
0.0
 11
-2.8844165531179149
 21
2.8515480436453231
 31
0.0
  0
ARC
  5
8C0
  8
0
 10
-1.8452205013400651
 20
3.5350525038765559
 30
0.0
 40
0.3000000000000082
 50
2.2907352094784108
 51
137.29073520948529
  0
LINE
  5
8C1
  8
0
 10
-1.5434617288593271
 20
3.497083526659253
 30
0.0
 11
-1.5454602399181701
 21
3.5470435702295608
 31
0.0
  0
ARC
  5
8C2
  8
0
 10
-1.2437014674374249
 20
3.5090745930123139
 30
0.0
 40
0.3000000000000243
 50
182.29073520948921
 51
272.29073520948782
  0
LINE
  5
8C3
  8
0
 10
-0.6321898782405812
 20
3.2332964642965289
 30
0.0
 11
-1.23171040108437
 21
3.2093143315904049
 31
0.0
  0
ARC
  5
8C4
  8
0
 10
-0.6441809445936002
 20
3.5330567257183811
 30
0.0
 40
0.2999999999999656
 50
272.2907352094814
 51
2.2907352094787372
  0
LINE
  5
8C5
  8
0
 10
-0.3464191942305916
 20
3.5950078356417521
 30
0.0
 11
-0.344420683171748
 21
3.5450477920713861
 31
0.0
  0
ARC
  5
8C6
  8
0
 10
-0.046658932808711
 20
3.606998901994813
 30
0.0
 40
0.2999999999999673
 50
92.290735209486854
 51
182.2907352094893
  0
LINE
  5
8C7
  8
0
 10
0.177049383927411
 20
3.9161876544667962
 30
0.0
 11
-0.0586499991617586
 21
3.9067591634166661
 31
0.0
  0
ARC
  5
8C8
  8
0
 10
0.1890404502804017
 20
3.6164273930448871
 30
0.0
 40
0.3000000000000138
 50
17.169902926059759
 51
92.290735209475557
  0
CIRCLE
  5
8C9
  8
0
 10
0.0
 20
0.0
 30
0.0
 40
0.2
  0
ARC
  5
8CA
  8
0
 10
4.000958810997929
 20
-3.8241257213188642
 30
0.0
 40
0.2999999999999325
 50
242.29073520948819
 51
47.290735209489483
  0
ARC
  5
8CB
  8
0
 10
4.017911867332927
 20
-11.42433236483151
 30
0.0
 40
0.2999999999999948
 50
222.87790223034321
 51
47.290735209474143
  0
ARC
  5
8CC
  8
0
 10
-25.590924134226238
 20
-39.188544039530477
 30
0.0
 40
40.30140653252819
 50
43.041593976239149
 51
48.867350427507773
  0
ENDBLK
  5
8CD
  8
0
  0
BLOCK
  8
0
  2
BYGG-022629$0$18058
 70
     0
 10
0.0
 20
0.0
 30
0.0
  3
BYGG-022629$0$18058
  1

  0
POLYLINE
  5
8D1
  8
0
 66
     1
 10
0.0
 20
0.0
 30
0.0
 70
     1
  0
VERTEX
  5
B27
  8
0
 10
4.8334507297417977
 20
-5.2617122271897747
 30
0.0
 42
0.6997223268137053
  0
VERTEX
  5
B28
  8
0
 10
4.575936757014289
 20
-4.5556296340060376
 30
0.0
  0
VERTEX
  5
B29
  8
0
 10
3.3759367570143008
 20
-4.5556296340060376
 30
0.0
 42
-0.4142135623730951
  0
VERTEX
  5
B2A
  8
0
 10
3.1759367570143122
 20
-4.355629634006049
 30
0.0
  0
VERTEX
  5
B2B
  8
0
 10
3.1759367570142838
 20
-1.555629634006038
 30
0.0
 42
-0.59729408155688
  0
VERTEX
  5
B2C
  8
0
 10
3.486028500133556
 20
-1.38865715694186
 30
0.0
  0
VERTEX
  5
B2D
  8
0
 10
3.778230334995953
 20
-1.5813177074005571
 30
0.0
 42
0.7267081950900313
  0
VERTEX
  5
B2E
  8
0
 10
4.447090661358259
 20
-1.0471071155557179
 30
0.0
  0
VERTEX
  5
B2F
  8
0
 10
0.5873176626473935
 20
5.5050401533857212
 30
0.0
 42
0.7363258036229955
  0
VERTEX
  5
B30
  8
0
 10
-0.7166888610518641
 20
5.2103713392397699
 30
0.0
  0
VERTEX
  5
B31
  8
0
 10
-1.3240632429856301
 20
1.765780049277339
 30
0.0
  0
VERTEX
  5
B32
  8
0
 10
-2.7574321456306592
 20
-2.6694904128274279
 30
0.0
 42
0.885993824690421
  0
VERTEX
  5
B33
  8
0
 10
-2.3382360028933951
 20
-3.0926345791103809
 30
0.0
  0
VERTEX
  5
B34
  8
0
 10
-1.624063242985442
 20
-0.9471580705006203
 30
0.0
 42
-0.5773502691892892
  0
VERTEX
  5
B35
  8
0
 10
-1.3240632429856301
 20
-1.120363151257606
 30
0.0
  0
VERTEX
  5
B36
  8
0
 10
-1.3240632429856869
 20
-5.6510692487698293
 30
0.0
 42
-0.1989123673796363
  0
VERTEX
  5
B37
  8
0
 10
-1.3826418867483881
 20
-5.7924906050071172
 30
0.0
  0
VERTEX
  5
B38
  8
0
 10
-2.7562272241133172
 20
-10.167977501831951
 30
0.0
 42
0.7660459440748996
  0
VERTEX
  5
B39
  8
0
 10
-2.4141837562942068
 20
-10.635523841217941
 30
0.0
  0
VERTEX
  5
B3A
  8
0
 10
1.832706186540491
 20
-6.8303485721410757
 30
0.0
 42
-0.3419987131192184
  0
VERTEX
  5
B3B
  8
0
 10
1.953259031429212
 20
-6.851959023057872
 30
0.0
 42
0.7745966692401299
  0
VERTEX
  5
B3C
  8
0
 10
2.4681048871406972
 20
-6.5828238435410071
 30
0.0
 42
-0.3419987131192394
  0
VERTEX
  5
B3D
  8
0
 10
2.519167327488105
 20
-6.4715016661200471
 30
0.0
  0
SEQEND
  5
B3E
  8
0
  0
CIRCLE
  5
8D2
  8
0
 10
0.0
 20
0.0
 30
0.0
 40
0.2
  0
ENDBLK
  5
8D3
  8
0
  0
BLOCK
  8
0
  2
*D39
 70
     1
 10
0.0
 20
0.0
 30
0.0
  3
*D39
  1

  0
LINE
  5
AC9
  8
SAPA_MATT
 10
5.7269342403328931
 20
159.70997293121781
 30
0.0
 11
-15.183714873084391
 21
159.70997293121781
 31
0.0
  0
LINE
  5
ACA
  8
SAPA_MATT
 10
4.6411478027057447
 20
39.709972931217813
 30
0.0
 11
-15.183714873084419
 21
39.709972931217813
 31
0.0
  0
LINE
  5
ACB
  8
SAPA_MATT
 10
-13.683714873084391
 20
156.70997293121781
 30
0.0
 11
-13.683714873084419
 21
42.709972931217798
 31
0.0
  0
SOLID
  5
ACC
  8
SAPA_MATT
 10
-14.183714873084391
 20
156.70997293121781
 30
0.0
 11
-13.183714873084391
 21
156.70997293121781
 31
0.0
 12
-13.683714873084391
 22
159.70997293121781
 32
0.0
 13
-13.683714873084391
 23
159.70997293121781
 33
0.0
  0
SOLID
  5
ACD
  8
SAPA_MATT
 10
-14.183714873084419
 20
42.709972931217798
 30
0.0
 11
-13.183714873084419
 21
42.709972931217798
 31
0.0
 12
-13.683714873084419
 22
39.709972931217813
 32
0.0
 13
-13.683714873084419
 23
39.709972931217813
 33
0.0
  0
INSERT
  5
ACE
  8
0
  2
*U55
 10
0.0
 20
0.0
 30
0.0
  0
POINT
  5
ACF
  8
DEFPOINTS
 62
     0
 10
7.2269342403328931
 20
159.70997293121781
 30
0.0
  0
POINT
  5
AD0
  8
DEFPOINTS
 62
     0
 10
6.1411478027057447
 20
39.709972931217813
 30
0.0
  0
POINT
  5
AD1
  8
DEFPOINTS
 62
     0
 10
-13.683714873084419
 20
39.709972931217813
 30
0.0
  0
ENDBLK
  5
AB3
  8
0
  0
BLOCK
  8
0
  2
*D40
 70
     1
 10
0.0
 20
0.0
 30
0.0
  3
*D40
  1

  0
LINE
  5
AC0
  8
SAPA_MATT
 10
4.6411478027057447
 20
39.709972931217813
 30
0.0
 11
-15.132447090313009
 21
39.709972931217813
 31
0.0
  0
LINE
  5
AC1
  8
SAPA_MATT
 10
4.6411478027057438
 20
24.709972931217809
 30
0.0
 11
-15.132447090313009
 21
24.709972931217809
 31
0.0
  0
LINE
  5
AC2
  8
SAPA_MATT
 10
-13.632447090313001
 20
36.709972931217813
 30
0.0
 11
-13.632447090313009
 21
27.709972931217809
 31
0.0
  0
SOLID
  5
AC3
  8
SAPA_MATT
 10
-14.132447090313001
 20
36.709972931217813
 30
0.0
 11
-13.132447090313001
 21
36.709972931217813
 31
0.0
 12
-13.632447090313001
 22
39.709972931217813
 32
0.0
 13
-13.632447090313001
 23
39.709972931217813
 33
0.0
  0
SOLID
  5
AC4
  8
SAPA_MATT
 10
-14.132447090313009
 20
27.709972931217809
 30
0.0
 11
-13.132447090313009
 21
27.709972931217809
 31
0.0
 12
-13.632447090313009
 22
24.709972931217809
 32
0.0
 13
-13.632447090313009
 23
24.709972931217809
 33
0.0
  0
INSERT
  5
AC5
  8
0
  2
*U54
 10
0.0
 20
0.0
 30
0.0
  0
POINT
  5
AC6
  8
DEFPOINTS
 62
     0
 10
6.1411478027057447
 20
39.709972931217813
 30
0.0
  0
POINT
  5
AC7
  8
DEFPOINTS
 62
     0
 10
6.1411478027057438
 20
24.709972931217809
 30
0.0
  0
POINT
  5
AC8
  8
DEFPOINTS
 62
     0
 10
-13.632447090313009
 20
24.709972931217809
 30
0.0
  0
ENDBLK
  5
ABF
  8
0
  0
BLOCK
  8
0
  2
*U41
 70
     1
 10
0.0
 20
0.0
 30
0.0
  3
*U41
  1

  0
TEXT
  5
AF4
  8
SAPA_ARTIKELNR
 10
66.758918848382081
 20
84.758067563061928
 30
0.0
 40
3.5
  1
68057
 50
90.0
  7
ISO
  0
ENDBLK
  5
AF6
  8
0
  0
BLOCK
  8
0
  2
*U42
 70
     1
 10
0.0
 20
0.0
 30
0.0
  3
*U42
  1

  0
TEXT
  5
B03
  8
MATT
 62
     2
 10
-14.632447090313009
 20
27.497840896861842
 30
0.0
 40
3.0
  1
10-15
 50
90.0
  7
ISO
  0
ENDBLK
  5
B05
  8
0
  0
BLOCK
  8
0
  2
*U43
 70
     1
 10
0.0
 20
0.0
 30
0.0
  3
*U43
  1

  0
TEXT
  5
B07
  8
MATT
 62
     2
 10
-14.68401014867497
 20
96.858791828855601
 30
0.0
 40
3.0
  1
120
 50
90.0
  7
ISO
  0
ENDBLK
  5
B09
  8
0
  0
BLOCK
  8
0
  2
*U44
 70
     1
 10
0.0
 20
0.0
 30
0.0
  3
*U44
  1

  0
TEXT
  5
CF2
  8
0
 10
269.13695666615928
 20
387.12121780868893
 30
0.0
 40
3.0
  1
22
 50
90.0
  7
BYGG-014203$0$ISO
  0
ENDBLK
  5
CF4
  8
0
  0
BLOCK
  8
0
  2
*U45
 70
     1
 10
0.0
 20
0.0
 30
0.0
  3
*U45
  1

  0
TEXT
  5
CF6
  8
0
 10
243.50583563664401
 20
406.8346351471406
 30
0.0
 40
3.0
  1
29
  7
BYGG-014203$0$ISO
  0
ENDBLK
  5
CF8
  8
0
  0
BLOCK
  8
0
  2
*U46
 70
     1
 10
0.0
 20
0.0
 30
0.0
  3
*U46
  1

  0
TEXT
  5
CFB
  8
0
 10
89.477352001818133
 20
536.91038923748056
 30
0.0
 40
3.0
  1
29.00259511
  7
BYGG-014203$0$ISO
  0
ENDBLK
  5
CFD
  8
0
  0
BLOCK
  8
0
  2
*U47
 70
     1
 10
0.0
 20
0.0
 30
0.0
  3
*U47
  1

  0
TEXT
  5
CFF
  8
0
 10
139.81857160131429
 20
500.42082458589999
 30
0.0
 40
3.0
  1
21.99913956
 50
90.0
  7
BYGG-014203$0$ISO
  0
ENDBLK
  5
D01
  8
0
  0
BLOCK
  8
0
  2
*U48
 70
     1
 10
0.0
 20
0.0
 30
0.0
  3
*U48
  1

  0
TEXT
  5
E10
  8
0
 62
     2
 10
190.89256628367221
 20
659.2717623260628
 30
0.0
 40
3.0
  1
60
 50
90.0
  7
BYGG-014565$0$ISO
  0
ENDBLK
  5
E12
  8
0
  0
BLOCK
  8
0
  2
*U49
 70
     1
 10
0.0
 20
0.0
 30
0.0
  3
*U49
  1

  0
TEXT
  5
E14
  8
0
 62
     2
 10
113.7344761310633
 20
618.04985164983123
 30
0.0
 40
3.0
  1
120
  7
BYGG-014565$0$ISO
  0
ENDBLK
  5
E16
  8
0
  0
BLOCK
  8
0
  2
*U50
 70
     1
 10
0.0
 20
0.0
 30
0.0
  3
*U50
  1

  0
TEXT
  5
E19
  8
0
 10
66.188644406388434
 20
146.90706299442999
 30
0.0
 40
3.0
  1
22
 50
90.0
  7
BYGG-014203$0$ISO
  0
ENDBLK
  5
E1B
  8
0
  0
BLOCK
  8
0
  2
*U51
 70
     1
 10
0.0
 20
0.0
 30
0.0
  3
*U51
  1

  0
TEXT
  5
E1D
  8
0
 10
40.557523376873263
 20
166.6204803328819
 30
0.0
 40
3.0
  1
29
  7
BYGG-014203$0$ISO
  0
ENDBLK
  5
E1F
  8
0
  0
BLOCK
  8
0
  2
*U52
 70
     1
 10
0.0
 20
0.0
 30
0.0
  3
*U52
  1

  0
TEXT
  5
E21
  8
0
 62
     2
 10
29.718000835851839
 20
25.45284086865988
 30
0.0
 40
3.0
  1
60
  7
BYGG-014565$0$ISO
  0
ENDBLK
  5
E23
  8
0
  0
BLOCK
  8
0
  2
*U53
 70
     1
 10
0.0
 20
0.0
 30
0.0
  3
*U53
  1

  0
TEXT
  5
E25
  8
0
 62
     2
 10
-13.50450039156097
 20
96.908568816544488
 30
0.0
 40
3.0
  1
120
 50
90.0
  7
BYGG-014565$0$ISO
  0
ENDBLK
  5
E27
  8
0
  0
BLOCK
  8
0
  2
*U54
 70
     1
 10
0.0
 20
0.0
 30
0.0
  3
*U54
  1

  0
TEXT
  5
1133
  8
SAPA_MATT
 62
     2
 10
-14.632447090313009
 20
27.497840896861842
 30
0.0
 40
3.0
  1
10-15
 50
90.0
  7
ISO
  0
ENDBLK
  5
1135
  8
0
  0
BLOCK
  8
0
  2
*U55
 70
     1
 10
0.0
 20
0.0
 30
0.0
  3
*U55
  1

  0
TEXT
  5
1137
  8
SAPA_MATT
 62
     2
 10
-14.68401014867497
 20
96.858791828855601
 30
0.0
 40
3.0
  1
120
 50
90.0
  7
ISO
  0
ENDBLK
  5
1139
  8
0
  0
ENDSEC
  0
SECTION
  2
ENTITIES
  0
POLYLINE
  5
67B
  8
SAPA_LIGHT
 66
     1
 10
0.0
 20
0.0
 30
0.0
  0
VERTEX
  5
AE6
  8
SAPA_LIGHT
 10
57.259913930295419
 20
14.72854237866232
 30
0.0
  0
VERTEX
  5
AE7
  8
SAPA_LIGHT
 10
57.26280549655533
 20
14.72854237866232
 30
0.0
  0
SEQEND
  5
AE8
  8
SAPA_LIGHT
  0
POLYLINE
  5
67C
  8
SAPA_LIGHT
 66
     1
 10
0.0
 20
0.0
 30
0.0
 70
     1
  0
VERTEX
  5
AE9
  8
SAPA_LIGHT
 10
16.30369438628351
 20
142.735529352274
 30
0.0
  0
VERTEX
  5
AEA
  8
SAPA_LIGHT
 10
22.30369438628351
 20
142.735529352274
 30
0.0
  0
VERTEX
  5
AEB
  8
SAPA_LIGHT
 10
22.30369438628351
 20
175.24181045616689
 30
0.0
  0
VERTEX
  5
AEC
  8
SAPA_LIGHT
 10
16.30369438628351
 20
175.24181045616689
 30
0.0
  0
SEQEND
  5
AED
  8
SAPA_LIGHT
  0
POLYLINE
  5
682
  8
SAPA_GLAS
 62
     6
 66
     1
 10
0.0
 20
0.0
 30
0.0
 70
     1
  0
VERTEX
  5
AEE
  8
SAPA_GLAS
 62
     6
 10
14.698764336947569
 20
140.8639328766067
 30
0.0
  0
VERTEX
  5
AEF
  8
SAPA_GLAS
 62
     6
 10
14.698764336947569
 20
138.8639328766067
 30
0.0
  0
VERTEX
  5
AF0
  8
SAPA_GLAS
 62
     6
 10
23.698764336947569
 20
138.8639328766067
 30
0.0
  0
VERTEX
  5
AF1
  8
SAPA_GLAS
 62
     6
 10
23.698764336947569
 20
140.8639328766067
 30
0.0
  0
SEQEND
  5
AF2
  8
SAPA_GLAS
 62
     6
  0
INSERT
  5
751
  8
0
  2
*U41
 10
0.0
 20
0.0
 30
0.0
  0
POLYLINE
  5
7B1
  8
SAPA_LIGHT
 66
     1
 10
0.0
 20
0.0
 30
0.0
  0
VERTEX
  5
AF7
  8
SAPA_LIGHT
 10
22.196698093606312
 20
159.8564195406268
 30
0.0
  0
VERTEX
  5
AF8
  8
SAPA_LIGHT
 10
57.226934240332866
 20
159.85641954062689
 30
0.0
  0
VERTEX
  5
AF9
  8
SAPA_LIGHT
 10
57.226934240332866
 20
137.56352632181111
 30
0.0
  0
VERTEX
  5
AFA
  8
SAPA_LIGHT
 10
61.726934240332831
 20
137.56352632181111
 30
0.0
  0
VERTEX
  5
AFB
  8
SAPA_LIGHT
 10
61.726934240332923
 20
39.856419540624557
 30
0.0
  0
VERTEX
  5
AFC
  8
SAPA_LIGHT
 10
1.726934240332894
 20
39.856419540624557
 30
0.0
  0
VERTEX
  5
AFD
  8
SAPA_LIGHT
 10
1.726934240332866
 20
137.56352632181111
 30
0.0
  0
VERTEX
  5
AFE
  8
SAPA_LIGHT
 10
6.226934240332838
 20
137.56352632181111
 30
0.0
  0
VERTEX
  5
AFF
  8
SAPA_LIGHT
 10
6.2269342403328656
 20
159.85641954062689
 30
0.0
  0
VERTEX
  5
B00
  8
SAPA_LIGHT
 10
16.196698093606312
 20
159.8564195406268
 30
0.0
  0
SEQEND
  5
B01
  8
SAPA_LIGHT
  0
LINE
  5
835
  8
SAPA_ANSLUTNING
 10
6.1411478027057447
 20
24.709972931217809
 30
0.0
 11
61.687928706410389
 21
24.709972931217809
 31
0.0
  0
LINE
  5
84D
  8
SAPA_LIGHT
 10
6.1411478027057447
 20
24.709972931217809
 30
0.0
 11
61.687928706410389
 21
24.709972931217809
 31
0.0
  0
LINE
  5
A72
  8
SAPA_PROFIL
 10
10.729418158691489
 20
150.4597499189106
 30
0.0
 11
10.729418158691489
 21
150.4597499189106
 31
0.0
  0
POLYLINE
  5
A73
  8
SAPA_PROFIL
 66
     1
 10
0.0
 20
0.0
 30
0.0
 70
     1
  0
VERTEX
  5
F18
  8
SAPA_PROFIL
 10
29.729418158686489
 20
134.4597499189066
 30
0.0
 42
-0.4142135623730951
  0
VERTEX
  5
F19
  8
SAPA_PROFIL
 10
30.02941815868644
 20
134.75974991890661
 30
0.0
  0
VERTEX
  5
F1A
  8
SAPA_PROFIL
 10
30.863392754901501
 20
134.75974991890661
 30
0.0
  0
VERTEX
  5
F1B
  8
SAPA_PROFIL
 10
31.729418158686489
 20
135.25974991890661
 30
0.0
  0
VERTEX
  5
F1C
  8
SAPA_PROFIL
 10
32.59544356247045
 20
134.75974991890661
 30
0.0
  0
VERTEX
  5
F1D
  8
SAPA_PROFIL
 10
33.429418158686531
 20
134.75974991890661
 30
0.0
 42
-0.4142135623730951
  0
VERTEX
  5
F1E
  8
SAPA_PROFIL
 10
33.729418158686492
 20
134.4597499189066
 30
0.0
  0
VERTEX
  5
F1F
  8
SAPA_PROFIL
 10
33.729418158686492
 20
130.75974991890661
 30
0.0
  0
VERTEX
  5
F20
  8
SAPA_PROFIL
 10
34.729418158686492
 20
129.75974991890661
 30
0.0
  0
VERTEX
  5
F21
  8
SAPA_PROFIL
 10
48.829418158686387
 20
129.75974991890661
 30
0.0
 42
-0.4142135623730951
  0
VERTEX
  5
F22
  8
SAPA_PROFIL
 10
49.129418158686462
 20
129.4597499189066
 30
0.0
  0
VERTEX
  5
F23
  8
SAPA_PROFIL
 10
49.129418158686462
 20
126.0597499189066
 30
0.0
 42
0.4142135623730951
  0
VERTEX
  5
F24
  8
SAPA_PROFIL
 10
49.429418158686531
 20
125.75974991890671
 30
0.0
  0
VERTEX
  5
F25
  8
SAPA_PROFIL
 10
51.02941815868644
 20
125.75974991890671
 30
0.0
 42
0.4142135623730951
  0
VERTEX
  5
F26
  8
SAPA_PROFIL
 10
51.329418158686387
 20
126.0597499189066
 30
0.0
  0
VERTEX
  5
F27
  8
SAPA_PROFIL
 10
51.329418158686387
 20
129.4597499189066
 30
0.0
 42
-0.4142135623730951
  0
VERTEX
  5
F28
  8
SAPA_PROFIL
 10
51.629418158686462
 20
129.75974991890661
 30
0.0
  0
VERTEX
  5
F29
  8
SAPA_PROFIL
 10
58.429418158686531
 20
129.75974991890661
 30
0.0
 42
-0.4142135623730951
  0
VERTEX
  5
F2A
  8
SAPA_PROFIL
 10
58.729418158686492
 20
129.4597499189066
 30
0.0
  0
VERTEX
  5
F2B
  8
SAPA_PROFIL
 10
58.729418158686492
 20
53.259749918906692
 30
0.0
 42
-0.4142135623730951
  0
VERTEX
  5
F2C
  8
SAPA_PROFIL
 10
58.429418158686531
 20
52.959749918906631
 30
0.0
  0
VERTEX
  5
F2D
  8
SAPA_PROFIL
 10
51.629418158686462
 20
52.959749918906631
 30
0.0
 42
-0.4142135623730951
  0
VERTEX
  5
F2E
  8
SAPA_PROFIL
 10
51.329418158686387
 20
53.259749918906692
 30
0.0
  0
VERTEX
  5
F2F
  8
SAPA_PROFIL
 10
51.329418158686387
 20
56.65974991890667
 30
0.0
 42
0.4142135623730951
  0
VERTEX
  5
F30
  8
SAPA_PROFIL
 10
51.02941815868644
 20
56.959749918906617
 30
0.0
  0
VERTEX
  5
F31
  8
SAPA_PROFIL
 10
49.429418158686531
 20
56.959749918906738
 30
0.0
 42
0.4142135623730951
  0
VERTEX
  5
F32
  8
SAPA_PROFIL
 10
49.129418158686462
 20
56.65974991890667
 30
0.0
  0
VERTEX
  5
F33
  8
SAPA_PROFIL
 10
49.129418158686462
 20
52.059749918906647
 30
0.0
 42
-0.4142135623730951
  0
VERTEX
  5
F34
  8
SAPA_PROFIL
 10
48.829418158686387
 20
51.759749918906692
 30
0.0
  0
VERTEX
  5
F35
  8
SAPA_PROFIL
 10
14.629418158686461
 20
51.759749918906692
 30
0.0
 42
-0.4142135623730951
  0
VERTEX
  5
F36
  8
SAPA_PROFIL
 10
14.329418158686391
 20
52.059749918906647
 30
0.0
  0
VERTEX
  5
F37
  8
SAPA_PROFIL
 10
14.329418158686391
 20
56.65974991890667
 30
0.0
 42
0.4142135623730951
  0
VERTEX
  5
F38
  8
SAPA_PROFIL
 10
14.02941815868644
 20
56.959749918906738
 30
0.0
  0
VERTEX
  5
F39
  8
SAPA_PROFIL
 10
12.429418158686531
 20
56.959749918906617
 30
0.0
 42
0.4142135623730951
  0
VERTEX
  5
F3A
  8
SAPA_PROFIL
 10
12.129418158686461
 20
56.65974991890667
 30
0.0
  0
VERTEX
  5
F3B
  8
SAPA_PROFIL
 10
12.129418158686461
 20
53.259749918906692
 30
0.0
 42
-0.4142135623730951
  0
VERTEX
  5
F3C
  8
SAPA_PROFIL
 10
11.829418158686391
 20
52.959749918906631
 30
0.0
  0
VERTEX
  5
F3D
  8
SAPA_PROFIL
 10
5.0294181586864388
 20
52.959749918906631
 30
0.0
 42
-0.4142135623730951
  0
VERTEX
  5
F3E
  8
SAPA_PROFIL
 10
4.7294181586864852
 20
53.259749918906692
 30
0.0
  0
VERTEX
  5
F3F
  8
SAPA_PROFIL
 10
4.7294181586864852
 20
130.25974991890669
 30
0.0
  0
VERTEX
  5
F40
  8
SAPA_PROFIL
 10
8.1415501930424625
 20
133.67188195326261
 30
0.0
 42
-0.1989123673797207
  0
VERTEX
  5
F41
  8
SAPA_PROFIL
 10
8.3536822273983944
 20
133.75974991890669
 30
0.0
  0
VERTEX
  5
F42
  8
SAPA_PROFIL
 10
11.829418158686391
 20
133.75974991890669
 30
0.0
 42
-0.4142135623730951
  0
VERTEX
  5
F43
  8
SAPA_PROFIL
 10
12.129418158686461
 20
133.4597499189066
 30
0.0
  0
VERTEX
  5
F44
  8
SAPA_PROFIL
 10
12.129418158686461
 20
126.0597499189066
 30
0.0
 42
0.4142135623730951
  0
VERTEX
  5
F45
  8
SAPA_PROFIL
 10
12.429418158686531
 20
125.75974991890671
 30
0.0
  0
VERTEX
  5
F46
  8
SAPA_PROFIL
 10
14.02941815868644
 20
125.75974991890671
 30
0.0
 42
0.4142135623730951
  0
VERTEX
  5
F47
  8
SAPA_PROFIL
 10
14.329418158686391
 20
126.0597499189066
 30
0.0
  0
VERTEX
  5
F48
  8
SAPA_PROFIL
 10
14.329418158686391
 20
134.4597499189066
 30
0.0
 42
-0.4142135623730951
  0
VERTEX
  5
F49
  8
SAPA_PROFIL
 10
14.629418158686461
 20
134.75974991890669
 30
0.0
  0
VERTEX
  5
F4A
  8
SAPA_PROFIL
 10
27.429418158686531
 20
134.75974991890669
 30
0.0
 42
-0.4142135623730951
  0
VERTEX
  5
F4B
  8
SAPA_PROFIL
 10
27.729418158686482
 20
134.4597499189066
 30
0.0
  0
VERTEX
  5
F4C
  8
SAPA_PROFIL
 10
27.729418158686482
 20
130.4597499189066
 30
0.0
 42
0.6681786379192989
  0
VERTEX
  5
F4D
  8
SAPA_PROFIL
 10
28.582971549279819
 20
130.1061965283134
 30
0.0
  0
VERTEX
  5
F4E
  8
SAPA_PROFIL
 10
29.729418158686489
 20
131.25264313771959
 30
0.0
  0
SEQEND
  5
F4F
  8
SAPA_PROFIL
  0
POLYLINE
  5
A74
  8
SAPA_PROFIL
 66
     1
 10
0.0
 20
0.0
 30
0.0
 70
     1
  0
VERTEX
  5
F50
  8
SAPA_PROFIL
 10
1.729418158686485
 20
45.002390606025671
 30
0.0
 42
0.1989123673796595
  0
VERTEX
  5
F51
  8
SAPA_PROFIL
 10
2.608097815126825
 20
42.881070262466011
 30
0.0
  0
VERTEX
  5
F52
  8
SAPA_PROFIL
 10
5.4365249398724691
 20
40.052643137719571
 30
0.0
 42
0.1989123673796811
  0
VERTEX
  5
F53
  8
SAPA_PROFIL
 10
6.1436317210594771
 20
39.759749918906692
 30
0.0
  0
VERTEX
  5
F54
  8
SAPA_PROFIL
 10
8.529418158686326
 20
39.759749918906238
 30
0.0
 42
0.2504916501726618
  0
VERTEX
  5
F55
  8
SAPA_PROFIL
 10
9.5294181586865534
 20
40.759749918906692
 30
0.0
  0
VERTEX
  5
F56
  8
SAPA_PROFIL
 10
9.5294181586866671
 20
41.459749918906617
 30
0.0
 42
0.4142135623730951
  0
VERTEX
  5
F57
  8
SAPA_PROFIL
 10
9.2294181586865989
 20
41.759749918906692
 30
0.0
  0
VERTEX
  5
F58
  8
SAPA_PROFIL
 10
8.7794181586865534
 20
41.759749918906692
 30
0.0
 42
-0.4142135623730951
  0
VERTEX
  5
F59
  8
SAPA_PROFIL
 10
8.4794181586865989
 20
42.059749918906647
 30
0.0
  0
VERTEX
  5
F5A
  8
SAPA_PROFIL
 10
8.4794181586865989
 20
42.759749918906579
 30
0.0
 42
-0.4142135623731506
  0
VERTEX
  5
F5B
  8
SAPA_PROFIL
 10
8.7794181586865534
 20
43.05974991890664
 30
0.0
  0
VERTEX
  5
F5C
  8
SAPA_PROFIL
 10
9.2294181586865989
 20
43.05974991890664
 30
0.0
 42
0.4142135623731506
  0
VERTEX
  5
F5D
  8
SAPA_PROFIL
 10
9.5294181586865534
 20
43.359749918906601
 30
0.0
  0
VERTEX
  5
F5E
  8
SAPA_PROFIL
 10
9.5294181586866671
 20
43.859749918906601
 30
0.0
 42
0.4142135623730951
  0
VERTEX
  5
F5F
  8
SAPA_PROFIL
 10
9.0294181586866671
 20
44.359749918906601
 30
0.0
  0
VERTEX
  5
F60
  8
SAPA_PROFIL
 10
7.6294181586866889
 20
44.359749918906601
 30
0.0
 42
-0.4142135623730951
  0
VERTEX
  5
F61
  8
SAPA_PROFIL
 10
6.6294181586866889
 20
45.359749918906601
 30
0.0
  0
VERTEX
  5
F62
  8
SAPA_PROFIL
 10
6.6294181586865761
 20
45.759749918906692
 30
0.0
 42
-0.9999999999999998
  0
VERTEX
  5
F63
  8
SAPA_PROFIL
 10
13.82941815868662
 20
45.759749918906692
 30
0.0
  0
VERTEX
  5
F64
  8
SAPA_PROFIL
 10
13.829418158686851
 20
44.659749918906549
 30
0.0
 42
-0.4142135623732059
  0
VERTEX
  5
F65
  8
SAPA_PROFIL
 10
13.529418158686671
 20
44.359749918906481
 30
0.0
  0
VERTEX
  5
F66
  8
SAPA_PROFIL
 10
13.229418158686711
 20
44.359749918906708
 30
0.0
 42
0.4142135623733948
  0
VERTEX
  5
F67
  8
SAPA_PROFIL
 10
12.72941815868648
 20
43.859749918906601
 30
0.0
  0
VERTEX
  5
F68
  8
SAPA_PROFIL
 10
12.72941815868648
 20
43.359749918906601
 30
0.0
 42
0.4142135623730397
  0
VERTEX
  5
F69
  8
SAPA_PROFIL
 10
13.02941815868644
 20
43.05974991890664
 30
0.0
  0
VERTEX
  5
F6A
  8
SAPA_PROFIL
 10
13.479418158686601
 20
43.05974991890664
 30
0.0
 42
-0.4142135623731505
  0
VERTEX
  5
F6B
  8
SAPA_PROFIL
 10
13.77941815868655
 20
42.759749918906579
 30
0.0
  0
VERTEX
  5
F6C
  8
SAPA_PROFIL
 10
13.77941815868666
 20
42.059749918906647
 30
0.0
 42
-0.4142135623730951
  0
VERTEX
  5
F6D
  8
SAPA_PROFIL
 10
13.479418158686601
 20
41.759749918906692
 30
0.0
  0
VERTEX
  5
F6E
  8
SAPA_PROFIL
 10
13.02941815868644
 20
41.759749918906692
 30
0.0
 42
0.4142135623730951
  0
VERTEX
  5
F6F
  8
SAPA_PROFIL
 10
12.72941815868648
 20
41.459749918906617
 30
0.0
  0
VERTEX
  5
F70
  8
SAPA_PROFIL
 10
12.72941815868694
 20
40.759749918906238
 30
0.0
 42
0.2504916501726643
  0
VERTEX
  5
F71
  8
SAPA_PROFIL
 10
13.72941815868591
 20
39.759749918906238
 30
0.0
  0
VERTEX
  5
F72
  8
SAPA_PROFIL
 10
16.02941815868644
 20
39.759749918906692
 30
0.0
 42
0.4142135623730951
  0
VERTEX
  5
F73
  8
SAPA_PROFIL
 10
17.02941815868644
 20
40.759749918906692
 30
0.0
  0
VERTEX
  5
F74
  8
SAPA_PROFIL
 10
17.02941815868644
 20
48.459749918906617
 30
0.0
 42
-0.4142135623730951
  0
VERTEX
  5
F75
  8
SAPA_PROFIL
 10
17.329418158686391
 20
48.759749918906692
 30
0.0
  0
VERTEX
  5
F76
  8
SAPA_PROFIL
 10
30.863392754901501
 20
48.759749918906692
 30
0.0
  0
VERTEX
  5
F77
  8
SAPA_PROFIL
 10
31.729418158686489
 20
49.259749918906692
 30
0.0
  0
VERTEX
  5
F78
  8
SAPA_PROFIL
 10
32.59544356247045
 20
48.759749918906692
 30
0.0
  0
VERTEX
  5
F79
  8
SAPA_PROFIL
 10
46.129418158686462
 20
48.759749918906692
 30
0.0
 42
-0.4142135623730951
  0
VERTEX
  5
F7A
  8
SAPA_PROFIL
 10
46.429418158686531
 20
48.459749918906617
 30
0.0
  0
VERTEX
  5
F7B
  8
SAPA_PROFIL
 10
46.429418158686531
 20
40.759749918906692
 30
0.0
 42
0.4142135623730951
  0
VERTEX
  5
F7C
  8
SAPA_PROFIL
 10
47.429418158686531
 20
39.759749918906692
 30
0.0
  0
VERTEX
  5
F7D
  8
SAPA_PROFIL
 10
49.729418158686478
 20
39.759749918906692
 30
0.0
 42
0.2504916501726643
  0
VERTEX
  5
F7E
  8
SAPA_PROFIL
 10
50.72941815868603
 20
40.759749918906238
 30
0.0
  0
VERTEX
  5
F7F
  8
SAPA_PROFIL
 10
50.729418158686492
 20
41.459749918906617
 30
0.0
 42
0.4142135623730951
  0
VERTEX
  5
F80
  8
SAPA_PROFIL
 10
50.429418158686531
 20
41.759749918906692
 30
0.0
  0
VERTEX
  5
F81
  8
SAPA_PROFIL
 10
49.979418158686371
 20
41.759749918906692
 30
0.0
 42
-0.4142135623730951
  0
VERTEX
  5
F82
  8
SAPA_PROFIL
 10
49.67941815868631
 20
42.059749918906647
 30
0.0
  0
VERTEX
  5
F83
  8
SAPA_PROFIL
 10
49.67941815868641
 20
42.759749918906579
 30
0.0
 42
-0.4142135623731506
  0
VERTEX
  5
F84
  8
SAPA_PROFIL
 10
49.979418158686371
 20
43.05974991890664
 30
0.0
  0
VERTEX
  5
F85
  8
SAPA_PROFIL
 10
50.429418158686531
 20
43.05974991890664
 30
0.0
 42
0.4142135623730397
  0
VERTEX
  5
F86
  8
SAPA_PROFIL
 10
50.729418158686492
 20
43.359749918906601
 30
0.0
  0
VERTEX
  5
F87
  8
SAPA_PROFIL
 10
50.729418158686492
 20
43.859749918906601
 30
0.0
 42
0.4142135623733948
  0
VERTEX
  5
F88
  8
SAPA_PROFIL
 10
50.229418158686258
 20
44.359749918906708
 30
0.0
  0
VERTEX
  5
F89
  8
SAPA_PROFIL
 10
49.929418158686303
 20
44.359749918906481
 30
0.0
 42
-0.4142135623732059
  0
VERTEX
  5
F8A
  8
SAPA_PROFIL
 10
49.629418158686121
 20
44.659749918906549
 30
0.0
  0
VERTEX
  5
F8B
  8
SAPA_PROFIL
 10
49.629418158686349
 20
45.759749918906692
 30
0.0
 42
-0.9999999999999998
  0
VERTEX
  5
F8C
  8
SAPA_PROFIL
 10
56.829418158686387
 20
45.759749918906692
 30
0.0
  0
VERTEX
  5
F8D
  8
SAPA_PROFIL
 10
56.829418158686281
 20
45.359749918906601
 30
0.0
 42
-0.4142135623730951
  0
VERTEX
  5
F8E
  8
SAPA_PROFIL
 10
55.829418158686281
 20
44.359749918906601
 30
0.0
  0
VERTEX
  5
F8F
  8
SAPA_PROFIL
 10
54.429418158686303
 20
44.359749918906601
 30
0.0
 42
0.4142135623730951
  0
VERTEX
  5
F90
  8
SAPA_PROFIL
 10
53.929418158686303
 20
43.859749918906601
 30
0.0
  0
VERTEX
  5
F91
  8
SAPA_PROFIL
 10
53.929418158686417
 20
43.359749918906601
 30
0.0
 42
0.4142135623731506
  0
VERTEX
  5
F92
  8
SAPA_PROFIL
 10
54.229418158686371
 20
43.05974991890664
 30
0.0
  0
VERTEX
  5
F93
  8
SAPA_PROFIL
 10
54.67941815868641
 20
43.05974991890664
 30
0.0
 42
-0.4142135623731505
  0
VERTEX
  5
F94
  8
SAPA_PROFIL
 10
54.979418158686371
 20
42.759749918906579
 30
0.0
  0
VERTEX
  5
F95
  8
SAPA_PROFIL
 10
54.979418158686371
 20
42.059749918906647
 30
0.0
 42
-0.4142135623730951
  0
VERTEX
  5
F96
  8
SAPA_PROFIL
 10
54.67941815868641
 20
41.759749918906692
 30
0.0
  0
VERTEX
  5
F97
  8
SAPA_PROFIL
 10
54.229418158686371
 20
41.759749918906692
 30
0.0
 42
0.4142135623730951
  0
VERTEX
  5
F98
  8
SAPA_PROFIL
 10
53.929418158686303
 20
41.459749918906617
 30
0.0
  0
VERTEX
  5
F99
  8
SAPA_PROFIL
 10
53.929418158686417
 20
40.759749918906692
 30
0.0
 42
0.2504916501726621
  0
VERTEX
  5
F9A
  8
SAPA_PROFIL
 10
54.929418158686651
 20
39.759749918906238
 30
0.0
  0
VERTEX
  5
F9B
  8
SAPA_PROFIL
 10
57.315204596313379
 20
39.759749918906692
 30
0.0
 42
0.1989123673796728
  0
VERTEX
  5
F9C
  8
SAPA_PROFIL
 10
58.022311377499932
 20
40.052643137720018
 30
0.0
  0
VERTEX
  5
F9D
  8
SAPA_PROFIL
 10
60.850738502245463
 20
42.881070262466693
 30
0.0
 42
0.1989123673796584
  0
VERTEX
  5
F9E
  8
SAPA_PROFIL
 10
61.729418158686478
 20
45.002390606025671
 30
0.0
  0
VERTEX
  5
F9F
  8
SAPA_PROFIL
 10
61.729418158686478
 20
51.754417030087467
 30
0.0
  0
VERTEX
  5
FA0
  8
SAPA_PROFIL
 10
61.729418158686478
 20
132.51710923178661
 30
0.0
 42
0.1989123673796596
  0
VERTEX
  5
FA1
  8
SAPA_PROFIL
 10
60.850738502245463
 20
134.63842957534661
 30
0.0
  0
VERTEX
  5
FA2
  8
SAPA_PROFIL
 10
58.022311377500053
 20
137.46685670009319
 30
0.0
 42
0.1989123673796371
  0
VERTEX
  5
FA3
  8
SAPA_PROFIL
 10
57.315204596313492
 20
137.75974991890661
 30
0.0
  0
VERTEX
  5
FA4
  8
SAPA_PROFIL
 10
54.229418158686478
 20
137.75974991890661
 30
0.0
  0
VERTEX
  5
FA5
  8
SAPA_PROFIL
 10
53.229418158686492
 20
136.75974991890661
 30
0.0
  0
VERTEX
  5
FA6
  8
SAPA_PROFIL
 10
53.229418158686492
 20
136.05974991890659
 30
0.0
 42
0.4142135623730951
  0
VERTEX
  5
FA7
  8
SAPA_PROFIL
 10
53.52941815868644
 20
135.75974991890661
 30
0.0
  0
VERTEX
  5
FA8
  8
SAPA_PROFIL
 10
55.279418158686433
 20
135.75974991890661
 30
0.0
 42
-0.4142135623730951
  0
VERTEX
  5
FA9
  8
SAPA_PROFIL
 10
55.579418158686387
 20
135.4597499189066
 30
0.0
  0
VERTEX
  5
FAA
  8
SAPA_PROFIL
 10
55.579418158686387
 20
133.00974991890661
 30
0.0
 42
-0.4142135623730951
  0
VERTEX
  5
FAB
  8
SAPA_PROFIL
 10
55.279418158686433
 20
132.7097499189066
 30
0.0
  0
VERTEX
  5
FAC
  8
SAPA_PROFIL
 10
37.179418158686531
 20
132.7097499189066
 30
0.0
 42
-0.4142135623730951
  0
VERTEX
  5
FAD
  8
SAPA_PROFIL
 10
36.879418158686462
 20
133.00974991890661
 30
0.0
  0
VERTEX
  5
FAE
  8
SAPA_PROFIL
 10
36.879418158686462
 20
135.4597499189066
 30
0.0
 42
-0.4142135623730951
  0
VERTEX
  5
FAF
  8
SAPA_PROFIL
 10
37.179418158686531
 20
135.75974991890661
 30
0.0
  0
VERTEX
  5
FB0
  8
SAPA_PROFIL
 10
38.929418158686531
 20
135.75974991890661
 30
0.0
 42
0.4142135623730951
  0
VERTEX
  5
FB1
  8
SAPA_PROFIL
 10
39.229418158686492
 20
136.05974991890659
 30
0.0
  0
VERTEX
  5
FB2
  8
SAPA_PROFIL
 10
39.229418158686492
 20
136.75974991890661
 30
0.0
  0
VERTEX
  5
FB3
  8
SAPA_PROFIL
 10
38.229418158686492
 20
137.75974991890661
 30
0.0
  0
VERTEX
  5
FB4
  8
SAPA_PROFIL
 10
32.59544356247045
 20
137.75974991890661
 30
0.0
  0
VERTEX
  5
FB5
  8
SAPA_PROFIL
 10
31.729418158686489
 20
137.25974991890661
 30
0.0
  0
VERTEX
  5
FB6
  8
SAPA_PROFIL
 10
30.863392754901501
 20
137.75974991890661
 30
0.0
  0
VERTEX
  5
FB7
  8
SAPA_PROFIL
 10
11.72941815868648
 20
137.75974991890669
 30
0.0
 42
-0.4142135623730951
  0
VERTEX
  5
FB8
  8
SAPA_PROFIL
 10
10.72941815868648
 20
138.75974991890669
 30
0.0
  0
VERTEX
  5
FB9
  8
SAPA_PROFIL
 10
10.72941815868648
 20
147.99483885483869
 30
0.0
 42
-0.3475404855922902
  0
VERTEX
  5
FBA
  8
SAPA_PROFIL
 10
10.960187389455649
 20
148.28674140808499
 30
0.0
 42
0.347540485592353
  0
VERTEX
  5
FBB
  8
SAPA_PROFIL
 10
11.72941815868648
 20
149.25974991890669
 30
0.0
  0
VERTEX
  5
FBC
  8
SAPA_PROFIL
 10
11.72941815868648
 20
149.8272943868686
 30
0.0
 42
0.2896898633048417
  0
VERTEX
  5
FBD
  8
SAPA_PROFIL
 10
11.15798958725099
 20
150.7308022897771
 30
0.0
 42
0.5507604245820768
  0
VERTEX
  5
FBE
  8
SAPA_PROFIL
 10
10.729418158691489
 20
150.4597499189106
 30
0.0
  0
VERTEX
  5
FBF
  8
SAPA_PROFIL
 10
10.729418158687389
 20
149.8097499189046
 30
0.0
 42
-0.4142135623714856
  0
VERTEX
  5
FC0
  8
SAPA_PROFIL
 10
10.42941815868744
 20
149.50974991890669
 30
0.0
  0
VERTEX
  5
FC1
  8
SAPA_PROFIL
 10
9.0294181586864397
 20
149.50974991890669
 30
0.0
 42
-0.4142135623730951
  0
VERTEX
  5
FC2
  8
SAPA_PROFIL
 10
8.7294181586864852
 20
149.80974991890659
 30
0.0
  0
VERTEX
  5
FC3
  8
SAPA_PROFIL
 10
8.7294181586864852
 20
158.2097499189066
 30
0.0
 42
-0.4142135623730951
  0
VERTEX
  5
FC4
  8
SAPA_PROFIL
 10
9.0294181586864397
 20
158.50974991890661
 30
0.0
  0
VERTEX
  5
FC5
  8
SAPA_PROFIL
 10
10.429418158686531
 20
158.50974991890669
 30
0.0
 42
-0.4142135623730951
  0
VERTEX
  5
FC6
  8
SAPA_PROFIL
 10
10.72941815868648
 20
158.2097499189066
 30
0.0
  0
VERTEX
  5
FC7
  8
SAPA_PROFIL
 10
10.729418158687389
 20
157.55974991890659
 30
0.0
  0
VERTEX
  5
FC8
  8
SAPA_PROFIL
 10
10.72941815868648
 20
157.55974991890261
 30
0.0
 42
0.5507604245871307
  0
VERTEX
  5
FC9
  8
SAPA_PROFIL
 10
11.15798958725963
 20
157.28869754803529
 30
0.0
 42
0.2896898633034174
  0
VERTEX
  5
FCA
  8
SAPA_PROFIL
 10
11.72941815868648
 20
158.19220545094461
 30
0.0
  0
VERTEX
  5
FCB
  8
SAPA_PROFIL
 10
11.72941815868648
 20
159.4597499189066
 30
0.0
 42
0.4142135623730951
  0
VERTEX
  5
FCC
  8
SAPA_PROFIL
 10
11.429418158686531
 20
159.75974991890669
 30
0.0
  0
VERTEX
  5
FCD
  8
SAPA_PROFIL
 10
7.2294181586864852
 20
159.75974991890669
 30
0.0
 42
0.4142135623730951
  0
VERTEX
  5
FCE
  8
SAPA_PROFIL
 10
6.2294181586864852
 20
158.75974991890669
 30
0.0
  0
VERTEX
  5
FCF
  8
SAPA_PROFIL
 10
6.2294181586864852
 20
139.50239060602561
 30
0.0
 42
-0.1989123673796595
  0
VERTEX
  5
FD0
  8
SAPA_PROFIL
 10
5.350738502246144
 20
137.38107026246601
 30
0.0
  0
VERTEX
  5
FD1
  8
SAPA_PROFIL
 10
2.608097815126484
 20
134.63842957534669
 30
0.0
 42
0.1989123673796601
  0
VERTEX
  5
FD2
  8
SAPA_PROFIL
 10
1.729418158686485
 20
132.51710923178669
 30
0.0
  0
SEQEND
  5
FD3
  8
SAPA_PROFIL
  0
POLYLINE
  5
A75
  8
SAPA_PROFIL
 66
     1
 10
0.0
 20
0.0
 30
0.0
  0
VERTEX
  5
FD4
  8
SAPA_PROFIL
 10
40.907862978053153
 20
140.63848684045851
 30
0.0
  0
VERTEX
  5
FD5
  8
SAPA_PROFIL
 10
40.226823044194838
 20
157.75974991890891
 30
0.0
 42
-0.4142135623730951
  0
VERTEX
  5
FD6
  8
SAPA_PROFIL
 10
40.726823044194838
 20
158.2597499189088
 30
0.0
  0
VERTEX
  5
FD7
  8
SAPA_PROFIL
 10
52.526436527203572
 20
158.2597499189088
 30
0.0
 42
-0.4076767287637263
  0
VERTEX
  5
FD8
  8
SAPA_PROFIL
 10
55.525686359593116
 20
155.32685356809191
 30
0.0
  0
VERTEX
  5
FD9
  8
SAPA_PROFIL
 10
55.680125581703919
 20
140.63848684045851
 30
0.0
 42
-0.4182129759575463
  0
VERTEX
  5
FDA
  8
SAPA_PROFIL
 10
55.184613860846753
 20
140.12732572840301
 30
0.0
  0
VERTEX
  5
FDB
  8
SAPA_PROFIL
 10
52.709966104727393
 20
140.11449812687729
 30
0.0
  0
VERTEX
  5
FDC
  8
SAPA_PROFIL
 10
51.083908148533823
 20
138.4598095292535
 30
0.0
  0
VERTEX
  5
FDD
  8
SAPA_PROFIL
 10
51.083908148533823
 20
133.91073349496531
 30
0.0
 42
0.4293387945586749
  0
VERTEX
  5
FDE
  8
SAPA_PROFIL
 10
51.40201928452317
 20
133.61400697388081
 30
0.0
  0
VERTEX
  5
FDF
  8
SAPA_PROFIL
 10
52.483475009793629
 20
133.6866466500085
 30
0.0
 42
0.4883397947196161
  0
VERTEX
  5
FE0
  8
SAPA_PROFIL
 10
52.262852075595411
 20
135.24836847601691
 30
0.0
  0
VERTEX
  5
FE1
  8
SAPA_PROFIL
 10
52.262852075595411
 20
137.94744975205131
 30
0.0
  0
VERTEX
  5
FE2
  8
SAPA_PROFIL
 10
53.217475295793292
 20
138.9188813984274
 30
0.0
  0
VERTEX
  5
FE3
  8
SAPA_PROFIL
 10
55.716601438678367
 20
138.9188813984274
 30
0.0
  0
VERTEX
  5
FE4
  8
SAPA_PROFIL
 10
55.716601438678367
 20
138.44510573191249
 30
0.0
  0
VERTEX
  5
FE5
  8
SAPA_PROFIL
 10
57.229418158686599
 20
138.44510573191249
 30
0.0
  0
VERTEX
  5
FE6
  8
SAPA_PROFIL
 10
57.229418158686713
 20
159.4623906256009
 30
0.0
 42
0.4116378201539302
  0
VERTEX
  5
FE7
  8
SAPA_PROFIL
 10
56.929429681016359
 20
159.7597499189088
 30
0.0
  0
VERTEX
  5
FE8
  8
SAPA_PROFIL
 10
28.52682304419486
 20
159.75974991890891
 30
0.0
 42
0.414213562373095
  0
VERTEX
  5
FE9
  8
SAPA_PROFIL
 10
28.226823044194791
 20
159.45974991890881
 30
0.0
  0
VERTEX
  5
FEA
  8
SAPA_PROFIL
 10
28.226823044194852
 20
158.24974991890889
 30
0.0
 42
0.4142135623731037
  0
VERTEX
  5
FEB
  8
SAPA_PROFIL
 10
29.2168230441948
 20
157.25974991890891
 30
0.0
  0
VERTEX
  5
FEC
  8
SAPA_PROFIL
 10
29.226823044194852
 20
157.25974991890891
 30
0.0
  0
VERTEX
  5
FED
  8
SAPA_PROFIL
 10
29.226823044194852
 20
158.50974991890891
 30
0.0
  0
VERTEX
  5
FEE
  8
SAPA_PROFIL
 10
30.726823044194852
 20
158.50974991890891
 30
0.0
 42
-0.4142135623730951
  0
VERTEX
  5
FEF
  8
SAPA_PROFIL
 10
31.226823044194841
 20
158.00974991890891
 30
0.0
  0
VERTEX
  5
FF0
  8
SAPA_PROFIL
 10
31.226823044194841
 20
150.0097499189088
 30
0.0
 42
-0.4142135623730951
  0
VERTEX
  5
FF1
  8
SAPA_PROFIL
 10
30.726823044194852
 20
149.50974991890891
 30
0.0
  0
VERTEX
  5
FF2
  8
SAPA_PROFIL
 10
29.226823044194852
 20
149.50974991890891
 30
0.0
  0
VERTEX
  5
FF3
  8
SAPA_PROFIL
 10
29.226823044194852
 20
150.7597499189088
 30
0.0
  0
VERTEX
  5
FF4
  8
SAPA_PROFIL
 10
29.2168230441948
 20
150.7597499189088
 30
0.0
 42
0.414213562373095
  0
VERTEX
  5
FF5
  8
SAPA_PROFIL
 10
28.226823044194791
 20
149.76974991890879
 30
0.0
  0
VERTEX
  5
FF6
  8
SAPA_PROFIL
 10
28.226823044194852
 20
149.25974991890891
 30
0.0
 42
0.4142135623730953
  0
VERTEX
  5
FF7
  8
SAPA_PROFIL
 10
29.226823044194852
 20
148.25974991890891
 30
0.0
  0
VERTEX
  5
FF8
  8
SAPA_PROFIL
 10
30.726823044194852
 20
148.25974991890891
 30
0.0
 42
0.4142135623730951
  0
VERTEX
  5
FF9
  8
SAPA_PROFIL
 10
32.42682304419484
 20
149.95974991890881
 30
0.0
  0
VERTEX
  5
FFA
  8
SAPA_PROFIL
 10
32.42682304419489
 20
157.75974991890891
 30
0.0
 42
-0.414213562373095
  0
VERTEX
  5
FFB
  8
SAPA_PROFIL
 10
32.92682304419489
 20
158.2597499189088
 30
0.0
  0
VERTEX
  5
FFC
  8
SAPA_PROFIL
 10
38.42682304419489
 20
158.2597499189088
 30
0.0
 42
-0.4142135623730951
  0
VERTEX
  5
FFD
  8
SAPA_PROFIL
 10
38.92682304419489
 20
157.75974991890891
 30
0.0
  0
VERTEX
  5
FFE
  8
SAPA_PROFIL
 10
39.598032690661199
 20
140.63848684045851
 30
0.0
  0
VERTEX
  5
FFF
  8
SAPA_PROFIL
 10
40.254971141390541
 20
135.23554007670879
 30
0.0
 42
-0.4666505291506209
  0
VERTEX
  5
1000
  8
SAPA_PROFIL
 10
39.993139610345992
 20
134.9557385107901
 30
0.0
  0
VERTEX
  5
1001
  8
SAPA_PROFIL
 10
39.270483516787039
 20
134.99528140470841
 30
0.0
 42
0.7332303362618522
  0
VERTEX
  5
1002
  8
SAPA_PROFIL
 10
39.070308928216861
 20
134.4592053820561
 30
0.0
  0
VERTEX
  5
1003
  8
SAPA_PROFIL
 10
41.180416267754573
 20
133.6882952645517
 30
0.0
 42
0.668178637919333
  0
VERTEX
  5
1004
  8
SAPA_PROFIL
 10
41.66276411984537
 20
133.961461459746
 30
0.0
  0
VERTEX
  5
1005
  8
SAPA_PROFIL
 10
40.907862978053153
 20
140.63848684045851
 30
0.0
  0
VERTEX
  5
1006
  8
SAPA_PROFIL
 10
40.91739643021625
 20
140.63848684045851
 30
0.0
  0
SEQEND
  5
1007
  8
SAPA_PROFIL
  0
POLYLINE
  5
A83
  8
SAPA_GLAS
 66
     1
 10
0.0
 20
0.0
 30
0.0
 70
     1
  0
VERTEX
  5
1025
  8
SAPA_GLAS
 10
24.099227932426061
 20
137.76403312174969
 30
0.0
  0
VERTEX
  5
1026
  8
SAPA_GLAS
 10
37.199227932426083
 20
137.76403312174969
 30
0.0
  0
VERTEX
  5
1027
  8
SAPA_GLAS
 10
37.199227932426083
 20
138.76403312174969
 30
0.0
  0
VERTEX
  5
1028
  8
SAPA_GLAS
 10
25.099227932426061
 20
138.76403312174969
 30
0.0
  0
VERTEX
  5
1029
  8
SAPA_GLAS
 10
25.099227932426061
 20
150.76403312174969
 30
0.0
  0
VERTEX
  5
102A
  8
SAPA_GLAS
 10
24.099227932426061
 20
150.76403312174969
 30
0.0
  0
SEQEND
  5
102B
  8
SAPA_GLAS
  0
LINE
  5
A84
  8
SAPA_GLAS
 62
     1
 10
22.499227932426049
 20
153.31318627456639
 30
0.0
 11
22.499227932426042
 21
142.56403492056791
 31
0.0
  0
LINE
  5
A85
  8
SAPA_GLAS
 62
     1
 10
15.893810686297909
 20
142.56403492056791
 30
0.0
 11
15.89381068629792
 21
153.25523978926671
 31
0.0
  0
POLYLINE
  5
A86
  8
SAPA_GLAS
 62
     6
 66
     1
 10
0.0
 20
0.0
 30
0.0
 70
     1
  0
VERTEX
  5
102C
  8
SAPA_GLAS
 62
     6
 10
22.499227932426042
 20
138.75974992255451
 30
0.0
  0
VERTEX
  5
102D
  8
SAPA_GLAS
 62
     6
 10
22.499227932426042
 20
150.75974992255451
 30
0.0
  0
VERTEX
  5
102E
  8
SAPA_GLAS
 62
     6
 10
24.099227932426061
 20
150.75974992255451
 30
0.0
  0
VERTEX
  5
102F
  8
SAPA_GLAS
 62
     6
 10
24.099227932426061
 20
138.75974992255451
 30
0.0
  0
SEQEND
  5
1030
  8
SAPA_GLAS
 62
     6
  0
POLYLINE
  5
A87
  8
SAPA_GLAS
 62
     6
 66
     1
 10
0.0
 20
0.0
 30
0.0
 70
     1
  0
VERTEX
  5
1031
  8
SAPA_GLAS
 62
     6
 10
14.31446741754405
 20
138.75974992255451
 30
0.0
  0
VERTEX
  5
1032
  8
SAPA_GLAS
 62
     6
 10
14.31446741754405
 20
150.75974992255451
 30
0.0
  0
VERTEX
  5
1033
  8
SAPA_GLAS
 62
     6
 10
15.914467417544071
 20
150.75974992255451
 30
0.0
  0
VERTEX
  5
1034
  8
SAPA_GLAS
 62
     6
 10
15.914467417544071
 20
138.75974992255451
 30
0.0
  0
SEQEND
  5
1035
  8
SAPA_GLAS
 62
     6
  0
POLYLINE
  5
A88
  8
SAPA_GLAS
 66
     1
 10
0.0
 20
0.0
 30
0.0
 70
     1
  0
VERTEX
  5
1036
  8
SAPA_GLAS
 10
14.31446741754405
 20
138.75974992255451
 30
0.0
  0
VERTEX
  5
1037
  8
SAPA_GLAS
 10
37.714222304905661
 20
138.75974992255451
 30
0.0
  0
VERTEX
  5
1038
  8
SAPA_GLAS
 10
37.714222304905661
 20
137.75974992255451
 30
0.0
  0
VERTEX
  5
1039
  8
SAPA_GLAS
 10
13.31446741754405
 20
137.75974992255451
 30
0.0
  0
VERTEX
  5
103A
  8
SAPA_GLAS
 10
13.31446741754405
 20
150.75974992255451
 30
0.0
  0
VERTEX
  5
103B
  8
SAPA_GLAS
 10
14.31446741754405
 20
150.75974992255431
 30
0.0
  0
SEQEND
  5
103C
  8
SAPA_GLAS
  0
LINE
  5
A89
  8
SAPA_GLAS
 62
     1
 10
22.379227932426151
 20
142.76403492056789
 30
0.0
 11
15.893810686297909
 21
142.76403492056789
 31
0.0
  0
POLYLINE
  5
A8A
  8
SAPA_GLAS
 66
     1
 10
0.0
 20
0.0
 30
0.0
  0
VERTEX
  5
103D
  8
SAPA_GLAS
 10
22.196698093606319
 20
175.47629082644701
 30
0.0
  0
VERTEX
  5
103E
  8
SAPA_GLAS
 10
22.196698093606301
 20
142.9700097225541
 30
0.0
  0
VERTEX
  5
103F
  8
SAPA_GLAS
 10
16.196698093606301
 20
142.9700097225541
 30
0.0
  0
VERTEX
  5
1040
  8
SAPA_GLAS
 10
16.196698093606319
 20
175.47629082644701
 30
0.0
  0
SEQEND
  5
1041
  8
SAPA_GLAS
  0
LINE
  5
A8B
  8
SAPA_GLAS
  6
BYGG-022629$0$DASHDOT
 62
     2
 10
32.201340579304834
 20
132.45664310691859
 30
0.0
 11
32.201340579304834
 21
143.84140488493449
 31
0.0
  0
POLYLINE
  5
A98
  8
SAPA_FOGBAND
 66
     1
 10
0.0
 20
0.0
 30
0.0
 70
     1
  0
VERTEX
  5
10BA
  8
SAPA_FOGBAND
 10
10.72706054028342
 20
25.087448768483181
 30
0.0
  0
VERTEX
  5
10BB
  8
SAPA_FOGBAND
 10
10.56979922951709
 20
31.34396294911085
 30
0.0
 42
-0.1593733635673558
  0
VERTEX
  5
10BC
  8
SAPA_FOGBAND
 10
10.605468799805379
 20
31.463077312714411
 30
0.0
 42
0.5327880064124698
  0
VERTEX
  5
10BD
  8
SAPA_FOGBAND
 10
10.36411372751215
 20
32.081639058976187
 30
0.0
 42
-0.6764759177002223
  0
VERTEX
  5
10BE
  8
SAPA_FOGBAND
 10
9.3189733822895064
 20
38.494377803299201
 30
0.0
  0
VERTEX
  5
10BF
  8
SAPA_FOGBAND
 10
8.0746407946840932
 20
38.603242798370573
 30
0.0
 42
-0.3888787318529909
  0
VERTEX
  5
10C0
  8
SAPA_FOGBAND
 10
7.5269342403326851
 20
39.200959617225593
 30
0.0
  0
VERTEX
  5
10C1
  8
SAPA_FOGBAND
 10
7.5269342403326851
 20
39.497499838519232
 30
0.0
 42
-0.4142135623730951
  0
VERTEX
  5
10C2
  8
SAPA_FOGBAND
 10
7.7269342403327306
 20
39.697499838519207
 30
0.0
  0
VERTEX
  5
10C3
  8
SAPA_FOGBAND
 10
9.1269342403327087
 20
39.697499838519207
 30
0.0
 42
0.4142135623730951
  0
VERTEX
  5
10C4
  8
SAPA_FOGBAND
 10
9.6269342403327087
 20
40.197499838519207
 30
0.0
  0
VERTEX
  5
10C5
  8
SAPA_FOGBAND
 10
9.6269342403328224
 20
41.54403444092339
 30
0.0
 42
0.3394542588633722
  0
VERTEX
  5
10C6
  8
SAPA_FOGBAND
 10
9.4786980493532624
 20
41.73721960618122
 30
0.0
  0
VERTEX
  5
10C7
  8
SAPA_FOGBAND
 10
9.1751704313122442
 20
41.818549586315847
 30
0.0
 42
-0.4663076581549915
  0
VERTEX
  5
10C8
  8
SAPA_FOGBAND
 10
9.0456726829254208
 20
42.096258403921809
 30
0.0
  0
VERTEX
  5
10C9
  8
SAPA_FOGBAND
 10
9.5081957977400648
 20
43.088142424537473
 30
0.0
 42
0.1095178116832386
  0
VERTEX
  5
10CA
  8
SAPA_FOGBAND
 10
9.5269342403326842
 20
43.172666076885612
 30
0.0
  0
VERTEX
  5
10CB
  8
SAPA_FOGBAND
 10
9.5269342403326842
 20
44.2743569782075
 30
0.0
 42
0.3394542588634028
  0
VERTEX
  5
10CC
  8
SAPA_FOGBAND
 10
9.4528161448430197
 20
44.370949560836443
 30
0.0
  0
VERTEX
  5
10CD
  8
SAPA_FOGBAND
 10
9.2751704313122687
 20
44.418549586315812
 30
0.0
 42
-0.4663076581549915
  0
VERTEX
  5
10CE
  8
SAPA_FOGBAND
 10
9.1456726829254436
 20
44.696258403921782
 30
0.0
  0
VERTEX
  5
10CF
  8
SAPA_FOGBAND
 10
9.5081957977400648
 20
45.473691732486493
 30
0.0
 42
0.1095178116832386
  0
VERTEX
  5
10D0
  8
SAPA_FOGBAND
 10
9.5269342403326842
 20
45.558215384834632
 30
0.0
  0
VERTEX
  5
10D1
  8
SAPA_FOGBAND
 10
9.5269342403326842
 20
45.833733296402222
 30
0.0
 42
-0.0874886635259268
  0
VERTEX
  5
10D2
  8
SAPA_FOGBAND
 10
9.6475489987609322
 20
46.517773583053561
 30
0.0
  0
VERTEX
  5
10D3
  8
SAPA_FOGBAND
 10
9.9571916990446212
 20
47.36850991018207
 30
0.0
 42
-0.3152987888789804
  0
VERTEX
  5
10D4
  8
SAPA_FOGBAND
 10
10.427038009437609
 20
47.697499838519207
 30
0.0
  0
VERTEX
  5
10D5
  8
SAPA_FOGBAND
 10
11.826830471227909
 20
47.697499838519207
 30
0.0
 42
-0.3152987888789804
  0
VERTEX
  5
10D6
  8
SAPA_FOGBAND
 10
12.296676781620789
 20
47.36850991018202
 30
0.0
  0
VERTEX
  5
10D7
  8
SAPA_FOGBAND
 10
12.60631948190448
 20
46.517773583053561
 30
0.0
 42
-0.0874886635259269
  0
VERTEX
  5
10D8
  8
SAPA_FOGBAND
 10
12.72693424033273
 20
45.833733296402222
 30
0.0
  0
VERTEX
  5
10D9
  8
SAPA_FOGBAND
 10
12.72693424033273
 20
45.558215384834632
 30
0.0
 42
0.1095178116832386
  0
VERTEX
  5
10DA
  8
SAPA_FOGBAND
 10
12.745672682925459
 20
45.473691732486493
 30
0.0
  0
VERTEX
  5
10DB
  8
SAPA_FOGBAND
 10
13.10819579774008
 20
44.696258403921782
 30
0.0
 42
-0.4663076581549913
  0
VERTEX
  5
10DC
  8
SAPA_FOGBAND
 10
12.978698049353261
 20
44.418549586315812
 30
0.0
  0
VERTEX
  5
10DD
  8
SAPA_FOGBAND
 10
12.80105233582251
 20
44.370949560836443
 30
0.0
 42
0.3394542588634028
  0
VERTEX
  5
10DE
  8
SAPA_FOGBAND
 10
12.72693424033273
 20
44.2743569782075
 30
0.0
  0
VERTEX
  5
10DF
  8
SAPA_FOGBAND
 10
12.72693424033273
 20
43.172666076885612
 30
0.0
 42
0.1095178116832386
  0
VERTEX
  5
10E0
  8
SAPA_FOGBAND
 10
12.745672682925459
 20
43.088142424537473
 30
0.0
  0
VERTEX
  5
10E1
  8
SAPA_FOGBAND
 10
13.20819579774011
 20
42.096258403921809
 30
0.0
 42
-0.4663076581549913
  0
VERTEX
  5
10E2
  8
SAPA_FOGBAND
 10
13.07869804935317
 20
41.818549586315847
 30
0.0
  0
VERTEX
  5
10E3
  8
SAPA_FOGBAND
 10
12.77517043131227
 20
41.73721960618122
 30
0.0
 42
0.3394542588633723
  0
VERTEX
  5
10E4
  8
SAPA_FOGBAND
 10
12.626934240332711
 20
41.54403444092339
 30
0.0
  0
VERTEX
  5
10E5
  8
SAPA_FOGBAND
 10
12.626934240332711
 20
40.197499838519207
 30
0.0
 42
0.4142135623730951
  0
VERTEX
  5
10E6
  8
SAPA_FOGBAND
 10
13.126934240332711
 20
39.697499838519207
 30
0.0
  0
VERTEX
  5
10E7
  8
SAPA_FOGBAND
 10
14.526934240332681
 20
39.697499838519207
 30
0.0
 42
-0.4142135623730951
  0
VERTEX
  5
10E8
  8
SAPA_FOGBAND
 10
14.72693424033273
 20
39.497499838519232
 30
0.0
  0
VERTEX
  5
10E9
  8
SAPA_FOGBAND
 10
14.72693424033273
 20
39.200959617225593
 30
0.0
 42
-0.3888787318529909
  0
VERTEX
  5
10EA
  8
SAPA_FOGBAND
 10
14.179227685981321
 20
38.603242798370573
 30
0.0
  0
VERTEX
  5
10EB
  8
SAPA_FOGBAND
 10
12.934895098375909
 20
38.494377803299201
 30
0.0
 42
-0.6764759177002223
  0
VERTEX
  5
10EC
  8
SAPA_FOGBAND
 10
11.889754753153261
 20
32.081639058976187
 30
0.0
 42
0.5327880064123889
  0
VERTEX
  5
10ED
  8
SAPA_FOGBAND
 10
11.648399680860029
 20
31.463077312714521
 30
0.0
 42
-0.1593733635673034
  0
VERTEX
  5
10EE
  8
SAPA_FOGBAND
 10
11.684069251148321
 20
31.34396294911102
 30
0.0
  0
VERTEX
  5
10EF
  8
SAPA_FOGBAND
 10
11.526807940381991
 20
25.087448768483181
 30
0.0
 42
-0.9751802379498954
  0
SEQEND
  5
10F0
  8
SAPA_FOGBAND
  0
CIRCLE
  5
A99
  8
SAPA_FOGBAND
 10
11.126934240332711
 20
35.497499838519232
 30
0.0
 40
2.7999999999999989
  0
POLYLINE
  5
A9A
  8
SAPA_FOGBAND
 66
     1
 10
0.0
 20
0.0
 30
0.0
 70
     1
  0
VERTEX
  5
10F1
  8
SAPA_FOGBAND
 10
11.72693424033273
 20
42.397499838519202
 30
0.0
  0
VERTEX
  5
10F2
  8
SAPA_FOGBAND
 10
11.72693424033273
 20
45.997499838519218
 30
0.0
 42
0.9999999999999998
  0
VERTEX
  5
10F3
  8
SAPA_FOGBAND
 10
10.526934240332681
 20
45.997499838519218
 30
0.0
  0
VERTEX
  5
10F4
  8
SAPA_FOGBAND
 10
10.526934240332681
 20
42.397499838519202
 30
0.0
 42
0.9999999999999998
  0
SEQEND
  5
10F5
  8
SAPA_FOGBAND
  0
POLYLINE
  5
A9B
  8
SAPA_FOGBAND
 66
     1
 10
0.0
 20
0.0
 30
0.0
 70
     1
  0
VERTEX
  5
10F6
  8
SAPA_FOGBAND
 10
52.726807940382287
 20
25.087448768483181
 30
0.0
  0
VERTEX
  5
10F7
  8
SAPA_FOGBAND
 10
52.884069251148617
 20
31.34396294911085
 30
0.0
 42
0.1593733635673558
  0
VERTEX
  5
10F8
  8
SAPA_FOGBAND
 10
52.848399680860318
 20
31.463077312714411
 30
0.0
 42
-0.5327880064124698
  0
VERTEX
  5
10F9
  8
SAPA_FOGBAND
 10
53.089754753153557
 20
32.081639058976187
 30
0.0
 42
0.6764759177002223
  0
VERTEX
  5
10FA
  8
SAPA_FOGBAND
 10
54.134895098376212
 20
38.494377803299201
 30
0.0
  0
VERTEX
  5
10FB
  8
SAPA_FOGBAND
 10
55.379227685981618
 20
38.603242798370573
 30
0.0
 42
0.3888787318529909
  0
VERTEX
  5
10FC
  8
SAPA_FOGBAND
 10
55.926934240333033
 20
39.200959617225593
 30
0.0
  0
VERTEX
  5
10FD
  8
SAPA_FOGBAND
 10
55.926934240333033
 20
39.497499838519232
 30
0.0
 42
0.4142135623730951
  0
VERTEX
  5
10FE
  8
SAPA_FOGBAND
 10
55.72693424033298
 20
39.697499838519207
 30
0.0
  0
VERTEX
  5
10FF
  8
SAPA_FOGBAND
 10
54.326934240333003
 20
39.697499838519207
 30
0.0
 42
-0.4142135623730951
  0
VERTEX
  5
1100
  8
SAPA_FOGBAND
 10
53.826934240333003
 20
40.197499838519207
 30
0.0
  0
VERTEX
  5
1101
  8
SAPA_FOGBAND
 10
53.826934240332889
 20
41.54403444092339
 30
0.0
 42
-0.3394542588633722
  0
VERTEX
  5
1102
  8
SAPA_FOGBAND
 10
53.975170431312442
 20
41.73721960618122
 30
0.0
  0
VERTEX
  5
1103
  8
SAPA_FOGBAND
 10
54.278698049353473
 20
41.818549586315847
 30
0.0
 42
0.4663076581549915
  0
VERTEX
  5
1104
  8
SAPA_FOGBAND
 10
54.408195797740291
 20
42.096258403921809
 30
0.0
  0
VERTEX
  5
1105
  8
SAPA_FOGBAND
 10
53.945672682925647
 20
43.088142424537473
 30
0.0
 42
-0.1095178116832386
  0
VERTEX
  5
1106
  8
SAPA_FOGBAND
 10
53.926934240333033
 20
43.172666076885612
 30
0.0
  0
VERTEX
  5
1107
  8
SAPA_FOGBAND
 10
53.926934240333033
 20
44.2743569782075
 30
0.0
 42
-0.3394542588634028
  0
VERTEX
  5
1108
  8
SAPA_FOGBAND
 10
54.001052335822692
 20
44.370949560836443
 30
0.0
  0
VERTEX
  5
1109
  8
SAPA_FOGBAND
 10
54.178698049353443
 20
44.418549586315812
 30
0.0
 42
0.4663076581549915
  0
VERTEX
  5
110A
  8
SAPA_FOGBAND
 10
54.308195797740268
 20
44.696258403921782
 30
0.0
  0
VERTEX
  5
110B
  8
SAPA_FOGBAND
 10
53.945672682925647
 20
45.473691732486493
 30
0.0
 42
-0.1095178116832386
  0
VERTEX
  5
110C
  8
SAPA_FOGBAND
 10
53.926934240333033
 20
45.558215384834632
 30
0.0
  0
VERTEX
  5
110D
  8
SAPA_FOGBAND
 10
53.926934240333033
 20
45.833733296402222
 30
0.0
 42
0.0874886635259268
  0
VERTEX
  5
110E
  8
SAPA_FOGBAND
 10
53.806319481904779
 20
46.517773583053561
 30
0.0
  0
VERTEX
  5
110F
  8
SAPA_FOGBAND
 10
53.49667678162109
 20
47.36850991018207
 30
0.0
 42
0.3152987888789804
  0
VERTEX
  5
1110
  8
SAPA_FOGBAND
 10
53.026830471228088
 20
47.697499838519207
 30
0.0
  0
VERTEX
  5
1111
  8
SAPA_FOGBAND
 10
51.627038009437797
 20
47.697499838519207
 30
0.0
 42
0.3152987888789804
  0
VERTEX
  5
1112
  8
SAPA_FOGBAND
 10
51.157191699044908
 20
47.36850991018202
 30
0.0
  0
VERTEX
  5
1113
  8
SAPA_FOGBAND
 10
50.847548998761233
 20
46.517773583053561
 30
0.0
 42
0.0874886635259269
  0
VERTEX
  5
1114
  8
SAPA_FOGBAND
 10
50.72693424033298
 20
45.833733296402222
 30
0.0
  0
VERTEX
  5
1115
  8
SAPA_FOGBAND
 10
50.72693424033298
 20
45.558215384834632
 30
0.0
 42
-0.1095178116832386
  0
VERTEX
  5
1116
  8
SAPA_FOGBAND
 10
50.708195797740238
 20
45.473691732486493
 30
0.0
  0
VERTEX
  5
1117
  8
SAPA_FOGBAND
 10
50.345672682925617
 20
44.696258403921782
 30
0.0
 42
0.4663076581549913
  0
VERTEX
  5
1118
  8
SAPA_FOGBAND
 10
50.475170431312449
 20
44.418549586315812
 30
0.0
  0
VERTEX
  5
1119
  8
SAPA_FOGBAND
 10
50.6528161448432
 20
44.370949560836443
 30
0.0
 42
-0.3394542588634028
  0
VERTEX
  5
111A
  8
SAPA_FOGBAND
 10
50.72693424033298
 20
44.2743569782075
 30
0.0
  0
VERTEX
  5
111B
  8
SAPA_FOGBAND
 10
50.72693424033298
 20
43.172666076885612
 30
0.0
 42
-0.1095178116832386
  0
VERTEX
  5
111C
  8
SAPA_FOGBAND
 10
50.708195797740238
 20
43.088142424537473
 30
0.0
  0
VERTEX
  5
111D
  8
SAPA_FOGBAND
 10
50.245672682925601
 20
42.096258403921809
 30
0.0
 42
0.4663076581549913
  0
VERTEX
  5
111E
  8
SAPA_FOGBAND
 10
50.37517043131254
 20
41.818549586315847
 30
0.0
  0
VERTEX
  5
111F
  8
SAPA_FOGBAND
 10
50.67869804935345
 20
41.73721960618122
 30
0.0
 42
-0.3394542588633723
  0
VERTEX
  5
1120
  8
SAPA_FOGBAND
 10
50.826934240333003
 20
41.54403444092339
 30
0.0
  0
VERTEX
  5
1121
  8
SAPA_FOGBAND
 10
50.826934240333003
 20
40.197499838519207
 30
0.0
 42
-0.4142135623730951
  0
VERTEX
  5
1122
  8
SAPA_FOGBAND
 10
50.326934240333003
 20
39.697499838519207
 30
0.0
  0
VERTEX
  5
1123
  8
SAPA_FOGBAND
 10
48.926934240333033
 20
39.697499838519207
 30
0.0
 42
0.4142135623730951
  0
VERTEX
  5
1124
  8
SAPA_FOGBAND
 10
48.72693424033298
 20
39.497499838519232
 30
0.0
  0
VERTEX
  5
1125
  8
SAPA_FOGBAND
 10
48.72693424033298
 20
39.200959617225593
 30
0.0
 42
0.3888787318529909
  0
VERTEX
  5
1126
  8
SAPA_FOGBAND
 10
49.274640794684387
 20
38.603242798370573
 30
0.0
  0
VERTEX
  5
1127
  8
SAPA_FOGBAND
 10
50.518973382289801
 20
38.494377803299201
 30
0.0
 42
0.6764759177002223
  0
VERTEX
  5
1128
  8
SAPA_FOGBAND
 10
51.564113727512449
 20
32.081639058976187
 30
0.0
 42
-0.5327880064123889
  0
VERTEX
  5
1129
  8
SAPA_FOGBAND
 10
51.805468799805681
 20
31.463077312714521
 30
0.0
 42
0.1593733635673034
  0
VERTEX
  5
112A
  8
SAPA_FOGBAND
 10
51.769799229517389
 20
31.34396294911102
 30
0.0
  0
VERTEX
  5
112B
  8
SAPA_FOGBAND
 10
51.927060540283719
 20
25.087448768483181
 30
0.0
 42
0.9751802379498954
  0
SEQEND
  5
112C
  8
SAPA_FOGBAND
  0
CIRCLE
  5
A9C
  8
SAPA_FOGBAND
 10
52.326934240333003
 20
35.497499838519232
 30
0.0
 40
2.7999999999999989
  0
POLYLINE
  5
A9D
  8
SAPA_FOGBAND
 66
     1
 10
0.0
 20
0.0
 30
0.0
 70
     1
  0
VERTEX
  5
112D
  8
SAPA_FOGBAND
 10
51.72693424033298
 20
42.397499838519202
 30
0.0
  0
VERTEX
  5
112E
  8
SAPA_FOGBAND
 10
51.72693424033298
 20
45.997499838519218
 30
0.0
 42
-0.9999999999999998
  0
VERTEX
  5
112F
  8
SAPA_FOGBAND
 10
52.926934240333019
 20
45.997499838519218
 30
0.0
  0
VERTEX
  5
1130
  8
SAPA_FOGBAND
 10
52.926934240333019
 20
42.397499838519202
 30
0.0
 42
-0.9999999999999998
  0
SEQEND
  5
1131
  8
SAPA_FOGBAND
  0
INSERT
  5
A9E
  8
SAPA_FOGBAND
  2
BYGG-022629$0$18058
 10
25.08532460958709
 20
155.36265603982901
 30
0.0
 41
-1.0
 50
180.0
  0
INSERT
  5
A9F
  8
SAPA_FOGBAND
  2
BYGG-022629$0$18049
 10
11.798811279101731
 20
153.71306834694079
 30
0.0
 41
-1.0
 50
180.0
  0
DIMENSION
  5
AA6
  8
SAPA_MATT
  2
*D40
 10
-13.632447090313009
 20
24.709972931217809
 30
0.0
 11
-16.132447090313011
 21
32.209972931217813
 31
0.0
 70
     0
  1
10-15
 13
6.1411478027057447
 23
39.709972931217813
 33
0.0
 14
6.1411478027057438
 24
24.709972931217809
 34
0.0
 50
90.0
1001
ACAD
1000
DSTYLE
1002
{
1070
    40
1040
1.0
1002
}
  0
DIMENSION
  5
AA7
  8
SAPA_MATT
  2
*D39
 10
-13.683714873084419
 20
39.709972931217813
 30
0.0
 11
-16.184010148674972
 21
99.709972931217806
 31
0.0
 70
     0
 13
7.2269342403328931
 23
159.70997293121781
 33
0.0
 14
6.1411478027057447
 24
39.709972931217813
 34
0.0
 50
90.0
1001
ACAD
1000
DSTYLE
1002
{
1070
    40
1040
1.0
1002
}
  0
VIEWPORT
  5
2FC
 67
     1
  8
0
 10
5.2499996651675342
 20
3.9999999033972808
 30
0.0
 40
13.786839016452429
 41
8.9929997457669497
 68
     1
 69
     1
1001
ACAD
1000
MVIEW
1002
{
1070
    16
1010
0.0
1020
0.0
1030
0.0
1010
0.0
1020
0.0
1030
1.0
1040
0.0
1040
8.9929997457669497
1040
5.2499996651675342
1040
3.9999999033972808
1040
50.0
1040
0.0
1040
0.0
1070
     0
1070
     0
1070
     1
1070
     1
1070
     0
1070
     0
1070
     0
1070
     0
1040
0.0
1040
0.0
1040
0.0
1040
10.0
1040
10.0
1040
10.0
1040
10.0
1070
     0
1002
{
1002
}
1002
}
  0
VIEWPORT
  5
300
 67
     1
  8
MATT
 10
5.2499997615814209
 20
3.9999997615814209
 30
0.0
 40
8.3999996185302752
 41
6.3999996185302743
 68
     2
 69
     2
1001
ACAD
1000
MVIEW
1002
{
1070
    16
1010
0.0
1020
0.0
1030
0.0
1010
0.0
1020
0.0
1030
1.0
1040
0.0
1040
254.32482763017811
1040
82.806740721764584
1040
125.9177201456914
1040
50.0
1040
0.0
1040
0.0
1070
     0
1070
   100
1070
     1
1070
     0
1070
     0
1070
     0
1070
     0
1070
     0
1040
0.0
1040
0.0
1040
0.0
1040
5.0
1040
5.0
1040
0.0
1040
0.0
1070
     0
1002
{
1002
}
1002
}
  0
ENDSEC
  0
EOF
