  0
SECTION
  2
HEADER
  9
$ACADVER
  1
AC1009
  9
$INSBASE
 10
120.2578405227143
 20
378.4930879043871
 30
0.0
  9
$EXTMIN
 10
-18.65012400759052
 20
12.637343556275139
 30
0.0
  9
$EXTMAX
 10
76.064599503947193
 20
134.43994998183501
 30
0.0
  9
$LIMMIN
 10
0.0
 20
0.0
  9
$LIMMAX
 10
420.0
 20
297.0
  9
$ORTHOMODE
 70
     0
  9
$REGENMODE
 70
     1
  9
$FILLMODE
 70
     1
  9
$QTEXTMODE
 70
     0
  9
$MIRRTEXT
 70
     1
  9
$DRAGMODE
 70
     2
  9
$LTSCALE
 40
7.0
  9
$OSMODE
 70
   167
  9
$ATTMODE
 70
     1
  9
$TEXTSIZE
 40
5.25
  9
$TRACEWID
 40
0.05
  9
$TEXTSTYLE
  7
ISO
  9
$CLAYER
  8
0
  9
$CELTYPE
  6
BYLAYER
  9
$CECOLOR
 62
   256
  9
$DIMSCALE
 40
0.0
  9
$DIMASZ
 40
3.0
  9
$DIMEXO
 40
1.5
  9
$DIMDLI
 40
10.0
  9
$DIMRND
 40
0.0
  9
$DIMDLE
 40
0.0
  9
$DIMEXE
 40
1.5
  9
$DIMTP
 40
0.0
  9
$DIMTM
 40
0.0
  9
$DIMTXT
 40
3.0
  9
$DIMCEN
 40
-5.0
  9
$DIMTSZ
 40
0.0
  9
$DIMTOL
 70
     0
  9
$DIMLIM
 70
     0
  9
$DIMTIH
 70
     0
  9
$DIMTOH
 70
     1
  9
$DIMSE1
 70
     0
  9
$DIMSE2
 70
     0
  9
$DIMTAD
 70
     1
  9
$DIMZIN
 70
     8
  9
$DIMBLK
  1

  9
$DIMASO
 70
     1
  9
$DIMSHO
 70
     1
  9
$DIMPOST
  1

  9
$DIMAPOST
  1

  9
$DIMALT
 70
     0
  9
$DIMALTD
 70
     0
  9
$DIMALTF
 40
25.399999999999999
  9
$DIMLFAC
 40
-1.0
  9
$DIMTOFL
 70
     1
  9
$DIMTVP
 40
0.0
  9
$DIMTIX
 70
     0
  9
$DIMSOXD
 70
     0
  9
$DIMSAH
 70
     0
  9
$DIMBLK1
  1

  9
$DIMBLK2
  1

  9
$DIMSTYLE
  2
MASKIN
  9
$DIMCLRD
 70
   256
  9
$DIMCLRE
 70
   256
  9
$DIMCLRT
 70
     2
  9
$DIMTFAC
 40
1.0
  9
$DIMGAP
 40
1.0
  9
$LUNITS
 70
     2
  9
$LUPREC
 70
     2
  9
$SKETCHINC
 40
0.1
  9
$FILLETRAD
 40
0.0
  9
$AUNITS
 70
     0
  9
$AUPREC
 70
     2
  9
$MENU
  1
ACAD
  9
$ELEVATION
 40
0.0
  9
$PELEVATION
 40
0.0
  9
$THICKNESS
 40
0.0
  9
$LIMCHECK
 70
     0
  9
$BLIPMODE
 70
     0
  9
$CHAMFERA
 40
0.0
  9
$CHAMFERB
 40
0.0
  9
$SKPOLY
 70
     0
  9
$TDCREATE
 40
2450345.5798625001
  9
$TDUPDATE
 40
2454883.604958565
  9
$TDINDWG
 40
0.4588502199
  9
$TDUSRTIMER
 40
0.4588502199
  9
$USRTIMER
 70
     1
  9
$ANGBASE
 50
0.0
  9
$ANGDIR
 70
     0
  9
$PDMODE
 70
     3
  9
$PDSIZE
 40
0.0
  9
$PLINEWID
 40
0.0
  9
$COORDS
 70
     1
  9
$SPLFRAME
 70
     0
  9
$SPLINETYPE
 70
     6
  9
$SPLINESEGS
 70
     8
  9
$ATTDIA
 70
     0
  9
$ATTREQ
 70
     1
  9
$HANDLING
 70
     1
  9
$HANDSEED
  5
101E
  9
$SURFTAB1
 70
     6
  9
$SURFTAB2
 70
     6
  9
$SURFTYPE
 70
     6
  9
$SURFU
 70
     6
  9
$SURFV
 70
     6
  9
$UCSNAME
  2

  9
$UCSORG
 10
0.0
 20
0.0
 30
0.0
  9
$UCSXDIR
 10
1.0
 20
0.0
 30
0.0
  9
$UCSYDIR
 10
0.0
 20
1.0
 30
0.0
  9
$PUCSNAME
  2

  9
$PUCSORG
 10
0.0
 20
0.0
 30
0.0
  9
$PUCSXDIR
 10
1.0
 20
0.0
 30
0.0
  9
$PUCSYDIR
 10
0.0
 20
1.0
 30
0.0
  9
$USERI1
 70
     0
  9
$USERI2
 70
     0
  9
$USERI3
 70
     0
  9
$USERI4
 70
     0
  9
$USERI5
 70
     0
  9
$USERR1
 40
0.0
  9
$USERR2
 40
0.0
  9
$USERR3
 40
0.0
  9
$USERR4
 40
0.0
  9
$USERR5
 40
0.0
  9
$WORLDVIEW
 70
     1
  9
$SHADEDGE
 70
     1
  9
$SHADEDIF
 70
    70
  9
$TILEMODE
 70
     1
  9
$MAXACTVP
 70
    16
  9
$PLIMCHECK
 70
     0
  9
$PEXTMIN
 10
1.049636599258096
 20
0.7996597240971078
 30
-0.0000000000112498
  9
$PEXTMAX
 10
9.4503627310769716
 20
7.200340082697454
 30
0.0000000000002956
  9
$PLIMMIN
 10
-0.2500002402958907
 20
-0.2499999962453767
  9
$PLIMMAX
 10
10.74999951940822
 20
8.2499997634587334
  9
$UNITMODE
 70
     0
  9
$VISRETAIN
 70
     1
  9
$PLINEGEN
 70
     0
  9
$PSLTSCALE
 70
     1
  0
ENDSEC
  0
SECTION
  2
TABLES
  0
TABLE
  2
VPORT
 70
     1
  0
VPORT
  2
*ACTIVE
 70
     0
 10
0.0
 20
0.0
 11
1.0
 21
1.0
 12
50.504597505459863
 22
75.392934157767996
 13
0.0
 23
0.0
 14
5.0
 24
5.0
 15
0.0
 25
0.0
 16
0.0
 26
0.0
 36
1.0
 17
0.0
 27
0.0
 37
0.0
 40
137.60530522661901
 41
1.995238095238095
 42
50.0
 43
0.0
 44
0.0
 50
0.0
 51
0.0
 71
     0
 72
   100
 73
     1
 74
     0
 75
     0
 76
     0
 77
     0
 78
     0
  0
ENDTAB
  0
TABLE
  2
LTYPE
 70
     5
  0
LTYPE
  2
CONTINUOUS
 70
     0
  3
Solid line
 72
    65
 73
     0
 40
0.0
  0
LTYPE
  2
BYGG-014568$0$NEWDOT
 70
     0
  3
____ . ____ . ____ . ____ . ____ . ____ . ____
 72
    65
 73
     4
 40
2.0
 49
1.0
 49
-0.5
 49
0.0
 49
-0.5
  0
LTYPE
  2
BYGG-014245$0$DASHDOT
 70
     0
  3
__ . __ . __ . __ . __ . __ . __ . __ . __ . __
 72
    65
 73
     4
 40
1.0
 49
0.5
 49
-0.25
 49
0.0
 49
-0.25
  0
LTYPE
  2
BYGG-014568$0$DOT_CENTER
 70
     0
  3
Dot_Center
 72
    65
 73
     4
 40
2.0
 49
1.25
 49
-0.25
 49
0.25
 49
-0.25
  0
LTYPE
  2
BYGG-018987$0$DASHDOT
 70
     0
  3
__ . __ . __ . __ . __ . __ . __ . __ . __ . __
 72
    65
 73
     4
 40
1.0
 49
0.5
 49
-0.25
 49
0.0
 49
-0.25
  0
ENDTAB
  0
TABLE
  2
LAYER
 70
    37
  0
LAYER
  2
0
 70
     0
 62
     7
  6
CONTINUOUS
  0
LAYER
  2
DEFPOINTS
 70
     0
 62
     7
  6
CONTINUOUS
  0
LAYER
  2
SAPA_ARTIKELNR
 70
     0
 62
     4
  6
CONTINUOUS
  0
LAYER
  2
SAPA_LIGHT
 70
     1
 62
     1
  6
CONTINUOUS
  0
LAYER
  2
MATT
 70
     0
 62
     1
  6
CONTINUOUS
  0
LAYER
  2
SAPA_ANSLUTNING
 70
     0
 62
     6
  6
CONTINUOUS
  0
LAYER
  2
SAPA_MATT
 70
     0
 62
     1
  6
CONTINUOUS
  0
LAYER
  2
SAPA_GLAS
 70
     0
 62
     4
  6
CONTINUOUS
  0
LAYER
  2
SAPA_FOGBAND
 70
     0
 62
     2
  6
CONTINUOUS
  0
LAYER
  2
SAPA_PROFIL
 70
     0
 62
     7
  6
CONTINUOUS
  0
ENDTAB
  0
TABLE
  2
STYLE
 70
    14
  0
STYLE
  2
STANDARD
 70
     0
 40
0.0
 41
1.0
 50
0.0
 71
     0
 42
0.2
  3
txt
  4

  0
STYLE
  2
ISO
 70
     0
 40
0.0
 41
1.0
 50
0.0
 71
     0
 42
5.25
  3
isocp3.shx
  4

  0
STYLE
  2
BYGG-021745$0$STANDARD
 70
     0
 40
0.0
 41
1.0
 50
0.0
 71
     0
 42
0.2
  3
txt
  4

  0
STYLE
  2
BYGG-021745$0$ISO
 70
     0
 40
0.0
 41
1.0
 50
0.0
 71
     0
 42
3.5
  3
iso
  4

  0
STYLE
  2
BYGG-014568$0$STANDARD
 70
     0
 40
0.0
 41
1.0
 50
0.0
 71
     0
 42
0.2
  3
txt
  4

  0
STYLE
  2
BYGG-014568$0$ISO
 70
     0
 40
0.0
 41
1.0
 50
0.0
 71
     0
 42
3.5
  3
isocp3.shx
  4

  0
STYLE
  2
BYGG-022907$0$STANDARD
 70
     0
 40
0.0
 41
1.0
 50
0.0
 71
     0
 42
0.2
  3
txt
  4

  0
STYLE
  2
BYGG-022907$0$ISO
 70
     0
 40
0.0
 41
1.0
 50
0.0
 71
     0
 42
3.5
  3
txt
  4

  0
STYLE
  2
BYGG-011885$0$STANDARD
 70
     0
 40
0.0
 41
1.0
 50
0.0
 71
     0
 42
0.2
  3
txt
  4

  0
STYLE
  2
BYGG-011885$0$ISO
 70
     0
 40
0.0
 41
1.0
 50
0.0
 71
     0
 42
3.5
  3
isocp3.shx
  4

  0
STYLE
  2
BYGG-018987$0$STANDARD
 70
     0
 40
0.0
 41
1.0
 50
0.0
 71
     0
 42
0.2
  3
txt
  4

  0
STYLE
  2
BYGG-018987$0$ISO
 70
     0
 40
0.0
 41
1.0
 50
0.0
 71
     0
 42
3.5
  3
txt
  4

  0
STYLE
  2
BYGG-014245$0$STANDARD
 70
     0
 40
0.0
 41
1.0
 50
0.0
 71
     0
 42
0.2
  3
txt
  4

  0
STYLE
  2
BYGG-014245$0$ISO
 70
     0
 40
0.0
 41
1.0
 50
0.0
 71
     0
 42
3.5
  3
isocp3.shx
  4

  0
ENDTAB
  0
TABLE
  2
VIEW
 70
     0
  0
ENDTAB
  0
TABLE
  2
UCS
 70
     0
  0
ENDTAB
  0
TABLE
  2
APPID
 70
    17
  0
APPID
  2
ACAD
 70
     0
  0
APPID
  2
ACAECLAYERSTANDARD
 70
     0
  0
APPID
  2
ACAD_MLEADERVER
 70
     0
  0
APPID
  2
ACAD_DSTYLE_DIMTEXT_FILL
 70
     0
  0
APPID
  2
ACAD_DSTYLE_DIMEXT_LENGTH
 70
     0
  0
APPID
  2
ACAD_DSTYLE_DIMEXT_ENABLED
 70
     0
  0
APPID
  2
ACAD_DSTYLE_DIM_LINETYPE
 70
     0
  0
APPID
  2
ACAD_DSTYLE_DIM_EXT1_LINETYPE
 70
     0
  0
APPID
  2
ACAD_DSTYLE_DIM_EXT2_LINETYPE
 70
     0
  0
APPID
  2
ACAD_DSTYLE_DIMJOGGED_JOGA
 70
     0
  0
APPID
  2
ACAD_DSTYLE_DIMARC_LENGTH_
 70
     0
  0
APPID
  2
ACAD_PSEXT
 70
     0
  0
APPID
  2
AMG_ARCHIVE11
 70
     0
  0
APPID
  2
ACAD_EXEMPT_FROM_CAD_STANDARDS
 70
     0
  0
APPID
  2
ACAD_DSTYLE_DIMJAG
 70
     0
  0
APPID
  2
ACAD_DSTYLE_DIMTALN
 70
     0
  0
APPID
  2
ACADANNOTATIVE
 70
     0
  0
ENDTAB
  0
TABLE
  2
DIMSTYLE
 70
     9
  0
DIMSTYLE
  2
MASKIN
 70
     0
  3

  4

  5

  6

  7

 40
0.0
 41
3.0
 42
1.5
 43
10.0
 44
1.5
 45
0.0
 46
0.0
 47
0.0
 48
0.0
140
3.0
141
-5.0
142
0.0
143
25.399999999999999
144
-1.0
145
0.0
146
1.0
147
1.0
 71
     0
 72
     0
 73
     0
 74
     1
 75
     0
 76
     0
 77
     1
 78
     8
170
     0
171
     0
172
     1
173
     0
174
     0
175
     0
176
   256
177
   256
178
     2
  0
DIMSTYLE
  2
BYGG-021745$0$STANDARD
 70
     0
  3

  4

  5

  6

  7

 40
1.0
 41
0.18
 42
0.0625
 43
0.38
 44
0.18
 45
0.0
 46
0.0
 47
0.0
 48
0.0
140
0.18
141
0.09
142
0.0
143
25.399999999999999
144
1.0
145
0.0
146
1.0
147
0.09
 71
     0
 72
     0
 73
     1
 74
     1
 75
     0
 76
     0
 77
     0
 78
     0
170
     0
171
     2
172
     0
173
     0
174
     0
175
     0
176
     0
177
     0
178
     0
  0
DIMSTYLE
  2
BYGG-014568$0$STANDARD
 70
     0
  3

  4

  5

  6

  7

 40
1.0
 41
0.18
 42
0.0625
 43
0.38
 44
0.18
 45
0.0
 46
0.0
 47
0.0
 48
0.0
140
0.18
141
0.09
142
0.0
143
25.399999999999999
144
1.0
145
0.0
146
1.0
147
0.09
 71
     0
 72
     0
 73
     1
 74
     1
 75
     0
 76
     0
 77
     0
 78
     0
170
     0
171
     2
172
     0
173
     0
174
     0
175
     0
176
     0
177
     0
178
     0
  0
DIMSTYLE
  2
BYGG-014568$0$MASKIN
 70
     0
  3

  4

  5

  6

  7

 40
0.0
 41
3.0
 42
1.5
 43
10.0
 44
1.5
 45
0.0
 46
0.0
 47
0.0
 48
0.0
140
3.0
141
-5.0
142
0.0
143
25.399999999999999
144
-1.0
145
0.0
146
1.0
147
1.0
 71
     0
 72
     0
 73
     0
 74
     0
 75
     0
 76
     0
 77
     1
 78
     8
170
     0
171
     0
172
     1
173
     0
174
     0
175
     0
176
   256
177
   256
178
     2
  0
DIMSTYLE
  2
BYGG-022907$0$MASKIN
 70
     0
  3

  4

  5

  6

  7

 40
0.0
 41
3.0
 42
1.5
 43
10.0
 44
1.5
 45
0.0
 46
0.0
 47
0.0
 48
0.0
140
3.0
141
-5.0
142
0.0
143
25.399999999999999
144
-1.0
145
0.0
146
1.0
147
1.0
 71
     0
 72
     0
 73
     0
 74
     0
 75
     0
 76
     0
 77
     1
 78
     8
170
     0
171
     0
172
     1
173
     0
174
     0
175
     0
176
   256
177
   256
178
     2
  0
DIMSTYLE
  2
BYGG-011885$0$MASKIN
 70
     0
  3

  4

  5

  6

  7

 40
0.0
 41
3.0
 42
1.5
 43
10.0
 44
1.5
 45
0.0
 46
0.0
 47
0.0
 48
0.0
140
3.0
141
-5.0
142
0.0
143
25.399999999999999
144
-1.0
145
0.0
146
1.0
147
1.0
 71
     0
 72
     0
 73
     0
 74
     0
 75
     0
 76
     0
 77
     1
 78
     8
170
     0
171
     0
172
     1
173
     0
174
     0
175
     0
176
   256
177
   256
178
     2
  0
DIMSTYLE
  2
BYGG-018987$0$MASKIN
 70
     0
  3

  4

  5

  6

  7

 40
0.0
 41
3.0
 42
1.5
 43
10.0
 44
1.5
 45
0.0
 46
0.0
 47
0.0
 48
0.0
140
3.0
141
-5.0
142
0.0
143
25.399999999999999
144
-1.0
145
0.0
146
1.0
147
1.0
 71
     0
 72
     0
 73
     0
 74
     0
 75
     0
 76
     0
 77
     1
 78
     8
170
     0
171
     0
172
     1
173
     0
174
     0
175
     0
176
   256
177
   256
178
     2
  0
DIMSTYLE
  2
BYGG-014245$0$STANDARD
 70
     0
  3

  4

  5

  6

  7

 40
1.0
 41
0.18
 42
0.0625
 43
0.38
 44
0.18
 45
0.0
 46
0.0
 47
0.0
 48
0.0
140
0.18
141
0.09
142
0.0
143
25.399999999999999
144
1.0
145
0.0
146
1.0
147
0.09
 71
     0
 72
     0
 73
     1
 74
     1
 75
     0
 76
     0
 77
     0
 78
     0
170
     0
171
     2
172
     0
173
     0
174
     0
175
     0
176
     0
177
     0
178
     0
  0
DIMSTYLE
  2
BYGG-014245$0$MASKIN
 70
     0
  3

  4

  5

  6

  7

 40
0.0
 41
3.0
 42
1.5
 43
10.0
 44
1.5
 45
0.0
 46
0.0
 47
0.0
 48
0.0
140
3.0
141
-5.0
142
0.0
143
25.399999999999999
144
-1.0
145
0.0
146
1.0
147
1.0
 71
     0
 72
     0
 73
     0
 74
     0
 75
     0
 76
     0
 77
     1
 78
     8
170
     0
171
     0
172
     1
173
     0
174
     0
175
     0
176
   256
177
   256
178
   256
  0
ENDTAB
  0
ENDSEC
  0
SECTION
  2
BLOCKS
  0
BLOCK
  8
0
  2
$MODEL_SPACE
 70
     0
 10
0.0
 20
0.0
 30
0.0
  3
$MODEL_SPACE
  1

  0
ENDBLK
  5
D
  8
0
  0
BLOCK
 67
     1
  8
0
  2
$PAPER_SPACE
 70
     0
 10
0.0
 20
0.0
 30
0.0
  3
$PAPER_SPACE
  1

  0
ENDBLK
  5
12
 67
     1
  8
0
  0
BLOCK
  8
0
  2
*X10
 70
     1
 10
0.0
 20
0.0
 30
0.0
  3
*X10
  1

  0
LINE
  5
8F9
  8
0
 62
     0
 10
778.43897786997024
 20
614.03665124409804
 30
0.0
 11
780.93897786997024
 21
616.53665124409804
 31
0.0
  0
LINE
  5
8FA
  8
0
 62
     0
 10
776.67121091700392
 20
614.03665124409804
 30
0.0
 11
779.17121091700392
 21
616.53665124409804
 31
0.0
  0
LINE
  5
8FB
  8
0
 62
     0
 10
775.26148242248212
 20
614.39468970254256
 30
0.0
 11
777.40344396403748
 21
616.53665124409804
 31
0.0
  0
LINE
  5
8FC
  8
0
 62
     0
 10
775.26148242248212
 20
616.16245665550878
 30
0.0
 11
775.63567701107115
 21
616.53665124409804
 31
0.0
  0
LINE
  5
8FD
  8
0
 62
     0
 10
780.20674482293657
 20
614.03665124409804
 30
0.0
 11
782.70674482293657
 21
616.53665124409804
 31
0.0
  0
LINE
  5
8FE
  8
0
 62
     0
 10
781.97451177590301
 20
614.03665124409804
 30
0.0
 11
784.47451177590301
 21
616.53665124409804
 31
0.0
  0
LINE
  5
8FF
  8
0
 62
     0
 10
783.74227872886945
 20
614.03665124409804
 30
0.0
 11
785.26148242248212
 21
615.55585493771071
 31
0.0
  0
LINE
  5
900
  8
0
 62
     0
 10
780.73147464636679
 20
614.03665124409804
 30
0.0
 11
778.23147464636679
 21
616.53665124409804
 31
0.0
  0
LINE
  5
901
  8
0
 62
     0
 10
778.96370769340035
 20
614.03665124409804
 30
0.0
 11
776.46370769340035
 21
616.53665124409804
 31
0.0
  0
LINE
  5
902
  8
0
 62
     0
 10
777.19594074043403
 20
614.03665124409804
 30
0.0
 11
775.26148242248212
 21
615.97110956204995
 31
0.0
  0
LINE
  5
903
  8
0
 62
     0
 10
775.4281737874677
 20
614.03665124409804
 30
0.0
 11
775.26148242248212
 21
614.20334260908362
 31
0.0
  0
LINE
  5
904
  8
0
 62
     0
 10
782.49924159933312
 20
614.03665124409804
 30
0.0
 11
779.999241599333
 21
616.53665124409804
 31
0.0
  0
LINE
  5
905
  8
0
 62
     0
 10
784.26700855229944
 20
614.03665124409804
 30
0.0
 11
781.76700855229944
 21
616.53665124409804
 31
0.0
  0
LINE
  5
906
  8
0
 62
     0
 10
785.26148242248212
 20
614.8099443268818
 30
0.0
 11
783.53477550526588
 21
616.53665124409804
 31
0.0
  0
ENDBLK
  5
907
  8
0
  0
BLOCK
  8
0
  2
*D25
 70
     1
 10
0.0
 20
0.0
 30
0.0
  3
*D25
  1

  0
LINE
  5
A7A
  8
SAPA_MATT
 10
5.7269342403328931
 20
117.70997293121781
 30
0.0
 11
-15.183714873084391
 21
117.70997293121781
 31
0.0
  0
LINE
  5
A7B
  8
SAPA_MATT
 10
4.6411478027057447
 20
39.709972931217813
 30
0.0
 11
-15.18371487308441
 21
39.709972931217813
 31
0.0
  0
LINE
  5
A7C
  8
SAPA_MATT
 10
-13.683714873084391
 20
114.70997293121781
 30
0.0
 11
-13.68371487308441
 21
42.709972931217798
 31
0.0
  0
SOLID
  5
A7D
  8
SAPA_MATT
 10
-14.183714873084391
 20
114.70997293121781
 30
0.0
 11
-13.183714873084391
 21
114.70997293121781
 31
0.0
 12
-13.683714873084391
 22
117.70997293121781
 32
0.0
 13
-13.683714873084391
 23
117.70997293121781
 33
0.0
  0
SOLID
  5
A7E
  8
SAPA_MATT
 10
-14.18371487308441
 20
42.709972931217798
 30
0.0
 11
-13.18371487308441
 21
42.709972931217798
 31
0.0
 12
-13.68371487308441
 22
39.709972931217813
 32
0.0
 13
-13.68371487308441
 23
39.709972931217813
 33
0.0
  0
INSERT
  5
A7F
  8
0
  2
*U41
 10
0.0
 20
0.0
 30
0.0
  0
POINT
  5
A80
  8
DEFPOINTS
 62
     0
 10
7.2269342403328931
 20
117.70997293121781
 30
0.0
  0
POINT
  5
A81
  8
DEFPOINTS
 62
     0
 10
6.1411478027057447
 20
39.709972931217813
 30
0.0
  0
POINT
  5
A82
  8
DEFPOINTS
 62
     0
 10
-13.68371487308441
 20
39.709972931217813
 30
0.0
  0
ENDBLK
  5
A64
  8
0
  0
BLOCK
  8
0
  2
*D26
 70
     1
 10
0.0
 20
0.0
 30
0.0
  3
*D26
  1

  0
LINE
  5
A71
  8
SAPA_MATT
 10
4.6411478027057447
 20
39.709972931217813
 30
0.0
 11
-15.132447090313009
 21
39.709972931217813
 31
0.0
  0
LINE
  5
A72
  8
SAPA_MATT
 10
4.6411478027057438
 20
24.709972931217809
 30
0.0
 11
-15.132447090313009
 21
24.709972931217809
 31
0.0
  0
LINE
  5
A73
  8
SAPA_MATT
 10
-13.632447090313001
 20
36.709972931217813
 30
0.0
 11
-13.632447090313009
 21
27.709972931217809
 31
0.0
  0
SOLID
  5
A74
  8
SAPA_MATT
 10
-14.132447090313001
 20
36.709972931217813
 30
0.0
 11
-13.132447090313001
 21
36.709972931217813
 31
0.0
 12
-13.632447090313001
 22
39.709972931217813
 32
0.0
 13
-13.632447090313001
 23
39.709972931217813
 33
0.0
  0
SOLID
  5
A75
  8
SAPA_MATT
 10
-14.132447090313009
 20
27.709972931217809
 30
0.0
 11
-13.132447090313009
 21
27.709972931217809
 31
0.0
 12
-13.632447090313009
 22
24.709972931217809
 32
0.0
 13
-13.632447090313009
 23
24.709972931217809
 33
0.0
  0
INSERT
  5
A76
  8
0
  2
*U40
 10
0.0
 20
0.0
 30
0.0
  0
POINT
  5
A77
  8
DEFPOINTS
 62
     0
 10
6.1411478027057447
 20
39.709972931217813
 30
0.0
  0
POINT
  5
A78
  8
DEFPOINTS
 62
     0
 10
6.1411478027057438
 20
24.709972931217809
 30
0.0
  0
POINT
  5
A79
  8
DEFPOINTS
 62
     0
 10
-13.632447090313009
 20
24.709972931217809
 30
0.0
  0
ENDBLK
  5
A70
  8
0
  0
BLOCK
  8
0
  2
*U27
 70
     1
 10
0.0
 20
0.0
 30
0.0
  3
*U27
  1

  0
TEXT
  5
AA0
  8
SAPA_ARTIKELNR
 10
66.758918848382081
 20
65.593541810570088
 30
0.0
 40
3.5
  1
68059
 50
90.0
  7
ISO
  0
ENDBLK
  5
AA2
  8
0
  0
BLOCK
  8
0
  2
*U28
 70
     1
 10
0.0
 20
0.0
 30
0.0
  3
*U28
  1

  0
TEXT
  5
AAF
  8
MATT
 62
     2
 10
-14.68371487308441
 20
76.609972931217797
 30
0.0
 40
3.0
  1
78
 50
90.0
  7
ISO
  0
ENDBLK
  5
AB1
  8
0
  0
BLOCK
  8
0
  2
*U29
 70
     1
 10
0.0
 20
0.0
 30
0.0
  3
*U29
  1

  0
TEXT
  5
AB3
  8
MATT
 62
     2
 10
-14.632447090313009
 20
27.497840896861842
 30
0.0
 40
3.0
  1
10-15
 50
90.0
  7
ISO
  0
ENDBLK
  5
AB5
  8
0
  0
BLOCK
  8
0
  2
*U30
 70
     1
 10
0.0
 20
0.0
 30
0.0
  3
*U30
  1

  0
TEXT
  5
B83
  8
0
 62
     2
 10
245.33733479012039
 20
615.75612140097405
 30
0.0
 40
3.0
  1
78
  7
BYGG-014568$0$ISO
  0
ENDBLK
  5
B85
  8
0
  0
BLOCK
  8
0
  2
*U31
 70
     1
 10
0.0
 20
0.0
 30
0.0
  3
*U31
  1

  0
TEXT
  5
B87
  8
0
 62
     2
 10
311.00996416506302
 20
659.27176232606303
 30
0.0
 40
3.0
  1
60
 50
90.0
  7
BYGG-014568$0$ISO
  0
ENDBLK
  5
B89
  8
0
  0
BLOCK
  8
0
  2
*U32
 70
     1
 10
0.0
 20
0.0
 30
0.0
  3
*U32
  1

  0
TEXT
  5
C61
  8
0
 10
1144.906792164307
 20
160.52466410724671
 30
0.0
 40
3.0
  1
22
 50
90.0
  7
BYGG-014245$0$ISO
  0
ENDBLK
  5
C63
  8
0
  0
BLOCK
  8
0
  2
*U33
 70
     1
 10
0.0
 20
0.0
 30
0.0
  3
*U33
  1

  0
TEXT
  5
C65
  8
0
 10
1115.4718490679179
 20
187.5697204225001
 30
0.0
 40
3.0
  1
19.5
  7
BYGG-014245$0$ISO
  0
ENDBLK
  5
C67
  8
0
  0
BLOCK
  8
0
  2
*U34
 70
     1
 10
0.0
 20
0.0
 30
0.0
  3
*U34
  1

  0
TEXT
  5
C6F
  8
0
 10
286.5912734650471
 20
311.63028544300352
 30
0.0
 40
3.0
  1
19.5
  7
BYGG-014245$0$ISO
  0
ENDBLK
  5
C71
  8
0
  0
BLOCK
  8
0
  2
*U35
 70
     1
 10
0.0
 20
0.0
 30
0.0
  3
*U35
  1

  0
TEXT
  5
C73
  8
0
 10
323.0282571896758
 20
276.02474613626731
 30
0.0
 40
3.0
  1
21.99523572
 50
90.0
  7
BYGG-014245$0$ISO
  0
ENDBLK
  5
C75
  8
0
  0
BLOCK
  8
0
  2
*U36
 70
     1
 10
0.0
 20
0.0
 30
0.0
  3
*U36
  1

  0
TEXT
  5
C7B
  8
0
 62
     2
 10
-15.80012400759051
 20
76.609972931217797
 30
0.0
 40
3.0
  1
78
 50
90.0
  7
BYGG-014568$0$ISO
  0
ENDBLK
  5
C7D
  8
0
  0
BLOCK
  8
0
  2
*U37
 70
     1
 10
0.0
 20
0.0
 30
0.0
  3
*U37
  1

  0
TEXT
  5
C7F
  8
0
 62
     2
 10
29.715516917498221
 20
15.137343556275139
 30
0.0
 40
3.0
  1
60
  7
BYGG-014568$0$ISO
  0
ENDBLK
  5
C81
  8
0
  0
BLOCK
  8
0
  2
*U38
 70
     1
 10
0.0
 20
0.0
 30
0.0
  3
*U38
  1

  0
TEXT
  5
C83
  8
0
 10
73.564304228356633
 20
104.5434435895226
 30
0.0
 40
3.0
  1
22
 50
90.0
  7
BYGG-014245$0$ISO
  0
ENDBLK
  5
C85
  8
0
  0
BLOCK
  8
0
  2
*U39
 70
     1
 10
0.0
 20
0.0
 30
0.0
  3
*U39
  1

  0
TEXT
  5
C87
  8
0
 10
44.129361131967983
 20
131.58849990477589
 30
0.0
 40
3.0
  1
19.5
  7
BYGG-014245$0$ISO
  0
ENDBLK
  5
C89
  8
0
  0
BLOCK
  8
0
  2
*U40
 70
     1
 10
0.0
 20
0.0
 30
0.0
  3
*U40
  1

  0
TEXT
  5
1017
  8
SAPA_MATT
 62
     2
 10
-14.632447090313009
 20
27.497840896861842
 30
0.0
 40
3.0
  1
10-15
 50
90.0
  7
ISO
  0
ENDBLK
  5
1019
  8
0
  0
BLOCK
  8
0
  2
*U41
 70
     1
 10
0.0
 20
0.0
 30
0.0
  3
*U41
  1

  0
TEXT
  5
101B
  8
SAPA_MATT
 62
     2
 10
-14.68371487308441
 20
76.609972931217797
 30
0.0
 40
3.0
  1
78
 50
90.0
  7
ISO
  0
ENDBLK
  5
101D
  8
0
  0
ENDSEC
  0
SECTION
  2
ENTITIES
  0
POLYLINE
  5
67B
  8
SAPA_LIGHT
 66
     1
 10
0.0
 20
0.0
 30
0.0
  0
VERTEX
  5
A97
  8
SAPA_LIGHT
 10
57.259913930295419
 20
14.72854237866232
 30
0.0
  0
VERTEX
  5
A98
  8
SAPA_LIGHT
 10
57.26280549655533
 20
14.72854237866232
 30
0.0
  0
SEQEND
  5
A99
  8
SAPA_LIGHT
  0
POLYLINE
  5
67C
  8
SAPA_LIGHT
 66
     1
 10
0.0
 20
0.0
 30
0.0
 70
     1
  0
VERTEX
  5
A9A
  8
SAPA_LIGHT
 10
18.236510039964472
 20
101.4746653404912
 30
0.0
  0
VERTEX
  5
A9B
  8
SAPA_LIGHT
 10
33.222291754634007
 20
101.4746653404913
 30
0.0
  0
VERTEX
  5
A9C
  8
SAPA_LIGHT
 10
33.222291754634007
 20
133.98094644438419
 30
0.0
  0
VERTEX
  5
A9D
  8
SAPA_LIGHT
 10
18.236510039964472
 20
133.9809464443841
 30
0.0
  0
SEQEND
  5
A9E
  8
SAPA_LIGHT
  0
INSERT
  5
751
  8
0
  2
*U27
 10
0.0
 20
0.0
 30
0.0
  0
POLYLINE
  5
7B1
  8
SAPA_LIGHT
 66
     1
 10
0.0
 20
0.0
 30
0.0
  0
VERTEX
  5
AA3
  8
SAPA_LIGHT
 10
33.154273217494691
 20
117.70997293121771
 30
0.0
  0
VERTEX
  5
AA4
  8
SAPA_LIGHT
 10
57.226934240332803
 20
117.70997293121771
 30
0.0
  0
VERTEX
  5
AA5
  8
SAPA_LIGHT
 10
57.226934240332803
 20
95.417079712401986
 30
0.0
  0
VERTEX
  5
AA6
  8
SAPA_LIGHT
 10
61.726934240332781
 20
95.417079712401943
 30
0.0
  0
VERTEX
  5
AA7
  8
SAPA_LIGHT
 10
61.726934240332866
 20
39.709972931215361
 30
0.0
  0
VERTEX
  5
AA8
  8
SAPA_LIGHT
 10
1.726934240332838
 20
39.709972931215361
 30
0.0
  0
VERTEX
  5
AA9
  8
SAPA_LIGHT
 10
1.726934240332809
 20
95.417079712401915
 30
0.0
  0
VERTEX
  5
AAA
  8
SAPA_LIGHT
 10
6.2337305802898584
 20
95.334920417612764
 30
0.0
  0
VERTEX
  5
AAB
  8
SAPA_LIGHT
 10
6.2337305802898859
 20
117.6278136364285
 30
0.0
  0
VERTEX
  5
AAC
  8
SAPA_LIGHT
 10
18.22229175463378
 20
117.73057173895999
 30
0.0
  0
SEQEND
  5
AAD
  8
SAPA_LIGHT
  0
LINE
  5
835
  8
SAPA_ANSLUTNING
 10
6.1411478027057447
 20
24.709972931217809
 30
0.0
 11
61.687928706410389
 21
24.709972931217809
 31
0.0
  0
LINE
  5
84D
  8
SAPA_LIGHT
 10
6.1411478027057447
 20
24.709972931217809
 30
0.0
 11
61.687928706410389
 21
24.709972931217809
 31
0.0
  0
POLYLINE
  5
A18
  8
SAPA_PROFIL
 66
     1
 10
0.0
 20
0.0
 30
0.0
 70
     1
  0
VERTEX
  5
D68
  8
SAPA_PROFIL
 10
39.485733788374091
 20
91.351499462103831
 30
0.0
  0
VERTEX
  5
D69
  8
SAPA_PROFIL
 10
38.159500148603676
 20
92.724854599255124
 30
0.0
 42
-0.6681786379192573
  0
VERTEX
  5
D6A
  8
SAPA_PROFIL
 10
38.380537810636497
 20
93.233206418939673
 30
0.0
  0
VERTEX
  5
D6B
  8
SAPA_PROFIL
 10
49.721302899043621
 20
93.035252627986537
 30
0.0
 42
0.4142135623730342
  0
VERTEX
  5
D6C
  8
SAPA_PROFIL
 10
50.73860300063734
 20
94.0176479167054
 30
0.0
  0
VERTEX
  5
D6D
  8
SAPA_PROFIL
 10
50.760717944639282
 20
95.284612210038048
 30
0.0
 42
-0.1989123673795919
  0
VERTEX
  5
D6E
  8
SAPA_PROFIL
 10
51.065907269336783
 20
95.986499603939237
 30
0.0
  0
VERTEX
  5
D6F
  8
SAPA_PROFIL
 10
55.121592610791822
 20
99.903029412333524
 30
0.0
 42
0.2034522994236711
  0
VERTEX
  5
D70
  8
SAPA_PROFIL
 10
55.426934240332912
 20
100.622369212672
 30
0.0
  0
VERTEX
  5
D71
  8
SAPA_PROFIL
 10
55.426934240332677
 20
112.90997293121799
 30
0.0
 42
0.4142135623730939
  0
VERTEX
  5
D72
  8
SAPA_PROFIL
 10
52.426934240332677
 20
115.90997293121799
 30
0.0
  0
VERTEX
  5
D73
  8
SAPA_PROFIL
 10
41.926934240332677
 20
115.90997293121811
 30
0.0
 42
0.4142135623730971
  0
VERTEX
  5
D74
  8
SAPA_PROFIL
 10
39.926934240332677
 20
113.90997293121811
 30
0.0
  0
VERTEX
  5
D75
  8
SAPA_PROFIL
 10
39.926934240332677
 20
113.2095173991862
 30
0.0
 42
-0.4142135623730951
  0
VERTEX
  5
D76
  8
SAPA_PROFIL
 10
39.426934240332692
 20
112.7095173991862
 30
0.0
  0
VERTEX
  5
D77
  8
SAPA_PROFIL
 10
39.226934240332639
 20
112.7095173991862
 30
0.0
 42
-0.4142135623731035
  0
VERTEX
  5
D78
  8
SAPA_PROFIL
 10
38.726934240332639
 20
113.2095173991864
 30
0.0
  0
VERTEX
  5
D79
  8
SAPA_PROFIL
 10
38.726934240332866
 20
115.209972931218
 30
0.0
  0
VERTEX
  5
D7A
  8
SAPA_PROFIL
 10
37.726934240332639
 20
115.209972931218
 30
0.0
  0
VERTEX
  5
D7B
  8
SAPA_PROFIL
 10
37.726934240332639
 20
117.40997293121799
 30
0.0
 42
-0.4142135623730951
  0
VERTEX
  5
D7C
  8
SAPA_PROFIL
 10
38.026934240332601
 20
117.709972931218
 30
0.0
  0
VERTEX
  5
D7D
  8
SAPA_PROFIL
 10
56.926934240332692
 20
117.70997293121781
 30
0.0
 42
-0.4142135623730951
  0
VERTEX
  5
D7E
  8
SAPA_PROFIL
 10
57.226934240332639
 20
117.40997293121811
 30
0.0
  0
VERTEX
  5
D7F
  8
SAPA_PROFIL
 10
57.226934240332866
 20
96.56530398232799
 30
0.0
 42
-0.4626095924694928
  0
VERTEX
  5
D80
  8
SAPA_PROFIL
 10
56.878438340148023
 20
96.269249683819623
 30
0.0
  0
VERTEX
  5
D81
  8
SAPA_PROFIL
 10
54.52320715205019
 20
96.655054102758569
 30
0.0
 42
0.2368639028498138
  0
VERTEX
  5
D82
  8
SAPA_PROFIL
 10
54.266313740727583
 20
96.574801744351987
 30
0.0
  0
VERTEX
  5
D83
  8
SAPA_PROFIL
 10
52.656390587326307
 20
95.02011702681024
 30
0.0
  0
VERTEX
  5
D84
  8
SAPA_PROFIL
 10
52.628988145035471
 20
93.450232159376924
 30
0.0
  0
VERTEX
  5
D85
  8
SAPA_PROFIL
 10
53.124866301507382
 20
93.152278503316779
 30
0.0
 42
-0.5773502691896328
  0
VERTEX
  5
D86
  8
SAPA_PROFIL
 10
53.115797765108248
 20
92.632742400964275
 30
0.0
  0
VERTEX
  5
D87
  8
SAPA_PROFIL
 10
51.162595631495613
 20
91.550064778985742
 30
0.0
 42
-0.1316524975874007
  0
VERTEX
  5
D88
  8
SAPA_PROFIL
 10
51.011917023490469
 20
91.512496382580693
 30
0.0
  0
VERTEX
  5
D89
  8
SAPA_PROFIL
 10
40.004107897988199
 20
91.704638405583808
 30
0.0
  0
VERTEX
  5
D8A
  8
SAPA_PROFIL
 10
40.001490037022677
 20
91.554661251310293
 30
0.0
 42
-0.3816339994187381
  0
VERTEX
  5
D8B
  8
SAPA_PROFIL
 10
39.730006858039808
 20
91.261251037757077
 30
0.0
 42
-0.2283224782574873
  0
SEQEND
  5
D8C
  8
SAPA_PROFIL
  0
LINE
  5
A19
  8
SAPA_PROFIL
 62
     0
 10
36.419281941973743
 20
98.367360904105681
 30
0.0
 11
36.419281941973743
 21
98.367360904105681
 31
0.0
  0
LINE
  5
A1A
  8
SAPA_PROFIL
 62
     0
 10
35.794281941973743
 20
98.367360904105681
 30
0.0
 11
35.794281941973743
 21
98.367360904105681
 31
0.0
  0
LINE
  5
A1B
  8
SAPA_PROFIL
 62
     0
 10
35.169281941973743
 20
98.367360904105681
 30
0.0
 11
35.169281941973743
 21
98.367360904105681
 31
0.0
  0
LINE
  5
A1C
  8
SAPA_PROFIL
 62
     0
 10
34.544281941973743
 20
98.367360904105681
 30
0.0
 11
34.544281941973743
 21
98.367360904105681
 31
0.0
  0
LINE
  5
A1D
  8
SAPA_PROFIL
 62
     0
 10
36.106781941973743
 20
97.742360904105681
 30
0.0
 11
36.106781941973743
 21
97.742360904105681
 31
0.0
  0
LINE
  5
A1E
  8
SAPA_PROFIL
 62
     0
 10
35.481781941973743
 20
97.742360904105681
 30
0.0
 11
35.481781941973743
 21
97.742360904105681
 31
0.0
  0
LINE
  5
A1F
  8
SAPA_PROFIL
 62
     0
 10
34.856781941973743
 20
97.742360904105681
 30
0.0
 11
34.856781941973743
 21
97.742360904105681
 31
0.0
  0
LINE
  5
A20
  8
SAPA_PROFIL
 62
     0
 10
34.231781941973743
 20
97.742360904105681
 30
0.0
 11
34.231781941973743
 21
97.742360904105681
 31
0.0
  0
POLYLINE
  5
A21
  8
SAPA_PROFIL
  6
CONTINUOUS
 66
     1
 10
0.0
 20
0.0
 30
0.0
 70
     1
  0
VERTEX
  5
D8D
  8
SAPA_PROFIL
  6
CONTINUOUS
 10
5.0269342403329338
 20
52.909972931217851
 30
0.0
 42
-0.4142135623730951
  0
VERTEX
  5
D8E
  8
SAPA_PROFIL
  6
CONTINUOUS
 10
4.7269342403328656
 20
53.209972931217813
 30
0.0
  0
VERTEX
  5
D8F
  8
SAPA_PROFIL
  6
CONTINUOUS
 10
4.7269342403329802
 20
88.085708862505783
 30
0.0
 42
-0.198912367379658
  0
VERTEX
  5
D90
  8
SAPA_PROFIL
  6
CONTINUOUS
 10
4.8148022059768891
 20
88.297840896861828
 30
0.0
  0
VERTEX
  5
D91
  8
SAPA_PROFIL
  6
CONTINUOUS
 10
8.1390662746888438
 20
91.622104965573669
 30
0.0
 42
-0.1989123673796998
  0
VERTEX
  5
D92
  8
SAPA_PROFIL
  6
CONTINUOUS
 10
8.3511983090448894
 20
91.709972931217806
 30
0.0
  0
VERTEX
  5
D93
  8
SAPA_PROFIL
  6
CONTINUOUS
 10
11.826934240332889
 20
91.709972931217706
 30
0.0
 42
-0.4142135623730951
  0
VERTEX
  5
D94
  8
SAPA_PROFIL
  6
CONTINUOUS
 10
12.12693424033284
 20
91.409972931217737
 30
0.0
  0
VERTEX
  5
D95
  8
SAPA_PROFIL
  6
CONTINUOUS
 10
12.126934240332959
 20
84.00997293121776
 30
0.0
 42
0.4142135623730951
  0
VERTEX
  5
D96
  8
SAPA_PROFIL
  6
CONTINUOUS
 10
12.42693424033291
 20
83.709972931217806
 30
0.0
  0
VERTEX
  5
D97
  8
SAPA_PROFIL
  6
CONTINUOUS
 10
14.026934240332929
 20
83.709972931217806
 30
0.0
 42
0.4142135623730951
  0
VERTEX
  5
D98
  8
SAPA_PROFIL
  6
CONTINUOUS
 10
14.326934240332889
 20
84.00997293121776
 30
0.0
  0
VERTEX
  5
D99
  8
SAPA_PROFIL
  6
CONTINUOUS
 10
14.326934240332889
 20
92.409972931217737
 30
0.0
 42
-0.4142135623730951
  0
VERTEX
  5
D9A
  8
SAPA_PROFIL
  6
CONTINUOUS
 10
14.62693424033284
 20
92.709972931217806
 30
0.0
  0
VERTEX
  5
D9B
  8
SAPA_PROFIL
  6
CONTINUOUS
 10
27.426934240332908
 20
92.709972931217692
 30
0.0
 42
-0.4142135623730951
  0
VERTEX
  5
D9C
  8
SAPA_PROFIL
  6
CONTINUOUS
 10
27.72693424033287
 20
92.409972931217737
 30
0.0
  0
VERTEX
  5
D9D
  8
SAPA_PROFIL
  6
CONTINUOUS
 10
27.72693424033287
 20
88.409972931217723
 30
0.0
 42
0.6681786379192989
  0
VERTEX
  5
D9E
  8
SAPA_PROFIL
  6
CONTINUOUS
 10
28.580487630925859
 20
88.056419540624745
 30
0.0
  0
VERTEX
  5
D9F
  8
SAPA_PROFIL
  6
CONTINUOUS
 10
29.72693424033287
 20
89.202866150031767
 30
0.0
  0
VERTEX
  5
DA0
  8
SAPA_PROFIL
  6
CONTINUOUS
 10
29.72693424033287
 20
92.409972931217737
 30
0.0
 42
-0.4142135623730951
  0
VERTEX
  5
DA1
  8
SAPA_PROFIL
  6
CONTINUOUS
 10
30.026934240332821
 20
92.709972931217806
 30
0.0
  0
VERTEX
  5
DA2
  8
SAPA_PROFIL
  6
CONTINUOUS
 10
30.860908836548901
 20
92.709972931217806
 30
0.0
  0
VERTEX
  5
DA3
  8
SAPA_PROFIL
  6
CONTINUOUS
 10
31.72693424033287
 20
93.209972931217806
 30
0.0
  0
VERTEX
  5
DA4
  8
SAPA_PROFIL
  6
CONTINUOUS
 10
32.592959644116831
 20
92.709972931217806
 30
0.0
  0
VERTEX
  5
DA5
  8
SAPA_PROFIL
  6
CONTINUOUS
 10
33.426934240332912
 20
92.709972931217692
 30
0.0
 42
-0.4142135623730951
  0
VERTEX
  5
DA6
  8
SAPA_PROFIL
  6
CONTINUOUS
 10
33.726934240332866
 20
92.409972931217737
 30
0.0
  0
VERTEX
  5
DA7
  8
SAPA_PROFIL
  6
CONTINUOUS
 10
33.726934240332866
 20
88.709972931217806
 30
0.0
  0
VERTEX
  5
DA8
  8
SAPA_PROFIL
  6
CONTINUOUS
 10
34.726934240332866
 20
87.709972931217806
 30
0.0
  0
VERTEX
  5
DA9
  8
SAPA_PROFIL
  6
CONTINUOUS
 10
48.826934240332889
 20
87.709972931217806
 30
0.0
 42
-0.4142135623730951
  0
VERTEX
  5
DAA
  8
SAPA_PROFIL
  6
CONTINUOUS
 10
49.126934240332837
 20
87.409972931217737
 30
0.0
  0
VERTEX
  5
DAB
  8
SAPA_PROFIL
  6
CONTINUOUS
 10
49.126934240332837
 20
84.00997293121776
 30
0.0
 42
0.4142135623730951
  0
VERTEX
  5
DAC
  8
SAPA_PROFIL
  6
CONTINUOUS
 10
49.426934240332912
 20
83.709972931217806
 30
0.0
  0
VERTEX
  5
DAD
  8
SAPA_PROFIL
  6
CONTINUOUS
 10
51.026934240332821
 20
83.709972931217806
 30
0.0
 42
0.4142135623730951
  0
VERTEX
  5
DAE
  8
SAPA_PROFIL
  6
CONTINUOUS
 10
51.326934240332768
 20
84.00997293121776
 30
0.0
  0
VERTEX
  5
DAF
  8
SAPA_PROFIL
  6
CONTINUOUS
 10
51.326934240332889
 20
87.409972931217737
 30
0.0
 42
-0.4142135623730951
  0
VERTEX
  5
DB0
  8
SAPA_PROFIL
  6
CONTINUOUS
 10
51.626934240332837
 20
87.709972931217692
 30
0.0
  0
VERTEX
  5
DB1
  8
SAPA_PROFIL
  6
CONTINUOUS
 10
58.426934240332912
 20
87.709972931217806
 30
0.0
 42
-0.4142135623730951
  0
VERTEX
  5
DB2
  8
SAPA_PROFIL
  6
CONTINUOUS
 10
58.726934240332859
 20
87.409972931217737
 30
0.0
  0
VERTEX
  5
DB3
  8
SAPA_PROFIL
  6
CONTINUOUS
 10
58.726934240332859
 20
53.209972931217813
 30
0.0
 42
-0.4142135623730951
  0
VERTEX
  5
DB4
  8
SAPA_PROFIL
  6
CONTINUOUS
 10
58.426934240332912
 20
52.909972931217851
 30
0.0
  0
VERTEX
  5
DB5
  8
SAPA_PROFIL
  6
CONTINUOUS
 10
51.626934240332837
 20
52.90997293121773
 30
0.0
 42
-0.4142135623730951
  0
VERTEX
  5
DB6
  8
SAPA_PROFIL
  6
CONTINUOUS
 10
51.326934240332889
 20
53.209972931217813
 30
0.0
  0
VERTEX
  5
DB7
  8
SAPA_PROFIL
  6
CONTINUOUS
 10
51.326934240332889
 20
56.609972931217783
 30
0.0
 42
0.4142135623730951
  0
VERTEX
  5
DB8
  8
SAPA_PROFIL
  6
CONTINUOUS
 10
51.026934240332821
 20
56.909972931217737
 30
0.0
  0
VERTEX
  5
DB9
  8
SAPA_PROFIL
  6
CONTINUOUS
 10
49.426934240332912
 20
56.909972931217737
 30
0.0
 42
0.4142135623730951
  0
VERTEX
  5
DBA
  8
SAPA_PROFIL
  6
CONTINUOUS
 10
49.126934240332957
 20
56.609972931217783
 30
0.0
  0
VERTEX
  5
DBB
  8
SAPA_PROFIL
  6
CONTINUOUS
 10
49.126934240332837
 20
52.00997293121776
 30
0.0
 42
-0.4142135623730951
  0
VERTEX
  5
DBC
  8
SAPA_PROFIL
  6
CONTINUOUS
 10
48.826934240332889
 20
51.709972931217798
 30
0.0
  0
VERTEX
  5
DBD
  8
SAPA_PROFIL
  6
CONTINUOUS
 10
14.62693424033284
 20
51.709972931217798
 30
0.0
 42
-0.4142135623730951
  0
VERTEX
  5
DBE
  8
SAPA_PROFIL
  6
CONTINUOUS
 10
14.326934240332889
 20
52.00997293121776
 30
0.0
  0
VERTEX
  5
DBF
  8
SAPA_PROFIL
  6
CONTINUOUS
 10
14.326934240332889
 20
56.609972931217783
 30
0.0
 42
0.4142135623730951
  0
VERTEX
  5
DC0
  8
SAPA_PROFIL
  6
CONTINUOUS
 10
14.026934240332929
 20
56.909972931217737
 30
0.0
  0
VERTEX
  5
DC1
  8
SAPA_PROFIL
  6
CONTINUOUS
 10
12.42693424033291
 20
56.909972931217737
 30
0.0
 42
0.4142135623730951
  0
VERTEX
  5
DC2
  8
SAPA_PROFIL
  6
CONTINUOUS
 10
12.126934240332959
 20
56.609972931217783
 30
0.0
  0
VERTEX
  5
DC3
  8
SAPA_PROFIL
  6
CONTINUOUS
 10
12.12693424033284
 20
53.209972931217813
 30
0.0
 42
-0.4142135623730951
  0
VERTEX
  5
DC4
  8
SAPA_PROFIL
  6
CONTINUOUS
 10
11.826934240332889
 20
52.909972931217851
 30
0.0
  0
SEQEND
  5
DC5
  8
SAPA_PROFIL
  6
CONTINUOUS
  0
POLYLINE
  5
A22
  8
SAPA_PROFIL
  6
CONTINUOUS
 66
     1
 10
0.0
 20
0.0
 30
0.0
 70
     1
  0
VERTEX
  5
DC6
  8
SAPA_PROFIL
  6
CONTINUOUS
 10
9.5269342403327073
 20
41.40997293121773
 30
0.0
 42
0.4142135623730951
  0
VERTEX
  5
DC7
  8
SAPA_PROFIL
  6
CONTINUOUS
 10
9.2269342403327528
 20
41.709972931217798
 30
0.0
  0
VERTEX
  5
DC8
  8
SAPA_PROFIL
  6
CONTINUOUS
 10
8.7769342403327073
 20
41.709972931217919
 30
0.0
 42
-0.4142135623730951
  0
VERTEX
  5
DC9
  8
SAPA_PROFIL
  6
CONTINUOUS
 10
8.4769342403327528
 20
42.009972931217867
 30
0.0
  0
VERTEX
  5
DCA
  8
SAPA_PROFIL
  6
CONTINUOUS
 10
8.4769342403327528
 20
42.709972931217692
 30
0.0
 42
-0.4142135623731506
  0
VERTEX
  5
DCB
  8
SAPA_PROFIL
  6
CONTINUOUS
 10
8.7769342403327073
 20
43.00997293121776
 30
0.0
  0
VERTEX
  5
DCC
  8
SAPA_PROFIL
  6
CONTINUOUS
 10
9.2269342403327528
 20
43.00997293121776
 30
0.0
 42
0.4142135623731506
  0
VERTEX
  5
DCD
  8
SAPA_PROFIL
  6
CONTINUOUS
 10
9.5269342403327073
 20
43.309972931217821
 30
0.0
  0
VERTEX
  5
DCE
  8
SAPA_PROFIL
  6
CONTINUOUS
 10
9.5269342403328192
 20
43.809972931217821
 30
0.0
 42
0.4142135623730951
  0
VERTEX
  5
DCF
  8
SAPA_PROFIL
  6
CONTINUOUS
 10
9.0269342403328192
 20
44.309972931217828
 30
0.0
  0
VERTEX
  5
DD0
  8
SAPA_PROFIL
  6
CONTINUOUS
 10
7.6269342403328428
 20
44.309972931217828
 30
0.0
 42
-0.4142135623730951
  0
VERTEX
  5
DD1
  8
SAPA_PROFIL
  6
CONTINUOUS
 10
6.6269342403328428
 20
45.309972931217828
 30
0.0
  0
VERTEX
  5
DD2
  8
SAPA_PROFIL
  6
CONTINUOUS
 10
6.62693424033273
 20
45.709972931217798
 30
0.0
 42
-0.9999999999999998
  0
VERTEX
  5
DD3
  8
SAPA_PROFIL
  6
CONTINUOUS
 10
13.82693424033277
 20
45.709972931217798
 30
0.0
  0
VERTEX
  5
DD4
  8
SAPA_PROFIL
  6
CONTINUOUS
 10
13.826934240332889
 20
44.609972931217662
 30
0.0
 42
-0.4142135623732059
  0
VERTEX
  5
DD5
  8
SAPA_PROFIL
  6
CONTINUOUS
 10
13.526934240332819
 20
44.309972931217601
 30
0.0
  0
VERTEX
  5
DD6
  8
SAPA_PROFIL
  6
CONTINUOUS
 10
13.22693424033298
 20
44.309972931217828
 30
0.0
 42
0.4142135623733948
  0
VERTEX
  5
DD7
  8
SAPA_PROFIL
  6
CONTINUOUS
 10
12.726934240332641
 20
43.809972931217821
 30
0.0
  0
VERTEX
  5
DD8
  8
SAPA_PROFIL
  6
CONTINUOUS
 10
12.726934240332641
 20
43.309972931217821
 30
0.0
 42
0.4142135623730397
  0
VERTEX
  5
DD9
  8
SAPA_PROFIL
  6
CONTINUOUS
 10
13.02693424033259
 20
43.009972931217867
 30
0.0
  0
VERTEX
  5
DDA
  8
SAPA_PROFIL
  6
CONTINUOUS
 10
13.476934240332749
 20
43.00997293121776
 30
0.0
 42
-0.4142135623731505
  0
VERTEX
  5
DDB
  8
SAPA_PROFIL
  6
CONTINUOUS
 10
13.7769342403327
 20
42.709972931217692
 30
0.0
  0
VERTEX
  5
DDC
  8
SAPA_PROFIL
  6
CONTINUOUS
 10
13.7769342403327
 20
42.009972931217867
 30
0.0
 42
-0.4142135623730951
  0
VERTEX
  5
DDD
  8
SAPA_PROFIL
  6
CONTINUOUS
 10
13.476934240332749
 20
41.709972931217798
 30
0.0
  0
VERTEX
  5
DDE
  8
SAPA_PROFIL
  6
CONTINUOUS
 10
13.026934240332711
 20
41.709972931217798
 30
0.0
 42
0.4142135623730951
  0
VERTEX
  5
DDF
  8
SAPA_PROFIL
  6
CONTINUOUS
 10
12.726934240332641
 20
41.40997293121773
 30
0.0
  0
VERTEX
  5
DE0
  8
SAPA_PROFIL
  6
CONTINUOUS
 10
12.7269342403332
 20
40.709972931217351
 30
0.0
 42
0.2504916501726643
  0
VERTEX
  5
DE1
  8
SAPA_PROFIL
  6
CONTINUOUS
 10
13.726934240332641
 20
39.709972931217813
 30
0.0
  0
VERTEX
  5
DE2
  8
SAPA_PROFIL
  6
CONTINUOUS
 10
16.026934240332711
 20
39.709972931217813
 30
0.0
 42
0.4142135623730951
  0
VERTEX
  5
DE3
  8
SAPA_PROFIL
  6
CONTINUOUS
 10
17.0269342403327
 20
40.709972931217798
 30
0.0
  0
VERTEX
  5
DE4
  8
SAPA_PROFIL
  6
CONTINUOUS
 10
17.0269342403327
 20
48.40997293121773
 30
0.0
 42
-0.4142135623730951
  0
VERTEX
  5
DE5
  8
SAPA_PROFIL
  6
CONTINUOUS
 10
17.326934240332658
 20
48.709972931217813
 30
0.0
  0
VERTEX
  5
DE6
  8
SAPA_PROFIL
  6
CONTINUOUS
 10
30.860908836548901
 20
48.709972931217813
 30
0.0
  0
VERTEX
  5
DE7
  8
SAPA_PROFIL
  6
CONTINUOUS
 10
31.72693424033287
 20
49.209972931217798
 30
0.0
  0
VERTEX
  5
DE8
  8
SAPA_PROFIL
  6
CONTINUOUS
 10
32.592959644116831
 20
48.709972931217813
 30
0.0
  0
VERTEX
  5
DE9
  8
SAPA_PROFIL
  6
CONTINUOUS
 10
46.126934240332837
 20
48.709972931217692
 30
0.0
 42
-0.4142135623730951
  0
VERTEX
  5
DEA
  8
SAPA_PROFIL
  6
CONTINUOUS
 10
46.426934240333033
 20
48.40997293121773
 30
0.0
  0
VERTEX
  5
DEB
  8
SAPA_PROFIL
  6
CONTINUOUS
 10
46.426934240333033
 20
40.709972931217798
 30
0.0
 42
0.4142135623730951
  0
VERTEX
  5
DEC
  8
SAPA_PROFIL
  6
CONTINUOUS
 10
47.426934240333019
 20
39.709972931217813
 30
0.0
  0
VERTEX
  5
DED
  8
SAPA_PROFIL
  6
CONTINUOUS
 10
49.726934240333087
 20
39.709972931217813
 30
0.0
 42
0.2504916501726643
  0
VERTEX
  5
DEE
  8
SAPA_PROFIL
  6
CONTINUOUS
 10
50.726934240332533
 20
40.709972931217351
 30
0.0
  0
VERTEX
  5
DEF
  8
SAPA_PROFIL
  6
CONTINUOUS
 10
50.726934240333087
 20
41.40997293121773
 30
0.0
 42
0.4142135623730951
  0
VERTEX
  5
DF0
  8
SAPA_PROFIL
  6
CONTINUOUS
 10
50.426934240333019
 20
41.709972931217798
 30
0.0
  0
VERTEX
  5
DF1
  8
SAPA_PROFIL
  6
CONTINUOUS
 10
49.97693424033298
 20
41.709972931217798
 30
0.0
 42
-0.4142135623730951
  0
VERTEX
  5
DF2
  8
SAPA_PROFIL
  6
CONTINUOUS
 10
49.676934240333033
 20
42.009972931217867
 30
0.0
  0
VERTEX
  5
DF3
  8
SAPA_PROFIL
  6
CONTINUOUS
 10
49.676934240333033
 20
42.709972931217692
 30
0.0
 42
-0.4142135623731506
  0
VERTEX
  5
DF4
  8
SAPA_PROFIL
  6
CONTINUOUS
 10
49.97693424033298
 20
43.00997293121776
 30
0.0
  0
VERTEX
  5
DF5
  8
SAPA_PROFIL
  6
CONTINUOUS
 10
50.426934240333139
 20
43.009972931217867
 30
0.0
 42
0.4142135623730397
  0
VERTEX
  5
DF6
  8
SAPA_PROFIL
  6
CONTINUOUS
 10
50.726934240333087
 20
43.309972931217821
 30
0.0
  0
VERTEX
  5
DF7
  8
SAPA_PROFIL
  6
CONTINUOUS
 10
50.726934240333087
 20
43.809972931217821
 30
0.0
 42
0.4142135623733948
  0
VERTEX
  5
DF8
  8
SAPA_PROFIL
  6
CONTINUOUS
 10
50.226934240332753
 20
44.309972931217828
 30
0.0
  0
VERTEX
  5
DF9
  8
SAPA_PROFIL
  6
CONTINUOUS
 10
49.926934240332912
 20
44.309972931217601
 30
0.0
 42
-0.4142135623732059
  0
VERTEX
  5
DFA
  8
SAPA_PROFIL
  6
CONTINUOUS
 10
49.626934240332837
 20
44.609972931217662
 30
0.0
  0
VERTEX
  5
DFB
  8
SAPA_PROFIL
  6
CONTINUOUS
 10
49.626934240332957
 20
45.709972931217798
 30
0.0
 42
-0.9999999999999998
  0
VERTEX
  5
DFC
  8
SAPA_PROFIL
  6
CONTINUOUS
 10
56.826934240333003
 20
45.709972931217798
 30
0.0
  0
VERTEX
  5
DFD
  8
SAPA_PROFIL
  6
CONTINUOUS
 10
56.826934240332882
 20
45.309972931217828
 30
0.0
 42
-0.4142135623730951
  0
VERTEX
  5
DFE
  8
SAPA_PROFIL
  6
CONTINUOUS
 10
55.826934240332889
 20
44.309972931217828
 30
0.0
  0
VERTEX
  5
DFF
  8
SAPA_PROFIL
  6
CONTINUOUS
 10
54.426934240332912
 20
44.309972931217828
 30
0.0
 42
0.4142135623730951
  0
VERTEX
  5
E00
  8
SAPA_PROFIL
  6
CONTINUOUS
 10
53.926934240332912
 20
43.809972931217821
 30
0.0
  0
VERTEX
  5
E01
  8
SAPA_PROFIL
  6
CONTINUOUS
 10
53.926934240333033
 20
43.309972931217821
 30
0.0
 42
0.4142135623731506
  0
VERTEX
  5
E02
  8
SAPA_PROFIL
  6
CONTINUOUS
 10
54.22693424033298
 20
43.00997293121776
 30
0.0
  0
VERTEX
  5
E03
  8
SAPA_PROFIL
  6
CONTINUOUS
 10
54.676934240333033
 20
43.00997293121776
 30
0.0
 42
-0.4142135623731505
  0
VERTEX
  5
E04
  8
SAPA_PROFIL
  6
CONTINUOUS
 10
54.97693424033298
 20
42.709972931217692
 30
0.0
  0
VERTEX
  5
E05
  8
SAPA_PROFIL
  6
CONTINUOUS
 10
54.97693424033298
 20
42.009972931217867
 30
0.0
 42
-0.4142135623730951
  0
VERTEX
  5
E06
  8
SAPA_PROFIL
  6
CONTINUOUS
 10
54.676934240333033
 20
41.709972931217919
 30
0.0
  0
VERTEX
  5
E07
  8
SAPA_PROFIL
  6
CONTINUOUS
 10
54.22693424033298
 20
41.709972931217798
 30
0.0
 42
0.4142135623730951
  0
VERTEX
  5
E08
  8
SAPA_PROFIL
  6
CONTINUOUS
 10
53.926934240333033
 20
41.40997293121773
 30
0.0
  0
VERTEX
  5
E09
  8
SAPA_PROFIL
  6
CONTINUOUS
 10
53.926934240333033
 20
40.709972931217798
 30
0.0
 42
0.2504916501726753
  0
VERTEX
  5
E0A
  8
SAPA_PROFIL
  6
CONTINUOUS
 10
54.926934240333253
 20
39.709972931217351
 30
0.0
  0
VERTEX
  5
E0B
  8
SAPA_PROFIL
  6
CONTINUOUS
 10
57.31272067795998
 20
39.709972931217813
 30
0.0
 42
0.1989123673796728
  0
VERTEX
  5
E0C
  8
SAPA_PROFIL
  6
CONTINUOUS
 10
58.019827459146541
 20
40.002866150031252
 30
0.0
  0
VERTEX
  5
E0D
  8
SAPA_PROFIL
  6
CONTINUOUS
 10
60.848254583892071
 20
42.831293274777693
 30
0.0
 42
0.1989123673796725
  0
VERTEX
  5
E0E
  8
SAPA_PROFIL
  6
CONTINUOUS
 10
61.726934240332866
 20
44.952613618336777
 30
0.0
  0
VERTEX
  5
E0F
  8
SAPA_PROFIL
  6
CONTINUOUS
 10
61.726934240332866
 20
90.467332244098813
 30
0.0
 42
0.1989123673796575
  0
VERTEX
  5
E10
  8
SAPA_PROFIL
  6
CONTINUOUS
 10
60.84825458389286
 20
92.588652587657805
 30
0.0
  0
VERTEX
  5
E11
  8
SAPA_PROFIL
  6
CONTINUOUS
 10
58.01982745914642
 20
95.417079712404359
 30
0.0
 42
0.198912367379658
  0
VERTEX
  5
E12
  8
SAPA_PROFIL
  6
CONTINUOUS
 10
57.312720677959881
 20
95.709972931217806
 30
0.0
  0
VERTEX
  5
E13
  8
SAPA_PROFIL
  6
CONTINUOUS
 10
54.226934240332866
 20
95.709972931217806
 30
0.0
  0
VERTEX
  5
E14
  8
SAPA_PROFIL
  6
CONTINUOUS
 10
53.226934240332859
 20
94.709972931217806
 30
0.0
  0
VERTEX
  5
E15
  8
SAPA_PROFIL
  6
CONTINUOUS
 10
53.226934240332859
 20
93.709972931217806
 30
0.0
  0
VERTEX
  5
E16
  8
SAPA_PROFIL
  6
CONTINUOUS
 10
55.276934240332821
 20
93.709972931217692
 30
0.0
 42
-0.4142135623730951
  0
VERTEX
  5
E17
  8
SAPA_PROFIL
  6
CONTINUOUS
 10
55.576934240332882
 20
93.409972931217723
 30
0.0
  0
VERTEX
  5
E18
  8
SAPA_PROFIL
  6
CONTINUOUS
 10
55.576934240332783
 20
90.959972931217806
 30
0.0
 42
-0.4142135623730951
  0
VERTEX
  5
E19
  8
SAPA_PROFIL
  6
CONTINUOUS
 10
55.276934240332821
 20
90.659972931217723
 30
0.0
  0
VERTEX
  5
E1A
  8
SAPA_PROFIL
  6
CONTINUOUS
 10
37.176934240332912
 20
90.659972931217851
 30
0.0
 42
-0.414213562373095
  0
VERTEX
  5
E1B
  8
SAPA_PROFIL
  6
CONTINUOUS
 10
36.876934240332837
 20
90.959972931217806
 30
0.0
  0
VERTEX
  5
E1C
  8
SAPA_PROFIL
  6
CONTINUOUS
 10
36.876934240332957
 20
93.409972931217723
 30
0.0
 42
-0.4142135623730951
  0
VERTEX
  5
E1D
  8
SAPA_PROFIL
  6
CONTINUOUS
 10
37.176934240332912
 20
93.709972931217806
 30
0.0
  0
VERTEX
  5
E1E
  8
SAPA_PROFIL
  6
CONTINUOUS
 10
38.926934240332912
 20
93.709972931217806
 30
0.0
 42
0.4142135623730951
  0
VERTEX
  5
E1F
  8
SAPA_PROFIL
  6
CONTINUOUS
 10
39.226934240332866
 20
94.00997293121776
 30
0.0
  0
VERTEX
  5
E20
  8
SAPA_PROFIL
  6
CONTINUOUS
 10
39.226934240332866
 20
94.709972931217806
 30
0.0
  0
VERTEX
  5
E21
  8
SAPA_PROFIL
  6
CONTINUOUS
 10
38.226934240332866
 20
95.709972931217806
 30
0.0
  0
VERTEX
  5
E22
  8
SAPA_PROFIL
  6
CONTINUOUS
 10
32.592959644116831
 20
95.709972931217806
 30
0.0
  0
VERTEX
  5
E23
  8
SAPA_PROFIL
  6
CONTINUOUS
 10
31.72693424033287
 20
95.209972931217806
 30
0.0
  0
VERTEX
  5
E24
  8
SAPA_PROFIL
  6
CONTINUOUS
 10
30.860908836548901
 20
95.709972931217806
 30
0.0
  0
VERTEX
  5
E25
  8
SAPA_PROFIL
  6
CONTINUOUS
 10
11.726934240332859
 20
95.709972931217806
 30
0.0
 42
-0.4142135623730951
  0
VERTEX
  5
E26
  8
SAPA_PROFIL
  6
CONTINUOUS
 10
10.726934240332859
 20
96.709972931217806
 30
0.0
  0
VERTEX
  5
E27
  8
SAPA_PROFIL
  6
CONTINUOUS
 10
10.726934240332859
 20
106.20997293121781
 30
0.0
 42
0.4142135623730951
  0
VERTEX
  5
E28
  8
SAPA_PROFIL
  6
CONTINUOUS
 10
11.726934240332859
 20
107.20997293121781
 30
0.0
  0
VERTEX
  5
E29
  8
SAPA_PROFIL
  6
CONTINUOUS
 10
11.726934240332859
 20
107.7775173991827
 30
0.0
 42
0.2896898633030159
  0
VERTEX
  5
E2A
  8
SAPA_PROFIL
  6
CONTINUOUS
 10
11.15550566890351
 20
108.6810253020883
 30
0.0
 42
0.5507604245859661
  0
VERTEX
  5
E2B
  8
SAPA_PROFIL
  6
CONTINUOUS
 10
10.726934240334909
 20
108.40997293121769
 30
0.0
  0
VERTEX
  5
E2C
  8
SAPA_PROFIL
  6
CONTINUOUS
 10
10.726934240332859
 20
107.7599729312177
 30
0.0
 42
-0.4142135623730951
  0
VERTEX
  5
E2D
  8
SAPA_PROFIL
  6
CONTINUOUS
 10
10.42693424033291
 20
107.45997293121781
 30
0.0
  0
VERTEX
  5
E2E
  8
SAPA_PROFIL
  6
CONTINUOUS
 10
9.2269342403328665
 20
107.45997293121781
 30
0.0
 42
-0.4142135623730951
  0
VERTEX
  5
E2F
  8
SAPA_PROFIL
  6
CONTINUOUS
 10
8.7269342403328665
 20
107.95997293121781
 30
0.0
  0
VERTEX
  5
E30
  8
SAPA_PROFIL
  6
CONTINUOUS
 10
8.7269342403328665
 20
115.95997293121781
 30
0.0
 42
-0.4142135623730951
  0
VERTEX
  5
E31
  8
SAPA_PROFIL
  6
CONTINUOUS
 10
9.2269342403328665
 20
116.45997293121781
 30
0.0
  0
VERTEX
  5
E32
  8
SAPA_PROFIL
  6
CONTINUOUS
 10
10.42693424033291
 20
116.45997293121781
 30
0.0
 42
-0.4142135623730951
  0
VERTEX
  5
E33
  8
SAPA_PROFIL
  6
CONTINUOUS
 10
10.726934240332859
 20
116.15997293121769
 30
0.0
  0
VERTEX
  5
E34
  8
SAPA_PROFIL
  6
CONTINUOUS
 10
10.726934240332859
 20
115.5099729312177
 30
0.0
 42
0.5507604245859089
  0
VERTEX
  5
E35
  8
SAPA_PROFIL
  6
CONTINUOUS
 10
11.15550566890408
 20
115.2389205603461
 30
0.0
 42
0.2896898633030179
  0
VERTEX
  5
E36
  8
SAPA_PROFIL
  6
CONTINUOUS
 10
11.72693424033184
 20
116.1424284632528
 30
0.0
  0
VERTEX
  5
E37
  8
SAPA_PROFIL
  6
CONTINUOUS
 10
11.726934240332859
 20
117.40997293121769
 30
0.0
 42
0.4142135623730951
  0
VERTEX
  5
E38
  8
SAPA_PROFIL
  6
CONTINUOUS
 10
11.42693424033291
 20
117.70997293121771
 30
0.0
  0
VERTEX
  5
E39
  8
SAPA_PROFIL
  6
CONTINUOUS
 10
7.2269342403328656
 20
117.70997293121781
 30
0.0
 42
0.4142135623730951
  0
VERTEX
  5
E3A
  8
SAPA_PROFIL
  6
CONTINUOUS
 10
6.2269342403328656
 20
116.70997293121781
 30
0.0
  0
VERTEX
  5
E3B
  8
SAPA_PROFIL
  6
CONTINUOUS
 10
6.2269342403328656
 20
97.452613618336784
 30
0.0
 42
-0.1989123673796595
  0
VERTEX
  5
E3C
  8
SAPA_PROFIL
  6
CONTINUOUS
 10
5.3482545838925262
 20
95.331293274777124
 30
0.0
  0
VERTEX
  5
E3D
  8
SAPA_PROFIL
  6
CONTINUOUS
 10
2.6056138967728648
 20
92.588652587657805
 30
0.0
 42
0.1989123673796574
  0
VERTEX
  5
E3E
  8
SAPA_PROFIL
  6
CONTINUOUS
 10
1.726934240332866
 20
90.467332244098813
 30
0.0
  0
VERTEX
  5
E3F
  8
SAPA_PROFIL
  6
CONTINUOUS
 10
1.726934240332866
 20
44.952613618336777
 30
0.0
 42
0.1989123673796727
  0
VERTEX
  5
E40
  8
SAPA_PROFIL
  6
CONTINUOUS
 10
2.6056138967736611
 20
42.831293274777693
 30
0.0
  0
VERTEX
  5
E41
  8
SAPA_PROFIL
  6
CONTINUOUS
 10
5.4340410215191923
 20
40.002866150031252
 30
0.0
 42
0.1989123673796728
  0
VERTEX
  5
E42
  8
SAPA_PROFIL
  6
CONTINUOUS
 10
6.1411478027057447
 20
39.709972931217813
 30
0.0
  0
VERTEX
  5
E43
  8
SAPA_PROFIL
  6
CONTINUOUS
 10
8.5269342403324782
 20
39.709972931217351
 30
0.0
 42
0.2504916501726754
  0
VERTEX
  5
E44
  8
SAPA_PROFIL
  6
CONTINUOUS
 10
9.5269342403327073
 20
40.709972931217798
 30
0.0
  0
SEQEND
  5
E45
  8
SAPA_PROFIL
  6
CONTINUOUS
  0
LINE
  5
A30
  8
SAPA_GLAS
  6
BYGG-018987$0$DASHDOT
 62
     2
 10
32.724825135330889
 20
87.289586437047689
 30
0.0
 11
32.724825135330732
 21
98.674348215063503
 31
0.0
  0
POLYLINE
  5
A31
  8
SAPA_GLAS
 62
     6
 66
     1
 10
0.0
 20
0.0
 30
0.0
 70
     1
  0
VERTEX
  5
E73
  8
SAPA_GLAS
 62
     6
 10
34.305465616155033
 20
96.697801014010096
 30
0.0
  0
VERTEX
  5
E74
  8
SAPA_GLAS
 62
     6
 10
34.305465616154862
 20
108.69780101401
 30
0.0
  0
VERTEX
  5
E75
  8
SAPA_GLAS
 62
     6
 10
35.505465616154908
 20
108.6978010140101
 30
0.0
  0
VERTEX
  5
E76
  8
SAPA_GLAS
 62
     6
 10
35.505465616155071
 20
96.697801014010096
 30
0.0
  0
SEQEND
  5
E77
  8
SAPA_GLAS
 62
     6
  0
POLYLINE
  5
A32
  8
SAPA_GLAS
 62
     6
 66
     1
 10
0.0
 20
0.0
 30
0.0
 70
     1
  0
VERTEX
  5
E78
  8
SAPA_GLAS
 62
     6
 10
16.053675411267331
 20
96.697801014009826
 30
0.0
  0
VERTEX
  5
E79
  8
SAPA_GLAS
 62
     6
 10
16.053675411267161
 20
108.6978010140097
 30
0.0
  0
VERTEX
  5
E7A
  8
SAPA_GLAS
 62
     6
 10
17.253675411267199
 20
108.6978010140098
 30
0.0
  0
VERTEX
  5
E7B
  8
SAPA_GLAS
 62
     6
 10
17.25367541126737
 20
96.697801014009841
 30
0.0
  0
SEQEND
  5
E7C
  8
SAPA_GLAS
 62
     6
  0
POLYLINE
  5
A33
  8
SAPA_GLAS
 66
     1
 10
0.0
 20
0.0
 30
0.0
 70
     1
  0
VERTEX
  5
E7D
  8
SAPA_GLAS
 10
35.505465616155192
 20
104.02622813875649
 30
0.0
  0
VERTEX
  5
E7E
  8
SAPA_GLAS
 10
35.505465616154908
 20
108.6978010140101
 30
0.0
  0
VERTEX
  5
E7F
  8
SAPA_GLAS
 10
36.505465616154908
 20
108.6978010140101
 30
0.0
  0
VERTEX
  5
E80
  8
SAPA_GLAS
 10
36.505465616154972
 20
104.0262281387563
 30
0.0
 42
0.198912367379658
  0
VERTEX
  5
E81
  8
SAPA_GLAS
 10
36.651912225561873
 20
103.672674748163
 30
0.0
  0
VERTEX
  5
E82
  8
SAPA_GLAS
 10
42.06612578793505
 20
98.258461185790196
 30
0.0
 42
-0.6681786379193037
  0
VERTEX
  5
E83
  8
SAPA_GLAS
 10
41.005465616155078
 20
95.697801014010182
 30
0.0
  0
VERTEX
  5
E84
  8
SAPA_GLAS
 10
21.505465616155089
 20
95.697801014009926
 30
0.0
  0
VERTEX
  5
E85
  8
SAPA_GLAS
 10
21.505465616155071
 20
96.697801014009912
 30
0.0
  0
VERTEX
  5
E86
  8
SAPA_GLAS
 10
41.005465616155071
 20
96.697801014010182
 30
0.0
 42
0.6681786379193836
  0
VERTEX
  5
E87
  8
SAPA_GLAS
 10
41.359019006748397
 20
97.551354404603515
 30
0.0
  0
VERTEX
  5
E88
  8
SAPA_GLAS
 10
35.944805444375213
 20
102.96556796697649
 30
0.0
 42
-0.198912367379658
  0
SEQEND
  5
E89
  8
SAPA_GLAS
  0
POLYLINE
  5
A34
  8
SAPA_GLAS
 62
     6
 66
     1
 10
0.0
 20
0.0
 30
0.0
 70
     1
  0
VERTEX
  5
E8A
  8
SAPA_GLAS
 62
     6
 10
20.331610467900859
 20
99.216266922047339
 30
0.0
  0
VERTEX
  5
E8B
  8
SAPA_GLAS
 62
     6
 10
30.331610467900859
 20
99.216266922047481
 30
0.0
  0
VERTEX
  5
E8C
  8
SAPA_GLAS
 62
     6
 10
30.331610467900902
 20
96.716266922047481
 30
0.0
  0
VERTEX
  5
E8D
  8
SAPA_GLAS
 62
     6
 10
20.331610467900891
 20
96.716266922047339
 30
0.0
  0
SEQEND
  5
E8E
  8
SAPA_GLAS
 62
     6
  0
INSERT
  5
A35
  8
SAPA_GLAS
 62
     6
  2
*X10
 10
-754.92987195457283
 20
-517.32028265306417
 30
0.0
1001
ACAD
1000
HATCH
1002
{
1070
    16
1000
ANSI37
1040
10.0
1040
0.0
1002
}
  0
POLYLINE
  5
A36
  8
SAPA_GLAS
 66
     1
 10
0.0
 20
0.0
 30
0.0
  0
VERTEX
  5
E8F
  8
SAPA_GLAS
 10
33.222291754633552
 20
134.1581818908351
 30
0.0
  0
VERTEX
  5
E90
  8
SAPA_GLAS
 10
33.222291754634021
 20
101.4746653404914
 30
0.0
  0
VERTEX
  5
E91
  8
SAPA_GLAS
 10
18.222291754634011
 20
101.4746653404912
 30
0.0
  0
VERTEX
  5
E92
  8
SAPA_GLAS
 10
18.222291754633549
 20
134.1581818908349
 30
0.0
  0
SEQEND
  5
E93
  8
SAPA_GLAS
  0
POLYLINE
  5
A37
  8
SAPA_GLAS
 62
     1
 66
     1
 10
0.0
 20
0.0
 30
0.0
  0
VERTEX
  5
E94
  8
SAPA_GLAS
 62
     1
 10
17.695938917322511
 20
109.8496182453064
 30
0.0
  0
VERTEX
  5
E95
  8
SAPA_GLAS
 62
     1
 10
17.695938917322628
 20
101.11543546019431
 30
0.0
  0
VERTEX
  5
E96
  8
SAPA_GLAS
 62
     1
 10
33.69005552991969
 20
101.1154354601945
 30
0.0
  0
VERTEX
  5
E97
  8
SAPA_GLAS
 62
     1
 10
33.690055529919569
 20
109.88229435284281
 30
0.0
  0
SEQEND
  5
E98
  8
SAPA_GLAS
 62
     1
  0
POLYLINE
  5
A38
  8
SAPA_GLAS
 66
     1
 10
0.0
 20
0.0
 30
0.0
 70
     1
  0
VERTEX
  5
E99
  8
SAPA_GLAS
 10
16.053675411267331
 20
96.697801014009826
 30
0.0
  0
VERTEX
  5
E9A
  8
SAPA_GLAS
 10
41.05343029862896
 20
96.697801014010182
 30
0.0
  0
VERTEX
  5
E9B
  8
SAPA_GLAS
 10
41.053430298628967
 20
95.697801014010182
 30
0.0
  0
VERTEX
  5
E9C
  8
SAPA_GLAS
 10
15.05367541126734
 20
95.697801014009812
 30
0.0
  0
VERTEX
  5
E9D
  8
SAPA_GLAS
 10
15.053675411267159
 20
108.6978010140098
 30
0.0
  0
VERTEX
  5
E9E
  8
SAPA_GLAS
 10
16.053675411267161
 20
108.6978010140098
 30
0.0
  0
SEQEND
  5
E9F
  8
SAPA_GLAS
  0
POLYLINE
  5
A47
  8
SAPA_FOGBAND
 66
     1
 10
0.0
 20
0.0
 30
0.0
 70
     1
  0
VERTEX
  5
F5B
  8
SAPA_FOGBAND
 10
10.72706054028342
 20
25.087448768483181
 30
0.0
  0
VERTEX
  5
F5C
  8
SAPA_FOGBAND
 10
10.56979922951709
 20
31.34396294911085
 30
0.0
 42
-0.1593733635673558
  0
VERTEX
  5
F5D
  8
SAPA_FOGBAND
 10
10.605468799805379
 20
31.463077312714411
 30
0.0
 42
0.5327880064124698
  0
VERTEX
  5
F5E
  8
SAPA_FOGBAND
 10
10.36411372751215
 20
32.081639058976187
 30
0.0
 42
-0.6764759177002223
  0
VERTEX
  5
F5F
  8
SAPA_FOGBAND
 10
9.3189733822895064
 20
38.494377803299201
 30
0.0
  0
VERTEX
  5
F60
  8
SAPA_FOGBAND
 10
8.0746407946840932
 20
38.603242798370573
 30
0.0
 42
-0.3888787318529909
  0
VERTEX
  5
F61
  8
SAPA_FOGBAND
 10
7.5269342403326851
 20
39.200959617225593
 30
0.0
  0
VERTEX
  5
F62
  8
SAPA_FOGBAND
 10
7.5269342403326851
 20
39.497499838519232
 30
0.0
 42
-0.4142135623730951
  0
VERTEX
  5
F63
  8
SAPA_FOGBAND
 10
7.7269342403327306
 20
39.697499838519207
 30
0.0
  0
VERTEX
  5
F64
  8
SAPA_FOGBAND
 10
9.1269342403327087
 20
39.697499838519207
 30
0.0
 42
0.4142135623730951
  0
VERTEX
  5
F65
  8
SAPA_FOGBAND
 10
9.6269342403327087
 20
40.197499838519207
 30
0.0
  0
VERTEX
  5
F66
  8
SAPA_FOGBAND
 10
9.6269342403328224
 20
41.54403444092339
 30
0.0
 42
0.3394542588633722
  0
VERTEX
  5
F67
  8
SAPA_FOGBAND
 10
9.4786980493532624
 20
41.73721960618122
 30
0.0
  0
VERTEX
  5
F68
  8
SAPA_FOGBAND
 10
9.1751704313122442
 20
41.818549586315847
 30
0.0
 42
-0.4663076581549915
  0
VERTEX
  5
F69
  8
SAPA_FOGBAND
 10
9.0456726829254208
 20
42.096258403921809
 30
0.0
  0
VERTEX
  5
F6A
  8
SAPA_FOGBAND
 10
9.5081957977400648
 20
43.088142424537473
 30
0.0
 42
0.1095178116832386
  0
VERTEX
  5
F6B
  8
SAPA_FOGBAND
 10
9.5269342403326842
 20
43.172666076885612
 30
0.0
  0
VERTEX
  5
F6C
  8
SAPA_FOGBAND
 10
9.5269342403326842
 20
44.2743569782075
 30
0.0
 42
0.3394542588634028
  0
VERTEX
  5
F6D
  8
SAPA_FOGBAND
 10
9.4528161448430197
 20
44.370949560836443
 30
0.0
  0
VERTEX
  5
F6E
  8
SAPA_FOGBAND
 10
9.2751704313122687
 20
44.418549586315812
 30
0.0
 42
-0.4663076581549915
  0
VERTEX
  5
F6F
  8
SAPA_FOGBAND
 10
9.1456726829254436
 20
44.696258403921782
 30
0.0
  0
VERTEX
  5
F70
  8
SAPA_FOGBAND
 10
9.5081957977400648
 20
45.473691732486493
 30
0.0
 42
0.1095178116832386
  0
VERTEX
  5
F71
  8
SAPA_FOGBAND
 10
9.5269342403326842
 20
45.558215384834632
 30
0.0
  0
VERTEX
  5
F72
  8
SAPA_FOGBAND
 10
9.5269342403326842
 20
45.833733296402222
 30
0.0
 42
-0.0874886635259268
  0
VERTEX
  5
F73
  8
SAPA_FOGBAND
 10
9.6475489987609322
 20
46.517773583053561
 30
0.0
  0
VERTEX
  5
F74
  8
SAPA_FOGBAND
 10
9.9571916990446212
 20
47.36850991018207
 30
0.0
 42
-0.3152987888789804
  0
VERTEX
  5
F75
  8
SAPA_FOGBAND
 10
10.427038009437609
 20
47.697499838519207
 30
0.0
  0
VERTEX
  5
F76
  8
SAPA_FOGBAND
 10
11.826830471227909
 20
47.697499838519207
 30
0.0
 42
-0.3152987888789804
  0
VERTEX
  5
F77
  8
SAPA_FOGBAND
 10
12.296676781620789
 20
47.36850991018202
 30
0.0
  0
VERTEX
  5
F78
  8
SAPA_FOGBAND
 10
12.60631948190448
 20
46.517773583053561
 30
0.0
 42
-0.0874886635259269
  0
VERTEX
  5
F79
  8
SAPA_FOGBAND
 10
12.72693424033273
 20
45.833733296402222
 30
0.0
  0
VERTEX
  5
F7A
  8
SAPA_FOGBAND
 10
12.72693424033273
 20
45.558215384834632
 30
0.0
 42
0.1095178116832386
  0
VERTEX
  5
F7B
  8
SAPA_FOGBAND
 10
12.745672682925459
 20
45.473691732486493
 30
0.0
  0
VERTEX
  5
F7C
  8
SAPA_FOGBAND
 10
13.10819579774008
 20
44.696258403921782
 30
0.0
 42
-0.4663076581549913
  0
VERTEX
  5
F7D
  8
SAPA_FOGBAND
 10
12.978698049353261
 20
44.418549586315812
 30
0.0
  0
VERTEX
  5
F7E
  8
SAPA_FOGBAND
 10
12.80105233582251
 20
44.370949560836443
 30
0.0
 42
0.3394542588634028
  0
VERTEX
  5
F7F
  8
SAPA_FOGBAND
 10
12.72693424033273
 20
44.2743569782075
 30
0.0
  0
VERTEX
  5
F80
  8
SAPA_FOGBAND
 10
12.72693424033273
 20
43.172666076885612
 30
0.0
 42
0.1095178116832386
  0
VERTEX
  5
F81
  8
SAPA_FOGBAND
 10
12.745672682925459
 20
43.088142424537473
 30
0.0
  0
VERTEX
  5
F82
  8
SAPA_FOGBAND
 10
13.20819579774011
 20
42.096258403921809
 30
0.0
 42
-0.4663076581549913
  0
VERTEX
  5
F83
  8
SAPA_FOGBAND
 10
13.07869804935317
 20
41.818549586315847
 30
0.0
  0
VERTEX
  5
F84
  8
SAPA_FOGBAND
 10
12.77517043131227
 20
41.73721960618122
 30
0.0
 42
0.3394542588633723
  0
VERTEX
  5
F85
  8
SAPA_FOGBAND
 10
12.626934240332711
 20
41.54403444092339
 30
0.0
  0
VERTEX
  5
F86
  8
SAPA_FOGBAND
 10
12.626934240332711
 20
40.197499838519207
 30
0.0
 42
0.4142135623730951
  0
VERTEX
  5
F87
  8
SAPA_FOGBAND
 10
13.126934240332711
 20
39.697499838519207
 30
0.0
  0
VERTEX
  5
F88
  8
SAPA_FOGBAND
 10
14.526934240332681
 20
39.697499838519207
 30
0.0
 42
-0.4142135623730951
  0
VERTEX
  5
F89
  8
SAPA_FOGBAND
 10
14.72693424033273
 20
39.497499838519232
 30
0.0
  0
VERTEX
  5
F8A
  8
SAPA_FOGBAND
 10
14.72693424033273
 20
39.200959617225593
 30
0.0
 42
-0.3888787318529909
  0
VERTEX
  5
F8B
  8
SAPA_FOGBAND
 10
14.179227685981321
 20
38.603242798370573
 30
0.0
  0
VERTEX
  5
F8C
  8
SAPA_FOGBAND
 10
12.934895098375909
 20
38.494377803299201
 30
0.0
 42
-0.6764759177002223
  0
VERTEX
  5
F8D
  8
SAPA_FOGBAND
 10
11.889754753153261
 20
32.081639058976187
 30
0.0
 42
0.5327880064123889
  0
VERTEX
  5
F8E
  8
SAPA_FOGBAND
 10
11.648399680860029
 20
31.463077312714521
 30
0.0
 42
-0.1593733635673034
  0
VERTEX
  5
F8F
  8
SAPA_FOGBAND
 10
11.684069251148321
 20
31.34396294911102
 30
0.0
  0
VERTEX
  5
F90
  8
SAPA_FOGBAND
 10
11.526807940381991
 20
25.087448768483181
 30
0.0
 42
-0.9751802379498954
  0
SEQEND
  5
F91
  8
SAPA_FOGBAND
  0
CIRCLE
  5
A48
  8
SAPA_FOGBAND
 10
11.126934240332711
 20
35.497499838519232
 30
0.0
 40
2.7999999999999989
  0
POLYLINE
  5
A49
  8
SAPA_FOGBAND
 66
     1
 10
0.0
 20
0.0
 30
0.0
 70
     1
  0
VERTEX
  5
F92
  8
SAPA_FOGBAND
 10
11.72693424033273
 20
42.397499838519202
 30
0.0
  0
VERTEX
  5
F93
  8
SAPA_FOGBAND
 10
11.72693424033273
 20
45.997499838519218
 30
0.0
 42
0.9999999999999998
  0
VERTEX
  5
F94
  8
SAPA_FOGBAND
 10
10.526934240332681
 20
45.997499838519218
 30
0.0
  0
VERTEX
  5
F95
  8
SAPA_FOGBAND
 10
10.526934240332681
 20
42.397499838519202
 30
0.0
 42
0.9999999999999998
  0
SEQEND
  5
F96
  8
SAPA_FOGBAND
  0
POLYLINE
  5
A4A
  8
SAPA_FOGBAND
 66
     1
 10
0.0
 20
0.0
 30
0.0
 70
     1
  0
VERTEX
  5
F97
  8
SAPA_FOGBAND
 10
52.726807940382287
 20
25.087448768483181
 30
0.0
  0
VERTEX
  5
F98
  8
SAPA_FOGBAND
 10
52.884069251148617
 20
31.34396294911085
 30
0.0
 42
0.1593733635673558
  0
VERTEX
  5
F99
  8
SAPA_FOGBAND
 10
52.848399680860318
 20
31.463077312714411
 30
0.0
 42
-0.5327880064124698
  0
VERTEX
  5
F9A
  8
SAPA_FOGBAND
 10
53.089754753153557
 20
32.081639058976187
 30
0.0
 42
0.6764759177002223
  0
VERTEX
  5
F9B
  8
SAPA_FOGBAND
 10
54.134895098376212
 20
38.494377803299201
 30
0.0
  0
VERTEX
  5
F9C
  8
SAPA_FOGBAND
 10
55.379227685981618
 20
38.603242798370573
 30
0.0
 42
0.3888787318529909
  0
VERTEX
  5
F9D
  8
SAPA_FOGBAND
 10
55.926934240333033
 20
39.200959617225593
 30
0.0
  0
VERTEX
  5
F9E
  8
SAPA_FOGBAND
 10
55.926934240333033
 20
39.497499838519232
 30
0.0
 42
0.4142135623730951
  0
VERTEX
  5
F9F
  8
SAPA_FOGBAND
 10
55.72693424033298
 20
39.697499838519207
 30
0.0
  0
VERTEX
  5
FA0
  8
SAPA_FOGBAND
 10
54.326934240333003
 20
39.697499838519207
 30
0.0
 42
-0.4142135623730951
  0
VERTEX
  5
FA1
  8
SAPA_FOGBAND
 10
53.826934240333003
 20
40.197499838519207
 30
0.0
  0
VERTEX
  5
FA2
  8
SAPA_FOGBAND
 10
53.826934240332889
 20
41.54403444092339
 30
0.0
 42
-0.3394542588633722
  0
VERTEX
  5
FA3
  8
SAPA_FOGBAND
 10
53.975170431312442
 20
41.73721960618122
 30
0.0
  0
VERTEX
  5
FA4
  8
SAPA_FOGBAND
 10
54.278698049353473
 20
41.818549586315847
 30
0.0
 42
0.4663076581549915
  0
VERTEX
  5
FA5
  8
SAPA_FOGBAND
 10
54.408195797740291
 20
42.096258403921809
 30
0.0
  0
VERTEX
  5
FA6
  8
SAPA_FOGBAND
 10
53.945672682925647
 20
43.088142424537473
 30
0.0
 42
-0.1095178116832386
  0
VERTEX
  5
FA7
  8
SAPA_FOGBAND
 10
53.926934240333033
 20
43.172666076885612
 30
0.0
  0
VERTEX
  5
FA8
  8
SAPA_FOGBAND
 10
53.926934240333033
 20
44.2743569782075
 30
0.0
 42
-0.3394542588634028
  0
VERTEX
  5
FA9
  8
SAPA_FOGBAND
 10
54.001052335822692
 20
44.370949560836443
 30
0.0
  0
VERTEX
  5
FAA
  8
SAPA_FOGBAND
 10
54.178698049353443
 20
44.418549586315812
 30
0.0
 42
0.4663076581549915
  0
VERTEX
  5
FAB
  8
SAPA_FOGBAND
 10
54.308195797740268
 20
44.696258403921782
 30
0.0
  0
VERTEX
  5
FAC
  8
SAPA_FOGBAND
 10
53.945672682925647
 20
45.473691732486493
 30
0.0
 42
-0.1095178116832386
  0
VERTEX
  5
FAD
  8
SAPA_FOGBAND
 10
53.926934240333033
 20
45.558215384834632
 30
0.0
  0
VERTEX
  5
FAE
  8
SAPA_FOGBAND
 10
53.926934240333033
 20
45.833733296402222
 30
0.0
 42
0.0874886635259268
  0
VERTEX
  5
FAF
  8
SAPA_FOGBAND
 10
53.806319481904779
 20
46.517773583053561
 30
0.0
  0
VERTEX
  5
FB0
  8
SAPA_FOGBAND
 10
53.49667678162109
 20
47.36850991018207
 30
0.0
 42
0.3152987888789804
  0
VERTEX
  5
FB1
  8
SAPA_FOGBAND
 10
53.026830471228088
 20
47.697499838519207
 30
0.0
  0
VERTEX
  5
FB2
  8
SAPA_FOGBAND
 10
51.627038009437797
 20
47.697499838519207
 30
0.0
 42
0.3152987888789804
  0
VERTEX
  5
FB3
  8
SAPA_FOGBAND
 10
51.157191699044908
 20
47.36850991018202
 30
0.0
  0
VERTEX
  5
FB4
  8
SAPA_FOGBAND
 10
50.847548998761233
 20
46.517773583053561
 30
0.0
 42
0.0874886635259269
  0
VERTEX
  5
FB5
  8
SAPA_FOGBAND
 10
50.72693424033298
 20
45.833733296402222
 30
0.0
  0
VERTEX
  5
FB6
  8
SAPA_FOGBAND
 10
50.72693424033298
 20
45.558215384834632
 30
0.0
 42
-0.1095178116832386
  0
VERTEX
  5
FB7
  8
SAPA_FOGBAND
 10
50.708195797740238
 20
45.473691732486493
 30
0.0
  0
VERTEX
  5
FB8
  8
SAPA_FOGBAND
 10
50.345672682925617
 20
44.696258403921782
 30
0.0
 42
0.4663076581549913
  0
VERTEX
  5
FB9
  8
SAPA_FOGBAND
 10
50.475170431312449
 20
44.418549586315812
 30
0.0
  0
VERTEX
  5
FBA
  8
SAPA_FOGBAND
 10
50.6528161448432
 20
44.370949560836443
 30
0.0
 42
-0.3394542588634028
  0
VERTEX
  5
FBB
  8
SAPA_FOGBAND
 10
50.72693424033298
 20
44.2743569782075
 30
0.0
  0
VERTEX
  5
FBC
  8
SAPA_FOGBAND
 10
50.72693424033298
 20
43.172666076885612
 30
0.0
 42
-0.1095178116832386
  0
VERTEX
  5
FBD
  8
SAPA_FOGBAND
 10
50.708195797740238
 20
43.088142424537473
 30
0.0
  0
VERTEX
  5
FBE
  8
SAPA_FOGBAND
 10
50.245672682925601
 20
42.096258403921809
 30
0.0
 42
0.4663076581549913
  0
VERTEX
  5
FBF
  8
SAPA_FOGBAND
 10
50.37517043131254
 20
41.818549586315847
 30
0.0
  0
VERTEX
  5
FC0
  8
SAPA_FOGBAND
 10
50.67869804935345
 20
41.73721960618122
 30
0.0
 42
-0.3394542588633723
  0
VERTEX
  5
FC1
  8
SAPA_FOGBAND
 10
50.826934240333003
 20
41.54403444092339
 30
0.0
  0
VERTEX
  5
FC2
  8
SAPA_FOGBAND
 10
50.826934240333003
 20
40.197499838519207
 30
0.0
 42
-0.4142135623730951
  0
VERTEX
  5
FC3
  8
SAPA_FOGBAND
 10
50.326934240333003
 20
39.697499838519207
 30
0.0
  0
VERTEX
  5
FC4
  8
SAPA_FOGBAND
 10
48.926934240333033
 20
39.697499838519207
 30
0.0
 42
0.4142135623730951
  0
VERTEX
  5
FC5
  8
SAPA_FOGBAND
 10
48.72693424033298
 20
39.497499838519232
 30
0.0
  0
VERTEX
  5
FC6
  8
SAPA_FOGBAND
 10
48.72693424033298
 20
39.200959617225593
 30
0.0
 42
0.3888787318529909
  0
VERTEX
  5
FC7
  8
SAPA_FOGBAND
 10
49.274640794684387
 20
38.603242798370573
 30
0.0
  0
VERTEX
  5
FC8
  8
SAPA_FOGBAND
 10
50.518973382289801
 20
38.494377803299201
 30
0.0
 42
0.6764759177002223
  0
VERTEX
  5
FC9
  8
SAPA_FOGBAND
 10
51.564113727512449
 20
32.081639058976187
 30
0.0
 42
-0.5327880064123889
  0
VERTEX
  5
FCA
  8
SAPA_FOGBAND
 10
51.805468799805681
 20
31.463077312714521
 30
0.0
 42
0.1593733635673034
  0
VERTEX
  5
FCB
  8
SAPA_FOGBAND
 10
51.769799229517389
 20
31.34396294911102
 30
0.0
  0
VERTEX
  5
FCC
  8
SAPA_FOGBAND
 10
51.927060540283719
 20
25.087448768483181
 30
0.0
 42
0.9751802379498954
  0
SEQEND
  5
FCD
  8
SAPA_FOGBAND
  0
CIRCLE
  5
A4B
  8
SAPA_FOGBAND
 10
52.326934240333003
 20
35.497499838519232
 30
0.0
 40
2.7999999999999989
  0
POLYLINE
  5
A4C
  8
SAPA_FOGBAND
 66
     1
 10
0.0
 20
0.0
 30
0.0
 70
     1
  0
VERTEX
  5
FCE
  8
SAPA_FOGBAND
 10
51.72693424033298
 20
42.397499838519202
 30
0.0
  0
VERTEX
  5
FCF
  8
SAPA_FOGBAND
 10
51.72693424033298
 20
45.997499838519218
 30
0.0
 42
-0.9999999999999998
  0
VERTEX
  5
FD0
  8
SAPA_FOGBAND
 10
52.926934240333019
 20
45.997499838519218
 30
0.0
  0
VERTEX
  5
FD1
  8
SAPA_FOGBAND
 10
52.926934240333019
 20
42.397499838519202
 30
0.0
 42
-0.9999999999999998
  0
SEQEND
  5
FD2
  8
SAPA_FOGBAND
  0
CIRCLE
  5
A4D
  8
SAPA_FOGBAND
 10
36.252739577235403
 20
113.2909458615494
 30
0.0
 40
0.2
  0
POLYLINE
  5
A4E
  8
SAPA_FOGBAND
 66
     1
 10
0.0
 20
0.0
 30
0.0
 70
     1
  0
VERTEX
  5
FD3
  8
SAPA_FOGBAND
 10
33.619341385142683
 20
117.8422931019051
 30
0.0
  0
VERTEX
  5
FD4
  8
SAPA_FOGBAND
 10
34.912139707923401
 20
115.61850163098011
 30
0.0
 42
0.5773502691892365
  0
VERTEX
  5
FD5
  8
SAPA_FOGBAND
 10
35.212139707923193
 20
115.79170671173711
 30
0.0
  0
VERTEX
  5
FD6
  8
SAPA_FOGBAND
 10
35.2121397079231
 20
118.0210068568572
 30
0.0
 42
0.1989123673796522
  0
VERTEX
  5
FD7
  8
SAPA_FOGBAND
 10
35.153561064160392
 20
118.1624282130945
 30
0.0
  0
VERTEX
  5
FD8
  8
SAPA_FOGBAND
 10
33.228342572645722
 20
122.5379151099193
 30
0.0
 42
-0.7660459440749148
  0
VERTEX
  5
FD9
  8
SAPA_FOGBAND
 10
33.570386040464818
 20
123.0054614493053
 30
0.0
  0
VERTEX
  5
FDA
  8
SAPA_FOGBAND
 10
36.37712708208737
 20
120.0002861802285
 30
0.0
 42
0.3419987131192228
  0
VERTEX
  5
FDB
  8
SAPA_FOGBAND
 10
36.497679926976083
 20
120.0218966311453
 30
0.0
 42
-0.7745966692401171
  0
VERTEX
  5
FDC
  8
SAPA_FOGBAND
 10
37.012525782687568
 20
119.7527614516284
 30
0.0
 42
0.3419987131192284
  0
VERTEX
  5
FDD
  8
SAPA_FOGBAND
 10
37.063588223035012
 20
119.6414392742075
 30
0.0
  0
VERTEX
  5
FDE
  8
SAPA_FOGBAND
 10
39.377871625288719
 20
118.4316498352772
 30
0.0
 42
-0.6997223268137112
  0
VERTEX
  5
FDF
  8
SAPA_FOGBAND
 10
39.120357652561232
 20
117.7255672420935
 30
0.0
  0
VERTEX
  5
FE0
  8
SAPA_FOGBAND
 10
37.920357652561243
 20
117.7255672420935
 30
0.0
 42
0.4142135623730951
  0
VERTEX
  5
FE1
  8
SAPA_FOGBAND
 10
37.720357652561248
 20
117.5255672420935
 30
0.0
  0
VERTEX
  5
FE2
  8
SAPA_FOGBAND
 10
37.720357652561241
 20
114.7255672420935
 30
0.0
 42
0.5972940815568647
  0
VERTEX
  5
FE3
  8
SAPA_FOGBAND
 10
38.030449395680527
 20
114.5585947650293
 30
0.0
  0
VERTEX
  5
FE4
  8
SAPA_FOGBAND
 10
38.322651230542931
 20
114.751255315488
 30
0.0
 42
-1.089491213584427
  0
VERTEX
  5
FE5
  8
SAPA_FOGBAND
 10
38.524218775359429
 20
114.2170447236432
 30
0.0
  0
VERTEX
  5
FE6
  8
SAPA_FOGBAND
 10
36.299538344139442
 20
109.2244247746028
 30
0.0
 42
-0.6415323942612805
  0
VERTEX
  5
FE7
  8
SAPA_FOGBAND
 10
35.112156576126743
 20
109.6821554466446
 30
0.0
  0
VERTEX
  5
FE8
  8
SAPA_FOGBAND
 10
34.720357652561269
 20
111.90415755881
 30
0.0
  0
VERTEX
  5
FE9
  8
SAPA_FOGBAND
 10
33.200145242405391
 20
117.4191489356221
 30
0.0
 42
-0.8859938246904205
  0
SEQEND
  5
FEA
  8
SAPA_FOGBAND
  0
CIRCLE
  5
A4F
  8
SAPA_FOGBAND
 10
12.871264160353149
 20
111.9164233234727
 30
0.0
 40
0.2
  0
POLYLINE
  5
A50
  8
SAPA_FOGBAND
 66
     1
 10
0.0
 20
0.0
 30
0.0
 70
     1
  0
VERTEX
  5
FEB
  8
SAPA_FOGBAND
 10
11.217914237888261
 20
108.86044190957359
 30
0.0
  0
VERTEX
  5
FEC
  8
SAPA_FOGBAND
 10
11.00791423788845
 20
108.36044190957359
 30
0.0
  0
VERTEX
  5
FED
  8
SAPA_FOGBAND
 10
11.00791423788845
 20
108.3104419095736
 30
0.0
 42
-0.6681786379193221
  0
VERTEX
  5
FEE
  8
SAPA_FOGBAND
 10
10.49578220353246
 20
108.09830987521759
 30
0.0
  0
VERTEX
  5
FEF
  8
SAPA_FOGBAND
 10
9.6422288129392282
 20
108.951863265811
 30
0.0
 42
-0.1989123673796572
  0
VERTEX
  5
FF0
  8
SAPA_FOGBAND
 10
9.4079142378885319
 20
109.51754869076029
 30
0.0
  0
VERTEX
  5
FF1
  8
SAPA_FOGBAND
 10
9.4079142378885301
 20
109.68024381318
 30
0.0
 42
-0.3394542588633924
  0
VERTEX
  5
FF2
  8
SAPA_FOGBAND
 10
9.630268524357751
 20
109.9700215610667
 30
0.0
  0
VERTEX
  5
FF3
  8
SAPA_FOGBAND
 10
10.985559951419249
 20
110.3331708044567
 30
0.0
 42
0.3394542588633659
  0
VERTEX
  5
FF4
  8
SAPA_FOGBAND
 10
11.20791423788847
 20
110.6229485523434
 30
0.0
  0
VERTEX
  5
FF5
  8
SAPA_FOGBAND
 10
11.20791423788843
 20
113.197935266804
 30
0.0
 42
0.3394542588633888
  0
VERTEX
  5
FF6
  8
SAPA_FOGBAND
 10
10.9855599514192
 20
113.4877130146907
 30
0.0
  0
VERTEX
  5
FF7
  8
SAPA_FOGBAND
 10
9.6302685243576978
 20
113.8508622580807
 30
0.0
 42
-0.3394542588633833
  0
VERTEX
  5
FF8
  8
SAPA_FOGBAND
 10
9.4079142378884661
 20
114.1406400059673
 30
0.0
  0
VERTEX
  5
FF9
  8
SAPA_FOGBAND
 10
9.4079142378884644
 20
114.3033351283871
 30
0.0
 42
-0.1989123673796626
  0
VERTEX
  5
FFA
  8
SAPA_FOGBAND
 10
9.6422288129391465
 20
114.8690205533364
 30
0.0
  0
VERTEX
  5
FFB
  8
SAPA_FOGBAND
 10
10.49578220353235
 20
115.7225739439297
 30
0.0
 42
-0.6681786379192654
  0
VERTEX
  5
FFC
  8
SAPA_FOGBAND
 10
11.007914237888359
 20
115.5104419095737
 30
0.0
  0
VERTEX
  5
FFD
  8
SAPA_FOGBAND
 10
11.007914237888359
 20
115.16044190957371
 30
0.0
  0
VERTEX
  5
FFE
  8
SAPA_FOGBAND
 10
11.90791423788845
 20
115.16044190957371
 30
0.0
 42
0.4142135623731506
  0
VERTEX
  5
FFF
  8
SAPA_FOGBAND
 10
12.207914237888399
 20
115.4604419095738
 30
0.0
  0
VERTEX
  5
1000
  8
SAPA_FOGBAND
 10
12.207914237888369
 20
117.5604419095737
 30
0.0
 42
0.4142135623730951
  0
VERTEX
  5
1001
  8
SAPA_FOGBAND
 10
11.907914237888409
 20
117.86044190957369
 30
0.0
  0
VERTEX
  5
1002
  8
SAPA_FOGBAND
 10
10.607914237888339
 20
117.86044190957369
 30
0.0
 42
-1.0434440040463551
  0
VERTEX
  5
1003
  8
SAPA_FOGBAND
 10
10.64188444803488
 20
118.65899683028429
 30
0.0
 42
0.0291624066814766
  0
VERTEX
  5
1004
  8
SAPA_FOGBAND
 10
12.919601904282491
 20
119.1545888452565
 30
0.0
 42
-0.992527915240036
  0
VERTEX
  5
1005
  8
SAPA_FOGBAND
 10
13.494950346747761
 20
119.32474735886311
 30
0.0
 42
0.0306610296804151
  0
VERTEX
  5
1006
  8
SAPA_FOGBAND
 10
17.728737263819799
 20
122.2928926648015
 30
0.0
 42
-1.03927021853645
  0
VERTEX
  5
1007
  8
SAPA_FOGBAND
 10
18.168694412343751
 20
121.8855793881236
 30
0.0
  0
VERTEX
  5
1008
  8
SAPA_FOGBAND
 10
14.70791423788839
 20
116.4219642784888
 30
0.0
  0
VERTEX
  5
1009
  8
SAPA_FOGBAND
 10
14.70791423788839
 20
116.4219642784888
 30
0.0
  0
VERTEX
  5
100A
  8
SAPA_FOGBAND
 10
14.70791423788841
 20
114.8225377210006
 30
0.0
  0
VERTEX
  5
100B
  8
SAPA_FOGBAND
 10
14.70791423788841
 20
114.8225377210006
 30
0.0
  0
VERTEX
  5
100C
  8
SAPA_FOGBAND
 10
17.85724108010437
 20
115.77078135381559
 30
0.0
 42
-0.8769764629929259
  0
VERTEX
  5
100D
  8
SAPA_FOGBAND
 10
18.219373114460279
 20
115.2988416983243
 30
0.0
  0
VERTEX
  5
100E
  8
SAPA_FOGBAND
 10
14.70791423788847
 20
110.486177840862
 30
0.0
  0
VERTEX
  5
100F
  8
SAPA_FOGBAND
 10
13.00901729931442
 20
108.1403453981284
 30
0.0
 42
-0.2468245720995677
  0
VERTEX
  5
1010
  8
SAPA_FOGBAND
 10
12.761899560586221
 20
108.0104419095737
 30
0.0
  0
VERTEX
  5
1011
  8
SAPA_FOGBAND
 10
12.50791423788846
 20
108.0104419095737
 30
0.0
 42
-0.414213562373123
  0
VERTEX
  5
1012
  8
SAPA_FOGBAND
 10
12.207914237888501
 20
108.3104419095737
 30
0.0
  0
VERTEX
  5
1013
  8
SAPA_FOGBAND
 10
12.207914237888501
 20
108.36044190957369
 30
0.0
 42
0.4142135623730813
  0
VERTEX
  5
1014
  8
SAPA_FOGBAND
 10
11.907914237888541
 20
108.66044190957381
 30
0.0
  0
SEQEND
  5
1015
  8
SAPA_FOGBAND
  0
DIMENSION
  5
A57
  8
SAPA_MATT
  2
*D26
 10
-13.632447090313009
 20
24.709972931217809
 30
0.0
 11
-16.132447090313011
 21
32.209972931217813
 31
0.0
 70
     0
  1
10-15
 13
6.1411478027057447
 23
39.709972931217813
 33
0.0
 14
6.1411478027057438
 24
24.709972931217809
 34
0.0
 50
90.0
1001
ACAD
1000
DSTYLE
1002
{
1070
    40
1040
1.0
1002
}
  0
DIMENSION
  5
A58
  8
SAPA_MATT
  2
*D25
 10
-13.68371487308441
 20
39.709972931217813
 30
0.0
 11
-16.183714873084408
 21
78.709972931217806
 31
0.0
 70
     0
 13
7.2269342403328931
 23
117.70997293121781
 33
0.0
 14
6.1411478027057447
 24
39.709972931217813
 34
0.0
 50
90.0
1001
ACAD
1000
DSTYLE
1002
{
1070
    40
1040
1.0
1002
}
  0
VIEWPORT
  5
2FC
 67
     1
  8
0
 10
5.2499996651675342
 20
3.9999999033972808
 30
0.0
 40
13.786839016452429
 41
8.9929997457669497
 68
     1
 69
     1
1001
ACAD
1000
MVIEW
1002
{
1070
    16
1010
0.0
1020
0.0
1030
0.0
1010
0.0
1020
0.0
1030
1.0
1040
0.0
1040
8.9929997457669497
1040
5.2499996651675342
1040
3.9999999033972808
1040
50.0
1040
0.0
1040
0.0
1070
     0
1070
     0
1070
     1
1070
     1
1070
     0
1070
     0
1070
     0
1070
     0
1040
0.0
1040
0.0
1040
0.0
1040
10.0
1040
10.0
1040
10.0
1040
10.0
1070
     0
1002
{
1002
}
1002
}
  0
VIEWPORT
  5
300
 67
     1
  8
MATT
 10
5.2499997615814209
 20
3.9999997615814209
 30
0.0
 40
8.3999996185302752
 41
6.3999996185302743
 68
     2
 69
     2
1001
ACAD
1000
MVIEW
1002
{
1070
    16
1010
0.0
1020
0.0
1030
0.0
1010
0.0
1020
0.0
1030
1.0
1040
0.0
1040
254.32482763017811
1040
82.806740721764584
1040
125.9177201456914
1040
50.0
1040
0.0
1040
0.0
1070
     0
1070
   100
1070
     1
1070
     0
1070
     0
1070
     0
1070
     0
1070
     0
1040
0.0
1040
0.0
1040
0.0
1040
5.0
1040
5.0
1040
0.0
1040
0.0
1070
     0
1002
{
1002
}
1002
}
  0
ENDSEC
  0
EOF
