  0
SECTION
  2
HEADER
  9
$ACADVER
  1
AC1009
  9
$INSBASE
 10
32.358022986932163
 20
439.04505235716363
 30
0.0
  9
$EXTMIN
 10
41.457593212409378
 20
438.10000000000002
 30
0.0
  9
$EXTMAX
 10
288.5056452806478
 20
555.03867054357136
 30
0.0
  9
$LIMMIN
 10
0.0
 20
0.0
  9
$LIMMAX
 10
998.0
 20
710.0
  9
$ORTHOMODE
 70
     0
  9
$REGENMODE
 70
     1
  9
$FILLMODE
 70
     1
  9
$QTEXTMODE
 70
     0
  9
$MIRRTEXT
 70
     1
  9
$DRAGMODE
 70
     2
  9
$LTSCALE
 40
7.0
  9
$OSMODE
 70
   167
  9
$ATTMODE
 70
     1
  9
$TEXTSIZE
 40
6.0
  9
$TRACEWID
 40
0.05
  9
$TEXTSTYLE
  7
ISO
  9
$CLAYER
  8
0
  9
$CELTYPE
  6
BYLAYER
  9
$CECOLOR
 62
   256
  9
$DIMSCALE
 40
0.0
  9
$DIMASZ
 40
3.0
  9
$DIMEXO
 40
1.5
  9
$DIMDLI
 40
10.0
  9
$DIMRND
 40
0.0
  9
$DIMDLE
 40
0.0
  9
$DIMEXE
 40
1.5
  9
$DIMTP
 40
0.0
  9
$DIMTM
 40
0.0
  9
$DIMTXT
 40
3.0
  9
$DIMCEN
 40
-5.0
  9
$DIMTSZ
 40
0.0
  9
$DIMTOL
 70
     0
  9
$DIMLIM
 70
     0
  9
$DIMTIH
 70
     0
  9
$DIMTOH
 70
     1
  9
$DIMSE1
 70
     0
  9
$DIMSE2
 70
     0
  9
$DIMTAD
 70
     1
  9
$DIMZIN
 70
     8
  9
$DIMBLK
  1

  9
$DIMASO
 70
     1
  9
$DIMSHO
 70
     1
  9
$DIMPOST
  1

  9
$DIMAPOST
  1

  9
$DIMALT
 70
     0
  9
$DIMALTD
 70
     0
  9
$DIMALTF
 40
25.399999999999999
  9
$DIMLFAC
 40
-1.0
  9
$DIMTOFL
 70
     1
  9
$DIMTVP
 40
0.0
  9
$DIMTIX
 70
     0
  9
$DIMSOXD
 70
     0
  9
$DIMSAH
 70
     0
  9
$DIMBLK1
  1

  9
$DIMBLK2
  1

  9
$DIMSTYLE
  2
MASKIN
  9
$DIMCLRD
 70
   256
  9
$DIMCLRE
 70
   256
  9
$DIMCLRT
 70
     2
  9
$DIMTFAC
 40
1.0
  9
$DIMGAP
 40
1.0
  9
$LUNITS
 70
     2
  9
$LUPREC
 70
     2
  9
$SKETCHINC
 40
0.1
  9
$FILLETRAD
 40
0.0
  9
$AUNITS
 70
     0
  9
$AUPREC
 70
     2
  9
$MENU
  1
ACAD
  9
$ELEVATION
 40
0.0
  9
$PELEVATION
 40
0.0
  9
$THICKNESS
 40
0.0
  9
$LIMCHECK
 70
     0
  9
$BLIPMODE
 70
     0
  9
$CHAMFERA
 40
0.0
  9
$CHAMFERB
 40
0.0
  9
$SKPOLY
 70
     0
  9
$TDCREATE
 40
2449499.4236100698
  9
$TDUPDATE
 40
2456363.3666267591
  9
$TDINDWG
 40
0.1915770949
  9
$TDUSRTIMER
 40
0.1915770949
  9
$USRTIMER
 70
     1
  9
$ANGBASE
 50
0.0
  9
$ANGDIR
 70
     0
  9
$PDMODE
 70
     3
  9
$PDSIZE
 40
-5.0
  9
$PLINEWID
 40
0.0
  9
$COORDS
 70
     1
  9
$SPLFRAME
 70
     0
  9
$SPLINETYPE
 70
     6
  9
$SPLINESEGS
 70
     8
  9
$ATTDIA
 70
     0
  9
$ATTREQ
 70
     1
  9
$HANDLING
 70
     1
  9
$HANDSEED
  5
1045
  9
$SURFTAB1
 70
     6
  9
$SURFTAB2
 70
     6
  9
$SURFTYPE
 70
     6
  9
$SURFU
 70
     6
  9
$SURFV
 70
     6
  9
$UCSNAME
  2

  9
$UCSORG
 10
0.0
 20
0.0
 30
0.0
  9
$UCSXDIR
 10
1.0
 20
0.0
 30
0.0
  9
$UCSYDIR
 10
0.0
 20
1.0
 30
0.0
  9
$PUCSNAME
  2

  9
$PUCSORG
 10
0.0
 20
0.0
 30
0.0
  9
$PUCSXDIR
 10
1.0
 20
0.0
 30
0.0
  9
$PUCSYDIR
 10
0.0
 20
1.0
 30
0.0
  9
$USERI1
 70
     0
  9
$USERI2
 70
     0
  9
$USERI3
 70
     0
  9
$USERI4
 70
     0
  9
$USERI5
 70
     0
  9
$USERR1
 40
0.0
  9
$USERR2
 40
0.0
  9
$USERR3
 40
0.0
  9
$USERR4
 40
0.0
  9
$USERR5
 40
0.0
  9
$WORLDVIEW
 70
     1
  9
$SHADEDGE
 70
     1
  9
$SHADEDIF
 70
    70
  9
$TILEMODE
 70
     1
  9
$MAXACTVP
 70
    16
  9
$PLIMCHECK
 70
     0
  9
$PEXTMIN
 10
1.0000000000000000E+020
 20
1.0000000000000000E+020
 30
1.0000000000000000E+020
  9
$PEXTMAX
 10
-1.0000000000000000E+020
 20
-1.0000000000000000E+020
 30
-1.0000000000000000E+020
  9
$PLIMMIN
 10
-14.12592836160286
 20
-5.4102505909481797
  9
$PLIMMAX
 10
195.84739927511589
 20
291.55807216295813
  9
$UNITMODE
 70
     0
  9
$VISRETAIN
 70
     1
  9
$PLINEGEN
 70
     0
  9
$PSLTSCALE
 70
     1
  0
ENDSEC
  0
SECTION
  2
TABLES
  0
TABLE
  2
VPORT
 70
     1
  0
VPORT
  2
*ACTIVE
 70
     0
 10
0.0
 20
0.0
 11
1.0
 21
1.0
 12
164.96786692501959
 22
513.6452171073762
 13
0.0
 23
0.0
 14
5.0
 24
5.0
 15
10.0
 25
10.0
 16
0.0
 26
0.0
 36
1.0
 17
0.0
 27
0.0
 37
0.0
 40
94.503421711819854
 41
2.8418491484184911
 42
50.0
 43
0.0
 44
0.0
 50
0.0
 51
0.0
 71
     0
 72
   100
 73
     1
 74
     0
 75
     0
 76
     0
 77
     0
 78
     0
  0
ENDTAB
  0
TABLE
  2
LTYPE
 70
    21
  0
LTYPE
  2
CONTINUOUS
 70
     0
  3
Solid line
 72
    65
 73
     0
 40
0.0
  0
LTYPE
  2
BYGG-022308$0$NEWDOT
 70
     0
  3
____ . ____ . ____ . ____ . ____ . ____ . ____
 72
    65
 73
     4
 40
2.0
 49
1.0
 49
-0.5
 49
0.0
 49
-0.5
  0
LTYPE
  2
BYGG-022308$0$DASHDOT
 70
     0
  3
__ . __ . __ . __ . __ . __ . __ . __ . __ . __
 72
    65
 73
     4
 40
1.0
 49
0.5
 49
-0.25
 49
0.0
 49
-0.25
  0
LTYPE
  2
BYGG-022308$0$DASHED
 70
     0
  3
__ __ __ __ __ __ __ __ __ __ __ __ __ __ __
 72
    65
 73
     2
 40
0.75
 49
0.5
 49
-0.25
  0
LTYPE
  2
BYGG-022308$0$PHANTOM
 70
     0
  3
Phantom ______  __  __  ______  __  __  ______
 72
    65
 73
     6
 40
63.5
 49
31.75
 49
-6.3499999999999988
 49
6.3499999999999988
 49
-6.3499999999999988
 49
6.3499999999999988
 49
-6.3499999999999988
  0
LTYPE
  2
BYGG-014533$0$NEWDOT
 70
     0
  3
____ . ____ . ____ . ____ . ____ . ____ . ____
 72
    65
 73
     4
 40
2.0
 49
1.0
 49
-0.5
 49
0.0
 49
-0.5
  0
LTYPE
  2
BYGG-014247$0$DASHDOT
 70
     0
  3
__ . __ . __ . __ . __ . __ . __ . __ . __ . __
 72
    65
 73
     4
 40
1.0
 49
0.5
 49
-0.25
 49
0.0
 49
-0.25
  0
LTYPE
  2
BYGG-014565$0$NEWDOT
 70
     0
  3
____ . ____ . ____ . ____ . ____ . ____ . ____
 72
    65
 73
     4
 40
2.0
 49
1.0
 49
-0.5
 49
0.0
 49
-0.5
  0
LTYPE
  2
BYGG-021997$0$NEWDOT
 70
     0
  3
____ . ____ . ____ . ____ . ____ . ____ . ____
 72
    65
 73
     4
 40
2.0
 49
1.0
 49
-0.5
 49
0.0
 49
-0.5
  0
LTYPE
  2
BYGG-021997$0$DASHDOT
 70
     0
  3
__ . __ . __ . __ . __ . __ . __ . __ . __ . __
 72
    65
 73
     4
 40
1.0
 49
0.5
 49
-0.25
 49
0.0
 49
-0.25
  0
LTYPE
  2
BYGG-021997$0$DASHED
 70
     0
  3
__ __ __ __ __ __ __ __ __ __ __ __ __ __ __
 72
    65
 73
     2
 40
0.75
 49
0.5
 49
-0.25
  0
LTYPE
  2
BYGG-021997$0$PHANTOM
 70
     0
  3
Phantom ______  __  __  ______  __  __  ______
 72
    65
 73
     6
 40
63.5
 49
31.75
 49
-6.3499999999999988
 49
6.3499999999999988
 49
-6.3499999999999988
 49
6.3499999999999988
 49
-6.3499999999999988
  0
LTYPE
  2
BYGG-014533$0$ZIGZAG
 70
     0
  3
Zig zag /\/\/\/\/\/\/\/\/\/\/\/\/\/\/\/\/\/\/\/\/\/\/\/
 72
    65
 73
     4
 40
20.32254
 49
0.00254
 49
-5.0800000000000001
 49
-10.16
 49
-5.0800000000000001
  0
LTYPE
  2
BYGG-014565$0$ZIGZAG
 70
     0
  3
Zig zag /\/\/\/\/\/\/\/\/\/\/\/\/\/\/\/\/\/\/\/\/\/\/\/
 72
    65
 73
     4
 40
20.32254
 49
0.00254
 49
-5.0800000000000001
 49
-10.16
 49
-5.0800000000000001
  0
LTYPE
  2
BYGG-014203$0$ZIGZAG
 70
     0
  3
Zig zag /\/\/\/\/\/\/\/\/\/\/\/\/\/\/\/\/\/\/\/\/\/\/\/
 72
    65
 73
     4
 40
20.32254
 49
0.00254
 49
-5.0800000000000001
 49
-10.16
 49
-5.0800000000000001
  0
LTYPE
  2
BYGG-014203$0$NEWDOT
 70
     0
  3
____ . ____ . ____ . ____ . ____ . ____ . ____
 72
    65
 73
     4
 40
2.0
 49
1.0
 49
-0.5
 49
0.0
 49
-0.5
  0
LTYPE
  2
PHANTOM2
 70
     0
  3
Phantom (.5x) ___ _ _ ___ _ _ ___ _ _ ___ _ _
 72
    65
 73
     6
 40
1.25
 49
0.625
 49
-0.125
 49
0.125
 49
-0.125
 49
0.125
 49
-0.125
  0
LTYPE
  2
BYGG-028766$0$NEWDOT
 70
     0
  3
____ . ____ . ____ . ____ . ____ . ____ . ____
 72
    65
 73
     4
 40
2.0
 49
1.0
 49
-0.5
 49
0.0
 49
-0.5
  0
LTYPE
  2
BYGG-028766$0$DASHDOT
 70
     0
  3
__ . __ . __ . __ . __ . __ . __ . __ . __ . __
 72
    65
 73
     4
 40
1.0
 49
0.5
 49
-0.25
 49
0.0
 49
-0.25
  0
LTYPE
  2
BYGG-028766$0$DASHED
 70
     0
  3
__ __ __ __ __ __ __ __ __ __ __ __ __ __ __
 72
    65
 73
     2
 40
0.75
 49
0.5
 49
-0.25
  0
LTYPE
  2
BYGG-028766$0$PHANTOM
 70
     0
  3
Phantom ______  __  __  ______  __  __  ______
 72
    65
 73
     6
 40
63.5
 49
31.75
 49
-6.3499999999999988
 49
6.3499999999999988
 49
-6.3499999999999988
 49
6.3499999999999988
 49
-6.3499999999999988
  0
ENDTAB
  0
TABLE
  2
LAYER
 70
   123
  0
LAYER
  2
0
 70
     0
 62
     7
  6
CONTINUOUS
  0
LAYER
  2
DEFPOINTS
 70
     0
 62
     7
  6
CONTINUOUS
  0
LAYER
  2
SAPA_ARTIKELNR
 70
     0
 62
     4
  6
CONTINUOUS
  0
LAYER
  2
SAPA_ANSLUTNING
 70
     0
 62
     6
  6
CONTINUOUS
  0
LAYER
  2
SAPA_LIGHT
 70
     1
 62
     1
  6
CONTINUOUS
  0
LAYER
  2
SAPA_MATT
 70
     0
 62
     1
  6
CONTINUOUS
  0
LAYER
  2
SAPA_GLAS
 70
     0
 62
     4
  6
CONTINUOUS
  0
LAYER
  2
SAPA_FOGBAND
 70
     0
 62
     2
  6
CONTINUOUS
  0
LAYER
  2
SAPA_PROFIL
 70
     0
 62
     7
  6
CONTINUOUS
  0
ENDTAB
  0
TABLE
  2
STYLE
 70
    20
  0
STYLE
  2
STANDARD
 70
     0
 40
0.0
 41
1.0
 50
0.0
 71
     0
 42
0.2
  3
txt
  4

  0
STYLE
  2
ISO
 70
     0
 40
0.0
 41
1.0
 50
0.0
 71
     0
 42
6.0
  3
isocp3.shx
  4

  0
STYLE
  2

 70
     1
 40
0.0
 41
1.0
 50
0.0
 71
     0
 42
0.2
  3
ltypeshp.shx
  4

  0
STYLE
  2
BYGG-022308$0$STANDARD
 70
     0
 40
0.0
 41
1.0
 50
0.0
 71
     0
 42
0.2
  3
txt
  4

  0
STYLE
  2
BYGG-022308$0$ISO
 70
     0
 40
0.0
 41
1.0
 50
0.0
 71
     0
 42
3.5
  3
txt
  4

  0
STYLE
  2
BYGG-014533$0$STANDARD
 70
     0
 40
0.0
 41
1.0
 50
0.0
 71
     0
 42
0.2
  3
txt
  4

  0
STYLE
  2
BYGG-014533$0$ISO
 70
     0
 40
0.0
 41
1.0
 50
0.0
 71
     0
 42
2.5
  3
isocp3.shx
  4

  0
STYLE
  2
BYGG-021741$0$STANDARD
 70
     0
 40
0.0
 41
1.0
 50
0.0
 71
     0
 42
0.2
  3
txt
  4

  0
STYLE
  2
BYGG-014247$0$STANDARD
 70
     0
 40
0.0
 41
1.0
 50
0.0
 71
     0
 42
0.2
  3
txt
  4

  0
STYLE
  2
BYGG-014247$0$ISO
 70
     0
 40
0.0
 41
1.0
 50
0.0
 71
     0
 42
3.5
  3
isocp3.shx
  4

  0
STYLE
  2
BYGG-028766$0$STANDARD
 70
     0
 40
0.0
 41
1.0
 50
0.0
 71
     0
 42
0.2
  3
txt
  4

  0
STYLE
  2
BYGG-028766$0$ISO
 70
     0
 40
0.0
 41
1.0
 50
0.0
 71
     0
 42
3.5
  3
txt
  4

  0
STYLE
  2
BYGG-022466$0$STANDARD
 70
     0
 40
0.0
 41
1.0
 50
0.0
 71
     0
 42
0.2
  3
txt
  4

  0
STYLE
  2
BYGG-022466$0$ISO
 70
     0
 40
0.0
 41
1.0
 50
0.0
 71
     0
 42
3.5
  3
txt
  4

  0
STYLE
  2
BYGG-014565$0$STANDARD
 70
     0
 40
0.0
 41
1.0
 50
0.0
 71
     0
 42
0.2
  3
isocp3.shx
  4

  0
STYLE
  2
BYGG-014565$0$ISO
 70
     0
 40
0.0
 41
1.0
 50
0.0
 71
     0
 42
3.5
  3
isocp3.shx
  4

  0
STYLE
  2
BYGG-021997$0$STANDARD
 70
     0
 40
0.0
 41
1.0
 50
0.0
 71
     0
 42
0.2
  3
txt
  4

  0
STYLE
  2
BYGG-021997$0$ISO
 70
     0
 40
0.0
 41
1.0
 50
0.0
 71
     0
 42
3.5
  3
txt
  4

  0
STYLE
  2
BYGG-014203$0$STANDARD
 70
     0
 40
0.0
 41
1.0
 50
0.0
 71
     0
 42
0.2
  3
txt
  4

  0
STYLE
  2
BYGG-014203$0$ISO
 70
     0
 40
0.0
 41
1.0
 50
0.0
 71
     0
 42
3.5
  3
isocp3.shx
  4

  0
ENDTAB
  0
TABLE
  2
VIEW
 70
     0
  0
ENDTAB
  0
TABLE
  2
UCS
 70
     0
  0
ENDTAB
  0
TABLE
  2
APPID
 70
    18
  0
APPID
  2
ACAD
 70
     0
  0
APPID
  2
ACAECLAYERSTANDARD
 70
     0
  0
APPID
  2
ACAD_MLEADERVER
 70
     0
  0
APPID
  2
ACAD_EXEMPT_FROM_CAD_STANDARDS
 70
     0
  0
APPID
  2
AMG_ARCHIVE11
 70
     0
  0
APPID
  2
ACAD_DSTYLE_DIMTEXT_FILL
 70
     0
  0
APPID
  2
ACAD_DSTYLE_DIMEXT_LENGTH
 70
     0
  0
APPID
  2
ACAD_DSTYLE_DIMEXT_ENABLED
 70
     0
  0
APPID
  2
ACAD_DSTYLE_DIM_LINETYPE
 70
     0
  0
APPID
  2
ACAD_DSTYLE_DIM_EXT1_LINETYPE
 70
     0
  0
APPID
  2
ACAD_DSTYLE_DIM_EXT2_LINETYPE
 70
     0
  0
APPID
  2
ACAD_PSEXT
 70
     0
  0
APPID
  2
ACAD_DSTYLE_DIMJOGGED_JOGA
 70
     0
  0
APPID
  2
ACAD_DSTYLE_DIMARC_LENGTH_
 70
     0
  0
APPID
  2
ACADANNOTATIVE
 70
     0
  0
APPID
  2
ACAD_NAV_VCDISPLAY
 70
     0
  0
APPID
  2
AEC_XDATA_BOUND_SPACE
 70
     0
  0
APPID
  2
ACCMTRANSPARENCY
 70
     0
  0
ENDTAB
  0
TABLE
  2
DIMSTYLE
 70
    17
  0
DIMSTYLE
  2
MASKIN
 70
     0
  3

  4

  5

  6

  7

 40
0.0
 41
3.0
 42
1.5
 43
10.0
 44
1.5
 45
0.0
 46
0.0
 47
0.0
 48
0.0
140
3.0
141
-5.0
142
0.0
143
25.399999999999999
144
-1.0
145
0.0
146
1.0
147
1.0
 71
     0
 72
     0
 73
     0
 74
     1
 75
     0
 76
     0
 77
     1
 78
     8
170
     0
171
     0
172
     1
173
     0
174
     0
175
     0
176
   256
177
   256
178
     2
  0
DIMSTYLE
  2
BYGG-022308$0$STANDARD
 70
     0
  3

  4

  5

  6

  7

 40
1.0
 41
0.18
 42
0.0625
 43
0.38
 44
0.18
 45
0.0
 46
0.0
 47
0.0
 48
0.0
140
0.18
141
0.09
142
0.0
143
25.399999999999999
144
1.0
145
0.0
146
1.0
147
0.09
 71
     0
 72
     0
 73
     1
 74
     1
 75
     0
 76
     0
 77
     0
 78
     0
170
     0
171
     2
172
     0
173
     0
174
     0
175
     0
176
     0
177
     0
178
     0
  0
DIMSTYLE
  2
BYGG-022308$0$MASKIN
 70
     0
  3

  4

  5

  6

  7

 40
0.0
 41
3.0
 42
1.5
 43
10.0
 44
1.5
 45
0.0
 46
0.0
 47
0.0
 48
0.0
140
3.0
141
-5.0
142
0.0
143
25.399999999999999
144
-1.0
145
0.0
146
1.0
147
1.0
 71
     0
 72
     0
 73
     0
 74
     0
 75
     0
 76
     0
 77
     1
 78
     8
170
     0
171
     0
172
     1
173
     0
174
     0
175
     0
176
   256
177
   256
178
     2
  0
DIMSTYLE
  2
BYGG-014533$0$STANDARD
 70
     0
  3

  4

  5

  6

  7

 40
1.0
 41
0.18
 42
0.0625
 43
0.38
 44
0.18
 45
0.0
 46
0.0
 47
0.0
 48
0.0
140
0.18
141
0.09
142
0.0
143
25.399999999999999
144
1.0
145
0.0
146
1.0
147
0.09
 71
     0
 72
     0
 73
     1
 74
     1
 75
     0
 76
     0
 77
     0
 78
     0
170
     0
171
     2
172
     0
173
     0
174
     0
175
     0
176
     0
177
     0
178
     0
  0
DIMSTYLE
  2
BYGG-014533$0$MASKIN
 70
     0
  3

  4

  5

  6

  7

 40
0.0
 41
3.0
 42
1.5
 43
10.0
 44
1.5
 45
0.0
 46
0.0
 47
0.0
 48
0.0
140
3.0
141
-5.0
142
0.0
143
25.399999999999999
144
-1.0
145
0.0
146
1.0
147
1.0
 71
     0
 72
     0
 73
     0
 74
     1
 75
     0
 76
     0
 77
     1
 78
     8
170
     0
171
     0
172
     1
173
     0
174
     0
175
     0
176
   256
177
   256
178
     2
  0
DIMSTYLE
  2
BYGG-021741$0$STANDARD
 70
     0
  3

  4

  5

  6

  7

 40
1.0
 41
0.18
 42
0.0625
 43
0.38
 44
0.18
 45
0.0
 46
0.0
 47
0.0
 48
0.0
140
0.18
141
0.09
142
0.0
143
25.399999999999999
144
1.0
145
0.0
146
1.0
147
0.09
 71
     0
 72
     0
 73
     1
 74
     1
 75
     0
 76
     0
 77
     0
 78
     0
170
     0
171
     2
172
     0
173
     0
174
     0
175
     0
176
     0
177
     0
178
     0
  0
DIMSTYLE
  2
BYGG-014247$0$MASKIN
 70
     0
  3

  4

  5

  6

  7

 40
0.0
 41
3.0
 42
1.5
 43
10.0
 44
1.5
 45
0.0
 46
0.0
 47
0.0
 48
0.0
140
3.0
141
-5.0
142
0.0
143
25.399999999999999
144
-1.0
145
0.0
146
1.0
147
1.0
 71
     0
 72
     0
 73
     0
 74
     0
 75
     0
 76
     0
 77
     1
 78
     8
170
     0
171
     0
172
     1
173
     0
174
     0
175
     0
176
   256
177
   256
178
   256
  0
DIMSTYLE
  2
BYGG-028766$0$STANDARD
 70
     0
  3

  4

  5

  6

  7

 40
1.0
 41
0.18
 42
0.0625
 43
0.38
 44
0.18
 45
0.0
 46
0.0
 47
0.0
 48
0.0
140
0.18
141
0.09
142
0.0
143
25.399999999999999
144
1.0
145
0.0
146
1.0
147
0.09
 71
     0
 72
     0
 73
     1
 74
     1
 75
     0
 76
     0
 77
     0
 78
     0
170
     0
171
     2
172
     0
173
     0
174
     0
175
     0
176
     0
177
     0
178
     0
  0
DIMSTYLE
  2
BYGG-028766$0$MASKIN
 70
     0
  3

  4

  5

  6

  7

 40
0.0
 41
3.0
 42
1.5
 43
10.0
 44
1.5
 45
0.0
 46
0.0
 47
0.0
 48
0.0
140
3.0
141
-5.0
142
0.0
143
25.399999999999999
144
-1.0
145
0.0
146
1.0
147
1.0
 71
     0
 72
     0
 73
     0
 74
     0
 75
     0
 76
     0
 77
     1
 78
     8
170
     0
171
     0
172
     1
173
     0
174
     0
175
     0
176
   256
177
   256
178
     2
  0
DIMSTYLE
  2
BYGG-022466$0$MASKIN
 70
     0
  3

  4

  5

  6

  7

 40
0.0
 41
3.0
 42
1.5
 43
10.0
 44
1.5
 45
0.0
 46
0.0
 47
0.0
 48
0.0
140
3.0
141
-5.0
142
0.0
143
25.399999999999999
144
-1.0
145
0.0
146
1.0
147
1.0
 71
     0
 72
     0
 73
     0
 74
     0
 75
     0
 76
     0
 77
     1
 78
     8
170
     0
171
     0
172
     1
173
     0
174
     0
175
     0
176
   256
177
   256
178
     2
  0
DIMSTYLE
  2
BYGG-022466$0$STANDARD
 70
     0
  3

  4

  5

  6

  7

 40
1.0
 41
0.18
 42
0.0625
 43
0.38
 44
0.18
 45
0.0
 46
0.0
 47
0.0
 48
0.0
140
0.18
141
0.09
142
0.0
143
25.399999999999999
144
1.0
145
0.0
146
1.0
147
0.09
 71
     0
 72
     0
 73
     1
 74
     1
 75
     0
 76
     0
 77
     0
 78
     0
170
     0
171
     2
172
     0
173
     0
174
     0
175
     0
176
     0
177
     0
178
     0
  0
DIMSTYLE
  2
BYGG-014565$0$STANDARD
 70
     0
  3

  4

  5

  6

  7

 40
1.0
 41
0.18
 42
0.0625
 43
0.38
 44
0.18
 45
0.0
 46
0.0
 47
0.0
 48
0.0
140
0.18
141
0.09
142
0.0
143
25.399999999999999
144
1.0
145
0.0
146
1.0
147
0.09
 71
     0
 72
     0
 73
     1
 74
     1
 75
     0
 76
     0
 77
     0
 78
     0
170
     0
171
     2
172
     0
173
     0
174
     0
175
     0
176
     0
177
     0
178
     0
  0
DIMSTYLE
  2
BYGG-014565$0$MASKIN
 70
     0
  3

  4

  5

  6

  7

 40
0.0
 41
3.0
 42
1.5
 43
10.0
 44
1.5
 45
0.0
 46
0.0
 47
0.0
 48
0.0
140
3.0
141
-5.0
142
0.0
143
25.399999999999999
144
-1.0
145
0.0
146
1.0
147
1.0
 71
     0
 72
     0
 73
     0
 74
     0
 75
     0
 76
     0
 77
     1
 78
     8
170
     0
171
     0
172
     1
173
     0
174
     0
175
     0
176
   256
177
   256
178
     2
  0
DIMSTYLE
  2
BYGG-021997$0$STANDARD
 70
     0
  3

  4

  5

  6

  7

 40
1.0
 41
0.18
 42
0.0625
 43
0.38
 44
0.18
 45
0.0
 46
0.0
 47
0.0
 48
0.0
140
0.18
141
0.09
142
0.0
143
25.399999999999999
144
1.0
145
0.0
146
1.0
147
0.09
 71
     0
 72
     0
 73
     1
 74
     1
 75
     0
 76
     0
 77
     0
 78
     0
170
     0
171
     2
172
     0
173
     0
174
     0
175
     0
176
     0
177
     0
178
     0
  0
DIMSTYLE
  2
BYGG-021997$0$MASKIN
 70
     0
  3

  4

  5

  6

  7

 40
0.0
 41
3.0
 42
1.5
 43
10.0
 44
1.5
 45
0.0
 46
0.0
 47
0.0
 48
0.0
140
3.0
141
-5.0
142
0.0
143
25.399999999999999
144
-1.0
145
0.0
146
1.0
147
1.0
 71
     0
 72
     0
 73
     0
 74
     0
 75
     0
 76
     0
 77
     1
 78
     8
170
     0
171
     0
172
     1
173
     0
174
     0
175
     0
176
   256
177
   256
178
     2
  0
DIMSTYLE
  2
BYGG-014203$0$STANDARD
 70
     0
  3

  4

  5

  6

  7

 40
1.0
 41
0.18
 42
0.0625
 43
0.38
 44
0.18
 45
0.0
 46
0.0
 47
0.0
 48
0.0
140
0.18
141
0.09
142
0.0
143
25.399999999999999
144
1.0
145
0.0
146
1.0
147
0.09
 71
     0
 72
     0
 73
     1
 74
     1
 75
     0
 76
     0
 77
     0
 78
     0
170
     0
171
     2
172
     0
173
     0
174
     0
175
     0
176
     0
177
     0
178
     0
  0
DIMSTYLE
  2
BYGG-014203$0$MASKIN
 70
     0
  3

  4

  5

  6

  7

 40
0.0
 41
3.0
 42
1.5
 43
10.0
 44
1.5
 45
0.0
 46
0.0
 47
0.0
 48
0.0
140
3.0
141
-5.0
142
0.0
143
25.399999999999999
144
-1.0
145
0.0
146
1.0
147
1.0
 71
     0
 72
     0
 73
     0
 74
     0
 75
     0
 76
     0
 77
     1
 78
     8
170
     0
171
     0
172
     1
173
     0
174
     0
175
     0
176
   256
177
   256
178
   256
  0
ENDTAB
  0
ENDSEC
  0
SECTION
  2
BLOCKS
  0
BLOCK
  8
0
  2
$MODEL_SPACE
 70
     0
 10
0.0
 20
0.0
 30
0.0
  3
$MODEL_SPACE
  1

  0
ENDBLK
  5
B
  8
0
  0
BLOCK
 67
     1
  8
0
  2
$PAPER_SPACE
 70
     0
 10
0.0
 20
0.0
 30
0.0
  3
$PAPER_SPACE
  1

  0
ENDBLK
  5
10
 67
     1
  8
0
  0
BLOCK
  8
0
  2
*D61
 70
     1
 10
0.0
 20
0.0
 30
0.0
  3
*D61
  1

  0
LINE
  5
9AF
  8
SAPA_MATT
 10
75.805645280643603
 20
526.60000000000014
 30
0.0
 11
55.809288549683131
 21
526.60000000000014
 31
0.0
  0
LINE
  5
9B0
  8
SAPA_MATT
 10
75.805645280643603
 20
476.60000000000008
 30
0.0
 11
55.809288549683117
 21
476.60000000000008
 31
0.0
  0
LINE
  5
9B1
  8
SAPA_MATT
 10
57.309288549683117
 20
523.60000000000014
 30
0.0
 11
57.30928854968311
 21
479.60000000000008
 31
0.0
  0
SOLID
  5
9B2
  8
SAPA_MATT
 10
56.809288549683117
 20
523.60000000000014
 30
0.0
 11
57.809288549683117
 21
523.60000000000014
 31
0.0
 12
57.309288549683117
 22
526.60000000000014
 32
0.0
 13
57.309288549683117
 23
526.60000000000014
 33
0.0
  0
SOLID
  5
9B3
  8
SAPA_MATT
 10
56.80928854968311
 20
479.60000000000008
 30
0.0
 11
57.809288549683117
 21
479.60000000000008
 31
0.0
 12
57.30928854968311
 22
476.60000000000008
 32
0.0
 13
57.30928854968311
 23
476.60000000000008
 33
0.0
  0
INSERT
  5
9B4
  8
0
  2
*U78
 10
0.0
 20
0.0
 30
0.0
  0
POINT
  5
9B5
  8
DEFPOINTS
 62
     0
 10
77.305645280643603
 20
526.60000000000014
 30
0.0
  0
POINT
  5
9B6
  8
DEFPOINTS
 62
     0
 10
77.305645280643603
 20
476.60000000000008
 30
0.0
  0
POINT
  5
9B7
  8
DEFPOINTS
 62
     0
 10
57.30928854968311
 20
476.60000000000008
 30
0.0
  0
ENDBLK
  5
93C
  8
0
  0
BLOCK
  8
0
  2
*D62
 70
     1
 10
0.0
 20
0.0
 30
0.0
  3
*D62
  1

  0
LINE
  5
9A6
  8
SAPA_MATT
 10
89.547850390572592
 20
531.60000000000002
 30
0.0
 11
43.808774314771661
 21
531.60000000000002
 31
0.0
  0
LINE
  5
9A7
  8
SAPA_MATT
 10
75.904405073412079
 20
471.60000000000002
 30
0.0
 11
43.808774314771647
 21
471.60000000000002
 31
0.0
  0
LINE
  5
9A8
  8
SAPA_MATT
 10
45.308774314771668
 20
528.60000000000002
 30
0.0
 11
45.308774314771647
 21
474.60000000000002
 31
0.0
  0
SOLID
  5
9A9
  8
SAPA_MATT
 10
44.808774314771668
 20
528.60000000000002
 30
0.0
 11
45.808774314771661
 21
528.60000000000002
 31
0.0
 12
45.308774314771668
 22
531.60000000000002
 32
0.0
 13
45.308774314771668
 23
531.60000000000002
 33
0.0
  0
SOLID
  5
9AA
  8
SAPA_MATT
 10
44.808774314771647
 20
474.60000000000002
 30
0.0
 11
45.808774314771647
 21
474.60000000000002
 31
0.0
 12
45.308774314771647
 22
471.60000000000002
 32
0.0
 13
45.308774314771647
 23
471.60000000000002
 33
0.0
  0
INSERT
  5
9AB
  8
0
  2
*U77
 10
0.0
 20
0.0
 30
0.0
  0
POINT
  5
9AC
  8
DEFPOINTS
 62
     0
 10
91.047850390572606
 20
531.60000000000002
 30
0.0
  0
POINT
  5
9AD
  8
DEFPOINTS
 62
     0
 10
77.404405073412079
 20
471.60000000000002
 30
0.0
  0
POINT
  5
9AE
  8
DEFPOINTS
 62
     0
 10
45.308774314771647
 20
471.60000000000002
 30
0.0
  0
ENDBLK
  5
948
  8
0
  0
BLOCK
  8
0
  2
*D63
 70
     1
 10
0.0
 20
0.0
 30
0.0
  3
*D63
  1

  0
LINE
  5
99D
  8
SAPA_MATT
 10
77.305645280643603
 20
460.13115058922881
 30
0.0
 11
77.305645280643603
 21
438.10000000000002
 31
0.0
  0
LINE
  5
99E
  8
SAPA_MATT
 10
272.28564528064351
 20
460.13115058922881
 30
0.0
 11
272.28564528064351
 21
438.10000000000002
 31
0.0
  0
LINE
  5
99F
  8
SAPA_MATT
 10
80.305645280643603
 20
439.59999999999991
 30
0.0
 11
269.28564528064339
 21
439.59999999999991
 31
0.0
  0
SOLID
  5
9A0
  8
SAPA_MATT
 10
80.305645280643603
 20
440.10000000000002
 30
0.0
 11
80.305645280643603
 21
439.10000000000002
 31
0.0
 12
77.305645280643603
 22
439.59999999999991
 32
0.0
 13
77.305645280643603
 23
439.59999999999991
 33
0.0
  0
SOLID
  5
9A1
  8
SAPA_MATT
 10
269.28564528064339
 20
440.10000000000002
 30
0.0
 11
269.28564528064339
 21
439.10000000000002
 31
0.0
 12
272.28564528064351
 22
439.59999999999991
 32
0.0
 13
272.28564528064351
 23
439.59999999999991
 33
0.0
  0
INSERT
  5
9A2
  8
0
  2
*U76
 10
0.0
 20
0.0
 30
0.0
  0
POINT
  5
9A3
  8
DEFPOINTS
 62
     0
 10
77.305645280643603
 20
461.63115058922881
 30
0.0
  0
POINT
  5
9A4
  8
DEFPOINTS
 62
     0
 10
272.28564528064351
 20
461.63115058922881
 30
0.0
  0
POINT
  5
9A5
  8
DEFPOINTS
 62
     0
 10
272.28564528064351
 20
439.59999999999991
 30
0.0
  0
ENDBLK
  5
954
  8
0
  0
BLOCK
  8
0
  2
*D64
 70
     1
 10
0.0
 20
0.0
 30
0.0
  3
*D64
  1

  0
LINE
  5
994
  8
SAPA_MATT
 10
77.305645280643375
 20
475.10000000000008
 30
0.0
 11
77.305645280643375
 21
450.10000000000002
 31
0.0
  0
LINE
  5
995
  8
SAPA_MATT
 10
122.3056452806434
 20
475.10000000000008
 30
0.0
 11
122.3056452806434
 21
450.10000000000002
 31
0.0
  0
LINE
  5
996
  8
SAPA_MATT
 10
80.305645280643375
 20
451.60000000000002
 30
0.0
 11
119.3056452806434
 21
451.60000000000002
 31
0.0
  0
SOLID
  5
997
  8
SAPA_MATT
 10
80.305645280643375
 20
452.09999999999991
 30
0.0
 11
80.305645280643375
 21
451.10000000000002
 31
0.0
 12
77.305645280643375
 22
451.60000000000002
 32
0.0
 13
77.305645280643375
 23
451.60000000000002
 33
0.0
  0
SOLID
  5
998
  8
SAPA_MATT
 10
119.3056452806434
 20
452.09999999999991
 30
0.0
 11
119.3056452806434
 21
451.10000000000002
 31
0.0
 12
122.3056452806434
 22
451.60000000000002
 32
0.0
 13
122.3056452806434
 23
451.60000000000002
 33
0.0
  0
INSERT
  5
999
  8
0
  2
*U75
 10
0.0
 20
0.0
 30
0.0
  0
POINT
  5
99A
  8
DEFPOINTS
 62
     0
 10
77.305645280643375
 20
476.60000000000008
 30
0.0
  0
POINT
  5
99B
  8
DEFPOINTS
 62
     0
 10
122.3056452806434
 20
476.60000000000008
 30
0.0
  0
POINT
  5
99C
  8
DEFPOINTS
 62
     0
 10
122.3056452806434
 20
451.60000000000002
 30
0.0
  0
ENDBLK
  5
960
  8
0
  0
BLOCK
  8
0
  2
*D65
 70
     1
 10
0.0
 20
0.0
 30
0.0
  3
*D65
  1

  0
LINE
  5
98B
  8
SAPA_MATT
 10
122.3056452806434
 20
475.10000000000008
 30
0.0
 11
122.3056452806434
 21
450.10000000000002
 31
0.0
  0
LINE
  5
98C
  8
SAPA_MATT
 10
152.30564528064349
 20
474.51421356237182
 30
0.0
 11
152.30564528064349
 21
450.10000000000002
 31
0.0
  0
LINE
  5
98D
  8
SAPA_MATT
 10
125.3056452806434
 20
451.60000000000002
 30
0.0
 11
149.30564528064349
 21
451.60000000000002
 31
0.0
  0
SOLID
  5
98E
  8
SAPA_MATT
 10
125.3056452806434
 20
452.09999999999991
 30
0.0
 11
125.3056452806434
 21
451.10000000000002
 31
0.0
 12
122.3056452806434
 22
451.60000000000002
 32
0.0
 13
122.3056452806434
 23
451.60000000000002
 33
0.0
  0
SOLID
  5
98F
  8
SAPA_MATT
 10
149.30564528064349
 20
452.09999999999991
 30
0.0
 11
149.30564528064349
 21
451.10000000000002
 31
0.0
 12
152.30564528064349
 22
451.60000000000002
 32
0.0
 13
152.30564528064349
 23
451.60000000000002
 33
0.0
  0
INSERT
  5
990
  8
0
  2
*U74
 10
0.0
 20
0.0
 30
0.0
  0
POINT
  5
991
  8
DEFPOINTS
 62
     0
 10
122.3056452806434
 20
476.60000000000008
 30
0.0
  0
POINT
  5
992
  8
DEFPOINTS
 62
     0
 10
152.30564528064349
 20
476.01421356237182
 30
0.0
  0
POINT
  5
993
  8
DEFPOINTS
 62
     0
 10
152.30564528064349
 20
451.60000000000002
 30
0.0
  0
ENDBLK
  5
96C
  8
0
  0
BLOCK
  8
0
  2
*D66
 70
     1
 10
0.0
 20
0.0
 30
0.0
  3
*D66
  1

  0
LINE
  5
982
  8
SAPA_MATT
 10
152.30564528064349
 20
474.51421356237182
 30
0.0
 11
152.30564528064349
 21
450.10000000000002
 31
0.0
  0
LINE
  5
983
  8
SAPA_MATT
 10
272.30564528064349
 20
475.59999999999991
 30
0.0
 11
272.30564528064349
 21
450.10000000000002
 31
0.0
  0
LINE
  5
984
  8
SAPA_MATT
 10
155.30564528064349
 20
451.60000000000002
 30
0.0
 11
269.30564528064349
 21
451.60000000000002
 31
0.0
  0
SOLID
  5
985
  8
SAPA_MATT
 10
155.30564528064349
 20
452.09999999999991
 30
0.0
 11
155.30564528064349
 21
451.10000000000002
 31
0.0
 12
152.30564528064349
 22
451.60000000000002
 32
0.0
 13
152.30564528064349
 23
451.60000000000002
 33
0.0
  0
SOLID
  5
986
  8
SAPA_MATT
 10
269.30564528064349
 20
452.09999999999991
 30
0.0
 11
269.30564528064349
 21
451.10000000000002
 31
0.0
 12
272.30564528064349
 22
451.60000000000002
 32
0.0
 13
272.30564528064349
 23
451.60000000000002
 33
0.0
  0
INSERT
  5
987
  8
0
  2
*U73
 10
0.0
 20
0.0
 30
0.0
  0
POINT
  5
988
  8
DEFPOINTS
 62
     0
 10
152.30564528064349
 20
476.01421356237182
 30
0.0
  0
POINT
  5
989
  8
DEFPOINTS
 62
     0
 10
272.30564528064349
 20
477.09999999999991
 30
0.0
  0
POINT
  5
98A
  8
DEFPOINTS
 62
     0
 10
272.30564528064349
 20
451.60000000000002
 30
0.0
  0
ENDBLK
  5
978
  8
0
  0
BLOCK
  8
0
  2
*X67
 70
     1
 10
0.0
 20
0.0
 30
0.0
  3
*X67
  1

  0
LINE
  5
9CF
  8
0
 62
     0
 10
77.886095535181298
 20
522.22274903920493
 30
0.0
 11
77.615924938478486
 21
522.37873210593841
 31
0.0
  0
LINE
  5
9D0
  8
0
 62
     0
 10
80.159412220115442
 20
520.91024903920493
 30
0.0
 11
79.401639991804061
 21
521.34774903920493
 31
0.0
  0
LINE
  5
9D1
  8
0
 62
     0
 10
82.432728905049586
 20
519.59774903920493
 30
0.0
 11
81.674956676738205
 21
520.03524903920493
 31
0.0
  0
LINE
  5
9D2
  8
0
 62
     0
 10
74.855006621747066
 20
522.22274903887831
 30
0.0
 11
74.313101087394827
 21
522.53561834501193
 31
0.0
  0
LINE
  5
9D3
  8
0
 62
     0
 10
77.128323306681224
 20
520.91024903887831
 30
0.0
 11
76.370551078369843
 21
521.34774903887831
 31
0.0
  0
LINE
  5
9D4
  8
0
 62
     0
 10
79.401639991615369
 20
519.59774903887819
 30
0.0
 11
78.643867763303973
 21
520.03524903887831
 31
0.0
  0
LINE
  5
9D5
  8
0
 62
     0
 10
81.674956676549513
 20
518.28524903887831
 30
0.0
 11
80.917184448238132
 21
518.72274903887819
 31
0.0
  0
LINE
  5
9D6
  8
0
 62
     0
 10
74.097234393247007
 20
520.91024903855146
 30
0.0
 11
73.339462164935625
 21
521.34774903855146
 31
0.0
  0
LINE
  5
9D7
  8
0
 62
     0
 10
76.370551078181151
 20
519.59774903855146
 30
0.0
 11
75.61277884986977
 21
520.03524903855146
 31
0.0
  0
LINE
  5
9D8
  8
0
 62
     0
 10
78.643867763115296
 20
518.28524903855146
 30
0.0
 11
77.886095534803914
 21
518.72274903855157
 31
0.0
  0
LINE
  5
9D9
  8
0
 62
     0
 10
80.917184448049454
 20
516.97274903855157
 30
0.0
 11
80.159412219738059
 21
517.41024903855146
 31
0.0
  0
LINE
  5
9DA
  8
0
 62
     0
 10
71.066145479812889
 20
520.91024903822483
 30
0.0
 11
70.308373251501507
 21
521.34774903822483
 31
0.0
  0
LINE
  5
9DB
  8
0
 62
     0
 10
73.339462164747033
 20
519.59774903822483
 30
0.0
 11
72.581689936435652
 21
520.03524903822483
 31
0.0
  0
LINE
  5
9DC
  8
0
 62
     0
 10
75.612778849681163
 20
518.28524903822483
 30
0.0
 11
74.855006621369796
 21
518.72274903822483
 31
0.0
  0
LINE
  5
9DD
  8
0
 62
     0
 10
77.886095534615322
 20
516.97274903822483
 30
0.0
 11
77.12832330630394
 21
517.41024903822483
 31
0.0
  0
LINE
  5
9DE
  8
0
 62
     0
 10
80.121865839204531
 20
515.68192645102397
 30
0.0
 11
79.401639991238085
 21
516.09774903822483
 31
0.0
  0
LINE
  5
9DF
  8
0
 62
     0
 10
70.308373251312958
 20
519.5977490378981
 30
0.0
 11
69.550601023001576
 21
520.0352490378981
 31
0.0
  0
LINE
  5
9E0
  8
0
 62
     0
 10
72.581689936247102
 20
518.2852490378981
 30
0.0
 11
71.823917707935721
 21
518.7227490378981
 31
0.0
  0
LINE
  5
9E1
  8
0
 62
     0
 10
74.855006621181246
 20
516.97274903789798
 30
0.0
 11
74.097234392869865
 21
517.4102490378981
 31
0.0
  0
LINE
  5
9E2
  8
0
 62
     0
 10
77.128323306115391
 20
515.6602490378981
 30
0.0
 11
76.370551077804009
 21
516.09774903789798
 31
0.0
  0
LINE
  5
9E3
  8
0
 62
     0
 10
69.550601022812941
 20
518.28524903757136
 30
0.0
 11
68.79282879450156
 21
518.72274903757148
 31
0.0
  0
LINE
  5
9E4
  8
0
 62
     0
 10
71.823917707747086
 20
516.97274903757148
 30
0.0
 11
71.066145479435704
 21
517.41024903757136
 31
0.0
  0
LINE
  5
9E5
  8
0
 62
     0
 10
74.09723439268123
 20
515.66024903757136
 30
0.0
 11
73.339462164369834
 21
516.09774903757148
 31
0.0
  0
LINE
  5
9E6
  8
0
 62
     0
 10
75.672867821743921
 20
514.75055665315779
 30
0.0
 11
75.612778849303993
 21
514.78524903757136
 31
0.0
  0
LINE
  5
9E7
  8
0
 62
     0
 10
68.792828794312925
 20
516.97274903724485
 30
0.0
 11
68.499185106869277
 21
517.14228429923617
 31
0.0
  0
LINE
  5
9E8
  8
0
 62
     0
 10
71.066145479247055
 20
515.66024903724485
 30
0.0
 11
70.308373250935674
 21
516.09774903724485
 31
0.0
  0
LINE
  5
9E9
  8
0
 62
     0
 10
80.917184444654438
 20
485.47274903267112
 30
0.0
 11
80.159412216343057
 21
485.91024903267112
 31
0.0
  0
LINE
  5
9EA
  8
0
 62
     0
 10
77.886095531220292
 20
485.47274903234438
 30
0.0
 11
77.12832330290891
 21
485.91024903234438
 31
0.0
  0
LINE
  5
9EB
  8
0
 62
     0
 10
80.159412216154436
 20
484.16024903234438
 30
0.0
 11
79.401639987843055
 21
484.59774903234438
 31
0.0
  0
LINE
  5
9EC
  8
0
 62
     0
 10
82.305645280643617
 20
482.92112079481791
 30
0.0
 11
81.674956672777185
 21
483.28524903234438
 31
0.0
  0
LINE
  5
9ED
  8
0
 62
     0
 10
74.855006617786145
 20
485.47274903201759
 30
0.0
 11
74.097234389474764
 21
485.9102490320177
 31
0.0
  0
LINE
  5
9EE
  8
0
 62
     0
 10
77.128323302720304
 20
484.1602490320177
 30
0.0
 11
76.370551074408922
 21
484.59774903201759
 31
0.0
  0
LINE
  5
9EF
  8
0
 62
     0
 10
79.401639987654448
 20
482.84774903201759
 30
0.0
 11
78.643867759343067
 21
483.2852490320177
 31
0.0
  0
LINE
  5
9F0
  8
0
 62
     0
 10
81.674956672588607
 20
481.5352490320177
 30
0.0
 11
80.917184444277211
 21
481.97274903201759
 31
0.0
  0
LINE
  5
9F1
  8
0
 62
     0
 10
71.823917704351956
 20
485.47274903169102
 30
0.0
 11
71.066145476040575
 21
485.91024903169102
 31
0.0
  0
LINE
  5
9F2
  8
0
 62
     0
 10
74.097234389286101
 20
484.16024903169102
 30
0.0
 11
73.339462160974719
 21
484.59774903169102
 31
0.0
  0
LINE
  5
9F3
  8
0
 62
     0
 10
76.370551074220245
 20
482.84774903169102
 30
0.0
 11
75.612778845908863
 21
483.28524903169102
 31
0.0
  0
LINE
  5
9F4
  8
0
 62
     0
 10
78.643867759154389
 20
481.53524903169102
 30
0.0
 11
77.886095530843008
 21
481.97274903169102
 31
0.0
  0
LINE
  5
9F5
  8
0
 62
     0
 10
80.917184444088534
 20
480.22274903169091
 30
0.0
 11
80.159412215777166
 21
480.66024903169102
 31
0.0
  0
LINE
  5
9F6
  8
0
 62
     0
 10
68.792828790917852
 20
485.47274903136429
 30
0.0
 11
68.305645280643446
 21
485.75402456216602
 31
0.0
  0
LINE
  5
9F7
  8
0
 62
     0
 10
71.066145475851997
 20
484.16024903136429
 30
0.0
 11
70.308373247540615
 21
484.59774903136429
 31
0.0
  0
LINE
  5
9F8
  8
0
 62
     0
 10
73.339462160786141
 20
482.84774903136429
 30
0.0
 11
72.58168993247476
 21
483.28524903136429
 31
0.0
  0
LINE
  5
9F9
  8
0
 62
     0
 10
75.612778845720285
 20
481.53524903136429
 30
0.0
 11
74.855006617408904
 21
481.97274903136429
 31
0.0
  0
LINE
  5
9FA
  8
0
 62
     0
 10
77.876108248371509
 20
480.22851519147878
 30
0.0
 11
77.128323302343048
 21
480.66024903136429
 31
0.0
  0
LINE
  5
9FB
  8
0
 62
     0
 10
70.308373247351952
 20
482.84774903103761
 30
0.0
 11
69.55060101904057
 21
483.28524903103772
 31
0.0
  0
LINE
  5
9FC
  8
0
 62
     0
 10
72.581689932286096
 20
481.53524903103772
 30
0.0
 11
71.823917703974715
 21
481.97274903103761
 31
0.0
  0
LINE
  5
9FD
  8
0
 62
     0
 10
74.855006617220241
 20
480.22274903103761
 30
0.0
 11
74.097234388908845
 21
480.66024903103772
 31
0.0
  0
LINE
  5
9FE
  8
0
 62
     0
 10
77.128323302154385
 20
478.91024903103761
 30
0.0
 11
76.370551073843004
 21
479.34774903103761
 31
0.0
  0
LINE
  5
9FF
  8
0
 62
     0
 10
69.550601018851921
 20
481.53524903071087
 30
0.0
 11
68.79282879054054
 21
481.97274903071087
 31
0.0
  0
LINE
  5
A00
  8
0
 62
     0
 10
71.823917703786066
 20
480.22274903071087
 30
0.0
 11
71.066145475474684
 21
480.66024903071087
 31
0.0
  0
LINE
  5
A01
  8
0
 62
     0
 10
74.09723438872021
 20
478.91024903071087
 30
0.0
 11
73.339462160408829
 21
479.34774903071087
 31
0.0
  0
LINE
  5
A02
  8
0
 62
     0
 10
76.370551073654354
 20
477.59774903071087
 30
0.0
 11
75.612778845342973
 21
478.03524903071087
 31
0.0
  0
LINE
  5
A03
  8
0
 62
     0
 10
68.792828790351933
 20
480.22274903038419
 30
0.0
 11
68.305645280643461
 21
480.50402456085908
 31
0.0
  0
LINE
  5
A04
  8
0
 62
     0
 10
71.066145475286092
 20
478.91024903038408
 30
0.0
 11
70.30837324697471
 21
479.34774903038419
 31
0.0
  0
LINE
  5
A05
  8
0
 62
     0
 10
73.339462160220236
 20
477.59774903038419
 30
0.0
 11
72.581689931908855
 21
478.03524903038408
 31
0.0
  0
LINE
  5
A06
  8
0
 62
     0
 10
75.067614174048003
 20
476.60000000000008
 30
0.0
 11
74.855006616842999
 21
476.72274903038419
 31
0.0
  0
LINE
  5
A07
  8
0
 62
     0
 10
70.308373246786132
 20
477.59774903005751
 30
0.0
 11
69.550601018474751
 21
478.03524903005751
 31
0.0
  0
LINE
  5
A08
  8
0
 62
     0
 10
72.036525260048165
 20
476.60000000000008
 30
0.0
 11
71.823917703408895
 21
476.72274903005763
 31
0.0
  0
LINE
  5
A09
  8
0
 62
     0
 10
69.00543634604827
 20
476.60000000000002
 30
0.0
 11
68.79282878997472
 21
476.72274902973078
 31
0.0
  0
LINE
  5
A0A
  8
0
 62
     0
 10
70.308373224718125
 20
521.34774915583444
 30
0.0
 11
69.550600996406743
 21
520.91024915583444
 31
0.0
  0
LINE
  5
A0B
  8
0
 62
     0
 10
68.792828768283982
 20
518.72274915550759
 30
0.0
 11
68.035056539972601
 21
518.2852491555077
 31
0.0
  0
LINE
  5
A0C
  8
0
 62
     0
 10
71.066145453218127
 20
520.0352491555077
 30
0.0
 11
70.308373224906745
 21
519.59774915550759
 31
0.0
  0
LINE
  5
A0D
  8
0
 62
     0
 10
73.339462138152271
 20
521.34774915550759
 30
0.0
 11
72.581689909840875
 21
520.9102491555077
 31
0.0
  0
LINE
  5
A0E
  8
0
 62
     0
 10
75.456418622958381
 20
522.56997455187309
 30
0.0
 11
74.855006594775034
 21
522.22274915550759
 31
0.0
  0
LINE
  5
A0F
  8
0
 62
     0
 10
69.550600996783984
 20
517.41024915518085
 30
0.0
 11
68.792828768472603
 21
516.97274915518085
 31
0.0
  0
LINE
  5
A10
  8
0
 62
     0
 10
71.823917681718129
 20
518.72274915518085
 30
0.0
 11
71.066145453406747
 21
518.28524915518085
 31
0.0
  0
LINE
  5
A11
  8
0
 62
     0
 10
74.097234366652273
 20
520.03524915518085
 30
0.0
 11
73.339462138340892
 21
519.59774915518085
 31
0.0
  0
LINE
  5
A12
  8
0
 62
     0
 10
76.370551051586403
 20
521.34774915518096
 30
0.0
 11
75.612778823275036
 21
520.91024915518085
 31
0.0
  0
LINE
  5
A13
  8
0
 62
     0
 10
78.026363486570844
 20
522.30373291024659
 30
0.0
 11
77.886095508209181
 21
522.22274915518096
 31
0.0
  0
LINE
  5
A14
  8
0
 62
     0
 10
70.308373225283901
 20
516.09774915485411
 30
0.0
 11
70.005416859756139
 21
515.92283721566389
 31
0.0
  0
LINE
  5
A15
  8
0
 62
     0
 10
72.581689910218046
 20
517.410249154854
 30
0.0
 11
71.823917681906664
 21
516.97274915485411
 31
0.0
  0
LINE
  5
A16
  8
0
 62
     0
 10
74.85500659515219
 20
518.72274915485411
 30
0.0
 11
74.097234366840809
 21
518.285249154854
 31
0.0
  0
LINE
  5
A17
  8
0
 62
     0
 10
77.128323280086335
 20
520.03524915485411
 30
0.0
 11
76.370551051774953
 21
519.59774915485411
 31
0.0
  0
LINE
  5
A18
  8
0
 62
     0
 10
79.401639965020479
 20
521.34774915485411
 30
0.0
 11
78.643867736709097
 21
520.91024915485411
 31
0.0
  0
LINE
  5
A19
  8
0
 62
     0
 10
73.339462138718133
 20
516.09774915452761
 30
0.0
 11
72.581689910406752
 21
515.66024915452749
 31
0.0
  0
LINE
  5
A1A
  8
0
 62
     0
 10
75.612778823652278
 20
517.41024915452761
 30
0.0
 11
74.855006595340896
 21
516.97274915452761
 31
0.0
  0
LINE
  5
A1B
  8
0
 62
     0
 10
77.886095508586422
 20
518.72274915452761
 30
0.0
 11
77.12832328027504
 21
518.28524915452761
 31
0.0
  0
LINE
  5
A1C
  8
0
 62
     0
 10
80.159412193520566
 20
520.03524915452761
 30
0.0
 11
79.401639965209185
 21
519.59774915452761
 31
0.0
  0
LINE
  5
A1D
  8
0
 62
     0
 10
76.370551052152294
 20
516.09774915420087
 30
0.0
 11
75.612778823840912
 21
515.66024915420098
 31
0.0
  0
LINE
  5
A1E
  8
0
 62
     0
 10
78.643867737086438
 20
517.41024915420098
 30
0.0
 11
77.886095508775057
 21
516.97274915420087
 31
0.0
  0
LINE
  5
A1F
  8
0
 62
     0
 10
80.917184422020583
 20
518.72274915420087
 30
0.0
 11
80.159412193709215
 21
518.28524915420098
 31
0.0
  0
LINE
  5
A20
  8
0
 62
     0
 10
82.488002030411607
 20
519.6296611232533
 30
0.0
 11
82.432728878643346
 21
519.59774915420087
 31
0.0
  0
LINE
  5
A21
  8
0
 62
     0
 10
79.401639965586412
 20
516.09774915387425
 30
0.0
 11
78.643867737275031
 21
515.66024915387425
 31
0.0
  0
LINE
  5
A22
  8
0
 62
     0
 10
81.674956650520556
 20
517.41024915387425
 30
0.0
 11
80.917184422209175
 21
516.97274915387425
 31
0.0
  0
LINE
  5
A23
  8
0
 62
     0
 10
69.550601000179057
 20
485.91024914930051
 30
0.0
 11
68.792828771867676
 21
485.4727491493004
 31
0.0
  0
LINE
  5
A24
  8
0
 62
     0
 10
70.308373228679159
 20
484.59774914897389
 30
0.0
 11
69.550601000367777
 21
484.16024914897378
 31
0.0
  0
LINE
  5
A25
  8
0
 62
     0
 10
72.581689913613303
 20
485.91024914897378
 30
0.0
 11
71.823917685301922
 21
485.47274914897389
 31
0.0
  0
LINE
  5
A26
  8
0
 62
     0
 10
68.792828772244988
 20
481.9727491486471
 30
0.0
 11
68.305645280643589
 21
481.69147362862628
 31
0.0
  0
LINE
  5
A27
  8
0
 62
     0
 10
71.066145457179132
 20
483.2852491486471
 30
0.0
 11
70.308373228867751
 21
482.8477491486471
 31
0.0
  0
LINE
  5
A28
  8
0
 62
     0
 10
73.339462142113277
 20
484.5977491486471
 30
0.0
 11
72.581689913801895
 21
484.1602491486471
 31
0.0
  0
LINE
  5
A29
  8
0
 62
     0
 10
75.612778827047421
 20
485.9102491486471
 30
0.0
 11
74.85500659873604
 21
485.4727491486471
 31
0.0
  0
LINE
  5
A2A
  8
0
 62
     0
 10
69.550601000744933
 20
480.6602491483203
 30
0.0
 11
68.792828772433566
 21
480.2227491483203
 31
0.0
  0
LINE
  5
A2B
  8
0
 62
     0
 10
71.823917685679092
 20
481.9727491483203
 30
0.0
 11
71.06614545736771
 21
481.5352491483203
 31
0.0
  0
LINE
  5
A2C
  8
0
 62
     0
 10
74.097234370613236
 20
483.2852491483203
 30
0.0
 11
73.339462142301855
 21
482.8477491483203
 31
0.0
  0
LINE
  5
A2D
  8
0
 62
     0
 10
76.370551055547381
 20
484.5977491483203
 30
0.0
 11
75.612778827235999
 21
484.1602491483203
 31
0.0
  0
LINE
  5
A2E
  8
0
 62
     0
 10
78.643867740481525
 20
485.9102491483203
 30
0.0
 11
77.886095512170144
 21
485.4727491483203
 31
0.0
  0
LINE
  5
A2F
  8
0
 62
     0
 10
70.308373229244964
 20
479.34774914799362
 30
0.0
 11
69.550601000933582
 21
478.91024914799362
 31
0.0
  0
LINE
  5
A30
  8
0
 62
     0
 10
72.581689914179094
 20
480.66024914799362
 30
0.0
 11
71.823917685867727
 21
480.22274914799362
 31
0.0
  0
LINE
  5
A31
  8
0
 62
     0
 10
74.855006599113253
 20
481.97274914799362
 30
0.0
 11
74.097234370801871
 21
481.53524914799362
 31
0.0
  0
LINE
  5
A32
  8
0
 62
     0
 10
77.128323284047397
 20
483.28524914799362
 30
0.0
 11
76.370551055736016
 21
482.84774914799362
 31
0.0
  0
LINE
  5
A33
  8
0
 62
     0
 10
79.401639968981542
 20
484.59774914799362
 30
0.0
 11
78.64386774067016
 21
484.16024914799362
 31
0.0
  0
LINE
  5
A34
  8
0
 62
     0
 10
81.674956653915686
 20
485.91024914799362
 30
0.0
 11
80.917184425604304
 21
485.47274914799362
 31
0.0
  0
LINE
  5
A35
  8
0
 62
     0
 10
68.792828772810793
 20
476.722749147667
 30
0.0
 11
68.580221012466012
 21
476.60000000000008
 31
0.0
  0
LINE
  5
A36
  8
0
 62
     0
 10
71.066145457744938
 20
478.03524914766689
 30
0.0
 11
70.308373229433556
 21
477.597749147667
 31
0.0
  0
LINE
  5
A37
  8
0
 62
     0
 10
73.339462142679082
 20
479.347749147667
 30
0.0
 11
72.581689914367701
 21
478.91024914766689
 31
0.0
  0
LINE
  5
A38
  8
0
 62
     0
 10
75.612778827613226
 20
480.66024914766689
 30
0.0
 11
74.855006599301845
 21
480.222749147667
 31
0.0
  0
LINE
  5
A39
  8
0
 62
     0
 10
77.886095512547371
 20
481.972749147667
 30
0.0
 11
77.128323284235989
 21
481.53524914766689
 31
0.0
  0
LINE
  5
A3A
  8
0
 62
     0
 10
80.159412197481515
 20
483.28524914766689
 30
0.0
 11
79.401639969170134
 21
482.847749147667
 31
0.0
  0
LINE
  5
A3B
  8
0
 62
     0
 10
82.305645280643546
 20
484.52437739597428
 30
0.0
 11
81.674956654104264
 21
484.16024914766689
 31
0.0
  0
LINE
  5
A3C
  8
0
 62
     0
 10
71.82391768624494
 20
476.72274914734032
 30
0.0
 11
71.611309926465964
 21
476.60000000000008
 31
0.0
  0
LINE
  5
A3D
  8
0
 62
     0
 10
74.097234371179084
 20
478.03524914734032
 30
0.0
 11
73.339462142867703
 21
477.59774914734032
 31
0.0
  0
LINE
  5
A3E
  8
0
 62
     0
 10
76.370551056113229
 20
479.34774914734032
 30
0.0
 11
75.612778827801847
 21
478.91024914734032
 31
0.0
  0
LINE
  5
A3F
  8
0
 62
     0
 10
80.917184425981475
 20
481.97274914734021
 30
0.0
 11
80.159412197670108
 21
481.53524914734032
 31
0.0
  0
LINE
  5
A40
  8
0
 62
     0
 10
74.855006599679186
 20
476.7227491470137
 30
0.0
 11
74.642398840466001
 21
476.60000000000008
 31
0.0
  0
LINE
  5
A41
  8
0
 62
     0
 10
77.12832328461333
 20
478.03524914701381
 30
0.0
 11
76.370551056301949
 21
477.5977491470137
 31
0.0
  0
LINE
  5
A42
  8
0
 62
     0
 10
81.674956654481548
 20
480.6602491470137
 30
0.0
 11
80.917184426170181
 21
480.2227491470137
 31
0.0
  0
LINE
  5
A43
  8
0
 62
     0
 10
82.281732337194015
 20
479.2605712503298
 30
0.0
 11
81.674956654670197
 21
478.91024914668691
 31
0.0
  0
LINE
  5
A44
  8
0
 62
     0
 10
81.674956563945571
 20
520.03524907383417
 30
0.0
 11
81.674956563945571
 21
520.62664079137653
 31
0.0
  0
LINE
  5
A45
  8
0
 62
     0
 10
81.674956563945571
 20
517.41024907383417
 30
0.0
 11
81.674956563945571
 21
518.28524907383417
 31
0.0
  0
LINE
  5
A46
  8
0
 62
     0
 10
81.674956563945557
 20
485.91024907383428
 30
0.0
 11
81.674956563945557
 21
486.60000000000008
 31
0.0
  0
LINE
  5
A47
  8
0
 62
     0
 10
81.674956563945557
 20
483.28524907383428
 30
0.0
 11
81.674956563945557
 21
484.16024907383428
 31
0.0
  0
LINE
  5
A48
  8
0
 62
     0
 10
81.674956563945557
 20
480.66024907383428
 30
0.0
 11
81.674956563945557
 21
481.53524907383428
 31
0.0
  0
LINE
  5
A49
  8
0
 62
     0
 10
81.674956563945557
 20
478.50055832866531
 30
0.0
 11
81.674956563945557
 21
478.91024907383428
 31
0.0
  0
LINE
  5
A4A
  8
0
 62
     0
 10
80.159412106945538
 20
520.03524907383417
 30
0.0
 11
80.159412106945538
 21
520.91024907383417
 31
0.0
  0
LINE
  5
A4B
  8
0
 62
     0
 10
80.159412106945538
 20
517.41024907383417
 30
0.0
 11
80.159412106945538
 21
518.28524907383417
 31
0.0
  0
LINE
  5
A4C
  8
0
 62
     0
 10
80.159412106945524
 20
485.91024907383428
 30
0.0
 11
80.159412106945524
 21
486.60000000000008
 31
0.0
  0
LINE
  5
A4D
  8
0
 62
     0
 10
80.159412106945524
 20
483.28524907383428
 30
0.0
 11
80.159412106945524
 21
484.16024907383428
 31
0.0
  0
LINE
  5
A4E
  8
0
 62
     0
 10
80.159412106945524
 20
480.66024907383428
 30
0.0
 11
80.159412106945524
 21
481.53524907383428
 31
0.0
  0
LINE
  5
A4F
  8
0
 62
     0
 10
78.643867649945619
 20
520.03524907383417
 30
0.0
 11
78.643867649945619
 21
520.91024907383417
 31
0.0
  0
LINE
  5
A50
  8
0
 62
     0
 10
78.643867649945619
 20
517.41024907383417
 30
0.0
 11
78.643867649945619
 21
518.28524907383417
 31
0.0
  0
LINE
  5
A51
  8
0
 62
     0
 10
78.643867649945619
 20
515.15243805078421
 30
0.0
 11
78.643867649945619
 21
515.66024907383417
 31
0.0
  0
LINE
  5
A52
  8
0
 62
     0
 10
78.643867649945605
 20
485.91024907383428
 30
0.0
 11
78.643867649945605
 21
486.60000000000008
 31
0.0
  0
LINE
  5
A53
  8
0
 62
     0
 10
78.643867649945605
 20
483.28524907383428
 30
0.0
 11
78.643867649945605
 21
484.16024907383428
 31
0.0
  0
LINE
  5
A54
  8
0
 62
     0
 10
78.643867649945605
 20
480.87274182217237
 30
0.0
 11
78.643867649945605
 21
481.53524907383428
 31
0.0
  0
LINE
  5
A55
  8
0
 62
     0
 10
77.128323192945587
 20
520.03524907383417
 30
0.0
 11
77.128323192945587
 21
520.91024907383417
 31
0.0
  0
LINE
  5
A56
  8
0
 62
     0
 10
77.128323192945587
 20
517.41024907383417
 30
0.0
 11
77.128323192945587
 21
518.28524907383417
 31
0.0
  0
LINE
  5
A57
  8
0
 62
     0
 10
77.128323192945587
 20
514.86497382321681
 30
0.0
 11
77.128323192945587
 21
515.66024907383417
 31
0.0
  0
LINE
  5
A58
  8
0
 62
     0
 10
77.128323192945572
 20
485.91024907383428
 30
0.0
 11
77.128323192945572
 21
486.60000000000008
 31
0.0
  0
LINE
  5
A59
  8
0
 62
     0
 10
77.128323192945572
 20
483.28524907383428
 30
0.0
 11
77.128323192945572
 21
484.16024907383428
 31
0.0
  0
LINE
  5
A5A
  8
0
 62
     0
 10
77.128323192945572
 20
480.66024907383428
 30
0.0
 11
77.128323192945572
 21
481.53524907383428
 31
0.0
  0
LINE
  5
A5B
  8
0
 62
     0
 10
77.128323192945572
 20
478.03524907383428
 30
0.0
 11
77.128323192945572
 21
478.91024907383428
 31
0.0
  0
LINE
  5
A5C
  8
0
 62
     0
 10
75.612778735945554
 20
520.03524907383417
 30
0.0
 11
75.612778735945554
 21
520.91024907383417
 31
0.0
  0
LINE
  5
A5D
  8
0
 62
     0
 10
75.612778735945554
 20
517.41024907383417
 30
0.0
 11
75.612778735945554
 21
518.28524907383417
 31
0.0
  0
LINE
  5
A5E
  8
0
 62
     0
 10
75.612778735945554
 20
514.78524907383417
 30
0.0
 11
75.612778735945554
 21
515.66024907383417
 31
0.0
  0
LINE
  5
A5F
  8
0
 62
     0
 10
75.61277873594554
 20
485.91024907383428
 30
0.0
 11
75.61277873594554
 21
486.60000000000008
 31
0.0
  0
LINE
  5
A60
  8
0
 62
     0
 10
75.61277873594554
 20
483.28524907383428
 30
0.0
 11
75.61277873594554
 21
484.16024907383428
 31
0.0
  0
LINE
  5
A61
  8
0
 62
     0
 10
75.61277873594554
 20
480.66024907383428
 30
0.0
 11
75.61277873594554
 21
481.53524907383428
 31
0.0
  0
LINE
  5
A62
  8
0
 62
     0
 10
75.61277873594554
 20
478.03524907383428
 30
0.0
 11
75.61277873594554
 21
478.91024907383428
 31
0.0
  0
LINE
  5
A63
  8
0
 62
     0
 10
74.097234278945521
 20
520.03524907383417
 30
0.0
 11
74.097234278945521
 21
520.91024907383417
 31
0.0
  0
LINE
  5
A64
  8
0
 62
     0
 10
74.097234278945521
 20
517.41024907383417
 30
0.0
 11
74.097234278945521
 21
518.28524907383417
 31
0.0
  0
LINE
  5
A65
  8
0
 62
     0
 10
74.097234278945521
 20
514.79790656127125
 30
0.0
 11
74.097234278945521
 21
515.66024907383417
 31
0.0
  0
LINE
  5
A66
  8
0
 62
     0
 10
74.097234278945507
 20
485.91024907383428
 30
0.0
 11
74.097234278945507
 21
486.60000000000008
 31
0.0
  0
LINE
  5
A67
  8
0
 62
     0
 10
74.097234278945507
 20
483.28524907383428
 30
0.0
 11
74.097234278945507
 21
484.16024907383428
 31
0.0
  0
LINE
  5
A68
  8
0
 62
     0
 10
74.097234278945507
 20
480.66024907383428
 30
0.0
 11
74.097234278945507
 21
481.53524907383428
 31
0.0
  0
LINE
  5
A69
  8
0
 62
     0
 10
74.097234278945507
 20
478.03524907383428
 30
0.0
 11
74.097234278945507
 21
478.91024907383428
 31
0.0
  0
LINE
  5
A6A
  8
0
 62
     0
 10
72.581689821945602
 20
520.03524907383417
 30
0.0
 11
72.581689821945602
 21
520.91024907383417
 31
0.0
  0
LINE
  5
A6B
  8
0
 62
     0
 10
72.581689821945602
 20
517.41024907383417
 30
0.0
 11
72.581689821945602
 21
518.28524907383417
 31
0.0
  0
LINE
  5
A6C
  8
0
 62
     0
 10
72.581689821945602
 20
515.01313137225986
 30
0.0
 11
72.581689821945602
 21
515.66024907383417
 31
0.0
  0
LINE
  5
A6D
  8
0
 62
     0
 10
72.581689821945574
 20
485.91024907383428
 30
0.0
 11
72.581689821945574
 21
486.60000000000008
 31
0.0
  0
LINE
  5
A6E
  8
0
 62
     0
 10
72.581689821945574
 20
483.28524907383428
 30
0.0
 11
72.581689821945574
 21
484.16024907383428
 31
0.0
  0
LINE
  5
A6F
  8
0
 62
     0
 10
72.581689821945574
 20
480.66024907383428
 30
0.0
 11
72.581689821945574
 21
481.53524907383428
 31
0.0
  0
LINE
  5
A70
  8
0
 62
     0
 10
72.581689821945574
 20
478.03524907383428
 30
0.0
 11
72.581689821945574
 21
478.91024907383428
 31
0.0
  0
LINE
  5
A71
  8
0
 62
     0
 10
71.066145364945569
 20
520.03524907383417
 30
0.0
 11
71.066145364945569
 21
520.91024907383417
 31
0.0
  0
LINE
  5
A72
  8
0
 62
     0
 10
71.066145364945569
 20
517.41024907383417
 30
0.0
 11
71.066145364945569
 21
518.28524907383417
 31
0.0
  0
LINE
  5
A73
  8
0
 62
     0
 10
71.066145364945569
 20
515.43941256725293
 30
0.0
 11
71.066145364945569
 21
515.66024907383417
 31
0.0
  0
LINE
  5
A74
  8
0
 62
     0
 10
71.066145364945555
 20
485.91024907383428
 30
0.0
 11
71.066145364945555
 21
486.60000000000008
 31
0.0
  0
LINE
  5
A75
  8
0
 62
     0
 10
71.066145364945555
 20
483.28524907383428
 30
0.0
 11
71.066145364945555
 21
484.16024907383428
 31
0.0
  0
LINE
  5
A76
  8
0
 62
     0
 10
71.066145364945555
 20
480.66024907383428
 30
0.0
 11
71.066145364945555
 21
481.53524907383428
 31
0.0
  0
LINE
  5
A77
  8
0
 62
     0
 10
71.066145364945555
 20
478.03524907383428
 30
0.0
 11
71.066145364945555
 21
478.91024907383428
 31
0.0
  0
LINE
  5
A78
  8
0
 62
     0
 10
69.550600907945537
 20
520.03524907383417
 30
0.0
 11
69.550600907945537
 21
520.91024907383417
 31
0.0
  0
LINE
  5
A79
  8
0
 62
     0
 10
69.550600907945537
 20
517.41024907383417
 30
0.0
 11
69.550600907945537
 21
518.28524907383417
 31
0.0
  0
LINE
  5
A7A
  8
0
 62
     0
 10
69.550600907945523
 20
485.91024907383428
 30
0.0
 11
69.550600907945523
 21
486.60000000000008
 31
0.0
  0
LINE
  5
A7B
  8
0
 62
     0
 10
69.550600907945523
 20
483.28524907383428
 30
0.0
 11
69.550600907945523
 21
484.16024907383428
 31
0.0
  0
LINE
  5
A7C
  8
0
 62
     0
 10
69.550600907945523
 20
480.66024907383428
 30
0.0
 11
69.550600907945523
 21
481.53524907383428
 31
0.0
  0
LINE
  5
A7D
  8
0
 62
     0
 10
69.550600907945523
 20
478.03524907383428
 30
0.0
 11
69.550600907945523
 21
478.91024907383428
 31
0.0
  0
LINE
  5
A7E
  8
0
 62
     0
 10
68.035056450945618
 20
517.88436863543416
 30
0.0
 11
68.035056450945618
 21
518.28524907383417
 31
0.0
  0
ENDBLK
  5
A80
  8
0
  0
BLOCK
  8
0
  2
*X68
 70
     1
 10
0.0
 20
0.0
 30
0.0
  3
*X68
  1

  0
LINE
  5
A8C
  8
0
 62
     0
 10
67.965323344249697
 20
526.53370997625757
 30
0.0
 11
67.805981338926784
 21
526.37436797093471
 31
0.0
  0
LINE
  5
A8D
  8
0
 62
     0
 10
69.278529534392874
 20
526.07914921343445
 30
0.0
 11
67.805981338926813
 21
524.6066010179685
 31
0.0
  0
LINE
  5
A8E
  8
0
 62
     0
 10
70.721752563129087
 20
525.75460528920439
 30
0.0
 11
67.805981338926756
 21
522.83883406500195
 31
0.0
  0
LINE
  5
A8F
  8
0
 62
     0
 10
72.327771808820074
 20
525.59285758192891
 30
0.0
 11
67.805981338926784
 21
521.07106711203562
 31
0.0
  0
LINE
  5
A90
  8
0
 62
     0
 10
68.111568672698525
 20
519.60888749284106
 30
0.0
 11
67.805981338926841
 21
519.30330015906941
 31
0.0
  0
LINE
  5
A91
  8
0
 62
     0
 10
74.158206359110125
 20
525.65552517925255
 30
0.0
 11
69.745228213677592
 21
521.24254703381996
 31
0.0
  0
LINE
  5
A92
  8
0
 62
     0
 10
76.356253879417636
 20
526.08580574659368
 30
0.0
 11
72.57188306433892
 21
522.30143493151513
 31
0.0
  0
LINE
  5
A93
  8
0
 62
     0
 10
77.802143661333503
 20
525.76392857554333
 30
0.0
 11
74.590784098142805
 21
522.55256901235248
 31
0.0
  0
LINE
  5
A94
  8
0
 62
     0
 10
77.80214366133356
 20
523.99616162257701
 30
0.0
 11
76.338565098027175
 21
522.53258305927045
 31
0.0
  0
LINE
  5
A95
  8
0
 62
     0
 10
78.400505060406488
 20
522.82675606868361
 30
0.0
 11
77.901615641572647
 21
522.32786664984974
 31
0.0
  0
LINE
  5
A96
  8
0
 62
     0
 10
79.766633412445771
 20
522.42511746775642
 30
0.0
 11
79.305067402988101
 21
521.96355145829875
 31
0.0
  0
LINE
  5
A97
  8
0
 62
     0
 10
80.541069549990851
 20
521.43178665233518
 30
0.0
 11
80.538304306738553
 21
521.42902140908291
 31
0.0
  0
LINE
  5
A98
  8
0
 62
     0
 10
77.80214366133356
 20
525.65054470521511
 30
0.0
 11
77.120292515665824
 21
526.3323958508829
 31
0.0
  0
LINE
  5
A99
  8
0
 62
     0
 10
77.802143661333616
 20
523.88277775224856
 30
0.0
 11
75.756507499314353
 21
525.92841391426794
 31
0.0
  0
LINE
  5
A9A
  8
0
 62
     0
 10
79.991375546742688
 20
521.6935458668396
 30
0.0
 11
79.259803945825794
 21
522.42511746775654
 31
0.0
  0
LINE
  5
A9B
  8
0
 62
     0
 10
77.523226964965431
 20
522.39392749565059
 30
0.0
 11
74.251390899037744
 21
525.66576356157805
 31
0.0
  0
LINE
  5
A9C
  8
0
 62
     0
 10
75.581322118489027
 20
522.56806538916055
 30
0.0
 11
72.563154457551491
 21
525.58623305009803
 31
0.0
  0
LINE
  5
A9D
  8
0
 62
     0
 10
73.883201533317603
 20
522.49841902136563
 30
0.0
 11
70.607675101970131
 21
525.77394545271295
 31
0.0
  0
LINE
  5
A9E
  8
0
 62
     0
 10
72.356954230223153
 20
522.25689937149366
 30
0.0
 11
68.156311849301233
 21
526.45754175241564
 31
0.0
  0
LINE
  5
A9F
  8
0
 62
     0
 10
70.995911492206119
 20
521.85017515654431
 30
0.0
 11
67.805981338926927
 21
525.0401053098235
 31
0.0
  0
LINE
  5
AA0
  8
0
 62
     0
 10
69.80144317764757
 20
521.27687651813653
 30
0.0
 11
67.805981338926983
 21
523.27233835685695
 31
0.0
  0
LINE
  5
AA1
  8
0
 62
     0
 10
68.806449960713735
 20
520.50410278210404
 30
0.0
 11
67.805981338926927
 21
521.50457140389085
 31
0.0
  0
LINE
  5
AA2
  8
0
 62
     0
 10
68.0565218629676
 20
519.48626392688379
 30
0.0
 11
67.805981338926927
 21
519.73680445092441
 31
0.0
  0
ENDBLK
  5
AA4
  8
0
  0
BLOCK
  8
0
  2
*U69
 70
     1
 10
0.0
 20
0.0
 30
0.0
  3
*U69
  1

  0
SOLID
  5
EB4
  8
SAPA_FOGBAND
  6
CONTINUOUS
 62
     2
 10
137.04099943331209
 20
524.96589596149761
 30
0.0
 11
136.86072186953891
 21
524.89122254959125
 31
0.0
 12
137.22127699708531
 22
524.89122254959125
 32
0.0
 13
137.22127699708531
 23
524.89122254959125
 33
0.0
210
0.0
220
0.0
230
1.0
  0
SOLID
  5
EB5
  8
SAPA_FOGBAND
  6
CONTINUOUS
 62
     2
 10
136.86072186953891
 20
524.89122254959125
 30
0.0
 11
136.78604845763249
 21
524.71094498581795
 31
0.0
 12
137.29595040899181
 22
524.71094498581795
 32
0.0
 13
137.29595040899181
 23
524.71094498581795
 33
0.0
210
0.0
220
0.0
230
1.0
  0
SOLID
  5
EB6
  8
SAPA_FOGBAND
  6
CONTINUOUS
 62
     2
 10
-136.86072186953891
 20
524.89122254959125
 30
0.0
 11
-137.22127699708531
 21
524.89122254959125
 31
0.0
 12
-137.29595040899181
 22
524.71094498581795
 32
0.0
 13
-137.29595040899181
 23
524.71094498581795
 33
0.0
210
0.0
220
0.0
230
-1.0
  0
SOLID
  5
EB7
  8
SAPA_FOGBAND
  6
CONTINUOUS
 62
     2
 10
-136.86072186953891
 20
524.53066742204476
 30
0.0
 11
-137.22127699708531
 21
524.53066742204476
 31
0.0
 12
-137.04099943331209
 22
524.4559940101384
 32
0.0
 13
-137.04099943331209
 23
524.4559940101384
 33
0.0
210
0.0
220
0.0
230
-1.0
  0
SOLID
  5
EB8
  8
SAPA_FOGBAND
  6
CONTINUOUS
 62
     2
 10
136.78604845763249
 20
524.71094498581795
 30
0.0
 11
136.86072186953891
 21
524.53066742204476
 31
0.0
 12
137.22127699708531
 22
524.53066742204476
 32
0.0
 13
137.22127699708531
 23
524.53066742204476
 33
0.0
210
0.0
220
0.0
230
1.0
  0
SOLID
  5
EB9
  8
SAPA_FOGBAND
  6
CONTINUOUS
 62
     2
 10
-136.78604845763249
 20
524.71094498581795
 30
0.0
 11
-137.29595040899181
 21
524.71094498581795
 31
0.0
 12
-137.22127699708531
 22
524.53066742204476
 32
0.0
 13
-137.22127699708531
 23
524.53066742204476
 33
0.0
210
0.0
220
0.0
230
-1.0
  0
LINE
  5
EBA
  8
SAPA_FOGBAND
  6
CONTINUOUS
 62
     2
 10
137.04099943331209
 20
524.96589596149761
 30
0.0
 11
136.86072186953891
 21
524.89122254959125
 31
0.0
  0
LINE
  5
EBB
  8
SAPA_FOGBAND
  6
CONTINUOUS
 62
     2
 10
137.22127699708531
 20
524.89122254959125
 30
0.0
 11
137.04099943331209
 21
524.96589596149761
 31
0.0
  0
LINE
  5
EBC
  8
SAPA_FOGBAND
  6
CONTINUOUS
 62
     2
 10
136.86072186953891
 20
524.89122254959125
 30
0.0
 11
136.78604845763249
 21
524.71094498581795
 31
0.0
  0
LINE
  5
EBD
  8
SAPA_FOGBAND
  6
CONTINUOUS
 62
     2
 10
137.22127699708531
 20
524.89122254959125
 30
0.0
 11
137.29595040899181
 21
524.71094498581795
 31
0.0
  0
LINE
  5
EBE
  8
SAPA_FOGBAND
  6
CONTINUOUS
 62
     2
 10
137.22127699708531
 20
524.53066742204476
 30
0.0
 11
137.04099943331209
 21
524.4559940101384
 31
0.0
  0
LINE
  5
EBF
  8
SAPA_FOGBAND
  6
CONTINUOUS
 62
     2
 10
137.04099943331209
 20
524.4559940101384
 30
0.0
 11
136.86072186953891
 21
524.53066742204476
 31
0.0
  0
LINE
  5
EC0
  8
SAPA_FOGBAND
  6
CONTINUOUS
 62
     2
 10
136.78604845763249
 20
524.71094498581795
 30
0.0
 11
136.86072186953891
 21
524.53066742204476
 31
0.0
  0
LINE
  5
EC1
  8
SAPA_FOGBAND
  6
CONTINUOUS
 62
     2
 10
137.29595040899181
 20
524.71094498581795
 30
0.0
 11
137.22127699708531
 21
524.53066742204476
 31
0.0
  0
ENDBLK
  5
EC3
  8
0
  0
BLOCK
  8
0
  2
*U70
 70
     1
 10
0.0
 20
0.0
 30
0.0
  3
*U70
  1

  0
SOLID
  5
EEE
  8
SAPA_FOGBAND
  6
CONTINUOUS
 62
     2
 10
137.61895078426679
 20
478.74291478871152
 30
0.0
 11
137.4386732204936
 21
478.66824137680499
 31
0.0
 12
137.79922834804
 22
478.66824137680499
 32
0.0
 13
137.79922834804
 23
478.66824137680499
 33
0.0
210
0.0
220
0.0
230
1.0
  0
SOLID
  5
EEF
  8
SAPA_FOGBAND
  6
CONTINUOUS
 62
     2
 10
137.4386732204936
 20
478.66824137680499
 30
0.0
 11
137.36399980858721
 21
478.4879638130318
 31
0.0
 12
137.87390175994639
 22
478.4879638130318
 32
0.0
 13
137.87390175994639
 23
478.4879638130318
 33
0.0
210
0.0
220
0.0
230
1.0
  0
SOLID
  5
EF0
  8
SAPA_FOGBAND
  6
CONTINUOUS
 62
     2
 10
-137.4386732204936
 20
478.66824137680499
 30
0.0
 11
-137.79922834804
 21
478.66824137680499
 31
0.0
 12
-137.87390175994639
 22
478.4879638130318
 32
0.0
 13
-137.87390175994639
 23
478.4879638130318
 33
0.0
210
0.0
220
0.0
230
-1.0
  0
SOLID
  5
EF1
  8
SAPA_FOGBAND
  6
CONTINUOUS
 62
     2
 10
-137.4386732204936
 20
478.30768624925872
 30
0.0
 11
-137.79922834804
 21
478.30768624925872
 31
0.0
 12
-137.61895078426679
 22
478.23301283735219
 32
0.0
 13
-137.61895078426679
 23
478.23301283735219
 33
0.0
210
0.0
220
0.0
230
-1.0
  0
SOLID
  5
EF2
  8
SAPA_FOGBAND
  6
CONTINUOUS
 62
     2
 10
137.36399980858721
 20
478.4879638130318
 30
0.0
 11
137.4386732204936
 21
478.30768624925872
 31
0.0
 12
137.79922834804
 22
478.30768624925872
 32
0.0
 13
137.79922834804
 23
478.30768624925872
 33
0.0
210
0.0
220
0.0
230
1.0
  0
SOLID
  5
EF3
  8
SAPA_FOGBAND
  6
CONTINUOUS
 62
     2
 10
-137.36399980858721
 20
478.4879638130318
 30
0.0
 11
-137.87390175994639
 21
478.4879638130318
 31
0.0
 12
-137.79922834804
 22
478.30768624925872
 32
0.0
 13
-137.79922834804
 23
478.30768624925872
 33
0.0
210
0.0
220
0.0
230
-1.0
  0
LINE
  5
EF4
  8
SAPA_FOGBAND
  6
CONTINUOUS
 62
     2
 10
137.61895078426679
 20
478.74291478871152
 30
0.0
 11
137.4386732204936
 21
478.66824137680499
 31
0.0
  0
LINE
  5
EF5
  8
SAPA_FOGBAND
  6
CONTINUOUS
 62
     2
 10
137.79922834804
 20
478.66824137680499
 30
0.0
 11
137.61895078426679
 21
478.74291478871152
 31
0.0
  0
LINE
  5
EF6
  8
SAPA_FOGBAND
  6
CONTINUOUS
 62
     2
 10
137.4386732204936
 20
478.66824137680499
 30
0.0
 11
137.36399980858721
 21
478.4879638130318
 31
0.0
  0
LINE
  5
EF7
  8
SAPA_FOGBAND
  6
CONTINUOUS
 62
     2
 10
137.79922834804
 20
478.66824137680499
 30
0.0
 11
137.87390175994639
 21
478.4879638130318
 31
0.0
  0
LINE
  5
EF8
  8
SAPA_FOGBAND
  6
CONTINUOUS
 62
     2
 10
137.79922834804
 20
478.30768624925872
 30
0.0
 11
137.61895078426679
 21
478.23301283735219
 31
0.0
  0
LINE
  5
EF9
  8
SAPA_FOGBAND
  6
CONTINUOUS
 62
     2
 10
137.61895078426679
 20
478.23301283735219
 30
0.0
 11
137.4386732204936
 21
478.30768624925872
 31
0.0
  0
LINE
  5
EFA
  8
SAPA_FOGBAND
  6
CONTINUOUS
 62
     2
 10
137.36399980858721
 20
478.4879638130318
 30
0.0
 11
137.4386732204936
 21
478.30768624925872
 31
0.0
  0
LINE
  5
EFB
  8
SAPA_FOGBAND
  6
CONTINUOUS
 62
     2
 10
137.87390175994639
 20
478.4879638130318
 30
0.0
 11
137.79922834804
 21
478.30768624925872
 31
0.0
  0
ENDBLK
  5
EFD
  8
0
  0
BLOCK
  8
0
  2
*U71
 70
     1
 10
0.0
 20
0.0
 30
0.0
  3
*U71
  1

  0
SOLID
  5
F83
  8
SAPA_FOGBAND
  6
CONTINUOUS
 62
     2
 10
137.04099943331209
 20
524.96589596149761
 30
0.0
 11
136.86072186953891
 21
524.89122254959125
 31
0.0
 12
137.22127699708531
 22
524.89122254959125
 32
0.0
 13
137.22127699708531
 23
524.89122254959125
 33
0.0
210
0.0
220
0.0
230
1.0
  0
SOLID
  5
F84
  8
SAPA_FOGBAND
  6
CONTINUOUS
 62
     2
 10
136.86072186953891
 20
524.89122254959125
 30
0.0
 11
136.78604845763249
 21
524.71094498581795
 31
0.0
 12
137.29595040899181
 22
524.71094498581795
 32
0.0
 13
137.29595040899181
 23
524.71094498581795
 33
0.0
210
0.0
220
0.0
230
1.0
  0
SOLID
  5
F85
  8
SAPA_FOGBAND
  6
CONTINUOUS
 62
     2
 10
-136.86072186953891
 20
524.89122254959125
 30
0.0
 11
-137.22127699708531
 21
524.89122254959125
 31
0.0
 12
-137.29595040899181
 22
524.71094498581795
 32
0.0
 13
-137.29595040899181
 23
524.71094498581795
 33
0.0
210
0.0
220
0.0
230
-1.0
  0
SOLID
  5
F86
  8
SAPA_FOGBAND
  6
CONTINUOUS
 62
     2
 10
-136.86072186953891
 20
524.53066742204476
 30
0.0
 11
-137.22127699708531
 21
524.53066742204476
 31
0.0
 12
-137.04099943331209
 22
524.4559940101384
 32
0.0
 13
-137.04099943331209
 23
524.4559940101384
 33
0.0
210
0.0
220
0.0
230
-1.0
  0
SOLID
  5
F87
  8
SAPA_FOGBAND
  6
CONTINUOUS
 62
     2
 10
136.78604845763249
 20
524.71094498581795
 30
0.0
 11
136.86072186953891
 21
524.53066742204476
 31
0.0
 12
137.22127699708531
 22
524.53066742204476
 32
0.0
 13
137.22127699708531
 23
524.53066742204476
 33
0.0
210
0.0
220
0.0
230
1.0
  0
SOLID
  5
F88
  8
SAPA_FOGBAND
  6
CONTINUOUS
 62
     2
 10
-136.78604845763249
 20
524.71094498581795
 30
0.0
 11
-137.29595040899181
 21
524.71094498581795
 31
0.0
 12
-137.22127699708531
 22
524.53066742204476
 32
0.0
 13
-137.22127699708531
 23
524.53066742204476
 33
0.0
210
0.0
220
0.0
230
-1.0
  0
LINE
  5
F89
  8
SAPA_FOGBAND
  6
CONTINUOUS
 62
     2
 10
137.04099943331209
 20
524.96589596149761
 30
0.0
 11
136.86072186953891
 21
524.89122254959125
 31
0.0
  0
LINE
  5
F8A
  8
SAPA_FOGBAND
  6
CONTINUOUS
 62
     2
 10
137.22127699708531
 20
524.89122254959125
 30
0.0
 11
137.04099943331209
 21
524.96589596149761
 31
0.0
  0
LINE
  5
F8B
  8
SAPA_FOGBAND
  6
CONTINUOUS
 62
     2
 10
136.86072186953891
 20
524.89122254959125
 30
0.0
 11
136.78604845763249
 21
524.71094498581795
 31
0.0
  0
LINE
  5
F8C
  8
SAPA_FOGBAND
  6
CONTINUOUS
 62
     2
 10
137.22127699708531
 20
524.89122254959125
 30
0.0
 11
137.29595040899181
 21
524.71094498581795
 31
0.0
  0
LINE
  5
F8D
  8
SAPA_FOGBAND
  6
CONTINUOUS
 62
     2
 10
137.22127699708531
 20
524.53066742204476
 30
0.0
 11
137.04099943331209
 21
524.4559940101384
 31
0.0
  0
LINE
  5
F8E
  8
SAPA_FOGBAND
  6
CONTINUOUS
 62
     2
 10
137.04099943331209
 20
524.4559940101384
 30
0.0
 11
136.86072186953891
 21
524.53066742204476
 31
0.0
  0
LINE
  5
F8F
  8
SAPA_FOGBAND
  6
CONTINUOUS
 62
     2
 10
136.78604845763249
 20
524.71094498581795
 30
0.0
 11
136.86072186953891
 21
524.53066742204476
 31
0.0
  0
LINE
  5
F90
  8
SAPA_FOGBAND
  6
CONTINUOUS
 62
     2
 10
137.29595040899181
 20
524.71094498581795
 30
0.0
 11
137.22127699708531
 21
524.53066742204476
 31
0.0
  0
ENDBLK
  5
F92
  8
0
  0
BLOCK
  8
0
  2
*U72
 70
     1
 10
0.0
 20
0.0
 30
0.0
  3
*U72
  1

  0
SOLID
  5
FBD
  8
SAPA_FOGBAND
  6
CONTINUOUS
 62
     2
 10
137.61895078426679
 20
478.74291478871152
 30
0.0
 11
137.4386732204936
 21
478.66824137680499
 31
0.0
 12
137.79922834804
 22
478.66824137680499
 32
0.0
 13
137.79922834804
 23
478.66824137680499
 33
0.0
210
0.0
220
0.0
230
1.0
  0
SOLID
  5
FBE
  8
SAPA_FOGBAND
  6
CONTINUOUS
 62
     2
 10
137.4386732204936
 20
478.66824137680499
 30
0.0
 11
137.36399980858721
 21
478.4879638130318
 31
0.0
 12
137.87390175994639
 22
478.4879638130318
 32
0.0
 13
137.87390175994639
 23
478.4879638130318
 33
0.0
210
0.0
220
0.0
230
1.0
  0
SOLID
  5
FBF
  8
SAPA_FOGBAND
  6
CONTINUOUS
 62
     2
 10
-137.4386732204936
 20
478.66824137680499
 30
0.0
 11
-137.79922834804
 21
478.66824137680499
 31
0.0
 12
-137.87390175994639
 22
478.4879638130318
 32
0.0
 13
-137.87390175994639
 23
478.4879638130318
 33
0.0
210
0.0
220
0.0
230
-1.0
  0
SOLID
  5
FC0
  8
SAPA_FOGBAND
  6
CONTINUOUS
 62
     2
 10
-137.4386732204936
 20
478.30768624925872
 30
0.0
 11
-137.79922834804
 21
478.30768624925872
 31
0.0
 12
-137.61895078426679
 22
478.23301283735219
 32
0.0
 13
-137.61895078426679
 23
478.23301283735219
 33
0.0
210
0.0
220
0.0
230
-1.0
  0
SOLID
  5
FC1
  8
SAPA_FOGBAND
  6
CONTINUOUS
 62
     2
 10
137.36399980858721
 20
478.4879638130318
 30
0.0
 11
137.4386732204936
 21
478.30768624925872
 31
0.0
 12
137.79922834804
 22
478.30768624925872
 32
0.0
 13
137.79922834804
 23
478.30768624925872
 33
0.0
210
0.0
220
0.0
230
1.0
  0
SOLID
  5
FC2
  8
SAPA_FOGBAND
  6
CONTINUOUS
 62
     2
 10
-137.36399980858721
 20
478.4879638130318
 30
0.0
 11
-137.87390175994639
 21
478.4879638130318
 31
0.0
 12
-137.79922834804
 22
478.30768624925872
 32
0.0
 13
-137.79922834804
 23
478.30768624925872
 33
0.0
210
0.0
220
0.0
230
-1.0
  0
LINE
  5
FC3
  8
SAPA_FOGBAND
  6
CONTINUOUS
 62
     2
 10
137.61895078426679
 20
478.74291478871152
 30
0.0
 11
137.4386732204936
 21
478.66824137680499
 31
0.0
  0
LINE
  5
FC4
  8
SAPA_FOGBAND
  6
CONTINUOUS
 62
     2
 10
137.79922834804
 20
478.66824137680499
 30
0.0
 11
137.61895078426679
 21
478.74291478871152
 31
0.0
  0
LINE
  5
FC5
  8
SAPA_FOGBAND
  6
CONTINUOUS
 62
     2
 10
137.4386732204936
 20
478.66824137680499
 30
0.0
 11
137.36399980858721
 21
478.4879638130318
 31
0.0
  0
LINE
  5
FC6
  8
SAPA_FOGBAND
  6
CONTINUOUS
 62
     2
 10
137.79922834804
 20
478.66824137680499
 30
0.0
 11
137.87390175994639
 21
478.4879638130318
 31
0.0
  0
LINE
  5
FC7
  8
SAPA_FOGBAND
  6
CONTINUOUS
 62
     2
 10
137.79922834804
 20
478.30768624925872
 30
0.0
 11
137.61895078426679
 21
478.23301283735219
 31
0.0
  0
LINE
  5
FC8
  8
SAPA_FOGBAND
  6
CONTINUOUS
 62
     2
 10
137.61895078426679
 20
478.23301283735219
 30
0.0
 11
137.4386732204936
 21
478.30768624925872
 31
0.0
  0
LINE
  5
FC9
  8
SAPA_FOGBAND
  6
CONTINUOUS
 62
     2
 10
137.36399980858721
 20
478.4879638130318
 30
0.0
 11
137.4386732204936
 21
478.30768624925872
 31
0.0
  0
LINE
  5
FCA
  8
SAPA_FOGBAND
  6
CONTINUOUS
 62
     2
 10
137.87390175994639
 20
478.4879638130318
 30
0.0
 11
137.79922834804
 21
478.30768624925872
 31
0.0
  0
ENDBLK
  5
FCC
  8
0
  0
BLOCK
  8
0
  2
*U73
 70
     1
 10
0.0
 20
0.0
 30
0.0
  3
*U73
  1

  0
TEXT
  5
102E
  8
SAPA_MATT
 62
     2
 10
209.45446417828131
 20
452.6002952755905
 30
0.0
 40
3.0
  1
120
  7
ISO
  0
ENDBLK
  5
1030
  8
0
  0
BLOCK
  8
0
  2
*U74
 70
     1
 10
0.0
 20
0.0
 30
0.0
  3
*U74
  1

  0
TEXT
  5
1032
  8
SAPA_MATT
 62
     2
 10
135.2044641782812
 20
452.60000000000002
 30
0.0
 40
3.0
  1
30
  7
ISO
  0
ENDBLK
  5
1034
  8
0
  0
BLOCK
  8
0
  2
*U75
 70
     1
 10
0.0
 20
0.0
 30
0.0
  3
*U75
  1

  0
TEXT
  5
1036
  8
SAPA_MATT
 62
     2
 10
97.493513246287407
 20
452.60000000000002
 30
0.0
 40
3.0
  1
45
  7
ISO
  0
ENDBLK
  5
1038
  8
0
  0
BLOCK
  8
0
  2
*U76
 70
     1
 10
0.0
 20
0.0
 30
0.0
  3
*U76
  1

  0
TEXT
  5
103A
  8
SAPA_MATT
 62
     2
 10
171.87827175054619
 20
440.60000000000002
 30
0.0
 40
3.0
  1
195
  7
ISO
  0
ENDBLK
  5
103C
  8
0
  0
BLOCK
  8
0
  2
*U77
 70
     1
 10
0.0
 20
0.0
 30
0.0
  3
*U77
  1

  0
TEXT
  5
103E
  8
SAPA_MATT
 62
     2
 10
44.308774314771568
 20
499.58858267716528
 30
0.0
 40
3.0
  1
60
 50
90.0
  7
ISO
  0
ENDBLK
  5
1040
  8
0
  0
BLOCK
  8
0
  2
*U78
 70
     1
 10
0.0
 20
0.0
 30
0.0
  3
*U78
  1

  0
TEXT
  5
1042
  8
SAPA_MATT
 62
     2
 10
56.309288549683039
 20
499.49881889763788
 30
0.0
 40
3.0
  1
50
 50
90.0
  7
ISO
  0
ENDBLK
  5
1044
  8
0
  0
ENDSEC
  0
SECTION
  2
ENTITIES
  0
TEXT
  5
5F
  8
SAPA_ARTIKELNR
 10
192.14709578530579
 20
533.81590732372695
 30
0.0
 40
3.5
  1
68057
  7
ISO
  0
TEXT
  5
61
  8
SAPA_ARTIKELNR
 10
131.88491319433311
 20
533.79411672074525
 30
0.0
 40
3.5
  1
42138
  7
ISO
  0
TEXT
  5
63
  8
SAPA_ARTIKELNR
 10
93.286603838596022
 20
528.62974381411721
 30
0.0
 40
3.5
  1
68005
  7
ISO
  0
TEXT
  5
64
  8
SAPA_ARTIKELNR
 10
130.9477436278188
 20
465.67669180040912
 30
0.0
 40
3.5
  1
42138
  7
ISO
  0
INSERT
  5
75
  8
SAPA_ANSLUTNING
  6
CONTINUOUS
  2
*X67
 10
0.0
 20
0.0
 30
0.0
1001
ACAD
1000
HATCH
1002
{
1070
    19
1000
HEX
1040
7.0
1040
1.5707963267948959
1000
ASC_BOUNDS
1070
     2
1070
     1
1070
     1
1005
7A
1070
     1
1070
     1
1005
78
1000
ASC_SEEDPOINT
1011
72.032786007998823
1021
0.0
1031
0.0
1021
482.1139688625284
1031
0.0
1000
R14_HATCH_DATA
1000
75
1011
1.0
1021
0.0
1031
0.0
1021
0.0
1031
0.0
1011
0.0
1021
0.0
1031
0.0
1021
1.0
1031
0.0
1011
0.0
1021
0.0
1031
0.0
1021
0.0
1031
1.0
1040
0.0
1010
0.0
1020
0.0
1030
1.0
1000
HEX
1070
     0
1070
     1
1071
        2
1071
        7
1070
     1
1070
     1
1071
        9
1040
68.305645280643546
1040
476.60000000000008
1040
0.0
1040
77.305645280643546
1040
476.60000000000008
1040
0.0
1040
77.305645280643546
1040
479.74983992565791
1040
0.0
1040
78.680047063908276
1040
480.90309995508471
1040
0.0
1040
80.130944119954918
1040
480.90309995508483
1040
0.0
1040
80.130944119954904
1040
479.47479227301352
1040
0.9923779948562645
1040
82.305645280643546
1040
479.48336076179919
1040
0.0
1040
82.305645280643546
1040
486.60000000000002
1040
0.0
1040
68.305645280643546
1040
486.60000000000002
1040
0.0
1071
        1
1005
78
1071
        7
1070
     1
1070
     1
1071
       16
1040
72.314642668672803
1040
522.24771697366373
1040
0.0677080186897924
1040
70.063578919478076
1040
521.42483883964258
1040
0.1053277233168658
1040
68.355972073168061
1040
519.99947686279313
1040
0.1678920096872563
1040
67.892549151961987
1040
518.65825733931774
1040
0.1678920096872223
1040
68.355972073167877
1040
517.3170378158427
1040
0.1053277233169615
1040
70.063578919479625
1040
515.89167583899223
1040
0.0677080186896931
1040
72.314642668671155
1040
515.06879770497255
1040
0.0538647880861885
1040
75.304908428534233
1040
514.7457202601471
1040
0.0538647880861933
1040
78.295174188397738
1040
515.06879770497255
1040
0.0677080186896594
1040
80.546237937588231
1040
515.89167583899166
1040
0.1053277233169984
1040
82.253844783900519
1040
517.31703781584292
1040
0.167892009687214
1040
82.717267705106394
1040
518.65825733931774
1040
0.1678920096872546
1040
82.253844783900362
1040
519.99947686279313
1040
0.1053277233168768
1040
80.546237937590035
1040
521.42483883964258
1040
0.0677080186897827
1040
78.295174188395663
1040
522.24771697366373
1040
0.0538647880861527
1040
75.304908428534233
1040
522.57079441848839
1040
0.053864788086153
1071
        1
1005
7A
1070
     0
1070
     1
1040
1.5707963267948959
1040
7.0
1070
     0
1070
     3
1040
1.5707963267948959
1040
615.14660542794547
1040
396.66024907383422
1040
-1.5155444570000001
1040
0.0000000000000001
1070
     2
1040
0.875
1040
-1.75
1040
3.6651914291880909
1040
615.14660542794547
1040
396.66024907383422
1040
0.7577722284999996
1040
-1.312500000326692
1070
     2
1040
0.8749999999999998
1040
-1.7499999999999989
1040
2.6179938779914931
1040
615.14660542794547
1040
397.53524907383422
1040
-0.7577722285000004
1040
-1.312500000326692
1070
     2
1040
0.875
1040
-1.75
1040
0.1004818818266199
1071
        2
1040
72.032786007998823
1040
482.1139688625284
1040
0.0
1040
73.439532886178029
1040
520.31571573877125
1040
0.0
1002
}
  0
POLYLINE
  5
78
  8
SAPA_ANSLUTNING
 66
     1
 10
0.0
 20
0.0
 30
0.0
 70
     1
1001
ACAD
1000
ASC_BOUNDS
1002
{
1070
    19
1005
75
1002
}
  0
VERTEX
  5
A81
  8
SAPA_ANSLUTNING
 10
80.130944119954904
 20
479.5
 30
0.0
  0
VERTEX
  5
A82
  8
SAPA_ANSLUTNING
 10
80.130944119954904
 20
480.90309995508483
 30
0.0
  0
VERTEX
  5
A83
  8
SAPA_ANSLUTNING
 10
78.680047063908262
 20
480.90309995508483
 30
0.0
  0
VERTEX
  5
A84
  8
SAPA_ANSLUTNING
 10
77.305645280643546
 20
479.7498399256578
 30
0.0
  0
VERTEX
  5
A85
  8
SAPA_ANSLUTNING
 10
77.305645280643546
 20
476.60000000000008
 30
0.0
  0
VERTEX
  5
A86
  8
SAPA_ANSLUTNING
 10
68.305645280643546
 20
476.60000000000008
 30
0.0
  0
VERTEX
  5
A87
  8
SAPA_ANSLUTNING
 10
68.305645280643546
 20
486.60000000000008
 30
0.0
  0
VERTEX
  5
A88
  8
SAPA_ANSLUTNING
 10
82.305645280643546
 20
486.60000000000008
 30
0.0
  0
VERTEX
  5
A89
  8
SAPA_ANSLUTNING
 10
82.305645280643546
 20
479.48336076179919
 30
0.0
 42
-1.0039478385010081
  0
SEQEND
  5
A8A
  8
SAPA_ANSLUTNING
  0
INSERT
  5
79
  8
SAPA_ANSLUTNING
  6
CONTINUOUS
  2
*X68
 10
0.0
 20
0.0
 30
0.0
1001
ACAD
1000
HATCH
1002
{
1070
    19
1000
ANSI37
1040
10.0
1040
1.5707963267948959
1000
R14_HATCH_DATA
1000
79
1011
1.0
1021
0.0
1031
0.0
1021
0.0
1031
0.0
1011
0.0
1021
0.0
1031
0.0
1021
1.0
1031
0.0
1011
0.0
1021
0.0
1031
0.0
1021
0.0
1031
1.0
1040
0.0
1010
0.0
1020
0.0
1030
1.0
1000
ANSI37
1070
     0
1070
     0
1071
        1
1071
        7
1070
     1
1070
     1
1071
       14
1040
67.80598133892687
1040
526.60000000000025
1040
0.0
1040
67.80598133892687
1040
518.65825733931774
1040
0.0
1040
67.892549151961987
1040
518.65825733931774
1040
-0.1678920096872382
1040
68.355972073167933
1040
519.99947686279302
1040
-0.1053277233169209
1040
70.063578919478971
1040
521.42483883964314
1040
-0.06770801868971
1040
72.314642668670956
1040
522.24771697366327
1040
-0.053864788086187
1040
75.304908428534233
1040
522.57079441848839
1040
-0.0538647880861851
1040
78.295174188397425
1040
522.24771697366327
1040
-0.0677080186897096
1040
80.546237937589396
1040
521.42483883964314
1040
0.0
1040
79.80214366133356
1040
522.42511746775642
1040
0.0
1040
78.80214366133356
1040
522.42511746775642
1040
0.0
1040
77.80214366133356
1040
523.42511746775654
1040
0.0
1040
77.80214366133356
1040
526.42511746775688
1040
0.0
1040
77.805645280643773
1040
526.60000000000059
1040
-0.2032199431463407
1071
        0
1070
     0
1070
     1
1040
1.5707963267948959
1040
10.0
1070
     0
1070
     2
1040
2.3561944901923439
1040
615.14660542794547
1040
396.66024907383422
1040
-0.8838834764831844
1040
-0.8838834764831842
1070
     0
1040
3.926990816987241
1040
615.14660542794547
1040
396.66024907383422
1040
0.8838834764831842
1040
-0.8838834764831844
1070
     0
1040
0.0390651268545045
1071
        1
1040
71.063727969076055
1040
524.23272856032588
1040
0.0
1002
}
  0
POLYLINE
  5
7A
  8
SAPA_ANSLUTNING
 66
     1
 10
0.0
 20
0.0
 30
0.0
 70
     1
1001
ACAD
1000
ASC_BOUNDS
1002
{
1070
    19
1005
75
1002
}
  0
VERTEX
  5
AA5
  8
SAPA_ANSLUTNING
 10
75.304908428534233
 20
514.7457202601471
 30
0.0
 42
-0.0538647880861898
  0
VERTEX
  5
AA6
  8
SAPA_ANSLUTNING
 10
72.314642668671056
 20
515.06879770497244
 30
0.0
 42
-0.0677080186897121
  0
VERTEX
  5
AA7
  8
SAPA_ANSLUTNING
 10
70.063578919478971
 20
515.89167583899246
 30
0.0
 42
-0.1053277233169234
  0
VERTEX
  5
AA8
  8
SAPA_ANSLUTNING
 10
68.355972073167933
 20
517.3170378158427
 30
0.0
 42
-0.1678920096872386
  0
VERTEX
  5
AA9
  8
SAPA_ANSLUTNING
 10
67.892549151961987
 20
518.65825733931774
 30
0.0
 42
-0.1678920096872382
  0
VERTEX
  5
AAA
  8
SAPA_ANSLUTNING
 10
68.355972073167933
 20
519.99947686279302
 30
0.0
 42
-0.1053277233169209
  0
VERTEX
  5
AAB
  8
SAPA_ANSLUTNING
 10
70.063578919478971
 20
521.42483883964314
 30
0.0
 42
-0.06770801868971
  0
VERTEX
  5
AAC
  8
SAPA_ANSLUTNING
 10
72.314642668670956
 20
522.24771697366327
 30
0.0
 42
-0.053864788086187
  0
VERTEX
  5
AAD
  8
SAPA_ANSLUTNING
 10
75.304908428534233
 20
522.57079441848839
 30
0.0
 42
-0.0538647880861851
  0
VERTEX
  5
AAE
  8
SAPA_ANSLUTNING
 10
78.295174188397425
 20
522.24771697366327
 30
0.0
 42
-0.0677080186897099
  0
VERTEX
  5
AAF
  8
SAPA_ANSLUTNING
 10
80.546237937589396
 20
521.42483883964314
 30
0.0
 42
-0.1053277233169203
  0
VERTEX
  5
AB0
  8
SAPA_ANSLUTNING
 10
82.253844783900433
 20
519.99947686279302
 30
0.0
 42
-0.1678920096872382
  0
VERTEX
  5
AB1
  8
SAPA_ANSLUTNING
 10
82.717267705106394
 20
518.65825733931774
 30
0.0
 42
-0.167892009687245
  0
VERTEX
  5
AB2
  8
SAPA_ANSLUTNING
 10
82.253844783900433
 20
517.3170378158427
 30
0.0
 42
-0.1053277233169226
  0
VERTEX
  5
AB3
  8
SAPA_ANSLUTNING
 10
80.546237937589396
 20
515.89167583899246
 30
0.0
 42
-0.0677080186897082
  0
VERTEX
  5
AB4
  8
SAPA_ANSLUTNING
 10
78.295174188397425
 20
515.06879770497244
 30
0.0
 42
-0.0538647880861872
  0
SEQEND
  5
AB5
  8
SAPA_ANSLUTNING
  0
ARC
  5
7B
  8
SAPA_ANSLUTNING
 10
72.805813309785151
 20
538.39349602580705
 30
0.0
 40
12.809561594665579
 50
247.0255689067402
 51
292.97443109325991
  0
POLYLINE
  5
7C
  8
SAPA_ANSLUTNING
 66
     1
 10
0.0
 20
0.0
 30
0.0
  0
VERTEX
  5
AB6
  8
SAPA_ANSLUTNING
 10
80.315768020295138
 20
487.53884404354829
 30
0.0
 42
1.0
  0
VERTEX
  5
AB7
  8
SAPA_ANSLUTNING
 10
80.315768020295138
 20
491.53884404354829
 30
0.0
  0
VERTEX
  5
AB8
  8
SAPA_ANSLUTNING
 10
69.859157573846403
 20
491.53884404354812
 30
0.0
 42
-0.9999989466455052
  0
VERTEX
  5
AB9
  8
SAPA_ANSLUTNING
 10
69.859153360426205
 20
495.5388440435438
 30
0.0
  0
VERTEX
  5
ABA
  8
SAPA_ANSLUTNING
 10
75.859154288013713
 20
495.5388440435438
 30
0.0
 42
1.0
  0
VERTEX
  5
ABB
  8
SAPA_ANSLUTNING
 10
75.859154288013713
 20
499.5388440435438
 30
0.0
  0
VERTEX
  5
ABC
  8
SAPA_ANSLUTNING
 10
69.859150728647975
 20
499.53884404354358
 30
0.0
 42
-0.9999974985601644
  0
VERTEX
  5
ABD
  8
SAPA_ANSLUTNING
 10
69.859150728647975
 20
503.53884404353113
 30
0.0
  0
VERTEX
  5
ABE
  8
SAPA_ANSLUTNING
 10
75.859154288013713
 20
503.53884404353101
 30
0.0
 42
1.0
  0
VERTEX
  5
ABF
  8
SAPA_ANSLUTNING
 10
75.859154288013713
 20
507.53884404353113
 30
0.0
  0
VERTEX
  5
AC0
  8
SAPA_ANSLUTNING
 10
69.859153360426205
 20
507.53884404353101
 30
0.0
 42
-0.9999989466455052
  0
VERTEX
  5
AC1
  8
SAPA_ANSLUTNING
 10
69.859157573846403
 20
511.53884404352669
 30
0.0
  0
VERTEX
  5
AC2
  8
SAPA_ANSLUTNING
 10
80.315768020295138
 20
511.53884404352652
 30
0.0
 42
1.0
  0
VERTEX
  5
AC3
  8
SAPA_ANSLUTNING
 10
80.315768020295138
 20
515.53884404352652
 30
0.0
  0
SEQEND
  5
AC4
  8
SAPA_ANSLUTNING
  0
LINE
  5
7D
  8
SAPA_ANSLUTNING
 10
67.80598133892687
 20
542.35682640955918
 30
0.0
 11
67.80598133892687
 21
460.32256342665778
 31
0.0
  0
LINE
  5
7E
  8
SAPA_LIGHT
 10
67.80598133892687
 20
542.35682640955918
 30
0.0
 11
67.80598133892687
 21
460.32256342665778
 31
0.0
  0
POLYLINE
  5
80
  8
SAPA_LIGHT
 66
     1
 10
0.0
 20
0.0
 30
0.0
 70
     1
  0
VERTEX
  5
AC5
  8
SAPA_LIGHT
 10
77.305645280643475
 20
476.60000000000008
 30
0.0
  0
VERTEX
  5
AC6
  8
SAPA_LIGHT
 10
77.305645280643475
 20
526.60000000000014
 30
0.0
  0
VERTEX
  5
AC7
  8
SAPA_LIGHT
 10
131.30564528064329
 20
526.60000000000014
 30
0.0
  0
VERTEX
  5
AC8
  8
SAPA_LIGHT
 10
131.30564528064329
 20
476.60000000000008
 30
0.0
  0
SEQEND
  5
AC9
  8
SAPA_LIGHT
  0
POLYLINE
  5
81
  8
SAPA_LIGHT
 66
     1
 10
0.0
 20
0.0
 30
0.0
  0
VERTEX
  5
ACA
  8
SAPA_LIGHT
 10
272.30564528064582
 20
485.50000000000023
 30
0.0
  0
VERTEX
  5
ACB
  8
SAPA_LIGHT
 10
272.30564528064349
 20
471.60000000000002
 30
0.0
  0
VERTEX
  5
ACC
  8
SAPA_LIGHT
 10
143.28686425208821
 20
471.60000000000002
 30
0.0
  0
VERTEX
  5
ACD
  8
SAPA_LIGHT
 10
143.28686425208821
 20
531.60000000000002
 30
0.0
  0
VERTEX
  5
ACE
  8
SAPA_LIGHT
 10
272.30564528064571
 20
531.60000000000002
 30
0.0
  0
VERTEX
  5
ACF
  8
SAPA_LIGHT
 10
272.30564528064582
 20
491.50000000000023
 30
0.0
  0
SEQEND
  5
AD0
  8
SAPA_LIGHT
  0
POLYLINE
  5
82
  8
SAPA_LIGHT
 66
     1
 10
0.0
 20
0.0
 30
0.0
  0
VERTEX
  5
AD1
  8
SAPA_LIGHT
 10
288.5056452806478
 20
485.50000000000023
 30
0.0
  0
VERTEX
  5
AD2
  8
SAPA_LIGHT
 10
255.30564528064789
 20
485.50000000000023
 30
0.0
  0
VERTEX
  5
AD3
  8
SAPA_LIGHT
 10
255.30564528064789
 20
491.50000000000023
 30
0.0
  0
VERTEX
  5
AD4
  8
SAPA_LIGHT
 10
288.5056452806478
 20
491.50000000000023
 30
0.0
  0
VERTEX
  5
AD5
  8
SAPA_LIGHT
 10
288.5056452806478
 20
485.50000000000023
 30
0.0
  0
SEQEND
  5
AD6
  8
SAPA_LIGHT
  0
POLYLINE
  5
900
  8
SAPA_PROFIL
 66
     1
 10
0.0
 20
0.0
 30
0.0
  0
VERTEX
  5
CBB
  8
SAPA_PROFIL
 10
253.18438220219991
 20
510.77844481936648
 30
0.0
  0
VERTEX
  5
CBC
  8
SAPA_PROFIL
 10
270.3056452806502
 20
510.09740488550818
 30
0.0
 42
0.4142135623730951
  0
VERTEX
  5
CBD
  8
SAPA_PROFIL
 10
270.8056452806502
 20
510.59740488550818
 30
0.0
  0
VERTEX
  5
CBE
  8
SAPA_PROFIL
 10
270.8056452806502
 20
522.3970183685168
 30
0.0
 42
0.4076767287637263
  0
VERTEX
  5
CBF
  8
SAPA_PROFIL
 10
267.87274892983322
 20
525.39626820090655
 30
0.0
  0
VERTEX
  5
CC0
  8
SAPA_PROFIL
 10
253.18438220219991
 20
525.55070742301723
 30
0.0
 42
0.4182129759575463
  0
VERTEX
  5
CC1
  8
SAPA_PROFIL
 10
252.6732210901443
 20
525.05519570215995
 30
0.0
  0
VERTEX
  5
CC2
  8
SAPA_PROFIL
 10
252.66039348861861
 20
522.58054794604072
 30
0.0
  0
VERTEX
  5
CC3
  8
SAPA_PROFIL
 10
251.00570489099479
 20
520.95448998984705
 30
0.0
  0
VERTEX
  5
CC4
  8
SAPA_PROFIL
 10
246.4566288567066
 20
520.95448998984705
 30
0.0
 42
-0.4293387945586749
  0
VERTEX
  5
CC5
  8
SAPA_PROFIL
 10
246.15990233562209
 20
521.27260112583645
 30
0.0
  0
VERTEX
  5
CC6
  8
SAPA_PROFIL
 10
246.23254201174981
 20
522.35405685110698
 30
0.0
 42
-0.4883397947196161
  0
VERTEX
  5
CC7
  8
SAPA_PROFIL
 10
247.79426383775819
 20
522.13343391690876
 30
0.0
  0
VERTEX
  5
CC8
  8
SAPA_PROFIL
 10
250.4933451137926
 20
522.13343391690876
 30
0.0
  0
VERTEX
  5
CC9
  8
SAPA_PROFIL
 10
251.46477676016869
 20
523.0880571371066
 30
0.0
  0
VERTEX
  5
CCA
  8
SAPA_PROFIL
 10
251.46477676016869
 20
525.58718327999156
 30
0.0
  0
VERTEX
  5
CCB
  8
SAPA_PROFIL
 10
250.99100109365381
 20
525.58718327999156
 30
0.0
  0
VERTEX
  5
CCC
  8
SAPA_PROFIL
 10
250.99100109365381
 20
527.09999999999991
 30
0.0
  0
VERTEX
  5
CCD
  8
SAPA_PROFIL
 10
272.00828598734228
 20
527.10000000000014
 30
0.0
 42
-0.4116378201539302
  0
VERTEX
  5
CCE
  8
SAPA_PROFIL
 10
272.30564528065008
 20
526.80001152232978
 30
0.0
  0
VERTEX
  5
CCF
  8
SAPA_PROFIL
 10
272.3056452806502
 20
498.39740488550819
 30
0.0
 42
-0.414213562373095
  0
VERTEX
  5
CD0
  8
SAPA_PROFIL
 10
272.00564528065019
 20
498.09740488550813
 30
0.0
  0
VERTEX
  5
CD1
  8
SAPA_PROFIL
 10
270.79564528065021
 20
498.09740488550818
 30
0.0
 42
-0.4142135623731037
  0
VERTEX
  5
CD2
  8
SAPA_PROFIL
 10
269.8056452806502
 20
499.08740488550819
 30
0.0
  0
VERTEX
  5
CD3
  8
SAPA_PROFIL
 10
269.8056452806502
 20
499.09740488550818
 30
0.0
  0
VERTEX
  5
CD4
  8
SAPA_PROFIL
 10
271.0556452806502
 20
499.09740488550818
 30
0.0
  0
VERTEX
  5
CD5
  8
SAPA_PROFIL
 10
271.0556452806502
 20
500.59740488550818
 30
0.0
 42
0.4142135623730951
  0
VERTEX
  5
CD6
  8
SAPA_PROFIL
 10
270.5556452806502
 20
501.09740488550818
 30
0.0
  0
VERTEX
  5
CD7
  8
SAPA_PROFIL
 10
262.5556452806502
 20
501.09740488550818
 30
0.0
 42
0.4142135623730951
  0
VERTEX
  5
CD8
  8
SAPA_PROFIL
 10
262.0556452806502
 20
500.59740488550818
 30
0.0
  0
VERTEX
  5
CD9
  8
SAPA_PROFIL
 10
262.0556452806502
 20
499.09740488550818
 30
0.0
  0
VERTEX
  5
CDA
  8
SAPA_PROFIL
 10
263.3056452806502
 20
499.09740488550818
 30
0.0
  0
VERTEX
  5
CDB
  8
SAPA_PROFIL
 10
263.3056452806502
 20
499.08740488550819
 30
0.0
 42
-0.414213562373095
  0
VERTEX
  5
CDC
  8
SAPA_PROFIL
 10
262.31564528065019
 20
498.09740488550813
 30
0.0
  0
VERTEX
  5
CDD
  8
SAPA_PROFIL
 10
261.8056452806502
 20
498.09740488550818
 30
0.0
 42
-0.4142135623730953
  0
VERTEX
  5
CDE
  8
SAPA_PROFIL
 10
260.8056452806502
 20
499.09740488550818
 30
0.0
  0
VERTEX
  5
CDF
  8
SAPA_PROFIL
 10
260.8056452806502
 20
500.59740488550818
 30
0.0
 42
-0.4142135623730951
  0
VERTEX
  5
CE0
  8
SAPA_PROFIL
 10
262.50564528065019
 20
502.29740488550817
 30
0.0
  0
VERTEX
  5
CE1
  8
SAPA_PROFIL
 10
270.3056452806502
 20
502.29740488550829
 30
0.0
 42
0.414213562373095
  0
VERTEX
  5
CE2
  8
SAPA_PROFIL
 10
270.8056452806502
 20
502.79740488550829
 30
0.0
  0
VERTEX
  5
CE3
  8
SAPA_PROFIL
 10
270.8056452806502
 20
508.29740488550817
 30
0.0
 42
0.4142135623730951
  0
VERTEX
  5
CE4
  8
SAPA_PROFIL
 10
270.3056452806502
 20
508.79740488550817
 30
0.0
  0
VERTEX
  5
CE5
  8
SAPA_PROFIL
 10
253.18438220219991
 20
509.46861453197448
 30
0.0
  0
VERTEX
  5
CE6
  8
SAPA_PROFIL
 10
247.78143543845019
 20
510.12555298270388
 30
0.0
 42
0.4666505291506209
  0
VERTEX
  5
CE7
  8
SAPA_PROFIL
 10
247.50163387253139
 20
509.86372145165927
 30
0.0
  0
VERTEX
  5
CE8
  8
SAPA_PROFIL
 10
247.54117676644969
 20
509.14106535810038
 30
0.0
 42
-0.7332303362618522
  0
VERTEX
  5
CE9
  8
SAPA_PROFIL
 10
247.00510074379741
 20
508.9408907695302
 30
0.0
  0
VERTEX
  5
CEA
  8
SAPA_PROFIL
 10
246.23419062629301
 20
511.0509981090679
 30
0.0
 42
-0.668178637919333
  0
VERTEX
  5
CEB
  8
SAPA_PROFIL
 10
246.50735682148729
 20
511.53334596115872
 30
0.0
  0
VERTEX
  5
CEC
  8
SAPA_PROFIL
 10
253.18438220219991
 20
510.77844481936648
 30
0.0
  0
VERTEX
  5
CED
  8
SAPA_PROFIL
 10
253.18438220219991
 20
510.7879782715296
 30
0.0
  0
SEQEND
  5
CEE
  8
SAPA_PROFIL
  0
LINE
  5
901
  8
SAPA_PROFIL
 10
263.0056452806474
 20
480.6000000000048
 30
0.0
 11
263.0056452806474
 21
480.6000000000048
 31
0.0
  0
POLYLINE
  5
902
  8
SAPA_PROFIL
 66
     1
 10
0.0
 20
0.0
 30
0.0
 70
     1
  0
VERTEX
  5
CEF
  8
SAPA_PROFIL
 10
247.00564528064351
 20
499.59999999999991
 30
0.0
 42
0.4142135623730951
  0
VERTEX
  5
CF0
  8
SAPA_PROFIL
 10
247.30564528064349
 20
499.89999999999981
 30
0.0
  0
VERTEX
  5
CF1
  8
SAPA_PROFIL
 10
247.30564528064349
 20
500.73397459621481
 30
0.0
  0
VERTEX
  5
CF2
  8
SAPA_PROFIL
 10
247.80564528064349
 20
501.59999999999991
 30
0.0
  0
VERTEX
  5
CF3
  8
SAPA_PROFIL
 10
247.30564528064349
 20
502.46602540378382
 30
0.0
  0
VERTEX
  5
CF4
  8
SAPA_PROFIL
 10
247.30564528064349
 20
503.2999999999999
 30
0.0
 42
0.4142135623730951
  0
VERTEX
  5
CF5
  8
SAPA_PROFIL
 10
247.00564528064351
 20
503.59999999999991
 30
0.0
  0
VERTEX
  5
CF6
  8
SAPA_PROFIL
 10
243.30564528064349
 20
503.59999999999991
 30
0.0
  0
VERTEX
  5
CF7
  8
SAPA_PROFIL
 10
242.30564528064349
 20
504.59999999999991
 30
0.0
  0
VERTEX
  5
CF8
  8
SAPA_PROFIL
 10
242.30564528064349
 20
518.69999999999982
 30
0.0
 42
0.4142135623730951
  0
VERTEX
  5
CF9
  8
SAPA_PROFIL
 10
242.00564528064339
 20
518.99999999999977
 30
0.0
  0
VERTEX
  5
CFA
  8
SAPA_PROFIL
 10
238.6056452806435
 20
518.99999999999977
 30
0.0
 42
-0.4142135623730951
  0
VERTEX
  5
CFB
  8
SAPA_PROFIL
 10
238.30564528064349
 20
519.29999999999995
 30
0.0
  0
VERTEX
  5
CFC
  8
SAPA_PROFIL
 10
238.30564528064349
 20
520.89999999999975
 30
0.0
 42
-0.4142135623730951
  0
VERTEX
  5
CFD
  8
SAPA_PROFIL
 10
238.6056452806435
 20
521.1999999999997
 30
0.0
  0
VERTEX
  5
CFE
  8
SAPA_PROFIL
 10
242.00564528064339
 20
521.1999999999997
 30
0.0
 42
0.4142135623730951
  0
VERTEX
  5
CFF
  8
SAPA_PROFIL
 10
242.30564528064349
 20
521.49999999999977
 30
0.0
  0
VERTEX
  5
D00
  8
SAPA_PROFIL
 10
242.30564528064349
 20
528.29999999999995
 30
0.0
 42
0.4142135623730951
  0
VERTEX
  5
D01
  8
SAPA_PROFIL
 10
242.00564528064339
 20
528.59999999999991
 30
0.0
  0
VERTEX
  5
D02
  8
SAPA_PROFIL
 10
165.80564528064349
 20
528.59999999999991
 30
0.0
 42
0.4142135623730951
  0
VERTEX
  5
D03
  8
SAPA_PROFIL
 10
165.50564528064339
 20
528.29999999999995
 30
0.0
  0
VERTEX
  5
D04
  8
SAPA_PROFIL
 10
165.50564528064339
 20
521.49999999999977
 30
0.0
 42
0.4142135623730951
  0
VERTEX
  5
D05
  8
SAPA_PROFIL
 10
165.80564528064349
 20
521.1999999999997
 30
0.0
  0
VERTEX
  5
D06
  8
SAPA_PROFIL
 10
169.20564528064349
 20
521.1999999999997
 30
0.0
 42
-0.4142135623730951
  0
VERTEX
  5
D07
  8
SAPA_PROFIL
 10
169.50564528064339
 20
520.89999999999975
 30
0.0
  0
VERTEX
  5
D08
  8
SAPA_PROFIL
 10
169.50564528064351
 20
519.29999999999995
 30
0.0
 42
-0.4142135623730951
  0
VERTEX
  5
D09
  8
SAPA_PROFIL
 10
169.20564528064349
 20
518.99999999999977
 30
0.0
  0
VERTEX
  5
D0A
  8
SAPA_PROFIL
 10
164.60564528064339
 20
518.99999999999977
 30
0.0
 42
0.4142135623730951
  0
VERTEX
  5
D0B
  8
SAPA_PROFIL
 10
164.30564528064349
 20
518.69999999999982
 30
0.0
  0
VERTEX
  5
D0C
  8
SAPA_PROFIL
 10
164.30564528064349
 20
484.49999999999977
 30
0.0
 42
0.4142135623730951
  0
VERTEX
  5
D0D
  8
SAPA_PROFIL
 10
164.60564528064339
 20
484.1999999999997
 30
0.0
  0
VERTEX
  5
D0E
  8
SAPA_PROFIL
 10
169.20564528064349
 20
484.1999999999997
 30
0.0
 42
-0.4142135623730951
  0
VERTEX
  5
D0F
  8
SAPA_PROFIL
 10
169.50564528064351
 20
483.89999999999981
 30
0.0
  0
VERTEX
  5
D10
  8
SAPA_PROFIL
 10
169.50564528064339
 20
482.2999999999999
 30
0.0
 42
-0.4142135623730951
  0
VERTEX
  5
D11
  8
SAPA_PROFIL
 10
169.20564528064349
 20
481.99999999999989
 30
0.0
  0
VERTEX
  5
D12
  8
SAPA_PROFIL
 10
165.80564528064349
 20
481.99999999999989
 30
0.0
 42
0.4142135623730951
  0
VERTEX
  5
D13
  8
SAPA_PROFIL
 10
165.50564528064339
 20
481.69999999999982
 30
0.0
  0
VERTEX
  5
D14
  8
SAPA_PROFIL
 10
165.50564528064339
 20
474.89999999999981
 30
0.0
 42
0.4142135623730951
  0
VERTEX
  5
D15
  8
SAPA_PROFIL
 10
165.80564528064349
 20
474.59999999999991
 30
0.0
  0
VERTEX
  5
D16
  8
SAPA_PROFIL
 10
242.80564528064349
 20
474.59999999999991
 30
0.0
  0
VERTEX
  5
D17
  8
SAPA_PROFIL
 10
246.21777731499949
 20
478.01213203435589
 30
0.0
 42
0.1989123673797207
  0
VERTEX
  5
D18
  8
SAPA_PROFIL
 10
246.30564528064349
 20
478.22426406871182
 30
0.0
  0
VERTEX
  5
D19
  8
SAPA_PROFIL
 10
246.30564528064349
 20
481.69999999999982
 30
0.0
 42
0.4142135623730951
  0
VERTEX
  5
D1A
  8
SAPA_PROFIL
 10
246.00564528064339
 20
481.99999999999989
 30
0.0
  0
VERTEX
  5
D1B
  8
SAPA_PROFIL
 10
238.6056452806435
 20
481.99999999999989
 30
0.0
 42
-0.4142135623730951
  0
VERTEX
  5
D1C
  8
SAPA_PROFIL
 10
238.30564528064349
 20
482.2999999999999
 30
0.0
  0
VERTEX
  5
D1D
  8
SAPA_PROFIL
 10
238.30564528064349
 20
483.89999999999981
 30
0.0
 42
-0.4142135623730951
  0
VERTEX
  5
D1E
  8
SAPA_PROFIL
 10
238.6056452806435
 20
484.1999999999997
 30
0.0
  0
VERTEX
  5
D1F
  8
SAPA_PROFIL
 10
247.00564528064351
 20
484.1999999999997
 30
0.0
 42
0.4142135623730951
  0
VERTEX
  5
D20
  8
SAPA_PROFIL
 10
247.30564528064349
 20
484.49999999999977
 30
0.0
  0
VERTEX
  5
D21
  8
SAPA_PROFIL
 10
247.30564528064349
 20
497.2999999999999
 30
0.0
 42
0.4142135623730951
  0
VERTEX
  5
D22
  8
SAPA_PROFIL
 10
247.00564528064351
 20
497.59999999999991
 30
0.0
  0
VERTEX
  5
D23
  8
SAPA_PROFIL
 10
243.00564528064351
 20
497.59999999999991
 30
0.0
 42
-0.6681786379192989
  0
VERTEX
  5
D24
  8
SAPA_PROFIL
 10
242.6520918900502
 20
498.45355339059319
 30
0.0
  0
VERTEX
  5
D25
  8
SAPA_PROFIL
 10
243.79853849945641
 20
499.59999999999991
 30
0.0
  0
SEQEND
  5
D26
  8
SAPA_PROFIL
  0
POLYLINE
  5
903
  8
SAPA_PROFIL
 66
     1
 10
0.0
 20
0.0
 30
0.0
 70
     1
  0
VERTEX
  5
D27
  8
SAPA_PROFIL
 10
157.5482859677625
 20
471.59999999999991
 30
0.0
 42
-0.1989123673796595
  0
VERTEX
  5
D28
  8
SAPA_PROFIL
 10
155.42696562420281
 20
472.47867965644019
 30
0.0
  0
VERTEX
  5
D29
  8
SAPA_PROFIL
 10
152.5985384994564
 20
475.30710678118578
 30
0.0
 42
-0.1989123673796811
  0
VERTEX
  5
D2A
  8
SAPA_PROFIL
 10
152.30564528064349
 20
476.0142135623729
 30
0.0
  0
VERTEX
  5
D2B
  8
SAPA_PROFIL
 10
152.30564528064301
 20
478.39999999999981
 30
0.0
 42
-0.2504916501726618
  0
VERTEX
  5
D2C
  8
SAPA_PROFIL
 10
153.30564528064349
 20
479.39999999999992
 30
0.0
  0
VERTEX
  5
D2D
  8
SAPA_PROFIL
 10
154.00564528064339
 20
479.40000000000009
 30
0.0
 42
-0.4142135623730951
  0
VERTEX
  5
D2E
  8
SAPA_PROFIL
 10
154.30564528064349
 20
479.10000000000002
 30
0.0
  0
VERTEX
  5
D2F
  8
SAPA_PROFIL
 10
154.30564528064349
 20
478.64999999999998
 30
0.0
 42
0.4142135623730951
  0
VERTEX
  5
D30
  8
SAPA_PROFIL
 10
154.60564528064339
 20
478.35000000000002
 30
0.0
  0
VERTEX
  5
D31
  8
SAPA_PROFIL
 10
155.3056452806434
 20
478.35000000000002
 30
0.0
 42
0.4142135623731506
  0
VERTEX
  5
D32
  8
SAPA_PROFIL
 10
155.60564528064339
 20
478.64999999999998
 30
0.0
  0
VERTEX
  5
D33
  8
SAPA_PROFIL
 10
155.60564528064339
 20
479.10000000000002
 30
0.0
 42
-0.4142135623731506
  0
VERTEX
  5
D34
  8
SAPA_PROFIL
 10
155.9056452806434
 20
479.39999999999992
 30
0.0
  0
VERTEX
  5
D35
  8
SAPA_PROFIL
 10
156.4056452806434
 20
479.40000000000009
 30
0.0
 42
-0.4142135623730951
  0
VERTEX
  5
D36
  8
SAPA_PROFIL
 10
156.9056452806434
 20
478.89999999999998
 30
0.0
  0
VERTEX
  5
D37
  8
SAPA_PROFIL
 10
156.9056452806434
 20
477.50000000000011
 30
0.0
 42
0.4142135623730951
  0
VERTEX
  5
D38
  8
SAPA_PROFIL
 10
157.9056452806434
 20
476.50000000000011
 30
0.0
  0
VERTEX
  5
D39
  8
SAPA_PROFIL
 10
158.30564528064349
 20
476.49999999999989
 30
0.0
 42
0.9999999999999998
  0
VERTEX
  5
D3A
  8
SAPA_PROFIL
 10
158.30564528064349
 20
483.69999999999999
 30
0.0
  0
VERTEX
  5
D3B
  8
SAPA_PROFIL
 10
157.20564528064341
 20
483.70000000000022
 30
0.0
 42
0.4142135623732059
  0
VERTEX
  5
D3C
  8
SAPA_PROFIL
 10
156.90564528064331
 20
483.40000000000009
 30
0.0
  0
VERTEX
  5
D3D
  8
SAPA_PROFIL
 10
156.90564528064351
 20
483.10000000000008
 30
0.0
 42
-0.4142135623733948
  0
VERTEX
  5
D3E
  8
SAPA_PROFIL
 10
156.4056452806434
 20
482.59999999999991
 30
0.0
  0
VERTEX
  5
D3F
  8
SAPA_PROFIL
 10
155.9056452806434
 20
482.59999999999991
 30
0.0
 42
-0.4142135623730397
  0
VERTEX
  5
D40
  8
SAPA_PROFIL
 10
155.60564528064339
 20
482.89999999999981
 30
0.0
  0
VERTEX
  5
D41
  8
SAPA_PROFIL
 10
155.60564528064339
 20
483.34999999999991
 30
0.0
 42
0.4142135623731505
  0
VERTEX
  5
D42
  8
SAPA_PROFIL
 10
155.3056452806434
 20
483.64999999999998
 30
0.0
  0
VERTEX
  5
D43
  8
SAPA_PROFIL
 10
154.60564528064339
 20
483.64999999999998
 30
0.0
 42
0.4142135623730951
  0
VERTEX
  5
D44
  8
SAPA_PROFIL
 10
154.30564528064349
 20
483.34999999999991
 30
0.0
  0
VERTEX
  5
D45
  8
SAPA_PROFIL
 10
154.30564528064349
 20
482.89999999999981
 30
0.0
 42
-0.4142135623730951
  0
VERTEX
  5
D46
  8
SAPA_PROFIL
 10
154.00564528064339
 20
482.59999999999991
 30
0.0
  0
VERTEX
  5
D47
  8
SAPA_PROFIL
 10
153.30564528064301
 20
482.60000000000042
 30
0.0
 42
-0.2504916501726643
  0
VERTEX
  5
D48
  8
SAPA_PROFIL
 10
152.30564528064301
 20
483.59999999999928
 30
0.0
  0
VERTEX
  5
D49
  8
SAPA_PROFIL
 10
152.30564528064349
 20
485.89999999999992
 30
0.0
 42
-0.4142135623730951
  0
VERTEX
  5
D4A
  8
SAPA_PROFIL
 10
153.30564528064349
 20
486.89999999999981
 30
0.0
  0
VERTEX
  5
D4B
  8
SAPA_PROFIL
 10
161.00564528064339
 20
486.89999999999981
 30
0.0
 42
0.4142135623730951
  0
VERTEX
  5
D4C
  8
SAPA_PROFIL
 10
161.30564528064349
 20
487.19999999999982
 30
0.0
  0
VERTEX
  5
D4D
  8
SAPA_PROFIL
 10
161.30564528064349
 20
500.73397459621481
 30
0.0
  0
VERTEX
  5
D4E
  8
SAPA_PROFIL
 10
161.80564528064349
 20
501.59999999999991
 30
0.0
  0
VERTEX
  5
D4F
  8
SAPA_PROFIL
 10
161.30564528064349
 20
502.46602540378382
 30
0.0
  0
VERTEX
  5
D50
  8
SAPA_PROFIL
 10
161.30564528064349
 20
515.99999999999989
 30
0.0
 42
0.4142135623730951
  0
VERTEX
  5
D51
  8
SAPA_PROFIL
 10
161.00564528064339
 20
516.29999999999995
 30
0.0
  0
VERTEX
  5
D52
  8
SAPA_PROFIL
 10
153.30564528064349
 20
516.29999999999995
 30
0.0
 42
-0.4142135623730951
  0
VERTEX
  5
D53
  8
SAPA_PROFIL
 10
152.30564528064349
 20
517.29999999999995
 30
0.0
  0
VERTEX
  5
D54
  8
SAPA_PROFIL
 10
152.30564528064349
 20
519.5999999999998
 30
0.0
 42
-0.2504916501726643
  0
VERTEX
  5
D55
  8
SAPA_PROFIL
 10
153.30564528064301
 20
520.59999999999945
 30
0.0
  0
VERTEX
  5
D56
  8
SAPA_PROFIL
 10
154.00564528064339
 20
520.59999999999991
 30
0.0
 42
-0.4142135623730951
  0
VERTEX
  5
D57
  8
SAPA_PROFIL
 10
154.30564528064349
 20
520.29999999999995
 30
0.0
  0
VERTEX
  5
D58
  8
SAPA_PROFIL
 10
154.30564528064349
 20
519.8499999999998
 30
0.0
 42
0.4142135623730951
  0
VERTEX
  5
D59
  8
SAPA_PROFIL
 10
154.60564528064339
 20
519.54999999999973
 30
0.0
  0
VERTEX
  5
D5A
  8
SAPA_PROFIL
 10
155.3056452806434
 20
519.54999999999984
 30
0.0
 42
0.4142135623731506
  0
VERTEX
  5
D5B
  8
SAPA_PROFIL
 10
155.60564528064339
 20
519.8499999999998
 30
0.0
  0
VERTEX
  5
D5C
  8
SAPA_PROFIL
 10
155.60564528064339
 20
520.29999999999995
 30
0.0
 42
-0.4142135623730397
  0
VERTEX
  5
D5D
  8
SAPA_PROFIL
 10
155.9056452806434
 20
520.59999999999991
 30
0.0
  0
VERTEX
  5
D5E
  8
SAPA_PROFIL
 10
156.4056452806434
 20
520.59999999999991
 30
0.0
 42
-0.4142135623733948
  0
VERTEX
  5
D5F
  8
SAPA_PROFIL
 10
156.90564528064351
 20
520.09999999999957
 30
0.0
  0
VERTEX
  5
D60
  8
SAPA_PROFIL
 10
156.90564528064331
 20
519.79999999999973
 30
0.0
 42
0.4142135623732059
  0
VERTEX
  5
D61
  8
SAPA_PROFIL
 10
157.20564528064341
 20
519.49999999999955
 30
0.0
  0
VERTEX
  5
D62
  8
SAPA_PROFIL
 10
158.30564528064349
 20
519.49999999999966
 30
0.0
 42
0.9999999999999998
  0
VERTEX
  5
D63
  8
SAPA_PROFIL
 10
158.30564528064349
 20
526.69999999999982
 30
0.0
  0
VERTEX
  5
D64
  8
SAPA_PROFIL
 10
157.9056452806434
 20
526.69999999999959
 30
0.0
 42
0.4142135623730951
  0
VERTEX
  5
D65
  8
SAPA_PROFIL
 10
156.9056452806434
 20
525.6999999999997
 30
0.0
  0
VERTEX
  5
D66
  8
SAPA_PROFIL
 10
156.9056452806434
 20
524.29999999999973
 30
0.0
 42
-0.4142135623730951
  0
VERTEX
  5
D67
  8
SAPA_PROFIL
 10
156.4056452806434
 20
523.79999999999973
 30
0.0
  0
VERTEX
  5
D68
  8
SAPA_PROFIL
 10
155.9056452806434
 20
523.79999999999984
 30
0.0
 42
-0.4142135623731506
  0
VERTEX
  5
D69
  8
SAPA_PROFIL
 10
155.60564528064339
 20
524.09999999999968
 30
0.0
  0
VERTEX
  5
D6A
  8
SAPA_PROFIL
 10
155.60564528064339
 20
524.54999999999984
 30
0.0
 42
0.4142135623731505
  0
VERTEX
  5
D6B
  8
SAPA_PROFIL
 10
155.3056452806434
 20
524.8499999999998
 30
0.0
  0
VERTEX
  5
D6C
  8
SAPA_PROFIL
 10
154.60564528064339
 20
524.8499999999998
 30
0.0
 42
0.4142135623730951
  0
VERTEX
  5
D6D
  8
SAPA_PROFIL
 10
154.30564528064349
 20
524.54999999999984
 30
0.0
  0
VERTEX
  5
D6E
  8
SAPA_PROFIL
 10
154.30564528064349
 20
524.09999999999968
 30
0.0
 42
-0.4142135623730951
  0
VERTEX
  5
D6F
  8
SAPA_PROFIL
 10
154.00564528064339
 20
523.79999999999973
 30
0.0
  0
VERTEX
  5
D70
  8
SAPA_PROFIL
 10
153.30564528064349
 20
523.79999999999984
 30
0.0
 42
-0.2504916501726621
  0
VERTEX
  5
D71
  8
SAPA_PROFIL
 10
152.30564528064301
 20
524.80000000000007
 30
0.0
  0
VERTEX
  5
D72
  8
SAPA_PROFIL
 10
152.30564528064349
 20
527.1857864376268
 30
0.0
 42
-0.1989123673796728
  0
VERTEX
  5
D73
  8
SAPA_PROFIL
 10
152.59853849945679
 20
527.89289321881336
 30
0.0
  0
VERTEX
  5
D74
  8
SAPA_PROFIL
 10
155.42696562420349
 20
530.72132034355889
 30
0.0
 42
-0.1989123673796584
  0
VERTEX
  5
D75
  8
SAPA_PROFIL
 10
157.5482859677625
 20
531.5999999999998
 30
0.0
  0
VERTEX
  5
D76
  8
SAPA_PROFIL
 10
164.30031239182429
 20
531.5999999999998
 30
0.0
  0
VERTEX
  5
D77
  8
SAPA_PROFIL
 10
245.06300459352349
 20
531.5999999999998
 30
0.0
 42
-0.1989123673796596
  0
VERTEX
  5
D78
  8
SAPA_PROFIL
 10
247.18432493708349
 20
530.72132034355889
 30
0.0
  0
VERTEX
  5
D79
  8
SAPA_PROFIL
 10
250.0127520618301
 20
527.89289321881347
 30
0.0
 42
-0.1989123673796371
  0
VERTEX
  5
D7A
  8
SAPA_PROFIL
 10
250.30564528064349
 20
527.18578643762692
 30
0.0
  0
VERTEX
  5
D7B
  8
SAPA_PROFIL
 10
250.30564528064349
 20
524.0999999999998
 30
0.0
  0
VERTEX
  5
D7C
  8
SAPA_PROFIL
 10
249.30564528064349
 20
523.0999999999998
 30
0.0
  0
VERTEX
  5
D7D
  8
SAPA_PROFIL
 10
248.6056452806435
 20
523.0999999999998
 30
0.0
 42
-0.4142135623730951
  0
VERTEX
  5
D7E
  8
SAPA_PROFIL
 10
248.30564528064349
 20
523.39999999999986
 30
0.0
  0
VERTEX
  5
D7F
  8
SAPA_PROFIL
 10
248.30564528064349
 20
525.14999999999986
 30
0.0
 42
0.4142135623730951
  0
VERTEX
  5
D80
  8
SAPA_PROFIL
 10
248.00564528064339
 20
525.44999999999982
 30
0.0
  0
VERTEX
  5
D81
  8
SAPA_PROFIL
 10
245.55564528064349
 20
525.44999999999982
 30
0.0
 42
0.4142135623730951
  0
VERTEX
  5
D82
  8
SAPA_PROFIL
 10
245.25564528064339
 20
525.14999999999986
 30
0.0
  0
VERTEX
  5
D83
  8
SAPA_PROFIL
 10
245.25564528064339
 20
507.05000000000001
 30
0.0
 42
0.4142135623730951
  0
VERTEX
  5
D84
  8
SAPA_PROFIL
 10
245.55564528064349
 20
506.74999999999989
 30
0.0
  0
VERTEX
  5
D85
  8
SAPA_PROFIL
 10
248.00564528064339
 20
506.74999999999989
 30
0.0
 42
0.4142135623730951
  0
VERTEX
  5
D86
  8
SAPA_PROFIL
 10
248.30564528064349
 20
507.05000000000001
 30
0.0
  0
VERTEX
  5
D87
  8
SAPA_PROFIL
 10
248.30564528064349
 20
508.80000000000001
 30
0.0
 42
-0.4142135623730951
  0
VERTEX
  5
D88
  8
SAPA_PROFIL
 10
248.6056452806435
 20
509.09999999999991
 30
0.0
  0
VERTEX
  5
D89
  8
SAPA_PROFIL
 10
249.30564528064349
 20
509.09999999999991
 30
0.0
  0
VERTEX
  5
D8A
  8
SAPA_PROFIL
 10
250.30564528064349
 20
508.09999999999991
 30
0.0
  0
VERTEX
  5
D8B
  8
SAPA_PROFIL
 10
250.30564528064349
 20
502.46602540378382
 30
0.0
  0
VERTEX
  5
D8C
  8
SAPA_PROFIL
 10
249.80564528064349
 20
501.59999999999991
 30
0.0
  0
VERTEX
  5
D8D
  8
SAPA_PROFIL
 10
250.30564528064349
 20
500.73397459621481
 30
0.0
  0
VERTEX
  5
D8E
  8
SAPA_PROFIL
 10
250.30564528064349
 20
481.5999999999998
 30
0.0
 42
0.4142135623730951
  0
VERTEX
  5
D8F
  8
SAPA_PROFIL
 10
251.30564528064349
 20
480.59999999999991
 30
0.0
  0
VERTEX
  5
D90
  8
SAPA_PROFIL
 10
260.54073421657552
 20
480.59999999999991
 30
0.0
 42
0.3475404855922902
  0
VERTEX
  5
D91
  8
SAPA_PROFIL
 10
260.83263676982182
 20
480.83076923076908
 30
0.0
 42
-0.347540485592353
  0
VERTEX
  5
D92
  8
SAPA_PROFIL
 10
261.80564528064349
 20
481.5999999999998
 30
0.0
  0
VERTEX
  5
D93
  8
SAPA_PROFIL
 10
262.37318974860551
 20
481.5999999999998
 30
0.0
 42
-0.2896898633048417
  0
VERTEX
  5
D94
  8
SAPA_PROFIL
 10
263.27669765151393
 20
481.02857142856442
 30
0.0
 42
-0.5507604245820768
  0
VERTEX
  5
D95
  8
SAPA_PROFIL
 10
263.0056452806474
 20
480.6000000000048
 30
0.0
  0
VERTEX
  5
D96
  8
SAPA_PROFIL
 10
262.3556452806414
 20
480.60000000000082
 30
0.0
 42
0.4142135623714856
  0
VERTEX
  5
D97
  8
SAPA_PROFIL
 10
262.05564528064349
 20
480.30000000000081
 30
0.0
  0
VERTEX
  5
D98
  8
SAPA_PROFIL
 10
262.05564528064349
 20
478.89999999999981
 30
0.0
 42
0.4142135623730951
  0
VERTEX
  5
D99
  8
SAPA_PROFIL
 10
262.35564528064339
 20
478.59999999999991
 30
0.0
  0
VERTEX
  5
D9A
  8
SAPA_PROFIL
 10
270.75564528064342
 20
478.59999999999991
 30
0.0
 42
0.4142135623730951
  0
VERTEX
  5
D9B
  8
SAPA_PROFIL
 10
271.05564528064338
 20
478.89999999999981
 30
0.0
  0
VERTEX
  5
D9C
  8
SAPA_PROFIL
 10
271.05564528064349
 20
480.2999999999999
 30
0.0
 42
0.4142135623730951
  0
VERTEX
  5
D9D
  8
SAPA_PROFIL
 10
270.75564528064342
 20
480.59999999999991
 30
0.0
  0
VERTEX
  5
D9E
  8
SAPA_PROFIL
 10
270.10564528064339
 20
480.60000000000082
 30
0.0
  0
VERTEX
  5
D9F
  8
SAPA_PROFIL
 10
270.10564528063941
 20
480.59999999999991
 30
0.0
 42
-0.5507604245871307
  0
VERTEX
  5
DA0
  8
SAPA_PROFIL
 10
269.8345929097722
 20
481.028571428573
 30
0.0
 42
-0.2896898633034174
  0
VERTEX
  5
DA1
  8
SAPA_PROFIL
 10
270.73810081268141
 20
481.5999999999998
 30
0.0
  0
VERTEX
  5
DA2
  8
SAPA_PROFIL
 10
272.00564528064342
 20
481.5999999999998
 30
0.0
 42
-0.4142135623730951
  0
VERTEX
  5
DA3
  8
SAPA_PROFIL
 10
272.30564528064349
 20
481.2999999999999
 30
0.0
  0
VERTEX
  5
DA4
  8
SAPA_PROFIL
 10
272.30564528064349
 20
477.09999999999991
 30
0.0
 42
-0.4142135623730951
  0
VERTEX
  5
DA5
  8
SAPA_PROFIL
 10
271.30564528064349
 20
476.09999999999991
 30
0.0
  0
VERTEX
  5
DA6
  8
SAPA_PROFIL
 10
252.0482859677625
 20
476.09999999999991
 30
0.0
 42
0.1989123673796595
  0
VERTEX
  5
DA7
  8
SAPA_PROFIL
 10
249.92696562420281
 20
475.22132034355951
 30
0.0
  0
VERTEX
  5
DA8
  8
SAPA_PROFIL
 10
247.18432493708349
 20
472.47867965643991
 30
0.0
 42
-0.1989123673796601
  0
VERTEX
  5
DA9
  8
SAPA_PROFIL
 10
245.06300459352349
 20
471.59999999999991
 30
0.0
  0
SEQEND
  5
DAA
  8
SAPA_PROFIL
  0
POLYLINE
  5
904
  8
SAPA_PROFIL
 66
     1
 10
0.0
 20
0.0
 30
0.0
 70
     1
  0
VERTEX
  5
DAB
  8
SAPA_PROFIL
 10
140.30690980567871
 20
514.76903946364132
 30
0.0
 42
0.4557262555325856
  0
VERTEX
  5
DAC
  8
SAPA_PROFIL
 10
140.80204338833431
 20
514.19945343280017
 30
0.0
  0
VERTEX
  5
DAD
  8
SAPA_PROFIL
 10
142.30878728064329
 20
514.19945343280017
 30
0.0
  0
VERTEX
  5
DAE
  8
SAPA_PROFIL
 10
142.30878728064329
 20
512.69945343280028
 30
0.0
  0
VERTEX
  5
DAF
  8
SAPA_PROFIL
 10
143.30878728064329
 20
512.69945343280028
 30
0.0
  0
VERTEX
  5
DB0
  8
SAPA_PROFIL
 10
143.30878728064329
 20
502.46698483658457
 30
0.0
  0
VERTEX
  5
DB1
  8
SAPA_PROFIL
 10
143.80878728064329
 20
501.60095943280021
 30
0.0
  0
VERTEX
  5
DB2
  8
SAPA_PROFIL
 10
143.30878728064329
 20
500.73493402901579
 30
0.0
  0
VERTEX
  5
DB3
  8
SAPA_PROFIL
 10
143.30878728064329
 20
490.50246543280008
 30
0.0
  0
VERTEX
  5
DB4
  8
SAPA_PROFIL
 10
142.30878728064329
 20
490.50246543280008
 30
0.0
  0
VERTEX
  5
DB5
  8
SAPA_PROFIL
 10
142.30878728064329
 20
489.00246543280008
 30
0.0
  0
VERTEX
  5
DB6
  8
SAPA_PROFIL
 10
140.30878728064329
 20
489.00246543280008
 30
0.0
  0
VERTEX
  5
DB7
  8
SAPA_PROFIL
 10
139.28010485374531
 20
483.16851748697309
 30
0.0
 42
0.4142135623730531
  0
VERTEX
  5
DB8
  8
SAPA_PROFIL
 10
139.68568464141791
 20
482.58928952163359
 30
0.0
  0
VERTEX
  5
DB9
  8
SAPA_PROFIL
 10
140.17808851792401
 20
482.50246543280002
 30
0.0
  0
VERTEX
  5
DBA
  8
SAPA_PROFIL
 10
140.29964224229079
 20
483.19183085990869
 30
0.0
 42
-0.6705660098148247
  0
VERTEX
  5
DBB
  8
SAPA_PROFIL
 10
140.84195959554421
 20
483.310184993787
 30
0.0
  0
VERTEX
  5
DBC
  8
SAPA_PROFIL
 10
142.48989840676541
 20
480.92333658497608
 30
0.0
 42
-0.4103557430781616
  0
VERTEX
  5
DBD
  8
SAPA_PROFIL
 10
142.36962855298981
 20
480.24125234981062
 30
0.0
  0
VERTEX
  5
DBE
  8
SAPA_PROFIL
 10
140.0047223777004
 20
478.56197678152239
 30
0.0
 42
-0.6705660098148535
  0
VERTEX
  5
DBF
  8
SAPA_PROFIL
 10
139.5355902605564
 20
478.85867674665502
 30
0.0
  0
VERTEX
  5
DC0
  8
SAPA_PROFIL
 10
139.65714398492321
 20
479.54804217376352
 30
0.0
  0
VERTEX
  5
DC1
  8
SAPA_PROFIL
 10
139.16474010841711
 20
479.63486626259697
 30
0.0
 42
0.4142135623731039
  0
VERTEX
  5
DC2
  8
SAPA_PROFIL
 10
138.58551214307761
 20
479.22928647492432
 30
0.0
  0
VERTEX
  5
DC3
  8
SAPA_PROFIL
 10
138.50868805424409
 20
478.79359541661432
 30
0.0
  0
VERTEX
  5
DC4
  8
SAPA_PROFIL
 10
138.5113586419599
 20
477.20711143765533
 30
0.0
 42
-0.4147066859862996
  0
VERTEX
  5
DC5
  8
SAPA_PROFIL
 10
135.51136289238769
 20
474.20206143280012
 30
0.0
  0
VERTEX
  5
DC6
  8
SAPA_PROFIL
 10
127.8047342806433
 20
474.20206143280012
 30
0.0
 42
0.6638253569871671
  0
VERTEX
  5
DC7
  8
SAPA_PROFIL
 10
127.4467604736562
 20
473.3228752398656
 30
0.0
  0
VERTEX
  5
DC8
  8
SAPA_PROFIL
 10
129.42579867131479
 20
471.34383704220693
 30
0.0
 42
0.1989123673796449
  0
VERTEX
  5
DC9
  8
SAPA_PROFIL
 10
129.7793520619081
 20
471.19739043280032
 30
0.0
  0
VERTEX
  5
DCA
  8
SAPA_PROFIL
 10
141.5976270363083
 20
471.19739043280032
 30
0.0
 42
0.1989123673796422
  0
VERTEX
  5
DCB
  8
SAPA_PROFIL
 10
141.9511804269016
 20
471.34383704220693
 30
0.0
  0
VERTEX
  5
DCC
  8
SAPA_PROFIL
 10
147.31192720808809
 20
476.70458382339348
 30
0.0
 42
-0.1989123673796659
  0
VERTEX
  5
DCD
  8
SAPA_PROFIL
 10
147.6654805986814
 20
476.8510304328002
 30
0.0
  0
VERTEX
  5
DCE
  8
SAPA_PROFIL
 10
152.30564528064329
 20
476.8510304328002
 30
0.0
  0
VERTEX
  5
DCF
  8
SAPA_PROFIL
 10
152.30564528064329
 20
480.1010304328002
 30
0.0
  0
VERTEX
  5
DD0
  8
SAPA_PROFIL
 10
153.80564528064329
 20
481.6010304328002
 30
0.0
  0
VERTEX
  5
DD1
  8
SAPA_PROFIL
 10
152.30564528064329
 20
483.1010304328002
 30
0.0
  0
VERTEX
  5
DD2
  8
SAPA_PROFIL
 10
152.30564528064329
 20
486.69999943280021
 30
0.0
 42
-0.4142140000000165
  0
VERTEX
  5
DD3
  8
SAPA_PROFIL
 10
152.80564528064329
 20
487.1999994328001
 30
0.0
  0
VERTEX
  5
DD4
  8
SAPA_PROFIL
 10
154.30878728064329
 20
487.1999994328001
 30
0.0
 42
0.4142140000000145
  0
VERTEX
  5
DD5
  8
SAPA_PROFIL
 10
155.30878728064329
 20
488.19999943280021
 30
0.0
  0
VERTEX
  5
DD6
  8
SAPA_PROFIL
 10
155.30878728064329
 20
489.19999943280021
 30
0.0
  0
VERTEX
  5
DD7
  8
SAPA_PROFIL
 10
148.04996814872069
 20
491.14499485648861
 30
0.0
 42
-0.3394542338034085
  0
VERTEX
  5
DD8
  8
SAPA_PROFIL
 10
147.30878728064329
 20
492.11092065951442
 30
0.0
  0
VERTEX
  5
DD9
  8
SAPA_PROFIL
 10
147.30878728064329
 20
511.08907934048591
 30
0.0
 42
-0.3394542744563553
  0
VERTEX
  5
DDA
  8
SAPA_PROFIL
 10
148.0499682895626
 20
512.05500518125007
 30
0.0
  0
VERTEX
  5
DDB
  8
SAPA_PROFIL
 10
155.30878728064329
 20
513.99999943280022
 30
0.0
  0
VERTEX
  5
DDC
  8
SAPA_PROFIL
 10
155.30878728064329
 20
514.99999943280022
 30
0.0
 42
0.4142139999999982
  0
VERTEX
  5
DDD
  8
SAPA_PROFIL
 10
154.30878728064329
 20
515.99999943280022
 30
0.0
  0
VERTEX
  5
DDE
  8
SAPA_PROFIL
 10
152.81838128064339
 20
515.99999943280022
 30
0.0
 42
-0.4142140000000124
  0
VERTEX
  5
DDF
  8
SAPA_PROFIL
 10
152.31838128064331
 20
516.49999943280022
 30
0.0
  0
VERTEX
  5
DE0
  8
SAPA_PROFIL
 10
152.31838128064331
 20
520.09999943280013
 30
0.0
  0
VERTEX
  5
DE1
  8
SAPA_PROFIL
 10
153.81838128064331
 20
521.59999943280013
 30
0.0
  0
VERTEX
  5
DE2
  8
SAPA_PROFIL
 10
152.31838128064331
 20
523.09999943280013
 30
0.0
  0
VERTEX
  5
DE3
  8
SAPA_PROFIL
 10
152.31838128064331
 20
526.34999943280025
 30
0.0
  0
VERTEX
  5
DE4
  8
SAPA_PROFIL
 10
144.305827223645
 20
526.34999943280025
 30
0.0
 42
0.3780475071674513
  0
VERTEX
  5
DE5
  8
SAPA_PROFIL
 10
141.32924814504801
 20
523.72413442028358
 30
0.0
  0
VERTEX
  5
DE6
  8
SAPA_PROFIL
 10
140.96588473272161
 20
520.83325287420496
 30
0.0
 42
0.4247728136669583
  0
VERTEX
  5
DE7
  8
SAPA_PROFIL
 10
141.8526282806433
 20
519.69945343280028
 30
0.0
  0
VERTEX
  5
DE8
  8
SAPA_PROFIL
 10
141.8526282806433
 20
520.94945343280017
 30
0.0
  0
VERTEX
  5
DE9
  8
SAPA_PROFIL
 10
142.9526282806433
 20
520.94945343280017
 30
0.0
  0
VERTEX
  5
DEA
  8
SAPA_PROFIL
 10
142.9526282806433
 20
515.74945343280024
 30
0.0
  0
VERTEX
  5
DEB
  8
SAPA_PROFIL
 10
141.8526282806433
 20
515.74945343280024
 30
0.0
  0
VERTEX
  5
DEC
  8
SAPA_PROFIL
 10
141.8526282806433
 20
516.99945343280024
 30
0.0
  0
VERTEX
  5
DED
  8
SAPA_PROFIL
 10
141.4791061372905
 20
516.99945343280024
 30
0.0
 42
0.3760477967976817
  0
VERTEX
  5
DEE
  8
SAPA_PROFIL
 10
140.4878108190839
 20
516.13111053326077
 30
0.0
  0
SEQEND
  5
DEF
  8
SAPA_PROFIL
  0
POLYLINE
  5
905
  8
SAPA_PROFIL
 66
     1
 10
0.0
 20
0.0
 30
0.0
 70
     1
  0
VERTEX
  5
DF0
  8
SAPA_PROFIL
 10
134.30438075560781
 20
488.4313743685837
 30
0.0
 42
0.4557262555325856
  0
VERTEX
  5
DF1
  8
SAPA_PROFIL
 10
133.80924717295221
 20
489.0009603994248
 30
0.0
  0
VERTEX
  5
DF2
  8
SAPA_PROFIL
 10
132.30250328064321
 20
489.0009603994248
 30
0.0
  0
VERTEX
  5
DF3
  8
SAPA_PROFIL
 10
132.30250328064321
 20
490.5009603994248
 30
0.0
  0
VERTEX
  5
DF4
  8
SAPA_PROFIL
 10
131.30250328064321
 20
490.5009603994248
 30
0.0
  0
VERTEX
  5
DF5
  8
SAPA_PROFIL
 10
131.30250328064321
 20
500.73342899564039
 30
0.0
  0
VERTEX
  5
DF6
  8
SAPA_PROFIL
 10
130.80250328064321
 20
501.59945439942481
 30
0.0
  0
VERTEX
  5
DF7
  8
SAPA_PROFIL
 10
131.30250328064321
 20
502.46547980320918
 30
0.0
  0
VERTEX
  5
DF8
  8
SAPA_PROFIL
 10
131.30250328064321
 20
512.69794839942494
 30
0.0
  0
VERTEX
  5
DF9
  8
SAPA_PROFIL
 10
132.30250328064321
 20
512.69794839942494
 30
0.0
  0
VERTEX
  5
DFA
  8
SAPA_PROFIL
 10
132.30250328064321
 20
514.19794839942494
 30
0.0
  0
VERTEX
  5
DFB
  8
SAPA_PROFIL
 10
134.30250328064321
 20
514.19794839942494
 30
0.0
  0
VERTEX
  5
DFC
  8
SAPA_PROFIL
 10
135.33118570754129
 20
520.03189634525177
 30
0.0
 42
0.4142135623730531
  0
VERTEX
  5
DFD
  8
SAPA_PROFIL
 10
134.9256059198687
 20
520.61112431059144
 30
0.0
  0
VERTEX
  5
DFE
  8
SAPA_PROFIL
 10
134.4332020433626
 20
520.69794839942494
 30
0.0
  0
VERTEX
  5
DFF
  8
SAPA_PROFIL
 10
134.31164831899579
 20
520.00858297231616
 30
0.0
 42
-0.6705660098148247
  0
VERTEX
  5
E00
  8
SAPA_PROFIL
 10
133.7693309657424
 20
519.89022883843802
 30
0.0
  0
VERTEX
  5
E01
  8
SAPA_PROFIL
 10
132.1213921545212
 20
522.27707724724894
 30
0.0
 42
-0.4103557430781616
  0
VERTEX
  5
E02
  8
SAPA_PROFIL
 10
132.2416620082968
 20
522.95916148241429
 30
0.0
  0
VERTEX
  5
E03
  8
SAPA_PROFIL
 10
134.60656818358621
 20
524.63843705070258
 30
0.0
 42
-0.6705660098148535
  0
VERTEX
  5
E04
  8
SAPA_PROFIL
 10
135.07570030073009
 20
524.34173708556989
 30
0.0
  0
VERTEX
  5
E05
  8
SAPA_PROFIL
 10
134.95414657636331
 20
523.65237165846145
 30
0.0
  0
VERTEX
  5
E06
  8
SAPA_PROFIL
 10
135.4465504528695
 20
523.56554756962805
 30
0.0
 42
0.4142135623731039
  0
VERTEX
  5
E07
  8
SAPA_PROFIL
 10
136.02577841820889
 20
523.97112735730059
 30
0.0
  0
VERTEX
  5
E08
  8
SAPA_PROFIL
 10
136.10260250704249
 20
524.40681841561047
 30
0.0
  0
VERTEX
  5
E09
  8
SAPA_PROFIL
 10
136.09993191932671
 20
525.99330239456981
 30
0.0
 42
-0.4147066859862996
  0
VERTEX
  5
E0A
  8
SAPA_PROFIL
 10
139.09992766889891
 20
528.99835239942479
 30
0.0
  0
VERTEX
  5
E0B
  8
SAPA_PROFIL
 10
146.80655628064329
 20
528.99835239942479
 30
0.0
 42
0.6638253569871671
  0
VERTEX
  5
E0C
  8
SAPA_PROFIL
 10
147.1645300876304
 20
529.87753859235943
 30
0.0
  0
VERTEX
  5
E0D
  8
SAPA_PROFIL
 10
145.18549188997179
 20
531.85657679001815
 30
0.0
 42
0.1989123673796449
  0
VERTEX
  5
E0E
  8
SAPA_PROFIL
 10
144.83193849937851
 20
532.00302339942482
 30
0.0
  0
VERTEX
  5
E0F
  8
SAPA_PROFIL
 10
133.01366352497831
 20
532.00302339942482
 30
0.0
 42
0.1989123673796422
  0
VERTEX
  5
E10
  8
SAPA_PROFIL
 10
132.66011013438501
 20
531.85657679001815
 30
0.0
  0
VERTEX
  5
E11
  8
SAPA_PROFIL
 10
127.2993633531985
 20
526.49583000883149
 30
0.0
 42
-0.1989123673796659
  0
VERTEX
  5
E12
  8
SAPA_PROFIL
 10
126.9458099626052
 20
526.34938339942482
 30
0.0
  0
VERTEX
  5
E13
  8
SAPA_PROFIL
 10
122.3056452806433
 20
526.34938339942482
 30
0.0
  0
VERTEX
  5
E14
  8
SAPA_PROFIL
 10
122.3056452806433
 20
523.09938339942482
 30
0.0
  0
VERTEX
  5
E15
  8
SAPA_PROFIL
 10
120.8056452806433
 20
521.59938339942471
 30
0.0
  0
VERTEX
  5
E16
  8
SAPA_PROFIL
 10
122.3056452806433
 20
520.09938339942482
 30
0.0
  0
VERTEX
  5
E17
  8
SAPA_PROFIL
 10
122.3056452806433
 20
516.50041439942481
 30
0.0
 42
-0.4142140000000165
  0
VERTEX
  5
E18
  8
SAPA_PROFIL
 10
121.8056452806433
 20
516.00041439942481
 30
0.0
  0
VERTEX
  5
E19
  8
SAPA_PROFIL
 10
120.30250328064329
 20
516.00041439942481
 30
0.0
 42
0.4142140000000145
  0
VERTEX
  5
E1A
  8
SAPA_PROFIL
 10
119.30250328064329
 20
515.00041439942481
 30
0.0
  0
VERTEX
  5
E1B
  8
SAPA_PROFIL
 10
119.30250328064329
 20
514.0004143994247
 30
0.0
  0
VERTEX
  5
E1C
  8
SAPA_PROFIL
 10
126.5613224125658
 20
512.0554189757363
 30
0.0
 42
-0.3394542338034085
  0
VERTEX
  5
E1D
  8
SAPA_PROFIL
 10
127.30250328064319
 20
511.08949317271072
 30
0.0
  0
VERTEX
  5
E1E
  8
SAPA_PROFIL
 10
127.30250328064319
 20
492.11133449173911
 30
0.0
 42
-0.3394542744563553
  0
VERTEX
  5
E1F
  8
SAPA_PROFIL
 10
126.56132227172399
 20
491.14540865097479
 30
0.0
  0
VERTEX
  5
E20
  8
SAPA_PROFIL
 10
119.30250328064319
 20
489.20041439942469
 30
0.0
  0
VERTEX
  5
E21
  8
SAPA_PROFIL
 10
119.30250328064319
 20
488.20041439942469
 30
0.0
 42
0.4142139999999982
  0
VERTEX
  5
E22
  8
SAPA_PROFIL
 10
120.30250328064319
 20
487.2004143994248
 30
0.0
  0
VERTEX
  5
E23
  8
SAPA_PROFIL
 10
121.7929092806432
 20
487.20041439942469
 30
0.0
 42
-0.4142140000000124
  0
VERTEX
  5
E24
  8
SAPA_PROFIL
 10
122.2929092806432
 20
486.7004143994248
 30
0.0
  0
VERTEX
  5
E25
  8
SAPA_PROFIL
 10
122.2929092806432
 20
483.10041439942478
 30
0.0
  0
VERTEX
  5
E26
  8
SAPA_PROFIL
 10
120.7929092806432
 20
481.60041439942478
 30
0.0
  0
VERTEX
  5
E27
  8
SAPA_PROFIL
 10
122.2929092806432
 20
480.10041439942478
 30
0.0
  0
VERTEX
  5
E28
  8
SAPA_PROFIL
 10
122.2929092806432
 20
476.85041439942478
 30
0.0
  0
VERTEX
  5
E29
  8
SAPA_PROFIL
 10
130.30546333764161
 20
476.85041439942478
 30
0.0
 42
0.3780475071674513
  0
VERTEX
  5
E2A
  8
SAPA_PROFIL
 10
133.2820424162386
 20
479.4762794119415
 30
0.0
  0
VERTEX
  5
E2B
  8
SAPA_PROFIL
 10
133.64540582856489
 20
482.36716095802001
 30
0.0
 42
0.4247728136669583
  0
VERTEX
  5
E2C
  8
SAPA_PROFIL
 10
132.75866228064331
 20
483.50096039942468
 30
0.0
  0
VERTEX
  5
E2D
  8
SAPA_PROFIL
 10
132.75866228064331
 20
482.25096039942468
 30
0.0
  0
VERTEX
  5
E2E
  8
SAPA_PROFIL
 10
131.6586622806432
 20
482.25096039942468
 30
0.0
  0
VERTEX
  5
E2F
  8
SAPA_PROFIL
 10
131.6586622806432
 20
487.45096039942479
 30
0.0
  0
VERTEX
  5
E30
  8
SAPA_PROFIL
 10
132.75866228064331
 20
487.45096039942479
 30
0.0
  0
VERTEX
  5
E31
  8
SAPA_PROFIL
 10
132.75866228064331
 20
486.20096039942479
 30
0.0
  0
VERTEX
  5
E32
  8
SAPA_PROFIL
 10
133.13218442399599
 20
486.20096039942479
 30
0.0
 42
0.3760477967976817
  0
VERTEX
  5
E33
  8
SAPA_PROFIL
 10
134.12347974220259
 20
487.0693032989642
 30
0.0
  0
SEQEND
  5
E34
  8
SAPA_PROFIL
  0
POLYLINE
  5
906
  8
SAPA_PROFIL
 66
     1
 10
0.0
 20
0.0
 30
0.0
 70
     1
  0
VERTEX
  5
E35
  8
SAPA_PROFIL
 10
115.50564528064341
 20
478.39999999999998
 30
0.0
  0
VERTEX
  5
E36
  8
SAPA_PROFIL
 10
84.105645280643316
 20
478.39999999999998
 30
0.0
  0
VERTEX
  5
E37
  8
SAPA_PROFIL
 10
84.105645280643444
 20
499.505
 30
0.0
 42
0.4142135623732293
  0
VERTEX
  5
E38
  8
SAPA_PROFIL
 10
83.610645280643325
 20
500.0
 30
0.0
  0
VERTEX
  5
E39
  8
SAPA_PROFIL
 10
83.600645280643448
 20
500.0
 30
0.0
 42
0.414213562373095
  0
VERTEX
  5
E3A
  8
SAPA_PROFIL
 10
83.105645280643316
 20
499.505
 30
0.0
  0
VERTEX
  5
E3B
  8
SAPA_PROFIL
 10
83.105645280643316
 20
499.34500000000008
 30
0.0
 42
-0.414213562373028
  0
VERTEX
  5
E3C
  8
SAPA_PROFIL
 10
82.610645280643425
 20
498.85000000000008
 30
0.0
  0
VERTEX
  5
E3D
  8
SAPA_PROFIL
 10
81.805645280643375
 20
498.85000000000008
 30
0.0
 42
-0.3747564601179658
  0
VERTEX
  5
E3E
  8
SAPA_PROFIL
 10
79.081250237408995
 20
501.22560495676379
 30
0.0
  0
VERTEX
  5
E3F
  8
SAPA_PROFIL
 10
79.455645280643694
 20
501.60000000000008
 30
0.0
  0
VERTEX
  5
E40
  8
SAPA_PROFIL
 10
79.081250237407289
 20
501.9743950432366
 30
0.0
 42
-0.3747564601179647
  0
VERTEX
  5
E41
  8
SAPA_PROFIL
 10
81.805645280643262
 20
504.35000000000008
 30
0.0
  0
VERTEX
  5
E42
  8
SAPA_PROFIL
 10
82.610645280643425
 20
504.35000000000008
 30
0.0
 42
-0.4142135623730281
  0
VERTEX
  5
E43
  8
SAPA_PROFIL
 10
83.105645280643316
 20
503.85500000000008
 30
0.0
  0
VERTEX
  5
E44
  8
SAPA_PROFIL
 10
83.105645280643316
 20
503.69500000000011
 30
0.0
 42
0.4142135623730951
  0
VERTEX
  5
E45
  8
SAPA_PROFIL
 10
83.600645280643448
 20
503.2000000000001
 30
0.0
  0
VERTEX
  5
E46
  8
SAPA_PROFIL
 10
83.610645280643325
 20
503.19999999999999
 30
0.0
 42
0.4142135623732296
  0
VERTEX
  5
E47
  8
SAPA_PROFIL
 10
84.105645280643316
 20
503.69500000000011
 30
0.0
  0
VERTEX
  5
E48
  8
SAPA_PROFIL
 10
84.105645280643316
 20
524.80000000000007
 30
0.0
  0
VERTEX
  5
E49
  8
SAPA_PROFIL
 10
115.50564528064341
 20
524.80000000000007
 30
0.0
  0
VERTEX
  5
E4A
  8
SAPA_PROFIL
 10
115.50564528064341
 20
503.69500000000011
 30
0.0
 42
0.4142135623731625
  0
VERTEX
  5
E4B
  8
SAPA_PROFIL
 10
116.0006452806433
 20
503.2000000000001
 30
0.0
  0
VERTEX
  5
E4C
  8
SAPA_PROFIL
 10
116.0106452806433
 20
503.2000000000001
 30
0.0
 42
0.4142135623731625
  0
VERTEX
  5
E4D
  8
SAPA_PROFIL
 10
116.50564528064319
 20
503.69500000000011
 30
0.0
  0
VERTEX
  5
E4E
  8
SAPA_PROFIL
 10
116.50564528064329
 20
503.85500000000008
 30
0.0
 42
-0.4142135623729606
  0
VERTEX
  5
E4F
  8
SAPA_PROFIL
 10
117.0006452806433
 20
504.35000000000002
 30
0.0
  0
VERTEX
  5
E50
  8
SAPA_PROFIL
 10
117.8056452806433
 20
504.35000000000008
 30
0.0
 42
-0.3747564601179647
  0
VERTEX
  5
E51
  8
SAPA_PROFIL
 10
120.53004032387931
 20
501.9743950432366
 30
0.0
  0
VERTEX
  5
E52
  8
SAPA_PROFIL
 10
120.155645280643
 20
501.60000000000008
 30
0.0
  0
VERTEX
  5
E53
  8
SAPA_PROFIL
 10
120.5300403238777
 20
501.22560495676379
 30
0.0
 42
-0.3747564601179658
  0
VERTEX
  5
E54
  8
SAPA_PROFIL
 10
117.8056452806433
 20
498.85000000000008
 30
0.0
  0
VERTEX
  5
E55
  8
SAPA_PROFIL
 10
117.0006452806433
 20
498.85000000000008
 30
0.0
 42
-0.4142135623730281
  0
VERTEX
  5
E56
  8
SAPA_PROFIL
 10
116.50564528064319
 20
499.34500000000008
 30
0.0
  0
VERTEX
  5
E57
  8
SAPA_PROFIL
 10
116.50564528064319
 20
499.505
 30
0.0
 42
0.4142135623731625
  0
VERTEX
  5
E58
  8
SAPA_PROFIL
 10
116.0106452806433
 20
500.0
 30
0.0
  0
VERTEX
  5
E59
  8
SAPA_PROFIL
 10
116.0006452806433
 20
500.0
 30
0.0
 42
0.4142135623731625
  0
VERTEX
  5
E5A
  8
SAPA_PROFIL
 10
115.50564528064341
 20
499.505
 30
0.0
  0
SEQEND
  5
E5B
  8
SAPA_PROFIL
  0
POLYLINE
  5
907
  8
SAPA_PROFIL
 66
     1
 10
0.0
 20
0.0
 30
0.0
 70
     1
  0
VERTEX
  5
E5C
  8
SAPA_PROFIL
 10
120.3056452806434
 20
478.39999999999998
 30
0.0
  0
VERTEX
  5
E5D
  8
SAPA_PROFIL
 10
120.3056452806434
 20
480.60000000000008
 30
0.0
  0
VERTEX
  5
E5E
  8
SAPA_PROFIL
 10
121.3056452806434
 20
480.60000000000008
 30
0.0
  0
VERTEX
  5
E5F
  8
SAPA_PROFIL
 10
122.3056452806434
 20
479.60000000000008
 30
0.0
  0
VERTEX
  5
E60
  8
SAPA_PROFIL
 10
122.3056452806434
 20
476.60000000000008
 30
0.0
  0
VERTEX
  5
E61
  8
SAPA_PROFIL
 10
77.305645280643375
 20
476.60000000000008
 30
0.0
  0
VERTEX
  5
E62
  8
SAPA_PROFIL
 10
77.305645280643375
 20
479.60000000000008
 30
0.0
  0
VERTEX
  5
E63
  8
SAPA_PROFIL
 10
78.305645280643375
 20
480.60000000000008
 30
0.0
  0
VERTEX
  5
E64
  8
SAPA_PROFIL
 10
79.305645280643375
 20
480.60000000000008
 30
0.0
  0
VERTEX
  5
E65
  8
SAPA_PROFIL
 10
79.305645280643375
 20
478.39999999999998
 30
0.0
  0
VERTEX
  5
E66
  8
SAPA_PROFIL
 10
82.305645280643375
 20
478.39999999999998
 30
0.0
  0
VERTEX
  5
E67
  8
SAPA_PROFIL
 10
82.305645280643375
 20
497.10000000000008
 30
0.0
  0
VERTEX
  5
E68
  8
SAPA_PROFIL
 10
79.305645280643375
 20
497.10000000000008
 30
0.0
  0
VERTEX
  5
E69
  8
SAPA_PROFIL
 10
79.305645280643375
 20
494.60000000000008
 30
0.0
  0
VERTEX
  5
E6A
  8
SAPA_PROFIL
 10
78.305645280643375
 20
494.60000000000008
 30
0.0
  0
VERTEX
  5
E6B
  8
SAPA_PROFIL
 10
77.505645280643293
 20
495.39999999999998
 30
0.0
  0
VERTEX
  5
E6C
  8
SAPA_PROFIL
 10
77.505645280643293
 20
501.08038475772941
 30
0.0
  0
VERTEX
  5
E6D
  8
SAPA_PROFIL
 10
77.805645280643375
 20
501.60000000000008
 30
0.0
  0
VERTEX
  5
E6E
  8
SAPA_PROFIL
 10
77.505645280643293
 20
502.11961524227081
 30
0.0
  0
VERTEX
  5
E6F
  8
SAPA_PROFIL
 10
77.505645280643293
 20
507.80000000000018
 30
0.0
  0
VERTEX
  5
E70
  8
SAPA_PROFIL
 10
78.305645280643375
 20
508.60000000000008
 30
0.0
  0
VERTEX
  5
E71
  8
SAPA_PROFIL
 10
79.305645280643375
 20
508.60000000000008
 30
0.0
  0
VERTEX
  5
E72
  8
SAPA_PROFIL
 10
79.305645280643375
 20
506.10000000000008
 30
0.0
  0
VERTEX
  5
E73
  8
SAPA_PROFIL
 10
82.305645280643375
 20
506.10000000000008
 30
0.0
  0
VERTEX
  5
E74
  8
SAPA_PROFIL
 10
82.305645280643375
 20
524.80000000000007
 30
0.0
  0
VERTEX
  5
E75
  8
SAPA_PROFIL
 10
79.305645280643375
 20
524.80000000000007
 30
0.0
  0
VERTEX
  5
E76
  8
SAPA_PROFIL
 10
79.305645280643375
 20
522.60000000000014
 30
0.0
  0
VERTEX
  5
E77
  8
SAPA_PROFIL
 10
78.305645280643375
 20
522.60000000000014
 30
0.0
  0
VERTEX
  5
E78
  8
SAPA_PROFIL
 10
77.305645280643375
 20
523.60000000000014
 30
0.0
  0
VERTEX
  5
E79
  8
SAPA_PROFIL
 10
77.305645280643375
 20
526.60000000000014
 30
0.0
  0
VERTEX
  5
E7A
  8
SAPA_PROFIL
 10
122.3056452806434
 20
526.60000000000014
 30
0.0
  0
VERTEX
  5
E7B
  8
SAPA_PROFIL
 10
122.3056452806434
 20
523.60000000000014
 30
0.0
  0
VERTEX
  5
E7C
  8
SAPA_PROFIL
 10
121.3056452806434
 20
522.60000000000014
 30
0.0
  0
VERTEX
  5
E7D
  8
SAPA_PROFIL
 10
120.3056452806434
 20
522.60000000000014
 30
0.0
  0
VERTEX
  5
E7E
  8
SAPA_PROFIL
 10
120.3056452806434
 20
524.80000000000007
 30
0.0
  0
VERTEX
  5
E7F
  8
SAPA_PROFIL
 10
117.3056452806434
 20
524.80000000000007
 30
0.0
  0
VERTEX
  5
E80
  8
SAPA_PROFIL
 10
117.3056452806434
 20
506.10000000000008
 30
0.0
  0
VERTEX
  5
E81
  8
SAPA_PROFIL
 10
120.3056452806434
 20
506.10000000000008
 30
0.0
  0
VERTEX
  5
E82
  8
SAPA_PROFIL
 10
120.3056452806434
 20
508.60000000000008
 30
0.0
  0
VERTEX
  5
E83
  8
SAPA_PROFIL
 10
121.3056452806434
 20
508.60000000000008
 30
0.0
  0
VERTEX
  5
E84
  8
SAPA_PROFIL
 10
122.1056452806433
 20
507.80000000000018
 30
0.0
  0
VERTEX
  5
E85
  8
SAPA_PROFIL
 10
122.1056452806433
 20
502.11961524227081
 30
0.0
  0
VERTEX
  5
E86
  8
SAPA_PROFIL
 10
121.8056452806433
 20
501.60000000000008
 30
0.0
  0
VERTEX
  5
E87
  8
SAPA_PROFIL
 10
122.1056452806433
 20
501.08038475772941
 30
0.0
  0
VERTEX
  5
E88
  8
SAPA_PROFIL
 10
122.1056452806433
 20
495.39999999999998
 30
0.0
  0
VERTEX
  5
E89
  8
SAPA_PROFIL
 10
121.3056452806434
 20
494.60000000000008
 30
0.0
  0
VERTEX
  5
E8A
  8
SAPA_PROFIL
 10
120.3056452806434
 20
494.60000000000008
 30
0.0
  0
VERTEX
  5
E8B
  8
SAPA_PROFIL
 10
120.3056452806434
 20
497.10000000000008
 30
0.0
  0
VERTEX
  5
E8C
  8
SAPA_PROFIL
 10
117.3056452806434
 20
497.10000000000008
 30
0.0
  0
VERTEX
  5
E8D
  8
SAPA_PROFIL
 10
117.3056452806434
 20
478.39999999999998
 30
0.0
  0
SEQEND
  5
E8E
  8
SAPA_PROFIL
  0
LINE
  5
90F
  8
SAPA_GLAS
 10
255.30564528064789
 20
491.50000000000023
 30
0.0
 11
255.30564528064789
 21
485.50000000000023
 31
0.0
  0
LINE
  5
910
  8
SAPA_GLAS
 10
284.10564528064788
 20
485.50000000000023
 30
0.0
 11
255.30564528064789
 21
485.50000000000023
 31
0.0
  0
LINE
  5
911
  8
SAPA_GLAS
 10
284.10564528064788
 20
491.5000000000004
 30
0.0
 11
255.30564528064789
 21
491.50000000000023
 31
0.0
  0
POLYLINE
  5
91E
  8
SAPA_FOGBAND
 62
     2
 66
     1
 10
0.0
 20
0.0
 30
0.0
  0
VERTEX
  5
F5E
  8
SAPA_FOGBAND
 62
     2
 10
140.415201346526
 20
522.50945564807159
 30
0.0
 42
0.1803090304626144
  0
VERTEX
  5
F5F
  8
SAPA_FOGBAND
 62
     2
 10
141.80319897088501
 20
524.34986732488551
 30
0.0
  0
VERTEX
  5
F60
  8
SAPA_FOGBAND
 62
     2
 10
142.53724285968309
 20
526.81522653081117
 30
0.0
 42
-0.3317810211360308
  0
VERTEX
  5
F61
  8
SAPA_FOGBAND
 62
     2
 10
143.4956624051311
 20
527.52986364797039
 30
0.0
  0
VERTEX
  5
F62
  8
SAPA_FOGBAND
 62
     2
 10
144.72938956373071
 20
527.52986364797061
 30
0.0
 42
0.2679491924312111
  0
VERTEX
  5
F63
  8
SAPA_FOGBAND
 62
     2
 10
144.98919718486351
 20
527.67986364797071
 30
0.0
  0
VERTEX
  5
F64
  8
SAPA_FOGBAND
 62
     2
 10
145.51065310227969
 20
528.58305179084425
 30
0.0
 42
0.5773502691894719
  0
VERTEX
  5
F65
  8
SAPA_FOGBAND
 62
     2
 10
145.25084548114421
 20
529.03305179084396
 30
0.0
  0
VERTEX
  5
F66
  8
SAPA_FOGBAND
 62
     2
 10
139.2490047170908
 20
529.03305179084418
 30
0.0
 42
0.4147066859862881
  0
VERTEX
  5
F67
  8
SAPA_FOGBAND
 62
     2
 10
136.24900896751879
 20
526.0280017859892
 30
0.0
  0
VERTEX
  5
F68
  8
SAPA_FOGBAND
 62
     2
 10
136.2526819947698
 20
523.84601058837529
 30
0.0
 42
-0.4565417232955612
  0
VERTEX
  5
F69
  8
SAPA_FOGBAND
 62
     2
 10
135.8696253685479
 20
523.4962084823344
 30
0.0
  0
VERTEX
  5
F6A
  8
SAPA_FOGBAND
 62
     2
 10
134.8594037178666
 20
523.67433781584532
 30
0.0
  0
VERTEX
  5
F6B
  8
SAPA_FOGBAND
 62
     2
 10
134.92886298893339
 20
524.06826091705022
 30
0.0
 42
0.6720594905598717
  0
VERTEX
  5
F6C
  8
SAPA_FOGBAND
 62
     2
 10
134.6154376927808
 20
524.26558266792881
 30
0.0
  0
VERTEX
  5
F6D
  8
SAPA_FOGBAND
 62
     2
 10
132.7723285851975
 20
522.94537479886287
 30
0.0
 42
0.4079520108343612
  0
VERTEX
  5
F6E
  8
SAPA_FOGBAND
 62
     2
 10
132.6265701192182
 20
522.11873746069966
 30
0.0
  0
VERTEX
  5
F6F
  8
SAPA_FOGBAND
 62
     2
 10
133.9069884623201
 20
520.24776742709457
 30
0.0
 42
0.6720594905598635
  0
VERTEX
  5
F70
  8
SAPA_FOGBAND
 62
     2
 10
134.26899991379909
 20
520.3259914556038
 30
0.0
  0
VERTEX
  5
F71
  8
SAPA_FOGBAND
 62
     2
 10
134.33845918486591
 20
520.7199145568087
 30
0.0
  0
VERTEX
  5
F72
  8
SAPA_FOGBAND
 62
     2
 10
135.22478616257689
 20
520.56363119690855
 30
0.0
 42
-0.4142135623730951
  0
VERTEX
  5
F73
  8
SAPA_FOGBAND
 62
     2
 10
135.4681340351805
 20
520.21609441770465
 30
0.0
  0
VERTEX
  5
F74
  8
SAPA_FOGBAND
 62
     2
 10
135.2600572679244
 20
518.8177483570812
 30
0.0
 42
0.4313344489874135
  0
VERTEX
  5
F75
  8
SAPA_FOGBAND
 62
     2
 10
135.5206481595807
 20
518.46768515117287
 30
0.0
  0
VERTEX
  5
F76
  8
SAPA_FOGBAND
 62
     2
 10
136.2286376838712
 20
518.3848762991114
 30
0.0
 42
0.3972974670000809
  0
VERTEX
  5
F77
  8
SAPA_FOGBAND
 62
     2
 10
136.77912728412301
 20
518.79466679795826
 30
0.0
  0
VERTEX
  5
F78
  8
SAPA_FOGBAND
 62
     2
 10
137.74900684230479
 20
524.29512710349388
 30
0.0
  0
VERTEX
  5
F79
  8
SAPA_FOGBAND
 62
     2
 10
137.74900684230479
 20
526.03052678841664
 30
0.0
 42
-0.4147066859863004
  0
VERTEX
  5
F7A
  8
SAPA_FOGBAND
 62
     2
 10
139.2490047170908
 20
527.53305179084407
 30
0.0
  0
VERTEX
  5
F7B
  8
SAPA_FOGBAND
 62
     2
 10
141.45153130667691
 20
527.53305179084396
 30
0.0
 42
-0.601131774324047
  0
VERTEX
  5
F7C
  8
SAPA_FOGBAND
 62
     2
 10
141.38362862911291
 20
526.61347283826694
 30
0.0
 42
0.2227389711612139
  0
VERTEX
  5
F7D
  8
SAPA_FOGBAND
 62
     2
 10
141.2719557899853
 20
526.48560366904815
 30
0.0
  0
VERTEX
  5
F7E
  8
SAPA_FOGBAND
 62
     2
 10
140.74893747089209
 20
524.66376649601023
 30
0.0
 42
-0.1796843201953831
  0
VERTEX
  5
F7F
  8
SAPA_FOGBAND
 62
     2
 10
139.82809150370451
 20
523.43969463066855
 30
0.0
 42
1.0
  0
VERTEX
  5
F80
  8
SAPA_FOGBAND
 62
     2
 10
140.4219300201035
 20
522.51375952687295
 30
0.0
  0
SEQEND
  5
F81
  8
SAPA_FOGBAND
 62
     2
  0
INSERT
  5
91F
  8
SAPA_FOGBAND
  6
CONTINUOUS
 62
     2
  2
*U71
 10
0.0
 20
0.0
 30
0.0
1001
ACAD
1002
{
1000
R14_HATCH_DATA
1000
91F
1011
1.0
1021
0.0
1031
0.0
1021
0.0
1031
0.0
1011
0.0
1021
0.0
1031
0.0
1021
1.0
1031
0.0
1011
0.0
1021
0.0
1031
0.0
1021
0.0
1031
1.0
1040
0.0
1010
0.0
1020
0.0
1030
1.0
1000
SOLID
1070
     1
1070
     0
1071
        1
1071
        1
1071
        1
1070
     2
1040
137.04099943331209
1040
524.71094498581795
1040
0.2549509756796394
1040
0.0
1040
6.2831853071795862
1070
     1
1071
        0
1070
     0
1070
     1
1071
        1
1040
129.93115129332671
1040
515.73022580529675
1040
0.0
1002
}
  0
POLYLINE
  5
920
  8
SAPA_FOGBAND
 62
     2
 66
     1
 10
0.0
 20
0.0
 30
0.0
 70
     1
  0
VERTEX
  5
F93
  8
SAPA_FOGBAND
 62
     2
 10
135.3984343402438
 20
521.54843894992064
 30
0.0
 42
1.0
  0
VERTEX
  5
F94
  8
SAPA_FOGBAND
 62
     2
 10
135.57208251791079
 20
522.53324670293296
 30
0.0
  0
VERTEX
  5
F95
  8
SAPA_FOGBAND
 62
     2
 10
134.09487088839251
 20
522.79371896943314
 30
0.0
 42
0.9999999999999998
  0
VERTEX
  5
F96
  8
SAPA_FOGBAND
 62
     2
 10
133.92122271072549
 20
521.80891121642117
 30
0.0
  0
SEQEND
  5
F97
  8
SAPA_FOGBAND
 62
     2
  0
POLYLINE
  5
921
  8
SAPA_FOGBAND
 62
     2
 66
     1
 10
0.0
 20
0.0
 30
0.0
  0
VERTEX
  5
F98
  8
SAPA_FOGBAND
 62
     2
 10
134.24474887105299
 20
480.68945315077809
 30
0.0
 42
0.1803090304626144
  0
VERTEX
  5
F99
  8
SAPA_FOGBAND
 62
     2
 10
132.8567512466939
 20
478.84904147396429
 30
0.0
  0
VERTEX
  5
F9A
  8
SAPA_FOGBAND
 62
     2
 10
132.12270735789591
 20
476.38368226803863
 30
0.0
 42
-0.3317810211360308
  0
VERTEX
  5
F9B
  8
SAPA_FOGBAND
 62
     2
 10
131.16428781244781
 20
475.6690451508793
 30
0.0
  0
VERTEX
  5
F9C
  8
SAPA_FOGBAND
 62
     2
 10
129.9305606538482
 20
475.66904515087919
 30
0.0
 42
0.2679491924312111
  0
VERTEX
  5
F9D
  8
SAPA_FOGBAND
 62
     2
 10
129.67075303271551
 20
475.51904515087909
 30
0.0
  0
VERTEX
  5
F9E
  8
SAPA_FOGBAND
 62
     2
 10
129.14929711529919
 20
474.61585700800561
 30
0.0
 42
0.5773502691894719
  0
VERTEX
  5
F9F
  8
SAPA_FOGBAND
 62
     2
 10
129.4091047364347
 20
474.16585700800567
 30
0.0
  0
VERTEX
  5
FA0
  8
SAPA_FOGBAND
 62
     2
 10
135.41094550048811
 20
474.16585700800567
 30
0.0
 42
0.4147066859862881
  0
VERTEX
  5
FA1
  8
SAPA_FOGBAND
 62
     2
 10
138.41094125006009
 20
477.1709070128606
 30
0.0
  0
VERTEX
  5
FA2
  8
SAPA_FOGBAND
 62
     2
 10
138.40726822280911
 20
479.35289821047451
 30
0.0
 42
-0.4565417232955612
  0
VERTEX
  5
FA3
  8
SAPA_FOGBAND
 62
     2
 10
138.79032484903101
 20
479.7027003165154
 30
0.0
  0
VERTEX
  5
FA4
  8
SAPA_FOGBAND
 62
     2
 10
139.80054649971231
 20
479.52457098300448
 30
0.0
  0
VERTEX
  5
FA5
  8
SAPA_FOGBAND
 62
     2
 10
139.73108722864549
 20
479.13064788179958
 30
0.0
 42
0.6720594905598717
  0
VERTEX
  5
FA6
  8
SAPA_FOGBAND
 62
     2
 10
140.04451252479811
 20
478.93332613092099
 30
0.0
  0
VERTEX
  5
FA7
  8
SAPA_FOGBAND
 62
     2
 10
141.88762163238141
 20
480.25353399998681
 30
0.0
 42
0.4079520108343612
  0
VERTEX
  5
FA8
  8
SAPA_FOGBAND
 62
     2
 10
142.03338009836071
 20
481.08017133815002
 30
0.0
  0
VERTEX
  5
FA9
  8
SAPA_FOGBAND
 62
     2
 10
140.75296175525881
 20
482.95114137175511
 30
0.0
 42
0.6720594905598635
  0
VERTEX
  5
FAA
  8
SAPA_FOGBAND
 62
     2
 10
140.39095030377979
 20
482.872917343246
 30
0.0
  0
VERTEX
  5
FAB
  8
SAPA_FOGBAND
 62
     2
 10
140.321491032713
 20
482.4789942420411
 30
0.0
  0
VERTEX
  5
FAC
  8
SAPA_FOGBAND
 62
     2
 10
139.43516405500199
 20
482.63527760194143
 30
0.0
 42
-0.4142135623730951
  0
VERTEX
  5
FAD
  8
SAPA_FOGBAND
 62
     2
 10
139.19181618239841
 20
482.98281438114498
 30
0.0
  0
VERTEX
  5
FAE
  8
SAPA_FOGBAND
 62
     2
 10
139.39989294965449
 20
484.38116044176871
 30
0.0
 42
0.4313344489874135
  0
VERTEX
  5
FAF
  8
SAPA_FOGBAND
 62
     2
 10
139.13930205799821
 20
484.73122364767698
 30
0.0
  0
VERTEX
  5
FB0
  8
SAPA_FOGBAND
 62
     2
 10
138.43131253370771
 20
484.81403249973829
 30
0.0
 42
0.3972974670000809
  0
VERTEX
  5
FB1
  8
SAPA_FOGBAND
 62
     2
 10
137.8808229334559
 20
484.40424200089137
 30
0.0
  0
VERTEX
  5
FB2
  8
SAPA_FOGBAND
 62
     2
 10
136.91094337527409
 20
478.9037816953558
 30
0.0
  0
VERTEX
  5
FB3
  8
SAPA_FOGBAND
 62
     2
 10
136.91094337527409
 20
477.16838201043322
 30
0.0
 42
-0.4147066859863004
  0
VERTEX
  5
FB4
  8
SAPA_FOGBAND
 62
     2
 10
135.41094550048811
 20
475.66585700800562
 30
0.0
  0
VERTEX
  5
FB5
  8
SAPA_FOGBAND
 62
     2
 10
133.208418910902
 20
475.66585700800567
 30
0.0
 42
-0.601131774324047
  0
VERTEX
  5
FB6
  8
SAPA_FOGBAND
 62
     2
 10
133.276321588466
 20
476.58543596058291
 30
0.0
 42
0.2227389711612139
  0
VERTEX
  5
FB7
  8
SAPA_FOGBAND
 62
     2
 10
133.3879944275937
 20
476.7133051298016
 30
0.0
  0
VERTEX
  5
FB8
  8
SAPA_FOGBAND
 62
     2
 10
133.91101274668679
 20
478.53514230283957
 30
0.0
 42
-0.1796843201953831
  0
VERTEX
  5
FB9
  8
SAPA_FOGBAND
 62
     2
 10
134.8318587138744
 20
479.7592141681813
 30
0.0
 42
1.0
  0
VERTEX
  5
FBA
  8
SAPA_FOGBAND
 62
     2
 10
134.23802019747541
 20
480.68514927197691
 30
0.0
  0
SEQEND
  5
FBB
  8
SAPA_FOGBAND
 62
     2
  0
INSERT
  5
922
  8
SAPA_FOGBAND
  6
CONTINUOUS
 62
     2
  2
*U72
 10
0.0
 20
0.0
 30
0.0
1001
ACAD
1002
{
1000
R14_HATCH_DATA
1000
922
1011
1.0
1021
0.0
1031
0.0
1021
0.0
1031
0.0
1011
0.0
1021
0.0
1031
0.0
1021
1.0
1031
0.0
1011
0.0
1021
0.0
1031
0.0
1021
0.0
1031
1.0
1040
0.0
1010
0.0
1020
0.0
1030
1.0
1000
SOLID
1070
     1
1070
     0
1071
        1
1071
        1
1071
        1
1070
     2
1040
137.61895078426679
1040
478.4879638130318
1040
0.2549509756796394
1040
3.1415926535897931
1040
9.4247779607693793
1070
     1
1071
        0
1070
     0
1070
     1
1071
        1
1040
144.7287989242522
1040
487.4686829935531
1040
0.0
1002
}
  0
POLYLINE
  5
923
  8
SAPA_FOGBAND
 62
     2
 66
     1
 10
0.0
 20
0.0
 30
0.0
 70
     1
  0
VERTEX
  5
FCD
  8
SAPA_FOGBAND
 62
     2
 10
139.26151587733511
 20
481.65046984892911
 30
0.0
 42
1.0
  0
VERTEX
  5
FCE
  8
SAPA_FOGBAND
 62
     2
 10
139.0878676996681
 20
480.6656620959169
 30
0.0
  0
VERTEX
  5
FCF
  8
SAPA_FOGBAND
 62
     2
 10
140.5650793291864
 20
480.40518982941649
 30
0.0
 42
0.9999999999999998
  0
VERTEX
  5
FD0
  8
SAPA_FOGBAND
 62
     2
 10
140.73872750685339
 20
481.38999758242869
 30
0.0
  0
SEQEND
  5
FD1
  8
SAPA_FOGBAND
 62
     2
  0
POLYLINE
  5
924
  8
SAPA_FOGBAND
 66
     1
 10
0.0
 20
0.0
 30
0.0
 70
     1
  0
VERTEX
  5
FD2
  8
SAPA_FOGBAND
 10
261.79904312099728
 20
498.0892512622051
 30
0.0
  0
VERTEX
  5
FD3
  8
SAPA_FOGBAND
 10
262.99904312099733
 20
498.0892512622051
 30
0.0
 42
0.4142135623730951
  0
VERTEX
  5
FD4
  8
SAPA_FOGBAND
 10
263.29904312099728
 20
498.38925126220511
 30
0.0
  0
VERTEX
  5
FD5
  8
SAPA_FOGBAND
 10
263.29904312099728
 20
499.28925126220508
 30
0.0
  0
VERTEX
  5
FD6
  8
SAPA_FOGBAND
 10
262.94904312099737
 20
499.28925126220508
 30
0.0
 42
-0.6681786379192988
  0
VERTEX
  5
FD7
  8
SAPA_FOGBAND
 10
262.73691108664133
 20
499.8013832965612
 30
0.0
  0
VERTEX
  5
FD8
  8
SAPA_FOGBAND
 10
263.59046447723472
 20
500.6549366871543
 30
0.0
 42
-0.1989123673796552
  0
VERTEX
  5
FD9
  8
SAPA_FOGBAND
 10
264.15614990218381
 20
500.88925126220499
 30
0.0
  0
VERTEX
  5
FDA
  8
SAPA_FOGBAND
 10
264.3188450246036
 20
500.88925126220499
 30
0.0
 42
-0.3394542588633746
  0
VERTEX
  5
FDB
  8
SAPA_FOGBAND
 10
264.60862277249038
 20
500.66689697573588
 30
0.0
  0
VERTEX
  5
FDC
  8
SAPA_FOGBAND
 10
264.97177201588028
 20
499.31160554867432
 30
0.0
 42
0.3394542588633746
  0
VERTEX
  5
FDD
  8
SAPA_FOGBAND
 10
265.26154976376711
 20
499.08925126220521
 30
0.0
  0
VERTEX
  5
FDE
  8
SAPA_FOGBAND
 10
267.83653647822752
 20
499.08925126220521
 30
0.0
 42
0.3394542588633746
  0
VERTEX
  5
FDF
  8
SAPA_FOGBAND
 10
268.12631422611429
 20
499.31160554867432
 30
0.0
  0
VERTEX
  5
FE0
  8
SAPA_FOGBAND
 10
268.48946346950441
 20
500.66689697573588
 30
0.0
 42
-0.3394542588633744
  0
VERTEX
  5
FE1
  8
SAPA_FOGBAND
 10
268.77924121739102
 20
500.88925126220499
 30
0.0
  0
VERTEX
  5
FE2
  8
SAPA_FOGBAND
 10
268.94193633981098
 20
500.88925126220499
 30
0.0
 42
-0.1989123673796526
  0
VERTEX
  5
FE3
  8
SAPA_FOGBAND
 10
269.50762176476007
 20
500.6549366871543
 30
0.0
  0
VERTEX
  5
FE4
  8
SAPA_FOGBAND
 10
270.36117515535341
 20
499.8013832965612
 30
0.0
 42
-0.6681786379193474
  0
VERTEX
  5
FE5
  8
SAPA_FOGBAND
 10
270.14904312099742
 20
499.28925126220508
 30
0.0
  0
VERTEX
  5
FE6
  8
SAPA_FOGBAND
 10
269.79904312099728
 20
499.28925126220508
 30
0.0
  0
VERTEX
  5
FE7
  8
SAPA_FOGBAND
 10
269.79904312099728
 20
498.38925126220511
 30
0.0
 42
0.4142135623730951
  0
VERTEX
  5
FE8
  8
SAPA_FOGBAND
 10
270.09904312099752
 20
498.0892512622051
 30
0.0
  0
VERTEX
  5
FE9
  8
SAPA_FOGBAND
 10
272.19904312099737
 20
498.0892512622051
 30
0.0
 42
0.4142135623730951
  0
VERTEX
  5
FEA
  8
SAPA_FOGBAND
 10
272.49904312099733
 20
498.38925126220511
 30
0.0
  0
VERTEX
  5
FEB
  8
SAPA_FOGBAND
 10
272.49904312099733
 20
499.78925126220508
 30
0.0
 42
-0.7754026414786132
  0
VERTEX
  5
FEC
  8
SAPA_FOGBAND
 10
273.06183511640501
 20
499.93395913051103
 30
0.0
 42
0.1086822875051356
  0
VERTEX
  5
FED
  8
SAPA_FOGBAND
 10
277.2118832749959
 20
492.00587674037428
 30
0.0
 42
-0.8680589103334746
  0
VERTEX
  5
FEE
  8
SAPA_FOGBAND
 10
276.73695924523207
 20
491.64903683771229
 30
0.0
  0
VERTEX
  5
FEF
  8
SAPA_FOGBAND
 10
272.76692384808052
 20
494.47683715885643
 30
0.0
 42
0.1989123673796536
  0
VERTEX
  5
FF0
  8
SAPA_FOGBAND
 10
272.0598170668938
 20
494.76973037766959
 30
0.0
  0
VERTEX
  5
FF1
  8
SAPA_FOGBAND
 10
269.22649810247412
 20
494.76973037766959
 30
0.0
 42
0.577350269189628
  0
VERTEX
  5
FF2
  8
SAPA_FOGBAND
 10
268.96669048133879
 20
494.31973037766983
 30
0.0
  0
VERTEX
  5
FF3
  8
SAPA_FOGBAND
 10
271.10481917775058
 20
492.01497627431559
 30
0.0
 42
-0.8769764629927301
  0
VERTEX
  5
FF4
  8
SAPA_FOGBAND
 10
270.63287952225932
 20
491.65284423995939
 30
0.0
  0
VERTEX
  5
FF5
  8
SAPA_FOGBAND
 10
266.66665152735447
 20
494.47683715885643
 30
0.0
 42
0.198912367379658
  0
VERTEX
  5
FF6
  8
SAPA_FOGBAND
 10
265.95954474616792
 20
494.76973037766959
 30
0.0
  0
VERTEX
  5
FF7
  8
SAPA_FOGBAND
 10
263.7272703839464
 20
494.76973037766959
 30
0.0
 42
0.5773502691896441
  0
VERTEX
  5
FF8
  8
SAPA_FOGBAND
 10
263.4674627628109
 20
494.31973037766983
 30
0.0
  0
VERTEX
  5
FF9
  8
SAPA_FOGBAND
 10
265.6050898843402
 20
492.01584502749603
 30
0.0
 42
-0.87697646299276
  0
VERTEX
  5
FFA
  8
SAPA_FOGBAND
 10
265.13315022884888
 20
491.65371299313978
 30
0.0
  0
VERTEX
  5
FFB
  8
SAPA_FOGBAND
 10
261.09193633981079
 20
494.55269180617
 30
0.0
 42
-0.198912367379658
  0
VERTEX
  5
FFC
  8
SAPA_FOGBAND
 10
260.79904312099728
 20
495.25979858735639
 30
0.0
  0
VERTEX
  5
FFD
  8
SAPA_FOGBAND
 10
260.79904312099728
 20
497.0892512622051
 30
0.0
  0
VERTEX
  5
FFE
  8
SAPA_FOGBAND
 10
260.79904312099728
 20
497.07931947189189
 30
0.0
  0
SEQEND
  5
FFF
  8
SAPA_FOGBAND
  0
POLYLINE
  5
925
  8
SAPA_FOGBAND
 66
     1
 10
0.0
 20
0.0
 30
0.0
 70
     1
  0
VERTEX
  5
1000
  8
SAPA_FOGBAND
 10
260.79904986833719
 20
482.59757432886158
 30
0.0
 42
0.4142135623730951
  0
VERTEX
  5
1001
  8
SAPA_FOGBAND
 10
261.79904986833731
 20
481.59757432886158
 30
0.0
  0
VERTEX
  5
1002
  8
SAPA_FOGBAND
 10
262.99904986833729
 20
481.59757432886158
 30
0.0
 42
-0.4142135623730951
  0
VERTEX
  5
1003
  8
SAPA_FOGBAND
 10
263.29904986833731
 20
481.29757432886157
 30
0.0
  0
VERTEX
  5
1004
  8
SAPA_FOGBAND
 10
263.29904986833731
 20
480.39757432886171
 30
0.0
  0
VERTEX
  5
1005
  8
SAPA_FOGBAND
 10
262.94904986833711
 20
480.39757432886171
 30
0.0
 42
0.6681786379193472
  0
VERTEX
  5
1006
  8
SAPA_FOGBAND
 10
262.73691783398129
 20
479.88544229450582
 30
0.0
  0
VERTEX
  5
1007
  8
SAPA_FOGBAND
 10
263.59047122457451
 20
479.03188890391237
 30
0.0
 42
0.1989123673796526
  0
VERTEX
  5
1008
  8
SAPA_FOGBAND
 10
264.15615664952378
 20
478.79757432886157
 30
0.0
  0
VERTEX
  5
1009
  8
SAPA_FOGBAND
 10
264.31885177194363
 20
478.79757432886157
 30
0.0
 42
0.3394542588633746
  0
VERTEX
  5
100A
  8
SAPA_FOGBAND
 10
264.60862951983029
 20
479.0199286153308
 30
0.0
  0
VERTEX
  5
100B
  8
SAPA_FOGBAND
 10
264.97177876322019
 20
480.37522004239253
 30
0.0
 42
-0.3394542588633744
  0
VERTEX
  5
100C
  8
SAPA_FOGBAND
 10
265.26155651110702
 20
480.59757432886153
 30
0.0
  0
VERTEX
  5
100D
  8
SAPA_FOGBAND
 10
267.83654322556748
 20
480.59757432886153
 30
0.0
 42
-0.3394542588633746
  0
VERTEX
  5
100E
  8
SAPA_FOGBAND
 10
268.12632097345431
 20
480.37522004239253
 30
0.0
  0
VERTEX
  5
100F
  8
SAPA_FOGBAND
 10
268.4894702168441
 20
479.0199286153308
 30
0.0
 42
0.3394542588633747
  0
VERTEX
  5
1010
  8
SAPA_FOGBAND
 10
268.77924796473093
 20
478.79757432886157
 30
0.0
  0
VERTEX
  5
1011
  8
SAPA_FOGBAND
 10
268.94194308715072
 20
478.79757432886157
 30
0.0
 42
0.1989123673796526
  0
VERTEX
  5
1012
  8
SAPA_FOGBAND
 10
269.5076285121001
 20
479.03188890391237
 30
0.0
  0
VERTEX
  5
1013
  8
SAPA_FOGBAND
 10
270.3611819026932
 20
479.88544229450582
 30
0.0
 42
0.6681786379193474
  0
VERTEX
  5
1014
  8
SAPA_FOGBAND
 10
270.14904986833739
 20
480.39757432886171
 30
0.0
  0
VERTEX
  5
1015
  8
SAPA_FOGBAND
 10
269.79904986833731
 20
480.39757432886171
 30
0.0
  0
VERTEX
  5
1016
  8
SAPA_FOGBAND
 10
269.79904986833731
 20
481.29757432886157
 30
0.0
 42
-0.4142135623730951
  0
VERTEX
  5
1017
  8
SAPA_FOGBAND
 10
270.0990498683372
 20
481.59757432886158
 30
0.0
  0
VERTEX
  5
1018
  8
SAPA_FOGBAND
 10
272.1990498683374
 20
481.59757432886158
 30
0.0
 42
-0.4142135623730951
  0
VERTEX
  5
1019
  8
SAPA_FOGBAND
 10
272.49904986833729
 20
481.29757432886157
 30
0.0
  0
VERTEX
  5
101A
  8
SAPA_FOGBAND
 10
272.49904986833729
 20
479.89757432886171
 30
0.0
 42
0.7754026414785753
  0
VERTEX
  5
101B
  8
SAPA_FOGBAND
 10
273.06184186374497
 20
479.75286646055582
 30
0.0
  0
VERTEX
  5
101C
  8
SAPA_FOGBAND
 10
276.58154437429027
 20
485.02353025899652
 30
0.0
 42
0.8680589103334742
  0
VERTEX
  5
101D
  8
SAPA_FOGBAND
 10
276.10662034452679
 20
485.38037016165822
 30
0.0
  0
VERTEX
  5
101E
  8
SAPA_FOGBAND
 10
272.76693059542038
 20
483.39046754767509
 30
0.0
 42
-0.198912367379658
  0
VERTEX
  5
101F
  8
SAPA_FOGBAND
 10
272.05982381423382
 20
483.09757432886158
 30
0.0
  0
VERTEX
  5
1020
  8
SAPA_FOGBAND
 10
269.22650484981398
 20
483.09757432886158
 30
0.0
 42
-0.5773502691896282
  0
VERTEX
  5
1021
  8
SAPA_FOGBAND
 10
268.96669722867881
 20
483.54757432886157
 30
0.0
  0
VERTEX
  5
1022
  8
SAPA_FOGBAND
 10
270.47448027704507
 20
485.01443072505549
 30
0.0
 42
0.8769764629927299
  0
VERTEX
  5
1023
  8
SAPA_FOGBAND
 10
270.00254062155381
 20
485.37656275941129
 30
0.0
  0
VERTEX
  5
1024
  8
SAPA_FOGBAND
 10
266.6666582746945
 20
483.39046754767509
 30
0.0
 42
-0.198912367379658
  0
VERTEX
  5
1025
  8
SAPA_FOGBAND
 10
265.95955149350777
 20
483.09757432886158
 30
0.0
  0
VERTEX
  5
1026
  8
SAPA_FOGBAND
 10
263.72727713128631
 20
483.09757432886158
 30
0.0
 42
-0.5773502691896282
  0
VERTEX
  5
1027
  8
SAPA_FOGBAND
 10
263.46746951015092
 20
483.54757432886157
 30
0.0
  0
VERTEX
  5
1028
  8
SAPA_FOGBAND
 10
264.97475098363469
 20
485.01356197187499
 30
0.0
 42
0.8769764629927299
  0
VERTEX
  5
1029
  8
SAPA_FOGBAND
 10
264.50281132814342
 20
485.37569400623102
 30
0.0
  0
VERTEX
  5
102A
  8
SAPA_FOGBAND
 10
261.09194308715081
 20
483.31461290036151
 30
0.0
 42
0.198912367379658
  0
VERTEX
  5
102B
  8
SAPA_FOGBAND
 10
260.79904986833719
 20
482.60750611917479
 30
0.0
  0
SEQEND
  5
102C
  8
SAPA_FOGBAND
  0
DIMENSION
  5
932
  8
SAPA_MATT
  2
*D66
 10
272.30564528064349
 20
451.60000000000002
 30
0.0
 11
212.30564528064349
 21
454.1002952755905
 31
0.0
 70
     0
 13
152.30564528064349
 23
476.01421356237182
 33
0.0
 14
272.30564528064349
 24
477.09999999999991
 34
0.0
1001
ACAD
1000
DSTYLE
1002
{
1070
    40
1040
1.0
1002
}
  0
DIMENSION
  5
933
  8
SAPA_MATT
  2
*D65
 10
152.30564528064349
 20
451.60000000000002
 30
0.0
 11
137.3056452806434
 21
454.10000000000002
 31
0.0
 70
     0
 13
122.3056452806434
 23
476.60000000000008
 33
0.0
 14
152.30564528064349
 24
476.01421356237182
 34
0.0
1001
ACAD
1000
DSTYLE
1002
{
1070
    40
1040
1.0
1002
}
  0
DIMENSION
  5
934
  8
SAPA_MATT
  2
*D64
 10
122.3056452806434
 20
451.60000000000002
 30
0.0
 11
99.805645280643375
 21
454.10000000000002
 31
0.0
 70
     0
 13
77.305645280643375
 23
476.60000000000008
 33
0.0
 14
122.3056452806434
 24
476.60000000000008
 34
0.0
1001
ACAD
1000
DSTYLE
1002
{
1070
    40
1040
1.0
1002
}
  0
DIMENSION
  5
935
  8
SAPA_MATT
  2
*D63
 10
272.28564528064351
 20
439.59999999999991
 30
0.0
 11
174.7956452806435
 21
442.10000000000002
 31
0.0
 70
     0
  1
195
 13
77.305645280643603
 23
461.63115058922881
 33
0.0
 14
272.28564528064351
 24
461.63115058922881
 34
0.0
1001
ACAD
1000
DSTYLE
1002
{
1070
    40
1040
1.0
1002
}
  0
LINE
  5
936
  8
SAPA_MATT
 10
109.38779781529151
 20
531.60000000000002
 30
0.0
 11
128.0004212990857
 21
531.60000000000002
 31
0.0
  0
LINE
  5
937
  8
SAPA_MATT
 10
80.454606024103484
 20
471.60000000000002
 30
0.0
 11
119.64137068904709
 21
471.60000000000002
 31
0.0
  0
DIMENSION
  5
938
  8
SAPA_MATT
  2
*D62
 10
45.308774314771647
 20
471.60000000000002
 30
0.0
 11
42.808774314771568
 21
501.60000000000002
 31
0.0
 70
     0
 13
91.047850390572606
 23
531.60000000000002
 33
0.0
 14
77.404405073412079
 24
471.60000000000002
 34
0.0
 50
90.0
1001
ACAD
1000
DSTYLE
1002
{
1070
    40
1040
1.0
1002
}
  0
DIMENSION
  5
939
  8
SAPA_MATT
  2
*D61
 10
57.30928854968311
 20
476.60000000000008
 30
0.0
 11
54.809288549683039
 21
501.60000000000008
 31
0.0
 70
     0
 13
77.305645280643603
 23
526.60000000000014
 33
0.0
 14
77.305645280643603
 24
476.60000000000008
 34
0.0
 50
90.0
1001
ACAD
1000
DSTYLE
1002
{
1070
    40
1040
1.0
1002
}
  0
ENDSEC
  0
EOF
