  0
SECTION
  2
HEADER
  9
$ACADVER
  1
AC1009
  9
$INSBASE
 10
34.08974904274919
 20
320.4645576268934
 30
0.0
  9
$EXTMIN
 10
-35.848052068234153
 20
-1.5
 30
0.0
  9
$EXTMAX
 10
211.1999999999999
 20
102.7601597428927
 30
0.0
  9
$LIMMIN
 10
0.0
 20
0.0
  9
$LIMMAX
 10
998.0
 20
710.0
  9
$ORTHOMODE
 70
     0
  9
$REGENMODE
 70
     1
  9
$FILLMODE
 70
     1
  9
$QTEXTMODE
 70
     0
  9
$MIRRTEXT
 70
     1
  9
$DRAGMODE
 70
     2
  9
$LTSCALE
 40
7.0
  9
$OSMODE
 70
   167
  9
$ATTMODE
 70
     1
  9
$TEXTSIZE
 40
6.0
  9
$TRACEWID
 40
0.05
  9
$TEXTSTYLE
  7
ISO
  9
$CLAYER
  8
0
  9
$CELTYPE
  6
BYLAYER
  9
$CECOLOR
 62
   256
  9
$DIMSCALE
 40
0.0
  9
$DIMASZ
 40
3.0
  9
$DIMEXO
 40
1.5
  9
$DIMDLI
 40
10.0
  9
$DIMRND
 40
0.0
  9
$DIMDLE
 40
0.0
  9
$DIMEXE
 40
1.5
  9
$DIMTP
 40
0.0
  9
$DIMTM
 40
0.0
  9
$DIMTXT
 40
3.0
  9
$DIMCEN
 40
-5.0
  9
$DIMTSZ
 40
0.0
  9
$DIMTOL
 70
     0
  9
$DIMLIM
 70
     0
  9
$DIMTIH
 70
     0
  9
$DIMTOH
 70
     1
  9
$DIMSE1
 70
     0
  9
$DIMSE2
 70
     0
  9
$DIMTAD
 70
     1
  9
$DIMZIN
 70
     8
  9
$DIMBLK
  1

  9
$DIMASO
 70
     1
  9
$DIMSHO
 70
     1
  9
$DIMPOST
  1

  9
$DIMAPOST
  1

  9
$DIMALT
 70
     0
  9
$DIMALTD
 70
     0
  9
$DIMALTF
 40
25.399999999999999
  9
$DIMLFAC
 40
-1.0
  9
$DIMTOFL
 70
     1
  9
$DIMTVP
 40
0.0
  9
$DIMTIX
 70
     0
  9
$DIMSOXD
 70
     0
  9
$DIMSAH
 70
     0
  9
$DIMBLK1
  1

  9
$DIMBLK2
  1

  9
$DIMSTYLE
  2
MASKIN
  9
$DIMCLRD
 70
   256
  9
$DIMCLRE
 70
   256
  9
$DIMCLRT
 70
     2
  9
$DIMTFAC
 40
1.0
  9
$DIMGAP
 40
1.0
  9
$LUNITS
 70
     2
  9
$LUPREC
 70
     2
  9
$SKETCHINC
 40
0.1
  9
$FILLETRAD
 40
0.0
  9
$AUNITS
 70
     0
  9
$AUPREC
 70
     2
  9
$MENU
  1
ACAD
  9
$ELEVATION
 40
0.0
  9
$PELEVATION
 40
0.0
  9
$THICKNESS
 40
0.0
  9
$LIMCHECK
 70
     0
  9
$BLIPMODE
 70
     0
  9
$CHAMFERA
 40
0.0
  9
$CHAMFERB
 40
0.0
  9
$SKPOLY
 70
     0
  9
$TDCREATE
 40
2449499.4236100698
  9
$TDUPDATE
 40
2456366.4592113658
  9
$TDINDWG
 40
0.1771562731
  9
$TDUSRTIMER
 40
0.1771562731
  9
$USRTIMER
 70
     1
  9
$ANGBASE
 50
0.0
  9
$ANGDIR
 70
     0
  9
$PDMODE
 70
     3
  9
$PDSIZE
 40
-5.0
  9
$PLINEWID
 40
0.0
  9
$COORDS
 70
     1
  9
$SPLFRAME
 70
     0
  9
$SPLINETYPE
 70
     6
  9
$SPLINESEGS
 70
     8
  9
$ATTDIA
 70
     0
  9
$ATTREQ
 70
     1
  9
$HANDLING
 70
     1
  9
$HANDSEED
  5
E96
  9
$SURFTAB1
 70
     6
  9
$SURFTAB2
 70
     6
  9
$SURFTYPE
 70
     6
  9
$SURFU
 70
     6
  9
$SURFV
 70
     6
  9
$UCSNAME
  2

  9
$UCSORG
 10
0.0
 20
0.0
 30
0.0
  9
$UCSXDIR
 10
1.0
 20
0.0
 30
0.0
  9
$UCSYDIR
 10
0.0
 20
1.0
 30
0.0
  9
$PUCSNAME
  2

  9
$PUCSORG
 10
0.0
 20
0.0
 30
0.0
  9
$PUCSXDIR
 10
1.0
 20
0.0
 30
0.0
  9
$PUCSYDIR
 10
0.0
 20
1.0
 30
0.0
  9
$USERI1
 70
     0
  9
$USERI2
 70
     0
  9
$USERI3
 70
     0
  9
$USERI4
 70
     0
  9
$USERI5
 70
     0
  9
$USERR1
 40
0.0
  9
$USERR2
 40
0.0
  9
$USERR3
 40
0.0
  9
$USERR4
 40
0.0
  9
$USERR5
 40
0.0
  9
$WORLDVIEW
 70
     1
  9
$SHADEDGE
 70
     1
  9
$SHADEDIF
 70
    70
  9
$TILEMODE
 70
     1
  9
$MAXACTVP
 70
    16
  9
$PLIMCHECK
 70
     0
  9
$PEXTMIN
 10
1.0000000000000000E+020
 20
1.0000000000000000E+020
 30
1.0000000000000000E+020
  9
$PEXTMAX
 10
-1.0000000000000000E+020
 20
-1.0000000000000000E+020
 30
-1.0000000000000000E+020
  9
$PLIMMIN
 10
-14.12592836160286
 20
-5.4102505909481797
  9
$PLIMMAX
 10
195.84739927511589
 20
291.55807216295813
  9
$UNITMODE
 70
     0
  9
$VISRETAIN
 70
     1
  9
$PLINEGEN
 70
     0
  9
$PSLTSCALE
 70
     1
  0
ENDSEC
  0
SECTION
  2
TABLES
  0
TABLE
  2
VPORT
 70
     1
  0
VPORT
  2
*ACTIVE
 70
     0
 10
0.0
 20
0.0
 11
1.0
 21
1.0
 12
157.62132841688211
 22
75.941980297213419
 13
0.0
 23
0.0
 14
5.0
 24
5.0
 15
10.0
 25
10.0
 16
0.0
 26
0.0
 36
1.0
 17
0.0
 27
0.0
 37
0.0
 40
131.09791990765109
 41
2.8418491484184911
 42
50.0
 43
0.0
 44
0.0
 50
0.0
 51
0.0
 71
     0
 72
   100
 73
     1
 74
     0
 75
     0
 76
     0
 77
     0
 78
     0
  0
ENDTAB
  0
TABLE
  2
LTYPE
 70
    21
  0
LTYPE
  2
CONTINUOUS
 70
     0
  3
Solid line
 72
    65
 73
     0
 40
0.0
  0
LTYPE
  2
BYGG-021997$0$NEWDOT
 70
     0
  3
____ . ____ . ____ . ____ . ____ . ____ . ____
 72
    65
 73
     4
 40
2.0
 49
1.0
 49
-0.5
 49
0.0
 49
-0.5
  0
LTYPE
  2
BYGG-021997$0$DASHDOT
 70
     0
  3
__ . __ . __ . __ . __ . __ . __ . __ . __ . __
 72
    65
 73
     4
 40
1.0
 49
0.5
 49
-0.25
 49
0.0
 49
-0.25
  0
LTYPE
  2
BYGG-021997$0$DASHED
 70
     0
  3
__ __ __ __ __ __ __ __ __ __ __ __ __ __ __
 72
    65
 73
     2
 40
0.75
 49
0.5
 49
-0.25
  0
LTYPE
  2
BYGG-021997$0$PHANTOM
 70
     0
  3
Phantom ______  __  __  ______  __  __  ______
 72
    65
 73
     6
 40
63.5
 49
31.75
 49
-6.3499999999999988
 49
6.3499999999999988
 49
-6.3499999999999988
 49
6.3499999999999988
 49
-6.3499999999999988
  0
LTYPE
  2
BYGG-014565$0$NEWDOT
 70
     0
  3
____ . ____ . ____ . ____ . ____ . ____ . ____
 72
    65
 73
     4
 40
2.0
 49
1.0
 49
-0.5
 49
0.0
 49
-0.5
  0
LTYPE
  2
BYGG-022478$0$NEWDOT
 70
     0
  3
____ . ____ . ____ . ____ . ____ . ____ . ____
 72
    65
 73
     4
 40
2.0
 49
1.0
 49
-0.5
 49
0.0
 49
-0.5
  0
LTYPE
  2
BYGG-022478$0$DASHDOT
 70
     0
  3
__ . __ . __ . __ . __ . __ . __ . __ . __ . __
 72
    65
 73
     4
 40
1.0
 49
0.5
 49
-0.25
 49
0.0
 49
-0.25
  0
LTYPE
  2
BYGG-022478$0$DASHED
 70
     0
  3
__ __ __ __ __ __ __ __ __ __ __ __ __ __ __
 72
    65
 73
     2
 40
0.75
 49
0.5
 49
-0.25
  0
LTYPE
  2
BYGG-022478$0$PHANTOM
 70
     0
  3
Phantom ______  __  __  ______  __  __  ______
 72
    65
 73
     6
 40
63.5
 49
31.75
 49
-6.3499999999999988
 49
6.3499999999999988
 49
-6.3499999999999988
 49
6.3499999999999988
 49
-6.3499999999999988
  0
LTYPE
  2
BYGG-014459$0$DASHDOT
 70
     0
  3
__ . __ . __ . __ . __ . __ . __ . __ . __ . __
 72
    65
 73
     4
 40
1.0
 49
0.5
 49
-0.25
 49
0.0
 49
-0.25
  0
LTYPE
  2
BYGG-022308$0$NEWDOT
 70
     0
  3
____ . ____ . ____ . ____ . ____ . ____ . ____
 72
    65
 73
     4
 40
2.0
 49
1.0
 49
-0.5
 49
0.0
 49
-0.5
  0
LTYPE
  2
BYGG-022308$0$DASHDOT
 70
     0
  3
__ . __ . __ . __ . __ . __ . __ . __ . __ . __
 72
    65
 73
     4
 40
1.0
 49
0.5
 49
-0.25
 49
0.0
 49
-0.25
  0
LTYPE
  2
BYGG-022308$0$DASHED
 70
     0
  3
__ __ __ __ __ __ __ __ __ __ __ __ __ __ __
 72
    65
 73
     2
 40
0.75
 49
0.5
 49
-0.25
  0
LTYPE
  2
BYGG-022308$0$PHANTOM
 70
     0
  3
Phantom ______  __  __  ______  __  __  ______
 72
    65
 73
     6
 40
63.5
 49
31.75
 49
-6.3499999999999988
 49
6.3499999999999988
 49
-6.3499999999999988
 49
6.3499999999999988
 49
-6.3499999999999988
  0
LTYPE
  2
BYGG-014533$0$NEWDOT
 70
     0
  3
____ . ____ . ____ . ____ . ____ . ____ . ____
 72
    65
 73
     4
 40
2.0
 49
1.0
 49
-0.5
 49
0.0
 49
-0.5
  0
LTYPE
  2
PHANTOM2
 70
     0
  3
Phantom (.5x) ___ _ _ ___ _ _ ___ _ _ ___ _ _
 72
    65
 73
     6
 40
1.25
 49
0.625
 49
-0.125
 49
0.125
 49
-0.125
 49
0.125
 49
-0.125
  0
LTYPE
  2
BYGG-014203$0$ZIGZAG
 70
     0
  3
Zig zag /\/\/\/\/\/\/\/\/\/\/\/\/\/\/\/\/\/\/\/\/\/\/\/
 72
    65
 73
     4
 40
20.32254
 49
0.00254
 49
-5.0800000000000001
 49
-10.16
 49
-5.0800000000000001
  0
LTYPE
  2
BYGG-014203$0$NEWDOT
 70
     0
  3
____ . ____ . ____ . ____ . ____ . ____ . ____
 72
    65
 73
     4
 40
2.0
 49
1.0
 49
-0.5
 49
0.0
 49
-0.5
  0
LTYPE
  2
BYGG-014565$0$ZIGZAG
 70
     0
  3
Zig zag /\/\/\/\/\/\/\/\/\/\/\/\/\/\/\/\/\/\/\/\/\/\/\/
 72
    65
 73
     4
 40
20.32254
 49
0.00254
 49
-5.0800000000000001
 49
-10.16
 49
-5.0800000000000001
  0
LTYPE
  2
BYGG-014533$0$ZIGZAG
 70
     0
  3
Zig zag /\/\/\/\/\/\/\/\/\/\/\/\/\/\/\/\/\/\/\/\/\/\/\/
 72
    65
 73
     4
 40
20.32254
 49
0.00254
 49
-5.0800000000000001
 49
-10.16
 49
-5.0800000000000001
  0
ENDTAB
  0
TABLE
  2
LAYER
 70
   123
  0
LAYER
  2
0
 70
     0
 62
     7
  6
CONTINUOUS
  0
LAYER
  2
DEFPOINTS
 70
     0
 62
     7
  6
CONTINUOUS
  0
LAYER
  2
SAPA_ARTIKELNR
 70
     0
 62
     4
  6
CONTINUOUS
  0
LAYER
  2
SAPA_MATT
 70
     0
 62
     1
  6
CONTINUOUS
  0
LAYER
  2
SAPA_ANSLUTNING
 70
     0
 62
     6
  6
CONTINUOUS
  0
LAYER
  2
SAPA_LIGHT
 70
     1
 62
     1
  6
CONTINUOUS
  0
LAYER
  2
SAPA_GLAS
 70
     0
 62
     4
  6
CONTINUOUS
  0
LAYER
  2
SAPA_FOGBAND
 70
     0
 62
     2
  6
CONTINUOUS
  0
LAYER
  2
SAPA_PROFIL
 70
     0
 62
     7
  6
CONTINUOUS
  0
ENDTAB
  0
TABLE
  2
STYLE
 70
    19
  0
STYLE
  2
STANDARD
 70
     0
 40
0.0
 41
1.0
 50
0.0
 71
     0
 42
0.2
  3
txt
  4

  0
STYLE
  2
ISO
 70
     0
 40
0.0
 41
1.0
 50
0.0
 71
     0
 42
6.0
  3
isocp3.shx
  4

  0
STYLE
  2

 70
     1
 40
0.0
 41
1.0
 50
0.0
 71
     0
 42
0.2
  3
ltypeshp.shx
  4

  0
STYLE
  2
BYGG-021997$0$STANDARD
 70
     0
 40
0.0
 41
1.0
 50
0.0
 71
     0
 42
0.2
  3
txt
  4

  0
STYLE
  2
BYGG-021997$0$ISO
 70
     0
 40
0.0
 41
1.0
 50
0.0
 71
     0
 42
3.5
  3
txt
  4

  0
STYLE
  2
BYGG-014203$0$STANDARD
 70
     0
 40
0.0
 41
1.0
 50
0.0
 71
     0
 42
0.2
  3
txt
  4

  0
STYLE
  2
BYGG-014203$0$ISO
 70
     0
 40
0.0
 41
1.0
 50
0.0
 71
     0
 42
3.5
  3
isocp3.shx
  4

  0
STYLE
  2
BYGG-022466$0$STANDARD
 70
     0
 40
0.0
 41
1.0
 50
0.0
 71
     0
 42
0.2
  3
txt
  4

  0
STYLE
  2
BYGG-022466$0$ISO
 70
     0
 40
0.0
 41
1.0
 50
0.0
 71
     0
 42
3.5
  3
txt
  4

  0
STYLE
  2
BYGG-014565$0$STANDARD
 70
     0
 40
0.0
 41
1.0
 50
0.0
 71
     0
 42
0.2
  3
isocp3.shx
  4

  0
STYLE
  2
BYGG-014565$0$ISO
 70
     0
 40
0.0
 41
1.0
 50
0.0
 71
     0
 42
3.5
  3
isocp3.shx
  4

  0
STYLE
  2
BYGG-022478$0$STANDARD
 70
     0
 40
0.0
 41
1.0
 50
0.0
 71
     0
 42
0.2
  3
txt
  4

  0
STYLE
  2
BYGG-022478$0$ISO
 70
     0
 40
0.0
 41
1.0
 50
0.0
 71
     0
 42
3.5
  3
txt
  4

  0
STYLE
  2
BYGG-014459$0$STANDARD
 70
     0
 40
0.0
 41
1.0
 50
0.0
 71
     0
 42
0.2
  3
txt
  4

  0
STYLE
  2
BYGG-014459$0$ISO
 70
     0
 40
0.0
 41
1.0
 50
0.0
 71
     0
 42
3.5
  3
isocp3.shx
  4

  0
STYLE
  2
BYGG-022308$0$STANDARD
 70
     0
 40
0.0
 41
1.0
 50
0.0
 71
     0
 42
0.2
  3
txt
  4

  0
STYLE
  2
BYGG-022308$0$ISO
 70
     0
 40
0.0
 41
1.0
 50
0.0
 71
     0
 42
3.5
  3
txt
  4

  0
STYLE
  2
BYGG-014533$0$STANDARD
 70
     0
 40
0.0
 41
1.0
 50
0.0
 71
     0
 42
0.2
  3
txt
  4

  0
STYLE
  2
BYGG-014533$0$ISO
 70
     0
 40
0.0
 41
1.0
 50
0.0
 71
     0
 42
2.5
  3
isocp3.shx
  4

  0
ENDTAB
  0
TABLE
  2
VIEW
 70
     0
  0
ENDTAB
  0
TABLE
  2
UCS
 70
     0
  0
ENDTAB
  0
TABLE
  2
APPID
 70
    18
  0
APPID
  2
ACAD
 70
     0
  0
APPID
  2
ACAECLAYERSTANDARD
 70
     0
  0
APPID
  2
ACAD_MLEADERVER
 70
     0
  0
APPID
  2
ACAD_DSTYLE_DIMTEXT_FILL
 70
     0
  0
APPID
  2
ACAD_DSTYLE_DIMEXT_LENGTH
 70
     0
  0
APPID
  2
ACAD_DSTYLE_DIMEXT_ENABLED
 70
     0
  0
APPID
  2
ACAD_DSTYLE_DIM_LINETYPE
 70
     0
  0
APPID
  2
ACAD_DSTYLE_DIM_EXT1_LINETYPE
 70
     0
  0
APPID
  2
ACAD_DSTYLE_DIM_EXT2_LINETYPE
 70
     0
  0
APPID
  2
ACAD_DSTYLE_DIMJOGGED_JOGA
 70
     0
  0
APPID
  2
ACAD_DSTYLE_DIMARC_LENGTH_
 70
     0
  0
APPID
  2
ACAD_PSEXT
 70
     0
  0
APPID
  2
AMG_ARCHIVE11
 70
     0
  0
APPID
  2
ACAD_EXEMPT_FROM_CAD_STANDARDS
 70
     0
  0
APPID
  2
ACADANNOTATIVE
 70
     0
  0
APPID
  2
ACAD_NAV_VCDISPLAY
 70
     0
  0
APPID
  2
AEC_XDATA_BOUND_SPACE
 70
     0
  0
APPID
  2
ACCMTRANSPARENCY
 70
     0
  0
ENDTAB
  0
TABLE
  2
DIMSTYLE
 70
    17
  0
DIMSTYLE
  2
MASKIN
 70
     0
  3

  4

  5

  6

  7

 40
0.0
 41
3.0
 42
1.5
 43
10.0
 44
1.5
 45
0.0
 46
0.0
 47
0.0
 48
0.0
140
3.0
141
-5.0
142
0.0
143
25.399999999999999
144
-1.0
145
0.0
146
1.0
147
1.0
 71
     0
 72
     0
 73
     0
 74
     1
 75
     0
 76
     0
 77
     1
 78
     8
170
     0
171
     0
172
     1
173
     0
174
     0
175
     0
176
   256
177
   256
178
     2
  0
DIMSTYLE
  2
STANDARD
 70
     0
  3

  4

  5

  6

  7

 40
1.0
 41
0.18
 42
0.0625
 43
0.38
 44
0.18
 45
0.0
 46
0.0
 47
0.0
 48
0.0
140
0.18
141
0.09
142
0.0
143
25.399999999999999
144
1.0
145
0.0
146
1.0
147
0.09
 71
     0
 72
     0
 73
     1
 74
     1
 75
     0
 76
     0
 77
     0
 78
     0
170
     0
171
     2
172
     0
173
     0
174
     0
175
     0
176
     0
177
     0
178
     0
  0
DIMSTYLE
  2
BYGG-021997$0$STANDARD
 70
     0
  3

  4

  5

  6

  7

 40
1.0
 41
0.18
 42
0.0625
 43
0.38
 44
0.18
 45
0.0
 46
0.0
 47
0.0
 48
0.0
140
0.18
141
0.09
142
0.0
143
25.399999999999999
144
1.0
145
0.0
146
1.0
147
0.09
 71
     0
 72
     0
 73
     1
 74
     1
 75
     0
 76
     0
 77
     0
 78
     0
170
     0
171
     2
172
     0
173
     0
174
     0
175
     0
176
     0
177
     0
178
     0
  0
DIMSTYLE
  2
BYGG-021997$0$MASKIN
 70
     0
  3

  4

  5

  6

  7

 40
0.0
 41
3.0
 42
1.5
 43
10.0
 44
1.5
 45
0.0
 46
0.0
 47
0.0
 48
0.0
140
3.0
141
-5.0
142
0.0
143
25.399999999999999
144
-1.0
145
0.0
146
1.0
147
1.0
 71
     0
 72
     0
 73
     0
 74
     0
 75
     0
 76
     0
 77
     1
 78
     8
170
     0
171
     0
172
     1
173
     0
174
     0
175
     0
176
   256
177
   256
178
     2
  0
DIMSTYLE
  2
BYGG-014203$0$STANDARD
 70
     0
  3

  4

  5

  6

  7

 40
1.0
 41
0.18
 42
0.0625
 43
0.38
 44
0.18
 45
0.0
 46
0.0
 47
0.0
 48
0.0
140
0.18
141
0.09
142
0.0
143
25.399999999999999
144
1.0
145
0.0
146
1.0
147
0.09
 71
     0
 72
     0
 73
     1
 74
     1
 75
     0
 76
     0
 77
     0
 78
     0
170
     0
171
     2
172
     0
173
     0
174
     0
175
     0
176
     0
177
     0
178
     0
  0
DIMSTYLE
  2
BYGG-014203$0$MASKIN
 70
     0
  3

  4

  5

  6

  7

 40
0.0
 41
3.0
 42
1.5
 43
10.0
 44
1.5
 45
0.0
 46
0.0
 47
0.0
 48
0.0
140
3.0
141
-5.0
142
0.0
143
25.399999999999999
144
-1.0
145
0.0
146
1.0
147
1.0
 71
     0
 72
     0
 73
     0
 74
     0
 75
     0
 76
     0
 77
     1
 78
     8
170
     0
171
     0
172
     1
173
     0
174
     0
175
     0
176
   256
177
   256
178
   256
  0
DIMSTYLE
  2
BYGG-022466$0$MASKIN
 70
     0
  3

  4

  5

  6

  7

 40
0.0
 41
3.0
 42
1.5
 43
10.0
 44
1.5
 45
0.0
 46
0.0
 47
0.0
 48
0.0
140
3.0
141
-5.0
142
0.0
143
25.399999999999999
144
-1.0
145
0.0
146
1.0
147
1.0
 71
     0
 72
     0
 73
     0
 74
     0
 75
     0
 76
     0
 77
     1
 78
     8
170
     0
171
     0
172
     1
173
     0
174
     0
175
     0
176
   256
177
   256
178
     2
  0
DIMSTYLE
  2
BYGG-022466$0$STANDARD
 70
     0
  3

  4

  5

  6

  7

 40
1.0
 41
0.18
 42
0.0625
 43
0.38
 44
0.18
 45
0.0
 46
0.0
 47
0.0
 48
0.0
140
0.18
141
0.09
142
0.0
143
25.399999999999999
144
1.0
145
0.0
146
1.0
147
0.09
 71
     0
 72
     0
 73
     1
 74
     1
 75
     0
 76
     0
 77
     0
 78
     0
170
     0
171
     2
172
     0
173
     0
174
     0
175
     0
176
     0
177
     0
178
     0
  0
DIMSTYLE
  2
BYGG-014565$0$STANDARD
 70
     0
  3

  4

  5

  6

  7

 40
1.0
 41
0.18
 42
0.0625
 43
0.38
 44
0.18
 45
0.0
 46
0.0
 47
0.0
 48
0.0
140
0.18
141
0.09
142
0.0
143
25.399999999999999
144
1.0
145
0.0
146
1.0
147
0.09
 71
     0
 72
     0
 73
     1
 74
     1
 75
     0
 76
     0
 77
     0
 78
     0
170
     0
171
     2
172
     0
173
     0
174
     0
175
     0
176
     0
177
     0
178
     0
  0
DIMSTYLE
  2
BYGG-014565$0$MASKIN
 70
     0
  3

  4

  5

  6

  7

 40
0.0
 41
3.0
 42
1.5
 43
10.0
 44
1.5
 45
0.0
 46
0.0
 47
0.0
 48
0.0
140
3.0
141
-5.0
142
0.0
143
25.399999999999999
144
-1.0
145
0.0
146
1.0
147
1.0
 71
     0
 72
     0
 73
     0
 74
     0
 75
     0
 76
     0
 77
     1
 78
     8
170
     0
171
     0
172
     1
173
     0
174
     0
175
     0
176
   256
177
   256
178
     2
  0
DIMSTYLE
  2
BYGG-022478$0$STANDARD
 70
     0
  3

  4

  5

  6

  7

 40
1.0
 41
0.18
 42
0.0625
 43
0.38
 44
0.18
 45
0.0
 46
0.0
 47
0.0
 48
0.0
140
0.18
141
0.09
142
0.0
143
25.399999999999999
144
1.0
145
0.0
146
1.0
147
0.09
 71
     0
 72
     0
 73
     1
 74
     1
 75
     0
 76
     0
 77
     0
 78
     0
170
     0
171
     2
172
     0
173
     0
174
     0
175
     0
176
     0
177
     0
178
     0
  0
DIMSTYLE
  2
BYGG-022478$0$MASKIN
 70
     0
  3

  4

  5

  6

  7

 40
0.0
 41
3.0
 42
1.5
 43
10.0
 44
1.5
 45
0.0
 46
0.0
 47
0.0
 48
0.0
140
3.0
141
-5.0
142
0.0
143
25.399999999999999
144
-1.0
145
0.0
146
1.0
147
1.0
 71
     0
 72
     0
 73
     0
 74
     0
 75
     0
 76
     0
 77
     1
 78
     8
170
     0
171
     0
172
     1
173
     0
174
     0
175
     0
176
   256
177
   256
178
     2
  0
DIMSTYLE
  2
BYGG-014459$0$MASKIN
 70
     0
  3

  4

  5

  6

  7

 40
0.0
 41
3.0
 42
1.5
 43
10.0
 44
1.5
 45
0.0
 46
0.0
 47
0.0
 48
0.0
140
3.0
141
-5.0
142
0.0
143
25.399999999999999
144
-1.0
145
0.0
146
1.0
147
1.0
 71
     0
 72
     0
 73
     0
 74
     0
 75
     0
 76
     0
 77
     1
 78
     8
170
     0
171
     0
172
     1
173
     0
174
     0
175
     0
176
   256
177
   256
178
   256
  0
DIMSTYLE
  2
BYGG-022308$0$STANDARD
 70
     0
  3

  4

  5

  6

  7

 40
1.0
 41
0.18
 42
0.0625
 43
0.38
 44
0.18
 45
0.0
 46
0.0
 47
0.0
 48
0.0
140
0.18
141
0.09
142
0.0
143
25.399999999999999
144
1.0
145
0.0
146
1.0
147
0.09
 71
     0
 72
     0
 73
     1
 74
     1
 75
     0
 76
     0
 77
     0
 78
     0
170
     0
171
     2
172
     0
173
     0
174
     0
175
     0
176
     0
177
     0
178
     0
  0
DIMSTYLE
  2
BYGG-022308$0$MASKIN
 70
     0
  3

  4

  5

  6

  7

 40
0.0
 41
3.0
 42
1.5
 43
10.0
 44
1.5
 45
0.0
 46
0.0
 47
0.0
 48
0.0
140
3.0
141
-5.0
142
0.0
143
25.399999999999999
144
-1.0
145
0.0
146
1.0
147
1.0
 71
     0
 72
     0
 73
     0
 74
     0
 75
     0
 76
     0
 77
     1
 78
     8
170
     0
171
     0
172
     1
173
     0
174
     0
175
     0
176
   256
177
   256
178
     2
  0
DIMSTYLE
  2
BYGG-014533$0$STANDARD
 70
     0
  3

  4

  5

  6

  7

 40
1.0
 41
0.18
 42
0.0625
 43
0.38
 44
0.18
 45
0.0
 46
0.0
 47
0.0
 48
0.0
140
0.18
141
0.09
142
0.0
143
25.399999999999999
144
1.0
145
0.0
146
1.0
147
0.09
 71
     0
 72
     0
 73
     1
 74
     1
 75
     0
 76
     0
 77
     0
 78
     0
170
     0
171
     2
172
     0
173
     0
174
     0
175
     0
176
     0
177
     0
178
     0
  0
DIMSTYLE
  2
BYGG-014533$0$MASKIN
 70
     0
  3

  4

  5

  6

  7

 40
0.0
 41
3.0
 42
1.5
 43
10.0
 44
1.5
 45
0.0
 46
0.0
 47
0.0
 48
0.0
140
3.0
141
-5.0
142
0.0
143
25.399999999999999
144
-1.0
145
0.0
146
1.0
147
1.0
 71
     0
 72
     0
 73
     0
 74
     1
 75
     0
 76
     0
 77
     1
 78
     8
170
     0
171
     0
172
     1
173
     0
174
     0
175
     0
176
   256
177
   256
178
     2
  0
ENDTAB
  0
ENDSEC
  0
SECTION
  2
BLOCKS
  0
BLOCK
  8
0
  2
$MODEL_SPACE
 70
     0
 10
0.0
 20
0.0
 30
0.0
  3
$MODEL_SPACE
  1

  0
ENDBLK
  5
B
  8
0
  0
BLOCK
 67
     1
  8
0
  2
$PAPER_SPACE
 70
     0
 10
0.0
 20
0.0
 30
0.0
  3
$PAPER_SPACE
  1

  0
ENDBLK
  5
10
 67
     1
  8
0
  0
BLOCK
  8
0
  2
*D66
 70
     1
 10
0.0
 20
0.0
 30
0.0
  3
*D66
  1

  0
LINE
  5
82B
  8
SAPA_MATT
 10
-0.0000000000000569
 20
35.503333333333607
 30
0.0
 11
-0.0000000000000585
 21
10.50333333333338
 31
0.0
  0
LINE
  5
82C
  8
SAPA_MATT
 10
45.0
 20
35.503333333333607
 30
0.0
 11
45.0
 21
10.50333333333338
 31
0.0
  0
LINE
  5
82D
  8
SAPA_MATT
 10
2.9999999999999409
 20
12.003333333333391
 30
0.0
 11
42.0
 21
12.003333333333391
 31
0.0
  0
SOLID
  5
82E
  8
SAPA_MATT
 10
2.9999999999999409
 20
12.503333333333391
 30
0.0
 11
2.9999999999999409
 21
11.50333333333338
 31
0.0
 12
-0.0000000000000584
 22
12.003333333333391
 32
0.0
 13
-0.0000000000000584
 23
12.003333333333391
 33
0.0
  0
SOLID
  5
82F
  8
SAPA_MATT
 10
42.0
 20
12.503333333333391
 30
0.0
 11
42.0
 21
11.50333333333338
 31
0.0
 12
45.0
 22
12.003333333333391
 32
0.0
 13
45.0
 23
12.003333333333391
 33
0.0
  0
INSERT
  5
830
  8
0
  2
*U76
 10
0.0
 20
0.0
 30
0.0
  0
POINT
  5
831
  8
DEFPOINTS
 62
     0
 10
-0.0000000000000568
 20
37.003333333333607
 30
0.0
  0
POINT
  5
832
  8
DEFPOINTS
 62
     0
 10
45.0
 20
37.003333333333607
 30
0.0
  0
POINT
  5
833
  8
DEFPOINTS
 62
     0
 10
45.0
 20
12.003333333333391
 30
0.0
  0
ENDBLK
  5
7D3
  8
0
  0
BLOCK
  8
0
  2
*D67
 70
     1
 10
0.0
 20
0.0
 30
0.0
  3
*D67
  1

  0
LINE
  5
822
  8
SAPA_MATT
 10
45.0
 20
35.503333333333607
 30
0.0
 11
45.0
 21
10.50333333333338
 31
0.0
  0
LINE
  5
823
  8
SAPA_MATT
 10
75.000000000000142
 20
34.91754689570638
 30
0.0
 11
75.000000000000142
 21
10.50333333333338
 31
0.0
  0
LINE
  5
824
  8
SAPA_MATT
 10
48.0
 20
12.003333333333391
 30
0.0
 11
72.000000000000142
 21
12.003333333333391
 31
0.0
  0
SOLID
  5
825
  8
SAPA_MATT
 10
48.0
 20
12.503333333333391
 30
0.0
 11
48.0
 21
11.50333333333338
 31
0.0
 12
45.0
 22
12.003333333333391
 32
0.0
 13
45.0
 23
12.003333333333391
 33
0.0
  0
SOLID
  5
826
  8
SAPA_MATT
 10
72.000000000000142
 20
12.503333333333391
 30
0.0
 11
72.000000000000142
 21
11.50333333333338
 31
0.0
 12
75.000000000000142
 22
12.003333333333391
 32
0.0
 13
75.000000000000142
 23
12.003333333333391
 33
0.0
  0
INSERT
  5
827
  8
0
  2
*U75
 10
0.0
 20
0.0
 30
0.0
  0
POINT
  5
828
  8
DEFPOINTS
 62
     0
 10
45.0
 20
37.003333333333607
 30
0.0
  0
POINT
  5
829
  8
DEFPOINTS
 62
     0
 10
75.000000000000142
 20
36.41754689570638
 30
0.0
  0
POINT
  5
82A
  8
DEFPOINTS
 62
     0
 10
75.000000000000142
 20
12.003333333333391
 30
0.0
  0
ENDBLK
  5
7DF
  8
0
  0
BLOCK
  8
0
  2
*D68
 70
     1
 10
0.0
 20
0.0
 30
0.0
  3
*D68
  1

  0
LINE
  5
819
  8
SAPA_MATT
 10
75.000000000000142
 20
34.91754689570638
 30
0.0
 11
75.000000000000142
 21
10.50333333333338
 31
0.0
  0
LINE
  5
81A
  8
SAPA_MATT
 10
195.00000000000011
 20
36.003333333333387
 30
0.0
 11
195.00000000000011
 21
10.50333333333338
 31
0.0
  0
LINE
  5
81B
  8
SAPA_MATT
 10
78.000000000000142
 20
12.003333333333391
 30
0.0
 11
192.00000000000011
 21
12.003333333333391
 31
0.0
  0
SOLID
  5
81C
  8
SAPA_MATT
 10
78.000000000000142
 20
12.503333333333391
 30
0.0
 11
78.000000000000142
 21
11.50333333333338
 31
0.0
 12
75.000000000000142
 22
12.003333333333391
 32
0.0
 13
75.000000000000142
 23
12.003333333333391
 33
0.0
  0
SOLID
  5
81D
  8
SAPA_MATT
 10
192.00000000000011
 20
12.503333333333391
 30
0.0
 11
192.00000000000011
 21
11.50333333333338
 31
0.0
 12
195.00000000000011
 22
12.003333333333391
 32
0.0
 13
195.00000000000011
 23
12.003333333333391
 33
0.0
  0
INSERT
  5
81E
  8
0
  2
*U74
 10
0.0
 20
0.0
 30
0.0
  0
POINT
  5
81F
  8
DEFPOINTS
 62
     0
 10
75.000000000000142
 20
36.41754689570638
 30
0.0
  0
POINT
  5
820
  8
DEFPOINTS
 62
     0
 10
195.00000000000011
 20
37.503333333333387
 30
0.0
  0
POINT
  5
821
  8
DEFPOINTS
 62
     0
 10
195.00000000000011
 20
12.003333333333391
 30
0.0
  0
ENDBLK
  5
7EB
  8
0
  0
BLOCK
  8
0
  2
*D69
 70
     1
 10
0.0
 20
0.0
 30
0.0
  3
*D69
  1

  0
LINE
  5
846
  8
SAPA_MATT
 10
-0.0000000000000001
 20
20.534483922562341
 30
0.0
 11
-0.0000000000000014
 21
-1.5
 31
0.0
  0
LINE
  5
847
  8
SAPA_MATT
 10
194.97999999999979
 20
20.534483922562341
 30
0.0
 11
194.97999999999979
 21
-1.5
 31
0.0
  0
LINE
  5
848
  8
SAPA_MATT
 10
2.9999999999999978
 20
0.0
 30
0.0
 11
191.97999999999979
 21
0.0
 31
0.0
  0
SOLID
  5
849
  8
SAPA_MATT
 10
2.9999999999999978
 20
0.5
 30
0.0
 11
2.9999999999999978
 21
-0.5
 31
0.0
 12
-0.0000000000000013
 22
0.0
 32
0.0
 13
-0.0000000000000013
 23
0.0
 33
0.0
  0
SOLID
  5
84A
  8
SAPA_MATT
 10
191.97999999999979
 20
0.5
 30
0.0
 11
191.97999999999979
 21
-0.5
 31
0.0
 12
194.97999999999979
 22
0.0
 32
0.0
 13
194.97999999999979
 23
0.0
 33
0.0
  0
INSERT
  5
84B
  8
0
  2
*U79
 10
0.0
 20
0.0
 30
0.0
  0
POINT
  5
84C
  8
DEFPOINTS
 62
     0
 10
0.0
 20
22.034483922562341
 30
0.0
  0
POINT
  5
84D
  8
DEFPOINTS
 62
     0
 10
194.97999999999979
 20
22.034483922562341
 30
0.0
  0
POINT
  5
84E
  8
DEFPOINTS
 62
     0
 10
194.97999999999979
 20
0.0
 30
0.0
  0
ENDBLK
  5
7F7
  8
0
  0
BLOCK
  8
0
  2
*D70
 70
     1
 10
0.0
 20
0.0
 30
0.0
  3
*D70
  1

  0
LINE
  5
83D
  8
SAPA_MATT
 10
12.242205109928991
 20
92.003333333333501
 30
0.0
 11
-33.496870965871942
 21
92.003333333333515
 31
0.0
  0
LINE
  5
83E
  8
SAPA_MATT
 10
-1.4012402072315231
 20
32.003333333333501
 30
0.0
 11
-33.496870965871949
 21
32.003333333333508
 31
0.0
  0
LINE
  5
83F
  8
SAPA_MATT
 10
-31.996870965871938
 20
89.003333333333501
 30
0.0
 11
-31.996870965871949
 21
35.003333333333508
 31
0.0
  0
SOLID
  5
840
  8
SAPA_MATT
 10
-32.496870965871942
 20
89.003333333333515
 30
0.0
 11
-31.496870965871931
 21
89.003333333333501
 31
0.0
 12
-31.996870965871938
 22
92.003333333333501
 32
0.0
 13
-31.996870965871938
 23
92.003333333333501
 33
0.0
  0
SOLID
  5
841
  8
SAPA_MATT
 10
-32.496870965871949
 20
35.003333333333508
 30
0.0
 11
-31.496870965871949
 21
35.003333333333508
 31
0.0
 12
-31.996870965871949
 22
32.003333333333508
 32
0.0
 13
-31.996870965871949
 23
32.003333333333508
 33
0.0
  0
INSERT
  5
842
  8
0
  2
*U78
 10
0.0
 20
0.0
 30
0.0
  0
POINT
  5
843
  8
DEFPOINTS
 62
     0
 10
13.742205109928991
 20
92.003333333333501
 30
0.0
  0
POINT
  5
844
  8
DEFPOINTS
 62
     0
 10
0.098759792768476
 20
32.003333333333501
 30
0.0
  0
POINT
  5
845
  8
DEFPOINTS
 62
     0
 10
-31.996870965871949
 20
32.003333333333508
 30
0.0
  0
ENDBLK
  5
803
  8
0
  0
BLOCK
  8
0
  2
*D71
 70
     1
 10
0.0
 20
0.0
 30
0.0
  3
*D71
  1

  0
LINE
  5
834
  8
SAPA_MATT
 10
-1.5
 20
87.003333333333615
 30
0.0
 11
-21.496356730960478
 21
87.003333333333615
 31
0.0
  0
LINE
  5
835
  8
SAPA_MATT
 10
-1.5
 20
37.003333333333607
 30
0.0
 11
-21.496356730960489
 21
37.003333333333622
 31
0.0
  0
LINE
  5
836
  8
SAPA_MATT
 10
-19.996356730960471
 20
84.003333333333615
 30
0.0
 11
-19.996356730960478
 21
40.003333333333622
 31
0.0
  0
SOLID
  5
837
  8
SAPA_MATT
 10
-20.496356730960478
 20
84.003333333333615
 30
0.0
 11
-19.496356730960471
 21
84.003333333333615
 31
0.0
 12
-19.996356730960471
 22
87.003333333333615
 32
0.0
 13
-19.996356730960471
 23
87.003333333333615
 33
0.0
  0
SOLID
  5
838
  8
SAPA_MATT
 10
-20.496356730960478
 20
40.003333333333622
 30
0.0
 11
-19.496356730960478
 21
40.003333333333622
 31
0.0
 12
-19.996356730960478
 22
37.003333333333622
 32
0.0
 13
-19.996356730960478
 23
37.003333333333622
 33
0.0
  0
INSERT
  5
839
  8
0
  2
*U77
 10
0.0
 20
0.0
 30
0.0
  0
POINT
  5
83A
  8
DEFPOINTS
 62
     0
 10
0.0
 20
87.003333333333615
 30
0.0
  0
POINT
  5
83B
  8
DEFPOINTS
 62
     0
 10
0.0
 20
37.003333333333607
 30
0.0
  0
POINT
  5
83C
  8
DEFPOINTS
 62
     0
 10
-19.996356730960478
 20
37.003333333333622
 30
0.0
  0
ENDBLK
  5
80F
  8
0
  0
BLOCK
  8
0
  2
*X72
 70
     1
 10
0.0
 20
0.0
 30
0.0
  3
*X72
  1

  0
LINE
  5
865
  8
0
 62
     0
 10
0.5804502545376847
 20
82.626082372538377
 30
0.0
 11
0.3102796578350786
 21
82.782065439271733
 31
0.0
  0
LINE
  5
866
  8
0
 62
     0
 10
2.8537669394718348
 20
81.313582372538377
 30
0.0
 11
2.0959947111604489
 21
81.751082372538363
 31
0.0
  0
LINE
  5
867
  8
0
 62
     0
 10
5.1270836244059872
 20
80.001082372538377
 30
0.0
 11
4.3693113960946004
 21
80.438582372538377
 31
0.0
  0
LINE
  5
868
  8
0
 62
     0
 10
-2.4506386588965721
 20
82.626082372211755
 30
0.0
 11
-2.9925441932487278
 21
82.938951678345319
 31
0.0
  0
LINE
  5
869
  8
0
 62
     0
 10
-0.1773219739624219
 20
81.313582372211755
 30
0.0
 11
-0.9350942022738074
 21
81.751082372211755
 31
0.0
  0
LINE
  5
86A
  8
0
 62
     0
 10
2.0959947109717292
 20
80.001082372211755
 30
0.0
 11
1.338222482660343
 21
80.438582372211755
 31
0.0
  0
LINE
  5
86B
  8
0
 62
     0
 10
4.3693113959058802
 20
78.688582372211755
 30
0.0
 11
3.6115391675944939
 21
79.126082372211755
 31
0.0
  0
LINE
  5
86C
  8
0
 62
     0
 10
-3.2084108873965671
 20
81.313582371885076
 30
0.0
 11
-3.9661831157079521
 21
81.751082371885076
 31
0.0
  0
LINE
  5
86D
  8
0
 62
     0
 10
-0.9350942024624169
 20
80.001082371885076
 30
0.0
 11
-1.6928664307738011
 21
80.438582371885076
 31
0.0
  0
LINE
  5
86E
  8
0
 62
     0
 10
1.3382224824717339
 20
78.688582371885076
 30
0.0
 11
0.5804502541603492
 21
79.126082371885076
 31
0.0
  0
LINE
  5
86F
  8
0
 62
     0
 10
3.6115391674058852
 20
77.376082371885076
 30
0.0
 11
2.8537669390945002
 21
77.813582371885076
 31
0.0
  0
LINE
  5
870
  8
0
 62
     0
 10
-6.2394998008306324
 20
81.313582371558311
 30
0.0
 11
-6.9972720291420174
 21
81.751082371558297
 31
0.0
  0
LINE
  5
871
  8
0
 62
     0
 10
-3.9661831158964809
 20
80.001082371558311
 30
0.0
 11
-4.723955344207865
 21
80.438582371558311
 31
0.0
  0
LINE
  5
872
  8
0
 62
     0
 10
-1.69286643096233
 20
78.688582371558311
 30
0.0
 11
-2.4506386592737148
 21
79.126082371558311
 31
0.0
  0
LINE
  5
873
  8
0
 62
     0
 10
0.5804502539718209
 20
77.376082371558311
 30
0.0
 11
-0.1773219743395642
 21
77.813582371558311
 31
0.0
  0
LINE
  5
874
  8
0
 62
     0
 10
2.816220558560929
 20
76.085259784357604
 30
0.0
 11
2.095994710594586
 21
76.501082371558311
 31
0.0
  0
LINE
  5
875
  8
0
 62
     0
 10
-6.9972720293307402
 20
80.001082371231689
 30
0.0
 11
-7.7550442576421244
 21
80.438582371231689
 31
0.0
  0
LINE
  5
876
  8
0
 62
     0
 10
-4.7239553443965878
 20
78.688582371231689
 30
0.0
 11
-5.481727572707972
 21
79.126082371231689
 31
0.0
  0
LINE
  5
877
  8
0
 62
     0
 10
-2.4506386594624372
 20
77.376082371231675
 30
0.0
 11
-3.20841088777382
 21
77.813582371231689
 31
0.0
  0
LINE
  5
878
  8
0
 62
     0
 10
-0.1773219745282866
 20
76.063582371231689
 30
0.0
 11
-0.9350942028396698
 21
76.501082371231689
 31
0.0
  0
LINE
  5
879
  8
0
 62
     0
 10
-7.7550442578306988
 20
78.688582370904982
 30
0.0
 11
-8.5128164861420839
 21
79.126082370904982
 31
0.0
  0
LINE
  5
87A
  8
0
 62
     0
 10
-5.4817275728965491
 20
77.376082370904982
 30
0.0
 11
-6.2394998012079324
 21
77.813582370904982
 31
0.0
  0
LINE
  5
87B
  8
0
 62
     0
 10
-3.208410887962398
 20
76.063582370904982
 30
0.0
 11
-3.9661831162737808
 21
76.501082370904982
 31
0.0
  0
LINE
  5
87C
  8
0
 62
     0
 10
-1.632777458899511
 20
75.15388998649135
 30
0.0
 11
-1.6928664313396311
 21
75.188582370904982
 31
0.0
  0
LINE
  5
87D
  8
0
 62
     0
 10
-8.512816486330653
 20
77.376082370578246
 30
0.0
 11
-8.8064601737741093
 21
77.545617632569559
 31
0.0
  0
LINE
  5
87E
  8
0
 62
     0
 10
-6.2394998013965033
 20
76.063582370578246
 30
0.0
 11
-6.9972720297078856
 21
76.501082370578246
 31
0.0
  0
LINE
  5
87F
  8
0
 62
     0
 10
3.6115391640108401
 20
45.876082366004539
 30
0.0
 11
2.8537669356994591
 21
46.313582366004539
 31
0.0
  0
LINE
  5
880
  8
0
 62
     0
 10
0.5804502505766727
 20
45.87608236567786
 30
0.0
 11
-0.1773219777347093
 21
46.31358236567786
 31
0.0
  0
LINE
  5
881
  8
0
 62
     0
 10
2.8537669355108228
 20
44.56358236567786
 30
0.0
 11
2.0959947071994409
 21
45.001082365677853
 31
0.0
  0
LINE
  5
882
  8
0
 62
     0
 10
4.9999999999999982
 20
43.324454128151352
 30
0.0
 11
4.369311392133592
 21
43.68858236567786
 31
0.0
  0
LINE
  5
883
  8
0
 62
     0
 10
-2.450638662857453
 20
45.876082365351181
 30
0.0
 11
-3.2084108911688349
 21
46.313582365351181
 31
0.0
  0
LINE
  5
884
  8
0
 62
     0
 10
-0.1773219779233024
 20
44.563582365351181
 30
0.0
 11
-0.9350942062346848
 21
45.001082365351181
 31
0.0
  0
LINE
  5
885
  8
0
 62
     0
 10
2.0959947070108478
 20
43.251082365351166
 30
0.0
 11
1.3382224786994661
 21
43.688582365351181
 31
0.0
  0
LINE
  5
886
  8
0
 62
     0
 10
4.3693113919449988
 20
41.938582365351181
 30
0.0
 11
3.6115391636336169
 21
42.376082365351181
 31
0.0
  0
LINE
  5
887
  8
0
 62
     0
 10
-5.4817275762916333
 20
45.876082365024487
 30
0.0
 11
-6.2394998046030148
 21
46.313582365024502
 31
0.0
  0
LINE
  5
888
  8
0
 62
     0
 10
-3.2084108913574818
 20
44.563582365024502
 30
0.0
 11
-3.9661831196688651
 21
45.001082365024502
 31
0.0
  0
LINE
  5
889
  8
0
 62
     0
 10
-0.9350942064233315
 20
43.251082365024502
 30
0.0
 11
-1.692866434734714
 21
43.688582365024487
 31
0.0
  0
LINE
  5
88A
  8
0
 62
     0
 10
1.338222478510819
 20
41.938582365024502
 30
0.0
 11
0.5804502501994362
 21
42.376082365024502
 31
0.0
  0
LINE
  5
88B
  8
0
 62
     0
 10
3.611539163444955
 20
40.626082365024502
 30
0.0
 11
2.8537669351335722
 21
41.063582365024502
 31
0.0
  0
LINE
  5
88C
  8
0
 62
     0
 10
-8.5128164897258252
 20
45.876082364697787
 30
0.0
 11
-9.0000000000000409
 21
46.157357895499359
 31
0.0
  0
LINE
  5
88D
  8
0
 62
     0
 10
-6.2394998047916719
 20
44.563582364697787
 30
0.0
 11
-6.997272033103056
 21
45.001082364697787
 31
0.0
  0
LINE
  5
88E
  8
0
 62
     0
 10
-3.9661831198575221
 20
43.251082364697787
 30
0.0
 11
-4.7239553481689054
 21
43.688582364697787
 31
0.0
  0
LINE
  5
88F
  8
0
 62
     0
 10
-1.6928664349233711
 20
41.938582364697787
 30
0.0
 11
-2.4506386632347539
 21
42.376082364697787
 31
0.0
  0
LINE
  5
890
  8
0
 62
     0
 10
0.570462967727906
 20
40.631848524812277
 30
0.0
 11
-0.1773219783006041
 21
41.063582364697787
 31
0.0
  0
LINE
  5
891
  8
0
 62
     0
 10
-6.9972720332916643
 20
43.251082364371108
 30
0.0
 11
-7.7550442616030484
 21
43.688582364371122
 31
0.0
  0
LINE
  5
892
  8
0
 62
     0
 10
-4.7239553483575127
 20
41.938582364371108
 30
0.0
 11
-5.481727576668896
 21
42.376082364371108
 31
0.0
  0
LINE
  5
893
  8
0
 62
     0
 10
-2.4506386634233621
 20
40.626082364371108
 30
0.0
 11
-3.2084108917347449
 21
41.063582364371108
 31
0.0
  0
LINE
  5
894
  8
0
 62
     0
 10
-0.1773219784892115
 20
39.313582364371122
 30
0.0
 11
-0.9350942068005947
 21
39.751082364371122
 31
0.0
  0
LINE
  5
895
  8
0
 62
     0
 10
-7.7550442617916957
 20
41.9385823640444
 30
0.0
 11
-8.5128164901030807
 21
42.3760823640444
 31
0.0
  0
LINE
  5
896
  8
0
 62
     0
 10
-5.4817275768575451
 20
40.6260823640444
 30
0.0
 11
-6.2394998051689292
 21
41.063582364044407
 31
0.0
  0
LINE
  5
897
  8
0
 62
     0
 10
-3.208410891923394
 20
39.313582364044407
 30
0.0
 11
-3.9661831202347781
 21
39.751082364044407
 31
0.0
  0
LINE
  5
898
  8
0
 62
     0
 10
-0.9350942069892438
 20
38.001082364044407
 30
0.0
 11
-1.6928664353006271
 21
38.438582364044407
 31
0.0
  0
LINE
  5
899
  8
0
 62
     0
 10
-8.5128164902916161
 20
40.6260823637177
 30
0.0
 11
-9.0000000000001048
 21
40.907357894192643
 31
0.0
  0
LINE
  5
89A
  8
0
 62
     0
 10
-6.2394998053574628
 20
39.3135823637177
 30
0.0
 11
-6.997272033668847
 21
39.7510823637177
 31
0.0
  0
LINE
  5
89B
  8
0
 62
     0
 10
-3.9661831204233118
 20
38.0010823637177
 30
0.0
 11
-4.7239553487346964
 21
38.4385823637177
 31
0.0
  0
LINE
  5
89C
  8
0
 62
     0
 10
-2.2380311065955421
 20
37.00333333333365
 30
0.0
 11
-2.450638663800544
 21
37.1260823637177
 31
0.0
  0
LINE
  5
89D
  8
0
 62
     0
 10
-6.9972720338575369
 20
38.001082363391049
 30
0.0
 11
-7.7550442621689211
 21
38.438582363391049
 31
0.0
  0
LINE
  5
89E
  8
0
 62
     0
 10
-5.2691200205954942
 20
37.003333333333607
 30
0.0
 11
-5.4817275772347704
 21
37.126082363391049
 31
0.0
  0
LINE
  5
89F
  8
0
 62
     0
 10
-8.3002089345955596
 20
37.003333333333671
 30
0.0
 11
-8.5128164906689126
 21
37.12608236306437
 31
0.0
  0
LINE
  5
8A0
  8
0
 62
     0
 10
-6.9972720559256363
 20
81.751082489167985
 30
0.0
 11
-7.7550442842370204
 21
81.31358248916797
 31
0.0
  0
LINE
  5
8A1
  8
0
 62
     0
 10
-8.5128165123596862
 20
79.126082488841291
 30
0.0
 11
-9.2705887406710712
 21
78.688582488841291
 31
0.0
  0
LINE
  5
8A2
  8
0
 62
     0
 10
-6.2394998274255373
 20
80.438582488841291
 30
0.0
 11
-6.9972720557369197
 21
80.001082488841305
 31
0.0
  0
LINE
  5
8A3
  8
0
 62
     0
 10
-3.966183142491384
 20
81.751082488841291
 30
0.0
 11
-4.7239553708027682
 21
81.313582488841291
 31
0.0
  0
LINE
  5
8A4
  8
0
 62
     0
 10
-1.84922665768562
 20
82.973307885206623
 30
0.0
 11
-2.4506386858686149
 21
82.626082488841291
 31
0.0
  0
LINE
  5
8A5
  8
0
 62
     0
 10
-7.7550442838596902
 20
77.813582488514584
 30
0.0
 11
-8.5128165121710726
 21
77.376082488514584
 31
0.0
  0
LINE
  5
8A6
  8
0
 62
     0
 10
-5.481727598925537
 20
79.126082488514584
 30
0.0
 11
-6.2394998272369211
 21
78.688582488514584
 31
0.0
  0
LINE
  5
8A7
  8
0
 62
     0
 10
-3.208410913991385
 20
80.438582488514584
 30
0.0
 11
-3.9661831423027691
 21
80.001082488514584
 31
0.0
  0
LINE
  5
8A8
  8
0
 62
     0
 10
-0.9350942290572334
 20
81.751082488514584
 30
0.0
 11
-1.6928664573686161
 21
81.313582488514584
 31
0.0
  0
LINE
  5
8A9
  8
0
 62
     0
 10
0.7207182059269705
 20
82.707066243580243
 30
0.0
 11
0.5804502275655353
 21
82.626082488514584
 31
0.0
  0
LINE
  5
8AA
  8
0
 62
     0
 10
-6.9972720553597494
 20
76.501082488187876
 30
0.0
 11
-7.3002284208877137
 21
76.326170548997595
 31
0.0
  0
LINE
  5
8AB
  8
0
 62
     0
 10
-4.7239553704255961
 20
77.813582488187876
 30
0.0
 11
-5.4817275987369802
 21
77.376082488187876
 31
0.0
  0
LINE
  5
8AC
  8
0
 62
     0
 10
-2.450638685491445
 20
79.126082488187876
 30
0.0
 11
-3.2084109138028278
 21
78.688582488187876
 31
0.0
  0
LINE
  5
8AD
  8
0
 62
     0
 10
-0.1773220005572926
 20
80.438582488187876
 30
0.0
 11
-0.9350942288686759
 21
80.001082488187876
 31
0.0
  0
LINE
  5
8AE
  8
0
 62
     0
 10
2.0959946843768589
 20
81.751082488187876
 30
0.0
 11
1.3382224560654761
 21
81.313582488187876
 31
0.0
  0
LINE
  5
8AF
  8
0
 62
     0
 10
-3.96618314192555
 20
76.501082487861197
 30
0.0
 11
-4.7239553702369337
 21
76.063582487861197
 31
0.0
  0
LINE
  5
8B0
  8
0
 62
     0
 10
-1.692866456991398
 20
77.813582487861197
 30
0.0
 11
-2.4506386853027822
 21
77.376082487861197
 31
0.0
  0
LINE
  5
8B1
  8
0
 62
     0
 10
0.5804502279427535
 20
79.126082487861197
 30
0.0
 11
-0.1773220003686302
 21
78.688582487861197
 31
0.0
  0
LINE
  5
8B2
  8
0
 62
     0
 10
2.853766912876905
 20
80.438582487861197
 30
0.0
 11
2.0959946845655208
 21
80.001082487861197
 31
0.0
  0
LINE
  5
8B3
  8
0
 62
     0
 10
-0.9350942284914442
 20
76.501082487534504
 30
0.0
 11
-1.6928664568028271
 21
76.063582487534504
 31
0.0
  0
LINE
  5
8B4
  8
0
 62
     0
 10
1.338222456442707
 20
77.813582487534518
 30
0.0
 11
0.580450228131324
 21
77.376082487534518
 31
0.0
  0
LINE
  5
8B5
  8
0
 62
     0
 10
3.6115391413768601
 20
79.126082487534518
 30
0.0
 11
2.853766913065475
 21
78.688582487534504
 31
0.0
  0
LINE
  5
8B6
  8
0
 62
     0
 10
5.1823567497679051
 20
80.032994456586877
 30
0.0
 11
5.1270835979996283
 21
80.001082487534518
 31
0.0
  0
LINE
  5
8B7
  8
0
 62
     0
 10
2.0959946849426738
 20
76.50108248720781
 30
0.0
 11
1.3382224566312899
 21
76.06358248720781
 31
0.0
  0
LINE
  5
8B8
  8
0
 62
     0
 10
4.3693113698768258
 20
77.81358248720781
 30
0.0
 11
3.6115391415654421
 21
77.37608248720781
 31
0.0
  0
LINE
  5
8B9
  8
0
 62
     0
 10
-7.7550442804645758
 20
46.313582482634189
 30
0.0
 11
-8.5128165087759609
 21
45.876082482634189
 31
0.0
  0
LINE
  5
8BA
  8
0
 62
     0
 10
-6.997272051964595
 20
45.001082482307467
 30
0.0
 11
-7.7550442802759791
 21
44.563582482307481
 31
0.0
  0
LINE
  5
8BB
  8
0
 62
     0
 10
-4.7239553670304417
 20
46.313582482307481
 30
0.0
 11
-5.4817275953418259
 21
45.876082482307481
 31
0.0
  0
LINE
  5
8BC
  8
0
 62
     0
 10
-8.5128165083988545
 20
42.376082481980688
 30
0.0
 11
-9.0000000000000622
 21
42.094806961959982
 31
0.0
  0
LINE
  5
8BD
  8
0
 62
     0
 10
-6.2394998234647021
 20
43.688582481980681
 30
0.0
 11
-6.9972720517760871
 21
43.251082481980688
 31
0.0
  0
LINE
  5
8BE
  8
0
 62
     0
 10
-3.9661831385305502
 20
45.001082481980688
 30
0.0
 11
-4.7239553668419338
 21
44.563582481980688
 31
0.0
  0
LINE
  5
8BF
  8
0
 62
     0
 10
-1.6928664535963991
 20
46.313582481980681
 30
0.0
 11
-2.4506386819077828
 21
45.876082481980681
 31
0.0
  0
LINE
  5
8C0
  8
0
 62
     0
 10
-7.7550442798988719
 20
41.063582481653981
 30
0.0
 11
-8.5128165082102552
 21
40.626082481653981
 31
0.0
  0
LINE
  5
8C1
  8
0
 62
     0
 10
-5.4817275949647204
 20
42.376082481653981
 30
0.0
 11
-6.2394998232761028
 21
41.938582481653981
 31
0.0
  0
LINE
  5
8C2
  8
0
 62
     0
 10
-3.208410910030568
 20
43.688582481653967
 30
0.0
 11
-3.9661831383419508
 21
43.251082481653981
 31
0.0
  0
LINE
  5
8C3
  8
0
 62
     0
 10
-0.935094225096417
 20
45.001082481653981
 30
0.0
 11
-1.6928664534077991
 21
44.563582481653981
 31
0.0
  0
LINE
  5
8C4
  8
0
 62
     0
 10
1.338222459837735
 20
46.313582481653981
 30
0.0
 11
0.5804502315263527
 21
45.876082481653967
 31
0.0
  0
LINE
  5
8C5
  8
0
 62
     0
 10
-6.9972720513988742
 20
39.75108248132733
 30
0.0
 11
-7.7550442797102557
 21
39.31358248132733
 31
0.0
  0
LINE
  5
8C6
  8
0
 62
     0
 10
-4.7239553664647209
 20
41.06358248132733
 30
0.0
 11
-5.4817275947761042
 21
40.62608248132733
 31
0.0
  0
LINE
  5
8C7
  8
0
 62
     0
 10
-2.450638681530569
 20
42.376082481327323
 30
0.0
 11
-3.2084109098419522
 21
41.93858248132733
 31
0.0
  0
LINE
  5
8C8
  8
0
 62
     0
 10
-0.177321996596417
 20
43.68858248132733
 30
0.0
 11
-0.9350942249077998
 21
43.25108248132733
 31
0.0
  0
LINE
  5
8C9
  8
0
 62
     0
 10
2.0959946883377349
 20
45.00108248132733
 30
0.0
 11
1.3382224600263519
 21
44.563582481327323
 31
0.0
  0
LINE
  5
8CA
  8
0
 62
     0
 10
4.3693113732718869
 20
46.31358248132733
 30
0.0
 11
3.6115391449605041
 21
45.87608248132733
 31
0.0
  0
LINE
  5
8CB
  8
0
 62
     0
 10
-8.5128165078330014
 20
37.126082481000587
 30
0.0
 11
-8.7254242681780312
 21
37.003333333333593
 31
0.0
  0
LINE
  5
8CC
  8
0
 62
     0
 10
-6.239499822898849
 20
38.438582481000601
 30
0.0
 11
-6.9972720512102313
 21
38.001082481000587
 31
0.0
  0
LINE
  5
8CD
  8
0
 62
     0
 10
-3.9661831379646961
 20
39.751082481000601
 30
0.0
 11
-4.723955366276078
 21
39.313582481000587
 31
0.0
  0
LINE
  5
8CE
  8
0
 62
     0
 10
-1.6928664530305451
 20
41.063582481000587
 30
0.0
 11
-2.4506386813419261
 21
40.626082481000587
 31
0.0
  0
LINE
  5
8CF
  8
0
 62
     0
 10
0.5804502319036075
 20
42.376082481000587
 30
0.0
 11
-0.1773219964077746
 21
41.938582481000587
 31
0.0
  0
LINE
  5
8D0
  8
0
 62
     0
 10
2.8537669168377588
 20
43.688582481000587
 30
0.0
 11
2.0959946885263769
 21
43.251082481000587
 31
0.0
  0
LINE
  5
8D1
  8
0
 62
     0
 10
4.9999999999999432
 20
44.927710729307947
 30
0.0
 11
4.3693113734605289
 21
44.563582481000587
 31
0.0
  0
LINE
  5
8D2
  8
0
 62
     0
 10
-5.4817275943987847
 20
37.126082480673972
 30
0.0
 11
-5.6943353541779942
 21
37.00333333333365
 31
0.0
  0
LINE
  5
8D3
  8
0
 62
     0
 10
-3.2084109094646318
 20
38.438582480673972
 30
0.0
 11
-3.9661831377760159
 21
38.001082480673972
 31
0.0
  0
LINE
  5
8D4
  8
0
 62
     0
 10
-0.9350942245304803
 20
39.751082480673972
 30
0.0
 11
-1.692866452841864
 21
39.313582480673972
 31
0.0
  0
LINE
  5
8D5
  8
0
 62
     0
 10
3.611539145337785
 20
42.376082480673936
 30
0.0
 11
2.8537669170264008
 21
41.938582480673936
 31
0.0
  0
LINE
  5
8D6
  8
0
 62
     0
 10
-2.4506386809646208
 20
37.126082480347293
 30
0.0
 11
-2.6632464401780549
 21
37.003333333333607
 31
0.0
  0
LINE
  5
8D7
  8
0
 62
     0
 10
-0.1773219960304697
 20
38.438582480347293
 30
0.0
 11
-0.9350942243418539
 21
38.001082480347293
 31
0.0
  0
LINE
  5
8D8
  8
0
 62
     0
 10
4.3693113738377694
 20
41.063582480347229
 30
0.0
 11
3.6115391455263852
 21
40.626082480347229
 31
0.0
  0
LINE
  5
8D9
  8
0
 62
     0
 10
4.9760870565505684
 20
39.663904583663623
 30
0.0
 11
4.3693113740264167
 21
39.313582480020592
 31
0.0
  0
LINE
  5
8DA
  8
0
 62
     0
 10
4.3693112833019612
 20
80.438582407167715
 30
0.0
 11
4.3693112833019612
 21
81.029974124710094
 31
0.0
  0
LINE
  5
8DB
  8
0
 62
     0
 10
4.3693112833019612
 20
77.813582407167729
 30
0.0
 11
4.3693112833019612
 21
78.688582407167729
 31
0.0
  0
LINE
  5
8DC
  8
0
 62
     0
 10
4.3693112833019594
 20
46.313582407167743
 30
0.0
 11
4.3693112833019594
 21
47.003333333333622
 31
0.0
  0
LINE
  5
8DD
  8
0
 62
     0
 10
4.3693112833019594
 20
43.688582407167729
 30
0.0
 11
4.3693112833019594
 21
44.563582407167729
 31
0.0
  0
LINE
  5
8DE
  8
0
 62
     0
 10
4.3693112833019594
 20
41.063582407167729
 30
0.0
 11
4.3693112833019594
 21
41.938582407167743
 31
0.0
  0
LINE
  5
8DF
  8
0
 62
     0
 10
4.3693112833019594
 20
38.903891661998742
 30
0.0
 11
4.3693112833019594
 21
39.313582407167743
 31
0.0
  0
LINE
  5
8E0
  8
0
 62
     0
 10
2.853766826301928
 20
80.438582407167715
 30
0.0
 11
2.853766826301928
 21
81.313582407167729
 31
0.0
  0
LINE
  5
8E1
  8
0
 62
     0
 10
2.853766826301928
 20
77.813582407167729
 30
0.0
 11
2.853766826301928
 21
78.688582407167729
 31
0.0
  0
LINE
  5
8E2
  8
0
 62
     0
 10
2.8537668263019258
 20
46.313582407167743
 30
0.0
 11
2.8537668263019258
 21
47.003333333333622
 31
0.0
  0
LINE
  5
8E3
  8
0
 62
     0
 10
2.8537668263019258
 20
43.688582407167729
 30
0.0
 11
2.8537668263019258
 21
44.563582407167729
 31
0.0
  0
LINE
  5
8E4
  8
0
 62
     0
 10
2.8537668263019258
 20
41.063582407167729
 30
0.0
 11
2.8537668263019258
 21
41.938582407167743
 31
0.0
  0
LINE
  5
8E5
  8
0
 62
     0
 10
1.338222369302009
 20
80.438582407167715
 30
0.0
 11
1.338222369302009
 21
81.313582407167729
 31
0.0
  0
LINE
  5
8E6
  8
0
 62
     0
 10
1.338222369302009
 20
77.813582407167729
 30
0.0
 11
1.338222369302009
 21
78.688582407167729
 31
0.0
  0
LINE
  5
8E7
  8
0
 62
     0
 10
1.338222369302009
 20
75.55577138411752
 30
0.0
 11
1.338222369302009
 21
76.063582407167715
 31
0.0
  0
LINE
  5
8E8
  8
0
 62
     0
 10
1.338222369302007
 20
46.313582407167743
 30
0.0
 11
1.338222369302007
 21
47.003333333333622
 31
0.0
  0
LINE
  5
8E9
  8
0
 62
     0
 10
1.338222369302007
 20
43.688582407167729
 30
0.0
 11
1.338222369302007
 21
44.563582407167729
 31
0.0
  0
LINE
  5
8EA
  8
0
 62
     0
 10
1.338222369302007
 20
41.276075155505907
 30
0.0
 11
1.338222369302007
 21
41.938582407167743
 31
0.0
  0
LINE
  5
8EB
  8
0
 62
     0
 10
-0.1773220876980229
 20
80.438582407167715
 30
0.0
 11
-0.1773220876980226
 21
81.313582407167729
 31
0.0
  0
LINE
  5
8EC
  8
0
 62
     0
 10
-0.177322087698023
 20
77.813582407167729
 30
0.0
 11
-0.1773220876980228
 21
78.688582407167729
 31
0.0
  0
LINE
  5
8ED
  8
0
 62
     0
 10
-0.1773220876980232
 20
75.268307156550179
 30
0.0
 11
-0.177322087698023
 21
76.063582407167715
 31
0.0
  0
LINE
  5
8EE
  8
0
 62
     0
 10
-0.177322087698025
 20
46.313582407167743
 30
0.0
 11
-0.1773220876980248
 21
47.003333333333622
 31
0.0
  0
LINE
  5
8EF
  8
0
 62
     0
 10
-0.1773220876980252
 20
43.688582407167729
 30
0.0
 11
-0.1773220876980249
 21
44.563582407167729
 31
0.0
  0
LINE
  5
8F0
  8
0
 62
     0
 10
-0.1773220876980253
 20
41.063582407167729
 30
0.0
 11
-0.1773220876980251
 21
41.938582407167743
 31
0.0
  0
LINE
  5
8F1
  8
0
 62
     0
 10
-0.1773220876980255
 20
38.438582407167729
 30
0.0
 11
-0.1773220876980253
 21
39.313582407167743
 31
0.0
  0
LINE
  5
8F2
  8
0
 62
     0
 10
-1.6928665446980551
 20
80.438582407167715
 30
0.0
 11
-1.6928665446980551
 21
81.313582407167729
 31
0.0
  0
LINE
  5
8F3
  8
0
 62
     0
 10
-1.6928665446980551
 20
77.813582407167729
 30
0.0
 11
-1.6928665446980551
 21
78.688582407167729
 31
0.0
  0
LINE
  5
8F4
  8
0
 62
     0
 10
-1.6928665446980551
 20
75.188582407167729
 30
0.0
 11
-1.6928665446980551
 21
76.063582407167715
 31
0.0
  0
LINE
  5
8F5
  8
0
 62
     0
 10
-1.692866544698058
 20
46.313582407167743
 30
0.0
 11
-1.692866544698058
 21
47.003333333333622
 31
0.0
  0
LINE
  5
8F6
  8
0
 62
     0
 10
-1.692866544698058
 20
43.688582407167729
 30
0.0
 11
-1.692866544698058
 21
44.563582407167729
 31
0.0
  0
LINE
  5
8F7
  8
0
 62
     0
 10
-1.692866544698058
 20
41.063582407167729
 30
0.0
 11
-1.692866544698058
 21
41.938582407167743
 31
0.0
  0
LINE
  5
8F8
  8
0
 62
     0
 10
-1.692866544698058
 20
38.438582407167729
 30
0.0
 11
-1.692866544698058
 21
39.313582407167743
 31
0.0
  0
LINE
  5
8F9
  8
0
 62
     0
 10
-3.2084110016980878
 20
80.438582407167715
 30
0.0
 11
-3.2084110016980878
 21
81.313582407167729
 31
0.0
  0
LINE
  5
8FA
  8
0
 62
     0
 10
-3.2084110016980878
 20
77.813582407167729
 30
0.0
 11
-3.2084110016980878
 21
78.688582407167729
 31
0.0
  0
LINE
  5
8FB
  8
0
 62
     0
 10
-3.2084110016980878
 20
75.201239894604612
 30
0.0
 11
-3.2084110016980878
 21
76.063582407167715
 31
0.0
  0
LINE
  5
8FC
  8
0
 62
     0
 10
-3.20841100169809
 20
46.313582407167743
 30
0.0
 11
-3.20841100169809
 21
47.003333333333622
 31
0.0
  0
LINE
  5
8FD
  8
0
 62
     0
 10
-3.20841100169809
 20
43.688582407167729
 30
0.0
 11
-3.20841100169809
 21
44.563582407167729
 31
0.0
  0
LINE
  5
8FE
  8
0
 62
     0
 10
-3.20841100169809
 20
41.063582407167729
 30
0.0
 11
-3.20841100169809
 21
41.938582407167743
 31
0.0
  0
LINE
  5
8FF
  8
0
 62
     0
 10
-3.20841100169809
 20
38.438582407167729
 30
0.0
 11
-3.20841100169809
 21
39.313582407167743
 31
0.0
  0
LINE
  5
900
  8
0
 62
     0
 10
-4.7239554586980068
 20
80.438582407167715
 30
0.0
 11
-4.7239554586980068
 21
81.313582407167729
 31
0.0
  0
LINE
  5
901
  8
0
 62
     0
 10
-4.7239554586980068
 20
77.813582407167729
 30
0.0
 11
-4.7239554586980068
 21
78.688582407167729
 31
0.0
  0
LINE
  5
902
  8
0
 62
     0
 10
-4.7239554586980068
 20
75.416464705593228
 30
0.0
 11
-4.7239554586980068
 21
76.063582407167715
 31
0.0
  0
LINE
  5
903
  8
0
 62
     0
 10
-4.7239554586980086
 20
46.313582407167743
 30
0.0
 11
-4.7239554586980086
 21
47.003333333333622
 31
0.0
  0
LINE
  5
904
  8
0
 62
     0
 10
-4.7239554586980086
 20
43.688582407167729
 30
0.0
 11
-4.7239554586980086
 21
44.563582407167729
 31
0.0
  0
LINE
  5
905
  8
0
 62
     0
 10
-4.7239554586980086
 20
41.063582407167729
 30
0.0
 11
-4.7239554586980086
 21
41.938582407167743
 31
0.0
  0
LINE
  5
906
  8
0
 62
     0
 10
-4.7239554586980086
 20
38.438582407167729
 30
0.0
 11
-4.7239554586980086
 21
39.313582407167743
 31
0.0
  0
LINE
  5
907
  8
0
 62
     0
 10
-6.2394999156980404
 20
80.438582407167715
 30
0.0
 11
-6.2394999156980404
 21
81.313582407167729
 31
0.0
  0
LINE
  5
908
  8
0
 62
     0
 10
-6.2394999156980404
 20
77.813582407167729
 30
0.0
 11
-6.2394999156980404
 21
78.688582407167729
 31
0.0
  0
LINE
  5
909
  8
0
 62
     0
 10
-6.2394999156980404
 20
75.842745900586323
 30
0.0
 11
-6.2394999156980404
 21
76.063582407167715
 31
0.0
  0
LINE
  5
90A
  8
0
 62
     0
 10
-6.2394999156980422
 20
46.313582407167743
 30
0.0
 11
-6.2394999156980422
 21
47.003333333333622
 31
0.0
  0
LINE
  5
90B
  8
0
 62
     0
 10
-6.2394999156980422
 20
43.688582407167729
 30
0.0
 11
-6.2394999156980422
 21
44.563582407167729
 31
0.0
  0
LINE
  5
90C
  8
0
 62
     0
 10
-6.2394999156980422
 20
41.063582407167729
 30
0.0
 11
-6.2394999156980422
 21
41.938582407167743
 31
0.0
  0
LINE
  5
90D
  8
0
 62
     0
 10
-6.2394999156980422
 20
38.438582407167729
 30
0.0
 11
-6.2394999156980422
 21
39.313582407167743
 31
0.0
  0
LINE
  5
90E
  8
0
 62
     0
 10
-7.7550443726980731
 20
80.438582407167715
 30
0.0
 11
-7.7550443726980731
 21
81.313582407167729
 31
0.0
  0
LINE
  5
90F
  8
0
 62
     0
 10
-7.7550443726980731
 20
77.813582407167729
 30
0.0
 11
-7.7550443726980731
 21
78.688582407167729
 31
0.0
  0
LINE
  5
910
  8
0
 62
     0
 10
-7.755044372698074
 20
46.313582407167743
 30
0.0
 11
-7.755044372698074
 21
47.003333333333622
 31
0.0
  0
LINE
  5
911
  8
0
 62
     0
 10
-7.755044372698074
 20
43.688582407167729
 30
0.0
 11
-7.755044372698074
 21
44.563582407167729
 31
0.0
  0
LINE
  5
912
  8
0
 62
     0
 10
-7.755044372698074
 20
41.063582407167729
 30
0.0
 11
-7.755044372698074
 21
41.938582407167743
 31
0.0
  0
LINE
  5
913
  8
0
 62
     0
 10
-7.755044372698074
 20
38.438582407167729
 30
0.0
 11
-7.755044372698074
 21
39.313582407167743
 31
0.0
  0
LINE
  5
914
  8
0
 62
     0
 10
-9.2705888296979921
 20
78.287701968768062
 30
0.0
 11
-9.2705888296979921
 21
78.688582407167729
 31
0.0
  0
ENDBLK
  5
916
  8
0
  0
BLOCK
  8
0
  2
*X73
 70
     1
 10
0.0
 20
0.0
 30
0.0
  3
*X73
  1

  0
LINE
  5
922
  8
0
 62
     0
 10
-9.3403219363939058
 20
86.937043309591189
 30
0.0
 11
-9.4996639417168467
 21
86.777701304268248
 31
0.0
  0
LINE
  5
923
  8
0
 62
     0
 10
-8.0271157462507272
 20
86.48248254676804
 30
0.0
 11
-9.4996639417168751
 21
85.009934351301894
 31
0.0
  0
LINE
  5
924
  8
0
 62
     0
 10
-6.583892717514515
 20
86.157938622537813
 30
0.0
 11
-9.4996639417168467
 21
83.242167398335482
 31
0.0
  0
LINE
  5
925
  8
0
 62
     0
 10
-4.9778734718235276
 20
85.996190915262503
 30
0.0
 11
-9.4996639417168183
 21
81.474400445369184
 31
0.0
  0
LINE
  5
926
  8
0
 62
     0
 10
-9.1940766079448224
 20
80.012220826174783
 30
0.0
 11
-9.4996639417167899
 21
79.706633492402815
 31
0.0
  0
LINE
  5
927
  8
0
 62
     0
 10
-3.1474389215335341
 20
86.058858512586099
 30
0.0
 11
-7.5604170669660951
 21
81.645880367153524
 31
0.0
  0
LINE
  5
928
  8
0
 62
     0
 10
-0.9493914012259949
 20
86.489139079927241
 30
0.0
 11
-4.733762216304739
 21
82.704768264848525
 31
0.0
  0
LINE
  5
929
  8
0
 62
     0
 10
0.4964983806899
 20
86.167261908876796
 30
0.0
 11
-2.7148611825008109
 21
82.955902345686098
 31
0.0
  0
LINE
  5
92A
  8
0
 62
     0
 10
0.4964983806899284
 20
84.399494955910399
 30
0.0
 11
-0.9670801826163994
 21
82.935916392604099
 31
0.0
  0
LINE
  5
92B
  8
0
 62
     0
 10
1.0948597797628841
 20
83.230089402017015
 30
0.0
 11
0.5959703609290729
 21
82.731199983183217
 31
0.0
  0
LINE
  5
92C
  8
0
 62
     0
 10
2.4609881318021669
 20
82.828450801089986
 30
0.0
 11
1.9994221223445261
 21
82.366884791632373
 31
0.0
  0
LINE
  5
92D
  8
0
 62
     0
 10
3.2354242693472481
 20
81.835119985668626
 30
0.0
 11
3.2326590260949781
 21
81.832354742416385
 31
0.0
  0
LINE
  5
92E
  8
0
 62
     0
 10
0.4964983806900705
 20
86.053878038548476
 30
0.0
 11
-0.1853527649777788
 21
86.735729184216325
 31
0.0
  0
LINE
  5
92F
  8
0
 62
     0
 10
0.4964983806900705
 20
84.286111085582135
 30
0.0
 11
-1.5491377813291931
 21
86.331747247601385
 31
0.0
  0
LINE
  5
930
  8
0
 62
     0
 10
2.6857302660990281
 20
82.096879200173163
 30
0.0
 11
1.9541586651822049
 21
82.828450801089986
 31
0.0
  0
LINE
  5
931
  8
0
 62
     0
 10
0.2175816843218286
 20
82.797260828984008
 30
0.0
 11
-3.054254381605801
 21
86.069096894911638
 31
0.0
  0
LINE
  5
932
  8
0
 62
     0
 10
-1.724323162154632
 20
82.971398722494058
 30
0.0
 11
-4.742490823092111
 21
85.98956638343148
 31
0.0
  0
LINE
  5
933
  8
0
 62
     0
 10
-3.422443747325985
 20
82.901752354699084
 30
0.0
 11
-6.6979701786734154
 21
86.177278786046514
 31
0.0
  0
LINE
  5
934
  8
0
 62
     0
 10
-4.9486910504203934
 20
82.660232704827138
 30
0.0
 11
-9.1493334313423134
 21
86.860875085749043
 31
0.0
  0
LINE
  5
935
  8
0
 62
     0
 10
-6.3097337884374829
 20
82.253508489877817
 30
0.0
 11
-9.4996639417166193
 21
85.443438643156952
 31
0.0
  0
LINE
  5
936
  8
0
 62
     0
 10
-7.5042021029959747
 20
81.680209851469954
 30
0.0
 11
-9.4996639417166193
 21
83.675671690190583
 31
0.0
  0
LINE
  5
937
  8
0
 62
     0
 10
-8.4991953199298678
 20
80.90743611543752
 30
0.0
 11
-9.4996639417165625
 21
81.907904737224214
 31
0.0
  0
LINE
  5
938
  8
0
 62
     0
 10
-9.2491234176759463
 20
79.889597260217187
 30
0.0
 11
-9.4996639417166193
 21
80.14013778425786
 31
0.0
  0
ENDBLK
  5
93A
  8
0
  0
BLOCK
  8
0
  2
*U74
 70
     1
 10
0.0
 20
0.0
 30
0.0
  3
*U74
  1

  0
TEXT
  5
E7F
  8
SAPA_MATT
 62
     2
 10
132.14881889763791
 20
13.00362860892394
 30
0.0
 40
3.0
  1
120
  7
ISO
  0
ENDBLK
  5
E81
  8
0
  0
BLOCK
  8
0
  2
*U75
 70
     1
 10
0.0
 20
0.0
 30
0.0
  3
*U75
  1

  0
TEXT
  5
E83
  8
SAPA_MATT
 62
     2
 10
57.898818897637867
 20
13.003333333333391
 30
0.0
 40
3.0
  1
30
  7
ISO
  0
ENDBLK
  5
E85
  8
0
  0
BLOCK
  8
0
  2
*U76
 70
     1
 10
0.0
 20
0.0
 30
0.0
  3
*U76
  1

  0
TEXT
  5
E87
  8
SAPA_MATT
 62
     2
 10
20.18786796564401
 20
13.003333333333391
 30
0.0
 40
3.0
  1
45
  7
ISO
  0
ENDBLK
  5
E89
  8
0
  0
BLOCK
  8
0
  2
*U77
 70
     1
 10
0.0
 20
0.0
 30
0.0
  3
*U77
  1

  0
TEXT
  5
E8B
  8
SAPA_MATT
 62
     2
 10
-20.996356730960489
 20
59.90215223097141
 30
0.0
 40
3.0
  1
50
 50
90.0
  7
ISO
  0
ENDBLK
  5
E8D
  8
0
  0
BLOCK
  8
0
  2
*U78
 70
     1
 10
0.0
 20
0.0
 30
0.0
  3
*U78
  1

  0
TEXT
  5
E8F
  8
SAPA_MATT
 62
     2
 10
-32.996870965871949
 20
59.991916010498862
 30
0.0
 40
3.0
  1
60
 50
90.0
  7
ISO
  0
ENDBLK
  5
E91
  8
0
  0
BLOCK
  8
0
  2
*U79
 70
     1
 10
0.0
 20
0.0
 30
0.0
  3
*U79
  1

  0
TEXT
  5
E93
  8
SAPA_MATT
 62
     2
 10
94.572626469902545
 20
1.0
 30
0.0
 40
3.0
  1
195
  7
ISO
  0
ENDBLK
  5
E95
  8
0
  0
ENDSEC
  0
SECTION
  2
ENTITIES
  0
TEXT
  5
41
  8
SAPA_ARTIKELNR
 10
114.84145050466221
 20
94.219240657060425
 30
0.0
 40
3.5
  1
68057
  7
ISO
  0
TEXT
  5
52
  8
SAPA_ARTIKELNR
 10
45.806693731484643
 20
30.61270430888413
 30
0.0
 40
3.5
  1
44184
  7
ISO
  0
TEXT
  5
66
  8
SAPA_ARTIKELNR
 10
15.98095855795242
 20
89.033077147450683
 30
0.0
 40
3.5
  1
68005
  7
ISO
  0
TEXT
  5
70
  8
SAPA_ARTIKELNR
 10
59.28188412985633
 20
89.033077147450683
 30
0.0
 40
3.5
  1
44184
  7
ISO
  0
INSERT
  5
79
  8
SAPA_ANSLUTNING
  6
CONTINUOUS
  2
*X72
 10
0.0
 20
0.0
 30
0.0
1001
ACAD
1000
HATCH
1002
{
1070
    19
1000
HEX
1040
7.0
1040
1.5707963267948959
1000
ASC_BOUNDS
1070
     2
1070
     1
1070
     1
1005
7E
1070
     1
1070
     1
1005
7C
1000
ASC_SEEDPOINT
1011
-5.2728592726447232
1021
0.0
1031
0.0
1021
42.517302195861873
1031
0.0
1000
R14_HATCH_DATA
1000
79
1011
1.0
1021
0.0
1031
0.0
1021
0.0
1031
0.0
1011
0.0
1021
0.0
1031
0.0
1021
1.0
1031
0.0
1011
0.0
1021
0.0
1031
0.0
1021
0.0
1031
1.0
1040
0.0
1010
0.0
1020
0.0
1030
1.0
1000
HEX
1070
     0
1070
     1
1071
        2
1071
        7
1070
     1
1070
     1
1071
        9
1040
-9.0
1040
37.003333333333607
1040
0.0
1040
0.0
1040
37.003333333333607
1040
0.0
1040
0.0
1040
40.153173258991387
1040
0.0
1040
1.3744017832647191
1040
41.306433288418241
1040
0.0
1040
2.8252988393113578
1040
41.306433288418241
1040
0.0
1040
2.8252988393113578
1040
39.878125606347147
1040
0.992377994856252
1040
5.0
1040
39.886694095132668
1040
0.0
1040
5.0
1040
47.003333333333607
1040
0.0
1040
-9.0
1040
47.003333333333607
1040
0.0
1071
        1
1005
7C
1071
        7
1070
     1
1070
     1
1071
       16
1040
-4.9910026119720143
1040
82.651050306996879
1040
0.0677080186897458
1040
-7.2420663611651577
1040
81.828172172976267
1040
0.1053277233168759
1040
-8.9496732074754437
1040
80.402810196126694
1040
0.1678920096872698
1040
-9.4130961286815591
1040
79.061590672651221
1040
0.1678920096872199
1040
-8.9496732074756871
1040
77.720371149176302
1040
0.1053277233169587
1040
-7.242066361164035
1040
76.295009172325678
1040
0.0677080186896713
1040
-4.9910026119732933
1040
75.472131038306117
1040
0.0538647880862049
1040
-2.0007368521092981
1040
75.149053593480687
1040
0.0538647880861943
1040
0.9895289077542653
1040
75.472131038306017
1040
0.0677080186896822
1040
3.2405926569453971
1040
76.295009172325706
1040
0.1053277233169547
1040
4.948199503256987
1040
77.720371149176302
1040
0.1678920096872257
1040
5.4116224244628484
1040
79.061590672651221
1040
0.1678920096872619
1040
4.9481995032567587
1040
80.402810196126651
1040
0.1053277233168808
1040
3.2405926569464181
1040
81.828172172976323
1040
0.0677080186897493
1040
0.9895289077531279
1040
82.651050306996908
1040
0.0538647880861714
1040
-2.0007368521092981
1040
82.974127751821982
1040
0.0538647880861764
1071
        1
1005
7E
1070
     0
1070
     1
1040
1.5707963267948959
1040
7.0
1070
     0
1070
     3
1040
1.5707963267948959
1040
537.84096014730198
1040
-42.936417592832299
1040
-1.5155444570000001
1040
0.0000000000000001
1070
     2
1040
0.875
1040
-1.75
1040
3.6651914291880909
1040
537.84096014730198
1040
-42.936417592832299
1040
0.7577722284999996
1040
-1.312500000326692
1070
     2
1040
0.8749999999999998
1040
-1.7499999999999989
1040
2.6179938779914931
1040
537.84096014730198
1040
-42.061417592832292
1040
-0.7577722285000004
1040
-1.312500000326692
1070
     2
1040
0.875
1040
-1.75
1040
0.1004818818266199
1071
        2
1040
-5.2728592726447232
1040
42.517302195861873
1040
0.0
1040
-3.8661123944655169
1040
80.719049072104724
1040
0.0
1002
}
  0
POLYLINE
  5
7C
  8
SAPA_ANSLUTNING
 66
     1
 10
0.0
 20
0.0
 30
0.0
 70
     1
1001
ACAD
1000
ASC_BOUNDS
1002
{
1070
    19
1005
79
1002
}
  0
VERTEX
  5
917
  8
SAPA_ANSLUTNING
 10
2.8252988393113578
 20
39.903333333333592
 30
0.0
  0
VERTEX
  5
918
  8
SAPA_ANSLUTNING
 10
2.8252988393113578
 20
41.306433288418241
 30
0.0
  0
VERTEX
  5
919
  8
SAPA_ANSLUTNING
 10
1.3744017832647151
 20
41.306433288418241
 30
0.0
  0
VERTEX
  5
91A
  8
SAPA_ANSLUTNING
 10
0.0
 20
40.153173258991387
 30
0.0
  0
VERTEX
  5
91B
  8
SAPA_ANSLUTNING
 10
0.0
 20
37.003333333333607
 30
0.0
  0
VERTEX
  5
91C
  8
SAPA_ANSLUTNING
 10
-9.0
 20
37.003333333333607
 30
0.0
  0
VERTEX
  5
91D
  8
SAPA_ANSLUTNING
 10
-9.0
 20
47.003333333333607
 30
0.0
  0
VERTEX
  5
91E
  8
SAPA_ANSLUTNING
 10
5.0
 20
47.003333333333607
 30
0.0
  0
VERTEX
  5
91F
  8
SAPA_ANSLUTNING
 10
5.0
 20
39.886694095132668
 30
0.0
 42
-1.0039478385010081
  0
SEQEND
  5
920
  8
SAPA_ANSLUTNING
  0
INSERT
  5
7D
  8
SAPA_ANSLUTNING
  6
CONTINUOUS
  2
*X73
 10
0.0
 20
0.0
 30
0.0
1001
ACAD
1000
HATCH
1002
{
1070
    19
1000
ANSI37
1040
10.0
1040
1.5707963267948959
1000
R14_HATCH_DATA
1000
7D
1011
1.0
1021
0.0
1031
0.0
1021
0.0
1031
0.0
1011
0.0
1021
0.0
1031
0.0
1021
1.0
1031
0.0
1011
0.0
1021
0.0
1031
0.0
1021
0.0
1031
1.0
1040
0.0
1010
0.0
1020
0.0
1030
1.0
1000
ANSI37
1070
     0
1070
     0
1071
        1
1071
        7
1070
     1
1070
     1
1071
       14
1040
-9.4996639417166762
1040
87.003333333333842
1040
0.0
1040
-9.4996639417166762
1040
79.061590672651221
1040
0.0
1040
-9.4130961286815591
1040
79.061590672651221
1040
-0.1678920096872382
1040
-8.9496732074755982
1040
80.402810196126495
1040
-0.1053277233169209
1040
-7.242066361164575
1040
81.828172172976622
1040
-0.06770801868971
1040
-4.991002611972589
1040
82.651050306996751
1040
-0.053864788086187
1040
-2.0007368521092981
1040
82.974127751821982
1040
-0.0538647880861851
1040
0.9895289077538791
1040
82.651050306996751
1040
-0.0677080186897096
1040
3.2405926569458638
1040
81.828172172976622
1040
0.0
1040
2.4964983806900132
1040
82.828450801089886
1040
0.0
1040
1.496498380690013
1040
82.828450801089886
1040
0.0
1040
0.4964983806900137
1040
83.828450801090014
1040
0.0
1040
0.4964983806900137
1040
86.828450801090455
1040
0.0
1040
0.5000000000002274
1040
87.003333333334069
1040
-0.2032199431463407
1071
        0
1070
     0
1070
     1
1040
1.5707963267948959
1040
10.0
1070
     0
1070
     2
1040
2.3561944901923439
1040
537.84096014730198
1040
-42.936417592832299
1040
-0.8838834764831844
1040
-0.8838834764831842
1070
     0
1040
3.926990816987241
1040
537.84096014730198
1040
-42.936417592832299
1040
0.8838834764831842
1040
-0.8838834764831844
1070
     0
1040
0.0390651268545045
1071
        1
1040
-6.2419173115674758
1040
84.636061893659473
1040
0.0
1002
}
  0
POLYLINE
  5
7E
  8
SAPA_ANSLUTNING
 66
     1
 10
0.0
 20
0.0
 30
0.0
 70
     1
1001
ACAD
1000
ASC_BOUNDS
1002
{
1070
    19
1005
79
1002
}
  0
VERTEX
  5
93B
  8
SAPA_ANSLUTNING
 10
-2.0007368521092981
 20
75.149053593480687
 30
0.0
 42
-0.0538647880861898
  0
VERTEX
  5
93C
  8
SAPA_ANSLUTNING
 10
-4.9910026119724762
 20
75.472131038305918
 30
0.0
 42
-0.0677080186897121
  0
VERTEX
  5
93D
  8
SAPA_ANSLUTNING
 10
-7.242066361164575
 20
76.295009172325933
 30
0.0
 42
-0.1053277233169234
  0
VERTEX
  5
93E
  8
SAPA_ANSLUTNING
 10
-8.9496732074755982
 20
77.720371149176174
 30
0.0
 42
-0.1678920096872386
  0
VERTEX
  5
93F
  8
SAPA_ANSLUTNING
 10
-9.4130961286815591
 20
79.061590672651221
 30
0.0
 42
-0.1678920096872382
  0
VERTEX
  5
940
  8
SAPA_ANSLUTNING
 10
-8.9496732074755982
 20
80.402810196126495
 30
0.0
 42
-0.1053277233169209
  0
VERTEX
  5
941
  8
SAPA_ANSLUTNING
 10
-7.242066361164575
 20
81.828172172976622
 30
0.0
 42
-0.06770801868971
  0
VERTEX
  5
942
  8
SAPA_ANSLUTNING
 10
-4.991002611972589
 20
82.651050306996751
 30
0.0
 42
-0.053864788086187
  0
VERTEX
  5
943
  8
SAPA_ANSLUTNING
 10
-2.0007368521092981
 20
82.974127751821982
 30
0.0
 42
-0.0538647880861851
  0
VERTEX
  5
944
  8
SAPA_ANSLUTNING
 10
0.9895289077538791
 20
82.651050306996751
 30
0.0
 42
-0.0677080186897099
  0
VERTEX
  5
945
  8
SAPA_ANSLUTNING
 10
3.2405926569458638
 20
81.828172172976622
 30
0.0
 42
-0.1053277233169203
  0
VERTEX
  5
946
  8
SAPA_ANSLUTNING
 10
4.9481995032568866
 20
80.402810196126495
 30
0.0
 42
-0.1678920096872382
  0
VERTEX
  5
947
  8
SAPA_ANSLUTNING
 10
5.4116224244628484
 20
79.061590672651221
 30
0.0
 42
-0.167892009687245
  0
VERTEX
  5
948
  8
SAPA_ANSLUTNING
 10
4.9481995032568866
 20
77.720371149176174
 30
0.0
 42
-0.1053277233169226
  0
VERTEX
  5
949
  8
SAPA_ANSLUTNING
 10
3.2405926569458638
 20
76.295009172325933
 30
0.0
 42
-0.0677080186897082
  0
VERTEX
  5
94A
  8
SAPA_ANSLUTNING
 10
0.9895289077538791
 20
75.472131038305918
 30
0.0
 42
-0.0538647880861872
  0
SEQEND
  5
94B
  8
SAPA_ANSLUTNING
  0
ARC
  5
7F
  8
SAPA_ANSLUTNING
 10
-4.499831970858394
 20
98.796829359140546
 30
0.0
 40
12.809561594665579
 50
247.0255689067402
 51
292.97443109325991
  0
POLYLINE
  5
80
  8
SAPA_ANSLUTNING
 66
     1
 10
0.0
 20
0.0
 30
0.0
  0
VERTEX
  5
94C
  8
SAPA_ANSLUTNING
 10
3.0101227396515919
 20
47.94217737688183
 30
0.0
 42
1.0
  0
VERTEX
  5
94D
  8
SAPA_ANSLUTNING
 10
3.0101227396515919
 20
51.94217737688183
 30
0.0
  0
VERTEX
  5
94E
  8
SAPA_ANSLUTNING
 10
-7.446487706797142
 20
51.942177376881602
 30
0.0
 42
-0.9999989466455052
  0
VERTEX
  5
94F
  8
SAPA_ANSLUTNING
 10
-7.4464919202173396
 20
55.942177376877282
 30
0.0
  0
VERTEX
  5
950
  8
SAPA_ANSLUTNING
 10
-1.4464909926298331
 20
55.942177376877282
 30
0.0
 42
1.0
  0
VERTEX
  5
951
  8
SAPA_ANSLUTNING
 10
-1.4464909926298331
 20
59.942177376877282
 30
0.0
  0
VERTEX
  5
952
  8
SAPA_ANSLUTNING
 10
-7.4464945519955563
 20
59.942177376877169
 30
0.0
 42
-0.9999974985601644
  0
VERTEX
  5
953
  8
SAPA_ANSLUTNING
 10
-7.4464945519955563
 20
63.942177376864663
 30
0.0
  0
VERTEX
  5
954
  8
SAPA_ANSLUTNING
 10
-1.4464909926298331
 20
63.942177376864549
 30
0.0
 42
1.0
  0
VERTEX
  5
955
  8
SAPA_ANSLUTNING
 10
-1.4464909926298331
 20
67.942177376864606
 30
0.0
  0
VERTEX
  5
956
  8
SAPA_ANSLUTNING
 10
-7.4464919202173396
 20
67.942177376864549
 30
0.0
 42
-0.9999989466455052
  0
VERTEX
  5
957
  8
SAPA_ANSLUTNING
 10
-7.446487706797142
 20
71.942177376860229
 30
0.0
  0
VERTEX
  5
958
  8
SAPA_ANSLUTNING
 10
3.0101227396515919
 20
71.942177376860002
 30
0.0
 42
1.0
  0
VERTEX
  5
959
  8
SAPA_ANSLUTNING
 10
3.0101227396515919
 20
75.942177376860002
 30
0.0
  0
SEQEND
  5
95A
  8
SAPA_ANSLUTNING
  0
LINE
  5
81
  8
SAPA_ANSLUTNING
 10
-9.4996639417166762
 20
102.7601597428927
 30
0.0
 11
-9.4996639417166762
 21
20.725896759991318
 31
0.0
  0
LINE
  5
82
  8
SAPA_LIGHT
 10
-9.4996639417166762
 20
102.7601597428927
 30
0.0
 11
-9.4996639417166762
 21
20.725896759991318
 31
0.0
  0
POLYLINE
  5
84
  8
SAPA_LIGHT
 66
     1
 10
0.0
 20
0.0
 30
0.0
 70
     1
  0
VERTEX
  5
95B
  8
SAPA_LIGHT
 10
-0.0000000000000568
 20
37.003333333333607
 30
0.0
  0
VERTEX
  5
95C
  8
SAPA_LIGHT
 10
0.0
 20
87.003333333333615
 30
0.0
  0
VERTEX
  5
95D
  8
SAPA_LIGHT
 10
53.999999999999879
 20
87.003333333333615
 30
0.0
  0
VERTEX
  5
95E
  8
SAPA_LIGHT
 10
53.999999999999829
 20
37.003333333333607
 30
0.0
  0
SEQEND
  5
95F
  8
SAPA_LIGHT
  0
POLYLINE
  5
85
  8
SAPA_LIGHT
 66
     1
 10
0.0
 20
0.0
 30
0.0
  0
VERTEX
  5
960
  8
SAPA_LIGHT
 10
195.0000000000023
 20
45.903333333333698
 30
0.0
  0
VERTEX
  5
961
  8
SAPA_LIGHT
 10
195.0000000000023
 20
32.00333333333333
 30
0.0
  0
VERTEX
  5
962
  8
SAPA_LIGHT
 10
65.841218971447006
 20
32.00333333333333
 30
0.0
  0
VERTEX
  5
963
  8
SAPA_LIGHT
 10
65.841218971447006
 20
92.00333333333333
 30
0.0
  0
VERTEX
  5
964
  8
SAPA_LIGHT
 10
195.0000000000023
 20
92.00333333333333
 30
0.0
  0
VERTEX
  5
965
  8
SAPA_LIGHT
 10
195.0000000000023
 20
51.903333333333713
 30
0.0
  0
SEQEND
  5
966
  8
SAPA_LIGHT
  0
POLYLINE
  5
86
  8
SAPA_LIGHT
 66
     1
 10
0.0
 20
0.0
 30
0.0
  0
VERTEX
  5
967
  8
SAPA_LIGHT
 10
211.1999999999999
 20
45.903333333333698
 30
0.0
  0
VERTEX
  5
968
  8
SAPA_LIGHT
 10
178.0
 20
45.903333333333698
 30
0.0
  0
VERTEX
  5
969
  8
SAPA_LIGHT
 10
178.0
 20
51.903333333333698
 30
0.0
  0
VERTEX
  5
96A
  8
SAPA_LIGHT
 10
211.1999999999999
 20
51.903333333333698
 30
0.0
  0
VERTEX
  5
96B
  8
SAPA_LIGHT
 10
211.1999999999999
 20
45.903333333333698
 30
0.0
  0
SEQEND
  5
96C
  8
SAPA_LIGHT
  0
POLYLINE
  5
797
  8
SAPA_PROFIL
 66
     1
 10
0.0
 20
0.0
 30
0.0
 70
     1
  0
VERTEX
  5
B42
  8
SAPA_PROFIL
 10
38.200000000000053
 20
38.803333333333633
 30
0.0
  0
VERTEX
  5
B43
  8
SAPA_PROFIL
 10
6.7999999999999536
 20
38.803333333333633
 30
0.0
  0
VERTEX
  5
B44
  8
SAPA_PROFIL
 10
6.8000000000000682
 20
59.908333333333637
 30
0.0
 42
0.4142135623732293
  0
VERTEX
  5
B45
  8
SAPA_PROFIL
 10
6.3049999999999491
 20
60.403333333333642
 30
0.0
  0
VERTEX
  5
B46
  8
SAPA_PROFIL
 10
6.2950000000000719
 20
60.403333333333642
 30
0.0
 42
0.414213562373095
  0
VERTEX
  5
B47
  8
SAPA_PROFIL
 10
5.7999999999999536
 20
59.908333333333637
 30
0.0
  0
VERTEX
  5
B48
  8
SAPA_PROFIL
 10
5.7999999999999536
 20
59.748333333333683
 30
0.0
 42
-0.414213562373028
  0
VERTEX
  5
B49
  8
SAPA_PROFIL
 10
5.3050000000000628
 20
59.253333333333671
 30
0.0
  0
VERTEX
  5
B4A
  8
SAPA_PROFIL
 10
4.5
 20
59.253333333333671
 30
0.0
 42
-0.3747564601179658
  0
VERTEX
  5
B4B
  8
SAPA_PROFIL
 10
1.7756049567656189
 20
61.628938290097381
 30
0.0
  0
VERTEX
  5
B4C
  8
SAPA_PROFIL
 10
2.1500000000003179
 20
62.003333333333671
 30
0.0
  0
VERTEX
  5
B4D
  8
SAPA_PROFIL
 10
1.7756049567639129
 20
62.377728376570182
 30
0.0
 42
-0.3747564601179647
  0
VERTEX
  5
B4E
  8
SAPA_PROFIL
 10
4.4999999999998863
 20
64.753333333333671
 30
0.0
  0
VERTEX
  5
B4F
  8
SAPA_PROFIL
 10
5.3050000000000628
 20
64.753333333333671
 30
0.0
 42
-0.4142135623730281
  0
VERTEX
  5
B50
  8
SAPA_PROFIL
 10
5.7999999999999536
 20
64.258333333333667
 30
0.0
  0
VERTEX
  5
B51
  8
SAPA_PROFIL
 10
5.7999999999999536
 20
64.098333333333699
 30
0.0
 42
0.4142135623730951
  0
VERTEX
  5
B52
  8
SAPA_PROFIL
 10
6.2950000000000719
 20
63.603333333333687
 30
0.0
  0
VERTEX
  5
B53
  8
SAPA_PROFIL
 10
6.3049999999999491
 20
63.60333333333358
 30
0.0
 42
0.4142135623732296
  0
VERTEX
  5
B54
  8
SAPA_PROFIL
 10
6.7999999999999536
 20
64.098333333333699
 30
0.0
  0
VERTEX
  5
B55
  8
SAPA_PROFIL
 10
6.7999999999999536
 20
85.203333333333717
 30
0.0
  0
VERTEX
  5
B56
  8
SAPA_PROFIL
 10
38.200000000000053
 20
85.203333333333717
 30
0.0
  0
VERTEX
  5
B57
  8
SAPA_PROFIL
 10
38.200000000000053
 20
64.098333333333699
 30
0.0
 42
0.4142135623731625
  0
VERTEX
  5
B58
  8
SAPA_PROFIL
 10
38.694999999999943
 20
63.603333333333687
 30
0.0
  0
VERTEX
  5
B59
  8
SAPA_PROFIL
 10
38.704999999999927
 20
63.603333333333687
 30
0.0
 42
0.4142135623731625
  0
VERTEX
  5
B5A
  8
SAPA_PROFIL
 10
39.199999999999818
 20
64.098333333333699
 30
0.0
  0
VERTEX
  5
B5B
  8
SAPA_PROFIL
 10
39.199999999999932
 20
64.258333333333667
 30
0.0
 42
-0.4142135623729606
  0
VERTEX
  5
B5C
  8
SAPA_PROFIL
 10
39.694999999999943
 20
64.753333333333558
 30
0.0
  0
VERTEX
  5
B5D
  8
SAPA_PROFIL
 10
40.499999999999993
 20
64.753333333333671
 30
0.0
 42
-0.3747564601179647
  0
VERTEX
  5
B5E
  8
SAPA_PROFIL
 10
43.224395043235972
 20
62.377728376570182
 30
0.0
  0
VERTEX
  5
B5F
  8
SAPA_PROFIL
 10
42.849999999999682
 20
62.003333333333671
 30
0.0
  0
VERTEX
  5
B60
  8
SAPA_PROFIL
 10
43.224395043234381
 20
61.628938290097381
 30
0.0
 42
-0.3747564601179658
  0
VERTEX
  5
B61
  8
SAPA_PROFIL
 10
40.499999999999993
 20
59.253333333333671
 30
0.0
  0
VERTEX
  5
B62
  8
SAPA_PROFIL
 10
39.694999999999943
 20
59.253333333333671
 30
0.0
 42
-0.4142135623730281
  0
VERTEX
  5
B63
  8
SAPA_PROFIL
 10
39.199999999999818
 20
59.748333333333683
 30
0.0
  0
VERTEX
  5
B64
  8
SAPA_PROFIL
 10
39.199999999999818
 20
59.908333333333637
 30
0.0
 42
0.4142135623731625
  0
VERTEX
  5
B65
  8
SAPA_PROFIL
 10
38.704999999999927
 20
60.403333333333642
 30
0.0
  0
VERTEX
  5
B66
  8
SAPA_PROFIL
 10
38.694999999999943
 20
60.403333333333642
 30
0.0
 42
0.4142135623731625
  0
VERTEX
  5
B67
  8
SAPA_PROFIL
 10
38.200000000000053
 20
59.908333333333637
 30
0.0
  0
SEQEND
  5
B68
  8
SAPA_PROFIL
  0
POLYLINE
  5
798
  8
SAPA_PROFIL
 66
     1
 10
0.0
 20
0.0
 30
0.0
 70
     1
  0
VERTEX
  5
B69
  8
SAPA_PROFIL
 10
43.0
 20
38.803333333333633
 30
0.0
  0
VERTEX
  5
B6A
  8
SAPA_PROFIL
 10
43.0
 20
41.003333333333671
 30
0.0
  0
VERTEX
  5
B6B
  8
SAPA_PROFIL
 10
44.0
 20
41.003333333333671
 30
0.0
  0
VERTEX
  5
B6C
  8
SAPA_PROFIL
 10
45.0
 20
40.003333333333671
 30
0.0
  0
VERTEX
  5
B6D
  8
SAPA_PROFIL
 10
45.0
 20
37.003333333333671
 30
0.0
  0
VERTEX
  5
B6E
  8
SAPA_PROFIL
 10
0.0
 20
37.003333333333671
 30
0.0
  0
VERTEX
  5
B6F
  8
SAPA_PROFIL
 10
0.0
 20
40.003333333333671
 30
0.0
  0
VERTEX
  5
B70
  8
SAPA_PROFIL
 10
1.0
 20
41.003333333333671
 30
0.0
  0
VERTEX
  5
B71
  8
SAPA_PROFIL
 10
2.0
 20
41.003333333333671
 30
0.0
  0
VERTEX
  5
B72
  8
SAPA_PROFIL
 10
2.0
 20
38.803333333333633
 30
0.0
  0
VERTEX
  5
B73
  8
SAPA_PROFIL
 10
5.0
 20
38.803333333333633
 30
0.0
  0
VERTEX
  5
B74
  8
SAPA_PROFIL
 10
5.0
 20
57.503333333333671
 30
0.0
  0
VERTEX
  5
B75
  8
SAPA_PROFIL
 10
2.0
 20
57.503333333333671
 30
0.0
  0
VERTEX
  5
B76
  8
SAPA_PROFIL
 10
2.0
 20
55.003333333333671
 30
0.0
  0
VERTEX
  5
B77
  8
SAPA_PROFIL
 10
1.0
 20
55.003333333333671
 30
0.0
  0
VERTEX
  5
B78
  8
SAPA_PROFIL
 10
0.1999999999999318
 20
55.803333333333633
 30
0.0
  0
VERTEX
  5
B79
  8
SAPA_PROFIL
 10
0.1999999999999318
 20
61.483718091062997
 30
0.0
  0
VERTEX
  5
B7A
  8
SAPA_PROFIL
 10
0.5
 20
62.003333333333671
 30
0.0
  0
VERTEX
  5
B7B
  8
SAPA_PROFIL
 10
0.1999999999999318
 20
62.522948575604353
 30
0.0
  0
VERTEX
  5
B7C
  8
SAPA_PROFIL
 10
0.1999999999999318
 20
68.203333333333717
 30
0.0
  0
VERTEX
  5
B7D
  8
SAPA_PROFIL
 10
1.0
 20
69.003333333333671
 30
0.0
  0
VERTEX
  5
B7E
  8
SAPA_PROFIL
 10
2.0
 20
69.003333333333671
 30
0.0
  0
VERTEX
  5
B7F
  8
SAPA_PROFIL
 10
2.0
 20
66.503333333333671
 30
0.0
  0
VERTEX
  5
B80
  8
SAPA_PROFIL
 10
5.0
 20
66.503333333333671
 30
0.0
  0
VERTEX
  5
B81
  8
SAPA_PROFIL
 10
5.0
 20
85.203333333333717
 30
0.0
  0
VERTEX
  5
B82
  8
SAPA_PROFIL
 10
2.0
 20
85.203333333333717
 30
0.0
  0
VERTEX
  5
B83
  8
SAPA_PROFIL
 10
2.0
 20
83.003333333333686
 30
0.0
  0
VERTEX
  5
B84
  8
SAPA_PROFIL
 10
1.0
 20
83.003333333333686
 30
0.0
  0
VERTEX
  5
B85
  8
SAPA_PROFIL
 10
0.0
 20
84.003333333333671
 30
0.0
  0
VERTEX
  5
B86
  8
SAPA_PROFIL
 10
0.0
 20
87.003333333333657
 30
0.0
  0
VERTEX
  5
B87
  8
SAPA_PROFIL
 10
45.0
 20
87.003333333333657
 30
0.0
  0
VERTEX
  5
B88
  8
SAPA_PROFIL
 10
45.0
 20
84.003333333333671
 30
0.0
  0
VERTEX
  5
B89
  8
SAPA_PROFIL
 10
44.0
 20
83.003333333333686
 30
0.0
  0
VERTEX
  5
B8A
  8
SAPA_PROFIL
 10
43.0
 20
83.003333333333686
 30
0.0
  0
VERTEX
  5
B8B
  8
SAPA_PROFIL
 10
43.0
 20
85.203333333333717
 30
0.0
  0
VERTEX
  5
B8C
  8
SAPA_PROFIL
 10
40.0
 20
85.203333333333717
 30
0.0
  0
VERTEX
  5
B8D
  8
SAPA_PROFIL
 10
40.0
 20
66.503333333333671
 30
0.0
  0
VERTEX
  5
B8E
  8
SAPA_PROFIL
 10
43.0
 20
66.503333333333671
 30
0.0
  0
VERTEX
  5
B8F
  8
SAPA_PROFIL
 10
43.0
 20
69.003333333333671
 30
0.0
  0
VERTEX
  5
B90
  8
SAPA_PROFIL
 10
44.0
 20
69.003333333333671
 30
0.0
  0
VERTEX
  5
B91
  8
SAPA_PROFIL
 10
44.799999999999947
 20
68.203333333333717
 30
0.0
  0
VERTEX
  5
B92
  8
SAPA_PROFIL
 10
44.799999999999947
 20
62.522948575604353
 30
0.0
  0
VERTEX
  5
B93
  8
SAPA_PROFIL
 10
44.5
 20
62.003333333333671
 30
0.0
  0
VERTEX
  5
B94
  8
SAPA_PROFIL
 10
44.799999999999947
 20
61.483718091062997
 30
0.0
  0
VERTEX
  5
B95
  8
SAPA_PROFIL
 10
44.799999999999947
 20
55.803333333333633
 30
0.0
  0
VERTEX
  5
B96
  8
SAPA_PROFIL
 10
44.0
 20
55.003333333333671
 30
0.0
  0
VERTEX
  5
B97
  8
SAPA_PROFIL
 10
43.0
 20
55.003333333333671
 30
0.0
  0
VERTEX
  5
B98
  8
SAPA_PROFIL
 10
43.0
 20
57.503333333333671
 30
0.0
  0
VERTEX
  5
B99
  8
SAPA_PROFIL
 10
40.0
 20
57.503333333333671
 30
0.0
  0
VERTEX
  5
B9A
  8
SAPA_PROFIL
 10
40.0
 20
38.803333333333633
 30
0.0
  0
SEQEND
  5
B9B
  8
SAPA_PROFIL
  0
POLYLINE
  5
799
  8
SAPA_PROFIL
 66
     1
 10
0.0
 20
0.0
 30
0.0
 70
     1
  0
VERTEX
  5
B9C
  8
SAPA_PROFIL
 10
64.557899838983531
 20
84.843645350388726
 30
0.0
  0
VERTEX
  5
B9D
  8
SAPA_PROFIL
 10
65.148380912298535
 20
82.015290629470726
 30
0.0
 42
-1.000000000000006
  0
VERTEX
  5
B9E
  8
SAPA_PROFIL
 10
63.680039000014631
 20
81.70874205480078
 30
0.0
  0
VERTEX
  5
B9F
  8
SAPA_PROFIL
 10
62.712401294444589
 20
86.343645350388726
 30
0.0
 42
-0.4758639521832408
  0
VERTEX
  5
BA0
  8
SAPA_PROFIL
 10
63.20184859853952
 20
86.945828208611886
 30
0.0
  0
VERTEX
  5
BA1
  8
SAPA_PROFIL
 10
74.700000000000728
 20
86.945828208611886
 30
0.0
 42
-0.4142135623730951
  0
VERTEX
  5
BA2
  8
SAPA_PROFIL
 10
75.000000000000682
 20
86.645828208611704
 30
0.0
  0
VERTEX
  5
BA3
  8
SAPA_PROFIL
 10
75.000000000000682
 20
85.645828208611704
 30
0.0
 42
-0.4142135623730951
  0
VERTEX
  5
BA4
  8
SAPA_PROFIL
 10
74.500000000000682
 20
85.145828208611704
 30
0.0
  0
VERTEX
  5
BA5
  8
SAPA_PROFIL
 10
72.700000000000728
 20
85.145828208611704
 30
0.0
 42
0.4142135623730951
  0
VERTEX
  5
BA6
  8
SAPA_PROFIL
 10
72.200000000000728
 20
84.645828208611704
 30
0.0
  0
VERTEX
  5
BA7
  8
SAPA_PROFIL
 10
72.200000000000728
 20
83.946163084518787
 30
0.0
 42
0.4142135623730951
  0
VERTEX
  5
BA8
  8
SAPA_PROFIL
 10
72.700000000000728
 20
83.446163084518787
 30
0.0
  0
VERTEX
  5
BA9
  8
SAPA_PROFIL
 10
74.79289321881356
 20
83.446163084518787
 30
0.0
 42
-0.1989123673801872
  0
VERTEX
  5
BAA
  8
SAPA_PROFIL
 10
75.146446609407576
 20
83.299716475111666
 30
0.0
  0
VERTEX
  5
BAB
  8
SAPA_PROFIL
 10
76.358578643763622
 20
82.087584440755833
 30
0.0
 42
-0.4142135623721031
  0
VERTEX
  5
BAC
  8
SAPA_PROFIL
 10
76.358578643763622
 20
81.804741728280817
 30
0.0
  0
VERTEX
  5
BAD
  8
SAPA_PROFIL
 10
75.103553390593561
 20
80.549716475111666
 30
0.0
 42
-0.6681786379192989
  0
VERTEX
  5
BAE
  8
SAPA_PROFIL
 10
74.500000000000682
 20
80.799716475111666
 30
0.0
  0
VERTEX
  5
BAF
  8
SAPA_PROFIL
 10
74.500000000000682
 20
81.146163084518847
 30
0.0
 42
0.4142135623730951
  0
VERTEX
  5
BB0
  8
SAPA_PROFIL
 10
74.000000000000682
 20
81.646163084518832
 30
0.0
  0
VERTEX
  5
BB1
  8
SAPA_PROFIL
 10
72.787221509491701
 20
81.646163084518378
 30
0.0
 42
0.4758639521839558
  0
VERTEX
  5
BB2
  8
SAPA_PROFIL
 10
72.297774205397673
 20
81.043980226294764
 30
0.0
  0
VERTEX
  5
BB3
  8
SAPA_PROFIL
 10
74.98311568655231
 20
68.18142019051362
 30
0.0
 42
-0.0514993824408238
  0
VERTEX
  5
BB4
  8
SAPA_PROFIL
 10
74.989447304095606
 20
68.120110475579679
 30
0.0
  0
VERTEX
  5
BB5
  8
SAPA_PROFIL
 10
74.989447304095606
 20
54.146497960425499
 30
0.0
 42
-0.4142135623725124
  0
VERTEX
  5
BB6
  8
SAPA_PROFIL
 10
74.48944730409562
 20
53.646497960425499
 30
0.0
  0
VERTEX
  5
BB7
  8
SAPA_PROFIL
 10
73.956551230380214
 20
53.646497960425499
 30
0.0
 42
0.4930053328293303
  0
VERTEX
  5
BB8
  8
SAPA_PROFIL
 10
73.473530031324572
 20
53.017306160132932
 30
0.0
  0
VERTEX
  5
BB9
  8
SAPA_PROFIL
 10
74.978055862752626
 20
47.39219783699815
 30
0.0
 42
-0.0653162663294908
  0
VERTEX
  5
BBA
  8
SAPA_PROFIL
 10
74.98824311238377
 20
47.314818996964561
 30
0.0
  0
VERTEX
  5
BBB
  8
SAPA_PROFIL
 10
74.990000000000691
 20
43.44616308451856
 30
0.0
  0
VERTEX
  5
BBC
  8
SAPA_PROFIL
 10
76.348578643763631
 20
42.08758444075584
 30
0.0
 42
-0.4142135623717354
  0
VERTEX
  5
BBD
  8
SAPA_PROFIL
 10
76.348578643763631
 20
41.804741728281272
 30
0.0
  0
VERTEX
  5
BBE
  8
SAPA_PROFIL
 10
74.990000000000691
 20
40.44616308451856
 30
0.0
  0
VERTEX
  5
BBF
  8
SAPA_PROFIL
 10
74.990000000000691
 20
37.246497960425408
 30
0.0
 42
-0.4142135623730951
  0
VERTEX
  5
BC0
  8
SAPA_PROFIL
 10
74.690000000000495
 20
36.946497960425461
 30
0.0
  0
VERTEX
  5
BC1
  8
SAPA_PROFIL
 10
73.990000000000691
 20
36.946497960425461
 30
0.0
 42
-0.4142135623731451
  0
VERTEX
  5
BC2
  8
SAPA_PROFIL
 10
73.490000000000691
 20
37.446497960425461
 30
0.0
  0
VERTEX
  5
BC3
  8
SAPA_PROFIL
 10
73.490000000000691
 20
45.949915023592268
 30
0.0
 42
0.0654302849891172
  0
VERTEX
  5
BC4
  8
SAPA_PROFIL
 10
73.479812719433994
 20
46.027430103767813
 30
0.0
  0
VERTEX
  5
BC5
  8
SAPA_PROFIL
 10
71.121594802399613
 20
54.844315102202302
 30
0.0
 42
-0.4758639521834738
  0
VERTEX
  5
BC6
  8
SAPA_PROFIL
 10
71.611042106493642
 20
55.446497960425241
 30
0.0
  0
VERTEX
  5
BC7
  8
SAPA_PROFIL
 10
72.693187602949592
 20
55.446497960425461
 30
0.0
 42
0.4143465813459925
  0
VERTEX
  5
BC8
  8
SAPA_PROFIL
 10
73.193187551390565
 20
55.946725027328803
 30
0.0
  0
VERTEX
  5
BC9
  8
SAPA_PROFIL
 10
73.191420284151945
 20
61.174041163019467
 30
0.0
 42
-0.1317384842620349
  0
VERTEX
  5
BCA
  8
SAPA_PROFIL
 10
73.231612645871564
 20
61.3241425879433
 30
0.0
  0
VERTEX
  5
BCB
  8
SAPA_PROFIL
 10
73.590929687705739
 20
61.946497960425681
 30
0.0
  0
VERTEX
  5
BCC
  8
SAPA_PROFIL
 10
73.231095694546639
 20
62.569748718867061
 30
0.0
 42
-0.1315690551425046
  0
VERTEX
  5
BCD
  8
SAPA_PROFIL
 10
73.190903331828167
 20
62.71965029281165
 30
0.0
  0
VERTEX
  5
BCE
  8
SAPA_PROFIL
 10
73.190008614417593
 20
65.446725027328796
 30
0.0
 42
0.4140805559112343
  0
VERTEX
  5
BCF
  8
SAPA_PROFIL
 10
72.69000866597662
 20
65.946497960425688
 30
0.0
  0
VERTEX
  5
BD0
  8
SAPA_PROFIL
 10
67.377147369651539
 20
65.946497960425688
 30
0.0
 42
-0.355138457742837
  0
VERTEX
  5
BD1
  8
SAPA_PROFIL
 10
66.887700065557055
 20
66.344315102202756
 30
0.0
  0
VERTEX
  5
BD2
  8
SAPA_PROFIL
 10
66.071117656982551
 20
70.255676218906785
 30
0.0
 42
-1.00000000000078
  0
VERTEX
  5
BD3
  8
SAPA_PROFIL
 10
67.539459470132897
 20
70.562225268411623
 30
0.0
  0
VERTEX
  5
BD4
  8
SAPA_PROFIL
 10
68.107022646001496
 20
67.843645350388726
 30
0.0
 42
0.355138457742837
  0
VERTEX
  5
BD5
  8
SAPA_PROFIL
 10
68.596469950095525
 20
67.445828208611886
 30
0.0
  0
VERTEX
  5
BD6
  8
SAPA_PROFIL
 10
72.682711682901527
 20
67.445828208611886
 30
0.0
 42
0.4758639521833721
  0
VERTEX
  5
BD7
  8
SAPA_PROFIL
 10
73.172158986995555
 20
68.048011066834803
 30
0.0
  0
VERTEX
  5
BD8
  8
SAPA_PROFIL
 10
69.623036179978499
 20
85.048011066834817
 30
0.0
 42
0.3551384577429493
  0
VERTEX
  5
BD9
  8
SAPA_PROFIL
 10
69.133588875883561
 20
85.445828208611886
 30
0.0
  0
VERTEX
  5
BDA
  8
SAPA_PROFIL
 10
65.047347143078696
 20
85.445828208611886
 30
0.0
 42
0.4758639521832408
  0
SEQEND
  5
BDB
  8
SAPA_PROFIL
  0
POLYLINE
  5
79A
  8
SAPA_PROFIL
 66
     1
 10
0.0
 20
0.0
 30
0.0
 70
     1
  0
VERTEX
  5
BDC
  8
SAPA_PROFIL
 10
55.442100161017827
 20
39.163021316278261
 30
0.0
  0
VERTEX
  5
BDD
  8
SAPA_PROFIL
 10
54.851619087702829
 20
41.991376037196268
 30
0.0
 42
-1.000000000000006
  0
VERTEX
  5
BDE
  8
SAPA_PROFIL
 10
56.319960999986733
 20
42.297924611866208
 30
0.0
  0
VERTEX
  5
BDF
  8
SAPA_PROFIL
 10
57.287598705556768
 20
37.663021316278261
 30
0.0
 42
-0.4758639521832408
  0
VERTEX
  5
BE0
  8
SAPA_PROFIL
 10
56.798151401461837
 20
37.060838458055102
 30
0.0
  0
VERTEX
  5
BE1
  8
SAPA_PROFIL
 10
45.300000000000637
 20
37.060838458055102
 30
0.0
 42
-0.4142135623730951
  0
VERTEX
  5
BE2
  8
SAPA_PROFIL
 10
45.000000000000682
 20
37.360838458055277
 30
0.0
  0
VERTEX
  5
BE3
  8
SAPA_PROFIL
 10
45.000000000000682
 20
38.360838458055291
 30
0.0
 42
-0.4142135623730951
  0
VERTEX
  5
BE4
  8
SAPA_PROFIL
 10
45.500000000000682
 20
38.860838458055277
 30
0.0
  0
VERTEX
  5
BE5
  8
SAPA_PROFIL
 10
47.30000000000063
 20
38.860838458055277
 30
0.0
 42
0.4142135623730951
  0
VERTEX
  5
BE6
  8
SAPA_PROFIL
 10
47.800000000000637
 20
39.360838458055291
 30
0.0
  0
VERTEX
  5
BE7
  8
SAPA_PROFIL
 10
47.800000000000637
 20
40.060503582148201
 30
0.0
 42
0.4142135623730951
  0
VERTEX
  5
BE8
  8
SAPA_PROFIL
 10
47.30000000000063
 20
40.560503582148201
 30
0.0
  0
VERTEX
  5
BE9
  8
SAPA_PROFIL
 10
45.207106781187797
 20
40.560503582148201
 30
0.0
 42
-0.1989123673801872
  0
VERTEX
  5
BEA
  8
SAPA_PROFIL
 10
44.853553390593781
 20
40.706950191555322
 30
0.0
  0
VERTEX
  5
BEB
  8
SAPA_PROFIL
 10
43.641421356237743
 20
41.91908222591114
 30
0.0
 42
-0.4142135623721031
  0
VERTEX
  5
BEC
  8
SAPA_PROFIL
 10
43.641421356237743
 20
42.201924938386171
 30
0.0
  0
VERTEX
  5
BED
  8
SAPA_PROFIL
 10
44.896446609407803
 20
43.456950191555322
 30
0.0
 42
-0.6681786379192989
  0
VERTEX
  5
BEE
  8
SAPA_PROFIL
 10
45.500000000000682
 20
43.206950191555322
 30
0.0
  0
VERTEX
  5
BEF
  8
SAPA_PROFIL
 10
45.500000000000682
 20
42.860503582148148
 30
0.0
 42
0.4142135623730951
  0
VERTEX
  5
BF0
  8
SAPA_PROFIL
 10
46.000000000000682
 20
42.360503582148148
 30
0.0
  0
VERTEX
  5
BF1
  8
SAPA_PROFIL
 10
47.212778490509663
 20
42.360503582148603
 30
0.0
 42
0.4758639521839558
  0
VERTEX
  5
BF2
  8
SAPA_PROFIL
 10
47.702225794603677
 20
42.962686440372217
 30
0.0
  0
VERTEX
  5
BF3
  8
SAPA_PROFIL
 10
45.016884313449047
 20
55.82524647615336
 30
0.0
 42
-0.0514993824408238
  0
VERTEX
  5
BF4
  8
SAPA_PROFIL
 10
45.010552695905737
 20
55.886556191087308
 30
0.0
  0
VERTEX
  5
BF5
  8
SAPA_PROFIL
 10
45.010552695905737
 20
69.860168706241481
 30
0.0
 42
-0.4142135623725124
  0
VERTEX
  5
BF6
  8
SAPA_PROFIL
 10
45.510552695905737
 20
70.360168706241481
 30
0.0
  0
VERTEX
  5
BF7
  8
SAPA_PROFIL
 10
46.043448769621129
 20
70.360168706241481
 30
0.0
 42
0.4930053328293303
  0
VERTEX
  5
BF8
  8
SAPA_PROFIL
 10
46.526469968676793
 20
70.989360506534055
 30
0.0
  0
VERTEX
  5
BF9
  8
SAPA_PROFIL
 10
45.021944137248738
 20
76.614468829668837
 30
0.0
 42
-0.0653162663294908
  0
VERTEX
  5
BFA
  8
SAPA_PROFIL
 10
45.011756887617587
 20
76.691847669702426
 30
0.0
  0
VERTEX
  5
BFB
  8
SAPA_PROFIL
 10
45.010000000000673
 20
80.560503582148428
 30
0.0
  0
VERTEX
  5
BFC
  8
SAPA_PROFIL
 10
43.651421356237726
 20
81.919082225911154
 30
0.0
 42
-0.4142135623717354
  0
VERTEX
  5
BFD
  8
SAPA_PROFIL
 10
43.651421356237726
 20
82.201924938385716
 30
0.0
  0
VERTEX
  5
BFE
  8
SAPA_PROFIL
 10
45.010000000000673
 20
83.560503582148414
 30
0.0
  0
VERTEX
  5
BFF
  8
SAPA_PROFIL
 10
45.010000000000673
 20
86.760168706241586
 30
0.0
 42
-0.4142135623730951
  0
VERTEX
  5
C00
  8
SAPA_PROFIL
 10
45.310000000000848
 20
87.060168706241527
 30
0.0
  0
VERTEX
  5
C01
  8
SAPA_PROFIL
 10
46.010000000000673
 20
87.060168706241527
 30
0.0
 42
-0.4142135623731451
  0
VERTEX
  5
C02
  8
SAPA_PROFIL
 10
46.510000000000673
 20
86.560168706241527
 30
0.0
  0
VERTEX
  5
C03
  8
SAPA_PROFIL
 10
46.510000000000673
 20
78.056751643074719
 30
0.0
 42
0.0654302849891172
  0
VERTEX
  5
C04
  8
SAPA_PROFIL
 10
46.52018728056737
 20
77.979236562899175
 30
0.0
  0
VERTEX
  5
C05
  8
SAPA_PROFIL
 10
48.878405197601751
 20
69.162351564464686
 30
0.0
 42
-0.4758639521834738
  0
VERTEX
  5
C06
  8
SAPA_PROFIL
 10
48.388957893507722
 20
68.560168706241754
 30
0.0
  0
VERTEX
  5
C07
  8
SAPA_PROFIL
 10
47.306812397051772
 20
68.560168706241527
 30
0.0
 42
0.4143465813459925
  0
VERTEX
  5
C08
  8
SAPA_PROFIL
 10
46.806812448610792
 20
68.059941639338192
 30
0.0
  0
VERTEX
  5
C09
  8
SAPA_PROFIL
 10
46.808579715849412
 20
62.83262550364752
 30
0.0
 42
-0.1317384842620349
  0
VERTEX
  5
C0A
  8
SAPA_PROFIL
 10
46.7683873541298
 20
62.682524078723688
 30
0.0
  0
VERTEX
  5
C0B
  8
SAPA_PROFIL
 10
46.409070312295619
 20
62.060168706241299
 30
0.0
  0
VERTEX
  5
C0C
  8
SAPA_PROFIL
 10
46.768904305454718
 20
61.436917947799927
 30
0.0
 42
-0.1315690551425046
  0
VERTEX
  5
C0D
  8
SAPA_PROFIL
 10
46.809096668173197
 20
61.287016373855337
 30
0.0
  0
VERTEX
  5
C0E
  8
SAPA_PROFIL
 10
46.809991385583771
 20
58.559941639338192
 30
0.0
 42
0.4140805559112343
  0
VERTEX
  5
C0F
  8
SAPA_PROFIL
 10
47.309991334024737
 20
58.060168706241299
 30
0.0
  0
VERTEX
  5
C10
  8
SAPA_PROFIL
 10
52.622852630349819
 20
58.060168706241299
 30
0.0
 42
-0.355138457742837
  0
VERTEX
  5
C11
  8
SAPA_PROFIL
 10
53.112299934444309
 20
57.662351564464231
 30
0.0
  0
VERTEX
  5
C12
  8
SAPA_PROFIL
 10
53.92888234301882
 20
53.750990447760202
 30
0.0
 42
-1.00000000000078
  0
VERTEX
  5
C13
  8
SAPA_PROFIL
 10
52.46054052986846
 20
53.444441398255371
 30
0.0
  0
VERTEX
  5
C14
  8
SAPA_PROFIL
 10
51.892977353999861
 20
56.163021316278261
 30
0.0
 42
0.355138457742837
  0
VERTEX
  5
C15
  8
SAPA_PROFIL
 10
51.403530049905839
 20
56.560838458055102
 30
0.0
  0
VERTEX
  5
C16
  8
SAPA_PROFIL
 10
47.31728831709983
 20
56.560838458055102
 30
0.0
 42
0.4758639521833721
  0
VERTEX
  5
C17
  8
SAPA_PROFIL
 10
46.827841013005809
 20
55.958655599832163
 30
0.0
  0
VERTEX
  5
C18
  8
SAPA_PROFIL
 10
50.376963820022873
 20
38.95865559983217
 30
0.0
 42
0.3551384577429493
  0
VERTEX
  5
C19
  8
SAPA_PROFIL
 10
50.866411124117803
 20
38.560838458055102
 30
0.0
  0
VERTEX
  5
C1A
  8
SAPA_PROFIL
 10
54.952652856922668
 20
38.560838458055102
 30
0.0
 42
0.4758639521832408
  0
SEQEND
  5
C1B
  8
SAPA_PROFIL
  0
LINE
  5
79B
  8
SAPA_PROFIL
 10
185.700000000004
 20
41.003333333338333
 30
0.0
 11
185.700000000004
 21
41.003333333338333
 31
0.0
  0
POLYLINE
  5
79C
  8
SAPA_PROFIL
 66
     1
 10
0.0
 20
0.0
 30
0.0
 70
     1
  0
VERTEX
  5
C1C
  8
SAPA_PROFIL
 10
169.69999999999999
 20
60.00333333333333
 30
0.0
 42
0.4142135623730951
  0
VERTEX
  5
C1D
  8
SAPA_PROFIL
 10
170.00000000000011
 20
60.303333333333278
 30
0.0
  0
VERTEX
  5
C1E
  8
SAPA_PROFIL
 10
170.00000000000011
 20
61.137307929548342
 30
0.0
  0
VERTEX
  5
C1F
  8
SAPA_PROFIL
 10
170.50000000000011
 20
62.00333333333333
 30
0.0
  0
VERTEX
  5
C20
  8
SAPA_PROFIL
 10
170.00000000000011
 20
62.869358737117302
 30
0.0
  0
VERTEX
  5
C21
  8
SAPA_PROFIL
 10
170.00000000000011
 20
63.703333333333383
 30
0.0
 42
0.4142135623730951
  0
VERTEX
  5
C22
  8
SAPA_PROFIL
 10
169.69999999999999
 20
64.00333333333333
 30
0.0
  0
VERTEX
  5
C23
  8
SAPA_PROFIL
 10
166.00000000000011
 20
64.00333333333333
 30
0.0
  0
VERTEX
  5
C24
  8
SAPA_PROFIL
 10
165.00000000000011
 20
65.00333333333333
 30
0.0
  0
VERTEX
  5
C25
  8
SAPA_PROFIL
 10
165.00000000000011
 20
79.103333333333239
 30
0.0
 42
0.4142135623730951
  0
VERTEX
  5
C26
  8
SAPA_PROFIL
 10
164.69999999999999
 20
79.403333333333308
 30
0.0
  0
VERTEX
  5
C27
  8
SAPA_PROFIL
 10
161.30000000000001
 20
79.403333333333308
 30
0.0
 42
-0.4142135623730951
  0
VERTEX
  5
C28
  8
SAPA_PROFIL
 10
161.00000000000011
 20
79.703333333333376
 30
0.0
  0
VERTEX
  5
C29
  8
SAPA_PROFIL
 10
161.00000000000011
 20
81.303333333333285
 30
0.0
 42
-0.4142135623730951
  0
VERTEX
  5
C2A
  8
SAPA_PROFIL
 10
161.30000000000001
 20
81.603333333333254
 30
0.0
  0
VERTEX
  5
C2B
  8
SAPA_PROFIL
 10
164.69999999999999
 20
81.603333333333254
 30
0.0
 42
0.4142135623730951
  0
VERTEX
  5
C2C
  8
SAPA_PROFIL
 10
165.00000000000011
 20
81.903333333333308
 30
0.0
  0
VERTEX
  5
C2D
  8
SAPA_PROFIL
 10
165.00000000000011
 20
88.703333333333376
 30
0.0
 42
0.4142135623730951
  0
VERTEX
  5
C2E
  8
SAPA_PROFIL
 10
164.69999999999999
 20
89.003333333333345
 30
0.0
  0
VERTEX
  5
C2F
  8
SAPA_PROFIL
 10
88.500000000000114
 20
89.003333333333345
 30
0.0
 42
0.4142135623730951
  0
VERTEX
  5
C30
  8
SAPA_PROFIL
 10
88.200000000000045
 20
88.703333333333376
 30
0.0
  0
VERTEX
  5
C31
  8
SAPA_PROFIL
 10
88.200000000000045
 20
81.903333333333308
 30
0.0
 42
0.4142135623730951
  0
VERTEX
  5
C32
  8
SAPA_PROFIL
 10
88.500000000000114
 20
81.603333333333254
 30
0.0
  0
VERTEX
  5
C33
  8
SAPA_PROFIL
 10
91.900000000000105
 20
81.603333333333254
 30
0.0
 42
-0.4142135623730951
  0
VERTEX
  5
C34
  8
SAPA_PROFIL
 10
92.200000000000045
 20
81.303333333333285
 30
0.0
  0
VERTEX
  5
C35
  8
SAPA_PROFIL
 10
92.200000000000159
 20
79.703333333333376
 30
0.0
 42
-0.4142135623730951
  0
VERTEX
  5
C36
  8
SAPA_PROFIL
 10
91.900000000000105
 20
79.403333333333308
 30
0.0
  0
VERTEX
  5
C37
  8
SAPA_PROFIL
 10
87.300000000000068
 20
79.403333333333308
 30
0.0
 42
0.4142135623730951
  0
VERTEX
  5
C38
  8
SAPA_PROFIL
 10
87.000000000000114
 20
79.103333333333239
 30
0.0
  0
VERTEX
  5
C39
  8
SAPA_PROFIL
 10
87.000000000000114
 20
44.903333333333308
 30
0.0
 42
0.4142135623730951
  0
VERTEX
  5
C3A
  8
SAPA_PROFIL
 10
87.300000000000068
 20
44.603333333333232
 30
0.0
  0
VERTEX
  5
C3B
  8
SAPA_PROFIL
 10
91.900000000000105
 20
44.603333333333232
 30
0.0
 42
-0.4142135623730951
  0
VERTEX
  5
C3C
  8
SAPA_PROFIL
 10
92.200000000000159
 20
44.303333333333292
 30
0.0
  0
VERTEX
  5
C3D
  8
SAPA_PROFIL
 10
92.200000000000045
 20
42.703333333333369
 30
0.0
 42
-0.4142135623730951
  0
VERTEX
  5
C3E
  8
SAPA_PROFIL
 10
91.900000000000105
 20
42.403333333333308
 30
0.0
  0
VERTEX
  5
C3F
  8
SAPA_PROFIL
 10
88.500000000000114
 20
42.403333333333308
 30
0.0
 42
0.4142135623730951
  0
VERTEX
  5
C40
  8
SAPA_PROFIL
 10
88.200000000000045
 20
42.103333333333232
 30
0.0
  0
VERTEX
  5
C41
  8
SAPA_PROFIL
 10
88.200000000000045
 20
35.303333333333292
 30
0.0
 42
0.4142135623730951
  0
VERTEX
  5
C42
  8
SAPA_PROFIL
 10
88.500000000000114
 20
35.00333333333333
 30
0.0
  0
VERTEX
  5
C43
  8
SAPA_PROFIL
 10
165.50000000000011
 20
35.00333333333333
 30
0.0
  0
VERTEX
  5
C44
  8
SAPA_PROFIL
 10
168.91213203435609
 20
38.415465367689308
 30
0.0
 42
0.1989123673797207
  0
VERTEX
  5
C45
  8
SAPA_PROFIL
 10
169.00000000000011
 20
38.62759740204524
 30
0.0
  0
VERTEX
  5
C46
  8
SAPA_PROFIL
 10
169.00000000000011
 20
42.103333333333232
 30
0.0
 42
0.4142135623730951
  0
VERTEX
  5
C47
  8
SAPA_PROFIL
 10
168.69999999999999
 20
42.403333333333308
 30
0.0
  0
VERTEX
  5
C48
  8
SAPA_PROFIL
 10
161.30000000000001
 20
42.403333333333308
 30
0.0
 42
-0.4142135623730951
  0
VERTEX
  5
C49
  8
SAPA_PROFIL
 10
161.00000000000011
 20
42.703333333333369
 30
0.0
  0
VERTEX
  5
C4A
  8
SAPA_PROFIL
 10
161.00000000000011
 20
44.303333333333292
 30
0.0
 42
-0.4142135623730951
  0
VERTEX
  5
C4B
  8
SAPA_PROFIL
 10
161.30000000000001
 20
44.603333333333232
 30
0.0
  0
VERTEX
  5
C4C
  8
SAPA_PROFIL
 10
169.69999999999999
 20
44.603333333333232
 30
0.0
 42
0.4142135623730951
  0
VERTEX
  5
C4D
  8
SAPA_PROFIL
 10
170.00000000000011
 20
44.903333333333308
 30
0.0
  0
VERTEX
  5
C4E
  8
SAPA_PROFIL
 10
170.00000000000011
 20
57.703333333333369
 30
0.0
 42
0.4142135623730951
  0
VERTEX
  5
C4F
  8
SAPA_PROFIL
 10
169.69999999999999
 20
58.00333333333333
 30
0.0
  0
VERTEX
  5
C50
  8
SAPA_PROFIL
 10
165.69999999999999
 20
58.00333333333333
 30
0.0
 42
-0.6681786379192989
  0
VERTEX
  5
C51
  8
SAPA_PROFIL
 10
165.3464466094068
 20
58.856886723926657
 30
0.0
  0
VERTEX
  5
C52
  8
SAPA_PROFIL
 10
166.49289321881301
 20
60.00333333333333
 30
0.0
  0
SEQEND
  5
C53
  8
SAPA_PROFIL
  0
POLYLINE
  5
79D
  8
SAPA_PROFIL
 66
     1
 10
0.0
 20
0.0
 30
0.0
 70
     1
  0
VERTEX
  5
C54
  8
SAPA_PROFIL
 10
80.242640687119092
 20
32.00333333333333
 30
0.0
 42
-0.1989123673796595
  0
VERTEX
  5
C55
  8
SAPA_PROFIL
 10
78.121320343559432
 20
32.882012989773671
 30
0.0
  0
VERTEX
  5
C56
  8
SAPA_PROFIL
 10
75.292893218812992
 20
35.710440114519308
 30
0.0
 42
-0.1989123673796811
  0
VERTEX
  5
C57
  8
SAPA_PROFIL
 10
75.000000000000114
 20
36.417546895706323
 30
0.0
  0
VERTEX
  5
C58
  8
SAPA_PROFIL
 10
74.999999999999659
 20
38.803333333333171
 30
0.0
 42
-0.2504916501726618
  0
VERTEX
  5
C59
  8
SAPA_PROFIL
 10
76.000000000000114
 20
39.803333333333399
 30
0.0
  0
VERTEX
  5
C5A
  8
SAPA_PROFIL
 10
76.700000000000045
 20
39.803333333333512
 30
0.0
 42
-0.4142135623730951
  0
VERTEX
  5
C5B
  8
SAPA_PROFIL
 10
77.000000000000114
 20
39.503333333333451
 30
0.0
  0
VERTEX
  5
C5C
  8
SAPA_PROFIL
 10
77.000000000000114
 20
39.053333333333399
 30
0.0
 42
0.4142135623730951
  0
VERTEX
  5
C5D
  8
SAPA_PROFIL
 10
77.300000000000068
 20
38.753333333333437
 30
0.0
  0
VERTEX
  5
C5E
  8
SAPA_PROFIL
 10
78.0
 20
38.753333333333437
 30
0.0
 42
0.4142135623731506
  0
VERTEX
  5
C5F
  8
SAPA_PROFIL
 10
78.300000000000068
 20
39.053333333333399
 30
0.0
  0
VERTEX
  5
C60
  8
SAPA_PROFIL
 10
78.300000000000068
 20
39.503333333333451
 30
0.0
 42
-0.4142135623731506
  0
VERTEX
  5
C61
  8
SAPA_PROFIL
 10
78.600000000000023
 20
39.803333333333399
 30
0.0
  0
VERTEX
  5
C62
  8
SAPA_PROFIL
 10
79.100000000000023
 20
39.803333333333512
 30
0.0
 42
-0.4142135623730951
  0
VERTEX
  5
C63
  8
SAPA_PROFIL
 10
79.600000000000023
 20
39.303333333333512
 30
0.0
  0
VERTEX
  5
C64
  8
SAPA_PROFIL
 10
79.600000000000023
 20
37.903333333333542
 30
0.0
 42
0.4142135623730951
  0
VERTEX
  5
C65
  8
SAPA_PROFIL
 10
80.600000000000023
 20
36.903333333333542
 30
0.0
  0
VERTEX
  5
C66
  8
SAPA_PROFIL
 10
81.000000000000114
 20
36.903333333333421
 30
0.0
 42
0.9999999999999998
  0
VERTEX
  5
C67
  8
SAPA_PROFIL
 10
81.000000000000114
 20
44.103333333333467
 30
0.0
  0
VERTEX
  5
C68
  8
SAPA_PROFIL
 10
79.899999999999977
 20
44.103333333333687
 30
0.0
 42
0.4142135623732059
  0
VERTEX
  5
C69
  8
SAPA_PROFIL
 10
79.599999999999909
 20
43.803333333333512
 30
0.0
  0
VERTEX
  5
C6A
  8
SAPA_PROFIL
 10
79.600000000000136
 20
43.503333333333551
 30
0.0
 42
-0.4142135623733948
  0
VERTEX
  5
C6B
  8
SAPA_PROFIL
 10
79.100000000000023
 20
43.00333333333333
 30
0.0
  0
VERTEX
  5
C6C
  8
SAPA_PROFIL
 10
78.600000000000023
 20
43.00333333333333
 30
0.0
 42
-0.4142135623730397
  0
VERTEX
  5
C6D
  8
SAPA_PROFIL
 10
78.300000000000068
 20
43.303333333333278
 30
0.0
  0
VERTEX
  5
C6E
  8
SAPA_PROFIL
 10
78.300000000000068
 20
43.753333333333437
 30
0.0
 42
0.4142135623731505
  0
VERTEX
  5
C6F
  8
SAPA_PROFIL
 10
78.0
 20
44.053333333333399
 30
0.0
  0
VERTEX
  5
C70
  8
SAPA_PROFIL
 10
77.300000000000068
 20
44.053333333333512
 30
0.0
 42
0.4142135623730951
  0
VERTEX
  5
C71
  8
SAPA_PROFIL
 10
77.000000000000114
 20
43.753333333333437
 30
0.0
  0
VERTEX
  5
C72
  8
SAPA_PROFIL
 10
77.000000000000114
 20
43.303333333333278
 30
0.0
 42
-0.4142135623730951
  0
VERTEX
  5
C73
  8
SAPA_PROFIL
 10
76.700000000000045
 20
43.00333333333333
 30
0.0
  0
VERTEX
  5
C74
  8
SAPA_PROFIL
 10
75.999999999999645
 20
43.003333333333778
 30
0.0
 42
-0.2504916501726643
  0
VERTEX
  5
C75
  8
SAPA_PROFIL
 10
74.999999999999659
 20
44.003333333332762
 30
0.0
  0
VERTEX
  5
C76
  8
SAPA_PROFIL
 10
75.000000000000114
 20
46.303333333333278
 30
0.0
 42
-0.4142135623730951
  0
VERTEX
  5
C77
  8
SAPA_PROFIL
 10
76.000000000000114
 20
47.303333333333278
 30
0.0
  0
VERTEX
  5
C78
  8
SAPA_PROFIL
 10
83.700000000000045
 20
47.303333333333278
 30
0.0
 42
0.4142135623730951
  0
VERTEX
  5
C79
  8
SAPA_PROFIL
 10
84.000000000000114
 20
47.603333333333232
 30
0.0
  0
VERTEX
  5
C7A
  8
SAPA_PROFIL
 10
84.000000000000114
 20
61.137307929548342
 30
0.0
  0
VERTEX
  5
C7B
  8
SAPA_PROFIL
 10
84.500000000000114
 20
62.00333333333333
 30
0.0
  0
VERTEX
  5
C7C
  8
SAPA_PROFIL
 10
84.000000000000114
 20
62.869358737117302
 30
0.0
  0
VERTEX
  5
C7D
  8
SAPA_PROFIL
 10
84.000000000000114
 20
76.403333333333293
 30
0.0
 42
0.4142135623730951
  0
VERTEX
  5
C7E
  8
SAPA_PROFIL
 10
83.700000000000045
 20
76.703333333333376
 30
0.0
  0
VERTEX
  5
C7F
  8
SAPA_PROFIL
 10
76.000000000000114
 20
76.703333333333376
 30
0.0
 42
-0.4142135623730951
  0
VERTEX
  5
C80
  8
SAPA_PROFIL
 10
75.000000000000114
 20
77.703333333333376
 30
0.0
  0
VERTEX
  5
C81
  8
SAPA_PROFIL
 10
75.000000000000114
 20
80.00333333333333
 30
0.0
 42
-0.2504916501726643
  0
VERTEX
  5
C82
  8
SAPA_PROFIL
 10
75.999999999999645
 20
81.003333333332876
 30
0.0
  0
VERTEX
  5
C83
  8
SAPA_PROFIL
 10
76.700000000000045
 20
81.00333333333333
 30
0.0
 42
-0.4142135623730951
  0
VERTEX
  5
C84
  8
SAPA_PROFIL
 10
77.000000000000114
 20
80.703333333333376
 30
0.0
  0
VERTEX
  5
C85
  8
SAPA_PROFIL
 10
77.000000000000114
 20
80.253333333333217
 30
0.0
 42
0.4142135623730951
  0
VERTEX
  5
C86
  8
SAPA_PROFIL
 10
77.300000000000068
 20
79.953333333333148
 30
0.0
  0
VERTEX
  5
C87
  8
SAPA_PROFIL
 10
78.0
 20
79.953333333333262
 30
0.0
 42
0.4142135623731506
  0
VERTEX
  5
C88
  8
SAPA_PROFIL
 10
78.300000000000068
 20
80.253333333333217
 30
0.0
  0
VERTEX
  5
C89
  8
SAPA_PROFIL
 10
78.300000000000068
 20
80.703333333333376
 30
0.0
 42
-0.4142135623730397
  0
VERTEX
  5
C8A
  8
SAPA_PROFIL
 10
78.600000000000023
 20
81.00333333333333
 30
0.0
  0
VERTEX
  5
C8B
  8
SAPA_PROFIL
 10
79.100000000000023
 20
81.00333333333333
 30
0.0
 42
-0.4142135623733948
  0
VERTEX
  5
C8C
  8
SAPA_PROFIL
 10
79.600000000000136
 20
80.503333333333103
 30
0.0
  0
VERTEX
  5
C8D
  8
SAPA_PROFIL
 10
79.599999999999909
 20
80.203333333333148
 30
0.0
 42
0.4142135623732059
  0
VERTEX
  5
C8E
  8
SAPA_PROFIL
 10
79.899999999999977
 20
79.903333333332967
 30
0.0
  0
VERTEX
  5
C8F
  8
SAPA_PROFIL
 10
81.000000000000114
 20
79.903333333333194
 30
0.0
 42
0.9999999999999998
  0
VERTEX
  5
C90
  8
SAPA_PROFIL
 10
81.000000000000114
 20
87.103333333333225
 30
0.0
  0
VERTEX
  5
C91
  8
SAPA_PROFIL
 10
80.600000000000023
 20
87.103333333333126
 30
0.0
 42
0.4142135623730951
  0
VERTEX
  5
C92
  8
SAPA_PROFIL
 10
79.600000000000023
 20
86.103333333333126
 30
0.0
  0
VERTEX
  5
C93
  8
SAPA_PROFIL
 10
79.600000000000023
 20
84.703333333333134
 30
0.0
 42
-0.4142135623730951
  0
VERTEX
  5
C94
  8
SAPA_PROFIL
 10
79.100000000000023
 20
84.203333333333148
 30
0.0
  0
VERTEX
  5
C95
  8
SAPA_PROFIL
 10
78.600000000000023
 20
84.203333333333262
 30
0.0
 42
-0.4142135623731506
  0
VERTEX
  5
C96
  8
SAPA_PROFIL
 10
78.300000000000068
 20
84.503333333333217
 30
0.0
  0
VERTEX
  5
C97
  8
SAPA_PROFIL
 10
78.300000000000068
 20
84.953333333333248
 30
0.0
 42
0.4142135623731505
  0
VERTEX
  5
C98
  8
SAPA_PROFIL
 10
78.0
 20
85.253333333333217
 30
0.0
  0
VERTEX
  5
C99
  8
SAPA_PROFIL
 10
77.300000000000068
 20
85.253333333333217
 30
0.0
 42
0.4142135623730951
  0
VERTEX
  5
C9A
  8
SAPA_PROFIL
 10
77.000000000000114
 20
84.953333333333248
 30
0.0
  0
VERTEX
  5
C9B
  8
SAPA_PROFIL
 10
77.000000000000114
 20
84.503333333333217
 30
0.0
 42
-0.4142135623730951
  0
VERTEX
  5
C9C
  8
SAPA_PROFIL
 10
76.700000000000045
 20
84.203333333333148
 30
0.0
  0
VERTEX
  5
C9D
  8
SAPA_PROFIL
 10
76.000000000000114
 20
84.203333333333262
 30
0.0
 42
-0.2504916501726621
  0
VERTEX
  5
C9E
  8
SAPA_PROFIL
 10
74.999999999999659
 20
85.203333333333489
 30
0.0
  0
VERTEX
  5
C9F
  8
SAPA_PROFIL
 10
75.000000000000114
 20
87.589119770960224
 30
0.0
 42
-0.1989123673796728
  0
VERTEX
  5
CA0
  8
SAPA_PROFIL
 10
75.292893218813447
 20
88.296226552146777
 30
0.0
  0
VERTEX
  5
CA1
  8
SAPA_PROFIL
 10
78.121320343560114
 20
91.124653676892294
 30
0.0
 42
-0.1989123673796584
  0
VERTEX
  5
CA2
  8
SAPA_PROFIL
 10
80.242640687119092
 20
92.00333333333333
 30
0.0
  0
VERTEX
  5
CA3
  8
SAPA_PROFIL
 10
86.994667111180888
 20
92.00333333333333
 30
0.0
  0
VERTEX
  5
CA4
  8
SAPA_PROFIL
 10
167.75735931288011
 20
92.00333333333333
 30
0.0
 42
-0.1989123673796596
  0
VERTEX
  5
CA5
  8
SAPA_PROFIL
 10
169.87867965644011
 20
91.124653676892294
 30
0.0
  0
VERTEX
  5
CA6
  8
SAPA_PROFIL
 10
172.70710678118661
 20
88.296226552146905
 30
0.0
 42
-0.1989123673796371
  0
VERTEX
  5
CA7
  8
SAPA_PROFIL
 10
173.00000000000011
 20
87.589119770960323
 30
0.0
  0
VERTEX
  5
CA8
  8
SAPA_PROFIL
 10
173.00000000000011
 20
84.50333333333333
 30
0.0
  0
VERTEX
  5
CA9
  8
SAPA_PROFIL
 10
172.00000000000011
 20
83.50333333333333
 30
0.0
  0
VERTEX
  5
CAA
  8
SAPA_PROFIL
 10
171.30000000000001
 20
83.50333333333333
 30
0.0
 42
-0.4142135623730951
  0
VERTEX
  5
CAB
  8
SAPA_PROFIL
 10
171.00000000000011
 20
83.803333333333285
 30
0.0
  0
VERTEX
  5
CAC
  8
SAPA_PROFIL
 10
171.00000000000011
 20
85.553333333333285
 30
0.0
 42
0.4142135623730951
  0
VERTEX
  5
CAD
  8
SAPA_PROFIL
 10
170.69999999999999
 20
85.853333333333225
 30
0.0
  0
VERTEX
  5
CAE
  8
SAPA_PROFIL
 10
168.25000000000011
 20
85.853333333333225
 30
0.0
 42
0.4142135623730951
  0
VERTEX
  5
CAF
  8
SAPA_PROFIL
 10
167.94999999999999
 20
85.553333333333285
 30
0.0
  0
VERTEX
  5
CB0
  8
SAPA_PROFIL
 10
167.94999999999999
 20
67.453333333333376
 30
0.0
 42
0.4142135623730951
  0
VERTEX
  5
CB1
  8
SAPA_PROFIL
 10
168.25000000000011
 20
67.153333333333293
 30
0.0
  0
VERTEX
  5
CB2
  8
SAPA_PROFIL
 10
170.69999999999999
 20
67.153333333333293
 30
0.0
 42
0.4142135623730951
  0
VERTEX
  5
CB3
  8
SAPA_PROFIL
 10
171.00000000000011
 20
67.453333333333376
 30
0.0
  0
VERTEX
  5
CB4
  8
SAPA_PROFIL
 10
171.00000000000011
 20
69.203333333333376
 30
0.0
 42
-0.4142135623730951
  0
VERTEX
  5
CB5
  8
SAPA_PROFIL
 10
171.30000000000001
 20
69.50333333333333
 30
0.0
  0
VERTEX
  5
CB6
  8
SAPA_PROFIL
 10
172.00000000000011
 20
69.50333333333333
 30
0.0
  0
VERTEX
  5
CB7
  8
SAPA_PROFIL
 10
173.00000000000011
 20
68.50333333333333
 30
0.0
  0
VERTEX
  5
CB8
  8
SAPA_PROFIL
 10
173.00000000000011
 20
62.869358737117302
 30
0.0
  0
VERTEX
  5
CB9
  8
SAPA_PROFIL
 10
172.50000000000011
 20
62.00333333333333
 30
0.0
  0
VERTEX
  5
CBA
  8
SAPA_PROFIL
 10
173.00000000000011
 20
61.137307929548342
 30
0.0
  0
VERTEX
  5
CBB
  8
SAPA_PROFIL
 10
173.00000000000011
 20
42.00333333333333
 30
0.0
 42
0.4142135623730951
  0
VERTEX
  5
CBC
  8
SAPA_PROFIL
 10
174.00000000000011
 20
41.00333333333333
 30
0.0
  0
VERTEX
  5
CBD
  8
SAPA_PROFIL
 10
183.23508893593211
 20
41.00333333333333
 30
0.0
 42
0.3475404855922902
  0
VERTEX
  5
CBE
  8
SAPA_PROFIL
 10
183.52699148917841
 20
41.2341025641025
 30
0.0
 42
-0.347540485592353
  0
VERTEX
  5
CBF
  8
SAPA_PROFIL
 10
184.50000000000011
 20
42.00333333333333
 30
0.0
  0
VERTEX
  5
CC0
  8
SAPA_PROFIL
 10
185.06754446796199
 20
42.00333333333333
 30
0.0
 42
-0.2896898633048417
  0
VERTEX
  5
CC1
  8
SAPA_PROFIL
 10
185.9710523708705
 20
41.43190476189784
 30
0.0
 42
-0.5507604245820768
  0
VERTEX
  5
CC2
  8
SAPA_PROFIL
 10
185.700000000004
 20
41.003333333338333
 30
0.0
  0
VERTEX
  5
CC3
  8
SAPA_PROFIL
 10
185.04999999999799
 20
41.003333333334233
 30
0.0
 42
0.4142135623714856
  0
VERTEX
  5
CC4
  8
SAPA_PROFIL
 10
184.75000000000011
 20
40.703333333334292
 30
0.0
  0
VERTEX
  5
CC5
  8
SAPA_PROFIL
 10
184.75000000000011
 20
39.303333333333292
 30
0.0
 42
0.4142135623730951
  0
VERTEX
  5
CC6
  8
SAPA_PROFIL
 10
185.05000000000001
 20
39.00333333333333
 30
0.0
  0
VERTEX
  5
CC7
  8
SAPA_PROFIL
 10
193.44999999999999
 20
39.00333333333333
 30
0.0
 42
0.4142135623730951
  0
VERTEX
  5
CC8
  8
SAPA_PROFIL
 10
193.75
 20
39.303333333333292
 30
0.0
  0
VERTEX
  5
CC9
  8
SAPA_PROFIL
 10
193.75000000000011
 20
40.703333333333369
 30
0.0
 42
0.4142135623730951
  0
VERTEX
  5
CCA
  8
SAPA_PROFIL
 10
193.44999999999999
 20
41.00333333333333
 30
0.0
  0
VERTEX
  5
CCB
  8
SAPA_PROFIL
 10
192.8000000000001
 20
41.003333333334233
 30
0.0
  0
VERTEX
  5
CCC
  8
SAPA_PROFIL
 10
192.79999999999609
 20
41.00333333333333
 30
0.0
 42
-0.5507604245871307
  0
VERTEX
  5
CCD
  8
SAPA_PROFIL
 10
192.52894762912879
 20
41.43190476190648
 30
0.0
 42
-0.2896898633034174
  0
VERTEX
  5
CCE
  8
SAPA_PROFIL
 10
193.43245553203801
 20
42.00333333333333
 30
0.0
  0
VERTEX
  5
CCF
  8
SAPA_PROFIL
 10
194.69999999999999
 20
42.00333333333333
 30
0.0
 42
-0.4142135623730951
  0
VERTEX
  5
CD0
  8
SAPA_PROFIL
 10
195.00000000000011
 20
41.703333333333383
 30
0.0
  0
VERTEX
  5
CD1
  8
SAPA_PROFIL
 10
195.00000000000011
 20
37.50333333333333
 30
0.0
 42
-0.4142135623730951
  0
VERTEX
  5
CD2
  8
SAPA_PROFIL
 10
194.00000000000011
 20
36.50333333333333
 30
0.0
  0
VERTEX
  5
CD3
  8
SAPA_PROFIL
 10
174.74264068711909
 20
36.50333333333333
 30
0.0
 42
0.1989123673796595
  0
VERTEX
  5
CD4
  8
SAPA_PROFIL
 10
172.6213203435594
 20
35.62465367689299
 30
0.0
  0
VERTEX
  5
CD5
  8
SAPA_PROFIL
 10
169.87867965644011
 20
32.88201298977333
 30
0.0
 42
-0.1989123673796601
  0
VERTEX
  5
CD6
  8
SAPA_PROFIL
 10
167.75735931288011
 20
32.00333333333333
 30
0.0
  0
SEQEND
  5
CD7
  8
SAPA_PROFIL
  0
POLYLINE
  5
79E
  8
SAPA_PROFIL
 66
     1
 10
0.0
 20
0.0
 30
0.0
  0
VERTEX
  5
CD8
  8
SAPA_PROFIL
 10
175.87873692155199
 20
71.181778152700005
 30
0.0
  0
VERTEX
  5
CD9
  8
SAPA_PROFIL
 10
193.0000000000023
 20
70.500738218841718
 30
0.0
 42
0.4142135623730951
  0
VERTEX
  5
CDA
  8
SAPA_PROFIL
 10
193.5000000000023
 20
71.000738218841718
 30
0.0
  0
VERTEX
  5
CDB
  8
SAPA_PROFIL
 10
193.50000000000219
 20
82.800351701850445
 30
0.0
 42
0.4076767287637263
  0
VERTEX
  5
CDC
  8
SAPA_PROFIL
 10
190.5671036491853
 20
85.799601534240026
 30
0.0
  0
VERTEX
  5
CDD
  8
SAPA_PROFIL
 10
175.87873692155199
 20
85.954040756350764
 30
0.0
 42
0.4182129759575463
  0
VERTEX
  5
CDE
  8
SAPA_PROFIL
 10
175.36757580949649
 20
85.458529035493584
 30
0.0
  0
VERTEX
  5
CDF
  8
SAPA_PROFIL
 10
175.35474820797069
 20
82.983881279374259
 30
0.0
  0
VERTEX
  5
CE0
  8
SAPA_PROFIL
 10
173.7000596103469
 20
81.357823323180696
 30
0.0
  0
VERTEX
  5
CE1
  8
SAPA_PROFIL
 10
169.15098357605871
 20
81.357823323180696
 30
0.0
 42
-0.4293387945586749
  0
VERTEX
  5
CE2
  8
SAPA_PROFIL
 10
168.8542570549742
 20
81.675934459170037
 30
0.0
  0
VERTEX
  5
CE3
  8
SAPA_PROFIL
 10
168.92689673110189
 20
82.75739018444051
 30
0.0
 42
-0.4883397947196161
  0
VERTEX
  5
CE4
  8
SAPA_PROFIL
 10
170.4886185571103
 20
82.536767250242292
 30
0.0
  0
VERTEX
  5
CE5
  8
SAPA_PROFIL
 10
173.18769983314471
 20
82.536767250242292
 30
0.0
  0
VERTEX
  5
CE6
  8
SAPA_PROFIL
 10
174.15913147952079
 20
83.491390470440138
 30
0.0
  0
VERTEX
  5
CE7
  8
SAPA_PROFIL
 10
174.15913147952079
 20
85.990516613325227
 30
0.0
  0
VERTEX
  5
CE8
  8
SAPA_PROFIL
 10
173.68535581300591
 20
85.990516613325227
 30
0.0
  0
VERTEX
  5
CE9
  8
SAPA_PROFIL
 10
173.68535581300591
 20
87.503333333333444
 30
0.0
  0
VERTEX
  5
CEA
  8
SAPA_PROFIL
 10
194.70264070669441
 20
87.503333333333615
 30
0.0
 42
-0.4116378201539302
  0
VERTEX
  5
CEB
  8
SAPA_PROFIL
 10
195.0000000000023
 20
87.203344855663261
 30
0.0
  0
VERTEX
  5
CEC
  8
SAPA_PROFIL
 10
195.0000000000023
 20
58.80073821884173
 30
0.0
 42
-0.414213562373095
  0
VERTEX
  5
CED
  8
SAPA_PROFIL
 10
194.70000000000229
 20
58.500738218841661
 30
0.0
  0
VERTEX
  5
CEE
  8
SAPA_PROFIL
 10
193.49000000000231
 20
58.500738218841718
 30
0.0
 42
-0.4142135623731037
  0
VERTEX
  5
CEF
  8
SAPA_PROFIL
 10
192.5000000000023
 20
59.49073821884167
 30
0.0
  0
VERTEX
  5
CF0
  8
SAPA_PROFIL
 10
192.5000000000023
 20
59.500738218841711
 30
0.0
  0
VERTEX
  5
CF1
  8
SAPA_PROFIL
 10
193.7500000000023
 20
59.500738218841711
 30
0.0
  0
VERTEX
  5
CF2
  8
SAPA_PROFIL
 10
193.7500000000023
 20
61.000738218841718
 30
0.0
 42
0.4142135623730951
  0
VERTEX
  5
CF3
  8
SAPA_PROFIL
 10
193.2500000000023
 20
61.500738218841718
 30
0.0
  0
VERTEX
  5
CF4
  8
SAPA_PROFIL
 10
185.2500000000023
 20
61.500738218841718
 30
0.0
 42
0.4142135623730951
  0
VERTEX
  5
CF5
  8
SAPA_PROFIL
 10
184.7500000000023
 20
61.000738218841718
 30
0.0
  0
VERTEX
  5
CF6
  8
SAPA_PROFIL
 10
184.7500000000023
 20
59.500738218841711
 30
0.0
  0
VERTEX
  5
CF7
  8
SAPA_PROFIL
 10
186.0000000000023
 20
59.500738218841711
 30
0.0
  0
VERTEX
  5
CF8
  8
SAPA_PROFIL
 10
186.0000000000023
 20
59.49073821884167
 30
0.0
 42
-0.414213562373095
  0
VERTEX
  5
CF9
  8
SAPA_PROFIL
 10
185.01000000000229
 20
58.500738218841661
 30
0.0
  0
VERTEX
  5
CFA
  8
SAPA_PROFIL
 10
184.5000000000023
 20
58.500738218841718
 30
0.0
 42
-0.4142135623730953
  0
VERTEX
  5
CFB
  8
SAPA_PROFIL
 10
183.5000000000023
 20
59.500738218841711
 30
0.0
  0
VERTEX
  5
CFC
  8
SAPA_PROFIL
 10
183.5000000000023
 20
61.000738218841718
 30
0.0
 42
-0.4142135623730951
  0
VERTEX
  5
CFD
  8
SAPA_PROFIL
 10
185.20000000000229
 20
62.700738218841707
 30
0.0
  0
VERTEX
  5
CFE
  8
SAPA_PROFIL
 10
193.0000000000023
 20
62.700738218841757
 30
0.0
 42
0.414213562373095
  0
VERTEX
  5
CFF
  8
SAPA_PROFIL
 10
193.5000000000023
 20
63.200738218841757
 30
0.0
  0
VERTEX
  5
D00
  8
SAPA_PROFIL
 10
193.5000000000023
 20
68.700738218841764
 30
0.0
 42
0.4142135623730951
  0
VERTEX
  5
D01
  8
SAPA_PROFIL
 10
193.0000000000023
 20
69.200738218841764
 30
0.0
  0
VERTEX
  5
D02
  8
SAPA_PROFIL
 10
175.87873692155199
 20
69.871947865308073
 30
0.0
  0
VERTEX
  5
D03
  8
SAPA_PROFIL
 10
170.47579015780229
 20
70.528886316037415
 30
0.0
 42
0.4666505291506209
  0
VERTEX
  5
D04
  8
SAPA_PROFIL
 10
170.19598859188349
 20
70.267054784992865
 30
0.0
  0
VERTEX
  5
D05
  8
SAPA_PROFIL
 10
170.2355314858018
 20
69.544398691433912
 30
0.0
 42
-0.7332303362618522
  0
VERTEX
  5
D06
  8
SAPA_PROFIL
 10
169.69945546314949
 20
69.344224102863734
 30
0.0
  0
VERTEX
  5
D07
  8
SAPA_PROFIL
 10
168.92854534564509
 20
71.454331442401426
 30
0.0
 42
-0.668178637919333
  0
VERTEX
  5
D08
  8
SAPA_PROFIL
 10
169.2017115408394
 20
71.936679294492251
 30
0.0
  0
VERTEX
  5
D09
  8
SAPA_PROFIL
 10
175.87873692155199
 20
71.181778152700005
 30
0.0
  0
VERTEX
  5
D0A
  8
SAPA_PROFIL
 10
175.87873692155199
 20
71.191311604863131
 30
0.0
  0
SEQEND
  5
D0B
  8
SAPA_PROFIL
  0
LINE
  5
7A6
  8
SAPA_GLAS
 10
178.0
 20
51.903333333333698
 30
0.0
 11
178.0
 21
45.903333333333698
 31
0.0
  0
LINE
  5
7A7
  8
SAPA_GLAS
 10
206.80000000000001
 20
45.903333333333698
 30
0.0
 11
178.0
 21
45.903333333333698
 31
0.0
  0
LINE
  5
7A8
  8
SAPA_GLAS
 10
206.80000000000001
 20
51.903333333333933
 30
0.0
 11
178.0
 21
51.903333333333698
 31
0.0
  0
POLYLINE
  5
7B5
  8
SAPA_FOGBAND
 66
     1
 10
0.0
 20
0.0
 30
0.0
 70
     1
  0
VERTEX
  5
DC5
  8
SAPA_FOGBAND
 10
184.49339784034939
 20
58.492584595538631
 30
0.0
  0
VERTEX
  5
DC6
  8
SAPA_FOGBAND
 10
185.69339784034941
 20
58.492584595538631
 30
0.0
 42
0.4142135623730951
  0
VERTEX
  5
DC7
  8
SAPA_FOGBAND
 10
185.99339784034939
 20
58.792584595538592
 30
0.0
  0
VERTEX
  5
DC8
  8
SAPA_FOGBAND
 10
185.99339784034939
 20
59.692584595538669
 30
0.0
  0
VERTEX
  5
DC9
  8
SAPA_FOGBAND
 10
185.64339784034951
 20
59.692584595538669
 30
0.0
 42
-0.6681786379192988
  0
VERTEX
  5
DCA
  8
SAPA_FOGBAND
 10
185.43126580599341
 20
60.204716629894683
 30
0.0
  0
VERTEX
  5
DCB
  8
SAPA_FOGBAND
 10
186.2848191965868
 20
61.058270020487782
 30
0.0
 42
-0.1989123673796552
  0
VERTEX
  5
DCC
  8
SAPA_FOGBAND
 10
186.85050462153589
 20
61.292584595538592
 30
0.0
  0
VERTEX
  5
DCD
  8
SAPA_FOGBAND
 10
187.01319974395571
 20
61.292584595538592
 30
0.0
 42
-0.3394542588633746
  0
VERTEX
  5
DCE
  8
SAPA_FOGBAND
 10
187.30297749184251
 20
61.070230309069359
 30
0.0
  0
VERTEX
  5
DCF
  8
SAPA_FOGBAND
 10
187.66612673523241
 20
59.714938882007857
 30
0.0
 42
0.3394542588633746
  0
VERTEX
  5
DD0
  8
SAPA_FOGBAND
 10
187.9559044831191
 20
59.492584595538631
 30
0.0
  0
VERTEX
  5
DD1
  8
SAPA_FOGBAND
 10
190.53089119757959
 20
59.492584595538631
 30
0.0
 42
0.3394542588633746
  0
VERTEX
  5
DD2
  8
SAPA_FOGBAND
 10
190.82066894546639
 20
59.714938882007857
 30
0.0
  0
VERTEX
  5
DD3
  8
SAPA_FOGBAND
 10
191.18381818885649
 20
61.070230309069359
 30
0.0
 42
-0.3394542588633744
  0
VERTEX
  5
DD4
  8
SAPA_FOGBAND
 10
191.4735959367431
 20
61.292584595538592
 30
0.0
  0
VERTEX
  5
DD5
  8
SAPA_FOGBAND
 10
191.63629105916311
 20
61.292584595538592
 30
0.0
 42
-0.1989123673796526
  0
VERTEX
  5
DD6
  8
SAPA_FOGBAND
 10
192.20197648411221
 20
61.058270020487782
 30
0.0
  0
VERTEX
  5
DD7
  8
SAPA_FOGBAND
 10
193.0555298747056
 20
60.204716629894683
 30
0.0
 42
-0.6681786379193474
  0
VERTEX
  5
DD8
  8
SAPA_FOGBAND
 10
192.8433978403495
 20
59.692584595538669
 30
0.0
  0
VERTEX
  5
DD9
  8
SAPA_FOGBAND
 10
192.49339784034939
 20
59.692584595538669
 30
0.0
  0
VERTEX
  5
DDA
  8
SAPA_FOGBAND
 10
192.49339784034939
 20
58.792584595538592
 30
0.0
 42
0.4142135623730951
  0
VERTEX
  5
DDB
  8
SAPA_FOGBAND
 10
192.7933978403496
 20
58.492584595538631
 30
0.0
  0
VERTEX
  5
DDC
  8
SAPA_FOGBAND
 10
194.89339784034951
 20
58.492584595538631
 30
0.0
 42
0.4142135623730951
  0
VERTEX
  5
DDD
  8
SAPA_FOGBAND
 10
195.19339784034941
 20
58.792584595538592
 30
0.0
  0
VERTEX
  5
DDE
  8
SAPA_FOGBAND
 10
195.19339784034941
 20
60.192584595538669
 30
0.0
 42
-0.7754026414786132
  0
VERTEX
  5
DDF
  8
SAPA_FOGBAND
 10
195.75618983575711
 20
60.337292463844562
 30
0.0
 42
0.1086822875051356
  0
VERTEX
  5
DE0
  8
SAPA_FOGBAND
 10
199.906237994348
 20
52.409210073707811
 30
0.0
 42
-0.8680589103334746
  0
VERTEX
  5
DE1
  8
SAPA_FOGBAND
 10
199.43131396458421
 20
52.052370171045879
 30
0.0
  0
VERTEX
  5
DE2
  8
SAPA_FOGBAND
 10
195.4612785674326
 20
54.880170492189848
 30
0.0
 42
0.1989123673796536
  0
VERTEX
  5
DE3
  8
SAPA_FOGBAND
 10
194.75417178624591
 20
55.173063711003181
 30
0.0
  0
VERTEX
  5
DE4
  8
SAPA_FOGBAND
 10
191.9208528218262
 20
55.173063711003181
 30
0.0
 42
0.577350269189628
  0
VERTEX
  5
DE5
  8
SAPA_FOGBAND
 10
191.66104520069101
 20
54.723063711003363
 30
0.0
  0
VERTEX
  5
DE6
  8
SAPA_FOGBAND
 10
193.79917389710269
 20
52.418309607649057
 30
0.0
 42
-0.8769764629927301
  0
VERTEX
  5
DE7
  8
SAPA_FOGBAND
 10
193.32723424161139
 20
52.056177573292921
 30
0.0
  0
VERTEX
  5
DE8
  8
SAPA_FOGBAND
 10
189.36100624670661
 20
54.880170492189848
 30
0.0
 42
0.198912367379658
  0
VERTEX
  5
DE9
  8
SAPA_FOGBAND
 10
188.65389946552
 20
55.173063711003181
 30
0.0
  0
VERTEX
  5
DEA
  8
SAPA_FOGBAND
 10
186.42162510329851
 20
55.173063711003181
 30
0.0
 42
0.5773502691896441
  0
VERTEX
  5
DEB
  8
SAPA_FOGBAND
 10
186.16181748216309
 20
54.723063711003363
 30
0.0
  0
VERTEX
  5
DEC
  8
SAPA_FOGBAND
 10
188.29944460369231
 20
52.419178360829449
 30
0.0
 42
-0.87697646299276
  0
VERTEX
  5
DED
  8
SAPA_FOGBAND
 10
187.82750494820101
 20
52.057046326473312
 30
0.0
  0
VERTEX
  5
DEE
  8
SAPA_FOGBAND
 10
183.78629105916289
 20
54.956025139503538
 30
0.0
 42
-0.198912367379658
  0
VERTEX
  5
DEF
  8
SAPA_FOGBAND
 10
183.49339784034939
 20
55.663131920689978
 30
0.0
  0
VERTEX
  5
DF0
  8
SAPA_FOGBAND
 10
183.49339784034939
 20
57.492584595538631
 30
0.0
  0
VERTEX
  5
DF1
  8
SAPA_FOGBAND
 10
183.49339784034939
 20
57.48265280522542
 30
0.0
  0
SEQEND
  5
DF2
  8
SAPA_FOGBAND
  0
POLYLINE
  5
7B6
  8
SAPA_FOGBAND
 66
     1
 10
0.0
 20
0.0
 30
0.0
 70
     1
  0
VERTEX
  5
DF3
  8
SAPA_FOGBAND
 10
183.49340458768941
 20
43.000907662195061
 30
0.0
 42
0.4142135623730951
  0
VERTEX
  5
DF4
  8
SAPA_FOGBAND
 10
184.49340458768941
 20
42.000907662195047
 30
0.0
  0
VERTEX
  5
DF5
  8
SAPA_FOGBAND
 10
185.6934045876894
 20
42.000907662195047
 30
0.0
 42
-0.4142135623730951
  0
VERTEX
  5
DF6
  8
SAPA_FOGBAND
 10
185.99340458768941
 20
41.700907662195107
 30
0.0
  0
VERTEX
  5
DF7
  8
SAPA_FOGBAND
 10
185.99340458768941
 20
40.800907662195243
 30
0.0
  0
VERTEX
  5
DF8
  8
SAPA_FOGBAND
 10
185.64340458768919
 20
40.800907662195243
 30
0.0
 42
0.6681786379193472
  0
VERTEX
  5
DF9
  8
SAPA_FOGBAND
 10
185.4312725533334
 20
40.288775627839243
 30
0.0
  0
VERTEX
  5
DFA
  8
SAPA_FOGBAND
 10
186.28482594392659
 20
39.43522223724591
 30
0.0
 42
0.1989123673796526
  0
VERTEX
  5
DFB
  8
SAPA_FOGBAND
 10
186.85051136887591
 20
39.200907662195107
 30
0.0
  0
VERTEX
  5
DFC
  8
SAPA_FOGBAND
 10
187.0132064912957
 20
39.200907662195107
 30
0.0
 42
0.3394542588633746
  0
VERTEX
  5
DFD
  8
SAPA_FOGBAND
 10
187.30298423918239
 20
39.42326194866434
 30
0.0
  0
VERTEX
  5
DFE
  8
SAPA_FOGBAND
 10
187.66613348257229
 20
40.778553375726062
 30
0.0
 42
-0.3394542588633744
  0
VERTEX
  5
DFF
  8
SAPA_FOGBAND
 10
187.95591123045909
 20
41.000907662195061
 30
0.0
  0
VERTEX
  5
E00
  8
SAPA_FOGBAND
 10
190.53089794491959
 20
41.000907662195061
 30
0.0
 42
-0.3394542588633746
  0
VERTEX
  5
E01
  8
SAPA_FOGBAND
 10
190.82067569280639
 20
40.778553375726062
 30
0.0
  0
VERTEX
  5
E02
  8
SAPA_FOGBAND
 10
191.18382493619629
 20
39.42326194866434
 30
0.0
 42
0.3394542588633747
  0
VERTEX
  5
E03
  8
SAPA_FOGBAND
 10
191.473602684083
 20
39.200907662195107
 30
0.0
  0
VERTEX
  5
E04
  8
SAPA_FOGBAND
 10
191.6362978065028
 20
39.200907662195107
 30
0.0
 42
0.1989123673796526
  0
VERTEX
  5
E05
  8
SAPA_FOGBAND
 10
192.2019832314522
 20
39.43522223724591
 30
0.0
  0
VERTEX
  5
E06
  8
SAPA_FOGBAND
 10
193.05553662204531
 20
40.288775627839243
 30
0.0
 42
0.6681786379193474
  0
VERTEX
  5
E07
  8
SAPA_FOGBAND
 10
192.84340458768949
 20
40.800907662195243
 30
0.0
  0
VERTEX
  5
E08
  8
SAPA_FOGBAND
 10
192.49340458768941
 20
40.800907662195243
 30
0.0
  0
VERTEX
  5
E09
  8
SAPA_FOGBAND
 10
192.49340458768941
 20
41.700907662195107
 30
0.0
 42
-0.4142135623730951
  0
VERTEX
  5
E0A
  8
SAPA_FOGBAND
 10
192.79340458768931
 20
42.000907662195047
 30
0.0
  0
VERTEX
  5
E0B
  8
SAPA_FOGBAND
 10
194.8934045876895
 20
42.000907662195047
 30
0.0
 42
-0.4142135623730951
  0
VERTEX
  5
E0C
  8
SAPA_FOGBAND
 10
195.1934045876894
 20
41.700907662195107
 30
0.0
  0
VERTEX
  5
E0D
  8
SAPA_FOGBAND
 10
195.1934045876894
 20
40.300907662195243
 30
0.0
 42
0.7754026414785753
  0
VERTEX
  5
E0E
  8
SAPA_FOGBAND
 10
195.75619658309711
 20
40.156199793889357
 30
0.0
  0
VERTEX
  5
E0F
  8
SAPA_FOGBAND
 10
199.27589909364241
 20
45.426863592329987
 30
0.0
 42
0.8680589103334742
  0
VERTEX
  5
E10
  8
SAPA_FOGBAND
 10
198.80097506387889
 20
45.783703494991691
 30
0.0
  0
VERTEX
  5
E11
  8
SAPA_FOGBAND
 10
195.46128531477251
 20
43.793800881008607
 30
0.0
 42
-0.198912367379658
  0
VERTEX
  5
E12
  8
SAPA_FOGBAND
 10
194.7541785335859
 20
43.500907662195061
 30
0.0
  0
VERTEX
  5
E13
  8
SAPA_FOGBAND
 10
191.9208595691662
 20
43.500907662195061
 30
0.0
 42
-0.5773502691896282
  0
VERTEX
  5
E14
  8
SAPA_FOGBAND
 10
191.66105194803089
 20
43.9509076621951
 30
0.0
  0
VERTEX
  5
E15
  8
SAPA_FOGBAND
 10
193.16883499639721
 20
45.417764058388968
 30
0.0
 42
0.8769764629927299
  0
VERTEX
  5
E16
  8
SAPA_FOGBAND
 10
192.69689534090591
 20
45.779896092744877
 30
0.0
  0
VERTEX
  5
E17
  8
SAPA_FOGBAND
 10
189.3610129940466
 20
43.793800881008607
 30
0.0
 42
-0.198912367379658
  0
VERTEX
  5
E18
  8
SAPA_FOGBAND
 10
188.65390621285999
 20
43.500907662195061
 30
0.0
  0
VERTEX
  5
E19
  8
SAPA_FOGBAND
 10
186.42163185063839
 20
43.500907662195061
 30
0.0
 42
-0.5773502691896282
  0
VERTEX
  5
E1A
  8
SAPA_FOGBAND
 10
186.161824229503
 20
43.9509076621951
 30
0.0
  0
VERTEX
  5
E1B
  8
SAPA_FOGBAND
 10
187.6691057029868
 20
45.416895305208577
 30
0.0
 42
0.8769764629927299
  0
VERTEX
  5
E1C
  8
SAPA_FOGBAND
 10
187.1971660474955
 20
45.779027339564493
 30
0.0
  0
VERTEX
  5
E1D
  8
SAPA_FOGBAND
 10
183.78629780650289
 20
43.717946233694931
 30
0.0
 42
0.198912367379658
  0
VERTEX
  5
E1E
  8
SAPA_FOGBAND
 10
183.49340458768941
 20
43.010839452508257
 30
0.0
  0
SEQEND
  5
E1F
  8
SAPA_FOGBAND
  0
POLYLINE
  5
7B7
  8
SAPA_FOGBAND
 66
     1
 10
0.0
 20
0.0
 30
0.0
 70
     1
  0
VERTEX
  5
E20
  8
SAPA_FOGBAND
 10
54.62251456940691
 20
84.675730159305488
 30
0.0
  0
VERTEX
  5
E21
  8
SAPA_FOGBAND
 10
53.551535234662772
 20
84.452271369722254
 30
0.0
 42
0.643628460277262
  0
VERTEX
  5
E22
  8
SAPA_FOGBAND
 10
51.89096236752345
 20
83.70638119650863
 30
0.0
 42
0.2618037032190792
  0
VERTEX
  5
E23
  8
SAPA_FOGBAND
 10
50.063168233773361
 20
77.926801657654835
 30
0.0
  0
VERTEX
  5
E24
  8
SAPA_FOGBAND
 10
51.219752011543619
 20
72.386862554047923
 30
0.0
 42
0.2094308207509748
  0
VERTEX
  5
E25
  8
SAPA_FOGBAND
 10
54.619777497114121
 20
67.611296769152943
 30
0.0
  0
VERTEX
  5
E26
  8
SAPA_FOGBAND
 10
55.671752658427863
 20
66.981865346882884
 30
0.0
 42
0.5057194851126921
  0
VERTEX
  5
E27
  8
SAPA_FOGBAND
 10
57.157210409760289
 20
67.605066775878015
 30
0.0
  0
VERTEX
  5
E28
  8
SAPA_FOGBAND
 10
61.672985535590563
 20
68.547278834423025
 30
0.0
 42
0.4142135623730992
  0
VERTEX
  5
E29
  8
SAPA_FOGBAND
 10
62.602587434385782
 20
69.96708174671636
 30
0.0
  0
VERTEX
  5
E2A
  8
SAPA_FOGBAND
 10
59.872083504683253
 20
83.053670498057997
 30
0.0
 42
0.315298788878978
  0
VERTEX
  5
E2B
  8
SAPA_FOGBAND
 10
58.785229708540889
 20
84.074807482683184
 30
0.0
  0
SEQEND
  5
E2C
  8
SAPA_FOGBAND
  0
POLYLINE
  5
7B8
  8
SAPA_FOGBAND
 66
     1
 10
0.0
 20
0.0
 30
0.0
 70
     1
  0
VERTEX
  5
E2D
  8
SAPA_FOGBAND
 10
48.281580046869628
 20
77.554856053722062
 30
0.0
 42
-0.38987823311671
  0
VERTEX
  5
E2E
  8
SAPA_FOGBAND
 10
53.831682118830827
 20
86.862622123648237
 30
0.0
  0
VERTEX
  5
E2F
  8
SAPA_FOGBAND
 10
61.56954633959765
 20
86.428060624016837
 30
0.0
 42
-0.3394542588633812
  0
VERTEX
  5
E30
  8
SAPA_FOGBAND
 10
62.676962299764789
 20
85.475049059935884
 30
0.0
  0
VERTEX
  5
E31
  8
SAPA_FOGBAND
 10
63.538422133105882
 20
81.346298157181366
 30
0.0
 42
0.4142135623730948
  0
VERTEX
  5
E32
  8
SAPA_FOGBAND
 10
64.544115862647104
 20
80.687830145534974
 30
0.0
  0
VERTEX
  5
E33
  8
SAPA_FOGBAND
 10
64.593061796211146
 20
80.698042666649428
 30
0.0
 42
0.4142135623730951
  0
VERTEX
  5
E34
  8
SAPA_FOGBAND
 10
65.290263220307565
 20
81.762894850869387
 30
0.0
  0
VERTEX
  5
E35
  8
SAPA_FOGBAND
 10
64.820487249038592
 20
84.014407794828955
 30
0.0
 42
-0.4142135623730951
  0
VERTEX
  5
E36
  8
SAPA_FOGBAND
 10
65.207821373536603
 20
84.605992341617878
 30
0.0
  0
VERTEX
  5
E37
  8
SAPA_FOGBAND
 10
67.117017349055345
 20
84.498771144328714
 30
0.0
 42
-0.3394542588633734
  0
VERTEX
  5
E38
  8
SAPA_FOGBAND
 10
69.424133932737163
 20
82.513330385826563
 30
0.0
  0
VERTEX
  5
E39
  8
SAPA_FOGBAND
 10
71.626063991886781
 20
71.960057478999545
 30
0.0
 42
-0.339454258863376
  0
VERTEX
  5
E3A
  8
SAPA_FOGBAND
 10
70.30540119781142
 20
69.217684105338833
 30
0.0
  0
VERTEX
  5
E3B
  8
SAPA_FOGBAND
 10
68.598378383564395
 20
68.355942398256104
 30
0.0
 42
-0.4142135623730852
  0
VERTEX
  5
E3C
  8
SAPA_FOGBAND
 10
68.0067938367755
 20
68.743276522754115
 30
0.0
  0
VERTEX
  5
E3D
  8
SAPA_FOGBAND
 10
67.526805344392301
 20
71.043735400278194
 30
0.0
 42
0.4142135623730989
  0
VERTEX
  5
E3E
  8
SAPA_FOGBAND
 10
66.521111614851065
 20
71.702203411925041
 30
0.0
  0
VERTEX
  5
E3F
  8
SAPA_FOGBAND
 10
66.472165681286583
 20
71.691990890810359
 30
0.0
 42
0.4142135623730806
  0
VERTEX
  5
E40
  8
SAPA_FOGBAND
 10
65.774964257190163
 20
70.627138706590415
 30
0.0
  0
VERTEX
  5
E41
  8
SAPA_FOGBAND
 10
66.694091157499201
 20
66.222004685799732
 30
0.0
 42
-0.4142135623730951
  0
VERTEX
  5
E42
  8
SAPA_FOGBAND
 10
65.919422908503179
 20
65.038835592221915
 30
0.0
  0
VERTEX
  5
E43
  8
SAPA_FOGBAND
 10
54.349468533952738
 20
65.688608782889162
 30
0.0
 42
-0.2311522497803646
  0
VERTEX
  5
E44
  8
SAPA_FOGBAND
 10
49.438163824639901
 20
72.01491695011515
 30
0.0
  0
SEQEND
  5
E45
  8
SAPA_FOGBAND
  0
POLYLINE
  5
7B9
  8
SAPA_FOGBAND
 66
     1
 10
0.0
 20
0.0
 30
0.0
 70
     1
  0
VERTEX
  5
E46
  8
SAPA_FOGBAND
 10
68.059131929492082
 20
74.170190378780092
 30
0.0
 42
0.4142135623730951
  0
VERTEX
  5
E47
  8
SAPA_FOGBAND
 10
68.678866528688886
 20
75.116725653642163
 30
0.0
  0
VERTEX
  5
E48
  8
SAPA_FOGBAND
 10
67.984415092900122
 20
78.445049136017417
 30
0.0
 42
0.4142135623730951
  0
VERTEX
  5
E49
  8
SAPA_FOGBAND
 10
67.03787981803805
 20
79.064783735214235
 30
0.0
  0
VERTEX
  5
E4A
  8
SAPA_FOGBAND
 10
64.101123804177291
 20
78.45203246834177
 30
0.0
 42
0.4142135623730951
  0
VERTEX
  5
E4B
  8
SAPA_FOGBAND
 10
63.481389204980481
 20
77.505497193479684
 30
0.0
  0
VERTEX
  5
E4C
  8
SAPA_FOGBAND
 10
64.175840640769252
 20
74.177173711104444
 30
0.0
 42
0.4142135623730951
  0
VERTEX
  5
E4D
  8
SAPA_FOGBAND
 10
65.122375915631764
 20
73.557439111907627
 30
0.0
  0
SEQEND
  5
E4E
  8
SAPA_FOGBAND
  0
POLYLINE
  5
7BA
  8
SAPA_FOGBAND
 66
     1
 10
0.0
 20
0.0
 30
0.0
 70
     1
  0
VERTEX
  5
E4F
  8
SAPA_FOGBAND
 10
71.718419953130123
 20
46.451810612944932
 30
0.0
 42
-0.38987823311671
  0
VERTEX
  5
E50
  8
SAPA_FOGBAND
 10
66.168317881168946
 20
37.144044543018772
 30
0.0
  0
VERTEX
  5
E51
  8
SAPA_FOGBAND
 10
58.430453660401668
 20
37.578606042650392
 30
0.0
 42
-0.3394542588633812
  0
VERTEX
  5
E52
  8
SAPA_FOGBAND
 10
57.323037700234522
 20
38.531617606731352
 30
0.0
  0
VERTEX
  5
E53
  8
SAPA_FOGBAND
 10
56.46157786689389
 20
42.660368509485629
 30
0.0
 42
0.4142135623730948
  0
VERTEX
  5
E54
  8
SAPA_FOGBAND
 10
55.455884137352662
 20
43.318836521132262
 30
0.0
  0
VERTEX
  5
E55
  8
SAPA_FOGBAND
 10
55.40693820378862
 20
43.308624000017574
 30
0.0
 42
0.4142135623730951
  0
VERTEX
  5
E56
  8
SAPA_FOGBAND
 10
54.709736779692207
 20
42.243771815797629
 30
0.0
  0
VERTEX
  5
E57
  8
SAPA_FOGBAND
 10
55.17951275096118
 20
39.992258871838033
 30
0.0
 42
-0.4142135623730951
  0
VERTEX
  5
E58
  8
SAPA_FOGBAND
 10
54.792178626463169
 20
39.400674325049131
 30
0.0
  0
VERTEX
  5
E59
  8
SAPA_FOGBAND
 10
52.882982650943973
 20
39.507895522338522
 30
0.0
 42
-0.3394542588633734
  0
VERTEX
  5
E5A
  8
SAPA_FOGBAND
 10
50.575866067262602
 20
41.493336280840417
 30
0.0
  0
VERTEX
  5
E5B
  8
SAPA_FOGBAND
 10
48.37393600811253
 20
52.04660918766745
 30
0.0
 42
-0.339454258863376
  0
VERTEX
  5
E5C
  8
SAPA_FOGBAND
 10
49.69459880218789
 20
54.788982561328169
 30
0.0
  0
VERTEX
  5
E5D
  8
SAPA_FOGBAND
 10
51.401621616435357
 20
55.650724268411118
 30
0.0
 42
-0.4142135623730852
  0
VERTEX
  5
E5E
  8
SAPA_FOGBAND
 10
51.993206163224272
 20
55.263390143912893
 30
0.0
  0
VERTEX
  5
E5F
  8
SAPA_FOGBAND
 10
52.473194655607472
 20
52.962931266388807
 30
0.0
 42
0.4142135623730989
  0
VERTEX
  5
E60
  8
SAPA_FOGBAND
 10
53.478888385148707
 20
52.304463254742181
 30
0.0
  0
VERTEX
  5
E61
  8
SAPA_FOGBAND
 10
53.527834318712728
 20
52.31467577585687
 30
0.0
 42
0.4142135623730806
  0
VERTEX
  5
E62
  8
SAPA_FOGBAND
 10
54.225035742809162
 20
53.379527960076587
 30
0.0
  0
VERTEX
  5
E63
  8
SAPA_FOGBAND
 10
53.305908842500571
 20
57.784661980867497
 30
0.0
 42
-0.4142135623730951
  0
VERTEX
  5
E64
  8
SAPA_FOGBAND
 10
54.080577091496593
 20
58.967831074445307
 30
0.0
  0
VERTEX
  5
E65
  8
SAPA_FOGBAND
 10
65.650531466047028
 20
58.31805788377784
 30
0.0
 42
-0.2311522497803646
  0
VERTEX
  5
E66
  8
SAPA_FOGBAND
 10
70.561836175359417
 20
51.991749716551851
 30
0.0
  0
SEQEND
  5
E67
  8
SAPA_FOGBAND
  0
POLYLINE
  5
7BB
  8
SAPA_FOGBAND
 66
     1
 10
0.0
 20
0.0
 30
0.0
 70
     1
  0
VERTEX
  5
E68
  8
SAPA_FOGBAND
 10
51.940868070507229
 20
49.83647628788691
 30
0.0
 42
0.4142135623730951
  0
VERTEX
  5
E69
  8
SAPA_FOGBAND
 10
51.321133471310418
 20
48.889941013024838
 30
0.0
  0
VERTEX
  5
E6A
  8
SAPA_FOGBAND
 10
52.015584907099651
 20
45.561617530649578
 30
0.0
 42
0.4142135623730951
  0
VERTEX
  5
E6B
  8
SAPA_FOGBAND
 10
52.962120181961723
 20
44.941882931452767
 30
0.0
  0
VERTEX
  5
E6C
  8
SAPA_FOGBAND
 10
55.898876195822481
 20
45.554634198325232
 30
0.0
 42
0.4142135623730951
  0
VERTEX
  5
E6D
  8
SAPA_FOGBAND
 10
56.518610795019299
 20
46.501169473187517
 30
0.0
  0
VERTEX
  5
E6E
  8
SAPA_FOGBAND
 10
55.824159359230059
 20
49.829492955562777
 30
0.0
 42
0.4142135623730951
  0
VERTEX
  5
E6F
  8
SAPA_FOGBAND
 10
54.877624084367987
 20
50.449227554759602
 30
0.0
  0
SEQEND
  5
E70
  8
SAPA_FOGBAND
  0
POLYLINE
  5
7BC
  8
SAPA_FOGBAND
 66
     1
 10
0.0
 20
0.0
 30
0.0
 70
     1
  0
VERTEX
  5
E71
  8
SAPA_FOGBAND
 10
65.377485430592856
 20
39.330936507361521
 30
0.0
  0
VERTEX
  5
E72
  8
SAPA_FOGBAND
 10
66.448464765336993
 20
39.554395296944733
 30
0.0
 42
0.643628460277262
  0
VERTEX
  5
E73
  8
SAPA_FOGBAND
 10
68.109037632475861
 20
40.300285470158592
 30
0.0
 42
0.2618037032190792
  0
VERTEX
  5
E74
  8
SAPA_FOGBAND
 10
69.936831766226419
 20
46.079865009012387
 30
0.0
  0
VERTEX
  5
E75
  8
SAPA_FOGBAND
 10
68.780247988455699
 20
51.619804112619072
 30
0.0
 42
0.2094308207509748
  0
VERTEX
  5
E76
  8
SAPA_FOGBAND
 10
65.380222502885658
 20
56.395369897514051
 30
0.0
  0
VERTEX
  5
E77
  8
SAPA_FOGBAND
 10
64.32824734157191
 20
57.024801319784103
 30
0.0
 42
0.5057194851126921
  0
VERTEX
  5
E78
  8
SAPA_FOGBAND
 10
62.84278959023947
 20
56.401599890788987
 30
0.0
  0
VERTEX
  5
E79
  8
SAPA_FOGBAND
 10
58.32701446440921
 20
55.459387832243969
 30
0.0
 42
0.4142135623730992
  0
VERTEX
  5
E7A
  8
SAPA_FOGBAND
 10
57.39741256561399
 20
54.039584919950642
 30
0.0
  0
VERTEX
  5
E7B
  8
SAPA_FOGBAND
 10
60.12791649531561
 20
40.952996168608991
 30
0.0
 42
0.315298788878978
  0
VERTEX
  5
E7C
  8
SAPA_FOGBAND
 10
61.214770291458869
 20
39.931859183983818
 30
0.0
  0
SEQEND
  5
E7D
  8
SAPA_FOGBAND
  0
DIMENSION
  5
7C9
  8
SAPA_MATT
  2
*D68
 10
195.00000000000011
 20
12.003333333333391
 30
0.0
 11
135.00000000000011
 21
14.50362860892394
 31
0.0
 70
     0
 13
75.000000000000142
 23
36.41754689570638
 33
0.0
 14
195.00000000000011
 24
37.503333333333387
 34
0.0
1001
ACAD
1000
DSTYLE
1002
{
1070
    40
1040
1.0
1002
}
  0
DIMENSION
  5
7CA
  8
SAPA_MATT
  2
*D67
 10
75.000000000000142
 20
12.003333333333391
 30
0.0
 11
60.000000000000071
 21
14.503333333333391
 31
0.0
 70
     0
 13
45.0
 23
37.003333333333607
 33
0.0
 14
75.000000000000142
 24
36.41754689570638
 34
0.0
1001
ACAD
1000
DSTYLE
1002
{
1070
    40
1040
1.0
1002
}
  0
DIMENSION
  5
7CB
  8
SAPA_MATT
  2
*D66
 10
45.0
 20
12.003333333333391
 30
0.0
 11
22.499999999999972
 21
14.503333333333391
 31
0.0
 70
     0
 13
-0.0000000000000568
 23
37.003333333333607
 33
0.0
 14
45.0
 24
37.003333333333607
 34
0.0
1001
ACAD
1000
DSTYLE
1002
{
1070
    40
1040
1.0
1002
}
  0
LINE
  5
7CC
  8
SAPA_MATT
 10
3.1489607434598952
 20
32.003333333333501
 30
0.0
 11
42.335725408403498
 21
32.003333333333501
 31
0.0
  0
DIMENSION
  5
7CD
  8
SAPA_MATT
  2
*D71
 10
-19.996356730960478
 20
37.003333333333622
 30
0.0
 11
-22.496356730960489
 21
62.003333333333607
 31
0.0
 70
     0
 13
0.0
 23
87.003333333333615
 33
0.0
 14
0.0
 24
37.003333333333607
 34
0.0
 50
90.0
1001
ACAD
1000
DSTYLE
1002
{
1070
    40
1040
1.0
1002
}
  0
LINE
  5
7CE
  8
SAPA_MATT
 10
32.082152534647953
 20
92.003333333333501
 30
0.0
 11
50.694776018442099
 21
92.003333333333501
 31
0.0
  0
DIMENSION
  5
7CF
  8
SAPA_MATT
  2
*D70
 10
-31.996870965871949
 20
32.003333333333508
 30
0.0
 11
-34.496870965871949
 21
62.003333333333501
 31
0.0
 70
     0
 13
13.742205109928991
 23
92.003333333333501
 33
0.0
 14
0.098759792768476
 24
32.003333333333501
 34
0.0
 50
90.0
1001
ACAD
1000
DSTYLE
1002
{
1070
    40
1040
1.0
1002
}
  0
DIMENSION
  5
7D0
  8
SAPA_MATT
  2
*D69
 10
194.97999999999979
 20
0.0
 30
0.0
 11
97.489999999999924
 21
2.5
 31
0.0
 70
     0
  1
195
 13
0.0
 23
22.034483922562341
 33
0.0
 14
194.97999999999979
 24
22.034483922562341
 34
0.0
1001
ACAD
1000
DSTYLE
1002
{
1070
    40
1040
1.0
1002
}
  0
ENDSEC
  0
EOF
