  0
SECTION
  2
HEADER
  9
$ACADVER
  1
AC1009
  9
$INSBASE
 10
32.358022986932163
 20
439.04505235716363
 30
0.0
  9
$EXTMIN
 10
41.457593212409378
 20
438.10000000000002
 30
0.0
  9
$EXTMAX
 10
288.50564528064342
 20
542.35682640955918
 30
0.0
  9
$LIMMIN
 10
0.0
 20
0.0
  9
$LIMMAX
 10
998.0
 20
710.0
  9
$ORTHOMODE
 70
     0
  9
$REGENMODE
 70
     1
  9
$FILLMODE
 70
     1
  9
$QTEXTMODE
 70
     0
  9
$MIRRTEXT
 70
     1
  9
$DRAGMODE
 70
     2
  9
$LTSCALE
 40
7.0
  9
$OSMODE
 70
   167
  9
$ATTMODE
 70
     1
  9
$TEXTSIZE
 40
6.0
  9
$TRACEWID
 40
0.05
  9
$TEXTSTYLE
  7
ISO
  9
$CLAYER
  8
0
  9
$CELTYPE
  6
BYLAYER
  9
$CECOLOR
 62
   256
  9
$DIMSCALE
 40
0.0
  9
$DIMASZ
 40
3.0
  9
$DIMEXO
 40
1.5
  9
$DIMDLI
 40
10.0
  9
$DIMRND
 40
0.0
  9
$DIMDLE
 40
0.0
  9
$DIMEXE
 40
1.5
  9
$DIMTP
 40
0.0
  9
$DIMTM
 40
0.0
  9
$DIMTXT
 40
3.0
  9
$DIMCEN
 40
-5.0
  9
$DIMTSZ
 40
0.0
  9
$DIMTOL
 70
     0
  9
$DIMLIM
 70
     0
  9
$DIMTIH
 70
     0
  9
$DIMTOH
 70
     1
  9
$DIMSE1
 70
     0
  9
$DIMSE2
 70
     0
  9
$DIMTAD
 70
     1
  9
$DIMZIN
 70
     8
  9
$DIMBLK
  1

  9
$DIMASO
 70
     1
  9
$DIMSHO
 70
     1
  9
$DIMPOST
  1

  9
$DIMAPOST
  1

  9
$DIMALT
 70
     0
  9
$DIMALTD
 70
     0
  9
$DIMALTF
 40
25.399999999999999
  9
$DIMLFAC
 40
-1.0
  9
$DIMTOFL
 70
     1
  9
$DIMTVP
 40
0.0
  9
$DIMTIX
 70
     0
  9
$DIMSOXD
 70
     0
  9
$DIMSAH
 70
     0
  9
$DIMBLK1
  1

  9
$DIMBLK2
  1

  9
$DIMSTYLE
  2
MASKIN
  9
$DIMCLRD
 70
   256
  9
$DIMCLRE
 70
   256
  9
$DIMCLRT
 70
     2
  9
$DIMTFAC
 40
1.0
  9
$DIMGAP
 40
1.0
  9
$LUNITS
 70
     2
  9
$LUPREC
 70
     2
  9
$SKETCHINC
 40
0.1
  9
$FILLETRAD
 40
0.0
  9
$AUNITS
 70
     0
  9
$AUPREC
 70
     2
  9
$MENU
  1
ACAD
  9
$ELEVATION
 40
0.0
  9
$PELEVATION
 40
0.0
  9
$THICKNESS
 40
0.0
  9
$LIMCHECK
 70
     0
  9
$BLIPMODE
 70
     0
  9
$CHAMFERA
 40
0.0
  9
$CHAMFERB
 40
0.0
  9
$SKPOLY
 70
     0
  9
$TDCREATE
 40
2449499.4236100698
  9
$TDUPDATE
 40
2456363.5363476272
  9
$TDINDWG
 40
0.1945598032
  9
$TDUSRTIMER
 40
0.1945598032
  9
$USRTIMER
 70
     1
  9
$ANGBASE
 50
0.0
  9
$ANGDIR
 70
     0
  9
$PDMODE
 70
     3
  9
$PDSIZE
 40
-5.0
  9
$PLINEWID
 40
0.0
  9
$COORDS
 70
     1
  9
$SPLFRAME
 70
     0
  9
$SPLINETYPE
 70
     6
  9
$SPLINESEGS
 70
     8
  9
$ATTDIA
 70
     0
  9
$ATTREQ
 70
     1
  9
$HANDLING
 70
     1
  9
$HANDSEED
  5
F59
  9
$SURFTAB1
 70
     6
  9
$SURFTAB2
 70
     6
  9
$SURFTYPE
 70
     6
  9
$SURFU
 70
     6
  9
$SURFV
 70
     6
  9
$UCSNAME
  2

  9
$UCSORG
 10
0.0
 20
0.0
 30
0.0
  9
$UCSXDIR
 10
1.0
 20
0.0
 30
0.0
  9
$UCSYDIR
 10
0.0
 20
1.0
 30
0.0
  9
$PUCSNAME
  2

  9
$PUCSORG
 10
0.0
 20
0.0
 30
0.0
  9
$PUCSXDIR
 10
1.0
 20
0.0
 30
0.0
  9
$PUCSYDIR
 10
0.0
 20
1.0
 30
0.0
  9
$USERI1
 70
     0
  9
$USERI2
 70
     0
  9
$USERI3
 70
     0
  9
$USERI4
 70
     0
  9
$USERI5
 70
     0
  9
$USERR1
 40
0.0
  9
$USERR2
 40
0.0
  9
$USERR3
 40
0.0
  9
$USERR4
 40
0.0
  9
$USERR5
 40
0.0
  9
$WORLDVIEW
 70
     1
  9
$SHADEDGE
 70
     1
  9
$SHADEDIF
 70
    70
  9
$TILEMODE
 70
     1
  9
$MAXACTVP
 70
    16
  9
$PLIMCHECK
 70
     0
  9
$PEXTMIN
 10
1.0000000000000000E+020
 20
1.0000000000000000E+020
 30
1.0000000000000000E+020
  9
$PEXTMAX
 10
-1.0000000000000000E+020
 20
-1.0000000000000000E+020
 30
-1.0000000000000000E+020
  9
$PLIMMIN
 10
-14.12592836160286
 20
-5.4102505909481797
  9
$PLIMMAX
 10
195.84739927511589
 20
291.55807216295813
  9
$UNITMODE
 70
     0
  9
$VISRETAIN
 70
     1
  9
$PLINEGEN
 70
     0
  9
$PSLTSCALE
 70
     1
  0
ENDSEC
  0
SECTION
  2
TABLES
  0
TABLE
  2
VPORT
 70
     1
  0
VPORT
  2
*ACTIVE
 70
     0
 10
0.0
 20
0.0
 11
1.0
 21
1.0
 12
234.90230206021619
 22
515.53688320194317
 13
0.0
 23
0.0
 14
5.0
 24
5.0
 15
10.0
 25
10.0
 16
0.0
 26
0.0
 36
1.0
 17
0.0
 27
0.0
 37
0.0
 40
131.10691592285141
 41
2.8418491484184911
 42
50.0
 43
0.0
 44
0.0
 50
0.0
 51
0.0
 71
     0
 72
   100
 73
     1
 74
     0
 75
     0
 76
     0
 77
     0
 78
     0
  0
ENDTAB
  0
TABLE
  2
LTYPE
 70
    21
  0
LTYPE
  2
CONTINUOUS
 70
     0
  3
Solid line
 72
    65
 73
     0
 40
0.0
  0
LTYPE
  2
BYGG-022308$0$NEWDOT
 70
     0
  3
____ . ____ . ____ . ____ . ____ . ____ . ____
 72
    65
 73
     4
 40
2.0
 49
1.0
 49
-0.5
 49
0.0
 49
-0.5
  0
LTYPE
  2
BYGG-022308$0$DASHDOT
 70
     0
  3
__ . __ . __ . __ . __ . __ . __ . __ . __ . __
 72
    65
 73
     4
 40
1.0
 49
0.5
 49
-0.25
 49
0.0
 49
-0.25
  0
LTYPE
  2
BYGG-022308$0$DASHED
 70
     0
  3
__ __ __ __ __ __ __ __ __ __ __ __ __ __ __
 72
    65
 73
     2
 40
0.75
 49
0.5
 49
-0.25
  0
LTYPE
  2
BYGG-022308$0$PHANTOM
 70
     0
  3
Phantom ______  __  __  ______  __  __  ______
 72
    65
 73
     6
 40
63.5
 49
31.75
 49
-6.3499999999999988
 49
6.3499999999999988
 49
-6.3499999999999988
 49
6.3499999999999988
 49
-6.3499999999999988
  0
LTYPE
  2
BYGG-014533$0$NEWDOT
 70
     0
  3
____ . ____ . ____ . ____ . ____ . ____ . ____
 72
    65
 73
     4
 40
2.0
 49
1.0
 49
-0.5
 49
0.0
 49
-0.5
  0
LTYPE
  2
BYGG-014565$0$NEWDOT
 70
     0
  3
____ . ____ . ____ . ____ . ____ . ____ . ____
 72
    65
 73
     4
 40
2.0
 49
1.0
 49
-0.5
 49
0.0
 49
-0.5
  0
LTYPE
  2
BYGG-021997$0$NEWDOT
 70
     0
  3
____ . ____ . ____ . ____ . ____ . ____ . ____
 72
    65
 73
     4
 40
2.0
 49
1.0
 49
-0.5
 49
0.0
 49
-0.5
  0
LTYPE
  2
BYGG-021997$0$DASHDOT
 70
     0
  3
__ . __ . __ . __ . __ . __ . __ . __ . __ . __
 72
    65
 73
     4
 40
1.0
 49
0.5
 49
-0.25
 49
0.0
 49
-0.25
  0
LTYPE
  2
BYGG-021997$0$DASHED
 70
     0
  3
__ __ __ __ __ __ __ __ __ __ __ __ __ __ __
 72
    65
 73
     2
 40
0.75
 49
0.5
 49
-0.25
  0
LTYPE
  2
BYGG-021997$0$PHANTOM
 70
     0
  3
Phantom ______  __  __  ______  __  __  ______
 72
    65
 73
     6
 40
63.5
 49
31.75
 49
-6.3499999999999988
 49
6.3499999999999988
 49
-6.3499999999999988
 49
6.3499999999999988
 49
-6.3499999999999988
  0
LTYPE
  2
BYGG-022478$0$NEWDOT
 70
     0
  3
____ . ____ . ____ . ____ . ____ . ____ . ____
 72
    65
 73
     4
 40
2.0
 49
1.0
 49
-0.5
 49
0.0
 49
-0.5
  0
LTYPE
  2
BYGG-022478$0$DASHDOT
 70
     0
  3
__ . __ . __ . __ . __ . __ . __ . __ . __ . __
 72
    65
 73
     4
 40
1.0
 49
0.5
 49
-0.25
 49
0.0
 49
-0.25
  0
LTYPE
  2
BYGG-022478$0$DASHED
 70
     0
  3
__ __ __ __ __ __ __ __ __ __ __ __ __ __ __
 72
    65
 73
     2
 40
0.75
 49
0.5
 49
-0.25
  0
LTYPE
  2
BYGG-022478$0$PHANTOM
 70
     0
  3
Phantom ______  __  __  ______  __  __  ______
 72
    65
 73
     6
 40
63.5
 49
31.75
 49
-6.3499999999999988
 49
6.3499999999999988
 49
-6.3499999999999988
 49
6.3499999999999988
 49
-6.3499999999999988
  0
LTYPE
  2
BYGG-014459$0$DASHDOT
 70
     0
  3
__ . __ . __ . __ . __ . __ . __ . __ . __ . __
 72
    65
 73
     4
 40
1.0
 49
0.5
 49
-0.25
 49
0.0
 49
-0.25
  0
LTYPE
  2
PHANTOM2
 70
     0
  3
Phantom (.5x) ___ _ _ ___ _ _ ___ _ _ ___ _ _
 72
    65
 73
     6
 40
1.25
 49
0.625
 49
-0.125
 49
0.125
 49
-0.125
 49
0.125
 49
-0.125
  0
LTYPE
  2
BYGG-014533$0$ZIGZAG
 70
     0
  3
Zig zag /\/\/\/\/\/\/\/\/\/\/\/\/\/\/\/\/\/\/\/\/\/\/\/
 72
    65
 73
     4
 40
20.32254
 49
0.00254
 49
-5.0800000000000001
 49
-10.16
 49
-5.0800000000000001
  0
LTYPE
  2
BYGG-014565$0$ZIGZAG
 70
     0
  3
Zig zag /\/\/\/\/\/\/\/\/\/\/\/\/\/\/\/\/\/\/\/\/\/\/\/
 72
    65
 73
     4
 40
20.32254
 49
0.00254
 49
-5.0800000000000001
 49
-10.16
 49
-5.0800000000000001
  0
LTYPE
  2
BYGG-014203$0$ZIGZAG
 70
     0
  3
Zig zag /\/\/\/\/\/\/\/\/\/\/\/\/\/\/\/\/\/\/\/\/\/\/\/
 72
    65
 73
     4
 40
20.32254
 49
0.00254
 49
-5.0800000000000001
 49
-10.16
 49
-5.0800000000000001
  0
LTYPE
  2
BYGG-014203$0$NEWDOT
 70
     0
  3
____ . ____ . ____ . ____ . ____ . ____ . ____
 72
    65
 73
     4
 40
2.0
 49
1.0
 49
-0.5
 49
0.0
 49
-0.5
  0
ENDTAB
  0
TABLE
  2
LAYER
 70
   123
  0
LAYER
  2
0
 70
     0
 62
     7
  6
CONTINUOUS
  0
LAYER
  2
DEFPOINTS
 70
     0
 62
     7
  6
CONTINUOUS
  0
LAYER
  2
SAPA_ARTIKELNR
 70
     0
 62
     4
  6
CONTINUOUS
  0
LAYER
  2
SAPA_ANSLUTNING
 70
     0
 62
     6
  6
CONTINUOUS
  0
LAYER
  2
SAPA_LIGHT
 70
     1
 62
     1
  6
CONTINUOUS
  0
LAYER
  2
SAPA_MATT
 70
     0
 62
     1
  6
CONTINUOUS
  0
LAYER
  2
SAPA_GLAS
 70
     0
 62
     4
  6
CONTINUOUS
  0
LAYER
  2
SAPA_FOGBAND
 70
     0
 62
     2
  6
CONTINUOUS
  0
LAYER
  2
SAPA_PROFIL
 70
     0
 62
     7
  6
CONTINUOUS
  0
ENDTAB
  0
TABLE
  2
STYLE
 70
    19
  0
STYLE
  2
STANDARD
 70
     0
 40
0.0
 41
1.0
 50
0.0
 71
     0
 42
0.2
  3
txt
  4

  0
STYLE
  2
ISO
 70
     0
 40
0.0
 41
1.0
 50
0.0
 71
     0
 42
6.0
  3
isocp3.shx
  4

  0
STYLE
  2

 70
     1
 40
0.0
 41
1.0
 50
0.0
 71
     0
 42
0.2
  3
ltypeshp.shx
  4

  0
STYLE
  2
BYGG-022308$0$STANDARD
 70
     0
 40
0.0
 41
1.0
 50
0.0
 71
     0
 42
0.2
  3
txt
  4

  0
STYLE
  2
BYGG-022308$0$ISO
 70
     0
 40
0.0
 41
1.0
 50
0.0
 71
     0
 42
3.5
  3
txt
  4

  0
STYLE
  2
BYGG-014533$0$STANDARD
 70
     0
 40
0.0
 41
1.0
 50
0.0
 71
     0
 42
0.2
  3
txt
  4

  0
STYLE
  2
BYGG-014533$0$ISO
 70
     0
 40
0.0
 41
1.0
 50
0.0
 71
     0
 42
2.5
  3
isocp3.shx
  4

  0
STYLE
  2
BYGG-022466$0$STANDARD
 70
     0
 40
0.0
 41
1.0
 50
0.0
 71
     0
 42
0.2
  3
txt
  4

  0
STYLE
  2
BYGG-022466$0$ISO
 70
     0
 40
0.0
 41
1.0
 50
0.0
 71
     0
 42
3.5
  3
txt
  4

  0
STYLE
  2
BYGG-014565$0$STANDARD
 70
     0
 40
0.0
 41
1.0
 50
0.0
 71
     0
 42
0.2
  3
isocp3.shx
  4

  0
STYLE
  2
BYGG-014565$0$ISO
 70
     0
 40
0.0
 41
1.0
 50
0.0
 71
     0
 42
3.5
  3
isocp3.shx
  4

  0
STYLE
  2
BYGG-021997$0$STANDARD
 70
     0
 40
0.0
 41
1.0
 50
0.0
 71
     0
 42
0.2
  3
txt
  4

  0
STYLE
  2
BYGG-021997$0$ISO
 70
     0
 40
0.0
 41
1.0
 50
0.0
 71
     0
 42
3.5
  3
txt
  4

  0
STYLE
  2
BYGG-014203$0$STANDARD
 70
     0
 40
0.0
 41
1.0
 50
0.0
 71
     0
 42
0.2
  3
txt
  4

  0
STYLE
  2
BYGG-014203$0$ISO
 70
     0
 40
0.0
 41
1.0
 50
0.0
 71
     0
 42
3.5
  3
isocp3.shx
  4

  0
STYLE
  2
BYGG-022478$0$STANDARD
 70
     0
 40
0.0
 41
1.0
 50
0.0
 71
     0
 42
0.2
  3
txt
  4

  0
STYLE
  2
BYGG-022478$0$ISO
 70
     0
 40
0.0
 41
1.0
 50
0.0
 71
     0
 42
3.5
  3
txt
  4

  0
STYLE
  2
BYGG-014459$0$STANDARD
 70
     0
 40
0.0
 41
1.0
 50
0.0
 71
     0
 42
0.2
  3
txt
  4

  0
STYLE
  2
BYGG-014459$0$ISO
 70
     0
 40
0.0
 41
1.0
 50
0.0
 71
     0
 42
3.5
  3
isocp3.shx
  4

  0
ENDTAB
  0
TABLE
  2
VIEW
 70
     0
  0
ENDTAB
  0
TABLE
  2
UCS
 70
     0
  0
ENDTAB
  0
TABLE
  2
APPID
 70
    18
  0
APPID
  2
ACAD
 70
     0
  0
APPID
  2
ACAECLAYERSTANDARD
 70
     0
  0
APPID
  2
ACAD_MLEADERVER
 70
     0
  0
APPID
  2
ACAD_EXEMPT_FROM_CAD_STANDARDS
 70
     0
  0
APPID
  2
AMG_ARCHIVE11
 70
     0
  0
APPID
  2
ACAD_DSTYLE_DIMTEXT_FILL
 70
     0
  0
APPID
  2
ACAD_DSTYLE_DIMEXT_LENGTH
 70
     0
  0
APPID
  2
ACAD_DSTYLE_DIMEXT_ENABLED
 70
     0
  0
APPID
  2
ACAD_DSTYLE_DIM_LINETYPE
 70
     0
  0
APPID
  2
ACAD_DSTYLE_DIM_EXT1_LINETYPE
 70
     0
  0
APPID
  2
ACAD_DSTYLE_DIM_EXT2_LINETYPE
 70
     0
  0
APPID
  2
ACAD_PSEXT
 70
     0
  0
APPID
  2
ACAD_DSTYLE_DIMJOGGED_JOGA
 70
     0
  0
APPID
  2
ACAD_DSTYLE_DIMARC_LENGTH_
 70
     0
  0
APPID
  2
ACADANNOTATIVE
 70
     0
  0
APPID
  2
ACAD_NAV_VCDISPLAY
 70
     0
  0
APPID
  2
AEC_XDATA_BOUND_SPACE
 70
     0
  0
APPID
  2
ACCMTRANSPARENCY
 70
     0
  0
ENDTAB
  0
TABLE
  2
DIMSTYLE
 70
    17
  0
DIMSTYLE
  2
MASKIN
 70
     0
  3

  4

  5

  6

  7

 40
0.0
 41
3.0
 42
1.5
 43
10.0
 44
1.5
 45
0.0
 46
0.0
 47
0.0
 48
0.0
140
3.0
141
-5.0
142
0.0
143
25.399999999999999
144
-1.0
145
0.0
146
1.0
147
1.0
 71
     0
 72
     0
 73
     0
 74
     1
 75
     0
 76
     0
 77
     1
 78
     8
170
     0
171
     0
172
     1
173
     0
174
     0
175
     0
176
   256
177
   256
178
     2
  0
DIMSTYLE
  2
STANDARD
 70
     0
  3

  4

  5

  6

  7

 40
1.0
 41
0.18
 42
0.0625
 43
0.38
 44
0.18
 45
0.0
 46
0.0
 47
0.0
 48
0.0
140
0.18
141
0.09
142
0.0
143
25.399999999999999
144
1.0
145
0.0
146
1.0
147
0.09
 71
     0
 72
     0
 73
     1
 74
     1
 75
     0
 76
     0
 77
     0
 78
     0
170
     0
171
     2
172
     0
173
     0
174
     0
175
     0
176
     0
177
     0
178
     0
  0
DIMSTYLE
  2
BYGG-022308$0$STANDARD
 70
     0
  3

  4

  5

  6

  7

 40
1.0
 41
0.18
 42
0.0625
 43
0.38
 44
0.18
 45
0.0
 46
0.0
 47
0.0
 48
0.0
140
0.18
141
0.09
142
0.0
143
25.399999999999999
144
1.0
145
0.0
146
1.0
147
0.09
 71
     0
 72
     0
 73
     1
 74
     1
 75
     0
 76
     0
 77
     0
 78
     0
170
     0
171
     2
172
     0
173
     0
174
     0
175
     0
176
     0
177
     0
178
     0
  0
DIMSTYLE
  2
BYGG-022308$0$MASKIN
 70
     0
  3

  4

  5

  6

  7

 40
0.0
 41
3.0
 42
1.5
 43
10.0
 44
1.5
 45
0.0
 46
0.0
 47
0.0
 48
0.0
140
3.0
141
-5.0
142
0.0
143
25.399999999999999
144
-1.0
145
0.0
146
1.0
147
1.0
 71
     0
 72
     0
 73
     0
 74
     0
 75
     0
 76
     0
 77
     1
 78
     8
170
     0
171
     0
172
     1
173
     0
174
     0
175
     0
176
   256
177
   256
178
     2
  0
DIMSTYLE
  2
BYGG-014533$0$STANDARD
 70
     0
  3

  4

  5

  6

  7

 40
1.0
 41
0.18
 42
0.0625
 43
0.38
 44
0.18
 45
0.0
 46
0.0
 47
0.0
 48
0.0
140
0.18
141
0.09
142
0.0
143
25.399999999999999
144
1.0
145
0.0
146
1.0
147
0.09
 71
     0
 72
     0
 73
     1
 74
     1
 75
     0
 76
     0
 77
     0
 78
     0
170
     0
171
     2
172
     0
173
     0
174
     0
175
     0
176
     0
177
     0
178
     0
  0
DIMSTYLE
  2
BYGG-014533$0$MASKIN
 70
     0
  3

  4

  5

  6

  7

 40
0.0
 41
3.0
 42
1.5
 43
10.0
 44
1.5
 45
0.0
 46
0.0
 47
0.0
 48
0.0
140
3.0
141
-5.0
142
0.0
143
25.399999999999999
144
-1.0
145
0.0
146
1.0
147
1.0
 71
     0
 72
     0
 73
     0
 74
     1
 75
     0
 76
     0
 77
     1
 78
     8
170
     0
171
     0
172
     1
173
     0
174
     0
175
     0
176
   256
177
   256
178
     2
  0
DIMSTYLE
  2
BYGG-022466$0$MASKIN
 70
     0
  3

  4

  5

  6

  7

 40
0.0
 41
3.0
 42
1.5
 43
10.0
 44
1.5
 45
0.0
 46
0.0
 47
0.0
 48
0.0
140
3.0
141
-5.0
142
0.0
143
25.399999999999999
144
-1.0
145
0.0
146
1.0
147
1.0
 71
     0
 72
     0
 73
     0
 74
     0
 75
     0
 76
     0
 77
     1
 78
     8
170
     0
171
     0
172
     1
173
     0
174
     0
175
     0
176
   256
177
   256
178
     2
  0
DIMSTYLE
  2
BYGG-022466$0$STANDARD
 70
     0
  3

  4

  5

  6

  7

 40
1.0
 41
0.18
 42
0.0625
 43
0.38
 44
0.18
 45
0.0
 46
0.0
 47
0.0
 48
0.0
140
0.18
141
0.09
142
0.0
143
25.399999999999999
144
1.0
145
0.0
146
1.0
147
0.09
 71
     0
 72
     0
 73
     1
 74
     1
 75
     0
 76
     0
 77
     0
 78
     0
170
     0
171
     2
172
     0
173
     0
174
     0
175
     0
176
     0
177
     0
178
     0
  0
DIMSTYLE
  2
BYGG-014565$0$STANDARD
 70
     0
  3

  4

  5

  6

  7

 40
1.0
 41
0.18
 42
0.0625
 43
0.38
 44
0.18
 45
0.0
 46
0.0
 47
0.0
 48
0.0
140
0.18
141
0.09
142
0.0
143
25.399999999999999
144
1.0
145
0.0
146
1.0
147
0.09
 71
     0
 72
     0
 73
     1
 74
     1
 75
     0
 76
     0
 77
     0
 78
     0
170
     0
171
     2
172
     0
173
     0
174
     0
175
     0
176
     0
177
     0
178
     0
  0
DIMSTYLE
  2
BYGG-014565$0$MASKIN
 70
     0
  3

  4

  5

  6

  7

 40
0.0
 41
3.0
 42
1.5
 43
10.0
 44
1.5
 45
0.0
 46
0.0
 47
0.0
 48
0.0
140
3.0
141
-5.0
142
0.0
143
25.399999999999999
144
-1.0
145
0.0
146
1.0
147
1.0
 71
     0
 72
     0
 73
     0
 74
     0
 75
     0
 76
     0
 77
     1
 78
     8
170
     0
171
     0
172
     1
173
     0
174
     0
175
     0
176
   256
177
   256
178
     2
  0
DIMSTYLE
  2
BYGG-021997$0$STANDARD
 70
     0
  3

  4

  5

  6

  7

 40
1.0
 41
0.18
 42
0.0625
 43
0.38
 44
0.18
 45
0.0
 46
0.0
 47
0.0
 48
0.0
140
0.18
141
0.09
142
0.0
143
25.399999999999999
144
1.0
145
0.0
146
1.0
147
0.09
 71
     0
 72
     0
 73
     1
 74
     1
 75
     0
 76
     0
 77
     0
 78
     0
170
     0
171
     2
172
     0
173
     0
174
     0
175
     0
176
     0
177
     0
178
     0
  0
DIMSTYLE
  2
BYGG-021997$0$MASKIN
 70
     0
  3

  4

  5

  6

  7

 40
0.0
 41
3.0
 42
1.5
 43
10.0
 44
1.5
 45
0.0
 46
0.0
 47
0.0
 48
0.0
140
3.0
141
-5.0
142
0.0
143
25.399999999999999
144
-1.0
145
0.0
146
1.0
147
1.0
 71
     0
 72
     0
 73
     0
 74
     0
 75
     0
 76
     0
 77
     1
 78
     8
170
     0
171
     0
172
     1
173
     0
174
     0
175
     0
176
   256
177
   256
178
     2
  0
DIMSTYLE
  2
BYGG-014203$0$STANDARD
 70
     0
  3

  4

  5

  6

  7

 40
1.0
 41
0.18
 42
0.0625
 43
0.38
 44
0.18
 45
0.0
 46
0.0
 47
0.0
 48
0.0
140
0.18
141
0.09
142
0.0
143
25.399999999999999
144
1.0
145
0.0
146
1.0
147
0.09
 71
     0
 72
     0
 73
     1
 74
     1
 75
     0
 76
     0
 77
     0
 78
     0
170
     0
171
     2
172
     0
173
     0
174
     0
175
     0
176
     0
177
     0
178
     0
  0
DIMSTYLE
  2
BYGG-014203$0$MASKIN
 70
     0
  3

  4

  5

  6

  7

 40
0.0
 41
3.0
 42
1.5
 43
10.0
 44
1.5
 45
0.0
 46
0.0
 47
0.0
 48
0.0
140
3.0
141
-5.0
142
0.0
143
25.399999999999999
144
-1.0
145
0.0
146
1.0
147
1.0
 71
     0
 72
     0
 73
     0
 74
     0
 75
     0
 76
     0
 77
     1
 78
     8
170
     0
171
     0
172
     1
173
     0
174
     0
175
     0
176
   256
177
   256
178
   256
  0
DIMSTYLE
  2
BYGG-022478$0$STANDARD
 70
     0
  3

  4

  5

  6

  7

 40
1.0
 41
0.18
 42
0.0625
 43
0.38
 44
0.18
 45
0.0
 46
0.0
 47
0.0
 48
0.0
140
0.18
141
0.09
142
0.0
143
25.399999999999999
144
1.0
145
0.0
146
1.0
147
0.09
 71
     0
 72
     0
 73
     1
 74
     1
 75
     0
 76
     0
 77
     0
 78
     0
170
     0
171
     2
172
     0
173
     0
174
     0
175
     0
176
     0
177
     0
178
     0
  0
DIMSTYLE
  2
BYGG-022478$0$MASKIN
 70
     0
  3

  4

  5

  6

  7

 40
0.0
 41
3.0
 42
1.5
 43
10.0
 44
1.5
 45
0.0
 46
0.0
 47
0.0
 48
0.0
140
3.0
141
-5.0
142
0.0
143
25.399999999999999
144
-1.0
145
0.0
146
1.0
147
1.0
 71
     0
 72
     0
 73
     0
 74
     0
 75
     0
 76
     0
 77
     1
 78
     8
170
     0
171
     0
172
     1
173
     0
174
     0
175
     0
176
   256
177
   256
178
     2
  0
DIMSTYLE
  2
BYGG-014459$0$MASKIN
 70
     0
  3

  4

  5

  6

  7

 40
0.0
 41
3.0
 42
1.5
 43
10.0
 44
1.5
 45
0.0
 46
0.0
 47
0.0
 48
0.0
140
3.0
141
-5.0
142
0.0
143
25.399999999999999
144
-1.0
145
0.0
146
1.0
147
1.0
 71
     0
 72
     0
 73
     0
 74
     0
 75
     0
 76
     0
 77
     1
 78
     8
170
     0
171
     0
172
     1
173
     0
174
     0
175
     0
176
   256
177
   256
178
   256
  0
ENDTAB
  0
ENDSEC
  0
SECTION
  2
BLOCKS
  0
BLOCK
  8
0
  2
$MODEL_SPACE
 70
     0
 10
0.0
 20
0.0
 30
0.0
  3
$MODEL_SPACE
  1

  0
ENDBLK
  5
B
  8
0
  0
BLOCK
 67
     1
  8
0
  2
$PAPER_SPACE
 70
     0
 10
0.0
 20
0.0
 30
0.0
  3
$PAPER_SPACE
  1

  0
ENDBLK
  5
10
 67
     1
  8
0
  0
BLOCK
  8
0
  2
*D64
 70
     1
 10
0.0
 20
0.0
 30
0.0
  3
*D64
  1

  0
LINE
  5
905
  8
SAPA_MATT
 10
75.805645280643603
 20
526.60000000000014
 30
0.0
 11
55.809288549683131
 21
526.60000000000014
 31
0.0
  0
LINE
  5
906
  8
SAPA_MATT
 10
75.805645280643603
 20
476.60000000000008
 30
0.0
 11
55.809288549683117
 21
476.60000000000008
 31
0.0
  0
LINE
  5
907
  8
SAPA_MATT
 10
57.309288549683117
 20
523.60000000000014
 30
0.0
 11
57.30928854968311
 21
479.60000000000008
 31
0.0
  0
SOLID
  5
908
  8
SAPA_MATT
 10
56.809288549683117
 20
523.60000000000014
 30
0.0
 11
57.809288549683117
 21
523.60000000000014
 31
0.0
 12
57.309288549683117
 22
526.60000000000014
 32
0.0
 13
57.309288549683117
 23
526.60000000000014
 33
0.0
  0
SOLID
  5
909
  8
SAPA_MATT
 10
56.80928854968311
 20
479.60000000000008
 30
0.0
 11
57.809288549683117
 21
479.60000000000008
 31
0.0
 12
57.30928854968311
 22
476.60000000000008
 32
0.0
 13
57.30928854968311
 23
476.60000000000008
 33
0.0
  0
INSERT
  5
90A
  8
0
  2
*U77
 10
0.0
 20
0.0
 30
0.0
  0
POINT
  5
90B
  8
DEFPOINTS
 62
     0
 10
77.305645280643603
 20
526.60000000000014
 30
0.0
  0
POINT
  5
90C
  8
DEFPOINTS
 62
     0
 10
77.305645280643603
 20
476.60000000000008
 30
0.0
  0
POINT
  5
90D
  8
DEFPOINTS
 62
     0
 10
57.30928854968311
 20
476.60000000000008
 30
0.0
  0
ENDBLK
  5
892
  8
0
  0
BLOCK
  8
0
  2
*D65
 70
     1
 10
0.0
 20
0.0
 30
0.0
  3
*D65
  1

  0
LINE
  5
8FC
  8
SAPA_MATT
 10
89.547850390572592
 20
531.60000000000002
 30
0.0
 11
43.808774314771661
 21
531.60000000000002
 31
0.0
  0
LINE
  5
8FD
  8
SAPA_MATT
 10
75.904405073412079
 20
471.60000000000002
 30
0.0
 11
43.808774314771647
 21
471.60000000000002
 31
0.0
  0
LINE
  5
8FE
  8
SAPA_MATT
 10
45.308774314771668
 20
528.60000000000002
 30
0.0
 11
45.308774314771647
 21
474.60000000000002
 31
0.0
  0
SOLID
  5
8FF
  8
SAPA_MATT
 10
44.808774314771668
 20
528.60000000000002
 30
0.0
 11
45.808774314771661
 21
528.60000000000002
 31
0.0
 12
45.308774314771668
 22
531.60000000000002
 32
0.0
 13
45.308774314771668
 23
531.60000000000002
 33
0.0
  0
SOLID
  5
900
  8
SAPA_MATT
 10
44.808774314771647
 20
474.60000000000002
 30
0.0
 11
45.808774314771647
 21
474.60000000000002
 31
0.0
 12
45.308774314771647
 22
471.60000000000002
 32
0.0
 13
45.308774314771647
 23
471.60000000000002
 33
0.0
  0
INSERT
  5
901
  8
0
  2
*U76
 10
0.0
 20
0.0
 30
0.0
  0
POINT
  5
902
  8
DEFPOINTS
 62
     0
 10
91.047850390572606
 20
531.60000000000002
 30
0.0
  0
POINT
  5
903
  8
DEFPOINTS
 62
     0
 10
77.404405073412079
 20
471.60000000000002
 30
0.0
  0
POINT
  5
904
  8
DEFPOINTS
 62
     0
 10
45.308774314771647
 20
471.60000000000002
 30
0.0
  0
ENDBLK
  5
89E
  8
0
  0
BLOCK
  8
0
  2
*D66
 70
     1
 10
0.0
 20
0.0
 30
0.0
  3
*D66
  1

  0
LINE
  5
8F3
  8
SAPA_MATT
 10
77.305645280643603
 20
460.13115058922881
 30
0.0
 11
77.305645280643603
 21
438.10000000000002
 31
0.0
  0
LINE
  5
8F4
  8
SAPA_MATT
 10
272.28564528064351
 20
460.13115058922881
 30
0.0
 11
272.28564528064351
 21
438.10000000000002
 31
0.0
  0
LINE
  5
8F5
  8
SAPA_MATT
 10
80.305645280643603
 20
439.59999999999991
 30
0.0
 11
269.28564528064339
 21
439.59999999999991
 31
0.0
  0
SOLID
  5
8F6
  8
SAPA_MATT
 10
80.305645280643603
 20
440.10000000000002
 30
0.0
 11
80.305645280643603
 21
439.10000000000002
 31
0.0
 12
77.305645280643603
 22
439.59999999999991
 32
0.0
 13
77.305645280643603
 23
439.59999999999991
 33
0.0
  0
SOLID
  5
8F7
  8
SAPA_MATT
 10
269.28564528064339
 20
440.10000000000002
 30
0.0
 11
269.28564528064339
 21
439.10000000000002
 31
0.0
 12
272.28564528064351
 22
439.59999999999991
 32
0.0
 13
272.28564528064351
 23
439.59999999999991
 33
0.0
  0
INSERT
  5
8F8
  8
0
  2
*U75
 10
0.0
 20
0.0
 30
0.0
  0
POINT
  5
8F9
  8
DEFPOINTS
 62
     0
 10
77.305645280643603
 20
461.63115058922881
 30
0.0
  0
POINT
  5
8FA
  8
DEFPOINTS
 62
     0
 10
272.28564528064351
 20
461.63115058922881
 30
0.0
  0
POINT
  5
8FB
  8
DEFPOINTS
 62
     0
 10
272.28564528064351
 20
439.59999999999991
 30
0.0
  0
ENDBLK
  5
8AA
  8
0
  0
BLOCK
  8
0
  2
*D67
 70
     1
 10
0.0
 20
0.0
 30
0.0
  3
*D67
  1

  0
LINE
  5
8EA
  8
SAPA_MATT
 10
77.305645280643375
 20
475.10000000000008
 30
0.0
 11
77.305645280643375
 21
450.10000000000002
 31
0.0
  0
LINE
  5
8EB
  8
SAPA_MATT
 10
122.3056452806434
 20
475.10000000000008
 30
0.0
 11
122.3056452806434
 21
450.10000000000002
 31
0.0
  0
LINE
  5
8EC
  8
SAPA_MATT
 10
80.305645280643375
 20
451.60000000000002
 30
0.0
 11
119.3056452806434
 21
451.60000000000002
 31
0.0
  0
SOLID
  5
8ED
  8
SAPA_MATT
 10
80.305645280643375
 20
452.09999999999991
 30
0.0
 11
80.305645280643375
 21
451.10000000000002
 31
0.0
 12
77.305645280643375
 22
451.60000000000002
 32
0.0
 13
77.305645280643375
 23
451.60000000000002
 33
0.0
  0
SOLID
  5
8EE
  8
SAPA_MATT
 10
119.3056452806434
 20
452.09999999999991
 30
0.0
 11
119.3056452806434
 21
451.10000000000002
 31
0.0
 12
122.3056452806434
 22
451.60000000000002
 32
0.0
 13
122.3056452806434
 23
451.60000000000002
 33
0.0
  0
INSERT
  5
8EF
  8
0
  2
*U74
 10
0.0
 20
0.0
 30
0.0
  0
POINT
  5
8F0
  8
DEFPOINTS
 62
     0
 10
77.305645280643375
 20
476.60000000000008
 30
0.0
  0
POINT
  5
8F1
  8
DEFPOINTS
 62
     0
 10
122.3056452806434
 20
476.60000000000008
 30
0.0
  0
POINT
  5
8F2
  8
DEFPOINTS
 62
     0
 10
122.3056452806434
 20
451.60000000000002
 30
0.0
  0
ENDBLK
  5
8B6
  8
0
  0
BLOCK
  8
0
  2
*D68
 70
     1
 10
0.0
 20
0.0
 30
0.0
  3
*D68
  1

  0
LINE
  5
8E1
  8
SAPA_MATT
 10
122.3056452806434
 20
475.10000000000008
 30
0.0
 11
122.3056452806434
 21
450.10000000000002
 31
0.0
  0
LINE
  5
8E2
  8
SAPA_MATT
 10
152.30564528064349
 20
474.51421356237182
 30
0.0
 11
152.30564528064349
 21
450.10000000000002
 31
0.0
  0
LINE
  5
8E3
  8
SAPA_MATT
 10
125.3056452806434
 20
451.60000000000002
 30
0.0
 11
149.30564528064349
 21
451.60000000000002
 31
0.0
  0
SOLID
  5
8E4
  8
SAPA_MATT
 10
125.3056452806434
 20
452.09999999999991
 30
0.0
 11
125.3056452806434
 21
451.10000000000002
 31
0.0
 12
122.3056452806434
 22
451.60000000000002
 32
0.0
 13
122.3056452806434
 23
451.60000000000002
 33
0.0
  0
SOLID
  5
8E5
  8
SAPA_MATT
 10
149.30564528064349
 20
452.09999999999991
 30
0.0
 11
149.30564528064349
 21
451.10000000000002
 31
0.0
 12
152.30564528064349
 22
451.60000000000002
 32
0.0
 13
152.30564528064349
 23
451.60000000000002
 33
0.0
  0
INSERT
  5
8E6
  8
0
  2
*U73
 10
0.0
 20
0.0
 30
0.0
  0
POINT
  5
8E7
  8
DEFPOINTS
 62
     0
 10
122.3056452806434
 20
476.60000000000008
 30
0.0
  0
POINT
  5
8E8
  8
DEFPOINTS
 62
     0
 10
152.30564528064349
 20
476.01421356237182
 30
0.0
  0
POINT
  5
8E9
  8
DEFPOINTS
 62
     0
 10
152.30564528064349
 20
451.60000000000002
 30
0.0
  0
ENDBLK
  5
8C2
  8
0
  0
BLOCK
  8
0
  2
*D69
 70
     1
 10
0.0
 20
0.0
 30
0.0
  3
*D69
  1

  0
LINE
  5
8D8
  8
SAPA_MATT
 10
152.30564528064349
 20
474.51421356237182
 30
0.0
 11
152.30564528064349
 21
450.10000000000002
 31
0.0
  0
LINE
  5
8D9
  8
SAPA_MATT
 10
272.30564528064349
 20
475.59999999999991
 30
0.0
 11
272.30564528064349
 21
450.10000000000002
 31
0.0
  0
LINE
  5
8DA
  8
SAPA_MATT
 10
155.30564528064349
 20
451.60000000000002
 30
0.0
 11
269.30564528064349
 21
451.60000000000002
 31
0.0
  0
SOLID
  5
8DB
  8
SAPA_MATT
 10
155.30564528064349
 20
452.09999999999991
 30
0.0
 11
155.30564528064349
 21
451.10000000000002
 31
0.0
 12
152.30564528064349
 22
451.60000000000002
 32
0.0
 13
152.30564528064349
 23
451.60000000000002
 33
0.0
  0
SOLID
  5
8DC
  8
SAPA_MATT
 10
269.30564528064349
 20
452.09999999999991
 30
0.0
 11
269.30564528064349
 21
451.10000000000002
 31
0.0
 12
272.30564528064349
 22
451.60000000000002
 32
0.0
 13
272.30564528064349
 23
451.60000000000002
 33
0.0
  0
INSERT
  5
8DD
  8
0
  2
*U72
 10
0.0
 20
0.0
 30
0.0
  0
POINT
  5
8DE
  8
DEFPOINTS
 62
     0
 10
152.30564528064349
 20
476.01421356237182
 30
0.0
  0
POINT
  5
8DF
  8
DEFPOINTS
 62
     0
 10
272.30564528064349
 20
477.09999999999991
 30
0.0
  0
POINT
  5
8E0
  8
DEFPOINTS
 62
     0
 10
272.30564528064349
 20
451.60000000000002
 30
0.0
  0
ENDBLK
  5
8CE
  8
0
  0
BLOCK
  8
0
  2
*X70
 70
     1
 10
0.0
 20
0.0
 30
0.0
  3
*X70
  1

  0
LINE
  5
924
  8
0
 62
     0
 10
77.886095535181298
 20
522.22274903920493
 30
0.0
 11
77.615924938478486
 21
522.37873210593841
 31
0.0
  0
LINE
  5
925
  8
0
 62
     0
 10
80.159412220115442
 20
520.91024903920493
 30
0.0
 11
79.401639991804061
 21
521.34774903920493
 31
0.0
  0
LINE
  5
926
  8
0
 62
     0
 10
82.432728905049586
 20
519.59774903920493
 30
0.0
 11
81.674956676738205
 21
520.03524903920493
 31
0.0
  0
LINE
  5
927
  8
0
 62
     0
 10
74.855006621747066
 20
522.22274903887831
 30
0.0
 11
74.313101087394827
 21
522.53561834501193
 31
0.0
  0
LINE
  5
928
  8
0
 62
     0
 10
77.128323306681224
 20
520.91024903887831
 30
0.0
 11
76.370551078369843
 21
521.34774903887831
 31
0.0
  0
LINE
  5
929
  8
0
 62
     0
 10
79.401639991615369
 20
519.59774903887819
 30
0.0
 11
78.643867763303973
 21
520.03524903887831
 31
0.0
  0
LINE
  5
92A
  8
0
 62
     0
 10
81.674956676549513
 20
518.28524903887831
 30
0.0
 11
80.917184448238132
 21
518.72274903887819
 31
0.0
  0
LINE
  5
92B
  8
0
 62
     0
 10
74.097234393247007
 20
520.91024903855146
 30
0.0
 11
73.339462164935625
 21
521.34774903855146
 31
0.0
  0
LINE
  5
92C
  8
0
 62
     0
 10
76.370551078181151
 20
519.59774903855146
 30
0.0
 11
75.61277884986977
 21
520.03524903855146
 31
0.0
  0
LINE
  5
92D
  8
0
 62
     0
 10
78.643867763115296
 20
518.28524903855146
 30
0.0
 11
77.886095534803914
 21
518.72274903855157
 31
0.0
  0
LINE
  5
92E
  8
0
 62
     0
 10
80.917184448049454
 20
516.97274903855157
 30
0.0
 11
80.159412219738059
 21
517.41024903855146
 31
0.0
  0
LINE
  5
92F
  8
0
 62
     0
 10
71.066145479812889
 20
520.91024903822483
 30
0.0
 11
70.308373251501507
 21
521.34774903822483
 31
0.0
  0
LINE
  5
930
  8
0
 62
     0
 10
73.339462164747033
 20
519.59774903822483
 30
0.0
 11
72.581689936435652
 21
520.03524903822483
 31
0.0
  0
LINE
  5
931
  8
0
 62
     0
 10
75.612778849681163
 20
518.28524903822483
 30
0.0
 11
74.855006621369796
 21
518.72274903822483
 31
0.0
  0
LINE
  5
932
  8
0
 62
     0
 10
77.886095534615322
 20
516.97274903822483
 30
0.0
 11
77.12832330630394
 21
517.41024903822483
 31
0.0
  0
LINE
  5
933
  8
0
 62
     0
 10
80.121865839204531
 20
515.68192645102397
 30
0.0
 11
79.401639991238085
 21
516.09774903822483
 31
0.0
  0
LINE
  5
934
  8
0
 62
     0
 10
70.308373251312958
 20
519.5977490378981
 30
0.0
 11
69.550601023001576
 21
520.0352490378981
 31
0.0
  0
LINE
  5
935
  8
0
 62
     0
 10
72.581689936247102
 20
518.2852490378981
 30
0.0
 11
71.823917707935721
 21
518.7227490378981
 31
0.0
  0
LINE
  5
936
  8
0
 62
     0
 10
74.855006621181246
 20
516.97274903789798
 30
0.0
 11
74.097234392869865
 21
517.4102490378981
 31
0.0
  0
LINE
  5
937
  8
0
 62
     0
 10
77.128323306115391
 20
515.6602490378981
 30
0.0
 11
76.370551077804009
 21
516.09774903789798
 31
0.0
  0
LINE
  5
938
  8
0
 62
     0
 10
69.550601022812941
 20
518.28524903757136
 30
0.0
 11
68.79282879450156
 21
518.72274903757148
 31
0.0
  0
LINE
  5
939
  8
0
 62
     0
 10
71.823917707747086
 20
516.97274903757148
 30
0.0
 11
71.066145479435704
 21
517.41024903757136
 31
0.0
  0
LINE
  5
93A
  8
0
 62
     0
 10
74.09723439268123
 20
515.66024903757136
 30
0.0
 11
73.339462164369834
 21
516.09774903757148
 31
0.0
  0
LINE
  5
93B
  8
0
 62
     0
 10
75.672867821743921
 20
514.75055665315779
 30
0.0
 11
75.612778849303993
 21
514.78524903757136
 31
0.0
  0
LINE
  5
93C
  8
0
 62
     0
 10
68.792828794312925
 20
516.97274903724485
 30
0.0
 11
68.499185106869277
 21
517.14228429923617
 31
0.0
  0
LINE
  5
93D
  8
0
 62
     0
 10
71.066145479247055
 20
515.66024903724485
 30
0.0
 11
70.308373250935674
 21
516.09774903724485
 31
0.0
  0
LINE
  5
93E
  8
0
 62
     0
 10
80.917184444654438
 20
485.47274903267112
 30
0.0
 11
80.159412216343057
 21
485.91024903267112
 31
0.0
  0
LINE
  5
93F
  8
0
 62
     0
 10
77.886095531220292
 20
485.47274903234438
 30
0.0
 11
77.12832330290891
 21
485.91024903234438
 31
0.0
  0
LINE
  5
940
  8
0
 62
     0
 10
80.159412216154436
 20
484.16024903234438
 30
0.0
 11
79.401639987843055
 21
484.59774903234438
 31
0.0
  0
LINE
  5
941
  8
0
 62
     0
 10
82.305645280643617
 20
482.92112079481791
 30
0.0
 11
81.674956672777185
 21
483.28524903234438
 31
0.0
  0
LINE
  5
942
  8
0
 62
     0
 10
74.855006617786145
 20
485.47274903201759
 30
0.0
 11
74.097234389474764
 21
485.9102490320177
 31
0.0
  0
LINE
  5
943
  8
0
 62
     0
 10
77.128323302720304
 20
484.1602490320177
 30
0.0
 11
76.370551074408922
 21
484.59774903201759
 31
0.0
  0
LINE
  5
944
  8
0
 62
     0
 10
79.401639987654448
 20
482.84774903201759
 30
0.0
 11
78.643867759343067
 21
483.2852490320177
 31
0.0
  0
LINE
  5
945
  8
0
 62
     0
 10
81.674956672588607
 20
481.5352490320177
 30
0.0
 11
80.917184444277211
 21
481.97274903201759
 31
0.0
  0
LINE
  5
946
  8
0
 62
     0
 10
71.823917704351956
 20
485.47274903169102
 30
0.0
 11
71.066145476040575
 21
485.91024903169102
 31
0.0
  0
LINE
  5
947
  8
0
 62
     0
 10
74.097234389286101
 20
484.16024903169102
 30
0.0
 11
73.339462160974719
 21
484.59774903169102
 31
0.0
  0
LINE
  5
948
  8
0
 62
     0
 10
76.370551074220245
 20
482.84774903169102
 30
0.0
 11
75.612778845908863
 21
483.28524903169102
 31
0.0
  0
LINE
  5
949
  8
0
 62
     0
 10
78.643867759154389
 20
481.53524903169102
 30
0.0
 11
77.886095530843008
 21
481.97274903169102
 31
0.0
  0
LINE
  5
94A
  8
0
 62
     0
 10
80.917184444088534
 20
480.22274903169091
 30
0.0
 11
80.159412215777166
 21
480.66024903169102
 31
0.0
  0
LINE
  5
94B
  8
0
 62
     0
 10
68.792828790917852
 20
485.47274903136429
 30
0.0
 11
68.305645280643446
 21
485.75402456216602
 31
0.0
  0
LINE
  5
94C
  8
0
 62
     0
 10
71.066145475851997
 20
484.16024903136429
 30
0.0
 11
70.308373247540615
 21
484.59774903136429
 31
0.0
  0
LINE
  5
94D
  8
0
 62
     0
 10
73.339462160786141
 20
482.84774903136429
 30
0.0
 11
72.58168993247476
 21
483.28524903136429
 31
0.0
  0
LINE
  5
94E
  8
0
 62
     0
 10
75.612778845720285
 20
481.53524903136429
 30
0.0
 11
74.855006617408904
 21
481.97274903136429
 31
0.0
  0
LINE
  5
94F
  8
0
 62
     0
 10
77.876108248371509
 20
480.22851519147878
 30
0.0
 11
77.128323302343048
 21
480.66024903136429
 31
0.0
  0
LINE
  5
950
  8
0
 62
     0
 10
70.308373247351952
 20
482.84774903103761
 30
0.0
 11
69.55060101904057
 21
483.28524903103772
 31
0.0
  0
LINE
  5
951
  8
0
 62
     0
 10
72.581689932286096
 20
481.53524903103772
 30
0.0
 11
71.823917703974715
 21
481.97274903103761
 31
0.0
  0
LINE
  5
952
  8
0
 62
     0
 10
74.855006617220241
 20
480.22274903103761
 30
0.0
 11
74.097234388908845
 21
480.66024903103772
 31
0.0
  0
LINE
  5
953
  8
0
 62
     0
 10
77.128323302154385
 20
478.91024903103761
 30
0.0
 11
76.370551073843004
 21
479.34774903103761
 31
0.0
  0
LINE
  5
954
  8
0
 62
     0
 10
69.550601018851921
 20
481.53524903071087
 30
0.0
 11
68.79282879054054
 21
481.97274903071087
 31
0.0
  0
LINE
  5
955
  8
0
 62
     0
 10
71.823917703786066
 20
480.22274903071087
 30
0.0
 11
71.066145475474684
 21
480.66024903071087
 31
0.0
  0
LINE
  5
956
  8
0
 62
     0
 10
74.09723438872021
 20
478.91024903071087
 30
0.0
 11
73.339462160408829
 21
479.34774903071087
 31
0.0
  0
LINE
  5
957
  8
0
 62
     0
 10
76.370551073654354
 20
477.59774903071087
 30
0.0
 11
75.612778845342973
 21
478.03524903071087
 31
0.0
  0
LINE
  5
958
  8
0
 62
     0
 10
68.792828790351933
 20
480.22274903038419
 30
0.0
 11
68.305645280643461
 21
480.50402456085908
 31
0.0
  0
LINE
  5
959
  8
0
 62
     0
 10
71.066145475286092
 20
478.91024903038408
 30
0.0
 11
70.30837324697471
 21
479.34774903038419
 31
0.0
  0
LINE
  5
95A
  8
0
 62
     0
 10
73.339462160220236
 20
477.59774903038419
 30
0.0
 11
72.581689931908855
 21
478.03524903038408
 31
0.0
  0
LINE
  5
95B
  8
0
 62
     0
 10
75.067614174048003
 20
476.60000000000008
 30
0.0
 11
74.855006616842999
 21
476.72274903038419
 31
0.0
  0
LINE
  5
95C
  8
0
 62
     0
 10
70.308373246786132
 20
477.59774903005751
 30
0.0
 11
69.550601018474751
 21
478.03524903005751
 31
0.0
  0
LINE
  5
95D
  8
0
 62
     0
 10
72.036525260048165
 20
476.60000000000008
 30
0.0
 11
71.823917703408895
 21
476.72274903005763
 31
0.0
  0
LINE
  5
95E
  8
0
 62
     0
 10
69.00543634604827
 20
476.60000000000002
 30
0.0
 11
68.79282878997472
 21
476.72274902973078
 31
0.0
  0
LINE
  5
95F
  8
0
 62
     0
 10
70.308373224718125
 20
521.34774915583444
 30
0.0
 11
69.550600996406743
 21
520.91024915583444
 31
0.0
  0
LINE
  5
960
  8
0
 62
     0
 10
68.792828768283982
 20
518.72274915550759
 30
0.0
 11
68.035056539972601
 21
518.2852491555077
 31
0.0
  0
LINE
  5
961
  8
0
 62
     0
 10
71.066145453218127
 20
520.0352491555077
 30
0.0
 11
70.308373224906745
 21
519.59774915550759
 31
0.0
  0
LINE
  5
962
  8
0
 62
     0
 10
73.339462138152271
 20
521.34774915550759
 30
0.0
 11
72.581689909840875
 21
520.9102491555077
 31
0.0
  0
LINE
  5
963
  8
0
 62
     0
 10
75.456418622958381
 20
522.56997455187309
 30
0.0
 11
74.855006594775034
 21
522.22274915550759
 31
0.0
  0
LINE
  5
964
  8
0
 62
     0
 10
69.550600996783984
 20
517.41024915518085
 30
0.0
 11
68.792828768472603
 21
516.97274915518085
 31
0.0
  0
LINE
  5
965
  8
0
 62
     0
 10
71.823917681718129
 20
518.72274915518085
 30
0.0
 11
71.066145453406747
 21
518.28524915518085
 31
0.0
  0
LINE
  5
966
  8
0
 62
     0
 10
74.097234366652273
 20
520.03524915518085
 30
0.0
 11
73.339462138340892
 21
519.59774915518085
 31
0.0
  0
LINE
  5
967
  8
0
 62
     0
 10
76.370551051586403
 20
521.34774915518096
 30
0.0
 11
75.612778823275036
 21
520.91024915518085
 31
0.0
  0
LINE
  5
968
  8
0
 62
     0
 10
78.026363486570844
 20
522.30373291024659
 30
0.0
 11
77.886095508209181
 21
522.22274915518096
 31
0.0
  0
LINE
  5
969
  8
0
 62
     0
 10
70.308373225283901
 20
516.09774915485411
 30
0.0
 11
70.005416859756139
 21
515.92283721566389
 31
0.0
  0
LINE
  5
96A
  8
0
 62
     0
 10
72.581689910218046
 20
517.410249154854
 30
0.0
 11
71.823917681906664
 21
516.97274915485411
 31
0.0
  0
LINE
  5
96B
  8
0
 62
     0
 10
74.85500659515219
 20
518.72274915485411
 30
0.0
 11
74.097234366840809
 21
518.285249154854
 31
0.0
  0
LINE
  5
96C
  8
0
 62
     0
 10
77.128323280086335
 20
520.03524915485411
 30
0.0
 11
76.370551051774953
 21
519.59774915485411
 31
0.0
  0
LINE
  5
96D
  8
0
 62
     0
 10
79.401639965020479
 20
521.34774915485411
 30
0.0
 11
78.643867736709097
 21
520.91024915485411
 31
0.0
  0
LINE
  5
96E
  8
0
 62
     0
 10
73.339462138718133
 20
516.09774915452761
 30
0.0
 11
72.581689910406752
 21
515.66024915452749
 31
0.0
  0
LINE
  5
96F
  8
0
 62
     0
 10
75.612778823652278
 20
517.41024915452761
 30
0.0
 11
74.855006595340896
 21
516.97274915452761
 31
0.0
  0
LINE
  5
970
  8
0
 62
     0
 10
77.886095508586422
 20
518.72274915452761
 30
0.0
 11
77.12832328027504
 21
518.28524915452761
 31
0.0
  0
LINE
  5
971
  8
0
 62
     0
 10
80.159412193520566
 20
520.03524915452761
 30
0.0
 11
79.401639965209185
 21
519.59774915452761
 31
0.0
  0
LINE
  5
972
  8
0
 62
     0
 10
76.370551052152294
 20
516.09774915420087
 30
0.0
 11
75.612778823840912
 21
515.66024915420098
 31
0.0
  0
LINE
  5
973
  8
0
 62
     0
 10
78.643867737086438
 20
517.41024915420098
 30
0.0
 11
77.886095508775057
 21
516.97274915420087
 31
0.0
  0
LINE
  5
974
  8
0
 62
     0
 10
80.917184422020583
 20
518.72274915420087
 30
0.0
 11
80.159412193709215
 21
518.28524915420098
 31
0.0
  0
LINE
  5
975
  8
0
 62
     0
 10
82.488002030411607
 20
519.6296611232533
 30
0.0
 11
82.432728878643346
 21
519.59774915420087
 31
0.0
  0
LINE
  5
976
  8
0
 62
     0
 10
79.401639965586412
 20
516.09774915387425
 30
0.0
 11
78.643867737275031
 21
515.66024915387425
 31
0.0
  0
LINE
  5
977
  8
0
 62
     0
 10
81.674956650520556
 20
517.41024915387425
 30
0.0
 11
80.917184422209175
 21
516.97274915387425
 31
0.0
  0
LINE
  5
978
  8
0
 62
     0
 10
69.550601000179057
 20
485.91024914930051
 30
0.0
 11
68.792828771867676
 21
485.4727491493004
 31
0.0
  0
LINE
  5
979
  8
0
 62
     0
 10
70.308373228679159
 20
484.59774914897389
 30
0.0
 11
69.550601000367777
 21
484.16024914897378
 31
0.0
  0
LINE
  5
97A
  8
0
 62
     0
 10
72.581689913613303
 20
485.91024914897378
 30
0.0
 11
71.823917685301922
 21
485.47274914897389
 31
0.0
  0
LINE
  5
97B
  8
0
 62
     0
 10
68.792828772244988
 20
481.9727491486471
 30
0.0
 11
68.305645280643589
 21
481.69147362862628
 31
0.0
  0
LINE
  5
97C
  8
0
 62
     0
 10
71.066145457179132
 20
483.2852491486471
 30
0.0
 11
70.308373228867751
 21
482.8477491486471
 31
0.0
  0
LINE
  5
97D
  8
0
 62
     0
 10
73.339462142113277
 20
484.5977491486471
 30
0.0
 11
72.581689913801895
 21
484.1602491486471
 31
0.0
  0
LINE
  5
97E
  8
0
 62
     0
 10
75.612778827047421
 20
485.9102491486471
 30
0.0
 11
74.85500659873604
 21
485.4727491486471
 31
0.0
  0
LINE
  5
97F
  8
0
 62
     0
 10
69.550601000744933
 20
480.6602491483203
 30
0.0
 11
68.792828772433566
 21
480.2227491483203
 31
0.0
  0
LINE
  5
980
  8
0
 62
     0
 10
71.823917685679092
 20
481.9727491483203
 30
0.0
 11
71.06614545736771
 21
481.5352491483203
 31
0.0
  0
LINE
  5
981
  8
0
 62
     0
 10
74.097234370613236
 20
483.2852491483203
 30
0.0
 11
73.339462142301855
 21
482.8477491483203
 31
0.0
  0
LINE
  5
982
  8
0
 62
     0
 10
76.370551055547381
 20
484.5977491483203
 30
0.0
 11
75.612778827235999
 21
484.1602491483203
 31
0.0
  0
LINE
  5
983
  8
0
 62
     0
 10
78.643867740481525
 20
485.9102491483203
 30
0.0
 11
77.886095512170144
 21
485.4727491483203
 31
0.0
  0
LINE
  5
984
  8
0
 62
     0
 10
70.308373229244964
 20
479.34774914799362
 30
0.0
 11
69.550601000933582
 21
478.91024914799362
 31
0.0
  0
LINE
  5
985
  8
0
 62
     0
 10
72.581689914179094
 20
480.66024914799362
 30
0.0
 11
71.823917685867727
 21
480.22274914799362
 31
0.0
  0
LINE
  5
986
  8
0
 62
     0
 10
74.855006599113253
 20
481.97274914799362
 30
0.0
 11
74.097234370801871
 21
481.53524914799362
 31
0.0
  0
LINE
  5
987
  8
0
 62
     0
 10
77.128323284047397
 20
483.28524914799362
 30
0.0
 11
76.370551055736016
 21
482.84774914799362
 31
0.0
  0
LINE
  5
988
  8
0
 62
     0
 10
79.401639968981542
 20
484.59774914799362
 30
0.0
 11
78.64386774067016
 21
484.16024914799362
 31
0.0
  0
LINE
  5
989
  8
0
 62
     0
 10
81.674956653915686
 20
485.91024914799362
 30
0.0
 11
80.917184425604304
 21
485.47274914799362
 31
0.0
  0
LINE
  5
98A
  8
0
 62
     0
 10
68.792828772810793
 20
476.722749147667
 30
0.0
 11
68.580221012466012
 21
476.60000000000008
 31
0.0
  0
LINE
  5
98B
  8
0
 62
     0
 10
71.066145457744938
 20
478.03524914766689
 30
0.0
 11
70.308373229433556
 21
477.597749147667
 31
0.0
  0
LINE
  5
98C
  8
0
 62
     0
 10
73.339462142679082
 20
479.347749147667
 30
0.0
 11
72.581689914367701
 21
478.91024914766689
 31
0.0
  0
LINE
  5
98D
  8
0
 62
     0
 10
75.612778827613226
 20
480.66024914766689
 30
0.0
 11
74.855006599301845
 21
480.222749147667
 31
0.0
  0
LINE
  5
98E
  8
0
 62
     0
 10
77.886095512547371
 20
481.972749147667
 30
0.0
 11
77.128323284235989
 21
481.53524914766689
 31
0.0
  0
LINE
  5
98F
  8
0
 62
     0
 10
80.159412197481515
 20
483.28524914766689
 30
0.0
 11
79.401639969170134
 21
482.847749147667
 31
0.0
  0
LINE
  5
990
  8
0
 62
     0
 10
82.305645280643546
 20
484.52437739597428
 30
0.0
 11
81.674956654104264
 21
484.16024914766689
 31
0.0
  0
LINE
  5
991
  8
0
 62
     0
 10
71.82391768624494
 20
476.72274914734032
 30
0.0
 11
71.611309926465964
 21
476.60000000000008
 31
0.0
  0
LINE
  5
992
  8
0
 62
     0
 10
74.097234371179084
 20
478.03524914734032
 30
0.0
 11
73.339462142867703
 21
477.59774914734032
 31
0.0
  0
LINE
  5
993
  8
0
 62
     0
 10
76.370551056113229
 20
479.34774914734032
 30
0.0
 11
75.612778827801847
 21
478.91024914734032
 31
0.0
  0
LINE
  5
994
  8
0
 62
     0
 10
80.917184425981475
 20
481.97274914734021
 30
0.0
 11
80.159412197670108
 21
481.53524914734032
 31
0.0
  0
LINE
  5
995
  8
0
 62
     0
 10
74.855006599679186
 20
476.7227491470137
 30
0.0
 11
74.642398840466001
 21
476.60000000000008
 31
0.0
  0
LINE
  5
996
  8
0
 62
     0
 10
77.12832328461333
 20
478.03524914701381
 30
0.0
 11
76.370551056301949
 21
477.5977491470137
 31
0.0
  0
LINE
  5
997
  8
0
 62
     0
 10
81.674956654481548
 20
480.6602491470137
 30
0.0
 11
80.917184426170181
 21
480.2227491470137
 31
0.0
  0
LINE
  5
998
  8
0
 62
     0
 10
82.281732337194015
 20
479.2605712503298
 30
0.0
 11
81.674956654670197
 21
478.91024914668691
 31
0.0
  0
LINE
  5
999
  8
0
 62
     0
 10
81.674956563945571
 20
520.03524907383417
 30
0.0
 11
81.674956563945571
 21
520.62664079137653
 31
0.0
  0
LINE
  5
99A
  8
0
 62
     0
 10
81.674956563945571
 20
517.41024907383417
 30
0.0
 11
81.674956563945571
 21
518.28524907383417
 31
0.0
  0
LINE
  5
99B
  8
0
 62
     0
 10
81.674956563945557
 20
485.91024907383428
 30
0.0
 11
81.674956563945557
 21
486.60000000000008
 31
0.0
  0
LINE
  5
99C
  8
0
 62
     0
 10
81.674956563945557
 20
483.28524907383428
 30
0.0
 11
81.674956563945557
 21
484.16024907383428
 31
0.0
  0
LINE
  5
99D
  8
0
 62
     0
 10
81.674956563945557
 20
480.66024907383428
 30
0.0
 11
81.674956563945557
 21
481.53524907383428
 31
0.0
  0
LINE
  5
99E
  8
0
 62
     0
 10
81.674956563945557
 20
478.50055832866531
 30
0.0
 11
81.674956563945557
 21
478.91024907383428
 31
0.0
  0
LINE
  5
99F
  8
0
 62
     0
 10
80.159412106945538
 20
520.03524907383417
 30
0.0
 11
80.159412106945538
 21
520.91024907383417
 31
0.0
  0
LINE
  5
9A0
  8
0
 62
     0
 10
80.159412106945538
 20
517.41024907383417
 30
0.0
 11
80.159412106945538
 21
518.28524907383417
 31
0.0
  0
LINE
  5
9A1
  8
0
 62
     0
 10
80.159412106945524
 20
485.91024907383428
 30
0.0
 11
80.159412106945524
 21
486.60000000000008
 31
0.0
  0
LINE
  5
9A2
  8
0
 62
     0
 10
80.159412106945524
 20
483.28524907383428
 30
0.0
 11
80.159412106945524
 21
484.16024907383428
 31
0.0
  0
LINE
  5
9A3
  8
0
 62
     0
 10
80.159412106945524
 20
480.66024907383428
 30
0.0
 11
80.159412106945524
 21
481.53524907383428
 31
0.0
  0
LINE
  5
9A4
  8
0
 62
     0
 10
78.643867649945619
 20
520.03524907383417
 30
0.0
 11
78.643867649945619
 21
520.91024907383417
 31
0.0
  0
LINE
  5
9A5
  8
0
 62
     0
 10
78.643867649945619
 20
517.41024907383417
 30
0.0
 11
78.643867649945619
 21
518.28524907383417
 31
0.0
  0
LINE
  5
9A6
  8
0
 62
     0
 10
78.643867649945619
 20
515.15243805078421
 30
0.0
 11
78.643867649945619
 21
515.66024907383417
 31
0.0
  0
LINE
  5
9A7
  8
0
 62
     0
 10
78.643867649945605
 20
485.91024907383428
 30
0.0
 11
78.643867649945605
 21
486.60000000000008
 31
0.0
  0
LINE
  5
9A8
  8
0
 62
     0
 10
78.643867649945605
 20
483.28524907383428
 30
0.0
 11
78.643867649945605
 21
484.16024907383428
 31
0.0
  0
LINE
  5
9A9
  8
0
 62
     0
 10
78.643867649945605
 20
480.87274182217237
 30
0.0
 11
78.643867649945605
 21
481.53524907383428
 31
0.0
  0
LINE
  5
9AA
  8
0
 62
     0
 10
77.128323192945587
 20
520.03524907383417
 30
0.0
 11
77.128323192945587
 21
520.91024907383417
 31
0.0
  0
LINE
  5
9AB
  8
0
 62
     0
 10
77.128323192945587
 20
517.41024907383417
 30
0.0
 11
77.128323192945587
 21
518.28524907383417
 31
0.0
  0
LINE
  5
9AC
  8
0
 62
     0
 10
77.128323192945587
 20
514.86497382321681
 30
0.0
 11
77.128323192945587
 21
515.66024907383417
 31
0.0
  0
LINE
  5
9AD
  8
0
 62
     0
 10
77.128323192945572
 20
485.91024907383428
 30
0.0
 11
77.128323192945572
 21
486.60000000000008
 31
0.0
  0
LINE
  5
9AE
  8
0
 62
     0
 10
77.128323192945572
 20
483.28524907383428
 30
0.0
 11
77.128323192945572
 21
484.16024907383428
 31
0.0
  0
LINE
  5
9AF
  8
0
 62
     0
 10
77.128323192945572
 20
480.66024907383428
 30
0.0
 11
77.128323192945572
 21
481.53524907383428
 31
0.0
  0
LINE
  5
9B0
  8
0
 62
     0
 10
77.128323192945572
 20
478.03524907383428
 30
0.0
 11
77.128323192945572
 21
478.91024907383428
 31
0.0
  0
LINE
  5
9B1
  8
0
 62
     0
 10
75.612778735945554
 20
520.03524907383417
 30
0.0
 11
75.612778735945554
 21
520.91024907383417
 31
0.0
  0
LINE
  5
9B2
  8
0
 62
     0
 10
75.612778735945554
 20
517.41024907383417
 30
0.0
 11
75.612778735945554
 21
518.28524907383417
 31
0.0
  0
LINE
  5
9B3
  8
0
 62
     0
 10
75.612778735945554
 20
514.78524907383417
 30
0.0
 11
75.612778735945554
 21
515.66024907383417
 31
0.0
  0
LINE
  5
9B4
  8
0
 62
     0
 10
75.61277873594554
 20
485.91024907383428
 30
0.0
 11
75.61277873594554
 21
486.60000000000008
 31
0.0
  0
LINE
  5
9B5
  8
0
 62
     0
 10
75.61277873594554
 20
483.28524907383428
 30
0.0
 11
75.61277873594554
 21
484.16024907383428
 31
0.0
  0
LINE
  5
9B6
  8
0
 62
     0
 10
75.61277873594554
 20
480.66024907383428
 30
0.0
 11
75.61277873594554
 21
481.53524907383428
 31
0.0
  0
LINE
  5
9B7
  8
0
 62
     0
 10
75.61277873594554
 20
478.03524907383428
 30
0.0
 11
75.61277873594554
 21
478.91024907383428
 31
0.0
  0
LINE
  5
9B8
  8
0
 62
     0
 10
74.097234278945521
 20
520.03524907383417
 30
0.0
 11
74.097234278945521
 21
520.91024907383417
 31
0.0
  0
LINE
  5
9B9
  8
0
 62
     0
 10
74.097234278945521
 20
517.41024907383417
 30
0.0
 11
74.097234278945521
 21
518.28524907383417
 31
0.0
  0
LINE
  5
9BA
  8
0
 62
     0
 10
74.097234278945521
 20
514.79790656127125
 30
0.0
 11
74.097234278945521
 21
515.66024907383417
 31
0.0
  0
LINE
  5
9BB
  8
0
 62
     0
 10
74.097234278945507
 20
485.91024907383428
 30
0.0
 11
74.097234278945507
 21
486.60000000000008
 31
0.0
  0
LINE
  5
9BC
  8
0
 62
     0
 10
74.097234278945507
 20
483.28524907383428
 30
0.0
 11
74.097234278945507
 21
484.16024907383428
 31
0.0
  0
LINE
  5
9BD
  8
0
 62
     0
 10
74.097234278945507
 20
480.66024907383428
 30
0.0
 11
74.097234278945507
 21
481.53524907383428
 31
0.0
  0
LINE
  5
9BE
  8
0
 62
     0
 10
74.097234278945507
 20
478.03524907383428
 30
0.0
 11
74.097234278945507
 21
478.91024907383428
 31
0.0
  0
LINE
  5
9BF
  8
0
 62
     0
 10
72.581689821945602
 20
520.03524907383417
 30
0.0
 11
72.581689821945602
 21
520.91024907383417
 31
0.0
  0
LINE
  5
9C0
  8
0
 62
     0
 10
72.581689821945602
 20
517.41024907383417
 30
0.0
 11
72.581689821945602
 21
518.28524907383417
 31
0.0
  0
LINE
  5
9C1
  8
0
 62
     0
 10
72.581689821945602
 20
515.01313137225986
 30
0.0
 11
72.581689821945602
 21
515.66024907383417
 31
0.0
  0
LINE
  5
9C2
  8
0
 62
     0
 10
72.581689821945574
 20
485.91024907383428
 30
0.0
 11
72.581689821945574
 21
486.60000000000008
 31
0.0
  0
LINE
  5
9C3
  8
0
 62
     0
 10
72.581689821945574
 20
483.28524907383428
 30
0.0
 11
72.581689821945574
 21
484.16024907383428
 31
0.0
  0
LINE
  5
9C4
  8
0
 62
     0
 10
72.581689821945574
 20
480.66024907383428
 30
0.0
 11
72.581689821945574
 21
481.53524907383428
 31
0.0
  0
LINE
  5
9C5
  8
0
 62
     0
 10
72.581689821945574
 20
478.03524907383428
 30
0.0
 11
72.581689821945574
 21
478.91024907383428
 31
0.0
  0
LINE
  5
9C6
  8
0
 62
     0
 10
71.066145364945569
 20
520.03524907383417
 30
0.0
 11
71.066145364945569
 21
520.91024907383417
 31
0.0
  0
LINE
  5
9C7
  8
0
 62
     0
 10
71.066145364945569
 20
517.41024907383417
 30
0.0
 11
71.066145364945569
 21
518.28524907383417
 31
0.0
  0
LINE
  5
9C8
  8
0
 62
     0
 10
71.066145364945569
 20
515.43941256725293
 30
0.0
 11
71.066145364945569
 21
515.66024907383417
 31
0.0
  0
LINE
  5
9C9
  8
0
 62
     0
 10
71.066145364945555
 20
485.91024907383428
 30
0.0
 11
71.066145364945555
 21
486.60000000000008
 31
0.0
  0
LINE
  5
9CA
  8
0
 62
     0
 10
71.066145364945555
 20
483.28524907383428
 30
0.0
 11
71.066145364945555
 21
484.16024907383428
 31
0.0
  0
LINE
  5
9CB
  8
0
 62
     0
 10
71.066145364945555
 20
480.66024907383428
 30
0.0
 11
71.066145364945555
 21
481.53524907383428
 31
0.0
  0
LINE
  5
9CC
  8
0
 62
     0
 10
71.066145364945555
 20
478.03524907383428
 30
0.0
 11
71.066145364945555
 21
478.91024907383428
 31
0.0
  0
LINE
  5
9CD
  8
0
 62
     0
 10
69.550600907945537
 20
520.03524907383417
 30
0.0
 11
69.550600907945537
 21
520.91024907383417
 31
0.0
  0
LINE
  5
9CE
  8
0
 62
     0
 10
69.550600907945537
 20
517.41024907383417
 30
0.0
 11
69.550600907945537
 21
518.28524907383417
 31
0.0
  0
LINE
  5
9CF
  8
0
 62
     0
 10
69.550600907945523
 20
485.91024907383428
 30
0.0
 11
69.550600907945523
 21
486.60000000000008
 31
0.0
  0
LINE
  5
9D0
  8
0
 62
     0
 10
69.550600907945523
 20
483.28524907383428
 30
0.0
 11
69.550600907945523
 21
484.16024907383428
 31
0.0
  0
LINE
  5
9D1
  8
0
 62
     0
 10
69.550600907945523
 20
480.66024907383428
 30
0.0
 11
69.550600907945523
 21
481.53524907383428
 31
0.0
  0
LINE
  5
9D2
  8
0
 62
     0
 10
69.550600907945523
 20
478.03524907383428
 30
0.0
 11
69.550600907945523
 21
478.91024907383428
 31
0.0
  0
LINE
  5
9D3
  8
0
 62
     0
 10
68.035056450945618
 20
517.88436863543416
 30
0.0
 11
68.035056450945618
 21
518.28524907383417
 31
0.0
  0
ENDBLK
  5
9D5
  8
0
  0
BLOCK
  8
0
  2
*X71
 70
     1
 10
0.0
 20
0.0
 30
0.0
  3
*X71
  1

  0
LINE
  5
9E1
  8
0
 62
     0
 10
67.965323344249697
 20
526.53370997625757
 30
0.0
 11
67.805981338926784
 21
526.37436797093471
 31
0.0
  0
LINE
  5
9E2
  8
0
 62
     0
 10
69.278529534392874
 20
526.07914921343445
 30
0.0
 11
67.805981338926813
 21
524.6066010179685
 31
0.0
  0
LINE
  5
9E3
  8
0
 62
     0
 10
70.721752563129087
 20
525.75460528920439
 30
0.0
 11
67.805981338926756
 21
522.83883406500195
 31
0.0
  0
LINE
  5
9E4
  8
0
 62
     0
 10
72.327771808820074
 20
525.59285758192891
 30
0.0
 11
67.805981338926784
 21
521.07106711203562
 31
0.0
  0
LINE
  5
9E5
  8
0
 62
     0
 10
68.111568672698525
 20
519.60888749284106
 30
0.0
 11
67.805981338926841
 21
519.30330015906941
 31
0.0
  0
LINE
  5
9E6
  8
0
 62
     0
 10
74.158206359110125
 20
525.65552517925255
 30
0.0
 11
69.745228213677592
 21
521.24254703381996
 31
0.0
  0
LINE
  5
9E7
  8
0
 62
     0
 10
76.356253879417636
 20
526.08580574659368
 30
0.0
 11
72.57188306433892
 21
522.30143493151513
 31
0.0
  0
LINE
  5
9E8
  8
0
 62
     0
 10
77.802143661333503
 20
525.76392857554333
 30
0.0
 11
74.590784098142805
 21
522.55256901235248
 31
0.0
  0
LINE
  5
9E9
  8
0
 62
     0
 10
77.80214366133356
 20
523.99616162257701
 30
0.0
 11
76.338565098027175
 21
522.53258305927045
 31
0.0
  0
LINE
  5
9EA
  8
0
 62
     0
 10
78.400505060406488
 20
522.82675606868361
 30
0.0
 11
77.901615641572647
 21
522.32786664984974
 31
0.0
  0
LINE
  5
9EB
  8
0
 62
     0
 10
79.766633412445771
 20
522.42511746775642
 30
0.0
 11
79.305067402988101
 21
521.96355145829875
 31
0.0
  0
LINE
  5
9EC
  8
0
 62
     0
 10
80.541069549990851
 20
521.43178665233518
 30
0.0
 11
80.538304306738553
 21
521.42902140908291
 31
0.0
  0
LINE
  5
9ED
  8
0
 62
     0
 10
77.80214366133356
 20
525.65054470521511
 30
0.0
 11
77.120292515665824
 21
526.3323958508829
 31
0.0
  0
LINE
  5
9EE
  8
0
 62
     0
 10
77.802143661333616
 20
523.88277775224856
 30
0.0
 11
75.756507499314353
 21
525.92841391426794
 31
0.0
  0
LINE
  5
9EF
  8
0
 62
     0
 10
79.991375546742688
 20
521.6935458668396
 30
0.0
 11
79.259803945825794
 21
522.42511746775654
 31
0.0
  0
LINE
  5
9F0
  8
0
 62
     0
 10
77.523226964965431
 20
522.39392749565059
 30
0.0
 11
74.251390899037744
 21
525.66576356157805
 31
0.0
  0
LINE
  5
9F1
  8
0
 62
     0
 10
75.581322118489027
 20
522.56806538916055
 30
0.0
 11
72.563154457551491
 21
525.58623305009803
 31
0.0
  0
LINE
  5
9F2
  8
0
 62
     0
 10
73.883201533317603
 20
522.49841902136563
 30
0.0
 11
70.607675101970131
 21
525.77394545271295
 31
0.0
  0
LINE
  5
9F3
  8
0
 62
     0
 10
72.356954230223153
 20
522.25689937149366
 30
0.0
 11
68.156311849301233
 21
526.45754175241564
 31
0.0
  0
LINE
  5
9F4
  8
0
 62
     0
 10
70.995911492206119
 20
521.85017515654431
 30
0.0
 11
67.805981338926927
 21
525.0401053098235
 31
0.0
  0
LINE
  5
9F5
  8
0
 62
     0
 10
69.80144317764757
 20
521.27687651813653
 30
0.0
 11
67.805981338926983
 21
523.27233835685695
 31
0.0
  0
LINE
  5
9F6
  8
0
 62
     0
 10
68.806449960713735
 20
520.50410278210404
 30
0.0
 11
67.805981338926927
 21
521.50457140389085
 31
0.0
  0
LINE
  5
9F7
  8
0
 62
     0
 10
68.0565218629676
 20
519.48626392688379
 30
0.0
 11
67.805981338926927
 21
519.73680445092441
 31
0.0
  0
ENDBLK
  5
9F9
  8
0
  0
BLOCK
  8
0
  2
*U72
 70
     1
 10
0.0
 20
0.0
 30
0.0
  3
*U72
  1

  0
TEXT
  5
F42
  8
SAPA_MATT
 62
     2
 10
209.45446417828131
 20
452.6002952755905
 30
0.0
 40
3.0
  1
120
  7
ISO
  0
ENDBLK
  5
F44
  8
0
  0
BLOCK
  8
0
  2
*U73
 70
     1
 10
0.0
 20
0.0
 30
0.0
  3
*U73
  1

  0
TEXT
  5
F46
  8
SAPA_MATT
 62
     2
 10
135.2044641782812
 20
452.60000000000002
 30
0.0
 40
3.0
  1
30
  7
ISO
  0
ENDBLK
  5
F48
  8
0
  0
BLOCK
  8
0
  2
*U74
 70
     1
 10
0.0
 20
0.0
 30
0.0
  3
*U74
  1

  0
TEXT
  5
F4A
  8
SAPA_MATT
 62
     2
 10
97.493513246287407
 20
452.60000000000002
 30
0.0
 40
3.0
  1
45
  7
ISO
  0
ENDBLK
  5
F4C
  8
0
  0
BLOCK
  8
0
  2
*U75
 70
     1
 10
0.0
 20
0.0
 30
0.0
  3
*U75
  1

  0
TEXT
  5
F4E
  8
SAPA_MATT
 62
     2
 10
171.87827175054619
 20
440.60000000000002
 30
0.0
 40
3.0
  1
195
  7
ISO
  0
ENDBLK
  5
F50
  8
0
  0
BLOCK
  8
0
  2
*U76
 70
     1
 10
0.0
 20
0.0
 30
0.0
  3
*U76
  1

  0
TEXT
  5
F52
  8
SAPA_MATT
 62
     2
 10
44.308774314771568
 20
499.58858267716528
 30
0.0
 40
3.0
  1
60
 50
90.0
  7
ISO
  0
ENDBLK
  5
F54
  8
0
  0
BLOCK
  8
0
  2
*U77
 70
     1
 10
0.0
 20
0.0
 30
0.0
  3
*U77
  1

  0
TEXT
  5
F56
  8
SAPA_MATT
 62
     2
 10
56.309288549683039
 20
499.49881889763788
 30
0.0
 40
3.0
  1
50
 50
90.0
  7
ISO
  0
ENDBLK
  5
F58
  8
0
  0
ENDSEC
  0
SECTION
  2
ENTITIES
  0
TEXT
  5
5F
  8
SAPA_ARTIKELNR
 10
192.14709578530579
 20
533.81590732372695
 30
0.0
 40
3.5
  1
68057
  7
ISO
  0
TEXT
  5
61
  8
SAPA_ARTIKELNR
 10
131.88491319433311
 20
533.79411672074525
 30
0.0
 40
3.5
  1
44184
  7
ISO
  0
TEXT
  5
63
  8
SAPA_ARTIKELNR
 10
93.286603838596022
 20
528.62974381411721
 30
0.0
 40
3.5
  1
68005
  7
ISO
  0
TEXT
  5
64
  8
SAPA_ARTIKELNR
 10
130.9477436278188
 20
465.67669180040912
 30
0.0
 40
3.5
  1
44184
  7
ISO
  0
INSERT
  5
75
  8
SAPA_ANSLUTNING
  6
CONTINUOUS
  2
*X70
 10
0.0
 20
0.0
 30
0.0
1001
ACAD
1000
HATCH
1002
{
1070
    19
1000
HEX
1040
7.0
1040
1.5707963267948959
1000
ASC_BOUNDS
1070
     2
1070
     1
1070
     1
1005
7A
1070
     1
1070
     1
1005
78
1000
ASC_SEEDPOINT
1011
72.032786007998823
1021
0.0
1031
0.0
1021
482.1139688625284
1031
0.0
1000
R14_HATCH_DATA
1000
75
1011
1.0
1021
0.0
1031
0.0
1021
0.0
1031
0.0
1011
0.0
1021
0.0
1031
0.0
1021
1.0
1031
0.0
1011
0.0
1021
0.0
1031
0.0
1021
0.0
1031
1.0
1040
0.0
1010
0.0
1020
0.0
1030
1.0
1000
HEX
1070
     0
1070
     1
1071
        2
1071
        7
1070
     1
1070
     1
1071
        9
1040
68.305645280643546
1040
476.60000000000008
1040
0.0
1040
77.305645280643546
1040
476.60000000000008
1040
0.0
1040
77.305645280643546
1040
479.74983992565791
1040
0.0
1040
78.680047063908276
1040
480.90309995508471
1040
0.0
1040
80.130944119954918
1040
480.90309995508483
1040
0.0
1040
80.130944119954904
1040
479.47479227301352
1040
0.9923779948562645
1040
82.305645280643546
1040
479.48336076179919
1040
0.0
1040
82.305645280643546
1040
486.60000000000002
1040
0.0
1040
68.305645280643546
1040
486.60000000000002
1040
0.0
1071
        1
1005
78
1071
        7
1070
     1
1070
     1
1071
       16
1040
72.314642668672803
1040
522.24771697366373
1040
0.0677080186897924
1040
70.063578919478076
1040
521.42483883964258
1040
0.1053277233168658
1040
68.355972073168061
1040
519.99947686279313
1040
0.1678920096872563
1040
67.892549151961987
1040
518.65825733931774
1040
0.1678920096872223
1040
68.355972073167877
1040
517.3170378158427
1040
0.1053277233169615
1040
70.063578919479625
1040
515.89167583899223
1040
0.0677080186896931
1040
72.314642668671155
1040
515.06879770497255
1040
0.0538647880861885
1040
75.304908428534233
1040
514.7457202601471
1040
0.0538647880861933
1040
78.295174188397738
1040
515.06879770497255
1040
0.0677080186896594
1040
80.546237937588231
1040
515.89167583899166
1040
0.1053277233169984
1040
82.253844783900519
1040
517.31703781584292
1040
0.167892009687214
1040
82.717267705106394
1040
518.65825733931774
1040
0.1678920096872546
1040
82.253844783900362
1040
519.99947686279313
1040
0.1053277233168768
1040
80.546237937590035
1040
521.42483883964258
1040
0.0677080186897827
1040
78.295174188395663
1040
522.24771697366373
1040
0.0538647880861527
1040
75.304908428534233
1040
522.57079441848839
1040
0.053864788086153
1071
        1
1005
7A
1070
     0
1070
     1
1040
1.5707963267948959
1040
7.0
1070
     0
1070
     3
1040
1.5707963267948959
1040
615.14660542794547
1040
396.66024907383422
1040
-1.5155444570000001
1040
0.0000000000000001
1070
     2
1040
0.875
1040
-1.75
1040
3.6651914291880909
1040
615.14660542794547
1040
396.66024907383422
1040
0.7577722284999996
1040
-1.312500000326692
1070
     2
1040
0.8749999999999998
1040
-1.7499999999999989
1040
2.6179938779914931
1040
615.14660542794547
1040
397.53524907383422
1040
-0.7577722285000004
1040
-1.312500000326692
1070
     2
1040
0.875
1040
-1.75
1040
0.1004818818266199
1071
        2
1040
72.032786007998823
1040
482.1139688625284
1040
0.0
1040
73.439532886178029
1040
520.31571573877125
1040
0.0
1002
}
  0
POLYLINE
  5
78
  8
SAPA_ANSLUTNING
 66
     1
 10
0.0
 20
0.0
 30
0.0
 70
     1
1001
ACAD
1000
ASC_BOUNDS
1002
{
1070
    19
1005
75
1002
}
  0
VERTEX
  5
9D6
  8
SAPA_ANSLUTNING
 10
80.130944119954904
 20
479.5
 30
0.0
  0
VERTEX
  5
9D7
  8
SAPA_ANSLUTNING
 10
80.130944119954904
 20
480.90309995508483
 30
0.0
  0
VERTEX
  5
9D8
  8
SAPA_ANSLUTNING
 10
78.680047063908262
 20
480.90309995508483
 30
0.0
  0
VERTEX
  5
9D9
  8
SAPA_ANSLUTNING
 10
77.305645280643546
 20
479.7498399256578
 30
0.0
  0
VERTEX
  5
9DA
  8
SAPA_ANSLUTNING
 10
77.305645280643546
 20
476.60000000000008
 30
0.0
  0
VERTEX
  5
9DB
  8
SAPA_ANSLUTNING
 10
68.305645280643546
 20
476.60000000000008
 30
0.0
  0
VERTEX
  5
9DC
  8
SAPA_ANSLUTNING
 10
68.305645280643546
 20
486.60000000000008
 30
0.0
  0
VERTEX
  5
9DD
  8
SAPA_ANSLUTNING
 10
82.305645280643546
 20
486.60000000000008
 30
0.0
  0
VERTEX
  5
9DE
  8
SAPA_ANSLUTNING
 10
82.305645280643546
 20
479.48336076179919
 30
0.0
 42
-1.0039478385010081
  0
SEQEND
  5
9DF
  8
SAPA_ANSLUTNING
  0
INSERT
  5
79
  8
SAPA_ANSLUTNING
  6
CONTINUOUS
  2
*X71
 10
0.0
 20
0.0
 30
0.0
1001
ACAD
1000
HATCH
1002
{
1070
    19
1000
ANSI37
1040
10.0
1040
1.5707963267948959
1000
R14_HATCH_DATA
1000
79
1011
1.0
1021
0.0
1031
0.0
1021
0.0
1031
0.0
1011
0.0
1021
0.0
1031
0.0
1021
1.0
1031
0.0
1011
0.0
1021
0.0
1031
0.0
1021
0.0
1031
1.0
1040
0.0
1010
0.0
1020
0.0
1030
1.0
1000
ANSI37
1070
     0
1070
     0
1071
        1
1071
        7
1070
     1
1070
     1
1071
       14
1040
67.80598133892687
1040
526.60000000000025
1040
0.0
1040
67.80598133892687
1040
518.65825733931774
1040
0.0
1040
67.892549151961987
1040
518.65825733931774
1040
-0.1678920096872382
1040
68.355972073167933
1040
519.99947686279302
1040
-0.1053277233169209
1040
70.063578919478971
1040
521.42483883964314
1040
-0.06770801868971
1040
72.314642668670956
1040
522.24771697366327
1040
-0.053864788086187
1040
75.304908428534233
1040
522.57079441848839
1040
-0.0538647880861851
1040
78.295174188397425
1040
522.24771697366327
1040
-0.0677080186897096
1040
80.546237937589396
1040
521.42483883964314
1040
0.0
1040
79.80214366133356
1040
522.42511746775642
1040
0.0
1040
78.80214366133356
1040
522.42511746775642
1040
0.0
1040
77.80214366133356
1040
523.42511746775654
1040
0.0
1040
77.80214366133356
1040
526.42511746775688
1040
0.0
1040
77.805645280643773
1040
526.60000000000059
1040
-0.2032199431463407
1071
        0
1070
     0
1070
     1
1040
1.5707963267948959
1040
10.0
1070
     0
1070
     2
1040
2.3561944901923439
1040
615.14660542794547
1040
396.66024907383422
1040
-0.8838834764831844
1040
-0.8838834764831842
1070
     0
1040
3.926990816987241
1040
615.14660542794547
1040
396.66024907383422
1040
0.8838834764831842
1040
-0.8838834764831844
1070
     0
1040
0.0390651268545045
1071
        1
1040
71.063727969076055
1040
524.23272856032588
1040
0.0
1002
}
  0
POLYLINE
  5
7A
  8
SAPA_ANSLUTNING
 66
     1
 10
0.0
 20
0.0
 30
0.0
 70
     1
1001
ACAD
1000
ASC_BOUNDS
1002
{
1070
    19
1005
75
1002
}
  0
VERTEX
  5
9FA
  8
SAPA_ANSLUTNING
 10
75.304908428534233
 20
514.7457202601471
 30
0.0
 42
-0.0538647880861898
  0
VERTEX
  5
9FB
  8
SAPA_ANSLUTNING
 10
72.314642668671056
 20
515.06879770497244
 30
0.0
 42
-0.0677080186897121
  0
VERTEX
  5
9FC
  8
SAPA_ANSLUTNING
 10
70.063578919478971
 20
515.89167583899246
 30
0.0
 42
-0.1053277233169234
  0
VERTEX
  5
9FD
  8
SAPA_ANSLUTNING
 10
68.355972073167933
 20
517.3170378158427
 30
0.0
 42
-0.1678920096872386
  0
VERTEX
  5
9FE
  8
SAPA_ANSLUTNING
 10
67.892549151961987
 20
518.65825733931774
 30
0.0
 42
-0.1678920096872382
  0
VERTEX
  5
9FF
  8
SAPA_ANSLUTNING
 10
68.355972073167933
 20
519.99947686279302
 30
0.0
 42
-0.1053277233169209
  0
VERTEX
  5
A00
  8
SAPA_ANSLUTNING
 10
70.063578919478971
 20
521.42483883964314
 30
0.0
 42
-0.06770801868971
  0
VERTEX
  5
A01
  8
SAPA_ANSLUTNING
 10
72.314642668670956
 20
522.24771697366327
 30
0.0
 42
-0.053864788086187
  0
VERTEX
  5
A02
  8
SAPA_ANSLUTNING
 10
75.304908428534233
 20
522.57079441848839
 30
0.0
 42
-0.0538647880861851
  0
VERTEX
  5
A03
  8
SAPA_ANSLUTNING
 10
78.295174188397425
 20
522.24771697366327
 30
0.0
 42
-0.0677080186897099
  0
VERTEX
  5
A04
  8
SAPA_ANSLUTNING
 10
80.546237937589396
 20
521.42483883964314
 30
0.0
 42
-0.1053277233169203
  0
VERTEX
  5
A05
  8
SAPA_ANSLUTNING
 10
82.253844783900433
 20
519.99947686279302
 30
0.0
 42
-0.1678920096872382
  0
VERTEX
  5
A06
  8
SAPA_ANSLUTNING
 10
82.717267705106394
 20
518.65825733931774
 30
0.0
 42
-0.167892009687245
  0
VERTEX
  5
A07
  8
SAPA_ANSLUTNING
 10
82.253844783900433
 20
517.3170378158427
 30
0.0
 42
-0.1053277233169226
  0
VERTEX
  5
A08
  8
SAPA_ANSLUTNING
 10
80.546237937589396
 20
515.89167583899246
 30
0.0
 42
-0.0677080186897082
  0
VERTEX
  5
A09
  8
SAPA_ANSLUTNING
 10
78.295174188397425
 20
515.06879770497244
 30
0.0
 42
-0.0538647880861872
  0
SEQEND
  5
A0A
  8
SAPA_ANSLUTNING
  0
ARC
  5
7B
  8
SAPA_ANSLUTNING
 10
72.805813309785151
 20
538.39349602580705
 30
0.0
 40
12.809561594665579
 50
247.0255689067402
 51
292.97443109325991
  0
POLYLINE
  5
7C
  8
SAPA_ANSLUTNING
 66
     1
 10
0.0
 20
0.0
 30
0.0
  0
VERTEX
  5
A0B
  8
SAPA_ANSLUTNING
 10
80.315768020295138
 20
487.53884404354829
 30
0.0
 42
1.0
  0
VERTEX
  5
A0C
  8
SAPA_ANSLUTNING
 10
80.315768020295138
 20
491.53884404354829
 30
0.0
  0
VERTEX
  5
A0D
  8
SAPA_ANSLUTNING
 10
69.859157573846403
 20
491.53884404354812
 30
0.0
 42
-0.9999989466455052
  0
VERTEX
  5
A0E
  8
SAPA_ANSLUTNING
 10
69.859153360426205
 20
495.5388440435438
 30
0.0
  0
VERTEX
  5
A0F
  8
SAPA_ANSLUTNING
 10
75.859154288013713
 20
495.5388440435438
 30
0.0
 42
1.0
  0
VERTEX
  5
A10
  8
SAPA_ANSLUTNING
 10
75.859154288013713
 20
499.5388440435438
 30
0.0
  0
VERTEX
  5
A11
  8
SAPA_ANSLUTNING
 10
69.859150728647975
 20
499.53884404354358
 30
0.0
 42
-0.9999974985601644
  0
VERTEX
  5
A12
  8
SAPA_ANSLUTNING
 10
69.859150728647975
 20
503.53884404353113
 30
0.0
  0
VERTEX
  5
A13
  8
SAPA_ANSLUTNING
 10
75.859154288013713
 20
503.53884404353101
 30
0.0
 42
1.0
  0
VERTEX
  5
A14
  8
SAPA_ANSLUTNING
 10
75.859154288013713
 20
507.53884404353113
 30
0.0
  0
VERTEX
  5
A15
  8
SAPA_ANSLUTNING
 10
69.859153360426205
 20
507.53884404353101
 30
0.0
 42
-0.9999989466455052
  0
VERTEX
  5
A16
  8
SAPA_ANSLUTNING
 10
69.859157573846403
 20
511.53884404352669
 30
0.0
  0
VERTEX
  5
A17
  8
SAPA_ANSLUTNING
 10
80.315768020295138
 20
511.53884404352652
 30
0.0
 42
1.0
  0
VERTEX
  5
A18
  8
SAPA_ANSLUTNING
 10
80.315768020295138
 20
515.53884404352652
 30
0.0
  0
SEQEND
  5
A19
  8
SAPA_ANSLUTNING
  0
LINE
  5
7D
  8
SAPA_ANSLUTNING
 10
67.80598133892687
 20
542.35682640955918
 30
0.0
 11
67.80598133892687
 21
460.32256342665778
 31
0.0
  0
LINE
  5
7E
  8
SAPA_LIGHT
 10
67.80598133892687
 20
542.35682640955918
 30
0.0
 11
67.80598133892687
 21
460.32256342665778
 31
0.0
  0
POLYLINE
  5
80
  8
SAPA_LIGHT
 66
     1
 10
0.0
 20
0.0
 30
0.0
 70
     1
  0
VERTEX
  5
A1A
  8
SAPA_LIGHT
 10
77.305645280643475
 20
476.60000000000008
 30
0.0
  0
VERTEX
  5
A1B
  8
SAPA_LIGHT
 10
77.305645280643475
 20
526.60000000000014
 30
0.0
  0
VERTEX
  5
A1C
  8
SAPA_LIGHT
 10
131.30564528064329
 20
526.60000000000014
 30
0.0
  0
VERTEX
  5
A1D
  8
SAPA_LIGHT
 10
131.30564528064329
 20
476.60000000000008
 30
0.0
  0
SEQEND
  5
A1E
  8
SAPA_LIGHT
  0
POLYLINE
  5
81
  8
SAPA_LIGHT
 66
     1
 10
0.0
 20
0.0
 30
0.0
  0
VERTEX
  5
A1F
  8
SAPA_LIGHT
 10
272.30564528064582
 20
485.50000000000023
 30
0.0
  0
VERTEX
  5
A20
  8
SAPA_LIGHT
 10
272.30564528064349
 20
471.60000000000002
 30
0.0
  0
VERTEX
  5
A21
  8
SAPA_LIGHT
 10
143.28686425208821
 20
471.60000000000002
 30
0.0
  0
VERTEX
  5
A22
  8
SAPA_LIGHT
 10
143.28686425208821
 20
531.60000000000002
 30
0.0
  0
VERTEX
  5
A23
  8
SAPA_LIGHT
 10
272.30564528064571
 20
531.60000000000002
 30
0.0
  0
VERTEX
  5
A24
  8
SAPA_LIGHT
 10
272.30564528064582
 20
491.50000000000023
 30
0.0
  0
SEQEND
  5
A25
  8
SAPA_LIGHT
  0
POLYLINE
  5
82
  8
SAPA_LIGHT
 66
     1
 10
0.0
 20
0.0
 30
0.0
  0
VERTEX
  5
A26
  8
SAPA_LIGHT
 10
288.50564528064342
 20
485.50000000000023
 30
0.0
  0
VERTEX
  5
A27
  8
SAPA_LIGHT
 10
255.3056452806434
 20
485.50000000000023
 30
0.0
  0
VERTEX
  5
A28
  8
SAPA_LIGHT
 10
255.3056452806434
 20
491.50000000000023
 30
0.0
  0
VERTEX
  5
A29
  8
SAPA_LIGHT
 10
288.50564528064342
 20
491.50000000000023
 30
0.0
  0
VERTEX
  5
A2A
  8
SAPA_LIGHT
 10
288.50564528064342
 20
485.50000000000023
 30
0.0
  0
SEQEND
  5
A2B
  8
SAPA_LIGHT
  0
POLYLINE
  5
856
  8
SAPA_PROFIL
 66
     1
 10
0.0
 20
0.0
 30
0.0
 70
     1
  0
VERTEX
  5
C05
  8
SAPA_PROFIL
 10
141.86354511962691
 20
524.44031201705525
 30
0.0
  0
VERTEX
  5
C06
  8
SAPA_PROFIL
 10
142.45402619294191
 20
521.61195729613723
 30
0.0
 42
-1.000000000000006
  0
VERTEX
  5
C07
  8
SAPA_PROFIL
 10
140.98568428065801
 20
521.3054087214673
 30
0.0
  0
VERTEX
  5
C08
  8
SAPA_PROFIL
 10
140.01804657508791
 20
525.94031201705525
 30
0.0
 42
-0.4758639521832408
  0
VERTEX
  5
C09
  8
SAPA_PROFIL
 10
140.5074938791829
 20
526.54249487527841
 30
0.0
  0
VERTEX
  5
C0A
  8
SAPA_PROFIL
 10
152.0056452806441
 20
526.54249487527841
 30
0.0
 42
-0.4142135623730951
  0
VERTEX
  5
C0B
  8
SAPA_PROFIL
 10
152.305645280644
 20
526.24249487527823
 30
0.0
  0
VERTEX
  5
C0C
  8
SAPA_PROFIL
 10
152.305645280644
 20
525.24249487527823
 30
0.0
 42
-0.4142135623730951
  0
VERTEX
  5
C0D
  8
SAPA_PROFIL
 10
151.805645280644
 20
524.74249487527823
 30
0.0
  0
VERTEX
  5
C0E
  8
SAPA_PROFIL
 10
150.0056452806441
 20
524.74249487527823
 30
0.0
 42
0.4142135623730951
  0
VERTEX
  5
C0F
  8
SAPA_PROFIL
 10
149.5056452806441
 20
524.24249487527823
 30
0.0
  0
VERTEX
  5
C10
  8
SAPA_PROFIL
 10
149.5056452806441
 20
523.54282975118531
 30
0.0
 42
0.4142135623730951
  0
VERTEX
  5
C11
  8
SAPA_PROFIL
 10
150.0056452806441
 20
523.04282975118531
 30
0.0
  0
VERTEX
  5
C12
  8
SAPA_PROFIL
 10
152.09853849945691
 20
523.04282975118531
 30
0.0
 42
-0.1989123673801872
  0
VERTEX
  5
C13
  8
SAPA_PROFIL
 10
152.45209189005089
 20
522.89638314177807
 30
0.0
  0
VERTEX
  5
C14
  8
SAPA_PROFIL
 10
153.664223924407
 20
521.68425110742226
 30
0.0
 42
-0.4142135623721031
  0
VERTEX
  5
C15
  8
SAPA_PROFIL
 10
153.664223924407
 20
521.40140839494734
 30
0.0
  0
VERTEX
  5
C16
  8
SAPA_PROFIL
 10
152.40919867123691
 20
520.14638314177819
 30
0.0
 42
-0.6681786379192989
  0
VERTEX
  5
C17
  8
SAPA_PROFIL
 10
151.805645280644
 20
520.39638314177807
 30
0.0
  0
VERTEX
  5
C18
  8
SAPA_PROFIL
 10
151.805645280644
 20
520.74282975118535
 30
0.0
 42
0.4142135623730951
  0
VERTEX
  5
C19
  8
SAPA_PROFIL
 10
151.305645280644
 20
521.24282975118535
 30
0.0
  0
VERTEX
  5
C1A
  8
SAPA_PROFIL
 10
150.09286679013499
 20
521.24282975118479
 30
0.0
 42
0.4758639521839558
  0
VERTEX
  5
C1B
  8
SAPA_PROFIL
 10
149.60341948604099
 20
520.64064689296117
 30
0.0
  0
VERTEX
  5
C1C
  8
SAPA_PROFIL
 10
152.28876096719571
 20
507.77808685718009
 30
0.0
 42
-0.0514993824408238
  0
VERTEX
  5
C1D
  8
SAPA_PROFIL
 10
152.295092584739
 20
507.7167771422462
 30
0.0
  0
VERTEX
  5
C1E
  8
SAPA_PROFIL
 10
152.295092584739
 20
493.74316462709203
 30
0.0
 42
-0.4142135623725124
  0
VERTEX
  5
C1F
  8
SAPA_PROFIL
 10
151.795092584739
 20
493.24316462709203
 30
0.0
  0
VERTEX
  5
C20
  8
SAPA_PROFIL
 10
151.2621965110236
 20
493.24316462709203
 30
0.0
 42
0.4930053328293303
  0
VERTEX
  5
C21
  8
SAPA_PROFIL
 10
150.77917531196789
 20
492.6139728267994
 30
0.0
  0
VERTEX
  5
C22
  8
SAPA_PROFIL
 10
152.283701143396
 20
486.98886450366462
 30
0.0
 42
-0.0653162663294908
  0
VERTEX
  5
C23
  8
SAPA_PROFIL
 10
152.29388839302709
 20
486.91148566363103
 30
0.0
  0
VERTEX
  5
C24
  8
SAPA_PROFIL
 10
152.29564528064401
 20
483.04282975118508
 30
0.0
  0
VERTEX
  5
C25
  8
SAPA_PROFIL
 10
153.65422392440701
 20
481.68425110742243
 30
0.0
 42
-0.4142135623717354
  0
VERTEX
  5
C26
  8
SAPA_PROFIL
 10
153.65422392440701
 20
481.40140839494768
 30
0.0
  0
VERTEX
  5
C27
  8
SAPA_PROFIL
 10
152.29564528064401
 20
480.04282975118502
 30
0.0
  0
VERTEX
  5
C28
  8
SAPA_PROFIL
 10
152.29564528064401
 20
476.84316462709188
 30
0.0
 42
-0.4142135623730951
  0
VERTEX
  5
C29
  8
SAPA_PROFIL
 10
151.99564528064391
 20
476.54316462709193
 30
0.0
  0
VERTEX
  5
C2A
  8
SAPA_PROFIL
 10
151.2956452806441
 20
476.54316462709193
 30
0.0
 42
-0.4142135623731451
  0
VERTEX
  5
C2B
  8
SAPA_PROFIL
 10
150.79564528064401
 20
477.04316462709193
 30
0.0
  0
VERTEX
  5
C2C
  8
SAPA_PROFIL
 10
150.79564528064401
 20
485.54658169025868
 30
0.0
 42
0.0654302849891172
  0
VERTEX
  5
C2D
  8
SAPA_PROFIL
 10
150.78545800007731
 20
485.62409677043428
 30
0.0
  0
VERTEX
  5
C2E
  8
SAPA_PROFIL
 10
148.42724008304299
 20
494.44098176886882
 30
0.0
 42
-0.4758639521834738
  0
VERTEX
  5
C2F
  8
SAPA_PROFIL
 10
148.91668738713699
 20
495.0431646270917
 30
0.0
  0
VERTEX
  5
C30
  8
SAPA_PROFIL
 10
149.99883288359291
 20
495.04316462709198
 30
0.0
 42
0.4143465813459925
  0
VERTEX
  5
C31
  8
SAPA_PROFIL
 10
150.49883283203391
 20
495.54339169399532
 30
0.0
  0
VERTEX
  5
C32
  8
SAPA_PROFIL
 10
150.49706556479529
 20
500.77070782968588
 30
0.0
 42
-0.1317384842620349
  0
VERTEX
  5
C33
  8
SAPA_PROFIL
 10
150.53725792651491
 20
500.92080925460982
 30
0.0
  0
VERTEX
  5
C34
  8
SAPA_PROFIL
 10
150.89657496834911
 20
501.54316462709221
 30
0.0
  0
VERTEX
  5
C35
  8
SAPA_PROFIL
 10
150.53674097519001
 20
502.16641538553353
 30
0.0
 42
-0.1315690551425046
  0
VERTEX
  5
C36
  8
SAPA_PROFIL
 10
150.49654861247151
 20
502.31631695947817
 30
0.0
  0
VERTEX
  5
C37
  8
SAPA_PROFIL
 10
150.49565389506091
 20
505.04339169399532
 30
0.0
 42
0.4140805559112343
  0
VERTEX
  5
C38
  8
SAPA_PROFIL
 10
149.99565394662
 20
505.54316462709221
 30
0.0
  0
VERTEX
  5
C39
  8
SAPA_PROFIL
 10
144.68279265029491
 20
505.54316462709221
 30
0.0
 42
-0.355138457742837
  0
VERTEX
  5
C3A
  8
SAPA_PROFIL
 10
144.1933453462004
 20
505.94098176886928
 30
0.0
  0
VERTEX
  5
C3B
  8
SAPA_PROFIL
 10
143.3767629376259
 20
509.85234288557331
 30
0.0
 42
-1.00000000000078
  0
VERTEX
  5
C3C
  8
SAPA_PROFIL
 10
144.84510475077619
 20
510.15889193507809
 30
0.0
  0
VERTEX
  5
C3D
  8
SAPA_PROFIL
 10
145.41266792664479
 20
507.44031201705519
 30
0.0
 42
0.355138457742837
  0
VERTEX
  5
C3E
  8
SAPA_PROFIL
 10
145.9021152307389
 20
507.04249487527829
 30
0.0
  0
VERTEX
  5
C3F
  8
SAPA_PROFIL
 10
149.9883569635449
 20
507.04249487527829
 30
0.0
 42
0.4758639521833721
  0
VERTEX
  5
C40
  8
SAPA_PROFIL
 10
150.4778042676389
 20
507.64467773350128
 30
0.0
  0
VERTEX
  5
C41
  8
SAPA_PROFIL
 10
146.9286814606219
 20
524.64467773350134
 30
0.0
 42
0.3551384577429493
  0
VERTEX
  5
C42
  8
SAPA_PROFIL
 10
146.43923415652691
 20
525.04249487527841
 30
0.0
  0
VERTEX
  5
C43
  8
SAPA_PROFIL
 10
142.3529924237221
 20
525.04249487527841
 30
0.0
 42
0.4758639521832408
  0
SEQEND
  5
C44
  8
SAPA_PROFIL
  0
POLYLINE
  5
857
  8
SAPA_PROFIL
 66
     1
 10
0.0
 20
0.0
 30
0.0
 70
     1
  0
VERTEX
  5
C45
  8
SAPA_PROFIL
 10
132.74774544166121
 20
478.75968798294491
 30
0.0
  0
VERTEX
  5
C46
  8
SAPA_PROFIL
 10
132.1572643683462
 20
481.58804270386281
 30
0.0
 42
-1.000000000000006
  0
VERTEX
  5
C47
  8
SAPA_PROFIL
 10
133.62560628063011
 20
481.8945912785328
 30
0.0
  0
VERTEX
  5
C48
  8
SAPA_PROFIL
 10
134.59324398620009
 20
477.2596879829448
 30
0.0
 42
-0.4758639521832408
  0
VERTEX
  5
C49
  8
SAPA_PROFIL
 10
134.10379668210521
 20
476.65750512472158
 30
0.0
  0
VERTEX
  5
C4A
  8
SAPA_PROFIL
 10
122.605645280644
 20
476.65750512472158
 30
0.0
 42
-0.4142135623730951
  0
VERTEX
  5
C4B
  8
SAPA_PROFIL
 10
122.305645280644
 20
476.95750512472182
 30
0.0
  0
VERTEX
  5
C4C
  8
SAPA_PROFIL
 10
122.305645280644
 20
477.95750512472188
 30
0.0
 42
-0.4142135623730951
  0
VERTEX
  5
C4D
  8
SAPA_PROFIL
 10
122.805645280644
 20
478.45750512472188
 30
0.0
  0
VERTEX
  5
C4E
  8
SAPA_PROFIL
 10
124.605645280644
 20
478.45750512472188
 30
0.0
 42
0.4142135623730951
  0
VERTEX
  5
C4F
  8
SAPA_PROFIL
 10
125.105645280644
 20
478.95750512472188
 30
0.0
  0
VERTEX
  5
C50
  8
SAPA_PROFIL
 10
125.105645280644
 20
479.65717024881468
 30
0.0
 42
0.4142135623730951
  0
VERTEX
  5
C51
  8
SAPA_PROFIL
 10
124.605645280644
 20
480.15717024881468
 30
0.0
  0
VERTEX
  5
C52
  8
SAPA_PROFIL
 10
122.51275206183119
 20
480.15717024881468
 30
0.0
 42
-0.1989123673801872
  0
VERTEX
  5
C53
  8
SAPA_PROFIL
 10
122.15919867123711
 20
480.3036168582218
 30
0.0
  0
VERTEX
  5
C54
  8
SAPA_PROFIL
 10
120.9470666368811
 20
481.51574889257768
 30
0.0
 42
-0.4142135623721031
  0
VERTEX
  5
C55
  8
SAPA_PROFIL
 10
120.9470666368811
 20
481.79859160505282
 30
0.0
  0
VERTEX
  5
C56
  8
SAPA_PROFIL
 10
122.20209189005119
 20
483.05361685822191
 30
0.0
 42
-0.6681786379192989
  0
VERTEX
  5
C57
  8
SAPA_PROFIL
 10
122.805645280644
 20
482.80361685822191
 30
0.0
  0
VERTEX
  5
C58
  8
SAPA_PROFIL
 10
122.805645280644
 20
482.45717024881469
 30
0.0
 42
0.4142135623730951
  0
VERTEX
  5
C59
  8
SAPA_PROFIL
 10
123.305645280644
 20
481.95717024881469
 30
0.0
  0
VERTEX
  5
C5A
  8
SAPA_PROFIL
 10
124.518423771153
 20
481.95717024881509
 30
0.0
 42
0.4758639521839558
  0
VERTEX
  5
C5B
  8
SAPA_PROFIL
 10
125.007871075247
 20
482.55935310703882
 30
0.0
  0
VERTEX
  5
C5C
  8
SAPA_PROFIL
 10
122.3225295940924
 20
495.42191314282002
 30
0.0
 42
-0.0514993824408238
  0
VERTEX
  5
C5D
  8
SAPA_PROFIL
 10
122.31619797654911
 20
495.48322285775379
 30
0.0
  0
VERTEX
  5
C5E
  8
SAPA_PROFIL
 10
122.31619797654911
 20
509.45683537290802
 30
0.0
 42
-0.4142135623725124
  0
VERTEX
  5
C5F
  8
SAPA_PROFIL
 10
122.81619797654911
 20
509.95683537290807
 30
0.0
  0
VERTEX
  5
C60
  8
SAPA_PROFIL
 10
123.3490940502645
 20
509.95683537290807
 30
0.0
 42
0.4930053328293303
  0
VERTEX
  5
C61
  8
SAPA_PROFIL
 10
123.8321152493201
 20
510.58602717320059
 30
0.0
  0
VERTEX
  5
C62
  8
SAPA_PROFIL
 10
122.3275894178921
 20
516.21113549633537
 30
0.0
 42
-0.0653162663294908
  0
VERTEX
  5
C63
  8
SAPA_PROFIL
 10
122.3174021682609
 20
516.28851433636885
 30
0.0
  0
VERTEX
  5
C64
  8
SAPA_PROFIL
 10
122.31564528064401
 20
520.15717024881485
 30
0.0
  0
VERTEX
  5
C65
  8
SAPA_PROFIL
 10
120.95706663688109
 20
521.51574889257756
 30
0.0
 42
-0.4142135623717354
  0
VERTEX
  5
C66
  8
SAPA_PROFIL
 10
120.95706663688109
 20
521.79859160505225
 30
0.0
  0
VERTEX
  5
C67
  8
SAPA_PROFIL
 10
122.31564528064401
 20
523.15717024881496
 30
0.0
  0
VERTEX
  5
C68
  8
SAPA_PROFIL
 10
122.31564528064401
 20
526.35683537290799
 30
0.0
 42
-0.4142135623730951
  0
VERTEX
  5
C69
  8
SAPA_PROFIL
 10
122.6156452806442
 20
526.65683537290806
 30
0.0
  0
VERTEX
  5
C6A
  8
SAPA_PROFIL
 10
123.31564528064401
 20
526.65683537290806
 30
0.0
 42
-0.4142135623731451
  0
VERTEX
  5
C6B
  8
SAPA_PROFIL
 10
123.81564528064401
 20
526.15683537290806
 30
0.0
  0
VERTEX
  5
C6C
  8
SAPA_PROFIL
 10
123.81564528064401
 20
517.65341830974126
 30
0.0
 42
0.0654302849891172
  0
VERTEX
  5
C6D
  8
SAPA_PROFIL
 10
123.8258325612107
 20
517.57590322956571
 30
0.0
  0
VERTEX
  5
C6E
  8
SAPA_PROFIL
 10
126.1840504782451
 20
508.75901823113128
 30
0.0
 42
-0.4758639521834738
  0
VERTEX
  5
C6F
  8
SAPA_PROFIL
 10
125.6946031741511
 20
508.15683537290829
 30
0.0
  0
VERTEX
  5
C70
  8
SAPA_PROFIL
 10
124.6124576776951
 20
508.15683537290812
 30
0.0
 42
0.4143465813459925
  0
VERTEX
  5
C71
  8
SAPA_PROFIL
 10
124.1124577292541
 20
507.65660830600478
 30
0.0
  0
VERTEX
  5
C72
  8
SAPA_PROFIL
 10
124.11422499649279
 20
502.42929217031411
 30
0.0
 42
-0.1317384842620349
  0
VERTEX
  5
C73
  8
SAPA_PROFIL
 10
124.0740326347731
 20
502.27919074539022
 30
0.0
  0
VERTEX
  5
C74
  8
SAPA_PROFIL
 10
123.714715592939
 20
501.65683537290789
 30
0.0
  0
VERTEX
  5
C75
  8
SAPA_PROFIL
 10
124.0745495860981
 20
501.03358461446641
 30
0.0
 42
-0.1315690551425046
  0
VERTEX
  5
C76
  8
SAPA_PROFIL
 10
124.1147419488165
 20
500.88368304052187
 30
0.0
  0
VERTEX
  5
C77
  8
SAPA_PROFIL
 10
124.1156366662271
 20
498.15660830600473
 30
0.0
 42
0.4140805559112343
  0
VERTEX
  5
C78
  8
SAPA_PROFIL
 10
124.61563661466811
 20
497.65683537290789
 30
0.0
  0
VERTEX
  5
C79
  8
SAPA_PROFIL
 10
129.9284979109932
 20
497.65683537290789
 30
0.0
 42
-0.355138457742837
  0
VERTEX
  5
C7A
  8
SAPA_PROFIL
 10
130.41794521508771
 20
497.25901823113082
 30
0.0
  0
VERTEX
  5
C7B
  8
SAPA_PROFIL
 10
131.23452762366219
 20
493.34765711442668
 30
0.0
 42
-1.00000000000078
  0
VERTEX
  5
C7C
  8
SAPA_PROFIL
 10
129.76618581051179
 20
493.04110806492201
 30
0.0
  0
VERTEX
  5
C7D
  8
SAPA_PROFIL
 10
129.19862263464319
 20
495.7596879829448
 30
0.0
 42
0.355138457742837
  0
VERTEX
  5
C7E
  8
SAPA_PROFIL
 10
128.70917533054919
 20
496.15750512472158
 30
0.0
  0
VERTEX
  5
C7F
  8
SAPA_PROFIL
 10
124.6229335977432
 20
496.15750512472158
 30
0.0
 42
0.4758639521833721
  0
VERTEX
  5
C80
  8
SAPA_PROFIL
 10
124.1334862936492
 20
495.55532226649871
 30
0.0
  0
VERTEX
  5
C81
  8
SAPA_PROFIL
 10
127.6826091006662
 20
478.55532226649871
 30
0.0
 42
0.3551384577429493
  0
VERTEX
  5
C82
  8
SAPA_PROFIL
 10
128.17205640476121
 20
478.15750512472169
 30
0.0
  0
VERTEX
  5
C83
  8
SAPA_PROFIL
 10
132.25829813756599
 20
478.15750512472169
 30
0.0
 42
0.4758639521832408
  0
SEQEND
  5
C84
  8
SAPA_PROFIL
  0
POLYLINE
  5
858
  8
SAPA_PROFIL
 66
     1
 10
0.0
 20
0.0
 30
0.0
  0
VERTEX
  5
C85
  8
SAPA_PROFIL
 10
253.18438220219539
 20
510.77844481936648
 30
0.0
  0
VERTEX
  5
C86
  8
SAPA_PROFIL
 10
270.30564528064582
 20
510.09740488550818
 30
0.0
 42
0.4142135623730951
  0
VERTEX
  5
C87
  8
SAPA_PROFIL
 10
270.80564528064582
 20
510.59740488550818
 30
0.0
  0
VERTEX
  5
C88
  8
SAPA_PROFIL
 10
270.80564528064571
 20
522.3970183685168
 30
0.0
 42
0.4076767287637263
  0
VERTEX
  5
C89
  8
SAPA_PROFIL
 10
267.87274892982879
 20
525.39626820090655
 30
0.0
  0
VERTEX
  5
C8A
  8
SAPA_PROFIL
 10
253.18438220219539
 20
525.55070742301723
 30
0.0
 42
0.4182129759575463
  0
VERTEX
  5
C8B
  8
SAPA_PROFIL
 10
252.67322109013989
 20
525.05519570215995
 30
0.0
  0
VERTEX
  5
C8C
  8
SAPA_PROFIL
 10
252.6603934886142
 20
522.58054794604072
 30
0.0
  0
VERTEX
  5
C8D
  8
SAPA_PROFIL
 10
251.00570489099039
 20
520.95448998984705
 30
0.0
  0
VERTEX
  5
C8E
  8
SAPA_PROFIL
 10
246.4566288567022
 20
520.95448998984705
 30
0.0
 42
-0.4293387945586749
  0
VERTEX
  5
C8F
  8
SAPA_PROFIL
 10
246.15990233561769
 20
521.27260112583645
 30
0.0
  0
VERTEX
  5
C90
  8
SAPA_PROFIL
 10
246.23254201174541
 20
522.35405685110698
 30
0.0
 42
-0.4883397947196161
  0
VERTEX
  5
C91
  8
SAPA_PROFIL
 10
247.79426383775379
 20
522.13343391690876
 30
0.0
  0
VERTEX
  5
C92
  8
SAPA_PROFIL
 10
250.49334511378819
 20
522.13343391690876
 30
0.0
  0
VERTEX
  5
C93
  8
SAPA_PROFIL
 10
251.46477676016431
 20
523.0880571371066
 30
0.0
  0
VERTEX
  5
C94
  8
SAPA_PROFIL
 10
251.46477676016431
 20
525.58718327999156
 30
0.0
  0
VERTEX
  5
C95
  8
SAPA_PROFIL
 10
250.9910010936494
 20
525.58718327999156
 30
0.0
  0
VERTEX
  5
C96
  8
SAPA_PROFIL
 10
250.9910010936494
 20
527.09999999999991
 30
0.0
  0
VERTEX
  5
C97
  8
SAPA_PROFIL
 10
272.00828598733779
 20
527.10000000000014
 30
0.0
 42
-0.4116378201539302
  0
VERTEX
  5
C98
  8
SAPA_PROFIL
 10
272.30564528064571
 20
526.80001152232978
 30
0.0
  0
VERTEX
  5
C99
  8
SAPA_PROFIL
 10
272.30564528064582
 20
498.39740488550819
 30
0.0
 42
-0.414213562373095
  0
VERTEX
  5
C9A
  8
SAPA_PROFIL
 10
272.00564528064581
 20
498.09740488550813
 30
0.0
  0
VERTEX
  5
C9B
  8
SAPA_PROFIL
 10
270.79564528064577
 20
498.09740488550818
 30
0.0
 42
-0.4142135623731037
  0
VERTEX
  5
C9C
  8
SAPA_PROFIL
 10
269.80564528064582
 20
499.08740488550819
 30
0.0
  0
VERTEX
  5
C9D
  8
SAPA_PROFIL
 10
269.80564528064582
 20
499.09740488550818
 30
0.0
  0
VERTEX
  5
C9E
  8
SAPA_PROFIL
 10
271.05564528064582
 20
499.09740488550818
 30
0.0
  0
VERTEX
  5
C9F
  8
SAPA_PROFIL
 10
271.05564528064582
 20
500.59740488550818
 30
0.0
 42
0.4142135623730951
  0
VERTEX
  5
CA0
  8
SAPA_PROFIL
 10
270.55564528064582
 20
501.09740488550818
 30
0.0
  0
VERTEX
  5
CA1
  8
SAPA_PROFIL
 10
262.55564528064582
 20
501.09740488550818
 30
0.0
 42
0.4142135623730951
  0
VERTEX
  5
CA2
  8
SAPA_PROFIL
 10
262.05564528064582
 20
500.59740488550818
 30
0.0
  0
VERTEX
  5
CA3
  8
SAPA_PROFIL
 10
262.05564528064582
 20
499.09740488550818
 30
0.0
  0
VERTEX
  5
CA4
  8
SAPA_PROFIL
 10
263.30564528064571
 20
499.09740488550818
 30
0.0
  0
VERTEX
  5
CA5
  8
SAPA_PROFIL
 10
263.30564528064571
 20
499.08740488550819
 30
0.0
 42
-0.414213562373095
  0
VERTEX
  5
CA6
  8
SAPA_PROFIL
 10
262.3156452806457
 20
498.09740488550813
 30
0.0
  0
VERTEX
  5
CA7
  8
SAPA_PROFIL
 10
261.80564528064582
 20
498.09740488550818
 30
0.0
 42
-0.4142135623730953
  0
VERTEX
  5
CA8
  8
SAPA_PROFIL
 10
260.80564528064582
 20
499.09740488550818
 30
0.0
  0
VERTEX
  5
CA9
  8
SAPA_PROFIL
 10
260.80564528064582
 20
500.59740488550818
 30
0.0
 42
-0.4142135623730951
  0
VERTEX
  5
CAA
  8
SAPA_PROFIL
 10
262.50564528064569
 20
502.29740488550817
 30
0.0
  0
VERTEX
  5
CAB
  8
SAPA_PROFIL
 10
270.30564528064582
 20
502.29740488550829
 30
0.0
 42
0.414213562373095
  0
VERTEX
  5
CAC
  8
SAPA_PROFIL
 10
270.80564528064582
 20
502.79740488550829
 30
0.0
  0
VERTEX
  5
CAD
  8
SAPA_PROFIL
 10
270.80564528064582
 20
508.29740488550817
 30
0.0
 42
0.4142135623730951
  0
VERTEX
  5
CAE
  8
SAPA_PROFIL
 10
270.30564528064582
 20
508.79740488550817
 30
0.0
  0
VERTEX
  5
CAF
  8
SAPA_PROFIL
 10
253.18438220219539
 20
509.46861453197448
 30
0.0
  0
VERTEX
  5
CB0
  8
SAPA_PROFIL
 10
247.7814354384457
 20
510.12555298270388
 30
0.0
 42
0.4666505291506209
  0
VERTEX
  5
CB1
  8
SAPA_PROFIL
 10
247.50163387252701
 20
509.86372145165927
 30
0.0
  0
VERTEX
  5
CB2
  8
SAPA_PROFIL
 10
247.54117676644529
 20
509.14106535810038
 30
0.0
 42
-0.7332303362618522
  0
VERTEX
  5
CB3
  8
SAPA_PROFIL
 10
247.00510074379301
 20
508.9408907695302
 30
0.0
  0
VERTEX
  5
CB4
  8
SAPA_PROFIL
 10
246.23419062628861
 20
511.0509981090679
 30
0.0
 42
-0.668178637919333
  0
VERTEX
  5
CB5
  8
SAPA_PROFIL
 10
246.50735682148289
 20
511.53334596115872
 30
0.0
  0
VERTEX
  5
CB6
  8
SAPA_PROFIL
 10
253.18438220219539
 20
510.77844481936648
 30
0.0
  0
VERTEX
  5
CB7
  8
SAPA_PROFIL
 10
253.18438220219539
 20
510.7879782715296
 30
0.0
  0
SEQEND
  5
CB8
  8
SAPA_PROFIL
  0
LINE
  5
859
  8
SAPA_PROFIL
 10
263.0056452806474
 20
480.6000000000048
 30
0.0
 11
263.0056452806474
 21
480.6000000000048
 31
0.0
  0
POLYLINE
  5
85A
  8
SAPA_PROFIL
 66
     1
 10
0.0
 20
0.0
 30
0.0
 70
     1
  0
VERTEX
  5
CB9
  8
SAPA_PROFIL
 10
247.00564528064351
 20
499.59999999999991
 30
0.0
 42
0.4142135623730951
  0
VERTEX
  5
CBA
  8
SAPA_PROFIL
 10
247.30564528064349
 20
499.89999999999981
 30
0.0
  0
VERTEX
  5
CBB
  8
SAPA_PROFIL
 10
247.30564528064349
 20
500.73397459621481
 30
0.0
  0
VERTEX
  5
CBC
  8
SAPA_PROFIL
 10
247.80564528064349
 20
501.59999999999991
 30
0.0
  0
VERTEX
  5
CBD
  8
SAPA_PROFIL
 10
247.30564528064349
 20
502.46602540378382
 30
0.0
  0
VERTEX
  5
CBE
  8
SAPA_PROFIL
 10
247.30564528064349
 20
503.2999999999999
 30
0.0
 42
0.4142135623730951
  0
VERTEX
  5
CBF
  8
SAPA_PROFIL
 10
247.00564528064351
 20
503.59999999999991
 30
0.0
  0
VERTEX
  5
CC0
  8
SAPA_PROFIL
 10
243.30564528064349
 20
503.59999999999991
 30
0.0
  0
VERTEX
  5
CC1
  8
SAPA_PROFIL
 10
242.30564528064349
 20
504.59999999999991
 30
0.0
  0
VERTEX
  5
CC2
  8
SAPA_PROFIL
 10
242.30564528064349
 20
518.69999999999982
 30
0.0
 42
0.4142135623730951
  0
VERTEX
  5
CC3
  8
SAPA_PROFIL
 10
242.00564528064339
 20
518.99999999999977
 30
0.0
  0
VERTEX
  5
CC4
  8
SAPA_PROFIL
 10
238.6056452806435
 20
518.99999999999977
 30
0.0
 42
-0.4142135623730951
  0
VERTEX
  5
CC5
  8
SAPA_PROFIL
 10
238.30564528064349
 20
519.29999999999995
 30
0.0
  0
VERTEX
  5
CC6
  8
SAPA_PROFIL
 10
238.30564528064349
 20
520.89999999999975
 30
0.0
 42
-0.4142135623730951
  0
VERTEX
  5
CC7
  8
SAPA_PROFIL
 10
238.6056452806435
 20
521.1999999999997
 30
0.0
  0
VERTEX
  5
CC8
  8
SAPA_PROFIL
 10
242.00564528064339
 20
521.1999999999997
 30
0.0
 42
0.4142135623730951
  0
VERTEX
  5
CC9
  8
SAPA_PROFIL
 10
242.30564528064349
 20
521.49999999999977
 30
0.0
  0
VERTEX
  5
CCA
  8
SAPA_PROFIL
 10
242.30564528064349
 20
528.29999999999995
 30
0.0
 42
0.4142135623730951
  0
VERTEX
  5
CCB
  8
SAPA_PROFIL
 10
242.00564528064339
 20
528.59999999999991
 30
0.0
  0
VERTEX
  5
CCC
  8
SAPA_PROFIL
 10
165.80564528064349
 20
528.59999999999991
 30
0.0
 42
0.4142135623730951
  0
VERTEX
  5
CCD
  8
SAPA_PROFIL
 10
165.50564528064339
 20
528.29999999999995
 30
0.0
  0
VERTEX
  5
CCE
  8
SAPA_PROFIL
 10
165.50564528064339
 20
521.49999999999977
 30
0.0
 42
0.4142135623730951
  0
VERTEX
  5
CCF
  8
SAPA_PROFIL
 10
165.80564528064349
 20
521.1999999999997
 30
0.0
  0
VERTEX
  5
CD0
  8
SAPA_PROFIL
 10
169.20564528064349
 20
521.1999999999997
 30
0.0
 42
-0.4142135623730951
  0
VERTEX
  5
CD1
  8
SAPA_PROFIL
 10
169.50564528064339
 20
520.89999999999975
 30
0.0
  0
VERTEX
  5
CD2
  8
SAPA_PROFIL
 10
169.50564528064351
 20
519.29999999999995
 30
0.0
 42
-0.4142135623730951
  0
VERTEX
  5
CD3
  8
SAPA_PROFIL
 10
169.20564528064349
 20
518.99999999999977
 30
0.0
  0
VERTEX
  5
CD4
  8
SAPA_PROFIL
 10
164.60564528064339
 20
518.99999999999977
 30
0.0
 42
0.4142135623730951
  0
VERTEX
  5
CD5
  8
SAPA_PROFIL
 10
164.30564528064349
 20
518.69999999999982
 30
0.0
  0
VERTEX
  5
CD6
  8
SAPA_PROFIL
 10
164.30564528064349
 20
484.49999999999977
 30
0.0
 42
0.4142135623730951
  0
VERTEX
  5
CD7
  8
SAPA_PROFIL
 10
164.60564528064339
 20
484.1999999999997
 30
0.0
  0
VERTEX
  5
CD8
  8
SAPA_PROFIL
 10
169.20564528064349
 20
484.1999999999997
 30
0.0
 42
-0.4142135623730951
  0
VERTEX
  5
CD9
  8
SAPA_PROFIL
 10
169.50564528064351
 20
483.89999999999981
 30
0.0
  0
VERTEX
  5
CDA
  8
SAPA_PROFIL
 10
169.50564528064339
 20
482.2999999999999
 30
0.0
 42
-0.4142135623730951
  0
VERTEX
  5
CDB
  8
SAPA_PROFIL
 10
169.20564528064349
 20
481.99999999999989
 30
0.0
  0
VERTEX
  5
CDC
  8
SAPA_PROFIL
 10
165.80564528064349
 20
481.99999999999989
 30
0.0
 42
0.4142135623730951
  0
VERTEX
  5
CDD
  8
SAPA_PROFIL
 10
165.50564528064339
 20
481.69999999999982
 30
0.0
  0
VERTEX
  5
CDE
  8
SAPA_PROFIL
 10
165.50564528064339
 20
474.89999999999981
 30
0.0
 42
0.4142135623730951
  0
VERTEX
  5
CDF
  8
SAPA_PROFIL
 10
165.80564528064349
 20
474.59999999999991
 30
0.0
  0
VERTEX
  5
CE0
  8
SAPA_PROFIL
 10
242.80564528064349
 20
474.59999999999991
 30
0.0
  0
VERTEX
  5
CE1
  8
SAPA_PROFIL
 10
246.21777731499949
 20
478.01213203435589
 30
0.0
 42
0.1989123673797207
  0
VERTEX
  5
CE2
  8
SAPA_PROFIL
 10
246.30564528064349
 20
478.22426406871182
 30
0.0
  0
VERTEX
  5
CE3
  8
SAPA_PROFIL
 10
246.30564528064349
 20
481.69999999999982
 30
0.0
 42
0.4142135623730951
  0
VERTEX
  5
CE4
  8
SAPA_PROFIL
 10
246.00564528064339
 20
481.99999999999989
 30
0.0
  0
VERTEX
  5
CE5
  8
SAPA_PROFIL
 10
238.6056452806435
 20
481.99999999999989
 30
0.0
 42
-0.4142135623730951
  0
VERTEX
  5
CE6
  8
SAPA_PROFIL
 10
238.30564528064349
 20
482.2999999999999
 30
0.0
  0
VERTEX
  5
CE7
  8
SAPA_PROFIL
 10
238.30564528064349
 20
483.89999999999981
 30
0.0
 42
-0.4142135623730951
  0
VERTEX
  5
CE8
  8
SAPA_PROFIL
 10
238.6056452806435
 20
484.1999999999997
 30
0.0
  0
VERTEX
  5
CE9
  8
SAPA_PROFIL
 10
247.00564528064351
 20
484.1999999999997
 30
0.0
 42
0.4142135623730951
  0
VERTEX
  5
CEA
  8
SAPA_PROFIL
 10
247.30564528064349
 20
484.49999999999977
 30
0.0
  0
VERTEX
  5
CEB
  8
SAPA_PROFIL
 10
247.30564528064349
 20
497.2999999999999
 30
0.0
 42
0.4142135623730951
  0
VERTEX
  5
CEC
  8
SAPA_PROFIL
 10
247.00564528064351
 20
497.59999999999991
 30
0.0
  0
VERTEX
  5
CED
  8
SAPA_PROFIL
 10
243.00564528064351
 20
497.59999999999991
 30
0.0
 42
-0.6681786379192989
  0
VERTEX
  5
CEE
  8
SAPA_PROFIL
 10
242.6520918900502
 20
498.45355339059319
 30
0.0
  0
VERTEX
  5
CEF
  8
SAPA_PROFIL
 10
243.79853849945641
 20
499.59999999999991
 30
0.0
  0
SEQEND
  5
CF0
  8
SAPA_PROFIL
  0
POLYLINE
  5
85B
  8
SAPA_PROFIL
 66
     1
 10
0.0
 20
0.0
 30
0.0
 70
     1
  0
VERTEX
  5
CF1
  8
SAPA_PROFIL
 10
157.5482859677625
 20
471.59999999999991
 30
0.0
 42
-0.1989123673796595
  0
VERTEX
  5
CF2
  8
SAPA_PROFIL
 10
155.42696562420281
 20
472.47867965644019
 30
0.0
  0
VERTEX
  5
CF3
  8
SAPA_PROFIL
 10
152.5985384994564
 20
475.30710678118578
 30
0.0
 42
-0.1989123673796811
  0
VERTEX
  5
CF4
  8
SAPA_PROFIL
 10
152.30564528064349
 20
476.0142135623729
 30
0.0
  0
VERTEX
  5
CF5
  8
SAPA_PROFIL
 10
152.30564528064301
 20
478.39999999999981
 30
0.0
 42
-0.2504916501726618
  0
VERTEX
  5
CF6
  8
SAPA_PROFIL
 10
153.30564528064349
 20
479.39999999999992
 30
0.0
  0
VERTEX
  5
CF7
  8
SAPA_PROFIL
 10
154.00564528064339
 20
479.40000000000009
 30
0.0
 42
-0.4142135623730951
  0
VERTEX
  5
CF8
  8
SAPA_PROFIL
 10
154.30564528064349
 20
479.10000000000002
 30
0.0
  0
VERTEX
  5
CF9
  8
SAPA_PROFIL
 10
154.30564528064349
 20
478.64999999999998
 30
0.0
 42
0.4142135623730951
  0
VERTEX
  5
CFA
  8
SAPA_PROFIL
 10
154.60564528064339
 20
478.35000000000002
 30
0.0
  0
VERTEX
  5
CFB
  8
SAPA_PROFIL
 10
155.3056452806434
 20
478.35000000000002
 30
0.0
 42
0.4142135623731506
  0
VERTEX
  5
CFC
  8
SAPA_PROFIL
 10
155.60564528064339
 20
478.64999999999998
 30
0.0
  0
VERTEX
  5
CFD
  8
SAPA_PROFIL
 10
155.60564528064339
 20
479.10000000000002
 30
0.0
 42
-0.4142135623731506
  0
VERTEX
  5
CFE
  8
SAPA_PROFIL
 10
155.9056452806434
 20
479.39999999999992
 30
0.0
  0
VERTEX
  5
CFF
  8
SAPA_PROFIL
 10
156.4056452806434
 20
479.40000000000009
 30
0.0
 42
-0.4142135623730951
  0
VERTEX
  5
D00
  8
SAPA_PROFIL
 10
156.9056452806434
 20
478.89999999999998
 30
0.0
  0
VERTEX
  5
D01
  8
SAPA_PROFIL
 10
156.9056452806434
 20
477.50000000000011
 30
0.0
 42
0.4142135623730951
  0
VERTEX
  5
D02
  8
SAPA_PROFIL
 10
157.9056452806434
 20
476.50000000000011
 30
0.0
  0
VERTEX
  5
D03
  8
SAPA_PROFIL
 10
158.30564528064349
 20
476.49999999999989
 30
0.0
 42
0.9999999999999998
  0
VERTEX
  5
D04
  8
SAPA_PROFIL
 10
158.30564528064349
 20
483.69999999999999
 30
0.0
  0
VERTEX
  5
D05
  8
SAPA_PROFIL
 10
157.20564528064341
 20
483.70000000000022
 30
0.0
 42
0.4142135623732059
  0
VERTEX
  5
D06
  8
SAPA_PROFIL
 10
156.90564528064331
 20
483.40000000000009
 30
0.0
  0
VERTEX
  5
D07
  8
SAPA_PROFIL
 10
156.90564528064351
 20
483.10000000000008
 30
0.0
 42
-0.4142135623733948
  0
VERTEX
  5
D08
  8
SAPA_PROFIL
 10
156.4056452806434
 20
482.59999999999991
 30
0.0
  0
VERTEX
  5
D09
  8
SAPA_PROFIL
 10
155.9056452806434
 20
482.59999999999991
 30
0.0
 42
-0.4142135623730397
  0
VERTEX
  5
D0A
  8
SAPA_PROFIL
 10
155.60564528064339
 20
482.89999999999981
 30
0.0
  0
VERTEX
  5
D0B
  8
SAPA_PROFIL
 10
155.60564528064339
 20
483.34999999999991
 30
0.0
 42
0.4142135623731505
  0
VERTEX
  5
D0C
  8
SAPA_PROFIL
 10
155.3056452806434
 20
483.64999999999998
 30
0.0
  0
VERTEX
  5
D0D
  8
SAPA_PROFIL
 10
154.60564528064339
 20
483.64999999999998
 30
0.0
 42
0.4142135623730951
  0
VERTEX
  5
D0E
  8
SAPA_PROFIL
 10
154.30564528064349
 20
483.34999999999991
 30
0.0
  0
VERTEX
  5
D0F
  8
SAPA_PROFIL
 10
154.30564528064349
 20
482.89999999999981
 30
0.0
 42
-0.4142135623730951
  0
VERTEX
  5
D10
  8
SAPA_PROFIL
 10
154.00564528064339
 20
482.59999999999991
 30
0.0
  0
VERTEX
  5
D11
  8
SAPA_PROFIL
 10
153.30564528064301
 20
482.60000000000042
 30
0.0
 42
-0.2504916501726643
  0
VERTEX
  5
D12
  8
SAPA_PROFIL
 10
152.30564528064301
 20
483.59999999999928
 30
0.0
  0
VERTEX
  5
D13
  8
SAPA_PROFIL
 10
152.30564528064349
 20
485.89999999999992
 30
0.0
 42
-0.4142135623730951
  0
VERTEX
  5
D14
  8
SAPA_PROFIL
 10
153.30564528064349
 20
486.89999999999981
 30
0.0
  0
VERTEX
  5
D15
  8
SAPA_PROFIL
 10
161.00564528064339
 20
486.89999999999981
 30
0.0
 42
0.4142135623730951
  0
VERTEX
  5
D16
  8
SAPA_PROFIL
 10
161.30564528064349
 20
487.19999999999982
 30
0.0
  0
VERTEX
  5
D17
  8
SAPA_PROFIL
 10
161.30564528064349
 20
500.73397459621481
 30
0.0
  0
VERTEX
  5
D18
  8
SAPA_PROFIL
 10
161.80564528064349
 20
501.59999999999991
 30
0.0
  0
VERTEX
  5
D19
  8
SAPA_PROFIL
 10
161.30564528064349
 20
502.46602540378382
 30
0.0
  0
VERTEX
  5
D1A
  8
SAPA_PROFIL
 10
161.30564528064349
 20
515.99999999999989
 30
0.0
 42
0.4142135623730951
  0
VERTEX
  5
D1B
  8
SAPA_PROFIL
 10
161.00564528064339
 20
516.29999999999995
 30
0.0
  0
VERTEX
  5
D1C
  8
SAPA_PROFIL
 10
153.30564528064349
 20
516.29999999999995
 30
0.0
 42
-0.4142135623730951
  0
VERTEX
  5
D1D
  8
SAPA_PROFIL
 10
152.30564528064349
 20
517.29999999999995
 30
0.0
  0
VERTEX
  5
D1E
  8
SAPA_PROFIL
 10
152.30564528064349
 20
519.5999999999998
 30
0.0
 42
-0.2504916501726643
  0
VERTEX
  5
D1F
  8
SAPA_PROFIL
 10
153.30564528064301
 20
520.59999999999945
 30
0.0
  0
VERTEX
  5
D20
  8
SAPA_PROFIL
 10
154.00564528064339
 20
520.59999999999991
 30
0.0
 42
-0.4142135623730951
  0
VERTEX
  5
D21
  8
SAPA_PROFIL
 10
154.30564528064349
 20
520.29999999999995
 30
0.0
  0
VERTEX
  5
D22
  8
SAPA_PROFIL
 10
154.30564528064349
 20
519.8499999999998
 30
0.0
 42
0.4142135623730951
  0
VERTEX
  5
D23
  8
SAPA_PROFIL
 10
154.60564528064339
 20
519.54999999999973
 30
0.0
  0
VERTEX
  5
D24
  8
SAPA_PROFIL
 10
155.3056452806434
 20
519.54999999999984
 30
0.0
 42
0.4142135623731506
  0
VERTEX
  5
D25
  8
SAPA_PROFIL
 10
155.60564528064339
 20
519.8499999999998
 30
0.0
  0
VERTEX
  5
D26
  8
SAPA_PROFIL
 10
155.60564528064339
 20
520.29999999999995
 30
0.0
 42
-0.4142135623730397
  0
VERTEX
  5
D27
  8
SAPA_PROFIL
 10
155.9056452806434
 20
520.59999999999991
 30
0.0
  0
VERTEX
  5
D28
  8
SAPA_PROFIL
 10
156.4056452806434
 20
520.59999999999991
 30
0.0
 42
-0.4142135623733948
  0
VERTEX
  5
D29
  8
SAPA_PROFIL
 10
156.90564528064351
 20
520.09999999999957
 30
0.0
  0
VERTEX
  5
D2A
  8
SAPA_PROFIL
 10
156.90564528064331
 20
519.79999999999973
 30
0.0
 42
0.4142135623732059
  0
VERTEX
  5
D2B
  8
SAPA_PROFIL
 10
157.20564528064341
 20
519.49999999999955
 30
0.0
  0
VERTEX
  5
D2C
  8
SAPA_PROFIL
 10
158.30564528064349
 20
519.49999999999966
 30
0.0
 42
0.9999999999999998
  0
VERTEX
  5
D2D
  8
SAPA_PROFIL
 10
158.30564528064349
 20
526.69999999999982
 30
0.0
  0
VERTEX
  5
D2E
  8
SAPA_PROFIL
 10
157.9056452806434
 20
526.69999999999959
 30
0.0
 42
0.4142135623730951
  0
VERTEX
  5
D2F
  8
SAPA_PROFIL
 10
156.9056452806434
 20
525.6999999999997
 30
0.0
  0
VERTEX
  5
D30
  8
SAPA_PROFIL
 10
156.9056452806434
 20
524.29999999999973
 30
0.0
 42
-0.4142135623730951
  0
VERTEX
  5
D31
  8
SAPA_PROFIL
 10
156.4056452806434
 20
523.79999999999973
 30
0.0
  0
VERTEX
  5
D32
  8
SAPA_PROFIL
 10
155.9056452806434
 20
523.79999999999984
 30
0.0
 42
-0.4142135623731506
  0
VERTEX
  5
D33
  8
SAPA_PROFIL
 10
155.60564528064339
 20
524.09999999999968
 30
0.0
  0
VERTEX
  5
D34
  8
SAPA_PROFIL
 10
155.60564528064339
 20
524.54999999999984
 30
0.0
 42
0.4142135623731505
  0
VERTEX
  5
D35
  8
SAPA_PROFIL
 10
155.3056452806434
 20
524.8499999999998
 30
0.0
  0
VERTEX
  5
D36
  8
SAPA_PROFIL
 10
154.60564528064339
 20
524.8499999999998
 30
0.0
 42
0.4142135623730951
  0
VERTEX
  5
D37
  8
SAPA_PROFIL
 10
154.30564528064349
 20
524.54999999999984
 30
0.0
  0
VERTEX
  5
D38
  8
SAPA_PROFIL
 10
154.30564528064349
 20
524.09999999999968
 30
0.0
 42
-0.4142135623730951
  0
VERTEX
  5
D39
  8
SAPA_PROFIL
 10
154.00564528064339
 20
523.79999999999973
 30
0.0
  0
VERTEX
  5
D3A
  8
SAPA_PROFIL
 10
153.30564528064349
 20
523.79999999999984
 30
0.0
 42
-0.2504916501726621
  0
VERTEX
  5
D3B
  8
SAPA_PROFIL
 10
152.30564528064301
 20
524.80000000000007
 30
0.0
  0
VERTEX
  5
D3C
  8
SAPA_PROFIL
 10
152.30564528064349
 20
527.1857864376268
 30
0.0
 42
-0.1989123673796728
  0
VERTEX
  5
D3D
  8
SAPA_PROFIL
 10
152.59853849945679
 20
527.89289321881336
 30
0.0
  0
VERTEX
  5
D3E
  8
SAPA_PROFIL
 10
155.42696562420349
 20
530.72132034355889
 30
0.0
 42
-0.1989123673796584
  0
VERTEX
  5
D3F
  8
SAPA_PROFIL
 10
157.5482859677625
 20
531.5999999999998
 30
0.0
  0
VERTEX
  5
D40
  8
SAPA_PROFIL
 10
164.30031239182429
 20
531.5999999999998
 30
0.0
  0
VERTEX
  5
D41
  8
SAPA_PROFIL
 10
245.06300459352349
 20
531.5999999999998
 30
0.0
 42
-0.1989123673796596
  0
VERTEX
  5
D42
  8
SAPA_PROFIL
 10
247.18432493708349
 20
530.72132034355889
 30
0.0
  0
VERTEX
  5
D43
  8
SAPA_PROFIL
 10
250.0127520618301
 20
527.89289321881347
 30
0.0
 42
-0.1989123673796371
  0
VERTEX
  5
D44
  8
SAPA_PROFIL
 10
250.30564528064349
 20
527.18578643762692
 30
0.0
  0
VERTEX
  5
D45
  8
SAPA_PROFIL
 10
250.30564528064349
 20
524.0999999999998
 30
0.0
  0
VERTEX
  5
D46
  8
SAPA_PROFIL
 10
249.30564528064349
 20
523.0999999999998
 30
0.0
  0
VERTEX
  5
D47
  8
SAPA_PROFIL
 10
248.6056452806435
 20
523.0999999999998
 30
0.0
 42
-0.4142135623730951
  0
VERTEX
  5
D48
  8
SAPA_PROFIL
 10
248.30564528064349
 20
523.39999999999986
 30
0.0
  0
VERTEX
  5
D49
  8
SAPA_PROFIL
 10
248.30564528064349
 20
525.14999999999986
 30
0.0
 42
0.4142135623730951
  0
VERTEX
  5
D4A
  8
SAPA_PROFIL
 10
248.00564528064339
 20
525.44999999999982
 30
0.0
  0
VERTEX
  5
D4B
  8
SAPA_PROFIL
 10
245.55564528064349
 20
525.44999999999982
 30
0.0
 42
0.4142135623730951
  0
VERTEX
  5
D4C
  8
SAPA_PROFIL
 10
245.25564528064339
 20
525.14999999999986
 30
0.0
  0
VERTEX
  5
D4D
  8
SAPA_PROFIL
 10
245.25564528064339
 20
507.05000000000001
 30
0.0
 42
0.4142135623730951
  0
VERTEX
  5
D4E
  8
SAPA_PROFIL
 10
245.55564528064349
 20
506.74999999999989
 30
0.0
  0
VERTEX
  5
D4F
  8
SAPA_PROFIL
 10
248.00564528064339
 20
506.74999999999989
 30
0.0
 42
0.4142135623730951
  0
VERTEX
  5
D50
  8
SAPA_PROFIL
 10
248.30564528064349
 20
507.05000000000001
 30
0.0
  0
VERTEX
  5
D51
  8
SAPA_PROFIL
 10
248.30564528064349
 20
508.80000000000001
 30
0.0
 42
-0.4142135623730951
  0
VERTEX
  5
D52
  8
SAPA_PROFIL
 10
248.6056452806435
 20
509.09999999999991
 30
0.0
  0
VERTEX
  5
D53
  8
SAPA_PROFIL
 10
249.30564528064349
 20
509.09999999999991
 30
0.0
  0
VERTEX
  5
D54
  8
SAPA_PROFIL
 10
250.30564528064349
 20
508.09999999999991
 30
0.0
  0
VERTEX
  5
D55
  8
SAPA_PROFIL
 10
250.30564528064349
 20
502.46602540378382
 30
0.0
  0
VERTEX
  5
D56
  8
SAPA_PROFIL
 10
249.80564528064349
 20
501.59999999999991
 30
0.0
  0
VERTEX
  5
D57
  8
SAPA_PROFIL
 10
250.30564528064349
 20
500.73397459621481
 30
0.0
  0
VERTEX
  5
D58
  8
SAPA_PROFIL
 10
250.30564528064349
 20
481.5999999999998
 30
0.0
 42
0.4142135623730951
  0
VERTEX
  5
D59
  8
SAPA_PROFIL
 10
251.30564528064349
 20
480.59999999999991
 30
0.0
  0
VERTEX
  5
D5A
  8
SAPA_PROFIL
 10
260.54073421657552
 20
480.59999999999991
 30
0.0
 42
0.3475404855922902
  0
VERTEX
  5
D5B
  8
SAPA_PROFIL
 10
260.83263676982182
 20
480.83076923076908
 30
0.0
 42
-0.347540485592353
  0
VERTEX
  5
D5C
  8
SAPA_PROFIL
 10
261.80564528064349
 20
481.5999999999998
 30
0.0
  0
VERTEX
  5
D5D
  8
SAPA_PROFIL
 10
262.37318974860551
 20
481.5999999999998
 30
0.0
 42
-0.2896898633048417
  0
VERTEX
  5
D5E
  8
SAPA_PROFIL
 10
263.27669765151393
 20
481.02857142856442
 30
0.0
 42
-0.5507604245820768
  0
VERTEX
  5
D5F
  8
SAPA_PROFIL
 10
263.0056452806474
 20
480.6000000000048
 30
0.0
  0
VERTEX
  5
D60
  8
SAPA_PROFIL
 10
262.3556452806414
 20
480.60000000000082
 30
0.0
 42
0.4142135623714856
  0
VERTEX
  5
D61
  8
SAPA_PROFIL
 10
262.05564528064349
 20
480.30000000000081
 30
0.0
  0
VERTEX
  5
D62
  8
SAPA_PROFIL
 10
262.05564528064349
 20
478.89999999999981
 30
0.0
 42
0.4142135623730951
  0
VERTEX
  5
D63
  8
SAPA_PROFIL
 10
262.35564528064339
 20
478.59999999999991
 30
0.0
  0
VERTEX
  5
D64
  8
SAPA_PROFIL
 10
270.75564528064342
 20
478.59999999999991
 30
0.0
 42
0.4142135623730951
  0
VERTEX
  5
D65
  8
SAPA_PROFIL
 10
271.05564528064338
 20
478.89999999999981
 30
0.0
  0
VERTEX
  5
D66
  8
SAPA_PROFIL
 10
271.05564528064349
 20
480.2999999999999
 30
0.0
 42
0.4142135623730951
  0
VERTEX
  5
D67
  8
SAPA_PROFIL
 10
270.75564528064342
 20
480.59999999999991
 30
0.0
  0
VERTEX
  5
D68
  8
SAPA_PROFIL
 10
270.10564528064339
 20
480.60000000000082
 30
0.0
  0
VERTEX
  5
D69
  8
SAPA_PROFIL
 10
270.10564528063941
 20
480.59999999999991
 30
0.0
 42
-0.5507604245871307
  0
VERTEX
  5
D6A
  8
SAPA_PROFIL
 10
269.8345929097722
 20
481.028571428573
 30
0.0
 42
-0.2896898633034174
  0
VERTEX
  5
D6B
  8
SAPA_PROFIL
 10
270.73810081268141
 20
481.5999999999998
 30
0.0
  0
VERTEX
  5
D6C
  8
SAPA_PROFIL
 10
272.00564528064342
 20
481.5999999999998
 30
0.0
 42
-0.4142135623730951
  0
VERTEX
  5
D6D
  8
SAPA_PROFIL
 10
272.30564528064349
 20
481.2999999999999
 30
0.0
  0
VERTEX
  5
D6E
  8
SAPA_PROFIL
 10
272.30564528064349
 20
477.09999999999991
 30
0.0
 42
-0.4142135623730951
  0
VERTEX
  5
D6F
  8
SAPA_PROFIL
 10
271.30564528064349
 20
476.09999999999991
 30
0.0
  0
VERTEX
  5
D70
  8
SAPA_PROFIL
 10
252.0482859677625
 20
476.09999999999991
 30
0.0
 42
0.1989123673796595
  0
VERTEX
  5
D71
  8
SAPA_PROFIL
 10
249.92696562420281
 20
475.22132034355951
 30
0.0
  0
VERTEX
  5
D72
  8
SAPA_PROFIL
 10
247.18432493708349
 20
472.47867965643991
 30
0.0
 42
-0.1989123673796601
  0
VERTEX
  5
D73
  8
SAPA_PROFIL
 10
245.06300459352349
 20
471.59999999999991
 30
0.0
  0
SEQEND
  5
D74
  8
SAPA_PROFIL
  0
POLYLINE
  5
85C
  8
SAPA_PROFIL
 66
     1
 10
0.0
 20
0.0
 30
0.0
 70
     1
  0
VERTEX
  5
D75
  8
SAPA_PROFIL
 10
115.50564528064341
 20
478.39999999999998
 30
0.0
  0
VERTEX
  5
D76
  8
SAPA_PROFIL
 10
84.105645280643316
 20
478.39999999999998
 30
0.0
  0
VERTEX
  5
D77
  8
SAPA_PROFIL
 10
84.105645280643444
 20
499.505
 30
0.0
 42
0.4142135623732293
  0
VERTEX
  5
D78
  8
SAPA_PROFIL
 10
83.610645280643325
 20
500.0
 30
0.0
  0
VERTEX
  5
D79
  8
SAPA_PROFIL
 10
83.600645280643448
 20
500.0
 30
0.0
 42
0.414213562373095
  0
VERTEX
  5
D7A
  8
SAPA_PROFIL
 10
83.105645280643316
 20
499.505
 30
0.0
  0
VERTEX
  5
D7B
  8
SAPA_PROFIL
 10
83.105645280643316
 20
499.34500000000008
 30
0.0
 42
-0.414213562373028
  0
VERTEX
  5
D7C
  8
SAPA_PROFIL
 10
82.610645280643425
 20
498.85000000000008
 30
0.0
  0
VERTEX
  5
D7D
  8
SAPA_PROFIL
 10
81.805645280643375
 20
498.85000000000008
 30
0.0
 42
-0.3747564601179658
  0
VERTEX
  5
D7E
  8
SAPA_PROFIL
 10
79.081250237408995
 20
501.22560495676379
 30
0.0
  0
VERTEX
  5
D7F
  8
SAPA_PROFIL
 10
79.455645280643694
 20
501.60000000000008
 30
0.0
  0
VERTEX
  5
D80
  8
SAPA_PROFIL
 10
79.081250237407289
 20
501.9743950432366
 30
0.0
 42
-0.3747564601179647
  0
VERTEX
  5
D81
  8
SAPA_PROFIL
 10
81.805645280643262
 20
504.35000000000008
 30
0.0
  0
VERTEX
  5
D82
  8
SAPA_PROFIL
 10
82.610645280643425
 20
504.35000000000008
 30
0.0
 42
-0.4142135623730281
  0
VERTEX
  5
D83
  8
SAPA_PROFIL
 10
83.105645280643316
 20
503.85500000000008
 30
0.0
  0
VERTEX
  5
D84
  8
SAPA_PROFIL
 10
83.105645280643316
 20
503.69500000000011
 30
0.0
 42
0.4142135623730951
  0
VERTEX
  5
D85
  8
SAPA_PROFIL
 10
83.600645280643448
 20
503.2000000000001
 30
0.0
  0
VERTEX
  5
D86
  8
SAPA_PROFIL
 10
83.610645280643325
 20
503.19999999999999
 30
0.0
 42
0.4142135623732296
  0
VERTEX
  5
D87
  8
SAPA_PROFIL
 10
84.105645280643316
 20
503.69500000000011
 30
0.0
  0
VERTEX
  5
D88
  8
SAPA_PROFIL
 10
84.105645280643316
 20
524.80000000000007
 30
0.0
  0
VERTEX
  5
D89
  8
SAPA_PROFIL
 10
115.50564528064341
 20
524.80000000000007
 30
0.0
  0
VERTEX
  5
D8A
  8
SAPA_PROFIL
 10
115.50564528064341
 20
503.69500000000011
 30
0.0
 42
0.4142135623731625
  0
VERTEX
  5
D8B
  8
SAPA_PROFIL
 10
116.0006452806433
 20
503.2000000000001
 30
0.0
  0
VERTEX
  5
D8C
  8
SAPA_PROFIL
 10
116.0106452806433
 20
503.2000000000001
 30
0.0
 42
0.4142135623731625
  0
VERTEX
  5
D8D
  8
SAPA_PROFIL
 10
116.50564528064319
 20
503.69500000000011
 30
0.0
  0
VERTEX
  5
D8E
  8
SAPA_PROFIL
 10
116.50564528064329
 20
503.85500000000008
 30
0.0
 42
-0.4142135623729606
  0
VERTEX
  5
D8F
  8
SAPA_PROFIL
 10
117.0006452806433
 20
504.35000000000002
 30
0.0
  0
VERTEX
  5
D90
  8
SAPA_PROFIL
 10
117.8056452806433
 20
504.35000000000008
 30
0.0
 42
-0.3747564601179647
  0
VERTEX
  5
D91
  8
SAPA_PROFIL
 10
120.53004032387931
 20
501.9743950432366
 30
0.0
  0
VERTEX
  5
D92
  8
SAPA_PROFIL
 10
120.155645280643
 20
501.60000000000008
 30
0.0
  0
VERTEX
  5
D93
  8
SAPA_PROFIL
 10
120.5300403238777
 20
501.22560495676379
 30
0.0
 42
-0.3747564601179658
  0
VERTEX
  5
D94
  8
SAPA_PROFIL
 10
117.8056452806433
 20
498.85000000000008
 30
0.0
  0
VERTEX
  5
D95
  8
SAPA_PROFIL
 10
117.0006452806433
 20
498.85000000000008
 30
0.0
 42
-0.4142135623730281
  0
VERTEX
  5
D96
  8
SAPA_PROFIL
 10
116.50564528064319
 20
499.34500000000008
 30
0.0
  0
VERTEX
  5
D97
  8
SAPA_PROFIL
 10
116.50564528064319
 20
499.505
 30
0.0
 42
0.4142135623731625
  0
VERTEX
  5
D98
  8
SAPA_PROFIL
 10
116.0106452806433
 20
500.0
 30
0.0
  0
VERTEX
  5
D99
  8
SAPA_PROFIL
 10
116.0006452806433
 20
500.0
 30
0.0
 42
0.4142135623731625
  0
VERTEX
  5
D9A
  8
SAPA_PROFIL
 10
115.50564528064341
 20
499.505
 30
0.0
  0
SEQEND
  5
D9B
  8
SAPA_PROFIL
  0
POLYLINE
  5
85D
  8
SAPA_PROFIL
 66
     1
 10
0.0
 20
0.0
 30
0.0
 70
     1
  0
VERTEX
  5
D9C
  8
SAPA_PROFIL
 10
120.3056452806434
 20
478.39999999999998
 30
0.0
  0
VERTEX
  5
D9D
  8
SAPA_PROFIL
 10
120.3056452806434
 20
480.60000000000008
 30
0.0
  0
VERTEX
  5
D9E
  8
SAPA_PROFIL
 10
121.3056452806434
 20
480.60000000000008
 30
0.0
  0
VERTEX
  5
D9F
  8
SAPA_PROFIL
 10
122.3056452806434
 20
479.60000000000008
 30
0.0
  0
VERTEX
  5
DA0
  8
SAPA_PROFIL
 10
122.3056452806434
 20
476.60000000000008
 30
0.0
  0
VERTEX
  5
DA1
  8
SAPA_PROFIL
 10
77.305645280643375
 20
476.60000000000008
 30
0.0
  0
VERTEX
  5
DA2
  8
SAPA_PROFIL
 10
77.305645280643375
 20
479.60000000000008
 30
0.0
  0
VERTEX
  5
DA3
  8
SAPA_PROFIL
 10
78.305645280643375
 20
480.60000000000008
 30
0.0
  0
VERTEX
  5
DA4
  8
SAPA_PROFIL
 10
79.305645280643375
 20
480.60000000000008
 30
0.0
  0
VERTEX
  5
DA5
  8
SAPA_PROFIL
 10
79.305645280643375
 20
478.39999999999998
 30
0.0
  0
VERTEX
  5
DA6
  8
SAPA_PROFIL
 10
82.305645280643375
 20
478.39999999999998
 30
0.0
  0
VERTEX
  5
DA7
  8
SAPA_PROFIL
 10
82.305645280643375
 20
497.10000000000008
 30
0.0
  0
VERTEX
  5
DA8
  8
SAPA_PROFIL
 10
79.305645280643375
 20
497.10000000000008
 30
0.0
  0
VERTEX
  5
DA9
  8
SAPA_PROFIL
 10
79.305645280643375
 20
494.60000000000008
 30
0.0
  0
VERTEX
  5
DAA
  8
SAPA_PROFIL
 10
78.305645280643375
 20
494.60000000000008
 30
0.0
  0
VERTEX
  5
DAB
  8
SAPA_PROFIL
 10
77.505645280643293
 20
495.39999999999998
 30
0.0
  0
VERTEX
  5
DAC
  8
SAPA_PROFIL
 10
77.505645280643293
 20
501.08038475772941
 30
0.0
  0
VERTEX
  5
DAD
  8
SAPA_PROFIL
 10
77.805645280643375
 20
501.60000000000008
 30
0.0
  0
VERTEX
  5
DAE
  8
SAPA_PROFIL
 10
77.505645280643293
 20
502.11961524227081
 30
0.0
  0
VERTEX
  5
DAF
  8
SAPA_PROFIL
 10
77.505645280643293
 20
507.80000000000018
 30
0.0
  0
VERTEX
  5
DB0
  8
SAPA_PROFIL
 10
78.305645280643375
 20
508.60000000000008
 30
0.0
  0
VERTEX
  5
DB1
  8
SAPA_PROFIL
 10
79.305645280643375
 20
508.60000000000008
 30
0.0
  0
VERTEX
  5
DB2
  8
SAPA_PROFIL
 10
79.305645280643375
 20
506.10000000000008
 30
0.0
  0
VERTEX
  5
DB3
  8
SAPA_PROFIL
 10
82.305645280643375
 20
506.10000000000008
 30
0.0
  0
VERTEX
  5
DB4
  8
SAPA_PROFIL
 10
82.305645280643375
 20
524.80000000000007
 30
0.0
  0
VERTEX
  5
DB5
  8
SAPA_PROFIL
 10
79.305645280643375
 20
524.80000000000007
 30
0.0
  0
VERTEX
  5
DB6
  8
SAPA_PROFIL
 10
79.305645280643375
 20
522.60000000000014
 30
0.0
  0
VERTEX
  5
DB7
  8
SAPA_PROFIL
 10
78.305645280643375
 20
522.60000000000014
 30
0.0
  0
VERTEX
  5
DB8
  8
SAPA_PROFIL
 10
77.305645280643375
 20
523.60000000000014
 30
0.0
  0
VERTEX
  5
DB9
  8
SAPA_PROFIL
 10
77.305645280643375
 20
526.60000000000014
 30
0.0
  0
VERTEX
  5
DBA
  8
SAPA_PROFIL
 10
122.3056452806434
 20
526.60000000000014
 30
0.0
  0
VERTEX
  5
DBB
  8
SAPA_PROFIL
 10
122.3056452806434
 20
523.60000000000014
 30
0.0
  0
VERTEX
  5
DBC
  8
SAPA_PROFIL
 10
121.3056452806434
 20
522.60000000000014
 30
0.0
  0
VERTEX
  5
DBD
  8
SAPA_PROFIL
 10
120.3056452806434
 20
522.60000000000014
 30
0.0
  0
VERTEX
  5
DBE
  8
SAPA_PROFIL
 10
120.3056452806434
 20
524.80000000000007
 30
0.0
  0
VERTEX
  5
DBF
  8
SAPA_PROFIL
 10
117.3056452806434
 20
524.80000000000007
 30
0.0
  0
VERTEX
  5
DC0
  8
SAPA_PROFIL
 10
117.3056452806434
 20
506.10000000000008
 30
0.0
  0
VERTEX
  5
DC1
  8
SAPA_PROFIL
 10
120.3056452806434
 20
506.10000000000008
 30
0.0
  0
VERTEX
  5
DC2
  8
SAPA_PROFIL
 10
120.3056452806434
 20
508.60000000000008
 30
0.0
  0
VERTEX
  5
DC3
  8
SAPA_PROFIL
 10
121.3056452806434
 20
508.60000000000008
 30
0.0
  0
VERTEX
  5
DC4
  8
SAPA_PROFIL
 10
122.1056452806433
 20
507.80000000000018
 30
0.0
  0
VERTEX
  5
DC5
  8
SAPA_PROFIL
 10
122.1056452806433
 20
502.11961524227081
 30
0.0
  0
VERTEX
  5
DC6
  8
SAPA_PROFIL
 10
121.8056452806433
 20
501.60000000000008
 30
0.0
  0
VERTEX
  5
DC7
  8
SAPA_PROFIL
 10
122.1056452806433
 20
501.08038475772941
 30
0.0
  0
VERTEX
  5
DC8
  8
SAPA_PROFIL
 10
122.1056452806433
 20
495.39999999999998
 30
0.0
  0
VERTEX
  5
DC9
  8
SAPA_PROFIL
 10
121.3056452806434
 20
494.60000000000008
 30
0.0
  0
VERTEX
  5
DCA
  8
SAPA_PROFIL
 10
120.3056452806434
 20
494.60000000000008
 30
0.0
  0
VERTEX
  5
DCB
  8
SAPA_PROFIL
 10
120.3056452806434
 20
497.10000000000008
 30
0.0
  0
VERTEX
  5
DCC
  8
SAPA_PROFIL
 10
117.3056452806434
 20
497.10000000000008
 30
0.0
  0
VERTEX
  5
DCD
  8
SAPA_PROFIL
 10
117.3056452806434
 20
478.39999999999998
 30
0.0
  0
SEQEND
  5
DCE
  8
SAPA_PROFIL
  0
LINE
  5
865
  8
SAPA_GLAS
 10
255.3056452806434
 20
491.50000000000023
 30
0.0
 11
255.3056452806434
 21
485.50000000000023
 31
0.0
  0
LINE
  5
866
  8
SAPA_GLAS
 10
284.1056452806435
 20
485.50000000000023
 30
0.0
 11
255.3056452806434
 21
485.50000000000023
 31
0.0
  0
LINE
  5
867
  8
SAPA_GLAS
 10
284.1056452806435
 20
491.5000000000004
 30
0.0
 11
255.3056452806434
 21
491.50000000000023
 31
0.0
  0
POLYLINE
  5
874
  8
SAPA_FOGBAND
 66
     1
 10
0.0
 20
0.0
 30
0.0
 70
     1
  0
VERTEX
  5
E88
  8
SAPA_FOGBAND
 10
261.79904312099279
 20
498.0892512622051
 30
0.0
  0
VERTEX
  5
E89
  8
SAPA_FOGBAND
 10
262.99904312099289
 20
498.0892512622051
 30
0.0
 42
0.4142135623730951
  0
VERTEX
  5
E8A
  8
SAPA_FOGBAND
 10
263.29904312099291
 20
498.38925126220511
 30
0.0
  0
VERTEX
  5
E8B
  8
SAPA_FOGBAND
 10
263.29904312099291
 20
499.28925126220508
 30
0.0
  0
VERTEX
  5
E8C
  8
SAPA_FOGBAND
 10
262.949043120993
 20
499.28925126220508
 30
0.0
 42
-0.6681786379192988
  0
VERTEX
  5
E8D
  8
SAPA_FOGBAND
 10
262.73691108663689
 20
499.8013832965612
 30
0.0
  0
VERTEX
  5
E8E
  8
SAPA_FOGBAND
 10
263.59046447723023
 20
500.6549366871543
 30
0.0
 42
-0.1989123673796552
  0
VERTEX
  5
E8F
  8
SAPA_FOGBAND
 10
264.15614990217938
 20
500.88925126220499
 30
0.0
  0
VERTEX
  5
E90
  8
SAPA_FOGBAND
 10
264.31884502459923
 20
500.88925126220499
 30
0.0
 42
-0.3394542588633746
  0
VERTEX
  5
E91
  8
SAPA_FOGBAND
 10
264.60862277248589
 20
500.66689697573588
 30
0.0
  0
VERTEX
  5
E92
  8
SAPA_FOGBAND
 10
264.97177201587579
 20
499.31160554867432
 30
0.0
 42
0.3394542588633746
  0
VERTEX
  5
E93
  8
SAPA_FOGBAND
 10
265.26154976376262
 20
499.08925126220521
 30
0.0
  0
VERTEX
  5
E94
  8
SAPA_FOGBAND
 10
267.83653647822308
 20
499.08925126220521
 30
0.0
 42
0.3394542588633746
  0
VERTEX
  5
E95
  8
SAPA_FOGBAND
 10
268.1263142261098
 20
499.31160554867432
 30
0.0
  0
VERTEX
  5
E96
  8
SAPA_FOGBAND
 10
268.48946346949998
 20
500.66689697573588
 30
0.0
 42
-0.3394542588633744
  0
VERTEX
  5
E97
  8
SAPA_FOGBAND
 10
268.77924121738653
 20
500.88925126220499
 30
0.0
  0
VERTEX
  5
E98
  8
SAPA_FOGBAND
 10
268.94193633980649
 20
500.88925126220499
 30
0.0
 42
-0.1989123673796526
  0
VERTEX
  5
E99
  8
SAPA_FOGBAND
 10
269.5076217647557
 20
500.6549366871543
 30
0.0
  0
VERTEX
  5
E9A
  8
SAPA_FOGBAND
 10
270.36117515534897
 20
499.8013832965612
 30
0.0
 42
-0.6681786379193474
  0
VERTEX
  5
E9B
  8
SAPA_FOGBAND
 10
270.14904312099299
 20
499.28925126220508
 30
0.0
  0
VERTEX
  5
E9C
  8
SAPA_FOGBAND
 10
269.79904312099279
 20
499.28925126220508
 30
0.0
  0
VERTEX
  5
E9D
  8
SAPA_FOGBAND
 10
269.79904312099279
 20
498.38925126220511
 30
0.0
 42
0.4142135623730951
  0
VERTEX
  5
E9E
  8
SAPA_FOGBAND
 10
270.09904312099297
 20
498.0892512622051
 30
0.0
  0
VERTEX
  5
E9F
  8
SAPA_FOGBAND
 10
272.19904312099288
 20
498.0892512622051
 30
0.0
 42
0.4142135623730951
  0
VERTEX
  5
EA0
  8
SAPA_FOGBAND
 10
272.49904312099289
 20
498.38925126220511
 30
0.0
  0
VERTEX
  5
EA1
  8
SAPA_FOGBAND
 10
272.49904312099289
 20
499.78925126220508
 30
0.0
 42
-0.7754026414786132
  0
VERTEX
  5
EA2
  8
SAPA_FOGBAND
 10
273.06183511640057
 20
499.93395913051103
 30
0.0
 42
0.1086822875051356
  0
VERTEX
  5
EA3
  8
SAPA_FOGBAND
 10
277.21188327499141
 20
492.00587674037428
 30
0.0
 42
-0.8680589103334746
  0
VERTEX
  5
EA4
  8
SAPA_FOGBAND
 10
276.73695924522758
 20
491.64903683771229
 30
0.0
  0
VERTEX
  5
EA5
  8
SAPA_FOGBAND
 10
272.76692384807609
 20
494.47683715885643
 30
0.0
 42
0.1989123673796536
  0
VERTEX
  5
EA6
  8
SAPA_FOGBAND
 10
272.05981706688931
 20
494.76973037766959
 30
0.0
  0
VERTEX
  5
EA7
  8
SAPA_FOGBAND
 10
269.22649810246958
 20
494.76973037766959
 30
0.0
 42
0.577350269189628
  0
VERTEX
  5
EA8
  8
SAPA_FOGBAND
 10
268.96669048133441
 20
494.31973037766983
 30
0.0
  0
VERTEX
  5
EA9
  8
SAPA_FOGBAND
 10
271.10481917774609
 20
492.01497627431559
 30
0.0
 42
-0.8769764629927301
  0
VERTEX
  5
EAA
  8
SAPA_FOGBAND
 10
270.63287952225488
 20
491.65284423995939
 30
0.0
  0
VERTEX
  5
EAB
  8
SAPA_FOGBAND
 10
266.6666515273501
 20
494.47683715885643
 30
0.0
 42
0.198912367379658
  0
VERTEX
  5
EAC
  8
SAPA_FOGBAND
 10
265.95954474616337
 20
494.76973037766959
 30
0.0
  0
VERTEX
  5
EAD
  8
SAPA_FOGBAND
 10
263.72727038394203
 20
494.76973037766959
 30
0.0
 42
0.5773502691896441
  0
VERTEX
  5
EAE
  8
SAPA_FOGBAND
 10
263.46746276280652
 20
494.31973037766983
 30
0.0
  0
VERTEX
  5
EAF
  8
SAPA_FOGBAND
 10
265.60508988433571
 20
492.01584502749603
 30
0.0
 42
-0.87697646299276
  0
VERTEX
  5
EB0
  8
SAPA_FOGBAND
 10
265.1331502288445
 20
491.65371299313978
 30
0.0
  0
VERTEX
  5
EB1
  8
SAPA_FOGBAND
 10
261.09193633980641
 20
494.55269180617
 30
0.0
 42
-0.198912367379658
  0
VERTEX
  5
EB2
  8
SAPA_FOGBAND
 10
260.79904312099291
 20
495.25979858735639
 30
0.0
  0
VERTEX
  5
EB3
  8
SAPA_FOGBAND
 10
260.79904312099291
 20
497.0892512622051
 30
0.0
  0
VERTEX
  5
EB4
  8
SAPA_FOGBAND
 10
260.79904312099291
 20
497.07931947189189
 30
0.0
  0
SEQEND
  5
EB5
  8
SAPA_FOGBAND
  0
POLYLINE
  5
875
  8
SAPA_FOGBAND
 66
     1
 10
0.0
 20
0.0
 30
0.0
 70
     1
  0
VERTEX
  5
EB6
  8
SAPA_FOGBAND
 10
260.79904986833282
 20
482.59757432886158
 30
0.0
 42
0.4142135623730951
  0
VERTEX
  5
EB7
  8
SAPA_FOGBAND
 10
261.79904986833282
 20
481.59757432886158
 30
0.0
  0
VERTEX
  5
EB8
  8
SAPA_FOGBAND
 10
262.99904986833292
 20
481.59757432886158
 30
0.0
 42
-0.4142135623730951
  0
VERTEX
  5
EB9
  8
SAPA_FOGBAND
 10
263.29904986833282
 20
481.29757432886157
 30
0.0
  0
VERTEX
  5
EBA
  8
SAPA_FOGBAND
 10
263.29904986833282
 20
480.39757432886171
 30
0.0
  0
VERTEX
  5
EBB
  8
SAPA_FOGBAND
 10
262.94904986833268
 20
480.39757432886171
 30
0.0
 42
0.6681786379193472
  0
VERTEX
  5
EBC
  8
SAPA_FOGBAND
 10
262.73691783397692
 20
479.88544229450582
 30
0.0
  0
VERTEX
  5
EBD
  8
SAPA_FOGBAND
 10
263.59047122457008
 20
479.03188890391237
 30
0.0
 42
0.1989123673796526
  0
VERTEX
  5
EBE
  8
SAPA_FOGBAND
 10
264.1561566495194
 20
478.79757432886157
 30
0.0
  0
VERTEX
  5
EBF
  8
SAPA_FOGBAND
 10
264.31885177193908
 20
478.79757432886157
 30
0.0
 42
0.3394542588633746
  0
VERTEX
  5
EC0
  8
SAPA_FOGBAND
 10
264.60862951982591
 20
479.0199286153308
 30
0.0
  0
VERTEX
  5
EC1
  8
SAPA_FOGBAND
 10
264.97177876321581
 20
480.37522004239253
 30
0.0
 42
-0.3394542588633744
  0
VERTEX
  5
EC2
  8
SAPA_FOGBAND
 10
265.26155651110258
 20
480.59757432886153
 30
0.0
  0
VERTEX
  5
EC3
  8
SAPA_FOGBAND
 10
267.8365432255631
 20
480.59757432886153
 30
0.0
 42
-0.3394542588633746
  0
VERTEX
  5
EC4
  8
SAPA_FOGBAND
 10
268.12632097344982
 20
480.37522004239253
 30
0.0
  0
VERTEX
  5
EC5
  8
SAPA_FOGBAND
 10
268.48947021683972
 20
479.0199286153308
 30
0.0
 42
0.3394542588633747
  0
VERTEX
  5
EC6
  8
SAPA_FOGBAND
 10
268.77924796472649
 20
478.79757432886157
 30
0.0
  0
VERTEX
  5
EC7
  8
SAPA_FOGBAND
 10
268.94194308714629
 20
478.79757432886157
 30
0.0
 42
0.1989123673796526
  0
VERTEX
  5
EC8
  8
SAPA_FOGBAND
 10
269.50762851209572
 20
479.03188890391237
 30
0.0
  0
VERTEX
  5
EC9
  8
SAPA_FOGBAND
 10
270.36118190268883
 20
479.88544229450582
 30
0.0
 42
0.6681786379193474
  0
VERTEX
  5
ECA
  8
SAPA_FOGBAND
 10
270.1490498683329
 20
480.39757432886171
 30
0.0
  0
VERTEX
  5
ECB
  8
SAPA_FOGBAND
 10
269.79904986833282
 20
480.39757432886171
 30
0.0
  0
VERTEX
  5
ECC
  8
SAPA_FOGBAND
 10
269.79904986833282
 20
481.29757432886157
 30
0.0
 42
-0.4142135623730951
  0
VERTEX
  5
ECD
  8
SAPA_FOGBAND
 10
270.09904986833283
 20
481.59757432886158
 30
0.0
  0
VERTEX
  5
ECE
  8
SAPA_FOGBAND
 10
272.19904986833291
 20
481.59757432886158
 30
0.0
 42
-0.4142135623730951
  0
VERTEX
  5
ECF
  8
SAPA_FOGBAND
 10
272.49904986833292
 20
481.29757432886157
 30
0.0
  0
VERTEX
  5
ED0
  8
SAPA_FOGBAND
 10
272.49904986833292
 20
479.89757432886171
 30
0.0
 42
0.7754026414785753
  0
VERTEX
  5
ED1
  8
SAPA_FOGBAND
 10
273.06184186374048
 20
479.75286646055582
 30
0.0
  0
VERTEX
  5
ED2
  8
SAPA_FOGBAND
 10
276.5815443742859
 20
485.02353025899652
 30
0.0
 42
0.8680589103334742
  0
VERTEX
  5
ED3
  8
SAPA_FOGBAND
 10
276.10662034452241
 20
485.38037016165822
 30
0.0
  0
VERTEX
  5
ED4
  8
SAPA_FOGBAND
 10
272.766930595416
 20
483.39046754767509
 30
0.0
 42
-0.198912367379658
  0
VERTEX
  5
ED5
  8
SAPA_FOGBAND
 10
272.05982381422928
 20
483.09757432886158
 30
0.0
  0
VERTEX
  5
ED6
  8
SAPA_FOGBAND
 10
269.2265048498096
 20
483.09757432886158
 30
0.0
 42
-0.5773502691896282
  0
VERTEX
  5
ED7
  8
SAPA_FOGBAND
 10
268.96669722867438
 20
483.54757432886157
 30
0.0
  0
VERTEX
  5
ED8
  8
SAPA_FOGBAND
 10
270.47448027704058
 20
485.01443072505549
 30
0.0
 42
0.8769764629927299
  0
VERTEX
  5
ED9
  8
SAPA_FOGBAND
 10
270.00254062154937
 20
485.37656275941129
 30
0.0
  0
VERTEX
  5
EDA
  8
SAPA_FOGBAND
 10
266.66665827469012
 20
483.39046754767509
 30
0.0
 42
-0.198912367379658
  0
VERTEX
  5
EDB
  8
SAPA_FOGBAND
 10
265.9595514935034
 20
483.09757432886158
 30
0.0
  0
VERTEX
  5
EDC
  8
SAPA_FOGBAND
 10
263.72727713128182
 20
483.09757432886158
 30
0.0
 42
-0.5773502691896282
  0
VERTEX
  5
EDD
  8
SAPA_FOGBAND
 10
263.46746951014649
 20
483.54757432886157
 30
0.0
  0
VERTEX
  5
EDE
  8
SAPA_FOGBAND
 10
264.97475098363032
 20
485.01356197187499
 30
0.0
 42
0.8769764629927299
  0
VERTEX
  5
EDF
  8
SAPA_FOGBAND
 10
264.50281132813899
 20
485.37569400623102
 30
0.0
  0
VERTEX
  5
EE0
  8
SAPA_FOGBAND
 10
261.09194308714638
 20
483.31461290036151
 30
0.0
 42
0.198912367379658
  0
VERTEX
  5
EE1
  8
SAPA_FOGBAND
 10
260.79904986833282
 20
482.60750611917479
 30
0.0
  0
SEQEND
  5
EE2
  8
SAPA_FOGBAND
  0
POLYLINE
  5
876
  8
SAPA_FOGBAND
 66
     1
 10
0.0
 20
0.0
 30
0.0
 70
     1
  0
VERTEX
  5
EE3
  8
SAPA_FOGBAND
 10
131.92815985005041
 20
524.27239682597201
 30
0.0
  0
VERTEX
  5
EE4
  8
SAPA_FOGBAND
 10
130.8571805153062
 20
524.04893803638879
 30
0.0
 42
0.643628460277262
  0
VERTEX
  5
EE5
  8
SAPA_FOGBAND
 10
129.19660764816689
 20
523.30304786317515
 30
0.0
 42
0.2618037032190792
  0
VERTEX
  5
EE6
  8
SAPA_FOGBAND
 10
127.3688135144168
 20
517.52346832432136
 30
0.0
  0
VERTEX
  5
EE7
  8
SAPA_FOGBAND
 10
128.52539729218711
 20
511.98352922071439
 30
0.0
 42
0.2094308207509748
  0
VERTEX
  5
EE8
  8
SAPA_FOGBAND
 10
131.9254227777576
 20
507.20796343581941
 30
0.0
  0
VERTEX
  5
EE9
  8
SAPA_FOGBAND
 10
132.9773979390713
 20
506.57853201354942
 30
0.0
 42
0.5057194851126921
  0
VERTEX
  5
EEA
  8
SAPA_FOGBAND
 10
134.46285569040381
 20
507.20173344254448
 30
0.0
  0
VERTEX
  5
EEB
  8
SAPA_FOGBAND
 10
138.97863081623399
 20
508.14394550108949
 30
0.0
 42
0.4142135623730992
  0
VERTEX
  5
EEC
  8
SAPA_FOGBAND
 10
139.9082327150293
 20
509.56374841338283
 30
0.0
  0
VERTEX
  5
EED
  8
SAPA_FOGBAND
 10
137.17772878532671
 20
522.65033716472453
 30
0.0
 42
0.315298788878978
  0
VERTEX
  5
EEE
  8
SAPA_FOGBAND
 10
136.09087498918441
 20
523.67147414934959
 30
0.0
  0
SEQEND
  5
EEF
  8
SAPA_FOGBAND
  0
POLYLINE
  5
877
  8
SAPA_FOGBAND
 66
     1
 10
0.0
 20
0.0
 30
0.0
 70
     1
  0
VERTEX
  5
EF0
  8
SAPA_FOGBAND
 10
125.5872253275131
 20
517.15152272038858
 30
0.0
 42
-0.38987823311671
  0
VERTEX
  5
EF1
  8
SAPA_FOGBAND
 10
131.13732739947429
 20
526.45928879031464
 30
0.0
  0
VERTEX
  5
EF2
  8
SAPA_FOGBAND
 10
138.87519162024111
 20
526.02472729068324
 30
0.0
 42
-0.3394542588633812
  0
VERTEX
  5
EF3
  8
SAPA_FOGBAND
 10
139.98260758040831
 20
525.07171572660241
 30
0.0
  0
VERTEX
  5
EF4
  8
SAPA_FOGBAND
 10
140.84406741374929
 20
520.94296482384777
 30
0.0
 42
0.4142135623730948
  0
VERTEX
  5
EF5
  8
SAPA_FOGBAND
 10
141.84976114329061
 20
520.2844968122015
 30
0.0
  0
VERTEX
  5
EF6
  8
SAPA_FOGBAND
 10
141.89870707685461
 20
520.29470933331595
 30
0.0
 42
0.4142135623730951
  0
VERTEX
  5
EF7
  8
SAPA_FOGBAND
 10
142.595908500951
 20
521.35956151753589
 30
0.0
  0
VERTEX
  5
EF8
  8
SAPA_FOGBAND
 10
142.12613252968211
 20
523.61107446149538
 30
0.0
 42
-0.4142135623730951
  0
VERTEX
  5
EF9
  8
SAPA_FOGBAND
 10
142.51346665418009
 20
524.20265900828429
 30
0.0
  0
VERTEX
  5
EFA
  8
SAPA_FOGBAND
 10
144.42266262969881
 20
524.09543781099524
 30
0.0
 42
-0.3394542588633734
  0
VERTEX
  5
EFB
  8
SAPA_FOGBAND
 10
146.7297792133806
 20
522.1099970524931
 30
0.0
  0
VERTEX
  5
EFC
  8
SAPA_FOGBAND
 10
148.93170927253021
 20
511.55672414566601
 30
0.0
 42
-0.339454258863376
  0
VERTEX
  5
EFD
  8
SAPA_FOGBAND
 10
147.61104647845491
 20
508.81435077200541
 30
0.0
  0
VERTEX
  5
EFE
  8
SAPA_FOGBAND
 10
145.9040236642079
 20
507.95260906492263
 30
0.0
 42
-0.4142135623730852
  0
VERTEX
  5
EFF
  8
SAPA_FOGBAND
 10
145.31243911741899
 20
508.33994318942058
 30
0.0
  0
VERTEX
  5
F00
  8
SAPA_FOGBAND
 10
144.83245062503579
 20
510.6404020669446
 30
0.0
 42
0.4142135623730989
  0
VERTEX
  5
F01
  8
SAPA_FOGBAND
 10
143.8267568954945
 20
511.29887007859162
 30
0.0
  0
VERTEX
  5
F02
  8
SAPA_FOGBAND
 10
143.77781096192999
 20
511.28865755747682
 30
0.0
 42
0.4142135623730806
  0
VERTEX
  5
F03
  8
SAPA_FOGBAND
 10
143.0806095378336
 20
510.22380537325688
 30
0.0
  0
VERTEX
  5
F04
  8
SAPA_FOGBAND
 10
143.99973643814269
 20
505.8186713524662
 30
0.0
 42
-0.4142135623730951
  0
VERTEX
  5
F05
  8
SAPA_FOGBAND
 10
143.22506818914661
 20
504.63550225888838
 30
0.0
  0
VERTEX
  5
F06
  8
SAPA_FOGBAND
 10
131.65511381459621
 20
505.28527544955568
 30
0.0
 42
-0.2311522497803646
  0
VERTEX
  5
F07
  8
SAPA_FOGBAND
 10
126.7438091052834
 20
511.61158361678162
 30
0.0
  0
SEQEND
  5
F08
  8
SAPA_FOGBAND
  0
POLYLINE
  5
878
  8
SAPA_FOGBAND
 66
     1
 10
0.0
 20
0.0
 30
0.0
 70
     1
  0
VERTEX
  5
F09
  8
SAPA_FOGBAND
 10
145.36477721013549
 20
513.76685704544661
 30
0.0
 42
0.4142135623730951
  0
VERTEX
  5
F0A
  8
SAPA_FOGBAND
 10
145.98451180933239
 20
514.71339232030857
 30
0.0
  0
VERTEX
  5
F0B
  8
SAPA_FOGBAND
 10
145.29006037354361
 20
518.04171580268394
 30
0.0
 42
0.4142135623730951
  0
VERTEX
  5
F0C
  8
SAPA_FOGBAND
 10
144.34352509868151
 20
518.66145040188076
 30
0.0
  0
VERTEX
  5
F0D
  8
SAPA_FOGBAND
 10
141.40676908482081
 20
518.04869913500829
 30
0.0
 42
0.4142135623730951
  0
VERTEX
  5
F0E
  8
SAPA_FOGBAND
 10
140.78703448562391
 20
517.10216386014622
 30
0.0
  0
VERTEX
  5
F0F
  8
SAPA_FOGBAND
 10
141.48148592141271
 20
513.77384037777085
 30
0.0
 42
0.4142135623730951
  0
VERTEX
  5
F10
  8
SAPA_FOGBAND
 10
142.42802119627521
 20
513.15410577857415
 30
0.0
  0
SEQEND
  5
F11
  8
SAPA_FOGBAND
  0
POLYLINE
  5
879
  8
SAPA_FOGBAND
 66
     1
 10
0.0
 20
0.0
 30
0.0
 70
     1
  0
VERTEX
  5
F12
  8
SAPA_FOGBAND
 10
149.0240652337736
 20
486.0484772796114
 30
0.0
 42
-0.38987823311671
  0
VERTEX
  5
F13
  8
SAPA_FOGBAND
 10
143.47396316181241
 20
476.74071120968529
 30
0.0
  0
VERTEX
  5
F14
  8
SAPA_FOGBAND
 10
135.7360989410451
 20
477.1752727093168
 30
0.0
 42
-0.3394542588633812
  0
VERTEX
  5
F15
  8
SAPA_FOGBAND
 10
134.62868298087801
 20
478.12828427339781
 30
0.0
  0
VERTEX
  5
F16
  8
SAPA_FOGBAND
 10
133.76722314753729
 20
482.2570351761521
 30
0.0
 42
0.4142135623730948
  0
VERTEX
  5
F17
  8
SAPA_FOGBAND
 10
132.76152941799609
 20
482.91550318779872
 30
0.0
  0
VERTEX
  5
F18
  8
SAPA_FOGBAND
 10
132.71258348443209
 20
482.9052906666841
 30
0.0
 42
0.4142135623730951
  0
VERTEX
  5
F19
  8
SAPA_FOGBAND
 10
132.0153820603357
 20
481.84043848246409
 30
0.0
  0
VERTEX
  5
F1A
  8
SAPA_FOGBAND
 10
132.48515803160461
 20
479.5889255385045
 30
0.0
 42
-0.4142135623730951
  0
VERTEX
  5
F1B
  8
SAPA_FOGBAND
 10
132.0978239071066
 20
478.99734099171559
 30
0.0
  0
VERTEX
  5
F1C
  8
SAPA_FOGBAND
 10
130.1886279315874
 20
479.10456218900498
 30
0.0
 42
-0.3394542588633734
  0
VERTEX
  5
F1D
  8
SAPA_FOGBAND
 10
127.8815113479061
 20
481.09000294750689
 30
0.0
  0
VERTEX
  5
F1E
  8
SAPA_FOGBAND
 10
125.679581288756
 20
491.64327585433392
 30
0.0
 42
-0.339454258863376
  0
VERTEX
  5
F1F
  8
SAPA_FOGBAND
 10
127.0002440828314
 20
494.38564922799458
 30
0.0
  0
VERTEX
  5
F20
  8
SAPA_FOGBAND
 10
128.7072668970788
 20
495.24739093507759
 30
0.0
 42
-0.4142135623730852
  0
VERTEX
  5
F21
  8
SAPA_FOGBAND
 10
129.2988514438677
 20
494.86005681057941
 30
0.0
  0
VERTEX
  5
F22
  8
SAPA_FOGBAND
 10
129.7788399362509
 20
492.55959793305527
 30
0.0
 42
0.4142135623730989
  0
VERTEX
  5
F23
  8
SAPA_FOGBAND
 10
130.7845336657922
 20
491.90112992140871
 30
0.0
  0
VERTEX
  5
F24
  8
SAPA_FOGBAND
 10
130.8334795993562
 20
491.91134244252328
 30
0.0
 42
0.4142135623730806
  0
VERTEX
  5
F25
  8
SAPA_FOGBAND
 10
131.53068102345259
 20
492.97619462674311
 30
0.0
  0
VERTEX
  5
F26
  8
SAPA_FOGBAND
 10
130.611554123144
 20
497.38132864753402
 30
0.0
 42
-0.4142135623730951
  0
VERTEX
  5
F27
  8
SAPA_FOGBAND
 10
131.38622237214011
 20
498.56449774111178
 30
0.0
  0
VERTEX
  5
F28
  8
SAPA_FOGBAND
 10
142.95617674669049
 20
497.9147245504443
 30
0.0
 42
-0.2311522497803646
  0
VERTEX
  5
F29
  8
SAPA_FOGBAND
 10
147.86748145600291
 20
491.58841638321832
 30
0.0
  0
SEQEND
  5
F2A
  8
SAPA_FOGBAND
  0
POLYLINE
  5
87A
  8
SAPA_FOGBAND
 66
     1
 10
0.0
 20
0.0
 30
0.0
 70
     1
  0
VERTEX
  5
F2B
  8
SAPA_FOGBAND
 10
129.2465133511507
 20
489.43314295455338
 30
0.0
 42
0.4142135623730951
  0
VERTEX
  5
F2C
  8
SAPA_FOGBAND
 10
128.62677875195391
 20
488.4866076796913
 30
0.0
  0
VERTEX
  5
F2D
  8
SAPA_FOGBAND
 10
129.32123018774311
 20
485.15828419731611
 30
0.0
 42
0.4142135623730951
  0
VERTEX
  5
F2E
  8
SAPA_FOGBAND
 10
130.26776546260521
 20
484.53854959811929
 30
0.0
  0
VERTEX
  5
F2F
  8
SAPA_FOGBAND
 10
133.20452147646591
 20
485.1513008649917
 30
0.0
 42
0.4142135623730951
  0
VERTEX
  5
F30
  8
SAPA_FOGBAND
 10
133.82425607566279
 20
486.097836139854
 30
0.0
  0
VERTEX
  5
F31
  8
SAPA_FOGBAND
 10
133.1298046398735
 20
489.42615962222931
 30
0.0
 42
0.4142135623730951
  0
VERTEX
  5
F32
  8
SAPA_FOGBAND
 10
132.18326936501151
 20
490.04589422142612
 30
0.0
  0
SEQEND
  5
F33
  8
SAPA_FOGBAND
  0
POLYLINE
  5
87B
  8
SAPA_FOGBAND
 66
     1
 10
0.0
 20
0.0
 30
0.0
 70
     1
  0
VERTEX
  5
F34
  8
SAPA_FOGBAND
 10
142.68313071123629
 20
478.92760317402798
 30
0.0
  0
VERTEX
  5
F35
  8
SAPA_FOGBAND
 10
143.7541100459805
 20
479.1510619636112
 30
0.0
 42
0.643628460277262
  0
VERTEX
  5
F36
  8
SAPA_FOGBAND
 10
145.41468291311929
 20
479.89695213682512
 30
0.0
 42
0.2618037032190792
  0
VERTEX
  5
F37
  8
SAPA_FOGBAND
 10
147.24247704686991
 20
485.67653167567892
 30
0.0
  0
VERTEX
  5
F38
  8
SAPA_FOGBAND
 10
146.08589326909919
 20
491.2164707792856
 30
0.0
 42
0.2094308207509748
  0
VERTEX
  5
F39
  8
SAPA_FOGBAND
 10
142.68586778352909
 20
495.99203656418058
 30
0.0
  0
VERTEX
  5
F3A
  8
SAPA_FOGBAND
 10
141.6338926222154
 20
496.62146798645051
 30
0.0
 42
0.5057194851126921
  0
VERTEX
  5
F3B
  8
SAPA_FOGBAND
 10
140.14843487088291
 20
495.99826655745551
 30
0.0
  0
VERTEX
  5
F3C
  8
SAPA_FOGBAND
 10
135.63265974505271
 20
495.05605449891038
 30
0.0
 42
0.4142135623730992
  0
VERTEX
  5
F3D
  8
SAPA_FOGBAND
 10
134.70305784625751
 20
493.63625158661711
 30
0.0
  0
VERTEX
  5
F3E
  8
SAPA_FOGBAND
 10
137.43356177595911
 20
480.54966283527551
 30
0.0
 42
0.315298788878978
  0
VERTEX
  5
F3F
  8
SAPA_FOGBAND
 10
138.52041557210231
 20
479.52852585065028
 30
0.0
  0
SEQEND
  5
F40
  8
SAPA_FOGBAND
  0
DIMENSION
  5
888
  8
SAPA_MATT
  2
*D69
 10
272.30564528064349
 20
451.60000000000002
 30
0.0
 11
212.30564528064349
 21
454.1002952755905
 31
0.0
 70
     0
 13
152.30564528064349
 23
476.01421356237182
 33
0.0
 14
272.30564528064349
 24
477.09999999999991
 34
0.0
1001
ACAD
1000
DSTYLE
1002
{
1070
    40
1040
1.0
1002
}
  0
DIMENSION
  5
889
  8
SAPA_MATT
  2
*D68
 10
152.30564528064349
 20
451.60000000000002
 30
0.0
 11
137.3056452806434
 21
454.10000000000002
 31
0.0
 70
     0
 13
122.3056452806434
 23
476.60000000000008
 33
0.0
 14
152.30564528064349
 24
476.01421356237182
 34
0.0
1001
ACAD
1000
DSTYLE
1002
{
1070
    40
1040
1.0
1002
}
  0
DIMENSION
  5
88A
  8
SAPA_MATT
  2
*D67
 10
122.3056452806434
 20
451.60000000000002
 30
0.0
 11
99.805645280643375
 21
454.10000000000002
 31
0.0
 70
     0
 13
77.305645280643375
 23
476.60000000000008
 33
0.0
 14
122.3056452806434
 24
476.60000000000008
 34
0.0
1001
ACAD
1000
DSTYLE
1002
{
1070
    40
1040
1.0
1002
}
  0
DIMENSION
  5
88B
  8
SAPA_MATT
  2
*D66
 10
272.28564528064351
 20
439.59999999999991
 30
0.0
 11
174.7956452806435
 21
442.10000000000002
 31
0.0
 70
     0
  1
195
 13
77.305645280643603
 23
461.63115058922881
 33
0.0
 14
272.28564528064351
 24
461.63115058922881
 34
0.0
1001
ACAD
1000
DSTYLE
1002
{
1070
    40
1040
1.0
1002
}
  0
LINE
  5
88C
  8
SAPA_MATT
 10
109.38779781529151
 20
531.60000000000002
 30
0.0
 11
128.0004212990857
 21
531.60000000000002
 31
0.0
  0
LINE
  5
88D
  8
SAPA_MATT
 10
80.454606024103484
 20
471.60000000000002
 30
0.0
 11
119.64137068904709
 21
471.60000000000002
 31
0.0
  0
DIMENSION
  5
88E
  8
SAPA_MATT
  2
*D65
 10
45.308774314771647
 20
471.60000000000002
 30
0.0
 11
42.808774314771568
 21
501.60000000000002
 31
0.0
 70
     0
 13
91.047850390572606
 23
531.60000000000002
 33
0.0
 14
77.404405073412079
 24
471.60000000000002
 34
0.0
 50
90.0
1001
ACAD
1000
DSTYLE
1002
{
1070
    40
1040
1.0
1002
}
  0
DIMENSION
  5
88F
  8
SAPA_MATT
  2
*D64
 10
57.30928854968311
 20
476.60000000000008
 30
0.0
 11
54.809288549683039
 21
501.60000000000008
 31
0.0
 70
     0
 13
77.305645280643603
 23
526.60000000000014
 33
0.0
 14
77.305645280643603
 24
476.60000000000008
 34
0.0
 50
90.0
1001
ACAD
1000
DSTYLE
1002
{
1070
    40
1040
1.0
1002
}
  0
ENDSEC
  0
EOF
