  0
SECTION
  2
HEADER
  9
$ACADVER
  1
AC1009
  9
$INSBASE
 10
87.250141474393345
 20
464.4985451671987
 30
0.0
  9
$EXTMIN
 10
-158.61232508629541
 20
-7.5000000838686844
 30
-0.0000000048844204
  9
$EXTMAX
 10
168.55113856399711
 20
131.34341724254531
 30
0.1
  9
$LIMMIN
 10
0.0
 20
0.0
  9
$LIMMAX
 10
790.0
 20
790.0
  9
$ORTHOMODE
 70
     1
  9
$REGENMODE
 70
     1
  9
$FILLMODE
 70
     1
  9
$QTEXTMODE
 70
     0
  9
$MIRRTEXT
 70
     0
  9
$DRAGMODE
 70
     2
  9
$LTSCALE
 40
2.5
  9
$OSMODE
 70
   167
  9
$ATTMODE
 70
     1
  9
$TEXTSIZE
 40
5.0
  9
$TRACEWID
 40
0.05
  9
$TEXTSTYLE
  7
ISO
  9
$CLAYER
  8
0
  9
$CELTYPE
  6
BYLAYER
  9
$CECOLOR
 62
   256
  9
$DIMSCALE
 40
2.5
  9
$DIMASZ
 40
3.0
  9
$DIMEXO
 40
1.5
  9
$DIMDLI
 40
10.0
  9
$DIMRND
 40
0.0
  9
$DIMDLE
 40
0.0
  9
$DIMEXE
 40
1.5
  9
$DIMTP
 40
0.0
  9
$DIMTM
 40
0.0
  9
$DIMTXT
 40
3.0
  9
$DIMCEN
 40
-5.0
  9
$DIMTSZ
 40
0.0
  9
$DIMTOL
 70
     0
  9
$DIMLIM
 70
     0
  9
$DIMTIH
 70
     0
  9
$DIMTOH
 70
     0
  9
$DIMSE1
 70
     0
  9
$DIMSE2
 70
     0
  9
$DIMTAD
 70
     1
  9
$DIMZIN
 70
     8
  9
$DIMBLK
  1

  9
$DIMASO
 70
     1
  9
$DIMSHO
 70
     1
  9
$DIMPOST
  1

  9
$DIMAPOST
  1

  9
$DIMALT
 70
     0
  9
$DIMALTD
 70
     0
  9
$DIMALTF
 40
25.399999999999999
  9
$DIMLFAC
 40
1.0
  9
$DIMTOFL
 70
     1
  9
$DIMTVP
 40
0.0
  9
$DIMTIX
 70
     0
  9
$DIMSOXD
 70
     0
  9
$DIMSAH
 70
     0
  9
$DIMBLK1
  1

  9
$DIMBLK2
  1

  9
$DIMSTYLE
  2
MASKIN1
  9
$DIMCLRD
 70
   256
  9
$DIMCLRE
 70
   256
  9
$DIMCLRT
 70
   256
  9
$DIMTFAC
 40
1.0
  9
$DIMGAP
 40
1.0
  9
$LUNITS
 70
     2
  9
$LUPREC
 70
     1
  9
$SKETCHINC
 40
0.1
  9
$FILLETRAD
 40
0.0
  9
$AUNITS
 70
     0
  9
$AUPREC
 70
     0
  9
$MENU
  1
ACAD
  9
$ELEVATION
 40
0.0
  9
$PELEVATION
 40
0.0
  9
$THICKNESS
 40
0.0
  9
$LIMCHECK
 70
     0
  9
$BLIPMODE
 70
     0
  9
$CHAMFERA
 40
0.0
  9
$CHAMFERB
 40
0.0
  9
$SKPOLY
 70
     0
  9
$TDCREATE
 40
2451169.4686749768
  9
$TDUPDATE
 40
2456791.4706201511
  9
$TDINDWG
 40
1.2454102198999999
  9
$TDUSRTIMER
 40
1.2454102198999999
  9
$USRTIMER
 70
     1
  9
$ANGBASE
 50
0.0
  9
$ANGDIR
 70
     0
  9
$PDMODE
 70
     0
  9
$PDSIZE
 40
0.0
  9
$PLINEWID
 40
0.0
  9
$COORDS
 70
     1
  9
$SPLFRAME
 70
     0
  9
$SPLINETYPE
 70
     6
  9
$SPLINESEGS
 70
     8
  9
$ATTDIA
 70
     0
  9
$ATTREQ
 70
     1
  9
$HANDLING
 70
     1
  9
$HANDSEED
  5
1EFD
  9
$SURFTAB1
 70
     6
  9
$SURFTAB2
 70
     6
  9
$SURFTYPE
 70
     6
  9
$SURFU
 70
     6
  9
$SURFV
 70
     6
  9
$UCSNAME
  2

  9
$UCSORG
 10
0.0
 20
0.0
 30
0.0
  9
$UCSXDIR
 10
1.0
 20
0.0
 30
0.0
  9
$UCSYDIR
 10
0.0
 20
1.0
 30
0.0
  9
$PUCSNAME
  2

  9
$PUCSORG
 10
0.0
 20
0.0
 30
0.0
  9
$PUCSXDIR
 10
1.0
 20
0.0
 30
0.0
  9
$PUCSYDIR
 10
0.0
 20
1.0
 30
0.0
  9
$USERI1
 70
     0
  9
$USERI2
 70
     0
  9
$USERI3
 70
     0
  9
$USERI4
 70
     0
  9
$USERI5
 70
     0
  9
$USERR1
 40
0.0
  9
$USERR2
 40
0.0
  9
$USERR3
 40
0.0
  9
$USERR4
 40
0.0
  9
$USERR5
 40
0.0
  9
$WORLDVIEW
 70
     1
  9
$SHADEDGE
 70
     3
  9
$SHADEDIF
 70
    70
  9
$TILEMODE
 70
     1
  9
$MAXACTVP
 70
    16
  9
$PLIMCHECK
 70
     0
  9
$PEXTMIN
 10
1.0000000000000000E+020
 20
1.0000000000000000E+020
 30
1.0000000000000000E+020
  9
$PEXTMAX
 10
-1.0000000000000000E+020
 20
-1.0000000000000000E+020
 30
-1.0000000000000000E+020
  9
$PLIMMIN
 10
-4.23333740234375
 20
-4.2333331108093262
  9
$PLIMMAX
 10
292.69265747070312
 20
205.7399945259094
  9
$UNITMODE
 70
     0
  9
$VISRETAIN
 70
     1
  9
$PLINEGEN
 70
     0
  9
$PSLTSCALE
 70
     1
  0
ENDSEC
  0
SECTION
  2
TABLES
  0
TABLE
  2
VPORT
 70
     1
  0
VPORT
  2
*ACTIVE
 70
     0
 10
0.0
 20
0.0
 11
1.0
 21
1.0
 12
105.8577365799802
 22
155.03482812663961
 13
0.0
 23
0.0
 14
1.0
 24
1.0
 15
0.0
 25
0.0
 16
0.0
 26
0.0
 36
1.0
 17
0.0
 27
0.0
 37
0.0
 40
334.42027459530527
 41
1.7436619718309849
 42
50.0
 43
0.0
 44
0.0
 50
0.0
 51
0.0
 71
     0
 72
   100
 73
     1
 74
     0
 75
     0
 76
     0
 77
     0
 78
     0
  0
ENDTAB
  0
TABLE
  2
LTYPE
 70
    42
  0
LTYPE
  2
CONTINUOUS
 70
     0
  3
Solid line
 72
    65
 73
     0
 40
0.0
  0
LTYPE
  2
BYGG-024800$0$NEWDOT
 70
     0
  3
____ . ____ . ____ . ____ . ____ . ____ . ____
 72
    65
 73
     4
 40
2.0
 49
1.0
 49
-0.5
 49
0.0
 49
-0.5
  0
LTYPE
  2
BYGG-024807$0$NEWDOT
 70
     0
  3
____ . ____ . ____ . ____ . ____ . ____ . ____
 72
    65
 73
     4
 40
2.0
 49
1.0
 49
-0.5
 49
0.0
 49
-0.5
  0
LTYPE
  2
BYGG-024807$0$DASHDOT
 70
     0
  3
__ . __ . __ . __ . __ . __ . __ . __ . __ . __
 72
    65
 73
     4
 40
1.0
 49
0.5
 49
-0.25
 49
0.0
 49
-0.25
  0
LTYPE
  2
BYGG-029021$0$NEWDOT
 70
     0
  3
____ . ____ . ____ . ____ . ____ . ____ . ____
 72
    65
 73
     4
 40
2.0
 49
1.0
 49
-0.5
 49
0.0
 49
-0.5
  0
LTYPE
  2
BYGG-029021$0$DASHDOT
 70
     0
  3
__ . __ . __ . __ . __ . __ . __ . __ . __ . __
 72
    65
 73
     4
 40
1.0
 49
0.5
 49
-0.25
 49
0.0
 49
-0.25
  0
LTYPE
  2
BYGG-029021$0$DASHED
 70
     0
  3
__ __ __ __ __ __ __ __ __ __ __ __ __ __ __
 72
    65
 73
     2
 40
0.75
 49
0.5
 49
-0.25
  0
LTYPE
  2
BYGG-029021$0$PHANTOM
 70
     0
  3
Phantom ______  __  __  ______  __  __  ______
 72
    65
 73
     6
 40
63.5
 49
31.75
 49
-6.3499999999999988
 49
6.3499999999999988
 49
-6.3499999999999988
 49
6.3499999999999988
 49
-6.3499999999999988
  0
LTYPE
  2
BYGG-029021$0$DASHED2
 70
     0
  3
_ _ _ _ _ _ _ _ _ _ _ _ _ _ _ _ _ _ _ _ _ _ _ _ _ _ _ _ _ _ _
 72
    65
 73
     2
 40
0.375
 49
0.25
 49
-0.125
  0
LTYPE
  2
BYGG-01409101$0$DASHDOT
 70
     0
  3
__ . __ . __ . __ . __ . __ . __ . __ . __ . __
 72
    65
 73
     4
 40
1.0
 49
0.5
 49
-0.25
 49
0.0
 49
-0.25
  0
LTYPE
  2
BYGG-01409101$0$HIDDEN
 70
     0
  3
_ _ _ _ _ _ _ _ _ _ _ _ _ _ _ _ _ _ _ _ _ _ _
 72
    65
 73
     2
 40
0.375
 49
0.25
 49
-0.125
  0
LTYPE
  2
BYGG-029754$0$NEWDOT
 70
     0
  3
____ . ____ . ____ . ____ . ____ . ____ . ____
 72
    65
 73
     4
 40
2.0
 49
1.0
 49
-0.5
 49
0.0
 49
-0.5
  0
LTYPE
  2
BYGG-029754$0$DASHDOT
 70
     0
  3
__ . __ . __ . __ . __ . __ . __ . __ . __ . __
 72
    65
 73
     4
 40
1.0
 49
0.5
 49
-0.25
 49
0.0
 49
-0.25
  0
LTYPE
  2
BYGG-029754$0$DASHED
 70
     0
  3
__ __ __ __ __ __ __ __ __ __ __ __ __ __ __
 72
    65
 73
     2
 40
0.75
 49
0.5
 49
-0.25
  0
LTYPE
  2
BYGG-029754$0$PHANTOM
 70
     0
  3
Phantom ______  __  __  ______  __  __  ______
 72
    65
 73
     6
 40
63.5
 49
31.75
 49
-6.3499999999999988
 49
6.3499999999999988
 49
-6.3499999999999988
 49
6.3499999999999988
 49
-6.3499999999999988
  0
LTYPE
  2
BYGG-00894401$0$DASHDOT
 70
     0
  3
__ . __ . __ . __ . __ . __ . __ . __ . __ . __
 72
    65
 73
     4
 40
1.0
 49
0.5
 49
-0.25
 49
0.0
 49
-0.25
  0
LTYPE
  2
BYGG-008943$0$DASHDOT
 70
     0
  3
__ . __ . __ . __ . __ . __ . __ . __ . __ . __
 72
    65
 73
     4
 40
1.0
 49
0.5
 49
-0.25
 49
0.0
 49
-0.25
  0
LTYPE
  2
BYGG-025652$0$NEWDOT
 70
     0
  3
____ . ____ . ____ . ____ . ____ . ____ . ____
 72
    65
 73
     4
 40
2.0
 49
1.0
 49
-0.5
 49
0.0
 49
-0.5
  0
LTYPE
  2
BYGG-025652$0$DASHDOT
 70
     0
  3
__ . __ . __ . __ . __ . __ . __ . __ . __ . __
 72
    65
 73
     4
 40
1.0
 49
0.5
 49
-0.25
 49
0.0
 49
-0.25
  0
LTYPE
  2
BYGG-025652$0$DASHED
 70
     0
  3
__ __ __ __ __ __ __ __ __ __ __ __ __ __ __
 72
    65
 73
     2
 40
0.75
 49
0.5
 49
-0.25
  0
LTYPE
  2
BYGG-025652$0$PHANTOM
 70
     0
  3
Phantom ______  __  __  ______  __  __  ______
 72
    65
 73
     6
 40
63.5
 49
31.75
 49
-6.3499999999999988
 49
6.3499999999999988
 49
-6.3499999999999988
 49
6.3499999999999988
 49
-6.3499999999999988
  0
LTYPE
  2
BYGG-014411$0$NEWDOT
 70
     0
  3
____ . ____ . ____ . ____ . ____ . ____ . ____
 72
    65
 73
     4
 40
2.0
 49
1.0
 49
-0.5
 49
0.0
 49
-0.5
  0
LTYPE
  2
BYGG-014411$0$ZIGZAG
 70
     0
  3
Zig zag /\/\/\/\/\/\/\/\/\/\/\/\/\/\/\/\/\/\/\/\/\/\/\/
 72
    65
 73
     4
 40
20.32254
 49
0.00254
 49
-5.0800000000000001
 49
-10.16
 49
-5.0800000000000001
  0
LTYPE
  2
BYGG-031173$0$NEWDOT
 70
     0
  3
____ . ____ . ____ . ____ . ____ . ____ . ____
 72
    65
 73
     4
 40
2.0
 49
1.0
 49
-0.5
 49
0.0
 49
-0.5
  0
LTYPE
  2
BYGG-031173$0$DASHDOT
 70
     0
  3
__ . __ . __ . __ . __ . __ . __ . __ . __ . __
 72
    65
 73
     4
 40
1.0
 49
0.5
 49
-0.25
 49
0.0
 49
-0.25
  0
LTYPE
  2
BYGG-031173$0$DASHED
 70
     0
  3
__ __ __ __ __ __ __ __ __ __ __ __ __ __ __
 72
    65
 73
     2
 40
0.75
 49
0.5
 49
-0.25
  0
LTYPE
  2
BYGG-031173$0$PHANTOM
 70
     0
  3
Phantom ______  __  __  ______  __  __  ______
 72
    65
 73
     6
 40
63.5
 49
31.75
 49
-6.3499999999999988
 49
6.3499999999999988
 49
-6.3499999999999988
 49
6.3499999999999988
 49
-6.3499999999999988
  0
LTYPE
  2
BYGG-024893$0$NEWDOT
 70
     0
  3
____ . ____ . ____ . ____ . ____ . ____ . ____
 72
    65
 73
     4
 40
2.0
 49
1.0
 49
-0.5
 49
0.0
 49
-0.5
  0
LTYPE
  2
BYGG-024893$0$DASHDOT
 70
     0
  3
__ . __ . __ . __ . __ . __ . __ . __ . __ . __
 72
    65
 73
     4
 40
1.0
 49
0.5
 49
-0.25
 49
0.0
 49
-0.25
  0
LTYPE
  2
BYGG-024892$0$NEWDOT
 70
     0
  3
____ . ____ . ____ . ____ . ____ . ____ . ____
 72
    65
 73
     4
 40
2.0
 49
1.0
 49
-0.5
 49
0.0
 49
-0.5
  0
LTYPE
  2
BYGG-024892$0$DASHDOT
 70
     0
  3
__ . __ . __ . __ . __ . __ . __ . __ . __ . __
 72
    65
 73
     4
 40
1.0
 49
0.5
 49
-0.25
 49
0.0
 49
-0.25
  0
LTYPE
  2
BYGG-020317$0$NEWDOT
 70
     0
  3
____ . ____ . ____ . ____ . ____ . ____ . ____
 72
    65
 73
     4
 40
2.0
 49
1.0
 49
-0.5
 49
0.0
 49
-0.5
  0
LTYPE
  2
BYGG-020317$0$ZIGZAG
 70
     0
  3
Zig zag /\/\/\/\/\/\/\/\/\/\/\/\/\/\/\/\/\/\/\/\/\/\/\/
 72
    65
 73
     4
 40
20.32254
 49
0.00254
 49
-5.0800000000000001
 49
-10.16
 49
-5.0800000000000001
  0
LTYPE
  2
BYGG-014406$0$NEWDOT
 70
     0
  3
____ . ____ . ____ . ____ . ____ . ____ . ____
 72
    65
 73
     4
 40
2.0
 49
1.0
 49
-0.5
 49
0.0
 49
-0.5
  0
LTYPE
  2
BYGG-014406$0$ZIGZAG
 70
     0
  3
Zig zag /\/\/\/\/\/\/\/\/\/\/\/\/\/\/\/\/\/\/\/\/\/\/\/
 72
    65
 73
     4
 40
20.32254
 49
0.00254
 49
-5.0800000000000001
 49
-10.16
 49
-5.0800000000000001
  0
LTYPE
  2
BYGG-029021$0$PHANTOM2
 70
     0
  3
Phantom (.5x) ___ _ _ ___ _ _ ___ _ _ ___ _ _
 72
    65
 73
     6
 40
1.25
 49
0.625
 49
-0.125
 49
0.125
 49
-0.125
 49
0.125
 49
-0.125
  0
LTYPE
  2
BYGG-024800$0$DASHDOT
 70
     0
  3
__ . __ . __ . __ . __ . __ . __ . __ . __ . __
 72
    65
 73
     4
 40
1.0
 49
0.5
 49
-0.25
 49
0.0
 49
-0.25
  0
LTYPE
  2
BYGG-01409101$0$PHANTOM2
 70
     0
  3
Phantom (.5x) ___ _ _ ___ _ _ ___ _ _ ___ _ _
 72
    65
 73
     6
 40
1.25
 49
0.625
 49
-0.125
 49
0.125
 49
-0.125
 49
0.125
 49
-0.125
  0
LTYPE
  2
BYGG-029754$0$PHANTOM2
 70
     0
  3
Phantom (.5x) ___ _ _ ___ _ _ ___ _ _ ___ _ _
 72
    65
 73
     6
 40
1.25
 49
0.625
 49
-0.125
 49
0.125
 49
-0.125
 49
0.125
 49
-0.125
  0
LTYPE
  2
BYGG-014411$0$PHANTOM2
 70
     0
  3
Phantom (.5x) ___ _ _ ___ _ _ ___ _ _ ___ _ _
 72
    65
 73
     6
 40
1.25
 49
0.625
 49
-0.125
 49
0.125
 49
-0.125
 49
0.125
 49
-0.125
  0
LTYPE
  2
BYGG-031173$0$PHANTOM2
 70
     0
  3
Phantom (.5x) ___ _ _ ___ _ _ ___ _ _ ___ _ _
 72
    65
 73
     6
 40
1.25
 49
0.625
 49
-0.125
 49
0.125
 49
-0.125
 49
0.125
 49
-0.125
  0
LTYPE
  2
BYGG-014406$0$PHANTOM2
 70
     0
  3
Phantom (.5x) ___ _ _ ___ _ _ ___ _ _ ___ _ _
 72
    65
 73
     6
 40
1.25
 49
0.625
 49
-0.125
 49
0.125
 49
-0.125
 49
0.125
 49
-0.125
  0
ENDTAB
  0
TABLE
  2
LAYER
 70
   208
  0
LAYER
  2
0
 70
     0
 62
     7
  6
CONTINUOUS
  0
LAYER
  2
DEFPOINTS
 70
     0
 62
     7
  6
CONTINUOUS
  0
LAYER
  2
SAPA_ARTIKELNR
 70
     0
 62
     4
  6
CONTINUOUS
  0
LAYER
  2
SAPA_LIGHT
 70
     1
 62
     1
  6
CONTINUOUS
  0
LAYER
  2
SAPA_MATT
 70
     0
 62
     1
  6
CONTINUOUS
  0
LAYER
  2
SAPA_GLAS
 70
     0
 62
     4
  6
CONTINUOUS
  0
LAYER
  2
SAPA_FOGBAND
 70
     0
 62
     2
  6
CONTINUOUS
  0
LAYER
  2
SAPA_PROFIL
 70
     0
 62
     7
  6
CONTINUOUS
  0
ENDTAB
  0
TABLE
  2
STYLE
 70
    45
  0
STYLE
  2
STANDARD
 70
     0
 40
0.0
 41
1.0
 50
0.0
 71
     0
 42
0.2
  3
txt
  4

  0
STYLE
  2
ISO
 70
     0
 40
0.0
 41
1.0
 50
0.0
 71
     0
 42
5.0
  3
isocp3.shx
  4

  0
STYLE
  2

 70
     1
 40
0.0
 41
1.0
 50
0.0
 71
     0
 42
0.2
  3
ltypeshp.shx
  4

  0
STYLE
  2
BYGG-029021$0$STANDARD
 70
     0
 40
0.0
 41
1.0
 50
0.0
 71
     0
 42
0.2
  3
txt
  4

  0
STYLE
  2
BYGG-029021$0$ISO
 70
     0
 40
0.0
 41
1.0
 50
0.0
 71
     0
 42
3.5
  3
txt
  4

  0
STYLE
  2
BYGG-029021$0$ANNOTATION
 70
     0
 40
0.0
 41
1.0
 50
0.0
 71
     0
 42
0.2
  3
txt
  4

  0
STYLE
  2
BYGG-029021$0$COTATION
 70
     0
 40
0.0
 41
1.0
 50
0.0
 71
     0
 42
0.2
  3
txt
  4

  0
STYLE
  2
BYGG-029021$0$ANNOTATIVE
 70
     0
 40
0.0
 41
1.0
 50
0.0
 71
     0
 42
0.2
  3
txt
  4

  0
STYLE
  2
BYGG-024800$0$STANDARD
 70
     0
 40
0.0
 41
1.0
 50
0.0
 71
     0
 42
0.2
  3
txt
  4

  0
STYLE
  2
BYGG-024800$0$ISO
 70
     0
 40
0.0
 41
1.0
 50
0.0
 71
     0
 42
3.5
  3
txt
  4

  0
STYLE
  2
BYGG-024807$0$STANDARD
 70
     0
 40
0.0
 41
1.0
 50
0.0
 71
     0
 42
0.2
  3
txt
  4

  0
STYLE
  2
BYGG-024807$0$ISO
 70
     0
 40
0.0
 41
1.0
 50
0.0
 71
     0
 42
3.5
  3
txt
  4

  0
STYLE
  2
BYGG-024807$0$ANNOTATIVE
 70
     0
 40
0.0
 41
1.0
 50
0.0
 71
     0
 42
0.2
  3
txt
  4

  0
STYLE
  2
BYGG-028980$0$STANDARD
 70
     0
 40
0.0
 41
1.0
 50
0.0
 71
     0
 42
0.2
  3
txt
  4

  0
STYLE
  2
BYGG-028980$0$ISO
 70
     0
 40
0.0
 41
1.0
 50
0.0
 71
     0
 42
3.5
  3
txt
  4

  0
STYLE
  2
BYGG-01409101$0$STANDARD
 70
     0
 40
0.0
 41
1.0
 50
0.0
 71
     0
 42
0.4
  3
txt
  4

  0
STYLE
  2
BYGG-01409101$0$SIMPLEX
 70
     0
 40
0.0
 41
1.0
 50
0.0
 71
     0
 42
0.2
  3
simplex
  4

  0
STYLE
  2
BYGG-029754$0$STANDARD
 70
     0
 40
0.0
 41
1.0
 50
0.0
 71
     0
 42
0.2
  3
txt
  4

  0
STYLE
  2
BYGG-029754$0$ISO
 70
     0
 40
0.0
 41
1.0
 50
0.0
 71
     0
 42
3.5
  3
txt
  4

  0
STYLE
  2
BYGG-00894401$0$STANDARD
 70
     0
 40
0.0
 41
1.0
 50
0.0
 71
     0
 42
0.2
  3
txt
  4

  0
STYLE
  2
BYGG-00894401$0$ISO
 70
     0
 40
0.0
 41
1.0
 50
0.0
 71
     0
 42
3.5
  3
txt
  4

  0
STYLE
  2
BYGG-00894401$0$CONVERTER_
 70
     0
 40
0.0
 41
0.72
 50
0.0
 71
     0
 42
0.2
  3
txt.shx
  4

  0
STYLE
  2
BYGG-00894401$0$ANNOTATIVE
 70
     0
 40
0.0
 41
1.0
 50
0.0
 71
     0
 42
0.2
  3
txt
  4

  0
STYLE
  2
BYGG-008943$0$STANDARD
 70
     0
 40
0.0
 41
1.0
 50
0.0
 71
     0
 42
0.2
  3
txt
  4

  0
STYLE
  2
BYGG-008943$0$ISO
 70
     0
 40
0.0
 41
1.0
 50
0.0
 71
     0
 42
3.5
  3
txt
  4

  0
STYLE
  2
BYGG-008943$0$CONVERTER_2
 70
     0
 40
0.0
 41
0.72
 50
0.0
 71
     0
 42
0.2
  3
txt.shx
  4

  0
STYLE
  2
BYGG-008943$0$ANNOTATIVE
 70
     0
 40
0.0
 41
1.0
 50
0.0
 71
     0
 42
0.2
  3
txt
  4

  0
STYLE
  2
BYGG-025652$0$STANDARD
 70
     0
 40
0.0
 41
1.0
 50
0.0
 71
     0
 42
0.2
  3
txt
  4

  0
STYLE
  2
BYGG-025652$0$ISO
 70
     0
 40
0.0
 41
1.0
 50
0.0
 71
     0
 42
3.5
  3
txt
  4

  0
STYLE
  2
BYGG-014411$0$STANDARD
 70
     0
 40
0.0
 41
1.0
 50
0.0
 71
     0
 42
0.2
  3
txt
  4

  0
STYLE
  2
BYGG-014411$0$ISO
 70
     0
 40
0.0
 41
1.0
 50
0.0
 71
     0
 42
3.5
  3
isocp3.shx
  4

  0
STYLE
  2
BYGG-031173$0$STANDARD
 70
     0
 40
0.0
 41
1.0
 50
0.0
 71
     0
 42
0.2
  3
txt
  4

  0
STYLE
  2
BYGG-031173$0$ISO
 70
     0
 40
0.0
 41
1.0
 50
0.0
 71
     0
 42
3.5
  3
txt
  4

  0
STYLE
  2
BYGG-024893$0$STANDARD
 70
     0
 40
0.0
 41
1.0
 50
0.0
 71
     0
 42
0.2
  3
txt
  4

  0
STYLE
  2
BYGG-024893$0$ISO
 70
     0
 40
0.0
 41
1.0
 50
0.0
 71
     0
 42
3.5
  3
txt
  4

  0
STYLE
  2
BYGG-024893$0$ANNOTATIVE
 70
     0
 40
0.0
 41
1.0
 50
0.0
 71
     0
 42
0.2
  3
txt
  4

  0
STYLE
  2
BYGG-024892$0$STANDARD
 70
     0
 40
0.0
 41
1.0
 50
0.0
 71
     0
 42
0.2
  3
txt
  4

  0
STYLE
  2
BYGG-024892$0$ISO
 70
     0
 40
0.0
 41
1.0
 50
0.0
 71
     0
 42
3.5
  3
txt
  4

  0
STYLE
  2
BYGG-024892$0$ANNOTATIVE
 70
     0
 40
0.0
 41
1.0
 50
0.0
 71
     0
 42
0.2
  3
txt
  4

  0
STYLE
  2
BYGG-020317$0$STANDARD
 70
     0
 40
0.0
 41
1.0
 50
0.0
 71
     0
 42
0.2
  3
txt
  4

  0
STYLE
  2
BYGG-020317$0$ISO
 70
     0
 40
0.0
 41
1.0
 50
0.0
 71
     0
 42
3.5
  3
isocp3.shx
  4

  0
STYLE
  2
BYGG-021377$0$STANDARD
 70
     0
 40
0.0
 41
1.0
 50
0.0
 71
     0
 42
0.2
  3
txt
  4

  0
STYLE
  2
BYGG-021377$0$ISO
 70
     0
 40
0.0
 41
1.0
 50
0.0
 71
     0
 42
7.0
  3
ISO
  4

  0
STYLE
  2
BYGG-014406$0$STANDARD
 70
     0
 40
0.0
 41
1.0
 50
0.0
 71
     0
 42
0.2
  3
txt
  4

  0
STYLE
  2
BYGG-014406$0$ISO
 70
     0
 40
0.0
 41
1.0
 50
0.0
 71
     0
 42
3.5
  3
isocp3.shx
  4

  0
ENDTAB
  0
TABLE
  2
VIEW
 70
     0
  0
ENDTAB
  0
TABLE
  2
UCS
 70
     0
  0
ENDTAB
  0
TABLE
  2
APPID
 70
    35
  0
APPID
  2
ACAD
 70
     0
  0
APPID
  2
ACAD_PSEXT
 70
     0
  0
APPID
  2
ACAECLAYERSTANDARD
 70
     0
  0
APPID
  2
ACAD_MLEADERVER
 70
     0
  0
APPID
  2
ACAD_DSTYLE_DIMJAG
 70
     0
  0
APPID
  2
ACAD_DSTYLE_DIMTALN
 70
     0
  0
APPID
  2
ACAD_DSTYLE_DIMTEXT_FILL
 70
     0
  0
APPID
  2
ACAD_DSTYLE_DIMEXT_LENGTH
 70
     0
  0
APPID
  2
ACAD_DSTYLE_DIMEXT_ENABLED
 70
     0
  0
APPID
  2
ACAD_DSTYLE_DIM_LINETYPE
 70
     0
  0
APPID
  2
ACAD_DSTYLE_DIM_EXT1_LINETYPE
 70
     0
  0
APPID
  2
ACAD_DSTYLE_DIM_EXT2_LINETYPE
 70
     0
  0
APPID
  2
ACAD_DSTYLE_DIMJOGGED_JOGA
 70
     0
  0
APPID
  2
ACAD_DSTYLE_DIMARC_LENGTH_
 70
     0
  0
APPID
  2
ACDBDYNAMICBLOCKGUID
 70
     0
  0
APPID
  2
ACDBBLOCKREPETAG
 70
     0
  0
APPID
  2
ACAD_EXEMPT_FROM_CAD_STANDARDS
 70
     0
  0
APPID
  2
ACADANNOTATIVE
 70
     0
  0
APPID
  2
RC_PROFILE
 70
     0
  0
APPID
  2
ACAD_NAV_VCDISPLAY
 70
     0
  0
APPID
  2
ACAD_DSTYLE_DIMRADIAL_EXTENSION
 70
     0
  0
APPID
  2
ACAD_OBJECT_CHANGE_GUID
 70
     0
  0
APPID
  2
ACCMTRANSPARENCY
 70
     0
  0
APPID
  2
AVE_RENDER
 70
     0
  0
APPID
  2
AVE_ENTITY_MATERIAL
 70
     0
  0
APPID
  2
AVE_FINISH
 70
     0
  0
APPID
  2
AVE_MATERIAL
 70
     0
  0
APPID
  2
AVE_GLOBAL
 70
     0
  0
APPID
  2
4M_RENDER
 70
     0
  0
APPID
  2
LIBMAN
 70
     0
  0
APPID
  2
AUTOBUILD
 70
     0
  0
APPID
  2
AMG_ARCHIVE11
 70
     0
  0
APPID
  2
GRADIENTCOLOR1ACI
 70
     0
  0
APPID
  2
GRADIENTCOLOR2ACI
 70
     0
  0
APPID
  2
ACADANNOAV
 70
     0
  0
ENDTAB
  0
TABLE
  2
DIMSTYLE
 70
    41
  0
DIMSTYLE
  2
MASKIN1
 70
     0
  3

  4

  5

  6

  7

 40
0.0
 41
3.0
 42
1.5
 43
10.0
 44
1.5
 45
0.0
 46
0.0
 47
0.0
 48
0.0
140
3.0
141
-5.0
142
0.0
143
25.399999999999999
144
-1.0
145
0.0
146
1.0
147
1.0
 71
     0
 72
     0
 73
     0
 74
     0
 75
     0
 76
     0
 77
     1
 78
     8
170
     0
171
     0
172
     1
173
     0
174
     0
175
     0
176
   256
177
   256
178
   256
  0
DIMSTYLE
  2
MASKIN
 70
     0
  3

  4

  5

  6

  7

 40
0.0
 41
3.0
 42
1.5
 43
10.0
 44
1.5
 45
0.0
 46
0.0
 47
0.0
 48
0.0
140
3.0
141
-5.0
142
0.0
143
25.399999999999999
144
-1.0
145
0.0
146
1.0
147
1.0
 71
     0
 72
     0
 73
     0
 74
     1
 75
     0
 76
     0
 77
     1
 78
     8
170
     0
171
     0
172
     1
173
     0
174
     0
175
     0
176
   256
177
   256
178
     2
  0
DIMSTYLE
  2
BYGG-029021$0$STANDARD
 70
     0
  3

  4

  5

  6

  7

 40
1.0
 41
0.18
 42
0.0625
 43
0.38
 44
0.18
 45
0.0
 46
0.0
 47
0.0
 48
0.0
140
0.18
141
0.09
142
0.0
143
25.399999999999999
144
1.0
145
0.0
146
1.0
147
0.09
 71
     0
 72
     0
 73
     1
 74
     1
 75
     0
 76
     0
 77
     0
 78
     0
170
     0
171
     2
172
     0
173
     0
174
     0
175
     0
176
     0
177
     0
178
     0
  0
DIMSTYLE
  2
BYGG-029021$0$MASKIN
 70
     0
  3

  4

  5

  6

  7

 40
0.0
 41
3.0
 42
1.5
 43
10.0
 44
1.5
 45
0.0
 46
0.0
 47
0.0
 48
0.0
140
3.0
141
-5.0
142
0.0
143
25.399999999999999
144
-1.0
145
0.0
146
1.0
147
1.0
 71
     0
 72
     0
 73
     0
 74
     0
 75
     0
 76
     0
 77
     1
 78
     8
170
     0
171
     0
172
     1
173
     0
174
     0
175
     0
176
   256
177
   256
178
     2
  0
DIMSTYLE
  2
BYGG-029021$0$MASKIN1
 70
     0
  3

  4

  5

  6

  7

 40
0.0
 41
3.0
 42
1.5
 43
10.0
 44
1.5
 45
0.0
 46
0.0
 47
0.0
 48
0.0
140
3.0
141
-5.0
142
0.0
143
25.399999999999999
144
-1.0
145
0.0
146
1.0
147
1.0
 71
     0
 72
     0
 73
     0
 74
     0
 75
     0
 76
     0
 77
     1
 78
     8
170
     0
171
     0
172
     1
173
     0
174
     0
175
     0
176
   256
177
   256
178
   256
  0
DIMSTYLE
  2
BYGG-029021$0$COTATION_HUT
 70
     0
  3

  4

  5

  6

  7

 40
1.0
 41
0.25
 42
0.1
 43
3.75
 44
0.18
 45
0.0
 46
0.0
 47
0.0
 48
0.0
140
0.25
141
2.5
142
0.0
143
25.399999999999999
144
1.0
145
0.05
146
0.7000000000000002
147
0.09
 71
     1
 72
     0
 73
     0
 74
     0
 75
     0
 76
     0
 77
     1
 78
     0
170
     0
171
     2
172
     1
173
     0
174
     0
175
     0
176
     0
177
     0
178
     0
  0
DIMSTYLE
  2
BYGG-029021$0$ANNOTATIVE
 70
     0
  3

  4

  5

  6

  7

 40
1.0
 41
0.18
 42
0.0625
 43
0.38
 44
0.18
 45
0.0
 46
0.0
 47
0.0
 48
0.0
140
0.18
141
0.09
142
0.0
143
25.399999999999999
144
1.0
145
0.0
146
1.0
147
0.09
 71
     0
 72
     0
 73
     1
 74
     1
 75
     0
 76
     0
 77
     0
 78
     0
170
     0
171
     2
172
     0
173
     0
174
     0
175
     0
176
     0
177
     0
178
     0
  0
DIMSTYLE
  2
BYGG-024800$0$MASKIN
 70
     0
  3

  4

  5

  6

  7

 40
0.0
 41
3.0
 42
1.5
 43
10.0
 44
1.5
 45
0.0
 46
0.0
 47
0.0
 48
0.0
140
3.0
141
-5.0
142
0.0
143
25.399999999999999
144
-1.0
145
0.0
146
1.0
147
1.0
 71
     0
 72
     0
 73
     0
 74
     0
 75
     0
 76
     0
 77
     1
 78
     8
170
     0
171
     0
172
     1
173
     0
174
     0
175
     0
176
   256
177
   256
178
     2
  0
DIMSTYLE
  2
BYGG-024800$0$STANDARD
 70
     0
  3

  4

  5

  6

  7

 40
1.0
 41
0.18
 42
0.0625
 43
0.38
 44
0.18
 45
0.0
 46
0.0
 47
0.0
 48
0.0
140
0.18
141
0.09
142
0.0
143
25.399999999999999
144
1.0
145
0.0
146
1.0
147
0.09
 71
     0
 72
     0
 73
     1
 74
     1
 75
     0
 76
     0
 77
     0
 78
     0
170
     0
171
     2
172
     0
173
     0
174
     0
175
     0
176
     0
177
     0
178
     0
  0
DIMSTYLE
  2
BYGG-024807$0$MASKIN
 70
     0
  3

  4

  5

  6

  7

 40
0.0
 41
3.0
 42
1.5
 43
10.0
 44
1.5
 45
0.0
 46
0.0
 47
0.0
 48
0.0
140
3.0
141
-5.0
142
0.0
143
25.399999999999999
144
-1.0
145
0.0
146
1.0
147
1.0
 71
     0
 72
     0
 73
     0
 74
     0
 75
     0
 76
     0
 77
     1
 78
     8
170
     0
171
     0
172
     1
173
     0
174
     0
175
     0
176
   256
177
   256
178
     2
  0
DIMSTYLE
  2
BYGG-024807$0$STANDARD
 70
     0
  3

  4

  5

  6

  7

 40
1.0
 41
0.18
 42
0.0625
 43
0.38
 44
0.18
 45
0.0
 46
0.0
 47
0.0
 48
0.0
140
0.18
141
0.09
142
0.0
143
25.399999999999999
144
1.0
145
0.0
146
1.0
147
0.09
 71
     0
 72
     0
 73
     1
 74
     1
 75
     0
 76
     0
 77
     0
 78
     0
170
     0
171
     2
172
     0
173
     0
174
     0
175
     0
176
     0
177
     0
178
     0
  0
DIMSTYLE
  2
BYGG-024807$0$ANNOTATIVE
 70
     0
  3

  4

  5

  6

  7

 40
1.0
 41
0.18
 42
0.0625
 43
0.38
 44
0.18
 45
0.0
 46
0.0
 47
0.0
 48
0.0
140
0.18
141
0.09
142
0.0
143
25.399999999999999
144
1.0
145
0.0
146
1.0
147
0.09
 71
     0
 72
     0
 73
     1
 74
     1
 75
     0
 76
     0
 77
     0
 78
     0
170
     0
171
     2
172
     0
173
     0
174
     0
175
     0
176
     0
177
     0
178
     0
  0
DIMSTYLE
  2
BYGG-028980$0$STANDARD
 70
     0
  3

  4

  5

  6

  7

 40
1.0
 41
0.18
 42
0.0625
 43
0.38
 44
0.18
 45
0.0
 46
0.0
 47
0.0
 48
0.0
140
0.18
141
0.09
142
0.0
143
25.399999999999999
144
1.0
145
0.0
146
1.0
147
0.09
 71
     0
 72
     0
 73
     1
 74
     1
 75
     0
 76
     0
 77
     0
 78
     0
170
     0
171
     2
172
     0
173
     0
174
     0
175
     0
176
     0
177
     0
178
     0
  0
DIMSTYLE
  2
BYGG-028980$0$MASKIN
 70
     0
  3

  4

  5

  6

  7

 40
0.0
 41
3.0
 42
1.5
 43
10.0
 44
1.5
 45
0.0
 46
0.0
 47
0.0
 48
0.0
140
3.0
141
-5.0
142
0.0
143
25.399999999999999
144
-1.0
145
0.0
146
1.0
147
1.0
 71
     0
 72
     0
 73
     0
 74
     0
 75
     0
 76
     0
 77
     1
 78
     8
170
     0
171
     0
172
     1
173
     0
174
     0
175
     0
176
   256
177
   256
178
     2
  0
DIMSTYLE
  2
BYGG-01409101$0$STANDARD
 70
     0
  3

  4

  5

  6

  7

 40
1.0
 41
0.18
 42
0.0625
 43
0.38
 44
0.18
 45
0.0
 46
0.0
 47
0.0
 48
0.0
140
0.18
141
0.09
142
0.0
143
25.399999999999999
144
1.0
145
0.0
146
1.0
147
0.09
 71
     0
 72
     0
 73
     1
 74
     1
 75
     0
 76
     0
 77
     0
 78
     0
170
     0
171
     2
172
     0
173
     0
174
     0
175
     0
176
     0
177
     0
178
     0
  0
DIMSTYLE
  2
BYGG-029754$0$STANDARD
 70
     0
  3

  4

  5

  6

  7

 40
1.0
 41
0.18
 42
0.0625
 43
0.38
 44
0.18
 45
0.0
 46
0.0
 47
0.0
 48
0.0
140
0.18
141
0.09
142
0.0
143
25.399999999999999
144
1.0
145
0.0
146
1.0
147
0.09
 71
     0
 72
     0
 73
     1
 74
     1
 75
     0
 76
     0
 77
     0
 78
     0
170
     0
171
     2
172
     0
173
     0
174
     0
175
     0
176
     0
177
     0
178
     0
  0
DIMSTYLE
  2
BYGG-029754$0$MASKIN
 70
     0
  3

  4

  5

  6

  7

 40
0.0
 41
3.0
 42
1.5
 43
10.0
 44
1.5
 45
0.0
 46
0.0
 47
0.0
 48
0.0
140
3.0
141
-5.0
142
0.0
143
25.399999999999999
144
-1.0
145
0.0
146
1.0
147
1.0
 71
     0
 72
     0
 73
     0
 74
     0
 75
     0
 76
     0
 77
     1
 78
     8
170
     0
171
     0
172
     1
173
     0
174
     0
175
     0
176
   256
177
   256
178
     2
  0
DIMSTYLE
  2
BYGG-00894401$0$MASKIN
 70
     0
  3

  4

  5

  6

  7

 40
0.0
 41
3.0
 42
1.5
 43
10.0
 44
1.5
 45
0.0
 46
0.0
 47
0.0
 48
0.0
140
3.0
141
-5.0
142
0.0
143
25.399999999999999
144
-1.0
145
0.0
146
1.0
147
1.0
 71
     0
 72
     0
 73
     0
 74
     0
 75
     0
 76
     0
 77
     1
 78
     8
170
     0
171
     0
172
     1
173
     0
174
     0
175
     0
176
   256
177
   256
178
     2
  0
DIMSTYLE
  2
BYGG-00894401$0$STANDARD
 70
     0
  3

  4

  5

  6

  7

 40
1.0
 41
0.18
 42
0.0625
 43
0.38
 44
0.18
 45
0.0
 46
0.0
 47
0.0
 48
0.0
140
0.18
141
0.09
142
0.0
143
25.399999999999999
144
1.0
145
0.0
146
1.0
147
0.09
 71
     0
 72
     0
 73
     1
 74
     1
 75
     0
 76
     0
 77
     0
 78
     0
170
     0
171
     2
172
     0
173
     0
174
     0
175
     0
176
     0
177
     0
178
     0
  0
DIMSTYLE
  2
BYGG-00894401$0$ANNOTATIVE
 70
     0
  3

  4

  5

  6

  7

 40
1.0
 41
0.18
 42
0.0625
 43
0.38
 44
0.18
 45
0.0
 46
0.0
 47
0.0
 48
0.0
140
0.18
141
0.09
142
0.0
143
25.399999999999999
144
1.0
145
0.0
146
1.0
147
0.09
 71
     0
 72
     0
 73
     1
 74
     1
 75
     0
 76
     0
 77
     0
 78
     0
170
     0
171
     2
172
     0
173
     0
174
     0
175
     0
176
     0
177
     0
178
     0
  0
DIMSTYLE
  2
BYGG-008943$0$MASKIN
 70
     0
  3

  4

  5

  6

  7

 40
0.0
 41
3.0
 42
1.5
 43
10.0
 44
1.5
 45
0.0
 46
0.0
 47
0.0
 48
0.0
140
3.0
141
-5.0
142
0.0
143
25.399999999999999
144
-1.0
145
0.0
146
1.0
147
1.0
 71
     0
 72
     0
 73
     0
 74
     0
 75
     0
 76
     0
 77
     1
 78
     8
170
     0
171
     0
172
     1
173
     0
174
     0
175
     0
176
   256
177
   256
178
     2
  0
DIMSTYLE
  2
BYGG-008943$0$STANDARD
 70
     0
  3

  4

  5

  6

  7

 40
1.0
 41
0.18
 42
0.0625
 43
0.38
 44
0.18
 45
0.0
 46
0.0
 47
0.0
 48
0.0
140
0.18
141
0.09
142
0.0
143
25.399999999999999
144
1.0
145
0.0
146
1.0
147
0.09
 71
     0
 72
     0
 73
     1
 74
     1
 75
     0
 76
     0
 77
     0
 78
     0
170
     0
171
     2
172
     0
173
     0
174
     0
175
     0
176
     0
177
     0
178
     0
  0
DIMSTYLE
  2
BYGG-008943$0$ANNOTATIVE
 70
     0
  3

  4

  5

  6

  7

 40
1.0
 41
0.18
 42
0.0625
 43
0.38
 44
0.18
 45
0.0
 46
0.0
 47
0.0
 48
0.0
140
0.18
141
0.09
142
0.0
143
25.399999999999999
144
1.0
145
0.0
146
1.0
147
0.09
 71
     0
 72
     0
 73
     1
 74
     1
 75
     0
 76
     0
 77
     0
 78
     0
170
     0
171
     2
172
     0
173
     0
174
     0
175
     0
176
     0
177
     0
178
     0
  0
DIMSTYLE
  2
BYGG-025652$0$STANDARD
 70
     0
  3

  4

  5

  6

  7

 40
1.0
 41
0.18
 42
0.0625
 43
0.38
 44
0.18
 45
0.0
 46
0.0
 47
0.0
 48
0.0
140
0.18
141
0.09
142
0.0
143
25.399999999999999
144
1.0
145
0.0
146
1.0
147
0.09
 71
     0
 72
     0
 73
     1
 74
     1
 75
     0
 76
     0
 77
     0
 78
     0
170
     0
171
     2
172
     0
173
     0
174
     0
175
     0
176
     0
177
     0
178
     0
  0
DIMSTYLE
  2
BYGG-025652$0$MASKIN
 70
     0
  3

  4

  5

  6

  7

 40
0.0
 41
3.0
 42
1.5
 43
10.0
 44
1.5
 45
0.0
 46
0.0
 47
0.0
 48
0.0
140
3.0
141
-5.0
142
0.0
143
25.399999999999999
144
-1.0
145
0.0
146
1.0
147
1.0
 71
     0
 72
     0
 73
     0
 74
     0
 75
     0
 76
     0
 77
     1
 78
     8
170
     0
171
     0
172
     1
173
     0
174
     0
175
     0
176
   256
177
   256
178
     2
  0
DIMSTYLE
  2
BYGG-014411$0$MASKIN
 70
     0
  3

  4

  5

  6

  7

 40
0.0
 41
3.0
 42
1.5
 43
10.0
 44
1.5
 45
0.0
 46
0.0
 47
0.0
 48
0.0
140
3.0
141
-5.0
142
0.0
143
25.399999999999999
144
-1.0
145
0.0
146
1.0
147
1.0
 71
     0
 72
     0
 73
     0
 74
     0
 75
     0
 76
     0
 77
     1
 78
     8
170
     0
171
     0
172
     1
173
     0
174
     0
175
     0
176
   256
177
   256
178
   256
  0
DIMSTYLE
  2
BYGG-014411$0$STANDARD
 70
     0
  3

  4

  5

  6

  7

 40
1.0
 41
0.18
 42
0.0625
 43
0.38
 44
0.18
 45
0.0
 46
0.0
 47
0.0
 48
0.0
140
0.18
141
0.09
142
0.0
143
25.399999999999999
144
1.0
145
0.0
146
1.0
147
0.09
 71
     0
 72
     0
 73
     1
 74
     1
 75
     0
 76
     0
 77
     0
 78
     0
170
     0
171
     2
172
     0
173
     0
174
     0
175
     0
176
     0
177
     0
178
     0
  0
DIMSTYLE
  2
BYGG-031173$0$STANDARD
 70
     0
  3

  4

  5

  6

  7

 40
1.0
 41
0.18
 42
0.0625
 43
0.38
 44
0.18
 45
0.0
 46
0.0
 47
0.0
 48
0.0
140
0.18
141
0.09
142
0.0
143
25.399999999999999
144
1.0
145
0.0
146
1.0
147
0.09
 71
     0
 72
     0
 73
     1
 74
     1
 75
     0
 76
     0
 77
     0
 78
     0
170
     0
171
     2
172
     0
173
     0
174
     0
175
     0
176
     0
177
     0
178
     0
  0
DIMSTYLE
  2
BYGG-031173$0$MASKIN
 70
     0
  3

  4

  5

  6

  7

 40
0.0
 41
3.0
 42
1.5
 43
10.0
 44
1.5
 45
0.0
 46
0.0
 47
0.0
 48
0.0
140
3.0
141
-5.0
142
0.0
143
25.399999999999999
144
-1.0
145
0.0
146
1.0
147
1.0
 71
     0
 72
     0
 73
     0
 74
     0
 75
     0
 76
     0
 77
     1
 78
     8
170
     0
171
     0
172
     1
173
     0
174
     0
175
     0
176
   256
177
   256
178
     2
  0
DIMSTYLE
  2
BYGG-024893$0$STANDARD
 70
     0
  3

  4

  5

  6

  7

 40
1.0
 41
0.18
 42
0.0625
 43
0.38
 44
0.18
 45
0.0
 46
0.0
 47
0.0
 48
0.0
140
0.18
141
0.09
142
0.0
143
25.399999999999999
144
1.0
145
0.0
146
1.0
147
0.09
 71
     0
 72
     0
 73
     1
 74
     1
 75
     0
 76
     0
 77
     0
 78
     0
170
     0
171
     2
172
     0
173
     0
174
     0
175
     0
176
     0
177
     0
178
     0
  0
DIMSTYLE
  2
BYGG-024893$0$MASKIN
 70
     0
  3

  4

  5

  6

  7

 40
0.0
 41
3.0
 42
1.5
 43
10.0
 44
1.5
 45
0.0
 46
0.0
 47
0.0
 48
0.0
140
3.0
141
-5.0
142
0.0
143
25.399999999999999
144
-1.0
145
0.0
146
1.0
147
1.0
 71
     0
 72
     0
 73
     0
 74
     0
 75
     0
 76
     0
 77
     1
 78
     8
170
     0
171
     0
172
     1
173
     0
174
     0
175
     0
176
   256
177
   256
178
     2
  0
DIMSTYLE
  2
BYGG-024893$0$ANNOTATIVE
 70
     0
  3

  4

  5

  6

  7

 40
1.0
 41
0.18
 42
0.0625
 43
0.38
 44
0.18
 45
0.0
 46
0.0
 47
0.0
 48
0.0
140
0.18
141
0.09
142
0.0
143
25.399999999999999
144
1.0
145
0.0
146
1.0
147
0.09
 71
     0
 72
     0
 73
     1
 74
     1
 75
     0
 76
     0
 77
     0
 78
     0
170
     0
171
     2
172
     0
173
     0
174
     0
175
     0
176
     0
177
     0
178
     0
  0
DIMSTYLE
  2
BYGG-024892$0$STANDARD
 70
     0
  3

  4

  5

  6

  7

 40
1.0
 41
0.18
 42
0.0625
 43
0.38
 44
0.18
 45
0.0
 46
0.0
 47
0.0
 48
0.0
140
0.18
141
0.09
142
0.0
143
25.399999999999999
144
1.0
145
0.0
146
1.0
147
0.09
 71
     0
 72
     0
 73
     1
 74
     1
 75
     0
 76
     0
 77
     0
 78
     0
170
     0
171
     2
172
     0
173
     0
174
     0
175
     0
176
     0
177
     0
178
     0
  0
DIMSTYLE
  2
BYGG-024892$0$MASKIN
 70
     0
  3

  4

  5

  6

  7

 40
0.0
 41
3.0
 42
1.5
 43
10.0
 44
1.5
 45
0.0
 46
0.0
 47
0.0
 48
0.0
140
3.0
141
-5.0
142
0.0
143
25.399999999999999
144
-1.0
145
0.0
146
1.0
147
1.0
 71
     0
 72
     0
 73
     0
 74
     0
 75
     0
 76
     0
 77
     1
 78
     8
170
     0
171
     0
172
     1
173
     0
174
     0
175
     0
176
   256
177
   256
178
     2
  0
DIMSTYLE
  2
BYGG-024892$0$ANNOTATIVE
 70
     0
  3

  4

  5

  6

  7

 40
1.0
 41
0.18
 42
0.0625
 43
0.38
 44
0.18
 45
0.0
 46
0.0
 47
0.0
 48
0.0
140
0.18
141
0.09
142
0.0
143
25.399999999999999
144
1.0
145
0.0
146
1.0
147
0.09
 71
     0
 72
     0
 73
     1
 74
     1
 75
     0
 76
     0
 77
     0
 78
     0
170
     0
171
     2
172
     0
173
     0
174
     0
175
     0
176
     0
177
     0
178
     0
  0
DIMSTYLE
  2
BYGG-020317$0$STANDARD
 70
     0
  3

  4

  5

  6

  7

 40
1.0
 41
0.18
 42
0.0625
 43
0.38
 44
0.18
 45
0.0
 46
0.0
 47
0.0
 48
0.0
140
0.18
141
0.09
142
0.0
143
25.399999999999999
144
1.0
145
0.0
146
1.0
147
0.09
 71
     0
 72
     0
 73
     1
 74
     1
 75
     0
 76
     0
 77
     0
 78
     0
170
     0
171
     2
172
     0
173
     0
174
     0
175
     0
176
     0
177
     0
178
     0
  0
DIMSTYLE
  2
BYGG-020317$0$MASKIN
 70
     0
  3

  4

  5

  6

  7

 40
0.0
 41
3.0
 42
1.5
 43
10.0
 44
1.5
 45
0.0
 46
0.0
 47
0.0
 48
0.0
140
3.0
141
-5.0
142
0.0
143
25.399999999999999
144
-1.0
145
0.0
146
1.0
147
1.0
 71
     0
 72
     0
 73
     0
 74
     0
 75
     0
 76
     0
 77
     1
 78
     8
170
     0
171
     0
172
     1
173
     0
174
     0
175
     0
176
   256
177
   256
178
     2
  0
DIMSTYLE
  2
BYGG-021377$0$MASKIN
 70
     0
  3

  4

  5

  6

  7

 40
1.0
 41
3.0
 42
1.5
 43
10.0
 44
1.5
 45
0.0
 46
0.0
 47
0.0
 48
0.0
140
3.0
141
-5.0
142
0.0
143
25.399999999999999
144
1.0
145
0.0
146
1.0
147
0.09
 71
     0
 72
     0
 73
     0
 74
     0
 75
     0
 76
     0
 77
     1
 78
     8
170
     0
171
     0
172
     0
173
     0
174
     0
175
     0
176
   256
177
   256
178
   256
  0
DIMSTYLE
  2
BYGG-021377$0$STANDARD
 70
     0
  3

  4

  5

  6

  7

 40
1.0
 41
0.18
 42
0.0625
 43
0.38
 44
0.18
 45
0.0
 46
0.0
 47
0.0
 48
0.0
140
0.18
141
0.09
142
0.0
143
25.399999999999999
144
1.0
145
0.0
146
1.0
147
0.09
 71
     0
 72
     0
 73
     1
 74
     1
 75
     0
 76
     0
 77
     0
 78
     0
170
     0
171
     2
172
     0
173
     0
174
     0
175
     0
176
     0
177
     0
178
     0
  0
DIMSTYLE
  2
BYGG-014406$0$MASKIN
 70
     0
  3

  4

  5

  6

  7

 40
0.0
 41
3.0
 42
1.5
 43
10.0
 44
1.5
 45
0.0
 46
0.0
 47
0.0
 48
0.0
140
3.0
141
-5.0
142
0.0
143
25.399999999999999
144
-1.0
145
0.0
146
1.0
147
1.0
 71
     0
 72
     0
 73
     0
 74
     0
 75
     0
 76
     0
 77
     1
 78
     8
170
     0
171
     0
172
     1
173
     0
174
     0
175
     0
176
   256
177
   256
178
   256
  0
DIMSTYLE
  2
BYGG-014406$0$STANDARD
 70
     0
  3

  4

  5

  6

  7

 40
1.0
 41
0.18
 42
0.0625
 43
0.38
 44
0.18
 45
0.0
 46
0.0
 47
0.0
 48
0.0
140
0.18
141
0.09
142
0.0
143
25.399999999999999
144
1.0
145
0.0
146
1.0
147
0.09
 71
     0
 72
     0
 73
     1
 74
     1
 75
     0
 76
     0
 77
     0
 78
     0
170
     0
171
     2
172
     0
173
     0
174
     0
175
     0
176
     0
177
     0
178
     0
  0
ENDTAB
  0
ENDSEC
  0
SECTION
  2
BLOCKS
  0
BLOCK
  8
0
  2
$MODEL_SPACE
 70
     0
 10
0.0
 20
0.0
 30
0.0
  3
$MODEL_SPACE
  1

  0
ENDBLK
  5
D
  8
0
  0
BLOCK
 67
     1
  8
0
  2
$PAPER_SPACE
 70
     0
 10
0.0
 20
0.0
 30
0.0
  3
$PAPER_SPACE
  1

  0
ENDBLK
  5
12
 67
     1
  8
0
  0
BLOCK
  8
0
  2
*D76
 70
     1
 10
0.0
 20
0.0
 30
0.0
  3
*D76
  1

  0
LINE
  5
1177
  8
SAPA_MATT
 10
151.99969053619671
 20
12.97729794471905
 30
0.0
 11
151.99969053619671
 21
-7.5000000838686702
 31
0.0
  0
LINE
  5
1178
  8
SAPA_MATT
 10
-48.000000000000178
 20
14.49999842198093
 30
0.0
 11
-48.000000000000178
 21
-7.5000000838686702
 31
0.0
  0
LINE
  5
1179
  8
SAPA_MATT
 10
148.99969053619671
 20
-6.0000000838686702
 30
0.0
 11
-45.000000000000178
 21
-6.0000000838686702
 31
0.0
  0
SOLID
  5
117A
  8
SAPA_MATT
 10
148.99969053619671
 20
-5.5000000838686702
 30
0.0
 11
148.99969053619671
 21
-6.5000000838686702
 31
0.0
 12
151.99969053619671
 22
-6.0000000838686702
 32
0.0
 13
151.99969053619671
 23
-6.0000000838686702
 33
0.0
  0
SOLID
  5
117B
  8
SAPA_MATT
 10
-45.000000000000178
 20
-5.5000000838686702
 30
0.0
 11
-45.000000000000178
 21
-6.5000000838686702
 31
0.0
 12
-48.000000000000178
 22
-6.0000000838686702
 32
0.0
 13
-48.000000000000178
 23
-6.0000000838686702
 33
0.0
  0
INSERT
  5
117C
  8
0
  2
*U85
 10
0.0
 20
0.0
 30
0.0
  0
POINT
  5
117D
  8
DEFPOINTS
 62
     0
 10
151.99969053619671
 20
14.47729794471905
 30
0.0
  0
POINT
  5
117E
  8
DEFPOINTS
 62
     0
 10
-48.000000000000178
 20
15.99999842198093
 30
0.0
  0
POINT
  5
117F
  8
DEFPOINTS
 62
     0
 10
-48.000000000000178
 20
-6.0000000838686702
 30
0.0
  0
ENDBLK
  5
113F
  8
0
  0
BLOCK
  8
0
  2
*D77
 70
     1
 10
0.0
 20
0.0
 30
0.0
  3
*D77
  1

  0
LINE
  5
116C
  8
SAPA_MATT
 10
-48.000000000000178
 20
14.49999842198093
 30
0.0
 11
-48.000000000000178
 21
-7.5000000838686702
 31
0.0
  0
LINE
  5
116D
  8
SAPA_MATT
 10
-52.999999999999858
 20
14.499998374939141
 30
0.0
 11
-52.999999999999858
 21
-7.5000000838686702
 31
0.0
  0
LINE
  5
116E
  8
SAPA_MATT
 10
-45.000000000000178
 20
-6.0000000838686702
 30
0.0
 11
-42.000000000000178
 21
-6.0000000838686702
 31
0.0
  0
LINE
  5
116F
  8
SAPA_MATT
 10
-55.999999999999858
 20
-6.0000000838686702
 30
0.0
 11
-58.999999999999858
 21
-6.0000000838686702
 31
0.0
  0
LINE
  5
1170
  8
SAPA_MATT
 10
-48.000000000000178
 20
-6.0000000838686702
 30
0.0
 11
-52.999999999999858
 21
-6.0000000838686702
 31
0.0
  0
SOLID
  5
1171
  8
SAPA_MATT
 10
-45.000000000000178
 20
-5.5000000838686702
 30
0.0
 11
-45.000000000000178
 21
-6.5000000838686702
 31
0.0
 12
-48.000000000000178
 22
-6.0000000838686702
 32
0.0
 13
-48.000000000000178
 23
-6.0000000838686702
 33
0.0
  0
SOLID
  5
1172
  8
SAPA_MATT
 10
-55.999999999999858
 20
-5.5000000838686702
 30
0.0
 11
-55.999999999999858
 21
-6.5000000838686702
 31
0.0
 12
-52.999999999999858
 22
-6.0000000838686702
 32
0.0
 13
-52.999999999999858
 23
-6.0000000838686702
 33
0.0
  0
INSERT
  5
1173
  8
0
  2
*U84
 10
0.0
 20
0.0
 30
0.0
  0
POINT
  5
1174
  8
DEFPOINTS
 62
     0
 10
-48.000000000000178
 20
15.99999842198093
 30
0.0
  0
POINT
  5
1175
  8
DEFPOINTS
 62
     0
 10
-52.999999999999858
 20
15.999998374939141
 30
0.0
  0
POINT
  5
1176
  8
DEFPOINTS
 62
     0
 10
-52.999999999999858
 20
-6.0000000838686702
 30
0.0
  0
ENDBLK
  5
114B
  8
0
  0
BLOCK
  8
0
  2
*D78
 70
     1
 10
0.0
 20
0.0
 30
0.0
  3
*D78
  1

  0
LINE
  5
1163
  8
SAPA_MATT
 10
-52.999999999999858
 20
14.499998374939141
 30
0.0
 11
-52.999999999999858
 21
-7.5000000838686844
 31
0.0
  0
LINE
  5
1164
  8
SAPA_MATT
 10
-141.99999999978809
 20
12.999999869043419
 30
0.0
 11
-141.99999999978809
 21
-7.5000000838686844
 31
0.0
  0
LINE
  5
1165
  8
SAPA_MATT
 10
-55.999999999999858
 20
-6.0000000838686844
 30
0.0
 11
-138.99999999978809
 21
-6.0000000838686844
 31
0.0
  0
SOLID
  5
1166
  8
SAPA_MATT
 10
-55.999999999999858
 20
-5.5000000838686844
 30
0.0
 11
-55.999999999999858
 21
-6.5000000838686844
 31
0.0
 12
-52.999999999999858
 22
-6.0000000838686844
 32
0.0
 13
-52.999999999999858
 23
-6.0000000838686844
 33
0.0
  0
SOLID
  5
1167
  8
SAPA_MATT
 10
-138.99999999978809
 20
-5.5000000838686844
 30
0.0
 11
-138.99999999978809
 21
-6.5000000838686844
 31
0.0
 12
-141.99999999978809
 22
-6.0000000838686844
 32
0.0
 13
-141.99999999978809
 23
-6.0000000838686844
 33
0.0
  0
INSERT
  5
1168
  8
0
  2
*U83
 10
0.0
 20
0.0
 30
0.0
  0
POINT
  5
1169
  8
DEFPOINTS
 62
     0
 10
-52.999999999999858
 20
15.999998374939141
 30
0.0
  0
POINT
  5
116A
  8
DEFPOINTS
 62
     0
 10
-141.99999999978809
 20
14.499999869043419
 30
0.0
  0
POINT
  5
116B
  8
DEFPOINTS
 62
     0
 10
-141.99999999978809
 20
-6.0000000838686844
 30
0.0
  0
ENDBLK
  5
1159
  8
0
  0
BLOCK
  8
0
  2
*U79
 70
     1
 10
0.0
 20
0.0
 30
0.0
  3
*U79
  1

  0
SOLID
  5
1508
  8
SAPA_PROFIL
  6
CONTINUOUS
 62
     2
 10
-64.068492251827237
 20
94.875620673246289
 30
0.0
 11
-64.245268947123876
 21
94.802397368542927
 31
0.0
 12
-63.891715556530599
 22
94.802397368542927
 32
0.0
 13
-63.891715556530599
 23
94.802397368542927
 33
0.0
210
0.0
220
0.0
230
1.0
  0
SOLID
  5
1509
  8
SAPA_PROFIL
  6
CONTINUOUS
 62
     2
 10
-64.245268947123876
 20
94.802397368542927
 30
0.0
 11
-64.318492251827223
 21
94.625620673246289
 31
0.0
 12
-63.81849225182723
 22
94.625620673246289
 32
0.0
 13
-63.81849225182723
 23
94.625620673246289
 33
0.0
210
0.0
220
0.0
230
1.0
  0
SOLID
  5
150A
  8
SAPA_PROFIL
  6
CONTINUOUS
 62
     2
 10
64.245268947123876
 20
94.802397368542927
 30
0.0
 11
63.891715556530599
 21
94.802397368542927
 31
0.0
 12
63.81849225182723
 22
94.625620673246289
 32
0.0
 13
63.81849225182723
 23
94.625620673246289
 33
0.0
210
0.0
220
0.0
230
-1.0
  0
SOLID
  5
150B
  8
SAPA_PROFIL
  6
CONTINUOUS
 62
     2
 10
64.245268947123876
 20
94.44884397794965
 30
0.0
 11
63.891715556530599
 21
94.44884397794965
 31
0.0
 12
64.068492251827237
 22
94.375620673246289
 32
0.0
 13
64.068492251827237
 23
94.375620673246289
 33
0.0
210
0.0
220
0.0
230
-1.0
  0
SOLID
  5
150C
  8
SAPA_PROFIL
  6
CONTINUOUS
 62
     2
 10
-64.318492251827223
 20
94.625620673246289
 30
0.0
 11
-64.245268947123876
 21
94.44884397794965
 31
0.0
 12
-63.891715556530599
 22
94.44884397794965
 32
0.0
 13
-63.891715556530599
 23
94.44884397794965
 33
0.0
210
0.0
220
0.0
230
1.0
  0
SOLID
  5
150D
  8
SAPA_PROFIL
  6
CONTINUOUS
 62
     2
 10
64.318492251827223
 20
94.625620673246289
 30
0.0
 11
63.81849225182723
 21
94.625620673246289
 31
0.0
 12
63.891715556530599
 22
94.44884397794965
 32
0.0
 13
63.891715556530599
 23
94.44884397794965
 33
0.0
210
0.0
220
0.0
230
-1.0
  0
LINE
  5
150E
  8
SAPA_PROFIL
  6
CONTINUOUS
 62
     2
 10
-64.068492251827237
 20
94.875620673246289
 30
0.0
 11
-64.245268947123876
 21
94.802397368542927
 31
0.0
  0
LINE
  5
150F
  8
SAPA_PROFIL
  6
CONTINUOUS
 62
     2
 10
-63.891715556530599
 20
94.802397368542927
 30
0.0
 11
-64.068492251827237
 21
94.875620673246289
 31
0.0
  0
LINE
  5
1510
  8
SAPA_PROFIL
  6
CONTINUOUS
 62
     2
 10
-64.245268947123876
 20
94.802397368542927
 30
0.0
 11
-64.318492251827223
 21
94.625620673246289
 31
0.0
  0
LINE
  5
1511
  8
SAPA_PROFIL
  6
CONTINUOUS
 62
     2
 10
-63.891715556530599
 20
94.802397368542927
 30
0.0
 11
-63.81849225182723
 21
94.625620673246289
 31
0.0
  0
LINE
  5
1512
  8
SAPA_PROFIL
  6
CONTINUOUS
 62
     2
 10
-63.891715556530599
 20
94.44884397794965
 30
0.0
 11
-64.068492251827237
 21
94.375620673246289
 31
0.0
  0
LINE
  5
1513
  8
SAPA_PROFIL
  6
CONTINUOUS
 62
     2
 10
-64.068492251827237
 20
94.375620673246289
 30
0.0
 11
-64.245268947123876
 21
94.44884397794965
 31
0.0
  0
LINE
  5
1514
  8
SAPA_PROFIL
  6
CONTINUOUS
 62
     2
 10
-64.318492251827223
 20
94.625620673246289
 30
0.0
 11
-64.245268947123876
 21
94.44884397794965
 31
0.0
  0
LINE
  5
1515
  8
SAPA_PROFIL
  6
CONTINUOUS
 62
     2
 10
-63.81849225182723
 20
94.625620673246289
 30
0.0
 11
-63.891715556530599
 21
94.44884397794965
 31
0.0
  0
ENDBLK
  5
1517
  8
0
  0
BLOCK
  8
0
  2
*U80
 70
     1
 10
0.0
 20
0.0
 30
0.0
  3
*U80
  1

  0
SOLID
  5
170B
  8
SAPA_PROFIL
  6
CONTINUOUS
 62
     2
 10
-58.831507497431907
 20
19.43265988657431
 30
0.1
 11
-59.008284192728553
 21
19.359436581870941
 31
0.1
 12
-58.654730802135269
 22
19.359436581870941
 32
0.1
 13
-58.654730802135269
 23
19.359436581870941
 33
0.1
210
0.0
220
0.0
230
1.0
  0
SOLID
  5
170C
  8
SAPA_PROFIL
  6
CONTINUOUS
 62
     2
 10
-59.008284192728553
 20
19.359436581870941
 30
0.1
 11
-59.081507497431907
 21
19.18265988657431
 31
0.1
 12
-58.581507497431922
 22
19.18265988657431
 32
0.1
 13
-58.581507497431922
 23
19.18265988657431
 33
0.1
210
0.0
220
0.0
230
1.0
  0
SOLID
  5
170D
  8
SAPA_PROFIL
  6
CONTINUOUS
 62
     2
 10
59.008284192728553
 20
19.359436581870941
 30
-0.1
 11
58.654730802135269
 21
19.359436581870941
 31
-0.1
 12
58.581507497431922
 22
19.18265988657431
 32
-0.1
 13
58.581507497431922
 23
19.18265988657431
 33
-0.1
210
0.0
220
0.0
230
-1.0
  0
SOLID
  5
170E
  8
SAPA_PROFIL
  6
CONTINUOUS
 62
     2
 10
59.008284192728553
 20
19.005883191277668
 30
-0.1
 11
58.654730802135269
 21
19.005883191277668
 31
-0.1
 12
58.831507497431907
 22
18.93265988657431
 32
-0.1
 13
58.831507497431907
 23
18.93265988657431
 33
-0.1
210
0.0
220
0.0
230
-1.0
  0
SOLID
  5
170F
  8
SAPA_PROFIL
  6
CONTINUOUS
 62
     2
 10
-59.081507497431907
 20
19.18265988657431
 30
0.1
 11
-59.008284192728553
 21
19.005883191277668
 31
0.1
 12
-58.654730802135269
 22
19.005883191277668
 32
0.1
 13
-58.654730802135269
 23
19.005883191277668
 33
0.1
210
0.0
220
0.0
230
1.0
  0
SOLID
  5
1710
  8
SAPA_PROFIL
  6
CONTINUOUS
 62
     2
 10
59.081507497431907
 20
19.18265988657431
 30
-0.1
 11
58.581507497431922
 21
19.18265988657431
 31
-0.1
 12
58.654730802135269
 22
19.005883191277668
 32
-0.1
 13
58.654730802135269
 23
19.005883191277668
 33
-0.1
210
0.0
220
0.0
230
-1.0
  0
LINE
  5
1711
  8
SAPA_PROFIL
  6
CONTINUOUS
 62
     2
 10
-58.831507497431907
 20
19.43265988657431
 30
0.1
 11
-59.008284192728553
 21
19.359436581870941
 31
0.1
  0
LINE
  5
1712
  8
SAPA_PROFIL
  6
CONTINUOUS
 62
     2
 10
-58.654730802135269
 20
19.359436581870941
 30
0.1
 11
-58.831507497431907
 21
19.43265988657431
 31
0.1
  0
LINE
  5
1713
  8
SAPA_PROFIL
  6
CONTINUOUS
 62
     2
 10
-59.008284192728553
 20
19.359436581870941
 30
0.1
 11
-59.081507497431907
 21
19.18265988657431
 31
0.1
  0
LINE
  5
1714
  8
SAPA_PROFIL
  6
CONTINUOUS
 62
     2
 10
-58.654730802135269
 20
19.359436581870941
 30
0.1
 11
-58.581507497431922
 21
19.18265988657431
 31
0.1
  0
LINE
  5
1715
  8
SAPA_PROFIL
  6
CONTINUOUS
 62
     2
 10
-58.654730802135269
 20
19.005883191277668
 30
0.1
 11
-58.831507497431907
 21
18.93265988657431
 31
0.1
  0
LINE
  5
1716
  8
SAPA_PROFIL
  6
CONTINUOUS
 62
     2
 10
-58.831507497431907
 20
18.93265988657431
 30
0.1
 11
-59.008284192728553
 21
19.005883191277668
 31
0.1
  0
LINE
  5
1717
  8
SAPA_PROFIL
  6
CONTINUOUS
 62
     2
 10
-59.081507497431907
 20
19.18265988657431
 30
0.1
 11
-59.008284192728553
 21
19.005883191277668
 31
0.1
  0
LINE
  5
1718
  8
SAPA_PROFIL
  6
CONTINUOUS
 62
     2
 10
-58.581507497431922
 20
19.18265988657431
 30
0.1
 11
-58.654730802135269
 21
19.005883191277668
 31
0.1
  0
ENDBLK
  5
171A
  8
0
  0
BLOCK
  8
0
  2
*U81
 70
     1
 10
0.0
 20
0.0
 30
0.0
  3
*U81
  1

  0
SOLID
  5
1A7A
  8
SAPA_PROFIL
  6
CONTINUOUS
 62
     2
 10
-64.068492251827237
 20
94.875620673246289
 30
0.0
 11
-64.245268947123876
 21
94.802397368542927
 31
0.0
 12
-63.891715556530599
 22
94.802397368542927
 32
0.0
 13
-63.891715556530599
 23
94.802397368542927
 33
0.0
210
0.0
220
0.0
230
1.0
  0
SOLID
  5
1A7B
  8
SAPA_PROFIL
  6
CONTINUOUS
 62
     2
 10
-64.245268947123876
 20
94.802397368542927
 30
0.0
 11
-64.318492251827223
 21
94.625620673246289
 31
0.0
 12
-63.81849225182723
 22
94.625620673246289
 32
0.0
 13
-63.81849225182723
 23
94.625620673246289
 33
0.0
210
0.0
220
0.0
230
1.0
  0
SOLID
  5
1A7C
  8
SAPA_PROFIL
  6
CONTINUOUS
 62
     2
 10
64.245268947123876
 20
94.802397368542927
 30
0.0
 11
63.891715556530599
 21
94.802397368542927
 31
0.0
 12
63.81849225182723
 22
94.625620673246289
 32
0.0
 13
63.81849225182723
 23
94.625620673246289
 33
0.0
210
0.0
220
0.0
230
-1.0
  0
SOLID
  5
1A7D
  8
SAPA_PROFIL
  6
CONTINUOUS
 62
     2
 10
64.245268947123876
 20
94.44884397794965
 30
0.0
 11
63.891715556530599
 21
94.44884397794965
 31
0.0
 12
64.068492251827237
 22
94.375620673246289
 32
0.0
 13
64.068492251827237
 23
94.375620673246289
 33
0.0
210
0.0
220
0.0
230
-1.0
  0
SOLID
  5
1A7E
  8
SAPA_PROFIL
  6
CONTINUOUS
 62
     2
 10
-64.318492251827223
 20
94.625620673246289
 30
0.0
 11
-64.245268947123876
 21
94.44884397794965
 31
0.0
 12
-63.891715556530599
 22
94.44884397794965
 32
0.0
 13
-63.891715556530599
 23
94.44884397794965
 33
0.0
210
0.0
220
0.0
230
1.0
  0
SOLID
  5
1A7F
  8
SAPA_PROFIL
  6
CONTINUOUS
 62
     2
 10
64.318492251827223
 20
94.625620673246289
 30
0.0
 11
63.81849225182723
 21
94.625620673246289
 31
0.0
 12
63.891715556530599
 22
94.44884397794965
 32
0.0
 13
63.891715556530599
 23
94.44884397794965
 33
0.0
210
0.0
220
0.0
230
-1.0
  0
LINE
  5
1A80
  8
SAPA_PROFIL
  6
CONTINUOUS
 62
     2
 10
-64.068492251827237
 20
94.875620673246289
 30
0.0
 11
-64.245268947123876
 21
94.802397368542927
 31
0.0
  0
LINE
  5
1A81
  8
SAPA_PROFIL
  6
CONTINUOUS
 62
     2
 10
-63.891715556530599
 20
94.802397368542927
 30
0.0
 11
-64.068492251827237
 21
94.875620673246289
 31
0.0
  0
LINE
  5
1A82
  8
SAPA_PROFIL
  6
CONTINUOUS
 62
     2
 10
-64.245268947123876
 20
94.802397368542927
 30
0.0
 11
-64.318492251827223
 21
94.625620673246289
 31
0.0
  0
LINE
  5
1A83
  8
SAPA_PROFIL
  6
CONTINUOUS
 62
     2
 10
-63.891715556530599
 20
94.802397368542927
 30
0.0
 11
-63.81849225182723
 21
94.625620673246289
 31
0.0
  0
LINE
  5
1A84
  8
SAPA_PROFIL
  6
CONTINUOUS
 62
     2
 10
-63.891715556530599
 20
94.44884397794965
 30
0.0
 11
-64.068492251827237
 21
94.375620673246289
 31
0.0
  0
LINE
  5
1A85
  8
SAPA_PROFIL
  6
CONTINUOUS
 62
     2
 10
-64.068492251827237
 20
94.375620673246289
 30
0.0
 11
-64.245268947123876
 21
94.44884397794965
 31
0.0
  0
LINE
  5
1A86
  8
SAPA_PROFIL
  6
CONTINUOUS
 62
     2
 10
-64.318492251827223
 20
94.625620673246289
 30
0.0
 11
-64.245268947123876
 21
94.44884397794965
 31
0.0
  0
LINE
  5
1A87
  8
SAPA_PROFIL
  6
CONTINUOUS
 62
     2
 10
-63.81849225182723
 20
94.625620673246289
 30
0.0
 11
-63.891715556530599
 21
94.44884397794965
 31
0.0
  0
ENDBLK
  5
1A89
  8
0
  0
BLOCK
  8
0
  2
*U82
 70
     1
 10
0.0
 20
0.0
 30
0.0
  3
*U82
  1

  0
SOLID
  5
1C7D
  8
SAPA_PROFIL
  6
CONTINUOUS
 62
     2
 10
-58.831507497431907
 20
19.43265988657431
 30
0.1
 11
-59.008284192728553
 21
19.359436581870941
 31
0.1
 12
-58.654730802135269
 22
19.359436581870941
 32
0.1
 13
-58.654730802135269
 23
19.359436581870941
 33
0.1
210
0.0
220
0.0
230
1.0
  0
SOLID
  5
1C7E
  8
SAPA_PROFIL
  6
CONTINUOUS
 62
     2
 10
-59.008284192728553
 20
19.359436581870941
 30
0.1
 11
-59.081507497431907
 21
19.18265988657431
 31
0.1
 12
-58.581507497431922
 22
19.18265988657431
 32
0.1
 13
-58.581507497431922
 23
19.18265988657431
 33
0.1
210
0.0
220
0.0
230
1.0
  0
SOLID
  5
1C7F
  8
SAPA_PROFIL
  6
CONTINUOUS
 62
     2
 10
59.008284192728553
 20
19.359436581870941
 30
-0.1
 11
58.654730802135269
 21
19.359436581870941
 31
-0.1
 12
58.581507497431922
 22
19.18265988657431
 32
-0.1
 13
58.581507497431922
 23
19.18265988657431
 33
-0.1
210
0.0
220
0.0
230
-1.0
  0
SOLID
  5
1C80
  8
SAPA_PROFIL
  6
CONTINUOUS
 62
     2
 10
59.008284192728553
 20
19.005883191277668
 30
-0.1
 11
58.654730802135269
 21
19.005883191277668
 31
-0.1
 12
58.831507497431907
 22
18.93265988657431
 32
-0.1
 13
58.831507497431907
 23
18.93265988657431
 33
-0.1
210
0.0
220
0.0
230
-1.0
  0
SOLID
  5
1C81
  8
SAPA_PROFIL
  6
CONTINUOUS
 62
     2
 10
-59.081507497431907
 20
19.18265988657431
 30
0.1
 11
-59.008284192728553
 21
19.005883191277668
 31
0.1
 12
-58.654730802135269
 22
19.005883191277668
 32
0.1
 13
-58.654730802135269
 23
19.005883191277668
 33
0.1
210
0.0
220
0.0
230
1.0
  0
SOLID
  5
1C82
  8
SAPA_PROFIL
  6
CONTINUOUS
 62
     2
 10
59.081507497431907
 20
19.18265988657431
 30
-0.1
 11
58.581507497431922
 21
19.18265988657431
 31
-0.1
 12
58.654730802135269
 22
19.005883191277668
 32
-0.1
 13
58.654730802135269
 23
19.005883191277668
 33
-0.1
210
0.0
220
0.0
230
-1.0
  0
LINE
  5
1C83
  8
SAPA_PROFIL
  6
CONTINUOUS
 62
     2
 10
-58.831507497431907
 20
19.43265988657431
 30
0.1
 11
-59.008284192728553
 21
19.359436581870941
 31
0.1
  0
LINE
  5
1C84
  8
SAPA_PROFIL
  6
CONTINUOUS
 62
     2
 10
-58.654730802135269
 20
19.359436581870941
 30
0.1
 11
-58.831507497431907
 21
19.43265988657431
 31
0.1
  0
LINE
  5
1C85
  8
SAPA_PROFIL
  6
CONTINUOUS
 62
     2
 10
-59.008284192728553
 20
19.359436581870941
 30
0.1
 11
-59.081507497431907
 21
19.18265988657431
 31
0.1
  0
LINE
  5
1C86
  8
SAPA_PROFIL
  6
CONTINUOUS
 62
     2
 10
-58.654730802135269
 20
19.359436581870941
 30
0.1
 11
-58.581507497431922
 21
19.18265988657431
 31
0.1
  0
LINE
  5
1C87
  8
SAPA_PROFIL
  6
CONTINUOUS
 62
     2
 10
-58.654730802135269
 20
19.005883191277668
 30
0.1
 11
-58.831507497431907
 21
18.93265988657431
 31
0.1
  0
LINE
  5
1C88
  8
SAPA_PROFIL
  6
CONTINUOUS
 62
     2
 10
-58.831507497431907
 20
18.93265988657431
 30
0.1
 11
-59.008284192728553
 21
19.005883191277668
 31
0.1
  0
LINE
  5
1C89
  8
SAPA_PROFIL
  6
CONTINUOUS
 62
     2
 10
-59.081507497431907
 20
19.18265988657431
 30
0.1
 11
-59.008284192728553
 21
19.005883191277668
 31
0.1
  0
LINE
  5
1C8A
  8
SAPA_PROFIL
  6
CONTINUOUS
 62
     2
 10
-58.581507497431922
 20
19.18265988657431
 30
0.1
 11
-58.654730802135269
 21
19.005883191277668
 31
0.1
  0
ENDBLK
  5
1C8C
  8
0
  0
BLOCK
  8
0
  2
*U83
 70
     1
 10
0.0
 20
0.0
 30
0.0
  3
*U83
  1

  0
TEXT
  5
1EF2
  8
SAPA_MATT
 62
     2
 10
-99.70739021839664
 20
-5.0000000838686844
 30
0.0
 40
3.0
  1
89
  7
ISO
  0
ENDBLK
  5
1EF4
  8
0
  0
BLOCK
  8
0
  2
*U84
 70
     1
 10
0.0
 20
0.0
 30
0.0
  3
*U84
  1

  0
TEXT
  5
1EF6
  8
SAPA_MATT
 62
     2
 10
-51.612132034355987
 20
-5.0000000838686702
 30
0.0
 40
3.0
  1
5
  7
ISO
  0
ENDBLK
  5
1EF8
  8
0
  0
BLOCK
  8
0
  2
*U85
 70
     1
 10
0.0
 20
0.0
 30
0.0
  3
*U85
  1

  0
TEXT
  5
1EFA
  8
SAPA_MATT
 62
     2
 10
48.886754716917167
 20
-4.9997048082781186
 30
0.0
 40
3.0
  1
200
  7
ISO
  0
ENDBLK
  5
1EFC
  8
0
  0
ENDSEC
  0
SECTION
  2
ENTITIES
  0
POLYLINE
  5
26D
  8
SAPA_LIGHT
 66
     1
 10
0.0
 20
0.0
 30
0.0
  0
VERTEX
  5
11A5
  8
SAPA_LIGHT
 10
-141.9999999997591
 20
22.949999922903551
 30
0.0
  0
VERTEX
  5
11A6
  8
SAPA_LIGHT
 10
-141.9999999997591
 20
14.0000000230566
 30
0.0
  0
VERTEX
  5
11A7
  8
SAPA_LIGHT
 10
-52.998523812148889
 20
14.00000002288254
 30
0.0
  0
VERTEX
  5
11A8
  8
SAPA_LIGHT
 10
-52.998523812148889
 20
22.699999997875349
 30
0.0
  0
VERTEX
  5
11A9
  8
SAPA_LIGHT
 10
-67.49852381608882
 20
22.699999997875469
 30
0.0
  0
VERTEX
  5
11AA
  8
SAPA_LIGHT
 10
-67.498523858852806
 20
91.299999988469153
 30
0.0
  0
VERTEX
  5
11AB
  8
SAPA_LIGHT
 10
-74.99999999999973
 20
91.299999988469153
 30
0.0
  0
VERTEX
  5
11AC
  8
SAPA_LIGHT
 10
-74.99999999999973
 20
99.999999984140914
 30
0.0
  0
VERTEX
  5
11AD
  8
SAPA_LIGHT
 10
-141.9999999997591
 20
99.999999984314982
 30
0.0
  0
VERTEX
  5
11AE
  8
SAPA_LIGHT
 10
-141.9999999997593
 20
69.835204086930162
 30
0.0
  0
SEQEND
  5
11AF
  8
SAPA_LIGHT
  0
POLYLINE
  5
26E
  8
SAPA_LIGHT
 66
     1
 10
0.0
 20
0.0
 30
0.0
 70
     1
  0
VERTEX
  5
11B0
  8
SAPA_LIGHT
 10
-148.9999999321297
 20
23.00421220296986
 30
0.0
  0
VERTEX
  5
11B1
  8
SAPA_LIGHT
 10
-148.9999999321297
 20
69.835204086930375
 30
0.0
  0
VERTEX
  5
11B2
  8
SAPA_LIGHT
 10
-125.0000000041924
 20
69.83520408692965
 30
0.0
  0
VERTEX
  5
11B3
  8
SAPA_LIGHT
 10
-125.0000000041924
 20
23.004212202969111
 30
0.0
  0
SEQEND
  5
11B4
  8
SAPA_LIGHT
  0
POLYLINE
  5
276
  8
SAPA_LIGHT
 66
     1
 10
0.0
 20
0.0
 30
0.0
  0
VERTEX
  5
11B5
  8
SAPA_LIGHT
 10
151.5709504107634
 20
23.004212286770951
 30
0.0
  0
VERTEX
  5
11B6
  8
SAPA_LIGHT
 10
151.5709504107634
 20
13.99999991613174
 30
0.0
  0
VERTEX
  5
11B7
  8
SAPA_LIGHT
 10
-48.000000000000171
 20
13.999999916131801
 30
0.0
  0
VERTEX
  5
11B8
  8
SAPA_LIGHT
 10
-48.000000000000171
 20
22.69999992458412
 30
0.0
  0
VERTEX
  5
11B9
  8
SAPA_LIGHT
 10
-55.500000000000178
 20
22.699999924584009
 30
0.0
  0
VERTEX
  5
11BA
  8
SAPA_LIGHT
 10
-55.499999999999957
 20
91.299999999304873
 30
0.0
  0
VERTEX
  5
11BB
  8
SAPA_LIGHT
 10
-70.000000003939874
 20
91.299999988469153
 30
0.0
  0
VERTEX
  5
11BC
  8
SAPA_LIGHT
 10
-70.000000003939874
 20
99.999999916131458
 30
0.0
  0
VERTEX
  5
11BD
  8
SAPA_LIGHT
 10
151.57095041076329
 20
99.999999916131401
 30
0.0
  0
VERTEX
  5
11BE
  8
SAPA_LIGHT
 10
151.5709504107634
 20
69.835204170730918
 30
0.0
  0
SEQEND
  5
11BF
  8
SAPA_LIGHT
  0
TEXT
  5
277
  8
SAPA_ARTIKELNR
 10
-101.74532263747579
 20
102.0522715847713
 30
-0.0000000048844204
 40
3.5
  1
86424
  7
ISO
  0
TEXT
  5
278
  8
SAPA_ARTIKELNR
 10
21.638022878495551
 20
102.0522715873845
 30
-0.0000000048844204
 40
3.5
  1
86016/42842
  7
ISO
  0
TEXT
  5
629
  8
SAPA_ARTIKELNR
 10
-62.115193304043977
 20
102.0522715873845
 30
-0.0000000048844204
 40
3.5
  1
86517
  7
ISO
  0
POLYLINE
  5
6B4
  8
SAPA_LIGHT
 66
     1
 10
0.0
 20
0.0
 30
0.0
 70
     1
  0
VERTEX
  5
11C0
  8
SAPA_LIGHT
 10
134.9953761136708
 20
23.004212286770869
 30
0.0
  0
VERTEX
  5
11C1
  8
SAPA_LIGHT
 10
134.9953761136708
 20
69.835204170731402
 30
0.0
  0
VERTEX
  5
11C2
  8
SAPA_LIGHT
 10
158.99537604160801
 20
69.835204170730663
 30
0.0
  0
VERTEX
  5
11C3
  8
SAPA_LIGHT
 10
158.99537604160801
 20
23.00421228677013
 30
0.0
  0
SEQEND
  5
11C4
  8
SAPA_LIGHT
  0
POLYLINE
  5
10E3
  8
SAPA_PROFIL
 66
     1
 10
0.0
 20
0.0
 30
0.0
 70
     1
  0
VERTEX
  5
1747
  8
SAPA_PROFIL
 10
145.2999558281997
 20
16.000004282119161
 30
0.0
 42
-0.4141600752745751
  0
VERTEX
  5
1748
  8
SAPA_PROFIL
 10
144.79995981215441
 20
15.500091615722109
 30
0.0
  0
VERTEX
  5
1749
  8
SAPA_PROFIL
 10
133.13501487037991
 20
15.500000013434541
 30
0.0
 42
-0.3693031405631438
  0
VERTEX
  5
174A
  8
SAPA_PROFIL
 10
132.59965954049781
 20
16.050863432538328
 30
0.0
  0
VERTEX
  5
174B
  8
SAPA_PROFIL
 10
132.59965954049781
 20
17.175048766593989
 30
0.0
 42
0.2216949999999729
  0
VERTEX
  5
174C
  8
SAPA_PROFIL
 10
132.52821754049771
 20
17.328257766593989
 30
0.0
  0
VERTEX
  5
174D
  8
SAPA_PROFIL
 10
128.05495474623959
 20
21.0817704674688
 30
0.0
 42
-0.2216946784688125
  0
VERTEX
  5
174E
  8
SAPA_PROFIL
 10
127.69774230970459
 20
21.84781494937226
 30
0.0
  0
VERTEX
  5
174F
  8
SAPA_PROFIL
 10
127.69774230970459
 20
26.507148787256082
 30
0.0
  0
VERTEX
  5
1750
  8
SAPA_PROFIL
 10
127.2977423097046
 20
27.199968787256068
 30
0.0
  0
VERTEX
  5
1751
  8
SAPA_PROFIL
 10
127.6990889915643
 20
27.89512163168633
 30
0.0
  0
VERTEX
  5
1752
  8
SAPA_PROFIL
 10
127.5314033097046
 20
32.697031787256101
 30
0.0
 42
0.6681790000000026
  0
VERTEX
  5
1753
  8
SAPA_PROFIL
 10
126.6778493097046
 20
33.050585787256068
 30
0.0
  0
VERTEX
  5
1754
  8
SAPA_PROFIL
 10
125.14610630970451
 20
31.518841787256068
 30
0.0
 42
0.1989120000000385
  0
VERTEX
  5
1755
  8
SAPA_PROFIL
 10
124.9996593097046
 20
31.165288787256092
 30
0.0
  0
VERTEX
  5
1756
  8
SAPA_PROFIL
 10
124.9996593097046
 20
30.699968787256068
 30
0.0
 42
0.4142139999999794
  0
VERTEX
  5
1757
  8
SAPA_PROFIL
 10
125.4996593097046
 20
30.199968787256068
 30
0.0
  0
VERTEX
  5
1758
  8
SAPA_PROFIL
 10
125.6996593097045
 20
30.199968787256068
 30
0.0
 42
-0.414213999999988
  0
VERTEX
  5
1759
  8
SAPA_PROFIL
 10
126.1996593097045
 20
29.699968787256068
 30
0.0
  0
VERTEX
  5
175A
  8
SAPA_PROFIL
 10
126.1996593097045
 20
21.146745368259239
 30
0.0
 42
0.2216946299337935
  0
VERTEX
  5
175B
  8
SAPA_PROFIL
 10
126.5568716044866
 20
20.38070100530064
 30
0.0
  0
VERTEX
  5
175C
  8
SAPA_PROFIL
 10
127.4282175404977
 20
19.649554766594012
 30
0.0
 42
-0.2216950000000585
  0
VERTEX
  5
175D
  8
SAPA_PROFIL
 10
127.4996595404977
 20
19.496345766594001
 30
0.0
  0
VERTEX
  5
175E
  8
SAPA_PROFIL
 10
127.4996595404977
 20
18.249968766594009
 30
0.0
 42
0.4142140000000904
  0
VERTEX
  5
175F
  8
SAPA_PROFIL
 10
127.7996595404977
 20
17.94996876659399
 30
0.0
  0
VERTEX
  5
1760
  8
SAPA_PROFIL
 10
129.53648254049779
 20
17.94996876659399
 30
0.0
 42
-0.1763270000000077
  0
VERTEX
  5
1761
  8
SAPA_PROFIL
 10
129.66504054049781
 20
17.903177766594009
 30
0.0
  0
VERTEX
  5
1762
  8
SAPA_PROFIL
 10
131.02821754049771
 20
16.759336766594
 30
0.0
 42
-0.2216949999999463
  0
VERTEX
  5
1763
  8
SAPA_PROFIL
 10
131.09965954049781
 20
16.606127766594
 30
0.0
  0
VERTEX
  5
1764
  8
SAPA_PROFIL
 10
131.09965954049781
 20
15.493226766593979
 30
0.0
 42
-0.2216860000000748
  0
VERTEX
  5
1765
  8
SAPA_PROFIL
 10
131.02822254049769
 20
15.34002176659396
 30
0.0
  0
VERTEX
  5
1766
  8
SAPA_PROFIL
 10
129.9996595651846
 20
14.476895787310131
 30
0.0
  0
VERTEX
  5
1767
  8
SAPA_PROFIL
 10
129.9996595651846
 20
14.199969223539989
 30
0.0
 42
0.419334801758378
  0
VERTEX
  5
1768
  8
SAPA_PROFIL
 10
130.2031499483347
 20
13.999999780948031
 30
0.0
  0
VERTEX
  5
1769
  8
SAPA_PROFIL
 10
151.69965956975889
 20
13.999999780948031
 30
0.0
 42
0.414162414884939
  0
VERTEX
  5
176A
  8
SAPA_PROFIL
 10
151.99965956518449
 20
14.29994739146662
 30
0.0
  0
VERTEX
  5
176B
  8
SAPA_PROFIL
 10
152.0003404348154
 20
18.198838558423571
 30
0.0
 42
0.4142140000000813
  0
VERTEX
  5
176C
  8
SAPA_PROFIL
 10
151.70039283702201
 20
18.49889132651435
 30
0.0
  0
VERTEX
  5
176D
  8
SAPA_PROFIL
 10
150.93284793919091
 20
18.499024794015039
 30
0.0
 42
0.2896900000000099
  0
VERTEX
  5
176E
  8
SAPA_PROFIL
 10
150.0292398063408
 20
17.927753859386879
 30
0.0
 42
0.5507599999999338
  0
VERTEX
  5
176F
  8
SAPA_PROFIL
 10
150.3002176758051
 20
17.499134763314942
 30
0.0
  0
VERTEX
  5
1770
  8
SAPA_PROFIL
 10
150.5002181427993
 20
17.499100367236618
 30
0.0
 42
-0.4142140000000394
  0
VERTEX
  5
1771
  8
SAPA_PROFIL
 10
150.8001657405928
 20
17.199047599145779
 30
0.0
  0
VERTEX
  5
1772
  8
SAPA_PROFIL
 10
150.79990334121169
 20
15.69904817538867
 30
0.0
 42
-0.4142139999999463
  0
VERTEX
  5
1773
  8
SAPA_PROFIL
 10
150.2998167275199
 20
15.199135488897181
 30
0.0
  0
VERTEX
  5
1774
  8
SAPA_PROFIL
 10
146.99981617085641
 20
15.19971139948114
 30
0.0
 42
-0.4142139999999708
  0
VERTEX
  5
1775
  8
SAPA_PROFIL
 10
146.49990348436481
 20
15.69979801317305
 30
0.0
  0
VERTEX
  5
1776
  8
SAPA_PROFIL
 10
146.50016590137261
 20
17.199798436774749
 30
0.0
 42
-0.4142140000000203
  0
VERTEX
  5
1777
  8
SAPA_PROFIL
 10
146.8002176696188
 20
17.499746052195061
 30
0.0
  0
VERTEX
  5
1778
  8
SAPA_PROFIL
 10
147.00021813661311
 20
17.499711656116681
 30
0.0
 42
0.55075999999978
  0
VERTEX
  5
1779
  8
SAPA_PROFIL
 10
147.27134480590129
 20
17.928235108051069
 30
0.0
 42
0.2896899999999945
  0
VERTEX
  5
177A
  8
SAPA_PROFIL
 10
146.36793674509951
 20
18.499821208001201
 30
0.0
  0
VERTEX
  5
177B
  8
SAPA_PROFIL
 10
145.60039286474
 20
18.499955657719571
 30
0.0
 42
0.4142139999999696
  0
VERTEX
  5
177C
  8
SAPA_PROFIL
 10
145.30034009664919
 20
18.20000805992623
 30
0.0
  0
SEQEND
  5
177D
  8
SAPA_PROFIL
  0
POLYLINE
  5
10E4
  8
SAPA_PROFIL
 62
     4
 66
     1
 10
0.0
 20
0.0
 30
0.0
  0
VERTEX
  5
177E
  8
SAPA_PROFIL
 62
     4
 10
-42.094428538151071
 20
66.049328897275146
 30
0.0
 42
-0.5571646428658034
  0
VERTEX
  5
177F
  8
SAPA_PROFIL
 62
     4
 10
-41.226709623995532
 20
65.512368393138317
 30
0.0
  0
VERTEX
  5
1780
  8
SAPA_PROFIL
 62
     4
 10
-41.22670962399598
 20
48.48763115661712
 30
0.0
 42
-0.5571645048035741
  0
VERTEX
  5
1781
  8
SAPA_PROFIL
 62
     4
 10
-42.094428311862153
 20
47.950670539656052
 30
0.0
  0
VERTEX
  5
1782
  8
SAPA_PROFIL
 62
     4
 10
-43.760568967930183
 20
48.781377627202751
 30
0.0
 42
-0.284385813979063
  0
VERTEX
  5
1783
  8
SAPA_PROFIL
 62
     4
 10
-43.926709623997617
 20
49.049857935683107
 30
0.0
  0
VERTEX
  5
1784
  8
SAPA_PROFIL
 62
     4
 10
-43.926709623997617
 20
64.950141614072422
 30
0.0
 42
-0.2843858139786238
  0
VERTEX
  5
1785
  8
SAPA_PROFIL
 62
     4
 10
-43.760568967930688
 20
65.218621922552686
 30
0.0
  0
VERTEX
  5
1786
  8
SAPA_PROFIL
 62
     4
 10
-42.09442831186135
 20
66.049329010099868
 30
0.0
  0
SEQEND
  5
1787
  8
SAPA_PROFIL
 62
     4
  0
POLYLINE
  5
10E5
  8
SAPA_PROFIL
 62
     4
 66
     1
 10
0.0
 20
0.0
 30
0.0
  0
VERTEX
  5
1788
  8
SAPA_PROFIL
 62
     4
 10
-44.283541138495188
 20
42.582388590210471
 30
0.0
  0
VERTEX
  5
1789
  8
SAPA_PROFIL
 62
     4
 10
-44.690101334499332
 20
42.318365311834462
 30
0.0
 42
0.2539676464751066
  0
VERTEX
  5
178A
  8
SAPA_PROFIL
 62
     4
 10
-44.826709623995441
 20
42.066764141449752
 30
0.0
  0
VERTEX
  5
178B
  8
SAPA_PROFIL
 62
     4
 10
-44.826709623995441
 20
40.685264556244398
 30
0.0
 42
0.3152987888790479
  0
VERTEX
  5
178C
  8
SAPA_PROFIL
 62
     4
 10
-44.497719695657281
 20
40.215418245852092
 30
0.0
  0
VERTEX
  5
178D
  8
SAPA_PROFIL
 62
     4
 10
-42.036889505205998
 20
39.319749304943478
 30
0.0
 42
-0.2694959974287434
  0
VERTEX
  5
178E
  8
SAPA_PROFIL
 62
     4
 10
-41.843757530862113
 20
39.088230258542133
 30
0.0
 42
-0.0612686379508233
  0
VERTEX
  5
178F
  8
SAPA_PROFIL
 62
     4
 10
-41.830174160231593
 20
38.79555482568886
 30
0.0
  0
VERTEX
  5
1790
  8
SAPA_PROFIL
 62
     4
 10
-41.628437481502772
 20
38.446136648380588
 30
0.0
 42
-0.5773502691891681
  0
VERTEX
  5
1791
  8
SAPA_PROFIL
 62
     4
 10
-41.81030281629733
 20
38.131136648381002
 30
0.0
  0
VERTEX
  5
1792
  8
SAPA_PROFIL
 62
     4
 10
-42.077417344423651
 20
38.13113664838076
 30
0.0
  0
VERTEX
  5
1793
  8
SAPA_PROFIL
 62
     4
 10
-42.886100805731971
 20
36.732608947746513
 30
0.0
 42
0.1318219888653519
  0
VERTEX
  5
1794
  8
SAPA_PROFIL
 62
     4
 10
-42.92639320226936
 20
36.582435845274162
 30
0.0
  0
VERTEX
  5
1795
  8
SAPA_PROFIL
 62
     4
 10
-42.926393202263
 20
36.399999774837383
 30
0.0
 42
0.4142135623724291
  0
VERTEX
  5
1796
  8
SAPA_PROFIL
 62
     4
 10
-42.526393202263357
 20
35.999999774836837
 30
0.0
  0
VERTEX
  5
1797
  8
SAPA_PROFIL
 62
     4
 10
-39.126393202262371
 20
35.999999774838201
 30
0.0
 42
0.4142135623744271
  0
VERTEX
  5
1798
  8
SAPA_PROFIL
 62
     4
 10
-38.72639320226137
 20
36.399999774837383
 30
0.0
  0
VERTEX
  5
1799
  8
SAPA_PROFIL
 62
     4
 10
-38.726393202260731
 20
36.579615017108686
 30
0.0
 42
0.1316524975874005
  0
VERTEX
  5
179A
  8
SAPA_PROFIL
 62
     4
 10
-38.766585581126321
 20
36.729615017105502
 30
0.0
  0
VERTEX
  5
179B
  8
SAPA_PROFIL
 62
     4
 10
-39.692735027778859
 20
38.333752914107762
 30
0.0
 42
-0.1316524975875904
  0
VERTEX
  5
179C
  8
SAPA_PROFIL
 62
     4
 10
-39.826709623993622
 20
38.833752914109468
 30
0.0
  0
VERTEX
  5
179D
  8
SAPA_PROFIL
 62
     4
 10
-39.826709623993622
 20
39.249999774836837
 30
0.0
 42
-0.4142135623730951
  0
VERTEX
  5
179E
  8
SAPA_PROFIL
 62
     4
 10
-38.826709623993622
 20
40.24999977483683
 30
0.0
  0
VERTEX
  5
179F
  8
SAPA_PROFIL
 62
     4
 10
-35.826709623996351
 20
40.24999977483683
 30
0.0
 42
0.9999996830128083
  0
VERTEX
  5
17A0
  8
SAPA_PROFIL
 62
     4
 10
-35.826709623994532
 20
41.249999774836837
 30
0.0
  0
VERTEX
  5
17A1
  8
SAPA_PROFIL
 62
     4
 10
-38.826709623994532
 20
41.249999774836837
 30
0.0
 42
-0.4142135623730951
  0
VERTEX
  5
17A2
  8
SAPA_PROFIL
 62
     4
 10
-39.826709623994532
 20
42.24999977483683
 30
0.0
  0
VERTEX
  5
17A3
  8
SAPA_PROFIL
 62
     4
 10
-39.826709623994532
 20
71.74999977492142
 30
0.0
 42
-0.4142135623730951
  0
VERTEX
  5
17A4
  8
SAPA_PROFIL
 62
     4
 10
-38.826709623994532
 20
72.74999977492142
 30
0.0
  0
VERTEX
  5
17A5
  8
SAPA_PROFIL
 62
     4
 10
-35.826709623996351
 20
72.74999977492142
 30
0.0
 42
0.9999999999999998
  0
VERTEX
  5
17A6
  8
SAPA_PROFIL
 62
     4
 10
-35.826709623996351
 20
73.74999977492142
 30
0.0
  0
VERTEX
  5
17A7
  8
SAPA_PROFIL
 62
     4
 10
-38.826709623994532
 20
73.74999977492142
 30
0.0
 42
-0.4142135623736278
  0
VERTEX
  5
17A8
  8
SAPA_PROFIL
 62
     4
 10
-39.826709623994532
 20
74.74999977492142
 30
0.0
  0
VERTEX
  5
17A9
  8
SAPA_PROFIL
 62
     4
 10
-39.826709623994532
 20
75.16624663564788
 30
0.0
 42
-0.1316524975874375
  0
VERTEX
  5
17AA
  8
SAPA_PROFIL
 62
     4
 10
-39.692735027778497
 20
75.666246635648079
 30
0.0
  0
VERTEX
  5
17AB
  8
SAPA_PROFIL
 62
     4
 10
-38.766585581126321
 20
77.270384532650013
 30
0.0
 42
0.1316524975874
  0
VERTEX
  5
17AC
  8
SAPA_PROFIL
 62
     4
 10
-38.726393202260731
 20
77.420384532649564
 30
0.0
  0
VERTEX
  5
17AD
  8
SAPA_PROFIL
 62
     4
 10
-38.72639320226137
 20
77.599999774920875
 30
0.0
 42
0.4142135623744271
  0
VERTEX
  5
17AE
  8
SAPA_PROFIL
 62
     4
 10
-39.126393202262371
 20
77.999999774920056
 30
0.0
  0
VERTEX
  5
17AF
  8
SAPA_PROFIL
 62
     4
 10
-42.526393202263357
 20
77.99999977492142
 30
0.0
 42
0.4142135623724291
  0
VERTEX
  5
17B0
  8
SAPA_PROFIL
 62
     4
 10
-42.926393202263
 20
77.599999774920875
 30
0.0
  0
VERTEX
  5
17B1
  8
SAPA_PROFIL
 62
     4
 10
-42.92639320226936
 20
77.417563704484095
 30
0.0
 42
0.1318219888653524
  0
VERTEX
  5
17B2
  8
SAPA_PROFIL
 62
     4
 10
-42.886100805731978
 20
77.267390602011744
 30
0.0
  0
VERTEX
  5
17B3
  8
SAPA_PROFIL
 62
     4
 10
-42.07741734450763
 20
75.868862901532097
 30
0.0
  0
VERTEX
  5
17B4
  8
SAPA_PROFIL
 62
     4
 10
-41.810302816294588
 20
75.868862901532097
 30
0.0
 42
-0.5773502691891599
  0
VERTEX
  5
17B5
  8
SAPA_PROFIL
 62
     4
 10
-41.628437481500029
 20
75.553862901532497
 30
0.0
  0
VERTEX
  5
17B6
  8
SAPA_PROFIL
 62
     4
 10
-41.830174160177137
 20
75.204444724313845
 30
0.0
 42
-0.0612687673629489
  0
VERTEX
  5
17B7
  8
SAPA_PROFIL
 62
     4
 10
-41.843757530863343
 20
74.911769291213631
 30
0.0
 42
-0.2694959974285039
  0
VERTEX
  5
17B8
  8
SAPA_PROFIL
 62
     4
 10
-42.036889505207299
 20
74.680250244813095
 30
0.0
  0
VERTEX
  5
17B9
  8
SAPA_PROFIL
 62
     4
 10
-44.497719695660457
 20
73.784581303903437
 30
0.0
 42
0.315298788878404
  0
VERTEX
  5
17BA
  8
SAPA_PROFIL
 62
     4
 10
-44.82670962399704
 20
73.314734993510214
 30
0.0
  0
VERTEX
  5
17BB
  8
SAPA_PROFIL
 62
     4
 10
-44.826709623995441
 20
71.933235408305777
 30
0.0
 42
0.2539676464741836
  0
VERTEX
  5
17BC
  8
SAPA_PROFIL
 62
     4
 10
-44.69010133450017
 20
71.681634237921699
 30
0.0
  0
VERTEX
  5
17BD
  8
SAPA_PROFIL
 62
     4
 10
-44.283541138495188
 20
71.417610959545058
 30
0.0
 42
0.5862177598324614
  0
VERTEX
  5
17BE
  8
SAPA_PROFIL
 62
     4
 10
-43.826709623998688
 20
71.67335277478341
 30
0.0
  0
VERTEX
  5
17BF
  8
SAPA_PROFIL
 62
     4
 10
-43.826709624006348
 20
72.614527455293214
 30
0.0
 42
-0.3152987888813165
  0
VERTEX
  5
17C0
  8
SAPA_PROFIL
 62
     4
 10
-43.497719695669602
 20
73.08437376569097
 30
0.0
  0
VERTEX
  5
17C1
  8
SAPA_PROFIL
 62
     4
 10
-42.297719695658373
 20
73.521138046814926
 30
0.0
 42
-0.5205670505515655
  0
VERTEX
  5
17C2
  8
SAPA_PROFIL
 62
     4
 10
-41.626709623995623
 20
73.051291736421703
 30
0.0
  0
VERTEX
  5
17C3
  8
SAPA_PROFIL
 62
     4
 10
-41.626709623995623
 20
67.809051040354902
 30
0.0
 42
-0.2843858139786245
  0
VERTEX
  5
17C4
  8
SAPA_PROFIL
 62
     4
 10
-41.792850280062552
 20
67.540570731873714
 30
0.0
  0
VERTEX
  5
17C5
  8
SAPA_PROFIL
 62
     4
 10
-43.392850280060259
 20
66.742840158989097
 30
0.0
 42
-0.5571645048046511
  0
VERTEX
  5
17C6
  8
SAPA_PROFIL
 62
     4
 10
-43.826709623993622
 20
67.011320467469403
 30
0.0
  0
VERTEX
  5
17C7
  8
SAPA_PROFIL
 62
     4
 10
-43.82670962399726
 20
68.373352774782219
 30
0.0
 42
0.5920056181162535
  0
VERTEX
  5
17C8
  8
SAPA_PROFIL
 62
     4
 10
-44.287913126525183
 20
68.626361531099619
 30
0.0
  0
VERTEX
  5
17C9
  8
SAPA_PROFIL
 62
     4
 10
-44.690101334503481
 20
68.365177454943918
 30
0.0
 42
0.2539676464746718
  0
VERTEX
  5
17CA
  8
SAPA_PROFIL
 62
     4
 10
-44.826709623998838
 20
68.113576284560153
 30
0.0
  0
VERTEX
  5
17CB
  8
SAPA_PROFIL
 62
     4
 10
-44.826709623997253
 20
45.886423265194473
 30
0.0
 42
0.2539676464741819
  0
VERTEX
  5
17CC
  8
SAPA_PROFIL
 62
     4
 10
-44.690101334503481
 20
45.634822094811597
 30
0.0
  0
VERTEX
  5
17CD
  8
SAPA_PROFIL
 62
     4
 10
-44.28791312652514
 20
45.3736380186578
 30
0.0
 42
0.5920055144124249
  0
VERTEX
  5
17CE
  8
SAPA_PROFIL
 62
     4
 10
-43.82670962399726
 20
45.626646774973302
 30
0.0
  0
VERTEX
  5
17CF
  8
SAPA_PROFIL
 62
     4
 10
-43.826709623994532
 20
46.988679082286019
 30
0.0
 42
-0.5571646182910574
  0
VERTEX
  5
17D0
  8
SAPA_PROFIL
 62
     4
 10
-43.392850280060259
 20
47.257159390766432
 30
0.0
  0
VERTEX
  5
17D1
  8
SAPA_PROFIL
 62
     4
 10
-41.792850280062879
 20
46.459428817881161
 30
0.0
 42
-0.2843858139786238
  0
VERTEX
  5
17D2
  8
SAPA_PROFIL
 62
     4
 10
-41.626709623995623
 20
46.19094850940062
 30
0.0
  0
VERTEX
  5
17D3
  8
SAPA_PROFIL
 62
     4
 10
-41.626709623995403
 20
40.948707813335638
 30
0.0
 42
-0.5205670505515692
  0
VERTEX
  5
17D4
  8
SAPA_PROFIL
 62
     4
 10
-42.297719695658373
 20
40.478861502942422
 30
0.0
  0
VERTEX
  5
17D5
  8
SAPA_PROFIL
 62
     4
 10
-43.497719695667818
 20
40.915625784067373
 30
0.0
 42
-0.3152987888807539
  0
VERTEX
  5
17D6
  8
SAPA_PROFIL
 62
     4
 10
-43.826709624005453
 20
41.385472094463218
 30
0.0
  0
VERTEX
  5
17D7
  8
SAPA_PROFIL
 62
     4
 10
-43.826709623998617
 20
42.326646774972311
 30
0.0
 42
0.5862175119221242
  0
VERTEX
  5
17D8
  8
SAPA_PROFIL
 62
     4
 10
-44.283540949753757
 20
42.582388705954259
 30
0.0
 42
-0.0000002084758573
  0
SEQEND
  5
17D9
  8
SAPA_PROFIL
 62
     4
  0
POLYLINE
  5
10E6
  8
SAPA_PROFIL
 66
     1
 10
0.0
 20
0.0
 30
0.0
 70
     1
  0
VERTEX
  5
17DA
  8
SAPA_PROFIL
 10
-42.752766815240747
 20
77.999999774920838
 30
0.0
 42
-0.2134217652834296
  0
VERTEX
  5
17DB
  8
SAPA_PROFIL
 10
-42.976373612990848
 20
78.099999774920946
 30
0.0
 42
0.7625858545243358
  0
VERTEX
  5
17DC
  8
SAPA_PROFIL
 10
-43.306699694007861
 20
77.915420572723463
 30
0.0
  0
VERTEX
  5
17DD
  8
SAPA_PROFIL
 10
-43.248626057018761
 20
77.724037572729742
 30
0.0
  0
VERTEX
  5
17DE
  8
SAPA_PROFIL
 10
-42.164061610047028
 20
75.838193880868687
 30
0.0
  0
VERTEX
  5
17DF
  8
SAPA_PROFIL
 10
-41.842303881828748
 20
75.848755247095681
 30
0.0
 42
-0.5773502691897454
  0
VERTEX
  5
17E0
  8
SAPA_PROFIL
 10
-41.659350141718598
 20
75.554598946840827
 30
0.0
  0
VERTEX
  5
17E1
  8
SAPA_PROFIL
 10
-41.81148405282736
 20
75.269916663609195
 30
0.0
 42
-0.2216946626430121
  0
VERTEX
  5
17E2
  8
SAPA_PROFIL
 10
-42.352363884304147
 20
74.864107758454395
 30
0.0
  0
VERTEX
  5
17E3
  8
SAPA_PROFIL
 10
-44.165594354962408
 20
74.482661162326679
 30
0.0
 42
-0.476975532698164
  0
VERTEX
  5
17E4
  8
SAPA_PROFIL
 10
-44.537251229908271
 20
74.784913986833146
 30
0.0
  0
VERTEX
  5
17E5
  8
SAPA_PROFIL
 10
-44.537167622024619
 20
76.288015067595154
 30
0.0
  0
VERTEX
  5
17E6
  8
SAPA_PROFIL
 10
-44.489321872026139
 20
76.302533476842257
 30
0.0
 42
0.4142135623731046
  0
VERTEX
  5
17E7
  8
SAPA_PROFIL
 10
-44.289357827518742
 20
76.676718432318069
 30
0.0
  0
VERTEX
  5
17E8
  8
SAPA_PROFIL
 10
-44.800019589283593
 20
77.99793675582066
 30
0.0
  0
VERTEX
  5
17E9
  8
SAPA_PROFIL
 10
-44.800019589282833
 20
80.992484115594905
 30
0.0
 42
-0.2596812337297038
  0
VERTEX
  5
17EA
  8
SAPA_PROFIL
 10
-44.705326394035218
 20
81.162514927134765
 30
0.0
  0
VERTEX
  5
17EB
  8
SAPA_PROFIL
 10
-43.457979796411607
 20
81.955045996203538
 30
0.0
 42
-0.5877032589241517
  0
VERTEX
  5
17EC
  8
SAPA_PROFIL
 10
-43.000019589283554
 20
81.699999778894025
 30
0.0
  0
VERTEX
  5
17ED
  8
SAPA_PROFIL
 10
-43.000019589285372
 20
80.29999977889392
 30
0.0
 42
0.4142135623735391
  0
VERTEX
  5
17EE
  8
SAPA_PROFIL
 10
-42.700019589284267
 20
79.999999778893965
 30
0.0
  0
VERTEX
  5
17EF
  8
SAPA_PROFIL
 10
-40.300019589284652
 20
79.99999977889442
 30
0.0
 42
0.4142135623733169
  0
VERTEX
  5
17F0
  8
SAPA_PROFIL
 10
-40.000019589283554
 20
80.29999977889392
 30
0.0
  0
VERTEX
  5
17F1
  8
SAPA_PROFIL
 10
-40.000019589283511
 20
97.699999774061865
 30
0.0
 42
0.4142135623724291
  0
VERTEX
  5
17F2
  8
SAPA_PROFIL
 10
-40.300019589284631
 20
97.999999774062076
 30
0.0
  0
VERTEX
  5
17F3
  8
SAPA_PROFIL
 10
-42.700019589284267
 20
97.99999977406182
 30
0.0
 42
0.414213562373761
  0
VERTEX
  5
17F4
  8
SAPA_PROFIL
 10
-43.000019589283539
 20
97.699999774061865
 30
0.0
  0
VERTEX
  5
17F5
  8
SAPA_PROFIL
 10
-43.000019589283589
 20
96.299999774061774
 30
0.0
 42
-0.5877032589248803
  0
VERTEX
  5
17F6
  8
SAPA_PROFIL
 10
-43.457979796411593
 20
96.044953556751906
 30
0.0
  0
VERTEX
  5
17F7
  8
SAPA_PROFIL
 10
-44.905326394035939
 20
96.941352533993935
 30
0.0
 42
-0.2596812337305447
  0
VERTEX
  5
17F8
  8
SAPA_PROFIL
 10
-45.000019589283532
 20
97.111383345534335
 30
0.0
  0
VERTEX
  5
17F9
  8
SAPA_PROFIL
 10
-45.000019589283532
 20
99.799999778893493
 30
0.0
 42
-0.414213562374094
  0
VERTEX
  5
17FA
  8
SAPA_PROFIL
 10
-44.800019589284631
 20
99.999999778893311
 30
0.0
  0
VERTEX
  5
17FB
  8
SAPA_PROFIL
 10
-32.550018667478099
 20
99.999999778893866
 30
0.0
 42
-1.6508817299794341
  0
VERTEX
  5
17FC
  8
SAPA_PROFIL
 10
-34.520314152428909
 20
96.229621837598387
 30
0.0
 42
0.6937302480986617
  0
VERTEX
  5
17FD
  8
SAPA_PROFIL
 10
-36.933593269054711
 20
95.613597493108131
 30
0.0
 42
0.4461690147957503
  0
VERTEX
  5
17FE
  8
SAPA_PROFIL
 10
-31.26671601212097
 20
89.299999778893465
 30
0.0
 42
0.1095178116826789
  0
VERTEX
  5
17FF
  8
SAPA_PROFIL
 10
-28.857791920219871
 20
89.834045392782585
 30
0.0
  0
VERTEX
  5
1800
  8
SAPA_PROFIL
 10
-23.88444816514405
 20
92.153153672411875
 30
0.0
 42
-0.10951781168314
  0
VERTEX
  5
1801
  8
SAPA_PROFIL
 10
-23.67313903427387
 20
92.199999778893442
 30
0.0
  0
VERTEX
  5
1802
  8
SAPA_PROFIL
 10
-20.769757358956699
 20
92.199999778893556
 30
0.0
 42
-0.4142135623730951
  0
VERTEX
  5
1803
  8
SAPA_PROFIL
 10
-20.269757358956689
 20
91.699999778893556
 30
0.0
  0
VERTEX
  5
1804
  8
SAPA_PROFIL
 10
-20.26975735895671
 20
90.199999778893556
 30
0.0
 42
-0.4142135623730951
  0
VERTEX
  5
1805
  8
SAPA_PROFIL
 10
-20.76975735895671
 20
89.699999778893556
 30
0.0
  0
VERTEX
  5
1806
  8
SAPA_PROFIL
 10
-23.11890237766606
 20
89.699999778893556
 30
0.0
 42
0.1095178116836639
  0
VERTEX
  5
1807
  8
SAPA_PROFIL
 10
-23.33021150853715
 20
89.653153672411875
 30
0.0
  0
VERTEX
  5
1808
  8
SAPA_PROFIL
 10
-27.549839346584172
 20
87.685508896965786
 30
0.0
 42
-0.2580745690788087
  0
VERTEX
  5
1809
  8
SAPA_PROFIL
 10
-35.485792251694178
 20
87.963214668231714
 30
0.0
 42
0.5828660187176127
  0
VERTEX
  5
180A
  8
SAPA_PROFIL
 10
-37.000019589283497
 20
87.105560748940576
 30
0.0
  0
VERTEX
  5
180B
  8
SAPA_PROFIL
 10
-37.000019589284413
 20
82.299999778892783
 30
0.0
 42
0.4142135623732865
  0
VERTEX
  5
180C
  8
SAPA_PROFIL
 10
-35.000019589283497
 20
80.299999778892385
 30
0.0
  0
VERTEX
  5
180D
  8
SAPA_PROFIL
 10
120.2999804107172
 20
80.299999778964036
 30
0.0
 42
0.4142135623729701
  0
VERTEX
  5
180E
  8
SAPA_PROFIL
 10
122.2999804107163
 20
82.299999778964093
 30
0.0
  0
VERTEX
  5
180F
  8
SAPA_PROFIL
 10
122.2999804107157
 20
99.699999778893527
 30
0.0
 42
-0.4142135623719852
  0
VERTEX
  5
1810
  8
SAPA_PROFIL
 10
122.59998041071501
 20
99.999999778893482
 30
0.0
  0
VERTEX
  5
1811
  8
SAPA_PROFIL
 10
129.79998041071391
 20
99.999999778893013
 30
0.0
 42
-0.414213562373761
  0
VERTEX
  5
1812
  8
SAPA_PROFIL
 10
129.99998041071461
 20
99.799999778893664
 30
0.0
  0
VERTEX
  5
1813
  8
SAPA_PROFIL
 10
129.99998041071461
 20
97.094293951605394
 30
0.0
 42
-0.2596812337292591
  0
VERTEX
  5
1814
  8
SAPA_PROFIL
 10
129.9052872154671
 20
96.924263140064852
 30
0.0
  0
VERTEX
  5
1815
  8
SAPA_PROFIL
 10
128.4579406178427
 20
96.027864162822851
 30
0.0
 42
-0.587703258924813
  0
VERTEX
  5
1816
  8
SAPA_PROFIL
 10
127.9999804107146
 20
96.282910380132819
 30
0.0
  0
VERTEX
  5
1817
  8
SAPA_PROFIL
 10
127.99998041071559
 20
97.68291038013291
 30
0.0
 42
0.4142135623739831
  0
VERTEX
  5
1818
  8
SAPA_PROFIL
 10
127.6999804107145
 20
97.982910380133106
 30
0.0
  0
VERTEX
  5
1819
  8
SAPA_PROFIL
 10
125.2999804107148
 20
97.982910380133106
 30
0.0
 42
0.4142135623739828
  0
VERTEX
  5
181A
  8
SAPA_PROFIL
 10
124.9999804107146
 20
97.68291038013291
 30
0.0
  0
VERTEX
  5
181B
  8
SAPA_PROFIL
 10
124.99998041071581
 20
86.524263847604857
 30
0.0
 42
-0.1989123673796652
  0
VERTEX
  5
181C
  8
SAPA_PROFIL
 10
124.9121124450718
 20
86.312131813248854
 30
0.0
  0
VERTEX
  5
181D
  8
SAPA_PROFIL
 10
124.8121124450719
 20
86.212131813248845
 30
0.0
 42
0.4142135623730165
  0
VERTEX
  5
181E
  8
SAPA_PROFIL
 10
124.8121124450717
 20
85.787867744536982
 30
0.0
  0
VERTEX
  5
181F
  8
SAPA_PROFIL
 10
124.9121124450719
 20
85.687867744536888
 30
0.0
 42
-0.198912367379616
  0
VERTEX
  5
1820
  8
SAPA_PROFIL
 10
124.99998041071591
 20
85.475735710180956
 30
0.0
  0
VERTEX
  5
1821
  8
SAPA_PROFIL
 10
124.9999804107165
 20
80.299999778893778
 30
0.0
 42
0.4142135623735113
  0
VERTEX
  5
1822
  8
SAPA_PROFIL
 10
125.2999804107157
 20
79.999999778893937
 30
0.0
  0
VERTEX
  5
1823
  8
SAPA_PROFIL
 10
127.6999804107172
 20
79.999999778893596
 30
0.0
 42
0.4142135623723181
  0
VERTEX
  5
1824
  8
SAPA_PROFIL
 10
127.9999804107165
 20
80.299999778893664
 30
0.0
  0
VERTEX
  5
1825
  8
SAPA_PROFIL
 10
127.9999804107173
 20
81.699999778893869
 30
0.0
 42
-0.5877032589242455
  0
VERTEX
  5
1826
  8
SAPA_PROFIL
 10
128.4579406178436
 20
81.955045996203765
 30
0.0
  0
VERTEX
  5
1827
  8
SAPA_PROFIL
 10
129.7052872154681
 20
81.162514927134495
 30
0.0
 42
-0.2596812337295521
  0
VERTEX
  5
1828
  8
SAPA_PROFIL
 10
129.7999804107157
 20
80.992484115594763
 30
0.0
  0
VERTEX
  5
1829
  8
SAPA_PROFIL
 10
129.79998041071579
 20
77.997936755859314
 30
0.0
  0
VERTEX
  5
182A
  8
SAPA_PROFIL
 10
129.28931864893599
 20
76.676718432317926
 30
0.0
 42
0.4142135623730872
  0
VERTEX
  5
182B
  8
SAPA_PROFIL
 10
129.48928269344341
 20
76.302533476842115
 30
0.0
  0
VERTEX
  5
182C
  8
SAPA_PROFIL
 10
129.5371284434419
 20
76.288015067595012
 30
0.0
  0
VERTEX
  5
182D
  8
SAPA_PROFIL
 10
129.5372120513255
 20
74.784913986833004
 30
0.0
 42
-0.4769755326981637
  0
VERTEX
  5
182E
  8
SAPA_PROFIL
 10
129.16555517637971
 20
74.482661162326536
 30
0.0
  0
VERTEX
  5
182F
  8
SAPA_PROFIL
 10
127.3523247057214
 20
74.864107758454281
 30
0.0
 42
-0.2216946626430137
  0
VERTEX
  5
1830
  8
SAPA_PROFIL
 10
126.8114448742446
 20
75.269916663609052
 30
0.0
  0
VERTEX
  5
1831
  8
SAPA_PROFIL
 10
126.65931096313589
 20
75.554598946840684
 30
0.0
 42
-0.5773502691897449
  0
VERTEX
  5
1832
  8
SAPA_PROFIL
 10
126.8422647032461
 20
75.848755247095511
 30
0.0
  0
VERTEX
  5
1833
  8
SAPA_PROFIL
 10
127.1640224314643
 20
75.838193880868545
 30
0.0
  0
VERTEX
  5
1834
  8
SAPA_PROFIL
 10
128.2485868784361
 20
77.7240375727296
 30
0.0
  0
VERTEX
  5
1835
  8
SAPA_PROFIL
 10
128.30666051542511
 20
77.91542057272332
 30
0.0
 42
0.7625858545243333
  0
VERTEX
  5
1836
  8
SAPA_PROFIL
 10
127.9763344344081
 20
78.099999774920803
 30
0.0
 42
-0.2134217652834287
  0
VERTEX
  5
1837
  8
SAPA_PROFIL
 10
127.75272763665799
 20
77.999999774920695
 30
0.0
  0
VERTEX
  5
1838
  8
SAPA_PROFIL
 10
123.8999804107161
 20
77.999999774920127
 30
0.0
 42
0.4142135623735389
  0
VERTEX
  5
1839
  8
SAPA_PROFIL
 10
123.5999804107168
 20
77.6999997749204
 30
0.0
  0
VERTEX
  5
183A
  8
SAPA_PROFIL
 10
123.5999804107168
 20
77.399999774920332
 30
0.0
  0
VERTEX
  5
183B
  8
SAPA_PROFIL
 10
124.5237408414205
 20
75.799999774920636
 30
0.0
 42
-0.5773502691899238
  0
VERTEX
  5
183C
  8
SAPA_PROFIL
 10
124.3505357606636
 20
75.499999774920454
 30
0.0
  0
VERTEX
  5
183D
  8
SAPA_PROFIL
 10
123.1663049223998
 20
75.499999783777724
 30
0.0
 42
-0.2679314070828157
  0
VERTEX
  5
183E
  8
SAPA_PROFIL
 10
122.30034589473409
 20
75.999999781574445
 30
0.0
  0
VERTEX
  5
183F
  8
SAPA_PROFIL
 10
121.2907890723035
 20
77.749864611919463
 30
0.0
 42
0.2680328283025422
  0
VERTEX
  5
1840
  8
SAPA_PROFIL
 10
120.85769835980661
 20
77.999999778961808
 30
0.0
  0
VERTEX
  5
1841
  8
SAPA_PROFIL
 10
-35.857737538374572
 20
77.999999778961765
 30
0.0
 42
0.2680328283025004
  0
VERTEX
  5
1842
  8
SAPA_PROFIL
 10
-36.290828250871463
 20
77.749864611919378
 30
0.0
  0
VERTEX
  5
1843
  8
SAPA_PROFIL
 10
-37.300385073302138
 20
75.99999978157436
 30
0.0
 42
-0.2679314070828203
  0
VERTEX
  5
1844
  8
SAPA_PROFIL
 10
-38.166344100967812
 20
75.499999783777497
 30
0.0
  0
VERTEX
  5
1845
  8
SAPA_PROFIL
 10
-39.350574939230732
 20
75.499999774920582
 30
0.0
 42
-0.5773502691897186
  0
VERTEX
  5
1846
  8
SAPA_PROFIL
 10
-39.523780019987541
 20
75.799999774920565
 30
0.0
  0
VERTEX
  5
1847
  8
SAPA_PROFIL
 10
-38.600019589283917
 20
77.399999774920474
 30
0.0
  0
VERTEX
  5
1848
  8
SAPA_PROFIL
 10
-38.600019589283917
 20
77.699999774920656
 30
0.0
 42
0.4142135623735392
  0
VERTEX
  5
1849
  8
SAPA_PROFIL
 10
-38.900019589285009
 20
77.99999977492061
 30
0.0
  0
SEQEND
  5
184A
  8
SAPA_PROFIL
  0
POLYLINE
  5
10E7
  8
SAPA_PROFIL
 66
     1
 10
0.0
 20
0.0
 30
0.0
 70
     1
  0
VERTEX
  5
184B
  8
SAPA_PROFIL
 10
127.75272763671489
 20
35.999999774835487
 30
0.0
 42
-0.2134217652834407
  0
VERTEX
  5
184C
  8
SAPA_PROFIL
 10
127.976334434465
 20
35.899999774835379
 30
0.0
 42
0.7625858545243189
  0
VERTEX
  5
184D
  8
SAPA_PROFIL
 10
128.30666051548201
 20
36.084578977032862
 30
0.0
  0
VERTEX
  5
184E
  8
SAPA_PROFIL
 10
128.24858687849289
 20
36.275961977026583
 30
0.0
  0
VERTEX
  5
184F
  8
SAPA_PROFIL
 10
127.1640224315212
 20
38.161805668887638
 30
0.0
  0
VERTEX
  5
1850
  8
SAPA_PROFIL
 10
126.842264703303
 20
38.151244302660622
 30
0.0
 42
-0.5773502691897523
  0
VERTEX
  5
1851
  8
SAPA_PROFIL
 10
126.65931096319279
 20
38.445400602915498
 30
0.0
  0
VERTEX
  5
1852
  8
SAPA_PROFIL
 10
126.8114448743015
 20
38.730082886147102
 30
0.0
 42
-0.2216946626430277
  0
VERTEX
  5
1853
  8
SAPA_PROFIL
 10
127.3523247057783
 20
39.13589179130193
 30
0.0
  0
VERTEX
  5
1854
  8
SAPA_PROFIL
 10
129.16555517643661
 20
39.517338387429653
 30
0.0
 42
-0.476975532698164
  0
VERTEX
  5
1855
  8
SAPA_PROFIL
 10
129.53721205138251
 20
39.215085562923178
 30
0.0
  0
VERTEX
  5
1856
  8
SAPA_PROFIL
 10
129.5371284434988
 20
37.711984482161171
 30
0.0
  0
VERTEX
  5
1857
  8
SAPA_PROFIL
 10
129.48928269350029
 20
37.697466072914068
 30
0.0
 42
0.4142135623731023
  0
VERTEX
  5
1858
  8
SAPA_PROFIL
 10
129.28931864899289
 20
37.323281117438263
 30
0.0
  0
VERTEX
  5
1859
  8
SAPA_PROFIL
 10
129.7999804107472
 20
36.002062793962921
 30
0.0
  0
VERTEX
  5
185A
  8
SAPA_PROFIL
 10
129.79998041074651
 20
33.007515434161292
 30
0.0
 42
-0.2596812337298688
  0
VERTEX
  5
185B
  8
SAPA_PROFIL
 10
129.70528721549891
 20
32.837484622621453
 30
0.0
  0
VERTEX
  5
185C
  8
SAPA_PROFIL
 10
128.45794061787441
 20
32.044953553552553
 30
0.0
 42
-0.5877032589253678
  0
VERTEX
  5
185D
  8
SAPA_PROFIL
 10
127.9999804107472
 20
32.2999997708622
 30
0.0
  0
VERTEX
  5
185E
  8
SAPA_PROFIL
 10
127.9999804107472
 20
33.699999770862291
 30
0.0
 42
0.4142135623730951
  0
VERTEX
  5
185F
  8
SAPA_PROFIL
 10
127.6999804107479
 20
33.999999770862253
 30
0.0
  0
VERTEX
  5
1860
  8
SAPA_PROFIL
 10
125.2999804107465
 20
33.999999770862253
 30
0.0
 42
0.4142135623730951
  0
VERTEX
  5
1861
  8
SAPA_PROFIL
 10
124.9999804107472
 20
33.699999770862291
 30
0.0
  0
VERTEX
  5
1862
  8
SAPA_PROFIL
 10
124.9999804107472
 20
16.299999775694229
 30
0.0
 42
0.4142135623730951
  0
VERTEX
  5
1863
  8
SAPA_PROFIL
 10
125.2999804107465
 20
15.99999977569405
 30
0.0
  0
VERTEX
  5
1864
  8
SAPA_PROFIL
 10
127.699980410747
 20
15.99999977569405
 30
0.0
 42
0.4142135623728732
  0
VERTEX
  5
1865
  8
SAPA_PROFIL
 10
127.9999804107472
 20
16.299999775694229
 30
0.0
  0
VERTEX
  5
1866
  8
SAPA_PROFIL
 10
127.9999804107472
 20
17.699999775694319
 30
0.0
 42
-0.587703258925294
  0
VERTEX
  5
1867
  8
SAPA_PROFIL
 10
128.45794061787529
 20
17.955045993004202
 30
0.0
  0
VERTEX
  5
1868
  8
SAPA_PROFIL
 10
129.9052872154987
 20
17.05864701576229
 30
0.0
 42
-0.2596812337300967
  0
VERTEX
  5
1869
  8
SAPA_PROFIL
 10
129.99998041074721
 20
16.888616204221758
 30
0.0
  0
VERTEX
  5
186A
  8
SAPA_PROFIL
 10
129.99998041074721
 20
14.199999770862631
 30
0.0
 42
-0.4142135623730951
  0
VERTEX
  5
186B
  8
SAPA_PROFIL
 10
129.79998041074651
 20
13.999999770862811
 30
0.0
  0
VERTEX
  5
186C
  8
SAPA_PROFIL
 10
-44.800019589253843
 20
13.99999977086283
 30
0.0
 42
-0.414213562373428
  0
VERTEX
  5
186D
  8
SAPA_PROFIL
 10
-45.000019589252759
 20
14.19999977086265
 30
0.0
  0
VERTEX
  5
186E
  8
SAPA_PROFIL
 10
-45.000019589252759
 20
16.888616204221769
 30
0.0
 42
-0.2596812337302663
  0
VERTEX
  5
186F
  8
SAPA_PROFIL
 10
-44.905326394005151
 20
17.0586470157623
 30
0.0
  0
VERTEX
  5
1870
  8
SAPA_PROFIL
 10
-43.457979796380812
 20
17.955045993004219
 30
0.0
 42
-0.5877032589250804
  0
VERTEX
  5
1871
  8
SAPA_PROFIL
 10
-43.000019589252759
 20
17.69999977569433
 30
0.0
  0
VERTEX
  5
1872
  8
SAPA_PROFIL
 10
-43.000019589252759
 20
16.299999775694239
 30
0.0
 42
0.4142135623730951
  0
VERTEX
  5
1873
  8
SAPA_PROFIL
 10
-42.700019589253479
 20
15.999999775694061
 30
0.0
  0
VERTEX
  5
1874
  8
SAPA_PROFIL
 10
-40.300019589253843
 20
15.999999775694061
 30
0.0
 42
0.414213562372873
  0
VERTEX
  5
1875
  8
SAPA_PROFIL
 10
-40.000019589252759
 20
16.299999775694239
 30
0.0
  0
VERTEX
  5
1876
  8
SAPA_PROFIL
 10
-40.000019589252759
 20
33.699999770862192
 30
0.0
 42
0.4142135623730951
  0
VERTEX
  5
1877
  8
SAPA_PROFIL
 10
-40.300019589252031
 20
33.999999770862154
 30
0.0
  0
VERTEX
  5
1878
  8
SAPA_PROFIL
 10
-42.700019589253479
 20
33.999999770862154
 30
0.0
 42
0.4142135623730118
  0
VERTEX
  5
1879
  8
SAPA_PROFIL
 10
-43.000019589253661
 20
33.699999770862419
 30
0.0
  0
VERTEX
  5
187A
  8
SAPA_PROFIL
 10
-43.000019589252759
 20
32.299999770862101
 30
0.0
 42
-0.5877032589252803
  0
VERTEX
  5
187B
  8
SAPA_PROFIL
 10
-43.457979796380812
 20
32.044953553552219
 30
0.0
  0
VERTEX
  5
187C
  8
SAPA_PROFIL
 10
-44.70532639400443
 20
32.837484622621353
 30
0.0
 42
-0.2596812337298582
  0
VERTEX
  5
187D
  8
SAPA_PROFIL
 10
-44.800019589312058
 20
33.007515434161313
 30
0.0
  0
VERTEX
  5
187E
  8
SAPA_PROFIL
 10
-44.800019589312853
 20
36.002062793963283
 30
0.0
  0
VERTEX
  5
187F
  8
SAPA_PROFIL
 10
-44.289357827558661
 20
37.32328111743827
 30
0.0
 42
0.4142135623731023
  0
VERTEX
  5
1880
  8
SAPA_PROFIL
 10
-44.48932187206605
 20
37.697466072914082
 30
0.0
  0
VERTEX
  5
1881
  8
SAPA_PROFIL
 10
-44.537167622064537
 20
37.711984482161178
 30
0.0
  0
VERTEX
  5
1882
  8
SAPA_PROFIL
 10
-44.537251229948133
 20
39.215085562923193
 30
0.0
 42
-0.4769755326981643
  0
VERTEX
  5
1883
  8
SAPA_PROFIL
 10
-44.16559435500232
 20
39.51733838742966
 30
0.0
  0
VERTEX
  5
1884
  8
SAPA_PROFIL
 10
-42.352363884344072
 20
39.135891791301951
 30
0.0
 42
-0.2216946626430272
  0
VERTEX
  5
1885
  8
SAPA_PROFIL
 10
-41.811484052867279
 20
38.730082886147152
 30
0.0
  0
VERTEX
  5
1886
  8
SAPA_PROFIL
 10
-41.659350141758523
 20
38.445400602915477
 30
0.0
 42
-0.5773502691897513
  0
VERTEX
  5
1887
  8
SAPA_PROFIL
 10
-41.842303881868702
 20
38.151244302660693
 30
0.0
  0
VERTEX
  5
1888
  8
SAPA_PROFIL
 10
-42.164061610086939
 20
38.161805668887652
 30
0.0
  0
VERTEX
  5
1889
  8
SAPA_PROFIL
 10
-43.248626057058686
 20
36.275961977026597
 30
0.0
  0
VERTEX
  5
188A
  8
SAPA_PROFIL
 10
-43.306699694047722
 20
36.084578977032884
 30
0.0
 42
0.7625858545243376
  0
VERTEX
  5
188B
  8
SAPA_PROFIL
 10
-42.976373613030709
 20
35.899999774835401
 30
0.0
 42
-0.2134217652834394
  0
VERTEX
  5
188C
  8
SAPA_PROFIL
 10
-42.752766815280609
 20
35.999999774835501
 30
0.0
  0
VERTEX
  5
188D
  8
SAPA_PROFIL
 10
-38.900019589254221
 20
35.999999774835501
 30
0.0
 42
0.4142135623730117
  0
VERTEX
  5
188E
  8
SAPA_PROFIL
 10
-38.600019589253122
 20
36.299999774835683
 30
0.0
  0
VERTEX
  5
188F
  8
SAPA_PROFIL
 10
-38.600019589253122
 20
36.599999774835638
 30
0.0
  0
VERTEX
  5
1890
  8
SAPA_PROFIL
 10
-39.523780019956753
 20
38.199999774835319
 30
0.0
 42
-0.5773502691895165
  0
VERTEX
  5
1891
  8
SAPA_PROFIL
 10
-39.35057493919993
 20
38.499999774835501
 30
0.0
  0
VERTEX
  5
1892
  8
SAPA_PROFIL
 10
-38.16634410093701
 20
38.499999765978622
 30
0.0
 42
-0.267931407082837
  0
VERTEX
  5
1893
  8
SAPA_PROFIL
 10
-37.300385073270427
 20
37.999999768181638
 30
0.0
  0
VERTEX
  5
1894
  8
SAPA_PROFIL
 10
-36.290828250841123
 20
36.250134937836897
 30
0.0
 42
0.2680328283026782
  0
VERTEX
  5
1895
  8
SAPA_PROFIL
 10
-35.857737538344111
 20
35.999999770794332
 30
0.0
  0
VERTEX
  5
1896
  8
SAPA_PROFIL
 10
120.8576983598374
 20
35.999999770794382
 30
0.0
 42
0.268032828302546
  0
VERTEX
  5
1897
  8
SAPA_PROFIL
 10
121.29078907233431
 20
36.250134937836719
 30
0.0
  0
VERTEX
  5
1898
  8
SAPA_PROFIL
 10
122.3003458947649
 20
37.999999768181617
 30
0.0
 42
-0.2679314070828031
  0
VERTEX
  5
1899
  8
SAPA_PROFIL
 10
123.1663049224305
 20
38.499999765978707
 30
0.0
  0
VERTEX
  5
189A
  8
SAPA_PROFIL
 10
124.3505357606944
 20
38.499999774835601
 30
0.0
 42
-0.5773502691894344
  0
VERTEX
  5
189B
  8
SAPA_PROFIL
 10
124.5237408414512
 20
38.199999774835533
 30
0.0
  0
VERTEX
  5
189C
  8
SAPA_PROFIL
 10
123.59998041074761
 20
36.599999774835737
 30
0.0
  0
VERTEX
  5
189D
  8
SAPA_PROFIL
 10
123.59998041074761
 20
36.299999774835563
 30
0.0
 42
0.4142135623729841
  0
VERTEX
  5
189E
  8
SAPA_PROFIL
 10
123.8999804107474
 20
35.999999774835601
 30
0.0
  0
SEQEND
  5
189F
  8
SAPA_PROFIL
  0
POLYLINE
  5
10E8
  8
SAPA_PROFIL
 66
     1
 10
0.0
 20
0.0
 30
0.0
 70
     1
  0
VERTEX
  5
18A0
  8
SAPA_PROFIL
 10
122.2999804107189
 20
33.699999779601292
 30
0.0
  0
VERTEX
  5
18A1
  8
SAPA_PROFIL
 10
43.99998041069184
 20
33.699999775286301
 30
0.0
 42
0.4142135623574117
  0
VERTEX
  5
18A2
  8
SAPA_PROFIL
 10
43.49998041071936
 20
33.199999775285512
 30
0.0
  0
VERTEX
  5
18A3
  8
SAPA_PROFIL
 10
43.499980410745508
 20
16.79999977086203
 30
0.0
 42
0.4142135623726288
  0
VERTEX
  5
18A4
  8
SAPA_PROFIL
 10
43.999980410745501
 20
16.299999770862819
 30
0.0
  0
VERTEX
  5
18A5
  8
SAPA_PROFIL
 10
122.2999804107465
 20
16.299999770862879
 30
0.0
 42
0.4142135623730951
  0
VERTEX
  5
18A6
  8
SAPA_PROFIL
 10
122.7999804107465
 20
16.799999770862879
 30
0.0
  0
VERTEX
  5
18A7
  8
SAPA_PROFIL
 10
122.7999804107465
 20
33.199999779601292
 30
0.0
 42
0.4142135623892446
  0
SEQEND
  5
18A8
  8
SAPA_PROFIL
  0
POLYLINE
  5
10E9
  8
SAPA_PROFIL
 66
     1
 10
0.0
 20
0.0
 30
0.0
 70
     1
  0
VERTEX
  5
18A9
  8
SAPA_PROFIL
 10
-37.800019589253957
 20
33.19999977080581
 30
0.0
  0
VERTEX
  5
18AA
  8
SAPA_PROFIL
 10
-37.80001958925385
 20
16.79999977086278
 30
0.0
 42
0.4142135623730951
  0
VERTEX
  5
18AB
  8
SAPA_PROFIL
 10
-37.30001958925385
 20
16.29999977086278
 30
0.0
  0
VERTEX
  5
18AC
  8
SAPA_PROFIL
 10
40.999980410745508
 20
16.299999770862819
 30
0.0
 42
0.4142135623735613
  0
VERTEX
  5
18AD
  8
SAPA_PROFIL
 10
41.499980410745501
 20
16.799999770863622
 30
0.0
  0
VERTEX
  5
18AE
  8
SAPA_PROFIL
 10
41.49998041071936
 20
33.199999775121569
 30
0.0
 42
0.4142135623887785
  0
VERTEX
  5
18AF
  8
SAPA_PROFIL
 10
40.99998041069184
 20
33.699999775120773
 30
0.0
  0
VERTEX
  5
18B0
  8
SAPA_PROFIL
 10
-37.300019589281483
 20
33.699999770805803
 30
0.0
 42
0.4142135623569788
  0
SEQEND
  5
18B1
  8
SAPA_PROFIL
  0
POLYLINE
  5
10EA
  8
SAPA_PROFIL
 62
     4
 66
     1
 10
0.0
 20
0.0
 30
0.0
  0
VERTEX
  5
18B2
  8
SAPA_PROFIL
 62
     4
 10
127.09438935961489
 20
66.049328897275203
 30
0.0
 42
0.5571646428658034
  0
VERTEX
  5
18B3
  8
SAPA_PROFIL
 62
     4
 10
126.2266704454594
 20
65.512368393138374
 30
0.0
  0
VERTEX
  5
18B4
  8
SAPA_PROFIL
 62
     4
 10
126.2266704454598
 20
48.487631156617176
 30
0.0
 42
0.5571645048035741
  0
VERTEX
  5
18B5
  8
SAPA_PROFIL
 62
     4
 10
127.094389133326
 20
47.950670539656109
 30
0.0
  0
VERTEX
  5
18B6
  8
SAPA_PROFIL
 62
     4
 10
128.76052978939401
 20
48.781377627202822
 30
0.0
 42
0.284385813979063
  0
VERTEX
  5
18B7
  8
SAPA_PROFIL
 62
     4
 10
128.92667044546141
 20
49.049857935683157
 30
0.0
  0
VERTEX
  5
18B8
  8
SAPA_PROFIL
 62
     4
 10
128.92667044546141
 20
64.950141614072464
 30
0.0
 42
0.2843858139786238
  0
VERTEX
  5
18B9
  8
SAPA_PROFIL
 62
     4
 10
128.7605297893945
 20
65.218621922552757
 30
0.0
  0
VERTEX
  5
18BA
  8
SAPA_PROFIL
 62
     4
 10
127.09438913332519
 20
66.049329010099925
 30
0.0
  0
SEQEND
  5
18BB
  8
SAPA_PROFIL
 62
     4
  0
POLYLINE
  5
10EB
  8
SAPA_PROFIL
 62
     4
 66
     1
 10
0.0
 20
0.0
 30
0.0
  0
VERTEX
  5
18BC
  8
SAPA_PROFIL
 62
     4
 10
129.28350195995901
 20
42.58238859021052
 30
0.0
  0
VERTEX
  5
18BD
  8
SAPA_PROFIL
 62
     4
 10
129.69006215596309
 20
42.318365311834512
 30
0.0
 42
-0.2539676464751066
  0
VERTEX
  5
18BE
  8
SAPA_PROFIL
 62
     4
 10
129.82667044545931
 20
42.066764141449809
 30
0.0
  0
VERTEX
  5
18BF
  8
SAPA_PROFIL
 62
     4
 10
129.82667044545931
 20
40.685264556244462
 30
0.0
 42
-0.3152987888790479
  0
VERTEX
  5
18C0
  8
SAPA_PROFIL
 62
     4
 10
129.4976805171211
 20
40.215418245852149
 30
0.0
  0
VERTEX
  5
18C1
  8
SAPA_PROFIL
 62
     4
 10
127.03685032666981
 20
39.319749304943542
 30
0.0
 42
0.2694959974287434
  0
VERTEX
  5
18C2
  8
SAPA_PROFIL
 62
     4
 10
126.84371835232589
 20
39.08823025854219
 30
0.0
 42
0.0612686379508233
  0
VERTEX
  5
18C3
  8
SAPA_PROFIL
 62
     4
 10
126.83013498169539
 20
38.79555482568891
 30
0.0
  0
VERTEX
  5
18C4
  8
SAPA_PROFIL
 62
     4
 10
126.6283983029666
 20
38.446136648380637
 30
0.0
 42
0.5773502691891681
  0
VERTEX
  5
18C5
  8
SAPA_PROFIL
 62
     4
 10
126.8102636377612
 20
38.131136648381059
 30
0.0
  0
VERTEX
  5
18C6
  8
SAPA_PROFIL
 62
     4
 10
127.0773781658875
 20
38.131136648380817
 30
0.0
  0
VERTEX
  5
18C7
  8
SAPA_PROFIL
 62
     4
 10
127.8860616271958
 20
36.73260894774657
 30
0.0
 42
-0.1318219888653519
  0
VERTEX
  5
18C8
  8
SAPA_PROFIL
 62
     4
 10
127.9263540237332
 20
36.582435845274219
 30
0.0
  0
VERTEX
  5
18C9
  8
SAPA_PROFIL
 62
     4
 10
127.9263540237268
 20
36.39999977483744
 30
0.0
 42
-0.4142135623724291
  0
VERTEX
  5
18CA
  8
SAPA_PROFIL
 62
     4
 10
127.52635402372719
 20
35.999999774836887
 30
0.0
  0
VERTEX
  5
18CB
  8
SAPA_PROFIL
 62
     4
 10
124.12635402372619
 20
35.999999774838258
 30
0.0
 42
-0.4142135623744271
  0
VERTEX
  5
18CC
  8
SAPA_PROFIL
 62
     4
 10
123.72635402372519
 20
36.39999977483744
 30
0.0
  0
VERTEX
  5
18CD
  8
SAPA_PROFIL
 62
     4
 10
123.7263540237245
 20
36.579615017108743
 30
0.0
 42
-0.1316524975874005
  0
VERTEX
  5
18CE
  8
SAPA_PROFIL
 62
     4
 10
123.76654640259009
 20
36.729615017105559
 30
0.0
  0
VERTEX
  5
18CF
  8
SAPA_PROFIL
 62
     4
 10
124.6926958492427
 20
38.333752914107812
 30
0.0
 42
0.1316524975875904
  0
VERTEX
  5
18D0
  8
SAPA_PROFIL
 62
     4
 10
124.8266704454574
 20
38.833752914109532
 30
0.0
  0
VERTEX
  5
18D1
  8
SAPA_PROFIL
 62
     4
 10
124.8266704454574
 20
39.249999774836901
 30
0.0
 42
0.4142135623730951
  0
VERTEX
  5
18D2
  8
SAPA_PROFIL
 62
     4
 10
123.8266704454574
 20
40.249999774836887
 30
0.0
  0
VERTEX
  5
18D3
  8
SAPA_PROFIL
 62
     4
 10
120.82667044546019
 20
40.249999774836887
 30
0.0
 42
-0.9999996830128083
  0
VERTEX
  5
18D4
  8
SAPA_PROFIL
 62
     4
 10
120.8266704454584
 20
41.249999774836887
 30
0.0
  0
VERTEX
  5
18D5
  8
SAPA_PROFIL
 62
     4
 10
123.8266704454584
 20
41.249999774836887
 30
0.0
 42
0.4142135623730951
  0
VERTEX
  5
18D6
  8
SAPA_PROFIL
 62
     4
 10
124.8266704454584
 20
42.249999774836887
 30
0.0
  0
VERTEX
  5
18D7
  8
SAPA_PROFIL
 62
     4
 10
124.8266704454584
 20
71.749999774921477
 30
0.0
 42
0.4142135623730951
  0
VERTEX
  5
18D8
  8
SAPA_PROFIL
 62
     4
 10
123.8266704454584
 20
72.749999774921477
 30
0.0
  0
VERTEX
  5
18D9
  8
SAPA_PROFIL
 62
     4
 10
120.82667044546019
 20
72.749999774921477
 30
0.0
 42
-0.9999999999999998
  0
VERTEX
  5
18DA
  8
SAPA_PROFIL
 62
     4
 10
120.82667044546019
 20
73.749999774921477
 30
0.0
  0
VERTEX
  5
18DB
  8
SAPA_PROFIL
 62
     4
 10
123.8266704454584
 20
73.749999774921477
 30
0.0
 42
0.4142135623736278
  0
VERTEX
  5
18DC
  8
SAPA_PROFIL
 62
     4
 10
124.8266704454584
 20
74.749999774921477
 30
0.0
  0
VERTEX
  5
18DD
  8
SAPA_PROFIL
 62
     4
 10
124.8266704454584
 20
75.166246635647937
 30
0.0
 42
0.1316524975874375
  0
VERTEX
  5
18DE
  8
SAPA_PROFIL
 62
     4
 10
124.6926958492423
 20
75.666246635648136
 30
0.0
  0
VERTEX
  5
18DF
  8
SAPA_PROFIL
 62
     4
 10
123.76654640259009
 20
77.270384532650084
 30
0.0
 42
-0.1316524975874
  0
VERTEX
  5
18E0
  8
SAPA_PROFIL
 62
     4
 10
123.7263540237245
 20
77.420384532649621
 30
0.0
  0
VERTEX
  5
18E1
  8
SAPA_PROFIL
 62
     4
 10
123.72635402372519
 20
77.599999774920931
 30
0.0
 42
-0.4142135623744271
  0
VERTEX
  5
18E2
  8
SAPA_PROFIL
 62
     4
 10
124.12635402372619
 20
77.999999774920113
 30
0.0
  0
VERTEX
  5
18E3
  8
SAPA_PROFIL
 62
     4
 10
127.52635402372719
 20
77.999999774921477
 30
0.0
 42
-0.4142135623724291
  0
VERTEX
  5
18E4
  8
SAPA_PROFIL
 62
     4
 10
127.9263540237268
 20
77.599999774920931
 30
0.0
  0
VERTEX
  5
18E5
  8
SAPA_PROFIL
 62
     4
 10
127.9263540237332
 20
77.417563704484152
 30
0.0
 42
-0.1318219888653524
  0
VERTEX
  5
18E6
  8
SAPA_PROFIL
 62
     4
 10
127.8860616271958
 20
77.267390602011801
 30
0.0
  0
VERTEX
  5
18E7
  8
SAPA_PROFIL
 62
     4
 10
127.0773781659715
 20
75.868862901532154
 30
0.0
  0
VERTEX
  5
18E8
  8
SAPA_PROFIL
 62
     4
 10
126.8102636377584
 20
75.868862901532154
 30
0.0
 42
0.5773502691891599
  0
VERTEX
  5
18E9
  8
SAPA_PROFIL
 62
     4
 10
126.6283983029639
 20
75.553862901532554
 30
0.0
  0
VERTEX
  5
18EA
  8
SAPA_PROFIL
 62
     4
 10
126.8301349816409
 20
75.204444724313902
 30
0.0
 42
0.0612687673629489
  0
VERTEX
  5
18EB
  8
SAPA_PROFIL
 62
     4
 10
126.8437183523272
 20
74.911769291213687
 30
0.0
 42
0.2694959974285039
  0
VERTEX
  5
18EC
  8
SAPA_PROFIL
 62
     4
 10
127.0368503266711
 20
74.680250244813152
 30
0.0
  0
VERTEX
  5
18ED
  8
SAPA_PROFIL
 62
     4
 10
129.49768051712431
 20
73.784581303903494
 30
0.0
 42
-0.315298788878404
  0
VERTEX
  5
18EE
  8
SAPA_PROFIL
 62
     4
 10
129.82667044546091
 20
73.314734993510271
 30
0.0
  0
VERTEX
  5
18EF
  8
SAPA_PROFIL
 62
     4
 10
129.82667044545931
 20
71.933235408305833
 30
0.0
 42
-0.2539676464741836
  0
VERTEX
  5
18F0
  8
SAPA_PROFIL
 62
     4
 10
129.690062155964
 20
71.681634237921756
 30
0.0
  0
VERTEX
  5
18F1
  8
SAPA_PROFIL
 62
     4
 10
129.28350195995901
 20
71.417610959545115
 30
0.0
 42
-0.5862177598324614
  0
VERTEX
  5
18F2
  8
SAPA_PROFIL
 62
     4
 10
128.8266704454625
 20
71.673352774783467
 30
0.0
  0
VERTEX
  5
18F3
  8
SAPA_PROFIL
 62
     4
 10
128.8266704454702
 20
72.61452745529327
 30
0.0
 42
0.3152987888813165
  0
VERTEX
  5
18F4
  8
SAPA_PROFIL
 62
     4
 10
128.4976805171334
 20
73.084373765691026
 30
0.0
  0
VERTEX
  5
18F5
  8
SAPA_PROFIL
 62
     4
 10
127.2976805171222
 20
73.521138046814983
 30
0.0
 42
0.5205670505515655
  0
VERTEX
  5
18F6
  8
SAPA_PROFIL
 62
     4
 10
126.6266704454594
 20
73.05129173642176
 30
0.0
  0
VERTEX
  5
18F7
  8
SAPA_PROFIL
 62
     4
 10
126.6266704454594
 20
67.809051040354959
 30
0.0
 42
0.2843858139786245
  0
VERTEX
  5
18F8
  8
SAPA_PROFIL
 62
     4
 10
126.7928111015264
 20
67.540570731873771
 30
0.0
  0
VERTEX
  5
18F9
  8
SAPA_PROFIL
 62
     4
 10
128.3928111015241
 20
66.742840158989154
 30
0.0
 42
0.5571645048046511
  0
VERTEX
  5
18FA
  8
SAPA_PROFIL
 62
     4
 10
128.82667044545741
 20
67.011320467469474
 30
0.0
  0
VERTEX
  5
18FB
  8
SAPA_PROFIL
 62
     4
 10
128.8266704454611
 20
68.373352774782276
 30
0.0
 42
-0.5920056181162535
  0
VERTEX
  5
18FC
  8
SAPA_PROFIL
 62
     4
 10
129.287873947989
 20
68.626361531099676
 30
0.0
  0
VERTEX
  5
18FD
  8
SAPA_PROFIL
 62
     4
 10
129.6900621559673
 20
68.365177454943975
 30
0.0
 42
-0.2539676464746718
  0
VERTEX
  5
18FE
  8
SAPA_PROFIL
 62
     4
 10
129.8266704454627
 20
68.11357628456021
 30
0.0
  0
VERTEX
  5
18FF
  8
SAPA_PROFIL
 62
     4
 10
129.8266704454611
 20
45.886423265194523
 30
0.0
 42
-0.2539676464741819
  0
VERTEX
  5
1900
  8
SAPA_PROFIL
 62
     4
 10
129.6900621559673
 20
45.634822094811668
 30
0.0
  0
VERTEX
  5
1901
  8
SAPA_PROFIL
 62
     4
 10
129.287873947989
 20
45.373638018657857
 30
0.0
 42
-0.5920055144124249
  0
VERTEX
  5
1902
  8
SAPA_PROFIL
 62
     4
 10
128.8266704454611
 20
45.626646774973374
 30
0.0
  0
VERTEX
  5
1903
  8
SAPA_PROFIL
 62
     4
 10
128.82667044545829
 20
46.988679082286069
 30
0.0
 42
0.5571646182910574
  0
VERTEX
  5
1904
  8
SAPA_PROFIL
 62
     4
 10
128.3928111015241
 20
47.257159390766489
 30
0.0
  0
VERTEX
  5
1905
  8
SAPA_PROFIL
 62
     4
 10
126.79281110152669
 20
46.459428817881218
 30
0.0
 42
0.2843858139786238
  0
VERTEX
  5
1906
  8
SAPA_PROFIL
 62
     4
 10
126.6266704454594
 20
46.190948509400677
 30
0.0
  0
VERTEX
  5
1907
  8
SAPA_PROFIL
 62
     4
 10
126.6266704454592
 20
40.948707813335702
 30
0.0
 42
0.5205670505515692
  0
VERTEX
  5
1908
  8
SAPA_PROFIL
 62
     4
 10
127.2976805171222
 20
40.478861502942479
 30
0.0
  0
VERTEX
  5
1909
  8
SAPA_PROFIL
 62
     4
 10
128.49768051713161
 20
40.91562578406743
 30
0.0
 42
0.3152987888807539
  0
VERTEX
  5
190A
  8
SAPA_PROFIL
 62
     4
 10
128.82667044546929
 20
41.385472094463282
 30
0.0
  0
VERTEX
  5
190B
  8
SAPA_PROFIL
 62
     4
 10
128.82667044546241
 20
42.32664677497236
 30
0.0
 42
-0.5862175119221242
  0
VERTEX
  5
190C
  8
SAPA_PROFIL
 62
     4
 10
129.2835017712176
 20
42.582388705954322
 30
0.0
 42
0.0000002084758573
  0
SEQEND
  5
190D
  8
SAPA_PROFIL
 62
     4
  0
POLYLINE
  5
10EC
  8
SAPA_PROFIL
 66
     1
 10
0.0
 20
0.0
 30
0.0
 70
     1
  0
VERTEX
  5
190E
  8
SAPA_PROFIL
 10
116.03223304703189
 20
80.646446390356701
 30
0.0
 42
0.1989123673796551
  0
VERTEX
  5
190F
  8
SAPA_PROFIL
 10
116.3857864376252
 20
80.499999780949977
 30
0.0
  0
VERTEX
  5
1910
  8
SAPA_PROFIL
 10
116.99999999999839
 20
80.499999780949977
 30
0.0
 42
0.4142135623730951
  0
VERTEX
  5
1911
  8
SAPA_PROFIL
 10
117.29999999999841
 20
80.799999780949989
 30
0.0
  0
VERTEX
  5
1912
  8
SAPA_PROFIL
 10
117.29999999999841
 20
81.292892999763311
 30
0.0
 42
0.1989123673796546
  0
VERTEX
  5
1913
  8
SAPA_PROFIL
 10
117.1535533905917
 20
81.646446390356587
 30
0.0
  0
VERTEX
  5
1914
  8
SAPA_PROFIL
 10
112.946446609405
 20
85.853553171543155
 30
0.0
 42
-0.1989123673796781
  0
VERTEX
  5
1915
  8
SAPA_PROFIL
 10
112.79999999999841
 20
86.207106562136474
 30
0.0
  0
VERTEX
  5
1916
  8
SAPA_PROFIL
 10
112.7999999999993
 20
97.999999780879833
 30
0.0
 42
-0.4142135623736611
  0
VERTEX
  5
1917
  8
SAPA_PROFIL
 10
113.0999999999986
 20
98.299999780879901
 30
0.0
  0
VERTEX
  5
1918
  8
SAPA_PROFIL
 10
120.9999999999991
 20
98.299999780879901
 30
0.0
 42
0.414213562373761
  0
VERTEX
  5
1919
  8
SAPA_PROFIL
 10
121.29999999999841
 20
98.599999780879855
 30
0.0
  0
VERTEX
  5
191A
  8
SAPA_PROFIL
 10
121.29999999999841
 20
99.699999780879764
 30
0.0
 42
0.4142135623721627
  0
VERTEX
  5
191B
  8
SAPA_PROFIL
 10
120.9999999999991
 20
99.999999780879904
 30
0.0
  0
VERTEX
  5
191C
  8
SAPA_PROFIL
 10
-29.226501548575499
 20
99.999999780879904
 30
0.0
 42
0.6675531847388431
  0
VERTEX
  5
191D
  8
SAPA_PROFIL
 10
-29.58066609501023
 20
99.14705860440975
 30
0.0
 42
-1.2161320164091849
  0
VERTEX
  5
191E
  8
SAPA_PROFIL
 10
-34.311743541255083
 20
95.984615165494816
 30
0.0
 42
0.8177283018235058
  0
VERTEX
  5
191F
  8
SAPA_PROFIL
 10
-36.234808112045393
 20
95.604970135388044
 30
0.0
 42
0.1926855035647558
  0
VERTEX
  5
1920
  8
SAPA_PROFIL
 10
-35.416697038785998
 20
93.531049014113037
 30
0.0
 42
0.5256733984080475
  0
VERTEX
  5
1921
  8
SAPA_PROFIL
 10
-26.95080866249376
 20
94.841674418973895
 30
0.0
 42
-0.5164682151966532
  0
VERTEX
  5
1922
  8
SAPA_PROFIL
 10
-26.14686952172363
 20
94.978081140154046
 30
0.0
  0
VERTEX
  5
1923
  8
SAPA_PROFIL
 10
-24.41523477185731
 20
93.246446390287019
 30
0.0
 42
0.1989123673798339
  0
VERTEX
  5
1924
  8
SAPA_PROFIL
 10
-24.061681381263071
 20
93.099999780879784
 30
0.0
  0
VERTEX
  5
1925
  8
SAPA_PROFIL
 10
-22.494001838392279
 20
93.099999780880253
 30
0.0
  0
VERTEX
  5
1926
  8
SAPA_PROFIL
 10
-22.081869804036639
 20
92.687867746524276
 30
0.0
 42
0.4142135623730165
  0
VERTEX
  5
1927
  8
SAPA_PROFIL
 10
-21.65760573532501
 20
92.687867746524176
 30
0.0
  0
VERTEX
  5
1928
  8
SAPA_PROFIL
 10
-21.245473700968461
 20
93.099999780880253
 30
0.0
  0
VERTEX
  5
1929
  8
SAPA_PROFIL
 10
-20.469737769680279
 20
93.099999780880253
 30
0.0
 42
0.4142135623730951
  0
VERTEX
  5
192A
  8
SAPA_PROFIL
 10
-19.969737769680279
 20
93.599999780880367
 30
0.0
  0
VERTEX
  5
192B
  8
SAPA_PROFIL
 10
-19.969737769680279
 20
94.399999780880094
 30
0.0
 42
0.4142135623730951
  0
VERTEX
  5
192C
  8
SAPA_PROFIL
 10
-20.469737769680279
 20
94.899999780880094
 30
0.0
  0
VERTEX
  5
192D
  8
SAPA_PROFIL
 10
-23.316096968992529
 20
94.899999780880322
 30
0.0
 42
-0.1989123673796284
  0
VERTEX
  5
192E
  8
SAPA_PROFIL
 10
-23.669650359585859
 20
95.046446390287088
 30
0.0
  0
VERTEX
  5
192F
  8
SAPA_PROFIL
 10
-24.816096968992529
 20
96.192892999693314
 30
0.0
 42
-0.6681786379192904
  0
VERTEX
  5
1930
  8
SAPA_PROFIL
 10
-24.108990187805858
 20
97.899999780879867
 30
0.0
  0
VERTEX
  5
1931
  8
SAPA_PROFIL
 10
110.2999999999993
 20
97.899999780885381
 30
0.0
 42
-0.4142135623730951
  0
VERTEX
  5
1932
  8
SAPA_PROFIL
 10
111.2999999999993
 20
96.899999780885381
 30
0.0
  0
VERTEX
  5
1933
  8
SAPA_PROFIL
 10
111.2999999999993
 20
80.799999780950145
 30
0.0
 42
0.4142135623740607
  0
VERTEX
  5
1934
  8
SAPA_PROFIL
 10
111.5999999999994
 20
80.499999780949864
 30
0.0
  0
VERTEX
  5
1935
  8
SAPA_PROFIL
 10
111.79999999999841
 20
80.499999780950091
 30
0.0
 42
0.4142135623730951
  0
VERTEX
  5
1936
  8
SAPA_PROFIL
 10
112.79999999999841
 20
81.499999780950077
 30
0.0
  0
VERTEX
  5
1937
  8
SAPA_PROFIL
 10
112.79999999999571
 20
82.671572656205129
 30
0.0
 42
-0.6681786379201151
  0
VERTEX
  5
1938
  8
SAPA_PROFIL
 10
113.653553390589
 20
83.025126046799542
 30
0.0
  0
SEQEND
  5
1939
  8
SAPA_PROFIL
  0
POLYLINE
  5
10ED
  8
SAPA_PROFIL
 66
     1
 10
0.0
 20
0.0
 30
0.0
 70
     1
  0
VERTEX
  5
193A
  8
SAPA_PROFIL
 10
-120.49537611367759
 20
97.104812078301407
 30
0.0
  0
VERTEX
  5
193B
  8
SAPA_PROFIL
 10
-120.49537611367759
 20
96.862268140454262
 30
0.0
 42
0.2011813370902256
  0
VERTEX
  5
193C
  8
SAPA_PROFIL
 10
-120.4355579665376
 20
96.719618050623694
 30
0.0
  0
VERTEX
  5
193D
  8
SAPA_PROFIL
 10
-119.5088106078079
 20
95.808905957599805
 30
0.0
  0
VERTEX
  5
193E
  8
SAPA_PROFIL
 10
-117.9953761136758
 20
95.822113500342994
 30
0.0
 42
-0.4931454260356012
  0
VERTEX
  5
193F
  8
SAPA_PROFIL
 10
-116.42411115343801
 20
96.042940389390665
 30
0.0
  0
VERTEX
  5
1940
  8
SAPA_PROFIL
 10
-115.3564613166136
 20
94.993763816777857
 30
0.0
 42
-0.6681786379164681
  0
VERTEX
  5
1941
  8
SAPA_PROFIL
 10
-115.4978301970673
 20
94.643863559292924
 30
0.0
  0
VERTEX
  5
1942
  8
SAPA_PROFIL
 10
-119.99537611367759
 20
94.604614070695618
 30
0.0
  0
VERTEX
  5
1943
  8
SAPA_PROFIL
 10
-122.1094689652673
 20
96.682127329925379
 30
0.0
 42
0.2038501166358263
  0
VERTEX
  5
1944
  8
SAPA_PROFIL
 10
-122.4737757446851
 20
96.825310186531397
 30
0.0
  0
VERTEX
  5
1945
  8
SAPA_PROFIL
 10
-137.57848899727961
 20
96.406684077242517
 30
0.0
 42
0.4061212134736873
  0
VERTEX
  5
1946
  8
SAPA_PROFIL
 10
-140.49537611367111
 20
93.407835590143065
 30
0.0
  0
VERTEX
  5
1947
  8
SAPA_PROFIL
 10
-140.49537611367111
 20
81.623644346674993
 30
0.0
 42
0.4142135623730951
  0
VERTEX
  5
1948
  8
SAPA_PROFIL
 10
-139.99537611367111
 20
81.123644346675007
 30
0.0
  0
VERTEX
  5
1949
  8
SAPA_PROFIL
 10
-128.4095896760461
 20
81.123644346675007
 30
0.0
 42
0.198912367379658
  0
VERTEX
  5
194A
  8
SAPA_PROFIL
 10
-127.7024828948595
 20
81.416537565488454
 30
0.0
  0
VERTEX
  5
194B
  8
SAPA_PROFIL
 10
-127.321884121469
 20
81.797136338878943
 30
0.0
 42
-0.1830252782112529
  0
VERTEX
  5
194C
  8
SAPA_PROFIL
 10
-126.03021631273759
 20
82.379164880626547
 30
0.0
  0
VERTEX
  5
194D
  8
SAPA_PROFIL
 10
-115.5971442839318
 20
83.102229607957099
 30
0.0
 42
-0.668178637923616
  0
VERTEX
  5
194E
  8
SAPA_PROFIL
 10
-115.3837619643983
 20
82.587079118168106
 30
0.0
  0
VERTEX
  5
194F
  8
SAPA_PROFIL
 10
-117.3832440793208
 20
80.587597003245548
 30
0.0
 42
-0.7332303362588345
  0
VERTEX
  5
1950
  8
SAPA_PROFIL
 10
-117.8908184395805
 20
80.851823490902746
 30
0.0
  0
VERTEX
  5
1951
  8
SAPA_PROFIL
 10
-117.7822343287944
 20
81.467634584301152
 30
0.0
 42
0.4663076581593561
  0
VERTEX
  5
1952
  8
SAPA_PROFIL
 10
-118.0776766546979
 20
81.819729037601348
 30
0.0
  0
VERTEX
  5
1953
  8
SAPA_PROFIL
 10
-125.8371537800502
 20
81.088569415720883
 30
0.0
 42
0.183025278211264
  0
VERTEX
  5
1954
  8
SAPA_PROFIL
 10
-126.4829876844159
 20
80.797555144847067
 30
0.0
  0
VERTEX
  5
1955
  8
SAPA_PROFIL
 10
-126.8711120449608
 20
80.40943078430206
 30
0.0
 42
-0.1989123673796518
  0
VERTEX
  5
1956
  8
SAPA_PROFIL
 10
-128.2853256073339
 20
79.823644346675167
 30
0.0
  0
VERTEX
  5
1957
  8
SAPA_PROFIL
 10
-139.69537611368659
 20
79.823644346675053
 30
0.0
 42
0.4142135623732283
  0
VERTEX
  5
1958
  8
SAPA_PROFIL
 10
-140.19537611368671
 20
79.323644346674826
 30
0.0
  0
VERTEX
  5
1959
  8
SAPA_PROFIL
 10
-140.19537611368571
 20
78.123644346675462
 30
0.0
 42
-0.4142135623732062
  0
VERTEX
  5
195A
  8
SAPA_PROFIL
 10
-140.49537611368569
 20
77.823644346675394
 30
0.0
  0
VERTEX
  5
195B
  8
SAPA_PROFIL
 10
-141.69537611367119
 20
77.823644346675053
 30
0.0
 42
-0.4142135623716247
  0
VERTEX
  5
195C
  8
SAPA_PROFIL
 10
-141.9953761136712
 20
78.123644346676372
 30
0.0
  0
VERTEX
  5
195D
  8
SAPA_PROFIL
 10
-141.9953761136847
 20
98.100052088998382
 30
0.0
 42
-0.4142135623732938
  0
VERTEX
  5
195E
  8
SAPA_PROFIL
 10
-141.7953761136848
 20
98.300052088998427
 30
0.0
  0
VERTEX
  5
195F
  8
SAPA_PROFIL
 10
-120.19999999999889
 20
98.300052088998427
 30
0.0
 42
-0.4210020197690384
  0
VERTEX
  5
1960
  8
SAPA_PROFIL
 10
-119.99537611367759
 20
98.10010554695441
 30
0.0
  0
VERTEX
  5
1961
  8
SAPA_PROFIL
 10
-119.9953761136711
 20
97.512122383758879
 30
0.0
  0
VERTEX
  5
1962
  8
SAPA_PROFIL
 10
-120.2953761136712
 20
97.512122383758879
 30
0.0
 42
0.41421356237322
  0
VERTEX
  5
1963
  8
SAPA_PROFIL
 10
-120.495376113671
 20
97.312122383758833
 30
0.0
  0
VERTEX
  5
1964
  8
SAPA_PROFIL
 10
-120.4953761136712
 20
97.094944618289219
 30
0.0
  0
SEQEND
  5
1965
  8
SAPA_PROFIL
  0
POLYLINE
  5
10EE
  8
SAPA_PROFIL
 66
     1
 10
0.0
 20
0.0
 30
0.0
 70
     1
  0
VERTEX
  5
1966
  8
SAPA_PROFIL
 10
130.49537611367759
 20
97.104811946061673
 30
0.0
  0
VERTEX
  5
1967
  8
SAPA_PROFIL
 10
130.49537611367759
 20
96.862268008214528
 30
0.0
 42
-0.2011813370902256
  0
VERTEX
  5
1968
  8
SAPA_PROFIL
 10
130.4355579665376
 20
96.719617918383975
 30
0.0
  0
VERTEX
  5
1969
  8
SAPA_PROFIL
 10
129.5088106078079
 20
95.808905825360057
 30
0.0
  0
VERTEX
  5
196A
  8
SAPA_PROFIL
 10
127.9953761136758
 20
95.82211336810326
 30
0.0
 42
0.4931454260356012
  0
VERTEX
  5
196B
  8
SAPA_PROFIL
 10
126.42411115343801
 20
96.042940257150903
 30
0.0
  0
VERTEX
  5
196C
  8
SAPA_PROFIL
 10
125.3564613166136
 20
94.993763684538123
 30
0.0
 42
0.6681786379164681
  0
VERTEX
  5
196D
  8
SAPA_PROFIL
 10
125.4978301970673
 20
94.643863427053191
 30
0.0
  0
VERTEX
  5
196E
  8
SAPA_PROFIL
 10
129.99537611367759
 20
94.604613938455884
 30
0.0
  0
VERTEX
  5
196F
  8
SAPA_PROFIL
 10
132.1094689652673
 20
96.682127197685645
 30
0.0
 42
-0.2038501166358263
  0
VERTEX
  5
1970
  8
SAPA_PROFIL
 10
132.4737757446851
 20
96.825310054291677
 30
0.0
  0
VERTEX
  5
1971
  8
SAPA_PROFIL
 10
147.57848899727961
 20
96.406683945002797
 30
0.0
 42
-0.4061212134736873
  0
VERTEX
  5
1972
  8
SAPA_PROFIL
 10
150.49537611367111
 20
93.407835457903332
 30
0.0
  0
VERTEX
  5
1973
  8
SAPA_PROFIL
 10
150.49537611367111
 20
81.623644214435274
 30
0.0
 42
-0.4142135623730951
  0
VERTEX
  5
1974
  8
SAPA_PROFIL
 10
149.99537611367111
 20
81.123644214435274
 30
0.0
  0
VERTEX
  5
1975
  8
SAPA_PROFIL
 10
138.4095896760461
 20
81.123644214435274
 30
0.0
 42
-0.198912367379658
  0
VERTEX
  5
1976
  8
SAPA_PROFIL
 10
137.70248289485949
 20
81.416537433248706
 30
0.0
  0
VERTEX
  5
1977
  8
SAPA_PROFIL
 10
137.321884121469
 20
81.797136206639209
 30
0.0
 42
0.1830252782112529
  0
VERTEX
  5
1978
  8
SAPA_PROFIL
 10
136.03021631273759
 20
82.379164748386813
 30
0.0
  0
VERTEX
  5
1979
  8
SAPA_PROFIL
 10
125.5971442839318
 20
83.102229475717365
 30
0.0
 42
0.668178637923616
  0
VERTEX
  5
197A
  8
SAPA_PROFIL
 10
125.3837619643983
 20
82.587078985928358
 30
0.0
  0
VERTEX
  5
197B
  8
SAPA_PROFIL
 10
127.3832440793208
 20
80.587596871005815
 30
0.0
 42
0.7332303362588345
  0
VERTEX
  5
197C
  8
SAPA_PROFIL
 10
127.8908184395805
 20
80.851823358663012
 30
0.0
  0
VERTEX
  5
197D
  8
SAPA_PROFIL
 10
127.7822343287944
 20
81.467634452061418
 30
0.0
 42
-0.4663076581593561
  0
VERTEX
  5
197E
  8
SAPA_PROFIL
 10
128.07767665469791
 20
81.819728905361615
 30
0.0
  0
VERTEX
  5
197F
  8
SAPA_PROFIL
 10
135.83715378005019
 20
81.088569283481149
 30
0.0
 42
-0.183025278211264
  0
VERTEX
  5
1980
  8
SAPA_PROFIL
 10
136.48298768441589
 20
80.797555012607333
 30
0.0
  0
VERTEX
  5
1981
  8
SAPA_PROFIL
 10
136.8711120449608
 20
80.409430652062326
 30
0.0
 42
0.1989123673796518
  0
VERTEX
  5
1982
  8
SAPA_PROFIL
 10
138.2853256073339
 20
79.823644214435433
 30
0.0
  0
VERTEX
  5
1983
  8
SAPA_PROFIL
 10
149.69537611368671
 20
79.823644214435319
 30
0.0
 42
-0.4142135623732283
  0
VERTEX
  5
1984
  8
SAPA_PROFIL
 10
150.19537611368659
 20
79.323644214435092
 30
0.0
  0
VERTEX
  5
1985
  8
SAPA_PROFIL
 10
150.19537611368571
 20
78.123644214435728
 30
0.0
 42
0.4142135623732062
  0
VERTEX
  5
1986
  8
SAPA_PROFIL
 10
150.49537611368569
 20
77.82364421443566
 30
0.0
  0
VERTEX
  5
1987
  8
SAPA_PROFIL
 10
151.69537611367119
 20
77.823644214435305
 30
0.0
 42
0.4142135623716247
  0
VERTEX
  5
1988
  8
SAPA_PROFIL
 10
151.9953761136712
 20
78.123644214436638
 30
0.0
  0
VERTEX
  5
1989
  8
SAPA_PROFIL
 10
151.9953761136847
 20
98.100051956758648
 30
0.0
 42
0.4142135623732938
  0
VERTEX
  5
198A
  8
SAPA_PROFIL
 10
151.79537611368471
 20
98.300051956758693
 30
0.0
  0
VERTEX
  5
198B
  8
SAPA_PROFIL
 10
130.19999999999891
 20
98.300051956758693
 30
0.0
 42
0.4210020197690384
  0
VERTEX
  5
198C
  8
SAPA_PROFIL
 10
129.99537611367759
 20
98.100105414714676
 30
0.0
  0
VERTEX
  5
198D
  8
SAPA_PROFIL
 10
129.9953761136712
 20
97.512122251519145
 30
0.0
  0
VERTEX
  5
198E
  8
SAPA_PROFIL
 10
130.29537611367121
 20
97.512122251519145
 30
0.0
 42
-0.41421356237322
  0
VERTEX
  5
198F
  8
SAPA_PROFIL
 10
130.495376113671
 20
97.312122251519099
 30
0.0
  0
VERTEX
  5
1990
  8
SAPA_PROFIL
 10
130.49537611367111
 20
97.094944486049485
 30
0.0
  0
SEQEND
  5
1991
  8
SAPA_PROFIL
  0
POLYLINE
  5
10EF
  8
SAPA_PROFIL
 66
     1
 10
0.0
 20
0.0
 30
0.0
  0
VERTEX
  5
1992
  8
SAPA_PROFIL
 10
-53.45278673581884
 20
35.999999913108702
 30
0.0
 42
0.2134217652834216
  0
VERTEX
  5
1993
  8
SAPA_PROFIL
 10
-53.676393533568962
 20
35.899999913108559
 30
0.0
 42
-0.7625858545242717
  0
VERTEX
  5
1994
  8
SAPA_PROFIL
 10
-54.006719614585982
 20
36.084579115306042
 30
0.0
  0
VERTEX
  5
1995
  8
SAPA_PROFIL
 10
-53.948645977596883
 20
36.275962115299762
 30
0.0
  0
VERTEX
  5
1996
  8
SAPA_PROFIL
 10
-52.864081530625143
 20
38.161805807160817
 30
0.0
  0
VERTEX
  5
1997
  8
SAPA_PROFIL
 10
-52.542323802406877
 20
38.151244440933851
 30
0.0
 42
0.5773502691897205
  0
VERTEX
  5
1998
  8
SAPA_PROFIL
 10
-52.359370062296719
 20
38.445400741188678
 30
0.0
  0
VERTEX
  5
1999
  8
SAPA_PROFIL
 10
-52.511503973405439
 20
38.73008302442031
 30
0.0
 42
0.2216946626430408
  0
VERTEX
  5
199A
  8
SAPA_PROFIL
 10
-53.052383804882261
 20
39.135891929575109
 30
0.0
  0
VERTEX
  5
199B
  8
SAPA_PROFIL
 10
-54.865614275540501
 20
39.517338525702833
 30
0.0
 42
0.476975532698107
  0
VERTEX
  5
199C
  8
SAPA_PROFIL
 10
-55.2372711504864
 20
39.215085701196358
 30
0.0
  0
VERTEX
  5
199D
  8
SAPA_PROFIL
 10
-55.23718754260274
 20
37.71198462043435
 30
0.0
  0
VERTEX
  5
199E
  8
SAPA_PROFIL
 10
-55.18934179260426
 20
37.697466211187248
 30
0.0
 42
-0.4142135623731266
  0
VERTEX
  5
199F
  8
SAPA_PROFIL
 10
-54.989377748096857
 20
37.323281255711443
 30
0.0
  0
VERTEX
  5
19A0
  8
SAPA_PROFIL
 10
-55.499999999999382
 20
36.002165154771767
 30
0.0
  0
VERTEX
  5
19A1
  8
SAPA_PROFIL
 10
-55.499999999999382
 20
29.920591913108069
 30
0.0
  0
VERTEX
  5
19A2
  8
SAPA_PROFIL
 10
-55.199435999999373
 20
29.39999991310799
 30
0.0
  0
VERTEX
  5
19A3
  8
SAPA_PROFIL
 10
-55.499999999999382
 20
28.879406913107921
 30
0.0
  0
VERTEX
  5
19A4
  8
SAPA_PROFIL
 10
-55.499999999999382
 20
24.699999913107611
 30
0.0
 42
-0.4142140000000108
  0
VERTEX
  5
19A5
  8
SAPA_PROFIL
 10
-55.79999999999945
 20
24.399999913107539
 30
0.0
  0
VERTEX
  5
19A6
  8
SAPA_PROFIL
 10
-57.299999999999557
 20
24.399999913107649
 30
0.0
 42
0.4142139999998548
  0
VERTEX
  5
19A7
  8
SAPA_PROFIL
 10
-57.499999999999602
 20
24.1999999131076
 30
0.0
  0
VERTEX
  5
19A8
  8
SAPA_PROFIL
 10
-57.499999999999602
 20
23.699999913107611
 30
0.0
 42
0.4142140000000309
  0
VERTEX
  5
19A9
  8
SAPA_PROFIL
 10
-56.499999999999488
 20
22.69999991310738
 30
0.0
  0
VERTEX
  5
19AA
  8
SAPA_PROFIL
 10
-49.999999999999723
 20
22.69999991310738
 30
0.0
 42
-0.4142135623731031
  0
VERTEX
  5
19AB
  8
SAPA_PROFIL
 10
-47.999999999999602
 20
20.69999991310738
 30
0.0
  0
VERTEX
  5
19AC
  8
SAPA_PROFIL
 10
-47.999999999999602
 20
14.999999913106871
 30
0.0
 42
0.4142140000000262
  0
VERTEX
  5
19AD
  8
SAPA_PROFIL
 10
-46.999999999999481
 20
13.999999913106651
 30
0.0
  0
VERTEX
  5
19AE
  8
SAPA_PROFIL
 10
-45.29999999999967
 20
13.999999913106871
 30
0.0
 42
0.4142139999999169
  0
VERTEX
  5
19AF
  8
SAPA_PROFIL
 10
-44.999999999999602
 20
14.299999913106831
 30
0.0
  0
VERTEX
  5
19B0
  8
SAPA_PROFIL
 10
-44.999999999999602
 20
14.756132619300161
 30
0.0
 42
0.2308681911255748
  0
VERTEX
  5
19B1
  8
SAPA_PROFIL
 10
-45.19216926233679
 20
15.15013799610346
 30
0.0
  0
VERTEX
  5
19B2
  8
SAPA_PROFIL
 10
-45.807830737662407
 20
15.634197940512189
 30
0.0
 42
-0.2308681911255704
  0
VERTEX
  5
19B3
  8
SAPA_PROFIL
 10
-45.999999999999602
 20
16.028203317315501
 30
0.0
  0
VERTEX
  5
19B4
  8
SAPA_PROFIL
 10
-45.999999999999602
 20
17.9999999131071
 30
0.0
 42
-0.4142140000000419
  0
VERTEX
  5
19B5
  8
SAPA_PROFIL
 10
-45.499999999999602
 20
18.4999999131071
 30
0.0
  0
VERTEX
  5
19B6
  8
SAPA_PROFIL
 10
-41.499999999999609
 20
18.4999999131071
 30
0.0
 42
0.9999999999999998
  0
VERTEX
  5
19B7
  8
SAPA_PROFIL
 10
-41.499999999999609
 20
19.899999913107191
 30
0.0
  0
VERTEX
  5
19B8
  8
SAPA_PROFIL
 10
-44.499999999999268
 20
19.899999913107191
 30
0.0
 42
-0.4142135623731304
  0
VERTEX
  5
19B9
  8
SAPA_PROFIL
 10
-44.999999999999382
 20
20.399999913107202
 30
0.0
  0
VERTEX
  5
19BA
  8
SAPA_PROFIL
 10
-44.999999999999382
 20
20.69999991310738
 30
0.0
 42
0.4142135623730951
  0
VERTEX
  5
19BB
  8
SAPA_PROFIL
 10
-49.999999999999723
 20
25.699999913107721
 30
0.0
  0
VERTEX
  5
19BC
  8
SAPA_PROFIL
 10
-51.999999999999382
 20
25.699999913107721
 30
0.0
 42
-0.414214000000047
  0
VERTEX
  5
19BD
  8
SAPA_PROFIL
 10
-52.499999999999382
 20
26.199999913107721
 30
0.0
  0
VERTEX
  5
19BE
  8
SAPA_PROFIL
 10
-52.499999999999382
 20
32.234774913108261
 30
0.0
 42
-0.363970000000007
  0
VERTEX
  5
19BF
  8
SAPA_PROFIL
 10
-51.673647999999332
 20
33.2195819131083
 30
0.0
  0
VERTEX
  5
19C0
  8
SAPA_PROFIL
 10
-45.826351999998849
 20
34.250617913108272
 30
0.0
 42
0.3639700000000089
  0
VERTEX
  5
19C1
  8
SAPA_PROFIL
 10
-44.999999999998813
 20
35.235425913108429
 30
0.0
  0
VERTEX
  5
19C2
  8
SAPA_PROFIL
 10
-44.999999999998813
 20
39.096326913108783
 30
0.0
 42
0.4142140000000481
  0
VERTEX
  5
19C3
  8
SAPA_PROFIL
 10
-45.499999999998813
 20
39.596326913108783
 30
0.0
  0
VERTEX
  5
19C4
  8
SAPA_PROFIL
 10
-45.699999999998852
 20
39.596326913108783
 30
0.0
 42
0.4142139999999776
  0
VERTEX
  5
19C5
  8
SAPA_PROFIL
 10
-46.199999999998859
 20
39.096326913108783
 30
0.0
  0
VERTEX
  5
19C6
  8
SAPA_PROFIL
 10
-46.199999999998859
 20
38.999999913108809
 30
0.0
 42
-0.4142140000000459
  0
VERTEX
  5
19C7
  8
SAPA_PROFIL
 10
-46.699999999998973
 20
38.499999913108702
 30
0.0
  0
VERTEX
  5
19C8
  8
SAPA_PROFIL
 10
-50.051574999999218
 20
38.499999913108702
 30
0.0
 42
0.5773499999998256
  0
VERTEX
  5
19C9
  8
SAPA_PROFIL
 10
-50.224779999999278
 20
38.199999913108741
 30
0.0
  0
VERTEX
  5
19CA
  8
SAPA_PROFIL
 10
-49.301018999999151
 20
36.599999913108597
 30
0.0
  0
VERTEX
  5
19CB
  8
SAPA_PROFIL
 10
-49.301018999999151
 20
36.299999913108543
 30
0.0
 42
-0.4142139999999518
  0
VERTEX
  5
19CC
  8
SAPA_PROFIL
 10
-49.601018999999219
 20
35.999999913108581
 30
0.0
  0
VERTEX
  5
19CD
  8
SAPA_PROFIL
 10
-53.452786999999212
 20
35.999999913108581
 30
0.0
  0
SEQEND
  5
19CE
  8
SAPA_PROFIL
  0
POLYLINE
  5
10F0
  8
SAPA_PROFIL
 66
     1
 10
0.0
 20
0.0
 30
0.0
 70
     1
  0
VERTEX
  5
19CF
  8
SAPA_PROFIL
 10
-62.900050506339632
 20
98.291131123250409
 30
0.0
  0
VERTEX
  5
19D0
  8
SAPA_PROFIL
 10
-62.900050506339632
 20
96.299999909295266
 30
0.0
 42
-0.4142135623730795
  0
VERTEX
  5
19D1
  8
SAPA_PROFIL
 10
-63.900050506339632
 20
95.299999909295252
 30
0.0
  0
VERTEX
  5
19D2
  8
SAPA_PROFIL
 10
-64.167594974301863
 20
95.299999909295252
 30
0.0
 42
-0.2896898633034337
  0
VERTEX
  5
19D3
  8
SAPA_PROFIL
 10
-65.071102877208006
 20
95.871428480726067
 30
0.0
 42
-0.5507604245854725
  0
VERTEX
  5
19D4
  8
SAPA_PROFIL
 10
-64.800050506339602
 20
96.299999909295266
 30
0.0
  0
VERTEX
  5
19D5
  8
SAPA_PROFIL
 10
-64.500050506339704
 20
96.299999909295195
 30
0.0
 42
0.4142135623730951
  0
VERTEX
  5
19D6
  8
SAPA_PROFIL
 10
-64.300050506339602
 20
96.499999909295241
 30
0.0
  0
VERTEX
  5
19D7
  8
SAPA_PROFIL
 10
-64.300050506339602
 20
97.599999912112139
 30
0.0
 42
0.4142135623730863
  0
VERTEX
  5
19D8
  8
SAPA_PROFIL
 10
-65.300050506339659
 20
98.599999912112196
 30
0.0
  0
VERTEX
  5
19D9
  8
SAPA_PROFIL
 10
-67.600000000000847
 20
98.599999912112139
 30
0.0
 42
0.4142135623730847
  0
VERTEX
  5
19DA
  8
SAPA_PROFIL
 10
-68.600000000000847
 20
97.599999912112139
 30
0.0
  0
VERTEX
  5
19DB
  8
SAPA_PROFIL
 10
-68.600000000000847
 20
96.499999909295241
 30
0.0
 42
0.4142135623730925
  0
VERTEX
  5
19DC
  8
SAPA_PROFIL
 10
-68.400000000000858
 20
96.299999909295266
 30
0.0
  0
VERTEX
  5
19DD
  8
SAPA_PROFIL
 10
-68.100050506339727
 20
96.299999909293561
 30
0.0
 42
-0.5507604245854657
  0
VERTEX
  5
19DE
  8
SAPA_PROFIL
 10
-67.828998135471153
 20
95.871428480726024
 30
0.0
 42
-0.2896898633034307
  0
VERTEX
  5
19DF
  8
SAPA_PROFIL
 10
-68.732506038377409
 20
95.299999909295252
 30
0.0
  0
VERTEX
  5
19E0
  8
SAPA_PROFIL
 10
-69.000000000000881
 20
95.299999909295195
 30
0.0
 42
-0.4142135623730951
  0
VERTEX
  5
19E1
  8
SAPA_PROFIL
 10
-70.000000000000881
 20
96.299999909295266
 30
0.0
  0
VERTEX
  5
19E2
  8
SAPA_PROFIL
 10
-70.000000000000881
 20
97.999999912112173
 30
0.0
 42
-0.4142135623730871
  0
VERTEX
  5
19E3
  8
SAPA_PROFIL
 10
-68.000000000000824
 20
99.999999912112244
 30
0.0
  0
VERTEX
  5
19E4
  8
SAPA_PROFIL
 10
-45.300000000026252
 20
99.999999914101124
 30
0.0
 42
-0.4142135623987623
  0
VERTEX
  5
19E5
  8
SAPA_PROFIL
 10
-44.999999999999922
 20
99.699999914101113
 30
0.0
  0
VERTEX
  5
19E6
  8
SAPA_PROFIL
 10
-44.999999999999922
 20
99.207106695313954
 30
0.0
 42
-0.198912367379658
  0
VERTEX
  5
19E7
  8
SAPA_PROFIL
 10
-45.146446609406652
 20
98.853553304720663
 30
0.0
  0
VERTEX
  5
19E8
  8
SAPA_PROFIL
 10
-45.853553390593248
 20
98.146446523534067
 30
0.0
 42
0.1989123673796528
  0
VERTEX
  5
19E9
  8
SAPA_PROFIL
 10
-45.999999999999972
 20
97.79289313294079
 30
0.0
  0
VERTEX
  5
19EA
  8
SAPA_PROFIL
 10
-45.999999999999972
 20
96.499999914127343
 30
0.0
 42
0.4142135623730659
  0
VERTEX
  5
19EB
  8
SAPA_PROFIL
 10
-45.499999999999979
 20
95.999999914127329
 30
0.0
  0
VERTEX
  5
19EC
  8
SAPA_PROFIL
 10
-43.115937956643478
 20
95.999999914127102
 30
0.0
 42
0.1989123673796822
  0
VERTEX
  5
19ED
  8
SAPA_PROFIL
 10
-42.762384566050152
 20
96.146446523533825
 30
0.0
  0
VERTEX
  5
19EE
  8
SAPA_PROFIL
 10
-41.994974746830373
 20
96.913856342753562
 30
0.0
 42
-0.9999999999999998
  0
VERTEX
  5
19EF
  8
SAPA_PROFIL
 10
-41.00502525316918
 20
95.923906849092361
 30
0.0
  0
VERTEX
  5
19F0
  8
SAPA_PROFIL
 10
-42.782485578727837
 20
94.146446523533726
 30
0.0
 42
-0.1989123673796822
  0
VERTEX
  5
19F1
  8
SAPA_PROFIL
 10
-43.13603896932117
 20
93.999999914126974
 30
0.0
  0
VERTEX
  5
19F2
  8
SAPA_PROFIL
 10
-47.500000000000028
 20
93.999999914127443
 30
0.0
 42
-0.4142135623730639
  0
VERTEX
  5
19F3
  8
SAPA_PROFIL
 10
-48.000000000000043
 20
94.499999914127429
 30
0.0
  0
VERTEX
  5
19F4
  8
SAPA_PROFIL
 10
-48.000000000000043
 20
96.499999914127613
 30
0.0
 42
0.414213562373064
  0
VERTEX
  5
19F5
  8
SAPA_PROFIL
 10
-48.500000000000043
 20
96.999999914127613
 30
0.0
  0
VERTEX
  5
19F6
  8
SAPA_PROFIL
 10
-52.000000000000149
 20
96.999999914127955
 30
0.0
 42
0.4142135623731263
  0
VERTEX
  5
19F7
  8
SAPA_PROFIL
 10
-52.500000000000213
 20
96.499999914127955
 30
0.0
  0
VERTEX
  5
19F8
  8
SAPA_PROFIL
 10
-52.500000000000213
 20
81.781551900617444
 30
0.0
 42
0.3639702342662015
  0
VERTEX
  5
19F9
  8
SAPA_PROFIL
 10
-51.673648177667111
 20
80.796744147605224
 30
0.0
  0
VERTEX
  5
19FA
  8
SAPA_PROFIL
 10
-45.826351822333073
 20
79.765708035961552
 30
0.0
 42
-0.3639702342662066
  0
VERTEX
  5
19FB
  8
SAPA_PROFIL
 10
-44.999999999999922
 20
78.78090028294929
 30
0.0
  0
VERTEX
  5
19FC
  8
SAPA_PROFIL
 10
-44.999999999999922
 20
74.919999914126436
 30
0.0
 42
-0.4142135623730951
  0
VERTEX
  5
19FD
  8
SAPA_PROFIL
 10
-45.499999999999979
 20
74.419999914126436
 30
0.0
  0
VERTEX
  5
19FE
  8
SAPA_PROFIL
 10
-45.69999999999996
 20
74.419999914126436
 30
0.0
 42
-0.4142135623730951
  0
VERTEX
  5
19FF
  8
SAPA_PROFIL
 10
-46.19999999999996
 20
74.919999914126436
 30
0.0
  0
VERTEX
  5
1A00
  8
SAPA_PROFIL
 10
-46.19999999999996
 20
74.99999991412659
 30
0.0
 42
0.4142135623730619
  0
VERTEX
  5
1A01
  8
SAPA_PROFIL
 10
-46.699999999999967
 20
75.49999991412659
 30
0.0
  0
VERTEX
  5
1A02
  8
SAPA_PROFIL
 10
-50.000000000000028
 20
75.499999914126931
 30
0.0
 42
-0.5693809839207964
  0
VERTEX
  5
1A03
  8
SAPA_PROFIL
 10
-50.175554045563587
 20
75.795816285829574
 30
0.0
  0
VERTEX
  5
1A04
  8
SAPA_PROFIL
 10
-49.199999999999847
 20
77.399999914126624
 30
0.0
  0
VERTEX
  5
1A05
  8
SAPA_PROFIL
 10
-49.199999999999619
 20
77.699999914126352
 30
0.0
 42
0.414213562372873
  0
VERTEX
  5
1A06
  8
SAPA_PROFIL
 10
-49.499999999999751
 20
77.999999914126533
 30
0.0
  0
VERTEX
  5
1A07
  8
SAPA_PROFIL
 10
-53.499999999162448
 20
77.999999914126533
 30
0.0
 42
-0.2134217652834381
  0
VERTEX
  5
1A08
  8
SAPA_PROFIL
 10
-53.723606796912549
 20
78.099999914126656
 30
0.0
 42
0.7625858545243276
  0
VERTEX
  5
1A09
  8
SAPA_PROFIL
 10
-54.053932877929569
 20
77.915420711929173
 30
0.0
  0
VERTEX
  5
1A0A
  8
SAPA_PROFIL
 10
-53.995859240940483
 20
77.724037711935452
 30
0.0
  0
VERTEX
  5
1A0B
  8
SAPA_PROFIL
 10
-52.911294793968743
 20
75.838194020074397
 30
0.0
  0
VERTEX
  5
1A0C
  8
SAPA_PROFIL
 10
-52.589537065750491
 20
75.848755386301391
 30
0.0
 42
-0.577350269189744
  0
VERTEX
  5
1A0D
  8
SAPA_PROFIL
 10
-52.40658332564032
 20
75.554599086046537
 30
0.0
  0
VERTEX
  5
1A0E
  8
SAPA_PROFIL
 10
-52.558717236749068
 20
75.269916802814905
 30
0.0
 42
-0.2216946626430207
  0
VERTEX
  5
1A0F
  8
SAPA_PROFIL
 10
-53.099597068225869
 20
74.864107897660105
 30
0.0
  0
VERTEX
  5
1A10
  8
SAPA_PROFIL
 10
-54.912827538884109
 20
74.482661301532389
 30
0.0
 42
-0.4769755326981632
  0
VERTEX
  5
1A11
  8
SAPA_PROFIL
 10
-55.284484413829993
 20
74.784914126038856
 30
0.0
  0
VERTEX
  5
1A12
  8
SAPA_PROFIL
 10
-55.284400805946341
 20
76.288015206800864
 30
0.0
  0
VERTEX
  5
1A13
  8
SAPA_PROFIL
 10
-55.236555055947854
 20
76.302533616047967
 30
0.0
 42
0.4142135623730951
  0
VERTEX
  5
1A14
  8
SAPA_PROFIL
 10
-55.03659101144045
 20
76.676718571523764
 30
0.0
  0
VERTEX
  5
1A15
  8
SAPA_PROFIL
 10
-55.50000000000005
 20
77.875681354334773
 30
0.0
  0
VERTEX
  5
1A16
  8
SAPA_PROFIL
 10
-55.500000000000142
 20
85.330384670962516
 30
0.0
  0
VERTEX
  5
1A17
  8
SAPA_PROFIL
 10
-55.200000000000131
 20
85.849999913233134
 30
0.0
  0
VERTEX
  5
1A18
  8
SAPA_PROFIL
 10
-55.500000000000213
 20
86.369615155503823
 30
0.0
  0
VERTEX
  5
1A19
  8
SAPA_PROFIL
 10
-55.500000000000377
 20
97.718614944543106
 30
0.0
 42
0.3955859011959327
  0
VERTEX
  5
1A1A
  8
SAPA_PROFIL
 10
-55.780808620259087
 20
98.018000466811031
 30
0.0
  0
VERTEX
  5
1A1B
  8
SAPA_PROFIL
 10
-62.687256253178681
 20
98.490721471429026
 30
0.0
 42
0.433089857303855
  0
SEQEND
  5
1A1C
  8
SAPA_PROFIL
  0
POLYLINE
  5
10F1
  8
SAPA_PROFIL
 62
     4
 66
     1
 10
0.0
 20
0.0
 30
0.0
  0
VERTEX
  5
1A1D
  8
SAPA_PROFIL
 62
     4
 10
-52.767718914153107
 20
47.950670790754231
 30
0.0
 42
0.5571646428658034
  0
VERTEX
  5
1A1E
  8
SAPA_PROFIL
 62
     4
 10
-51.899999999997561
 20
48.487631294891059
 30
0.0
  0
VERTEX
  5
1A1F
  8
SAPA_PROFIL
 62
     4
 10
-51.899999999998023
 20
65.512368531412264
 30
0.0
 42
0.5571645048035741
  0
VERTEX
  5
1A20
  8
SAPA_PROFIL
 62
     4
 10
-52.767718687864182
 20
66.049329148373303
 30
0.0
  0
VERTEX
  5
1A21
  8
SAPA_PROFIL
 62
     4
 10
-54.43385934393222
 20
65.218622060826618
 30
0.0
 42
0.284385813979063
  0
VERTEX
  5
1A22
  8
SAPA_PROFIL
 62
     4
 10
-54.59999999999966
 20
64.950141752346269
 30
0.0
  0
VERTEX
  5
1A23
  8
SAPA_PROFIL
 62
     4
 10
-54.599999999999653
 20
49.049858073956962
 30
0.0
 42
0.2843858139786238
  0
VERTEX
  5
1A24
  8
SAPA_PROFIL
 62
     4
 10
-54.433859343932731
 20
48.78137776547667
 30
0.0
  0
VERTEX
  5
1A25
  8
SAPA_PROFIL
 62
     4
 10
-52.767718687863379
 20
47.950670677929509
 30
0.0
  0
SEQEND
  5
1A26
  8
SAPA_PROFIL
 62
     4
  0
POLYLINE
  5
10F2
  8
SAPA_PROFIL
 62
     4
 66
     1
 10
0.0
 20
0.0
 30
0.0
  0
VERTEX
  5
1A27
  8
SAPA_PROFIL
 62
     4
 10
-54.956831514497232
 20
71.417611097818906
 30
0.0
  0
VERTEX
  5
1A28
  8
SAPA_PROFIL
 62
     4
 10
-55.363391710501368
 20
71.681634376194921
 30
0.0
 42
-0.2539676464751066
  0
VERTEX
  5
1A29
  8
SAPA_PROFIL
 62
     4
 10
-55.499999999997478
 20
71.933235546579624
 30
0.0
  0
VERTEX
  5
1A2A
  8
SAPA_PROFIL
 62
     4
 10
-55.499999999997478
 20
73.314735131784971
 30
0.0
 42
-0.3152987888790479
  0
VERTEX
  5
1A2B
  8
SAPA_PROFIL
 62
     4
 10
-55.171010071659317
 20
73.784581442177284
 30
0.0
  0
VERTEX
  5
1A2C
  8
SAPA_PROFIL
 62
     4
 10
-52.710179881208042
 20
74.680250383085891
 30
0.0
 42
0.2694959974287434
  0
VERTEX
  5
1A2D
  8
SAPA_PROFIL
 62
     4
 10
-52.51704790686415
 20
74.911769429487251
 30
0.0
 42
0.0612686379508233
  0
VERTEX
  5
1A2E
  8
SAPA_PROFIL
 62
     4
 10
-52.503464536233629
 20
75.204444862340523
 30
0.0
  0
VERTEX
  5
1A2F
  8
SAPA_PROFIL
 62
     4
 10
-52.301727857504808
 20
75.553863039648789
 30
0.0
 42
0.5773502691891681
  0
VERTEX
  5
1A30
  8
SAPA_PROFIL
 62
     4
 10
-52.483593192299367
 20
75.868863039648375
 30
0.0
  0
VERTEX
  5
1A31
  8
SAPA_PROFIL
 62
     4
 10
-52.750707720425687
 20
75.868863039648616
 30
0.0
  0
VERTEX
  5
1A32
  8
SAPA_PROFIL
 62
     4
 10
-53.559391181734007
 20
77.267390740282863
 30
0.0
 42
-0.1318219888653519
  0
VERTEX
  5
1A33
  8
SAPA_PROFIL
 62
     4
 10
-53.599683578271389
 20
77.417563842755214
 30
0.0
  0
VERTEX
  5
1A34
  8
SAPA_PROFIL
 62
     4
 10
-53.599683578265022
 20
77.599999913191994
 30
0.0
 42
-0.4142135623724291
  0
VERTEX
  5
1A35
  8
SAPA_PROFIL
 62
     4
 10
-53.199683578265393
 20
77.999999913192525
 30
0.0
  0
VERTEX
  5
1A36
  8
SAPA_PROFIL
 62
     4
 10
-49.799683578264393
 20
77.999999913191175
 30
0.0
 42
-0.4142135623744271
  0
VERTEX
  5
1A37
  8
SAPA_PROFIL
 62
     4
 10
-49.399683578263392
 20
77.599999913191994
 30
0.0
  0
VERTEX
  5
1A38
  8
SAPA_PROFIL
 62
     4
 10
-49.399683578262767
 20
77.420384670920697
 30
0.0
 42
-0.1316524975874005
  0
VERTEX
  5
1A39
  8
SAPA_PROFIL
 62
     4
 10
-49.439875957128358
 20
77.270384670923875
 30
0.0
  0
VERTEX
  5
1A3A
  8
SAPA_PROFIL
 62
     4
 10
-50.366025403780903
 20
75.666246773921614
 30
0.0
 42
0.1316524975875904
  0
VERTEX
  5
1A3B
  8
SAPA_PROFIL
 62
     4
 10
-50.499999999995659
 20
75.166246773919909
 30
0.0
  0
VERTEX
  5
1A3C
  8
SAPA_PROFIL
 62
     4
 10
-50.499999999995659
 20
74.749999913192539
 30
0.0
 42
0.4142135623730951
  0
VERTEX
  5
1A3D
  8
SAPA_PROFIL
 62
     4
 10
-49.499999999995651
 20
73.749999913192539
 30
0.0
  0
VERTEX
  5
1A3E
  8
SAPA_PROFIL
 62
     4
 10
-46.49999999999838
 20
73.749999913192539
 30
0.0
 42
-0.9999996830128083
  0
VERTEX
  5
1A3F
  8
SAPA_PROFIL
 62
     4
 10
-46.499999999996561
 20
72.749999913192539
 30
0.0
  0
VERTEX
  5
1A40
  8
SAPA_PROFIL
 62
     4
 10
-49.499999999996568
 20
72.749999913192539
 30
0.0
 42
0.4142135623730951
  0
VERTEX
  5
1A41
  8
SAPA_PROFIL
 62
     4
 10
-50.499999999996561
 20
71.749999913192525
 30
0.0
  0
VERTEX
  5
1A42
  8
SAPA_PROFIL
 62
     4
 10
-50.499999999996561
 20
42.249999913107949
 30
0.0
 42
0.4142135623730951
  0
VERTEX
  5
1A43
  8
SAPA_PROFIL
 62
     4
 10
-49.499999999996561
 20
41.249999913107949
 30
0.0
  0
VERTEX
  5
1A44
  8
SAPA_PROFIL
 62
     4
 10
-46.499999999998373
 20
41.249999913107949
 30
0.0
 42
-0.9999999999999998
  0
VERTEX
  5
1A45
  8
SAPA_PROFIL
 62
     4
 10
-46.499999999998373
 20
40.249999913107949
 30
0.0
  0
VERTEX
  5
1A46
  8
SAPA_PROFIL
 62
     4
 10
-49.499999999996561
 20
40.249999913107949
 30
0.0
 42
0.4142135623736278
  0
VERTEX
  5
1A47
  8
SAPA_PROFIL
 62
     4
 10
-50.499999999996561
 20
39.249999913107963
 30
0.0
  0
VERTEX
  5
1A48
  8
SAPA_PROFIL
 62
     4
 10
-50.499999999996561
 20
38.833753052381503
 30
0.0
 42
0.1316524975874375
  0
VERTEX
  5
1A49
  8
SAPA_PROFIL
 62
     4
 10
-50.366025403780519
 20
38.333753052381297
 30
0.0
  0
VERTEX
  5
1A4A
  8
SAPA_PROFIL
 62
     4
 10
-49.439875957128351
 20
36.729615155379349
 30
0.0
 42
-0.1316524975874
  0
VERTEX
  5
1A4B
  8
SAPA_PROFIL
 62
     4
 10
-49.39968357826276
 20
36.579615155379798
 30
0.0
  0
VERTEX
  5
1A4C
  8
SAPA_PROFIL
 62
     4
 10
-49.399683578263392
 20
36.399999913108502
 30
0.0
 42
-0.4142135623744271
  0
VERTEX
  5
1A4D
  8
SAPA_PROFIL
 62
     4
 10
-49.799683578264393
 20
35.99999991310932
 30
0.0
  0
VERTEX
  5
1A4E
  8
SAPA_PROFIL
 62
     4
 10
-53.199683578265393
 20
35.999999913107963
 30
0.0
 42
-0.4142135623724291
  0
VERTEX
  5
1A4F
  8
SAPA_PROFIL
 62
     4
 10
-53.599683578265022
 20
36.399999913108502
 30
0.0
  0
VERTEX
  5
1A50
  8
SAPA_PROFIL
 62
     4
 10
-53.599683578271389
 20
36.582435983545281
 30
0.0
 42
-0.1318219888653524
  0
VERTEX
  5
1A51
  8
SAPA_PROFIL
 62
     4
 10
-53.559391181734007
 20
36.732609086017632
 30
0.0
  0
VERTEX
  5
1A52
  8
SAPA_PROFIL
 62
     4
 10
-52.750707720509659
 20
38.131136786497279
 30
0.0
  0
VERTEX
  5
1A53
  8
SAPA_PROFIL
 62
     4
 10
-52.483593192296631
 20
38.131136786497279
 30
0.0
 42
0.5773502691891599
  0
VERTEX
  5
1A54
  8
SAPA_PROFIL
 62
     4
 10
-52.301727857502058
 20
38.446136786496879
 30
0.0
  0
VERTEX
  5
1A55
  8
SAPA_PROFIL
 62
     4
 10
-52.503464536179173
 20
38.795554963715539
 30
0.0
 42
0.0612687673629489
  0
VERTEX
  5
1A56
  8
SAPA_PROFIL
 62
     4
 10
-52.517047906865379
 20
39.088230396815753
 30
0.0
 42
0.2694959974285039
  0
VERTEX
  5
1A57
  8
SAPA_PROFIL
 62
     4
 10
-52.710179881209328
 20
39.319749443216267
 30
0.0
  0
VERTEX
  5
1A58
  8
SAPA_PROFIL
 62
     4
 10
-55.171010071662501
 20
40.21541838412594
 30
0.0
 42
-0.315298788878404
  0
VERTEX
  5
1A59
  8
SAPA_PROFIL
 62
     4
 10
-55.499999999999069
 20
40.685264694519162
 30
0.0
  0
VERTEX
  5
1A5A
  8
SAPA_PROFIL
 62
     4
 10
-55.49999999999747
 20
42.0667642797236
 30
0.0
 42
-0.2539676464741836
  0
VERTEX
  5
1A5B
  8
SAPA_PROFIL
 62
     4
 10
-55.363391710502199
 20
42.31836545010767
 30
0.0
  0
VERTEX
  5
1A5C
  8
SAPA_PROFIL
 62
     4
 10
-54.956831514497217
 20
42.582388728484318
 30
0.0
 42
-0.5862177598324614
  0
VERTEX
  5
1A5D
  8
SAPA_PROFIL
 62
     4
 10
-54.500000000000718
 20
42.326646913245973
 30
0.0
  0
VERTEX
  5
1A5E
  8
SAPA_PROFIL
 62
     4
 10
-54.500000000008377
 20
41.385472232736163
 30
0.0
 42
0.3152987888813165
  0
VERTEX
  5
1A5F
  8
SAPA_PROFIL
 62
     4
 10
-54.171010071671631
 20
40.915625922338407
 30
0.0
  0
VERTEX
  5
1A60
  8
SAPA_PROFIL
 62
     4
 10
-52.971010071660402
 20
40.478861641214451
 30
0.0
 42
0.5205670505515655
  0
VERTEX
  5
1A61
  8
SAPA_PROFIL
 62
     4
 10
-52.299999999997652
 20
40.948707951607673
 30
0.0
  0
VERTEX
  5
1A62
  8
SAPA_PROFIL
 62
     4
 10
-52.299999999997652
 20
46.190948647674468
 30
0.0
 42
0.2843858139786245
  0
VERTEX
  5
1A63
  8
SAPA_PROFIL
 62
     4
 10
-52.466140656064582
 20
46.459428956155669
 30
0.0
  0
VERTEX
  5
1A64
  8
SAPA_PROFIL
 62
     4
 10
-54.066140656062288
 20
47.257159529040273
 30
0.0
 42
0.5571645048046511
  0
VERTEX
  5
1A65
  8
SAPA_PROFIL
 62
     4
 10
-54.499999999995651
 20
46.988679220559952
 30
0.0
  0
VERTEX
  5
1A66
  8
SAPA_PROFIL
 62
     4
 10
-54.499999999999289
 20
45.62664691324715
 30
0.0
 42
-0.5920056181162535
  0
VERTEX
  5
1A67
  8
SAPA_PROFIL
 62
     4
 10
-54.961203502527212
 20
45.373638156929758
 30
0.0
  0
VERTEX
  5
1A68
  8
SAPA_PROFIL
 62
     4
 10
-55.36339171050551
 20
45.634822233085458
 30
0.0
 42
-0.2539676464746718
  0
VERTEX
  5
1A69
  8
SAPA_PROFIL
 62
     4
 10
-55.500000000000867
 20
45.886423403469223
 30
0.0
  0
VERTEX
  5
1A6A
  8
SAPA_PROFIL
 62
     4
 10
-55.499999999999289
 20
68.11357642283491
 30
0.0
 42
-0.2539676464741819
  0
VERTEX
  5
1A6B
  8
SAPA_PROFIL
 62
     4
 10
-55.363391710505518
 20
68.365177593217766
 30
0.0
  0
VERTEX
  5
1A6C
  8
SAPA_PROFIL
 62
     4
 10
-54.961203502527177
 20
68.626361669371576
 30
0.0
 42
-0.5920055144124249
  0
VERTEX
  5
1A6D
  8
SAPA_PROFIL
 62
     4
 10
-54.499999999999297
 20
68.373352913056067
 30
0.0
  0
VERTEX
  5
1A6E
  8
SAPA_PROFIL
 62
     4
 10
-54.499999999996568
 20
67.01132060574335
 30
0.0
 42
0.5571646182910574
  0
VERTEX
  5
1A6F
  8
SAPA_PROFIL
 62
     4
 10
-54.066140656062302
 20
66.742840297262944
 30
0.0
  0
VERTEX
  5
1A70
  8
SAPA_PROFIL
 62
     4
 10
-52.466140656064908
 20
67.540570870148215
 30
0.0
 42
0.2843858139786238
  0
VERTEX
  5
1A71
  8
SAPA_PROFIL
 62
     4
 10
-52.299999999997652
 20
67.809051178628749
 30
0.0
  0
VERTEX
  5
1A72
  8
SAPA_PROFIL
 62
     4
 10
-52.299999999997439
 20
73.051291874693732
 30
0.0
 42
0.5205670505515692
  0
VERTEX
  5
1A73
  8
SAPA_PROFIL
 62
     4
 10
-52.971010071660409
 20
73.521138185086954
 30
0.0
  0
VERTEX
  5
1A74
  8
SAPA_PROFIL
 62
     4
 10
-54.171010071669848
 20
73.084373903962003
 30
0.0
 42
0.3152987888807539
  0
VERTEX
  5
1A75
  8
SAPA_PROFIL
 62
     4
 10
-54.500000000007482
 20
72.614527593566152
 30
0.0
  0
VERTEX
  5
1A76
  8
SAPA_PROFIL
 62
     4
 10
-54.500000000000661
 20
71.673352913057073
 30
0.0
 42
-0.5862175119221242
  0
VERTEX
  5
1A77
  8
SAPA_PROFIL
 62
     4
 10
-54.956831325755793
 20
71.417610982075104
 30
0.0
 42
0.0000002084758573
  0
SEQEND
  5
1A78
  8
SAPA_PROFIL
 62
     4
  0
CIRCLE
  5
10F3
  8
SAPA_PROFIL
 62
     2
 10
-64.068492251827237
 20
94.625620673246289
 30
0.0
 40
0.25
  0
INSERT
  5
10F4
  8
SAPA_PROFIL
  6
CONTINUOUS
 62
     2
  2
*U81
 10
0.0
 20
0.0
 30
0.0
1001
ACAD
1002
{
1000
R14_HATCH_DATA
1000
10F4
1011
1.0
1021
0.0
1031
0.0
1021
0.0
1031
0.0
1011
0.0
1021
0.0
1031
0.0
1021
1.0
1031
0.0
1011
0.0
1021
0.0
1031
0.0
1021
0.0
1031
1.0
1040
0.0
1010
0.0
1020
0.0
1030
1.0
1000
SOLID
1070
     1
1070
     1
1071
        1
1071
        7
1070
     1
1070
     1
1071
        2
1040
-64.068492251827237
1040
94.375620673246289
1040
-1.0
1040
-64.068492251827237
1040
94.875620673246289
1040
-1.0
1071
        1
1005
10F3
1070
     0
1070
     1
1040
0.0095408196840103
1071
        1
1040
-64.068492251827237
1040
94.52562067324628
1040
0.0
1002
}
  0
POLYLINE
  5
10F5
  8
SAPA_PROFIL
 62
     2
 66
     1
 10
0.0
 20
0.0
 30
0.0
 70
     1
  0
VERTEX
  5
1A8A
  8
SAPA_PROFIL
 62
     2
 10
-66.40002525317027
 20
97.29999991211217
 30
0.0
  0
VERTEX
  5
1A8B
  8
SAPA_PROFIL
 62
     2
 10
-66.500025253170264
 20
97.29999991211217
 30
0.0
 42
0.4142135623730959
  0
VERTEX
  5
1A8C
  8
SAPA_PROFIL
 62
     2
 10
-67.200025253170267
 20
96.599999912112168
 30
0.0
  0
VERTEX
  5
1A8D
  8
SAPA_PROFIL
 62
     2
 10
-67.200025253170267
 20
95.499999912112173
 30
0.0
 42
0.4142135623730961
  0
VERTEX
  5
1A8E
  8
SAPA_PROFIL
 62
     2
 10
-67.000025253170264
 20
95.299999912112185
 30
0.0
  0
VERTEX
  5
1A8F
  8
SAPA_PROFIL
 62
     2
 10
-65.900025253170256
 20
95.299999912112185
 30
0.0
 42
0.4142135623730956
  0
VERTEX
  5
1A90
  8
SAPA_PROFIL
 62
     2
 10
-65.700025253170267
 20
95.499999912112173
 30
0.0
  0
VERTEX
  5
1A91
  8
SAPA_PROFIL
 62
     2
 10
-65.700025253170267
 20
96.599999912112168
 30
0.0
 42
0.4142135623730946
  0
SEQEND
  5
1A92
  8
SAPA_PROFIL
 62
     2
  0
POLYLINE
  5
10F6
  8
SAPA_PROFIL
 62
     2
 66
     1
 10
0.0
 20
0.0
 30
0.0
  0
VERTEX
  5
1A93
  8
SAPA_PROFIL
 62
     2
 10
-64.90002525317027
 20
95.999999912112173
 30
0.0
  0
VERTEX
  5
1A94
  8
SAPA_PROFIL
 62
     2
 10
-64.90002525317027
 20
95.352234346839083
 30
0.0
 42
0.4416942457848117
  0
VERTEX
  5
1A95
  8
SAPA_PROFIL
 62
     2
 10
-64.681470893542354
 20
95.153096867346164
 30
0.0
  0
VERTEX
  5
1A96
  8
SAPA_PROFIL
 62
     2
 10
-63.718579612798173
 20
95.242812932604181
 30
0.0
 42
-0.4416942457848106
  0
VERTEX
  5
1A97
  8
SAPA_PROFIL
 62
     2
 10
-63.500025253170271
 20
95.043675453111234
 30
0.0
  0
VERTEX
  5
1A98
  8
SAPA_PROFIL
 62
     2
 10
-63.500025253170257
 20
94.493693113519697
 30
0.0
 42
-0.5445962197109637
  0
VERTEX
  5
1A99
  8
SAPA_PROFIL
 62
     2
 10
-64.205704298575341
 20
94.037956204457842
 30
0.0
  0
VERTEX
  5
1A9A
  8
SAPA_PROFIL
 62
     2
 10
-64.564755451860606
 20
94.199999912112162
 30
0.0
  0
VERTEX
  5
1A9B
  8
SAPA_PROFIL
 62
     2
 10
-66.037714690608496
 20
94.199999912112162
 30
0.0
 42
-0.336437923496554
  0
VERTEX
  5
1A9C
  8
SAPA_PROFIL
 62
     2
 10
-67.109458420223334
 20
94.387506729953884
 30
0.0
  0
VERTEX
  5
1A9D
  8
SAPA_PROFIL
 62
     2
 10
-67.67132205604706
 20
94.387506729953884
 30
0.0
 42
0.1919812372740513
  0
VERTEX
  5
1A9E
  8
SAPA_PROFIL
 62
     2
 10
-68.015309103647084
 20
94.250374351936628
 30
0.0
  0
VERTEX
  5
1A9F
  8
SAPA_PROFIL
 62
     2
 10
-68.40717603405038
 20
93.878896875646603
 30
0.0
 42
0.9249153594910841
  0
VERTEX
  5
1AA0
  8
SAPA_PROFIL
 62
     2
 10
-66.741398105528162
 20
91.6452020605673
 30
0.0
  0
VERTEX
  5
1AA1
  8
SAPA_PROFIL
 62
     2
 10
-65.656853165859403
 20
92.178750115818929
 30
0.0
 42
-0.4184584792862776
  0
VERTEX
  5
1AA2
  8
SAPA_PROFIL
 62
     2
 10
-65.07015084928797
 20
91.774997995399204
 30
0.0
 42
-0.3891337693453737
  0
VERTEX
  5
1AA3
  8
SAPA_PROFIL
 62
     2
 10
-65.215317740828453
 20
91.546908687456593
 30
0.0
  0
VERTEX
  5
1AA4
  8
SAPA_PROFIL
 62
     2
 10
-66.301213831393454
 20
90.98400363496873
 30
0.0
 42
-0.8864286961344978
  0
VERTEX
  5
1AA5
  8
SAPA_PROFIL
 62
     2
 10
-68.97299373333
 20
94.343202390489452
 30
0.0
  0
VERTEX
  5
1AA6
  8
SAPA_PROFIL
 62
     2
 10
-69.403552871211261
 20
94.458570363778577
 30
0.0
 42
-0.9163311740174273
  0
VERTEX
  5
1AA7
  8
SAPA_PROFIL
 62
     2
 10
-69.265162956071194
 20
95.243418573530903
 30
0.0
  0
VERTEX
  5
1AA8
  8
SAPA_PROFIL
 62
     2
 10
-68.217456401719801
 20
95.151756127323324
 30
0.0
 42
0.4400105308918339
  0
VERTEX
  5
1AA9
  8
SAPA_PROFIL
 62
     2
 10
-68.000025253170264
 20
95.350995066941692
 30
0.0
  0
VERTEX
  5
1AAA
  8
SAPA_PROFIL
 62
     2
 10
-68.000025253170264
 20
96.199999912112162
 30
0.0
  0
VERTEX
  5
1AAB
  8
SAPA_PROFIL
 62
     2
 10
-68.40002525317027
 20
96.199999912112162
 30
0.0
 42
-0.569380983920789
  0
VERTEX
  5
1AAC
  8
SAPA_PROFIL
 62
     2
 10
-68.575579298733842
 20
96.495816283814833
 30
0.0
  0
VERTEX
  5
1AAD
  8
SAPA_PROFIL
 62
     2
 10
-67.870613698834774
 20
97.78744902722012
 30
0.0
 42
-0.274387813087548
  0
VERTEX
  5
1AAE
  8
SAPA_PROFIL
 62
     2
 10
-67.343951562144042
 20
98.099999912112168
 30
0.0
  0
VERTEX
  5
1AAF
  8
SAPA_PROFIL
 62
     2
 10
-65.556098944196492
 20
98.099999912112168
 30
0.0
 42
-0.274387813087548
  0
VERTEX
  5
1AB0
  8
SAPA_PROFIL
 62
     2
 10
-65.029436807505746
 20
97.78744902722012
 30
0.0
  0
VERTEX
  5
1AB1
  8
SAPA_PROFIL
 62
     2
 10
-64.324471207606663
 20
96.495816283814833
 30
0.0
 42
-0.5693809839207892
  0
VERTEX
  5
1AB2
  8
SAPA_PROFIL
 62
     2
 10
-64.500025253170264
 20
96.199999912112162
 30
0.0
  0
VERTEX
  5
1AB3
  8
SAPA_PROFIL
 62
     2
 10
-64.900025253170256
 20
96.199999912112162
 30
0.0
  0
VERTEX
  5
1AB4
  8
SAPA_PROFIL
 62
     2
 10
-64.900025253170256
 20
95.350995066941692
 30
0.0
  0
SEQEND
  5
1AB5
  8
SAPA_PROFIL
 62
     2
  0
POLYLINE
  5
10F7
  8
SAPA_PROFIL
 66
     1
 10
0.0
 20
0.0
 30
0.0
 70
     1
  0
VERTEX
  5
1AB6
  8
SAPA_PROFIL
 10
-69.545009246930448
 20
77.999999919157062
 30
0.0
  0
VERTEX
  5
1AB7
  8
SAPA_PROFIL
 10
-73.39779565143067
 20
77.999999919157062
 30
0.0
 42
0.4142135623731784
  0
VERTEX
  5
1AB8
  8
SAPA_PROFIL
 10
-73.697795651430823
 20
77.699999919156994
 30
0.0
  0
VERTEX
  5
1AB9
  8
SAPA_PROFIL
 10
-73.697795651430653
 20
77.399999919156642
 30
0.0
  0
VERTEX
  5
1ABA
  8
SAPA_PROFIL
 10
-72.774035220727257
 20
75.799999919157017
 30
0.0
 42
-0.5773502691887984
  0
VERTEX
  5
1ABB
  8
SAPA_PROFIL
 10
-72.947240301484271
 20
75.499999919157062
 30
0.0
  0
VERTEX
  5
1ABC
  8
SAPA_PROFIL
 10
-74.332880947539252
 20
75.499999919157062
 30
0.0
 42
-0.2679491924311038
  0
VERTEX
  5
1ABD
  8
SAPA_PROFIL
 10
-75.198906351323672
 20
75.999999919156892
 30
0.0
  0
VERTEX
  5
1ABE
  8
SAPA_PROFIL
 10
-76.209269320896851
 20
77.749999916543857
 30
0.0
 42
0.2679491932396976
  0
VERTEX
  5
1ABF
  8
SAPA_PROFIL
 10
-76.642282024298055
 20
77.999999916543885
 30
0.0
  0
VERTEX
  5
1AC0
  8
SAPA_PROFIL
 10
-109.280384757729
 20
77.999999916543914
 30
0.0
  0
VERTEX
  5
1AC1
  8
SAPA_PROFIL
 10
-109.7999999999997
 20
78.299999916543925
 30
0.0
  0
VERTEX
  5
1AC2
  8
SAPA_PROFIL
 10
-110.3196152422704
 20
77.999999916543914
 30
0.0
  0
VERTEX
  5
1AC3
  8
SAPA_PROFIL
 10
-110.6577179757017
 20
77.999999916543914
 30
0.0
 42
0.2679491916226445
  0
VERTEX
  5
1AC4
  8
SAPA_PROFIL
 10
-111.090730677594
 20
77.749999919157005
 30
0.0
  0
VERTEX
  5
1AC5
  8
SAPA_PROFIL
 10
-112.1010936486759
 20
75.999999919157005
 30
0.0
 42
-0.2679491924311319
  0
VERTEX
  5
1AC6
  8
SAPA_PROFIL
 10
-112.9671190524603
 20
75.499999919157062
 30
0.0
  0
VERTEX
  5
1AC7
  8
SAPA_PROFIL
 10
-114.3527596985154
 20
75.499999919157062
 30
0.0
 42
-0.5773502691893683
  0
VERTEX
  5
1AC8
  8
SAPA_PROFIL
 10
-114.5259647792724
 20
75.799999919157017
 30
0.0
  0
VERTEX
  5
1AC9
  8
SAPA_PROFIL
 10
-113.602204348569
 20
77.399999919157054
 30
0.0
  0
VERTEX
  5
1ACA
  8
SAPA_PROFIL
 10
-113.602204348569
 20
77.699999919156994
 30
0.0
 42
0.4142135623732059
  0
VERTEX
  5
1ACB
  8
SAPA_PROFIL
 10
-113.9022043485691
 20
77.999999919157062
 30
0.0
  0
VERTEX
  5
1ACC
  8
SAPA_PROFIL
 10
-117.75499075306919
 20
77.999999919157062
 30
0.0
 42
-0.2134217652834387
  0
VERTEX
  5
1ACD
  8
SAPA_PROFIL
 10
-117.9785975508194
 20
78.099999919157199
 30
0.0
 42
0.7625858545243238
  0
VERTEX
  5
1ACE
  8
SAPA_PROFIL
 10
-118.30892363183639
 20
77.915420716959716
 30
0.0
  0
VERTEX
  5
1ACF
  8
SAPA_PROFIL
 10
-118.2508499948473
 20
77.724037716965995
 30
0.0
  0
VERTEX
  5
1AD0
  8
SAPA_PROFIL
 10
-117.1662855478756
 20
75.83819402510494
 30
0.0
  0
VERTEX
  5
1AD1
  8
SAPA_PROFIL
 10
-116.8445278196573
 20
75.848755391331906
 30
0.0
 42
-0.5773502691897466
  0
VERTEX
  5
1AD2
  8
SAPA_PROFIL
 10
-116.66157407954709
 20
75.55459909107708
 30
0.0
  0
VERTEX
  5
1AD3
  8
SAPA_PROFIL
 10
-116.8137079906559
 20
75.269916807845419
 30
0.0
 42
-0.221694662643019
  0
VERTEX
  5
1AD4
  8
SAPA_PROFIL
 10
-117.3545878221327
 20
74.864107902690648
 30
0.0
  0
VERTEX
  5
1AD5
  8
SAPA_PROFIL
 10
-119.1678182927909
 20
74.482661306562932
 30
0.0
 42
-0.476975532698164
  0
VERTEX
  5
1AD6
  8
SAPA_PROFIL
 10
-119.5394751677368
 20
74.784914131069399
 30
0.0
  0
VERTEX
  5
1AD7
  8
SAPA_PROFIL
 10
-119.5393915598532
 20
76.288015211831407
 30
0.0
  0
VERTEX
  5
1AD8
  8
SAPA_PROFIL
 10
-119.4915458098547
 20
76.302533621078496
 30
0.0
 42
0.4142135623730951
  0
VERTEX
  5
1AD9
  8
SAPA_PROFIL
 10
-119.2915817653473
 20
76.676718576554322
 30
0.0
  0
VERTEX
  5
1ADA
  8
SAPA_PROFIL
 10
-119.7999999999999
 20
77.992132296399689
 30
0.0
  0
VERTEX
  5
1ADB
  8
SAPA_PROFIL
 10
-119.7999999999997
 20
80.990283157573231
 30
0.0
 42
-0.2562769736732418
  0
VERTEX
  5
1ADC
  8
SAPA_PROFIL
 10
-119.7074690016843
 20
81.158955661784574
 30
0.0
  0
VERTEX
  5
1ADD
  8
SAPA_PROFIL
 10
-118.4612035025265
 20
81.9530086679612
 30
0.0
 42
-0.5920056181180006
  0
VERTEX
  5
1ADE
  8
SAPA_PROFIL
 10
-117.9999999999998
 20
81.699999911644113
 30
0.0
  0
VERTEX
  5
1ADF
  8
SAPA_PROFIL
 10
-117.9999999999998
 20
80.299999911644136
 30
0.0
 42
0.4142135623731505
  0
VERTEX
  5
1AE0
  8
SAPA_PROFIL
 10
-117.6999999999998
 20
79.999999911644096
 30
0.0
  0
VERTEX
  5
1AE1
  8
SAPA_PROFIL
 10
-115.2999999999999
 20
79.999999911644238
 30
0.0
 42
0.4142135623729841
  0
VERTEX
  5
1AE2
  8
SAPA_PROFIL
 10
-114.9999999999999
 20
80.299999911644136
 30
0.0
  0
VERTEX
  5
1AE3
  8
SAPA_PROFIL
 10
-114.9999999999999
 20
97.699999911644198
 30
0.0
 42
0.4142135623730882
  0
VERTEX
  5
1AE4
  8
SAPA_PROFIL
 10
-115.2999999999999
 20
97.99999991164421
 30
0.0
  0
VERTEX
  5
1AE5
  8
SAPA_PROFIL
 10
-117.7
 20
97.999999911644196
 30
0.0
 42
0.4142135623730118
  0
VERTEX
  5
1AE6
  8
SAPA_PROFIL
 10
-117.9999999999998
 20
97.699999911644127
 30
0.0
  0
VERTEX
  5
1AE7
  8
SAPA_PROFIL
 10
-117.9999999999998
 20
96.299999911644093
 30
0.0
 42
-0.5877032589249656
  0
VERTEX
  5
1AE8
  8
SAPA_PROFIL
 10
-118.4579602071274
 20
96.044953694334012
 30
0.0
  0
VERTEX
  5
1AE9
  8
SAPA_PROFIL
 10
-119.9053068047517
 20
96.941352671576183
 30
0.0
 42
-0.2596812337301635
  0
VERTEX
  5
1AEA
  8
SAPA_PROFIL
 10
-119.9999999999999
 20
97.111383483116299
 30
0.0
  0
VERTEX
  5
1AEB
  8
SAPA_PROFIL
 10
-119.9999999999999
 20
99.799999916475741
 30
0.0
 42
-0.4142135623732095
  0
VERTEX
  5
1AEC
  8
SAPA_PROFIL
 10
-119.7999999999999
 20
99.999999916475716
 30
0.0
  0
VERTEX
  5
1AED
  8
SAPA_PROFIL
 10
-76.99999850584976
 20
99.999999916475716
 30
0.0
 42
-0.4142135623730067
  0
VERTEX
  5
1AEE
  8
SAPA_PROFIL
 10
-74.999999999999773
 20
98.000001410626211
 30
0.0
  0
VERTEX
  5
1AEF
  8
SAPA_PROFIL
 10
-74.999999999999773
 20
92.299999169400778
 30
0.0
 42
0.4142135623729993
  0
VERTEX
  5
1AF0
  8
SAPA_PROFIL
 10
-74.000000747074751
 20
91.299999916475699
 30
0.0
  0
VERTEX
  5
1AF1
  8
SAPA_PROFIL
 10
-66.498980999999674
 20
91.299999916475784
 30
0.0
 42
-0.4142135623730951
  0
VERTEX
  5
1AF2
  8
SAPA_PROFIL
 10
-65.498980999999759
 20
90.299999916475784
 30
0.0
  0
VERTEX
  5
1AF3
  8
SAPA_PROFIL
 10
-65.498980999999759
 20
89.802224767060807
 30
0.0
 42
-0.4142135623729598
  0
VERTEX
  5
1AF4
  8
SAPA_PROFIL
 10
-65.698980850584775
 20
89.602224916475706
 30
0.0
  0
VERTEX
  5
1AF5
  8
SAPA_PROFIL
 10
-67.296831563178429
 20
89.602224916475791
 30
0.0
 42
0.414645992438811
  0
VERTEX
  5
1AF6
  8
SAPA_PROFIL
 10
-67.496831345266898
 20
89.401929680015243
 30
0.0
  0
VERTEX
  5
1AF7
  8
SAPA_PROFIL
 10
-67.498387852208765
 20
77.996303353174923
 30
0.0
  0
VERTEX
  5
1AF8
  8
SAPA_PROFIL
 10
-68.008418234652069
 20
76.676718576554322
 30
0.0
 42
0.4142135623730951
  0
VERTEX
  5
1AF9
  8
SAPA_PROFIL
 10
-67.808454190144673
 20
76.302533621078496
 30
0.0
  0
VERTEX
  5
1AFA
  8
SAPA_PROFIL
 10
-67.760608440146186
 20
76.288015211831407
 30
0.0
  0
VERTEX
  5
1AFB
  8
SAPA_PROFIL
 10
-67.760524832262547
 20
74.784914131069399
 30
0.0
 42
-0.4769755326981641
  0
VERTEX
  5
1AFC
  8
SAPA_PROFIL
 10
-68.132181707208403
 20
74.482661306562932
 30
0.0
  0
VERTEX
  5
1AFD
  8
SAPA_PROFIL
 10
-69.945412177866643
 20
74.864107902690648
 30
0.0
 42
-0.2216946626430191
  0
VERTEX
  5
1AFE
  8
SAPA_PROFIL
 10
-70.486292009343444
 20
75.269916807845433
 30
0.0
  0
VERTEX
  5
1AFF
  8
SAPA_PROFIL
 10
-70.638425920452221
 20
75.554599091077094
 30
0.0
 42
-0.5773502691897466
  0
VERTEX
  5
1B00
  8
SAPA_PROFIL
 10
-70.455472180342028
 20
75.848755391331906
 30
0.0
  0
VERTEX
  5
1B01
  8
SAPA_PROFIL
 10
-70.133714452123783
 20
75.83819402510494
 30
0.0
  0
VERTEX
  5
1B02
  8
SAPA_PROFIL
 10
-69.049150005152043
 20
77.724037716965995
 30
0.0
  0
VERTEX
  5
1B03
  8
SAPA_PROFIL
 10
-68.991076368162965
 20
77.915420716959716
 30
0.0
 42
0.7625858545243257
  0
VERTEX
  5
1B04
  8
SAPA_PROFIL
 10
-69.321402449179956
 20
78.099999919157199
 30
0.0
 42
-0.2134217652834391
  0
SEQEND
  5
1B05
  8
SAPA_PROFIL
  0
POLYLINE
  5
10F8
  8
SAPA_PROFIL
 66
     1
 10
0.0
 20
0.0
 30
0.0
 70
     1
  0
VERTEX
  5
1B06
  8
SAPA_PROFIL
 10
-76.999999999999773
 20
97.999999919693906
 30
0.0
  0
VERTEX
  5
1B07
  8
SAPA_PROFIL
 10
-78.999999999999773
 20
97.999999919693906
 30
0.0
  0
VERTEX
  5
1B08
  8
SAPA_PROFIL
 10
-78.999999999999687
 20
97.899999919693997
 30
0.0
 42
-0.4142135623732199
  0
VERTEX
  5
1B09
  8
SAPA_PROFIL
 10
-79.199999999999676
 20
97.699999919693923
 30
0.0
  0
VERTEX
  5
1B0A
  8
SAPA_PROFIL
 10
-80.799999999999685
 20
97.699999919693809
 30
0.0
 42
-0.4142135623727933
  0
VERTEX
  5
1B0B
  8
SAPA_PROFIL
 10
-80.999999999999787
 20
97.899999919693698
 30
0.0
  0
VERTEX
  5
1B0C
  8
SAPA_PROFIL
 10
-80.999999999999787
 20
97.999999919693906
 30
0.0
  0
VERTEX
  5
1B0D
  8
SAPA_PROFIL
 10
-109.2999999999997
 20
97.999999919693906
 30
0.0
  0
VERTEX
  5
1B0E
  8
SAPA_PROFIL
 10
-109.2999999999999
 20
97.899999919693911
 30
0.0
 42
-0.4142135623730847
  0
VERTEX
  5
1B0F
  8
SAPA_PROFIL
 10
-109.4999999999999
 20
97.699999919693923
 30
0.0
  0
VERTEX
  5
1B10
  8
SAPA_PROFIL
 10
-111.09999999999989
 20
97.699999919694022
 30
0.0
 42
-0.4142135623730847
  0
VERTEX
  5
1B11
  8
SAPA_PROFIL
 10
-111.2999999999998
 20
97.899999919693911
 30
0.0
  0
VERTEX
  5
1B12
  8
SAPA_PROFIL
 10
-111.2999999999998
 20
97.999999919693906
 30
0.0
  0
VERTEX
  5
1B13
  8
SAPA_PROFIL
 10
-112.9999999999999
 20
97.999999919693906
 30
0.0
 42
0.4142135623730675
  0
VERTEX
  5
1B14
  8
SAPA_PROFIL
 10
-113.2999999999997
 20
97.699999919693923
 30
0.0
  0
VERTEX
  5
1B15
  8
SAPA_PROFIL
 10
-113.2999999999997
 20
80.099999919693914
 30
0.0
 42
0.4142135623730673
  0
VERTEX
  5
1B16
  8
SAPA_PROFIL
 10
-112.9999999999999
 20
79.79999991969396
 30
0.0
  0
VERTEX
  5
1B17
  8
SAPA_PROFIL
 10
-111.2999999999996
 20
79.79999991969396
 30
0.0
  0
VERTEX
  5
1B18
  8
SAPA_PROFIL
 10
-111.2999999999999
 20
80.099999919693971
 30
0.0
 42
-0.4142135623731367
  0
VERTEX
  5
1B19
  8
SAPA_PROFIL
 10
-111.0999999999997
 20
80.299999919693946
 30
0.0
  0
VERTEX
  5
1B1A
  8
SAPA_PROFIL
 10
-109.4999999999999
 20
80.299999919694017
 30
0.0
 42
-0.4142135623732407
  0
VERTEX
  5
1B1B
  8
SAPA_PROFIL
 10
-109.2999999999998
 20
80.099999919693801
 30
0.0
  0
VERTEX
  5
1B1C
  8
SAPA_PROFIL
 10
-109.2999999999999
 20
79.799999919693903
 30
0.0
  0
VERTEX
  5
1B1D
  8
SAPA_PROFIL
 10
-80.999999999999574
 20
79.799999919693903
 30
0.0
  0
VERTEX
  5
1B1E
  8
SAPA_PROFIL
 10
-80.999999999999744
 20
80.099999919693971
 30
0.0
 42
-0.4142135623732199
  0
VERTEX
  5
1B1F
  8
SAPA_PROFIL
 10
-80.799999999999685
 20
80.299999919693946
 30
0.0
  0
VERTEX
  5
1B20
  8
SAPA_PROFIL
 10
-79.199999999999676
 20
80.299999919693875
 30
0.0
 42
-0.4142135623733448
  0
VERTEX
  5
1B21
  8
SAPA_PROFIL
 10
-78.999999999999773
 20
80.099999919693801
 30
0.0
  0
VERTEX
  5
1B22
  8
SAPA_PROFIL
 10
-78.999999999999773
 20
79.79999991969396
 30
0.0
  0
VERTEX
  5
1B23
  8
SAPA_PROFIL
 10
-69.499999999999972
 20
79.79999991969396
 30
0.0
 42
0.4142135623732061
  0
VERTEX
  5
1B24
  8
SAPA_PROFIL
 10
-69.199999999999875
 20
80.099999919693971
 30
0.0
  0
VERTEX
  5
1B25
  8
SAPA_PROFIL
 10
-69.199999999999875
 20
89.299999916475798
 30
0.0
 42
0.4142135623732059
  0
VERTEX
  5
1B26
  8
SAPA_PROFIL
 10
-69.499999999999972
 20
89.599999916475781
 30
0.0
  0
VERTEX
  5
1B27
  8
SAPA_PROFIL
 10
-74.000000747074665
 20
89.599999916475781
 30
0.0
 42
-0.414213562373052
  0
VERTEX
  5
1B28
  8
SAPA_PROFIL
 10
-76.699999999999676
 20
92.299999169400621
 30
0.0
  0
VERTEX
  5
1B29
  8
SAPA_PROFIL
 10
-76.699999999999676
 20
97.699999919693923
 30
0.0
 42
0.4142135623732891
  0
SEQEND
  5
1B2A
  8
SAPA_PROFIL
  0
POLYLINE
  5
10F9
  8
SAPA_PROFIL
 66
     1
 10
0.0
 20
0.0
 30
0.1
 70
     1
  0
VERTEX
  5
1B2B
  8
SAPA_PROFIL
 10
-75.200382531323498
 20
37.999999919239492
 30
0.1
 42
-0.2679491924311119
  0
VERTEX
  5
1B2C
  8
SAPA_PROFIL
 10
-74.334357127539192
 20
38.499999919239393
 30
0.1
  0
VERTEX
  5
1B2D
  8
SAPA_PROFIL
 10
-72.94871648148407
 20
38.499999919239272
 30
0.1
 42
-0.5773502691897603
  0
VERTEX
  5
1B2E
  8
SAPA_PROFIL
 10
-72.775511400727282
 20
38.199999919239318
 30
0.1
  0
VERTEX
  5
1B2F
  8
SAPA_PROFIL
 10
-73.699271831430593
 20
36.599999919239643
 30
0.1
  0
VERTEX
  5
1B30
  8
SAPA_PROFIL
 10
-73.699271831430593
 20
36.299999919239447
 30
0.1
 42
0.4142135623728995
  0
VERTEX
  5
1B31
  8
SAPA_PROFIL
 10
-73.399271831430667
 20
35.999999919239393
 30
0.1
  0
VERTEX
  5
1B32
  8
SAPA_PROFIL
 10
-69.546485426930587
 20
35.999999919239443
 30
0.1
 42
-0.2134217652834313
  0
VERTEX
  5
1B33
  8
SAPA_PROFIL
 10
-69.322878629180508
 20
35.89999991923932
 30
0.1
 42
0.7625858545243313
  0
VERTEX
  5
1B34
  8
SAPA_PROFIL
 10
-68.992552548163474
 20
36.084579121436789
 30
0.1
  0
VERTEX
  5
1B35
  8
SAPA_PROFIL
 10
-69.050626185152566
 20
36.27596212143051
 30
0.1
  0
VERTEX
  5
1B36
  8
SAPA_PROFIL
 10
-70.135190632124306
 20
38.161805813291558
 30
0.1
  0
VERTEX
  5
1B37
  8
SAPA_PROFIL
 10
-70.456948360342565
 20
38.15124444706457
 30
0.1
 42
-0.5773502691897454
  0
VERTEX
  5
1B38
  8
SAPA_PROFIL
 10
-70.63990210045273
 20
38.445400747319432
 30
0.1
  0
VERTEX
  5
1B39
  8
SAPA_PROFIL
 10
-70.487768189343996
 20
38.730083030551071
 30
0.1
 42
-0.2216946626430149
  0
VERTEX
  5
1B3A
  8
SAPA_PROFIL
 10
-69.946888357867181
 20
39.135891935705857
 30
0.1
  0
VERTEX
  5
1B3B
  8
SAPA_PROFIL
 10
-68.133657887208955
 20
39.51733853183358
 30
0.1
 42
-0.476975532698164
  0
VERTEX
  5
1B3C
  8
SAPA_PROFIL
 10
-67.762001012263056
 20
39.215085707327113
 30
0.1
  0
VERTEX
  5
1B3D
  8
SAPA_PROFIL
 10
-67.762084620146709
 20
37.711984626565098
 30
0.1
  0
VERTEX
  5
1B3E
  8
SAPA_PROFIL
 10
-67.809930370145196
 20
37.697466217318002
 30
0.1
 42
0.4142135623730875
  0
VERTEX
  5
1B3F
  8
SAPA_PROFIL
 10
-68.009894414652592
 20
37.323281261842183
 30
0.1
  0
VERTEX
  5
1B40
  8
SAPA_PROFIL
 10
-67.49999999608886
 20
36.004048260080147
 30
0.1
  0
VERTEX
  5
1B41
  8
SAPA_PROFIL
 10
-67.49999999608886
 20
16.26852152258331
 30
0.1
 42
0.3821712090170728
  0
VERTEX
  5
1B42
  8
SAPA_PROFIL
 10
-67.233119780183102
 20
15.970355327481389
 30
0.1
  0
VERTEX
  5
1B43
  8
SAPA_PROFIL
 10
-60.65514899608889
 20
15.444515792516389
 30
0.1
 42
0.4469990000000183
  0
VERTEX
  5
1B44
  8
SAPA_PROFIL
 10
-60.099948996088898
 20
15.941459792516399
 30
0.1
  0
VERTEX
  5
1B45
  8
SAPA_PROFIL
 10
-60.09994899608887
 20
17.699999919239399
 30
0.1
 42
-0.414213999999998
  0
VERTEX
  5
1B46
  8
SAPA_PROFIL
 10
-59.099948996088891
 20
18.69999991923941
 30
0.1
  0
VERTEX
  5
1B47
  8
SAPA_PROFIL
 10
-58.832404996088883
 20
18.699999919239389
 30
0.1
 42
-0.2896899999999924
  0
VERTEX
  5
1B48
  8
SAPA_PROFIL
 10
-57.928896996088838
 20
18.128571919239391
 30
0.1
 42
-0.5507599999999715
  0
VERTEX
  5
1B49
  8
SAPA_PROFIL
 10
-58.199948996088857
 20
17.699999919239399
 30
0.1
  0
VERTEX
  5
1B4A
  8
SAPA_PROFIL
 10
-58.49994899608884
 20
17.69999991923941
 30
0.1
 42
0.4142140000001125
  0
VERTEX
  5
1B4B
  8
SAPA_PROFIL
 10
-58.699948996088871
 20
17.499999919239389
 30
0.1
  0
VERTEX
  5
1B4C
  8
SAPA_PROFIL
 10
-58.699948996088871
 20
16.39999991923937
 30
0.1
 42
0.4142139999999939
  0
VERTEX
  5
1B4D
  8
SAPA_PROFIL
 10
-57.699948996088857
 20
15.39999991923937
 30
0.1
  0
VERTEX
  5
1B4E
  8
SAPA_PROFIL
 10
-55.399999996088887
 20
15.39999991923937
 30
0.1
 42
0.4142139999999918
  0
VERTEX
  5
1B4F
  8
SAPA_PROFIL
 10
-54.399999996088901
 20
16.39999991923937
 30
0.1
  0
VERTEX
  5
1B50
  8
SAPA_PROFIL
 10
-54.399999996088859
 20
17.499999919239389
 30
0.1
 42
0.4142139999999378
  0
VERTEX
  5
1B51
  8
SAPA_PROFIL
 10
-54.599999996088883
 20
17.699999919239399
 30
0.1
  0
VERTEX
  5
1B52
  8
SAPA_PROFIL
 10
-54.899948996088852
 20
17.699999919239431
 30
0.1
 42
-0.5507599999999796
  0
VERTEX
  5
1B53
  8
SAPA_PROFIL
 10
-55.171001996088869
 20
18.128571919239381
 30
0.1
 42
-0.2896900000000027
  0
VERTEX
  5
1B54
  8
SAPA_PROFIL
 10
-54.267493996088859
 20
18.69999991923941
 30
0.1
  0
VERTEX
  5
1B55
  8
SAPA_PROFIL
 10
-53.99999999608886
 20
18.699999919239382
 30
0.1
 42
-0.4142140000000064
  0
VERTEX
  5
1B56
  8
SAPA_PROFIL
 10
-52.99999999608886
 20
17.699999919239399
 30
0.1
  0
VERTEX
  5
1B57
  8
SAPA_PROFIL
 10
-52.999999996088917
 20
15.9999999192394
 30
0.1
 42
-0.4142139999999918
  0
VERTEX
  5
1B58
  8
SAPA_PROFIL
 10
-54.99999999608886
 20
13.999999919239389
 30
0.1
  0
VERTEX
  5
1B59
  8
SAPA_PROFIL
 10
-141.4999999960888
 20
13.99999991923945
 30
0.1
 42
-0.414213999999996
  0
VERTEX
  5
1B5A
  8
SAPA_PROFIL
 10
-141.9999999960888
 20
14.49999991923942
 30
0.1
  0
VERTEX
  5
1B5B
  8
SAPA_PROFIL
 10
-141.99999999608869
 20
18.19999991923941
 30
0.1
 42
-0.4142139999999107
  0
VERTEX
  5
1B5C
  8
SAPA_PROFIL
 10
-141.69999999608891
 20
18.499999919239389
 30
0.1
  0
VERTEX
  5
1B5D
  8
SAPA_PROFIL
 10
-140.93245499608881
 20
18.4999999192394
 30
0.1
 42
-0.2896899999999864
  0
VERTEX
  5
1B5E
  8
SAPA_PROFIL
 10
-140.02894699608879
 20
17.92857191923942
 30
0.1
 42
-0.5507600000000558
  0
VERTEX
  5
1B5F
  8
SAPA_PROFIL
 10
-140.29999999608879
 20
17.499999919239389
 30
0.1
  0
VERTEX
  5
1B60
  8
SAPA_PROFIL
 10
-140.4999999960888
 20
17.499999919239389
 30
0.1
 42
0.414214000000073
  0
VERTEX
  5
1B61
  8
SAPA_PROFIL
 10
-140.79999999608879
 20
17.19999991923941
 30
0.1
  0
VERTEX
  5
1B62
  8
SAPA_PROFIL
 10
-140.79999999608879
 20
15.69999991923941
 30
0.1
 42
0.414213999999996
  0
VERTEX
  5
1B63
  8
SAPA_PROFIL
 10
-140.29999999608879
 20
15.19999991923941
 30
0.1
  0
VERTEX
  5
1B64
  8
SAPA_PROFIL
 10
-136.9999999960888
 20
15.19999991923941
 30
0.1
 42
0.4142140000000002
  0
VERTEX
  5
1B65
  8
SAPA_PROFIL
 10
-136.49999999608869
 20
15.69999991923941
 30
0.1
  0
VERTEX
  5
1B66
  8
SAPA_PROFIL
 10
-136.49999999608869
 20
17.19999991923941
 30
0.1
 42
0.4142140000000209
  0
VERTEX
  5
1B67
  8
SAPA_PROFIL
 10
-136.79999999608879
 20
17.499999919239389
 30
0.1
  0
VERTEX
  5
1B68
  8
SAPA_PROFIL
 10
-136.9999999960888
 20
17.499999919239329
 30
0.1
 42
-0.5507600000000054
  0
VERTEX
  5
1B69
  8
SAPA_PROFIL
 10
-137.2710519960888
 20
17.928571919239431
 30
0.1
 42
-0.2896899999999876
  0
VERTEX
  5
1B6A
  8
SAPA_PROFIL
 10
-136.3675439960889
 20
18.4999999192394
 30
0.1
  0
VERTEX
  5
1B6B
  8
SAPA_PROFIL
 10
-135.37007299608879
 20
18.499999919239379
 30
0.1
 42
-0.0436609999999812
  0
VERTEX
  5
1B6C
  8
SAPA_PROFIL
 10
-135.2832479960889
 20
18.49240391923939
 30
0.1
  0
VERTEX
  5
1B6D
  8
SAPA_PROFIL
 10
-133.71317599608889
 20
18.21555791923938
 30
0.1
 42
-0.839099999999979
  0
VERTEX
  5
1B6E
  8
SAPA_PROFIL
 10
-133.71317599608889
 20
17.23074991923939
 30
0.1
  0
VERTEX
  5
1B6F
  8
SAPA_PROFIL
 10
-134.88682399608891
 20
17.023804919239399
 30
0.1
 42
0.363970000000042
  0
VERTEX
  5
1B70
  8
SAPA_PROFIL
 10
-135.2999999960889
 20
16.531400919239381
 30
0.1
  0
VERTEX
  5
1B71
  8
SAPA_PROFIL
 10
-135.2999999960889
 20
15.71999991923942
 30
0.1
 42
0.4373279999999794
  0
VERTEX
  5
1B72
  8
SAPA_PROFIL
 10
-134.7609049960889
 20
15.22153091923939
 30
0.1
  0
VERTEX
  5
1B73
  8
SAPA_PROFIL
 10
-120.2878467226725
 20
15.78832940563526
 30
0.1
 42
0.4023941355298093
  0
VERTEX
  5
1B74
  8
SAPA_PROFIL
 10
-119.9999999960887
 20
16.08808313446157
 30
0.1
  0
VERTEX
  5
1B75
  8
SAPA_PROFIL
 10
-119.9999999960888
 20
16.8886169192394
 30
0.1
 42
-0.2596810000001062
  0
VERTEX
  5
1B76
  8
SAPA_PROFIL
 10
-119.9053069960887
 20
17.058647919239391
 30
0.1
  0
VERTEX
  5
1B77
  8
SAPA_PROFIL
 10
-118.4579599960889
 20
17.955046919239479
 30
0.1
 42
-0.5877030000000574
  0
VERTEX
  5
1B78
  8
SAPA_PROFIL
 10
-117.9999999960887
 20
17.69999991923935
 30
0.1
  0
VERTEX
  5
1B79
  8
SAPA_PROFIL
 10
-117.9999999960887
 20
16.299999919239401
 30
0.1
 42
0.4142139999999773
  0
VERTEX
  5
1B7A
  8
SAPA_PROFIL
 10
-117.69999999608891
 20
15.999999919239389
 30
0.1
  0
VERTEX
  5
1B7B
  8
SAPA_PROFIL
 10
-115.2999999960888
 20
15.999999919239389
 30
0.1
 42
0.4142140000000855
  0
VERTEX
  5
1B7C
  8
SAPA_PROFIL
 10
-114.9999999960888
 20
16.299999919239401
 30
0.1
  0
VERTEX
  5
1B7D
  8
SAPA_PROFIL
 10
-114.9999999960888
 20
33.699999919239382
 30
0.1
 42
0.4142140000001167
  0
VERTEX
  5
1B7E
  8
SAPA_PROFIL
 10
-115.2999999960888
 20
33.9999999192394
 30
0.1
  0
VERTEX
  5
1B7F
  8
SAPA_PROFIL
 10
-117.69999999608891
 20
33.9999999192394
 30
0.1
 42
0.4142140000000127
  0
VERTEX
  5
1B80
  8
SAPA_PROFIL
 10
-117.9999999960887
 20
33.699999919239382
 30
0.1
  0
VERTEX
  5
1B81
  8
SAPA_PROFIL
 10
-117.9999999960887
 20
32.299999919239397
 30
0.1
 42
-0.5920054160710117
  0
VERTEX
  5
1B82
  8
SAPA_PROFIL
 10
-118.4612033342036
 20
32.046991406481631
 30
0.1
  0
VERTEX
  5
1B83
  8
SAPA_PROFIL
 10
-119.7074689904166
 20
32.841044436303292
 30
0.1
 42
-0.2562769852931595
  0
VERTEX
  5
1B84
  8
SAPA_PROFIL
 10
-119.7999999960888
 20
33.009716945201909
 30
0.1
  0
VERTEX
  5
1B85
  8
SAPA_PROFIL
 10
-119.7999999960888
 20
36.004048260080438
 30
0.1
  0
VERTEX
  5
1B86
  8
SAPA_PROFIL
 10
-119.2901055775251
 20
37.323281261842133
 30
0.1
 42
0.4142135623730875
  0
VERTEX
  5
1B87
  8
SAPA_PROFIL
 10
-119.49006962203249
 20
37.697466217317938
 30
0.1
  0
VERTEX
  5
1B88
  8
SAPA_PROFIL
 10
-119.53791537203099
 20
37.711984626565041
 30
0.1
  0
VERTEX
  5
1B89
  8
SAPA_PROFIL
 10
-119.5379989799147
 20
39.215085707327049
 30
0.1
 42
-0.4769755326981641
  0
VERTEX
  5
1B8A
  8
SAPA_PROFIL
 10
-119.16634210496881
 20
39.517338531833524
 30
0.1
  0
VERTEX
  5
1B8B
  8
SAPA_PROFIL
 10
-117.35311163431049
 20
39.135891935705828
 30
0.1
 42
-0.2216946626430149
  0
VERTEX
  5
1B8C
  8
SAPA_PROFIL
 10
-116.81223180283379
 20
38.730083030551
 30
0.1
  0
VERTEX
  5
1B8D
  8
SAPA_PROFIL
 10
-116.660097891725
 20
38.445400747319368
 30
0.1
 42
-0.5773502691897454
  0
VERTEX
  5
1B8E
  8
SAPA_PROFIL
 10
-116.84305163183519
 20
38.151244447064542
 30
0.1
  0
VERTEX
  5
1B8F
  8
SAPA_PROFIL
 10
-117.1648093600534
 20
38.161805813291508
 30
0.1
  0
VERTEX
  5
1B90
  8
SAPA_PROFIL
 10
-118.24937380702519
 20
36.275962121430481
 30
0.1
  0
VERTEX
  5
1B91
  8
SAPA_PROFIL
 10
-118.3074474440143
 20
36.084579121436761
 30
0.1
 42
0.7625858545243333
  0
VERTEX
  5
1B92
  8
SAPA_PROFIL
 10
-117.9771213629972
 20
35.899999919239278
 30
0.1
 42
-0.2134217652834462
  0
VERTEX
  5
1B93
  8
SAPA_PROFIL
 10
-117.7535145652471
 20
35.999999919239393
 30
0.1
  0
VERTEX
  5
1B94
  8
SAPA_PROFIL
 10
-113.90072816074699
 20
35.999999919239393
 30
0.1
 42
0.4142135623729119
  0
VERTEX
  5
1B95
  8
SAPA_PROFIL
 10
-113.6007281607471
 20
36.299999919239447
 30
0.1
  0
VERTEX
  5
1B96
  8
SAPA_PROFIL
 10
-113.6007281607471
 20
36.599999919239643
 30
0.1
  0
VERTEX
  5
1B97
  8
SAPA_PROFIL
 10
-114.52448859145051
 20
38.199999919239261
 30
0.1
 42
-0.5773502691897497
  0
VERTEX
  5
1B98
  8
SAPA_PROFIL
 10
-114.35128351069361
 20
38.499999919239393
 30
0.1
  0
VERTEX
  5
1B99
  8
SAPA_PROFIL
 10
-112.9656428646385
 20
38.499999919239563
 30
0.1
 42
-0.2679491924311136
  0
VERTEX
  5
1B9A
  8
SAPA_PROFIL
 10
-112.09961746085411
 20
37.999999919239563
 30
0.1
  0
VERTEX
  5
1B9B
  8
SAPA_PROFIL
 10
-111.089254489772
 20
36.249999919239357
 30
0.1
 42
0.2679491924310958
  0
VERTEX
  5
1B9C
  8
SAPA_PROFIL
 10
-110.65624178787979
 20
35.999999919239393
 30
0.1
  0
VERTEX
  5
1B9D
  8
SAPA_PROFIL
 10
-110.3196152383594
 20
35.999999919239393
 30
0.1
  0
VERTEX
  5
1B9E
  8
SAPA_PROFIL
 10
-109.7999999960887
 20
35.699999919239403
 30
0.1
  0
VERTEX
  5
1B9F
  8
SAPA_PROFIL
 10
-109.2803847538181
 20
35.999999919239393
 30
0.1
  0
VERTEX
  5
1BA0
  8
SAPA_PROFIL
 10
-76.643758204297939
 20
35.999999919239393
 30
0.1
 42
0.2679491924311033
  0
VERTEX
  5
1BA1
  8
SAPA_PROFIL
 10
-76.210745502405729
 20
36.249999919239357
 30
0.1
  0
SEQEND
  5
1BA2
  8
SAPA_PROFIL
  0
POLYLINE
  5
10FA
  8
SAPA_PROFIL
 66
     1
 10
0.0
 20
0.0
 30
0.1
 70
     1
  0
VERTEX
  5
1BA3
  8
SAPA_PROFIL
 10
-111.0999999960889
 20
33.699999919239382
 30
0.1
  0
VERTEX
  5
1BA4
  8
SAPA_PROFIL
 10
-109.4999999960888
 20
33.699999919239382
 30
0.1
 42
0.4142135623730951
  0
VERTEX
  5
1BA5
  8
SAPA_PROFIL
 10
-109.2999999960889
 20
33.899999919239399
 30
0.1
  0
VERTEX
  5
1BA6
  8
SAPA_PROFIL
 10
-109.2999999960889
 20
34.20000000311272
 30
0.1
  0
VERTEX
  5
1BA7
  8
SAPA_PROFIL
 10
-73.199999996088849
 20
34.20000000311272
 30
0.1
  0
VERTEX
  5
1BA8
  8
SAPA_PROFIL
 10
-73.199999996088849
 20
33.899999919239399
 30
0.1
 42
0.4142135623730951
  0
VERTEX
  5
1BA9
  8
SAPA_PROFIL
 10
-72.99999999608886
 20
33.699999919239382
 30
0.1
  0
VERTEX
  5
1BAA
  8
SAPA_PROFIL
 10
-71.399999996088837
 20
33.699999919239382
 30
0.1
 42
0.4142135623730951
  0
VERTEX
  5
1BAB
  8
SAPA_PROFIL
 10
-71.199999996088849
 20
33.899999919239399
 30
0.1
  0
VERTEX
  5
1BAC
  8
SAPA_PROFIL
 10
-71.199999996088849
 20
34.20000000311272
 30
0.1
  0
VERTEX
  5
1BAD
  8
SAPA_PROFIL
 10
-69.49999999608886
 20
34.200000003112741
 30
0.1
 42
-0.4142135623730951
  0
VERTEX
  5
1BAE
  8
SAPA_PROFIL
 10
-69.199999996088849
 20
33.900000003112723
 30
0.1
  0
VERTEX
  5
1BAF
  8
SAPA_PROFIL
 10
-69.199999996088849
 20
16.299999919239401
 30
0.1
 42
-0.4142135623730951
  0
VERTEX
  5
1BB0
  8
SAPA_PROFIL
 10
-69.49999999608886
 20
15.999999919239389
 30
0.1
  0
VERTEX
  5
1BB1
  8
SAPA_PROFIL
 10
-71.199999996088849
 20
15.999999919239389
 30
0.1
  0
VERTEX
  5
1BB2
  8
SAPA_PROFIL
 10
-71.199999996088849
 20
16.099999919239419
 30
0.1
 42
0.4142135623730951
  0
VERTEX
  5
1BB3
  8
SAPA_PROFIL
 10
-71.399999996088837
 20
16.299999919239401
 30
0.1
  0
VERTEX
  5
1BB4
  8
SAPA_PROFIL
 10
-72.99999999608886
 20
16.299999919239401
 30
0.1
 42
0.4142135623730951
  0
VERTEX
  5
1BB5
  8
SAPA_PROFIL
 10
-73.199999996088849
 20
16.099999919239419
 30
0.1
  0
VERTEX
  5
1BB6
  8
SAPA_PROFIL
 10
-73.199999996088849
 20
15.999999919239389
 30
0.1
  0
VERTEX
  5
1BB7
  8
SAPA_PROFIL
 10
-109.2999999960889
 20
15.999999919239389
 30
0.1
  0
VERTEX
  5
1BB8
  8
SAPA_PROFIL
 10
-109.2999999960889
 20
16.099999919239419
 30
0.1
 42
0.4142135623730951
  0
VERTEX
  5
1BB9
  8
SAPA_PROFIL
 10
-109.4999999960888
 20
16.299999919239401
 30
0.1
  0
VERTEX
  5
1BBA
  8
SAPA_PROFIL
 10
-111.0999999960889
 20
16.299999919239401
 30
0.1
 42
0.4142135623730951
  0
VERTEX
  5
1BBB
  8
SAPA_PROFIL
 10
-111.2999999960889
 20
16.099999919239419
 30
0.1
  0
VERTEX
  5
1BBC
  8
SAPA_PROFIL
 10
-111.2999999960889
 20
15.999999919239389
 30
0.1
  0
VERTEX
  5
1BBD
  8
SAPA_PROFIL
 10
-112.9999999960889
 20
15.9999999192394
 30
0.1
 42
-0.4142135623730951
  0
VERTEX
  5
1BBE
  8
SAPA_PROFIL
 10
-113.2999999960889
 20
16.299999919239401
 30
0.1
  0
VERTEX
  5
1BBF
  8
SAPA_PROFIL
 10
-113.2999999960889
 20
33.900000003112723
 30
0.1
 42
-0.4142135623730951
  0
VERTEX
  5
1BC0
  8
SAPA_PROFIL
 10
-112.9999999960889
 20
34.20000000311272
 30
0.1
  0
VERTEX
  5
1BC1
  8
SAPA_PROFIL
 10
-111.2999999960889
 20
34.20000000311272
 30
0.1
  0
VERTEX
  5
1BC2
  8
SAPA_PROFIL
 10
-111.2999999960889
 20
33.899999919239399
 30
0.1
 42
0.4142135623730951
  0
SEQEND
  5
1BC3
  8
SAPA_PROFIL
  0
POLYLINE
  5
10FB
  8
SAPA_PROFIL
 62
     4
 66
     1
 10
0.0
 20
0.0
 30
0.0
  0
VERTEX
  5
1BC4
  8
SAPA_PROFIL
 62
     4
 10
-117.0966328867074
 20
66.04932904151147
 30
0.0
 42
-0.5571646428658034
  0
VERTEX
  5
1BC5
  8
SAPA_PROFIL
 62
     4
 10
-116.22891397255189
 20
65.512368537374641
 30
0.0
  0
VERTEX
  5
1BC6
  8
SAPA_PROFIL
 62
     4
 10
-116.22891397255231
 20
48.487631300853451
 30
0.0
 42
-0.5571645048035741
  0
VERTEX
  5
1BC7
  8
SAPA_PROFIL
 62
     4
 10
-117.09663266041851
 20
47.950670683892383
 30
0.0
  0
VERTEX
  5
1BC8
  8
SAPA_PROFIL
 62
     4
 10
-118.7627733164865
 20
48.781377771439082
 30
0.0
 42
-0.284385813979063
  0
VERTEX
  5
1BC9
  8
SAPA_PROFIL
 62
     4
 10
-118.928913972554
 20
49.049858079919431
 30
0.0
  0
VERTEX
  5
1BCA
  8
SAPA_PROFIL
 62
     4
 10
-118.928913972554
 20
64.950141758308746
 30
0.0
 42
-0.2843858139786238
  0
VERTEX
  5
1BCB
  8
SAPA_PROFIL
 62
     4
 10
-118.762773316487
 20
65.218622066789024
 30
0.0
  0
VERTEX
  5
1BCC
  8
SAPA_PROFIL
 62
     4
 10
-117.0966326604177
 20
66.049329154336192
 30
0.0
  0
SEQEND
  5
1BCD
  8
SAPA_PROFIL
 62
     4
  0
POLYLINE
  5
10FC
  8
SAPA_PROFIL
 62
     4
 66
     1
 10
0.0
 20
0.0
 30
0.0
  0
VERTEX
  5
1BCE
  8
SAPA_PROFIL
 62
     4
 10
-119.2857454870515
 20
42.582388734446788
 30
0.0
  0
VERTEX
  5
1BCF
  8
SAPA_PROFIL
 62
     4
 10
-119.69230568305569
 20
42.318365456070779
 30
0.0
 42
0.2539676464751066
  0
VERTEX
  5
1BD0
  8
SAPA_PROFIL
 62
     4
 10
-119.8289139725518
 20
42.066764285686077
 30
0.0
  0
VERTEX
  5
1BD1
  8
SAPA_PROFIL
 62
     4
 10
-119.8289139725518
 20
40.685264700480722
 30
0.0
 42
0.3152987888790479
  0
VERTEX
  5
1BD2
  8
SAPA_PROFIL
 62
     4
 10
-119.4999240442136
 20
40.215418390088409
 30
0.0
  0
VERTEX
  5
1BD3
  8
SAPA_PROFIL
 62
     4
 10
-117.0390938537623
 20
39.31974944917981
 30
0.0
 42
-0.2694959974287434
  0
VERTEX
  5
1BD4
  8
SAPA_PROFIL
 62
     4
 10
-116.8459618794184
 20
39.088230402778457
 30
0.0
 42
-0.0612686379508233
  0
VERTEX
  5
1BD5
  8
SAPA_PROFIL
 62
     4
 10
-116.8323785087879
 20
38.795554969925178
 30
0.0
  0
VERTEX
  5
1BD6
  8
SAPA_PROFIL
 62
     4
 10
-116.6306418300591
 20
38.446136792616912
 30
0.0
 42
-0.5773502691891681
  0
VERTEX
  5
1BD7
  8
SAPA_PROFIL
 62
     4
 10
-116.8125071648537
 20
38.131136792617319
 30
0.0
  0
VERTEX
  5
1BD8
  8
SAPA_PROFIL
 62
     4
 10
-117.07962169298
 20
38.131136792617092
 30
0.0
  0
VERTEX
  5
1BD9
  8
SAPA_PROFIL
 62
     4
 10
-117.8883051542883
 20
36.73260909198283
 30
0.0
 42
0.1318219888653519
  0
VERTEX
  5
1BDA
  8
SAPA_PROFIL
 62
     4
 10
-117.9285975508257
 20
36.582435989510493
 30
0.0
  0
VERTEX
  5
1BDB
  8
SAPA_PROFIL
 62
     4
 10
-117.9285975508193
 20
36.399999919073707
 30
0.0
 42
0.4142135623724291
  0
VERTEX
  5
1BDC
  8
SAPA_PROFIL
 62
     4
 10
-117.5285975508197
 20
35.999999919073161
 30
0.0
  0
VERTEX
  5
1BDD
  8
SAPA_PROFIL
 62
     4
 10
-114.1285975508187
 20
35.999999919074533
 30
0.0
 42
0.4142135623744271
  0
VERTEX
  5
1BDE
  8
SAPA_PROFIL
 62
     4
 10
-113.7285975508177
 20
36.399999919073707
 30
0.0
  0
VERTEX
  5
1BDF
  8
SAPA_PROFIL
 62
     4
 10
-113.7285975508171
 20
36.579615161345011
 30
0.0
 42
0.1316524975874005
  0
VERTEX
  5
1BE0
  8
SAPA_PROFIL
 62
     4
 10
-113.7687899296826
 20
36.729615161341833
 30
0.0
  0
VERTEX
  5
1BE1
  8
SAPA_PROFIL
 62
     4
 10
-114.6949393763352
 20
38.33375305834408
 30
0.0
 42
-0.1316524975875904
  0
VERTEX
  5
1BE2
  8
SAPA_PROFIL
 62
     4
 10
-114.8289139725499
 20
38.833753058345792
 30
0.0
  0
VERTEX
  5
1BE3
  8
SAPA_PROFIL
 62
     4
 10
-114.8289139725499
 20
39.249999919073161
 30
0.0
 42
-0.4142135623730951
  0
VERTEX
  5
1BE4
  8
SAPA_PROFIL
 62
     4
 10
-113.8289139725499
 20
40.249999919073161
 30
0.0
  0
VERTEX
  5
1BE5
  8
SAPA_PROFIL
 62
     4
 10
-110.8289139725527
 20
40.249999919073161
 30
0.0
 42
0.9999996830128083
  0
VERTEX
  5
1BE6
  8
SAPA_PROFIL
 62
     4
 10
-110.82891397255089
 20
41.249999919073161
 30
0.0
  0
VERTEX
  5
1BE7
  8
SAPA_PROFIL
 62
     4
 10
-113.82891397255089
 20
41.249999919073161
 30
0.0
 42
-0.4142135623730951
  0
VERTEX
  5
1BE8
  8
SAPA_PROFIL
 62
     4
 10
-114.82891397255089
 20
42.249999919073161
 30
0.0
  0
VERTEX
  5
1BE9
  8
SAPA_PROFIL
 62
     4
 10
-114.82891397255089
 20
71.749999919157744
 30
0.0
 42
-0.4142135623730951
  0
VERTEX
  5
1BEA
  8
SAPA_PROFIL
 62
     4
 10
-113.82891397255089
 20
72.749999919157744
 30
0.0
  0
VERTEX
  5
1BEB
  8
SAPA_PROFIL
 62
     4
 10
-110.8289139725527
 20
72.749999919157744
 30
0.0
 42
0.9999999999999998
  0
VERTEX
  5
1BEC
  8
SAPA_PROFIL
 62
     4
 10
-110.8289139725527
 20
73.749999919157744
 30
0.0
  0
VERTEX
  5
1BED
  8
SAPA_PROFIL
 62
     4
 10
-113.82891397255089
 20
73.749999919157744
 30
0.0
 42
-0.4142135623736278
  0
VERTEX
  5
1BEE
  8
SAPA_PROFIL
 62
     4
 10
-114.82891397255089
 20
74.749999919157744
 30
0.0
  0
VERTEX
  5
1BEF
  8
SAPA_PROFIL
 62
     4
 10
-114.82891397255089
 20
75.166246779884204
 30
0.0
 42
-0.1316524975874375
  0
VERTEX
  5
1BF0
  8
SAPA_PROFIL
 62
     4
 10
-114.6949393763348
 20
75.666246779884403
 30
0.0
  0
VERTEX
  5
1BF1
  8
SAPA_PROFIL
 62
     4
 10
-113.7687899296826
 20
77.270384676886351
 30
0.0
 42
0.1316524975874
  0
VERTEX
  5
1BF2
  8
SAPA_PROFIL
 62
     4
 10
-113.7285975508171
 20
77.420384676885902
 30
0.0
  0
VERTEX
  5
1BF3
  8
SAPA_PROFIL
 62
     4
 10
-113.7285975508177
 20
77.599999919157185
 30
0.0
 42
0.4142135623744271
  0
VERTEX
  5
1BF4
  8
SAPA_PROFIL
 62
     4
 10
-114.1285975508187
 20
77.99999991915638
 30
0.0
  0
VERTEX
  5
1BF5
  8
SAPA_PROFIL
 62
     4
 10
-117.5285975508197
 20
77.999999919157744
 30
0.0
 42
0.4142135623724291
  0
VERTEX
  5
1BF6
  8
SAPA_PROFIL
 62
     4
 10
-117.9285975508193
 20
77.599999919157185
 30
0.0
  0
VERTEX
  5
1BF7
  8
SAPA_PROFIL
 62
     4
 10
-117.9285975508257
 20
77.41756384872042
 30
0.0
 42
0.1318219888653524
  0
VERTEX
  5
1BF8
  8
SAPA_PROFIL
 62
     4
 10
-117.8883051542883
 20
77.267390746248083
 30
0.0
  0
VERTEX
  5
1BF9
  8
SAPA_PROFIL
 62
     4
 10
-117.079621693064
 20
75.868863045768421
 30
0.0
  0
VERTEX
  5
1BFA
  8
SAPA_PROFIL
 62
     4
 10
-116.8125071648509
 20
75.868863045768421
 30
0.0
 42
-0.5773502691891599
  0
VERTEX
  5
1BFB
  8
SAPA_PROFIL
 62
     4
 10
-116.6306418300564
 20
75.553863045768821
 30
0.0
  0
VERTEX
  5
1BFC
  8
SAPA_PROFIL
 62
     4
 10
-116.8323785087335
 20
75.204444868550155
 30
0.0
 42
-0.0612687673629489
  0
VERTEX
  5
1BFD
  8
SAPA_PROFIL
 62
     4
 10
-116.8459618794197
 20
74.911769435449941
 30
0.0
 42
-0.2694959974285039
  0
VERTEX
  5
1BFE
  8
SAPA_PROFIL
 62
     4
 10
-117.0390938537636
 20
74.680250389049434
 30
0.0
  0
VERTEX
  5
1BFF
  8
SAPA_PROFIL
 62
     4
 10
-119.4999240442168
 20
73.784581448139761
 30
0.0
 42
0.315298788878404
  0
VERTEX
  5
1C00
  8
SAPA_PROFIL
 62
     4
 10
-119.82891397255329
 20
73.314735137746524
 30
0.0
  0
VERTEX
  5
1C01
  8
SAPA_PROFIL
 62
     4
 10
-119.8289139725518
 20
71.933235552542101
 30
0.0
 42
0.2539676464741836
  0
VERTEX
  5
1C02
  8
SAPA_PROFIL
 62
     4
 10
-119.6923056830565
 20
71.681634382158023
 30
0.0
  0
VERTEX
  5
1C03
  8
SAPA_PROFIL
 62
     4
 10
-119.2857454870515
 20
71.417611103781383
 30
0.0
 42
0.5862177598324614
  0
VERTEX
  5
1C04
  8
SAPA_PROFIL
 62
     4
 10
-118.828913972555
 20
71.67335291901972
 30
0.0
  0
VERTEX
  5
1C05
  8
SAPA_PROFIL
 62
     4
 10
-118.8289139725627
 20
72.614527599529538
 30
0.0
 42
-0.3152987888813165
  0
VERTEX
  5
1C06
  8
SAPA_PROFIL
 62
     4
 10
-118.49992404422591
 20
73.084373909927294
 30
0.0
  0
VERTEX
  5
1C07
  8
SAPA_PROFIL
 62
     4
 10
-117.29992404421471
 20
73.52113819105125
 30
0.0
 42
-0.5205670505515655
  0
VERTEX
  5
1C08
  8
SAPA_PROFIL
 62
     4
 10
-116.6289139725519
 20
73.051291880658013
 30
0.0
  0
VERTEX
  5
1C09
  8
SAPA_PROFIL
 62
     4
 10
-116.6289139725519
 20
67.809051184591226
 30
0.0
 42
-0.2843858139786245
  0
VERTEX
  5
1C0A
  8
SAPA_PROFIL
 62
     4
 10
-116.7950546286189
 20
67.540570876110024
 30
0.0
  0
VERTEX
  5
1C0B
  8
SAPA_PROFIL
 62
     4
 10
-118.39505462861661
 20
66.742840303225421
 30
0.0
 42
-0.5571645048046511
  0
VERTEX
  5
1C0C
  8
SAPA_PROFIL
 62
     4
 10
-118.8289139725499
 20
67.011320611705742
 30
0.0
  0
VERTEX
  5
1C0D
  8
SAPA_PROFIL
 62
     4
 10
-118.82891397255359
 20
68.373352919018544
 30
0.0
 42
0.5920056181162535
  0
VERTEX
  5
1C0E
  8
SAPA_PROFIL
 62
     4
 10
-119.2901174750815
 20
68.626361675335943
 30
0.0
  0
VERTEX
  5
1C0F
  8
SAPA_PROFIL
 62
     4
 10
-119.6923056830598
 20
68.365177599180242
 30
0.0
 42
0.2539676464746718
  0
VERTEX
  5
1C10
  8
SAPA_PROFIL
 62
     4
 10
-119.8289139725552
 20
68.113576428796478
 30
0.0
  0
VERTEX
  5
1C11
  8
SAPA_PROFIL
 62
     4
 10
-119.82891397255359
 20
45.88642340943079
 30
0.0
 42
0.2539676464741819
  0
VERTEX
  5
1C12
  8
SAPA_PROFIL
 62
     4
 10
-119.6923056830598
 20
45.634822239047928
 30
0.0
  0
VERTEX
  5
1C13
  8
SAPA_PROFIL
 62
     4
 10
-119.2901174750815
 20
45.373638162894117
 30
0.0
 42
0.5920055144124249
  0
VERTEX
  5
1C14
  8
SAPA_PROFIL
 62
     4
 10
-118.82891397255359
 20
45.626646919209627
 30
0.0
  0
VERTEX
  5
1C15
  8
SAPA_PROFIL
 62
     4
 10
-118.82891397255089
 20
46.988679226522343
 30
0.0
 42
-0.5571646182910574
  0
VERTEX
  5
1C16
  8
SAPA_PROFIL
 62
     4
 10
-118.39505462861661
 20
47.257159535002756
 30
0.0
  0
VERTEX
  5
1C17
  8
SAPA_PROFIL
 62
     4
 10
-116.7950546286192
 20
46.459428962117492
 30
0.0
 42
-0.2843858139786238
  0
VERTEX
  5
1C18
  8
SAPA_PROFIL
 62
     4
 10
-116.6289139725519
 20
46.190948653636937
 30
0.0
  0
VERTEX
  5
1C19
  8
SAPA_PROFIL
 62
     4
 10
-116.6289139725517
 20
40.948707957571969
 30
0.0
 42
-0.5205670505515692
  0
VERTEX
  5
1C1A
  8
SAPA_PROFIL
 62
     4
 10
-117.29992404421471
 20
40.478861647178739
 30
0.0
  0
VERTEX
  5
1C1B
  8
SAPA_PROFIL
 62
     4
 10
-118.4999240442241
 20
40.915625928303697
 30
0.0
 42
-0.3152987888807539
  0
VERTEX
  5
1C1C
  8
SAPA_PROFIL
 62
     4
 10
-118.82891397256181
 20
41.385472238699549
 30
0.0
  0
VERTEX
  5
1C1D
  8
SAPA_PROFIL
 62
     4
 10
-118.8289139725549
 20
42.326646919208628
 30
0.0
 42
0.5862175119221242
  0
VERTEX
  5
1C1E
  8
SAPA_PROFIL
 62
     4
 10
-119.2857452983101
 20
42.58238885019059
 30
0.0
 42
-0.0000002084758573
  0
SEQEND
  5
1C1F
  8
SAPA_PROFIL
 62
     4
  0
POLYLINE
  5
10FD
  8
SAPA_PROFIL
 62
     4
 66
     1
 10
0.0
 20
0.0
 30
0.0
  0
VERTEX
  5
1C20
  8
SAPA_PROFIL
 62
     4
 10
-70.203367113292344
 20
66.04932904151147
 30
0.0
 42
0.5571646428658034
  0
VERTEX
  5
1C21
  8
SAPA_PROFIL
 62
     4
 10
-71.071086027447905
 20
65.512368537374641
 30
0.0
  0
VERTEX
  5
1C22
  8
SAPA_PROFIL
 62
     4
 10
-71.071086027447436
 20
48.487631300853451
 30
0.0
 42
0.5571645048035741
  0
VERTEX
  5
1C23
  8
SAPA_PROFIL
 62
     4
 10
-70.203367339581277
 20
47.950670683892383
 30
0.0
  0
VERTEX
  5
1C24
  8
SAPA_PROFIL
 62
     4
 10
-68.537226683513254
 20
48.781377771439082
 30
0.0
 42
0.284385813979063
  0
VERTEX
  5
1C25
  8
SAPA_PROFIL
 62
     4
 10
-68.371086027445813
 20
49.049858079919431
 30
0.0
  0
VERTEX
  5
1C26
  8
SAPA_PROFIL
 62
     4
 10
-68.371086027445813
 20
64.950141758308746
 30
0.0
 42
0.2843858139786238
  0
VERTEX
  5
1C27
  8
SAPA_PROFIL
 62
     4
 10
-68.537226683512742
 20
65.218622066789024
 30
0.0
  0
VERTEX
  5
1C28
  8
SAPA_PROFIL
 62
     4
 10
-70.203367339582087
 20
66.049329154336192
 30
0.0
  0
SEQEND
  5
1C29
  8
SAPA_PROFIL
 62
     4
  0
POLYLINE
  5
10FE
  8
SAPA_PROFIL
 62
     4
 66
     1
 10
0.0
 20
0.0
 30
0.0
  0
VERTEX
  5
1C2A
  8
SAPA_PROFIL
 62
     4
 10
-68.014254512948241
 20
42.582388734446788
 30
0.0
  0
VERTEX
  5
1C2B
  8
SAPA_PROFIL
 62
     4
 10
-67.607694316944105
 20
42.318365456070779
 30
0.0
 42
-0.2539676464751066
  0
VERTEX
  5
1C2C
  8
SAPA_PROFIL
 62
     4
 10
-67.471086027447996
 20
42.066764285686077
 30
0.0
  0
VERTEX
  5
1C2D
  8
SAPA_PROFIL
 62
     4
 10
-67.471086027447996
 20
40.685264700480722
 30
0.0
 42
-0.3152987888790479
  0
VERTEX
  5
1C2E
  8
SAPA_PROFIL
 62
     4
 10
-67.800075955786156
 20
40.215418390088409
 30
0.0
  0
VERTEX
  5
1C2F
  8
SAPA_PROFIL
 62
     4
 10
-70.260906146237431
 20
39.31974944917981
 30
0.0
 42
0.2694959974287434
  0
VERTEX
  5
1C30
  8
SAPA_PROFIL
 62
     4
 10
-70.45403812058133
 20
39.088230402778457
 30
0.0
 42
0.0612686379508233
  0
VERTEX
  5
1C31
  8
SAPA_PROFIL
 62
     4
 10
-70.467621491211844
 20
38.795554969925178
 30
0.0
  0
VERTEX
  5
1C32
  8
SAPA_PROFIL
 62
     4
 10
-70.669358169940665
 20
38.446136792616912
 30
0.0
 42
0.5773502691891681
  0
VERTEX
  5
1C33
  8
SAPA_PROFIL
 62
     4
 10
-70.487492835146085
 20
38.131136792617319
 30
0.0
  0
VERTEX
  5
1C34
  8
SAPA_PROFIL
 62
     4
 10
-70.220378307019786
 20
38.131136792617092
 30
0.0
  0
VERTEX
  5
1C35
  8
SAPA_PROFIL
 62
     4
 10
-69.411694845711466
 20
36.73260909198283
 30
0.0
 42
-0.1318219888653519
  0
VERTEX
  5
1C36
  8
SAPA_PROFIL
 62
     4
 10
-69.37140244917407
 20
36.582435989510493
 30
0.0
  0
VERTEX
  5
1C37
  8
SAPA_PROFIL
 62
     4
 10
-69.371402449180437
 20
36.399999919073707
 30
0.0
 42
-0.4142135623724291
  0
VERTEX
  5
1C38
  8
SAPA_PROFIL
 62
     4
 10
-69.771402449180073
 20
35.999999919073161
 30
0.0
  0
VERTEX
  5
1C39
  8
SAPA_PROFIL
 62
     4
 10
-73.171402449181073
 20
35.999999919074533
 30
0.0
 42
-0.4142135623744271
  0
VERTEX
  5
1C3A
  8
SAPA_PROFIL
 62
     4
 10
-73.571402449182074
 20
36.399999919073707
 30
0.0
  0
VERTEX
  5
1C3B
  8
SAPA_PROFIL
 62
     4
 10
-73.571402449182713
 20
36.579615161345011
 30
0.0
 42
-0.1316524975874005
  0
VERTEX
  5
1C3C
  8
SAPA_PROFIL
 62
     4
 10
-73.531210070317115
 20
36.729615161341833
 30
0.0
  0
VERTEX
  5
1C3D
  8
SAPA_PROFIL
 62
     4
 10
-72.605060623664585
 20
38.33375305834408
 30
0.0
 42
0.1316524975875904
  0
VERTEX
  5
1C3E
  8
SAPA_PROFIL
 62
     4
 10
-72.471086027449815
 20
38.833753058345792
 30
0.0
  0
VERTEX
  5
1C3F
  8
SAPA_PROFIL
 62
     4
 10
-72.471086027449815
 20
39.249999919073161
 30
0.0
 42
0.4142135623730951
  0
VERTEX
  5
1C40
  8
SAPA_PROFIL
 62
     4
 10
-73.471086027449815
 20
40.249999919073161
 30
0.0
  0
VERTEX
  5
1C41
  8
SAPA_PROFIL
 62
     4
 10
-76.471086027447086
 20
40.249999919073161
 30
0.0
 42
-0.9999996830128083
  0
VERTEX
  5
1C42
  8
SAPA_PROFIL
 62
     4
 10
-76.471086027448905
 20
41.249999919073161
 30
0.0
  0
VERTEX
  5
1C43
  8
SAPA_PROFIL
 62
     4
 10
-73.471086027448905
 20
41.249999919073161
 30
0.0
 42
0.4142135623730951
  0
VERTEX
  5
1C44
  8
SAPA_PROFIL
 62
     4
 10
-72.471086027448905
 20
42.249999919073161
 30
0.0
  0
VERTEX
  5
1C45
  8
SAPA_PROFIL
 62
     4
 10
-72.471086027448905
 20
71.749999919157744
 30
0.0
 42
0.4142135623730951
  0
VERTEX
  5
1C46
  8
SAPA_PROFIL
 62
     4
 10
-73.471086027448905
 20
72.749999919157744
 30
0.0
  0
VERTEX
  5
1C47
  8
SAPA_PROFIL
 62
     4
 10
-76.471086027447086
 20
72.749999919157744
 30
0.0
 42
-0.9999999999999998
  0
VERTEX
  5
1C48
  8
SAPA_PROFIL
 62
     4
 10
-76.471086027447086
 20
73.749999919157744
 30
0.0
  0
VERTEX
  5
1C49
  8
SAPA_PROFIL
 62
     4
 10
-73.471086027448905
 20
73.749999919157744
 30
0.0
 42
0.4142135623736278
  0
VERTEX
  5
1C4A
  8
SAPA_PROFIL
 62
     4
 10
-72.471086027448905
 20
74.749999919157744
 30
0.0
  0
VERTEX
  5
1C4B
  8
SAPA_PROFIL
 62
     4
 10
-72.471086027448905
 20
75.166246779884204
 30
0.0
 42
0.1316524975874375
  0
VERTEX
  5
1C4C
  8
SAPA_PROFIL
 62
     4
 10
-72.60506062366494
 20
75.666246779884403
 30
0.0
  0
VERTEX
  5
1C4D
  8
SAPA_PROFIL
 62
     4
 10
-73.531210070317115
 20
77.270384676886351
 30
0.0
 42
-0.1316524975874
  0
VERTEX
  5
1C4E
  8
SAPA_PROFIL
 62
     4
 10
-73.571402449182713
 20
77.420384676885902
 30
0.0
  0
VERTEX
  5
1C4F
  8
SAPA_PROFIL
 62
     4
 10
-73.571402449182074
 20
77.599999919157185
 30
0.0
 42
-0.4142135623744271
  0
VERTEX
  5
1C50
  8
SAPA_PROFIL
 62
     4
 10
-73.171402449181073
 20
77.99999991915638
 30
0.0
  0
VERTEX
  5
1C51
  8
SAPA_PROFIL
 62
     4
 10
-69.771402449180073
 20
77.999999919157744
 30
0.0
 42
-0.4142135623724291
  0
VERTEX
  5
1C52
  8
SAPA_PROFIL
 62
     4
 10
-69.371402449180437
 20
77.599999919157185
 30
0.0
  0
VERTEX
  5
1C53
  8
SAPA_PROFIL
 62
     4
 10
-69.37140244917407
 20
77.41756384872042
 30
0.0
 42
-0.1318219888653524
  0
VERTEX
  5
1C54
  8
SAPA_PROFIL
 62
     4
 10
-69.411694845711466
 20
77.267390746248083
 30
0.0
  0
VERTEX
  5
1C55
  8
SAPA_PROFIL
 62
     4
 10
-70.2203783069358
 20
75.868863045768421
 30
0.0
  0
VERTEX
  5
1C56
  8
SAPA_PROFIL
 62
     4
 10
-70.487492835148828
 20
75.868863045768421
 30
0.0
 42
0.5773502691891599
  0
VERTEX
  5
1C57
  8
SAPA_PROFIL
 62
     4
 10
-70.669358169943393
 20
75.553863045768821
 30
0.0
  0
VERTEX
  5
1C58
  8
SAPA_PROFIL
 62
     4
 10
-70.4676214912663
 20
75.204444868550155
 30
0.0
 42
0.0612687673629489
  0
VERTEX
  5
1C59
  8
SAPA_PROFIL
 62
     4
 10
-70.454038120580094
 20
74.911769435449941
 30
0.0
 42
0.2694959974285039
  0
VERTEX
  5
1C5A
  8
SAPA_PROFIL
 62
     4
 10
-70.260906146236138
 20
74.680250389049434
 30
0.0
  0
VERTEX
  5
1C5B
  8
SAPA_PROFIL
 62
     4
 10
-67.800075955782972
 20
73.784581448139761
 30
0.0
 42
-0.315298788878404
  0
VERTEX
  5
1C5C
  8
SAPA_PROFIL
 62
     4
 10
-67.471086027446404
 20
73.314735137746524
 30
0.0
  0
VERTEX
  5
1C5D
  8
SAPA_PROFIL
 62
     4
 10
-67.471086027447996
 20
71.933235552542101
 30
0.0
 42
-0.2539676464741836
  0
VERTEX
  5
1C5E
  8
SAPA_PROFIL
 62
     4
 10
-67.607694316943267
 20
71.681634382158023
 30
0.0
  0
VERTEX
  5
1C5F
  8
SAPA_PROFIL
 62
     4
 10
-68.014254512948241
 20
71.417611103781383
 30
0.0
 42
-0.5862177598324614
  0
VERTEX
  5
1C60
  8
SAPA_PROFIL
 62
     4
 10
-68.471086027444755
 20
71.67335291901972
 30
0.0
  0
VERTEX
  5
1C61
  8
SAPA_PROFIL
 62
     4
 10
-68.471086027437082
 20
72.614527599529538
 30
0.0
 42
0.3152987888813165
  0
VERTEX
  5
1C62
  8
SAPA_PROFIL
 62
     4
 10
-68.800075955773835
 20
73.084373909927294
 30
0.0
  0
VERTEX
  5
1C63
  8
SAPA_PROFIL
 62
     4
 10
-70.000075955785064
 20
73.52113819105125
 30
0.0
 42
0.5205670505515655
  0
VERTEX
  5
1C64
  8
SAPA_PROFIL
 62
     4
 10
-70.671086027447814
 20
73.051291880658013
 30
0.0
  0
VERTEX
  5
1C65
  8
SAPA_PROFIL
 62
     4
 10
-70.671086027447814
 20
67.809051184591226
 30
0.0
 42
0.2843858139786245
  0
VERTEX
  5
1C66
  8
SAPA_PROFIL
 62
     4
 10
-70.504945371380884
 20
67.540570876110024
 30
0.0
  0
VERTEX
  5
1C67
  8
SAPA_PROFIL
 62
     4
 10
-68.904945371383178
 20
66.742840303225421
 30
0.0
 42
0.5571645048046511
  0
VERTEX
  5
1C68
  8
SAPA_PROFIL
 62
     4
 10
-68.471086027449815
 20
67.011320611705742
 30
0.0
  0
VERTEX
  5
1C69
  8
SAPA_PROFIL
 62
     4
 10
-68.471086027446177
 20
68.373352919018544
 30
0.0
 42
-0.5920056181162535
  0
VERTEX
  5
1C6A
  8
SAPA_PROFIL
 62
     4
 10
-68.009882524918254
 20
68.626361675335943
 30
0.0
  0
VERTEX
  5
1C6B
  8
SAPA_PROFIL
 62
     4
 10
-67.607694316939956
 20
68.365177599180242
 30
0.0
 42
-0.2539676464746718
  0
VERTEX
  5
1C6C
  8
SAPA_PROFIL
 62
     4
 10
-67.471086027444599
 20
68.113576428796478
 30
0.0
  0
VERTEX
  5
1C6D
  8
SAPA_PROFIL
 62
     4
 10
-67.471086027446177
 20
45.88642340943079
 30
0.0
 42
-0.2539676464741819
  0
VERTEX
  5
1C6E
  8
SAPA_PROFIL
 62
     4
 10
-67.607694316939956
 20
45.634822239047928
 30
0.0
  0
VERTEX
  5
1C6F
  8
SAPA_PROFIL
 62
     4
 10
-68.009882524918297
 20
45.373638162894117
 30
0.0
 42
-0.5920055144124249
  0
VERTEX
  5
1C70
  8
SAPA_PROFIL
 62
     4
 10
-68.471086027446177
 20
45.626646919209627
 30
0.0
  0
VERTEX
  5
1C71
  8
SAPA_PROFIL
 62
     4
 10
-68.471086027448905
 20
46.988679226522343
 30
0.0
 42
0.5571646182910574
  0
VERTEX
  5
1C72
  8
SAPA_PROFIL
 62
     4
 10
-68.904945371383178
 20
47.257159535002756
 30
0.0
  0
VERTEX
  5
1C73
  8
SAPA_PROFIL
 62
     4
 10
-70.504945371380558
 20
46.459428962117492
 30
0.0
 42
0.2843858139786238
  0
VERTEX
  5
1C74
  8
SAPA_PROFIL
 62
     4
 10
-70.671086027447814
 20
46.190948653636937
 30
0.0
  0
VERTEX
  5
1C75
  8
SAPA_PROFIL
 62
     4
 10
-70.671086027448041
 20
40.948707957571969
 30
0.0
 42
0.5205670505515692
  0
VERTEX
  5
1C76
  8
SAPA_PROFIL
 62
     4
 10
-70.000075955785064
 20
40.478861647178739
 30
0.0
  0
VERTEX
  5
1C77
  8
SAPA_PROFIL
 62
     4
 10
-68.800075955775625
 20
40.915625928303697
 30
0.0
 42
0.3152987888807539
  0
VERTEX
  5
1C78
  8
SAPA_PROFIL
 62
     4
 10
-68.471086027437991
 20
41.385472238699549
 30
0.0
  0
VERTEX
  5
1C79
  8
SAPA_PROFIL
 62
     4
 10
-68.471086027444812
 20
42.326646919208628
 30
0.0
 42
-0.5862175119221242
  0
VERTEX
  5
1C7A
  8
SAPA_PROFIL
 62
     4
 10
-68.01425470168968
 20
42.58238885019059
 30
0.0
 42
0.0000002084758573
  0
SEQEND
  5
1C7B
  8
SAPA_PROFIL
 62
     4
  0
CIRCLE
  5
10FF
  8
SAPA_PROFIL
 62
     2
 10
-58.831507497431907
 20
19.18265988657431
 30
0.1
 40
0.25
  0
INSERT
  5
1100
  8
SAPA_PROFIL
  6
CONTINUOUS
 62
     2
  2
*U82
 10
0.0
 20
0.0
 30
0.0
1001
ACAD
1002
{
1000
R14_HATCH_DATA
1000
1100
1011
1.0
1021
0.0
1031
0.0
1021
0.0
1031
0.0
1011
0.0
1021
0.0
1031
0.0
1021
1.0
1031
0.0
1011
0.0
1021
0.0
1031
0.0
1021
0.0
1031
1.0
1040
0.1
1010
0.0
1020
0.0
1030
1.0
1000
SOLID
1070
     1
1070
     1
1071
        1
1071
        7
1070
     1
1070
     1
1071
        2
1040
-58.831507497431907
1040
19.43265988657431
1040
-1.0
1040
-58.831507497431907
1040
18.93265988657431
1040
-1.0
1071
        1
1005
10FF
1070
     0
1070
     1
1040
0.0095408196840103
1071
        1
1040
-58.831507497431907
1040
19.282659886574312
1040
0.1
1002
}
  0
POLYLINE
  5
1101
  8
SAPA_PROFIL
 62
     2
 66
     1
 10
0.0
 20
0.0
 30
0.1
 70
     1
  0
VERTEX
  5
1C8D
  8
SAPA_PROFIL
 62
     2
 10
-56.499974496088882
 20
16.508280647708421
 30
0.1
  0
VERTEX
  5
1C8E
  8
SAPA_PROFIL
 62
     2
 10
-56.39997449608888
 20
16.508280647708421
 30
0.1
 42
0.4142135623730959
  0
VERTEX
  5
1C8F
  8
SAPA_PROFIL
 62
     2
 10
-55.699974496088878
 20
17.20828064770842
 30
0.1
  0
VERTEX
  5
1C90
  8
SAPA_PROFIL
 62
     2
 10
-55.699974496088878
 20
18.308280647708418
 30
0.1
 42
0.4142135623730961
  0
VERTEX
  5
1C91
  8
SAPA_PROFIL
 62
     2
 10
-55.89997449608888
 20
18.508280647708421
 30
0.1
  0
VERTEX
  5
1C92
  8
SAPA_PROFIL
 62
     2
 10
-56.999974496088882
 20
18.508280647708421
 30
0.1
 42
0.4142135623730956
  0
VERTEX
  5
1C93
  8
SAPA_PROFIL
 62
     2
 10
-57.199974496088892
 20
18.308280647708418
 30
0.1
  0
VERTEX
  5
1C94
  8
SAPA_PROFIL
 62
     2
 10
-57.199974496088878
 20
17.20828064770842
 30
0.1
 42
0.4142135623730946
  0
SEQEND
  5
1C95
  8
SAPA_PROFIL
 62
     2
  0
POLYLINE
  5
1102
  8
SAPA_PROFIL
 62
     2
 66
     1
 10
0.0
 20
0.0
 30
0.1
  0
VERTEX
  5
1C96
  8
SAPA_PROFIL
 62
     2
 10
-57.999974496088882
 20
17.808280647708418
 30
0.1
  0
VERTEX
  5
1C97
  8
SAPA_PROFIL
 62
     2
 10
-57.999974496088882
 20
18.456046212981509
 30
0.1
 42
0.4416942457848117
  0
VERTEX
  5
1C98
  8
SAPA_PROFIL
 62
     2
 10
-58.218528855716791
 20
18.655183692474441
 30
0.1
  0
VERTEX
  5
1C99
  8
SAPA_PROFIL
 62
     2
 10
-59.181420136460972
 20
18.5654676272164
 30
0.1
 42
-0.4416942457848106
  0
VERTEX
  5
1C9A
  8
SAPA_PROFIL
 62
     2
 10
-59.39997449608888
 20
18.764605106709329
 30
0.1
  0
VERTEX
  5
1C9B
  8
SAPA_PROFIL
 62
     2
 10
-59.39997449608888
 20
19.31458744630088
 30
0.1
 42
-0.5445962197109637
  0
VERTEX
  5
1C9C
  8
SAPA_PROFIL
 62
     2
 10
-58.694295450683811
 20
19.770324355362739
 30
0.1
  0
VERTEX
  5
1C9D
  8
SAPA_PROFIL
 62
     2
 10
-58.335244297398539
 20
19.608280647708419
 30
0.1
  0
VERTEX
  5
1C9E
  8
SAPA_PROFIL
 62
     2
 10
-56.862285058650649
 20
19.608280647708419
 30
0.1
 42
-0.336437923496554
  0
VERTEX
  5
1C9F
  8
SAPA_PROFIL
 62
     2
 10
-55.790541329035818
 20
19.42077382986669
 30
0.1
  0
VERTEX
  5
1CA0
  8
SAPA_PROFIL
 62
     2
 10
-55.228677693212092
 20
19.42077382986669
 30
0.1
 42
0.1919812372740513
  0
VERTEX
  5
1CA1
  8
SAPA_PROFIL
 62
     2
 10
-54.884690645612061
 20
19.557906207883939
 30
0.1
  0
VERTEX
  5
1CA2
  8
SAPA_PROFIL
 62
     2
 10
-54.492823715208758
 20
19.929383684173981
 30
0.1
 42
0.9249153594910841
  0
VERTEX
  5
1CA3
  8
SAPA_PROFIL
 62
     2
 10
-56.158601643730982
 20
22.163078499253292
 30
0.1
  0
VERTEX
  5
1CA4
  8
SAPA_PROFIL
 62
     2
 10
-57.243146583399749
 20
21.629530444001649
 30
0.1
 42
-0.4184584792862776
  0
VERTEX
  5
1CA5
  8
SAPA_PROFIL
 62
     2
 10
-57.829848899971168
 20
22.03328256442137
 30
0.1
 42
-0.3891337693453737
  0
VERTEX
  5
1CA6
  8
SAPA_PROFIL
 62
     2
 10
-57.684682008430698
 20
22.261371872363981
 30
0.1
  0
VERTEX
  5
1CA7
  8
SAPA_PROFIL
 62
     2
 10
-56.59878591786569
 20
22.824276924851858
 30
0.1
 42
-0.8864286961344978
  0
VERTEX
  5
1CA8
  8
SAPA_PROFIL
 62
     2
 10
-53.927006015929138
 20
19.465078169331129
 30
0.1
  0
VERTEX
  5
1CA9
  8
SAPA_PROFIL
 62
     2
 10
-53.496446878047891
 20
19.349710196042011
 30
0.1
 42
-0.9163311740174273
  0
VERTEX
  5
1CAA
  8
SAPA_PROFIL
 62
     2
 10
-53.634836793187958
 20
18.564861986289689
 30
0.1
  0
VERTEX
  5
1CAB
  8
SAPA_PROFIL
 62
     2
 10
-54.682543347539351
 20
18.65652443249725
 30
0.1
 42
0.4400105308918339
  0
VERTEX
  5
1CAC
  8
SAPA_PROFIL
 62
     2
 10
-54.89997449608888
 20
18.457285492878899
 30
0.1
  0
VERTEX
  5
1CAD
  8
SAPA_PROFIL
 62
     2
 10
-54.89997449608888
 20
17.608280647708419
 30
0.1
  0
VERTEX
  5
1CAE
  8
SAPA_PROFIL
 62
     2
 10
-54.499974496088882
 20
17.608280647708419
 30
0.1
 42
-0.569380983920789
  0
VERTEX
  5
1CAF
  8
SAPA_PROFIL
 62
     2
 10
-54.324420450525302
 20
17.31246427600577
 30
0.1
  0
VERTEX
  5
1CB0
  8
SAPA_PROFIL
 62
     2
 10
-55.029386050424357
 20
16.020831532600461
 30
0.1
 42
-0.274387813087548
  0
VERTEX
  5
1CB1
  8
SAPA_PROFIL
 62
     2
 10
-55.55604818711511
 20
15.70828064770842
 30
0.1
  0
VERTEX
  5
1CB2
  8
SAPA_PROFIL
 62
     2
 10
-57.343900805062653
 20
15.70828064770842
 30
0.1
 42
-0.274387813087548
  0
VERTEX
  5
1CB3
  8
SAPA_PROFIL
 62
     2
 10
-57.870562941753398
 20
16.020831532600461
 30
0.1
  0
VERTEX
  5
1CB4
  8
SAPA_PROFIL
 62
     2
 10
-58.575528541652467
 20
17.31246427600577
 30
0.1
 42
-0.5693809839207892
  0
VERTEX
  5
1CB5
  8
SAPA_PROFIL
 62
     2
 10
-58.399974496088888
 20
17.608280647708419
 30
0.1
  0
VERTEX
  5
1CB6
  8
SAPA_PROFIL
 62
     2
 10
-57.999974496088889
 20
17.608280647708419
 30
0.1
  0
VERTEX
  5
1CB7
  8
SAPA_PROFIL
 62
     2
 10
-57.999974496088889
 20
18.457285492878899
 30
0.1
  0
SEQEND
  5
1CB8
  8
SAPA_PROFIL
 62
     2
  0
POLYLINE
  5
1111
  8
SAPA_GLAS
 66
     1
 10
0.0
 20
0.0
 30
0.0
 70
     1
  0
VERTEX
  5
1CEB
  8
SAPA_GLAS
 10
144.99537611367089
 20
29.83520395403642
 30
0.0
  0
VERTEX
  5
1CEC
  8
SAPA_GLAS
 10
144.99537611367089
 20
44.835203954036409
 30
0.0
  0
VERTEX
  5
1CED
  8
SAPA_GLAS
 10
134.99537611367089
 20
44.835203954036409
 30
0.0
  0
VERTEX
  5
1CEE
  8
SAPA_GLAS
 10
134.99537611367089
 20
29.83520395403642
 30
0.0
  0
SEQEND
  5
1CEF
  8
SAPA_GLAS
  0
POLYLINE
  5
1112
  8
SAPA_GLAS
 66
     1
 10
0.0
 20
0.0
 30
0.0
 70
     1
  0
VERTEX
  5
1CF0
  8
SAPA_GLAS
 10
144.99537611367089
 20
48.835203954036423
 30
0.0
  0
VERTEX
  5
1CF1
  8
SAPA_GLAS
 10
144.99537611367089
 20
63.835203954036423
 30
0.0
  0
VERTEX
  5
1CF2
  8
SAPA_GLAS
 10
134.99537611367089
 20
63.835203954036423
 30
0.0
  0
VERTEX
  5
1CF3
  8
SAPA_GLAS
 10
134.99537611367089
 20
48.835203954036423
 30
0.0
  0
SEQEND
  5
1CF4
  8
SAPA_GLAS
  0
POLYLINE
  5
1113
  8
SAPA_GLAS
 66
     1
 10
0.0
 20
0.0
 30
0.0
  0
VERTEX
  5
1CF5
  8
SAPA_GLAS
 10
164.9953761136708
 20
48.835203954036423
 30
0.0
  0
VERTEX
  5
1CF6
  8
SAPA_GLAS
 10
134.9953761136708
 20
48.835203954036423
 30
0.0
  0
VERTEX
  5
1CF7
  8
SAPA_GLAS
 10
134.9953761136708
 20
44.835203954036409
 30
0.0
  0
VERTEX
  5
1CF8
  8
SAPA_GLAS
 10
164.9953761136708
 20
44.835203954036402
 30
0.0
  0
SEQEND
  5
1CF9
  8
SAPA_GLAS
  0
POLYLINE
  5
1114
  8
SAPA_GLAS
 66
     1
 10
0.0
 20
0.0
 30
0.0
  0
VERTEX
  5
1CFA
  8
SAPA_GLAS
 10
164.99537611367069
 20
69.835203954036416
 30
0.0
  0
VERTEX
  5
1CFB
  8
SAPA_GLAS
 10
134.99537611367069
 20
69.835203954036416
 30
0.0
  0
VERTEX
  5
1CFC
  8
SAPA_GLAS
 10
134.99537611367069
 20
63.835203954036423
 30
0.0
  0
VERTEX
  5
1CFD
  8
SAPA_GLAS
 10
164.99537611367069
 20
63.835203954036402
 30
0.0
  0
SEQEND
  5
1CFE
  8
SAPA_GLAS
  0
POLYLINE
  5
1115
  8
SAPA_GLAS
 66
     1
 10
0.0
 20
0.0
 30
0.0
  0
VERTEX
  5
1CFF
  8
SAPA_GLAS
 10
164.99537611367069
 20
23.83520395403642
 30
0.0
  0
VERTEX
  5
1D00
  8
SAPA_GLAS
 10
134.99537611367069
 20
23.83520395403642
 30
0.0
  0
VERTEX
  5
1D01
  8
SAPA_GLAS
 10
134.99537611367069
 20
29.83520395403642
 30
0.0
  0
VERTEX
  5
1D02
  8
SAPA_GLAS
 10
164.99537611367069
 20
29.83520395403643
 30
0.0
  0
SEQEND
  5
1D03
  8
SAPA_GLAS
  0
POLYLINE
  5
1116
  8
SAPA_GLAS
 66
     1
 10
0.0
 20
0.0
 30
0.0
 70
     1
  0
VERTEX
  5
1D04
  8
SAPA_GLAS
 10
-134.99537611367089
 20
29.835204086276178
 30
0.0
  0
VERTEX
  5
1D05
  8
SAPA_GLAS
 10
-134.99537611367089
 20
44.835204086276178
 30
0.0
  0
VERTEX
  5
1D06
  8
SAPA_GLAS
 10
-124.9953761136709
 20
44.835204086276178
 30
0.0
  0
VERTEX
  5
1D07
  8
SAPA_GLAS
 10
-124.9953761136709
 20
29.835204086276178
 30
0.0
  0
SEQEND
  5
1D08
  8
SAPA_GLAS
  0
POLYLINE
  5
1117
  8
SAPA_GLAS
 66
     1
 10
0.0
 20
0.0
 30
0.0
 70
     1
  0
VERTEX
  5
1D09
  8
SAPA_GLAS
 10
-134.99537611367089
 20
48.835204086276171
 30
0.0
  0
VERTEX
  5
1D0A
  8
SAPA_GLAS
 10
-134.99537611367089
 20
63.835204086276171
 30
0.0
  0
VERTEX
  5
1D0B
  8
SAPA_GLAS
 10
-124.9953761136709
 20
63.835204086276171
 30
0.0
  0
VERTEX
  5
1D0C
  8
SAPA_GLAS
 10
-124.9953761136709
 20
48.835204086276171
 30
0.0
  0
SEQEND
  5
1D0D
  8
SAPA_GLAS
  0
POLYLINE
  5
1118
  8
SAPA_GLAS
 66
     1
 10
0.0
 20
0.0
 30
0.0
  0
VERTEX
  5
1D0E
  8
SAPA_GLAS
 10
-154.9953761136708
 20
48.835204086276171
 30
0.0
  0
VERTEX
  5
1D0F
  8
SAPA_GLAS
 10
-124.9953761136708
 20
48.835204086276171
 30
0.0
  0
VERTEX
  5
1D10
  8
SAPA_GLAS
 10
-124.9953761136708
 20
44.835204086276178
 30
0.0
  0
VERTEX
  5
1D11
  8
SAPA_GLAS
 10
-154.9953761136708
 20
44.835204086276157
 30
0.0
  0
SEQEND
  5
1D12
  8
SAPA_GLAS
  0
POLYLINE
  5
1119
  8
SAPA_GLAS
 66
     1
 10
0.0
 20
0.0
 30
0.0
  0
VERTEX
  5
1D13
  8
SAPA_GLAS
 10
-154.99537611367069
 20
69.835204086276178
 30
0.0
  0
VERTEX
  5
1D14
  8
SAPA_GLAS
 10
-124.9953761136707
 20
69.835204086276178
 30
0.0
  0
VERTEX
  5
1D15
  8
SAPA_GLAS
 10
-124.9953761136707
 20
63.835204086276171
 30
0.0
  0
VERTEX
  5
1D16
  8
SAPA_GLAS
 10
-154.9953761136706
 20
63.835204086276157
 30
0.0
  0
SEQEND
  5
1D17
  8
SAPA_GLAS
  0
POLYLINE
  5
111A
  8
SAPA_GLAS
 66
     1
 10
0.0
 20
0.0
 30
0.0
  0
VERTEX
  5
1D18
  8
SAPA_GLAS
 10
-154.99537611367069
 20
23.835204086276178
 30
0.0
  0
VERTEX
  5
1D19
  8
SAPA_GLAS
 10
-124.9953761136707
 20
23.835204086276178
 30
0.0
  0
VERTEX
  5
1D1A
  8
SAPA_GLAS
 10
-124.9953761136707
 20
29.835204086276178
 30
0.0
  0
VERTEX
  5
1D1B
  8
SAPA_GLAS
 10
-154.9953761136706
 20
29.835204086276189
 30
0.0
  0
SEQEND
  5
1D1C
  8
SAPA_GLAS
  0
POLYLINE
  5
1129
  8
SAPA_FOGBAND
 66
     1
 10
0.0
 20
0.0
 30
0.0
 70
   129
  0
VERTEX
  5
1E07
  8
SAPA_FOGBAND
 10
135.7616026094469
 20
72.517142271024383
 30
0.0
  0
VERTEX
  5
1E08
  8
SAPA_FOGBAND
 10
135.79536760974119
 20
72.675278376156655
 30
0.0
  0
VERTEX
  5
1E09
  8
SAPA_FOGBAND
 10
135.90929334787199
 20
72.848795208577656
 30
0.0
  0
VERTEX
  5
1E0A
  8
SAPA_FOGBAND
 10
136.1168938364755
 20
73.028883100313806
 30
0.0
  0
VERTEX
  5
1E0B
  8
SAPA_FOGBAND
 10
136.41531424861429
 20
73.198588327138225
 30
0.0
  0
VERTEX
  5
1E0C
  8
SAPA_FOGBAND
 10
136.79221390999001
 20
73.344641765111561
 30
0.0
  0
VERTEX
  5
1E0D
  8
SAPA_FOGBAND
 10
137.2314543121914
 20
73.458053149291842
 30
0.0
  0
VERTEX
  5
1E0E
  8
SAPA_FOGBAND
 10
137.71496928909809
 20
73.532892627445364
 30
0.0
  0
VERTEX
  5
1E0F
  8
SAPA_FOGBAND
 10
138.2234785721401
 20
73.565589574913901
 30
0.0
  0
VERTEX
  5
1E10
  8
SAPA_FOGBAND
 10
138.73702124756619
 20
73.554649365161254
 30
0.0
  0
VERTEX
  5
1E11
  8
SAPA_FOGBAND
 10
139.23549839239769
 20
73.500568161874455
 30
0.0
  0
VERTEX
  5
1E12
  8
SAPA_FOGBAND
 10
139.69922302402659
 20
73.405859080828463
 30
0.0
  0
VERTEX
  5
1E13
  8
SAPA_FOGBAND
 10
140.10945295050189
 20
73.275217521109909
 30
0.0
  0
VERTEX
  5
1E14
  8
SAPA_FOGBAND
 10
140.4489641095073
 20
73.115978598391365
 30
0.0
  0
VERTEX
  5
1E15
  8
SAPA_FOGBAND
 10
140.70312560035859
 20
72.939113224268056
 30
0.0
  0
VERTEX
  5
1E16
  8
SAPA_FOGBAND
 10
140.8632799095673
 20
72.760207158570921
 30
0.0
  0
VERTEX
  5
1E17
  8
SAPA_FOGBAND
 10
140.93460798251729
 20
72.594700032418544
 30
0.0
  0
VERTEX
  5
1E18
  8
SAPA_FOGBAND
 10
140.93460798251729
 20
72.439584509630023
 30
0.0
  0
VERTEX
  5
1E19
  8
SAPA_FOGBAND
 10
140.8632799095673
 20
72.274077383477447
 30
0.0
  0
VERTEX
  5
1E1A
  8
SAPA_FOGBAND
 10
140.70312560035859
 20
72.095171317780341
 30
0.0
  0
VERTEX
  5
1E1B
  8
SAPA_FOGBAND
 10
140.4489641095073
 20
71.91830594365706
 30
0.0
  0
VERTEX
  5
1E1C
  8
SAPA_FOGBAND
 10
140.109452950502
 20
71.759067020938744
 30
0.0
  0
VERTEX
  5
1E1D
  8
SAPA_FOGBAND
 10
139.69922302402659
 20
71.628425461220388
 30
0.0
  0
VERTEX
  5
1E1E
  8
SAPA_FOGBAND
 10
139.23549839239769
 20
71.533716380173942
 30
0.0
  0
VERTEX
  5
1E1F
  8
SAPA_FOGBAND
 10
138.73702124756619
 20
71.479635176887371
 30
0.0
  0
VERTEX
  5
1E20
  8
SAPA_FOGBAND
 10
138.22347857214001
 20
71.468694967134496
 30
0.0
  0
VERTEX
  5
1E21
  8
SAPA_FOGBAND
 10
137.71496928909809
 20
71.501391914603033
 30
0.0
  0
VERTEX
  5
1E22
  8
SAPA_FOGBAND
 10
137.2314543121914
 20
71.57623139275654
 30
0.0
  0
VERTEX
  5
1E23
  8
SAPA_FOGBAND
 10
136.7922139099901
 20
71.689642776937234
 30
0.0
  0
VERTEX
  5
1E24
  8
SAPA_FOGBAND
 10
136.41531424861429
 20
71.835696214910627
 30
0.0
  0
VERTEX
  5
1E25
  8
SAPA_FOGBAND
 10
136.1168938364755
 20
72.005401441735074
 30
0.0
  0
VERTEX
  5
1E26
  8
SAPA_FOGBAND
 10
135.90929334787199
 20
72.185489333471025
 30
0.0
  0
VERTEX
  5
1E27
  8
SAPA_FOGBAND
 10
135.79536760974119
 20
72.359006165891955
 30
0.0
  0
SEQEND
  5
1E28
  8
SAPA_FOGBAND
  0
POLYLINE
  5
112A
  8
SAPA_FOGBAND
 66
     1
 10
0.0
 20
0.0
 30
0.0
  0
VERTEX
  5
1E29
  8
SAPA_FOGBAND
 10
150.05174855056319
 20
18.335203954036409
 30
0.0
 42
0.285714285714282
  0
VERTEX
  5
1E2A
  8
SAPA_FOGBAND
 10
147.25174855056301
 20
18.335203954036409
 30
0.0
  0
VERTEX
  5
1E2B
  8
SAPA_FOGBAND
 10
145.17796838117539
 20
18.335203954036871
 30
0.0
 42
-0.3882600129940275
  0
VERTEX
  5
1E2C
  8
SAPA_FOGBAND
 10
144.87916688383379
 20
18.608414680316429
 30
0.0
  0
VERTEX
  5
1E2D
  8
SAPA_FOGBAND
 10
144.41295695990749
 20
23.50841468031652
 30
0.0
 42
-0.4406523138893894
  0
VERTEX
  5
1E2E
  8
SAPA_FOGBAND
 10
144.7117584572496
 20
23.83520395403642
 30
0.0
  0
VERTEX
  5
1E2F
  8
SAPA_FOGBAND
 10
146.4215504541697
 20
23.83520395403642
 30
0.0
 42
-0.3394542588634375
  0
VERTEX
  5
1E30
  8
SAPA_FOGBAND
 10
146.71132820205619
 20
23.612849667567421
 30
0.0
  0
VERTEX
  5
1E31
  8
SAPA_FOGBAND
 10
146.91370792998791
 20
23.395263885399832
 30
0.0
 42
0.3394542588633663
  0
VERTEX
  5
1E32
  8
SAPA_FOGBAND
 10
147.2034856778744
 20
23.172909598930829
 30
0.0
  0
VERTEX
  5
1E33
  8
SAPA_FOGBAND
 10
150.10001142325231
 20
23.172909598930829
 30
0.0
 42
0.3394542588634373
  0
VERTEX
  5
1E34
  8
SAPA_FOGBAND
 10
150.3897891711388
 20
23.395263885399832
 30
0.0
  0
VERTEX
  5
1E35
  8
SAPA_FOGBAND
 10
150.59216889907
 20
23.612849667567421
 30
0.0
 42
-0.3394542588633662
  0
VERTEX
  5
1E36
  8
SAPA_FOGBAND
 10
150.881946646957
 20
23.83520395403642
 30
0.0
  0
VERTEX
  5
1E37
  8
SAPA_FOGBAND
 10
152.59173864387711
 20
23.83520395403642
 30
0.0
 42
-0.4406523138893994
  0
VERTEX
  5
1E38
  8
SAPA_FOGBAND
 10
152.89054014121879
 20
23.50841468031652
 30
0.0
  0
VERTEX
  5
1E39
  8
SAPA_FOGBAND
 10
152.42433021729249
 20
18.608414680316429
 30
0.0
 42
-0.3882600129940462
  0
VERTEX
  5
1E3A
  8
SAPA_FOGBAND
 10
152.12552871995089
 20
18.335203954036409
 30
0.0
  0
VERTEX
  5
1E3B
  8
SAPA_FOGBAND
 10
150.06334092741361
 20
18.335203954036409
 30
0.0
  0
SEQEND
  5
1E3C
  8
SAPA_FOGBAND
  0
POLYLINE
  5
112B
  8
SAPA_FOGBAND
 66
     1
 10
0.0
 20
0.0
 30
0.0
 70
   129
  0
VERTEX
  5
1E3D
  8
SAPA_FOGBAND
 10
143.48626212621949
 20
73.68147035461061
 30
0.0
  0
VERTEX
  5
1E3E
  8
SAPA_FOGBAND
 10
143.52002712651381
 20
73.839606459742868
 30
0.0
  0
VERTEX
  5
1E3F
  8
SAPA_FOGBAND
 10
143.63395286464461
 20
74.013123292163868
 30
0.0
  0
VERTEX
  5
1E40
  8
SAPA_FOGBAND
 10
143.84155335324809
 20
74.193211183900004
 30
0.0
  0
VERTEX
  5
1E41
  8
SAPA_FOGBAND
 10
144.13997376538691
 20
74.362916410724424
 30
0.0
  0
VERTEX
  5
1E42
  8
SAPA_FOGBAND
 10
144.5168734267626
 20
74.508969848697774
 30
0.0
  0
VERTEX
  5
1E43
  8
SAPA_FOGBAND
 10
144.95611382896399
 20
74.622381232878055
 30
0.0
  0
VERTEX
  5
1E44
  8
SAPA_FOGBAND
 10
145.43962880587071
 20
74.697220711031576
 30
0.0
  0
VERTEX
  5
1E45
  8
SAPA_FOGBAND
 10
145.94813808891271
 20
74.729917658500113
 30
0.0
  0
VERTEX
  5
1E46
  8
SAPA_FOGBAND
 10
146.46168076433881
 20
74.718977448747466
 30
0.0
  0
VERTEX
  5
1E47
  8
SAPA_FOGBAND
 10
146.96015790917031
 20
74.664896245460682
 30
0.0
  0
VERTEX
  5
1E48
  8
SAPA_FOGBAND
 10
147.4238825407993
 20
74.570187164414676
 30
0.0
  0
VERTEX
  5
1E49
  8
SAPA_FOGBAND
 10
147.83411246727459
 20
74.439545604696121
 30
0.0
  0
VERTEX
  5
1E4A
  8
SAPA_FOGBAND
 10
148.17362362627989
 20
74.280306681977578
 30
0.0
  0
VERTEX
  5
1E4B
  8
SAPA_FOGBAND
 10
148.42778511713129
 20
74.103441307854268
 30
0.0
  0
VERTEX
  5
1E4C
  8
SAPA_FOGBAND
 10
148.58793942633989
 20
73.92453524215712
 30
0.0
  0
VERTEX
  5
1E4D
  8
SAPA_FOGBAND
 10
148.65926749928991
 20
73.759028116004771
 30
0.0
  0
VERTEX
  5
1E4E
  8
SAPA_FOGBAND
 10
148.65926749928991
 20
73.603912593216251
 30
0.0
  0
VERTEX
  5
1E4F
  8
SAPA_FOGBAND
 10
148.58793942633989
 20
73.438405467063674
 30
0.0
  0
VERTEX
  5
1E50
  8
SAPA_FOGBAND
 10
148.42778511713129
 20
73.259499401366554
 30
0.0
  0
VERTEX
  5
1E51
  8
SAPA_FOGBAND
 10
148.17362362628
 20
73.082634027243273
 30
0.0
  0
VERTEX
  5
1E52
  8
SAPA_FOGBAND
 10
147.83411246727471
 20
72.923395104524957
 30
0.0
  0
VERTEX
  5
1E53
  8
SAPA_FOGBAND
 10
147.42388254079921
 20
72.792753544806601
 30
0.0
  0
VERTEX
  5
1E54
  8
SAPA_FOGBAND
 10
146.96015790917031
 20
72.698044463760155
 30
0.0
  0
VERTEX
  5
1E55
  8
SAPA_FOGBAND
 10
146.46168076433881
 20
72.643963260473583
 30
0.0
  0
VERTEX
  5
1E56
  8
SAPA_FOGBAND
 10
145.94813808891271
 20
72.633023050720709
 30
0.0
  0
VERTEX
  5
1E57
  8
SAPA_FOGBAND
 10
145.43962880587071
 20
72.665719998189246
 30
0.0
  0
VERTEX
  5
1E58
  8
SAPA_FOGBAND
 10
144.95611382896399
 20
72.740559476342753
 30
0.0
  0
VERTEX
  5
1E59
  8
SAPA_FOGBAND
 10
144.51687342676269
 20
72.853970860523461
 30
0.0
  0
VERTEX
  5
1E5A
  8
SAPA_FOGBAND
 10
144.13997376538691
 20
73.000024298496825
 30
0.0
  0
VERTEX
  5
1E5B
  8
SAPA_FOGBAND
 10
143.84155335324809
 20
73.169729525321287
 30
0.0
  0
VERTEX
  5
1E5C
  8
SAPA_FOGBAND
 10
143.63395286464461
 20
73.349817417057238
 30
0.0
  0
VERTEX
  5
1E5D
  8
SAPA_FOGBAND
 10
143.52002712651381
 20
73.523334249478168
 30
0.0
  0
SEQEND
  5
1E5E
  8
SAPA_FOGBAND
  0
POLYLINE
  5
112C
  8
SAPA_FOGBAND
 66
     1
 10
0.0
 20
0.0
 30
0.0
 70
     1
  0
VERTEX
  5
1E5F
  8
SAPA_FOGBAND
 10
129.7953761136711
 20
71.660000791537669
 30
0.0
 42
0.3915187749346351
  0
VERTEX
  5
1E60
  8
SAPA_FOGBAND
 10
130.7173538134445
 20
70.663049177532258
 30
0.0
  0
VERTEX
  5
1E61
  8
SAPA_FOGBAND
 10
138.77590031425891
 20
69.83672814703371
 30
0.0
 42
0.0195279011117888
  0
VERTEX
  5
1E62
  8
SAPA_FOGBAND
 10
138.81491146437219
 20
69.835203954036416
 30
0.0
  0
VERTEX
  5
1E63
  8
SAPA_FOGBAND
 10
152.495376113671
 20
69.835203954036416
 30
0.0
 42
0.4279663351069072
  0
VERTEX
  5
1E64
  8
SAPA_FOGBAND
 10
152.79504868139091
 20
70.149216525395815
 30
0.0
  0
VERTEX
  5
1E65
  8
SAPA_FOGBAND
 10
152.30874877331121
 20
77.537656785794326
 30
0.0
 42
0.4005932428724028
  0
VERTEX
  5
1E66
  8
SAPA_FOGBAND
 10
152.0090762055913
 20
77.823644214435291
 30
0.0
  0
VERTEX
  5
1E67
  8
SAPA_FOGBAND
 10
150.19537611367079
 20
77.823644214435291
 30
0.0
  0
VERTEX
  5
1E68
  8
SAPA_FOGBAND
 10
150.19537611367079
 20
79.523644214435109
 30
0.0
 42
0.4142135623730951
  0
VERTEX
  5
1E69
  8
SAPA_FOGBAND
 10
149.89537611367061
 20
79.823644214435291
 30
0.0
  0
VERTEX
  5
1E6A
  8
SAPA_FOGBAND
 10
142.47659535004519
 20
79.823644214435291
 30
0.0
 42
0.1379343940649189
  0
VERTEX
  5
1E6B
  8
SAPA_FOGBAND
 10
141.9553770409963
 20
79.677067599580397
 30
0.0
  0
VERTEX
  5
1E6C
  8
SAPA_FOGBAND
 10
130.03476695914671
 20
72.869849361672124
 30
0.0
 42
0.2613472755167633
  0
VERTEX
  5
1E6D
  8
SAPA_FOGBAND
 10
129.7953761136711
 20
72.443137669099571
 30
0.0
  0
SEQEND
  5
1E6E
  8
SAPA_FOGBAND
  0
POLYLINE
  5
112D
  8
SAPA_FOGBAND
 66
     1
 10
0.0
 20
0.0
 30
0.0
  0
VERTEX
  5
1E6F
  8
SAPA_FOGBAND
 10
150.06334092741361
 20
18.335203954036409
 30
0.0
  0
VERTEX
  5
1E70
  8
SAPA_FOGBAND
 10
149.8709825074209
 20
17.244285143883669
 30
0.0
  0
VERTEX
  5
1E71
  8
SAPA_FOGBAND
 10
150.302779067323
 20
17.128585604363732
 30
0.0
 42
-0.4430158954262519
  0
VERTEX
  5
1E72
  8
SAPA_FOGBAND
 10
150.43825611486659
 20
16.865109176256759
 30
0.0
  0
VERTEX
  5
1E73
  8
SAPA_FOGBAND
 10
149.96130792164769
 20
15.59462142833857
 30
0.0
 42
-0.3125358528825162
  0
VERTEX
  5
1E74
  8
SAPA_FOGBAND
 10
149.58682620851849
 20
15.335203954036871
 30
0.0
  0
VERTEX
  5
1E75
  8
SAPA_FOGBAND
 10
147.71667089260819
 20
15.335203954036411
 30
0.0
 42
-0.3125358528825104
  0
VERTEX
  5
1E76
  8
SAPA_FOGBAND
 10
147.34218917947859
 20
15.59462142833857
 30
0.0
  0
VERTEX
  5
1E77
  8
SAPA_FOGBAND
 10
146.86524098625961
 20
16.865109176256759
 30
0.0
 42
-0.4430158954262519
  0
VERTEX
  5
1E78
  8
SAPA_FOGBAND
 10
147.00071803380371
 20
17.128585604363732
 30
0.0
  0
VERTEX
  5
1E79
  8
SAPA_FOGBAND
 10
147.43251459370529
 20
17.244285143883669
 30
0.0
  0
VERTEX
  5
1E7A
  8
SAPA_FOGBAND
 10
147.2433707373628
 20
18.316973257651199
 30
0.0
  0
SEQEND
  5
1E7B
  8
SAPA_FOGBAND
  0
POLYLINE
  5
112E
  8
SAPA_FOGBAND
 66
     1
 10
0.0
 20
0.0
 30
0.0
 70
   129
  0
VERTEX
  5
1E7C
  8
SAPA_FOGBAND
 10
-125.7616026094469
 20
72.51714240326416
 30
0.0
  0
VERTEX
  5
1E7D
  8
SAPA_FOGBAND
 10
-125.79536760974121
 20
72.675278508396417
 30
0.0
  0
VERTEX
  5
1E7E
  8
SAPA_FOGBAND
 10
-125.90929334787199
 20
72.848795340817418
 30
0.0
  0
VERTEX
  5
1E7F
  8
SAPA_FOGBAND
 10
-126.1168938364755
 20
73.028883232553554
 30
0.0
  0
VERTEX
  5
1E80
  8
SAPA_FOGBAND
 10
-126.41531424861429
 20
73.198588459377973
 30
0.0
  0
VERTEX
  5
1E81
  8
SAPA_FOGBAND
 10
-126.79221390999
 20
73.344641897351323
 30
0.0
  0
VERTEX
  5
1E82
  8
SAPA_FOGBAND
 10
-127.2314543121914
 20
73.458053281531605
 30
0.0
  0
VERTEX
  5
1E83
  8
SAPA_FOGBAND
 10
-127.71496928909809
 20
73.532892759685126
 30
0.0
  0
VERTEX
  5
1E84
  8
SAPA_FOGBAND
 10
-128.2234785721401
 20
73.565589707153663
 30
0.0
  0
VERTEX
  5
1E85
  8
SAPA_FOGBAND
 10
-128.73702124756619
 20
73.554649497401016
 30
0.0
  0
VERTEX
  5
1E86
  8
SAPA_FOGBAND
 10
-129.23549839239769
 20
73.500568294114231
 30
0.0
  0
VERTEX
  5
1E87
  8
SAPA_FOGBAND
 10
-129.69922302402659
 20
73.405859213068226
 30
0.0
  0
VERTEX
  5
1E88
  8
SAPA_FOGBAND
 10
-130.10945295050189
 20
73.275217653349671
 30
0.0
  0
VERTEX
  5
1E89
  8
SAPA_FOGBAND
 10
-130.4489641095073
 20
73.115978730631127
 30
0.0
  0
VERTEX
  5
1E8A
  8
SAPA_FOGBAND
 10
-130.70312560035859
 20
72.939113356507818
 30
0.0
  0
VERTEX
  5
1E8B
  8
SAPA_FOGBAND
 10
-130.8632799095673
 20
72.760207290810683
 30
0.0
  0
VERTEX
  5
1E8C
  8
SAPA_FOGBAND
 10
-130.93460798251721
 20
72.594700164658306
 30
0.0
  0
VERTEX
  5
1E8D
  8
SAPA_FOGBAND
 10
-130.93460798251721
 20
72.4395846418698
 30
0.0
  0
VERTEX
  5
1E8E
  8
SAPA_FOGBAND
 10
-130.8632799095673
 20
72.27407751571721
 30
0.0
  0
VERTEX
  5
1E8F
  8
SAPA_FOGBAND
 10
-130.70312560035859
 20
72.095171450020104
 30
0.0
  0
VERTEX
  5
1E90
  8
SAPA_FOGBAND
 10
-130.4489641095073
 20
71.918306075896822
 30
0.0
  0
VERTEX
  5
1E91
  8
SAPA_FOGBAND
 10
-130.109452950502
 20
71.759067153178506
 30
0.0
  0
VERTEX
  5
1E92
  8
SAPA_FOGBAND
 10
-129.69922302402651
 20
71.62842559346015
 30
0.0
  0
VERTEX
  5
1E93
  8
SAPA_FOGBAND
 10
-129.23549839239769
 20
71.533716512413704
 30
0.0
  0
VERTEX
  5
1E94
  8
SAPA_FOGBAND
 10
-128.7370212475661
 20
71.479635309127133
 30
0.0
  0
VERTEX
  5
1E95
  8
SAPA_FOGBAND
 10
-128.22347857214001
 20
71.468695099374258
 30
0.0
  0
VERTEX
  5
1E96
  8
SAPA_FOGBAND
 10
-127.71496928909809
 20
71.501392046842795
 30
0.0
  0
VERTEX
  5
1E97
  8
SAPA_FOGBAND
 10
-127.2314543121914
 20
71.576231524996302
 30
0.0
  0
VERTEX
  5
1E98
  8
SAPA_FOGBAND
 10
-126.7922139099901
 20
71.68964290917701
 30
0.0
  0
VERTEX
  5
1E99
  8
SAPA_FOGBAND
 10
-126.41531424861429
 20
71.835696347150389
 30
0.0
  0
VERTEX
  5
1E9A
  8
SAPA_FOGBAND
 10
-126.1168938364755
 20
72.005401573974837
 30
0.0
  0
VERTEX
  5
1E9B
  8
SAPA_FOGBAND
 10
-125.90929334787199
 20
72.185489465710788
 30
0.0
  0
VERTEX
  5
1E9C
  8
SAPA_FOGBAND
 10
-125.79536760974121
 20
72.359006298131717
 30
0.0
  0
SEQEND
  5
1E9D
  8
SAPA_FOGBAND
  0
POLYLINE
  5
112F
  8
SAPA_FOGBAND
 66
     1
 10
0.0
 20
0.0
 30
0.0
  0
VERTEX
  5
1E9E
  8
SAPA_FOGBAND
 10
-140.05174855056319
 20
18.335204086276178
 30
0.0
 42
-0.285714285714282
  0
VERTEX
  5
1E9F
  8
SAPA_FOGBAND
 10
-137.25174855056301
 20
18.335204086276178
 30
0.0
  0
VERTEX
  5
1EA0
  8
SAPA_FOGBAND
 10
-135.17796838117539
 20
18.335204086276629
 30
0.0
 42
0.3882600129940275
  0
VERTEX
  5
1EA1
  8
SAPA_FOGBAND
 10
-134.8791668838337
 20
18.608414812556191
 30
0.0
  0
VERTEX
  5
1EA2
  8
SAPA_FOGBAND
 10
-134.41295695990749
 20
23.508414812556278
 30
0.0
 42
0.4406523138893894
  0
VERTEX
  5
1EA3
  8
SAPA_FOGBAND
 10
-134.7117584572496
 20
23.835204086276178
 30
0.0
  0
VERTEX
  5
1EA4
  8
SAPA_FOGBAND
 10
-136.4215504541697
 20
23.835204086276178
 30
0.0
 42
0.3394542588634375
  0
VERTEX
  5
1EA5
  8
SAPA_FOGBAND
 10
-136.71132820205619
 20
23.612849799807179
 30
0.0
  0
VERTEX
  5
1EA6
  8
SAPA_FOGBAND
 10
-136.91370792998779
 20
23.39526401763959
 30
0.0
 42
-0.3394542588633663
  0
VERTEX
  5
1EA7
  8
SAPA_FOGBAND
 10
-137.2034856778744
 20
23.172909731170591
 30
0.0
  0
VERTEX
  5
1EA8
  8
SAPA_FOGBAND
 10
-140.1000114232522
 20
23.172909731170591
 30
0.0
 42
-0.3394542588634373
  0
VERTEX
  5
1EA9
  8
SAPA_FOGBAND
 10
-140.3897891711388
 20
23.39526401763959
 30
0.0
  0
VERTEX
  5
1EAA
  8
SAPA_FOGBAND
 10
-140.59216889907
 20
23.612849799807179
 30
0.0
 42
0.3394542588633662
  0
VERTEX
  5
1EAB
  8
SAPA_FOGBAND
 10
-140.881946646957
 20
23.835204086276178
 30
0.0
  0
VERTEX
  5
1EAC
  8
SAPA_FOGBAND
 10
-142.59173864387711
 20
23.835204086276178
 30
0.0
 42
0.4406523138893994
  0
VERTEX
  5
1EAD
  8
SAPA_FOGBAND
 10
-142.89054014121871
 20
23.508414812556278
 30
0.0
  0
VERTEX
  5
1EAE
  8
SAPA_FOGBAND
 10
-142.42433021729249
 20
18.608414812556191
 30
0.0
 42
0.3882600129940462
  0
VERTEX
  5
1EAF
  8
SAPA_FOGBAND
 10
-142.12552871995081
 20
18.335204086276178
 30
0.0
  0
VERTEX
  5
1EB0
  8
SAPA_FOGBAND
 10
-140.06334092741349
 20
18.335204086276178
 30
0.0
  0
SEQEND
  5
1EB1
  8
SAPA_FOGBAND
  0
POLYLINE
  5
1130
  8
SAPA_FOGBAND
 66
     1
 10
0.0
 20
0.0
 30
0.0
 70
   129
  0
VERTEX
  5
1EB2
  8
SAPA_FOGBAND
 10
-133.48626212621949
 20
73.681470486850372
 30
0.0
  0
VERTEX
  5
1EB3
  8
SAPA_FOGBAND
 10
-133.52002712651381
 20
73.83960659198263
 30
0.0
  0
VERTEX
  5
1EB4
  8
SAPA_FOGBAND
 10
-133.63395286464461
 20
74.013123424403631
 30
0.0
  0
VERTEX
  5
1EB5
  8
SAPA_FOGBAND
 10
-133.84155335324809
 20
74.193211316139767
 30
0.0
  0
VERTEX
  5
1EB6
  8
SAPA_FOGBAND
 10
-134.13997376538691
 20
74.3629165429642
 30
0.0
  0
VERTEX
  5
1EB7
  8
SAPA_FOGBAND
 10
-134.51687342676249
 20
74.508969980937536
 30
0.0
  0
VERTEX
  5
1EB8
  8
SAPA_FOGBAND
 10
-134.95611382896391
 20
74.622381365117818
 30
0.0
  0
VERTEX
  5
1EB9
  8
SAPA_FOGBAND
 10
-135.43962880587071
 20
74.697220843271339
 30
0.0
  0
VERTEX
  5
1EBA
  8
SAPA_FOGBAND
 10
-135.94813808891271
 20
74.729917790739876
 30
0.0
  0
VERTEX
  5
1EBB
  8
SAPA_FOGBAND
 10
-136.46168076433881
 20
74.718977580987229
 30
0.0
  0
VERTEX
  5
1EBC
  8
SAPA_FOGBAND
 10
-136.96015790917031
 20
74.664896377700444
 30
0.0
  0
VERTEX
  5
1EBD
  8
SAPA_FOGBAND
 10
-137.42388254079921
 20
74.570187296654439
 30
0.0
  0
VERTEX
  5
1EBE
  8
SAPA_FOGBAND
 10
-137.83411246727459
 20
74.439545736935884
 30
0.0
  0
VERTEX
  5
1EBF
  8
SAPA_FOGBAND
 10
-138.17362362627989
 20
74.28030681421734
 30
0.0
  0
VERTEX
  5
1EC0
  8
SAPA_FOGBAND
 10
-138.42778511713129
 20
74.103441440094031
 30
0.0
  0
VERTEX
  5
1EC1
  8
SAPA_FOGBAND
 10
-138.58793942634
 20
73.924535374396882
 30
0.0
  0
VERTEX
  5
1EC2
  8
SAPA_FOGBAND
 10
-138.65926749928991
 20
73.759028248244533
 30
0.0
  0
VERTEX
  5
1EC3
  8
SAPA_FOGBAND
 10
-138.65926749928991
 20
73.603912725456013
 30
0.0
  0
VERTEX
  5
1EC4
  8
SAPA_FOGBAND
 10
-138.58793942633989
 20
73.438405599303437
 30
0.0
  0
VERTEX
  5
1EC5
  8
SAPA_FOGBAND
 10
-138.42778511713129
 20
73.259499533606316
 30
0.0
  0
VERTEX
  5
1EC6
  8
SAPA_FOGBAND
 10
-138.17362362628
 20
73.082634159483035
 30
0.0
  0
VERTEX
  5
1EC7
  8
SAPA_FOGBAND
 10
-137.83411246727471
 20
72.923395236764719
 30
0.0
  0
VERTEX
  5
1EC8
  8
SAPA_FOGBAND
 10
-137.42388254079921
 20
72.792753677046363
 30
0.0
  0
VERTEX
  5
1EC9
  8
SAPA_FOGBAND
 10
-136.96015790917031
 20
72.698044595999917
 30
0.0
  0
VERTEX
  5
1ECA
  8
SAPA_FOGBAND
 10
-136.46168076433881
 20
72.643963392713346
 30
0.0
  0
VERTEX
  5
1ECB
  8
SAPA_FOGBAND
 10
-135.9481380889126
 20
72.633023182960471
 30
0.0
  0
VERTEX
  5
1ECC
  8
SAPA_FOGBAND
 10
-135.43962880587071
 20
72.665720130429008
 30
0.0
  0
VERTEX
  5
1ECD
  8
SAPA_FOGBAND
 10
-134.95611382896399
 20
72.740559608582515
 30
0.0
  0
VERTEX
  5
1ECE
  8
SAPA_FOGBAND
 10
-134.51687342676269
 20
72.853970992763223
 30
0.0
  0
VERTEX
  5
1ECF
  8
SAPA_FOGBAND
 10
-134.13997376538691
 20
73.000024430736602
 30
0.0
  0
VERTEX
  5
1ED0
  8
SAPA_FOGBAND
 10
-133.84155335324809
 20
73.169729657561049
 30
0.0
  0
VERTEX
  5
1ED1
  8
SAPA_FOGBAND
 10
-133.63395286464461
 20
73.349817549297001
 30
0.0
  0
VERTEX
  5
1ED2
  8
SAPA_FOGBAND
 10
-133.52002712651381
 20
73.52333438171793
 30
0.0
  0
SEQEND
  5
1ED3
  8
SAPA_FOGBAND
  0
POLYLINE
  5
1131
  8
SAPA_FOGBAND
 66
     1
 10
0.0
 20
0.0
 30
0.0
 70
     1
  0
VERTEX
  5
1ED4
  8
SAPA_FOGBAND
 10
-119.7953761136711
 20
71.660000923777432
 30
0.0
 42
-0.3915187749346351
  0
VERTEX
  5
1ED5
  8
SAPA_FOGBAND
 10
-120.7173538134445
 20
70.66304930977202
 30
0.0
  0
VERTEX
  5
1ED6
  8
SAPA_FOGBAND
 10
-128.77590031425879
 20
69.836728279273473
 30
0.0
 42
-0.0195279011117888
  0
VERTEX
  5
1ED7
  8
SAPA_FOGBAND
 10
-128.81491146437219
 20
69.835204086276178
 30
0.0
  0
VERTEX
  5
1ED8
  8
SAPA_FOGBAND
 10
-142.495376113671
 20
69.835204086276178
 30
0.0
 42
-0.4279663351069072
  0
VERTEX
  5
1ED9
  8
SAPA_FOGBAND
 10
-142.79504868139091
 20
70.149216657635577
 30
0.0
  0
VERTEX
  5
1EDA
  8
SAPA_FOGBAND
 10
-142.30874877331121
 20
77.537656918034074
 30
0.0
 42
-0.4005932428724028
  0
VERTEX
  5
1EDB
  8
SAPA_FOGBAND
 10
-142.0090762055913
 20
77.823644346675053
 30
0.0
  0
VERTEX
  5
1EDC
  8
SAPA_FOGBAND
 10
-140.19537611367079
 20
77.823644346675053
 30
0.0
  0
VERTEX
  5
1EDD
  8
SAPA_FOGBAND
 10
-140.19537611367079
 20
79.523644346674871
 30
0.0
 42
-0.4142135623730951
  0
VERTEX
  5
1EDE
  8
SAPA_FOGBAND
 10
-139.89537611367061
 20
79.823644346675053
 30
0.0
  0
VERTEX
  5
1EDF
  8
SAPA_FOGBAND
 10
-132.47659535004519
 20
79.823644346675053
 30
0.0
 42
-0.1379343940649189
  0
VERTEX
  5
1EE0
  8
SAPA_FOGBAND
 10
-131.9553770409963
 20
79.677067731820145
 30
0.0
  0
VERTEX
  5
1EE1
  8
SAPA_FOGBAND
 10
-120.03476695914669
 20
72.869849493911886
 30
0.0
 42
-0.2613472755167633
  0
VERTEX
  5
1EE2
  8
SAPA_FOGBAND
 10
-119.7953761136711
 20
72.443137801339333
 30
0.0
  0
SEQEND
  5
1EE3
  8
SAPA_FOGBAND
  0
POLYLINE
  5
1132
  8
SAPA_FOGBAND
 66
     1
 10
0.0
 20
0.0
 30
0.0
  0
VERTEX
  5
1EE4
  8
SAPA_FOGBAND
 10
-140.06334092741349
 20
18.335204086276178
 30
0.0
  0
VERTEX
  5
1EE5
  8
SAPA_FOGBAND
 10
-139.8709825074209
 20
17.244285276123431
 30
0.0
  0
VERTEX
  5
1EE6
  8
SAPA_FOGBAND
 10
-140.302779067323
 20
17.128585736603501
 30
0.0
 42
0.4430158954262519
  0
VERTEX
  5
1EE7
  8
SAPA_FOGBAND
 10
-140.43825611486659
 20
16.865109308496528
 30
0.0
  0
VERTEX
  5
1EE8
  8
SAPA_FOGBAND
 10
-139.96130792164769
 20
15.59462156057833
 30
0.0
 42
0.3125358528825162
  0
VERTEX
  5
1EE9
  8
SAPA_FOGBAND
 10
-139.58682620851849
 20
15.335204086276629
 30
0.0
  0
VERTEX
  5
1EEA
  8
SAPA_FOGBAND
 10
-137.71667089260819
 20
15.33520408627618
 30
0.0
 42
0.3125358528825104
  0
VERTEX
  5
1EEB
  8
SAPA_FOGBAND
 10
-137.34218917947859
 20
15.59462156057833
 30
0.0
  0
VERTEX
  5
1EEC
  8
SAPA_FOGBAND
 10
-136.86524098625961
 20
16.865109308496528
 30
0.0
 42
0.4430158954262519
  0
VERTEX
  5
1EED
  8
SAPA_FOGBAND
 10
-137.00071803380371
 20
17.128585736603501
 30
0.0
  0
VERTEX
  5
1EEE
  8
SAPA_FOGBAND
 10
-137.43251459370529
 20
17.244285276123431
 30
0.0
  0
VERTEX
  5
1EEF
  8
SAPA_FOGBAND
 10
-137.2433707373628
 20
18.316973389890961
 30
0.0
  0
SEQEND
  5
1EF0
  8
SAPA_FOGBAND
  0
DIMENSION
  5
113A
  8
SAPA_MATT
  2
*D78
 10
-141.99999999978809
 20
-6.0000000838686844
 30
0.0
 11
-97.499999999894001
 21
-3.500000083868684
 31
0.0
 70
     0
 13
-52.999999999999858
 23
15.999998374939141
 33
0.0
 14
-141.99999999978809
 24
14.499999869043419
 34
0.0
 50
180.0
1001
ACAD
1000
DSTYLE
1002
{
1070
    40
1040
1.0
1002
}
  0
DIMENSION
  5
113B
  8
SAPA_MATT
  2
*D77
 10
-52.999999999999858
 20
-6.0000000838686702
 30
0.0
 11
-50.500000000000021
 21
-3.5000000838686698
 31
0.0
 70
     0
 13
-48.000000000000178
 23
15.99999842198093
 33
0.0
 14
-52.999999999999858
 24
15.999998374939141
 34
0.0
 50
180.0
1001
ACAD
1000
DSTYLE
1002
{
1070
    40
1040
1.0
1002
}
  0
DIMENSION
  5
113C
  8
SAPA_MATT
  2
*D76
 10
-48.000000000000178
 20
-6.0000000838686702
 30
0.0
 11
51.999845268098277
 21
-3.499704808278119
 31
0.0
 70
     0
  1
200
 13
151.99969053619671
 23
14.47729794471905
 33
0.0
 14
-48.000000000000178
 24
15.99999842198093
 34
0.0
 50
180.0
1001
ACAD
1000
DSTYLE
1002
{
1070
    40
1040
1.0
1002
}
  0
ENDSEC
  0
EOF
