  0
SECTION
  2
HEADER
  9
$ACADVER
  1
AC1009
  9
$INSBASE
 10
0.0
 20
0.0
 30
0.0
  9
$EXTMIN
 10
-55.653752877734689
 20
-35.366805833946273
 30
-0.0000000048844204
  9
$EXTMAX
 10
201.26614343241289
 20
232.80858215449899
 30
0.1
  9
$LIMMIN
 10
0.0
 20
0.0
  9
$LIMMAX
 10
790.0
 20
790.0
  9
$ORTHOMODE
 70
     0
  9
$REGENMODE
 70
     1
  9
$FILLMODE
 70
     1
  9
$QTEXTMODE
 70
     0
  9
$MIRRTEXT
 70
     1
  9
$DRAGMODE
 70
     2
  9
$LTSCALE
 40
4.0
  9
$OSMODE
 70
   167
  9
$ATTMODE
 70
     1
  9
$TEXTSIZE
 40
3.5
  9
$TRACEWID
 40
0.05
  9
$TEXTSTYLE
  7
ISO
  9
$CLAYER
  8
0
  9
$CELTYPE
  6
BYLAYER
  9
$CECOLOR
 62
   256
  9
$DIMSCALE
 40
0.0
  9
$DIMASZ
 40
3.0
  9
$DIMEXO
 40
1.5
  9
$DIMDLI
 40
10.0
  9
$DIMRND
 40
0.0
  9
$DIMDLE
 40
0.0
  9
$DIMEXE
 40
1.5
  9
$DIMTP
 40
0.0
  9
$DIMTM
 40
0.0
  9
$DIMTXT
 40
3.0
  9
$DIMCEN
 40
-5.0
  9
$DIMTSZ
 40
0.0
  9
$DIMTOL
 70
     0
  9
$DIMLIM
 70
     0
  9
$DIMTIH
 70
     0
  9
$DIMTOH
 70
     0
  9
$DIMSE1
 70
     0
  9
$DIMSE2
 70
     0
  9
$DIMTAD
 70
     1
  9
$DIMZIN
 70
     8
  9
$DIMBLK
  1

  9
$DIMASO
 70
     1
  9
$DIMSHO
 70
     1
  9
$DIMPOST
  1

  9
$DIMAPOST
  1

  9
$DIMALT
 70
     0
  9
$DIMALTD
 70
     0
  9
$DIMALTF
 40
25.399999999999999
  9
$DIMLFAC
 40
-1.0
  9
$DIMTOFL
 70
     1
  9
$DIMTVP
 40
0.0
  9
$DIMTIX
 70
     0
  9
$DIMSOXD
 70
     0
  9
$DIMSAH
 70
     0
  9
$DIMBLK1
  1

  9
$DIMBLK2
  1

  9
$DIMSTYLE
  2
MASKIN
  9
$DIMCLRD
 70
   256
  9
$DIMCLRE
 70
   256
  9
$DIMCLRT
 70
     2
  9
$DIMTFAC
 40
1.0
  9
$DIMGAP
 40
1.0
  9
$LUNITS
 70
     2
  9
$LUPREC
 70
     8
  9
$SKETCHINC
 40
0.1
  9
$FILLETRAD
 40
0.0
  9
$AUNITS
 70
     0
  9
$AUPREC
 70
     8
  9
$MENU
  1
ACAD
  9
$ELEVATION
 40
0.0
  9
$PELEVATION
 40
0.0
  9
$THICKNESS
 40
0.0
  9
$LIMCHECK
 70
     0
  9
$BLIPMODE
 70
     0
  9
$CHAMFERA
 40
0.0
  9
$CHAMFERB
 40
0.0
  9
$SKPOLY
 70
     0
  9
$TDCREATE
 40
2457484.535872905
  9
$TDUPDATE
 40
2457744.6276588081
  9
$TDINDWG
 40
0.0529232292
  9
$TDUSRTIMER
 40
0.0529232292
  9
$USRTIMER
 70
     1
  9
$ANGBASE
 50
0.0
  9
$ANGDIR
 70
     0
  9
$PDMODE
 70
     0
  9
$PDSIZE
 40
0.0
  9
$PLINEWID
 40
0.0
  9
$COORDS
 70
     1
  9
$SPLFRAME
 70
     0
  9
$SPLINETYPE
 70
     6
  9
$SPLINESEGS
 70
     8
  9
$ATTDIA
 70
     1
  9
$ATTREQ
 70
     1
  9
$HANDLING
 70
     1
  9
$HANDSEED
  5
26DB
  9
$SURFTAB1
 70
     6
  9
$SURFTAB2
 70
     6
  9
$SURFTYPE
 70
     6
  9
$SURFU
 70
     6
  9
$SURFV
 70
     6
  9
$UCSNAME
  2

  9
$UCSORG
 10
0.0
 20
0.0
 30
0.0
  9
$UCSXDIR
 10
1.0
 20
0.0
 30
0.0
  9
$UCSYDIR
 10
0.0
 20
1.0
 30
0.0
  9
$PUCSNAME
  2

  9
$PUCSORG
 10
0.0
 20
0.0
 30
0.0
  9
$PUCSXDIR
 10
1.0
 20
0.0
 30
0.0
  9
$PUCSYDIR
 10
0.0
 20
1.0
 30
0.0
  9
$USERI1
 70
     0
  9
$USERI2
 70
     0
  9
$USERI3
 70
     0
  9
$USERI4
 70
     0
  9
$USERI5
 70
     0
  9
$USERR1
 40
0.0
  9
$USERR2
 40
0.0
  9
$USERR3
 40
0.0
  9
$USERR4
 40
0.0
  9
$USERR5
 40
0.0
  9
$WORLDVIEW
 70
     1
  9
$SHADEDGE
 70
     3
  9
$SHADEDIF
 70
    70
  9
$TILEMODE
 70
     1
  9
$MAXACTVP
 70
    16
  9
$PLIMCHECK
 70
     0
  9
$PEXTMIN
 10
1.0000000000000000E+020
 20
1.0000000000000000E+020
 30
1.0000000000000000E+020
  9
$PEXTMAX
 10
-1.0000000000000000E+020
 20
-1.0000000000000000E+020
 30
-1.0000000000000000E+020
  9
$PLIMMIN
 10
-5.069427490234375
 20
-5.8737497329711914
  9
$PLIMMAX
 10
291.89889526367187
 20
204.0995779037475
  9
$UNITMODE
 70
     0
  9
$VISRETAIN
 70
     1
  9
$PLINEGEN
 70
     0
  9
$PSLTSCALE
 70
     1
  0
ENDSEC
  0
SECTION
  2
TABLES
  0
TABLE
  2
VPORT
 70
     1
  0
VPORT
  2
*ACTIVE
 70
     0
 10
0.0
 20
0.0
 11
1.0
 21
1.0
 12
73.991468139264313
 22
310.9083269141513
 13
0.0
 23
0.0
 14
1.0
 24
1.0
 15
0.0
 25
0.0
 16
0.0
 26
0.0
 36
1.0
 17
0.0
 27
0.0
 37
0.0
 40
396.7081112037506
 41
1.616257088846881
 42
50.0
 43
0.0
 44
0.0
 50
0.0
 51
0.0
 71
     0
 72
   100
 73
     1
 74
     1
 75
     0
 76
     0
 77
     0
 78
     0
  0
ENDTAB
  0
TABLE
  2
LTYPE
 70
    41
  0
LTYPE
  2
CONTINUOUS
 70
     0
  3
Solid line
 72
    65
 73
     0
 40
0.0
  0
LTYPE
  2
BYGG-025052$0$NEWDOT
 70
     0
  3
____ . ____ . ____ . ____ . ____ . ____ . ____
 72
    65
 73
     4
 40
2.0
 49
1.0
 49
-0.5
 49
0.0
 49
-0.5
  0
LTYPE
  2
BYGG-025052$0$DASHDOT
 70
     0
  3
__ . __ . __ . __ . __ . __ . __ . __ . __ . __
 72
    65
 73
     4
 40
1.0
 49
0.5
 49
-0.25
 49
0.0
 49
-0.25
  0
LTYPE
  2
BYGG-024817$0$NEWDOT
 70
     0
  3
____ . ____ . ____ . ____ . ____ . ____ . ____
 72
    65
 73
     4
 40
2.0
 49
1.0
 49
-0.5
 49
0.0
 49
-0.5
  0
LTYPE
  2
BYGG-024800$0$NEWDOT
 70
     0
  3
____ . ____ . ____ . ____ . ____ . ____ . ____
 72
    65
 73
     4
 40
2.0
 49
1.0
 49
-0.5
 49
0.0
 49
-0.5
  0
LTYPE
  2
BYGG-024807$0$NEWDOT
 70
     0
  3
____ . ____ . ____ . ____ . ____ . ____ . ____
 72
    65
 73
     4
 40
2.0
 49
1.0
 49
-0.5
 49
0.0
 49
-0.5
  0
LTYPE
  2
BYGG-024807$0$DASHDOT
 70
     0
  3
__ . __ . __ . __ . __ . __ . __ . __ . __ . __
 72
    65
 73
     4
 40
1.0
 49
0.5
 49
-0.25
 49
0.0
 49
-0.25
  0
LTYPE
  2
BYGG-029754$0$NEWDOT
 70
     0
  3
____ . ____ . ____ . ____ . ____ . ____ . ____
 72
    65
 73
     4
 40
2.0
 49
1.0
 49
-0.5
 49
0.0
 49
-0.5
  0
LTYPE
  2
BYGG-029754$0$DASHDOT
 70
     0
  3
__ . __ . __ . __ . __ . __ . __ . __ . __ . __
 72
    65
 73
     4
 40
1.0
 49
0.5
 49
-0.25
 49
0.0
 49
-0.25
  0
LTYPE
  2
BYGG-029754$0$DASHED
 70
     0
  3
__ __ __ __ __ __ __ __ __ __ __ __ __ __ __
 72
    65
 73
     2
 40
0.75
 49
0.5
 49
-0.25
  0
LTYPE
  2
BYGG-029754$0$PHANTOM
 70
     0
  3
Phantom ______  __  __  ______  __  __  ______
 72
    65
 73
     6
 40
63.5
 49
31.75
 49
-6.3499999999999988
 49
6.3499999999999988
 49
-6.3499999999999988
 49
6.3499999999999988
 49
-6.3499999999999988
  0
LTYPE
  2
BYGG-00894401$0$DASHDOT
 70
     0
  3
__ . __ . __ . __ . __ . __ . __ . __ . __ . __
 72
    65
 73
     4
 40
1.0
 49
0.5
 49
-0.25
 49
0.0
 49
-0.25
  0
LTYPE
  2
BYGG-008943$0$DASHDOT
 70
     0
  3
__ . __ . __ . __ . __ . __ . __ . __ . __ . __
 72
    65
 73
     4
 40
1.0
 49
0.5
 49
-0.25
 49
0.0
 49
-0.25
  0
LTYPE
  2
BYGG-01409101$0$DASHDOT
 70
     0
  3
__ . __ . __ . __ . __ . __ . __ . __ . __ . __
 72
    65
 73
     4
 40
1.0
 49
0.5
 49
-0.25
 49
0.0
 49
-0.25
  0
LTYPE
  2
BYGG-01409101$0$HIDDEN
 70
     0
  3
_ _ _ _ _ _ _ _ _ _ _ _ _ _ _ _ _ _ _ _ _ _ _
 72
    65
 73
     2
 40
0.375
 49
0.25
 49
-0.125
  0
LTYPE
  2
BYGG-029021$0$NEWDOT
 70
     0
  3
____ . ____ . ____ . ____ . ____ . ____ . ____
 72
    65
 73
     4
 40
2.0
 49
1.0
 49
-0.5
 49
0.0
 49
-0.5
  0
LTYPE
  2
BYGG-029021$0$DASHDOT
 70
     0
  3
__ . __ . __ . __ . __ . __ . __ . __ . __ . __
 72
    65
 73
     4
 40
1.0
 49
0.5
 49
-0.25
 49
0.0
 49
-0.25
  0
LTYPE
  2
BYGG-029021$0$DASHED
 70
     0
  3
__ __ __ __ __ __ __ __ __ __ __ __ __ __ __
 72
    65
 73
     2
 40
0.75
 49
0.5
 49
-0.25
  0
LTYPE
  2
BYGG-029021$0$PHANTOM
 70
     0
  3
Phantom ______  __  __  ______  __  __  ______
 72
    65
 73
     6
 40
63.5
 49
31.75
 49
-6.3499999999999988
 49
6.3499999999999988
 49
-6.3499999999999988
 49
6.3499999999999988
 49
-6.3499999999999988
  0
LTYPE
  2
BYGG-029021$0$DASHED2
 70
     0
  3
_ _ _ _ _ _ _ _ _ _ _ _ _ _ _ _ _ _ _ _ _ _ _ _ _ _ _ _ _ _ _
 72
    65
 73
     2
 40
0.375
 49
0.25
 49
-0.125
  0
LTYPE
  2
BYGG-025652$0$NEWDOT
 70
     0
  3
____ . ____ . ____ . ____ . ____ . ____ . ____
 72
    65
 73
     4
 40
2.0
 49
1.0
 49
-0.5
 49
0.0
 49
-0.5
  0
LTYPE
  2
BYGG-025652$0$DASHDOT
 70
     0
  3
__ . __ . __ . __ . __ . __ . __ . __ . __ . __
 72
    65
 73
     4
 40
1.0
 49
0.5
 49
-0.25
 49
0.0
 49
-0.25
  0
LTYPE
  2
BYGG-025652$0$DASHED
 70
     0
  3
__ __ __ __ __ __ __ __ __ __ __ __ __ __ __
 72
    65
 73
     2
 40
0.75
 49
0.5
 49
-0.25
  0
LTYPE
  2
BYGG-025652$0$PHANTOM
 70
     0
  3
Phantom ______  __  __  ______  __  __  ______
 72
    65
 73
     6
 40
63.5
 49
31.75
 49
-6.3499999999999988
 49
6.3499999999999988
 49
-6.3499999999999988
 49
6.3499999999999988
 49
-6.3499999999999988
  0
LTYPE
  2
BYGG-014411$0$NEWDOT
 70
     0
  3
____ . ____ . ____ . ____ . ____ . ____ . ____
 72
    65
 73
     4
 40
2.0
 49
1.0
 49
-0.5
 49
0.0
 49
-0.5
  0
LTYPE
  2
BYGG-014411$0$ZIGZAG
 70
     0
  3
Zig zag /\/\/\/\/\/\/\/\/\/\/\/\/\/\/\/\/\/\/\/\/\/\/\/
 72
    65
 73
     4
 40
20.32254
 49
0.00254
 49
-5.0800000000000001
 49
-10.16
 49
-5.0800000000000001
  0
LTYPE
  2
BYGG-036381$0$NEWDOT
 70
     0
  3
____ . ____ . ____ . ____ . ____ . ____ . ____
 72
    65
 73
     4
 40
2.0
 49
1.0
 49
-0.5
 49
0.0
 49
-0.5
  0
LTYPE
  2
BYGG-036381$0$ZIGZAG
 70
     0
  3
Zig zag /\/\/\/\/\/\/\/\/\/\/\/\/\/\/\/\/\/\/\/\/\/\/\/
 72
    65
 73
     4
 40
20.32254
 49
0.00254
 49
-5.0800000000000001
 49
-10.16
 49
-5.0800000000000001
  0
LTYPE
  2
BYGG-035487$0$BYGG-025060|NEWDOT
 70
     0
  3
____ . ____ . ____ . ____ . ____ . ____ . ____
 72
    65
 73
     4
 40
2.0
 49
1.0
 49
-0.5
 49
0.0
 49
-0.5
  0
LTYPE
  2
BYGG-035487$0$BYGG-024800|NEWDOT
 70
     0
  3
____ . ____ . ____ . ____ . ____ . ____ . ____
 72
    65
 73
     4
 40
2.0
 49
1.0
 49
-0.5
 49
0.0
 49
-0.5
  0
LTYPE
  2
BYGG-035487$0$BYGG-024807|NEWDOT
 70
     0
  3
____ . ____ . ____ . ____ . ____ . ____ . ____
 72
    65
 73
     4
 40
2.0
 49
1.0
 49
-0.5
 49
0.0
 49
-0.5
  0
LTYPE
  2
BYGG-035487$0$BYGG-0248070
 70
     0
  3
__ . __ . __ . __ . __ . __ . __ . __ . __ . __
 72
    65
 73
     4
 40
1.0
 49
0.5
 49
-0.25
 49
0.0
 49
-0.25
  0
LTYPE
  2
BYGG-024817$0$DASHDOT
 70
     0
  3
__ . __ . __ . __ . __ . __ . __ . __ . __ . __
 72
    65
 73
     4
 40
1.0
 49
0.5
 49
-0.25
 49
0.0
 49
-0.25
  0
LTYPE
  2
BYGG-014090$0$PHANTOM2
 70
     0
  3
Phantom (.5x) ___ _ _ ___ _ _ ___ _ _ ___ _ _
 72
    65
 73
     6
 40
1.25
 49
0.625
 49
-0.125
 49
0.125
 49
-0.125
 49
0.125
 49
-0.125
  0
LTYPE
  2
BYGG-029754$0$PHANTOM2
 70
     0
  3
Phantom (.5x) ___ _ _ ___ _ _ ___ _ _ ___ _ _
 72
    65
 73
     6
 40
1.25
 49
0.625
 49
-0.125
 49
0.125
 49
-0.125
 49
0.125
 49
-0.125
  0
LTYPE
  2
BYGG-01409101$0$PHANTOM2
 70
     0
  3
Phantom (.5x) ___ _ _ ___ _ _ ___ _ _ ___ _ _
 72
    65
 73
     6
 40
1.25
 49
0.625
 49
-0.125
 49
0.125
 49
-0.125
 49
0.125
 49
-0.125
  0
LTYPE
  2
BYGG-029021$0$PHANTOM2
 70
     0
  3
Phantom (.5x) ___ _ _ ___ _ _ ___ _ _ ___ _ _
 72
    65
 73
     6
 40
1.25
 49
0.625
 49
-0.125
 49
0.125
 49
-0.125
 49
0.125
 49
-0.125
  0
LTYPE
  2
BYGG-024800$0$DASHDOT
 70
     0
  3
__ . __ . __ . __ . __ . __ . __ . __ . __ . __
 72
    65
 73
     4
 40
1.0
 49
0.5
 49
-0.25
 49
0.0
 49
-0.25
  0
LTYPE
  2
BYGG-025652$0$PHANTOM2
 70
     0
  3
Phantom (.5x) ___ _ _ ___ _ _ ___ _ _ ___ _ _
 72
    65
 73
     6
 40
1.25
 49
0.625
 49
-0.125
 49
0.125
 49
-0.125
 49
0.125
 49
-0.125
  0
LTYPE
  2
BYGG-014411$0$PHANTOM2
 70
     0
  3
Phantom (.5x) ___ _ _ ___ _ _ ___ _ _ ___ _ _
 72
    65
 73
     6
 40
1.25
 49
0.625
 49
-0.125
 49
0.125
 49
-0.125
 49
0.125
 49
-0.125
  0
LTYPE
  2
BYGG-014088$0$PHANTOM2
 70
     0
  3
Phantom (.5x) ___ _ _ ___ _ _ ___ _ _ ___ _ _
 72
    65
 73
     6
 40
1.25
 49
0.625
 49
-0.125
 49
0.125
 49
-0.125
 49
0.125
 49
-0.125
  0
ENDTAB
  0
TABLE
  2
LAYER
 70
   193
  0
LAYER
  2
0
 70
     0
 62
     7
  6
CONTINUOUS
  0
LAYER
  2
DEFPOINTS
 70
     0
 62
     7
  6
CONTINUOUS
  0
LAYER
  2
SAPA_ANSLUTNING
 70
     0
 62
     6
  6
CONTINUOUS
  0
LAYER
  2
SAPA_ARTIKELNR
 70
     0
 62
     4
  6
CONTINUOUS
  0
LAYER
  2
SAPA_FYLLNING
 70
     0
 62
     4
  6
CONTINUOUS
  0
LAYER
  2
SAPA_MATT
 70
     0
 62
     1
  6
CONTINUOUS
  0
LAYER
  2
SAPA_GLAS
 70
     0
 62
     4
  6
CONTINUOUS
  0
LAYER
  2
SAPA_FOGBAND
 70
     0
 62
     2
  6
CONTINUOUS
  0
LAYER
  2
SAPA_PROFIL
 70
     0
 62
     7
  6
CONTINUOUS
  0
ENDTAB
  0
TABLE
  2
STYLE
 70
    49
  0
STYLE
  2
STANDARD
 70
     0
 40
0.0
 41
1.0
 50
0.0
 71
     0
 42
0.2
  3
txt
  4

  0
STYLE
  2
ISO
 70
     0
 40
0.0
 41
1.0
 50
0.0
 71
     0
 42
3.5
  3
txt
  4

  0
STYLE
  2

 70
     1
 40
0.0
 41
1.0
 50
0.0
 71
     0
 42
0.2
  3
ltypeshp.shx
  4

  0
STYLE
  2
BYGG-015465$0$STANDARD
 70
     0
 40
0.0
 41
1.0
 50
0.0
 71
     0
 42
0.2
  3
txt
  4

  0
STYLE
  2
BYGG-015465$0$ISO
 70
     0
 40
0.0
 41
1.0
 50
0.0
 71
     0
 42
3.5
  3
txt
  4

  0
STYLE
  2
BYGG-01443301$0$STANDARD
 70
     0
 40
0.0
 41
1.0
 50
0.0
 71
     0
 42
0.2
  3
txt
  4

  0
STYLE
  2
BYGG-01443301$0$ISO
 70
     0
 40
0.0
 41
1.0
 50
0.0
 71
     0
 42
3.5
  3
isocp3.shx
  4

  0
STYLE
  2
BYGG-035487$0$STANDARD
 70
     0
 40
0.0
 41
1.0
 50
0.0
 71
     0
 42
0.2
  3
txt
  4

  0
STYLE
  2
BYGG-035487$0$ISO
 70
     0
 40
0.0
 41
1.0
 50
0.0
 71
     0
 42
3.5
  3
txt
  4

  0
STYLE
  2
BYGG-028980$0$STANDARD
 70
     0
 40
0.0
 41
1.0
 50
0.0
 71
     0
 42
0.2
  3
txt
  4

  0
STYLE
  2
BYGG-028980$0$ISO
 70
     0
 40
0.0
 41
1.0
 50
0.0
 71
     0
 42
3.5
  3
txt
  4

  0
STYLE
  2
BYGG-025052$0$STANDARD
 70
     0
 40
0.0
 41
1.0
 50
0.0
 71
     0
 42
0.2
  3
txt
  4

  0
STYLE
  2
BYGG-025052$0$ISO
 70
     0
 40
0.0
 41
1.0
 50
0.0
 71
     0
 42
3.5
  3
txt
  4

  0
STYLE
  2
BYGG-024817$0$STANDARD
 70
     0
 40
0.0
 41
1.0
 50
0.0
 71
     0
 42
0.2
  3
txt
  4

  0
STYLE
  2
BYGG-024817$0$ISO
 70
     0
 40
0.0
 41
1.0
 50
0.0
 71
     0
 42
3.5
  3
txt
  4

  0
STYLE
  2
BYGG-014090$0$STANDARD
 70
     0
 40
0.0
 41
1.0
 50
0.0
 71
     0
 42
0.2
  3
txt
  4

  0
STYLE
  2
BYGG-014090$0$SIMPLEX
 70
     0
 40
0.0
 41
1.0
 50
0.0
 71
     0
 42
0.2
  3
simplex
  4

  0
STYLE
  2
BYGG-029754$0$STANDARD
 70
     0
 40
0.0
 41
1.0
 50
0.0
 71
     0
 42
0.2
  3
txt
  4

  0
STYLE
  2
BYGG-029754$0$ISO
 70
     0
 40
0.0
 41
1.0
 50
0.0
 71
     0
 42
3.5
  3
txt
  4

  0
STYLE
  2
BYGG-00894401$0$STANDARD
 70
     0
 40
0.0
 41
1.0
 50
0.0
 71
     0
 42
0.2
  3
txt
  4

  0
STYLE
  2
BYGG-00894401$0$ISO
 70
     0
 40
0.0
 41
1.0
 50
0.0
 71
     0
 42
3.5
  3
txt
  4

  0
STYLE
  2
BYGG-00894401$0$CONVERTER_
 70
     0
 40
0.0
 41
0.72
 50
0.0
 71
     0
 42
0.2
  3
txt.shx
  4

  0
STYLE
  2
BYGG-00894401$0$ANNOTATIVE
 70
     0
 40
0.0
 41
1.0
 50
0.0
 71
     0
 42
0.2
  3
txt
  4

  0
STYLE
  2
BYGG-008943$0$STANDARD
 70
     0
 40
0.0
 41
1.0
 50
0.0
 71
     0
 42
0.2
  3
txt
  4

  0
STYLE
  2
BYGG-008943$0$ISO
 70
     0
 40
0.0
 41
1.0
 50
0.0
 71
     0
 42
3.5
  3
txt
  4

  0
STYLE
  2
BYGG-008943$0$CONVERTER_2
 70
     0
 40
0.0
 41
0.72
 50
0.0
 71
     0
 42
0.2
  3
txt.shx
  4

  0
STYLE
  2
BYGG-008943$0$ANNOTATIVE
 70
     0
 40
0.0
 41
1.0
 50
0.0
 71
     0
 42
0.2
  3
txt
  4

  0
STYLE
  2
BYGG-01409101$0$STANDARD
 70
     0
 40
0.0
 41
1.0
 50
0.0
 71
     0
 42
0.4
  3
txt
  4

  0
STYLE
  2
BYGG-01409101$0$SIMPLEX
 70
     0
 40
0.0
 41
1.0
 50
0.0
 71
     0
 42
0.2
  3
simplex
  4

  0
STYLE
  2
BYGG-029021$0$STANDARD
 70
     0
 40
0.0
 41
1.0
 50
0.0
 71
     0
 42
0.2
  3
txt
  4

  0
STYLE
  2
BYGG-029021$0$ISO
 70
     0
 40
0.0
 41
1.0
 50
0.0
 71
     0
 42
3.5
  3
txt
  4

  0
STYLE
  2
BYGG-029021$0$ANNOTATION
 70
     0
 40
0.0
 41
1.0
 50
0.0
 71
     0
 42
0.2
  3
txt
  4

  0
STYLE
  2
BYGG-029021$0$COTATION
 70
     0
 40
0.0
 41
1.0
 50
0.0
 71
     0
 42
0.2
  3
txt
  4

  0
STYLE
  2
BYGG-029021$0$ANNOTATIVE
 70
     0
 40
0.0
 41
1.0
 50
0.0
 71
     0
 42
0.2
  3
txt
  4

  0
STYLE
  2
BYGG-024800$0$STANDARD
 70
     0
 40
0.0
 41
1.0
 50
0.0
 71
     0
 42
0.2
  3
txt
  4

  0
STYLE
  2
BYGG-024800$0$ISO
 70
     0
 40
0.0
 41
1.0
 50
0.0
 71
     0
 42
3.5
  3
txt
  4

  0
STYLE
  2
BYGG-024807$0$STANDARD
 70
     0
 40
0.0
 41
1.0
 50
0.0
 71
     0
 42
0.2
  3
txt
  4

  0
STYLE
  2
BYGG-024807$0$ISO
 70
     0
 40
0.0
 41
1.0
 50
0.0
 71
     0
 42
3.5
  3
txt
  4

  0
STYLE
  2
BYGG-024807$0$ANNOTATIVE
 70
     0
 40
0.0
 41
1.0
 50
0.0
 71
     0
 42
0.2
  3
txt
  4

  0
STYLE
  2
BYGG-025652$0$STANDARD
 70
     0
 40
0.0
 41
1.0
 50
0.0
 71
     0
 42
0.2
  3
txt
  4

  0
STYLE
  2
BYGG-025652$0$ISO
 70
     0
 40
0.0
 41
1.0
 50
0.0
 71
     0
 42
3.5
  3
txt
  4

  0
STYLE
  2
BYGG-025652$0$ANNOTATIVE
 70
     0
 40
0.0
 41
1.0
 50
0.0
 71
     0
 42
0.2
  3
txt
  4

  0
STYLE
  2
BYGG-014411$0$STANDARD
 70
     0
 40
0.0
 41
1.0
 50
0.0
 71
     0
 42
0.2
  3
txt
  4

  0
STYLE
  2
BYGG-014411$0$ISO
 70
     0
 40
0.0
 41
1.0
 50
0.0
 71
     0
 42
3.5
  3
isocp3.shx
  4

  0
STYLE
  2
BYGG-014088$0$STANDARD
 70
     0
 40
0.0
 41
1.0
 50
0.0
 71
     0
 42
0.4
  3
txt
  4

  0
STYLE
  2
BYGG-036382$0$STANDARD
 70
     0
 40
0.0
 41
1.0
 50
0.0
 71
     0
 42
0.2
  3
txt
  4

  0
STYLE
  2
BYGG-036382$0$ISO
 70
     0
 40
0.0
 41
1.0
 50
0.0
 71
     0
 42
3.5
  3
txt
  4

  0
STYLE
  2
BYGG-036381$0$STANDARD
 70
     0
 40
0.0
 41
1.0
 50
0.0
 71
     0
 42
0.2
  3
txt
  4

  0
STYLE
  2
BYGG-036381$0$ISO
 70
     0
 40
0.0
 41
1.0
 50
0.0
 71
     0
 42
3.5
  3
txt
  4

  0
ENDTAB
  0
TABLE
  2
VIEW
 70
     0
  0
ENDTAB
  0
TABLE
  2
UCS
 70
     0
  0
ENDTAB
  0
TABLE
  2
APPID
 70
    33
  0
APPID
  2
ACAD
 70
     0
  0
APPID
  2
ACAD_DSTYLE_DIMTEXT_FILL
 70
     0
  0
APPID
  2
ACAD_DSTYLE_DIMEXT_LENGTH
 70
     0
  0
APPID
  2
ACAD_DSTYLE_DIMEXT_ENABLED
 70
     0
  0
APPID
  2
ACAD_DSTYLE_DIM_LINETYPE
 70
     0
  0
APPID
  2
ACAD_DSTYLE_DIM_EXT1_LINETYPE
 70
     0
  0
APPID
  2
ACAD_DSTYLE_DIM_EXT2_LINETYPE
 70
     0
  0
APPID
  2
ACAD_DSTYLE_DIMJOGGED_JOGA
 70
     0
  0
APPID
  2
ACAD_DSTYLE_DIMARC_LENGTH_
 70
     0
  0
APPID
  2
ACAD_PSEXT
 70
     0
  0
APPID
  2
ACAD_MLEADERVER
 70
     0
  0
APPID
  2
ACAD_NAV_VCDISPLAY
 70
     0
  0
APPID
  2
ACAECLAYERSTANDARD
 70
     0
  0
APPID
  2
AMG_ARCHIVE11
 70
     0
  0
APPID
  2
ACADANNOTATIVE
 70
     0
  0
APPID
  2
ACAD_DSTYLE_DIMRADIAL_EXTENSION
 70
     0
  0
APPID
  2
ACAD_EXEMPT_FROM_CAD_STANDARDS
 70
     0
  0
APPID
  2
ACAD_OBJECT_CHANGE_GUID
 70
     0
  0
APPID
  2
ACCMTRANSPARENCY
 70
     0
  0
APPID
  2
ACDBDYNAMICBLOCKGUID
 70
     0
  0
APPID
  2
ACDBBLOCKREPETAG
 70
     0
  0
APPID
  2
ACAD_DSTYLE_DIMJAG
 70
     0
  0
APPID
  2
ACAD_DSTYLE_DIMTALN
 70
     0
  0
APPID
  2
RC_PROFILE
 70
     0
  0
APPID
  2
AVE_RENDER
 70
     0
  0
APPID
  2
AVE_ENTITY_MATERIAL
 70
     0
  0
APPID
  2
AVE_FINISH
 70
     0
  0
APPID
  2
AVE_MATERIAL
 70
     0
  0
APPID
  2
AVE_GLOBAL
 70
     0
  0
APPID
  2
4M_RENDER
 70
     0
  0
APPID
  2
LIBMAN
 70
     0
  0
APPID
  2
AUTOBUILD
 70
     0
  0
APPID
  2
AEC_XDATA_BOUND_SPACE
 70
     0
  0
ENDTAB
  0
TABLE
  2
DIMSTYLE
 70
    43
  0
DIMSTYLE
  2
STANDARD
 70
     0
  3

  4

  5

  6

  7

 40
1.0
 41
0.18
 42
0.0625
 43
0.38
 44
0.18
 45
0.0
 46
0.0
 47
0.0
 48
0.0
140
0.18
141
0.09
142
0.0
143
25.399999999999999
144
1.0
145
0.0
146
1.0
147
0.09
 71
     0
 72
     0
 73
     1
 74
     1
 75
     0
 76
     0
 77
     0
 78
     0
170
     0
171
     2
172
     0
173
     0
174
     0
175
     0
176
     0
177
     0
178
     0
  0
DIMSTYLE
  2
MASKIN
 70
     0
  3

  4

  5

  6

  7

 40
0.0
 41
3.0
 42
1.5
 43
10.0
 44
1.5
 45
0.0
 46
0.0
 47
0.0
 48
0.0
140
3.0
141
-5.0
142
0.0
143
25.399999999999999
144
-1.0
145
0.0
146
1.0
147
1.0
 71
     0
 72
     0
 73
     0
 74
     0
 75
     0
 76
     0
 77
     1
 78
     8
170
     0
171
     0
172
     1
173
     0
174
     0
175
     0
176
   256
177
   256
178
     2
  0
DIMSTYLE
  2
BYGG-015465$0$STANDARD
 70
     0
  3

  4

  5

  6

  7

 40
1.0
 41
0.18
 42
0.0625
 43
0.38
 44
0.18
 45
0.0
 46
0.0
 47
0.0
 48
0.0
140
0.18
141
0.09
142
0.0
143
25.399999999999999
144
1.0
145
0.0
146
1.0
147
0.09
 71
     0
 72
     0
 73
     1
 74
     1
 75
     0
 76
     0
 77
     0
 78
     0
170
     0
171
     2
172
     0
173
     0
174
     0
175
     0
176
     0
177
     0
178
     0
  0
DIMSTYLE
  2
BYGG-015465$0$MASKIN
 70
     0
  3

  4

  5

  6

  7

 40
0.0
 41
3.0
 42
1.5
 43
10.0
 44
1.5
 45
0.0
 46
0.0
 47
0.0
 48
0.0
140
3.0
141
-5.0
142
0.0
143
25.399999999999999
144
-1.0
145
0.0
146
1.0
147
1.0
 71
     0
 72
     0
 73
     0
 74
     0
 75
     0
 76
     0
 77
     1
 78
     8
170
     0
171
     0
172
     1
173
     0
174
     0
175
     0
176
   256
177
   256
178
     2
  0
DIMSTYLE
  2
BYGG-01443301$0$MASKIN
 70
     0
  3

  4

  5

  6

  7

 40
0.0
 41
3.0
 42
1.5
 43
10.0
 44
1.5
 45
0.0
 46
0.0
 47
0.0
 48
0.0
140
3.0
141
-5.0
142
0.0
143
25.399999999999999
144
-1.0
145
0.0
146
1.0
147
1.0
 71
     0
 72
     0
 73
     0
 74
     0
 75
     0
 76
     0
 77
     1
 78
     8
170
     0
171
     0
172
     1
173
     0
174
     0
175
     0
176
   256
177
   256
178
   256
  0
DIMSTYLE
  2
BYGG-035487$0$STANDARD
 70
     0
  3

  4

  5

  6

  7

 40
1.0
 41
0.18
 42
0.0625
 43
0.38
 44
0.18
 45
0.0
 46
0.0
 47
0.0
 48
0.0
140
0.18
141
0.09
142
0.0
143
25.399999999999999
144
1.0
145
0.0
146
1.0
147
0.09
 71
     0
 72
     0
 73
     1
 74
     1
 75
     0
 76
     0
 77
     0
 78
     0
170
     0
171
     2
172
     0
173
     0
174
     0
175
     0
176
     0
177
     0
178
     0
  0
DIMSTYLE
  2
BYGG-035487$0$MASKIN
 70
     0
  3

  4

  5

  6

  7

 40
0.0
 41
3.0
 42
1.5
 43
10.0
 44
1.5
 45
0.0
 46
0.0
 47
0.0
 48
0.0
140
3.0
141
-5.0
142
0.0
143
25.399999999999999
144
-1.0
145
0.0
146
1.0
147
1.0
 71
     0
 72
     0
 73
     0
 74
     0
 75
     0
 76
     0
 77
     1
 78
     8
170
     0
171
     0
172
     1
173
     0
174
     0
175
     0
176
   256
177
   256
178
     2
  0
DIMSTYLE
  2
BYGG-028980$0$STANDARD
 70
     0
  3

  4

  5

  6

  7

 40
1.0
 41
0.18
 42
0.0625
 43
0.38
 44
0.18
 45
0.0
 46
0.0
 47
0.0
 48
0.0
140
0.18
141
0.09
142
0.0
143
25.399999999999999
144
1.0
145
0.0
146
1.0
147
0.09
 71
     0
 72
     0
 73
     1
 74
     1
 75
     0
 76
     0
 77
     0
 78
     0
170
     0
171
     2
172
     0
173
     0
174
     0
175
     0
176
     0
177
     0
178
     0
  0
DIMSTYLE
  2
BYGG-028980$0$MASKIN
 70
     0
  3

  4

  5

  6

  7

 40
0.0
 41
3.0
 42
1.5
 43
10.0
 44
1.5
 45
0.0
 46
0.0
 47
0.0
 48
0.0
140
3.0
141
-5.0
142
0.0
143
25.399999999999999
144
-1.0
145
0.0
146
1.0
147
1.0
 71
     0
 72
     0
 73
     0
 74
     0
 75
     0
 76
     0
 77
     1
 78
     8
170
     0
171
     0
172
     1
173
     0
174
     0
175
     0
176
   256
177
   256
178
     2
  0
DIMSTYLE
  2
BYGG-025052$0$MASKIN
 70
     0
  3

  4

  5

  6

  7

 40
0.0
 41
3.0
 42
1.5
 43
10.0
 44
1.5
 45
0.0
 46
0.0
 47
0.0
 48
0.0
140
3.0
141
-5.0
142
0.0
143
25.399999999999999
144
-1.0
145
0.0
146
1.0
147
1.0
 71
     0
 72
     0
 73
     0
 74
     0
 75
     0
 76
     0
 77
     1
 78
     8
170
     0
171
     0
172
     1
173
     0
174
     0
175
     0
176
   256
177
   256
178
     2
  0
DIMSTYLE
  2
BYGG-025052$0$STANDARD
 70
     0
  3

  4

  5

  6

  7

 40
1.0
 41
0.18
 42
0.0625
 43
0.38
 44
0.18
 45
0.0
 46
0.0
 47
0.0
 48
0.0
140
0.18
141
0.09
142
0.0
143
25.399999999999999
144
1.0
145
0.0
146
1.0
147
0.09
 71
     0
 72
     0
 73
     1
 74
     1
 75
     0
 76
     0
 77
     0
 78
     0
170
     0
171
     2
172
     0
173
     0
174
     0
175
     0
176
     0
177
     0
178
     0
  0
DIMSTYLE
  2
BYGG-024817$0$MASKIN
 70
     0
  3

  4

  5

  6

  7

 40
0.0
 41
3.0
 42
1.5
 43
10.0
 44
1.5
 45
0.0
 46
0.0
 47
0.0
 48
0.0
140
3.0
141
-5.0
142
0.0
143
25.399999999999999
144
-1.0
145
0.0
146
1.0
147
1.0
 71
     0
 72
     0
 73
     0
 74
     0
 75
     0
 76
     0
 77
     1
 78
     8
170
     0
171
     0
172
     1
173
     0
174
     0
175
     0
176
   256
177
   256
178
     2
  0
DIMSTYLE
  2
BYGG-024817$0$STANDARD
 70
     0
  3

  4

  5

  6

  7

 40
1.0
 41
0.18
 42
0.0625
 43
0.38
 44
0.18
 45
0.0
 46
0.0
 47
0.0
 48
0.0
140
0.18
141
0.09
142
0.0
143
25.399999999999999
144
1.0
145
0.0
146
1.0
147
0.09
 71
     0
 72
     0
 73
     1
 74
     1
 75
     0
 76
     0
 77
     0
 78
     0
170
     0
171
     2
172
     0
173
     0
174
     0
175
     0
176
     0
177
     0
178
     0
  0
DIMSTYLE
  2
BYGG-014090$0$STANDARD
 70
     0
  3

  4

  5

  6

  7

 40
1.0
 41
0.18
 42
0.0625
 43
0.38
 44
0.18
 45
0.0
 46
0.0
 47
0.0
 48
0.0
140
0.18
141
0.09
142
0.0
143
25.399999999999999
144
1.0
145
0.0
146
1.0
147
0.09
 71
     0
 72
     0
 73
     1
 74
     1
 75
     0
 76
     0
 77
     0
 78
     0
170
     0
171
     2
172
     0
173
     0
174
     0
175
     0
176
     0
177
     0
178
     0
  0
DIMSTYLE
  2
BYGG-029754$0$STANDARD
 70
     0
  3

  4

  5

  6

  7

 40
1.0
 41
0.18
 42
0.0625
 43
0.38
 44
0.18
 45
0.0
 46
0.0
 47
0.0
 48
0.0
140
0.18
141
0.09
142
0.0
143
25.399999999999999
144
1.0
145
0.0
146
1.0
147
0.09
 71
     0
 72
     0
 73
     1
 74
     1
 75
     0
 76
     0
 77
     0
 78
     0
170
     0
171
     2
172
     0
173
     0
174
     0
175
     0
176
     0
177
     0
178
     0
  0
DIMSTYLE
  2
BYGG-029754$0$MASKIN
 70
     0
  3

  4

  5

  6

  7

 40
0.0
 41
3.0
 42
1.5
 43
10.0
 44
1.5
 45
0.0
 46
0.0
 47
0.0
 48
0.0
140
3.0
141
-5.0
142
0.0
143
25.399999999999999
144
-1.0
145
0.0
146
1.0
147
1.0
 71
     0
 72
     0
 73
     0
 74
     0
 75
     0
 76
     0
 77
     1
 78
     8
170
     0
171
     0
172
     1
173
     0
174
     0
175
     0
176
   256
177
   256
178
     2
  0
DIMSTYLE
  2
BYGG-00894401$0$MASKIN
 70
     0
  3

  4

  5

  6

  7

 40
0.0
 41
3.0
 42
1.5
 43
10.0
 44
1.5
 45
0.0
 46
0.0
 47
0.0
 48
0.0
140
3.0
141
-5.0
142
0.0
143
25.399999999999999
144
-1.0
145
0.0
146
1.0
147
1.0
 71
     0
 72
     0
 73
     0
 74
     0
 75
     0
 76
     0
 77
     1
 78
     8
170
     0
171
     0
172
     1
173
     0
174
     0
175
     0
176
   256
177
   256
178
     2
  0
DIMSTYLE
  2
BYGG-00894401$0$STANDARD
 70
     0
  3

  4

  5

  6

  7

 40
1.0
 41
0.18
 42
0.0625
 43
0.38
 44
0.18
 45
0.0
 46
0.0
 47
0.0
 48
0.0
140
0.18
141
0.09
142
0.0
143
25.399999999999999
144
1.0
145
0.0
146
1.0
147
0.09
 71
     0
 72
     0
 73
     1
 74
     1
 75
     0
 76
     0
 77
     0
 78
     0
170
     0
171
     2
172
     0
173
     0
174
     0
175
     0
176
     0
177
     0
178
     0
  0
DIMSTYLE
  2
BYGG-00894401$0$ANNOTATIVE
 70
     0
  3

  4

  5

  6

  7

 40
1.0
 41
0.18
 42
0.0625
 43
0.38
 44
0.18
 45
0.0
 46
0.0
 47
0.0
 48
0.0
140
0.18
141
0.09
142
0.0
143
25.399999999999999
144
1.0
145
0.0
146
1.0
147
0.09
 71
     0
 72
     0
 73
     1
 74
     1
 75
     0
 76
     0
 77
     0
 78
     0
170
     0
171
     2
172
     0
173
     0
174
     0
175
     0
176
     0
177
     0
178
     0
  0
DIMSTYLE
  2
BYGG-008943$0$MASKIN
 70
     0
  3

  4

  5

  6

  7

 40
0.0
 41
3.0
 42
1.5
 43
10.0
 44
1.5
 45
0.0
 46
0.0
 47
0.0
 48
0.0
140
3.0
141
-5.0
142
0.0
143
25.399999999999999
144
-1.0
145
0.0
146
1.0
147
1.0
 71
     0
 72
     0
 73
     0
 74
     0
 75
     0
 76
     0
 77
     1
 78
     8
170
     0
171
     0
172
     1
173
     0
174
     0
175
     0
176
   256
177
   256
178
     2
  0
DIMSTYLE
  2
BYGG-008943$0$STANDARD
 70
     0
  3

  4

  5

  6

  7

 40
1.0
 41
0.18
 42
0.0625
 43
0.38
 44
0.18
 45
0.0
 46
0.0
 47
0.0
 48
0.0
140
0.18
141
0.09
142
0.0
143
25.399999999999999
144
1.0
145
0.0
146
1.0
147
0.09
 71
     0
 72
     0
 73
     1
 74
     1
 75
     0
 76
     0
 77
     0
 78
     0
170
     0
171
     2
172
     0
173
     0
174
     0
175
     0
176
     0
177
     0
178
     0
  0
DIMSTYLE
  2
BYGG-008943$0$ANNOTATIVE
 70
     0
  3

  4

  5

  6

  7

 40
1.0
 41
0.18
 42
0.0625
 43
0.38
 44
0.18
 45
0.0
 46
0.0
 47
0.0
 48
0.0
140
0.18
141
0.09
142
0.0
143
25.399999999999999
144
1.0
145
0.0
146
1.0
147
0.09
 71
     0
 72
     0
 73
     1
 74
     1
 75
     0
 76
     0
 77
     0
 78
     0
170
     0
171
     2
172
     0
173
     0
174
     0
175
     0
176
     0
177
     0
178
     0
  0
DIMSTYLE
  2
BYGG-01409101$0$STANDARD
 70
     0
  3

  4

  5

  6

  7

 40
1.0
 41
0.18
 42
0.0625
 43
0.38
 44
0.18
 45
0.0
 46
0.0
 47
0.0
 48
0.0
140
0.18
141
0.09
142
0.0
143
25.399999999999999
144
1.0
145
0.0
146
1.0
147
0.09
 71
     0
 72
     0
 73
     1
 74
     1
 75
     0
 76
     0
 77
     0
 78
     0
170
     0
171
     2
172
     0
173
     0
174
     0
175
     0
176
     0
177
     0
178
     0
  0
DIMSTYLE
  2
BYGG-029021$0$STANDARD
 70
     0
  3

  4

  5

  6

  7

 40
1.0
 41
0.18
 42
0.0625
 43
0.38
 44
0.18
 45
0.0
 46
0.0
 47
0.0
 48
0.0
140
0.18
141
0.09
142
0.0
143
25.399999999999999
144
1.0
145
0.0
146
1.0
147
0.09
 71
     0
 72
     0
 73
     1
 74
     1
 75
     0
 76
     0
 77
     0
 78
     0
170
     0
171
     2
172
     0
173
     0
174
     0
175
     0
176
     0
177
     0
178
     0
  0
DIMSTYLE
  2
BYGG-029021$0$MASKIN
 70
     0
  3

  4

  5

  6

  7

 40
0.0
 41
3.0
 42
1.5
 43
10.0
 44
1.5
 45
0.0
 46
0.0
 47
0.0
 48
0.0
140
3.0
141
-5.0
142
0.0
143
25.399999999999999
144
-1.0
145
0.0
146
1.0
147
1.0
 71
     0
 72
     0
 73
     0
 74
     0
 75
     0
 76
     0
 77
     1
 78
     8
170
     0
171
     0
172
     1
173
     0
174
     0
175
     0
176
   256
177
   256
178
     2
  0
DIMSTYLE
  2
BYGG-029021$0$MASKIN1
 70
     0
  3

  4

  5

  6

  7

 40
0.0
 41
3.0
 42
1.5
 43
10.0
 44
1.5
 45
0.0
 46
0.0
 47
0.0
 48
0.0
140
3.0
141
-5.0
142
0.0
143
25.399999999999999
144
-1.0
145
0.0
146
1.0
147
1.0
 71
     0
 72
     0
 73
     0
 74
     0
 75
     0
 76
     0
 77
     1
 78
     8
170
     0
171
     0
172
     1
173
     0
174
     0
175
     0
176
   256
177
   256
178
   256
  0
DIMSTYLE
  2
BYGG-029021$0$COTATION_HUT
 70
     0
  3

  4

  5

  6

  7

 40
1.0
 41
0.25
 42
0.1
 43
3.75
 44
0.18
 45
0.0
 46
0.0
 47
0.0
 48
0.0
140
0.25
141
2.5
142
0.0
143
25.399999999999999
144
1.0
145
0.05
146
0.7000000000000002
147
0.09
 71
     1
 72
     0
 73
     0
 74
     0
 75
     0
 76
     0
 77
     1
 78
     0
170
     0
171
     2
172
     1
173
     0
174
     0
175
     0
176
     0
177
     0
178
     0
  0
DIMSTYLE
  2
BYGG-029021$0$ANNOTATIVE
 70
     0
  3

  4

  5

  6

  7

 40
1.0
 41
0.18
 42
0.0625
 43
0.38
 44
0.18
 45
0.0
 46
0.0
 47
0.0
 48
0.0
140
0.18
141
0.09
142
0.0
143
25.399999999999999
144
1.0
145
0.0
146
1.0
147
0.09
 71
     0
 72
     0
 73
     1
 74
     1
 75
     0
 76
     0
 77
     0
 78
     0
170
     0
171
     2
172
     0
173
     0
174
     0
175
     0
176
     0
177
     0
178
     0
  0
DIMSTYLE
  2
BYGG-024800$0$MASKIN
 70
     0
  3

  4

  5

  6

  7

 40
0.0
 41
3.0
 42
1.5
 43
10.0
 44
1.5
 45
0.0
 46
0.0
 47
0.0
 48
0.0
140
3.0
141
-5.0
142
0.0
143
25.399999999999999
144
-1.0
145
0.0
146
1.0
147
1.0
 71
     0
 72
     0
 73
     0
 74
     0
 75
     0
 76
     0
 77
     1
 78
     8
170
     0
171
     0
172
     1
173
     0
174
     0
175
     0
176
   256
177
   256
178
     2
  0
DIMSTYLE
  2
BYGG-024800$0$STANDARD
 70
     0
  3

  4

  5

  6

  7

 40
1.0
 41
0.18
 42
0.0625
 43
0.38
 44
0.18
 45
0.0
 46
0.0
 47
0.0
 48
0.0
140
0.18
141
0.09
142
0.0
143
25.399999999999999
144
1.0
145
0.0
146
1.0
147
0.09
 71
     0
 72
     0
 73
     1
 74
     1
 75
     0
 76
     0
 77
     0
 78
     0
170
     0
171
     2
172
     0
173
     0
174
     0
175
     0
176
     0
177
     0
178
     0
  0
DIMSTYLE
  2
BYGG-024807$0$MASKIN
 70
     0
  3

  4

  5

  6

  7

 40
0.0
 41
3.0
 42
1.5
 43
10.0
 44
1.5
 45
0.0
 46
0.0
 47
0.0
 48
0.0
140
3.0
141
-5.0
142
0.0
143
25.399999999999999
144
-1.0
145
0.0
146
1.0
147
1.0
 71
     0
 72
     0
 73
     0
 74
     0
 75
     0
 76
     0
 77
     1
 78
     8
170
     0
171
     0
172
     1
173
     0
174
     0
175
     0
176
   256
177
   256
178
     2
  0
DIMSTYLE
  2
BYGG-024807$0$STANDARD
 70
     0
  3

  4

  5

  6

  7

 40
1.0
 41
0.18
 42
0.0625
 43
0.38
 44
0.18
 45
0.0
 46
0.0
 47
0.0
 48
0.0
140
0.18
141
0.09
142
0.0
143
25.399999999999999
144
1.0
145
0.0
146
1.0
147
0.09
 71
     0
 72
     0
 73
     1
 74
     1
 75
     0
 76
     0
 77
     0
 78
     0
170
     0
171
     2
172
     0
173
     0
174
     0
175
     0
176
     0
177
     0
178
     0
  0
DIMSTYLE
  2
BYGG-024807$0$ANNOTATIVE
 70
     0
  3

  4

  5

  6

  7

 40
1.0
 41
0.18
 42
0.0625
 43
0.38
 44
0.18
 45
0.0
 46
0.0
 47
0.0
 48
0.0
140
0.18
141
0.09
142
0.0
143
25.399999999999999
144
1.0
145
0.0
146
1.0
147
0.09
 71
     0
 72
     0
 73
     1
 74
     1
 75
     0
 76
     0
 77
     0
 78
     0
170
     0
171
     2
172
     0
173
     0
174
     0
175
     0
176
     0
177
     0
178
     0
  0
DIMSTYLE
  2
BYGG-025652$0$STANDARD
 70
     0
  3

  4

  5

  6

  7

 40
1.0
 41
0.18
 42
0.0625
 43
0.38
 44
0.18
 45
0.0
 46
0.0
 47
0.0
 48
0.0
140
0.18
141
0.09
142
0.0
143
25.399999999999999
144
1.0
145
0.0
146
1.0
147
0.09
 71
     0
 72
     0
 73
     1
 74
     1
 75
     0
 76
     0
 77
     0
 78
     0
170
     0
171
     2
172
     0
173
     0
174
     0
175
     0
176
     0
177
     0
178
     0
  0
DIMSTYLE
  2
BYGG-025652$0$MASKIN
 70
     0
  3

  4

  5

  6

  7

 40
0.0
 41
3.0
 42
1.5
 43
10.0
 44
1.5
 45
0.0
 46
0.0
 47
0.0
 48
0.0
140
3.0
141
-5.0
142
0.0
143
25.399999999999999
144
-1.0
145
0.0
146
1.0
147
1.0
 71
     0
 72
     0
 73
     0
 74
     0
 75
     0
 76
     0
 77
     1
 78
     8
170
     0
171
     0
172
     1
173
     0
174
     0
175
     0
176
   256
177
   256
178
     2
  0
DIMSTYLE
  2
BYGG-025652$0$ANNOTATIVE
 70
     0
  3

  4

  5

  6

  7

 40
1.0
 41
0.18
 42
0.0625
 43
0.38
 44
0.18
 45
0.0
 46
0.0
 47
0.0
 48
0.0
140
0.18
141
0.09
142
0.0
143
25.399999999999999
144
1.0
145
0.0
146
1.0
147
0.09
 71
     0
 72
     0
 73
     1
 74
     1
 75
     0
 76
     0
 77
     0
 78
     0
170
     0
171
     2
172
     0
173
     0
174
     0
175
     0
176
     0
177
     0
178
     0
  0
DIMSTYLE
  2
BYGG-014411$0$MASKIN
 70
     0
  3

  4

  5

  6

  7

 40
0.0
 41
3.0
 42
1.5
 43
10.0
 44
1.5
 45
0.0
 46
0.0
 47
0.0
 48
0.0
140
3.0
141
-5.0
142
0.0
143
25.399999999999999
144
-1.0
145
0.0
146
1.0
147
1.0
 71
     0
 72
     0
 73
     0
 74
     0
 75
     0
 76
     0
 77
     1
 78
     8
170
     0
171
     0
172
     1
173
     0
174
     0
175
     0
176
   256
177
   256
178
   256
  0
DIMSTYLE
  2
BYGG-014411$0$STANDARD
 70
     0
  3

  4

  5

  6

  7

 40
1.0
 41
0.18
 42
0.0625
 43
0.38
 44
0.18
 45
0.0
 46
0.0
 47
0.0
 48
0.0
140
0.18
141
0.09
142
0.0
143
25.399999999999999
144
1.0
145
0.0
146
1.0
147
0.09
 71
     0
 72
     0
 73
     1
 74
     1
 75
     0
 76
     0
 77
     0
 78
     0
170
     0
171
     2
172
     0
173
     0
174
     0
175
     0
176
     0
177
     0
178
     0
  0
DIMSTYLE
  2
BYGG-014088$0$STANDARD
 70
     0
  3

  4

  5

  6

  7

 40
1.0
 41
0.18
 42
0.0625
 43
0.38
 44
0.18
 45
0.0
 46
0.0
 47
0.0
 48
0.0
140
0.18
141
0.09
142
0.0
143
25.399999999999999
144
1.0
145
0.0
146
1.0
147
0.09
 71
     0
 72
     0
 73
     1
 74
     1
 75
     0
 76
     0
 77
     0
 78
     0
170
     0
171
     2
172
     0
173
     0
174
     0
175
     0
176
     0
177
     0
178
     0
  0
DIMSTYLE
  2
BYGG-036382$0$STANDARD
 70
     0
  3

  4

  5

  6

  7

 40
1.0
 41
0.18
 42
0.0625
 43
0.38
 44
0.18
 45
0.0
 46
0.0
 47
0.0
 48
0.0
140
0.18
141
0.09
142
0.0
143
25.399999999999999
144
1.0
145
0.0
146
1.0
147
0.09
 71
     0
 72
     0
 73
     1
 74
     1
 75
     0
 76
     0
 77
     0
 78
     0
170
     0
171
     2
172
     0
173
     0
174
     0
175
     0
176
     0
177
     0
178
     0
  0
DIMSTYLE
  2
BYGG-036382$0$MASKIN
 70
     0
  3

  4

  5

  6

  7

 40
0.0
 41
3.0
 42
1.5
 43
10.0
 44
1.5
 45
0.0
 46
0.0
 47
0.0
 48
0.0
140
3.0
141
-5.0
142
0.0
143
25.399999999999999
144
-1.0
145
0.0
146
1.0
147
1.0
 71
     0
 72
     0
 73
     0
 74
     0
 75
     0
 76
     0
 77
     1
 78
     8
170
     0
171
     0
172
     1
173
     0
174
     0
175
     0
176
   256
177
   256
178
     2
  0
DIMSTYLE
  2
BYGG-036381$0$STANDARD
 70
     0
  3

  4

  5

  6

  7

 40
1.0
 41
0.18
 42
0.0625
 43
0.38
 44
0.18
 45
0.0
 46
0.0
 47
0.0
 48
0.0
140
0.18
141
0.09
142
0.0
143
25.399999999999999
144
1.0
145
0.0
146
1.0
147
0.09
 71
     0
 72
     0
 73
     1
 74
     1
 75
     0
 76
     0
 77
     0
 78
     0
170
     0
171
     2
172
     0
173
     0
174
     0
175
     0
176
     0
177
     0
178
     0
  0
DIMSTYLE
  2
BYGG-036381$0$MASKIN
 70
     0
  3

  4

  5

  6

  7

 40
0.0
 41
3.0
 42
1.5
 43
10.0
 44
1.5
 45
0.0
 46
0.0
 47
0.0
 48
0.0
140
3.0
141
-5.0
142
0.0
143
25.399999999999999
144
-1.0
145
0.0
146
1.0
147
1.0
 71
     0
 72
     0
 73
     0
 74
     0
 75
     0
 76
     0
 77
     1
 78
     8
170
     0
171
     0
172
     1
173
     0
174
     0
175
     0
176
   256
177
   256
178
     2
  0
ENDTAB
  0
ENDSEC
  0
SECTION
  2
BLOCKS
  0
BLOCK
  8
0
  2
$MODEL_SPACE
 70
     0
 10
0.0
 20
0.0
 30
0.0
  3
$MODEL_SPACE
  1

  0
ENDBLK
  5
37
  8
0
  0
BLOCK
 67
     1
  8
0
  2
$PAPER_SPACE
 70
     0
 10
0.0
 20
0.0
 30
0.0
  3
$PAPER_SPACE
  1

  0
ENDBLK
  5
35
 67
     1
  8
0
  0
BLOCK
  8
0
  2
*D114
 70
     1
 10
0.0
 20
0.0
 30
0.0
  3
*D114
  1

  0
LINE
  5
17AF
  8
SAPA_MATT
 10
0.0006708377662931
 20
-1.199999999675158
 30
0.0
 11
0.000670837766292
 21
-19.072573869874759
 31
0.0
  0
LINE
  5
17B0
  8
SAPA_MATT
 10
93.000670837748544
 20
-0.5000000838142569
 30
0.0
 11
93.000670837748544
 21
-19.072573869874759
 31
0.0
  0
LINE
  5
17B1
  8
SAPA_MATT
 10
3.0006708377662918
 20
-17.572573869874759
 30
0.0
 11
90.000670837748558
 21
-17.572573869874759
 31
0.0
  0
SOLID
  5
17B2
  8
SAPA_MATT
 10
3.0006708377662918
 20
-17.072573869874759
 30
0.0
 11
3.0006708377662918
 21
-18.072573869874759
 31
0.0
 12
0.0006708377662921
 22
-17.572573869874759
 32
0.0
 13
0.0006708377662921
 23
-17.572573869874759
 33
0.0
  0
SOLID
  5
17B3
  8
SAPA_MATT
 10
90.000670837748558
 20
-17.072573869874759
 30
0.0
 11
90.000670837748558
 21
-18.072573869874759
 31
0.0
 12
93.000670837748544
 22
-17.572573869874759
 32
0.0
 13
93.000670837748544
 23
-17.572573869874759
 33
0.0
  0
INSERT
  5
17B4
  8
0
  2
*U135
 10
0.0
 20
0.0
 30
0.0
  0
POINT
  5
17B5
  8
DEFPOINTS
 62
     0
 10
0.0006708377662932
 20
0.3000000003248412
 30
0.0
  0
POINT
  5
17B6
  8
DEFPOINTS
 62
     0
 10
93.000670837748544
 20
0.9999999161857431
 30
0.0
  0
POINT
  5
17B7
  8
DEFPOINTS
 62
     0
 10
93.000670837748544
 20
-17.572573869874759
 30
0.0
  0
ENDBLK
  5
174D
  8
0
  0
BLOCK
  8
0
  2
*D115
 70
     1
 10
0.0
 20
0.0
 30
0.0
  3
*D115
  1

  0
LINE
  5
17A4
  8
SAPA_MATT
 10
98.000670833837162
 20
0.499999922318267
 30
0.0
 11
98.000670833837162
 21
-19.072573869874731
 31
0.0
  0
LINE
  5
17A5
  8
SAPA_MATT
 10
93.000670837748544
 20
-0.5000000838142569
 30
0.0
 11
93.000670837748544
 21
-19.072573869874731
 31
0.0
  0
LINE
  5
17A6
  8
SAPA_MATT
 10
101.00067083383711
 20
-17.572573869874731
 30
0.0
 11
104.00067083383711
 21
-17.572573869874731
 31
0.0
  0
LINE
  5
17A7
  8
SAPA_MATT
 10
90.000670837748558
 20
-17.572573869874731
 30
0.0
 11
87.000670837748558
 21
-17.572573869874731
 31
0.0
  0
LINE
  5
17A8
  8
SAPA_MATT
 10
98.000670833837162
 20
-17.572573869874731
 30
0.0
 11
93.000670837748544
 21
-17.572573869874731
 31
0.0
  0
SOLID
  5
17A9
  8
SAPA_MATT
 10
101.00067083383711
 20
-17.072573869874731
 30
0.0
 11
101.00067083383711
 21
-18.072573869874731
 31
0.0
 12
98.000670833837162
 22
-17.572573869874731
 32
0.0
 13
98.000670833837162
 23
-17.572573869874731
 33
0.0
  0
SOLID
  5
17AA
  8
SAPA_MATT
 10
90.000670837748558
 20
-17.072573869874731
 30
0.0
 11
90.000670837748558
 21
-18.072573869874731
 31
0.0
 12
93.000670837748544
 22
-17.572573869874731
 32
0.0
 13
93.000670837748544
 23
-17.572573869874731
 33
0.0
  0
INSERT
  5
17AB
  8
0
  2
*U134
 10
0.0
 20
0.0
 30
0.0
  0
POINT
  5
17AC
  8
DEFPOINTS
 62
     0
 10
98.000670833837162
 20
1.9999999223182661
 30
0.1
  0
POINT
  5
17AD
  8
DEFPOINTS
 62
     0
 10
93.000670837748544
 20
0.9999999161857431
 30
0.0
  0
POINT
  5
17AE
  8
DEFPOINTS
 62
     0
 10
93.000670837748544
 20
-17.572573869874731
 30
0.0
  0
ENDBLK
  5
1759
  8
0
  0
BLOCK
  8
0
  2
*D116
 70
     1
 10
0.0
 20
0.0
 30
0.0
  3
*D116
  1

  0
LINE
  5
179B
  8
SAPA_MATT
 10
98.000670833837376
 20
0.4999999223182386
 30
0.0
 11
98.000670833837376
 21
-19.072573869874759
 31
0.0
  0
LINE
  5
179C
  8
SAPA_MATT
 10
187.00067083383689
 20
-0.6500000776816252
 30
0.0
 11
187.00067083383689
 21
-19.072573869874759
 31
0.0
  0
LINE
  5
179D
  8
SAPA_MATT
 10
101.0006708338373
 20
-17.572573869874759
 30
0.0
 11
184.00067083383689
 21
-17.572573869874759
 31
0.0
  0
SOLID
  5
179E
  8
SAPA_MATT
 10
101.0006708338373
 20
-17.072573869874759
 30
0.0
 11
101.0006708338373
 21
-18.072573869874759
 31
0.0
 12
98.000670833837376
 22
-17.572573869874759
 32
0.0
 13
98.000670833837376
 23
-17.572573869874759
 33
0.0
  0
SOLID
  5
179F
  8
SAPA_MATT
 10
184.00067083383689
 20
-17.072573869874759
 30
0.0
 11
184.00067083383689
 21
-18.072573869874759
 31
0.0
 12
187.00067083383689
 22
-17.572573869874759
 32
0.0
 13
187.00067083383689
 23
-17.572573869874759
 33
0.0
  0
INSERT
  5
17A0
  8
0
  2
*U133
 10
0.0
 20
0.0
 30
0.0
  0
POINT
  5
17A1
  8
DEFPOINTS
 62
     0
 10
98.000670833837376
 20
1.9999999223182381
 30
0.1
  0
POINT
  5
17A2
  8
DEFPOINTS
 62
     0
 10
187.00067083383689
 20
0.8499999223183749
 30
0.0
  0
POINT
  5
17A3
  8
DEFPOINTS
 62
     0
 10
187.00067083383689
 20
-17.572573869874759
 30
0.0
  0
ENDBLK
  5
1767
  8
0
  0
BLOCK
  8
0
  2
*D117
 70
     1
 10
0.0
 20
0.0
 30
0.0
  3
*D117
  1

  0
LINE
  5
1792
  8
SAPA_MATT
 10
0.0006708377662931
 20
-1.199999999675158
 30
0.0
 11
0.000670837766291
 21
-35.366805833946273
 31
0.0
  0
LINE
  5
1793
  8
SAPA_MATT
 10
187.00067083383689
 20
-1.000000077681761
 30
0.0
 11
187.00067083383689
 21
-35.366805833946273
 31
0.0
  0
LINE
  5
1794
  8
SAPA_MATT
 10
3.0006708377662901
 20
-33.866805833946273
 30
0.0
 11
184.00067083383689
 21
-33.866805833946273
 31
0.0
  0
SOLID
  5
1795
  8
SAPA_MATT
 10
3.0006708377662901
 20
-33.36680583394628
 30
0.0
 11
3.0006708377662901
 21
-34.36680583394628
 31
0.0
 12
0.0006708377662911
 22
-33.866805833946273
 32
0.0
 13
0.0006708377662911
 23
-33.866805833946273
 33
0.0
  0
SOLID
  5
1796
  8
SAPA_MATT
 10
184.00067083383689
 20
-33.36680583394628
 30
0.0
 11
184.00067083383689
 21
-34.36680583394628
 31
0.0
 12
187.00067083383689
 22
-33.866805833946273
 32
0.0
 13
187.00067083383689
 23
-33.866805833946273
 33
0.0
  0
INSERT
  5
1797
  8
0
  2
*U132
 10
0.0
 20
0.0
 30
0.0
  0
POINT
  5
1798
  8
DEFPOINTS
 62
     0
 10
0.0006708377662932
 20
0.3000000003248413
 30
0.0
  0
POINT
  5
1799
  8
DEFPOINTS
 62
     0
 10
187.00067083383689
 20
0.4999999223182386
 30
0.1
  0
POINT
  5
179A
  8
DEFPOINTS
 62
     0
 10
187.00067083383689
 20
-33.866805833946273
 30
0.0
  0
ENDBLK
  5
1773
  8
0
  0
BLOCK
  8
0
  2
*D118
 70
     1
 10
0.0
 20
0.0
 30
0.0
  3
*D118
  1

  0
LINE
  5
1789
  8
SAPA_MATT
 10
-36.50080534632432
 20
210.0505704458316
 30
0.0
 11
-51.65375287773464
 21
210.0505704458316
 31
0.0
  0
LINE
  5
178A
  8
SAPA_MATT
 10
-36.50080534632432
 20
10.050570445831569
 30
0.0
 11
-51.653752877734689
 21
10.050570445831569
 31
0.0
  0
LINE
  5
178B
  8
SAPA_MATT
 10
-50.153752877734661
 20
207.05057044583151
 30
0.0
 11
-50.153752877734689
 21
13.050570445831569
 31
0.0
  0
SOLID
  5
178C
  8
SAPA_MATT
 10
-50.653752877734647
 20
207.05057044583151
 30
0.0
 11
-49.653752877734647
 21
207.05057044583151
 31
0.0
 12
-50.153752877734647
 22
210.0505704458316
 32
0.0
 13
-50.153752877734647
 23
210.0505704458316
 33
0.0
  0
SOLID
  5
178D
  8
SAPA_MATT
 10
-50.653752877734703
 20
13.050570445831569
 30
0.0
 11
-49.653752877734689
 21
13.050570445831569
 31
0.0
 12
-50.153752877734689
 22
10.050570445831569
 32
0.0
 13
-50.153752877734689
 23
10.050570445831569
 33
0.0
  0
INSERT
  5
178E
  8
0
  2
*U131
 10
0.0
 20
0.0
 30
0.0
  0
POINT
  5
178F
  8
DEFPOINTS
 62
     0
 10
-35.000805346324313
 20
210.0505704458316
 30
0.0
  0
POINT
  5
1790
  8
DEFPOINTS
 62
     0
 10
-35.000805346324313
 20
10.050570445831569
 30
0.0
  0
POINT
  5
1791
  8
DEFPOINTS
 62
     0
 10
-50.153752877734689
 20
10.050570445831569
 30
0.0
  0
ENDBLK
  5
177F
  8
0
  0
BLOCK
  8
0
  2
*U119
 70
     1
 10
0.0
 20
0.0
 30
0.0
  3
*U119
  1

  0
SOLID
  5
1AF4
  8
SAPA_PROFIL
  6
CONTINUOUS
 62
     2
 10
103.8321783351801
 20
5.4326598896531708
 30
0.1
 11
103.65540163988349
 21
5.3594365849498082
 31
0.1
 12
104.0089550304768
 22
5.3594365849498082
 32
0.1
 13
104.0089550304768
 23
5.3594365849498082
 33
0.1
210
0.0
220
0.0
230
1.0
  0
SOLID
  5
1AF5
  8
SAPA_PROFIL
  6
CONTINUOUS
 62
     2
 10
103.65540163988349
 20
5.3594365849498082
 30
0.1
 11
103.5821783351801
 21
5.1826598896531708
 31
0.1
 12
104.0821783351801
 22
5.1826598896531708
 32
0.1
 13
104.0821783351801
 23
5.1826598896531708
 33
0.1
210
0.0
220
0.0
230
1.0
  0
SOLID
  5
1AF6
  8
SAPA_PROFIL
  6
CONTINUOUS
 62
     2
 10
-103.65540163988349
 20
5.3594365849498082
 30
-0.1
 11
-104.0089550304768
 21
5.3594365849498082
 31
-0.1
 12
-104.0821783351801
 22
5.1826598896531708
 32
-0.1
 13
-104.0821783351801
 23
5.1826598896531708
 33
-0.1
210
0.0
220
0.0
230
-1.0
  0
SOLID
  5
1AF7
  8
SAPA_PROFIL
  6
CONTINUOUS
 62
     2
 10
-103.65540163988349
 20
5.0058831943565352
 30
-0.1
 11
-104.0089550304768
 21
5.0058831943565352
 31
-0.1
 12
-103.8321783351801
 22
4.9326598896531708
 32
-0.1
 13
-103.8321783351801
 23
4.9326598896531708
 33
-0.1
210
0.0
220
0.0
230
-1.0
  0
SOLID
  5
1AF8
  8
SAPA_PROFIL
  6
CONTINUOUS
 62
     2
 10
103.5821783351801
 20
5.1826598896531708
 30
0.1
 11
103.65540163988349
 21
5.0058831943565352
 31
0.1
 12
104.0089550304768
 22
5.0058831943565352
 32
0.1
 13
104.0089550304768
 23
5.0058831943565352
 33
0.1
210
0.0
220
0.0
230
1.0
  0
SOLID
  5
1AF9
  8
SAPA_PROFIL
  6
CONTINUOUS
 62
     2
 10
-103.5821783351801
 20
5.1826598896531708
 30
-0.1
 11
-104.0821783351801
 21
5.1826598896531708
 31
-0.1
 12
-104.0089550304768
 22
5.0058831943565352
 32
-0.1
 13
-104.0089550304768
 23
5.0058831943565352
 33
-0.1
210
0.0
220
0.0
230
-1.0
  0
LINE
  5
1AFA
  8
SAPA_PROFIL
  6
CONTINUOUS
 62
     2
 10
103.8321783351801
 20
5.4326598896531708
 30
0.1
 11
103.65540163988349
 21
5.3594365849498082
 31
0.1
  0
LINE
  5
1AFB
  8
SAPA_PROFIL
  6
CONTINUOUS
 62
     2
 10
104.0089550304768
 20
5.3594365849498082
 30
0.1
 11
103.8321783351801
 21
5.4326598896531708
 31
0.1
  0
LINE
  5
1AFC
  8
SAPA_PROFIL
  6
CONTINUOUS
 62
     2
 10
103.65540163988349
 20
5.3594365849498082
 30
0.1
 11
103.5821783351801
 21
5.1826598896531708
 31
0.1
  0
LINE
  5
1AFD
  8
SAPA_PROFIL
  6
CONTINUOUS
 62
     2
 10
104.0089550304768
 20
5.3594365849498082
 30
0.1
 11
104.0821783351801
 21
5.1826598896531708
 31
0.1
  0
LINE
  5
1AFE
  8
SAPA_PROFIL
  6
CONTINUOUS
 62
     2
 10
104.0089550304768
 20
5.0058831943565352
 30
0.1
 11
103.8321783351801
 21
4.9326598896531708
 31
0.1
  0
LINE
  5
1AFF
  8
SAPA_PROFIL
  6
CONTINUOUS
 62
     2
 10
103.8321783351801
 20
4.9326598896531708
 30
0.1
 11
103.65540163988349
 21
5.0058831943565352
 31
0.1
  0
LINE
  5
1B00
  8
SAPA_PROFIL
  6
CONTINUOUS
 62
     2
 10
103.5821783351801
 20
5.1826598896531708
 30
0.1
 11
103.65540163988349
 21
5.0058831943565352
 31
0.1
  0
LINE
  5
1B01
  8
SAPA_PROFIL
  6
CONTINUOUS
 62
     2
 10
104.0821783351801
 20
5.1826598896531708
 30
0.1
 11
104.0089550304768
 21
5.0058831943565352
 31
0.1
  0
ENDBLK
  5
1B03
  8
0
  0
BLOCK
  8
0
  2
*U120
 70
     1
 10
0.0
 20
0.0
 30
0.0
  3
*U120
  1

  0
SOLID
  5
1C19
  8
SAPA_PROFIL
  6
CONTINUOUS
 62
     2
 10
109.0691630895754
 20
80.875620676325156
 30
0.0
 11
108.8923863942788
 21
80.802397371621794
 31
0.0
 12
109.24593978487211
 22
80.802397371621794
 32
0.0
 13
109.24593978487211
 23
80.802397371621794
 33
0.0
210
0.0
220
0.0
230
1.0
  0
SOLID
  5
1C1A
  8
SAPA_PROFIL
  6
CONTINUOUS
 62
     2
 10
108.8923863942788
 20
80.802397371621794
 30
0.0
 11
108.8191630895754
 21
80.625620676325156
 31
0.0
 12
109.3191630895755
 22
80.625620676325156
 32
0.0
 13
109.3191630895755
 23
80.625620676325156
 33
0.0
210
0.0
220
0.0
230
1.0
  0
SOLID
  5
1C1B
  8
SAPA_PROFIL
  6
CONTINUOUS
 62
     2
 10
-108.8923863942788
 20
80.802397371621794
 30
0.0
 11
-109.24593978487211
 21
80.802397371621794
 31
0.0
 12
-109.3191630895755
 22
80.625620676325156
 32
0.0
 13
-109.3191630895755
 23
80.625620676325156
 33
0.0
210
0.0
220
0.0
230
-1.0
  0
SOLID
  5
1C1C
  8
SAPA_PROFIL
  6
CONTINUOUS
 62
     2
 10
-108.8923863942788
 20
80.448843981028503
 30
0.0
 11
-109.24593978487211
 21
80.448843981028503
 31
0.0
 12
-109.0691630895754
 22
80.375620676325156
 32
0.0
 13
-109.0691630895754
 23
80.375620676325156
 33
0.0
210
0.0
220
0.0
230
-1.0
  0
SOLID
  5
1C1D
  8
SAPA_PROFIL
  6
CONTINUOUS
 62
     2
 10
108.8191630895754
 20
80.625620676325156
 30
0.0
 11
108.8923863942788
 21
80.448843981028503
 31
0.0
 12
109.24593978487211
 22
80.448843981028503
 32
0.0
 13
109.24593978487211
 23
80.448843981028503
 33
0.0
210
0.0
220
0.0
230
1.0
  0
SOLID
  5
1C1E
  8
SAPA_PROFIL
  6
CONTINUOUS
 62
     2
 10
-108.8191630895754
 20
80.625620676325156
 30
0.0
 11
-109.3191630895755
 21
80.625620676325156
 31
0.0
 12
-109.24593978487211
 22
80.448843981028503
 32
0.0
 13
-109.24593978487211
 23
80.448843981028503
 33
0.0
210
0.0
220
0.0
230
-1.0
  0
LINE
  5
1C1F
  8
SAPA_PROFIL
  6
CONTINUOUS
 62
     2
 10
109.0691630895754
 20
80.875620676325156
 30
0.0
 11
108.8923863942788
 21
80.802397371621794
 31
0.0
  0
LINE
  5
1C20
  8
SAPA_PROFIL
  6
CONTINUOUS
 62
     2
 10
109.24593978487211
 20
80.802397371621794
 30
0.0
 11
109.0691630895754
 21
80.875620676325156
 31
0.0
  0
LINE
  5
1C21
  8
SAPA_PROFIL
  6
CONTINUOUS
 62
     2
 10
108.8923863942788
 20
80.802397371621794
 30
0.0
 11
108.8191630895754
 21
80.625620676325156
 31
0.0
  0
LINE
  5
1C22
  8
SAPA_PROFIL
  6
CONTINUOUS
 62
     2
 10
109.24593978487211
 20
80.802397371621794
 30
0.0
 11
109.3191630895755
 21
80.625620676325156
 31
0.0
  0
LINE
  5
1C23
  8
SAPA_PROFIL
  6
CONTINUOUS
 62
     2
 10
109.24593978487211
 20
80.448843981028503
 30
0.0
 11
109.0691630895754
 21
80.375620676325156
 31
0.0
  0
LINE
  5
1C24
  8
SAPA_PROFIL
  6
CONTINUOUS
 62
     2
 10
109.0691630895754
 20
80.375620676325156
 30
0.0
 11
108.8923863942788
 21
80.448843981028503
 31
0.0
  0
LINE
  5
1C25
  8
SAPA_PROFIL
  6
CONTINUOUS
 62
     2
 10
108.8191630895754
 20
80.625620676325156
 30
0.0
 11
108.8923863942788
 21
80.448843981028503
 31
0.0
  0
LINE
  5
1C26
  8
SAPA_PROFIL
  6
CONTINUOUS
 62
     2
 10
109.3191630895755
 20
80.625620676325156
 30
0.0
 11
109.24593978487211
 21
80.448843981028503
 31
0.0
  0
ENDBLK
  5
1C28
  8
0
  0
BLOCK
  8
0
  2
*U121
 70
     1
 10
0.0
 20
0.0
 30
0.0
  3
*U121
  1

  0
SOLID
  5
20CC
  8
SAPA_PROFIL
  6
CONTINUOUS
 62
     2
 10
103.8321783351801
 20
5.4326598896531708
 30
0.1
 11
103.65540163988349
 21
5.3594365849498082
 31
0.1
 12
104.0089550304768
 22
5.3594365849498082
 32
0.1
 13
104.0089550304768
 23
5.3594365849498082
 33
0.1
210
0.0
220
0.0
230
1.0
  0
SOLID
  5
20CD
  8
SAPA_PROFIL
  6
CONTINUOUS
 62
     2
 10
103.65540163988349
 20
5.3594365849498082
 30
0.1
 11
103.5821783351801
 21
5.1826598896531708
 31
0.1
 12
104.0821783351801
 22
5.1826598896531708
 32
0.1
 13
104.0821783351801
 23
5.1826598896531708
 33
0.1
210
0.0
220
0.0
230
1.0
  0
SOLID
  5
20CE
  8
SAPA_PROFIL
  6
CONTINUOUS
 62
     2
 10
-103.65540163988349
 20
5.3594365849498082
 30
-0.1
 11
-104.0089550304768
 21
5.3594365849498082
 31
-0.1
 12
-104.0821783351801
 22
5.1826598896531708
 32
-0.1
 13
-104.0821783351801
 23
5.1826598896531708
 33
-0.1
210
0.0
220
0.0
230
-1.0
  0
SOLID
  5
20CF
  8
SAPA_PROFIL
  6
CONTINUOUS
 62
     2
 10
-103.65540163988349
 20
5.0058831943565352
 30
-0.1
 11
-104.0089550304768
 21
5.0058831943565352
 31
-0.1
 12
-103.8321783351801
 22
4.9326598896531708
 32
-0.1
 13
-103.8321783351801
 23
4.9326598896531708
 33
-0.1
210
0.0
220
0.0
230
-1.0
  0
SOLID
  5
20D0
  8
SAPA_PROFIL
  6
CONTINUOUS
 62
     2
 10
103.5821783351801
 20
5.1826598896531708
 30
0.1
 11
103.65540163988349
 21
5.0058831943565352
 31
0.1
 12
104.0089550304768
 22
5.0058831943565352
 32
0.1
 13
104.0089550304768
 23
5.0058831943565352
 33
0.1
210
0.0
220
0.0
230
1.0
  0
SOLID
  5
20D1
  8
SAPA_PROFIL
  6
CONTINUOUS
 62
     2
 10
-103.5821783351801
 20
5.1826598896531708
 30
-0.1
 11
-104.0821783351801
 21
5.1826598896531708
 31
-0.1
 12
-104.0089550304768
 22
5.0058831943565352
 32
-0.1
 13
-104.0089550304768
 23
5.0058831943565352
 33
-0.1
210
0.0
220
0.0
230
-1.0
  0
LINE
  5
20D2
  8
SAPA_PROFIL
  6
CONTINUOUS
 62
     2
 10
103.8321783351801
 20
5.4326598896531708
 30
0.1
 11
103.65540163988349
 21
5.3594365849498082
 31
0.1
  0
LINE
  5
20D3
  8
SAPA_PROFIL
  6
CONTINUOUS
 62
     2
 10
104.0089550304768
 20
5.3594365849498082
 30
0.1
 11
103.8321783351801
 21
5.4326598896531708
 31
0.1
  0
LINE
  5
20D4
  8
SAPA_PROFIL
  6
CONTINUOUS
 62
     2
 10
103.65540163988349
 20
5.3594365849498082
 30
0.1
 11
103.5821783351801
 21
5.1826598896531708
 31
0.1
  0
LINE
  5
20D5
  8
SAPA_PROFIL
  6
CONTINUOUS
 62
     2
 10
104.0089550304768
 20
5.3594365849498082
 30
0.1
 11
104.0821783351801
 21
5.1826598896531708
 31
0.1
  0
LINE
  5
20D6
  8
SAPA_PROFIL
  6
CONTINUOUS
 62
     2
 10
104.0089550304768
 20
5.0058831943565352
 30
0.1
 11
103.8321783351801
 21
4.9326598896531708
 31
0.1
  0
LINE
  5
20D7
  8
SAPA_PROFIL
  6
CONTINUOUS
 62
     2
 10
103.8321783351801
 20
4.9326598896531708
 30
0.1
 11
103.65540163988349
 21
5.0058831943565352
 31
0.1
  0
LINE
  5
20D8
  8
SAPA_PROFIL
  6
CONTINUOUS
 62
     2
 10
103.5821783351801
 20
5.1826598896531708
 30
0.1
 11
103.65540163988349
 21
5.0058831943565352
 31
0.1
  0
LINE
  5
20D9
  8
SAPA_PROFIL
  6
CONTINUOUS
 62
     2
 10
104.0821783351801
 20
5.1826598896531708
 30
0.1
 11
104.0089550304768
 21
5.0058831943565352
 31
0.1
  0
ENDBLK
  5
20DB
  8
0
  0
BLOCK
  8
0
  2
*U122
 70
     1
 10
0.0
 20
0.0
 30
0.0
  3
*U122
  1

  0
SOLID
  5
21F1
  8
SAPA_PROFIL
  6
CONTINUOUS
 62
     2
 10
109.0691630895754
 20
80.875620676325156
 30
0.0
 11
108.8923863942788
 21
80.802397371621794
 31
0.0
 12
109.24593978487211
 22
80.802397371621794
 32
0.0
 13
109.24593978487211
 23
80.802397371621794
 33
0.0
210
0.0
220
0.0
230
1.0
  0
SOLID
  5
21F2
  8
SAPA_PROFIL
  6
CONTINUOUS
 62
     2
 10
108.8923863942788
 20
80.802397371621794
 30
0.0
 11
108.8191630895754
 21
80.625620676325156
 31
0.0
 12
109.3191630895755
 22
80.625620676325156
 32
0.0
 13
109.3191630895755
 23
80.625620676325156
 33
0.0
210
0.0
220
0.0
230
1.0
  0
SOLID
  5
21F3
  8
SAPA_PROFIL
  6
CONTINUOUS
 62
     2
 10
-108.8923863942788
 20
80.802397371621794
 30
0.0
 11
-109.24593978487211
 21
80.802397371621794
 31
0.0
 12
-109.3191630895755
 22
80.625620676325156
 32
0.0
 13
-109.3191630895755
 23
80.625620676325156
 33
0.0
210
0.0
220
0.0
230
-1.0
  0
SOLID
  5
21F4
  8
SAPA_PROFIL
  6
CONTINUOUS
 62
     2
 10
-108.8923863942788
 20
80.448843981028503
 30
0.0
 11
-109.24593978487211
 21
80.448843981028503
 31
0.0
 12
-109.0691630895754
 22
80.375620676325156
 32
0.0
 13
-109.0691630895754
 23
80.375620676325156
 33
0.0
210
0.0
220
0.0
230
-1.0
  0
SOLID
  5
21F5
  8
SAPA_PROFIL
  6
CONTINUOUS
 62
     2
 10
108.8191630895754
 20
80.625620676325156
 30
0.0
 11
108.8923863942788
 21
80.448843981028503
 31
0.0
 12
109.24593978487211
 22
80.448843981028503
 32
0.0
 13
109.24593978487211
 23
80.448843981028503
 33
0.0
210
0.0
220
0.0
230
1.0
  0
SOLID
  5
21F6
  8
SAPA_PROFIL
  6
CONTINUOUS
 62
     2
 10
-108.8191630895754
 20
80.625620676325156
 30
0.0
 11
-109.3191630895755
 21
80.625620676325156
 31
0.0
 12
-109.24593978487211
 22
80.448843981028503
 32
0.0
 13
-109.24593978487211
 23
80.448843981028503
 33
0.0
210
0.0
220
0.0
230
-1.0
  0
LINE
  5
21F7
  8
SAPA_PROFIL
  6
CONTINUOUS
 62
     2
 10
109.0691630895754
 20
80.875620676325156
 30
0.0
 11
108.8923863942788
 21
80.802397371621794
 31
0.0
  0
LINE
  5
21F8
  8
SAPA_PROFIL
  6
CONTINUOUS
 62
     2
 10
109.24593978487211
 20
80.802397371621794
 30
0.0
 11
109.0691630895754
 21
80.875620676325156
 31
0.0
  0
LINE
  5
21F9
  8
SAPA_PROFIL
  6
CONTINUOUS
 62
     2
 10
108.8923863942788
 20
80.802397371621794
 30
0.0
 11
108.8191630895754
 21
80.625620676325156
 31
0.0
  0
LINE
  5
21FA
  8
SAPA_PROFIL
  6
CONTINUOUS
 62
     2
 10
109.24593978487211
 20
80.802397371621794
 30
0.0
 11
109.3191630895755
 21
80.625620676325156
 31
0.0
  0
LINE
  5
21FB
  8
SAPA_PROFIL
  6
CONTINUOUS
 62
     2
 10
109.24593978487211
 20
80.448843981028503
 30
0.0
 11
109.0691630895754
 21
80.375620676325156
 31
0.0
  0
LINE
  5
21FC
  8
SAPA_PROFIL
  6
CONTINUOUS
 62
     2
 10
109.0691630895754
 20
80.375620676325156
 30
0.0
 11
108.8923863942788
 21
80.448843981028503
 31
0.0
  0
LINE
  5
21FD
  8
SAPA_PROFIL
  6
CONTINUOUS
 62
     2
 10
108.8191630895754
 20
80.625620676325156
 30
0.0
 11
108.8923863942788
 21
80.448843981028503
 31
0.0
  0
LINE
  5
21FE
  8
SAPA_PROFIL
  6
CONTINUOUS
 62
     2
 10
109.3191630895755
 20
80.625620676325156
 30
0.0
 11
109.24593978487211
 21
80.448843981028503
 31
0.0
  0
ENDBLK
  5
2200
  8
0
  0
BLOCK
  8
0
  2
*X123
 70
     1
 10
0.0
 20
0.0
 30
0.0
  3
*X123
  1

  0
LINE
  5
2472
  8
0
 62
     0
 10
3.5102647214544458
 20
215.6312343541002
 30
0.0
 11
3.2539196745388761
 21
215.77923523594231
 31
0.0
  0
LINE
  5
2473
  8
0
 62
     0
 10
5.5724877142161393
 20
214.44060935410019
 30
0.0
 11
4.8850800499622409
 21
214.8374843541001
 31
0.0
  0
LINE
  5
2474
  8
0
 62
     0
 10
7.487139446149996
 20
213.33518466126381
 30
0.0
 11
6.9473030427239344
 21
213.6468593541002
 31
0.0
  0
LINE
  5
2475
  8
0
 62
     0
 10
2.8228572214544658
 20
214.4406096385963
 30
0.0
 11
2.1354495572005678
 21
214.83748463859629
 31
0.0
  0
LINE
  5
2476
  8
0
 62
     0
 10
4.885080214216158
 20
213.24998463859629
 30
0.0
 11
4.1976725499622614
 21
213.64685963859631
 31
0.0
  0
LINE
  5
2477
  8
0
 62
     0
 10
6.9473032069778506
 20
212.05935963859631
 30
0.0
 11
6.2598955427239531
 21
212.4562346385963
 31
0.0
  0
LINE
  5
2478
  8
0
 62
     0
 10
2.1354497214544419
 20
213.2499849230924
 30
0.0
 11
1.549276849420566
 21
213.58841198855279
 31
0.0
  0
LINE
  5
2479
  8
0
 62
     0
 10
4.1976727142161341
 20
212.05935992309239
 30
0.0
 11
3.510265049962237
 21
212.45623492309241
 31
0.0
  0
LINE
  5
247A
  8
0
 62
     0
 10
6.2598957069778267
 20
210.8687349230924
 30
0.0
 11
5.5724880427239301
 21
211.2656099230924
 31
0.0
  0
LINE
  5
247B
  8
0
 62
     0
 10
3.5102652142161288
 20
210.86873520758849
 30
0.0
 11
2.8228575499622321
 21
211.26561020758851
 31
0.0
  0
LINE
  5
247C
  8
0
 62
     0
 10
3.5102913305858841
 20
214.83746956030311
 30
0.0
 11
2.8228836663319861
 21
214.440594560303
 31
0.0
  0
LINE
  5
247D
  8
0
 62
     0
 10
5.3821038758320583
 20
215.91816103717341
 30
0.0
 11
4.8851066590936814
 21
215.63121956030301
 31
0.0
  0
LINE
  5
247E
  8
0
 62
     0
 10
2.135475837824222
 20
212.45621984479919
 30
0.0
 11
1.633858113401113
 21
212.16661071657319
 31
0.0
  0
LINE
  5
247F
  8
0
 62
     0
 10
4.1976988305859173
 20
213.64684484479909
 30
0.0
 11
3.510291166332018
 21
213.24996984479921
 31
0.0
  0
LINE
  5
2480
  8
0
 62
     0
 10
6.2599218233476117
 20
214.8374698447991
 30
0.0
 11
5.5725141590937142
 21
214.44059484479919
 31
0.0
  0
LINE
  5
2481
  8
0
 62
     0
 10
2.8228833378241931
 20
211.26559512929529
 30
0.0
 11
2.3292297322314179
 21
210.98058408721991
 31
0.0
  0
LINE
  5
2482
  8
0
 62
     0
 10
4.8851063305858879
 20
212.4562201292953
 30
0.0
 11
4.1976986663319904
 21
212.05934512929531
 31
0.0
  0
LINE
  5
2483
  8
0
 62
     0
 10
6.9473293233475841
 20
213.6468451292952
 30
0.0
 11
6.2599216590936848
 21
213.24997012929521
 31
0.0
  0
LINE
  5
2484
  8
0
 62
     0
 10
5.5725138305859234
 20
211.26559541379129
 30
0.0
 11
4.8851061663320241
 21
210.86872041379129
 31
0.0
  0
LINE
  5
2485
  8
0
 62
     0
 10
7.4123026818286943
 20
212.32779800230841
 30
0.0
 11
6.9473291590937203
 21
212.05934541379131
 31
0.0
  0
LINE
  5
2486
  8
0
 62
     0
 10
6.2599208378241622
 20
214.83750000138539
 30
0.0
 11
6.2599208378241622
 21
215.4805991365233
 31
0.0
  0
LINE
  5
2487
  8
0
 62
     0
 10
6.2599208378241622
 20
212.4562500013854
 30
0.0
 11
6.2599208378241622
 21
213.25000000138539
 31
0.0
  0
LINE
  5
2488
  8
0
 62
     0
 10
6.2599208378241622
 20
210.62054175514041
 30
0.0
 11
6.2599208378241622
 21
210.86875000138539
 31
0.0
  0
LINE
  5
2489
  8
0
 62
     0
 10
4.8851058378241641
 20
214.83750000138539
 30
0.0
 11
4.8851058378241641
 21
215.63125000138541
 31
0.0
  0
LINE
  5
248A
  8
0
 62
     0
 10
4.8851058378241641
 20
212.4562500013854
 30
0.0
 11
4.8851058378241641
 21
213.25000000138539
 31
0.0
  0
LINE
  5
248B
  8
0
 62
     0
 10
4.8851058378241641
 20
210.07530411644331
 30
0.0
 11
4.8851058378241641
 21
210.86875000138539
 31
0.0
  0
LINE
  5
248C
  8
0
 62
     0
 10
3.5102908378241651
 20
214.83750000138539
 30
0.0
 11
3.5102908378241651
 21
215.63125000138541
 31
0.0
  0
LINE
  5
248D
  8
0
 62
     0
 10
3.5102908378241651
 20
212.4562500013854
 30
0.0
 11
3.5102908378241651
 21
213.25000000138539
 31
0.0
  0
LINE
  5
248E
  8
0
 62
     0
 10
3.5102908378241651
 20
210.21876052008591
 30
0.0
 11
3.5102908378241651
 21
210.86875000138539
 31
0.0
  0
LINE
  5
248F
  8
0
 62
     0
 10
2.1354758378241532
 20
214.83750000138539
 30
0.0
 11
2.1354758378241532
 21
214.89606566713809
 31
0.0
  0
LINE
  5
2490
  8
0
 62
     0
 10
2.1354758378241532
 20
212.4562500013854
 30
0.0
 11
2.1354758378241532
 21
213.25000000138539
 31
0.0
  0
ENDBLK
  5
2492
  8
0
  0
BLOCK
  8
0
  2
*X124
 70
     1
 10
0.0
 20
0.0
 30
0.0
  3
*X124
  1

  0
LINE
  5
2494
  8
0
 62
     0
 10
0.3771446409770078
 20
217.04983257399519
 30
0.0
 11
-0.334867367255594
 21
216.33782056576251
 31
0.0
  0
LINE
  5
2495
  8
0
 62
     0
 10
0.9384106485438259
 20
216.48856656642829
 30
0.0
 11
-0.7457426013557438
 21
214.8044133165287
 31
0.0
  0
LINE
  5
2496
  8
0
 62
     0
 10
1.499676656110644
 20
215.9273005588615
 30
0.0
 11
-1.1566178354559069
 21
213.27100606729491
 31
0.0
  0
LINE
  5
2497
  8
0
 62
     0
 10
2.2901956838649151
 20
215.59528757148209
 30
0.0
 11
-1.5674930695560609
 21
211.73759881806109
 31
0.0
  0
LINE
  5
2498
  8
0
 62
     0
 10
1.588464412087162
 20
213.7710242845707
 30
0.0
 11
-1.978368303656225
 21
210.2041915688273
 31
0.0
  0
LINE
  5
2499
  8
0
 62
     0
 10
3.8680105733481831
 20
216.0505704458318
 30
0.0
 11
3.7802169991095651
 21
215.96277687159309
 31
0.0
  0
LINE
  5
249A
  8
0
 62
     0
 10
1.535397941426264
 20
212.5954257987762
 30
0.0
 11
-1.0094574115184181
 21
210.05057044583151
 31
0.0
  0
LINE
  5
249B
  8
0
 62
     0
 10
1.8022170962703641
 20
211.7397129384866
 30
0.0
 11
0.1130746036152175
 21
210.05057044583151
 31
0.0
  0
LINE
  5
249C
  8
0
 62
     0
 10
2.2509624862399491
 20
211.06592631332251
 30
0.0
 11
1.235606618748871
 21
210.05057044583151
 31
0.0
  0
LINE
  5
249D
  8
0
 62
     0
 10
2.8518611756264138
 20
210.5442929875754
 30
0.0
 11
2.3581386338825041
 21
210.05057044583151
 31
0.0
  0
LINE
  5
249E
  8
0
 62
     0
 10
3.6145310399603612
 20
210.1844308367757
 30
0.0
 11
3.4806706490161581
 21
210.05057044583151
 31
0.0
  0
LINE
  5
249F
  8
0
 62
     0
 10
3.6848287857915798
 20
215.9375068403674
 30
0.0
 11
3.571765180327346
 21
216.05057044583171
 31
0.0
  0
LINE
  5
24A0
  8
0
 62
     0
 10
2.907330813347329
 20
215.59247279767811
 30
0.0
 11
2.6199267483533641
 21
215.87987686267201
 31
0.0
  0
LINE
  5
24A1
  8
0
 62
     0
 10
2.2941498095657371
 20
215.08312178632599
 30
0.0
 11
-0.0444397169043924
 21
217.42171131279611
 31
0.0
  0
LINE
  5
24A2
  8
0
 62
     0
 10
1.832575726653644
 20
214.4221638541045
 30
0.0
 11
-0.2816586439154918
 21
216.5363982246736
 31
0.0
  0
LINE
  5
24A3
  8
0
 62
     0
 10
1.5484351352526169
 20
213.58377243037191
 30
0.0
 11
-0.5188775709265771
 21
215.65108513655099
 31
0.0
  0
LINE
  5
24A4
  8
0
 62
     0
 10
1.5618434346994401
 20
212.4478321157913
 30
0.0
 11
-0.7560964979376763
 21
214.76577204842849
 31
0.0
  0
LINE
  5
24A5
  8
0
 62
     0
 10
3.9591051046593568
 20
210.0505704458314
 30
0.0
 11
3.8979325078085192
 21
210.11174304268229
 31
0.0
  0
LINE
  5
24A6
  8
0
 62
     0
 10
2.836573089525714
 20
210.0505704458314
 30
0.0
 11
-0.9933154249487898
 21
213.88045896030599
 31
0.0
  0
LINE
  5
24A7
  8
0
 62
     0
 10
1.7140410743920711
 20
210.05057044583151
 30
0.0
 11
-1.230534351959889
 21
212.9951458721834
 31
0.0
  0
LINE
  5
24A8
  8
0
 62
     0
 10
0.591509059258442
 20
210.0505704458314
 30
0.0
 11
-1.46775327897096
 21
212.1098327840609
 31
0.0
  0
LINE
  5
24A9
  8
0
 62
     0
 10
-0.5310229558752014
 20
210.0505704458314
 30
0.0
 11
-1.7049722059820871
 21
211.2245196959384
 31
0.0
  0
LINE
  5
24AA
  8
0
 62
     0
 10
-1.653554971008844
 20
210.0505704458314
 30
0.0
 11
-1.9421911329931729
 21
210.3392066078157
 31
0.0
  0
ENDBLK
  5
24AC
  8
0
  0
BLOCK
  8
0
  2
*X125
 70
     1
 10
0.0
 20
0.0
 30
0.0
  3
*X125
  1

  0
LINE
  5
24AE
  8
0
 62
     0
 10
-2.2266400797577708
 20
10.05057044583145
 30
0.0
 11
-2.4868746451187671
 21
9.7903358804704617
 31
0.0
  0
LINE
  5
24AF
  8
0
 62
     0
 10
-1.1041080646241279
 20
10.05057044583145
 30
0.0
 11
-2.2496557181076069
 21
8.9050227923479746
 31
0.0
  0
LINE
  5
24B0
  8
0
 62
     0
 10
0.018423950509515
 20
10.05057044583145
 30
0.0
 11
-2.012436791096448
 21
8.0197097042254946
 31
0.0
  0
LINE
  5
24B1
  8
0
 62
     0
 10
1.140955965643158
 20
10.05057044583145
 30
0.0
 11
-1.7752178640852949
 21
7.134396616103003
 31
0.0
  0
LINE
  5
24B2
  8
0
 62
     0
 10
2.2634879807768011
 20
10.05057044583145
 30
0.0
 11
-1.5379989370741349
 21
6.2490835279805159
 31
0.0
  0
LINE
  5
24B3
  8
0
 62
     0
 10
3.386019995910444
 20
10.05057044583145
 30
0.0
 11
-1.3007800100629821
 21
5.3637704398580288
 31
0.0
  0
LINE
  5
24B4
  8
0
 62
     0
 10
4.5085520110440882
 20
10.05057044583145
 30
0.0
 11
-1.0635610830518261
 21
4.4784573517355417
 31
0.0
  0
LINE
  5
24B5
  8
0
 62
     0
 10
5.6310840261777306
 20
10.05057044583145
 30
0.0
 11
-0.8263421560406669
 21
3.593144263613048
 31
0.0
  0
LINE
  5
24B6
  8
0
 62
     0
 10
4.222152962766212
 20
7.519107367286284
 30
0.0
 11
-0.5891232290295143
 21
2.7078311754905608
 31
0.0
  0
LINE
  5
24B7
  8
0
 62
     0
 10
6.7536160413113739
 20
10.05057044583145
 30
0.0
 11
6.4580597943225078
 21
9.7550141988425807
 31
0.0
  0
LINE
  5
24B8
  8
0
 62
     0
 10
3.9278817500286669
 20
6.1023041394150956
 30
0.0
 11
-0.3519043020183581
 21
1.822518087368074
 31
0.0
  0
LINE
  5
24B9
  8
0
 62
     0
 10
7.8761480564450208
 20
10.05057044583145
 30
0.0
 11
7.8748630221936997
 21
10.049285411580129
 31
0.0
  0
LINE
  5
24BA
  8
0
 62
     0
 10
4.0316979009754901
 20
5.0835882752282764
 30
0.0
 11
-0.1146853750071983
 21
0.9372049992455906
 31
0.0
  0
LINE
  5
24BB
  8
0
 62
     0
 10
4.3231195144172778
 20
4.2524778735364199
 30
0.0
 11
2.0206416424550109
 21
1.9500000015741561
 31
0.0
  0
LINE
  5
24BC
  8
0
 62
     0
 10
4.748100217880264
 20
3.5549265618657619
 30
0.0
 11
3.1431736575886542
 21
1.950000001574153
 31
0.0
  0
LINE
  5
24BD
  8
0
 62
     0
 10
5.2874756840271502
 20
2.9717700128790052
 30
0.0
 11
4.2657056727223006
 21
1.9500000015741561
 31
0.0
  0
LINE
  5
24BE
  8
0
 62
     0
 10
5.9385316802961832
 20
2.500293994014398
 30
0.0
 11
5.3882376878559413
 21
1.950000001574153
 31
0.0
  0
LINE
  5
24BF
  8
0
 62
     0
 10
6.7130111385712636
 20
2.152241437155836
 30
0.0
 11
6.5107697029895881
 21
1.9500000015741561
 31
0.0
  0
LINE
  5
24C0
  8
0
 62
     0
 10
7.6467762423889196
 20
1.9634745258398381
 30
0.0
 11
7.6333017181232341
 21
1.950000001574153
 31
0.0
  0
LINE
  5
24C1
  8
0
 62
     0
 10
7.4551017281398506
 20
10.016820520857561
 30
0.0
 11
7.4213518031659538
 21
10.050570445831459
 31
0.0
  0
LINE
  5
24C2
  8
0
 62
     0
 10
6.5561669331677299
 20
9.7932233006960487
 30
0.0
 11
6.2988197880323318
 21
10.05057044583145
 31
0.0
  0
LINE
  5
24C3
  8
0
 62
     0
 10
5.8067367230589824
 20
9.4201214956711468
 30
0.0
 11
5.1762877728986751
 21
10.05057044583145
 31
0.0
  0
LINE
  5
24C4
  8
0
 62
     0
 10
5.1771831219568512
 20
8.9271430816396418
 30
0.0
 11
4.053755757765038
 21
10.05057044583145
 31
0.0
  0
LINE
  5
24C5
  8
0
 62
     0
 10
4.6587853124738601
 20
8.3230088759889824
 30
0.0
 11
2.9312237426313952
 21
10.05057044583145
 31
0.0
  0
LINE
  5
24C6
  8
0
 62
     0
 10
4.2569099388673797
 20
7.6023522344618177
 30
0.0
 11
1.8086917274977381
 21
10.050570445831459
 31
0.0
  0
LINE
  5
24C7
  8
0
 62
     0
 10
3.9950332371579611
 20
6.741696921037593
 30
0.0
 11
0.6861597123641019
 21
10.05057044583145
 31
0.0
  0
LINE
  5
24C8
  8
0
 62
     0
 10
3.939722207561565
 20
5.6744759355003458
 30
0.0
 11
-0.4363723027695415
 21
10.05057044583145
 31
0.0
  0
LINE
  5
24C9
  8
0
 62
     0
 10
7.6641981414877591
 20
1.950000001574153
 30
0.0
 11
7.6510726497035426
 21
1.9631254933583691
 31
0.0
  0
LINE
  5
24CA
  8
0
 62
     0
 10
4.4096771817841889
 20
4.0819889461440786
 30
0.0
 11
-1.5589043179031841
 21
10.050570445831459
 31
0.0
  0
LINE
  5
24CB
  8
0
 62
     0
 10
6.5416661263541149
 20
1.950000001574153
 30
0.0
 11
6.0585856603472763
 21
2.4330804675809921
 31
0.0
  0
LINE
  5
24CC
  8
0
 62
     0
 10
5.4191341112204716
 20
1.950000001574153
 30
0.0
 11
-2.5109125866025011
 21
9.8800466993971252
 31
0.0
  0
LINE
  5
24CD
  8
0
 62
     0
 10
4.2966020960868292
 20
1.9500000015741461
 30
0.0
 11
-2.1000373525021701
 21
8.3466394501631456
 31
0.0
  0
LINE
  5
24CE
  8
0
 62
     0
 10
3.174070080953185
 20
1.950000001574153
 30
0.0
 11
-1.6891621184018391
 21
6.8132322009291784
 31
0.0
  0
LINE
  5
24CF
  8
0
 62
     0
 10
2.0515380658195421
 20
1.9500000015741461
 30
0.0
 11
-1.2782868843015081
 21
5.2798249516951961
 31
0.0
  0
LINE
  5
24D0
  8
0
 62
     0
 10
1.102195363757303
 20
1.776810688502749
 30
0.0
 11
-0.8674116502011771
 21
3.7464177024612288
 31
0.0
  0
LINE
  5
24D1
  8
0
 62
     0
 10
0.5409293561904818
 20
1.2155446809359201
 30
0.0
 11
-0.4565364161008461
 21
2.2130104532272479
 31
0.0
  0
LINE
  5
24D2
  8
0
 62
     0
 10
0.0091272352823424
 20
0.6248147867104166
 30
0.0
 11
-0.0456611820005222
 21
0.6796032039932812
 31
0.0
  0
ENDBLK
  5
24D4
  8
0
  0
BLOCK
  8
0
  2
*X126
 70
     1
 10
0.0
 20
0.0
 30
0.0
  3
*X126
  1

  0
LINE
  5
24D6
  8
0
 62
     0
 10
8.3221290477350625
 20
9.6656278463464691
 30
0.0
 11
7.6749131381705871
 21
10.03929812595733
 31
0.0
  0
LINE
  5
24D7
  8
0
 62
     0
 10
10.384352040496751
 20
8.4750028463464666
 30
0.0
 11
9.6969443762428575
 21
8.871877846346468
 31
0.0
  0
LINE
  5
24D8
  8
0
 62
     0
 10
7.6347215477350634
 20
8.4750031308425715
 30
0.0
 11
6.947313883481165
 21
8.8718781308425712
 31
0.0
  0
LINE
  5
24D9
  8
0
 62
     0
 10
9.6969445404967551
 20
7.284378130842569
 30
0.0
 11
9.0095368762428585
 21
7.6812531308425704
 31
0.0
  0
LINE
  5
24DA
  8
0
 62
     0
 10
11.75916753325845
 20
6.0937531308425674
 30
0.0
 11
11.07175986900455
 21
6.4906281308425671
 31
0.0
  0
LINE
  5
24DB
  8
0
 62
     0
 10
4.8850910549733566
 20
8.4750034153386782
 30
0.0
 11
4.8062166564824809
 21
8.5205415705395549
 31
0.0
  0
LINE
  5
24DC
  8
0
 62
     0
 10
6.9473140477350501
 20
7.2843784153386748
 30
0.0
 11
6.2599063834811517
 21
7.6812534153386762
 31
0.0
  0
LINE
  5
24DD
  8
0
 62
     0
 10
9.0095370404967436
 20
6.0937534153386732
 30
0.0
 11
8.3221293762428452
 21
6.4906284153386729
 31
0.0
  0
LINE
  5
24DE
  8
0
 62
     0
 10
11.07176003325843
 20
4.9031284153386698
 30
0.0
 11
10.384352369004541
 21
5.3000034153386713
 31
0.0
  0
LINE
  5
24DF
  8
0
 62
     0
 10
4.1976835549733522
 20
7.2843786998347726
 30
0.0
 11
4.1457021519109896
 21
7.3143901768856816
 31
0.0
  0
LINE
  5
24E0
  8
0
 62
     0
 10
6.259906547735044
 20
6.0937536998347701
 30
0.0
 11
5.5724988834811473
 21
6.4906286998347706
 31
0.0
  0
LINE
  5
24E1
  8
0
 62
     0
 10
8.3221295404967375
 20
4.9031286998347676
 30
0.0
 11
7.634721876242839
 21
5.300003699834769
 31
0.0
  0
LINE
  5
24E2
  8
0
 62
     0
 10
10.384352533258429
 20
3.712503699834766
 30
0.0
 11
9.6969448690045326
 21
4.1093786998347657
 31
0.0
  0
LINE
  5
24E3
  8
0
 62
     0
 10
5.5724990477350591
 20
4.903128984330861
 30
0.0
 11
4.8850913834811616
 21
5.3000039843308624
 31
0.0
  0
LINE
  5
24E4
  8
0
 62
     0
 10
7.6347220404967517
 20
3.7125039843308589
 30
0.0
 11
6.9473143762428551
 21
4.109378984330859
 31
0.0
  0
LINE
  5
24E5
  8
0
 62
     0
 10
9.6969450332584444
 20
2.521878984330856
 30
0.0
 11
9.0095373690045477
 21
2.918753984330857
 31
0.0
  0
LINE
  5
24E6
  8
0
 62
     0
 10
4.8850915477350441
 20
3.7125042688269629
 30
0.0
 11
4.4890852774962866
 21
3.9411385955500902
 31
0.0
  0
LINE
  5
24E7
  8
0
 62
     0
 10
6.9473145404967367
 20
2.5218792688269609
 30
0.0
 11
6.25990687624284
 21
2.9187542688269619
 31
0.0
  0
LINE
  5
24E8
  8
0
 62
     0
 10
4.8850954898285748
 20
7.681238906037648
 30
0.0
 11
4.1976878255746772
 21
7.2843639060376493
 31
0.0
  0
LINE
  5
24E9
  8
0
 62
     0
 10
6.9473184825902701
 20
8.8718639060376479
 30
0.0
 11
6.2599108183363716
 21
8.4749889060376482
 31
0.0
  0
LINE
  5
24EA
  8
0
 62
     0
 10
8.8311019202147136
 20
9.9594667808450765
 30
0.0
 11
8.3221338110980678
 21
9.6656139060376471
 31
0.0
  0
LINE
  5
24EB
  8
0
 62
     0
 10
5.5725029898285721
 20
6.4906141905337451
 30
0.0
 11
4.8850953255746736
 21
6.0937391905337464
 31
0.0
  0
LINE
  5
24EC
  8
0
 62
     0
 10
7.6347259825902682
 20
7.681239190533744
 30
0.0
 11
6.9473183183363689
 21
7.2843641905337453
 31
0.0
  0
LINE
  5
24ED
  8
0
 62
     0
 10
9.6969489753519635
 20
8.8718641905337439
 30
0.0
 11
9.0095413110980651
 21
8.4749891905337442
 31
0.0
  0
LINE
  5
24EE
  8
0
 62
     0
 10
6.2599104898285702
 20
5.299989475029844
 30
0.0
 11
5.5725028255746709
 21
4.9031144750298452
 31
0.0
  0
LINE
  5
24EF
  8
0
 62
     0
 10
8.3221334825902655
 20
6.4906144750298429
 30
0.0
 11
7.6347258183363671
 21
6.0937394750298441
 31
0.0
  0
LINE
  5
24F0
  8
0
 62
     0
 10
10.384356475351961
 20
7.6812394750298418
 30
0.0
 11
9.6969488110980624
 21
7.2843644750298431
 31
0.0
  0
LINE
  5
24F1
  8
0
 62
     0
 10
6.9473179898285711
 20
4.1093647595259357
 30
0.0
 11
6.2599103255746718
 21
3.7124897595259361
 31
0.0
  0
LINE
  5
24F2
  8
0
 62
     0
 10
9.0095409825902664
 20
5.2999897595259347
 30
0.0
 11
8.3221333183363662
 21
4.903114759525935
 31
0.0
  0
LINE
  5
24F3
  8
0
 62
     0
 10
11.07176397535196
 20
6.4906147595259336
 30
0.0
 11
10.38435631109806
 21
6.0937397595259339
 31
0.0
  0
LINE
  5
24F4
  8
0
 62
     0
 10
7.6347254898285684
 20
2.9187400440220319
 30
0.0
 11
6.947317825574669
 21
2.5218650440220332
 31
0.0
  0
LINE
  5
24F5
  8
0
 62
     0
 10
9.6969484825902637
 20
4.10936504402203
 30
0.0
 11
9.0095408183363652
 21
3.7124900440220312
 31
0.0
  0
LINE
  5
24F6
  8
0
 62
     0
 10
11.759171475351961
 20
5.299990044022028
 30
0.0
 11
11.071763811098061
 21
4.9031150440220292
 31
0.0
  0
LINE
  5
24F7
  8
0
 62
     0
 10
10.384355982590259
 20
2.9187403285181341
 30
0.0
 11
9.6969483183363696
 21
2.5218653285181349
 31
0.0
  0
LINE
  5
24F8
  8
0
 62
     0
 10
11.75918083782415
 20
5.300000001385393
 30
0.0
 11
11.75918083782415
 21
6.093750001385394
 31
0.0
  0
LINE
  5
24F9
  8
0
 62
     0
 10
10.38436583782415
 20
7.6812500013853953
 30
0.0
 11
10.38436583782415
 21
8.4750000013853946
 31
0.0
  0
LINE
  5
24FA
  8
0
 62
     0
 10
10.38436583782415
 20
5.3000000013853947
 30
0.0
 11
10.38436583782415
 21
6.0937500013853949
 31
0.0
  0
LINE
  5
24FB
  8
0
 62
     0
 10
10.38436583782415
 20
2.9187500013853951
 30
0.0
 11
10.38436583782415
 21
3.7125000013853962
 31
0.0
  0
LINE
  5
24FC
  8
0
 62
     0
 10
9.0095508378241522
 20
7.681250001385397
 30
0.0
 11
9.0095508378241522
 21
8.4750000013853963
 31
0.0
  0
LINE
  5
24FD
  8
0
 62
     0
 10
9.0095508378241522
 20
5.3000000013853974
 30
0.0
 11
9.0095508378241522
 21
6.0937500013853967
 31
0.0
  0
LINE
  5
24FE
  8
0
 62
     0
 10
9.0095508378241522
 20
2.9187500013853969
 30
0.0
 11
9.0095508378241522
 21
3.712500001385397
 31
0.0
  0
LINE
  5
24FF
  8
0
 62
     0
 10
7.6347358378241532
 20
7.681250001385397
 30
0.0
 11
7.6347358378241532
 21
8.4750000013853963
 31
0.0
  0
LINE
  5
2500
  8
0
 62
     0
 10
7.6347358378241532
 20
5.3000000013853974
 30
0.0
 11
7.6347358378241532
 21
6.0937500013853967
 31
0.0
  0
LINE
  5
2501
  8
0
 62
     0
 10
7.6347358378241532
 20
2.9187500013853969
 30
0.0
 11
7.6347358378241532
 21
3.712500001385397
 31
0.0
  0
LINE
  5
2502
  8
0
 62
     0
 10
6.2599208378241551
 20
7.6812500013853953
 30
0.0
 11
6.2599208378241551
 21
8.4750000013853946
 31
0.0
  0
LINE
  5
2503
  8
0
 62
     0
 10
6.2599208378241551
 20
5.3000000013853947
 30
0.0
 11
6.2599208378241551
 21
6.0937500013853949
 31
0.0
  0
LINE
  5
2504
  8
0
 62
     0
 10
6.2599208378241551
 20
2.9187500013853951
 30
0.0
 11
6.2599208378241551
 21
3.7125000013853962
 31
0.0
  0
LINE
  5
2505
  8
0
 62
     0
 10
4.8851058378241561
 20
7.6812500013853926
 30
0.0
 11
4.8851058378241561
 21
8.4750000013853928
 31
0.0
  0
LINE
  5
2506
  8
0
 62
     0
 10
4.8851058378241561
 20
5.300000001385393
 30
0.0
 11
4.8851058378241561
 21
6.093750001385394
 31
0.0
  0
LINE
  5
2507
  8
0
 62
     0
 10
4.8851058378241561
 20
3.3838504495185968
 30
0.0
 11
4.8851058378241561
 21
3.7125000013853939
 31
0.0
  0
ENDBLK
  5
2509
  8
0
  0
BLOCK
  8
0
  2
*X127
 70
     1
 10
0.0
 20
0.0
 30
0.0
  3
*X127
  1

  0
LINE
  5
250B
  8
0
 62
     0
 10
3.5102647214544458
 20
215.6312343541002
 30
0.0
 11
3.2539196745388761
 21
215.77923523594231
 31
0.0
  0
LINE
  5
250C
  8
0
 62
     0
 10
5.5724877142161393
 20
214.44060935410019
 30
0.0
 11
4.8850800499622409
 21
214.8374843541001
 31
0.0
  0
LINE
  5
250D
  8
0
 62
     0
 10
7.487139446149996
 20
213.33518466126381
 30
0.0
 11
6.9473030427239344
 21
213.6468593541002
 31
0.0
  0
LINE
  5
250E
  8
0
 62
     0
 10
2.8228572214544658
 20
214.4406096385963
 30
0.0
 11
2.1354495572005678
 21
214.83748463859629
 31
0.0
  0
LINE
  5
250F
  8
0
 62
     0
 10
4.885080214216158
 20
213.24998463859629
 30
0.0
 11
4.1976725499622614
 21
213.64685963859631
 31
0.0
  0
LINE
  5
2510
  8
0
 62
     0
 10
6.9473032069778506
 20
212.05935963859631
 30
0.0
 11
6.2598955427239531
 21
212.4562346385963
 31
0.0
  0
LINE
  5
2511
  8
0
 62
     0
 10
2.1354497214544419
 20
213.2499849230924
 30
0.0
 11
1.549276849420566
 21
213.58841198855279
 31
0.0
  0
LINE
  5
2512
  8
0
 62
     0
 10
4.1976727142161341
 20
212.05935992309239
 30
0.0
 11
3.510265049962237
 21
212.45623492309241
 31
0.0
  0
LINE
  5
2513
  8
0
 62
     0
 10
6.2598957069778267
 20
210.8687349230924
 30
0.0
 11
5.5724880427239301
 21
211.2656099230924
 31
0.0
  0
LINE
  5
2514
  8
0
 62
     0
 10
3.5102652142161288
 20
210.86873520758849
 30
0.0
 11
2.8228575499622321
 21
211.26561020758851
 31
0.0
  0
LINE
  5
2515
  8
0
 62
     0
 10
3.5102913305858841
 20
214.83746956030311
 30
0.0
 11
2.8228836663319861
 21
214.440594560303
 31
0.0
  0
LINE
  5
2516
  8
0
 62
     0
 10
5.3821038758320583
 20
215.91816103717341
 30
0.0
 11
4.8851066590936814
 21
215.63121956030301
 31
0.0
  0
LINE
  5
2517
  8
0
 62
     0
 10
2.135475837824222
 20
212.45621984479919
 30
0.0
 11
1.633858113401113
 21
212.16661071657319
 31
0.0
  0
LINE
  5
2518
  8
0
 62
     0
 10
4.1976988305859173
 20
213.64684484479909
 30
0.0
 11
3.510291166332018
 21
213.24996984479921
 31
0.0
  0
LINE
  5
2519
  8
0
 62
     0
 10
6.2599218233476117
 20
214.8374698447991
 30
0.0
 11
5.5725141590937142
 21
214.44059484479919
 31
0.0
  0
LINE
  5
251A
  8
0
 62
     0
 10
2.8228833378241931
 20
211.26559512929529
 30
0.0
 11
2.3292297322314179
 21
210.98058408721991
 31
0.0
  0
LINE
  5
251B
  8
0
 62
     0
 10
4.8851063305858879
 20
212.4562201292953
 30
0.0
 11
4.1976986663319904
 21
212.05934512929531
 31
0.0
  0
LINE
  5
251C
  8
0
 62
     0
 10
6.9473293233475841
 20
213.6468451292952
 30
0.0
 11
6.2599216590936848
 21
213.24997012929521
 31
0.0
  0
LINE
  5
251D
  8
0
 62
     0
 10
5.5725138305859234
 20
211.26559541379129
 30
0.0
 11
4.8851061663320241
 21
210.86872041379129
 31
0.0
  0
LINE
  5
251E
  8
0
 62
     0
 10
7.4123026818286943
 20
212.32779800230841
 30
0.0
 11
6.9473291590937203
 21
212.05934541379131
 31
0.0
  0
LINE
  5
251F
  8
0
 62
     0
 10
6.2599208378241622
 20
214.83750000138539
 30
0.0
 11
6.2599208378241622
 21
215.4805991365233
 31
0.0
  0
LINE
  5
2520
  8
0
 62
     0
 10
6.2599208378241622
 20
212.4562500013854
 30
0.0
 11
6.2599208378241622
 21
213.25000000138539
 31
0.0
  0
LINE
  5
2521
  8
0
 62
     0
 10
6.2599208378241622
 20
210.62054175514041
 30
0.0
 11
6.2599208378241622
 21
210.86875000138539
 31
0.0
  0
LINE
  5
2522
  8
0
 62
     0
 10
4.8851058378241641
 20
214.83750000138539
 30
0.0
 11
4.8851058378241641
 21
215.63125000138541
 31
0.0
  0
LINE
  5
2523
  8
0
 62
     0
 10
4.8851058378241641
 20
212.4562500013854
 30
0.0
 11
4.8851058378241641
 21
213.25000000138539
 31
0.0
  0
LINE
  5
2524
  8
0
 62
     0
 10
4.8851058378241641
 20
210.07530411644331
 30
0.0
 11
4.8851058378241641
 21
210.86875000138539
 31
0.0
  0
LINE
  5
2525
  8
0
 62
     0
 10
3.5102908378241651
 20
214.83750000138539
 30
0.0
 11
3.5102908378241651
 21
215.63125000138541
 31
0.0
  0
LINE
  5
2526
  8
0
 62
     0
 10
3.5102908378241651
 20
212.4562500013854
 30
0.0
 11
3.5102908378241651
 21
213.25000000138539
 31
0.0
  0
LINE
  5
2527
  8
0
 62
     0
 10
3.5102908378241651
 20
210.21876052008591
 30
0.0
 11
3.5102908378241651
 21
210.86875000138539
 31
0.0
  0
LINE
  5
2528
  8
0
 62
     0
 10
2.1354758378241532
 20
214.83750000138539
 30
0.0
 11
2.1354758378241532
 21
214.89606566713809
 31
0.0
  0
LINE
  5
2529
  8
0
 62
     0
 10
2.1354758378241532
 20
212.4562500013854
 30
0.0
 11
2.1354758378241532
 21
213.25000000138539
 31
0.0
  0
ENDBLK
  5
252B
  8
0
  0
BLOCK
  8
0
  2
*X128
 70
     1
 10
0.0
 20
0.0
 30
0.0
  3
*X128
  1

  0
LINE
  5
252D
  8
0
 62
     0
 10
0.3771446409770078
 20
217.04983257399519
 30
0.0
 11
-0.334867367255594
 21
216.33782056576251
 31
0.0
  0
LINE
  5
252E
  8
0
 62
     0
 10
0.9384106485438259
 20
216.48856656642829
 30
0.0
 11
-0.7457426013557438
 21
214.8044133165287
 31
0.0
  0
LINE
  5
252F
  8
0
 62
     0
 10
1.499676656110644
 20
215.9273005588615
 30
0.0
 11
-1.1566178354559069
 21
213.27100606729491
 31
0.0
  0
LINE
  5
2530
  8
0
 62
     0
 10
2.2901956838649151
 20
215.59528757148209
 30
0.0
 11
-1.5674930695560609
 21
211.73759881806109
 31
0.0
  0
LINE
  5
2531
  8
0
 62
     0
 10
1.588464412087162
 20
213.7710242845707
 30
0.0
 11
-1.978368303656225
 21
210.2041915688273
 31
0.0
  0
LINE
  5
2532
  8
0
 62
     0
 10
3.8680105733481831
 20
216.0505704458318
 30
0.0
 11
3.7802169991095651
 21
215.96277687159309
 31
0.0
  0
LINE
  5
2533
  8
0
 62
     0
 10
1.535397941426264
 20
212.5954257987762
 30
0.0
 11
-1.0094574115184181
 21
210.05057044583151
 31
0.0
  0
LINE
  5
2534
  8
0
 62
     0
 10
1.8022170962703641
 20
211.7397129384866
 30
0.0
 11
0.1130746036152175
 21
210.05057044583151
 31
0.0
  0
LINE
  5
2535
  8
0
 62
     0
 10
2.2509624862399491
 20
211.06592631332251
 30
0.0
 11
1.235606618748871
 21
210.05057044583151
 31
0.0
  0
LINE
  5
2536
  8
0
 62
     0
 10
2.8518611756264138
 20
210.5442929875754
 30
0.0
 11
2.3581386338825041
 21
210.05057044583151
 31
0.0
  0
LINE
  5
2537
  8
0
 62
     0
 10
3.6145310399603612
 20
210.1844308367757
 30
0.0
 11
3.4806706490161581
 21
210.05057044583151
 31
0.0
  0
LINE
  5
2538
  8
0
 62
     0
 10
3.6848287857915798
 20
215.9375068403674
 30
0.0
 11
3.571765180327346
 21
216.05057044583171
 31
0.0
  0
LINE
  5
2539
  8
0
 62
     0
 10
2.907330813347329
 20
215.59247279767811
 30
0.0
 11
2.6199267483533641
 21
215.87987686267201
 31
0.0
  0
LINE
  5
253A
  8
0
 62
     0
 10
2.2941498095657371
 20
215.08312178632599
 30
0.0
 11
-0.0444397169043924
 21
217.42171131279611
 31
0.0
  0
LINE
  5
253B
  8
0
 62
     0
 10
1.832575726653644
 20
214.4221638541045
 30
0.0
 11
-0.2816586439154918
 21
216.5363982246736
 31
0.0
  0
LINE
  5
253C
  8
0
 62
     0
 10
1.5484351352526169
 20
213.58377243037191
 30
0.0
 11
-0.5188775709265771
 21
215.65108513655099
 31
0.0
  0
LINE
  5
253D
  8
0
 62
     0
 10
1.5618434346994401
 20
212.4478321157913
 30
0.0
 11
-0.7560964979376763
 21
214.76577204842849
 31
0.0
  0
LINE
  5
253E
  8
0
 62
     0
 10
3.9591051046593568
 20
210.0505704458314
 30
0.0
 11
3.8979325078085192
 21
210.11174304268229
 31
0.0
  0
LINE
  5
253F
  8
0
 62
     0
 10
2.836573089525714
 20
210.0505704458314
 30
0.0
 11
-0.9933154249487898
 21
213.88045896030599
 31
0.0
  0
LINE
  5
2540
  8
0
 62
     0
 10
1.7140410743920711
 20
210.05057044583151
 30
0.0
 11
-1.230534351959889
 21
212.9951458721834
 31
0.0
  0
LINE
  5
2541
  8
0
 62
     0
 10
0.591509059258442
 20
210.0505704458314
 30
0.0
 11
-1.46775327897096
 21
212.1098327840609
 31
0.0
  0
LINE
  5
2542
  8
0
 62
     0
 10
-0.5310229558752014
 20
210.0505704458314
 30
0.0
 11
-1.7049722059820871
 21
211.2245196959384
 31
0.0
  0
LINE
  5
2543
  8
0
 62
     0
 10
-1.653554971008844
 20
210.0505704458314
 30
0.0
 11
-1.9421911329931729
 21
210.3392066078157
 31
0.0
  0
ENDBLK
  5
2545
  8
0
  0
BLOCK
  8
0
  2
*X129
 70
     1
 10
0.0
 20
0.0
 30
0.0
  3
*X129
  1

  0
LINE
  5
2547
  8
0
 62
     0
 10
-2.2266400797577708
 20
10.05057044583145
 30
0.0
 11
-2.4868746451187671
 21
9.7903358804704617
 31
0.0
  0
LINE
  5
2548
  8
0
 62
     0
 10
-1.1041080646241279
 20
10.05057044583145
 30
0.0
 11
-2.2496557181076069
 21
8.9050227923479746
 31
0.0
  0
LINE
  5
2549
  8
0
 62
     0
 10
0.018423950509515
 20
10.05057044583145
 30
0.0
 11
-2.012436791096448
 21
8.0197097042254946
 31
0.0
  0
LINE
  5
254A
  8
0
 62
     0
 10
1.140955965643158
 20
10.05057044583145
 30
0.0
 11
-1.7752178640852949
 21
7.134396616103003
 31
0.0
  0
LINE
  5
254B
  8
0
 62
     0
 10
2.2634879807768011
 20
10.05057044583145
 30
0.0
 11
-1.5379989370741349
 21
6.2490835279805159
 31
0.0
  0
LINE
  5
254C
  8
0
 62
     0
 10
3.386019995910444
 20
10.05057044583145
 30
0.0
 11
-1.3007800100629821
 21
5.3637704398580288
 31
0.0
  0
LINE
  5
254D
  8
0
 62
     0
 10
4.5085520110440882
 20
10.05057044583145
 30
0.0
 11
-1.0635610830518261
 21
4.4784573517355417
 31
0.0
  0
LINE
  5
254E
  8
0
 62
     0
 10
5.6310840261777306
 20
10.05057044583145
 30
0.0
 11
-0.8263421560406669
 21
3.593144263613048
 31
0.0
  0
LINE
  5
254F
  8
0
 62
     0
 10
4.222152962766212
 20
7.519107367286284
 30
0.0
 11
-0.5891232290295143
 21
2.7078311754905608
 31
0.0
  0
LINE
  5
2550
  8
0
 62
     0
 10
6.7536160413113739
 20
10.05057044583145
 30
0.0
 11
6.4580597943225078
 21
9.7550141988425807
 31
0.0
  0
LINE
  5
2551
  8
0
 62
     0
 10
3.9278817500286669
 20
6.1023041394150956
 30
0.0
 11
-0.3519043020183581
 21
1.822518087368074
 31
0.0
  0
LINE
  5
2552
  8
0
 62
     0
 10
7.8761480564450208
 20
10.05057044583145
 30
0.0
 11
7.8748630221936997
 21
10.049285411580129
 31
0.0
  0
LINE
  5
2553
  8
0
 62
     0
 10
4.0316979009754901
 20
5.0835882752282764
 30
0.0
 11
-0.1146853750071983
 21
0.9372049992455906
 31
0.0
  0
LINE
  5
2554
  8
0
 62
     0
 10
4.3231195144172778
 20
4.2524778735364199
 30
0.0
 11
2.0206416424550109
 21
1.9500000015741561
 31
0.0
  0
LINE
  5
2555
  8
0
 62
     0
 10
4.748100217880264
 20
3.5549265618657619
 30
0.0
 11
3.1431736575886542
 21
1.950000001574153
 31
0.0
  0
LINE
  5
2556
  8
0
 62
     0
 10
5.2874756840271502
 20
2.9717700128790052
 30
0.0
 11
4.2657056727223006
 21
1.9500000015741561
 31
0.0
  0
LINE
  5
2557
  8
0
 62
     0
 10
5.9385316802961832
 20
2.500293994014398
 30
0.0
 11
5.3882376878559413
 21
1.950000001574153
 31
0.0
  0
LINE
  5
2558
  8
0
 62
     0
 10
6.7130111385712636
 20
2.152241437155836
 30
0.0
 11
6.5107697029895881
 21
1.9500000015741561
 31
0.0
  0
LINE
  5
2559
  8
0
 62
     0
 10
7.6467762423889196
 20
1.9634745258398381
 30
0.0
 11
7.6333017181232341
 21
1.950000001574153
 31
0.0
  0
LINE
  5
255A
  8
0
 62
     0
 10
7.4551017281398506
 20
10.016820520857561
 30
0.0
 11
7.4213518031659538
 21
10.050570445831459
 31
0.0
  0
LINE
  5
255B
  8
0
 62
     0
 10
6.5561669331677299
 20
9.7932233006960487
 30
0.0
 11
6.2988197880323318
 21
10.05057044583145
 31
0.0
  0
LINE
  5
255C
  8
0
 62
     0
 10
5.8067367230589824
 20
9.4201214956711468
 30
0.0
 11
5.1762877728986751
 21
10.05057044583145
 31
0.0
  0
LINE
  5
255D
  8
0
 62
     0
 10
5.1771831219568512
 20
8.9271430816396418
 30
0.0
 11
4.053755757765038
 21
10.05057044583145
 31
0.0
  0
LINE
  5
255E
  8
0
 62
     0
 10
4.6587853124738601
 20
8.3230088759889824
 30
0.0
 11
2.9312237426313952
 21
10.05057044583145
 31
0.0
  0
LINE
  5
255F
  8
0
 62
     0
 10
4.2569099388673797
 20
7.6023522344618177
 30
0.0
 11
1.8086917274977381
 21
10.050570445831459
 31
0.0
  0
LINE
  5
2560
  8
0
 62
     0
 10
3.9950332371579611
 20
6.741696921037593
 30
0.0
 11
0.6861597123641019
 21
10.05057044583145
 31
0.0
  0
LINE
  5
2561
  8
0
 62
     0
 10
3.939722207561565
 20
5.6744759355003458
 30
0.0
 11
-0.4363723027695415
 21
10.05057044583145
 31
0.0
  0
LINE
  5
2562
  8
0
 62
     0
 10
7.6641981414877591
 20
1.950000001574153
 30
0.0
 11
7.6510726497035426
 21
1.9631254933583691
 31
0.0
  0
LINE
  5
2563
  8
0
 62
     0
 10
4.4096771817841889
 20
4.0819889461440786
 30
0.0
 11
-1.5589043179031841
 21
10.050570445831459
 31
0.0
  0
LINE
  5
2564
  8
0
 62
     0
 10
6.5416661263541149
 20
1.950000001574153
 30
0.0
 11
6.0585856603472763
 21
2.4330804675809921
 31
0.0
  0
LINE
  5
2565
  8
0
 62
     0
 10
5.4191341112204716
 20
1.950000001574153
 30
0.0
 11
-2.5109125866025011
 21
9.8800466993971252
 31
0.0
  0
LINE
  5
2566
  8
0
 62
     0
 10
4.2966020960868292
 20
1.9500000015741461
 30
0.0
 11
-2.1000373525021701
 21
8.3466394501631456
 31
0.0
  0
LINE
  5
2567
  8
0
 62
     0
 10
3.174070080953185
 20
1.950000001574153
 30
0.0
 11
-1.6891621184018391
 21
6.8132322009291784
 31
0.0
  0
LINE
  5
2568
  8
0
 62
     0
 10
2.0515380658195421
 20
1.9500000015741461
 30
0.0
 11
-1.2782868843015081
 21
5.2798249516951961
 31
0.0
  0
LINE
  5
2569
  8
0
 62
     0
 10
1.102195363757303
 20
1.776810688502749
 30
0.0
 11
-0.8674116502011771
 21
3.7464177024612288
 31
0.0
  0
LINE
  5
256A
  8
0
 62
     0
 10
0.5409293561904818
 20
1.2155446809359201
 30
0.0
 11
-0.4565364161008461
 21
2.2130104532272479
 31
0.0
  0
LINE
  5
256B
  8
0
 62
     0
 10
0.0091272352823424
 20
0.6248147867104166
 30
0.0
 11
-0.0456611820005222
 21
0.6796032039932812
 31
0.0
  0
ENDBLK
  5
256D
  8
0
  0
BLOCK
  8
0
  2
*X130
 70
     1
 10
0.0
 20
0.0
 30
0.0
  3
*X130
  1

  0
LINE
  5
256F
  8
0
 62
     0
 10
8.3221290477350625
 20
9.6656278463464673
 30
0.0
 11
7.6749131381705871
 21
10.03929812595733
 31
0.0
  0
LINE
  5
2570
  8
0
 62
     0
 10
10.384352040496751
 20
8.4750028463464648
 30
0.0
 11
9.6969443762428575
 21
8.871877846346468
 31
0.0
  0
LINE
  5
2571
  8
0
 62
     0
 10
7.6347215477350634
 20
8.4750031308425697
 30
0.0
 11
6.947313883481165
 21
8.8718781308425712
 31
0.0
  0
LINE
  5
2572
  8
0
 62
     0
 10
9.6969445404967551
 20
7.2843781308425681
 30
0.0
 11
9.0095368762428585
 21
7.6812531308425704
 31
0.0
  0
LINE
  5
2573
  8
0
 62
     0
 10
11.75916753325845
 20
6.0937531308425648
 30
0.0
 11
11.07175986900455
 21
6.4906281308425671
 31
0.0
  0
LINE
  5
2574
  8
0
 62
     0
 10
4.8850910549733566
 20
8.4750034153386764
 30
0.0
 11
4.8062166564824809
 21
8.5205415705395549
 31
0.0
  0
LINE
  5
2575
  8
0
 62
     0
 10
6.9473140477350501
 20
7.2843784153386739
 30
0.0
 11
6.2599063834811517
 21
7.6812534153386762
 31
0.0
  0
LINE
  5
2576
  8
0
 62
     0
 10
9.0095370404967436
 20
6.0937534153386723
 30
0.0
 11
8.3221293762428452
 21
6.4906284153386729
 31
0.0
  0
LINE
  5
2577
  8
0
 62
     0
 10
11.07176003325843
 20
4.9031284153386689
 30
0.0
 11
10.384352369004541
 21
5.3000034153386713
 31
0.0
  0
LINE
  5
2578
  8
0
 62
     0
 10
4.1976835549733522
 20
7.2843786998347717
 30
0.0
 11
4.1457021519109896
 21
7.3143901768856816
 31
0.0
  0
LINE
  5
2579
  8
0
 62
     0
 10
6.259906547735044
 20
6.0937536998347701
 30
0.0
 11
5.5724988834811473
 21
6.4906286998347706
 31
0.0
  0
LINE
  5
257A
  8
0
 62
     0
 10
8.3221295404967375
 20
4.9031286998347667
 30
0.0
 11
7.634721876242839
 21
5.300003699834769
 31
0.0
  0
LINE
  5
257B
  8
0
 62
     0
 10
10.384352533258429
 20
3.7125036998347651
 30
0.0
 11
9.6969448690045326
 21
4.1093786998347657
 31
0.0
  0
LINE
  5
257C
  8
0
 62
     0
 10
5.5724990477350591
 20
4.9031289843308601
 30
0.0
 11
4.8850913834811616
 21
5.3000039843308624
 31
0.0
  0
LINE
  5
257D
  8
0
 62
     0
 10
7.6347220404967517
 20
3.712503984330858
 30
0.0
 11
6.9473143762428551
 21
4.109378984330859
 31
0.0
  0
LINE
  5
257E
  8
0
 62
     0
 10
9.6969450332584444
 20
2.521878984330856
 30
0.0
 11
9.0095373690045477
 21
2.918753984330857
 31
0.0
  0
LINE
  5
257F
  8
0
 62
     0
 10
4.8850915477350441
 20
3.7125042688269629
 30
0.0
 11
4.4890852774962866
 21
3.9411385955500902
 31
0.0
  0
LINE
  5
2580
  8
0
 62
     0
 10
6.9473145404967367
 20
2.52187926882696
 30
0.0
 11
6.25990687624284
 21
2.9187542688269619
 31
0.0
  0
LINE
  5
2581
  8
0
 62
     0
 10
4.8850954898285748
 20
7.681238906037648
 30
0.0
 11
4.1976878255746772
 21
7.2843639060376493
 31
0.0
  0
LINE
  5
2582
  8
0
 62
     0
 10
6.9473184825902701
 20
8.8718639060376479
 30
0.0
 11
6.2599108183363716
 21
8.4749889060376482
 31
0.0
  0
LINE
  5
2583
  8
0
 62
     0
 10
8.8311019202147136
 20
9.9594667808450765
 30
0.0
 11
8.3221338110980678
 21
9.6656139060376471
 31
0.0
  0
LINE
  5
2584
  8
0
 62
     0
 10
5.5725029898285721
 20
6.4906141905337451
 30
0.0
 11
4.8850953255746736
 21
6.0937391905337464
 31
0.0
  0
LINE
  5
2585
  8
0
 62
     0
 10
7.6347259825902682
 20
7.681239190533744
 30
0.0
 11
6.9473183183363689
 21
7.2843641905337453
 31
0.0
  0
LINE
  5
2586
  8
0
 62
     0
 10
9.6969489753519635
 20
8.8718641905337439
 30
0.0
 11
9.0095413110980651
 21
8.4749891905337442
 31
0.0
  0
LINE
  5
2587
  8
0
 62
     0
 10
6.2599104898285702
 20
5.299989475029844
 30
0.0
 11
5.5725028255746709
 21
4.9031144750298452
 31
0.0
  0
LINE
  5
2588
  8
0
 62
     0
 10
8.3221334825902655
 20
6.4906144750298429
 30
0.0
 11
7.6347258183363671
 21
6.0937394750298441
 31
0.0
  0
LINE
  5
2589
  8
0
 62
     0
 10
10.384356475351961
 20
7.6812394750298418
 30
0.0
 11
9.6969488110980624
 21
7.2843644750298431
 31
0.0
  0
LINE
  5
258A
  8
0
 62
     0
 10
6.9473179898285711
 20
4.1093647595259357
 30
0.0
 11
6.2599103255746718
 21
3.7124897595259361
 31
0.0
  0
LINE
  5
258B
  8
0
 62
     0
 10
9.0095409825902664
 20
5.2999897595259347
 30
0.0
 11
8.3221333183363662
 21
4.903114759525935
 31
0.0
  0
LINE
  5
258C
  8
0
 62
     0
 10
11.07176397535196
 20
6.4906147595259336
 30
0.0
 11
10.38435631109806
 21
6.0937397595259339
 31
0.0
  0
LINE
  5
258D
  8
0
 62
     0
 10
7.6347254898285684
 20
2.9187400440220319
 30
0.0
 11
6.947317825574669
 21
2.5218650440220332
 31
0.0
  0
LINE
  5
258E
  8
0
 62
     0
 10
9.6969484825902637
 20
4.10936504402203
 30
0.0
 11
9.0095408183363652
 21
3.7124900440220312
 31
0.0
  0
LINE
  5
258F
  8
0
 62
     0
 10
11.759171475351961
 20
5.299990044022028
 30
0.0
 11
11.071763811098061
 21
4.9031150440220292
 31
0.0
  0
LINE
  5
2590
  8
0
 62
     0
 10
10.384355982590259
 20
2.9187403285181341
 30
0.0
 11
9.6969483183363696
 21
2.5218653285181349
 31
0.0
  0
LINE
  5
2591
  8
0
 62
     0
 10
11.75918083782415
 20
5.300000001385393
 30
0.0
 11
11.75918083782415
 21
6.093750001385394
 31
0.0
  0
LINE
  5
2592
  8
0
 62
     0
 10
10.38436583782415
 20
7.6812500013853953
 30
0.0
 11
10.38436583782415
 21
8.4750000013853946
 31
0.0
  0
LINE
  5
2593
  8
0
 62
     0
 10
10.38436583782415
 20
5.3000000013853947
 30
0.0
 11
10.38436583782415
 21
6.0937500013853949
 31
0.0
  0
LINE
  5
2594
  8
0
 62
     0
 10
10.38436583782415
 20
2.9187500013853951
 30
0.0
 11
10.38436583782415
 21
3.7125000013853962
 31
0.0
  0
LINE
  5
2595
  8
0
 62
     0
 10
9.0095508378241522
 20
7.681250001385397
 30
0.0
 11
9.0095508378241522
 21
8.4750000013853963
 31
0.0
  0
LINE
  5
2596
  8
0
 62
     0
 10
9.0095508378241522
 20
5.3000000013853974
 30
0.0
 11
9.0095508378241522
 21
6.0937500013853967
 31
0.0
  0
LINE
  5
2597
  8
0
 62
     0
 10
9.0095508378241522
 20
2.9187500013853969
 30
0.0
 11
9.0095508378241522
 21
3.712500001385397
 31
0.0
  0
LINE
  5
2598
  8
0
 62
     0
 10
7.6347358378241532
 20
7.681250001385397
 30
0.0
 11
7.6347358378241532
 21
8.4750000013853963
 31
0.0
  0
LINE
  5
2599
  8
0
 62
     0
 10
7.6347358378241532
 20
5.3000000013853974
 30
0.0
 11
7.6347358378241532
 21
6.0937500013853967
 31
0.0
  0
LINE
  5
259A
  8
0
 62
     0
 10
7.6347358378241532
 20
2.9187500013853969
 30
0.0
 11
7.6347358378241532
 21
3.712500001385397
 31
0.0
  0
LINE
  5
259B
  8
0
 62
     0
 10
6.2599208378241551
 20
7.6812500013853953
 30
0.0
 11
6.2599208378241551
 21
8.4750000013853946
 31
0.0
  0
LINE
  5
259C
  8
0
 62
     0
 10
6.2599208378241551
 20
5.3000000013853947
 30
0.0
 11
6.2599208378241551
 21
6.0937500013853949
 31
0.0
  0
LINE
  5
259D
  8
0
 62
     0
 10
6.2599208378241551
 20
2.9187500013853951
 30
0.0
 11
6.2599208378241551
 21
3.7125000013853962
 31
0.0
  0
LINE
  5
259E
  8
0
 62
     0
 10
4.8851058378241561
 20
7.6812500013853926
 30
0.0
 11
4.8851058378241561
 21
8.4750000013853928
 31
0.0
  0
LINE
  5
259F
  8
0
 62
     0
 10
4.8851058378241561
 20
5.300000001385393
 30
0.0
 11
4.8851058378241561
 21
6.093750001385394
 31
0.0
  0
LINE
  5
25A0
  8
0
 62
     0
 10
4.8851058378241561
 20
3.3838504495185968
 30
0.0
 11
4.8851058378241561
 21
3.7125000013853939
 31
0.0
  0
ENDBLK
  5
25A2
  8
0
  0
BLOCK
  8
0
  2
*U131
 70
     1
 10
0.0
 20
0.0
 30
0.0
  3
*U131
  1

  0
TEXT
  5
25C4
  8
SAPA_MATT
 62
     2
 10
-51.153752877734689
 20
103.0005704458315
 30
0.0
 40
3.0
  1
197-202
 50
90.0
  7
ISO
  0
ENDBLK
  5
25C6
  8
0
  0
BLOCK
  8
0
  2
*U132
 70
     1
 10
0.0
 20
0.0
 30
0.0
  3
*U132
  1

  0
TEXT
  5
25C8
  8
SAPA_MATT
 62
     2
 10
90.813012463945057
 20
-32.866805833946273
 30
0.0
 40
3.0
  1
187
  7
ISO
  0
ENDBLK
  5
25CA
  8
0
  0
BLOCK
  8
0
  2
*U133
 70
     1
 10
0.0
 20
0.0
 30
0.0
  3
*U133
  1

  0
TEXT
  5
25CC
  8
SAPA_MATT
 62
     2
 10
140.4006708338371
 20
-16.572573869874759
 30
0.0
 40
3.0
  1
89
  7
ISO
  0
ENDBLK
  5
25CE
  8
0
  0
BLOCK
  8
0
  2
*U134
 70
     1
 10
0.0
 20
0.0
 30
0.0
  3
*U134
  1

  0
TEXT
  5
25D0
  8
SAPA_MATT
 62
     2
 10
94.450670835792849
 20
-16.572573869874731
 30
0.0
 40
3.0
  1
5
  7
ISO
  0
ENDBLK
  5
25D2
  8
0
  0
BLOCK
  8
0
  2
*U135
 70
     1
 10
0.0
 20
0.0
 30
0.0
  3
*U135
  1

  0
TEXT
  5
25D4
  8
SAPA_MATT
 62
     2
 10
44.55214181613465
 20
-16.572573869874759
 30
0.0
 40
3.0
  1
93
  7
ISO
  0
ENDBLK
  5
25D6
  8
0
  0
ENDSEC
  0
SECTION
  2
ENTITIES
  0
LINE
  5
75F
  8
SAPA_ANSLUTNING
 10
-34.999329162258618
 20
10.05057044583145
 30
0.0
 11
25.000670837724559
 21
10.05057044583145
 31
0.0
  0
LINE
  5
760
  8
SAPA_ANSLUTNING
 10
25.000670837725469
 20
10.65057044573655
 30
0.0
 11
-34.999329162258618
 21
10.650570445831359
 31
0.0
  0
LINE
  5
762
  8
SAPA_ANSLUTNING
 10
-34.999329162258618
 20
210.0505704458314
 30
0.0
 11
25.000670837868711
 21
210.0505704458314
 31
0.0
  0
LINE
  5
763
  8
SAPA_ANSLUTNING
 10
25.000670837867801
 20
209.4505704457319
 30
0.0
 11
-34.999329162258618
 21
209.45057044583129
 31
0.0
  0
CIRCLE
  5
764
  8
SAPA_ANSLUTNING
 10
7.9768819379055449
 20
6.0002852237025763
 30
0.0
 40
4.0502852221286458
1001
ACAD
1000
ASC_BOUNDS
1002
{
1070
    19
1005
172D
1002
}
  0
LINE
  5
765
  8
SAPA_ANSLUTNING
 10
0.0098709976582541
 20
0.4723542880483365
 30
0.0
 11
-2.5566042867503711
 21
10.05057044583145
 31
0.0
  0
CIRCLE
  5
768
  8
SAPA_ANSLUTNING
 10
4.5006708378477924
 20
213.05057044583191
 30
0.0
 40
3.0000000000000848
1001
ACAD
1000
ASC_BOUNDS
1002
{
1070
    19
1005
172A
1002
}
  0
LINE
  5
769
  8
SAPA_ANSLUTNING
 10
0.0108930899655206
 20
217.6282161593615
 30
0.0
 11
-2.019530959504209
 21
210.0505704458314
 31
0.0
  0
POLYLINE
  5
76A
  8
SAPA_ANSLUTNING
 66
     1
 10
0.0
 20
0.0
 30
0.0
  0
VERTEX
  5
1823
  8
SAPA_ANSLUTNING
 10
25.000670837837792
 20
88.554085760591079
 30
0.0
  0
VERTEX
  5
1824
  8
SAPA_ANSLUTNING
 10
37.698070443288543
 20
88.554085760584925
 30
0.0
 42
-0.9999999999999998
  0
VERTEX
  5
1825
  8
SAPA_ANSLUTNING
 10
37.698070443288543
 20
80.142085170409928
 30
0.0
  0
VERTEX
  5
1826
  8
SAPA_ANSLUTNING
 10
29.206671132808879
 20
80.142085170409928
 30
0.0
 42
0.9999999999999998
  0
VERTEX
  5
1827
  8
SAPA_ANSLUTNING
 10
29.206671132808879
 20
71.730084580245816
 30
0.0
  0
VERTEX
  5
1828
  8
SAPA_ANSLUTNING
 10
36.113706468310291
 20
71.730084580245816
 30
0.0
 42
-0.9999999999999998
  0
VERTEX
  5
1829
  8
SAPA_ANSLUTNING
 10
36.113706468310291
 20
63.318083990070818
 30
0.0
  0
VERTEX
  5
182A
  8
SAPA_ANSLUTNING
 10
29.206671132808879
 20
63.318083990070818
 30
0.0
 42
0.9999999999999998
  0
VERTEX
  5
182B
  8
SAPA_ANSLUTNING
 10
29.206671132808879
 20
54.906083399906713
 30
0.0
  0
VERTEX
  5
182C
  8
SAPA_ANSLUTNING
 10
41.099792909630189
 20
54.906083399906713
 30
0.0
 42
-0.9999999999999998
  0
VERTEX
  5
182D
  8
SAPA_ANSLUTNING
 10
41.099792909630189
 20
46.494082809731708
 30
0.0
  0
VERTEX
  5
182E
  8
SAPA_ANSLUTNING
 10
29.206671132808879
 20
46.494082809731708
 30
0.0
 42
0.9999999999999998
  0
VERTEX
  5
182F
  8
SAPA_ANSLUTNING
 10
29.206671132808879
 20
38.08208221956761
 30
0.0
  0
VERTEX
  5
1830
  8
SAPA_ANSLUTNING
 10
41.099792909630189
 20
38.08208221956761
 30
0.0
 42
-0.9999999999999998
  0
VERTEX
  5
1831
  8
SAPA_ANSLUTNING
 10
41.099792909630189
 20
29.670081629392602
 30
0.0
  0
VERTEX
  5
1832
  8
SAPA_ANSLUTNING
 10
29.206671132808879
 20
29.670081629392602
 30
0.0
 42
0.9999999999999998
  0
VERTEX
  5
1833
  8
SAPA_ANSLUTNING
 10
29.206671132808879
 20
21.2580810392285
 30
0.0
  0
VERTEX
  5
1834
  8
SAPA_ANSLUTNING
 10
45.199648745516697
 20
21.258081039231001
 30
0.0
  0
SEQEND
  5
1835
  8
SAPA_ANSLUTNING
  0
LINE
  5
76B
  8
SAPA_ANSLUTNING
 10
25.000670837868711
 20
210.0505704458314
 30
0.0
 11
25.000670837724559
 21
10.05057044583145
 31
0.0
  0
TEXT
  5
C8A
  8
SAPA_ARTIKELNR
 10
62.314619419722931
 20
88.688293861029919
 30
-0.0000000048844204
 40
3.5
  1
86422
  7
ISO
  0
TEXT
  5
C90
  8
SAPA_ARTIKELNR
 10
96.464619426944424
 20
88.688293786877466
 30
-0.0000000048844204
 40
3.5
  1
86517
  7
ISO
  0
TEXT
  5
C96
  8
SAPA_ARTIKELNR
 10
138.21461867985539
 20
88.688293790246234
 30
-0.0000000048844204
 40
3.5
  1
86424
  7
ISO
  0
TEXT
  5
C9C
  8
SAPA_ARTIKELNR
 10
170.81693137009461
 20
86.988293786889685
 30
-0.0000000048844204
 40
3.5
  1
42728
  7
ISO
  0
TEXT
  5
CA1
  8
SAPA_ARTIKELNR
 10
37.725122240801277
 20
73.331684244875305
 30
-0.0000000048844204
 40
3.5
  1
42793
 50
90.0
  7
ISO
  0
TEXT
  5
FCA
  8
SAPA_ARTIKELNR
 10
15.978876615768099
 20
220.46008659790709
 30
0.0
 40
3.5
  1
42880
 50
180.0
 51
180.0
  7
ISO
 71
     6
 72
     4
 11
22.278876615768102
 21
222.21008659790709
 31
0.0
  0
POLYLINE
  5
16D6
  8
SAPA_PROFIL
 66
     1
 10
0.0
 20
0.0
 30
0.0
 70
     1
  0
VERTEX
  5
1E67
  8
SAPA_PROFIL
 10
42.070857504556777
 20
87.957734162935594
 30
0.0
 42
-0.6370702608040425
  0
VERTEX
  5
1E68
  8
SAPA_PROFIL
 10
42.300670837493719
 20
88.450570445839858
 30
0.0
  0
VERTEX
  5
1E69
  8
SAPA_PROFIL
 10
42.524346021298022
 20
88.450570445839901
 30
0.0
 42
0.6370702608052643
  0
VERTEX
  5
1E6A
  8
SAPA_PROFIL
 10
42.754159354234837
 20
88.943406728744236
 30
0.0
  0
VERTEX
  5
1E6B
  8
SAPA_PROFIL
 10
42.07085750455667
 20
89.757734162935506
 30
0.0
 42
-0.6370702608045286
  0
VERTEX
  5
1E6C
  8
SAPA_PROFIL
 10
42.300670837493719
 20
90.250570445839841
 30
0.0
  0
VERTEX
  5
1E6D
  8
SAPA_PROFIL
 10
42.524346021298022
 20
90.250570445839813
 30
0.0
 42
0.6370702608054076
  0
VERTEX
  5
1E6E
  8
SAPA_PROFIL
 10
42.754159354234837
 20
90.743406728744432
 30
0.0
  0
VERTEX
  5
1E6F
  8
SAPA_PROFIL
 10
42.070857504556869
 20
91.557734162935404
 30
0.0
 42
-0.6370702608048892
  0
VERTEX
  5
1E70
  8
SAPA_PROFIL
 10
42.300670837493719
 20
92.050570445840023
 30
0.0
  0
VERTEX
  5
1E71
  8
SAPA_PROFIL
 10
42.524346021297781
 20
92.050570445839881
 30
0.0
 42
0.6370702608051136
  0
VERTEX
  5
1E72
  8
SAPA_PROFIL
 10
42.754159354234837
 20
92.543406728744387
 30
0.0
  0
VERTEX
  5
1E73
  8
SAPA_PROFIL
 10
42.070857504556869
 20
93.357734162935358
 30
0.0
 42
-0.6370702608048892
  0
VERTEX
  5
1E74
  8
SAPA_PROFIL
 10
42.300670837493719
 20
93.850570445839978
 30
0.0
  0
VERTEX
  5
1E75
  8
SAPA_PROFIL
 10
42.700670837628842
 20
93.850570445840205
 30
0.0
 42
0.4142135623708974
  0
VERTEX
  5
1E76
  8
SAPA_PROFIL
 10
43.000670837628597
 20
94.150570445838113
 30
0.0
  0
VERTEX
  5
1E77
  8
SAPA_PROFIL
 10
43.000670837925931
 20
197.35057044584229
 30
0.0
 42
0.4142135623728287
  0
VERTEX
  5
1E78
  8
SAPA_PROFIL
 10
42.000670837907279
 20
198.35057044585551
 30
0.0
  0
VERTEX
  5
1E79
  8
SAPA_PROFIL
 10
37.400670838032461
 20
198.3505704458565
 30
0.0
 42
-0.4142135623730077
  0
VERTEX
  5
1E7A
  8
SAPA_PROFIL
 10
37.10067083803316
 20
198.65057044585609
 30
0.0
  0
VERTEX
  5
1E7B
  8
SAPA_PROFIL
 10
37.10067083803316
 20
200.9505704458559
 30
0.0
 42
-0.4142135623730951
  0
VERTEX
  5
1E7C
  8
SAPA_PROFIL
 10
37.400670838033342
 20
201.25057044585611
 30
0.0
  0
VERTEX
  5
1E7D
  8
SAPA_PROFIL
 10
37.900670838032433
 20
201.25057044585611
 30
0.0
 42
-0.4142135623730951
  0
VERTEX
  5
1E7E
  8
SAPA_PROFIL
 10
38.200670838032607
 20
200.9505704458559
 30
0.0
  0
VERTEX
  5
1E7F
  8
SAPA_PROFIL
 10
38.200670838032757
 20
200.6139435212261
 30
0.0
 42
0.553524574347029
  0
VERTEX
  5
1E80
  8
SAPA_PROFIL
 10
42.511225049591673
 20
202.3864628439126
 30
0.0
  0
VERTEX
  5
1E81
  8
SAPA_PROFIL
 10
42.223894142899042
 20
202.6737937506048
 30
0.0
 42
-0.4142135623731421
  0
VERTEX
  5
1E82
  8
SAPA_PROFIL
 10
42.223894142899013
 20
203.02734714119811
 30
0.0
  0
VERTEX
  5
1E83
  8
SAPA_PROFIL
 10
42.511225049581547
 20
203.31467804788079
 30
0.0
 42
0.5535245743365356
  0
VERTEX
  5
1E84
  8
SAPA_PROFIL
 10
38.200670838032607
 20
205.0871973704964
 30
0.0
  0
VERTEX
  5
1E85
  8
SAPA_PROFIL
 10
38.200670838032607
 20
204.750570445856
 30
0.0
 42
-0.4142135623730951
  0
VERTEX
  5
1E86
  8
SAPA_PROFIL
 10
37.900670838032433
 20
204.4505704458559
 30
0.0
  0
VERTEX
  5
1E87
  8
SAPA_PROFIL
 10
37.400670838033342
 20
204.4505704458559
 30
0.0
 42
-0.4142135623730951
  0
VERTEX
  5
1E88
  8
SAPA_PROFIL
 10
37.100670838033153
 20
204.750570445856
 30
0.0
  0
VERTEX
  5
1E89
  8
SAPA_PROFIL
 10
37.100670838033153
 20
207.05057044585581
 30
0.0
 42
-0.4142135623730744
  0
VERTEX
  5
1E8A
  8
SAPA_PROFIL
 10
37.400670838032433
 20
207.35057044585599
 30
0.0
  0
VERTEX
  5
1E8B
  8
SAPA_PROFIL
 10
42.000670837950928
 20
207.35057044585599
 30
0.0
 42
0.4142135623730951
  0
VERTEX
  5
1E8C
  8
SAPA_PROFIL
 10
43.000670837925469
 20
208.35057044583871
 30
0.0
  0
VERTEX
  5
1E8D
  8
SAPA_PROFIL
 10
43.000670837973097
 20
215.35057044585389
 30
0.0
 42
0.4142135623752928
  0
VERTEX
  5
1E8E
  8
SAPA_PROFIL
 10
42.500670837972763
 20
215.85057044585761
 30
0.0
  0
VERTEX
  5
1E8F
  8
SAPA_PROFIL
 10
10.00067083765898
 20
215.85057044583669
 30
0.0
 42
0.4142135623728287
  0
VERTEX
  5
1E90
  8
SAPA_PROFIL
 10
9.5006708376594418
 20
215.35057044583661
 30
0.0
  0
VERTEX
  5
1E91
  8
SAPA_PROFIL
 10
9.5006708376592162
 20
210.35057044583121
 30
0.0
 42
-0.4142135623728953
  0
VERTEX
  5
1E92
  8
SAPA_PROFIL
 10
9.2006708376592616
 20
210.050570445831
 30
0.0
  0
VERTEX
  5
1E93
  8
SAPA_PROFIL
 10
7.8006708376601077
 20
210.050570445831
 30
0.0
 42
-0.4142135623733406
  0
VERTEX
  5
1E94
  8
SAPA_PROFIL
 10
7.5006708376601248
 20
210.35057044583161
 30
0.0
  0
VERTEX
  5
1E95
  8
SAPA_PROFIL
 10
7.5006708376673989
 20
215.5505704458306
 30
0.0
 42
0.4142135623736278
  0
VERTEX
  5
1E96
  8
SAPA_PROFIL
 10
7.0006708376673989
 20
216.050570445831
 30
0.0
  0
VERTEX
  5
1E97
  8
SAPA_PROFIL
 10
2.9148844000409322
 20
216.05057044583111
 30
0.0
 42
0.1989123673796446
  0
VERTEX
  5
1E98
  8
SAPA_PROFIL
 10
2.7027523656846881
 20
215.96270248018709
 30
0.0
  0
VERTEX
  5
1E99
  8
SAPA_PROFIL
 10
2.43706694073569
 20
215.69701705523761
 30
0.0
 42
-0.414213562373048
  0
VERTEX
  5
1E9A
  8
SAPA_PROFIL
 10
1.729960159549051
 20
215.69701705523761
 30
0.0
  0
VERTEX
  5
1E9B
  8
SAPA_PROFIL
 10
0.08853880331246
 20
217.3384384114747
 30
0.0
 42
-0.6681786379187616
  0
VERTEX
  5
1E9C
  8
SAPA_PROFIL
 10
0.3006708376682638
 20
217.8505704458303
 30
0.0
  0
VERTEX
  5
1E9D
  8
SAPA_PROFIL
 10
44.500670837986171
 20
217.85057044585889
 30
0.0
 42
-0.4142135623754925
  0
VERTEX
  5
1E9E
  8
SAPA_PROFIL
 10
45.000670837986632
 20
217.35057044585531
 30
0.0
  0
VERTEX
  5
1E9F
  8
SAPA_PROFIL
 10
45.000670837507812
 20
76.350570445852924
 30
0.0
 42
-0.7336498725448476
  0
VERTEX
  5
1EA0
  8
SAPA_PROFIL
 10
44.090782125072103
 20
76.064229314637856
 30
0.0
  0
VERTEX
  5
1EA1
  8
SAPA_PROFIL
 10
42.054737610033037
 20
78.978765767118489
 30
0.0
 42
-0.606441717362567
  0
VERTEX
  5
1EA2
  8
SAPA_PROFIL
 10
42.300670837493719
 20
79.450570445839645
 30
0.0
  0
VERTEX
  5
1EA3
  8
SAPA_PROFIL
 10
42.524346021298022
 20
79.450570445839617
 30
0.0
 42
0.6370702608054076
  0
VERTEX
  5
1EA4
  8
SAPA_PROFIL
 10
42.754159354234837
 20
79.943406728744236
 30
0.0
  0
VERTEX
  5
1EA5
  8
SAPA_PROFIL
 10
42.070857504557999
 20
80.757734162934057
 30
0.0
 42
-0.6370702608052336
  0
VERTEX
  5
1EA6
  8
SAPA_PROFIL
 10
42.300670837493719
 20
81.250570445839827
 30
0.0
  0
VERTEX
  5
1EA7
  8
SAPA_PROFIL
 10
42.524346021298022
 20
81.250570445839799
 30
0.0
 42
0.6370702608054076
  0
VERTEX
  5
1EA8
  8
SAPA_PROFIL
 10
42.754159354234837
 20
81.743406728744404
 30
0.0
  0
VERTEX
  5
1EA9
  8
SAPA_PROFIL
 10
42.070857504557999
 20
82.557734162934054
 30
0.0
 42
-0.6370702608058605
  0
VERTEX
  5
1EAA
  8
SAPA_PROFIL
 10
42.300670837493719
 20
83.050570445840009
 30
0.0
  0
VERTEX
  5
1EAB
  8
SAPA_PROFIL
 10
42.524346021297781
 20
83.050570445839867
 30
0.0
 42
0.6370702608051136
  0
VERTEX
  5
1EAC
  8
SAPA_PROFIL
 10
42.754159354234837
 20
83.543406728744372
 30
0.0
  0
VERTEX
  5
1EAD
  8
SAPA_PROFIL
 10
42.070857504557949
 20
84.35773416293415
 30
0.0
 42
-0.6370702608057057
  0
VERTEX
  5
1EAE
  8
SAPA_PROFIL
 10
42.300670837493719
 20
84.850570445839963
 30
0.0
  0
VERTEX
  5
1EAF
  8
SAPA_PROFIL
 10
42.52434602129776
 20
84.850570445839594
 30
0.0
 42
0.6370702608047383
  0
VERTEX
  5
1EB0
  8
SAPA_PROFIL
 10
42.754159354234837
 20
85.343406728744327
 30
0.0
  0
VERTEX
  5
1EB1
  8
SAPA_PROFIL
 10
42.070857504556869
 20
86.157734162935299
 30
0.0
 42
-0.6370702608048892
  0
VERTEX
  5
1EB2
  8
SAPA_PROFIL
 10
42.300670837493719
 20
86.650570445839918
 30
0.0
  0
VERTEX
  5
1EB3
  8
SAPA_PROFIL
 10
42.524346021298022
 20
86.650570445839875
 30
0.0
 42
0.6370702608052951
  0
VERTEX
  5
1EB4
  8
SAPA_PROFIL
 10
42.754159354234837
 20
87.143406728744282
 30
0.0
  0
SEQEND
  5
1EB5
  8
SAPA_PROFIL
  0
POLYLINE
  5
16D7
  8
SAPA_PROFIL
 66
     1
 10
0.0
 20
0.0
 30
0.0
 70
     1
  0
VERTEX
  5
1EB6
  8
SAPA_PROFIL
 10
165.50067083774789
 20
83.104759905500998
 30
0.0
  0
VERTEX
  5
1EB7
  8
SAPA_PROFIL
 10
165.50067083774789
 20
82.862215967653853
 30
0.0
 42
-0.2011813370902256
  0
VERTEX
  5
1EB8
  8
SAPA_PROFIL
 10
165.44085269060781
 20
82.7195658778233
 30
0.0
  0
VERTEX
  5
1EB9
  8
SAPA_PROFIL
 10
164.5141053318782
 20
81.808853784799396
 30
0.0
  0
VERTEX
  5
1EBA
  8
SAPA_PROFIL
 10
163.0006708377461
 20
81.822061327542585
 30
0.0
 42
0.4931454260356012
  0
VERTEX
  5
1EBB
  8
SAPA_PROFIL
 10
161.4294058775082
 20
82.042888216590256
 30
0.0
  0
VERTEX
  5
1EBC
  8
SAPA_PROFIL
 10
160.3617560406839
 20
80.993711643977463
 30
0.0
 42
0.6681786379164681
  0
VERTEX
  5
1EBD
  8
SAPA_PROFIL
 10
160.50312492113761
 20
80.643811386492516
 30
0.0
  0
VERTEX
  5
1EBE
  8
SAPA_PROFIL
 10
165.00067083774789
 20
80.604561897895223
 30
0.0
  0
VERTEX
  5
1EBF
  8
SAPA_PROFIL
 10
167.11476368933759
 20
82.682075157124984
 30
0.0
 42
-0.2038501166358263
  0
VERTEX
  5
1EC0
  8
SAPA_PROFIL
 10
167.4790704687554
 20
82.825258013731002
 30
0.0
  0
VERTEX
  5
1EC1
  8
SAPA_PROFIL
 10
182.58378372134979
 20
82.406631904442122
 30
0.0
 42
-0.4061212134736873
  0
VERTEX
  5
1EC2
  8
SAPA_PROFIL
 10
185.50067083774141
 20
79.407783417342671
 30
0.0
  0
VERTEX
  5
1EC3
  8
SAPA_PROFIL
 10
185.50067083774141
 20
67.623592173874613
 30
0.0
 42
-0.4142135623730951
  0
VERTEX
  5
1EC4
  8
SAPA_PROFIL
 10
185.00067083774141
 20
67.123592173874613
 30
0.0
  0
VERTEX
  5
1EC5
  8
SAPA_PROFIL
 10
173.41488440011631
 20
67.123592173874613
 30
0.0
 42
-0.198912367379658
  0
VERTEX
  5
1EC6
  8
SAPA_PROFIL
 10
172.70777761892981
 20
67.41648539268806
 30
0.0
  0
VERTEX
  5
1EC7
  8
SAPA_PROFIL
 10
172.32717884553921
 20
67.797084166078548
 30
0.0
 42
0.1830252782112529
  0
VERTEX
  5
1EC8
  8
SAPA_PROFIL
 10
171.03551103680789
 20
68.379112707826152
 30
0.0
  0
VERTEX
  5
1EC9
  8
SAPA_PROFIL
 10
160.60243900800211
 20
69.102177435156705
 30
0.0
 42
0.668178637923616
  0
VERTEX
  5
1ECA
  8
SAPA_PROFIL
 10
160.38905668846849
 20
68.587026945367711
 30
0.0
  0
VERTEX
  5
1ECB
  8
SAPA_PROFIL
 10
162.3885388033911
 20
66.587544830445154
 30
0.0
 42
0.7332303362588345
  0
VERTEX
  5
1ECC
  8
SAPA_PROFIL
 10
162.8961131636508
 20
66.851771318102351
 30
0.0
  0
VERTEX
  5
1ECD
  8
SAPA_PROFIL
 10
162.7875290528647
 20
67.467582411500743
 30
0.0
 42
-0.4663076581593561
  0
VERTEX
  5
1ECE
  8
SAPA_PROFIL
 10
163.08297137876809
 20
67.819676864800954
 30
0.0
  0
VERTEX
  5
1ECF
  8
SAPA_PROFIL
 10
170.8424485041204
 20
67.088517242920489
 30
0.0
 42
-0.183025278211264
  0
VERTEX
  5
1ED0
  8
SAPA_PROFIL
 10
171.4882824084861
 20
66.797502972046686
 30
0.0
  0
VERTEX
  5
1ED1
  8
SAPA_PROFIL
 10
171.87640676903109
 20
66.409378611501666
 30
0.0
 42
0.1989123673796518
  0
VERTEX
  5
1ED2
  8
SAPA_PROFIL
 10
173.29062033140411
 20
65.823592173874772
 30
0.0
  0
VERTEX
  5
1ED3
  8
SAPA_PROFIL
 10
184.70067083775689
 20
65.823592173874658
 30
0.0
 42
-0.4142135623732283
  0
VERTEX
  5
1ED4
  8
SAPA_PROFIL
 10
185.20067083775689
 20
65.323592173874431
 30
0.0
  0
VERTEX
  5
1ED5
  8
SAPA_PROFIL
 10
185.20067083775601
 20
64.123592173875068
 30
0.0
 42
0.4142135623732062
  0
VERTEX
  5
1ED6
  8
SAPA_PROFIL
 10
185.50067083775599
 20
63.823592173874999
 30
0.0
  0
VERTEX
  5
1ED7
  8
SAPA_PROFIL
 10
186.70067083774151
 20
63.823592173874658
 30
0.0
 42
0.4142135623716247
  0
VERTEX
  5
1ED8
  8
SAPA_PROFIL
 10
187.0006708377415
 20
64.123592173875977
 30
0.0
  0
VERTEX
  5
1ED9
  8
SAPA_PROFIL
 10
187.000670837755
 20
84.099999916197973
 30
0.0
 42
0.4142135623732938
  0
VERTEX
  5
1EDA
  8
SAPA_PROFIL
 10
186.80067083775501
 20
84.299999916198033
 30
0.0
  0
VERTEX
  5
1EDB
  8
SAPA_PROFIL
 10
165.2052947240692
 20
84.299999916198033
 30
0.0
 42
0.4210020197690384
  0
VERTEX
  5
1EDC
  8
SAPA_PROFIL
 10
165.00067083774789
 20
84.100053374154015
 30
0.0
  0
VERTEX
  5
1EDD
  8
SAPA_PROFIL
 10
165.00067083774141
 20
83.512070210958484
 30
0.0
  0
VERTEX
  5
1EDE
  8
SAPA_PROFIL
 10
165.30067083774139
 20
83.512070210958484
 30
0.0
 42
-0.41421356237322
  0
VERTEX
  5
1EDF
  8
SAPA_PROFIL
 10
165.5006708377413
 20
83.312070210958439
 30
0.0
  0
VERTEX
  5
1EE0
  8
SAPA_PROFIL
 10
165.50067083774141
 20
83.094892445488824
 30
0.0
  0
SEQEND
  5
1EE1
  8
SAPA_PROFIL
  0
CIRCLE
  5
16D8
  8
SAPA_PROFIL
 62
     2
 10
183.6640117651618
 20
3.1894243677820659
 30
0.0
 40
0.8999999999999985
  0
POLYLINE
  5
16D9
  8
SAPA_PROFIL
 62
     2
 66
     1
 10
0.0
 20
0.0
 30
0.0
  0
VERTEX
  5
1EE2
  8
SAPA_PROFIL
 62
     2
 10
185.06401176516181
 20
4.4974307793551134
 30
0.0
  0
VERTEX
  5
1EE3
  8
SAPA_PROFIL
 62
     2
 10
184.87165334516939
 20
3.4065119692023691
 30
0.0
  0
VERTEX
  5
1EE4
  8
SAPA_PROFIL
 62
     2
 10
185.30344990507101
 20
3.2908124296824321
 30
0.0
 42
-0.4430158954262519
  0
VERTEX
  5
1EE5
  8
SAPA_PROFIL
 62
     2
 10
185.43892695261511
 20
3.0273360015754629
 30
0.0
  0
VERTEX
  5
1EE6
  8
SAPA_PROFIL
 62
     2
 10
184.96197875939609
 20
1.7568482536572669
 30
0.0
 42
-0.3125358528825162
  0
VERTEX
  5
1EE7
  8
SAPA_PROFIL
 62
     2
 10
184.58749704626669
 20
1.4974307793555679
 30
0.0
  0
VERTEX
  5
1EE8
  8
SAPA_PROFIL
 62
     2
 10
182.7173417303564
 20
1.4974307793551129
 30
0.0
 42
-0.3125358528825104
  0
VERTEX
  5
1EE9
  8
SAPA_PROFIL
 62
     2
 10
182.342860017227
 20
1.7568482536572669
 30
0.0
  0
VERTEX
  5
1EEA
  8
SAPA_PROFIL
 62
     2
 10
181.86591182400781
 20
3.0273360015754629
 30
0.0
 42
-0.4430158954262519
  0
VERTEX
  5
1EEB
  8
SAPA_PROFIL
 62
     2
 10
182.00138887155191
 20
3.290812429682318
 30
0.0
  0
VERTEX
  5
1EEC
  8
SAPA_PROFIL
 62
     2
 10
182.43318543145381
 20
3.4065119692023691
 30
0.0
  0
VERTEX
  5
1EED
  8
SAPA_PROFIL
 62
     2
 10
182.24091938831151
 20
4.4974307793551134
 30
0.0
  0
SEQEND
  5
1EEE
  8
SAPA_PROFIL
 62
     2
  0
POLYLINE
  5
16DA
  8
SAPA_PROFIL
 62
     2
 66
     1
 10
0.0
 20
0.0
 30
0.0
 70
     1
  0
VERTEX
  5
1EEF
  8
SAPA_PROFIL
 62
     2
 10
185.05241938831139
 20
4.4974307793551134
 30
0.0
 42
0.285714285714282
  0
VERTEX
  5
1EF0
  8
SAPA_PROFIL
 62
     2
 10
182.25241938831149
 20
4.4974307793551134
 30
0.0
  0
VERTEX
  5
1EF1
  8
SAPA_PROFIL
 62
     2
 10
180.17863921892359
 20
4.4974307793555681
 30
0.0
 42
-0.3882600129940275
  0
VERTEX
  5
1EF2
  8
SAPA_PROFIL
 62
     2
 10
179.87983772158219
 20
4.7706415056351261
 30
0.0
  0
VERTEX
  5
1EF3
  8
SAPA_PROFIL
 62
     2
 10
179.41362779765569
 20
8.6706415056352171
 30
0.0
 42
-0.4406523138893894
  0
VERTEX
  5
1EF4
  8
SAPA_PROFIL
 62
     2
 10
179.71242929499761
 20
8.9974307793551134
 30
0.0
  0
VERTEX
  5
1EF5
  8
SAPA_PROFIL
 62
     2
 10
181.42222129191791
 20
8.9974307793551134
 30
0.0
 42
-0.3394542588634375
  0
VERTEX
  5
1EF6
  8
SAPA_PROFIL
 62
     2
 10
181.71199903980451
 20
8.7750764928861145
 30
0.0
  0
VERTEX
  5
1EF7
  8
SAPA_PROFIL
 62
     2
 10
181.91437876773591
 20
8.5574907107185254
 30
0.0
 42
0.3394542588633663
  0
VERTEX
  5
1EF8
  8
SAPA_PROFIL
 62
     2
 10
182.20415651562271
 20
8.3351364242495265
 30
0.0
  0
VERTEX
  5
1EF9
  8
SAPA_PROFIL
 62
     2
 10
185.10068226100049
 20
8.3351364242495265
 30
0.0
 42
0.3394542588634373
  0
VERTEX
  5
1EFA
  8
SAPA_PROFIL
 62
     2
 10
185.39046000888709
 20
8.5574907107185254
 30
0.0
  0
VERTEX
  5
1EFB
  8
SAPA_PROFIL
 62
     2
 10
185.59283973681849
 20
8.7750764928861145
 30
0.0
 42
-0.3394542588633662
  0
VERTEX
  5
1EFC
  8
SAPA_PROFIL
 62
     2
 10
185.88261748470529
 20
8.9974307793551134
 30
0.0
  0
VERTEX
  5
1EFD
  8
SAPA_PROFIL
 62
     2
 10
187.5924094816254
 20
8.9974307793551134
 30
0.0
 42
-0.4406523138893994
  0
VERTEX
  5
1EFE
  8
SAPA_PROFIL
 62
     2
 10
187.891210978967
 20
8.6706415056352171
 30
0.0
  0
VERTEX
  5
1EFF
  8
SAPA_PROFIL
 62
     2
 10
187.4250010550407
 20
4.7706415056351261
 30
0.0
 42
-0.3882600129940462
  0
VERTEX
  5
1F00
  8
SAPA_PROFIL
 62
     2
 10
187.12619955769929
 20
4.4974307793551134
 30
0.0
  0
VERTEX
  5
1F01
  8
SAPA_PROFIL
 62
     2
 10
185.06401176516181
 20
4.4974307793551134
 30
0.0
  0
SEQEND
  5
1F02
  8
SAPA_PROFIL
 62
     2
  0
POLYLINE
  5
16DB
  8
SAPA_PROFIL
 66
     1
 10
0.0
 20
0.0
 30
0.0
 70
     1
  0
VERTEX
  5
1F03
  8
SAPA_PROFIL
 10
114.54568008467859
 20
63.999999922235929
 30
0.0
  0
VERTEX
  5
1F04
  8
SAPA_PROFIL
 10
118.3984664891789
 20
63.999999922235929
 30
0.0
 42
-0.4142135623731784
  0
VERTEX
  5
1F05
  8
SAPA_PROFIL
 10
118.698466489179
 20
63.699999922235861
 30
0.0
  0
VERTEX
  5
1F06
  8
SAPA_PROFIL
 10
118.6984664891788
 20
63.399999922235509
 30
0.0
  0
VERTEX
  5
1F07
  8
SAPA_PROFIL
 10
117.7747060584755
 20
61.799999922235891
 30
0.0
 42
0.5773502691887984
  0
VERTEX
  5
1F08
  8
SAPA_PROFIL
 10
117.9479111392325
 20
61.499999922235929
 30
0.0
  0
VERTEX
  5
1F09
  8
SAPA_PROFIL
 10
119.3335517852874
 20
61.499999922235929
 30
0.0
 42
0.2679491924311038
  0
VERTEX
  5
1F0A
  8
SAPA_PROFIL
 10
120.1995771890719
 20
61.999999922235759
 30
0.0
  0
VERTEX
  5
1F0B
  8
SAPA_PROFIL
 10
121.2099401586451
 20
63.749999919622731
 30
0.0
 42
-0.2679491932396976
  0
VERTEX
  5
1F0C
  8
SAPA_PROFIL
 10
121.6429528620462
 20
63.999999919622752
 30
0.0
  0
VERTEX
  5
1F0D
  8
SAPA_PROFIL
 10
154.28105559547731
 20
63.99999991962278
 30
0.0
  0
VERTEX
  5
1F0E
  8
SAPA_PROFIL
 10
154.8006708377479
 20
64.299999919622792
 30
0.0
  0
VERTEX
  5
1F0F
  8
SAPA_PROFIL
 10
155.3202860800186
 20
63.99999991962278
 30
0.0
  0
VERTEX
  5
1F10
  8
SAPA_PROFIL
 10
155.6583888134499
 20
63.99999991962278
 30
0.0
 42
-0.2679491916226445
  0
VERTEX
  5
1F11
  8
SAPA_PROFIL
 10
156.0914015153422
 20
63.74999992223588
 30
0.0
  0
VERTEX
  5
1F12
  8
SAPA_PROFIL
 10
157.10176448642409
 20
61.99999992223588
 30
0.0
 42
0.2679491924311319
  0
VERTEX
  5
1F13
  8
SAPA_PROFIL
 10
157.96778989020851
 20
61.499999922235943
 30
0.0
  0
VERTEX
  5
1F14
  8
SAPA_PROFIL
 10
159.3534305362636
 20
61.499999922235943
 30
0.0
 42
0.5773502691893683
  0
VERTEX
  5
1F15
  8
SAPA_PROFIL
 10
159.52663561702059
 20
61.799999922235891
 30
0.0
  0
VERTEX
  5
1F16
  8
SAPA_PROFIL
 10
158.60287518631719
 20
63.399999922235921
 30
0.0
  0
VERTEX
  5
1F17
  8
SAPA_PROFIL
 10
158.60287518631719
 20
63.699999922235861
 30
0.0
 42
-0.4142135623732059
  0
VERTEX
  5
1F18
  8
SAPA_PROFIL
 10
158.9028751863174
 20
63.999999922235943
 30
0.0
  0
VERTEX
  5
1F19
  8
SAPA_PROFIL
 10
162.75566159081751
 20
63.999999922235943
 30
0.0
 42
0.2134217652834387
  0
VERTEX
  5
1F1A
  8
SAPA_PROFIL
 10
162.97926838856759
 20
64.099999922236066
 30
0.0
 42
-0.7625858545243238
  0
VERTEX
  5
1F1B
  8
SAPA_PROFIL
 10
163.3095944695846
 20
63.915420720038583
 30
0.0
  0
VERTEX
  5
1F1C
  8
SAPA_PROFIL
 10
163.2515208325955
 20
63.724037720044848
 30
0.0
  0
VERTEX
  5
1F1D
  8
SAPA_PROFIL
 10
162.16695638562379
 20
61.8381940281838
 30
0.0
  0
VERTEX
  5
1F1E
  8
SAPA_PROFIL
 10
161.84519865740549
 20
61.84875539441078
 30
0.0
 42
0.5773502691897466
  0
VERTEX
  5
1F1F
  8
SAPA_PROFIL
 10
161.66224491729531
 20
61.554599094155932
 30
0.0
  0
VERTEX
  5
1F20
  8
SAPA_PROFIL
 10
161.8143788284041
 20
61.269916810924293
 30
0.0
 42
0.221694662643019
  0
VERTEX
  5
1F21
  8
SAPA_PROFIL
 10
162.35525865988089
 20
60.864107905769508
 30
0.0
  0
VERTEX
  5
1F22
  8
SAPA_PROFIL
 10
164.1684891305392
 20
60.482661309641792
 30
0.0
 42
0.476975532698164
  0
VERTEX
  5
1F23
  8
SAPA_PROFIL
 10
164.54014600548501
 20
60.784914134148259
 30
0.0
  0
VERTEX
  5
1F24
  8
SAPA_PROFIL
 10
164.54006239760139
 20
62.288015214910267
 30
0.0
  0
VERTEX
  5
1F25
  8
SAPA_PROFIL
 10
164.4922166476029
 20
62.30253362415737
 30
0.0
 42
-0.4142135623730951
  0
VERTEX
  5
1F26
  8
SAPA_PROFIL
 10
164.29225260309551
 20
62.676718579633182
 30
0.0
  0
VERTEX
  5
1F27
  8
SAPA_PROFIL
 10
164.8006708377481
 20
63.992132299478563
 30
0.0
  0
VERTEX
  5
1F28
  8
SAPA_PROFIL
 10
164.8006708377479
 20
66.990283160652083
 30
0.0
 42
0.2562769736732418
  0
VERTEX
  5
1F29
  8
SAPA_PROFIL
 10
164.7081398394325
 20
67.158955664863441
 30
0.0
  0
VERTEX
  5
1F2A
  8
SAPA_PROFIL
 10
163.4618743402747
 20
67.953008671040067
 30
0.0
 42
0.5920056181180006
  0
VERTEX
  5
1F2B
  8
SAPA_PROFIL
 10
163.000670837748
 20
67.69999991472298
 30
0.0
  0
VERTEX
  5
1F2C
  8
SAPA_PROFIL
 10
163.000670837748
 20
66.299999914723003
 30
0.0
 42
-0.4142135623731505
  0
VERTEX
  5
1F2D
  8
SAPA_PROFIL
 10
162.70067083774811
 20
65.999999914722963
 30
0.0
  0
VERTEX
  5
1F2E
  8
SAPA_PROFIL
 10
160.3006708377481
 20
65.999999914723105
 30
0.0
 42
-0.4142135623729841
  0
VERTEX
  5
1F2F
  8
SAPA_PROFIL
 10
160.00067083774809
 20
66.299999914723003
 30
0.0
  0
VERTEX
  5
1F30
  8
SAPA_PROFIL
 10
160.0006708377482
 20
83.699999914723065
 30
0.0
 42
-0.4142135623730882
  0
VERTEX
  5
1F31
  8
SAPA_PROFIL
 10
160.3006708377481
 20
83.999999914723077
 30
0.0
  0
VERTEX
  5
1F32
  8
SAPA_PROFIL
 10
162.70067083774819
 20
83.999999914723062
 30
0.0
 42
-0.4142135623730118
  0
VERTEX
  5
1F33
  8
SAPA_PROFIL
 10
163.000670837748
 20
83.699999914722994
 30
0.0
  0
VERTEX
  5
1F34
  8
SAPA_PROFIL
 10
163.000670837748
 20
82.299999914722974
 30
0.0
 42
0.5877032589249656
  0
VERTEX
  5
1F35
  8
SAPA_PROFIL
 10
163.4586310448756
 20
82.044953697412865
 30
0.0
  0
VERTEX
  5
1F36
  8
SAPA_PROFIL
 10
164.90597764250001
 20
82.941352674655064
 30
0.0
 42
0.2596812337301635
  0
VERTEX
  5
1F37
  8
SAPA_PROFIL
 10
165.00067083774809
 20
83.111383486195166
 30
0.0
  0
VERTEX
  5
1F38
  8
SAPA_PROFIL
 10
165.00067083774809
 20
85.799999919554594
 30
0.0
 42
0.4142135623732095
  0
VERTEX
  5
1F39
  8
SAPA_PROFIL
 10
164.8006708377481
 20
85.999999919554583
 30
0.0
  0
VERTEX
  5
1F3A
  8
SAPA_PROFIL
 10
122.00066934359801
 20
85.999999919554583
 30
0.0
 42
0.4142135623730067
  0
VERTEX
  5
1F3B
  8
SAPA_PROFIL
 10
120.000670837748
 20
84.000001413705078
 30
0.0
  0
VERTEX
  5
1F3C
  8
SAPA_PROFIL
 10
120.000670837748
 20
78.299999172479659
 30
0.0
 42
-0.4142135623729993
  0
VERTEX
  5
1F3D
  8
SAPA_PROFIL
 10
119.0006715848229
 20
77.299999919554566
 30
0.0
  0
VERTEX
  5
1F3E
  8
SAPA_PROFIL
 10
111.4996518377479
 20
77.299999919554665
 30
0.0
 42
0.4142135623730951
  0
VERTEX
  5
1F3F
  8
SAPA_PROFIL
 10
110.4996518377479
 20
76.299999919554651
 30
0.0
  0
VERTEX
  5
1F40
  8
SAPA_PROFIL
 10
110.4996518377479
 20
75.802224770139674
 30
0.0
 42
0.4142135623729598
  0
VERTEX
  5
1F41
  8
SAPA_PROFIL
 10
110.69965168833301
 20
75.602224919554573
 30
0.0
  0
VERTEX
  5
1F42
  8
SAPA_PROFIL
 10
112.2975024009266
 20
75.602224919554658
 30
0.0
 42
-0.414645992438811
  0
VERTEX
  5
1F43
  8
SAPA_PROFIL
 10
112.4975021830151
 20
75.401929683094124
 30
0.0
  0
VERTEX
  5
1F44
  8
SAPA_PROFIL
 10
112.4990586899569
 20
63.99630335625379
 30
0.0
  0
VERTEX
  5
1F45
  8
SAPA_PROFIL
 10
113.0090890724003
 20
62.676718579633189
 30
0.0
 42
-0.4142135623730951
  0
VERTEX
  5
1F46
  8
SAPA_PROFIL
 10
112.8091250278929
 20
62.30253362415737
 30
0.0
  0
VERTEX
  5
1F47
  8
SAPA_PROFIL
 10
112.7612792778944
 20
62.288015214910267
 30
0.0
  0
VERTEX
  5
1F48
  8
SAPA_PROFIL
 10
112.76119567001069
 20
60.784914134148273
 30
0.0
 42
0.4769755326981641
  0
VERTEX
  5
1F49
  8
SAPA_PROFIL
 10
113.13285254495661
 20
60.482661309641792
 30
0.0
  0
VERTEX
  5
1F4A
  8
SAPA_PROFIL
 10
114.9460830156149
 20
60.864107905769522
 30
0.0
 42
0.2216946626430191
  0
VERTEX
  5
1F4B
  8
SAPA_PROFIL
 10
115.4869628470916
 20
61.269916810924308
 30
0.0
  0
VERTEX
  5
1F4C
  8
SAPA_PROFIL
 10
115.6390967582004
 20
61.554599094155961
 30
0.0
 42
0.5773502691897466
  0
VERTEX
  5
1F4D
  8
SAPA_PROFIL
 10
115.4561430180902
 20
61.848755394410773
 30
0.0
  0
VERTEX
  5
1F4E
  8
SAPA_PROFIL
 10
115.134385289872
 20
61.838194028183807
 30
0.0
  0
VERTEX
  5
1F4F
  8
SAPA_PROFIL
 10
114.0498208429002
 20
63.724037720044862
 30
0.0
  0
VERTEX
  5
1F50
  8
SAPA_PROFIL
 10
113.9917472059112
 20
63.915420720038583
 30
0.0
 42
-0.7625858545243257
  0
VERTEX
  5
1F51
  8
SAPA_PROFIL
 10
114.3220732869282
 20
64.099999922236066
 30
0.0
 42
0.2134217652834391
  0
SEQEND
  5
1F52
  8
SAPA_PROFIL
  0
POLYLINE
  5
16DC
  8
SAPA_PROFIL
 66
     1
 10
0.0
 20
0.0
 30
0.0
 70
     1
  0
VERTEX
  5
1F53
  8
SAPA_PROFIL
 10
122.000670837748
 20
83.999999922772787
 30
0.0
  0
VERTEX
  5
1F54
  8
SAPA_PROFIL
 10
124.000670837748
 20
83.999999922772787
 30
0.0
  0
VERTEX
  5
1F55
  8
SAPA_PROFIL
 10
124.0006708377479
 20
83.899999922772864
 30
0.0
 42
0.4142135623732199
  0
VERTEX
  5
1F56
  8
SAPA_PROFIL
 10
124.20067083774789
 20
83.699999922772776
 30
0.0
  0
VERTEX
  5
1F57
  8
SAPA_PROFIL
 10
125.8006708377479
 20
83.699999922772676
 30
0.0
 42
0.4142135623727933
  0
VERTEX
  5
1F58
  8
SAPA_PROFIL
 10
126.000670837748
 20
83.899999922772565
 30
0.0
  0
VERTEX
  5
1F59
  8
SAPA_PROFIL
 10
126.000670837748
 20
83.999999922772787
 30
0.0
  0
VERTEX
  5
1F5A
  8
SAPA_PROFIL
 10
154.3006708377479
 20
83.999999922772787
 30
0.0
  0
VERTEX
  5
1F5B
  8
SAPA_PROFIL
 10
154.30067083774821
 20
83.899999922772778
 30
0.0
 42
0.4142135623730847
  0
VERTEX
  5
1F5C
  8
SAPA_PROFIL
 10
154.5006708377482
 20
83.699999922772776
 30
0.0
  0
VERTEX
  5
1F5D
  8
SAPA_PROFIL
 10
156.10067083774811
 20
83.699999922772889
 30
0.0
 42
0.4142135623730847
  0
VERTEX
  5
1F5E
  8
SAPA_PROFIL
 10
156.30067083774799
 20
83.899999922772778
 30
0.0
  0
VERTEX
  5
1F5F
  8
SAPA_PROFIL
 10
156.30067083774799
 20
83.999999922772787
 30
0.0
  0
VERTEX
  5
1F60
  8
SAPA_PROFIL
 10
158.00067083774809
 20
83.999999922772787
 30
0.0
 42
-0.4142135623730675
  0
VERTEX
  5
1F61
  8
SAPA_PROFIL
 10
158.3006708377479
 20
83.699999922772776
 30
0.0
  0
VERTEX
  5
1F62
  8
SAPA_PROFIL
 10
158.3006708377479
 20
66.099999922772781
 30
0.0
 42
-0.4142135623730673
  0
VERTEX
  5
1F63
  8
SAPA_PROFIL
 10
158.00067083774809
 20
65.799999922772827
 30
0.0
  0
VERTEX
  5
1F64
  8
SAPA_PROFIL
 10
156.3006708377479
 20
65.799999922772827
 30
0.0
  0
VERTEX
  5
1F65
  8
SAPA_PROFIL
 10
156.3006708377481
 20
66.099999922772838
 30
0.0
 42
0.4142135623731367
  0
VERTEX
  5
1F66
  8
SAPA_PROFIL
 10
156.10067083774791
 20
66.299999922772827
 30
0.0
  0
VERTEX
  5
1F67
  8
SAPA_PROFIL
 10
154.5006708377482
 20
66.299999922772884
 30
0.0
 42
0.4142135623732407
  0
VERTEX
  5
1F68
  8
SAPA_PROFIL
 10
154.3006708377481
 20
66.099999922772653
 30
0.0
  0
VERTEX
  5
1F69
  8
SAPA_PROFIL
 10
154.3006708377481
 20
65.79999992277277
 30
0.0
  0
VERTEX
  5
1F6A
  8
SAPA_PROFIL
 10
126.0006708377478
 20
65.79999992277277
 30
0.0
  0
VERTEX
  5
1F6B
  8
SAPA_PROFIL
 10
126.0006708377479
 20
66.099999922772838
 30
0.0
 42
0.4142135623732199
  0
VERTEX
  5
1F6C
  8
SAPA_PROFIL
 10
125.8006708377479
 20
66.299999922772827
 30
0.0
  0
VERTEX
  5
1F6D
  8
SAPA_PROFIL
 10
124.20067083774789
 20
66.299999922772741
 30
0.0
 42
0.4142135623733448
  0
VERTEX
  5
1F6E
  8
SAPA_PROFIL
 10
124.000670837748
 20
66.099999922772653
 30
0.0
  0
VERTEX
  5
1F6F
  8
SAPA_PROFIL
 10
124.000670837748
 20
65.799999922772827
 30
0.0
  0
VERTEX
  5
1F70
  8
SAPA_PROFIL
 10
114.5006708377482
 20
65.799999922772827
 30
0.0
 42
-0.4142135623732061
  0
VERTEX
  5
1F71
  8
SAPA_PROFIL
 10
114.20067083774811
 20
66.099999922772838
 30
0.0
  0
VERTEX
  5
1F72
  8
SAPA_PROFIL
 10
114.20067083774811
 20
75.299999919554665
 30
0.0
 42
-0.4142135623732059
  0
VERTEX
  5
1F73
  8
SAPA_PROFIL
 10
114.5006708377482
 20
75.599999919554634
 30
0.0
  0
VERTEX
  5
1F74
  8
SAPA_PROFIL
 10
119.0006715848229
 20
75.599999919554634
 30
0.0
 42
0.414213562373052
  0
VERTEX
  5
1F75
  8
SAPA_PROFIL
 10
121.70067083774789
 20
78.299999172479488
 30
0.0
  0
VERTEX
  5
1F76
  8
SAPA_PROFIL
 10
121.70067083774789
 20
83.699999922772776
 30
0.0
 42
-0.4142135623732891
  0
SEQEND
  5
1F77
  8
SAPA_PROFIL
  0
POLYLINE
  5
16DD
  8
SAPA_PROFIL
 66
     1
 10
0.0
 20
0.0
 30
0.1
 70
     1
  0
VERTEX
  5
1F78
  8
SAPA_PROFIL
 10
120.2010533690717
 20
23.999999922318349
 30
0.1
 42
0.2679491924311119
  0
VERTEX
  5
1F79
  8
SAPA_PROFIL
 10
119.3350279652874
 20
24.49999992231826
 30
0.1
  0
VERTEX
  5
1F7A
  8
SAPA_PROFIL
 10
117.9493873192323
 20
24.499999922318139
 30
0.1
 42
0.5773502691897603
  0
VERTEX
  5
1F7B
  8
SAPA_PROFIL
 10
117.7761822384755
 20
24.199999922318192
 30
0.1
  0
VERTEX
  5
1F7C
  8
SAPA_PROFIL
 10
118.6999426691788
 20
22.599999922318499
 30
0.1
  0
VERTEX
  5
1F7D
  8
SAPA_PROFIL
 10
118.6999426691788
 20
22.299999922318321
 30
0.1
 42
-0.4142135623728995
  0
VERTEX
  5
1F7E
  8
SAPA_PROFIL
 10
118.3999426691789
 20
21.999999922318249
 30
0.1
  0
VERTEX
  5
1F7F
  8
SAPA_PROFIL
 10
114.5471562646788
 20
21.99999992231831
 30
0.1
 42
0.2134217652834313
  0
VERTEX
  5
1F80
  8
SAPA_PROFIL
 10
114.3235494669287
 20
21.899999922318191
 30
0.1
 42
-0.7625858545243313
  0
VERTEX
  5
1F81
  8
SAPA_PROFIL
 10
113.9932233859117
 20
22.084579124515649
 30
0.1
  0
VERTEX
  5
1F82
  8
SAPA_PROFIL
 10
114.0512970229008
 20
22.27596212450938
 30
0.1
  0
VERTEX
  5
1F83
  8
SAPA_PROFIL
 10
115.13586146987249
 20
24.161805816370428
 30
0.1
  0
VERTEX
  5
1F84
  8
SAPA_PROFIL
 10
115.4576191980908
 20
24.151244450143441
 30
0.1
 42
0.5773502691897454
  0
VERTEX
  5
1F85
  8
SAPA_PROFIL
 10
115.6405729382009
 20
24.445400750398289
 30
0.1
  0
VERTEX
  5
1F86
  8
SAPA_PROFIL
 10
115.4884390270922
 20
24.730083033629938
 30
0.1
 42
0.2216946626430149
  0
VERTEX
  5
1F87
  8
SAPA_PROFIL
 10
114.9475591956154
 20
25.13589193878472
 30
0.1
  0
VERTEX
  5
1F88
  8
SAPA_PROFIL
 10
113.1343287249572
 20
25.51733853491244
 30
0.1
 42
0.476975532698164
  0
VERTEX
  5
1F89
  8
SAPA_PROFIL
 10
112.7626718500113
 20
25.215085710405969
 30
0.1
  0
VERTEX
  5
1F8A
  8
SAPA_PROFIL
 10
112.7627554578949
 20
23.711984629643968
 30
0.1
  0
VERTEX
  5
1F8B
  8
SAPA_PROFIL
 10
112.8106012078934
 20
23.697466220396858
 30
0.1
 42
-0.4142135623730875
  0
VERTEX
  5
1F8C
  8
SAPA_PROFIL
 10
113.0105652524008
 20
23.32328126492105
 30
0.1
  0
VERTEX
  5
1F8D
  8
SAPA_PROFIL
 10
112.50067083383711
 20
22.004048263159021
 30
0.1
  0
VERTEX
  5
1F8E
  8
SAPA_PROFIL
 10
112.50067083383711
 20
2.2685215256621798
 30
0.1
 42
-0.3821712090170728
  0
VERTEX
  5
1F8F
  8
SAPA_PROFIL
 10
112.23379061793131
 20
1.970355330560259
 30
0.1
  0
VERTEX
  5
1F90
  8
SAPA_PROFIL
 10
105.6558198338371
 20
1.4445157955952579
 30
0.1
 42
-0.4469990000000183
  0
VERTEX
  5
1F91
  8
SAPA_PROFIL
 10
105.1006198338371
 20
1.9414597955952639
 30
0.1
  0
VERTEX
  5
1F92
  8
SAPA_PROFIL
 10
105.1006198338371
 20
3.6999999223182689
 30
0.1
 42
0.414213999999998
  0
VERTEX
  5
1F93
  8
SAPA_PROFIL
 10
104.1006198338371
 20
4.699999922318276
 30
0.1
  0
VERTEX
  5
1F94
  8
SAPA_PROFIL
 10
103.8330758338371
 20
4.6999999223182547
 30
0.1
 42
0.2896899999999924
  0
VERTEX
  5
1F95
  8
SAPA_PROFIL
 10
102.929567833837
 20
4.1285719223182582
 30
0.1
 42
0.5507599999999715
  0
VERTEX
  5
1F96
  8
SAPA_PROFIL
 10
103.2006198338371
 20
3.6999999223182689
 30
0.1
  0
VERTEX
  5
1F97
  8
SAPA_PROFIL
 10
103.50061983383701
 20
3.699999922318276
 30
0.1
 42
-0.4142140000001125
  0
VERTEX
  5
1F98
  8
SAPA_PROFIL
 10
103.7006198338371
 20
3.499999922318259
 30
0.1
  0
VERTEX
  5
1F99
  8
SAPA_PROFIL
 10
103.7006198338371
 20
2.3999999223182371
 30
0.1
 42
-0.4142139999999939
  0
VERTEX
  5
1F9A
  8
SAPA_PROFIL
 10
102.7006198338371
 20
1.3999999223182369
 30
0.1
  0
VERTEX
  5
1F9B
  8
SAPA_PROFIL
 10
100.4006708338371
 20
1.3999999223182369
 30
0.1
 42
-0.4142139999999918
  0
VERTEX
  5
1F9C
  8
SAPA_PROFIL
 10
99.400670833837125
 20
2.3999999223182371
 30
0.1
  0
VERTEX
  5
1F9D
  8
SAPA_PROFIL
 10
99.400670833837097
 20
3.499999922318259
 30
0.1
 42
-0.4142139999999378
  0
VERTEX
  5
1F9E
  8
SAPA_PROFIL
 10
99.600670833837114
 20
3.6999999223182689
 30
0.1
  0
VERTEX
  5
1F9F
  8
SAPA_PROFIL
 10
99.900619833837084
 20
3.6999999223182982
 30
0.1
 42
0.5507599999999796
  0
VERTEX
  5
1FA0
  8
SAPA_PROFIL
 10
100.17167283383711
 20
4.1285719223182431
 30
0.1
 42
0.2896900000000027
  0
VERTEX
  5
1FA1
  8
SAPA_PROFIL
 10
99.268164833837105
 20
4.699999922318276
 30
0.1
  0
VERTEX
  5
1FA2
  8
SAPA_PROFIL
 10
99.000670833837106
 20
4.6999999223182476
 30
0.1
 42
0.4142140000000064
  0
VERTEX
  5
1FA3
  8
SAPA_PROFIL
 10
98.000670833837091
 20
3.6999999223182689
 30
0.1
  0
VERTEX
  5
1FA4
  8
SAPA_PROFIL
 10
98.000670833837162
 20
1.9999999223182661
 30
0.1
 42
0.4142139999999918
  0
VERTEX
  5
1FA5
  8
SAPA_PROFIL
 10
100.00067083383711
 20
-0.0000000776817402
 30
0.1
  0
VERTEX
  5
1FA6
  8
SAPA_PROFIL
 10
186.50067083383701
 20
-0.0000000776816833
 30
0.1
 42
0.414213999999996
  0
VERTEX
  5
1FA7
  8
SAPA_PROFIL
 10
187.00067083383701
 20
0.4999999223182883
 30
0.1
  0
VERTEX
  5
1FA8
  8
SAPA_PROFIL
 10
187.00067083383701
 20
4.199999922318276
 30
0.1
 42
0.4142139999999107
  0
VERTEX
  5
1FA9
  8
SAPA_PROFIL
 10
186.70067083383711
 20
4.499999922318259
 30
0.1
  0
VERTEX
  5
1FAA
  8
SAPA_PROFIL
 10
185.9331258338371
 20
4.4999999223182741
 30
0.1
 42
0.2896899999999864
  0
VERTEX
  5
1FAB
  8
SAPA_PROFIL
 10
185.02961783383711
 20
3.92857192231829
 30
0.1
 42
0.5507600000000558
  0
VERTEX
  5
1FAC
  8
SAPA_PROFIL
 10
185.30067083383699
 20
3.499999922318259
 30
0.1
  0
VERTEX
  5
1FAD
  8
SAPA_PROFIL
 10
185.50067083383701
 20
3.499999922318259
 30
0.1
 42
-0.414214000000073
  0
VERTEX
  5
1FAE
  8
SAPA_PROFIL
 10
185.80067083383699
 20
3.199999922318276
 30
0.1
  0
VERTEX
  5
1FAF
  8
SAPA_PROFIL
 10
185.80067083383699
 20
1.699999922318276
 30
0.1
 42
-0.414213999999996
  0
VERTEX
  5
1FB0
  8
SAPA_PROFIL
 10
185.30067083383699
 20
1.199999922318276
 30
0.1
  0
VERTEX
  5
1FB1
  8
SAPA_PROFIL
 10
182.00067083383701
 20
1.199999922318276
 30
0.1
 42
-0.4142140000000002
  0
VERTEX
  5
1FB2
  8
SAPA_PROFIL
 10
181.50067083383701
 20
1.699999922318276
 30
0.1
  0
VERTEX
  5
1FB3
  8
SAPA_PROFIL
 10
181.50067083383701
 20
3.199999922318276
 30
0.1
 42
-0.4142140000000209
  0
VERTEX
  5
1FB4
  8
SAPA_PROFIL
 10
181.8006708338371
 20
3.499999922318259
 30
0.1
  0
VERTEX
  5
1FB5
  8
SAPA_PROFIL
 10
182.00067083383701
 20
3.499999922318203
 30
0.1
 42
0.5507600000000054
  0
VERTEX
  5
1FB6
  8
SAPA_PROFIL
 10
182.27172283383709
 20
3.9285719223182971
 30
0.1
 42
0.2896899999999876
  0
VERTEX
  5
1FB7
  8
SAPA_PROFIL
 10
181.3682148338371
 20
4.4999999223182661
 30
0.1
  0
VERTEX
  5
1FB8
  8
SAPA_PROFIL
 10
180.37074383383711
 20
4.4999999223182519
 30
0.1
 42
0.0436609999999812
  0
VERTEX
  5
1FB9
  8
SAPA_PROFIL
 10
180.28391883383711
 20
4.4924039223182604
 30
0.1
  0
VERTEX
  5
1FBA
  8
SAPA_PROFIL
 10
178.7138468338371
 20
4.2155579223182471
 30
0.1
 42
0.839099999999979
  0
VERTEX
  5
1FBB
  8
SAPA_PROFIL
 10
178.7138468338371
 20
3.2307499223182599
 30
0.1
  0
VERTEX
  5
1FBC
  8
SAPA_PROFIL
 10
179.88749483383711
 20
3.023804922318269
 30
0.1
 42
-0.363970000000042
  0
VERTEX
  5
1FBD
  8
SAPA_PROFIL
 10
180.3006708338371
 20
2.5314009223182481
 30
0.1
  0
VERTEX
  5
1FBE
  8
SAPA_PROFIL
 10
180.3006708338371
 20
1.7199999223182869
 30
0.1
 42
-0.4373279999999794
  0
VERTEX
  5
1FBF
  8
SAPA_PROFIL
 10
179.7615758338371
 20
1.221530922318258
 30
0.1
  0
VERTEX
  5
1FC0
  8
SAPA_PROFIL
 10
165.2885175604207
 20
1.7883294087141259
 30
0.1
 42
-0.4023941355298093
  0
VERTEX
  5
1FC1
  8
SAPA_PROFIL
 10
165.00067083383701
 20
2.0880831375404441
 30
0.1
  0
VERTEX
  5
1FC2
  8
SAPA_PROFIL
 10
165.00067083383701
 20
2.8886169223182701
 30
0.1
 42
0.2596810000001062
  0
VERTEX
  5
1FC3
  8
SAPA_PROFIL
 10
164.905977833837
 20
3.0586479223182641
 30
0.1
  0
VERTEX
  5
1FC4
  8
SAPA_PROFIL
 10
163.45863083383711
 20
3.9550469223183522
 30
0.1
 42
0.5877030000000574
  0
VERTEX
  5
1FC5
  8
SAPA_PROFIL
 10
163.00067083383701
 20
3.6999999223182201
 30
0.1
  0
VERTEX
  5
1FC6
  8
SAPA_PROFIL
 10
163.00067083383701
 20
2.2999999223182641
 30
0.1
 42
-0.4142139999999773
  0
VERTEX
  5
1FC7
  8
SAPA_PROFIL
 10
162.70067083383711
 20
1.999999922318259
 30
0.1
  0
VERTEX
  5
1FC8
  8
SAPA_PROFIL
 10
160.3006708338371
 20
1.999999922318259
 30
0.1
 42
-0.4142140000000855
  0
VERTEX
  5
1FC9
  8
SAPA_PROFIL
 10
160.00067083383701
 20
2.2999999223182641
 30
0.1
  0
VERTEX
  5
1FCA
  8
SAPA_PROFIL
 10
160.00067083383701
 20
19.699999922318248
 30
0.1
 42
-0.4142140000001167
  0
VERTEX
  5
1FCB
  8
SAPA_PROFIL
 10
160.3006708338371
 20
19.99999992231826
 30
0.1
  0
VERTEX
  5
1FCC
  8
SAPA_PROFIL
 10
162.70067083383711
 20
19.99999992231826
 30
0.1
 42
-0.4142140000000127
  0
VERTEX
  5
1FCD
  8
SAPA_PROFIL
 10
163.00067083383701
 20
19.699999922318248
 30
0.1
  0
VERTEX
  5
1FCE
  8
SAPA_PROFIL
 10
163.00067083383701
 20
18.299999922318261
 30
0.1
 42
0.5920054160710117
  0
VERTEX
  5
1FCF
  8
SAPA_PROFIL
 10
163.46187417195191
 20
18.046991409560491
 30
0.1
  0
VERTEX
  5
1FD0
  8
SAPA_PROFIL
 10
164.7081398281648
 20
18.841044439382149
 30
0.1
 42
0.2562769852931595
  0
VERTEX
  5
1FD1
  8
SAPA_PROFIL
 10
164.80067083383699
 20
19.009716948280769
 30
0.1
  0
VERTEX
  5
1FD2
  8
SAPA_PROFIL
 10
164.80067083383699
 20
22.004048263159309
 30
0.1
  0
VERTEX
  5
1FD3
  8
SAPA_PROFIL
 10
164.2907764152734
 20
23.32328126492099
 30
0.1
 42
-0.4142135623730875
  0
VERTEX
  5
1FD4
  8
SAPA_PROFIL
 10
164.4907404597808
 20
23.697466220396809
 30
0.1
  0
VERTEX
  5
1FD5
  8
SAPA_PROFIL
 10
164.53858620977931
 20
23.711984629643911
 30
0.1
  0
VERTEX
  5
1FD6
  8
SAPA_PROFIL
 10
164.53866981766291
 20
25.215085710405919
 30
0.1
 42
0.4769755326981641
  0
VERTEX
  5
1FD7
  8
SAPA_PROFIL
 10
164.16701294271701
 20
25.51733853491239
 30
0.1
  0
VERTEX
  5
1FD8
  8
SAPA_PROFIL
 10
162.35378247205881
 20
25.135891938784699
 30
0.1
 42
0.2216946626430149
  0
VERTEX
  5
1FD9
  8
SAPA_PROFIL
 10
161.812902640582
 20
24.730083033629871
 30
0.1
  0
VERTEX
  5
1FDA
  8
SAPA_PROFIL
 10
161.6607687294732
 20
24.445400750398239
 30
0.1
 42
0.5773502691897454
  0
VERTEX
  5
1FDB
  8
SAPA_PROFIL
 10
161.84372246958341
 20
24.151244450143409
 30
0.1
  0
VERTEX
  5
1FDC
  8
SAPA_PROFIL
 10
162.1654801978016
 20
24.161805816370379
 30
0.1
  0
VERTEX
  5
1FDD
  8
SAPA_PROFIL
 10
163.2500446447734
 20
22.275962124509348
 30
0.1
  0
VERTEX
  5
1FDE
  8
SAPA_PROFIL
 10
163.30811828176249
 20
22.084579124515631
 30
0.1
 42
-0.7625858545243333
  0
VERTEX
  5
1FDF
  8
SAPA_PROFIL
 10
162.97779220074551
 20
21.899999922318148
 30
0.1
 42
0.2134217652834462
  0
VERTEX
  5
1FE0
  8
SAPA_PROFIL
 10
162.7541854029954
 20
21.999999922318249
 30
0.1
  0
VERTEX
  5
1FE1
  8
SAPA_PROFIL
 10
158.90139899849521
 20
21.999999922318249
 30
0.1
 42
-0.4142135623729119
  0
VERTEX
  5
1FE2
  8
SAPA_PROFIL
 10
158.60139899849531
 20
22.299999922318321
 30
0.1
  0
VERTEX
  5
1FE3
  8
SAPA_PROFIL
 10
158.60139899849531
 20
22.599999922318499
 30
0.1
  0
VERTEX
  5
1FE4
  8
SAPA_PROFIL
 10
159.52515942919879
 20
24.199999922318131
 30
0.1
 42
0.5773502691897497
  0
VERTEX
  5
1FE5
  8
SAPA_PROFIL
 10
159.35195434844189
 20
24.49999992231826
 30
0.1
  0
VERTEX
  5
1FE6
  8
SAPA_PROFIL
 10
157.9663137023868
 20
24.49999992231842
 30
0.1
 42
0.2679491924311136
  0
VERTEX
  5
1FE7
  8
SAPA_PROFIL
 10
157.10028829860229
 20
23.99999992231842
 30
0.1
  0
VERTEX
  5
1FE8
  8
SAPA_PROFIL
 10
156.08992532752021
 20
22.249999922318221
 30
0.1
 42
-0.2679491924310958
  0
VERTEX
  5
1FE9
  8
SAPA_PROFIL
 10
155.656912625628
 20
21.999999922318249
 30
0.1
  0
VERTEX
  5
1FEA
  8
SAPA_PROFIL
 10
155.32028607610761
 20
21.999999922318249
 30
0.1
  0
VERTEX
  5
1FEB
  8
SAPA_PROFIL
 10
154.80067083383699
 20
21.69999992231827
 30
0.1
  0
VERTEX
  5
1FEC
  8
SAPA_PROFIL
 10
154.28105559156629
 20
21.999999922318249
 30
0.1
  0
VERTEX
  5
1FED
  8
SAPA_PROFIL
 10
121.6444290420461
 20
21.999999922318249
 30
0.1
 42
-0.2679491924311033
  0
VERTEX
  5
1FEE
  8
SAPA_PROFIL
 10
121.2114163401539
 20
22.249999922318221
 30
0.1
  0
SEQEND
  5
1FEF
  8
SAPA_PROFIL
  0
POLYLINE
  5
16DE
  8
SAPA_PROFIL
 66
     1
 10
0.0
 20
0.0
 30
0.1
 70
     1
  0
VERTEX
  5
1FF0
  8
SAPA_PROFIL
 10
156.10067083383711
 20
19.699999922318248
 30
0.1
  0
VERTEX
  5
1FF1
  8
SAPA_PROFIL
 10
154.50067083383709
 20
19.699999922318248
 30
0.1
 42
-0.4142135623730951
  0
VERTEX
  5
1FF2
  8
SAPA_PROFIL
 10
154.3006708338371
 20
19.899999922318258
 30
0.1
  0
VERTEX
  5
1FF3
  8
SAPA_PROFIL
 10
154.3006708338371
 20
20.200000006191591
 30
0.1
  0
VERTEX
  5
1FF4
  8
SAPA_PROFIL
 10
118.20067083383699
 20
20.200000006191591
 30
0.1
  0
VERTEX
  5
1FF5
  8
SAPA_PROFIL
 10
118.20067083383699
 20
19.899999922318258
 30
0.1
 42
-0.4142135623730951
  0
VERTEX
  5
1FF6
  8
SAPA_PROFIL
 10
118.00067083383711
 20
19.699999922318248
 30
0.1
  0
VERTEX
  5
1FF7
  8
SAPA_PROFIL
 10
116.400670833837
 20
19.699999922318248
 30
0.1
 42
-0.4142135623730951
  0
VERTEX
  5
1FF8
  8
SAPA_PROFIL
 10
116.20067083383699
 20
19.899999922318258
 30
0.1
  0
VERTEX
  5
1FF9
  8
SAPA_PROFIL
 10
116.20067083383699
 20
20.200000006191591
 30
0.1
  0
VERTEX
  5
1FFA
  8
SAPA_PROFIL
 10
114.50067083383711
 20
20.200000006191601
 30
0.1
 42
0.4142135623730951
  0
VERTEX
  5
1FFB
  8
SAPA_PROFIL
 10
114.20067083383709
 20
19.90000000619159
 30
0.1
  0
VERTEX
  5
1FFC
  8
SAPA_PROFIL
 10
114.20067083383709
 20
2.2999999223182641
 30
0.1
 42
0.4142135623730951
  0
VERTEX
  5
1FFD
  8
SAPA_PROFIL
 10
114.50067083383711
 20
1.999999922318259
 30
0.1
  0
VERTEX
  5
1FFE
  8
SAPA_PROFIL
 10
116.20067083383699
 20
1.999999922318259
 30
0.1
  0
VERTEX
  5
1FFF
  8
SAPA_PROFIL
 10
116.20067083383699
 20
2.0999999223182888
 30
0.1
 42
-0.4142135623730951
  0
VERTEX
  5
2000
  8
SAPA_PROFIL
 10
116.400670833837
 20
2.2999999223182641
 30
0.1
  0
VERTEX
  5
2001
  8
SAPA_PROFIL
 10
118.00067083383711
 20
2.2999999223182641
 30
0.1
 42
-0.4142135623730951
  0
VERTEX
  5
2002
  8
SAPA_PROFIL
 10
118.20067083383699
 20
2.0999999223182888
 30
0.1
  0
VERTEX
  5
2003
  8
SAPA_PROFIL
 10
118.20067083383699
 20
1.999999922318259
 30
0.1
  0
VERTEX
  5
2004
  8
SAPA_PROFIL
 10
154.3006708338371
 20
1.999999922318259
 30
0.1
  0
VERTEX
  5
2005
  8
SAPA_PROFIL
 10
154.3006708338371
 20
2.0999999223182888
 30
0.1
 42
-0.4142135623730951
  0
VERTEX
  5
2006
  8
SAPA_PROFIL
 10
154.50067083383709
 20
2.2999999223182641
 30
0.1
  0
VERTEX
  5
2007
  8
SAPA_PROFIL
 10
156.10067083383711
 20
2.2999999223182641
 30
0.1
 42
-0.4142135623730951
  0
VERTEX
  5
2008
  8
SAPA_PROFIL
 10
156.3006708338371
 20
2.0999999223182888
 30
0.1
  0
VERTEX
  5
2009
  8
SAPA_PROFIL
 10
156.3006708338371
 20
1.999999922318259
 30
0.1
  0
VERTEX
  5
200A
  8
SAPA_PROFIL
 10
158.00067083383709
 20
1.9999999223182741
 30
0.1
 42
0.4142135623730951
  0
VERTEX
  5
200B
  8
SAPA_PROFIL
 10
158.3006708338371
 20
2.2999999223182641
 30
0.1
  0
VERTEX
  5
200C
  8
SAPA_PROFIL
 10
158.3006708338371
 20
19.90000000619159
 30
0.1
 42
0.4142135623730951
  0
VERTEX
  5
200D
  8
SAPA_PROFIL
 10
158.00067083383709
 20
20.200000006191591
 30
0.1
  0
VERTEX
  5
200E
  8
SAPA_PROFIL
 10
156.3006708338371
 20
20.200000006191591
 30
0.1
  0
VERTEX
  5
200F
  8
SAPA_PROFIL
 10
156.3006708338371
 20
19.899999922318258
 30
0.1
 42
-0.4142135623730951
  0
SEQEND
  5
2010
  8
SAPA_PROFIL
  0
POLYLINE
  5
16DF
  8
SAPA_PROFIL
 62
     4
 66
     1
 10
0.0
 20
0.0
 30
0.0
  0
VERTEX
  5
2011
  8
SAPA_PROFIL
 62
     4
 10
162.0973037244556
 20
52.049329044590337
 30
0.0
 42
0.5571646428658034
  0
VERTEX
  5
2012
  8
SAPA_PROFIL
 62
     4
 10
161.2295848103
 20
51.512368540453501
 30
0.0
  0
VERTEX
  5
2013
  8
SAPA_PROFIL
 62
     4
 10
161.22958481030051
 20
34.487631303932311
 30
0.0
 42
0.5571645048035741
  0
VERTEX
  5
2014
  8
SAPA_PROFIL
 62
     4
 10
162.0973034981667
 20
33.95067068697125
 30
0.0
  0
VERTEX
  5
2015
  8
SAPA_PROFIL
 62
     4
 10
163.76344415423469
 20
34.781377774517949
 30
0.0
 42
0.284385813979063
  0
VERTEX
  5
2016
  8
SAPA_PROFIL
 62
     4
 10
163.9295848103022
 20
35.049858082998298
 30
0.0
  0
VERTEX
  5
2017
  8
SAPA_PROFIL
 62
     4
 10
163.9295848103022
 20
50.950141761387613
 30
0.0
 42
0.2843858139786238
  0
VERTEX
  5
2018
  8
SAPA_PROFIL
 62
     4
 10
163.7634441542352
 20
51.218622069867898
 30
0.0
  0
VERTEX
  5
2019
  8
SAPA_PROFIL
 62
     4
 10
162.0973034981659
 20
52.049329157415059
 30
0.0
  0
SEQEND
  5
201A
  8
SAPA_PROFIL
 62
     4
  0
POLYLINE
  5
16E0
  8
SAPA_PROFIL
 62
     4
 66
     1
 10
0.0
 20
0.0
 30
0.0
 70
     1
  0
VERTEX
  5
201B
  8
SAPA_PROFIL
 62
     4
 10
164.28641632479969
 20
28.582388737525658
 30
0.0
  0
VERTEX
  5
201C
  8
SAPA_PROFIL
 62
     4
 10
164.69297652080391
 20
28.31836545914965
 30
0.0
 42
-0.2539676464751066
  0
VERTEX
  5
201D
  8
SAPA_PROFIL
 62
     4
 10
164.82958481029999
 20
28.066764288764951
 30
0.0
  0
VERTEX
  5
201E
  8
SAPA_PROFIL
 62
     4
 10
164.82958481029999
 20
26.6852647035596
 30
0.0
 42
-0.3152987888790479
  0
VERTEX
  5
201F
  8
SAPA_PROFIL
 62
     4
 10
164.5005948819618
 20
26.21541839316729
 30
0.0
  0
VERTEX
  5
2020
  8
SAPA_PROFIL
 62
     4
 10
162.0397646915105
 20
25.31974945225868
 30
0.0
 42
0.2694959974287434
  0
VERTEX
  5
2021
  8
SAPA_PROFIL
 62
     4
 10
161.8466327171667
 20
25.088230405857331
 30
0.0
 42
0.0612686379508233
  0
VERTEX
  5
2022
  8
SAPA_PROFIL
 62
     4
 10
161.83304934653609
 20
24.795554973004052
 30
0.0
  0
VERTEX
  5
2023
  8
SAPA_PROFIL
 62
     4
 10
161.63131266780729
 20
24.446136795695779
 30
0.0
 42
0.5773502691891679
  0
VERTEX
  5
2024
  8
SAPA_PROFIL
 62
     4
 10
161.81317800260189
 20
24.13113679569619
 30
0.0
  0
VERTEX
  5
2025
  8
SAPA_PROFIL
 62
     4
 10
162.0802925307282
 20
24.131136795695951
 30
0.0
  0
VERTEX
  5
2026
  8
SAPA_PROFIL
 62
     4
 10
162.88897599203651
 20
22.732609095061701
 30
0.0
 42
-0.1318219888653519
  0
VERTEX
  5
2027
  8
SAPA_PROFIL
 62
     4
 10
162.92926838857389
 20
22.58243599258936
 30
0.0
  0
VERTEX
  5
2028
  8
SAPA_PROFIL
 62
     4
 10
162.92926838856749
 20
22.399999922152581
 30
0.0
 42
-0.4142135623724291
  0
VERTEX
  5
2029
  8
SAPA_PROFIL
 62
     4
 10
162.52926838856791
 20
21.999999922152028
 30
0.0
  0
VERTEX
  5
202A
  8
SAPA_PROFIL
 62
     4
 10
159.12926838856691
 20
21.999999922153389
 30
0.0
 42
-0.4142135623744271
  0
VERTEX
  5
202B
  8
SAPA_PROFIL
 62
     4
 10
158.72926838856591
 20
22.399999922152581
 30
0.0
  0
VERTEX
  5
202C
  8
SAPA_PROFIL
 62
     4
 10
158.72926838856529
 20
22.579615164423881
 30
0.0
 42
-0.1316524975874005
  0
VERTEX
  5
202D
  8
SAPA_PROFIL
 62
     4
 10
158.7694607674309
 20
22.7296151644207
 30
0.0
  0
VERTEX
  5
202E
  8
SAPA_PROFIL
 62
     4
 10
159.69561021408339
 20
24.33375306142295
 30
0.0
 42
0.1316524975875904
  0
VERTEX
  5
202F
  8
SAPA_PROFIL
 62
     4
 10
159.8295848102982
 20
24.833753061424659
 30
0.0
  0
VERTEX
  5
2030
  8
SAPA_PROFIL
 62
     4
 10
159.8295848102982
 20
25.249999922152028
 30
0.0
 42
0.4142135623730951
  0
VERTEX
  5
2031
  8
SAPA_PROFIL
 62
     4
 10
158.8295848102982
 20
26.249999922152028
 30
0.0
  0
VERTEX
  5
2032
  8
SAPA_PROFIL
 62
     4
 10
155.8295848103009
 20
26.249999922152028
 30
0.0
 42
-0.9999996830128083
  0
VERTEX
  5
2033
  8
SAPA_PROFIL
 62
     4
 10
155.82958481029911
 20
27.249999922152028
 30
0.0
  0
VERTEX
  5
2034
  8
SAPA_PROFIL
 62
     4
 10
158.82958481029911
 20
27.249999922152028
 30
0.0
 42
0.4142135623730951
  0
VERTEX
  5
2035
  8
SAPA_PROFIL
 62
     4
 10
159.829584810299
 20
28.249999922152028
 30
0.0
  0
VERTEX
  5
2036
  8
SAPA_PROFIL
 62
     4
 10
159.829584810299
 20
57.749999922236611
 30
0.0
 42
0.4142135623730951
  0
VERTEX
  5
2037
  8
SAPA_PROFIL
 62
     4
 10
158.82958481029911
 20
58.749999922236611
 30
0.0
  0
VERTEX
  5
2038
  8
SAPA_PROFIL
 62
     4
 10
155.8295848103009
 20
58.749999922236611
 30
0.0
 42
-0.9999999999999998
  0
VERTEX
  5
2039
  8
SAPA_PROFIL
 62
     4
 10
155.8295848103009
 20
59.749999922236611
 30
0.0
  0
VERTEX
  5
203A
  8
SAPA_PROFIL
 62
     4
 10
158.82958481029911
 20
59.749999922236611
 30
0.0
 42
0.4142135623736278
  0
VERTEX
  5
203B
  8
SAPA_PROFIL
 62
     4
 10
159.829584810299
 20
60.749999922236611
 30
0.0
  0
VERTEX
  5
203C
  8
SAPA_PROFIL
 62
     4
 10
159.829584810299
 20
61.166246782963071
 30
0.0
 42
0.1316524975874375
  0
VERTEX
  5
203D
  8
SAPA_PROFIL
 62
     4
 10
159.69561021408299
 20
61.66624678296327
 30
0.0
  0
VERTEX
  5
203E
  8
SAPA_PROFIL
 62
     4
 10
158.7694607674309
 20
63.270384679965218
 30
0.0
 42
-0.1316524975874
  0
VERTEX
  5
203F
  8
SAPA_PROFIL
 62
     4
 10
158.72926838856529
 20
63.420384679964762
 30
0.0
  0
VERTEX
  5
2040
  8
SAPA_PROFIL
 62
     4
 10
158.72926838856591
 20
63.599999922236059
 30
0.0
 42
-0.4142135623744271
  0
VERTEX
  5
2041
  8
SAPA_PROFIL
 62
     4
 10
159.12926838856691
 20
63.99999992223524
 30
0.0
  0
VERTEX
  5
2042
  8
SAPA_PROFIL
 62
     4
 10
162.52926838856791
 20
63.999999922236611
 30
0.0
 42
-0.4142135623724291
  0
VERTEX
  5
2043
  8
SAPA_PROFIL
 62
     4
 10
162.92926838856749
 20
63.599999922236059
 30
0.0
  0
VERTEX
  5
2044
  8
SAPA_PROFIL
 62
     4
 10
162.92926838857389
 20
63.417563851799287
 30
0.0
 42
-0.1318219888653524
  0
VERTEX
  5
2045
  8
SAPA_PROFIL
 62
     4
 10
162.88897599203651
 20
63.267390749326943
 30
0.0
  0
VERTEX
  5
2046
  8
SAPA_PROFIL
 62
     4
 10
162.08029253081219
 20
61.868863048847288
 30
0.0
  0
VERTEX
  5
2047
  8
SAPA_PROFIL
 62
     4
 10
161.8131780025991
 20
61.868863048847288
 30
0.0
 42
0.577350269189159
  0
VERTEX
  5
2048
  8
SAPA_PROFIL
 62
     4
 10
161.63131266780459
 20
61.553863048847688
 30
0.0
  0
VERTEX
  5
2049
  8
SAPA_PROFIL
 62
     4
 10
161.83304934648169
 20
61.204444871629022
 30
0.0
 42
0.0612687673629489
  0
VERTEX
  5
204A
  8
SAPA_PROFIL
 62
     4
 10
161.84663271716789
 20
60.911769438528808
 30
0.0
 42
0.2694959974285039
  0
VERTEX
  5
204B
  8
SAPA_PROFIL
 62
     4
 10
162.03976469151181
 20
60.680250392128293
 30
0.0
  0
VERTEX
  5
204C
  8
SAPA_PROFIL
 62
     4
 10
164.50059488196499
 20
59.784581451218621
 30
0.0
 42
-0.3152987888784035
  0
VERTEX
  5
204D
  8
SAPA_PROFIL
 62
     4
 10
164.82958481030161
 20
59.314735140825398
 30
0.0
  0
VERTEX
  5
204E
  8
SAPA_PROFIL
 62
     4
 10
164.82958481029999
 20
57.933235555620961
 30
0.0
 42
-0.2539676464741841
  0
VERTEX
  5
204F
  8
SAPA_PROFIL
 62
     4
 10
164.69297652080471
 20
57.68163438523689
 30
0.0
  0
VERTEX
  5
2050
  8
SAPA_PROFIL
 62
     4
 10
164.28641632479969
 20
57.417611106860249
 30
0.0
 42
-0.5862177598324623
  0
VERTEX
  5
2051
  8
SAPA_PROFIL
 62
     4
 10
163.8295848103032
 20
57.673352922098587
 30
0.0
  0
VERTEX
  5
2052
  8
SAPA_PROFIL
 62
     4
 10
163.82958481031091
 20
58.614527602608398
 30
0.0
 42
0.3152987888813165
  0
VERTEX
  5
2053
  8
SAPA_PROFIL
 62
     4
 10
163.50059488197411
 20
59.084373913006161
 30
0.0
  0
VERTEX
  5
2054
  8
SAPA_PROFIL
 62
     4
 10
162.30059488196289
 20
59.52113819413011
 30
0.0
 42
0.5205670505515651
  0
VERTEX
  5
2055
  8
SAPA_PROFIL
 62
     4
 10
161.6295848103002
 20
59.051291883736887
 30
0.0
  0
VERTEX
  5
2056
  8
SAPA_PROFIL
 62
     4
 10
161.62958481030009
 20
54.034850943068037
 30
0.0
 42
0.3702522326300203
  0
VERTEX
  5
2057
  8
SAPA_PROFIL
 62
     4
 10
161.8840447629658
 20
53.738327581274717
 30
0.0
 42
0.0982365330332397
  0
VERTEX
  5
2058
  8
SAPA_PROFIL
 62
     4
 10
163.5717315379608
 20
53.647874823063773
 30
0.0
 42
0.3735060174783164
  0
VERTEX
  5
2059
  8
SAPA_PROFIL
 62
     4
 10
163.8295848103009
 20
53.944899490974763
 30
0.0
  0
VERTEX
  5
205A
  8
SAPA_PROFIL
 62
     4
 10
163.82958481030181
 20
54.373352922097411
 30
0.0
 42
-0.5920056181162531
  0
VERTEX
  5
205B
  8
SAPA_PROFIL
 62
     4
 10
164.2907883128297
 20
54.626361678414803
 30
0.0
  0
VERTEX
  5
205C
  8
SAPA_PROFIL
 62
     4
 10
164.692976520808
 20
54.365177602259102
 30
0.0
 42
-0.2539676464746725
  0
VERTEX
  5
205D
  8
SAPA_PROFIL
 62
     4
 10
164.8295848103034
 20
54.113576431875337
 30
0.0
  0
VERTEX
  5
205E
  8
SAPA_PROFIL
 62
     4
 10
164.82958481030181
 20
31.886423412509661
 30
0.0
 42
-0.2539676464741819
  0
VERTEX
  5
205F
  8
SAPA_PROFIL
 62
     4
 10
164.692976520808
 20
31.634822242126798
 30
0.0
  0
VERTEX
  5
2060
  8
SAPA_PROFIL
 62
     4
 10
164.2907883128297
 20
31.373638165972991
 30
0.0
 42
-0.5920055144124249
  0
VERTEX
  5
2061
  8
SAPA_PROFIL
 62
     4
 10
163.82958481030181
 20
31.626646922288501
 30
0.0
  0
VERTEX
  5
2062
  8
SAPA_PROFIL
 62
     4
 10
163.82958483557681
 20
32.05510039957872
 30
0.0
 42
0.3735060174775405
  0
VERTEX
  5
2063
  8
SAPA_PROFIL
 62
     4
 10
163.57173156323671
 20
32.352125067488409
 30
0.0
 42
0.0355900683670349
  0
VERTEX
  5
2064
  8
SAPA_PROFIL
 62
     4
 10
162.9558579764369
 20
32.396018631520661
 30
0.0
 42
0.0624282003873116
  0
VERTEX
  5
2065
  8
SAPA_PROFIL
 62
     4
 10
161.88404478824179
 20
32.261672309277721
 30
0.0
 42
0.3702522326309292
  0
VERTEX
  5
2066
  8
SAPA_PROFIL
 62
     4
 10
161.629584835576
 20
31.965148947484341
 30
0.0
  0
VERTEX
  5
2067
  8
SAPA_PROFIL
 62
     4
 10
161.62958481029989
 20
26.94870796065084
 30
0.0
 42
0.5205670505515692
  0
VERTEX
  5
2068
  8
SAPA_PROFIL
 62
     4
 10
162.30059488196289
 20
26.47886165025762
 30
0.0
  0
VERTEX
  5
2069
  8
SAPA_PROFIL
 62
     4
 10
163.50059488197229
 20
26.915625931382561
 30
0.0
 42
0.3152987888807539
  0
VERTEX
  5
206A
  8
SAPA_PROFIL
 62
     4
 10
163.82958481031
 20
27.38547224177842
 30
0.0
  0
VERTEX
  5
206B
  8
SAPA_PROFIL
 62
     4
 10
163.8295848103032
 20
28.326646922287502
 30
0.0
 42
-0.5862175119221242
  0
VERTEX
  5
206C
  8
SAPA_PROFIL
 62
     4
 10
164.28641613605831
 20
28.58238885326946
 30
0.0
 42
0.0000002084758573
  0
SEQEND
  5
206D
  8
SAPA_PROFIL
 62
     4
  0
POLYLINE
  5
16E1
  8
SAPA_PROFIL
 62
     4
 66
     1
 10
0.0
 20
0.0
 30
0.0
  0
VERTEX
  5
206E
  8
SAPA_PROFIL
 62
     4
 10
115.2040379510405
 20
52.049329044590337
 30
0.0
 42
-0.5571646428658034
  0
VERTEX
  5
206F
  8
SAPA_PROFIL
 62
     4
 10
116.07175686519609
 20
51.512368540453501
 30
0.0
  0
VERTEX
  5
2070
  8
SAPA_PROFIL
 62
     4
 10
116.0717568651956
 20
34.487631303932311
 30
0.0
 42
-0.5571645048035741
  0
VERTEX
  5
2071
  8
SAPA_PROFIL
 62
     4
 10
115.20403817732949
 20
33.95067068697125
 30
0.0
  0
VERTEX
  5
2072
  8
SAPA_PROFIL
 62
     4
 10
113.5378975212614
 20
34.781377774517949
 30
0.0
 42
-0.284385813979063
  0
VERTEX
  5
2073
  8
SAPA_PROFIL
 62
     4
 10
113.371756865194
 20
35.049858082998298
 30
0.0
  0
VERTEX
  5
2074
  8
SAPA_PROFIL
 62
     4
 10
113.371756865194
 20
50.950141761387613
 30
0.0
 42
-0.2843858139786238
  0
VERTEX
  5
2075
  8
SAPA_PROFIL
 62
     4
 10
113.5378975212609
 20
51.218622069867898
 30
0.0
  0
VERTEX
  5
2076
  8
SAPA_PROFIL
 62
     4
 10
115.2040381773303
 20
52.049329157415059
 30
0.0
  0
SEQEND
  5
2077
  8
SAPA_PROFIL
 62
     4
  0
POLYLINE
  5
16E2
  8
SAPA_PROFIL
 62
     4
 66
     1
 10
0.0
 20
0.0
 30
0.0
 70
     1
  0
VERTEX
  5
2078
  8
SAPA_PROFIL
 62
     4
 10
113.0149253506964
 20
28.582388737525658
 30
0.0
  0
VERTEX
  5
2079
  8
SAPA_PROFIL
 62
     4
 10
112.60836515469229
 20
28.31836545914965
 30
0.0
 42
0.2539676464751066
  0
VERTEX
  5
207A
  8
SAPA_PROFIL
 62
     4
 10
112.4717568651962
 20
28.066764288764951
 30
0.0
  0
VERTEX
  5
207B
  8
SAPA_PROFIL
 62
     4
 10
112.4717568651962
 20
26.6852647035596
 30
0.0
 42
0.3152987888790479
  0
VERTEX
  5
207C
  8
SAPA_PROFIL
 62
     4
 10
112.8007467935343
 20
26.21541839316729
 30
0.0
  0
VERTEX
  5
207D
  8
SAPA_PROFIL
 62
     4
 10
115.26157698398561
 20
25.31974945225868
 30
0.0
 42
-0.2694959974287434
  0
VERTEX
  5
207E
  8
SAPA_PROFIL
 62
     4
 10
115.4547089583295
 20
25.088230405857331
 30
0.0
 42
-0.0612686379508233
  0
VERTEX
  5
207F
  8
SAPA_PROFIL
 62
     4
 10
115.46829232896
 20
24.795554973004052
 30
0.0
  0
VERTEX
  5
2080
  8
SAPA_PROFIL
 62
     4
 10
115.6700290076889
 20
24.446136795695779
 30
0.0
 42
-0.5773502691891679
  0
VERTEX
  5
2081
  8
SAPA_PROFIL
 62
     4
 10
115.4881636728943
 20
24.13113679569619
 30
0.0
  0
VERTEX
  5
2082
  8
SAPA_PROFIL
 62
     4
 10
115.221049144768
 20
24.131136795695951
 30
0.0
  0
VERTEX
  5
2083
  8
SAPA_PROFIL
 62
     4
 10
114.4123656834596
 20
22.732609095061701
 30
0.0
 42
0.1318219888653519
  0
VERTEX
  5
2084
  8
SAPA_PROFIL
 62
     4
 10
114.3720732869222
 20
22.58243599258936
 30
0.0
  0
VERTEX
  5
2085
  8
SAPA_PROFIL
 62
     4
 10
114.3720732869286
 20
22.399999922152581
 30
0.0
 42
0.4142135623724291
  0
VERTEX
  5
2086
  8
SAPA_PROFIL
 62
     4
 10
114.7720732869283
 20
21.999999922152028
 30
0.0
  0
VERTEX
  5
2087
  8
SAPA_PROFIL
 62
     4
 10
118.1720732869292
 20
21.999999922153389
 30
0.0
 42
0.4142135623744271
  0
VERTEX
  5
2088
  8
SAPA_PROFIL
 62
     4
 10
118.57207328693021
 20
22.399999922152581
 30
0.0
  0
VERTEX
  5
2089
  8
SAPA_PROFIL
 62
     4
 10
118.5720732869309
 20
22.579615164423881
 30
0.0
 42
0.1316524975874005
  0
VERTEX
  5
208A
  8
SAPA_PROFIL
 62
     4
 10
118.5318809080653
 20
22.7296151644207
 30
0.0
  0
VERTEX
  5
208B
  8
SAPA_PROFIL
 62
     4
 10
117.6057314614128
 20
24.33375306142295
 30
0.0
 42
-0.1316524975875904
  0
VERTEX
  5
208C
  8
SAPA_PROFIL
 62
     4
 10
117.471756865198
 20
24.833753061424659
 30
0.0
  0
VERTEX
  5
208D
  8
SAPA_PROFIL
 62
     4
 10
117.471756865198
 20
25.249999922152028
 30
0.0
 42
-0.4142135623730951
  0
VERTEX
  5
208E
  8
SAPA_PROFIL
 62
     4
 10
118.471756865198
 20
26.249999922152028
 30
0.0
  0
VERTEX
  5
208F
  8
SAPA_PROFIL
 62
     4
 10
121.4717568651953
 20
26.249999922152028
 30
0.0
 42
0.9999996830128083
  0
VERTEX
  5
2090
  8
SAPA_PROFIL
 62
     4
 10
121.47175686519709
 20
27.249999922152028
 30
0.0
  0
VERTEX
  5
2091
  8
SAPA_PROFIL
 62
     4
 10
118.47175686519709
 20
27.249999922152028
 30
0.0
 42
-0.4142135623730951
  0
VERTEX
  5
2092
  8
SAPA_PROFIL
 62
     4
 10
117.47175686519709
 20
28.249999922152028
 30
0.0
  0
VERTEX
  5
2093
  8
SAPA_PROFIL
 62
     4
 10
117.47175686519709
 20
57.749999922236611
 30
0.0
 42
-0.4142135623730951
  0
VERTEX
  5
2094
  8
SAPA_PROFIL
 62
     4
 10
118.47175686519709
 20
58.749999922236611
 30
0.0
  0
VERTEX
  5
2095
  8
SAPA_PROFIL
 62
     4
 10
121.4717568651953
 20
58.749999922236611
 30
0.0
 42
0.9999999999999998
  0
VERTEX
  5
2096
  8
SAPA_PROFIL
 62
     4
 10
121.4717568651953
 20
59.749999922236611
 30
0.0
  0
VERTEX
  5
2097
  8
SAPA_PROFIL
 62
     4
 10
118.47175686519709
 20
59.749999922236611
 30
0.0
 42
-0.4142135623736278
  0
VERTEX
  5
2098
  8
SAPA_PROFIL
 62
     4
 10
117.47175686519709
 20
60.749999922236611
 30
0.0
  0
VERTEX
  5
2099
  8
SAPA_PROFIL
 62
     4
 10
117.47175686519709
 20
61.166246782963071
 30
0.0
 42
-0.1316524975874375
  0
VERTEX
  5
209A
  8
SAPA_PROFIL
 62
     4
 10
117.6057314614131
 20
61.66624678296327
 30
0.0
  0
VERTEX
  5
209B
  8
SAPA_PROFIL
 62
     4
 10
118.5318809080653
 20
63.270384679965218
 30
0.0
 42
0.1316524975874
  0
VERTEX
  5
209C
  8
SAPA_PROFIL
 62
     4
 10
118.5720732869309
 20
63.420384679964762
 30
0.0
  0
VERTEX
  5
209D
  8
SAPA_PROFIL
 62
     4
 10
118.57207328693021
 20
63.599999922236059
 30
0.0
 42
0.4142135623744271
  0
VERTEX
  5
209E
  8
SAPA_PROFIL
 62
     4
 10
118.1720732869292
 20
63.99999992223524
 30
0.0
  0
VERTEX
  5
209F
  8
SAPA_PROFIL
 62
     4
 10
114.7720732869283
 20
63.999999922236611
 30
0.0
 42
0.4142135623724291
  0
VERTEX
  5
20A0
  8
SAPA_PROFIL
 62
     4
 10
114.3720732869286
 20
63.599999922236059
 30
0.0
  0
VERTEX
  5
20A1
  8
SAPA_PROFIL
 62
     4
 10
114.3720732869222
 20
63.417563851799287
 30
0.0
 42
0.1318219888653524
  0
VERTEX
  5
20A2
  8
SAPA_PROFIL
 62
     4
 10
114.4123656834596
 20
63.267390749326943
 30
0.0
  0
VERTEX
  5
20A3
  8
SAPA_PROFIL
 62
     4
 10
115.221049144684
 20
61.868863048847288
 30
0.0
  0
VERTEX
  5
20A4
  8
SAPA_PROFIL
 62
     4
 10
115.488163672897
 20
61.868863048847288
 30
0.0
 42
-0.577350269189159
  0
VERTEX
  5
20A5
  8
SAPA_PROFIL
 62
     4
 10
115.6700290076916
 20
61.553863048847688
 30
0.0
  0
VERTEX
  5
20A6
  8
SAPA_PROFIL
 62
     4
 10
115.4682923290145
 20
61.204444871629022
 30
0.0
 42
-0.0612687673629489
  0
VERTEX
  5
20A7
  8
SAPA_PROFIL
 62
     4
 10
115.4547089583283
 20
60.911769438528808
 30
0.0
 42
-0.2694959974285039
  0
VERTEX
  5
20A8
  8
SAPA_PROFIL
 62
     4
 10
115.2615769839843
 20
60.680250392128293
 30
0.0
  0
VERTEX
  5
20A9
  8
SAPA_PROFIL
 62
     4
 10
112.8007467935312
 20
59.784581451218621
 30
0.0
 42
0.3152987888784035
  0
VERTEX
  5
20AA
  8
SAPA_PROFIL
 62
     4
 10
112.47175686519461
 20
59.314735140825398
 30
0.0
  0
VERTEX
  5
20AB
  8
SAPA_PROFIL
 62
     4
 10
112.4717568651962
 20
57.933235555620961
 30
0.0
 42
0.2539676464741841
  0
VERTEX
  5
20AC
  8
SAPA_PROFIL
 62
     4
 10
112.6083651546915
 20
57.68163438523689
 30
0.0
  0
VERTEX
  5
20AD
  8
SAPA_PROFIL
 62
     4
 10
113.0149253506964
 20
57.417611106860249
 30
0.0
 42
0.5862177598324623
  0
VERTEX
  5
20AE
  8
SAPA_PROFIL
 62
     4
 10
113.4717568651929
 20
57.673352922098587
 30
0.0
  0
VERTEX
  5
20AF
  8
SAPA_PROFIL
 62
     4
 10
113.4717568651853
 20
58.614527602608398
 30
0.0
 42
-0.3152987888813165
  0
VERTEX
  5
20B0
  8
SAPA_PROFIL
 62
     4
 10
113.80074679352199
 20
59.084373913006161
 30
0.0
  0
VERTEX
  5
20B1
  8
SAPA_PROFIL
 62
     4
 10
115.0007467935332
 20
59.52113819413011
 30
0.0
 42
-0.5205670505515651
  0
VERTEX
  5
20B2
  8
SAPA_PROFIL
 62
     4
 10
115.671756865196
 20
59.051291883736887
 30
0.0
  0
VERTEX
  5
20B3
  8
SAPA_PROFIL
 62
     4
 10
115.671756865196
 20
54.034850943068037
 30
0.0
 42
-0.3702522326300203
  0
VERTEX
  5
20B4
  8
SAPA_PROFIL
 62
     4
 10
115.4172969125303
 20
53.738327581274717
 30
0.0
 42
-0.0982365330332397
  0
VERTEX
  5
20B5
  8
SAPA_PROFIL
 62
     4
 10
113.7296101375353
 20
53.647874823063773
 30
0.0
 42
-0.3735060174783164
  0
VERTEX
  5
20B6
  8
SAPA_PROFIL
 62
     4
 10
113.4717568651953
 20
53.944899490974763
 30
0.0
  0
VERTEX
  5
20B7
  8
SAPA_PROFIL
 62
     4
 10
113.47175686519429
 20
54.373352922097411
 30
0.0
 42
0.5920056181162531
  0
VERTEX
  5
20B8
  8
SAPA_PROFIL
 62
     4
 10
113.0105533626664
 20
54.626361678414803
 30
0.0
  0
VERTEX
  5
20B9
  8
SAPA_PROFIL
 62
     4
 10
112.6083651546881
 20
54.365177602259102
 30
0.0
 42
0.2539676464746725
  0
VERTEX
  5
20BA
  8
SAPA_PROFIL
 62
     4
 10
112.4717568651928
 20
54.113576431875337
 30
0.0
  0
VERTEX
  5
20BB
  8
SAPA_PROFIL
 62
     4
 10
112.47175686519429
 20
31.886423412509661
 30
0.0
 42
0.2539676464741819
  0
VERTEX
  5
20BC
  8
SAPA_PROFIL
 62
     4
 10
112.6083651546881
 20
31.634822242126798
 30
0.0
  0
VERTEX
  5
20BD
  8
SAPA_PROFIL
 62
     4
 10
113.0105533626665
 20
31.373638165972991
 30
0.0
 42
0.5920055144124249
  0
VERTEX
  5
20BE
  8
SAPA_PROFIL
 62
     4
 10
113.47175686519429
 20
31.626646922288501
 30
0.0
  0
VERTEX
  5
20BF
  8
SAPA_PROFIL
 62
     4
 10
113.47175683991939
 20
32.05510039957872
 30
0.0
 42
-0.3735060174775405
  0
VERTEX
  5
20C0
  8
SAPA_PROFIL
 62
     4
 10
113.72961011225939
 20
32.352125067488409
 30
0.0
 42
-0.0355900683670349
  0
VERTEX
  5
20C1
  8
SAPA_PROFIL
 62
     4
 10
114.3454836990592
 20
32.396018631520661
 30
0.0
 42
-0.0624282003873116
  0
VERTEX
  5
20C2
  8
SAPA_PROFIL
 62
     4
 10
115.4172968872543
 20
32.261672309277721
 30
0.0
 42
-0.3702522326309292
  0
VERTEX
  5
20C3
  8
SAPA_PROFIL
 62
     4
 10
115.67175683992011
 20
31.965148947484341
 30
0.0
  0
VERTEX
  5
20C4
  8
SAPA_PROFIL
 62
     4
 10
115.6717568651962
 20
26.94870796065084
 30
0.0
 42
-0.5205670505515692
  0
VERTEX
  5
20C5
  8
SAPA_PROFIL
 62
     4
 10
115.0007467935332
 20
26.47886165025762
 30
0.0
  0
VERTEX
  5
20C6
  8
SAPA_PROFIL
 62
     4
 10
113.8007467935238
 20
26.915625931382561
 30
0.0
 42
-0.3152987888807539
  0
VERTEX
  5
20C7
  8
SAPA_PROFIL
 62
     4
 10
113.47175686518619
 20
27.38547224177842
 30
0.0
  0
VERTEX
  5
20C8
  8
SAPA_PROFIL
 62
     4
 10
113.471756865193
 20
28.326646922287502
 30
0.0
 42
0.5862175119221242
  0
VERTEX
  5
20C9
  8
SAPA_PROFIL
 62
     4
 10
113.0149255394379
 20
28.58238885326946
 30
0.0
 42
-0.0000002084758573
  0
SEQEND
  5
20CA
  8
SAPA_PROFIL
 62
     4
  0
CIRCLE
  5
16E3
  8
SAPA_PROFIL
 62
     2
 10
103.8321783351801
 20
5.1826598896531708
 30
0.1
 40
0.25
  0
INSERT
  5
16E4
  8
SAPA_PROFIL
  6
CONTINUOUS
 62
     2
  2
*U121
 10
0.0
 20
0.0
 30
0.0
1001
ACAD
1002
{
1000
R14_HATCH_DATA
1000
16E4
1011
1.0
1021
0.0
1031
0.0
1021
0.0
1031
0.0
1011
0.0
1021
0.0
1031
0.0
1021
1.0
1031
0.0
1011
0.0
1021
0.0
1031
0.0
1021
0.0
1031
1.0
1040
0.1
1010
0.0
1020
0.0
1030
1.0
1000
SOLID
1070
     1
1070
     1
1071
        1
1071
        7
1070
     1
1070
     1
1071
        2
1040
103.8321783351801
1040
5.4326598896531708
1040
1.0
1040
103.8321783351801
1040
4.9326598896531708
1040
1.0
1071
        1
1005
16E3
1070
     0
1070
     1
1040
0.0095408196840103
1071
        1
1040
103.8321783351801
1040
5.2826598896531731
1040
0.1
1002
}
  0
POLYLINE
  5
16E5
  8
SAPA_PROFIL
 62
     2
 66
     1
 10
0.0
 20
0.0
 30
0.1
 70
     1
  0
VERTEX
  5
20DC
  8
SAPA_PROFIL
 62
     2
 10
101.5006453338371
 20
2.5082806507872859
 30
0.1
  0
VERTEX
  5
20DD
  8
SAPA_PROFIL
 62
     2
 10
101.4006453338371
 20
2.5082806507872859
 30
0.1
 42
-0.4142135623730959
  0
VERTEX
  5
20DE
  8
SAPA_PROFIL
 62
     2
 10
100.7006453338371
 20
3.2082806507872892
 30
0.1
  0
VERTEX
  5
20DF
  8
SAPA_PROFIL
 62
     2
 10
100.7006453338371
 20
4.3082806507872871
 30
0.1
 42
-0.4142135623730961
  0
VERTEX
  5
20E0
  8
SAPA_PROFIL
 62
     2
 10
100.9006453338371
 20
4.5082806507872863
 30
0.1
  0
VERTEX
  5
20E1
  8
SAPA_PROFIL
 62
     2
 10
102.0006453338371
 20
4.5082806507872863
 30
0.1
 42
-0.4142135623730956
  0
VERTEX
  5
20E2
  8
SAPA_PROFIL
 62
     2
 10
102.2006453338371
 20
4.3082806507872871
 30
0.1
  0
VERTEX
  5
20E3
  8
SAPA_PROFIL
 62
     2
 10
102.2006453338371
 20
3.2082806507872852
 30
0.1
 42
-0.4142135623730946
  0
SEQEND
  5
20E4
  8
SAPA_PROFIL
 62
     2
  0
POLYLINE
  5
16E6
  8
SAPA_PROFIL
 62
     2
 66
     1
 10
0.0
 20
0.0
 30
0.1
  0
VERTEX
  5
20E5
  8
SAPA_PROFIL
 62
     2
 10
103.0006453338371
 20
3.8082806507872848
 30
0.1
  0
VERTEX
  5
20E6
  8
SAPA_PROFIL
 62
     2
 10
103.0006453338371
 20
4.4560462160603729
 30
0.1
 42
-0.4416942457848117
  0
VERTEX
  5
20E7
  8
SAPA_PROFIL
 62
     2
 10
103.219199693465
 20
4.6551836955533057
 30
0.1
  0
VERTEX
  5
20E8
  8
SAPA_PROFIL
 62
     2
 10
104.1820909742092
 20
4.5654676302952657
 30
0.1
 42
0.4416942457848106
  0
VERTEX
  5
20E9
  8
SAPA_PROFIL
 62
     2
 10
104.4006453338371
 20
4.7646051097881994
 30
0.1
  0
VERTEX
  5
20EA
  8
SAPA_PROFIL
 62
     2
 10
104.4006453338371
 20
5.3145874493797454
 30
0.1
 42
0.5445962197109637
  0
VERTEX
  5
20EB
  8
SAPA_PROFIL
 62
     2
 10
103.694966288432
 20
5.7703243584416093
 30
0.1
  0
VERTEX
  5
20EC
  8
SAPA_PROFIL
 62
     2
 10
103.33591513514671
 20
5.6082806507872842
 30
0.1
  0
VERTEX
  5
20ED
  8
SAPA_PROFIL
 62
     2
 10
101.8629558963988
 20
5.6082806507872842
 30
0.1
 42
0.336437923496554
  0
VERTEX
  5
20EE
  8
SAPA_PROFIL
 62
     2
 10
100.79121216678401
 20
5.4207738329455539
 30
0.1
  0
VERTEX
  5
20EF
  8
SAPA_PROFIL
 62
     2
 10
100.22934853096029
 20
5.4207738329455539
 30
0.1
 42
-0.1919812372740513
  0
VERTEX
  5
20F0
  8
SAPA_PROFIL
 62
     2
 10
99.885361483360285
 20
5.5579062109628072
 30
0.1
  0
VERTEX
  5
20F1
  8
SAPA_PROFIL
 62
     2
 10
99.493494552956975
 20
5.9293836872528463
 30
0.1
 42
-0.9249153594910841
  0
VERTEX
  5
20F2
  8
SAPA_PROFIL
 62
     2
 10
101.15927248147921
 20
8.1630785023321533
 30
0.1
  0
VERTEX
  5
20F3
  8
SAPA_PROFIL
 62
     2
 10
102.2438174211479
 20
7.6295304470805174
 30
0.1
 42
0.4184584792862776
  0
VERTEX
  5
20F4
  8
SAPA_PROFIL
 62
     2
 10
102.8305197377194
 20
8.0332825675002315
 30
0.1
 42
0.3891337693453737
  0
VERTEX
  5
20F5
  8
SAPA_PROFIL
 62
     2
 10
102.6853528461789
 20
8.2613718754428493
 30
0.1
  0
VERTEX
  5
20F6
  8
SAPA_PROFIL
 62
     2
 10
101.5994567556139
 20
8.8242769279307236
 30
0.1
 42
0.8864286961344978
  0
VERTEX
  5
20F7
  8
SAPA_PROFIL
 62
     2
 10
98.927676853677355
 20
5.465078172410001
 30
0.1
  0
VERTEX
  5
20F8
  8
SAPA_PROFIL
 62
     2
 10
98.497117715796108
 20
5.3497101991208833
 30
0.1
 42
0.9163311740174273
  0
VERTEX
  5
20F9
  8
SAPA_PROFIL
 62
     2
 10
98.635507630936175
 20
4.5648619893685574
 30
0.1
  0
VERTEX
  5
20FA
  8
SAPA_PROFIL
 62
     2
 10
99.683214185287568
 20
4.656524435576114
 30
0.1
 42
-0.4400105308918339
  0
VERTEX
  5
20FB
  8
SAPA_PROFIL
 62
     2
 10
99.900645333837105
 20
4.4572854959577661
 30
0.1
  0
VERTEX
  5
20FC
  8
SAPA_PROFIL
 62
     2
 10
99.900645333837105
 20
3.6082806507872842
 30
0.1
  0
VERTEX
  5
20FD
  8
SAPA_PROFIL
 62
     2
 10
99.500645333837085
 20
3.6082806507872851
 30
0.1
 42
0.569380983920789
  0
VERTEX
  5
20FE
  8
SAPA_PROFIL
 62
     2
 10
99.325091288273512
 20
3.3124642790846339
 30
0.1
  0
VERTEX
  5
20FF
  8
SAPA_PROFIL
 62
     2
 10
100.0300568881726
 20
2.0208315356793332
 30
0.1
 42
0.274387813087548
  0
VERTEX
  5
2100
  8
SAPA_PROFIL
 62
     2
 10
100.5567190248633
 20
1.708280650787287
 30
0.1
  0
VERTEX
  5
2101
  8
SAPA_PROFIL
 62
     2
 10
102.34457164281081
 20
1.708280650787285
 30
0.1
 42
0.274387813087548
  0
VERTEX
  5
2102
  8
SAPA_PROFIL
 62
     2
 10
102.87123377950159
 20
2.020831535679334
 30
0.1
  0
VERTEX
  5
2103
  8
SAPA_PROFIL
 62
     2
 10
103.57619937940071
 20
3.3124642790846339
 30
0.1
 42
0.5693809839207892
  0
VERTEX
  5
2104
  8
SAPA_PROFIL
 62
     2
 10
103.4006453338371
 20
3.6082806507872842
 30
0.1
  0
VERTEX
  5
2105
  8
SAPA_PROFIL
 62
     2
 10
103.0006453338371
 20
3.6082806507872842
 30
0.1
  0
VERTEX
  5
2106
  8
SAPA_PROFIL
 62
     2
 10
103.0006453338371
 20
4.4572854959577661
 30
0.1
  0
SEQEND
  5
2107
  8
SAPA_PROFIL
 62
     2
  0
POLYLINE
  5
16E7
  8
SAPA_PROFIL
 66
     1
 10
0.0
 20
0.0
 30
0.0
  0
VERTEX
  5
2108
  8
SAPA_PROFIL
 10
98.453457573567349
 20
21.999999916187559
 30
0.0
 42
-0.2134217652834216
  0
VERTEX
  5
2109
  8
SAPA_PROFIL
 10
98.677064371317456
 20
21.899999916187419
 30
0.0
 42
0.7625858545242717
  0
VERTEX
  5
210A
  8
SAPA_PROFIL
 10
99.007390452334477
 20
22.084579118384909
 30
0.0
  0
VERTEX
  5
210B
  8
SAPA_PROFIL
 10
98.949316815345384
 20
22.275962118378629
 30
0.0
  0
VERTEX
  5
210C
  8
SAPA_PROFIL
 10
97.864752368373644
 20
24.161805810239692
 30
0.0
  0
VERTEX
  5
210D
  8
SAPA_PROFIL
 10
97.542994640155385
 20
24.151244444012718
 30
0.0
 42
-0.5773502691897205
  0
VERTEX
  5
210E
  8
SAPA_PROFIL
 10
97.36004090004522
 20
24.445400744267541
 30
0.0
  0
VERTEX
  5
210F
  8
SAPA_PROFIL
 10
97.512174811153955
 20
24.73008302749918
 30
0.0
 42
-0.2216946626430408
  0
VERTEX
  5
2110
  8
SAPA_PROFIL
 10
98.053054642630784
 20
25.13589193265398
 30
0.0
  0
VERTEX
  5
2111
  8
SAPA_PROFIL
 10
99.866285113289024
 20
25.517338528781689
 30
0.0
 42
-0.476975532698107
  0
VERTEX
  5
2112
  8
SAPA_PROFIL
 10
100.23794198823489
 20
25.215085704275229
 30
0.0
  0
VERTEX
  5
2113
  8
SAPA_PROFIL
 10
100.2378583803512
 20
23.711984623513221
 30
0.0
  0
VERTEX
  5
2114
  8
SAPA_PROFIL
 10
100.1900126303527
 20
23.697466214266122
 30
0.0
 42
0.4142135623731266
  0
VERTEX
  5
2115
  8
SAPA_PROFIL
 10
99.990048585845358
 20
23.323281258790299
 30
0.0
  0
VERTEX
  5
2116
  8
SAPA_PROFIL
 10
100.5006708377479
 20
22.002165157850641
 30
0.0
  0
VERTEX
  5
2117
  8
SAPA_PROFIL
 10
100.5006708377479
 20
15.920591916186931
 30
0.0
  0
VERTEX
  5
2118
  8
SAPA_PROFIL
 10
100.2001068377479
 20
15.39999991618685
 30
0.0
  0
VERTEX
  5
2119
  8
SAPA_PROFIL
 10
100.5006708377479
 20
14.879406916186779
 30
0.0
  0
VERTEX
  5
211A
  8
SAPA_PROFIL
 10
100.5006708377479
 20
10.699999916186471
 30
0.0
 42
0.4142140000000108
  0
VERTEX
  5
211B
  8
SAPA_PROFIL
 10
100.8006708377479
 20
10.399999916186401
 30
0.0
  0
VERTEX
  5
211C
  8
SAPA_PROFIL
 10
102.300670837748
 20
10.399999916186511
 30
0.0
 42
-0.4142139999998548
  0
VERTEX
  5
211D
  8
SAPA_PROFIL
 10
102.5006708377481
 20
10.199999916186471
 30
0.0
  0
VERTEX
  5
211E
  8
SAPA_PROFIL
 10
102.5006708377481
 20
9.6999999161864707
 30
0.0
 42
-0.4142140000000309
  0
VERTEX
  5
211F
  8
SAPA_PROFIL
 10
101.500670837748
 20
8.6999999161862434
 30
0.0
  0
VERTEX
  5
2120
  8
SAPA_PROFIL
 10
95.000670837748217
 20
8.6999999161862434
 30
0.0
 42
0.4142135623731031
  0
VERTEX
  5
2121
  8
SAPA_PROFIL
 10
93.000670837748103
 20
6.6999999161862434
 30
0.0
  0
VERTEX
  5
2122
  8
SAPA_PROFIL
 10
93.000670837748089
 20
0.9999999161857431
 30
0.0
 42
-0.4142140000000262
  0
VERTEX
  5
2123
  8
SAPA_PROFIL
 10
92.000670837747975
 20
-0.0000000838144842
 30
0.0
  0
VERTEX
  5
2124
  8
SAPA_PROFIL
 10
90.300670837748143
 20
-0.0000000838142569
 30
0.0
 42
-0.4142139999999169
  0
VERTEX
  5
2125
  8
SAPA_PROFIL
 10
90.000670837748075
 20
0.2999999161856976
 30
0.0
  0
VERTEX
  5
2126
  8
SAPA_PROFIL
 10
90.000670837748075
 20
0.7561326223790275
 30
0.0
 42
-0.2308681911255748
  0
VERTEX
  5
2127
  8
SAPA_PROFIL
 10
90.192840100085277
 20
1.1501379991823339
 30
0.0
  0
VERTEX
  5
2128
  8
SAPA_PROFIL
 10
90.808501575410915
 20
1.634197943591061
 30
0.0
 42
0.2308681911255704
  0
VERTEX
  5
2129
  8
SAPA_PROFIL
 10
91.000670837748075
 20
2.0282033203943679
 30
0.0
  0
VERTEX
  5
212A
  8
SAPA_PROFIL
 10
91.000670837748075
 20
3.9999999161859701
 30
0.0
 42
0.4142140000000419
  0
VERTEX
  5
212B
  8
SAPA_PROFIL
 10
90.500670837748103
 20
4.4999999161859696
 30
0.0
  0
VERTEX
  5
212C
  8
SAPA_PROFIL
 10
86.500670837748103
 20
4.4999999161859696
 30
0.0
 42
-0.9999999999999998
  0
VERTEX
  5
212D
  8
SAPA_PROFIL
 10
86.500670837748103
 20
5.8999999161860606
 30
0.0
  0
VERTEX
  5
212E
  8
SAPA_PROFIL
 10
89.500670837747762
 20
5.8999999161860606
 30
0.0
 42
0.4142135623731304
  0
VERTEX
  5
212F
  8
SAPA_PROFIL
 10
90.000670837747876
 20
6.3999999161860606
 30
0.0
  0
VERTEX
  5
2130
  8
SAPA_PROFIL
 10
90.000670837747876
 20
6.6999999161862434
 30
0.0
 42
-0.4142135623730951
  0
VERTEX
  5
2131
  8
SAPA_PROFIL
 10
95.000670837748231
 20
11.699999916186581
 30
0.0
  0
VERTEX
  5
2132
  8
SAPA_PROFIL
 10
97.000670837747904
 20
11.699999916186581
 30
0.0
 42
0.414214000000047
  0
VERTEX
  5
2133
  8
SAPA_PROFIL
 10
97.50067083774789
 20
12.199999916186581
 30
0.0
  0
VERTEX
  5
2134
  8
SAPA_PROFIL
 10
97.50067083774789
 20
18.234774916187121
 30
0.0
 42
0.363970000000007
  0
VERTEX
  5
2135
  8
SAPA_PROFIL
 10
96.674318837747848
 20
19.21958191618717
 30
0.0
  0
VERTEX
  5
2136
  8
SAPA_PROFIL
 10
90.827022837747364
 20
20.250617916187139
 30
0.0
 42
-0.3639700000000089
  0
VERTEX
  5
2137
  8
SAPA_PROFIL
 10
90.000670837747322
 20
21.2354259161873
 30
0.0
  0
VERTEX
  5
2138
  8
SAPA_PROFIL
 10
90.000670837747322
 20
25.09632691618765
 30
0.0
 42
-0.4142140000000481
  0
VERTEX
  5
2139
  8
SAPA_PROFIL
 10
90.500670837747336
 20
25.59632691618765
 30
0.0
  0
VERTEX
  5
213A
  8
SAPA_PROFIL
 10
90.700670837747353
 20
25.59632691618765
 30
0.0
 42
-0.4142139999999776
  0
VERTEX
  5
213B
  8
SAPA_PROFIL
 10
91.200670837747367
 20
25.09632691618765
 30
0.0
  0
VERTEX
  5
213C
  8
SAPA_PROFIL
 10
91.200670837747367
 20
24.999999916187679
 30
0.0
 42
0.4142140000000459
  0
VERTEX
  5
213D
  8
SAPA_PROFIL
 10
91.700670837747481
 20
24.499999916187559
 30
0.0
  0
VERTEX
  5
213E
  8
SAPA_PROFIL
 10
95.052245837747734
 20
24.499999916187559
 30
0.0
 42
-0.5773499999998256
  0
VERTEX
  5
213F
  8
SAPA_PROFIL
 10
95.225450837747786
 20
24.199999916187611
 30
0.0
  0
VERTEX
  5
2140
  8
SAPA_PROFIL
 10
94.301689837747659
 20
22.599999916187471
 30
0.0
  0
VERTEX
  5
2141
  8
SAPA_PROFIL
 10
94.301689837747659
 20
22.299999916187399
 30
0.0
 42
0.4142139999999518
  0
VERTEX
  5
2142
  8
SAPA_PROFIL
 10
94.601689837747728
 20
21.999999916187448
 30
0.0
  0
VERTEX
  5
2143
  8
SAPA_PROFIL
 10
98.453457837747735
 20
21.999999916187448
 30
0.0
  0
SEQEND
  5
2144
  8
SAPA_PROFIL
  0
POLYLINE
  5
16E8
  8
SAPA_PROFIL
 66
     1
 10
0.0
 20
0.0
 30
0.0
 70
     1
  0
VERTEX
  5
2145
  8
SAPA_PROFIL
 10
107.9007213440879
 20
84.291131126329276
 30
0.0
  0
VERTEX
  5
2146
  8
SAPA_PROFIL
 10
107.9007213440879
 20
82.299999912374105
 30
0.0
 42
0.4142135623730795
  0
VERTEX
  5
2147
  8
SAPA_PROFIL
 10
108.9007213440879
 20
81.299999912374105
 30
0.0
  0
VERTEX
  5
2148
  8
SAPA_PROFIL
 10
109.16826581205009
 20
81.299999912374105
 30
0.0
 42
0.2896898633034337
  0
VERTEX
  5
2149
  8
SAPA_PROFIL
 10
110.07177371495619
 20
81.871428483804934
 30
0.0
 42
0.5507604245854725
  0
VERTEX
  5
214A
  8
SAPA_PROFIL
 10
109.8007213440878
 20
82.299999912374105
 30
0.0
  0
VERTEX
  5
214B
  8
SAPA_PROFIL
 10
109.50072134408791
 20
82.299999912374062
 30
0.0
 42
-0.4142135623730951
  0
VERTEX
  5
214C
  8
SAPA_PROFIL
 10
109.3007213440878
 20
82.499999912374108
 30
0.0
  0
VERTEX
  5
214D
  8
SAPA_PROFIL
 10
109.3007213440878
 20
83.599999915191006
 30
0.0
 42
-0.4142135623730863
  0
VERTEX
  5
214E
  8
SAPA_PROFIL
 10
110.3007213440879
 20
84.599999915191063
 30
0.0
  0
VERTEX
  5
214F
  8
SAPA_PROFIL
 10
112.60067083774911
 20
84.599999915191006
 30
0.0
 42
-0.4142135623730847
  0
VERTEX
  5
2150
  8
SAPA_PROFIL
 10
113.60067083774911
 20
83.599999915191006
 30
0.0
  0
VERTEX
  5
2151
  8
SAPA_PROFIL
 10
113.60067083774911
 20
82.499999912374108
 30
0.0
 42
-0.4142135623730925
  0
VERTEX
  5
2152
  8
SAPA_PROFIL
 10
113.4006708377491
 20
82.299999912374105
 30
0.0
  0
VERTEX
  5
2153
  8
SAPA_PROFIL
 10
113.1007213440879
 20
82.299999912372414
 30
0.0
 42
0.5507604245854657
  0
VERTEX
  5
2154
  8
SAPA_PROFIL
 10
112.8296689732194
 20
81.871428483804891
 30
0.0
 42
0.2896898633034307
  0
VERTEX
  5
2155
  8
SAPA_PROFIL
 10
113.7331768761256
 20
81.299999912374105
 30
0.0
  0
VERTEX
  5
2156
  8
SAPA_PROFIL
 10
114.0006708377491
 20
81.299999912374062
 30
0.0
 42
0.4142135623730951
  0
VERTEX
  5
2157
  8
SAPA_PROFIL
 10
115.0006708377491
 20
82.299999912374105
 30
0.0
  0
VERTEX
  5
2158
  8
SAPA_PROFIL
 10
115.0006708377491
 20
83.99999991519104
 30
0.0
 42
0.4142135623730871
  0
VERTEX
  5
2159
  8
SAPA_PROFIL
 10
113.000670837749
 20
85.999999915191097
 30
0.0
  0
VERTEX
  5
215A
  8
SAPA_PROFIL
 10
90.30067083777449
 20
85.999999917179977
 30
0.0
 42
0.4142135623987623
  0
VERTEX
  5
215B
  8
SAPA_PROFIL
 10
90.00067083774816
 20
85.699999917179966
 30
0.0
  0
VERTEX
  5
215C
  8
SAPA_PROFIL
 10
90.00067083774816
 20
85.207106698392806
 30
0.0
 42
0.198912367379658
  0
VERTEX
  5
215D
  8
SAPA_PROFIL
 10
90.147117447154884
 20
84.853553307799515
 30
0.0
  0
VERTEX
  5
215E
  8
SAPA_PROFIL
 10
90.854224228341494
 20
84.146446526612934
 30
0.0
 42
-0.1989123673796528
  0
VERTEX
  5
215F
  8
SAPA_PROFIL
 10
91.000670837748217
 20
83.792893136019629
 30
0.0
  0
VERTEX
  5
2160
  8
SAPA_PROFIL
 10
91.000670837748217
 20
82.499999917206196
 30
0.0
 42
-0.4142135623730659
  0
VERTEX
  5
2161
  8
SAPA_PROFIL
 10
90.500670837748217
 20
81.999999917206196
 30
0.0
  0
VERTEX
  5
2162
  8
SAPA_PROFIL
 10
88.116608794391709
 20
81.999999917205969
 30
0.0
 42
-0.1989123673796822
  0
VERTEX
  5
2163
  8
SAPA_PROFIL
 10
87.76305540379839
 20
82.146446526612678
 30
0.0
  0
VERTEX
  5
2164
  8
SAPA_PROFIL
 10
86.995645584578611
 20
82.913856345832414
 30
0.0
 42
0.9999999999999998
  0
VERTEX
  5
2165
  8
SAPA_PROFIL
 10
86.005696090917425
 20
81.923906852171228
 30
0.0
  0
VERTEX
  5
2166
  8
SAPA_PROFIL
 10
87.783156416476075
 20
80.146446526612579
 30
0.0
 42
0.1989123673796822
  0
VERTEX
  5
2167
  8
SAPA_PROFIL
 10
88.136709807069408
 20
79.999999917205855
 30
0.0
  0
VERTEX
  5
2168
  8
SAPA_PROFIL
 10
92.500670837748274
 20
79.99999991720631
 30
0.0
 42
0.4142135623730639
  0
VERTEX
  5
2169
  8
SAPA_PROFIL
 10
93.000670837748274
 20
80.499999917206296
 30
0.0
  0
VERTEX
  5
216A
  8
SAPA_PROFIL
 10
93.000670837748274
 20
82.499999917206466
 30
0.0
 42
-0.414213562373064
  0
VERTEX
  5
216B
  8
SAPA_PROFIL
 10
93.500670837748274
 20
82.99999991720648
 30
0.0
  0
VERTEX
  5
216C
  8
SAPA_PROFIL
 10
97.000670837748402
 20
82.999999917206821
 30
0.0
 42
-0.4142135623731263
  0
VERTEX
  5
216D
  8
SAPA_PROFIL
 10
97.500670837748444
 20
82.499999917206836
 30
0.0
  0
VERTEX
  5
216E
  8
SAPA_PROFIL
 10
97.500670837748444
 20
67.781551903696311
 30
0.0
 42
-0.3639702342662015
  0
VERTEX
  5
216F
  8
SAPA_PROFIL
 10
96.67431901541535
 20
66.796744150684106
 30
0.0
  0
VERTEX
  5
2170
  8
SAPA_PROFIL
 10
90.827022660081326
 20
65.765708039040419
 30
0.0
 42
0.3639702342662066
  0
VERTEX
  5
2171
  8
SAPA_PROFIL
 10
90.00067083774816
 20
64.780900286028157
 30
0.0
  0
VERTEX
  5
2172
  8
SAPA_PROFIL
 10
90.00067083774816
 20
60.919999917205303
 30
0.0
 42
0.4142135623730951
  0
VERTEX
  5
2173
  8
SAPA_PROFIL
 10
90.500670837748217
 20
60.419999917205303
 30
0.0
  0
VERTEX
  5
2174
  8
SAPA_PROFIL
 10
90.700670837748206
 20
60.419999917205303
 30
0.0
 42
0.4142135623730951
  0
VERTEX
  5
2175
  8
SAPA_PROFIL
 10
91.200670837748206
 20
60.919999917205303
 30
0.0
  0
VERTEX
  5
2176
  8
SAPA_PROFIL
 10
91.200670837748206
 20
60.999999917205457
 30
0.0
 42
-0.4142135623730619
  0
VERTEX
  5
2177
  8
SAPA_PROFIL
 10
91.700670837748206
 20
61.49999991720545
 30
0.0
  0
VERTEX
  5
2178
  8
SAPA_PROFIL
 10
95.000670837748274
 20
61.499999917205798
 30
0.0
 42
0.5693809839207964
  0
VERTEX
  5
2179
  8
SAPA_PROFIL
 10
95.176224883311818
 20
61.795816288908441
 30
0.0
  0
VERTEX
  5
217A
  8
SAPA_PROFIL
 10
94.200670837748078
 20
63.399999917205491
 30
0.0
  0
VERTEX
  5
217B
  8
SAPA_PROFIL
 10
94.200670837747865
 20
63.699999917205218
 30
0.0
 42
-0.414213562372873
  0
VERTEX
  5
217C
  8
SAPA_PROFIL
 10
94.50067083774799
 20
63.9999999172054
 30
0.0
  0
VERTEX
  5
217D
  8
SAPA_PROFIL
 10
98.500670836910686
 20
63.9999999172054
 30
0.0
 42
0.2134217652834381
  0
VERTEX
  5
217E
  8
SAPA_PROFIL
 10
98.724277634660794
 20
64.099999917205523
 30
0.0
 42
-0.7625858545243276
  0
VERTEX
  5
217F
  8
SAPA_PROFIL
 10
99.054603715677814
 20
63.91542071500804
 30
0.0
  0
VERTEX
  5
2180
  8
SAPA_PROFIL
 10
98.996530078688721
 20
63.724037715014312
 30
0.0
  0
VERTEX
  5
2181
  8
SAPA_PROFIL
 10
97.911965631716981
 20
61.838194023153257
 30
0.0
  0
VERTEX
  5
2182
  8
SAPA_PROFIL
 10
97.590207903498722
 20
61.848755389380258
 30
0.0
 42
0.577350269189744
  0
VERTEX
  5
2183
  8
SAPA_PROFIL
 10
97.407254163388558
 20
61.554599089125396
 30
0.0
  0
VERTEX
  5
2184
  8
SAPA_PROFIL
 10
97.559388074497306
 20
61.269916805893772
 30
0.0
 42
0.2216946626430207
  0
VERTEX
  5
2185
  8
SAPA_PROFIL
 10
98.100267905974121
 20
60.864107900738972
 30
0.0
  0
VERTEX
  5
2186
  8
SAPA_PROFIL
 10
99.913498376632361
 20
60.482661304611263
 30
0.0
 42
0.4769755326981632
  0
VERTEX
  5
2187
  8
SAPA_PROFIL
 10
100.2851552515782
 20
60.784914129117723
 30
0.0
  0
VERTEX
  5
2188
  8
SAPA_PROFIL
 10
100.28507164369459
 20
62.288015209879731
 30
0.0
  0
VERTEX
  5
2189
  8
SAPA_PROFIL
 10
100.23722589369611
 20
62.302533619126841
 30
0.0
 42
-0.4142135623730951
  0
VERTEX
  5
218A
  8
SAPA_PROFIL
 10
100.0372618491887
 20
62.676718574602639
 30
0.0
  0
VERTEX
  5
218B
  8
SAPA_PROFIL
 10
100.5006708377483
 20
63.875681357413647
 30
0.0
  0
VERTEX
  5
218C
  8
SAPA_PROFIL
 10
100.5006708377484
 20
71.330384674041397
 30
0.0
  0
VERTEX
  5
218D
  8
SAPA_PROFIL
 10
100.20067083774831
 20
71.849999916312015
 30
0.0
  0
VERTEX
  5
218E
  8
SAPA_PROFIL
 10
100.5006708377484
 20
72.369615158582675
 30
0.0
  0
VERTEX
  5
218F
  8
SAPA_PROFIL
 10
100.5006708377486
 20
83.718614947621987
 30
0.0
 42
-0.3955859011959327
  0
VERTEX
  5
2190
  8
SAPA_PROFIL
 10
100.7814794580073
 20
84.018000469889898
 30
0.0
  0
VERTEX
  5
2191
  8
SAPA_PROFIL
 10
107.68792709092691
 20
84.490721474507893
 30
0.0
 42
-0.433089857303855
  0
SEQEND
  5
2192
  8
SAPA_PROFIL
  0
POLYLINE
  5
16E9
  8
SAPA_PROFIL
 62
     4
 66
     1
 10
0.0
 20
0.0
 30
0.0
  0
VERTEX
  5
2193
  8
SAPA_PROFIL
 62
     4
 10
97.768389751901367
 20
33.950670793833098
 30
0.0
 42
-0.5571646428658034
  0
VERTEX
  5
2194
  8
SAPA_PROFIL
 62
     4
 10
96.900670837745793
 20
34.487631297969934
 30
0.0
  0
VERTEX
  5
2195
  8
SAPA_PROFIL
 62
     4
 10
96.900670837746276
 20
51.512368534491131
 30
0.0
 42
-0.5571645048035741
  0
VERTEX
  5
2196
  8
SAPA_PROFIL
 62
     4
 10
97.768389525612434
 20
52.049329151452177
 30
0.0
  0
VERTEX
  5
2197
  8
SAPA_PROFIL
 62
     4
 10
99.434530181680458
 20
51.218622063905492
 30
0.0
 42
-0.284385813979063
  0
VERTEX
  5
2198
  8
SAPA_PROFIL
 62
     4
 10
99.600670837747899
 20
50.950141755425129
 30
0.0
  0
VERTEX
  5
2199
  8
SAPA_PROFIL
 62
     4
 10
99.600670837747899
 20
35.049858077035822
 30
0.0
 42
-0.2843858139786238
  0
VERTEX
  5
219A
  8
SAPA_PROFIL
 62
     4
 10
99.434530181680984
 20
34.781377768555537
 30
0.0
  0
VERTEX
  5
219B
  8
SAPA_PROFIL
 62
     4
 10
97.768389525611624
 20
33.950670681008383
 30
0.0
  0
SEQEND
  5
219C
  8
SAPA_PROFIL
 62
     4
  0
POLYLINE
  5
16EA
  8
SAPA_PROFIL
 62
     4
 66
     1
 10
0.0
 20
0.0
 30
0.0
 70
     1
  0
VERTEX
  5
219D
  8
SAPA_PROFIL
 62
     4
 10
99.957502352245484
 20
57.417611100897773
 30
0.0
  0
VERTEX
  5
219E
  8
SAPA_PROFIL
 62
     4
 10
100.36406254824961
 20
57.681634379273781
 30
0.0
 42
0.2539676464751066
  0
VERTEX
  5
219F
  8
SAPA_PROFIL
 62
     4
 10
100.5006708377457
 20
57.933235549658491
 30
0.0
  0
VERTEX
  5
21A0
  8
SAPA_PROFIL
 62
     4
 10
100.5006708377457
 20
59.314735134863838
 30
0.0
 42
0.3152987888790479
  0
VERTEX
  5
21A1
  8
SAPA_PROFIL
 62
     4
 10
100.1716809094075
 20
59.784581445256151
 30
0.0
  0
VERTEX
  5
21A2
  8
SAPA_PROFIL
 62
     4
 10
97.71085071895628
 20
60.680250386164751
 30
0.0
 42
-0.2694959974287434
  0
VERTEX
  5
21A3
  8
SAPA_PROFIL
 62
     4
 10
97.517718744612395
 20
60.911769432566111
 30
0.0
 42
-0.0612686379508233
  0
VERTEX
  5
21A4
  8
SAPA_PROFIL
 62
     4
 10
97.504135373981882
 20
61.20444486541939
 30
0.0
  0
VERTEX
  5
21A5
  8
SAPA_PROFIL
 62
     4
 10
97.302398695253061
 20
61.553863042727663
 30
0.0
 42
-0.5773502691891679
  0
VERTEX
  5
21A6
  8
SAPA_PROFIL
 62
     4
 10
97.484264030047626
 20
61.868863042727241
 30
0.0
  0
VERTEX
  5
21A7
  8
SAPA_PROFIL
 62
     4
 10
97.751378558173926
 20
61.868863042727483
 30
0.0
  0
VERTEX
  5
21A8
  8
SAPA_PROFIL
 62
     4
 10
98.560062019482245
 20
63.267390743361737
 30
0.0
 42
0.1318219888653519
  0
VERTEX
  5
21A9
  8
SAPA_PROFIL
 62
     4
 10
98.600354416019655
 20
63.417563845834081
 30
0.0
  0
VERTEX
  5
21AA
  8
SAPA_PROFIL
 62
     4
 10
98.600354416013275
 20
63.59999991627086
 30
0.0
 42
0.4142135623724291
  0
VERTEX
  5
21AB
  8
SAPA_PROFIL
 62
     4
 10
98.200354416013639
 20
63.999999916271399
 30
0.0
  0
VERTEX
  5
21AC
  8
SAPA_PROFIL
 62
     4
 10
94.800354416012638
 20
63.999999916270042
 30
0.0
 42
0.4142135623744271
  0
VERTEX
  5
21AD
  8
SAPA_PROFIL
 62
     4
 10
94.400354416011638
 20
63.59999991627086
 30
0.0
  0
VERTEX
  5
21AE
  8
SAPA_PROFIL
 62
     4
 10
94.400354416010998
 20
63.42038467399955
 30
0.0
 42
0.1316524975874005
  0
VERTEX
  5
21AF
  8
SAPA_PROFIL
 62
     4
 10
94.440546794876596
 20
63.270384674002742
 30
0.0
  0
VERTEX
  5
21B0
  8
SAPA_PROFIL
 62
     4
 10
95.366696241529127
 20
61.666246777000488
 30
0.0
 42
-0.1316524975875904
  0
VERTEX
  5
21B1
  8
SAPA_PROFIL
 62
     4
 10
95.500670837743897
 20
61.166246776998783
 30
0.0
  0
VERTEX
  5
21B2
  8
SAPA_PROFIL
 62
     4
 10
95.500670837743897
 20
60.749999916271413
 30
0.0
 42
-0.4142135623730951
  0
VERTEX
  5
21B3
  8
SAPA_PROFIL
 62
     4
 10
94.500670837743897
 20
59.749999916271399
 30
0.0
  0
VERTEX
  5
21B4
  8
SAPA_PROFIL
 62
     4
 10
91.500670837746625
 20
59.749999916271399
 30
0.0
 42
0.9999996830128083
  0
VERTEX
  5
21B5
  8
SAPA_PROFIL
 62
     4
 10
91.500670837744806
 20
58.749999916271413
 30
0.0
  0
VERTEX
  5
21B6
  8
SAPA_PROFIL
 62
     4
 10
94.500670837744806
 20
58.749999916271413
 30
0.0
 42
-0.4142135623730951
  0
VERTEX
  5
21B7
  8
SAPA_PROFIL
 62
     4
 10
95.500670837744806
 20
57.749999916271399
 30
0.0
  0
VERTEX
  5
21B8
  8
SAPA_PROFIL
 62
     4
 10
95.500670837744806
 20
28.24999991618682
 30
0.0
 42
-0.4142135623730951
  0
VERTEX
  5
21B9
  8
SAPA_PROFIL
 62
     4
 10
94.500670837744806
 20
27.24999991618683
 30
0.0
  0
VERTEX
  5
21BA
  8
SAPA_PROFIL
 62
     4
 10
91.500670837746611
 20
27.24999991618683
 30
0.0
 42
0.9999999999999998
  0
VERTEX
  5
21BB
  8
SAPA_PROFIL
 62
     4
 10
91.500670837746611
 20
26.24999991618683
 30
0.0
  0
VERTEX
  5
21BC
  8
SAPA_PROFIL
 62
     4
 10
94.500670837744806
 20
26.24999991618683
 30
0.0
 42
-0.4142135623736278
  0
VERTEX
  5
21BD
  8
SAPA_PROFIL
 62
     4
 10
95.500670837744806
 20
25.24999991618682
 30
0.0
  0
VERTEX
  5
21BE
  8
SAPA_PROFIL
 62
     4
 10
95.500670837744792
 20
24.83375305546037
 30
0.0
 42
-0.1316524975874375
  0
VERTEX
  5
21BF
  8
SAPA_PROFIL
 62
     4
 10
95.366696241528757
 20
24.333753055460171
 30
0.0
  0
VERTEX
  5
21C0
  8
SAPA_PROFIL
 62
     4
 10
94.440546794876582
 20
22.72961515845822
 30
0.0
 42
0.1316524975874
  0
VERTEX
  5
21C1
  8
SAPA_PROFIL
 62
     4
 10
94.400354416010998
 20
22.579615158458669
 30
0.0
  0
VERTEX
  5
21C2
  8
SAPA_PROFIL
 62
     4
 10
94.400354416011623
 20
22.399999916187369
 30
0.0
 42
0.4142135623744271
  0
VERTEX
  5
21C3
  8
SAPA_PROFIL
 62
     4
 10
94.800354416012624
 20
21.999999916188191
 30
0.0
  0
VERTEX
  5
21C4
  8
SAPA_PROFIL
 62
     4
 10
98.200354416013624
 20
21.99999991618682
 30
0.0
 42
0.4142135623724291
  0
VERTEX
  5
21C5
  8
SAPA_PROFIL
 62
     4
 10
98.600354416013261
 20
22.399999916187369
 30
0.0
  0
VERTEX
  5
21C6
  8
SAPA_PROFIL
 62
     4
 10
98.600354416019627
 20
22.582435986624152
 30
0.0
 42
0.1318219888653524
  0
VERTEX
  5
21C7
  8
SAPA_PROFIL
 62
     4
 10
98.560062019482245
 20
22.732609089096488
 30
0.0
  0
VERTEX
  5
21C8
  8
SAPA_PROFIL
 62
     4
 10
97.751378558257912
 20
24.13113678957615
 30
0.0
  0
VERTEX
  5
21C9
  8
SAPA_PROFIL
 62
     4
 10
97.484264030044855
 20
24.13113678957615
 30
0.0
 42
-0.577350269189159
  0
VERTEX
  5
21CA
  8
SAPA_PROFIL
 62
     4
 10
97.302398695250304
 20
24.44613678957575
 30
0.0
  0
VERTEX
  5
21CB
  8
SAPA_PROFIL
 62
     4
 10
97.504135373927411
 20
24.795554966794409
 30
0.0
 42
-0.0612687673629489
  0
VERTEX
  5
21CC
  8
SAPA_PROFIL
 62
     4
 10
97.517718744613603
 20
25.08823039989462
 30
0.0
 42
-0.2694959974285039
  0
VERTEX
  5
21CD
  8
SAPA_PROFIL
 62
     4
 10
97.710850718957573
 20
25.319749446295141
 30
0.0
  0
VERTEX
  5
21CE
  8
SAPA_PROFIL
 62
     4
 10
100.1716809094107
 20
26.21541838720481
 30
0.0
 42
0.3152987888784035
  0
VERTEX
  5
21CF
  8
SAPA_PROFIL
 62
     4
 10
100.50067083774729
 20
26.685264697598029
 30
0.0
  0
VERTEX
  5
21D0
  8
SAPA_PROFIL
 62
     4
 10
100.5006708377457
 20
28.06676428280247
 30
0.0
 42
0.2539676464741841
  0
VERTEX
  5
21D1
  8
SAPA_PROFIL
 62
     4
 10
100.3640625482504
 20
28.318365453186551
 30
0.0
  0
VERTEX
  5
21D2
  8
SAPA_PROFIL
 62
     4
 10
99.957502352245484
 20
28.582388731563189
 30
0.0
 42
0.5862177598324623
  0
VERTEX
  5
21D3
  8
SAPA_PROFIL
 62
     4
 10
99.50067083774897
 20
28.32664691632484
 30
0.0
  0
VERTEX
  5
21D4
  8
SAPA_PROFIL
 62
     4
 10
99.500670837756644
 20
27.38547223581503
 30
0.0
 42
-0.3152987888813165
  0
VERTEX
  5
21D5
  8
SAPA_PROFIL
 62
     4
 10
99.171680909419877
 20
26.91562592541727
 30
0.0
  0
VERTEX
  5
21D6
  8
SAPA_PROFIL
 62
     4
 10
97.971680909408633
 20
26.478861644293321
 30
0.0
 42
-0.5205670505515651
  0
VERTEX
  5
21D7
  8
SAPA_PROFIL
 62
     4
 10
97.300670837745898
 20
26.94870795468654
 30
0.0
  0
VERTEX
  5
21D8
  8
SAPA_PROFIL
 62
     4
 10
97.300670837745869
 20
31.965148895355391
 30
0.0
 42
-0.3702522326300203
  0
VERTEX
  5
21D9
  8
SAPA_PROFIL
 62
     4
 10
97.555130790411582
 20
32.261672257148717
 30
0.0
 42
-0.0982365330332397
  0
VERTEX
  5
21DA
  8
SAPA_PROFIL
 62
     4
 10
99.242817565406583
 20
32.352125015359661
 30
0.0
 42
-0.3735060174783164
  0
VERTEX
  5
21DB
  8
SAPA_PROFIL
 62
     4
 10
99.500670837746625
 20
32.055100347448679
 30
0.0
  0
VERTEX
  5
21DC
  8
SAPA_PROFIL
 62
     4
 10
99.500670837747535
 20
31.626646916326031
 30
0.0
 42
0.5920056181162531
  0
VERTEX
  5
21DD
  8
SAPA_PROFIL
 62
     4
 10
99.961874340275472
 20
31.373638160008628
 30
0.0
  0
VERTEX
  5
21DE
  8
SAPA_PROFIL
 62
     4
 10
100.3640625482537
 20
31.634822236164329
 30
0.0
 42
0.2539676464746725
  0
VERTEX
  5
21DF
  8
SAPA_PROFIL
 62
     4
 10
100.5006708377491
 20
31.88642340654809
 30
0.0
  0
VERTEX
  5
21E0
  8
SAPA_PROFIL
 62
     4
 10
100.50067083774751
 20
54.113576425913777
 30
0.0
 42
0.2539676464741819
  0
VERTEX
  5
21E1
  8
SAPA_PROFIL
 62
     4
 10
100.3640625482537
 20
54.365177596296633
 30
0.0
  0
VERTEX
  5
21E2
  8
SAPA_PROFIL
 62
     4
 10
99.961874340275415
 20
54.626361672450443
 30
0.0
 42
0.5920055144124249
  0
VERTEX
  5
21E3
  8
SAPA_PROFIL
 62
     4
 10
99.500670837747535
 20
54.373352916134927
 30
0.0
  0
VERTEX
  5
21E4
  8
SAPA_PROFIL
 62
     4
 10
99.500670863022535
 20
53.944899438844722
 30
0.0
 42
-0.3735060174775405
  0
VERTEX
  5
21E5
  8
SAPA_PROFIL
 62
     4
 10
99.242817590682449
 20
53.647874770935033
 30
0.0
 42
-0.0355900683670349
  0
VERTEX
  5
21E6
  8
SAPA_PROFIL
 62
     4
 10
98.62694400388267
 20
53.603981206902773
 30
0.0
 42
-0.0624282003873116
  0
VERTEX
  5
21E7
  8
SAPA_PROFIL
 62
     4
 10
97.555130815687534
 20
53.738327529145707
 30
0.0
 42
-0.3702522326309292
  0
VERTEX
  5
21E8
  8
SAPA_PROFIL
 62
     4
 10
97.300670863021807
 20
54.03485089093909
 30
0.0
  0
VERTEX
  5
21E9
  8
SAPA_PROFIL
 62
     4
 10
97.30067083774567
 20
59.051291877772599
 30
0.0
 42
-0.5205670505515692
  0
VERTEX
  5
21EA
  8
SAPA_PROFIL
 62
     4
 10
97.971680909408633
 20
59.521138188165821
 30
0.0
  0
VERTEX
  5
21EB
  8
SAPA_PROFIL
 62
     4
 10
99.171680909418086
 20
59.08437390704087
 30
0.0
 42
-0.3152987888807539
  0
VERTEX
  5
21EC
  8
SAPA_PROFIL
 62
     4
 10
99.50067083775572
 20
58.614527596645011
 30
0.0
  0
VERTEX
  5
21ED
  8
SAPA_PROFIL
 62
     4
 10
99.500670837748885
 20
57.673352916135933
 30
0.0
 42
0.5862175119221242
  0
VERTEX
  5
21EE
  8
SAPA_PROFIL
 62
     4
 10
99.957502163504032
 20
57.417610985153971
 30
0.0
 42
-0.0000002084758573
  0
SEQEND
  5
21EF
  8
SAPA_PROFIL
 62
     4
  0
CIRCLE
  5
16EB
  8
SAPA_PROFIL
 62
     2
 10
109.0691630895754
 20
80.625620676325156
 30
0.0
 40
0.25
  0
INSERT
  5
16EC
  8
SAPA_PROFIL
  6
CONTINUOUS
 62
     2
  2
*U122
 10
0.0
 20
0.0
 30
0.0
1001
ACAD
1002
{
1000
R14_HATCH_DATA
1000
16EC
1011
1.0
1021
0.0
1031
0.0
1021
0.0
1031
0.0
1011
0.0
1021
0.0
1031
0.0
1021
1.0
1031
0.0
1011
0.0
1021
0.0
1031
0.0
1021
0.0
1031
1.0
1040
0.0
1010
0.0
1020
0.0
1030
1.0
1000
SOLID
1070
     1
1070
     1
1071
        1
1071
        7
1070
     1
1070
     1
1071
        2
1040
109.0691630895754
1040
80.375620676325156
1040
1.0
1040
109.0691630895754
1040
80.875620676325156
1040
1.0
1071
        1
1005
16EB
1070
     0
1070
     1
1040
0.0095408196840103
1071
        1
1040
109.0691630895754
1040
80.525620676325147
1040
0.0
1002
}
  0
POLYLINE
  5
16ED
  8
SAPA_PROFIL
 62
     2
 66
     1
 10
0.0
 20
0.0
 30
0.0
 70
     1
  0
VERTEX
  5
2201
  8
SAPA_PROFIL
 62
     2
 10
111.4006960909185
 20
83.299999915191037
 30
0.0
  0
VERTEX
  5
2202
  8
SAPA_PROFIL
 62
     2
 10
111.5006960909185
 20
83.299999915191037
 30
0.0
 42
-0.4142135623730959
  0
VERTEX
  5
2203
  8
SAPA_PROFIL
 62
     2
 10
112.2006960909185
 20
82.599999915191034
 30
0.0
  0
VERTEX
  5
2204
  8
SAPA_PROFIL
 62
     2
 10
112.2006960909185
 20
81.49999991519104
 30
0.0
 42
-0.4142135623730961
  0
VERTEX
  5
2205
  8
SAPA_PROFIL
 62
     2
 10
112.0006960909185
 20
81.299999915191037
 30
0.0
  0
VERTEX
  5
2206
  8
SAPA_PROFIL
 62
     2
 10
110.9006960909185
 20
81.299999915191037
 30
0.0
 42
-0.4142135623730956
  0
VERTEX
  5
2207
  8
SAPA_PROFIL
 62
     2
 10
110.7006960909185
 20
81.49999991519104
 30
0.0
  0
VERTEX
  5
2208
  8
SAPA_PROFIL
 62
     2
 10
110.7006960909185
 20
82.599999915191034
 30
0.0
 42
-0.4142135623730946
  0
SEQEND
  5
2209
  8
SAPA_PROFIL
 62
     2
  0
POLYLINE
  5
16EE
  8
SAPA_PROFIL
 62
     2
 66
     1
 10
0.0
 20
0.0
 30
0.0
  0
VERTEX
  5
220A
  8
SAPA_PROFIL
 62
     2
 10
109.9006960909185
 20
81.999999915191054
 30
0.0
  0
VERTEX
  5
220B
  8
SAPA_PROFIL
 62
     2
 10
109.9006960909185
 20
81.35223434991795
 30
0.0
 42
-0.4416942457848117
  0
VERTEX
  5
220C
  8
SAPA_PROFIL
 62
     2
 10
109.6821417312906
 20
81.153096870425017
 30
0.0
  0
VERTEX
  5
220D
  8
SAPA_PROFIL
 62
     2
 10
108.7192504505464
 20
81.242812935683048
 30
0.0
 42
0.4416942457848106
  0
VERTEX
  5
220E
  8
SAPA_PROFIL
 62
     2
 10
108.5006960909185
 20
81.043675456190115
 30
0.0
  0
VERTEX
  5
220F
  8
SAPA_PROFIL
 62
     2
 10
108.5006960909185
 20
80.493693116598564
 30
0.0
 42
0.5445962197109637
  0
VERTEX
  5
2210
  8
SAPA_PROFIL
 62
     2
 10
109.2063751363236
 20
80.037956207536695
 30
0.0
  0
VERTEX
  5
2211
  8
SAPA_PROFIL
 62
     2
 10
109.56542628960879
 20
80.199999915191029
 30
0.0
  0
VERTEX
  5
2212
  8
SAPA_PROFIL
 62
     2
 10
111.0383855283567
 20
80.199999915191029
 30
0.0
 42
0.336437923496554
  0
VERTEX
  5
2213
  8
SAPA_PROFIL
 62
     2
 10
112.11012925797149
 20
80.387506733032765
 30
0.0
  0
VERTEX
  5
2214
  8
SAPA_PROFIL
 62
     2
 10
112.67199289379531
 20
80.387506733032765
 30
0.0
 42
-0.1919812372740513
  0
VERTEX
  5
2215
  8
SAPA_PROFIL
 62
     2
 10
113.0159799413953
 20
80.250374355015495
 30
0.0
  0
VERTEX
  5
2216
  8
SAPA_PROFIL
 62
     2
 10
113.4078468717986
 20
79.87889687872547
 30
0.0
 42
-0.9249153594910841
  0
VERTEX
  5
2217
  8
SAPA_PROFIL
 62
     2
 10
111.74206894327639
 20
77.645202063646167
 30
0.0
  0
VERTEX
  5
2218
  8
SAPA_PROFIL
 62
     2
 10
110.65752400360761
 20
78.178750118897796
 30
0.0
 42
0.4184584792862776
  0
VERTEX
  5
2219
  8
SAPA_PROFIL
 62
     2
 10
110.0708216870362
 20
77.774997998478085
 30
0.0
 42
0.3891337693453737
  0
VERTEX
  5
221A
  8
SAPA_PROFIL
 62
     2
 10
110.2159885785767
 20
77.546908690535474
 30
0.0
  0
VERTEX
  5
221B
  8
SAPA_PROFIL
 62
     2
 10
111.3018846691417
 20
76.984003638047596
 30
0.0
 42
0.8864286961344978
  0
VERTEX
  5
221C
  8
SAPA_PROFIL
 62
     2
 10
113.9736645710782
 20
80.343202393568319
 30
0.0
  0
VERTEX
  5
221D
  8
SAPA_PROFIL
 62
     2
 10
114.40422370895951
 20
80.458570366857444
 30
0.0
 42
0.9163311740174273
  0
VERTEX
  5
221E
  8
SAPA_PROFIL
 62
     2
 10
114.2658337938194
 20
81.243418576609784
 30
0.0
  0
VERTEX
  5
221F
  8
SAPA_PROFIL
 62
     2
 10
113.218127239468
 20
81.151756130402205
 30
0.0
 42
-0.4400105308918339
  0
VERTEX
  5
2220
  8
SAPA_PROFIL
 62
     2
 10
113.0006960909185
 20
81.350995070020559
 30
0.0
  0
VERTEX
  5
2221
  8
SAPA_PROFIL
 62
     2
 10
113.0006960909185
 20
82.199999915191015
 30
0.0
  0
VERTEX
  5
2222
  8
SAPA_PROFIL
 62
     2
 10
113.4006960909185
 20
82.199999915191015
 30
0.0
 42
0.569380983920789
  0
VERTEX
  5
2223
  8
SAPA_PROFIL
 62
     2
 10
113.576250136482
 20
82.495816286893685
 30
0.0
  0
VERTEX
  5
2224
  8
SAPA_PROFIL
 62
     2
 10
112.871284536583
 20
83.787449030298987
 30
0.0
 42
0.274387813087548
  0
VERTEX
  5
2225
  8
SAPA_PROFIL
 62
     2
 10
112.3446223998922
 20
84.099999915191034
 30
0.0
  0
VERTEX
  5
2226
  8
SAPA_PROFIL
 62
     2
 10
110.55676978194469
 20
84.099999915191034
 30
0.0
 42
0.274387813087548
  0
VERTEX
  5
2227
  8
SAPA_PROFIL
 62
     2
 10
110.03010764525401
 20
83.787449030298987
 30
0.0
  0
VERTEX
  5
2228
  8
SAPA_PROFIL
 62
     2
 10
109.32514204535489
 20
82.495816286893685
 30
0.0
 42
0.5693809839207892
  0
VERTEX
  5
2229
  8
SAPA_PROFIL
 62
     2
 10
109.5006960909185
 20
82.199999915191015
 30
0.0
  0
VERTEX
  5
222A
  8
SAPA_PROFIL
 62
     2
 10
109.9006960909185
 20
82.199999915191015
 30
0.0
  0
VERTEX
  5
222B
  8
SAPA_PROFIL
 62
     2
 10
109.9006960909185
 20
81.350995070020559
 30
0.0
  0
SEQEND
  5
222C
  8
SAPA_PROFIL
 62
     2
  0
POLYLINE
  5
16EF
  8
SAPA_PROFIL
 62
     4
 66
     1
 10
0.0
 20
0.0
 30
0.0
  0
VERTEX
  5
222D
  8
SAPA_PROFIL
 62
     4
 10
47.90476611569914
 20
52.049329115372217
 30
0.0
 42
-0.5571646428658034
  0
VERTEX
  5
222E
  8
SAPA_PROFIL
 62
     4
 10
48.772485029854693
 20
51.512368611235388
 30
0.0
  0
VERTEX
  5
222F
  8
SAPA_PROFIL
 62
     4
 10
48.772485029854231
 20
34.487631374714191
 30
0.0
 42
-0.5571645048035741
  0
VERTEX
  5
2230
  8
SAPA_PROFIL
 62
     4
 10
47.904766341988072
 20
33.95067075775313
 30
0.0
  0
VERTEX
  5
2231
  8
SAPA_PROFIL
 62
     4
 10
46.238625685920042
 20
34.781377845299829
 30
0.0
 42
-0.284385813979063
  0
VERTEX
  5
2232
  8
SAPA_PROFIL
 62
     4
 10
46.072485029852587
 20
35.049858153780178
 30
0.0
  0
VERTEX
  5
2233
  8
SAPA_PROFIL
 62
     4
 10
46.072485029852587
 20
50.950141832169493
 30
0.0
 42
-0.2843858139786238
  0
VERTEX
  5
2234
  8
SAPA_PROFIL
 62
     4
 10
46.238625685919523
 20
51.218622140649778
 30
0.0
  0
VERTEX
  5
2235
  8
SAPA_PROFIL
 62
     4
 10
47.904766341988882
 20
52.049329228196932
 30
0.0
  0
SEQEND
  5
2236
  8
SAPA_PROFIL
 62
     4
  0
POLYLINE
  5
16F0
  8
SAPA_PROFIL
 62
     4
 66
     1
 10
0.0
 20
0.0
 30
0.0
 70
     1
  0
VERTEX
  5
2237
  8
SAPA_PROFIL
 62
     4
 10
45.715653515355029
 20
28.582388808307542
 30
0.0
  0
VERTEX
  5
2238
  8
SAPA_PROFIL
 62
     4
 10
45.309093319350879
 20
28.31836552993153
 30
0.0
 42
0.2539676464751066
  0
VERTEX
  5
2239
  8
SAPA_PROFIL
 62
     4
 10
45.172485029854784
 20
28.066764359546831
 30
0.0
  0
VERTEX
  5
223A
  8
SAPA_PROFIL
 62
     4
 10
45.172485029854784
 20
26.68526477434148
 30
0.0
 42
0.3152987888790479
  0
VERTEX
  5
223B
  8
SAPA_PROFIL
 62
     4
 10
45.501474958192937
 20
26.21541846394916
 30
0.0
  0
VERTEX
  5
223C
  8
SAPA_PROFIL
 62
     4
 10
47.962305148644212
 20
25.31974952304056
 30
0.0
 42
-0.2694959974287434
  0
VERTEX
  5
223D
  8
SAPA_PROFIL
 62
     4
 10
48.155437122988111
 20
25.0882304766392
 30
0.0
 42
-0.0612686379508233
  0
VERTEX
  5
223E
  8
SAPA_PROFIL
 62
     4
 10
48.169020493618632
 20
24.795555043785932
 30
0.0
  0
VERTEX
  5
223F
  8
SAPA_PROFIL
 62
     4
 10
48.370757172347453
 20
24.446136866477659
 30
0.0
 42
-0.5773502691891679
  0
VERTEX
  5
2240
  8
SAPA_PROFIL
 62
     4
 10
48.18889183755288
 20
24.13113686647808
 30
0.0
  0
VERTEX
  5
2241
  8
SAPA_PROFIL
 62
     4
 10
47.921777309426567
 20
24.131136866477831
 30
0.0
  0
VERTEX
  5
2242
  8
SAPA_PROFIL
 62
     4
 10
47.113093848118247
 20
22.732609165843581
 30
0.0
 42
0.1318219888653519
  0
VERTEX
  5
2243
  8
SAPA_PROFIL
 62
     4
 10
47.072801451580858
 20
22.58243606337123
 30
0.0
  0
VERTEX
  5
2244
  8
SAPA_PROFIL
 62
     4
 10
47.072801451587218
 20
22.39999999293445
 30
0.0
 42
0.4142135623724291
  0
VERTEX
  5
2245
  8
SAPA_PROFIL
 62
     4
 10
47.472801451586847
 20
21.999999992933908
 30
0.0
  0
VERTEX
  5
2246
  8
SAPA_PROFIL
 62
     4
 10
50.872801451587861
 20
21.999999992935269
 30
0.0
 42
0.4142135623744271
  0
VERTEX
  5
2247
  8
SAPA_PROFIL
 62
     4
 10
51.272801451588862
 20
22.39999999293445
 30
0.0
  0
VERTEX
  5
2248
  8
SAPA_PROFIL
 62
     4
 10
51.272801451589501
 20
22.579615235205761
 30
0.0
 42
0.1316524975874005
  0
VERTEX
  5
2249
  8
SAPA_PROFIL
 62
     4
 10
51.232609072723903
 20
22.729615235202569
 30
0.0
  0
VERTEX
  5
224A
  8
SAPA_PROFIL
 62
     4
 10
50.306459626071359
 20
24.33375313220483
 30
0.0
 42
-0.1316524975875904
  0
VERTEX
  5
224B
  8
SAPA_PROFIL
 62
     4
 10
50.172485029856603
 20
24.833753132206539
 30
0.0
  0
VERTEX
  5
224C
  8
SAPA_PROFIL
 62
     4
 10
50.172485029856603
 20
25.249999992933908
 30
0.0
 42
-0.4142135623730951
  0
VERTEX
  5
224D
  8
SAPA_PROFIL
 62
     4
 10
51.172485029856603
 20
26.249999992933908
 30
0.0
  0
VERTEX
  5
224E
  8
SAPA_PROFIL
 62
     4
 10
54.172485029853867
 20
26.249999992933908
 30
0.0
 42
0.9999996830128083
  0
VERTEX
  5
224F
  8
SAPA_PROFIL
 62
     4
 10
54.172485029855693
 20
27.249999992933908
 30
0.0
  0
VERTEX
  5
2250
  8
SAPA_PROFIL
 62
     4
 10
51.172485029855693
 20
27.249999992933908
 30
0.0
 42
-0.4142135623730951
  0
VERTEX
  5
2251
  8
SAPA_PROFIL
 62
     4
 10
50.1724850298557
 20
28.249999992933908
 30
0.0
  0
VERTEX
  5
2252
  8
SAPA_PROFIL
 62
     4
 10
50.1724850298557
 20
57.749999993018491
 30
0.0
 42
-0.4142135623730951
  0
VERTEX
  5
2253
  8
SAPA_PROFIL
 62
     4
 10
51.172485029855693
 20
58.749999993018491
 30
0.0
  0
VERTEX
  5
2254
  8
SAPA_PROFIL
 62
     4
 10
54.172485029853867
 20
58.749999993018491
 30
0.0
 42
0.9999999999999998
  0
VERTEX
  5
2255
  8
SAPA_PROFIL
 62
     4
 10
54.172485029853867
 20
59.749999993018491
 30
0.0
  0
VERTEX
  5
2256
  8
SAPA_PROFIL
 62
     4
 10
51.172485029855693
 20
59.749999993018491
 30
0.0
 42
-0.4142135623736278
  0
VERTEX
  5
2257
  8
SAPA_PROFIL
 62
     4
 10
50.1724850298557
 20
60.749999993018491
 30
0.0
  0
VERTEX
  5
2258
  8
SAPA_PROFIL
 62
     4
 10
50.1724850298557
 20
61.166246853744951
 30
0.0
 42
-0.1316524975874375
  0
VERTEX
  5
2259
  8
SAPA_PROFIL
 62
     4
 10
50.306459626071728
 20
61.66624685374515
 30
0.0
  0
VERTEX
  5
225A
  8
SAPA_PROFIL
 62
     4
 10
51.232609072723903
 20
63.270384750747098
 30
0.0
 42
0.1316524975874
  0
VERTEX
  5
225B
  8
SAPA_PROFIL
 62
     4
 10
51.272801451589487
 20
63.420384750746642
 30
0.0
  0
VERTEX
  5
225C
  8
SAPA_PROFIL
 62
     4
 10
51.272801451588862
 20
63.599999993017953
 30
0.0
 42
0.4142135623744271
  0
VERTEX
  5
225D
  8
SAPA_PROFIL
 62
     4
 10
50.872801451587861
 20
63.99999999301712
 30
0.0
  0
VERTEX
  5
225E
  8
SAPA_PROFIL
 62
     4
 10
47.472801451586847
 20
63.999999993018491
 30
0.0
 42
0.4142135623724291
  0
VERTEX
  5
225F
  8
SAPA_PROFIL
 62
     4
 10
47.072801451587218
 20
63.599999993017953
 30
0.0
  0
VERTEX
  5
2260
  8
SAPA_PROFIL
 62
     4
 10
47.072801451580858
 20
63.417563922581159
 30
0.0
 42
0.1318219888653524
  0
VERTEX
  5
2261
  8
SAPA_PROFIL
 62
     4
 10
47.113093848118247
 20
63.267390820108822
 30
0.0
  0
VERTEX
  5
2262
  8
SAPA_PROFIL
 62
     4
 10
47.921777309342581
 20
61.868863119629168
 30
0.0
  0
VERTEX
  5
2263
  8
SAPA_PROFIL
 62
     4
 10
48.188891837555623
 20
61.868863119629168
 30
0.0
 42
-0.577350269189159
  0
VERTEX
  5
2264
  8
SAPA_PROFIL
 62
     4
 10
48.370757172350189
 20
61.553863119629561
 30
0.0
  0
VERTEX
  5
2265
  8
SAPA_PROFIL
 62
     4
 10
48.169020493673081
 20
61.204444942410909
 30
0.0
 42
-0.0612687673629489
  0
VERTEX
  5
2266
  8
SAPA_PROFIL
 62
     4
 10
48.155437122986868
 20
60.911769509310687
 30
0.0
 42
-0.2694959974285039
  0
VERTEX
  5
2267
  8
SAPA_PROFIL
 62
     4
 10
47.962305148642919
 20
60.680250462910173
 30
0.0
  0
VERTEX
  5
2268
  8
SAPA_PROFIL
 62
     4
 10
45.50147495818976
 20
59.784581522000508
 30
0.0
 42
0.3152987888784035
  0
VERTEX
  5
2269
  8
SAPA_PROFIL
 62
     4
 10
45.172485029853178
 20
59.314735211607292
 30
0.0
  0
VERTEX
  5
226A
  8
SAPA_PROFIL
 62
     4
 10
45.172485029854784
 20
57.933235626402848
 30
0.0
 42
0.2539676464741841
  0
VERTEX
  5
226B
  8
SAPA_PROFIL
 62
     4
 10
45.309093319350062
 20
57.68163445601877
 30
0.0
  0
VERTEX
  5
226C
  8
SAPA_PROFIL
 62
     4
 10
45.715653515355029
 20
57.417611177642122
 30
0.0
 42
0.5862177598324623
  0
VERTEX
  5
226D
  8
SAPA_PROFIL
 62
     4
 10
46.172485029851529
 20
57.673352992880467
 30
0.0
  0
VERTEX
  5
226E
  8
SAPA_PROFIL
 62
     4
 10
46.17248502984387
 20
58.614527673390278
 30
0.0
 42
-0.3152987888813165
  0
VERTEX
  5
226F
  8
SAPA_PROFIL
 62
     4
 10
46.501474958180623
 20
59.084373983788041
 30
0.0
  0
VERTEX
  5
2270
  8
SAPA_PROFIL
 62
     4
 10
47.701474958191852
 20
59.52113826491199
 30
0.0
 42
-0.5205670505515651
  0
VERTEX
  5
2271
  8
SAPA_PROFIL
 62
     4
 10
48.372485029854602
 20
59.051291954518767
 30
0.0
  0
VERTEX
  5
2272
  8
SAPA_PROFIL
 62
     4
 10
48.37248502985463
 20
54.034851013849917
 30
0.0
 42
-0.3702522326300203
  0
VERTEX
  5
2273
  8
SAPA_PROFIL
 62
     4
 10
48.118025077188918
 20
53.73832765205659
 30
0.0
 42
-0.0982365330332397
  0
VERTEX
  5
2274
  8
SAPA_PROFIL
 62
     4
 10
46.43033830219391
 20
53.647874893845653
 30
0.0
 42
-0.3735060174783164
  0
VERTEX
  5
2275
  8
SAPA_PROFIL
 62
     4
 10
46.172485029853881
 20
53.944899561756642
 30
0.0
  0
VERTEX
  5
2276
  8
SAPA_PROFIL
 62
     4
 10
46.172485029852957
 20
54.37335299287929
 30
0.0
 42
0.5920056181162531
  0
VERTEX
  5
2277
  8
SAPA_PROFIL
 62
     4
 10
45.711281527325042
 20
54.62636174919669
 30
0.0
  0
VERTEX
  5
2278
  8
SAPA_PROFIL
 62
     4
 10
45.309093319346736
 20
54.365177673040989
 30
0.0
 42
0.2539676464746725
  0
VERTEX
  5
2279
  8
SAPA_PROFIL
 62
     4
 10
45.172485029851387
 20
54.113576502657217
 30
0.0
  0
VERTEX
  5
227A
  8
SAPA_PROFIL
 62
     4
 10
45.172485029852957
 20
31.886423483291541
 30
0.0
 42
0.2539676464741819
  0
VERTEX
  5
227B
  8
SAPA_PROFIL
 62
     4
 10
45.309093319346736
 20
31.634822312908678
 30
0.0
  0
VERTEX
  5
227C
  8
SAPA_PROFIL
 62
     4
 10
45.711281527325077
 20
31.373638236754871
 30
0.0
 42
0.5920055144124249
  0
VERTEX
  5
227D
  8
SAPA_PROFIL
 62
     4
 10
46.172485029852957
 20
31.626646993070381
 30
0.0
  0
VERTEX
  5
227E
  8
SAPA_PROFIL
 62
     4
 10
46.172485004577958
 20
32.0551004703606
 30
0.0
 42
-0.3735060174775405
  0
VERTEX
  5
227F
  8
SAPA_PROFIL
 62
     4
 10
46.430338276918043
 20
32.352125138270289
 30
0.0
 42
-0.0355900683670349
  0
VERTEX
  5
2280
  8
SAPA_PROFIL
 62
     4
 10
47.046211863717843
 20
32.396018702302541
 30
0.0
 42
-0.0624282003873116
  0
VERTEX
  5
2281
  8
SAPA_PROFIL
 62
     4
 10
48.118025051912959
 20
32.261672380059601
 30
0.0
 42
-0.3702522326309292
  0
VERTEX
  5
2282
  8
SAPA_PROFIL
 62
     4
 10
48.372485004578678
 20
31.965149018266231
 30
0.0
  0
VERTEX
  5
2283
  8
SAPA_PROFIL
 62
     4
 10
48.372485029854822
 20
26.948708031432719
 30
0.0
 42
-0.5205670505515692
  0
VERTEX
  5
2284
  8
SAPA_PROFIL
 62
     4
 10
47.701474958191852
 20
26.47886172103949
 30
0.0
  0
VERTEX
  5
2285
  8
SAPA_PROFIL
 62
     4
 10
46.501474958182413
 20
26.915626002164451
 30
0.0
 42
-0.3152987888807539
  0
VERTEX
  5
2286
  8
SAPA_PROFIL
 62
     4
 10
46.172485029844779
 20
27.385472312560299
 30
0.0
  0
VERTEX
  5
2287
  8
SAPA_PROFIL
 62
     4
 10
46.1724850298516
 20
28.326646993069382
 30
0.0
 42
0.5862175119221242
  0
VERTEX
  5
2288
  8
SAPA_PROFIL
 62
     4
 10
45.715653704096461
 20
28.58238892405134
 30
0.0
 42
-0.0000002084758573
  0
SEQEND
  5
2289
  8
SAPA_PROFIL
 62
     4
  0
POLYLINE
  5
16F1
  8
SAPA_PROFIL
 66
     1
 10
0.0
 20
0.0
 30
0.0
 70
     1
  0
VERTEX
  5
228A
  8
SAPA_PROFIL
 10
89.166284781970219
 20
25.517338612456069
 30
0.0
 42
-0.4769755326981641
  0
VERTEX
  5
228B
  8
SAPA_PROFIL
 10
89.537941656916104
 20
25.215085787949612
 30
0.0
  0
VERTEX
  5
228C
  8
SAPA_PROFIL
 10
89.537858049032437
 20
23.7119847071876
 30
0.0
  0
VERTEX
  5
228D
  8
SAPA_PROFIL
 10
89.490012299033936
 20
23.69746629794049
 30
0.0
 42
0.4142135623730958
  0
VERTEX
  5
228E
  8
SAPA_PROFIL
 10
89.290048254526553
 20
23.323281342464679
 30
0.0
  0
VERTEX
  5
228F
  8
SAPA_PROFIL
 10
89.800670837748228
 20
22.002164384313978
 30
0.0
  0
VERTEX
  5
2290
  8
SAPA_PROFIL
 10
89.800670837748228
 20
19.043207532879279
 30
0.0
 42
-0.2596812337299856
  0
VERTEX
  5
2291
  8
SAPA_PROFIL
 10
89.658631044875975
 20
18.788161315569251
 30
0.0
  0
VERTEX
  5
2292
  8
SAPA_PROFIL
 10
88.458806750909218
 20
18.045062688228001
 30
0.0
 42
-0.587935048733185
  0
VERTEX
  5
2293
  8
SAPA_PROFIL
 10
88.000670837749126
 20
18.300000000067971
 30
0.0
  0
VERTEX
  5
2294
  8
SAPA_PROFIL
 10
88.00067083774907
 20
19.70000000006798
 30
0.0
 42
0.4142135623731227
  0
VERTEX
  5
2295
  8
SAPA_PROFIL
 10
87.700670837749158
 20
20.00000000006796
 30
0.0
  0
VERTEX
  5
2296
  8
SAPA_PROFIL
 10
85.300670837748171
 20
20.000000000067971
 30
0.0
 42
0.414213562373109
  0
VERTEX
  5
2297
  8
SAPA_PROFIL
 10
85.000670837748217
 20
19.70000000006798
 30
0.0
  0
VERTEX
  5
2298
  8
SAPA_PROFIL
 10
85.00067083774816
 20
2.300000083844961
 30
0.0
 42
0.4142135623730882
  0
VERTEX
  5
2299
  8
SAPA_PROFIL
 10
85.300670837748171
 20
2.0000000838439411
 30
0.0
  0
VERTEX
  5
229A
  8
SAPA_PROFIL
 10
87.700670837748106
 20
2.0000000838439549
 30
0.0
 42
0.4142135623720964
  0
VERTEX
  5
229B
  8
SAPA_PROFIL
 10
88.000670837748217
 20
2.300000083843952
 30
0.0
  0
VERTEX
  5
229C
  8
SAPA_PROFIL
 10
88.000670837747307
 20
3.7000000838439719
 30
0.0
 42
-0.5877032589246419
  0
VERTEX
  5
229D
  8
SAPA_PROFIL
 10
88.458631044876114
 20
3.955046301154963
 30
0.0
  0
VERTEX
  5
229E
  8
SAPA_PROFIL
 10
89.85863104487602
 20
3.0879709439459879
 30
0.0
 42
-0.2596812337300243
  0
VERTEX
  5
229F
  8
SAPA_PROFIL
 10
90.000670837748217
 20
2.8329247266359778
 30
0.0
  0
VERTEX
  5
22A0
  8
SAPA_PROFIL
 10
90.000670837748217
 20
0.2999999999999669
 30
0.0
 42
-0.4142135623731088
  0
VERTEX
  5
22A1
  8
SAPA_PROFIL
 10
89.700670837748206
 20
-0.000000000000016
 30
0.0
  0
VERTEX
  5
22A2
  8
SAPA_PROFIL
 10
0.3006708380911363
 20
-0.000000000000016
 30
0.0
 42
-0.6681786379192997
  0
VERTEX
  5
22A3
  8
SAPA_PROFIL
 10
0.088538803505486
 20
0.5121320349105201
 30
0.0
  0
VERTEX
  5
22A4
  8
SAPA_PROFIL
 10
1.129960159642678
 20
1.553553391047598
 30
0.0
 42
-0.1989123673796784
  0
VERTEX
  5
22A5
  8
SAPA_PROFIL
 10
1.483513550235898
 20
1.700000000454307
 30
0.0
  0
VERTEX
  5
22A6
  8
SAPA_PROFIL
 10
12.000670837878729
 20
1.700000000454194
 30
0.0
 42
0.4142135623731617
  0
VERTEX
  5
22A7
  8
SAPA_PROFIL
 10
12.500670837878729
 20
2.200000000454307
 30
0.0
  0
VERTEX
  5
22A8
  8
SAPA_PROFIL
 10
12.50067083787803
 20
4.3005704447083817
 30
0.0
 42
-0.4241420668413202
  0
VERTEX
  5
22A9
  8
SAPA_PROFIL
 10
13.53444307175682
 20
5.3000000001174898
 30
0.0
 42
-0.2988658713671491
  0
VERTEX
  5
22AA
  8
SAPA_PROFIL
 10
14.47172320871495
 20
4.7291418733395121
 30
0.0
 42
-0.5507604245839972
  0
VERTEX
  5
22AB
  8
SAPA_PROFIL
 10
14.200670837867831
 20
4.3005704447531752
 30
0.0
  0
VERTEX
  5
22AC
  8
SAPA_PROFIL
 10
13.90067083787774
 20
4.3005704447354542
 30
0.0
 42
0.4142135623717422
  0
VERTEX
  5
22AD
  8
SAPA_PROFIL
 10
13.700670837890801
 20
4.1005704447234574
 30
0.0
  0
VERTEX
  5
22AE
  8
SAPA_PROFIL
 10
13.70067083790682
 20
3.8005704446054809
 30
0.0
 42
0.4142135623558401
  0
VERTEX
  5
22AF
  8
SAPA_PROFIL
 10
15.500670837904851
 20
2.0005704447083281
 30
0.0
  0
VERTEX
  5
22B0
  8
SAPA_PROFIL
 10
16.200670838120839
 20
2.0005704447063808
 30
0.0
 42
0.4142135623563557
  0
VERTEX
  5
22B1
  8
SAPA_PROFIL
 10
18.000670838123689
 20
3.8005704446005639
 30
0.0
  0
VERTEX
  5
22B2
  8
SAPA_PROFIL
 10
18.000670838141939
 20
4.1005704447173184
 30
0.0
 42
0.4142135623703688
  0
VERTEX
  5
22B3
  8
SAPA_PROFIL
 10
17.80067083815393
 20
4.3005704447294706
 30
0.0
  0
VERTEX
  5
22B4
  8
SAPA_PROFIL
 10
17.500670838161739
 20
4.30057044474857
 30
0.0
 42
-0.5507604245876419
  0
VERTEX
  5
22B5
  8
SAPA_PROFIL
 10
17.229618467316548
 20
4.7291418733430373
 30
0.0
 42
-0.2988658713647653
  0
VERTEX
  5
22B6
  8
SAPA_PROFIL
 10
18.166898604275829
 20
5.3000000001106118
 30
0.0
 42
-0.4241420668424131
  0
VERTEX
  5
22B7
  8
SAPA_PROFIL
 10
19.20067083815384
 20
4.3005704446994013
 30
0.0
  0
VERTEX
  5
22B8
  8
SAPA_PROFIL
 10
19.20067083814784
 20
2.300000000401309
 30
0.0
 42
0.4142135623741493
  0
VERTEX
  5
22B9
  8
SAPA_PROFIL
 10
19.50067083814784
 20
2.000000000399436
 30
0.0
  0
VERTEX
  5
22BA
  8
SAPA_PROFIL
 10
44.500670837765917
 20
2.000000000399436
 30
0.0
 42
0.4142135623730909
  0
VERTEX
  5
22BB
  8
SAPA_PROFIL
 10
45.000670837765888
 20
2.5000000003993939
 30
0.0
  0
VERTEX
  5
22BC
  8
SAPA_PROFIL
 10
45.000670837748103
 20
2.8329247266360489
 30
0.0
 42
-0.2596812337300516
  0
VERTEX
  5
22BD
  8
SAPA_PROFIL
 10
45.142710630620321
 20
3.0879709439460452
 30
0.0
  0
VERTEX
  5
22BE
  8
SAPA_PROFIL
 10
46.542710630620107
 20
3.955046301154963
 30
0.0
 42
-0.5877032589248035
  0
VERTEX
  5
22BF
  8
SAPA_PROFIL
 10
47.000670837748132
 20
3.7000000838439719
 30
0.0
  0
VERTEX
  5
22C0
  8
SAPA_PROFIL
 10
47.000670837748103
 20
2.300000083843952
 30
0.0
 42
0.4142135623721171
  0
VERTEX
  5
22C1
  8
SAPA_PROFIL
 10
47.300670837748108
 20
2.0000000838449501
 30
0.0
  0
VERTEX
  5
22C2
  8
SAPA_PROFIL
 10
49.700670837748177
 20
2.0000000838439411
 30
0.0
 42
0.4142135623730951
  0
VERTEX
  5
22C3
  8
SAPA_PROFIL
 10
50.00067083774919
 20
2.300000083844961
 30
0.0
  0
VERTEX
  5
22C4
  8
SAPA_PROFIL
 10
50.000670837748103
 20
19.70000000006798
 30
0.0
 42
0.414213562373081
  0
VERTEX
  5
22C5
  8
SAPA_PROFIL
 10
49.700670837748177
 20
20.000000000067939
 30
0.0
  0
VERTEX
  5
22C6
  8
SAPA_PROFIL
 10
47.300670837748108
 20
20.00000000006796
 30
0.0
 42
0.4142135623740523
  0
VERTEX
  5
22C7
  8
SAPA_PROFIL
 10
47.000670837747187
 20
19.70000000006798
 30
0.0
  0
VERTEX
  5
22C8
  8
SAPA_PROFIL
 10
47.000670837747137
 20
18.300000000067971
 30
0.0
 42
-0.5874715141143722
  0
VERTEX
  5
22C9
  8
SAPA_PROFIL
 10
46.542886413121387
 20
18.044844997482109
 30
0.0
  0
VERTEX
  5
22CA
  8
SAPA_PROFIL
 10
45.342710630624637
 20
18.788161315569251
 30
0.0
 42
-0.2596812337299913
  0
VERTEX
  5
22CB
  8
SAPA_PROFIL
 10
45.200670837748142
 20
19.043207532879212
 30
0.0
  0
VERTEX
  5
22CC
  8
SAPA_PROFIL
 10
45.20067083774812
 20
22.002164384313769
 30
0.0
  0
VERTEX
  5
22CD
  8
SAPA_PROFIL
 10
45.711293420969817
 20
23.323281342464671
 30
0.0
 42
0.4142135623730951
  0
VERTEX
  5
22CE
  8
SAPA_PROFIL
 10
45.511329376462427
 20
23.69746629794048
 30
0.0
  0
VERTEX
  5
22CF
  8
SAPA_PROFIL
 10
45.463483626463933
 20
23.711984707187579
 30
0.0
  0
VERTEX
  5
22D0
  8
SAPA_PROFIL
 10
45.463400018580288
 20
25.21508578794959
 30
0.0
 42
-0.4769755326981643
  0
VERTEX
  5
22D1
  8
SAPA_PROFIL
 10
45.835056893526151
 20
25.517338612456061
 30
0.0
  0
VERTEX
  5
22D2
  8
SAPA_PROFIL
 10
47.648287364184412
 20
25.135892016328341
 30
0.0
 42
-0.2216946626430191
  0
VERTEX
  5
22D3
  8
SAPA_PROFIL
 10
48.189167195661199
 20
24.730083111173538
 30
0.0
  0
VERTEX
  5
22D4
  8
SAPA_PROFIL
 10
48.341301106769961
 20
24.445400827941899
 30
0.0
 42
-0.5773502691897461
  0
VERTEX
  5
22D5
  8
SAPA_PROFIL
 10
48.158347366659783
 20
24.15124452768708
 30
0.0
  0
VERTEX
  5
22D6
  8
SAPA_PROFIL
 10
47.836589638441531
 20
24.16180589391405
 30
0.0
  0
VERTEX
  5
22D7
  8
SAPA_PROFIL
 10
46.752025191469798
 20
22.275962202052991
 30
0.0
  0
VERTEX
  5
22D8
  8
SAPA_PROFIL
 10
46.69395155448067
 20
22.084579202059281
 30
0.0
 42
0.7625858545243258
  0
VERTEX
  5
22D9
  8
SAPA_PROFIL
 10
47.024277635497711
 20
21.899999999861791
 30
0.0
 42
-0.2134217652834387
  0
VERTEX
  5
22DA
  8
SAPA_PROFIL
 10
47.247884433247819
 20
21.999999999861931
 30
0.0
  0
VERTEX
  5
22DB
  8
SAPA_PROFIL
 10
51.100670837754834
 20
21.9999999999315
 30
0.0
 42
0.4142135623650482
  0
VERTEX
  5
22DC
  8
SAPA_PROFIL
 10
51.400670837749331
 20
22.299999999928961
 30
0.0
  0
VERTEX
  5
22DD
  8
SAPA_PROFIL
 10
51.40067083775206
 20
22.59162650772458
 30
0.0
  0
VERTEX
  5
22DE
  8
SAPA_PROFIL
 10
50.472075969070282
 20
24.199999999931318
 30
0.0
 42
-0.5773502691894928
  0
VERTEX
  5
22DF
  8
SAPA_PROFIL
 10
50.645281049827091
 20
24.499999999931049
 30
0.0
  0
VERTEX
  5
22E0
  8
SAPA_PROFIL
 10
52.030921695880927
 20
24.499999999931049
 30
0.0
 42
-0.2679491924314051
  0
VERTEX
  5
22E1
  8
SAPA_PROFIL
 10
52.896947099665688
 20
23.999999999930601
 30
0.0
  0
VERTEX
  5
22E2
  8
SAPA_PROFIL
 10
53.907310070744543
 20
22.249999999932331
 30
0.0
 42
0.2679491924313525
  0
VERTEX
  5
22E3
  8
SAPA_PROFIL
 10
54.340322772636981
 20
21.999999999931958
 30
0.0
  0
VERTEX
  5
22E4
  8
SAPA_PROFIL
 10
80.661018902859368
 20
21.999999999931958
 30
0.0
 42
0.2679491924313525
  0
VERTEX
  5
22E5
  8
SAPA_PROFIL
 10
81.094031604751805
 20
22.249999999932331
 30
0.0
  0
VERTEX
  5
22E6
  8
SAPA_PROFIL
 10
82.104394575830696
 20
23.999999999930608
 30
0.0
 42
-0.2679491924314051
  0
VERTEX
  5
22E7
  8
SAPA_PROFIL
 10
82.970419979615443
 20
24.499999999931081
 30
0.0
  0
VERTEX
  5
22E8
  8
SAPA_PROFIL
 10
84.356060625669286
 20
24.49999999993107
 30
0.0
 42
-0.577350269189493
  0
VERTEX
  5
22E9
  8
SAPA_PROFIL
 10
84.529265706426102
 20
24.19999999993134
 30
0.0
  0
VERTEX
  5
22EA
  8
SAPA_PROFIL
 10
83.600670837744303
 20
22.591626507724602
 30
0.0
  0
VERTEX
  5
22EB
  8
SAPA_PROFIL
 10
83.600670837747046
 20
22.299999999928971
 30
0.0
 42
0.414213562365048
  0
VERTEX
  5
22EC
  8
SAPA_PROFIL
 10
83.900670837741529
 20
21.999999999931521
 30
0.0
  0
VERTEX
  5
22ED
  8
SAPA_PROFIL
 10
87.753457242248544
 20
21.999999999861942
 30
0.0
 42
-0.2134217652834387
  0
VERTEX
  5
22EE
  8
SAPA_PROFIL
 10
87.977064039998666
 20
21.899999999861809
 30
0.0
 42
0.7625858545243238
  0
VERTEX
  5
22EF
  8
SAPA_PROFIL
 10
88.3073901210157
 20
22.084579202059292
 30
0.0
  0
VERTEX
  5
22F0
  8
SAPA_PROFIL
 10
88.249316484026579
 20
22.275962202053009
 30
0.0
  0
VERTEX
  5
22F1
  8
SAPA_PROFIL
 10
87.164752037054825
 20
24.161805893914071
 30
0.0
  0
VERTEX
  5
22F2
  8
SAPA_PROFIL
 10
86.842994308836595
 20
24.151244527687101
 30
0.0
 42
-0.5773502691897471
  0
VERTEX
  5
22F3
  8
SAPA_PROFIL
 10
86.660040568726416
 20
24.44540082794191
 30
0.0
  0
VERTEX
  5
22F4
  8
SAPA_PROFIL
 10
86.812174479835178
 20
24.73008311117356
 30
0.0
 42
-0.2216946626430199
  0
VERTEX
  5
22F5
  8
SAPA_PROFIL
 10
87.353054311311965
 20
25.135892016328359
 30
0.0
  0
SEQEND
  5
22F6
  8
SAPA_PROFIL
  0
POLYLINE
  5
16F2
  8
SAPA_PROFIL
 66
     1
 10
0.0
 20
0.0
 30
0.0
 70
     1
  0
VERTEX
  5
22F7
  8
SAPA_PROFIL
 10
83.300670837748228
 20
19.999999999931941
 30
0.0
 42
0.4142135623730951
  0
VERTEX
  5
22F8
  8
SAPA_PROFIL
 10
83.000670837748217
 20
20.299999999931948
 30
0.0
  0
VERTEX
  5
22F9
  8
SAPA_PROFIL
 10
81.500670837723433
 20
20.299999999931948
 30
0.0
 42
0.4142135623398939
  0
VERTEX
  5
22FA
  8
SAPA_PROFIL
 10
81.200670837722953
 20
19.999999999965961
 30
0.0
 42
-0.4142135623398802
  0
VERTEX
  5
22FB
  8
SAPA_PROFIL
 10
80.900670837722956
 20
19.699999999999939
 30
0.0
  0
VERTEX
  5
22FC
  8
SAPA_PROFIL
 10
79.500670837722922
 20
19.699999999999381
 30
0.0
 42
-0.4142135623398524
  0
VERTEX
  5
22FD
  8
SAPA_PROFIL
 10
79.20067083772291
 20
20.000000005734961
 30
0.0
  0
VERTEX
  5
22FE
  8
SAPA_PROFIL
 10
79.200670837722342
 20
19.999999999965951
 30
0.0
 42
0.4142135623398941
  0
VERTEX
  5
22FF
  8
SAPA_PROFIL
 10
78.900670837722842
 20
20.299999999931948
 30
0.0
  0
VERTEX
  5
2300
  8
SAPA_PROFIL
 10
56.100670837777798
 20
20.299999999931948
 30
0.0
 42
0.4142135623398939
  0
VERTEX
  5
2301
  8
SAPA_PROFIL
 10
55.800670837777673
 20
19.999999999965961
 30
0.0
 42
-0.4142135623398317
  0
VERTEX
  5
2302
  8
SAPA_PROFIL
 10
55.500670837777719
 20
19.699999999999939
 30
0.0
  0
VERTEX
  5
2303
  8
SAPA_PROFIL
 10
54.10067083777772
 20
19.699999999999751
 30
0.0
 42
-0.4142135623398802
  0
VERTEX
  5
2304
  8
SAPA_PROFIL
 10
53.800670837777702
 20
20.000000005734961
 30
0.0
  0
VERTEX
  5
2305
  8
SAPA_PROFIL
 10
53.800670837777467
 20
19.999999999965951
 30
0.0
 42
0.4142135623398941
  0
VERTEX
  5
2306
  8
SAPA_PROFIL
 10
53.500670837777228
 20
20.299999999931948
 30
0.0
  0
VERTEX
  5
2307
  8
SAPA_PROFIL
 10
52.000670837748217
 20
20.299999999931948
 30
0.0
 42
0.4142135623731159
  0
VERTEX
  5
2308
  8
SAPA_PROFIL
 10
51.70067083774817
 20
19.999999999931941
 30
0.0
  0
VERTEX
  5
2309
  8
SAPA_PROFIL
 10
51.70067083774817
 20
1.999999993324989
 30
0.0
 42
0.4142264962912997
  0
VERTEX
  5
230A
  8
SAPA_PROFIL
 10
52.000684085435282
 20
1.699999993617479
 30
0.0
  0
VERTEX
  5
230B
  8
SAPA_PROFIL
 10
53.500670837776468
 20
1.699999993617479
 30
0.0
 42
0.4142135654887987
  0
VERTEX
  5
230C
  8
SAPA_PROFIL
 10
53.800670837776451
 20
1.9999999968087661
 30
0.0
 42
-0.4142135654887846
  0
VERTEX
  5
230D
  8
SAPA_PROFIL
 10
54.10067083777772
 20
2.2999999999999519
 30
0.0
  0
VERTEX
  5
230E
  8
SAPA_PROFIL
 10
55.500670837777719
 20
2.2999999999999381
 30
0.0
 42
-0.4142135623731367
  0
VERTEX
  5
230F
  8
SAPA_PROFIL
 10
55.80067083777773
 20
2.000000000000012
 30
0.0
 42
0.4142135623731372
  0
VERTEX
  5
2310
  8
SAPA_PROFIL
 10
56.10067083777782
 20
1.6999999999998729
 30
0.0
  0
VERTEX
  5
2311
  8
SAPA_PROFIL
 10
78.900670837722842
 20
1.699999999999986
 30
0.0
 42
0.4142135623731367
  0
VERTEX
  5
2312
  8
SAPA_PROFIL
 10
79.200670837722853
 20
2.0000000000000262
 30
0.0
 42
-0.4142135623731372
  0
VERTEX
  5
2313
  8
SAPA_PROFIL
 10
79.500670837722922
 20
2.2999999999999519
 30
0.0
  0
VERTEX
  5
2314
  8
SAPA_PROFIL
 10
80.900670837722956
 20
2.2999999999999381
 30
0.0
 42
-0.4142135654887848
  0
VERTEX
  5
2315
  8
SAPA_PROFIL
 10
81.200670837723365
 20
1.9999999968087661
 30
0.0
 42
0.41427398757146
  0
VERTEX
  5
2316
  8
SAPA_PROFIL
 10
81.500732724569687
 20
1.699999999999986
 30
0.0
  0
VERTEX
  5
2317
  8
SAPA_PROFIL
 10
83.000670837748217
 20
1.699999999999986
 30
0.0
 42
0.4142135623730812
  0
VERTEX
  5
2318
  8
SAPA_PROFIL
 10
83.300670837748171
 20
1.9999999999999689
 30
0.0
  0
SEQEND
  5
2319
  8
SAPA_PROFIL
  0
POLYLINE
  5
16F3
  8
SAPA_PROFIL
 66
     1
 10
0.0
 20
0.0
 30
0.0
 70
     1
  0
VERTEX
  5
231A
  8
SAPA_PROFIL
 10
90.000670837748217
 20
85.699999999999974
 30
0.0
 42
0.4142879064819451
  0
VERTEX
  5
231B
  8
SAPA_PROFIL
 10
89.700594691751164
 20
85.999999990336534
 30
0.0
  0
VERTEX
  5
231C
  8
SAPA_PROFIL
 10
45.300746969330319
 20
85.999999990339973
 30
0.0
 42
0.4142878924076678
  0
VERTEX
  5
231D
  8
SAPA_PROFIL
 10
45.000670837748302
 20
85.700000000000003
 30
0.0
  0
VERTEX
  5
231E
  8
SAPA_PROFIL
 10
45.000670837748309
 20
83.111383566640583
 30
0.0
 42
0.2596812337300058
  0
VERTEX
  5
231F
  8
SAPA_PROFIL
 10
45.095364032996443
 20
82.941352755100581
 30
0.0
  0
VERTEX
  5
2320
  8
SAPA_PROFIL
 10
46.542710630620498
 20
82.044953777858296
 30
0.0
 42
0.5877032589249577
  0
VERTEX
  5
2321
  8
SAPA_PROFIL
 10
47.000670837748231
 20
82.299999995168406
 30
0.0
  0
VERTEX
  5
2322
  8
SAPA_PROFIL
 10
47.00067083774821
 20
83.699999995168398
 30
0.0
 42
-0.414213562373088
  0
VERTEX
  5
2323
  8
SAPA_PROFIL
 10
47.300670837748193
 20
83.999999995168395
 30
0.0
  0
VERTEX
  5
2324
  8
SAPA_PROFIL
 10
49.700670837748213
 20
83.999999995168395
 30
0.0
 42
-0.4142135623730882
  0
VERTEX
  5
2325
  8
SAPA_PROFIL
 10
50.000670837748217
 20
83.699999995168398
 30
0.0
  0
VERTEX
  5
2326
  8
SAPA_PROFIL
 10
50.00067083774821
 20
66.299999995168392
 30
0.0
 42
-0.4142135623730951
  0
VERTEX
  5
2327
  8
SAPA_PROFIL
 10
49.700670837748198
 20
65.99999999516838
 30
0.0
  0
VERTEX
  5
2328
  8
SAPA_PROFIL
 10
47.300670837748193
 20
65.999999995168295
 30
0.0
 42
-0.4142135623729892
  0
VERTEX
  5
2329
  8
SAPA_PROFIL
 10
47.00067083774821
 20
66.299999995168392
 30
0.0
  0
VERTEX
  5
232A
  8
SAPA_PROFIL
 10
47.00067083774821
 20
67.699999995168383
 30
0.0
 42
0.5920056181179401
  0
VERTEX
  5
232B
  8
SAPA_PROFIL
 10
46.539467335221559
 20
67.953008751485314
 30
0.0
  0
VERTEX
  5
232C
  8
SAPA_PROFIL
 10
45.293201836063822
 20
67.158955745308873
 30
0.0
 42
0.2562769736732679
  0
VERTEX
  5
232D
  8
SAPA_PROFIL
 10
45.200670837748348
 20
66.990283241097515
 30
0.0
  0
VERTEX
  5
232E
  8
SAPA_PROFIL
 10
45.200670837748341
 20
63.99401632665036
 30
0.0
  0
VERTEX
  5
232F
  8
SAPA_PROFIL
 10
45.709817237059291
 20
62.676718650415133
 30
0.0
 42
-0.4142135623730951
  0
VERTEX
  5
2330
  8
SAPA_PROFIL
 10
45.509853192551887
 20
62.302533694939306
 30
0.0
  0
VERTEX
  5
2331
  8
SAPA_PROFIL
 10
45.4620074425534
 20
62.288015285692211
 30
0.0
  0
VERTEX
  5
2332
  8
SAPA_PROFIL
 10
45.461923834669747
 20
60.784914204930203
 30
0.0
 42
0.476975532698163
  0
VERTEX
  5
2333
  8
SAPA_PROFIL
 10
45.833580709615639
 20
60.482661380423728
 30
0.0
  0
VERTEX
  5
2334
  8
SAPA_PROFIL
 10
47.646811180273879
 20
60.864107976551452
 30
0.0
 42
0.221694662643018
  0
VERTEX
  5
2335
  8
SAPA_PROFIL
 10
48.187691011750672
 20
61.26991688170623
 30
0.0
  0
VERTEX
  5
2336
  8
SAPA_PROFIL
 10
48.339824922859428
 20
61.554599164937883
 30
0.0
 42
0.5773502691897493
  0
VERTEX
  5
2337
  8
SAPA_PROFIL
 10
48.156871182749263
 20
61.848755465192717
 30
0.0
  0
VERTEX
  5
2338
  8
SAPA_PROFIL
 10
47.835113454530998
 20
61.838194098965751
 30
0.0
  0
VERTEX
  5
2339
  8
SAPA_PROFIL
 10
46.750549007559272
 20
63.724037790826799
 30
0.0
  0
VERTEX
  5
233A
  8
SAPA_PROFIL
 10
46.692475370570172
 20
63.915420790820519
 30
0.0
 42
-0.7625858545243216
  0
VERTEX
  5
233B
  8
SAPA_PROFIL
 10
47.022801451587192
 20
64.099999993017988
 30
0.0
 42
0.2134217652834399
  0
VERTEX
  5
233C
  8
SAPA_PROFIL
 10
47.2464082493373
 20
63.999999993017873
 30
0.0
  0
VERTEX
  5
233D
  8
SAPA_PROFIL
 10
51.099194653837323
 20
63.999999993017802
 30
0.0
 42
-0.4142135623730898
  0
VERTEX
  5
233E
  8
SAPA_PROFIL
 10
51.39919465383732
 20
63.699999993017791
 30
0.0
  0
VERTEX
  5
233F
  8
SAPA_PROFIL
 10
51.39919465383732
 20
63.399999993017687
 30
0.0
  0
VERTEX
  5
2340
  8
SAPA_PROFIL
 10
50.47543422313403
 20
61.799999993017771
 30
0.0
 42
0.5773502691898973
  0
VERTEX
  5
2341
  8
SAPA_PROFIL
 10
50.648639303890903
 20
61.499999993017802
 30
0.0
  0
VERTEX
  5
2342
  8
SAPA_PROFIL
 10
52.034279949945933
 20
61.499999993017802
 30
0.0
 42
0.2679491924311269
  0
VERTEX
  5
2343
  8
SAPA_PROFIL
 10
52.900305353730403
 20
61.999999993017802
 30
0.0
  0
VERTEX
  5
2344
  8
SAPA_PROFIL
 10
53.910668323303632
 20
63.749999990404874
 30
0.0
 42
-0.2679491924311212
  0
VERTEX
  5
2345
  8
SAPA_PROFIL
 10
54.343681025195842
 20
63.999999990404874
 30
0.0
  0
VERTEX
  5
2346
  8
SAPA_PROFIL
 10
80.6576606503005
 20
63.999999990404859
 30
0.0
 42
-0.2679491924311136
  0
VERTEX
  5
2347
  8
SAPA_PROFIL
 10
81.090673352192695
 20
63.749999990404881
 30
0.0
  0
VERTEX
  5
2348
  8
SAPA_PROFIL
 10
82.101036321766088
 20
61.999999993017802
 30
0.0
 42
0.2679491924311166
  0
VERTEX
  5
2349
  8
SAPA_PROFIL
 10
82.967061725550508
 20
61.499999993017802
 30
0.0
  0
VERTEX
  5
234A
  8
SAPA_PROFIL
 10
84.352702371605602
 20
61.499999993017802
 30
0.0
 42
0.577350269189614
  0
VERTEX
  5
234B
  8
SAPA_PROFIL
 10
84.525907452362503
 20
61.799999993017771
 30
0.0
  0
VERTEX
  5
234C
  8
SAPA_PROFIL
 10
83.602147021659107
 20
63.39999999301768
 30
0.0
  0
VERTEX
  5
234D
  8
SAPA_PROFIL
 10
83.602147021659164
 20
63.699999993017776
 30
0.0
 42
-0.4142135623730083
  0
VERTEX
  5
234E
  8
SAPA_PROFIL
 10
83.90214702165909
 20
63.999999993017802
 30
0.0
  0
VERTEX
  5
234F
  8
SAPA_PROFIL
 10
87.754933426159113
 20
63.999999993017802
 30
0.0
 42
0.2134217652834394
  0
VERTEX
  5
2350
  8
SAPA_PROFIL
 10
87.978540223909221
 20
64.099999993017931
 30
0.0
 42
-0.7625858545243364
  0
VERTEX
  5
2351
  8
SAPA_PROFIL
 10
88.308866304926227
 20
63.915420790820448
 30
0.0
  0
VERTEX
  5
2352
  8
SAPA_PROFIL
 10
88.250792667937134
 20
63.724037790826728
 30
0.0
  0
VERTEX
  5
2353
  8
SAPA_PROFIL
 10
87.166228220965394
 20
61.838194098965673
 30
0.0
  0
VERTEX
  5
2354
  8
SAPA_PROFIL
 10
86.844470492747135
 20
61.848755465192653
 30
0.0
 42
0.5773502691897365
  0
VERTEX
  5
2355
  8
SAPA_PROFIL
 10
86.661516752636956
 20
61.554599164937827
 30
0.0
  0
VERTEX
  5
2356
  8
SAPA_PROFIL
 10
86.813650663745719
 20
61.269916881706187
 30
0.0
 42
0.2216946626430184
  0
VERTEX
  5
2357
  8
SAPA_PROFIL
 10
87.354530495222519
 20
60.864107976551388
 30
0.0
  0
VERTEX
  5
2358
  8
SAPA_PROFIL
 10
89.167760965880774
 20
60.482661380423671
 30
0.0
 42
0.4769755326981641
  0
VERTEX
  5
2359
  8
SAPA_PROFIL
 10
89.539417840826644
 20
60.784914204930139
 30
0.0
  0
VERTEX
  5
235A
  8
SAPA_PROFIL
 10
89.539334232943006
 20
62.288015285692133
 30
0.0
  0
VERTEX
  5
235B
  8
SAPA_PROFIL
 10
89.491488482944504
 20
62.302533694939243
 30
0.0
 42
-0.4142135623730951
  0
VERTEX
  5
235C
  8
SAPA_PROFIL
 10
89.291524438437094
 20
62.676718650415047
 30
0.0
  0
VERTEX
  5
235D
  8
SAPA_PROFIL
 10
89.800670837748214
 20
63.994016326650623
 30
0.0
  0
VERTEX
  5
235E
  8
SAPA_PROFIL
 10
89.800670837748214
 20
66.990283240763404
 30
0.0
 42
0.2562769743570819
  0
VERTEX
  5
235F
  8
SAPA_PROFIL
 10
89.708139838999813
 20
67.158955745250609
 30
0.0
  0
VERTEX
  5
2360
  8
SAPA_PROFIL
 10
88.461874339625695
 20
67.953008747067571
 30
0.0
 42
0.5920056172513317
  0
VERTEX
  5
2361
  8
SAPA_PROFIL
 10
88.000670837748316
 20
67.699999990336764
 30
0.0
  0
VERTEX
  5
2362
  8
SAPA_PROFIL
 10
88.000670837748203
 20
66.299999990336772
 30
0.0
 42
-0.4142135623730916
  0
VERTEX
  5
2363
  8
SAPA_PROFIL
 10
87.700670837748191
 20
65.999999990336775
 30
0.0
  0
VERTEX
  5
2364
  8
SAPA_PROFIL
 10
85.300670837748214
 20
65.99999999033686
 30
0.0
 42
-0.4142135623730118
  0
VERTEX
  5
2365
  8
SAPA_PROFIL
 10
85.000670837748217
 20
66.299999990336772
 30
0.0
  0
VERTEX
  5
2366
  8
SAPA_PROFIL
 10
85.000670837748316
 20
83.699999990336778
 30
0.0
 42
-0.4142135623730948
  0
VERTEX
  5
2367
  8
SAPA_PROFIL
 10
85.300670837748214
 20
83.999999990336875
 30
0.0
  0
VERTEX
  5
2368
  8
SAPA_PROFIL
 10
87.700670837748206
 20
83.99999999033669
 30
0.0
 42
-0.4142135623732061
  0
VERTEX
  5
2369
  8
SAPA_PROFIL
 10
88.000670837748217
 20
83.699999990336778
 30
0.0
  0
VERTEX
  5
236A
  8
SAPA_PROFIL
 10
88.000670837748316
 20
82.299999990336786
 30
0.0
 42
0.5877032589248845
  0
VERTEX
  5
236B
  8
SAPA_PROFIL
 10
88.458631044875915
 20
82.044953773026677
 30
0.0
  0
VERTEX
  5
236C
  8
SAPA_PROFIL
 10
89.905977642500105
 20
82.941352750268877
 30
0.0
 42
0.2596812337301443
  0
VERTEX
  5
236D
  8
SAPA_PROFIL
 10
90.000670837748217
 20
83.111383561808964
 30
0.0
  0
SEQEND
  5
236E
  8
SAPA_PROFIL
  0
POLYLINE
  5
16F4
  8
SAPA_PROFIL
 66
     1
 10
0.0
 20
0.0
 30
0.0
 70
     1
  0
VERTEX
  5
236F
  8
SAPA_PROFIL
 10
81.000670837748217
 20
83.699999999999875
 30
0.0
  0
VERTEX
  5
2370
  8
SAPA_PROFIL
 10
79.600670837748211
 20
83.699999999999875
 30
0.0
 42
-0.4142135623731021
  0
VERTEX
  5
2371
  8
SAPA_PROFIL
 10
79.300670837748214
 20
83.999999999999872
 30
0.0
  0
VERTEX
  5
2372
  8
SAPA_PROFIL
 10
79.300670837748214
 20
84.099999999999866
 30
0.0
 42
0.4142135623730847
  0
VERTEX
  5
2373
  8
SAPA_PROFIL
 10
79.100670837748211
 20
84.299999999999898
 30
0.0
  0
VERTEX
  5
2374
  8
SAPA_PROFIL
 10
55.900670837748301
 20
84.299999999999898
 30
0.0
 42
0.41421356237309
  0
VERTEX
  5
2375
  8
SAPA_PROFIL
 10
55.700670837748291
 20
84.099999999999866
 30
0.0
  0
VERTEX
  5
2376
  8
SAPA_PROFIL
 10
55.700670837748177
 20
83.999999999999886
 30
0.0
 42
-0.4142135623731055
  0
VERTEX
  5
2377
  8
SAPA_PROFIL
 10
55.400670837748187
 20
83.699999999999875
 30
0.0
  0
VERTEX
  5
2378
  8
SAPA_PROFIL
 10
54.000670837748324
 20
83.699999999999875
 30
0.0
 42
-0.4142135623731991
  0
VERTEX
  5
2379
  8
SAPA_PROFIL
 10
53.70067083774817
 20
83.999999999999886
 30
0.0
  0
VERTEX
  5
237A
  8
SAPA_PROFIL
 10
53.70067083774817
 20
84.099999999999866
 30
0.0
 42
0.4142135623730898
  0
VERTEX
  5
237B
  8
SAPA_PROFIL
 10
53.500670837748281
 20
84.299999999999784
 30
0.0
  0
VERTEX
  5
237C
  8
SAPA_PROFIL
 10
52.000670837748331
 20
84.299999999999969
 30
0.0
 42
0.4142135623731019
  0
VERTEX
  5
237D
  8
SAPA_PROFIL
 10
51.700670837748312
 20
84.0
 30
0.0
  0
VERTEX
  5
237E
  8
SAPA_PROFIL
 10
51.700670837748312
 20
65.999999996233186
 30
0.0
 42
0.4142135623730951
  0
VERTEX
  5
237F
  8
SAPA_PROFIL
 10
52.000670837748324
 20
65.699999996233188
 30
0.0
  0
VERTEX
  5
2380
  8
SAPA_PROFIL
 10
53.500670837748203
 20
65.699999996233188
 30
0.0
 42
0.4142135623730795
  0
VERTEX
  5
2381
  8
SAPA_PROFIL
 10
53.70067083774827
 20
65.899999996233092
 30
0.0
  0
VERTEX
  5
2382
  8
SAPA_PROFIL
 10
53.70067083774817
 20
65.999999995279524
 30
0.0
 42
-0.4142135624945151
  0
VERTEX
  5
2383
  8
SAPA_PROFIL
 10
54.000670837872569
 20
66.299999995279521
 30
0.0
  0
VERTEX
  5
2384
  8
SAPA_PROFIL
 10
55.400670837872561
 20
66.299999994699135
 30
0.0
 42
-0.414213562251668
  0
VERTEX
  5
2385
  8
SAPA_PROFIL
 10
55.700670837748177
 20
65.999999994699138
 30
0.0
  0
VERTEX
  5
2386
  8
SAPA_PROFIL
 10
55.700670837748177
 20
65.899999996071173
 30
0.0
 42
0.4142135621360074
  0
VERTEX
  5
2387
  8
SAPA_PROFIL
 10
55.900670837586418
 20
65.699999996071043
 30
0.0
  0
VERTEX
  5
2388
  8
SAPA_PROFIL
 10
79.100670837586307
 20
65.699999989595682
 30
0.0
 42
0.4142135626101672
  0
VERTEX
  5
2389
  8
SAPA_PROFIL
 10
79.300670837748214
 20
65.899999989595671
 30
0.0
  0
VERTEX
  5
238A
  8
SAPA_PROFIL
 10
79.3006708377482
 20
65.999999990967794
 30
0.0
 42
-0.4142135624945428
  0
VERTEX
  5
238B
  8
SAPA_PROFIL
 10
79.600670837872599
 20
66.299999990967805
 30
0.0
  0
VERTEX
  5
238C
  8
SAPA_PROFIL
 10
81.000670837872605
 20
66.299999990387334
 30
0.0
 42
-0.4142135622516402
  0
VERTEX
  5
238D
  8
SAPA_PROFIL
 10
81.300670837748214
 20
65.999999990387323
 30
0.0
  0
VERTEX
  5
238E
  8
SAPA_PROFIL
 10
81.300670837748214
 20
65.899999990184682
 30
0.0
 42
0.414213562258404
  0
VERTEX
  5
238F
  8
SAPA_PROFIL
 10
81.500670837669887
 20
65.699999990184665
 30
0.0
  0
VERTEX
  5
2390
  8
SAPA_PROFIL
 10
83.000670837623403
 20
65.699999989560666
 30
0.0
 42
0.4142135624949383
  0
VERTEX
  5
2391
  8
SAPA_PROFIL
 10
83.300670837748214
 20
65.999999989560663
 30
0.0
  0
VERTEX
  5
2392
  8
SAPA_PROFIL
 10
83.300670837748214
 20
83.999999999999886
 30
0.0
 42
0.4142135623730882
  0
VERTEX
  5
2393
  8
SAPA_PROFIL
 10
83.000670837748231
 20
84.299999999999883
 30
0.0
  0
VERTEX
  5
2394
  8
SAPA_PROFIL
 10
81.500670837748189
 20
84.299999999999969
 30
0.0
 42
0.4142135623730847
  0
VERTEX
  5
2395
  8
SAPA_PROFIL
 10
81.300670837748214
 20
84.09999999999998
 30
0.0
  0
VERTEX
  5
2396
  8
SAPA_PROFIL
 10
81.300670837748214
 20
83.999999999999872
 30
0.0
 42
-0.4142135623730881
  0
SEQEND
  5
2397
  8
SAPA_PROFIL
  0
POLYLINE
  5
16F5
  8
SAPA_PROFIL
 62
     4
 66
     1
 10
0.0
 20
0.0
 30
0.0
  0
VERTEX
  5
2398
  8
SAPA_PROFIL
 62
     4
 10
87.096575559797145
 20
52.049329115372217
 30
0.0
 42
0.5571646428658034
  0
VERTEX
  5
2399
  8
SAPA_PROFIL
 62
     4
 10
86.228856645641599
 20
51.512368611235388
 30
0.0
  0
VERTEX
  5
239A
  8
SAPA_PROFIL
 62
     4
 10
86.228856645642054
 20
34.487631374714191
 30
0.0
 42
0.5571645048035741
  0
VERTEX
  5
239B
  8
SAPA_PROFIL
 62
     4
 10
87.096575333508227
 20
33.95067075775313
 30
0.0
  0
VERTEX
  5
239C
  8
SAPA_PROFIL
 62
     4
 10
88.76271598957625
 20
34.781377845299829
 30
0.0
 42
0.284385813979063
  0
VERTEX
  5
239D
  8
SAPA_PROFIL
 62
     4
 10
88.928856645643691
 20
35.049858153780178
 30
0.0
  0
VERTEX
  5
239E
  8
SAPA_PROFIL
 62
     4
 10
88.928856645643691
 20
50.950141832169493
 30
0.0
 42
0.2843858139786238
  0
VERTEX
  5
239F
  8
SAPA_PROFIL
 62
     4
 10
88.762715989576776
 20
51.218622140649778
 30
0.0
  0
VERTEX
  5
23A0
  8
SAPA_PROFIL
 62
     4
 10
87.096575333507417
 20
52.049329228196932
 30
0.0
  0
SEQEND
  5
23A1
  8
SAPA_PROFIL
 62
     4
  0
POLYLINE
  5
16F6
  8
SAPA_PROFIL
 62
     4
 66
     1
 10
0.0
 20
0.0
 30
0.0
 70
     1
  0
VERTEX
  5
23A2
  8
SAPA_PROFIL
 62
     4
 10
89.285688160141248
 20
28.582388808307542
 30
0.0
  0
VERTEX
  5
23A3
  8
SAPA_PROFIL
 62
     4
 10
89.692248356145384
 20
28.31836552993153
 30
0.0
 42
-0.2539676464751066
  0
VERTEX
  5
23A4
  8
SAPA_PROFIL
 62
     4
 10
89.828856645641494
 20
28.066764359546831
 30
0.0
  0
VERTEX
  5
23A5
  8
SAPA_PROFIL
 62
     4
 10
89.828856645641494
 20
26.68526477434148
 30
0.0
 42
-0.3152987888790479
  0
VERTEX
  5
23A6
  8
SAPA_PROFIL
 62
     4
 10
89.499866717303334
 20
26.21541846394916
 30
0.0
  0
VERTEX
  5
23A7
  8
SAPA_PROFIL
 62
     4
 10
87.039036526852072
 20
25.31974952304056
 30
0.0
 42
0.2694959974287434
  0
VERTEX
  5
23A8
  8
SAPA_PROFIL
 62
     4
 10
86.845904552508173
 20
25.0882304766392
 30
0.0
 42
0.0612686379508233
  0
VERTEX
  5
23A9
  8
SAPA_PROFIL
 62
     4
 10
86.832321181877646
 20
24.795555043785932
 30
0.0
  0
VERTEX
  5
23AA
  8
SAPA_PROFIL
 62
     4
 10
86.630584503148825
 20
24.446136866477659
 30
0.0
 42
0.5773502691891679
  0
VERTEX
  5
23AB
  8
SAPA_PROFIL
 62
     4
 10
86.812449837943404
 20
24.13113686647808
 30
0.0
  0
VERTEX
  5
23AC
  8
SAPA_PROFIL
 62
     4
 10
87.079564366069718
 20
24.131136866477831
 30
0.0
  0
VERTEX
  5
23AD
  8
SAPA_PROFIL
 62
     4
 10
87.888247827378024
 20
22.732609165843581
 30
0.0
 42
-0.1318219888653519
  0
VERTEX
  5
23AE
  8
SAPA_PROFIL
 62
     4
 10
87.928540223915434
 20
22.58243606337123
 30
0.0
  0
VERTEX
  5
23AF
  8
SAPA_PROFIL
 62
     4
 10
87.928540223909067
 20
22.39999999293445
 30
0.0
 42
-0.4142135623724291
  0
VERTEX
  5
23B0
  8
SAPA_PROFIL
 62
     4
 10
87.528540223909431
 20
21.999999992933908
 30
0.0
  0
VERTEX
  5
23B1
  8
SAPA_PROFIL
 62
     4
 10
84.128540223908445
 20
21.999999992935269
 30
0.0
 42
-0.4142135623744271
  0
VERTEX
  5
23B2
  8
SAPA_PROFIL
 62
     4
 10
83.72854022390743
 20
22.39999999293445
 30
0.0
  0
VERTEX
  5
23B3
  8
SAPA_PROFIL
 62
     4
 10
83.728540223906791
 20
22.579615235205761
 30
0.0
 42
-0.1316524975874005
  0
VERTEX
  5
23B4
  8
SAPA_PROFIL
 62
     4
 10
83.768732602772388
 20
22.729615235202569
 30
0.0
  0
VERTEX
  5
23B5
  8
SAPA_PROFIL
 62
     4
 10
84.694882049424905
 20
24.33375313220483
 30
0.0
 42
0.1316524975875904
  0
VERTEX
  5
23B6
  8
SAPA_PROFIL
 62
     4
 10
84.828856645639689
 20
24.833753132206539
 30
0.0
  0
VERTEX
  5
23B7
  8
SAPA_PROFIL
 62
     4
 10
84.828856645639689
 20
25.249999992933908
 30
0.0
 42
0.4142135623730951
  0
VERTEX
  5
23B8
  8
SAPA_PROFIL
 62
     4
 10
83.828856645639689
 20
26.249999992933908
 30
0.0
  0
VERTEX
  5
23B9
  8
SAPA_PROFIL
 62
     4
 10
80.828856645642418
 20
26.249999992933908
 30
0.0
 42
-0.9999996830128083
  0
VERTEX
  5
23BA
  8
SAPA_PROFIL
 62
     4
 10
80.828856645640585
 20
27.249999992933908
 30
0.0
  0
VERTEX
  5
23BB
  8
SAPA_PROFIL
 62
     4
 10
83.828856645640599
 20
27.249999992933908
 30
0.0
 42
0.4142135623730951
  0
VERTEX
  5
23BC
  8
SAPA_PROFIL
 62
     4
 10
84.828856645640599
 20
28.249999992933908
 30
0.0
  0
VERTEX
  5
23BD
  8
SAPA_PROFIL
 62
     4
 10
84.828856645640599
 20
57.749999993018491
 30
0.0
 42
0.4142135623730951
  0
VERTEX
  5
23BE
  8
SAPA_PROFIL
 62
     4
 10
83.828856645640599
 20
58.749999993018491
 30
0.0
  0
VERTEX
  5
23BF
  8
SAPA_PROFIL
 62
     4
 10
80.828856645642418
 20
58.749999993018491
 30
0.0
 42
-0.9999999999999998
  0
VERTEX
  5
23C0
  8
SAPA_PROFIL
 62
     4
 10
80.828856645642418
 20
59.749999993018491
 30
0.0
  0
VERTEX
  5
23C1
  8
SAPA_PROFIL
 62
     4
 10
83.828856645640599
 20
59.749999993018491
 30
0.0
 42
0.4142135623736278
  0
VERTEX
  5
23C2
  8
SAPA_PROFIL
 62
     4
 10
84.828856645640599
 20
60.749999993018491
 30
0.0
  0
VERTEX
  5
23C3
  8
SAPA_PROFIL
 62
     4
 10
84.828856645640599
 20
61.166246853744951
 30
0.0
 42
0.1316524975874375
  0
VERTEX
  5
23C4
  8
SAPA_PROFIL
 62
     4
 10
84.694882049424564
 20
61.66624685374515
 30
0.0
  0
VERTEX
  5
23C5
  8
SAPA_PROFIL
 62
     4
 10
83.768732602772388
 20
63.270384750747098
 30
0.0
 42
-0.1316524975874
  0
VERTEX
  5
23C6
  8
SAPA_PROFIL
 62
     4
 10
83.728540223906791
 20
63.420384750746642
 30
0.0
  0
VERTEX
  5
23C7
  8
SAPA_PROFIL
 62
     4
 10
83.72854022390743
 20
63.599999993017953
 30
0.0
 42
-0.4142135623744271
  0
VERTEX
  5
23C8
  8
SAPA_PROFIL
 62
     4
 10
84.128540223908445
 20
63.99999999301712
 30
0.0
  0
VERTEX
  5
23C9
  8
SAPA_PROFIL
 62
     4
 10
87.528540223909431
 20
63.999999993018491
 30
0.0
 42
-0.4142135623724291
  0
VERTEX
  5
23CA
  8
SAPA_PROFIL
 62
     4
 10
87.928540223909067
 20
63.599999993017953
 30
0.0
  0
VERTEX
  5
23CB
  8
SAPA_PROFIL
 62
     4
 10
87.928540223915434
 20
63.417563922581159
 30
0.0
 42
-0.1318219888653524
  0
VERTEX
  5
23CC
  8
SAPA_PROFIL
 62
     4
 10
87.888247827378024
 20
63.267390820108822
 30
0.0
  0
VERTEX
  5
23CD
  8
SAPA_PROFIL
 62
     4
 10
87.079564366153704
 20
61.868863119629168
 30
0.0
  0
VERTEX
  5
23CE
  8
SAPA_PROFIL
 62
     4
 10
86.812449837940676
 20
61.868863119629168
 30
0.0
 42
0.577350269189159
  0
VERTEX
  5
23CF
  8
SAPA_PROFIL
 62
     4
 10
86.630584503146096
 20
61.553863119629561
 30
0.0
  0
VERTEX
  5
23D0
  8
SAPA_PROFIL
 62
     4
 10
86.832321181823204
 20
61.204444942410909
 30
0.0
 42
0.0612687673629489
  0
VERTEX
  5
23D1
  8
SAPA_PROFIL
 62
     4
 10
86.845904552509396
 20
60.911769509310687
 30
0.0
 42
0.2694959974285039
  0
VERTEX
  5
23D2
  8
SAPA_PROFIL
 62
     4
 10
87.039036526853366
 20
60.680250462910173
 30
0.0
  0
VERTEX
  5
23D3
  8
SAPA_PROFIL
 62
     4
 10
89.499866717306546
 20
59.784581522000508
 30
0.0
 42
-0.3152987888784035
  0
VERTEX
  5
23D4
  8
SAPA_PROFIL
 62
     4
 10
89.8288566456431
 20
59.314735211607292
 30
0.0
  0
VERTEX
  5
23D5
  8
SAPA_PROFIL
 62
     4
 10
89.828856645641494
 20
57.933235626402848
 30
0.0
 42
-0.2539676464741841
  0
VERTEX
  5
23D6
  8
SAPA_PROFIL
 62
     4
 10
89.692248356146223
 20
57.68163445601877
 30
0.0
  0
VERTEX
  5
23D7
  8
SAPA_PROFIL
 62
     4
 10
89.285688160141248
 20
57.417611177642122
 30
0.0
 42
-0.5862177598324623
  0
VERTEX
  5
23D8
  8
SAPA_PROFIL
 62
     4
 10
88.828856645644734
 20
57.673352992880467
 30
0.0
  0
VERTEX
  5
23D9
  8
SAPA_PROFIL
 62
     4
 10
88.828856645652408
 20
58.614527673390278
 30
0.0
 42
0.3152987888813165
  0
VERTEX
  5
23DA
  8
SAPA_PROFIL
 62
     4
 10
88.499866717315669
 20
59.084373983788041
 30
0.0
  0
VERTEX
  5
23DB
  8
SAPA_PROFIL
 62
     4
 10
87.299866717304425
 20
59.52113826491199
 30
0.0
 42
0.5205670505515651
  0
VERTEX
  5
23DC
  8
SAPA_PROFIL
 62
     4
 10
86.628856645641704
 20
59.051291954518767
 30
0.0
  0
VERTEX
  5
23DD
  8
SAPA_PROFIL
 62
     4
 10
86.628856645641662
 20
54.034851013849917
 30
0.0
 42
0.3702522326300203
  0
VERTEX
  5
23DE
  8
SAPA_PROFIL
 62
     4
 10
86.883316598307374
 20
53.73832765205659
 30
0.0
 42
0.0982365330332397
  0
VERTEX
  5
23DF
  8
SAPA_PROFIL
 62
     4
 10
88.571003373302375
 20
53.647874893845653
 30
0.0
 42
0.3735060174783164
  0
VERTEX
  5
23E0
  8
SAPA_PROFIL
 62
     4
 10
88.828856645642404
 20
53.944899561756642
 30
0.0
  0
VERTEX
  5
23E1
  8
SAPA_PROFIL
 62
     4
 10
88.828856645643313
 20
54.37335299287929
 30
0.0
 42
-0.5920056181162531
  0
VERTEX
  5
23E2
  8
SAPA_PROFIL
 62
     4
 10
89.290060148171236
 20
54.62636174919669
 30
0.0
  0
VERTEX
  5
23E3
  8
SAPA_PROFIL
 62
     4
 10
89.692248356149548
 20
54.365177673040989
 30
0.0
 42
-0.2539676464746725
  0
VERTEX
  5
23E4
  8
SAPA_PROFIL
 62
     4
 10
89.828856645644905
 20
54.113576502657217
 30
0.0
  0
VERTEX
  5
23E5
  8
SAPA_PROFIL
 62
     4
 10
89.828856645643327
 20
31.886423483291541
 30
0.0
 42
-0.2539676464741819
  0
VERTEX
  5
23E6
  8
SAPA_PROFIL
 62
     4
 10
89.692248356149548
 20
31.634822312908678
 30
0.0
  0
VERTEX
  5
23E7
  8
SAPA_PROFIL
 62
     4
 10
89.290060148171207
 20
31.373638236754871
 30
0.0
 42
-0.5920055144124249
  0
VERTEX
  5
23E8
  8
SAPA_PROFIL
 62
     4
 10
88.828856645643313
 20
31.626646993070381
 30
0.0
  0
VERTEX
  5
23E9
  8
SAPA_PROFIL
 62
     4
 10
88.828856670918313
 20
32.0551004703606
 30
0.0
 42
0.3735060174775405
  0
VERTEX
  5
23EA
  8
SAPA_PROFIL
 62
     4
 10
88.571003398578242
 20
32.352125138270289
 30
0.0
 42
0.0355900683670349
  0
VERTEX
  5
23EB
  8
SAPA_PROFIL
 62
     4
 10
87.955129811778463
 20
32.396018702302541
 30
0.0
 42
0.0624282003873116
  0
VERTEX
  5
23EC
  8
SAPA_PROFIL
 62
     4
 10
86.883316623583326
 20
32.261672380059601
 30
0.0
 42
0.3702522326309292
  0
VERTEX
  5
23ED
  8
SAPA_PROFIL
 62
     4
 10
86.6288566709176
 20
31.965149018266231
 30
0.0
  0
VERTEX
  5
23EE
  8
SAPA_PROFIL
 62
     4
 10
86.628856645641463
 20
26.948708031432719
 30
0.0
 42
0.5205670505515692
  0
VERTEX
  5
23EF
  8
SAPA_PROFIL
 62
     4
 10
87.299866717304425
 20
26.47886172103949
 30
0.0
  0
VERTEX
  5
23F0
  8
SAPA_PROFIL
 62
     4
 10
88.499866717313878
 20
26.915626002164451
 30
0.0
 42
0.3152987888807539
  0
VERTEX
  5
23F1
  8
SAPA_PROFIL
 62
     4
 10
88.828856645651513
 20
27.385472312560299
 30
0.0
  0
VERTEX
  5
23F2
  8
SAPA_PROFIL
 62
     4
 10
88.828856645644692
 20
28.326646993069382
 30
0.0
 42
-0.5862175119221242
  0
VERTEX
  5
23F3
  8
SAPA_PROFIL
 62
     4
 10
89.285687971399824
 20
28.58238892405134
 30
0.0
 42
0.0000002084758573
  0
SEQEND
  5
23F4
  8
SAPA_PROFIL
 62
     4
  0
CIRCLE
  5
16F7
  8
SAPA_PROFIL
 62
     2
 10
15.86244638170478
 20
3.990859309476491
 30
0.0
 40
0.8999999999999985
  0
POLYLINE
  5
16F8
  8
SAPA_PROFIL
 62
     2
 66
     1
 10
0.0
 20
0.0
 30
0.0
  0
VERTEX
  5
23F5
  8
SAPA_PROFIL
 62
     2
 10
14.46244638170481
 20
5.2988657210495367
 30
0.0
  0
VERTEX
  5
23F6
  8
SAPA_PROFIL
 62
     2
 10
14.654804801697191
 20
4.2079469108967942
 30
0.0
  0
VERTEX
  5
23F7
  8
SAPA_PROFIL
 62
     2
 10
14.223008241795579
 20
4.0922473713768559
 30
0.0
 42
0.4430158954262519
  0
VERTEX
  5
23F8
  8
SAPA_PROFIL
 62
     2
 10
14.087531194251479
 20
3.8287709432698871
 30
0.0
  0
VERTEX
  5
23F9
  8
SAPA_PROFIL
 62
     2
 10
14.56447938747044
 20
2.5582831953516911
 30
0.0
 42
0.3125358528825162
  0
VERTEX
  5
23FA
  8
SAPA_PROFIL
 62
     2
 10
14.93896110059984
 20
2.2988657210499919
 30
0.0
  0
VERTEX
  5
23FB
  8
SAPA_PROFIL
 62
     2
 10
16.809116416510161
 20
2.2988657210495371
 30
0.0
 42
0.3125358528825104
  0
VERTEX
  5
23FC
  8
SAPA_PROFIL
 62
     2
 10
17.183598129639559
 20
2.5582831953516911
 30
0.0
  0
VERTEX
  5
23FD
  8
SAPA_PROFIL
 62
     2
 10
17.66054632285875
 20
3.8287709432698871
 30
0.0
 42
0.4430158954262519
  0
VERTEX
  5
23FE
  8
SAPA_PROFIL
 62
     2
 10
17.52506927531465
 20
4.0922473713767431
 30
0.0
  0
VERTEX
  5
23FF
  8
SAPA_PROFIL
 62
     2
 10
17.093272715412809
 20
4.2079469108967942
 30
0.0
  0
VERTEX
  5
2400
  8
SAPA_PROFIL
 62
     2
 10
17.285538758555049
 20
5.2988657210495367
 30
0.0
  0
SEQEND
  5
2401
  8
SAPA_PROFIL
 62
     2
  0
POLYLINE
  5
16F9
  8
SAPA_PROFIL
 62
     2
 66
     1
 10
0.0
 20
0.0
 30
0.0
 70
     1
  0
VERTEX
  5
2402
  8
SAPA_PROFIL
 62
     2
 10
14.474038758555141
 20
5.2988657210495367
 30
0.0
 42
-0.285714285714282
  0
VERTEX
  5
2403
  8
SAPA_PROFIL
 62
     2
 10
17.27403875855509
 20
5.2988657210495367
 30
0.0
  0
VERTEX
  5
2404
  8
SAPA_PROFIL
 62
     2
 10
19.347818927942971
 20
5.2988657210499923
 30
0.0
 42
0.3882600129940275
  0
VERTEX
  5
2405
  8
SAPA_PROFIL
 62
     2
 10
19.646620425284372
 20
5.5720764473295503
 30
0.0
  0
VERTEX
  5
2406
  8
SAPA_PROFIL
 62
     2
 10
20.112830349210871
 20
9.4720764473296413
 30
0.0
 42
0.4406523138893894
  0
VERTEX
  5
2407
  8
SAPA_PROFIL
 62
     2
 10
19.814028851869011
 20
9.7988657210495376
 30
0.0
  0
VERTEX
  5
2408
  8
SAPA_PROFIL
 62
     2
 10
18.104236854948681
 20
9.7988657210495376
 30
0.0
 42
0.3394542588634375
  0
VERTEX
  5
2409
  8
SAPA_PROFIL
 62
     2
 10
17.814459107062131
 20
9.5765114345805387
 30
0.0
  0
VERTEX
  5
240A
  8
SAPA_PROFIL
 62
     2
 10
17.612079379130702
 20
9.3589256524129496
 30
0.0
 42
-0.3394542588633663
  0
VERTEX
  5
240B
  8
SAPA_PROFIL
 62
     2
 10
17.322301631243931
 20
9.1365713659439507
 30
0.0
  0
VERTEX
  5
240C
  8
SAPA_PROFIL
 62
     2
 10
14.42577588586607
 20
9.1365713659439507
 30
0.0
 42
-0.3394542588634373
  0
VERTEX
  5
240D
  8
SAPA_PROFIL
 62
     2
 10
14.135998137979531
 20
9.3589256524129496
 30
0.0
  0
VERTEX
  5
240E
  8
SAPA_PROFIL
 62
     2
 10
13.9336184100481
 20
9.5765114345805387
 30
0.0
 42
0.3394542588633662
  0
VERTEX
  5
240F
  8
SAPA_PROFIL
 62
     2
 10
13.64384066216132
 20
9.7988657210495376
 30
0.0
  0
VERTEX
  5
2410
  8
SAPA_PROFIL
 62
     2
 10
11.934048665241219
 20
9.7988657210495376
 30
0.0
 42
0.4406523138893994
  0
VERTEX
  5
2411
  8
SAPA_PROFIL
 62
     2
 10
11.635247167899591
 20
9.4720764473296413
 30
0.0
  0
VERTEX
  5
2412
  8
SAPA_PROFIL
 62
     2
 10
12.101457091825861
 20
5.5720764473295503
 30
0.0
 42
0.3882600129940462
  0
VERTEX
  5
2413
  8
SAPA_PROFIL
 62
     2
 10
12.40025858916726
 20
5.2988657210495367
 30
0.0
  0
VERTEX
  5
2414
  8
SAPA_PROFIL
 62
     2
 10
14.46244638170481
 20
5.2988657210495367
 30
0.0
  0
SEQEND
  5
2415
  8
SAPA_PROFIL
 62
     2
  0
POLYLINE
  5
16FA
  8
SAPA_PROFIL
 66
     1
 10
0.0
 20
0.0
 30
0.0
 70
     1
  0
VERTEX
  5
2416
  8
SAPA_PROFIL
 10
48.588384079859743
 20
80.249999998366604
 30
0.0
 42
-0.2679491924315167
  0
VERTEX
  5
2417
  8
SAPA_PROFIL
 10
48.848191700995407
 20
80.399999998366567
 30
0.0
  0
VERTEX
  5
2418
  8
SAPA_PROFIL
 10
49.200670837747168
 20
80.399999998366127
 30
0.0
 42
0.4142135623730951
  0
VERTEX
  5
2419
  8
SAPA_PROFIL
 10
49.500670837748252
 20
80.699999998367105
 30
0.0
  0
VERTEX
  5
241A
  8
SAPA_PROFIL
 10
49.50067083775167
 20
83.499999995166604
 30
0.0
 42
0.4142135623728859
  0
VERTEX
  5
241B
  8
SAPA_PROFIL
 10
49.000670837752637
 20
83.999999995167215
 30
0.0
  0
VERTEX
  5
241C
  8
SAPA_PROFIL
 10
48.000670837744053
 20
83.999999995169162
 30
0.0
 42
0.4142135623733615
  0
VERTEX
  5
241D
  8
SAPA_PROFIL
 10
47.000670837742121
 20
82.999999995170185
 30
0.0
  0
VERTEX
  5
241E
  8
SAPA_PROFIL
 10
47.000670837740749
 20
81.633974591382284
 30
0.0
 42
-0.1316524975871477
  0
VERTEX
  5
241F
  8
SAPA_PROFIL
 10
46.933683539632959
 20
81.383974591382795
 30
0.0
  0
VERTEX
  5
2420
  8
SAPA_PROFIL
 10
45.367658135841623
 20
78.671539026072651
 30
0.0
 42
0.1316524975872168
  0
VERTEX
  5
2421
  8
SAPA_PROFIL
 10
45.300670837733833
 20
78.421539026072992
 30
0.0
  0
VERTEX
  5
2422
  8
SAPA_PROFIL
 10
45.300670837728198
 20
70.499999995172686
 30
0.0
 42
-0.4142135623729286
  0
VERTEX
  5
2423
  8
SAPA_PROFIL
 10
45.000670837728251
 20
70.199999995172846
 30
0.0
  0
VERTEX
  5
2424
  8
SAPA_PROFIL
 10
41.524112414657047
 20
70.19999999517222
 30
0.0
 42
-0.4244748162096643
  0
VERTEX
  5
2425
  8
SAPA_PROFIL
 10
41.224295166551258
 20
70.510469844182978
 30
0.0
  0
VERTEX
  5
2426
  8
SAPA_PROFIL
 10
41.780279395511108
 20
86.431775045988786
 30
0.0
 42
-0.4142135623730951
  0
VERTEX
  5
2427
  8
SAPA_PROFIL
 10
42.090566492627602
 20
86.721122445083779
 30
0.0
  0
VERTEX
  5
2428
  8
SAPA_PROFIL
 10
42.69020098883896
 20
86.700182747062215
 30
0.0
 42
0.6370702608075453
  0
VERTEX
  5
2429
  8
SAPA_PROFIL
 10
42.937074063931789
 20
87.18469843776569
 30
0.0
  0
VERTEX
  5
242A
  8
SAPA_PROFIL
 10
41.551338656629412
 20
88.958358876776003
 30
0.0
 42
0.7002075382097091
  0
VERTEX
  5
242B
  8
SAPA_PROFIL
 10
40.657637866316513
 20
88.667977887464417
 30
0.0
  0
VERTEX
  5
242C
  8
SAPA_PROFIL
 10
39.929277635764947
 20
67.810469844186514
 30
0.0
 42
0.4244748162048541
  0
VERTEX
  5
242D
  8
SAPA_PROFIL
 10
40.229094883865848
 20
67.499999995175756
 30
0.0
  0
VERTEX
  5
242E
  8
SAPA_PROFIL
 10
40.950670837724033
 20
67.499999995164046
 30
0.0
 42
0.4142135623740385
  0
VERTEX
  5
242F
  8
SAPA_PROFIL
 10
41.250670837725181
 20
67.799999995164342
 30
0.0
  0
VERTEX
  5
2430
  8
SAPA_PROFIL
 10
41.250670837725117
 20
68.699999995161363
 30
0.0
 42
-0.4142135623724291
  0
VERTEX
  5
2431
  8
SAPA_PROFIL
 10
41.55067083772439
 20
68.999999995161318
 30
0.0
  0
VERTEX
  5
2432
  8
SAPA_PROFIL
 10
46.500670837730517
 20
68.999999995172686
 30
0.0
 42
-0.4142135623740522
  0
VERTEX
  5
2433
  8
SAPA_PROFIL
 10
47.000670837731647
 20
68.499999995172175
 30
0.0
  0
VERTEX
  5
2434
  8
SAPA_PROFIL
 10
47.000670837730233
 20
66.999999995171549
 30
0.0
 42
0.4142135623729374
  0
VERTEX
  5
2435
  8
SAPA_PROFIL
 10
47.500670837729487
 20
66.499999995171095
 30
0.0
  0
VERTEX
  5
2436
  8
SAPA_PROFIL
 10
49.000670837729558
 20
66.499999995168935
 30
0.0
 42
0.4142135623731454
  0
VERTEX
  5
2437
  8
SAPA_PROFIL
 10
49.500670837730297
 20
66.999999995168309
 30
0.0
  0
VERTEX
  5
2438
  8
SAPA_PROFIL
 10
49.500670837733367
 20
69.399999998367264
 30
0.0
 42
0.414213562373503
  0
VERTEX
  5
2439
  8
SAPA_PROFIL
 10
49.00067083773331
 20
69.899999998367946
 30
0.0
  0
VERTEX
  5
243A
  8
SAPA_PROFIL
 10
48.500670837727512
 20
69.899999998367889
 30
0.0
 42
-0.414213562373547
  0
VERTEX
  5
243B
  8
SAPA_PROFIL
 10
47.500670837727448
 20
70.899999998369367
 30
0.0
  0
VERTEX
  5
243C
  8
SAPA_PROFIL
 10
47.500670837738141
 20
78.232050802732374
 30
0.0
 42
-0.1316524975870585
  0
VERTEX
  5
243D
  8
SAPA_PROFIL
 10
47.567658135845932
 20
78.482050802731692
 30
0.0
  0
SEQEND
  5
243E
  8
SAPA_PROFIL
  0
LINE
  5
16FB
  8
SAPA_PROFIL
 10
23.250673859829991
 20
11.759220516231119
 30
0.0
 11
-2.9993261401700688
 21
11.759220517509419
 31
0.0
  0
ARC
  5
16FC
  8
SAPA_PROFIL
 10
23.239278363813948
 20
12.420477428462039
 30
0.0
 40
0.6613550947128289
 50
270.9872852633776
 51
350.7431712857549
  0
LINE
  5
16FD
  8
SAPA_PROFIL
 10
23.89202076889714
 20
207.67739378049529
 30
0.0
 11
23.892020764511159
 21
12.31409171685257
 31
0.0
  0
ARC
  5
16FE
  8
SAPA_PROFIL
 10
23.143734551046069
 20
207.58836903515851
 30
0.0
 40
0.7535633145981409
 50
6.7846750554383668
 51
89.676980031182424
  0
LINE
  5
16FF
  8
SAPA_PROFIL
 10
-2.999326135735159
 20
208.34192037530269
 30
0.0
 11
23.147982939164422
 21
208.3419203740244
 31
0.0
  0
LINE
  5
1700
  8
SAPA_PROFIL
 10
-2.9993261356741949
 20
209.45057044641351
 30
0.0
 11
-2.999326135735159
 21
208.34192037530269
 31
0.0
  0
LINE
  5
1701
  8
SAPA_PROFIL
 10
23.801404807862362
 20
209.45057044509861
 30
0.0
 11
-2.9993261356741949
 21
209.45057044641351
 31
0.0
  0
ARC
  5
1702
  8
SAPA_PROFIL
 10
23.766308606455119
 20
208.2129547423464
 30
0.0
 40
1.2381132303033431
 50
4.4592853357505016
 51
88.375646457488827
  0
LINE
  5
1703
  8
SAPA_PROFIL
 10
25.000667811316362
 20
11.79192202653587
 30
0.0
 11
25.000673864276909
 21
208.30921886512701
 31
0.0
  0
ARC
  5
1704
  8
SAPA_PROFIL
 10
23.951358705825719
 20
11.702525463152339
 30
0.0
 40
1.0531103192022879
 50
272.68403398399772
 51
4.8695918149193131
  0
LINE
  5
1705
  8
SAPA_PROFIL
 10
-2.9993261402218532
 20
10.65057044641692
 30
0.0
 11
24.000673859778029
 21
10.650570445102129
 31
0.0
  0
LINE
  5
1706
  8
SAPA_PROFIL
 10
-2.9993261401700688
 20
11.759220517509419
 30
0.0
 11
-2.9993261402218532
 21
10.65057044641692
 31
0.0
  0
POLYLINE
  5
1722
  8
SAPA_GLAS
 66
     1
 10
0.0
 20
0.0
 30
0.0
 70
     1
  0
VERTEX
  5
2458
  8
SAPA_GLAS
 10
180.0006708377484
 20
14.99743077935517
 30
0.0
  0
VERTEX
  5
2459
  8
SAPA_GLAS
 10
180.0006708377484
 20
29.99743077935517
 30
0.0
  0
VERTEX
  5
245A
  8
SAPA_GLAS
 10
170.0006708377484
 20
29.99743077935517
 30
0.0
  0
VERTEX
  5
245B
  8
SAPA_GLAS
 10
170.0006708377484
 20
14.99743077935517
 30
0.0
  0
SEQEND
  5
245C
  8
SAPA_GLAS
  0
POLYLINE
  5
1723
  8
SAPA_GLAS
 66
     1
 10
0.0
 20
0.0
 30
0.0
 70
     1
  0
VERTEX
  5
245D
  8
SAPA_GLAS
 10
180.0006708377484
 20
33.99743077935517
 30
0.0
  0
VERTEX
  5
245E
  8
SAPA_GLAS
 10
180.0006708377484
 20
48.99743077935517
 30
0.0
  0
VERTEX
  5
245F
  8
SAPA_GLAS
 10
170.0006708377484
 20
48.99743077935517
 30
0.0
  0
VERTEX
  5
2460
  8
SAPA_GLAS
 10
170.0006708377484
 20
33.99743077935517
 30
0.0
  0
SEQEND
  5
2461
  8
SAPA_GLAS
  0
POLYLINE
  5
1724
  8
SAPA_GLAS
 66
     1
 10
0.0
 20
0.0
 30
0.0
  0
VERTEX
  5
2462
  8
SAPA_GLAS
 10
200.0006708377482
 20
33.99743077935517
 30
0.0
  0
VERTEX
  5
2463
  8
SAPA_GLAS
 10
170.0006708377482
 20
33.99743077935517
 30
0.0
  0
VERTEX
  5
2464
  8
SAPA_GLAS
 10
170.0006708377482
 20
29.99743077935517
 30
0.0
  0
VERTEX
  5
2465
  8
SAPA_GLAS
 10
200.0006708377482
 20
29.99743077935517
 30
0.0
  0
SEQEND
  5
2466
  8
SAPA_GLAS
  0
POLYLINE
  5
1725
  8
SAPA_GLAS
 66
     1
 10
0.0
 20
0.0
 30
0.0
  0
VERTEX
  5
2467
  8
SAPA_GLAS
 10
200.0006708377482
 20
54.99743077935517
 30
0.0
  0
VERTEX
  5
2468
  8
SAPA_GLAS
 10
170.0006708377482
 20
54.99743077935517
 30
0.0
  0
VERTEX
  5
2469
  8
SAPA_GLAS
 10
170.0006708377482
 20
48.99743077935517
 30
0.0
  0
VERTEX
  5
246A
  8
SAPA_GLAS
 10
200.0006708377482
 20
48.99743077935517
 30
0.0
  0
SEQEND
  5
246B
  8
SAPA_GLAS
  0
POLYLINE
  5
1726
  8
SAPA_GLAS
 66
     1
 10
0.0
 20
0.0
 30
0.0
  0
VERTEX
  5
246C
  8
SAPA_GLAS
 10
200.0006708377482
 20
8.9974307793551702
 30
0.0
  0
VERTEX
  5
246D
  8
SAPA_GLAS
 10
170.0006708377482
 20
8.9974307793551702
 30
0.0
  0
VERTEX
  5
246E
  8
SAPA_GLAS
 10
170.0006708377482
 20
14.99743077935517
 30
0.0
  0
VERTEX
  5
246F
  8
SAPA_GLAS
 10
200.0006708377482
 20
14.99743077935517
 30
0.0
  0
SEQEND
  5
2470
  8
SAPA_GLAS
  0
INSERT
  5
172F
  8
SAPA_FYLLNING
  6
CONTINUOUS
  2
*X127
 10
0.0
 20
0.0
 30
0.0
1001
ACAD
1000
HATCH
1002
{
1070
    19
1000
HEX
1040
0.25
1040
-1.5707963267948959
1000
R14_HATCH_DATA
1000
172F
1011
1.0
1021
0.0
1031
0.0
1021
0.0
1031
0.0
1011
0.0
1021
0.0
1031
0.0
1021
1.0
1031
0.0
1011
0.0
1021
0.0
1031
0.0
1021
0.0
1031
1.0
1040
0.0
1010
0.0
1020
0.0
1030
1.0
1000
HEX
1070
     0
1070
     0
1071
        1
1071
        7
1070
     1
1070
     1
1071
        2
1040
1.5006708378477069
1040
213.05057044583191
1040
1.0
1040
7.5006708378478768
1040
213.05057044583191
1040
1.0
1071
        0
1070
     0
1070
     1
1040
-1.5707963267948959
1040
0.25
1070
     0
1070
     3
1040
1.5707963267948959
1040
75.000670837824146
1040
86.250000001385388
1040
-1.374814999999999
1040
0.0000000000000003
1070
     2
1040
0.79375
1040
-1.587499999999999
1040
3.6651914291880909
1040
75.000670837824146
1040
86.250000001385388
1040
0.6874074999999995
1040
-1.1906247155039029
1070
     2
1040
0.7937499999999998
1040
-1.587499999999999
1040
2.6179938779914931
1040
75.000670837824146
1040
87.043750001385433
1040
-0.6874075000000003
1040
-1.190624715503902
1070
     2
1040
0.7937499999999998
1040
-1.587499999999999
1040
0.0216905703044498
1071
        1
1040
4.4347346591857777
1040
213.3371423884571
1040
0.0
1002
}
  0
INSERT
  5
1730
  8
SAPA_FYLLNING
  6
CONTINUOUS
  2
*X128
 10
0.0
 20
0.0
 30
0.0
1001
ACAD
1000
HATCH
1002
{
1070
    19
1000
ANSI37
1040
0.25
1040
-1.5707963267948959
1000
R14_HATCH_DATA
1000
1730
1011
1.0
1021
0.0
1031
0.0
1021
0.0
1031
0.0
1011
0.0
1021
0.0
1031
0.0
1021
1.0
1031
0.0
1011
0.0
1021
0.0
1031
0.0
1021
0.0
1031
1.0
1040
0.0
1010
0.0
1020
0.0
1030
1.0
1000
ANSI37
1070
     0
1070
     0
1071
        1
1071
        7
1070
     1
1070
     1
1071
        9
1040
-2.0195309595032991
1040
210.0505704458314
1040
0.0
1040
4.500670837848701
1040
210.0505704458314
1040
-1.0
1040
4.500670837848701
1040
216.05057044583171
1040
0.0
1040
2.9148844002252181
1040
216.05057044583171
1040
0.1989123673796868
1040
2.7027523658693999
1040
215.9627024801882
1040
0.0
1040
2.4370669409204311
1040
215.6970170552388
1040
-0.4142135623730951
1040
1.7299601597337639
1040
215.6970170552384
1040
0.0
1040
0.0885388034971584
1040
217.33843841147501
1040
-0.2679491924312271
1040
0.0108930899659754
1040
217.6282161593617
1040
0.0
1071
        0
1070
     0
1070
     1
1040
-1.5707963267948959
1040
0.25
1070
     0
1070
     2
1040
2.3561944901923439
1040
75.000670837824146
1040
86.250000001385388
1040
-0.5612660075668222
1040
-0.5612660075668219
1070
     0
1040
3.926990816987241
1040
75.000670837824146
1040
86.250000001385388
1040
0.5612660075668219
1040
-0.5612660075668222
1070
     0
1040
0.0212842410303403
1071
        1
1040
-0.0432143922143951
1040
212.1493524257146
1040
0.0
1002
}
  0
INSERT
  5
1731
  8
SAPA_FYLLNING
  6
CONTINUOUS
  2
*X129
 10
0.0
 20
0.0
 30
0.0
1001
ACAD
1000
HATCH
1002
{
1070
    19
1000
ANSI37
1040
0.25
1040
-1.5707963267948959
1000
R14_HATCH_DATA
1000
1731
1011
1.0
1021
0.0
1031
0.0
1021
0.0
1031
0.0
1011
0.0
1021
0.0
1031
0.0
1021
1.0
1031
0.0
1011
0.0
1021
0.0
1031
0.0
1021
0.0
1031
1.0
1040
0.0
1010
0.0
1020
0.0
1030
1.0
1000
ANSI37
1070
     0
1070
     0
1071
        1
1071
        7
1070
     1
1070
     1
1071
        7
1040
-2.5566042867499159
1040
10.05057044583145
1040
0.0
1040
0.0098709976591636
1040
0.4723542880483365
1040
-0.2679491924311903
1040
0.0875167111898918
1040
0.7621320359353377
1040
0.0
1040
1.1289380674220411
1040
1.803553392167486
1040
-0.198912367379658
1040
1.4824914580153741
1040
1.950000001574153
1040
0.0
1040
7.9768819379059996
1040
1.950000001574153
1040
-1.0
1040
7.9768819379059996
1040
10.05057044583145
1040
0.0
1071
        0
1070
     0
1070
     1
1040
-1.5707963267948959
1040
0.25
1070
     0
1070
     2
1040
2.3561944901923439
1040
75.000670837824146
1040
-13.74999999861461
1040
-0.5612660075668222
1040
-0.5612660075668219
1070
     0
1040
3.926990816987241
1040
75.000670837824146
1040
-13.74999999861461
1040
0.5612660075668219
1040
-0.5612660075668222
1070
     0
1040
0.0363322098761133
1071
        1
1040
1.0748514496872299
1040
6.9561116966381169
1040
0.0
1002
}
  0
INSERT
  5
1732
  8
SAPA_FYLLNING
  6
CONTINUOUS
  2
*X130
 10
0.0
 20
0.0
 30
0.0
1001
ACAD
1000
HATCH
1002
{
1070
    19
1000
HEX
1040
0.25
1040
-1.5707963267948959
1000
R14_HATCH_DATA
1000
1732
1011
1.0
1021
0.0
1031
0.0
1021
0.0
1031
0.0
1011
0.0
1021
0.0
1031
0.0
1021
1.0
1031
0.0
1011
0.0
1021
0.0
1031
0.0
1021
0.0
1031
1.0
1040
0.0
1010
0.0
1020
0.0
1030
1.0
1000
HEX
1070
     0
1070
     0
1071
        1
1071
        7
1070
     1
1070
     1
1071
        2
1040
3.9265967157768991
1040
6.0002852237025763
1040
1.0
1040
12.027167160034191
1040
6.0002852237025763
1040
1.0
1071
        0
1070
     0
1070
     1
1040
-1.5707963267948959
1040
0.25
1070
     0
1070
     3
1040
1.5707963267948959
1040
75.000670837824146
1040
-13.74999999861461
1040
-1.374814999999999
1040
0.0000000000000003
1070
     2
1040
0.79375
1040
-1.587499999999999
1040
3.6651914291880909
1040
75.000670837824146
1040
-13.74999999861461
1040
0.6874074999999995
1040
-1.1906247155039029
1070
     2
1040
0.7937499999999998
1040
-1.587499999999999
1040
2.6179938779914931
1040
75.000670837824146
1040
-12.95624999861457
1040
-0.6874075000000003
1040
-1.190624715503902
1070
     2
1040
0.7937499999999998
1040
-1.587499999999999
1040
0.0303180261480682
1071
        1
1040
7.9652998403107631
1040
6.17606288268962
1040
0.0
1002
}
  0
POLYLINE
  5
173A
  8
SAPA_FOGBAND
 62
     2
 10
174.77445628379652
 20
58.588806151141732
 30
0.0
 66
     1
 70
     8
  0
VERTEX
  8
SAPA_FOGBAND
  5
25D7
 10
174.774
 20
58.5888
 30
0.000000
  70
    32
  0
VERTEX
  8
SAPA_FOGBAND
  5
25D8
 10
174.772
 20
58.5201
 30
0.000000
  70
    32
  0
VERTEX
  8
SAPA_FOGBAND
  5
25D9
 10
174.764
 20
58.4516
 30
0.000000
  70
    32
  0
VERTEX
  8
SAPA_FOGBAND
  5
25DA
 10
174.751
 20
58.3834
 30
0.000000
  70
    32
  0
VERTEX
  8
SAPA_FOGBAND
  5
25DB
 10
174.733
 20
58.3157
 30
0.000000
  70
    32
  0
VERTEX
  8
SAPA_FOGBAND
  5
25DC
 10
174.709
 20
58.2486
 30
0.000000
  70
    32
  0
VERTEX
  8
SAPA_FOGBAND
  5
25DD
 10
174.681
 20
58.1824
 30
0.000000
  70
    32
  0
VERTEX
  8
SAPA_FOGBAND
  5
25DE
 10
174.648
 20
58.1172
 30
0.000000
  70
    32
  0
VERTEX
  8
SAPA_FOGBAND
  5
25DF
 10
174.609
 20
58.0530
 30
0.000000
  70
    32
  0
VERTEX
  8
SAPA_FOGBAND
  5
25E0
 10
174.566
 20
57.9902
 30
0.000000
  70
    32
  0
VERTEX
  8
SAPA_FOGBAND
  5
25E1
 10
174.518
 20
57.9289
 30
0.000000
  70
    32
  0
VERTEX
  8
SAPA_FOGBAND
  5
25E2
 10
174.466
 20
57.8691
 30
0.000000
  70
    32
  0
VERTEX
  8
SAPA_FOGBAND
  5
25E3
 10
174.409
 20
57.8110
 30
0.000000
  70
    32
  0
VERTEX
  8
SAPA_FOGBAND
  5
25E4
 10
174.348
 20
57.7548
 30
0.000000
  70
    32
  0
VERTEX
  8
SAPA_FOGBAND
  5
25E5
 10
174.282
 20
57.7007
 30
0.000000
  70
    32
  0
VERTEX
  8
SAPA_FOGBAND
  5
25E6
 10
174.213
 20
57.6486
 30
0.000000
  70
    32
  0
VERTEX
  8
SAPA_FOGBAND
  5
25E7
 10
174.140
 20
57.5989
 30
0.000000
  70
    32
  0
VERTEX
  8
SAPA_FOGBAND
  5
25E8
 10
174.062
 20
57.5515
 30
0.000000
  70
    32
  0
VERTEX
  8
SAPA_FOGBAND
  5
25E9
 10
173.982
 20
57.5066
 30
0.000000
  70
    32
  0
VERTEX
  8
SAPA_FOGBAND
  5
25EA
 10
173.898
 20
57.4643
 30
0.000000
  70
    32
  0
VERTEX
  8
SAPA_FOGBAND
  5
25EB
 10
173.811
 20
57.4247
 30
0.000000
  70
    32
  0
VERTEX
  8
SAPA_FOGBAND
  5
25EC
 10
173.721
 20
57.3880
 30
0.000000
  70
    32
  0
VERTEX
  8
SAPA_FOGBAND
  5
25ED
 10
173.629
 20
57.3541
 30
0.000000
  70
    32
  0
VERTEX
  8
SAPA_FOGBAND
  5
25EE
 10
173.534
 20
57.3232
 30
0.000000
  70
    32
  0
VERTEX
  8
SAPA_FOGBAND
  5
25EF
 10
173.436
 20
57.2954
 30
0.000000
  70
    32
  0
VERTEX
  8
SAPA_FOGBAND
  5
25F0
 10
173.337
 20
57.2706
 30
0.000000
  70
    32
  0
VERTEX
  8
SAPA_FOGBAND
  5
25F1
 10
173.236
 20
57.2491
 30
0.000000
  70
    32
  0
VERTEX
  8
SAPA_FOGBAND
  5
25F2
 10
173.133
 20
57.2308
 30
0.000000
  70
    32
  0
VERTEX
  8
SAPA_FOGBAND
  5
25F3
 10
173.030
 20
57.2157
 30
0.000000
  70
    32
  0
VERTEX
  8
SAPA_FOGBAND
  5
25F4
 10
172.925
 20
57.2040
 30
0.000000
  70
    32
  0
VERTEX
  8
SAPA_FOGBAND
  5
25F5
 10
172.819
 20
57.1955
 30
0.000000
  70
    32
  0
VERTEX
  8
SAPA_FOGBAND
  5
25F6
 10
172.713
 20
57.1905
 30
0.000000
  70
    32
  0
VERTEX
  8
SAPA_FOGBAND
  5
25F7
 10
172.607
 20
57.1888
 30
0.000000
  70
    32
  0
VERTEX
  8
SAPA_FOGBAND
  5
25F8
 10
172.500
 20
57.1905
 30
0.000000
  70
    32
  0
VERTEX
  8
SAPA_FOGBAND
  5
25F9
 10
172.394
 20
57.1955
 30
0.000000
  70
    32
  0
VERTEX
  8
SAPA_FOGBAND
  5
25FA
 10
172.289
 20
57.2040
 30
0.000000
  70
    32
  0
VERTEX
  8
SAPA_FOGBAND
  5
25FB
 10
172.184
 20
57.2157
 30
0.000000
  70
    32
  0
VERTEX
  8
SAPA_FOGBAND
  5
25FC
 10
172.080
 20
57.2308
 30
0.000000
  70
    32
  0
VERTEX
  8
SAPA_FOGBAND
  5
25FD
 10
171.977
 20
57.2491
 30
0.000000
  70
    32
  0
VERTEX
  8
SAPA_FOGBAND
  5
25FE
 10
171.876
 20
57.2706
 30
0.000000
  70
    32
  0
VERTEX
  8
SAPA_FOGBAND
  5
25FF
 10
171.777
 20
57.2954
 30
0.000000
  70
    32
  0
VERTEX
  8
SAPA_FOGBAND
  5
2600
 10
171.680
 20
57.3232
 30
0.000000
  70
    32
  0
VERTEX
  8
SAPA_FOGBAND
  5
2601
 10
171.585
 20
57.3541
 30
0.000000
  70
    32
  0
VERTEX
  8
SAPA_FOGBAND
  5
2602
 10
171.492
 20
57.3880
 30
0.000000
  70
    32
  0
VERTEX
  8
SAPA_FOGBAND
  5
2603
 10
171.402
 20
57.4247
 30
0.000000
  70
    32
  0
VERTEX
  8
SAPA_FOGBAND
  5
2604
 10
171.315
 20
57.4643
 30
0.000000
  70
    32
  0
VERTEX
  8
SAPA_FOGBAND
  5
2605
 10
171.231
 20
57.5066
 30
0.000000
  70
    32
  0
VERTEX
  8
SAPA_FOGBAND
  5
2606
 10
171.151
 20
57.5515
 30
0.000000
  70
    32
  0
VERTEX
  8
SAPA_FOGBAND
  5
2607
 10
171.074
 20
57.5989
 30
0.000000
  70
    32
  0
VERTEX
  8
SAPA_FOGBAND
  5
2608
 10
171.000
 20
57.6486
 30
0.000000
  70
    32
  0
VERTEX
  8
SAPA_FOGBAND
  5
2609
 10
170.931
 20
57.7007
 30
0.000000
  70
    32
  0
VERTEX
  8
SAPA_FOGBAND
  5
260A
 10
170.865
 20
57.7548
 30
0.000000
  70
    32
  0
VERTEX
  8
SAPA_FOGBAND
  5
260B
 10
170.804
 20
57.8110
 30
0.000000
  70
    32
  0
VERTEX
  8
SAPA_FOGBAND
  5
260C
 10
170.747
 20
57.8691
 30
0.000000
  70
    32
  0
VERTEX
  8
SAPA_FOGBAND
  5
260D
 10
170.695
 20
57.9289
 30
0.000000
  70
    32
  0
VERTEX
  8
SAPA_FOGBAND
  5
260E
 10
170.647
 20
57.9902
 30
0.000000
  70
    32
  0
VERTEX
  8
SAPA_FOGBAND
  5
260F
 10
170.604
 20
58.0530
 30
0.000000
  70
    32
  0
VERTEX
  8
SAPA_FOGBAND
  5
2610
 10
170.566
 20
58.1172
 30
0.000000
  70
    32
  0
VERTEX
  8
SAPA_FOGBAND
  5
2611
 10
170.532
 20
58.1824
 30
0.000000
  70
    32
  0
VERTEX
  8
SAPA_FOGBAND
  5
2612
 10
170.504
 20
58.2486
 30
0.000000
  70
    32
  0
VERTEX
  8
SAPA_FOGBAND
  5
2613
 10
170.481
 20
58.3157
 30
0.000000
  70
    32
  0
VERTEX
  8
SAPA_FOGBAND
  5
2614
 10
170.462
 20
58.3834
 30
0.000000
  70
    32
  0
VERTEX
  8
SAPA_FOGBAND
  5
2615
 10
170.449
 20
58.4516
 30
0.000000
  70
    32
  0
VERTEX
  8
SAPA_FOGBAND
  5
2616
 10
170.441
 20
58.5201
 30
0.000000
  70
    32
  0
VERTEX
  8
SAPA_FOGBAND
  5
2617
 10
170.439
 20
58.5888
 30
0.000000
  70
    32
  0
VERTEX
  8
SAPA_FOGBAND
  5
2618
 10
170.441
 20
58.6575
 30
0.000000
  70
    32
  0
VERTEX
  8
SAPA_FOGBAND
  5
2619
 10
170.449
 20
58.7260
 30
0.000000
  70
    32
  0
VERTEX
  8
SAPA_FOGBAND
  5
261A
 10
170.462
 20
58.7942
 30
0.000000
  70
    32
  0
VERTEX
  8
SAPA_FOGBAND
  5
261B
 10
170.481
 20
58.8619
 30
0.000000
  70
    32
  0
VERTEX
  8
SAPA_FOGBAND
  5
261C
 10
170.504
 20
58.9290
 30
0.000000
  70
    32
  0
VERTEX
  8
SAPA_FOGBAND
  5
261D
 10
170.532
 20
58.9952
 30
0.000000
  70
    32
  0
VERTEX
  8
SAPA_FOGBAND
  5
261E
 10
170.566
 20
59.0605
 30
0.000000
  70
    32
  0
VERTEX
  8
SAPA_FOGBAND
  5
261F
 10
170.604
 20
59.1246
 30
0.000000
  70
    32
  0
VERTEX
  8
SAPA_FOGBAND
  5
2620
 10
170.647
 20
59.1874
 30
0.000000
  70
    32
  0
VERTEX
  8
SAPA_FOGBAND
  5
2621
 10
170.695
 20
59.2488
 30
0.000000
  70
    32
  0
VERTEX
  8
SAPA_FOGBAND
  5
2622
 10
170.747
 20
59.3085
 30
0.000000
  70
    32
  0
VERTEX
  8
SAPA_FOGBAND
  5
2623
 10
170.804
 20
59.3666
 30
0.000000
  70
    32
  0
VERTEX
  8
SAPA_FOGBAND
  5
2624
 10
170.865
 20
59.4228
 30
0.000000
  70
    32
  0
VERTEX
  8
SAPA_FOGBAND
  5
2625
 10
170.931
 20
59.4770
 30
0.000000
  70
    32
  0
VERTEX
  8
SAPA_FOGBAND
  5
2626
 10
171.000
 20
59.5290
 30
0.000000
  70
    32
  0
VERTEX
  8
SAPA_FOGBAND
  5
2627
 10
171.074
 20
59.5788
 30
0.000000
  70
    32
  0
VERTEX
  8
SAPA_FOGBAND
  5
2628
 10
171.151
 20
59.6261
 30
0.000000
  70
    32
  0
VERTEX
  8
SAPA_FOGBAND
  5
2629
 10
171.231
 20
59.6710
 30
0.000000
  70
    32
  0
VERTEX
  8
SAPA_FOGBAND
  5
262A
 10
171.315
 20
59.7133
 30
0.000000
  70
    32
  0
VERTEX
  8
SAPA_FOGBAND
  5
262B
 10
171.402
 20
59.7529
 30
0.000000
  70
    32
  0
VERTEX
  8
SAPA_FOGBAND
  5
262C
 10
171.492
 20
59.7896
 30
0.000000
  70
    32
  0
VERTEX
  8
SAPA_FOGBAND
  5
262D
 10
171.585
 20
59.8235
 30
0.000000
  70
    32
  0
VERTEX
  8
SAPA_FOGBAND
  5
262E
 10
171.680
 20
59.8544
 30
0.000000
  70
    32
  0
VERTEX
  8
SAPA_FOGBAND
  5
262F
 10
171.777
 20
59.8822
 30
0.000000
  70
    32
  0
VERTEX
  8
SAPA_FOGBAND
  5
2630
 10
171.876
 20
59.9070
 30
0.000000
  70
    32
  0
VERTEX
  8
SAPA_FOGBAND
  5
2631
 10
171.977
 20
59.9285
 30
0.000000
  70
    32
  0
VERTEX
  8
SAPA_FOGBAND
  5
2632
 10
172.080
 20
59.9468
 30
0.000000
  70
    32
  0
VERTEX
  8
SAPA_FOGBAND
  5
2633
 10
172.184
 20
59.9619
 30
0.000000
  70
    32
  0
VERTEX
  8
SAPA_FOGBAND
  5
2634
 10
172.289
 20
59.9737
 30
0.000000
  70
    32
  0
VERTEX
  8
SAPA_FOGBAND
  5
2635
 10
172.394
 20
59.9821
 30
0.000000
  70
    32
  0
VERTEX
  8
SAPA_FOGBAND
  5
2636
 10
172.500
 20
59.9871
 30
0.000000
  70
    32
  0
VERTEX
  8
SAPA_FOGBAND
  5
2637
 10
172.607
 20
59.9888
 30
0.000000
  70
    32
  0
VERTEX
  8
SAPA_FOGBAND
  5
2638
 10
172.713
 20
59.9871
 30
0.000000
  70
    32
  0
VERTEX
  8
SAPA_FOGBAND
  5
2639
 10
172.819
 20
59.9821
 30
0.000000
  70
    32
  0
VERTEX
  8
SAPA_FOGBAND
  5
263A
 10
172.925
 20
59.9737
 30
0.000000
  70
    32
  0
VERTEX
  8
SAPA_FOGBAND
  5
263B
 10
173.030
 20
59.9619
 30
0.000000
  70
    32
  0
VERTEX
  8
SAPA_FOGBAND
  5
263C
 10
173.133
 20
59.9468
 30
0.000000
  70
    32
  0
VERTEX
  8
SAPA_FOGBAND
  5
263D
 10
173.236
 20
59.9285
 30
0.000000
  70
    32
  0
VERTEX
  8
SAPA_FOGBAND
  5
263E
 10
173.337
 20
59.9070
 30
0.000000
  70
    32
  0
VERTEX
  8
SAPA_FOGBAND
  5
263F
 10
173.436
 20
59.8822
 30
0.000000
  70
    32
  0
VERTEX
  8
SAPA_FOGBAND
  5
2640
 10
173.534
 20
59.8544
 30
0.000000
  70
    32
  0
VERTEX
  8
SAPA_FOGBAND
  5
2641
 10
173.629
 20
59.8235
 30
0.000000
  70
    32
  0
VERTEX
  8
SAPA_FOGBAND
  5
2642
 10
173.721
 20
59.7896
 30
0.000000
  70
    32
  0
VERTEX
  8
SAPA_FOGBAND
  5
2643
 10
173.811
 20
59.7529
 30
0.000000
  70
    32
  0
VERTEX
  8
SAPA_FOGBAND
  5
2644
 10
173.898
 20
59.7133
 30
0.000000
  70
    32
  0
VERTEX
  8
SAPA_FOGBAND
  5
2645
 10
173.982
 20
59.6710
 30
0.000000
  70
    32
  0
VERTEX
  8
SAPA_FOGBAND
  5
2646
 10
174.062
 20
59.6261
 30
0.000000
  70
    32
  0
VERTEX
  8
SAPA_FOGBAND
  5
2647
 10
174.140
 20
59.5788
 30
0.000000
  70
    32
  0
VERTEX
  8
SAPA_FOGBAND
  5
2648
 10
174.213
 20
59.5290
 30
0.000000
  70
    32
  0
VERTEX
  8
SAPA_FOGBAND
  5
2649
 10
174.282
 20
59.4770
 30
0.000000
  70
    32
  0
VERTEX
  8
SAPA_FOGBAND
  5
264A
 10
174.348
 20
59.4228
 30
0.000000
  70
    32
  0
VERTEX
  8
SAPA_FOGBAND
  5
264B
 10
174.409
 20
59.3666
 30
0.000000
  70
    32
  0
VERTEX
  8
SAPA_FOGBAND
  5
264C
 10
174.466
 20
59.3085
 30
0.000000
  70
    32
  0
VERTEX
  8
SAPA_FOGBAND
  5
264D
 10
174.518
 20
59.2488
 30
0.000000
  70
    32
  0
VERTEX
  8
SAPA_FOGBAND
  5
264E
 10
174.566
 20
59.1874
 30
0.000000
  70
    32
  0
VERTEX
  8
SAPA_FOGBAND
  5
264F
 10
174.609
 20
59.1246
 30
0.000000
  70
    32
  0
VERTEX
  8
SAPA_FOGBAND
  5
2650
 10
174.648
 20
59.0605
 30
0.000000
  70
    32
  0
VERTEX
  8
SAPA_FOGBAND
  5
2651
 10
174.681
 20
58.9952
 30
0.000000
  70
    32
  0
VERTEX
  8
SAPA_FOGBAND
  5
2652
 10
174.709
 20
58.9290
 30
0.000000
  70
    32
  0
VERTEX
  8
SAPA_FOGBAND
  5
2653
 10
174.733
 20
58.8619
 30
0.000000
  70
    32
  0
VERTEX
  8
SAPA_FOGBAND
  5
2654
 10
174.751
 20
58.7942
 30
0.000000
  70
    32
  0
VERTEX
  8
SAPA_FOGBAND
  5
2655
 10
174.764
 20
58.7260
 30
0.000000
  70
    32
  0
VERTEX
  8
SAPA_FOGBAND
  5
2656
 10
174.772
 20
58.6575
 30
0.000000
  70
    32
  0
VERTEX
  8
SAPA_FOGBAND
  5
2657
 10
174.774
 20
58.5888
 30
0.000000
  70
    32
  0
SEQEND
  8
SAPA_FOGBAND
  5
2658
  0
POLYLINE
  5
173B
  8
SAPA_FOGBAND
 62
     2
 10
184.29185914284753
 20
60.323592173874651
 30
0.0
 66
     1
 70
     8
  0
VERTEX
  8
SAPA_FOGBAND
  5
2659
 10
184.292
 20
60.3236
 30
0.000000
  70
    32
  0
VERTEX
  8
SAPA_FOGBAND
  5
265A
 10
184.288
 20
60.2353
 30
0.000000
  70
    32
  0
VERTEX
  8
SAPA_FOGBAND
  5
265B
 10
184.277
 20
60.1472
 30
0.000000
  70
    32
  0
VERTEX
  8
SAPA_FOGBAND
  5
265C
 10
184.258
 20
60.0595
 30
0.000000
  70
    32
  0
VERTEX
  8
SAPA_FOGBAND
  5
265D
 10
184.233
 20
59.9724
 30
0.000000
  70
    32
  0
VERTEX
  8
SAPA_FOGBAND
  5
265E
 10
184.199
 20
59.8862
 30
0.000000
  70
    32
  0
VERTEX
  8
SAPA_FOGBAND
  5
265F
 10
184.159
 20
59.8011
 30
0.000000
  70
    32
  0
VERTEX
  8
SAPA_FOGBAND
  5
2660
 10
184.112
 20
59.7172
 30
0.000000
  70
    32
  0
VERTEX
  8
SAPA_FOGBAND
  5
2661
 10
184.057
 20
59.6348
 30
0.000000
  70
    32
  0
VERTEX
  8
SAPA_FOGBAND
  5
2662
 10
183.996
 20
59.5540
 30
0.000000
  70
    32
  0
VERTEX
  8
SAPA_FOGBAND
  5
2663
 10
183.928
 20
59.4751
 30
0.000000
  70
    32
  0
VERTEX
  8
SAPA_FOGBAND
  5
2664
 10
183.853
 20
59.3982
 30
0.000000
  70
    32
  0
VERTEX
  8
SAPA_FOGBAND
  5
2665
 10
183.772
 20
59.3236
 30
0.000000
  70
    32
  0
VERTEX
  8
SAPA_FOGBAND
  5
2666
 10
183.685
 20
59.2513
 30
0.000000
  70
    32
  0
VERTEX
  8
SAPA_FOGBAND
  5
2667
 10
183.592
 20
59.1817
 30
0.000000
  70
    32
  0
VERTEX
  8
SAPA_FOGBAND
  5
2668
 10
183.493
 20
59.1148
 30
0.000000
  70
    32
  0
VERTEX
  8
SAPA_FOGBAND
  5
2669
 10
183.388
 20
59.0508
 30
0.000000
  70
    32
  0
VERTEX
  8
SAPA_FOGBAND
  5
266A
 10
183.279
 20
58.9899
 30
0.000000
  70
    32
  0
VERTEX
  8
SAPA_FOGBAND
  5
266B
 10
183.164
 20
58.9322
 30
0.000000
  70
    32
  0
VERTEX
  8
SAPA_FOGBAND
  5
266C
 10
183.045
 20
58.8778
 30
0.000000
  70
    32
  0
VERTEX
  8
SAPA_FOGBAND
  5
266D
 10
182.921
 20
58.8269
 30
0.000000
  70
    32
  0
VERTEX
  8
SAPA_FOGBAND
  5
266E
 10
182.793
 20
58.7797
 30
0.000000
  70
    32
  0
VERTEX
  8
SAPA_FOGBAND
  5
266F
 10
182.661
 20
58.7361
 30
0.000000
  70
    32
  0
VERTEX
  8
SAPA_FOGBAND
  5
2670
 10
182.526
 20
58.6964
 30
0.000000
  70
    32
  0
VERTEX
  8
SAPA_FOGBAND
  5
2671
 10
182.387
 20
58.6606
 30
0.000000
  70
    32
  0
VERTEX
  8
SAPA_FOGBAND
  5
2672
 10
182.246
 20
58.6288
 30
0.000000
  70
    32
  0
VERTEX
  8
SAPA_FOGBAND
  5
2673
 10
182.102
 20
58.6011
 30
0.000000
  70
    32
  0
VERTEX
  8
SAPA_FOGBAND
  5
2674
 10
181.956
 20
58.5775
 30
0.000000
  70
    32
  0
VERTEX
  8
SAPA_FOGBAND
  5
2675
 10
181.809
 20
58.5582
 30
0.000000
  70
    32
  0
VERTEX
  8
SAPA_FOGBAND
  5
2676
 10
181.659
 20
58.5431
 30
0.000000
  70
    32
  0
VERTEX
  8
SAPA_FOGBAND
  5
2677
 10
181.509
 20
58.5323
 30
0.000000
  70
    32
  0
VERTEX
  8
SAPA_FOGBAND
  5
2678
 10
181.358
 20
58.5258
 30
0.000000
  70
    32
  0
VERTEX
  8
SAPA_FOGBAND
  5
2679
 10
181.207
 20
58.5236
 30
0.000000
  70
    32
  0
VERTEX
  8
SAPA_FOGBAND
  5
267A
 10
181.055
 20
58.5258
 30
0.000000
  70
    32
  0
VERTEX
  8
SAPA_FOGBAND
  5
267B
 10
180.904
 20
58.5323
 30
0.000000
  70
    32
  0
VERTEX
  8
SAPA_FOGBAND
  5
267C
 10
180.754
 20
58.5431
 30
0.000000
  70
    32
  0
VERTEX
  8
SAPA_FOGBAND
  5
267D
 10
180.605
 20
58.5582
 30
0.000000
  70
    32
  0
VERTEX
  8
SAPA_FOGBAND
  5
267E
 10
180.457
 20
58.5775
 30
0.000000
  70
    32
  0
VERTEX
  8
SAPA_FOGBAND
  5
267F
 10
180.311
 20
58.6011
 30
0.000000
  70
    32
  0
VERTEX
  8
SAPA_FOGBAND
  5
2680
 10
180.167
 20
58.6288
 30
0.000000
  70
    32
  0
VERTEX
  8
SAPA_FOGBAND
  5
2681
 10
180.026
 20
58.6606
 30
0.000000
  70
    32
  0
VERTEX
  8
SAPA_FOGBAND
  5
2682
 10
179.888
 20
58.6964
 30
0.000000
  70
    32
  0
VERTEX
  8
SAPA_FOGBAND
  5
2683
 10
179.752
 20
58.7361
 30
0.000000
  70
    32
  0
VERTEX
  8
SAPA_FOGBAND
  5
2684
 10
179.621
 20
58.7797
 30
0.000000
  70
    32
  0
VERTEX
  8
SAPA_FOGBAND
  5
2685
 10
179.493
 20
58.8269
 30
0.000000
  70
    32
  0
VERTEX
  8
SAPA_FOGBAND
  5
2686
 10
179.369
 20
58.8778
 30
0.000000
  70
    32
  0
VERTEX
  8
SAPA_FOGBAND
  5
2687
 10
179.249
 20
58.9322
 30
0.000000
  70
    32
  0
VERTEX
  8
SAPA_FOGBAND
  5
2688
 10
179.135
 20
58.9899
 30
0.000000
  70
    32
  0
VERTEX
  8
SAPA_FOGBAND
  5
2689
 10
179.025
 20
59.0508
 30
0.000000
  70
    32
  0
VERTEX
  8
SAPA_FOGBAND
  5
268A
 10
178.921
 20
59.1148
 30
0.000000
  70
    32
  0
VERTEX
  8
SAPA_FOGBAND
  5
268B
 10
178.822
 20
59.1817
 30
0.000000
  70
    32
  0
VERTEX
  8
SAPA_FOGBAND
  5
268C
 10
178.729
 20
59.2513
 30
0.000000
  70
    32
  0
VERTEX
  8
SAPA_FOGBAND
  5
268D
 10
178.641
 20
59.3236
 30
0.000000
  70
    32
  0
VERTEX
  8
SAPA_FOGBAND
  5
268E
 10
178.560
 20
59.3982
 30
0.000000
  70
    32
  0
VERTEX
  8
SAPA_FOGBAND
  5
268F
 10
178.486
 20
59.4751
 30
0.000000
  70
    32
  0
VERTEX
  8
SAPA_FOGBAND
  5
2690
 10
178.418
 20
59.5540
 30
0.000000
  70
    32
  0
VERTEX
  8
SAPA_FOGBAND
  5
2691
 10
178.356
 20
59.6348
 30
0.000000
  70
    32
  0
VERTEX
  8
SAPA_FOGBAND
  5
2692
 10
178.302
 20
59.7172
 30
0.000000
  70
    32
  0
VERTEX
  8
SAPA_FOGBAND
  5
2693
 10
178.254
 20
59.8011
 30
0.000000
  70
    32
  0
VERTEX
  8
SAPA_FOGBAND
  5
2694
 10
178.214
 20
59.8862
 30
0.000000
  70
    32
  0
VERTEX
  8
SAPA_FOGBAND
  5
2695
 10
178.181
 20
59.9724
 30
0.000000
  70
    32
  0
VERTEX
  8
SAPA_FOGBAND
  5
2696
 10
178.155
 20
60.0595
 30
0.000000
  70
    32
  0
VERTEX
  8
SAPA_FOGBAND
  5
2697
 10
178.136
 20
60.1472
 30
0.000000
  70
    32
  0
VERTEX
  8
SAPA_FOGBAND
  5
2698
 10
178.125
 20
60.2353
 30
0.000000
  70
    32
  0
VERTEX
  8
SAPA_FOGBAND
  5
2699
 10
178.121
 20
60.3236
 30
0.000000
  70
    32
  0
VERTEX
  8
SAPA_FOGBAND
  5
269A
 10
178.125
 20
60.4119
 30
0.000000
  70
    32
  0
VERTEX
  8
SAPA_FOGBAND
  5
269B
 10
178.136
 20
60.5000
 30
0.000000
  70
    32
  0
VERTEX
  8
SAPA_FOGBAND
  5
269C
 10
178.155
 20
60.5877
 30
0.000000
  70
    32
  0
VERTEX
  8
SAPA_FOGBAND
  5
269D
 10
178.181
 20
60.6748
 30
0.000000
  70
    32
  0
VERTEX
  8
SAPA_FOGBAND
  5
269E
 10
178.214
 20
60.7610
 30
0.000000
  70
    32
  0
VERTEX
  8
SAPA_FOGBAND
  5
269F
 10
178.254
 20
60.8461
 30
0.000000
  70
    32
  0
VERTEX
  8
SAPA_FOGBAND
  5
26A0
 10
178.302
 20
60.9300
 30
0.000000
  70
    32
  0
VERTEX
  8
SAPA_FOGBAND
  5
26A1
 10
178.356
 20
61.0124
 30
0.000000
  70
    32
  0
VERTEX
  8
SAPA_FOGBAND
  5
26A2
 10
178.418
 20
61.0932
 30
0.000000
  70
    32
  0
VERTEX
  8
SAPA_FOGBAND
  5
26A3
 10
178.486
 20
61.1721
 30
0.000000
  70
    32
  0
VERTEX
  8
SAPA_FOGBAND
  5
26A4
 10
178.560
 20
61.2490
 30
0.000000
  70
    32
  0
VERTEX
  8
SAPA_FOGBAND
  5
26A5
 10
178.641
 20
61.3236
 30
0.000000
  70
    32
  0
VERTEX
  8
SAPA_FOGBAND
  5
26A6
 10
178.729
 20
61.3959
 30
0.000000
  70
    32
  0
VERTEX
  8
SAPA_FOGBAND
  5
26A7
 10
178.822
 20
61.4655
 30
0.000000
  70
    32
  0
VERTEX
  8
SAPA_FOGBAND
  5
26A8
 10
178.921
 20
61.5324
 30
0.000000
  70
    32
  0
VERTEX
  8
SAPA_FOGBAND
  5
26A9
 10
179.025
 20
61.5964
 30
0.000000
  70
    32
  0
VERTEX
  8
SAPA_FOGBAND
  5
26AA
 10
179.135
 20
61.6573
 30
0.000000
  70
    32
  0
VERTEX
  8
SAPA_FOGBAND
  5
26AB
 10
179.249
 20
61.7150
 30
0.000000
  70
    32
  0
VERTEX
  8
SAPA_FOGBAND
  5
26AC
 10
179.369
 20
61.7694
 30
0.000000
  70
    32
  0
VERTEX
  8
SAPA_FOGBAND
  5
26AD
 10
179.493
 20
61.8202
 30
0.000000
  70
    32
  0
VERTEX
  8
SAPA_FOGBAND
  5
26AE
 10
179.621
 20
61.8675
 30
0.000000
  70
    32
  0
VERTEX
  8
SAPA_FOGBAND
  5
26AF
 10
179.752
 20
61.9111
 30
0.000000
  70
    32
  0
VERTEX
  8
SAPA_FOGBAND
  5
26B0
 10
179.888
 20
61.9508
 30
0.000000
  70
    32
  0
VERTEX
  8
SAPA_FOGBAND
  5
26B1
 10
180.026
 20
61.9866
 30
0.000000
  70
    32
  0
VERTEX
  8
SAPA_FOGBAND
  5
26B2
 10
180.167
 20
62.0184
 30
0.000000
  70
    32
  0
VERTEX
  8
SAPA_FOGBAND
  5
26B3
 10
180.311
 20
62.0461
 30
0.000000
  70
    32
  0
VERTEX
  8
SAPA_FOGBAND
  5
26B4
 10
180.457
 20
62.0696
 30
0.000000
  70
    32
  0
VERTEX
  8
SAPA_FOGBAND
  5
26B5
 10
180.605
 20
62.0890
 30
0.000000
  70
    32
  0
VERTEX
  8
SAPA_FOGBAND
  5
26B6
 10
180.754
 20
62.1041
 30
0.000000
  70
    32
  0
VERTEX
  8
SAPA_FOGBAND
  5
26B7
 10
180.904
 20
62.1149
 30
0.000000
  70
    32
  0
VERTEX
  8
SAPA_FOGBAND
  5
26B8
 10
181.055
 20
62.1214
 30
0.000000
  70
    32
  0
VERTEX
  8
SAPA_FOGBAND
  5
26B9
 10
181.207
 20
62.1236
 30
0.000000
  70
    32
  0
VERTEX
  8
SAPA_FOGBAND
  5
26BA
 10
181.358
 20
62.1214
 30
0.000000
  70
    32
  0
VERTEX
  8
SAPA_FOGBAND
  5
26BB
 10
181.509
 20
62.1149
 30
0.000000
  70
    32
  0
VERTEX
  8
SAPA_FOGBAND
  5
26BC
 10
181.659
 20
62.1041
 30
0.000000
  70
    32
  0
VERTEX
  8
SAPA_FOGBAND
  5
26BD
 10
181.809
 20
62.0890
 30
0.000000
  70
    32
  0
VERTEX
  8
SAPA_FOGBAND
  5
26BE
 10
181.956
 20
62.0696
 30
0.000000
  70
    32
  0
VERTEX
  8
SAPA_FOGBAND
  5
26BF
 10
182.102
 20
62.0461
 30
0.000000
  70
    32
  0
VERTEX
  8
SAPA_FOGBAND
  5
26C0
 10
182.246
 20
62.0184
 30
0.000000
  70
    32
  0
VERTEX
  8
SAPA_FOGBAND
  5
26C1
 10
182.387
 20
61.9866
 30
0.000000
  70
    32
  0
VERTEX
  8
SAPA_FOGBAND
  5
26C2
 10
182.526
 20
61.9508
 30
0.000000
  70
    32
  0
VERTEX
  8
SAPA_FOGBAND
  5
26C3
 10
182.661
 20
61.9111
 30
0.000000
  70
    32
  0
VERTEX
  8
SAPA_FOGBAND
  5
26C4
 10
182.793
 20
61.8675
 30
0.000000
  70
    32
  0
VERTEX
  8
SAPA_FOGBAND
  5
26C5
 10
182.921
 20
61.8202
 30
0.000000
  70
    32
  0
VERTEX
  8
SAPA_FOGBAND
  5
26C6
 10
183.045
 20
61.7694
 30
0.000000
  70
    32
  0
VERTEX
  8
SAPA_FOGBAND
  5
26C7
 10
183.164
 20
61.7150
 30
0.000000
  70
    32
  0
VERTEX
  8
SAPA_FOGBAND
  5
26C8
 10
183.279
 20
61.6573
 30
0.000000
  70
    32
  0
VERTEX
  8
SAPA_FOGBAND
  5
26C9
 10
183.388
 20
61.5964
 30
0.000000
  70
    32
  0
VERTEX
  8
SAPA_FOGBAND
  5
26CA
 10
183.493
 20
61.5324
 30
0.000000
  70
    32
  0
VERTEX
  8
SAPA_FOGBAND
  5
26CB
 10
183.592
 20
61.4655
 30
0.000000
  70
    32
  0
VERTEX
  8
SAPA_FOGBAND
  5
26CC
 10
183.685
 20
61.3959
 30
0.000000
  70
    32
  0
VERTEX
  8
SAPA_FOGBAND
  5
26CD
 10
183.772
 20
61.3236
 30
0.000000
  70
    32
  0
VERTEX
  8
SAPA_FOGBAND
  5
26CE
 10
183.853
 20
61.2490
 30
0.000000
  70
    32
  0
VERTEX
  8
SAPA_FOGBAND
  5
26CF
 10
183.928
 20
61.1721
 30
0.000000
  70
    32
  0
VERTEX
  8
SAPA_FOGBAND
  5
26D0
 10
183.996
 20
61.0932
 30
0.000000
  70
    32
  0
VERTEX
  8
SAPA_FOGBAND
  5
26D1
 10
184.057
 20
61.0124
 30
0.000000
  70
    32
  0
VERTEX
  8
SAPA_FOGBAND
  5
26D2
 10
184.112
 20
60.9300
 30
0.000000
  70
    32
  0
VERTEX
  8
SAPA_FOGBAND
  5
26D3
 10
184.159
 20
60.8461
 30
0.000000
  70
    32
  0
VERTEX
  8
SAPA_FOGBAND
  5
26D4
 10
184.199
 20
60.7610
 30
0.000000
  70
    32
  0
VERTEX
  8
SAPA_FOGBAND
  5
26D5
 10
184.233
 20
60.6748
 30
0.000000
  70
    32
  0
VERTEX
  8
SAPA_FOGBAND
  5
26D6
 10
184.258
 20
60.5877
 30
0.000000
  70
    32
  0
VERTEX
  8
SAPA_FOGBAND
  5
26D7
 10
184.277
 20
60.5000
 30
0.000000
  70
    32
  0
VERTEX
  8
SAPA_FOGBAND
  5
26D8
 10
184.288
 20
60.4119
 30
0.000000
  70
    32
  0
VERTEX
  8
SAPA_FOGBAND
  5
26D9
 10
184.292
 20
60.3236
 30
0.000000
  70
    32
  0
SEQEND
  8
SAPA_FOGBAND
  5
26DA
  0
POLYLINE
  5
173C
  8
SAPA_FOGBAND
 62
     2
 66
     1
 10
0.0
 20
0.0
 30
0.0
 70
     1
  0
VERTEX
  5
25B3
  8
SAPA_FOGBAND
 62
     2
 10
173.76294418480839
 20
55.023592173874661
 30
0.0
  0
VERTEX
  5
25B4
  8
SAPA_FOGBAND
 62
     2
 10
187.44340883410709
 20
55.023592173874661
 30
0.0
 42
0.427966335106886
  0
VERTEX
  5
25B5
  8
SAPA_FOGBAND
 62
     2
 10
187.74308140182711
 20
55.337604745233918
 30
0.0
  0
VERTEX
  5
25B6
  8
SAPA_FOGBAND
 62
     2
 10
187.25678149374741
 20
63.537604745233899
 30
0.0
 42
0.4005932428724212
  0
VERTEX
  5
25B7
  8
SAPA_FOGBAND
 62
     2
 10
186.95710892602739
 20
63.823592173874658
 30
0.0
  0
VERTEX
  5
25B8
  8
SAPA_FOGBAND
 62
     2
 10
185.14340883410699
 20
63.823592173874658
 30
0.0
  0
VERTEX
  5
25B9
  8
SAPA_FOGBAND
 62
     2
 10
185.14340883410699
 20
65.523592173874647
 30
0.0
 42
0.4142135623730951
  0
VERTEX
  5
25BA
  8
SAPA_FOGBAND
 62
     2
 10
184.84340883410709
 20
65.823592173874658
 30
0.0
  0
VERTEX
  5
25BB
  8
SAPA_FOGBAND
 62
     2
 10
177.42462807048111
 20
65.823592173874658
 30
0.0
 42
0.1379343940649207
  0
VERTEX
  5
25BC
  8
SAPA_FOGBAND
 62
     2
 10
176.9034097614327
 20
65.677015559019864
 30
0.0
  0
VERTEX
  5
25BD
  8
SAPA_FOGBAND
 62
     2
 10
164.98279967958291
 20
58.269797321111547
 30
0.0
 42
0.2613472755167645
  0
VERTEX
  5
25BE
  8
SAPA_FOGBAND
 62
     2
 10
164.74340883410699
 20
57.843085628538937
 30
0.0
  0
VERTEX
  5
25BF
  8
SAPA_FOGBAND
 62
     2
 10
164.74340883410699
 20
56.84838901137573
 30
0.0
 42
0.3915187749346393
  0
VERTEX
  5
25C0
  8
SAPA_FOGBAND
 62
     2
 10
165.66538653388059
 20
55.851437397370631
 30
0.0
  0
VERTEX
  5
25C1
  8
SAPA_FOGBAND
 62
     2
 10
173.72393303469511
 20
55.025116366872112
 30
0.0
 42
0.0195279011117891
  0
SEQEND
  5
25C2
  8
SAPA_FOGBAND
 62
     2
  0
DIMENSION
  5
1746
  8
SAPA_MATT
  2
*D118
 10
-50.153752877734689
 20
10.050570445831569
 30
0.0
 11
-50.153752877734689
 21
110.0505704458315
 31
0.0
 70
   128
  1
197-202
 13
-35.000805346324313
 23
210.0505704458316
 33
0.0
 14
-35.000805346324313
 24
10.050570445831569
 34
0.0
 50
90.0
1001
ACAD
1000
DSTYLE
1002
{
1070
    40
1040
1.0
1002
}
  0
DIMENSION
  5
1747
  8
SAPA_MATT
  2
*D117
 10
187.00067083383689
 20
-33.866805833946273
 30
0.0
 11
93.663012463945037
 21
-33.866805833946273
 31
0.0
 70
   128
 13
0.0006708377662932
 23
0.3000000003248413
 33
0.0
 14
187.00067083383689
 24
0.4999999223182386
 34
0.1
1001
ACAD
1000
DSTYLE
1002
{
1070
    40
1040
1.0
1002
}
  0
DIMENSION
  5
1748
  8
SAPA_MATT
  2
*D116
 10
187.00067083383689
 20
-17.572573869874759
 30
0.0
 11
142.50067083383709
 21
-15.072573869874761
 31
0.0
 70
     0
 13
98.000670833837376
 23
1.9999999223182381
 33
0.1
 14
187.00067083383689
 24
0.8499999223183749
 34
0.0
1001
ACAD
1000
DSTYLE
1002
{
1070
    40
1040
1.0
1002
}
  0
DIMENSION
  5
1749
  8
SAPA_MATT
  2
*D115
 10
93.000670837748544
 20
-17.572573869874731
 30
0.0
 11
95.500670835792846
 21
-15.072573869874731
 31
0.0
 70
     0
 13
98.000670833837162
 23
1.9999999223182661
 33
0.1
 14
93.000670837748544
 24
0.9999999161857431
 34
0.0
1001
ACAD
1000
DSTYLE
1002
{
1070
    40
1040
1.0
1002
}
  0
DIMENSION
  5
174A
  8
SAPA_MATT
  2
*D114
 10
93.000670837748544
 20
-17.572573869874759
 30
0.0
 11
46.652141816134638
 21
-17.572573869874759
 31
0.0
 70
   128
 13
0.0006708377662932
 23
0.3000000003248412
 33
0.0
 14
93.000670837748544
 24
0.9999999161857431
 34
0.0
1001
ACAD
1000
DSTYLE
1002
{
1070
    40
1040
1.0
1002
}
  0
VIEWPORT
  5
C4
 67
     1
  8
0
 10
143.41473388671869
 20
99.112914085388184
 30
0.0
 40
545.30399643223529
 41
211.7062574383973
 68
     1
 69
     1
1001
ACAD
1000
MVIEW
1002
{
1070
    16
1010
0.0
1020
0.0
1030
0.0
1010
0.0
1020
0.0
1030
1.0
1040
0.0
1040
211.7062574383973
1040
143.41473388671869
1040
99.112914085388184
1040
50.0
1040
0.0
1040
0.0
1070
     0
1070
     0
1070
     1
1070
     1
1070
     0
1070
     0
1070
     0
1070
     0
1040
0.0
1040
0.0
1040
0.0
1040
10.0
1040
10.0
1040
10.0
1040
10.0
1070
     0
1002
{
1002
}
1002
}
  0
ENDSEC
  0
EOF
