  0
SECTION
  2
HEADER
  9
$ACADVER
  1
AC1009
  9
$INSBASE
 10
0.0
 20
0.0
 30
0.0
  9
$EXTMIN
 10
-29.246088647940191
 20
-27.68954559620887
 30
-0.1000000048844204
  9
$EXTMAX
 10
272.72054703757618
 20
245.7632891963413
 30
0.0
  9
$LIMMIN
 10
0.0
 20
0.0
  9
$LIMMAX
 10
790.0
 20
790.0
  9
$ORTHOMODE
 70
     0
  9
$REGENMODE
 70
     1
  9
$FILLMODE
 70
     1
  9
$QTEXTMODE
 70
     0
  9
$MIRRTEXT
 70
     1
  9
$DRAGMODE
 70
     2
  9
$LTSCALE
 40
4.0
  9
$OSMODE
 70
   167
  9
$ATTMODE
 70
     1
  9
$TEXTSIZE
 40
3.5
  9
$TRACEWID
 40
0.05
  9
$TEXTSTYLE
  7
ISO
  9
$CLAYER
  8
0
  9
$CELTYPE
  6
BYLAYER
  9
$CECOLOR
 62
   256
  9
$DIMSCALE
 40
0.0
  9
$DIMASZ
 40
3.0
  9
$DIMEXO
 40
1.5
  9
$DIMDLI
 40
10.0
  9
$DIMRND
 40
0.0
  9
$DIMDLE
 40
0.0
  9
$DIMEXE
 40
1.5
  9
$DIMTP
 40
0.0
  9
$DIMTM
 40
0.0
  9
$DIMTXT
 40
3.0
  9
$DIMCEN
 40
-5.0
  9
$DIMTSZ
 40
0.0
  9
$DIMTOL
 70
     0
  9
$DIMLIM
 70
     0
  9
$DIMTIH
 70
     0
  9
$DIMTOH
 70
     0
  9
$DIMSE1
 70
     0
  9
$DIMSE2
 70
     0
  9
$DIMTAD
 70
     1
  9
$DIMZIN
 70
     8
  9
$DIMBLK
  1

  9
$DIMASO
 70
     1
  9
$DIMSHO
 70
     1
  9
$DIMPOST
  1

  9
$DIMAPOST
  1

  9
$DIMALT
 70
     0
  9
$DIMALTD
 70
     0
  9
$DIMALTF
 40
25.399999999999999
  9
$DIMLFAC
 40
-1.0
  9
$DIMTOFL
 70
     1
  9
$DIMTVP
 40
0.0
  9
$DIMTIX
 70
     0
  9
$DIMSOXD
 70
     0
  9
$DIMSAH
 70
     0
  9
$DIMBLK1
  1

  9
$DIMBLK2
  1

  9
$DIMSTYLE
  2
MASKIN
  9
$DIMCLRD
 70
   256
  9
$DIMCLRE
 70
   256
  9
$DIMCLRT
 70
     2
  9
$DIMTFAC
 40
1.0
  9
$DIMGAP
 40
1.0
  9
$LUNITS
 70
     2
  9
$LUPREC
 70
     8
  9
$SKETCHINC
 40
0.1
  9
$FILLETRAD
 40
0.0
  9
$AUNITS
 70
     0
  9
$AUPREC
 70
     8
  9
$MENU
  1
ACAD
  9
$ELEVATION
 40
0.0
  9
$PELEVATION
 40
0.0
  9
$THICKNESS
 40
0.0
  9
$LIMCHECK
 70
     0
  9
$BLIPMODE
 70
     0
  9
$CHAMFERA
 40
0.0
  9
$CHAMFERB
 40
0.0
  9
$SKPOLY
 70
     0
  9
$TDCREATE
 40
2457483.3922487851
  9
$TDUPDATE
 40
2457744.6449566442
  9
$TDINDWG
 40
0.1475262847
  9
$TDUSRTIMER
 40
0.1475262847
  9
$USRTIMER
 70
     1
  9
$ANGBASE
 50
0.0
  9
$ANGDIR
 70
     0
  9
$PDMODE
 70
     0
  9
$PDSIZE
 40
0.0
  9
$PLINEWID
 40
0.0
  9
$COORDS
 70
     1
  9
$SPLFRAME
 70
     0
  9
$SPLINETYPE
 70
     6
  9
$SPLINESEGS
 70
     8
  9
$ATTDIA
 70
     1
  9
$ATTREQ
 70
     1
  9
$HANDLING
 70
     1
  9
$HANDSEED
  5
25CD
  9
$SURFTAB1
 70
     6
  9
$SURFTAB2
 70
     6
  9
$SURFTYPE
 70
     6
  9
$SURFU
 70
     6
  9
$SURFV
 70
     6
  9
$UCSNAME
  2

  9
$UCSORG
 10
0.0
 20
0.0
 30
0.0
  9
$UCSXDIR
 10
1.0
 20
0.0
 30
0.0
  9
$UCSYDIR
 10
0.0
 20
1.0
 30
0.0
  9
$PUCSNAME
  2

  9
$PUCSORG
 10
0.0
 20
0.0
 30
0.0
  9
$PUCSXDIR
 10
1.0
 20
0.0
 30
0.0
  9
$PUCSYDIR
 10
0.0
 20
1.0
 30
0.0
  9
$USERI1
 70
     0
  9
$USERI2
 70
     0
  9
$USERI3
 70
     0
  9
$USERI4
 70
     0
  9
$USERI5
 70
     0
  9
$USERR1
 40
0.0
  9
$USERR2
 40
0.0
  9
$USERR3
 40
0.0
  9
$USERR4
 40
0.0
  9
$USERR5
 40
0.0
  9
$WORLDVIEW
 70
     1
  9
$SHADEDGE
 70
     3
  9
$SHADEDIF
 70
    70
  9
$TILEMODE
 70
     1
  9
$MAXACTVP
 70
    16
  9
$PLIMCHECK
 70
     0
  9
$PEXTMIN
 10
1.0000000000000000E+020
 20
1.0000000000000000E+020
 30
1.0000000000000000E+020
  9
$PEXTMAX
 10
-1.0000000000000000E+020
 20
-1.0000000000000000E+020
 30
-1.0000000000000000E+020
  9
$PLIMMIN
 10
-5.069427490234375
 20
-5.8737497329711914
  9
$PLIMMAX
 10
291.89889526367187
 20
204.0995779037475
  9
$UNITMODE
 70
     0
  9
$VISRETAIN
 70
     1
  9
$PLINEGEN
 70
     0
  9
$PSLTSCALE
 70
     1
  0
ENDSEC
  0
SECTION
  2
TABLES
  0
TABLE
  2
VPORT
 70
     1
  0
VPORT
  2
*ACTIVE
 70
     0
 10
0.0
 20
0.0
 11
1.0
 21
1.0
 12
121.75912920471779
 22
325.38503464077621
 13
0.0
 23
0.0
 14
1.0
 24
1.0
 15
0.0
 25
0.0
 16
0.0
 26
0.0
 36
1.0
 17
0.0
 27
0.0
 37
0.0
 40
404.48272491758809
 41
1.616257088846881
 42
50.0
 43
0.0
 44
0.0
 50
0.0
 51
0.0
 71
     0
 72
   100
 73
     1
 74
     1
 75
     0
 76
     0
 77
     0
 78
     0
  0
ENDTAB
  0
TABLE
  2
LTYPE
 70
    48
  0
LTYPE
  2
CONTINUOUS
 70
     0
  3
Solid line
 72
    65
 73
     0
 40
0.0
  0
LTYPE
  2
BYGG-024800$0$NEWDOT
 70
     0
  3
____ . ____ . ____ . ____ . ____ . ____ . ____
 72
    65
 73
     4
 40
2.0
 49
1.0
 49
-0.5
 49
0.0
 49
-0.5
  0
LTYPE
  2
BYGG-024807$0$NEWDOT
 70
     0
  3
____ . ____ . ____ . ____ . ____ . ____ . ____
 72
    65
 73
     4
 40
2.0
 49
1.0
 49
-0.5
 49
0.0
 49
-0.5
  0
LTYPE
  2
BYGG-024807$0$DASHDOT
 70
     0
  3
__ . __ . __ . __ . __ . __ . __ . __ . __ . __
 72
    65
 73
     4
 40
1.0
 49
0.5
 49
-0.25
 49
0.0
 49
-0.25
  0
LTYPE
  2
BYGG-029754$0$NEWDOT
 70
     0
  3
____ . ____ . ____ . ____ . ____ . ____ . ____
 72
    65
 73
     4
 40
2.0
 49
1.0
 49
-0.5
 49
0.0
 49
-0.5
  0
LTYPE
  2
BYGG-029754$0$DASHDOT
 70
     0
  3
__ . __ . __ . __ . __ . __ . __ . __ . __ . __
 72
    65
 73
     4
 40
1.0
 49
0.5
 49
-0.25
 49
0.0
 49
-0.25
  0
LTYPE
  2
BYGG-029754$0$DASHED
 70
     0
  3
__ __ __ __ __ __ __ __ __ __ __ __ __ __ __
 72
    65
 73
     2
 40
0.75
 49
0.5
 49
-0.25
  0
LTYPE
  2
BYGG-029754$0$PHANTOM
 70
     0
  3
Phantom ______  __  __  ______  __  __  ______
 72
    65
 73
     6
 40
63.5
 49
31.75
 49
-6.3499999999999988
 49
6.3499999999999988
 49
-6.3499999999999988
 49
6.3499999999999988
 49
-6.3499999999999988
  0
LTYPE
  2
BYGG-00894401$0$DASHDOT
 70
     0
  3
__ . __ . __ . __ . __ . __ . __ . __ . __ . __
 72
    65
 73
     4
 40
1.0
 49
0.5
 49
-0.25
 49
0.0
 49
-0.25
  0
LTYPE
  2
BYGG-008943$0$DASHDOT
 70
     0
  3
__ . __ . __ . __ . __ . __ . __ . __ . __ . __
 72
    65
 73
     4
 40
1.0
 49
0.5
 49
-0.25
 49
0.0
 49
-0.25
  0
LTYPE
  2
BYGG-01409101$0$DASHDOT
 70
     0
  3
__ . __ . __ . __ . __ . __ . __ . __ . __ . __
 72
    65
 73
     4
 40
1.0
 49
0.5
 49
-0.25
 49
0.0
 49
-0.25
  0
LTYPE
  2
BYGG-01409101$0$HIDDEN
 70
     0
  3
_ _ _ _ _ _ _ _ _ _ _ _ _ _ _ _ _ _ _ _ _ _ _
 72
    65
 73
     2
 40
0.375
 49
0.25
 49
-0.125
  0
LTYPE
  2
BYGG-025052$0$NEWDOT
 70
     0
  3
____ . ____ . ____ . ____ . ____ . ____ . ____
 72
    65
 73
     4
 40
2.0
 49
1.0
 49
-0.5
 49
0.0
 49
-0.5
  0
LTYPE
  2
BYGG-025052$0$DASHDOT
 70
     0
  3
__ . __ . __ . __ . __ . __ . __ . __ . __ . __
 72
    65
 73
     4
 40
1.0
 49
0.5
 49
-0.25
 49
0.0
 49
-0.25
  0
LTYPE
  2
BYGG-024817$0$NEWDOT
 70
     0
  3
____ . ____ . ____ . ____ . ____ . ____ . ____
 72
    65
 73
     4
 40
2.0
 49
1.0
 49
-0.5
 49
0.0
 49
-0.5
  0
LTYPE
  2
BYGG-025652$0$NEWDOT
 70
     0
  3
____ . ____ . ____ . ____ . ____ . ____ . ____
 72
    65
 73
     4
 40
2.0
 49
1.0
 49
-0.5
 49
0.0
 49
-0.5
  0
LTYPE
  2
BYGG-025652$0$DASHDOT
 70
     0
  3
__ . __ . __ . __ . __ . __ . __ . __ . __ . __
 72
    65
 73
     4
 40
1.0
 49
0.5
 49
-0.25
 49
0.0
 49
-0.25
  0
LTYPE
  2
BYGG-025652$0$DASHED
 70
     0
  3
__ __ __ __ __ __ __ __ __ __ __ __ __ __ __
 72
    65
 73
     2
 40
0.75
 49
0.5
 49
-0.25
  0
LTYPE
  2
BYGG-025652$0$PHANTOM
 70
     0
  3
Phantom ______  __  __  ______  __  __  ______
 72
    65
 73
     6
 40
63.5
 49
31.75
 49
-6.3499999999999988
 49
6.3499999999999988
 49
-6.3499999999999988
 49
6.3499999999999988
 49
-6.3499999999999988
  0
LTYPE
  2
BYGG-014411$0$NEWDOT
 70
     0
  3
____ . ____ . ____ . ____ . ____ . ____ . ____
 72
    65
 73
     4
 40
2.0
 49
1.0
 49
-0.5
 49
0.0
 49
-0.5
  0
LTYPE
  2
BYGG-014411$0$ZIGZAG
 70
     0
  3
Zig zag /\/\/\/\/\/\/\/\/\/\/\/\/\/\/\/\/\/\/\/\/\/\/\/
 72
    65
 73
     4
 40
20.32254
 49
0.00254
 49
-5.0800000000000001
 49
-10.16
 49
-5.0800000000000001
  0
LTYPE
  2
BYGG-014196$0$DASHDOT
 70
     0
  3
__ . __ . __ . __ . __ . __ . __ . __ . __ . __
 72
    65
 73
     4
 40
1.0
 49
0.5
 49
-0.25
 49
0.0
 49
-0.25
  0
LTYPE
  2
BYGG-029021$0$NEWDOT
 70
     0
  3
____ . ____ . ____ . ____ . ____ . ____ . ____
 72
    65
 73
     4
 40
2.0
 49
1.0
 49
-0.5
 49
0.0
 49
-0.5
  0
LTYPE
  2
BYGG-029021$0$DASHDOT
 70
     0
  3
__ . __ . __ . __ . __ . __ . __ . __ . __ . __
 72
    65
 73
     4
 40
1.0
 49
0.5
 49
-0.25
 49
0.0
 49
-0.25
  0
LTYPE
  2
BYGG-029021$0$DASHED
 70
     0
  3
__ __ __ __ __ __ __ __ __ __ __ __ __ __ __
 72
    65
 73
     2
 40
0.75
 49
0.5
 49
-0.25
  0
LTYPE
  2
BYGG-029021$0$PHANTOM
 70
     0
  3
Phantom ______  __  __  ______  __  __  ______
 72
    65
 73
     6
 40
63.5
 49
31.75
 49
-6.3499999999999988
 49
6.3499999999999988
 49
-6.3499999999999988
 49
6.3499999999999988
 49
-6.3499999999999988
  0
LTYPE
  2
BYGG-029021$0$DASHED2
 70
     0
  3
_ _ _ _ _ _ _ _ _ _ _ _ _ _ _ _ _ _ _ _ _ _ _ _ _ _ _ _ _ _ _
 72
    65
 73
     2
 40
0.375
 49
0.25
 49
-0.125
  0
LTYPE
  2
BYGG-036387$0$NEWDOT
 70
     0
  3
____ . ____ . ____ . ____ . ____ . ____ . ____
 72
    65
 73
     4
 40
2.0
 49
1.0
 49
-0.5
 49
0.0
 49
-0.5
  0
LTYPE
  2
BYGG-036387$0$DASHDOT
 70
     0
  3
__ . __ . __ . __ . __ . __ . __ . __ . __ . __
 72
    65
 73
     4
 40
1.0
 49
0.5
 49
-0.25
 49
0.0
 49
-0.25
  0
LTYPE
  2
BYGG-036387$0$DASHED
 70
     0
  3
__ __ __ __ __ __ __ __ __ __ __ __ __ __ __
 72
    65
 73
     2
 40
0.75
 49
0.5
 49
-0.25
  0
LTYPE
  2
BYGG-036387$0$PHANTOM
 70
     0
  3
Phantom ______  __  __  ______  __  __  ______
 72
    65
 73
     6
 40
63.5
 49
31.75
 49
-6.3499999999999988
 49
6.3499999999999988
 49
-6.3499999999999988
 49
6.3499999999999988
 49
-6.3499999999999988
  0
LTYPE
  2
BYGG-036386$0$NEWDOT
 70
     0
  3
____ . ____ . ____ . ____ . ____ . ____ . ____
 72
    65
 73
     4
 40
2.0
 49
1.0
 49
-0.5
 49
0.0
 49
-0.5
  0
LTYPE
  2
BYGG-036386$0$ZIGZAG
 70
     0
  3
Zig zag /\/\/\/\/\/\/\/\/\/\/\/\/\/\/\/\/\/\/\/\/\/\/\/
 72
    65
 73
     4
 40
20.32254
 49
0.00254
 49
-5.0800000000000001
 49
-10.16
 49
-5.0800000000000001
  0
LTYPE
  2
BYGG-029754$0$PHANTOM2
 70
     0
  3
Phantom (.5x) ___ _ _ ___ _ _ ___ _ _ ___ _ _
 72
    65
 73
     6
 40
1.25
 49
0.625
 49
-0.125
 49
0.125
 49
-0.125
 49
0.125
 49
-0.125
  0
LTYPE
  2
BYGG-01409101$0$PHANTOM2
 70
     0
  3
Phantom (.5x) ___ _ _ ___ _ _ ___ _ _ ___ _ _
 72
    65
 73
     6
 40
1.25
 49
0.625
 49
-0.125
 49
0.125
 49
-0.125
 49
0.125
 49
-0.125
  0
LTYPE
  2
BYGG-035487$0$BYGG-025060|NEWDOT
 70
     0
  3
____ . ____ . ____ . ____ . ____ . ____ . ____
 72
    65
 73
     4
 40
2.0
 49
1.0
 49
-0.5
 49
0.0
 49
-0.5
  0
LTYPE
  2
BYGG-035487$0$BYGG-024800|NEWDOT
 70
     0
  3
____ . ____ . ____ . ____ . ____ . ____ . ____
 72
    65
 73
     4
 40
2.0
 49
1.0
 49
-0.5
 49
0.0
 49
-0.5
  0
LTYPE
  2
BYGG-035487$0$BYGG-024807|NEWDOT
 70
     0
  3
____ . ____ . ____ . ____ . ____ . ____ . ____
 72
    65
 73
     4
 40
2.0
 49
1.0
 49
-0.5
 49
0.0
 49
-0.5
  0
LTYPE
  2
BYGG-035487$0$BYGG-0248070
 70
     0
  3
__ . __ . __ . __ . __ . __ . __ . __ . __ . __
 72
    65
 73
     4
 40
1.0
 49
0.5
 49
-0.25
 49
0.0
 49
-0.25
  0
LTYPE
  2
BYGG-024817$0$DASHDOT
 70
     0
  3
__ . __ . __ . __ . __ . __ . __ . __ . __ . __
 72
    65
 73
     4
 40
1.0
 49
0.5
 49
-0.25
 49
0.0
 49
-0.25
  0
LTYPE
  2
BYGG-014090$0$PHANTOM2
 70
     0
  3
Phantom (.5x) ___ _ _ ___ _ _ ___ _ _ ___ _ _
 72
    65
 73
     6
 40
1.25
 49
0.625
 49
-0.125
 49
0.125
 49
-0.125
 49
0.125
 49
-0.125
  0
LTYPE
  2
BYGG-025652$0$PHANTOM2
 70
     0
  3
Phantom (.5x) ___ _ _ ___ _ _ ___ _ _ ___ _ _
 72
    65
 73
     6
 40
1.25
 49
0.625
 49
-0.125
 49
0.125
 49
-0.125
 49
0.125
 49
-0.125
  0
LTYPE
  2
BYGG-014411$0$PHANTOM2
 70
     0
  3
Phantom (.5x) ___ _ _ ___ _ _ ___ _ _ ___ _ _
 72
    65
 73
     6
 40
1.25
 49
0.625
 49
-0.125
 49
0.125
 49
-0.125
 49
0.125
 49
-0.125
  0
LTYPE
  2
BYGG-014088$0$PHANTOM2
 70
     0
  3
Phantom (.5x) ___ _ _ ___ _ _ ___ _ _ ___ _ _
 72
    65
 73
     6
 40
1.25
 49
0.625
 49
-0.125
 49
0.125
 49
-0.125
 49
0.125
 49
-0.125
  0
LTYPE
  2
BYGG-021358$0$PHANTOM2
 70
     0
  3
___ _ _ ___ _ _ ___ _ _ ___ _ _
 72
    65
 73
     6
 40
1.25
 49
0.625
 49
-0.125
 49
0.125
 49
-0.125
 49
0.125
 49
-0.125
  0
LTYPE
  2
BYGG-014196$0$PHANTOM2
 70
     0
  3
Phantom (.5x) ___ _ _ ___ _ _ ___ _ _ ___ _ _
 72
    65
 73
     6
 40
1.25
 49
0.625
 49
-0.125
 49
0.125
 49
-0.125
 49
0.125
 49
-0.125
  0
LTYPE
  2
BYGG-029021$0$PHANTOM2
 70
     0
  3
Phantom (.5x) ___ _ _ ___ _ _ ___ _ _ ___ _ _
 72
    65
 73
     6
 40
1.25
 49
0.625
 49
-0.125
 49
0.125
 49
-0.125
 49
0.125
 49
-0.125
  0
LTYPE
  2
BYGG-024800$0$DASHDOT
 70
     0
  3
__ . __ . __ . __ . __ . __ . __ . __ . __ . __
 72
    65
 73
     4
 40
1.0
 49
0.5
 49
-0.25
 49
0.0
 49
-0.25
  0
ENDTAB
  0
TABLE
  2
LAYER
 70
   218
  0
LAYER
  2
0
 70
     0
 62
     7
  6
CONTINUOUS
  0
LAYER
  2
DEFPOINTS
 70
     0
 62
     7
  6
CONTINUOUS
  0
LAYER
  2
SAPA_ARTIKELNR
 70
     0
 62
     4
  6
CONTINUOUS
  0
LAYER
  2
SAPA_ANSLUTNING
 70
     0
 62
     6
  6
CONTINUOUS
  0
LAYER
  2
SAPA_MATT
 70
     0
 62
     1
  6
CONTINUOUS
  0
LAYER
  2
SAPA_GLAS
 70
     0
 62
     4
  6
CONTINUOUS
  0
LAYER
  2
SAPA_FOGBAND
 70
     0
 62
     2
  6
CONTINUOUS
  0
LAYER
  2
SAPA_PROFIL
 70
     0
 62
     7
  6
CONTINUOUS
  0
ENDTAB
  0
TABLE
  2
STYLE
 70
    52
  0
STYLE
  2
STANDARD
 70
     0
 40
0.0
 41
1.0
 50
0.0
 71
     0
 42
0.2
  3
txt
  4

  0
STYLE
  2
ISO
 70
     0
 40
0.0
 41
1.0
 50
0.0
 71
     0
 42
3.5
  3
txt
  4

  0
STYLE
  2

 70
     1
 40
0.0
 41
1.0
 50
0.0
 71
     0
 42
0.2
  3
ltypeshp.shx
  4

  0
STYLE
  2
BYGG-029754$0$STANDARD
 70
     0
 40
0.0
 41
1.0
 50
0.0
 71
     0
 42
0.2
  3
txt
  4

  0
STYLE
  2
BYGG-029754$0$ISO
 70
     0
 40
0.0
 41
1.0
 50
0.0
 71
     0
 42
3.5
  3
txt
  4

  0
STYLE
  2
BYGG-00894401$0$STANDARD
 70
     0
 40
0.0
 41
1.0
 50
0.0
 71
     0
 42
0.2
  3
txt
  4

  0
STYLE
  2
BYGG-00894401$0$ISO
 70
     0
 40
0.0
 41
1.0
 50
0.0
 71
     0
 42
3.5
  3
txt
  4

  0
STYLE
  2
BYGG-00894401$0$CONVERTER_
 70
     0
 40
0.0
 41
0.72
 50
0.0
 71
     0
 42
0.2
  3
txt.shx
  4

  0
STYLE
  2
BYGG-00894401$0$ANNOTATIVE
 70
     0
 40
0.0
 41
1.0
 50
0.0
 71
     0
 42
0.2
  3
txt
  4

  0
STYLE
  2
BYGG-008943$0$STANDARD
 70
     0
 40
0.0
 41
1.0
 50
0.0
 71
     0
 42
0.2
  3
txt
  4

  0
STYLE
  2
BYGG-008943$0$ISO
 70
     0
 40
0.0
 41
1.0
 50
0.0
 71
     0
 42
3.5
  3
txt
  4

  0
STYLE
  2
BYGG-008943$0$CONVERTER_2
 70
     0
 40
0.0
 41
0.72
 50
0.0
 71
     0
 42
0.2
  3
txt.shx
  4

  0
STYLE
  2
BYGG-008943$0$ANNOTATIVE
 70
     0
 40
0.0
 41
1.0
 50
0.0
 71
     0
 42
0.2
  3
txt
  4

  0
STYLE
  2
BYGG-028980$0$STANDARD
 70
     0
 40
0.0
 41
1.0
 50
0.0
 71
     0
 42
0.2
  3
txt
  4

  0
STYLE
  2
BYGG-028980$0$ISO
 70
     0
 40
0.0
 41
1.0
 50
0.0
 71
     0
 42
3.5
  3
txt
  4

  0
STYLE
  2
BYGG-01409101$0$STANDARD
 70
     0
 40
0.0
 41
1.0
 50
0.0
 71
     0
 42
0.4
  3
txt
  4

  0
STYLE
  2
BYGG-01409101$0$SIMPLEX
 70
     0
 40
0.0
 41
1.0
 50
0.0
 71
     0
 42
0.2
  3
simplex
  4

  0
STYLE
  2
BYGG-035487$0$STANDARD
 70
     0
 40
0.0
 41
1.0
 50
0.0
 71
     0
 42
0.2
  3
txt
  4

  0
STYLE
  2
BYGG-035487$0$ISO
 70
     0
 40
0.0
 41
1.0
 50
0.0
 71
     0
 42
3.5
  3
txt
  4

  0
STYLE
  2
BYGG-025052$0$STANDARD
 70
     0
 40
0.0
 41
1.0
 50
0.0
 71
     0
 42
0.2
  3
txt
  4

  0
STYLE
  2
BYGG-025052$0$ISO
 70
     0
 40
0.0
 41
1.0
 50
0.0
 71
     0
 42
3.5
  3
txt
  4

  0
STYLE
  2
BYGG-024817$0$STANDARD
 70
     0
 40
0.0
 41
1.0
 50
0.0
 71
     0
 42
0.2
  3
txt
  4

  0
STYLE
  2
BYGG-024817$0$ISO
 70
     0
 40
0.0
 41
1.0
 50
0.0
 71
     0
 42
3.5
  3
txt
  4

  0
STYLE
  2
BYGG-014090$0$STANDARD
 70
     0
 40
0.0
 41
1.0
 50
0.0
 71
     0
 42
0.2
  3
txt
  4

  0
STYLE
  2
BYGG-014090$0$SIMPLEX
 70
     0
 40
0.0
 41
1.0
 50
0.0
 71
     0
 42
0.2
  3
simplex
  4

  0
STYLE
  2
BYGG-025652$0$STANDARD
 70
     0
 40
0.0
 41
1.0
 50
0.0
 71
     0
 42
0.2
  3
txt
  4

  0
STYLE
  2
BYGG-025652$0$ISO
 70
     0
 40
0.0
 41
1.0
 50
0.0
 71
     0
 42
3.5
  3
txt
  4

  0
STYLE
  2
BYGG-025652$0$ANNOTATIVE
 70
     0
 40
0.0
 41
1.0
 50
0.0
 71
     0
 42
0.2
  3
txt
  4

  0
STYLE
  2
BYGG-014411$0$STANDARD
 70
     0
 40
0.0
 41
1.0
 50
0.0
 71
     0
 42
0.2
  3
txt
  4

  0
STYLE
  2
BYGG-014411$0$ISO
 70
     0
 40
0.0
 41
1.0
 50
0.0
 71
     0
 42
3.5
  3
isocp3.shx
  4

  0
STYLE
  2
BYGG-014088$0$STANDARD
 70
     0
 40
0.0
 41
1.0
 50
0.0
 71
     0
 42
0.4
  3
txt
  4

  0
STYLE
  2
BYGG-021358$0$STANDARD
 70
     0
 40
0.0
 41
1.0
 50
0.0
 71
     0
 42
0.2
  3
txt
  4

  0
STYLE
  2
BYGG-014196$0$STANDARD
 70
     0
 40
0.0
 41
1.0
 50
0.0
 71
     0
 42
0.2
  3
txt
  4

  0
STYLE
  2
BYGG-014196$0$ISO
 70
     0
 40
0.0
 41
1.0
 50
0.0
 71
     0
 42
3.5
  3
isocp3.shx
  4

  0
STYLE
  2
BYGG-015465$0$STANDARD
 70
     0
 40
0.0
 41
1.0
 50
0.0
 71
     0
 42
0.2
  3
txt
  4

  0
STYLE
  2
BYGG-015465$0$ISO
 70
     0
 40
0.0
 41
1.0
 50
0.0
 71
     0
 42
3.5
  3
txt
  4

  0
STYLE
  2
BYGG-01443301$0$STANDARD
 70
     0
 40
0.0
 41
1.0
 50
0.0
 71
     0
 42
0.2
  3
txt
  4

  0
STYLE
  2
BYGG-01443301$0$ISO
 70
     0
 40
0.0
 41
1.0
 50
0.0
 71
     0
 42
3.5
  3
isocp3.shx
  4

  0
STYLE
  2
BYGG-029021$0$STANDARD
 70
     0
 40
0.0
 41
1.0
 50
0.0
 71
     0
 42
0.2
  3
txt
  4

  0
STYLE
  2
BYGG-029021$0$ISO
 70
     0
 40
0.0
 41
1.0
 50
0.0
 71
     0
 42
3.5
  3
txt
  4

  0
STYLE
  2
BYGG-029021$0$ANNOTATION
 70
     0
 40
0.0
 41
1.0
 50
0.0
 71
     0
 42
0.2
  3
txt
  4

  0
STYLE
  2
BYGG-029021$0$COTATION
 70
     0
 40
0.0
 41
1.0
 50
0.0
 71
     0
 42
0.2
  3
txt
  4

  0
STYLE
  2
BYGG-029021$0$ANNOTATIVE
 70
     0
 40
0.0
 41
1.0
 50
0.0
 71
     0
 42
0.2
  3
txt
  4

  0
STYLE
  2
BYGG-024800$0$STANDARD
 70
     0
 40
0.0
 41
1.0
 50
0.0
 71
     0
 42
0.2
  3
txt
  4

  0
STYLE
  2
BYGG-024800$0$ISO
 70
     0
 40
0.0
 41
1.0
 50
0.0
 71
     0
 42
3.5
  3
txt
  4

  0
STYLE
  2
BYGG-024807$0$STANDARD
 70
     0
 40
0.0
 41
1.0
 50
0.0
 71
     0
 42
0.2
  3
txt
  4

  0
STYLE
  2
BYGG-024807$0$ISO
 70
     0
 40
0.0
 41
1.0
 50
0.0
 71
     0
 42
3.5
  3
txt
  4

  0
STYLE
  2
BYGG-024807$0$ANNOTATIVE
 70
     0
 40
0.0
 41
1.0
 50
0.0
 71
     0
 42
0.2
  3
txt
  4

  0
STYLE
  2
BYGG-036387$0$STANDARD
 70
     0
 40
0.0
 41
1.0
 50
0.0
 71
     0
 42
0.2
  3
txt
  4

  0
STYLE
  2
BYGG-036387$0$ISO
 70
     0
 40
0.0
 41
1.0
 50
0.0
 71
     0
 42
3.5
  3
txt
  4

  0
STYLE
  2
BYGG-036386$0$STANDARD
 70
     0
 40
0.0
 41
1.0
 50
0.0
 71
     0
 42
0.2
  3
txt
  4

  0
STYLE
  2
BYGG-036386$0$ISO
 70
     0
 40
0.0
 41
1.0
 50
0.0
 71
     0
 42
3.5
  3
txt
  4

  0
ENDTAB
  0
TABLE
  2
VIEW
 70
     0
  0
ENDTAB
  0
TABLE
  2
UCS
 70
     0
  0
ENDTAB
  0
TABLE
  2
APPID
 70
    34
  0
APPID
  2
ACAD
 70
     0
  0
APPID
  2
ACAD_DSTYLE_DIMTEXT_FILL
 70
     0
  0
APPID
  2
ACAD_DSTYLE_DIMEXT_LENGTH
 70
     0
  0
APPID
  2
ACAD_DSTYLE_DIMEXT_ENABLED
 70
     0
  0
APPID
  2
ACAD_DSTYLE_DIM_LINETYPE
 70
     0
  0
APPID
  2
ACAD_DSTYLE_DIM_EXT1_LINETYPE
 70
     0
  0
APPID
  2
ACAD_DSTYLE_DIM_EXT2_LINETYPE
 70
     0
  0
APPID
  2
ACAD_DSTYLE_DIMJOGGED_JOGA
 70
     0
  0
APPID
  2
ACAD_DSTYLE_DIMARC_LENGTH_
 70
     0
  0
APPID
  2
ACAD_PSEXT
 70
     0
  0
APPID
  2
ACAD_MLEADERVER
 70
     0
  0
APPID
  2
ACAD_NAV_VCDISPLAY
 70
     0
  0
APPID
  2
ACAD_EXEMPT_FROM_CAD_STANDARDS
 70
     0
  0
APPID
  2
ACAD_DSTYLE_DIMJAG
 70
     0
  0
APPID
  2
ACAD_DSTYLE_DIMTALN
 70
     0
  0
APPID
  2
ACAECLAYERSTANDARD
 70
     0
  0
APPID
  2
ACDBDYNAMICBLOCKGUID
 70
     0
  0
APPID
  2
ACDBBLOCKREPETAG
 70
     0
  0
APPID
  2
ACADANNOTATIVE
 70
     0
  0
APPID
  2
RC_PROFILE
 70
     0
  0
APPID
  2
ACAD_DSTYLE_DIMRADIAL_EXTENSION
 70
     0
  0
APPID
  2
ACAD_OBJECT_CHANGE_GUID
 70
     0
  0
APPID
  2
ACCMTRANSPARENCY
 70
     0
  0
APPID
  2
AVE_RENDER
 70
     0
  0
APPID
  2
AVE_ENTITY_MATERIAL
 70
     0
  0
APPID
  2
AVE_FINISH
 70
     0
  0
APPID
  2
AVE_MATERIAL
 70
     0
  0
APPID
  2
AVE_GLOBAL
 70
     0
  0
APPID
  2
4M_RENDER
 70
     0
  0
APPID
  2
LIBMAN
 70
     0
  0
APPID
  2
AUTOBUILD
 70
     0
  0
APPID
  2
AMG_ARCHIVE11
 70
     0
  0
APPID
  2
ACADANNOMONITORALERTICONDI
 70
     0
  0
APPID
  2
AEC_XDATA_BOUND_SPACE
 70
     0
  0
ENDTAB
  0
TABLE
  2
DIMSTYLE
 70
    45
  0
DIMSTYLE
  2
STANDARD
 70
     0
  3

  4

  5

  6

  7

 40
1.0
 41
0.18
 42
0.0625
 43
0.38
 44
0.18
 45
0.0
 46
0.0
 47
0.0
 48
0.0
140
0.18
141
0.09
142
0.0
143
25.399999999999999
144
1.0
145
0.0
146
1.0
147
0.09
 71
     0
 72
     0
 73
     1
 74
     1
 75
     0
 76
     0
 77
     0
 78
     0
170
     0
171
     2
172
     0
173
     0
174
     0
175
     0
176
     0
177
     0
178
     0
  0
DIMSTYLE
  2
MASKIN
 70
     0
  3

  4

  5

  6

  7

 40
0.0
 41
3.0
 42
1.5
 43
10.0
 44
1.5
 45
0.0
 46
0.0
 47
0.0
 48
0.0
140
3.0
141
-5.0
142
0.0
143
25.399999999999999
144
-1.0
145
0.0
146
1.0
147
1.0
 71
     0
 72
     0
 73
     0
 74
     0
 75
     0
 76
     0
 77
     1
 78
     8
170
     0
171
     0
172
     1
173
     0
174
     0
175
     0
176
   256
177
   256
178
     2
  0
DIMSTYLE
  2
BYGG-029754$0$STANDARD
 70
     0
  3

  4

  5

  6

  7

 40
1.0
 41
0.18
 42
0.0625
 43
0.38
 44
0.18
 45
0.0
 46
0.0
 47
0.0
 48
0.0
140
0.18
141
0.09
142
0.0
143
25.399999999999999
144
1.0
145
0.0
146
1.0
147
0.09
 71
     0
 72
     0
 73
     1
 74
     1
 75
     0
 76
     0
 77
     0
 78
     0
170
     0
171
     2
172
     0
173
     0
174
     0
175
     0
176
     0
177
     0
178
     0
  0
DIMSTYLE
  2
BYGG-029754$0$MASKIN
 70
     0
  3

  4

  5

  6

  7

 40
0.0
 41
3.0
 42
1.5
 43
10.0
 44
1.5
 45
0.0
 46
0.0
 47
0.0
 48
0.0
140
3.0
141
-5.0
142
0.0
143
25.399999999999999
144
-1.0
145
0.0
146
1.0
147
1.0
 71
     0
 72
     0
 73
     0
 74
     0
 75
     0
 76
     0
 77
     1
 78
     8
170
     0
171
     0
172
     1
173
     0
174
     0
175
     0
176
   256
177
   256
178
     2
  0
DIMSTYLE
  2
BYGG-00894401$0$MASKIN
 70
     0
  3

  4

  5

  6

  7

 40
0.0
 41
3.0
 42
1.5
 43
10.0
 44
1.5
 45
0.0
 46
0.0
 47
0.0
 48
0.0
140
3.0
141
-5.0
142
0.0
143
25.399999999999999
144
-1.0
145
0.0
146
1.0
147
1.0
 71
     0
 72
     0
 73
     0
 74
     0
 75
     0
 76
     0
 77
     1
 78
     8
170
     0
171
     0
172
     1
173
     0
174
     0
175
     0
176
   256
177
   256
178
     2
  0
DIMSTYLE
  2
BYGG-00894401$0$STANDARD
 70
     0
  3

  4

  5

  6

  7

 40
1.0
 41
0.18
 42
0.0625
 43
0.38
 44
0.18
 45
0.0
 46
0.0
 47
0.0
 48
0.0
140
0.18
141
0.09
142
0.0
143
25.399999999999999
144
1.0
145
0.0
146
1.0
147
0.09
 71
     0
 72
     0
 73
     1
 74
     1
 75
     0
 76
     0
 77
     0
 78
     0
170
     0
171
     2
172
     0
173
     0
174
     0
175
     0
176
     0
177
     0
178
     0
  0
DIMSTYLE
  2
BYGG-00894401$0$ANNOTATIVE
 70
     0
  3

  4

  5

  6

  7

 40
1.0
 41
0.18
 42
0.0625
 43
0.38
 44
0.18
 45
0.0
 46
0.0
 47
0.0
 48
0.0
140
0.18
141
0.09
142
0.0
143
25.399999999999999
144
1.0
145
0.0
146
1.0
147
0.09
 71
     0
 72
     0
 73
     1
 74
     1
 75
     0
 76
     0
 77
     0
 78
     0
170
     0
171
     2
172
     0
173
     0
174
     0
175
     0
176
     0
177
     0
178
     0
  0
DIMSTYLE
  2
BYGG-008943$0$MASKIN
 70
     0
  3

  4

  5

  6

  7

 40
0.0
 41
3.0
 42
1.5
 43
10.0
 44
1.5
 45
0.0
 46
0.0
 47
0.0
 48
0.0
140
3.0
141
-5.0
142
0.0
143
25.399999999999999
144
-1.0
145
0.0
146
1.0
147
1.0
 71
     0
 72
     0
 73
     0
 74
     0
 75
     0
 76
     0
 77
     1
 78
     8
170
     0
171
     0
172
     1
173
     0
174
     0
175
     0
176
   256
177
   256
178
     2
  0
DIMSTYLE
  2
BYGG-008943$0$STANDARD
 70
     0
  3

  4

  5

  6

  7

 40
1.0
 41
0.18
 42
0.0625
 43
0.38
 44
0.18
 45
0.0
 46
0.0
 47
0.0
 48
0.0
140
0.18
141
0.09
142
0.0
143
25.399999999999999
144
1.0
145
0.0
146
1.0
147
0.09
 71
     0
 72
     0
 73
     1
 74
     1
 75
     0
 76
     0
 77
     0
 78
     0
170
     0
171
     2
172
     0
173
     0
174
     0
175
     0
176
     0
177
     0
178
     0
  0
DIMSTYLE
  2
BYGG-008943$0$ANNOTATIVE
 70
     0
  3

  4

  5

  6

  7

 40
1.0
 41
0.18
 42
0.0625
 43
0.38
 44
0.18
 45
0.0
 46
0.0
 47
0.0
 48
0.0
140
0.18
141
0.09
142
0.0
143
25.399999999999999
144
1.0
145
0.0
146
1.0
147
0.09
 71
     0
 72
     0
 73
     1
 74
     1
 75
     0
 76
     0
 77
     0
 78
     0
170
     0
171
     2
172
     0
173
     0
174
     0
175
     0
176
     0
177
     0
178
     0
  0
DIMSTYLE
  2
BYGG-028980$0$STANDARD
 70
     0
  3

  4

  5

  6

  7

 40
1.0
 41
0.18
 42
0.0625
 43
0.38
 44
0.18
 45
0.0
 46
0.0
 47
0.0
 48
0.0
140
0.18
141
0.09
142
0.0
143
25.399999999999999
144
1.0
145
0.0
146
1.0
147
0.09
 71
     0
 72
     0
 73
     1
 74
     1
 75
     0
 76
     0
 77
     0
 78
     0
170
     0
171
     2
172
     0
173
     0
174
     0
175
     0
176
     0
177
     0
178
     0
  0
DIMSTYLE
  2
BYGG-028980$0$MASKIN
 70
     0
  3

  4

  5

  6

  7

 40
0.0
 41
3.0
 42
1.5
 43
10.0
 44
1.5
 45
0.0
 46
0.0
 47
0.0
 48
0.0
140
3.0
141
-5.0
142
0.0
143
25.399999999999999
144
-1.0
145
0.0
146
1.0
147
1.0
 71
     0
 72
     0
 73
     0
 74
     0
 75
     0
 76
     0
 77
     1
 78
     8
170
     0
171
     0
172
     1
173
     0
174
     0
175
     0
176
   256
177
   256
178
     2
  0
DIMSTYLE
  2
BYGG-01409101$0$STANDARD
 70
     0
  3

  4

  5

  6

  7

 40
1.0
 41
0.18
 42
0.0625
 43
0.38
 44
0.18
 45
0.0
 46
0.0
 47
0.0
 48
0.0
140
0.18
141
0.09
142
0.0
143
25.399999999999999
144
1.0
145
0.0
146
1.0
147
0.09
 71
     0
 72
     0
 73
     1
 74
     1
 75
     0
 76
     0
 77
     0
 78
     0
170
     0
171
     2
172
     0
173
     0
174
     0
175
     0
176
     0
177
     0
178
     0
  0
DIMSTYLE
  2
BYGG-035487$0$STANDARD
 70
     0
  3

  4

  5

  6

  7

 40
1.0
 41
0.18
 42
0.0625
 43
0.38
 44
0.18
 45
0.0
 46
0.0
 47
0.0
 48
0.0
140
0.18
141
0.09
142
0.0
143
25.399999999999999
144
1.0
145
0.0
146
1.0
147
0.09
 71
     0
 72
     0
 73
     1
 74
     1
 75
     0
 76
     0
 77
     0
 78
     0
170
     0
171
     2
172
     0
173
     0
174
     0
175
     0
176
     0
177
     0
178
     0
  0
DIMSTYLE
  2
BYGG-035487$0$MASKIN
 70
     0
  3

  4

  5

  6

  7

 40
0.0
 41
3.0
 42
1.5
 43
10.0
 44
1.5
 45
0.0
 46
0.0
 47
0.0
 48
0.0
140
3.0
141
-5.0
142
0.0
143
25.399999999999999
144
-1.0
145
0.0
146
1.0
147
1.0
 71
     0
 72
     0
 73
     0
 74
     0
 75
     0
 76
     0
 77
     1
 78
     8
170
     0
171
     0
172
     1
173
     0
174
     0
175
     0
176
   256
177
   256
178
     2
  0
DIMSTYLE
  2
BYGG-025052$0$MASKIN
 70
     0
  3

  4

  5

  6

  7

 40
0.0
 41
3.0
 42
1.5
 43
10.0
 44
1.5
 45
0.0
 46
0.0
 47
0.0
 48
0.0
140
3.0
141
-5.0
142
0.0
143
25.399999999999999
144
-1.0
145
0.0
146
1.0
147
1.0
 71
     0
 72
     0
 73
     0
 74
     0
 75
     0
 76
     0
 77
     1
 78
     8
170
     0
171
     0
172
     1
173
     0
174
     0
175
     0
176
   256
177
   256
178
     2
  0
DIMSTYLE
  2
BYGG-025052$0$STANDARD
 70
     0
  3

  4

  5

  6

  7

 40
1.0
 41
0.18
 42
0.0625
 43
0.38
 44
0.18
 45
0.0
 46
0.0
 47
0.0
 48
0.0
140
0.18
141
0.09
142
0.0
143
25.399999999999999
144
1.0
145
0.0
146
1.0
147
0.09
 71
     0
 72
     0
 73
     1
 74
     1
 75
     0
 76
     0
 77
     0
 78
     0
170
     0
171
     2
172
     0
173
     0
174
     0
175
     0
176
     0
177
     0
178
     0
  0
DIMSTYLE
  2
BYGG-024817$0$MASKIN
 70
     0
  3

  4

  5

  6

  7

 40
0.0
 41
3.0
 42
1.5
 43
10.0
 44
1.5
 45
0.0
 46
0.0
 47
0.0
 48
0.0
140
3.0
141
-5.0
142
0.0
143
25.399999999999999
144
-1.0
145
0.0
146
1.0
147
1.0
 71
     0
 72
     0
 73
     0
 74
     0
 75
     0
 76
     0
 77
     1
 78
     8
170
     0
171
     0
172
     1
173
     0
174
     0
175
     0
176
   256
177
   256
178
     2
  0
DIMSTYLE
  2
BYGG-024817$0$STANDARD
 70
     0
  3

  4

  5

  6

  7

 40
1.0
 41
0.18
 42
0.0625
 43
0.38
 44
0.18
 45
0.0
 46
0.0
 47
0.0
 48
0.0
140
0.18
141
0.09
142
0.0
143
25.399999999999999
144
1.0
145
0.0
146
1.0
147
0.09
 71
     0
 72
     0
 73
     1
 74
     1
 75
     0
 76
     0
 77
     0
 78
     0
170
     0
171
     2
172
     0
173
     0
174
     0
175
     0
176
     0
177
     0
178
     0
  0
DIMSTYLE
  2
BYGG-014090$0$STANDARD
 70
     0
  3

  4

  5

  6

  7

 40
1.0
 41
0.18
 42
0.0625
 43
0.38
 44
0.18
 45
0.0
 46
0.0
 47
0.0
 48
0.0
140
0.18
141
0.09
142
0.0
143
25.399999999999999
144
1.0
145
0.0
146
1.0
147
0.09
 71
     0
 72
     0
 73
     1
 74
     1
 75
     0
 76
     0
 77
     0
 78
     0
170
     0
171
     2
172
     0
173
     0
174
     0
175
     0
176
     0
177
     0
178
     0
  0
DIMSTYLE
  2
BYGG-025652$0$STANDARD
 70
     0
  3

  4

  5

  6

  7

 40
1.0
 41
0.18
 42
0.0625
 43
0.38
 44
0.18
 45
0.0
 46
0.0
 47
0.0
 48
0.0
140
0.18
141
0.09
142
0.0
143
25.399999999999999
144
1.0
145
0.0
146
1.0
147
0.09
 71
     0
 72
     0
 73
     1
 74
     1
 75
     0
 76
     0
 77
     0
 78
     0
170
     0
171
     2
172
     0
173
     0
174
     0
175
     0
176
     0
177
     0
178
     0
  0
DIMSTYLE
  2
BYGG-025652$0$MASKIN
 70
     0
  3

  4

  5

  6

  7

 40
0.0
 41
3.0
 42
1.5
 43
10.0
 44
1.5
 45
0.0
 46
0.0
 47
0.0
 48
0.0
140
3.0
141
-5.0
142
0.0
143
25.399999999999999
144
-1.0
145
0.0
146
1.0
147
1.0
 71
     0
 72
     0
 73
     0
 74
     0
 75
     0
 76
     0
 77
     1
 78
     8
170
     0
171
     0
172
     1
173
     0
174
     0
175
     0
176
   256
177
   256
178
     2
  0
DIMSTYLE
  2
BYGG-025652$0$ANNOTATIVE
 70
     0
  3

  4

  5

  6

  7

 40
1.0
 41
0.18
 42
0.0625
 43
0.38
 44
0.18
 45
0.0
 46
0.0
 47
0.0
 48
0.0
140
0.18
141
0.09
142
0.0
143
25.399999999999999
144
1.0
145
0.0
146
1.0
147
0.09
 71
     0
 72
     0
 73
     1
 74
     1
 75
     0
 76
     0
 77
     0
 78
     0
170
     0
171
     2
172
     0
173
     0
174
     0
175
     0
176
     0
177
     0
178
     0
  0
DIMSTYLE
  2
BYGG-014411$0$MASKIN
 70
     0
  3

  4

  5

  6

  7

 40
0.0
 41
3.0
 42
1.5
 43
10.0
 44
1.5
 45
0.0
 46
0.0
 47
0.0
 48
0.0
140
3.0
141
-5.0
142
0.0
143
25.399999999999999
144
-1.0
145
0.0
146
1.0
147
1.0
 71
     0
 72
     0
 73
     0
 74
     0
 75
     0
 76
     0
 77
     1
 78
     8
170
     0
171
     0
172
     1
173
     0
174
     0
175
     0
176
   256
177
   256
178
   256
  0
DIMSTYLE
  2
BYGG-014411$0$STANDARD
 70
     0
  3

  4

  5

  6

  7

 40
1.0
 41
0.18
 42
0.0625
 43
0.38
 44
0.18
 45
0.0
 46
0.0
 47
0.0
 48
0.0
140
0.18
141
0.09
142
0.0
143
25.399999999999999
144
1.0
145
0.0
146
1.0
147
0.09
 71
     0
 72
     0
 73
     1
 74
     1
 75
     0
 76
     0
 77
     0
 78
     0
170
     0
171
     2
172
     0
173
     0
174
     0
175
     0
176
     0
177
     0
178
     0
  0
DIMSTYLE
  2
BYGG-014088$0$STANDARD
 70
     0
  3

  4

  5

  6

  7

 40
1.0
 41
0.18
 42
0.0625
 43
0.38
 44
0.18
 45
0.0
 46
0.0
 47
0.0
 48
0.0
140
0.18
141
0.09
142
0.0
143
25.399999999999999
144
1.0
145
0.0
146
1.0
147
0.09
 71
     0
 72
     0
 73
     1
 74
     1
 75
     0
 76
     0
 77
     0
 78
     0
170
     0
171
     2
172
     0
173
     0
174
     0
175
     0
176
     0
177
     0
178
     0
  0
DIMSTYLE
  2
BYGG-021358$0$STANDARD
 70
     0
  3

  4

  5

  6

  7

 40
1.0
 41
0.18
 42
0.0625
 43
0.38
 44
0.18
 45
0.0
 46
0.0
 47
0.0
 48
0.0
140
0.18
141
0.09
142
0.0
143
25.399999999999999
144
1.0
145
0.0
146
1.0
147
0.09
 71
     0
 72
     0
 73
     1
 74
     1
 75
     0
 76
     0
 77
     0
 78
     0
170
     0
171
     2
172
     0
173
     0
174
     0
175
     0
176
     0
177
     0
178
     0
  0
DIMSTYLE
  2
BYGG-014196$0$MASKIN
 70
     0
  3

  4

  5

  6

  7

 40
0.0
 41
3.0
 42
1.5
 43
10.0
 44
1.5
 45
0.0
 46
0.0
 47
0.0
 48
0.0
140
3.0
141
-5.0
142
0.0
143
25.399999999999999
144
-1.0
145
0.0
146
1.0
147
1.0
 71
     0
 72
     0
 73
     0
 74
     0
 75
     0
 76
     0
 77
     1
 78
     8
170
     0
171
     0
172
     1
173
     0
174
     0
175
     0
176
   256
177
   256
178
   256
  0
DIMSTYLE
  2
BYGG-015465$0$STANDARD
 70
     0
  3

  4

  5

  6

  7

 40
1.0
 41
0.18
 42
0.0625
 43
0.38
 44
0.18
 45
0.0
 46
0.0
 47
0.0
 48
0.0
140
0.18
141
0.09
142
0.0
143
25.399999999999999
144
1.0
145
0.0
146
1.0
147
0.09
 71
     0
 72
     0
 73
     1
 74
     1
 75
     0
 76
     0
 77
     0
 78
     0
170
     0
171
     2
172
     0
173
     0
174
     0
175
     0
176
     0
177
     0
178
     0
  0
DIMSTYLE
  2
BYGG-015465$0$MASKIN
 70
     0
  3

  4

  5

  6

  7

 40
0.0
 41
3.0
 42
1.5
 43
10.0
 44
1.5
 45
0.0
 46
0.0
 47
0.0
 48
0.0
140
3.0
141
-5.0
142
0.0
143
25.399999999999999
144
-1.0
145
0.0
146
1.0
147
1.0
 71
     0
 72
     0
 73
     0
 74
     0
 75
     0
 76
     0
 77
     1
 78
     8
170
     0
171
     0
172
     1
173
     0
174
     0
175
     0
176
   256
177
   256
178
     2
  0
DIMSTYLE
  2
BYGG-01443301$0$MASKIN
 70
     0
  3

  4

  5

  6

  7

 40
0.0
 41
3.0
 42
1.5
 43
10.0
 44
1.5
 45
0.0
 46
0.0
 47
0.0
 48
0.0
140
3.0
141
-5.0
142
0.0
143
25.399999999999999
144
-1.0
145
0.0
146
1.0
147
1.0
 71
     0
 72
     0
 73
     0
 74
     0
 75
     0
 76
     0
 77
     1
 78
     8
170
     0
171
     0
172
     1
173
     0
174
     0
175
     0
176
   256
177
   256
178
   256
  0
DIMSTYLE
  2
BYGG-029021$0$STANDARD
 70
     0
  3

  4

  5

  6

  7

 40
1.0
 41
0.18
 42
0.0625
 43
0.38
 44
0.18
 45
0.0
 46
0.0
 47
0.0
 48
0.0
140
0.18
141
0.09
142
0.0
143
25.399999999999999
144
1.0
145
0.0
146
1.0
147
0.09
 71
     0
 72
     0
 73
     1
 74
     1
 75
     0
 76
     0
 77
     0
 78
     0
170
     0
171
     2
172
     0
173
     0
174
     0
175
     0
176
     0
177
     0
178
     0
  0
DIMSTYLE
  2
BYGG-029021$0$MASKIN
 70
     0
  3

  4

  5

  6

  7

 40
0.0
 41
3.0
 42
1.5
 43
10.0
 44
1.5
 45
0.0
 46
0.0
 47
0.0
 48
0.0
140
3.0
141
-5.0
142
0.0
143
25.399999999999999
144
-1.0
145
0.0
146
1.0
147
1.0
 71
     0
 72
     0
 73
     0
 74
     0
 75
     0
 76
     0
 77
     1
 78
     8
170
     0
171
     0
172
     1
173
     0
174
     0
175
     0
176
   256
177
   256
178
     2
  0
DIMSTYLE
  2
BYGG-029021$0$MASKIN1
 70
     0
  3

  4

  5

  6

  7

 40
0.0
 41
3.0
 42
1.5
 43
10.0
 44
1.5
 45
0.0
 46
0.0
 47
0.0
 48
0.0
140
3.0
141
-5.0
142
0.0
143
25.399999999999999
144
-1.0
145
0.0
146
1.0
147
1.0
 71
     0
 72
     0
 73
     0
 74
     0
 75
     0
 76
     0
 77
     1
 78
     8
170
     0
171
     0
172
     1
173
     0
174
     0
175
     0
176
   256
177
   256
178
   256
  0
DIMSTYLE
  2
BYGG-029021$0$COTATION_HUT
 70
     0
  3

  4

  5

  6

  7

 40
1.0
 41
0.25
 42
0.1
 43
3.75
 44
0.18
 45
0.0
 46
0.0
 47
0.0
 48
0.0
140
0.25
141
2.5
142
0.0
143
25.399999999999999
144
1.0
145
0.05
146
0.7000000000000002
147
0.09
 71
     1
 72
     0
 73
     0
 74
     0
 75
     0
 76
     0
 77
     1
 78
     0
170
     0
171
     2
172
     1
173
     0
174
     0
175
     0
176
     0
177
     0
178
     0
  0
DIMSTYLE
  2
BYGG-029021$0$ANNOTATIVE
 70
     0
  3

  4

  5

  6

  7

 40
1.0
 41
0.18
 42
0.0625
 43
0.38
 44
0.18
 45
0.0
 46
0.0
 47
0.0
 48
0.0
140
0.18
141
0.09
142
0.0
143
25.399999999999999
144
1.0
145
0.0
146
1.0
147
0.09
 71
     0
 72
     0
 73
     1
 74
     1
 75
     0
 76
     0
 77
     0
 78
     0
170
     0
171
     2
172
     0
173
     0
174
     0
175
     0
176
     0
177
     0
178
     0
  0
DIMSTYLE
  2
BYGG-024800$0$MASKIN
 70
     0
  3

  4

  5

  6

  7

 40
0.0
 41
3.0
 42
1.5
 43
10.0
 44
1.5
 45
0.0
 46
0.0
 47
0.0
 48
0.0
140
3.0
141
-5.0
142
0.0
143
25.399999999999999
144
-1.0
145
0.0
146
1.0
147
1.0
 71
     0
 72
     0
 73
     0
 74
     0
 75
     0
 76
     0
 77
     1
 78
     8
170
     0
171
     0
172
     1
173
     0
174
     0
175
     0
176
   256
177
   256
178
     2
  0
DIMSTYLE
  2
BYGG-024800$0$STANDARD
 70
     0
  3

  4

  5

  6

  7

 40
1.0
 41
0.18
 42
0.0625
 43
0.38
 44
0.18
 45
0.0
 46
0.0
 47
0.0
 48
0.0
140
0.18
141
0.09
142
0.0
143
25.399999999999999
144
1.0
145
0.0
146
1.0
147
0.09
 71
     0
 72
     0
 73
     1
 74
     1
 75
     0
 76
     0
 77
     0
 78
     0
170
     0
171
     2
172
     0
173
     0
174
     0
175
     0
176
     0
177
     0
178
     0
  0
DIMSTYLE
  2
BYGG-024807$0$MASKIN
 70
     0
  3

  4

  5

  6

  7

 40
0.0
 41
3.0
 42
1.5
 43
10.0
 44
1.5
 45
0.0
 46
0.0
 47
0.0
 48
0.0
140
3.0
141
-5.0
142
0.0
143
25.399999999999999
144
-1.0
145
0.0
146
1.0
147
1.0
 71
     0
 72
     0
 73
     0
 74
     0
 75
     0
 76
     0
 77
     1
 78
     8
170
     0
171
     0
172
     1
173
     0
174
     0
175
     0
176
   256
177
   256
178
     2
  0
DIMSTYLE
  2
BYGG-024807$0$STANDARD
 70
     0
  3

  4

  5

  6

  7

 40
1.0
 41
0.18
 42
0.0625
 43
0.38
 44
0.18
 45
0.0
 46
0.0
 47
0.0
 48
0.0
140
0.18
141
0.09
142
0.0
143
25.399999999999999
144
1.0
145
0.0
146
1.0
147
0.09
 71
     0
 72
     0
 73
     1
 74
     1
 75
     0
 76
     0
 77
     0
 78
     0
170
     0
171
     2
172
     0
173
     0
174
     0
175
     0
176
     0
177
     0
178
     0
  0
DIMSTYLE
  2
BYGG-024807$0$ANNOTATIVE
 70
     0
  3

  4

  5

  6

  7

 40
1.0
 41
0.18
 42
0.0625
 43
0.38
 44
0.18
 45
0.0
 46
0.0
 47
0.0
 48
0.0
140
0.18
141
0.09
142
0.0
143
25.399999999999999
144
1.0
145
0.0
146
1.0
147
0.09
 71
     0
 72
     0
 73
     1
 74
     1
 75
     0
 76
     0
 77
     0
 78
     0
170
     0
171
     2
172
     0
173
     0
174
     0
175
     0
176
     0
177
     0
178
     0
  0
DIMSTYLE
  2
BYGG-036387$0$STANDARD
 70
     0
  3

  4

  5

  6

  7

 40
1.0
 41
0.18
 42
0.0625
 43
0.38
 44
0.18
 45
0.0
 46
0.0
 47
0.0
 48
0.0
140
0.18
141
0.09
142
0.0
143
25.399999999999999
144
1.0
145
0.0
146
1.0
147
0.09
 71
     0
 72
     0
 73
     1
 74
     1
 75
     0
 76
     0
 77
     0
 78
     0
170
     0
171
     2
172
     0
173
     0
174
     0
175
     0
176
     0
177
     0
178
     0
  0
DIMSTYLE
  2
BYGG-036387$0$MASKIN
 70
     0
  3

  4

  5

  6

  7

 40
0.0
 41
3.0
 42
1.5
 43
10.0
 44
1.5
 45
0.0
 46
0.0
 47
0.0
 48
0.0
140
3.0
141
-5.0
142
0.0
143
25.399999999999999
144
-1.0
145
0.0
146
1.0
147
1.0
 71
     0
 72
     0
 73
     0
 74
     0
 75
     0
 76
     0
 77
     1
 78
     8
170
     0
171
     0
172
     1
173
     0
174
     0
175
     0
176
   256
177
   256
178
     2
  0
DIMSTYLE
  2
BYGG-036386$0$STANDARD
 70
     0
  3

  4

  5

  6

  7

 40
1.0
 41
0.18
 42
0.0625
 43
0.38
 44
0.18
 45
0.0
 46
0.0
 47
0.0
 48
0.0
140
0.18
141
0.09
142
0.0
143
25.399999999999999
144
1.0
145
0.0
146
1.0
147
0.09
 71
     0
 72
     0
 73
     1
 74
     1
 75
     0
 76
     0
 77
     0
 78
     0
170
     0
171
     2
172
     0
173
     0
174
     0
175
     0
176
     0
177
     0
178
     0
  0
DIMSTYLE
  2
BYGG-036386$0$MASKIN
 70
     0
  3

  4

  5

  6

  7

 40
0.0
 41
3.0
 42
1.5
 43
10.0
 44
1.5
 45
0.0
 46
0.0
 47
0.0
 48
0.0
140
3.0
141
-5.0
142
0.0
143
25.399999999999999
144
-1.0
145
0.0
146
1.0
147
1.0
 71
     0
 72
     0
 73
     0
 74
     0
 75
     0
 76
     0
 77
     1
 78
     8
170
     0
171
     0
172
     1
173
     0
174
     0
175
     0
176
   256
177
   256
178
     2
  0
ENDTAB
  0
ENDSEC
  0
SECTION
  2
BLOCKS
  0
BLOCK
  8
0
  2
$MODEL_SPACE
 70
     0
 10
0.0
 20
0.0
 30
0.0
  3
$MODEL_SPACE
  1

  0
ENDBLK
  5
37
  8
0
  0
BLOCK
 67
     1
  8
0
  2
$PAPER_SPACE
 70
     0
 10
0.0
 20
0.0
 30
0.0
  3
$PAPER_SPACE
  1

  0
ENDBLK
  5
35
 67
     1
  8
0
  0
BLOCK
  8
0
  2
*D119
 70
     1
 10
0.0
 20
0.0
 30
0.0
  3
*D119
  1

  0
LINE
  5
15EC
  8
SAPA_MATT
 10
9.8782162357892958
 20
223.5014761801614
 30
0.0
 11
9.8782162357892975
 21
241.7632891963413
 31
0.0
  0
LINE
  5
15ED
  8
SAPA_MATT
 10
249.8782162357893
 20
223.50147618016129
 30
0.0
 11
249.8782162357893
 21
241.7632891963413
 31
0.0
  0
LINE
  5
15EE
  8
SAPA_MATT
 10
12.878216235789299
 20
240.2632891963413
 30
0.0
 11
246.8782162357893
 21
240.2632891963413
 31
0.0
  0
SOLID
  5
15EF
  8
SAPA_MATT
 10
12.878216235789299
 20
240.7632891963413
 30
0.0
 11
12.878216235789299
 21
239.7632891963413
 31
0.0
 12
9.8782162357892975
 22
240.2632891963413
 32
0.0
 13
9.8782162357892975
 23
240.2632891963413
 33
0.0
  0
SOLID
  5
15F0
  8
SAPA_MATT
 10
246.8782162357893
 20
240.7632891963413
 30
0.0
 11
246.8782162357893
 21
239.7632891963413
 31
0.0
 12
249.8782162357893
 22
240.2632891963413
 32
0.0
 13
249.8782162357893
 23
240.2632891963413
 33
0.0
  0
INSERT
  5
15F1
  8
0
  2
*U139
 10
0.0
 20
0.0
 30
0.0
  0
POINT
  5
15F2
  8
DEFPOINTS
 62
     0
 10
9.8782162357892958
 20
222.0014761801614
 30
0.0
  0
POINT
  5
15F3
  8
DEFPOINTS
 62
     0
 10
249.8782162357893
 20
222.0014761801614
 30
0.0
  0
POINT
  5
15F4
  8
DEFPOINTS
 62
     0
 10
249.8782162357893
 20
240.2632891963413
 30
0.0
  0
ENDBLK
  5
15A4
  8
0
  0
BLOCK
  8
0
  2
*D120
 70
     1
 10
0.0
 20
0.0
 30
0.0
  3
*D120
  1

  0
LINE
  5
161B
  8
SAPA_MATT
 10
-1.199999921993395
 20
186.9999999960707
 30
0.0
 11
-12.208401025678629
 21
186.9999999960707
 31
0.0
  0
LINE
  5
161C
  8
SAPA_MATT
 10
-0.5000000061325239
 20
93.999999996088462
 30
0.0
 11
-12.208401025678651
 21
93.999999996088462
 31
0.0
  0
LINE
  5
161D
  8
SAPA_MATT
 10
-10.708401025678629
 20
183.9999999960707
 30
0.0
 11
-10.708401025678651
 21
96.999999996088476
 31
0.0
  0
SOLID
  5
161E
  8
SAPA_MATT
 10
-11.208401025678629
 20
183.9999999960707
 30
0.0
 11
-10.208401025678629
 21
183.9999999960707
 31
0.0
 12
-10.708401025678629
 22
186.9999999960707
 32
0.0
 13
-10.708401025678629
 23
186.9999999960707
 33
0.0
  0
SOLID
  5
161F
  8
SAPA_MATT
 10
-11.208401025678651
 20
96.999999996088476
 30
0.0
 11
-10.208401025678651
 21
96.999999996088476
 31
0.0
 12
-10.708401025678651
 22
93.999999996088462
 32
0.0
 13
-10.708401025678651
 23
93.999999996088462
 33
0.0
  0
INSERT
  5
1620
  8
0
  2
*U144
 10
0.0
 20
0.0
 30
0.0
  0
POINT
  5
1621
  8
DEFPOINTS
 62
     0
 10
0.3000000780066045
 20
186.9999999960707
 30
0.0
  0
POINT
  5
1622
  8
DEFPOINTS
 62
     0
 10
0.9999999938674761
 20
93.999999996088462
 30
0.0
  0
POINT
  5
1623
  8
DEFPOINTS
 62
     0
 10
-10.708401025678651
 20
93.999999996088462
 30
0.0
  0
ENDBLK
  5
15B0
  8
0
  0
BLOCK
  8
0
  2
*D121
 70
     1
 10
0.0
 20
0.0
 30
0.0
  3
*D121
  1

  0
LINE
  5
1610
  8
SAPA_MATT
 10
-0.5000000061325239
 20
93.999999996088462
 30
0.0
 11
-12.20840102567862
 21
93.999999996088462
 31
0.0
  0
LINE
  5
1611
  8
SAPA_MATT
 10
0.4999999973866807
 20
88.999999999999886
 30
0.0
 11
-12.20840102567862
 21
88.999999999999886
 31
0.0
  0
LINE
  5
1612
  8
SAPA_MATT
 10
-10.70840102567862
 20
96.999999996088476
 30
0.0
 11
-10.70840102567862
 21
99.999999996088462
 31
0.0
  0
LINE
  5
1613
  8
SAPA_MATT
 10
-10.70840102567862
 20
85.999999999999901
 30
0.0
 11
-10.708401025678629
 21
82.999999999999901
 31
0.0
  0
LINE
  5
1614
  8
SAPA_MATT
 10
-10.70840102567862
 20
93.999999996088462
 30
0.0
 11
-10.70840102567862
 21
88.999999999999886
 31
0.0
  0
SOLID
  5
1615
  8
SAPA_MATT
 10
-11.20840102567862
 20
96.999999996088476
 30
0.0
 11
-10.20840102567862
 21
96.999999996088476
 31
0.0
 12
-10.70840102567862
 22
93.999999996088462
 32
0.0
 13
-10.70840102567862
 23
93.999999996088462
 33
0.0
  0
SOLID
  5
1616
  8
SAPA_MATT
 10
-11.20840102567862
 20
85.999999999999901
 30
0.0
 11
-10.20840102567862
 21
85.999999999999901
 31
0.0
 12
-10.70840102567862
 22
88.999999999999886
 32
0.0
 13
-10.70840102567862
 23
88.999999999999886
 33
0.0
  0
INSERT
  5
1617
  8
0
  2
*U143
 10
0.0
 20
0.0
 30
0.0
  0
POINT
  5
1618
  8
DEFPOINTS
 62
     0
 10
0.9999999938674761
 20
93.999999996088462
 30
0.0
  0
POINT
  5
1619
  8
DEFPOINTS
 62
     0
 10
1.99999999738668
 20
88.999999999999886
 30
0.1
  0
POINT
  5
161A
  8
DEFPOINTS
 62
     0
 10
-10.70840102567862
 20
88.999999999999886
 30
0.0
  0
ENDBLK
  5
15BC
  8
0
  0
BLOCK
  8
0
  2
*D122
 70
     1
 10
0.0
 20
0.0
 30
0.0
  3
*D122
  1

  0
LINE
  5
1607
  8
SAPA_MATT
 10
0.4999999973866807
 20
88.999999999999886
 30
0.0
 11
-12.208401025678659
 21
88.999999999999886
 31
0.0
  0
LINE
  5
1608
  8
SAPA_MATT
 10
-1.0000000026133189
 20
-0.0000000000000138
 30
0.0
 11
-12.208401025678681
 21
-0.0000000000000106
 31
0.0
  0
LINE
  5
1609
  8
SAPA_MATT
 10
-10.708401025678659
 20
85.999999999999901
 30
0.0
 11
-10.708401025678681
 21
2.999999999999988
 31
0.0
  0
SOLID
  5
160A
  8
SAPA_MATT
 10
-11.208401025678659
 20
85.999999999999901
 30
0.0
 11
-10.208401025678659
 21
85.999999999999901
 31
0.0
 12
-10.708401025678659
 22
88.999999999999886
 32
0.0
 13
-10.708401025678659
 23
88.999999999999886
 33
0.0
  0
SOLID
  5
160B
  8
SAPA_MATT
 10
-11.208401025678681
 20
2.9999999999999889
 30
0.0
 11
-10.208401025678681
 21
2.999999999999988
 31
0.0
 12
-10.708401025678681
 22
-0.000000000000011
 32
0.0
 13
-10.708401025678681
 23
-0.000000000000011
 33
0.0
  0
INSERT
  5
160C
  8
0
  2
*U142
 10
0.0
 20
0.0
 30
0.0
  0
POINT
  5
160D
  8
DEFPOINTS
 62
     0
 10
1.99999999738668
 20
88.999999999999886
 30
0.1
  0
POINT
  5
160E
  8
DEFPOINTS
 62
     0
 10
0.4999999973866807
 20
-0.0000000000000142
 30
0.1
  0
POINT
  5
160F
  8
DEFPOINTS
 62
     0
 10
-10.708401025678681
 20
-0.000000000000011
 30
0.0
  0
ENDBLK
  5
15CA
  8
0
  0
BLOCK
  8
0
  2
*D123
 70
     1
 10
0.0
 20
0.0
 30
0.0
  3
*D123
  1

  0
LINE
  5
15FE
  8
SAPA_MATT
 10
-1.0000000026133189
 20
-0.0000000000000138
 30
0.0
 11
-25.246088647940191
 21
-0.0000000000000069
 31
0.0
  0
LINE
  5
15FF
  8
SAPA_MATT
 10
-1.199999921993395
 20
186.9999999960707
 30
0.0
 11
-25.246088647940152
 21
186.9999999960707
 31
0.0
  0
LINE
  5
1600
  8
SAPA_MATT
 10
-23.746088647940191
 20
2.999999999999992
 30
0.0
 11
-23.746088647940152
 21
183.9999999960707
 31
0.0
  0
SOLID
  5
1601
  8
SAPA_MATT
 10
-24.246088647940191
 20
2.999999999999992
 30
0.0
 11
-23.246088647940191
 21
2.999999999999992
 31
0.0
 12
-23.746088647940191
 22
-0.0000000000000073
 32
0.0
 13
-23.746088647940191
 23
-0.0000000000000073
 33
0.0
  0
SOLID
  5
1602
  8
SAPA_MATT
 10
-24.246088647940152
 20
183.9999999960707
 30
0.0
 11
-23.246088647940152
 21
183.9999999960707
 31
0.0
 12
-23.746088647940152
 22
186.9999999960707
 32
0.0
 13
-23.746088647940152
 23
186.9999999960707
 33
0.0
  0
INSERT
  5
1603
  8
0
  2
*U141
 10
0.0
 20
0.0
 30
0.0
  0
POINT
  5
1604
  8
DEFPOINTS
 62
     0
 10
0.4999999973866807
 20
-0.0000000000000142
 30
0.1
  0
POINT
  5
1605
  8
DEFPOINTS
 62
     0
 10
0.3000000780066045
 20
186.9999999960707
 30
0.0
  0
POINT
  5
1606
  8
DEFPOINTS
 62
     0
 10
-23.746088647940152
 20
186.9999999960707
 30
0.0
  0
ENDBLK
  5
15D6
  8
0
  0
BLOCK
  8
0
  2
*D124
 70
     1
 10
0.0
 20
0.0
 30
0.0
  3
*D124
  1

  0
LINE
  5
15F5
  8
SAPA_MATT
 10
-0.000000002613291
 20
-1.000000000000014
 30
0.0
 11
-0.0000000026132926
 21
-27.68954559620887
 31
0.0
  0
LINE
  5
15F6
  8
SAPA_MATT
 10
85.999999994622982
 20
20.699999996088859
 30
0.0
 11
85.999999994622982
 21
-27.68954559620887
 31
0.0
  0
LINE
  5
15F7
  8
SAPA_MATT
 10
2.9999999973867069
 20
-26.18954559620887
 30
0.0
 11
82.999999994622996
 21
-26.18954559620887
 31
0.0
  0
SOLID
  5
15F8
  8
SAPA_MATT
 10
2.9999999973867069
 20
-25.68954559620888
 30
0.0
 11
2.9999999973867069
 21
-26.68954559620888
 31
0.0
 12
-0.0000000026132926
 22
-26.18954559620887
 32
0.0
 13
-0.0000000026132926
 23
-26.18954559620887
 33
0.0
  0
SOLID
  5
15F9
  8
SAPA_MATT
 10
82.999999994622996
 20
-25.68954559620888
 30
0.0
 11
82.999999994622996
 21
-26.68954559620888
 31
0.0
 12
85.999999994622982
 22
-26.18954559620887
 32
0.0
 13
85.999999994622982
 23
-26.18954559620887
 33
0.0
  0
INSERT
  5
15FA
  8
0
  2
*U140
 10
0.0
 20
0.0
 30
0.0
  0
POINT
  5
15FB
  8
DEFPOINTS
 62
     0
 10
-0.0000000026132909
 20
0.4999999999999858
 30
0.1
  0
POINT
  5
15FC
  8
DEFPOINTS
 62
     0
 10
85.999999994622982
 20
22.199999996088859
 30
0.0
  0
POINT
  5
15FD
  8
DEFPOINTS
 62
     0
 10
85.999999994622982
 20
-26.18954559620887
 30
0.0
  0
ENDBLK
  5
15E2
  8
0
  0
BLOCK
  8
0
  2
*U125
 70
     1
 10
0.0
 20
0.0
 30
0.0
  3
*U125
  1

  0
SOLID
  5
191F
  8
SAPA_PROFIL
  6
CONTINUOUS
 62
     2
 10
5.1826599673349039
 20
83.418492498656946
 30
0.0
 11
5.0058832720382682
 21
83.345269193953555
 31
0.0
 12
5.3594366626315413
 22
83.345269193953555
 32
0.0
 13
5.3594366626315413
 23
83.345269193953555
 33
0.0
210
0.0
220
0.0
230
1.0
  0
SOLID
  5
1920
  8
SAPA_PROFIL
  6
CONTINUOUS
 62
     2
 10
5.0058832720382682
 20
83.345269193953555
 30
0.0
 11
4.9326599673349039
 21
83.168492498656931
 31
0.0
 12
5.4326599673349039
 22
83.168492498656931
 32
0.0
 13
5.4326599673349039
 23
83.168492498656931
 33
0.0
210
0.0
220
0.0
230
1.0
  0
SOLID
  5
1921
  8
SAPA_PROFIL
  6
CONTINUOUS
 62
     2
 10
-5.0058832720382682
 20
83.345269193953555
 30
0.0
 11
-5.3594366626315413
 21
83.345269193953555
 31
0.0
 12
-5.4326599673349039
 22
83.168492498656931
 32
0.0
 13
-5.4326599673349039
 23
83.168492498656931
 33
0.0
210
0.0
220
0.0
230
-1.0
  0
SOLID
  5
1922
  8
SAPA_PROFIL
  6
CONTINUOUS
 62
     2
 10
-5.0058832720382682
 20
82.991715803360293
 30
0.0
 11
-5.3594366626315413
 21
82.991715803360293
 31
0.0
 12
-5.1826599673349039
 22
82.918492498656931
 32
0.0
 13
-5.1826599673349039
 23
82.918492498656931
 33
0.0
210
0.0
220
0.0
230
-1.0
  0
SOLID
  5
1923
  8
SAPA_PROFIL
  6
CONTINUOUS
 62
     2
 10
4.9326599673349039
 20
83.168492498656931
 30
0.0
 11
5.0058832720382682
 21
82.991715803360293
 31
0.0
 12
5.3594366626315413
 22
82.991715803360293
 32
0.0
 13
5.3594366626315413
 23
82.991715803360293
 33
0.0
210
0.0
220
0.0
230
1.0
  0
SOLID
  5
1924
  8
SAPA_PROFIL
  6
CONTINUOUS
 62
     2
 10
-4.9326599673349039
 20
83.168492498656931
 30
0.0
 11
-5.4326599673349039
 21
83.168492498656931
 31
0.0
 12
-5.3594366626315413
 22
82.991715803360293
 32
0.0
 13
-5.3594366626315413
 23
82.991715803360293
 33
0.0
210
0.0
220
0.0
230
-1.0
  0
LINE
  5
1925
  8
SAPA_PROFIL
  6
CONTINUOUS
 62
     2
 10
5.1826599673349039
 20
83.418492498656946
 30
0.0
 11
5.0058832720382682
 21
83.345269193953555
 31
0.0
  0
LINE
  5
1926
  8
SAPA_PROFIL
  6
CONTINUOUS
 62
     2
 10
5.3594366626315413
 20
83.345269193953555
 30
0.0
 11
5.1826599673349039
 21
83.418492498656946
 31
0.0
  0
LINE
  5
1927
  8
SAPA_PROFIL
  6
CONTINUOUS
 62
     2
 10
5.0058832720382682
 20
83.345269193953555
 30
0.0
 11
4.9326599673349039
 21
83.168492498656931
 31
0.0
  0
LINE
  5
1928
  8
SAPA_PROFIL
  6
CONTINUOUS
 62
     2
 10
5.3594366626315413
 20
83.345269193953555
 30
0.0
 11
5.4326599673349039
 21
83.168492498656931
 31
0.0
  0
LINE
  5
1929
  8
SAPA_PROFIL
  6
CONTINUOUS
 62
     2
 10
5.3594366626315413
 20
82.991715803360293
 30
0.0
 11
5.1826599673349039
 21
82.918492498656931
 31
0.0
  0
LINE
  5
192A
  8
SAPA_PROFIL
  6
CONTINUOUS
 62
     2
 10
5.1826599673349039
 20
82.918492498656931
 30
0.0
 11
5.0058832720382682
 21
82.991715803360293
 31
0.0
  0
LINE
  5
192B
  8
SAPA_PROFIL
  6
CONTINUOUS
 62
     2
 10
4.9326599673349039
 20
83.168492498656931
 30
0.0
 11
5.0058832720382682
 21
82.991715803360293
 31
0.0
  0
LINE
  5
192C
  8
SAPA_PROFIL
  6
CONTINUOUS
 62
     2
 10
5.4326599673349039
 20
83.168492498656931
 30
0.0
 11
5.3594366626315413
 21
82.991715803360293
 31
0.0
  0
ENDBLK
  5
192E
  8
0
  0
BLOCK
  8
0
  2
*U126
 70
     1
 10
0.0
 20
0.0
 30
0.0
  3
*U126
  1

  0
SOLID
  5
1CBD
  8
SAPA_PROFIL
  6
CONTINUOUS
 62
     2
 10
80.625620754006889
 20
78.181507744261566
 30
-0.1
 11
80.44884405871025
 21
78.108284439558204
 31
-0.1
 12
80.802397449303527
 22
78.108284439558204
 32
-0.1
 13
80.802397449303527
 23
78.108284439558204
 33
-0.1
210
0.0
220
0.0
230
1.0
  0
SOLID
  5
1CBE
  8
SAPA_PROFIL
  6
CONTINUOUS
 62
     2
 10
80.44884405871025
 20
78.108284439558204
 30
-0.1
 11
80.375620754006889
 21
77.931507744261566
 31
-0.1
 12
80.875620754006874
 22
77.931507744261566
 32
-0.1
 13
80.875620754006874
 23
77.931507744261566
 33
-0.1
210
0.0
220
0.0
230
1.0
  0
SOLID
  5
1CBF
  8
SAPA_PROFIL
  6
CONTINUOUS
 62
     2
 10
-80.44884405871025
 20
78.108284439558204
 30
0.1
 11
-80.802397449303527
 21
78.108284439558204
 31
0.1
 12
-80.875620754006874
 22
77.931507744261566
 32
0.1
 13
-80.875620754006874
 23
77.931507744261566
 33
0.1
210
0.0
220
0.0
230
-1.0
  0
SOLID
  5
1CC0
  8
SAPA_PROFIL
  6
CONTINUOUS
 62
     2
 10
-80.44884405871025
 20
77.754731048964928
 30
0.1
 11
-80.802397449303527
 21
77.754731048964928
 31
0.1
 12
-80.625620754006889
 22
77.681507744261566
 32
0.1
 13
-80.625620754006889
 23
77.681507744261566
 33
0.1
210
0.0
220
0.0
230
-1.0
  0
SOLID
  5
1CC1
  8
SAPA_PROFIL
  6
CONTINUOUS
 62
     2
 10
80.375620754006889
 20
77.931507744261566
 30
-0.1
 11
80.44884405871025
 21
77.754731048964928
 31
-0.1
 12
80.802397449303527
 22
77.754731048964928
 32
-0.1
 13
80.802397449303527
 23
77.754731048964928
 33
-0.1
210
0.0
220
0.0
230
1.0
  0
SOLID
  5
1CC2
  8
SAPA_PROFIL
  6
CONTINUOUS
 62
     2
 10
-80.375620754006889
 20
77.931507744261566
 30
0.1
 11
-80.875620754006874
 21
77.931507744261566
 31
0.1
 12
-80.802397449303527
 22
77.754731048964928
 32
0.1
 13
-80.802397449303527
 23
77.754731048964928
 33
0.1
210
0.0
220
0.0
230
-1.0
  0
LINE
  5
1CC3
  8
SAPA_PROFIL
  6
CONTINUOUS
 62
     2
 10
80.625620754006889
 20
78.181507744261566
 30
-0.1
 11
80.44884405871025
 21
78.108284439558204
 31
-0.1
  0
LINE
  5
1CC4
  8
SAPA_PROFIL
  6
CONTINUOUS
 62
     2
 10
80.802397449303527
 20
78.108284439558204
 30
-0.1
 11
80.625620754006889
 21
78.181507744261566
 31
-0.1
  0
LINE
  5
1CC5
  8
SAPA_PROFIL
  6
CONTINUOUS
 62
     2
 10
80.44884405871025
 20
78.108284439558204
 30
-0.1
 11
80.375620754006889
 21
77.931507744261566
 31
-0.1
  0
LINE
  5
1CC6
  8
SAPA_PROFIL
  6
CONTINUOUS
 62
     2
 10
80.802397449303527
 20
78.108284439558204
 30
-0.1
 11
80.875620754006874
 21
77.931507744261566
 31
-0.1
  0
LINE
  5
1CC7
  8
SAPA_PROFIL
  6
CONTINUOUS
 62
     2
 10
80.802397449303527
 20
77.754731048964928
 30
-0.1
 11
80.625620754006889
 21
77.681507744261566
 31
-0.1
  0
LINE
  5
1CC8
  8
SAPA_PROFIL
  6
CONTINUOUS
 62
     2
 10
80.625620754006889
 20
77.681507744261566
 30
-0.1
 11
80.44884405871025
 21
77.754731048964928
 31
-0.1
  0
LINE
  5
1CC9
  8
SAPA_PROFIL
  6
CONTINUOUS
 62
     2
 10
80.375620754006889
 20
77.931507744261566
 30
-0.1
 11
80.44884405871025
 21
77.754731048964928
 31
-0.1
  0
LINE
  5
1CCA
  8
SAPA_PROFIL
  6
CONTINUOUS
 62
     2
 10
80.875620754006874
 20
77.931507744261566
 30
-0.1
 11
80.802397449303527
 21
77.754731048964928
 31
-0.1
  0
ENDBLK
  5
1CCC
  8
0
  0
BLOCK
  8
0
  2
*U127
 70
     1
 10
0.0
 20
0.0
 30
0.0
  3
*U127
  1

  0
SOLID
  5
1F11
  8
SAPA_PROFIL
  6
CONTINUOUS
 62
     2
 10
5.1826599673349039
 20
83.418492498656946
 30
0.0
 11
5.0058832720382682
 21
83.345269193953555
 31
0.0
 12
5.3594366626315413
 22
83.345269193953555
 32
0.0
 13
5.3594366626315413
 23
83.345269193953555
 33
0.0
210
0.0
220
0.0
230
1.0
  0
SOLID
  5
1F12
  8
SAPA_PROFIL
  6
CONTINUOUS
 62
     2
 10
5.0058832720382682
 20
83.345269193953555
 30
0.0
 11
4.9326599673349039
 21
83.168492498656931
 31
0.0
 12
5.4326599673349039
 22
83.168492498656931
 32
0.0
 13
5.4326599673349039
 23
83.168492498656931
 33
0.0
210
0.0
220
0.0
230
1.0
  0
SOLID
  5
1F13
  8
SAPA_PROFIL
  6
CONTINUOUS
 62
     2
 10
-5.0058832720382682
 20
83.345269193953555
 30
0.0
 11
-5.3594366626315413
 21
83.345269193953555
 31
0.0
 12
-5.4326599673349039
 22
83.168492498656931
 32
0.0
 13
-5.4326599673349039
 23
83.168492498656931
 33
0.0
210
0.0
220
0.0
230
-1.0
  0
SOLID
  5
1F14
  8
SAPA_PROFIL
  6
CONTINUOUS
 62
     2
 10
-5.0058832720382682
 20
82.991715803360293
 30
0.0
 11
-5.3594366626315413
 21
82.991715803360293
 31
0.0
 12
-5.1826599673349039
 22
82.918492498656931
 32
0.0
 13
-5.1826599673349039
 23
82.918492498656931
 33
0.0
210
0.0
220
0.0
230
-1.0
  0
SOLID
  5
1F15
  8
SAPA_PROFIL
  6
CONTINUOUS
 62
     2
 10
4.9326599673349039
 20
83.168492498656931
 30
0.0
 11
5.0058832720382682
 21
82.991715803360293
 31
0.0
 12
5.3594366626315413
 22
82.991715803360293
 32
0.0
 13
5.3594366626315413
 23
82.991715803360293
 33
0.0
210
0.0
220
0.0
230
1.0
  0
SOLID
  5
1F16
  8
SAPA_PROFIL
  6
CONTINUOUS
 62
     2
 10
-4.9326599673349039
 20
83.168492498656931
 30
0.0
 11
-5.4326599673349039
 21
83.168492498656931
 31
0.0
 12
-5.3594366626315413
 22
82.991715803360293
 32
0.0
 13
-5.3594366626315413
 23
82.991715803360293
 33
0.0
210
0.0
220
0.0
230
-1.0
  0
LINE
  5
1F17
  8
SAPA_PROFIL
  6
CONTINUOUS
 62
     2
 10
5.1826599673349039
 20
83.418492498656946
 30
0.0
 11
5.0058832720382682
 21
83.345269193953555
 31
0.0
  0
LINE
  5
1F18
  8
SAPA_PROFIL
  6
CONTINUOUS
 62
     2
 10
5.3594366626315413
 20
83.345269193953555
 30
0.0
 11
5.1826599673349039
 21
83.418492498656946
 31
0.0
  0
LINE
  5
1F19
  8
SAPA_PROFIL
  6
CONTINUOUS
 62
     2
 10
5.0058832720382682
 20
83.345269193953555
 30
0.0
 11
4.9326599673349039
 21
83.168492498656931
 31
0.0
  0
LINE
  5
1F1A
  8
SAPA_PROFIL
  6
CONTINUOUS
 62
     2
 10
5.3594366626315413
 20
83.345269193953555
 30
0.0
 11
5.4326599673349039
 21
83.168492498656931
 31
0.0
  0
LINE
  5
1F1B
  8
SAPA_PROFIL
  6
CONTINUOUS
 62
     2
 10
5.3594366626315413
 20
82.991715803360293
 30
0.0
 11
5.1826599673349039
 21
82.918492498656931
 31
0.0
  0
LINE
  5
1F1C
  8
SAPA_PROFIL
  6
CONTINUOUS
 62
     2
 10
5.1826599673349039
 20
82.918492498656931
 30
0.0
 11
5.0058832720382682
 21
82.991715803360293
 31
0.0
  0
LINE
  5
1F1D
  8
SAPA_PROFIL
  6
CONTINUOUS
 62
     2
 10
4.9326599673349039
 20
83.168492498656931
 30
0.0
 11
5.0058832720382682
 21
82.991715803360293
 31
0.0
  0
LINE
  5
1F1E
  8
SAPA_PROFIL
  6
CONTINUOUS
 62
     2
 10
5.4326599673349039
 20
83.168492498656931
 30
0.0
 11
5.3594366626315413
 21
82.991715803360293
 31
0.0
  0
ENDBLK
  5
1F20
  8
0
  0
BLOCK
  8
0
  2
*U128
 70
     1
 10
0.0
 20
0.0
 30
0.0
  3
*U128
  1

  0
SOLID
  5
22AF
  8
SAPA_PROFIL
  6
CONTINUOUS
 62
     2
 10
80.625620754006889
 20
78.181507744261566
 30
-0.1
 11
80.44884405871025
 21
78.108284439558204
 31
-0.1
 12
80.802397449303527
 22
78.108284439558204
 32
-0.1
 13
80.802397449303527
 23
78.108284439558204
 33
-0.1
210
0.0
220
0.0
230
1.0
  0
SOLID
  5
22B0
  8
SAPA_PROFIL
  6
CONTINUOUS
 62
     2
 10
80.44884405871025
 20
78.108284439558204
 30
-0.1
 11
80.375620754006889
 21
77.931507744261566
 31
-0.1
 12
80.875620754006874
 22
77.931507744261566
 32
-0.1
 13
80.875620754006874
 23
77.931507744261566
 33
-0.1
210
0.0
220
0.0
230
1.0
  0
SOLID
  5
22B1
  8
SAPA_PROFIL
  6
CONTINUOUS
 62
     2
 10
-80.44884405871025
 20
78.108284439558204
 30
0.1
 11
-80.802397449303527
 21
78.108284439558204
 31
0.1
 12
-80.875620754006874
 22
77.931507744261566
 32
0.1
 13
-80.875620754006874
 23
77.931507744261566
 33
0.1
210
0.0
220
0.0
230
-1.0
  0
SOLID
  5
22B2
  8
SAPA_PROFIL
  6
CONTINUOUS
 62
     2
 10
-80.44884405871025
 20
77.754731048964928
 30
0.1
 11
-80.802397449303527
 21
77.754731048964928
 31
0.1
 12
-80.625620754006889
 22
77.681507744261566
 32
0.1
 13
-80.625620754006889
 23
77.681507744261566
 33
0.1
210
0.0
220
0.0
230
-1.0
  0
SOLID
  5
22B3
  8
SAPA_PROFIL
  6
CONTINUOUS
 62
     2
 10
80.375620754006889
 20
77.931507744261566
 30
-0.1
 11
80.44884405871025
 21
77.754731048964928
 31
-0.1
 12
80.802397449303527
 22
77.754731048964928
 32
-0.1
 13
80.802397449303527
 23
77.754731048964928
 33
-0.1
210
0.0
220
0.0
230
1.0
  0
SOLID
  5
22B4
  8
SAPA_PROFIL
  6
CONTINUOUS
 62
     2
 10
-80.375620754006889
 20
77.931507744261566
 30
0.1
 11
-80.875620754006874
 21
77.931507744261566
 31
0.1
 12
-80.802397449303527
 22
77.754731048964928
 32
0.1
 13
-80.802397449303527
 23
77.754731048964928
 33
0.1
210
0.0
220
0.0
230
-1.0
  0
LINE
  5
22B5
  8
SAPA_PROFIL
  6
CONTINUOUS
 62
     2
 10
80.625620754006889
 20
78.181507744261566
 30
-0.1
 11
80.44884405871025
 21
78.108284439558204
 31
-0.1
  0
LINE
  5
22B6
  8
SAPA_PROFIL
  6
CONTINUOUS
 62
     2
 10
80.802397449303527
 20
78.108284439558204
 30
-0.1
 11
80.625620754006889
 21
78.181507744261566
 31
-0.1
  0
LINE
  5
22B7
  8
SAPA_PROFIL
  6
CONTINUOUS
 62
     2
 10
80.44884405871025
 20
78.108284439558204
 30
-0.1
 11
80.375620754006889
 21
77.931507744261566
 31
-0.1
  0
LINE
  5
22B8
  8
SAPA_PROFIL
  6
CONTINUOUS
 62
     2
 10
80.802397449303527
 20
78.108284439558204
 30
-0.1
 11
80.875620754006874
 21
77.931507744261566
 31
-0.1
  0
LINE
  5
22B9
  8
SAPA_PROFIL
  6
CONTINUOUS
 62
     2
 10
80.802397449303527
 20
77.754731048964928
 30
-0.1
 11
80.625620754006889
 21
77.681507744261566
 31
-0.1
  0
LINE
  5
22BA
  8
SAPA_PROFIL
  6
CONTINUOUS
 62
     2
 10
80.625620754006889
 20
77.681507744261566
 30
-0.1
 11
80.44884405871025
 21
77.754731048964928
 31
-0.1
  0
LINE
  5
22BB
  8
SAPA_PROFIL
  6
CONTINUOUS
 62
     2
 10
80.375620754006889
 20
77.931507744261566
 30
-0.1
 11
80.44884405871025
 21
77.754731048964928
 31
-0.1
  0
LINE
  5
22BC
  8
SAPA_PROFIL
  6
CONTINUOUS
 62
     2
 10
80.875620754006874
 20
77.931507744261566
 30
-0.1
 11
80.802397449303527
 21
77.754731048964928
 31
-0.1
  0
ENDBLK
  5
22BE
  8
0
  0
BLOCK
  8
0
  2
*X129
 70
     1
 10
0.0
 20
0.0
 30
0.0
  3
*X129
  1

  0
LINE
  5
231E
  8
0
 62
     0
 10
9.8728470005243807
 20
208.29178870952191
 30
-0.1
 11
9.8272344377176122
 21
208.3408445733279
 31
-0.1
  0
LINE
  5
231F
  8
0
 62
     0
 10
9.8738510477714385
 20
207.12503648204171
 30
-0.1
 11
9.7595221977792832
 21
207.24799603855871
 31
-0.1
  0
LINE
  5
2320
  8
0
 62
     0
 10
9.8748550950184963
 20
205.95828425456151
 30
-0.1
 11
9.2170602229501597
 21
206.66573618602251
 31
-0.1
  0
LINE
  5
2321
  8
0
 62
     0
 10
9.8758591422655542
 20
204.7915320270813
 30
-0.1
 11
8.4771258212041403
 21
206.2958559912868
 31
-0.1
  0
LINE
  5
2322
  8
0
 62
     0
 10
9.8768631895125907
 20
203.6247797996011
 30
-0.1
 11
7.9527042805550598
 21
205.6941938287799
 31
-0.1
  0
LINE
  5
2323
  8
0
 62
     0
 10
9.8778672367596485
 20
202.4580275721209
 30
-0.1
 11
8.0985004251861454
 21
204.37171912107939
 31
-0.1
  0
LINE
  5
2324
  8
0
 62
     0
 10
9.8788712840067099
 20
201.2912753446407
 30
-0.1
 11
8.4041621424172845
 21
202.87731055844571
 31
-0.1
  0
LINE
  5
2325
  8
0
 62
     0
 10
9.8798753312537464
 20
200.12452311716049
 30
-0.1
 11
8.7098238596484308
 21
201.38290199581201
 31
-0.1
  0
LINE
  5
2326
  8
0
 62
     0
 10
9.8808793785008113
 20
198.95777088968029
 30
-0.1
 11
9.0154855768795805
 21
199.8884934331783
 31
-0.1
  0
LINE
  5
2327
  8
0
 62
     0
 10
9.8818834257478656
 20
197.79101866220009
 30
-0.1
 11
9.2323942153729455
 21
198.48953793599449
 31
-0.1
  0
LINE
  5
2328
  8
0
 62
     0
 10
9.8828874729949234
 20
196.62426643471991
 30
-0.1
 11
9.1665726430430823
 21
197.3946560067611
 31
-0.1
  0
LINE
  5
2329
  8
0
 62
     0
 10
9.883891520241967
 20
195.45751420723971
 30
-0.1
 11
9.1007510707132155
 21
196.29977407752779
 31
-0.1
  0
LINE
  5
232A
  8
0
 62
     0
 10
9.8848955674890249
 20
194.29076197975951
 30
-0.1
 11
9.0349294983833541
 21
195.20489214829439
 31
-0.1
  0
LINE
  5
232B
  8
0
 62
     0
 10
9.8858996147360791
 20
193.12400975227931
 30
-0.1
 11
8.9691079260534927
 21
194.110010219061
 31
-0.1
  0
LINE
  5
232C
  8
0
 62
     0
 10
9.1535473959421338
 20
192.74597499416529
 30
-0.1
 11
8.9032863537236242
 21
193.0151282898276
 31
-0.1
  0
LINE
  5
232D
  8
0
 62
     0
 10
8.9536895719072547
 20
192.7579899483527
 30
-0.1
 11
9.8854690333456787
 21
193.62436648133769
 31
-0.1
  0
LINE
  5
232E
  8
0
 62
     0
 10
8.9529446916719309
 20
193.8411495307499
 30
-0.1
 11
9.8845370713429812
 21
194.70735211350339
 31
-0.1
  0
LINE
  5
232F
  8
0
 62
     0
 10
9.0219610432844703
 20
194.98917370470161
 30
-0.1
 11
9.8836051093402872
 21
195.79033774566909
 31
-0.1
  0
LINE
  5
2330
  8
0
 62
     0
 10
9.0909773948970241
 20
196.13719787865341
 30
-0.1
 11
9.8826731473375915
 21
196.87332337783479
 31
-0.1
  0
LINE
  5
2331
  8
0
 62
     0
 10
9.1599937465095564
 20
197.28522205260509
 30
-0.1
 11
9.8817411853348958
 21
197.9563090100005
 31
-0.1
  0
LINE
  5
2332
  8
0
 62
     0
 10
9.2290100981221173
 20
198.4332462265568
 30
-0.1
 11
9.8808092233321911
 21
199.0392946421662
 31
-0.1
  0
LINE
  5
2333
  8
0
 62
     0
 10
9.1134305157073783
 20
199.40963151819321
 30
-0.1
 11
9.8798772613294812
 21
200.12228027433201
 31
-0.1
  0
LINE
  5
2334
  8
0
 62
     0
 10
8.9271664649796918
 20
200.3202937850933
 30
-0.1
 11
9.8789452993268014
 21
201.2052659064976
 31
-0.1
  0
LINE
  5
2335
  8
0
 62
     0
 10
8.7409024142520124
 20
201.2309560519935
 30
-0.1
 11
9.8780133373240915
 21
202.2882515386633
 31
-0.1
  0
LINE
  5
2336
  8
0
 62
     0
 10
8.5546383635243242
 20
202.14161831889351
 30
-0.1
 11
9.8770813753213886
 21
203.371237170829
 31
-0.1
  0
LINE
  5
2337
  8
0
 62
     0
 10
8.3683743127966466
 20
203.05228058579371
 30
-0.1
 11
9.8761494133186982
 21
204.45422280299479
 31
-0.1
  0
LINE
  5
2338
  8
0
 62
     0
 10
8.1821102620689459
 20
203.9629428526938
 30
-0.1
 11
9.8752174513160043
 21
205.53720843516049
 31
-0.1
  0
LINE
  5
2339
  8
0
 62
     0
 10
7.9958462113412594
 20
204.87360511959389
 30
-0.1
 11
9.8742854893133227
 21
206.6201940673262
 31
-0.1
  0
LINE
  5
233A
  8
0
 62
     0
 10
9.7824904477801322
 20
207.6186944290198
 30
-0.1
 11
9.8733535273106128
 21
207.7031796994919
 31
-0.1
  0
LINE
  5
233B
  8
0
 62
     0
 10
9.8537506036590852
 20
208.76880491141841
 30
-0.1
 11
9.872421565307917
 21
208.7861653316576
 31
-0.1
  0
ENDBLK
  5
233D
  8
0
  0
BLOCK
  8
0
  2
*X130
 70
     1
 10
0.0
 20
0.0
 30
0.0
  3
*X130
  1

  0
LINE
  5
233F
  8
0
 62
     0
 10
255.45888014405779
 20
183.4904061125664
 30
-0.1
 11
255.60688102590009
 21
183.74675115948219
 31
-0.1
  0
LINE
  5
2340
  8
0
 62
     0
 10
254.2682551440578
 20
181.42818311980469
 30
-0.1
 11
254.6651301440578
 21
182.11559078405861
 31
-0.1
  0
LINE
  5
2341
  8
0
 62
     0
 10
253.16283045122151
 20
179.5135313878709
 30
-0.1
 11
253.47450514405779
 21
180.05336779129689
 31
-0.1
  0
LINE
  5
2342
  8
0
 62
     0
 10
254.26825542855391
 20
184.17781361256641
 30
-0.1
 11
254.66513042855391
 21
184.86522127682031
 31
-0.1
  0
LINE
  5
2343
  8
0
 62
     0
 10
253.0776304285539
 20
182.11559061980469
 30
-0.1
 11
253.4745054285539
 21
182.80299828405859
 31
-0.1
  0
LINE
  5
2344
  8
0
 62
     0
 10
251.88700542855389
 20
180.053367627043
 30
-0.1
 11
252.28388042855391
 21
180.7407752912969
 31
-0.1
  0
LINE
  5
2345
  8
0
 62
     0
 10
253.07763071305001
 20
184.86522111256639
 30
-0.1
 11
253.41605777851049
 21
185.45139398460029
 31
-0.1
  0
LINE
  5
2346
  8
0
 62
     0
 10
251.88700571305
 20
182.8029981198047
 30
-0.1
 11
252.28388071305
 21
183.49040578405859
 31
-0.1
  0
LINE
  5
2347
  8
0
 62
     0
 10
250.69638071304999
 20
180.74077512704301
 30
-0.1
 11
251.09325571305001
 21
181.4281827912969
 31
-0.1
  0
LINE
  5
2348
  8
0
 62
     0
 10
250.69638099754621
 20
183.4904056198047
 30
-0.1
 11
251.09325599754609
 21
184.1778132840586
 31
-0.1
  0
LINE
  5
2349
  8
0
 62
     0
 10
254.66511535026081
 20
183.49037950343501
 30
-0.1
 11
254.26824035026081
 21
184.1777871676889
 31
-0.1
  0
LINE
  5
234A
  8
0
 62
     0
 10
255.74580682713119
 20
181.61856695818869
 30
-0.1
 11
255.45886535026079
 21
182.1155641749271
 31
-0.1
  0
LINE
  5
234B
  8
0
 62
     0
 10
252.28386563475689
 20
184.86519499619661
 30
-0.1
 11
251.99425650653089
 21
185.36681272061969
 31
-0.1
  0
LINE
  5
234C
  8
0
 62
     0
 10
253.4744906347569
 20
182.80297200343489
 30
-0.1
 11
253.07761563475691
 21
183.49037966768881
 31
-0.1
  0
LINE
  5
234D
  8
0
 62
     0
 10
254.6651156347568
 20
180.7407490106732
 30
-0.1
 11
254.26824063475689
 21
181.4281566749271
 31
-0.1
  0
LINE
  5
234E
  8
0
 62
     0
 10
251.09324091925299
 20
184.1777874961966
 30
-0.1
 11
250.80822987717761
 21
184.67144110178941
 31
-0.1
  0
LINE
  5
234F
  8
0
 62
     0
 10
252.283865919253
 20
182.11556450343491
 30
-0.1
 11
251.88699091925301
 21
182.80297216768881
 31
-0.1
  0
LINE
  5
2350
  8
0
 62
     0
 10
253.47449091925299
 20
180.05334151067319
 30
-0.1
 11
253.07761591925299
 21
180.74074917492709
 31
-0.1
  0
LINE
  5
2351
  8
0
 62
     0
 10
251.09324120374899
 20
181.42815700343499
 30
-0.1
 11
250.69636620374899
 21
182.11556466768889
 31
-0.1
  0
LINE
  5
2352
  8
0
 62
     0
 10
252.155443792266
 20
179.58836815219229
 30
-0.1
 11
251.88699120374901
 21
180.0533416749272
 31
-0.1
  0
LINE
  5
2353
  8
0
 62
     0
 10
254.66514579134309
 20
180.74074999619671
 30
-0.1
 11
255.30824492648111
 21
180.74074999619671
 31
-0.1
  0
LINE
  5
2354
  8
0
 62
     0
 10
252.2838957913431
 20
180.74074999619671
 30
-0.1
 11
253.07764579134309
 21
180.74074999619671
 31
-0.1
  0
LINE
  5
2355
  8
0
 62
     0
 10
250.44818754509831
 20
180.74074999619671
 30
-0.1
 11
250.69639579134309
 21
180.74074999619671
 31
-0.1
  0
LINE
  5
2356
  8
0
 62
     0
 10
254.66514579134309
 20
182.1155649961967
 30
-0.1
 11
255.45889579134311
 21
182.1155649961967
 31
-0.1
  0
LINE
  5
2357
  8
0
 62
     0
 10
252.2838957913431
 20
182.1155649961967
 30
-0.1
 11
253.07764579134309
 21
182.1155649961967
 31
-0.1
  0
LINE
  5
2358
  8
0
 62
     0
 10
249.90294990640109
 20
182.1155649961967
 30
-0.1
 11
250.69639579134309
 21
182.1155649961967
 31
-0.1
  0
LINE
  5
2359
  8
0
 62
     0
 10
254.66514579134309
 20
183.49037999619671
 30
-0.1
 11
255.45889579134311
 21
183.49037999619671
 31
-0.1
  0
LINE
  5
235A
  8
0
 62
     0
 10
252.2838957913431
 20
183.49037999619671
 30
-0.1
 11
253.07764579134309
 21
183.49037999619671
 31
-0.1
  0
LINE
  5
235B
  8
0
 62
     0
 10
250.04640631004369
 20
183.49037999619671
 30
-0.1
 11
250.69639579134309
 21
183.49037999619671
 31
-0.1
  0
LINE
  5
235C
  8
0
 62
     0
 10
254.66514579134309
 20
184.86519499619669
 30
-0.1
 11
254.7237114570959
 21
184.86519499619669
 31
-0.1
  0
LINE
  5
235D
  8
0
 62
     0
 10
252.2838957913431
 20
184.86519499619669
 30
-0.1
 11
253.07764579134309
 21
184.86519499619669
 31
-0.1
  0
ENDBLK
  5
235F
  8
0
  0
BLOCK
  8
0
  2
*X131
 70
     1
 10
0.0
 20
0.0
 30
0.0
  3
*X131
  1

  0
LINE
  5
2361
  8
0
 62
     0
 10
256.87747836395278
 20
186.6235261930438
 30
-0.1
 11
256.17760860045121
 21
187.3233959565454
 31
-0.1
  0
LINE
  5
2362
  8
0
 62
     0
 10
256.31621235638602
 20
186.0622601854769
 30
-0.1
 11
254.64123996018989
 21
187.737232581673
 31
-0.1
  0
LINE
  5
2363
  8
0
 62
     0
 10
255.7549463488192
 20
185.50099417791009
 30
-0.1
 11
253.10487131992861
 21
188.15106920680071
 31
-0.1
  0
LINE
  5
2364
  8
0
 62
     0
 10
255.4229333614397
 20
184.71047515015599
 30
-0.1
 11
251.5685026796674
 21
188.56490583192829
 31
-0.1
  0
LINE
  5
2365
  8
0
 62
     0
 10
253.598670074528
 20
185.412206421934
 30
-0.1
 11
250.032134039406
 21
188.978742457056
 31
-0.1
  0
LINE
  5
2366
  8
0
 62
     0
 10
255.87821623578941
 20
183.13266026067271
 30
-0.1
 11
255.79042266155091
 21
183.22045383491121
 31
-0.1
  0
LINE
  5
2367
  8
0
 62
     0
 10
252.42307158873359
 20
185.46527289259481
 30
-0.1
 11
249.87821623578921
 21
188.01012824553919
 31
-0.1
  0
LINE
  5
2368
  8
0
 62
     0
 10
251.56735872844419
 20
185.19845373775061
 30
-0.1
 11
249.87821623578921
 21
186.88759623040559
 31
-0.1
  0
LINE
  5
2369
  8
0
 62
     0
 10
250.89357210328009
 20
184.749708347781
 30
-0.1
 11
249.8782162357891
 21
185.76506421527191
 31
-0.1
  0
LINE
  5
236A
  8
0
 62
     0
 10
250.37193877753299
 20
184.1488096583945
 30
-0.1
 11
249.87821623578921
 21
184.64253220013831
 31
-0.1
  0
LINE
  5
236B
  8
0
 62
     0
 10
250.01207662673329
 20
183.38613979406051
 30
-0.1
 11
249.87821623578921
 21
183.52000018500459
 31
-0.1
  0
LINE
  5
236C
  8
0
 62
     0
 10
255.76515263032519
 20
183.31584204822931
 30
-0.1
 11
255.87821623578941
 21
183.4289056536935
 31
-0.1
  0
LINE
  5
236D
  8
0
 62
     0
 10
255.4201185876359
 20
184.09334002067359
 30
-0.1
 11
255.70752265262971
 21
184.3807440856674
 31
-0.1
  0
LINE
  5
236E
  8
0
 62
     0
 10
254.91076757628389
 20
184.7065210244553
 30
-0.1
 11
257.2411631894131
 21
187.03691663758451
 31
-0.1
  0
LINE
  5
236F
  8
0
 62
     0
 10
254.2498096440624
 20
185.16809510736741
 30
-0.1
 11
256.35683423371381
 21
187.27511969701879
 31
-0.1
  0
LINE
  5
2370
  8
0
 62
     0
 10
253.41141822032981
 20
185.45223569876839
 30
-0.1
 11
255.47250527801449
 21
187.51332275645319
 31
-0.1
  0
LINE
  5
2371
  8
0
 62
     0
 10
252.2754779057494
 20
185.4388273993217
 30
-0.1
 11
254.58817632231529
 21
187.75152581588759
 31
-0.1
  0
LINE
  5
2372
  8
0
 62
     0
 10
249.87821623578921
 20
183.04156572936151
 30
-0.1
 11
249.93938883263999
 21
183.10273832621229
 31
-0.1
  0
LINE
  5
2373
  8
0
 62
     0
 10
249.87821623578921
 20
184.16409774449519
 30
-0.1
 11
253.70384736661589
 21
187.9897288753219
 31
-0.1
  0
LINE
  5
2374
  8
0
 62
     0
 10
249.87821623578921
 20
185.2866297596288
 30
-0.1
 11
252.81951841091669
 21
188.2279319347563
 31
-0.1
  0
LINE
  5
2375
  8
0
 62
     0
 10
249.87821623578921
 20
186.4091617747624
 30
-0.1
 11
251.9351894552174
 21
188.46613499419061
 31
-0.1
  0
LINE
  5
2376
  8
0
 62
     0
 10
249.87821623578921
 20
187.53169378989611
 30
-0.1
 11
251.05086049951811
 21
188.70433805362501
 31
-0.1
  0
LINE
  5
2377
  8
0
 62
     0
 10
249.87821623578921
 20
188.65422580502971
 30
-0.1
 11
250.16653154381879
 21
188.94254111305941
 31
-0.1
  0
ENDBLK
  5
2379
  8
0
  0
BLOCK
  8
0
  2
*X132
 70
     1
 10
0.0
 20
0.0
 30
0.0
  3
*X132
  1

  0
LINE
  5
237B
  8
0
 62
     0
 10
9.8782162357897754
 20
189.23798725740059
 30
-0.1
 11
9.6179816704288292
 21
189.49822182276151
 31
-0.1
  0
LINE
  5
237C
  8
0
 62
     0
 10
9.8782162357897647
 20
188.11545524226699
 30
-0.1
 11
8.7326685823063137
 21
189.26100289575041
 31
-0.1
  0
LINE
  5
237D
  8
0
 62
     0
 10
9.8782162357897771
 20
186.9929232271333
 30
-0.1
 11
7.8473554941837982
 21
189.02378396873931
 31
-0.1
  0
LINE
  5
237E
  8
0
 62
     0
 10
9.8782162357897825
 20
185.8703912119997
 30
-0.1
 11
6.9620424060612818
 21
188.78656504172821
 31
-0.1
  0
LINE
  5
237F
  8
0
 62
     0
 10
9.8782162357897718
 20
184.74785919686599
 30
-0.1
 11
6.0767293179387671
 21
188.549346114717
 31
-0.1
  0
LINE
  5
2380
  8
0
 62
     0
 10
9.878216235789786
 20
183.62532718173239
 30
-0.1
 11
5.1914162298162507
 21
188.3121271877059
 31
-0.1
  0
LINE
  5
2381
  8
0
 62
     0
 10
9.8782162357897754
 20
182.5027951665987
 30
-0.1
 11
4.3061031416937361
 21
188.0749082606948
 31
-0.1
  0
LINE
  5
2382
  8
0
 62
     0
 10
9.8782162357897771
 20
181.3802631514651
 30
-0.1
 11
3.4207900535712241
 21
187.83768933368361
 31
-0.1
  0
LINE
  5
2383
  8
0
 62
     0
 10
7.3467531572444278
 20
182.7891942148768
 30
-0.1
 11
2.5354769654487082
 21
187.60047040667251
 31
-0.1
  0
LINE
  5
2384
  8
0
 62
     0
 10
9.8782162357897754
 20
180.2577311363315
 30
-0.1
 11
9.5826599888009838
 21
180.5532873833202
 31
-0.1
  0
LINE
  5
2385
  8
0
 62
     0
 10
5.9299499293733113
 20
183.0834654276143
 30
-0.1
 11
1.6501638773261891
 21
187.36325147966139
 31
-0.1
  0
LINE
  5
2386
  8
0
 62
     0
 10
9.8782162357897825
 20
179.13519912119779
 30
-0.1
 11
9.8769312015384578
 21
179.1364841554491
 31
-0.1
  0
LINE
  5
2387
  8
0
 62
     0
 10
4.9112340651865161
 20
182.9796492766674
 30
-0.1
 11
0.7648507892036811
 21
187.12603255265029
 31
-0.1
  0
LINE
  5
2388
  8
0
 62
     0
 10
4.0801236634946711
 20
182.6882276632256
 30
-0.1
 11
1.777645791532517
 21
184.9907055351878
 31
-0.1
  0
LINE
  5
2389
  8
0
 62
     0
 10
3.3825723518240229
 20
182.2632469597626
 30
-0.1
 11
1.777645791532517
 21
183.86817352005411
 31
-0.1
  0
LINE
  5
238A
  8
0
 62
     0
 10
2.7994158028372769
 20
181.72387149361569
 30
-0.1
 11
1.7776457915325099
 21
182.74564150492051
 31
-0.1
  0
LINE
  5
238B
  8
0
 62
     0
 10
2.3279397839726812
 20
181.07281549734671
 30
-0.1
 11
1.7776457915324959
 21
181.62310948978691
 31
-0.1
  0
LINE
  5
238C
  8
0
 62
     0
 10
1.979887227114133
 20
180.29833603907159
 30
-0.1
 11
1.777645791532485
 21
180.5005774746532
 31
-0.1
  0
LINE
  5
238D
  8
0
 62
     0
 10
1.791120315798149
 20
179.36457093525391
 30
-0.1
 11
1.777645791532485
 21
179.3780454595196
 31
-0.1
  0
LINE
  5
238E
  8
0
 62
     0
 10
9.8444663108158963
 20
179.55624544950311
 30
-0.1
 11
9.8782162357897771
 21
179.5899953744769
 31
-0.1
  0
LINE
  5
238F
  8
0
 62
     0
 10
9.6208690906543861
 20
180.4551802444752
 30
-0.1
 11
9.8782162357897718
 21
180.71252738961061
 31
-0.1
  0
LINE
  5
2390
  8
0
 62
     0
 10
9.2477672856294788
 20
181.2046104545839
 30
-0.1
 11
9.8782162357897771
 21
181.83505940474419
 31
-0.1
  0
LINE
  5
2391
  8
0
 62
     0
 10
8.7547888715979791
 20
181.8341640556861
 30
-0.1
 11
9.8782162357897647
 21
182.9575914198779
 31
-0.1
  0
LINE
  5
2392
  8
0
 62
     0
 10
8.1506546659473216
 20
182.35256186516909
 30
-0.1
 11
9.8782162357897718
 21
184.0801234350115
 31
-0.1
  0
LINE
  5
2393
  8
0
 62
     0
 10
7.429998024420164
 20
182.75443723877549
 30
-0.1
 11
9.8782162357897576
 21
185.2026554501451
 31
-0.1
  0
LINE
  5
2394
  8
0
 62
     0
 10
6.5693427109959472
 20
183.01631394048499
 30
-0.1
 11
9.8782162357897771
 21
186.32518746527879
 31
-0.1
  0
LINE
  5
2395
  8
0
 62
     0
 10
5.5021217254587
 20
183.07162497008139
 30
-0.1
 11
9.8782162357897647
 21
187.44771948041239
 31
-0.1
  0
LINE
  5
2396
  8
0
 62
     0
 10
1.7776457915324779
 20
179.3471490361552
 30
-0.1
 11
1.7907712833166789
 21
179.3602745279394
 31
-0.1
  0
LINE
  5
2397
  8
0
 62
     0
 10
3.909634736102475
 20
182.6016699958588
 30
-0.1
 11
9.8782162357897771
 21
188.5702514955461
 31
-0.1
  0
LINE
  5
2398
  8
0
 62
     0
 10
1.7776457915324919
 20
180.4696810512888
 30
-0.1
 11
2.2607262575392748
 21
180.95276151729561
 31
-0.1
  0
LINE
  5
2399
  8
0
 62
     0
 10
1.777645791532499
 20
181.5922130664224
 30
-0.1
 11
9.7076924893552885
 21
189.52225976424521
 31
-0.1
  0
LINE
  5
239A
  8
0
 62
     0
 10
1.777645791532521
 20
182.71474508155609
 30
-0.1
 11
8.1742852401213923
 21
189.11138453014499
 31
-0.1
  0
LINE
  5
239B
  8
0
 62
     0
 10
1.777645791532521
 20
183.8372770966898
 30
-0.1
 11
6.6408779908874811
 21
188.70050929604469
 31
-0.1
  0
LINE
  5
239C
  8
0
 62
     0
 10
1.7776457915325421
 20
184.9598091118234
 30
-0.1
 11
5.1074707416535849
 21
188.2896340619445
 31
-0.1
  0
LINE
  5
239D
  8
0
 62
     0
 10
1.604456478461052
 20
185.90915181388559
 30
-0.1
 11
3.5740634924196888
 21
187.87875882784419
 31
-0.1
  0
LINE
  5
239E
  8
0
 62
     0
 10
1.0431904708942661
 20
186.47041782145249
 30
-0.1
 11
2.0406562431858002
 21
187.46788359374401
 31
-0.1
  0
LINE
  5
239F
  8
0
 62
     0
 10
0.4524605766688837
 20
187.00221994236071
 30
-0.1
 11
0.5072489939518974
 21
187.0570083596437
 31
-0.1
  0
ENDBLK
  5
23A1
  8
0
  0
BLOCK
  8
0
  2
*X133
 70
     1
 10
0.0
 20
0.0
 30
0.0
  3
*X133
  1

  0
LINE
  5
23A3
  8
0
 62
     0
 10
9.4932736363046875
 20
178.6892181299078
 30
-0.1
 11
9.8669439159157388
 21
179.33643403947261
 31
-0.1
  0
LINE
  5
23A4
  8
0
 62
     0
 10
8.3026486363046832
 20
176.62699513714611
 30
-0.1
 11
8.6995236363046864
 21
177.31440280140001
 31
-0.1
  0
LINE
  5
23A5
  8
0
 62
     0
 10
8.3026489208008005
 20
179.37662562990781
 30
-0.1
 11
8.6995239208008002
 21
180.0640332941617
 31
-0.1
  0
LINE
  5
23A6
  8
0
 62
     0
 10
7.112023920800798
 20
177.31440263714609
 30
-0.1
 11
7.5088989208007986
 21
178.00181030140001
 31
-0.1
  0
LINE
  5
23A7
  8
0
 62
     0
 10
5.9213989208007964
 20
175.2521796443844
 30
-0.1
 11
6.3182739208007961
 21
175.93958730863829
 31
-0.1
  0
LINE
  5
23A8
  8
0
 62
     0
 10
8.3026492052968965
 20
182.1262561226695
 30
-0.1
 11
8.3481873604979366
 21
182.2051305211607
 31
-0.1
  0
LINE
  5
23A9
  8
0
 62
     0
 10
7.1120242052968941
 20
180.06403312990781
 30
-0.1
 11
7.5088992052968937
 21
180.75144079416171
 31
-0.1
  0
LINE
  5
23AA
  8
0
 62
     0
 10
5.9213992052968907
 20
178.00181013714609
 30
-0.1
 11
6.3182742052968921
 21
178.68921780139999
 31
-0.1
  0
LINE
  5
23AB
  8
0
 62
     0
 10
4.7307742052968891
 20
175.9395871443844
 30
-0.1
 11
5.1276492052968887
 21
176.6269948086383
 31
-0.1
  0
LINE
  5
23AC
  8
0
 62
     0
 10
7.1120244897929883
 20
182.81366362266951
 30
-0.1
 11
7.1420359668440598
 21
182.86564502573219
 31
-0.1
  0
LINE
  5
23AD
  8
0
 62
     0
 10
5.9213994897929849
 20
180.75144062990779
 30
-0.1
 11
6.3182744897929863
 21
181.43884829416169
 31
-0.1
  0
LINE
  5
23AE
  8
0
 62
     0
 10
4.7307744897929833
 20
178.6892176371461
 30
-0.1
 11
5.127649489792983
 21
179.3766253014
 31
-0.1
  0
LINE
  5
23AF
  8
0
 62
     0
 10
3.5401494897929799
 20
176.62699464438441
 30
-0.1
 11
3.9370244897929809
 21
177.31440230863831
 31
-0.1
  0
LINE
  5
23B0
  8
0
 62
     0
 10
4.7307747742891122
 20
181.4388481299078
 30
-0.1
 11
5.1276497742891118
 21
182.12625579416169
 31
-0.1
  0
LINE
  5
23B1
  8
0
 62
     0
 10
3.5401497742891088
 20
179.37662513714611
 30
-0.1
 11
3.9370247742891098
 21
180.0640328014
 31
-0.1
  0
LINE
  5
23B2
  8
0
 62
     0
 10
2.3495247742891072
 20
177.3144021443845
 30
-0.1
 11
2.7463997742891082
 21
178.0018098086384
 31
-0.1
  0
LINE
  5
23B3
  8
0
 62
     0
 10
3.5401500587851791
 20
182.1262556299078
 30
-0.1
 11
3.7687843855083911
 21
182.5222619001467
 31
-0.1
  0
LINE
  5
23B4
  8
0
 62
     0
 10
2.3495250587851761
 20
180.06403263714611
 30
-0.1
 11
2.7464000587851771
 21
180.75144030140001
 31
-0.1
  0
LINE
  5
23B5
  8
0
 62
     0
 10
7.5088846959959721
 20
182.12625168781429
 30
-0.1
 11
7.1120096959959733
 21
182.81365935206821
 31
-0.1
  0
LINE
  5
23B6
  8
0
 62
     0
 10
8.6995096959959675
 20
180.0640286950526
 30
-0.1
 11
8.3026346959959696
 21
180.7514363593065
 31
-0.1
  0
LINE
  5
23B7
  8
0
 62
     0
 10
9.7871125708034583
 20
178.18024525742811
 30
-0.1
 11
9.4932596959959632
 21
178.68921336654481
 31
-0.1
  0
LINE
  5
23B8
  8
0
 62
     0
 10
6.318259980492086
 20
181.43884418781431
 30
-0.1
 11
5.9213849804920873
 21
182.12625185206821
 31
-0.1
  0
LINE
  5
23B9
  8
0
 62
     0
 10
7.5088849804920823
 20
179.37662119505259
 30
-0.1
 11
7.1120099804920827
 21
180.06402885930649
 31
-0.1
  0
LINE
  5
23BA
  8
0
 62
     0
 10
8.6995099804920777
 20
177.3143982022909
 30
-0.1
 11
8.3026349804920798
 21
178.0018058665448
 31
-0.1
  0
LINE
  5
23BB
  8
0
 62
     0
 10
5.127635264988168
 20
180.75143668781431
 30
-0.1
 11
4.7307602649881701
 21
181.4388443520682
 31
-0.1
  0
LINE
  5
23BC
  8
0
 62
     0
 10
6.3182602649881652
 20
178.68921369505259
 30
-0.1
 11
5.9213852649881664
 21
179.37662135930651
 31
-0.1
  0
LINE
  5
23BD
  8
0
 62
     0
 10
7.5088852649881606
 20
176.6269907022909
 30
-0.1
 11
7.1120102649881618
 21
177.31439836654479
 31
-0.1
  0
LINE
  5
23BE
  8
0
 62
     0
 10
3.9370105494842709
 20
180.0640291878143
 30
-0.1
 11
3.5401355494842721
 21
180.7514368520682
 31
-0.1
  0
LINE
  5
23BF
  8
0
 62
     0
 10
5.1276355494842667
 20
178.00180619505261
 30
-0.1
 11
4.7307605494842679
 21
178.68921385930651
 31
-0.1
  0
LINE
  5
23C0
  8
0
 62
     0
 10
6.318260549484263
 20
175.93958320229089
 30
-0.1
 11
5.9213855494842651
 21
176.62699086654479
 31
-0.1
  0
LINE
  5
23C1
  8
0
 62
     0
 10
2.7463858339803511
 20
179.37662168781429
 30
-0.1
 11
2.3495108339803519
 21
180.06402935206819
 31
-0.1
  0
LINE
  5
23C2
  8
0
 62
     0
 10
3.9370108339803469
 20
177.3143986950526
 30
-0.1
 11
3.540135833980349
 21
178.0018063593065
 31
-0.1
  0
LINE
  5
23C3
  8
0
 62
     0
 10
5.1276358339803441
 20
175.25217570229091
 30
-0.1
 11
4.7307608339803453
 21
175.93958336654481
 31
-0.1
  0
LINE
  5
23C4
  8
0
 62
     0
 10
2.7463861184764462
 20
176.6269911950526
 30
-0.1
 11
2.349511118476447
 21
177.31439885930649
 31
-0.1
  0
LINE
  5
23C5
  8
0
 62
     0
 10
5.1276457913436744
 20
175.2521663398187
 30
-0.1
 11
5.9213957913436737
 21
175.2521663398187
 31
-0.1
  0
LINE
  5
23C6
  8
0
 62
     0
 10
7.5088957913436749
 20
176.62698133981871
 30
-0.1
 11
8.3026457913436751
 21
176.62698133981871
 31
-0.1
  0
LINE
  5
23C7
  8
0
 62
     0
 10
5.1276457913436762
 20
176.62698133981871
 30
-0.1
 11
5.9213957913436763
 21
176.62698133981871
 31
-0.1
  0
LINE
  5
23C8
  8
0
 62
     0
 10
2.7463957913436761
 20
176.62698133981871
 30
-0.1
 11
3.5401457913436758
 21
176.62698133981871
 31
-0.1
  0
LINE
  5
23C9
  8
0
 62
     0
 10
7.5088957913436767
 20
178.0017963398187
 30
-0.1
 11
8.3026457913436769
 21
178.0017963398187
 31
-0.1
  0
LINE
  5
23CA
  8
0
 62
     0
 10
5.127645791343677
 20
178.0017963398187
 30
-0.1
 11
5.9213957913436781
 21
178.0017963398187
 31
-0.1
  0
LINE
  5
23CB
  8
0
 62
     0
 10
2.7463957913436778
 20
178.0017963398187
 30
-0.1
 11
3.540145791343678
 21
178.0017963398187
 31
-0.1
  0
LINE
  5
23CC
  8
0
 62
     0
 10
7.5088957913436767
 20
179.37661133981871
 30
-0.1
 11
8.3026457913436769
 21
179.37661133981871
 31
-0.1
  0
LINE
  5
23CD
  8
0
 62
     0
 10
5.127645791343677
 20
179.37661133981871
 30
-0.1
 11
5.9213957913436781
 21
179.37661133981871
 31
-0.1
  0
LINE
  5
23CE
  8
0
 62
     0
 10
2.7463957913436778
 20
179.37661133981871
 30
-0.1
 11
3.540145791343678
 21
179.37661133981871
 31
-0.1
  0
LINE
  5
23CF
  8
0
 62
     0
 10
7.5088957913436793
 20
180.75142633981869
 30
-0.1
 11
8.3026457913436786
 21
180.75142633981869
 31
-0.1
  0
LINE
  5
23D0
  8
0
 62
     0
 10
5.1276457913436788
 20
180.75142633981869
 30
-0.1
 11
5.921395791343679
 21
180.75142633981869
 31
-0.1
  0
LINE
  5
23D1
  8
0
 62
     0
 10
2.7463957913436801
 20
180.75142633981869
 30
-0.1
 11
3.5401457913436798
 21
180.75142633981869
 31
-0.1
  0
LINE
  5
23D2
  8
0
 62
     0
 10
7.5088957913436749
 20
182.12624133981871
 30
-0.1
 11
8.3026457913436751
 21
182.12624133981871
 31
-0.1
  0
LINE
  5
23D3
  8
0
 62
     0
 10
5.1276457913436762
 20
182.12624133981871
 30
-0.1
 11
5.9213957913436763
 21
182.12624133981871
 31
-0.1
  0
LINE
  5
23D4
  8
0
 62
     0
 10
3.2114962394767481
 20
182.12624133981871
 30
-0.1
 11
3.5401457913436758
 21
182.12624133981871
 31
-0.1
  0
ENDBLK
  5
23D6
  8
0
  0
BLOCK
  8
0
  2
*X134
 70
     1
 10
0.0
 20
0.0
 30
0.0
  3
*X134
  1

  0
LINE
  5
23D8
  8
0
 62
     0
 10
9.8728470005243807
 20
208.29178870952191
 30
-0.1
 11
9.8272344377176122
 21
208.3408445733279
 31
-0.1
  0
LINE
  5
23D9
  8
0
 62
     0
 10
9.8738510477714385
 20
207.12503648204171
 30
-0.1
 11
9.7595221977792832
 21
207.24799603855871
 31
-0.1
  0
LINE
  5
23DA
  8
0
 62
     0
 10
9.8748550950184963
 20
205.95828425456151
 30
-0.1
 11
9.2170602229501597
 21
206.66573618602251
 31
-0.1
  0
LINE
  5
23DB
  8
0
 62
     0
 10
9.8758591422655542
 20
204.7915320270813
 30
-0.1
 11
8.4771258212041403
 21
206.2958559912868
 31
-0.1
  0
LINE
  5
23DC
  8
0
 62
     0
 10
9.8768631895125907
 20
203.6247797996011
 30
-0.1
 11
7.9527042805550598
 21
205.6941938287799
 31
-0.1
  0
LINE
  5
23DD
  8
0
 62
     0
 10
9.8778672367596485
 20
202.4580275721209
 30
-0.1
 11
8.0985004251861454
 21
204.37171912107939
 31
-0.1
  0
LINE
  5
23DE
  8
0
 62
     0
 10
9.8788712840067099
 20
201.2912753446407
 30
-0.1
 11
8.4041621424172845
 21
202.87731055844571
 31
-0.1
  0
LINE
  5
23DF
  8
0
 62
     0
 10
9.8798753312537464
 20
200.12452311716049
 30
-0.1
 11
8.7098238596484308
 21
201.38290199581201
 31
-0.1
  0
LINE
  5
23E0
  8
0
 62
     0
 10
9.8808793785008113
 20
198.95777088968029
 30
-0.1
 11
9.0154855768795805
 21
199.8884934331783
 31
-0.1
  0
LINE
  5
23E1
  8
0
 62
     0
 10
9.8818834257478656
 20
197.79101866220009
 30
-0.1
 11
9.2323942153729455
 21
198.48953793599449
 31
-0.1
  0
LINE
  5
23E2
  8
0
 62
     0
 10
9.8828874729949234
 20
196.62426643471991
 30
-0.1
 11
9.1665726430430823
 21
197.3946560067611
 31
-0.1
  0
LINE
  5
23E3
  8
0
 62
     0
 10
9.883891520241967
 20
195.45751420723971
 30
-0.1
 11
9.1007510707132155
 21
196.29977407752779
 31
-0.1
  0
LINE
  5
23E4
  8
0
 62
     0
 10
9.8848955674890249
 20
194.29076197975951
 30
-0.1
 11
9.0349294983833541
 21
195.20489214829439
 31
-0.1
  0
LINE
  5
23E5
  8
0
 62
     0
 10
9.8858996147360791
 20
193.12400975227931
 30
-0.1
 11
8.9691079260534927
 21
194.110010219061
 31
-0.1
  0
LINE
  5
23E6
  8
0
 62
     0
 10
9.1535473959421338
 20
192.74597499416529
 30
-0.1
 11
8.9032863537236242
 21
193.0151282898276
 31
-0.1
  0
LINE
  5
23E7
  8
0
 62
     0
 10
8.9536895719072547
 20
192.7579899483527
 30
-0.1
 11
9.8854690333456787
 21
193.62436648133769
 31
-0.1
  0
LINE
  5
23E8
  8
0
 62
     0
 10
8.9529446916719309
 20
193.8411495307499
 30
-0.1
 11
9.8845370713429812
 21
194.70735211350339
 31
-0.1
  0
LINE
  5
23E9
  8
0
 62
     0
 10
9.0219610432844703
 20
194.98917370470161
 30
-0.1
 11
9.8836051093402872
 21
195.79033774566909
 31
-0.1
  0
LINE
  5
23EA
  8
0
 62
     0
 10
9.0909773948970241
 20
196.13719787865341
 30
-0.1
 11
9.8826731473375915
 21
196.87332337783479
 31
-0.1
  0
LINE
  5
23EB
  8
0
 62
     0
 10
9.1599937465095564
 20
197.28522205260509
 30
-0.1
 11
9.8817411853348958
 21
197.9563090100005
 31
-0.1
  0
LINE
  5
23EC
  8
0
 62
     0
 10
9.2290100981221173
 20
198.4332462265568
 30
-0.1
 11
9.8808092233321911
 21
199.0392946421662
 31
-0.1
  0
LINE
  5
23ED
  8
0
 62
     0
 10
9.1134305157073783
 20
199.40963151819321
 30
-0.1
 11
9.8798772613294812
 21
200.12228027433201
 31
-0.1
  0
LINE
  5
23EE
  8
0
 62
     0
 10
8.9271664649796918
 20
200.3202937850933
 30
-0.1
 11
9.8789452993268014
 21
201.2052659064976
 31
-0.1
  0
LINE
  5
23EF
  8
0
 62
     0
 10
8.7409024142520124
 20
201.2309560519935
 30
-0.1
 11
9.8780133373240915
 21
202.2882515386633
 31
-0.1
  0
LINE
  5
23F0
  8
0
 62
     0
 10
8.5546383635243242
 20
202.14161831889351
 30
-0.1
 11
9.8770813753213886
 21
203.371237170829
 31
-0.1
  0
LINE
  5
23F1
  8
0
 62
     0
 10
8.3683743127966466
 20
203.05228058579371
 30
-0.1
 11
9.8761494133186982
 21
204.45422280299479
 31
-0.1
  0
LINE
  5
23F2
  8
0
 62
     0
 10
8.1821102620689459
 20
203.9629428526938
 30
-0.1
 11
9.8752174513160043
 21
205.53720843516049
 31
-0.1
  0
LINE
  5
23F3
  8
0
 62
     0
 10
7.9958462113412594
 20
204.87360511959389
 30
-0.1
 11
9.8742854893133227
 21
206.6201940673262
 31
-0.1
  0
LINE
  5
23F4
  8
0
 62
     0
 10
9.7824904477801322
 20
207.6186944290198
 30
-0.1
 11
9.8733535273106128
 21
207.7031796994919
 31
-0.1
  0
LINE
  5
23F5
  8
0
 62
     0
 10
9.8537506036590852
 20
208.76880491141841
 30
-0.1
 11
9.872421565307917
 21
208.7861653316576
 31
-0.1
  0
ENDBLK
  5
23F7
  8
0
  0
BLOCK
  8
0
  2
*X135
 70
     1
 10
0.0
 20
0.0
 30
0.0
  3
*X135
  1

  0
LINE
  5
23F9
  8
0
 62
     0
 10
255.45888014405779
 20
183.4904061125664
 30
-0.1
 11
255.60688102590009
 21
183.74675115948219
 31
-0.1
  0
LINE
  5
23FA
  8
0
 62
     0
 10
254.2682551440578
 20
181.42818311980469
 30
-0.1
 11
254.6651301440578
 21
182.11559078405861
 31
-0.1
  0
LINE
  5
23FB
  8
0
 62
     0
 10
253.16283045122151
 20
179.5135313878709
 30
-0.1
 11
253.47450514405779
 21
180.05336779129689
 31
-0.1
  0
LINE
  5
23FC
  8
0
 62
     0
 10
254.26825542855391
 20
184.17781361256641
 30
-0.1
 11
254.66513042855391
 21
184.86522127682031
 31
-0.1
  0
LINE
  5
23FD
  8
0
 62
     0
 10
253.0776304285539
 20
182.11559061980469
 30
-0.1
 11
253.4745054285539
 21
182.80299828405859
 31
-0.1
  0
LINE
  5
23FE
  8
0
 62
     0
 10
251.88700542855389
 20
180.053367627043
 30
-0.1
 11
252.28388042855391
 21
180.7407752912969
 31
-0.1
  0
LINE
  5
23FF
  8
0
 62
     0
 10
253.07763071305001
 20
184.86522111256639
 30
-0.1
 11
253.41605777851049
 21
185.45139398460029
 31
-0.1
  0
LINE
  5
2400
  8
0
 62
     0
 10
251.88700571305
 20
182.8029981198047
 30
-0.1
 11
252.28388071305
 21
183.49040578405859
 31
-0.1
  0
LINE
  5
2401
  8
0
 62
     0
 10
250.69638071304999
 20
180.74077512704301
 30
-0.1
 11
251.09325571305001
 21
181.4281827912969
 31
-0.1
  0
LINE
  5
2402
  8
0
 62
     0
 10
250.69638099754621
 20
183.4904056198047
 30
-0.1
 11
251.09325599754609
 21
184.1778132840586
 31
-0.1
  0
LINE
  5
2403
  8
0
 62
     0
 10
254.66511535026081
 20
183.49037950343501
 30
-0.1
 11
254.26824035026081
 21
184.1777871676889
 31
-0.1
  0
LINE
  5
2404
  8
0
 62
     0
 10
255.74580682713119
 20
181.61856695818869
 30
-0.1
 11
255.45886535026079
 21
182.1155641749271
 31
-0.1
  0
LINE
  5
2405
  8
0
 62
     0
 10
252.28386563475689
 20
184.86519499619661
 30
-0.1
 11
251.99425650653089
 21
185.36681272061969
 31
-0.1
  0
LINE
  5
2406
  8
0
 62
     0
 10
253.4744906347569
 20
182.80297200343489
 30
-0.1
 11
253.07761563475691
 21
183.49037966768881
 31
-0.1
  0
LINE
  5
2407
  8
0
 62
     0
 10
254.6651156347568
 20
180.7407490106732
 30
-0.1
 11
254.26824063475689
 21
181.4281566749271
 31
-0.1
  0
LINE
  5
2408
  8
0
 62
     0
 10
251.09324091925299
 20
184.1777874961966
 30
-0.1
 11
250.80822987717761
 21
184.67144110178941
 31
-0.1
  0
LINE
  5
2409
  8
0
 62
     0
 10
252.283865919253
 20
182.11556450343491
 30
-0.1
 11
251.88699091925301
 21
182.80297216768881
 31
-0.1
  0
LINE
  5
240A
  8
0
 62
     0
 10
253.47449091925299
 20
180.05334151067319
 30
-0.1
 11
253.07761591925299
 21
180.74074917492709
 31
-0.1
  0
LINE
  5
240B
  8
0
 62
     0
 10
251.09324120374899
 20
181.42815700343499
 30
-0.1
 11
250.69636620374899
 21
182.11556466768889
 31
-0.1
  0
LINE
  5
240C
  8
0
 62
     0
 10
252.155443792266
 20
179.58836815219229
 30
-0.1
 11
251.88699120374901
 21
180.0533416749272
 31
-0.1
  0
LINE
  5
240D
  8
0
 62
     0
 10
254.66514579134309
 20
180.74074999619671
 30
-0.1
 11
255.30824492648111
 21
180.74074999619671
 31
-0.1
  0
LINE
  5
240E
  8
0
 62
     0
 10
252.2838957913431
 20
180.74074999619671
 30
-0.1
 11
253.07764579134309
 21
180.74074999619671
 31
-0.1
  0
LINE
  5
240F
  8
0
 62
     0
 10
250.44818754509831
 20
180.74074999619671
 30
-0.1
 11
250.69639579134309
 21
180.74074999619671
 31
-0.1
  0
LINE
  5
2410
  8
0
 62
     0
 10
254.66514579134309
 20
182.1155649961967
 30
-0.1
 11
255.45889579134311
 21
182.1155649961967
 31
-0.1
  0
LINE
  5
2411
  8
0
 62
     0
 10
252.2838957913431
 20
182.1155649961967
 30
-0.1
 11
253.07764579134309
 21
182.1155649961967
 31
-0.1
  0
LINE
  5
2412
  8
0
 62
     0
 10
249.90294990640109
 20
182.1155649961967
 30
-0.1
 11
250.69639579134309
 21
182.1155649961967
 31
-0.1
  0
LINE
  5
2413
  8
0
 62
     0
 10
254.66514579134309
 20
183.49037999619671
 30
-0.1
 11
255.45889579134311
 21
183.49037999619671
 31
-0.1
  0
LINE
  5
2414
  8
0
 62
     0
 10
252.2838957913431
 20
183.49037999619671
 30
-0.1
 11
253.07764579134309
 21
183.49037999619671
 31
-0.1
  0
LINE
  5
2415
  8
0
 62
     0
 10
250.04640631004369
 20
183.49037999619671
 30
-0.1
 11
250.69639579134309
 21
183.49037999619671
 31
-0.1
  0
LINE
  5
2416
  8
0
 62
     0
 10
254.66514579134309
 20
184.86519499619669
 30
-0.1
 11
254.7237114570959
 21
184.86519499619669
 31
-0.1
  0
LINE
  5
2417
  8
0
 62
     0
 10
252.2838957913431
 20
184.86519499619669
 30
-0.1
 11
253.07764579134309
 21
184.86519499619669
 31
-0.1
  0
ENDBLK
  5
2419
  8
0
  0
BLOCK
  8
0
  2
*X136
 70
     1
 10
0.0
 20
0.0
 30
0.0
  3
*X136
  1

  0
LINE
  5
241B
  8
0
 62
     0
 10
256.87747836395278
 20
186.6235261930438
 30
-0.1
 11
256.17760860045121
 21
187.3233959565454
 31
-0.1
  0
LINE
  5
241C
  8
0
 62
     0
 10
256.31621235638602
 20
186.0622601854769
 30
-0.1
 11
254.64123996018989
 21
187.737232581673
 31
-0.1
  0
LINE
  5
241D
  8
0
 62
     0
 10
255.7549463488192
 20
185.50099417791009
 30
-0.1
 11
253.10487131992861
 21
188.15106920680071
 31
-0.1
  0
LINE
  5
241E
  8
0
 62
     0
 10
255.4229333614397
 20
184.71047515015599
 30
-0.1
 11
251.5685026796674
 21
188.56490583192829
 31
-0.1
  0
LINE
  5
241F
  8
0
 62
     0
 10
253.598670074528
 20
185.412206421934
 30
-0.1
 11
250.032134039406
 21
188.978742457056
 31
-0.1
  0
LINE
  5
2420
  8
0
 62
     0
 10
255.87821623578941
 20
183.13266026067271
 30
-0.1
 11
255.79042266155091
 21
183.22045383491121
 31
-0.1
  0
LINE
  5
2421
  8
0
 62
     0
 10
252.42307158873359
 20
185.46527289259481
 30
-0.1
 11
249.87821623578921
 21
188.01012824553919
 31
-0.1
  0
LINE
  5
2422
  8
0
 62
     0
 10
251.56735872844419
 20
185.19845373775061
 30
-0.1
 11
249.87821623578921
 21
186.88759623040559
 31
-0.1
  0
LINE
  5
2423
  8
0
 62
     0
 10
250.89357210328009
 20
184.749708347781
 30
-0.1
 11
249.8782162357891
 21
185.76506421527191
 31
-0.1
  0
LINE
  5
2424
  8
0
 62
     0
 10
250.37193877753299
 20
184.1488096583945
 30
-0.1
 11
249.87821623578921
 21
184.64253220013831
 31
-0.1
  0
LINE
  5
2425
  8
0
 62
     0
 10
250.01207662673329
 20
183.38613979406051
 30
-0.1
 11
249.87821623578921
 21
183.52000018500459
 31
-0.1
  0
LINE
  5
2426
  8
0
 62
     0
 10
255.76515263032519
 20
183.31584204822931
 30
-0.1
 11
255.87821623578941
 21
183.4289056536935
 31
-0.1
  0
LINE
  5
2427
  8
0
 62
     0
 10
255.4201185876359
 20
184.09334002067359
 30
-0.1
 11
255.70752265262971
 21
184.3807440856674
 31
-0.1
  0
LINE
  5
2428
  8
0
 62
     0
 10
254.91076757628389
 20
184.7065210244553
 30
-0.1
 11
257.2411631894131
 21
187.03691663758451
 31
-0.1
  0
LINE
  5
2429
  8
0
 62
     0
 10
254.2498096440624
 20
185.16809510736741
 30
-0.1
 11
256.35683423371381
 21
187.27511969701879
 31
-0.1
  0
LINE
  5
242A
  8
0
 62
     0
 10
253.41141822032981
 20
185.45223569876839
 30
-0.1
 11
255.47250527801449
 21
187.51332275645319
 31
-0.1
  0
LINE
  5
242B
  8
0
 62
     0
 10
252.2754779057494
 20
185.4388273993217
 30
-0.1
 11
254.58817632231529
 21
187.75152581588759
 31
-0.1
  0
LINE
  5
242C
  8
0
 62
     0
 10
249.87821623578921
 20
183.04156572936151
 30
-0.1
 11
249.93938883263999
 21
183.10273832621229
 31
-0.1
  0
LINE
  5
242D
  8
0
 62
     0
 10
249.87821623578921
 20
184.16409774449519
 30
-0.1
 11
253.70384736661589
 21
187.9897288753219
 31
-0.1
  0
LINE
  5
242E
  8
0
 62
     0
 10
249.87821623578921
 20
185.2866297596288
 30
-0.1
 11
252.81951841091669
 21
188.2279319347563
 31
-0.1
  0
LINE
  5
242F
  8
0
 62
     0
 10
249.87821623578921
 20
186.4091617747624
 30
-0.1
 11
251.9351894552174
 21
188.46613499419061
 31
-0.1
  0
LINE
  5
2430
  8
0
 62
     0
 10
249.87821623578921
 20
187.53169378989611
 30
-0.1
 11
251.05086049951811
 21
188.70433805362501
 31
-0.1
  0
LINE
  5
2431
  8
0
 62
     0
 10
249.87821623578921
 20
188.65422580502971
 30
-0.1
 11
250.16653154381879
 21
188.94254111305941
 31
-0.1
  0
ENDBLK
  5
2433
  8
0
  0
BLOCK
  8
0
  2
*X137
 70
     1
 10
0.0
 20
0.0
 30
0.0
  3
*X137
  1

  0
LINE
  5
2435
  8
0
 62
     0
 10
9.8782162357897754
 20
189.23798725740059
 30
-0.1
 11
9.6179816704288292
 21
189.49822182276151
 31
-0.1
  0
LINE
  5
2436
  8
0
 62
     0
 10
9.8782162357897647
 20
188.11545524226699
 30
-0.1
 11
8.7326685823063137
 21
189.26100289575041
 31
-0.1
  0
LINE
  5
2437
  8
0
 62
     0
 10
9.8782162357897771
 20
186.9929232271333
 30
-0.1
 11
7.8473554941837982
 21
189.02378396873931
 31
-0.1
  0
LINE
  5
2438
  8
0
 62
     0
 10
9.8782162357897825
 20
185.8703912119997
 30
-0.1
 11
6.9620424060612818
 21
188.78656504172821
 31
-0.1
  0
LINE
  5
2439
  8
0
 62
     0
 10
9.8782162357897718
 20
184.74785919686599
 30
-0.1
 11
6.0767293179387671
 21
188.549346114717
 31
-0.1
  0
LINE
  5
243A
  8
0
 62
     0
 10
9.878216235789786
 20
183.62532718173239
 30
-0.1
 11
5.1914162298162507
 21
188.3121271877059
 31
-0.1
  0
LINE
  5
243B
  8
0
 62
     0
 10
9.8782162357897754
 20
182.5027951665987
 30
-0.1
 11
4.3061031416937361
 21
188.0749082606948
 31
-0.1
  0
LINE
  5
243C
  8
0
 62
     0
 10
9.8782162357897771
 20
181.3802631514651
 30
-0.1
 11
3.4207900535712241
 21
187.83768933368361
 31
-0.1
  0
LINE
  5
243D
  8
0
 62
     0
 10
7.3467531572444278
 20
182.7891942148768
 30
-0.1
 11
2.5354769654487082
 21
187.60047040667251
 31
-0.1
  0
LINE
  5
243E
  8
0
 62
     0
 10
9.8782162357897754
 20
180.2577311363315
 30
-0.1
 11
9.5826599888009838
 21
180.5532873833202
 31
-0.1
  0
LINE
  5
243F
  8
0
 62
     0
 10
5.9299499293733113
 20
183.0834654276143
 30
-0.1
 11
1.6501638773261891
 21
187.36325147966139
 31
-0.1
  0
LINE
  5
2440
  8
0
 62
     0
 10
9.8782162357897825
 20
179.13519912119779
 30
-0.1
 11
9.8769312015384578
 21
179.1364841554491
 31
-0.1
  0
LINE
  5
2441
  8
0
 62
     0
 10
4.9112340651865161
 20
182.9796492766674
 30
-0.1
 11
0.7648507892036811
 21
187.12603255265029
 31
-0.1
  0
LINE
  5
2442
  8
0
 62
     0
 10
4.0801236634946711
 20
182.6882276632256
 30
-0.1
 11
1.777645791532517
 21
184.9907055351878
 31
-0.1
  0
LINE
  5
2443
  8
0
 62
     0
 10
3.3825723518240229
 20
182.2632469597626
 30
-0.1
 11
1.777645791532517
 21
183.86817352005411
 31
-0.1
  0
LINE
  5
2444
  8
0
 62
     0
 10
2.7994158028372769
 20
181.72387149361569
 30
-0.1
 11
1.7776457915325099
 21
182.74564150492051
 31
-0.1
  0
LINE
  5
2445
  8
0
 62
     0
 10
2.3279397839726812
 20
181.07281549734671
 30
-0.1
 11
1.7776457915324959
 21
181.62310948978691
 31
-0.1
  0
LINE
  5
2446
  8
0
 62
     0
 10
1.979887227114133
 20
180.29833603907159
 30
-0.1
 11
1.777645791532485
 21
180.5005774746532
 31
-0.1
  0
LINE
  5
2447
  8
0
 62
     0
 10
1.791120315798149
 20
179.36457093525391
 30
-0.1
 11
1.777645791532485
 21
179.3780454595196
 31
-0.1
  0
LINE
  5
2448
  8
0
 62
     0
 10
9.8444663108158963
 20
179.55624544950311
 30
-0.1
 11
9.8782162357897771
 21
179.5899953744769
 31
-0.1
  0
LINE
  5
2449
  8
0
 62
     0
 10
9.6208690906543861
 20
180.4551802444752
 30
-0.1
 11
9.8782162357897718
 21
180.71252738961061
 31
-0.1
  0
LINE
  5
244A
  8
0
 62
     0
 10
9.2477672856294788
 20
181.2046104545839
 30
-0.1
 11
9.8782162357897771
 21
181.83505940474419
 31
-0.1
  0
LINE
  5
244B
  8
0
 62
     0
 10
8.7547888715979791
 20
181.8341640556861
 30
-0.1
 11
9.8782162357897647
 21
182.9575914198779
 31
-0.1
  0
LINE
  5
244C
  8
0
 62
     0
 10
8.1506546659473216
 20
182.35256186516909
 30
-0.1
 11
9.8782162357897718
 21
184.0801234350115
 31
-0.1
  0
LINE
  5
244D
  8
0
 62
     0
 10
7.429998024420164
 20
182.75443723877549
 30
-0.1
 11
9.8782162357897576
 21
185.2026554501451
 31
-0.1
  0
LINE
  5
244E
  8
0
 62
     0
 10
6.5693427109959472
 20
183.01631394048499
 30
-0.1
 11
9.8782162357897771
 21
186.32518746527879
 31
-0.1
  0
LINE
  5
244F
  8
0
 62
     0
 10
5.5021217254587
 20
183.07162497008139
 30
-0.1
 11
9.8782162357897647
 21
187.44771948041239
 31
-0.1
  0
LINE
  5
2450
  8
0
 62
     0
 10
1.7776457915324779
 20
179.3471490361552
 30
-0.1
 11
1.7907712833166789
 21
179.3602745279394
 31
-0.1
  0
LINE
  5
2451
  8
0
 62
     0
 10
3.909634736102475
 20
182.6016699958588
 30
-0.1
 11
9.8782162357897771
 21
188.5702514955461
 31
-0.1
  0
LINE
  5
2452
  8
0
 62
     0
 10
1.7776457915324919
 20
180.4696810512888
 30
-0.1
 11
2.2607262575392748
 21
180.95276151729561
 31
-0.1
  0
LINE
  5
2453
  8
0
 62
     0
 10
1.777645791532499
 20
181.5922130664224
 30
-0.1
 11
9.7076924893552885
 21
189.52225976424521
 31
-0.1
  0
LINE
  5
2454
  8
0
 62
     0
 10
1.777645791532521
 20
182.71474508155609
 30
-0.1
 11
8.1742852401213923
 21
189.11138453014499
 31
-0.1
  0
LINE
  5
2455
  8
0
 62
     0
 10
1.777645791532521
 20
183.8372770966898
 30
-0.1
 11
6.6408779908874811
 21
188.70050929604469
 31
-0.1
  0
LINE
  5
2456
  8
0
 62
     0
 10
1.7776457915325421
 20
184.9598091118234
 30
-0.1
 11
5.1074707416535849
 21
188.2896340619445
 31
-0.1
  0
LINE
  5
2457
  8
0
 62
     0
 10
1.604456478461052
 20
185.90915181388559
 30
-0.1
 11
3.5740634924196888
 21
187.87875882784419
 31
-0.1
  0
LINE
  5
2458
  8
0
 62
     0
 10
1.0431904708942661
 20
186.47041782145249
 30
-0.1
 11
2.0406562431858002
 21
187.46788359374401
 31
-0.1
  0
LINE
  5
2459
  8
0
 62
     0
 10
0.4524605766688837
 20
187.00221994236071
 30
-0.1
 11
0.5072489939518974
 21
187.0570083596437
 31
-0.1
  0
ENDBLK
  5
245B
  8
0
  0
BLOCK
  8
0
  2
*X138
 70
     1
 10
0.0
 20
0.0
 30
0.0
  3
*X138
  1

  0
LINE
  5
245D
  8
0
 62
     0
 10
9.4932736363046857
 20
178.6892181299078
 30
-0.1
 11
9.8669439159157388
 21
179.33643403947261
 31
-0.1
  0
LINE
  5
245E
  8
0
 62
     0
 10
8.3026486363046832
 20
176.62699513714611
 30
-0.1
 11
8.6995236363046864
 21
177.31440280140001
 31
-0.1
  0
LINE
  5
245F
  8
0
 62
     0
 10
8.3026489208007987
 20
179.37662562990781
 30
-0.1
 11
8.6995239208008002
 21
180.0640332941617
 31
-0.1
  0
LINE
  5
2460
  8
0
 62
     0
 10
7.1120239208007971
 20
177.31440263714609
 30
-0.1
 11
7.5088989208007986
 21
178.00181030140001
 31
-0.1
  0
LINE
  5
2461
  8
0
 62
     0
 10
5.9213989208007938
 20
175.2521796443844
 30
-0.1
 11
6.3182739208007961
 21
175.93958730863829
 31
-0.1
  0
LINE
  5
2462
  8
0
 62
     0
 10
8.3026492052968948
 20
182.1262561226695
 30
-0.1
 11
8.3481873604979366
 21
182.2051305211607
 31
-0.1
  0
LINE
  5
2463
  8
0
 62
     0
 10
7.1120242052968932
 20
180.06403312990781
 30
-0.1
 11
7.5088992052968937
 21
180.75144079416171
 31
-0.1
  0
LINE
  5
2464
  8
0
 62
     0
 10
5.9213992052968898
 20
178.00181013714609
 30
-0.1
 11
6.3182742052968921
 21
178.68921780139999
 31
-0.1
  0
LINE
  5
2465
  8
0
 62
     0
 10
4.7307742052968882
 20
175.9395871443844
 30
-0.1
 11
5.1276492052968887
 21
176.6269948086383
 31
-0.1
  0
LINE
  5
2466
  8
0
 62
     0
 10
7.1120244897929874
 20
182.81366362266951
 30
-0.1
 11
7.1420359668440598
 21
182.86564502573219
 31
-0.1
  0
LINE
  5
2467
  8
0
 62
     0
 10
5.921399489792984
 20
180.75144062990779
 30
-0.1
 11
6.3182744897929863
 21
181.43884829416169
 31
-0.1
  0
LINE
  5
2468
  8
0
 62
     0
 10
4.7307744897929824
 20
178.6892176371461
 30
-0.1
 11
5.127649489792983
 21
179.3766253014
 31
-0.1
  0
LINE
  5
2469
  8
0
 62
     0
 10
3.5401494897929791
 20
176.62699464438441
 30
-0.1
 11
3.9370244897929809
 21
177.31440230863831
 31
-0.1
  0
LINE
  5
246A
  8
0
 62
     0
 10
4.7307747742891113
 20
181.4388481299078
 30
-0.1
 11
5.1276497742891118
 21
182.12625579416169
 31
-0.1
  0
LINE
  5
246B
  8
0
 62
     0
 10
3.5401497742891088
 20
179.37662513714611
 30
-0.1
 11
3.9370247742891098
 21
180.0640328014
 31
-0.1
  0
LINE
  5
246C
  8
0
 62
     0
 10
2.3495247742891059
 20
177.3144021443845
 30
-0.1
 11
2.7463997742891082
 21
178.0018098086384
 31
-0.1
  0
LINE
  5
246D
  8
0
 62
     0
 10
3.5401500587851782
 20
182.1262556299078
 30
-0.1
 11
3.7687843855083911
 21
182.5222619001467
 31
-0.1
  0
LINE
  5
246E
  8
0
 62
     0
 10
2.3495250587851748
 20
180.06403263714611
 30
-0.1
 11
2.7464000587851771
 21
180.75144030140001
 31
-0.1
  0
LINE
  5
246F
  8
0
 62
     0
 10
7.5088846959959721
 20
182.12625168781429
 30
-0.1
 11
7.1120096959959733
 21
182.81365935206821
 31
-0.1
  0
LINE
  5
2470
  8
0
 62
     0
 10
8.6995096959959675
 20
180.0640286950526
 30
-0.1
 11
8.3026346959959696
 21
180.7514363593065
 31
-0.1
  0
LINE
  5
2471
  8
0
 62
     0
 10
9.7871125708034583
 20
178.18024525742811
 30
-0.1
 11
9.4932596959959632
 21
178.68921336654481
 31
-0.1
  0
LINE
  5
2472
  8
0
 62
     0
 10
6.318259980492086
 20
181.43884418781431
 30
-0.1
 11
5.9213849804920873
 21
182.12625185206821
 31
-0.1
  0
LINE
  5
2473
  8
0
 62
     0
 10
7.5088849804920823
 20
179.37662119505259
 30
-0.1
 11
7.1120099804920827
 21
180.06402885930649
 31
-0.1
  0
LINE
  5
2474
  8
0
 62
     0
 10
8.6995099804920777
 20
177.3143982022909
 30
-0.1
 11
8.3026349804920798
 21
178.0018058665448
 31
-0.1
  0
LINE
  5
2475
  8
0
 62
     0
 10
5.127635264988168
 20
180.75143668781431
 30
-0.1
 11
4.7307602649881701
 21
181.4388443520682
 31
-0.1
  0
LINE
  5
2476
  8
0
 62
     0
 10
6.3182602649881652
 20
178.68921369505259
 30
-0.1
 11
5.9213852649881664
 21
179.37662135930651
 31
-0.1
  0
LINE
  5
2477
  8
0
 62
     0
 10
7.5088852649881606
 20
176.6269907022909
 30
-0.1
 11
7.1120102649881618
 21
177.31439836654479
 31
-0.1
  0
LINE
  5
2478
  8
0
 62
     0
 10
3.9370105494842709
 20
180.0640291878143
 30
-0.1
 11
3.5401355494842721
 21
180.7514368520682
 31
-0.1
  0
LINE
  5
2479
  8
0
 62
     0
 10
5.1276355494842667
 20
178.00180619505261
 30
-0.1
 11
4.7307605494842679
 21
178.68921385930651
 31
-0.1
  0
LINE
  5
247A
  8
0
 62
     0
 10
6.318260549484263
 20
175.93958320229089
 30
-0.1
 11
5.9213855494842651
 21
176.62699086654479
 31
-0.1
  0
LINE
  5
247B
  8
0
 62
     0
 10
2.7463858339803511
 20
179.37662168781429
 30
-0.1
 11
2.3495108339803519
 21
180.06402935206819
 31
-0.1
  0
LINE
  5
247C
  8
0
 62
     0
 10
3.9370108339803469
 20
177.3143986950526
 30
-0.1
 11
3.540135833980349
 21
178.0018063593065
 31
-0.1
  0
LINE
  5
247D
  8
0
 62
     0
 10
5.1276358339803441
 20
175.25217570229091
 30
-0.1
 11
4.7307608339803453
 21
175.93958336654481
 31
-0.1
  0
LINE
  5
247E
  8
0
 62
     0
 10
2.7463861184764462
 20
176.6269911950526
 30
-0.1
 11
2.349511118476447
 21
177.31439885930649
 31
-0.1
  0
LINE
  5
247F
  8
0
 62
     0
 10
5.1276457913436744
 20
175.2521663398187
 30
-0.1
 11
5.9213957913436737
 21
175.2521663398187
 31
-0.1
  0
LINE
  5
2480
  8
0
 62
     0
 10
7.5088957913436749
 20
176.62698133981871
 30
-0.1
 11
8.3026457913436751
 21
176.62698133981871
 31
-0.1
  0
LINE
  5
2481
  8
0
 62
     0
 10
5.1276457913436762
 20
176.62698133981871
 30
-0.1
 11
5.9213957913436763
 21
176.62698133981871
 31
-0.1
  0
LINE
  5
2482
  8
0
 62
     0
 10
2.7463957913436761
 20
176.62698133981871
 30
-0.1
 11
3.5401457913436758
 21
176.62698133981871
 31
-0.1
  0
LINE
  5
2483
  8
0
 62
     0
 10
7.5088957913436767
 20
178.0017963398187
 30
-0.1
 11
8.3026457913436769
 21
178.0017963398187
 31
-0.1
  0
LINE
  5
2484
  8
0
 62
     0
 10
5.127645791343677
 20
178.0017963398187
 30
-0.1
 11
5.9213957913436781
 21
178.0017963398187
 31
-0.1
  0
LINE
  5
2485
  8
0
 62
     0
 10
2.7463957913436778
 20
178.0017963398187
 30
-0.1
 11
3.540145791343678
 21
178.0017963398187
 31
-0.1
  0
LINE
  5
2486
  8
0
 62
     0
 10
7.5088957913436767
 20
179.37661133981871
 30
-0.1
 11
8.3026457913436769
 21
179.37661133981871
 31
-0.1
  0
LINE
  5
2487
  8
0
 62
     0
 10
5.127645791343677
 20
179.37661133981871
 30
-0.1
 11
5.9213957913436781
 21
179.37661133981871
 31
-0.1
  0
LINE
  5
2488
  8
0
 62
     0
 10
2.7463957913436778
 20
179.37661133981871
 30
-0.1
 11
3.540145791343678
 21
179.37661133981871
 31
-0.1
  0
LINE
  5
2489
  8
0
 62
     0
 10
7.5088957913436793
 20
180.75142633981869
 30
-0.1
 11
8.3026457913436786
 21
180.75142633981869
 31
-0.1
  0
LINE
  5
248A
  8
0
 62
     0
 10
5.1276457913436788
 20
180.75142633981869
 30
-0.1
 11
5.921395791343679
 21
180.75142633981869
 31
-0.1
  0
LINE
  5
248B
  8
0
 62
     0
 10
2.7463957913436801
 20
180.75142633981869
 30
-0.1
 11
3.5401457913436798
 21
180.75142633981869
 31
-0.1
  0
LINE
  5
248C
  8
0
 62
     0
 10
7.5088957913436749
 20
182.12624133981871
 30
-0.1
 11
8.3026457913436751
 21
182.12624133981871
 31
-0.1
  0
LINE
  5
248D
  8
0
 62
     0
 10
5.1276457913436762
 20
182.12624133981871
 30
-0.1
 11
5.9213957913436763
 21
182.12624133981871
 31
-0.1
  0
LINE
  5
248E
  8
0
 62
     0
 10
3.2114962394767481
 20
182.12624133981871
 30
-0.1
 11
3.5401457913436758
 21
182.12624133981871
 31
-0.1
  0
ENDBLK
  5
2490
  8
0
  0
BLOCK
  8
0
  2
*U139
 70
     1
 10
0.0
 20
0.0
 30
0.0
  3
*U139
  1

  0
TEXT
  5
24B2
  8
SAPA_MATT
 62
     2
 10
122.3782162357893
 20
241.2632891963413
 30
0.0
 40
3.0
  1
237-242
  7
ISO
  0
ENDBLK
  5
24B4
  8
0
  0
BLOCK
  8
0
  2
*U140
 70
     1
 10
0.0
 20
0.0
 30
0.0
  3
*U140
  1

  0
TEXT
  5
24B6
  8
SAPA_MATT
 62
     2
 10
41.098941777855771
 20
-25.18954559620887
 30
0.0
 40
3.0
  1
86
  7
ISO
  0
ENDBLK
  5
24B8
  8
0
  0
BLOCK
  8
0
  2
*U141
 70
     1
 10
0.0
 20
0.0
 30
0.0
  3
*U141
  1

  0
TEXT
  5
24BA
  8
SAPA_MATT
 62
     2
 10
-24.74608864794018
 20
90.650738089992302
 30
0.0
 40
3.0
  1
187
 50
90.0
  7
ISO
  0
ENDBLK
  5
24BC
  8
0
  0
BLOCK
  8
0
  2
*U142
 70
     1
 10
0.0
 20
0.0
 30
0.0
  3
*U142
  1

  0
TEXT
  5
24BE
  8
SAPA_MATT
 62
     2
 10
-11.708401025678681
 20
42.399999999999942
 30
0.0
 40
3.0
  1
89
 50
90.0
  7
ISO
  0
ENDBLK
  5
24C0
  8
0
  0
BLOCK
  8
0
  2
*U143
 70
     1
 10
0.0
 20
0.0
 30
0.0
  3
*U143
  1

  0
TEXT
  5
24C2
  8
SAPA_MATT
 62
     2
 10
-11.70840102567864
 20
90.449999998044191
 30
0.0
 40
3.0
  1
5
 50
90.0
  7
ISO
  0
ENDBLK
  5
24C4
  8
0
  0
BLOCK
  8
0
  2
*U144
 70
     1
 10
0.0
 20
0.0
 30
0.0
  3
*U144
  1

  0
TEXT
  5
24C6
  8
SAPA_MATT
 62
     2
 10
-11.708401025678659
 20
138.3999999960796
 30
0.0
 40
3.0
  1
93
 50
90.0
  7
ISO
  0
ENDBLK
  5
24C8
  8
0
  0
ENDSEC
  0
SECTION
  2
ENTITIES
  0
LINE
  5
8B7
  8
SAPA_ANSLUTNING
 10
9.8782162357896937
 20
222.01067633990149
 30
-0.1
 11
9.8782162357896652
 21
162.01067633991849
 31
-0.1
  0
LINE
  5
8B8
  8
SAPA_ANSLUTNING
 10
10.478216235694831
 20
162.01067633991761
 30
-0.1
 11
10.47821623578969
 21
222.01067633990149
 31
-0.1
  0
LINE
  5
8BA
  8
SAPA_ANSLUTNING
 10
249.87821623578969
 20
222.01067633990149
 30
-0.1
 11
249.87821623578969
 21
162.01067633991849
 31
-0.1
  0
LINE
  5
8BB
  8
SAPA_ANSLUTNING
 10
249.27821623578961
 20
162.01067633991849
 30
-0.1
 11
249.27821623578961
 21
222.01067633990149
 31
-0.1
  0
CIRCLE
  5
8BC
  8
SAPA_ANSLUTNING
 10
5.8279310136610141
 20
179.03446523973761
 30
-0.1
 40
4.0502852221286458
1001
ACAD
1000
ASC_BOUNDS
1002
{
1070
    19
1005
1581
1002
}
  0
LINE
  5
8BD
  8
SAPA_ANSLUTNING
 10
0.3000000780066045
 20
187.00147617998459
 30
-0.1
 11
9.8782162357896652
 21
189.5679514643933
 31
-0.1
  0
CIRCLE
  5
8BF
  8
SAPA_ANSLUTNING
 10
252.87821623578969
 20
182.4999999961731
 30
-0.1
 40
3.0000000000000848
1001
ACAD
1000
ASC_BOUNDS
1002
{
1070
    19
1005
157E
1002
}
  0
LINE
  5
8C0
  8
SAPA_ANSLUTNING
 10
257.3782162357889
 20
186.9999999961683
 30
-0.1
 11
249.8782162357891
 21
189.0202017935249
 31
-0.1
  0
POLYLINE
  5
8C1
  8
SAPA_ANSLUTNING
 66
     1
 10
0.0
 20
0.0
 30
-0.1
  0
VERTEX
  5
1691
  8
SAPA_ANSLUTNING
 10
88.898863707015437
 20
162.0106763398052
 30
-0.1
  0
VERTEX
  5
1692
  8
SAPA_ANSLUTNING
 10
88.898863707009326
 20
149.3132767343545
 30
-0.1
 42
-0.9999999999999998
  0
VERTEX
  5
1693
  8
SAPA_ANSLUTNING
 10
80.486863116834314
 20
149.3132767343545
 30
-0.1
  0
VERTEX
  5
1694
  8
SAPA_ANSLUTNING
 10
80.486863116834385
 20
157.804676044834
 30
-0.1
 42
0.9999999999999998
  0
VERTEX
  5
1695
  8
SAPA_ANSLUTNING
 10
72.074862526670273
 20
157.804676044834
 30
-0.1
  0
VERTEX
  5
1696
  8
SAPA_ANSLUTNING
 10
72.074862526670273
 20
150.89764070933271
 30
-0.1
 42
-0.9999999999999998
  0
VERTEX
  5
1697
  8
SAPA_ANSLUTNING
 10
63.662861936495261
 20
150.89764070933271
 30
-0.1
  0
VERTEX
  5
1698
  8
SAPA_ANSLUTNING
 10
63.662861936495261
 20
157.804676044834
 30
-0.1
 42
0.9999999999999998
  0
VERTEX
  5
1699
  8
SAPA_ANSLUTNING
 10
55.25086134633117
 20
157.804676044834
 30
-0.1
  0
VERTEX
  5
169A
  8
SAPA_ANSLUTNING
 10
55.250861346331128
 20
145.91155426801271
 30
-0.1
 42
-0.9999999999999998
  0
VERTEX
  5
169B
  8
SAPA_ANSLUTNING
 10
46.838860756156151
 20
145.91155426801271
 30
-0.1
  0
VERTEX
  5
169C
  8
SAPA_ANSLUTNING
 10
46.838860756156151
 20
157.804676044834
 30
-0.1
 42
0.9999999999999998
  0
VERTEX
  5
169D
  8
SAPA_ANSLUTNING
 10
38.426860165992061
 20
157.804676044834
 30
-0.1
  0
VERTEX
  5
169E
  8
SAPA_ANSLUTNING
 10
38.426860165992061
 20
145.91155426801271
 30
-0.1
 42
-0.9999999999999998
  0
VERTEX
  5
169F
  8
SAPA_ANSLUTNING
 10
30.014859575817042
 20
145.91155426801271
 30
-0.1
  0
VERTEX
  5
16A0
  8
SAPA_ANSLUTNING
 10
30.014859575817042
 20
157.80467604483411
 30
-0.1
 42
0.9999999999999998
  0
VERTEX
  5
16A1
  8
SAPA_ANSLUTNING
 10
21.602858985652951
 20
157.80467604483411
 30
-0.1
  0
VERTEX
  5
16A2
  8
SAPA_ANSLUTNING
 10
21.602858985655391
 20
141.81169843212609
 30
-0.1
  0
SEQEND
  5
16A3
  8
SAPA_ANSLUTNING
  0
TEXT
  5
8C4
  8
SAPA_ARTIKELNR
 10
70.589322767681864
 20
148.3176915737304
 30
-0.1
 40
3.5
  1
42793
 50
180.0
 51
180.0
  7
ISO
 71
     6
 72
     4
 11
76.889322767681861
 21
150.06769157373029
 31
-0.1
  0
TEXT
  5
94A
  8
SAPA_ARTIKELNR
 10
92.687260973204786
 20
115.61192633100821
 30
-0.1000000048844204
 40
3.5
  1
86422
 50
90.0
  7
ISO
  0
TEXT
  5
950
  8
SAPA_ARTIKELNR
 10
92.687260899052063
 20
81.461926323787196
 30
-0.1000000048844204
 40
3.5
  1
86517
 50
90.0
  7
ISO
  0
TEXT
  5
956
  8
SAPA_ARTIKELNR
 10
92.687260899807796
 20
39.71192707087588
 30
-0.1000000048844204
 40
3.5
  1
86424
 50
90.0
  7
ISO
  0
TEXT
  5
95C
  8
SAPA_ARTIKELNR
 10
92.709240901984245
 20
7.1096143806368248
 30
0.0000000000000018
 40
3.5
  1
42728
 50
270.0
  7
ISO
 71
     6
  0
TEXT
  5
962
  8
SAPA_ARTIKELNR
 10
-6.1980337549626219
 20
203.5500513803286
 30
-0.1000000048844204
 40
3.5
  1
42070
 50
26.559661165300579
  7
ISO
  0
LINE
  5
BCD
  8
SAPA_ANSLUTNING
 10
9.8782162357896652
 20
162.01067633991849
 30
-0.1
 11
249.87821623578969
 21
162.01067633991849
 31
-0.1
  0
TEXT
  5
DD1
  8
SAPA_ARTIKELNR
 10
263.18354973589999
 20
156.22833982845549
 30
-0.1
 40
3.5
  1
42882
 50
270.0
 51
180.0
  7
ISO
 71
     6
 72
     4
 11
261.43354973589999
 21
162.5283398284555
 31
-0.1
  0
POLYLINE
  5
1528
  8
SAPA_PROFIL
 66
     1
 10
0.0
 20
0.0
 30
-0.1
 70
     1
  0
VERTEX
  5
1CF9
  8
SAPA_PROFIL
 10
244.91484316045401
 20
148.79999999580409
 30
-0.1
 42
-0.5535245743366085
  0
VERTEX
  5
1CFA
  8
SAPA_PROFIL
 10
243.14232383783869
 20
144.4894457842546
 30
-0.1
  0
VERTEX
  5
1CFB
  8
SAPA_PROFIL
 10
242.854992931156
 20
144.77677669093751
 30
-0.1
 42
0.4142135623731421
  0
VERTEX
  5
1CFC
  8
SAPA_PROFIL
 10
242.50143954056259
 20
144.7767766909374
 30
-0.1
  0
VERTEX
  5
1CFD
  8
SAPA_PROFIL
 10
242.21410863387069
 20
144.4894457842455
 30
-0.1
 42
-0.5535245743469748
  0
VERTEX
  5
1CFE
  8
SAPA_PROFIL
 10
240.4415893111838
 20
148.79999999580369
 30
-0.1
  0
VERTEX
  5
1CFF
  8
SAPA_PROFIL
 10
240.778216235814
 20
148.79999999580389
 30
-0.1
 42
0.414213562372873
  0
VERTEX
  5
1D00
  8
SAPA_PROFIL
 10
241.0782162358139
 20
149.0999999958041
 30
-0.1
  0
VERTEX
  5
1D01
  8
SAPA_PROFIL
 10
241.07821623581421
 20
149.59999999580361
 30
-0.1
 42
0.414213562372665
  0
VERTEX
  5
1D02
  8
SAPA_PROFIL
 10
240.778216235814
 20
149.8999999958038
 30
-0.1
  0
VERTEX
  5
1D03
  8
SAPA_PROFIL
 10
238.47821623581399
 20
149.8999999958038
 30
-0.1
 42
0.4142135623730951
  0
VERTEX
  5
1D04
  8
SAPA_PROFIL
 10
238.17821623581429
 20
149.59999999580401
 30
-0.1
  0
VERTEX
  5
1D05
  8
SAPA_PROFIL
 10
238.17821623581341
 20
145.29999999591121
 30
-0.1
 42
-0.4142135623736611
  0
VERTEX
  5
1D06
  8
SAPA_PROFIL
 10
237.1782162358115
 20
144.29999999591141
 30
-0.1
  0
VERTEX
  5
1D07
  8
SAPA_PROFIL
 10
93.978216235810038
 20
144.299999996206
 30
-0.1
 42
-0.4142135623723464
  0
VERTEX
  5
1D08
  8
SAPA_PROFIL
 10
93.678216235810652
 20
144.59999999620581
 30
-0.1
  0
VERTEX
  5
1D09
  8
SAPA_PROFIL
 10
93.678216235810623
 20
144.69999999634109
 30
-0.1
 42
0.637070260804782
  0
VERTEX
  5
1D0A
  8
SAPA_PROFIL
 10
93.185379952906246
 20
144.92981332927801
 30
-0.1
  0
VERTEX
  5
1D0B
  8
SAPA_PROFIL
 10
92.371052518715246
 20
144.2465114795998
 30
-0.1
 42
-0.6370702608053477
  0
VERTEX
  5
1D0C
  8
SAPA_PROFIL
 10
91.878216235810626
 20
144.47632481253709
 30
-0.1
  0
VERTEX
  5
1D0D
  8
SAPA_PROFIL
 10
91.878216235810811
 20
144.69999999634109
 30
-0.1
 42
0.6370702608049355
  0
VERTEX
  5
1D0E
  8
SAPA_PROFIL
 10
91.385379952906106
 20
144.92981332927801
 30
-0.1
  0
VERTEX
  5
1D0F
  8
SAPA_PROFIL
 10
90.571052518714993
 20
144.2465114795998
 30
-0.1
 42
-0.6370702608053194
  0
VERTEX
  5
1D10
  8
SAPA_PROFIL
 10
90.078216235810515
 20
144.47632481253709
 30
-0.1
  0
VERTEX
  5
1D11
  8
SAPA_PROFIL
 10
90.078216235810629
 20
144.69999999634109
 30
-0.1
 42
0.6370702608043289
  0
VERTEX
  5
1D12
  8
SAPA_PROFIL
 10
89.585379952906166
 20
144.92981332927801
 30
-0.1
  0
VERTEX
  5
1D13
  8
SAPA_PROFIL
 10
88.771052518714868
 20
144.2465114795998
 30
-0.1
 42
-0.6370702608051309
  0
VERTEX
  5
1D14
  8
SAPA_PROFIL
 10
88.278216235810618
 20
144.47632481253709
 30
-0.1
  0
VERTEX
  5
1D15
  8
SAPA_PROFIL
 10
88.278216235810731
 20
144.69999999634109
 30
-0.1
 42
0.6370702608042995
  0
VERTEX
  5
1D16
  8
SAPA_PROFIL
 10
87.785379952906226
 20
144.92981332927801
 30
-0.1
  0
VERTEX
  5
1D17
  8
SAPA_PROFIL
 10
86.971052518714913
 20
144.2465114795998
 30
-0.1
 42
-0.6370702608051309
  0
VERTEX
  5
1D18
  8
SAPA_PROFIL
 10
86.478216235810663
 20
144.47632481253709
 30
-0.1
  0
VERTEX
  5
1D19
  8
SAPA_PROFIL
 10
86.478216235810436
 20
144.69999999634109
 30
-0.1
 42
0.6370702608047666
  0
VERTEX
  5
1D1A
  8
SAPA_PROFIL
 10
85.985379952906158
 20
144.92981332927801
 30
-0.1
  0
VERTEX
  5
1D1B
  8
SAPA_PROFIL
 10
85.171052518715157
 20
144.2465114795998
 30
-0.1
 42
-0.6370702608053223
  0
VERTEX
  5
1D1C
  8
SAPA_PROFIL
 10
84.678216235810595
 20
144.47632481253709
 30
-0.1
  0
VERTEX
  5
1D1D
  8
SAPA_PROFIL
 10
84.678216235810567
 20
144.69999999634109
 30
-0.1
 42
0.6370702608054398
  0
VERTEX
  5
1D1E
  8
SAPA_PROFIL
 10
84.185379952904967
 20
144.9298133292771
 30
-0.1
  0
VERTEX
  5
1D1F
  8
SAPA_PROFIL
 10
83.371052518715203
 20
144.2465114795998
 30
-0.1
 42
-0.6370702608053286
  0
VERTEX
  5
1D20
  8
SAPA_PROFIL
 10
82.878216235810612
 20
144.47632481253709
 30
-0.1
  0
VERTEX
  5
1D21
  8
SAPA_PROFIL
 10
82.878216235810726
 20
144.69999999634109
 30
-0.1
 42
0.6370702608055612
  0
VERTEX
  5
1D22
  8
SAPA_PROFIL
 10
82.385379952904884
 20
144.9298133292771
 30
-0.1
  0
VERTEX
  5
1D23
  8
SAPA_PROFIL
 10
81.571052518714936
 20
144.24651147960029
 30
-0.1
 42
-0.6370702608052288
  0
VERTEX
  5
1D24
  8
SAPA_PROFIL
 10
81.078216235810544
 20
144.47632481253709
 30
-0.1
  0
VERTEX
  5
1D25
  8
SAPA_PROFIL
 10
81.078216235810444
 20
144.69999999634109
 30
-0.1
 42
0.6370702608054464
  0
VERTEX
  5
1D26
  8
SAPA_PROFIL
 10
80.585379952904816
 20
144.9298133292771
 30
-0.1
  0
VERTEX
  5
1D27
  8
SAPA_PROFIL
 10
79.771052518715067
 20
144.24651147960029
 30
-0.1
 42
-0.6370702608049216
  0
VERTEX
  5
1D28
  8
SAPA_PROFIL
 10
79.278216235810362
 20
144.4763248125366
 30
-0.1
  0
VERTEX
  5
1D29
  8
SAPA_PROFIL
 10
79.278216235810135
 20
144.69999999634109
 30
-0.1
 42
0.6064417173624969
  0
VERTEX
  5
1D2A
  8
SAPA_PROFIL
 10
78.806411557089135
 20
144.9459332238018
 30
-0.1
  0
VERTEX
  5
1D2B
  8
SAPA_PROFIL
 10
75.891875104608445
 20
142.90988870876279
 30
-0.1
 42
0.7336498725449036
  0
VERTEX
  5
1D2C
  8
SAPA_PROFIL
 10
76.178216235823555
 20
141.99999999632681
 30
-0.1
  0
VERTEX
  5
1D2D
  8
SAPA_PROFIL
 10
257.17821623581358
 20
141.99999999585029
 30
-0.1
 42
0.4142135623753592
  0
VERTEX
  5
1D2E
  8
SAPA_PROFIL
 10
257.67821623581699
 20
142.49999999585069
 30
-0.1
  0
VERTEX
  5
1D2F
  8
SAPA_PROFIL
 10
257.67821623578862
 20
186.6999999961686
 30
-0.1
 42
0.66817863791893
  0
VERTEX
  5
1D30
  8
SAPA_PROFIL
 10
257.16608420143251
 20
186.9121320305245
 30
-0.1
  0
VERTEX
  5
1D31
  8
SAPA_PROFIL
 10
255.52466284519591
 20
185.2707106742879
 30
-0.1
 42
0.4142135623729537
  0
VERTEX
  5
1D32
  8
SAPA_PROFIL
 10
255.5246628451961
 20
184.5636038931012
 30
-0.1
  0
VERTEX
  5
1D33
  8
SAPA_PROFIL
 10
255.79034827014539
 20
184.2979184681522
 30
-0.1
 42
-0.198912367379707
  0
VERTEX
  5
1D34
  8
SAPA_PROFIL
 10
255.8782162357893
 20
184.08578643379619
 30
-0.1
  0
VERTEX
  5
1D35
  8
SAPA_PROFIL
 10
255.8782162357893
 20
179.99999999616949
 30
-0.1
 42
-0.4142135623734946
  0
VERTEX
  5
1D36
  8
SAPA_PROFIL
 10
255.3782162357887
 20
179.49999999616949
 30
-0.1
  0
VERTEX
  5
1D37
  8
SAPA_PROFIL
 10
250.17821623579019
 20
179.499999996177
 30
-0.1
 42
0.414213562373761
  0
VERTEX
  5
1D38
  8
SAPA_PROFIL
 10
249.8782162357893
 20
179.1999999961769
 30
-0.1
  0
VERTEX
  5
1D39
  8
SAPA_PROFIL
 10
249.8782162357893
 20
177.79999999617769
 30
-0.1
 42
0.4142135623728733
  0
VERTEX
  5
1D3A
  8
SAPA_PROFIL
 10
250.17821623578931
 20
177.49999999617771
 30
-0.1
  0
VERTEX
  5
1D3B
  8
SAPA_PROFIL
 10
254.87821623579481
 20
177.49999999617751
 30
-0.1
 42
-0.4142135623728287
  0
VERTEX
  5
1D3C
  8
SAPA_PROFIL
 10
255.37821623579481
 20
176.99999999617791
 30
-0.1
  0
VERTEX
  5
1D3D
  8
SAPA_PROFIL
 10
255.3782162358157
 20
144.79999999586411
 30
-0.1
 42
-0.4142135623753592
  0
VERTEX
  5
1D3E
  8
SAPA_PROFIL
 10
254.87821623581229
 20
144.29999999586369
 30
-0.1
  0
VERTEX
  5
1D3F
  8
SAPA_PROFIL
 10
248.1782162358011
 20
144.2999999958819
 30
-0.1
 42
-0.414213562372995
  0
VERTEX
  5
1D40
  8
SAPA_PROFIL
 10
247.17821623581361
 20
145.29999999588551
 30
-0.1
  0
VERTEX
  5
1D41
  8
SAPA_PROFIL
 10
247.17821623581381
 20
149.59999999580401
 30
-0.1
 42
0.414213562372887
  0
VERTEX
  5
1D42
  8
SAPA_PROFIL
 10
246.87821623581391
 20
149.8999999958038
 30
-0.1
  0
VERTEX
  5
1D43
  8
SAPA_PROFIL
 10
244.5782162358139
 20
149.8999999958038
 30
-0.1
 42
0.4142135623728731
  0
VERTEX
  5
1D44
  8
SAPA_PROFIL
 10
244.278216235814
 20
149.59999999580361
 30
-0.1
  0
VERTEX
  5
1D45
  8
SAPA_PROFIL
 10
244.27821623581369
 20
149.0999999958041
 30
-0.1
 42
0.4142135623730951
  0
VERTEX
  5
1D46
  8
SAPA_PROFIL
 10
244.5782162358139
 20
148.79999999580389
 30
-0.1
  0
SEQEND
  5
1D47
  8
SAPA_PROFIL
  0
POLYLINE
  5
1529
  8
SAPA_PROFIL
 66
     1
 10
0.0
 20
0.0
 30
-0.1
 70
     1
  0
VERTEX
  5
1D48
  8
SAPA_PROFIL
 10
63.999999999917662
 20
72.45499074915837
 30
-0.1
  0
VERTEX
  5
1D49
  8
SAPA_PROFIL
 10
63.999999999917662
 20
68.602204344658148
 30
-0.1
 42
-0.4142135623731784
  0
VERTEX
  5
1D4A
  8
SAPA_PROFIL
 10
63.699999999917587
 20
68.302204344657994
 30
-0.1
  0
VERTEX
  5
1D4B
  8
SAPA_PROFIL
 10
63.399999999917242
 20
68.302204344658165
 30
-0.1
  0
VERTEX
  5
1D4C
  8
SAPA_PROFIL
 10
61.79999999991761
 20
69.225964775361561
 30
-0.1
 42
0.5773502691887984
  0
VERTEX
  5
1D4D
  8
SAPA_PROFIL
 10
61.499999999917662
 20
69.052759694604546
 30
-0.1
  0
VERTEX
  5
1D4E
  8
SAPA_PROFIL
 10
61.499999999917662
 20
67.667119048549566
 30
-0.1
 42
0.2679491924311038
  0
VERTEX
  5
1D4F
  8
SAPA_PROFIL
 10
61.999999999917492
 20
66.801093644765146
 30
-0.1
  0
VERTEX
  5
1D50
  8
SAPA_PROFIL
 10
63.74999999730445
 20
65.790730675191966
 30
-0.1
 42
-0.2679491932396976
  0
VERTEX
  5
1D51
  8
SAPA_PROFIL
 10
63.999999997304478
 20
65.357717971790763
 30
-0.1
  0
VERTEX
  5
1D52
  8
SAPA_PROFIL
 10
63.999999997304528
 20
32.719615238359729
 30
-0.1
  0
VERTEX
  5
1D53
  8
SAPA_PROFIL
 10
64.299999997304525
 20
32.199999996089069
 30
-0.1
  0
VERTEX
  5
1D54
  8
SAPA_PROFIL
 10
63.999999997304528
 20
31.680384753818402
 30
-0.1
  0
VERTEX
  5
1D55
  8
SAPA_PROFIL
 10
63.999999997304528
 20
31.342282020387071
 30
-0.1
 42
-0.2679491916226445
  0
VERTEX
  5
1D56
  8
SAPA_PROFIL
 10
63.74999999991762
 20
30.909269318494768
 30
-0.1
  0
VERTEX
  5
1D57
  8
SAPA_PROFIL
 10
61.99999999991762
 20
29.898906347412861
 30
-0.1
 42
0.2679491924311319
  0
VERTEX
  5
1D58
  8
SAPA_PROFIL
 10
61.499999999917669
 20
29.032880943628459
 30
-0.1
  0
VERTEX
  5
1D59
  8
SAPA_PROFIL
 10
61.499999999917669
 20
27.647240297573369
 30
-0.1
 42
0.5773502691893683
  0
VERTEX
  5
1D5A
  8
SAPA_PROFIL
 10
61.799999999917631
 20
27.47403521681635
 30
-0.1
  0
VERTEX
  5
1D5B
  8
SAPA_PROFIL
 10
63.399999999917668
 20
28.397795647519839
 30
-0.1
  0
VERTEX
  5
1D5C
  8
SAPA_PROFIL
 10
63.699999999917608
 20
28.397795647519839
 30
-0.1
 42
-0.4142135623732059
  0
VERTEX
  5
1D5D
  8
SAPA_PROFIL
 10
63.999999999917669
 20
28.09779564751965
 30
-0.1
  0
VERTEX
  5
1D5E
  8
SAPA_PROFIL
 10
63.999999999917669
 20
24.245009243019531
 30
-0.1
 42
0.2134217652834387
  0
VERTEX
  5
1D5F
  8
SAPA_PROFIL
 10
64.099999999917799
 20
24.02140244526942
 30
-0.1
 42
-0.7625858545243238
  0
VERTEX
  5
1D60
  8
SAPA_PROFIL
 10
63.915420797720309
 20
23.69107636425241
 30
-0.1
  0
VERTEX
  5
1D61
  8
SAPA_PROFIL
 10
63.724037797726602
 20
23.7491500012415
 30
-0.1
  0
VERTEX
  5
1D62
  8
SAPA_PROFIL
 10
61.83819410586554
 20
24.833714448213239
 30
-0.1
  0
VERTEX
  5
1D63
  8
SAPA_PROFIL
 10
61.84875547209252
 20
25.155472176431491
 30
-0.1
 42
0.5773502691897466
  0
VERTEX
  5
1D64
  8
SAPA_PROFIL
 10
61.55459917183768
 20
25.338425916541659
 30
-0.1
  0
VERTEX
  5
1D65
  8
SAPA_PROFIL
 10
61.269916888606033
 20
25.186292005432911
 30
-0.1
 42
0.221694662643019
  0
VERTEX
  5
1D66
  8
SAPA_PROFIL
 10
60.864107983451241
 20
24.64541217395611
 30
-0.1
  0
VERTEX
  5
1D67
  8
SAPA_PROFIL
 10
60.482661387323532
 20
22.83218170329787
 30
-0.1
 42
0.476975532698164
  0
VERTEX
  5
1D68
  8
SAPA_PROFIL
 10
60.784914211829999
 20
22.460524828351989
 30
-0.1
  0
VERTEX
  5
1D69
  8
SAPA_PROFIL
 10
62.288015292592
 20
22.460608436235638
 30
-0.1
  0
VERTEX
  5
1D6A
  8
SAPA_PROFIL
 10
62.30253370183911
 20
22.508454186234129
 30
-0.1
 42
-0.4142135623730951
  0
VERTEX
  5
1D6B
  8
SAPA_PROFIL
 10
62.676718657314922
 20
22.708418230741518
 30
-0.1
  0
VERTEX
  5
1D6C
  8
SAPA_PROFIL
 10
63.992132377160303
 20
22.199999996088909
 30
-0.1
  0
VERTEX
  5
1D6D
  8
SAPA_PROFIL
 10
66.990283238333845
 20
22.199999996089069
 30
-0.1
 42
0.2562769736732418
  0
VERTEX
  5
1D6E
  8
SAPA_PROFIL
 10
67.158955742545189
 20
22.292530994404519
 30
-0.1
  0
VERTEX
  5
1D6F
  8
SAPA_PROFIL
 10
67.9530087487218
 20
23.53879649356227
 30
-0.1
 42
0.5920056181180006
  0
VERTEX
  5
1D70
  8
SAPA_PROFIL
 10
67.699999992404713
 20
23.99999999608897
 30
-0.1
  0
VERTEX
  5
1D71
  8
SAPA_PROFIL
 10
66.29999999240475
 20
23.99999999608897
 30
-0.1
 42
-0.4142135623731505
  0
VERTEX
  5
1D72
  8
SAPA_PROFIL
 10
65.99999999240471
 20
24.29999999608895
 30
-0.1
  0
VERTEX
  5
1D73
  8
SAPA_PROFIL
 10
65.999999992404852
 20
26.69999999608887
 30
-0.1
 42
-0.4142135623729841
  0
VERTEX
  5
1D74
  8
SAPA_PROFIL
 10
66.29999999240475
 20
26.999999996088881
 30
-0.1
  0
VERTEX
  5
1D75
  8
SAPA_PROFIL
 10
83.699999992404827
 20
26.99999999608886
 30
-0.1
 42
-0.4142135623730882
  0
VERTEX
  5
1D76
  8
SAPA_PROFIL
 10
83.999999992404824
 20
26.699999996088881
 30
-0.1
  0
VERTEX
  5
1D77
  8
SAPA_PROFIL
 10
83.999999992404796
 20
24.29999999608879
 30
-0.1
 42
-0.4142135623730118
  0
VERTEX
  5
1D78
  8
SAPA_PROFIL
 10
83.699999992404727
 20
23.999999996088981
 30
-0.1
  0
VERTEX
  5
1D79
  8
SAPA_PROFIL
 10
82.299999992404722
 20
23.999999996088981
 30
-0.1
 42
0.5877032589249656
  0
VERTEX
  5
1D7A
  8
SAPA_PROFIL
 10
82.044953775094612
 20
23.542039788961372
 30
-0.1
  0
VERTEX
  5
1D7B
  8
SAPA_PROFIL
 10
82.941352752336812
 20
22.094693191337061
 30
-0.1
 42
0.2596812337301635
  0
VERTEX
  5
1D7C
  8
SAPA_PROFIL
 10
83.111383563876913
 20
21.999999996088889
 30
-0.1
  0
VERTEX
  5
1D7D
  8
SAPA_PROFIL
 10
85.799999997236327
 20
21.999999996088889
 30
-0.1
 42
0.4142135623732095
  0
VERTEX
  5
1D7E
  8
SAPA_PROFIL
 10
85.999999997236316
 20
22.199999996088881
 30
-0.1
  0
VERTEX
  5
1D7F
  8
SAPA_PROFIL
 10
85.999999997236316
 20
65.000001490239057
 30
-0.1
 42
0.4142135623730067
  0
VERTEX
  5
1D80
  8
SAPA_PROFIL
 10
84.000001491386826
 20
66.999999996089045
 30
-0.1
  0
VERTEX
  5
1D81
  8
SAPA_PROFIL
 10
78.299999250161392
 20
66.999999996089045
 30
-0.1
 42
-0.4142135623729993
  0
VERTEX
  5
1D82
  8
SAPA_PROFIL
 10
77.299999997236299
 20
67.999999249014067
 30
-0.1
  0
VERTEX
  5
1D83
  8
SAPA_PROFIL
 10
77.299999997236398
 20
75.501018996089144
 30
-0.1
 42
0.4142135623730951
  0
VERTEX
  5
1D84
  8
SAPA_PROFIL
 10
76.299999997236384
 20
76.501018996089044
 30
-0.1
  0
VERTEX
  5
1D85
  8
SAPA_PROFIL
 10
75.802224847821407
 20
76.501018996089044
 30
-0.1
 42
0.4142135623729598
  0
VERTEX
  5
1D86
  8
SAPA_PROFIL
 10
75.602224997236306
 20
76.301019145504043
 30
-0.1
  0
VERTEX
  5
1D87
  8
SAPA_PROFIL
 10
75.602224997236391
 20
74.703168432910388
 30
-0.1
 42
-0.414645992438811
  0
VERTEX
  5
1D88
  8
SAPA_PROFIL
 10
75.401929760775857
 20
74.50316865082192
 30
-0.1
  0
VERTEX
  5
1D89
  8
SAPA_PROFIL
 10
63.996303433935523
 20
74.501612143880052
 30
-0.1
  0
VERTEX
  5
1D8A
  8
SAPA_PROFIL
 10
62.676718657314922
 20
73.991581761436748
 30
-0.1
 42
-0.4142135623730951
  0
VERTEX
  5
1D8B
  8
SAPA_PROFIL
 10
62.30253370183911
 20
74.191545805944145
 30
-0.1
  0
VERTEX
  5
1D8C
  8
SAPA_PROFIL
 10
62.288015292592
 20
74.239391555942632
 30
-0.1
  0
VERTEX
  5
1D8D
  8
SAPA_PROFIL
 10
60.784914211829999
 20
74.23947516382627
 30
-0.1
 42
0.4769755326981641
  0
VERTEX
  5
1D8E
  8
SAPA_PROFIL
 10
60.482661387323532
 20
73.867818288880414
 30
-0.1
  0
VERTEX
  5
1D8F
  8
SAPA_PROFIL
 10
60.864107983451241
 20
72.054587818222146
 30
-0.1
 42
0.2216946626430191
  0
VERTEX
  5
1D90
  8
SAPA_PROFIL
 10
61.269916888606048
 20
71.513707986745374
 30
-0.1
  0
VERTEX
  5
1D91
  8
SAPA_PROFIL
 10
61.554599171837687
 20
71.361574075636597
 30
-0.1
 42
0.5773502691897466
  0
VERTEX
  5
1D92
  8
SAPA_PROFIL
 10
61.848755472092513
 20
71.54452781574679
 30
-0.1
  0
VERTEX
  5
1D93
  8
SAPA_PROFIL
 10
61.83819410586554
 20
71.866285543965034
 30
-0.1
  0
VERTEX
  5
1D94
  8
SAPA_PROFIL
 10
63.724037797726602
 20
72.950849990936774
 30
-0.1
  0
VERTEX
  5
1D95
  8
SAPA_PROFIL
 10
63.915420797720309
 20
73.008923627925853
 30
-0.1
 42
-0.7625858545243257
  0
VERTEX
  5
1D96
  8
SAPA_PROFIL
 10
64.099999999917799
 20
72.678597546908861
 30
-0.1
 42
0.2134217652834391
  0
SEQEND
  5
1D97
  8
SAPA_PROFIL
  0
POLYLINE
  5
152A
  8
SAPA_PROFIL
 66
     1
 10
0.0
 20
0.0
 30
-0.1
 70
     1
  0
VERTEX
  5
1D98
  8
SAPA_PROFIL
 10
84.000000000454506
 20
64.999999996089045
 30
-0.1
  0
VERTEX
  5
1D99
  8
SAPA_PROFIL
 10
84.000000000454506
 20
62.999999996089038
 30
-0.1
  0
VERTEX
  5
1D9A
  8
SAPA_PROFIL
 10
83.900000000454597
 20
62.99999999608913
 30
-0.1
 42
0.4142135623732199
  0
VERTEX
  5
1D9B
  8
SAPA_PROFIL
 10
83.700000000454494
 20
62.799999996089142
 30
-0.1
  0
VERTEX
  5
1D9C
  8
SAPA_PROFIL
 10
83.700000000454409
 20
61.19999999608914
 30
-0.1
 42
0.4142135623727933
  0
VERTEX
  5
1D9D
  8
SAPA_PROFIL
 10
83.900000000454298
 20
60.999999996089038
 30
-0.1
  0
VERTEX
  5
1D9E
  8
SAPA_PROFIL
 10
84.000000000454506
 20
60.999999996089038
 30
-0.1
  0
VERTEX
  5
1D9F
  8
SAPA_PROFIL
 10
84.000000000454506
 20
32.699999996089083
 30
-0.1
  0
VERTEX
  5
1DA0
  8
SAPA_PROFIL
 10
83.900000000454526
 20
32.699999996088849
 30
-0.1
 42
0.4142135623730847
  0
VERTEX
  5
1DA1
  8
SAPA_PROFIL
 10
83.700000000454523
 20
32.499999996088853
 30
-0.1
  0
VERTEX
  5
1DA2
  8
SAPA_PROFIL
 10
83.700000000454637
 20
30.899999996088869
 30
-0.1
 42
0.4142135623730847
  0
VERTEX
  5
1DA3
  8
SAPA_PROFIL
 10
83.900000000454526
 20
30.69999999608898
 30
-0.1
  0
VERTEX
  5
1DA4
  8
SAPA_PROFIL
 10
84.000000000454506
 20
30.69999999608898
 30
-0.1
  0
VERTEX
  5
1DA5
  8
SAPA_PROFIL
 10
84.000000000454506
 20
28.999999996088871
 30
-0.1
 42
-0.4142135623730675
  0
VERTEX
  5
1DA6
  8
SAPA_PROFIL
 10
83.700000000454523
 20
28.699999996089069
 30
-0.1
  0
VERTEX
  5
1DA7
  8
SAPA_PROFIL
 10
66.100000000454514
 20
28.699999996089069
 30
-0.1
 42
-0.4142135623730673
  0
VERTEX
  5
1DA8
  8
SAPA_PROFIL
 10
65.800000000454574
 20
28.999999996088881
 30
-0.1
  0
VERTEX
  5
1DA9
  8
SAPA_PROFIL
 10
65.800000000454574
 20
30.69999999608914
 30
-0.1
  0
VERTEX
  5
1DAA
  8
SAPA_PROFIL
 10
66.100000000454585
 20
30.699999996088899
 30
-0.1
 42
0.4142135623731367
  0
VERTEX
  5
1DAB
  8
SAPA_PROFIL
 10
66.300000000454574
 20
30.899999996089061
 30
-0.1
  0
VERTEX
  5
1DAC
  8
SAPA_PROFIL
 10
66.300000000454631
 20
32.499999996088839
 30
-0.1
 42
0.4142135623732407
  0
VERTEX
  5
1DAD
  8
SAPA_PROFIL
 10
66.100000000454415
 20
32.699999996088948
 30
-0.1
  0
VERTEX
  5
1DAE
  8
SAPA_PROFIL
 10
65.800000000454503
 20
32.69999999608887
 30
-0.1
  0
VERTEX
  5
1DAF
  8
SAPA_PROFIL
 10
65.800000000454503
 20
60.999999996089237
 30
-0.1
  0
VERTEX
  5
1DB0
  8
SAPA_PROFIL
 10
66.100000000454571
 20
60.99999999608908
 30
-0.1
 42
0.4142135623732199
  0
VERTEX
  5
1DB1
  8
SAPA_PROFIL
 10
66.300000000454546
 20
61.19999999608914
 30
-0.1
  0
VERTEX
  5
1DB2
  8
SAPA_PROFIL
 10
66.300000000454475
 20
62.799999996089142
 30
-0.1
 42
0.4142135623733448
  0
VERTEX
  5
1DB3
  8
SAPA_PROFIL
 10
66.100000000454401
 20
62.999999996089038
 30
-0.1
  0
VERTEX
  5
1DB4
  8
SAPA_PROFIL
 10
65.80000000045456
 20
62.999999996089031
 30
-0.1
  0
VERTEX
  5
1DB5
  8
SAPA_PROFIL
 10
65.80000000045456
 20
72.499999996088846
 30
-0.1
 42
-0.4142135623732061
  0
VERTEX
  5
1DB6
  8
SAPA_PROFIL
 10
66.100000000454571
 20
72.799999996088943
 30
-0.1
  0
VERTEX
  5
1DB7
  8
SAPA_PROFIL
 10
75.299999997236384
 20
72.799999996088943
 30
-0.1
 42
-0.4142135623732059
  0
VERTEX
  5
1DB8
  8
SAPA_PROFIL
 10
75.599999997236381
 20
72.499999996088846
 30
-0.1
  0
VERTEX
  5
1DB9
  8
SAPA_PROFIL
 10
75.599999997236381
 20
67.999999249014152
 30
-0.1
 42
0.414213562373052
  0
VERTEX
  5
1DBA
  8
SAPA_PROFIL
 10
78.299999250161221
 20
65.299999996089142
 30
-0.1
  0
VERTEX
  5
1DBB
  8
SAPA_PROFIL
 10
83.700000000454494
 20
65.299999996089142
 30
-0.1
 42
-0.4142135623732891
  0
SEQEND
  5
1DBC
  8
SAPA_PROFIL
  0
POLYLINE
  5
152B
  8
SAPA_PROFIL
 66
     1
 10
0.0
 20
0.0
 30
0.0
 70
     1
  0
VERTEX
  5
1DBD
  8
SAPA_PROFIL
 10
24.00000000000006
 20
66.799617464765348
 30
0.0
 42
0.2679491924311119
  0
VERTEX
  5
1DBE
  8
SAPA_PROFIL
 10
24.499999999999961
 20
67.665642868549654
 30
0.0
  0
VERTEX
  5
1DBF
  8
SAPA_PROFIL
 10
24.499999999999851
 20
69.051283514604776
 30
0.0
 42
0.5773502691897603
  0
VERTEX
  5
1DC0
  8
SAPA_PROFIL
 10
24.199999999999889
 20
69.224488595361564
 30
0.0
  0
VERTEX
  5
1DC1
  8
SAPA_PROFIL
 10
22.600000000000211
 20
68.300728164658253
 30
0.0
  0
VERTEX
  5
1DC2
  8
SAPA_PROFIL
 10
22.300000000000029
 20
68.300728164658253
 30
0.0
 42
-0.4142135623728995
  0
VERTEX
  5
1DC3
  8
SAPA_PROFIL
 10
21.999999999999961
 20
68.600728164658179
 30
0.0
  0
VERTEX
  5
1DC4
  8
SAPA_PROFIL
 10
22.000000000000011
 20
72.453514569158258
 30
0.0
 42
0.2134217652834313
  0
VERTEX
  5
1DC5
  8
SAPA_PROFIL
 10
21.899999999999888
 20
72.677121366908338
 30
0.0
 42
-0.7625858545243313
  0
VERTEX
  5
1DC6
  8
SAPA_PROFIL
 10
22.084579202197361
 20
73.007447447925372
 30
0.0
  0
VERTEX
  5
1DC7
  8
SAPA_PROFIL
 10
22.275962202191081
 20
72.949373810936279
 30
0.0
  0
VERTEX
  5
1DC8
  8
SAPA_PROFIL
 10
24.16180589405214
 20
71.86480936396454
 30
0.0
  0
VERTEX
  5
1DC9
  8
SAPA_PROFIL
 10
24.151244527825138
 20
71.543051635746266
 30
0.0
 42
0.5773502691897454
  0
VERTEX
  5
1DCA
  8
SAPA_PROFIL
 10
24.44540082808
 20
71.360097895636116
 30
0.0
  0
VERTEX
  5
1DCB
  8
SAPA_PROFIL
 10
24.730083111311639
 20
71.51223180674485
 30
0.0
 42
0.2216946626430149
  0
VERTEX
  5
1DCC
  8
SAPA_PROFIL
 10
25.135892016466428
 20
72.053111638221665
 30
0.0
  0
VERTEX
  5
1DCD
  8
SAPA_PROFIL
 10
25.517338612594141
 20
73.866342108879891
 30
0.0
 42
0.476975532698164
  0
VERTEX
  5
1DCE
  8
SAPA_PROFIL
 10
25.21508578808767
 20
74.23799898382579
 30
0.0
  0
VERTEX
  5
1DCF
  8
SAPA_PROFIL
 10
23.711984707325669
 20
74.237915375942137
 30
0.0
  0
VERTEX
  5
1DD0
  8
SAPA_PROFIL
 10
23.69746629807856
 20
74.19006962594365
 30
0.0
 42
-0.4142135623730875
  0
VERTEX
  5
1DD1
  8
SAPA_PROFIL
 10
23.323281342602751
 20
73.990105581436254
 30
0.0
  0
VERTEX
  5
1DD2
  8
SAPA_PROFIL
 10
22.004048340840718
 20
74.499999999999986
 30
0.0
  0
VERTEX
  5
1DD3
  8
SAPA_PROFIL
 10
2.2685216033438822
 20
74.499999999999986
 30
0.0
 42
-0.3821712090170728
  0
VERTEX
  5
1DD4
  8
SAPA_PROFIL
 10
1.970355408241961
 20
74.766880215905744
 30
0.0
  0
VERTEX
  5
1DD5
  8
SAPA_PROFIL
 10
1.444515873276959
 20
81.344850999999963
 30
0.0
 42
-0.4469990000000183
  0
VERTEX
  5
1DD6
  8
SAPA_PROFIL
 10
1.941459873276965
 20
81.900050999999948
 30
0.0
  0
VERTEX
  5
1DD7
  8
SAPA_PROFIL
 10
3.69999999999997
 20
81.900050999999976
 30
0.0
 42
0.414213999999998
  0
VERTEX
  5
1DD8
  8
SAPA_PROFIL
 10
4.6999999999999771
 20
82.900050999999934
 30
0.0
  0
VERTEX
  5
1DD9
  8
SAPA_PROFIL
 10
4.6999999999999549
 20
83.167594999999963
 30
0.0
 42
0.2896899999999924
  0
VERTEX
  5
1DDA
  8
SAPA_PROFIL
 10
4.1285719999999584
 20
84.071103000000008
 30
0.0
 42
0.5507599999999715
  0
VERTEX
  5
1DDB
  8
SAPA_PROFIL
 10
3.6999999999999691
 20
83.800050999999982
 30
0.0
  0
VERTEX
  5
1DDC
  8
SAPA_PROFIL
 10
3.6999999999999771
 20
83.500050999999999
 30
0.0
 42
-0.4142140000001125
  0
VERTEX
  5
1DDD
  8
SAPA_PROFIL
 10
3.49999999999996
 20
83.300050999999996
 30
0.0
  0
VERTEX
  5
1DDE
  8
SAPA_PROFIL
 10
2.3999999999999369
 20
83.300050999999996
 30
0.0
 42
-0.4142139999999939
  0
VERTEX
  5
1DDF
  8
SAPA_PROFIL
 10
1.3999999999999371
 20
84.300050999999982
 30
0.0
  0
VERTEX
  5
1DE0
  8
SAPA_PROFIL
 10
1.399999999999936
 20
86.599999999999937
 30
0.0
 42
-0.4142139999999918
  0
VERTEX
  5
1DE1
  8
SAPA_PROFIL
 10
2.399999999999936
 20
87.599999999999966
 30
0.0
  0
VERTEX
  5
1DE2
  8
SAPA_PROFIL
 10
3.4999999999999591
 20
87.59999999999998
 30
0.0
 42
-0.4142139999999378
  0
VERTEX
  5
1DE3
  8
SAPA_PROFIL
 10
3.6999999999999691
 20
87.399999999999963
 30
0.0
  0
VERTEX
  5
1DE4
  8
SAPA_PROFIL
 10
3.6999999999999971
 20
87.100050999999993
 30
0.0
 42
0.5507599999999796
  0
VERTEX
  5
1DE5
  8
SAPA_PROFIL
 10
4.1285719999999433
 20
86.82899799999997
 30
0.0
 42
0.2896900000000027
  0
VERTEX
  5
1DE6
  8
SAPA_PROFIL
 10
4.6999999999999762
 20
87.732505999999987
 30
0.0
  0
VERTEX
  5
1DE7
  8
SAPA_PROFIL
 10
4.6999999999999469
 20
87.999999999999986
 30
0.0
 42
0.4142140000000064
  0
VERTEX
  5
1DE8
  8
SAPA_PROFIL
 10
3.6999999999999691
 20
88.999999999999986
 30
0.0
  0
VERTEX
  5
1DE9
  8
SAPA_PROFIL
 10
1.999999999999966
 20
88.999999999999929
 30
0.0
 42
0.4142139999999918
  0
VERTEX
  5
1DEA
  8
SAPA_PROFIL
 10
-0.0000000000000406
 20
86.999999999999986
 30
0.0
  0
VERTEX
  5
1DEB
  8
SAPA_PROFIL
 10
0.0000000000000354
 20
0.5000000000000214
 30
0.0
 42
0.414213999999996
  0
VERTEX
  5
1DEC
  8
SAPA_PROFIL
 10
0.5000000000000071
 20
0.0000000000000214
 30
0.0
  0
VERTEX
  5
1DED
  8
SAPA_PROFIL
 10
4.1999999999999948
 20
0.0000000000001075
 30
0.0
 42
0.4142139999999107
  0
VERTEX
  5
1DEE
  8
SAPA_PROFIL
 10
4.4999999999999778
 20
0.2999999999999626
 30
0.0
  0
VERTEX
  5
1DEF
  8
SAPA_PROFIL
 10
4.499999999999992
 20
1.0675450000000171
 30
0.0
 42
0.2896899999999864
  0
VERTEX
  5
1DF0
  8
SAPA_PROFIL
 10
3.9285720000000088
 20
1.9710529999999911
 30
0.0
 42
0.5507600000000558
  0
VERTEX
  5
1DF1
  8
SAPA_PROFIL
 10
3.4999999999999778
 20
1.7000000000000099
 30
0.0
  0
VERTEX
  5
1DF2
  8
SAPA_PROFIL
 10
3.4999999999999778
 20
1.500000000000022
 30
0.0
 42
-0.414214000000073
  0
VERTEX
  5
1DF3
  8
SAPA_PROFIL
 10
3.1999999999999948
 20
1.2000000000000099
 30
0.0
  0
VERTEX
  5
1DF4
  8
SAPA_PROFIL
 10
1.6999999999999951
 20
1.2000000000000099
 30
0.0
 42
-0.414213999999996
  0
VERTEX
  5
1DF5
  8
SAPA_PROFIL
 10
1.1999999999999951
 20
1.7000000000000099
 30
0.0
  0
VERTEX
  5
1DF6
  8
SAPA_PROFIL
 10
1.199999999999994
 20
5.0000000000000488
 30
0.0
 42
-0.4142140000000002
  0
VERTEX
  5
1DF7
  8
SAPA_PROFIL
 10
1.699999999999994
 20
5.5000000000000631
 30
0.0
  0
VERTEX
  5
1DF8
  8
SAPA_PROFIL
 10
3.199999999999994
 20
5.5000000000000639
 30
0.0
 42
-0.4142140000000209
  0
VERTEX
  5
1DF9
  8
SAPA_PROFIL
 10
3.4999999999999769
 20
5.1999999999999682
 30
0.0
  0
VERTEX
  5
1DFA
  8
SAPA_PROFIL
 10
3.4999999999999201
 20
5.0000000000000639
 30
0.0
 42
0.5507600000000054
  0
VERTEX
  5
1DFB
  8
SAPA_PROFIL
 10
3.9285720000000151
 20
4.7289479999999964
 30
0.0
 42
0.2896899999999876
  0
VERTEX
  5
1DFC
  8
SAPA_PROFIL
 10
4.499999999999984
 20
5.6324559999999702
 30
0.0
  0
VERTEX
  5
1DFD
  8
SAPA_PROFIL
 10
4.4999999999999689
 20
6.6299269999999737
 30
0.0
 42
0.0436609999999812
  0
VERTEX
  5
1DFE
  8
SAPA_PROFIL
 10
4.4924039999999774
 20
6.7167519999999641
 30
0.0
  0
VERTEX
  5
1DFF
  8
SAPA_PROFIL
 10
4.2155579999999642
 20
8.2868239999999602
 30
0.0
 42
0.839099999999979
  0
VERTEX
  5
1E00
  8
SAPA_PROFIL
 10
3.2307499999999769
 20
8.2868239999999602
 30
0.0
  0
VERTEX
  5
1E01
  8
SAPA_PROFIL
 10
3.0238049999999861
 20
7.1131759999999611
 30
0.0
 42
-0.363970000000042
  0
VERTEX
  5
1E02
  8
SAPA_PROFIL
 10
2.5314009999999652
 20
6.6999999999999682
 30
0.0
  0
VERTEX
  5
1E03
  8
SAPA_PROFIL
 10
1.720000000000004
 20
6.6999999999999806
 30
0.0
 42
-0.4373279999999794
  0
VERTEX
  5
1E04
  8
SAPA_PROFIL
 10
1.2215309999999751
 20
7.2390949999999696
 30
0.0
  0
VERTEX
  5
1E05
  8
SAPA_PROFIL
 10
1.7883294863958401
 20
21.712153273416341
 30
0.0
 42
-0.4023941355298093
  0
VERTEX
  5
1E06
  8
SAPA_PROFIL
 10
2.088083215222158
 20
22.00000000000006
 30
0.0
  0
VERTEX
  5
1E07
  8
SAPA_PROFIL
 10
2.888616999999984
 20
22.000000000000039
 30
0.0
 42
0.2596810000001062
  0
VERTEX
  5
1E08
  8
SAPA_PROFIL
 10
3.0586479999999781
 20
22.094693000000071
 30
0.0
  0
VERTEX
  5
1E09
  8
SAPA_PROFIL
 10
3.9550470000000661
 20
23.542039999999911
 30
0.0
 42
0.5877030000000574
  0
VERTEX
  5
1E0A
  8
SAPA_PROFIL
 10
3.6999999999999331
 20
24.000000000000071
 30
0.0
  0
VERTEX
  5
1E0B
  8
SAPA_PROFIL
 10
2.2999999999999772
 20
24.000000000000071
 30
0.0
 42
-0.4142139999999773
  0
VERTEX
  5
1E0C
  8
SAPA_PROFIL
 10
1.9999999999999729
 20
24.299999999999962
 30
0.0
  0
VERTEX
  5
1E0D
  8
SAPA_PROFIL
 10
1.999999999999972
 20
26.699999999999971
 30
0.0
 42
-0.4142140000000855
  0
VERTEX
  5
1E0E
  8
SAPA_PROFIL
 10
2.2999999999999772
 20
27.00000000000006
 30
0.0
  0
VERTEX
  5
1E0F
  8
SAPA_PROFIL
 10
19.69999999999996
 20
27.000000000000071
 30
0.0
 42
-0.4142140000001167
  0
VERTEX
  5
1E10
  8
SAPA_PROFIL
 10
19.999999999999972
 20
26.699999999999971
 30
0.0
  0
VERTEX
  5
1E11
  8
SAPA_PROFIL
 10
19.999999999999972
 20
24.299999999999969
 30
0.0
 42
-0.4142140000000127
  0
VERTEX
  5
1E12
  8
SAPA_PROFIL
 10
19.69999999999996
 20
24.000000000000071
 30
0.0
  0
VERTEX
  5
1E13
  8
SAPA_PROFIL
 10
18.299999999999979
 20
24.000000000000071
 30
0.0
 42
0.5920054160710117
  0
VERTEX
  5
1E14
  8
SAPA_PROFIL
 10
18.046991487242199
 20
23.538796661885169
 30
0.0
  0
VERTEX
  5
1E15
  8
SAPA_PROFIL
 10
18.84104451706386
 20
22.29253100567222
 30
0.0
 42
0.2562769852931595
  0
VERTEX
  5
1E16
  8
SAPA_PROFIL
 10
19.009717025962491
 20
22.200000000000049
 30
0.0
  0
VERTEX
  5
1E17
  8
SAPA_PROFIL
 10
22.00404834084102
 20
22.200000000000049
 30
0.0
  0
VERTEX
  5
1E18
  8
SAPA_PROFIL
 10
23.323281342602709
 20
22.709894418563682
 30
0.0
 42
-0.4142135623730875
  0
VERTEX
  5
1E19
  8
SAPA_PROFIL
 10
23.69746629807852
 20
22.509930374056282
 30
0.0
  0
VERTEX
  5
1E1A
  8
SAPA_PROFIL
 10
23.71198470732562
 20
22.462084624057791
 30
0.0
  0
VERTEX
  5
1E1B
  8
SAPA_PROFIL
 10
25.215085788087631
 20
22.46200101617417
 30
0.0
 42
0.4769755326981641
  0
VERTEX
  5
1E1C
  8
SAPA_PROFIL
 10
25.517338612594099
 20
22.833657891120009
 30
0.0
  0
VERTEX
  5
1E1D
  8
SAPA_PROFIL
 10
25.135892016466411
 20
24.646888361778299
 30
0.0
 42
0.2216946626430149
  0
VERTEX
  5
1E1E
  8
SAPA_PROFIL
 10
24.730083111311579
 20
25.18776819325506
 30
0.0
  0
VERTEX
  5
1E1F
  8
SAPA_PROFIL
 10
24.445400828079951
 20
25.339902104363819
 30
0.0
 42
0.5773502691897454
  0
VERTEX
  5
1E20
  8
SAPA_PROFIL
 10
24.151244527825121
 20
25.15694836425364
 30
0.0
  0
VERTEX
  5
1E21
  8
SAPA_PROFIL
 10
24.16180589405209
 20
24.835190636035399
 30
0.0
  0
VERTEX
  5
1E22
  8
SAPA_PROFIL
 10
22.275962202191071
 20
23.750626189063649
 30
0.0
  0
VERTEX
  5
1E23
  8
SAPA_PROFIL
 10
22.084579202197339
 20
23.692552552074549
 30
0.0
 42
-0.7625858545243333
  0
VERTEX
  5
1E24
  8
SAPA_PROFIL
 10
21.89999999999986
 20
24.022878633091558
 30
0.0
 42
0.2134217652834462
  0
VERTEX
  5
1E25
  8
SAPA_PROFIL
 10
21.999999999999972
 20
24.246485430841702
 30
0.0
  0
VERTEX
  5
1E26
  8
SAPA_PROFIL
 10
21.999999999999972
 20
28.09927183534181
 30
0.0
 42
-0.4142135623729119
  0
VERTEX
  5
1E27
  8
SAPA_PROFIL
 10
22.300000000000029
 20
28.3992718353417
 30
0.0
  0
VERTEX
  5
1E28
  8
SAPA_PROFIL
 10
22.600000000000211
 20
28.3992718353417
 30
0.0
  0
VERTEX
  5
1E29
  8
SAPA_PROFIL
 10
24.199999999999839
 20
27.47551140463829
 30
0.0
 42
0.5773502691897497
  0
VERTEX
  5
1E2A
  8
SAPA_PROFIL
 10
24.499999999999972
 20
27.64871648539518
 30
0.0
  0
VERTEX
  5
1E2B
  8
SAPA_PROFIL
 10
24.500000000000131
 20
29.03435713145031
 30
0.0
 42
0.2679491924311136
  0
VERTEX
  5
1E2C
  8
SAPA_PROFIL
 10
24.000000000000139
 20
29.900382535234751
 30
0.0
  0
VERTEX
  5
1E2D
  8
SAPA_PROFIL
 10
22.24999999999994
 20
30.910745506316839
 30
0.0
 42
-0.2679491924310958
  0
VERTEX
  5
1E2E
  8
SAPA_PROFIL
 10
21.999999999999972
 20
31.343758208209049
 30
0.0
  0
VERTEX
  5
1E2F
  8
SAPA_PROFIL
 10
21.999999999999972
 20
31.68038475772941
 30
0.0
  0
VERTEX
  5
1E30
  8
SAPA_PROFIL
 10
21.699999999999982
 20
32.200000000000088
 30
0.0
  0
VERTEX
  5
1E31
  8
SAPA_PROFIL
 10
21.999999999999972
 20
32.719615242270727
 30
0.0
  0
VERTEX
  5
1E32
  8
SAPA_PROFIL
 10
21.999999999999961
 20
65.356241791790907
 30
0.0
 42
-0.2679491924311033
  0
VERTEX
  5
1E33
  8
SAPA_PROFIL
 10
22.249999999999929
 20
65.789254493683117
 30
0.0
  0
SEQEND
  5
1E34
  8
SAPA_PROFIL
  0
POLYLINE
  5
152C
  8
SAPA_PROFIL
 66
     1
 10
0.0
 20
0.0
 30
0.0
 70
     1
  0
VERTEX
  5
1E35
  8
SAPA_PROFIL
 10
19.69999999999996
 20
30.899999999999959
 30
0.0
  0
VERTEX
  5
1E36
  8
SAPA_PROFIL
 10
19.69999999999996
 20
32.499999999999993
 30
0.0
 42
-0.4142135623730951
  0
VERTEX
  5
1E37
  8
SAPA_PROFIL
 10
19.899999999999981
 20
32.699999999999982
 30
0.0
  0
VERTEX
  5
1E38
  8
SAPA_PROFIL
 10
20.200000083873299
 20
32.699999999999982
 30
0.0
  0
VERTEX
  5
1E39
  8
SAPA_PROFIL
 10
20.200000083873292
 20
68.799999999999983
 30
0.0
  0
VERTEX
  5
1E3A
  8
SAPA_PROFIL
 10
19.89999999999997
 20
68.799999999999983
 30
0.0
 42
-0.4142135623730951
  0
VERTEX
  5
1E3B
  8
SAPA_PROFIL
 10
19.69999999999995
 20
68.999999999999986
 30
0.0
  0
VERTEX
  5
1E3C
  8
SAPA_PROFIL
 10
19.69999999999995
 20
70.600000000000009
 30
0.0
 42
-0.4142135623730951
  0
VERTEX
  5
1E3D
  8
SAPA_PROFIL
 10
19.89999999999997
 20
70.799999999999997
 30
0.0
  0
VERTEX
  5
1E3E
  8
SAPA_PROFIL
 10
20.200000083873292
 20
70.799999999999997
 30
0.0
  0
VERTEX
  5
1E3F
  8
SAPA_PROFIL
 10
20.200000083873299
 20
72.499999999999986
 30
0.0
 42
0.4142135623730951
  0
VERTEX
  5
1E40
  8
SAPA_PROFIL
 10
19.900000083873291
 20
72.799999999999997
 30
0.0
  0
VERTEX
  5
1E41
  8
SAPA_PROFIL
 10
2.2999999999999661
 20
72.799999999999997
 30
0.0
 42
0.4142135623730951
  0
VERTEX
  5
1E42
  8
SAPA_PROFIL
 10
1.999999999999962
 20
72.499999999999986
 30
0.0
  0
VERTEX
  5
1E43
  8
SAPA_PROFIL
 10
1.999999999999962
 20
70.799999999999997
 30
0.0
  0
VERTEX
  5
1E44
  8
SAPA_PROFIL
 10
2.0999999999999921
 20
70.799999999999997
 30
0.0
 42
-0.4142135623730951
  0
VERTEX
  5
1E45
  8
SAPA_PROFIL
 10
2.299999999999967
 20
70.600000000000009
 30
0.0
  0
VERTEX
  5
1E46
  8
SAPA_PROFIL
 10
2.299999999999967
 20
68.999999999999986
 30
0.0
 42
-0.4142135623730951
  0
VERTEX
  5
1E47
  8
SAPA_PROFIL
 10
2.099999999999993
 20
68.799999999999983
 30
0.0
  0
VERTEX
  5
1E48
  8
SAPA_PROFIL
 10
1.9999999999999629
 20
68.799999999999983
 30
0.0
  0
VERTEX
  5
1E49
  8
SAPA_PROFIL
 10
1.9999999999999709
 20
32.699999999999967
 30
0.0
  0
VERTEX
  5
1E4A
  8
SAPA_PROFIL
 10
2.100000000000001
 20
32.699999999999967
 30
0.0
 42
-0.4142135623730951
  0
VERTEX
  5
1E4B
  8
SAPA_PROFIL
 10
2.299999999999975
 20
32.499999999999979
 30
0.0
  0
VERTEX
  5
1E4C
  8
SAPA_PROFIL
 10
2.2999999999999758
 20
30.899999999999959
 30
0.0
 42
-0.4142135623730951
  0
VERTEX
  5
1E4D
  8
SAPA_PROFIL
 10
2.100000000000001
 20
30.699999999999971
 30
0.0
  0
VERTEX
  5
1E4E
  8
SAPA_PROFIL
 10
1.9999999999999709
 20
30.699999999999971
 30
0.0
  0
VERTEX
  5
1E4F
  8
SAPA_PROFIL
 10
1.999999999999986
 20
28.99999999999995
 30
0.0
 42
0.4142135623730951
  0
VERTEX
  5
1E50
  8
SAPA_PROFIL
 10
2.2999999999999758
 20
28.699999999999971
 30
0.0
  0
VERTEX
  5
1E51
  8
SAPA_PROFIL
 10
19.900000083873302
 20
28.699999999999939
 30
0.0
 42
0.4142135623730951
  0
VERTEX
  5
1E52
  8
SAPA_PROFIL
 10
20.200000083873299
 20
28.99999999999995
 30
0.0
  0
VERTEX
  5
1E53
  8
SAPA_PROFIL
 10
20.200000083873299
 20
30.699999999999971
 30
0.0
  0
VERTEX
  5
1E54
  8
SAPA_PROFIL
 10
19.899999999999981
 20
30.699999999999971
 30
0.0
 42
-0.4142135623730951
  0
SEQEND
  5
1E55
  8
SAPA_PROFIL
  0
POLYLINE
  5
152D
  8
SAPA_PROFIL
 62
     4
 66
     1
 10
0.0
 20
0.0
 30
-0.1
  0
VERTEX
  5
1E56
  8
SAPA_PROFIL
 62
     4
 10
52.049329122272063
 20
24.90336710938141
 30
-0.1
 42
0.5571646428658034
  0
VERTEX
  5
1E57
  8
SAPA_PROFIL
 62
     4
 10
51.51236861813522
 20
25.77108602353697
 30
-0.1
  0
VERTEX
  5
1E58
  8
SAPA_PROFIL
 62
     4
 10
34.48763138161403
 20
25.771086023536501
 30
-0.1
 42
0.5571645048035741
  0
VERTEX
  5
1E59
  8
SAPA_PROFIL
 62
     4
 10
33.950670764652969
 20
24.903367335670328
 30
-0.1
  0
VERTEX
  5
1E5A
  8
SAPA_PROFIL
 62
     4
 10
34.781377852199668
 20
23.237226679602308
 30
-0.1
 42
0.284385813979063
  0
VERTEX
  5
1E5B
  8
SAPA_PROFIL
 62
     4
 10
35.049858160680017
 20
23.071086023534871
 30
-0.1
  0
VERTEX
  5
1E5C
  8
SAPA_PROFIL
 62
     4
 10
50.950141839069332
 20
23.071086023534871
 30
-0.1
 42
0.2843858139786238
  0
VERTEX
  5
1E5D
  8
SAPA_PROFIL
 62
     4
 10
51.218622147549617
 20
23.2372266796018
 30
-0.1
  0
VERTEX
  5
1E5E
  8
SAPA_PROFIL
 62
     4
 10
52.049329235096771
 20
24.903367335671138
 30
-0.1
  0
SEQEND
  5
1E5F
  8
SAPA_PROFIL
 62
     4
  0
POLYLINE
  5
152E
  8
SAPA_PROFIL
 62
     4
 66
     1
 10
0.0
 20
0.0
 30
-0.1
 70
     1
  0
VERTEX
  5
1E60
  8
SAPA_PROFIL
 62
     4
 10
28.582388815207381
 20
22.714254509037289
 30
-0.1
  0
VERTEX
  5
1E61
  8
SAPA_PROFIL
 62
     4
 10
28.318365536831369
 20
22.307694313033149
 30
-0.1
 42
-0.2539676464751066
  0
VERTEX
  5
1E62
  8
SAPA_PROFIL
 62
     4
 10
28.066764366446659
 20
22.17108602353704
 30
-0.1
  0
VERTEX
  5
1E63
  8
SAPA_PROFIL
 62
     4
 10
26.685264781241319
 20
22.17108602353704
 30
-0.1
 42
-0.3152987888790479
  0
VERTEX
  5
1E64
  8
SAPA_PROFIL
 62
     4
 10
26.215418470849009
 20
22.5000759518752
 30
-0.1
  0
VERTEX
  5
1E65
  8
SAPA_PROFIL
 62
     4
 10
25.319749529940399
 20
24.960906142326479
 30
-0.1
 42
0.2694959974287434
  0
VERTEX
  5
1E66
  8
SAPA_PROFIL
 62
     4
 10
25.088230483539039
 20
25.154038116670371
 30
-0.1
 42
0.0612686379508233
  0
VERTEX
  5
1E67
  8
SAPA_PROFIL
 62
     4
 10
24.79555505068577
 20
25.167621487300892
 30
-0.1
  0
VERTEX
  5
1E68
  8
SAPA_PROFIL
 62
     4
 10
24.446136873377501
 20
25.36935816602972
 30
-0.1
 42
0.5773502691891679
  0
VERTEX
  5
1E69
  8
SAPA_PROFIL
 62
     4
 10
24.131136873377908
 20
25.187492831235151
 30
-0.1
  0
VERTEX
  5
1E6A
  8
SAPA_PROFIL
 62
     4
 10
24.13113687337767
 20
24.92037830310883
 30
-0.1
  0
VERTEX
  5
1E6B
  8
SAPA_PROFIL
 62
     4
 10
22.73260917274342
 20
24.11169484180051
 30
-0.1
 42
-0.1318219888653519
  0
VERTEX
  5
1E6C
  8
SAPA_PROFIL
 62
     4
 10
22.582436070271068
 20
24.071402445263121
 30
-0.1
  0
VERTEX
  5
1E6D
  8
SAPA_PROFIL
 62
     4
 10
22.399999999834289
 20
24.071402445269491
 30
-0.1
 42
-0.4142135623724291
  0
VERTEX
  5
1E6E
  8
SAPA_PROFIL
 62
     4
 10
21.999999999833751
 20
24.471402445269131
 30
-0.1
  0
VERTEX
  5
1E6F
  8
SAPA_PROFIL
 62
     4
 10
21.999999999835111
 20
27.871402445270132
 30
-0.1
 42
-0.4142135623744271
  0
VERTEX
  5
1E70
  8
SAPA_PROFIL
 62
     4
 10
22.399999999834289
 20
28.271402445271129
 30
-0.1
  0
VERTEX
  5
1E71
  8
SAPA_PROFIL
 62
     4
 10
22.5796152421056
 20
28.271402445271761
 30
-0.1
 42
-0.1316524975874005
  0
VERTEX
  5
1E72
  8
SAPA_PROFIL
 62
     4
 10
22.729615242102408
 20
28.23121006640617
 30
-0.1
  0
VERTEX
  5
1E73
  8
SAPA_PROFIL
 62
     4
 10
24.333753139104669
 20
27.305060619753629
 30
-0.1
 42
0.1316524975875904
  0
VERTEX
  5
1E74
  8
SAPA_PROFIL
 62
     4
 10
24.833753139106381
 20
27.171086023538859
 30
-0.1
  0
VERTEX
  5
1E75
  8
SAPA_PROFIL
 62
     4
 10
25.249999999833751
 20
27.171086023538859
 30
-0.1
 42
0.4142135623730951
  0
VERTEX
  5
1E76
  8
SAPA_PROFIL
 62
     4
 10
26.249999999833751
 20
28.171086023538859
 30
-0.1
  0
VERTEX
  5
1E77
  8
SAPA_PROFIL
 62
     4
 10
26.249999999833751
 20
31.171086023536141
 30
-0.1
 42
-0.9999996830128083
  0
VERTEX
  5
1E78
  8
SAPA_PROFIL
 62
     4
 10
27.249999999833751
 20
31.171086023537949
 30
-0.1
  0
VERTEX
  5
1E79
  8
SAPA_PROFIL
 62
     4
 10
27.249999999833751
 20
28.171086023537949
 30
-0.1
 42
0.4142135623730951
  0
VERTEX
  5
1E7A
  8
SAPA_PROFIL
 62
     4
 10
28.249999999833751
 20
27.171086023537949
 30
-0.1
  0
VERTEX
  5
1E7B
  8
SAPA_PROFIL
 62
     4
 10
57.74999999991833
 20
27.171086023537971
 30
-0.1
 42
0.4142135623730951
  0
VERTEX
  5
1E7C
  8
SAPA_PROFIL
 62
     4
 10
58.74999999991833
 20
28.17108602353796
 30
-0.1
  0
VERTEX
  5
1E7D
  8
SAPA_PROFIL
 62
     4
 10
58.74999999991833
 20
31.171086023536141
 30
-0.1
 42
-0.9999999999999998
  0
VERTEX
  5
1E7E
  8
SAPA_PROFIL
 62
     4
 10
59.74999999991833
 20
31.171086023536141
 30
-0.1
  0
VERTEX
  5
1E7F
  8
SAPA_PROFIL
 62
     4
 10
59.74999999991833
 20
28.17108602353796
 30
-0.1
 42
0.4142135623736278
  0
VERTEX
  5
1E80
  8
SAPA_PROFIL
 62
     4
 10
60.74999999991833
 20
27.171086023537971
 30
-0.1
  0
VERTEX
  5
1E81
  8
SAPA_PROFIL
 62
     4
 10
61.16624686064479
 20
27.171086023537971
 30
-0.1
 42
0.1316524975874375
  0
VERTEX
  5
1E82
  8
SAPA_PROFIL
 62
     4
 10
61.666246860644989
 20
27.305060619753998
 30
-0.1
  0
VERTEX
  5
1E83
  8
SAPA_PROFIL
 62
     4
 10
63.270384757646937
 20
28.23121006640617
 30
-0.1
 42
-0.1316524975874
  0
VERTEX
  5
1E84
  8
SAPA_PROFIL
 62
     4
 10
63.420384757646481
 20
28.271402445271772
 30
-0.1
  0
VERTEX
  5
1E85
  8
SAPA_PROFIL
 62
     4
 10
63.599999999917777
 20
28.271402445271129
 30
-0.1
 42
-0.4142135623744271
  0
VERTEX
  5
1E86
  8
SAPA_PROFIL
 62
     4
 10
63.999999999916959
 20
27.871402445270132
 30
-0.1
  0
VERTEX
  5
1E87
  8
SAPA_PROFIL
 62
     4
 10
63.99999999991833
 20
24.471402445269131
 30
-0.1
 42
-0.4142135623724291
  0
VERTEX
  5
1E88
  8
SAPA_PROFIL
 62
     4
 10
63.599999999917777
 20
24.071402445269499
 30
-0.1
  0
VERTEX
  5
1E89
  8
SAPA_PROFIL
 62
     4
 10
63.417563929480998
 20
24.071402445263129
 30
-0.1
 42
-0.1318219888653524
  0
VERTEX
  5
1E8A
  8
SAPA_PROFIL
 62
     4
 10
63.267390827008661
 20
24.111694841800521
 30
-0.1
  0
VERTEX
  5
1E8B
  8
SAPA_PROFIL
 62
     4
 10
61.868863126529007
 20
24.920378303024862
 30
-0.1
  0
VERTEX
  5
1E8C
  8
SAPA_PROFIL
 62
     4
 10
61.868863126529007
 20
25.18749283123789
 30
-0.1
 42
0.577350269189159
  0
VERTEX
  5
1E8D
  8
SAPA_PROFIL
 62
     4
 10
61.5538631265294
 20
25.369358166032459
 30
-0.1
  0
VERTEX
  5
1E8E
  8
SAPA_PROFIL
 62
     4
 10
61.204444949310741
 20
25.167621487355351
 30
-0.1
 42
0.0612687673629489
  0
VERTEX
  5
1E8F
  8
SAPA_PROFIL
 62
     4
 10
60.911769516210533
 20
25.154038116669149
 30
-0.1
 42
0.2694959974285039
  0
VERTEX
  5
1E90
  8
SAPA_PROFIL
 62
     4
 10
60.680250469810012
 20
24.9609061423252
 30
-0.1
  0
VERTEX
  5
1E91
  8
SAPA_PROFIL
 62
     4
 10
59.78458152890034
 20
22.500075951872031
 30
-0.1
 42
-0.3152987888784035
  0
VERTEX
  5
1E92
  8
SAPA_PROFIL
 62
     4
 10
59.314735218507117
 20
22.171086023535459
 30
-0.1
  0
VERTEX
  5
1E93
  8
SAPA_PROFIL
 62
     4
 10
57.933235633302679
 20
22.171086023537061
 30
-0.1
 42
-0.2539676464741841
  0
VERTEX
  5
1E94
  8
SAPA_PROFIL
 62
     4
 10
57.681634462918609
 20
22.307694313032329
 30
-0.1
  0
VERTEX
  5
1E95
  8
SAPA_PROFIL
 62
     4
 10
57.417611184541968
 20
22.7142545090373
 30
-0.1
 42
-0.5862177598324623
  0
VERTEX
  5
1E96
  8
SAPA_PROFIL
 62
     4
 10
57.673352999780313
 20
23.17108602353381
 30
-0.1
  0
VERTEX
  5
1E97
  8
SAPA_PROFIL
 62
     4
 10
58.614527680290117
 20
23.17108602352614
 30
-0.1
 42
0.3152987888813165
  0
VERTEX
  5
1E98
  8
SAPA_PROFIL
 62
     4
 10
59.084373990687872
 20
23.50007595186289
 30
-0.1
  0
VERTEX
  5
1E99
  8
SAPA_PROFIL
 62
     4
 10
59.521138271811829
 20
24.700075951874119
 30
-0.1
 42
0.5205670505515651
  0
VERTEX
  5
1E9A
  8
SAPA_PROFIL
 62
     4
 10
59.051291961418613
 20
25.371086023536868
 30
-0.1
  0
VERTEX
  5
1E9B
  8
SAPA_PROFIL
 62
     4
 10
54.034851020749763
 20
25.3710860235369
 30
-0.1
 42
0.3702522326300203
  0
VERTEX
  5
1E9C
  8
SAPA_PROFIL
 62
     4
 10
53.738327658956429
 20
25.116626070871192
 30
-0.1
 42
0.0982365330332397
  0
VERTEX
  5
1E9D
  8
SAPA_PROFIL
 62
     4
 10
53.647874900745492
 20
23.42893929587618
 30
-0.1
 42
0.3735060174783164
  0
VERTEX
  5
1E9E
  8
SAPA_PROFIL
 62
     4
 10
53.944899568656481
 20
23.171086023536152
 30
-0.1
  0
VERTEX
  5
1E9F
  8
SAPA_PROFIL
 62
     4
 10
54.373352999779129
 20
23.171086023535231
 30
-0.1
 42
-0.5920056181162531
  0
VERTEX
  5
1EA0
  8
SAPA_PROFIL
 62
     4
 10
54.626361756096522
 20
22.709882521007309
 30
-0.1
  0
VERTEX
  5
1EA1
  8
SAPA_PROFIL
 62
     4
 10
54.365177679940821
 20
22.30769431302901
 30
-0.1
 42
-0.2539676464746725
  0
VERTEX
  5
1EA2
  8
SAPA_PROFIL
 62
     4
 10
54.113576509557063
 20
22.17108602353365
 30
-0.1
  0
VERTEX
  5
1EA3
  8
SAPA_PROFIL
 62
     4
 10
31.88642349019138
 20
22.171086023535231
 30
-0.1
 42
-0.2539676464741819
  0
VERTEX
  5
1EA4
  8
SAPA_PROFIL
 62
     4
 10
31.634822319808521
 20
22.30769431302901
 30
-0.1
  0
VERTEX
  5
1EA5
  8
SAPA_PROFIL
 62
     4
 10
31.37363824365471
 20
22.709882521007341
 30
-0.1
 42
-0.5920055144124249
  0
VERTEX
  5
1EA6
  8
SAPA_PROFIL
 62
     4
 10
31.62664699997022
 20
23.171086023535231
 30
-0.1
  0
VERTEX
  5
1EA7
  8
SAPA_PROFIL
 62
     4
 10
32.055100477260439
 20
23.171085998260221
 30
-0.1
 42
0.3735060174775405
  0
VERTEX
  5
1EA8
  8
SAPA_PROFIL
 62
     4
 10
32.352125145170127
 20
23.42893927060031
 30
-0.1
 42
0.0355900683670349
  0
VERTEX
  5
1EA9
  8
SAPA_PROFIL
 62
     4
 10
32.39601870920238
 20
24.0448128574001
 30
-0.1
 42
0.0624282003873116
  0
VERTEX
  5
1EAA
  8
SAPA_PROFIL
 62
     4
 10
32.26167238695944
 20
25.116626045595229
 30
-0.1
 42
0.3702522326309292
  0
VERTEX
  5
1EAB
  8
SAPA_PROFIL
 62
     4
 10
31.96514902516606
 20
25.371085998260948
 30
-0.1
  0
VERTEX
  5
1EAC
  8
SAPA_PROFIL
 62
     4
 10
26.948708038332558
 20
25.371086023537082
 30
-0.1
 42
0.5205670505515692
  0
VERTEX
  5
1EAD
  8
SAPA_PROFIL
 62
     4
 10
26.478861727939339
 20
24.700075951874108
 30
-0.1
  0
VERTEX
  5
1EAE
  8
SAPA_PROFIL
 62
     4
 10
26.91562600906428
 20
23.500075951864659
 30
-0.1
 42
0.3152987888807539
  0
VERTEX
  5
1EAF
  8
SAPA_PROFIL
 62
     4
 10
27.385472319460138
 20
23.171086023527039
 30
-0.1
  0
VERTEX
  5
1EB0
  8
SAPA_PROFIL
 62
     4
 10
28.326646999969221
 20
23.17108602353386
 30
-0.1
 42
-0.5862175119221242
  0
VERTEX
  5
1EB1
  8
SAPA_PROFIL
 62
     4
 10
28.582388930951179
 20
22.714254697778721
 30
-0.1
 42
0.0000002084758573
  0
SEQEND
  5
1EB2
  8
SAPA_PROFIL
 62
     4
  0
POLYLINE
  5
152F
  8
SAPA_PROFIL
 62
     4
 66
     1
 10
0.0
 20
0.0
 30
-0.1
  0
VERTEX
  5
1EB3
  8
SAPA_PROFIL
 62
     4
 10
52.049329122272063
 20
71.796632882796473
 30
-0.1
 42
-0.5571646428658034
  0
VERTEX
  5
1EB4
  8
SAPA_PROFIL
 62
     4
 10
51.512368618135241
 20
70.928913968640927
 30
-0.1
  0
VERTEX
  5
1EB5
  8
SAPA_PROFIL
 62
     4
 10
34.487631381614051
 20
70.928913968641396
 30
-0.1
 42
-0.5571645048035741
  0
VERTEX
  5
1EB6
  8
SAPA_PROFIL
 62
     4
 10
33.95067076465299
 20
71.796632656507555
 30
-0.1
  0
VERTEX
  5
1EB7
  8
SAPA_PROFIL
 62
     4
 10
34.781377852199682
 20
73.462773312575592
 30
-0.1
 42
-0.284385813979063
  0
VERTEX
  5
1EB8
  8
SAPA_PROFIL
 62
     4
 10
35.049858160680031
 20
73.628913968643033
 30
-0.1
  0
VERTEX
  5
1EB9
  8
SAPA_PROFIL
 62
     4
 10
50.950141839069339
 20
73.628913968643019
 30
-0.1
 42
-0.2843858139786238
  0
VERTEX
  5
1EBA
  8
SAPA_PROFIL
 62
     4
 10
51.218622147549631
 20
73.462773312576104
 30
-0.1
  0
VERTEX
  5
1EBB
  8
SAPA_PROFIL
 62
     4
 10
52.049329235096792
 20
71.796632656506745
 30
-0.1
  0
SEQEND
  5
1EBC
  8
SAPA_PROFIL
 62
     4
  0
POLYLINE
  5
1530
  8
SAPA_PROFIL
 62
     4
 66
     1
 10
0.0
 20
0.0
 30
-0.1
 70
     1
  0
VERTEX
  5
1EBD
  8
SAPA_PROFIL
 62
     4
 10
28.582388815207398
 20
73.985745483140605
 30
-0.1
  0
VERTEX
  5
1EBE
  8
SAPA_PROFIL
 62
     4
 10
28.31836553683139
 20
74.392305679144741
 30
-0.1
 42
0.2539676464751066
  0
VERTEX
  5
1EBF
  8
SAPA_PROFIL
 62
     4
 10
28.06676436644668
 20
74.52891396864085
 30
-0.1
  0
VERTEX
  5
1EC0
  8
SAPA_PROFIL
 62
     4
 10
26.68526478124133
 20
74.52891396864085
 30
-0.1
 42
0.3152987888790479
  0
VERTEX
  5
1EC1
  8
SAPA_PROFIL
 62
     4
 10
26.21541847084902
 20
74.19992404030269
 30
-0.1
  0
VERTEX
  5
1EC2
  8
SAPA_PROFIL
 62
     4
 10
25.31974952994041
 20
71.739093849851415
 30
-0.1
 42
-0.2694959974287434
  0
VERTEX
  5
1EC3
  8
SAPA_PROFIL
 62
     4
 10
25.088230483539061
 20
71.545961875507516
 30
-0.1
 42
-0.0612686379508233
  0
VERTEX
  5
1EC4
  8
SAPA_PROFIL
 62
     4
 10
24.795555050685781
 20
71.532378504877002
 30
-0.1
  0
VERTEX
  5
1EC5
  8
SAPA_PROFIL
 62
     4
 10
24.446136873377512
 20
71.330641826148181
 30
-0.1
 42
-0.5773502691891679
  0
VERTEX
  5
1EC6
  8
SAPA_PROFIL
 62
     4
 10
24.13113687337793
 20
71.512507160942747
 30
-0.1
  0
VERTEX
  5
1EC7
  8
SAPA_PROFIL
 62
     4
 10
24.131136873377681
 20
71.77962168906906
 30
-0.1
  0
VERTEX
  5
1EC8
  8
SAPA_PROFIL
 62
     4
 10
22.73260917274343
 20
72.58830515037738
 30
-0.1
 42
0.1318219888653519
  0
VERTEX
  5
1EC9
  8
SAPA_PROFIL
 62
     4
 10
22.58243607027109
 20
72.628597546914776
 30
-0.1
  0
VERTEX
  5
1ECA
  8
SAPA_PROFIL
 62
     4
 10
22.399999999834311
 20
72.628597546908409
 30
-0.1
 42
0.4142135623724291
  0
VERTEX
  5
1ECB
  8
SAPA_PROFIL
 62
     4
 10
21.999999999833761
 20
72.228597546908773
 30
-0.1
  0
VERTEX
  5
1ECC
  8
SAPA_PROFIL
 62
     4
 10
21.999999999835119
 20
68.828597546907773
 30
-0.1
 42
0.4142135623744271
  0
VERTEX
  5
1ECD
  8
SAPA_PROFIL
 62
     4
 10
22.399999999834311
 20
68.428597546906772
 30
-0.1
  0
VERTEX
  5
1ECE
  8
SAPA_PROFIL
 62
     4
 10
22.579615242105611
 20
68.428597546906133
 30
-0.1
 42
0.1316524975874005
  0
VERTEX
  5
1ECF
  8
SAPA_PROFIL
 62
     4
 10
22.72961524210243
 20
68.468789925771731
 30
-0.1
  0
VERTEX
  5
1ED0
  8
SAPA_PROFIL
 62
     4
 10
24.33375313910468
 20
69.394939372424261
 30
-0.1
 42
-0.1316524975875904
  0
VERTEX
  5
1ED1
  8
SAPA_PROFIL
 62
     4
 10
24.833753139106388
 20
69.528913968639031
 30
-0.1
  0
VERTEX
  5
1ED2
  8
SAPA_PROFIL
 62
     4
 10
25.249999999833761
 20
69.528913968639031
 30
-0.1
 42
-0.4142135623730951
  0
VERTEX
  5
1ED3
  8
SAPA_PROFIL
 62
     4
 10
26.249999999833761
 20
68.528913968639031
 30
-0.1
  0
VERTEX
  5
1ED4
  8
SAPA_PROFIL
 62
     4
 10
26.249999999833761
 20
65.528913968641746
 30
-0.1
 42
0.9999996830128083
  0
VERTEX
  5
1ED5
  8
SAPA_PROFIL
 62
     4
 10
27.249999999833761
 20
65.528913968639941
 30
-0.1
  0
VERTEX
  5
1ED6
  8
SAPA_PROFIL
 62
     4
 10
27.249999999833761
 20
68.528913968639941
 30
-0.1
 42
-0.4142135623730951
  0
VERTEX
  5
1ED7
  8
SAPA_PROFIL
 62
     4
 10
28.249999999833761
 20
69.528913968639941
 30
-0.1
  0
VERTEX
  5
1ED8
  8
SAPA_PROFIL
 62
     4
 10
57.749999999918337
 20
69.528913968639927
 30
-0.1
 42
-0.4142135623730951
  0
VERTEX
  5
1ED9
  8
SAPA_PROFIL
 62
     4
 10
58.749999999918337
 20
68.528913968639927
 30
-0.1
  0
VERTEX
  5
1EDA
  8
SAPA_PROFIL
 62
     4
 10
58.749999999918337
 20
65.528913968641746
 30
-0.1
 42
0.9999999999999998
  0
VERTEX
  5
1EDB
  8
SAPA_PROFIL
 62
     4
 10
59.749999999918337
 20
65.528913968641746
 30
-0.1
  0
VERTEX
  5
1EDC
  8
SAPA_PROFIL
 62
     4
 10
59.749999999918337
 20
68.528913968639927
 30
-0.1
 42
-0.4142135623736278
  0
VERTEX
  5
1EDD
  8
SAPA_PROFIL
 62
     4
 10
60.749999999918352
 20
69.528913968639927
 30
-0.1
  0
VERTEX
  5
1EDE
  8
SAPA_PROFIL
 62
     4
 10
61.166246860644797
 20
69.528913968639927
 30
-0.1
 42
-0.1316524975874375
  0
VERTEX
  5
1EDF
  8
SAPA_PROFIL
 62
     4
 10
61.666246860645003
 20
69.394939372423892
 30
-0.1
  0
VERTEX
  5
1EE0
  8
SAPA_PROFIL
 62
     4
 10
63.270384757646951
 20
68.468789925771716
 30
-0.1
 42
0.1316524975874
  0
VERTEX
  5
1EE1
  8
SAPA_PROFIL
 62
     4
 10
63.420384757646488
 20
68.428597546906133
 30
-0.1
  0
VERTEX
  5
1EE2
  8
SAPA_PROFIL
 62
     4
 10
63.599999999917799
 20
68.428597546906744
 30
-0.1
 42
0.4142135623744271
  0
VERTEX
  5
1EE3
  8
SAPA_PROFIL
 62
     4
 10
63.99999999991698
 20
68.828597546907758
 30
-0.1
  0
VERTEX
  5
1EE4
  8
SAPA_PROFIL
 62
     4
 10
63.999999999918337
 20
72.228597546908759
 30
-0.1
 42
0.4142135623724291
  0
VERTEX
  5
1EE5
  8
SAPA_PROFIL
 62
     4
 10
63.599999999917799
 20
72.628597546908395
 30
-0.1
  0
VERTEX
  5
1EE6
  8
SAPA_PROFIL
 62
     4
 10
63.41756392948102
 20
72.628597546914762
 30
-0.1
 42
0.1318219888653524
  0
VERTEX
  5
1EE7
  8
SAPA_PROFIL
 62
     4
 10
63.267390827008683
 20
72.58830515037738
 30
-0.1
  0
VERTEX
  5
1EE8
  8
SAPA_PROFIL
 62
     4
 10
61.868863126529021
 20
71.779621689153032
 30
-0.1
  0
VERTEX
  5
1EE9
  8
SAPA_PROFIL
 62
     4
 10
61.868863126529021
 20
71.512507160940004
 30
-0.1
 42
-0.577350269189159
  0
VERTEX
  5
1EEA
  8
SAPA_PROFIL
 62
     4
 10
61.553863126529421
 20
71.330641826145438
 30
-0.1
  0
VERTEX
  5
1EEB
  8
SAPA_PROFIL
 62
     4
 10
61.204444949310762
 20
71.532378504822546
 30
-0.1
 42
-0.0612687673629489
  0
VERTEX
  5
1EEC
  8
SAPA_PROFIL
 62
     4
 10
60.911769516210541
 20
71.545961875508752
 30
-0.1
 42
-0.2694959974285039
  0
VERTEX
  5
1EED
  8
SAPA_PROFIL
 62
     4
 10
60.680250469810019
 20
71.739093849852694
 30
-0.1
  0
VERTEX
  5
1EEE
  8
SAPA_PROFIL
 62
     4
 10
59.784581528900361
 20
74.199924040305859
 30
-0.1
 42
0.3152987888784035
  0
VERTEX
  5
1EEF
  8
SAPA_PROFIL
 62
     4
 10
59.314735218507138
 20
74.528913968642442
 30
-0.1
  0
VERTEX
  5
1EF0
  8
SAPA_PROFIL
 62
     4
 10
57.933235633302701
 20
74.528913968640836
 30
-0.1
 42
0.2539676464741841
  0
VERTEX
  5
1EF1
  8
SAPA_PROFIL
 62
     4
 10
57.681634462918623
 20
74.392305679145565
 30
-0.1
  0
VERTEX
  5
1EF2
  8
SAPA_PROFIL
 62
     4
 10
57.417611184541983
 20
73.98574548314059
 30
-0.1
 42
0.5862177598324623
  0
VERTEX
  5
1EF3
  8
SAPA_PROFIL
 62
     4
 10
57.67335299978032
 20
73.52891396864409
 30
-0.1
  0
VERTEX
  5
1EF4
  8
SAPA_PROFIL
 62
     4
 10
58.614527680290138
 20
73.52891396865175
 30
-0.1
 42
-0.3152987888813165
  0
VERTEX
  5
1EF5
  8
SAPA_PROFIL
 62
     4
 10
59.084373990687887
 20
73.199924040314997
 30
-0.1
  0
VERTEX
  5
1EF6
  8
SAPA_PROFIL
 62
     4
 10
59.52113827181185
 20
71.999924040303767
 30
-0.1
 42
-0.5205670505515651
  0
VERTEX
  5
1EF7
  8
SAPA_PROFIL
 62
     4
 10
59.051291961418627
 20
71.328913968641018
 30
-0.1
  0
VERTEX
  5
1EF8
  8
SAPA_PROFIL
 62
     4
 10
54.03485102074977
 20
71.328913968641004
 30
-0.1
 42
-0.3702522326300203
  0
VERTEX
  5
1EF9
  8
SAPA_PROFIL
 62
     4
 10
53.73832765895645
 20
71.583373921306702
 30
-0.1
 42
-0.0982365330332397
  0
VERTEX
  5
1EFA
  8
SAPA_PROFIL
 62
     4
 10
53.647874900745506
 20
73.271060696301717
 30
-0.1
 42
-0.3735060174783164
  0
VERTEX
  5
1EFB
  8
SAPA_PROFIL
 62
     4
 10
53.944899568656488
 20
73.528913968641746
 30
-0.1
  0
VERTEX
  5
1EFC
  8
SAPA_PROFIL
 62
     4
 10
54.373352999779136
 20
73.528913968642655
 30
-0.1
 42
0.5920056181162531
  0
VERTEX
  5
1EFD
  8
SAPA_PROFIL
 62
     4
 10
54.626361756096543
 20
73.990117471170564
 30
-0.1
  0
VERTEX
  5
1EFE
  8
SAPA_PROFIL
 62
     4
 10
54.365177679940842
 20
74.392305679148876
 30
-0.1
 42
0.2539676464746725
  0
VERTEX
  5
1EFF
  8
SAPA_PROFIL
 62
     4
 10
54.11357650955707
 20
74.528913968644247
 30
-0.1
  0
VERTEX
  5
1F00
  8
SAPA_PROFIL
 62
     4
 10
31.88642349019139
 20
74.528913968642655
 30
-0.1
 42
0.2539676464741819
  0
VERTEX
  5
1F01
  8
SAPA_PROFIL
 62
     4
 10
31.634822319808539
 20
74.39230567914889
 30
-0.1
  0
VERTEX
  5
1F02
  8
SAPA_PROFIL
 62
     4
 10
31.373638243654721
 20
73.990117471170549
 30
-0.1
 42
0.5920055144124249
  0
VERTEX
  5
1F03
  8
SAPA_PROFIL
 62
     4
 10
31.62664699997023
 20
73.528913968642669
 30
-0.1
  0
VERTEX
  5
1F04
  8
SAPA_PROFIL
 62
     4
 10
32.05510047726046
 20
73.528913993917669
 30
-0.1
 42
-0.3735060174775405
  0
VERTEX
  5
1F05
  8
SAPA_PROFIL
 62
     4
 10
32.352125145170142
 20
73.271060721577584
 30
-0.1
 42
-0.0355900683670349
  0
VERTEX
  5
1F06
  8
SAPA_PROFIL
 62
     4
 10
32.396018709202387
 20
72.655187134777805
 30
-0.1
 42
-0.0624282003873116
  0
VERTEX
  5
1F07
  8
SAPA_PROFIL
 62
     4
 10
32.261672386959447
 20
71.583373946582668
 30
-0.1
 42
-0.3702522326309292
  0
VERTEX
  5
1F08
  8
SAPA_PROFIL
 62
     4
 10
31.965149025166081
 20
71.328913993916942
 30
-0.1
  0
VERTEX
  5
1F09
  8
SAPA_PROFIL
 62
     4
 10
26.948708038332569
 20
71.328913968640805
 30
-0.1
 42
-0.5205670505515692
  0
VERTEX
  5
1F0A
  8
SAPA_PROFIL
 62
     4
 10
26.47886172793935
 20
71.999924040303782
 30
-0.1
  0
VERTEX
  5
1F0B
  8
SAPA_PROFIL
 62
     4
 10
26.915626009064301
 20
73.199924040313221
 30
-0.1
 42
-0.3152987888807539
  0
VERTEX
  5
1F0C
  8
SAPA_PROFIL
 62
     4
 10
27.385472319460149
 20
73.528913968650855
 30
-0.1
  0
VERTEX
  5
1F0D
  8
SAPA_PROFIL
 62
     4
 10
28.326646999969238
 20
73.528913968644034
 30
-0.1
 42
0.5862175119221242
  0
VERTEX
  5
1F0E
  8
SAPA_PROFIL
 62
     4
 10
28.58238893095119
 20
73.985745294399166
 30
-0.1
 42
-0.0000002084758573
  0
SEQEND
  5
1F0F
  8
SAPA_PROFIL
 62
     4
  0
CIRCLE
  5
1531
  8
SAPA_PROFIL
 62
     2
 10
5.1826599673349039
 20
83.168492498656931
 30
0.0
 40
0.25
  0
INSERT
  5
1532
  8
SAPA_PROFIL
  6
CONTINUOUS
 62
     2
  2
*U127
 10
0.0
 20
0.0
 30
0.0
1001
ACAD
1002
{
1000
R14_HATCH_DATA
1000
1532
1011
1.0
1021
0.0
1031
0.0
1021
0.0
1031
0.0
1011
0.0
1021
0.0
1031
0.0
1021
1.0
1031
0.0
1011
0.0
1021
0.0
1031
0.0
1021
0.0
1031
1.0
1040
0.0
1010
0.0
1020
0.0
1030
1.0
1000
SOLID
1070
     1
1070
     1
1071
        1
1071
        7
1070
     1
1070
     1
1071
        2
1040
5.4326599673349039
1040
83.168492498656931
1040
1.0
1040
4.9326599673349039
1040
83.168492498656931
1040
1.0
1071
        1
1005
1531
1070
     0
1070
     1
1040
0.0095408196840103
1071
        1
1040
5.2826599673349062
1040
83.168492498656931
1040
0.0
1002
}
  0
POLYLINE
  5
1533
  8
SAPA_PROFIL
 62
     2
 66
     1
 10
0.0
 20
0.0
 30
0.0
 70
     1
  0
VERTEX
  5
1F21
  8
SAPA_PROFIL
 62
     2
 10
2.5082807284690189
 20
85.500025499999964
 30
0.0
  0
VERTEX
  5
1F22
  8
SAPA_PROFIL
 62
     2
 10
2.5082807284690189
 20
85.600025499999958
 30
0.0
 42
-0.4142135623730959
  0
VERTEX
  5
1F23
  8
SAPA_PROFIL
 62
     2
 10
3.2082807284690218
 20
86.300025499999961
 30
0.0
  0
VERTEX
  5
1F24
  8
SAPA_PROFIL
 62
     2
 10
4.3082807284690201
 20
86.300025499999961
 30
0.0
 42
-0.4142135623730961
  0
VERTEX
  5
1F25
  8
SAPA_PROFIL
 62
     2
 10
4.5082807284690194
 20
86.100025499999944
 30
0.0
  0
VERTEX
  5
1F26
  8
SAPA_PROFIL
 62
     2
 10
4.5082807284690194
 20
85.000025499999964
 30
0.0
 42
-0.4142135623730956
  0
VERTEX
  5
1F27
  8
SAPA_PROFIL
 62
     2
 10
4.3082807284690201
 20
84.800025499999961
 30
0.0
  0
VERTEX
  5
1F28
  8
SAPA_PROFIL
 62
     2
 10
3.2082807284690178
 20
84.800025499999961
 30
0.0
 42
-0.4142135623730946
  0
SEQEND
  5
1F29
  8
SAPA_PROFIL
 62
     2
  0
POLYLINE
  5
1534
  8
SAPA_PROFIL
 62
     2
 66
     1
 10
0.0
 20
0.0
 30
0.0
  0
VERTEX
  5
1F2A
  8
SAPA_PROFIL
 62
     2
 10
3.8082807284690179
 20
84.000025499999964
 30
0.0
  0
VERTEX
  5
1F2B
  8
SAPA_PROFIL
 62
     2
 10
4.4560462937421059
 20
84.000025499999964
 30
0.0
 42
-0.4416942457848117
  0
VERTEX
  5
1F2C
  8
SAPA_PROFIL
 62
     2
 10
4.6551837732350387
 20
83.781471140372034
 30
0.0
  0
VERTEX
  5
1F2D
  8
SAPA_PROFIL
 62
     2
 10
4.5654677079769987
 20
82.818579859627874
 30
0.0
 42
0.4416942457848106
  0
VERTEX
  5
1F2E
  8
SAPA_PROFIL
 62
     2
 10
4.7646051874699316
 20
82.600025499999944
 30
0.0
  0
VERTEX
  5
1F2F
  8
SAPA_PROFIL
 62
     2
 10
5.3145875270614784
 20
82.600025499999944
 30
0.0
 42
0.5445962197109637
  0
VERTEX
  5
1F30
  8
SAPA_PROFIL
 62
     2
 10
5.7703244361233423
 20
83.305704545405035
 30
0.0
  0
VERTEX
  5
1F31
  8
SAPA_PROFIL
 62
     2
 10
5.6082807284690173
 20
83.664755698690286
 30
0.0
  0
VERTEX
  5
1F32
  8
SAPA_PROFIL
 62
     2
 10
5.6082807284690173
 20
85.13771493743819
 30
0.0
 42
0.336437923496554
  0
VERTEX
  5
1F33
  8
SAPA_PROFIL
 62
     2
 10
5.420773910627287
 20
86.209458667053028
 30
0.0
  0
VERTEX
  5
1F34
  8
SAPA_PROFIL
 62
     2
 10
5.420773910627287
 20
86.771322302876754
 30
0.0
 42
-0.1919812372740513
  0
VERTEX
  5
1F35
  8
SAPA_PROFIL
 62
     2
 10
5.5579062886445403
 20
87.115309350476778
 30
0.0
  0
VERTEX
  5
1F36
  8
SAPA_PROFIL
 62
     2
 10
5.9293837649345793
 20
87.507176280880088
 30
0.0
 42
-0.9249153594910841
  0
VERTEX
  5
1F37
  8
SAPA_PROFIL
 62
     2
 10
8.1630785800138863
 20
85.841398352357857
 30
0.0
  0
VERTEX
  5
1F38
  8
SAPA_PROFIL
 62
     2
 10
7.6295305247622496
 20
84.756853412689097
 30
0.0
 42
0.4184584792862776
  0
VERTEX
  5
1F39
  8
SAPA_PROFIL
 62
     2
 10
8.0332826451819646
 20
84.170151096117664
 30
0.0
 42
0.3891337693453737
  0
VERTEX
  5
1F3A
  8
SAPA_PROFIL
 62
     2
 10
8.2613719531245824
 20
84.315317987658148
 30
0.0
  0
VERTEX
  5
1F3B
  8
SAPA_PROFIL
 62
     2
 10
8.8242770056124566
 20
85.401214078223148
 30
0.0
 42
0.8864286961344978
  0
VERTEX
  5
1F3C
  8
SAPA_PROFIL
 62
     2
 10
5.4650782500917341
 20
88.072993980159694
 30
0.0
  0
VERTEX
  5
1F3D
  8
SAPA_PROFIL
 62
     2
 10
5.3497102768026163
 20
88.503553118040955
 30
0.0
 42
0.9163311740174273
  0
VERTEX
  5
1F3E
  8
SAPA_PROFIL
 62
     2
 10
4.5648620670502904
 20
88.365163202900888
 30
0.0
  0
VERTEX
  5
1F3F
  8
SAPA_PROFIL
 62
     2
 10
4.656524513257847
 20
87.317456648549495
 30
0.0
 42
-0.4400105308918339
  0
VERTEX
  5
1F40
  8
SAPA_PROFIL
 62
     2
 10
4.4572855736394992
 20
87.100025499999958
 30
0.0
  0
VERTEX
  5
1F41
  8
SAPA_PROFIL
 62
     2
 10
3.6082807284690168
 20
87.100025499999958
 30
0.0
  0
VERTEX
  5
1F42
  8
SAPA_PROFIL
 62
     2
 10
3.608280728469019
 20
87.500025499999964
 30
0.0
 42
0.569380983920789
  0
VERTEX
  5
1F43
  8
SAPA_PROFIL
 62
     2
 10
3.312464356766367
 20
87.675579545563551
 30
0.0
  0
VERTEX
  5
1F44
  8
SAPA_PROFIL
 62
     2
 10
2.0208316133610662
 20
86.970613945664482
 30
0.0
 42
0.274387813087548
  0
VERTEX
  5
1F45
  8
SAPA_PROFIL
 62
     2
 10
1.70828072846902
 20
86.443951808973736
 30
0.0
  0
VERTEX
  5
1F46
  8
SAPA_PROFIL
 62
     2
 10
1.708280728469018
 20
84.656099191026186
 30
0.0
 42
0.274387813087548
  0
VERTEX
  5
1F47
  8
SAPA_PROFIL
 62
     2
 10
2.0208316133610671
 20
84.12943705433544
 30
0.0
  0
VERTEX
  5
1F48
  8
SAPA_PROFIL
 62
     2
 10
3.312464356766367
 20
83.424471454436372
 30
0.0
 42
0.5693809839207892
  0
VERTEX
  5
1F49
  8
SAPA_PROFIL
 62
     2
 10
3.6082807284690168
 20
83.600025499999944
 30
0.0
  0
VERTEX
  5
1F4A
  8
SAPA_PROFIL
 62
     2
 10
3.6082807284690168
 20
84.000025499999964
 30
0.0
  0
VERTEX
  5
1F4B
  8
SAPA_PROFIL
 62
     2
 10
4.4572855736394992
 20
84.000025499999964
 30
0.0
  0
SEQEND
  5
1F4C
  8
SAPA_PROFIL
 62
     2
  0
POLYLINE
  5
1535
  8
SAPA_PROFIL
 66
     1
 10
0.0
 20
0.0
 30
-0.1
 70
     1
  0
VERTEX
  5
1F4D
  8
SAPA_PROFIL
 10
80.250000076046547
 20
138.41228675397119
 30
-0.1
 42
-0.2679491924315167
  0
VERTEX
  5
1F4E
  8
SAPA_PROFIL
 10
80.400000076046524
 20
138.15247913283551
 30
-0.1
  0
VERTEX
  5
1F4F
  8
SAPA_PROFIL
 10
80.400000076046069
 20
137.7999999960837
 30
-0.1
 42
0.4142135623730951
  0
VERTEX
  5
1F50
  8
SAPA_PROFIL
 10
80.700000076047047
 20
137.49999999608261
 30
-0.1
  0
VERTEX
  5
1F51
  8
SAPA_PROFIL
 10
83.500000072846547
 20
137.4999999960792
 30
-0.1
 42
0.4142135623728859
  0
VERTEX
  5
1F52
  8
SAPA_PROFIL
 10
84.000000072847172
 20
137.99999999607829
 30
-0.1
  0
VERTEX
  5
1F53
  8
SAPA_PROFIL
 10
84.000000072849105
 20
138.99999999608681
 30
-0.1
 42
0.4142135623733615
  0
VERTEX
  5
1F54
  8
SAPA_PROFIL
 10
83.000000072850113
 20
139.9999999960888
 30
-0.1
  0
VERTEX
  5
1F55
  8
SAPA_PROFIL
 10
81.633974669062226
 20
139.99999999609011
 30
-0.1
 42
-0.1316524975871477
  0
VERTEX
  5
1F56
  8
SAPA_PROFIL
 10
81.383974669062738
 20
140.0669872941979
 30
-0.1
  0
VERTEX
  5
1F57
  8
SAPA_PROFIL
 10
78.671539103752593
 20
141.6330126979893
 30
-0.1
 42
0.1316524975872168
  0
VERTEX
  5
1F58
  8
SAPA_PROFIL
 10
78.421539103752934
 20
141.69999999609709
 30
-0.1
  0
VERTEX
  5
1F59
  8
SAPA_PROFIL
 10
70.500000072852615
 20
141.69999999610269
 30
-0.1
 42
-0.4142135623729286
  0
VERTEX
  5
1F5A
  8
SAPA_PROFIL
 10
70.200000072852788
 20
141.99999999610259
 30
-0.1
  0
VERTEX
  5
1F5B
  8
SAPA_PROFIL
 10
70.200000072852163
 20
145.47655841917381
 30
-0.1
 42
-0.4244748162096643
  0
VERTEX
  5
1F5C
  8
SAPA_PROFIL
 10
70.510469921862921
 20
145.77637566727969
 30
-0.1
  0
VERTEX
  5
1F5D
  8
SAPA_PROFIL
 10
86.431775123668729
 20
145.22039143831981
 30
-0.1
 42
-0.4142135623730951
  0
VERTEX
  5
1F5E
  8
SAPA_PROFIL
 10
86.721122522763721
 20
144.91010434120329
 30
-0.1
  0
VERTEX
  5
1F5F
  8
SAPA_PROFIL
 10
86.700182824742171
 20
144.3104698449919
 30
-0.1
 42
0.6370702608075453
  0
VERTEX
  5
1F60
  8
SAPA_PROFIL
 10
87.184698515445632
 20
144.06359676989911
 30
-0.1
  0
VERTEX
  5
1F61
  8
SAPA_PROFIL
 10
88.958358954455946
 20
145.44933217720151
 30
-0.1
 42
0.7002075382097091
  0
VERTEX
  5
1F62
  8
SAPA_PROFIL
 10
88.66797796514436
 20
146.3430329675144
 30
-0.1
  0
VERTEX
  5
1F63
  8
SAPA_PROFIL
 10
67.810469921866456
 20
147.07139319806589
 30
-0.1
 42
0.4244748162048541
  0
VERTEX
  5
1F64
  8
SAPA_PROFIL
 10
67.500000072855698
 20
146.77157594996501
 30
-0.1
  0
VERTEX
  5
1F65
  8
SAPA_PROFIL
 10
67.500000072843974
 20
146.04999999610689
 30
-0.1
 42
0.4142135623740385
  0
VERTEX
  5
1F66
  8
SAPA_PROFIL
 10
67.800000072844284
 20
145.74999999610569
 30
-0.1
  0
VERTEX
  5
1F67
  8
SAPA_PROFIL
 10
68.700000072841306
 20
145.7499999961058
 30
-0.1
 42
-0.4142135623724291
  0
VERTEX
  5
1F68
  8
SAPA_PROFIL
 10
69.00000007284126
 20
145.4499999961065
 30
-0.1
  0
VERTEX
  5
1F69
  8
SAPA_PROFIL
 10
69.000000072852629
 20
140.4999999961004
 30
-0.1
 42
-0.4142135623740522
  0
VERTEX
  5
1F6A
  8
SAPA_PROFIL
 10
68.500000072852117
 20
139.99999999609921
 30
-0.1
  0
VERTEX
  5
1F6B
  8
SAPA_PROFIL
 10
67.000000072851492
 20
139.99999999610071
 30
-0.1
 42
0.4142135623729374
  0
VERTEX
  5
1F6C
  8
SAPA_PROFIL
 10
66.500000072851037
 20
139.49999999610139
 30
-0.1
  0
VERTEX
  5
1F6D
  8
SAPA_PROFIL
 10
66.500000072848863
 20
137.99999999610131
 30
-0.1
 42
0.4142135623731454
  0
VERTEX
  5
1F6E
  8
SAPA_PROFIL
 10
67.000000072848252
 20
137.4999999961006
 30
-0.1
  0
VERTEX
  5
1F6F
  8
SAPA_PROFIL
 10
69.400000076047206
 20
137.4999999960975
 30
-0.1
 42
0.414213562373503
  0
VERTEX
  5
1F70
  8
SAPA_PROFIL
 10
69.900000076047888
 20
137.99999999609761
 30
-0.1
  0
VERTEX
  5
1F71
  8
SAPA_PROFIL
 10
69.900000076047831
 20
138.49999999610341
 30
-0.1
 42
-0.414213562373547
  0
VERTEX
  5
1F72
  8
SAPA_PROFIL
 10
70.900000076049309
 20
139.49999999610341
 30
-0.1
  0
VERTEX
  5
1F73
  8
SAPA_PROFIL
 10
78.232050880412316
 20
139.49999999609281
 30
-0.1
 42
-0.1316524975870585
  0
VERTEX
  5
1F74
  8
SAPA_PROFIL
 10
78.482050880411634
 20
139.43301269798499
 30
-0.1
  0
SEQEND
  5
1F75
  8
SAPA_PROFIL
  0
POLYLINE
  5
1536
  8
SAPA_PROFIL
 66
     1
 10
0.0
 20
0.0
 30
-0.1
 70
     1
  0
VERTEX
  5
1F76
  8
SAPA_PROFIL
 10
-8.3612774436779631
 20
197.45694893384339
 30
-0.1
 42
0.9999999999999998
  0
VERTEX
  5
1F77
  8
SAPA_PROFIL
 10
-6.8639807044693422
 20
197.36693518625319
 30
-0.1
  0
VERTEX
  5
1F78
  8
SAPA_PROFIL
 10
-6.8031982882626592
 20
198.37799534121771
 30
-0.1
 42
-0.2679491924311268
  0
VERTEX
  5
1F79
  8
SAPA_PROFIL
 10
-6.5276641010269003
 20
198.7952253876721
 30
-0.1
  0
VERTEX
  5
1F7A
  8
SAPA_PROFIL
 10
3.5931356993426968
 20
203.85443522060939
 30
-0.1
 42
-0.493145426031307
  0
VERTEX
  5
1F7B
  8
SAPA_PROFIL
 10
6.4468277523010888
 20
202.4662731163497
 30
-0.1
  0
VERTEX
  5
1F7C
  8
SAPA_PROFIL
 10
7.0296431643971049
 20
199.61683436372789
 30
-0.1
  0
VERTEX
  5
1F7D
  8
SAPA_PROFIL
 10
6.7133261538668387
 20
198.66818081851281
 30
-0.1
  0
VERTEX
  5
1F7E
  8
SAPA_PROFIL
 10
7.3767257181479851
 20
197.91991547913699
 30
-0.1
  0
VERTEX
  5
1F7F
  8
SAPA_PROFIL
 10
7.0604087076177189
 20
196.97126193392191
 30
-0.1
  0
VERTEX
  5
1F80
  8
SAPA_PROFIL
 10
7.6017067289885532
 20
196.36071804834751
 30
-0.1
  0
VERTEX
  5
1F81
  8
SAPA_PROFIL
 10
7.3907682730886943
 20
192.85194888088171
 30
-0.1
 42
0.4142135623730951
  0
VERTEX
  5
1F82
  8
SAPA_PROFIL
 10
8.328956934167639
 20
191.79374188968251
 30
-0.1
  0
VERTEX
  5
1F83
  8
SAPA_PROFIL
 10
8.8280558472371773
 20
191.7637373071525
 30
-0.1
  0
VERTEX
  5
1F84
  8
SAPA_PROFIL
 10
9.3271547603067191
 20
191.7337327246224
 30
-0.1
 42
0.4142135623730951
  0
VERTEX
  5
1F85
  8
SAPA_PROFIL
 10
9.8562582559063259
 20
192.20282705516189
 30
-0.1
  0
VERTEX
  5
1F86
  8
SAPA_PROFIL
 10
9.8862628384363944
 20
192.70192596823139
 30
-0.1
  0
VERTEX
  5
1F87
  8
SAPA_PROFIL
 10
8.8880650122973144
 20
192.7619351332915
 30
-0.1
  0
VERTEX
  5
1F88
  8
SAPA_PROFIL
 10
9.2481200026581352
 20
198.75112209012599
 30
-0.1
  0
VERTEX
  5
1F89
  8
SAPA_PROFIL
 10
7.930334475947399
 20
205.19389808664411
 30
-0.1
 42
-0.3394542588633754
  0
VERTEX
  5
1F8A
  8
SAPA_PROFIL
 10
8.4629215990914624
 20
206.28875555045209
 30
-0.1
  0
VERTEX
  5
1F8B
  8
SAPA_PROFIL
 10
9.7396310053844388
 20
206.9269601300829
 30
-0.1
  0
VERTEX
  5
1F8C
  8
SAPA_PROFIL
 10
9.8782162357896901
 20
209.2321992645864
 30
-0.1
  0
VERTEX
  5
1F8D
  8
SAPA_PROFIL
 10
-7.6801340377971421
 20
200.45508874896839
 30
-0.1
 42
0.2679491924311207
  0
VERTEX
  5
1F8E
  8
SAPA_PROFIL
 10
-8.2312024122686474
 20
199.62062865605969
 30
-0.1
  0
SEQEND
  5
1F8F
  8
SAPA_PROFIL
  0
POLYLINE
  5
1537
  8
SAPA_PROFIL
 66
     1
 10
0.0
 20
0.0
 30
-0.1
 70
     1
  0
VERTEX
  5
1F90
  8
SAPA_PROFIL
 10
83.104759980569384
 20
21.499999996089119
 30
-0.1
  0
VERTEX
  5
1F91
  8
SAPA_PROFIL
 10
82.862216042722267
 20
21.499999996089119
 30
-0.1
 42
-0.2011813370902256
  0
VERTEX
  5
1F92
  8
SAPA_PROFIL
 10
82.719565952891685
 20
21.559818143229169
 30
-0.1
  0
VERTEX
  5
1F93
  8
SAPA_PROFIL
 10
81.808853859867781
 20
22.486565501958871
 30
-0.1
  0
VERTEX
  5
1F94
  8
SAPA_PROFIL
 10
81.822061402610984
 20
23.999999996090931
 30
-0.1
 42
0.4931454260356012
  0
VERTEX
  5
1F95
  8
SAPA_PROFIL
 10
82.042888291658642
 20
25.571264956328779
 30
-0.1
  0
VERTEX
  5
1F96
  8
SAPA_PROFIL
 10
80.993711719045834
 20
26.638914793153109
 30
-0.1
 42
0.6681786379164681
  0
VERTEX
  5
1F97
  8
SAPA_PROFIL
 10
80.643811461560915
 20
26.497545912699419
 30
-0.1
  0
VERTEX
  5
1F98
  8
SAPA_PROFIL
 10
80.604561972963594
 20
21.999999996089119
 30
-0.1
  0
VERTEX
  5
1F99
  8
SAPA_PROFIL
 10
82.682075232193355
 20
19.885907144499409
 30
-0.1
 42
-0.2038501166358263
  0
VERTEX
  5
1F9A
  8
SAPA_PROFIL
 10
82.825258088799373
 20
19.521600365081611
 30
-0.1
  0
VERTEX
  5
1F9B
  8
SAPA_PROFIL
 10
82.406631979510493
 20
4.4168871124871876
 30
-0.1
 42
-0.4061212134736873
  0
VERTEX
  5
1F9C
  8
SAPA_PROFIL
 10
79.407783492411056
 20
1.4999999960955961
 30
-0.1
  0
VERTEX
  5
1F9D
  8
SAPA_PROFIL
 10
67.623592248942998
 20
1.4999999960955961
 30
-0.1
 42
-0.4142135623730951
  0
VERTEX
  5
1F9E
  8
SAPA_PROFIL
 10
67.123592248942984
 20
1.9999999960955961
 30
-0.1
  0
VERTEX
  5
1F9F
  8
SAPA_PROFIL
 10
67.123592248942984
 20
13.585786433720671
 30
-0.1
 42
-0.198912367379658
  0
VERTEX
  5
1FA0
  8
SAPA_PROFIL
 10
67.416485467756445
 20
14.29289321490722
 30
-0.1
  0
VERTEX
  5
1FA1
  8
SAPA_PROFIL
 10
67.797084241146933
 20
14.673491988297769
 30
-0.1
 42
0.1830252782112529
  0
VERTEX
  5
1FA2
  8
SAPA_PROFIL
 10
68.379112782894524
 20
15.965159797029109
 30
-0.1
  0
VERTEX
  5
1FA3
  8
SAPA_PROFIL
 10
69.10217751022509
 20
26.398231825834898
 30
-0.1
 42
0.668178637923616
  0
VERTEX
  5
1FA4
  8
SAPA_PROFIL
 10
68.587027020436096
 20
26.611614145368488
 30
-0.1
  0
VERTEX
  5
1FA5
  8
SAPA_PROFIL
 10
66.587544905513539
 20
24.612132030445931
 30
-0.1
 42
0.7332303362588345
  0
VERTEX
  5
1FA6
  8
SAPA_PROFIL
 10
66.851771393170736
 20
24.104557670186239
 30
-0.1
  0
VERTEX
  5
1FA7
  8
SAPA_PROFIL
 10
67.467582486569142
 20
24.213141780972311
 30
-0.1
 42
-0.4663076581593561
  0
VERTEX
  5
1FA8
  8
SAPA_PROFIL
 10
67.819676939869339
 20
23.917699455068881
 30
-0.1
  0
VERTEX
  5
1FA9
  8
SAPA_PROFIL
 10
67.088517317988874
 20
16.15822232971658
 30
-0.1
 42
-0.183025278211264
  0
VERTEX
  5
1FAA
  8
SAPA_PROFIL
 10
66.797503047115072
 20
15.512388425350879
 30
-0.1
  0
VERTEX
  5
1FAB
  8
SAPA_PROFIL
 10
66.409378686570051
 20
15.12426406480591
 30
-0.1
 42
0.1989123673796518
  0
VERTEX
  5
1FAC
  8
SAPA_PROFIL
 10
65.823592248943143
 20
13.71005050243286
 30
-0.1
  0
VERTEX
  5
1FAD
  8
SAPA_PROFIL
 10
65.823592248943044
 20
2.2999999960800892
 30
-0.1
 42
-0.4142135623732283
  0
VERTEX
  5
1FAE
  8
SAPA_PROFIL
 10
65.323592248942816
 20
1.799999996080089
 30
-0.1
  0
VERTEX
  5
1FAF
  8
SAPA_PROFIL
 10
64.123592248943453
 20
1.7999999960810551
 30
-0.1
 42
0.4142135623732062
  0
VERTEX
  5
1FB0
  8
SAPA_PROFIL
 10
63.823592248943378
 20
1.499999996081044
 30
-0.1
  0
VERTEX
  5
1FB1
  8
SAPA_PROFIL
 10
63.823592248943051
 20
0.2999999960955506
 30
-0.1
 42
0.4142135623716247
  0
VERTEX
  5
1FB2
  8
SAPA_PROFIL
 10
64.123592248944362
 20
-0.0000000039044608
 30
-0.1
  0
VERTEX
  5
1FB3
  8
SAPA_PROFIL
 10
84.099999991266387
 20
-0.0000000039179895
 30
-0.1
 42
0.4142135623732938
  0
VERTEX
  5
1FB4
  8
SAPA_PROFIL
 10
84.299999991266404
 20
0.1999999960819991
 30
-0.1
  0
VERTEX
  5
1FB5
  8
SAPA_PROFIL
 10
84.299999991266404
 20
21.795376109767801
 30
-0.1
 42
0.4210020197690384
  0
VERTEX
  5
1FB6
  8
SAPA_PROFIL
 10
84.100053449222401
 20
21.999999996089119
 30
-0.1
  0
VERTEX
  5
1FB7
  8
SAPA_PROFIL
 10
83.512070286026855
 20
21.9999999960956
 30
-0.1
  0
VERTEX
  5
1FB8
  8
SAPA_PROFIL
 10
83.512070286026855
 20
21.699999996095581
 30
-0.1
 42
-0.41421356237322
  0
VERTEX
  5
1FB9
  8
SAPA_PROFIL
 10
83.312070286026824
 20
21.49999999609571
 30
-0.1
  0
VERTEX
  5
1FBA
  8
SAPA_PROFIL
 10
83.09489252055721
 20
21.4999999960956
 30
-0.1
  0
SEQEND
  5
1FBB
  8
SAPA_PROFIL
  0
CIRCLE
  5
1538
  8
SAPA_PROFIL
 62
     2
 10
3.1894244428503948
 20
3.3366590686752029
 30
-0.1
 40
0.8999999999999985
  0
POLYLINE
  5
1539
  8
SAPA_PROFIL
 62
     2
 66
     1
 10
0.0
 20
0.0
 30
-0.1
  0
VERTEX
  5
1FBC
  8
SAPA_PROFIL
 62
     2
 10
4.4974308544234409
 20
1.9366590686752261
 30
-0.1
  0
VERTEX
  5
1FBD
  8
SAPA_PROFIL
 62
     2
 10
3.406512044270698
 20
2.1290174886676141
 30
-0.1
  0
VERTEX
  5
1FBE
  8
SAPA_PROFIL
 62
     2
 10
3.290812504750761
 20
1.6972209287660001
 30
-0.1
 42
-0.4430158954262519
  0
VERTEX
  5
1FBF
  8
SAPA_PROFIL
 62
     2
 10
3.0273360766437909
 20
1.5617438812219
 30
-0.1
  0
VERTEX
  5
1FC0
  8
SAPA_PROFIL
 62
     2
 10
1.7568483287255949
 20
2.038692074440859
 30
-0.1
 42
-0.3125358528825162
  0
VERTEX
  5
1FC1
  8
SAPA_PROFIL
 62
     2
 10
1.4974308544238959
 20
2.4131737875702579
 30
-0.1
  0
VERTEX
  5
1FC2
  8
SAPA_PROFIL
 62
     2
 10
1.4974308544234409
 20
4.2833291034805816
 30
-0.1
 42
-0.3125358528825104
  0
VERTEX
  5
1FC3
  8
SAPA_PROFIL
 62
     2
 10
1.7568483287255949
 20
4.6578108166099801
 30
-0.1
  0
VERTEX
  5
1FC4
  8
SAPA_PROFIL
 62
     2
 10
3.0273360766437909
 20
5.1347590098291667
 30
-0.1
 42
-0.4430158954262519
  0
VERTEX
  5
1FC5
  8
SAPA_PROFIL
 62
     2
 10
3.2908125047506469
 20
4.9992819622850666
 30
-0.1
  0
VERTEX
  5
1FC6
  8
SAPA_PROFIL
 62
     2
 10
3.406512044270698
 20
4.5674854023832259
 30
-0.1
  0
VERTEX
  5
1FC7
  8
SAPA_PROFIL
 62
     2
 10
4.4974308544234409
 20
4.7597514455254659
 30
-0.1
  0
SEQEND
  5
1FC8
  8
SAPA_PROFIL
 62
     2
  0
POLYLINE
  5
153A
  8
SAPA_PROFIL
 62
     2
 66
     1
 10
0.0
 20
0.0
 30
-0.1
 70
     1
  0
VERTEX
  5
1FC9
  8
SAPA_PROFIL
 62
     2
 10
4.4974308544234409
 20
1.948251445525556
 30
-0.1
 42
0.285714285714282
  0
VERTEX
  5
1FCA
  8
SAPA_PROFIL
 62
     2
 10
4.4974308544234409
 20
4.7482514455255114
 30
-0.1
  0
VERTEX
  5
1FCB
  8
SAPA_PROFIL
 62
     2
 10
4.4974308544238957
 20
6.8220316149133851
 30
-0.1
 42
-0.3882600129940275
  0
VERTEX
  5
1FCC
  8
SAPA_PROFIL
 62
     2
 10
4.7706415807034537
 20
7.1208331122547861
 30
-0.1
  0
VERTEX
  5
1FCD
  8
SAPA_PROFIL
 62
     2
 10
8.6706415807035455
 20
7.5870430361812851
 30
-0.1
 42
-0.4406523138893894
  0
VERTEX
  5
1FCE
  8
SAPA_PROFIL
 62
     2
 10
8.9974308544234418
 20
7.2882415388394293
 30
-0.1
  0
VERTEX
  5
1FCF
  8
SAPA_PROFIL
 62
     2
 10
8.9974308544234418
 20
5.578449541919098
 30
-0.1
 42
-0.3394542588634375
  0
VERTEX
  5
1FD0
  8
SAPA_PROFIL
 62
     2
 10
8.7750765679544411
 20
5.2886717940325516
 30
-0.1
  0
VERTEX
  5
1FD1
  8
SAPA_PROFIL
 62
     2
 10
8.5574907857868538
 20
5.0862920661011231
 30
-0.1
 42
0.3394542588633663
  0
VERTEX
  5
1FD2
  8
SAPA_PROFIL
 62
     2
 10
8.3351364993178532
 20
4.7965143182143493
 30
-0.1
  0
VERTEX
  5
1FD3
  8
SAPA_PROFIL
 62
     2
 10
8.3351364993178532
 20
1.8999885728364909
 30
-0.1
 42
0.3394542588634373
  0
VERTEX
  5
1FD4
  8
SAPA_PROFIL
 62
     2
 10
8.5574907857868538
 20
1.6102108249499449
 30
-0.1
  0
VERTEX
  5
1FD5
  8
SAPA_PROFIL
 62
     2
 10
8.7750765679544411
 20
1.4078310970185151
 30
-0.1
 42
-0.3394542588633662
  0
VERTEX
  5
1FD6
  8
SAPA_PROFIL
 62
     2
 10
8.9974308544234418
 20
1.118053349131741
 30
-0.1
  0
VERTEX
  5
1FD7
  8
SAPA_PROFIL
 62
     2
 10
8.9974308544234418
 20
-0.5917386477883611
 30
-0.1
 42
-0.4406523138893994
  0
VERTEX
  5
1FD8
  8
SAPA_PROFIL
 62
     2
 10
8.6706415807035455
 20
-0.8905401451299894
 30
-0.1
  0
VERTEX
  5
1FD9
  8
SAPA_PROFIL
 62
     2
 10
4.7706415807034537
 20
-0.4243302212037179
 30
-0.1
 42
-0.3882600129940462
  0
VERTEX
  5
1FDA
  8
SAPA_PROFIL
 62
     2
 10
4.4974308544234409
 20
-0.1255287238623168
 30
-0.1
  0
VERTEX
  5
1FDB
  8
SAPA_PROFIL
 62
     2
 10
4.4974308544234409
 20
1.9366590686752261
 30
-0.1
  0
SEQEND
  5
1FDC
  8
SAPA_PROFIL
 62
     2
  0
POLYLINE
  5
153B
  8
SAPA_PROFIL
 62
     4
 66
     1
 10
0.0
 20
0.0
 30
-0.1
  0
VERTEX
  5
1FDD
  8
SAPA_PROFIL
 62
     4
 10
52.04932919305395
 20
139.09590471813789
 30
-0.1
 42
-0.5571646428658034
  0
VERTEX
  5
1FDE
  8
SAPA_PROFIL
 62
     4
 10
51.512368688917128
 20
138.22818580398231
 30
-0.1
  0
VERTEX
  5
1FDF
  8
SAPA_PROFIL
 62
     4
 10
34.487631452395931
 20
138.2281858039828
 30
-0.1
 42
-0.5571645048035741
  0
VERTEX
  5
1FE0
  8
SAPA_PROFIL
 62
     4
 10
33.950670835434877
 20
139.0959044918489
 30
-0.1
  0
VERTEX
  5
1FE1
  8
SAPA_PROFIL
 62
     4
 10
34.781377922981569
 20
140.76204514791701
 30
-0.1
 42
-0.284385813979063
  0
VERTEX
  5
1FE2
  8
SAPA_PROFIL
 62
     4
 10
35.049858231461918
 20
140.92818580398441
 30
-0.1
  0
VERTEX
  5
1FE3
  8
SAPA_PROFIL
 62
     4
 10
50.950141909851233
 20
140.92818580398441
 30
-0.1
 42
-0.2843858139786238
  0
VERTEX
  5
1FE4
  8
SAPA_PROFIL
 62
     4
 10
51.218622218331511
 20
140.76204514791749
 30
-0.1
  0
VERTEX
  5
1FE5
  8
SAPA_PROFIL
 62
     4
 10
52.049329305878679
 20
139.0959044918481
 30
-0.1
  0
SEQEND
  5
1FE6
  8
SAPA_PROFIL
 62
     4
  0
POLYLINE
  5
153C
  8
SAPA_PROFIL
 62
     4
 66
     1
 10
0.0
 20
0.0
 30
-0.1
 70
     1
  0
VERTEX
  5
1FE7
  8
SAPA_PROFIL
 62
     4
 10
28.582388885989278
 20
141.28501731848201
 30
-0.1
  0
VERTEX
  5
1FE8
  8
SAPA_PROFIL
 62
     4
 10
28.31836560761327
 20
141.69157751448611
 30
-0.1
 42
0.2539676464751066
  0
VERTEX
  5
1FE9
  8
SAPA_PROFIL
 62
     4
 10
28.066764437228571
 20
141.82818580398219
 30
-0.1
  0
VERTEX
  5
1FEA
  8
SAPA_PROFIL
 62
     4
 10
26.68526485202322
 20
141.82818580398219
 30
-0.1
 42
0.3152987888790479
  0
VERTEX
  5
1FEB
  8
SAPA_PROFIL
 62
     4
 10
26.21541854163091
 20
141.49919587564409
 30
-0.1
  0
VERTEX
  5
1FEC
  8
SAPA_PROFIL
 62
     4
 10
25.3197496007223
 20
139.03836568519279
 30
-0.1
 42
-0.2694959974287434
  0
VERTEX
  5
1FED
  8
SAPA_PROFIL
 62
     4
 10
25.088230554320941
 20
138.8452337108489
 30
-0.1
 42
-0.0612686379508233
  0
VERTEX
  5
1FEE
  8
SAPA_PROFIL
 62
     4
 10
24.795555121467672
 20
138.8316503402184
 30
-0.1
  0
VERTEX
  5
1FEF
  8
SAPA_PROFIL
 62
     4
 10
24.446136944159399
 20
138.62991366148961
 30
-0.1
 42
-0.5773502691891679
  0
VERTEX
  5
1FF0
  8
SAPA_PROFIL
 62
     4
 10
24.13113694415982
 20
138.81177899628409
 30
-0.1
  0
VERTEX
  5
1FF1
  8
SAPA_PROFIL
 62
     4
 10
24.131136944159572
 20
139.0788935244104
 30
-0.1
  0
VERTEX
  5
1FF2
  8
SAPA_PROFIL
 62
     4
 10
22.732609243525321
 20
139.88757698571879
 30
-0.1
 42
0.1318219888653519
  0
VERTEX
  5
1FF3
  8
SAPA_PROFIL
 62
     4
 10
22.58243614105297
 20
139.9278693822562
 30
-0.1
  0
VERTEX
  5
1FF4
  8
SAPA_PROFIL
 62
     4
 10
22.400000070616191
 20
139.92786938224981
 30
-0.1
 42
0.4142135623724291
  0
VERTEX
  5
1FF5
  8
SAPA_PROFIL
 62
     4
 10
22.000000070615648
 20
139.52786938225009
 30
-0.1
  0
VERTEX
  5
1FF6
  8
SAPA_PROFIL
 62
     4
 10
22.000000070617009
 20
136.12786938224909
 30
-0.1
 42
0.4142135623744271
  0
VERTEX
  5
1FF7
  8
SAPA_PROFIL
 62
     4
 10
22.400000070616191
 20
135.72786938224809
 30
-0.1
  0
VERTEX
  5
1FF8
  8
SAPA_PROFIL
 62
     4
 10
22.579615312887501
 20
135.72786938224749
 30
-0.1
 42
0.1316524975874005
  0
VERTEX
  5
1FF9
  8
SAPA_PROFIL
 62
     4
 10
22.729615312884309
 20
135.7680617611131
 30
-0.1
  0
VERTEX
  5
1FFA
  8
SAPA_PROFIL
 62
     4
 10
24.33375320988657
 20
136.6942112077657
 30
-0.1
 42
-0.1316524975875904
  0
VERTEX
  5
1FFB
  8
SAPA_PROFIL
 62
     4
 10
24.833753209888279
 20
136.8281858039804
 30
-0.1
  0
VERTEX
  5
1FFC
  8
SAPA_PROFIL
 62
     4
 10
25.250000070615648
 20
136.8281858039804
 30
-0.1
 42
-0.4142135623730951
  0
VERTEX
  5
1FFD
  8
SAPA_PROFIL
 62
     4
 10
26.250000070615648
 20
135.8281858039804
 30
-0.1
  0
VERTEX
  5
1FFE
  8
SAPA_PROFIL
 62
     4
 10
26.250000070615648
 20
132.8281858039831
 30
-0.1
 42
0.9999996830128083
  0
VERTEX
  5
1FFF
  8
SAPA_PROFIL
 62
     4
 10
27.250000070615648
 20
132.82818580398131
 30
-0.1
  0
VERTEX
  5
2000
  8
SAPA_PROFIL
 62
     4
 10
27.250000070615648
 20
135.82818580398131
 30
-0.1
 42
-0.4142135623730951
  0
VERTEX
  5
2001
  8
SAPA_PROFIL
 62
     4
 10
28.250000070615648
 20
136.82818580398131
 30
-0.1
  0
VERTEX
  5
2002
  8
SAPA_PROFIL
 62
     4
 10
57.750000070700231
 20
136.82818580398131
 30
-0.1
 42
-0.4142135623730951
  0
VERTEX
  5
2003
  8
SAPA_PROFIL
 62
     4
 10
58.750000070700231
 20
135.82818580398131
 30
-0.1
  0
VERTEX
  5
2004
  8
SAPA_PROFIL
 62
     4
 10
58.750000070700231
 20
132.8281858039831
 30
-0.1
 42
0.9999999999999998
  0
VERTEX
  5
2005
  8
SAPA_PROFIL
 62
     4
 10
59.750000070700231
 20
132.8281858039831
 30
-0.1
  0
VERTEX
  5
2006
  8
SAPA_PROFIL
 62
     4
 10
59.750000070700231
 20
135.82818580398131
 30
-0.1
 42
-0.4142135623736278
  0
VERTEX
  5
2007
  8
SAPA_PROFIL
 62
     4
 10
60.750000070700231
 20
136.82818580398131
 30
-0.1
  0
VERTEX
  5
2008
  8
SAPA_PROFIL
 62
     4
 10
61.166246931426691
 20
136.82818580398131
 30
-0.1
 42
-0.1316524975874375
  0
VERTEX
  5
2009
  8
SAPA_PROFIL
 62
     4
 10
61.66624693142689
 20
136.69421120776531
 30
-0.1
  0
VERTEX
  5
200A
  8
SAPA_PROFIL
 62
     4
 10
63.270384828428831
 20
135.7680617611131
 30
-0.1
 42
0.1316524975874
  0
VERTEX
  5
200B
  8
SAPA_PROFIL
 62
     4
 10
63.420384828428382
 20
135.72786938224749
 30
-0.1
  0
VERTEX
  5
200C
  8
SAPA_PROFIL
 62
     4
 10
63.600000070699679
 20
135.72786938224809
 30
-0.1
 42
0.4142135623744271
  0
VERTEX
  5
200D
  8
SAPA_PROFIL
 62
     4
 10
64.00000007069886
 20
136.12786938224909
 30
-0.1
  0
VERTEX
  5
200E
  8
SAPA_PROFIL
 62
     4
 10
64.000000070700224
 20
139.52786938225009
 30
-0.1
 42
0.4142135623724291
  0
VERTEX
  5
200F
  8
SAPA_PROFIL
 62
     4
 10
63.600000070699679
 20
139.92786938224981
 30
-0.1
  0
VERTEX
  5
2010
  8
SAPA_PROFIL
 62
     4
 10
63.417564000262907
 20
139.9278693822562
 30
-0.1
 42
0.1318219888653524
  0
VERTEX
  5
2011
  8
SAPA_PROFIL
 62
     4
 10
63.267390897790563
 20
139.88757698571871
 30
-0.1
  0
VERTEX
  5
2012
  8
SAPA_PROFIL
 62
     4
 10
61.868863197310901
 20
139.07889352449439
 30
-0.1
  0
VERTEX
  5
2013
  8
SAPA_PROFIL
 62
     4
 10
61.868863197310901
 20
138.81177899628139
 30
-0.1
 42
-0.577350269189159
  0
VERTEX
  5
2014
  8
SAPA_PROFIL
 62
     4
 10
61.553863197311308
 20
138.6299136614868
 30
-0.1
  0
VERTEX
  5
2015
  8
SAPA_PROFIL
 62
     4
 10
61.204445020092649
 20
138.83165034016389
 30
-0.1
 42
-0.0612687673629489
  0
VERTEX
  5
2016
  8
SAPA_PROFIL
 62
     4
 10
60.911769586992428
 20
138.8452337108501
 30
-0.1
 42
-0.2694959974285039
  0
VERTEX
  5
2017
  8
SAPA_PROFIL
 62
     4
 10
60.680250540591913
 20
139.03836568519409
 30
-0.1
  0
VERTEX
  5
2018
  8
SAPA_PROFIL
 62
     4
 10
59.784581599682248
 20
141.49919587564719
 30
-0.1
 42
0.3152987888784035
  0
VERTEX
  5
2019
  8
SAPA_PROFIL
 62
     4
 10
59.314735289289018
 20
141.82818580398381
 30
-0.1
  0
VERTEX
  5
201A
  8
SAPA_PROFIL
 62
     4
 10
57.933235704084588
 20
141.82818580398219
 30
-0.1
 42
0.2539676464741841
  0
VERTEX
  5
201B
  8
SAPA_PROFIL
 62
     4
 10
57.68163453370051
 20
141.69157751448691
 30
-0.1
  0
VERTEX
  5
201C
  8
SAPA_PROFIL
 62
     4
 10
57.41761125532387
 20
141.28501731848201
 30
-0.1
 42
0.5862177598324623
  0
VERTEX
  5
201D
  8
SAPA_PROFIL
 62
     4
 10
57.673353070562207
 20
140.82818580398549
 30
-0.1
  0
VERTEX
  5
201E
  8
SAPA_PROFIL
 62
     4
 10
58.614527751072032
 20
140.82818580399311
 30
-0.1
 42
-0.3152987888813165
  0
VERTEX
  5
201F
  8
SAPA_PROFIL
 62
     4
 10
59.084374061469781
 20
140.4991958756564
 30
-0.1
  0
VERTEX
  5
2020
  8
SAPA_PROFIL
 62
     4
 10
59.521138342593737
 20
139.29919587564521
 30
-0.1
 42
-0.5205670505515651
  0
VERTEX
  5
2021
  8
SAPA_PROFIL
 62
     4
 10
59.051292032200507
 20
138.6281858039824
 30
-0.1
  0
VERTEX
  5
2022
  8
SAPA_PROFIL
 62
     4
 10
54.034851091531657
 20
138.6281858039824
 30
-0.1
 42
-0.3702522326300203
  0
VERTEX
  5
2023
  8
SAPA_PROFIL
 62
     4
 10
53.73832772973833
 20
138.88264575664809
 30
-0.1
 42
-0.0982365330332397
  0
VERTEX
  5
2024
  8
SAPA_PROFIL
 62
     4
 10
53.647874971527401
 20
140.57033253164309
 30
-0.1
 42
-0.3735060174783164
  0
VERTEX
  5
2025
  8
SAPA_PROFIL
 62
     4
 10
53.944899639438368
 20
140.8281858039831
 30
-0.1
  0
VERTEX
  5
2026
  8
SAPA_PROFIL
 62
     4
 10
54.373353070561031
 20
140.82818580398401
 30
-0.1
 42
0.5920056181162531
  0
VERTEX
  5
2027
  8
SAPA_PROFIL
 62
     4
 10
54.62636182687843
 20
141.28938930651199
 30
-0.1
  0
VERTEX
  5
2028
  8
SAPA_PROFIL
 62
     4
 10
54.365177750722729
 20
141.69157751449029
 30
-0.1
 42
0.2539676464746725
  0
VERTEX
  5
2029
  8
SAPA_PROFIL
 62
     4
 10
54.113576580338957
 20
141.8281858039856
 30
-0.1
  0
VERTEX
  5
202A
  8
SAPA_PROFIL
 62
     4
 10
31.886423560973281
 20
141.82818580398401
 30
-0.1
 42
0.2539676464741819
  0
VERTEX
  5
202B
  8
SAPA_PROFIL
 62
     4
 10
31.634822390590418
 20
141.69157751449029
 30
-0.1
  0
VERTEX
  5
202C
  8
SAPA_PROFIL
 62
     4
 10
31.373638314436612
 20
141.28938930651191
 30
-0.1
 42
0.5920055144124249
  0
VERTEX
  5
202D
  8
SAPA_PROFIL
 62
     4
 10
31.626647070752121
 20
140.82818580398401
 30
-0.1
  0
VERTEX
  5
202E
  8
SAPA_PROFIL
 62
     4
 10
32.05510054804234
 20
140.82818582925901
 30
-0.1
 42
-0.3735060174775405
  0
VERTEX
  5
202F
  8
SAPA_PROFIL
 62
     4
 10
32.352125215952029
 20
140.570332556919
 30
-0.1
 42
-0.0355900683670349
  0
VERTEX
  5
2030
  8
SAPA_PROFIL
 62
     4
 10
32.396018779984281
 20
139.95445897011919
 30
-0.1
 42
-0.0624282003873116
  0
VERTEX
  5
2031
  8
SAPA_PROFIL
 62
     4
 10
32.261672457741341
 20
138.88264578192411
 30
-0.1
 42
-0.3702522326309292
  0
VERTEX
  5
2032
  8
SAPA_PROFIL
 62
     4
 10
31.965149095947961
 20
138.62818582925831
 30
-0.1
  0
VERTEX
  5
2033
  8
SAPA_PROFIL
 62
     4
 10
26.94870810911446
 20
138.62818580398221
 30
-0.1
 42
-0.5205670505515692
  0
VERTEX
  5
2034
  8
SAPA_PROFIL
 62
     4
 10
26.47886179872124
 20
139.29919587564521
 30
-0.1
  0
VERTEX
  5
2035
  8
SAPA_PROFIL
 62
     4
 10
26.915626079846181
 20
140.49919587565461
 30
-0.1
 42
-0.3152987888807539
  0
VERTEX
  5
2036
  8
SAPA_PROFIL
 62
     4
 10
27.38547239024204
 20
140.8281858039922
 30
-0.1
  0
VERTEX
  5
2037
  8
SAPA_PROFIL
 62
     4
 10
28.326647070751122
 20
140.82818580398541
 30
-0.1
 42
0.5862175119221242
  0
VERTEX
  5
2038
  8
SAPA_PROFIL
 62
     4
 10
28.58238900173308
 20
141.2850171297406
 30
-0.1
 42
-0.0000002084758573
  0
SEQEND
  5
2039
  8
SAPA_PROFIL
 62
     4
  0
POLYLINE
  5
153D
  8
SAPA_PROFIL
 66
     1
 10
0.0
 20
0.0
 30
-0.1
 70
     1
  0
VERTEX
  5
203A
  8
SAPA_PROFIL
 10
25.517338690137802
 20
97.834386051866829
 30
-0.1
 42
-0.4769755326981641
  0
VERTEX
  5
203B
  8
SAPA_PROFIL
 10
25.21508586563133
 20
97.462729176920945
 30
-0.1
  0
VERTEX
  5
203C
  8
SAPA_PROFIL
 10
23.71198478486933
 20
97.462812784804612
 30
-0.1
  0
VERTEX
  5
203D
  8
SAPA_PROFIL
 10
23.69746637562222
 20
97.510658534803099
 30
-0.1
 42
0.4142135623730958
  0
VERTEX
  5
203E
  8
SAPA_PROFIL
 10
23.323281420146412
 20
97.710622579310495
 30
-0.1
  0
VERTEX
  5
203F
  8
SAPA_PROFIL
 10
22.002164461995719
 20
97.19999999608882
 30
-0.1
  0
VERTEX
  5
2040
  8
SAPA_PROFIL
 10
19.043207610561009
 20
97.19999999608882
 30
-0.1
 42
-0.2596812337299856
  0
VERTEX
  5
2041
  8
SAPA_PROFIL
 10
18.788161393250981
 20
97.342039788961074
 30
-0.1
  0
VERTEX
  5
2042
  8
SAPA_PROFIL
 10
18.04506276590973
 20
98.54186408292783
 30
-0.1
 42
-0.587935048733185
  0
VERTEX
  5
2043
  8
SAPA_PROFIL
 10
18.300000077749701
 20
98.999999996087936
 30
-0.1
  0
VERTEX
  5
2044
  8
SAPA_PROFIL
 10
19.700000077749721
 20
98.999999996087979
 30
-0.1
 42
0.4142135623731227
  0
VERTEX
  5
2045
  8
SAPA_PROFIL
 10
20.000000077749689
 20
99.299999996087891
 30
-0.1
  0
VERTEX
  5
2046
  8
SAPA_PROFIL
 10
20.0000000777497
 20
101.69999999608881
 30
-0.1
 42
0.414213562373109
  0
VERTEX
  5
2047
  8
SAPA_PROFIL
 10
19.700000077749721
 20
101.9999999960888
 30
-0.1
  0
VERTEX
  5
2048
  8
SAPA_PROFIL
 10
2.300000161526695
 20
101.9999999960889
 30
-0.1
 42
0.4142135623730882
  0
VERTEX
  5
2049
  8
SAPA_PROFIL
 10
2.0000001615256751
 20
101.69999999608881
 30
-0.1
  0
VERTEX
  5
204A
  8
SAPA_PROFIL
 10
2.0000001615256879
 20
99.299999996088957
 30
-0.1
 42
0.4142135623720964
  0
VERTEX
  5
204B
  8
SAPA_PROFIL
 10
2.3000001615256851
 20
98.999999996088832
 30
-0.1
  0
VERTEX
  5
204C
  8
SAPA_PROFIL
 10
3.700000161525705
 20
98.999999996089741
 30
-0.1
 42
-0.5877032589246419
  0
VERTEX
  5
204D
  8
SAPA_PROFIL
 10
3.9550463788366961
 20
98.542039788960935
 30
-0.1
  0
VERTEX
  5
204E
  8
SAPA_PROFIL
 10
3.0879710216277201
 20
97.142039788961029
 30
-0.1
 42
-0.2596812337300243
  0
VERTEX
  5
204F
  8
SAPA_PROFIL
 10
2.83292480431771
 20
96.999999996088846
 30
-0.1
  0
VERTEX
  5
2050
  8
SAPA_PROFIL
 10
0.3000000776816995
 20
96.999999996088846
 30
-0.1
 42
-0.4142135623731088
  0
VERTEX
  5
2051
  8
SAPA_PROFIL
 10
0.0000000776817166
 20
97.299999996088843
 30
-0.1
  0
VERTEX
  5
2052
  8
SAPA_PROFIL
 10
0.000000077681733
 20
186.69999999574591
 30
-0.1
 42
-0.6681786379192997
  0
VERTEX
  5
2053
  8
SAPA_PROFIL
 10
0.5121321125922691
 20
186.91213203033149
 30
-0.1
  0
VERTEX
  5
2054
  8
SAPA_PROFIL
 10
1.5535534687293471
 20
185.8707106741943
 30
-0.1
 42
-0.1989123673796784
  0
VERTEX
  5
2055
  8
SAPA_PROFIL
 10
1.700000078136056
 20
185.51715728360111
 30
-0.1
  0
VERTEX
  5
2056
  8
SAPA_PROFIL
 10
1.700000078135941
 20
174.99999999595829
 30
-0.1
 42
0.4142135623731617
  0
VERTEX
  5
2057
  8
SAPA_PROFIL
 10
2.2000000781360538
 20
174.49999999595829
 30
-0.1
  0
VERTEX
  5
2058
  8
SAPA_PROFIL
 10
4.300570522390128
 20
174.499999995959
 30
-0.1
 42
-0.4241420668413202
  0
VERTEX
  5
2059
  8
SAPA_PROFIL
 10
5.3000000777992371
 20
173.46622776208019
 30
-0.1
 42
-0.2988658713671491
  0
VERTEX
  5
205A
  8
SAPA_PROFIL
 10
4.7291419510212593
 20
172.5289476251221
 30
-0.1
 42
-0.5507604245839972
  0
VERTEX
  5
205B
  8
SAPA_PROFIL
 10
4.3005705224349207
 20
172.79999999596919
 30
-0.1
  0
VERTEX
  5
205C
  8
SAPA_PROFIL
 10
4.3005705224171997
 20
173.09999999595931
 30
-0.1
 42
0.4142135623717422
  0
VERTEX
  5
205D
  8
SAPA_PROFIL
 10
4.1005705224052029
 20
173.29999999594619
 30
-0.1
  0
VERTEX
  5
205E
  8
SAPA_PROFIL
 10
3.8005705222872281
 20
173.29999999593019
 30
-0.1
 42
0.4142135623558401
  0
VERTEX
  5
205F
  8
SAPA_PROFIL
 10
2.000570522390074
 20
171.4999999959322
 30
-0.1
  0
VERTEX
  5
2060
  8
SAPA_PROFIL
 10
2.000570522388128
 20
170.79999999571621
 30
-0.1
 42
0.4142135623563557
  0
VERTEX
  5
2061
  8
SAPA_PROFIL
 10
3.8005705222823098
 20
168.9999999957133
 30
-0.1
  0
VERTEX
  5
2062
  8
SAPA_PROFIL
 10
4.1005705223990629
 20
168.99999999569511
 30
-0.1
 42
0.4142135623703688
  0
VERTEX
  5
2063
  8
SAPA_PROFIL
 10
4.3005705224112161
 20
169.1999999956831
 30
-0.1
  0
VERTEX
  5
2064
  8
SAPA_PROFIL
 10
4.3005705224303163
 20
169.4999999956753
 30
-0.1
 42
-0.5507604245876419
  0
VERTEX
  5
2065
  8
SAPA_PROFIL
 10
4.7291419510247819
 20
169.77105236652051
 30
-0.1
 42
-0.2988658713647653
  0
VERTEX
  5
2066
  8
SAPA_PROFIL
 10
5.3000000777923582
 20
168.83377222956119
 30
-0.1
 42
-0.4241420668424131
  0
VERTEX
  5
2067
  8
SAPA_PROFIL
 10
4.3005705223811459
 20
167.79999999568321
 30
-0.1
  0
VERTEX
  5
2068
  8
SAPA_PROFIL
 10
2.300000078083055
 20
167.79999999568921
 30
-0.1
 42
0.4142135623741493
  0
VERTEX
  5
2069
  8
SAPA_PROFIL
 10
2.000000078081182
 20
167.49999999568919
 30
-0.1
  0
VERTEX
  5
206A
  8
SAPA_PROFIL
 10
2.0000000780811771
 20
142.4999999960711
 30
-0.1
 42
0.4142135623730909
  0
VERTEX
  5
206B
  8
SAPA_PROFIL
 10
2.5000000780811349
 20
141.9999999960711
 30
-0.1
  0
VERTEX
  5
206C
  8
SAPA_PROFIL
 10
2.8329248043177899
 20
141.99999999608889
 30
-0.1
 42
-0.2596812337300516
  0
VERTEX
  5
206D
  8
SAPA_PROFIL
 10
3.0879710216277849
 20
141.85796020321669
 30
-0.1
  0
VERTEX
  5
206E
  8
SAPA_PROFIL
 10
3.9550463788367032
 20
140.45796020321691
 30
-0.1
 42
-0.5877032589248035
  0
VERTEX
  5
206F
  8
SAPA_PROFIL
 10
3.700000161525713
 20
139.99999999608889
 30
-0.1
  0
VERTEX
  5
2070
  8
SAPA_PROFIL
 10
2.3000001615256931
 20
139.99999999608889
 30
-0.1
 42
0.4142135623721171
  0
VERTEX
  5
2071
  8
SAPA_PROFIL
 10
2.0000001615266898
 20
139.69999999608891
 30
-0.1
  0
VERTEX
  5
2072
  8
SAPA_PROFIL
 10
2.0000001615256808
 20
137.2999999960889
 30
-0.1
 42
0.4142135623730951
  0
VERTEX
  5
2073
  8
SAPA_PROFIL
 10
2.3000001615267012
 20
136.99999999608781
 30
-0.1
  0
VERTEX
  5
2074
  8
SAPA_PROFIL
 10
19.700000077749721
 20
136.99999999608889
 30
-0.1
 42
0.414213562373081
  0
VERTEX
  5
2075
  8
SAPA_PROFIL
 10
20.000000077749679
 20
137.2999999960889
 30
-0.1
  0
VERTEX
  5
2076
  8
SAPA_PROFIL
 10
20.0000000777497
 20
139.69999999608891
 30
-0.1
 42
0.4142135623740523
  0
VERTEX
  5
2077
  8
SAPA_PROFIL
 10
19.700000077749731
 20
139.9999999960898
 30
-0.1
  0
VERTEX
  5
2078
  8
SAPA_PROFIL
 10
18.300000077749711
 20
139.99999999608991
 30
-0.1
 42
-0.5874715141143722
  0
VERTEX
  5
2079
  8
SAPA_PROFIL
 10
18.044845075163849
 20
140.4577844207156
 30
-0.1
  0
VERTEX
  5
207A
  8
SAPA_PROFIL
 10
18.788161393250991
 20
141.65796020321241
 30
-0.1
 42
-0.2596812337299913
  0
VERTEX
  5
207B
  8
SAPA_PROFIL
 10
19.043207610560948
 20
141.7999999960889
 30
-0.1
  0
VERTEX
  5
207C
  8
SAPA_PROFIL
 10
22.002164461995509
 20
141.7999999960889
 30
-0.1
  0
VERTEX
  5
207D
  8
SAPA_PROFIL
 10
23.323281420146412
 20
141.2893774128672
 30
-0.1
 42
0.4142135623730951
  0
VERTEX
  5
207E
  8
SAPA_PROFIL
 10
23.69746637562222
 20
141.48934145737459
 30
-0.1
  0
VERTEX
  5
207F
  8
SAPA_PROFIL
 10
23.711984784869319
 20
141.53718720737311
 30
-0.1
  0
VERTEX
  5
2080
  8
SAPA_PROFIL
 10
25.21508586563133
 20
141.5372708152567
 30
-0.1
 42
-0.4769755326981643
  0
VERTEX
  5
2081
  8
SAPA_PROFIL
 10
25.517338690137802
 20
141.16561394031089
 30
-0.1
  0
VERTEX
  5
2082
  8
SAPA_PROFIL
 10
25.135892094010082
 20
139.35238346965261
 30
-0.1
 42
-0.2216946626430191
  0
VERTEX
  5
2083
  8
SAPA_PROFIL
 10
24.730083188855279
 20
138.81150363817579
 30
-0.1
  0
VERTEX
  5
2084
  8
SAPA_PROFIL
 10
24.445400905623639
 20
138.65936972706709
 30
-0.1
 42
-0.5773502691897461
  0
VERTEX
  5
2085
  8
SAPA_PROFIL
 10
24.15124460536882
 20
138.84232346717721
 30
-0.1
  0
VERTEX
  5
2086
  8
SAPA_PROFIL
 10
24.16180597159579
 20
139.16408119539551
 30
-0.1
  0
VERTEX
  5
2087
  8
SAPA_PROFIL
 10
22.275962279734738
 20
140.24864564236719
 30
-0.1
  0
VERTEX
  5
2088
  8
SAPA_PROFIL
 10
22.084579279741021
 20
140.3067192793564
 30
-0.1
 42
0.7625858545243258
  0
VERTEX
  5
2089
  8
SAPA_PROFIL
 10
21.900000077543531
 20
139.97639319833931
 30
-0.1
 42
-0.2134217652834387
  0
VERTEX
  5
208A
  8
SAPA_PROFIL
 10
22.000000077543671
 20
139.7527864005892
 30
-0.1
  0
VERTEX
  5
208B
  8
SAPA_PROFIL
 10
22.00000007761324
 20
135.89999999608219
 30
-0.1
 42
0.4142135623650482
  0
VERTEX
  5
208C
  8
SAPA_PROFIL
 10
22.30000007761069
 20
135.59999999608769
 30
-0.1
  0
VERTEX
  5
208D
  8
SAPA_PROFIL
 10
22.591626585406321
 20
135.59999999608499
 30
-0.1
  0
VERTEX
  5
208E
  8
SAPA_PROFIL
 10
24.200000077613058
 20
136.5285948647668
 30
-0.1
 42
-0.5773502691894928
  0
VERTEX
  5
208F
  8
SAPA_PROFIL
 10
24.500000077612789
 20
136.3553897840099
 30
-0.1
  0
VERTEX
  5
2090
  8
SAPA_PROFIL
 10
24.500000077612789
 20
134.96974913795609
 30
-0.1
 42
-0.2679491924314051
  0
VERTEX
  5
2091
  8
SAPA_PROFIL
 10
24.000000077612331
 20
134.1037237341713
 30
-0.1
  0
VERTEX
  5
2092
  8
SAPA_PROFIL
 10
22.250000077614072
 20
133.09336076309251
 30
-0.1
 42
0.2679491924313525
  0
VERTEX
  5
2093
  8
SAPA_PROFIL
 10
22.000000077613691
 20
132.66034806120001
 30
-0.1
  0
VERTEX
  5
2094
  8
SAPA_PROFIL
 10
22.000000077613691
 20
106.3396519309776
 30
-0.1
 42
0.2679491924313525
  0
VERTEX
  5
2095
  8
SAPA_PROFIL
 10
22.250000077614061
 20
105.9066392290852
 30
-0.1
  0
VERTEX
  5
2096
  8
SAPA_PROFIL
 10
24.000000077612341
 20
104.8962762580063
 30
-0.1
 42
-0.2679491924314051
  0
VERTEX
  5
2097
  8
SAPA_PROFIL
 10
24.50000007761281
 20
104.03025085422161
 30
-0.1
  0
VERTEX
  5
2098
  8
SAPA_PROFIL
 10
24.5000000776128
 20
102.64461020816771
 30
-0.1
 42
-0.577350269189493
  0
VERTEX
  5
2099
  8
SAPA_PROFIL
 10
24.200000077613069
 20
102.4714051274109
 30
-0.1
  0
VERTEX
  5
209A
  8
SAPA_PROFIL
 10
22.591626585406331
 20
103.3999999960927
 30
-0.1
  0
VERTEX
  5
209B
  8
SAPA_PROFIL
 10
22.300000077610701
 20
103.39999999609
 30
-0.1
 42
0.414213562365048
  0
VERTEX
  5
209C
  8
SAPA_PROFIL
 10
22.000000077613251
 20
103.09999999609551
 30
-0.1
  0
VERTEX
  5
209D
  8
SAPA_PROFIL
 10
22.000000077543671
 20
99.247213591588505
 30
-0.1
 42
-0.2134217652834387
  0
VERTEX
  5
209E
  8
SAPA_PROFIL
 10
21.900000077543531
 20
99.023606793838397
 30
-0.1
 42
0.7625858545243238
  0
VERTEX
  5
209F
  8
SAPA_PROFIL
 10
22.084579279741021
 20
98.693280712821348
 30
-0.1
  0
VERTEX
  5
20A0
  8
SAPA_PROFIL
 10
22.275962279734738
 20
98.751354349810455
 30
-0.1
  0
VERTEX
  5
20A1
  8
SAPA_PROFIL
 10
24.1618059715958
 20
99.835918796782224
 30
-0.1
  0
VERTEX
  5
20A2
  8
SAPA_PROFIL
 10
24.151244605368831
 20
100.1576765250004
 30
-0.1
 42
-0.5773502691897471
  0
VERTEX
  5
20A3
  8
SAPA_PROFIL
 10
24.44540090562365
 20
100.3406302651106
 30
-0.1
  0
VERTEX
  5
20A4
  8
SAPA_PROFIL
 10
24.730083188855289
 20
100.1884963540018
 30
-0.1
 42
-0.2216946626430199
  0
VERTEX
  5
20A5
  8
SAPA_PROFIL
 10
25.135892094010089
 20
99.647616522525084
 30
-0.1
  0
SEQEND
  5
20A6
  8
SAPA_PROFIL
  0
POLYLINE
  5
153E
  8
SAPA_PROFIL
 66
     1
 10
0.0
 20
0.0
 30
-0.1
 70
     1
  0
VERTEX
  5
20A7
  8
SAPA_PROFIL
 10
20.000000077613681
 20
103.69999999608881
 30
-0.1
 42
0.4142135623730951
  0
VERTEX
  5
20A8
  8
SAPA_PROFIL
 10
20.300000077613689
 20
103.9999999960888
 30
-0.1
  0
VERTEX
  5
20A9
  8
SAPA_PROFIL
 10
20.300000077613689
 20
105.4999999961136
 30
-0.1
 42
0.4142135623398939
  0
VERTEX
  5
20AA
  8
SAPA_PROFIL
 10
20.000000077647702
 20
105.7999999961141
 30
-0.1
 42
-0.4142135623398802
  0
VERTEX
  5
20AB
  8
SAPA_PROFIL
 10
19.700000077681679
 20
106.09999999611409
 30
-0.1
  0
VERTEX
  5
20AC
  8
SAPA_PROFIL
 10
19.700000077681111
 20
107.4999999961141
 30
-0.1
 42
-0.4142135623398524
  0
VERTEX
  5
20AD
  8
SAPA_PROFIL
 10
20.000000083416701
 20
107.7999999961141
 30
-0.1
  0
VERTEX
  5
20AE
  8
SAPA_PROFIL
 10
20.00000007764768
 20
107.79999999611471
 30
-0.1
 42
0.4142135623398941
  0
VERTEX
  5
20AF
  8
SAPA_PROFIL
 10
20.300000077613689
 20
108.09999999611421
 30
-0.1
  0
VERTEX
  5
20B0
  8
SAPA_PROFIL
 10
20.300000077613689
 20
130.89999999605919
 30
-0.1
 42
0.4142135623398939
  0
VERTEX
  5
20B1
  8
SAPA_PROFIL
 10
20.000000077647702
 20
131.1999999960594
 30
-0.1
 42
-0.4142135623398317
  0
VERTEX
  5
20B2
  8
SAPA_PROFIL
 10
19.700000077681679
 20
131.4999999960593
 30
-0.1
  0
VERTEX
  5
20B3
  8
SAPA_PROFIL
 10
19.70000007768148
 20
132.89999999605931
 30
-0.1
 42
-0.4142135623398802
  0
VERTEX
  5
20B4
  8
SAPA_PROFIL
 10
20.000000083416701
 20
133.19999999605929
 30
-0.1
  0
VERTEX
  5
20B5
  8
SAPA_PROFIL
 10
20.000000077647691
 20
133.1999999960596
 30
-0.1
 42
0.4142135623398941
  0
VERTEX
  5
20B6
  8
SAPA_PROFIL
 10
20.300000077613689
 20
133.49999999605981
 30
-0.1
  0
VERTEX
  5
20B7
  8
SAPA_PROFIL
 10
20.300000077613689
 20
134.9999999960888
 30
-0.1
 42
0.4142135623731159
  0
VERTEX
  5
20B8
  8
SAPA_PROFIL
 10
20.000000077613681
 20
135.2999999960889
 30
-0.1
  0
VERTEX
  5
20B9
  8
SAPA_PROFIL
 10
2.0000000710067281
 20
135.2999999960889
 30
-0.1
 42
0.4142264962912997
  0
VERTEX
  5
20BA
  8
SAPA_PROFIL
 10
1.7000000712992189
 20
134.99998674840171
 30
-0.1
  0
VERTEX
  5
20BB
  8
SAPA_PROFIL
 10
1.7000000712992189
 20
133.49999999606061
 30
-0.1
 42
0.4142135654887987
  0
VERTEX
  5
20BC
  8
SAPA_PROFIL
 10
2.0000000744905049
 20
133.1999999960606
 30
-0.1
 42
-0.4142135654887846
  0
VERTEX
  5
20BD
  8
SAPA_PROFIL
 10
2.300000077681692
 20
132.89999999605931
 30
-0.1
  0
VERTEX
  5
20BE
  8
SAPA_PROFIL
 10
2.3000000776816769
 20
131.4999999960593
 30
-0.1
 42
-0.4142135623731367
  0
VERTEX
  5
20BF
  8
SAPA_PROFIL
 10
2.0000000776817508
 20
131.19999999605929
 30
-0.1
 42
0.4142135623731372
  0
VERTEX
  5
20C0
  8
SAPA_PROFIL
 10
1.7000000776816111
 20
130.89999999605919
 30
-0.1
  0
VERTEX
  5
20C1
  8
SAPA_PROFIL
 10
1.700000077681721
 20
108.09999999611421
 30
-0.1
 42
0.4142135623731367
  0
VERTEX
  5
20C2
  8
SAPA_PROFIL
 10
2.000000077681761
 20
107.7999999961142
 30
-0.1
 42
-0.4142135623731372
  0
VERTEX
  5
20C3
  8
SAPA_PROFIL
 10
2.3000000776816871
 20
107.4999999961141
 30
-0.1
  0
VERTEX
  5
20C4
  8
SAPA_PROFIL
 10
2.300000077681672
 20
106.09999999611409
 30
-0.1
 42
-0.4142135654887848
  0
VERTEX
  5
20C5
  8
SAPA_PROFIL
 10
2.0000000744904991
 20
105.7999999961137
 30
-0.1
 42
0.41427398757146
  0
VERTEX
  5
20C6
  8
SAPA_PROFIL
 10
1.7000000776817199
 20
105.4999381092673
 30
-0.1
  0
VERTEX
  5
20C7
  8
SAPA_PROFIL
 10
1.7000000776817199
 20
103.9999999960888
 30
-0.1
 42
0.4142135623730812
  0
VERTEX
  5
20C8
  8
SAPA_PROFIL
 10
2.0000000776817028
 20
103.69999999608881
 30
-0.1
  0
SEQEND
  5
20C9
  8
SAPA_PROFIL
  0
POLYLINE
  5
153F
  8
SAPA_PROFIL
 66
     1
 10
0.0
 20
0.0
 30
-0.1
 70
     1
  0
VERTEX
  5
20CA
  8
SAPA_PROFIL
 10
85.700000077681722
 20
96.999999996088803
 30
-0.1
 42
0.4142879064819451
  0
VERTEX
  5
20CB
  8
SAPA_PROFIL
 10
86.000000068018267
 20
97.300076142085828
 30
-0.1
  0
VERTEX
  5
20CC
  8
SAPA_PROFIL
 10
86.00000006802172
 20
141.6999238645067
 30
-0.1
 42
0.4142878924076678
  0
VERTEX
  5
20CD
  8
SAPA_PROFIL
 10
85.70000007768175
 20
141.99999999608869
 30
-0.1
  0
VERTEX
  5
20CE
  8
SAPA_PROFIL
 10
83.111383644322345
 20
141.99999999608869
 30
-0.1
 42
0.2596812337300058
  0
VERTEX
  5
20CF
  8
SAPA_PROFIL
 10
82.941352832782329
 20
141.90530680084049
 30
-0.1
  0
VERTEX
  5
20D0
  8
SAPA_PROFIL
 10
82.044953855540044
 20
140.45796020321649
 30
-0.1
 42
0.5877032589249577
  0
VERTEX
  5
20D1
  8
SAPA_PROFIL
 10
82.300000072850125
 20
139.9999999960888
 30
-0.1
  0
VERTEX
  5
20D2
  8
SAPA_PROFIL
 10
83.700000072850145
 20
139.9999999960888
 30
-0.1
 42
-0.414213562373088
  0
VERTEX
  5
20D3
  8
SAPA_PROFIL
 10
84.000000072850128
 20
139.69999999608879
 30
-0.1
  0
VERTEX
  5
20D4
  8
SAPA_PROFIL
 10
84.000000072850128
 20
137.29999999608879
 30
-0.1
 42
-0.4142135623730882
  0
VERTEX
  5
20D5
  8
SAPA_PROFIL
 10
83.700000072850116
 20
136.9999999960888
 30
-0.1
  0
VERTEX
  5
20D6
  8
SAPA_PROFIL
 10
66.300000072850139
 20
136.9999999960888
 30
-0.1
 42
-0.4142135623730951
  0
VERTEX
  5
20D7
  8
SAPA_PROFIL
 10
66.000000072850128
 20
137.29999999608879
 30
-0.1
  0
VERTEX
  5
20D8
  8
SAPA_PROFIL
 10
66.000000072850042
 20
139.69999999608879
 30
-0.1
 42
-0.4142135623729892
  0
VERTEX
  5
20D9
  8
SAPA_PROFIL
 10
66.300000072850139
 20
139.9999999960888
 30
-0.1
  0
VERTEX
  5
20DA
  8
SAPA_PROFIL
 10
67.700000072850116
 20
139.9999999960888
 30
-0.1
 42
0.5920056181179401
  0
VERTEX
  5
20DB
  8
SAPA_PROFIL
 10
67.953008829167061
 20
140.46120349861539
 30
-0.1
  0
VERTEX
  5
20DC
  8
SAPA_PROFIL
 10
67.158955822990606
 20
141.70746899777319
 30
-0.1
 42
0.2562769736732679
  0
VERTEX
  5
20DD
  8
SAPA_PROFIL
 10
66.990283318779262
 20
141.79999999608859
 30
-0.1
  0
VERTEX
  5
20DE
  8
SAPA_PROFIL
 10
63.9940164043321
 20
141.79999999608859
 30
-0.1
  0
VERTEX
  5
20DF
  8
SAPA_PROFIL
 10
62.676718728096859
 20
141.29085359677771
 30
-0.1
 42
-0.4142135623730951
  0
VERTEX
  5
20E0
  8
SAPA_PROFIL
 10
62.302533772621047
 20
141.4908176412851
 30
-0.1
  0
VERTEX
  5
20E1
  8
SAPA_PROFIL
 10
62.288015363373951
 20
141.53866339128359
 30
-0.1
  0
VERTEX
  5
20E2
  8
SAPA_PROFIL
 10
60.78491428261195
 20
141.5387469991673
 30
-0.1
 42
0.476975532698163
  0
VERTEX
  5
20E3
  8
SAPA_PROFIL
 10
60.482661458105468
 20
141.16709012422129
 30
-0.1
  0
VERTEX
  5
20E4
  8
SAPA_PROFIL
 10
60.864108054233192
 20
139.35385965356309
 30
-0.1
 42
0.221694662643018
  0
VERTEX
  5
20E5
  8
SAPA_PROFIL
 10
61.269916959387977
 20
138.81297982208631
 30
-0.1
  0
VERTEX
  5
20E6
  8
SAPA_PROFIL
 10
61.554599242619616
 20
138.6608459109776
 30
-0.1
 42
0.5773502691897493
  0
VERTEX
  5
20E7
  8
SAPA_PROFIL
 10
61.848755542874457
 20
138.84379965108769
 30
-0.1
  0
VERTEX
  5
20E8
  8
SAPA_PROFIL
 10
61.838194176647477
 20
139.16555737930599
 30
-0.1
  0
VERTEX
  5
20E9
  8
SAPA_PROFIL
 10
63.724037868508539
 20
140.25012182627771
 30
-0.1
  0
VERTEX
  5
20EA
  8
SAPA_PROFIL
 10
63.915420868502252
 20
140.3081954632668
 30
-0.1
 42
-0.7625858545243216
  0
VERTEX
  5
20EB
  8
SAPA_PROFIL
 10
64.100000070699735
 20
139.97786938224979
 30
-0.1
 42
0.2134217652834399
  0
VERTEX
  5
20EC
  8
SAPA_PROFIL
 10
64.000000070699613
 20
139.75426258449971
 30
-0.1
  0
VERTEX
  5
20ED
  8
SAPA_PROFIL
 10
64.000000070699542
 20
135.90147617999969
 30
-0.1
 42
-0.4142135623730898
  0
VERTEX
  5
20EE
  8
SAPA_PROFIL
 10
63.70000007069951
 20
135.60147617999971
 30
-0.1
  0
VERTEX
  5
20EF
  8
SAPA_PROFIL
 10
63.40000007069942
 20
135.60147617999971
 30
-0.1
  0
VERTEX
  5
20F0
  8
SAPA_PROFIL
 10
61.800000070699518
 20
136.52523661070299
 30
-0.1
 42
0.5773502691898973
  0
VERTEX
  5
20F1
  8
SAPA_PROFIL
 10
61.500000070699542
 20
136.35203152994609
 30
-0.1
  0
VERTEX
  5
20F2
  8
SAPA_PROFIL
 10
61.500000070699542
 20
134.96639088389111
 30
-0.1
 42
0.2679491924311269
  0
VERTEX
  5
20F3
  8
SAPA_PROFIL
 10
62.000000070699542
 20
134.1003654801066
 30
-0.1
  0
VERTEX
  5
20F4
  8
SAPA_PROFIL
 10
63.750000068086607
 20
133.0900025105334
 30
-0.1
 42
-0.2679491924311212
  0
VERTEX
  5
20F5
  8
SAPA_PROFIL
 10
64.000000068086607
 20
132.65698980864121
 30
-0.1
  0
VERTEX
  5
20F6
  8
SAPA_PROFIL
 10
64.000000068086592
 20
106.34301018353651
 30
-0.1
 42
-0.2679491924311136
  0
VERTEX
  5
20F7
  8
SAPA_PROFIL
 10
63.750000068086607
 20
105.9099974816443
 30
-0.1
  0
VERTEX
  5
20F8
  8
SAPA_PROFIL
 10
62.000000070699521
 20
104.8996345120709
 30
-0.1
 42
0.2679491924311166
  0
VERTEX
  5
20F9
  8
SAPA_PROFIL
 10
61.500000070699521
 20
104.0336091082865
 30
-0.1
  0
VERTEX
  5
20FA
  8
SAPA_PROFIL
 10
61.500000070699521
 20
102.6479684622314
 30
-0.1
 42
0.577350269189614
  0
VERTEX
  5
20FB
  8
SAPA_PROFIL
 10
61.80000007069949
 20
102.4747633814745
 30
-0.1
  0
VERTEX
  5
20FC
  8
SAPA_PROFIL
 10
63.400000070699399
 20
103.3985238121779
 30
-0.1
  0
VERTEX
  5
20FD
  8
SAPA_PROFIL
 10
63.700000070699502
 20
103.3985238121778
 30
-0.1
 42
-0.4142135623730083
  0
VERTEX
  5
20FE
  8
SAPA_PROFIL
 10
64.000000070699514
 20
103.0985238121779
 30
-0.1
  0
VERTEX
  5
20FF
  8
SAPA_PROFIL
 10
64.000000070699514
 20
99.245737407677893
 30
-0.1
 42
0.2134217652834394
  0
VERTEX
  5
2100
  8
SAPA_PROFIL
 10
64.100000070699664
 20
99.022130609927785
 30
-0.1
 42
-0.7625858545243364
  0
VERTEX
  5
2101
  8
SAPA_PROFIL
 10
63.915420868502167
 20
98.691804528910794
 30
-0.1
  0
VERTEX
  5
2102
  8
SAPA_PROFIL
 10
63.724037868508461
 20
98.749878165899872
 30
-0.1
  0
VERTEX
  5
2103
  8
SAPA_PROFIL
 10
61.838194176647399
 20
99.834442612871612
 30
-0.1
  0
VERTEX
  5
2104
  8
SAPA_PROFIL
 10
61.848755542874372
 20
100.1562003410898
 30
-0.1
 42
0.5773502691897365
  0
VERTEX
  5
2105
  8
SAPA_PROFIL
 10
61.55459924261956
 20
100.33915408119999
 30
-0.1
  0
VERTEX
  5
2106
  8
SAPA_PROFIL
 10
61.269916959387913
 20
100.1870201700912
 30
-0.1
 42
0.2216946626430184
  0
VERTEX
  5
2107
  8
SAPA_PROFIL
 10
60.864108054233107
 20
99.646140338614515
 30
-0.1
  0
VERTEX
  5
2108
  8
SAPA_PROFIL
 10
60.482661458105397
 20
97.832909867956232
 30
-0.1
 42
0.4769755326981641
  0
VERTEX
  5
2109
  8
SAPA_PROFIL
 10
60.784914282611872
 20
97.461252993010405
 30
-0.1
  0
VERTEX
  5
210A
  8
SAPA_PROFIL
 10
62.288015363373873
 20
97.461336600894015
 30
-0.1
  0
VERTEX
  5
210B
  8
SAPA_PROFIL
 10
62.302533772620983
 20
97.509182350892516
 30
-0.1
 42
-0.4142135623730951
  0
VERTEX
  5
210C
  8
SAPA_PROFIL
 10
62.67671872809678
 20
97.709146395399898
 30
-0.1
  0
VERTEX
  5
210D
  8
SAPA_PROFIL
 10
63.994016404332363
 20
97.199999996088806
 30
-0.1
  0
VERTEX
  5
210E
  8
SAPA_PROFIL
 10
66.990283318445137
 20
97.199999996088806
 30
-0.1
 42
0.2562769743570819
  0
VERTEX
  5
210F
  8
SAPA_PROFIL
 10
67.158955822932342
 20
97.292530994837193
 30
-0.1
  0
VERTEX
  5
2110
  8
SAPA_PROFIL
 10
67.953008824749304
 20
98.538796494211326
 30
-0.1
 42
0.5920056172513317
  0
VERTEX
  5
2111
  8
SAPA_PROFIL
 10
67.700000068018497
 20
98.999999996088704
 30
-0.1
  0
VERTEX
  5
2112
  8
SAPA_PROFIL
 10
66.300000068018505
 20
98.999999996088803
 30
-0.1
 42
-0.4142135623730916
  0
VERTEX
  5
2113
  8
SAPA_PROFIL
 10
66.000000068018494
 20
99.299999996088815
 30
-0.1
  0
VERTEX
  5
2114
  8
SAPA_PROFIL
 10
66.000000068018593
 20
101.69999999608881
 30
-0.1
 42
-0.4142135623730118
  0
VERTEX
  5
2115
  8
SAPA_PROFIL
 10
66.300000068018505
 20
101.9999999960888
 30
-0.1
  0
VERTEX
  5
2116
  8
SAPA_PROFIL
 10
83.700000068018497
 20
101.9999999960887
 30
-0.1
 42
-0.4142135623730948
  0
VERTEX
  5
2117
  8
SAPA_PROFIL
 10
84.000000068018593
 20
101.69999999608881
 30
-0.1
  0
VERTEX
  5
2118
  8
SAPA_PROFIL
 10
84.000000068018423
 20
99.299999996088815
 30
-0.1
 42
-0.4142135623732061
  0
VERTEX
  5
2119
  8
SAPA_PROFIL
 10
83.700000068018497
 20
98.999999996088803
 30
-0.1
  0
VERTEX
  5
211A
  8
SAPA_PROFIL
 10
82.300000068018505
 20
98.99999999608869
 30
-0.1
 42
0.5877032589248845
  0
VERTEX
  5
211B
  8
SAPA_PROFIL
 10
82.044953850708396
 20
98.542039788961091
 30
-0.1
  0
VERTEX
  5
211C
  8
SAPA_PROFIL
 10
82.941352827950595
 20
97.094693191336916
 30
-0.1
 42
0.2596812337301443
  0
VERTEX
  5
211D
  8
SAPA_PROFIL
 10
83.111383639490711
 20
96.999999996088803
 30
-0.1
  0
SEQEND
  5
211E
  8
SAPA_PROFIL
  0
POLYLINE
  5
1540
  8
SAPA_PROFIL
 66
     1
 10
0.0
 20
0.0
 30
-0.1
 70
     1
  0
VERTEX
  5
211F
  8
SAPA_PROFIL
 10
83.700000077681594
 20
105.9999999960888
 30
-0.1
  0
VERTEX
  5
2120
  8
SAPA_PROFIL
 10
83.700000077681622
 20
107.39999999608879
 30
-0.1
 42
-0.4142135623731021
  0
VERTEX
  5
2121
  8
SAPA_PROFIL
 10
84.000000077681605
 20
107.69999999608881
 30
-0.1
  0
VERTEX
  5
2122
  8
SAPA_PROFIL
 10
84.100000077681585
 20
107.69999999608881
 30
-0.1
 42
0.4142135623730847
  0
VERTEX
  5
2123
  8
SAPA_PROFIL
 10
84.300000077681617
 20
107.89999999608879
 30
-0.1
  0
VERTEX
  5
2124
  8
SAPA_PROFIL
 10
84.300000077681617
 20
131.09999999608871
 30
-0.1
 42
0.41421356237309
  0
VERTEX
  5
2125
  8
SAPA_PROFIL
 10
84.100000077681614
 20
131.2999999960887
 30
-0.1
  0
VERTEX
  5
2126
  8
SAPA_PROFIL
 10
84.000000077681605
 20
131.29999999608879
 30
-0.1
 42
-0.4142135623731055
  0
VERTEX
  5
2127
  8
SAPA_PROFIL
 10
83.700000077681622
 20
131.5999999960888
 30
-0.1
  0
VERTEX
  5
2128
  8
SAPA_PROFIL
 10
83.700000077681622
 20
132.99999999608869
 30
-0.1
 42
-0.4142135623731991
  0
VERTEX
  5
2129
  8
SAPA_PROFIL
 10
84.000000077681605
 20
133.29999999608879
 30
-0.1
  0
VERTEX
  5
212A
  8
SAPA_PROFIL
 10
84.100000077681614
 20
133.29999999608879
 30
-0.1
 42
0.4142135623730898
  0
VERTEX
  5
212B
  8
SAPA_PROFIL
 10
84.300000077681517
 20
133.49999999608869
 30
-0.1
  0
VERTEX
  5
212C
  8
SAPA_PROFIL
 10
84.300000077681716
 20
134.99999999608869
 30
-0.1
 42
0.4142135623731019
  0
VERTEX
  5
212D
  8
SAPA_PROFIL
 10
84.000000077681733
 20
135.2999999960887
 30
-0.1
  0
VERTEX
  5
212E
  8
SAPA_PROFIL
 10
66.000000073914919
 20
135.2999999960887
 30
-0.1
 42
0.4142135623730951
  0
VERTEX
  5
212F
  8
SAPA_PROFIL
 10
65.700000073914921
 20
134.99999999608869
 30
-0.1
  0
VERTEX
  5
2130
  8
SAPA_PROFIL
 10
65.700000073914921
 20
133.4999999960888
 30
-0.1
 42
0.4142135623730795
  0
VERTEX
  5
2131
  8
SAPA_PROFIL
 10
65.900000073914825
 20
133.2999999960887
 30
-0.1
  0
VERTEX
  5
2132
  8
SAPA_PROFIL
 10
66.000000072961271
 20
133.29999999608879
 30
-0.1
 42
-0.4142135624945151
  0
VERTEX
  5
2133
  8
SAPA_PROFIL
 10
66.300000072961268
 20
132.9999999959644
 30
-0.1
  0
VERTEX
  5
2134
  8
SAPA_PROFIL
 10
66.300000072380882
 20
131.5999999959644
 30
-0.1
 42
-0.414213562251668
  0
VERTEX
  5
2135
  8
SAPA_PROFIL
 10
66.000000072380871
 20
131.29999999608879
 30
-0.1
  0
VERTEX
  5
2136
  8
SAPA_PROFIL
 10
65.900000073752906
 20
131.29999999608879
 30
-0.1
 42
0.4142135621360074
  0
VERTEX
  5
2137
  8
SAPA_PROFIL
 10
65.700000073752776
 20
131.0999999962506
 30
-0.1
  0
VERTEX
  5
2138
  8
SAPA_PROFIL
 10
65.700000067277415
 20
107.8999999962507
 30
-0.1
 42
0.4142135626101672
  0
VERTEX
  5
2139
  8
SAPA_PROFIL
 10
65.900000067277404
 20
107.69999999608881
 30
-0.1
  0
VERTEX
  5
213A
  8
SAPA_PROFIL
 10
66.000000068649527
 20
107.69999999608881
 30
-0.1
 42
-0.4142135624945428
  0
VERTEX
  5
213B
  8
SAPA_PROFIL
 10
66.300000068649524
 20
107.39999999596439
 30
-0.1
  0
VERTEX
  5
213C
  8
SAPA_PROFIL
 10
66.300000068069053
 20
105.9999999959644
 30
-0.1
 42
-0.4142135622516402
  0
VERTEX
  5
213D
  8
SAPA_PROFIL
 10
66.000000068069056
 20
105.69999999608881
 30
-0.1
  0
VERTEX
  5
213E
  8
SAPA_PROFIL
 10
65.900000067866401
 20
105.69999999608881
 30
-0.1
 42
0.414213562258404
  0
VERTEX
  5
213F
  8
SAPA_PROFIL
 10
65.700000067866384
 20
105.49999999616711
 30
-0.1
  0
VERTEX
  5
2140
  8
SAPA_PROFIL
 10
65.700000067242385
 20
103.9999999962136
 30
-0.1
 42
0.4142135624949383
  0
VERTEX
  5
2141
  8
SAPA_PROFIL
 10
66.000000067242382
 20
103.69999999608881
 30
-0.1
  0
VERTEX
  5
2142
  8
SAPA_PROFIL
 10
84.000000077681634
 20
103.69999999608881
 30
-0.1
 42
0.4142135623730882
  0
VERTEX
  5
2143
  8
SAPA_PROFIL
 10
84.300000077681617
 20
103.9999999960887
 30
-0.1
  0
VERTEX
  5
2144
  8
SAPA_PROFIL
 10
84.300000077681716
 20
105.4999999960888
 30
-0.1
 42
0.4142135623730847
  0
VERTEX
  5
2145
  8
SAPA_PROFIL
 10
84.100000077681713
 20
105.69999999608881
 30
-0.1
  0
VERTEX
  5
2146
  8
SAPA_PROFIL
 10
84.000000077681605
 20
105.69999999608881
 30
-0.1
 42
-0.4142135623730881
  0
SEQEND
  5
2147
  8
SAPA_PROFIL
  0
POLYLINE
  5
1541
  8
SAPA_PROFIL
 62
     4
 66
     1
 10
0.0
 20
0.0
 30
-0.1
  0
VERTEX
  5
2148
  8
SAPA_PROFIL
 62
     4
 10
52.04932919305395
 20
99.904095274039875
 30
-0.1
 42
0.5571646428658034
  0
VERTEX
  5
2149
  8
SAPA_PROFIL
 62
     4
 10
51.512368688917121
 20
100.77181418819541
 30
-0.1
  0
VERTEX
  5
214A
  8
SAPA_PROFIL
 62
     4
 10
34.487631452395917
 20
100.77181418819499
 30
-0.1
 42
0.5571645048035741
  0
VERTEX
  5
214B
  8
SAPA_PROFIL
 62
     4
 10
33.950670835434863
 20
99.904095500328808
 30
-0.1
  0
VERTEX
  5
214C
  8
SAPA_PROFIL
 62
     4
 10
34.781377922981562
 20
98.237954844260784
 30
-0.1
 42
0.284385813979063
  0
VERTEX
  5
214D
  8
SAPA_PROFIL
 62
     4
 10
35.049858231461911
 20
98.071814188193343
 30
-0.1
  0
VERTEX
  5
214E
  8
SAPA_PROFIL
 62
     4
 10
50.950141909851219
 20
98.071814188193343
 30
-0.1
 42
0.2843858139786238
  0
VERTEX
  5
214F
  8
SAPA_PROFIL
 62
     4
 10
51.218622218331511
 20
98.237954844260287
 30
-0.1
  0
VERTEX
  5
2150
  8
SAPA_PROFIL
 62
     4
 10
52.049329305878672
 20
99.904095500329618
 30
-0.1
  0
SEQEND
  5
2151
  8
SAPA_PROFIL
 62
     4
  0
POLYLINE
  5
1542
  8
SAPA_PROFIL
 62
     4
 66
     1
 10
0.0
 20
0.0
 30
-0.1
 70
     1
  0
VERTEX
  5
2152
  8
SAPA_PROFIL
 62
     4
 10
28.582388885989278
 20
97.714982673695786
 30
-0.1
  0
VERTEX
  5
2153
  8
SAPA_PROFIL
 62
     4
 10
28.318365607613259
 20
97.308422477691622
 30
-0.1
 42
-0.2539676464751066
  0
VERTEX
  5
2154
  8
SAPA_PROFIL
 62
     4
 10
28.06676443722856
 20
97.171814188195526
 30
-0.1
  0
VERTEX
  5
2155
  8
SAPA_PROFIL
 62
     4
 10
26.685264852023209
 20
97.171814188195526
 30
-0.1
 42
-0.3152987888790479
  0
VERTEX
  5
2156
  8
SAPA_PROFIL
 62
     4
 10
26.2154185416309
 20
97.500804116533686
 30
-0.1
  0
VERTEX
  5
2157
  8
SAPA_PROFIL
 62
     4
 10
25.31974960072229
 20
99.961634306984962
 30
-0.1
 42
0.2694959974287434
  0
VERTEX
  5
2158
  8
SAPA_PROFIL
 62
     4
 10
25.088230554320941
 20
100.1547662813288
 30
-0.1
 42
0.0612686379508233
  0
VERTEX
  5
2159
  8
SAPA_PROFIL
 62
     4
 10
24.795555121467661
 20
100.1683496519593
 30
-0.1
  0
VERTEX
  5
215A
  8
SAPA_PROFIL
 62
     4
 10
24.446136944159392
 20
100.3700863306882
 30
-0.1
 42
0.5773502691891679
  0
VERTEX
  5
215B
  8
SAPA_PROFIL
 62
     4
 10
24.13113694415981
 20
100.1882209958936
 30
-0.1
  0
VERTEX
  5
215C
  8
SAPA_PROFIL
 62
     4
 10
24.131136944159572
 20
99.921106467767316
 30
-0.1
  0
VERTEX
  5
215D
  8
SAPA_PROFIL
 62
     4
 10
22.73260924352531
 20
99.112423006458997
 30
-0.1
 42
-0.1318219888653519
  0
VERTEX
  5
215E
  8
SAPA_PROFIL
 62
     4
 10
22.58243614105297
 20
99.072130609921615
 30
-0.1
  0
VERTEX
  5
215F
  8
SAPA_PROFIL
 62
     4
 10
22.400000070616191
 20
99.072130609927967
 30
-0.1
 42
-0.4142135623724291
  0
VERTEX
  5
2160
  8
SAPA_PROFIL
 62
     4
 10
22.000000070615641
 20
99.472130609927603
 30
-0.1
  0
VERTEX
  5
2161
  8
SAPA_PROFIL
 62
     4
 10
22.000000070617009
 20
102.8721306099286
 30
-0.1
 42
-0.4142135623744271
  0
VERTEX
  5
2162
  8
SAPA_PROFIL
 62
     4
 10
22.400000070616191
 20
103.2721306099296
 30
-0.1
  0
VERTEX
  5
2163
  8
SAPA_PROFIL
 62
     4
 10
22.579615312887491
 20
103.2721306099302
 30
-0.1
 42
-0.1316524975874005
  0
VERTEX
  5
2164
  8
SAPA_PROFIL
 62
     4
 10
22.729615312884309
 20
103.2319382310646
 30
-0.1
  0
VERTEX
  5
2165
  8
SAPA_PROFIL
 62
     4
 10
24.333753209886559
 20
102.3057887844121
 30
-0.1
 42
0.1316524975875904
  0
VERTEX
  5
2166
  8
SAPA_PROFIL
 62
     4
 10
24.833753209888268
 20
102.1718141881973
 30
-0.1
  0
VERTEX
  5
2167
  8
SAPA_PROFIL
 62
     4
 10
25.250000070615641
 20
102.1718141881973
 30
-0.1
 42
0.4142135623730951
  0
VERTEX
  5
2168
  8
SAPA_PROFIL
 62
     4
 10
26.250000070615641
 20
103.1718141881973
 30
-0.1
  0
VERTEX
  5
2169
  8
SAPA_PROFIL
 62
     4
 10
26.250000070615641
 20
106.1718141881946
 30
-0.1
 42
-0.9999996830128083
  0
VERTEX
  5
216A
  8
SAPA_PROFIL
 62
     4
 10
27.250000070615641
 20
106.17181418819639
 30
-0.1
  0
VERTEX
  5
216B
  8
SAPA_PROFIL
 62
     4
 10
27.250000070615641
 20
103.17181418819639
 30
-0.1
 42
0.4142135623730951
  0
VERTEX
  5
216C
  8
SAPA_PROFIL
 62
     4
 10
28.250000070615641
 20
102.17181418819639
 30
-0.1
  0
VERTEX
  5
216D
  8
SAPA_PROFIL
 62
     4
 10
57.750000070700231
 20
102.17181418819639
 30
-0.1
 42
0.4142135623730951
  0
VERTEX
  5
216E
  8
SAPA_PROFIL
 62
     4
 10
58.750000070700217
 20
103.17181418819639
 30
-0.1
  0
VERTEX
  5
216F
  8
SAPA_PROFIL
 62
     4
 10
58.750000070700217
 20
106.1718141881946
 30
-0.1
 42
-0.9999999999999998
  0
VERTEX
  5
2170
  8
SAPA_PROFIL
 62
     4
 10
59.750000070700217
 20
106.1718141881946
 30
-0.1
  0
VERTEX
  5
2171
  8
SAPA_PROFIL
 62
     4
 10
59.750000070700217
 20
103.17181418819639
 30
-0.1
 42
0.4142135623736278
  0
VERTEX
  5
2172
  8
SAPA_PROFIL
 62
     4
 10
60.750000070700217
 20
102.17181418819639
 30
-0.1
  0
VERTEX
  5
2173
  8
SAPA_PROFIL
 62
     4
 10
61.166246931426677
 20
102.17181418819639
 30
-0.1
 42
0.1316524975874375
  0
VERTEX
  5
2174
  8
SAPA_PROFIL
 62
     4
 10
61.666246931426883
 20
102.3057887844124
 30
-0.1
  0
VERTEX
  5
2175
  8
SAPA_PROFIL
 62
     4
 10
63.270384828428831
 20
103.2319382310646
 30
-0.1
 42
-0.1316524975874
  0
VERTEX
  5
2176
  8
SAPA_PROFIL
 62
     4
 10
63.420384828428382
 20
103.2721306099302
 30
-0.1
  0
VERTEX
  5
2177
  8
SAPA_PROFIL
 62
     4
 10
63.600000070699679
 20
103.2721306099296
 30
-0.1
 42
-0.4142135623744271
  0
VERTEX
  5
2178
  8
SAPA_PROFIL
 62
     4
 10
64.00000007069886
 20
102.8721306099286
 30
-0.1
  0
VERTEX
  5
2179
  8
SAPA_PROFIL
 62
     4
 10
64.000000070700224
 20
99.472130609927603
 30
-0.1
 42
-0.4142135623724291
  0
VERTEX
  5
217A
  8
SAPA_PROFIL
 62
     4
 10
63.600000070699679
 20
99.072130609927967
 30
-0.1
  0
VERTEX
  5
217B
  8
SAPA_PROFIL
 62
     4
 10
63.4175640002629
 20
99.072130609921615
 30
-0.1
 42
-0.1318219888653524
  0
VERTEX
  5
217C
  8
SAPA_PROFIL
 62
     4
 10
63.267390897790563
 20
99.112423006458982
 30
-0.1
  0
VERTEX
  5
217D
  8
SAPA_PROFIL
 62
     4
 10
61.868863197310901
 20
99.921106467683316
 30
-0.1
  0
VERTEX
  5
217E
  8
SAPA_PROFIL
 62
     4
 10
61.868863197310901
 20
100.1882209958963
 30
-0.1
 42
0.577350269189159
  0
VERTEX
  5
217F
  8
SAPA_PROFIL
 62
     4
 10
61.553863197311301
 20
100.3700863306909
 30
-0.1
  0
VERTEX
  5
2180
  8
SAPA_PROFIL
 62
     4
 10
61.204445020092642
 20
100.1683496520138
 30
-0.1
 42
0.0612687673629489
  0
VERTEX
  5
2181
  8
SAPA_PROFIL
 62
     4
 10
60.911769586992428
 20
100.1547662813276
 30
-0.1
 42
0.2694959974285039
  0
VERTEX
  5
2182
  8
SAPA_PROFIL
 62
     4
 10
60.680250540591913
 20
99.961634306983655
 30
-0.1
  0
VERTEX
  5
2183
  8
SAPA_PROFIL
 62
     4
 10
59.784581599682241
 20
97.500804116530503
 30
-0.1
 42
-0.3152987888784035
  0
VERTEX
  5
2184
  8
SAPA_PROFIL
 62
     4
 10
59.314735289289018
 20
97.171814188193935
 30
-0.1
  0
VERTEX
  5
2185
  8
SAPA_PROFIL
 62
     4
 10
57.933235704084581
 20
97.171814188195526
 30
-0.1
 42
-0.2539676464741841
  0
VERTEX
  5
2186
  8
SAPA_PROFIL
 62
     4
 10
57.681634533700503
 20
97.308422477690797
 30
-0.1
  0
VERTEX
  5
2187
  8
SAPA_PROFIL
 62
     4
 10
57.417611255323862
 20
97.714982673695786
 30
-0.1
 42
-0.5862177598324623
  0
VERTEX
  5
2188
  8
SAPA_PROFIL
 62
     4
 10
57.673353070562207
 20
98.171814188192272
 30
-0.1
  0
VERTEX
  5
2189
  8
SAPA_PROFIL
 62
     4
 10
58.614527751072018
 20
98.171814188184626
 30
-0.1
 42
0.3152987888813165
  0
VERTEX
  5
218A
  8
SAPA_PROFIL
 62
     4
 10
59.084374061469767
 20
98.500804116521365
 30
-0.1
  0
VERTEX
  5
218B
  8
SAPA_PROFIL
 62
     4
 10
59.52113834259373
 20
99.700804116532595
 30
-0.1
 42
0.5205670505515651
  0
VERTEX
  5
218C
  8
SAPA_PROFIL
 62
     4
 10
59.051292032200507
 20
100.3718141881953
 30
-0.1
  0
VERTEX
  5
218D
  8
SAPA_PROFIL
 62
     4
 10
54.034851091531657
 20
100.3718141881954
 30
-0.1
 42
0.3702522326300203
  0
VERTEX
  5
218E
  8
SAPA_PROFIL
 62
     4
 10
53.73832772973833
 20
100.1173542355296
 30
-0.1
 42
0.0982365330332397
  0
VERTEX
  5
218F
  8
SAPA_PROFIL
 62
     4
 10
53.647874971527393
 20
98.42966746053466
 30
-0.1
 42
0.3735060174783164
  0
VERTEX
  5
2190
  8
SAPA_PROFIL
 62
     4
 10
53.944899639438361
 20
98.171814188194617
 30
-0.1
  0
VERTEX
  5
2191
  8
SAPA_PROFIL
 62
     4
 10
54.373353070561024
 20
98.171814188193707
 30
-0.1
 42
-0.5920056181162531
  0
VERTEX
  5
2192
  8
SAPA_PROFIL
 62
     4
 10
54.626361826878423
 20
97.710610685665785
 30
-0.1
  0
VERTEX
  5
2193
  8
SAPA_PROFIL
 62
     4
 10
54.365177750722722
 20
97.308422477687486
 30
-0.1
 42
-0.2539676464746725
  0
VERTEX
  5
2194
  8
SAPA_PROFIL
 62
     4
 10
54.113576580338957
 20
97.171814188192116
 30
-0.1
  0
VERTEX
  5
2195
  8
SAPA_PROFIL
 62
     4
 10
31.88642356097327
 20
97.171814188193721
 30
-0.1
 42
-0.2539676464741819
  0
VERTEX
  5
2196
  8
SAPA_PROFIL
 62
     4
 10
31.634822390590418
 20
97.308422477687486
 30
-0.1
  0
VERTEX
  5
2197
  8
SAPA_PROFIL
 62
     4
 10
31.373638314436612
 20
97.710610685665813
 30
-0.1
 42
-0.5920055144124249
  0
VERTEX
  5
2198
  8
SAPA_PROFIL
 62
     4
 10
31.626647070752121
 20
98.171814188193707
 30
-0.1
  0
VERTEX
  5
2199
  8
SAPA_PROFIL
 62
     4
 10
32.055100548042333
 20
98.171814162918693
 30
-0.1
 42
0.3735060174775405
  0
VERTEX
  5
219A
  8
SAPA_PROFIL
 62
     4
 10
32.352125215952022
 20
98.429667435258793
 30
-0.1
 42
0.0355900683670349
  0
VERTEX
  5
219B
  8
SAPA_PROFIL
 62
     4
 10
32.396018779984281
 20
99.045541022058572
 30
-0.1
 42
0.0624282003873116
  0
VERTEX
  5
219C
  8
SAPA_PROFIL
 62
     4
 10
32.261672457741341
 20
100.11735421025369
 30
-0.1
 42
0.3702522326309292
  0
VERTEX
  5
219D
  8
SAPA_PROFIL
 62
     4
 10
31.965149095947961
 20
100.37181416291941
 30
-0.1
  0
VERTEX
  5
219E
  8
SAPA_PROFIL
 62
     4
 10
26.948708109114449
 20
100.3718141881955
 30
-0.1
 42
0.5205670505515692
  0
VERTEX
  5
219F
  8
SAPA_PROFIL
 62
     4
 10
26.47886179872123
 20
99.700804116532595
 30
-0.1
  0
VERTEX
  5
21A0
  8
SAPA_PROFIL
 62
     4
 10
26.915626079846181
 20
98.500804116523142
 30
-0.1
 42
0.3152987888807539
  0
VERTEX
  5
21A1
  8
SAPA_PROFIL
 62
     4
 10
27.385472390242029
 20
98.171814188185522
 30
-0.1
  0
VERTEX
  5
21A2
  8
SAPA_PROFIL
 62
     4
 10
28.326647070751111
 20
98.171814188192343
 30
-0.1
 42
-0.5862175119221242
  0
VERTEX
  5
21A3
  8
SAPA_PROFIL
 62
     4
 10
28.58238900173307
 20
97.714982862437211
 30
-0.1
 42
0.0000002084758573
  0
SEQEND
  5
21A4
  8
SAPA_PROFIL
 62
     4
  0
CIRCLE
  5
1543
  8
SAPA_PROFIL
 62
     2
 10
3.9908593871581379
 20
171.13822445213219
 30
-0.1
 40
0.8999999999999985
  0
POLYLINE
  5
1544
  8
SAPA_PROFIL
 62
     2
 66
     1
 10
0.0
 20
0.0
 30
-0.1
  0
VERTEX
  5
21A5
  8
SAPA_PROFIL
 62
     2
 10
5.2988657987311854
 20
172.5382244521322
 30
-0.1
  0
VERTEX
  5
21A6
  8
SAPA_PROFIL
 62
     2
 10
4.2079469885784411
 20
172.34586603213981
 30
-0.1
  0
VERTEX
  5
21A7
  8
SAPA_PROFIL
 62
     2
 10
4.0922474490585037
 20
172.77766259204139
 30
-0.1
 42
0.4430158954262519
  0
VERTEX
  5
21A8
  8
SAPA_PROFIL
 62
     2
 10
3.8287710209515349
 20
172.91313963958549
 30
-0.1
  0
VERTEX
  5
21A9
  8
SAPA_PROFIL
 62
     2
 10
2.5582832730333389
 20
172.43619144636659
 30
-0.1
 42
0.3125358528825162
  0
VERTEX
  5
21AA
  8
SAPA_PROFIL
 62
     2
 10
2.2988657987316401
 20
172.06170973323719
 30
-0.1
  0
VERTEX
  5
21AB
  8
SAPA_PROFIL
 62
     2
 10
2.2988657987311849
 20
170.19155441732681
 30
-0.1
 42
0.3125358528825104
  0
VERTEX
  5
21AC
  8
SAPA_PROFIL
 62
     2
 10
2.5582832730333389
 20
169.8170727041975
 30
-0.1
  0
VERTEX
  5
21AD
  8
SAPA_PROFIL
 62
     2
 10
3.8287710209515349
 20
169.34012451097831
 30
-0.1
 42
0.4430158954262519
  0
VERTEX
  5
21AE
  8
SAPA_PROFIL
 62
     2
 10
4.09224744905839
 20
169.47560155852241
 30
-0.1
  0
VERTEX
  5
21AF
  8
SAPA_PROFIL
 62
     2
 10
4.2079469885784411
 20
169.9073981184242
 30
-0.1
  0
VERTEX
  5
21B0
  8
SAPA_PROFIL
 62
     2
 10
5.2988657987311854
 20
169.71513207528201
 30
-0.1
  0
SEQEND
  5
21B1
  8
SAPA_PROFIL
 62
     2
  0
POLYLINE
  5
1545
  8
SAPA_PROFIL
 62
     2
 66
     1
 10
0.0
 20
0.0
 30
-0.1
 70
     1
  0
VERTEX
  5
21B2
  8
SAPA_PROFIL
 62
     2
 10
5.2988657987311854
 20
172.5266320752819
 30
-0.1
 42
-0.285714285714282
  0
VERTEX
  5
21B3
  8
SAPA_PROFIL
 62
     2
 10
5.2988657987311854
 20
169.72663207528191
 30
-0.1
  0
VERTEX
  5
21B4
  8
SAPA_PROFIL
 62
     2
 10
5.2988657987316401
 20
167.65285190589401
 30
-0.1
 42
0.3882600129940275
  0
VERTEX
  5
21B5
  8
SAPA_PROFIL
 62
     2
 10
5.5720765250111981
 20
167.35405040855261
 30
-0.1
  0
VERTEX
  5
21B6
  8
SAPA_PROFIL
 62
     2
 10
9.472076525011289
 20
166.88784048462611
 30
-0.1
 42
0.4406523138893894
  0
VERTEX
  5
21B7
  8
SAPA_PROFIL
 62
     2
 10
9.7988657987311854
 20
167.18664198196799
 30
-0.1
  0
VERTEX
  5
21B8
  8
SAPA_PROFIL
 62
     2
 10
9.7988657987311854
 20
168.8964339788883
 30
-0.1
 42
0.3394542588634375
  0
VERTEX
  5
21B9
  8
SAPA_PROFIL
 62
     2
 10
9.5765115122621864
 20
169.1862117267749
 30
-0.1
  0
VERTEX
  5
21BA
  8
SAPA_PROFIL
 62
     2
 10
9.3589257300945974
 20
169.3885914547063
 30
-0.1
 42
-0.3394542588633663
  0
VERTEX
  5
21BB
  8
SAPA_PROFIL
 62
     2
 10
9.1365714436255985
 20
169.6783692025931
 30
-0.1
  0
VERTEX
  5
21BC
  8
SAPA_PROFIL
 62
     2
 10
9.1365714436255985
 20
172.5748949479709
 30
-0.1
 42
-0.3394542588634373
  0
VERTEX
  5
21BD
  8
SAPA_PROFIL
 62
     2
 10
9.3589257300945974
 20
172.86467269585751
 30
-0.1
  0
VERTEX
  5
21BE
  8
SAPA_PROFIL
 62
     2
 10
9.5765115122621864
 20
173.06705242378891
 30
-0.1
 42
0.3394542588633662
  0
VERTEX
  5
21BF
  8
SAPA_PROFIL
 62
     2
 10
9.7988657987311854
 20
173.35683017167571
 30
-0.1
  0
VERTEX
  5
21C0
  8
SAPA_PROFIL
 62
     2
 10
9.7988657987311854
 20
175.06662216859581
 30
-0.1
 42
0.4406523138893994
  0
VERTEX
  5
21C1
  8
SAPA_PROFIL
 62
     2
 10
9.472076525011289
 20
175.36542366593741
 30
-0.1
  0
VERTEX
  5
21C2
  8
SAPA_PROFIL
 62
     2
 10
5.5720765250111981
 20
174.8992137420112
 30
-0.1
 42
0.3882600129940462
  0
VERTEX
  5
21C3
  8
SAPA_PROFIL
 62
     2
 10
5.2988657987311854
 20
174.6004122446698
 30
-0.1
  0
VERTEX
  5
21C4
  8
SAPA_PROFIL
 62
     2
 10
5.2988657987311854
 20
172.5382244521322
 30
-0.1
  0
SEQEND
  5
21C5
  8
SAPA_PROFIL
 62
     2
  0
POLYLINE
  5
1546
  8
SAPA_PROFIL
 66
     1
 10
0.0
 20
0.0
 30
-0.1
  0
VERTEX
  5
21C6
  8
SAPA_PROFIL
 10
21.99999999386932
 20
88.547213260268776
 30
-0.1
 42
-0.2134217652834216
  0
VERTEX
  5
21C7
  8
SAPA_PROFIL
 10
21.899999993869191
 20
88.323606462518669
 30
-0.1
 42
0.7625858545242717
  0
VERTEX
  5
21C8
  8
SAPA_PROFIL
 10
22.08457919606667
 20
87.993280381501634
 30
-0.1
  0
VERTEX
  5
21C9
  8
SAPA_PROFIL
 10
22.275962196060391
 20
88.051354018490741
 30
-0.1
  0
VERTEX
  5
21CA
  8
SAPA_PROFIL
 10
24.161805887921449
 20
89.135918465462481
 30
-0.1
  0
VERTEX
  5
21CB
  8
SAPA_PROFIL
 10
24.15124452169448
 20
89.457676193680754
 30
-0.1
 42
-0.5773502691897205
  0
VERTEX
  5
21CC
  8
SAPA_PROFIL
 10
24.44540082194931
 20
89.640629933790905
 30
-0.1
  0
VERTEX
  5
21CD
  8
SAPA_PROFIL
 10
24.730083105180942
 20
89.488496022682185
 30
-0.1
 42
-0.2216946626430408
  0
VERTEX
  5
21CE
  8
SAPA_PROFIL
 10
25.135892010335741
 20
88.947616191205356
 30
-0.1
  0
VERTEX
  5
21CF
  8
SAPA_PROFIL
 10
25.517338606463461
 20
87.134385720547115
 30
-0.1
 42
-0.476975532698107
  0
VERTEX
  5
21D0
  8
SAPA_PROFIL
 10
25.21508578195699
 20
86.762728845601231
 30
-0.1
  0
VERTEX
  5
21D1
  8
SAPA_PROFIL
 10
23.711984701194979
 20
86.762812453484884
 30
-0.1
  0
VERTEX
  5
21D2
  8
SAPA_PROFIL
 10
23.697466291947869
 20
86.810658203483371
 30
-0.1
 42
0.4142135623731266
  0
VERTEX
  5
21D3
  8
SAPA_PROFIL
 10
23.323281336472071
 20
87.010622247990767
 30
-0.1
  0
VERTEX
  5
21D4
  8
SAPA_PROFIL
 10
22.002165235532399
 20
86.499999996088235
 30
-0.1
  0
VERTEX
  5
21D5
  8
SAPA_PROFIL
 10
15.920591993868699
 20
86.499999996088235
 30
-0.1
  0
VERTEX
  5
21D6
  8
SAPA_PROFIL
 10
15.399999993868621
 20
86.800563996088243
 30
-0.1
  0
VERTEX
  5
21D7
  8
SAPA_PROFIL
 10
14.879406993868541
 20
86.499999996088235
 30
-0.1
  0
VERTEX
  5
21D8
  8
SAPA_PROFIL
 10
10.69999999386823
 20
86.499999996088235
 30
-0.1
 42
0.4142140000000108
  0
VERTEX
  5
21D9
  8
SAPA_PROFIL
 10
10.39999999386816
 20
86.199999996088167
 30
-0.1
  0
VERTEX
  5
21DA
  8
SAPA_PROFIL
 10
10.399999993868279
 20
84.699999996088053
 30
-0.1
 42
-0.4142139999998548
  0
VERTEX
  5
21DB
  8
SAPA_PROFIL
 10
10.19999999386823
 20
84.499999996088007
 30
-0.1
  0
VERTEX
  5
21DC
  8
SAPA_PROFIL
 10
9.6999999938682322
 20
84.499999996088007
 30
-0.1
 42
-0.4142140000000309
  0
VERTEX
  5
21DD
  8
SAPA_PROFIL
 10
8.6999999938680048
 20
85.499999996088135
 30
-0.1
  0
VERTEX
  5
21DE
  8
SAPA_PROFIL
 10
8.6999999938680048
 20
91.999999996087894
 30
-0.1
 42
0.4142135623731031
  0
VERTEX
  5
21DF
  8
SAPA_PROFIL
 10
6.6999999938680039
 20
93.999999996087993
 30
-0.1
  0
VERTEX
  5
21E0
  8
SAPA_PROFIL
 10
0.9999999938675045
 20
93.999999996087993
 30
-0.1
 42
-0.4142140000000262
  0
VERTEX
  5
21E1
  8
SAPA_PROFIL
 10
-0.0000000061327228
 20
94.999999996088121
 30
-0.1
  0
VERTEX
  5
21E2
  8
SAPA_PROFIL
 10
-0.0000000061324954
 20
96.699999996087939
 30
-0.1
 42
-0.4142139999999169
  0
VERTEX
  5
21E3
  8
SAPA_PROFIL
 10
0.2999999938674591
 20
96.999999996088007
 30
-0.1
  0
VERTEX
  5
21E4
  8
SAPA_PROFIL
 10
0.756132700060789
 20
96.999999996088007
 30
-0.1
 42
-0.2308681911255748
  0
VERTEX
  5
21E5
  8
SAPA_PROFIL
 10
1.150138076864095
 20
96.807830733750805
 30
-0.1
  0
VERTEX
  5
21E6
  8
SAPA_PROFIL
 10
1.6341980212728231
 20
96.192169258425196
 30
-0.1
 42
0.2308681911255704
  0
VERTEX
  5
21E7
  8
SAPA_PROFIL
 10
2.0282033980761289
 20
95.999999996088007
 30
-0.1
  0
VERTEX
  5
21E8
  8
SAPA_PROFIL
 10
3.9999999938677311
 20
95.999999996088007
 30
-0.1
 42
0.4142140000000419
  0
VERTEX
  5
21E9
  8
SAPA_PROFIL
 10
4.4999999938677311
 20
96.499999996088022
 30
-0.1
  0
VERTEX
  5
21EA
  8
SAPA_PROFIL
 10
4.4999999938677311
 20
100.49999999608799
 30
-0.1
 42
-0.9999999999999998
  0
VERTEX
  5
21EB
  8
SAPA_PROFIL
 10
5.899999993867822
 20
100.49999999608799
 30
-0.1
  0
VERTEX
  5
21EC
  8
SAPA_PROFIL
 10
5.899999993867822
 20
97.499999996088349
 30
-0.1
 42
0.4142135623731304
  0
VERTEX
  5
21ED
  8
SAPA_PROFIL
 10
6.399999993867822
 20
96.999999996088235
 30
-0.1
  0
VERTEX
  5
21EE
  8
SAPA_PROFIL
 10
6.6999999938680039
 20
96.999999996088235
 30
-0.1
 42
-0.4142135623730951
  0
VERTEX
  5
21EF
  8
SAPA_PROFIL
 10
11.699999993868341
 20
91.999999996087894
 30
-0.1
  0
VERTEX
  5
21F0
  8
SAPA_PROFIL
 10
11.699999993868341
 20
89.999999996088235
 30
-0.1
 42
0.414214000000047
  0
VERTEX
  5
21F1
  8
SAPA_PROFIL
 10
12.199999993868341
 20
89.499999996088235
 30
-0.1
  0
VERTEX
  5
21F2
  8
SAPA_PROFIL
 10
18.234774993868879
 20
89.499999996088235
 30
-0.1
 42
0.363970000000007
  0
VERTEX
  5
21F3
  8
SAPA_PROFIL
 10
19.219581993868928
 20
90.326351996088277
 30
-0.1
  0
VERTEX
  5
21F4
  8
SAPA_PROFIL
 10
20.2506179938689
 20
96.173647996088775
 30
-0.1
 42
-0.3639700000000089
  0
VERTEX
  5
21F5
  8
SAPA_PROFIL
 10
21.235425993869061
 20
96.999999996088803
 30
-0.1
  0
VERTEX
  5
21F6
  8
SAPA_PROFIL
 10
25.096326993869411
 20
96.999999996088803
 30
-0.1
 42
-0.4142140000000481
  0
VERTEX
  5
21F7
  8
SAPA_PROFIL
 10
25.596326993869411
 20
96.499999996088803
 30
-0.1
  0
VERTEX
  5
21F8
  8
SAPA_PROFIL
 10
25.596326993869411
 20
96.299999996088772
 30
-0.1
 42
-0.4142139999999776
  0
VERTEX
  5
21F9
  8
SAPA_PROFIL
 10
25.096326993869411
 20
95.799999996088758
 30
-0.1
  0
VERTEX
  5
21FA
  8
SAPA_PROFIL
 10
24.999999993869441
 20
95.799999996088758
 30
-0.1
 42
0.4142140000000459
  0
VERTEX
  5
21FB
  8
SAPA_PROFIL
 10
24.49999999386932
 20
95.299999996088644
 30
-0.1
  0
VERTEX
  5
21FC
  8
SAPA_PROFIL
 10
24.49999999386932
 20
91.948424996088391
 30
-0.1
 42
-0.5773499999998256
  0
VERTEX
  5
21FD
  8
SAPA_PROFIL
 10
24.199999993869369
 20
91.775219996088325
 30
-0.1
  0
VERTEX
  5
21FE
  8
SAPA_PROFIL
 10
22.599999993869229
 20
92.698980996088466
 30
-0.1
  0
VERTEX
  5
21FF
  8
SAPA_PROFIL
 10
22.299999993869172
 20
92.698980996088466
 30
-0.1
 42
0.4142139999999518
  0
VERTEX
  5
2200
  8
SAPA_PROFIL
 10
21.99999999386921
 20
92.398980996088397
 30
-0.1
  0
VERTEX
  5
2201
  8
SAPA_PROFIL
 10
21.99999999386921
 20
88.547212996088405
 30
-0.1
  0
SEQEND
  5
2202
  8
SAPA_PROFIL
  0
POLYLINE
  5
1547
  8
SAPA_PROFIL
 66
     1
 10
0.0
 20
0.0
 30
-0.1
 70
     1
  0
VERTEX
  5
2203
  8
SAPA_PROFIL
 10
84.291131204011009
 20
79.099949489749179
 30
-0.1
  0
VERTEX
  5
2204
  8
SAPA_PROFIL
 10
82.299999990055852
 20
79.099949489749179
 30
-0.1
 42
0.4142135623730795
  0
VERTEX
  5
2205
  8
SAPA_PROFIL
 10
81.299999990055852
 20
78.099949489749164
 30
-0.1
  0
VERTEX
  5
2206
  8
SAPA_PROFIL
 10
81.299999990055852
 20
77.83240502178694
 30
-0.1
 42
0.2896898633034337
  0
VERTEX
  5
2207
  8
SAPA_PROFIL
 10
81.871428561486681
 20
76.928897118880798
 30
-0.1
 42
0.5507604245854725
  0
VERTEX
  5
2208
  8
SAPA_PROFIL
 10
82.299999990055852
 20
77.199949489749201
 30
-0.1
  0
VERTEX
  5
2209
  8
SAPA_PROFIL
 10
82.299999990055795
 20
77.499949489749099
 30
-0.1
 42
-0.4142135623730951
  0
VERTEX
  5
220A
  8
SAPA_PROFIL
 10
82.499999990055841
 20
77.699949489749201
 30
-0.1
  0
VERTEX
  5
220B
  8
SAPA_PROFIL
 10
83.599999992872725
 20
77.699949489749201
 30
-0.1
 42
-0.4142135623730863
  0
VERTEX
  5
220C
  8
SAPA_PROFIL
 10
84.599999992872796
 20
76.699949489749145
 30
-0.1
  0
VERTEX
  5
220D
  8
SAPA_PROFIL
 10
84.599999992872739
 20
74.399999996087956
 30
-0.1
 42
-0.4142135623730847
  0
VERTEX
  5
220E
  8
SAPA_PROFIL
 10
83.599999992872725
 20
73.399999996087956
 30
-0.1
  0
VERTEX
  5
220F
  8
SAPA_PROFIL
 10
82.499999990055841
 20
73.399999996087956
 30
-0.1
 42
-0.4142135623730925
  0
VERTEX
  5
2210
  8
SAPA_PROFIL
 10
82.299999990055852
 20
73.599999996087945
 30
-0.1
  0
VERTEX
  5
2211
  8
SAPA_PROFIL
 10
82.299999990054147
 20
73.899949489749076
 30
-0.1
 42
0.5507604245854657
  0
VERTEX
  5
2212
  8
SAPA_PROFIL
 10
81.871428561486624
 20
74.17100186061765
 30
-0.1
 42
0.2896898633034307
  0
VERTEX
  5
2213
  8
SAPA_PROFIL
 10
81.299999990055852
 20
73.267493957711395
 30
-0.1
  0
VERTEX
  5
2214
  8
SAPA_PROFIL
 10
81.299999990055795
 20
72.999999996087922
 30
-0.1
 42
0.4142135623730951
  0
VERTEX
  5
2215
  8
SAPA_PROFIL
 10
82.299999990055852
 20
71.999999996087922
 30
-0.1
  0
VERTEX
  5
2216
  8
SAPA_PROFIL
 10
83.999999992872773
 20
71.999999996087922
 30
-0.1
 42
0.4142135623730871
  0
VERTEX
  5
2217
  8
SAPA_PROFIL
 10
85.999999992872816
 20
73.999999996087979
 30
-0.1
  0
VERTEX
  5
2218
  8
SAPA_PROFIL
 10
85.999999994861724
 20
96.699999996062559
 30
-0.1
 42
0.4142135623987623
  0
VERTEX
  5
2219
  8
SAPA_PROFIL
 10
85.699999994861713
 20
96.999999996088889
 30
-0.1
  0
VERTEX
  5
221A
  8
SAPA_PROFIL
 10
85.207106776074525
 20
96.999999996088889
 30
-0.1
 42
0.198912367379658
  0
VERTEX
  5
221B
  8
SAPA_PROFIL
 10
84.853553385481263
 20
96.853553386682165
 30
-0.1
  0
VERTEX
  5
221C
  8
SAPA_PROFIL
 10
84.146446604294638
 20
96.146446605495555
 30
-0.1
 42
-0.1989123673796528
  0
VERTEX
  5
221D
  8
SAPA_PROFIL
 10
83.792893213701376
 20
95.999999996088832
 30
-0.1
  0
VERTEX
  5
221E
  8
SAPA_PROFIL
 10
82.499999994887915
 20
95.999999996088832
 30
-0.1
 42
-0.4142135623730659
  0
VERTEX
  5
221F
  8
SAPA_PROFIL
 10
81.999999994887929
 20
96.499999996088832
 30
-0.1
  0
VERTEX
  5
2220
  8
SAPA_PROFIL
 10
81.999999994887702
 20
98.884062039445325
 30
-0.1
 42
-0.1989123673796822
  0
VERTEX
  5
2221
  8
SAPA_PROFIL
 10
82.146446604294425
 20
99.237615430038659
 30
-0.1
  0
VERTEX
  5
2222
  8
SAPA_PROFIL
 10
82.913856423514133
 20
100.0050252492584
 30
-0.1
 42
0.9999999999999998
  0
VERTEX
  5
2223
  8
SAPA_PROFIL
 10
81.923906929852976
 20
100.9949747429196
 30
-0.1
  0
VERTEX
  5
2224
  8
SAPA_PROFIL
 10
80.146446604294297
 20
99.217514417360974
 30
-0.1
 42
0.1989123673796822
  0
VERTEX
  5
2225
  8
SAPA_PROFIL
 10
79.999999994887588
 20
98.86396102676764
 30
-0.1
  0
VERTEX
  5
2226
  8
SAPA_PROFIL
 10
79.999999994888043
 20
94.499999996088775
 30
-0.1
 42
0.4142135623730639
  0
VERTEX
  5
2227
  8
SAPA_PROFIL
 10
80.499999994888043
 20
93.999999996088775
 30
-0.1
  0
VERTEX
  5
2228
  8
SAPA_PROFIL
 10
82.499999994888213
 20
93.999999996088775
 30
-0.1
 42
-0.414213562373064
  0
VERTEX
  5
2229
  8
SAPA_PROFIL
 10
82.999999994888213
 20
93.499999996088775
 30
-0.1
  0
VERTEX
  5
222A
  8
SAPA_PROFIL
 10
82.999999994888555
 20
89.999999996088647
 30
-0.1
 42
-0.4142135623731263
  0
VERTEX
  5
222B
  8
SAPA_PROFIL
 10
82.499999994888555
 20
89.499999996088604
 30
-0.1
  0
VERTEX
  5
222C
  8
SAPA_PROFIL
 10
67.781551981378044
 20
89.499999996088604
 30
-0.1
 42
-0.3639702342662015
  0
VERTEX
  5
222D
  8
SAPA_PROFIL
 10
66.796744228365824
 20
90.326351818421699
 30
-0.1
  0
VERTEX
  5
222E
  8
SAPA_PROFIL
 10
65.765708116722152
 20
96.173648173755737
 30
-0.1
 42
0.3639702342662066
  0
VERTEX
  5
222F
  8
SAPA_PROFIL
 10
64.78090036370989
 20
96.999999996088889
 30
-0.1
  0
VERTEX
  5
2230
  8
SAPA_PROFIL
 10
60.919999994887029
 20
96.999999996088889
 30
-0.1
 42
0.4142135623730951
  0
VERTEX
  5
2231
  8
SAPA_PROFIL
 10
60.419999994887029
 20
96.499999996088832
 30
-0.1
  0
VERTEX
  5
2232
  8
SAPA_PROFIL
 10
60.419999994887029
 20
96.299999996088843
 30
-0.1
 42
0.4142135623730951
  0
VERTEX
  5
2233
  8
SAPA_PROFIL
 10
60.919999994887029
 20
95.799999996088843
 30
-0.1
  0
VERTEX
  5
2234
  8
SAPA_PROFIL
 10
60.99999999488719
 20
95.799999996088843
 30
-0.1
 42
-0.4142135623730619
  0
VERTEX
  5
2235
  8
SAPA_PROFIL
 10
61.49999999488719
 20
95.299999996088843
 30
-0.1
  0
VERTEX
  5
2236
  8
SAPA_PROFIL
 10
61.499999994887531
 20
91.999999996088775
 30
-0.1
 42
0.5693809839207964
  0
VERTEX
  5
2237
  8
SAPA_PROFIL
 10
61.795816366590167
 20
91.824445950525217
 30
-0.1
  0
VERTEX
  5
2238
  8
SAPA_PROFIL
 10
63.399999994887217
 20
92.799999996088957
 30
-0.1
  0
VERTEX
  5
2239
  8
SAPA_PROFIL
 10
63.699999994886952
 20
92.799999996089184
 30
-0.1
 42
-0.414213562372873
  0
VERTEX
  5
223A
  8
SAPA_PROFIL
 10
63.999999994887133
 20
92.499999996089059
 30
-0.1
  0
VERTEX
  5
223B
  8
SAPA_PROFIL
 10
63.999999994887133
 20
88.499999996926363
 30
-0.1
 42
0.2134217652834381
  0
VERTEX
  5
223C
  8
SAPA_PROFIL
 10
64.099999994887256
 20
88.276393199176255
 30
-0.1
 42
-0.7625858545243276
  0
VERTEX
  5
223D
  8
SAPA_PROFIL
 10
63.915420792689773
 20
87.946067118159235
 30
-0.1
  0
VERTEX
  5
223E
  8
SAPA_PROFIL
 10
63.724037792696052
 20
88.004140755148327
 30
-0.1
  0
VERTEX
  5
223F
  8
SAPA_PROFIL
 10
61.838194100834997
 20
89.088705202120067
 30
-0.1
  0
VERTEX
  5
2240
  8
SAPA_PROFIL
 10
61.848755467061991
 20
89.410462930338326
 30
-0.1
 42
0.577350269189744
  0
VERTEX
  5
2241
  8
SAPA_PROFIL
 10
61.554599166807137
 20
89.593416670448491
 30
-0.1
  0
VERTEX
  5
2242
  8
SAPA_PROFIL
 10
61.269916883575497
 20
89.441282759339757
 30
-0.1
 42
0.2216946626430207
  0
VERTEX
  5
2243
  8
SAPA_PROFIL
 10
60.864107978420698
 20
88.900402927862928
 30
-0.1
  0
VERTEX
  5
2244
  8
SAPA_PROFIL
 10
60.482661382292989
 20
87.087172457204687
 30
-0.1
 42
0.4769755326981632
  0
VERTEX
  5
2245
  8
SAPA_PROFIL
 10
60.784914206799449
 20
86.715515582258817
 30
-0.1
  0
VERTEX
  5
2246
  8
SAPA_PROFIL
 10
62.288015287561471
 20
86.715599190142484
 30
-0.1
  0
VERTEX
  5
2247
  8
SAPA_PROFIL
 10
62.30253369680856
 20
86.763444940140957
 30
-0.1
 42
-0.4142135623730951
  0
VERTEX
  5
2248
  8
SAPA_PROFIL
 10
62.676718652284379
 20
86.963408984648353
 30
-0.1
  0
VERTEX
  5
2249
  8
SAPA_PROFIL
 10
63.875681435095387
 20
86.499999996088761
 30
-0.1
  0
VERTEX
  5
224A
  8
SAPA_PROFIL
 10
71.33038475172313
 20
86.499999996088661
 30
-0.1
  0
VERTEX
  5
224B
  8
SAPA_PROFIL
 10
71.849999993993748
 20
86.799999996088673
 30
-0.1
  0
VERTEX
  5
224C
  8
SAPA_PROFIL
 10
72.369615236264423
 20
86.499999996088604
 30
-0.1
  0
VERTEX
  5
224D
  8
SAPA_PROFIL
 10
83.718615025303706
 20
86.499999996088434
 30
-0.1
 42
-0.3955859011959327
  0
VERTEX
  5
224E
  8
SAPA_PROFIL
 10
84.018000547571631
 20
86.219191375829723
 30
-0.1
  0
VERTEX
  5
224F
  8
SAPA_PROFIL
 10
84.490721552189626
 20
79.312743742910129
 30
-0.1
 42
-0.433089857303855
  0
SEQEND
  5
2250
  8
SAPA_PROFIL
  0
POLYLINE
  5
1548
  8
SAPA_PROFIL
 62
     4
 66
     1
 10
0.0
 20
0.0
 30
-0.1
  0
VERTEX
  5
2251
  8
SAPA_PROFIL
 62
     4
 10
33.950670871514831
 20
89.232281081935696
 30
-0.1
 42
-0.5571646428658034
  0
VERTEX
  5
2252
  8
SAPA_PROFIL
 62
     4
 10
34.487631375651659
 20
90.099999996091242
 30
-0.1
  0
VERTEX
  5
2253
  8
SAPA_PROFIL
 62
     4
 10
51.51236861217285
 20
90.099999996090773
 30
-0.1
 42
-0.5571645048035741
  0
VERTEX
  5
2254
  8
SAPA_PROFIL
 62
     4
 10
52.049329229133917
 20
89.232281308224614
 30
-0.1
  0
VERTEX
  5
2255
  8
SAPA_PROFIL
 62
     4
 10
51.218622141587218
 20
87.566140652156591
 30
-0.1
 42
-0.284385813979063
  0
VERTEX
  5
2256
  8
SAPA_PROFIL
 62
     4
 10
50.950141833106869
 20
87.39999999608915
 30
-0.1
  0
VERTEX
  5
2257
  8
SAPA_PROFIL
 62
     4
 10
35.049858154717548
 20
87.39999999608915
 30
-0.1
 42
-0.2843858139786238
  0
VERTEX
  5
2258
  8
SAPA_PROFIL
 62
     4
 10
34.78137784623727
 20
87.566140652156065
 30
-0.1
  0
VERTEX
  5
2259
  8
SAPA_PROFIL
 62
     4
 10
33.950670758690109
 20
89.232281308225424
 30
-0.1
  0
SEQEND
  5
225A
  8
SAPA_PROFIL
 62
     4
  0
POLYLINE
  5
1549
  8
SAPA_PROFIL
 62
     4
 66
     1
 10
0.0
 20
0.0
 30
-0.1
 70
     1
  0
VERTEX
  5
225B
  8
SAPA_PROFIL
 62
     4
 10
57.417611178579513
 20
87.043168481591565
 30
-0.1
  0
VERTEX
  5
225C
  8
SAPA_PROFIL
 62
     4
 10
57.681634456955521
 20
86.636608285587457
 30
-0.1
 42
0.2539676464751066
  0
VERTEX
  5
225D
  8
SAPA_PROFIL
 62
     4
 10
57.933235627340217
 20
86.499999996091347
 30
-0.1
  0
VERTEX
  5
225E
  8
SAPA_PROFIL
 62
     4
 10
59.314735212545571
 20
86.499999996091347
 30
-0.1
 42
0.3152987888790479
  0
VERTEX
  5
225F
  8
SAPA_PROFIL
 62
     4
 10
59.784581522937877
 20
86.828989924429479
 30
-0.1
  0
VERTEX
  5
2260
  8
SAPA_PROFIL
 62
     4
 10
60.680250463846491
 20
89.289820114880769
 30
-0.1
 42
-0.2694959974287434
  0
VERTEX
  5
2261
  8
SAPA_PROFIL
 62
     4
 10
60.911769510247851
 20
89.482952089224653
 30
-0.1
 42
-0.0612686379508233
  0
VERTEX
  5
2262
  8
SAPA_PROFIL
 62
     4
 10
61.204444943101123
 20
89.496535459855167
 30
-0.1
  0
VERTEX
  5
2263
  8
SAPA_PROFIL
 62
     4
 10
61.553863120409382
 20
89.698272138583988
 30
-0.1
 42
-0.5773502691891679
  0
VERTEX
  5
2264
  8
SAPA_PROFIL
 62
     4
 10
61.868863120408967
 20
89.516406803789437
 30
-0.1
  0
VERTEX
  5
2265
  8
SAPA_PROFIL
 62
     4
 10
61.868863120409223
 20
89.249292275663123
 30
-0.1
  0
VERTEX
  5
2266
  8
SAPA_PROFIL
 62
     4
 10
63.26739082104347
 20
88.440608814354789
 30
-0.1
 42
0.1318219888653519
  0
VERTEX
  5
2267
  8
SAPA_PROFIL
 62
     4
 10
63.417563923515807
 20
88.400316417817393
 30
-0.1
  0
VERTEX
  5
2268
  8
SAPA_PROFIL
 62
     4
 10
63.599999993952601
 20
88.400316417823774
 30
-0.1
 42
0.4142135623724291
  0
VERTEX
  5
2269
  8
SAPA_PROFIL
 62
     4
 10
63.999999993953139
 20
88.80031641782341
 30
-0.1
  0
VERTEX
  5
226A
  8
SAPA_PROFIL
 62
     4
 10
63.999999993951768
 20
92.200316417824411
 30
-0.1
 42
0.4142135623744271
  0
VERTEX
  5
226B
  8
SAPA_PROFIL
 62
     4
 10
63.599999993952601
 20
92.600316417825411
 30
-0.1
  0
VERTEX
  5
226C
  8
SAPA_PROFIL
 62
     4
 10
63.42038475168129
 20
92.60031641782605
 30
-0.1
 42
0.1316524975874005
  0
VERTEX
  5
226D
  8
SAPA_PROFIL
 62
     4
 10
63.270384751684468
 20
92.560124038960453
 30
-0.1
  0
VERTEX
  5
226E
  8
SAPA_PROFIL
 62
     4
 10
61.666246854682221
 20
91.633974592307908
 30
-0.1
 42
-0.1316524975875904
  0
VERTEX
  5
226F
  8
SAPA_PROFIL
 62
     4
 10
61.166246854680509
 20
91.499999996093152
 30
-0.1
  0
VERTEX
  5
2270
  8
SAPA_PROFIL
 62
     4
 10
60.749999993953139
 20
91.499999996093152
 30
-0.1
 42
-0.4142135623730951
  0
VERTEX
  5
2271
  8
SAPA_PROFIL
 62
     4
 10
59.749999993953139
 20
92.499999996093152
 30
-0.1
  0
VERTEX
  5
2272
  8
SAPA_PROFIL
 62
     4
 10
59.749999993953139
 20
95.499999996090423
 30
-0.1
 42
0.9999996830128083
  0
VERTEX
  5
2273
  8
SAPA_PROFIL
 62
     4
 10
58.749999993953132
 20
95.499999996092257
 30
-0.1
  0
VERTEX
  5
2274
  8
SAPA_PROFIL
 62
     4
 10
58.749999993953132
 20
92.499999996092242
 30
-0.1
 42
-0.4142135623730951
  0
VERTEX
  5
2275
  8
SAPA_PROFIL
 62
     4
 10
57.749999993953139
 20
91.499999996092242
 30
-0.1
  0
VERTEX
  5
2276
  8
SAPA_PROFIL
 62
     4
 10
28.24999999386856
 20
91.499999996092242
 30
-0.1
 42
-0.4142135623730951
  0
VERTEX
  5
2277
  8
SAPA_PROFIL
 62
     4
 10
27.24999999386856
 20
92.499999996092242
 30
-0.1
  0
VERTEX
  5
2278
  8
SAPA_PROFIL
 62
     4
 10
27.24999999386856
 20
95.499999996090423
 30
-0.1
 42
0.9999999999999998
  0
VERTEX
  5
2279
  8
SAPA_PROFIL
 62
     4
 10
26.24999999386856
 20
95.499999996090423
 30
-0.1
  0
VERTEX
  5
227A
  8
SAPA_PROFIL
 62
     4
 10
26.24999999386856
 20
92.499999996092242
 30
-0.1
 42
-0.4142135623736278
  0
VERTEX
  5
227B
  8
SAPA_PROFIL
 62
     4
 10
25.24999999386856
 20
91.499999996092242
 30
-0.1
  0
VERTEX
  5
227C
  8
SAPA_PROFIL
 62
     4
 10
24.8337531331421
 20
91.499999996092242
 30
-0.1
 42
-0.1316524975874375
  0
VERTEX
  5
227D
  8
SAPA_PROFIL
 62
     4
 10
24.333753133141901
 20
91.633974592308263
 30
-0.1
  0
VERTEX
  5
227E
  8
SAPA_PROFIL
 62
     4
 10
22.729615236139949
 20
92.560124038960453
 30
-0.1
 42
0.1316524975874
  0
VERTEX
  5
227F
  8
SAPA_PROFIL
 62
     4
 10
22.579615236140398
 20
92.60031641782605
 30
-0.1
  0
VERTEX
  5
2280
  8
SAPA_PROFIL
 62
     4
 10
22.399999993869098
 20
92.600316417825411
 30
-0.1
 42
0.4142135623744271
  0
VERTEX
  5
2281
  8
SAPA_PROFIL
 62
     4
 10
21.99999999386992
 20
92.200316417824411
 30
-0.1
  0
VERTEX
  5
2282
  8
SAPA_PROFIL
 62
     4
 10
21.999999993868549
 20
88.80031641782341
 30
-0.1
 42
0.4142135623724291
  0
VERTEX
  5
2283
  8
SAPA_PROFIL
 62
     4
 10
22.399999993869098
 20
88.400316417823774
 30
-0.1
  0
VERTEX
  5
2284
  8
SAPA_PROFIL
 62
     4
 10
22.582436064305881
 20
88.400316417817393
 30
-0.1
 42
0.1318219888653524
  0
VERTEX
  5
2285
  8
SAPA_PROFIL
 62
     4
 10
22.732609166778229
 20
88.440608814354789
 30
-0.1
  0
VERTEX
  5
2286
  8
SAPA_PROFIL
 62
     4
 10
24.131136867257879
 20
89.249292275579137
 30
-0.1
  0
VERTEX
  5
2287
  8
SAPA_PROFIL
 62
     4
 10
24.131136867257879
 20
89.516406803792194
 30
-0.1
 42
-0.577350269189159
  0
VERTEX
  5
2288
  8
SAPA_PROFIL
 62
     4
 10
24.446136867257479
 20
89.698272138586745
 30
-0.1
  0
VERTEX
  5
2289
  8
SAPA_PROFIL
 62
     4
 10
24.795555044476139
 20
89.496535459909637
 30
-0.1
 42
-0.0612687673629489
  0
VERTEX
  5
228A
  8
SAPA_PROFIL
 62
     4
 10
25.08823047757636
 20
89.482952089223446
 30
-0.1
 42
-0.2694959974285039
  0
VERTEX
  5
228B
  8
SAPA_PROFIL
 62
     4
 10
25.319749523976881
 20
89.289820114879475
 30
-0.1
  0
VERTEX
  5
228C
  8
SAPA_PROFIL
 62
     4
 10
26.21541846488654
 20
86.828989924426295
 30
-0.1
 42
0.3152987888784035
  0
VERTEX
  5
228D
  8
SAPA_PROFIL
 62
     4
 10
26.685264775279759
 20
86.499999996089741
 30
-0.1
  0
VERTEX
  5
228E
  8
SAPA_PROFIL
 62
     4
 10
28.0667643604842
 20
86.499999996091347
 30
-0.1
 42
0.2539676464741841
  0
VERTEX
  5
228F
  8
SAPA_PROFIL
 62
     4
 10
28.318365530868281
 20
86.636608285586604
 30
-0.1
  0
VERTEX
  5
2290
  8
SAPA_PROFIL
 62
     4
 10
28.582388809244922
 20
87.043168481591565
 30
-0.1
 42
0.5862177598324623
  0
VERTEX
  5
2291
  8
SAPA_PROFIL
 62
     4
 10
28.32664699400658
 20
87.499999996088079
 30
-0.1
  0
VERTEX
  5
2292
  8
SAPA_PROFIL
 62
     4
 10
27.385472313496759
 20
87.499999996080405
 30
-0.1
 42
-0.3152987888813165
  0
VERTEX
  5
2293
  8
SAPA_PROFIL
 62
     4
 10
26.91562600309901
 20
87.828989924417172
 30
-0.1
  0
VERTEX
  5
2294
  8
SAPA_PROFIL
 62
     4
 10
26.478861721975051
 20
89.028989924428416
 30
-0.1
 42
-0.5205670505515651
  0
VERTEX
  5
2295
  8
SAPA_PROFIL
 62
     4
 10
26.94870803236828
 20
89.699999996091151
 30
-0.1
  0
VERTEX
  5
2296
  8
SAPA_PROFIL
 62
     4
 10
31.965148973037131
 20
89.699999996091179
 30
-0.1
 42
-0.3702522326300203
  0
VERTEX
  5
2297
  8
SAPA_PROFIL
 62
     4
 10
32.26167233483045
 20
89.445540043425467
 30
-0.1
 42
-0.0982365330332397
  0
VERTEX
  5
2298
  8
SAPA_PROFIL
 62
     4
 10
32.352125093041387
 20
87.757853268430466
 30
-0.1
 42
-0.3735060174783164
  0
VERTEX
  5
2299
  8
SAPA_PROFIL
 62
     4
 10
32.055100425130412
 20
87.499999996090423
 30
-0.1
  0
VERTEX
  5
229A
  8
SAPA_PROFIL
 62
     4
 10
31.626646994007761
 20
87.499999996089514
 30
-0.1
 42
0.5920056181162531
  0
VERTEX
  5
229B
  8
SAPA_PROFIL
 62
     4
 10
31.373638237690361
 20
87.038796493561577
 30
-0.1
  0
VERTEX
  5
229C
  8
SAPA_PROFIL
 62
     4
 10
31.634822313846058
 20
86.636608285583293
 30
-0.1
 42
0.2539676464746725
  0
VERTEX
  5
229D
  8
SAPA_PROFIL
 62
     4
 10
31.88642348422983
 20
86.499999996087936
 30
-0.1
  0
VERTEX
  5
229E
  8
SAPA_PROFIL
 62
     4
 10
54.11357650359551
 20
86.499999996089514
 30
-0.1
 42
0.2539676464741819
  0
VERTEX
  5
229F
  8
SAPA_PROFIL
 62
     4
 10
54.365177673978373
 20
86.636608285583293
 30
-0.1
  0
VERTEX
  5
22A0
  8
SAPA_PROFIL
 62
     4
 10
54.626361750132169
 20
87.038796493561634
 30
-0.1
 42
0.5920055144124249
  0
VERTEX
  5
22A1
  8
SAPA_PROFIL
 62
     4
 10
54.373352993816667
 20
87.499999996089514
 30
-0.1
  0
VERTEX
  5
22A2
  8
SAPA_PROFIL
 62
     4
 10
53.944899516526441
 20
87.499999970814514
 30
-0.1
 42
-0.3735060174775405
  0
VERTEX
  5
22A3
  8
SAPA_PROFIL
 62
     4
 10
53.647874848616752
 20
87.757853243154599
 30
-0.1
 42
-0.0355900683670349
  0
VERTEX
  5
22A4
  8
SAPA_PROFIL
 62
     4
 10
53.603981284584499
 20
88.373726829954379
 30
-0.1
 42
-0.0624282003873116
  0
VERTEX
  5
22A5
  8
SAPA_PROFIL
 62
     4
 10
53.738327606827447
 20
89.445540018149515
 30
-0.1
 42
-0.3702522326309292
  0
VERTEX
  5
22A6
  8
SAPA_PROFIL
 62
     4
 10
54.034850968620823
 20
89.699999970815242
 30
-0.1
  0
VERTEX
  5
22A7
  8
SAPA_PROFIL
 62
     4
 10
59.051291955454332
 20
89.699999996091378
 30
-0.1
 42
-0.5205670505515692
  0
VERTEX
  5
22A8
  8
SAPA_PROFIL
 62
     4
 10
59.521138265847547
 20
89.028989924428416
 30
-0.1
  0
VERTEX
  5
22A9
  8
SAPA_PROFIL
 62
     4
 10
59.084373984722603
 20
87.828989924418963
 30
-0.1
 42
-0.3152987888807539
  0
VERTEX
  5
22AA
  8
SAPA_PROFIL
 62
     4
 10
58.614527674326752
 20
87.499999996081328
 30
-0.1
  0
VERTEX
  5
22AB
  8
SAPA_PROFIL
 62
     4
 10
57.673352993817659
 20
87.499999996088164
 30
-0.1
 42
0.5862175119221242
  0
VERTEX
  5
22AC
  8
SAPA_PROFIL
 62
     4
 10
57.417611062835711
 20
87.043168670333017
 30
-0.1
 42
-0.0000002084758573
  0
SEQEND
  5
22AD
  8
SAPA_PROFIL
 62
     4
  0
CIRCLE
  5
154A
  8
SAPA_PROFIL
 62
     2
 10
80.625620754006889
 20
77.931507744261566
 30
-0.1
 40
0.25
  0
INSERT
  5
154B
  8
SAPA_PROFIL
  6
CONTINUOUS
 62
     2
  2
*U128
 10
0.0
 20
0.0
 30
0.0
1001
ACAD
1002
{
1000
R14_HATCH_DATA
1000
154B
1011
1.0
1021
0.0
1031
0.0
1021
0.0
1031
0.0
1011
0.0
1021
0.0
1031
0.0
1021
1.0
1031
0.0
1011
0.0
1021
0.0
1031
0.0
1021
0.0
1031
1.0
1040
-0.1
1010
0.0
1020
0.0
1030
1.0
1000
SOLID
1070
     1
1070
     1
1071
        1
1071
        7
1070
     1
1070
     1
1071
        2
1040
80.375620754006889
1040
77.931507744261566
1040
1.0
1040
80.875620754006874
1040
77.931507744261566
1040
1.0
1071
        1
1005
154A
1070
     0
1070
     1
1040
0.0095408196840103
1071
        1
1040
80.52562075400688
1040
77.931507744261566
1040
-0.1
1002
}
  0
POLYLINE
  5
154C
  8
SAPA_PROFIL
 62
     2
 66
     1
 10
0.0
 20
0.0
 30
-0.1
 70
     1
  0
VERTEX
  5
22BF
  8
SAPA_PROFIL
 62
     2
 10
83.29999999287277
 20
75.599974742918533
 30
-0.1
  0
VERTEX
  5
22C0
  8
SAPA_PROFIL
 62
     2
 10
83.29999999287277
 20
75.499974742918539
 30
-0.1
 42
-0.4142135623730959
  0
VERTEX
  5
22C1
  8
SAPA_PROFIL
 62
     2
 10
82.599999992872768
 20
74.799974742918536
 30
-0.1
  0
VERTEX
  5
22C2
  8
SAPA_PROFIL
 62
     2
 10
81.499999992872773
 20
74.799974742918536
 30
-0.1
 42
-0.4142135623730961
  0
VERTEX
  5
22C3
  8
SAPA_PROFIL
 62
     2
 10
81.299999992872756
 20
74.999974742918539
 30
-0.1
  0
VERTEX
  5
22C4
  8
SAPA_PROFIL
 62
     2
 10
81.299999992872756
 20
76.099974742918533
 30
-0.1
 42
-0.4142135623730956
  0
VERTEX
  5
22C5
  8
SAPA_PROFIL
 62
     2
 10
81.499999992872773
 20
76.299974742918536
 30
-0.1
  0
VERTEX
  5
22C6
  8
SAPA_PROFIL
 62
     2
 10
82.599999992872768
 20
76.299974742918536
 30
-0.1
 42
-0.4142135623730946
  0
SEQEND
  5
22C7
  8
SAPA_PROFIL
 62
     2
  0
POLYLINE
  5
154D
  8
SAPA_PROFIL
 62
     2
 66
     1
 10
0.0
 20
0.0
 30
-0.1
  0
VERTEX
  5
22C8
  8
SAPA_PROFIL
 62
     2
 10
81.999999992872759
 20
77.099974742918533
 30
-0.1
  0
VERTEX
  5
22C9
  8
SAPA_PROFIL
 62
     2
 10
81.352234427599683
 20
77.099974742918533
 30
-0.1
 42
-0.4416942457848117
  0
VERTEX
  5
22CA
  8
SAPA_PROFIL
 62
     2
 10
81.153096948106736
 20
77.318529102546435
 30
-0.1
  0
VERTEX
  5
22CB
  8
SAPA_PROFIL
 62
     2
 10
81.242813013364795
 20
78.281420383290623
 30
-0.1
 42
0.4416942457848106
  0
VERTEX
  5
22CC
  8
SAPA_PROFIL
 62
     2
 10
81.043675533871834
 20
78.499974742918525
 30
-0.1
  0
VERTEX
  5
22CD
  8
SAPA_PROFIL
 62
     2
 10
80.493693194280311
 20
78.499974742918525
 30
-0.1
 42
0.5445962197109637
  0
VERTEX
  5
22CE
  8
SAPA_PROFIL
 62
     2
 10
80.037956285218442
 20
77.794295697513462
 30
-0.1
  0
VERTEX
  5
22CF
  8
SAPA_PROFIL
 62
     2
 10
80.199999992872776
 20
77.435244544228198
 30
-0.1
  0
VERTEX
  5
22D0
  8
SAPA_PROFIL
 62
     2
 10
80.199999992872776
 20
75.962285305480307
 30
-0.1
 42
0.336437923496554
  0
VERTEX
  5
22D1
  8
SAPA_PROFIL
 62
     2
 10
80.387506810714498
 20
74.89054157586547
 30
-0.1
  0
VERTEX
  5
22D2
  8
SAPA_PROFIL
 62
     2
 10
80.387506810714498
 20
74.328677940041743
 30
-0.1
 42
-0.1919812372740513
  0
VERTEX
  5
22D3
  8
SAPA_PROFIL
 62
     2
 10
80.250374432697242
 20
73.984690892441719
 30
-0.1
  0
VERTEX
  5
22D4
  8
SAPA_PROFIL
 62
     2
 10
79.878896956407203
 20
73.592823962038409
 30
-0.1
 42
-0.9249153594910841
  0
VERTEX
  5
22D5
  8
SAPA_PROFIL
 62
     2
 10
77.6452021413279
 20
75.258601890560641
 30
-0.1
  0
VERTEX
  5
22D6
  8
SAPA_PROFIL
 62
     2
 10
78.178750196579529
 20
76.343146830229401
 30
-0.1
 42
0.4184584792862776
  0
VERTEX
  5
22D7
  8
SAPA_PROFIL
 62
     2
 10
77.774998076159804
 20
76.929849146800834
 30
-0.1
 42
0.3891337693453737
  0
VERTEX
  5
22D8
  8
SAPA_PROFIL
 62
     2
 10
77.546908768217207
 20
76.78468225526035
 30
-0.1
  0
VERTEX
  5
22D9
  8
SAPA_PROFIL
 62
     2
 10
76.98400371572933
 20
75.698786164695349
 30
-0.1
 42
0.8864286961344978
  0
VERTEX
  5
22DA
  8
SAPA_PROFIL
 62
     2
 10
80.343202471250052
 20
73.027006262758803
 30
-0.1
  0
VERTEX
  5
22DB
  8
SAPA_PROFIL
 62
     2
 10
80.458570444539149
 20
72.596447124877542
 30
-0.1
 42
0.9163311740174273
  0
VERTEX
  5
22DC
  8
SAPA_PROFIL
 62
     2
 10
81.243418654291489
 20
72.734837040017609
 30
-0.1
  0
VERTEX
  5
22DD
  8
SAPA_PROFIL
 62
     2
 10
81.151756208083924
 20
73.782543594369002
 30
-0.1
 42
-0.4400105308918339
  0
VERTEX
  5
22DE
  8
SAPA_PROFIL
 62
     2
 10
81.350995147702307
 20
73.999974742918539
 30
-0.1
  0
VERTEX
  5
22DF
  8
SAPA_PROFIL
 62
     2
 10
82.199999992872762
 20
73.999974742918539
 30
-0.1
  0
VERTEX
  5
22E0
  8
SAPA_PROFIL
 62
     2
 10
82.199999992872762
 20
73.599974742918533
 30
-0.1
 42
0.569380983920789
  0
VERTEX
  5
22E1
  8
SAPA_PROFIL
 62
     2
 10
82.495816364575404
 20
73.424420697354961
 30
-0.1
  0
VERTEX
  5
22E2
  8
SAPA_PROFIL
 62
     2
 10
83.78744910798072
 20
74.129386297254015
 30
-0.1
 42
0.274387813087548
  0
VERTEX
  5
22E3
  8
SAPA_PROFIL
 62
     2
 10
84.099999992872768
 20
74.656048433944761
 30
-0.1
  0
VERTEX
  5
22E4
  8
SAPA_PROFIL
 62
     2
 10
84.099999992872768
 20
76.443901051892311
 30
-0.1
 42
0.274387813087548
  0
VERTEX
  5
22E5
  8
SAPA_PROFIL
 62
     2
 10
83.78744910798072
 20
76.970563188583057
 30
-0.1
  0
VERTEX
  5
22E6
  8
SAPA_PROFIL
 62
     2
 10
82.495816364575404
 20
77.675528788482126
 30
-0.1
 42
0.5693809839207892
  0
VERTEX
  5
22E7
  8
SAPA_PROFIL
 62
     2
 10
82.199999992872762
 20
77.499974742918539
 30
-0.1
  0
VERTEX
  5
22E8
  8
SAPA_PROFIL
 62
     2
 10
82.199999992872762
 20
77.099974742918548
 30
-0.1
  0
VERTEX
  5
22E9
  8
SAPA_PROFIL
 62
     2
 10
81.350995147702307
 20
77.099974742918548
 30
-0.1
  0
SEQEND
  5
22EA
  8
SAPA_PROFIL
 62
     2
  0
LINE
  5
154E
  8
SAPA_PROFIL
 10
11.5868663061893
 20
163.76067331788519
 30
-0.1
 11
11.586866307467631
 21
190.01067331788519
 31
-0.1
  0
ARC
  5
154F
  8
SAPA_PROFIL
 10
12.24812321842022
 20
163.7720688139012
 30
-0.1
 40
0.6613550947128499
 50
180.98728526337939
 51
260.74317128575518
  0
LINE
  5
1550
  8
SAPA_PROFIL
 10
247.5050395704535
 20
163.11932640881801
 30
-0.1
 11
12.141737506810751
 21
163.11932641320399
 31
-0.1
  0
ARC
  5
1551
  8
SAPA_PROFIL
 10
247.41601482511669
 20
163.867612626669
 30
-0.1
 40
0.7535633145981407
 50
276.7846750554387
 51
359.6769800311846
  0
LINE
  5
1552
  8
SAPA_PROFIL
 10
248.1695661652609
 20
190.0106733134503
 30
-0.1
 11
248.16956616398261
 21
163.8633642385507
 31
-0.1
  0
LINE
  5
1553
  8
SAPA_PROFIL
 10
249.27821623637169
 20
190.0106733133893
 30
-0.1
 11
248.1695661652609
 21
190.0106733134503
 31
-0.1
  0
LINE
  5
1554
  8
SAPA_PROFIL
 10
249.27821623505679
 20
163.2099423698528
 30
-0.1
 11
249.27821623637169
 21
190.0106733133893
 31
-0.1
  0
ARC
  5
1555
  8
SAPA_PROFIL
 10
248.0406005323045
 20
163.24503857126001
 30
-0.1
 40
1.238113230303324
 50
274.45928533575187
 51
358.37564645748978
  0
LINE
  5
1556
  8
SAPA_PROFIL
 10
11.619567816494049
 20
162.01067936639879
 30
-0.1
 11
248.1368646550853
 21
162.01067331343819
 31
-0.1
  0
ARC
  5
1557
  8
SAPA_PROFIL
 10
11.53017125311051
 20
163.0599884718894
 30
-0.1
 40
1.053110319202295
 50
182.68403398399769
 51
274.86959181491972
  0
LINE
  5
1558
  8
SAPA_PROFIL
 10
10.47821623637512
 20
190.01067331793701
 30
-0.1
 11
10.4782162350603
 21
163.01067331793709
 31
-0.1
  0
LINE
  5
1559
  8
SAPA_PROFIL
 10
11.586866307467631
 20
190.01067331788519
 30
-0.1
 11
10.47821623637512
 21
190.01067331793701
 31
-0.1
  0
POLYLINE
  5
1575
  8
SAPA_GLAS
 66
     1
 10
0.0
 20
0.0
 30
-0.1
 70
     1
  0
VERTEX
  5
2304
  8
SAPA_GLAS
 10
14.99743085442357
 20
6.999999996088591
 30
-0.1
  0
VERTEX
  5
2305
  8
SAPA_GLAS
 10
29.99743085442357
 20
6.9999999960885884
 30
-0.1
  0
VERTEX
  5
2306
  8
SAPA_GLAS
 10
29.99743085442357
 20
16.99999999608859
 30
-0.1
  0
VERTEX
  5
2307
  8
SAPA_GLAS
 10
14.99743085442357
 20
16.99999999608859
 30
-0.1
  0
SEQEND
  5
2308
  8
SAPA_GLAS
  0
POLYLINE
  5
1576
  8
SAPA_GLAS
 66
     1
 10
0.0
 20
0.0
 30
-0.1
 70
     1
  0
VERTEX
  5
2309
  8
SAPA_GLAS
 10
33.99743085442357
 20
6.9999999960885857
 30
-0.1
  0
VERTEX
  5
230A
  8
SAPA_GLAS
 10
48.99743085442357
 20
6.999999996088583
 30
-0.1
  0
VERTEX
  5
230B
  8
SAPA_GLAS
 10
48.99743085442357
 20
16.999999996088579
 30
-0.1
  0
VERTEX
  5
230C
  8
SAPA_GLAS
 10
33.99743085442357
 20
16.99999999608859
 30
-0.1
  0
SEQEND
  5
230D
  8
SAPA_GLAS
  0
POLYLINE
  5
1577
  8
SAPA_GLAS
 66
     1
 10
0.0
 20
0.0
 30
-0.1
  0
VERTEX
  5
230E
  8
SAPA_GLAS
 10
33.997430854423563
 20
-13.000000003911181
 30
-0.1
  0
VERTEX
  5
230F
  8
SAPA_GLAS
 10
33.99743085442357
 20
16.99999999608881
 30
-0.1
  0
VERTEX
  5
2310
  8
SAPA_GLAS
 10
29.99743085442357
 20
16.999999996088821
 30
-0.1
  0
VERTEX
  5
2311
  8
SAPA_GLAS
 10
29.997430854423559
 20
-13.000000003911181
 30
-0.1
  0
SEQEND
  5
2312
  8
SAPA_GLAS
  0
POLYLINE
  5
1578
  8
SAPA_GLAS
 66
     1
 10
0.0
 20
0.0
 30
-0.1
  0
VERTEX
  5
2313
  8
SAPA_GLAS
 10
54.997430854423563
 20
-13.00000000391119
 30
-0.1
  0
VERTEX
  5
2314
  8
SAPA_GLAS
 10
54.99743085442357
 20
16.99999999608881
 30
-0.1
  0
VERTEX
  5
2315
  8
SAPA_GLAS
 10
48.99743085442357
 20
16.99999999608881
 30
-0.1
  0
VERTEX
  5
2316
  8
SAPA_GLAS
 10
48.997430854423563
 20
-13.000000003911181
 30
-0.1
  0
SEQEND
  5
2317
  8
SAPA_GLAS
  0
POLYLINE
  5
1579
  8
SAPA_GLAS
 66
     1
 10
0.0
 20
0.0
 30
-0.1
  0
VERTEX
  5
2318
  8
SAPA_GLAS
 10
8.9974308544235555
 20
-13.00000000391117
 30
-0.1
  0
VERTEX
  5
2319
  8
SAPA_GLAS
 10
8.9974308544235697
 20
16.999999996088821
 30
-0.1
  0
VERTEX
  5
231A
  8
SAPA_GLAS
 10
14.99743085442357
 20
16.999999996088821
 30
-0.1
  0
VERTEX
  5
231B
  8
SAPA_GLAS
 10
14.99743085442355
 20
-13.00000000391117
 30
-0.1
  0
SEQEND
  5
231C
  8
SAPA_GLAS
  0
INSERT
  5
1583
  8
SAPA_ANSLUTNING
  6
CONTINUOUS
  2
*X134
 10
0.0
 20
0.0
 30
0.0
1001
ACAD
1000
HATCH
1002
{
1070
    19
1000
ANSI37
1040
0.25
1040
-0.0363561950002452
1000
R14_HATCH_DATA
1000
1583
1011
1.0
1021
0.0
1031
0.0
1021
0.0
1031
0.0
1011
0.0
1021
0.0
1031
0.0
1021
1.0
1031
0.0
1011
0.0
1021
0.0
1031
0.0
1021
0.0
1031
1.0
1040
-0.1
1010
0.0
1020
0.0
1030
1.0
1000
ANSI37
1070
     0
1070
     0
1071
        1
1071
        1
1071
        7
1070
     1
1040
9.8721805330827621
1040
209.06625661859721
1040
9.7396310053844211
1040
206.9269601300829
1070
     1
1040
9.7396310053844211
1040
206.9269601300829
1040
8.462921599091338
1040
206.28875555045201
1070
     2
1040
8.8954413669968346
1040
205.40139308921439
1040
0.9871603148642083
1040
2.0243308004060192
1040
3.3533658632767449
1070
     1
1070
     1
1040
7.9303344759473751
1040
205.19389808664411
1040
9.2481200026581192
1040
198.75112209012599
1070
     1
1040
9.2481200026581192
1040
198.75112209012599
1040
8.8880650122972966
1040
192.7619351332915
1070
     1
1040
8.8880650122972966
1040
192.7619351332915
1040
9.8862628384363767
1040
192.70192596823139
1070
     1
1040
9.8862628384363767
1040
192.70192596823139
1040
9.8721805330827621
1040
209.06625661859721
1071
        0
1070
     0
1070
     1
1040
-0.0363561950002452
1040
0.25
1070
     0
1070
     2
1040
0.7490419683972032
1040
-17.440452506144741
1040
112.9400292222584
1040
-0.5404941138426027
1040
0.581296116795476
1070
     0
1040
2.3198382951920991
1040
-17.440452506144741
1040
112.9400292222584
1040
-0.581296116795476
1040
-0.5404941138426027
1070
     0
1071
        1
1040
8.9057574538437763
1040
204.77616977775301
1040
-0.1
1002
}
  0
INSERT
  5
1584
  8
SAPA_ANSLUTNING
  6
CONTINUOUS
  2
*X135
 10
0.0
 20
0.0
 30
0.0
1001
ACAD
1000
HATCH
1002
{
1070
    19
1000
HEX
1040
0.25
1040
-3.1415926535897931
1000
R14_HATCH_DATA
1000
1584
1011
1.0
1021
0.0
1031
0.0
1021
0.0
1031
0.0
1011
0.0
1021
0.0
1031
0.0
1021
1.0
1031
0.0
1011
0.0
1021
0.0
1031
0.0
1021
0.0
1031
1.0
1040
-0.1
1010
0.0
1020
0.0
1030
1.0
1000
HEX
1070
     0
1070
     0
1071
        1
1071
        7
1070
     1
1070
     1
1071
        2
1040
249.87821623578961
1040
182.4999999961731
1040
1.0
1040
255.87821623578981
1040
182.4999999961731
1040
1.0
1071
        0
1070
     0
1070
     1
1040
-3.1415926535897931
1040
0.25
1070
     0
1070
     3
1040
6.2831853071795862
1040
126.0776457913431
1040
111.99999999619671
1040
0.0000000000000005
1040
1.374814999999999
1070
     2
1040
0.79375
1040
-1.587499999999999
1040
2.094395102393193
1040
126.0776457913431
1040
111.99999999619671
1040
-1.1906247155039029
1040
-0.6874074999999992
1070
     2
1040
0.7937499999999989
1040
-1.587499999999997
1040
1.0471975511965961
1040
126.87139579134301
1040
111.99999999619671
1040
-1.190624715503902
1040
0.6874075000000005
1070
     2
1040
0.7937499999999998
1040
-1.587499999999999
1040
0.0216905703044498
1071
        1
1040
253.1647881784148
1040
182.56593617483489
1040
-0.1
1002
}
  0
INSERT
  5
1585
  8
SAPA_ANSLUTNING
  6
CONTINUOUS
  2
*X136
 10
0.0
 20
0.0
 30
0.0
1001
ACAD
1000
HATCH
1002
{
1070
    19
1000
ANSI37
1040
0.25
1040
-3.1415926535897931
1000
R14_HATCH_DATA
1000
1585
1011
1.0
1021
0.0
1031
0.0
1021
0.0
1031
0.0
1011
0.0
1021
0.0
1031
0.0
1021
1.0
1031
0.0
1011
0.0
1021
0.0
1031
0.0
1021
0.0
1031
1.0
1040
-0.1
1010
0.0
1020
0.0
1030
1.0
1000
ANSI37
1070
     0
1070
     0
1071
        1
1071
        1
1071
        9
1070
     1
1040
249.87821623578921
1040
189.02020179352431
1040
249.87821623578921
1040
182.49999999617239
1070
     2
1040
252.8782162357893
1040
182.49999999617239
1040
3.0000000000000848
1040
3.1415926535897931
1040
6.2831853071795862
1070
     0
1070
     1
1040
255.87821623578941
1040
182.49999999617239
1040
255.87821623578941
1040
184.0857864337955
1070
     2
1040
255.57821623578991
1040
184.08578643379619
1040
0.2999999999994998
1040
6.2831853071774066
1040
7.0685834705749571
1070
     1
1070
     1
1040
255.7903482701459
1040
184.29791846815141
1040
255.5246628451965
1040
184.56360389310041
1070
     2
1040
255.87821623578961
1040
184.91715728369391
1040
0.5000000000000844
1040
2.3561944901917009
1040
3.9269908169865979
1070
     0
1070
     1
1040
255.5246628451961
1040
185.27071067428699
1040
257.16608420143268
1040
186.91213203052359
1070
     2
1040
257.37821623579049
1040
186.6999999961651
1040
0.3000000000031898
1040
3.9269908169887819
1040
4.7123889803791954
1070
     0
1070
     1
1040
257.3782162357889
1040
186.9999999961683
1040
249.87821623578921
1040
189.02020179352431
1071
        0
1070
     0
1070
     1
1040
-3.1415926535897931
1040
0.25
1070
     0
1070
     2
1040
0.7853981633974481
1040
126.0776457913431
1040
111.99999999619671
1040
-0.5612660075668218
1040
0.5612660075668224
1070
     0
1040
2.3561944901923439
1040
126.0776457913431
1040
111.99999999619671
1040
-0.5612660075668224
1040
-0.5612660075668218
1070
     0
1071
        1
1040
251.9769982156723
1040
187.04388522623529
1040
-0.1
1002
}
  0
INSERT
  5
1586
  8
SAPA_ANSLUTNING
  6
CONTINUOUS
  2
*X137
 10
0.0
 20
0.0
 30
0.0
1001
ACAD
1000
HATCH
1002
{
1070
    19
1000
ANSI37
1040
0.25
1040
-3.1415926535897931
1000
R14_HATCH_DATA
1000
1586
1011
1.0
1021
0.0
1031
0.0
1021
0.0
1031
0.0
1011
0.0
1021
0.0
1031
0.0
1021
1.0
1031
0.0
1011
0.0
1021
0.0
1031
0.0
1021
0.0
1031
1.0
1040
-0.1
1010
0.0
1020
0.0
1030
1.0
1000
ANSI37
1070
     0
1070
     0
1071
        1
1071
        7
1070
     1
1070
     1
1071
        7
1040
9.8782162357897771
1040
189.56795146439271
1040
0.0
1040
0.3000000780067467
1040
187.001476179984
1040
-0.2679491924311903
1040
0.5897778258936626
1040
186.9238304664531
1040
0.0
1040
1.6311991821258109
1040
185.88240911022081
1040
-0.198912367379658
1040
1.777645791532535
1040
185.52885571962759
1040
0.0
1040
1.7776457915324779
1040
179.0344652397369
1040
-1.0
1040
9.8782162357897771
1040
179.0344652397369
1040
0.0
1071
        0
1070
     0
1070
     1
1040
-3.1415926535897931
1040
0.25
1070
     0
1070
     2
1040
0.7853981633974481
1040
-13.922354208656341
1040
112.0106763398187
1040
-0.5612660075668218
1040
0.5612660075668224
1070
     0
1040
2.3561944901923439
1040
-13.922354208656341
1040
112.0106763398187
1040
-0.5612660075668224
1040
-0.5612660075668218
1070
     0
1040
0.0363322098761133
1071
        1
1040
6.7837574865964418
1040
185.9364957279557
1040
-0.1
1002
}
  0
INSERT
  5
1587
  8
SAPA_ANSLUTNING
  6
CONTINUOUS
  2
*X138
 10
0.0
 20
0.0
 30
0.0
1001
ACAD
1000
HATCH
1002
{
1070
    19
1000
HEX
1040
0.25
1040
-3.1415926535897931
1000
R14_HATCH_DATA
1000
1587
1011
1.0
1021
0.0
1031
0.0
1021
0.0
1031
0.0
1011
0.0
1021
0.0
1031
0.0
1021
1.0
1031
0.0
1011
0.0
1021
0.0
1031
0.0
1021
0.0
1031
1.0
1040
-0.1
1010
0.0
1020
0.0
1030
1.0
1000
HEX
1070
     0
1070
     0
1071
        1
1071
        7
1070
     1
1070
     1
1071
        2
1040
9.8782162357896617
1040
179.03446523973761
1040
1.0
1040
1.777645791532368
1040
179.03446523973761
1040
1.0
1071
        0
1070
     0
1070
     1
1040
-3.1415926535897931
1040
0.25
1070
     0
1070
     3
1040
6.2831853071795862
1040
-13.922354208656341
1040
112.0106763398187
1040
0.0000000000000005
1040
1.374814999999999
1070
     2
1040
0.79375
1040
-1.587499999999999
1040
2.094395102393193
1040
-13.922354208656341
1040
112.0106763398187
1040
-1.1906247155039029
1040
-0.6874074999999992
1070
     2
1040
0.7937499999999994
1040
-1.5874999999999979
1040
1.0471975511965961
1040
-13.12860420865635
1040
112.0106763398187
1040
-1.190624715503902
1040
0.6874075000000005
1070
     2
1040
0.7937499999999998
1040
-1.587499999999999
1040
0.0303180261480682
1071
        1
1040
6.0037086726478881
1040
179.0460473373322
1040
-0.1
1002
}
  0
POLYLINE
  5
158F
  8
SAPA_FOGBAND
 62
     2
 10
58.58880622621011
 20
12.226214550040485
 30
-0.1
 66
     1
 70
     8
  0
VERTEX
  8
SAPA_FOGBAND
  5
24C9
 10
58.5888
 20
12.2262
 30
-0.100000
  70
    32
  0
VERTEX
  8
SAPA_FOGBAND
  5
24CA
 10
58.5201
 20
12.2288
 30
-0.100000
  70
    32
  0
VERTEX
  8
SAPA_FOGBAND
  5
24CB
 10
58.4516
 20
12.2367
 30
-0.100000
  70
    32
  0
VERTEX
  8
SAPA_FOGBAND
  5
24CC
 10
58.3834
 20
12.2497
 30
-0.100000
  70
    32
  0
VERTEX
  8
SAPA_FOGBAND
  5
24CD
 10
58.3157
 20
12.2679
 30
-0.100000
  70
    32
  0
VERTEX
  8
SAPA_FOGBAND
  5
24CE
 10
58.2486
 20
12.2912
 30
-0.100000
  70
    32
  0
VERTEX
  8
SAPA_FOGBAND
  5
24CF
 10
58.1824
 20
12.3196
 30
-0.100000
  70
    32
  0
VERTEX
  8
SAPA_FOGBAND
  5
24D0
 10
58.1172
 20
12.3529
 30
-0.100000
  70
    32
  0
VERTEX
  8
SAPA_FOGBAND
  5
24D1
 10
58.0530
 20
12.3912
 30
-0.100000
  70
    32
  0
VERTEX
  8
SAPA_FOGBAND
  5
24D2
 10
57.9902
 20
12.4343
 30
-0.100000
  70
    32
  0
VERTEX
  8
SAPA_FOGBAND
  5
24D3
 10
57.9289
 20
12.4822
 30
-0.100000
  70
    32
  0
VERTEX
  8
SAPA_FOGBAND
  5
24D4
 10
57.8691
 20
12.5346
 30
-0.100000
  70
    32
  0
VERTEX
  8
SAPA_FOGBAND
  5
24D5
 10
57.8110
 20
12.5916
 30
-0.100000
  70
    32
  0
VERTEX
  8
SAPA_FOGBAND
  5
24D6
 10
57.7548
 20
12.6528
 30
-0.100000
  70
    32
  0
VERTEX
  8
SAPA_FOGBAND
  5
24D7
 10
57.7007
 20
12.7183
 30
-0.100000
  70
    32
  0
VERTEX
  8
SAPA_FOGBAND
  5
24D8
 10
57.6486
 20
12.7878
 30
-0.100000
  70
    32
  0
VERTEX
  8
SAPA_FOGBAND
  5
24D9
 10
57.5989
 20
12.8611
 30
-0.100000
  70
    32
  0
VERTEX
  8
SAPA_FOGBAND
  5
24DA
 10
57.5515
 20
12.9382
 30
-0.100000
  70
    32
  0
VERTEX
  8
SAPA_FOGBAND
  5
24DB
 10
57.5066
 20
13.0188
 30
-0.100000
  70
    32
  0
VERTEX
  8
SAPA_FOGBAND
  5
24DC
 10
57.4643
 20
13.1027
 30
-0.100000
  70
    32
  0
VERTEX
  8
SAPA_FOGBAND
  5
24DD
 10
57.4247
 20
13.1896
 30
-0.100000
  70
    32
  0
VERTEX
  8
SAPA_FOGBAND
  5
24DE
 10
57.3880
 20
13.2795
 30
-0.100000
  70
    32
  0
VERTEX
  8
SAPA_FOGBAND
  5
24DF
 10
57.3541
 20
13.3721
 30
-0.100000
  70
    32
  0
VERTEX
  8
SAPA_FOGBAND
  5
24E0
 10
57.3232
 20
13.4672
 30
-0.100000
  70
    32
  0
VERTEX
  8
SAPA_FOGBAND
  5
24E1
 10
57.2954
 20
13.5644
 30
-0.100000
  70
    32
  0
VERTEX
  8
SAPA_FOGBAND
  5
24E2
 10
57.2706
 20
13.6637
 30
-0.100000
  70
    32
  0
VERTEX
  8
SAPA_FOGBAND
  5
24E3
 10
57.2491
 20
13.7647
 30
-0.100000
  70
    32
  0
VERTEX
  8
SAPA_FOGBAND
  5
24E4
 10
57.2308
 20
13.8673
 30
-0.100000
  70
    32
  0
VERTEX
  8
SAPA_FOGBAND
  5
24E5
 10
57.2157
 20
13.9711
 30
-0.100000
  70
    32
  0
VERTEX
  8
SAPA_FOGBAND
  5
24E6
 10
57.2040
 20
14.0759
 30
-0.100000
  70
    32
  0
VERTEX
  8
SAPA_FOGBAND
  5
24E7
 10
57.1955
 20
14.1815
 30
-0.100000
  70
    32
  0
VERTEX
  8
SAPA_FOGBAND
  5
24E8
 10
57.1905
 20
14.2876
 30
-0.100000
  70
    32
  0
VERTEX
  8
SAPA_FOGBAND
  5
24E9
 10
57.1888
 20
14.3940
 30
-0.100000
  70
    32
  0
VERTEX
  8
SAPA_FOGBAND
  5
24EA
 10
57.1905
 20
14.5004
 30
-0.100000
  70
    32
  0
VERTEX
  8
SAPA_FOGBAND
  5
24EB
 10
57.1955
 20
14.6065
 30
-0.100000
  70
    32
  0
VERTEX
  8
SAPA_FOGBAND
  5
24EC
 10
57.2040
 20
14.7121
 30
-0.100000
  70
    32
  0
VERTEX
  8
SAPA_FOGBAND
  5
24ED
 10
57.2157
 20
14.8169
 30
-0.100000
  70
    32
  0
VERTEX
  8
SAPA_FOGBAND
  5
24EE
 10
57.2308
 20
14.9207
 30
-0.100000
  70
    32
  0
VERTEX
  8
SAPA_FOGBAND
  5
24EF
 10
57.2491
 20
15.0233
 30
-0.100000
  70
    32
  0
VERTEX
  8
SAPA_FOGBAND
  5
24F0
 10
57.2706
 20
15.1243
 30
-0.100000
  70
    32
  0
VERTEX
  8
SAPA_FOGBAND
  5
24F1
 10
57.2954
 20
15.2236
 30
-0.100000
  70
    32
  0
VERTEX
  8
SAPA_FOGBAND
  5
24F2
 10
57.3232
 20
15.3209
 30
-0.100000
  70
    32
  0
VERTEX
  8
SAPA_FOGBAND
  5
24F3
 10
57.3541
 20
15.4159
 30
-0.100000
  70
    32
  0
VERTEX
  8
SAPA_FOGBAND
  5
24F4
 10
57.3880
 20
15.5085
 30
-0.100000
  70
    32
  0
VERTEX
  8
SAPA_FOGBAND
  5
24F5
 10
57.4247
 20
15.5984
 30
-0.100000
  70
    32
  0
VERTEX
  8
SAPA_FOGBAND
  5
24F6
 10
57.4643
 20
15.6854
 30
-0.100000
  70
    32
  0
VERTEX
  8
SAPA_FOGBAND
  5
24F7
 10
57.5066
 20
15.7692
 30
-0.100000
  70
    32
  0
VERTEX
  8
SAPA_FOGBAND
  5
24F8
 10
57.5515
 20
15.8498
 30
-0.100000
  70
    32
  0
VERTEX
  8
SAPA_FOGBAND
  5
24F9
 10
57.5989
 20
15.9269
 30
-0.100000
  70
    32
  0
VERTEX
  8
SAPA_FOGBAND
  5
24FA
 10
57.6486
 20
16.0002
 30
-0.100000
  70
    32
  0
VERTEX
  8
SAPA_FOGBAND
  5
24FB
 10
57.7007
 20
16.0697
 30
-0.100000
  70
    32
  0
VERTEX
  8
SAPA_FOGBAND
  5
24FC
 10
57.7548
 20
16.1352
 30
-0.100000
  70
    32
  0
VERTEX
  8
SAPA_FOGBAND
  5
24FD
 10
57.8110
 20
16.1965
 30
-0.100000
  70
    32
  0
VERTEX
  8
SAPA_FOGBAND
  5
24FE
 10
57.8691
 20
16.2534
 30
-0.100000
  70
    32
  0
VERTEX
  8
SAPA_FOGBAND
  5
24FF
 10
57.9289
 20
16.3058
 30
-0.100000
  70
    32
  0
VERTEX
  8
SAPA_FOGBAND
  5
2500
 10
57.9902
 20
16.3537
 30
-0.100000
  70
    32
  0
VERTEX
  8
SAPA_FOGBAND
  5
2501
 10
58.0530
 20
16.3968
 30
-0.100000
  70
    32
  0
VERTEX
  8
SAPA_FOGBAND
  5
2502
 10
58.1172
 20
16.4351
 30
-0.100000
  70
    32
  0
VERTEX
  8
SAPA_FOGBAND
  5
2503
 10
58.1824
 20
16.4684
 30
-0.100000
  70
    32
  0
VERTEX
  8
SAPA_FOGBAND
  5
2504
 10
58.2486
 20
16.4968
 30
-0.100000
  70
    32
  0
VERTEX
  8
SAPA_FOGBAND
  5
2505
 10
58.3157
 20
16.5201
 30
-0.100000
  70
    32
  0
VERTEX
  8
SAPA_FOGBAND
  5
2506
 10
58.3834
 20
16.5383
 30
-0.100000
  70
    32
  0
VERTEX
  8
SAPA_FOGBAND
  5
2507
 10
58.4516
 20
16.5514
 30
-0.100000
  70
    32
  0
VERTEX
  8
SAPA_FOGBAND
  5
2508
 10
58.5201
 20
16.5592
 30
-0.100000
  70
    32
  0
VERTEX
  8
SAPA_FOGBAND
  5
2509
 10
58.5888
 20
16.5618
 30
-0.100000
  70
    32
  0
VERTEX
  8
SAPA_FOGBAND
  5
250A
 10
58.6575
 20
16.5592
 30
-0.100000
  70
    32
  0
VERTEX
  8
SAPA_FOGBAND
  5
250B
 10
58.7260
 20
16.5514
 30
-0.100000
  70
    32
  0
VERTEX
  8
SAPA_FOGBAND
  5
250C
 10
58.7942
 20
16.5383
 30
-0.100000
  70
    32
  0
VERTEX
  8
SAPA_FOGBAND
  5
250D
 10
58.8619
 20
16.5201
 30
-0.100000
  70
    32
  0
VERTEX
  8
SAPA_FOGBAND
  5
250E
 10
58.9290
 20
16.4968
 30
-0.100000
  70
    32
  0
VERTEX
  8
SAPA_FOGBAND
  5
250F
 10
58.9952
 20
16.4684
 30
-0.100000
  70
    32
  0
VERTEX
  8
SAPA_FOGBAND
  5
2510
 10
59.0605
 20
16.4351
 30
-0.100000
  70
    32
  0
VERTEX
  8
SAPA_FOGBAND
  5
2511
 10
59.1246
 20
16.3968
 30
-0.100000
  70
    32
  0
VERTEX
  8
SAPA_FOGBAND
  5
2512
 10
59.1874
 20
16.3537
 30
-0.100000
  70
    32
  0
VERTEX
  8
SAPA_FOGBAND
  5
2513
 10
59.2488
 20
16.3058
 30
-0.100000
  70
    32
  0
VERTEX
  8
SAPA_FOGBAND
  5
2514
 10
59.3086
 20
16.2534
 30
-0.100000
  70
    32
  0
VERTEX
  8
SAPA_FOGBAND
  5
2515
 10
59.3666
 20
16.1965
 30
-0.100000
  70
    32
  0
VERTEX
  8
SAPA_FOGBAND
  5
2516
 10
59.4228
 20
16.1352
 30
-0.100000
  70
    32
  0
VERTEX
  8
SAPA_FOGBAND
  5
2517
 10
59.4770
 20
16.0697
 30
-0.100000
  70
    32
  0
VERTEX
  8
SAPA_FOGBAND
  5
2518
 10
59.5290
 20
16.0002
 30
-0.100000
  70
    32
  0
VERTEX
  8
SAPA_FOGBAND
  5
2519
 10
59.5788
 20
15.9269
 30
-0.100000
  70
    32
  0
VERTEX
  8
SAPA_FOGBAND
  5
251A
 10
59.6261
 20
15.8498
 30
-0.100000
  70
    32
  0
VERTEX
  8
SAPA_FOGBAND
  5
251B
 10
59.6710
 20
15.7692
 30
-0.100000
  70
    32
  0
VERTEX
  8
SAPA_FOGBAND
  5
251C
 10
59.7133
 20
15.6854
 30
-0.100000
  70
    32
  0
VERTEX
  8
SAPA_FOGBAND
  5
251D
 10
59.7529
 20
15.5984
 30
-0.100000
  70
    32
  0
VERTEX
  8
SAPA_FOGBAND
  5
251E
 10
59.7896
 20
15.5085
 30
-0.100000
  70
    32
  0
VERTEX
  8
SAPA_FOGBAND
  5
251F
 10
59.8235
 20
15.4159
 30
-0.100000
  70
    32
  0
VERTEX
  8
SAPA_FOGBAND
  5
2520
 10
59.8544
 20
15.3209
 30
-0.100000
  70
    32
  0
VERTEX
  8
SAPA_FOGBAND
  5
2521
 10
59.8822
 20
15.2236
 30
-0.100000
  70
    32
  0
VERTEX
  8
SAPA_FOGBAND
  5
2522
 10
59.9070
 20
15.1243
 30
-0.100000
  70
    32
  0
VERTEX
  8
SAPA_FOGBAND
  5
2523
 10
59.9285
 20
15.0233
 30
-0.100000
  70
    32
  0
VERTEX
  8
SAPA_FOGBAND
  5
2524
 10
59.9468
 20
14.9207
 30
-0.100000
  70
    32
  0
VERTEX
  8
SAPA_FOGBAND
  5
2525
 10
59.9619
 20
14.8169
 30
-0.100000
  70
    32
  0
VERTEX
  8
SAPA_FOGBAND
  5
2526
 10
59.9737
 20
14.7121
 30
-0.100000
  70
    32
  0
VERTEX
  8
SAPA_FOGBAND
  5
2527
 10
59.9821
 20
14.6065
 30
-0.100000
  70
    32
  0
VERTEX
  8
SAPA_FOGBAND
  5
2528
 10
59.9871
 20
14.5004
 30
-0.100000
  70
    32
  0
VERTEX
  8
SAPA_FOGBAND
  5
2529
 10
59.9888
 20
14.3940
 30
-0.100000
  70
    32
  0
VERTEX
  8
SAPA_FOGBAND
  5
252A
 10
59.9871
 20
14.2876
 30
-0.100000
  70
    32
  0
VERTEX
  8
SAPA_FOGBAND
  5
252B
 10
59.9821
 20
14.1815
 30
-0.100000
  70
    32
  0
VERTEX
  8
SAPA_FOGBAND
  5
252C
 10
59.9737
 20
14.0759
 30
-0.100000
  70
    32
  0
VERTEX
  8
SAPA_FOGBAND
  5
252D
 10
59.9619
 20
13.9711
 30
-0.100000
  70
    32
  0
VERTEX
  8
SAPA_FOGBAND
  5
252E
 10
59.9468
 20
13.8673
 30
-0.100000
  70
    32
  0
VERTEX
  8
SAPA_FOGBAND
  5
252F
 10
59.9285
 20
13.7647
 30
-0.100000
  70
    32
  0
VERTEX
  8
SAPA_FOGBAND
  5
2530
 10
59.9070
 20
13.6637
 30
-0.100000
  70
    32
  0
VERTEX
  8
SAPA_FOGBAND
  5
2531
 10
59.8822
 20
13.5644
 30
-0.100000
  70
    32
  0
VERTEX
  8
SAPA_FOGBAND
  5
2532
 10
59.8544
 20
13.4672
 30
-0.100000
  70
    32
  0
VERTEX
  8
SAPA_FOGBAND
  5
2533
 10
59.8235
 20
13.3721
 30
-0.100000
  70
    32
  0
VERTEX
  8
SAPA_FOGBAND
  5
2534
 10
59.7896
 20
13.2795
 30
-0.100000
  70
    32
  0
VERTEX
  8
SAPA_FOGBAND
  5
2535
 10
59.7529
 20
13.1896
 30
-0.100000
  70
    32
  0
VERTEX
  8
SAPA_FOGBAND
  5
2536
 10
59.7133
 20
13.1027
 30
-0.100000
  70
    32
  0
VERTEX
  8
SAPA_FOGBAND
  5
2537
 10
59.6710
 20
13.0188
 30
-0.100000
  70
    32
  0
VERTEX
  8
SAPA_FOGBAND
  5
2538
 10
59.6261
 20
12.9382
 30
-0.100000
  70
    32
  0
VERTEX
  8
SAPA_FOGBAND
  5
2539
 10
59.5788
 20
12.8611
 30
-0.100000
  70
    32
  0
VERTEX
  8
SAPA_FOGBAND
  5
253A
 10
59.5290
 20
12.7878
 30
-0.100000
  70
    32
  0
VERTEX
  8
SAPA_FOGBAND
  5
253B
 10
59.4770
 20
12.7183
 30
-0.100000
  70
    32
  0
VERTEX
  8
SAPA_FOGBAND
  5
253C
 10
59.4228
 20
12.6528
 30
-0.100000
  70
    32
  0
VERTEX
  8
SAPA_FOGBAND
  5
253D
 10
59.3666
 20
12.5916
 30
-0.100000
  70
    32
  0
VERTEX
  8
SAPA_FOGBAND
  5
253E
 10
59.3086
 20
12.5346
 30
-0.100000
  70
    32
  0
VERTEX
  8
SAPA_FOGBAND
  5
253F
 10
59.2488
 20
12.4822
 30
-0.100000
  70
    32
  0
VERTEX
  8
SAPA_FOGBAND
  5
2540
 10
59.1874
 20
12.4343
 30
-0.100000
  70
    32
  0
VERTEX
  8
SAPA_FOGBAND
  5
2541
 10
59.1246
 20
12.3912
 30
-0.100000
  70
    32
  0
VERTEX
  8
SAPA_FOGBAND
  5
2542
 10
59.0605
 20
12.3529
 30
-0.100000
  70
    32
  0
VERTEX
  8
SAPA_FOGBAND
  5
2543
 10
58.9952
 20
12.3196
 30
-0.100000
  70
    32
  0
VERTEX
  8
SAPA_FOGBAND
  5
2544
 10
58.9290
 20
12.2912
 30
-0.100000
  70
    32
  0
VERTEX
  8
SAPA_FOGBAND
  5
2545
 10
58.8619
 20
12.2679
 30
-0.100000
  70
    32
  0
VERTEX
  8
SAPA_FOGBAND
  5
2546
 10
58.7942
 20
12.2497
 30
-0.100000
  70
    32
  0
VERTEX
  8
SAPA_FOGBAND
  5
2547
 10
58.7260
 20
12.2367
 30
-0.100000
  70
    32
  0
VERTEX
  8
SAPA_FOGBAND
  5
2548
 10
58.6575
 20
12.2288
 30
-0.100000
  70
    32
  0
VERTEX
  8
SAPA_FOGBAND
  5
2549
 10
58.5888
 20
12.2262
 30
-0.100000
  70
    32
  0
SEQEND
  8
SAPA_FOGBAND
  5
254A
  0
POLYLINE
  5
1590
  8
SAPA_FOGBAND
 62
     2
 10
60.323592248943037
 20
2.7088116909894184
 30
-0.1
 66
     1
 70
     8
  0
VERTEX
  8
SAPA_FOGBAND
  5
254B
 10
60.3236
 20
2.70881
 30
-0.100000
  70
    32
  0
VERTEX
  8
SAPA_FOGBAND
  5
254C
 10
60.2353
 20
2.71253
 30
-0.100000
  70
    32
  0
VERTEX
  8
SAPA_FOGBAND
  5
254D
 10
60.1472
 20
2.72367
 30
-0.100000
  70
    32
  0
VERTEX
  8
SAPA_FOGBAND
  5
254E
 10
60.0595
 20
2.74220
 30
-0.100000
  70
    32
  0
VERTEX
  8
SAPA_FOGBAND
  5
254F
 10
59.9724
 20
2.76809
 30
-0.100000
  70
    32
  0
VERTEX
  8
SAPA_FOGBAND
  5
2550
 10
59.8862
 20
2.80127
 30
-0.100000
  70
    32
  0
VERTEX
  8
SAPA_FOGBAND
  5
2551
 10
59.8011
 20
2.84166
 30
-0.100000
  70
    32
  0
VERTEX
  8
SAPA_FOGBAND
  5
2552
 10
59.7172
 20
2.88916
 30
-0.100000
  70
    32
  0
VERTEX
  8
SAPA_FOGBAND
  5
2553
 10
59.6348
 20
2.94366
 30
-0.100000
  70
    32
  0
VERTEX
  8
SAPA_FOGBAND
  5
2554
 10
59.5540
 20
3.00503
 30
-0.100000
  70
    32
  0
VERTEX
  8
SAPA_FOGBAND
  5
2555
 10
59.4751
 20
3.07311
 30
-0.100000
  70
    32
  0
VERTEX
  8
SAPA_FOGBAND
  5
2556
 10
59.3982
 20
3.14775
 30
-0.100000
  70
    32
  0
VERTEX
  8
SAPA_FOGBAND
  5
2557
 10
59.3236
 20
3.22876
 30
-0.100000
  70
    32
  0
VERTEX
  8
SAPA_FOGBAND
  5
2558
 10
59.2513
 20
3.31596
 30
-0.100000
  70
    32
  0
VERTEX
  8
SAPA_FOGBAND
  5
2559
 10
59.1817
 20
3.40912
 30
-0.100000
  70
    32
  0
VERTEX
  8
SAPA_FOGBAND
  5
255A
 10
59.1148
 20
3.50803
 30
-0.100000
  70
    32
  0
VERTEX
  8
SAPA_FOGBAND
  5
255B
 10
59.0508
 20
3.61245
 30
-0.100000
  70
    32
  0
VERTEX
  8
SAPA_FOGBAND
  5
255C
 10
58.9899
 20
3.72212
 30
-0.100000
  70
    32
  0
VERTEX
  8
SAPA_FOGBAND
  5
255D
 10
58.9322
 20
3.83679
 30
-0.100000
  70
    32
  0
VERTEX
  8
SAPA_FOGBAND
  5
255E
 10
58.8778
 20
3.95617
 30
-0.100000
  70
    32
  0
VERTEX
  8
SAPA_FOGBAND
  5
255F
 10
58.8269
 20
4.07997
 30
-0.100000
  70
    32
  0
VERTEX
  8
SAPA_FOGBAND
  5
2560
 10
58.7797
 20
4.20791
 30
-0.100000
  70
    32
  0
VERTEX
  8
SAPA_FOGBAND
  5
2561
 10
58.7361
 20
4.33967
 30
-0.100000
  70
    32
  0
VERTEX
  8
SAPA_FOGBAND
  5
2562
 10
58.6964
 20
4.47493
 30
-0.100000
  70
    32
  0
VERTEX
  8
SAPA_FOGBAND
  5
2563
 10
58.6606
 20
4.61337
 30
-0.100000
  70
    32
  0
VERTEX
  8
SAPA_FOGBAND
  5
2564
 10
58.6288
 20
4.75465
 30
-0.100000
  70
    32
  0
VERTEX
  8
SAPA_FOGBAND
  5
2565
 10
58.6011
 20
4.89844
 30
-0.100000
  70
    32
  0
VERTEX
  8
SAPA_FOGBAND
  5
2566
 10
58.5775
 20
5.04438
 30
-0.100000
  70
    32
  0
VERTEX
  8
SAPA_FOGBAND
  5
2567
 10
58.5582
 20
5.19213
 30
-0.100000
  70
    32
  0
VERTEX
  8
SAPA_FOGBAND
  5
2568
 10
58.5431
 20
5.34134
 30
-0.100000
  70
    32
  0
VERTEX
  8
SAPA_FOGBAND
  5
2569
 10
58.5323
 20
5.49163
 30
-0.100000
  70
    32
  0
VERTEX
  8
SAPA_FOGBAND
  5
256A
 10
58.5258
 20
5.64265
 30
-0.100000
  70
    32
  0
VERTEX
  8
SAPA_FOGBAND
  5
256B
 10
58.5236
 20
5.79403
 30
-0.100000
  70
    32
  0
VERTEX
  8
SAPA_FOGBAND
  5
256C
 10
58.5258
 20
5.94542
 30
-0.100000
  70
    32
  0
VERTEX
  8
SAPA_FOGBAND
  5
256D
 10
58.5323
 20
6.09644
 30
-0.100000
  70
    32
  0
VERTEX
  8
SAPA_FOGBAND
  5
256E
 10
58.5431
 20
6.24673
 30
-0.100000
  70
    32
  0
VERTEX
  8
SAPA_FOGBAND
  5
256F
 10
58.5582
 20
6.39593
 30
-0.100000
  70
    32
  0
VERTEX
  8
SAPA_FOGBAND
  5
2570
 10
58.5775
 20
6.54368
 30
-0.100000
  70
    32
  0
VERTEX
  8
SAPA_FOGBAND
  5
2571
 10
58.6011
 20
6.68962
 30
-0.100000
  70
    32
  0
VERTEX
  8
SAPA_FOGBAND
  5
2572
 10
58.6288
 20
6.83341
 30
-0.100000
  70
    32
  0
VERTEX
  8
SAPA_FOGBAND
  5
2573
 10
58.6606
 20
6.97469
 30
-0.100000
  70
    32
  0
VERTEX
  8
SAPA_FOGBAND
  5
2574
 10
58.6964
 20
7.11313
 30
-0.100000
  70
    32
  0
VERTEX
  8
SAPA_FOGBAND
  5
2575
 10
58.7361
 20
7.24839
 30
-0.100000
  70
    32
  0
VERTEX
  8
SAPA_FOGBAND
  5
2576
 10
58.7797
 20
7.38015
 30
-0.100000
  70
    32
  0
VERTEX
  8
SAPA_FOGBAND
  5
2577
 10
58.8269
 20
7.50809
 30
-0.100000
  70
    32
  0
VERTEX
  8
SAPA_FOGBAND
  5
2578
 10
58.8778
 20
7.63189
 30
-0.100000
  70
    32
  0
VERTEX
  8
SAPA_FOGBAND
  5
2579
 10
58.9322
 20
7.75127
 30
-0.100000
  70
    32
  0
VERTEX
  8
SAPA_FOGBAND
  5
257A
 10
58.9899
 20
7.86594
 30
-0.100000
  70
    32
  0
VERTEX
  8
SAPA_FOGBAND
  5
257B
 10
59.0508
 20
7.97561
 30
-0.100000
  70
    32
  0
VERTEX
  8
SAPA_FOGBAND
  5
257C
 10
59.1148
 20
8.08003
 30
-0.100000
  70
    32
  0
VERTEX
  8
SAPA_FOGBAND
  5
257D
 10
59.1817
 20
8.17894
 30
-0.100000
  70
    32
  0
VERTEX
  8
SAPA_FOGBAND
  5
257E
 10
59.2513
 20
8.27210
 30
-0.100000
  70
    32
  0
VERTEX
  8
SAPA_FOGBAND
  5
257F
 10
59.3236
 20
8.35930
 30
-0.100000
  70
    32
  0
VERTEX
  8
SAPA_FOGBAND
  5
2580
 10
59.3982
 20
8.44031
 30
-0.100000
  70
    32
  0
VERTEX
  8
SAPA_FOGBAND
  5
2581
 10
59.4751
 20
8.51495
 30
-0.100000
  70
    32
  0
VERTEX
  8
SAPA_FOGBAND
  5
2582
 10
59.5540
 20
8.58304
 30
-0.100000
  70
    32
  0
VERTEX
  8
SAPA_FOGBAND
  5
2583
 10
59.6348
 20
8.64440
 30
-0.100000
  70
    32
  0
VERTEX
  8
SAPA_FOGBAND
  5
2584
 10
59.7172
 20
8.69890
 30
-0.100000
  70
    32
  0
VERTEX
  8
SAPA_FOGBAND
  5
2585
 10
59.8011
 20
8.74640
 30
-0.100000
  70
    32
  0
VERTEX
  8
SAPA_FOGBAND
  5
2586
 10
59.8862
 20
8.78679
 30
-0.100000
  70
    32
  0
VERTEX
  8
SAPA_FOGBAND
  5
2587
 10
59.9724
 20
8.81997
 30
-0.100000
  70
    32
  0
VERTEX
  8
SAPA_FOGBAND
  5
2588
 10
60.0595
 20
8.84586
 30
-0.100000
  70
    32
  0
VERTEX
  8
SAPA_FOGBAND
  5
2589
 10
60.1472
 20
8.86439
 30
-0.100000
  70
    32
  0
VERTEX
  8
SAPA_FOGBAND
  5
258A
 10
60.2353
 20
8.87553
 30
-0.100000
  70
    32
  0
VERTEX
  8
SAPA_FOGBAND
  5
258B
 10
60.3236
 20
8.87925
 30
-0.100000
  70
    32
  0
VERTEX
  8
SAPA_FOGBAND
  5
258C
 10
60.4119
 20
8.87553
 30
-0.100000
  70
    32
  0
VERTEX
  8
SAPA_FOGBAND
  5
258D
 10
60.5000
 20
8.86439
 30
-0.100000
  70
    32
  0
VERTEX
  8
SAPA_FOGBAND
  5
258E
 10
60.5877
 20
8.84586
 30
-0.100000
  70
    32
  0
VERTEX
  8
SAPA_FOGBAND
  5
258F
 10
60.6748
 20
8.81997
 30
-0.100000
  70
    32
  0
VERTEX
  8
SAPA_FOGBAND
  5
2590
 10
60.7610
 20
8.78679
 30
-0.100000
  70
    32
  0
VERTEX
  8
SAPA_FOGBAND
  5
2591
 10
60.8461
 20
8.74640
 30
-0.100000
  70
    32
  0
VERTEX
  8
SAPA_FOGBAND
  5
2592
 10
60.9300
 20
8.69890
 30
-0.100000
  70
    32
  0
VERTEX
  8
SAPA_FOGBAND
  5
2593
 10
61.0124
 20
8.64440
 30
-0.100000
  70
    32
  0
VERTEX
  8
SAPA_FOGBAND
  5
2594
 10
61.0932
 20
8.58304
 30
-0.100000
  70
    32
  0
VERTEX
  8
SAPA_FOGBAND
  5
2595
 10
61.1721
 20
8.51495
 30
-0.100000
  70
    32
  0
VERTEX
  8
SAPA_FOGBAND
  5
2596
 10
61.2490
 20
8.44031
 30
-0.100000
  70
    32
  0
VERTEX
  8
SAPA_FOGBAND
  5
2597
 10
61.3236
 20
8.35930
 30
-0.100000
  70
    32
  0
VERTEX
  8
SAPA_FOGBAND
  5
2598
 10
61.3959
 20
8.27210
 30
-0.100000
  70
    32
  0
VERTEX
  8
SAPA_FOGBAND
  5
2599
 10
61.4655
 20
8.17894
 30
-0.100000
  70
    32
  0
VERTEX
  8
SAPA_FOGBAND
  5
259A
 10
61.5324
 20
8.08003
 30
-0.100000
  70
    32
  0
VERTEX
  8
SAPA_FOGBAND
  5
259B
 10
61.5964
 20
7.97561
 30
-0.100000
  70
    32
  0
VERTEX
  8
SAPA_FOGBAND
  5
259C
 10
61.6573
 20
7.86594
 30
-0.100000
  70
    32
  0
VERTEX
  8
SAPA_FOGBAND
  5
259D
 10
61.7150
 20
7.75127
 30
-0.100000
  70
    32
  0
VERTEX
  8
SAPA_FOGBAND
  5
259E
 10
61.7694
 20
7.63189
 30
-0.100000
  70
    32
  0
VERTEX
  8
SAPA_FOGBAND
  5
259F
 10
61.8202
 20
7.50809
 30
-0.100000
  70
    32
  0
VERTEX
  8
SAPA_FOGBAND
  5
25A0
 10
61.8675
 20
7.38015
 30
-0.100000
  70
    32
  0
VERTEX
  8
SAPA_FOGBAND
  5
25A1
 10
61.9111
 20
7.24839
 30
-0.100000
  70
    32
  0
VERTEX
  8
SAPA_FOGBAND
  5
25A2
 10
61.9508
 20
7.11313
 30
-0.100000
  70
    32
  0
VERTEX
  8
SAPA_FOGBAND
  5
25A3
 10
61.9866
 20
6.97469
 30
-0.100000
  70
    32
  0
VERTEX
  8
SAPA_FOGBAND
  5
25A4
 10
62.0184
 20
6.83341
 30
-0.100000
  70
    32
  0
VERTEX
  8
SAPA_FOGBAND
  5
25A5
 10
62.0461
 20
6.68962
 30
-0.100000
  70
    32
  0
VERTEX
  8
SAPA_FOGBAND
  5
25A6
 10
62.0696
 20
6.54368
 30
-0.100000
  70
    32
  0
VERTEX
  8
SAPA_FOGBAND
  5
25A7
 10
62.0890
 20
6.39593
 30
-0.100000
  70
    32
  0
VERTEX
  8
SAPA_FOGBAND
  5
25A8
 10
62.1041
 20
6.24673
 30
-0.100000
  70
    32
  0
VERTEX
  8
SAPA_FOGBAND
  5
25A9
 10
62.1149
 20
6.09644
 30
-0.100000
  70
    32
  0
VERTEX
  8
SAPA_FOGBAND
  5
25AA
 10
62.1214
 20
5.94542
 30
-0.100000
  70
    32
  0
VERTEX
  8
SAPA_FOGBAND
  5
25AB
 10
62.1236
 20
5.79403
 30
-0.100000
  70
    32
  0
VERTEX
  8
SAPA_FOGBAND
  5
25AC
 10
62.1214
 20
5.64265
 30
-0.100000
  70
    32
  0
VERTEX
  8
SAPA_FOGBAND
  5
25AD
 10
62.1149
 20
5.49163
 30
-0.100000
  70
    32
  0
VERTEX
  8
SAPA_FOGBAND
  5
25AE
 10
62.1041
 20
5.34134
 30
-0.100000
  70
    32
  0
VERTEX
  8
SAPA_FOGBAND
  5
25AF
 10
62.0890
 20
5.19213
 30
-0.100000
  70
    32
  0
VERTEX
  8
SAPA_FOGBAND
  5
25B0
 10
62.0696
 20
5.04438
 30
-0.100000
  70
    32
  0
VERTEX
  8
SAPA_FOGBAND
  5
25B1
 10
62.0461
 20
4.89844
 30
-0.100000
  70
    32
  0
VERTEX
  8
SAPA_FOGBAND
  5
25B2
 10
62.0184
 20
4.75465
 30
-0.100000
  70
    32
  0
VERTEX
  8
SAPA_FOGBAND
  5
25B3
 10
61.9866
 20
4.61337
 30
-0.100000
  70
    32
  0
VERTEX
  8
SAPA_FOGBAND
  5
25B4
 10
61.9508
 20
4.47493
 30
-0.100000
  70
    32
  0
VERTEX
  8
SAPA_FOGBAND
  5
25B5
 10
61.9111
 20
4.33967
 30
-0.100000
  70
    32
  0
VERTEX
  8
SAPA_FOGBAND
  5
25B6
 10
61.8675
 20
4.20791
 30
-0.100000
  70
    32
  0
VERTEX
  8
SAPA_FOGBAND
  5
25B7
 10
61.8202
 20
4.07997
 30
-0.100000
  70
    32
  0
VERTEX
  8
SAPA_FOGBAND
  5
25B8
 10
61.7694
 20
3.95617
 30
-0.100000
  70
    32
  0
VERTEX
  8
SAPA_FOGBAND
  5
25B9
 10
61.7150
 20
3.83679
 30
-0.100000
  70
    32
  0
VERTEX
  8
SAPA_FOGBAND
  5
25BA
 10
61.6573
 20
3.72212
 30
-0.100000
  70
    32
  0
VERTEX
  8
SAPA_FOGBAND
  5
25BB
 10
61.5964
 20
3.61245
 30
-0.100000
  70
    32
  0
VERTEX
  8
SAPA_FOGBAND
  5
25BC
 10
61.5324
 20
3.50803
 30
-0.100000
  70
    32
  0
VERTEX
  8
SAPA_FOGBAND
  5
25BD
 10
61.4655
 20
3.40912
 30
-0.100000
  70
    32
  0
VERTEX
  8
SAPA_FOGBAND
  5
25BE
 10
61.3959
 20
3.31596
 30
-0.100000
  70
    32
  0
VERTEX
  8
SAPA_FOGBAND
  5
25BF
 10
61.3236
 20
3.22876
 30
-0.100000
  70
    32
  0
VERTEX
  8
SAPA_FOGBAND
  5
25C0
 10
61.2490
 20
3.14775
 30
-0.100000
  70
    32
  0
VERTEX
  8
SAPA_FOGBAND
  5
25C1
 10
61.1721
 20
3.07311
 30
-0.100000
  70
    32
  0
VERTEX
  8
SAPA_FOGBAND
  5
25C2
 10
61.0932
 20
3.00503
 30
-0.100000
  70
    32
  0
VERTEX
  8
SAPA_FOGBAND
  5
25C3
 10
61.0124
 20
2.94366
 30
-0.100000
  70
    32
  0
VERTEX
  8
SAPA_FOGBAND
  5
25C4
 10
60.9300
 20
2.88916
 30
-0.100000
  70
    32
  0
VERTEX
  8
SAPA_FOGBAND
  5
25C5
 10
60.8461
 20
2.84166
 30
-0.100000
  70
    32
  0
VERTEX
  8
SAPA_FOGBAND
  5
25C6
 10
60.7610
 20
2.80127
 30
-0.100000
  70
    32
  0
VERTEX
  8
SAPA_FOGBAND
  5
25C7
 10
60.6748
 20
2.76809
 30
-0.100000
  70
    32
  0
VERTEX
  8
SAPA_FOGBAND
  5
25C8
 10
60.5877
 20
2.74220
 30
-0.100000
  70
    32
  0
VERTEX
  8
SAPA_FOGBAND
  5
25C9
 10
60.5000
 20
2.72367
 30
-0.100000
  70
    32
  0
VERTEX
  8
SAPA_FOGBAND
  5
25CA
 10
60.4119
 20
2.71253
 30
-0.100000
  70
    32
  0
VERTEX
  8
SAPA_FOGBAND
  5
25CB
 10
60.3236
 20
2.70881
 30
-0.100000
  70
    32
  0
SEQEND
  8
SAPA_FOGBAND
  5
25CC
  0
POLYLINE
  5
1591
  8
SAPA_FOGBAND
 62
     2
 66
     1
 10
0.0
 20
0.0
 30
-0.1
 70
     1
  0
VERTEX
  5
24A1
  8
SAPA_FOGBAND
 62
     2
 10
55.023592248943046
 20
13.23772664902863
 30
-0.1
  0
VERTEX
  5
24A2
  8
SAPA_FOGBAND
 62
     2
 10
55.023592248943039
 20
-0.4427380002700776
 30
-0.1
 42
0.427966335106886
  0
VERTEX
  5
24A3
  8
SAPA_FOGBAND
 62
     2
 10
55.337604820302289
 20
-0.7424105679900867
 30
-0.1
  0
VERTEX
  5
24A4
  8
SAPA_FOGBAND
 62
     2
 10
63.537604820302292
 20
-0.2561106599104512
 30
-0.1
 42
0.4005932428724212
  0
VERTEX
  5
24A5
  8
SAPA_FOGBAND
 62
     2
 10
63.823592248943051
 20
0.0435619078095577
 30
-0.1
  0
VERTEX
  5
24A6
  8
SAPA_FOGBAND
 62
     2
 10
63.823592248943051
 20
1.857261999729932
 30
-0.1
  0
VERTEX
  5
24A7
  8
SAPA_FOGBAND
 62
     2
 10
65.523592248943032
 20
1.857261999729932
 30
-0.1
 42
0.4142135623730951
  0
VERTEX
  5
24A8
  8
SAPA_FOGBAND
 62
     2
 10
65.823592248943044
 20
2.1572619997299292
 30
-0.1
  0
VERTEX
  5
24A9
  8
SAPA_FOGBAND
 62
     2
 10
65.823592248943044
 20
9.57604276335584
 30
-0.1
 42
0.1379343940649207
  0
VERTEX
  5
24AA
  8
SAPA_FOGBAND
 62
     2
 10
65.677015634088235
 20
10.097261072404249
 30
-0.1
  0
VERTEX
  5
24AB
  8
SAPA_FOGBAND
 62
     2
 10
58.269797396179939
 20
22.017871154254141
 30
-0.1
 42
0.2613472755167645
  0
VERTEX
  5
24AC
  8
SAPA_FOGBAND
 62
     2
 10
57.843085703607329
 20
22.257261999729941
 30
-0.1
  0
VERTEX
  5
24AD
  8
SAPA_FOGBAND
 62
     2
 10
56.848389086444122
 20
22.257261999729941
 30
-0.1
 42
0.3915187749346393
  0
VERTEX
  5
24AE
  8
SAPA_FOGBAND
 62
     2
 10
55.851437472439017
 20
21.33528429995642
 30
-0.1
  0
VERTEX
  5
24AF
  8
SAPA_FOGBAND
 62
     2
 10
55.025116441940497
 20
13.27673779914187
 30
-0.1
 42
0.0195279011117891
  0
SEQEND
  5
24B0
  8
SAPA_FOGBAND
 62
     2
  0
DIMENSION
  5
159C
  8
SAPA_MATT
  2
*D119
 10
249.8782162357893
 20
240.2632891963413
 30
-0.1
 11
129.8782162357893
 21
242.7632891963413
 31
-0.1
 70
     0
  1
237-242
 13
9.8782162357892958
 23
222.0014761801614
 33
-0.1
 14
249.8782162357893
 24
222.0014761801614
 34
-0.1
1001
ACAD
1000
DSTYLE
1002
{
1070
    40
1040
1.0
1002
}
  0
DIMENSION
  5
159D
  8
SAPA_MATT
  2
*D124
 10
85.999999994622982
 20
-26.18954559620887
 30
-0.1
 11
43.198941777855772
 21
-26.18954559620887
 31
-0.1
 70
   128
 13
-0.0000000026132909
 23
0.4999999999999858
 33
0.0
 14
85.999999994622982
 24
22.199999996088859
 34
-0.1
1001
ACAD
1000
DSTYLE
1002
{
1070
    40
1040
1.0
1002
}
  0
DIMENSION
  5
159E
  8
SAPA_MATT
  2
*D123
 10
-23.746088647940152
 20
186.9999999960707
 30
-0.1
 11
-23.74608864794018
 21
93.500738089992296
 31
-0.1
 70
   128
 13
0.4999999973866807
 23
-0.0000000000000142
 33
0.0
 14
0.3000000780066045
 24
186.9999999960707
 34
-0.1
 50
90.0
1001
ACAD
1000
DSTYLE
1002
{
1070
    40
1040
1.0
1002
}
  0
DIMENSION
  5
159F
  8
SAPA_MATT
  2
*D122
 10
-10.708401025678681
 20
-0.000000000000011
 30
-0.1
 11
-13.208401025678681
 21
44.499999999999943
 31
-0.1
 70
     0
 13
1.99999999738668
 23
88.999999999999886
 33
0.0
 14
0.4999999973866807
 24
-0.0000000000000142
 34
0.0
 50
90.0
1001
ACAD
1000
DSTYLE
1002
{
1070
    40
1040
1.0
1002
}
  0
DIMENSION
  5
15A0
  8
SAPA_MATT
  2
*D121
 10
-10.70840102567862
 20
88.999999999999886
 30
-0.1
 11
-13.20840102567864
 21
91.499999998044188
 31
-0.1
 70
     0
 13
0.9999999938674761
 23
93.999999996088462
 33
-0.1
 14
1.99999999738668
 24
88.999999999999886
 34
0.0
 50
90.0
1001
ACAD
1000
DSTYLE
1002
{
1070
    40
1040
1.0
1002
}
  0
DIMENSION
  5
15A1
  8
SAPA_MATT
  2
*D120
 10
-10.708401025678651
 20
93.999999996088462
 30
-0.1
 11
-13.208401025678659
 21
140.49999999607959
 31
-0.1
 70
     0
 13
0.3000000780066045
 23
186.9999999960707
 33
-0.1
 14
0.9999999938674761
 24
93.999999996088462
 34
-0.1
 50
90.0
1001
ACAD
1000
DSTYLE
1002
{
1070
    40
1040
1.0
1002
}
  0
VIEWPORT
  5
C4
 67
     1
  8
0
 10
160.5543545598442
 20
116.00969601843509
 30
0.0
 40
404.96977709277462
 41
256.8421457311839
 68
     1
 69
     1
1001
ACAD
1000
MVIEW
1002
{
1070
    16
1010
0.0
1020
0.0
1030
0.0
1010
0.0
1020
0.0
1030
1.0
1040
-1.5707963267948959
1040
256.8421457311839
1040
102.1562485694885
1040
-121.90624046325679
1040
50.0
1040
0.0
1040
0.0
1070
     0
1070
     0
1070
     1
1070
     1
1070
     0
1070
     0
1070
     0
1070
     0
1040
0.0
1040
0.0
1040
0.0
1040
10.0
1040
10.0
1040
10.0
1040
10.0
1070
     0
1002
{
1002
}
1002
}
  0
ENDSEC
  0
EOF
