  0
SECTION
  2
HEADER
  9
$ACADVER
  1
AC1009
  9
$INSBASE
 10
0.0
 20
0.0
 30
0.0
  9
$EXTMIN
 10
-53.741478987571547
 20
-31.29283270962901
 30
-0.2
  9
$EXTMAX
 10
201.7532560781701
 20
198.5000000000002
 30
0.0000000048844772
  9
$LIMMIN
 10
0.0
 20
0.0
  9
$LIMMAX
 10
790.0
 20
790.0
  9
$ORTHOMODE
 70
     0
  9
$REGENMODE
 70
     1
  9
$FILLMODE
 70
     1
  9
$QTEXTMODE
 70
     0
  9
$MIRRTEXT
 70
     1
  9
$DRAGMODE
 70
     2
  9
$LTSCALE
 40
4.0
  9
$OSMODE
 70
   167
  9
$ATTMODE
 70
     1
  9
$TEXTSIZE
 40
3.5
  9
$TRACEWID
 40
0.05
  9
$TEXTSTYLE
  7
ISO
  9
$CLAYER
  8
0
  9
$CELTYPE
  6
BYLAYER
  9
$CECOLOR
 62
   256
  9
$DIMSCALE
 40
0.0
  9
$DIMASZ
 40
3.0
  9
$DIMEXO
 40
1.5
  9
$DIMDLI
 40
10.0
  9
$DIMRND
 40
0.0
  9
$DIMDLE
 40
0.0
  9
$DIMEXE
 40
1.5
  9
$DIMTP
 40
0.0
  9
$DIMTM
 40
0.0
  9
$DIMTXT
 40
3.0
  9
$DIMCEN
 40
-5.0
  9
$DIMTSZ
 40
0.0
  9
$DIMTOL
 70
     0
  9
$DIMLIM
 70
     0
  9
$DIMTIH
 70
     0
  9
$DIMTOH
 70
     0
  9
$DIMSE1
 70
     0
  9
$DIMSE2
 70
     0
  9
$DIMTAD
 70
     1
  9
$DIMZIN
 70
     8
  9
$DIMBLK
  1

  9
$DIMASO
 70
     1
  9
$DIMSHO
 70
     1
  9
$DIMPOST
  1

  9
$DIMAPOST
  1

  9
$DIMALT
 70
     0
  9
$DIMALTD
 70
     0
  9
$DIMALTF
 40
25.399999999999999
  9
$DIMLFAC
 40
-1.0
  9
$DIMTOFL
 70
     1
  9
$DIMTVP
 40
0.0
  9
$DIMTIX
 70
     0
  9
$DIMSOXD
 70
     0
  9
$DIMSAH
 70
     0
  9
$DIMBLK1
  1

  9
$DIMBLK2
  1

  9
$DIMSTYLE
  2
MASKIN
  9
$DIMCLRD
 70
   256
  9
$DIMCLRE
 70
   256
  9
$DIMCLRT
 70
     2
  9
$DIMTFAC
 40
1.0
  9
$DIMGAP
 40
1.0
  9
$LUNITS
 70
     2
  9
$LUPREC
 70
     8
  9
$SKETCHINC
 40
0.1
  9
$FILLETRAD
 40
0.0
  9
$AUNITS
 70
     0
  9
$AUPREC
 70
     8
  9
$MENU
  1
ACAD
  9
$ELEVATION
 40
0.0
  9
$PELEVATION
 40
0.0
  9
$THICKNESS
 40
0.0
  9
$LIMCHECK
 70
     0
  9
$BLIPMODE
 70
     0
  9
$CHAMFERA
 40
0.0
  9
$CHAMFERB
 40
0.0
  9
$SKPOLY
 70
     0
  9
$TDCREATE
 40
2458299.4382186462
  9
$TDUPDATE
 40
2458302.5612113662
  9
$TDINDWG
 40
0.0152944907
  9
$TDUSRTIMER
 40
0.0152942593
  9
$USRTIMER
 70
     1
  9
$ANGBASE
 50
0.0
  9
$ANGDIR
 70
     0
  9
$PDMODE
 70
     0
  9
$PDSIZE
 40
0.0
  9
$PLINEWID
 40
0.0
  9
$COORDS
 70
     1
  9
$SPLFRAME
 70
     0
  9
$SPLINETYPE
 70
     6
  9
$SPLINESEGS
 70
     8
  9
$ATTDIA
 70
     1
  9
$ATTREQ
 70
     1
  9
$HANDLING
 70
     1
  9
$HANDSEED
  5
1353
  9
$SURFTAB1
 70
     6
  9
$SURFTAB2
 70
     6
  9
$SURFTYPE
 70
     6
  9
$SURFU
 70
     6
  9
$SURFV
 70
     6
  9
$UCSNAME
  2

  9
$UCSORG
 10
0.0
 20
0.0
 30
0.0
  9
$UCSXDIR
 10
1.0
 20
0.0
 30
0.0
  9
$UCSYDIR
 10
0.0
 20
1.0
 30
0.0
  9
$PUCSNAME
  2

  9
$PUCSORG
 10
0.0
 20
0.0
 30
0.0
  9
$PUCSXDIR
 10
1.0
 20
0.0
 30
0.0
  9
$PUCSYDIR
 10
0.0
 20
1.0
 30
0.0
  9
$USERI1
 70
     0
  9
$USERI2
 70
     0
  9
$USERI3
 70
     0
  9
$USERI4
 70
     0
  9
$USERI5
 70
     0
  9
$USERR1
 40
0.0
  9
$USERR2
 40
0.0
  9
$USERR3
 40
0.0
  9
$USERR4
 40
0.0
  9
$USERR5
 40
0.0
  9
$WORLDVIEW
 70
     1
  9
$SHADEDGE
 70
     3
  9
$SHADEDIF
 70
    70
  9
$TILEMODE
 70
     1
  9
$MAXACTVP
 70
    32
  9
$PLIMCHECK
 70
     0
  9
$PEXTMIN
 10
1.0000000000000000E+020
 20
1.0000000000000000E+020
 30
1.0000000000000000E+020
  9
$PEXTMAX
 10
-1.0000000000000000E+020
 20
-1.0000000000000000E+020
 30
-1.0000000000000000E+020
  9
$PLIMMIN
 10
-5.069427490234375
 20
-5.8737497329711914
  9
$PLIMMAX
 10
291.89889526367187
 20
204.0995779037475
  9
$UNITMODE
 70
     0
  9
$VISRETAIN
 70
     1
  9
$PLINEGEN
 70
     0
  9
$PSLTSCALE
 70
     1
  0
ENDSEC
  0
SECTION
  2
TABLES
  0
TABLE
  2
VPORT
 70
     1
  0
VPORT
  2
*ACTIVE
 70
     0
 10
0.0
 20
0.0
 11
1.0
 21
1.0
 12
74.011920705711816
 22
203.02707678618631
 13
0.0
 23
0.0
 14
1.0
 24
1.0
 15
0.0
 25
0.0
 16
0.0
 26
0.0
 36
1.0
 17
0.0
 27
0.0
 37
0.0
 40
326.70737936199799
 41
1.7265193370165739
 42
50.0
 43
0.0
 44
0.0
 50
0.0
 51
0.0
 71
     0
 72
   100
 73
     1
 74
     1
 75
     0
 76
     0
 77
     0
 78
     0
  0
ENDTAB
  0
TABLE
  2
LTYPE
 70
     1
  0
LTYPE
  2
CONTINUOUS
 70
     0
  3
Solid line
 72
    65
 73
     0
 40
0.0
  0
ENDTAB
  0
TABLE
  2
LAYER
 70
    23
  0
LAYER
  2
0
 70
     0
 62
     7
  6
CONTINUOUS
  0
LAYER
  2
DEFPOINTS
 70
     0
 62
     7
  6
CONTINUOUS
  0
LAYER
  2
SAPA_ARTIKELNR
 70
     0
 62
     4
  6
CONTINUOUS
  0
LAYER
  2
SAPA_BESLAG
 70
     0
 62
     1
  6
CONTINUOUS
  0
LAYER
  2
SAPA_ANSLUTNING
 70
     0
 62
     6
  6
CONTINUOUS
  0
LAYER
  2
SAPA_GLAS
 70
     0
 62
     4
  6
CONTINUOUS
  0
LAYER
  2
SAPA_FOGBAND
 70
     0
 62
     2
  6
CONTINUOUS
  0
LAYER
  2
SAPA_PROFIL
 70
     0
 62
     7
  6
CONTINUOUS
  0
LAYER
  2
SAPA_ISOLATOR
 70
     0
 62
     4
  6
CONTINUOUS
  0
LAYER
  2
SAPA_MATT
 70
     0
 62
     1
  6
CONTINUOUS
  0
ENDTAB
  0
TABLE
  2
STYLE
 70
     2
  0
STYLE
  2
STANDARD
 70
     0
 40
0.0
 41
1.0
 50
0.0
 71
     0
 42
0.2
  3
txt
  4

  0
STYLE
  2
ISO
 70
     0
 40
0.0
 41
1.0
 50
0.0
 71
     0
 42
3.5
  3
txt
  4

  0
ENDTAB
  0
TABLE
  2
VIEW
 70
     0
  0
ENDTAB
  0
TABLE
  2
UCS
 70
     0
  0
ENDTAB
  0
TABLE
  2
APPID
 70
    21
  0
APPID
  2
ACAD
 70
     0
  0
APPID
  2
ACAD_DSTYLE_DIMTEXT_FILL
 70
     0
  0
APPID
  2
ACAD_DSTYLE_DIMEXT_LENGTH
 70
     0
  0
APPID
  2
ACAD_DSTYLE_DIMEXT_ENABLED
 70
     0
  0
APPID
  2
ACAD_DSTYLE_DIM_LINETYPE
 70
     0
  0
APPID
  2
ACAD_DSTYLE_DIM_EXT1_LINETYPE
 70
     0
  0
APPID
  2
ACAD_DSTYLE_DIM_EXT2_LINETYPE
 70
     0
  0
APPID
  2
ACAD_DSTYLE_DIMJOGGED_JOGA
 70
     0
  0
APPID
  2
ACAD_DSTYLE_DIMARC_LENGTH_
 70
     0
  0
APPID
  2
ACAD_PSEXT
 70
     0
  0
APPID
  2
ACAD_MLEADERVER
 70
     0
  0
APPID
  2
ACAD_NAV_VCDISPLAY
 70
     0
  0
APPID
  2
GENIUS_GENODEF_13
 70
     0
  0
APPID
  2
RC_PROFILE
 70
     0
  0
APPID
  2
ACAECLAYERSTANDARD
 70
     0
  0
APPID
  2
GENIUS_GENOBJ-N-FIL_13
 70
     0
  0
APPID
  2
GENIUS_GENREC_14
 70
     0
  0
APPID
  2
GENIUS_GENOBJ-N-REC_13
 70
     0
  0
APPID
  2
ACCMTRANSPARENCY
 70
     0
  0
APPID
  2
GRADIENTCOLOR1ACI
 70
     0
  0
APPID
  2
GRADIENTCOLOR2ACI
 70
     0
  0
ENDTAB
  0
TABLE
  2
DIMSTYLE
 70
     2
  0
DIMSTYLE
  2
STANDARD
 70
     0
  3

  4

  5

  6

  7

 40
1.0
 41
0.18
 42
0.0625
 43
0.38
 44
0.18
 45
0.0
 46
0.0
 47
0.0
 48
0.0
140
0.18
141
0.09
142
0.0
143
25.399999999999999
144
1.0
145
0.0
146
1.0
147
0.09
 71
     0
 72
     0
 73
     1
 74
     1
 75
     0
 76
     0
 77
     0
 78
     0
170
     0
171
     2
172
     0
173
     0
174
     0
175
     0
176
     0
177
     0
178
     0
  0
DIMSTYLE
  2
MASKIN
 70
     0
  3

  4

  5

  6

  7

 40
0.0
 41
3.0
 42
1.5
 43
10.0
 44
1.5
 45
0.0
 46
0.0
 47
0.0
 48
0.0
140
3.0
141
-5.0
142
0.0
143
25.399999999999999
144
-1.0
145
0.0
146
1.0
147
1.0
 71
     0
 72
     0
 73
     0
 74
     0
 75
     0
 76
     0
 77
     1
 78
     8
170
     0
171
     0
172
     1
173
     0
174
     0
175
     0
176
   256
177
   256
178
     2
  0
ENDTAB
  0
ENDSEC
  0
SECTION
  2
BLOCKS
  0
BLOCK
  8
0
  2
$MODEL_SPACE
 70
     0
 10
0.0
 20
0.0
 30
0.0
  3
$MODEL_SPACE
  1

  0
ENDBLK
  5
37
  8
0
  0
BLOCK
 67
     1
  8
0
  2
$PAPER_SPACE
 70
     0
 10
0.0
 20
0.0
 30
0.0
  3
$PAPER_SPACE
  1

  0
ENDBLK
  5
35
 67
     1
  8
0
  0
BLOCK
  8
0
  2
*D8
 70
     1
 10
0.0
 20
0.0
 30
0.0
  3
*D8
  1

  0
LINE
  5
1164
  8
SAPA_MATT
 10
145.00000021454071
 20
0.0000000000000067
 30
0.0
 11
185.2500001430266
 21
-0.0000000000000047
 31
0.0
  0
LINE
  5
1165
  8
SAPA_MATT
 10
158.25000014302671
 20
140.0000000000004
 30
0.0
 11
185.2500001430266
 21
140.0000000000004
 31
0.0
  0
LINE
  5
1166
  8
SAPA_MATT
 10
183.7500001430266
 20
2.9999999999999951
 30
0.0
 11
183.75000014302671
 21
137.0000000000004
 31
0.0
  0
SOLID
  5
1167
  8
SAPA_MATT
 10
183.2500001430266
 20
2.9999999999999951
 30
0.0
 11
184.2500001430266
 21
2.9999999999999951
 31
0.0
 12
183.7500001430266
 22
-0.0000000000000043
 32
0.0
 13
183.7500001430266
 23
-0.0000000000000043
 33
0.0
  0
SOLID
  5
1168
  8
SAPA_MATT
 10
183.25000014302671
 20
137.0000000000004
 30
0.0
 11
184.2500001430266
 21
137.0000000000004
 31
0.0
 12
183.75000014302671
 22
140.0000000000004
 32
0.0
 13
183.75000014302671
 23
140.0000000000004
 33
0.0
  0
INSERT
  5
1169
  8
0
  2
*U20
 10
0.0
 20
0.0
 30
0.0
  0
POINT
  5
116A
  8
DEFPOINTS
 62
     0
 10
143.50000021454071
 20
0.0000000000000071
 30
0.0
  0
POINT
  5
116B
  8
DEFPOINTS
 62
     0
 10
156.75000014302671
 20
140.0000000000004
 30
0.0
  0
POINT
  5
116C
  8
DEFPOINTS
 62
     0
 10
183.75000014302671
 20
140.0000000000004
 30
0.0
  0
ENDBLK
  5
10DC
  8
0
  0
BLOCK
  8
0
  2
*D9
 70
     1
 10
0.0
 20
0.0
 30
0.0
  3
*D9
  1

  0
LINE
  5
12B5
  8
SAPA_MATT
 10
146.7500001430266
 20
140.0000000000004
 30
0.0
 11
173.25000014302711
 21
140.0000000000004
 31
0.0
  0
LINE
  5
12B6
  8
SAPA_MATT
 10
140.00000014285109
 20
150.0000000000116
 30
0.0
 11
173.25000014302711
 21
150.0000000000116
 31
0.0
  0
LINE
  5
12B7
  8
SAPA_MATT
 10
171.75000014302711
 20
143.0000000000004
 30
0.0
 11
171.75000014302711
 21
147.0000000000116
 31
0.0
  0
SOLID
  5
12B8
  8
SAPA_MATT
 10
171.25000014302711
 20
143.0000000000004
 30
0.0
 11
172.25000014302711
 21
143.0000000000004
 31
0.0
 12
171.75000014302711
 22
140.0000000000004
 32
0.0
 13
171.75000014302711
 23
140.0000000000004
 33
0.0
  0
SOLID
  5
12B9
  8
SAPA_MATT
 10
171.25000014302711
 20
147.0000000000116
 30
0.0
 11
172.25000014302711
 21
147.0000000000116
 31
0.0
 12
171.75000014302711
 22
150.0000000000116
 32
0.0
 13
171.75000014302711
 23
150.0000000000116
 33
0.0
  0
TEXT
  8
SAPA_MATT
  40
3
  5
12CE
  62
2
  72
0
  71
0
 10
163.250
 20
139.690
 30
0.000000
  1
10
  7
ISO
  0
POINT
  5
12BB
  8
DEFPOINTS
 62
     0
 10
145.25000014302671
 20
140.0000000000004
 30
0.0
  0
POINT
  5
12BC
  8
DEFPOINTS
 62
     0
 10
138.50000014285109
 20
150.0000000000116
 30
0.0
  0
POINT
  5
12BD
  8
DEFPOINTS
 62
     0
 10
171.75000014302711
 20
150.0000000000116
 30
0.0
  0
ENDBLK
  5
10E8
  8
0
  0
BLOCK
  8
0
  2
*D10
 70
     1
 10
0.0
 20
0.0
 30
0.0
  3
*D10
  1

  0
LINE
  5
1152
  8
SAPA_MATT
 10
146.87500014302671
 20
23.000000000000458
 30
0.0
 11
173.2500001430266
 21
23.000000000000458
 31
0.0
  0
LINE
  5
1153
  8
SAPA_MATT
 10
146.7500001430266
 20
140.0000000000004
 30
0.0
 11
173.25000014302671
 21
140.0000000000004
 31
0.0
  0
LINE
  5
1154
  8
SAPA_MATT
 10
171.7500001430266
 20
26.000000000000458
 30
0.0
 11
171.7500001430266
 21
137.0000000000004
 31
0.0
  0
SOLID
  5
1155
  8
SAPA_MATT
 10
171.2500001430266
 20
26.000000000000458
 30
0.0
 11
172.2500001430266
 21
26.000000000000458
 31
0.0
 12
171.7500001430266
 22
23.000000000000458
 32
0.0
 13
171.7500001430266
 23
23.000000000000458
 33
0.0
  0
SOLID
  5
1156
  8
SAPA_MATT
 10
171.25000014302671
 20
137.0000000000004
 30
0.0
 11
172.25000014302671
 21
137.0000000000004
 31
0.0
 12
171.7500001430266
 22
140.0000000000004
 32
0.0
 13
171.7500001430266
 23
140.0000000000004
 33
0.0
  0
INSERT
  5
1157
  8
0
  2
*U19
 10
0.0
 20
0.0
 30
0.0
  0
POINT
  5
1158
  8
DEFPOINTS
 62
     0
 10
145.37500014302671
 20
23.000000000000458
 30
0.0
  0
POINT
  5
1159
  8
DEFPOINTS
 62
     0
 10
145.25000014302671
 20
140.0000000000004
 30
0.0
  0
POINT
  5
115A
  8
DEFPOINTS
 62
     0
 10
171.7500001430266
 20
140.0000000000004
 30
0.0
  0
ENDBLK
  5
10F4
  8
0
  0
BLOCK
  8
0
  2
*D11
 70
     1
 10
0.0
 20
0.0
 30
0.0
  3
*D11
  1

  0
LINE
  5
1149
  8
SAPA_MATT
 10
146.75000007151169
 20
139.50000000000219
 30
0.0
 11
146.75000007151169
 21
194.5000000000002
 31
0.0
  0
LINE
  5
114A
  8
SAPA_MATT
 10
-3.249999928485976
 20
139.50000000000219
 30
0.0
 11
-3.2499999284859729
 21
194.5000000000002
 31
0.0
  0
LINE
  5
114B
  8
SAPA_MATT
 10
143.75000007151169
 20
193.0000000000002
 30
0.0
 11
-0.2499999284859733
 21
193.0000000000002
 31
0.0
  0
SOLID
  5
114C
  8
SAPA_MATT
 10
143.75000007151169
 20
193.5000000000002
 30
0.0
 11
143.75000007151169
 21
192.5000000000002
 31
0.0
 12
146.75000007151169
 22
193.0000000000002
 32
0.0
 13
146.75000007151169
 23
193.0000000000002
 33
0.0
  0
SOLID
  5
114D
  8
SAPA_MATT
 10
-0.2499999284859733
 20
193.5000000000002
 30
0.0
 11
-0.2499999284859733
 21
192.5000000000002
 31
0.0
 12
-3.2499999284859729
 22
193.0000000000002
 32
0.0
 13
-3.2499999284859729
 23
193.0000000000002
 33
0.0
  0
INSERT
  5
114E
  8
0
  2
*U18
 10
0.0
 20
0.0
 30
0.0
  0
POINT
  5
114F
  8
DEFPOINTS
 62
     0
 10
146.75000007151169
 20
138.00000000000219
 30
0.0
  0
POINT
  5
1150
  8
DEFPOINTS
 62
     0
 10
-3.249999928485976
 20
138.00000000000219
 30
0.0
  0
POINT
  5
1151
  8
DEFPOINTS
 62
     0
 10
-3.2499999284859729
 20
193.0000000000002
 30
0.0
  0
ENDBLK
  5
1100
  8
0
  0
BLOCK
  8
0
  2
*D12
 70
     1
 10
0.0
 20
0.0
 30
0.0
  3
*D12
  1

  0
LINE
  5
12AC
  8
SAPA_MATT
 10
81.75000007184326
 20
136.5000000010341
 30
0.0
 11
81.75000007184326
 21
182.5000000000002
 31
0.0
  0
LINE
  5
12AD
  8
SAPA_MATT
 10
-3.2499999287319952
 20
140.0
 30
0.0
 11
-3.2499999287319921
 21
182.5000000000002
 31
0.0
  0
LINE
  5
12AE
  8
SAPA_MATT
 10
78.75000007184326
 20
181.0000000000002
 30
0.0
 11
-0.2499999287319925
 21
181.0000000000002
 31
0.0
  0
SOLID
  5
12AF
  8
SAPA_MATT
 10
78.75000007184326
 20
181.5000000000002
 30
0.0
 11
78.75000007184326
 21
180.5000000000002
 31
0.0
 12
81.75000007184326
 22
181.0000000000002
 32
0.0
 13
81.75000007184326
 23
181.0000000000002
 33
0.0
  0
SOLID
  5
12B0
  8
SAPA_MATT
 10
-0.2499999287319925
 20
181.5000000000002
 30
0.0
 11
-0.2499999287319925
 21
180.5000000000002
 31
0.0
 12
-3.2499999287319921
 22
181.0000000000002
 32
0.0
 13
-3.2499999287319921
 23
181.0000000000002
 33
0.0
  0
TEXT
  8
SAPA_MATT
  40
3
  5
12CF
  62
2
  72
0
  71
0
 10
33.2500
 20
178.190
 30
0.000000
  1
85
  7
ISO
  0
POINT
  5
12B2
  8
DEFPOINTS
 62
     0
 10
81.75000007184326
 20
135.0000000010341
 30
0.0
  0
POINT
  5
12B3
  8
DEFPOINTS
 62
     0
 10
-3.2499999287319952
 20
138.5
 30
0.0
  0
POINT
  5
12B4
  8
DEFPOINTS
 62
     0
 10
-3.2499999287319921
 20
181.0000000000002
 30
0.0
  0
ENDBLK
  5
110C
  8
0
  0
BLOCK
  8
0
  2
*D13
 70
     1
 10
0.0
 20
0.0
 30
0.0
  3
*D13
  1

  0
LINE
  5
12A3
  8
SAPA_MATT
 10
138.75000007118109
 20
136.5000000010341
 30
0.0
 11
138.75000007118109
 21
182.5000000000002
 31
0.0
  0
LINE
  5
12A4
  8
SAPA_MATT
 10
81.75000007184326
 20
136.5000000010341
 30
0.0
 11
81.75000007184326
 21
182.5000000000002
 31
0.0
  0
LINE
  5
12A5
  8
SAPA_MATT
 10
135.75000007118109
 20
181.0000000000002
 30
0.0
 11
84.750000071843246
 21
181.0000000000002
 31
0.0
  0
SOLID
  5
12A6
  8
SAPA_MATT
 10
135.75000007118109
 20
181.5000000000002
 30
0.0
 11
135.75000007118109
 21
180.5000000000002
 31
0.0
 12
138.75000007118109
 22
181.0000000000002
 32
0.0
 13
138.75000007118109
 23
181.0000000000002
 33
0.0
  0
SOLID
  5
12A7
  8
SAPA_MATT
 10
84.750000071843246
 20
181.5000000000002
 30
0.0
 11
84.750000071843246
 21
180.5000000000002
 31
0.0
 12
81.75000007184326
 22
181.0000000000002
 32
0.0
 13
81.75000007184326
 23
181.0000000000002
 33
0.0
  0
TEXT
  8
SAPA_MATT
  40
3
  5
12D0
  62
2
  72
0
  71
0
 10
104.250
 20
178.190
 30
0.000000
  1
57
  7
ISO
  0
POINT
  5
12A9
  8
DEFPOINTS
 62
     0
 10
138.75000007118109
 20
135.0000000010341
 30
0.0
  0
POINT
  5
12AA
  8
DEFPOINTS
 62
     0
 10
81.75000007184326
 20
135.0000000010341
 30
0.0
  0
POINT
  5
12AB
  8
DEFPOINTS
 62
     0
 10
81.75000007184326
 20
181.0000000000002
 30
0.0
  0
ENDBLK
  5
1118
  8
0
  0
BLOCK
  8
0
  2
*D14
 70
     1
 10
0.0
 20
0.0
 30
0.0
  3
*D14
  1

  0
LINE
  5
112E
  8
SAPA_MATT
 10
146.75000007151169
 20
139.50000000000219
 30
0.0
 11
146.75000007151169
 21
182.5000000000002
 31
0.0
  0
LINE
  5
112F
  8
SAPA_MATT
 10
138.75000007118109
 20
136.5000000010341
 30
0.0
 11
138.75000007118109
 21
182.5000000000002
 31
0.0
  0
LINE
  5
1130
  8
SAPA_MATT
 10
143.75000007151169
 20
181.0000000000002
 30
0.0
 11
141.75000007118109
 21
181.0000000000002
 31
0.0
  0
SOLID
  5
1131
  8
SAPA_MATT
 10
143.75000007151169
 20
181.5000000000002
 30
0.0
 11
143.75000007151169
 21
180.5000000000002
 31
0.0
 12
146.75000007151169
 22
181.0000000000002
 32
0.0
 13
146.75000007151169
 23
181.0000000000002
 33
0.0
  0
SOLID
  5
1132
  8
SAPA_MATT
 10
141.75000007118109
 20
181.5000000000002
 30
0.0
 11
141.75000007118109
 21
180.5000000000002
 31
0.0
 12
138.75000007118109
 22
181.0000000000002
 32
0.0
 13
138.75000007118109
 23
181.0000000000002
 33
0.0
  0
INSERT
  5
1133
  8
0
  2
*U17
 10
0.0
 20
0.0
 30
0.0
  0
POINT
  5
1134
  8
DEFPOINTS
 62
     0
 10
146.75000007151169
 20
138.00000000000219
 30
0.0
  0
POINT
  5
1135
  8
DEFPOINTS
 62
     0
 10
138.75000007118109
 20
135.0000000010341
 30
0.0
  0
POINT
  5
1136
  8
DEFPOINTS
 62
     0
 10
138.75000007118109
 20
181.0000000000002
 30
0.0
  0
ENDBLK
  5
1124
  8
0
  0
BLOCK
  8
0
  2
*X15
 70
     1
 10
0.0
 20
0.0
 30
0.0
  3
*X15
  1

  0
LINE
  5
11DA
  8
0
 62
     0
 10
156.75000007151169
 20
139.79095488711579
 30
0.0
 11
156.58595721819231
 21
139.9549977404352
 31
0.0
  0
LINE
  5
11DB
  8
0
 62
     0
 10
156.75000007151169
 20
138.6684228719821
 30
0.0
 11
155.68841317915269
 21
139.7300097643411
 31
0.0
  0
LINE
  5
11DC
  8
0
 62
     0
 10
156.75000007151169
 20
137.5458908568485
 30
0.0
 11
154.7613192801858
 21
139.53457164817439
 31
0.0
  0
LINE
  5
11DD
  8
0
 62
     0
 10
156.75000007151169
 20
136.4233588417149
 30
0.0
 11
153.80237159059911
 21
139.37098732262751
 31
0.0
  0
LINE
  5
11DE
  8
0
 62
     0
 10
156.75000007151169
 20
135.30082682658119
 30
0.0
 11
152.80878479857341
 21
139.24204209951949
 31
0.0
  0
LINE
  5
11DF
  8
0
 62
     0
 10
156.75000007151169
 20
134.17829481144761
 30
0.0
 11
151.7771487365064
 21
139.1511461464529
 31
0.0
  0
LINE
  5
11E0
  8
0
 62
     0
 10
156.75000007151169
 20
133.0557627963139
 30
0.0
 11
150.7032229471497
 21
139.10253992067589
 31
0.0
  0
LINE
  5
11E1
  8
0
 62
     0
 10
156.75000007151169
 20
131.93323078118021
 30
0.0
 11
149.58163305974711
 21
139.10159779294489
 31
0.0
  0
LINE
  5
11E2
  8
0
 62
     0
 10
156.75000007151169
 20
130.81069876604661
 30
0.0
 11
148.40540457829201
 21
139.1552942592663
 31
0.0
  0
LINE
  5
11E3
  8
0
 62
     0
 10
153.5160867096524
 20
132.92208011277231
 30
0.0
 11
147.1652127030751
 21
139.27295411934949
 31
0.0
  0
LINE
  5
11E4
  8
0
 62
     0
 10
156.75000007151169
 20
129.68816675091301
 30
0.0
 11
156.18999021341349
 21
130.2481766090111
 31
0.0
  0
LINE
  5
11E5
  8
0
 62
     0
 10
152.0407395721675
 20
133.27489523512361
 30
0.0
 11
146.69452205764321
 21
138.62111274964781
 31
0.0
  0
LINE
  5
11E6
  8
0
 62
     0
 10
156.75000007151169
 20
128.5656347357793
 30
0.0
 11
156.673636229778
 21
128.64199857751299
 31
0.0
  0
LINE
  5
11E7
  8
0
 62
     0
 10
150.97638586211909
 20
133.2167169300383
 30
0.0
 11
146.75000007151169
 21
137.4431027206457
 31
0.0
  0
LINE
  5
11E8
  8
0
 62
     0
 10
150.10075455452289
 20
132.9698162225009
 30
0.0
 11
146.75000007151169
 21
136.32057070551201
 31
0.0
  0
LINE
  5
11E9
  8
0
 62
     0
 10
149.35217587509271
 20
132.59586288679739
 30
0.0
 11
146.75000007151169
 21
135.19803869037841
 31
0.0
  0
LINE
  5
11EA
  8
0
 62
     0
 10
148.70430376862251
 20
132.12120297813391
 30
0.0
 11
146.75000007151169
 21
134.0755066752447
 31
0.0
  0
LINE
  5
11EB
  8
0
 62
     0
 10
148.1448148604108
 20
131.55815987121201
 30
0.0
 11
146.75000007151169
 21
132.9529746601111
 31
0.0
  0
LINE
  5
11EC
  8
0
 62
     0
 10
147.66916178373771
 20
130.9112809327514
 30
0.0
 11
146.75000007151169
 21
131.83044264497741
 31
0.0
  0
LINE
  5
11ED
  8
0
 62
     0
 10
147.27875239819309
 20
130.17915830316241
 30
0.0
 11
146.75000007151169
 21
130.70791062984381
 31
0.0
  0
LINE
  5
11EE
  8
0
 62
     0
 10
146.98148761194051
 20
129.35389107428139
 30
0.0
 11
146.75000007151169
 21
129.58537861471021
 31
0.0
  0
LINE
  5
11EF
  8
0
 62
     0
 10
146.79522048547221
 20
128.417626185616
 30
0.0
 11
146.75000007151169
 21
128.46284659957649
 31
0.0
  0
LINE
  5
11F0
  8
0
 62
     0
 10
156.7427991217817
 20
127.9649176159822
 30
0.0
 11
156.75000007151169
 21
127.97211856571219
 31
0.0
  0
LINE
  5
11F1
  8
0
 62
     0
 10
156.61518592238571
 20
128.95983643171979
 30
0.0
 11
156.75000007151169
 21
129.09465058084581
 31
0.0
  0
LINE
  5
11F2
  8
0
 62
     0
 10
156.36341586147839
 20
129.8305983859461
 30
0.0
 11
156.75000007151169
 21
130.21718259597949
 31
0.0
  0
LINE
  5
11F3
  8
0
 62
     0
 10
156.0122932044691
 20
130.60200774407051
 30
0.0
 11
156.75000007151169
 21
131.3397146111131
 31
0.0
  0
LINE
  5
11F4
  8
0
 62
     0
 10
155.57338671912149
 20
131.2856332738566
 30
0.0
 11
156.75000007151169
 21
132.46224662624681
 31
0.0
  0
LINE
  5
11F5
  8
0
 62
     0
 10
155.05074318506641
 20
131.8855217549351
 30
0.0
 11
156.75000007151169
 21
133.58477864138041
 31
0.0
  0
LINE
  5
11F6
  8
0
 62
     0
 10
154.4424910395733
 20
132.39980162457559
 30
0.0
 11
156.75000007151169
 21
134.70731065651401
 31
0.0
  0
LINE
  5
11F7
  8
0
 62
     0
 10
153.7401225276268
 20
132.81996512776271
 30
0.0
 11
156.75000007151169
 21
135.8298426716477
 31
0.0
  0
LINE
  5
11F8
  8
0
 62
     0
 10
152.92469802044781
 20
133.12707263571741
 30
0.0
 11
156.75000007151169
 21
136.9523746867813
 31
0.0
  0
LINE
  5
11F9
  8
0
 62
     0
 10
151.95478306915749
 20
133.27968969956069
 30
0.0
 11
156.75000007151169
 21
138.07490670191501
 31
0.0
  0
LINE
  5
11FA
  8
0
 62
     0
 10
146.75000007151169
 20
128.07490670191501
 30
0.0
 11
146.76437518929299
 21
128.08928181969631
 31
0.0
  0
LINE
  5
11FB
  8
0
 62
     0
 10
150.71528958385929
 20
133.16272822939621
 30
0.0
 11
156.75000007151169
 21
139.19743871704861
 31
0.0
  0
LINE
  5
11FC
  8
0
 62
     0
 10
146.75000007151169
 20
129.19743871704861
 30
0.0
 11
147.0121675534707
 21
129.4596061990076
 31
0.0
  0
LINE
  5
11FD
  8
0
 62
     0
 10
146.75000007151169
 20
130.3199707321823
 30
0.0
 11
156.31276098090521
 21
139.88273164157579
 31
0.0
  0
LINE
  5
11FE
  8
0
 62
     0
 10
146.75000007151169
 20
131.4425027473159
 30
0.0
 11
154.86138375029219
 21
139.55388642609631
 31
0.0
  0
LINE
  5
11FF
  8
0
 62
     0
 10
146.75000007151169
 20
132.5650347624495
 30
0.0
 11
153.51435958598071
 21
139.32939427691849
 31
0.0
  0
LINE
  5
1200
  8
0
 62
     0
 10
146.75000007151169
 20
133.68756677758321
 30
0.0
 11
152.249825574819
 21
139.18739228089049
 31
0.0
  0
LINE
  5
1201
  8
0
 62
     0
 10
146.75000007151169
 20
134.8100987927169
 30
0.0
 11
151.0531449209727
 21
139.11324364217779
 31
0.0
  0
LINE
  5
1202
  8
0
 62
     0
 10
146.75000007151169
 20
135.9326308078505
 30
0.0
 11
149.9139455534366
 21
139.09657628977541
 31
0.0
  0
LINE
  5
1203
  8
0
 62
     0
 10
146.75000007151169
 20
137.0551628229841
 30
0.0
 11
148.82456122789301
 21
139.12972397936539
 31
0.0
  0
LINE
  5
1204
  8
0
 62
     0
 10
146.75000007151169
 20
138.17769483811779
 30
0.0
 11
147.7791391871508
 21
139.2068339537569
 31
0.0
  0
LINE
  5
1205
  8
0
 62
     0
 10
146.46874156339061
 20
139.0189683451303
 30
0.0
 11
146.7730956759959
 21
139.3233224577356
 31
0.0
  0
ENDBLK
  5
1207
  8
0
  0
BLOCK
  8
0
  2
*X16
 70
     1
 10
0.0
 20
0.0
 30
0.0
  3
*X16
  1

  0
LINE
  5
1209
  8
0
 62
     0
 10
156.1812285220671
 20
126.74373365256039
 30
0.0
 11
156.57810352206701
 21
127.4311413168143
 31
0.0
  0
LINE
  5
120A
  8
0
 62
     0
 10
154.99060352206709
 20
124.6815106597987
 30
0.0
 11
155.38747852206711
 21
125.3689183240526
 31
0.0
  0
LINE
  5
120B
  8
0
 62
     0
 10
153.79997852206711
 20
122.619287667037
 30
0.0
 11
154.1968535220671
 21
123.3066953312909
 31
0.0
  0
LINE
  5
120C
  8
0
 62
     0
 10
156.1812288065631
 20
129.49336414532209
 30
0.0
 11
156.36830681791841
 21
129.81739276596829
 31
0.0
  0
LINE
  5
120D
  8
0
 62
     0
 10
154.99060380656309
 20
127.4311411525604
 30
0.0
 11
155.38747880656311
 21
128.1185488168143
 31
0.0
  0
LINE
  5
120E
  8
0
 62
     0
 10
153.79997880656319
 20
125.3689181597987
 30
0.0
 11
154.19685380656321
 21
126.05632582405261
 31
0.0
  0
LINE
  5
120F
  8
0
 62
     0
 10
152.60935380656321
 20
123.30669516703701
 30
0.0
 11
153.0062288065632
 21
123.9941028312909
 31
0.0
  0
LINE
  5
1210
  8
0
 62
     0
 10
154.9906040910592
 20
130.1807716453221
 30
0.0
 11
155.38747909105919
 21
130.86817930957599
 31
0.0
  0
LINE
  5
1211
  8
0
 62
     0
 10
153.79997909105921
 20
128.11854865256041
 30
0.0
 11
154.19685409105921
 21
128.8059563168143
 31
0.0
  0
LINE
  5
1212
  8
0
 62
     0
 10
152.6093540910592
 20
126.0563256597987
 30
0.0
 11
153.0062290910592
 21
126.7437333240526
 31
0.0
  0
LINE
  5
1213
  8
0
 62
     0
 10
151.4187290910593
 20
123.994102667037
 30
0.0
 11
151.81560409105921
 21
124.68151033129089
 31
0.0
  0
LINE
  5
1214
  8
0
 62
     0
 10
150.41048081648819
 20
122.2477654288363
 30
0.0
 11
150.62497909105929
 21
122.6192873385292
 31
0.0
  0
LINE
  5
1215
  8
0
 62
     0
 10
153.7999793755553
 20
130.86817914532199
 30
0.0
 11
154.19685437555529
 21
131.55558680957591
 31
0.0
  0
LINE
  5
1216
  8
0
 62
     0
 10
152.60935437555531
 20
128.80595615256041
 30
0.0
 11
153.00622937555531
 21
129.49336381681431
 31
0.0
  0
LINE
  5
1217
  8
0
 62
     0
 10
151.4187293755553
 20
126.74373315979869
 30
0.0
 11
151.8156043755553
 21
127.4311408240526
 31
0.0
  0
LINE
  5
1218
  8
0
 62
     0
 10
150.2281043755554
 20
124.681510167037
 30
0.0
 11
150.62497937555531
 21
125.3689178312909
 31
0.0
  0
LINE
  5
1219
  8
0
 62
     0
 10
149.1698321404424
 20
122.84852888758191
 30
0.0
 11
149.43435437555539
 21
123.3066948385292
 31
0.0
  0
LINE
  5
121A
  8
0
 62
     0
 10
152.60935466005139
 20
131.55558664532211
 30
0.0
 11
153.00622966005139
 21
132.24299430957601
 31
0.0
  0
LINE
  5
121B
  8
0
 62
     0
 10
151.41872966005141
 20
129.49336365256039
 30
0.0
 11
151.81560466005141
 21
130.18077131681429
 31
0.0
  0
LINE
  5
121C
  8
0
 62
     0
 10
150.2281046600514
 20
127.4311406597987
 30
0.0
 11
150.62497966005139
 21
128.1185483240526
 31
0.0
  0
LINE
  5
121D
  8
0
 62
     0
 10
149.03747966005139
 20
125.368917667037
 30
0.0
 11
149.4343546600515
 21
126.05632533129091
 31
0.0
  0
LINE
  5
121E
  8
0
 62
     0
 10
148.126164787329
 20
123.7904740057885
 30
0.0
 11
148.2437296600514
 21
123.9941023385292
 31
0.0
  0
LINE
  5
121F
  8
0
 62
     0
 10
151.41872994454749
 20
132.24299414532209
 30
0.0
 11
151.81560494454749
 21
132.93040180957601
 31
0.0
  0
LINE
  5
1220
  8
0
 62
     0
 10
150.22810494454751
 20
130.1807711525604
 30
0.0
 11
150.6249799445475
 21
130.86817881681429
 31
0.0
  0
LINE
  5
1221
  8
0
 62
     0
 10
149.0374799445475
 20
128.11854815979871
 30
0.0
 11
149.43435494454749
 21
128.8059558240526
 31
0.0
  0
LINE
  5
1222
  8
0
 62
     0
 10
147.84685494454749
 20
126.056325167037
 30
0.0
 11
148.24372994454751
 21
126.7437328312909
 31
0.0
  0
LINE
  5
1223
  8
0
 62
     0
 10
150.22810522904359
 20
132.93040164532201
 30
0.0
 11
150.29131353469199
 21
133.0398816421654
 31
0.0
  0
LINE
  5
1224
  8
0
 62
     0
 10
149.03748022904361
 20
130.86817865256029
 30
0.0
 11
149.4343552290436
 21
131.55558631681421
 31
0.0
  0
LINE
  5
1225
  8
0
 62
     0
 10
147.8468552290436
 20
128.80595565979871
 30
0.0
 11
148.24373022904359
 21
129.49336332405261
 31
0.0
  0
LINE
  5
1226
  8
0
 62
     0
 10
146.78797150801819
 20
126.971915255675
 30
0.0
 11
147.05310522904361
 21
127.43114033129091
 31
0.0
  0
LINE
  5
1227
  8
0
 62
     0
 10
154.1968435647039
 20
131.55555658685881
 30
0.0
 11
153.7999685647039
 21
132.24296425111271
 31
0.0
  0
LINE
  5
1228
  8
0
 62
     0
 10
155.38746856470391
 20
129.49333359409709
 30
0.0
 11
154.99059356470389
 21
130.18074125835099
 31
0.0
  0
LINE
  5
1229
  8
0
 62
     0
 10
156.57809356470381
 20
127.4311106013354
 30
0.0
 11
156.1812185647039
 21
128.1185182655893
 31
0.0
  0
LINE
  5
122A
  8
0
 62
     0
 10
151.8155938491999
 20
132.9303720796205
 30
0.0
 11
151.6124209475567
 21
133.2822778679878
 31
0.0
  0
LINE
  5
122B
  8
0
 62
     0
 10
153.00621884919991
 20
130.86814908685881
 30
0.0
 11
152.60934384919989
 21
131.5555567511127
 31
0.0
  0
LINE
  5
122C
  8
0
 62
     0
 10
154.19684384919989
 20
128.80592609409709
 30
0.0
 11
153.7999688491999
 21
129.49333375835101
 31
0.0
  0
LINE
  5
122D
  8
0
 62
     0
 10
155.38746884919991
 20
126.7437031013354
 30
0.0
 11
154.99059384919991
 21
127.4311107655893
 31
0.0
  0
LINE
  5
122E
  8
0
 62
     0
 10
156.2589947621025
 20
125.2341759400753
 30
0.0
 11
156.18121884919989
 21
125.36888777282761
 31
0.0
  0
LINE
  5
122F
  8
0
 62
     0
 10
150.62496913369611
 20
132.24296457962049
 30
0.0
 11
150.22809413369609
 21
132.93037224387439
 31
0.0
  0
LINE
  5
1230
  8
0
 62
     0
 10
151.8155941336961
 20
130.1807415868588
 30
0.0
 11
151.4187191336961
 21
130.8681492511127
 31
0.0
  0
LINE
  5
1231
  8
0
 62
     0
 10
153.00621913369599
 20
128.11851859409711
 30
0.0
 11
152.60934413369611
 21
128.80592625835101
 31
0.0
  0
LINE
  5
1232
  8
0
 62
     0
 10
154.196844133696
 20
126.05629560133541
 30
0.0
 11
153.79996913369601
 21
126.7437032655893
 31
0.0
  0
LINE
  5
1233
  8
0
 62
     0
 10
155.38746913369599
 20
123.9940726085737
 30
0.0
 11
154.99059413369599
 21
124.6814802728276
 31
0.0
  0
LINE
  5
1234
  8
0
 62
     0
 10
149.43434441819221
 20
131.5555570796204
 30
0.0
 11
149.03746941819219
 21
132.24296474387441
 31
0.0
  0
LINE
  5
1235
  8
0
 62
     0
 10
150.62496941819219
 20
129.49333408685879
 30
0.0
 11
150.2280944181922
 21
130.18074175111269
 31
0.0
  0
LINE
  5
1236
  8
0
 62
     0
 10
151.81559441819221
 20
127.4311110940971
 30
0.0
 11
151.41871941819221
 21
128.118518758351
 31
0.0
  0
LINE
  5
1237
  8
0
 62
     0
 10
153.0062194181921
 20
125.3688881013354
 30
0.0
 11
152.60934441819211
 21
126.0562957655893
 31
0.0
  0
LINE
  5
1238
  8
0
 62
     0
 10
154.19684441819209
 20
123.3066651085737
 30
0.0
 11
153.79996941819209
 21
123.99407277282759
 31
0.0
  0
LINE
  5
1239
  8
0
 62
     0
 10
148.2437197026882
 20
130.86814957962051
 30
0.0
 11
147.96983920500779
 21
131.3425245168053
 31
0.0
  0
LINE
  5
123A
  8
0
 62
     0
 10
149.43434470268821
 20
128.80592658685879
 30
0.0
 11
149.03746970268821
 21
129.49333425111271
 31
0.0
  0
LINE
  5
123B
  8
0
 62
     0
 10
150.62496970268819
 20
126.7437035940971
 30
0.0
 11
150.2280947026882
 21
127.431111258351
 31
0.0
  0
LINE
  5
123C
  8
0
 62
     0
 10
151.8155947026882
 20
124.68148060133539
 30
0.0
 11
151.41871970268821
 21
125.36888826558931
 31
0.0
  0
LINE
  5
123D
  8
0
 62
     0
 10
153.00621970268821
 20
122.6192576085737
 30
0.0
 11
152.60934470268819
 21
123.3066652728276
 31
0.0
  0
LINE
  5
123E
  8
0
 62
     0
 10
148.24371998718431
 20
128.11851908685881
 30
0.0
 11
147.84684498718431
 21
128.80592675111271
 31
0.0
  0
LINE
  5
123F
  8
0
 62
     0
 10
149.43434498718429
 20
126.05629609409711
 30
0.0
 11
149.03746998718429
 21
126.743703758351
 31
0.0
  0
LINE
  5
1240
  8
0
 62
     0
 10
150.6249699871843
 20
123.9940731013355
 30
0.0
 11
150.22809498718431
 21
124.6814807655894
 31
0.0
  0
LINE
  5
1241
  8
0
 62
     0
 10
151.75183149104481
 20
122.04229172355549
 30
0.0
 11
151.41871998718429
 21
122.61925777282759
 31
0.0
  0
LINE
  5
1242
  8
0
 62
     0
 10
147.05309527168041
 20
127.4311115868588
 30
0.0
 11
146.75628934162339
 21
127.94519453770521
 31
0.0
  0
LINE
  5
1243
  8
0
 62
     0
 10
148.24372027168039
 20
125.3688885940971
 30
0.0
 11
147.84684527168039
 21
126.056296258351
 31
0.0
  0
LINE
  5
1244
  8
0
 62
     0
 10
149.4343452716804
 20
123.3066656013354
 30
0.0
 11
149.03747027168041
 21
123.99407326558929
 31
0.0
  0
LINE
  5
1245
  8
0
 62
     0
 10
153.00625014377059
 20
122.6192649999991
 30
0.0
 11
153.8000001437706
 21
122.6192649999991
 31
0.0
  0
LINE
  5
1246
  8
0
 62
     0
 10
150.62500014377059
 20
122.6192649999991
 30
0.0
 11
151.41875014377061
 21
122.6192649999991
 31
0.0
  0
LINE
  5
1247
  8
0
 62
     0
 10
155.38750014377061
 20
123.9940799999991
 30
0.0
 11
155.5377723255146
 21
123.9940799999991
 31
0.0
  0
LINE
  5
1248
  8
0
 62
     0
 10
153.00625014377059
 20
123.9940799999991
 30
0.0
 11
153.8000001437706
 21
123.9940799999991
 31
0.0
  0
LINE
  5
1249
  8
0
 62
     0
 10
150.62500014377059
 20
123.9940799999991
 30
0.0
 11
151.41875014377061
 21
123.9940799999991
 31
0.0
  0
LINE
  5
124A
  8
0
 62
     0
 10
148.2437501437706
 20
123.9940799999991
 30
0.0
 11
149.03750014377059
 21
123.9940799999991
 31
0.0
  0
LINE
  5
124B
  8
0
 62
     0
 10
155.38750014377061
 20
125.3688949999991
 30
0.0
 11
156.1812501437706
 21
125.3688949999991
 31
0.0
  0
LINE
  5
124C
  8
0
 62
     0
 10
153.00625014377059
 20
125.3688949999991
 30
0.0
 11
153.8000001437706
 21
125.3688949999991
 31
0.0
  0
LINE
  5
124D
  8
0
 62
     0
 10
150.62500014377059
 20
125.3688949999991
 30
0.0
 11
151.41875014377061
 21
125.3688949999991
 31
0.0
  0
LINE
  5
124E
  8
0
 62
     0
 10
148.2437501437706
 20
125.3688949999991
 30
0.0
 11
149.03750014377059
 21
125.3688949999991
 31
0.0
  0
LINE
  5
124F
  8
0
 62
     0
 10
155.38750014377061
 20
126.7437099999991
 30
0.0
 11
156.1812501437706
 21
126.7437099999991
 31
0.0
  0
LINE
  5
1250
  8
0
 62
     0
 10
153.00625014377059
 20
126.7437099999991
 30
0.0
 11
153.8000001437706
 21
126.7437099999991
 31
0.0
  0
LINE
  5
1251
  8
0
 62
     0
 10
150.62500014377059
 20
126.7437099999991
 30
0.0
 11
151.41875014377061
 21
126.7437099999991
 31
0.0
  0
LINE
  5
1252
  8
0
 62
     0
 10
148.2437501437706
 20
126.7437099999991
 30
0.0
 11
149.03750014377059
 21
126.7437099999991
 31
0.0
  0
LINE
  5
1253
  8
0
 62
     0
 10
155.38750014377061
 20
128.1185249999991
 30
0.0
 11
156.1812501437706
 21
128.1185249999991
 31
0.0
  0
LINE
  5
1254
  8
0
 62
     0
 10
153.00625014377059
 20
128.1185249999991
 30
0.0
 11
153.8000001437706
 21
128.1185249999991
 31
0.0
  0
LINE
  5
1255
  8
0
 62
     0
 10
150.62500014377059
 20
128.1185249999991
 30
0.0
 11
151.41875014377061
 21
128.1185249999991
 31
0.0
  0
LINE
  5
1256
  8
0
 62
     0
 10
148.2437501437706
 20
128.1185249999991
 30
0.0
 11
149.03750014377059
 21
128.1185249999991
 31
0.0
  0
LINE
  5
1257
  8
0
 62
     0
 10
155.38750014377061
 20
129.49333999999911
 30
0.0
 11
156.1812501437706
 21
129.49333999999911
 31
0.0
  0
LINE
  5
1258
  8
0
 62
     0
 10
153.00625014377059
 20
129.49333999999911
 30
0.0
 11
153.8000001437706
 21
129.49333999999911
 31
0.0
  0
LINE
  5
1259
  8
0
 62
     0
 10
150.62500014377059
 20
129.49333999999911
 30
0.0
 11
151.41875014377061
 21
129.49333999999911
 31
0.0
  0
LINE
  5
125A
  8
0
 62
     0
 10
148.2437501437706
 20
129.49333999999911
 30
0.0
 11
149.03750014377059
 21
129.49333999999911
 31
0.0
  0
LINE
  5
125B
  8
0
 62
     0
 10
155.38750014377061
 20
130.86815499999909
 30
0.0
 11
155.8577276088395
 21
130.86815499999909
 31
0.0
  0
LINE
  5
125C
  8
0
 62
     0
 10
153.00625014377059
 20
130.86815499999909
 30
0.0
 11
153.8000001437706
 21
130.86815499999909
 31
0.0
  0
LINE
  5
125D
  8
0
 62
     0
 10
150.62500014377059
 20
130.86815499999909
 30
0.0
 11
151.41875014377061
 21
130.86815499999909
 31
0.0
  0
LINE
  5
125E
  8
0
 62
     0
 10
148.2437501437706
 20
130.86815499999909
 30
0.0
 11
149.03750014377059
 21
130.86815499999909
 31
0.0
  0
LINE
  5
125F
  8
0
 62
     0
 10
153.00625014377059
 20
132.2429699999991
 30
0.0
 11
153.8000001437706
 21
132.2429699999991
 31
0.0
  0
LINE
  5
1260
  8
0
 62
     0
 10
150.62500014377059
 20
132.2429699999991
 30
0.0
 11
151.41875014377061
 21
132.2429699999991
 31
0.0
  0
LINE
  5
1261
  8
0
 62
     0
 10
148.85076889117059
 20
132.2429699999991
 30
0.0
 11
149.03750014377059
 21
132.2429699999991
 31
0.0
  0
ENDBLK
  5
1263
  8
0
  0
BLOCK
  8
0
  2
*U17
 70
     1
 10
0.0
 20
0.0
 30
0.0
  3
*U17
  1

  0
TEXT
  5
12BF
  8
SAPA_MATT
 62
     2
 10
141.70000007134621
 20
182.0000000000002
 30
0.0
 40
3.0
  1
8
  7
ISO
  0
ENDBLK
  5
12C1
  8
0
  0
BLOCK
  8
0
  2
*U18
 70
     1
 10
0.0
 20
0.0
 30
0.0
  3
*U18
  1

  0
TEXT
  5
12C3
  8
SAPA_MATT
 62
     2
 10
68.900000071512892
 20
194.0000000000002
 30
0.0
 40
3.0
  1
150
  7
ISO
  0
ENDBLK
  5
12C5
  8
0
  0
BLOCK
  8
0
  2
*U19
 70
     1
 10
0.0
 20
0.0
 30
0.0
  3
*U19
  1

  0
TEXT
  5
12C7
  8
SAPA_MATT
 62
     2
 10
170.7500001430266
 20
78.950000000000472
 30
0.0
 40
3.0
  1
117
 50
90.0
  7
ISO
  0
ENDBLK
  5
12C9
  8
0
  0
BLOCK
  8
0
  2
*U20
 70
     1
 10
0.0
 20
0.0
 30
0.0
  3
*U20
  1

  0
TEXT
  5
12CB
  8
SAPA_MATT
 62
     2
 10
182.7477274157539
 20
62.950000000000237
 30
0.0
 40
3.0
  1
min. 130
 50
90.0
  7
ISO
  0
ENDBLK
  5
12CD
  8
0
  0
ENDSEC
  0
SECTION
  2
ENTITIES
  0
POLYLINE
  5
C3F
  8
SAPA_ANSLUTNING
 66
     1
 10
0.0
 20
0.0
 30
0.0
  0
VERTEX
  5
11C6
  8
SAPA_ANSLUTNING
 10
141.5647173126371
 20
79.681257931111759
 30
0.0
 42
0.3440718810694783
  0
VERTEX
  5
11C7
  8
SAPA_ANSLUTNING
 10
134.75000014311439
 20
70.950591349984052
 30
0.0
  0
VERTEX
  5
11C8
  8
SAPA_ANSLUTNING
 10
134.75000014311439
 20
14.000000000000011
 30
0.0
 42
-0.9999999999999998
  0
VERTEX
  5
11C9
  8
SAPA_ANSLUTNING
 10
116.75000014311441
 20
14.000000000000011
 30
0.0
  0
VERTEX
  5
11CA
  8
SAPA_ANSLUTNING
 10
116.75000014311441
 20
70.950591349984052
 30
0.0
 42
0.9999999999999998
  0
VERTEX
  5
11CB
  8
SAPA_ANSLUTNING
 10
98.750000143114463
 20
70.950591349984052
 30
0.0
  0
VERTEX
  5
11CC
  8
SAPA_ANSLUTNING
 10
98.750000143114463
 20
14.000000000000011
 30
0.0
 42
-0.9999999999999998
  0
VERTEX
  5
11CD
  8
SAPA_ANSLUTNING
 10
80.750000143114448
 20
14.000000000000011
 30
0.0
  0
VERTEX
  5
11CE
  8
SAPA_ANSLUTNING
 10
80.750000143114448
 20
74.150036032519893
 30
0.0
 42
0.9999999999999998
  0
VERTEX
  5
11CF
  8
SAPA_ANSLUTNING
 10
62.750000143114441
 20
74.150036032519893
 30
0.0
  0
VERTEX
  5
11D0
  8
SAPA_ANSLUTNING
 10
62.750000143114441
 20
14.000000000000011
 30
0.0
 42
-0.9999999999999998
  0
VERTEX
  5
11D1
  8
SAPA_ANSLUTNING
 10
44.750000143114448
 20
14.000000000000011
 30
0.0
  0
VERTEX
  5
11D2
  8
SAPA_ANSLUTNING
 10
44.750000143114448
 20
70.950591349984052
 30
0.0
 42
0.9999999999999998
  0
VERTEX
  5
11D3
  8
SAPA_ANSLUTNING
 10
26.750000143114448
 20
70.950591349984052
 30
0.0
  0
VERTEX
  5
11D4
  8
SAPA_ANSLUTNING
 10
26.750000143114448
 20
14.000000000000011
 30
0.0
 42
-0.9999999999999998
  0
VERTEX
  5
11D5
  8
SAPA_ANSLUTNING
 10
8.7500001431144483
 20
14.000000000000011
 30
0.0
  0
VERTEX
  5
11D6
  8
SAPA_ANSLUTNING
 10
8.7500001431144483
 20
70.950591349984052
 30
0.0
 42
0.3440718839558106
  0
VERTEX
  5
11D7
  8
SAPA_ANSLUTNING
 10
1.9352828834635141
 20
79.681257953670865
 30
0.0
  0
SEQEND
  5
11D8
  8
SAPA_ANSLUTNING
  0
LINE
  5
C40
  8
SAPA_ANSLUTNING
 10
-13.24999992848598
 20
140.0000000000004
 30
0.0
 11
-53.741478987571547
 21
140.0000000000004
 31
0.0
  0
LINE
  5
C41
  8
SAPA_ANSLUTNING
 10
-13.24999992848598
 20
-31.29283270962901
 30
0.0
 11
-13.24999992848598
 21
140.00000000000071
 31
0.0
  0
INSERT
  5
C42
  8
SAPA_ANSLUTNING
  6
CONTINUOUS
  2
*X15
 10
0.0
 20
0.0
 30
0.0
1001
ACAD
1000
HATCH
1002
{
1070
    19
1000
ANSI37
1040
0.25
1040
0.0
1000
R14_HATCH_DATA
1000
C42
1011
1.0
1021
0.0
1031
0.0
1021
0.0
1031
0.0
1011
0.0
1021
0.0
1031
0.0
1021
1.0
1031
0.0
1011
0.0
1021
0.0
1031
0.0
1021
0.0
1031
1.0
1040
0.0
1010
0.0
1020
0.0
1030
1.0
1000
ANSI37
1070
     0
1070
     0
1071
        1
1071
        1
1071
        6
1070
     3
1040
151.75000007151169
1040
127.66334876330821
1040
0.0
1040
-5.6210574168242138
1040
0.8895123513655372
1040
1.5707963267948959
1040
2.144309431218002
1070
     0
1070
     3
1040
151.75000007151169
1040
127.66334876330821
1040
0.0
1040
-5.6210574168242138
1040
0.8895123513655372
1040
2.144309431218002
1040
4.7123889803846888
1070
     0
1070
     1
1040
156.75000007151169
1040
127.6633487633089
1040
156.75000007151169
1040
139.99999999998431
1070
     2
1040
150.1216480836469
1040
163.8402727574078
1040
24.744568196341159
1040
1.2996137424103009
1040
1.731417526414984
1070
     0
1070
     2
1040
143.62157892955111
1040
137.14022955549439
1040
3.4111573553875849
1040
5.5535051997728768
1040
5.8731689080954093
1070
     0
1070
     1
1040
146.75000007151169
1040
138.49999999999909
1040
146.75000007151169
1040
127.66334876330841
1071
        0
1070
     0
1070
     1
1040
0.0
1040
0.25
1070
     0
1070
     2
1040
0.7853981633974483
1040
7.7500001437706478
1040
79.999999999999091
1040
-0.5612660075668221
1040
0.5612660075668221
1070
     0
1040
2.3561944901923439
1040
7.7500001437706478
1040
79.999999999999091
1040
-0.5612660075668221
1040
-0.5612660075668221
1070
     0
1071
        1
1040
150.74867649076029
1040
136.42036471292499
1040
0.0
1002
}
  0
LINE
  5
C43
  8
SAPA_ANSLUTNING
 10
-13.24999992848598
 20
0.0000000000000071
 30
0.0
 11
156.75000007151041
 21
0.0000000000000071
 31
0.0
  0
LINE
  5
C44
  8
SAPA_ANSLUTNING
 10
156.75000007151169
 20
139.99999999998411
 30
0.0
 11
201.7532560781701
 21
139.99999999998411
 31
0.0
  0
LINE
  5
C45
  8
SAPA_ANSLUTNING
 10
201.7532560781701
 20
110.9999999999841
 30
0.0
 11
156.75000007151169
 21
110.9999999999841
 31
0.0
  0
LINE
  5
C46
  8
SAPA_ANSLUTNING
 10
156.75000007151129
 20
0.0000000000000071
 30
0.0
 11
156.75000007151169
 21
139.99999999998411
 31
0.0
  0
ARC
  5
C47
  8
SAPA_ANSLUTNING
 10
150.12164808364599
 20
163.84027275741639
 30
0.0
 40
24.74456819634975
 50
260.79708316146269
 51
285.53761756269699
  0
INSERT
  5
C48
  8
SAPA_ANSLUTNING
  6
CONTINUOUS
  2
*X16
 10
0.0
 20
0.0
 30
0.0
1001
ACAD
1000
HATCH
1002
{
1070
    19
1000
HEX
1040
0.25
1040
0.0
1000
ASC_BOUNDS
1070
     1
1070
     1
1070
     1
1005
C49
1000
ASC_SEEDPOINT
1011
151.99211008158639
1021
0.0
1031
0.0
1021
127.78168645236489
1031
0.0
1000
R14_HATCH_DATA
1000
C48
1011
1.0
1021
0.0
1031
0.0
1021
0.0
1031
0.0
1011
0.0
1021
0.0
1031
0.0
1021
1.0
1031
0.0
1011
0.0
1021
0.0
1031
0.0
1021
0.0
1031
1.0
1040
0.0
1010
0.0
1020
0.0
1030
1.0
1000
HEX
1070
     0
1070
     1
1071
        1
1071
        5
1071
        1
1070
     3
1040
151.75000007151169
1040
127.66334876330821
1040
0.0
1040
-5.6210574168242138
1040
0.8895123513655372
1040
0.0
1040
6.2831853071795862
1070
     1
1071
        1
1005
C49
1070
     0
1070
     1
1040
0.0
1040
0.25
1070
     0
1070
     3
1040
0.0
1040
7.7500001437706478
1040
79.999999999999091
1040
0.0
1040
1.374814999999999
1070
     2
1040
0.79375
1040
-1.587499999999999
1040
2.0943951023931948
1040
7.7500001437706478
1040
79.999999999999091
1040
-1.190624715503902
1040
-0.6874074999999996
1070
     2
1040
0.7937499999999972
1040
-1.5874999999999939
1040
1.047197551196597
1040
8.5437501437704668
1040
79.999999999999091
1040
-1.190624715503902
1040
0.6874075000000001
1070
     2
1040
0.79375
1040
-1.587499999999999
1040
0.0591690278051155
1071
        1
1040
151.99211008158639
1040
127.78168645236489
1040
0.0
1002
}
  0
POLYLINE
  5
C49
  8
SAPA_ANSLUTNING
 10
151.75000007151169
 20
122.04229134648399
 30
0.0
 66
     1
 70
     8
  0
VERTEX
  8
SAPA_ANSLUTNING
  5
12D1
 10
151.750
 20
122.042
 30
0.000000
  70
    32
  0
VERTEX
  8
SAPA_ANSLUTNING
  5
12D2
 10
151.995
 20
122.049
 30
0.000000
  70
    32
  0
VERTEX
  8
SAPA_ANSLUTNING
  5
12D3
 10
152.240
 20
122.069
 30
0.000000
  70
    32
  0
VERTEX
  8
SAPA_ANSLUTNING
  5
12D4
 10
152.484
 20
122.103
 30
0.000000
  70
    32
  0
VERTEX
  8
SAPA_ANSLUTNING
  5
12D5
 10
152.725
 20
122.150
 30
0.000000
  70
    32
  0
VERTEX
  8
SAPA_ANSLUTNING
  5
12D6
 10
152.965
 20
122.211
 30
0.000000
  70
    32
  0
VERTEX
  8
SAPA_ANSLUTNING
  5
12D7
 10
153.201
 20
122.284
 30
0.000000
  70
    32
  0
VERTEX
  8
SAPA_ANSLUTNING
  5
12D8
 10
153.434
 20
122.371
 30
0.000000
  70
    32
  0
VERTEX
  8
SAPA_ANSLUTNING
  5
12D9
 10
153.663
 20
122.470
 30
0.000000
  70
    32
  0
VERTEX
  8
SAPA_ANSLUTNING
  5
12DA
 10
153.888
 20
122.582
 30
0.000000
  70
    32
  0
VERTEX
  8
SAPA_ANSLUTNING
  5
12DB
 10
154.107
 20
122.706
 30
0.000000
  70
    32
  0
VERTEX
  8
SAPA_ANSLUTNING
  5
12DC
 10
154.321
 20
122.842
 30
0.000000
  70
    32
  0
VERTEX
  8
SAPA_ANSLUTNING
  5
12DD
 10
154.528
 20
122.990
 30
0.000000
  70
    32
  0
VERTEX
  8
SAPA_ANSLUTNING
  5
12DE
 10
154.728
 20
123.148
 30
0.000000
  70
    32
  0
VERTEX
  8
SAPA_ANSLUTNING
  5
12DF
 10
154.922
 20
123.318
 30
0.000000
  70
    32
  0
VERTEX
  8
SAPA_ANSLUTNING
  5
12E0
 10
155.108
 20
123.498
 30
0.000000
  70
    32
  0
VERTEX
  8
SAPA_ANSLUTNING
  5
12E1
 10
155.286
 20
123.689
 30
0.000000
  70
    32
  0
VERTEX
  8
SAPA_ANSLUTNING
  5
12E2
 10
155.455
 20
123.888
 30
0.000000
  70
    32
  0
VERTEX
  8
SAPA_ANSLUTNING
  5
12E3
 10
155.615
 20
124.097
 30
0.000000
  70
    32
  0
VERTEX
  8
SAPA_ANSLUTNING
  5
12E4
 10
155.766
 20
124.315
 30
0.000000
  70
    32
  0
VERTEX
  8
SAPA_ANSLUTNING
  5
12E5
 10
155.907
 20
124.540
 30
0.000000
  70
    32
  0
VERTEX
  8
SAPA_ANSLUTNING
  5
12E6
 10
156.039
 20
124.774
 30
0.000000
  70
    32
  0
VERTEX
  8
SAPA_ANSLUTNING
  5
12E7
 10
156.160
 20
125.014
 30
0.000000
  70
    32
  0
VERTEX
  8
SAPA_ANSLUTNING
  5
12E8
 10
156.270
 20
125.260
 30
0.000000
  70
    32
  0
VERTEX
  8
SAPA_ANSLUTNING
  5
12E9
 10
156.369
 20
125.512
 30
0.000000
  70
    32
  0
VERTEX
  8
SAPA_ANSLUTNING
  5
12EA
 10
156.458
 20
125.770
 30
0.000000
  70
    32
  0
VERTEX
  8
SAPA_ANSLUTNING
  5
12EB
 10
156.535
 20
126.032
 30
0.000000
  70
    32
  0
VERTEX
  8
SAPA_ANSLUTNING
  5
12EC
 10
156.600
 20
126.298
 30
0.000000
  70
    32
  0
VERTEX
  8
SAPA_ANSLUTNING
  5
12ED
 10
156.654
 20
126.567
 30
0.000000
  70
    32
  0
VERTEX
  8
SAPA_ANSLUTNING
  5
12EE
 10
156.696
 20
126.839
 30
0.000000
  70
    32
  0
VERTEX
  8
SAPA_ANSLUTNING
  5
12EF
 10
156.726
 20
127.112
 30
0.000000
  70
    32
  0
VERTEX
  8
SAPA_ANSLUTNING
  5
12F0
 10
156.744
 20
127.388
 30
0.000000
  70
    32
  0
VERTEX
  8
SAPA_ANSLUTNING
  5
12F1
 10
156.750
 20
127.663
 30
0.000000
  70
    32
  0
VERTEX
  8
SAPA_ANSLUTNING
  5
12F2
 10
156.744
 20
127.939
 30
0.000000
  70
    32
  0
VERTEX
  8
SAPA_ANSLUTNING
  5
12F3
 10
156.726
 20
128.214
 30
0.000000
  70
    32
  0
VERTEX
  8
SAPA_ANSLUTNING
  5
12F4
 10
156.696
 20
128.488
 30
0.000000
  70
    32
  0
VERTEX
  8
SAPA_ANSLUTNING
  5
12F5
 10
156.654
 20
128.760
 30
0.000000
  70
    32
  0
VERTEX
  8
SAPA_ANSLUTNING
  5
12F6
 10
156.600
 20
129.029
 30
0.000000
  70
    32
  0
VERTEX
  8
SAPA_ANSLUTNING
  5
12F7
 10
156.535
 20
129.295
 30
0.000000
  70
    32
  0
VERTEX
  8
SAPA_ANSLUTNING
  5
12F8
 10
156.458
 20
129.557
 30
0.000000
  70
    32
  0
VERTEX
  8
SAPA_ANSLUTNING
  5
12F9
 10
156.369
 20
129.814
 30
0.000000
  70
    32
  0
VERTEX
  8
SAPA_ANSLUTNING
  5
12FA
 10
156.270
 20
130.067
 30
0.000000
  70
    32
  0
VERTEX
  8
SAPA_ANSLUTNING
  5
12FB
 10
156.160
 20
130.313
 30
0.000000
  70
    32
  0
VERTEX
  8
SAPA_ANSLUTNING
  5
12FC
 10
156.039
 20
130.553
 30
0.000000
  70
    32
  0
VERTEX
  8
SAPA_ANSLUTNING
  5
12FD
 10
155.907
 20
130.786
 30
0.000000
  70
    32
  0
VERTEX
  8
SAPA_ANSLUTNING
  5
12FE
 10
155.766
 20
131.012
 30
0.000000
  70
    32
  0
VERTEX
  8
SAPA_ANSLUTNING
  5
12FF
 10
155.615
 20
131.229
 30
0.000000
  70
    32
  0
VERTEX
  8
SAPA_ANSLUTNING
  5
1300
 10
155.455
 20
131.438
 30
0.000000
  70
    32
  0
VERTEX
  8
SAPA_ANSLUTNING
  5
1301
 10
155.286
 20
131.638
 30
0.000000
  70
    32
  0
VERTEX
  8
SAPA_ANSLUTNING
  5
1302
 10
155.108
 20
131.828
 30
0.000000
  70
    32
  0
VERTEX
  8
SAPA_ANSLUTNING
  5
1303
 10
154.922
 20
132.008
 30
0.000000
  70
    32
  0
VERTEX
  8
SAPA_ANSLUTNING
  5
1304
 10
154.728
 20
132.178
 30
0.000000
  70
    32
  0
VERTEX
  8
SAPA_ANSLUTNING
  5
1305
 10
154.528
 20
132.337
 30
0.000000
  70
    32
  0
VERTEX
  8
SAPA_ANSLUTNING
  5
1306
 10
154.321
 20
132.485
 30
0.000000
  70
    32
  0
VERTEX
  8
SAPA_ANSLUTNING
  5
1307
 10
154.107
 20
132.621
 30
0.000000
  70
    32
  0
VERTEX
  8
SAPA_ANSLUTNING
  5
1308
 10
153.888
 20
132.745
 30
0.000000
  70
    32
  0
VERTEX
  8
SAPA_ANSLUTNING
  5
1309
 10
153.663
 20
132.857
 30
0.000000
  70
    32
  0
VERTEX
  8
SAPA_ANSLUTNING
  5
130A
 10
153.434
 20
132.956
 30
0.000000
  70
    32
  0
VERTEX
  8
SAPA_ANSLUTNING
  5
130B
 10
153.201
 20
133.042
 30
0.000000
  70
    32
  0
VERTEX
  8
SAPA_ANSLUTNING
  5
130C
 10
152.965
 20
133.116
 30
0.000000
  70
    32
  0
VERTEX
  8
SAPA_ANSLUTNING
  5
130D
 10
152.725
 20
133.176
 30
0.000000
  70
    32
  0
VERTEX
  8
SAPA_ANSLUTNING
  5
130E
 10
152.484
 20
133.224
 30
0.000000
  70
    32
  0
VERTEX
  8
SAPA_ANSLUTNING
  5
130F
 10
152.240
 20
133.257
 30
0.000000
  70
    32
  0
VERTEX
  8
SAPA_ANSLUTNING
  5
1310
 10
151.995
 20
133.278
 30
0.000000
  70
    32
  0
VERTEX
  8
SAPA_ANSLUTNING
  5
1311
 10
151.750
 20
133.284
 30
0.000000
  70
    32
  0
VERTEX
  8
SAPA_ANSLUTNING
  5
1312
 10
151.505
 20
133.278
 30
0.000000
  70
    32
  0
VERTEX
  8
SAPA_ANSLUTNING
  5
1313
 10
151.260
 20
133.257
 30
0.000000
  70
    32
  0
VERTEX
  8
SAPA_ANSLUTNING
  5
1314
 10
151.016
 20
133.224
 30
0.000000
  70
    32
  0
VERTEX
  8
SAPA_ANSLUTNING
  5
1315
 10
150.775
 20
133.176
 30
0.000000
  70
    32
  0
VERTEX
  8
SAPA_ANSLUTNING
  5
1316
 10
150.535
 20
133.116
 30
0.000000
  70
    32
  0
VERTEX
  8
SAPA_ANSLUTNING
  5
1317
 10
150.299
 20
133.042
 30
0.000000
  70
    32
  0
VERTEX
  8
SAPA_ANSLUTNING
  5
1318
 10
150.066
 20
132.956
 30
0.000000
  70
    32
  0
VERTEX
  8
SAPA_ANSLUTNING
  5
1319
 10
149.837
 20
132.857
 30
0.000000
  70
    32
  0
VERTEX
  8
SAPA_ANSLUTNING
  5
131A
 10
149.612
 20
132.745
 30
0.000000
  70
    32
  0
VERTEX
  8
SAPA_ANSLUTNING
  5
131B
 10
149.393
 20
132.621
 30
0.000000
  70
    32
  0
VERTEX
  8
SAPA_ANSLUTNING
  5
131C
 10
149.179
 20
132.485
 30
0.000000
  70
    32
  0
VERTEX
  8
SAPA_ANSLUTNING
  5
131D
 10
148.972
 20
132.337
 30
0.000000
  70
    32
  0
VERTEX
  8
SAPA_ANSLUTNING
  5
131E
 10
148.772
 20
132.178
 30
0.000000
  70
    32
  0
VERTEX
  8
SAPA_ANSLUTNING
  5
131F
 10
148.578
 20
132.008
 30
0.000000
  70
    32
  0
VERTEX
  8
SAPA_ANSLUTNING
  5
1320
 10
148.392
 20
131.828
 30
0.000000
  70
    32
  0
VERTEX
  8
SAPA_ANSLUTNING
  5
1321
 10
148.214
 20
131.638
 30
0.000000
  70
    32
  0
VERTEX
  8
SAPA_ANSLUTNING
  5
1322
 10
148.045
 20
131.438
 30
0.000000
  70
    32
  0
VERTEX
  8
SAPA_ANSLUTNING
  5
1323
 10
147.885
 20
131.229
 30
0.000000
  70
    32
  0
VERTEX
  8
SAPA_ANSLUTNING
  5
1324
 10
147.734
 20
131.012
 30
0.000000
  70
    32
  0
VERTEX
  8
SAPA_ANSLUTNING
  5
1325
 10
147.593
 20
130.786
 30
0.000000
  70
    32
  0
VERTEX
  8
SAPA_ANSLUTNING
  5
1326
 10
147.461
 20
130.553
 30
0.000000
  70
    32
  0
VERTEX
  8
SAPA_ANSLUTNING
  5
1327
 10
147.340
 20
130.313
 30
0.000000
  70
    32
  0
VERTEX
  8
SAPA_ANSLUTNING
  5
1328
 10
147.230
 20
130.067
 30
0.000000
  70
    32
  0
VERTEX
  8
SAPA_ANSLUTNING
  5
1329
 10
147.131
 20
129.814
 30
0.000000
  70
    32
  0
VERTEX
  8
SAPA_ANSLUTNING
  5
132A
 10
147.042
 20
129.557
 30
0.000000
  70
    32
  0
VERTEX
  8
SAPA_ANSLUTNING
  5
132B
 10
146.965
 20
129.295
 30
0.000000
  70
    32
  0
VERTEX
  8
SAPA_ANSLUTNING
  5
132C
 10
146.900
 20
129.029
 30
0.000000
  70
    32
  0
VERTEX
  8
SAPA_ANSLUTNING
  5
132D
 10
146.846
 20
128.760
 30
0.000000
  70
    32
  0
VERTEX
  8
SAPA_ANSLUTNING
  5
132E
 10
146.804
 20
128.488
 30
0.000000
  70
    32
  0
VERTEX
  8
SAPA_ANSLUTNING
  5
132F
 10
146.774
 20
128.214
 30
0.000000
  70
    32
  0
VERTEX
  8
SAPA_ANSLUTNING
  5
1330
 10
146.756
 20
127.939
 30
0.000000
  70
    32
  0
VERTEX
  8
SAPA_ANSLUTNING
  5
1331
 10
146.750
 20
127.663
 30
0.000000
  70
    32
  0
VERTEX
  8
SAPA_ANSLUTNING
  5
1332
 10
146.756
 20
127.388
 30
0.000000
  70
    32
  0
VERTEX
  8
SAPA_ANSLUTNING
  5
1333
 10
146.774
 20
127.112
 30
0.000000
  70
    32
  0
VERTEX
  8
SAPA_ANSLUTNING
  5
1334
 10
146.804
 20
126.839
 30
0.000000
  70
    32
  0
VERTEX
  8
SAPA_ANSLUTNING
  5
1335
 10
146.846
 20
126.567
 30
0.000000
  70
    32
  0
VERTEX
  8
SAPA_ANSLUTNING
  5
1336
 10
146.900
 20
126.298
 30
0.000000
  70
    32
  0
VERTEX
  8
SAPA_ANSLUTNING
  5
1337
 10
146.965
 20
126.032
 30
0.000000
  70
    32
  0
VERTEX
  8
SAPA_ANSLUTNING
  5
1338
 10
147.042
 20
125.770
 30
0.000000
  70
    32
  0
VERTEX
  8
SAPA_ANSLUTNING
  5
1339
 10
147.131
 20
125.512
 30
0.000000
  70
    32
  0
VERTEX
  8
SAPA_ANSLUTNING
  5
133A
 10
147.230
 20
125.260
 30
0.000000
  70
    32
  0
VERTEX
  8
SAPA_ANSLUTNING
  5
133B
 10
147.340
 20
125.014
 30
0.000000
  70
    32
  0
VERTEX
  8
SAPA_ANSLUTNING
  5
133C
 10
147.461
 20
124.774
 30
0.000000
  70
    32
  0
VERTEX
  8
SAPA_ANSLUTNING
  5
133D
 10
147.593
 20
124.540
 30
0.000000
  70
    32
  0
VERTEX
  8
SAPA_ANSLUTNING
  5
133E
 10
147.734
 20
124.315
 30
0.000000
  70
    32
  0
VERTEX
  8
SAPA_ANSLUTNING
  5
133F
 10
147.885
 20
124.097
 30
0.000000
  70
    32
  0
VERTEX
  8
SAPA_ANSLUTNING
  5
1340
 10
148.045
 20
123.888
 30
0.000000
  70
    32
  0
VERTEX
  8
SAPA_ANSLUTNING
  5
1341
 10
148.214
 20
123.689
 30
0.000000
  70
    32
  0
VERTEX
  8
SAPA_ANSLUTNING
  5
1342
 10
148.392
 20
123.498
 30
0.000000
  70
    32
  0
VERTEX
  8
SAPA_ANSLUTNING
  5
1343
 10
148.578
 20
123.318
 30
0.000000
  70
    32
  0
VERTEX
  8
SAPA_ANSLUTNING
  5
1344
 10
148.772
 20
123.148
 30
0.000000
  70
    32
  0
VERTEX
  8
SAPA_ANSLUTNING
  5
1345
 10
148.972
 20
122.990
 30
0.000000
  70
    32
  0
VERTEX
  8
SAPA_ANSLUTNING
  5
1346
 10
149.179
 20
122.842
 30
0.000000
  70
    32
  0
VERTEX
  8
SAPA_ANSLUTNING
  5
1347
 10
149.393
 20
122.706
 30
0.000000
  70
    32
  0
VERTEX
  8
SAPA_ANSLUTNING
  5
1348
 10
149.612
 20
122.582
 30
0.000000
  70
    32
  0
VERTEX
  8
SAPA_ANSLUTNING
  5
1349
 10
149.837
 20
122.470
 30
0.000000
  70
    32
  0
VERTEX
  8
SAPA_ANSLUTNING
  5
134A
 10
150.066
 20
122.371
 30
0.000000
  70
    32
  0
VERTEX
  8
SAPA_ANSLUTNING
  5
134B
 10
150.299
 20
122.284
 30
0.000000
  70
    32
  0
VERTEX
  8
SAPA_ANSLUTNING
  5
134C
 10
150.535
 20
122.211
 30
0.000000
  70
    32
  0
VERTEX
  8
SAPA_ANSLUTNING
  5
134D
 10
150.775
 20
122.150
 30
0.000000
  70
    32
  0
VERTEX
  8
SAPA_ANSLUTNING
  5
134E
 10
151.016
 20
122.103
 30
0.000000
  70
    32
  0
VERTEX
  8
SAPA_ANSLUTNING
  5
134F
 10
151.260
 20
122.069
 30
0.000000
  70
    32
  0
VERTEX
  8
SAPA_ANSLUTNING
  5
1350
 10
151.505
 20
122.049
 30
0.000000
  70
    32
  0
VERTEX
  8
SAPA_ANSLUTNING
  5
1351
 10
151.750
 20
122.042
 30
0.000000
  70
    32
  0
SEQEND
  8
SAPA_ANSLUTNING
  5
1352
  0
POLYLINE
  5
C4A
  8
SAPA_ANSLUTNING
 66
     1
 10
0.0
 20
0.0
 30
0.0
  0
VERTEX
  5
1264
  8
SAPA_ANSLUTNING
 10
148.25107161485261
 20
123.64793040943751
 30
0.0
 42
0.8812634091771027
  0
VERTEX
  5
1265
  8
SAPA_ANSLUTNING
 10
148.75000007151169
 20
119.71116238121751
 30
0.0
  0
VERTEX
  5
1266
  8
SAPA_ANSLUTNING
 10
154.75000007151169
 20
119.71116238121751
 30
0.0
 42
-0.9999999999999998
  0
VERTEX
  5
1267
  8
SAPA_ANSLUTNING
 10
154.75000007151169
 20
115.71116238121751
 30
0.0
  0
VERTEX
  5
1268
  8
SAPA_ANSLUTNING
 10
148.75000007151169
 20
115.71116238121751
 30
0.0
 42
0.9999999999999998
  0
VERTEX
  5
1269
  8
SAPA_ANSLUTNING
 10
148.75000007151169
 20
111.71116238121751
 30
0.0
  0
VERTEX
  5
126A
  8
SAPA_ANSLUTNING
 10
154.75000007151169
 20
111.71116238121751
 30
0.0
 42
-0.9999999999999998
  0
VERTEX
  5
126B
  8
SAPA_ANSLUTNING
 10
154.75000007151169
 20
107.71116238121751
 30
0.0
  0
VERTEX
  5
126C
  8
SAPA_ANSLUTNING
 10
148.75000007151169
 20
107.71116238121751
 30
0.0
 42
0.9999999999999998
  0
VERTEX
  5
126D
  8
SAPA_ANSLUTNING
 10
148.75000007151169
 20
103.71116238121751
 30
0.0
  0
VERTEX
  5
126E
  8
SAPA_ANSLUTNING
 10
154.75000007151169
 20
103.71116238121751
 30
0.0
 42
-0.9999999999999998
  0
VERTEX
  5
126F
  8
SAPA_ANSLUTNING
 10
154.75000007151169
 20
99.711162381217505
 30
0.0
  0
VERTEX
  5
1270
  8
SAPA_ANSLUTNING
 10
148.75000007151169
 20
99.711162381217505
 30
0.0
 42
0.9999999999999998
  0
VERTEX
  5
1271
  8
SAPA_ANSLUTNING
 10
148.75000007151169
 20
95.711162381217491
 30
0.0
  0
VERTEX
  5
1272
  8
SAPA_ANSLUTNING
 10
154.75000007151169
 20
95.711162381217491
 30
0.0
 42
-0.9999999999999998
  0
VERTEX
  5
1273
  8
SAPA_ANSLUTNING
 10
154.75000007151169
 20
91.711162381217491
 30
0.0
  0
VERTEX
  5
1274
  8
SAPA_ANSLUTNING
 10
148.75000007151169
 20
91.711162381217491
 30
0.0
 42
0.9999999999999998
  0
VERTEX
  5
1275
  8
SAPA_ANSLUTNING
 10
148.75000007151169
 20
87.711162381217491
 30
0.0
  0
VERTEX
  5
1276
  8
SAPA_ANSLUTNING
 10
154.75000007151169
 20
87.711162381217491
 30
0.0
 42
-0.9999999999999998
  0
VERTEX
  5
1277
  8
SAPA_ANSLUTNING
 10
154.75000007151169
 20
83.711162381217477
 30
0.0
  0
VERTEX
  5
1278
  8
SAPA_ANSLUTNING
 10
148.75000007151169
 20
83.711162381217477
 30
0.0
 42
0.9999999999999998
  0
VERTEX
  5
1279
  8
SAPA_ANSLUTNING
 10
148.75000007151169
 20
79.711162381217491
 30
0.0
  0
VERTEX
  5
127A
  8
SAPA_ANSLUTNING
 10
154.75000007151169
 20
79.711162381217491
 30
0.0
 42
-0.9999999999999998
  0
VERTEX
  5
127B
  8
SAPA_ANSLUTNING
 10
154.75000007151169
 20
75.711162381217491
 30
0.0
  0
VERTEX
  5
127C
  8
SAPA_ANSLUTNING
 10
148.75000007151169
 20
75.711162381217491
 30
0.0
 42
0.9999999999999998
  0
VERTEX
  5
127D
  8
SAPA_ANSLUTNING
 10
148.75000007151169
 20
71.711162381217491
 30
0.0
  0
VERTEX
  5
127E
  8
SAPA_ANSLUTNING
 10
154.75000007151169
 20
71.711162381217491
 30
0.0
 42
-0.9999999999999998
  0
VERTEX
  5
127F
  8
SAPA_ANSLUTNING
 10
154.75000007151169
 20
67.711162381217491
 30
0.0
  0
VERTEX
  5
1280
  8
SAPA_ANSLUTNING
 10
148.75000007151169
 20
67.711162381217491
 30
0.0
 42
0.9999999999999998
  0
VERTEX
  5
1281
  8
SAPA_ANSLUTNING
 10
148.75000007151169
 20
63.711162381217498
 30
0.0
  0
VERTEX
  5
1282
  8
SAPA_ANSLUTNING
 10
154.75000007151169
 20
63.711162381217498
 30
0.0
 42
-0.9999999999999998
  0
VERTEX
  5
1283
  8
SAPA_ANSLUTNING
 10
154.75000007151169
 20
59.711162381217498
 30
0.0
  0
VERTEX
  5
1284
  8
SAPA_ANSLUTNING
 10
148.75000007151169
 20
59.711162381217498
 30
0.0
 42
0.9999999999999998
  0
VERTEX
  5
1285
  8
SAPA_ANSLUTNING
 10
148.75000007151169
 20
55.711162381217491
 30
0.0
  0
VERTEX
  5
1286
  8
SAPA_ANSLUTNING
 10
154.75000007151169
 20
55.711162381217491
 30
0.0
 42
-0.9999999999999998
  0
VERTEX
  5
1287
  8
SAPA_ANSLUTNING
 10
154.75000007151169
 20
51.711162381217498
 30
0.0
  0
VERTEX
  5
1288
  8
SAPA_ANSLUTNING
 10
148.75000007151169
 20
51.711162381217498
 30
0.0
 42
0.9999999999999998
  0
VERTEX
  5
1289
  8
SAPA_ANSLUTNING
 10
148.75000007151169
 20
47.711162381217498
 30
0.0
  0
VERTEX
  5
128A
  8
SAPA_ANSLUTNING
 10
154.75000007151169
 20
47.711162381217498
 30
0.0
 42
-0.9999999999999998
  0
VERTEX
  5
128B
  8
SAPA_ANSLUTNING
 10
154.75000007151169
 20
43.711162381217491
 30
0.0
  0
VERTEX
  5
128C
  8
SAPA_ANSLUTNING
 10
148.75000007151169
 20
43.711162381217491
 30
0.0
 42
0.9999999999999998
  0
VERTEX
  5
128D
  8
SAPA_ANSLUTNING
 10
148.75000007151169
 20
39.711162381217498
 30
0.0
  0
VERTEX
  5
128E
  8
SAPA_ANSLUTNING
 10
154.75000007151169
 20
39.711162381217498
 30
0.0
 42
-0.9999999999999998
  0
VERTEX
  5
128F
  8
SAPA_ANSLUTNING
 10
154.75000007151169
 20
35.711162381217498
 30
0.0
  0
VERTEX
  5
1290
  8
SAPA_ANSLUTNING
 10
148.75000007151169
 20
35.711162381217498
 30
0.0
 42
0.9999999999999998
  0
VERTEX
  5
1291
  8
SAPA_ANSLUTNING
 10
148.75000007151169
 20
31.711162381217498
 30
0.0
  0
VERTEX
  5
1292
  8
SAPA_ANSLUTNING
 10
154.75000007151169
 20
31.711162381217498
 30
0.0
 42
-0.9999999999999998
  0
VERTEX
  5
1293
  8
SAPA_ANSLUTNING
 10
154.75000007151169
 20
27.711162381217498
 30
0.0
  0
VERTEX
  5
1294
  8
SAPA_ANSLUTNING
 10
148.75000007151169
 20
27.711162381217498
 30
0.0
 42
0.9999999999999998
  0
VERTEX
  5
1295
  8
SAPA_ANSLUTNING
 10
148.75000007151169
 20
23.711162381217498
 30
0.0
  0
VERTEX
  5
1296
  8
SAPA_ANSLUTNING
 10
154.75000007151169
 20
23.711162381217498
 30
0.0
 42
-0.9999999999999998
  0
VERTEX
  5
1297
  8
SAPA_ANSLUTNING
 10
154.75000007151169
 20
19.711162381217498
 30
0.0
  0
VERTEX
  5
1298
  8
SAPA_ANSLUTNING
 10
146.00000007151169
 20
19.711162381217498
 30
0.0
 42
0.9999999999999998
  0
VERTEX
  5
1299
  8
SAPA_ANSLUTNING
 10
146.00000007151169
 20
15.7111623812175
 30
0.0
  0
VERTEX
  5
129A
  8
SAPA_ANSLUTNING
 10
154.75000007151169
 20
15.7111623812175
 30
0.0
 42
-0.9999999999999998
  0
VERTEX
  5
129B
  8
SAPA_ANSLUTNING
 10
154.75000007151169
 20
11.7111623812175
 30
0.0
  0
VERTEX
  5
129C
  8
SAPA_ANSLUTNING
 10
146.00000007151169
 20
11.7111623812175
 30
0.0
 42
0.9999999999999998
  0
VERTEX
  5
129D
  8
SAPA_ANSLUTNING
 10
146.00000007151169
 20
7.7111623812174983
 30
0.0
  0
VERTEX
  5
129E
  8
SAPA_ANSLUTNING
 10
154.75000007151169
 20
7.7111623812174983
 30
0.0
 42
-0.9999999999999998
  0
VERTEX
  5
129F
  8
SAPA_ANSLUTNING
 10
154.75000007151169
 20
3.7111623812174979
 30
0.0
  0
VERTEX
  5
12A0
  8
SAPA_ANSLUTNING
 10
146.00000007151169
 20
3.7111623812174979
 30
0.0
 42
0.759206390861857
  0
VERTEX
  5
12A1
  8
SAPA_ANSLUTNING
 10
144.9646627810088
 20
0.0000000000000071
 30
0.0
  0
SEQEND
  5
12A2
  8
SAPA_ANSLUTNING
  0
LINE
  5
C50
  8
SAPA_GLAS
 10
83.500000071662285
 20
149.80000000000149
 30
0.0
 11
84.250000071675444
 21
149.80000000000149
 31
0.0
  0
LINE
  5
C51
  8
SAPA_GLAS
 10
84.250000071675444
 20
136.99999999999039
 30
0.0
 11
83.500000071676354
 21
136.99999999998951
 31
0.0
  0
LINE
  5
C53
  8
SAPA_GLAS
 10
137.00000007202689
 20
149.80000000000149
 30
0.0
 11
136.25000007201379
 21
149.80000000000149
 31
0.0
  0
LINE
  5
C54
  8
SAPA_GLAS
 10
136.25000007201379
 20
136.99999999999039
 30
0.0
 11
137.0000000720128
 21
136.99999999998951
 31
0.0
  0
LINE
  5
C5A
  8
SAPA_GLAS
 10
141.75000007149811
 20
139.50000000000361
 30
0.0
 11
138.32526777333669
 21
139.50000000000361
 31
0.0
  0
LINE
  5
C5C
  8
SAPA_GLAS
 10
78.250000071462182
 20
139.83199653814111
 30
0.0
 11
82.202063573762175
 21
139.83199653814111
 31
0.0
  0
TEXT
  5
C5D
  8
SAPA_ARTIKELNR
 10
80.270947578279902
 20
141.051605857639
 30
0.0000000048844772
 40
3.5
  1
D9V004
 50
90.0
  7
ISO
  0
TEXT
  5
C68
  8
SAPA_ARTIKELNR
 10
-5.4189571652532322
 20
44.757987946053632
 30
0.0000000048844772
 40
3.5
  1
D9K029
 50
90.0
  7
ISO
  0
CIRCLE
  5
C69
  8
SAPA_BESLAG
 10
38.250000071513568
 20
100.00000000000129
 30
0.0
 40
3.5
  0
CIRCLE
  5
C6A
  8
SAPA_BESLAG
 10
28.250000071513568
 20
100.00000000000129
 30
0.0
 40
3.5
  0
CIRCLE
  5
C6B
  8
SAPA_FOGBAND
 10
33.250000071499016
 20
98.800000000001546
 30
0.0
 40
0.7500000000000001
  0
LINE
  5
C6F
  8
SAPA_FOGBAND
 10
0.3504326030647462
 20
134.9113994912241
 30
0.0
 11
5.3466359312410532
 21
134.9113994912268
 31
0.0
  0
LINE
  5
C70
  8
SAPA_FOGBAND
 10
5.3466359312410532
 20
135.0613994912255
 30
0.0
 11
0.3504326030647462
 21
135.0613994912255
 31
0.0
  0
LINE
  5
C74
  8
SAPA_FOGBAND
 10
0.3504326030647462
 20
126.4113994912195
 30
0.0
 11
4.9249594567190789
 21
126.41139949122309
 31
0.0
  0
LINE
  5
C75
  8
SAPA_FOGBAND
 10
4.9249594567190789
 20
126.561399491221
 30
0.0
 11
0.3504326030647462
 21
126.561399491221
 31
0.0
  0
LINE
  5
C79
  8
SAPA_FOGBAND
 10
66.149567539298445
 20
134.9113994912241
 30
0.0
 11
61.250898448769931
 21
134.9113994912268
 31
0.0
  0
LINE
  5
C7A
  8
SAPA_FOGBAND
 10
61.250898448769931
 20
135.0613994912255
 30
0.0
 11
66.149567539298445
 21
135.0613994912255
 31
0.0
  0
LINE
  5
C7E
  8
SAPA_FOGBAND
 10
66.149567539298445
 20
126.4113994912195
 30
0.0
 11
61.685747566094513
 21
126.41139949122309
 31
0.0
  0
LINE
  5
C7F
  8
SAPA_FOGBAND
 10
61.685747566094513
 20
126.561399491221
 30
0.0
 11
66.149567539298445
 21
126.561399491221
 31
0.0
  0
LINE
  5
DD3
  8
SAPA_FOGBAND
 10
66.149567539298445
 20
126.6363994912217
 30
0.0
 11
61.935116899284367
 21
126.74639687640411
 31
0.0
  0
LINE
  5
DD4
  8
SAPA_FOGBAND
 10
61.935116899284367
 20
126.74639687640411
 30
0.0
 11
61.935693398158939
 21
129.18449021682591
 31
0.0
  0
LINE
  5
DD5
  8
SAPA_FOGBAND
 10
61.935693398158939
 20
129.18449021682591
 30
0.0
 11
66.149567539298445
 21
128.0590890943613
 31
0.0
  0
LINE
  5
DD8
  8
SAPA_FOGBAND
 10
66.149567539298445
 20
124.9137098880792
 30
0.0
 11
61.935523683691819
 21
123.7882632907631
 31
0.0
  0
LINE
  5
DD9
  8
SAPA_FOGBAND
 10
61.935523683691819
 20
123.7882632907631
 30
0.0
 11
61.93508754287177
 21
126.2264013373123
 31
0.0
  0
LINE
  5
DDA
  8
SAPA_FOGBAND
 10
61.93508754287177
 20
126.2264013373123
 30
0.0
 11
66.149567539298445
 21
126.3363994912188
 31
0.0
  0
LINE
  5
DDB
  8
SAPA_FOGBAND
 10
66.949567539299551
 20
129.63639949121901
 30
0.0
 11
66.149567539298445
 21
129.63639949121901
 31
0.0
  0
LINE
  5
DDC
  8
SAPA_FOGBAND
 10
66.149567539298445
 20
129.63639949121901
 30
0.0
 11
66.149567539298445
 21
123.3363994912215
 31
0.0
  0
LINE
  5
DDD
  8
SAPA_FOGBAND
 10
66.149567539298445
 20
123.3363994912215
 30
0.0
 11
66.949567539299551
 21
123.3363994912215
 31
0.0
  0
LINE
  5
DDE
  8
SAPA_FOGBAND
 10
66.949567539299551
 20
123.3363994912215
 30
0.0
 11
66.949567539299551
 21
129.63639949121901
 31
0.0
  0
LINE
  5
DDF
  8
SAPA_FOGBAND
 10
66.149567539298445
 20
135.1363994912262
 30
0.0
 11
61.500267781959792
 21
135.24639687640769
 31
0.0
  0
LINE
  5
DE0
  8
SAPA_FOGBAND
 10
61.500267781959792
 20
135.24639687640769
 30
0.0
 11
61.500844280834372
 21
137.6844902168304
 31
0.0
  0
LINE
  5
DE1
  8
SAPA_FOGBAND
 10
61.500844280834372
 20
137.6844902168304
 30
0.0
 11
66.149567539298445
 21
136.55908909436579
 31
0.0
  0
LINE
  5
DE2
  8
SAPA_FOGBAND
 10
66.149567539298445
 20
133.4137098880837
 30
0.0
 11
61.500674566367252
 21
132.28826329076759
 31
0.0
  0
LINE
  5
DE3
  8
SAPA_FOGBAND
 10
61.500674566367252
 20
132.28826329076759
 30
0.0
 11
61.500238425547202
 21
134.72640133731599
 31
0.0
  0
LINE
  5
DE4
  8
SAPA_FOGBAND
 10
61.500238425547202
 20
134.72640133731599
 30
0.0
 11
66.149567539298445
 21
134.83639949122329
 31
0.0
  0
LINE
  5
DE5
  8
SAPA_FOGBAND
 10
66.949567539299551
 20
138.13639949122259
 30
0.0
 11
66.149567539298445
 21
138.13639949122259
 31
0.0
  0
LINE
  5
DE6
  8
SAPA_FOGBAND
 10
66.149567539298445
 20
138.13639949122259
 30
0.0
 11
66.149567539298445
 21
131.83639949122599
 31
0.0
  0
LINE
  5
DE7
  8
SAPA_FOGBAND
 10
66.149567539298445
 20
131.83639949122599
 30
0.0
 11
66.949567539299551
 21
131.83639949122599
 31
0.0
  0
LINE
  5
DE8
  8
SAPA_FOGBAND
 10
66.949567539299551
 20
131.83639949122599
 30
0.0
 11
66.949567539299551
 21
138.13639949122259
 31
0.0
  0
LINE
  5
DE9
  8
SAPA_FOGBAND
 10
0.3504326030647462
 20
126.6363994912217
 30
0.0
 11
4.6755901235292177
 21
126.74639687640411
 31
0.0
  0
LINE
  5
DEA
  8
SAPA_FOGBAND
 10
4.6755901235292177
 20
126.74639687640411
 30
0.0
 11
4.6750136246546381
 21
129.18449021682591
 31
0.0
  0
LINE
  5
DEB
  8
SAPA_FOGBAND
 10
4.6750136246546381
 20
129.18449021682591
 30
0.0
 11
0.3504326030647462
 21
128.0590890943613
 31
0.0
  0
LINE
  5
DEC
  8
SAPA_FOGBAND
 10
0.3504326030647462
 20
124.9137098880792
 30
0.0
 11
4.6751833391217579
 21
123.7882632907631
 31
0.0
  0
LINE
  5
DED
  8
SAPA_FOGBAND
 10
4.6751833391217579
 20
123.7882632907631
 30
0.0
 11
4.6756194799418154
 21
126.2264013373123
 31
0.0
  0
LINE
  5
DEE
  8
SAPA_FOGBAND
 10
4.6756194799418154
 20
126.2264013373123
 30
0.0
 11
0.3504326030647462
 21
126.3363994912188
 31
0.0
  0
LINE
  5
DEF
  8
SAPA_FOGBAND
 10
-0.4495673969363452
 20
129.63639949121901
 30
0.0
 11
0.3504326030647462
 21
129.63639949121901
 31
0.0
  0
LINE
  5
DF0
  8
SAPA_FOGBAND
 10
0.3504326030647462
 20
129.63639949121901
 30
0.0
 11
0.3504326030647462
 21
123.3363994912215
 31
0.0
  0
LINE
  5
DF1
  8
SAPA_FOGBAND
 10
0.3504326030647462
 20
123.3363994912215
 30
0.0
 11
-0.4495673969363452
 21
123.3363994912215
 31
0.0
  0
LINE
  5
DF2
  8
SAPA_FOGBAND
 10
-0.4495673969363452
 20
123.3363994912215
 30
0.0
 11
-0.4495673969363452
 21
129.63639949121901
 31
0.0
  0
LINE
  5
DF3
  8
SAPA_FOGBAND
 10
0.3504326030647462
 20
135.1363994912262
 30
0.0
 11
5.0972665980511911
 21
135.24639687640769
 31
0.0
  0
LINE
  5
DF4
  8
SAPA_FOGBAND
 10
5.0972665980511911
 20
135.24639687640769
 30
0.0
 11
5.0966900991766124
 21
137.6844902168304
 31
0.0
  0
LINE
  5
DF5
  8
SAPA_FOGBAND
 10
5.0966900991766124
 20
137.6844902168304
 30
0.0
 11
0.3504326030647462
 21
136.55908909436579
 31
0.0
  0
LINE
  5
DF6
  8
SAPA_FOGBAND
 10
0.3504326030647462
 20
133.4137098880837
 30
0.0
 11
5.0968598136437322
 21
132.28826329076759
 31
0.0
  0
LINE
  5
DF7
  8
SAPA_FOGBAND
 10
5.0968598136437322
 20
132.28826329076759
 30
0.0
 11
5.0972959544637879
 21
134.72640133731599
 31
0.0
  0
LINE
  5
DF8
  8
SAPA_FOGBAND
 10
5.0972959544637879
 20
134.72640133731599
 30
0.0
 11
0.3504326030647462
 21
134.83639949122329
 31
0.0
  0
LINE
  5
DF9
  8
SAPA_FOGBAND
 10
-0.4495673969363452
 20
138.13639949122259
 30
0.0
 11
0.3504326030647462
 21
138.13639949122259
 31
0.0
  0
LINE
  5
DFA
  8
SAPA_FOGBAND
 10
0.3504326030647462
 20
138.13639949122259
 30
0.0
 11
0.3504326030647462
 21
131.83639949122599
 31
0.0
  0
LINE
  5
DFB
  8
SAPA_FOGBAND
 10
0.3504326030647462
 20
131.83639949122599
 30
0.0
 11
-0.4495673969363452
 21
131.83639949122599
 31
0.0
  0
LINE
  5
DFC
  8
SAPA_FOGBAND
 10
-0.4495673969363452
 20
131.83639949122599
 30
0.0
 11
-0.4495673969363452
 21
138.13639949122259
 31
0.0
  0
ARC
  5
DFD
  8
SAPA_FOGBAND
 10
31.42490164479079
 20
101.9000000000016
 30
0.0
 40
0.200000000000232
 50
83.103726790277889
 51
210.89814782521211
  0
ARC
  5
DFE
  8
SAPA_FOGBAND
 10
28.250000071513821
 20
100.0000000000009
 30
0.0
 40
3.4999999999996558
 50
329.86727816899332
 51
30.89814782525092
  0
ARC
  5
DFF
  8
SAPA_FOGBAND
 10
31.450000071513781
 20
98.142582437900344
 30
0.0
 40
0.2000000000002668
 50
149.8672781689402
 51
209.99999999995001
  0
LINE
  5
E00
  8
SAPA_FOGBAND
 10
31.276794990756571
 20
98.042582437900364
 30
0.0
 11
31.792127701551639
 21
97.15000000000191
 31
0.0
  0
ARC
  5
E01
  8
SAPA_FOGBAND
 10
32.051935322687001
 20
97.300000000001774
 30
0.0
 40
0.2999999999999552
 50
209.99999999997479
 51
269.99999999997431
  0
LINE
  5
E02
  8
SAPA_FOGBAND
 10
32.051935322686859
 20
97.000000000001819
 30
0.0
 11
34.448064820340278
 21
97.000000000001819
 31
0.0
  0
ARC
  5
E03
  8
SAPA_FOGBAND
 10
34.448064820340143
 20
97.300000000001774
 30
0.0
 40
0.2999999999999545
 50
270.00000000002581
 51
330.00000000002512
  0
LINE
  5
E04
  8
SAPA_FOGBAND
 10
34.707872441475502
 20
97.15000000000191
 30
0.0
 11
35.223205152270111
 21
98.042582437900364
 31
0.0
  0
ARC
  5
E05
  8
SAPA_FOGBAND
 10
35.050000071513139
 20
98.142582437900742
 30
0.0
 40
0.200000000000262
 50
329.99999999991832
 51
30.132721830929011
  0
ARC
  5
E06
  8
SAPA_FOGBAND
 10
38.250000071513092
 20
100.00000000000129
 30
0.0
 40
3.4999999999996461
 50
149.10185217475629
 51
210.13272183101401
  0
ARC
  5
E07
  8
SAPA_FOGBAND
 10
35.075098498236123
 20
101.9000000000017
 30
0.0
 40
0.2000000000001001
 50
329.1018521747306
 51
96.896273209659867
  0
ARC
  5
E08
  8
SAPA_FOGBAND
 10
33.250000071513568
 20
116.9900303423406
 30
0.0
 40
14.999999999997661
 50
263.1037267903157
 51
276.8962732096843
  0
LINE
  5
E09
  8
SAPA_PROFIL
 10
91.937738153418195
 20
127.0000000010218
 30
0.0
 11
94.035810509138173
 21
127.0000000010218
 31
0.0
  0
ARC
  5
E0A
  8
SAPA_PROFIL
 10
94.035810509138258
 20
128.0000000010217
 30
0.0
 40
0.9999999999998863
 50
269.99999999999511
 51
44.99999999998964
  0
LINE
  5
E0B
  8
SAPA_PROFIL
 10
94.742917290324854
 20
128.707106782208
 30
0.0
 11
93.437868037156022
 21
130.0121560353773
 31
0.0
  0
ARC
  5
E0C
  8
SAPA_PROFIL
 10
93.22573600279955
 20
129.8000240010212
 30
0.0
 40
0.3000000000004365
 50
44.999999999946269
 51
89.999999999962014
  0
LINE
  5
E0D
  8
SAPA_PROFIL
 10
93.225736002799749
 20
130.10002400102161
 30
0.0
 11
92.639230556053008
 21
130.10002400102161
 31
0.0
  0
ARC
  5
E0E
  8
SAPA_PROFIL
 10
92.639230556053505
 20
129.80002400102131
 30
0.0
 40
0.300000000000324
 50
90.000000000094985
 51
120.000000000094
  0
LINE
  5
E0F
  8
SAPA_PROFIL
 10
92.489230556052917
 20
130.05983162215671
 30
0.0
 11
91.000000071511749
 21
129.20002400102149
 31
0.0
  0
LINE
  5
E10
  8
SAPA_PROFIL
 10
91.000000071511749
 20
129.20002400102149
 30
0.0
 11
90.550000071511931
 21
129.20001200102161
 31
0.0
  0
ARC
  5
E11
  8
SAPA_PROFIL
 10
90.550000071512159
 20
129.5000120010215
 30
0.0
 40
0.2999999999999545
 50
179.99999999995649
 51
269.99999999995657
  0
LINE
  5
E12
  8
SAPA_PROFIL
 10
90.250000071512204
 20
129.50001200102179
 30
0.0
 11
90.250000071512204
 21
133.10002400102161
 31
0.0
  0
ARC
  5
E13
  8
SAPA_PROFIL
 10
90.550000071512159
 20
133.10002400102189
 30
0.0
 40
0.2999999999999545
 50
90.000000000043414
 51
180.0000000000434
  0
LINE
  5
E14
  8
SAPA_PROFIL
 10
90.550000071511931
 20
133.40002400102179
 30
0.0
 11
91.000000071512204
 21
133.40002400102179
 31
0.0
  0
LINE
  5
E15
  8
SAPA_PROFIL
 10
91.000000071512204
 20
133.40002400102179
 30
0.0
 11
92.489260202586593
 21
132.54019926345291
 31
0.0
  0
ARC
  5
E16
  8
SAPA_PROFIL
 10
92.639260202586456
 20
132.80000688458779
 30
0.0
 40
0.2999999999995429
 50
239.99999999997971
 51
269.9963531325393
  0
LINE
  5
E17
  8
SAPA_PROFIL
 10
92.639241107633097
 20
132.50000688519589
 30
0.0
 11
92.750000071512204
 21
132.49999983540511
 31
0.0
  0
LINE
  5
E18
  8
SAPA_PROFIL
 10
92.750000071512204
 20
132.49999983540511
 30
0.0
 11
92.750000071512204
 21
134.5000000010109
 31
0.0
  0
ARC
  5
E19
  8
SAPA_PROFIL
 10
92.250000071512204
 20
134.5000000010109
 30
0.0
 40
0.5
 50
0.0
 51
90.0
  0
LINE
  5
E1A
  8
SAPA_PROFIL
 10
92.250000071512204
 20
135.0000000010109
 30
0.0
 11
87.000000072886451
 21
135.0000000010109
 31
0.0
  0
ARC
  5
E1B
  8
SAPA_PROFIL
 10
87.000000072886451
 20
134.5000000010109
 30
0.0
 40
0.5
 50
90.0
 51
180.0
  0
LINE
  5
E1C
  8
SAPA_PROFIL
 10
86.500000072886436
 20
134.5000000010109
 30
0.0
 11
86.500000072886436
 21
134.00000000099499
 31
0.0
  0
ARC
  5
E1D
  8
SAPA_PROFIL
 10
87.000000072886465
 20
134.00000000099499
 30
0.0
 40
0.5000000000000142
 50
180.00000000000321
 51
269.99999999999841
  0
LINE
  5
E1E
  8
SAPA_PROFIL
 10
87.000000072886451
 20
133.50000000099499
 30
0.0
 11
87.800000072881645
 21
133.50000000099499
 31
0.0
  0
ARC
  5
E1F
  8
SAPA_PROFIL
 10
87.800000072881645
 20
133.30000000099469
 30
0.0
 40
0.2000000000002728
 50
0.0
 51
90.0
  0
LINE
  5
E20
  8
SAPA_PROFIL
 10
88.000000072881903
 20
133.30000000099469
 30
0.0
 11
88.000000072881903
 21
130.50000000099999
 31
0.0
  0
ARC
  5
E21
  8
SAPA_PROFIL
 10
87.800000072881645
 20
130.50000000099999
 30
0.0
 40
0.2000000000002728
 50
270.0
 51
0.0
  0
LINE
  5
E22
  8
SAPA_PROFIL
 10
87.800000072881645
 20
130.30000000099969
 30
0.0
 11
83.700000071352406
 21
130.30000000099969
 31
0.0
  0
ARC
  5
E23
  8
SAPA_PROFIL
 10
83.700000071352321
 20
130.5000000009999
 30
0.0
 40
0.2000000000001876
 50
180.00000000010581
 51
270.00000000002439
  0
LINE
  5
E24
  8
SAPA_PROFIL
 10
83.500000071352119
 20
130.50000000099951
 30
0.0
 11
83.500000071323029
 21
149.80000000101609
 31
0.0
  0
ARC
  5
E25
  8
SAPA_PROFIL
 10
83.300000071323083
 20
149.8000000010158
 30
0.0
 40
0.199999999999946
 50
0.0000000000895644
 51
105.6019167446315
  0
ARC
  5
E26
  8
SAPA_PROFIL
 10
83.515161704627474
 20
149.029477145057
 30
0.0
 40
1.0000000000005611
 50
105.60191674472691
 51
173.7564115415193
  0
ARC
  5
E27
  8
SAPA_PROFIL
 10
211.7500000759635
 20
135.00000000083659
 30
0.0
 40
130.00000000412021
 50
173.75641154141471
 51
179.99999999991289
  0
LINE
  5
E28
  8
SAPA_PROFIL
 10
81.75000007184326
 20
135.0000000010341
 30
0.0
 11
81.750000071490376
 21
122.19999999977109
 31
0.0
  0
ARC
  5
E29
  8
SAPA_PROFIL
 10
81.950000071491104
 20
122.1999999997601
 30
0.0
 40
0.2000000000007276
 50
179.99999999687341
 51
270.0
  0
LINE
  5
E2A
  8
SAPA_PROFIL
 10
81.950000071491104
 20
121.9999999997594
 30
0.0
 11
82.284530017750967
 21
121.9999999997612
 31
0.0
  0
ARC
  5
E2B
  8
SAPA_PROFIL
 10
82.284530017750996
 20
122.1999999997601
 30
0.0
 40
0.1999999999988517
 50
269.99999999999193
 51
330.00000000181461
  0
LINE
  5
E2C
  8
SAPA_PROFIL
 10
82.457735098510057
 20
122.0999999997661
 30
0.0
 11
83.473205152102764
 21
123.85884572616079
 31
0.0
  0
ARC
  5
E2D
  8
SAPA_PROFIL
 10
83.300000071340492
 20
123.9588457261611
 30
0.0
 40
0.2000000000048241
 50
330.00000000069173
 51
0.0000000000122133
  0
LINE
  5
E2E
  8
SAPA_PROFIL
 10
83.500000071345298
 20
123.9588457261611
 30
0.0
 11
83.500000071341219
 21
126.8000000010211
 31
0.0
  0
ARC
  5
E2F
  8
SAPA_PROFIL
 10
83.700000071341947
 20
126.8000000010211
 30
0.0
 40
0.2000000000007276
 50
90.0
 51
180.0
  0
LINE
  5
E30
  8
SAPA_PROFIL
 10
83.700000071341947
 20
127.0000000010218
 30
0.0
 11
90.006131030550478
 21
127.0000000010218
 31
0.0
  0
ARC
  5
E31
  8
SAPA_PROFIL
 10
90.006131030550435
 20
127.30000000102081
 30
0.0
 40
0.299999999999045
 50
270.0000000000108
 51
324.37993024139411
  0
ARC
  5
E32
  8
SAPA_PROFIL
 10
90.493869112460189
 20
126.9505553509586
 30
0.0
 40
0.3000000000027633
 50
89.999999999459888
 51
144.3799302427376
  0
LINE
  5
E33
  8
SAPA_PROFIL
 10
90.493869112463017
 20
127.25055535096131
 30
0.0
 11
91.450000071502004
 21
127.25055535096131
 31
0.0
  0
ARC
  5
E34
  8
SAPA_PROFIL
 10
91.450000071506352
 20
126.9505553509556
 30
0.0
 40
0.3000000000056673
 50
35.62006975808125
 51
90.000000000827782
  0
ARC
  5
E35
  8
SAPA_PROFIL
 10
91.937738153418024
 20
127.3000000010217
 30
0.0
 40
0.2999999999998642
 50
215.62006975815319
 51
270.00000000003263
  0
ARC
  5
E36
  8
SAPA_PROFIL
 62
     4
 10
127.1634225881642
 20
129.05851608367581
 30
0.0
 40
1.3416252492699461
 50
61.975581243483113
 51
89.204430039303816
  0
LINE
  5
E37
  8
SAPA_PROFIL
 62
     4
 10
127.7937822888598
 20
130.24283232405151
 30
0.0
 11
129.51339753113371
 21
129.25001200102179
 31
0.0
  0
LINE
  5
E38
  8
SAPA_PROFIL
 62
     4
 10
129.51339753113371
 20
129.25001200102179
 30
0.0
 11
129.95000007151199
 21
129.25001200102179
 31
0.0
  0
ARC
  5
E39
  8
SAPA_PROFIL
 62
     4
 10
129.95000007151199
 20
129.50001200102179
 30
0.0
 40
0.25
 50
270.0
 51
0.0
  0
LINE
  5
E3A
  8
SAPA_PROFIL
 62
     4
 10
130.20000007151199
 20
129.50001200102179
 30
0.0
 11
130.20000007151251
 21
133.10002400102161
 31
0.0
  0
ARC
  5
E3B
  8
SAPA_PROFIL
 62
     4
 10
129.95000007151239
 20
133.10002400102161
 30
0.0
 40
0.25
 50
0.0
 51
90.0
  0
LINE
  5
E3C
  8
SAPA_PROFIL
 62
     4
 10
129.95000007151239
 20
133.35002400102161
 30
0.0
 11
129.51339814993389
 21
133.35001235828659
 31
0.0
  0
LINE
  5
E3D
  8
SAPA_PROFIL
 62
     4
 10
129.51339814993389
 20
133.35001235828659
 30
0.0
 11
127.7937822888661
 21
132.3571916779965
 31
0.0
  0
ARC
  5
E3E
  8
SAPA_PROFIL
 62
     4
 10
127.1798095387058
 20
133.47741678248909
 30
0.0
 40
1.27744542845285
 50
270.45706900712582
 51
298.72625738197991
  0
LINE
  5
E3F
  8
SAPA_PROFIL
 62
     4
 10
127.1900000715122
 20
132.20001200102161
 30
0.0
 11
93.310000071512164
 21
132.20001200102161
 31
0.0
  0
ARC
  5
E40
  8
SAPA_PROFIL
 62
     4
 10
93.320190604318626
 20
133.47741678248909
 30
0.0
 40
1.2774454284528201
 50
241.27374261802001
 51
269.5429309928748
  0
LINE
  5
E41
  8
SAPA_PROFIL
 62
     4
 10
92.706217854158254
 20
132.3571916779965
 30
0.0
 11
90.986601993090517
 21
133.35001235828659
 31
0.0
  0
LINE
  5
E42
  8
SAPA_PROFIL
 62
     4
 10
90.986601993090517
 20
133.35001235828659
 30
0.0
 11
90.550000071511931
 21
133.35002400102161
 31
0.0
  0
ARC
  5
E43
  8
SAPA_PROFIL
 62
     4
 10
90.550000071511931
 20
133.10002400102161
 30
0.0
 40
0.25
 50
90.0
 51
180.0
  0
LINE
  5
E44
  8
SAPA_PROFIL
 62
     4
 10
90.300000071511917
 20
133.10002400102161
 30
0.0
 11
90.300000071511917
 21
129.50001200102179
 31
0.0
  0
ARC
  5
E45
  8
SAPA_PROFIL
 62
     4
 10
90.550000071511931
 20
129.50001200102179
 30
0.0
 40
0.25
 50
180.0
 51
270.0
  0
LINE
  5
E46
  8
SAPA_PROFIL
 62
     4
 10
90.550000071511931
 20
129.25001200102179
 30
0.0
 11
90.986602611890703
 21
129.25001200102179
 31
0.0
  0
LINE
  5
E47
  8
SAPA_PROFIL
 62
     4
 10
90.986602611890703
 20
129.25001200102179
 30
0.0
 11
92.706217854164606
 21
130.24283232405151
 31
0.0
  0
ARC
  5
E48
  8
SAPA_PROFIL
 62
     4
 10
93.336577554860199
 20
129.05851608367581
 30
0.0
 40
1.341625249269949
 50
90.795569960696184
 51
118.02441875651689
  0
LINE
  5
E49
  8
SAPA_PROFIL
 62
     4
 10
93.317949263943319
 20
130.40001200102179
 30
0.0
 11
127.1820508790811
 21
130.40001200102179
 31
0.0
  0
LINE
  5
E4A
  8
SAPA_PROFIL
 10
128.5622619896057
 20
127.0000000010218
 30
0.0
 11
126.46418963388579
 21
127.0000000010218
 31
0.0
  0
ARC
  5
E4B
  8
SAPA_PROFIL
 10
126.4641896338857
 20
128.0000000010217
 30
0.0
 40
0.9999999999998863
 50
135.00000000001029
 51
270.00000000000489
  0
LINE
  5
E4C
  8
SAPA_PROFIL
 10
125.7570828526991
 20
128.707106782208
 30
0.0
 11
127.0621321058679
 21
130.0121560353773
 31
0.0
  0
ARC
  5
E4D
  8
SAPA_PROFIL
 10
127.2742641402244
 20
129.8000240010212
 30
0.0
 40
0.3000000000004365
 50
90.000000000037986
 51
135.00000000005369
  0
LINE
  5
E4E
  8
SAPA_PROFIL
 10
127.2742641402242
 20
130.10002400102161
 30
0.0
 11
127.8607695869714
 21
130.10002400102161
 31
0.0
  0
ARC
  5
E4F
  8
SAPA_PROFIL
 10
127.8607695869707
 20
129.80002400102211
 30
0.0
 40
0.2999999999994998
 50
59.999999999864848
 51
89.999999999861586
  0
LINE
  5
E50
  8
SAPA_PROFIL
 10
128.01076958697101
 20
130.05983162215671
 30
0.0
 11
129.5000000715122
 21
129.20002400102149
 31
0.0
  0
LINE
  5
E51
  8
SAPA_PROFIL
 10
129.5000000715122
 20
129.20002400102149
 30
0.0
 11
129.95000007151199
 21
129.20001200102161
 31
0.0
  0
ARC
  5
E52
  8
SAPA_PROFIL
 10
129.95000007151199
 20
129.50001200102179
 30
0.0
 40
0.3000000000001819
 50
270.0
 51
0.0
  0
LINE
  5
E53
  8
SAPA_PROFIL
 10
130.2500000715122
 20
129.50001200102179
 30
0.0
 11
130.2500000715122
 21
133.10002400102161
 31
0.0
  0
ARC
  5
E54
  8
SAPA_PROFIL
 10
129.95000007151199
 20
133.10002400102161
 30
0.0
 40
0.3000000000001819
 50
0.0
 51
90.0
  0
LINE
  5
E55
  8
SAPA_PROFIL
 10
129.95000007151199
 20
133.40002400102179
 30
0.0
 11
129.5000000715122
 21
133.40002400102179
 31
0.0
  0
LINE
  5
E56
  8
SAPA_PROFIL
 10
129.5000000715122
 20
133.40002400102179
 30
0.0
 11
128.01073994043779
 21
132.54019926345291
 31
0.0
  0
ARC
  5
E57
  8
SAPA_PROFIL
 10
127.8607399404379
 20
132.80000688458779
 30
0.0
 40
0.2999999999995429
 50
270.0036468674607
 51
300.00000000002029
  0
LINE
  5
E58
  8
SAPA_PROFIL
 10
127.8607590353913
 20
132.50000688519589
 30
0.0
 11
127.7500000715122
 21
132.49999983540511
 31
0.0
  0
LINE
  5
E59
  8
SAPA_PROFIL
 10
127.7500000715122
 20
132.49999983540511
 30
0.0
 11
127.7500000715122
 21
134.5000000010109
 31
0.0
  0
ARC
  5
E5A
  8
SAPA_PROFIL
 10
128.2500000715122
 20
134.5000000010109
 30
0.0
 40
0.5
 50
90.0
 51
180.0
  0
LINE
  5
E5B
  8
SAPA_PROFIL
 10
128.2500000715122
 20
135.0000000010109
 30
0.0
 11
133.5000000701375
 21
135.0000000010109
 31
0.0
  0
ARC
  5
E5C
  8
SAPA_PROFIL
 10
133.5000000701375
 20
134.5000000010109
 30
0.0
 40
0.5
 50
0.0
 51
90.0
  0
LINE
  5
E5D
  8
SAPA_PROFIL
 10
134.0000000701375
 20
134.5000000010109
 30
0.0
 11
134.0000000701375
 21
134.00000000099499
 31
0.0
  0
ARC
  5
E5E
  8
SAPA_PROFIL
 10
133.50000007013739
 20
134.00000000099499
 30
0.0
 40
0.5000000000000285
 50
270.0000000000033
 51
359.99999999999682
  0
LINE
  5
E5F
  8
SAPA_PROFIL
 10
133.5000000701375
 20
133.50000000099499
 30
0.0
 11
132.70000007014229
 21
133.50000000099499
 31
0.0
  0
ARC
  5
E60
  8
SAPA_PROFIL
 10
132.70000007014229
 20
133.30000000099469
 30
0.0
 40
0.2000000000002728
 50
90.0
 51
180.0
  0
LINE
  5
E61
  8
SAPA_PROFIL
 10
132.50000007014199
 20
133.30000000099469
 30
0.0
 11
132.50000007014199
 21
130.50000000099999
 31
0.0
  0
ARC
  5
E62
  8
SAPA_PROFIL
 10
132.70000007014229
 20
130.50000000099999
 30
0.0
 40
0.2000000000002728
 50
180.0
 51
270.0
  0
LINE
  5
E63
  8
SAPA_PROFIL
 10
132.70000007014229
 20
130.30000000099969
 30
0.0
 11
136.800000071672
 21
130.30000000099969
 31
0.0
  0
ARC
  5
E64
  8
SAPA_PROFIL
 10
136.8000000716718
 20
130.50000000099971
 30
0.0
 40
0.1999999999999602
 50
270.0000000000407
 51
359.9999999999593
  0
LINE
  5
E65
  8
SAPA_PROFIL
 10
137.00000007167179
 20
130.50000000099951
 30
0.0
 11
137.0000000717009
 21
149.80000000101609
 31
0.0
  0
ARC
  5
E66
  8
SAPA_PROFIL
 10
137.2000000717008
 20
149.8000000010158
 30
0.0
 40
0.1999999999999318
 50
74.398083255364597
 51
179.99999999991039
  0
ARC
  5
E67
  8
SAPA_PROFIL
 10
136.98483843839671
 20
149.02947714505669
 30
0.0
 40
1.0000000000008009
 50
6.2435884584970918
 51
74.398083255290402
  0
ARC
  5
E68
  8
SAPA_PROFIL
 10
8.7500000670609097
 20
135.00000000083659
 30
0.0
 40
130.00000000412021
 50
0.0000000000870466
 51
6.2435884585852781
  0
LINE
  5
E69
  8
SAPA_PROFIL
 10
138.75000007118109
 20
135.0000000010341
 30
0.0
 11
138.750000071534
 21
122.19999999977109
 31
0.0
  0
ARC
  5
E6A
  8
SAPA_PROFIL
 10
138.5500000715333
 20
122.1999999997601
 30
0.0
 40
0.2000000000007276
 50
270.0
 51
0.0000000031266125
  0
LINE
  5
E6B
  8
SAPA_PROFIL
 10
138.5500000715333
 20
121.9999999997594
 30
0.0
 11
138.21547012527341
 21
121.9999999997612
 31
0.0
  0
ARC
  5
E6C
  8
SAPA_PROFIL
 10
138.21547012527341
 20
122.1999999997601
 30
0.0
 40
0.1999999999988517
 50
209.9999999981853
 51
270.00000000000807
  0
LINE
  5
E6D
  8
SAPA_PROFIL
 10
138.04226504451429
 20
122.0999999997661
 30
0.0
 11
137.02679499092159
 21
123.85884572616079
 31
0.0
  0
ARC
  5
E6E
  8
SAPA_PROFIL
 10
137.20000007168389
 20
123.9588457261611
 30
0.0
 40
0.2000000000048241
 50
179.99999999998781
 51
209.9999999993083
  0
LINE
  5
E6F
  8
SAPA_PROFIL
 10
137.0000000716791
 20
123.9588457261611
 30
0.0
 11
137.00000007168319
 21
126.8000000010211
 31
0.0
  0
ARC
  5
E70
  8
SAPA_PROFIL
 10
136.8000000716824
 20
126.8000000010211
 30
0.0
 40
0.2000000000007276
 50
0.0
 51
90.0
  0
LINE
  5
E71
  8
SAPA_PROFIL
 10
136.8000000716824
 20
127.0000000010218
 30
0.0
 11
130.4938691124739
 21
127.0000000010218
 31
0.0
  0
ARC
  5
E72
  8
SAPA_PROFIL
 10
130.49386911247399
 20
127.30000000102081
 30
0.0
 40
0.299999999999045
 50
215.62006975860589
 51
269.99999999998909
  0
ARC
  5
E73
  8
SAPA_PROFIL
 10
130.00613103056421
 20
126.9505553509586
 30
0.0
 40
0.3000000000027749
 50
35.620069757260779
 51
90.000000000537383
  0
LINE
  5
E74
  8
SAPA_PROFIL
 10
130.00613103056139
 20
127.25055535096131
 30
0.0
 11
129.05000007152239
 21
127.25055535096131
 31
0.0
  0
ARC
  5
E75
  8
SAPA_PROFIL
 10
129.05000007151779
 20
126.9505553509552
 30
0.0
 40
0.3000000000061078
 50
89.999999999131504
 51
144.37993024187719
  0
ARC
  5
E76
  8
SAPA_PROFIL
 10
128.5622619896059
 20
127.3000000010217
 30
0.0
 40
0.2999999999998642
 50
269.99999999996737
 51
324.37993024184681
  0
LINE
  5
E77
  8
SAPA_GLAS
 10
78.75000007157405
 20
132.2819965381168
 30
0.0
 11
81.750000072102011
 21
132.281996538089
 31
0.0
  0
LINE
  5
E78
  8
SAPA_GLAS
 10
81.750000072102011
 20
132.281996538089
 30
0.0
 11
81.750000072102011
 21
120.281996538089
 31
0.0
  0
LINE
  5
E79
  8
SAPA_GLAS
 10
81.750000072102011
 20
120.281996538089
 30
0.0
 11
78.75000007157405
 21
120.2819965381168
 31
0.0
  0
LINE
  5
E7A
  8
SAPA_GLAS
 10
78.75000007157405
 20
120.2819965381168
 30
0.0
 11
78.75000007157405
 21
132.2819965381168
 31
0.0
  0
LINE
  5
E7B
  8
SAPA_GLAS
 10
141.75000007149811
 20
132.28144118818039
 30
0.0
 11
138.7500000715867
 21
132.28144118815311
 31
0.0
  0
LINE
  5
E7C
  8
SAPA_GLAS
 10
138.7500000715867
 20
132.28144118815311
 30
0.0
 11
138.7500000715867
 21
120.2814411881531
 31
0.0
  0
LINE
  5
E7D
  8
SAPA_GLAS
 10
138.7500000715867
 20
120.2814411881531
 30
0.0
 11
141.75000007149811
 21
120.28144118818039
 31
0.0
  0
LINE
  5
E7E
  8
SAPA_GLAS
 10
141.75000007149811
 20
120.28144118818039
 30
0.0
 11
141.75000007149811
 21
132.28144118818039
 31
0.0
  0
LINE
  5
E7F
  8
SAPA_GLAS
 10
128.25000007199739
 20
168.99999999999039
 30
0.0
 11
128.25000007199739
 21
136.99999999999039
 31
0.0
  0
LINE
  5
E80
  8
SAPA_GLAS
 10
128.25000007199739
 20
136.99999999999039
 30
0.0
 11
136.25000007199739
 21
136.99999999999039
 31
0.0
  0
LINE
  5
E81
  8
SAPA_GLAS
 10
136.25000007199739
 20
136.99999999999039
 30
0.0
 11
136.25000007199739
 21
168.99999999999039
 31
0.0
  0
LINE
  5
E82
  8
SAPA_GLAS
 10
128.25000007199739
 20
146.99999999999039
 30
0.0
 11
113.25000007199741
 21
146.99999999999039
 31
0.0
  0
LINE
  5
E83
  8
SAPA_GLAS
 10
113.25000007199741
 20
146.99999999999039
 30
0.0
 11
113.25000007199741
 21
136.99999999999039
 31
0.0
  0
LINE
  5
E84
  8
SAPA_GLAS
 10
113.25000007199741
 20
136.99999999999039
 30
0.0
 11
128.25000007199739
 21
136.99999999999039
 31
0.0
  0
LINE
  5
E85
  8
SAPA_GLAS
 10
128.25000007199739
 20
136.99999999999039
 30
0.0
 11
128.25000007199739
 21
146.99999999999039
 31
0.0
  0
LINE
  5
E86
  8
SAPA_GLAS
 10
107.25000007199741
 20
168.99999999999039
 30
0.0
 11
107.25000007199741
 21
136.99999999999039
 31
0.0
  0
LINE
  5
E87
  8
SAPA_GLAS
 10
107.25000007199741
 20
136.99999999999039
 30
0.0
 11
113.25000007199741
 21
136.99999999999039
 31
0.0
  0
LINE
  5
E88
  8
SAPA_GLAS
 10
113.25000007199741
 20
136.99999999999039
 30
0.0
 11
113.25000007199741
 21
168.99999999999039
 31
0.0
  0
LINE
  5
E89
  8
SAPA_GLAS
 10
137.00000007235261
 20
137.04603614789599
 30
0.0
 11
136.25000007201379
 21
137.7960361482348
 31
0.0
1001
ACAD
1010
0.0
1020
0.0
1030
0.0
  0
LINE
  5
E8A
  8
SAPA_GLAS
 10
137.0000000723538
 20
138.1685681630284
 30
0.0
 11
136.25000007201379
 21
138.91856816336849
 31
0.0
1001
ACAD
1010
0.0
1020
0.0
1030
0.0
  0
LINE
  5
E8B
  8
SAPA_GLAS
 10
137.00000007235511
 20
139.2911001781608
 30
0.0
 11
136.25000007201379
 21
140.04110017850209
 31
0.0
1001
ACAD
1010
0.0
1020
0.0
1030
0.0
  0
LINE
  5
E8C
  8
SAPA_GLAS
 10
137.0000000723563
 20
140.4136321932933
 30
0.0
 11
136.25000007201379
 21
141.16363219363581
 31
0.0
1001
ACAD
1010
0.0
1020
0.0
1030
0.0
  0
LINE
  5
E8D
  8
SAPA_GLAS
 10
137.00000007235749
 20
141.53616420842559
 30
0.0
 11
136.25000007201379
 21
142.28616420876941
 31
0.0
1001
ACAD
1010
0.0
1020
0.0
1030
0.0
  0
LINE
  5
E8E
  8
SAPA_GLAS
 10
137.0000000723588
 20
142.65869622355811
 30
0.0
 11
136.25000007201379
 21
143.40869622390301
 31
0.0
1001
ACAD
1010
0.0
1020
0.0
1030
0.0
  0
LINE
  5
E8F
  8
SAPA_GLAS
 10
137.00000007236
 20
143.78122823869049
 30
0.0
 11
136.25000007201379
 21
144.53122823903669
 31
0.0
1001
ACAD
1010
0.0
1020
0.0
1030
0.0
  0
LINE
  5
E90
  8
SAPA_GLAS
 10
137.0000000723613
 20
144.9037602538229
 30
0.0
 11
136.25000007201379
 21
145.65376025417041
 31
0.0
1001
ACAD
1010
0.0
1020
0.0
1030
0.0
  0
LINE
  5
E91
  8
SAPA_GLAS
 10
137.0000000723625
 20
146.0262922689553
 30
0.0
 11
136.25000007201379
 21
146.77629226930401
 31
0.0
1001
ACAD
1010
0.0
1020
0.0
1030
0.0
  0
LINE
  5
E92
  8
SAPA_GLAS
 10
137.00000007236369
 20
147.14882428408771
 30
0.0
 11
136.25000007201379
 21
147.89882428443761
 31
0.0
1001
ACAD
1010
0.0
1020
0.0
1030
0.0
  0
LINE
  5
E93
  8
SAPA_GLAS
 10
137.000000072365
 20
148.27135629922
 30
0.0
 11
136.25000007201379
 21
149.02135629957129
 31
0.0
1001
ACAD
1010
0.0
1020
0.0
1030
0.0
  0
LINE
  5
E94
  8
SAPA_GLAS
 10
137.00000007236619
 20
149.39388831435249
 30
0.0
 11
136.5938883867172
 21
149.80000000000149
 31
0.0
1001
ACAD
1010
0.0
1020
0.0
1030
0.0
  0
LINE
  5
E95
  8
SAPA_GLAS
 10
137.00000007235261
 20
137.00782841989169
 30
0.0
 11
136.99217165245039
 21
136.99999999998951
 31
0.0
1001
ACAD
1010
0.0
1020
0.0
1030
0.0
  0
LINE
  5
E96
  8
SAPA_GLAS
 10
137.0000000723538
 20
138.1303604350266
 30
0.0
 11
136.25000007201379
 21
137.38036043468651
 31
0.0
1001
ACAD
1010
0.0
1020
0.0
1030
0.0
  0
LINE
  5
E97
  8
SAPA_GLAS
 10
137.00000007235511
 20
139.25289245016151
 30
0.0
 11
136.25000007201379
 21
138.50289244982019
 31
0.0
1001
ACAD
1010
0.0
1020
0.0
1030
0.0
  0
LINE
  5
E98
  8
SAPA_GLAS
 10
137.0000000723563
 20
140.37542446529631
 30
0.0
 11
136.25000007201379
 21
139.6254244649538
 31
0.0
1001
ACAD
1010
0.0
1020
0.0
1030
0.0
  0
LINE
  5
E99
  8
SAPA_GLAS
 10
137.00000007235749
 20
141.49795648043121
 30
0.0
 11
136.25000007201379
 21
140.74795648008751
 31
0.0
1001
ACAD
1010
0.0
1020
0.0
1030
0.0
  0
LINE
  5
E9A
  8
SAPA_GLAS
 10
137.00000007235869
 20
142.62048849556609
 30
0.0
 11
136.25000007201379
 21
141.87048849522111
 31
0.0
1001
ACAD
1010
0.0
1020
0.0
1030
0.0
  0
LINE
  5
E9B
  8
SAPA_GLAS
 10
137.00000007236
 20
143.743020510701
 30
0.0
 11
136.25000007201379
 21
142.99302051035471
 31
0.0
1001
ACAD
1010
0.0
1020
0.0
1030
0.0
  0
LINE
  5
E9C
  8
SAPA_GLAS
 10
137.0000000723613
 20
144.86555252583591
 30
0.0
 11
136.25000007201379
 21
144.1155525254884
 31
0.0
1001
ACAD
1010
0.0
1020
0.0
1030
0.0
  0
LINE
  5
E9D
  8
SAPA_GLAS
 10
137.0000000723625
 20
145.9880845409707
 30
0.0
 11
136.25000007201379
 21
145.238084540622
 31
0.0
1001
ACAD
1010
0.0
1020
0.0
1030
0.0
  0
LINE
  5
E9E
  8
SAPA_GLAS
 10
137.00000007236369
 20
147.11061655610561
 30
0.0
 11
136.25000007201379
 21
146.36061655575571
 31
0.0
1001
ACAD
1010
0.0
1020
0.0
1030
0.0
  0
LINE
  5
E9F
  8
SAPA_GLAS
 10
137.00000007236491
 20
148.23314857124049
 30
0.0
 11
136.25000007201379
 21
147.48314857088931
 31
0.0
1001
ACAD
1010
0.0
1020
0.0
1030
0.0
  0
LINE
  5
EA0
  8
SAPA_GLAS
 10
137.00000007236619
 20
149.3556805863754
 30
0.0
 11
136.25000007201379
 21
148.605680586023
 31
0.0
1001
ACAD
1010
0.0
1020
0.0
1030
0.0
  0
LINE
  5
EA1
  8
SAPA_GLAS
 10
136.32178747085871
 20
149.80000000000149
 30
0.0
 11
136.25000007201379
 21
149.7282126011566
 31
0.0
1001
ACAD
1010
0.0
1020
0.0
1030
0.0
  0
LINE
  5
EA2
  8
SAPA_GLAS
 10
84.250000071675473
 20
137.03703143729189
 30
0.0
 11
83.500000071335805
 21
137.78703143763161
 31
0.0
1001
ACAD
1010
0.0
1020
0.0
1030
0.0
  0
LINE
  5
EA3
  8
SAPA_GLAS
 10
84.250000071675473
 20
138.15956345242549
 30
0.0
 11
83.500000071334568
 21
138.90956345276641
 31
0.0
1001
ACAD
1010
0.0
1020
0.0
1030
0.0
  0
LINE
  5
EA4
  8
SAPA_GLAS
 10
84.250000071675444
 20
139.2820954675592
 30
0.0
 11
83.500000071333304
 21
140.03209546790131
 31
0.0
1001
ACAD
1010
0.0
1020
0.0
1030
0.0
  0
LINE
  5
EA5
  8
SAPA_GLAS
 10
84.250000071675444
 20
140.4046274826928
 30
0.0
 11
83.500000071332096
 21
141.15462748303619
 31
0.0
1001
ACAD
1010
0.0
1020
0.0
1030
0.0
  0
LINE
  5
EA6
  8
SAPA_GLAS
 10
84.250000071675473
 20
141.52715949782649
 30
0.0
 11
83.500000071330859
 21
142.2771594981711
 31
0.0
1001
ACAD
1010
0.0
1020
0.0
1030
0.0
  0
LINE
  5
EA7
  8
SAPA_GLAS
 10
84.250000071675444
 20
142.64969151296009
 30
0.0
 11
83.500000071329623
 21
143.39969151330601
 31
0.0
1001
ACAD
1010
0.0
1020
0.0
1030
0.0
  0
LINE
  5
EA8
  8
SAPA_GLAS
 10
84.250000071675444
 20
143.7722235280938
 30
0.0
 11
83.500000071328373
 21
144.5222235284408
 31
0.0
1001
ACAD
1010
0.0
1020
0.0
1030
0.0
  0
LINE
  5
EA9
  8
SAPA_GLAS
 10
84.250000071675444
 20
144.8947555432274
 30
0.0
 11
83.50000007132715
 21
145.64475554357571
 31
0.0
1001
ACAD
1010
0.0
1020
0.0
1030
0.0
  0
LINE
  5
EAA
  8
SAPA_GLAS
 10
84.250000071675444
 20
146.01728755836109
 30
0.0
 11
83.500000071325914
 21
146.76728755871059
 31
0.0
1001
ACAD
1010
0.0
1020
0.0
1030
0.0
  0
LINE
  5
EAB
  8
SAPA_GLAS
 10
84.250000071675444
 20
147.13981957349469
 30
0.0
 11
83.500000071324678
 21
147.8898195738455
 31
0.0
1001
ACAD
1010
0.0
1020
0.0
1030
0.0
  0
LINE
  5
EAC
  8
SAPA_GLAS
 10
84.250000071675444
 20
148.26235158862829
 30
0.0
 11
83.500000071323441
 21
149.01235158898041
 31
0.0
1001
ACAD
1010
0.0
1020
0.0
1030
0.0
  0
LINE
  5
EAD
  8
SAPA_GLAS
 10
84.250000071675444
 20
149.38488360376201
 30
0.0
 11
83.834883675435904
 21
149.80000000000149
 31
0.0
1001
ACAD
1010
0.0
1020
0.0
1030
0.0
  0
LINE
  5
EAE
  8
SAPA_GLAS
 10
84.250000071675444
 20
137.0168331304958
 30
0.0
 11
84.233166941170026
 21
136.99999999999039
 31
0.0
1001
ACAD
1010
0.0
1020
0.0
1030
0.0
  0
LINE
  5
EAF
  8
SAPA_GLAS
 10
84.250000071675444
 20
138.13936514562951
 30
0.0
 11
83.500000071336245
 21
137.3893651452903
 31
0.0
1001
ACAD
1010
0.0
1020
0.0
1030
0.0
  0
LINE
  5
EB0
  8
SAPA_GLAS
 10
84.250000071675444
 20
139.26189716076311
 30
0.0
 11
83.500000071335023
 21
138.51189716042271
 31
0.0
1001
ACAD
1010
0.0
1020
0.0
1030
0.0
  0
LINE
  5
EB1
  8
SAPA_GLAS
 10
84.250000071675444
 20
140.3844291758968
 30
0.0
 11
83.500000071333773
 21
139.63442917555511
 31
0.0
1001
ACAD
1010
0.0
1020
0.0
1030
0.0
  0
LINE
  5
EB2
  8
SAPA_GLAS
 10
84.250000071675444
 20
141.5069611910304
 30
0.0
 11
83.500000071332551
 21
140.75696119068749
 31
0.0
1001
ACAD
1010
0.0
1020
0.0
1030
0.0
  0
LINE
  5
EB3
  8
SAPA_GLAS
 10
84.250000071675444
 20
142.62949320616411
 30
0.0
 11
83.500000071331314
 21
141.8794932058199
 31
0.0
1001
ACAD
1010
0.0
1020
0.0
1030
0.0
  0
LINE
  5
EB4
  8
SAPA_GLAS
 10
84.250000071675487
 20
143.75202522129771
 30
0.0
 11
83.500000071330078
 21
143.00202522095231
 31
0.0
1001
ACAD
1010
0.0
1020
0.0
1030
0.0
  0
LINE
  5
EB5
  8
SAPA_GLAS
 10
84.250000071675444
 20
144.87455723643129
 30
0.0
 11
83.500000071328813
 21
144.12455723608471
 31
0.0
1001
ACAD
1010
0.0
1020
0.0
1030
0.0
  0
LINE
  5
EB6
  8
SAPA_GLAS
 10
84.250000071675473
 20
145.997089251565
 30
0.0
 11
83.500000071327605
 21
145.24708925121709
 31
0.0
1001
ACAD
1010
0.0
1020
0.0
1030
0.0
  0
LINE
  5
EB7
  8
SAPA_GLAS
 10
84.250000071675444
 20
147.1196212666986
 30
0.0
 11
83.500000071326355
 21
146.3696212663495
 31
0.0
1001
ACAD
1010
0.0
1020
0.0
1030
0.0
  0
LINE
  5
EB8
  8
SAPA_GLAS
 10
84.250000071675473
 20
148.24215328183229
 30
0.0
 11
83.500000071325118
 21
147.4921532814819
 31
0.0
1001
ACAD
1010
0.0
1020
0.0
1030
0.0
  0
LINE
  5
EB9
  8
SAPA_GLAS
 10
84.250000071675444
 20
149.36468529696589
 30
0.0
 11
83.500000071323882
 21
148.61468529661431
 31
0.0
1001
ACAD
1010
0.0
1020
0.0
1030
0.0
  0
LINE
  5
EBA
  8
SAPA_GLAS
 10
83.562782759577431
 20
149.80000000000149
 30
0.0
 11
83.500000071322646
 21
149.7372173117468
 31
0.0
1001
ACAD
1010
0.0
1020
0.0
1030
0.0
  0
LINE
  5
EBB
  8
SAPA_GLAS
 10
107.2500000718364
 20
146.99999999999039
 30
0.0
 11
92.250000071836425
 21
146.99999999999039
 31
0.0
  0
LINE
  5
EBC
  8
SAPA_GLAS
 10
92.250000071836425
 20
146.99999999999039
 30
0.0
 11
92.250000071836425
 21
136.99999999999039
 31
0.0
  0
LINE
  5
EBD
  8
SAPA_GLAS
 10
92.250000071836425
 20
136.99999999999039
 30
0.0
 11
107.2500000718364
 21
136.99999999999039
 31
0.0
  0
LINE
  5
EBE
  8
SAPA_GLAS
 10
107.2500000718364
 20
136.99999999999039
 30
0.0
 11
107.2500000718364
 21
146.99999999999039
 31
0.0
  0
LINE
  5
EBF
  8
SAPA_GLAS
 10
84.250000071836439
 20
168.99999999999039
 30
0.0
 11
84.250000071836439
 21
136.99999999999039
 31
0.0
  0
LINE
  5
EC0
  8
SAPA_GLAS
 10
84.250000071836439
 20
136.99999999999039
 30
0.0
 11
92.250000071836425
 21
136.99999999999039
 31
0.0
  0
LINE
  5
EC1
  8
SAPA_GLAS
 10
92.250000071836425
 20
136.99999999999039
 30
0.0
 11
92.250000071836425
 21
168.99999999999039
 31
0.0
  0
LINE
  5
EC2
  8
SAPA_GLAS
 10
81.784892013034664
 20
133.01175815340301
 30
0.0
 11
81.055130397727154
 21
132.28199653809551
 31
0.0
1001
GRADIENTCOLOR1ACI
1070
     5
1001
GRADIENTCOLOR2ACI
1070
     2
1001
ACAD
1010
0.0
1020
0.0
1030
0.0
  0
LINE
  5
EC3
  8
SAPA_GLAS
 10
81.816774906253841
 20
134.1661730617559
 30
0.0
 11
79.932598382603814
 21
132.28199653810589
 31
0.0
1001
GRADIENTCOLOR1ACI
1070
     5
1001
GRADIENTCOLOR2ACI
1070
     2
1001
ACAD
1010
0.0
1020
0.0
1030
0.0
  0
LINE
  5
EC4
  8
SAPA_GLAS
 10
81.859364147599081
 20
135.33129431823471
 30
0.0
 11
78.810066367480658
 21
132.28199653811629
 31
0.0
1001
GRADIENTCOLOR1ACI
1070
     5
1001
GRADIENTCOLOR2ACI
1070
     2
1001
ACAD
1010
0.0
1020
0.0
1030
0.0
  0
LINE
  5
EC5
  8
SAPA_GLAS
 10
81.912974263440958
 20
136.5074364492103
 30
0.0
 11
77.979015343863523
 21
132.57347752963281
 31
0.0
1001
GRADIENTCOLOR1ACI
1070
     5
1001
GRADIENTCOLOR2ACI
1070
     2
1001
ACAD
1010
0.0
1020
0.0
1030
0.0
  0
LINE
  5
EC6
  8
SAPA_GLAS
 10
77.758519080301483
 20
132.3529812660708
 30
0.0
 11
76.55040778408295
 21
131.14486996985221
 31
0.0
1001
GRADIENTCOLOR1ACI
1070
     5
1001
GRADIENTCOLOR2ACI
1070
     2
1001
ACAD
1010
0.0
1020
0.0
1030
0.0
  0
LINE
  5
EC7
  8
SAPA_GLAS
 10
81.977938311452519
 20
137.69493251235539
 30
0.0
 11
76.037476743984826
 21
131.75447094488769
 31
0.0
1001
GRADIENTCOLOR1ACI
1070
     5
1001
GRADIENTCOLOR2ACI
1070
     2
1001
ACAD
1010
0.0
1020
0.0
1030
0.0
  0
LINE
  5
EC8
  8
SAPA_GLAS
 10
82.054609441249113
 20
138.89413565728569
 30
0.0
 11
76.050000071795637
 21
132.88952628783221
 31
0.0
1001
GRADIENTCOLOR1ACI
1070
     5
1001
GRADIENTCOLOR2ACI
1070
     2
1001
ACAD
1010
0.0
1020
0.0
1030
0.0
  0
LINE
  5
EC9
  8
SAPA_GLAS
 10
81.869938306970766
 20
139.831996538141
 30
0.0
 11
76.050000071795637
 21
134.01205830296581
 31
0.0
1001
GRADIENTCOLOR1ACI
1070
     5
1001
GRADIENTCOLOR2ACI
1070
     2
1001
ACAD
1010
0.0
1020
0.0
1030
0.0
  0
LINE
  5
ECA
  8
SAPA_GLAS
 10
80.747406291836683
 20
139.8319965381406
 30
0.0
 11
78.750000071792726
 21
137.83459031809659
 31
0.0
1001
GRADIENTCOLOR1ACI
1070
     5
1001
GRADIENTCOLOR2ACI
1070
     2
1001
ACAD
1010
0.0
1020
0.0
1030
0.0
  0
LINE
  5
ECB
  8
SAPA_GLAS
 10
77.997406291837706
 20
137.0819965381416
 30
0.0
 11
76.050000071795637
 21
135.1345903180995
 31
0.0
1001
GRADIENTCOLOR1ACI
1070
     5
1001
GRADIENTCOLOR2ACI
1070
     2
1001
ACAD
1010
0.0
1020
0.0
1030
0.0
  0
LINE
  5
ECC
  8
SAPA_GLAS
 10
79.624874276702712
 20
139.8319965381402
 30
0.0
 11
78.750000071792783
 21
138.9571223332303
 31
0.0
1001
GRADIENTCOLOR1ACI
1070
     5
1001
GRADIENTCOLOR2ACI
1070
     2
1001
ACAD
1010
0.0
1020
0.0
1030
0.0
  0
LINE
  5
ECD
  8
SAPA_GLAS
 10
77.750000071792783
 20
137.95712233323019
 30
0.0
 11
76.050000071795694
 21
136.25712233323321
 31
0.0
1001
GRADIENTCOLOR1ACI
1070
     5
1001
GRADIENTCOLOR2ACI
1070
     2
1001
ACAD
1010
0.0
1020
0.0
1030
0.0
  0
LINE
  5
ECE
  8
SAPA_GLAS
 10
78.502342261568685
 20
139.83199653813989
 30
0.0
 11
78.457330346285289
 21
139.78698462285649
 31
0.0
1001
GRADIENTCOLOR1ACI
1070
     5
1001
GRADIENTCOLOR2ACI
1070
     2
1001
ACAD
1010
0.0
1020
0.0
1030
0.0
  0
LINE
  5
ECF
  8
SAPA_GLAS
 10
76.878920629164782
 20
138.20857490573599
 30
0.0
 11
76.050000071795637
 21
137.37965434836681
 31
0.0
1001
GRADIENTCOLOR1ACI
1070
     5
1001
GRADIENTCOLOR2ACI
1070
     2
1001
ACAD
1010
0.0
1020
0.0
1030
0.0
  0
LINE
  5
ED0
  8
SAPA_GLAS
 10
81.803388694788111
 20
139.831996538141
 30
0.0
 11
82.100165571662885
 21
139.5352196612661
 31
0.0
1001
GRADIENTCOLOR1ACI
1070
     5
1001
GRADIENTCOLOR2ACI
1070
     2
1001
ACAD
1010
0.0
1020
0.0
1030
0.0
  0
LINE
  5
ED1
  8
SAPA_GLAS
 10
80.680856679654809
 20
139.8319965381406
 30
0.0
 11
82.027240406728481
 21
138.48561281106689
 31
0.0
1001
GRADIENTCOLOR1ACI
1070
     5
1001
GRADIENTCOLOR2ACI
1070
     2
1001
ACAD
1010
0.0
1020
0.0
1030
0.0
  0
LINE
  5
ED2
  8
SAPA_GLAS
 10
79.558324664521635
 20
139.8319965381402
 30
0.0
 11
81.962382312095755
 21
137.427938890566
 31
0.0
1001
GRADIENTCOLOR1ACI
1070
     5
1001
GRADIENTCOLOR2ACI
1070
     2
1001
ACAD
1010
0.0
1020
0.0
1030
0.0
  0
LINE
  5
ED3
  8
SAPA_GLAS
 10
78.435792649388475
 20
139.83199653813961
 30
0.0
 11
78.506744546313939
 21
139.7610446412142
 31
0.0
1001
GRADIENTCOLOR1ACI
1070
     5
1001
GRADIENTCOLOR2ACI
1070
     2
1001
ACAD
1010
0.0
1020
0.0
1030
0.0
  0
LINE
  5
ED4
  8
SAPA_GLAS
 10
78.679048174867262
 20
139.5887410126609
 30
0.0
 11
81.905767691662604
 21
136.36202149586541
 31
0.0
1001
GRADIENTCOLOR1ACI
1070
     5
1001
GRADIENTCOLOR2ACI
1070
     2
1001
ACAD
1010
0.0
1020
0.0
1030
0.0
  0
LINE
  5
ED5
  8
SAPA_GLAS
 10
78.750000071792726
 20
138.39525710060181
 30
0.0
 11
81.857581191327313
 21
135.2876759810672
 31
0.0
1001
GRADIENTCOLOR1ACI
1070
     5
1001
GRADIENTCOLOR2ACI
1070
     2
1001
ACAD
1010
0.0
1020
0.0
1030
0.0
  0
LINE
  5
ED6
  8
SAPA_GLAS
 10
78.68581354182561
 20
137.33691161543521
 30
0.0
 11
81.818016238676933
 21
134.20470891858389
 31
0.0
1001
GRADIENTCOLOR1ACI
1070
     5
1001
GRADIENTCOLOR2ACI
1070
     2
1001
ACAD
1010
0.0
1020
0.0
1030
0.0
  0
LINE
  5
ED7
  8
SAPA_GLAS
 10
76.568540468539879
 20
138.3316526735874
 30
0.0
 11
77.750000071792783
 21
137.15019307033441
 31
0.0
1001
GRADIENTCOLOR1ACI
1070
     5
1001
GRADIENTCOLOR2ACI
1070
     2
1001
ACAD
1010
0.0
1020
0.0
1030
0.0
  0
LINE
  5
ED8
  8
SAPA_GLAS
 10
77.818196603985712
 20
137.08199653814151
 30
0.0
 11
81.787275629516955
 21
133.11291751261021
 31
0.0
1001
GRADIENTCOLOR1ACI
1070
     5
1001
GRADIENTCOLOR2ACI
1070
     2
1001
ACAD
1010
0.0
1020
0.0
1030
0.0
  0
LINE
  5
ED9
  8
SAPA_GLAS
 10
76.050000071795637
 20
137.72766105519781
 30
0.0
 11
81.49566458890223
 21
132.28199653809131
 31
0.0
1001
GRADIENTCOLOR1ACI
1070
     5
1001
GRADIENTCOLOR2ACI
1070
     2
1001
ACAD
1010
0.0
1020
0.0
1030
0.0
  0
LINE
  5
EDA
  8
SAPA_GLAS
 10
76.050000071795637
 20
136.60512904006421
 30
0.0
 11
80.373132573758141
 21
132.28199653810179
 31
0.0
1001
GRADIENTCOLOR1ACI
1070
     5
1001
GRADIENTCOLOR2ACI
1070
     2
1001
ACAD
1010
0.0
1020
0.0
1030
0.0
  0
LINE
  5
EDB
  8
SAPA_GLAS
 10
76.050000071795637
 20
135.48259702493061
 30
0.0
 11
79.250600558614167
 21
132.28199653811211
 31
0.0
1001
GRADIENTCOLOR1ACI
1070
     5
1001
GRADIENTCOLOR2ACI
1070
     2
1001
ACAD
1010
0.0
1020
0.0
1030
0.0
  0
LINE
  5
EDC
  8
SAPA_GLAS
 10
76.050000071795637
 20
134.36006500979701
 30
0.0
 11
77.88052452743608
 21
132.52954055415651
 31
0.0
1001
GRADIENTCOLOR1ACI
1070
     5
1001
GRADIENTCOLOR2ACI
1070
     2
1001
ACAD
1010
0.0
1020
0.0
1030
0.0
  0
LINE
  5
EDD
  8
SAPA_GLAS
 10
76.050000071795637
 20
133.2375329946633
 30
0.0
 11
77.662091612820461
 21
131.6254414536385
 31
0.0
1001
GRADIENTCOLOR1ACI
1070
     5
1001
GRADIENTCOLOR2ACI
1070
     2
1001
ACAD
1010
0.0
1020
0.0
1030
0.0
  0
LINE
  5
EDE
  8
SAPA_GLAS
 10
76.050000071795694
 20
132.11500097952961
 30
0.0
 11
76.919482591040776
 21
131.24551846028459
 31
0.0
1001
GRADIENTCOLOR1ACI
1070
     5
1001
GRADIENTCOLOR2ACI
1070
     2
1001
ACAD
1010
0.0
1020
0.0
1030
0.0
  0
LINE
  5
EDF
  8
SAPA_GLAS
 10
144.9000000714818
 20
132.1425413492324
 30
0.0
 11
144.0574587222614
 21
131.30000000001201
 31
0.0
1001
GRADIENTCOLOR1ACI
1070
     5
1001
GRADIENTCOLOR2ACI
1070
     2
1001
ACAD
1010
0.0
1020
0.0
1030
0.0
  0
LINE
  5
EE0
  8
SAPA_GLAS
 10
144.90000007149581
 20
133.2650733643801
 30
0.0
 11
142.93492670712769
 21
131.30000000001201
 31
0.0
1001
GRADIENTCOLOR1ACI
1070
     5
1001
GRADIENTCOLOR2ACI
1070
     2
1001
ACAD
1010
0.0
1020
0.0
1030
0.0
  0
LINE
  5
EE1
  8
SAPA_GLAS
 10
144.5529541354517
 20
134.0405594434695
 30
0.0
 11
142.75000007151169
 21
132.23760537952961
 31
0.0
1001
GRADIENTCOLOR1ACI
1070
     5
1001
GRADIENTCOLOR2ACI
1070
     2
1001
ACAD
1010
0.0
1020
0.0
1030
0.0
  0
LINE
  5
EE2
  8
SAPA_GLAS
 10
144.4500000715087
 20
135.06013739466019
 30
0.0
 11
142.1236296951368
 21
132.73376701828829
 31
0.0
1001
GRADIENTCOLOR1ACI
1070
     5
1001
GRADIENTCOLOR2ACI
1070
     2
1001
ACAD
1010
0.0
1020
0.0
1030
0.0
  0
LINE
  5
EE3
  8
SAPA_GLAS
 10
141.7662330532325
 20
132.37637037638399
 30
0.0
 11
141.67130386502811
 21
132.28144118817971
 31
0.0
1001
GRADIENTCOLOR1ACI
1070
     5
1001
GRADIENTCOLOR2ACI
1070
     2
1001
ACAD
1010
0.0
1020
0.0
1030
0.0
  0
LINE
  5
EE4
  8
SAPA_GLAS
 10
144.90000007150309
 20
136.63266940978829
 30
0.0
 11
140.5487718498843
 21
132.28144118816951
 31
0.0
1001
GRADIENTCOLOR1ACI
1070
     5
1001
GRADIENTCOLOR2ACI
1070
     2
1001
ACAD
1010
0.0
1020
0.0
1030
0.0
  0
LINE
  5
EE5
  8
SAPA_GLAS
 10
144.90000007150309
 20
137.75520142492201
 30
0.0
 11
139.42623983474039
 21
132.28144118815931
 31
0.0
1001
GRADIENTCOLOR1ACI
1070
     5
1001
GRADIENTCOLOR2ACI
1070
     2
1001
ACAD
1010
0.0
1020
0.0
1030
0.0
  0
LINE
  5
EE6
  8
SAPA_GLAS
 10
144.70375397878249
 20
138.68148734733501
 30
0.0
 11
138.72196485432389
 21
132.69969822287649
 31
0.0
1001
GRADIENTCOLOR1ACI
1070
     5
1001
GRADIENTCOLOR2ACI
1070
     2
1001
ACAD
1010
0.0
1020
0.0
1030
0.0
  0
LINE
  5
EE7
  8
SAPA_GLAS
 10
143.59973461629929
 20
138.69999999998549
 30
0.0
 11
142.75000007151161
 21
137.85026545519781
 31
0.0
1001
GRADIENTCOLOR1ACI
1070
     5
1001
GRADIENTCOLOR2ACI
1070
     2
1001
ACAD
1010
0.0
1020
0.0
1030
0.0
  0
LINE
  5
EE8
  8
SAPA_GLAS
 10
142.15822874320619
 20
137.2584941268924
 30
0.0
 11
138.69459979865269
 21
133.79486518233881
 31
0.0
1001
GRADIENTCOLOR1ACI
1070
     5
1001
GRADIENTCOLOR2ACI
1070
     2
1001
ACAD
1010
0.0
1020
0.0
1030
0.0
  0
LINE
  5
EE9
  8
SAPA_GLAS
 10
141.75000007151169
 20
137.97279747033139
 30
0.0
 11
138.6583315227692
 21
134.8811289215889
 31
0.0
1001
GRADIENTCOLOR1ACI
1070
     5
1001
GRADIENTCOLOR2ACI
1070
     2
1001
ACAD
1010
0.0
1020
0.0
1030
0.0
  0
LINE
  5
EEA
  8
SAPA_GLAS
 10
141.75000007151169
 20
139.0953294854651
 30
0.0
 11
138.6133665105437
 21
135.95869592449711
 31
0.0
1001
GRADIENTCOLOR1ACI
1070
     5
1001
GRADIENTCOLOR2ACI
1070
     2
1001
ACAD
1010
0.0
1020
0.0
1030
0.0
  0
LINE
  5
EEB
  8
SAPA_GLAS
 10
141.03213857091649
 20
139.50000000000361
 30
0.0
 11
138.5599016437385
 21
137.02776307282551
 31
0.0
1001
GRADIENTCOLOR1ACI
1070
     5
1001
GRADIENTCOLOR2ACI
1070
     2
1001
ACAD
1010
0.0
1020
0.0
1030
0.0
  0
LINE
  5
EEC
  8
SAPA_GLAS
 10
139.90960655578289
 20
139.50000000000361
 30
0.0
 11
138.49812480744589
 21
138.08851825166661
 31
0.0
1001
GRADIENTCOLOR1ACI
1070
     5
1001
GRADIENTCOLOR2ACI
1070
     2
1001
ACAD
1010
0.0
1020
0.0
1030
0.0
  0
LINE
  5
EED
  8
SAPA_GLAS
 10
138.78707454064929
 20
139.50000000000361
 30
0.0
 11
138.4282154468485
 21
139.14114090620291
 31
0.0
1001
GRADIENTCOLOR1ACI
1070
     5
1001
GRADIENTCOLOR2ACI
1070
     2
1001
ACAD
1010
0.0
1020
0.0
1030
0.0
  0
LINE
  5
EEE
  8
SAPA_GLAS
 10
144.68777360918011
 20
138.68687245609931
 30
0.0
 11
144.8868725276327
 21
138.4877735376468
 31
0.0
1001
GRADIENTCOLOR1ACI
1070
     5
1001
GRADIENTCOLOR2ACI
1070
     2
1001
ACAD
1010
0.0
1020
0.0
1030
0.0
  0
LINE
  5
EEF
  8
SAPA_GLAS
 10
143.55211405015959
 20
138.69999999998629
 30
0.0
 11
144.9000000715032
 21
137.35211397864271
 31
0.0
1001
GRADIENTCOLOR1ACI
1070
     5
1001
GRADIENTCOLOR2ACI
1070
     2
1001
ACAD
1010
0.0
1020
0.0
1030
0.0
  0
LINE
  5
EF0
  8
SAPA_GLAS
 10
141.6295820350085
 20
139.50000000000369
 30
0.0
 11
141.75000007151169
 21
139.37958196350041
 31
0.0
1001
GRADIENTCOLOR1ACI
1070
     5
1001
GRADIENTCOLOR2ACI
1070
     2
1001
ACAD
1010
0.0
1020
0.0
1030
0.0
  0
LINE
  5
EF1
  8
SAPA_GLAS
 10
142.75000007151169
 20
138.3795819635005
 30
0.0
 11
144.9000000715032
 21
136.22958196350899
 31
0.0
1001
GRADIENTCOLOR1ACI
1070
     5
1001
GRADIENTCOLOR2ACI
1070
     2
1001
ACAD
1010
0.0
1020
0.0
1030
0.0
  0
LINE
  5
EF2
  8
SAPA_GLAS
 10
140.5070500198749
 20
139.50000000000369
 30
0.0
 11
141.75000007151169
 21
138.25704994836681
 31
0.0
1001
GRADIENTCOLOR1ACI
1070
     5
1001
GRADIENTCOLOR2ACI
1070
     2
1001
ACAD
1010
0.0
1020
0.0
1030
0.0
  0
LINE
  5
EF3
  8
SAPA_GLAS
 10
142.75000007151169
 20
137.2570499483669
 30
0.0
 11
144.45000007150881
 21
135.55704994836969
 31
0.0
1001
GRADIENTCOLOR1ACI
1070
     5
1001
GRADIENTCOLOR2ACI
1070
     2
1001
ACAD
1010
0.0
1020
0.0
1030
0.0
  0
LINE
  5
EF4
  8
SAPA_GLAS
 10
139.38451800474121
 20
139.50000000000361
 30
0.0
 11
144.45000007150881
 21
134.43451793323601
 31
0.0
1001
GRADIENTCOLOR1ACI
1070
     5
1001
GRADIENTCOLOR2ACI
1070
     2
1001
ACAD
1010
0.0
1020
0.0
1030
0.0
  0
LINE
  5
EF5
  8
SAPA_GLAS
 10
138.4134276731408
 20
139.3485583164703
 30
0.0
 11
144.90000007149081
 21
132.8619859181203
 31
0.0
1001
GRADIENTCOLOR1ACI
1070
     5
1001
GRADIENTCOLOR2ACI
1070
     2
1001
ACAD
1010
0.0
1020
0.0
1030
0.0
  0
LINE
  5
EF6
  8
SAPA_GLAS
 10
138.49460058852961
 20
138.14485338594801
 30
0.0
 11
144.90000007147671
 21
131.73945390300091
 31
0.0
1001
GRADIENTCOLOR1ACI
1070
     5
1001
GRADIENTCOLOR2ACI
1070
     2
1001
ACAD
1010
0.0
1020
0.0
1030
0.0
  0
LINE
  5
EF7
  8
SAPA_GLAS
 10
138.56392796246811
 20
136.9529939968759
 30
0.0
 11
144.2169219593319
 21
131.30000000001201
 31
0.0
1001
GRADIENTCOLOR1ACI
1070
     5
1001
GRADIENTCOLOR2ACI
1070
     2
1001
ACAD
1010
0.0
1020
0.0
1030
0.0
  0
LINE
  5
EF8
  8
SAPA_GLAS
 10
138.6217709452944
 20
135.7726189989159
 30
0.0
 11
141.8476072145165
 21
132.54678272969389
 31
0.0
1001
GRADIENTCOLOR1ACI
1070
     5
1001
GRADIENTCOLOR2ACI
1070
     2
1001
ACAD
1010
0.0
1020
0.0
1030
0.0
  0
LINE
  5
EF9
  8
SAPA_GLAS
 10
142.75000007151169
 20
131.64438987269861
 30
0.0
 11
143.0943899441983
 21
131.30000000001201
 31
0.0
1001
GRADIENTCOLOR1ACI
1070
     5
1001
GRADIENTCOLOR2ACI
1070
     2
1001
ACAD
1010
0.0
1020
0.0
1030
0.0
  0
LINE
  5
EFA
  8
SAPA_GLAS
 10
138.668469964146
 20
134.60338796493059
 30
0.0
 11
140.99041674090321
 21
132.28144118817349
 31
0.0
1001
GRADIENTCOLOR1ACI
1070
     5
1001
GRADIENTCOLOR2ACI
1070
     2
1001
ACAD
1010
0.0
1020
0.0
1030
0.0
  0
LINE
  5
EFB
  8
SAPA_GLAS
 10
138.70434634657681
 20
133.44497956736609
 30
0.0
 11
139.86788472577959
 21
132.28144118816331
 31
0.0
1001
GRADIENTCOLOR1ACI
1070
     5
1001
GRADIENTCOLOR2ACI
1070
     2
1001
ACAD
1010
0.0
1020
0.0
1030
0.0
  0
LINE
  5
EFC
  8
SAPA_GLAS
 10
138.7297037832854
 20
132.2970901155239
 30
0.0
 11
138.74535271065631
 21
132.281441188153
 31
0.0
1001
GRADIENTCOLOR1ACI
1070
     5
1001
GRADIENTCOLOR2ACI
1070
     2
1001
ACAD
1010
0.0
1020
0.0
1030
0.0
  0
LINE
  5
EFD
  8
SAPA_BESLAG
 10
130.75000007150851
 20
126.2000000000309
 30
0.0
 11
130.75000007150851
 21
127.00000000003089
 31
0.0
  0
LINE
  5
EFE
  8
SAPA_BESLAG
 10
130.75000007150851
 20
127.00000000003089
 30
0.0
 11
136.75000007118109
 21
127.00000000003089
 31
0.0
  0
LINE
  5
EFF
  8
SAPA_BESLAG
 10
136.75000007118109
 20
127.00000000003089
 30
0.0
 11
136.75000007118109
 21
100.0000000000018
 31
0.0
  0
LINE
  5
F00
  8
SAPA_BESLAG
 10
136.75000007118109
 20
100.0000000000018
 30
0.0
 11
132.0000000719597
 21
100.0000000000018
 31
0.0
  0
LINE
  5
F01
  8
SAPA_BESLAG
 10
132.0000000719597
 20
100.0000000000018
 30
0.0
 11
132.0000000719597
 21
98.000000000001805
 31
0.0
  0
LINE
  5
F02
  8
SAPA_BESLAG
 10
132.0000000719597
 20
98.000000000001805
 30
0.0
 11
131.0000000719597
 21
97.000000000001819
 31
0.0
  0
LINE
  5
F03
  8
SAPA_BESLAG
 10
131.0000000719597
 20
97.000000000001819
 30
0.0
 11
125.2500000715122
 21
97.000000000001819
 31
0.0
  0
LINE
  5
F04
  8
SAPA_BESLAG
 10
125.2500000715122
 20
97.000000000001819
 30
0.0
 11
125.2500000715122
 21
101.9999999999436
 31
0.0
  0
LINE
  5
F05
  8
SAPA_BESLAG
 10
125.2500000715122
 20
101.9999999999436
 30
0.0
 11
117.7500000715122
 21
101.9999999999436
 31
0.0
  0
LINE
  5
F06
  8
SAPA_BESLAG
 10
117.7500000715122
 20
101.9999999999436
 30
0.0
 11
117.7500000715122
 21
97.000000000001819
 31
0.0
  0
LINE
  5
F07
  8
SAPA_BESLAG
 10
117.7500000715122
 20
97.000000000001819
 30
0.0
 11
102.7500000715122
 21
97.000000000001819
 31
0.0
  0
LINE
  5
F08
  8
SAPA_BESLAG
 10
102.7500000715122
 20
97.000000000001819
 30
0.0
 11
102.7500000715122
 21
101.9999999999436
 31
0.0
  0
LINE
  5
F09
  8
SAPA_BESLAG
 10
102.7500000715122
 20
101.9999999999436
 30
0.0
 11
95.250000071512204
 21
101.9999999999436
 31
0.0
  0
LINE
  5
F0A
  8
SAPA_BESLAG
 10
95.250000071512204
 20
101.9999999999436
 30
0.0
 11
95.250000071512204
 21
97.000000000001819
 31
0.0
  0
LINE
  5
F0B
  8
SAPA_BESLAG
 10
95.250000071512204
 20
97.000000000001819
 30
0.0
 11
89.500000071064719
 21
97.000000000001819
 31
0.0
  0
LINE
  5
F0C
  8
SAPA_BESLAG
 10
89.500000071064719
 20
97.000000000001819
 30
0.0
 11
88.500000071064733
 21
98.000000000001805
 31
0.0
  0
LINE
  5
F0D
  8
SAPA_BESLAG
 10
88.500000071064733
 20
98.000000000001805
 30
0.0
 11
88.500000071064733
 21
100.0000000000018
 31
0.0
  0
LINE
  5
F0E
  8
SAPA_BESLAG
 10
88.500000071064733
 20
100.0000000000018
 30
0.0
 11
83.75000007184326
 21
100.0000000000018
 31
0.0
  0
LINE
  5
F0F
  8
SAPA_BESLAG
 10
83.75000007184326
 20
100.0000000000018
 30
0.0
 11
83.75000007184326
 21
127.00000000003089
 31
0.0
  0
LINE
  5
F10
  8
SAPA_BESLAG
 10
83.75000007184326
 20
127.00000000003089
 30
0.0
 11
89.750000071515828
 21
127.00000000003089
 31
0.0
  0
LINE
  5
F11
  8
SAPA_BESLAG
 10
89.750000071515828
 20
127.00000000003089
 30
0.0
 11
89.750000071515828
 21
126.2000000000309
 31
0.0
  0
LINE
  5
F12
  8
SAPA_BESLAG
 10
89.750000071515828
 20
126.2000000000309
 30
0.0
 11
95.250000071515842
 21
126.2000000000309
 31
0.0
  0
LINE
  5
F13
  8
SAPA_BESLAG
 10
95.250000071515842
 20
126.2000000000309
 30
0.0
 11
95.250000071515842
 21
129.50000000003089
 31
0.0
  0
LINE
  5
F14
  8
SAPA_BESLAG
 10
95.250000071515842
 20
129.50000000003089
 30
0.0
 11
125.2500000715085
 21
129.5000000000307
 31
0.0
  0
LINE
  5
F15
  8
SAPA_BESLAG
 10
125.2500000715085
 20
129.5000000000307
 30
0.0
 11
125.2500000715085
 21
126.2000000000309
 31
0.0
  0
LINE
  5
F16
  8
SAPA_BESLAG
 10
125.2500000715085
 20
126.2000000000309
 30
0.0
 11
130.75000007150851
 21
126.2000000000309
 31
0.0
  0
LINE
  5
F17
  8
SAPA_PROFIL
 10
49.5
 20
4.5000000000000071
 30
0.0
 11
49.5
 21
0.5000000000000071
 31
0.0
  0
ARC
  5
F18
  8
SAPA_PROFIL
 10
49.0
 20
0.5000000000000071
 30
0.0
 40
0.5
 50
270.0
 51
0.0
  0
LINE
  5
F19
  8
SAPA_PROFIL
 10
49.0
 20
0.0000000000000071
 30
0.0
 11
0.0
 21
0.0000000000000071
 31
0.0
  0
ARC
  5
F1A
  8
SAPA_PROFIL
 10
0.0
 20
0.5000000000000071
 30
0.0
 40
0.5
 50
180.0
 51
270.0
  0
LINE
  5
F1B
  8
SAPA_PROFIL
 10
-0.5
 20
0.5000000000000071
 30
0.0
 11
-0.5
 21
49.500000000000007
 31
0.0
  0
ARC
  5
F1C
  8
SAPA_PROFIL
 10
0.0
 20
49.500000000000007
 30
0.0
 40
0.5
 50
90.0
 51
180.0
  0
LINE
  5
F1D
  8
SAPA_PROFIL
 10
0.0
 20
50.0
 30
0.0
 11
4.0
 21
50.0
 31
0.0
  0
ARC
  5
F1E
  8
SAPA_PROFIL
 10
4.0
 20
49.500000000000007
 30
0.0
 40
0.5
 50
0.0
 51
90.0
  0
LINE
  5
F1F
  8
SAPA_PROFIL
 10
4.5
 20
49.500000000000007
 30
0.0
 11
4.5
 21
10.0
 31
0.0
  0
ARC
  5
F20
  8
SAPA_PROFIL
 10
9.5
 20
10.0
 30
0.0
 40
5.0
 50
180.0
 51
270.0
  0
LINE
  5
F21
  8
SAPA_PROFIL
 10
9.5
 20
5.0000000000000071
 30
0.0
 11
49.0
 21
5.0000000000000071
 31
0.0
  0
ARC
  5
F22
  8
SAPA_PROFIL
 10
49.0
 20
4.5000000000000071
 30
0.0
 40
0.5
 50
0.0
 51
90.0
  0
LINE
  5
F23
  8
SAPA_PROFIL
 10
93.999999999997726
 20
4.5000000000000071
 30
0.0
 11
93.999999999997726
 21
0.5000000000000071
 31
0.0
  0
ARC
  5
F24
  8
SAPA_PROFIL
 10
94.499999999997726
 20
0.5000000000000071
 30
0.0
 40
0.5
 50
180.0
 51
270.0
  0
LINE
  5
F25
  8
SAPA_PROFIL
 10
94.499999999997726
 20
0.0000000000000071
 30
0.0
 11
143.4999999999977
 21
0.0000000000000071
 31
0.0
  0
ARC
  5
F26
  8
SAPA_PROFIL
 10
143.4999999999977
 20
0.5000000000000071
 30
0.0
 40
0.5
 50
270.0
 51
0.0
  0
LINE
  5
F27
  8
SAPA_PROFIL
 10
143.9999999999977
 20
0.5000000000000071
 30
0.0
 11
143.9999999999977
 21
49.500000000000007
 31
0.0
  0
ARC
  5
F28
  8
SAPA_PROFIL
 10
143.4999999999977
 20
49.500000000000007
 30
0.0
 40
0.5
 50
0.0
 51
90.0
  0
LINE
  5
F29
  8
SAPA_PROFIL
 10
143.4999999999977
 20
50.0
 30
0.0
 11
139.4999999999977
 21
50.0
 31
0.0
  0
ARC
  5
F2A
  8
SAPA_PROFIL
 10
139.4999999999977
 20
49.500000000000007
 30
0.0
 40
0.5
 50
90.0
 51
180.0
  0
LINE
  5
F2B
  8
SAPA_PROFIL
 10
138.9999999999977
 20
49.500000000000007
 30
0.0
 11
138.9999999999977
 21
10.0
 31
0.0
  0
ARC
  5
F2C
  8
SAPA_PROFIL
 10
133.9999999999977
 20
10.0
 30
0.0
 40
5.0
 50
270.0
 51
0.0
  0
LINE
  5
F2D
  8
SAPA_PROFIL
 10
133.9999999999977
 20
5.0000000000000071
 30
0.0
 11
94.499999999997726
 21
5.0000000000000071
 31
0.0
  0
ARC
  5
F2E
  8
SAPA_PROFIL
 10
94.499999999997726
 20
4.5000000000000071
 30
0.0
 40
0.5
 50
90.0
 51
180.0
  0
LINE
  5
F2F
  8
SAPA_PROFIL
 10
54.750000106901091
 20
82.300000000002015
 30
0.0
 11
54.750000106901091
 21
82.300000000002015
 31
0.0
  0
LINE
  5
F30
  8
SAPA_PROFIL
 10
54.750000106901091
 20
82.300000000002015
 30
0.0
 11
54.750000106901091
 21
94.500000000001819
 31
0.0
  0
LINE
  5
F31
  8
SAPA_PROFIL
 10
54.750000106901091
 20
94.500000000001819
 30
0.0
 11
37.250000106901098
 21
94.500000000001819
 31
0.0
  0
LINE
  5
F32
  8
SAPA_PROFIL
 10
37.250000106901098
 20
94.500000000001819
 30
0.0
 11
37.250000106901098
 21
93.900000000001896
 31
0.0
  0
LINE
  5
F33
  8
SAPA_PROFIL
 10
37.250000106901098
 20
93.900000000001896
 30
0.0
 11
34.750000071499016
 21
93.900000000001896
 31
0.0
  0
ARC
  5
F34
  8
SAPA_PROFIL
 10
34.750000071499016
 20
92.900000000001896
 30
0.0
 40
1.0
 50
90.000000000000398
 51
180.0
  0
LINE
  5
F35
  8
SAPA_PROFIL
 10
33.750000071499016
 20
92.900000000001896
 30
0.0
 11
33.750000071499016
 21
83.900000000001896
 31
0.0
  0
ARC
  5
F36
  8
SAPA_PROFIL
 10
34.750000071499016
 20
83.900000000001896
 30
0.0
 40
1.0
 50
180.0
 51
270.0
  0
LINE
  5
F37
  8
SAPA_PROFIL
 10
34.750000071499016
 20
82.900000000001896
 30
0.0
 11
37.250000106901098
 21
82.900000000001896
 31
0.0
  0
LINE
  5
F38
  8
SAPA_PROFIL
 10
37.250000106901098
 20
82.900000000001896
 30
0.0
 11
37.250000106901098
 21
82.300000000002015
 31
0.0
  0
LINE
  5
F39
  8
SAPA_PROFIL
 10
37.250000106901098
 20
82.300000000002015
 30
0.0
 11
54.750000106901091
 21
82.300000000002015
 31
0.0
  0
LINE
  5
F3A
  8
SAPA_PROFIL
 10
54.750000106901091
 20
82.300000000002015
 30
0.0
 11
54.750000106901091
 21
82.300000000002015
 31
0.0
  0
LINE
  5
F3B
  8
SAPA_PROFIL
 10
-0.2499999285009835
 20
82.300000000002015
 30
0.0
 11
31.75000007149902
 21
82.300000000002015
 31
0.0
  0
LINE
  5
F3C
  8
SAPA_PROFIL
 10
31.75000007149902
 20
82.300000000002015
 30
0.0
 11
31.75000007149902
 21
94.500000000001819
 31
0.0
  0
LINE
  5
F3D
  8
SAPA_PROFIL
 10
31.75000007149902
 20
94.500000000001819
 30
0.0
 11
-0.2499999285009835
 21
94.500000000001819
 31
0.0
  0
LINE
  5
F3E
  8
SAPA_PROFIL
 10
-0.2499999285009835
 20
94.500000000001819
 30
0.0
 11
-0.2499999285009835
 21
82.300000000002015
 31
0.0
  0
ARC
  5
F3F
  8
SAPA_PROFIL
 10
23.500000071513568
 20
97.500000000001819
 30
0.0
 40
0.5
 50
180.0
 51
270.0
  0
LINE
  5
F40
  8
SAPA_PROFIL
 10
23.000000071513568
 20
97.500000000001819
 30
0.0
 11
23.000000071513568
 21
99.800000000011096
 31
0.0
  0
ARC
  5
F41
  8
SAPA_PROFIL
 10
23.500000071513568
 20
99.800000000011096
 30
0.0
 40
0.5
 50
90.0
 51
180.0
  0
LINE
  5
F42
  8
SAPA_PROFIL
 10
23.500000071513568
 20
100.3000000000111
 30
0.0
 11
24.762880916684029
 21
100.3000000000111
 31
0.0
  0
ARC
  5
F43
  8
SAPA_PROFIL
 10
28.250000071514229
 20
99.999999999979764
 30
0.0
 40
3.5000000000003548
 50
150.89009105957959
 51
175.08289966395691
  0
ARC
  5
F44
  8
SAPA_PROFIL
 10
25.01735409648154
 20
101.8000000000108
 30
0.0
 40
0.2000000000005668
 50
330.89009105957689
 51
89.999999999998977
  0
LINE
  5
F45
  8
SAPA_PROFIL
 10
25.01735409648154
 20
102.0000000000113
 30
0.0
 11
21.968608623153159
 21
102.0000000000113
 31
0.0
  0
ARC
  5
F46
  8
SAPA_PROFIL
 10
21.968608623153209
 20
101.0000000000114
 30
0.0
 40
0.9999999999999715
 50
90.000000000002856
 51
154.99999999973531
  0
LINE
  5
F47
  8
SAPA_PROFIL
 10
21.062300836118538
 20
101.4226182617562
 30
0.0
 11
19.26923759777128
 21
97.577381738256932
 31
0.0
  0
ARC
  5
F48
  8
SAPA_PROFIL
 10
18.36292981073683
 20
98.000000000001435
 30
0.0
 40
0.9999999999996196
 50
270.00000000001631
 51
334.99999999974841
  0
LINE
  5
F49
  8
SAPA_PROFIL
 10
18.362929810737111
 20
97.000000000001819
 30
0.0
 11
2.0500000715137499
 21
97.000000000001819
 31
0.0
  0
LINE
  5
F4A
  8
SAPA_PROFIL
 10
2.0500000715137499
 20
97.000000000001819
 30
0.0
 11
2.0500000715137499
 21
98.500000000001819
 31
0.0
  0
LINE
  5
F4B
  8
SAPA_PROFIL
 10
2.0500000715137499
 20
98.500000000001819
 30
0.0
 11
1.250000071513568
 21
98.500000000001819
 31
0.0
  0
LINE
  5
F4C
  8
SAPA_PROFIL
 10
1.250000071513568
 20
98.500000000001819
 30
0.0
 11
1.250000071513568
 21
97.000000000001819
 31
0.0
  0
LINE
  5
F4D
  8
SAPA_PROFIL
 10
1.250000071513568
 20
97.000000000001819
 30
0.0
 11
-0.4499999284862497
 21
97.000000000001819
 31
0.0
  0
LINE
  5
F4E
  8
SAPA_PROFIL
 10
-0.4499999284862497
 20
97.000000000001819
 30
0.0
 11
-0.7499999284864316
 21
121.6000000000017
 31
0.0
  0
LINE
  5
F4F
  8
SAPA_PROFIL
 10
-0.7499999284864316
 20
121.6000000000017
 30
0.0
 11
0.9500000715138413
 21
121.6000000000017
 31
0.0
  0
LINE
  5
F50
  8
SAPA_PROFIL
 10
0.9500000715138413
 20
121.6000000000017
 30
0.0
 11
0.9500000715138413
 21
119.6000000000017
 31
0.0
  0
LINE
  5
F51
  8
SAPA_PROFIL
 10
0.9500000715138413
 20
119.6000000000017
 30
0.0
 11
1.750000071513568
 21
119.6000000000017
 31
0.0
  0
LINE
  5
F52
  8
SAPA_PROFIL
 10
1.750000071513568
 20
119.6000000000017
 30
0.0
 11
1.7500000715140229
 21
123.7499999999927
 31
0.0
  0
ARC
  5
F53
  8
SAPA_PROFIL
 10
1.25000007151404
 20
123.7499999999927
 30
0.0
 40
0.4999999999999823
 50
359.99999999999841
 51
90.000000000002046
  0
LINE
  5
F54
  8
SAPA_PROFIL
 10
1.2500000715140229
 20
124.2499999999927
 30
0.0
 11
0.7500000715317583
 21
124.2500000000045
 31
0.0
  0
LINE
  5
F55
  8
SAPA_PROFIL
 10
0.7500000715317583
 20
124.2500000000045
 30
0.0
 11
0.7500000715103852
 21
123.00000000003
 31
0.0
  0
LINE
  5
F56
  8
SAPA_PROFIL
 10
0.7500000715103852
 20
123.00000000003
 30
0.0
 11
-0.6499999284683327
 21
122.9999999999945
 31
0.0
  0
ARC
  5
F57
  8
SAPA_PROFIL
 10
-0.6499999284619143
 20
123.2999999999807
 30
0.0
 40
0.2999999999861416
 50
179.9999999973185
 51
269.99999999877417
  0
LINE
  5
F58
  8
SAPA_PROFIL
 10
-0.9499999284480509
 20
123.2999999999947
 30
0.0
 11
-0.9499999284757905
 21
129.69999999999979
 31
0.0
  0
ARC
  5
F59
  8
SAPA_PROFIL
 10
-0.6499999284861112
 20
129.69999999998211
 30
0.0
 40
0.2999999999896794
 50
89.999999998081023
 51
179.9999999966237
  0
LINE
  5
F5A
  8
SAPA_PROFIL
 10
-0.6499999284760634
 20
129.99999999997181
 30
0.0
 11
0.7500000715103852
 21
129.99999999996399
 31
0.0
  0
LINE
  5
F5B
  8
SAPA_PROFIL
 10
0.7500000715103852
 20
129.99999999996399
 30
0.0
 11
0.7500000715317583
 21
128.74999999999
 31
0.0
  0
LINE
  5
F5C
  8
SAPA_PROFIL
 10
0.7500000715317583
 20
128.74999999999
 30
0.0
 11
1.2500000715140229
 21
128.75000000000179
 31
0.0
  0
ARC
  5
F5D
  8
SAPA_PROFIL
 10
1.250000071513792
 20
129.25000000000159
 30
0.0
 40
0.4999999999997727
 50
270.00000000002649
 51
0.0000000000260551
  0
LINE
  5
F5E
  8
SAPA_PROFIL
 10
1.750000071513568
 20
129.25000000000179
 30
0.0
 11
1.7500000715140229
 21
132.25000000000179
 31
0.0
  0
ARC
  5
F5F
  8
SAPA_PROFIL
 10
1.250000071514026
 20
132.25000000000909
 30
0.0
 40
0.4999999999999965
 50
359.99999999916622
 51
90.000000000000398
  0
LINE
  5
F60
  8
SAPA_PROFIL
 10
1.2500000715140229
 20
132.75000000000909
 30
0.0
 11
0.7500000715140232
 21
132.75000000000909
 31
0.0
  0
LINE
  5
F61
  8
SAPA_PROFIL
 10
0.7500000715140232
 20
132.75000000000909
 30
0.0
 11
0.7500000715144779
 21
131.30000000001201
 31
0.0
  0
LINE
  5
F62
  8
SAPA_PROFIL
 10
0.7500000715144779
 20
131.30000000001201
 30
0.0
 11
-1.099999928478155
 21
131.30000000001201
 31
0.0
  0
ARC
  5
F63
  8
SAPA_PROFIL
 10
-1.099999928462003
 20
131.5999999999988
 30
0.0
 40
0.2999999999867668
 50
179.99999999691681
 51
269.99999999691522
  0
LINE
  5
F64
  8
SAPA_PROFIL
 10
-1.3999999284487781
 20
131.60000000001489
 30
0.0
 11
-1.3999999284774269
 21
133.84019237887151
 31
0.0
  0
LINE
  5
F65
  8
SAPA_PROFIL
 10
-1.3999999284774269
 20
133.84019237887151
 30
0.0
 11
-0.9499999284830664
 21
134.10000000000031
 31
0.0
  0
LINE
  5
F66
  8
SAPA_PROFIL
 10
-0.9499999284830664
 20
134.10000000000031
 30
0.0
 11
-0.9499999284830664
 21
135.90000000001049
 31
0.0
  0
LINE
  5
F67
  8
SAPA_PROFIL
 10
-0.9499999284830664
 20
135.90000000001049
 30
0.0
 11
-1.3999999284774269
 21
136.15980762113941
 31
0.0
  0
LINE
  5
F68
  8
SAPA_PROFIL
 10
-1.3999999284774269
 20
136.15980762113941
 30
0.0
 11
-1.3999999284774269
 21
138.399999999996
 31
0.0
  0
ARC
  5
F69
  8
SAPA_PROFIL
 10
-1.0999999284917901
 20
138.3999999999842
 30
0.0
 40
0.2999999999856371
 50
89.999999997048448
 51
179.9999999977419
  0
LINE
  5
F6A
  8
SAPA_PROFIL
 10
-1.099999928476336
 20
138.6999999999698
 30
0.0
 11
0.7500000715144779
 21
138.69999999999891
 31
0.0
  0
LINE
  5
F6B
  8
SAPA_PROFIL
 10
0.7500000715144779
 20
138.69999999999891
 30
0.0
 11
0.7500000715140232
 21
137.25000000000179
 31
0.0
  0
LINE
  5
F6C
  8
SAPA_PROFIL
 10
0.7500000715140232
 20
137.25000000000179
 30
0.0
 11
1.2500000715140229
 21
137.25000000000179
 31
0.0
  0
ARC
  5
F6D
  8
SAPA_PROFIL
 10
1.25000007151404
 20
137.75000000000179
 30
0.0
 40
0.4999999999999716
 50
269.99999999999801
 51
0.0000000000032569
  0
LINE
  5
F6E
  8
SAPA_PROFIL
 10
1.7500000715140229
 20
137.75000000000179
 30
0.0
 11
1.7500000715140229
 21
139.50000000000179
 31
0.0
  0
ARC
  5
F6F
  8
SAPA_PROFIL
 10
1.250000071514008
 20
139.50000000000179
 30
0.0
 40
0.5000000000000142
 50
0.0
 51
89.999999999998366
  0
LINE
  5
F70
  8
SAPA_PROFIL
 10
1.2500000715140229
 20
140.00000000000179
 30
0.0
 11
-1.249999928485976
 21
140.0000000000023
 31
0.0
  0
ARC
  5
F71
  8
SAPA_PROFIL
 10
-1.2499999284860619
 20
138.0000000000023
 30
0.0
 40
1.9999999999999141
 50
89.999999999997556
 51
180.00000000000239
  0
LINE
  5
F72
  8
SAPA_PROFIL
 10
-3.249999928485976
 20
138.00000000000219
 30
0.0
 11
-3.2499999284864312
 21
24.375000000000458
 31
0.0
  0
ARC
  5
F73
  8
SAPA_PROFIL
 10
-1.874999928486204
 20
24.375000000000441
 30
0.0
 40
1.3750000000002269
 50
179.99999999999909
 51
0.0000000000008882
  0
LINE
  5
F74
  8
SAPA_PROFIL
 10
-0.4999999284859769
 20
24.375000000000458
 30
0.0
 11
-0.4999999284859769
 21
76.000000000006366
 31
0.0
  0
ARC
  5
F75
  8
SAPA_PROFIL
 10
3.5000000715140791
 20
76.00000000000631
 30
0.0
 40
4.000000000000056
 50
89.999999999994287
 51
179.9999999999992
  0
LINE
  5
F76
  8
SAPA_PROFIL
 10
3.500000071514477
 20
80.000000000006366
 30
0.0
 11
57.550000071512841
 21
80.000000000001819
 31
0.0
  0
ARC
  5
F77
  8
SAPA_PROFIL
 10
57.750000071512879
 20
80.000000000003638
 30
0.0
 40
0.2000000000000455
 50
0.0000000005211021
 51
180.00000000052111
  0
LINE
  5
F78
  8
SAPA_PROFIL
 10
57.950000071512932
 20
80.000000000005457
 30
0.0
 11
61.535810509139992
 21
79.999976000005063
 31
0.0
  0
ARC
  5
F79
  8
SAPA_PROFIL
 10
61.535810509139992
 20
80.999976000005162
 30
0.0
 40
1.000000000000099
 50
270.0000000000004
 51
44.99999999999568
  0
LINE
  5
F7A
  8
SAPA_PROFIL
 10
62.242917290326659
 20
81.70708278119173
 30
0.0
 11
60.937868037157841
 21
83.012132034361002
 31
0.0
  0
ARC
  5
F7B
  8
SAPA_PROFIL
 10
60.725736002801909
 20
82.800000000004701
 30
0.0
 40
0.3000000000002104
 50
45.000000000050854
 51
90.000000000066478
  0
LINE
  5
F7C
  8
SAPA_PROFIL
 10
60.725736002801568
 20
83.100000000004897
 30
0.0
 11
60.139230556054827
 21
83.100000000004897
 31
0.0
  0
ARC
  5
F7D
  8
SAPA_PROFIL
 10
60.139230556055331
 20
82.800000000004545
 30
0.0
 40
0.3000000000003524
 50
90.000000000096335
 51
120.0000000000925
  0
LINE
  5
F7E
  8
SAPA_PROFIL
 10
59.989230556054729
 20
83.059807621139939
 30
0.0
 11
58.500000071513568
 21
82.20000000000482
 31
0.0
  0
LINE
  5
F7F
  8
SAPA_PROFIL
 10
58.500000071513568
 20
82.20000000000482
 30
0.0
 11
58.05000007151375
 21
82.199988000005305
 31
0.0
  0
ARC
  5
F80
  8
SAPA_PROFIL
 10
58.050000071513523
 20
82.499988000005246
 30
0.0
 40
0.2999999999999403
 50
180.0000000000407
 51
270.00000000004479
  0
LINE
  5
F81
  8
SAPA_PROFIL
 10
57.750000071513568
 20
82.499988000005018
 30
0.0
 11
57.750000071514023
 21
86.100000000005366
 31
0.0
  0
ARC
  5
F82
  8
SAPA_PROFIL
 10
58.05000007151375
 20
86.100000000005366
 30
0.0
 40
0.2999999999997271
 50
90.0
 51
180.0
  0
LINE
  5
F83
  8
SAPA_PROFIL
 10
58.05000007151375
 20
86.400000000005093
 30
0.0
 11
58.500000071514023
 21
86.400000000005093
 31
0.0
  0
LINE
  5
F84
  8
SAPA_PROFIL
 10
58.500000071514023
 20
86.400000000005093
 30
0.0
 11
59.989260202587957
 21
85.540175262436151
 31
0.0
  0
ARC
  5
F85
  8
SAPA_PROFIL
 10
60.139260202588041
 20
85.7999828835719
 30
0.0
 40
0.3000000000004038
 50
240.00000000002609
 51
269.99635313258409
  0
LINE
  5
F86
  8
SAPA_PROFIL
 10
60.139241107634909
 20
85.49998288417919
 30
0.0
 11
60.250000071513568
 21
85.499975834388366
 31
0.0
  0
LINE
  5
F87
  8
SAPA_PROFIL
 10
60.250000071513568
 20
85.499975834388366
 30
0.0
 11
60.250000071513107
 21
87.121687836493024
 31
0.0
  0
ARC
  5
F88
  8
SAPA_PROFIL
 10
59.250000071513448
 20
87.121687836492868
 30
0.0
 40
0.999999999999666
 50
0.0000000000097707
 51
60.000000000011141
  0
LINE
  5
F89
  8
SAPA_PROFIL
 10
59.750000071513121
 20
87.987713240277117
 30
0.0
 11
58.250000071513568
 21
88.853738644061195
 31
0.0
  0
ARC
  5
F8A
  8
SAPA_PROFIL
 10
58.750000071513249
 20
89.719764047845445
 30
0.0
 40
0.9999999999996795
 50
180.00000000000969
 51
240.00000000001009
  0
LINE
  5
F8B
  8
SAPA_PROFIL
 10
57.750000071513568
 20
89.719764047845274
 30
0.0
 11
57.750000071513568
 21
90.280235952161533
 31
0.0
  0
ARC
  5
F8C
  8
SAPA_PROFIL
 10
58.750000071513632
 20
90.280235952161604
 30
0.0
 40
1.0000000000000711
 50
120.0000000000024
 51
180.00000000000321
  0
LINE
  5
F8D
  8
SAPA_PROFIL
 10
58.250000071513568
 20
91.146261355946081
 30
0.0
 11
59.750000071513121
 21
92.012286759731069
 31
0.0
  0
ARC
  5
F8E
  8
SAPA_PROFIL
 10
59.250000071513689
 20
92.878312163515702
 30
0.0
 40
0.9999999999998768
 50
299.9999999999655
 51
359.99999999996822
  0
LINE
  5
F8F
  8
SAPA_PROFIL
 10
60.250000071513568
 20
92.878312163515147
 30
0.0
 11
60.250000071513568
 21
94.500024165618925
 31
0.0
  0
LINE
  5
F90
  8
SAPA_PROFIL
 10
60.250000071513568
 20
94.500024165618925
 30
0.0
 11
60.139241107634909
 21
94.500017115828086
 31
0.0
  0
ARC
  5
F91
  8
SAPA_PROFIL
 10
60.139260202588893
 20
94.200017116435134
 30
0.0
 40
0.3000000000006333
 50
90.003646867578723
 51
120.00000000013669
  0
LINE
  5
F92
  8
SAPA_PROFIL
 10
59.989260202587957
 20
94.459824737570685
 30
0.0
 11
58.500000071514023
 21
93.600000000002169
 31
0.0
  0
LINE
  5
F93
  8
SAPA_PROFIL
 10
58.500000071514023
 20
93.600000000002169
 30
0.0
 11
58.05000007151375
 21
93.600000000001728
 31
0.0
  0
ARC
  5
F94
  8
SAPA_PROFIL
 10
58.050000071513978
 20
93.900000000001697
 30
0.0
 40
0.2999999999999545
 50
179.99999999995649
 51
269.99999999995657
  0
LINE
  5
F95
  8
SAPA_PROFIL
 10
57.750000071514023
 20
93.900000000001896
 30
0.0
 11
57.750000071513568
 21
97.500012000001789
 31
0.0
  0
ARC
  5
F96
  8
SAPA_PROFIL
 10
58.050000071513743
 20
97.500012000001803
 30
0.0
 40
0.3000000000001748
 50
89.999999999998636
 51
180.0000000000027
  0
LINE
  5
F97
  8
SAPA_PROFIL
 10
58.05000007151375
 20
97.800012000001985
 30
0.0
 11
58.500000071513568
 21
97.800000000002001
 31
0.0
  0
LINE
  5
F98
  8
SAPA_PROFIL
 10
58.500000071513568
 20
97.800000000002001
 30
0.0
 11
59.989230556054729
 21
96.940192378866868
 31
0.0
  0
ARC
  5
F99
  8
SAPA_PROFIL
 10
60.139230556054478
 20
97.200000000002476
 30
0.0
 40
0.3000000000000979
 50
240.0000000000675
 51
270.00000000006639
  0
LINE
  5
F9A
  8
SAPA_PROFIL
 10
60.139230556054827
 20
96.900000000002365
 30
0.0
 11
60.725736002801568
 21
96.900000000002365
 31
0.0
  0
ARC
  5
F9B
  8
SAPA_PROFIL
 10
60.725736002801909
 20
97.200000000002561
 30
0.0
 40
0.3000000000001961
 50
269.99999999993349
 51
314.999999999951
  0
LINE
  5
F9C
  8
SAPA_PROFIL
 10
60.937868037157841
 20
96.987867965646274
 30
0.0
 11
62.242917290326659
 21
98.292917218815546
 31
0.0
  0
ARC
  5
F9D
  8
SAPA_PROFIL
 10
61.535810509140077
 20
99.000024000001901
 30
0.0
 40
0.9999999999998724
 50
315.00000000000949
 51
90.000000000005286
  0
LINE
  5
F9E
  8
SAPA_PROFIL
 10
61.535810509139992
 20
100.0000240000017
 30
0.0
 11
57.950000071512932
 21
100.0000000000018
 31
0.0
  0
ARC
  5
F9F
  8
SAPA_PROFIL
 10
57.750000071513341
 20
100.0000000000018
 30
0.0
 40
0.1999999999995907
 50
180.0
 51
0.0
  0
LINE
  5
FA0
  8
SAPA_PROFIL
 10
57.55000007151375
 20
100.0000000000018
 30
0.0
 11
56.250000041964078
 21
100.0000000000018
 31
0.0
  0
ARC
  5
FA1
  8
SAPA_PROFIL
 10
56.250000042108113
 20
99.000000000145661
 30
0.0
 40
0.9999999998561577
 50
90.000000008251746
 51
180.00000000845
  0
LINE
  5
FA2
  8
SAPA_PROFIL
 10
55.250000042251941
 20
98.999999999998195
 30
0.0
 11
55.250000042251941
 21
98.000000000001805
 31
0.0
  0
ARC
  5
FA3
  8
SAPA_PROFIL
 10
54.250000042251941
 20
98.000000000001805
 30
0.0
 40
1.0
 50
270.0
 51
0.0
  0
LINE
  5
FA4
  8
SAPA_PROFIL
 10
54.250000042251941
 20
97.000000000001819
 30
0.0
 11
48.137070332290932
 21
97.000000000001819
 31
0.0
  0
ARC
  5
FA5
  8
SAPA_PROFIL
 10
48.137070332291003
 20
98.000000000001805
 30
0.0
 40
0.9999999999999857
 50
205.00000000026509
 51
269.99999999999642
  0
LINE
  5
FA6
  8
SAPA_PROFIL
 10
47.230762545256312
 20
97.577381738256932
 30
0.0
 11
45.437699306909053
 21
101.4226182617562
 31
0.0
  0
ARC
  5
FA7
  8
SAPA_PROFIL
 10
44.531391519874369
 20
101.0000000000114
 30
0.0
 40
0.999999999999982
 50
25.000000000265221
 51
89.999999999996746
  0
LINE
  5
FA8
  8
SAPA_PROFIL
 10
44.531391519874433
 20
102.0000000000113
 30
0.0
 11
41.482646046546051
 21
102.0000000000113
 31
0.0
  0
ARC
  5
FA9
  8
SAPA_PROFIL
 10
41.482646046546037
 20
101.8000000000108
 30
0.0
 40
0.2000000000005571
 50
89.999999999997968
 51
209.10990894042459
  0
ARC
  5
FAA
  8
SAPA_PROFIL
 10
38.250000071513362
 20
99.999999999979764
 30
0.0
 40
3.500000000000357
 50
4.9171003360431147
 51
29.109908940420279
  0
LINE
  5
FAB
  8
SAPA_PROFIL
 10
41.737119226343559
 20
100.3000000000111
 30
0.0
 11
43.000000071513561
 21
100.3000000000111
 31
0.0
  0
ARC
  5
FAC
  8
SAPA_PROFIL
 10
43.000000071513561
 20
99.800000000011096
 30
0.0
 40
0.5
 50
0.0
 51
90.0
  0
LINE
  5
FAD
  8
SAPA_PROFIL
 10
43.500000071513568
 20
99.800000000011096
 30
0.0
 11
43.500000071513568
 21
97.500000000001819
 31
0.0
  0
ARC
  5
FAE
  8
SAPA_PROFIL
 10
43.000000071513561
 20
97.500000000001819
 30
0.0
 40
0.5
 50
270.0
 51
0.0
  0
LINE
  5
FAF
  8
SAPA_PROFIL
 10
43.000000071513561
 20
97.000000000001819
 30
0.0
 11
40.05277570928228
 21
97.000000000001819
 31
0.0
  0
ARC
  5
FB0
  8
SAPA_PROFIL
 10
38.250000071513803
 20
99.999999999979892
 30
0.0
 40
3.5000000000000031
 50
238.99728086542899
 51
301.00271913457101
  0
LINE
  5
FB1
  8
SAPA_PROFIL
 10
36.447224433745312
 20
97.000000000001819
 30
0.0
 11
30.05277570928229
 21
97.000000000001819
 31
0.0
  0
ARC
  5
FB2
  8
SAPA_PROFIL
 10
28.250000071513799
 20
99.999999999979892
 30
0.0
 40
3.4999999999999911
 50
238.99728086542891
 51
301.00271913457112
  0
LINE
  5
FB3
  8
SAPA_PROFIL
 10
26.447224433745308
 20
97.000000000001819
 30
0.0
 11
23.500000071513568
 21
97.000000000001819
 31
0.0
  0
LINE
  5
FB4
  8
SAPA_PROFIL
 10
88.750000036125115
 20
82.300000000002015
 30
0.0
 11
88.750000036125115
 21
82.300000000002015
 31
0.0
  0
LINE
  5
FB5
  8
SAPA_PROFIL
 10
88.750000036125115
 20
82.300000000002015
 30
0.0
 11
88.750000036125115
 21
94.500000000001819
 31
0.0
  0
LINE
  5
FB6
  8
SAPA_PROFIL
 10
88.750000036125115
 20
94.500000000001819
 30
0.0
 11
106.2500000361251
 21
94.500000000001819
 31
0.0
  0
LINE
  5
FB7
  8
SAPA_PROFIL
 10
106.2500000361251
 20
94.500000000001819
 30
0.0
 11
106.2500000361251
 21
93.900000000001896
 31
0.0
  0
LINE
  5
FB8
  8
SAPA_PROFIL
 10
106.2500000361251
 20
93.900000000001896
 30
0.0
 11
108.7500000715272
 21
93.900000000001896
 31
0.0
  0
ARC
  5
FB9
  8
SAPA_PROFIL
 10
108.7500000715272
 20
92.900000000001896
 30
0.0
 40
1.0
 50
0.0
 51
90.0
  0
LINE
  5
FBA
  8
SAPA_PROFIL
 10
109.7500000715272
 20
92.900000000001896
 30
0.0
 11
109.7500000715272
 21
83.900000000001896
 31
0.0
  0
ARC
  5
FBB
  8
SAPA_PROFIL
 10
108.7500000715272
 20
83.900000000001896
 30
0.0
 40
1.0
 50
270.0
 51
0.0
  0
LINE
  5
FBC
  8
SAPA_PROFIL
 10
108.7500000715272
 20
82.900000000001896
 30
0.0
 11
106.2500000361251
 21
82.900000000001896
 31
0.0
  0
LINE
  5
FBD
  8
SAPA_PROFIL
 10
106.2500000361251
 20
82.900000000001896
 30
0.0
 11
106.2500000361251
 21
82.300000000002015
 31
0.0
  0
LINE
  5
FBE
  8
SAPA_PROFIL
 10
106.2500000361251
 20
82.300000000002015
 30
0.0
 11
88.750000036125115
 21
82.300000000002015
 31
0.0
  0
LINE
  5
FBF
  8
SAPA_PROFIL
 10
88.750000036125115
 20
82.300000000002015
 30
0.0
 11
88.750000036125115
 21
82.300000000002015
 31
0.0
  0
LINE
  5
FC0
  8
SAPA_PROFIL
 10
143.75000007152721
 20
82.300000000002015
 30
0.0
 11
111.7500000715272
 21
82.300000000002015
 31
0.0
  0
LINE
  5
FC1
  8
SAPA_PROFIL
 10
111.7500000715272
 20
82.300000000002015
 30
0.0
 11
111.7500000715272
 21
94.500000000001819
 31
0.0
  0
LINE
  5
FC2
  8
SAPA_PROFIL
 10
111.7500000715272
 20
94.500000000001819
 30
0.0
 11
143.75000007152721
 21
94.500000000001819
 31
0.0
  0
LINE
  5
FC3
  8
SAPA_PROFIL
 10
143.75000007152721
 20
94.500000000001819
 30
0.0
 11
143.75000007152721
 21
82.300000000002015
 31
0.0
  0
ARC
  5
FC4
  8
SAPA_PROFIL
 10
85.750000071512886
 20
80.000000000003638
 30
0.0
 40
0.2000000000000455
 50
359.99999999947892
 51
179.99999999947889
  0
LINE
  5
FC5
  8
SAPA_PROFIL
 10
85.550000071512827
 20
80.000000000005457
 30
0.0
 11
81.964189633885795
 21
79.999976000005063
 31
0.0
  0
ARC
  5
FC6
  8
SAPA_PROFIL
 10
81.964189633885795
 20
80.999976000005162
 30
0.0
 40
1.000000000000099
 50
135.00000000000401
 51
270.0
  0
LINE
  5
FC7
  8
SAPA_PROFIL
 10
81.257082852699114
 20
81.70708278119173
 30
0.0
 11
82.562132105867931
 21
83.012132034361002
 31
0.0
  0
ARC
  5
FC8
  8
SAPA_PROFIL
 10
82.774264140223835
 20
82.800000000004715
 30
0.0
 40
0.3000000000001953
 50
89.999999999932157
 51
134.99999999995009
  0
LINE
  5
FC9
  8
SAPA_PROFIL
 10
82.774264140224204
 20
83.100000000004897
 30
0.0
 11
83.360769586971387
 21
83.100000000004897
 31
0.0
  0
ARC
  5
FCA
  8
SAPA_PROFIL
 10
83.360769586970676
 20
82.800000000005426
 30
0.0
 40
0.2999999999994856
 50
59.999999999863498
 51
89.999999999861586
  0
LINE
  5
FCB
  8
SAPA_PROFIL
 10
83.510769586971037
 20
83.059807621139939
 30
0.0
 11
85.000000071512204
 21
82.20000000000482
 31
0.0
  0
LINE
  5
FCC
  8
SAPA_PROFIL
 10
85.000000071512204
 20
82.20000000000482
 30
0.0
 11
85.450000071512022
 21
82.199988000005305
 31
0.0
  0
ARC
  5
FCD
  8
SAPA_PROFIL
 10
85.450000071512264
 20
82.499988000005246
 30
0.0
 40
0.2999999999999403
 50
269.9999999999539
 51
359.9999999999593
  0
LINE
  5
FCE
  8
SAPA_PROFIL
 10
85.750000071512204
 20
82.499988000005018
 30
0.0
 11
85.750000071512204
 21
86.100000000005366
 31
0.0
  0
ARC
  5
FCF
  8
SAPA_PROFIL
 10
85.45000007151225
 20
86.100000000005139
 30
0.0
 40
0.2999999999999545
 50
0.0000000000434252
 51
90.000000000043414
  0
LINE
  5
FD0
  8
SAPA_PROFIL
 10
85.450000071512022
 20
86.400000000005093
 30
0.0
 11
85.000000071512204
 21
86.400000000005093
 31
0.0
  0
LINE
  5
FD1
  8
SAPA_PROFIL
 10
85.000000071512204
 20
86.400000000005093
 30
0.0
 11
83.510739940437816
 21
85.540175262436151
 31
0.0
  0
ARC
  5
FD2
  8
SAPA_PROFIL
 10
83.360739940437952
 20
85.799982883571047
 30
0.0
 40
0.2999999999995552
 50
270.0036468674607
 51
300.00000000001887
  0
LINE
  5
FD3
  8
SAPA_PROFIL
 10
83.360759035391297
 20
85.49998288417919
 30
0.0
 11
83.250000071512204
 21
85.499975834388366
 31
0.0
  0
LINE
  5
FD4
  8
SAPA_PROFIL
 10
83.250000071512204
 20
85.499975834388366
 30
0.0
 11
83.250000071512645
 21
87.121687836493024
 31
0.0
  0
ARC
  5
FD5
  8
SAPA_PROFIL
 10
84.250000071512332
 20
87.121687836492868
 30
0.0
 40
0.9999999999996732
 50
119.9999999999892
 51
179.99999999999019
  0
LINE
  5
FD6
  8
SAPA_PROFIL
 10
83.750000071512659
 20
87.987713240277117
 30
0.0
 11
85.250000071512204
 21
88.853738644061195
 31
0.0
  0
ARC
  5
FD7
  8
SAPA_PROFIL
 10
84.750000071512531
 20
89.719764047845445
 30
0.0
 40
0.9999999999996724
 50
299.9999999999892
 51
359.99999999999022
  0
LINE
  5
FD8
  8
SAPA_PROFIL
 10
85.750000071512204
 20
89.719764047845274
 30
0.0
 11
85.750000071512204
 21
90.280235952161533
 31
0.0
  0
ARC
  5
FD9
  8
SAPA_PROFIL
 10
84.750000071512133
 20
90.280235952161604
 30
0.0
 40
1.0000000000000711
 50
359.99999999999682
 51
59.999999999997563
  0
LINE
  5
FDA
  8
SAPA_PROFIL
 10
85.250000071512204
 20
91.146261355946081
 30
0.0
 11
83.750000071512659
 21
92.012286759731069
 31
0.0
  0
ARC
  5
FDB
  8
SAPA_PROFIL
 10
84.250000071512105
 20
92.878312163515702
 30
0.0
 40
0.999999999999884
 50
180.00000000003169
 51
240.00000000003379
  0
LINE
  5
FDC
  8
SAPA_PROFIL
 10
83.250000071512204
 20
92.878312163515147
 30
0.0
 11
83.250000071512204
 21
94.500024165618925
 31
0.0
  0
LINE
  5
FDD
  8
SAPA_PROFIL
 10
83.250000071512204
 20
94.500024165618925
 30
0.0
 11
83.360759035391297
 21
94.500017115828086
 31
0.0
  0
ARC
  5
FDE
  8
SAPA_PROFIL
 10
83.360739940437114
 20
94.200017116436001
 30
0.0
 40
0.2999999999997807
 50
59.999999999820652
 51
89.996353132379184
  0
LINE
  5
FDF
  8
SAPA_PROFIL
 10
83.510739940437816
 20
94.459824737570685
 30
0.0
 11
85.000000071512204
 21
93.600000000002169
 31
0.0
  0
LINE
  5
FE0
  8
SAPA_PROFIL
 10
85.000000071512204
 20
93.600000000002169
 30
0.0
 11
85.450000071512022
 21
93.600000000001728
 31
0.0
  0
ARC
  5
FE1
  8
SAPA_PROFIL
 10
85.450000071512022
 20
93.900000000001896
 30
0.0
 40
0.3000000000001819
 50
270.0
 51
0.0
  0
LINE
  5
FE2
  8
SAPA_PROFIL
 10
85.750000071512204
 20
93.900000000001896
 30
0.0
 11
85.750000071512204
 21
97.500012000001789
 31
0.0
  0
ARC
  5
FE3
  8
SAPA_PROFIL
 10
85.450000071512036
 20
97.500012000001803
 30
0.0
 40
0.3000000000001677
 50
359.99999999999733
 51
90.000000000002728
  0
LINE
  5
FE4
  8
SAPA_PROFIL
 10
85.450000071512022
 20
97.800012000001985
 30
0.0
 11
85.000000071512204
 21
97.800000000002001
 31
0.0
  0
LINE
  5
FE5
  8
SAPA_PROFIL
 10
85.000000071512204
 20
97.800000000002001
 30
0.0
 11
83.510769586971037
 21
96.940192378866868
 31
0.0
  0
ARC
  5
FE6
  8
SAPA_PROFIL
 10
83.360769586971514
 20
97.200000000001623
 30
0.0
 40
0.2999999999992616
 50
269.99999999997829
 51
299.99999999997613
  0
LINE
  5
FE7
  8
SAPA_PROFIL
 10
83.360769586971387
 20
96.900000000002365
 30
0.0
 11
82.774264140224204
 21
96.900000000002365
 31
0.0
  0
ARC
  5
FE8
  8
SAPA_PROFIL
 10
82.774264140223835
 20
97.200000000002561
 30
0.0
 40
0.3000000000001961
 50
225.00000000004991
 51
270.00000000006781
  0
LINE
  5
FE9
  8
SAPA_PROFIL
 10
82.562132105867931
 20
96.987867965646274
 30
0.0
 11
81.257082852699114
 21
98.292917218815546
 31
0.0
  0
ARC
  5
FEA
  8
SAPA_PROFIL
 10
81.964189633885681
 20
99.000024000001901
 30
0.0
 40
0.9999999999998674
 50
89.999999999994287
 51
224.99999999999079
  0
LINE
  5
FEB
  8
SAPA_PROFIL
 10
81.964189633885795
 20
100.0000240000017
 30
0.0
 11
85.550000071512827
 21
100.0000000000018
 31
0.0
  0
ARC
  5
FEC
  8
SAPA_PROFIL
 10
85.750000071512645
 20
100.0000000000018
 30
0.0
 40
0.1999999999998181
 50
180.0
 51
0.0
  0
LINE
  5
FED
  8
SAPA_PROFIL
 10
85.950000071512477
 20
100.0000000000018
 30
0.0
 11
87.250000101062142
 21
100.0000000000018
 31
0.0
  0
ARC
  5
FEE
  8
SAPA_PROFIL
 10
87.250000100917902
 20
99.000000000145889
 30
0.0
 40
0.9999999998559304
 50
359.99999999153698
 51
89.999999991735649
  0
LINE
  5
FEF
  8
SAPA_PROFIL
 10
88.250000100773832
 20
98.999999999998195
 30
0.0
 11
88.250000100773832
 21
98.000000000001805
 31
0.0
  0
ARC
  5
FF0
  8
SAPA_PROFIL
 10
89.250000100773832
 20
98.000000000001805
 30
0.0
 40
1.0
 50
180.0
 51
270.0
  0
LINE
  5
FF1
  8
SAPA_PROFIL
 10
89.250000100773832
 20
97.000000000001819
 30
0.0
 11
95.362929810735295
 21
97.000000000001819
 31
0.0
  0
ARC
  5
FF2
  8
SAPA_PROFIL
 10
95.362929810735011
 20
98.000000000001435
 30
0.0
 40
0.9999999999996163
 50
270.00000000001631
 51
334.99999999974841
  0
LINE
  5
FF3
  8
SAPA_PROFIL
 10
96.269237597769461
 20
97.577381738256932
 30
0.0
 11
98.062300836116734
 21
101.4226182617562
 31
0.0
  0
ARC
  5
FF4
  8
SAPA_PROFIL
 10
98.968608623151397
 20
101.0000000000114
 30
0.0
 40
0.999999999999976
 50
90.000000000003254
 51
154.99999999973551
  0
LINE
  5
FF5
  8
SAPA_PROFIL
 10
98.968608623151354
 20
102.0000000000113
 30
0.0
 11
102.01735409647971
 21
102.0000000000113
 31
0.0
  0
ARC
  5
FF6
  8
SAPA_PROFIL
 10
102.01735409647991
 20
101.8000000000107
 30
0.0
 40
0.200000000000685
 50
330.8900910596401
 51
90.000000000065128
  0
ARC
  5
FF7
  8
SAPA_PROFIL
 10
105.2500000715127
 20
99.999999999978684
 30
0.0
 40
3.500000000000727
 50
150.89009105956279
 51
175.0828996639396
  0
LINE
  5
FF8
  8
SAPA_PROFIL
 10
101.76288091668221
 20
100.3000000000111
 30
0.0
 11
100.5000000715122
 21
100.3000000000111
 31
0.0
  0
ARC
  5
FF9
  8
SAPA_PROFIL
 10
100.5000000715122
 20
99.800000000011096
 30
0.0
 40
0.5
 50
90.0
 51
180.0
  0
LINE
  5
FFA
  8
SAPA_PROFIL
 10
100.0000000715122
 20
99.800000000011096
 30
0.0
 11
100.0000000715122
 21
97.500000000001819
 31
0.0
  0
ARC
  5
FFB
  8
SAPA_PROFIL
 10
100.5000000715122
 20
97.500000000001819
 30
0.0
 40
0.5
 50
180.0
 51
270.0
  0
LINE
  5
FFC
  8
SAPA_PROFIL
 10
100.5000000715122
 20
97.000000000001819
 30
0.0
 11
103.4472244337439
 21
97.000000000001819
 31
0.0
  0
ARC
  5
FFD
  8
SAPA_PROFIL
 10
105.2500000715122
 20
99.99999999997948
 30
0.0
 40
3.4999999999995328
 50
238.99728086542879
 51
301.00271913457129
  0
LINE
  5
FFE
  8
SAPA_PROFIL
 10
107.0527757092804
 20
97.000000000001819
 30
0.0
 11
113.4472244337439
 21
97.000000000001819
 31
0.0
  0
ARC
  5
FFF
  8
SAPA_PROFIL
 10
115.2500000715122
 20
99.99999999997948
 30
0.0
 40
3.4999999999995328
 50
238.99728086542879
 51
301.00271913457129
  0
LINE
  5
1000
  8
SAPA_PROFIL
 10
117.0527757092804
 20
97.000000000001819
 30
0.0
 11
120.0000000715122
 21
97.000000000001819
 31
0.0
  0
ARC
  5
1001
  8
SAPA_PROFIL
 10
120.0000000715122
 20
97.500000000001819
 30
0.0
 40
0.5
 50
270.0
 51
0.0
  0
LINE
  5
1002
  8
SAPA_PROFIL
 10
120.5000000715122
 20
97.500000000001819
 30
0.0
 11
120.5000000715122
 21
99.800000000011096
 31
0.0
  0
ARC
  5
1003
  8
SAPA_PROFIL
 10
120.0000000715122
 20
99.800000000011096
 30
0.0
 40
0.5
 50
0.0
 51
90.0
  0
LINE
  5
1004
  8
SAPA_PROFIL
 10
120.0000000715122
 20
100.3000000000111
 30
0.0
 11
118.7371192263417
 21
100.3000000000111
 31
0.0
  0
ARC
  5
1005
  8
SAPA_PROFIL
 10
115.25000007151149
 20
99.999999999979735
 30
0.0
 40
3.5000000000003948
 50
4.9171003360432968
 51
29.109908940420201
  0
ARC
  5
1006
  8
SAPA_PROFIL
 10
118.4826460465442
 20
101.8000000000108
 30
0.0
 40
0.2000000000005637
 50
90.0
 51
209.10990894042359
  0
LINE
  5
1007
  8
SAPA_PROFIL
 10
118.4826460465442
 20
102.0000000000113
 30
0.0
 11
121.531391519873
 21
102.0000000000113
 31
0.0
  0
ARC
  5
1008
  8
SAPA_PROFIL
 10
121.5313915198728
 20
101.0000000000117
 30
0.0
 40
0.9999999999996163
 50
25.000000000251539
 51
89.999999999983714
  0
LINE
  5
1009
  8
SAPA_PROFIL
 10
122.43769930690721
 20
101.4226182617562
 30
0.0
 11
124.23076254525451
 21
97.577381738256932
 31
0.0
  0
ARC
  5
100A
  8
SAPA_PROFIL
 10
125.1370703322892
 20
98.000000000001805
 30
0.0
 40
0.999999999999982
 50
205.0000000002652
 51
269.99999999999682
  0
LINE
  5
100B
  8
SAPA_PROFIL
 10
125.1370703322891
 20
97.000000000001819
 30
0.0
 11
141.45000007151239
 21
97.000000000001819
 31
0.0
  0
LINE
  5
100C
  8
SAPA_PROFIL
 10
141.45000007151239
 20
97.000000000001819
 30
0.0
 11
141.45000007151239
 21
98.500000000001819
 31
0.0
  0
LINE
  5
100D
  8
SAPA_PROFIL
 10
141.45000007151239
 20
98.500000000001819
 30
0.0
 11
142.2500000715122
 21
98.500000000001819
 31
0.0
  0
LINE
  5
100E
  8
SAPA_PROFIL
 10
142.2500000715122
 20
98.500000000001819
 30
0.0
 11
142.2500000715122
 21
97.000000000001819
 31
0.0
  0
LINE
  5
100F
  8
SAPA_PROFIL
 10
142.2500000715122
 20
97.000000000001819
 30
0.0
 11
143.95000007151251
 21
97.000000000001819
 31
0.0
  0
LINE
  5
1010
  8
SAPA_PROFIL
 10
143.95000007151251
 20
97.000000000001819
 30
0.0
 11
144.2500000715122
 21
121.6000000000017
 31
0.0
  0
LINE
  5
1011
  8
SAPA_PROFIL
 10
144.2500000715122
 20
121.6000000000017
 30
0.0
 11
142.5500000715119
 21
121.6000000000017
 31
0.0
  0
LINE
  5
1012
  8
SAPA_PROFIL
 10
142.5500000715119
 20
121.6000000000017
 30
0.0
 11
142.5500000715119
 21
119.6000000000017
 31
0.0
  0
LINE
  5
1013
  8
SAPA_PROFIL
 10
142.5500000715119
 20
119.6000000000017
 30
0.0
 11
141.7500000715122
 21
119.6000000000017
 31
0.0
  0
LINE
  5
1014
  8
SAPA_PROFIL
 10
141.7500000715122
 20
119.6000000000017
 30
0.0
 11
141.7500000715122
 21
123.7499999999927
 31
0.0
  0
ARC
  5
1015
  8
SAPA_PROFIL
 10
142.2500000715122
 20
123.7499999999927
 30
0.0
 40
0.4999999999999716
 50
89.999999999996746
 51
180.00000000000159
  0
LINE
  5
1016
  8
SAPA_PROFIL
 10
142.2500000715122
 20
124.2499999999927
 30
0.0
 11
142.75000007149399
 21
124.2500000000045
 31
0.0
  0
LINE
  5
1017
  8
SAPA_PROFIL
 10
142.75000007149399
 20
124.2500000000045
 30
0.0
 11
142.75000007151539
 21
123.00000000003
 31
0.0
  0
LINE
  5
1018
  8
SAPA_PROFIL
 10
142.75000007151539
 20
123.00000000003
 30
0.0
 11
144.15000007149411
 21
122.9999999999945
 31
0.0
  0
ARC
  5
1019
  8
SAPA_PROFIL
 10
144.15000007148791
 20
123.2999999999809
 30
0.0
 40
0.2999999999863689
 50
270.00000000118331
 51
0.0000000026380793
  0
LINE
  5
101A
  8
SAPA_PROFIL
 10
144.45000007147431
 20
123.2999999999947
 30
0.0
 11
144.45000007150151
 21
129.69999999999979
 31
0.0
  0
ARC
  5
101B
  8
SAPA_PROFIL
 10
144.1500000715119
 20
129.69999999998211
 30
0.0
 40
0.2999999999896659
 50
0.0000000033763072
 51
90.000000001921563
  0
LINE
  5
101C
  8
SAPA_PROFIL
 10
144.15000007150181
 20
129.99999999997181
 30
0.0
 11
142.75000007151539
 21
129.99999999996399
 31
0.0
  0
LINE
  5
101D
  8
SAPA_PROFIL
 10
142.75000007151539
 20
129.99999999996399
 30
0.0
 11
142.75000007149399
 21
128.74999999999
 31
0.0
  0
LINE
  5
101E
  8
SAPA_PROFIL
 10
142.75000007149399
 20
128.74999999999
 30
0.0
 11
142.25000007151169
 21
128.75000000000179
 31
0.0
  0
ARC
  5
101F
  8
SAPA_PROFIL
 10
142.25000007151201
 20
129.25000000000159
 30
0.0
 40
0.4999999999997727
 50
179.99999999997391
 51
269.99999999997391
  0
LINE
  5
1020
  8
SAPA_PROFIL
 10
141.7500000715122
 20
129.25000000000179
 30
0.0
 11
141.75000007151169
 21
132.25000000000179
 31
0.0
  0
ARC
  5
1021
  8
SAPA_PROFIL
 10
142.25000007151169
 20
132.25000000000909
 30
0.0
 40
0.5
 50
90.0
 51
180.00000000083369
  0
LINE
  5
1022
  8
SAPA_PROFIL
 10
142.25000007151169
 20
132.75000000000909
 30
0.0
 11
142.75000007151169
 21
132.75000000000909
 31
0.0
  0
LINE
  5
1023
  8
SAPA_PROFIL
 10
142.75000007151169
 20
132.75000000000909
 30
0.0
 11
142.75000007151169
 21
131.30000000001201
 31
0.0
  0
LINE
  5
1024
  8
SAPA_PROFIL
 10
142.75000007151169
 20
131.30000000001201
 30
0.0
 11
144.6000000715039
 21
131.30000000001201
 31
0.0
  0
ARC
  5
1025
  8
SAPA_PROFIL
 10
144.60000007148781
 20
131.5999999999988
 30
0.0
 40
0.2999999999867668
 50
270.00000000308307
 51
0.0000000030831873
  0
LINE
  5
1026
  8
SAPA_PROFIL
 10
144.90000007147449
 20
131.60000000001489
 30
0.0
 11
144.9000000715032
 21
133.84019237887151
 31
0.0
  0
LINE
  5
1027
  8
SAPA_PROFIL
 10
144.9000000715032
 20
133.84019237887151
 30
0.0
 11
144.45000007150881
 21
134.10000000000031
 31
0.0
  0
LINE
  5
1028
  8
SAPA_PROFIL
 10
144.45000007150881
 20
134.10000000000031
 30
0.0
 11
144.45000007150881
 21
135.90000000001049
 31
0.0
  0
LINE
  5
1029
  8
SAPA_PROFIL
 10
144.45000007150881
 20
135.90000000001049
 30
0.0
 11
144.9000000715032
 21
136.15980762113941
 31
0.0
  0
LINE
  5
102A
  8
SAPA_PROFIL
 10
144.9000000715032
 20
136.15980762113941
 30
0.0
 11
144.9000000715032
 21
138.399999999996
 31
0.0
  0
ARC
  5
102B
  8
SAPA_PROFIL
 10
144.60000007151751
 20
138.3999999999842
 30
0.0
 40
0.29999999998563
 50
0.000000002258109
 51
90.000000002952902
  0
LINE
  5
102C
  8
SAPA_PROFIL
 10
144.60000007150211
 20
138.6999999999698
 30
0.0
 11
142.75000007151129
 21
138.69999999999891
 31
0.0
  0
LINE
  5
102D
  8
SAPA_PROFIL
 10
142.75000007151129
 20
138.69999999999891
 30
0.0
 11
142.75000007151169
 21
137.25000000000179
 31
0.0
  0
LINE
  5
102E
  8
SAPA_PROFIL
 10
142.75000007151169
 20
137.25000000000179
 30
0.0
 11
142.25000007151169
 21
137.25000000000179
 31
0.0
  0
ARC
  5
102F
  8
SAPA_PROFIL
 10
142.25000007151169
 20
137.75000000000179
 30
0.0
 40
0.5
 50
180.0
 51
270.0
  0
LINE
  5
1030
  8
SAPA_PROFIL
 10
141.75000007151169
 20
137.75000000000179
 30
0.0
 11
141.75000007151169
 21
139.50000000000179
 31
0.0
  0
ARC
  5
1031
  8
SAPA_PROFIL
 10
142.25000007151169
 20
139.50000000000179
 30
0.0
 40
0.5
 50
90.0
 51
180.0
  0
LINE
  5
1032
  8
SAPA_PROFIL
 10
142.25000007151169
 20
140.00000000000179
 30
0.0
 11
144.75000007151169
 21
140.0000000000023
 31
0.0
  0
ARC
  5
1033
  8
SAPA_PROFIL
 10
144.75000007151181
 20
138.0000000000023
 30
0.0
 40
1.9999999999999141
 50
359.99999999999761
 51
90.000000000002444
  0
LINE
  5
1034
  8
SAPA_PROFIL
 10
146.75000007151169
 20
138.00000000000219
 30
0.0
 11
146.7500000715122
 21
24.375000000000458
 31
0.0
  0
ARC
  5
1035
  8
SAPA_PROFIL
 10
145.37500007151201
 20
24.375000000000451
 30
0.0
 40
1.3750000000002269
 50
179.9999999999996
 51
0.0000000000004441
  0
LINE
  5
1036
  8
SAPA_PROFIL
 10
144.00000007151169
 20
24.375000000000458
 30
0.0
 11
144.00000007151169
 21
76.000000000006366
 31
0.0
  0
ARC
  5
1037
  8
SAPA_PROFIL
 10
140.00000007151189
 20
76.000000000006523
 30
0.0
 40
3.999999999999829
 50
359.99999999999778
 51
90.000000000002444
  0
LINE
  5
1038
  8
SAPA_PROFIL
 10
140.00000007151169
 20
80.000000000006366
 30
0.0
 11
85.950000071512932
 21
80.000000000001819
 31
0.0
  0
ARC
  5
1039
  8
SAPA_ISOLATOR
 10
60.125833224252837
 20
82.850036032520464
 30
0.0
 40
0.3000000000003382
 50
90.000000000094985
 51
120.0000000000926
  0
LINE
  5
103A
  8
SAPA_ISOLATOR
 10
59.975833224252248
 20
83.109843653655844
 30
0.0
 11
58.486602683407
 21
82.250036000013566
 31
0.0
  0
LINE
  5
103B
  8
SAPA_ISOLATOR
 10
58.486602683407
 20
82.250036000013566
 30
0.0
 11
58.050000143028683
 21
82.250036000013566
 31
0.0
  0
ARC
  5
103C
  8
SAPA_ISOLATOR
 10
58.050000143028683
 20
82.500036000013537
 30
0.0
 40
0.25
 50
180.0
 51
270.0
  0
LINE
  5
103D
  8
SAPA_ISOLATOR
 10
57.800000143028683
 20
82.500036000013537
 30
0.0
 11
57.800000143028683
 21
86.10004800001343
 31
0.0
  0
ARC
  5
103E
  8
SAPA_ISOLATOR
 10
58.050000143028669
 20
86.10004800001343
 30
0.0
 40
0.2499999999999929
 50
89.999999999998366
 51
180.0
  0
LINE
  5
103F
  8
SAPA_ISOLATOR
 10
58.050000143028683
 20
86.35004800001343
 30
0.0
 11
58.486602064606821
 21
86.350036357278441
 31
0.0
  0
LINE
  5
1040
  8
SAPA_ISOLATOR
 10
58.486602064606821
 20
86.350036357278441
 30
0.0
 11
59.975833111644533
 21
85.490228411385033
 31
0.0
  0
ARC
  5
1041
  8
SAPA_ISOLATOR
 10
60.125833111644262
 20
85.750036032520555
 30
0.0
 40
0.3000000000000256
 50
240.0000000000642
 51
270.00000000007049
  0
LINE
  5
1042
  8
SAPA_ISOLATOR
 10
60.125833111644617
 20
85.450036032520529
 30
0.0
 11
83.374167102896067
 21
85.450036032520529
 31
0.0
  0
ARC
  5
1043
  8
SAPA_ISOLATOR
 10
83.37416710289645
 20
85.750036032520555
 30
0.0
 40
0.3000000000000256
 50
269.9999999999294
 51
299.99999999993582
  0
LINE
  5
1044
  8
SAPA_ISOLATOR
 10
83.524167102896172
 20
85.490228411385033
 30
0.0
 11
85.013398149933892
 21
86.350036357278441
 31
0.0
  0
LINE
  5
1045
  8
SAPA_ISOLATOR
 10
85.013398149933892
 20
86.350036357278441
 30
0.0
 11
85.450000071512477
 21
86.35004800001343
 31
0.0
  0
ARC
  5
1046
  8
SAPA_ISOLATOR
 10
85.450000071512477
 20
86.10004800001343
 30
0.0
 40
0.25
 50
0.0
 51
90.0
  0
LINE
  5
1047
  8
SAPA_ISOLATOR
 10
85.700000071512477
 20
86.10004800001343
 30
0.0
 11
85.700000071512477
 21
82.500036000013537
 31
0.0
  0
ARC
  5
1048
  8
SAPA_ISOLATOR
 10
85.450000071512477
 20
82.500036000013537
 30
0.0
 40
0.25
 50
270.0
 51
0.0
  0
LINE
  5
1049
  8
SAPA_ISOLATOR
 10
85.450000071512477
 20
82.250036000013566
 30
0.0
 11
85.013397531133705
 21
82.250036000013566
 31
0.0
  0
LINE
  5
104A
  8
SAPA_ISOLATOR
 10
85.013397531133705
 20
82.250036000013566
 30
0.0
 11
83.524166990288904
 21
83.109843653655844
 31
0.0
  0
ARC
  5
104B
  8
SAPA_ISOLATOR
 10
83.374166990288089
 20
82.850036032519625
 30
0.0
 40
0.3000000000011758
 50
59.999999999949772
 51
89.999999999948443
  0
LINE
  5
104C
  8
SAPA_ISOLATOR
 10
83.374166990288344
 20
83.150036032520802
 30
0.0
 11
60.125833224252347
 21
83.150036032520802
 31
0.0
  0
LINE
  5
104D
  8
SAPA_ISOLATOR
 10
74.250000139903477
 20
123.3477350676189
 30
-0.2
 11
74.250000139903477
 21
137.54773506762101
 31
-0.2
1001
RC_PROFILE
1002
{
1000
Region
1002
}
  0
ARC
  5
104E
  8
SAPA_ISOLATOR
 10
73.750000139903477
 20
137.54773506762101
 30
-0.2
 40
0.5
 50
0.0
 51
89.999999999791555
1001
RC_PROFILE
1002
{
1000
Region
1002
}
  0
LINE
  5
104F
  8
SAPA_ISOLATOR
 10
73.750000139905296
 20
138.04773506762101
 30
-0.2
 11
69.750000139284111
 21
138.04773506762371
 31
-0.2
1001
RC_PROFILE
1002
{
1000
Region
1002
}
  0
ARC
  5
1050
  8
SAPA_ISOLATOR
 10
69.750000139284111
 20
137.54773506762371
 30
-0.2
 40
0.5
 50
90.0
 51
180.0
1001
RC_PROFILE
1002
{
1000
Region
1002
}
  0
LINE
  5
1051
  8
SAPA_ISOLATOR
 10
69.250000139284111
 20
137.54773506762371
 30
-0.2
 11
69.250000139276835
 21
123.34773506762031
 31
-0.2
1001
RC_PROFILE
1002
{
1000
Region
1002
}
  0
ARC
  5
1052
  8
SAPA_ISOLATOR
 10
69.750000139276949
 20
123.347735067619
 30
-0.2
 40
0.5000000000001137
 50
179.9999999998567
 51
269.99999999998698
1001
RC_PROFILE
1002
{
1000
Region
1002
}
  0
LINE
  5
1053
  8
SAPA_ISOLATOR
 10
69.750000139276835
 20
122.8477350676189
 30
-0.2
 11
73.750000139903477
 21
122.8477350676189
 31
-0.2
1001
RC_PROFILE
1002
{
1000
Region
1002
}
  0
ARC
  5
1054
  8
SAPA_ISOLATOR
 10
73.750000139903477
 20
123.3477350676189
 30
-0.2
 40
0.5
 50
270.0
 51
0.0
1001
RC_PROFILE
1002
{
1000
Region
1002
}
  0
ARC
  5
1055
  8
SAPA_PROFIL
 62
     4
 10
60.827260069883913
 20
97.784261511209891
 30
0.0
 40
1.199999999999761
 50
240.00000000001651
 51
270.00000000003729
1001
GENIUS_GENOBJ-N-FIL_13
1002
{
1000
OWNER
1000
GEN
1002
}
1001
GENIUS_GENODEF_13
1002
{
1000
HIER
1070
     0
1002
}
1002
{
1000
MANEDIT
1070
     0
1002
}
1002
{
1000
NOSEL
1070
     0
1002
}
1002
{
1000
BEHIND
1070
     0
1002
}
1002
{
1000
OTHER
1070
     0
1002
}
1002
{
1000
REACTOR
1002
}
  0
LINE
  5
1056
  8
SAPA_PROFIL
 62
     4
 10
60.227260069884323
 20
96.745031026668585
 30
0.0
 11
58.486602129240957
 21
97.750000357266799
 31
0.0
1001
GENIUS_GENOBJ-N-FIL_13
1002
{
1000
OWNER
1000
GEN
1002
}
1001
GENIUS_GENODEF_13
1002
{
1000
HIER
1070
     0
1002
}
1002
{
1000
MANEDIT
1070
     0
1002
}
1002
{
1000
NOSEL
1070
     0
1002
}
1002
{
1000
BEHIND
1070
     0
1002
}
1002
{
1000
OTHER
1070
     0
1002
}
1002
{
1000
REACTOR
1002
}
  0
LINE
  5
1057
  8
SAPA_PROFIL
 62
     4
 10
58.486602129240957
 20
97.750000357266799
 30
0.0
 11
58.050000207662379
 21
97.750012000001789
 31
0.0
1001
GENIUS_GENOBJ-N-FIL_13
1002
{
1000
OWNER
1000
GEN
1002
}
1001
GENIUS_GENODEF_13
1002
{
1000
HIER
1070
     0
1002
}
1002
{
1000
MANEDIT
1070
     0
1002
}
1002
{
1000
NOSEL
1070
     0
1002
}
1002
{
1000
BEHIND
1070
     0
1002
}
1002
{
1000
OTHER
1070
     0
1002
}
1002
{
1000
REACTOR
1002
}
  0
ARC
  5
1058
  8
SAPA_PROFIL
 62
     4
 10
58.050000207662372
 20
97.500012000001789
 30
0.0
 40
0.25
 50
89.999999999998366
 51
180.0
1001
GENIUS_GENOBJ-N-FIL_13
1002
{
1000
OWNER
1000
GEN
1002
}
1001
GENIUS_GENODEF_13
1002
{
1000
HIER
1070
     0
1002
}
1002
{
1000
MANEDIT
1070
     0
1002
}
1002
{
1000
NOSEL
1070
     0
1002
}
1002
{
1000
BEHIND
1070
     0
1002
}
1002
{
1000
OTHER
1070
     0
1002
}
1002
{
1000
REACTOR
1002
}
  0
LINE
  5
1059
  8
SAPA_PROFIL
 62
     4
 10
57.800000207662372
 20
97.500012000001789
 30
0.0
 11
57.800000207662372
 21
93.900000000001896
 31
0.0
1001
GENIUS_GENOBJ-N-FIL_13
1002
{
1000
OWNER
1000
GEN
1002
}
1001
GENIUS_GENODEF_13
1002
{
1000
HIER
1070
     0
1002
}
1002
{
1000
MANEDIT
1070
     0
1002
}
1002
{
1000
NOSEL
1070
     0
1002
}
1002
{
1000
BEHIND
1070
     0
1002
}
1002
{
1000
OTHER
1070
     0
1002
}
1002
{
1000
REACTOR
1002
}
  0
ARC
  5
105A
  8
SAPA_PROFIL
 62
     4
 10
58.050000207662379
 20
93.900000000001896
 30
0.0
 40
0.25
 50
180.0
 51
270.0
1001
GENIUS_GENOBJ-N-FIL_13
1002
{
1000
OWNER
1000
GEN
1002
}
1001
GENIUS_GENODEF_13
1002
{
1000
HIER
1070
     0
1002
}
1002
{
1000
MANEDIT
1070
     0
1002
}
1002
{
1000
NOSEL
1070
     0
1002
}
1002
{
1000
BEHIND
1070
     0
1002
}
1002
{
1000
OTHER
1070
     0
1002
}
1002
{
1000
REACTOR
1002
}
  0
LINE
  5
105B
  8
SAPA_PROFIL
 62
     4
 10
58.050000207662379
 20
93.650000000001924
 30
0.0
 11
58.48660274804115
 21
93.650000000001924
 31
0.0
1001
GENIUS_GENOBJ-N-FIL_13
1002
{
1000
OWNER
1000
GEN
1002
}
1001
GENIUS_GENODEF_13
1002
{
1000
HIER
1070
     0
1002
}
1002
{
1000
MANEDIT
1070
     0
1002
}
1002
{
1000
NOSEL
1070
     0
1002
}
1002
{
1000
BEHIND
1070
     0
1002
}
1002
{
1000
OTHER
1070
     0
1002
}
1002
{
1000
REACTOR
1002
}
  0
LINE
  5
105C
  8
SAPA_PROFIL
 62
     4
 10
58.48660274804115
 20
93.650000000001924
 30
0.0
 11
60.17274034544198
 21
94.623491995751905
 31
0.0
1001
GENIUS_GENOBJ-N-FIL_13
1002
{
1000
OWNER
1000
GEN
1002
}
1001
GENIUS_GENODEF_13
1002
{
1000
HIER
1070
     0
1002
}
1002
{
1000
MANEDIT
1070
     0
1002
}
1002
{
1000
NOSEL
1070
     0
1002
}
1002
{
1000
BEHIND
1070
     0
1002
}
1002
{
1000
OTHER
1070
     0
1002
}
1002
{
1000
REACTOR
1002
}
  0
ARC
  5
105D
  8
SAPA_PROFIL
 62
     4
 10
60.772740345442429
 20
93.584261511210784
 30
0.0
 40
1.200000000000059
 50
90.000000000025764
 51
120.00000000002311
1001
GENIUS_GENOBJ-N-FIL_13
1002
{
1000
OWNER
1000
GEN
1002
}
1001
GENIUS_GENODEF_13
1002
{
1000
HIER
1070
     0
1002
}
1002
{
1000
MANEDIT
1070
     0
1002
}
1002
{
1000
NOSEL
1070
     0
1002
}
1002
{
1000
BEHIND
1070
     0
1002
}
1002
{
1000
OTHER
1070
     0
1002
}
1002
{
1000
REACTOR
1002
}
  0
LINE
  5
105E
  8
SAPA_PROFIL
 62
     4
 10
60.772740345441882
 20
94.784261511210843
 30
0.0
 11
82.727259933732967
 21
94.784261511210843
 31
0.0
1001
GENIUS_GENOBJ-N-FIL_13
1002
{
1000
OWNER
1000
GEN
1002
}
1001
GENIUS_GENODEF_13
1002
{
1000
HIER
1070
     0
1002
}
1002
{
1000
MANEDIT
1070
     0
1002
}
1002
{
1000
NOSEL
1070
     0
1002
}
1002
{
1000
BEHIND
1070
     0
1002
}
1002
{
1000
OTHER
1070
     0
1002
}
1002
{
1000
REACTOR
1002
}
  0
ARC
  5
105F
  8
SAPA_PROFIL
 62
     4
 10
82.727259933732427
 20
93.584261511210784
 30
0.0
 40
1.200000000000059
 50
59.999999999976893
 51
89.999999999974222
1001
GENIUS_GENOBJ-N-FIL_13
1002
{
1000
OWNER
1000
GEN
1002
}
1001
GENIUS_GENODEF_13
1002
{
1000
HIER
1070
     0
1002
}
1002
{
1000
MANEDIT
1070
     0
1002
}
1002
{
1000
NOSEL
1070
     0
1002
}
1002
{
1000
BEHIND
1070
     0
1002
}
1002
{
1000
OTHER
1070
     0
1002
}
1002
{
1000
REACTOR
1002
}
  0
LINE
  5
1060
  8
SAPA_PROFIL
 62
     4
 10
83.327259933732876
 20
94.623491995751905
 30
0.0
 11
85.013397531133705
 21
93.650000000001924
 31
0.0
1001
GENIUS_GENOBJ-N-FIL_13
1002
{
1000
OWNER
1000
GEN
1002
}
1001
GENIUS_GENODEF_13
1002
{
1000
HIER
1070
     0
1002
}
1002
{
1000
MANEDIT
1070
     0
1002
}
1002
{
1000
NOSEL
1070
     0
1002
}
1002
{
1000
BEHIND
1070
     0
1002
}
1002
{
1000
OTHER
1070
     0
1002
}
1002
{
1000
REACTOR
1002
}
  0
LINE
  5
1061
  8
SAPA_PROFIL
 62
     4
 10
85.013397531133705
 20
93.650000000001924
 30
0.0
 11
85.450000071512022
 21
93.650000000001924
 31
0.0
1001
GENIUS_GENOBJ-N-FIL_13
1002
{
1000
OWNER
1000
GEN
1002
}
1001
GENIUS_GENODEF_13
1002
{
1000
HIER
1070
     0
1002
}
1002
{
1000
MANEDIT
1070
     0
1002
}
1002
{
1000
NOSEL
1070
     0
1002
}
1002
{
1000
BEHIND
1070
     0
1002
}
1002
{
1000
OTHER
1070
     0
1002
}
1002
{
1000
REACTOR
1002
}
  0
ARC
  5
1062
  8
SAPA_PROFIL
 62
     4
 10
85.450000071512022
 20
93.900000000001896
 30
0.0
 40
0.25
 50
270.0
 51
0.0
1001
GENIUS_GENOBJ-N-FIL_13
1002
{
1000
OWNER
1000
GEN
1002
}
1001
GENIUS_GENODEF_13
1002
{
1000
HIER
1070
     0
1002
}
1002
{
1000
MANEDIT
1070
     0
1002
}
1002
{
1000
NOSEL
1070
     0
1002
}
1002
{
1000
BEHIND
1070
     0
1002
}
1002
{
1000
OTHER
1070
     0
1002
}
1002
{
1000
REACTOR
1002
}
  0
LINE
  5
1063
  8
SAPA_PROFIL
 62
     4
 10
85.700000071512022
 20
93.900000000001896
 30
0.0
 11
85.700000071512022
 21
97.500012000001789
 31
0.0
1001
GENIUS_GENOBJ-N-FIL_13
1002
{
1000
OWNER
1000
GEN
1002
}
1001
GENIUS_GENODEF_13
1002
{
1000
HIER
1070
     0
1002
}
1002
{
1000
MANEDIT
1070
     0
1002
}
1002
{
1000
NOSEL
1070
     0
1002
}
1002
{
1000
BEHIND
1070
     0
1002
}
1002
{
1000
OTHER
1070
     0
1002
}
1002
{
1000
REACTOR
1002
}
  0
ARC
  5
1064
  8
SAPA_PROFIL
 62
     4
 10
85.450000071512022
 20
97.500012000001789
 30
0.0
 40
0.25
 50
0.0
 51
90.0
1001
GENIUS_GENOBJ-N-FIL_13
1002
{
1000
OWNER
1000
GEN
1002
}
1001
GENIUS_GENODEF_13
1002
{
1000
HIER
1070
     0
1002
}
1002
{
1000
MANEDIT
1070
     0
1002
}
1002
{
1000
NOSEL
1070
     0
1002
}
1002
{
1000
BEHIND
1070
     0
1002
}
1002
{
1000
OTHER
1070
     0
1002
}
1002
{
1000
REACTOR
1002
}
  0
LINE
  5
1065
  8
SAPA_PROFIL
 62
     4
 10
85.450000071512022
 20
97.750012000001789
 30
0.0
 11
85.013398149933892
 21
97.750000357266799
 31
0.0
1001
GENIUS_GENOBJ-N-FIL_13
1002
{
1000
OWNER
1000
GEN
1002
}
1001
GENIUS_GENODEF_13
1002
{
1000
HIER
1070
     0
1002
}
1002
{
1000
MANEDIT
1070
     0
1002
}
1002
{
1000
NOSEL
1070
     0
1002
}
1002
{
1000
BEHIND
1070
     0
1002
}
1002
{
1000
OTHER
1070
     0
1002
}
1002
{
1000
REACTOR
1002
}
  0
LINE
  5
1066
  8
SAPA_PROFIL
 62
     4
 10
85.013398149933892
 20
97.750000357266799
 30
0.0
 11
83.272740209290077
 21
96.745031026668585
 31
0.0
1001
GENIUS_GENOBJ-N-FIL_13
1002
{
1000
OWNER
1000
GEN
1002
}
1001
GENIUS_GENODEF_13
1002
{
1000
HIER
1070
     0
1002
}
1002
{
1000
MANEDIT
1070
     0
1002
}
1002
{
1000
NOSEL
1070
     0
1002
}
1002
{
1000
BEHIND
1070
     0
1002
}
1002
{
1000
OTHER
1070
     0
1002
}
1002
{
1000
REACTOR
1002
}
  0
ARC
  5
1067
  8
SAPA_PROFIL
 62
     4
 10
82.672740209290495
 20
97.784261511209891
 30
0.0
 40
1.199999999999761
 50
269.99999999996271
 51
299.99999999998352
1001
GENIUS_GENOBJ-N-FIL_13
1002
{
1000
OWNER
1000
GEN
1002
}
1001
GENIUS_GENODEF_13
1002
{
1000
HIER
1070
     0
1002
}
1002
{
1000
MANEDIT
1070
     0
1002
}
1002
{
1000
NOSEL
1070
     0
1002
}
1002
{
1000
BEHIND
1070
     0
1002
}
1002
{
1000
OTHER
1070
     0
1002
}
1002
{
1000
REACTOR
1002
}
  0
LINE
  5
1068
  8
SAPA_PROFIL
 62
     4
 10
82.672740209289714
 20
96.584261511210116
 30
0.0
 11
79.950000071761224
 21
96.58426151121057
 31
0.0
1001
GENIUS_GENOBJ-N-FIL_13
1002
{
1000
OWNER
1000
GEN
1002
}
1001
GENIUS_GENODEF_13
1002
{
1000
HIER
1070
     0
1002
}
1002
{
1000
MANEDIT
1070
     0
1002
}
1002
{
1000
NOSEL
1070
     0
1002
}
1002
{
1000
BEHIND
1070
     0
1002
}
1002
{
1000
OTHER
1070
     0
1002
}
1002
{
1000
REACTOR
1002
}
  0
ARC
  5
1069
  8
SAPA_PROFIL
 62
     4
 10
79.950000071761906
 20
97.784261511210175
 30
0.0
 40
1.1999999999995901
 50
179.999999999772
 51
269.99999999996737
1001
GENIUS_GENOBJ-N-FIL_13
1002
{
1000
OWNER
1000
GEN
1002
}
1001
GENIUS_GENODEF_13
1002
{
1000
HIER
1070
     0
1002
}
1002
{
1000
MANEDIT
1070
     0
1002
}
1002
{
1000
NOSEL
1070
     0
1002
}
1002
{
1000
BEHIND
1070
     0
1002
}
1002
{
1000
OTHER
1070
     0
1002
}
1002
{
1000
REACTOR
1002
}
  0
LINE
  5
106A
  8
SAPA_PROFIL
 62
     4
 10
78.750000071762315
 20
97.784261511214936
 30
0.0
 11
78.750000071851446
 21
123.58199653813649
 31
0.0
1001
GENIUS_GENOBJ-N-FIL_13
1002
{
1000
OWNER
1000
GEN
1002
}
1001
GENIUS_GENODEF_13
1002
{
1000
HIER
1070
     0
1002
}
1002
{
1000
MANEDIT
1070
     0
1002
}
1002
{
1000
NOSEL
1070
     0
1002
}
1002
{
1000
BEHIND
1070
     0
1002
}
1002
{
1000
OTHER
1070
     0
1002
}
1002
{
1000
REACTOR
1002
}
  0
ARC
  5
106B
  8
SAPA_PROFIL
 62
     4
 10
78.250000071851446
 20
123.58199653813649
 30
0.0
 40
0.5
 50
0.0
 51
90.0
1001
GENIUS_GENOBJ-N-FIL_13
1002
{
1000
OWNER
1000
GEN
1002
}
1001
GENIUS_GENODEF_13
1002
{
1000
HIER
1070
     0
1002
}
1002
{
1000
MANEDIT
1070
     0
1002
}
1002
{
1000
NOSEL
1070
     0
1002
}
1002
{
1000
BEHIND
1070
     0
1002
}
1002
{
1000
OTHER
1070
     0
1002
}
1002
{
1000
REACTOR
1002
}
  0
LINE
  5
106C
  8
SAPA_PROFIL
 62
     4
 10
78.250000071851446
 20
124.08199653813649
 30
0.0
 11
78.050000071851628
 21
124.08199653813701
 31
0.0
1001
GENIUS_GENOBJ-N-FIL_13
1002
{
1000
OWNER
1000
GEN
1002
}
1001
GENIUS_GENODEF_13
1002
{
1000
HIER
1070
     0
1002
}
1002
{
1000
MANEDIT
1070
     0
1002
}
1002
{
1000
NOSEL
1070
     0
1002
}
1002
{
1000
BEHIND
1070
     0
1002
}
1002
{
1000
OTHER
1070
     0
1002
}
1002
{
1000
REACTOR
1002
}
  0
ARC
  5
106D
  8
SAPA_PROFIL
 62
     4
 10
78.050000071851628
 20
123.7819965381368
 30
0.0
 40
0.3000000000001819
 50
90.0
 51
180.0
1001
GENIUS_GENOBJ-N-FIL_13
1002
{
1000
OWNER
1000
GEN
1002
}
1001
GENIUS_GENODEF_13
1002
{
1000
HIER
1070
     0
1002
}
1002
{
1000
MANEDIT
1070
     0
1002
}
1002
{
1000
NOSEL
1070
     0
1002
}
1002
{
1000
BEHIND
1070
     0
1002
}
1002
{
1000
OTHER
1070
     0
1002
}
1002
{
1000
REACTOR
1002
}
  0
LINE
  5
106E
  8
SAPA_PROFIL
 62
     4
 10
77.750000071851446
 20
123.7819965381368
 30
0.0
 11
77.750000071851446
 21
123.1319965381344
 31
0.0
1001
GENIUS_GENOBJ-N-FIL_13
1002
{
1000
OWNER
1000
GEN
1002
}
1001
GENIUS_GENODEF_13
1002
{
1000
HIER
1070
     0
1002
}
1002
{
1000
MANEDIT
1070
     0
1002
}
1002
{
1000
NOSEL
1070
     0
1002
}
1002
{
1000
BEHIND
1070
     0
1002
}
1002
{
1000
OTHER
1070
     0
1002
}
1002
{
1000
REACTOR
1002
}
  0
ARC
  5
106F
  8
SAPA_PROFIL
 62
     4
 10
77.450000071851036
 20
123.1319965381351
 30
0.0
 40
0.3000000000004093
 50
269.99999999986971
 51
359.99999999986971
1001
GENIUS_GENOBJ-N-FIL_13
1002
{
1000
OWNER
1000
GEN
1002
}
1001
GENIUS_GENODEF_13
1002
{
1000
HIER
1070
     0
1002
}
1002
{
1000
MANEDIT
1070
     0
1002
}
1002
{
1000
NOSEL
1070
     0
1002
}
1002
{
1000
BEHIND
1070
     0
1002
}
1002
{
1000
OTHER
1070
     0
1002
}
1002
{
1000
REACTOR
1002
}
  0
LINE
  5
1070
  8
SAPA_PROFIL
 62
     4
 10
77.450000071850354
 20
122.8319965381347
 30
0.0
 11
76.550000071854356
 21
122.8319965381356
 31
0.0
1001
GENIUS_GENOBJ-N-FIL_13
1002
{
1000
OWNER
1000
GEN
1002
}
1001
GENIUS_GENODEF_13
1002
{
1000
HIER
1070
     0
1002
}
1002
{
1000
MANEDIT
1070
     0
1002
}
1002
{
1000
NOSEL
1070
     0
1002
}
1002
{
1000
BEHIND
1070
     0
1002
}
1002
{
1000
OTHER
1070
     0
1002
}
1002
{
1000
REACTOR
1002
}
  0
ARC
  5
1071
  8
SAPA_PROFIL
 62
     4
 10
76.550000071853901
 20
123.3319965381352
 30
0.0
 40
0.4999999999995453
 50
180.0000000000521
 51
270.00000000005213
1001
GENIUS_GENOBJ-N-FIL_13
1002
{
1000
OWNER
1000
GEN
1002
}
1001
GENIUS_GENODEF_13
1002
{
1000
HIER
1070
     0
1002
}
1002
{
1000
MANEDIT
1070
     0
1002
}
1002
{
1000
NOSEL
1070
     0
1002
}
1002
{
1000
BEHIND
1070
     0
1002
}
1002
{
1000
OTHER
1070
     0
1002
}
1002
{
1000
REACTOR
1002
}
  0
LINE
  5
1072
  8
SAPA_PROFIL
 62
     4
 10
76.050000071854356
 20
123.3319965381347
 30
0.0
 11
76.050000071854356
 21
129.33199653813651
 31
0.0
1001
GENIUS_GENOBJ-N-FIL_13
1002
{
1000
OWNER
1000
GEN
1002
}
1001
GENIUS_GENODEF_13
1002
{
1000
HIER
1070
     0
1002
}
1002
{
1000
MANEDIT
1070
     0
1002
}
1002
{
1000
NOSEL
1070
     0
1002
}
1002
{
1000
BEHIND
1070
     0
1002
}
1002
{
1000
OTHER
1070
     0
1002
}
1002
{
1000
REACTOR
1002
}
  0
ARC
  5
1073
  8
SAPA_PROFIL
 62
     4
 10
76.550000071854356
 20
129.33199653813651
 30
0.0
 40
0.5
 50
90.0
 51
180.0
1001
GENIUS_GENOBJ-N-FIL_13
1002
{
1000
OWNER
1000
GEN
1002
}
1001
GENIUS_GENODEF_13
1002
{
1000
HIER
1070
     0
1002
}
1002
{
1000
MANEDIT
1070
     0
1002
}
1002
{
1000
NOSEL
1070
     0
1002
}
1002
{
1000
BEHIND
1070
     0
1002
}
1002
{
1000
OTHER
1070
     0
1002
}
1002
{
1000
REACTOR
1002
}
  0
LINE
  5
1074
  8
SAPA_PROFIL
 62
     4
 10
76.550000071854356
 20
129.83199653813651
 30
0.0
 11
77.450000071853083
 21
129.83199653813651
 31
0.0
1001
GENIUS_GENOBJ-N-FIL_13
1002
{
1000
OWNER
1000
GEN
1002
}
1001
GENIUS_GENODEF_13
1002
{
1000
HIER
1070
     0
1002
}
1002
{
1000
MANEDIT
1070
     0
1002
}
1002
{
1000
NOSEL
1070
     0
1002
}
1002
{
1000
BEHIND
1070
     0
1002
}
1002
{
1000
OTHER
1070
     0
1002
}
1002
{
1000
REACTOR
1002
}
  0
ARC
  5
1075
  8
SAPA_PROFIL
 62
     4
 10
77.450000071852742
 20
129.53199653813689
 30
0.0
 40
0.2999999999996135
 50
0.0000000003256888
 51
89.999999999934857
1001
GENIUS_GENOBJ-N-FIL_13
1002
{
1000
OWNER
1000
GEN
1002
}
1001
GENIUS_GENODEF_13
1002
{
1000
HIER
1070
     0
1002
}
1002
{
1000
MANEDIT
1070
     0
1002
}
1002
{
1000
NOSEL
1070
     0
1002
}
1002
{
1000
BEHIND
1070
     0
1002
}
1002
{
1000
OTHER
1070
     0
1002
}
1002
{
1000
REACTOR
1002
}
  0
LINE
  5
1076
  8
SAPA_PROFIL
 62
     4
 10
77.750000071852355
 20
129.5319965381386
 30
0.0
 11
77.750000071856903
 21
128.88199653813669
 31
0.0
1001
GENIUS_GENOBJ-N-FIL_13
1002
{
1000
OWNER
1000
GEN
1002
}
1001
GENIUS_GENODEF_13
1002
{
1000
HIER
1070
     0
1002
}
1002
{
1000
MANEDIT
1070
     0
1002
}
1002
{
1000
NOSEL
1070
     0
1002
}
1002
{
1000
BEHIND
1070
     0
1002
}
1002
{
1000
OTHER
1070
     0
1002
}
1002
{
1000
REACTOR
1002
}
  0
ARC
  5
1077
  8
SAPA_PROFIL
 62
     4
 10
78.050000071856857
 20
128.88199653813871
 30
0.0
 40
0.2999999999999545
 50
180.0000000003908
 51
270.0000000003908
1001
GENIUS_GENOBJ-N-FIL_13
1002
{
1000
OWNER
1000
GEN
1002
}
1001
GENIUS_GENODEF_13
1002
{
1000
HIER
1070
     0
1002
}
1002
{
1000
MANEDIT
1070
     0
1002
}
1002
{
1000
NOSEL
1070
     0
1002
}
1002
{
1000
BEHIND
1070
     0
1002
}
1002
{
1000
OTHER
1070
     0
1002
}
1002
{
1000
REACTOR
1002
}
  0
LINE
  5
1078
  8
SAPA_PROFIL
 62
     4
 10
78.050000071858904
 20
128.58199653813881
 30
0.0
 11
78.250000071851446
 21
128.58199653813969
 31
0.0
1001
GENIUS_GENOBJ-N-FIL_13
1002
{
1000
OWNER
1000
GEN
1002
}
1001
GENIUS_GENODEF_13
1002
{
1000
HIER
1070
     0
1002
}
1002
{
1000
MANEDIT
1070
     0
1002
}
1002
{
1000
NOSEL
1070
     0
1002
}
1002
{
1000
BEHIND
1070
     0
1002
}
1002
{
1000
OTHER
1070
     0
1002
}
1002
{
1000
REACTOR
1002
}
  0
ARC
  5
1079
  8
SAPA_PROFIL
 62
     4
 10
78.250000071851446
 20
129.08199653813969
 30
0.0
 40
0.5
 50
270.0
 51
0.0
1001
GENIUS_GENOBJ-N-FIL_13
1002
{
1000
OWNER
1000
GEN
1002
}
1001
GENIUS_GENODEF_13
1002
{
1000
HIER
1070
     0
1002
}
1002
{
1000
MANEDIT
1070
     0
1002
}
1002
{
1000
NOSEL
1070
     0
1002
}
1002
{
1000
BEHIND
1070
     0
1002
}
1002
{
1000
OTHER
1070
     0
1002
}
1002
{
1000
REACTOR
1002
}
  0
LINE
  5
107A
  8
SAPA_PROFIL
 62
     4
 10
78.750000071851446
 20
129.08199653813969
 30
0.0
 11
78.750000071851446
 21
132.08199653813969
 31
0.0
1001
GENIUS_GENOBJ-N-FIL_13
1002
{
1000
OWNER
1000
GEN
1002
}
1001
GENIUS_GENODEF_13
1002
{
1000
HIER
1070
     0
1002
}
1002
{
1000
MANEDIT
1070
     0
1002
}
1002
{
1000
NOSEL
1070
     0
1002
}
1002
{
1000
BEHIND
1070
     0
1002
}
1002
{
1000
OTHER
1070
     0
1002
}
1002
{
1000
REACTOR
1002
}
  0
ARC
  5
107B
  8
SAPA_PROFIL
 62
     4
 10
78.250000071851446
 20
132.08199653813969
 30
0.0
 40
0.5
 50
0.0
 51
90.0
1001
GENIUS_GENOBJ-N-FIL_13
1002
{
1000
OWNER
1000
GEN
1002
}
1001
GENIUS_GENODEF_13
1002
{
1000
HIER
1070
     0
1002
}
1002
{
1000
MANEDIT
1070
     0
1002
}
1002
{
1000
NOSEL
1070
     0
1002
}
1002
{
1000
BEHIND
1070
     0
1002
}
1002
{
1000
OTHER
1070
     0
1002
}
1002
{
1000
REACTOR
1002
}
  0
LINE
  5
107C
  8
SAPA_PROFIL
 62
     4
 10
78.250000071851446
 20
132.58199653813969
 30
0.0
 11
78.050000071851628
 21
132.58199653813969
 31
0.0
1001
GENIUS_GENOBJ-N-FIL_13
1002
{
1000
OWNER
1000
GEN
1002
}
1001
GENIUS_GENODEF_13
1002
{
1000
HIER
1070
     0
1002
}
1002
{
1000
MANEDIT
1070
     0
1002
}
1002
{
1000
NOSEL
1070
     0
1002
}
1002
{
1000
BEHIND
1070
     0
1002
}
1002
{
1000
OTHER
1070
     0
1002
}
1002
{
1000
REACTOR
1002
}
  0
ARC
  5
107D
  8
SAPA_PROFIL
 62
     4
 10
78.050000071851628
 20
132.28199653813951
 30
0.0
 40
0.3000000000001819
 50
90.0
 51
180.0
1001
GENIUS_GENOBJ-N-FIL_13
1002
{
1000
OWNER
1000
GEN
1002
}
1001
GENIUS_GENODEF_13
1002
{
1000
HIER
1070
     0
1002
}
1002
{
1000
MANEDIT
1070
     0
1002
}
1002
{
1000
NOSEL
1070
     0
1002
}
1002
{
1000
BEHIND
1070
     0
1002
}
1002
{
1000
OTHER
1070
     0
1002
}
1002
{
1000
REACTOR
1002
}
  0
LINE
  5
107E
  8
SAPA_PROFIL
 62
     4
 10
77.750000071851446
 20
132.28199653813951
 30
0.0
 11
77.750000071851446
 21
131.6319965381399
 31
0.0
1001
GENIUS_GENOBJ-N-FIL_13
1002
{
1000
OWNER
1000
GEN
1002
}
1001
GENIUS_GENODEF_13
1002
{
1000
HIER
1070
     0
1002
}
1002
{
1000
MANEDIT
1070
     0
1002
}
1002
{
1000
NOSEL
1070
     0
1002
}
1002
{
1000
BEHIND
1070
     0
1002
}
1002
{
1000
OTHER
1070
     0
1002
}
1002
{
1000
REACTOR
1002
}
  0
ARC
  5
107F
  8
SAPA_PROFIL
 62
     4
 10
77.450000071850809
 20
131.6319965381403
 30
0.0
 40
0.3000000000006366
 50
269.99999999991309
 51
359.99999999991309
1001
GENIUS_GENOBJ-N-FIL_13
1002
{
1000
OWNER
1000
GEN
1002
}
1001
GENIUS_GENODEF_13
1002
{
1000
HIER
1070
     0
1002
}
1002
{
1000
MANEDIT
1070
     0
1002
}
1002
{
1000
NOSEL
1070
     0
1002
}
1002
{
1000
BEHIND
1070
     0
1002
}
1002
{
1000
OTHER
1070
     0
1002
}
1002
{
1000
REACTOR
1002
}
  0
LINE
  5
1080
  8
SAPA_PROFIL
 62
     4
 10
77.450000071850354
 20
131.33199653813969
 30
0.0
 11
76.550000071854356
 21
131.33199653813969
 31
0.0
1001
GENIUS_GENOBJ-N-FIL_13
1002
{
1000
OWNER
1000
GEN
1002
}
1001
GENIUS_GENODEF_13
1002
{
1000
HIER
1070
     0
1002
}
1002
{
1000
MANEDIT
1070
     0
1002
}
1002
{
1000
NOSEL
1070
     0
1002
}
1002
{
1000
BEHIND
1070
     0
1002
}
1002
{
1000
OTHER
1070
     0
1002
}
1002
{
1000
REACTOR
1002
}
  0
ARC
  5
1081
  8
SAPA_PROFIL
 62
     4
 10
76.550000071854356
 20
131.83199653813969
 30
0.0
 40
0.5
 50
180.0
 51
270.0
1001
GENIUS_GENOBJ-N-FIL_13
1002
{
1000
OWNER
1000
GEN
1002
}
1001
GENIUS_GENODEF_13
1002
{
1000
HIER
1070
     0
1002
}
1002
{
1000
MANEDIT
1070
     0
1002
}
1002
{
1000
NOSEL
1070
     0
1002
}
1002
{
1000
BEHIND
1070
     0
1002
}
1002
{
1000
OTHER
1070
     0
1002
}
1002
{
1000
REACTOR
1002
}
  0
LINE
  5
1082
  8
SAPA_PROFIL
 62
     4
 10
76.050000071854356
 20
131.83199653813969
 30
0.0
 11
76.050000071854356
 21
137.83199653813969
 31
0.0
1001
GENIUS_GENOBJ-N-FIL_13
1002
{
1000
OWNER
1000
GEN
1002
}
1001
GENIUS_GENODEF_13
1002
{
1000
HIER
1070
     0
1002
}
1002
{
1000
MANEDIT
1070
     0
1002
}
1002
{
1000
NOSEL
1070
     0
1002
}
1002
{
1000
BEHIND
1070
     0
1002
}
1002
{
1000
OTHER
1070
     0
1002
}
1002
{
1000
REACTOR
1002
}
  0
ARC
  5
1083
  8
SAPA_PROFIL
 62
     4
 10
76.550000071854356
 20
137.83199653813969
 30
0.0
 40
0.5
 50
90.0
 51
180.0
1001
GENIUS_GENOBJ-N-FIL_13
1002
{
1000
OWNER
1000
GEN
1002
}
1001
GENIUS_GENODEF_13
1002
{
1000
HIER
1070
     0
1002
}
1002
{
1000
MANEDIT
1070
     0
1002
}
1002
{
1000
NOSEL
1070
     0
1002
}
1002
{
1000
BEHIND
1070
     0
1002
}
1002
{
1000
OTHER
1070
     0
1002
}
1002
{
1000
REACTOR
1002
}
  0
LINE
  5
1084
  8
SAPA_PROFIL
 62
     4
 10
76.550000071854356
 20
138.33199653813969
 30
0.0
 11
77.450000071850354
 21
138.33199653813969
 31
0.0
1001
GENIUS_GENOBJ-N-FIL_13
1002
{
1000
OWNER
1000
GEN
1002
}
1001
GENIUS_GENODEF_13
1002
{
1000
HIER
1070
     0
1002
}
1002
{
1000
MANEDIT
1070
     0
1002
}
1002
{
1000
NOSEL
1070
     0
1002
}
1002
{
1000
BEHIND
1070
     0
1002
}
1002
{
1000
OTHER
1070
     0
1002
}
1002
{
1000
REACTOR
1002
}
  0
ARC
  5
1085
  8
SAPA_PROFIL
 62
     4
 10
77.450000071850809
 20
138.03199653813911
 30
0.0
 40
0.3000000000006366
 50
0.0000000000868503
 51
90.000000000086857
1001
GENIUS_GENOBJ-N-FIL_13
1002
{
1000
OWNER
1000
GEN
1002
}
1001
GENIUS_GENODEF_13
1002
{
1000
HIER
1070
     0
1002
}
1002
{
1000
MANEDIT
1070
     0
1002
}
1002
{
1000
NOSEL
1070
     0
1002
}
1002
{
1000
BEHIND
1070
     0
1002
}
1002
{
1000
OTHER
1070
     0
1002
}
1002
{
1000
REACTOR
1002
}
  0
LINE
  5
1086
  8
SAPA_PROFIL
 62
     4
 10
77.750000071851446
 20
138.03199653813951
 30
0.0
 11
77.750000071851446
 21
137.3819965381399
 31
0.0
1001
GENIUS_GENOBJ-N-FIL_13
1002
{
1000
OWNER
1000
GEN
1002
}
1001
GENIUS_GENODEF_13
1002
{
1000
HIER
1070
     0
1002
}
1002
{
1000
MANEDIT
1070
     0
1002
}
1002
{
1000
NOSEL
1070
     0
1002
}
1002
{
1000
BEHIND
1070
     0
1002
}
1002
{
1000
OTHER
1070
     0
1002
}
1002
{
1000
REACTOR
1002
}
  0
ARC
  5
1087
  8
SAPA_PROFIL
 62
     4
 10
78.050000071851628
 20
137.3819965381399
 30
0.0
 40
0.3000000000001819
 50
180.0
 51
270.0
1001
GENIUS_GENOBJ-N-FIL_13
1002
{
1000
OWNER
1000
GEN
1002
}
1001
GENIUS_GENODEF_13
1002
{
1000
HIER
1070
     0
1002
}
1002
{
1000
MANEDIT
1070
     0
1002
}
1002
{
1000
NOSEL
1070
     0
1002
}
1002
{
1000
BEHIND
1070
     0
1002
}
1002
{
1000
OTHER
1070
     0
1002
}
1002
{
1000
REACTOR
1002
}
  0
LINE
  5
1088
  8
SAPA_PROFIL
 62
     4
 10
78.050000071851628
 20
137.08199653813969
 30
0.0
 11
78.250000071851446
 21
137.08199653813969
 31
0.0
1001
GENIUS_GENOBJ-N-FIL_13
1002
{
1000
OWNER
1000
GEN
1002
}
1001
GENIUS_GENODEF_13
1002
{
1000
HIER
1070
     0
1002
}
1002
{
1000
MANEDIT
1070
     0
1002
}
1002
{
1000
NOSEL
1070
     0
1002
}
1002
{
1000
BEHIND
1070
     0
1002
}
1002
{
1000
OTHER
1070
     0
1002
}
1002
{
1000
REACTOR
1002
}
  0
ARC
  5
1089
  8
SAPA_PROFIL
 62
     4
 10
78.250000071851446
 20
137.58199653813969
 30
0.0
 40
0.5
 50
270.0
 51
0.0
1001
GENIUS_GENOBJ-N-FIL_13
1002
{
1000
OWNER
1000
GEN
1002
}
1001
GENIUS_GENODEF_13
1002
{
1000
HIER
1070
     0
1002
}
1002
{
1000
MANEDIT
1070
     0
1002
}
1002
{
1000
NOSEL
1070
     0
1002
}
1002
{
1000
BEHIND
1070
     0
1002
}
1002
{
1000
OTHER
1070
     0
1002
}
1002
{
1000
REACTOR
1002
}
  0
LINE
  5
108A
  8
SAPA_PROFIL
 62
     4
 10
78.750000071851446
 20
137.58199653813969
 30
0.0
 11
78.750000071850536
 21
139.33199653813969
 31
0.0
1001
GENIUS_GENOBJ-N-FIL_13
1002
{
1000
OWNER
1000
GEN
1002
}
1001
GENIUS_GENODEF_13
1002
{
1000
HIER
1070
     0
1002
}
1002
{
1000
MANEDIT
1070
     0
1002
}
1002
{
1000
NOSEL
1070
     0
1002
}
1002
{
1000
BEHIND
1070
     0
1002
}
1002
{
1000
OTHER
1070
     0
1002
}
1002
{
1000
REACTOR
1002
}
  0
ARC
  5
108B
  8
SAPA_PROFIL
 62
     4
 10
78.250000071683303
 20
139.33199653797249
 30
0.0
 40
0.5000000001672335
 50
0.0000000191635289
 51
90.000000019085377
1001
GENIUS_GENOBJ-N-FIL_13
1002
{
1000
OWNER
1000
GEN
1002
}
1001
GENIUS_GENODEF_13
1002
{
1000
HIER
1070
     0
1002
}
1002
{
1000
MANEDIT
1070
     0
1002
}
1002
{
1000
NOSEL
1070
     0
1002
}
1002
{
1000
BEHIND
1070
     0
1002
}
1002
{
1000
OTHER
1070
     0
1002
}
1002
{
1000
REACTOR
1002
}
  0
LINE
  5
108C
  8
SAPA_PROFIL
 62
     4
 10
78.250000071516752
 20
139.83199653813969
 30
0.0
 11
65.250000071509476
 21
139.83199653813969
 31
0.0
1001
GENIUS_GENOBJ-N-FIL_13
1002
{
1000
OWNER
1000
GEN
1002
}
1001
GENIUS_GENODEF_13
1002
{
1000
HIER
1070
     0
1002
}
1002
{
1000
MANEDIT
1070
     0
1002
}
1002
{
1000
NOSEL
1070
     0
1002
}
1002
{
1000
BEHIND
1070
     0
1002
}
1002
{
1000
OTHER
1070
     0
1002
}
1002
{
1000
REACTOR
1002
}
  0
ARC
  5
108D
  8
SAPA_PROFIL
 62
     4
 10
65.250000071370209
 20
139.3319965380025
 30
0.0
 40
0.5000000001372201
 50
89.999999984041267
 51
179.9999999840673
1001
GENIUS_GENOBJ-N-FIL_13
1002
{
1000
OWNER
1000
GEN
1002
}
1001
GENIUS_GENODEF_13
1002
{
1000
HIER
1070
     0
1002
}
1002
{
1000
MANEDIT
1070
     0
1002
}
1002
{
1000
NOSEL
1070
     0
1002
}
1002
{
1000
BEHIND
1070
     0
1002
}
1002
{
1000
OTHER
1070
     0
1002
}
1002
{
1000
REACTOR
1002
}
  0
LINE
  5
108E
  8
SAPA_PROFIL
 62
     4
 10
64.750000071232975
 20
139.33199653814151
 30
0.0
 11
64.750000071232975
 21
137.58199653814151
 31
0.0
1001
GENIUS_GENOBJ-N-FIL_13
1002
{
1000
OWNER
1000
GEN
1002
}
1001
GENIUS_GENODEF_13
1002
{
1000
HIER
1070
     0
1002
}
1002
{
1000
MANEDIT
1070
     0
1002
}
1002
{
1000
NOSEL
1070
     0
1002
}
1002
{
1000
BEHIND
1070
     0
1002
}
1002
{
1000
OTHER
1070
     0
1002
}
1002
{
1000
REACTOR
1002
}
  0
ARC
  5
108F
  8
SAPA_PROFIL
 62
     4
 10
65.250000071232989
 20
137.58199653814151
 30
0.0
 40
0.5
 50
180.0
 51
270.0
1001
GENIUS_GENOBJ-N-FIL_13
1002
{
1000
OWNER
1000
GEN
1002
}
1001
GENIUS_GENODEF_13
1002
{
1000
HIER
1070
     0
1002
}
1002
{
1000
MANEDIT
1070
     0
1002
}
1002
{
1000
NOSEL
1070
     0
1002
}
1002
{
1000
BEHIND
1070
     0
1002
}
1002
{
1000
OTHER
1070
     0
1002
}
1002
{
1000
REACTOR
1002
}
  0
LINE
  5
1090
  8
SAPA_PROFIL
 62
     4
 10
65.250000071232989
 20
137.08199653814151
 30
0.0
 11
65.450000071232807
 21
137.08199653814151
 31
0.0
1001
GENIUS_GENOBJ-N-FIL_13
1002
{
1000
OWNER
1000
GEN
1002
}
1001
GENIUS_GENODEF_13
1002
{
1000
HIER
1070
     0
1002
}
1002
{
1000
MANEDIT
1070
     0
1002
}
1002
{
1000
NOSEL
1070
     0
1002
}
1002
{
1000
BEHIND
1070
     0
1002
}
1002
{
1000
OTHER
1070
     0
1002
}
1002
{
1000
REACTOR
1002
}
  0
ARC
  5
1091
  8
SAPA_PROFIL
 62
     4
 10
65.450000071232807
 20
137.38199653814169
 30
0.0
 40
0.3000000000001819
 50
270.0
 51
0.0
1001
GENIUS_GENOBJ-N-FIL_13
1002
{
1000
OWNER
1000
GEN
1002
}
1001
GENIUS_GENODEF_13
1002
{
1000
HIER
1070
     0
1002
}
1002
{
1000
MANEDIT
1070
     0
1002
}
1002
{
1000
NOSEL
1070
     0
1002
}
1002
{
1000
BEHIND
1070
     0
1002
}
1002
{
1000
OTHER
1070
     0
1002
}
1002
{
1000
REACTOR
1002
}
  0
LINE
  5
1092
  8
SAPA_PROFIL
 62
     4
 10
65.750000071232989
 20
137.38199653814169
 30
0.0
 11
65.750000071232989
 21
138.0319965381413
 31
0.0
1001
GENIUS_GENOBJ-N-FIL_13
1002
{
1000
OWNER
1000
GEN
1002
}
1001
GENIUS_GENODEF_13
1002
{
1000
HIER
1070
     0
1002
}
1002
{
1000
MANEDIT
1070
     0
1002
}
1002
{
1000
NOSEL
1070
     0
1002
}
1002
{
1000
BEHIND
1070
     0
1002
}
1002
{
1000
OTHER
1070
     0
1002
}
1002
{
1000
REACTOR
1002
}
  0
ARC
  5
1093
  8
SAPA_PROFIL
 62
     4
 10
66.050000071232716
 20
138.03199653814181
 30
0.0
 40
0.2999999999997271
 50
90.000000000086857
 51
180.0000000000868
1001
GENIUS_GENOBJ-N-FIL_13
1002
{
1000
OWNER
1000
GEN
1002
}
1001
GENIUS_GENODEF_13
1002
{
1000
HIER
1070
     0
1002
}
1002
{
1000
MANEDIT
1070
     0
1002
}
1002
{
1000
NOSEL
1070
     0
1002
}
1002
{
1000
BEHIND
1070
     0
1002
}
1002
{
1000
OTHER
1070
     0
1002
}
1002
{
1000
REACTOR
1002
}
  0
LINE
  5
1094
  8
SAPA_PROFIL
 62
     4
 10
66.050000071232262
 20
138.33199653814151
 30
0.0
 11
66.950000071230079
 21
138.33199653814151
 31
0.0
1001
GENIUS_GENOBJ-N-FIL_13
1002
{
1000
OWNER
1000
GEN
1002
}
1001
GENIUS_GENODEF_13
1002
{
1000
HIER
1070
     0
1002
}
1002
{
1000
MANEDIT
1070
     0
1002
}
1002
{
1000
NOSEL
1070
     0
1002
}
1002
{
1000
BEHIND
1070
     0
1002
}
1002
{
1000
OTHER
1070
     0
1002
}
1002
{
1000
REACTOR
1002
}
  0
ARC
  5
1095
  8
SAPA_PROFIL
 62
     4
 10
66.950000071230079
 20
137.83199653814151
 30
0.0
 40
0.5
 50
0.0
 51
90.0
1001
GENIUS_GENOBJ-N-FIL_13
1002
{
1000
OWNER
1000
GEN
1002
}
1001
GENIUS_GENODEF_13
1002
{
1000
HIER
1070
     0
1002
}
1002
{
1000
MANEDIT
1070
     0
1002
}
1002
{
1000
NOSEL
1070
     0
1002
}
1002
{
1000
BEHIND
1070
     0
1002
}
1002
{
1000
OTHER
1070
     0
1002
}
1002
{
1000
REACTOR
1002
}
  0
LINE
  5
1096
  8
SAPA_PROFIL
 62
     4
 10
67.450000071230079
 20
137.83199653814151
 30
0.0
 11
67.450000071230079
 21
131.83199653814151
 31
0.0
1001
GENIUS_GENOBJ-N-FIL_13
1002
{
1000
OWNER
1000
GEN
1002
}
1001
GENIUS_GENODEF_13
1002
{
1000
HIER
1070
     0
1002
}
1002
{
1000
MANEDIT
1070
     0
1002
}
1002
{
1000
NOSEL
1070
     0
1002
}
1002
{
1000
BEHIND
1070
     0
1002
}
1002
{
1000
OTHER
1070
     0
1002
}
1002
{
1000
REACTOR
1002
}
  0
ARC
  5
1097
  8
SAPA_PROFIL
 62
     4
 10
66.950000071230079
 20
131.83199653814151
 30
0.0
 40
0.5
 50
270.0
 51
0.0
1001
GENIUS_GENOBJ-N-FIL_13
1002
{
1000
OWNER
1000
GEN
1002
}
1001
GENIUS_GENODEF_13
1002
{
1000
HIER
1070
     0
1002
}
1002
{
1000
MANEDIT
1070
     0
1002
}
1002
{
1000
NOSEL
1070
     0
1002
}
1002
{
1000
BEHIND
1070
     0
1002
}
1002
{
1000
OTHER
1070
     0
1002
}
1002
{
1000
REACTOR
1002
}
  0
LINE
  5
1098
  8
SAPA_PROFIL
 62
     4
 10
66.950000071230079
 20
131.33199653814151
 30
0.0
 11
66.050000071232262
 21
131.33199653814151
 31
0.0
1001
GENIUS_GENOBJ-N-FIL_13
1002
{
1000
OWNER
1000
GEN
1002
}
1001
GENIUS_GENODEF_13
1002
{
1000
HIER
1070
     0
1002
}
1002
{
1000
MANEDIT
1070
     0
1002
}
1002
{
1000
NOSEL
1070
     0
1002
}
1002
{
1000
BEHIND
1070
     0
1002
}
1002
{
1000
OTHER
1070
     0
1002
}
1002
{
1000
REACTOR
1002
}
  0
ARC
  5
1099
  8
SAPA_PROFIL
 62
     4
 10
66.050000071232716
 20
131.63199653814121
 30
0.0
 40
0.2999999999997271
 50
179.99999999991309
 51
269.99999999991309
1001
GENIUS_GENOBJ-N-FIL_13
1002
{
1000
OWNER
1000
GEN
1002
}
1001
GENIUS_GENODEF_13
1002
{
1000
HIER
1070
     0
1002
}
1002
{
1000
MANEDIT
1070
     0
1002
}
1002
{
1000
NOSEL
1070
     0
1002
}
1002
{
1000
BEHIND
1070
     0
1002
}
1002
{
1000
OTHER
1070
     0
1002
}
1002
{
1000
REACTOR
1002
}
  0
LINE
  5
109A
  8
SAPA_PROFIL
 62
     4
 10
65.750000071232989
 20
131.63199653814169
 30
0.0
 11
65.750000071232989
 21
132.2819965381413
 31
0.0
1001
GENIUS_GENOBJ-N-FIL_13
1002
{
1000
OWNER
1000
GEN
1002
}
1001
GENIUS_GENODEF_13
1002
{
1000
HIER
1070
     0
1002
}
1002
{
1000
MANEDIT
1070
     0
1002
}
1002
{
1000
NOSEL
1070
     0
1002
}
1002
{
1000
BEHIND
1070
     0
1002
}
1002
{
1000
OTHER
1070
     0
1002
}
1002
{
1000
REACTOR
1002
}
  0
ARC
  5
109B
  8
SAPA_PROFIL
 62
     4
 10
65.450000071232807
 20
132.2819965381413
 30
0.0
 40
0.3000000000001819
 50
0.0
 51
90.0
1001
GENIUS_GENOBJ-N-FIL_13
1002
{
1000
OWNER
1000
GEN
1002
}
1001
GENIUS_GENODEF_13
1002
{
1000
HIER
1070
     0
1002
}
1002
{
1000
MANEDIT
1070
     0
1002
}
1002
{
1000
NOSEL
1070
     0
1002
}
1002
{
1000
BEHIND
1070
     0
1002
}
1002
{
1000
OTHER
1070
     0
1002
}
1002
{
1000
REACTOR
1002
}
  0
LINE
  5
109C
  8
SAPA_PROFIL
 62
     4
 10
65.450000071232807
 20
132.58199653814151
 30
0.0
 11
65.250000071232989
 21
132.58199653814151
 31
0.0
1001
GENIUS_GENOBJ-N-FIL_13
1002
{
1000
OWNER
1000
GEN
1002
}
1001
GENIUS_GENODEF_13
1002
{
1000
HIER
1070
     0
1002
}
1002
{
1000
MANEDIT
1070
     0
1002
}
1002
{
1000
NOSEL
1070
     0
1002
}
1002
{
1000
BEHIND
1070
     0
1002
}
1002
{
1000
OTHER
1070
     0
1002
}
1002
{
1000
REACTOR
1002
}
  0
ARC
  5
109D
  8
SAPA_PROFIL
 62
     4
 10
65.250000071232989
 20
132.08199653814151
 30
0.0
 40
0.5
 50
90.0
 51
180.0
1001
GENIUS_GENOBJ-N-FIL_13
1002
{
1000
OWNER
1000
GEN
1002
}
1001
GENIUS_GENODEF_13
1002
{
1000
HIER
1070
     0
1002
}
1002
{
1000
MANEDIT
1070
     0
1002
}
1002
{
1000
NOSEL
1070
     0
1002
}
1002
{
1000
BEHIND
1070
     0
1002
}
1002
{
1000
OTHER
1070
     0
1002
}
1002
{
1000
REACTOR
1002
}
  0
LINE
  5
109E
  8
SAPA_PROFIL
 62
     4
 10
64.750000071232975
 20
132.08199653814151
 30
0.0
 11
64.750000071232975
 21
129.08199653814151
 31
0.0
1001
GENIUS_GENOBJ-N-FIL_13
1002
{
1000
OWNER
1000
GEN
1002
}
1001
GENIUS_GENODEF_13
1002
{
1000
HIER
1070
     0
1002
}
1002
{
1000
MANEDIT
1070
     0
1002
}
1002
{
1000
NOSEL
1070
     0
1002
}
1002
{
1000
BEHIND
1070
     0
1002
}
1002
{
1000
OTHER
1070
     0
1002
}
1002
{
1000
REACTOR
1002
}
  0
ARC
  5
109F
  8
SAPA_PROFIL
 62
     4
 10
65.250000071232989
 20
129.08199653814151
 30
0.0
 40
0.5
 50
180.0
 51
270.0
1001
GENIUS_GENOBJ-N-FIL_13
1002
{
1000
OWNER
1000
GEN
1002
}
1001
GENIUS_GENODEF_13
1002
{
1000
HIER
1070
     0
1002
}
1002
{
1000
MANEDIT
1070
     0
1002
}
1002
{
1000
NOSEL
1070
     0
1002
}
1002
{
1000
BEHIND
1070
     0
1002
}
1002
{
1000
OTHER
1070
     0
1002
}
1002
{
1000
REACTOR
1002
}
  0
LINE
  5
10A0
  8
SAPA_PROFIL
 62
     4
 10
65.250000071232989
 20
128.58199653814151
 30
0.0
 11
65.450000071225531
 21
128.5819965381406
 31
0.0
1001
GENIUS_GENOBJ-N-FIL_13
1002
{
1000
OWNER
1000
GEN
1002
}
1001
GENIUS_GENODEF_13
1002
{
1000
HIER
1070
     0
1002
}
1002
{
1000
MANEDIT
1070
     0
1002
}
1002
{
1000
NOSEL
1070
     0
1002
}
1002
{
1000
BEHIND
1070
     0
1002
}
1002
{
1000
OTHER
1070
     0
1002
}
1002
{
1000
REACTOR
1002
}
  0
ARC
  5
10A1
  8
SAPA_PROFIL
 62
     4
 10
65.450000071227464
 20
128.8819965381407
 30
0.0
 40
0.3000000000000682
 50
269.99999999963092
 51
359.99999999958737
1001
GENIUS_GENOBJ-N-FIL_13
1002
{
1000
OWNER
1000
GEN
1002
}
1001
GENIUS_GENODEF_13
1002
{
1000
HIER
1070
     0
1002
}
1002
{
1000
MANEDIT
1070
     0
1002
}
1002
{
1000
NOSEL
1070
     0
1002
}
1002
{
1000
BEHIND
1070
     0
1002
}
1002
{
1000
OTHER
1070
     0
1002
}
1002
{
1000
REACTOR
1002
}
  0
LINE
  5
10A2
  8
SAPA_PROFIL
 62
     4
 10
65.750000071227532
 20
128.88199653813851
 30
0.0
 11
65.750000071230261
 21
129.53199653813951
 31
0.0
1001
GENIUS_GENOBJ-N-FIL_13
1002
{
1000
OWNER
1000
GEN
1002
}
1001
GENIUS_GENODEF_13
1002
{
1000
HIER
1070
     0
1002
}
1002
{
1000
MANEDIT
1070
     0
1002
}
1002
{
1000
NOSEL
1070
     0
1002
}
1002
{
1000
BEHIND
1070
     0
1002
}
1002
{
1000
OTHER
1070
     0
1002
}
1002
{
1000
REACTOR
1002
}
  0
ARC
  5
10A3
  8
SAPA_PROFIL
 62
     4
 10
66.050000071230897
 20
129.5319965381382
 30
0.0
 40
0.3000000000006366
 50
89.999999999913143
 51
179.9999999997394
1001
GENIUS_GENOBJ-N-FIL_13
1002
{
1000
OWNER
1000
GEN
1002
}
1001
GENIUS_GENODEF_13
1002
{
1000
HIER
1070
     0
1002
}
1002
{
1000
MANEDIT
1070
     0
1002
}
1002
{
1000
NOSEL
1070
     0
1002
}
1002
{
1000
BEHIND
1070
     0
1002
}
1002
{
1000
OTHER
1070
     0
1002
}
1002
{
1000
REACTOR
1002
}
  0
LINE
  5
10A4
  8
SAPA_PROFIL
 62
     4
 10
66.050000071231352
 20
129.83199653813881
 30
0.0
 11
66.950000071230079
 21
129.83199653813881
 31
0.0
1001
GENIUS_GENOBJ-N-FIL_13
1002
{
1000
OWNER
1000
GEN
1002
}
1001
GENIUS_GENODEF_13
1002
{
1000
HIER
1070
     0
1002
}
1002
{
1000
MANEDIT
1070
     0
1002
}
1002
{
1000
NOSEL
1070
     0
1002
}
1002
{
1000
BEHIND
1070
     0
1002
}
1002
{
1000
OTHER
1070
     0
1002
}
1002
{
1000
REACTOR
1002
}
  0
ARC
  5
10A5
  8
SAPA_PROFIL
 62
     4
 10
66.950000071230079
 20
129.33199653813881
 30
0.0
 40
0.5
 50
0.0
 51
90.0
1001
GENIUS_GENOBJ-N-FIL_13
1002
{
1000
OWNER
1000
GEN
1002
}
1001
GENIUS_GENODEF_13
1002
{
1000
HIER
1070
     0
1002
}
1002
{
1000
MANEDIT
1070
     0
1002
}
1002
{
1000
NOSEL
1070
     0
1002
}
1002
{
1000
BEHIND
1070
     0
1002
}
1002
{
1000
OTHER
1070
     0
1002
}
1002
{
1000
REACTOR
1002
}
  0
LINE
  5
10A6
  8
SAPA_PROFIL
 62
     4
 10
67.450000071230079
 20
129.33199653813881
 30
0.0
 11
67.450000071222803
 21
123.33199653813649
 31
0.0
1001
GENIUS_GENOBJ-N-FIL_13
1002
{
1000
OWNER
1000
GEN
1002
}
1001
GENIUS_GENODEF_13
1002
{
1000
HIER
1070
     0
1002
}
1002
{
1000
MANEDIT
1070
     0
1002
}
1002
{
1000
NOSEL
1070
     0
1002
}
1002
{
1000
BEHIND
1070
     0
1002
}
1002
{
1000
OTHER
1070
     0
1002
}
1002
{
1000
REACTOR
1002
}
  0
ARC
  5
10A7
  8
SAPA_PROFIL
 62
     4
 10
66.950000071222803
 20
123.33199653813649
 30
0.0
 40
0.5
 50
270.0
 51
0.0
1001
GENIUS_GENOBJ-N-FIL_13
1002
{
1000
OWNER
1000
GEN
1002
}
1001
GENIUS_GENODEF_13
1002
{
1000
HIER
1070
     0
1002
}
1002
{
1000
MANEDIT
1070
     0
1002
}
1002
{
1000
NOSEL
1070
     0
1002
}
1002
{
1000
BEHIND
1070
     0
1002
}
1002
{
1000
OTHER
1070
     0
1002
}
1002
{
1000
REACTOR
1002
}
  0
LINE
  5
10A8
  8
SAPA_PROFIL
 62
     4
 10
66.950000071222803
 20
122.83199653813649
 30
0.0
 11
66.050000071225895
 21
122.83199653813649
 31
0.0
1001
GENIUS_GENOBJ-N-FIL_13
1002
{
1000
OWNER
1000
GEN
1002
}
1001
GENIUS_GENODEF_13
1002
{
1000
HIER
1070
     0
1002
}
1002
{
1000
MANEDIT
1070
     0
1002
}
1002
{
1000
NOSEL
1070
     0
1002
}
1002
{
1000
BEHIND
1070
     0
1002
}
1002
{
1000
OTHER
1070
     0
1002
}
1002
{
1000
REACTOR
1002
}
  0
ARC
  5
10A9
  8
SAPA_PROFIL
 62
     4
 10
66.050000071225895
 20
123.1319965381367
 30
0.0
 40
0.3000000000001819
 50
180.0
 51
270.0
1001
GENIUS_GENOBJ-N-FIL_13
1002
{
1000
OWNER
1000
GEN
1002
}
1001
GENIUS_GENODEF_13
1002
{
1000
HIER
1070
     0
1002
}
1002
{
1000
MANEDIT
1070
     0
1002
}
1002
{
1000
NOSEL
1070
     0
1002
}
1002
{
1000
BEHIND
1070
     0
1002
}
1002
{
1000
OTHER
1070
     0
1002
}
1002
{
1000
REACTOR
1002
}
  0
LINE
  5
10AA
  8
SAPA_PROFIL
 62
     4
 10
65.750000071225713
 20
123.1319965381367
 30
0.0
 11
65.750000071225713
 21
123.7819965381386
 31
0.0
1001
GENIUS_GENOBJ-N-FIL_13
1002
{
1000
OWNER
1000
GEN
1002
}
1001
GENIUS_GENODEF_13
1002
{
1000
HIER
1070
     0
1002
}
1002
{
1000
MANEDIT
1070
     0
1002
}
1002
{
1000
NOSEL
1070
     0
1002
}
1002
{
1000
BEHIND
1070
     0
1002
}
1002
{
1000
OTHER
1070
     0
1002
}
1002
{
1000
REACTOR
1002
}
  0
ARC
  5
10AB
  8
SAPA_PROFIL
 62
     4
 10
65.450000071225531
 20
123.7819965381386
 30
0.0
 40
0.3000000000001819
 50
0.0
 51
90.0
1001
GENIUS_GENOBJ-N-FIL_13
1002
{
1000
OWNER
1000
GEN
1002
}
1001
GENIUS_GENODEF_13
1002
{
1000
HIER
1070
     0
1002
}
1002
{
1000
MANEDIT
1070
     0
1002
}
1002
{
1000
NOSEL
1070
     0
1002
}
1002
{
1000
BEHIND
1070
     0
1002
}
1002
{
1000
OTHER
1070
     0
1002
}
1002
{
1000
REACTOR
1002
}
  0
LINE
  5
10AC
  8
SAPA_PROFIL
 62
     4
 10
65.450000071225531
 20
124.0819965381388
 30
0.0
 11
65.250000071225713
 21
124.0819965381388
 31
0.0
1001
GENIUS_GENOBJ-N-FIL_13
1002
{
1000
OWNER
1000
GEN
1002
}
1001
GENIUS_GENODEF_13
1002
{
1000
HIER
1070
     0
1002
}
1002
{
1000
MANEDIT
1070
     0
1002
}
1002
{
1000
NOSEL
1070
     0
1002
}
1002
{
1000
BEHIND
1070
     0
1002
}
1002
{
1000
OTHER
1070
     0
1002
}
1002
{
1000
REACTOR
1002
}
  0
ARC
  5
10AD
  8
SAPA_PROFIL
 62
     4
 10
65.250000071225713
 20
123.5819965381388
 30
0.0
 40
0.5
 50
90.0
 51
180.0
1001
GENIUS_GENOBJ-N-FIL_13
1002
{
1000
OWNER
1000
GEN
1002
}
1001
GENIUS_GENODEF_13
1002
{
1000
HIER
1070
     0
1002
}
1002
{
1000
MANEDIT
1070
     0
1002
}
1002
{
1000
NOSEL
1070
     0
1002
}
1002
{
1000
BEHIND
1070
     0
1002
}
1002
{
1000
OTHER
1070
     0
1002
}
1002
{
1000
REACTOR
1002
}
  0
LINE
  5
10AE
  8
SAPA_PROFIL
 62
     4
 10
64.750000071225713
 20
123.5819965381388
 30
0.0
 11
64.750000071307554
 21
97.784261511214936
 31
0.0
1001
GENIUS_GENOBJ-N-FIL_13
1002
{
1000
OWNER
1000
GEN
1002
}
1001
GENIUS_GENODEF_13
1002
{
1000
HIER
1070
     0
1002
}
1002
{
1000
MANEDIT
1070
     0
1002
}
1002
{
1000
NOSEL
1070
     0
1002
}
1002
{
1000
BEHIND
1070
     0
1002
}
1002
{
1000
OTHER
1070
     0
1002
}
1002
{
1000
REACTOR
1002
}
  0
ARC
  5
10AF
  8
SAPA_PROFIL
 62
     4
 10
63.55000007130775
 20
97.784261511210843
 30
0.0
 40
1.1999999999998181
 50
270.0
 51
0.0000000001954133
1001
GENIUS_GENOBJ-N-FIL_13
1002
{
1000
OWNER
1000
GEN
1002
}
1001
GENIUS_GENODEF_13
1002
{
1000
HIER
1070
     0
1002
}
1002
{
1000
MANEDIT
1070
     0
1002
}
1002
{
1000
NOSEL
1070
     0
1002
}
1002
{
1000
BEHIND
1070
     0
1002
}
1002
{
1000
OTHER
1070
     0
1002
}
1002
{
1000
REACTOR
1002
}
  0
LINE
  5
10B0
  8
SAPA_PROFIL
 62
     4
 10
63.55000007130775
 20
96.584261511211025
 30
0.0
 11
60.821518721227683
 21
96.58426151121057
 31
0.0
1001
GENIUS_GENOBJ-N-FIL_13
1002
{
1000
OWNER
1000
GEN
1002
}
1001
GENIUS_GENODEF_13
1002
{
1000
HIER
1070
     0
1002
}
1002
{
1000
MANEDIT
1070
     0
1002
}
1002
{
1000
NOSEL
1070
     0
1002
}
1002
{
1000
BEHIND
1070
     0
1002
}
1002
{
1000
OTHER
1070
     0
1002
}
1002
{
1000
REACTOR
1002
}
  0
LINE
  5
10B1
  8
SAPA_PROFIL
 62
     4
 10
68.450000139273016
 20
121.54773506762101
 30
0.0
 11
75.950000139831445
 21
121.5477350676169
 31
0.0
  0
ARC
  5
10B2
  8
SAPA_PROFIL
 62
     4
 10
75.950000139831445
 20
120.5477350676169
 30
0.0
 40
1.0
 50
0.0
 51
90.0
  0
LINE
  5
10B3
  8
SAPA_PROFIL
 62
     4
 10
76.950000139831445
 20
120.5477350676169
 30
0.0
 11
76.950000139846907
 21
97.400000040693143
 31
0.0
  0
ARC
  5
10B4
  8
SAPA_PROFIL
 62
     4
 10
76.150000139846725
 20
97.400000040693143
 30
0.0
 40
0.8000000000001818
 50
270.0
 51
0.0
  0
LINE
  5
10B5
  8
SAPA_PROFIL
 62
     4
 10
76.150000139846725
 20
96.600000040692976
 30
0.0
 11
67.350000139328131
 21
96.600000040692976
 31
0.0
  0
ARC
  5
10B6
  8
SAPA_PROFIL
 62
     4
 10
67.350000139328131
 20
97.400000040693143
 30
0.0
 40
0.8000000000001818
 50
179.9999999999348
 51
270.0
  0
LINE
  5
10B7
  8
SAPA_PROFIL
 62
     4
 10
66.550000139327949
 20
97.400000040694081
 30
0.0
 11
66.550000139351596
 21
120.54773506762101
 31
0.0
  0
ARC
  5
10B8
  8
SAPA_PROFIL
 62
     4
 10
67.550000139351255
 20
120.5477350676195
 30
0.0
 40
0.9999999999996589
 50
90.000000000032571
 51
179.9999999999153
  0
LINE
  5
10B9
  8
SAPA_PROFIL
 62
     4
 10
67.550000139350686
 20
121.5477350676192
 30
0.0
 11
68.450000139273016
 21
121.54773506762101
 31
0.0
  0
DIMENSION
  5
10D3
  8
SAPA_MATT
  2
*D14
 10
138.75000007118109
 20
181.0000000000002
 30
0.0
 11
142.75000007134619
 21
181.0000000000002
 31
0.0
 70
   128
 13
146.75000007151169
 23
138.00000000000219
 33
0.0
 14
138.75000007118109
 24
135.0000000010341
 34
0.0
 50
180.0
1001
ACAD
1000
DSTYLE
1002
{
1070
    40
1040
1.0
1002
}
  0
DIMENSION
  5
10D4
  8
SAPA_MATT
  2
*D13
 10
81.75000007184326
 20
181.0000000000002
 30
0.0
 11
110.2500000715122
 21
183.5000000000002
 31
0.0
 70
     0
 13
138.75000007118109
 23
135.0000000010341
 33
0.0
 14
81.75000007184326
 24
135.0000000010341
 34
0.0
 50
180.0
1001
ACAD
1000
DSTYLE
1002
{
1070
   287
1070
     4
1070
    40
1040
1.0
1070
   279
1070
     1
1002
}
  0
DIMENSION
  5
10D5
  8
SAPA_MATT
  2
*D12
 10
-3.2499999287319921
 20
181.0000000000002
 30
0.0
 11
39.250000071555633
 21
183.5000000000002
 31
0.0
 70
     0
 13
81.75000007184326
 23
135.0000000010341
 33
0.0
 14
-3.2499999287319952
 24
138.5
 34
0.0
 50
180.0
1001
ACAD
1000
DSTYLE
1002
{
1070
   287
1070
     4
1070
    40
1040
1.0
1070
   279
1070
     1
1002
}
  0
DIMENSION
  5
10D6
  8
SAPA_MATT
  2
*D11
 10
-3.2499999284859729
 20
193.0000000000002
 30
0.0
 11
71.750000071512886
 21
195.5000000000002
 31
0.0
 70
     0
 13
146.75000007151169
 23
138.00000000000219
 33
0.0
 14
-3.249999928485976
 24
138.00000000000219
 34
0.0
 50
180.0
1001
ACAD
1000
DSTYLE
1002
{
1070
    40
1040
1.0
1002
}
  0
DIMENSION
  5
10D7
  8
SAPA_MATT
  2
*D10
 10
171.7500001430266
 20
140.0000000000004
 30
0.0
 11
169.2500001430266
 21
81.500000000000455
 31
0.0
 70
     0
 13
145.37500014302671
 23
23.000000000000458
 33
0.0
 14
145.25000014302671
 24
140.0000000000004
 34
0.0
 50
90.0
1001
ACAD
1000
DSTYLE
1002
{
1070
    40
1040
1.0
1002
}
  0
DIMENSION
  5
10D8
  8
SAPA_MATT
  2
*D9
 10
171.75000014302711
 20
150.0000000000116
 30
0.0
 11
169.25000014302711
 21
145.000000000006
 31
0.0
 70
     0
 13
145.25000014302671
 23
140.0000000000004
 33
0.0
 14
138.50000014285109
 24
150.0000000000116
 34
0.0
 50
90.0
1001
ACAD
1000
DSTYLE
1002
{
1070
   287
1070
     4
1070
    40
1040
1.0
1070
   279
1070
     1
1002
}
  0
DIMENSION
  5
10D9
  8
SAPA_MATT
  2
*D8
 10
183.75000014302671
 20
140.0000000000004
 30
0.0
 11
181.24886377939029
 21
70.000000000000242
 31
0.0
 70
     0
  1
min. 130
 13
143.50000021454071
 23
0.0000000000000071
 33
0.0
 14
156.75000014302671
 24
140.0000000000004
 34
0.0
 50
90.0
1001
ACAD
1000
DSTYLE
1002
{
1070
    40
1040
1.0
1002
}
  0
VIEWPORT
  5
C4
 67
     1
  8
0
 10
160.5543545598442
 20
116.00969601843509
 30
0.0
 40
404.96977709277462
 41
256.8421457311839
 68
     1
 69
     1
1001
ACAD
1000
MVIEW
1002
{
1070
    16
1010
0.0
1020
0.0
1030
0.0
1010
0.0
1020
0.0
1030
1.0
1040
0.0
1040
256.8421457311839
1040
160.5543545598442
1040
116.00969601843509
1040
50.0
1040
0.0
1040
0.0
1070
     0
1070
   100
1070
     1
1070
     1
1070
     0
1070
     0
1070
     0
1070
     0
1040
0.0
1040
0.0
1040
0.0
1040
10.0
1040
10.0
1040
10.0
1040
10.0
1070
     0
1002
{
1002
}
1002
}
  0
ENDSEC
  0
EOF
