  0
SECTION
  2
HEADER
  9
$ACADVER
  1
AC1009
  9
$INSBASE
 10
0.0
 20
0.0
 30
0.0
  9
$EXTMIN
 10
-137.2414789875707
 20
-0.0000000000000118
 30
-0.2
  9
$EXTMAX
 10
201.7532560781701
 20
198.5000000000002
 30
0.0000000048844772
  9
$LIMMIN
 10
0.0
 20
0.0
  9
$LIMMAX
 10
790.0
 20
790.0
  9
$ORTHOMODE
 70
     0
  9
$REGENMODE
 70
     1
  9
$FILLMODE
 70
     1
  9
$QTEXTMODE
 70
     0
  9
$MIRRTEXT
 70
     1
  9
$DRAGMODE
 70
     2
  9
$LTSCALE
 40
4.0
  9
$OSMODE
 70
   167
  9
$ATTMODE
 70
     1
  9
$TEXTSIZE
 40
3.5
  9
$TRACEWID
 40
0.05
  9
$TEXTSTYLE
  7
ISO
  9
$CLAYER
  8
0
  9
$CELTYPE
  6
BYLAYER
  9
$CECOLOR
 62
   256
  9
$DIMSCALE
 40
0.0
  9
$DIMASZ
 40
3.0
  9
$DIMEXO
 40
1.5
  9
$DIMDLI
 40
10.0
  9
$DIMRND
 40
0.0
  9
$DIMDLE
 40
0.0
  9
$DIMEXE
 40
1.5
  9
$DIMTP
 40
0.0
  9
$DIMTM
 40
0.0
  9
$DIMTXT
 40
3.0
  9
$DIMCEN
 40
-5.0
  9
$DIMTSZ
 40
0.0
  9
$DIMTOL
 70
     0
  9
$DIMLIM
 70
     0
  9
$DIMTIH
 70
     0
  9
$DIMTOH
 70
     0
  9
$DIMSE1
 70
     0
  9
$DIMSE2
 70
     0
  9
$DIMTAD
 70
     1
  9
$DIMZIN
 70
     8
  9
$DIMBLK
  1

  9
$DIMASO
 70
     1
  9
$DIMSHO
 70
     1
  9
$DIMPOST
  1

  9
$DIMAPOST
  1

  9
$DIMALT
 70
     0
  9
$DIMALTD
 70
     0
  9
$DIMALTF
 40
25.399999999999999
  9
$DIMLFAC
 40
-1.0
  9
$DIMTOFL
 70
     1
  9
$DIMTVP
 40
0.0
  9
$DIMTIX
 70
     0
  9
$DIMSOXD
 70
     0
  9
$DIMSAH
 70
     0
  9
$DIMBLK1
  1

  9
$DIMBLK2
  1

  9
$DIMSTYLE
  2
MASKIN
  9
$DIMCLRD
 70
   256
  9
$DIMCLRE
 70
   256
  9
$DIMCLRT
 70
     2
  9
$DIMTFAC
 40
1.0
  9
$DIMGAP
 40
1.0
  9
$LUNITS
 70
     2
  9
$LUPREC
 70
     8
  9
$SKETCHINC
 40
0.1
  9
$FILLETRAD
 40
0.0
  9
$AUNITS
 70
     0
  9
$AUPREC
 70
     8
  9
$MENU
  1
ACAD
  9
$ELEVATION
 40
0.0
  9
$PELEVATION
 40
0.0
  9
$THICKNESS
 40
0.0
  9
$LIMCHECK
 70
     0
  9
$BLIPMODE
 70
     0
  9
$CHAMFERA
 40
0.0
  9
$CHAMFERB
 40
0.0
  9
$SKPOLY
 70
     0
  9
$TDCREATE
 40
2458299.4382186462
  9
$TDUPDATE
 40
2458302.5615733801
  9
$TDINDWG
 40
0.0699294097
  9
$TDUSRTIMER
 40
0.0699291782
  9
$USRTIMER
 70
     1
  9
$ANGBASE
 50
0.0
  9
$ANGDIR
 70
     0
  9
$PDMODE
 70
     0
  9
$PDSIZE
 40
0.0
  9
$PLINEWID
 40
0.0
  9
$COORDS
 70
     1
  9
$SPLFRAME
 70
     0
  9
$SPLINETYPE
 70
     6
  9
$SPLINESEGS
 70
     8
  9
$ATTDIA
 70
     1
  9
$ATTREQ
 70
     1
  9
$HANDLING
 70
     1
  9
$HANDSEED
  5
1B03
  9
$SURFTAB1
 70
     6
  9
$SURFTAB2
 70
     6
  9
$SURFTYPE
 70
     6
  9
$SURFU
 70
     6
  9
$SURFV
 70
     6
  9
$UCSNAME
  2

  9
$UCSORG
 10
0.0
 20
0.0
 30
0.0
  9
$UCSXDIR
 10
1.0
 20
0.0
 30
0.0
  9
$UCSYDIR
 10
0.0
 20
1.0
 30
0.0
  9
$PUCSNAME
  2

  9
$PUCSORG
 10
0.0
 20
0.0
 30
0.0
  9
$PUCSXDIR
 10
1.0
 20
0.0
 30
0.0
  9
$PUCSYDIR
 10
0.0
 20
1.0
 30
0.0
  9
$USERI1
 70
     0
  9
$USERI2
 70
     0
  9
$USERI3
 70
     0
  9
$USERI4
 70
     0
  9
$USERI5
 70
     0
  9
$USERR1
 40
0.0
  9
$USERR2
 40
0.0
  9
$USERR3
 40
0.0
  9
$USERR4
 40
0.0
  9
$USERR5
 40
0.0
  9
$WORLDVIEW
 70
     1
  9
$SHADEDGE
 70
     3
  9
$SHADEDIF
 70
    70
  9
$TILEMODE
 70
     1
  9
$MAXACTVP
 70
    32
  9
$PLIMCHECK
 70
     0
  9
$PEXTMIN
 10
1.0000000000000000E+020
 20
1.0000000000000000E+020
 30
1.0000000000000000E+020
  9
$PEXTMAX
 10
-1.0000000000000000E+020
 20
-1.0000000000000000E+020
 30
-1.0000000000000000E+020
  9
$PLIMMIN
 10
-5.069427490234375
 20
-5.8737497329711914
  9
$PLIMMAX
 10
291.89889526367187
 20
204.0995779037475
  9
$UNITMODE
 70
     0
  9
$VISRETAIN
 70
     1
  9
$PLINEGEN
 70
     0
  9
$PSLTSCALE
 70
     1
  0
ENDSEC
  0
SECTION
  2
TABLES
  0
TABLE
  2
VPORT
 70
     1
  0
VPORT
  2
*ACTIVE
 70
     0
 10
0.0
 20
0.0
 11
1.0
 21
1.0
 12
32.243318711378407
 22
202.45835623882019
 13
0.0
 23
0.0
 14
1.0
 24
1.0
 15
0.0
 25
0.0
 16
0.0
 26
0.0
 36
1.0
 17
0.0
 27
0.0
 37
0.0
 40
282.27025028546359
 41
1.7265193370165739
 42
50.0
 43
0.0
 44
0.0
 50
0.0
 51
0.0
 71
     0
 72
   100
 73
     1
 74
     1
 75
     0
 76
     0
 77
     0
 78
     0
  0
ENDTAB
  0
TABLE
  2
LTYPE
 70
     1
  0
LTYPE
  2
CONTINUOUS
 70
     0
  3
Solid line
 72
    65
 73
     0
 40
0.0
  0
ENDTAB
  0
TABLE
  2
LAYER
 70
    23
  0
LAYER
  2
0
 70
     0
 62
     7
  6
CONTINUOUS
  0
LAYER
  2
DEFPOINTS
 70
     0
 62
     7
  6
CONTINUOUS
  0
LAYER
  2
SAPA_ARTIKELNR
 70
     0
 62
     4
  6
CONTINUOUS
  0
LAYER
  2
SAPA_BESLAG
 70
     0
 62
     1
  6
CONTINUOUS
  0
LAYER
  2
SAPA_ANSLUTNING
 70
     0
 62
     6
  6
CONTINUOUS
  0
LAYER
  2
SAPA_GLAS
 70
     0
 62
     4
  6
CONTINUOUS
  0
LAYER
  2
SAPA_FOGBAND
 70
     0
 62
     2
  6
CONTINUOUS
  0
LAYER
  2
SAPA_PROFIL
 70
     0
 62
     7
  6
CONTINUOUS
  0
LAYER
  2
SAPA_ISOLATOR
 70
     0
 62
     4
  6
CONTINUOUS
  0
LAYER
  2
SAPA_MATT
 70
     0
 62
     1
  6
CONTINUOUS
  0
ENDTAB
  0
TABLE
  2
STYLE
 70
     2
  0
STYLE
  2
STANDARD
 70
     0
 40
0.0
 41
1.0
 50
0.0
 71
     0
 42
0.2
  3
txt
  4

  0
STYLE
  2
ISO
 70
     0
 40
0.0
 41
1.0
 50
0.0
 71
     0
 42
3.5
  3
txt
  4

  0
ENDTAB
  0
TABLE
  2
VIEW
 70
     0
  0
ENDTAB
  0
TABLE
  2
UCS
 70
     0
  0
ENDTAB
  0
TABLE
  2
APPID
 70
    22
  0
APPID
  2
ACAD
 70
     0
  0
APPID
  2
ACAD_DSTYLE_DIMTEXT_FILL
 70
     0
  0
APPID
  2
ACAD_DSTYLE_DIMEXT_LENGTH
 70
     0
  0
APPID
  2
ACAD_DSTYLE_DIMEXT_ENABLED
 70
     0
  0
APPID
  2
ACAD_DSTYLE_DIM_LINETYPE
 70
     0
  0
APPID
  2
ACAD_DSTYLE_DIM_EXT1_LINETYPE
 70
     0
  0
APPID
  2
ACAD_DSTYLE_DIM_EXT2_LINETYPE
 70
     0
  0
APPID
  2
ACAD_DSTYLE_DIMJOGGED_JOGA
 70
     0
  0
APPID
  2
ACAD_DSTYLE_DIMARC_LENGTH_
 70
     0
  0
APPID
  2
ACAD_PSEXT
 70
     0
  0
APPID
  2
ACAD_MLEADERVER
 70
     0
  0
APPID
  2
ACAD_NAV_VCDISPLAY
 70
     0
  0
APPID
  2
GENIUS_GENODEF_13
 70
     0
  0
APPID
  2
RC_PROFILE
 70
     0
  0
APPID
  2
ACAECLAYERSTANDARD
 70
     0
  0
APPID
  2
GENIUS_GENOBJ-N-FIL_13
 70
     0
  0
APPID
  2
GENIUS_GENREC_14
 70
     0
  0
APPID
  2
GENIUS_GENOBJ-N-REC_13
 70
     0
  0
APPID
  2
ACCMTRANSPARENCY
 70
     0
  0
APPID
  2
GRADIENTCOLOR1ACI
 70
     0
  0
APPID
  2
GRADIENTCOLOR2ACI
 70
     0
  0
APPID
  2
ACAD_EXEMPT_FROM_CAD_STANDARDS
 70
     0
  0
ENDTAB
  0
TABLE
  2
DIMSTYLE
 70
     2
  0
DIMSTYLE
  2
STANDARD
 70
     0
  3

  4

  5

  6

  7

 40
1.0
 41
0.18
 42
0.0625
 43
0.38
 44
0.18
 45
0.0
 46
0.0
 47
0.0
 48
0.0
140
0.18
141
0.09
142
0.0
143
25.399999999999999
144
1.0
145
0.0
146
1.0
147
0.09
 71
     0
 72
     0
 73
     1
 74
     1
 75
     0
 76
     0
 77
     0
 78
     0
170
     0
171
     2
172
     0
173
     0
174
     0
175
     0
176
     0
177
     0
178
     0
  0
DIMSTYLE
  2
MASKIN
 70
     0
  3

  4

  5

  6

  7

 40
0.0
 41
3.0
 42
1.5
 43
10.0
 44
1.5
 45
0.0
 46
0.0
 47
0.0
 48
0.0
140
3.0
141
-5.0
142
0.0
143
25.399999999999999
144
-1.0
145
0.0
146
1.0
147
1.0
 71
     0
 72
     0
 73
     0
 74
     0
 75
     0
 76
     0
 77
     1
 78
     8
170
     0
171
     0
172
     1
173
     0
174
     0
175
     0
176
   256
177
   256
178
     2
  0
ENDTAB
  0
ENDSEC
  0
SECTION
  2
BLOCKS
  0
BLOCK
  8
0
  2
$MODEL_SPACE
 70
     0
 10
0.0
 20
0.0
 30
0.0
  3
$MODEL_SPACE
  1

  0
ENDBLK
  5
37
  8
0
  0
BLOCK
 67
     1
  8
0
  2
$PAPER_SPACE
 70
     0
 10
0.0
 20
0.0
 30
0.0
  3
$PAPER_SPACE
  1

  0
ENDBLK
  5
35
 67
     1
  8
0
  0
BLOCK
  8
0
  2
*D10
 70
     1
 10
0.0
 20
0.0
 30
0.0
  3
*D10
  1

  0
LINE
  5
190C
  8
SAPA_MATT
 10
145.00000021454071
 20
-0.0000000000000004
 30
0.0
 11
185.2500001430266
 21
-0.0000000000000118
 31
0.0
  0
LINE
  5
190D
  8
SAPA_MATT
 10
158.25000014302671
 20
140.0000000000004
 30
0.0
 11
185.2500001430266
 21
140.0000000000004
 31
0.0
  0
LINE
  5
190E
  8
SAPA_MATT
 10
183.7500001430266
 20
2.999999999999988
 30
0.0
 11
183.75000014302671
 21
137.0000000000004
 31
0.0
  0
SOLID
  5
190F
  8
SAPA_MATT
 10
183.2500001430266
 20
2.999999999999988
 30
0.0
 11
184.2500001430266
 21
2.999999999999988
 31
0.0
 12
183.7500001430266
 22
-0.0000000000000114
 32
0.0
 13
183.7500001430266
 23
-0.0000000000000114
 33
0.0
  0
SOLID
  5
1910
  8
SAPA_MATT
 10
183.25000014302671
 20
137.0000000000004
 30
0.0
 11
184.2500001430266
 21
137.0000000000004
 31
0.0
 12
183.75000014302671
 22
140.0000000000004
 32
0.0
 13
183.75000014302671
 23
140.0000000000004
 33
0.0
  0
INSERT
  5
1911
  8
0
  2
*U26
 10
0.0
 20
0.0
 30
0.0
  0
POINT
  5
1912
  8
DEFPOINTS
 62
     0
 10
143.50000021454071
 20
0.0
 30
0.0
  0
POINT
  5
1913
  8
DEFPOINTS
 62
     0
 10
156.75000014302671
 20
140.0000000000004
 30
0.0
  0
POINT
  5
1914
  8
DEFPOINTS
 62
     0
 10
183.75000014302671
 20
140.0000000000004
 30
0.0
  0
ENDBLK
  5
185A
  8
0
  0
BLOCK
  8
0
  2
*D11
 70
     1
 10
0.0
 20
0.0
 30
0.0
  3
*D11
  1

  0
LINE
  5
1A5D
  8
SAPA_MATT
 10
146.7500001430266
 20
140.0000000000004
 30
0.0
 11
173.25000014302711
 21
140.0000000000004
 31
0.0
  0
LINE
  5
1A5E
  8
SAPA_MATT
 10
140.00000014285109
 20
150.0000000000116
 30
0.0
 11
173.25000014302711
 21
150.0000000000116
 31
0.0
  0
LINE
  5
1A5F
  8
SAPA_MATT
 10
171.75000014302711
 20
143.0000000000004
 30
0.0
 11
171.75000014302711
 21
147.0000000000116
 31
0.0
  0
SOLID
  5
1A60
  8
SAPA_MATT
 10
171.25000014302711
 20
143.0000000000004
 30
0.0
 11
172.25000014302711
 21
143.0000000000004
 31
0.0
 12
171.75000014302711
 22
140.0000000000004
 32
0.0
 13
171.75000014302711
 23
140.0000000000004
 33
0.0
  0
SOLID
  5
1A61
  8
SAPA_MATT
 10
171.25000014302711
 20
147.0000000000116
 30
0.0
 11
172.25000014302711
 21
147.0000000000116
 31
0.0
 12
171.75000014302711
 22
150.0000000000116
 32
0.0
 13
171.75000014302711
 23
150.0000000000116
 33
0.0
  0
TEXT
  8
SAPA_MATT
  40
3
  5
1A7E
  62
2
  72
0
  71
0
 10
163.250
 20
139.690
 30
0.000000
  1
10
  7
ISO
  0
POINT
  5
1A63
  8
DEFPOINTS
 62
     0
 10
145.25000014302671
 20
140.0000000000004
 30
0.0
  0
POINT
  5
1A64
  8
DEFPOINTS
 62
     0
 10
138.50000014285109
 20
150.0000000000116
 30
0.0
  0
POINT
  5
1A65
  8
DEFPOINTS
 62
     0
 10
171.75000014302711
 20
150.0000000000116
 30
0.0
  0
ENDBLK
  5
1866
  8
0
  0
BLOCK
  8
0
  2
*D12
 70
     1
 10
0.0
 20
0.0
 30
0.0
  3
*D12
  1

  0
LINE
  5
18FA
  8
SAPA_MATT
 10
146.87500014302671
 20
23.000000000000458
 30
0.0
 11
173.2500001430266
 21
23.000000000000451
 31
0.0
  0
LINE
  5
18FB
  8
SAPA_MATT
 10
146.7500001430266
 20
140.0000000000004
 30
0.0
 11
173.25000014302671
 21
140.0000000000004
 31
0.0
  0
LINE
  5
18FC
  8
SAPA_MATT
 10
171.7500001430266
 20
26.000000000000451
 30
0.0
 11
171.7500001430266
 21
137.0000000000004
 31
0.0
  0
SOLID
  5
18FD
  8
SAPA_MATT
 10
171.2500001430266
 20
26.000000000000451
 30
0.0
 11
172.2500001430266
 21
26.000000000000451
 31
0.0
 12
171.7500001430266
 22
23.000000000000451
 32
0.0
 13
171.7500001430266
 23
23.000000000000451
 33
0.0
  0
SOLID
  5
18FE
  8
SAPA_MATT
 10
171.25000014302671
 20
137.0000000000004
 30
0.0
 11
172.25000014302671
 21
137.0000000000004
 31
0.0
 12
171.7500001430266
 22
140.0000000000004
 32
0.0
 13
171.7500001430266
 23
140.0000000000004
 33
0.0
  0
INSERT
  5
18FF
  8
0
  2
*U25
 10
0.0
 20
0.0
 30
0.0
  0
POINT
  5
1900
  8
DEFPOINTS
 62
     0
 10
145.37500014302671
 20
23.000000000000458
 30
0.0
  0
POINT
  5
1901
  8
DEFPOINTS
 62
     0
 10
145.25000014302671
 20
140.0000000000004
 30
0.0
  0
POINT
  5
1902
  8
DEFPOINTS
 62
     0
 10
171.7500001430266
 20
140.0000000000004
 30
0.0
  0
ENDBLK
  5
1872
  8
0
  0
BLOCK
  8
0
  2
*D13
 70
     1
 10
0.0
 20
0.0
 30
0.0
  3
*D13
  1

  0
LINE
  5
18F1
  8
SAPA_MATT
 10
146.75000007151169
 20
139.50000000000219
 30
0.0
 11
146.75000007151169
 21
194.5000000000002
 31
0.0
  0
LINE
  5
18F2
  8
SAPA_MATT
 10
-3.249999928485976
 20
139.50000000000219
 30
0.0
 11
-3.2499999284859729
 21
194.5000000000002
 31
0.0
  0
LINE
  5
18F3
  8
SAPA_MATT
 10
143.75000007151169
 20
193.0000000000002
 30
0.0
 11
-0.2499999284859733
 21
193.0000000000002
 31
0.0
  0
SOLID
  5
18F4
  8
SAPA_MATT
 10
143.75000007151169
 20
193.5000000000002
 30
0.0
 11
143.75000007151169
 21
192.5000000000002
 31
0.0
 12
146.75000007151169
 22
193.0000000000002
 32
0.0
 13
146.75000007151169
 23
193.0000000000002
 33
0.0
  0
SOLID
  5
18F5
  8
SAPA_MATT
 10
-0.2499999284859733
 20
193.5000000000002
 30
0.0
 11
-0.2499999284859733
 21
192.5000000000002
 31
0.0
 12
-3.2499999284859729
 22
193.0000000000002
 32
0.0
 13
-3.2499999284859729
 23
193.0000000000002
 33
0.0
  0
INSERT
  5
18F6
  8
0
  2
*U24
 10
0.0
 20
0.0
 30
0.0
  0
POINT
  5
18F7
  8
DEFPOINTS
 62
     0
 10
146.75000007151169
 20
138.00000000000219
 30
0.0
  0
POINT
  5
18F8
  8
DEFPOINTS
 62
     0
 10
-3.249999928485976
 20
138.00000000000219
 30
0.0
  0
POINT
  5
18F9
  8
DEFPOINTS
 62
     0
 10
-3.2499999284859729
 20
193.0000000000002
 30
0.0
  0
ENDBLK
  5
187E
  8
0
  0
BLOCK
  8
0
  2
*D14
 70
     1
 10
0.0
 20
0.0
 30
0.0
  3
*D14
  1

  0
LINE
  5
1A54
  8
SAPA_MATT
 10
81.75000007184326
 20
136.5000000010341
 30
0.0
 11
81.75000007184326
 21
182.5000000000002
 31
0.0
  0
LINE
  5
1A55
  8
SAPA_MATT
 10
-3.2499999287319952
 20
140.0
 30
0.0
 11
-3.2499999287319921
 21
182.5000000000002
 31
0.0
  0
LINE
  5
1A56
  8
SAPA_MATT
 10
78.75000007184326
 20
181.0000000000002
 30
0.0
 11
-0.2499999287319925
 21
181.0000000000002
 31
0.0
  0
SOLID
  5
1A57
  8
SAPA_MATT
 10
78.75000007184326
 20
181.5000000000002
 30
0.0
 11
78.75000007184326
 21
180.5000000000002
 31
0.0
 12
81.75000007184326
 22
181.0000000000002
 32
0.0
 13
81.75000007184326
 23
181.0000000000002
 33
0.0
  0
SOLID
  5
1A58
  8
SAPA_MATT
 10
-0.2499999287319925
 20
181.5000000000002
 30
0.0
 11
-0.2499999287319925
 21
180.5000000000002
 31
0.0
 12
-3.2499999287319921
 22
181.0000000000002
 32
0.0
 13
-3.2499999287319921
 23
181.0000000000002
 33
0.0
  0
TEXT
  8
SAPA_MATT
  40
3
  5
1A7F
  62
2
  72
0
  71
0
 10
33.2500
 20
178.190
 30
0.000000
  1
85
  7
ISO
  0
POINT
  5
1A5A
  8
DEFPOINTS
 62
     0
 10
81.75000007184326
 20
135.0000000010341
 30
0.0
  0
POINT
  5
1A5B
  8
DEFPOINTS
 62
     0
 10
-3.2499999287319952
 20
138.5
 30
0.0
  0
POINT
  5
1A5C
  8
DEFPOINTS
 62
     0
 10
-3.2499999287319921
 20
181.0000000000002
 30
0.0
  0
ENDBLK
  5
188A
  8
0
  0
BLOCK
  8
0
  2
*D15
 70
     1
 10
0.0
 20
0.0
 30
0.0
  3
*D15
  1

  0
LINE
  5
1A4B
  8
SAPA_MATT
 10
138.75000007118109
 20
136.5000000010341
 30
0.0
 11
138.75000007118109
 21
182.5000000000002
 31
0.0
  0
LINE
  5
1A4C
  8
SAPA_MATT
 10
81.75000007184326
 20
136.5000000010341
 30
0.0
 11
81.75000007184326
 21
182.5000000000002
 31
0.0
  0
LINE
  5
1A4D
  8
SAPA_MATT
 10
135.75000007118109
 20
181.0000000000002
 30
0.0
 11
84.750000071843246
 21
181.0000000000002
 31
0.0
  0
SOLID
  5
1A4E
  8
SAPA_MATT
 10
135.75000007118109
 20
181.5000000000002
 30
0.0
 11
135.75000007118109
 21
180.5000000000002
 31
0.0
 12
138.75000007118109
 22
181.0000000000002
 32
0.0
 13
138.75000007118109
 23
181.0000000000002
 33
0.0
  0
SOLID
  5
1A4F
  8
SAPA_MATT
 10
84.750000071843246
 20
181.5000000000002
 30
0.0
 11
84.750000071843246
 21
180.5000000000002
 31
0.0
 12
81.75000007184326
 22
181.0000000000002
 32
0.0
 13
81.75000007184326
 23
181.0000000000002
 33
0.0
  0
TEXT
  8
SAPA_MATT
  40
3
  5
1A80
  62
2
  72
0
  71
0
 10
104.250
 20
178.190
 30
0.000000
  1
57
  7
ISO
  0
POINT
  5
1A51
  8
DEFPOINTS
 62
     0
 10
138.75000007118109
 20
135.0000000010341
 30
0.0
  0
POINT
  5
1A52
  8
DEFPOINTS
 62
     0
 10
81.75000007184326
 20
135.0000000010341
 30
0.0
  0
POINT
  5
1A53
  8
DEFPOINTS
 62
     0
 10
81.75000007184326
 20
181.0000000000002
 30
0.0
  0
ENDBLK
  5
1896
  8
0
  0
BLOCK
  8
0
  2
*D16
 70
     1
 10
0.0
 20
0.0
 30
0.0
  3
*D16
  1

  0
LINE
  5
18D6
  8
SAPA_MATT
 10
146.75000007151169
 20
139.50000000000219
 30
0.0
 11
146.75000007151169
 21
182.5000000000002
 31
0.0
  0
LINE
  5
18D7
  8
SAPA_MATT
 10
138.75000007118109
 20
136.5000000010341
 30
0.0
 11
138.75000007118109
 21
182.5000000000002
 31
0.0
  0
LINE
  5
18D8
  8
SAPA_MATT
 10
143.75000007151169
 20
181.0000000000002
 30
0.0
 11
141.75000007118109
 21
181.0000000000002
 31
0.0
  0
SOLID
  5
18D9
  8
SAPA_MATT
 10
143.75000007151169
 20
181.5000000000002
 30
0.0
 11
143.75000007151169
 21
180.5000000000002
 31
0.0
 12
146.75000007151169
 22
181.0000000000002
 32
0.0
 13
146.75000007151169
 23
181.0000000000002
 33
0.0
  0
SOLID
  5
18DA
  8
SAPA_MATT
 10
141.75000007118109
 20
181.5000000000002
 30
0.0
 11
141.75000007118109
 21
180.5000000000002
 31
0.0
 12
138.75000007118109
 22
181.0000000000002
 32
0.0
 13
138.75000007118109
 23
181.0000000000002
 33
0.0
  0
INSERT
  5
18DB
  8
0
  2
*U23
 10
0.0
 20
0.0
 30
0.0
  0
POINT
  5
18DC
  8
DEFPOINTS
 62
     0
 10
146.75000007151169
 20
138.00000000000219
 30
0.0
  0
POINT
  5
18DD
  8
DEFPOINTS
 62
     0
 10
138.75000007118109
 20
135.0000000010341
 30
0.0
  0
POINT
  5
18DE
  8
DEFPOINTS
 62
     0
 10
138.75000007118109
 20
181.0000000000002
 30
0.0
  0
ENDBLK
  5
18A2
  8
0
  0
BLOCK
  8
0
  2
*D17
 70
     1
 10
0.0
 20
0.0
 30
0.0
  3
*D17
  1

  0
LINE
  5
18CD
  8
SAPA_MATT
 10
-91.249999928486005
 20
139.499999999967
 30
0.0
 11
-91.249999928486005
 21
182.50000001190261
 31
0.0
  0
LINE
  5
18CE
  8
SAPA_MATT
 10
-3.2499999284860048
 20
139.99999999996689
 30
0.0
 11
-3.2499999284860022
 21
182.50000001190261
 31
0.0
  0
LINE
  5
18CF
  8
SAPA_MATT
 10
-88.249999928486005
 20
181.00000001190261
 30
0.0
 11
-6.2499999284860017
 21
181.00000001190261
 31
0.0
  0
SOLID
  5
18D0
  8
SAPA_MATT
 10
-88.249999928486005
 20
181.50000001190261
 30
0.0
 11
-88.249999928486005
 21
180.50000001190261
 31
0.0
 12
-91.249999928486005
 22
181.00000001190261
 32
0.0
 13
-91.249999928486005
 23
181.00000001190261
 33
0.0
  0
SOLID
  5
18D1
  8
SAPA_MATT
 10
-6.2499999284860017
 20
181.50000001190261
 30
0.0
 11
-6.2499999284860017
 21
180.50000001190261
 31
0.0
 12
-3.2499999284860022
 22
181.00000001190261
 32
0.0
 13
-3.2499999284860022
 23
181.00000001190261
 33
0.0
  0
INSERT
  5
18D2
  8
0
  2
*U22
 10
0.0
 20
0.0
 30
0.0
  0
POINT
  5
18D3
  8
DEFPOINTS
 62
     0
 10
-91.249999928486005
 20
137.99999999996689
 30
0.0
  0
POINT
  5
18D4
  8
DEFPOINTS
 62
     0
 10
-3.2499999284860048
 20
138.499999999967
 30
0.0
  0
POINT
  5
18D5
  8
DEFPOINTS
 62
     0
 10
-3.2499999284860022
 20
181.00000001190261
 30
0.0
  0
ENDBLK
  5
18AE
  8
0
  0
BLOCK
  8
0
  2
*D18
 70
     1
 10
0.0
 20
0.0
 30
0.0
  3
*D18
  1

  0
LINE
  5
18C4
  8
SAPA_MATT
 10
-90.749999928474367
 20
139.99999999996689
 30
0.0
 11
-133.24147898757059
 21
139.99999999996689
 31
0.0
  0
LINE
  5
18C5
  8
SAPA_MATT
 10
-88.749999928490737
 20
79.999999999966974
 30
0.0
 11
-133.24147898757059
 21
79.999999999966988
 31
0.0
  0
LINE
  5
18C6
  8
SAPA_MATT
 10
-131.74147898757059
 20
136.99999999996689
 30
0.0
 11
-131.74147898757059
 21
82.999999999966974
 31
0.0
  0
SOLID
  5
18C7
  8
SAPA_MATT
 10
-132.24147898757059
 20
136.99999999996689
 30
0.0
 11
-131.24147898757059
 21
136.99999999996689
 31
0.0
 12
-131.74147898757059
 22
139.99999999996689
 32
0.0
 13
-131.74147898757059
 23
139.99999999996689
 33
0.0
  0
SOLID
  5
18C8
  8
SAPA_MATT
 10
-132.24147898757059
 20
82.999999999966974
 30
0.0
 11
-131.24147898757059
 21
82.999999999966974
 31
0.0
 12
-131.74147898757059
 22
79.999999999966988
 32
0.0
 13
-131.74147898757059
 23
79.999999999966988
 33
0.0
  0
INSERT
  5
18C9
  8
0
  2
*U21
 10
0.0
 20
0.0
 30
0.0
  0
POINT
  5
18CA
  8
DEFPOINTS
 62
     0
 10
-89.249999928474367
 20
139.99999999996689
 30
0.0
  0
POINT
  5
18CB
  8
DEFPOINTS
 62
     0
 10
-87.249999928490737
 20
79.999999999966974
 30
0.0
  0
POINT
  5
18CC
  8
DEFPOINTS
 62
     0
 10
-131.74147898757059
 20
79.999999999966988
 30
0.0
  0
ENDBLK
  5
18BA
  8
0
  0
BLOCK
  8
0
  2
*X19
 70
     1
 10
0.0
 20
0.0
 30
0.0
  3
*X19
  1

  0
LINE
  5
1982
  8
0
 62
     0
 10
156.75000007151169
 20
139.79095488711579
 30
0.0
 11
156.58595721819231
 21
139.9549977404352
 31
0.0
  0
LINE
  5
1983
  8
0
 62
     0
 10
156.75000007151169
 20
138.6684228719821
 30
0.0
 11
155.68841317915269
 21
139.7300097643411
 31
0.0
  0
LINE
  5
1984
  8
0
 62
     0
 10
156.75000007151169
 20
137.5458908568485
 30
0.0
 11
154.7613192801858
 21
139.53457164817439
 31
0.0
  0
LINE
  5
1985
  8
0
 62
     0
 10
156.75000007151169
 20
136.4233588417149
 30
0.0
 11
153.80237159059911
 21
139.37098732262751
 31
0.0
  0
LINE
  5
1986
  8
0
 62
     0
 10
156.75000007151169
 20
135.30082682658119
 30
0.0
 11
152.80878479857341
 21
139.24204209951949
 31
0.0
  0
LINE
  5
1987
  8
0
 62
     0
 10
156.75000007151169
 20
134.17829481144761
 30
0.0
 11
151.7771487365064
 21
139.1511461464529
 31
0.0
  0
LINE
  5
1988
  8
0
 62
     0
 10
156.75000007151169
 20
133.0557627963139
 30
0.0
 11
150.7032229471497
 21
139.10253992067589
 31
0.0
  0
LINE
  5
1989
  8
0
 62
     0
 10
156.75000007151169
 20
131.93323078118021
 30
0.0
 11
149.58163305974711
 21
139.10159779294489
 31
0.0
  0
LINE
  5
198A
  8
0
 62
     0
 10
156.75000007151169
 20
130.81069876604661
 30
0.0
 11
148.40540457829201
 21
139.1552942592663
 31
0.0
  0
LINE
  5
198B
  8
0
 62
     0
 10
153.5160867096524
 20
132.92208011277231
 30
0.0
 11
147.1652127030751
 21
139.27295411934949
 31
0.0
  0
LINE
  5
198C
  8
0
 62
     0
 10
156.75000007151169
 20
129.68816675091301
 30
0.0
 11
156.18999021341349
 21
130.2481766090111
 31
0.0
  0
LINE
  5
198D
  8
0
 62
     0
 10
152.0407395721675
 20
133.27489523512361
 30
0.0
 11
146.69452205764321
 21
138.62111274964781
 31
0.0
  0
LINE
  5
198E
  8
0
 62
     0
 10
156.75000007151169
 20
128.5656347357793
 30
0.0
 11
156.673636229778
 21
128.64199857751299
 31
0.0
  0
LINE
  5
198F
  8
0
 62
     0
 10
150.97638586211909
 20
133.2167169300383
 30
0.0
 11
146.75000007151169
 21
137.4431027206457
 31
0.0
  0
LINE
  5
1990
  8
0
 62
     0
 10
150.10075455452289
 20
132.9698162225009
 30
0.0
 11
146.75000007151169
 21
136.32057070551201
 31
0.0
  0
LINE
  5
1991
  8
0
 62
     0
 10
149.35217587509271
 20
132.59586288679739
 30
0.0
 11
146.75000007151169
 21
135.19803869037841
 31
0.0
  0
LINE
  5
1992
  8
0
 62
     0
 10
148.70430376862251
 20
132.12120297813391
 30
0.0
 11
146.75000007151169
 21
134.0755066752447
 31
0.0
  0
LINE
  5
1993
  8
0
 62
     0
 10
148.1448148604108
 20
131.55815987121201
 30
0.0
 11
146.75000007151169
 21
132.9529746601111
 31
0.0
  0
LINE
  5
1994
  8
0
 62
     0
 10
147.66916178373771
 20
130.9112809327514
 30
0.0
 11
146.75000007151169
 21
131.83044264497741
 31
0.0
  0
LINE
  5
1995
  8
0
 62
     0
 10
147.27875239819309
 20
130.17915830316241
 30
0.0
 11
146.75000007151169
 21
130.70791062984381
 31
0.0
  0
LINE
  5
1996
  8
0
 62
     0
 10
146.98148761194051
 20
129.35389107428139
 30
0.0
 11
146.75000007151169
 21
129.58537861471021
 31
0.0
  0
LINE
  5
1997
  8
0
 62
     0
 10
146.79522048547221
 20
128.417626185616
 30
0.0
 11
146.75000007151169
 21
128.46284659957649
 31
0.0
  0
LINE
  5
1998
  8
0
 62
     0
 10
156.7427991217817
 20
127.9649176159822
 30
0.0
 11
156.75000007151169
 21
127.97211856571219
 31
0.0
  0
LINE
  5
1999
  8
0
 62
     0
 10
156.61518592238571
 20
128.95983643171979
 30
0.0
 11
156.75000007151169
 21
129.09465058084581
 31
0.0
  0
LINE
  5
199A
  8
0
 62
     0
 10
156.36341586147839
 20
129.8305983859461
 30
0.0
 11
156.75000007151169
 21
130.21718259597949
 31
0.0
  0
LINE
  5
199B
  8
0
 62
     0
 10
156.0122932044691
 20
130.60200774407051
 30
0.0
 11
156.75000007151169
 21
131.3397146111131
 31
0.0
  0
LINE
  5
199C
  8
0
 62
     0
 10
155.57338671912149
 20
131.2856332738566
 30
0.0
 11
156.75000007151169
 21
132.46224662624681
 31
0.0
  0
LINE
  5
199D
  8
0
 62
     0
 10
155.05074318506641
 20
131.8855217549351
 30
0.0
 11
156.75000007151169
 21
133.58477864138041
 31
0.0
  0
LINE
  5
199E
  8
0
 62
     0
 10
154.4424910395733
 20
132.39980162457559
 30
0.0
 11
156.75000007151169
 21
134.70731065651401
 31
0.0
  0
LINE
  5
199F
  8
0
 62
     0
 10
153.7401225276268
 20
132.81996512776271
 30
0.0
 11
156.75000007151169
 21
135.8298426716477
 31
0.0
  0
LINE
  5
19A0
  8
0
 62
     0
 10
152.92469802044781
 20
133.12707263571741
 30
0.0
 11
156.75000007151169
 21
136.9523746867813
 31
0.0
  0
LINE
  5
19A1
  8
0
 62
     0
 10
151.95478306915749
 20
133.27968969956069
 30
0.0
 11
156.75000007151169
 21
138.07490670191501
 31
0.0
  0
LINE
  5
19A2
  8
0
 62
     0
 10
146.75000007151169
 20
128.07490670191501
 30
0.0
 11
146.76437518929299
 21
128.08928181969631
 31
0.0
  0
LINE
  5
19A3
  8
0
 62
     0
 10
150.71528958385929
 20
133.16272822939621
 30
0.0
 11
156.75000007151169
 21
139.19743871704861
 31
0.0
  0
LINE
  5
19A4
  8
0
 62
     0
 10
146.75000007151169
 20
129.19743871704861
 30
0.0
 11
147.0121675534707
 21
129.4596061990076
 31
0.0
  0
LINE
  5
19A5
  8
0
 62
     0
 10
146.75000007151169
 20
130.3199707321823
 30
0.0
 11
156.31276098090521
 21
139.88273164157579
 31
0.0
  0
LINE
  5
19A6
  8
0
 62
     0
 10
146.75000007151169
 20
131.4425027473159
 30
0.0
 11
154.86138375029219
 21
139.55388642609631
 31
0.0
  0
LINE
  5
19A7
  8
0
 62
     0
 10
146.75000007151169
 20
132.5650347624495
 30
0.0
 11
153.51435958598071
 21
139.32939427691849
 31
0.0
  0
LINE
  5
19A8
  8
0
 62
     0
 10
146.75000007151169
 20
133.68756677758321
 30
0.0
 11
152.249825574819
 21
139.18739228089049
 31
0.0
  0
LINE
  5
19A9
  8
0
 62
     0
 10
146.75000007151169
 20
134.8100987927169
 30
0.0
 11
151.0531449209727
 21
139.11324364217779
 31
0.0
  0
LINE
  5
19AA
  8
0
 62
     0
 10
146.75000007151169
 20
135.9326308078505
 30
0.0
 11
149.9139455534366
 21
139.09657628977541
 31
0.0
  0
LINE
  5
19AB
  8
0
 62
     0
 10
146.75000007151169
 20
137.0551628229841
 30
0.0
 11
148.82456122789301
 21
139.12972397936539
 31
0.0
  0
LINE
  5
19AC
  8
0
 62
     0
 10
146.75000007151169
 20
138.17769483811779
 30
0.0
 11
147.7791391871508
 21
139.2068339537569
 31
0.0
  0
LINE
  5
19AD
  8
0
 62
     0
 10
146.46874156339061
 20
139.0189683451303
 30
0.0
 11
146.7730956759959
 21
139.3233224577356
 31
0.0
  0
ENDBLK
  5
19AF
  8
0
  0
BLOCK
  8
0
  2
*X20
 70
     1
 10
0.0
 20
0.0
 30
0.0
  3
*X20
  1

  0
LINE
  5
19B1
  8
0
 62
     0
 10
156.1812285220671
 20
126.74373365256039
 30
0.0
 11
156.57810352206701
 21
127.4311413168143
 31
0.0
  0
LINE
  5
19B2
  8
0
 62
     0
 10
154.99060352206709
 20
124.6815106597987
 30
0.0
 11
155.38747852206711
 21
125.3689183240526
 31
0.0
  0
LINE
  5
19B3
  8
0
 62
     0
 10
153.79997852206711
 20
122.619287667037
 30
0.0
 11
154.1968535220671
 21
123.3066953312909
 31
0.0
  0
LINE
  5
19B4
  8
0
 62
     0
 10
156.1812288065631
 20
129.49336414532209
 30
0.0
 11
156.36830681791841
 21
129.81739276596829
 31
0.0
  0
LINE
  5
19B5
  8
0
 62
     0
 10
154.99060380656309
 20
127.4311411525604
 30
0.0
 11
155.38747880656311
 21
128.1185488168143
 31
0.0
  0
LINE
  5
19B6
  8
0
 62
     0
 10
153.79997880656319
 20
125.3689181597987
 30
0.0
 11
154.19685380656321
 21
126.05632582405261
 31
0.0
  0
LINE
  5
19B7
  8
0
 62
     0
 10
152.60935380656321
 20
123.30669516703701
 30
0.0
 11
153.0062288065632
 21
123.9941028312909
 31
0.0
  0
LINE
  5
19B8
  8
0
 62
     0
 10
154.9906040910592
 20
130.1807716453221
 30
0.0
 11
155.38747909105919
 21
130.86817930957599
 31
0.0
  0
LINE
  5
19B9
  8
0
 62
     0
 10
153.79997909105921
 20
128.11854865256041
 30
0.0
 11
154.19685409105921
 21
128.8059563168143
 31
0.0
  0
LINE
  5
19BA
  8
0
 62
     0
 10
152.6093540910592
 20
126.0563256597987
 30
0.0
 11
153.0062290910592
 21
126.7437333240526
 31
0.0
  0
LINE
  5
19BB
  8
0
 62
     0
 10
151.4187290910593
 20
123.994102667037
 30
0.0
 11
151.81560409105921
 21
124.68151033129089
 31
0.0
  0
LINE
  5
19BC
  8
0
 62
     0
 10
150.41048081648819
 20
122.2477654288363
 30
0.0
 11
150.62497909105929
 21
122.6192873385292
 31
0.0
  0
LINE
  5
19BD
  8
0
 62
     0
 10
153.7999793755553
 20
130.86817914532199
 30
0.0
 11
154.19685437555529
 21
131.55558680957591
 31
0.0
  0
LINE
  5
19BE
  8
0
 62
     0
 10
152.60935437555531
 20
128.80595615256041
 30
0.0
 11
153.00622937555531
 21
129.49336381681431
 31
0.0
  0
LINE
  5
19BF
  8
0
 62
     0
 10
151.4187293755553
 20
126.74373315979869
 30
0.0
 11
151.8156043755553
 21
127.4311408240526
 31
0.0
  0
LINE
  5
19C0
  8
0
 62
     0
 10
150.2281043755554
 20
124.681510167037
 30
0.0
 11
150.62497937555531
 21
125.3689178312909
 31
0.0
  0
LINE
  5
19C1
  8
0
 62
     0
 10
149.1698321404424
 20
122.84852888758191
 30
0.0
 11
149.43435437555539
 21
123.3066948385292
 31
0.0
  0
LINE
  5
19C2
  8
0
 62
     0
 10
152.60935466005139
 20
131.55558664532211
 30
0.0
 11
153.00622966005139
 21
132.24299430957601
 31
0.0
  0
LINE
  5
19C3
  8
0
 62
     0
 10
151.41872966005141
 20
129.49336365256039
 30
0.0
 11
151.81560466005141
 21
130.18077131681429
 31
0.0
  0
LINE
  5
19C4
  8
0
 62
     0
 10
150.2281046600514
 20
127.4311406597987
 30
0.0
 11
150.62497966005139
 21
128.1185483240526
 31
0.0
  0
LINE
  5
19C5
  8
0
 62
     0
 10
149.03747966005139
 20
125.368917667037
 30
0.0
 11
149.4343546600515
 21
126.05632533129091
 31
0.0
  0
LINE
  5
19C6
  8
0
 62
     0
 10
148.126164787329
 20
123.7904740057885
 30
0.0
 11
148.2437296600514
 21
123.9941023385292
 31
0.0
  0
LINE
  5
19C7
  8
0
 62
     0
 10
151.41872994454749
 20
132.24299414532209
 30
0.0
 11
151.81560494454749
 21
132.93040180957601
 31
0.0
  0
LINE
  5
19C8
  8
0
 62
     0
 10
150.22810494454751
 20
130.1807711525604
 30
0.0
 11
150.6249799445475
 21
130.86817881681429
 31
0.0
  0
LINE
  5
19C9
  8
0
 62
     0
 10
149.0374799445475
 20
128.11854815979871
 30
0.0
 11
149.43435494454749
 21
128.8059558240526
 31
0.0
  0
LINE
  5
19CA
  8
0
 62
     0
 10
147.84685494454749
 20
126.056325167037
 30
0.0
 11
148.24372994454751
 21
126.7437328312909
 31
0.0
  0
LINE
  5
19CB
  8
0
 62
     0
 10
150.22810522904359
 20
132.93040164532201
 30
0.0
 11
150.29131353469199
 21
133.0398816421654
 31
0.0
  0
LINE
  5
19CC
  8
0
 62
     0
 10
149.03748022904361
 20
130.86817865256029
 30
0.0
 11
149.4343552290436
 21
131.55558631681421
 31
0.0
  0
LINE
  5
19CD
  8
0
 62
     0
 10
147.8468552290436
 20
128.80595565979871
 30
0.0
 11
148.24373022904359
 21
129.49336332405261
 31
0.0
  0
LINE
  5
19CE
  8
0
 62
     0
 10
146.78797150801819
 20
126.971915255675
 30
0.0
 11
147.05310522904361
 21
127.43114033129091
 31
0.0
  0
LINE
  5
19CF
  8
0
 62
     0
 10
154.1968435647039
 20
131.55555658685881
 30
0.0
 11
153.7999685647039
 21
132.24296425111271
 31
0.0
  0
LINE
  5
19D0
  8
0
 62
     0
 10
155.38746856470391
 20
129.49333359409709
 30
0.0
 11
154.99059356470389
 21
130.18074125835099
 31
0.0
  0
LINE
  5
19D1
  8
0
 62
     0
 10
156.57809356470381
 20
127.4311106013354
 30
0.0
 11
156.1812185647039
 21
128.1185182655893
 31
0.0
  0
LINE
  5
19D2
  8
0
 62
     0
 10
151.8155938491999
 20
132.93037207962041
 30
0.0
 11
151.6124209475567
 21
133.2822778679878
 31
0.0
  0
LINE
  5
19D3
  8
0
 62
     0
 10
153.00621884919991
 20
130.86814908685869
 30
0.0
 11
152.60934384919989
 21
131.5555567511127
 31
0.0
  0
LINE
  5
19D4
  8
0
 62
     0
 10
154.19684384919989
 20
128.80592609409709
 30
0.0
 11
153.7999688491999
 21
129.49333375835101
 31
0.0
  0
LINE
  5
19D5
  8
0
 62
     0
 10
155.38746884919991
 20
126.7437031013354
 30
0.0
 11
154.99059384919991
 21
127.4311107655893
 31
0.0
  0
LINE
  5
19D6
  8
0
 62
     0
 10
156.2589947621025
 20
125.2341759400753
 30
0.0
 11
156.18121884919989
 21
125.36888777282761
 31
0.0
  0
LINE
  5
19D7
  8
0
 62
     0
 10
150.62496913369611
 20
132.24296457962049
 30
0.0
 11
150.22809413369609
 21
132.93037224387439
 31
0.0
  0
LINE
  5
19D8
  8
0
 62
     0
 10
151.8155941336961
 20
130.1807415868588
 30
0.0
 11
151.4187191336961
 21
130.8681492511127
 31
0.0
  0
LINE
  5
19D9
  8
0
 62
     0
 10
153.00621913369599
 20
128.11851859409711
 30
0.0
 11
152.60934413369611
 21
128.80592625835101
 31
0.0
  0
LINE
  5
19DA
  8
0
 62
     0
 10
154.196844133696
 20
126.05629560133541
 30
0.0
 11
153.79996913369601
 21
126.7437032655893
 31
0.0
  0
LINE
  5
19DB
  8
0
 62
     0
 10
155.38746913369599
 20
123.9940726085737
 30
0.0
 11
154.99059413369599
 21
124.6814802728276
 31
0.0
  0
LINE
  5
19DC
  8
0
 62
     0
 10
149.43434441819221
 20
131.5555570796204
 30
0.0
 11
149.03746941819219
 21
132.24296474387441
 31
0.0
  0
LINE
  5
19DD
  8
0
 62
     0
 10
150.62496941819219
 20
129.49333408685879
 30
0.0
 11
150.2280944181922
 21
130.18074175111269
 31
0.0
  0
LINE
  5
19DE
  8
0
 62
     0
 10
151.81559441819221
 20
127.4311110940971
 30
0.0
 11
151.41871941819221
 21
128.118518758351
 31
0.0
  0
LINE
  5
19DF
  8
0
 62
     0
 10
153.0062194181921
 20
125.3688881013354
 30
0.0
 11
152.60934441819211
 21
126.0562957655893
 31
0.0
  0
LINE
  5
19E0
  8
0
 62
     0
 10
154.19684441819209
 20
123.3066651085737
 30
0.0
 11
153.79996941819209
 21
123.99407277282759
 31
0.0
  0
LINE
  5
19E1
  8
0
 62
     0
 10
148.2437197026882
 20
130.86814957962039
 30
0.0
 11
147.96983920500779
 21
131.3425245168053
 31
0.0
  0
LINE
  5
19E2
  8
0
 62
     0
 10
149.43434470268821
 20
128.80592658685879
 30
0.0
 11
149.03746970268821
 21
129.49333425111271
 31
0.0
  0
LINE
  5
19E3
  8
0
 62
     0
 10
150.62496970268819
 20
126.7437035940971
 30
0.0
 11
150.2280947026882
 21
127.431111258351
 31
0.0
  0
LINE
  5
19E4
  8
0
 62
     0
 10
151.8155947026882
 20
124.68148060133539
 30
0.0
 11
151.41871970268821
 21
125.36888826558931
 31
0.0
  0
LINE
  5
19E5
  8
0
 62
     0
 10
153.00621970268821
 20
122.6192576085737
 30
0.0
 11
152.60934470268819
 21
123.3066652728276
 31
0.0
  0
LINE
  5
19E6
  8
0
 62
     0
 10
148.24371998718431
 20
128.11851908685881
 30
0.0
 11
147.84684498718431
 21
128.80592675111271
 31
0.0
  0
LINE
  5
19E7
  8
0
 62
     0
 10
149.43434498718429
 20
126.05629609409711
 30
0.0
 11
149.03746998718429
 21
126.743703758351
 31
0.0
  0
LINE
  5
19E8
  8
0
 62
     0
 10
150.6249699871843
 20
123.9940731013354
 30
0.0
 11
150.22809498718431
 21
124.6814807655893
 31
0.0
  0
LINE
  5
19E9
  8
0
 62
     0
 10
151.75183149104481
 20
122.04229172355549
 30
0.0
 11
151.41871998718429
 21
122.61925777282759
 31
0.0
  0
LINE
  5
19EA
  8
0
 62
     0
 10
147.05309527168041
 20
127.4311115868588
 30
0.0
 11
146.75628934162339
 21
127.94519453770521
 31
0.0
  0
LINE
  5
19EB
  8
0
 62
     0
 10
148.24372027168039
 20
125.3688885940971
 30
0.0
 11
147.84684527168039
 21
126.056296258351
 31
0.0
  0
LINE
  5
19EC
  8
0
 62
     0
 10
149.4343452716804
 20
123.3066656013354
 30
0.0
 11
149.03747027168041
 21
123.99407326558929
 31
0.0
  0
LINE
  5
19ED
  8
0
 62
     0
 10
153.00625014377059
 20
122.6192649999991
 30
0.0
 11
153.8000001437706
 21
122.6192649999991
 31
0.0
  0
LINE
  5
19EE
  8
0
 62
     0
 10
150.62500014377059
 20
122.6192649999991
 30
0.0
 11
151.41875014377061
 21
122.6192649999991
 31
0.0
  0
LINE
  5
19EF
  8
0
 62
     0
 10
155.38750014377061
 20
123.9940799999991
 30
0.0
 11
155.5377723255146
 21
123.9940799999991
 31
0.0
  0
LINE
  5
19F0
  8
0
 62
     0
 10
153.00625014377059
 20
123.9940799999991
 30
0.0
 11
153.8000001437706
 21
123.9940799999991
 31
0.0
  0
LINE
  5
19F1
  8
0
 62
     0
 10
150.62500014377059
 20
123.9940799999991
 30
0.0
 11
151.41875014377061
 21
123.9940799999991
 31
0.0
  0
LINE
  5
19F2
  8
0
 62
     0
 10
148.2437501437706
 20
123.9940799999991
 30
0.0
 11
149.03750014377059
 21
123.9940799999991
 31
0.0
  0
LINE
  5
19F3
  8
0
 62
     0
 10
155.38750014377061
 20
125.3688949999991
 30
0.0
 11
156.1812501437706
 21
125.3688949999991
 31
0.0
  0
LINE
  5
19F4
  8
0
 62
     0
 10
153.00625014377059
 20
125.3688949999991
 30
0.0
 11
153.8000001437706
 21
125.3688949999991
 31
0.0
  0
LINE
  5
19F5
  8
0
 62
     0
 10
150.62500014377059
 20
125.3688949999991
 30
0.0
 11
151.41875014377061
 21
125.3688949999991
 31
0.0
  0
LINE
  5
19F6
  8
0
 62
     0
 10
148.2437501437706
 20
125.3688949999991
 30
0.0
 11
149.03750014377059
 21
125.3688949999991
 31
0.0
  0
LINE
  5
19F7
  8
0
 62
     0
 10
155.38750014377061
 20
126.7437099999991
 30
0.0
 11
156.1812501437706
 21
126.7437099999991
 31
0.0
  0
LINE
  5
19F8
  8
0
 62
     0
 10
153.00625014377059
 20
126.7437099999991
 30
0.0
 11
153.8000001437706
 21
126.7437099999991
 31
0.0
  0
LINE
  5
19F9
  8
0
 62
     0
 10
150.62500014377059
 20
126.7437099999991
 30
0.0
 11
151.41875014377061
 21
126.7437099999991
 31
0.0
  0
LINE
  5
19FA
  8
0
 62
     0
 10
148.2437501437706
 20
126.7437099999991
 30
0.0
 11
149.03750014377059
 21
126.7437099999991
 31
0.0
  0
LINE
  5
19FB
  8
0
 62
     0
 10
155.38750014377061
 20
128.1185249999991
 30
0.0
 11
156.1812501437706
 21
128.1185249999991
 31
0.0
  0
LINE
  5
19FC
  8
0
 62
     0
 10
153.00625014377059
 20
128.1185249999991
 30
0.0
 11
153.8000001437706
 21
128.1185249999991
 31
0.0
  0
LINE
  5
19FD
  8
0
 62
     0
 10
150.62500014377059
 20
128.1185249999991
 30
0.0
 11
151.41875014377061
 21
128.1185249999991
 31
0.0
  0
LINE
  5
19FE
  8
0
 62
     0
 10
148.2437501437706
 20
128.1185249999991
 30
0.0
 11
149.03750014377059
 21
128.1185249999991
 31
0.0
  0
LINE
  5
19FF
  8
0
 62
     0
 10
155.38750014377061
 20
129.49333999999911
 30
0.0
 11
156.1812501437706
 21
129.49333999999911
 31
0.0
  0
LINE
  5
1A00
  8
0
 62
     0
 10
153.00625014377059
 20
129.49333999999911
 30
0.0
 11
153.8000001437706
 21
129.49333999999911
 31
0.0
  0
LINE
  5
1A01
  8
0
 62
     0
 10
150.62500014377059
 20
129.49333999999911
 30
0.0
 11
151.41875014377061
 21
129.49333999999911
 31
0.0
  0
LINE
  5
1A02
  8
0
 62
     0
 10
148.2437501437706
 20
129.49333999999911
 30
0.0
 11
149.03750014377059
 21
129.49333999999911
 31
0.0
  0
LINE
  5
1A03
  8
0
 62
     0
 10
155.38750014377061
 20
130.86815499999909
 30
0.0
 11
155.8577276088395
 21
130.86815499999909
 31
0.0
  0
LINE
  5
1A04
  8
0
 62
     0
 10
153.00625014377059
 20
130.86815499999909
 30
0.0
 11
153.8000001437706
 21
130.86815499999909
 31
0.0
  0
LINE
  5
1A05
  8
0
 62
     0
 10
150.62500014377059
 20
130.86815499999909
 30
0.0
 11
151.41875014377061
 21
130.86815499999909
 31
0.0
  0
LINE
  5
1A06
  8
0
 62
     0
 10
148.2437501437706
 20
130.86815499999909
 30
0.0
 11
149.03750014377059
 21
130.86815499999909
 31
0.0
  0
LINE
  5
1A07
  8
0
 62
     0
 10
153.00625014377059
 20
132.2429699999991
 30
0.0
 11
153.8000001437706
 21
132.2429699999991
 31
0.0
  0
LINE
  5
1A08
  8
0
 62
     0
 10
150.62500014377059
 20
132.2429699999991
 30
0.0
 11
151.41875014377061
 21
132.2429699999991
 31
0.0
  0
LINE
  5
1A09
  8
0
 62
     0
 10
148.85076889117059
 20
132.2429699999991
 30
0.0
 11
149.03750014377059
 21
132.2429699999991
 31
0.0
  0
ENDBLK
  5
1A0B
  8
0
  0
BLOCK
  8
0
  2
*U21
 70
     1
 10
0.0
 20
0.0
 30
0.0
  3
*U21
  1

  0
TEXT
  5
1A67
  8
SAPA_MATT
 62
     2
 10
-132.74147898757059
 20
107.89999999996699
 30
0.0
 40
3.0
  1
60
 50
90.0
  7
ISO
  0
ENDBLK
  5
1A69
  8
0
  0
BLOCK
  8
0
  2
*U22
 70
     1
 10
0.0
 20
0.0
 30
0.0
  3
*U22
  1

  0
TEXT
  5
1A6B
  8
SAPA_MATT
 62
     2
 10
-49.349999928486
 20
182.00000001190261
 30
0.0
 40
3.0
  1
88
  7
ISO
  0
ENDBLK
  5
1A6D
  8
0
  0
BLOCK
  8
0
  2
*U23
 70
     1
 10
0.0
 20
0.0
 30
0.0
  3
*U23
  1

  0
TEXT
  5
1A6F
  8
SAPA_MATT
 62
     2
 10
141.70000007134621
 20
182.0000000000002
 30
0.0
 40
3.0
  1
8
  7
ISO
  0
ENDBLK
  5
1A71
  8
0
  0
BLOCK
  8
0
  2
*U24
 70
     1
 10
0.0
 20
0.0
 30
0.0
  3
*U24
  1

  0
TEXT
  5
1A73
  8
SAPA_MATT
 62
     2
 10
68.900000071512892
 20
194.0000000000002
 30
0.0
 40
3.0
  1
150
  7
ISO
  0
ENDBLK
  5
1A75
  8
0
  0
BLOCK
  8
0
  2
*U25
 70
     1
 10
0.0
 20
0.0
 30
0.0
  3
*U25
  1

  0
TEXT
  5
1A77
  8
SAPA_MATT
 62
     2
 10
170.7500001430266
 20
78.950000000000472
 30
0.0
 40
3.0
  1
117
 50
90.0
  7
ISO
  0
ENDBLK
  5
1A79
  8
0
  0
BLOCK
  8
0
  2
*U26
 70
     1
 10
0.0
 20
0.0
 30
0.0
  3
*U26
  1

  0
TEXT
  5
1A7B
  8
SAPA_MATT
 62
     2
 10
182.7477274157539
 20
62.950000000000237
 30
0.0
 40
3.0
  1
min. 130
 50
90.0
  7
ISO
  0
ENDBLK
  5
1A7D
  8
0
  0
ENDSEC
  0
SECTION
  2
ENTITIES
  0
POLYLINE
  5
FCE
  8
SAPA_ANSLUTNING
 66
     1
 10
0.0
 20
0.0
 30
0.0
  0
VERTEX
  5
196E
  8
SAPA_ANSLUTNING
 10
141.5647173126371
 20
79.681257931111759
 30
0.0
 42
0.3440718810694783
  0
VERTEX
  5
196F
  8
SAPA_ANSLUTNING
 10
134.75000014311439
 20
70.950591349984052
 30
0.0
  0
VERTEX
  5
1970
  8
SAPA_ANSLUTNING
 10
134.75000014311439
 20
14.0
 30
0.0
 42
-0.9999999999999998
  0
VERTEX
  5
1971
  8
SAPA_ANSLUTNING
 10
116.75000014311441
 20
14.0
 30
0.0
  0
VERTEX
  5
1972
  8
SAPA_ANSLUTNING
 10
116.75000014311441
 20
70.950591349984052
 30
0.0
 42
0.9999999999999998
  0
VERTEX
  5
1973
  8
SAPA_ANSLUTNING
 10
98.750000143114463
 20
70.950591349984052
 30
0.0
  0
VERTEX
  5
1974
  8
SAPA_ANSLUTNING
 10
98.750000143114463
 20
14.0
 30
0.0
 42
-0.9999999999999998
  0
VERTEX
  5
1975
  8
SAPA_ANSLUTNING
 10
80.750000143114448
 20
14.0
 30
0.0
  0
VERTEX
  5
1976
  8
SAPA_ANSLUTNING
 10
80.750000143114448
 20
74.150036032519893
 30
0.0
 42
0.9999999999999998
  0
VERTEX
  5
1977
  8
SAPA_ANSLUTNING
 10
62.750000143114441
 20
74.150036032519893
 30
0.0
  0
VERTEX
  5
1978
  8
SAPA_ANSLUTNING
 10
62.750000143114441
 20
14.0
 30
0.0
 42
-0.9999999999999998
  0
VERTEX
  5
1979
  8
SAPA_ANSLUTNING
 10
44.750000143114448
 20
14.0
 30
0.0
  0
VERTEX
  5
197A
  8
SAPA_ANSLUTNING
 10
44.750000143114448
 20
70.950591349984052
 30
0.0
 42
0.9999999999999998
  0
VERTEX
  5
197B
  8
SAPA_ANSLUTNING
 10
26.750000143114448
 20
70.950591349984052
 30
0.0
  0
VERTEX
  5
197C
  8
SAPA_ANSLUTNING
 10
26.750000143114448
 20
14.0
 30
0.0
 42
-0.9999999999999998
  0
VERTEX
  5
197D
  8
SAPA_ANSLUTNING
 10
8.7500001431144483
 20
14.0
 30
0.0
  0
VERTEX
  5
197E
  8
SAPA_ANSLUTNING
 10
8.7500001431144483
 20
70.950591349984052
 30
0.0
 42
0.3440718839558106
  0
VERTEX
  5
197F
  8
SAPA_ANSLUTNING
 10
1.9352828834635141
 20
79.681257953670865
 30
0.0
  0
SEQEND
  5
1980
  8
SAPA_ANSLUTNING
  0
INSERT
  5
FD2
  8
SAPA_ANSLUTNING
  6
CONTINUOUS
  2
*X19
 10
0.0
 20
0.0
 30
0.0
1001
ACAD
1000
HATCH
1002
{
1070
    19
1000
ANSI37
1040
0.25
1040
0.0
1000
R14_HATCH_DATA
1000
FD2
1011
1.0
1021
0.0
1031
0.0
1021
0.0
1031
0.0
1011
0.0
1021
0.0
1031
0.0
1021
1.0
1031
0.0
1011
0.0
1021
0.0
1031
0.0
1021
0.0
1031
1.0
1040
0.0
1010
0.0
1020
0.0
1030
1.0
1000
ANSI37
1070
     0
1070
     0
1071
        1
1071
        1
1071
        6
1070
     3
1040
151.75000007151169
1040
127.66334876330821
1040
0.0
1040
-5.6210574168242138
1040
0.8895123513655372
1040
1.5707963267948959
1040
2.144309431218002
1070
     0
1070
     3
1040
151.75000007151169
1040
127.66334876330821
1040
0.0
1040
-5.6210574168242138
1040
0.8895123513655372
1040
2.144309431218002
1040
4.7123889803846888
1070
     0
1070
     1
1040
156.75000007151169
1040
127.6633487633089
1040
156.75000007151169
1040
139.99999999998431
1070
     2
1040
150.1216480836469
1040
163.8402727574078
1040
24.744568196341159
1040
1.2996137424103009
1040
1.731417526414984
1070
     0
1070
     2
1040
143.62157892955111
1040
137.14022955549439
1040
3.4111573553875849
1040
5.5535051997728768
1040
5.8731689080954093
1070
     0
1070
     1
1040
146.75000007151169
1040
138.49999999999909
1040
146.75000007151169
1040
127.66334876330841
1071
        0
1070
     0
1070
     1
1040
0.0
1040
0.25
1070
     0
1070
     2
1040
0.7853981633974483
1040
7.7500001437706478
1040
79.999999999999091
1040
-0.5612660075668221
1040
0.5612660075668221
1070
     0
1040
2.3561944901923439
1040
7.7500001437706478
1040
79.999999999999091
1040
-0.5612660075668221
1040
-0.5612660075668221
1070
     0
1071
        1
1040
150.74867649076029
1040
136.42036471292499
1040
0.0
1002
}
  0
LINE
  5
FD3
  8
SAPA_ANSLUTNING
 10
-91.249999928486005
 20
0.0
 30
0.0
 11
156.75000007151041
 21
0.0
 31
0.0
  0
LINE
  5
FD4
  8
SAPA_ANSLUTNING
 10
156.75000007151169
 20
139.99999999998411
 30
0.0
 11
201.7532560781701
 21
139.99999999998411
 31
0.0
  0
LINE
  5
FD5
  8
SAPA_ANSLUTNING
 10
201.7532560781701
 20
110.9999999999841
 30
0.0
 11
156.75000007151169
 21
110.9999999999841
 31
0.0
  0
LINE
  5
FD6
  8
SAPA_ANSLUTNING
 10
156.75000007151129
 20
0.0
 30
0.0
 11
156.75000007151169
 21
139.99999999998411
 31
0.0
  0
ARC
  5
FD7
  8
SAPA_ANSLUTNING
 10
150.12164808364599
 20
163.84027275741639
 30
0.0
 40
24.74456819634975
 50
260.79708316146269
 51
285.53761756269699
  0
INSERT
  5
FD8
  8
SAPA_ANSLUTNING
  6
CONTINUOUS
  2
*X20
 10
0.0
 20
0.0
 30
0.0
1001
ACAD
1000
HATCH
1002
{
1070
    19
1000
HEX
1040
0.25
1040
0.0
1000
ASC_BOUNDS
1070
     1
1070
     1
1070
     1
1005
FD9
1000
ASC_SEEDPOINT
1011
151.99211008158639
1021
0.0
1031
0.0
1021
127.78168645236489
1031
0.0
1000
R14_HATCH_DATA
1000
FD8
1011
1.0
1021
0.0
1031
0.0
1021
0.0
1031
0.0
1011
0.0
1021
0.0
1031
0.0
1021
1.0
1031
0.0
1011
0.0
1021
0.0
1031
0.0
1021
0.0
1031
1.0
1040
0.0
1010
0.0
1020
0.0
1030
1.0
1000
HEX
1070
     0
1070
     1
1071
        1
1071
        5
1071
        1
1070
     3
1040
151.75000007151169
1040
127.66334876330821
1040
0.0
1040
-5.6210574168242138
1040
0.8895123513655372
1040
0.0
1040
6.2831853071795862
1070
     1
1071
        1
1005
FD9
1070
     0
1070
     1
1040
0.0
1040
0.25
1070
     0
1070
     3
1040
0.0
1040
7.7500001437706478
1040
79.999999999999091
1040
0.0
1040
1.374814999999999
1070
     2
1040
0.79375
1040
-1.587499999999999
1040
2.0943951023931948
1040
7.7500001437706478
1040
79.999999999999091
1040
-1.190624715503902
1040
-0.6874074999999996
1070
     2
1040
0.7937499999999976
1040
-1.587499999999995
1040
1.047197551196597
1040
8.5437501437704668
1040
79.999999999999091
1040
-1.190624715503902
1040
0.6874075000000001
1070
     2
1040
0.79375
1040
-1.587499999999999
1040
0.0591690278051155
1071
        1
1040
151.99211008158639
1040
127.78168645236489
1040
0.0
1002
}
  0
POLYLINE
  5
FD9
  8
SAPA_ANSLUTNING
 10
151.75000007151169
 20
122.04229134648399
 30
0.0
 66
     1
 70
     8
  0
VERTEX
  8
SAPA_ANSLUTNING
  5
1A81
 10
151.750
 20
122.042
 30
0.000000
  70
    32
  0
VERTEX
  8
SAPA_ANSLUTNING
  5
1A82
 10
151.995
 20
122.049
 30
0.000000
  70
    32
  0
VERTEX
  8
SAPA_ANSLUTNING
  5
1A83
 10
152.240
 20
122.069
 30
0.000000
  70
    32
  0
VERTEX
  8
SAPA_ANSLUTNING
  5
1A84
 10
152.484
 20
122.103
 30
0.000000
  70
    32
  0
VERTEX
  8
SAPA_ANSLUTNING
  5
1A85
 10
152.725
 20
122.150
 30
0.000000
  70
    32
  0
VERTEX
  8
SAPA_ANSLUTNING
  5
1A86
 10
152.965
 20
122.211
 30
0.000000
  70
    32
  0
VERTEX
  8
SAPA_ANSLUTNING
  5
1A87
 10
153.201
 20
122.284
 30
0.000000
  70
    32
  0
VERTEX
  8
SAPA_ANSLUTNING
  5
1A88
 10
153.434
 20
122.371
 30
0.000000
  70
    32
  0
VERTEX
  8
SAPA_ANSLUTNING
  5
1A89
 10
153.663
 20
122.470
 30
0.000000
  70
    32
  0
VERTEX
  8
SAPA_ANSLUTNING
  5
1A8A
 10
153.888
 20
122.582
 30
0.000000
  70
    32
  0
VERTEX
  8
SAPA_ANSLUTNING
  5
1A8B
 10
154.107
 20
122.706
 30
0.000000
  70
    32
  0
VERTEX
  8
SAPA_ANSLUTNING
  5
1A8C
 10
154.321
 20
122.842
 30
0.000000
  70
    32
  0
VERTEX
  8
SAPA_ANSLUTNING
  5
1A8D
 10
154.528
 20
122.990
 30
0.000000
  70
    32
  0
VERTEX
  8
SAPA_ANSLUTNING
  5
1A8E
 10
154.728
 20
123.148
 30
0.000000
  70
    32
  0
VERTEX
  8
SAPA_ANSLUTNING
  5
1A8F
 10
154.922
 20
123.318
 30
0.000000
  70
    32
  0
VERTEX
  8
SAPA_ANSLUTNING
  5
1A90
 10
155.108
 20
123.498
 30
0.000000
  70
    32
  0
VERTEX
  8
SAPA_ANSLUTNING
  5
1A91
 10
155.286
 20
123.689
 30
0.000000
  70
    32
  0
VERTEX
  8
SAPA_ANSLUTNING
  5
1A92
 10
155.455
 20
123.888
 30
0.000000
  70
    32
  0
VERTEX
  8
SAPA_ANSLUTNING
  5
1A93
 10
155.615
 20
124.097
 30
0.000000
  70
    32
  0
VERTEX
  8
SAPA_ANSLUTNING
  5
1A94
 10
155.766
 20
124.315
 30
0.000000
  70
    32
  0
VERTEX
  8
SAPA_ANSLUTNING
  5
1A95
 10
155.907
 20
124.540
 30
0.000000
  70
    32
  0
VERTEX
  8
SAPA_ANSLUTNING
  5
1A96
 10
156.039
 20
124.774
 30
0.000000
  70
    32
  0
VERTEX
  8
SAPA_ANSLUTNING
  5
1A97
 10
156.160
 20
125.014
 30
0.000000
  70
    32
  0
VERTEX
  8
SAPA_ANSLUTNING
  5
1A98
 10
156.270
 20
125.260
 30
0.000000
  70
    32
  0
VERTEX
  8
SAPA_ANSLUTNING
  5
1A99
 10
156.369
 20
125.512
 30
0.000000
  70
    32
  0
VERTEX
  8
SAPA_ANSLUTNING
  5
1A9A
 10
156.458
 20
125.770
 30
0.000000
  70
    32
  0
VERTEX
  8
SAPA_ANSLUTNING
  5
1A9B
 10
156.535
 20
126.032
 30
0.000000
  70
    32
  0
VERTEX
  8
SAPA_ANSLUTNING
  5
1A9C
 10
156.600
 20
126.298
 30
0.000000
  70
    32
  0
VERTEX
  8
SAPA_ANSLUTNING
  5
1A9D
 10
156.654
 20
126.567
 30
0.000000
  70
    32
  0
VERTEX
  8
SAPA_ANSLUTNING
  5
1A9E
 10
156.696
 20
126.839
 30
0.000000
  70
    32
  0
VERTEX
  8
SAPA_ANSLUTNING
  5
1A9F
 10
156.726
 20
127.112
 30
0.000000
  70
    32
  0
VERTEX
  8
SAPA_ANSLUTNING
  5
1AA0
 10
156.744
 20
127.388
 30
0.000000
  70
    32
  0
VERTEX
  8
SAPA_ANSLUTNING
  5
1AA1
 10
156.750
 20
127.663
 30
0.000000
  70
    32
  0
VERTEX
  8
SAPA_ANSLUTNING
  5
1AA2
 10
156.744
 20
127.939
 30
0.000000
  70
    32
  0
VERTEX
  8
SAPA_ANSLUTNING
  5
1AA3
 10
156.726
 20
128.214
 30
0.000000
  70
    32
  0
VERTEX
  8
SAPA_ANSLUTNING
  5
1AA4
 10
156.696
 20
128.488
 30
0.000000
  70
    32
  0
VERTEX
  8
SAPA_ANSLUTNING
  5
1AA5
 10
156.654
 20
128.760
 30
0.000000
  70
    32
  0
VERTEX
  8
SAPA_ANSLUTNING
  5
1AA6
 10
156.600
 20
129.029
 30
0.000000
  70
    32
  0
VERTEX
  8
SAPA_ANSLUTNING
  5
1AA7
 10
156.535
 20
129.295
 30
0.000000
  70
    32
  0
VERTEX
  8
SAPA_ANSLUTNING
  5
1AA8
 10
156.458
 20
129.557
 30
0.000000
  70
    32
  0
VERTEX
  8
SAPA_ANSLUTNING
  5
1AA9
 10
156.369
 20
129.814
 30
0.000000
  70
    32
  0
VERTEX
  8
SAPA_ANSLUTNING
  5
1AAA
 10
156.270
 20
130.067
 30
0.000000
  70
    32
  0
VERTEX
  8
SAPA_ANSLUTNING
  5
1AAB
 10
156.160
 20
130.313
 30
0.000000
  70
    32
  0
VERTEX
  8
SAPA_ANSLUTNING
  5
1AAC
 10
156.039
 20
130.553
 30
0.000000
  70
    32
  0
VERTEX
  8
SAPA_ANSLUTNING
  5
1AAD
 10
155.907
 20
130.786
 30
0.000000
  70
    32
  0
VERTEX
  8
SAPA_ANSLUTNING
  5
1AAE
 10
155.766
 20
131.012
 30
0.000000
  70
    32
  0
VERTEX
  8
SAPA_ANSLUTNING
  5
1AAF
 10
155.615
 20
131.229
 30
0.000000
  70
    32
  0
VERTEX
  8
SAPA_ANSLUTNING
  5
1AB0
 10
155.455
 20
131.438
 30
0.000000
  70
    32
  0
VERTEX
  8
SAPA_ANSLUTNING
  5
1AB1
 10
155.286
 20
131.638
 30
0.000000
  70
    32
  0
VERTEX
  8
SAPA_ANSLUTNING
  5
1AB2
 10
155.108
 20
131.828
 30
0.000000
  70
    32
  0
VERTEX
  8
SAPA_ANSLUTNING
  5
1AB3
 10
154.922
 20
132.008
 30
0.000000
  70
    32
  0
VERTEX
  8
SAPA_ANSLUTNING
  5
1AB4
 10
154.728
 20
132.178
 30
0.000000
  70
    32
  0
VERTEX
  8
SAPA_ANSLUTNING
  5
1AB5
 10
154.528
 20
132.337
 30
0.000000
  70
    32
  0
VERTEX
  8
SAPA_ANSLUTNING
  5
1AB6
 10
154.321
 20
132.485
 30
0.000000
  70
    32
  0
VERTEX
  8
SAPA_ANSLUTNING
  5
1AB7
 10
154.107
 20
132.621
 30
0.000000
  70
    32
  0
VERTEX
  8
SAPA_ANSLUTNING
  5
1AB8
 10
153.888
 20
132.745
 30
0.000000
  70
    32
  0
VERTEX
  8
SAPA_ANSLUTNING
  5
1AB9
 10
153.663
 20
132.857
 30
0.000000
  70
    32
  0
VERTEX
  8
SAPA_ANSLUTNING
  5
1ABA
 10
153.434
 20
132.956
 30
0.000000
  70
    32
  0
VERTEX
  8
SAPA_ANSLUTNING
  5
1ABB
 10
153.201
 20
133.042
 30
0.000000
  70
    32
  0
VERTEX
  8
SAPA_ANSLUTNING
  5
1ABC
 10
152.965
 20
133.116
 30
0.000000
  70
    32
  0
VERTEX
  8
SAPA_ANSLUTNING
  5
1ABD
 10
152.725
 20
133.176
 30
0.000000
  70
    32
  0
VERTEX
  8
SAPA_ANSLUTNING
  5
1ABE
 10
152.484
 20
133.224
 30
0.000000
  70
    32
  0
VERTEX
  8
SAPA_ANSLUTNING
  5
1ABF
 10
152.240
 20
133.257
 30
0.000000
  70
    32
  0
VERTEX
  8
SAPA_ANSLUTNING
  5
1AC0
 10
151.995
 20
133.278
 30
0.000000
  70
    32
  0
VERTEX
  8
SAPA_ANSLUTNING
  5
1AC1
 10
151.750
 20
133.284
 30
0.000000
  70
    32
  0
VERTEX
  8
SAPA_ANSLUTNING
  5
1AC2
 10
151.505
 20
133.278
 30
0.000000
  70
    32
  0
VERTEX
  8
SAPA_ANSLUTNING
  5
1AC3
 10
151.260
 20
133.257
 30
0.000000
  70
    32
  0
VERTEX
  8
SAPA_ANSLUTNING
  5
1AC4
 10
151.016
 20
133.224
 30
0.000000
  70
    32
  0
VERTEX
  8
SAPA_ANSLUTNING
  5
1AC5
 10
150.775
 20
133.176
 30
0.000000
  70
    32
  0
VERTEX
  8
SAPA_ANSLUTNING
  5
1AC6
 10
150.535
 20
133.116
 30
0.000000
  70
    32
  0
VERTEX
  8
SAPA_ANSLUTNING
  5
1AC7
 10
150.299
 20
133.042
 30
0.000000
  70
    32
  0
VERTEX
  8
SAPA_ANSLUTNING
  5
1AC8
 10
150.066
 20
132.956
 30
0.000000
  70
    32
  0
VERTEX
  8
SAPA_ANSLUTNING
  5
1AC9
 10
149.837
 20
132.857
 30
0.000000
  70
    32
  0
VERTEX
  8
SAPA_ANSLUTNING
  5
1ACA
 10
149.612
 20
132.745
 30
0.000000
  70
    32
  0
VERTEX
  8
SAPA_ANSLUTNING
  5
1ACB
 10
149.393
 20
132.621
 30
0.000000
  70
    32
  0
VERTEX
  8
SAPA_ANSLUTNING
  5
1ACC
 10
149.179
 20
132.485
 30
0.000000
  70
    32
  0
VERTEX
  8
SAPA_ANSLUTNING
  5
1ACD
 10
148.972
 20
132.337
 30
0.000000
  70
    32
  0
VERTEX
  8
SAPA_ANSLUTNING
  5
1ACE
 10
148.772
 20
132.178
 30
0.000000
  70
    32
  0
VERTEX
  8
SAPA_ANSLUTNING
  5
1ACF
 10
148.578
 20
132.008
 30
0.000000
  70
    32
  0
VERTEX
  8
SAPA_ANSLUTNING
  5
1AD0
 10
148.392
 20
131.828
 30
0.000000
  70
    32
  0
VERTEX
  8
SAPA_ANSLUTNING
  5
1AD1
 10
148.214
 20
131.638
 30
0.000000
  70
    32
  0
VERTEX
  8
SAPA_ANSLUTNING
  5
1AD2
 10
148.045
 20
131.438
 30
0.000000
  70
    32
  0
VERTEX
  8
SAPA_ANSLUTNING
  5
1AD3
 10
147.885
 20
131.229
 30
0.000000
  70
    32
  0
VERTEX
  8
SAPA_ANSLUTNING
  5
1AD4
 10
147.734
 20
131.012
 30
0.000000
  70
    32
  0
VERTEX
  8
SAPA_ANSLUTNING
  5
1AD5
 10
147.593
 20
130.786
 30
0.000000
  70
    32
  0
VERTEX
  8
SAPA_ANSLUTNING
  5
1AD6
 10
147.461
 20
130.553
 30
0.000000
  70
    32
  0
VERTEX
  8
SAPA_ANSLUTNING
  5
1AD7
 10
147.340
 20
130.313
 30
0.000000
  70
    32
  0
VERTEX
  8
SAPA_ANSLUTNING
  5
1AD8
 10
147.230
 20
130.067
 30
0.000000
  70
    32
  0
VERTEX
  8
SAPA_ANSLUTNING
  5
1AD9
 10
147.131
 20
129.814
 30
0.000000
  70
    32
  0
VERTEX
  8
SAPA_ANSLUTNING
  5
1ADA
 10
147.042
 20
129.557
 30
0.000000
  70
    32
  0
VERTEX
  8
SAPA_ANSLUTNING
  5
1ADB
 10
146.965
 20
129.295
 30
0.000000
  70
    32
  0
VERTEX
  8
SAPA_ANSLUTNING
  5
1ADC
 10
146.900
 20
129.029
 30
0.000000
  70
    32
  0
VERTEX
  8
SAPA_ANSLUTNING
  5
1ADD
 10
146.846
 20
128.760
 30
0.000000
  70
    32
  0
VERTEX
  8
SAPA_ANSLUTNING
  5
1ADE
 10
146.804
 20
128.488
 30
0.000000
  70
    32
  0
VERTEX
  8
SAPA_ANSLUTNING
  5
1ADF
 10
146.774
 20
128.214
 30
0.000000
  70
    32
  0
VERTEX
  8
SAPA_ANSLUTNING
  5
1AE0
 10
146.756
 20
127.939
 30
0.000000
  70
    32
  0
VERTEX
  8
SAPA_ANSLUTNING
  5
1AE1
 10
146.750
 20
127.663
 30
0.000000
  70
    32
  0
VERTEX
  8
SAPA_ANSLUTNING
  5
1AE2
 10
146.756
 20
127.388
 30
0.000000
  70
    32
  0
VERTEX
  8
SAPA_ANSLUTNING
  5
1AE3
 10
146.774
 20
127.112
 30
0.000000
  70
    32
  0
VERTEX
  8
SAPA_ANSLUTNING
  5
1AE4
 10
146.804
 20
126.839
 30
0.000000
  70
    32
  0
VERTEX
  8
SAPA_ANSLUTNING
  5
1AE5
 10
146.846
 20
126.567
 30
0.000000
  70
    32
  0
VERTEX
  8
SAPA_ANSLUTNING
  5
1AE6
 10
146.900
 20
126.298
 30
0.000000
  70
    32
  0
VERTEX
  8
SAPA_ANSLUTNING
  5
1AE7
 10
146.965
 20
126.032
 30
0.000000
  70
    32
  0
VERTEX
  8
SAPA_ANSLUTNING
  5
1AE8
 10
147.042
 20
125.770
 30
0.000000
  70
    32
  0
VERTEX
  8
SAPA_ANSLUTNING
  5
1AE9
 10
147.131
 20
125.512
 30
0.000000
  70
    32
  0
VERTEX
  8
SAPA_ANSLUTNING
  5
1AEA
 10
147.230
 20
125.260
 30
0.000000
  70
    32
  0
VERTEX
  8
SAPA_ANSLUTNING
  5
1AEB
 10
147.340
 20
125.014
 30
0.000000
  70
    32
  0
VERTEX
  8
SAPA_ANSLUTNING
  5
1AEC
 10
147.461
 20
124.774
 30
0.000000
  70
    32
  0
VERTEX
  8
SAPA_ANSLUTNING
  5
1AED
 10
147.593
 20
124.540
 30
0.000000
  70
    32
  0
VERTEX
  8
SAPA_ANSLUTNING
  5
1AEE
 10
147.734
 20
124.315
 30
0.000000
  70
    32
  0
VERTEX
  8
SAPA_ANSLUTNING
  5
1AEF
 10
147.885
 20
124.097
 30
0.000000
  70
    32
  0
VERTEX
  8
SAPA_ANSLUTNING
  5
1AF0
 10
148.045
 20
123.888
 30
0.000000
  70
    32
  0
VERTEX
  8
SAPA_ANSLUTNING
  5
1AF1
 10
148.214
 20
123.689
 30
0.000000
  70
    32
  0
VERTEX
  8
SAPA_ANSLUTNING
  5
1AF2
 10
148.392
 20
123.498
 30
0.000000
  70
    32
  0
VERTEX
  8
SAPA_ANSLUTNING
  5
1AF3
 10
148.578
 20
123.318
 30
0.000000
  70
    32
  0
VERTEX
  8
SAPA_ANSLUTNING
  5
1AF4
 10
148.772
 20
123.148
 30
0.000000
  70
    32
  0
VERTEX
  8
SAPA_ANSLUTNING
  5
1AF5
 10
148.972
 20
122.990
 30
0.000000
  70
    32
  0
VERTEX
  8
SAPA_ANSLUTNING
  5
1AF6
 10
149.179
 20
122.842
 30
0.000000
  70
    32
  0
VERTEX
  8
SAPA_ANSLUTNING
  5
1AF7
 10
149.393
 20
122.706
 30
0.000000
  70
    32
  0
VERTEX
  8
SAPA_ANSLUTNING
  5
1AF8
 10
149.612
 20
122.582
 30
0.000000
  70
    32
  0
VERTEX
  8
SAPA_ANSLUTNING
  5
1AF9
 10
149.837
 20
122.470
 30
0.000000
  70
    32
  0
VERTEX
  8
SAPA_ANSLUTNING
  5
1AFA
 10
150.066
 20
122.371
 30
0.000000
  70
    32
  0
VERTEX
  8
SAPA_ANSLUTNING
  5
1AFB
 10
150.299
 20
122.284
 30
0.000000
  70
    32
  0
VERTEX
  8
SAPA_ANSLUTNING
  5
1AFC
 10
150.535
 20
122.211
 30
0.000000
  70
    32
  0
VERTEX
  8
SAPA_ANSLUTNING
  5
1AFD
 10
150.775
 20
122.150
 30
0.000000
  70
    32
  0
VERTEX
  8
SAPA_ANSLUTNING
  5
1AFE
 10
151.016
 20
122.103
 30
0.000000
  70
    32
  0
VERTEX
  8
SAPA_ANSLUTNING
  5
1AFF
 10
151.260
 20
122.069
 30
0.000000
  70
    32
  0
VERTEX
  8
SAPA_ANSLUTNING
  5
1B00
 10
151.505
 20
122.049
 30
0.000000
  70
    32
  0
VERTEX
  8
SAPA_ANSLUTNING
  5
1B01
 10
151.750
 20
122.042
 30
0.000000
  70
    32
  0
SEQEND
  8
SAPA_ANSLUTNING
  5
1B02
  0
POLYLINE
  5
FDA
  8
SAPA_ANSLUTNING
 66
     1
 10
0.0
 20
0.0
 30
0.0
  0
VERTEX
  5
1A0C
  8
SAPA_ANSLUTNING
 10
148.25107161485261
 20
123.64793040943751
 30
0.0
 42
0.8812634091771027
  0
VERTEX
  5
1A0D
  8
SAPA_ANSLUTNING
 10
148.75000007151169
 20
119.71116238121751
 30
0.0
  0
VERTEX
  5
1A0E
  8
SAPA_ANSLUTNING
 10
154.75000007151169
 20
119.71116238121751
 30
0.0
 42
-0.9999999999999998
  0
VERTEX
  5
1A0F
  8
SAPA_ANSLUTNING
 10
154.75000007151169
 20
115.71116238121751
 30
0.0
  0
VERTEX
  5
1A10
  8
SAPA_ANSLUTNING
 10
148.75000007151169
 20
115.71116238121751
 30
0.0
 42
0.9999999999999998
  0
VERTEX
  5
1A11
  8
SAPA_ANSLUTNING
 10
148.75000007151169
 20
111.71116238121751
 30
0.0
  0
VERTEX
  5
1A12
  8
SAPA_ANSLUTNING
 10
154.75000007151169
 20
111.71116238121751
 30
0.0
 42
-0.9999999999999998
  0
VERTEX
  5
1A13
  8
SAPA_ANSLUTNING
 10
154.75000007151169
 20
107.71116238121751
 30
0.0
  0
VERTEX
  5
1A14
  8
SAPA_ANSLUTNING
 10
148.75000007151169
 20
107.71116238121751
 30
0.0
 42
0.9999999999999998
  0
VERTEX
  5
1A15
  8
SAPA_ANSLUTNING
 10
148.75000007151169
 20
103.71116238121751
 30
0.0
  0
VERTEX
  5
1A16
  8
SAPA_ANSLUTNING
 10
154.75000007151169
 20
103.71116238121751
 30
0.0
 42
-0.9999999999999998
  0
VERTEX
  5
1A17
  8
SAPA_ANSLUTNING
 10
154.75000007151169
 20
99.711162381217505
 30
0.0
  0
VERTEX
  5
1A18
  8
SAPA_ANSLUTNING
 10
148.75000007151169
 20
99.711162381217505
 30
0.0
 42
0.9999999999999998
  0
VERTEX
  5
1A19
  8
SAPA_ANSLUTNING
 10
148.75000007151169
 20
95.711162381217491
 30
0.0
  0
VERTEX
  5
1A1A
  8
SAPA_ANSLUTNING
 10
154.75000007151169
 20
95.711162381217491
 30
0.0
 42
-0.9999999999999998
  0
VERTEX
  5
1A1B
  8
SAPA_ANSLUTNING
 10
154.75000007151169
 20
91.711162381217491
 30
0.0
  0
VERTEX
  5
1A1C
  8
SAPA_ANSLUTNING
 10
148.75000007151169
 20
91.711162381217491
 30
0.0
 42
0.9999999999999998
  0
VERTEX
  5
1A1D
  8
SAPA_ANSLUTNING
 10
148.75000007151169
 20
87.711162381217491
 30
0.0
  0
VERTEX
  5
1A1E
  8
SAPA_ANSLUTNING
 10
154.75000007151169
 20
87.711162381217491
 30
0.0
 42
-0.9999999999999998
  0
VERTEX
  5
1A1F
  8
SAPA_ANSLUTNING
 10
154.75000007151169
 20
83.711162381217477
 30
0.0
  0
VERTEX
  5
1A20
  8
SAPA_ANSLUTNING
 10
148.75000007151169
 20
83.711162381217477
 30
0.0
 42
0.9999999999999998
  0
VERTEX
  5
1A21
  8
SAPA_ANSLUTNING
 10
148.75000007151169
 20
79.711162381217491
 30
0.0
  0
VERTEX
  5
1A22
  8
SAPA_ANSLUTNING
 10
154.75000007151169
 20
79.711162381217491
 30
0.0
 42
-0.9999999999999998
  0
VERTEX
  5
1A23
  8
SAPA_ANSLUTNING
 10
154.75000007151169
 20
75.711162381217491
 30
0.0
  0
VERTEX
  5
1A24
  8
SAPA_ANSLUTNING
 10
148.75000007151169
 20
75.711162381217491
 30
0.0
 42
0.9999999999999998
  0
VERTEX
  5
1A25
  8
SAPA_ANSLUTNING
 10
148.75000007151169
 20
71.711162381217491
 30
0.0
  0
VERTEX
  5
1A26
  8
SAPA_ANSLUTNING
 10
154.75000007151169
 20
71.711162381217491
 30
0.0
 42
-0.9999999999999998
  0
VERTEX
  5
1A27
  8
SAPA_ANSLUTNING
 10
154.75000007151169
 20
67.711162381217491
 30
0.0
  0
VERTEX
  5
1A28
  8
SAPA_ANSLUTNING
 10
148.75000007151169
 20
67.711162381217491
 30
0.0
 42
0.9999999999999998
  0
VERTEX
  5
1A29
  8
SAPA_ANSLUTNING
 10
148.75000007151169
 20
63.711162381217491
 30
0.0
  0
VERTEX
  5
1A2A
  8
SAPA_ANSLUTNING
 10
154.75000007151169
 20
63.711162381217491
 30
0.0
 42
-0.9999999999999998
  0
VERTEX
  5
1A2B
  8
SAPA_ANSLUTNING
 10
154.75000007151169
 20
59.711162381217491
 30
0.0
  0
VERTEX
  5
1A2C
  8
SAPA_ANSLUTNING
 10
148.75000007151169
 20
59.711162381217491
 30
0.0
 42
0.9999999999999998
  0
VERTEX
  5
1A2D
  8
SAPA_ANSLUTNING
 10
148.75000007151169
 20
55.711162381217491
 30
0.0
  0
VERTEX
  5
1A2E
  8
SAPA_ANSLUTNING
 10
154.75000007151169
 20
55.711162381217491
 30
0.0
 42
-0.9999999999999998
  0
VERTEX
  5
1A2F
  8
SAPA_ANSLUTNING
 10
154.75000007151169
 20
51.711162381217491
 30
0.0
  0
VERTEX
  5
1A30
  8
SAPA_ANSLUTNING
 10
148.75000007151169
 20
51.711162381217491
 30
0.0
 42
0.9999999999999998
  0
VERTEX
  5
1A31
  8
SAPA_ANSLUTNING
 10
148.75000007151169
 20
47.711162381217491
 30
0.0
  0
VERTEX
  5
1A32
  8
SAPA_ANSLUTNING
 10
154.75000007151169
 20
47.711162381217491
 30
0.0
 42
-0.9999999999999998
  0
VERTEX
  5
1A33
  8
SAPA_ANSLUTNING
 10
154.75000007151169
 20
43.711162381217491
 30
0.0
  0
VERTEX
  5
1A34
  8
SAPA_ANSLUTNING
 10
148.75000007151169
 20
43.711162381217491
 30
0.0
 42
0.9999999999999998
  0
VERTEX
  5
1A35
  8
SAPA_ANSLUTNING
 10
148.75000007151169
 20
39.711162381217491
 30
0.0
  0
VERTEX
  5
1A36
  8
SAPA_ANSLUTNING
 10
154.75000007151169
 20
39.711162381217491
 30
0.0
 42
-0.9999999999999998
  0
VERTEX
  5
1A37
  8
SAPA_ANSLUTNING
 10
154.75000007151169
 20
35.711162381217491
 30
0.0
  0
VERTEX
  5
1A38
  8
SAPA_ANSLUTNING
 10
148.75000007151169
 20
35.711162381217491
 30
0.0
 42
0.9999999999999998
  0
VERTEX
  5
1A39
  8
SAPA_ANSLUTNING
 10
148.75000007151169
 20
31.711162381217491
 30
0.0
  0
VERTEX
  5
1A3A
  8
SAPA_ANSLUTNING
 10
154.75000007151169
 20
31.711162381217491
 30
0.0
 42
-0.9999999999999998
  0
VERTEX
  5
1A3B
  8
SAPA_ANSLUTNING
 10
154.75000007151169
 20
27.711162381217491
 30
0.0
  0
VERTEX
  5
1A3C
  8
SAPA_ANSLUTNING
 10
148.75000007151169
 20
27.711162381217491
 30
0.0
 42
0.9999999999999998
  0
VERTEX
  5
1A3D
  8
SAPA_ANSLUTNING
 10
148.75000007151169
 20
23.711162381217491
 30
0.0
  0
VERTEX
  5
1A3E
  8
SAPA_ANSLUTNING
 10
154.75000007151169
 20
23.711162381217491
 30
0.0
 42
-0.9999999999999998
  0
VERTEX
  5
1A3F
  8
SAPA_ANSLUTNING
 10
154.75000007151169
 20
19.711162381217491
 30
0.0
  0
VERTEX
  5
1A40
  8
SAPA_ANSLUTNING
 10
146.00000007151169
 20
19.711162381217491
 30
0.0
 42
0.9999999999999998
  0
VERTEX
  5
1A41
  8
SAPA_ANSLUTNING
 10
146.00000007151169
 20
15.711162381217489
 30
0.0
  0
VERTEX
  5
1A42
  8
SAPA_ANSLUTNING
 10
154.75000007151169
 20
15.711162381217489
 30
0.0
 42
-0.9999999999999998
  0
VERTEX
  5
1A43
  8
SAPA_ANSLUTNING
 10
154.75000007151169
 20
11.711162381217489
 30
0.0
  0
VERTEX
  5
1A44
  8
SAPA_ANSLUTNING
 10
146.00000007151169
 20
11.711162381217489
 30
0.0
 42
0.9999999999999998
  0
VERTEX
  5
1A45
  8
SAPA_ANSLUTNING
 10
146.00000007151169
 20
7.7111623812174912
 30
0.0
  0
VERTEX
  5
1A46
  8
SAPA_ANSLUTNING
 10
154.75000007151169
 20
7.7111623812174912
 30
0.0
 42
-0.9999999999999998
  0
VERTEX
  5
1A47
  8
SAPA_ANSLUTNING
 10
154.75000007151169
 20
3.7111623812174912
 30
0.0
  0
VERTEX
  5
1A48
  8
SAPA_ANSLUTNING
 10
146.00000007151169
 20
3.7111623812174912
 30
0.0
 42
0.759206390861857
  0
VERTEX
  5
1A49
  8
SAPA_ANSLUTNING
 10
144.9646627810088
 20
0.0
 30
0.0
  0
SEQEND
  5
1A4A
  8
SAPA_ANSLUTNING
  0
TEXT
  5
FED
  8
SAPA_ARTIKELNR
 10
80.270947578279902
 20
141.051605857639
 30
0.0000000048844772
 40
3.5
  1
D9V004
 50
90.0
  7
ISO
  0
TEXT
  5
FF8
  8
SAPA_ARTIKELNR
 10
-5.4189571652532322
 20
44.757987946053618
 30
0.0000000048844772
 40
3.5
  1
D9K029
 50
90.0
  7
ISO
  0
CIRCLE
  5
FF9
  8
SAPA_BESLAG
 10
38.250000071513568
 20
100.00000000000129
 30
0.0
 40
3.5
  0
CIRCLE
  5
FFA
  8
SAPA_BESLAG
 10
28.250000071513568
 20
100.00000000000129
 30
0.0
 40
3.5
  0
CIRCLE
  5
FFB
  8
SAPA_FOGBAND
 10
33.250000071499016
 20
98.800000000001546
 30
0.0
 40
0.7500000000000001
  0
LINE
  5
FFF
  8
SAPA_FOGBAND
 10
0.3504326030647462
 20
134.9113994912241
 30
0.0
 11
5.3466359312410532
 21
134.9113994912268
 31
0.0
  0
LINE
  5
1000
  8
SAPA_FOGBAND
 10
5.3466359312410532
 20
135.0613994912255
 30
0.0
 11
0.3504326030647462
 21
135.0613994912255
 31
0.0
  0
LINE
  5
1004
  8
SAPA_FOGBAND
 10
0.3504326030647462
 20
126.4113994912195
 30
0.0
 11
4.9249594567190789
 21
126.41139949122309
 31
0.0
  0
LINE
  5
1005
  8
SAPA_FOGBAND
 10
4.9249594567190789
 20
126.561399491221
 30
0.0
 11
0.3504326030647462
 21
126.561399491221
 31
0.0
  0
LINE
  5
1009
  8
SAPA_FOGBAND
 10
66.149567539298445
 20
134.9113994912241
 30
0.0
 11
61.250898448769931
 21
134.9113994912268
 31
0.0
  0
LINE
  5
100A
  8
SAPA_FOGBAND
 10
61.250898448769931
 20
135.0613994912255
 30
0.0
 11
66.149567539298445
 21
135.0613994912255
 31
0.0
  0
LINE
  5
100E
  8
SAPA_FOGBAND
 10
66.149567539298445
 20
126.4113994912195
 30
0.0
 11
61.685747566094513
 21
126.41139949122309
 31
0.0
  0
LINE
  5
100F
  8
SAPA_FOGBAND
 10
61.685747566094513
 20
126.561399491221
 30
0.0
 11
66.149567539298445
 21
126.561399491221
 31
0.0
  0
LINE
  5
1320
  8
SAPA_GLAS
 10
83.499999935513188
 20
149.80000000000149
 30
0.0
 11
84.249999935526375
 21
149.80000000000149
 31
0.0
  0
LINE
  5
1321
  8
SAPA_GLAS
 10
84.249999935526375
 20
136.99999999999039
 30
0.0
 11
83.499999935527285
 21
136.99999999998951
 31
0.0
  0
LINE
  5
1323
  8
SAPA_GLAS
 10
136.9999999358779
 20
149.80000000000149
 30
0.0
 11
136.24999993586471
 21
149.80000000000149
 31
0.0
  0
LINE
  5
1324
  8
SAPA_GLAS
 10
136.24999993586471
 20
136.99999999999039
 30
0.0
 11
136.9999999358638
 21
136.99999999998951
 31
0.0
  0
CIRCLE
  5
1329
  8
SAPA_BESLAG
 10
105.2500000715122
 20
100.00000000000129
 30
0.0
 40
3.5
  0
CIRCLE
  5
132A
  8
SAPA_BESLAG
 10
115.2500000715122
 20
100.00000000000129
 30
0.0
 40
3.5
  0
CIRCLE
  5
132B
  8
SAPA_FOGBAND
 10
110.2500000715267
 20
98.800000000001546
 30
0.0
 40
0.7500000000000001
  0
LINE
  5
132F
  8
SAPA_FOGBAND
 10
143.149567539961
 20
134.9113994912241
 30
0.0
 11
138.15336421178469
 21
134.9113994912268
 31
0.0
  0
LINE
  5
1330
  8
SAPA_FOGBAND
 10
138.15336421178469
 20
135.0613994912255
 30
0.0
 11
143.149567539961
 21
135.0613994912255
 31
0.0
  0
LINE
  5
1334
  8
SAPA_FOGBAND
 10
143.149567539961
 20
126.4113994912195
 30
0.0
 11
138.57504068630669
 21
126.41139949122309
 31
0.0
  0
LINE
  5
1335
  8
SAPA_FOGBAND
 10
138.57504068630669
 20
126.561399491221
 30
0.0
 11
143.149567539961
 21
126.561399491221
 31
0.0
  0
LINE
  5
1339
  8
SAPA_FOGBAND
 10
77.350432603727313
 20
134.9113994912241
 30
0.0
 11
82.249101694255842
 21
134.9113994912268
 31
0.0
  0
LINE
  5
133A
  8
SAPA_FOGBAND
 10
82.249101694255842
 20
135.0613994912255
 30
0.0
 11
77.350432603727313
 21
135.0613994912255
 31
0.0
  0
LINE
  5
133E
  8
SAPA_FOGBAND
 10
77.350432603727313
 20
126.4113994912195
 30
0.0
 11
81.814252576931267
 21
126.41139949122309
 31
0.0
  0
LINE
  5
133F
  8
SAPA_FOGBAND
 10
81.814252576931267
 20
126.561399491221
 30
0.0
 11
77.350432603727313
 21
126.561399491221
 31
0.0
  0
TEXT
  5
13C4
  8
SAPA_ARTIKELNR
 10
-61.839521777308192
 20
84.909344335861235
 30
0.0000000048844772
 40
3.5
  1
D8A002
  7
ISO
  0
LINE
  5
13C5
  8
SAPA_BESLAG
 10
-75.749999928493281
 20
138.4999999999597
 30
0.0
 11
-75.749999928493281
 21
139.9999999999597
 31
0.0
  0
LINE
  5
13C6
  8
SAPA_BESLAG
 10
-33.749999928493281
 20
138.4999999999597
 30
0.0
 11
-33.749999928493281
 21
139.9999999999597
 31
0.0
  0
LINE
  5
13C8
  8
SAPA_BESLAG
 10
-24.749999928471439
 20
123.9999999999597
 30
0.0
 11
-84.749999928493281
 21
123.9999999999597
 31
0.0
  0
LINE
  5
13D1
  8
SAPA_ANSLUTNING
 10
-91.249999928486005
 20
139.999999999967
 30
0.0
 11
-131.74147898757059
 21
139.999999999967
 31
0.0
  0
LINE
  5
13D2
  8
SAPA_ANSLUTNING
 10
-91.249999928486005
 20
0.0
 30
0.0
 11
-91.249999928486005
 21
140.24999999996629
 31
0.0
  0
LINE
  5
14D3
  8
SAPA_PROFIL
 10
-86.249999928493281
 20
137.499999999967
 30
0.0
 11
-86.249999928486005
 21
139.4999999999597
 31
0.0
  0
ARC
  5
14D4
  8
SAPA_PROFIL
 10
-86.749999928482367
 20
139.499999999956
 30
0.0
 40
0.4999999999963621
 50
0.0000000004168817
 51
90.000000000416875
  0
LINE
  5
14D5
  8
SAPA_PROFIL
 10
-86.749999928486005
 20
139.99999999995239
 30
0.0
 11
-89.249999928486005
 21
139.99999999996689
 31
0.0
  0
ARC
  5
14D6
  8
SAPA_PROFIL
 10
-89.249999928486005
 20
137.99999999996689
 30
0.0
 40
2.0
 50
90.0
 51
180.0
  0
LINE
  5
14D7
  8
SAPA_PROFIL
 10
-91.249999928486005
 20
137.99999999996689
 30
0.0
 11
-91.249999928486005
 21
83.999999999966974
 31
0.0
  0
ARC
  5
14D8
  8
SAPA_PROFIL
 10
-87.249999928489643
 20
83.999999999963336
 30
0.0
 40
3.999999999996362
 50
179.9999999999479
 51
269.99999999994787
  0
LINE
  5
14D9
  8
SAPA_PROFIL
 10
-87.249999928493281
 20
79.999999999966974
 30
0.0
 11
-22.249999928493271
 21
79.999999999966974
 31
0.0
  0
ARC
  5
14DA
  8
SAPA_PROFIL
 10
-22.249999928493271
 20
83.999999999966974
 30
0.0
 40
4.0
 50
270.0
 51
0.0
  0
LINE
  5
14DB
  8
SAPA_PROFIL
 10
-18.249999928493271
 20
83.999999999966974
 30
0.0
 11
-18.249999928485991
 21
134.99999999996689
 31
0.0
  0
ARC
  5
14DC
  8
SAPA_PROFIL
 10
-16.249999928485991
 20
134.99999999996689
 30
0.0
 40
2.0
 50
90.0
 51
180.0
  0
LINE
  5
14DD
  8
SAPA_PROFIL
 10
-16.249999928485991
 20
136.99999999996689
 30
0.0
 11
-7.7499999284860053
 21
136.99999999996689
 31
0.0
  0
ARC
  5
14DE
  8
SAPA_PROFIL
 10
-7.7499999284860053
 20
134.99999999996689
 30
0.0
 40
2.0
 50
0.0
 51
90.0
  0
LINE
  5
14DF
  8
SAPA_PROFIL
 10
-5.7499999284860053
 20
134.99999999996689
 30
0.0
 11
-5.7499999284787293
 21
132.2071067811591
 31
0.0
  0
ARC
  5
14E0
  8
SAPA_PROFIL
 10
-6.2499999284828842
 20
132.20710678116251
 30
0.0
 40
0.5000000000041549
 50
314.99999999947067
 51
359.9999999996092
  0
LINE
  5
14E1
  8
SAPA_PROFIL
 10
-5.8964465378899433
 20
131.85355339056301
 30
0.0
 11
-6.137627492754774
 21
131.6123724357127
 31
0.0
  0
ARC
  5
14E2
  8
SAPA_PROFIL
 10
-5.0769673209998318
 20
130.5517122639049
 30
0.0
 40
1.5000000000022291
 50
134.99999999857079
 51
194.99999999998499
  0
LINE
  5
14E3
  8
SAPA_PROFIL
 10
-6.5258560604357001
 20
130.16348369625089
 30
0.0
 11
-5.8181482758969016
 21
127.5222822874308
 31
0.0
  0
ARC
  5
14E4
  8
SAPA_PROFIL
 10
-7.749999928463251
 20
127.0046441972416
 30
0.0
 40
1.9999999999845239
 50
359.99999999976097
 51
14.999999999650059
  0
LINE
  5
14E5
  8
SAPA_PROFIL
 10
-5.7499999284787293
 20
127.0046441972333
 30
0.0
 11
-5.7499999284714534
 21
122.99999999997419
 31
0.0
  0
ARC
  5
14E6
  8
SAPA_PROFIL
 10
-4.7499999284732723
 20
122.99999999997971
 30
0.0
 40
0.999999999998181
 50
180.00000000031261
 51
269.99999999968742
  0
LINE
  5
14E7
  8
SAPA_PROFIL
 10
-4.7499999284787293
 20
121.9999999999815
 30
0.0
 11
-4.2499999285005572
 21
121.99999999997419
 31
0.0
  0
ARC
  5
14E8
  8
SAPA_PROFIL
 10
-4.2499999284860053
 20
122.99999999997419
 30
0.0
 40
1.0
 50
269.99999999916622
 51
0.0
  0
LINE
  5
14E9
  8
SAPA_PROFIL
 10
-3.2499999284860048
 20
122.99999999997419
 30
0.0
 11
-3.2499999284860048
 21
138.499999999967
 31
0.0
  0
ARC
  5
14EA
  8
SAPA_PROFIL
 10
-4.7499999284860053
 20
138.499999999967
 30
0.0
 40
1.5
 50
0.0
 51
90.0
  0
LINE
  5
14EB
  8
SAPA_PROFIL
 10
-4.7499999284860053
 20
139.99999999996689
 30
0.0
 11
-19.749999928485991
 21
139.99999999996689
 31
0.0
  0
ARC
  5
14EC
  8
SAPA_PROFIL
 10
-19.749999928485991
 20
138.499999999967
 30
0.0
 40
1.5
 50
90.0
 51
180.0
  0
LINE
  5
14ED
  8
SAPA_PROFIL
 10
-21.249999928485991
 20
138.499999999967
 30
0.0
 11
-21.249999928493271
 21
84.999999999966974
 31
0.0
  0
ARC
  5
14EE
  8
SAPA_PROFIL
 10
-23.249999928493271
 20
84.999999999966974
 30
0.0
 40
2.0
 50
270.0
 51
0.0
  0
LINE
  5
14EF
  8
SAPA_PROFIL
 10
-23.249999928493271
 20
82.999999999966974
 30
0.0
 11
-86.249999928486005
 21
82.999999999966974
 31
0.0
  0
ARC
  5
14F0
  8
SAPA_PROFIL
 10
-86.249999928482353
 20
84.999999999970612
 30
0.0
 40
2.0000000000036371
 50
179.99999999989569
 51
269.99999999989581
  0
LINE
  5
14F1
  8
SAPA_PROFIL
 10
-88.249999928486005
 20
84.999999999974264
 30
0.0
 11
-88.249999928486005
 21
136.99999999996689
 31
0.0
  0
LINE
  5
14F2
  8
SAPA_PROFIL
 10
-88.249999928486005
 20
136.99999999996689
 30
0.0
 11
-86.749999928493267
 21
136.99999999996689
 31
0.0
  0
ARC
  5
14F3
  8
SAPA_PROFIL
 10
-86.749999928493267
 20
137.499999999967
 30
0.0
 40
0.5
 50
270.0
 51
0.0
  0
ARC
  5
14F6
  8
SAPA_PROFIL
 10
-17.74999992849326
 20
102.69999999996401
 30
0.0
 40
0.5
 50
180.0
 51
270.0
  0
LINE
  5
14F7
  8
SAPA_PROFIL
 10
-18.249999928493271
 20
102.69999999996401
 30
0.0
 11
-18.249999928493271
 21
103.6999999999713
 31
0.0
  0
ARC
  5
14F8
  8
SAPA_PROFIL
 10
-17.749999928492361
 20
103.6999999999704
 30
0.0
 40
0.5000000000009095
 50
90.000000000104208
 51
179.99999999989569
  0
LINE
  5
14F9
  8
SAPA_PROFIL
 10
-17.74999992849326
 20
104.1999999999713
 30
0.0
 11
-5.7499999284860053
 21
104.1999999999786
 31
0.0
  0
ARC
  5
14FA
  8
SAPA_PROFIL
 10
-5.7499999284860053
 20
104.6999999999786
 30
0.0
 40
0.5
 50
270.0
 51
0.0
  0
LINE
  5
14FB
  8
SAPA_PROFIL
 10
-5.2499999284860053
 20
104.6999999999786
 30
0.0
 11
-5.2499999284932812
 21
110.8535898384541
 31
0.0
  0
LINE
  5
14FC
  8
SAPA_PROFIL
 10
-5.2499999284932812
 20
110.8535898384541
 30
0.0
 11
-5.0499999284889148
 21
111.19999999996401
 31
0.0
  0
LINE
  5
14FD
  8
SAPA_PROFIL
 10
-5.0499999284889148
 20
111.19999999996401
 30
0.0
 11
-5.2499999285005572
 21
111.556277580548
 31
0.0
  0
LINE
  5
14FE
  8
SAPA_PROFIL
 10
-5.2499999285005572
 20
111.556277580548
 30
0.0
 11
-5.2499999284932812
 21
117.957359312855
 31
0.0
  0
ARC
  5
14FF
  8
SAPA_PROFIL
 10
-6.2499999284946526
 20
117.9573593128583
 30
0.0
 40
1.000000000001372
 50
359.9999999998102
 51
44.999999999515481
  0
LINE
  5
1500
  8
SAPA_PROFIL
 10
-5.5428931473011573
 20
118.6644660940398
 30
0.0
 11
-7.5713202720667416
 21
120.69289321882719
 31
0.0
  0
ARC
  5
1501
  8
SAPA_PROFIL
 10
-5.449999928498678
 20
122.81421356237701
 30
0.0
 40
2.9999999999989719
 50
180.00000000004769
 51
224.9999999997529
  0
LINE
  5
1502
  8
SAPA_PROFIL
 10
-8.4499999284976468
 20
122.8142135623745
 30
0.0
 11
-8.4499999284903708
 21
136.79999999996261
 31
0.0
  0
ARC
  5
1503
  8
SAPA_PROFIL
 10
-8.2499999284860053
 20
136.79999999996261
 30
0.0
 40
0.2000000000043656
 50
90.0
 51
180.0
  0
LINE
  5
1504
  8
SAPA_PROFIL
 10
-8.2499999284860053
 20
136.99999999996689
 30
0.0
 11
-7.9101472394773111
 21
136.99999999996689
 31
0.0
  0
ARC
  5
1505
  8
SAPA_PROFIL
 10
-7.9101472394767782
 20
135.99999999996649
 30
0.0
 40
1.000000000000397
 50
14.99999999979606
 51
90.000000000030525
  0
LINE
  5
1506
  8
SAPA_PROFIL
 10
-6.9442214131863969
 20
136.25881904506571
 30
0.0
 11
-5.967037015363104
 21
132.61191722395199
 31
0.0
  0
ARC
  5
1507
  8
SAPA_PROFIL
 10
-6.4499999284795457
 20
132.48250770139401
 30
0.0
 40
0.4999999999746264
 50
359.99999999807522
 51
15.000000001586161
  0
LINE
  5
1508
  8
SAPA_PROFIL
 10
-5.9499999285049219
 20
132.48250770137719
 30
0.0
 11
-5.9499999284976459
 21
132.40710678112711
 31
0.0
  0
ARC
  5
1509
  8
SAPA_PROFIL
 10
-6.4499999285001497
 20
132.40710678114431
 30
0.0
 40
0.5000000000025038
 50
314.99999999939217
 51
359.9999999980198
  0
LINE
  5
150A
  8
SAPA_PROFIL
 10
-6.0964465379088599
 20
132.0535533905456
 30
0.0
 11
-6.6035533190675153
 21
131.5464466093942
 31
0.0
  0
ARC
  5
150B
  8
SAPA_PROFIL
 10
-6.249999928474673
 20
131.19289321879469
 30
0.0
 40
0.5000000000040574
 50
134.99999999946499
 51
179.99999999961241
  0
LINE
  5
150C
  8
SAPA_PROFIL
 10
-6.7499999284787293
 20
131.1928932187981
 30
0.0
 11
-6.7499999285005572
 21
123.1142135623774
 31
0.0
  0
ARC
  5
150D
  8
SAPA_PROFIL
 10
-5.749999928494792
 20
123.1142135623686
 30
0.0
 40
1.0000000000057641
 50
179.99999999949759
 51
224.9999999994113
  0
LINE
  5
150E
  8
SAPA_PROFIL
 10
-6.4571067096926811
 20
122.40710678118531
 30
0.0
 11
-4.1286795849241846
 21
120.0786796563949
 31
0.0
  0
ARC
  5
150F
  8
SAPA_PROFIL
 10
-6.2499999284787648
 20
117.9573593128405
 30
0.0
 40
2.999999999992764
 50
359.99999999999858
 51
44.99999999999855
  0
LINE
  5
1510
  8
SAPA_PROFIL
 10
-3.2499999284860048
 20
117.9573593128404
 30
0.0
 11
-3.2499999284860048
 21
103.1999999999713
 31
0.0
  0
ARC
  5
1511
  8
SAPA_PROFIL
 10
-4.2499999284860053
 20
103.1999999999713
 30
0.0
 40
1.0
 50
270.0
 51
0.0
  0
LINE
  5
1512
  8
SAPA_PROFIL
 10
-4.2499999284860053
 20
102.1999999999713
 30
0.0
 11
-17.74999992849326
 21
102.19999999996401
 31
0.0
  0
LINE
  5
1513
  8
SAPA_BESLAG
 10
-24.749999928471439
 20
82.999999999966974
 30
0.0
 11
-24.749999928478719
 21
137.9999999999379
 31
0.0
  0
ARC
  5
1514
  8
SAPA_BESLAG
 10
-25.249999928478822
 20
137.9999999999377
 30
0.0
 40
0.5000000000001066
 50
0.0000000000130276
 51
89.999999999987793
  0
LINE
  5
1515
  8
SAPA_BESLAG
 10
-25.249999928478719
 20
138.49999999993781
 30
0.0
 11
-84.249999928493267
 21
138.4999999999597
 31
0.0
  0
ARC
  5
1516
  8
SAPA_BESLAG
 10
-84.249999928493324
 20
137.9999999999597
 30
0.0
 40
0.4999999999999432
 50
89.999999999995111
 51
180.00000000000651
  0
LINE
  5
1517
  8
SAPA_BESLAG
 10
-84.749999928493281
 20
137.9999999999597
 30
0.0
 11
-84.749999928500557
 21
82.999999999966974
 31
0.0
  0
LINE
  5
1518
  8
SAPA_BESLAG
 10
-84.749999928500557
 20
82.999999999966974
 30
0.0
 11
-86.249999928486005
 21
82.999999999966974
 31
0.0
  0
LINE
  5
1519
  8
SAPA_BESLAG
 10
-86.249999928486005
 20
82.999999999966974
 30
0.0
 11
-86.249999928493281
 21
138.4999999999597
 31
0.0
  0
ARC
  5
151A
  8
SAPA_BESLAG
 10
-84.749999928493281
 20
138.4999999999597
 30
0.0
 40
1.5
 50
90.0
 51
180.0
  0
LINE
  5
151B
  8
SAPA_BESLAG
 10
-84.749999928493281
 20
139.9999999999597
 30
0.0
 11
-24.749999928478719
 21
139.99999999995239
 31
0.0
  0
ARC
  5
151C
  8
SAPA_BESLAG
 10
-24.749999928475081
 20
138.499999999956
 30
0.0
 40
1.499999999996362
 50
0.0000000001389606
 51
90.000000000138954
  0
LINE
  5
151D
  8
SAPA_BESLAG
 10
-23.249999928478712
 20
138.4999999999597
 30
0.0
 11
-23.24999992846416
 21
82.999999999966974
 31
0.0
  0
LINE
  5
151E
  8
SAPA_BESLAG
 10
-23.24999992846416
 20
82.999999999966974
 30
0.0
 11
-24.749999928471439
 21
82.999999999966974
 31
0.0
  0
LINE
  5
151F
  8
SAPA_BESLAG
 10
120.45000007151241
 20
125.4999999974693
 30
0.0
 11
121.45000007178891
 21
125.4999999974693
 31
0.0
1001
GENIUS_GENREC_14
1002
{
1000
PYDIR
1011
120.45000007151241
1021
0.0
1031
0.0
1021
111.49999999751211
1031
0.0
1002
}
1002
{
1000
PXDIR
1011
121.45000007178891
1021
0.0
1031
0.0
1021
125.4999999974693
1031
0.0
1002
}
1002
{
1000
PORI
1011
120.45000007151241
1021
0.0
1031
0.0
1021
125.4999999974693
1031
0.0
1002
}
1002
{
1000
PINS
1011
120.45000007151241
1021
0.0
1031
0.0
1021
125.4999999974693
1031
0.0
1002
}
1002
{
1000
PINS2
1011
121.45000007178891
1021
0.0
1031
0.0
1021
111.49999999751211
1031
0.0
1002
}
1002
{
1000
C
1070
     1
1002
}
1001
GENIUS_GENOBJ-N-REC_13
1002
{
1000
OWNER
1000
GEN
1002
}
1001
GENIUS_GENODEF_13
1002
{
1000
HIER
1070
     0
1002
}
1002
{
1000
MANEDIT
1070
     0
1002
}
1002
{
1000
NOSEL
1070
     0
1002
}
1002
{
1000
BEHIND
1070
     0
1002
}
1002
{
1000
OTHER
1070
     0
1002
}
1002
{
1000
REACTOR
1002
}
  0
LINE
  5
1520
  8
SAPA_BESLAG
 10
121.45000007178891
 20
125.4999999974693
 30
0.0
 11
121.45000007178891
 21
111.49999999751211
 31
0.0
1001
GENIUS_GENREC_14
1002
{
1000
PYDIR
1011
120.45000007151241
1021
0.0
1031
0.0
1021
111.49999999751211
1031
0.0
1002
}
1002
{
1000
PXDIR
1011
121.45000007178891
1021
0.0
1031
0.0
1021
125.4999999974693
1031
0.0
1002
}
1002
{
1000
PORI
1011
120.45000007151241
1021
0.0
1031
0.0
1021
125.4999999974693
1031
0.0
1002
}
1002
{
1000
PINS
1011
120.45000007151241
1021
0.0
1031
0.0
1021
125.4999999974693
1031
0.0
1002
}
1002
{
1000
PINS2
1011
121.45000007178891
1021
0.0
1031
0.0
1021
111.49999999751211
1031
0.0
1002
}
1002
{
1000
C
1070
     1
1002
}
1001
GENIUS_GENOBJ-N-REC_13
1002
{
1000
OWNER
1000
GEN
1002
}
1001
GENIUS_GENODEF_13
1002
{
1000
HIER
1070
     0
1002
}
1002
{
1000
MANEDIT
1070
     0
1002
}
1002
{
1000
NOSEL
1070
     0
1002
}
1002
{
1000
BEHIND
1070
     0
1002
}
1002
{
1000
OTHER
1070
     0
1002
}
1002
{
1000
REACTOR
1002
}
  0
LINE
  5
1521
  8
SAPA_BESLAG
 10
121.45000007178891
 20
111.49999999751211
 30
0.0
 11
120.45000007151241
 21
111.49999999751211
 31
0.0
1001
GENIUS_GENREC_14
1002
{
1000
PYDIR
1011
120.45000007151241
1021
0.0
1031
0.0
1021
111.49999999751211
1031
0.0
1002
}
1002
{
1000
PXDIR
1011
121.45000007178891
1021
0.0
1031
0.0
1021
125.4999999974693
1031
0.0
1002
}
1002
{
1000
PORI
1011
120.45000007151241
1021
0.0
1031
0.0
1021
125.4999999974693
1031
0.0
1002
}
1002
{
1000
PINS
1011
120.45000007151241
1021
0.0
1031
0.0
1021
125.4999999974693
1031
0.0
1002
}
1002
{
1000
PINS2
1011
121.45000007178891
1021
0.0
1031
0.0
1021
111.49999999751211
1031
0.0
1002
}
1002
{
1000
C
1070
     1
1002
}
1001
GENIUS_GENOBJ-N-REC_13
1002
{
1000
OWNER
1000
GEN
1002
}
1001
GENIUS_GENODEF_13
1002
{
1000
HIER
1070
     0
1002
}
1002
{
1000
MANEDIT
1070
     0
1002
}
1002
{
1000
NOSEL
1070
     0
1002
}
1002
{
1000
BEHIND
1070
     0
1002
}
1002
{
1000
OTHER
1070
     0
1002
}
1002
{
1000
REACTOR
1002
}
  0
LINE
  5
1522
  8
SAPA_BESLAG
 10
120.45000007151241
 20
111.49999999751211
 30
0.0
 11
120.45000007151241
 21
125.4999999974693
 31
0.0
1001
GENIUS_GENREC_14
1002
{
1000
PYDIR
1011
120.45000007151241
1021
0.0
1031
0.0
1021
111.49999999751211
1031
0.0
1002
}
1002
{
1000
PXDIR
1011
121.45000007178891
1021
0.0
1031
0.0
1021
125.4999999974693
1031
0.0
1002
}
1002
{
1000
PORI
1011
120.45000007151241
1021
0.0
1031
0.0
1021
125.4999999974693
1031
0.0
1002
}
1002
{
1000
PINS
1011
120.45000007151241
1021
0.0
1031
0.0
1021
125.4999999974693
1031
0.0
1002
}
1002
{
1000
PINS2
1011
121.45000007178891
1021
0.0
1031
0.0
1021
111.49999999751211
1031
0.0
1002
}
1002
{
1000
C
1070
     1
1002
}
1001
GENIUS_GENOBJ-N-REC_13
1002
{
1000
OWNER
1000
GEN
1002
}
1001
GENIUS_GENODEF_13
1002
{
1000
HIER
1070
     0
1002
}
1002
{
1000
MANEDIT
1070
     0
1002
}
1002
{
1000
NOSEL
1070
     0
1002
}
1002
{
1000
BEHIND
1070
     0
1002
}
1002
{
1000
OTHER
1070
     0
1002
}
1002
{
1000
REACTOR
1002
}
  0
LINE
  5
1523
  8
SAPA_BESLAG
 10
99.050000078597805
 20
125.49999999706959
 30
0.0
 11
100.0500000715119
 21
125.49999999706959
 31
0.0
1001
GENIUS_GENREC_14
1002
{
1000
PYDIR
1011
99.050000078597805
1021
0.0
1031
0.0
1021
111.4999999970687
1031
0.0
1002
}
1002
{
1000
PXDIR
1011
100.0500000715119
1021
0.0
1031
0.0
1021
125.49999999706959
1031
0.0
1002
}
1002
{
1000
PORI
1011
99.050000078597805
1021
0.0
1031
0.0
1021
125.49999999706959
1031
0.0
1002
}
1002
{
1000
PINS
1011
99.050000078597805
1021
0.0
1031
0.0
1021
125.49999999706959
1031
0.0
1002
}
1002
{
1000
PINS2
1011
100.0500000715119
1021
0.0
1031
0.0
1021
111.4999999970687
1031
0.0
1002
}
1002
{
1000
C
1070
     1
1002
}
1001
GENIUS_GENODEF_13
1002
{
1000
HIER
1070
     0
1002
}
1002
{
1000
MANEDIT
1070
     0
1002
}
1002
{
1000
NOSEL
1070
     0
1002
}
1002
{
1000
BEHIND
1070
     0
1002
}
1002
{
1000
OTHER
1070
     0
1002
}
1002
{
1000
REACTOR
1002
}
1001
GENIUS_GENOBJ-N-REC_13
1002
{
1000
OWNER
1000
GEN
1002
}
  0
LINE
  5
1524
  8
SAPA_BESLAG
 10
100.0500000715119
 20
125.49999999706959
 30
0.0
 11
100.0500000715119
 21
111.4999999970687
 31
0.0
1001
GENIUS_GENREC_14
1002
{
1000
PYDIR
1011
99.050000078597805
1021
0.0
1031
0.0
1021
111.4999999970687
1031
0.0
1002
}
1002
{
1000
PXDIR
1011
100.0500000715119
1021
0.0
1031
0.0
1021
125.49999999706959
1031
0.0
1002
}
1002
{
1000
PORI
1011
99.050000078597805
1021
0.0
1031
0.0
1021
125.49999999706959
1031
0.0
1002
}
1002
{
1000
PINS
1011
99.050000078597805
1021
0.0
1031
0.0
1021
125.49999999706959
1031
0.0
1002
}
1002
{
1000
PINS2
1011
100.0500000715119
1021
0.0
1031
0.0
1021
111.4999999970687
1031
0.0
1002
}
1002
{
1000
C
1070
     1
1002
}
1001
GENIUS_GENODEF_13
1002
{
1000
HIER
1070
     0
1002
}
1002
{
1000
MANEDIT
1070
     0
1002
}
1002
{
1000
NOSEL
1070
     0
1002
}
1002
{
1000
BEHIND
1070
     0
1002
}
1002
{
1000
OTHER
1070
     0
1002
}
1002
{
1000
REACTOR
1002
}
1001
GENIUS_GENOBJ-N-REC_13
1002
{
1000
OWNER
1000
GEN
1002
}
  0
LINE
  5
1525
  8
SAPA_BESLAG
 10
100.0500000715119
 20
111.4999999970687
 30
0.0
 11
99.050000078597805
 21
111.4999999970687
 31
0.0
1001
GENIUS_GENREC_14
1002
{
1000
PYDIR
1011
99.050000078597805
1021
0.0
1031
0.0
1021
111.4999999970687
1031
0.0
1002
}
1002
{
1000
PXDIR
1011
100.0500000715119
1021
0.0
1031
0.0
1021
125.49999999706959
1031
0.0
1002
}
1002
{
1000
PORI
1011
99.050000078597805
1021
0.0
1031
0.0
1021
125.49999999706959
1031
0.0
1002
}
1002
{
1000
PINS
1011
99.050000078597805
1021
0.0
1031
0.0
1021
125.49999999706959
1031
0.0
1002
}
1002
{
1000
PINS2
1011
100.0500000715119
1021
0.0
1031
0.0
1021
111.4999999970687
1031
0.0
1002
}
1002
{
1000
C
1070
     1
1002
}
1001
GENIUS_GENODEF_13
1002
{
1000
HIER
1070
     0
1002
}
1002
{
1000
MANEDIT
1070
     0
1002
}
1002
{
1000
NOSEL
1070
     0
1002
}
1002
{
1000
BEHIND
1070
     0
1002
}
1002
{
1000
OTHER
1070
     0
1002
}
1002
{
1000
REACTOR
1002
}
1001
GENIUS_GENOBJ-N-REC_13
1002
{
1000
OWNER
1000
GEN
1002
}
  0
LINE
  5
1526
  8
SAPA_BESLAG
 10
99.050000078597805
 20
111.4999999970687
 30
0.0
 11
99.050000078597805
 21
125.49999999706959
 31
0.0
1001
GENIUS_GENREC_14
1002
{
1000
PYDIR
1011
99.050000078597805
1021
0.0
1031
0.0
1021
111.4999999970687
1031
0.0
1002
}
1002
{
1000
PXDIR
1011
100.0500000715119
1021
0.0
1031
0.0
1021
125.49999999706959
1031
0.0
1002
}
1002
{
1000
PORI
1011
99.050000078597805
1021
0.0
1031
0.0
1021
125.49999999706959
1031
0.0
1002
}
1002
{
1000
PINS
1011
99.050000078597805
1021
0.0
1031
0.0
1021
125.49999999706959
1031
0.0
1002
}
1002
{
1000
PINS2
1011
100.0500000715119
1021
0.0
1031
0.0
1021
111.4999999970687
1031
0.0
1002
}
1002
{
1000
C
1070
     1
1002
}
1001
GENIUS_GENODEF_13
1002
{
1000
HIER
1070
     0
1002
}
1002
{
1000
MANEDIT
1070
     0
1002
}
1002
{
1000
NOSEL
1070
     0
1002
}
1002
{
1000
BEHIND
1070
     0
1002
}
1002
{
1000
OTHER
1070
     0
1002
}
1002
{
1000
REACTOR
1002
}
1001
GENIUS_GENOBJ-N-REC_13
1002
{
1000
OWNER
1000
GEN
1002
}
  0
LINE
  5
1527
  8
SAPA_BESLAG
 10
120.45000007151241
 20
130.40001200102179
 30
0.0
 11
120.45000007151241
 21
102.7500000000077
 31
0.0
  0
LINE
  5
1528
  8
SAPA_BESLAG
 10
120.45000007151241
 20
102.7500000000077
 30
0.0
 11
120.2000000715056
 21
102.50000000000129
 31
0.0
  0
LINE
  5
1529
  8
SAPA_BESLAG
 10
120.2000000715056
 20
102.50000000000129
 30
0.0
 11
117.6994898142957
 21
102.50000000000129
 31
0.0
  0
ARC
  5
152A
  8
SAPA_BESLAG
 10
115.2500000715124
 20
100.00000000000119
 30
0.0
 40
3.5000000000001359
 50
45.584691402807067
 51
134.4153085971929
  0
LINE
  5
152B
  8
SAPA_BESLAG
 10
112.8005103287291
 20
102.50000000000129
 30
0.0
 11
107.6994898142957
 21
102.50000000000129
 31
0.0
  0
ARC
  5
152C
  8
SAPA_BESLAG
 10
105.2500000715124
 20
100.00000000000129
 30
0.0
 40
3.500000000000095
 50
45.584691402806421
 51
134.41530859719359
  0
LINE
  5
152D
  8
SAPA_BESLAG
 10
102.8005103287291
 20
102.50000000000129
 30
0.0
 11
100.3000000715187
 21
102.50000000000129
 31
0.0
  0
LINE
  5
152E
  8
SAPA_BESLAG
 10
100.3000000715187
 20
102.50000000000129
 30
0.0
 11
100.0500000715119
 21
102.7500000000077
 31
0.0
  0
LINE
  5
152F
  8
SAPA_BESLAG
 10
100.0500000715119
 20
102.7500000000077
 30
0.0
 11
100.0500000715119
 21
130.40001200102179
 31
0.0
  0
ARC
  5
1530
  8
SAPA_BESLAG
 10
94.250000078559196
 20
107.50000000350489
 30
0.0
 40
0.5000000000002274
 50
179.99999999992181
 51
269.99999999997391
  0
LINE
  5
1531
  8
SAPA_BESLAG
 10
94.250000078558969
 20
107.0000000035047
 30
0.0
 11
98.550000078561894
 21
107.0000000035047
 31
0.0
  0
ARC
  5
1532
  8
SAPA_BESLAG
 10
98.550000078561894
 20
107.5000000035047
 30
0.0
 40
0.5
 50
270.0
 51
0.0
  0
LINE
  5
1533
  8
SAPA_BESLAG
 10
99.050000078561865
 20
107.5000000035047
 30
0.0
 11
99.050000078561865
 21
126.9341737547015
 31
0.0
  0
ARC
  5
1534
  8
SAPA_BESLAG
 10
98.550000078584645
 20
126.9341737546962
 30
0.0
 40
0.4999999999772342
 50
0.0000000006139234
 51
15.00000000154491
  0
LINE
  5
1535
  8
SAPA_BESLAG
 10
99.032962991703712
 20
127.06358327725449
 30
0.0
 11
98.34545192040332
 21
129.62940952606411
 31
0.0
  0
ARC
  5
1536
  8
SAPA_BESLAG
 10
97.862489007260677
 20
129.50000000350559
 30
0.0
 40
0.5000000000000591
 50
15.00000000086257
 51
89.999999999957666
  0
LINE
  5
1537
  8
SAPA_BESLAG
 10
97.862489007261047
 20
130.00000000350559
 30
0.0
 11
96.044690827541217
 21
130.00000000350559
 31
0.0
  0
ARC
  5
1538
  8
SAPA_BESLAG
 10
96.044690827538574
 20
129.5000000035142
 30
0.0
 40
0.4999999999914167
 50
89.999999999698744
 51
165.00000000130001
  0
LINE
  5
1539
  8
SAPA_BESLAG
 10
95.561727914399384
 20
129.62940952605231
 30
0.0
 11
94.849299498440345
 21
126.9705904808656
 31
0.0
  0
ARC
  5
153A
  8
SAPA_BESLAG
 10
94.366336585291805
 20
127.1000000034025
 30
0.0
 40
0.5000000000001456
 50
270.00000000004229
 51
345.00000000171781
  0
LINE
  5
153B
  8
SAPA_BESLAG
 10
94.366336585292174
 20
126.6000000034023
 30
0.0
 11
92.133663571156376
 21
126.6000000034032
 31
0.0
  0
ARC
  5
153C
  8
SAPA_BESLAG
 10
92.133663571148375
 20
127.1000000033993
 30
0.0
 40
0.4999999999960494
 50
216.86989775071089
 51
270.00000000091683
  0
ARC
  5
153D
  8
SAPA_BESLAG
 10
91.333663572244674
 20
126.5000000019439
 30
0.0
 40
0.5000000000001421
 50
36.869897749772953
 51
90.000000011651537
  0
LINE
  5
153E
  8
SAPA_BESLAG
 10
91.333663572142996
 20
127.000000001944
 30
0.0
 11
84.250000077001914
 21
127.0000000005116
 31
0.0
  0
ARC
  5
153F
  8
SAPA_BESLAG
 10
84.250000077103778
 20
126.5000000005116
 30
0.0
 40
0.5
 50
90.000000011672682
 51
180.0
  0
LINE
  5
1540
  8
SAPA_BESLAG
 10
83.750000077103778
 20
126.5000000005116
 30
0.0
 11
83.750000077118315
 21
124.1000000035051
 31
0.0
  0
ARC
  5
1541
  8
SAPA_BESLAG
 10
84.25000007711833
 20
124.1000000035051
 30
0.0
 40
0.5
 50
180.0
 51
270.0
  0
LINE
  5
1542
  8
SAPA_BESLAG
 10
84.25000007711833
 20
123.6000000035051
 30
0.0
 11
92.250000078558955
 21
123.600000003506
 31
0.0
  0
ARC
  5
1543
  8
SAPA_BESLAG
 10
92.250000078558955
 20
122.100000003506
 30
0.0
 40
1.5
 50
0.0
 51
90.0
  0
LINE
  5
1544
  8
SAPA_BESLAG
 10
93.750000078558969
 20
122.100000003506
 30
0.0
 11
93.750000078573521
 21
118.84641016497559
 31
0.0
  0
LINE
  5
1545
  8
SAPA_BESLAG
 10
93.750000078573521
 20
118.84641016497559
 30
0.0
 11
93.950000078541507
 21
118.5000000035065
 31
0.0
  0
LINE
  5
1546
  8
SAPA_BESLAG
 10
93.950000078541507
 20
118.5000000035065
 30
0.0
 11
93.750000078558969
 21
118.15358984198841
 31
0.0
  0
LINE
  5
1547
  8
SAPA_BESLAG
 10
93.750000078558969
 20
118.15358984198841
 30
0.0
 11
93.750000078573521
 21
116.8464101649929
 31
0.0
  0
LINE
  5
1548
  8
SAPA_BESLAG
 10
93.750000078573521
 20
116.8464101649929
 30
0.0
 11
93.950000078541507
 21
116.5000000035047
 31
0.0
  0
LINE
  5
1549
  8
SAPA_BESLAG
 10
93.950000078541507
 20
116.5000000035047
 30
0.0
 11
93.750000078558969
 21
116.1535898419865
 31
0.0
  0
LINE
  5
154A
  8
SAPA_BESLAG
 10
93.750000078558969
 20
116.1535898419865
 30
0.0
 11
93.750000078558969
 21
107.5000000035056
 31
0.0
  0
ARC
  5
154B
  8
SAPA_BESLAG
 10
126.2500000790244
 20
107.50000000350489
 30
0.0
 40
0.5000000000002274
 50
270.00000000002598
 51
0.0000000000781653
  0
LINE
  5
154C
  8
SAPA_BESLAG
 10
126.2500000790246
 20
107.0000000035047
 30
0.0
 11
121.95000007902171
 21
107.0000000035047
 31
0.0
  0
ARC
  5
154D
  8
SAPA_BESLAG
 10
121.95000007902171
 20
107.5000000035047
 30
0.0
 40
0.5
 50
180.0
 51
270.0
  0
LINE
  5
154E
  8
SAPA_BESLAG
 10
121.45000007902171
 20
107.5000000035047
 30
0.0
 11
121.45000007902171
 21
126.9341737547015
 31
0.0
  0
ARC
  5
154F
  8
SAPA_BESLAG
 10
121.9500000789989
 20
126.9341737546962
 30
0.0
 40
0.4999999999772342
 50
164.99999999845511
 51
179.99999999938601
  0
LINE
  5
1550
  8
SAPA_BESLAG
 10
121.4670371658799
 20
127.06358327725449
 30
0.0
 11
122.15454823718029
 21
129.62940952606411
 31
0.0
  0
ARC
  5
1551
  8
SAPA_BESLAG
 10
122.63751115032289
 20
129.50000000350559
 30
0.0
 40
0.5000000000000591
 50
90.000000000042334
 51
164.9999999991374
  0
LINE
  5
1552
  8
SAPA_BESLAG
 10
122.6375111503225
 20
130.00000000350559
 30
0.0
 11
124.4553093300424
 21
130.00000000350559
 31
0.0
  0
ARC
  5
1553
  8
SAPA_BESLAG
 10
124.455309330045
 20
129.5000000035142
 30
0.0
 40
0.4999999999914167
 50
14.999999998699931
 51
90.000000000301256
  0
LINE
  5
1554
  8
SAPA_BESLAG
 10
124.9382722431842
 20
129.62940952605231
 30
0.0
 11
125.6507006591428
 21
126.9705904808656
 31
0.0
  0
ARC
  5
1555
  8
SAPA_BESLAG
 10
126.1336635722915
 20
127.1000000034028
 30
0.0
 40
0.5000000000004388
 50
194.99999999830689
 51
269.9999999999838
  0
LINE
  5
1556
  8
SAPA_BESLAG
 10
126.1336635722914
 20
126.6000000034023
 30
0.0
 11
128.3663365864272
 21
126.6000000034032
 31
0.0
  0
ARC
  5
1557
  8
SAPA_BESLAG
 10
128.36633658643521
 20
127.1000000033993
 30
0.0
 40
0.4999999999960494
 50
269.99999999908158
 51
323.13010224928809
  0
ARC
  5
1558
  8
SAPA_BESLAG
 10
129.16633658533891
 20
126.5000000019439
 30
0.0
 40
0.5000000000001308
 50
89.999999988346858
 51
143.130102250226
  0
LINE
  5
1559
  8
SAPA_BESLAG
 10
129.1663365854406
 20
127.000000001944
 30
0.0
 11
136.25000008058171
 21
127.0000000005116
 31
0.0
  0
ARC
  5
155A
  8
SAPA_BESLAG
 10
136.25000008047979
 20
126.5000000005116
 30
0.0
 40
0.5
 50
0.0
 51
89.999999988327318
  0
LINE
  5
155B
  8
SAPA_BESLAG
 10
136.75000008047979
 20
126.5000000005116
 30
0.0
 11
136.75000008046521
 21
124.1000000035051
 31
0.0
  0
ARC
  5
155C
  8
SAPA_BESLAG
 10
136.2500000804653
 20
124.1000000035051
 30
0.0
 40
0.5
 50
270.0
 51
0.0
  0
LINE
  5
155D
  8
SAPA_BESLAG
 10
136.2500000804653
 20
123.6000000035051
 30
0.0
 11
128.2500000790246
 21
123.600000003506
 31
0.0
  0
ARC
  5
155E
  8
SAPA_BESLAG
 10
128.2500000790246
 20
122.100000003506
 30
0.0
 40
1.5
 50
90.0
 51
180.0
  0
LINE
  5
155F
  8
SAPA_BESLAG
 10
126.7500000790246
 20
122.100000003506
 30
0.0
 11
126.75000007900999
 21
118.84641016497559
 31
0.0
  0
LINE
  5
1560
  8
SAPA_BESLAG
 10
126.75000007900999
 20
118.84641016497559
 30
0.0
 11
126.55000007904211
 21
118.5000000035065
 31
0.0
  0
LINE
  5
1561
  8
SAPA_BESLAG
 10
126.55000007904211
 20
118.5000000035065
 30
0.0
 11
126.7500000790246
 21
118.15358984198841
 31
0.0
  0
LINE
  5
1562
  8
SAPA_BESLAG
 10
126.7500000790246
 20
118.15358984198841
 30
0.0
 11
126.75000007900999
 21
116.8464101649929
 31
0.0
  0
LINE
  5
1563
  8
SAPA_BESLAG
 10
126.75000007900999
 20
116.8464101649929
 30
0.0
 11
126.55000007904211
 21
116.5000000035047
 31
0.0
  0
LINE
  5
1564
  8
SAPA_BESLAG
 10
126.55000007904211
 20
116.5000000035047
 30
0.0
 11
126.7500000790246
 21
116.1535898419865
 31
0.0
  0
LINE
  5
1565
  8
SAPA_BESLAG
 10
126.7500000790246
 20
116.1535898419865
 30
0.0
 11
126.7500000790246
 21
107.5000000035056
 31
0.0
  0
LINE
  5
1566
  8
SAPA_FOGBAND
 10
77.350432603727313
 20
126.6363994912217
 30
0.0
 11
81.564883243741406
 21
126.74639687640411
 31
0.0
  0
LINE
  5
1567
  8
SAPA_FOGBAND
 10
81.564883243741406
 20
126.74639687640411
 30
0.0
 11
81.564306744866826
 21
129.18449021682591
 31
0.0
  0
LINE
  5
1568
  8
SAPA_FOGBAND
 10
81.564306744866826
 20
129.18449021682591
 30
0.0
 11
77.350432603727313
 21
128.0590890943613
 31
0.0
  0
LINE
  5
1569
  8
SAPA_FOGBAND
 10
77.350432603727313
 20
124.9137098880792
 30
0.0
 11
81.564476459333946
 21
123.7882632907631
 31
0.0
  0
LINE
  5
156A
  8
SAPA_FOGBAND
 10
81.564476459333946
 20
123.7882632907631
 30
0.0
 11
81.564912600154003
 21
126.2264013373123
 31
0.0
  0
LINE
  5
156B
  8
SAPA_FOGBAND
 10
81.564912600154003
 20
126.2264013373123
 30
0.0
 11
77.350432603727313
 21
126.3363994912188
 31
0.0
  0
LINE
  5
156C
  8
SAPA_FOGBAND
 10
76.550432603726222
 20
129.63639949121901
 30
0.0
 11
77.350432603727313
 21
129.63639949121901
 31
0.0
  0
LINE
  5
156D
  8
SAPA_FOGBAND
 10
77.350432603727313
 20
129.63639949121901
 30
0.0
 11
77.350432603727313
 21
123.3363994912215
 31
0.0
  0
LINE
  5
156E
  8
SAPA_FOGBAND
 10
77.350432603727313
 20
123.3363994912215
 30
0.0
 11
76.550432603726222
 21
123.3363994912215
 31
0.0
  0
LINE
  5
156F
  8
SAPA_FOGBAND
 10
76.550432603726222
 20
123.3363994912215
 30
0.0
 11
76.550432603726222
 21
129.63639949121901
 31
0.0
  0
LINE
  5
1570
  8
SAPA_FOGBAND
 10
77.350432603727313
 20
135.1363994912262
 30
0.0
 11
81.999732361065995
 21
135.24639687640769
 31
0.0
  0
LINE
  5
1571
  8
SAPA_FOGBAND
 10
81.999732361065995
 20
135.24639687640769
 30
0.0
 11
81.999155862191387
 21
137.6844902168304
 31
0.0
  0
LINE
  5
1572
  8
SAPA_FOGBAND
 10
81.999155862191387
 20
137.6844902168304
 30
0.0
 11
77.350432603727313
 21
136.55908909436579
 31
0.0
  0
LINE
  5
1573
  8
SAPA_FOGBAND
 10
77.350432603727313
 20
133.4137098880837
 30
0.0
 11
81.999325576658507
 21
132.28826329076759
 31
0.0
  0
LINE
  5
1574
  8
SAPA_FOGBAND
 10
81.999325576658507
 20
132.28826329076759
 30
0.0
 11
81.999761717478577
 21
134.72640133731599
 31
0.0
  0
LINE
  5
1575
  8
SAPA_FOGBAND
 10
81.999761717478577
 20
134.72640133731599
 30
0.0
 11
77.350432603727313
 21
134.83639949122329
 31
0.0
  0
LINE
  5
1576
  8
SAPA_FOGBAND
 10
76.550432603726222
 20
138.13639949122259
 30
0.0
 11
77.350432603727313
 21
138.13639949122259
 31
0.0
  0
LINE
  5
1577
  8
SAPA_FOGBAND
 10
77.350432603727313
 20
138.13639949122259
 30
0.0
 11
77.350432603727313
 21
131.83639949122599
 31
0.0
  0
LINE
  5
1578
  8
SAPA_FOGBAND
 10
77.350432603727313
 20
131.83639949122599
 30
0.0
 11
76.550432603726222
 21
131.83639949122599
 31
0.0
  0
LINE
  5
1579
  8
SAPA_FOGBAND
 10
76.550432603726222
 20
131.83639949122599
 30
0.0
 11
76.550432603726222
 21
138.13639949122259
 31
0.0
  0
LINE
  5
157A
  8
SAPA_FOGBAND
 10
143.149567539961
 20
126.6363994912217
 30
0.0
 11
138.8244100194965
 21
126.74639687640411
 31
0.0
  0
LINE
  5
157B
  8
SAPA_FOGBAND
 10
138.8244100194965
 20
126.74639687640411
 30
0.0
 11
138.82498651837111
 21
129.18449021682591
 31
0.0
  0
LINE
  5
157C
  8
SAPA_FOGBAND
 10
138.82498651837111
 20
129.18449021682591
 30
0.0
 11
143.149567539961
 21
128.0590890943613
 31
0.0
  0
LINE
  5
157D
  8
SAPA_FOGBAND
 10
143.149567539961
 20
124.9137098880792
 30
0.0
 11
138.82481680390401
 21
123.7882632907631
 31
0.0
  0
LINE
  5
157E
  8
SAPA_FOGBAND
 10
138.82481680390401
 20
123.7882632907631
 30
0.0
 11
138.8243806630839
 21
126.2264013373123
 31
0.0
  0
LINE
  5
157F
  8
SAPA_FOGBAND
 10
138.8243806630839
 20
126.2264013373123
 30
0.0
 11
143.149567539961
 21
126.3363994912188
 31
0.0
  0
LINE
  5
1580
  8
SAPA_FOGBAND
 10
143.94956753996209
 20
129.63639949121901
 30
0.0
 11
143.149567539961
 21
129.63639949121901
 31
0.0
  0
LINE
  5
1581
  8
SAPA_FOGBAND
 10
143.149567539961
 20
129.63639949121901
 30
0.0
 11
143.149567539961
 21
123.3363994912215
 31
0.0
  0
LINE
  5
1582
  8
SAPA_FOGBAND
 10
143.149567539961
 20
123.3363994912215
 30
0.0
 11
143.94956753996209
 21
123.3363994912215
 31
0.0
  0
LINE
  5
1583
  8
SAPA_FOGBAND
 10
143.94956753996209
 20
123.3363994912215
 30
0.0
 11
143.94956753996209
 21
129.63639949121901
 31
0.0
  0
LINE
  5
1584
  8
SAPA_FOGBAND
 10
143.149567539961
 20
135.1363994912262
 30
0.0
 11
138.40273354497461
 21
135.24639687640769
 31
0.0
  0
LINE
  5
1585
  8
SAPA_FOGBAND
 10
138.40273354497461
 20
135.24639687640769
 30
0.0
 11
138.4033100438491
 21
137.6844902168304
 31
0.0
  0
LINE
  5
1586
  8
SAPA_FOGBAND
 10
138.4033100438491
 20
137.6844902168304
 30
0.0
 11
143.149567539961
 21
136.55908909436579
 31
0.0
  0
LINE
  5
1587
  8
SAPA_FOGBAND
 10
143.149567539961
 20
133.4137098880837
 30
0.0
 11
138.40314032938201
 21
132.28826329076759
 31
0.0
  0
LINE
  5
1588
  8
SAPA_FOGBAND
 10
138.40314032938201
 20
132.28826329076759
 30
0.0
 11
138.4027041885619
 21
134.72640133731599
 31
0.0
  0
LINE
  5
1589
  8
SAPA_FOGBAND
 10
138.4027041885619
 20
134.72640133731599
 30
0.0
 11
143.149567539961
 21
134.83639949122329
 31
0.0
  0
LINE
  5
158A
  8
SAPA_FOGBAND
 10
143.94956753996209
 20
138.13639949122259
 30
0.0
 11
143.149567539961
 21
138.13639949122259
 31
0.0
  0
LINE
  5
158B
  8
SAPA_FOGBAND
 10
143.149567539961
 20
138.13639949122259
 30
0.0
 11
143.149567539961
 21
131.83639949122599
 31
0.0
  0
LINE
  5
158C
  8
SAPA_FOGBAND
 10
143.149567539961
 20
131.83639949122599
 30
0.0
 11
143.94956753996209
 21
131.83639949122599
 31
0.0
  0
LINE
  5
158D
  8
SAPA_FOGBAND
 10
143.94956753996209
 20
131.83639949122599
 30
0.0
 11
143.94956753996209
 21
138.13639949122259
 31
0.0
  0
ARC
  5
158E
  8
SAPA_FOGBAND
 10
112.07509849823499
 20
101.9000000000016
 30
0.0
 40
0.2000000000002316
 50
329.10185217478852
 51
96.896273209721102
  0
ARC
  5
158F
  8
SAPA_FOGBAND
 10
115.25000007151191
 20
100.0000000000009
 30
0.0
 40
3.4999999999996532
 50
149.10185217474901
 51
210.13272183100671
  0
ARC
  5
1590
  8
SAPA_FOGBAND
 10
112.050000071512
 20
98.142582437900344
 30
0.0
 40
0.2000000000002637
 50
330.00000000004962
 51
30.132721831060291
  0
LINE
  5
1591
  8
SAPA_FOGBAND
 10
112.2232051522692
 20
98.042582437900364
 30
0.0
 11
111.70787244147409
 21
97.15000000000191
 31
0.0
  0
ARC
  5
1592
  8
SAPA_FOGBAND
 10
111.4480648203388
 20
97.300000000001774
 30
0.0
 40
0.299999999999949
 50
270.00000000002439
 51
330.00000000002439
  0
LINE
  5
1593
  8
SAPA_FOGBAND
 10
111.4480648203389
 20
97.000000000001819
 30
0.0
 11
109.05193532268549
 21
97.000000000001819
 31
0.0
  0
ARC
  5
1594
  8
SAPA_FOGBAND
 10
109.05193532268559
 20
97.300000000001774
 30
0.0
 40
0.2999999999999545
 50
209.9999999999755
 51
269.9999999999755
  0
LINE
  5
1595
  8
SAPA_FOGBAND
 10
108.7921277015502
 20
97.15000000000191
 30
0.0
 11
108.2767949907556
 21
98.042582437900364
 31
0.0
  0
ARC
  5
1596
  8
SAPA_FOGBAND
 10
108.4500000715126
 20
98.142582437900742
 30
0.0
 40
0.200000000000262
 50
149.867278169071
 51
210.00000000008171
  0
ARC
  5
1597
  8
SAPA_FOGBAND
 10
105.2500000715127
 20
100.00000000000129
 30
0.0
 40
3.4999999999996461
 50
329.86727816898599
 51
30.898147825243651
  0
ARC
  5
1598
  8
SAPA_FOGBAND
 10
108.4249016447896
 20
101.9000000000017
 30
0.0
 40
0.2000000000001001
 50
83.103726790340133
 51
210.89814782526949
  0
ARC
  5
1599
  8
SAPA_FOGBAND
 10
110.2500000715122
 20
116.9900303423406
 30
0.0
 40
14.999999999997661
 50
263.1037267903157
 51
276.8962732096843
  0
LINE
  5
159A
  8
SAPA_GLAS
 10
128.24999993584831
 20
168.99999999999039
 30
0.0
 11
128.24999993584831
 21
136.99999999999039
 31
0.0
  0
LINE
  5
159B
  8
SAPA_GLAS
 10
128.24999993584831
 20
136.99999999999039
 30
0.0
 11
136.24999993584831
 21
136.99999999999039
 31
0.0
  0
LINE
  5
159C
  8
SAPA_GLAS
 10
136.24999993584831
 20
136.99999999999039
 30
0.0
 11
136.24999993584831
 21
168.99999999999039
 31
0.0
  0
LINE
  5
159D
  8
SAPA_GLAS
 10
128.24999993584831
 20
146.99999999999039
 30
0.0
 11
113.24999993584829
 21
146.99999999999039
 31
0.0
  0
LINE
  5
159E
  8
SAPA_GLAS
 10
113.24999993584829
 20
146.99999999999039
 30
0.0
 11
113.24999993584829
 21
136.99999999999039
 31
0.0
  0
LINE
  5
159F
  8
SAPA_GLAS
 10
113.24999993584829
 20
136.99999999999039
 30
0.0
 11
128.24999993584831
 21
136.99999999999039
 31
0.0
  0
LINE
  5
15A0
  8
SAPA_GLAS
 10
128.24999993584831
 20
136.99999999999039
 30
0.0
 11
128.24999993584831
 21
146.99999999999039
 31
0.0
  0
LINE
  5
15A1
  8
SAPA_GLAS
 10
107.24999993584829
 20
168.99999999999039
 30
0.0
 11
107.24999993584829
 21
136.99999999999039
 31
0.0
  0
LINE
  5
15A2
  8
SAPA_GLAS
 10
107.24999993584829
 20
136.99999999999039
 30
0.0
 11
113.24999993584829
 21
136.99999999999039
 31
0.0
  0
LINE
  5
15A3
  8
SAPA_GLAS
 10
113.24999993584829
 20
136.99999999999039
 30
0.0
 11
113.24999993584829
 21
168.99999999999039
 31
0.0
  0
LINE
  5
15A4
  8
SAPA_GLAS
 10
136.99999993620349
 20
137.04603628404641
 30
0.0
 11
136.24999993586471
 21
137.79603628438531
 31
0.0
1001
ACAD
1010
0.0
1020
0.0
1030
0.0
  0
LINE
  5
15A5
  8
SAPA_GLAS
 10
136.99999993620469
 20
138.1685682991789
 30
0.0
 11
136.24999993586471
 21
138.91856829951891
 31
0.0
1001
ACAD
1010
0.0
1020
0.0
1030
0.0
  0
LINE
  5
15A6
  8
SAPA_GLAS
 10
136.999999936206
 20
139.29110031431131
 30
0.0
 11
136.24999993586471
 21
140.0411003146526
 31
0.0
1001
ACAD
1010
0.0
1020
0.0
1030
0.0
  0
LINE
  5
15A7
  8
SAPA_GLAS
 10
136.99999993620719
 20
140.41363232944369
 30
0.0
 11
136.24999993586471
 21
141.1636323297862
 31
0.0
1001
ACAD
1010
0.0
1020
0.0
1030
0.0
  0
LINE
  5
15A8
  8
SAPA_GLAS
 10
136.99999993620841
 20
141.53616434457609
 30
0.0
 11
136.24999993586471
 21
142.2861643449198
 31
0.0
1001
ACAD
1010
0.0
1020
0.0
1030
0.0
  0
LINE
  5
15A9
  8
SAPA_GLAS
 10
136.99999993620969
 20
142.6586963597085
 30
0.0
 11
136.24999993586471
 21
143.40869636005351
 31
0.0
1001
ACAD
1010
0.0
1020
0.0
1030
0.0
  0
LINE
  5
15AA
  8
SAPA_GLAS
 10
136.99999993621091
 20
143.78122837484091
 30
0.0
 11
136.24999993586471
 21
144.5312283751872
 31
0.0
1001
ACAD
1010
0.0
1020
0.0
1030
0.0
  0
LINE
  5
15AB
  8
SAPA_GLAS
 10
136.99999993621219
 20
144.90376038997331
 30
0.0
 11
136.24999993586471
 21
145.6537603903208
 31
0.0
1001
ACAD
1010
0.0
1020
0.0
1030
0.0
  0
LINE
  5
15AC
  8
SAPA_GLAS
 10
136.99999993621341
 20
146.02629240510569
 30
0.0
 11
136.24999993586471
 21
146.7762924054544
 31
0.0
1001
ACAD
1010
0.0
1020
0.0
1030
0.0
  0
LINE
  5
15AD
  8
SAPA_GLAS
 10
136.99999993621461
 20
147.1488244202381
 30
0.0
 11
136.24999993586471
 21
147.89882442058811
 31
0.0
1001
ACAD
1010
0.0
1020
0.0
1030
0.0
  0
LINE
  5
15AE
  8
SAPA_GLAS
 10
136.99999993621589
 20
148.27135643537051
 30
0.0
 11
136.24999993586471
 21
149.02135643572171
 31
0.0
1001
ACAD
1010
0.0
1020
0.0
1030
0.0
  0
LINE
  5
15AF
  8
SAPA_GLAS
 10
136.99999993621711
 20
149.39388845050291
 30
0.0
 11
136.5938883867185
 21
149.80000000000149
 31
0.0
1001
ACAD
1010
0.0
1020
0.0
1030
0.0
  0
LINE
  5
15B0
  8
SAPA_GLAS
 10
136.99999993620349
 20
137.00782828374119
 30
0.0
 11
136.99217165245179
 21
136.99999999998951
 31
0.0
1001
ACAD
1010
0.0
1020
0.0
1030
0.0
  0
LINE
  5
15B1
  8
SAPA_GLAS
 10
136.99999993620469
 20
138.1303602988761
 30
0.0
 11
136.24999993586471
 21
137.38036029853609
 31
0.0
1001
ACAD
1010
0.0
1020
0.0
1030
0.0
  0
LINE
  5
15B2
  8
SAPA_GLAS
 10
136.999999936206
 20
139.25289231401101
 30
0.0
 11
136.24999993586471
 21
138.50289231366969
 31
0.0
1001
ACAD
1010
0.0
1020
0.0
1030
0.0
  0
LINE
  5
15B3
  8
SAPA_GLAS
 10
136.99999993620719
 20
140.37542432914589
 30
0.0
 11
136.24999993586471
 21
139.6254243288034
 31
0.0
1001
ACAD
1010
0.0
1020
0.0
1030
0.0
  0
LINE
  5
15B4
  8
SAPA_GLAS
 10
136.99999993620841
 20
141.49795634428079
 30
0.0
 11
136.24999993586471
 21
140.74795634393701
 31
0.0
1001
ACAD
1010
0.0
1020
0.0
1030
0.0
  0
LINE
  5
15B5
  8
SAPA_GLAS
 10
136.99999993620969
 20
142.6204883594157
 30
0.0
 11
136.24999993586471
 21
141.87048835907069
 31
0.0
1001
ACAD
1010
0.0
1020
0.0
1030
0.0
  0
LINE
  5
15B6
  8
SAPA_GLAS
 10
136.99999993621091
 20
143.7430203745505
 30
0.0
 11
136.24999993586471
 21
142.99302037420429
 31
0.0
1001
ACAD
1010
0.0
1020
0.0
1030
0.0
  0
LINE
  5
15B7
  8
SAPA_GLAS
 10
136.99999993621219
 20
144.8655523896854
 30
0.0
 11
136.24999993586471
 21
144.11555238933789
 31
0.0
1001
ACAD
1010
0.0
1020
0.0
1030
0.0
  0
LINE
  5
15B8
  8
SAPA_GLAS
 10
136.99999993621341
 20
145.98808440482031
 30
0.0
 11
136.24999993586471
 21
145.23808440447161
 31
0.0
1001
ACAD
1010
0.0
1020
0.0
1030
0.0
  0
LINE
  5
15B9
  8
SAPA_GLAS
 10
136.99999993621461
 20
147.11061641995519
 30
0.0
 11
136.24999993586471
 21
146.36061641960521
 31
0.0
1001
ACAD
1010
0.0
1020
0.0
1030
0.0
  0
LINE
  5
15BA
  8
SAPA_GLAS
 10
136.99999993621589
 20
148.2331484350901
 30
0.0
 11
136.24999993586471
 21
147.48314843473889
 31
0.0
1001
ACAD
1010
0.0
1020
0.0
1030
0.0
  0
LINE
  5
15BB
  8
SAPA_GLAS
 10
136.99999993621711
 20
149.3556804502249
 30
0.0
 11
136.24999993586471
 21
148.60568044987249
 31
0.0
1001
ACAD
1010
0.0
1020
0.0
1030
0.0
  0
LINE
  5
15BC
  8
SAPA_GLAS
 10
136.3217874708601
 20
149.80000000000149
 30
0.0
 11
136.24999993586471
 21
149.72821246500621
 31
0.0
1001
ACAD
1010
0.0
1020
0.0
1030
0.0
  0
LINE
  5
15BD
  8
SAPA_GLAS
 10
84.249999935526375
 20
137.03703157344239
 30
0.0
 11
83.499999935186722
 21
137.787031573782
 31
0.0
1001
ACAD
1010
0.0
1020
0.0
1030
0.0
  0
LINE
  5
15BE
  8
SAPA_GLAS
 10
84.249999935526375
 20
138.15956358857599
 30
0.0
 11
83.499999935185485
 21
138.90956358891691
 31
0.0
1001
ACAD
1010
0.0
1020
0.0
1030
0.0
  0
LINE
  5
15BF
  8
SAPA_GLAS
 10
84.249999935526375
 20
139.28209560370959
 30
0.0
 11
83.499999935184235
 21
140.03209560405179
 31
0.0
1001
ACAD
1010
0.0
1020
0.0
1030
0.0
  0
LINE
  5
15C0
  8
SAPA_GLAS
 10
84.249999935526375
 20
140.40462761884331
 30
0.0
 11
83.499999935182998
 21
141.15462761918661
 31
0.0
1001
ACAD
1010
0.0
1020
0.0
1030
0.0
  0
LINE
  5
15C1
  8
SAPA_GLAS
 10
84.249999935526375
 20
141.52715963397691
 30
0.0
 11
83.499999935181776
 21
142.27715963432149
 31
0.0
1001
ACAD
1010
0.0
1020
0.0
1030
0.0
  0
LINE
  5
15C2
  8
SAPA_GLAS
 10
84.249999935526375
 20
142.64969164911059
 30
0.0
 11
83.499999935180526
 21
143.3996916494564
 31
0.0
1001
ACAD
1010
0.0
1020
0.0
1030
0.0
  0
LINE
  5
15C3
  8
SAPA_GLAS
 10
84.249999935526375
 20
143.77222366424419
 30
0.0
 11
83.499999935179289
 21
144.52222366459131
 31
0.0
1001
ACAD
1010
0.0
1020
0.0
1030
0.0
  0
LINE
  5
15C4
  8
SAPA_GLAS
 10
84.249999935526375
 20
144.89475567937791
 30
0.0
 11
83.499999935178067
 21
145.64475567972619
 31
0.0
1001
ACAD
1010
0.0
1020
0.0
1030
0.0
  0
LINE
  5
15C5
  8
SAPA_GLAS
 10
84.249999935526375
 20
146.01728769451151
 30
0.0
 11
83.499999935176817
 21
146.76728769486101
 31
0.0
1001
ACAD
1010
0.0
1020
0.0
1030
0.0
  0
LINE
  5
15C6
  8
SAPA_GLAS
 10
84.249999935526375
 20
147.1398197096452
 30
0.0
 11
83.499999935175595
 21
147.88981970999589
 31
0.0
1001
ACAD
1010
0.0
1020
0.0
1030
0.0
  0
LINE
  5
15C7
  8
SAPA_GLAS
 10
84.249999935526375
 20
148.2623517247788
 30
0.0
 11
83.499999935174344
 21
149.0123517251308
 31
0.0
1001
ACAD
1010
0.0
1020
0.0
1030
0.0
  0
LINE
  5
15C8
  8
SAPA_GLAS
 10
84.249999935526375
 20
149.3848837399124
 30
0.0
 11
83.834883675437283
 21
149.80000000000149
 31
0.0
1001
ACAD
1010
0.0
1020
0.0
1030
0.0
  0
LINE
  5
15C9
  8
SAPA_GLAS
 10
84.249999935526375
 20
137.01683299434541
 30
0.0
 11
84.233166941171376
 21
136.99999999999039
 31
0.0
1001
ACAD
1010
0.0
1020
0.0
1030
0.0
  0
LINE
  5
15CA
  8
SAPA_GLAS
 10
84.249999935526375
 20
138.13936500947901
 30
0.0
 11
83.499999935187162
 21
137.38936500913979
 31
0.0
1001
ACAD
1010
0.0
1020
0.0
1030
0.0
  0
LINE
  5
15CB
  8
SAPA_GLAS
 10
84.249999935526375
 20
139.26189702461269
 30
0.0
 11
83.49999993518594
 21
138.5118970242722
 31
0.0
1001
ACAD
1010
0.0
1020
0.0
1030
0.0
  0
LINE
  5
15CC
  8
SAPA_GLAS
 10
84.249999935526375
 20
140.38442903974629
 30
0.0
 11
83.49999993518469
 21
139.63442903940461
 31
0.0
1001
ACAD
1010
0.0
1020
0.0
1030
0.0
  0
LINE
  5
15CD
  8
SAPA_GLAS
 10
84.249999935526375
 20
141.50696105488001
 30
0.0
 11
83.499999935183467
 21
140.7569610545371
 31
0.0
1001
ACAD
1010
0.0
1020
0.0
1030
0.0
  0
LINE
  5
15CE
  8
SAPA_GLAS
 10
84.249999935526375
 20
142.62949307001361
 30
0.0
 11
83.499999935182217
 21
141.87949306966939
 31
0.0
1001
ACAD
1010
0.0
1020
0.0
1030
0.0
  0
LINE
  5
15CF
  8
SAPA_GLAS
 10
84.249999935526375
 20
143.7520250851473
 30
0.0
 11
83.499999935180995
 21
143.00202508480189
 31
0.0
1001
ACAD
1010
0.0
1020
0.0
1030
0.0
  0
LINE
  5
15D0
  8
SAPA_GLAS
 10
84.249999935526375
 20
144.8745571002809
 30
0.0
 11
83.499999935179744
 21
144.12455709993429
 31
0.0
1001
ACAD
1010
0.0
1020
0.0
1030
0.0
  0
LINE
  5
15D1
  8
SAPA_GLAS
 10
84.249999935526375
 20
145.9970891154145
 30
0.0
 11
83.499999935178536
 21
145.2470891150667
 31
0.0
1001
ACAD
1010
0.0
1020
0.0
1030
0.0
  0
LINE
  5
15D2
  8
SAPA_GLAS
 10
84.249999935526375
 20
147.11962113054821
 30
0.0
 11
83.499999935177271
 21
146.36962113019911
 31
0.0
1001
ACAD
1010
0.0
1020
0.0
1030
0.0
  0
LINE
  5
15D3
  8
SAPA_GLAS
 10
84.249999935526375
 20
148.24215314568181
 30
0.0
 11
83.499999935176035
 21
147.49215314533151
 31
0.0
1001
ACAD
1010
0.0
1020
0.0
1030
0.0
  0
LINE
  5
15D4
  8
SAPA_GLAS
 10
84.249999935526375
 20
149.3646851608155
 30
0.0
 11
83.499999935174799
 21
148.61468516046389
 31
0.0
1001
ACAD
1010
0.0
1020
0.0
1030
0.0
  0
LINE
  5
15D5
  8
SAPA_GLAS
 10
83.562782759578795
 20
149.80000000000149
 30
0.0
 11
83.499999935173577
 21
149.7372171755963
 31
0.0
1001
ACAD
1010
0.0
1020
0.0
1030
0.0
  0
LINE
  5
15D6
  8
SAPA_GLAS
 10
107.2499999356873
 20
146.99999999999039
 30
0.0
 11
92.249999935687356
 21
146.99999999999039
 31
0.0
  0
LINE
  5
15D7
  8
SAPA_GLAS
 10
92.249999935687356
 20
146.99999999999039
 30
0.0
 11
92.249999935687356
 21
136.99999999999039
 31
0.0
  0
LINE
  5
15D8
  8
SAPA_GLAS
 10
92.249999935687356
 20
136.99999999999039
 30
0.0
 11
107.2499999356873
 21
136.99999999999039
 31
0.0
  0
LINE
  5
15D9
  8
SAPA_GLAS
 10
107.2499999356873
 20
136.99999999999039
 30
0.0
 11
107.2499999356873
 21
146.99999999999039
 31
0.0
  0
LINE
  5
15DA
  8
SAPA_GLAS
 10
84.249999935687356
 20
168.99999999999039
 30
0.0
 11
84.249999935687356
 21
136.99999999999039
 31
0.0
  0
LINE
  5
15DB
  8
SAPA_GLAS
 10
84.249999935687356
 20
136.99999999999039
 30
0.0
 11
92.249999935687356
 21
136.99999999999039
 31
0.0
  0
LINE
  5
15DC
  8
SAPA_GLAS
 10
92.249999935687356
 20
136.99999999999039
 30
0.0
 11
92.249999935687356
 21
168.99999999999039
 31
0.0
  0
LINE
  5
15DD
  8
SAPA_PROFIL
 10
91.937738081903277
 20
127.0000000010218
 30
0.0
 11
94.03581043762324
 21
127.0000000010218
 31
0.0
  0
ARC
  5
15DE
  8
SAPA_PROFIL
 10
94.035810437623326
 20
128.0000000010217
 30
0.0
 40
0.9999999999998863
 50
269.99999999999511
 51
44.99999999998964
  0
LINE
  5
15DF
  8
SAPA_PROFIL
 10
94.742917218809907
 20
128.707106782208
 30
0.0
 11
93.437867965641075
 21
130.0121560353773
 31
0.0
  0
ARC
  5
15E0
  8
SAPA_PROFIL
 10
93.225735931284618
 20
129.8000240010212
 30
0.0
 40
0.3000000000004365
 50
44.999999999946269
 51
89.999999999962014
  0
LINE
  5
15E1
  8
SAPA_PROFIL
 10
93.225735931284817
 20
130.10002400102161
 30
0.0
 11
92.639230484538075
 21
130.10002400102161
 31
0.0
  0
ARC
  5
15E2
  8
SAPA_PROFIL
 10
92.639230484538572
 20
129.80002400102131
 30
0.0
 40
0.300000000000324
 50
90.000000000094985
 51
120.000000000094
  0
LINE
  5
15E3
  8
SAPA_PROFIL
 10
92.489230484537984
 20
130.05983162215671
 30
0.0
 11
90.999999999996817
 21
129.20002400102149
 31
0.0
  0
LINE
  5
15E4
  8
SAPA_PROFIL
 10
90.999999999996817
 20
129.20002400102149
 30
0.0
 11
90.549999999996984
 21
129.20001200102161
 31
0.0
  0
ARC
  5
15E5
  8
SAPA_PROFIL
 10
90.549999999997226
 20
129.5000120010215
 30
0.0
 40
0.2999999999999545
 50
179.99999999995649
 51
269.99999999995657
  0
LINE
  5
15E6
  8
SAPA_PROFIL
 10
90.249999999997257
 20
129.50001200102179
 30
0.0
 11
90.249999999997257
 21
133.10002400102161
 31
0.0
  0
ARC
  5
15E7
  8
SAPA_PROFIL
 10
90.549999999997226
 20
133.10002400102189
 30
0.0
 40
0.2999999999999545
 50
90.000000000043414
 51
180.0000000000434
  0
LINE
  5
15E8
  8
SAPA_PROFIL
 10
90.549999999996984
 20
133.40002400102179
 30
0.0
 11
90.999999999997272
 21
133.40002400102179
 31
0.0
  0
LINE
  5
15E9
  8
SAPA_PROFIL
 10
90.999999999997272
 20
133.40002400102179
 30
0.0
 11
92.489260131071646
 21
132.54019926345291
 31
0.0
  0
ARC
  5
15EA
  8
SAPA_PROFIL
 10
92.639260131071524
 20
132.80000688458779
 30
0.0
 40
0.2999999999995429
 50
239.99999999997971
 51
269.9963531325393
  0
LINE
  5
15EB
  8
SAPA_PROFIL
 10
92.639241036118165
 20
132.50000688519589
 30
0.0
 11
92.749999999997257
 21
132.49999983540511
 31
0.0
  0
LINE
  5
15EC
  8
SAPA_PROFIL
 10
92.749999999997257
 20
132.49999983540511
 30
0.0
 11
92.749999999997257
 21
134.5000000010109
 31
0.0
  0
ARC
  5
15ED
  8
SAPA_PROFIL
 10
92.249999999997272
 20
134.5000000010109
 30
0.0
 40
0.5
 50
0.0
 51
90.0
  0
LINE
  5
15EE
  8
SAPA_PROFIL
 10
92.249999999997272
 20
135.0000000010109
 30
0.0
 11
87.000000001371504
 21
135.0000000010109
 31
0.0
  0
ARC
  5
15EF
  8
SAPA_PROFIL
 10
87.000000001371504
 20
134.5000000010109
 30
0.0
 40
0.5
 50
90.0
 51
180.0
  0
LINE
  5
15F0
  8
SAPA_PROFIL
 10
86.500000001371518
 20
134.5000000010109
 30
0.0
 11
86.500000001371518
 21
134.00000000099499
 31
0.0
  0
ARC
  5
15F1
  8
SAPA_PROFIL
 10
87.000000001371532
 20
134.00000000099499
 30
0.0
 40
0.5000000000000142
 50
180.00000000000321
 51
269.99999999999841
  0
LINE
  5
15F2
  8
SAPA_PROFIL
 10
87.000000001371504
 20
133.50000000099499
 30
0.0
 11
87.800000001366698
 21
133.50000000099499
 31
0.0
  0
ARC
  5
15F3
  8
SAPA_PROFIL
 10
87.800000001366698
 20
133.30000000099469
 30
0.0
 40
0.2000000000002728
 50
0.0
 51
90.0
  0
LINE
  5
15F4
  8
SAPA_PROFIL
 10
88.000000001366956
 20
133.30000000099469
 30
0.0
 11
88.000000001366956
 21
130.50000000099999
 31
0.0
  0
ARC
  5
15F5
  8
SAPA_PROFIL
 10
87.800000001366698
 20
130.50000000099999
 30
0.0
 40
0.2000000000002728
 50
270.0
 51
0.0
  0
LINE
  5
15F6
  8
SAPA_PROFIL
 10
87.800000001366698
 20
130.30000000099969
 30
0.0
 11
83.699999999837473
 21
130.30000000099969
 31
0.0
  0
ARC
  5
15F7
  8
SAPA_PROFIL
 10
83.699999999837374
 20
130.5000000009999
 30
0.0
 40
0.2000000000001876
 50
180.00000000010581
 51
270.00000000002439
  0
LINE
  5
15F8
  8
SAPA_PROFIL
 10
83.499999999837215
 20
130.50000000099951
 30
0.0
 11
83.499999999808097
 21
149.80000000101609
 31
0.0
  0
ARC
  5
15F9
  8
SAPA_PROFIL
 10
83.299999999808151
 20
149.8000000010158
 30
0.0
 40
0.199999999999946
 50
0.0000000000895644
 51
105.6019167446315
  0
ARC
  5
15FA
  8
SAPA_PROFIL
 10
83.515161633112541
 20
149.029477145057
 30
0.0
 40
1.0000000000005611
 50
105.60191674472691
 51
173.7564115415193
  0
ARC
  5
15FB
  8
SAPA_PROFIL
 10
211.75000000444859
 20
135.00000000083659
 30
0.0
 40
130.00000000412021
 50
173.75641154141471
 51
179.99999999991289
  0
LINE
  5
15FC
  8
SAPA_PROFIL
 10
81.750000000328328
 20
135.0000000010341
 30
0.0
 11
81.749999999975444
 21
122.19999999977109
 31
0.0
  0
ARC
  5
15FD
  8
SAPA_PROFIL
 10
81.949999999976185
 20
122.1999999997601
 30
0.0
 40
0.2000000000007276
 50
179.99999999687341
 51
270.0
  0
LINE
  5
15FE
  8
SAPA_PROFIL
 10
81.949999999976185
 20
121.9999999997594
 30
0.0
 11
82.284529946236034
 21
121.9999999997612
 31
0.0
  0
ARC
  5
15FF
  8
SAPA_PROFIL
 10
82.284529946236077
 20
122.1999999997601
 30
0.0
 40
0.1999999999988517
 50
269.99999999999193
 51
330.00000000181461
  0
LINE
  5
1600
  8
SAPA_PROFIL
 10
82.457735026995124
 20
122.0999999997661
 30
0.0
 11
83.473205080587846
 21
123.85884572616079
 31
0.0
  0
ARC
  5
1601
  8
SAPA_PROFIL
 10
83.299999999825559
 20
123.9588457261611
 30
0.0
 40
0.2000000000048241
 50
330.00000000069173
 51
0.0000000000122133
  0
LINE
  5
1602
  8
SAPA_PROFIL
 10
83.499999999830379
 20
123.9588457261611
 30
0.0
 11
83.499999999826287
 21
126.8000000010211
 31
0.0
  0
ARC
  5
1603
  8
SAPA_PROFIL
 10
83.699999999827014
 20
126.8000000010211
 30
0.0
 40
0.2000000000007276
 50
90.0
 51
180.0
  0
LINE
  5
1604
  8
SAPA_PROFIL
 10
83.699999999827014
 20
127.0000000010218
 30
0.0
 11
90.006130959035545
 21
127.0000000010218
 31
0.0
  0
ARC
  5
1605
  8
SAPA_PROFIL
 10
90.006130959035488
 20
127.30000000102081
 30
0.0
 40
0.299999999999045
 50
270.0000000000108
 51
324.37993024139411
  0
ARC
  5
1606
  8
SAPA_PROFIL
 10
90.493869040945256
 20
126.9505553509586
 30
0.0
 40
0.3000000000027633
 50
89.999999999459888
 51
144.3799302427376
  0
LINE
  5
1607
  8
SAPA_PROFIL
 10
90.493869040948084
 20
127.25055535096131
 30
0.0
 11
91.449999999987085
 21
127.25055535096131
 31
0.0
  0
ARC
  5
1608
  8
SAPA_PROFIL
 10
91.449999999991405
 20
126.9505553509556
 30
0.0
 40
0.3000000000056673
 50
35.62006975808125
 51
90.000000000827782
  0
ARC
  5
1609
  8
SAPA_PROFIL
 10
91.937738081903092
 20
127.3000000010217
 30
0.0
 40
0.2999999999998642
 50
215.62006975815319
 51
270.00000000003263
  0
ARC
  5
160A
  8
SAPA_PROFIL
 62
     4
 10
127.16342251664921
 20
129.05851608367581
 30
0.0
 40
1.3416252492699461
 50
61.975581243483113
 51
89.204430039303816
  0
LINE
  5
160B
  8
SAPA_PROFIL
 62
     4
 10
127.7937822173448
 20
130.24283232405151
 30
0.0
 11
129.5133974596188
 21
129.25001200102179
 31
0.0
  0
LINE
  5
160C
  8
SAPA_PROFIL
 62
     4
 10
129.5133974596188
 20
129.25001200102179
 30
0.0
 11
129.94999999999709
 21
129.25001200102179
 31
0.0
  0
ARC
  5
160D
  8
SAPA_PROFIL
 62
     4
 10
129.94999999999709
 20
129.50001200102179
 30
0.0
 40
0.25
 50
270.0
 51
0.0
  0
LINE
  5
160E
  8
SAPA_PROFIL
 62
     4
 10
130.19999999999709
 20
129.50001200102179
 30
0.0
 11
130.19999999999749
 21
133.10002400102161
 31
0.0
  0
ARC
  5
160F
  8
SAPA_PROFIL
 62
     4
 10
129.94999999999749
 20
133.10002400102161
 30
0.0
 40
0.25
 50
0.0
 51
90.0
  0
LINE
  5
1610
  8
SAPA_PROFIL
 62
     4
 10
129.94999999999749
 20
133.35002400102161
 30
0.0
 11
129.5133980784189
 21
133.35001235828659
 31
0.0
  0
LINE
  5
1611
  8
SAPA_PROFIL
 62
     4
 10
129.5133980784189
 20
133.35001235828659
 30
0.0
 11
127.79378221735119
 21
132.3571916779965
 31
0.0
  0
ARC
  5
1612
  8
SAPA_PROFIL
 62
     4
 10
127.17980946719079
 20
133.47741678248909
 30
0.0
 40
1.27744542845285
 50
270.45706900712582
 51
298.72625738197991
  0
LINE
  5
1613
  8
SAPA_PROFIL
 62
     4
 10
127.1899999999973
 20
132.20001200102161
 30
0.0
 11
93.309999999997217
 21
132.20001200102161
 31
0.0
  0
ARC
  5
1614
  8
SAPA_PROFIL
 62
     4
 10
93.320190532803693
 20
133.47741678248909
 30
0.0
 40
1.2774454284528201
 50
241.27374261802001
 51
269.5429309928748
  0
LINE
  5
1615
  8
SAPA_PROFIL
 62
     4
 10
92.706217782643307
 20
132.3571916779965
 30
0.0
 11
90.986601921575584
 21
133.35001235828659
 31
0.0
  0
LINE
  5
1616
  8
SAPA_PROFIL
 62
     4
 10
90.986601921575584
 20
133.35001235828659
 30
0.0
 11
90.549999999996984
 21
133.35002400102161
 31
0.0
  0
ARC
  5
1617
  8
SAPA_PROFIL
 62
     4
 10
90.549999999996984
 20
133.10002400102161
 30
0.0
 40
0.25
 50
90.0
 51
180.0
  0
LINE
  5
1618
  8
SAPA_PROFIL
 62
     4
 10
90.299999999996999
 20
133.10002400102161
 30
0.0
 11
90.299999999996999
 21
129.50001200102179
 31
0.0
  0
ARC
  5
1619
  8
SAPA_PROFIL
 62
     4
 10
90.549999999996984
 20
129.50001200102179
 30
0.0
 40
0.25
 50
180.0
 51
270.0
  0
LINE
  5
161A
  8
SAPA_PROFIL
 62
     4
 10
90.549999999996984
 20
129.25001200102179
 30
0.0
 11
90.98660254037577
 21
129.25001200102179
 31
0.0
  0
LINE
  5
161B
  8
SAPA_PROFIL
 62
     4
 10
90.98660254037577
 20
129.25001200102179
 30
0.0
 11
92.706217782649674
 21
130.24283232405151
 31
0.0
  0
ARC
  5
161C
  8
SAPA_PROFIL
 62
     4
 10
93.336577483345266
 20
129.05851608367581
 30
0.0
 40
1.341625249269949
 50
90.795569960696184
 51
118.02441875651689
  0
LINE
  5
161D
  8
SAPA_PROFIL
 62
     4
 10
93.317949192428387
 20
130.40001200102179
 30
0.0
 11
127.1820508075661
 21
130.40001200102179
 31
0.0
  0
LINE
  5
161E
  8
SAPA_PROFIL
 10
128.5622619180908
 20
127.0000000010218
 30
0.0
 11
126.46418956237081
 21
127.0000000010218
 31
0.0
  0
ARC
  5
161F
  8
SAPA_PROFIL
 10
126.46418956237071
 20
128.0000000010217
 30
0.0
 40
0.9999999999998863
 50
135.00000000001029
 51
270.00000000000489
  0
LINE
  5
1620
  8
SAPA_PROFIL
 10
125.7570827811842
 20
128.707106782208
 30
0.0
 11
127.062132034353
 21
130.0121560353773
 31
0.0
  0
ARC
  5
1621
  8
SAPA_PROFIL
 10
127.2742640687094
 20
129.8000240010212
 30
0.0
 40
0.3000000000004365
 50
90.000000000037986
 51
135.00000000005369
  0
LINE
  5
1622
  8
SAPA_PROFIL
 10
127.2742640687092
 20
130.10002400102161
 30
0.0
 11
127.8607695154564
 21
130.10002400102161
 31
0.0
  0
ARC
  5
1623
  8
SAPA_PROFIL
 10
127.8607695154557
 20
129.80002400102211
 30
0.0
 40
0.2999999999994998
 50
59.999999999864848
 51
89.999999999861586
  0
LINE
  5
1624
  8
SAPA_PROFIL
 10
128.0107695154561
 20
130.05983162215671
 30
0.0
 11
129.4999999999973
 21
129.20002400102149
 31
0.0
  0
LINE
  5
1625
  8
SAPA_PROFIL
 10
129.4999999999973
 20
129.20002400102149
 30
0.0
 11
129.94999999999709
 21
129.20001200102161
 31
0.0
  0
ARC
  5
1626
  8
SAPA_PROFIL
 10
129.94999999999709
 20
129.50001200102179
 30
0.0
 40
0.3000000000001819
 50
270.0
 51
0.0
  0
LINE
  5
1627
  8
SAPA_PROFIL
 10
130.24999999999719
 20
129.50001200102179
 30
0.0
 11
130.24999999999719
 21
133.10002400102161
 31
0.0
  0
ARC
  5
1628
  8
SAPA_PROFIL
 10
129.94999999999709
 20
133.10002400102161
 30
0.0
 40
0.3000000000001819
 50
0.0
 51
90.0
  0
LINE
  5
1629
  8
SAPA_PROFIL
 10
129.94999999999709
 20
133.40002400102179
 30
0.0
 11
129.4999999999973
 21
133.40002400102179
 31
0.0
  0
LINE
  5
162A
  8
SAPA_PROFIL
 10
129.4999999999973
 20
133.40002400102179
 30
0.0
 11
128.01073986892291
 21
132.54019926345291
 31
0.0
  0
ARC
  5
162B
  8
SAPA_PROFIL
 10
127.86073986892301
 20
132.80000688458779
 30
0.0
 40
0.2999999999995429
 50
270.0036468674607
 51
300.00000000002029
  0
LINE
  5
162C
  8
SAPA_PROFIL
 10
127.86075896387641
 20
132.50000688519589
 30
0.0
 11
127.7499999999972
 21
132.49999983540511
 31
0.0
  0
LINE
  5
162D
  8
SAPA_PROFIL
 10
127.7499999999972
 20
132.49999983540511
 30
0.0
 11
127.7499999999972
 21
134.5000000010109
 31
0.0
  0
ARC
  5
162E
  8
SAPA_PROFIL
 10
128.24999999999719
 20
134.5000000010109
 30
0.0
 40
0.5
 50
90.0
 51
180.0
  0
LINE
  5
162F
  8
SAPA_PROFIL
 10
128.24999999999719
 20
135.0000000010109
 30
0.0
 11
133.49999999862251
 21
135.0000000010109
 31
0.0
  0
ARC
  5
1630
  8
SAPA_PROFIL
 10
133.49999999862251
 20
134.5000000010109
 30
0.0
 40
0.5
 50
0.0
 51
90.0
  0
LINE
  5
1631
  8
SAPA_PROFIL
 10
133.99999999862251
 20
134.5000000010109
 30
0.0
 11
133.99999999862251
 21
134.00000000099499
 31
0.0
  0
ARC
  5
1632
  8
SAPA_PROFIL
 10
133.49999999862251
 20
134.00000000099499
 30
0.0
 40
0.5000000000000285
 50
270.0000000000033
 51
359.99999999999682
  0
LINE
  5
1633
  8
SAPA_PROFIL
 10
133.49999999862251
 20
133.50000000099499
 30
0.0
 11
132.69999999862739
 21
133.50000000099499
 31
0.0
  0
ARC
  5
1634
  8
SAPA_PROFIL
 10
132.69999999862739
 20
133.30000000099469
 30
0.0
 40
0.2000000000002728
 50
90.0
 51
180.0
  0
LINE
  5
1635
  8
SAPA_PROFIL
 10
132.49999999862709
 20
133.30000000099469
 30
0.0
 11
132.49999999862709
 21
130.50000000099999
 31
0.0
  0
ARC
  5
1636
  8
SAPA_PROFIL
 10
132.69999999862739
 20
130.50000000099999
 30
0.0
 40
0.2000000000002728
 50
180.0
 51
270.0
  0
LINE
  5
1637
  8
SAPA_PROFIL
 10
132.69999999862739
 20
130.30000000099969
 30
0.0
 11
136.80000000015701
 21
130.30000000099969
 31
0.0
  0
ARC
  5
1638
  8
SAPA_PROFIL
 10
136.8000000001569
 20
130.50000000099971
 30
0.0
 40
0.1999999999999602
 50
270.0000000000407
 51
359.9999999999593
  0
LINE
  5
1639
  8
SAPA_PROFIL
 10
137.00000000015689
 20
130.50000000099951
 30
0.0
 11
137.00000000018599
 21
149.80000000101609
 31
0.0
  0
ARC
  5
163A
  8
SAPA_PROFIL
 10
137.2000000001859
 20
149.8000000010158
 30
0.0
 40
0.1999999999999318
 50
74.398083255364597
 51
179.99999999991039
  0
ARC
  5
163B
  8
SAPA_PROFIL
 10
136.9848383668818
 20
149.02947714505669
 30
0.0
 40
1.0000000000008009
 50
6.2435884584970918
 51
74.398083255290402
  0
ARC
  5
163C
  8
SAPA_PROFIL
 10
8.7499999955459771
 20
135.00000000083659
 30
0.0
 40
130.00000000412021
 50
0.0000000000870466
 51
6.2435884585852781
  0
LINE
  5
163D
  8
SAPA_PROFIL
 10
138.74999999966619
 20
135.0000000010341
 30
0.0
 11
138.7500000000191
 21
122.19999999977109
 31
0.0
  0
ARC
  5
163E
  8
SAPA_PROFIL
 10
138.5500000000184
 20
122.1999999997601
 30
0.0
 40
0.2000000000007276
 50
270.0
 51
0.0000000031266125
  0
LINE
  5
163F
  8
SAPA_PROFIL
 10
138.5500000000184
 20
121.9999999997594
 30
0.0
 11
138.21547005375851
 21
121.9999999997612
 31
0.0
  0
ARC
  5
1640
  8
SAPA_PROFIL
 10
138.21547005375851
 20
122.1999999997601
 30
0.0
 40
0.1999999999988517
 50
209.9999999981853
 51
270.00000000000807
  0
LINE
  5
1641
  8
SAPA_PROFIL
 10
138.04226497299939
 20
122.0999999997661
 30
0.0
 11
137.02679491940671
 21
123.85884572616079
 31
0.0
  0
ARC
  5
1642
  8
SAPA_PROFIL
 10
137.20000000016901
 20
123.9588457261611
 30
0.0
 40
0.2000000000048241
 50
179.99999999998781
 51
209.9999999993083
  0
LINE
  5
1643
  8
SAPA_PROFIL
 10
137.00000000016411
 20
123.9588457261611
 30
0.0
 11
137.0000000001682
 21
126.8000000010211
 31
0.0
  0
ARC
  5
1644
  8
SAPA_PROFIL
 10
136.8000000001675
 20
126.8000000010211
 30
0.0
 40
0.2000000000007276
 50
0.0
 51
90.0
  0
LINE
  5
1645
  8
SAPA_PROFIL
 10
136.8000000001675
 20
127.0000000010218
 30
0.0
 11
130.493869040959
 21
127.0000000010218
 31
0.0
  0
ARC
  5
1646
  8
SAPA_PROFIL
 10
130.493869040959
 20
127.30000000102081
 30
0.0
 40
0.299999999999045
 50
215.62006975860589
 51
269.99999999998909
  0
ARC
  5
1647
  8
SAPA_PROFIL
 10
130.00613095904919
 20
126.9505553509586
 30
0.0
 40
0.3000000000027749
 50
35.620069757260779
 51
90.000000000537383
  0
LINE
  5
1648
  8
SAPA_PROFIL
 10
130.0061309590464
 20
127.25055535096131
 30
0.0
 11
129.0500000000074
 21
127.25055535096131
 31
0.0
  0
ARC
  5
1649
  8
SAPA_PROFIL
 10
129.05000000000291
 20
126.9505553509552
 30
0.0
 40
0.3000000000061078
 50
89.999999999131504
 51
144.37993024187719
  0
ARC
  5
164A
  8
SAPA_PROFIL
 10
128.562261918091
 20
127.3000000010217
 30
0.0
 40
0.2999999999998642
 50
269.99999999996737
 51
324.37993024184681
  0
LINE
  5
164B
  8
SAPA_FOGBAND
 10
66.149567539298445
 20
126.6363994912217
 30
0.0
 11
61.935116899284367
 21
126.74639687640411
 31
0.0
  0
LINE
  5
164C
  8
SAPA_FOGBAND
 10
61.935116899284367
 20
126.74639687640411
 30
0.0
 11
61.935693398158939
 21
129.18449021682591
 31
0.0
  0
LINE
  5
164D
  8
SAPA_FOGBAND
 10
61.935693398158939
 20
129.18449021682591
 30
0.0
 11
66.149567539298445
 21
128.0590890943613
 31
0.0
  0
LINE
  5
164E
  8
SAPA_FOGBAND
 10
66.149567539298445
 20
124.9137098880792
 30
0.0
 11
61.935523683691819
 21
123.7882632907631
 31
0.0
  0
LINE
  5
164F
  8
SAPA_FOGBAND
 10
61.935523683691819
 20
123.7882632907631
 30
0.0
 11
61.93508754287177
 21
126.2264013373123
 31
0.0
  0
LINE
  5
1650
  8
SAPA_FOGBAND
 10
61.93508754287177
 20
126.2264013373123
 30
0.0
 11
66.149567539298445
 21
126.3363994912188
 31
0.0
  0
LINE
  5
1651
  8
SAPA_FOGBAND
 10
66.949567539299551
 20
129.63639949121901
 30
0.0
 11
66.149567539298445
 21
129.63639949121901
 31
0.0
  0
LINE
  5
1652
  8
SAPA_FOGBAND
 10
66.149567539298445
 20
129.63639949121901
 30
0.0
 11
66.149567539298445
 21
123.3363994912215
 31
0.0
  0
LINE
  5
1653
  8
SAPA_FOGBAND
 10
66.149567539298445
 20
123.3363994912215
 30
0.0
 11
66.949567539299551
 21
123.3363994912215
 31
0.0
  0
LINE
  5
1654
  8
SAPA_FOGBAND
 10
66.949567539299551
 20
123.3363994912215
 30
0.0
 11
66.949567539299551
 21
129.63639949121901
 31
0.0
  0
LINE
  5
1655
  8
SAPA_FOGBAND
 10
66.149567539298445
 20
135.1363994912262
 30
0.0
 11
61.500267781959792
 21
135.24639687640769
 31
0.0
  0
LINE
  5
1656
  8
SAPA_FOGBAND
 10
61.500267781959792
 20
135.24639687640769
 30
0.0
 11
61.500844280834372
 21
137.6844902168304
 31
0.0
  0
LINE
  5
1657
  8
SAPA_FOGBAND
 10
61.500844280834372
 20
137.6844902168304
 30
0.0
 11
66.149567539298445
 21
136.55908909436579
 31
0.0
  0
LINE
  5
1658
  8
SAPA_FOGBAND
 10
66.149567539298445
 20
133.4137098880837
 30
0.0
 11
61.500674566367252
 21
132.28826329076759
 31
0.0
  0
LINE
  5
1659
  8
SAPA_FOGBAND
 10
61.500674566367252
 20
132.28826329076759
 30
0.0
 11
61.500238425547202
 21
134.72640133731599
 31
0.0
  0
LINE
  5
165A
  8
SAPA_FOGBAND
 10
61.500238425547202
 20
134.72640133731599
 30
0.0
 11
66.149567539298445
 21
134.83639949122329
 31
0.0
  0
LINE
  5
165B
  8
SAPA_FOGBAND
 10
66.949567539299551
 20
138.13639949122259
 30
0.0
 11
66.149567539298445
 21
138.13639949122259
 31
0.0
  0
LINE
  5
165C
  8
SAPA_FOGBAND
 10
66.149567539298445
 20
138.13639949122259
 30
0.0
 11
66.149567539298445
 21
131.83639949122599
 31
0.0
  0
LINE
  5
165D
  8
SAPA_FOGBAND
 10
66.149567539298445
 20
131.83639949122599
 30
0.0
 11
66.949567539299551
 21
131.83639949122599
 31
0.0
  0
LINE
  5
165E
  8
SAPA_FOGBAND
 10
66.949567539299551
 20
131.83639949122599
 30
0.0
 11
66.949567539299551
 21
138.13639949122259
 31
0.0
  0
LINE
  5
165F
  8
SAPA_FOGBAND
 10
0.3504326030647462
 20
126.6363994912217
 30
0.0
 11
4.6755901235292177
 21
126.74639687640411
 31
0.0
  0
LINE
  5
1660
  8
SAPA_FOGBAND
 10
4.6755901235292177
 20
126.74639687640411
 30
0.0
 11
4.6750136246546381
 21
129.18449021682591
 31
0.0
  0
LINE
  5
1661
  8
SAPA_FOGBAND
 10
4.6750136246546381
 20
129.18449021682591
 30
0.0
 11
0.3504326030647462
 21
128.0590890943613
 31
0.0
  0
LINE
  5
1662
  8
SAPA_FOGBAND
 10
0.3504326030647462
 20
124.9137098880792
 30
0.0
 11
4.6751833391217579
 21
123.7882632907631
 31
0.0
  0
LINE
  5
1663
  8
SAPA_FOGBAND
 10
4.6751833391217579
 20
123.7882632907631
 30
0.0
 11
4.6756194799418154
 21
126.2264013373123
 31
0.0
  0
LINE
  5
1664
  8
SAPA_FOGBAND
 10
4.6756194799418154
 20
126.2264013373123
 30
0.0
 11
0.3504326030647462
 21
126.3363994912188
 31
0.0
  0
LINE
  5
1665
  8
SAPA_FOGBAND
 10
-0.4495673969363452
 20
129.63639949121901
 30
0.0
 11
0.3504326030647462
 21
129.63639949121901
 31
0.0
  0
LINE
  5
1666
  8
SAPA_FOGBAND
 10
0.3504326030647462
 20
129.63639949121901
 30
0.0
 11
0.3504326030647462
 21
123.3363994912215
 31
0.0
  0
LINE
  5
1667
  8
SAPA_FOGBAND
 10
0.3504326030647462
 20
123.3363994912215
 30
0.0
 11
-0.4495673969363452
 21
123.3363994912215
 31
0.0
  0
LINE
  5
1668
  8
SAPA_FOGBAND
 10
-0.4495673969363452
 20
123.3363994912215
 30
0.0
 11
-0.4495673969363452
 21
129.63639949121901
 31
0.0
  0
LINE
  5
1669
  8
SAPA_FOGBAND
 10
0.3504326030647462
 20
135.1363994912262
 30
0.0
 11
5.0972665980511911
 21
135.24639687640769
 31
0.0
  0
LINE
  5
166A
  8
SAPA_FOGBAND
 10
5.0972665980511911
 20
135.24639687640769
 30
0.0
 11
5.0966900991766124
 21
137.6844902168304
 31
0.0
  0
LINE
  5
166B
  8
SAPA_FOGBAND
 10
5.0966900991766124
 20
137.6844902168304
 30
0.0
 11
0.3504326030647462
 21
136.55908909436579
 31
0.0
  0
LINE
  5
166C
  8
SAPA_FOGBAND
 10
0.3504326030647462
 20
133.4137098880837
 30
0.0
 11
5.0968598136437322
 21
132.28826329076759
 31
0.0
  0
LINE
  5
166D
  8
SAPA_FOGBAND
 10
5.0968598136437322
 20
132.28826329076759
 30
0.0
 11
5.0972959544637879
 21
134.72640133731599
 31
0.0
  0
LINE
  5
166E
  8
SAPA_FOGBAND
 10
5.0972959544637879
 20
134.72640133731599
 30
0.0
 11
0.3504326030647462
 21
134.83639949122329
 31
0.0
  0
LINE
  5
166F
  8
SAPA_FOGBAND
 10
-0.4495673969363452
 20
138.13639949122259
 30
0.0
 11
0.3504326030647462
 21
138.13639949122259
 31
0.0
  0
LINE
  5
1670
  8
SAPA_FOGBAND
 10
0.3504326030647462
 20
138.13639949122259
 30
0.0
 11
0.3504326030647462
 21
131.83639949122599
 31
0.0
  0
LINE
  5
1671
  8
SAPA_FOGBAND
 10
0.3504326030647462
 20
131.83639949122599
 30
0.0
 11
-0.4495673969363452
 21
131.83639949122599
 31
0.0
  0
LINE
  5
1672
  8
SAPA_FOGBAND
 10
-0.4495673969363452
 20
131.83639949122599
 30
0.0
 11
-0.4495673969363452
 21
138.13639949122259
 31
0.0
  0
ARC
  5
1673
  8
SAPA_FOGBAND
 10
31.42490164479079
 20
101.9000000000016
 30
0.0
 40
0.200000000000232
 50
83.103726790277889
 51
210.89814782521211
  0
ARC
  5
1674
  8
SAPA_FOGBAND
 10
28.250000071513821
 20
100.0000000000009
 30
0.0
 40
3.4999999999996558
 50
329.86727816899332
 51
30.89814782525092
  0
ARC
  5
1675
  8
SAPA_FOGBAND
 10
31.450000071513781
 20
98.142582437900344
 30
0.0
 40
0.2000000000002668
 50
149.8672781689402
 51
209.99999999995001
  0
LINE
  5
1676
  8
SAPA_FOGBAND
 10
31.276794990756571
 20
98.042582437900364
 30
0.0
 11
31.792127701551639
 21
97.15000000000191
 31
0.0
  0
ARC
  5
1677
  8
SAPA_FOGBAND
 10
32.051935322687001
 20
97.300000000001774
 30
0.0
 40
0.2999999999999552
 50
209.99999999997479
 51
269.99999999997431
  0
LINE
  5
1678
  8
SAPA_FOGBAND
 10
32.051935322686859
 20
97.000000000001819
 30
0.0
 11
34.448064820340278
 21
97.000000000001819
 31
0.0
  0
ARC
  5
1679
  8
SAPA_FOGBAND
 10
34.448064820340143
 20
97.300000000001774
 30
0.0
 40
0.2999999999999545
 50
270.00000000002581
 51
330.00000000002512
  0
LINE
  5
167A
  8
SAPA_FOGBAND
 10
34.707872441475502
 20
97.15000000000191
 30
0.0
 11
35.223205152270111
 21
98.042582437900364
 31
0.0
  0
ARC
  5
167B
  8
SAPA_FOGBAND
 10
35.050000071513139
 20
98.142582437900742
 30
0.0
 40
0.200000000000262
 50
329.99999999991832
 51
30.132721830929011
  0
ARC
  5
167C
  8
SAPA_FOGBAND
 10
38.250000071513092
 20
100.00000000000129
 30
0.0
 40
3.4999999999996461
 50
149.10185217475629
 51
210.13272183101401
  0
ARC
  5
167D
  8
SAPA_FOGBAND
 10
35.075098498236123
 20
101.9000000000017
 30
0.0
 40
0.2000000000001001
 50
329.1018521747306
 51
96.896273209659867
  0
ARC
  5
167E
  8
SAPA_FOGBAND
 10
33.250000071513568
 20
116.9900303423406
 30
0.0
 40
14.999999999997661
 50
263.1037267903157
 51
276.8962732096843
  0
LINE
  5
167F
  8
SAPA_PROFIL
 10
49.5
 20
4.5
 30
0.0
 11
49.5
 21
0.5
 31
0.0
  0
ARC
  5
1680
  8
SAPA_PROFIL
 10
49.0
 20
0.5
 30
0.0
 40
0.5
 50
270.0
 51
0.0
  0
LINE
  5
1681
  8
SAPA_PROFIL
 10
49.0
 20
0.0
 30
0.0
 11
0.0
 21
0.0
 31
0.0
  0
ARC
  5
1682
  8
SAPA_PROFIL
 10
0.0
 20
0.5
 30
0.0
 40
0.5
 50
180.0
 51
270.0
  0
LINE
  5
1683
  8
SAPA_PROFIL
 10
-0.5
 20
0.5
 30
0.0
 11
-0.5
 21
49.5
 31
0.0
  0
ARC
  5
1684
  8
SAPA_PROFIL
 10
0.0
 20
49.5
 30
0.0
 40
0.5
 50
90.0
 51
180.0
  0
LINE
  5
1685
  8
SAPA_PROFIL
 10
0.0
 20
50.0
 30
0.0
 11
4.0
 21
50.0
 31
0.0
  0
ARC
  5
1686
  8
SAPA_PROFIL
 10
4.0
 20
49.5
 30
0.0
 40
0.5
 50
0.0
 51
90.0
  0
LINE
  5
1687
  8
SAPA_PROFIL
 10
4.5
 20
49.5
 30
0.0
 11
4.5
 21
10.0
 31
0.0
  0
ARC
  5
1688
  8
SAPA_PROFIL
 10
9.5
 20
10.0
 30
0.0
 40
5.0
 50
180.0
 51
270.0
  0
LINE
  5
1689
  8
SAPA_PROFIL
 10
9.5
 20
5.0
 30
0.0
 11
49.0
 21
5.0
 31
0.0
  0
ARC
  5
168A
  8
SAPA_PROFIL
 10
49.0
 20
4.5
 30
0.0
 40
0.5
 50
0.0
 51
90.0
  0
LINE
  5
168B
  8
SAPA_PROFIL
 10
93.999999999997726
 20
4.5
 30
0.0
 11
93.999999999997726
 21
0.5
 31
0.0
  0
ARC
  5
168C
  8
SAPA_PROFIL
 10
94.499999999997726
 20
0.5
 30
0.0
 40
0.5
 50
180.0
 51
270.0
  0
LINE
  5
168D
  8
SAPA_PROFIL
 10
94.499999999997726
 20
0.0
 30
0.0
 11
143.4999999999977
 21
0.0
 31
0.0
  0
ARC
  5
168E
  8
SAPA_PROFIL
 10
143.4999999999977
 20
0.5
 30
0.0
 40
0.5
 50
270.0
 51
0.0
  0
LINE
  5
168F
  8
SAPA_PROFIL
 10
143.9999999999977
 20
0.5
 30
0.0
 11
143.9999999999977
 21
49.5
 31
0.0
  0
ARC
  5
1690
  8
SAPA_PROFIL
 10
143.4999999999977
 20
49.5
 30
0.0
 40
0.5
 50
0.0
 51
90.0
  0
LINE
  5
1691
  8
SAPA_PROFIL
 10
143.4999999999977
 20
50.0
 30
0.0
 11
139.4999999999977
 21
50.0
 31
0.0
  0
ARC
  5
1692
  8
SAPA_PROFIL
 10
139.4999999999977
 20
49.5
 30
0.0
 40
0.5
 50
90.0
 51
180.0
  0
LINE
  5
1693
  8
SAPA_PROFIL
 10
138.9999999999977
 20
49.5
 30
0.0
 11
138.9999999999977
 21
10.0
 31
0.0
  0
ARC
  5
1694
  8
SAPA_PROFIL
 10
133.9999999999977
 20
10.0
 30
0.0
 40
5.0
 50
270.0
 51
0.0
  0
LINE
  5
1695
  8
SAPA_PROFIL
 10
133.9999999999977
 20
5.0
 30
0.0
 11
94.499999999997726
 21
5.0
 31
0.0
  0
ARC
  5
1696
  8
SAPA_PROFIL
 10
94.499999999997726
 20
4.5
 30
0.0
 40
0.5
 50
90.0
 51
180.0
  0
LINE
  5
1697
  8
SAPA_PROFIL
 10
54.750000106901091
 20
82.300000000002015
 30
0.0
 11
54.750000106901091
 21
82.300000000002015
 31
0.0
  0
LINE
  5
1698
  8
SAPA_PROFIL
 10
54.750000106901091
 20
82.300000000002015
 30
0.0
 11
54.750000106901091
 21
94.500000000001819
 31
0.0
  0
LINE
  5
1699
  8
SAPA_PROFIL
 10
54.750000106901091
 20
94.500000000001819
 30
0.0
 11
37.250000106901098
 21
94.500000000001819
 31
0.0
  0
LINE
  5
169A
  8
SAPA_PROFIL
 10
37.250000106901098
 20
94.500000000001819
 30
0.0
 11
37.250000106901098
 21
93.900000000001896
 31
0.0
  0
LINE
  5
169B
  8
SAPA_PROFIL
 10
37.250000106901098
 20
93.900000000001896
 30
0.0
 11
34.750000071499016
 21
93.900000000001896
 31
0.0
  0
ARC
  5
169C
  8
SAPA_PROFIL
 10
34.750000071499016
 20
92.900000000001896
 30
0.0
 40
1.0
 50
90.000000000000398
 51
180.0
  0
LINE
  5
169D
  8
SAPA_PROFIL
 10
33.750000071499016
 20
92.900000000001896
 30
0.0
 11
33.750000071499016
 21
83.900000000001896
 31
0.0
  0
ARC
  5
169E
  8
SAPA_PROFIL
 10
34.750000071499016
 20
83.900000000001896
 30
0.0
 40
1.0
 50
180.0
 51
270.0
  0
LINE
  5
169F
  8
SAPA_PROFIL
 10
34.750000071499016
 20
82.900000000001896
 30
0.0
 11
37.250000106901098
 21
82.900000000001896
 31
0.0
  0
LINE
  5
16A0
  8
SAPA_PROFIL
 10
37.250000106901098
 20
82.900000000001896
 30
0.0
 11
37.250000106901098
 21
82.300000000002015
 31
0.0
  0
LINE
  5
16A1
  8
SAPA_PROFIL
 10
37.250000106901098
 20
82.300000000002015
 30
0.0
 11
54.750000106901091
 21
82.300000000002015
 31
0.0
  0
LINE
  5
16A2
  8
SAPA_PROFIL
 10
54.750000106901091
 20
82.300000000002015
 30
0.0
 11
54.750000106901091
 21
82.300000000002015
 31
0.0
  0
LINE
  5
16A3
  8
SAPA_PROFIL
 10
-0.2499999285009835
 20
82.300000000002015
 30
0.0
 11
31.75000007149902
 21
82.300000000002015
 31
0.0
  0
LINE
  5
16A4
  8
SAPA_PROFIL
 10
31.75000007149902
 20
82.300000000002015
 30
0.0
 11
31.75000007149902
 21
94.500000000001819
 31
0.0
  0
LINE
  5
16A5
  8
SAPA_PROFIL
 10
31.75000007149902
 20
94.500000000001819
 30
0.0
 11
-0.2499999285009835
 21
94.500000000001819
 31
0.0
  0
LINE
  5
16A6
  8
SAPA_PROFIL
 10
-0.2499999285009835
 20
94.500000000001819
 30
0.0
 11
-0.2499999285009835
 21
82.300000000002015
 31
0.0
  0
ARC
  5
16A7
  8
SAPA_PROFIL
 10
23.500000071513568
 20
97.500000000001819
 30
0.0
 40
0.5
 50
180.0
 51
270.0
  0
LINE
  5
16A8
  8
SAPA_PROFIL
 10
23.000000071513568
 20
97.500000000001819
 30
0.0
 11
23.000000071513568
 21
99.800000000011096
 31
0.0
  0
ARC
  5
16A9
  8
SAPA_PROFIL
 10
23.500000071513568
 20
99.800000000011096
 30
0.0
 40
0.5
 50
90.0
 51
180.0
  0
LINE
  5
16AA
  8
SAPA_PROFIL
 10
23.500000071513568
 20
100.3000000000111
 30
0.0
 11
24.762880916684029
 21
100.3000000000111
 31
0.0
  0
ARC
  5
16AB
  8
SAPA_PROFIL
 10
28.250000071514229
 20
99.999999999979764
 30
0.0
 40
3.5000000000003548
 50
150.89009105957959
 51
175.08289966395691
  0
ARC
  5
16AC
  8
SAPA_PROFIL
 10
25.01735409648154
 20
101.8000000000108
 30
0.0
 40
0.2000000000005668
 50
330.89009105957689
 51
89.999999999998977
  0
LINE
  5
16AD
  8
SAPA_PROFIL
 10
25.01735409648154
 20
102.0000000000113
 30
0.0
 11
21.968608623153159
 21
102.0000000000113
 31
0.0
  0
ARC
  5
16AE
  8
SAPA_PROFIL
 10
21.968608623153209
 20
101.0000000000114
 30
0.0
 40
0.9999999999999715
 50
90.000000000002856
 51
154.99999999973531
  0
LINE
  5
16AF
  8
SAPA_PROFIL
 10
21.062300836118538
 20
101.4226182617562
 30
0.0
 11
19.26923759777128
 21
97.577381738256932
 31
0.0
  0
ARC
  5
16B0
  8
SAPA_PROFIL
 10
18.36292981073683
 20
98.000000000001435
 30
0.0
 40
0.9999999999996196
 50
270.00000000001631
 51
334.99999999974841
  0
LINE
  5
16B1
  8
SAPA_PROFIL
 10
18.362929810737111
 20
97.000000000001819
 30
0.0
 11
2.0500000715137499
 21
97.000000000001819
 31
0.0
  0
LINE
  5
16B2
  8
SAPA_PROFIL
 10
2.0500000715137499
 20
97.000000000001819
 30
0.0
 11
2.0500000715137499
 21
98.500000000001819
 31
0.0
  0
LINE
  5
16B3
  8
SAPA_PROFIL
 10
2.0500000715137499
 20
98.500000000001819
 30
0.0
 11
1.250000071513568
 21
98.500000000001819
 31
0.0
  0
LINE
  5
16B4
  8
SAPA_PROFIL
 10
1.250000071513568
 20
98.500000000001819
 30
0.0
 11
1.250000071513568
 21
97.000000000001819
 31
0.0
  0
LINE
  5
16B5
  8
SAPA_PROFIL
 10
1.250000071513568
 20
97.000000000001819
 30
0.0
 11
-0.4499999284862497
 21
97.000000000001819
 31
0.0
  0
LINE
  5
16B6
  8
SAPA_PROFIL
 10
-0.4499999284862497
 20
97.000000000001819
 30
0.0
 11
-0.7499999284864316
 21
121.6000000000017
 31
0.0
  0
LINE
  5
16B7
  8
SAPA_PROFIL
 10
-0.7499999284864316
 20
121.6000000000017
 30
0.0
 11
0.9500000715138413
 21
121.6000000000017
 31
0.0
  0
LINE
  5
16B8
  8
SAPA_PROFIL
 10
0.9500000715138413
 20
121.6000000000017
 30
0.0
 11
0.9500000715138413
 21
119.6000000000017
 31
0.0
  0
LINE
  5
16B9
  8
SAPA_PROFIL
 10
0.9500000715138413
 20
119.6000000000017
 30
0.0
 11
1.750000071513568
 21
119.6000000000017
 31
0.0
  0
LINE
  5
16BA
  8
SAPA_PROFIL
 10
1.750000071513568
 20
119.6000000000017
 30
0.0
 11
1.7500000715140229
 21
123.7499999999927
 31
0.0
  0
ARC
  5
16BB
  8
SAPA_PROFIL
 10
1.25000007151404
 20
123.7499999999927
 30
0.0
 40
0.4999999999999823
 50
359.99999999999841
 51
90.000000000002046
  0
LINE
  5
16BC
  8
SAPA_PROFIL
 10
1.2500000715140229
 20
124.2499999999927
 30
0.0
 11
0.7500000715317583
 21
124.2500000000045
 31
0.0
  0
LINE
  5
16BD
  8
SAPA_PROFIL
 10
0.7500000715317583
 20
124.2500000000045
 30
0.0
 11
0.7500000715103852
 21
123.00000000003
 31
0.0
  0
LINE
  5
16BE
  8
SAPA_PROFIL
 10
0.7500000715103852
 20
123.00000000003
 30
0.0
 11
-0.6499999284683327
 21
122.9999999999945
 31
0.0
  0
ARC
  5
16BF
  8
SAPA_PROFIL
 10
-0.6499999284619143
 20
123.2999999999807
 30
0.0
 40
0.2999999999861416
 50
179.9999999973185
 51
269.99999999877417
  0
LINE
  5
16C0
  8
SAPA_PROFIL
 10
-0.9499999284480509
 20
123.2999999999947
 30
0.0
 11
-0.9499999284757905
 21
129.69999999999979
 31
0.0
  0
ARC
  5
16C1
  8
SAPA_PROFIL
 10
-0.6499999284861112
 20
129.69999999998211
 30
0.0
 40
0.2999999999896794
 50
89.999999998081023
 51
179.9999999966237
  0
LINE
  5
16C2
  8
SAPA_PROFIL
 10
-0.6499999284760634
 20
129.99999999997181
 30
0.0
 11
0.7500000715103852
 21
129.99999999996399
 31
0.0
  0
LINE
  5
16C3
  8
SAPA_PROFIL
 10
0.7500000715103852
 20
129.99999999996399
 30
0.0
 11
0.7500000715317583
 21
128.74999999999
 31
0.0
  0
LINE
  5
16C4
  8
SAPA_PROFIL
 10
0.7500000715317583
 20
128.74999999999
 30
0.0
 11
1.2500000715140229
 21
128.75000000000179
 31
0.0
  0
ARC
  5
16C5
  8
SAPA_PROFIL
 10
1.250000071513792
 20
129.25000000000159
 30
0.0
 40
0.4999999999997727
 50
270.00000000002649
 51
0.0000000000260551
  0
LINE
  5
16C6
  8
SAPA_PROFIL
 10
1.750000071513568
 20
129.25000000000179
 30
0.0
 11
1.7500000715140229
 21
132.25000000000179
 31
0.0
  0
ARC
  5
16C7
  8
SAPA_PROFIL
 10
1.250000071514026
 20
132.25000000000909
 30
0.0
 40
0.4999999999999965
 50
359.99999999916622
 51
90.000000000000398
  0
LINE
  5
16C8
  8
SAPA_PROFIL
 10
1.2500000715140229
 20
132.75000000000909
 30
0.0
 11
0.7500000715140232
 21
132.75000000000909
 31
0.0
  0
LINE
  5
16C9
  8
SAPA_PROFIL
 10
0.7500000715140232
 20
132.75000000000909
 30
0.0
 11
0.7500000715144779
 21
131.30000000001201
 31
0.0
  0
LINE
  5
16CA
  8
SAPA_PROFIL
 10
0.7500000715144779
 20
131.30000000001201
 30
0.0
 11
-1.099999928478155
 21
131.30000000001201
 31
0.0
  0
ARC
  5
16CB
  8
SAPA_PROFIL
 10
-1.099999928462003
 20
131.5999999999988
 30
0.0
 40
0.2999999999867668
 50
179.99999999691681
 51
269.99999999691522
  0
LINE
  5
16CC
  8
SAPA_PROFIL
 10
-1.3999999284487781
 20
131.60000000001489
 30
0.0
 11
-1.3999999284774269
 21
133.84019237887151
 31
0.0
  0
LINE
  5
16CD
  8
SAPA_PROFIL
 10
-1.3999999284774269
 20
133.84019237887151
 30
0.0
 11
-0.9499999284830664
 21
134.10000000000031
 31
0.0
  0
LINE
  5
16CE
  8
SAPA_PROFIL
 10
-0.9499999284830664
 20
134.10000000000031
 30
0.0
 11
-0.9499999284830664
 21
135.90000000001049
 31
0.0
  0
LINE
  5
16CF
  8
SAPA_PROFIL
 10
-0.9499999284830664
 20
135.90000000001049
 30
0.0
 11
-1.3999999284774269
 21
136.15980762113941
 31
0.0
  0
LINE
  5
16D0
  8
SAPA_PROFIL
 10
-1.3999999284774269
 20
136.15980762113941
 30
0.0
 11
-1.3999999284774269
 21
138.399999999996
 31
0.0
  0
ARC
  5
16D1
  8
SAPA_PROFIL
 10
-1.0999999284917901
 20
138.3999999999842
 30
0.0
 40
0.2999999999856371
 50
89.999999997048448
 51
179.9999999977419
  0
LINE
  5
16D2
  8
SAPA_PROFIL
 10
-1.099999928476336
 20
138.6999999999698
 30
0.0
 11
0.7500000715144779
 21
138.69999999999891
 31
0.0
  0
LINE
  5
16D3
  8
SAPA_PROFIL
 10
0.7500000715144779
 20
138.69999999999891
 30
0.0
 11
0.7500000715140232
 21
137.25000000000179
 31
0.0
  0
LINE
  5
16D4
  8
SAPA_PROFIL
 10
0.7500000715140232
 20
137.25000000000179
 30
0.0
 11
1.2500000715140229
 21
137.25000000000179
 31
0.0
  0
ARC
  5
16D5
  8
SAPA_PROFIL
 10
1.25000007151404
 20
137.75000000000179
 30
0.0
 40
0.4999999999999716
 50
269.99999999999801
 51
0.0000000000032569
  0
LINE
  5
16D6
  8
SAPA_PROFIL
 10
1.7500000715140229
 20
137.75000000000179
 30
0.0
 11
1.7500000715140229
 21
139.50000000000179
 31
0.0
  0
ARC
  5
16D7
  8
SAPA_PROFIL
 10
1.250000071514008
 20
139.50000000000179
 30
0.0
 40
0.5000000000000142
 50
0.0
 51
89.999999999998366
  0
LINE
  5
16D8
  8
SAPA_PROFIL
 10
1.2500000715140229
 20
140.00000000000179
 30
0.0
 11
-1.249999928485976
 21
140.0000000000023
 31
0.0
  0
ARC
  5
16D9
  8
SAPA_PROFIL
 10
-1.2499999284860619
 20
138.0000000000023
 30
0.0
 40
1.9999999999999141
 50
89.999999999997556
 51
180.00000000000239
  0
LINE
  5
16DA
  8
SAPA_PROFIL
 10
-3.249999928485976
 20
138.00000000000219
 30
0.0
 11
-3.2499999284864312
 21
24.375000000000458
 31
0.0
  0
ARC
  5
16DB
  8
SAPA_PROFIL
 10
-1.874999928486204
 20
24.37500000000043
 30
0.0
 40
1.3750000000002269
 50
179.99999999999909
 51
0.0000000000008882
  0
LINE
  5
16DC
  8
SAPA_PROFIL
 10
-0.4999999284859769
 20
24.375000000000458
 30
0.0
 11
-0.4999999284859769
 21
76.000000000006366
 31
0.0
  0
ARC
  5
16DD
  8
SAPA_PROFIL
 10
3.5000000715140791
 20
76.00000000000631
 30
0.0
 40
4.000000000000056
 50
89.999999999994287
 51
179.9999999999992
  0
LINE
  5
16DE
  8
SAPA_PROFIL
 10
3.500000071514477
 20
80.000000000006366
 30
0.0
 11
57.550000071512841
 21
80.000000000001819
 31
0.0
  0
ARC
  5
16DF
  8
SAPA_PROFIL
 10
57.750000071512879
 20
80.000000000003638
 30
0.0
 40
0.2000000000000455
 50
0.0000000005211021
 51
180.00000000052111
  0
LINE
  5
16E0
  8
SAPA_PROFIL
 10
57.950000071512932
 20
80.000000000005457
 30
0.0
 11
61.535810509139992
 21
79.999976000005063
 31
0.0
  0
ARC
  5
16E1
  8
SAPA_PROFIL
 10
61.535810509139992
 20
80.999976000005162
 30
0.0
 40
1.000000000000099
 50
270.0000000000004
 51
44.99999999999568
  0
LINE
  5
16E2
  8
SAPA_PROFIL
 10
62.242917290326659
 20
81.70708278119173
 30
0.0
 11
60.937868037157841
 21
83.012132034361002
 31
0.0
  0
ARC
  5
16E3
  8
SAPA_PROFIL
 10
60.725736002801909
 20
82.800000000004701
 30
0.0
 40
0.3000000000002104
 50
45.000000000050854
 51
90.000000000066478
  0
LINE
  5
16E4
  8
SAPA_PROFIL
 10
60.725736002801568
 20
83.100000000004897
 30
0.0
 11
60.139230556054827
 21
83.100000000004897
 31
0.0
  0
ARC
  5
16E5
  8
SAPA_PROFIL
 10
60.139230556055331
 20
82.800000000004545
 30
0.0
 40
0.3000000000003524
 50
90.000000000096335
 51
120.0000000000925
  0
LINE
  5
16E6
  8
SAPA_PROFIL
 10
59.989230556054729
 20
83.059807621139939
 30
0.0
 11
58.500000071513568
 21
82.20000000000482
 31
0.0
  0
LINE
  5
16E7
  8
SAPA_PROFIL
 10
58.500000071513568
 20
82.20000000000482
 30
0.0
 11
58.05000007151375
 21
82.199988000005305
 31
0.0
  0
ARC
  5
16E8
  8
SAPA_PROFIL
 10
58.050000071513523
 20
82.499988000005246
 30
0.0
 40
0.2999999999999403
 50
180.0000000000407
 51
270.00000000004479
  0
LINE
  5
16E9
  8
SAPA_PROFIL
 10
57.750000071513568
 20
82.499988000005018
 30
0.0
 11
57.750000071514023
 21
86.100000000005366
 31
0.0
  0
ARC
  5
16EA
  8
SAPA_PROFIL
 10
58.05000007151375
 20
86.100000000005366
 30
0.0
 40
0.2999999999997271
 50
90.0
 51
180.0
  0
LINE
  5
16EB
  8
SAPA_PROFIL
 10
58.05000007151375
 20
86.400000000005093
 30
0.0
 11
58.500000071514023
 21
86.400000000005093
 31
0.0
  0
LINE
  5
16EC
  8
SAPA_PROFIL
 10
58.500000071514023
 20
86.400000000005093
 30
0.0
 11
59.989260202587957
 21
85.540175262436151
 31
0.0
  0
ARC
  5
16ED
  8
SAPA_PROFIL
 10
60.139260202588041
 20
85.7999828835719
 30
0.0
 40
0.3000000000004038
 50
240.00000000002609
 51
269.99635313258409
  0
LINE
  5
16EE
  8
SAPA_PROFIL
 10
60.139241107634909
 20
85.49998288417919
 30
0.0
 11
60.250000071513568
 21
85.499975834388366
 31
0.0
  0
LINE
  5
16EF
  8
SAPA_PROFIL
 10
60.250000071513568
 20
85.499975834388366
 30
0.0
 11
60.250000071513107
 21
87.121687836493024
 31
0.0
  0
ARC
  5
16F0
  8
SAPA_PROFIL
 10
59.250000071513448
 20
87.121687836492868
 30
0.0
 40
0.999999999999666
 50
0.0000000000097707
 51
60.000000000011141
  0
LINE
  5
16F1
  8
SAPA_PROFIL
 10
59.750000071513121
 20
87.987713240277117
 30
0.0
 11
58.250000071513568
 21
88.853738644061195
 31
0.0
  0
ARC
  5
16F2
  8
SAPA_PROFIL
 10
58.750000071513249
 20
89.719764047845445
 30
0.0
 40
0.9999999999996795
 50
180.00000000000969
 51
240.00000000001009
  0
LINE
  5
16F3
  8
SAPA_PROFIL
 10
57.750000071513568
 20
89.719764047845274
 30
0.0
 11
57.750000071513568
 21
90.280235952161533
 31
0.0
  0
ARC
  5
16F4
  8
SAPA_PROFIL
 10
58.750000071513632
 20
90.280235952161604
 30
0.0
 40
1.0000000000000711
 50
120.0000000000024
 51
180.00000000000321
  0
LINE
  5
16F5
  8
SAPA_PROFIL
 10
58.250000071513568
 20
91.146261355946081
 30
0.0
 11
59.750000071513121
 21
92.012286759731069
 31
0.0
  0
ARC
  5
16F6
  8
SAPA_PROFIL
 10
59.250000071513689
 20
92.878312163515702
 30
0.0
 40
0.9999999999998768
 50
299.9999999999655
 51
359.99999999996822
  0
LINE
  5
16F7
  8
SAPA_PROFIL
 10
60.250000071513568
 20
92.878312163515147
 30
0.0
 11
60.250000071513568
 21
94.500024165618925
 31
0.0
  0
LINE
  5
16F8
  8
SAPA_PROFIL
 10
60.250000071513568
 20
94.500024165618925
 30
0.0
 11
60.139241107634909
 21
94.500017115828086
 31
0.0
  0
ARC
  5
16F9
  8
SAPA_PROFIL
 10
60.139260202588893
 20
94.200017116435134
 30
0.0
 40
0.3000000000006333
 50
90.003646867578723
 51
120.00000000013669
  0
LINE
  5
16FA
  8
SAPA_PROFIL
 10
59.989260202587957
 20
94.459824737570685
 30
0.0
 11
58.500000071514023
 21
93.600000000002169
 31
0.0
  0
LINE
  5
16FB
  8
SAPA_PROFIL
 10
58.500000071514023
 20
93.600000000002169
 30
0.0
 11
58.05000007151375
 21
93.600000000001728
 31
0.0
  0
ARC
  5
16FC
  8
SAPA_PROFIL
 10
58.050000071513978
 20
93.900000000001697
 30
0.0
 40
0.2999999999999545
 50
179.99999999995649
 51
269.99999999995657
  0
LINE
  5
16FD
  8
SAPA_PROFIL
 10
57.750000071514023
 20
93.900000000001896
 30
0.0
 11
57.750000071513568
 21
97.500012000001789
 31
0.0
  0
ARC
  5
16FE
  8
SAPA_PROFIL
 10
58.050000071513743
 20
97.500012000001803
 30
0.0
 40
0.3000000000001748
 50
89.999999999998636
 51
180.0000000000027
  0
LINE
  5
16FF
  8
SAPA_PROFIL
 10
58.05000007151375
 20
97.800012000001985
 30
0.0
 11
58.500000071513568
 21
97.800000000002001
 31
0.0
  0
LINE
  5
1700
  8
SAPA_PROFIL
 10
58.500000071513568
 20
97.800000000002001
 30
0.0
 11
59.989230556054729
 21
96.940192378866868
 31
0.0
  0
ARC
  5
1701
  8
SAPA_PROFIL
 10
60.139230556054478
 20
97.200000000002476
 30
0.0
 40
0.3000000000000979
 50
240.0000000000675
 51
270.00000000006639
  0
LINE
  5
1702
  8
SAPA_PROFIL
 10
60.139230556054827
 20
96.900000000002365
 30
0.0
 11
60.725736002801568
 21
96.900000000002365
 31
0.0
  0
ARC
  5
1703
  8
SAPA_PROFIL
 10
60.725736002801909
 20
97.200000000002561
 30
0.0
 40
0.3000000000001961
 50
269.99999999993349
 51
314.999999999951
  0
LINE
  5
1704
  8
SAPA_PROFIL
 10
60.937868037157841
 20
96.987867965646274
 30
0.0
 11
62.242917290326659
 21
98.292917218815546
 31
0.0
  0
ARC
  5
1705
  8
SAPA_PROFIL
 10
61.535810509140077
 20
99.000024000001901
 30
0.0
 40
0.9999999999998724
 50
315.00000000000949
 51
90.000000000005286
  0
LINE
  5
1706
  8
SAPA_PROFIL
 10
61.535810509139992
 20
100.0000240000017
 30
0.0
 11
57.950000071512932
 21
100.0000000000018
 31
0.0
  0
ARC
  5
1707
  8
SAPA_PROFIL
 10
57.750000071513341
 20
100.0000000000018
 30
0.0
 40
0.1999999999995907
 50
180.0
 51
0.0
  0
LINE
  5
1708
  8
SAPA_PROFIL
 10
57.55000007151375
 20
100.0000000000018
 30
0.0
 11
56.250000041964078
 21
100.0000000000018
 31
0.0
  0
ARC
  5
1709
  8
SAPA_PROFIL
 10
56.250000042108113
 20
99.000000000145661
 30
0.0
 40
0.9999999998561577
 50
90.000000008251746
 51
180.00000000845
  0
LINE
  5
170A
  8
SAPA_PROFIL
 10
55.250000042251941
 20
98.999999999998195
 30
0.0
 11
55.250000042251941
 21
98.000000000001805
 31
0.0
  0
ARC
  5
170B
  8
SAPA_PROFIL
 10
54.250000042251941
 20
98.000000000001805
 30
0.0
 40
1.0
 50
270.0
 51
0.0
  0
LINE
  5
170C
  8
SAPA_PROFIL
 10
54.250000042251941
 20
97.000000000001819
 30
0.0
 11
48.137070332290932
 21
97.000000000001819
 31
0.0
  0
ARC
  5
170D
  8
SAPA_PROFIL
 10
48.137070332291003
 20
98.000000000001805
 30
0.0
 40
0.9999999999999857
 50
205.00000000026509
 51
269.99999999999642
  0
LINE
  5
170E
  8
SAPA_PROFIL
 10
47.230762545256312
 20
97.577381738256932
 30
0.0
 11
45.437699306909053
 21
101.4226182617562
 31
0.0
  0
ARC
  5
170F
  8
SAPA_PROFIL
 10
44.531391519874369
 20
101.0000000000114
 30
0.0
 40
0.999999999999982
 50
25.000000000265221
 51
89.999999999996746
  0
LINE
  5
1710
  8
SAPA_PROFIL
 10
44.531391519874433
 20
102.0000000000113
 30
0.0
 11
41.482646046546051
 21
102.0000000000113
 31
0.0
  0
ARC
  5
1711
  8
SAPA_PROFIL
 10
41.482646046546037
 20
101.8000000000108
 30
0.0
 40
0.2000000000005571
 50
89.999999999997968
 51
209.10990894042459
  0
ARC
  5
1712
  8
SAPA_PROFIL
 10
38.250000071513362
 20
99.999999999979764
 30
0.0
 40
3.500000000000357
 50
4.9171003360431147
 51
29.109908940420279
  0
LINE
  5
1713
  8
SAPA_PROFIL
 10
41.737119226343559
 20
100.3000000000111
 30
0.0
 11
43.000000071513561
 21
100.3000000000111
 31
0.0
  0
ARC
  5
1714
  8
SAPA_PROFIL
 10
43.000000071513561
 20
99.800000000011096
 30
0.0
 40
0.5
 50
0.0
 51
90.0
  0
LINE
  5
1715
  8
SAPA_PROFIL
 10
43.500000071513568
 20
99.800000000011096
 30
0.0
 11
43.500000071513568
 21
97.500000000001819
 31
0.0
  0
ARC
  5
1716
  8
SAPA_PROFIL
 10
43.000000071513561
 20
97.500000000001819
 30
0.0
 40
0.5
 50
270.0
 51
0.0
  0
LINE
  5
1717
  8
SAPA_PROFIL
 10
43.000000071513561
 20
97.000000000001819
 30
0.0
 11
40.05277570928228
 21
97.000000000001819
 31
0.0
  0
ARC
  5
1718
  8
SAPA_PROFIL
 10
38.250000071513803
 20
99.999999999979892
 30
0.0
 40
3.5000000000000031
 50
238.99728086542899
 51
301.00271913457101
  0
LINE
  5
1719
  8
SAPA_PROFIL
 10
36.447224433745312
 20
97.000000000001819
 30
0.0
 11
30.05277570928229
 21
97.000000000001819
 31
0.0
  0
ARC
  5
171A
  8
SAPA_PROFIL
 10
28.250000071513799
 20
99.999999999979892
 30
0.0
 40
3.4999999999999911
 50
238.99728086542891
 51
301.00271913457112
  0
LINE
  5
171B
  8
SAPA_PROFIL
 10
26.447224433745308
 20
97.000000000001819
 30
0.0
 11
23.500000071513568
 21
97.000000000001819
 31
0.0
  0
LINE
  5
171C
  8
SAPA_PROFIL
 10
88.750000036125115
 20
82.300000000002015
 30
0.0
 11
88.750000036125115
 21
82.300000000002015
 31
0.0
  0
LINE
  5
171D
  8
SAPA_PROFIL
 10
88.750000036125115
 20
82.300000000002015
 30
0.0
 11
88.750000036125115
 21
94.500000000001819
 31
0.0
  0
LINE
  5
171E
  8
SAPA_PROFIL
 10
88.750000036125115
 20
94.500000000001819
 30
0.0
 11
106.2500000361251
 21
94.500000000001819
 31
0.0
  0
LINE
  5
171F
  8
SAPA_PROFIL
 10
106.2500000361251
 20
94.500000000001819
 30
0.0
 11
106.2500000361251
 21
93.900000000001896
 31
0.0
  0
LINE
  5
1720
  8
SAPA_PROFIL
 10
106.2500000361251
 20
93.900000000001896
 30
0.0
 11
108.7500000715272
 21
93.900000000001896
 31
0.0
  0
ARC
  5
1721
  8
SAPA_PROFIL
 10
108.7500000715272
 20
92.900000000001896
 30
0.0
 40
1.0
 50
0.0
 51
90.0
  0
LINE
  5
1722
  8
SAPA_PROFIL
 10
109.7500000715272
 20
92.900000000001896
 30
0.0
 11
109.7500000715272
 21
83.900000000001896
 31
0.0
  0
ARC
  5
1723
  8
SAPA_PROFIL
 10
108.7500000715272
 20
83.900000000001896
 30
0.0
 40
1.0
 50
270.0
 51
0.0
  0
LINE
  5
1724
  8
SAPA_PROFIL
 10
108.7500000715272
 20
82.900000000001896
 30
0.0
 11
106.2500000361251
 21
82.900000000001896
 31
0.0
  0
LINE
  5
1725
  8
SAPA_PROFIL
 10
106.2500000361251
 20
82.900000000001896
 30
0.0
 11
106.2500000361251
 21
82.300000000002015
 31
0.0
  0
LINE
  5
1726
  8
SAPA_PROFIL
 10
106.2500000361251
 20
82.300000000002015
 30
0.0
 11
88.750000036125115
 21
82.300000000002015
 31
0.0
  0
LINE
  5
1727
  8
SAPA_PROFIL
 10
88.750000036125115
 20
82.300000000002015
 30
0.0
 11
88.750000036125115
 21
82.300000000002015
 31
0.0
  0
LINE
  5
1728
  8
SAPA_PROFIL
 10
143.75000007152721
 20
82.300000000002015
 30
0.0
 11
111.7500000715272
 21
82.300000000002015
 31
0.0
  0
LINE
  5
1729
  8
SAPA_PROFIL
 10
111.7500000715272
 20
82.300000000002015
 30
0.0
 11
111.7500000715272
 21
94.500000000001819
 31
0.0
  0
LINE
  5
172A
  8
SAPA_PROFIL
 10
111.7500000715272
 20
94.500000000001819
 30
0.0
 11
143.75000007152721
 21
94.500000000001819
 31
0.0
  0
LINE
  5
172B
  8
SAPA_PROFIL
 10
143.75000007152721
 20
94.500000000001819
 30
0.0
 11
143.75000007152721
 21
82.300000000002015
 31
0.0
  0
ARC
  5
172C
  8
SAPA_PROFIL
 10
85.750000071512886
 20
80.000000000003638
 30
0.0
 40
0.2000000000000455
 50
359.99999999947892
 51
179.99999999947889
  0
LINE
  5
172D
  8
SAPA_PROFIL
 10
85.550000071512827
 20
80.000000000005457
 30
0.0
 11
81.964189633885795
 21
79.999976000005063
 31
0.0
  0
ARC
  5
172E
  8
SAPA_PROFIL
 10
81.964189633885795
 20
80.999976000005162
 30
0.0
 40
1.000000000000099
 50
135.00000000000401
 51
270.0
  0
LINE
  5
172F
  8
SAPA_PROFIL
 10
81.257082852699114
 20
81.70708278119173
 30
0.0
 11
82.562132105867931
 21
83.012132034361002
 31
0.0
  0
ARC
  5
1730
  8
SAPA_PROFIL
 10
82.774264140223835
 20
82.800000000004715
 30
0.0
 40
0.3000000000001953
 50
89.999999999932157
 51
134.99999999995009
  0
LINE
  5
1731
  8
SAPA_PROFIL
 10
82.774264140224204
 20
83.100000000004897
 30
0.0
 11
83.360769586971387
 21
83.100000000004897
 31
0.0
  0
ARC
  5
1732
  8
SAPA_PROFIL
 10
83.360769586970676
 20
82.800000000005426
 30
0.0
 40
0.2999999999994856
 50
59.999999999863498
 51
89.999999999861586
  0
LINE
  5
1733
  8
SAPA_PROFIL
 10
83.510769586971037
 20
83.059807621139939
 30
0.0
 11
85.000000071512204
 21
82.20000000000482
 31
0.0
  0
LINE
  5
1734
  8
SAPA_PROFIL
 10
85.000000071512204
 20
82.20000000000482
 30
0.0
 11
85.450000071512022
 21
82.199988000005305
 31
0.0
  0
ARC
  5
1735
  8
SAPA_PROFIL
 10
85.450000071512264
 20
82.499988000005246
 30
0.0
 40
0.2999999999999403
 50
269.9999999999539
 51
359.9999999999593
  0
LINE
  5
1736
  8
SAPA_PROFIL
 10
85.750000071512204
 20
82.499988000005018
 30
0.0
 11
85.750000071512204
 21
86.100000000005366
 31
0.0
  0
ARC
  5
1737
  8
SAPA_PROFIL
 10
85.45000007151225
 20
86.100000000005139
 30
0.0
 40
0.2999999999999545
 50
0.0000000000434252
 51
90.000000000043414
  0
LINE
  5
1738
  8
SAPA_PROFIL
 10
85.450000071512022
 20
86.400000000005093
 30
0.0
 11
85.000000071512204
 21
86.400000000005093
 31
0.0
  0
LINE
  5
1739
  8
SAPA_PROFIL
 10
85.000000071512204
 20
86.400000000005093
 30
0.0
 11
83.510739940437816
 21
85.540175262436151
 31
0.0
  0
ARC
  5
173A
  8
SAPA_PROFIL
 10
83.360739940437952
 20
85.799982883571047
 30
0.0
 40
0.2999999999995552
 50
270.0036468674607
 51
300.00000000001887
  0
LINE
  5
173B
  8
SAPA_PROFIL
 10
83.360759035391297
 20
85.49998288417919
 30
0.0
 11
83.250000071512204
 21
85.499975834388366
 31
0.0
  0
LINE
  5
173C
  8
SAPA_PROFIL
 10
83.250000071512204
 20
85.499975834388366
 30
0.0
 11
83.250000071512645
 21
87.121687836493024
 31
0.0
  0
ARC
  5
173D
  8
SAPA_PROFIL
 10
84.250000071512332
 20
87.121687836492868
 30
0.0
 40
0.9999999999996732
 50
119.9999999999892
 51
179.99999999999019
  0
LINE
  5
173E
  8
SAPA_PROFIL
 10
83.750000071512659
 20
87.987713240277117
 30
0.0
 11
85.250000071512204
 21
88.853738644061195
 31
0.0
  0
ARC
  5
173F
  8
SAPA_PROFIL
 10
84.750000071512531
 20
89.719764047845445
 30
0.0
 40
0.9999999999996724
 50
299.9999999999892
 51
359.99999999999022
  0
LINE
  5
1740
  8
SAPA_PROFIL
 10
85.750000071512204
 20
89.719764047845274
 30
0.0
 11
85.750000071512204
 21
90.280235952161533
 31
0.0
  0
ARC
  5
1741
  8
SAPA_PROFIL
 10
84.750000071512133
 20
90.280235952161604
 30
0.0
 40
1.0000000000000711
 50
359.99999999999682
 51
59.999999999997563
  0
LINE
  5
1742
  8
SAPA_PROFIL
 10
85.250000071512204
 20
91.146261355946081
 30
0.0
 11
83.750000071512659
 21
92.012286759731069
 31
0.0
  0
ARC
  5
1743
  8
SAPA_PROFIL
 10
84.250000071512105
 20
92.878312163515702
 30
0.0
 40
0.999999999999884
 50
180.00000000003169
 51
240.00000000003379
  0
LINE
  5
1744
  8
SAPA_PROFIL
 10
83.250000071512204
 20
92.878312163515147
 30
0.0
 11
83.250000071512204
 21
94.500024165618925
 31
0.0
  0
LINE
  5
1745
  8
SAPA_PROFIL
 10
83.250000071512204
 20
94.500024165618925
 30
0.0
 11
83.360759035391297
 21
94.500017115828086
 31
0.0
  0
ARC
  5
1746
  8
SAPA_PROFIL
 10
83.360739940437114
 20
94.200017116436001
 30
0.0
 40
0.2999999999997807
 50
59.999999999820652
 51
89.996353132379184
  0
LINE
  5
1747
  8
SAPA_PROFIL
 10
83.510739940437816
 20
94.459824737570685
 30
0.0
 11
85.000000071512204
 21
93.600000000002169
 31
0.0
  0
LINE
  5
1748
  8
SAPA_PROFIL
 10
85.000000071512204
 20
93.600000000002169
 30
0.0
 11
85.450000071512022
 21
93.600000000001728
 31
0.0
  0
ARC
  5
1749
  8
SAPA_PROFIL
 10
85.450000071512022
 20
93.900000000001896
 30
0.0
 40
0.3000000000001819
 50
270.0
 51
0.0
  0
LINE
  5
174A
  8
SAPA_PROFIL
 10
85.750000071512204
 20
93.900000000001896
 30
0.0
 11
85.750000071512204
 21
97.500012000001789
 31
0.0
  0
ARC
  5
174B
  8
SAPA_PROFIL
 10
85.450000071512036
 20
97.500012000001803
 30
0.0
 40
0.3000000000001677
 50
359.99999999999733
 51
90.000000000002728
  0
LINE
  5
174C
  8
SAPA_PROFIL
 10
85.450000071512022
 20
97.800012000001985
 30
0.0
 11
85.000000071512204
 21
97.800000000002001
 31
0.0
  0
LINE
  5
174D
  8
SAPA_PROFIL
 10
85.000000071512204
 20
97.800000000002001
 30
0.0
 11
83.510769586971037
 21
96.940192378866868
 31
0.0
  0
ARC
  5
174E
  8
SAPA_PROFIL
 10
83.360769586971514
 20
97.200000000001623
 30
0.0
 40
0.2999999999992616
 50
269.99999999997829
 51
299.99999999997613
  0
LINE
  5
174F
  8
SAPA_PROFIL
 10
83.360769586971387
 20
96.900000000002365
 30
0.0
 11
82.774264140224204
 21
96.900000000002365
 31
0.0
  0
ARC
  5
1750
  8
SAPA_PROFIL
 10
82.774264140223835
 20
97.200000000002561
 30
0.0
 40
0.3000000000001961
 50
225.00000000004991
 51
270.00000000006781
  0
LINE
  5
1751
  8
SAPA_PROFIL
 10
82.562132105867931
 20
96.987867965646274
 30
0.0
 11
81.257082852699114
 21
98.292917218815546
 31
0.0
  0
ARC
  5
1752
  8
SAPA_PROFIL
 10
81.964189633885681
 20
99.000024000001901
 30
0.0
 40
0.9999999999998674
 50
89.999999999994287
 51
224.99999999999079
  0
LINE
  5
1753
  8
SAPA_PROFIL
 10
81.964189633885795
 20
100.0000240000017
 30
0.0
 11
85.550000071512827
 21
100.0000000000018
 31
0.0
  0
ARC
  5
1754
  8
SAPA_PROFIL
 10
85.750000071512645
 20
100.0000000000018
 30
0.0
 40
0.1999999999998181
 50
180.0
 51
0.0
  0
LINE
  5
1755
  8
SAPA_PROFIL
 10
85.950000071512477
 20
100.0000000000018
 30
0.0
 11
87.250000101062142
 21
100.0000000000018
 31
0.0
  0
ARC
  5
1756
  8
SAPA_PROFIL
 10
87.250000100917902
 20
99.000000000145889
 30
0.0
 40
0.9999999998559304
 50
359.99999999153698
 51
89.999999991735649
  0
LINE
  5
1757
  8
SAPA_PROFIL
 10
88.250000100773832
 20
98.999999999998195
 30
0.0
 11
88.250000100773832
 21
98.000000000001805
 31
0.0
  0
ARC
  5
1758
  8
SAPA_PROFIL
 10
89.250000100773832
 20
98.000000000001805
 30
0.0
 40
1.0
 50
180.0
 51
270.0
  0
LINE
  5
1759
  8
SAPA_PROFIL
 10
89.250000100773832
 20
97.000000000001819
 30
0.0
 11
95.362929810735295
 21
97.000000000001819
 31
0.0
  0
ARC
  5
175A
  8
SAPA_PROFIL
 10
95.362929810735011
 20
98.000000000001435
 30
0.0
 40
0.9999999999996163
 50
270.00000000001631
 51
334.99999999974841
  0
LINE
  5
175B
  8
SAPA_PROFIL
 10
96.269237597769461
 20
97.577381738256932
 30
0.0
 11
98.062300836116734
 21
101.4226182617562
 31
0.0
  0
ARC
  5
175C
  8
SAPA_PROFIL
 10
98.968608623151397
 20
101.0000000000114
 30
0.0
 40
0.999999999999976
 50
90.000000000003254
 51
154.99999999973551
  0
LINE
  5
175D
  8
SAPA_PROFIL
 10
98.968608623151354
 20
102.0000000000113
 30
0.0
 11
102.01735409647971
 21
102.0000000000113
 31
0.0
  0
ARC
  5
175E
  8
SAPA_PROFIL
 10
102.01735409647991
 20
101.8000000000107
 30
0.0
 40
0.200000000000685
 50
330.8900910596401
 51
90.000000000065128
  0
ARC
  5
175F
  8
SAPA_PROFIL
 10
105.2500000715127
 20
99.999999999978684
 30
0.0
 40
3.500000000000727
 50
150.89009105956279
 51
175.0828996639396
  0
LINE
  5
1760
  8
SAPA_PROFIL
 10
101.76288091668221
 20
100.3000000000111
 30
0.0
 11
100.5000000715122
 21
100.3000000000111
 31
0.0
  0
ARC
  5
1761
  8
SAPA_PROFIL
 10
100.5000000715122
 20
99.800000000011096
 30
0.0
 40
0.5
 50
90.0
 51
180.0
  0
LINE
  5
1762
  8
SAPA_PROFIL
 10
100.0000000715122
 20
99.800000000011096
 30
0.0
 11
100.0000000715122
 21
97.500000000001819
 31
0.0
  0
ARC
  5
1763
  8
SAPA_PROFIL
 10
100.5000000715122
 20
97.500000000001819
 30
0.0
 40
0.5
 50
180.0
 51
270.0
  0
LINE
  5
1764
  8
SAPA_PROFIL
 10
100.5000000715122
 20
97.000000000001819
 30
0.0
 11
103.4472244337439
 21
97.000000000001819
 31
0.0
  0
ARC
  5
1765
  8
SAPA_PROFIL
 10
105.2500000715122
 20
99.99999999997948
 30
0.0
 40
3.4999999999995328
 50
238.99728086542879
 51
301.00271913457129
  0
LINE
  5
1766
  8
SAPA_PROFIL
 10
107.0527757092804
 20
97.000000000001819
 30
0.0
 11
113.4472244337439
 21
97.000000000001819
 31
0.0
  0
ARC
  5
1767
  8
SAPA_PROFIL
 10
115.2500000715122
 20
99.99999999997948
 30
0.0
 40
3.4999999999995328
 50
238.99728086542879
 51
301.00271913457129
  0
LINE
  5
1768
  8
SAPA_PROFIL
 10
117.0527757092804
 20
97.000000000001819
 30
0.0
 11
120.0000000715122
 21
97.000000000001819
 31
0.0
  0
ARC
  5
1769
  8
SAPA_PROFIL
 10
120.0000000715122
 20
97.500000000001819
 30
0.0
 40
0.5
 50
270.0
 51
0.0
  0
LINE
  5
176A
  8
SAPA_PROFIL
 10
120.5000000715122
 20
97.500000000001819
 30
0.0
 11
120.5000000715122
 21
99.800000000011096
 31
0.0
  0
ARC
  5
176B
  8
SAPA_PROFIL
 10
120.0000000715122
 20
99.800000000011096
 30
0.0
 40
0.5
 50
0.0
 51
90.0
  0
LINE
  5
176C
  8
SAPA_PROFIL
 10
120.0000000715122
 20
100.3000000000111
 30
0.0
 11
118.7371192263417
 21
100.3000000000111
 31
0.0
  0
ARC
  5
176D
  8
SAPA_PROFIL
 10
115.25000007151149
 20
99.999999999979735
 30
0.0
 40
3.5000000000003948
 50
4.9171003360432968
 51
29.109908940420201
  0
ARC
  5
176E
  8
SAPA_PROFIL
 10
118.4826460465442
 20
101.8000000000108
 30
0.0
 40
0.2000000000005637
 50
90.0
 51
209.10990894042359
  0
LINE
  5
176F
  8
SAPA_PROFIL
 10
118.4826460465442
 20
102.0000000000113
 30
0.0
 11
121.531391519873
 21
102.0000000000113
 31
0.0
  0
ARC
  5
1770
  8
SAPA_PROFIL
 10
121.5313915198728
 20
101.0000000000117
 30
0.0
 40
0.9999999999996163
 50
25.000000000251539
 51
89.999999999983714
  0
LINE
  5
1771
  8
SAPA_PROFIL
 10
122.43769930690721
 20
101.4226182617562
 30
0.0
 11
124.23076254525451
 21
97.577381738256932
 31
0.0
  0
ARC
  5
1772
  8
SAPA_PROFIL
 10
125.1370703322892
 20
98.000000000001805
 30
0.0
 40
0.999999999999982
 50
205.0000000002652
 51
269.99999999999682
  0
LINE
  5
1773
  8
SAPA_PROFIL
 10
125.1370703322891
 20
97.000000000001819
 30
0.0
 11
141.45000007151239
 21
97.000000000001819
 31
0.0
  0
LINE
  5
1774
  8
SAPA_PROFIL
 10
141.45000007151239
 20
97.000000000001819
 30
0.0
 11
141.45000007151239
 21
98.500000000001819
 31
0.0
  0
LINE
  5
1775
  8
SAPA_PROFIL
 10
141.45000007151239
 20
98.500000000001819
 30
0.0
 11
142.2500000715122
 21
98.500000000001819
 31
0.0
  0
LINE
  5
1776
  8
SAPA_PROFIL
 10
142.2500000715122
 20
98.500000000001819
 30
0.0
 11
142.2500000715122
 21
97.000000000001819
 31
0.0
  0
LINE
  5
1777
  8
SAPA_PROFIL
 10
142.2500000715122
 20
97.000000000001819
 30
0.0
 11
143.95000007151251
 21
97.000000000001819
 31
0.0
  0
LINE
  5
1778
  8
SAPA_PROFIL
 10
143.95000007151251
 20
97.000000000001819
 30
0.0
 11
144.2500000715122
 21
121.6000000000017
 31
0.0
  0
LINE
  5
1779
  8
SAPA_PROFIL
 10
144.2500000715122
 20
121.6000000000017
 30
0.0
 11
142.5500000715119
 21
121.6000000000017
 31
0.0
  0
LINE
  5
177A
  8
SAPA_PROFIL
 10
142.5500000715119
 20
121.6000000000017
 30
0.0
 11
142.5500000715119
 21
119.6000000000017
 31
0.0
  0
LINE
  5
177B
  8
SAPA_PROFIL
 10
142.5500000715119
 20
119.6000000000017
 30
0.0
 11
141.7500000715122
 21
119.6000000000017
 31
0.0
  0
LINE
  5
177C
  8
SAPA_PROFIL
 10
141.7500000715122
 20
119.6000000000017
 30
0.0
 11
141.7500000715122
 21
123.7499999999927
 31
0.0
  0
ARC
  5
177D
  8
SAPA_PROFIL
 10
142.2500000715122
 20
123.7499999999927
 30
0.0
 40
0.4999999999999716
 50
89.999999999996746
 51
180.00000000000159
  0
LINE
  5
177E
  8
SAPA_PROFIL
 10
142.2500000715122
 20
124.2499999999927
 30
0.0
 11
142.75000007149399
 21
124.2500000000045
 31
0.0
  0
LINE
  5
177F
  8
SAPA_PROFIL
 10
142.75000007149399
 20
124.2500000000045
 30
0.0
 11
142.75000007151539
 21
123.00000000003
 31
0.0
  0
LINE
  5
1780
  8
SAPA_PROFIL
 10
142.75000007151539
 20
123.00000000003
 30
0.0
 11
144.15000007149411
 21
122.9999999999945
 31
0.0
  0
ARC
  5
1781
  8
SAPA_PROFIL
 10
144.15000007148791
 20
123.2999999999809
 30
0.0
 40
0.2999999999863689
 50
270.00000000118331
 51
0.0000000026380793
  0
LINE
  5
1782
  8
SAPA_PROFIL
 10
144.45000007147431
 20
123.2999999999947
 30
0.0
 11
144.45000007150151
 21
129.69999999999979
 31
0.0
  0
ARC
  5
1783
  8
SAPA_PROFIL
 10
144.1500000715119
 20
129.69999999998211
 30
0.0
 40
0.2999999999896659
 50
0.0000000033763072
 51
90.000000001921563
  0
LINE
  5
1784
  8
SAPA_PROFIL
 10
144.15000007150181
 20
129.99999999997181
 30
0.0
 11
142.75000007151539
 21
129.99999999996399
 31
0.0
  0
LINE
  5
1785
  8
SAPA_PROFIL
 10
142.75000007151539
 20
129.99999999996399
 30
0.0
 11
142.75000007149399
 21
128.74999999999
 31
0.0
  0
LINE
  5
1786
  8
SAPA_PROFIL
 10
142.75000007149399
 20
128.74999999999
 30
0.0
 11
142.25000007151169
 21
128.75000000000179
 31
0.0
  0
ARC
  5
1787
  8
SAPA_PROFIL
 10
142.25000007151201
 20
129.25000000000159
 30
0.0
 40
0.4999999999997727
 50
179.99999999997391
 51
269.99999999997391
  0
LINE
  5
1788
  8
SAPA_PROFIL
 10
141.7500000715122
 20
129.25000000000179
 30
0.0
 11
141.75000007151169
 21
132.25000000000179
 31
0.0
  0
ARC
  5
1789
  8
SAPA_PROFIL
 10
142.25000007151169
 20
132.25000000000909
 30
0.0
 40
0.5
 50
90.0
 51
180.00000000083369
  0
LINE
  5
178A
  8
SAPA_PROFIL
 10
142.25000007151169
 20
132.75000000000909
 30
0.0
 11
142.75000007151169
 21
132.75000000000909
 31
0.0
  0
LINE
  5
178B
  8
SAPA_PROFIL
 10
142.75000007151169
 20
132.75000000000909
 30
0.0
 11
142.75000007151169
 21
131.30000000001201
 31
0.0
  0
LINE
  5
178C
  8
SAPA_PROFIL
 10
142.75000007151169
 20
131.30000000001201
 30
0.0
 11
144.6000000715039
 21
131.30000000001201
 31
0.0
  0
ARC
  5
178D
  8
SAPA_PROFIL
 10
144.60000007148781
 20
131.5999999999988
 30
0.0
 40
0.2999999999867668
 50
270.00000000308307
 51
0.0000000030831873
  0
LINE
  5
178E
  8
SAPA_PROFIL
 10
144.90000007147449
 20
131.60000000001489
 30
0.0
 11
144.9000000715032
 21
133.84019237887151
 31
0.0
  0
LINE
  5
178F
  8
SAPA_PROFIL
 10
144.9000000715032
 20
133.84019237887151
 30
0.0
 11
144.45000007150881
 21
134.10000000000031
 31
0.0
  0
LINE
  5
1790
  8
SAPA_PROFIL
 10
144.45000007150881
 20
134.10000000000031
 30
0.0
 11
144.45000007150881
 21
135.90000000001049
 31
0.0
  0
LINE
  5
1791
  8
SAPA_PROFIL
 10
144.45000007150881
 20
135.90000000001049
 30
0.0
 11
144.9000000715032
 21
136.15980762113941
 31
0.0
  0
LINE
  5
1792
  8
SAPA_PROFIL
 10
144.9000000715032
 20
136.15980762113941
 30
0.0
 11
144.9000000715032
 21
138.399999999996
 31
0.0
  0
ARC
  5
1793
  8
SAPA_PROFIL
 10
144.60000007151751
 20
138.3999999999842
 30
0.0
 40
0.29999999998563
 50
0.000000002258109
 51
90.000000002952902
  0
LINE
  5
1794
  8
SAPA_PROFIL
 10
144.60000007150211
 20
138.6999999999698
 30
0.0
 11
142.75000007151129
 21
138.69999999999891
 31
0.0
  0
LINE
  5
1795
  8
SAPA_PROFIL
 10
142.75000007151129
 20
138.69999999999891
 30
0.0
 11
142.75000007151169
 21
137.25000000000179
 31
0.0
  0
LINE
  5
1796
  8
SAPA_PROFIL
 10
142.75000007151169
 20
137.25000000000179
 30
0.0
 11
142.25000007151169
 21
137.25000000000179
 31
0.0
  0
ARC
  5
1797
  8
SAPA_PROFIL
 10
142.25000007151169
 20
137.75000000000179
 30
0.0
 40
0.5
 50
180.0
 51
270.0
  0
LINE
  5
1798
  8
SAPA_PROFIL
 10
141.75000007151169
 20
137.75000000000179
 30
0.0
 11
141.75000007151169
 21
139.50000000000179
 31
0.0
  0
ARC
  5
1799
  8
SAPA_PROFIL
 10
142.25000007151169
 20
139.50000000000179
 30
0.0
 40
0.5
 50
90.0
 51
180.0
  0
LINE
  5
179A
  8
SAPA_PROFIL
 10
142.25000007151169
 20
140.00000000000179
 30
0.0
 11
144.75000007151169
 21
140.0000000000023
 31
0.0
  0
ARC
  5
179B
  8
SAPA_PROFIL
 10
144.75000007151181
 20
138.0000000000023
 30
0.0
 40
1.9999999999999141
 50
359.99999999999761
 51
90.000000000002444
  0
LINE
  5
179C
  8
SAPA_PROFIL
 10
146.75000007151169
 20
138.00000000000219
 30
0.0
 11
146.7500000715122
 21
24.375000000000458
 31
0.0
  0
ARC
  5
179D
  8
SAPA_PROFIL
 10
145.37500007151201
 20
24.375000000000441
 30
0.0
 40
1.3750000000002269
 50
179.9999999999996
 51
0.0000000000004441
  0
LINE
  5
179E
  8
SAPA_PROFIL
 10
144.00000007151169
 20
24.375000000000458
 30
0.0
 11
144.00000007151169
 21
76.000000000006366
 31
0.0
  0
ARC
  5
179F
  8
SAPA_PROFIL
 10
140.00000007151189
 20
76.000000000006523
 30
0.0
 40
3.999999999999829
 50
359.99999999999778
 51
90.000000000002444
  0
LINE
  5
17A0
  8
SAPA_PROFIL
 10
140.00000007151169
 20
80.000000000006366
 30
0.0
 11
85.950000071512932
 21
80.000000000001819
 31
0.0
  0
ARC
  5
17A1
  8
SAPA_ISOLATOR
 10
60.125833224252837
 20
82.850036032520464
 30
0.0
 40
0.3000000000003382
 50
90.000000000094985
 51
120.0000000000926
  0
LINE
  5
17A2
  8
SAPA_ISOLATOR
 10
59.975833224252248
 20
83.109843653655844
 30
0.0
 11
58.486602683407
 21
82.250036000013566
 31
0.0
  0
LINE
  5
17A3
  8
SAPA_ISOLATOR
 10
58.486602683407
 20
82.250036000013566
 30
0.0
 11
58.050000143028683
 21
82.250036000013566
 31
0.0
  0
ARC
  5
17A4
  8
SAPA_ISOLATOR
 10
58.050000143028683
 20
82.500036000013537
 30
0.0
 40
0.25
 50
180.0
 51
270.0
  0
LINE
  5
17A5
  8
SAPA_ISOLATOR
 10
57.800000143028683
 20
82.500036000013537
 30
0.0
 11
57.800000143028683
 21
86.10004800001343
 31
0.0
  0
ARC
  5
17A6
  8
SAPA_ISOLATOR
 10
58.050000143028669
 20
86.10004800001343
 30
0.0
 40
0.2499999999999929
 50
89.999999999998366
 51
180.0
  0
LINE
  5
17A7
  8
SAPA_ISOLATOR
 10
58.050000143028683
 20
86.35004800001343
 30
0.0
 11
58.486602064606821
 21
86.350036357278441
 31
0.0
  0
LINE
  5
17A8
  8
SAPA_ISOLATOR
 10
58.486602064606821
 20
86.350036357278441
 30
0.0
 11
59.975833111644533
 21
85.490228411385033
 31
0.0
  0
ARC
  5
17A9
  8
SAPA_ISOLATOR
 10
60.125833111644262
 20
85.750036032520555
 30
0.0
 40
0.3000000000000256
 50
240.0000000000642
 51
270.00000000007049
  0
LINE
  5
17AA
  8
SAPA_ISOLATOR
 10
60.125833111644617
 20
85.450036032520529
 30
0.0
 11
83.374167102896067
 21
85.450036032520529
 31
0.0
  0
ARC
  5
17AB
  8
SAPA_ISOLATOR
 10
83.37416710289645
 20
85.750036032520555
 30
0.0
 40
0.3000000000000256
 50
269.9999999999294
 51
299.99999999993582
  0
LINE
  5
17AC
  8
SAPA_ISOLATOR
 10
83.524167102896172
 20
85.490228411385033
 30
0.0
 11
85.013398149933892
 21
86.350036357278441
 31
0.0
  0
LINE
  5
17AD
  8
SAPA_ISOLATOR
 10
85.013398149933892
 20
86.350036357278441
 30
0.0
 11
85.450000071512477
 21
86.35004800001343
 31
0.0
  0
ARC
  5
17AE
  8
SAPA_ISOLATOR
 10
85.450000071512477
 20
86.10004800001343
 30
0.0
 40
0.25
 50
0.0
 51
90.0
  0
LINE
  5
17AF
  8
SAPA_ISOLATOR
 10
85.700000071512477
 20
86.10004800001343
 30
0.0
 11
85.700000071512477
 21
82.500036000013537
 31
0.0
  0
ARC
  5
17B0
  8
SAPA_ISOLATOR
 10
85.450000071512477
 20
82.500036000013537
 30
0.0
 40
0.25
 50
270.0
 51
0.0
  0
LINE
  5
17B1
  8
SAPA_ISOLATOR
 10
85.450000071512477
 20
82.250036000013566
 30
0.0
 11
85.013397531133705
 21
82.250036000013566
 31
0.0
  0
LINE
  5
17B2
  8
SAPA_ISOLATOR
 10
85.013397531133705
 20
82.250036000013566
 30
0.0
 11
83.524166990288904
 21
83.109843653655844
 31
0.0
  0
ARC
  5
17B3
  8
SAPA_ISOLATOR
 10
83.374166990288089
 20
82.850036032519625
 30
0.0
 40
0.3000000000011758
 50
59.999999999949772
 51
89.999999999948443
  0
LINE
  5
17B4
  8
SAPA_ISOLATOR
 10
83.374166990288344
 20
83.150036032520802
 30
0.0
 11
60.125833224252347
 21
83.150036032520802
 31
0.0
  0
LINE
  5
17B5
  8
SAPA_ISOLATOR
 10
74.250000139903477
 20
123.3477350676189
 30
-0.2
 11
74.250000139903477
 21
137.54773506762101
 31
-0.2
1001
RC_PROFILE
1002
{
1000
Region
1002
}
  0
ARC
  5
17B6
  8
SAPA_ISOLATOR
 10
73.750000139903477
 20
137.54773506762101
 30
-0.2
 40
0.5
 50
0.0
 51
89.999999999791555
1001
RC_PROFILE
1002
{
1000
Region
1002
}
  0
LINE
  5
17B7
  8
SAPA_ISOLATOR
 10
73.750000139905296
 20
138.04773506762101
 30
-0.2
 11
69.750000139284111
 21
138.04773506762371
 31
-0.2
1001
RC_PROFILE
1002
{
1000
Region
1002
}
  0
ARC
  5
17B8
  8
SAPA_ISOLATOR
 10
69.750000139284111
 20
137.54773506762371
 30
-0.2
 40
0.5
 50
90.0
 51
180.0
1001
RC_PROFILE
1002
{
1000
Region
1002
}
  0
LINE
  5
17B9
  8
SAPA_ISOLATOR
 10
69.250000139284111
 20
137.54773506762371
 30
-0.2
 11
69.250000139276835
 21
123.34773506762031
 31
-0.2
1001
RC_PROFILE
1002
{
1000
Region
1002
}
  0
ARC
  5
17BA
  8
SAPA_ISOLATOR
 10
69.750000139276949
 20
123.347735067619
 30
-0.2
 40
0.5000000000001137
 50
179.9999999998567
 51
269.99999999998698
1001
RC_PROFILE
1002
{
1000
Region
1002
}
  0
LINE
  5
17BB
  8
SAPA_ISOLATOR
 10
69.750000139276835
 20
122.8477350676189
 30
-0.2
 11
73.750000139903477
 21
122.8477350676189
 31
-0.2
1001
RC_PROFILE
1002
{
1000
Region
1002
}
  0
ARC
  5
17BC
  8
SAPA_ISOLATOR
 10
73.750000139903477
 20
123.3477350676189
 30
-0.2
 40
0.5
 50
270.0
 51
0.0
1001
RC_PROFILE
1002
{
1000
Region
1002
}
  0
ARC
  5
17BD
  8
SAPA_PROFIL
 62
     4
 10
60.827260069883913
 20
97.784261511209891
 30
0.0
 40
1.199999999999761
 50
240.00000000001651
 51
270.00000000003729
1001
GENIUS_GENOBJ-N-FIL_13
1002
{
1000
OWNER
1000
GEN
1002
}
1001
GENIUS_GENODEF_13
1002
{
1000
HIER
1070
     0
1002
}
1002
{
1000
MANEDIT
1070
     0
1002
}
1002
{
1000
NOSEL
1070
     0
1002
}
1002
{
1000
BEHIND
1070
     0
1002
}
1002
{
1000
OTHER
1070
     0
1002
}
1002
{
1000
REACTOR
1002
}
  0
LINE
  5
17BE
  8
SAPA_PROFIL
 62
     4
 10
60.227260069884323
 20
96.745031026668585
 30
0.0
 11
58.486602129240957
 21
97.750000357266799
 31
0.0
1001
GENIUS_GENOBJ-N-FIL_13
1002
{
1000
OWNER
1000
GEN
1002
}
1001
GENIUS_GENODEF_13
1002
{
1000
HIER
1070
     0
1002
}
1002
{
1000
MANEDIT
1070
     0
1002
}
1002
{
1000
NOSEL
1070
     0
1002
}
1002
{
1000
BEHIND
1070
     0
1002
}
1002
{
1000
OTHER
1070
     0
1002
}
1002
{
1000
REACTOR
1002
}
  0
LINE
  5
17BF
  8
SAPA_PROFIL
 62
     4
 10
58.486602129240957
 20
97.750000357266799
 30
0.0
 11
58.050000207662379
 21
97.750012000001789
 31
0.0
1001
GENIUS_GENOBJ-N-FIL_13
1002
{
1000
OWNER
1000
GEN
1002
}
1001
GENIUS_GENODEF_13
1002
{
1000
HIER
1070
     0
1002
}
1002
{
1000
MANEDIT
1070
     0
1002
}
1002
{
1000
NOSEL
1070
     0
1002
}
1002
{
1000
BEHIND
1070
     0
1002
}
1002
{
1000
OTHER
1070
     0
1002
}
1002
{
1000
REACTOR
1002
}
  0
ARC
  5
17C0
  8
SAPA_PROFIL
 62
     4
 10
58.050000207662372
 20
97.500012000001789
 30
0.0
 40
0.25
 50
89.999999999998366
 51
180.0
1001
GENIUS_GENOBJ-N-FIL_13
1002
{
1000
OWNER
1000
GEN
1002
}
1001
GENIUS_GENODEF_13
1002
{
1000
HIER
1070
     0
1002
}
1002
{
1000
MANEDIT
1070
     0
1002
}
1002
{
1000
NOSEL
1070
     0
1002
}
1002
{
1000
BEHIND
1070
     0
1002
}
1002
{
1000
OTHER
1070
     0
1002
}
1002
{
1000
REACTOR
1002
}
  0
LINE
  5
17C1
  8
SAPA_PROFIL
 62
     4
 10
57.800000207662372
 20
97.500012000001789
 30
0.0
 11
57.800000207662372
 21
93.900000000001896
 31
0.0
1001
GENIUS_GENOBJ-N-FIL_13
1002
{
1000
OWNER
1000
GEN
1002
}
1001
GENIUS_GENODEF_13
1002
{
1000
HIER
1070
     0
1002
}
1002
{
1000
MANEDIT
1070
     0
1002
}
1002
{
1000
NOSEL
1070
     0
1002
}
1002
{
1000
BEHIND
1070
     0
1002
}
1002
{
1000
OTHER
1070
     0
1002
}
1002
{
1000
REACTOR
1002
}
  0
ARC
  5
17C2
  8
SAPA_PROFIL
 62
     4
 10
58.050000207662379
 20
93.900000000001896
 30
0.0
 40
0.25
 50
180.0
 51
270.0
1001
GENIUS_GENOBJ-N-FIL_13
1002
{
1000
OWNER
1000
GEN
1002
}
1001
GENIUS_GENODEF_13
1002
{
1000
HIER
1070
     0
1002
}
1002
{
1000
MANEDIT
1070
     0
1002
}
1002
{
1000
NOSEL
1070
     0
1002
}
1002
{
1000
BEHIND
1070
     0
1002
}
1002
{
1000
OTHER
1070
     0
1002
}
1002
{
1000
REACTOR
1002
}
  0
LINE
  5
17C3
  8
SAPA_PROFIL
 62
     4
 10
58.050000207662379
 20
93.650000000001924
 30
0.0
 11
58.48660274804115
 21
93.650000000001924
 31
0.0
1001
GENIUS_GENOBJ-N-FIL_13
1002
{
1000
OWNER
1000
GEN
1002
}
1001
GENIUS_GENODEF_13
1002
{
1000
HIER
1070
     0
1002
}
1002
{
1000
MANEDIT
1070
     0
1002
}
1002
{
1000
NOSEL
1070
     0
1002
}
1002
{
1000
BEHIND
1070
     0
1002
}
1002
{
1000
OTHER
1070
     0
1002
}
1002
{
1000
REACTOR
1002
}
  0
LINE
  5
17C4
  8
SAPA_PROFIL
 62
     4
 10
58.48660274804115
 20
93.650000000001924
 30
0.0
 11
60.17274034544198
 21
94.623491995751905
 31
0.0
1001
GENIUS_GENOBJ-N-FIL_13
1002
{
1000
OWNER
1000
GEN
1002
}
1001
GENIUS_GENODEF_13
1002
{
1000
HIER
1070
     0
1002
}
1002
{
1000
MANEDIT
1070
     0
1002
}
1002
{
1000
NOSEL
1070
     0
1002
}
1002
{
1000
BEHIND
1070
     0
1002
}
1002
{
1000
OTHER
1070
     0
1002
}
1002
{
1000
REACTOR
1002
}
  0
ARC
  5
17C5
  8
SAPA_PROFIL
 62
     4
 10
60.772740345442429
 20
93.584261511210784
 30
0.0
 40
1.200000000000059
 50
90.000000000025764
 51
120.00000000002311
1001
GENIUS_GENOBJ-N-FIL_13
1002
{
1000
OWNER
1000
GEN
1002
}
1001
GENIUS_GENODEF_13
1002
{
1000
HIER
1070
     0
1002
}
1002
{
1000
MANEDIT
1070
     0
1002
}
1002
{
1000
NOSEL
1070
     0
1002
}
1002
{
1000
BEHIND
1070
     0
1002
}
1002
{
1000
OTHER
1070
     0
1002
}
1002
{
1000
REACTOR
1002
}
  0
LINE
  5
17C6
  8
SAPA_PROFIL
 62
     4
 10
60.772740345441882
 20
94.784261511210843
 30
0.0
 11
82.727259933732967
 21
94.784261511210843
 31
0.0
1001
GENIUS_GENOBJ-N-FIL_13
1002
{
1000
OWNER
1000
GEN
1002
}
1001
GENIUS_GENODEF_13
1002
{
1000
HIER
1070
     0
1002
}
1002
{
1000
MANEDIT
1070
     0
1002
}
1002
{
1000
NOSEL
1070
     0
1002
}
1002
{
1000
BEHIND
1070
     0
1002
}
1002
{
1000
OTHER
1070
     0
1002
}
1002
{
1000
REACTOR
1002
}
  0
ARC
  5
17C7
  8
SAPA_PROFIL
 62
     4
 10
82.727259933732427
 20
93.584261511210784
 30
0.0
 40
1.200000000000059
 50
59.999999999976893
 51
89.999999999974222
1001
GENIUS_GENOBJ-N-FIL_13
1002
{
1000
OWNER
1000
GEN
1002
}
1001
GENIUS_GENODEF_13
1002
{
1000
HIER
1070
     0
1002
}
1002
{
1000
MANEDIT
1070
     0
1002
}
1002
{
1000
NOSEL
1070
     0
1002
}
1002
{
1000
BEHIND
1070
     0
1002
}
1002
{
1000
OTHER
1070
     0
1002
}
1002
{
1000
REACTOR
1002
}
  0
LINE
  5
17C8
  8
SAPA_PROFIL
 62
     4
 10
83.327259933732876
 20
94.623491995751905
 30
0.0
 11
85.013397531133705
 21
93.650000000001924
 31
0.0
1001
GENIUS_GENOBJ-N-FIL_13
1002
{
1000
OWNER
1000
GEN
1002
}
1001
GENIUS_GENODEF_13
1002
{
1000
HIER
1070
     0
1002
}
1002
{
1000
MANEDIT
1070
     0
1002
}
1002
{
1000
NOSEL
1070
     0
1002
}
1002
{
1000
BEHIND
1070
     0
1002
}
1002
{
1000
OTHER
1070
     0
1002
}
1002
{
1000
REACTOR
1002
}
  0
LINE
  5
17C9
  8
SAPA_PROFIL
 62
     4
 10
85.013397531133705
 20
93.650000000001924
 30
0.0
 11
85.450000071512022
 21
93.650000000001924
 31
0.0
1001
GENIUS_GENOBJ-N-FIL_13
1002
{
1000
OWNER
1000
GEN
1002
}
1001
GENIUS_GENODEF_13
1002
{
1000
HIER
1070
     0
1002
}
1002
{
1000
MANEDIT
1070
     0
1002
}
1002
{
1000
NOSEL
1070
     0
1002
}
1002
{
1000
BEHIND
1070
     0
1002
}
1002
{
1000
OTHER
1070
     0
1002
}
1002
{
1000
REACTOR
1002
}
  0
ARC
  5
17CA
  8
SAPA_PROFIL
 62
     4
 10
85.450000071512022
 20
93.900000000001896
 30
0.0
 40
0.25
 50
270.0
 51
0.0
1001
GENIUS_GENOBJ-N-FIL_13
1002
{
1000
OWNER
1000
GEN
1002
}
1001
GENIUS_GENODEF_13
1002
{
1000
HIER
1070
     0
1002
}
1002
{
1000
MANEDIT
1070
     0
1002
}
1002
{
1000
NOSEL
1070
     0
1002
}
1002
{
1000
BEHIND
1070
     0
1002
}
1002
{
1000
OTHER
1070
     0
1002
}
1002
{
1000
REACTOR
1002
}
  0
LINE
  5
17CB
  8
SAPA_PROFIL
 62
     4
 10
85.700000071512022
 20
93.900000000001896
 30
0.0
 11
85.700000071512022
 21
97.500012000001789
 31
0.0
1001
GENIUS_GENOBJ-N-FIL_13
1002
{
1000
OWNER
1000
GEN
1002
}
1001
GENIUS_GENODEF_13
1002
{
1000
HIER
1070
     0
1002
}
1002
{
1000
MANEDIT
1070
     0
1002
}
1002
{
1000
NOSEL
1070
     0
1002
}
1002
{
1000
BEHIND
1070
     0
1002
}
1002
{
1000
OTHER
1070
     0
1002
}
1002
{
1000
REACTOR
1002
}
  0
ARC
  5
17CC
  8
SAPA_PROFIL
 62
     4
 10
85.450000071512022
 20
97.500012000001789
 30
0.0
 40
0.25
 50
0.0
 51
90.0
1001
GENIUS_GENOBJ-N-FIL_13
1002
{
1000
OWNER
1000
GEN
1002
}
1001
GENIUS_GENODEF_13
1002
{
1000
HIER
1070
     0
1002
}
1002
{
1000
MANEDIT
1070
     0
1002
}
1002
{
1000
NOSEL
1070
     0
1002
}
1002
{
1000
BEHIND
1070
     0
1002
}
1002
{
1000
OTHER
1070
     0
1002
}
1002
{
1000
REACTOR
1002
}
  0
LINE
  5
17CD
  8
SAPA_PROFIL
 62
     4
 10
85.450000071512022
 20
97.750012000001789
 30
0.0
 11
85.013398149933892
 21
97.750000357266799
 31
0.0
1001
GENIUS_GENOBJ-N-FIL_13
1002
{
1000
OWNER
1000
GEN
1002
}
1001
GENIUS_GENODEF_13
1002
{
1000
HIER
1070
     0
1002
}
1002
{
1000
MANEDIT
1070
     0
1002
}
1002
{
1000
NOSEL
1070
     0
1002
}
1002
{
1000
BEHIND
1070
     0
1002
}
1002
{
1000
OTHER
1070
     0
1002
}
1002
{
1000
REACTOR
1002
}
  0
LINE
  5
17CE
  8
SAPA_PROFIL
 62
     4
 10
85.013398149933892
 20
97.750000357266799
 30
0.0
 11
83.272740209290077
 21
96.745031026668585
 31
0.0
1001
GENIUS_GENOBJ-N-FIL_13
1002
{
1000
OWNER
1000
GEN
1002
}
1001
GENIUS_GENODEF_13
1002
{
1000
HIER
1070
     0
1002
}
1002
{
1000
MANEDIT
1070
     0
1002
}
1002
{
1000
NOSEL
1070
     0
1002
}
1002
{
1000
BEHIND
1070
     0
1002
}
1002
{
1000
OTHER
1070
     0
1002
}
1002
{
1000
REACTOR
1002
}
  0
ARC
  5
17CF
  8
SAPA_PROFIL
 62
     4
 10
82.672740209290495
 20
97.784261511209891
 30
0.0
 40
1.199999999999761
 50
269.99999999996271
 51
299.99999999998352
1001
GENIUS_GENOBJ-N-FIL_13
1002
{
1000
OWNER
1000
GEN
1002
}
1001
GENIUS_GENODEF_13
1002
{
1000
HIER
1070
     0
1002
}
1002
{
1000
MANEDIT
1070
     0
1002
}
1002
{
1000
NOSEL
1070
     0
1002
}
1002
{
1000
BEHIND
1070
     0
1002
}
1002
{
1000
OTHER
1070
     0
1002
}
1002
{
1000
REACTOR
1002
}
  0
LINE
  5
17D0
  8
SAPA_PROFIL
 62
     4
 10
82.672740209289714
 20
96.584261511210116
 30
0.0
 11
79.950000071761224
 21
96.58426151121057
 31
0.0
1001
GENIUS_GENOBJ-N-FIL_13
1002
{
1000
OWNER
1000
GEN
1002
}
1001
GENIUS_GENODEF_13
1002
{
1000
HIER
1070
     0
1002
}
1002
{
1000
MANEDIT
1070
     0
1002
}
1002
{
1000
NOSEL
1070
     0
1002
}
1002
{
1000
BEHIND
1070
     0
1002
}
1002
{
1000
OTHER
1070
     0
1002
}
1002
{
1000
REACTOR
1002
}
  0
ARC
  5
17D1
  8
SAPA_PROFIL
 62
     4
 10
79.950000071761906
 20
97.784261511210175
 30
0.0
 40
1.1999999999995901
 50
179.999999999772
 51
269.99999999996737
1001
GENIUS_GENOBJ-N-FIL_13
1002
{
1000
OWNER
1000
GEN
1002
}
1001
GENIUS_GENODEF_13
1002
{
1000
HIER
1070
     0
1002
}
1002
{
1000
MANEDIT
1070
     0
1002
}
1002
{
1000
NOSEL
1070
     0
1002
}
1002
{
1000
BEHIND
1070
     0
1002
}
1002
{
1000
OTHER
1070
     0
1002
}
1002
{
1000
REACTOR
1002
}
  0
LINE
  5
17D2
  8
SAPA_PROFIL
 62
     4
 10
78.750000071762315
 20
97.784261511214936
 30
0.0
 11
78.750000071851446
 21
123.58199653813649
 31
0.0
1001
GENIUS_GENOBJ-N-FIL_13
1002
{
1000
OWNER
1000
GEN
1002
}
1001
GENIUS_GENODEF_13
1002
{
1000
HIER
1070
     0
1002
}
1002
{
1000
MANEDIT
1070
     0
1002
}
1002
{
1000
NOSEL
1070
     0
1002
}
1002
{
1000
BEHIND
1070
     0
1002
}
1002
{
1000
OTHER
1070
     0
1002
}
1002
{
1000
REACTOR
1002
}
  0
ARC
  5
17D3
  8
SAPA_PROFIL
 62
     4
 10
78.250000071851446
 20
123.58199653813649
 30
0.0
 40
0.5
 50
0.0
 51
90.0
1001
GENIUS_GENOBJ-N-FIL_13
1002
{
1000
OWNER
1000
GEN
1002
}
1001
GENIUS_GENODEF_13
1002
{
1000
HIER
1070
     0
1002
}
1002
{
1000
MANEDIT
1070
     0
1002
}
1002
{
1000
NOSEL
1070
     0
1002
}
1002
{
1000
BEHIND
1070
     0
1002
}
1002
{
1000
OTHER
1070
     0
1002
}
1002
{
1000
REACTOR
1002
}
  0
LINE
  5
17D4
  8
SAPA_PROFIL
 62
     4
 10
78.250000071851446
 20
124.08199653813649
 30
0.0
 11
78.050000071851628
 21
124.08199653813701
 31
0.0
1001
GENIUS_GENOBJ-N-FIL_13
1002
{
1000
OWNER
1000
GEN
1002
}
1001
GENIUS_GENODEF_13
1002
{
1000
HIER
1070
     0
1002
}
1002
{
1000
MANEDIT
1070
     0
1002
}
1002
{
1000
NOSEL
1070
     0
1002
}
1002
{
1000
BEHIND
1070
     0
1002
}
1002
{
1000
OTHER
1070
     0
1002
}
1002
{
1000
REACTOR
1002
}
  0
ARC
  5
17D5
  8
SAPA_PROFIL
 62
     4
 10
78.050000071851628
 20
123.7819965381368
 30
0.0
 40
0.3000000000001819
 50
90.0
 51
180.0
1001
GENIUS_GENOBJ-N-FIL_13
1002
{
1000
OWNER
1000
GEN
1002
}
1001
GENIUS_GENODEF_13
1002
{
1000
HIER
1070
     0
1002
}
1002
{
1000
MANEDIT
1070
     0
1002
}
1002
{
1000
NOSEL
1070
     0
1002
}
1002
{
1000
BEHIND
1070
     0
1002
}
1002
{
1000
OTHER
1070
     0
1002
}
1002
{
1000
REACTOR
1002
}
  0
LINE
  5
17D6
  8
SAPA_PROFIL
 62
     4
 10
77.750000071851446
 20
123.7819965381368
 30
0.0
 11
77.750000071851446
 21
123.1319965381344
 31
0.0
1001
GENIUS_GENOBJ-N-FIL_13
1002
{
1000
OWNER
1000
GEN
1002
}
1001
GENIUS_GENODEF_13
1002
{
1000
HIER
1070
     0
1002
}
1002
{
1000
MANEDIT
1070
     0
1002
}
1002
{
1000
NOSEL
1070
     0
1002
}
1002
{
1000
BEHIND
1070
     0
1002
}
1002
{
1000
OTHER
1070
     0
1002
}
1002
{
1000
REACTOR
1002
}
  0
ARC
  5
17D7
  8
SAPA_PROFIL
 62
     4
 10
77.450000071851036
 20
123.1319965381351
 30
0.0
 40
0.3000000000004093
 50
269.99999999986971
 51
359.99999999986971
1001
GENIUS_GENOBJ-N-FIL_13
1002
{
1000
OWNER
1000
GEN
1002
}
1001
GENIUS_GENODEF_13
1002
{
1000
HIER
1070
     0
1002
}
1002
{
1000
MANEDIT
1070
     0
1002
}
1002
{
1000
NOSEL
1070
     0
1002
}
1002
{
1000
BEHIND
1070
     0
1002
}
1002
{
1000
OTHER
1070
     0
1002
}
1002
{
1000
REACTOR
1002
}
  0
LINE
  5
17D8
  8
SAPA_PROFIL
 62
     4
 10
77.450000071850354
 20
122.8319965381347
 30
0.0
 11
76.550000071854356
 21
122.8319965381356
 31
0.0
1001
GENIUS_GENOBJ-N-FIL_13
1002
{
1000
OWNER
1000
GEN
1002
}
1001
GENIUS_GENODEF_13
1002
{
1000
HIER
1070
     0
1002
}
1002
{
1000
MANEDIT
1070
     0
1002
}
1002
{
1000
NOSEL
1070
     0
1002
}
1002
{
1000
BEHIND
1070
     0
1002
}
1002
{
1000
OTHER
1070
     0
1002
}
1002
{
1000
REACTOR
1002
}
  0
ARC
  5
17D9
  8
SAPA_PROFIL
 62
     4
 10
76.550000071853901
 20
123.3319965381352
 30
0.0
 40
0.4999999999995453
 50
180.0000000000521
 51
270.00000000005213
1001
GENIUS_GENOBJ-N-FIL_13
1002
{
1000
OWNER
1000
GEN
1002
}
1001
GENIUS_GENODEF_13
1002
{
1000
HIER
1070
     0
1002
}
1002
{
1000
MANEDIT
1070
     0
1002
}
1002
{
1000
NOSEL
1070
     0
1002
}
1002
{
1000
BEHIND
1070
     0
1002
}
1002
{
1000
OTHER
1070
     0
1002
}
1002
{
1000
REACTOR
1002
}
  0
LINE
  5
17DA
  8
SAPA_PROFIL
 62
     4
 10
76.050000071854356
 20
123.3319965381347
 30
0.0
 11
76.050000071854356
 21
129.33199653813651
 31
0.0
1001
GENIUS_GENOBJ-N-FIL_13
1002
{
1000
OWNER
1000
GEN
1002
}
1001
GENIUS_GENODEF_13
1002
{
1000
HIER
1070
     0
1002
}
1002
{
1000
MANEDIT
1070
     0
1002
}
1002
{
1000
NOSEL
1070
     0
1002
}
1002
{
1000
BEHIND
1070
     0
1002
}
1002
{
1000
OTHER
1070
     0
1002
}
1002
{
1000
REACTOR
1002
}
  0
ARC
  5
17DB
  8
SAPA_PROFIL
 62
     4
 10
76.550000071854356
 20
129.33199653813651
 30
0.0
 40
0.5
 50
90.0
 51
180.0
1001
GENIUS_GENOBJ-N-FIL_13
1002
{
1000
OWNER
1000
GEN
1002
}
1001
GENIUS_GENODEF_13
1002
{
1000
HIER
1070
     0
1002
}
1002
{
1000
MANEDIT
1070
     0
1002
}
1002
{
1000
NOSEL
1070
     0
1002
}
1002
{
1000
BEHIND
1070
     0
1002
}
1002
{
1000
OTHER
1070
     0
1002
}
1002
{
1000
REACTOR
1002
}
  0
LINE
  5
17DC
  8
SAPA_PROFIL
 62
     4
 10
76.550000071854356
 20
129.83199653813651
 30
0.0
 11
77.450000071853083
 21
129.83199653813651
 31
0.0
1001
GENIUS_GENOBJ-N-FIL_13
1002
{
1000
OWNER
1000
GEN
1002
}
1001
GENIUS_GENODEF_13
1002
{
1000
HIER
1070
     0
1002
}
1002
{
1000
MANEDIT
1070
     0
1002
}
1002
{
1000
NOSEL
1070
     0
1002
}
1002
{
1000
BEHIND
1070
     0
1002
}
1002
{
1000
OTHER
1070
     0
1002
}
1002
{
1000
REACTOR
1002
}
  0
ARC
  5
17DD
  8
SAPA_PROFIL
 62
     4
 10
77.450000071852742
 20
129.53199653813689
 30
0.0
 40
0.2999999999996135
 50
0.0000000003256888
 51
89.999999999934857
1001
GENIUS_GENOBJ-N-FIL_13
1002
{
1000
OWNER
1000
GEN
1002
}
1001
GENIUS_GENODEF_13
1002
{
1000
HIER
1070
     0
1002
}
1002
{
1000
MANEDIT
1070
     0
1002
}
1002
{
1000
NOSEL
1070
     0
1002
}
1002
{
1000
BEHIND
1070
     0
1002
}
1002
{
1000
OTHER
1070
     0
1002
}
1002
{
1000
REACTOR
1002
}
  0
LINE
  5
17DE
  8
SAPA_PROFIL
 62
     4
 10
77.750000071852355
 20
129.5319965381386
 30
0.0
 11
77.750000071856903
 21
128.88199653813669
 31
0.0
1001
GENIUS_GENOBJ-N-FIL_13
1002
{
1000
OWNER
1000
GEN
1002
}
1001
GENIUS_GENODEF_13
1002
{
1000
HIER
1070
     0
1002
}
1002
{
1000
MANEDIT
1070
     0
1002
}
1002
{
1000
NOSEL
1070
     0
1002
}
1002
{
1000
BEHIND
1070
     0
1002
}
1002
{
1000
OTHER
1070
     0
1002
}
1002
{
1000
REACTOR
1002
}
  0
ARC
  5
17DF
  8
SAPA_PROFIL
 62
     4
 10
78.050000071856857
 20
128.88199653813871
 30
0.0
 40
0.2999999999999545
 50
180.0000000003908
 51
270.0000000003908
1001
GENIUS_GENOBJ-N-FIL_13
1002
{
1000
OWNER
1000
GEN
1002
}
1001
GENIUS_GENODEF_13
1002
{
1000
HIER
1070
     0
1002
}
1002
{
1000
MANEDIT
1070
     0
1002
}
1002
{
1000
NOSEL
1070
     0
1002
}
1002
{
1000
BEHIND
1070
     0
1002
}
1002
{
1000
OTHER
1070
     0
1002
}
1002
{
1000
REACTOR
1002
}
  0
LINE
  5
17E0
  8
SAPA_PROFIL
 62
     4
 10
78.050000071858904
 20
128.58199653813881
 30
0.0
 11
78.250000071851446
 21
128.58199653813969
 31
0.0
1001
GENIUS_GENOBJ-N-FIL_13
1002
{
1000
OWNER
1000
GEN
1002
}
1001
GENIUS_GENODEF_13
1002
{
1000
HIER
1070
     0
1002
}
1002
{
1000
MANEDIT
1070
     0
1002
}
1002
{
1000
NOSEL
1070
     0
1002
}
1002
{
1000
BEHIND
1070
     0
1002
}
1002
{
1000
OTHER
1070
     0
1002
}
1002
{
1000
REACTOR
1002
}
  0
ARC
  5
17E1
  8
SAPA_PROFIL
 62
     4
 10
78.250000071851446
 20
129.08199653813969
 30
0.0
 40
0.5
 50
270.0
 51
0.0
1001
GENIUS_GENOBJ-N-FIL_13
1002
{
1000
OWNER
1000
GEN
1002
}
1001
GENIUS_GENODEF_13
1002
{
1000
HIER
1070
     0
1002
}
1002
{
1000
MANEDIT
1070
     0
1002
}
1002
{
1000
NOSEL
1070
     0
1002
}
1002
{
1000
BEHIND
1070
     0
1002
}
1002
{
1000
OTHER
1070
     0
1002
}
1002
{
1000
REACTOR
1002
}
  0
LINE
  5
17E2
  8
SAPA_PROFIL
 62
     4
 10
78.750000071851446
 20
129.08199653813969
 30
0.0
 11
78.750000071851446
 21
132.08199653813969
 31
0.0
1001
GENIUS_GENOBJ-N-FIL_13
1002
{
1000
OWNER
1000
GEN
1002
}
1001
GENIUS_GENODEF_13
1002
{
1000
HIER
1070
     0
1002
}
1002
{
1000
MANEDIT
1070
     0
1002
}
1002
{
1000
NOSEL
1070
     0
1002
}
1002
{
1000
BEHIND
1070
     0
1002
}
1002
{
1000
OTHER
1070
     0
1002
}
1002
{
1000
REACTOR
1002
}
  0
ARC
  5
17E3
  8
SAPA_PROFIL
 62
     4
 10
78.250000071851446
 20
132.08199653813969
 30
0.0
 40
0.5
 50
0.0
 51
90.0
1001
GENIUS_GENOBJ-N-FIL_13
1002
{
1000
OWNER
1000
GEN
1002
}
1001
GENIUS_GENODEF_13
1002
{
1000
HIER
1070
     0
1002
}
1002
{
1000
MANEDIT
1070
     0
1002
}
1002
{
1000
NOSEL
1070
     0
1002
}
1002
{
1000
BEHIND
1070
     0
1002
}
1002
{
1000
OTHER
1070
     0
1002
}
1002
{
1000
REACTOR
1002
}
  0
LINE
  5
17E4
  8
SAPA_PROFIL
 62
     4
 10
78.250000071851446
 20
132.58199653813969
 30
0.0
 11
78.050000071851628
 21
132.58199653813969
 31
0.0
1001
GENIUS_GENOBJ-N-FIL_13
1002
{
1000
OWNER
1000
GEN
1002
}
1001
GENIUS_GENODEF_13
1002
{
1000
HIER
1070
     0
1002
}
1002
{
1000
MANEDIT
1070
     0
1002
}
1002
{
1000
NOSEL
1070
     0
1002
}
1002
{
1000
BEHIND
1070
     0
1002
}
1002
{
1000
OTHER
1070
     0
1002
}
1002
{
1000
REACTOR
1002
}
  0
ARC
  5
17E5
  8
SAPA_PROFIL
 62
     4
 10
78.050000071851628
 20
132.28199653813951
 30
0.0
 40
0.3000000000001819
 50
90.0
 51
180.0
1001
GENIUS_GENOBJ-N-FIL_13
1002
{
1000
OWNER
1000
GEN
1002
}
1001
GENIUS_GENODEF_13
1002
{
1000
HIER
1070
     0
1002
}
1002
{
1000
MANEDIT
1070
     0
1002
}
1002
{
1000
NOSEL
1070
     0
1002
}
1002
{
1000
BEHIND
1070
     0
1002
}
1002
{
1000
OTHER
1070
     0
1002
}
1002
{
1000
REACTOR
1002
}
  0
LINE
  5
17E6
  8
SAPA_PROFIL
 62
     4
 10
77.750000071851446
 20
132.28199653813951
 30
0.0
 11
77.750000071851446
 21
131.6319965381399
 31
0.0
1001
GENIUS_GENOBJ-N-FIL_13
1002
{
1000
OWNER
1000
GEN
1002
}
1001
GENIUS_GENODEF_13
1002
{
1000
HIER
1070
     0
1002
}
1002
{
1000
MANEDIT
1070
     0
1002
}
1002
{
1000
NOSEL
1070
     0
1002
}
1002
{
1000
BEHIND
1070
     0
1002
}
1002
{
1000
OTHER
1070
     0
1002
}
1002
{
1000
REACTOR
1002
}
  0
ARC
  5
17E7
  8
SAPA_PROFIL
 62
     4
 10
77.450000071850809
 20
131.6319965381403
 30
0.0
 40
0.3000000000006366
 50
269.99999999991309
 51
359.99999999991309
1001
GENIUS_GENOBJ-N-FIL_13
1002
{
1000
OWNER
1000
GEN
1002
}
1001
GENIUS_GENODEF_13
1002
{
1000
HIER
1070
     0
1002
}
1002
{
1000
MANEDIT
1070
     0
1002
}
1002
{
1000
NOSEL
1070
     0
1002
}
1002
{
1000
BEHIND
1070
     0
1002
}
1002
{
1000
OTHER
1070
     0
1002
}
1002
{
1000
REACTOR
1002
}
  0
LINE
  5
17E8
  8
SAPA_PROFIL
 62
     4
 10
77.450000071850354
 20
131.33199653813969
 30
0.0
 11
76.550000071854356
 21
131.33199653813969
 31
0.0
1001
GENIUS_GENOBJ-N-FIL_13
1002
{
1000
OWNER
1000
GEN
1002
}
1001
GENIUS_GENODEF_13
1002
{
1000
HIER
1070
     0
1002
}
1002
{
1000
MANEDIT
1070
     0
1002
}
1002
{
1000
NOSEL
1070
     0
1002
}
1002
{
1000
BEHIND
1070
     0
1002
}
1002
{
1000
OTHER
1070
     0
1002
}
1002
{
1000
REACTOR
1002
}
  0
ARC
  5
17E9
  8
SAPA_PROFIL
 62
     4
 10
76.550000071854356
 20
131.83199653813969
 30
0.0
 40
0.5
 50
180.0
 51
270.0
1001
GENIUS_GENOBJ-N-FIL_13
1002
{
1000
OWNER
1000
GEN
1002
}
1001
GENIUS_GENODEF_13
1002
{
1000
HIER
1070
     0
1002
}
1002
{
1000
MANEDIT
1070
     0
1002
}
1002
{
1000
NOSEL
1070
     0
1002
}
1002
{
1000
BEHIND
1070
     0
1002
}
1002
{
1000
OTHER
1070
     0
1002
}
1002
{
1000
REACTOR
1002
}
  0
LINE
  5
17EA
  8
SAPA_PROFIL
 62
     4
 10
76.050000071854356
 20
131.83199653813969
 30
0.0
 11
76.050000071854356
 21
137.83199653813969
 31
0.0
1001
GENIUS_GENOBJ-N-FIL_13
1002
{
1000
OWNER
1000
GEN
1002
}
1001
GENIUS_GENODEF_13
1002
{
1000
HIER
1070
     0
1002
}
1002
{
1000
MANEDIT
1070
     0
1002
}
1002
{
1000
NOSEL
1070
     0
1002
}
1002
{
1000
BEHIND
1070
     0
1002
}
1002
{
1000
OTHER
1070
     0
1002
}
1002
{
1000
REACTOR
1002
}
  0
ARC
  5
17EB
  8
SAPA_PROFIL
 62
     4
 10
76.550000071854356
 20
137.83199653813969
 30
0.0
 40
0.5
 50
90.0
 51
180.0
1001
GENIUS_GENOBJ-N-FIL_13
1002
{
1000
OWNER
1000
GEN
1002
}
1001
GENIUS_GENODEF_13
1002
{
1000
HIER
1070
     0
1002
}
1002
{
1000
MANEDIT
1070
     0
1002
}
1002
{
1000
NOSEL
1070
     0
1002
}
1002
{
1000
BEHIND
1070
     0
1002
}
1002
{
1000
OTHER
1070
     0
1002
}
1002
{
1000
REACTOR
1002
}
  0
LINE
  5
17EC
  8
SAPA_PROFIL
 62
     4
 10
76.550000071854356
 20
138.33199653813969
 30
0.0
 11
77.450000071850354
 21
138.33199653813969
 31
0.0
1001
GENIUS_GENOBJ-N-FIL_13
1002
{
1000
OWNER
1000
GEN
1002
}
1001
GENIUS_GENODEF_13
1002
{
1000
HIER
1070
     0
1002
}
1002
{
1000
MANEDIT
1070
     0
1002
}
1002
{
1000
NOSEL
1070
     0
1002
}
1002
{
1000
BEHIND
1070
     0
1002
}
1002
{
1000
OTHER
1070
     0
1002
}
1002
{
1000
REACTOR
1002
}
  0
ARC
  5
17ED
  8
SAPA_PROFIL
 62
     4
 10
77.450000071850809
 20
138.03199653813911
 30
0.0
 40
0.3000000000006366
 50
0.0000000000868503
 51
90.000000000086857
1001
GENIUS_GENOBJ-N-FIL_13
1002
{
1000
OWNER
1000
GEN
1002
}
1001
GENIUS_GENODEF_13
1002
{
1000
HIER
1070
     0
1002
}
1002
{
1000
MANEDIT
1070
     0
1002
}
1002
{
1000
NOSEL
1070
     0
1002
}
1002
{
1000
BEHIND
1070
     0
1002
}
1002
{
1000
OTHER
1070
     0
1002
}
1002
{
1000
REACTOR
1002
}
  0
LINE
  5
17EE
  8
SAPA_PROFIL
 62
     4
 10
77.750000071851446
 20
138.03199653813951
 30
0.0
 11
77.750000071851446
 21
137.3819965381399
 31
0.0
1001
GENIUS_GENOBJ-N-FIL_13
1002
{
1000
OWNER
1000
GEN
1002
}
1001
GENIUS_GENODEF_13
1002
{
1000
HIER
1070
     0
1002
}
1002
{
1000
MANEDIT
1070
     0
1002
}
1002
{
1000
NOSEL
1070
     0
1002
}
1002
{
1000
BEHIND
1070
     0
1002
}
1002
{
1000
OTHER
1070
     0
1002
}
1002
{
1000
REACTOR
1002
}
  0
ARC
  5
17EF
  8
SAPA_PROFIL
 62
     4
 10
78.050000071851628
 20
137.3819965381399
 30
0.0
 40
0.3000000000001819
 50
180.0
 51
270.0
1001
GENIUS_GENOBJ-N-FIL_13
1002
{
1000
OWNER
1000
GEN
1002
}
1001
GENIUS_GENODEF_13
1002
{
1000
HIER
1070
     0
1002
}
1002
{
1000
MANEDIT
1070
     0
1002
}
1002
{
1000
NOSEL
1070
     0
1002
}
1002
{
1000
BEHIND
1070
     0
1002
}
1002
{
1000
OTHER
1070
     0
1002
}
1002
{
1000
REACTOR
1002
}
  0
LINE
  5
17F0
  8
SAPA_PROFIL
 62
     4
 10
78.050000071851628
 20
137.08199653813969
 30
0.0
 11
78.250000071851446
 21
137.08199653813969
 31
0.0
1001
GENIUS_GENOBJ-N-FIL_13
1002
{
1000
OWNER
1000
GEN
1002
}
1001
GENIUS_GENODEF_13
1002
{
1000
HIER
1070
     0
1002
}
1002
{
1000
MANEDIT
1070
     0
1002
}
1002
{
1000
NOSEL
1070
     0
1002
}
1002
{
1000
BEHIND
1070
     0
1002
}
1002
{
1000
OTHER
1070
     0
1002
}
1002
{
1000
REACTOR
1002
}
  0
ARC
  5
17F1
  8
SAPA_PROFIL
 62
     4
 10
78.250000071851446
 20
137.58199653813969
 30
0.0
 40
0.5
 50
270.0
 51
0.0
1001
GENIUS_GENOBJ-N-FIL_13
1002
{
1000
OWNER
1000
GEN
1002
}
1001
GENIUS_GENODEF_13
1002
{
1000
HIER
1070
     0
1002
}
1002
{
1000
MANEDIT
1070
     0
1002
}
1002
{
1000
NOSEL
1070
     0
1002
}
1002
{
1000
BEHIND
1070
     0
1002
}
1002
{
1000
OTHER
1070
     0
1002
}
1002
{
1000
REACTOR
1002
}
  0
LINE
  5
17F2
  8
SAPA_PROFIL
 62
     4
 10
78.750000071851446
 20
137.58199653813969
 30
0.0
 11
78.750000071850536
 21
139.33199653813969
 31
0.0
1001
GENIUS_GENOBJ-N-FIL_13
1002
{
1000
OWNER
1000
GEN
1002
}
1001
GENIUS_GENODEF_13
1002
{
1000
HIER
1070
     0
1002
}
1002
{
1000
MANEDIT
1070
     0
1002
}
1002
{
1000
NOSEL
1070
     0
1002
}
1002
{
1000
BEHIND
1070
     0
1002
}
1002
{
1000
OTHER
1070
     0
1002
}
1002
{
1000
REACTOR
1002
}
  0
ARC
  5
17F3
  8
SAPA_PROFIL
 62
     4
 10
78.250000071683303
 20
139.33199653797249
 30
0.0
 40
0.5000000001672335
 50
0.0000000191635289
 51
90.000000019085377
1001
GENIUS_GENOBJ-N-FIL_13
1002
{
1000
OWNER
1000
GEN
1002
}
1001
GENIUS_GENODEF_13
1002
{
1000
HIER
1070
     0
1002
}
1002
{
1000
MANEDIT
1070
     0
1002
}
1002
{
1000
NOSEL
1070
     0
1002
}
1002
{
1000
BEHIND
1070
     0
1002
}
1002
{
1000
OTHER
1070
     0
1002
}
1002
{
1000
REACTOR
1002
}
  0
LINE
  5
17F4
  8
SAPA_PROFIL
 62
     4
 10
78.250000071516752
 20
139.83199653813969
 30
0.0
 11
65.250000071509476
 21
139.83199653813969
 31
0.0
1001
GENIUS_GENOBJ-N-FIL_13
1002
{
1000
OWNER
1000
GEN
1002
}
1001
GENIUS_GENODEF_13
1002
{
1000
HIER
1070
     0
1002
}
1002
{
1000
MANEDIT
1070
     0
1002
}
1002
{
1000
NOSEL
1070
     0
1002
}
1002
{
1000
BEHIND
1070
     0
1002
}
1002
{
1000
OTHER
1070
     0
1002
}
1002
{
1000
REACTOR
1002
}
  0
ARC
  5
17F5
  8
SAPA_PROFIL
 62
     4
 10
65.250000071370209
 20
139.3319965380025
 30
0.0
 40
0.5000000001372201
 50
89.999999984041267
 51
179.9999999840673
1001
GENIUS_GENOBJ-N-FIL_13
1002
{
1000
OWNER
1000
GEN
1002
}
1001
GENIUS_GENODEF_13
1002
{
1000
HIER
1070
     0
1002
}
1002
{
1000
MANEDIT
1070
     0
1002
}
1002
{
1000
NOSEL
1070
     0
1002
}
1002
{
1000
BEHIND
1070
     0
1002
}
1002
{
1000
OTHER
1070
     0
1002
}
1002
{
1000
REACTOR
1002
}
  0
LINE
  5
17F6
  8
SAPA_PROFIL
 62
     4
 10
64.750000071232975
 20
139.33199653814151
 30
0.0
 11
64.750000071232975
 21
137.58199653814151
 31
0.0
1001
GENIUS_GENOBJ-N-FIL_13
1002
{
1000
OWNER
1000
GEN
1002
}
1001
GENIUS_GENODEF_13
1002
{
1000
HIER
1070
     0
1002
}
1002
{
1000
MANEDIT
1070
     0
1002
}
1002
{
1000
NOSEL
1070
     0
1002
}
1002
{
1000
BEHIND
1070
     0
1002
}
1002
{
1000
OTHER
1070
     0
1002
}
1002
{
1000
REACTOR
1002
}
  0
ARC
  5
17F7
  8
SAPA_PROFIL
 62
     4
 10
65.250000071232989
 20
137.58199653814151
 30
0.0
 40
0.5
 50
180.0
 51
270.0
1001
GENIUS_GENOBJ-N-FIL_13
1002
{
1000
OWNER
1000
GEN
1002
}
1001
GENIUS_GENODEF_13
1002
{
1000
HIER
1070
     0
1002
}
1002
{
1000
MANEDIT
1070
     0
1002
}
1002
{
1000
NOSEL
1070
     0
1002
}
1002
{
1000
BEHIND
1070
     0
1002
}
1002
{
1000
OTHER
1070
     0
1002
}
1002
{
1000
REACTOR
1002
}
  0
LINE
  5
17F8
  8
SAPA_PROFIL
 62
     4
 10
65.250000071232989
 20
137.08199653814151
 30
0.0
 11
65.450000071232807
 21
137.08199653814151
 31
0.0
1001
GENIUS_GENOBJ-N-FIL_13
1002
{
1000
OWNER
1000
GEN
1002
}
1001
GENIUS_GENODEF_13
1002
{
1000
HIER
1070
     0
1002
}
1002
{
1000
MANEDIT
1070
     0
1002
}
1002
{
1000
NOSEL
1070
     0
1002
}
1002
{
1000
BEHIND
1070
     0
1002
}
1002
{
1000
OTHER
1070
     0
1002
}
1002
{
1000
REACTOR
1002
}
  0
ARC
  5
17F9
  8
SAPA_PROFIL
 62
     4
 10
65.450000071232807
 20
137.38199653814169
 30
0.0
 40
0.3000000000001819
 50
270.0
 51
0.0
1001
GENIUS_GENOBJ-N-FIL_13
1002
{
1000
OWNER
1000
GEN
1002
}
1001
GENIUS_GENODEF_13
1002
{
1000
HIER
1070
     0
1002
}
1002
{
1000
MANEDIT
1070
     0
1002
}
1002
{
1000
NOSEL
1070
     0
1002
}
1002
{
1000
BEHIND
1070
     0
1002
}
1002
{
1000
OTHER
1070
     0
1002
}
1002
{
1000
REACTOR
1002
}
  0
LINE
  5
17FA
  8
SAPA_PROFIL
 62
     4
 10
65.750000071232989
 20
137.38199653814169
 30
0.0
 11
65.750000071232989
 21
138.0319965381413
 31
0.0
1001
GENIUS_GENOBJ-N-FIL_13
1002
{
1000
OWNER
1000
GEN
1002
}
1001
GENIUS_GENODEF_13
1002
{
1000
HIER
1070
     0
1002
}
1002
{
1000
MANEDIT
1070
     0
1002
}
1002
{
1000
NOSEL
1070
     0
1002
}
1002
{
1000
BEHIND
1070
     0
1002
}
1002
{
1000
OTHER
1070
     0
1002
}
1002
{
1000
REACTOR
1002
}
  0
ARC
  5
17FB
  8
SAPA_PROFIL
 62
     4
 10
66.050000071232716
 20
138.03199653814181
 30
0.0
 40
0.2999999999997271
 50
90.000000000086857
 51
180.0000000000868
1001
GENIUS_GENOBJ-N-FIL_13
1002
{
1000
OWNER
1000
GEN
1002
}
1001
GENIUS_GENODEF_13
1002
{
1000
HIER
1070
     0
1002
}
1002
{
1000
MANEDIT
1070
     0
1002
}
1002
{
1000
NOSEL
1070
     0
1002
}
1002
{
1000
BEHIND
1070
     0
1002
}
1002
{
1000
OTHER
1070
     0
1002
}
1002
{
1000
REACTOR
1002
}
  0
LINE
  5
17FC
  8
SAPA_PROFIL
 62
     4
 10
66.050000071232262
 20
138.33199653814151
 30
0.0
 11
66.950000071230079
 21
138.33199653814151
 31
0.0
1001
GENIUS_GENOBJ-N-FIL_13
1002
{
1000
OWNER
1000
GEN
1002
}
1001
GENIUS_GENODEF_13
1002
{
1000
HIER
1070
     0
1002
}
1002
{
1000
MANEDIT
1070
     0
1002
}
1002
{
1000
NOSEL
1070
     0
1002
}
1002
{
1000
BEHIND
1070
     0
1002
}
1002
{
1000
OTHER
1070
     0
1002
}
1002
{
1000
REACTOR
1002
}
  0
ARC
  5
17FD
  8
SAPA_PROFIL
 62
     4
 10
66.950000071230079
 20
137.83199653814151
 30
0.0
 40
0.5
 50
0.0
 51
90.0
1001
GENIUS_GENOBJ-N-FIL_13
1002
{
1000
OWNER
1000
GEN
1002
}
1001
GENIUS_GENODEF_13
1002
{
1000
HIER
1070
     0
1002
}
1002
{
1000
MANEDIT
1070
     0
1002
}
1002
{
1000
NOSEL
1070
     0
1002
}
1002
{
1000
BEHIND
1070
     0
1002
}
1002
{
1000
OTHER
1070
     0
1002
}
1002
{
1000
REACTOR
1002
}
  0
LINE
  5
17FE
  8
SAPA_PROFIL
 62
     4
 10
67.450000071230079
 20
137.83199653814151
 30
0.0
 11
67.450000071230079
 21
131.83199653814151
 31
0.0
1001
GENIUS_GENOBJ-N-FIL_13
1002
{
1000
OWNER
1000
GEN
1002
}
1001
GENIUS_GENODEF_13
1002
{
1000
HIER
1070
     0
1002
}
1002
{
1000
MANEDIT
1070
     0
1002
}
1002
{
1000
NOSEL
1070
     0
1002
}
1002
{
1000
BEHIND
1070
     0
1002
}
1002
{
1000
OTHER
1070
     0
1002
}
1002
{
1000
REACTOR
1002
}
  0
ARC
  5
17FF
  8
SAPA_PROFIL
 62
     4
 10
66.950000071230079
 20
131.83199653814151
 30
0.0
 40
0.5
 50
270.0
 51
0.0
1001
GENIUS_GENOBJ-N-FIL_13
1002
{
1000
OWNER
1000
GEN
1002
}
1001
GENIUS_GENODEF_13
1002
{
1000
HIER
1070
     0
1002
}
1002
{
1000
MANEDIT
1070
     0
1002
}
1002
{
1000
NOSEL
1070
     0
1002
}
1002
{
1000
BEHIND
1070
     0
1002
}
1002
{
1000
OTHER
1070
     0
1002
}
1002
{
1000
REACTOR
1002
}
  0
LINE
  5
1800
  8
SAPA_PROFIL
 62
     4
 10
66.950000071230079
 20
131.33199653814151
 30
0.0
 11
66.050000071232262
 21
131.33199653814151
 31
0.0
1001
GENIUS_GENOBJ-N-FIL_13
1002
{
1000
OWNER
1000
GEN
1002
}
1001
GENIUS_GENODEF_13
1002
{
1000
HIER
1070
     0
1002
}
1002
{
1000
MANEDIT
1070
     0
1002
}
1002
{
1000
NOSEL
1070
     0
1002
}
1002
{
1000
BEHIND
1070
     0
1002
}
1002
{
1000
OTHER
1070
     0
1002
}
1002
{
1000
REACTOR
1002
}
  0
ARC
  5
1801
  8
SAPA_PROFIL
 62
     4
 10
66.050000071232716
 20
131.63199653814121
 30
0.0
 40
0.2999999999997271
 50
179.99999999991309
 51
269.99999999991309
1001
GENIUS_GENOBJ-N-FIL_13
1002
{
1000
OWNER
1000
GEN
1002
}
1001
GENIUS_GENODEF_13
1002
{
1000
HIER
1070
     0
1002
}
1002
{
1000
MANEDIT
1070
     0
1002
}
1002
{
1000
NOSEL
1070
     0
1002
}
1002
{
1000
BEHIND
1070
     0
1002
}
1002
{
1000
OTHER
1070
     0
1002
}
1002
{
1000
REACTOR
1002
}
  0
LINE
  5
1802
  8
SAPA_PROFIL
 62
     4
 10
65.750000071232989
 20
131.63199653814169
 30
0.0
 11
65.750000071232989
 21
132.2819965381413
 31
0.0
1001
GENIUS_GENOBJ-N-FIL_13
1002
{
1000
OWNER
1000
GEN
1002
}
1001
GENIUS_GENODEF_13
1002
{
1000
HIER
1070
     0
1002
}
1002
{
1000
MANEDIT
1070
     0
1002
}
1002
{
1000
NOSEL
1070
     0
1002
}
1002
{
1000
BEHIND
1070
     0
1002
}
1002
{
1000
OTHER
1070
     0
1002
}
1002
{
1000
REACTOR
1002
}
  0
ARC
  5
1803
  8
SAPA_PROFIL
 62
     4
 10
65.450000071232807
 20
132.2819965381413
 30
0.0
 40
0.3000000000001819
 50
0.0
 51
90.0
1001
GENIUS_GENOBJ-N-FIL_13
1002
{
1000
OWNER
1000
GEN
1002
}
1001
GENIUS_GENODEF_13
1002
{
1000
HIER
1070
     0
1002
}
1002
{
1000
MANEDIT
1070
     0
1002
}
1002
{
1000
NOSEL
1070
     0
1002
}
1002
{
1000
BEHIND
1070
     0
1002
}
1002
{
1000
OTHER
1070
     0
1002
}
1002
{
1000
REACTOR
1002
}
  0
LINE
  5
1804
  8
SAPA_PROFIL
 62
     4
 10
65.450000071232807
 20
132.58199653814151
 30
0.0
 11
65.250000071232989
 21
132.58199653814151
 31
0.0
1001
GENIUS_GENOBJ-N-FIL_13
1002
{
1000
OWNER
1000
GEN
1002
}
1001
GENIUS_GENODEF_13
1002
{
1000
HIER
1070
     0
1002
}
1002
{
1000
MANEDIT
1070
     0
1002
}
1002
{
1000
NOSEL
1070
     0
1002
}
1002
{
1000
BEHIND
1070
     0
1002
}
1002
{
1000
OTHER
1070
     0
1002
}
1002
{
1000
REACTOR
1002
}
  0
ARC
  5
1805
  8
SAPA_PROFIL
 62
     4
 10
65.250000071232989
 20
132.08199653814151
 30
0.0
 40
0.5
 50
90.0
 51
180.0
1001
GENIUS_GENOBJ-N-FIL_13
1002
{
1000
OWNER
1000
GEN
1002
}
1001
GENIUS_GENODEF_13
1002
{
1000
HIER
1070
     0
1002
}
1002
{
1000
MANEDIT
1070
     0
1002
}
1002
{
1000
NOSEL
1070
     0
1002
}
1002
{
1000
BEHIND
1070
     0
1002
}
1002
{
1000
OTHER
1070
     0
1002
}
1002
{
1000
REACTOR
1002
}
  0
LINE
  5
1806
  8
SAPA_PROFIL
 62
     4
 10
64.750000071232975
 20
132.08199653814151
 30
0.0
 11
64.750000071232975
 21
129.08199653814151
 31
0.0
1001
GENIUS_GENOBJ-N-FIL_13
1002
{
1000
OWNER
1000
GEN
1002
}
1001
GENIUS_GENODEF_13
1002
{
1000
HIER
1070
     0
1002
}
1002
{
1000
MANEDIT
1070
     0
1002
}
1002
{
1000
NOSEL
1070
     0
1002
}
1002
{
1000
BEHIND
1070
     0
1002
}
1002
{
1000
OTHER
1070
     0
1002
}
1002
{
1000
REACTOR
1002
}
  0
ARC
  5
1807
  8
SAPA_PROFIL
 62
     4
 10
65.250000071232989
 20
129.08199653814151
 30
0.0
 40
0.5
 50
180.0
 51
270.0
1001
GENIUS_GENOBJ-N-FIL_13
1002
{
1000
OWNER
1000
GEN
1002
}
1001
GENIUS_GENODEF_13
1002
{
1000
HIER
1070
     0
1002
}
1002
{
1000
MANEDIT
1070
     0
1002
}
1002
{
1000
NOSEL
1070
     0
1002
}
1002
{
1000
BEHIND
1070
     0
1002
}
1002
{
1000
OTHER
1070
     0
1002
}
1002
{
1000
REACTOR
1002
}
  0
LINE
  5
1808
  8
SAPA_PROFIL
 62
     4
 10
65.250000071232989
 20
128.58199653814151
 30
0.0
 11
65.450000071225531
 21
128.5819965381406
 31
0.0
1001
GENIUS_GENOBJ-N-FIL_13
1002
{
1000
OWNER
1000
GEN
1002
}
1001
GENIUS_GENODEF_13
1002
{
1000
HIER
1070
     0
1002
}
1002
{
1000
MANEDIT
1070
     0
1002
}
1002
{
1000
NOSEL
1070
     0
1002
}
1002
{
1000
BEHIND
1070
     0
1002
}
1002
{
1000
OTHER
1070
     0
1002
}
1002
{
1000
REACTOR
1002
}
  0
ARC
  5
1809
  8
SAPA_PROFIL
 62
     4
 10
65.450000071227464
 20
128.8819965381407
 30
0.0
 40
0.3000000000000682
 50
269.99999999963092
 51
359.99999999958737
1001
GENIUS_GENOBJ-N-FIL_13
1002
{
1000
OWNER
1000
GEN
1002
}
1001
GENIUS_GENODEF_13
1002
{
1000
HIER
1070
     0
1002
}
1002
{
1000
MANEDIT
1070
     0
1002
}
1002
{
1000
NOSEL
1070
     0
1002
}
1002
{
1000
BEHIND
1070
     0
1002
}
1002
{
1000
OTHER
1070
     0
1002
}
1002
{
1000
REACTOR
1002
}
  0
LINE
  5
180A
  8
SAPA_PROFIL
 62
     4
 10
65.750000071227532
 20
128.88199653813851
 30
0.0
 11
65.750000071230261
 21
129.53199653813951
 31
0.0
1001
GENIUS_GENOBJ-N-FIL_13
1002
{
1000
OWNER
1000
GEN
1002
}
1001
GENIUS_GENODEF_13
1002
{
1000
HIER
1070
     0
1002
}
1002
{
1000
MANEDIT
1070
     0
1002
}
1002
{
1000
NOSEL
1070
     0
1002
}
1002
{
1000
BEHIND
1070
     0
1002
}
1002
{
1000
OTHER
1070
     0
1002
}
1002
{
1000
REACTOR
1002
}
  0
ARC
  5
180B
  8
SAPA_PROFIL
 62
     4
 10
66.050000071230897
 20
129.5319965381382
 30
0.0
 40
0.3000000000006366
 50
89.999999999913143
 51
179.9999999997394
1001
GENIUS_GENOBJ-N-FIL_13
1002
{
1000
OWNER
1000
GEN
1002
}
1001
GENIUS_GENODEF_13
1002
{
1000
HIER
1070
     0
1002
}
1002
{
1000
MANEDIT
1070
     0
1002
}
1002
{
1000
NOSEL
1070
     0
1002
}
1002
{
1000
BEHIND
1070
     0
1002
}
1002
{
1000
OTHER
1070
     0
1002
}
1002
{
1000
REACTOR
1002
}
  0
LINE
  5
180C
  8
SAPA_PROFIL
 62
     4
 10
66.050000071231352
 20
129.83199653813881
 30
0.0
 11
66.950000071230079
 21
129.83199653813881
 31
0.0
1001
GENIUS_GENOBJ-N-FIL_13
1002
{
1000
OWNER
1000
GEN
1002
}
1001
GENIUS_GENODEF_13
1002
{
1000
HIER
1070
     0
1002
}
1002
{
1000
MANEDIT
1070
     0
1002
}
1002
{
1000
NOSEL
1070
     0
1002
}
1002
{
1000
BEHIND
1070
     0
1002
}
1002
{
1000
OTHER
1070
     0
1002
}
1002
{
1000
REACTOR
1002
}
  0
ARC
  5
180D
  8
SAPA_PROFIL
 62
     4
 10
66.950000071230079
 20
129.33199653813881
 30
0.0
 40
0.5
 50
0.0
 51
90.0
1001
GENIUS_GENOBJ-N-FIL_13
1002
{
1000
OWNER
1000
GEN
1002
}
1001
GENIUS_GENODEF_13
1002
{
1000
HIER
1070
     0
1002
}
1002
{
1000
MANEDIT
1070
     0
1002
}
1002
{
1000
NOSEL
1070
     0
1002
}
1002
{
1000
BEHIND
1070
     0
1002
}
1002
{
1000
OTHER
1070
     0
1002
}
1002
{
1000
REACTOR
1002
}
  0
LINE
  5
180E
  8
SAPA_PROFIL
 62
     4
 10
67.450000071230079
 20
129.33199653813881
 30
0.0
 11
67.450000071222803
 21
123.33199653813649
 31
0.0
1001
GENIUS_GENOBJ-N-FIL_13
1002
{
1000
OWNER
1000
GEN
1002
}
1001
GENIUS_GENODEF_13
1002
{
1000
HIER
1070
     0
1002
}
1002
{
1000
MANEDIT
1070
     0
1002
}
1002
{
1000
NOSEL
1070
     0
1002
}
1002
{
1000
BEHIND
1070
     0
1002
}
1002
{
1000
OTHER
1070
     0
1002
}
1002
{
1000
REACTOR
1002
}
  0
ARC
  5
180F
  8
SAPA_PROFIL
 62
     4
 10
66.950000071222803
 20
123.33199653813649
 30
0.0
 40
0.5
 50
270.0
 51
0.0
1001
GENIUS_GENOBJ-N-FIL_13
1002
{
1000
OWNER
1000
GEN
1002
}
1001
GENIUS_GENODEF_13
1002
{
1000
HIER
1070
     0
1002
}
1002
{
1000
MANEDIT
1070
     0
1002
}
1002
{
1000
NOSEL
1070
     0
1002
}
1002
{
1000
BEHIND
1070
     0
1002
}
1002
{
1000
OTHER
1070
     0
1002
}
1002
{
1000
REACTOR
1002
}
  0
LINE
  5
1810
  8
SAPA_PROFIL
 62
     4
 10
66.950000071222803
 20
122.83199653813649
 30
0.0
 11
66.050000071225895
 21
122.83199653813649
 31
0.0
1001
GENIUS_GENOBJ-N-FIL_13
1002
{
1000
OWNER
1000
GEN
1002
}
1001
GENIUS_GENODEF_13
1002
{
1000
HIER
1070
     0
1002
}
1002
{
1000
MANEDIT
1070
     0
1002
}
1002
{
1000
NOSEL
1070
     0
1002
}
1002
{
1000
BEHIND
1070
     0
1002
}
1002
{
1000
OTHER
1070
     0
1002
}
1002
{
1000
REACTOR
1002
}
  0
ARC
  5
1811
  8
SAPA_PROFIL
 62
     4
 10
66.050000071225895
 20
123.1319965381367
 30
0.0
 40
0.3000000000001819
 50
180.0
 51
270.0
1001
GENIUS_GENOBJ-N-FIL_13
1002
{
1000
OWNER
1000
GEN
1002
}
1001
GENIUS_GENODEF_13
1002
{
1000
HIER
1070
     0
1002
}
1002
{
1000
MANEDIT
1070
     0
1002
}
1002
{
1000
NOSEL
1070
     0
1002
}
1002
{
1000
BEHIND
1070
     0
1002
}
1002
{
1000
OTHER
1070
     0
1002
}
1002
{
1000
REACTOR
1002
}
  0
LINE
  5
1812
  8
SAPA_PROFIL
 62
     4
 10
65.750000071225713
 20
123.1319965381367
 30
0.0
 11
65.750000071225713
 21
123.7819965381386
 31
0.0
1001
GENIUS_GENOBJ-N-FIL_13
1002
{
1000
OWNER
1000
GEN
1002
}
1001
GENIUS_GENODEF_13
1002
{
1000
HIER
1070
     0
1002
}
1002
{
1000
MANEDIT
1070
     0
1002
}
1002
{
1000
NOSEL
1070
     0
1002
}
1002
{
1000
BEHIND
1070
     0
1002
}
1002
{
1000
OTHER
1070
     0
1002
}
1002
{
1000
REACTOR
1002
}
  0
ARC
  5
1813
  8
SAPA_PROFIL
 62
     4
 10
65.450000071225531
 20
123.7819965381386
 30
0.0
 40
0.3000000000001819
 50
0.0
 51
90.0
1001
GENIUS_GENOBJ-N-FIL_13
1002
{
1000
OWNER
1000
GEN
1002
}
1001
GENIUS_GENODEF_13
1002
{
1000
HIER
1070
     0
1002
}
1002
{
1000
MANEDIT
1070
     0
1002
}
1002
{
1000
NOSEL
1070
     0
1002
}
1002
{
1000
BEHIND
1070
     0
1002
}
1002
{
1000
OTHER
1070
     0
1002
}
1002
{
1000
REACTOR
1002
}
  0
LINE
  5
1814
  8
SAPA_PROFIL
 62
     4
 10
65.450000071225531
 20
124.0819965381388
 30
0.0
 11
65.250000071225713
 21
124.0819965381388
 31
0.0
1001
GENIUS_GENOBJ-N-FIL_13
1002
{
1000
OWNER
1000
GEN
1002
}
1001
GENIUS_GENODEF_13
1002
{
1000
HIER
1070
     0
1002
}
1002
{
1000
MANEDIT
1070
     0
1002
}
1002
{
1000
NOSEL
1070
     0
1002
}
1002
{
1000
BEHIND
1070
     0
1002
}
1002
{
1000
OTHER
1070
     0
1002
}
1002
{
1000
REACTOR
1002
}
  0
ARC
  5
1815
  8
SAPA_PROFIL
 62
     4
 10
65.250000071225713
 20
123.5819965381388
 30
0.0
 40
0.5
 50
90.0
 51
180.0
1001
GENIUS_GENOBJ-N-FIL_13
1002
{
1000
OWNER
1000
GEN
1002
}
1001
GENIUS_GENODEF_13
1002
{
1000
HIER
1070
     0
1002
}
1002
{
1000
MANEDIT
1070
     0
1002
}
1002
{
1000
NOSEL
1070
     0
1002
}
1002
{
1000
BEHIND
1070
     0
1002
}
1002
{
1000
OTHER
1070
     0
1002
}
1002
{
1000
REACTOR
1002
}
  0
LINE
  5
1816
  8
SAPA_PROFIL
 62
     4
 10
64.750000071225713
 20
123.5819965381388
 30
0.0
 11
64.750000071307554
 21
97.784261511214936
 31
0.0
1001
GENIUS_GENOBJ-N-FIL_13
1002
{
1000
OWNER
1000
GEN
1002
}
1001
GENIUS_GENODEF_13
1002
{
1000
HIER
1070
     0
1002
}
1002
{
1000
MANEDIT
1070
     0
1002
}
1002
{
1000
NOSEL
1070
     0
1002
}
1002
{
1000
BEHIND
1070
     0
1002
}
1002
{
1000
OTHER
1070
     0
1002
}
1002
{
1000
REACTOR
1002
}
  0
ARC
  5
1817
  8
SAPA_PROFIL
 62
     4
 10
63.55000007130775
 20
97.784261511210843
 30
0.0
 40
1.1999999999998181
 50
270.0
 51
0.0000000001954133
1001
GENIUS_GENOBJ-N-FIL_13
1002
{
1000
OWNER
1000
GEN
1002
}
1001
GENIUS_GENODEF_13
1002
{
1000
HIER
1070
     0
1002
}
1002
{
1000
MANEDIT
1070
     0
1002
}
1002
{
1000
NOSEL
1070
     0
1002
}
1002
{
1000
BEHIND
1070
     0
1002
}
1002
{
1000
OTHER
1070
     0
1002
}
1002
{
1000
REACTOR
1002
}
  0
LINE
  5
1818
  8
SAPA_PROFIL
 62
     4
 10
63.55000007130775
 20
96.584261511211025
 30
0.0
 11
60.821518721227683
 21
96.58426151121057
 31
0.0
1001
GENIUS_GENOBJ-N-FIL_13
1002
{
1000
OWNER
1000
GEN
1002
}
1001
GENIUS_GENODEF_13
1002
{
1000
HIER
1070
     0
1002
}
1002
{
1000
MANEDIT
1070
     0
1002
}
1002
{
1000
NOSEL
1070
     0
1002
}
1002
{
1000
BEHIND
1070
     0
1002
}
1002
{
1000
OTHER
1070
     0
1002
}
1002
{
1000
REACTOR
1002
}
  0
LINE
  5
1819
  8
SAPA_PROFIL
 62
     4
 10
68.450000139273016
 20
121.54773506762101
 30
0.0
 11
75.950000139831445
 21
121.5477350676169
 31
0.0
  0
ARC
  5
181A
  8
SAPA_PROFIL
 62
     4
 10
75.950000139831445
 20
120.5477350676169
 30
0.0
 40
1.0
 50
0.0
 51
90.0
  0
LINE
  5
181B
  8
SAPA_PROFIL
 62
     4
 10
76.950000139831445
 20
120.5477350676169
 30
0.0
 11
76.950000139846907
 21
97.400000040693143
 31
0.0
  0
ARC
  5
181C
  8
SAPA_PROFIL
 62
     4
 10
76.150000139846725
 20
97.400000040693143
 30
0.0
 40
0.8000000000001818
 50
270.0
 51
0.0
  0
LINE
  5
181D
  8
SAPA_PROFIL
 62
     4
 10
76.150000139846725
 20
96.600000040692976
 30
0.0
 11
67.350000139328131
 21
96.600000040692976
 31
0.0
  0
ARC
  5
181E
  8
SAPA_PROFIL
 62
     4
 10
67.350000139328131
 20
97.400000040693143
 30
0.0
 40
0.8000000000001818
 50
179.9999999999348
 51
270.0
  0
LINE
  5
181F
  8
SAPA_PROFIL
 62
     4
 10
66.550000139327949
 20
97.400000040694081
 30
0.0
 11
66.550000139351596
 21
120.54773506762101
 31
0.0
  0
ARC
  5
1820
  8
SAPA_PROFIL
 62
     4
 10
67.550000139351255
 20
120.5477350676195
 30
0.0
 40
0.9999999999996589
 50
90.000000000032571
 51
179.9999999999153
  0
LINE
  5
1821
  8
SAPA_PROFIL
 62
     4
 10
67.550000139350686
 20
121.5477350676192
 30
0.0
 11
68.450000139273016
 21
121.54773506762101
 31
0.0
  0
DIMENSION
  5
184F
  8
SAPA_MATT
  2
*D18
 10
-131.74147898757059
 20
79.999999999966988
 30
0.0
 11
-134.2414789875707
 21
109.9999999999669
 31
0.0
 70
     0
 13
-89.249999928474367
 23
139.99999999996689
 33
0.0
 14
-87.249999928490737
 24
79.999999999966974
 34
0.0
 50
90.0
1001
ACAD
1000
DSTYLE
1002
{
1070
    40
1040
1.0
1002
}
  0
DIMENSION
  5
1850
  8
SAPA_MATT
  2
*D17
 10
-3.2499999284860022
 20
181.00000001190261
 30
0.0
 11
-47.249999928486012
 21
183.50000001190261
 31
0.0
 70
     0
 13
-91.249999928486005
 23
137.99999999996689
 33
0.0
 14
-3.2499999284860048
 24
138.499999999967
 34
0.0
1001
ACAD
1000
DSTYLE
1002
{
1070
    40
1040
1.0
1002
}
  0
DIMENSION
  5
1851
  8
SAPA_MATT
  2
*D16
 10
138.75000007118109
 20
181.0000000000002
 30
0.0
 11
142.75000007134619
 21
181.0000000000002
 31
0.0
 70
   128
 13
146.75000007151169
 23
138.00000000000219
 33
0.0
 14
138.75000007118109
 24
135.0000000010341
 34
0.0
 50
180.0
1001
ACAD
1000
DSTYLE
1002
{
1070
    40
1040
1.0
1002
}
  0
DIMENSION
  5
1852
  8
SAPA_MATT
  2
*D15
 10
81.75000007184326
 20
181.0000000000002
 30
0.0
 11
110.2500000715122
 21
183.5000000000002
 31
0.0
 70
     0
 13
138.75000007118109
 23
135.0000000010341
 33
0.0
 14
81.75000007184326
 24
135.0000000010341
 34
0.0
 50
180.0
1001
ACAD
1000
DSTYLE
1002
{
1070
   287
1070
     4
1070
    40
1040
1.0
1070
   279
1070
     1
1002
}
  0
DIMENSION
  5
1853
  8
SAPA_MATT
  2
*D14
 10
-3.2499999287319921
 20
181.0000000000002
 30
0.0
 11
39.250000071555633
 21
183.5000000000002
 31
0.0
 70
     0
 13
81.75000007184326
 23
135.0000000010341
 33
0.0
 14
-3.2499999287319952
 24
138.5
 34
0.0
 50
180.0
1001
ACAD
1000
DSTYLE
1002
{
1070
   287
1070
     4
1070
    40
1040
1.0
1070
   279
1070
     1
1002
}
  0
DIMENSION
  5
1854
  8
SAPA_MATT
  2
*D13
 10
-3.2499999284859729
 20
193.0000000000002
 30
0.0
 11
71.750000071512886
 21
195.5000000000002
 31
0.0
 70
     0
 13
146.75000007151169
 23
138.00000000000219
 33
0.0
 14
-3.249999928485976
 24
138.00000000000219
 34
0.0
 50
180.0
1001
ACAD
1000
DSTYLE
1002
{
1070
    40
1040
1.0
1002
}
  0
DIMENSION
  5
1855
  8
SAPA_MATT
  2
*D12
 10
171.7500001430266
 20
140.0000000000004
 30
0.0
 11
169.2500001430266
 21
81.500000000000455
 31
0.0
 70
     0
 13
145.37500014302671
 23
23.000000000000458
 33
0.0
 14
145.25000014302671
 24
140.0000000000004
 34
0.0
 50
90.0
1001
ACAD
1000
DSTYLE
1002
{
1070
    40
1040
1.0
1002
}
  0
DIMENSION
  5
1856
  8
SAPA_MATT
  2
*D11
 10
171.75000014302711
 20
150.0000000000116
 30
0.0
 11
169.25000014302711
 21
145.000000000006
 31
0.0
 70
     0
 13
145.25000014302671
 23
140.0000000000004
 33
0.0
 14
138.50000014285109
 24
150.0000000000116
 34
0.0
 50
90.0
1001
ACAD
1000
DSTYLE
1002
{
1070
   287
1070
     4
1070
    40
1040
1.0
1070
   279
1070
     1
1002
}
  0
DIMENSION
  5
1857
  8
SAPA_MATT
  2
*D10
 10
183.75000014302671
 20
140.0000000000004
 30
0.0
 11
181.24886377939029
 21
70.000000000000242
 31
0.0
 70
     0
  1
min. 130
 13
143.50000021454071
 23
0.0
 33
0.0
 14
156.75000014302671
 24
140.0000000000004
 34
0.0
 50
90.0
1001
ACAD
1000
DSTYLE
1002
{
1070
    40
1040
1.0
1002
}
  0
VIEWPORT
  5
C4
 67
     1
  8
0
 10
160.5543545598442
 20
116.00969601843509
 30
0.0
 40
404.96977709277462
 41
256.8421457311839
 68
     1
 69
     1
1001
ACAD
1000
MVIEW
1002
{
1070
    16
1010
0.0
1020
0.0
1030
0.0
1010
0.0
1020
0.0
1030
1.0
1040
0.0
1040
256.8421457311839
1040
160.5543545598442
1040
116.00969601843509
1040
50.0
1040
0.0
1040
0.0
1070
     0
1070
   100
1070
     1
1070
     1
1070
     0
1070
     0
1070
     0
1070
     0
1040
0.0
1040
0.0
1040
0.0
1040
10.0
1040
10.0
1040
10.0
1040
10.0
1070
     0
1002
{
1002
}
1002
}
  0
ENDSEC
  0
EOF
