  0
SECTION
  2
HEADER
  9
$ACADVER
  1
AC1009
  9
$INSBASE
 10
0.0
 20
0.0
 30
0.0
  9
$EXTMIN
 10
-57.869466405531853
 20
7.499444650057967
 30
-0.2
  9
$EXTMAX
 10
191.753256005927
 20
140.0000000000004
 30
0.0000000048844772
  9
$LIMMIN
 10
0.0
 20
0.0
  9
$LIMMAX
 10
790.0
 20
790.0
  9
$ORTHOMODE
 70
     0
  9
$REGENMODE
 70
     1
  9
$FILLMODE
 70
     1
  9
$QTEXTMODE
 70
     0
  9
$MIRRTEXT
 70
     1
  9
$DRAGMODE
 70
     2
  9
$LTSCALE
 40
4.0
  9
$OSMODE
 70
   167
  9
$ATTMODE
 70
     1
  9
$TEXTSIZE
 40
3.5
  9
$TRACEWID
 40
0.05
  9
$TEXTSTYLE
  7
ISO
  9
$CLAYER
  8
0
  9
$CELTYPE
  6
BYLAYER
  9
$CECOLOR
 62
   256
  9
$DIMSCALE
 40
0.0
  9
$DIMASZ
 40
3.0
  9
$DIMEXO
 40
1.5
  9
$DIMDLI
 40
10.0
  9
$DIMRND
 40
0.0
  9
$DIMDLE
 40
0.0
  9
$DIMEXE
 40
1.5
  9
$DIMTP
 40
0.0
  9
$DIMTM
 40
0.0
  9
$DIMTXT
 40
3.0
  9
$DIMCEN
 40
-5.0
  9
$DIMTSZ
 40
0.0
  9
$DIMTOL
 70
     0
  9
$DIMLIM
 70
     0
  9
$DIMTIH
 70
     0
  9
$DIMTOH
 70
     0
  9
$DIMSE1
 70
     0
  9
$DIMSE2
 70
     0
  9
$DIMTAD
 70
     1
  9
$DIMZIN
 70
     8
  9
$DIMBLK
  1

  9
$DIMASO
 70
     1
  9
$DIMSHO
 70
     1
  9
$DIMPOST
  1

  9
$DIMAPOST
  1

  9
$DIMALT
 70
     0
  9
$DIMALTD
 70
     0
  9
$DIMALTF
 40
25.399999999999999
  9
$DIMLFAC
 40
-1.0
  9
$DIMTOFL
 70
     1
  9
$DIMTVP
 40
0.0
  9
$DIMTIX
 70
     0
  9
$DIMSOXD
 70
     0
  9
$DIMSAH
 70
     0
  9
$DIMBLK1
  1

  9
$DIMBLK2
  1

  9
$DIMSTYLE
  2
MASKIN
  9
$DIMCLRD
 70
   256
  9
$DIMCLRE
 70
   256
  9
$DIMCLRT
 70
     2
  9
$DIMTFAC
 40
1.0
  9
$DIMGAP
 40
1.0
  9
$LUNITS
 70
     2
  9
$LUPREC
 70
     8
  9
$SKETCHINC
 40
0.1
  9
$FILLETRAD
 40
0.0
  9
$AUNITS
 70
     0
  9
$AUPREC
 70
     8
  9
$MENU
  1
ACAD
  9
$ELEVATION
 40
0.0
  9
$PELEVATION
 40
0.0
  9
$THICKNESS
 40
0.0
  9
$LIMCHECK
 70
     0
  9
$BLIPMODE
 70
     0
  9
$CHAMFERA
 40
0.0
  9
$CHAMFERB
 40
0.0
  9
$SKPOLY
 70
     0
  9
$TDCREATE
 40
2458299.4382186462
  9
$TDUPDATE
 40
2458302.6331921071
  9
$TDINDWG
 40
0.0734815278
  9
$TDUSRTIMER
 40
0.0734812963
  9
$USRTIMER
 70
     1
  9
$ANGBASE
 50
0.0
  9
$ANGDIR
 70
     0
  9
$PDMODE
 70
     0
  9
$PDSIZE
 40
0.0
  9
$PLINEWID
 40
0.0
  9
$COORDS
 70
     1
  9
$SPLFRAME
 70
     0
  9
$SPLINETYPE
 70
     6
  9
$SPLINESEGS
 70
     8
  9
$ATTDIA
 70
     1
  9
$ATTREQ
 70
     1
  9
$HANDLING
 70
     1
  9
$HANDSEED
  5
1C12
  9
$SURFTAB1
 70
     6
  9
$SURFTAB2
 70
     6
  9
$SURFTYPE
 70
     6
  9
$SURFU
 70
     6
  9
$SURFV
 70
     6
  9
$UCSNAME
  2

  9
$UCSORG
 10
0.0
 20
0.0
 30
0.0
  9
$UCSXDIR
 10
1.0
 20
0.0
 30
0.0
  9
$UCSYDIR
 10
0.0
 20
1.0
 30
0.0
  9
$PUCSNAME
  2

  9
$PUCSORG
 10
0.0
 20
0.0
 30
0.0
  9
$PUCSXDIR
 10
1.0
 20
0.0
 30
0.0
  9
$PUCSYDIR
 10
0.0
 20
1.0
 30
0.0
  9
$USERI1
 70
     0
  9
$USERI2
 70
     0
  9
$USERI3
 70
     0
  9
$USERI4
 70
     0
  9
$USERI5
 70
     0
  9
$USERR1
 40
0.0
  9
$USERR2
 40
0.0
  9
$USERR3
 40
0.0
  9
$USERR4
 40
0.0
  9
$USERR5
 40
0.0
  9
$WORLDVIEW
 70
     1
  9
$SHADEDGE
 70
     3
  9
$SHADEDIF
 70
    70
  9
$TILEMODE
 70
     1
  9
$MAXACTVP
 70
    32
  9
$PLIMCHECK
 70
     0
  9
$PEXTMIN
 10
1.0000000000000000E+020
 20
1.0000000000000000E+020
 30
1.0000000000000000E+020
  9
$PEXTMAX
 10
-1.0000000000000000E+020
 20
-1.0000000000000000E+020
 30
-1.0000000000000000E+020
  9
$PLIMMIN
 10
-5.069427490234375
 20
-5.8737497329711914
  9
$PLIMMAX
 10
291.89889526367187
 20
204.0995779037475
  9
$UNITMODE
 70
     0
  9
$VISRETAIN
 70
     1
  9
$PLINEGEN
 70
     0
  9
$PSLTSCALE
 70
     1
  0
ENDSEC
  0
SECTION
  2
TABLES
  0
TABLE
  2
VPORT
 70
     1
  0
VPORT
  2
*ACTIVE
 70
     0
 10
0.0
 20
0.0
 11
1.0
 21
1.0
 12
66.936160915511806
 22
142.65007072497369
 13
0.0
 23
0.0
 14
1.0
 24
1.0
 15
0.0
 25
0.0
 16
0.0
 26
0.0
 36
1.0
 17
0.0
 27
0.0
 37
0.0
 40
188.48697957710721
 41
1.7265193370165739
 42
50.0
 43
0.0
 44
0.0
 50
0.0
 51
0.0
 71
     0
 72
   100
 73
     1
 74
     1
 75
     0
 76
     0
 77
     0
 78
     0
  0
ENDTAB
  0
TABLE
  2
LTYPE
 70
     1
  0
LTYPE
  2
CONTINUOUS
 70
     0
  3
Solid line
 72
    65
 73
     0
 40
0.0
  0
ENDTAB
  0
TABLE
  2
LAYER
 70
    23
  0
LAYER
  2
0
 70
     0
 62
     7
  6
CONTINUOUS
  0
LAYER
  2
DEFPOINTS
 70
     0
 62
     7
  6
CONTINUOUS
  0
LAYER
  2
SAPA_ARTIKELNR
 70
     0
 62
     4
  6
CONTINUOUS
  0
LAYER
  2
SAPA_ANSLUTNING
 70
     0
 62
     6
  6
CONTINUOUS
  0
LAYER
  2
SAPA_GLAS
 70
     0
 62
     4
  6
CONTINUOUS
  0
LAYER
  2
SAPA_FOGBAND
 70
     0
 62
     2
  6
CONTINUOUS
  0
LAYER
  2
SAPA_PROFIL
 70
     0
 62
     7
  6
CONTINUOUS
  0
LAYER
  2
SAPA_MATT
 70
     0
 62
     1
  6
CONTINUOUS
  0
ENDTAB
  0
TABLE
  2
STYLE
 70
     2
  0
STYLE
  2
STANDARD
 70
     0
 40
0.0
 41
1.0
 50
0.0
 71
     0
 42
0.2
  3
txt
  4

  0
STYLE
  2
ISO
 70
     0
 40
0.0
 41
1.0
 50
0.0
 71
     0
 42
3.5
  3
txt
  4

  0
ENDTAB
  0
TABLE
  2
VIEW
 70
     0
  0
ENDTAB
  0
TABLE
  2
UCS
 70
     0
  0
ENDTAB
  0
TABLE
  2
APPID
 70
    22
  0
APPID
  2
ACAD
 70
     0
  0
APPID
  2
ACAD_DSTYLE_DIMTEXT_FILL
 70
     0
  0
APPID
  2
ACAD_DSTYLE_DIMEXT_LENGTH
 70
     0
  0
APPID
  2
ACAD_DSTYLE_DIMEXT_ENABLED
 70
     0
  0
APPID
  2
ACAD_DSTYLE_DIM_LINETYPE
 70
     0
  0
APPID
  2
ACAD_DSTYLE_DIM_EXT1_LINETYPE
 70
     0
  0
APPID
  2
ACAD_DSTYLE_DIM_EXT2_LINETYPE
 70
     0
  0
APPID
  2
ACAD_DSTYLE_DIMJOGGED_JOGA
 70
     0
  0
APPID
  2
ACAD_DSTYLE_DIMARC_LENGTH_
 70
     0
  0
APPID
  2
ACAD_PSEXT
 70
     0
  0
APPID
  2
ACAD_MLEADERVER
 70
     0
  0
APPID
  2
ACAD_NAV_VCDISPLAY
 70
     0
  0
APPID
  2
GENIUS_GENODEF_13
 70
     0
  0
APPID
  2
RC_PROFILE
 70
     0
  0
APPID
  2
ACAECLAYERSTANDARD
 70
     0
  0
APPID
  2
GENIUS_GENOBJ-N-FIL_13
 70
     0
  0
APPID
  2
GENIUS_GENREC_14
 70
     0
  0
APPID
  2
GENIUS_GENOBJ-N-REC_13
 70
     0
  0
APPID
  2
ACCMTRANSPARENCY
 70
     0
  0
APPID
  2
GRADIENTCOLOR1ACI
 70
     0
  0
APPID
  2
GRADIENTCOLOR2ACI
 70
     0
  0
APPID
  2
ACAD_EXEMPT_FROM_CAD_STANDARDS
 70
     0
  0
ENDTAB
  0
TABLE
  2
DIMSTYLE
 70
     2
  0
DIMSTYLE
  2
STANDARD
 70
     0
  3

  4

  5

  6

  7

 40
1.0
 41
0.18
 42
0.0625
 43
0.38
 44
0.18
 45
0.0
 46
0.0
 47
0.0
 48
0.0
140
0.18
141
0.09
142
0.0
143
25.399999999999999
144
1.0
145
0.0
146
1.0
147
0.09
 71
     0
 72
     0
 73
     1
 74
     1
 75
     0
 76
     0
 77
     0
 78
     0
170
     0
171
     2
172
     0
173
     0
174
     0
175
     0
176
     0
177
     0
178
     0
  0
DIMSTYLE
  2
MASKIN
 70
     0
  3

  4

  5

  6

  7

 40
0.0
 41
3.0
 42
1.5
 43
10.0
 44
1.5
 45
0.0
 46
0.0
 47
0.0
 48
0.0
140
3.0
141
-5.0
142
0.0
143
25.399999999999999
144
-1.0
145
0.0
146
1.0
147
1.0
 71
     0
 72
     0
 73
     0
 74
     0
 75
     0
 76
     0
 77
     1
 78
     8
170
     0
171
     0
172
     1
173
     0
174
     0
175
     0
176
   256
177
   256
178
     2
  0
ENDTAB
  0
ENDSEC
  0
SECTION
  2
BLOCKS
  0
BLOCK
  8
0
  2
$MODEL_SPACE
 70
     0
 10
0.0
 20
0.0
 30
0.0
  3
$MODEL_SPACE
  1

  0
ENDBLK
  5
37
  8
0
  0
BLOCK
 67
     1
  8
0
  2
$PAPER_SPACE
 70
     0
 10
0.0
 20
0.0
 30
0.0
  3
$PAPER_SPACE
  1

  0
ENDBLK
  5
35
 67
     1
  8
0
  0
BLOCK
  8
0
  2
*D8
 70
     1
 10
0.0
 20
0.0
 30
0.0
  3
*D8
  1

  0
LINE
  5
1A07
  8
SAPA_MATT
 10
128.70000007166431
 20
59.999444650057512
 30
0.0
 11
179.7499999994206
 21
59.999444650057498
 31
0.0
  0
LINE
  5
1A08
  8
SAPA_MATT
 10
137.9500000711426
 20
124.99944465005611
 30
0.0
 11
179.7499999994206
 21
124.99944465005611
 31
0.0
  0
LINE
  5
1A09
  8
SAPA_MATT
 10
178.2499999994206
 20
62.999444650057498
 30
0.0
 11
178.2499999994206
 21
121.99944465005611
 31
0.0
  0
SOLID
  5
1A0A
  8
SAPA_MATT
 10
177.7499999994206
 20
62.999444650057498
 30
0.0
 11
178.7499999994206
 21
62.999444650057498
 31
0.0
 12
178.2499999994206
 22
59.999444650057498
 32
0.0
 13
178.2499999994206
 23
59.999444650057498
 33
0.0
  0
SOLID
  5
1A0B
  8
SAPA_MATT
 10
177.7499999994206
 20
121.99944465005611
 30
0.0
 11
178.7499999994206
 21
121.99944465005611
 31
0.0
 12
178.2499999994206
 22
124.99944465005611
 32
0.0
 13
178.2499999994206
 23
124.99944465005611
 33
0.0
  0
INSERT
  5
1A0C
  8
0
  2
*U20
 10
0.0
 20
0.0
 30
0.0
  0
POINT
  5
1A0D
  8
DEFPOINTS
 62
     0
 10
127.20000007166431
 20
59.999444650057512
 30
0.0
  0
POINT
  5
1A0E
  8
DEFPOINTS
 62
     0
 10
136.4500000711426
 20
124.99944465005611
 30
0.0
  0
POINT
  5
1A0F
  8
DEFPOINTS
 62
     0
 10
178.2499999994206
 20
124.99944465005611
 30
0.0
  0
ENDBLK
  5
1977
  8
0
  0
BLOCK
  8
0
  2
*D9
 70
     1
 10
0.0
 20
0.0
 30
0.0
  3
*D9
  1

  0
LINE
  5
19FE
  8
SAPA_MATT
 10
137.9500000711426
 20
124.99944465005611
 30
0.0
 11
167.7499999994206
 21
124.99944465005611
 31
0.0
  0
LINE
  5
19FF
  8
SAPA_MATT
 10
136.25000007114781
 20
64.999444650057967
 30
0.0
 11
167.7499999994206
 21
64.999444650057953
 31
0.0
  0
LINE
  5
1A00
  8
SAPA_MATT
 10
166.2499999994206
 20
121.99944465005611
 30
0.0
 11
166.2499999994206
 21
67.999444650057953
 31
0.0
  0
SOLID
  5
1A01
  8
SAPA_MATT
 10
165.7499999994206
 20
121.99944465005611
 30
0.0
 11
166.7499999994206
 21
121.99944465005611
 31
0.0
 12
166.2499999994206
 22
124.99944465005611
 32
0.0
 13
166.2499999994206
 23
124.99944465005611
 33
0.0
  0
SOLID
  5
1A02
  8
SAPA_MATT
 10
165.7499999994206
 20
67.999444650057953
 30
0.0
 11
166.7499999994206
 21
67.999444650057953
 31
0.0
 12
166.2499999994206
 22
64.999444650057953
 32
0.0
 13
166.2499999994206
 23
64.999444650057953
 33
0.0
  0
INSERT
  5
1A03
  8
0
  2
*U19
 10
0.0
 20
0.0
 30
0.0
  0
POINT
  5
1A04
  8
DEFPOINTS
 62
     0
 10
136.4500000711426
 20
124.99944465005611
 30
0.0
  0
POINT
  5
1A05
  8
DEFPOINTS
 62
     0
 10
134.75000007114781
 20
64.999444650057967
 30
0.0
  0
POINT
  5
1A06
  8
DEFPOINTS
 62
     0
 10
166.2499999994206
 20
64.999444650057953
 30
0.0
  0
ENDBLK
  5
1983
  8
0
  0
BLOCK
  8
0
  2
*D10
 70
     1
 10
0.0
 20
0.0
 30
0.0
  3
*D10
  1

  0
LINE
  5
1B72
  8
SAPA_MATT
 10
136.2500000711477
 20
64.999444650057967
 30
0.0
 11
167.7500000711681
 21
64.999444650057953
 31
0.0
  0
LINE
  5
1B73
  8
SAPA_MATT
 10
128.70000007166431
 20
59.999444650057512
 30
0.0
 11
167.75000007116799
 21
59.999444650057498
 31
0.0
  0
LINE
  5
1B74
  8
SAPA_MATT
 10
166.2500000711681
 20
67.999444650057953
 30
0.0
 11
166.2500000711681
 21
70.999444650057953
 31
0.0
  0
LINE
  5
1B75
  8
SAPA_MATT
 10
166.2500000711681
 20
56.999444650057498
 30
0.0
 11
166.2500000711681
 21
53.999444650057498
 31
0.0
  0
LINE
  5
1B76
  8
SAPA_MATT
 10
166.2500000711681
 20
64.999444650057953
 30
0.0
 11
166.2500000711681
 21
59.999444650057498
 31
0.0
  0
SOLID
  5
1B77
  8
SAPA_MATT
 10
165.7500000711681
 20
67.999444650057953
 30
0.0
 11
166.7500000711681
 21
67.999444650057953
 31
0.0
 12
166.2500000711681
 22
64.999444650057953
 32
0.0
 13
166.2500000711681
 23
64.999444650057953
 33
0.0
  0
SOLID
  5
1B78
  8
SAPA_MATT
 10
165.75000007116799
 20
56.999444650057498
 30
0.0
 11
166.75000007116799
 21
56.999444650057498
 31
0.0
 12
166.2500000711681
 22
59.999444650057498
 32
0.0
 13
166.2500000711681
 23
59.999444650057498
 33
0.0
  0
TEXT
  8
SAPA_MATT
  40
3
  5
1B8D
  62
2
  72
0
  71
0
 10
157.750
 20
57.1894
 30
0.000000
  1
5
  7
ISO
  0
POINT
  5
1B7A
  8
DEFPOINTS
 62
     0
 10
134.7500000711477
 20
64.999444650057967
 30
0.0
  0
POINT
  5
1B7B
  8
DEFPOINTS
 62
     0
 10
127.20000007166431
 20
59.999444650057512
 30
0.0
  0
POINT
  5
1B7C
  8
DEFPOINTS
 62
     0
 10
166.2500000711681
 20
59.999444650057498
 30
0.0
  0
ENDBLK
  5
198F
  8
0
  0
BLOCK
  8
0
  2
*D11
 70
     1
 10
0.0
 20
0.0
 30
0.0
  3
*D11
  1

  0
LINE
  5
19EA
  8
SAPA_MATT
 10
136.75000007114781
 20
65.499444650057967
 30
0.0
 11
136.75000007114781
 21
7.499444650057967
 31
0.0
  0
LINE
  5
19EB
  8
SAPA_MATT
 10
-13.24999992885045
 20
65.499444650057967
 30
0.0
 11
-13.24999992885046
 21
7.499444650057967
 31
0.0
  0
LINE
  5
19EC
  8
SAPA_MATT
 10
133.75000007114781
 20
8.999444650057967
 30
0.0
 11
-10.24999992885046
 21
8.999444650057967
 31
0.0
  0
SOLID
  5
19ED
  8
SAPA_MATT
 10
133.75000007114781
 20
9.499444650057967
 30
0.0
 11
133.75000007114781
 21
8.499444650057967
 31
0.0
 12
136.75000007114781
 22
8.999444650057967
 32
0.0
 13
136.75000007114781
 23
8.999444650057967
 33
0.0
  0
SOLID
  5
19EE
  8
SAPA_MATT
 10
-10.24999992885046
 20
9.499444650057967
 30
0.0
 11
-10.24999992885046
 21
8.499444650057967
 31
0.0
 12
-13.24999992885046
 22
8.999444650057967
 32
0.0
 13
-13.24999992885046
 23
8.999444650057967
 33
0.0
  0
INSERT
  5
19EF
  8
0
  2
*U18
 10
0.0
 20
0.0
 30
0.0
  0
POINT
  5
19F0
  8
DEFPOINTS
 62
     0
 10
136.75000007114781
 20
66.999444650057967
 30
0.0
  0
POINT
  5
19F1
  8
DEFPOINTS
 62
     0
 10
-13.24999992885045
 20
66.999444650057967
 30
0.0
  0
POINT
  5
19F2
  8
DEFPOINTS
 62
     0
 10
-13.24999992885046
 20
8.999444650057967
 30
0.0
  0
ENDBLK
  5
199D
  8
0
  0
BLOCK
  8
0
  2
*D12
 70
     1
 10
0.0
 20
0.0
 30
0.0
  3
*D12
  1

  0
LINE
  5
1B69
  8
SAPA_MATT
 10
68.750000071428644
 20
64.167448112057173
 30
0.0
 11
68.750000071428644
 21
19.499444650057971
 31
0.0
  0
LINE
  5
1B6A
  8
SAPA_MATT
 10
-13.24999992885045
 20
65.499444650057967
 30
0.0
 11
-13.24999992885046
 21
19.499444650057971
 31
0.0
  0
LINE
  5
1B6B
  8
SAPA_MATT
 10
65.750000071428644
 20
20.999444650057971
 30
0.0
 11
-10.24999992885046
 21
20.999444650057971
 31
0.0
  0
TEXT
  8
SAPA_MATT
  40
3
  5
1B8E
  62
2
  72
0
  71
0
 10
17.3923
 20
18.9500
 30
0.000000
  1
82
  7
ISO
  0
SOLID
  5
1B6D
  8
SAPA_MATT
 10
65.750000071428644
 20
21.499444650057971
 30
0.0
 11
65.750000071428644
 21
20.499444650057971
 31
0.0
 12
68.750000071428644
 22
20.999444650057971
 32
0.0
 13
68.750000071428644
 23
20.999444650057971
 33
0.0
  0
SOLID
  5
1B6E
  8
SAPA_MATT
 10
-10.24999992885046
 20
21.499444650057971
 30
0.0
 11
-10.24999992885046
 21
20.499444650057971
 31
0.0
 12
-13.24999992885046
 22
20.999444650057971
 32
0.0
 13
-13.24999992885046
 23
20.999444650057971
 33
0.0
  0
POINT
  5
1B6F
  8
DEFPOINTS
 62
     0
 10
68.750000071428644
 20
65.667448112057173
 30
0.0
  0
POINT
  5
1B70
  8
DEFPOINTS
 62
     0
 10
-13.24999992885045
 20
66.999444650057967
 30
0.0
  0
POINT
  5
1B71
  8
DEFPOINTS
 62
     0
 10
-13.24999992885046
 20
20.999444650057971
 30
0.0
  0
ENDBLK
  5
19A9
  8
0
  0
BLOCK
  8
0
  2
*D13
 70
     1
 10
0.0
 20
0.0
 30
0.0
  3
*D13
  1

  0
LINE
  5
1B60
  8
SAPA_MATT
 10
131.7500000711477
 20
63.999444650056141
 30
0.0
 11
131.7500000711477
 21
19.499444650057971
 31
0.0
  0
LINE
  5
1B61
  8
SAPA_MATT
 10
68.750000071428644
 20
64.167448112057173
 30
0.0
 11
68.750000071428644
 21
19.499444650057971
 31
0.0
  0
LINE
  5
1B62
  8
SAPA_MATT
 10
128.7500000711477
 20
20.999444650057971
 30
0.0
 11
71.750000071428644
 21
20.999444650057971
 31
0.0
  0
SOLID
  5
1B63
  8
SAPA_MATT
 10
128.7500000711477
 20
21.499444650057971
 30
0.0
 11
128.7500000711477
 21
20.499444650057971
 31
0.0
 12
131.7500000711477
 22
20.999444650057971
 32
0.0
 13
131.7500000711477
 23
20.999444650057971
 33
0.0
  0
SOLID
  5
1B64
  8
SAPA_MATT
 10
71.750000071428644
 20
21.499444650057971
 30
0.0
 11
71.750000071428644
 21
20.499444650057971
 31
0.0
 12
68.750000071428644
 22
20.999444650057971
 32
0.0
 13
68.750000071428644
 23
20.999444650057971
 33
0.0
  0
TEXT
  8
SAPA_MATT
  40
3
  5
1B8F
  62
2
  72
0
  71
0
 10
94.2500
 20
18.1894
 30
0.000000
  1
63
  7
ISO
  0
POINT
  5
1B66
  8
DEFPOINTS
 62
     0
 10
131.7500000711477
 20
65.499444650056148
 30
0.0
  0
POINT
  5
1B67
  8
DEFPOINTS
 62
     0
 10
68.750000071428644
 20
65.667448112057173
 30
0.0
  0
POINT
  5
1B68
  8
DEFPOINTS
 62
     0
 10
68.750000071428644
 20
20.999444650057971
 30
0.0
  0
ENDBLK
  5
19B5
  8
0
  0
BLOCK
  8
0
  2
*D14
 70
     1
 10
0.0
 20
0.0
 30
0.0
  3
*D14
  1

  0
LINE
  5
19CD
  8
SAPA_MATT
 10
136.75000007114781
 20
65.499444650057967
 30
0.0
 11
136.75000007114781
 21
19.499444650057971
 31
0.0
  0
LINE
  5
19CE
  8
SAPA_MATT
 10
131.75000007113391
 20
63.999444650056141
 30
0.0
 11
131.75000007113391
 21
19.499444650057971
 31
0.0
  0
LINE
  5
19CF
  8
SAPA_MATT
 10
139.75000007114781
 20
20.999444650057971
 30
0.0
 11
142.75000007114781
 21
20.999444650057971
 31
0.0
  0
LINE
  5
19D0
  8
SAPA_MATT
 10
128.75000007113391
 20
20.999444650057971
 30
0.0
 11
125.7500000711339
 21
20.999444650057971
 31
0.0
  0
LINE
  5
19D1
  8
SAPA_MATT
 10
136.75000007114781
 20
20.999444650057971
 30
0.0
 11
131.75000007113391
 21
20.999444650057971
 31
0.0
  0
SOLID
  5
19D2
  8
SAPA_MATT
 10
139.75000007114781
 20
21.499444650057971
 30
0.0
 11
139.75000007114781
 21
20.499444650057971
 31
0.0
 12
136.75000007114781
 22
20.999444650057971
 32
0.0
 13
136.75000007114781
 23
20.999444650057971
 33
0.0
  0
SOLID
  5
19D3
  8
SAPA_MATT
 10
128.75000007113391
 20
21.499444650057971
 30
0.0
 11
128.75000007113391
 21
20.499444650057971
 31
0.0
 12
131.75000007113391
 22
20.999444650057971
 32
0.0
 13
131.75000007113391
 23
20.999444650057971
 33
0.0
  0
INSERT
  5
19D4
  8
0
  2
*U17
 10
0.0
 20
0.0
 30
0.0
  0
POINT
  5
19D5
  8
DEFPOINTS
 62
     0
 10
136.75000007114781
 20
66.999444650057967
 30
0.0
  0
POINT
  5
19D6
  8
DEFPOINTS
 62
     0
 10
131.75000007113391
 20
65.499444650056148
 30
0.0
  0
POINT
  5
19D7
  8
DEFPOINTS
 62
     0
 10
131.75000007113391
 20
20.999444650057971
 30
0.0
  0
ENDBLK
  5
19C1
  8
0
  0
BLOCK
  8
0
  2
*X15
 70
     1
 10
0.0
 20
0.0
 30
0.0
  3
*X15
  1

  0
LINE
  5
1A6A
  8
0
 62
     0
 10
136.79522041322929
 20
76.582373814363137
 30
0.0
 11
136.75000000482791
 21
76.53715340596176
 31
0.0
  0
LINE
  5
1A6B
  8
0
 62
     0
 10
136.98148753969761
 20
75.64610892569776
 30
0.0
 11
136.75000001263331
 21
75.414621398633557
 31
0.0
  0
LINE
  5
1A6C
  8
0
 62
     0
 10
137.27875232595011
 20
74.820841696816728
 30
0.0
 11
136.75000002043879
 21
74.292089391305382
 31
0.0
  0
LINE
  5
1A6D
  8
0
 62
     0
 10
137.66916171149481
 20
74.088719067227686
 30
0.0
 11
136.75000002824419
 21
73.169557383977178
 31
0.0
  0
LINE
  5
1A6E
  8
0
 62
     0
 10
138.14481478816779
 20
73.441840128767083
 30
0.0
 11
136.7500000360497
 21
72.047025376648989
 31
0.0
  0
LINE
  5
1A6F
  8
0
 62
     0
 10
138.7043036963795
 20
72.878797021845159
 30
0.0
 11
136.7500000438551
 21
70.924493369320786
 31
0.0
  0
LINE
  5
1A70
  8
0
 62
     0
 10
139.3521758028497
 20
72.40413711318169
 30
0.0
 11
136.75000005166061
 21
69.801961361992596
 31
0.0
  0
LINE
  5
1A71
  8
0
 62
     0
 10
140.10075448227991
 20
72.030183777478229
 30
0.0
 11
136.750000059466
 21
68.679429354664407
 31
0.0
  0
LINE
  5
1A72
  8
0
 62
     0
 10
140.97638578987599
 20
71.783283069940751
 30
0.0
 11
136.75000006727149
 21
67.556897347336204
 31
0.0
  0
LINE
  5
1A73
  8
0
 62
     0
 10
142.0407394999244
 20
71.725104764855445
 30
0.0
 11
136.62843571591469
 21
66.312800980845822
 31
0.0
  0
LINE
  5
1A74
  8
0
 62
     0
 10
146.74999999926879
 20
76.43436526419984
 30
0.0
 11
146.6736361575351
 21
76.358001422466145
 31
0.0
  0
LINE
  5
1A75
  8
0
 62
     0
 10
143.51608663740919
 20
72.07791988720669
 30
0.0
 11
137.15757113263109
 21
65.719404382428522
 31
0.0
  0
LINE
  5
1A76
  8
0
 62
     0
 10
146.74999999926879
 20
75.311833249066211
 30
0.0
 11
146.18999014117071
 21
74.751823390968156
 31
0.0
  0
LINE
  5
1A77
  8
0
 62
     0
 10
146.74999999926871
 20
74.18930123393254
 30
0.0
 11
138.3919431583171
 21
65.831244392980821
 31
0.0
  0
LINE
  5
1A78
  8
0
 62
     0
 10
146.74999999926879
 20
73.06676921879891
 30
0.0
 11
139.5650594375098
 21
65.881828657039904
 31
0.0
  0
LINE
  5
1A79
  8
0
 62
     0
 10
146.74999999926879
 20
71.944237203665267
 30
0.0
 11
140.68552710069639
 21
65.879764305092849
 31
0.0
  0
LINE
  5
1A7A
  8
0
 62
     0
 10
146.74999999926879
 20
70.821705188531595
 30
0.0
 11
141.7598513061732
 21
65.831556495436075
 31
0.0
  0
LINE
  5
1A7B
  8
0
 62
     0
 10
146.74999999926871
 20
69.699173173397952
 30
0.0
 11
142.7930870015563
 21
65.742260175685516
 31
0.0
  0
LINE
  5
1A7C
  8
0
 62
     0
 10
146.74999999926879
 20
68.576641158264323
 30
0.0
 11
143.78925042885371
 21
65.615891587849205
 31
0.0
  0
LINE
  5
1A7D
  8
0
 62
     0
 10
146.74999999926871
 20
67.45410914313068
 30
0.0
 11
144.75159058244611
 21
65.455699726308012
 31
0.0
  0
LINE
  5
1A7E
  8
0
 62
     0
 10
146.74999999926879
 20
66.331577127997036
 30
0.0
 11
145.6827748454472
 21
65.264351974175412
 31
0.0
  0
LINE
  5
1A7F
  8
0
 62
     0
 10
146.74999999926871
 20
65.209045112863393
 30
0.0
 11
146.58501980963649
 21
65.044064923231133
 31
0.0
  0
LINE
  5
1A80
  8
0
 62
     0
 10
136.47034128829739
 20
65.979431857698771
 30
0.0
 11
136.77707360170939
 21
65.672699544286843
 31
0.0
  0
LINE
  5
1A81
  8
0
 62
     0
 10
136.74276971707189
 20
66.829535444057967
 30
0.0
 11
137.78821368851499
 21
65.784091472614804
 31
0.0
  0
LINE
  5
1A82
  8
0
 62
     0
 10
136.75000006457401
 20
67.944837111689495
 30
0.0
 11
138.83798918106299
 21
65.856847995200496
 31
0.0
  0
LINE
  5
1A83
  8
0
 62
     0
 10
136.7500000567685
 20
69.067369134628606
 30
0.0
 11
139.930808684764
 21
65.886560506633103
 31
0.0
  0
LINE
  5
1A84
  8
0
 62
     0
 10
136.7500000489631
 20
70.189901157567689
 30
0.0
 11
141.07226922784861
 21
65.867631978682212
 31
0.0
  0
LINE
  5
1A85
  8
0
 62
     0
 10
136.75000004115759
 20
71.312433180506815
 30
0.0
 11
142.26965153751371
 21
65.792781684150683
 31
0.0
  0
LINE
  5
1A86
  8
0
 62
     0
 10
136.75000003335219
 20
72.434965203445913
 30
0.0
 11
143.5327212642635
 21
65.65224397253462
 31
0.0
  0
LINE
  5
1A87
  8
0
 62
     0
 10
136.75000002554671
 20
73.55749722638501
 30
0.0
 11
144.87510562995121
 21
65.432391621980514
 31
0.0
  0
LINE
  5
1A88
  8
0
 62
     0
 10
136.75000001774131
 20
74.680029249324079
 30
0.0
 11
146.31685135033521
 21
65.11317791673018
 31
0.0
  0
LINE
  5
1A89
  8
0
 62
     0
 10
140.71528951161611
 20
71.837271770582916
 30
0.0
 11
146.74999999926871
 21
65.802561282930213
 31
0.0
  0
LINE
  5
1A8A
  8
0
 62
     0
 10
136.7500000099358
 20
75.802561272263176
 30
0.0
 11
137.01216748122769
 21
75.540393800971216
 31
0.0
  0
LINE
  5
1A8B
  8
0
 62
     0
 10
141.9547829969143
 20
71.720310300418333
 30
0.0
 11
146.74999999926871
 21
66.925093298063885
 31
0.0
  0
LINE
  5
1A8C
  8
0
 62
     0
 10
136.75000000213041
 20
76.925093295202274
 30
0.0
 11
136.76437511705001
 21
76.910718180282601
 31
0.0
  0
LINE
  5
1A8D
  8
0
 62
     0
 10
142.92469794820471
 20
71.872927364261614
 30
0.0
 11
146.74999999926871
 21
68.047625313197543
 31
0.0
  0
LINE
  5
1A8E
  8
0
 62
     0
 10
143.7401224553837
 20
72.180034872216282
 30
0.0
 11
146.74999999926871
 21
69.1701573283312
 31
0.0
  0
LINE
  5
1A8F
  8
0
 62
     0
 10
144.4424909673302
 20
72.600198375403423
 30
0.0
 11
146.74999999926879
 21
70.292689343464815
 31
0.0
  0
LINE
  5
1A90
  8
0
 62
     0
 10
145.05074311282331
 20
73.114478245043927
 30
0.0
 11
146.74999999926871
 21
71.415221358598473
 31
0.0
  0
LINE
  5
1A91
  8
0
 62
     0
 10
145.5733866468785
 20
73.714366726122392
 30
0.0
 11
146.74999999926871
 21
72.537753373732116
 31
0.0
  0
LINE
  5
1A92
  8
0
 62
     0
 10
146.01229313222609
 20
74.397992255908449
 30
0.0
 11
146.74999999926871
 21
73.660285388865745
 31
0.0
  0
LINE
  5
1A93
  8
0
 62
     0
 10
146.36341578923529
 20
75.169401614032836
 30
0.0
 11
146.74999999926871
 21
74.782817403999402
 31
0.0
  0
LINE
  5
1A94
  8
0
 62
     0
 10
146.61518585014269
 20
76.040163568259075
 30
0.0
 11
146.74999999926871
 21
75.90534941913306
 31
0.0
  0
LINE
  5
1A95
  8
0
 62
     0
 10
146.74279904953869
 20
77.035082383996738
 30
0.0
 11
146.74999999926871
 21
77.027881434266703
 31
0.0
  0
ENDBLK
  5
1A97
  8
0
  0
BLOCK
  8
0
  2
*X16
 70
     1
 10
0.0
 20
0.0
 30
0.0
  3
*X16
  1

  0
LINE
  5
1A99
  8
0
 62
     0
 10
140.22810515680061
 20
72.069598354657003
 30
0.0
 11
140.29131346244901
 21
71.960118357813585
 31
0.0
  0
LINE
  5
1A9A
  8
0
 62
     0
 10
139.0374801568006
 20
74.131821347418693
 30
0.0
 11
139.43435515680059
 21
73.444413683164797
 31
0.0
  0
LINE
  5
1A9B
  8
0
 62
     0
 10
137.8468551568007
 20
76.194044340180383
 30
0.0
 11
138.24373015680061
 21
75.506636675926487
 31
0.0
  0
LINE
  5
1A9C
  8
0
 62
     0
 10
136.78797143577521
 20
78.028084744303996
 30
0.0
 11
137.05310515680071
 21
77.568859668688177
 31
0.0
  0
LINE
  5
1A9D
  8
0
 62
     0
 10
141.41872987230451
 20
72.757005854656995
 30
0.0
 11
141.8156048723045
 21
72.069598190403099
 31
0.0
  0
LINE
  5
1A9E
  8
0
 62
     0
 10
140.22810487230461
 20
74.819228847418685
 30
0.0
 11
140.62497987230449
 21
74.131821183164789
 31
0.0
  0
LINE
  5
1A9F
  8
0
 62
     0
 10
139.0374798723046
 20
76.881451840180375
 30
0.0
 11
139.4343548723046
 21
76.194044175926464
 31
0.0
  0
LINE
  5
1AA0
  8
0
 62
     0
 10
137.84685487230459
 20
78.943674832942065
 30
0.0
 11
138.24372987230461
 21
78.256267168688169
 31
0.0
  0
LINE
  5
1AA1
  8
0
 62
     0
 10
142.60935458780841
 20
73.444413354656973
 30
0.0
 11
143.00622958780841
 21
72.757005690403076
 31
0.0
  0
LINE
  5
1AA2
  8
0
 62
     0
 10
141.4187295878084
 20
75.506636347418663
 30
0.0
 11
141.81560458780839
 21
74.819228683164766
 31
0.0
  0
LINE
  5
1AA3
  8
0
 62
     0
 10
140.22810458780839
 20
77.568859340180353
 30
0.0
 11
140.62497958780841
 21
76.881451675926456
 31
0.0
  0
LINE
  5
1AA4
  8
0
 62
     0
 10
139.03747958780849
 20
79.631082332942043
 30
0.0
 11
139.43435458780851
 21
78.943674668688146
 31
0.0
  0
LINE
  5
1AA5
  8
0
 62
     0
 10
138.12616471508599
 20
81.209525994190557
 30
0.0
 11
138.2437295878085
 21
81.005897661449836
 31
0.0
  0
LINE
  5
1AA6
  8
0
 62
     0
 10
143.79997930331231
 20
74.131820854656993
 30
0.0
 11
144.19685430331231
 21
73.444413190403097
 31
0.0
  0
LINE
  5
1AA7
  8
0
 62
     0
 10
142.6093543033123
 20
76.194043847418683
 30
0.0
 11
143.0062293033123
 21
75.506636183164787
 31
0.0
  0
LINE
  5
1AA8
  8
0
 62
     0
 10
141.4187293033124
 20
78.256266840180373
 30
0.0
 11
141.81560430331231
 21
77.568859175926477
 31
0.0
  0
LINE
  5
1AA9
  8
0
 62
     0
 10
140.22810430331239
 20
80.318489832942063
 30
0.0
 11
140.62497930331239
 21
79.631082168688167
 31
0.0
  0
LINE
  5
1AAA
  8
0
 62
     0
 10
139.16983206819941
 20
82.151471112397147
 30
0.0
 11
139.4343543033124
 21
81.693305161449857
 31
0.0
  0
LINE
  5
1AAB
  8
0
 62
     0
 10
144.99060401881621
 20
74.819228354657
 30
0.0
 11
145.38747901881621
 21
74.131820690403103
 31
0.0
  0
LINE
  5
1AAC
  8
0
 62
     0
 10
143.7999790188162
 20
76.88145134741869
 30
0.0
 11
144.1968540188162
 21
76.194043683164793
 31
0.0
  0
LINE
  5
1AAD
  8
0
 62
     0
 10
142.60935401881619
 20
78.94367434018038
 30
0.0
 11
143.00622901881621
 21
78.256266675926483
 31
0.0
  0
LINE
  5
1AAE
  8
0
 62
     0
 10
141.41872901881629
 20
81.005897332942055
 30
0.0
 11
141.81560401881629
 21
80.318489668688173
 31
0.0
  0
LINE
  5
1AAF
  8
0
 62
     0
 10
140.41048074424521
 20
82.75223457114275
 30
0.0
 11
140.6249790188163
 21
82.380712661449863
 31
0.0
  0
LINE
  5
1AB0
  8
0
 62
     0
 10
146.18122873432009
 20
75.506635854656992
 30
0.0
 11
146.3683067456754
 21
75.182607234010703
 31
0.0
  0
LINE
  5
1AB1
  8
0
 62
     0
 10
144.9906037343201
 20
77.568858847418682
 30
0.0
 11
145.3874787343201
 21
76.881451183164785
 31
0.0
  0
LINE
  5
1AB2
  8
0
 62
     0
 10
143.79997873432009
 20
79.631081840180372
 30
0.0
 11
144.1968537343202
 21
78.943674175926475
 31
0.0
  0
LINE
  5
1AB3
  8
0
 62
     0
 10
142.60935373432019
 20
81.693304832942061
 30
0.0
 11
143.00622873432019
 21
81.005897168688165
 31
0.0
  0
LINE
  5
1AB4
  8
0
 62
     0
 10
146.18122844982409
 20
78.256266347418688
 30
0.0
 11
146.57810344982411
 21
77.568858683164791
 31
0.0
  0
LINE
  5
1AB5
  8
0
 62
     0
 10
144.99060344982411
 20
80.318489340180378
 30
0.0
 11
145.3874784498241
 21
79.631081675926481
 31
0.0
  0
LINE
  5
1AB6
  8
0
 62
     0
 10
143.7999784498241
 20
82.380712332942053
 30
0.0
 11
144.19685344982409
 21
81.693304668688171
 31
0.0
  0
LINE
  5
1AB7
  8
0
 62
     0
 10
137.05309519943731
 20
77.568888413120376
 30
0.0
 11
136.75628926938029
 21
77.054805462273976
 31
0.0
  0
LINE
  5
1AB8
  8
0
 62
     0
 10
138.24372019943729
 20
79.631111405882066
 30
0.0
 11
137.8468451994373
 21
78.94370374162817
 31
0.0
  0
LINE
  5
1AB9
  8
0
 62
     0
 10
139.4343451994373
 20
81.693334398643756
 30
0.0
 11
139.03747019943731
 21
81.005926734389874
 31
0.0
  0
LINE
  5
1ABA
  8
0
 62
     0
 10
138.24371991494121
 20
76.881480913120356
 30
0.0
 11
137.8468449149413
 21
76.194073248866459
 31
0.0
  0
LINE
  5
1ABB
  8
0
 62
     0
 10
139.43434491494119
 20
78.943703905882046
 30
0.0
 11
139.0374699149412
 21
78.256296241628135
 31
0.0
  0
LINE
  5
1ABC
  8
0
 62
     0
 10
140.6249699149412
 20
81.005926898643736
 30
0.0
 11
140.22809491494121
 21
80.318519234389825
 31
0.0
  0
LINE
  5
1ABD
  8
0
 62
     0
 10
141.75183141880169
 20
82.957708276423546
 30
0.0
 11
141.41871991494119
 21
82.380742227151529
 31
0.0
  0
LINE
  5
1ABE
  8
0
 62
     0
 10
138.24371963044521
 20
74.131850420358703
 30
0.0
 11
137.96983913276469
 21
73.657475483173897
 31
0.0
  0
LINE
  5
1ABF
  8
0
 62
     0
 10
139.43434463044511
 20
76.194073413120393
 30
0.0
 11
139.03746963044509
 21
75.506665748866496
 31
0.0
  0
LINE
  5
1AC0
  8
0
 62
     0
 10
140.62496963044509
 20
78.256296405882082
 30
0.0
 11
140.2280946304451
 21
77.568888741628186
 31
0.0
  0
LINE
  5
1AC1
  8
0
 62
     0
 10
141.8155946304451
 20
80.318519398643772
 30
0.0
 11
141.41871963044511
 21
79.631111734389876
 31
0.0
  0
LINE
  5
1AC2
  8
0
 62
     0
 10
143.00621963044509
 20
82.380742391405462
 30
0.0
 11
142.60934463044509
 21
81.693334727151566
 31
0.0
  0
LINE
  5
1AC3
  8
0
 62
     0
 10
139.43434434594911
 20
73.444442920358682
 30
0.0
 11
139.03746934594909
 21
72.757035256104786
 31
0.0
  0
LINE
  5
1AC4
  8
0
 62
     0
 10
140.6249693459491
 20
75.506665913120372
 30
0.0
 11
140.22809434594899
 21
74.819258248866475
 31
0.0
  0
LINE
  5
1AC5
  8
0
 62
     0
 10
141.81559434594899
 20
77.568888905882062
 30
0.0
 11
141.418719345949
 21
76.881481241628165
 31
0.0
  0
LINE
  5
1AC6
  8
0
 62
     0
 10
143.00621934594901
 20
79.631111898643752
 30
0.0
 11
142.60934434594901
 21
78.943704234389855
 31
0.0
  0
LINE
  5
1AC7
  8
0
 62
     0
 10
144.19684434594899
 20
81.693334891405442
 30
0.0
 11
143.79996934594899
 21
81.005927227151545
 31
0.0
  0
LINE
  5
1AC8
  8
0
 62
     0
 10
140.62496906145299
 20
72.757035420358662
 30
0.0
 11
140.22809406145299
 21
72.069627756104765
 31
0.0
  0
LINE
  5
1AC9
  8
0
 62
     0
 10
141.81559406145291
 20
74.819258413120352
 30
0.0
 11
141.418719061453
 21
74.131850748866455
 31
0.0
  0
LINE
  5
1ACA
  8
0
 62
     0
 10
143.0062190614529
 20
76.881481405882042
 30
0.0
 11
142.6093440614529
 21
76.194073741628145
 31
0.0
  0
LINE
  5
1ACB
  8
0
 62
     0
 10
144.19684406145291
 20
78.943704398643732
 30
0.0
 11
143.79996906145291
 21
78.256296734389835
 31
0.0
  0
LINE
  5
1ACC
  8
0
 62
     0
 10
145.38746906145289
 20
81.005927391405436
 30
0.0
 11
144.9905940614529
 21
80.318519727151525
 31
0.0
  0
LINE
  5
1ACD
  8
0
 62
     0
 10
141.81559377695689
 20
72.069627920358656
 30
0.0
 11
141.6124208753136
 21
71.717722131991323
 31
0.0
  0
LINE
  5
1ACE
  8
0
 62
     0
 10
143.00621877695681
 20
74.13185091312036
 30
0.0
 11
142.60934377695691
 21
73.444443248866463
 31
0.0
  0
LINE
  5
1ACF
  8
0
 62
     0
 10
144.1968437769568
 20
76.19407390588205
 30
0.0
 11
143.7999687769568
 21
75.506666241628153
 31
0.0
  0
LINE
  5
1AD0
  8
0
 62
     0
 10
145.38746877695681
 20
78.25629689864374
 30
0.0
 11
144.99059377695681
 21
77.568889234389843
 31
0.0
  0
LINE
  5
1AD1
  8
0
 62
     0
 10
146.25899468985941
 20
79.765824059903792
 30
0.0
 11
146.1812187769568
 21
79.631112227151533
 31
0.0
  0
LINE
  5
1AD2
  8
0
 62
     0
 10
144.19684349246069
 20
73.444443413120368
 30
0.0
 11
143.79996849246069
 21
72.757035748866471
 31
0.0
  0
LINE
  5
1AD3
  8
0
 62
     0
 10
145.3874684924607
 20
75.506666405882058
 30
0.0
 11
144.9905934924607
 21
74.819258741628161
 31
0.0
  0
LINE
  5
1AD4
  8
0
 62
     0
 10
146.57809349246071
 20
77.568889398643734
 30
0.0
 11
146.18121849246069
 21
76.881481734389851
 31
0.0
  0
LINE
  5
1AD5
  8
0
 62
     0
 10
143.00625007152749
 20
72.757029999979991
 30
0.0
 11
143.80000007152751
 21
72.757029999979991
 31
0.0
  0
LINE
  5
1AD6
  8
0
 62
     0
 10
140.6250000715275
 20
72.757029999979991
 30
0.0
 11
141.41875007152751
 21
72.757029999979991
 31
0.0
  0
LINE
  5
1AD7
  8
0
 62
     0
 10
138.85076881892761
 20
72.757029999979991
 30
0.0
 11
139.03750007152749
 21
72.757029999979991
 31
0.0
  0
LINE
  5
1AD8
  8
0
 62
     0
 10
145.38750007152751
 20
74.13184499997999
 30
0.0
 11
145.8577275365966
 21
74.13184499997999
 31
0.0
  0
LINE
  5
1AD9
  8
0
 62
     0
 10
143.00625007152749
 20
74.13184499997999
 30
0.0
 11
143.80000007152751
 21
74.13184499997999
 31
0.0
  0
LINE
  5
1ADA
  8
0
 62
     0
 10
140.6250000715275
 20
74.13184499997999
 30
0.0
 11
141.41875007152751
 21
74.13184499997999
 31
0.0
  0
LINE
  5
1ADB
  8
0
 62
     0
 10
138.2437500715275
 20
74.13184499997999
 30
0.0
 11
139.03750007152749
 21
74.13184499997999
 31
0.0
  0
LINE
  5
1ADC
  8
0
 62
     0
 10
145.38750007152751
 20
75.506659999980002
 30
0.0
 11
146.1812500715275
 21
75.506659999980002
 31
0.0
  0
LINE
  5
1ADD
  8
0
 62
     0
 10
143.00625007152749
 20
75.506659999980002
 30
0.0
 11
143.80000007152751
 21
75.506659999980002
 31
0.0
  0
LINE
  5
1ADE
  8
0
 62
     0
 10
140.6250000715275
 20
75.506659999980002
 30
0.0
 11
141.41875007152751
 21
75.506659999980002
 31
0.0
  0
LINE
  5
1ADF
  8
0
 62
     0
 10
138.2437500715275
 20
75.506659999980002
 30
0.0
 11
139.03750007152749
 21
75.506659999980002
 31
0.0
  0
LINE
  5
1AE0
  8
0
 62
     0
 10
145.38750007152751
 20
76.881474999979986
 30
0.0
 11
146.1812500715275
 21
76.881474999979986
 31
0.0
  0
LINE
  5
1AE1
  8
0
 62
     0
 10
143.00625007152749
 20
76.881474999979986
 30
0.0
 11
143.80000007152751
 21
76.881474999979986
 31
0.0
  0
LINE
  5
1AE2
  8
0
 62
     0
 10
140.6250000715275
 20
76.881474999979986
 30
0.0
 11
141.41875007152751
 21
76.881474999979986
 31
0.0
  0
LINE
  5
1AE3
  8
0
 62
     0
 10
138.2437500715275
 20
76.881474999979986
 30
0.0
 11
139.03750007152749
 21
76.881474999979986
 31
0.0
  0
LINE
  5
1AE4
  8
0
 62
     0
 10
145.38750007152751
 20
78.256289999979984
 30
0.0
 11
146.1812500715275
 21
78.256289999979984
 31
0.0
  0
LINE
  5
1AE5
  8
0
 62
     0
 10
143.00625007152749
 20
78.256289999979984
 30
0.0
 11
143.80000007152751
 21
78.256289999979984
 31
0.0
  0
LINE
  5
1AE6
  8
0
 62
     0
 10
140.6250000715275
 20
78.256289999979984
 30
0.0
 11
141.41875007152751
 21
78.256289999979984
 31
0.0
  0
LINE
  5
1AE7
  8
0
 62
     0
 10
138.2437500715275
 20
78.256289999979984
 30
0.0
 11
139.03750007152749
 21
78.256289999979984
 31
0.0
  0
LINE
  5
1AE8
  8
0
 62
     0
 10
145.38750007152751
 20
79.631104999979996
 30
0.0
 11
146.1812500715275
 21
79.631104999979996
 31
0.0
  0
LINE
  5
1AE9
  8
0
 62
     0
 10
143.00625007152749
 20
79.631104999979996
 30
0.0
 11
143.80000007152751
 21
79.631104999979996
 31
0.0
  0
LINE
  5
1AEA
  8
0
 62
     0
 10
140.6250000715275
 20
79.631104999979996
 30
0.0
 11
141.41875007152751
 21
79.631104999979996
 31
0.0
  0
LINE
  5
1AEB
  8
0
 62
     0
 10
138.2437500715275
 20
79.631104999979996
 30
0.0
 11
139.03750007152749
 21
79.631104999979996
 31
0.0
  0
LINE
  5
1AEC
  8
0
 62
     0
 10
145.38750007152751
 20
81.005919999979994
 30
0.0
 11
145.53777225327161
 21
81.005919999979994
 31
0.0
  0
LINE
  5
1AED
  8
0
 62
     0
 10
143.00625007152749
 20
81.005919999979994
 30
0.0
 11
143.80000007152751
 21
81.005919999979994
 31
0.0
  0
LINE
  5
1AEE
  8
0
 62
     0
 10
140.6250000715275
 20
81.005919999979994
 30
0.0
 11
141.41875007152751
 21
81.005919999979994
 31
0.0
  0
LINE
  5
1AEF
  8
0
 62
     0
 10
138.2437500715275
 20
81.005919999979994
 30
0.0
 11
139.03750007152749
 21
81.005919999979994
 31
0.0
  0
LINE
  5
1AF0
  8
0
 62
     0
 10
143.00625007152749
 20
82.380734999980007
 30
0.0
 11
143.80000007152751
 21
82.380734999980007
 31
0.0
  0
LINE
  5
1AF1
  8
0
 62
     0
 10
140.6250000715275
 20
82.380734999980007
 30
0.0
 11
141.41875007152751
 21
82.380734999980007
 31
0.0
  0
ENDBLK
  5
1AF3
  8
0
  0
BLOCK
  8
0
  2
*U17
 70
     1
 10
0.0
 20
0.0
 30
0.0
  3
*U17
  1

  0
TEXT
  5
1B7E
  8
SAPA_MATT
 62
     2
 10
133.20000007114089
 20
21.999444650057971
 30
0.0
 40
3.0
  1
5
  7
ISO
  0
ENDBLK
  5
1B80
  8
0
  0
BLOCK
  8
0
  2
*U18
 70
     1
 10
0.0
 20
0.0
 30
0.0
  3
*U18
  1

  0
TEXT
  5
1B82
  8
SAPA_MATT
 62
     2
 10
58.900000071148632
 20
9.999444650057967
 30
0.0
 40
3.0
  1
150
  7
ISO
  0
ENDBLK
  5
1B84
  8
0
  0
BLOCK
  8
0
  2
*U19
 70
     1
 10
0.0
 20
0.0
 30
0.0
  3
*U19
  1

  0
TEXT
  5
1B86
  8
SAPA_MATT
 62
     2
 10
165.2499999994206
 20
92.899444650057077
 30
0.0
 40
3.0
  1
60
 50
90.0
  7
ISO
  0
ENDBLK
  5
1B88
  8
0
  0
BLOCK
  8
0
  2
*U20
 70
     1
 10
0.0
 20
0.0
 30
0.0
  3
*U20
  1

  0
TEXT
  5
1B8A
  8
SAPA_MATT
 62
     2
 10
177.2499999994206
 20
90.39944465005685
 30
0.0
 40
3.0
  1
65
 50
90.0
  7
ISO
  0
ENDBLK
  5
1B8C
  8
0
  0
ENDSEC
  0
SECTION
  2
ENTITIES
  0
LINE
  5
148E
  8
SAPA_GLAS
 10
73.500000071298018
 20
60.19944465005846
 30
0.0
 11
74.250000071311092
 21
60.19944465005846
 31
0.0
  0
LINE
  5
148F
  8
SAPA_GLAS
 10
74.250000071311092
 20
72.999444650069563
 30
0.0
 11
73.500000071312002
 21
72.999444650070245
 31
0.0
  0
LINE
  5
1491
  8
SAPA_GLAS
 10
127.0000000716627
 20
60.19944465005846
 30
0.0
 11
126.25000007164959
 21
60.19944465005846
 31
0.0
  0
LINE
  5
1492
  8
SAPA_GLAS
 10
126.25000007164959
 20
72.999444650069563
 30
0.0
 11
127.0000000716487
 21
72.999444650070245
 31
0.0
  0
TEXT
  5
1497
  8
SAPA_ARTIKELNR
 10
-14.904549363083669
 20
89.437483755357334
 30
0.0000000048844772
 40
3.5
  1
D9K025
 50
90.0
  7
ISO
  0
TEXT
  5
1498
  8
SAPA_ARTIKELNR
 10
67.453692312147268
 20
46.67645786823141
 30
0.0000000048844772
 40
3.5
  1
D9V005
 50
90.0
  7
ISO
  0
INSERT
  5
14A0
  8
SAPA_ANSLUTNING
  6
CONTINUOUS
  2
*X15
 10
0.0
 20
0.0
 30
0.0
1001
ACAD
1000
HATCH
1002
{
1070
    19
1000
ANSI37
1040
0.25
1040
0.0
1000
R14_HATCH_DATA
1000
14A0
1011
1.0
1021
0.0
1031
0.0
1021
0.0
1031
0.0
1011
0.0
1021
0.0
1031
0.0
1021
1.0
1031
0.0
1011
0.0
1021
0.0
1031
0.0
1021
0.0
1031
1.0
1040
0.0
1010
0.0
1020
0.0
1030
1.0
1000
ANSI37
1070
     0
1070
     0
1071
        1
1071
        1
1071
        6
1070
     3
1040
141.74999999926871
1040
77.336651236670832
1040
0.0
1040
5.6210574168242138
1040
0.8895123513655372
1040
1.5707963267948959
1040
2.144309431217978
1070
     1
1070
     3
1040
141.74999999926871
1040
77.336651236670832
1040
0.0
1040
5.6210574168242138
1040
0.8895123513655372
1040
2.144309431217978
1040
4.7123889803846888
1070
     1
1070
     1
1040
146.74999999926871
1040
77.33665123667015
1040
146.74999999926871
1040
64.999999999994984
1070
     2
1040
140.0782584233047
1040
40.351707880120102
1040
25.535278343560961
1040
1.3064530021775029
1040
1.7246828695821601
1070
     1
1070
     2
1040
134.75000007114781
1040
66.99944465005774
1040
1.9999999999999349
1040
5.4977871437820971
1040
6.283185307179699
1070
     1
1070
     1
1040
136.7500000711477
1040
66.999444650057967
1040
136.7499999992686
1040
77.336651236670605
1071
        0
1070
     0
1070
     1
1040
0.0
1040
0.25
1070
     0
1070
     2
1040
5.4977871437821371
1040
-2.2499999284724481
1040
124.99999999998001
1040
-0.5612660075668221
1040
-0.5612660075668221
1070
     0
1040
3.926990816987241
1040
-2.2499999284724481
1040
124.99999999998001
1040
-0.5612660075668221
1040
0.5612660075668221
1070
     0
1071
        1
1040
140.74867641851711
1040
68.579635287054089
1040
0.0
1002
}
  0
LINE
  5
14A1
  8
SAPA_ANSLUTNING
 10
-13.24999992848598
 20
140.0000000000004
 30
0.0
 11
146.74999999926871
 21
140.0000000000004
 31
0.0
  0
LINE
  5
14A2
  8
SAPA_ANSLUTNING
 10
146.74999999926871
 20
64.999999999994984
 30
0.0
 11
191.753256005927
 21
64.999999999994984
 31
0.0
  0
LINE
  5
14A3
  8
SAPA_ANSLUTNING
 10
146.74999999926871
 20
140.0000000000004
 30
0.0
 11
146.74999999926871
 21
64.999999999994984
 31
0.0
  0
INSERT
  5
14A4
  8
SAPA_ANSLUTNING
  6
CONTINUOUS
  2
*X16
 10
0.0
 20
0.0
 30
0.0
1001
ACAD
1000
HATCH
1002
{
1070
    19
1000
HEX
1040
0.25
1040
0.0
1000
ASC_BOUNDS
1070
     1
1070
     1
1070
     1
1005
14A5
1000
ASC_SEEDPOINT
1011
141.99211000934329
1021
0.0
1031
0.0
1021
77.218313547614116
1031
0.0
1000
R14_HATCH_DATA
1000
14A4
1011
1.0
1021
0.0
1031
0.0
1021
0.0
1031
0.0
1011
0.0
1021
0.0
1031
0.0
1021
1.0
1031
0.0
1011
0.0
1021
0.0
1031
0.0
1021
0.0
1031
1.0
1040
0.0
1010
0.0
1020
0.0
1030
1.0
1000
HEX
1070
     0
1070
     1
1071
        1
1071
        5
1071
        1
1070
     3
1040
141.74999999926871
1040
77.336651236670832
1040
0.0
1040
5.6210574168242138
1040
0.8895123513655372
1040
0.0
1040
6.2831853071795862
1070
     0
1071
        1
1005
14A5
1070
     0
1070
     1
1040
0.0
1040
0.25
1070
     0
1070
     3
1040
0.0
1040
-2.2499999284724481
1040
124.99999999998001
1040
0.0
1040
-1.374814999999999
1070
     2
1040
0.79375
1040
-1.587499999999999
1040
4.1887902047863914
1040
-2.2499999284724481
1040
124.99999999998001
1040
-1.190624715503902
1040
0.6874074999999996
1070
     2
1040
0.7937499999999993
1040
-1.5874999999999979
1040
5.2359877559829879
1040
-1.4562499284725161
1040
124.99999999998001
1040
-1.190624715503902
1040
-0.6874075000000001
1070
     2
1040
0.79375
1040
-1.587499999999999
1040
0.0591690278051155
1071
        1
1040
141.99211000934329
1040
77.218313547614116
1040
0.0
1002
}
  0
POLYLINE
  5
14A5
  8
SAPA_ANSLUTNING
 10
141.74999999926871
 20
82.957708653495047
 30
0.0
 66
     1
 70
     8
  0
VERTEX
  8
SAPA_ANSLUTNING
  5
1B90
 10
141.750
 20
82.9577
 30
0.000000
  70
    32
  0
VERTEX
  8
SAPA_ANSLUTNING
  5
1B91
 10
141.995
 20
82.9509
 30
0.000000
  70
    32
  0
VERTEX
  8
SAPA_ANSLUTNING
  5
1B92
 10
142.240
 20
82.9306
 30
0.000000
  70
    32
  0
VERTEX
  8
SAPA_ANSLUTNING
  5
1B93
 10
142.484
 20
82.8969
 30
0.000000
  70
    32
  0
VERTEX
  8
SAPA_ANSLUTNING
  5
1B94
 10
142.725
 20
82.8497
 30
0.000000
  70
    32
  0
VERTEX
  8
SAPA_ANSLUTNING
  5
1B95
 10
142.965
 20
82.7893
 30
0.000000
  70
    32
  0
VERTEX
  8
SAPA_ANSLUTNING
  5
1B96
 10
143.201
 20
82.7157
 30
0.000000
  70
    32
  0
VERTEX
  8
SAPA_ANSLUTNING
  5
1B97
 10
143.434
 20
82.6291
 30
0.000000
  70
    32
  0
VERTEX
  8
SAPA_ANSLUTNING
  5
1B98
 10
143.663
 20
82.5298
 30
0.000000
  70
    32
  0
VERTEX
  8
SAPA_ANSLUTNING
  5
1B99
 10
143.888
 20
82.4180
 30
0.000000
  70
    32
  0
VERTEX
  8
SAPA_ANSLUTNING
  5
1B9A
 10
144.107
 20
82.2940
 30
0.000000
  70
    32
  0
VERTEX
  8
SAPA_ANSLUTNING
  5
1B9B
 10
144.321
 20
82.1580
 30
0.000000
  70
    32
  0
VERTEX
  8
SAPA_ANSLUTNING
  5
1B9C
 10
144.528
 20
82.0104
 30
0.000000
  70
    32
  0
VERTEX
  8
SAPA_ANSLUTNING
  5
1B9D
 10
144.728
 20
81.8515
 30
0.000000
  70
    32
  0
VERTEX
  8
SAPA_ANSLUTNING
  5
1B9E
 10
144.922
 20
81.6818
 30
0.000000
  70
    32
  0
VERTEX
  8
SAPA_ANSLUTNING
  5
1B9F
 10
145.108
 20
81.5016
 30
0.000000
  70
    32
  0
VERTEX
  8
SAPA_ANSLUTNING
  5
1BA0
 10
145.286
 20
81.3113
 30
0.000000
  70
    32
  0
VERTEX
  8
SAPA_ANSLUTNING
  5
1BA1
 10
145.455
 20
81.1115
 30
0.000000
  70
    32
  0
VERTEX
  8
SAPA_ANSLUTNING
  5
1BA2
 10
145.615
 20
80.9026
 30
0.000000
  70
    32
  0
VERTEX
  8
SAPA_ANSLUTNING
  5
1BA3
 10
145.766
 20
80.6851
 30
0.000000
  70
    32
  0
VERTEX
  8
SAPA_ANSLUTNING
  5
1BA4
 10
145.907
 20
80.4595
 30
0.000000
  70
    32
  0
VERTEX
  8
SAPA_ANSLUTNING
  5
1BA5
 10
146.039
 20
80.2265
 30
0.000000
  70
    32
  0
VERTEX
  8
SAPA_ANSLUTNING
  5
1BA6
 10
146.160
 20
79.9864
 30
0.000000
  70
    32
  0
VERTEX
  8
SAPA_ANSLUTNING
  5
1BA7
 10
146.270
 20
79.7400
 30
0.000000
  70
    32
  0
VERTEX
  8
SAPA_ANSLUTNING
  5
1BA8
 10
146.369
 20
79.4877
 30
0.000000
  70
    32
  0
VERTEX
  8
SAPA_ANSLUTNING
  5
1BA9
 10
146.458
 20
79.2303
 30
0.000000
  70
    32
  0
VERTEX
  8
SAPA_ANSLUTNING
  5
1BAA
 10
146.535
 20
78.9684
 30
0.000000
  70
    32
  0
VERTEX
  8
SAPA_ANSLUTNING
  5
1BAB
 10
146.600
 20
78.7025
 30
0.000000
  70
    32
  0
VERTEX
  8
SAPA_ANSLUTNING
  5
1BAC
 10
146.654
 20
78.4333
 30
0.000000
  70
    32
  0
VERTEX
  8
SAPA_ANSLUTNING
  5
1BAD
 10
146.696
 20
78.1614
 30
0.000000
  70
    32
  0
VERTEX
  8
SAPA_ANSLUTNING
  5
1BAE
 10
146.726
 20
77.8876
 30
0.000000
  70
    32
  0
VERTEX
  8
SAPA_ANSLUTNING
  5
1BAF
 10
146.744
 20
77.6125
 30
0.000000
  70
    32
  0
VERTEX
  8
SAPA_ANSLUTNING
  5
1BB0
 10
146.750
 20
77.3367
 30
0.000000
  70
    32
  0
VERTEX
  8
SAPA_ANSLUTNING
  5
1BB1
 10
146.744
 20
77.0608
 30
0.000000
  70
    32
  0
VERTEX
  8
SAPA_ANSLUTNING
  5
1BB2
 10
146.726
 20
76.7857
 30
0.000000
  70
    32
  0
VERTEX
  8
SAPA_ANSLUTNING
  5
1BB3
 10
146.696
 20
76.5119
 30
0.000000
  70
    32
  0
VERTEX
  8
SAPA_ANSLUTNING
  5
1BB4
 10
146.654
 20
76.2400
 30
0.000000
  70
    32
  0
VERTEX
  8
SAPA_ANSLUTNING
  5
1BB5
 10
146.600
 20
75.9708
 30
0.000000
  70
    32
  0
VERTEX
  8
SAPA_ANSLUTNING
  5
1BB6
 10
146.535
 20
75.7049
 30
0.000000
  70
    32
  0
VERTEX
  8
SAPA_ANSLUTNING
  5
1BB7
 10
146.458
 20
75.4430
 30
0.000000
  70
    32
  0
VERTEX
  8
SAPA_ANSLUTNING
  5
1BB8
 10
146.369
 20
75.1856
 30
0.000000
  70
    32
  0
VERTEX
  8
SAPA_ANSLUTNING
  5
1BB9
 10
146.270
 20
74.9333
 30
0.000000
  70
    32
  0
VERTEX
  8
SAPA_ANSLUTNING
  5
1BBA
 10
146.160
 20
74.6869
 30
0.000000
  70
    32
  0
VERTEX
  8
SAPA_ANSLUTNING
  5
1BBB
 10
146.039
 20
74.4469
 30
0.000000
  70
    32
  0
VERTEX
  8
SAPA_ANSLUTNING
  5
1BBC
 10
145.907
 20
74.2138
 30
0.000000
  70
    32
  0
VERTEX
  8
SAPA_ANSLUTNING
  5
1BBD
 10
145.766
 20
73.9882
 30
0.000000
  70
    32
  0
VERTEX
  8
SAPA_ANSLUTNING
  5
1BBE
 10
145.615
 20
73.7707
 30
0.000000
  70
    32
  0
VERTEX
  8
SAPA_ANSLUTNING
  5
1BBF
 10
145.455
 20
73.5618
 30
0.000000
  70
    32
  0
VERTEX
  8
SAPA_ANSLUTNING
  5
1BC0
 10
145.286
 20
73.3620
 30
0.000000
  70
    32
  0
VERTEX
  8
SAPA_ANSLUTNING
  5
1BC1
 10
145.108
 20
73.1717
 30
0.000000
  70
    32
  0
VERTEX
  8
SAPA_ANSLUTNING
  5
1BC2
 10
144.922
 20
72.9915
 30
0.000000
  70
    32
  0
VERTEX
  8
SAPA_ANSLUTNING
  5
1BC3
 10
144.728
 20
72.8218
 30
0.000000
  70
    32
  0
VERTEX
  8
SAPA_ANSLUTNING
  5
1BC4
 10
144.528
 20
72.6629
 30
0.000000
  70
    32
  0
VERTEX
  8
SAPA_ANSLUTNING
  5
1BC5
 10
144.321
 20
72.5153
 30
0.000000
  70
    32
  0
VERTEX
  8
SAPA_ANSLUTNING
  5
1BC6
 10
144.107
 20
72.3793
 30
0.000000
  70
    32
  0
VERTEX
  8
SAPA_ANSLUTNING
  5
1BC7
 10
143.888
 20
72.2553
 30
0.000000
  70
    32
  0
VERTEX
  8
SAPA_ANSLUTNING
  5
1BC8
 10
143.663
 20
72.1435
 30
0.000000
  70
    32
  0
VERTEX
  8
SAPA_ANSLUTNING
  5
1BC9
 10
143.434
 20
72.0442
 30
0.000000
  70
    32
  0
VERTEX
  8
SAPA_ANSLUTNING
  5
1BCA
 10
143.201
 20
71.9576
 30
0.000000
  70
    32
  0
VERTEX
  8
SAPA_ANSLUTNING
  5
1BCB
 10
142.965
 20
71.8840
 30
0.000000
  70
    32
  0
VERTEX
  8
SAPA_ANSLUTNING
  5
1BCC
 10
142.725
 20
71.8236
 30
0.000000
  70
    32
  0
VERTEX
  8
SAPA_ANSLUTNING
  5
1BCD
 10
142.484
 20
71.7764
 30
0.000000
  70
    32
  0
VERTEX
  8
SAPA_ANSLUTNING
  5
1BCE
 10
142.240
 20
71.7427
 30
0.000000
  70
    32
  0
VERTEX
  8
SAPA_ANSLUTNING
  5
1BCF
 10
141.995
 20
71.7224
 30
0.000000
  70
    32
  0
VERTEX
  8
SAPA_ANSLUTNING
  5
1BD0
 10
141.750
 20
71.7156
 30
0.000000
  70
    32
  0
VERTEX
  8
SAPA_ANSLUTNING
  5
1BD1
 10
141.505
 20
71.7224
 30
0.000000
  70
    32
  0
VERTEX
  8
SAPA_ANSLUTNING
  5
1BD2
 10
141.260
 20
71.7427
 30
0.000000
  70
    32
  0
VERTEX
  8
SAPA_ANSLUTNING
  5
1BD3
 10
141.016
 20
71.7764
 30
0.000000
  70
    32
  0
VERTEX
  8
SAPA_ANSLUTNING
  5
1BD4
 10
140.775
 20
71.8236
 30
0.000000
  70
    32
  0
VERTEX
  8
SAPA_ANSLUTNING
  5
1BD5
 10
140.535
 20
71.8840
 30
0.000000
  70
    32
  0
VERTEX
  8
SAPA_ANSLUTNING
  5
1BD6
 10
140.299
 20
71.9576
 30
0.000000
  70
    32
  0
VERTEX
  8
SAPA_ANSLUTNING
  5
1BD7
 10
140.066
 20
72.0442
 30
0.000000
  70
    32
  0
VERTEX
  8
SAPA_ANSLUTNING
  5
1BD8
 10
139.837
 20
72.1435
 30
0.000000
  70
    32
  0
VERTEX
  8
SAPA_ANSLUTNING
  5
1BD9
 10
139.612
 20
72.2553
 30
0.000000
  70
    32
  0
VERTEX
  8
SAPA_ANSLUTNING
  5
1BDA
 10
139.393
 20
72.3793
 30
0.000000
  70
    32
  0
VERTEX
  8
SAPA_ANSLUTNING
  5
1BDB
 10
139.179
 20
72.5153
 30
0.000000
  70
    32
  0
VERTEX
  8
SAPA_ANSLUTNING
  5
1BDC
 10
138.972
 20
72.6629
 30
0.000000
  70
    32
  0
VERTEX
  8
SAPA_ANSLUTNING
  5
1BDD
 10
138.772
 20
72.8218
 30
0.000000
  70
    32
  0
VERTEX
  8
SAPA_ANSLUTNING
  5
1BDE
 10
138.578
 20
72.9915
 30
0.000000
  70
    32
  0
VERTEX
  8
SAPA_ANSLUTNING
  5
1BDF
 10
138.392
 20
73.1717
 30
0.000000
  70
    32
  0
VERTEX
  8
SAPA_ANSLUTNING
  5
1BE0
 10
138.214
 20
73.3620
 30
0.000000
  70
    32
  0
VERTEX
  8
SAPA_ANSLUTNING
  5
1BE1
 10
138.045
 20
73.5618
 30
0.000000
  70
    32
  0
VERTEX
  8
SAPA_ANSLUTNING
  5
1BE2
 10
137.885
 20
73.7707
 30
0.000000
  70
    32
  0
VERTEX
  8
SAPA_ANSLUTNING
  5
1BE3
 10
137.734
 20
73.9882
 30
0.000000
  70
    32
  0
VERTEX
  8
SAPA_ANSLUTNING
  5
1BE4
 10
137.593
 20
74.2138
 30
0.000000
  70
    32
  0
VERTEX
  8
SAPA_ANSLUTNING
  5
1BE5
 10
137.461
 20
74.4469
 30
0.000000
  70
    32
  0
VERTEX
  8
SAPA_ANSLUTNING
  5
1BE6
 10
137.340
 20
74.6869
 30
0.000000
  70
    32
  0
VERTEX
  8
SAPA_ANSLUTNING
  5
1BE7
 10
137.230
 20
74.9333
 30
0.000000
  70
    32
  0
VERTEX
  8
SAPA_ANSLUTNING
  5
1BE8
 10
137.131
 20
75.1856
 30
0.000000
  70
    32
  0
VERTEX
  8
SAPA_ANSLUTNING
  5
1BE9
 10
137.042
 20
75.4430
 30
0.000000
  70
    32
  0
VERTEX
  8
SAPA_ANSLUTNING
  5
1BEA
 10
136.965
 20
75.7049
 30
0.000000
  70
    32
  0
VERTEX
  8
SAPA_ANSLUTNING
  5
1BEB
 10
136.900
 20
75.9708
 30
0.000000
  70
    32
  0
VERTEX
  8
SAPA_ANSLUTNING
  5
1BEC
 10
136.846
 20
76.2400
 30
0.000000
  70
    32
  0
VERTEX
  8
SAPA_ANSLUTNING
  5
1BED
 10
136.804
 20
76.5119
 30
0.000000
  70
    32
  0
VERTEX
  8
SAPA_ANSLUTNING
  5
1BEE
 10
136.774
 20
76.7857
 30
0.000000
  70
    32
  0
VERTEX
  8
SAPA_ANSLUTNING
  5
1BEF
 10
136.756
 20
77.0608
 30
0.000000
  70
    32
  0
VERTEX
  8
SAPA_ANSLUTNING
  5
1BF0
 10
136.750
 20
77.3367
 30
0.000000
  70
    32
  0
VERTEX
  8
SAPA_ANSLUTNING
  5
1BF1
 10
136.756
 20
77.6125
 30
0.000000
  70
    32
  0
VERTEX
  8
SAPA_ANSLUTNING
  5
1BF2
 10
136.774
 20
77.8876
 30
0.000000
  70
    32
  0
VERTEX
  8
SAPA_ANSLUTNING
  5
1BF3
 10
136.804
 20
78.1614
 30
0.000000
  70
    32
  0
VERTEX
  8
SAPA_ANSLUTNING
  5
1BF4
 10
136.846
 20
78.4333
 30
0.000000
  70
    32
  0
VERTEX
  8
SAPA_ANSLUTNING
  5
1BF5
 10
136.900
 20
78.7025
 30
0.000000
  70
    32
  0
VERTEX
  8
SAPA_ANSLUTNING
  5
1BF6
 10
136.965
 20
78.9684
 30
0.000000
  70
    32
  0
VERTEX
  8
SAPA_ANSLUTNING
  5
1BF7
 10
137.042
 20
79.2303
 30
0.000000
  70
    32
  0
VERTEX
  8
SAPA_ANSLUTNING
  5
1BF8
 10
137.131
 20
79.4877
 30
0.000000
  70
    32
  0
VERTEX
  8
SAPA_ANSLUTNING
  5
1BF9
 10
137.230
 20
79.7400
 30
0.000000
  70
    32
  0
VERTEX
  8
SAPA_ANSLUTNING
  5
1BFA
 10
137.340
 20
79.9864
 30
0.000000
  70
    32
  0
VERTEX
  8
SAPA_ANSLUTNING
  5
1BFB
 10
137.461
 20
80.2265
 30
0.000000
  70
    32
  0
VERTEX
  8
SAPA_ANSLUTNING
  5
1BFC
 10
137.593
 20
80.4595
 30
0.000000
  70
    32
  0
VERTEX
  8
SAPA_ANSLUTNING
  5
1BFD
 10
137.734
 20
80.6851
 30
0.000000
  70
    32
  0
VERTEX
  8
SAPA_ANSLUTNING
  5
1BFE
 10
137.885
 20
80.9026
 30
0.000000
  70
    32
  0
VERTEX
  8
SAPA_ANSLUTNING
  5
1BFF
 10
138.045
 20
81.1115
 30
0.000000
  70
    32
  0
VERTEX
  8
SAPA_ANSLUTNING
  5
1C00
 10
138.214
 20
81.3113
 30
0.000000
  70
    32
  0
VERTEX
  8
SAPA_ANSLUTNING
  5
1C01
 10
138.392
 20
81.5016
 30
0.000000
  70
    32
  0
VERTEX
  8
SAPA_ANSLUTNING
  5
1C02
 10
138.578
 20
81.6818
 30
0.000000
  70
    32
  0
VERTEX
  8
SAPA_ANSLUTNING
  5
1C03
 10
138.772
 20
81.8515
 30
0.000000
  70
    32
  0
VERTEX
  8
SAPA_ANSLUTNING
  5
1C04
 10
138.972
 20
82.0104
 30
0.000000
  70
    32
  0
VERTEX
  8
SAPA_ANSLUTNING
  5
1C05
 10
139.179
 20
82.1580
 30
0.000000
  70
    32
  0
VERTEX
  8
SAPA_ANSLUTNING
  5
1C06
 10
139.393
 20
82.2940
 30
0.000000
  70
    32
  0
VERTEX
  8
SAPA_ANSLUTNING
  5
1C07
 10
139.612
 20
82.4180
 30
0.000000
  70
    32
  0
VERTEX
  8
SAPA_ANSLUTNING
  5
1C08
 10
139.837
 20
82.5298
 30
0.000000
  70
    32
  0
VERTEX
  8
SAPA_ANSLUTNING
  5
1C09
 10
140.066
 20
82.6291
 30
0.000000
  70
    32
  0
VERTEX
  8
SAPA_ANSLUTNING
  5
1C0A
 10
140.299
 20
82.7157
 30
0.000000
  70
    32
  0
VERTEX
  8
SAPA_ANSLUTNING
  5
1C0B
 10
140.535
 20
82.7893
 30
0.000000
  70
    32
  0
VERTEX
  8
SAPA_ANSLUTNING
  5
1C0C
 10
140.775
 20
82.8497
 30
0.000000
  70
    32
  0
VERTEX
  8
SAPA_ANSLUTNING
  5
1C0D
 10
141.016
 20
82.8969
 30
0.000000
  70
    32
  0
VERTEX
  8
SAPA_ANSLUTNING
  5
1C0E
 10
141.260
 20
82.9306
 30
0.000000
  70
    32
  0
VERTEX
  8
SAPA_ANSLUTNING
  5
1C0F
 10
141.505
 20
82.9509
 30
0.000000
  70
    32
  0
VERTEX
  8
SAPA_ANSLUTNING
  5
1C10
 10
141.750
 20
82.9577
 30
0.000000
  70
    32
  0
SEQEND
  8
SAPA_ANSLUTNING
  5
1C11
  0
POLYLINE
  5
14A6
  8
SAPA_ANSLUTNING
 66
     1
 10
0.0
 20
0.0
 30
0.0
  0
VERTEX
  5
1AF4
  8
SAPA_ANSLUTNING
 10
138.25107154260959
 20
81.352069590541532
 30
0.0
 42
-0.8812634091771133
  0
VERTEX
  5
1AF5
  8
SAPA_ANSLUTNING
 10
138.74999999926871
 20
85.288837618761818
 30
0.0
  0
VERTEX
  5
1AF6
  8
SAPA_ANSLUTNING
 10
144.74999999926871
 20
85.288837618761818
 30
0.0
 42
0.9999999999999998
  0
VERTEX
  5
1AF7
  8
SAPA_ANSLUTNING
 10
144.74999999926871
 20
89.288837618761818
 30
0.0
  0
VERTEX
  5
1AF8
  8
SAPA_ANSLUTNING
 10
138.74999999926871
 20
89.288837618761818
 30
0.0
 42
-0.9999999999999998
  0
VERTEX
  5
1AF9
  8
SAPA_ANSLUTNING
 10
138.74999999926871
 20
93.288837618761818
 30
0.0
  0
VERTEX
  5
1AFA
  8
SAPA_ANSLUTNING
 10
144.74999999926871
 20
93.288837618761818
 30
0.0
 42
0.9999999999999998
  0
VERTEX
  5
1AFB
  8
SAPA_ANSLUTNING
 10
144.74999999926871
 20
97.288837618761832
 30
0.0
  0
VERTEX
  5
1AFC
  8
SAPA_ANSLUTNING
 10
138.74999999926871
 20
97.288837618761832
 30
0.0
 42
-0.9999999999999998
  0
VERTEX
  5
1AFD
  8
SAPA_ANSLUTNING
 10
138.74999999926871
 20
101.2888376187618
 30
0.0
  0
VERTEX
  5
1AFE
  8
SAPA_ANSLUTNING
 10
144.74999999926871
 20
101.2888376187618
 30
0.0
 42
0.9999999999999998
  0
VERTEX
  5
1AFF
  8
SAPA_ANSLUTNING
 10
144.74999999926871
 20
105.2888376187618
 30
0.0
  0
VERTEX
  5
1B00
  8
SAPA_ANSLUTNING
 10
138.74999999926871
 20
105.2888376187618
 30
0.0
 42
-0.9999999999999998
  0
VERTEX
  5
1B01
  8
SAPA_ANSLUTNING
 10
138.74999999926871
 20
109.2888376187618
 30
0.0
  0
VERTEX
  5
1B02
  8
SAPA_ANSLUTNING
 10
144.74999999926871
 20
109.2888376187618
 30
0.0
 42
0.9999999999999998
  0
VERTEX
  5
1B03
  8
SAPA_ANSLUTNING
 10
144.74999999926871
 20
113.2888376187618
 30
0.0
  0
VERTEX
  5
1B04
  8
SAPA_ANSLUTNING
 10
138.74999999926871
 20
113.2888376187618
 30
0.0
 42
-0.9999999999999998
  0
VERTEX
  5
1B05
  8
SAPA_ANSLUTNING
 10
138.74999999926871
 20
117.2888376187618
 30
0.0
  0
VERTEX
  5
1B06
  8
SAPA_ANSLUTNING
 10
144.74999999926871
 20
117.2888376187618
 30
0.0
 42
0.9999999999999998
  0
VERTEX
  5
1B07
  8
SAPA_ANSLUTNING
 10
144.74999999926871
 20
121.2888376187618
 30
0.0
  0
VERTEX
  5
1B08
  8
SAPA_ANSLUTNING
 10
138.74999999926871
 20
121.2888376187618
 30
0.0
 42
-0.9999999999999998
  0
VERTEX
  5
1B09
  8
SAPA_ANSLUTNING
 10
138.74999999926871
 20
125.2888376187618
 30
0.0
  0
VERTEX
  5
1B0A
  8
SAPA_ANSLUTNING
 10
144.74999999926871
 20
125.2888376187618
 30
0.0
 42
0.9999999999999998
  0
VERTEX
  5
1B0B
  8
SAPA_ANSLUTNING
 10
144.74999999926871
 20
129.28883761876179
 30
0.0
  0
VERTEX
  5
1B0C
  8
SAPA_ANSLUTNING
 10
138.74999999926871
 20
129.28883761876179
 30
0.0
 42
-0.9999999999999998
  0
VERTEX
  5
1B0D
  8
SAPA_ANSLUTNING
 10
138.74999999926871
 20
133.28883761876179
 30
0.0
  0
VERTEX
  5
1B0E
  8
SAPA_ANSLUTNING
 10
144.74999999926871
 20
133.28883761876179
 30
0.0
 42
0.9999999999999998
  0
VERTEX
  5
1B0F
  8
SAPA_ANSLUTNING
 10
144.74999999926871
 20
137.28883761876179
 30
0.0
  0
VERTEX
  5
1B10
  8
SAPA_ANSLUTNING
 10
138.74999999926871
 20
137.28883761876179
 30
0.0
 42
-0.5251735434384823
  0
VERTEX
  5
1B11
  8
SAPA_ANSLUTNING
 10
136.8807092066121
 20
140.0000000000004
 30
0.0
 42
-0.5251735434384823
  0
SEQEND
  5
1B12
  8
SAPA_ANSLUTNING
  0
LINE
  5
14A7
  8
SAPA_ANSLUTNING
 10
-13.24999992848598
 20
64.999999999994984
 30
0.0
 11
-57.869466405531853
 21
64.999999999994984
 31
0.0
  0
LINE
  5
14A8
  8
SAPA_ANSLUTNING
 10
-13.24999992848598
 20
64.999999999994984
 30
0.0
 11
-13.24999992848598
 21
140.0000000000004
 31
0.0
  0
POLYLINE
  5
14A9
  8
SAPA_ANSLUTNING
 66
     1
 10
0.0
 20
0.0
 30
0.0
  0
VERTEX
  5
1B13
  8
SAPA_ANSLUTNING
 10
-12.8132319002658
 20
137.999999999995
 30
0.0
  0
VERTEX
  5
1B14
  8
SAPA_ANSLUTNING
 10
-12.8132319002658
 20
126.999999999995
 30
0.0
 42
0.9999999999999998
  0
VERTEX
  5
1B15
  8
SAPA_ANSLUTNING
 10
-8.8132319002658051
 20
126.999999999995
 30
0.0
  0
VERTEX
  5
1B16
  8
SAPA_ANSLUTNING
 10
-8.8132319002658051
 20
137.999999999995
 30
0.0
 42
-0.9999999999999998
  0
VERTEX
  5
1B17
  8
SAPA_ANSLUTNING
 10
-4.8132319002658051
 20
137.999999999995
 30
0.0
  0
VERTEX
  5
1B18
  8
SAPA_ANSLUTNING
 10
-4.8132319002658051
 20
126.999999999995
 30
0.0
 42
0.9999999999999998
  0
VERTEX
  5
1B19
  8
SAPA_ANSLUTNING
 10
-0.8132319002658051
 20
126.999999999995
 30
0.0
  0
VERTEX
  5
1B1A
  8
SAPA_ANSLUTNING
 10
-0.8132319002658051
 20
137.999999999995
 30
0.0
 42
-0.9999999999999998
  0
VERTEX
  5
1B1B
  8
SAPA_ANSLUTNING
 10
3.1867680997341941
 20
137.999999999995
 30
0.0
  0
VERTEX
  5
1B1C
  8
SAPA_ANSLUTNING
 10
3.1867680997341941
 20
126.999999999995
 30
0.0
 42
0.9999999999999998
  0
VERTEX
  5
1B1D
  8
SAPA_ANSLUTNING
 10
7.1867680997341941
 20
126.999999999995
 30
0.0
  0
VERTEX
  5
1B1E
  8
SAPA_ANSLUTNING
 10
7.1867680997341941
 20
137.999999999995
 30
0.0
 42
-0.9999999999999998
  0
VERTEX
  5
1B1F
  8
SAPA_ANSLUTNING
 10
11.18676809973419
 20
137.999999999995
 30
0.0
  0
VERTEX
  5
1B20
  8
SAPA_ANSLUTNING
 10
11.18676809973419
 20
126.999999999995
 30
0.0
 42
0.9999999999999998
  0
VERTEX
  5
1B21
  8
SAPA_ANSLUTNING
 10
15.18676809973419
 20
126.999999999995
 30
0.0
  0
VERTEX
  5
1B22
  8
SAPA_ANSLUTNING
 10
15.18676809973419
 20
137.999999999995
 30
0.0
 42
-0.9999999999999998
  0
VERTEX
  5
1B23
  8
SAPA_ANSLUTNING
 10
19.186768099734191
 20
137.999999999995
 30
0.0
  0
VERTEX
  5
1B24
  8
SAPA_ANSLUTNING
 10
19.186768099734191
 20
126.999999999995
 30
0.0
 42
0.9999999999999998
  0
VERTEX
  5
1B25
  8
SAPA_ANSLUTNING
 10
23.186768099734191
 20
126.999999999995
 30
0.0
  0
VERTEX
  5
1B26
  8
SAPA_ANSLUTNING
 10
23.186768099734191
 20
137.999999999995
 30
0.0
 42
-0.9999999999999998
  0
VERTEX
  5
1B27
  8
SAPA_ANSLUTNING
 10
27.186768099734199
 20
137.999999999995
 30
0.0
  0
VERTEX
  5
1B28
  8
SAPA_ANSLUTNING
 10
27.186768099734199
 20
126.999999999995
 30
0.0
 42
0.9999999999999998
  0
VERTEX
  5
1B29
  8
SAPA_ANSLUTNING
 10
31.186768099734199
 20
126.999999999995
 30
0.0
  0
VERTEX
  5
1B2A
  8
SAPA_ANSLUTNING
 10
31.186768099734199
 20
137.999999999995
 30
0.0
 42
-0.9999999999999998
  0
VERTEX
  5
1B2B
  8
SAPA_ANSLUTNING
 10
35.186768099734202
 20
137.999999999995
 30
0.0
  0
VERTEX
  5
1B2C
  8
SAPA_ANSLUTNING
 10
35.186768099734202
 20
126.999999999995
 30
0.0
 42
0.9999999999999998
  0
VERTEX
  5
1B2D
  8
SAPA_ANSLUTNING
 10
39.186768099734188
 20
126.999999999995
 30
0.0
  0
VERTEX
  5
1B2E
  8
SAPA_ANSLUTNING
 10
39.186768099734188
 20
137.999999999995
 30
0.0
 42
-0.9999999999999998
  0
VERTEX
  5
1B2F
  8
SAPA_ANSLUTNING
 10
43.186768099734188
 20
137.999999999995
 30
0.0
  0
VERTEX
  5
1B30
  8
SAPA_ANSLUTNING
 10
43.186768099734188
 20
126.999999999995
 30
0.0
 42
0.9999999999999998
  0
VERTEX
  5
1B31
  8
SAPA_ANSLUTNING
 10
47.186768099734188
 20
126.999999999995
 30
0.0
  0
VERTEX
  5
1B32
  8
SAPA_ANSLUTNING
 10
47.186768099734188
 20
137.999999999995
 30
0.0
 42
-0.9999999999999998
  0
VERTEX
  5
1B33
  8
SAPA_ANSLUTNING
 10
51.186768099734188
 20
137.999999999995
 30
0.0
  0
VERTEX
  5
1B34
  8
SAPA_ANSLUTNING
 10
51.186768099734188
 20
126.999999999995
 30
0.0
 42
0.9999999999999998
  0
VERTEX
  5
1B35
  8
SAPA_ANSLUTNING
 10
55.186768099734202
 20
126.999999999995
 30
0.0
  0
VERTEX
  5
1B36
  8
SAPA_ANSLUTNING
 10
55.186768099734202
 20
137.999999999995
 30
0.0
 42
-0.9999999999999429
  0
VERTEX
  5
1B37
  8
SAPA_ANSLUTNING
 10
59.186768099733968
 20
137.9999999999952
 30
0.0
  0
VERTEX
  5
1B38
  8
SAPA_ANSLUTNING
 10
59.186768099734188
 20
126.999999999995
 30
0.0
 42
0.9999999999999998
  0
VERTEX
  5
1B39
  8
SAPA_ANSLUTNING
 10
63.186768099734188
 20
126.999999999995
 30
0.0
  0
VERTEX
  5
1B3A
  8
SAPA_ANSLUTNING
 10
63.186768099734081
 20
137.999999999995
 30
0.0
 42
-0.9999999999999998
  0
VERTEX
  5
1B3B
  8
SAPA_ANSLUTNING
 10
67.186768099734081
 20
137.999999999995
 30
0.0
  0
VERTEX
  5
1B3C
  8
SAPA_ANSLUTNING
 10
67.186768099734081
 20
126.999999999995
 30
0.0
 42
0.9999999999999998
  0
VERTEX
  5
1B3D
  8
SAPA_ANSLUTNING
 10
71.186768099734081
 20
126.999999999995
 30
0.0
  0
VERTEX
  5
1B3E
  8
SAPA_ANSLUTNING
 10
71.186768099734081
 20
137.999999999995
 30
0.0
 42
-0.9999999999999998
  0
VERTEX
  5
1B3F
  8
SAPA_ANSLUTNING
 10
75.186768099734081
 20
137.999999999995
 30
0.0
  0
VERTEX
  5
1B40
  8
SAPA_ANSLUTNING
 10
75.186768099734081
 20
126.999999999995
 30
0.0
 42
0.9999999999999998
  0
VERTEX
  5
1B41
  8
SAPA_ANSLUTNING
 10
79.186768099734081
 20
126.999999999995
 30
0.0
  0
VERTEX
  5
1B42
  8
SAPA_ANSLUTNING
 10
79.186768099734081
 20
137.999999999995
 30
0.0
 42
-0.9999999999999998
  0
VERTEX
  5
1B43
  8
SAPA_ANSLUTNING
 10
83.186768099734095
 20
137.999999999995
 30
0.0
  0
VERTEX
  5
1B44
  8
SAPA_ANSLUTNING
 10
83.186768099734095
 20
126.999999999995
 30
0.0
 42
0.9999999999999998
  0
VERTEX
  5
1B45
  8
SAPA_ANSLUTNING
 10
87.186768099734067
 20
126.999999999995
 30
0.0
  0
VERTEX
  5
1B46
  8
SAPA_ANSLUTNING
 10
87.186768099734067
 20
137.999999999995
 30
0.0
 42
-0.9999999999999998
  0
VERTEX
  5
1B47
  8
SAPA_ANSLUTNING
 10
91.186768099734081
 20
137.999999999995
 30
0.0
  0
VERTEX
  5
1B48
  8
SAPA_ANSLUTNING
 10
91.186768099734081
 20
126.999999999995
 30
0.0
 42
0.9999999999999998
  0
VERTEX
  5
1B49
  8
SAPA_ANSLUTNING
 10
95.186768099734081
 20
126.999999999995
 30
0.0
  0
VERTEX
  5
1B4A
  8
SAPA_ANSLUTNING
 10
95.186768099734081
 20
137.999999999995
 30
0.0
 42
-0.9999999999999998
  0
VERTEX
  5
1B4B
  8
SAPA_ANSLUTNING
 10
99.186768099734081
 20
137.999999999995
 30
0.0
  0
VERTEX
  5
1B4C
  8
SAPA_ANSLUTNING
 10
99.186768099734081
 20
126.999999999995
 30
0.0
 42
0.9999999999999998
  0
VERTEX
  5
1B4D
  8
SAPA_ANSLUTNING
 10
103.1867680997341
 20
126.999999999995
 30
0.0
  0
VERTEX
  5
1B4E
  8
SAPA_ANSLUTNING
 10
103.1867680997341
 20
137.999999999995
 30
0.0
 42
-0.9999999999999998
  0
VERTEX
  5
1B4F
  8
SAPA_ANSLUTNING
 10
107.1867680997341
 20
137.999999999995
 30
0.0
  0
VERTEX
  5
1B50
  8
SAPA_ANSLUTNING
 10
107.1867680997341
 20
126.999999999995
 30
0.0
 42
0.9999999999999998
  0
VERTEX
  5
1B51
  8
SAPA_ANSLUTNING
 10
111.1867680997341
 20
126.999999999995
 30
0.0
  0
VERTEX
  5
1B52
  8
SAPA_ANSLUTNING
 10
111.1867680997341
 20
137.999999999995
 30
0.0
 42
-0.9999999999999998
  0
VERTEX
  5
1B53
  8
SAPA_ANSLUTNING
 10
115.1867680997341
 20
137.999999999995
 30
0.0
  0
VERTEX
  5
1B54
  8
SAPA_ANSLUTNING
 10
115.1867680997341
 20
126.999999999995
 30
0.0
 42
0.9999999999999998
  0
VERTEX
  5
1B55
  8
SAPA_ANSLUTNING
 10
119.186768099734
 20
126.999999999995
 30
0.0
  0
VERTEX
  5
1B56
  8
SAPA_ANSLUTNING
 10
119.186768099734
 20
137.999999999995
 30
0.0
 42
-0.9999999999999998
  0
VERTEX
  5
1B57
  8
SAPA_ANSLUTNING
 10
123.1867680997341
 20
137.999999999995
 30
0.0
  0
VERTEX
  5
1B58
  8
SAPA_ANSLUTNING
 10
123.1867680997341
 20
126.999999999995
 30
0.0
 42
0.9999999999999998
  0
VERTEX
  5
1B59
  8
SAPA_ANSLUTNING
 10
127.1867680997341
 20
126.999999999995
 30
0.0
  0
VERTEX
  5
1B5A
  8
SAPA_ANSLUTNING
 10
127.1867680997341
 20
137.999999999995
 30
0.0
 42
-0.9999999999999998
  0
VERTEX
  5
1B5B
  8
SAPA_ANSLUTNING
 10
131.18676809973411
 20
137.999999999995
 30
0.0
  0
VERTEX
  5
1B5C
  8
SAPA_ANSLUTNING
 10
131.18676809973411
 20
126.999999999995
 30
0.0
 42
0.9999999999999998
  0
VERTEX
  5
1B5D
  8
SAPA_ANSLUTNING
 10
135.18676809973411
 20
126.999999999995
 30
0.0
  0
VERTEX
  5
1B5E
  8
SAPA_ANSLUTNING
 10
135.18676809973411
 20
137.999999999995
 30
0.0
  0
SEQEND
  5
1B5F
  8
SAPA_ANSLUTNING
  0
ARC
  5
14AA
  8
SAPA_ANSLUTNING
 10
140.07825842330411
 20
40.351707880118958
 30
0.0
 40
25.53527834356208
 50
74.854243156964372
 51
98.81704942557036
  0
LINE
  5
14AD
  8
SAPA_FOGBAND
 10
-9.6495673972995064
 20
70.088045158835712
 30
0.0
 11
-4.6533640691231994
 21
70.088045158832983
 31
0.0
  0
LINE
  5
14AE
  8
SAPA_FOGBAND
 10
-4.6533640691231994
 20
69.938045158834257
 30
0.0
 11
-9.6495673972995064
 21
69.938045158834257
 31
0.0
  0
LINE
  5
14B2
  8
SAPA_FOGBAND
 10
-9.6495673972995064
 20
78.588045158840259
 30
0.0
 11
-5.075040543645172
 21
78.588045158836621
 31
0.0
  0
LINE
  5
14B3
  8
SAPA_FOGBAND
 10
-5.075040543645172
 20
78.438045158838804
 30
0.0
 11
-9.6495673972995064
 21
78.438045158838804
 31
0.0
  0
LINE
  5
14B7
  8
SAPA_FOGBAND
 10
56.1495675389342
 20
70.088045158835712
 30
0.0
 11
51.250898448405678
 21
70.088045158832983
 31
0.0
  0
LINE
  5
14B8
  8
SAPA_FOGBAND
 10
51.250898448405678
 20
69.938045158834257
 30
0.0
 11
56.1495675389342
 21
69.938045158834257
 31
0.0
  0
LINE
  5
14BC
  8
SAPA_FOGBAND
 10
56.1495675389342
 20
78.588045158840259
 30
0.0
 11
51.68574756573026
 21
78.588045158836621
 31
0.0
  0
LINE
  5
14BD
  8
SAPA_FOGBAND
 10
51.68574756573026
 20
78.438045158838804
 30
0.0
 11
56.1495675389342
 21
78.438045158838804
 31
0.0
  0
LINE
  5
14C1
  8
SAPA_FOGBAND
 10
133.14956740344809
 20
70.088045158835712
 30
0.0
 11
128.15336407527181
 21
70.088045158832983
 31
0.0
  0
LINE
  5
14C2
  8
SAPA_FOGBAND
 10
128.15336407527181
 20
69.938045158834257
 30
0.0
 11
133.14956740344809
 21
69.938045158834257
 31
0.0
  0
LINE
  5
14C6
  8
SAPA_FOGBAND
 10
133.14956740344809
 20
78.588045158840259
 30
0.0
 11
128.57504054979381
 21
78.588045158836621
 31
0.0
  0
LINE
  5
14C7
  8
SAPA_FOGBAND
 10
128.57504054979381
 20
78.438045158838804
 30
0.0
 11
133.14956740344809
 21
78.438045158838804
 31
0.0
  0
LINE
  5
14CB
  8
SAPA_FOGBAND
 10
67.350432467214432
 20
70.088045158835712
 30
0.0
 11
72.249101557742961
 21
70.088045158832983
 31
0.0
  0
LINE
  5
14CC
  8
SAPA_FOGBAND
 10
72.249101557742961
 20
69.938045158834257
 30
0.0
 11
67.350432467214432
 21
69.938045158834257
 31
0.0
  0
LINE
  5
14D0
  8
SAPA_FOGBAND
 10
67.350432467214432
 20
78.588045158840259
 30
0.0
 11
71.814252440418386
 21
78.588045158836621
 31
0.0
  0
LINE
  5
14D1
  8
SAPA_FOGBAND
 10
71.814252440418386
 20
78.438045158838804
 30
0.0
 11
67.350432467214432
 21
78.438045158838804
 31
0.0
  0
LINE
  5
16D5
  8
SAPA_FOGBAND
 10
67.350432467214432
 20
78.363045158838077
 30
0.0
 11
71.564883107228525
 21
78.25304777365568
 31
0.0
  0
LINE
  5
16D6
  8
SAPA_FOGBAND
 10
71.564883107228525
 20
78.25304777365568
 30
0.0
 11
71.564306608353945
 21
75.814954433233879
 31
0.0
  0
LINE
  5
16D7
  8
SAPA_FOGBAND
 10
71.564306608353945
 20
75.814954433233879
 30
0.0
 11
67.350432467214432
 21
76.940355555698488
 31
0.0
  0
LINE
  5
16DA
  8
SAPA_FOGBAND
 10
67.350432467214432
 20
80.085734761980575
 30
0.0
 11
71.564476322821065
 21
81.211181359296674
 31
0.0
  0
LINE
  5
16DB
  8
SAPA_FOGBAND
 10
71.564476322821065
 20
81.211181359296674
 30
0.0
 11
71.564912463641122
 21
78.773043312747404
 31
0.0
  0
LINE
  5
16DC
  8
SAPA_FOGBAND
 10
71.564912463641122
 20
78.773043312747404
 30
0.0
 11
67.350432467214432
 21
78.663045158840987
 31
0.0
  0
LINE
  5
16DD
  8
SAPA_FOGBAND
 10
66.550432467213341
 20
75.363045158840805
 30
0.0
 11
67.350432467214432
 21
75.363045158840805
 31
0.0
  0
LINE
  5
16DE
  8
SAPA_FOGBAND
 10
67.350432467214432
 20
75.363045158840805
 30
0.0
 11
67.350432467214432
 21
81.663045158838258
 31
0.0
  0
LINE
  5
16DF
  8
SAPA_FOGBAND
 10
67.350432467214432
 20
81.663045158838258
 30
0.0
 11
66.550432467213341
 21
81.663045158838258
 31
0.0
  0
LINE
  5
16E0
  8
SAPA_FOGBAND
 10
66.550432467213341
 20
81.663045158838258
 30
0.0
 11
66.550432467213341
 21
75.363045158840805
 31
0.0
  0
LINE
  5
16E1
  8
SAPA_FOGBAND
 10
67.350432467214432
 20
69.863045158833529
 30
0.0
 11
71.9997322245531
 21
69.753047773652042
 31
0.0
  0
LINE
  5
16E2
  8
SAPA_FOGBAND
 10
71.9997322245531
 20
69.753047773652042
 30
0.0
 11
71.99915572567852
 21
67.314954433229332
 31
0.0
  0
LINE
  5
16E3
  8
SAPA_FOGBAND
 10
71.99915572567852
 20
67.314954433229332
 30
0.0
 11
67.350432467214432
 21
68.440355555693941
 31
0.0
  0
LINE
  5
16E4
  8
SAPA_FOGBAND
 10
67.350432467214432
 20
71.585734761976013
 30
0.0
 11
71.99932544014564
 21
72.711181359292141
 31
0.0
  0
LINE
  5
16E5
  8
SAPA_FOGBAND
 10
71.99932544014564
 20
72.711181359292141
 30
0.0
 11
71.999761580965696
 21
70.273043312743766
 31
0.0
  0
LINE
  5
16E6
  8
SAPA_FOGBAND
 10
71.999761580965696
 20
70.273043312743766
 30
0.0
 11
67.350432467214432
 21
70.163045158836439
 31
0.0
  0
LINE
  5
16E7
  8
SAPA_FOGBAND
 10
66.550432467213341
 20
66.863045158837167
 30
0.0
 11
67.350432467214432
 21
66.863045158837167
 31
0.0
  0
LINE
  5
16E8
  8
SAPA_FOGBAND
 10
67.350432467214432
 20
66.863045158837167
 30
0.0
 11
67.350432467214432
 21
73.163045158833711
 31
0.0
  0
LINE
  5
16E9
  8
SAPA_FOGBAND
 10
67.350432467214432
 20
73.163045158833711
 30
0.0
 11
66.550432467213341
 21
73.163045158833711
 31
0.0
  0
LINE
  5
16EA
  8
SAPA_FOGBAND
 10
66.550432467213341
 20
73.163045158833711
 30
0.0
 11
66.550432467213341
 21
66.863045158837167
 31
0.0
  0
LINE
  5
16EB
  8
SAPA_FOGBAND
 10
133.14956740344809
 20
78.363045158838077
 30
0.0
 11
128.82440988298359
 21
78.25304777365568
 31
0.0
  0
LINE
  5
16EC
  8
SAPA_FOGBAND
 10
128.82440988298359
 20
78.25304777365568
 30
0.0
 11
128.8249863818582
 21
75.814954433233879
 31
0.0
  0
LINE
  5
16ED
  8
SAPA_FOGBAND
 10
128.8249863818582
 20
75.814954433233879
 30
0.0
 11
133.14956740344809
 21
76.940355555698488
 31
0.0
  0
LINE
  5
16EE
  8
SAPA_FOGBAND
 10
133.14956740344809
 20
80.085734761980575
 30
0.0
 11
128.8248166673911
 21
81.211181359296674
 31
0.0
  0
LINE
  5
16EF
  8
SAPA_FOGBAND
 10
128.8248166673911
 20
81.211181359296674
 30
0.0
 11
128.8243805265711
 21
78.773043312747404
 31
0.0
  0
LINE
  5
16F0
  8
SAPA_FOGBAND
 10
128.8243805265711
 20
78.773043312747404
 30
0.0
 11
133.14956740344809
 21
78.663045158840987
 31
0.0
  0
LINE
  5
16F1
  8
SAPA_FOGBAND
 10
133.94956740344921
 20
75.363045158840805
 30
0.0
 11
133.14956740344809
 21
75.363045158840805
 31
0.0
  0
LINE
  5
16F2
  8
SAPA_FOGBAND
 10
133.14956740344809
 20
75.363045158840805
 30
0.0
 11
133.14956740344809
 21
81.663045158838258
 31
0.0
  0
LINE
  5
16F3
  8
SAPA_FOGBAND
 10
133.14956740344809
 20
81.663045158838258
 30
0.0
 11
133.94956740344921
 21
81.663045158838258
 31
0.0
  0
LINE
  5
16F4
  8
SAPA_FOGBAND
 10
133.94956740344921
 20
81.663045158838258
 30
0.0
 11
133.94956740344921
 21
75.363045158840805
 31
0.0
  0
LINE
  5
16F5
  8
SAPA_FOGBAND
 10
133.14956740344809
 20
69.863045158833529
 30
0.0
 11
128.4027334084617
 21
69.753047773652042
 31
0.0
  0
LINE
  5
16F6
  8
SAPA_FOGBAND
 10
128.4027334084617
 20
69.753047773652042
 30
0.0
 11
128.40330990733631
 21
67.314954433229332
 31
0.0
  0
LINE
  5
16F7
  8
SAPA_FOGBAND
 10
128.40330990733631
 20
67.314954433229332
 30
0.0
 11
133.14956740344809
 21
68.440355555693941
 31
0.0
  0
LINE
  5
16F8
  8
SAPA_FOGBAND
 10
133.14956740344809
 20
71.585734761976013
 30
0.0
 11
128.4031401928691
 21
72.711181359292141
 31
0.0
  0
LINE
  5
16F9
  8
SAPA_FOGBAND
 10
128.4031401928691
 20
72.711181359292141
 30
0.0
 11
128.4027040520491
 21
70.273043312743766
 31
0.0
  0
LINE
  5
16FA
  8
SAPA_FOGBAND
 10
128.4027040520491
 20
70.273043312743766
 30
0.0
 11
133.14956740344809
 21
70.163045158836439
 31
0.0
  0
LINE
  5
16FB
  8
SAPA_FOGBAND
 10
133.94956740344921
 20
66.863045158837167
 30
0.0
 11
133.14956740344809
 21
66.863045158837167
 31
0.0
  0
LINE
  5
16FC
  8
SAPA_FOGBAND
 10
133.14956740344809
 20
66.863045158837167
 30
0.0
 11
133.14956740344809
 21
73.163045158833711
 31
0.0
  0
LINE
  5
16FD
  8
SAPA_FOGBAND
 10
133.14956740344809
 20
73.163045158833711
 30
0.0
 11
133.94956740344921
 21
73.163045158833711
 31
0.0
  0
LINE
  5
16FE
  8
SAPA_FOGBAND
 10
133.94956740344921
 20
73.163045158833711
 30
0.0
 11
133.94956740344921
 21
66.863045158837167
 31
0.0
  0
LINE
  5
16FF
  8
SAPA_FOGBAND
 10
56.1495675389342
 20
78.363045158838077
 30
0.0
 11
51.935116898920107
 21
78.25304777365568
 31
0.0
  0
LINE
  5
1700
  8
SAPA_FOGBAND
 10
51.935116898920107
 20
78.25304777365568
 30
0.0
 11
51.935693397794687
 21
75.814954433233879
 31
0.0
  0
LINE
  5
1701
  8
SAPA_FOGBAND
 10
51.935693397794687
 20
75.814954433233879
 30
0.0
 11
56.1495675389342
 21
76.940355555698488
 31
0.0
  0
LINE
  5
1702
  8
SAPA_FOGBAND
 10
56.1495675389342
 20
80.085734761980575
 30
0.0
 11
51.935523683327567
 21
81.211181359296674
 31
0.0
  0
LINE
  5
1703
  8
SAPA_FOGBAND
 10
51.935523683327567
 20
81.211181359296674
 30
0.0
 11
51.935087542507517
 21
78.773043312747404
 31
0.0
  0
LINE
  5
1704
  8
SAPA_FOGBAND
 10
51.935087542507517
 20
78.773043312747404
 30
0.0
 11
56.1495675389342
 21
78.663045158840987
 31
0.0
  0
LINE
  5
1705
  8
SAPA_FOGBAND
 10
56.949567538935298
 20
75.363045158840805
 30
0.0
 11
56.1495675389342
 21
75.363045158840805
 31
0.0
  0
LINE
  5
1706
  8
SAPA_FOGBAND
 10
56.1495675389342
 20
75.363045158840805
 30
0.0
 11
56.1495675389342
 21
81.663045158838258
 31
0.0
  0
LINE
  5
1707
  8
SAPA_FOGBAND
 10
56.1495675389342
 20
81.663045158838258
 30
0.0
 11
56.949567538935298
 21
81.663045158838258
 31
0.0
  0
LINE
  5
1708
  8
SAPA_FOGBAND
 10
56.949567538935298
 20
81.663045158838258
 30
0.0
 11
56.949567538935298
 21
75.363045158840805
 31
0.0
  0
LINE
  5
1709
  8
SAPA_FOGBAND
 10
56.1495675389342
 20
69.863045158833529
 30
0.0
 11
51.500267781595539
 21
69.753047773652042
 31
0.0
  0
LINE
  5
170A
  8
SAPA_FOGBAND
 10
51.500267781595539
 20
69.753047773652042
 30
0.0
 11
51.500844280470119
 21
67.314954433229332
 31
0.0
  0
LINE
  5
170B
  8
SAPA_FOGBAND
 10
51.500844280470119
 20
67.314954433229332
 30
0.0
 11
56.1495675389342
 21
68.440355555693941
 31
0.0
  0
LINE
  5
170C
  8
SAPA_FOGBAND
 10
56.1495675389342
 20
71.585734761976013
 30
0.0
 11
51.500674566002999
 21
72.711181359292141
 31
0.0
  0
LINE
  5
170D
  8
SAPA_FOGBAND
 10
51.500674566002999
 20
72.711181359292141
 30
0.0
 11
51.500238425182943
 21
70.273043312743766
 31
0.0
  0
LINE
  5
170E
  8
SAPA_FOGBAND
 10
51.500238425182943
 20
70.273043312743766
 30
0.0
 11
56.1495675389342
 21
70.163045158836439
 31
0.0
  0
LINE
  5
170F
  8
SAPA_FOGBAND
 10
56.949567538935298
 20
66.863045158837167
 30
0.0
 11
56.1495675389342
 21
66.863045158837167
 31
0.0
  0
LINE
  5
1710
  8
SAPA_FOGBAND
 10
56.1495675389342
 20
66.863045158837167
 30
0.0
 11
56.1495675389342
 21
73.163045158833711
 31
0.0
  0
LINE
  5
1711
  8
SAPA_FOGBAND
 10
56.1495675389342
 20
73.163045158833711
 30
0.0
 11
56.949567538935298
 21
73.163045158833711
 31
0.0
  0
LINE
  5
1712
  8
SAPA_FOGBAND
 10
56.949567538935298
 20
73.163045158833711
 30
0.0
 11
56.949567538935298
 21
66.863045158837167
 31
0.0
  0
LINE
  5
1713
  8
SAPA_FOGBAND
 10
-9.6495673972995064
 20
78.363045158838077
 30
0.0
 11
-5.3244098768350341
 21
78.25304777365568
 31
0.0
  0
LINE
  5
1714
  8
SAPA_FOGBAND
 10
-5.3244098768350341
 20
78.25304777365568
 30
0.0
 11
-5.3249863757096128
 21
75.814954433233879
 31
0.0
  0
LINE
  5
1715
  8
SAPA_FOGBAND
 10
-5.3249863757096128
 20
75.814954433233879
 30
0.0
 11
-9.6495673972995064
 21
76.940355555698488
 31
0.0
  0
LINE
  5
1716
  8
SAPA_FOGBAND
 10
-9.6495673972995064
 20
80.085734761980575
 30
0.0
 11
-5.324816661242493
 21
81.211181359296674
 31
0.0
  0
LINE
  5
1717
  8
SAPA_FOGBAND
 10
-5.324816661242493
 20
81.211181359296674
 30
0.0
 11
-5.3243805204224373
 21
78.773043312747404
 31
0.0
  0
LINE
  5
1718
  8
SAPA_FOGBAND
 10
-5.3243805204224373
 20
78.773043312747404
 30
0.0
 11
-9.6495673972995064
 21
78.663045158840987
 31
0.0
  0
LINE
  5
1719
  8
SAPA_FOGBAND
 10
-10.4495673973006
 20
75.363045158840805
 30
0.0
 11
-9.6495673972995064
 21
75.363045158840805
 31
0.0
  0
LINE
  5
171A
  8
SAPA_FOGBAND
 10
-9.6495673972995064
 20
75.363045158840805
 30
0.0
 11
-9.6495673972995064
 21
81.663045158838258
 31
0.0
  0
LINE
  5
171B
  8
SAPA_FOGBAND
 10
-9.6495673972995064
 20
81.663045158838258
 30
0.0
 11
-10.4495673973006
 21
81.663045158838258
 31
0.0
  0
LINE
  5
171C
  8
SAPA_FOGBAND
 10
-10.4495673973006
 20
81.663045158838258
 30
0.0
 11
-10.4495673973006
 21
75.363045158840805
 31
0.0
  0
LINE
  5
171D
  8
SAPA_FOGBAND
 10
-9.6495673972995064
 20
69.863045158833529
 30
0.0
 11
-4.9027334023130598
 21
69.753047773652042
 31
0.0
  0
LINE
  5
171E
  8
SAPA_FOGBAND
 10
-4.9027334023130598
 20
69.753047773652042
 30
0.0
 11
-4.9033099011876402
 21
67.314954433229332
 31
0.0
  0
LINE
  5
171F
  8
SAPA_FOGBAND
 10
-4.9033099011876402
 20
67.314954433229332
 30
0.0
 11
-9.6495673972995064
 21
68.440355555693941
 31
0.0
  0
LINE
  5
1720
  8
SAPA_FOGBAND
 10
-9.6495673972995064
 20
71.585734761976013
 30
0.0
 11
-4.9031401867205204
 21
72.711181359292141
 31
0.0
  0
LINE
  5
1721
  8
SAPA_FOGBAND
 10
-4.9031401867205204
 20
72.711181359292141
 30
0.0
 11
-4.9027040459004629
 21
70.273043312743766
 31
0.0
  0
LINE
  5
1722
  8
SAPA_FOGBAND
 10
-4.9027040459004629
 20
70.273043312743766
 30
0.0
 11
-9.6495673972995064
 21
70.163045158836439
 31
0.0
  0
LINE
  5
1723
  8
SAPA_FOGBAND
 10
-10.4495673973006
 20
66.863045158837167
 30
0.0
 11
-9.6495673972995064
 21
66.863045158837167
 31
0.0
  0
LINE
  5
1724
  8
SAPA_FOGBAND
 10
-9.6495673972995064
 20
66.863045158837167
 30
0.0
 11
-9.6495673972995064
 21
73.163045158833711
 31
0.0
  0
LINE
  5
1725
  8
SAPA_FOGBAND
 10
-9.6495673972995064
 20
73.163045158833711
 30
0.0
 11
-10.4495673973006
 21
73.163045158833711
 31
0.0
  0
LINE
  5
1726
  8
SAPA_FOGBAND
 10
-10.4495673973006
 20
73.163045158833711
 30
0.0
 11
-10.4495673973006
 21
66.863045158837167
 31
0.0
  0
LINE
  5
1727
  8
SAPA_GLAS
 10
118.2500000716329
 20
40.999444650069563
 30
0.0
 11
118.2500000716329
 21
72.999444650069563
 31
0.0
  0
LINE
  5
1728
  8
SAPA_GLAS
 10
118.2500000716329
 20
72.999444650069563
 30
0.0
 11
126.2500000716329
 21
72.999444650069563
 31
0.0
  0
LINE
  5
1729
  8
SAPA_GLAS
 10
126.2500000716329
 20
72.999444650069563
 30
0.0
 11
126.2500000716329
 21
40.999444650069563
 31
0.0
  0
LINE
  5
172A
  8
SAPA_GLAS
 10
118.2500000716329
 20
62.999444650069343
 30
0.0
 11
103.2500000716329
 21
62.999444650069343
 31
0.0
  0
LINE
  5
172B
  8
SAPA_GLAS
 10
103.2500000716329
 20
62.999444650069343
 30
0.0
 11
103.2500000716329
 21
72.999444650069563
 31
0.0
  0
LINE
  5
172C
  8
SAPA_GLAS
 10
103.2500000716329
 20
72.999444650069563
 30
0.0
 11
118.2500000716329
 21
72.999444650069336
 31
0.0
  0
LINE
  5
172D
  8
SAPA_GLAS
 10
118.2500000716329
 20
72.999444650069336
 30
0.0
 11
118.2500000716329
 21
62.999444650069343
 31
0.0
  0
LINE
  5
172E
  8
SAPA_GLAS
 10
97.250000071632954
 20
40.999444650069563
 30
0.0
 11
97.250000071632954
 21
72.999444650069563
 31
0.0
  0
LINE
  5
172F
  8
SAPA_GLAS
 10
97.250000071632954
 20
72.999444650069563
 30
0.0
 11
103.2500000716329
 21
72.999444650069563
 31
0.0
  0
LINE
  5
1730
  8
SAPA_GLAS
 10
103.2500000716329
 20
72.999444650069563
 30
0.0
 11
103.2500000716329
 21
40.999444650069563
 31
0.0
  0
LINE
  5
1731
  8
SAPA_GLAS
 10
126.72713652898069
 20
72.999444650069975
 30
0.0
 11
127.0000000719885
 21
72.726581107062145
 31
0.0
1001
ACAD
1010
0.0
1020
0.0
1030
0.0
  0
LINE
  5
1732
  8
SAPA_GLAS
 10
126.25000007164959
 20
72.354049092267374
 30
0.0
 11
127.0000000719897
 21
71.604049091927266
 31
0.0
1001
ACAD
1010
0.0
1020
0.0
1030
0.0
  0
LINE
  5
1733
  8
SAPA_GLAS
 10
126.25000007164959
 20
71.231517077133731
 30
0.0
 11
127.0000000719909
 21
70.481517076792414
 31
0.0
1001
ACAD
1010
0.0
1020
0.0
1030
0.0
  0
LINE
  5
1734
  8
SAPA_GLAS
 10
126.25000007164959
 20
70.108985062000087
 30
0.0
 11
127.0000000719922
 21
69.358985061657535
 31
0.0
1001
ACAD
1010
0.0
1020
0.0
1030
0.0
  0
LINE
  5
1735
  8
SAPA_GLAS
 10
126.25000007164959
 20
68.98645304686643
 30
0.0
 11
127.0000000719934
 21
68.236453046522655
 31
0.0
1001
ACAD
1010
0.0
1020
0.0
1030
0.0
  0
LINE
  5
1736
  8
SAPA_GLAS
 10
126.25000007164959
 20
67.863921031732787
 30
0.0
 11
127.00000007199461
 21
67.113921031387804
 31
0.0
1001
ACAD
1010
0.0
1020
0.0
1030
0.0
  0
LINE
  5
1737
  8
SAPA_GLAS
 10
126.25000007164959
 20
66.741389016599143
 30
0.0
 11
127.0000000719958
 21
65.991389016252924
 31
0.0
1001
ACAD
1010
0.0
1020
0.0
1030
0.0
  0
LINE
  5
1738
  8
SAPA_GLAS
 10
126.25000007164959
 20
65.6188570014655
 30
0.0
 11
127.00000007199699
 21
64.868857001118073
 31
0.0
1001
ACAD
1010
0.0
1020
0.0
1030
0.0
  0
LINE
  5
1739
  8
SAPA_GLAS
 10
126.25000007164959
 20
64.496324986331842
 30
0.0
 11
127.0000000719983
 21
63.746324985983179
 31
0.0
1001
ACAD
1010
0.0
1020
0.0
1030
0.0
  0
LINE
  5
173A
  8
SAPA_GLAS
 10
126.25000007164959
 20
63.373792971198199
 30
0.0
 11
127.00000007199949
 21
62.623792970848307
 31
0.0
1001
ACAD
1010
0.0
1020
0.0
1030
0.0
  0
LINE
  5
173B
  8
SAPA_GLAS
 10
126.25000007164959
 20
62.25126095606457
 30
0.0
 11
127.0000000720008
 21
61.501260955713441
 31
0.0
1001
ACAD
1010
0.0
1020
0.0
1030
0.0
  0
LINE
  5
173C
  8
SAPA_GLAS
 10
126.25000007164959
 20
61.12872894093092
 30
0.0
 11
127.000000072002
 21
60.378728940578583
 31
0.0
1001
ACAD
1010
0.0
1020
0.0
1030
0.0
  0
LINE
  5
173D
  8
SAPA_GLAS
 10
126.25000007164959
 20
72.468443624930757
 30
0.0
 11
126.7810010967889
 21
72.999444650070046
 31
0.0
1001
ACAD
1010
0.0
1020
0.0
1030
0.0
  0
LINE
  5
173E
  8
SAPA_GLAS
 10
126.25000007164959
 20
71.345911609797113
 30
0.0
 11
127.00000007198921
 21
72.095911610136653
 31
0.0
1001
ACAD
1010
0.0
1020
0.0
1030
0.0
  0
LINE
  5
173F
  8
SAPA_GLAS
 10
126.25000007164959
 20
70.22337959466347
 30
0.0
 11
127.0000000719904
 21
70.973379595004246
 31
0.0
1001
ACAD
1010
0.0
1020
0.0
1030
0.0
  0
LINE
  5
1740
  8
SAPA_GLAS
 10
126.25000007164959
 20
69.100847579529827
 30
0.0
 11
127.00000007199159
 21
69.850847579871825
 31
0.0
1001
ACAD
1010
0.0
1020
0.0
1030
0.0
  0
LINE
  5
1741
  8
SAPA_GLAS
 10
126.25000007164959
 20
67.978315564396183
 30
0.0
 11
127.0000000719929
 21
68.728315564739404
 31
0.0
1001
ACAD
1010
0.0
1020
0.0
1030
0.0
  0
LINE
  5
1742
  8
SAPA_GLAS
 10
126.25000007164959
 20
66.855783549262526
 30
0.0
 11
127.00000007199409
 21
67.605783549606997
 31
0.0
1001
ACAD
1010
0.0
1020
0.0
1030
0.0
  0
LINE
  5
1743
  8
SAPA_GLAS
 10
126.25000007164959
 20
65.733251534128897
 30
0.0
 11
127.0000000719953
 21
66.483251534474562
 31
0.0
1001
ACAD
1010
0.0
1020
0.0
1030
0.0
  0
LINE
  5
1744
  8
SAPA_GLAS
 10
126.25000007164959
 20
64.610719518995253
 30
0.0
 11
127.0000000719965
 21
65.360719519342155
 31
0.0
1001
ACAD
1010
0.0
1020
0.0
1030
0.0
  0
LINE
  5
1745
  8
SAPA_GLAS
 10
126.25000007164959
 20
63.48818750386161
 30
0.0
 11
127.0000000719978
 21
64.238187504209733
 31
0.0
1001
ACAD
1010
0.0
1020
0.0
1030
0.0
  0
LINE
  5
1746
  8
SAPA_GLAS
 10
126.25000007164959
 20
62.36565548872796
 30
0.0
 11
127.000000071999
 21
63.115655489077326
 31
0.0
1001
ACAD
1010
0.0
1020
0.0
1030
0.0
  0
LINE
  5
1747
  8
SAPA_GLAS
 10
126.25000007164959
 20
61.243123473594324
 30
0.0
 11
127.0000000720002
 21
61.993123473944898
 31
0.0
1001
ACAD
1010
0.0
1020
0.0
1030
0.0
  0
LINE
  5
1748
  8
SAPA_GLAS
 10
126.3288532632474
 20
60.19944465005846
 30
0.0
 11
127.0000000720014
 21
60.870591458812477
 31
0.0
1001
ACAD
1010
0.0
1020
0.0
1030
0.0
  0
LINE
  5
1749
  8
SAPA_GLAS
 10
73.968131817699586
 20
72.999444650069805
 30
0.0
 11
74.250000071311064
 21
72.717576396458313
 31
0.0
1001
ACAD
1010
0.0
1020
0.0
1030
0.0
  0
LINE
  5
174A
  8
SAPA_GLAS
 10
73.500000070971822
 20
72.345044381663939
 30
0.0
 11
74.250000071311064
 21
71.595044381324669
 31
0.0
1001
ACAD
1010
0.0
1020
0.0
1030
0.0
  0
LINE
  5
174B
  8
SAPA_GLAS
 10
73.500000070970586
 20
71.222512366531518
 30
0.0
 11
74.250000071311064
 21
70.472512366191026
 31
0.0
1001
ACAD
1010
0.0
1020
0.0
1030
0.0
  0
LINE
  5
174C
  8
SAPA_GLAS
 10
73.500000070969364
 20
70.099980351399097
 30
0.0
 11
74.250000071311064
 21
69.349980351057383
 31
0.0
1001
ACAD
1010
0.0
1020
0.0
1030
0.0
  0
LINE
  5
174D
  8
SAPA_GLAS
 10
73.500000070968127
 20
68.977448336266676
 30
0.0
 11
74.250000071311092
 21
68.227448335923725
 31
0.0
1001
ACAD
1010
0.0
1020
0.0
1030
0.0
  0
LINE
  5
174E
  8
SAPA_GLAS
 10
73.500000070966919
 20
67.854916321134255
 30
0.0
 11
74.250000071311092
 21
67.104916320790096
 31
0.0
1001
ACAD
1010
0.0
1020
0.0
1030
0.0
  0
LINE
  5
174F
  8
SAPA_GLAS
 10
73.500000070965683
 20
66.732384306001848
 30
0.0
 11
74.250000071311064
 21
65.982384305656424
 31
0.0
1001
ACAD
1010
0.0
1020
0.0
1030
0.0
  0
LINE
  5
1750
  8
SAPA_GLAS
 10
73.500000070964461
 20
65.609852290869441
 30
0.0
 11
74.250000071311064
 21
64.859852290522809
 31
0.0
1001
ACAD
1010
0.0
1020
0.0
1030
0.0
  0
LINE
  5
1751
  8
SAPA_GLAS
 10
73.500000070963225
 20
64.487320275737005
 30
0.0
 11
74.250000071311092
 21
63.737320275389152
 31
0.0
1001
ACAD
1010
0.0
1020
0.0
1030
0.0
  0
LINE
  5
1752
  8
SAPA_GLAS
 10
73.500000070962002
 20
63.364788260604598
 30
0.0
 11
74.250000071311092
 21
62.614788260255509
 31
0.0
1001
ACAD
1010
0.0
1020
0.0
1030
0.0
  0
LINE
  5
1753
  8
SAPA_GLAS
 10
73.50000007096078
 20
62.242256245472177
 30
0.0
 11
74.250000071311092
 21
61.492256245121858
 31
0.0
1001
ACAD
1010
0.0
1020
0.0
1030
0.0
  0
LINE
  5
1754
  8
SAPA_GLAS
 10
73.500000070959544
 20
61.119724230339763
 30
0.0
 11
74.250000071311092
 21
60.369724229988222
 31
0.0
1001
ACAD
1010
0.0
1020
0.0
1030
0.0
  0
LINE
  5
1755
  8
SAPA_GLAS
 10
73.500000070971979
 20
72.477448335534362
 30
0.0
 11
74.021996385507379
 21
72.999444650069762
 31
0.0
1001
ACAD
1010
0.0
1020
0.0
1030
0.0
  0
LINE
  5
1756
  8
SAPA_GLAS
 10
73.500000070970742
 20
71.354916320399496
 30
0.0
 11
74.250000071311106
 21
72.104916320739861
 31
0.0
1001
ACAD
1010
0.0
1020
0.0
1030
0.0
  0
LINE
  5
1757
  8
SAPA_GLAS
 10
73.50000007096952
 20
70.232384305264617
 30
0.0
 11
74.250000071311106
 21
70.982384305606203
 31
0.0
1001
ACAD
1010
0.0
1020
0.0
1030
0.0
  0
LINE
  5
1758
  8
SAPA_GLAS
 10
73.500000070968284
 20
69.109852290129737
 30
0.0
 11
74.250000071311106
 21
69.85985229047256
 31
0.0
1001
ACAD
1010
0.0
1020
0.0
1030
0.0
  0
LINE
  5
1759
  8
SAPA_GLAS
 10
73.500000070967076
 20
67.987320274994886
 30
0.0
 11
74.250000071311106
 21
68.737320275338917
 31
0.0
1001
ACAD
1010
0.0
1020
0.0
1030
0.0
  0
LINE
  5
175A
  8
SAPA_GLAS
 10
73.500000070965825
 20
66.864788259859992
 30
0.0
 11
74.250000071311106
 21
67.614788260205273
 31
0.0
1001
ACAD
1010
0.0
1020
0.0
1030
0.0
  0
LINE
  5
175B
  8
SAPA_GLAS
 10
73.500000070964603
 20
65.742256244725141
 30
0.0
 11
74.250000071311106
 21
66.49225624507163
 31
0.0
1001
ACAD
1010
0.0
1020
0.0
1030
0.0
  0
LINE
  5
175C
  8
SAPA_GLAS
 10
73.500000070963381
 20
64.619724229590261
 30
0.0
 11
74.250000071311092
 21
65.369724229937972
 31
0.0
1001
ACAD
1010
0.0
1020
0.0
1030
0.0
  0
LINE
  5
175D
  8
SAPA_GLAS
 10
73.500000070962159
 20
63.497192214455403
 30
0.0
 11
74.250000071311106
 21
64.247192214804343
 31
0.0
1001
ACAD
1010
0.0
1020
0.0
1030
0.0
  0
LINE
  5
175E
  8
SAPA_GLAS
 10
73.500000070960922
 20
62.374660199320523
 30
0.0
 11
74.250000071311092
 21
63.124660199670693
 31
0.0
1001
ACAD
1010
0.0
1020
0.0
1030
0.0
  0
LINE
  5
175F
  8
SAPA_GLAS
 10
73.500000070959715
 20
61.252128184185672
 30
0.0
 11
74.250000071311106
 21
62.002128184537057
 31
0.0
1001
ACAD
1010
0.0
1020
0.0
1030
0.0
  0
LINE
  5
1760
  8
SAPA_GLAS
 10
73.569848551966146
 20
60.19944465005846
 30
0.0
 11
74.250000071311092
 21
60.879596169403413
 31
0.0
1001
ACAD
1010
0.0
1020
0.0
1030
0.0
  0
LINE
  5
1761
  8
SAPA_GLAS
 10
97.250000071472087
 20
62.999444650069343
 30
0.0
 11
82.250000071472058
 21
62.999444650069343
 31
0.0
  0
LINE
  5
1762
  8
SAPA_GLAS
 10
82.250000071472058
 20
62.999444650069343
 30
0.0
 11
82.250000071472058
 21
72.999444650069563
 31
0.0
  0
LINE
  5
1763
  8
SAPA_GLAS
 10
82.250000071472058
 20
72.999444650069563
 30
0.0
 11
97.250000071472087
 21
72.999444650069336
 31
0.0
  0
LINE
  5
1764
  8
SAPA_GLAS
 10
97.250000071472087
 20
72.999444650069336
 30
0.0
 11
97.250000071472087
 21
62.999444650069343
 31
0.0
  0
LINE
  5
1765
  8
SAPA_GLAS
 10
74.250000071471959
 20
40.999444650069563
 30
0.0
 11
74.250000071471959
 21
72.999444650069563
 31
0.0
  0
LINE
  5
1766
  8
SAPA_GLAS
 10
74.250000071471959
 20
72.999444650069563
 30
0.0
 11
82.250000071471959
 21
72.999444650069563
 31
0.0
  0
LINE
  5
1767
  8
SAPA_GLAS
 10
82.250000071471959
 20
72.999444650069563
 30
0.0
 11
82.250000071471959
 21
40.999444650069563
 31
0.0
  0
ARC
  5
1768
  8
SAPA_PROFIL
 62
     4
 10
83.336577554830242
 20
81.016784419713758
 30
0.0
 40
1.341625249269492
 50
241.97558124339301
 51
269.20443003921372
  0
LINE
  5
1769
  8
SAPA_PROFIL
 62
     4
 10
82.706217854133001
 20
79.832468179339443
 30
0.0
 11
80.986602611858643
 21
80.825288502367826
 31
0.0
  0
LINE
  5
176A
  8
SAPA_PROFIL
 62
     4
 10
80.986602611858643
 20
80.825288502367826
 30
0.0
 11
80.550000071480326
 21
80.825288502367826
 31
0.0
  0
ARC
  5
176B
  8
SAPA_PROFIL
 62
     4
 10
80.550000071480326
 20
80.575288502367812
 30
0.0
 40
0.25
 50
90.0
 51
180.0
  0
LINE
  5
176C
  8
SAPA_PROFIL
 62
     4
 10
80.300000071480326
 20
80.575288502367812
 30
0.0
 11
80.300000071480326
 21
76.975276502368843
 31
0.0
  0
ARC
  5
176D
  8
SAPA_PROFIL
 62
     4
 10
80.550000071480326
 20
76.975276502368843
 30
0.0
 40
0.25
 50
180.0
 51
270.0
  0
LINE
  5
176E
  8
SAPA_PROFIL
 62
     4
 10
80.550000071480326
 20
76.725276502368843
 30
0.0
 11
80.986601993058912
 21
76.725288145103377
 31
0.0
  0
LINE
  5
176F
  8
SAPA_PROFIL
 62
     4
 10
80.986601993058912
 20
76.725288145103377
 30
0.0
 11
82.70621785412618
 21
77.718108825393983
 31
0.0
  0
ARC
  5
1770
  8
SAPA_PROFIL
 62
     4
 10
83.320190604286807
 20
76.597883720900441
 30
0.0
 40
1.277445428453744
 50
90.457069007115294
 51
118.7262573819695
  0
LINE
  5
1771
  8
SAPA_PROFIL
 62
     4
 10
83.310000071480545
 20
77.875288502368903
 30
0.0
 11
117.1900000714802
 21
77.875288502368903
 31
0.0
  0
ARC
  5
1772
  8
SAPA_PROFIL
 62
     4
 10
117.17980953867389
 20
76.597883720900455
 30
0.0
 40
1.2774454284537271
 50
61.273742618030731
 51
89.542930992885317
  0
LINE
  5
1773
  8
SAPA_PROFIL
 62
     4
 10
117.79378228883451
 20
77.718108825393983
 30
0.0
 11
119.5133981499018
 21
76.725288145103377
 31
0.0
  0
LINE
  5
1774
  8
SAPA_PROFIL
 62
     4
 10
119.5133981499018
 20
76.725288145103377
 30
0.0
 11
119.9500000714804
 21
76.725276502368843
 31
0.0
  0
ARC
  5
1775
  8
SAPA_PROFIL
 62
     4
 10
119.9500000714804
 20
76.975276502368843
 30
0.0
 40
0.25
 50
270.0
 51
0.0
  0
LINE
  5
1776
  8
SAPA_PROFIL
 62
     4
 10
120.2000000714804
 20
76.975276502368843
 30
0.0
 11
120.2000000714804
 21
80.575288502367812
 31
0.0
  0
ARC
  5
1777
  8
SAPA_PROFIL
 62
     4
 10
119.9500000714804
 20
80.575288502367812
 30
0.0
 40
0.25
 50
0.0
 51
90.0
  0
LINE
  5
1778
  8
SAPA_PROFIL
 62
     4
 10
119.9500000714804
 20
80.825288502367826
 30
0.0
 11
119.5133975311021
 21
80.825288502367826
 31
0.0
  0
LINE
  5
1779
  8
SAPA_PROFIL
 62
     4
 10
119.5133975311021
 20
80.825288502367826
 30
0.0
 11
117.7937822888277
 21
79.832468179339443
 31
0.0
  0
ARC
  5
177A
  8
SAPA_PROFIL
 62
     4
 10
117.1634225881303
 20
81.016784419714696
 30
0.0
 40
1.341625249270429
 50
270.79556996077599
 51
298.02441875659679
  0
LINE
  5
177B
  8
SAPA_PROFIL
 62
     4
 10
117.182050879049
 20
79.675288502368176
 30
0.0
 11
83.317949263911245
 21
79.675288502368176
 31
0.0
  0
ARC
  5
177C
  8
SAPA_PROFIL
 10
80.006131030523534
 20
82.699444650058496
 30
0.0
 40
0.2999999999994713
 50
35.620069759074582
 51
89.999999999934857
  0
ARC
  5
177D
  8
SAPA_PROFIL
 10
80.493869112431796
 20
83.048889300117835
 30
0.0
 40
0.2999999999993958
 50
215.62006975650439
 51
270.00000000018719
  0
LINE
  5
177E
  8
SAPA_PROFIL
 10
80.493869112432776
 20
82.748889300118435
 30
0.0
 11
81.450000071468139
 21
82.748889300118435
 31
0.0
  0
ARC
  5
177F
  8
SAPA_PROFIL
 10
81.450000071474136
 20
83.048889300123207
 30
0.0
 40
0.300000000004772
 50
269.99999999885472
 51
332.87190750653571
  0
ARC
  5
1780
  8
SAPA_PROFIL
 10
81.983993676069559
 20
82.775300502368097
 30
0.0
 40
0.3000000000001473
 50
90.000000000048857
 51
152.87190750668719
  0
LINE
  5
1781
  8
SAPA_PROFIL
 10
81.983993676069289
 20
83.075300502368236
 30
0.0
 11
84.161542031026556
 21
83.075300502368236
 31
0.0
  0
ARC
  5
1782
  8
SAPA_PROFIL
 10
84.161542031025391
 20
82.775300502367415
 30
0.0
 40
0.3000000000008214
 50
70.000000000015547
 51
89.999999999777444
  0
LINE
  5
1783
  8
SAPA_PROFIL
 10
84.264148074023296
 20
83.057208288603988
 30
0.0
 11
85.691501244068377
 21
82.537694220928856
 31
0.0
  0
ARC
  5
1784
  8
SAPA_PROFIL
 10
85.588895201064034
 20
82.255786434688275
 30
0.0
 40
0.3000000000067899
 50
339.99999999976239
 51
69.999999999121982
  0
LINE
  5
1785
  8
SAPA_PROFIL
 10
85.870802987305737
 20
82.153180391687101
 30
0.0
 11
85.80239895863474
 21
81.965241867537088
 31
0.0
  0
ARC
  5
1786
  8
SAPA_PROFIL
 10
85.520491172403325
 20
82.067847910527519
 30
0.0
 40
0.2999999999934183
 50
250.00000000103731
 51
340.00000000102011
  0
LINE
  5
1787
  8
SAPA_PROFIL
 10
85.41788512941298
 20
81.785940124296076
 30
0.0
 11
84.384223246544252
 21
82.1621622819614
 31
0.0
  0
ARC
  5
1788
  8
SAPA_PROFIL
 10
84.281617203551477
 20
81.880254495724643
 30
0.0
 40
0.2999999999992413
 50
70.000000000948305
 51
160.00000000219319
  0
LINE
  5
1789
  8
SAPA_PROFIL
 10
83.999709417312488
 20
81.982860538711293
 30
0.0
 11
83.340854110076407
 21
80.172670459372284
 31
0.0
  0
ARC
  5
178A
  8
SAPA_PROFIL
 10
83.058946323840331
 20
80.275276502368669
 30
0.0
 40
0.2999999999998398
 50
270.00000000002711
 51
340.00000000025341
  0
LINE
  5
178B
  8
SAPA_PROFIL
 10
83.058946323840473
 20
79.975276502368843
 30
0.0
 11
82.639230556020948
 21
79.975276502368843
 31
0.0
  0
ARC
  5
178C
  8
SAPA_PROFIL
 10
82.639230556021687
 20
80.275276502368314
 30
0.0
 40
0.2999999999994856
 50
239.99999999986349
 51
269.99999999986159
  0
LINE
  5
178D
  8
SAPA_PROFIL
 10
82.489230556021326
 20
80.015468881233801
 30
0.0
 11
81.000000071480144
 21
80.875276502368479
 31
0.0
  0
LINE
  5
178E
  8
SAPA_PROFIL
 10
81.000000071480144
 20
80.875276502368479
 30
0.0
 11
80.550000071480326
 21
80.875288502368903
 31
0.0
  0
ARC
  5
178F
  8
SAPA_PROFIL
 10
80.550000071480795
 20
80.575288502368267
 30
0.0
 40
0.3000000000006366
 50
90.000000000086857
 51
180.0000000000868
  0
LINE
  5
1790
  8
SAPA_PROFIL
 10
80.250000071480144
 20
80.575288502367812
 30
0.0
 11
80.250000071480144
 21
76.975276502368843
 31
0.0
  0
ARC
  5
1791
  8
SAPA_PROFIL
 10
80.550000071480795
 20
76.975276502368388
 30
0.0
 40
0.3000000000006366
 50
179.99999999991309
 51
269.99999999991309
  0
LINE
  5
1792
  8
SAPA_PROFIL
 10
80.550000071480326
 20
76.675276502367751
 30
0.0
 11
81.000000071480144
 21
76.675276502367751
 31
0.0
  0
LINE
  5
1793
  8
SAPA_PROFIL
 10
81.000000071480144
 20
76.675276502367751
 30
0.0
 11
82.489260202554533
 21
77.535101239938044
 31
0.0
  0
ARC
  5
1794
  8
SAPA_PROFIL
 10
82.639260202552066
 20
77.275293618801641
 30
0.0
 40
0.2999999999997068
 50
90.003646866928733
 51
119.9999999994883
  0
LINE
  5
1795
  8
SAPA_PROFIL
 10
82.639241107601478
 20
77.575293618193655
 30
0.0
 11
82.750000071478325
 21
77.575300667985402
 31
0.0
  0
LINE
  5
1796
  8
SAPA_PROFIL
 10
82.750000071478325
 20
77.575300667985402
 30
0.0
 11
82.750000071478325
 21
75.499444650068881
 31
0.0
  0
ARC
  5
1797
  8
SAPA_PROFIL
 10
82.250000071478325
 20
75.499444650068881
 30
0.0
 40
0.5
 50
270.0
 51
0.0
  0
LINE
  5
1798
  8
SAPA_PROFIL
 10
82.250000071478325
 20
74.999444650068881
 30
0.0
 11
77.000000071813005
 21
74.999444650068881
 31
0.0
  0
ARC
  5
1799
  8
SAPA_PROFIL
 10
77.000000071813005
 20
75.499444650068881
 30
0.0
 40
0.5
 50
180.0
 51
270.0
  0
LINE
  5
179A
  8
SAPA_PROFIL
 10
76.50000007181302
 20
75.499444650068881
 30
0.0
 11
76.50000007181302
 21
75.99944465365229
 31
0.0
  0
ARC
  5
179B
  8
SAPA_PROFIL
 10
77.000000071813005
 20
75.99944465365229
 30
0.0
 40
0.5
 50
90.0
 51
180.0
  0
LINE
  5
179C
  8
SAPA_PROFIL
 10
77.000000071813005
 20
76.49944465365229
 30
0.0
 11
78.000000072220473
 21
76.499444653657747
 31
0.0
  0
LINE
  5
179D
  8
SAPA_PROFIL
 10
78.000000072220473
 20
76.499444653657747
 30
0.0
 11
78.000000072224566
 21
79.699444654111403
 31
0.0
  0
LINE
  5
179E
  8
SAPA_PROFIL
 10
78.000000072224566
 20
79.699444654111403
 30
0.0
 11
73.500000071318709
 21
79.699444654104127
 31
0.0
  0
LINE
  5
179F
  8
SAPA_PROFIL
 10
73.500000071318709
 20
79.699444654104127
 30
0.0
 11
73.500000071297336
 21
60.199444650058688
 31
0.0
  0
ARC
  5
17A0
  8
SAPA_PROFIL
 10
73.300000071296353
 20
60.199444650058417
 30
0.0
 40
0.2000000000009834
 50
254.3980832556245
 51
0.0000000000773511
  0
ARC
  5
17A1
  8
SAPA_PROFIL
 10
73.515161704598086
 20
60.969967506016808
 30
0.0
 40
1.0000000000005631
 50
186.24358845850639
 51
254.398083255465
  0
ARC
  5
17A2
  8
SAPA_PROFIL
 10
201.7500000759326
 20
74.999444650245096
 30
0.0
 40
130.00000000411961
 50
180.00000000008731
 51
186.24358845858899
  0
LINE
  5
17A3
  8
SAPA_PROFIL
 10
71.75000007181302
 20
74.999444650047053
 30
0.0
 11
71.750000071674776
 21
79.999444649967003
 31
0.0
  0
ARC
  5
17A4
  8
SAPA_PROFIL
 10
74.750000071674762
 20
79.999444650057981
 30
0.0
 40
2.9999999999999849
 50
89.99999999999973
 51
180.00000000173719
  0
LINE
  5
17A5
  8
SAPA_PROFIL
 10
74.750000071674776
 20
82.999444650057967
 30
0.0
 11
80.006131030523875
 21
82.999444650057967
 31
0.0
  0
ARC
  5
17A6
  8
SAPA_PROFIL
 10
120.4938691124367
 20
82.699444650058496
 30
0.0
 40
0.2999999999994713
 50
90.000000000065128
 51
144.3799302409254
  0
ARC
  5
17A7
  8
SAPA_PROFIL
 10
120.00613103052849
 20
83.048889300117835
 30
0.0
 40
0.2999999999993958
 50
269.9999999998127
 51
324.37993024349549
  0
LINE
  5
17A8
  8
SAPA_PROFIL
 10
120.0061310305275
 20
82.748889300118435
 30
0.0
 11
119.05000007149209
 21
82.748889300118435
 31
0.0
  0
ARC
  5
17A9
  8
SAPA_PROFIL
 10
119.05000007148639
 20
83.048889300122838
 30
0.0
 40
0.3000000000044025
 50
207.12809249342129
 51
270.00000000110191
  0
ARC
  5
17AA
  8
SAPA_PROFIL
 10
118.5160064668911
 20
82.775300502368097
 30
0.0
 40
0.3000000000001473
 50
27.12809249331276
 51
89.999999999951143
  0
LINE
  5
17AB
  8
SAPA_PROFIL
 10
118.5160064668914
 20
83.075300502368236
 30
0.0
 11
116.3384581119342
 21
83.075300502368236
 31
0.0
  0
ARC
  5
17AC
  8
SAPA_PROFIL
 10
116.33845811193549
 20
82.775300502368708
 30
0.0
 40
0.2999999999995282
 50
90.00000000026597
 51
110.00000000002809
  0
LINE
  5
17AD
  8
SAPA_PROFIL
 10
116.2358520689379
 20
83.057208288603988
 30
0.0
 11
114.8084988988923
 21
82.537694220928856
 31
0.0
  0
ARC
  5
17AE
  8
SAPA_PROFIL
 10
114.9111049418967
 20
82.255786434688275
 30
0.0
 40
0.3000000000067899
 50
110.000000000878
 51
200.00000000023761
  0
LINE
  5
17AF
  8
SAPA_PROFIL
 10
114.62919715565501
 20
82.153180391687101
 30
0.0
 11
114.697601184326
 21
81.965241867537088
 31
0.0
  0
ARC
  5
17B0
  8
SAPA_PROFIL
 10
114.97950897055721
 20
82.067847910527291
 30
0.0
 40
0.2999999999931269
 50
199.99999999895391
 51
289.9999999989368
  0
LINE
  5
17B1
  8
SAPA_PROFIL
 10
115.08211501354729
 20
81.785940124296076
 30
0.0
 11
116.1157768964169
 21
82.1621622819614
 31
0.0
  0
ARC
  5
17B2
  8
SAPA_PROFIL
 10
116.21838293940949
 20
81.88025449572487
 30
0.0
 40
0.2999999999989499
 50
19.99999999778079
 51
109.9999999990257
  0
LINE
  5
17B3
  8
SAPA_PROFIL
 10
116.5002907256482
 20
81.982860538711293
 30
0.0
 11
117.1591460328839
 21
80.172670459372284
 31
0.0
  0
ARC
  5
17B4
  8
SAPA_PROFIL
 10
117.4410538191202
 20
80.27527650236901
 30
0.0
 40
0.3000000000001652
 50
199.99999999979039
 51
270.00000000001631
  0
LINE
  5
17B5
  8
SAPA_PROFIL
 10
117.4410538191202
 20
79.975276502368843
 30
0.0
 11
117.8607695869398
 21
79.975276502368843
 31
0.0
  0
ARC
  5
17B6
  8
SAPA_PROFIL
 10
117.860769586939
 20
80.275276502368314
 30
0.0
 40
0.2999999999994856
 50
270.00000000013841
 51
300.00000000013648
  0
LINE
  5
17B7
  8
SAPA_PROFIL
 10
118.0107695869394
 20
80.015468881233801
 30
0.0
 11
119.5000000714801
 21
80.875276502368479
 31
0.0
  0
LINE
  5
17B8
  8
SAPA_PROFIL
 10
119.5000000714801
 20
80.875276502368479
 30
0.0
 11
119.9500000714804
 21
80.875288502368903
 31
0.0
  0
ARC
  5
17B9
  8
SAPA_PROFIL
 10
119.95000007147971
 20
80.575288502368494
 30
0.0
 40
0.3000000000004093
 50
359.99999999986971
 51
89.999999999869729
  0
LINE
  5
17BA
  8
SAPA_PROFIL
 10
120.2500000714801
 20
80.575288502367812
 30
0.0
 11
120.2500000714801
 21
76.975276502368843
 31
0.0
  0
ARC
  5
17BB
  8
SAPA_PROFIL
 10
119.95000007147971
 20
76.97527650236816
 30
0.0
 40
0.3000000000004093
 50
270.00000000013029
 51
0.0000000001302755
  0
LINE
  5
17BC
  8
SAPA_PROFIL
 10
119.9500000714804
 20
76.675276502367751
 30
0.0
 11
119.5000000714801
 21
76.675276502367751
 31
0.0
  0
LINE
  5
17BD
  8
SAPA_PROFIL
 10
119.5000000714801
 20
76.675276502367751
 30
0.0
 11
118.0107399404062
 21
77.535101239938044
 31
0.0
  0
ARC
  5
17BE
  8
SAPA_PROFIL
 10
117.86073994040871
 20
77.275293618801641
 30
0.0
 40
0.2999999999997068
 50
60.000000000511719
 51
89.996353133071267
  0
LINE
  5
17BF
  8
SAPA_PROFIL
 10
117.86075903535919
 20
77.575293618193655
 30
0.0
 11
117.75000007148191
 21
77.575300667985402
 31
0.0
  0
LINE
  5
17C0
  8
SAPA_PROFIL
 10
117.75000007148191
 20
77.575300667985402
 30
0.0
 11
117.75000007148191
 21
75.499444650068881
 31
0.0
  0
ARC
  5
17C1
  8
SAPA_PROFIL
 10
118.25000007148191
 20
75.499444650068881
 30
0.0
 40
0.5
 50
180.0
 51
270.0
  0
LINE
  5
17C2
  8
SAPA_PROFIL
 10
118.25000007148191
 20
74.999444650068881
 30
0.0
 11
123.5000000711472
 21
74.999444650068881
 31
0.0
  0
ARC
  5
17C3
  8
SAPA_PROFIL
 10
123.5000000711472
 20
75.499444650068881
 30
0.0
 40
0.5
 50
270.0
 51
0.0
  0
LINE
  5
17C4
  8
SAPA_PROFIL
 10
124.0000000711472
 20
75.499444650068881
 30
0.0
 11
124.0000000711472
 21
75.99944465365229
 31
0.0
  0
ARC
  5
17C5
  8
SAPA_PROFIL
 10
123.5000000711472
 20
75.99944465365229
 30
0.0
 40
0.5
 50
0.0
 51
90.0
  0
LINE
  5
17C6
  8
SAPA_PROFIL
 10
123.5000000711472
 20
76.49944465365229
 30
0.0
 11
122.5000000707402
 21
76.499444653657747
 31
0.0
  0
LINE
  5
17C7
  8
SAPA_PROFIL
 10
122.5000000707402
 20
76.499444653657747
 30
0.0
 11
122.50000007073621
 21
79.699444654111403
 31
0.0
  0
LINE
  5
17C8
  8
SAPA_PROFIL
 10
122.50000007073621
 20
79.699444654111403
 30
0.0
 11
127.00000007164201
 21
79.699444654104127
 31
0.0
  0
LINE
  5
17C9
  8
SAPA_PROFIL
 10
127.00000007164201
 20
79.699444654104127
 30
0.0
 11
127.00000007166339
 21
60.199444650058688
 31
0.0
  0
ARC
  5
17CA
  8
SAPA_PROFIL
 10
127.20000007166441
 20
60.199444650058417
 30
0.0
 40
0.2000000000009834
 50
179.99999999992261
 51
285.6019167443755
  0
ARC
  5
17CB
  8
SAPA_PROFIL
 10
126.9848384383626
 20
60.969967506016808
 30
0.0
 40
1.0000000000005631
 50
285.601916744535
 51
353.75641154149349
  0
ARC
  5
17CC
  8
SAPA_PROFIL
 10
-1.2499999329719169
 20
74.999444650245096
 30
0.0
 40
130.00000000411961
 50
353.75641154141101
 51
359.99999999991269
  0
LINE
  5
17CD
  8
SAPA_PROFIL
 10
128.7500000711477
 20
74.999444650047053
 30
0.0
 11
128.75000007128551
 21
79.999444649967003
 31
0.0
  0
ARC
  5
17CE
  8
SAPA_PROFIL
 10
125.7500000712855
 20
79.999444650057981
 30
0.0
 40
2.9999999999999849
 50
359.99999999826269
 51
90.000000000000256
  0
LINE
  5
17CF
  8
SAPA_PROFIL
 10
125.7500000712855
 20
82.999444650057967
 30
0.0
 11
120.4938691124364
 21
82.999444650057967
 31
0.0
  0
LINE
  5
17D0
  8
SAPA_PROFIL
 62
     4
 10
59.25000000275827
 20
81.651709582441299
 30
-0.2
 11
59.25000000275827
 21
67.451709582438752
 31
-0.2
1001
RC_PROFILE
1002
{
1000
Region
1002
}
  0
ARC
  5
17D1
  8
SAPA_PROFIL
 62
     4
 10
59.75000000275827
 20
67.451709582438752
 30
-0.2
 40
0.5
 50
180.0
 51
269.99999999979161
1001
RC_PROFILE
1002
{
1000
Region
1002
}
  0
LINE
  5
17D2
  8
SAPA_PROFIL
 62
     4
 10
59.750000002756451
 20
66.951709582438752
 30
-0.2
 11
63.750000003377629
 21
66.951709582436933
 31
-0.2
1001
RC_PROFILE
1002
{
1000
Region
1002
}
  0
ARC
  5
17D3
  8
SAPA_PROFIL
 62
     4
 10
63.750000003377629
 20
67.451709582436933
 30
-0.2
 40
0.5
 50
270.0
 51
0.0
1001
RC_PROFILE
1002
{
1000
Region
1002
}
  0
LINE
  5
17D4
  8
SAPA_PROFIL
 62
     4
 10
64.250000003377636
 20
67.451709582436933
 30
-0.2
 11
64.250000003384912
 21
81.65170958243948
 31
-0.2
1001
RC_PROFILE
1002
{
1000
Region
1002
}
  0
ARC
  5
17D5
  8
SAPA_PROFIL
 62
     4
 10
63.750000003384571
 20
81.651709582440944
 30
-0.2
 40
0.5000000000003411
 50
359.99999999983072
 51
89.99999999996092
1001
RC_PROFILE
1002
{
1000
Region
1002
}
  0
LINE
  5
17D6
  8
SAPA_PROFIL
 62
     4
 10
63.750000003384912
 20
82.151709582441285
 30
-0.2
 11
59.75000000275827
 21
82.151709582441285
 31
-0.2
1001
RC_PROFILE
1002
{
1000
Region
1002
}
  0
ARC
  5
17D7
  8
SAPA_PROFIL
 62
     4
 10
59.75000000275827
 20
81.651709582441299
 30
-0.2
 40
0.5
 50
90.0
 51
180.0
1001
RC_PROFILE
1002
{
1000
Region
1002
}
  0
ARC
  5
17D8
  8
SAPA_PROFIL
 62
     4
 10
72.672740072775298
 20
107.21518313885061
 30
0.0
 40
1.2000000000004429
 50
59.999999999894989
 51
89.999999999915872
1001
GENIUS_GENOBJ-N-FIL_13
1002
{
1000
OWNER
1000
GEN
1002
}
1001
GENIUS_GENODEF_13
1002
{
1000
HIER
1070
     0
1002
}
1002
{
1000
MANEDIT
1070
     0
1002
}
1002
{
1000
NOSEL
1070
     0
1002
}
1002
{
1000
BEHIND
1070
     0
1002
}
1002
{
1000
OTHER
1070
     0
1002
}
1002
{
1000
REACTOR
1002
}
  0
LINE
  5
17D9
  8
SAPA_PROFIL
 62
     4
 10
73.272740072777424
 20
108.2544136233912
 30
0.0
 11
75.013398013420783
 21
107.2494442927939
 31
0.0
1001
GENIUS_GENOBJ-N-FIL_13
1002
{
1000
OWNER
1000
GEN
1002
}
1001
GENIUS_GENODEF_13
1002
{
1000
HIER
1070
     0
1002
}
1002
{
1000
MANEDIT
1070
     0
1002
}
1002
{
1000
NOSEL
1070
     0
1002
}
1002
{
1000
BEHIND
1070
     0
1002
}
1002
{
1000
OTHER
1070
     0
1002
}
1002
{
1000
REACTOR
1002
}
  0
LINE
  5
17DA
  8
SAPA_PROFIL
 62
     4
 10
75.013398013420783
 20
107.2494442927939
 30
0.0
 11
75.449999934999369
 21
107.2494326500593
 31
0.0
1001
GENIUS_GENOBJ-N-FIL_13
1002
{
1000
OWNER
1000
GEN
1002
}
1001
GENIUS_GENODEF_13
1002
{
1000
HIER
1070
     0
1002
}
1002
{
1000
MANEDIT
1070
     0
1002
}
1002
{
1000
NOSEL
1070
     0
1002
}
1002
{
1000
BEHIND
1070
     0
1002
}
1002
{
1000
OTHER
1070
     0
1002
}
1002
{
1000
REACTOR
1002
}
  0
ARC
  5
17DB
  8
SAPA_PROFIL
 62
     4
 10
75.449999934999369
 20
107.4994326500593
 30
0.0
 40
0.25
 50
270.0
 51
0.0
1001
GENIUS_GENOBJ-N-FIL_13
1002
{
1000
OWNER
1000
GEN
1002
}
1001
GENIUS_GENODEF_13
1002
{
1000
HIER
1070
     0
1002
}
1002
{
1000
MANEDIT
1070
     0
1002
}
1002
{
1000
NOSEL
1070
     0
1002
}
1002
{
1000
BEHIND
1070
     0
1002
}
1002
{
1000
OTHER
1070
     0
1002
}
1002
{
1000
REACTOR
1002
}
  0
LINE
  5
17DC
  8
SAPA_PROFIL
 62
     4
 10
75.699999934999369
 20
107.4994326500593
 30
0.0
 11
75.699999934999369
 21
111.0994446500583
 31
0.0
1001
GENIUS_GENOBJ-N-FIL_13
1002
{
1000
OWNER
1000
GEN
1002
}
1001
GENIUS_GENODEF_13
1002
{
1000
HIER
1070
     0
1002
}
1002
{
1000
MANEDIT
1070
     0
1002
}
1002
{
1000
NOSEL
1070
     0
1002
}
1002
{
1000
BEHIND
1070
     0
1002
}
1002
{
1000
OTHER
1070
     0
1002
}
1002
{
1000
REACTOR
1002
}
  0
ARC
  5
17DD
  8
SAPA_PROFIL
 62
     4
 10
75.449999934999369
 20
111.0994446500583
 30
0.0
 40
0.25
 50
0.0
 51
90.0
1001
GENIUS_GENOBJ-N-FIL_13
1002
{
1000
OWNER
1000
GEN
1002
}
1001
GENIUS_GENODEF_13
1002
{
1000
HIER
1070
     0
1002
}
1002
{
1000
MANEDIT
1070
     0
1002
}
1002
{
1000
NOSEL
1070
     0
1002
}
1002
{
1000
BEHIND
1070
     0
1002
}
1002
{
1000
OTHER
1070
     0
1002
}
1002
{
1000
REACTOR
1002
}
  0
LINE
  5
17DE
  8
SAPA_PROFIL
 62
     4
 10
75.449999934999369
 20
111.3494446500583
 30
0.0
 11
75.013397394620597
 21
111.3494446500583
 31
0.0
1001
GENIUS_GENOBJ-N-FIL_13
1002
{
1000
OWNER
1000
GEN
1002
}
1001
GENIUS_GENODEF_13
1002
{
1000
HIER
1070
     0
1002
}
1002
{
1000
MANEDIT
1070
     0
1002
}
1002
{
1000
NOSEL
1070
     0
1002
}
1002
{
1000
BEHIND
1070
     0
1002
}
1002
{
1000
OTHER
1070
     0
1002
}
1002
{
1000
REACTOR
1002
}
  0
LINE
  5
17DF
  8
SAPA_PROFIL
 62
     4
 10
75.013397394620597
 20
111.3494446500583
 30
0.0
 11
73.327259797219767
 21
110.37595265430831
 31
0.0
1001
GENIUS_GENOBJ-N-FIL_13
1002
{
1000
OWNER
1000
GEN
1002
}
1001
GENIUS_GENODEF_13
1002
{
1000
HIER
1070
     0
1002
}
1002
{
1000
MANEDIT
1070
     0
1002
}
1002
{
1000
NOSEL
1070
     0
1002
}
1002
{
1000
BEHIND
1070
     0
1002
}
1002
{
1000
OTHER
1070
     0
1002
}
1002
{
1000
REACTOR
1002
}
  0
ARC
  5
17E0
  8
SAPA_PROFIL
 62
     4
 10
72.727259797221024
 20
111.4151831388499
 30
0.0
 40
1.1999999999996001
 50
269.99999999994441
 51
299.99999999994168
1001
GENIUS_GENOBJ-N-FIL_13
1002
{
1000
OWNER
1000
GEN
1002
}
1001
GENIUS_GENODEF_13
1002
{
1000
HIER
1070
     0
1002
}
1002
{
1000
MANEDIT
1070
     0
1002
}
1002
{
1000
NOSEL
1070
     0
1002
}
1002
{
1000
BEHIND
1070
     0
1002
}
1002
{
1000
OTHER
1070
     0
1002
}
1002
{
1000
REACTOR
1002
}
  0
LINE
  5
17E1
  8
SAPA_PROFIL
 62
     4
 10
72.727259797219858
 20
110.21518313885031
 30
0.0
 11
50.772740208928781
 21
110.21518313885031
 31
0.0
1001
GENIUS_GENOBJ-N-FIL_13
1002
{
1000
OWNER
1000
GEN
1002
}
1001
GENIUS_GENODEF_13
1002
{
1000
HIER
1070
     0
1002
}
1002
{
1000
MANEDIT
1070
     0
1002
}
1002
{
1000
NOSEL
1070
     0
1002
}
1002
{
1000
BEHIND
1070
     0
1002
}
1002
{
1000
OTHER
1070
     0
1002
}
1002
{
1000
REACTOR
1002
}
  0
ARC
  5
17E2
  8
SAPA_PROFIL
 62
     4
 10
50.772740208927623
 20
111.4151831388499
 30
0.0
 40
1.1999999999996041
 50
240.0000000000579
 51
270.00000000005531
1001
GENIUS_GENOBJ-N-FIL_13
1002
{
1000
OWNER
1000
GEN
1002
}
1001
GENIUS_GENODEF_13
1002
{
1000
HIER
1070
     0
1002
}
1002
{
1000
MANEDIT
1070
     0
1002
}
1002
{
1000
NOSEL
1070
     0
1002
}
1002
{
1000
BEHIND
1070
     0
1002
}
1002
{
1000
OTHER
1070
     0
1002
}
1002
{
1000
REACTOR
1002
}
  0
LINE
  5
17E3
  8
SAPA_PROFIL
 62
     4
 10
50.172740208928872
 20
110.37595265430831
 30
0.0
 11
48.486602611528042
 21
111.3494446500583
 31
0.0
1001
GENIUS_GENOBJ-N-FIL_13
1002
{
1000
OWNER
1000
GEN
1002
}
1001
GENIUS_GENODEF_13
1002
{
1000
HIER
1070
     0
1002
}
1002
{
1000
MANEDIT
1070
     0
1002
}
1002
{
1000
NOSEL
1070
     0
1002
}
1002
{
1000
BEHIND
1070
     0
1002
}
1002
{
1000
OTHER
1070
     0
1002
}
1002
{
1000
REACTOR
1002
}
  0
LINE
  5
17E4
  8
SAPA_PROFIL
 62
     4
 10
48.486602611528042
 20
111.3494446500583
 30
0.0
 11
48.050000071149732
 21
111.3494446500583
 31
0.0
1001
GENIUS_GENOBJ-N-FIL_13
1002
{
1000
OWNER
1000
GEN
1002
}
1001
GENIUS_GENODEF_13
1002
{
1000
HIER
1070
     0
1002
}
1002
{
1000
MANEDIT
1070
     0
1002
}
1002
{
1000
NOSEL
1070
     0
1002
}
1002
{
1000
BEHIND
1070
     0
1002
}
1002
{
1000
OTHER
1070
     0
1002
}
1002
{
1000
REACTOR
1002
}
  0
ARC
  5
17E5
  8
SAPA_PROFIL
 62
     4
 10
48.050000071149732
 20
111.0994446500583
 30
0.0
 40
0.25
 50
90.0
 51
180.0
1001
GENIUS_GENOBJ-N-FIL_13
1002
{
1000
OWNER
1000
GEN
1002
}
1001
GENIUS_GENODEF_13
1002
{
1000
HIER
1070
     0
1002
}
1002
{
1000
MANEDIT
1070
     0
1002
}
1002
{
1000
NOSEL
1070
     0
1002
}
1002
{
1000
BEHIND
1070
     0
1002
}
1002
{
1000
OTHER
1070
     0
1002
}
1002
{
1000
REACTOR
1002
}
  0
LINE
  5
17E6
  8
SAPA_PROFIL
 62
     4
 10
47.800000071149718
 20
111.0994446500583
 30
0.0
 11
47.800000071149718
 21
107.4994326500593
 31
0.0
1001
GENIUS_GENOBJ-N-FIL_13
1002
{
1000
OWNER
1000
GEN
1002
}
1001
GENIUS_GENODEF_13
1002
{
1000
HIER
1070
     0
1002
}
1002
{
1000
MANEDIT
1070
     0
1002
}
1002
{
1000
NOSEL
1070
     0
1002
}
1002
{
1000
BEHIND
1070
     0
1002
}
1002
{
1000
OTHER
1070
     0
1002
}
1002
{
1000
REACTOR
1002
}
  0
ARC
  5
17E7
  8
SAPA_PROFIL
 62
     4
 10
48.050000071149718
 20
107.4994326500593
 30
0.0
 40
0.2499999999999929
 50
180.0
 51
270.00000000000171
1001
GENIUS_GENOBJ-N-FIL_13
1002
{
1000
OWNER
1000
GEN
1002
}
1001
GENIUS_GENODEF_13
1002
{
1000
HIER
1070
     0
1002
}
1002
{
1000
MANEDIT
1070
     0
1002
}
1002
{
1000
NOSEL
1070
     0
1002
}
1002
{
1000
BEHIND
1070
     0
1002
}
1002
{
1000
OTHER
1070
     0
1002
}
1002
{
1000
REACTOR
1002
}
  0
LINE
  5
17E8
  8
SAPA_PROFIL
 62
     4
 10
48.050000071149732
 20
107.2494326500593
 30
0.0
 11
48.486601992727849
 21
107.2494442927939
 31
0.0
1001
GENIUS_GENOBJ-N-FIL_13
1002
{
1000
OWNER
1000
GEN
1002
}
1001
GENIUS_GENODEF_13
1002
{
1000
HIER
1070
     0
1002
}
1002
{
1000
MANEDIT
1070
     0
1002
}
1002
{
1000
NOSEL
1070
     0
1002
}
1002
{
1000
BEHIND
1070
     0
1002
}
1002
{
1000
OTHER
1070
     0
1002
}
1002
{
1000
REACTOR
1002
}
  0
LINE
  5
17E9
  8
SAPA_PROFIL
 62
     4
 10
48.486601992727849
 20
107.2494442927939
 30
0.0
 11
50.22725993337167
 21
108.2544136233912
 31
0.0
1001
GENIUS_GENOBJ-N-FIL_13
1002
{
1000
OWNER
1000
GEN
1002
}
1001
GENIUS_GENODEF_13
1002
{
1000
HIER
1070
     0
1002
}
1002
{
1000
MANEDIT
1070
     0
1002
}
1002
{
1000
NOSEL
1070
     0
1002
}
1002
{
1000
BEHIND
1070
     0
1002
}
1002
{
1000
OTHER
1070
     0
1002
}
1002
{
1000
REACTOR
1002
}
  0
ARC
  5
17EA
  8
SAPA_PROFIL
 62
     4
 10
50.827259933373803
 20
107.21518313885061
 30
0.0
 40
1.200000000000442
 50
90.000000000084114
 51
120.000000000105
1001
GENIUS_GENOBJ-N-FIL_13
1002
{
1000
OWNER
1000
GEN
1002
}
1001
GENIUS_GENODEF_13
1002
{
1000
HIER
1070
     0
1002
}
1002
{
1000
MANEDIT
1070
     0
1002
}
1002
{
1000
NOSEL
1070
     0
1002
}
1002
{
1000
BEHIND
1070
     0
1002
}
1002
{
1000
OTHER
1070
     0
1002
}
1002
{
1000
REACTOR
1002
}
  0
LINE
  5
17EB
  8
SAPA_PROFIL
 62
     4
 10
50.827259933372027
 20
108.41518313885101
 30
0.0
 11
53.550000070900523
 21
108.4151831388492
 31
0.0
1001
GENIUS_GENOBJ-N-FIL_13
1002
{
1000
OWNER
1000
GEN
1002
}
1001
GENIUS_GENODEF_13
1002
{
1000
HIER
1070
     0
1002
}
1002
{
1000
MANEDIT
1070
     0
1002
}
1002
{
1000
NOSEL
1070
     0
1002
}
1002
{
1000
BEHIND
1070
     0
1002
}
1002
{
1000
OTHER
1070
     0
1002
}
1002
{
1000
REACTOR
1002
}
  0
ARC
  5
17EC
  8
SAPA_PROFIL
 62
     4
 10
53.550000070899841
 20
107.2151831388496
 30
0.0
 40
1.1999999999995901
 50
359.999999999772
 51
89.999999999967429
1001
GENIUS_GENOBJ-N-FIL_13
1002
{
1000
OWNER
1000
GEN
1002
}
1001
GENIUS_GENODEF_13
1002
{
1000
HIER
1070
     0
1002
}
1002
{
1000
MANEDIT
1070
     0
1002
}
1002
{
1000
NOSEL
1070
     0
1002
}
1002
{
1000
BEHIND
1070
     0
1002
}
1002
{
1000
OTHER
1070
     0
1002
}
1002
{
1000
REACTOR
1002
}
  0
LINE
  5
17ED
  8
SAPA_PROFIL
 62
     4
 10
54.750000070899432
 20
107.21518313884479
 30
0.0
 11
54.750000070810302
 21
81.417448111923704
 31
0.0
1001
GENIUS_GENOBJ-N-FIL_13
1002
{
1000
OWNER
1000
GEN
1002
}
1001
GENIUS_GENODEF_13
1002
{
1000
HIER
1070
     0
1002
}
1002
{
1000
MANEDIT
1070
     0
1002
}
1002
{
1000
NOSEL
1070
     0
1002
}
1002
{
1000
BEHIND
1070
     0
1002
}
1002
{
1000
OTHER
1070
     0
1002
}
1002
{
1000
REACTOR
1002
}
  0
ARC
  5
17EE
  8
SAPA_PROFIL
 62
     4
 10
55.250000070810302
 20
81.417448111923704
 30
0.0
 40
0.5
 50
180.0
 51
270.0
1001
GENIUS_GENOBJ-N-FIL_13
1002
{
1000
OWNER
1000
GEN
1002
}
1001
GENIUS_GENODEF_13
1002
{
1000
HIER
1070
     0
1002
}
1002
{
1000
MANEDIT
1070
     0
1002
}
1002
{
1000
NOSEL
1070
     0
1002
}
1002
{
1000
BEHIND
1070
     0
1002
}
1002
{
1000
OTHER
1070
     0
1002
}
1002
{
1000
REACTOR
1002
}
  0
LINE
  5
17EF
  8
SAPA_PROFIL
 62
     4
 10
55.250000070810302
 20
80.917448111923704
 30
0.0
 11
55.45000007081012
 21
80.917448111923704
 31
0.0
1001
GENIUS_GENOBJ-N-FIL_13
1002
{
1000
OWNER
1000
GEN
1002
}
1001
GENIUS_GENODEF_13
1002
{
1000
HIER
1070
     0
1002
}
1002
{
1000
MANEDIT
1070
     0
1002
}
1002
{
1000
NOSEL
1070
     0
1002
}
1002
{
1000
BEHIND
1070
     0
1002
}
1002
{
1000
OTHER
1070
     0
1002
}
1002
{
1000
REACTOR
1002
}
  0
ARC
  5
17F0
  8
SAPA_PROFIL
 62
     4
 10
55.450000070810567
 20
81.217448111923431
 30
0.0
 40
0.2999999999997271
 50
269.99999999991309
 51
359.99999999991309
1001
GENIUS_GENOBJ-N-FIL_13
1002
{
1000
OWNER
1000
GEN
1002
}
1001
GENIUS_GENODEF_13
1002
{
1000
HIER
1070
     0
1002
}
1002
{
1000
MANEDIT
1070
     0
1002
}
1002
{
1000
NOSEL
1070
     0
1002
}
1002
{
1000
BEHIND
1070
     0
1002
}
1002
{
1000
OTHER
1070
     0
1002
}
1002
{
1000
REACTOR
1002
}
  0
LINE
  5
17F1
  8
SAPA_PROFIL
 62
     4
 10
55.750000070810302
 20
81.217448111922977
 30
0.0
 11
55.750000070810302
 21
81.867448111926251
 31
0.0
1001
GENIUS_GENOBJ-N-FIL_13
1002
{
1000
OWNER
1000
GEN
1002
}
1001
GENIUS_GENODEF_13
1002
{
1000
HIER
1070
     0
1002
}
1002
{
1000
MANEDIT
1070
     0
1002
}
1002
{
1000
NOSEL
1070
     0
1002
}
1002
{
1000
BEHIND
1070
     0
1002
}
1002
{
1000
OTHER
1070
     0
1002
}
1002
{
1000
REACTOR
1002
}
  0
ARC
  5
17F2
  8
SAPA_PROFIL
 62
     4
 10
56.050000070810491
 20
81.867448111925341
 30
0.0
 40
0.3000000000001819
 50
89.999999999826301
 51
179.99999999982629
1001
GENIUS_GENOBJ-N-FIL_13
1002
{
1000
OWNER
1000
GEN
1002
}
1001
GENIUS_GENODEF_13
1002
{
1000
HIER
1070
     0
1002
}
1002
{
1000
MANEDIT
1070
     0
1002
}
1002
{
1000
NOSEL
1070
     0
1002
}
1002
{
1000
BEHIND
1070
     0
1002
}
1002
{
1000
OTHER
1070
     0
1002
}
1002
{
1000
REACTOR
1002
}
  0
LINE
  5
17F3
  8
SAPA_PROFIL
 62
     4
 10
56.050000070811393
 20
82.167448111925523
 30
0.0
 11
56.950000070807391
 21
82.167448111925523
 31
0.0
1001
GENIUS_GENOBJ-N-FIL_13
1002
{
1000
OWNER
1000
GEN
1002
}
1001
GENIUS_GENODEF_13
1002
{
1000
HIER
1070
     0
1002
}
1002
{
1000
MANEDIT
1070
     0
1002
}
1002
{
1000
NOSEL
1070
     0
1002
}
1002
{
1000
BEHIND
1070
     0
1002
}
1002
{
1000
OTHER
1070
     0
1002
}
1002
{
1000
REACTOR
1002
}
  0
ARC
  5
17F4
  8
SAPA_PROFIL
 62
     4
 10
56.950000070807391
 20
81.667448111925523
 30
0.0
 40
0.5
 50
0.0
 51
90.0
1001
GENIUS_GENOBJ-N-FIL_13
1002
{
1000
OWNER
1000
GEN
1002
}
1001
GENIUS_GENODEF_13
1002
{
1000
HIER
1070
     0
1002
}
1002
{
1000
MANEDIT
1070
     0
1002
}
1002
{
1000
NOSEL
1070
     0
1002
}
1002
{
1000
BEHIND
1070
     0
1002
}
1002
{
1000
OTHER
1070
     0
1002
}
1002
{
1000
REACTOR
1002
}
  0
LINE
  5
17F5
  8
SAPA_PROFIL
 62
     4
 10
57.450000070807391
 20
81.667448111925523
 30
0.0
 11
57.450000070807391
 21
75.667448111923704
 31
0.0
1001
GENIUS_GENOBJ-N-FIL_13
1002
{
1000
OWNER
1000
GEN
1002
}
1001
GENIUS_GENODEF_13
1002
{
1000
HIER
1070
     0
1002
}
1002
{
1000
MANEDIT
1070
     0
1002
}
1002
{
1000
NOSEL
1070
     0
1002
}
1002
{
1000
BEHIND
1070
     0
1002
}
1002
{
1000
OTHER
1070
     0
1002
}
1002
{
1000
REACTOR
1002
}
  0
ARC
  5
17F6
  8
SAPA_PROFIL
 62
     4
 10
56.950000070807391
 20
75.667448111923704
 30
0.0
 40
0.5
 50
270.0
 51
0.0
1001
GENIUS_GENOBJ-N-FIL_13
1002
{
1000
OWNER
1000
GEN
1002
}
1001
GENIUS_GENODEF_13
1002
{
1000
HIER
1070
     0
1002
}
1002
{
1000
MANEDIT
1070
     0
1002
}
1002
{
1000
NOSEL
1070
     0
1002
}
1002
{
1000
BEHIND
1070
     0
1002
}
1002
{
1000
OTHER
1070
     0
1002
}
1002
{
1000
REACTOR
1002
}
  0
LINE
  5
17F7
  8
SAPA_PROFIL
 62
     4
 10
56.950000070807391
 20
75.167448111923704
 30
0.0
 11
56.050000070808657
 21
75.167448111923704
 31
0.0
1001
GENIUS_GENOBJ-N-FIL_13
1002
{
1000
OWNER
1000
GEN
1002
}
1001
GENIUS_GENODEF_13
1002
{
1000
HIER
1070
     0
1002
}
1002
{
1000
MANEDIT
1070
     0
1002
}
1002
{
1000
NOSEL
1070
     0
1002
}
1002
{
1000
BEHIND
1070
     0
1002
}
1002
{
1000
OTHER
1070
     0
1002
}
1002
{
1000
REACTOR
1002
}
  0
ARC
  5
17F8
  8
SAPA_PROFIL
 62
     4
 10
56.050000070808778
 20
75.46744811192309
 30
0.0
 40
0.2999999999993861
 50
180.00000000036911
 51
269.99999999997829
1001
GENIUS_GENOBJ-N-FIL_13
1002
{
1000
OWNER
1000
GEN
1002
}
1001
GENIUS_GENODEF_13
1002
{
1000
HIER
1070
     0
1002
}
1002
{
1000
MANEDIT
1070
     0
1002
}
1002
{
1000
NOSEL
1070
     0
1002
}
1002
{
1000
BEHIND
1070
     0
1002
}
1002
{
1000
OTHER
1070
     0
1002
}
1002
{
1000
REACTOR
1002
}
  0
LINE
  5
17F9
  8
SAPA_PROFIL
 62
     4
 10
55.750000070809392
 20
75.467448111921158
 30
0.0
 11
55.750000070804838
 21
76.117448111924432
 31
0.0
1001
GENIUS_GENOBJ-N-FIL_13
1002
{
1000
OWNER
1000
GEN
1002
}
1001
GENIUS_GENODEF_13
1002
{
1000
HIER
1070
     0
1002
}
1002
{
1000
MANEDIT
1070
     0
1002
}
1002
{
1000
NOSEL
1070
     0
1002
}
1002
{
1000
BEHIND
1070
     0
1002
}
1002
{
1000
OTHER
1070
     0
1002
}
1002
{
1000
REACTOR
1002
}
  0
ARC
  5
17FA
  8
SAPA_PROFIL
 62
     4
 10
55.450000070805118
 20
76.117448111922158
 30
0.0
 40
0.2999999999997271
 50
0.0000000004342517
 51
90.000000000434241
1001
GENIUS_GENOBJ-N-FIL_13
1002
{
1000
OWNER
1000
GEN
1002
}
1001
GENIUS_GENODEF_13
1002
{
1000
HIER
1070
     0
1002
}
1002
{
1000
MANEDIT
1070
     0
1002
}
1002
{
1000
NOSEL
1070
     0
1002
}
1002
{
1000
BEHIND
1070
     0
1002
}
1002
{
1000
OTHER
1070
     0
1002
}
1002
{
1000
REACTOR
1002
}
  0
LINE
  5
17FB
  8
SAPA_PROFIL
 62
     4
 10
55.450000070802837
 20
76.417448111921885
 30
0.0
 11
55.250000070810302
 21
76.417448111920066
 31
0.0
1001
GENIUS_GENOBJ-N-FIL_13
1002
{
1000
OWNER
1000
GEN
1002
}
1001
GENIUS_GENODEF_13
1002
{
1000
HIER
1070
     0
1002
}
1002
{
1000
MANEDIT
1070
     0
1002
}
1002
{
1000
NOSEL
1070
     0
1002
}
1002
{
1000
BEHIND
1070
     0
1002
}
1002
{
1000
OTHER
1070
     0
1002
}
1002
{
1000
REACTOR
1002
}
  0
ARC
  5
17FC
  8
SAPA_PROFIL
 62
     4
 10
55.250000070810302
 20
75.917448111920066
 30
0.0
 40
0.5
 50
90.0
 51
180.0
1001
GENIUS_GENOBJ-N-FIL_13
1002
{
1000
OWNER
1000
GEN
1002
}
1001
GENIUS_GENODEF_13
1002
{
1000
HIER
1070
     0
1002
}
1002
{
1000
MANEDIT
1070
     0
1002
}
1002
{
1000
NOSEL
1070
     0
1002
}
1002
{
1000
BEHIND
1070
     0
1002
}
1002
{
1000
OTHER
1070
     0
1002
}
1002
{
1000
REACTOR
1002
}
  0
LINE
  5
17FD
  8
SAPA_PROFIL
 62
     4
 10
54.750000070810302
 20
75.917448111920066
 30
0.0
 11
54.750000070810302
 21
72.917448111920066
 31
0.0
1001
GENIUS_GENOBJ-N-FIL_13
1002
{
1000
OWNER
1000
GEN
1002
}
1001
GENIUS_GENODEF_13
1002
{
1000
HIER
1070
     0
1002
}
1002
{
1000
MANEDIT
1070
     0
1002
}
1002
{
1000
NOSEL
1070
     0
1002
}
1002
{
1000
BEHIND
1070
     0
1002
}
1002
{
1000
OTHER
1070
     0
1002
}
1002
{
1000
REACTOR
1002
}
  0
ARC
  5
17FE
  8
SAPA_PROFIL
 62
     4
 10
55.250000070810302
 20
72.917448111920066
 30
0.0
 40
0.5
 50
180.0
 51
270.0
1001
GENIUS_GENOBJ-N-FIL_13
1002
{
1000
OWNER
1000
GEN
1002
}
1001
GENIUS_GENODEF_13
1002
{
1000
HIER
1070
     0
1002
}
1002
{
1000
MANEDIT
1070
     0
1002
}
1002
{
1000
NOSEL
1070
     0
1002
}
1002
{
1000
BEHIND
1070
     0
1002
}
1002
{
1000
OTHER
1070
     0
1002
}
1002
{
1000
REACTOR
1002
}
  0
LINE
  5
17FF
  8
SAPA_PROFIL
 62
     4
 10
55.250000070810302
 20
72.417448111920066
 30
0.0
 11
55.45000007081012
 21
72.417448111920066
 31
0.0
1001
GENIUS_GENOBJ-N-FIL_13
1002
{
1000
OWNER
1000
GEN
1002
}
1001
GENIUS_GENODEF_13
1002
{
1000
HIER
1070
     0
1002
}
1002
{
1000
MANEDIT
1070
     0
1002
}
1002
{
1000
NOSEL
1070
     0
1002
}
1002
{
1000
BEHIND
1070
     0
1002
}
1002
{
1000
OTHER
1070
     0
1002
}
1002
{
1000
REACTOR
1002
}
  0
ARC
  5
1800
  8
SAPA_PROFIL
 62
     4
 10
55.450000070809658
 20
72.717448111920703
 30
0.0
 40
0.3000000000006366
 50
270.0000000000868
 51
0.0000000000868503
1001
GENIUS_GENOBJ-N-FIL_13
1002
{
1000
OWNER
1000
GEN
1002
}
1001
GENIUS_GENODEF_13
1002
{
1000
HIER
1070
     0
1002
}
1002
{
1000
MANEDIT
1070
     0
1002
}
1002
{
1000
NOSEL
1070
     0
1002
}
1002
{
1000
BEHIND
1070
     0
1002
}
1002
{
1000
OTHER
1070
     0
1002
}
1002
{
1000
REACTOR
1002
}
  0
LINE
  5
1801
  8
SAPA_PROFIL
 62
     4
 10
55.750000070810302
 20
72.717448111921158
 30
0.0
 11
55.750000070810302
 21
73.367448111920794
 31
0.0
1001
GENIUS_GENOBJ-N-FIL_13
1002
{
1000
OWNER
1000
GEN
1002
}
1001
GENIUS_GENODEF_13
1002
{
1000
HIER
1070
     0
1002
}
1002
{
1000
MANEDIT
1070
     0
1002
}
1002
{
1000
NOSEL
1070
     0
1002
}
1002
{
1000
BEHIND
1070
     0
1002
}
1002
{
1000
OTHER
1070
     0
1002
}
1002
{
1000
REACTOR
1002
}
  0
ARC
  5
1802
  8
SAPA_PROFIL
 62
     4
 10
56.050000070810491
 20
73.367448111919884
 30
0.0
 40
0.3000000000001819
 50
89.999999999826301
 51
179.99999999982629
1001
GENIUS_GENOBJ-N-FIL_13
1002
{
1000
OWNER
1000
GEN
1002
}
1001
GENIUS_GENODEF_13
1002
{
1000
HIER
1070
     0
1002
}
1002
{
1000
MANEDIT
1070
     0
1002
}
1002
{
1000
NOSEL
1070
     0
1002
}
1002
{
1000
BEHIND
1070
     0
1002
}
1002
{
1000
OTHER
1070
     0
1002
}
1002
{
1000
REACTOR
1002
}
  0
LINE
  5
1803
  8
SAPA_PROFIL
 62
     4
 10
56.050000070811393
 20
73.667448111920066
 30
0.0
 11
56.950000070807391
 21
73.667448111920066
 31
0.0
1001
GENIUS_GENOBJ-N-FIL_13
1002
{
1000
OWNER
1000
GEN
1002
}
1001
GENIUS_GENODEF_13
1002
{
1000
HIER
1070
     0
1002
}
1002
{
1000
MANEDIT
1070
     0
1002
}
1002
{
1000
NOSEL
1070
     0
1002
}
1002
{
1000
BEHIND
1070
     0
1002
}
1002
{
1000
OTHER
1070
     0
1002
}
1002
{
1000
REACTOR
1002
}
  0
ARC
  5
1804
  8
SAPA_PROFIL
 62
     4
 10
56.950000070807391
 20
73.167448111920066
 30
0.0
 40
0.5
 50
0.0
 51
90.0
1001
GENIUS_GENOBJ-N-FIL_13
1002
{
1000
OWNER
1000
GEN
1002
}
1001
GENIUS_GENODEF_13
1002
{
1000
HIER
1070
     0
1002
}
1002
{
1000
MANEDIT
1070
     0
1002
}
1002
{
1000
NOSEL
1070
     0
1002
}
1002
{
1000
BEHIND
1070
     0
1002
}
1002
{
1000
OTHER
1070
     0
1002
}
1002
{
1000
REACTOR
1002
}
  0
LINE
  5
1805
  8
SAPA_PROFIL
 62
     4
 10
57.450000070807391
 20
73.167448111920066
 30
0.0
 11
57.450000070807391
 21
67.167448111920066
 31
0.0
1001
GENIUS_GENOBJ-N-FIL_13
1002
{
1000
OWNER
1000
GEN
1002
}
1001
GENIUS_GENODEF_13
1002
{
1000
HIER
1070
     0
1002
}
1002
{
1000
MANEDIT
1070
     0
1002
}
1002
{
1000
NOSEL
1070
     0
1002
}
1002
{
1000
BEHIND
1070
     0
1002
}
1002
{
1000
OTHER
1070
     0
1002
}
1002
{
1000
REACTOR
1002
}
  0
ARC
  5
1806
  8
SAPA_PROFIL
 62
     4
 10
56.950000070807391
 20
67.167448111920066
 30
0.0
 40
0.5
 50
270.0
 51
0.0
1001
GENIUS_GENOBJ-N-FIL_13
1002
{
1000
OWNER
1000
GEN
1002
}
1001
GENIUS_GENODEF_13
1002
{
1000
HIER
1070
     0
1002
}
1002
{
1000
MANEDIT
1070
     0
1002
}
1002
{
1000
NOSEL
1070
     0
1002
}
1002
{
1000
BEHIND
1070
     0
1002
}
1002
{
1000
OTHER
1070
     0
1002
}
1002
{
1000
REACTOR
1002
}
  0
LINE
  5
1807
  8
SAPA_PROFIL
 62
     4
 10
56.950000070807391
 20
66.667448111920066
 30
0.0
 11
56.050000070811393
 21
66.667448111920066
 31
0.0
1001
GENIUS_GENOBJ-N-FIL_13
1002
{
1000
OWNER
1000
GEN
1002
}
1001
GENIUS_GENODEF_13
1002
{
1000
HIER
1070
     0
1002
}
1002
{
1000
MANEDIT
1070
     0
1002
}
1002
{
1000
NOSEL
1070
     0
1002
}
1002
{
1000
BEHIND
1070
     0
1002
}
1002
{
1000
OTHER
1070
     0
1002
}
1002
{
1000
REACTOR
1002
}
  0
ARC
  5
1808
  8
SAPA_PROFIL
 62
     4
 10
56.050000070811393
 20
66.967448111921144
 30
0.0
 40
0.3000000000010914
 50
180.0
 51
270.0
1001
GENIUS_GENOBJ-N-FIL_13
1002
{
1000
OWNER
1000
GEN
1002
}
1001
GENIUS_GENODEF_13
1002
{
1000
HIER
1070
     0
1002
}
1002
{
1000
MANEDIT
1070
     0
1002
}
1002
{
1000
NOSEL
1070
     0
1002
}
1002
{
1000
BEHIND
1070
     0
1002
}
1002
{
1000
OTHER
1070
     0
1002
}
1002
{
1000
REACTOR
1002
}
  0
LINE
  5
1809
  8
SAPA_PROFIL
 62
     4
 10
55.750000070810302
 20
66.967448111921144
 30
0.0
 11
55.750000070810302
 21
67.617448111920794
 31
0.0
1001
GENIUS_GENOBJ-N-FIL_13
1002
{
1000
OWNER
1000
GEN
1002
}
1001
GENIUS_GENODEF_13
1002
{
1000
HIER
1070
     0
1002
}
1002
{
1000
MANEDIT
1070
     0
1002
}
1002
{
1000
NOSEL
1070
     0
1002
}
1002
{
1000
BEHIND
1070
     0
1002
}
1002
{
1000
OTHER
1070
     0
1002
}
1002
{
1000
REACTOR
1002
}
  0
ARC
  5
180A
  8
SAPA_PROFIL
 62
     4
 10
55.450000070810567
 20
67.617448111920339
 30
0.0
 40
0.2999999999997271
 50
0.0000000000868503
 51
90.000000000086857
1001
GENIUS_GENOBJ-N-FIL_13
1002
{
1000
OWNER
1000
GEN
1002
}
1001
GENIUS_GENODEF_13
1002
{
1000
HIER
1070
     0
1002
}
1002
{
1000
MANEDIT
1070
     0
1002
}
1002
{
1000
NOSEL
1070
     0
1002
}
1002
{
1000
BEHIND
1070
     0
1002
}
1002
{
1000
OTHER
1070
     0
1002
}
1002
{
1000
REACTOR
1002
}
  0
LINE
  5
180B
  8
SAPA_PROFIL
 62
     4
 10
55.45000007081012
 20
67.917448111920066
 30
0.0
 11
55.250000070810302
 21
67.917448111920066
 31
0.0
1001
GENIUS_GENOBJ-N-FIL_13
1002
{
1000
OWNER
1000
GEN
1002
}
1001
GENIUS_GENODEF_13
1002
{
1000
HIER
1070
     0
1002
}
1002
{
1000
MANEDIT
1070
     0
1002
}
1002
{
1000
NOSEL
1070
     0
1002
}
1002
{
1000
BEHIND
1070
     0
1002
}
1002
{
1000
OTHER
1070
     0
1002
}
1002
{
1000
REACTOR
1002
}
  0
ARC
  5
180C
  8
SAPA_PROFIL
 62
     4
 10
55.250000070810302
 20
67.417448111920066
 30
0.0
 40
0.5
 50
90.0
 51
180.0
1001
GENIUS_GENOBJ-N-FIL_13
1002
{
1000
OWNER
1000
GEN
1002
}
1001
GENIUS_GENODEF_13
1002
{
1000
HIER
1070
     0
1002
}
1002
{
1000
MANEDIT
1070
     0
1002
}
1002
{
1000
NOSEL
1070
     0
1002
}
1002
{
1000
BEHIND
1070
     0
1002
}
1002
{
1000
OTHER
1070
     0
1002
}
1002
{
1000
REACTOR
1002
}
  0
LINE
  5
180D
  8
SAPA_PROFIL
 62
     4
 10
54.750000070810302
 20
67.417448111920066
 30
0.0
 11
54.750000070811211
 21
65.667448111920066
 31
0.0
1001
GENIUS_GENOBJ-N-FIL_13
1002
{
1000
OWNER
1000
GEN
1002
}
1001
GENIUS_GENODEF_13
1002
{
1000
HIER
1070
     0
1002
}
1002
{
1000
MANEDIT
1070
     0
1002
}
1002
{
1000
NOSEL
1070
     0
1002
}
1002
{
1000
BEHIND
1070
     0
1002
}
1002
{
1000
OTHER
1070
     0
1002
}
1002
{
1000
REACTOR
1002
}
  0
ARC
  5
180E
  8
SAPA_PROFIL
 62
     4
 10
55.250000070978437
 20
65.6674481120873
 30
0.0
 40
0.5000000001672335
 50
180.00000001916351
 51
270.00000001908541
1001
GENIUS_GENOBJ-N-FIL_13
1002
{
1000
OWNER
1000
GEN
1002
}
1001
GENIUS_GENODEF_13
1002
{
1000
HIER
1070
     0
1002
}
1002
{
1000
MANEDIT
1070
     0
1002
}
1002
{
1000
NOSEL
1070
     0
1002
}
1002
{
1000
BEHIND
1070
     0
1002
}
1002
{
1000
OTHER
1070
     0
1002
}
1002
{
1000
REACTOR
1002
}
  0
LINE
  5
180F
  8
SAPA_PROFIL
 62
     4
 10
55.250000071144989
 20
65.167448111920066
 30
0.0
 11
68.250000071152272
 21
65.167448111920066
 31
0.0
1001
GENIUS_GENOBJ-N-FIL_13
1002
{
1000
OWNER
1000
GEN
1002
}
1001
GENIUS_GENODEF_13
1002
{
1000
HIER
1070
     0
1002
}
1002
{
1000
MANEDIT
1070
     0
1002
}
1002
{
1000
NOSEL
1070
     0
1002
}
1002
{
1000
BEHIND
1070
     0
1002
}
1002
{
1000
OTHER
1070
     0
1002
}
1002
{
1000
REACTOR
1002
}
  0
ARC
  5
1810
  8
SAPA_PROFIL
 62
     4
 10
68.250000071291538
 20
65.667448112057286
 30
0.0
 40
0.5000000001372201
 50
269.99999998404132
 51
359.9999999840673
1001
GENIUS_GENOBJ-N-FIL_13
1002
{
1000
OWNER
1000
GEN
1002
}
1001
GENIUS_GENODEF_13
1002
{
1000
HIER
1070
     0
1002
}
1002
{
1000
MANEDIT
1070
     0
1002
}
1002
{
1000
NOSEL
1070
     0
1002
}
1002
{
1000
BEHIND
1070
     0
1002
}
1002
{
1000
OTHER
1070
     0
1002
}
1002
{
1000
REACTOR
1002
}
  0
LINE
  5
1811
  8
SAPA_PROFIL
 62
     4
 10
68.750000071428758
 20
65.667448111918233
 30
0.0
 11
68.750000071428758
 21
67.417448111918247
 31
0.0
1001
GENIUS_GENOBJ-N-FIL_13
1002
{
1000
OWNER
1000
GEN
1002
}
1001
GENIUS_GENODEF_13
1002
{
1000
HIER
1070
     0
1002
}
1002
{
1000
MANEDIT
1070
     0
1002
}
1002
{
1000
NOSEL
1070
     0
1002
}
1002
{
1000
BEHIND
1070
     0
1002
}
1002
{
1000
OTHER
1070
     0
1002
}
1002
{
1000
REACTOR
1002
}
  0
ARC
  5
1812
  8
SAPA_PROFIL
 62
     4
 10
68.250000071428744
 20
67.417448111918247
 30
0.0
 40
0.5
 50
0.0
 51
90.0
1001
GENIUS_GENOBJ-N-FIL_13
1002
{
1000
OWNER
1000
GEN
1002
}
1001
GENIUS_GENODEF_13
1002
{
1000
HIER
1070
     0
1002
}
1002
{
1000
MANEDIT
1070
     0
1002
}
1002
{
1000
NOSEL
1070
     0
1002
}
1002
{
1000
BEHIND
1070
     0
1002
}
1002
{
1000
OTHER
1070
     0
1002
}
1002
{
1000
REACTOR
1002
}
  0
LINE
  5
1813
  8
SAPA_PROFIL
 62
     4
 10
68.250000071428744
 20
67.917448111918247
 30
0.0
 11
68.050000071428926
 21
67.917448111918247
 31
0.0
1001
GENIUS_GENOBJ-N-FIL_13
1002
{
1000
OWNER
1000
GEN
1002
}
1001
GENIUS_GENODEF_13
1002
{
1000
HIER
1070
     0
1002
}
1002
{
1000
MANEDIT
1070
     0
1002
}
1002
{
1000
NOSEL
1070
     0
1002
}
1002
{
1000
BEHIND
1070
     0
1002
}
1002
{
1000
OTHER
1070
     0
1002
}
1002
{
1000
REACTOR
1002
}
  0
ARC
  5
1814
  8
SAPA_PROFIL
 62
     4
 10
68.050000071428485
 20
67.61744811191852
 30
0.0
 40
0.2999999999997271
 50
89.999999999913143
 51
179.99999999991309
1001
GENIUS_GENOBJ-N-FIL_13
1002
{
1000
OWNER
1000
GEN
1002
}
1001
GENIUS_GENODEF_13
1002
{
1000
HIER
1070
     0
1002
}
1002
{
1000
MANEDIT
1070
     0
1002
}
1002
{
1000
NOSEL
1070
     0
1002
}
1002
{
1000
BEHIND
1070
     0
1002
}
1002
{
1000
OTHER
1070
     0
1002
}
1002
{
1000
REACTOR
1002
}
  0
LINE
  5
1815
  8
SAPA_PROFIL
 62
     4
 10
67.750000071428744
 20
67.617448111918975
 30
0.0
 11
67.750000071428744
 21
66.967448111919325
 31
0.0
1001
GENIUS_GENOBJ-N-FIL_13
1002
{
1000
OWNER
1000
GEN
1002
}
1001
GENIUS_GENODEF_13
1002
{
1000
HIER
1070
     0
1002
}
1002
{
1000
MANEDIT
1070
     0
1002
}
1002
{
1000
NOSEL
1070
     0
1002
}
1002
{
1000
BEHIND
1070
     0
1002
}
1002
{
1000
OTHER
1070
     0
1002
}
1002
{
1000
REACTOR
1002
}
  0
ARC
  5
1816
  8
SAPA_PROFIL
 62
     4
 10
67.450000071428576
 20
66.967448111918429
 30
0.0
 40
0.3000000000001819
 50
270.00000000017371
 51
0.0000000001737007
1001
GENIUS_GENOBJ-N-FIL_13
1002
{
1000
OWNER
1000
GEN
1002
}
1001
GENIUS_GENODEF_13
1002
{
1000
HIER
1070
     0
1002
}
1002
{
1000
MANEDIT
1070
     0
1002
}
1002
{
1000
NOSEL
1070
     0
1002
}
1002
{
1000
BEHIND
1070
     0
1002
}
1002
{
1000
OTHER
1070
     0
1002
}
1002
{
1000
REACTOR
1002
}
  0
LINE
  5
1817
  8
SAPA_PROFIL
 62
     4
 10
67.450000071429486
 20
66.667448111918247
 30
0.0
 11
66.550000071431668
 21
66.667448111918247
 31
0.0
1001
GENIUS_GENOBJ-N-FIL_13
1002
{
1000
OWNER
1000
GEN
1002
}
1001
GENIUS_GENODEF_13
1002
{
1000
HIER
1070
     0
1002
}
1002
{
1000
MANEDIT
1070
     0
1002
}
1002
{
1000
NOSEL
1070
     0
1002
}
1002
{
1000
BEHIND
1070
     0
1002
}
1002
{
1000
OTHER
1070
     0
1002
}
1002
{
1000
REACTOR
1002
}
  0
ARC
  5
1818
  8
SAPA_PROFIL
 62
     4
 10
66.550000071431668
 20
67.167448111918247
 30
0.0
 40
0.5
 50
180.0
 51
270.0
1001
GENIUS_GENOBJ-N-FIL_13
1002
{
1000
OWNER
1000
GEN
1002
}
1001
GENIUS_GENODEF_13
1002
{
1000
HIER
1070
     0
1002
}
1002
{
1000
MANEDIT
1070
     0
1002
}
1002
{
1000
NOSEL
1070
     0
1002
}
1002
{
1000
BEHIND
1070
     0
1002
}
1002
{
1000
OTHER
1070
     0
1002
}
1002
{
1000
REACTOR
1002
}
  0
LINE
  5
1819
  8
SAPA_PROFIL
 62
     4
 10
66.050000071431668
 20
67.167448111918247
 30
0.0
 11
66.050000071431668
 21
73.167448111918233
 31
0.0
1001
GENIUS_GENOBJ-N-FIL_13
1002
{
1000
OWNER
1000
GEN
1002
}
1001
GENIUS_GENODEF_13
1002
{
1000
HIER
1070
     0
1002
}
1002
{
1000
MANEDIT
1070
     0
1002
}
1002
{
1000
NOSEL
1070
     0
1002
}
1002
{
1000
BEHIND
1070
     0
1002
}
1002
{
1000
OTHER
1070
     0
1002
}
1002
{
1000
REACTOR
1002
}
  0
ARC
  5
181A
  8
SAPA_PROFIL
 62
     4
 10
66.550000071431668
 20
73.167448111918233
 30
0.0
 40
0.5
 50
90.0
 51
180.0
1001
GENIUS_GENOBJ-N-FIL_13
1002
{
1000
OWNER
1000
GEN
1002
}
1001
GENIUS_GENODEF_13
1002
{
1000
HIER
1070
     0
1002
}
1002
{
1000
MANEDIT
1070
     0
1002
}
1002
{
1000
NOSEL
1070
     0
1002
}
1002
{
1000
BEHIND
1070
     0
1002
}
1002
{
1000
OTHER
1070
     0
1002
}
1002
{
1000
REACTOR
1002
}
  0
LINE
  5
181B
  8
SAPA_PROFIL
 62
     4
 10
66.550000071431668
 20
73.667448111918247
 30
0.0
 11
67.450000071429486
 21
73.667448111918247
 31
0.0
1001
GENIUS_GENOBJ-N-FIL_13
1002
{
1000
OWNER
1000
GEN
1002
}
1001
GENIUS_GENODEF_13
1002
{
1000
HIER
1070
     0
1002
}
1002
{
1000
MANEDIT
1070
     0
1002
}
1002
{
1000
NOSEL
1070
     0
1002
}
1002
{
1000
BEHIND
1070
     0
1002
}
1002
{
1000
OTHER
1070
     0
1002
}
1002
{
1000
REACTOR
1002
}
  0
ARC
  5
181C
  8
SAPA_PROFIL
 62
     4
 10
67.450000071429486
 20
73.367448111918975
 30
0.0
 40
0.2999999999992724
 50
0.0
 51
90.0
1001
GENIUS_GENOBJ-N-FIL_13
1002
{
1000
OWNER
1000
GEN
1002
}
1001
GENIUS_GENODEF_13
1002
{
1000
HIER
1070
     0
1002
}
1002
{
1000
MANEDIT
1070
     0
1002
}
1002
{
1000
NOSEL
1070
     0
1002
}
1002
{
1000
BEHIND
1070
     0
1002
}
1002
{
1000
OTHER
1070
     0
1002
}
1002
{
1000
REACTOR
1002
}
  0
LINE
  5
181D
  8
SAPA_PROFIL
 62
     4
 10
67.750000071428744
 20
73.367448111918975
 30
0.0
 11
67.750000071428744
 21
72.717448111919339
 31
0.0
1001
GENIUS_GENOBJ-N-FIL_13
1002
{
1000
OWNER
1000
GEN
1002
}
1001
GENIUS_GENODEF_13
1002
{
1000
HIER
1070
     0
1002
}
1002
{
1000
MANEDIT
1070
     0
1002
}
1002
{
1000
NOSEL
1070
     0
1002
}
1002
{
1000
BEHIND
1070
     0
1002
}
1002
{
1000
OTHER
1070
     0
1002
}
1002
{
1000
REACTOR
1002
}
  0
ARC
  5
181E
  8
SAPA_PROFIL
 62
     4
 10
68.050000071429395
 20
72.717448111918884
 30
0.0
 40
0.3000000000006366
 50
179.99999999991309
 51
269.99999999991309
1001
GENIUS_GENOBJ-N-FIL_13
1002
{
1000
OWNER
1000
GEN
1002
}
1001
GENIUS_GENODEF_13
1002
{
1000
HIER
1070
     0
1002
}
1002
{
1000
MANEDIT
1070
     0
1002
}
1002
{
1000
NOSEL
1070
     0
1002
}
1002
{
1000
BEHIND
1070
     0
1002
}
1002
{
1000
OTHER
1070
     0
1002
}
1002
{
1000
REACTOR
1002
}
  0
LINE
  5
181F
  8
SAPA_PROFIL
 62
     4
 10
68.050000071428926
 20
72.417448111918247
 30
0.0
 11
68.250000071428744
 21
72.417448111918247
 31
0.0
1001
GENIUS_GENOBJ-N-FIL_13
1002
{
1000
OWNER
1000
GEN
1002
}
1001
GENIUS_GENODEF_13
1002
{
1000
HIER
1070
     0
1002
}
1002
{
1000
MANEDIT
1070
     0
1002
}
1002
{
1000
NOSEL
1070
     0
1002
}
1002
{
1000
BEHIND
1070
     0
1002
}
1002
{
1000
OTHER
1070
     0
1002
}
1002
{
1000
REACTOR
1002
}
  0
ARC
  5
1820
  8
SAPA_PROFIL
 62
     4
 10
68.250000071428744
 20
72.917448111918247
 30
0.0
 40
0.5
 50
270.0
 51
0.0
1001
GENIUS_GENOBJ-N-FIL_13
1002
{
1000
OWNER
1000
GEN
1002
}
1001
GENIUS_GENODEF_13
1002
{
1000
HIER
1070
     0
1002
}
1002
{
1000
MANEDIT
1070
     0
1002
}
1002
{
1000
NOSEL
1070
     0
1002
}
1002
{
1000
BEHIND
1070
     0
1002
}
1002
{
1000
OTHER
1070
     0
1002
}
1002
{
1000
REACTOR
1002
}
  0
LINE
  5
1821
  8
SAPA_PROFIL
 62
     4
 10
68.750000071428758
 20
72.917448111918247
 30
0.0
 11
68.750000071428758
 21
75.917448111918247
 31
0.0
1001
GENIUS_GENOBJ-N-FIL_13
1002
{
1000
OWNER
1000
GEN
1002
}
1001
GENIUS_GENODEF_13
1002
{
1000
HIER
1070
     0
1002
}
1002
{
1000
MANEDIT
1070
     0
1002
}
1002
{
1000
NOSEL
1070
     0
1002
}
1002
{
1000
BEHIND
1070
     0
1002
}
1002
{
1000
OTHER
1070
     0
1002
}
1002
{
1000
REACTOR
1002
}
  0
ARC
  5
1822
  8
SAPA_PROFIL
 62
     4
 10
68.250000071428744
 20
75.917448111918247
 30
0.0
 40
0.5
 50
0.0
 51
90.0
1001
GENIUS_GENOBJ-N-FIL_13
1002
{
1000
OWNER
1000
GEN
1002
}
1001
GENIUS_GENODEF_13
1002
{
1000
HIER
1070
     0
1002
}
1002
{
1000
MANEDIT
1070
     0
1002
}
1002
{
1000
NOSEL
1070
     0
1002
}
1002
{
1000
BEHIND
1070
     0
1002
}
1002
{
1000
OTHER
1070
     0
1002
}
1002
{
1000
REACTOR
1002
}
  0
LINE
  5
1823
  8
SAPA_PROFIL
 62
     4
 10
68.250000071428744
 20
76.417448111918233
 30
0.0
 11
68.050000071436216
 21
76.417448111920066
 31
0.0
1001
GENIUS_GENOBJ-N-FIL_13
1002
{
1000
OWNER
1000
GEN
1002
}
1001
GENIUS_GENODEF_13
1002
{
1000
HIER
1070
     0
1002
}
1002
{
1000
MANEDIT
1070
     0
1002
}
1002
{
1000
NOSEL
1070
     0
1002
}
1002
{
1000
BEHIND
1070
     0
1002
}
1002
{
1000
OTHER
1070
     0
1002
}
1002
{
1000
REACTOR
1002
}
  0
ARC
  5
1824
  8
SAPA_PROFIL
 62
     4
 10
68.050000071434056
 20
76.117448111920226
 30
0.0
 40
0.2999999999998408
 50
89.999999999587473
 51
179.999999999544
1001
GENIUS_GENOBJ-N-FIL_13
1002
{
1000
OWNER
1000
GEN
1002
}
1001
GENIUS_GENODEF_13
1002
{
1000
HIER
1070
     0
1002
}
1002
{
1000
MANEDIT
1070
     0
1002
}
1002
{
1000
NOSEL
1070
     0
1002
}
1002
{
1000
BEHIND
1070
     0
1002
}
1002
{
1000
OTHER
1070
     0
1002
}
1002
{
1000
REACTOR
1002
}
  0
LINE
  5
1825
  8
SAPA_PROFIL
 62
     4
 10
67.750000071434215
 20
76.117448111922613
 30
0.0
 11
67.750000071431487
 21
75.467448111921158
 31
0.0
1001
GENIUS_GENOBJ-N-FIL_13
1002
{
1000
OWNER
1000
GEN
1002
}
1001
GENIUS_GENODEF_13
1002
{
1000
HIER
1070
     0
1002
}
1002
{
1000
MANEDIT
1070
     0
1002
}
1002
{
1000
NOSEL
1070
     0
1002
}
1002
{
1000
BEHIND
1070
     0
1002
}
1002
{
1000
OTHER
1070
     0
1002
}
1002
{
1000
REACTOR
1002
}
  0
ARC
  5
1826
  8
SAPA_PROFIL
 62
     4
 10
67.45000007143085
 20
75.467448111922522
 30
0.0
 40
0.3000000000006366
 50
269.99999999991309
 51
359.99999999973937
1001
GENIUS_GENOBJ-N-FIL_13
1002
{
1000
OWNER
1000
GEN
1002
}
1001
GENIUS_GENODEF_13
1002
{
1000
HIER
1070
     0
1002
}
1002
{
1000
MANEDIT
1070
     0
1002
}
1002
{
1000
NOSEL
1070
     0
1002
}
1002
{
1000
BEHIND
1070
     0
1002
}
1002
{
1000
OTHER
1070
     0
1002
}
1002
{
1000
REACTOR
1002
}
  0
LINE
  5
1827
  8
SAPA_PROFIL
 62
     4
 10
67.450000071430395
 20
75.167448111921885
 30
0.0
 11
66.550000071431668
 21
75.167448111921885
 31
0.0
1001
GENIUS_GENOBJ-N-FIL_13
1002
{
1000
OWNER
1000
GEN
1002
}
1001
GENIUS_GENODEF_13
1002
{
1000
HIER
1070
     0
1002
}
1002
{
1000
MANEDIT
1070
     0
1002
}
1002
{
1000
NOSEL
1070
     0
1002
}
1002
{
1000
BEHIND
1070
     0
1002
}
1002
{
1000
OTHER
1070
     0
1002
}
1002
{
1000
REACTOR
1002
}
  0
ARC
  5
1828
  8
SAPA_PROFIL
 62
     4
 10
66.550000071431668
 20
75.667448111921885
 30
0.0
 40
0.5
 50
180.0
 51
270.0
1001
GENIUS_GENOBJ-N-FIL_13
1002
{
1000
OWNER
1000
GEN
1002
}
1001
GENIUS_GENODEF_13
1002
{
1000
HIER
1070
     0
1002
}
1002
{
1000
MANEDIT
1070
     0
1002
}
1002
{
1000
NOSEL
1070
     0
1002
}
1002
{
1000
BEHIND
1070
     0
1002
}
1002
{
1000
OTHER
1070
     0
1002
}
1002
{
1000
REACTOR
1002
}
  0
LINE
  5
1829
  8
SAPA_PROFIL
 62
     4
 10
66.050000071431668
 20
75.667448111921885
 30
0.0
 11
66.050000071438944
 21
81.667448111923704
 31
0.0
1001
GENIUS_GENOBJ-N-FIL_13
1002
{
1000
OWNER
1000
GEN
1002
}
1001
GENIUS_GENODEF_13
1002
{
1000
HIER
1070
     0
1002
}
1002
{
1000
MANEDIT
1070
     0
1002
}
1002
{
1000
NOSEL
1070
     0
1002
}
1002
{
1000
BEHIND
1070
     0
1002
}
1002
{
1000
OTHER
1070
     0
1002
}
1002
{
1000
REACTOR
1002
}
  0
ARC
  5
182A
  8
SAPA_PROFIL
 62
     4
 10
66.550000071438944
 20
81.667448111923704
 30
0.0
 40
0.5
 50
90.0
 51
180.0
1001
GENIUS_GENOBJ-N-FIL_13
1002
{
1000
OWNER
1000
GEN
1002
}
1001
GENIUS_GENODEF_13
1002
{
1000
HIER
1070
     0
1002
}
1002
{
1000
MANEDIT
1070
     0
1002
}
1002
{
1000
NOSEL
1070
     0
1002
}
1002
{
1000
BEHIND
1070
     0
1002
}
1002
{
1000
OTHER
1070
     0
1002
}
1002
{
1000
REACTOR
1002
}
  0
LINE
  5
182B
  8
SAPA_PROFIL
 62
     4
 10
66.550000071438944
 20
82.167448111923704
 30
0.0
 11
67.450000071435852
 21
82.167448111923704
 31
0.0
1001
GENIUS_GENOBJ-N-FIL_13
1002
{
1000
OWNER
1000
GEN
1002
}
1001
GENIUS_GENODEF_13
1002
{
1000
HIER
1070
     0
1002
}
1002
{
1000
MANEDIT
1070
     0
1002
}
1002
{
1000
NOSEL
1070
     0
1002
}
1002
{
1000
BEHIND
1070
     0
1002
}
1002
{
1000
OTHER
1070
     0
1002
}
1002
{
1000
REACTOR
1002
}
  0
ARC
  5
182C
  8
SAPA_PROFIL
 62
     4
 10
67.450000071436307
 20
81.867448111923963
 30
0.0
 40
0.2999999999997271
 50
0.0000000000868503
 51
90.000000000086857
1001
GENIUS_GENOBJ-N-FIL_13
1002
{
1000
OWNER
1000
GEN
1002
}
1001
GENIUS_GENODEF_13
1002
{
1000
HIER
1070
     0
1002
}
1002
{
1000
MANEDIT
1070
     0
1002
}
1002
{
1000
NOSEL
1070
     0
1002
}
1002
{
1000
BEHIND
1070
     0
1002
}
1002
{
1000
OTHER
1070
     0
1002
}
1002
{
1000
REACTOR
1002
}
  0
LINE
  5
182D
  8
SAPA_PROFIL
 62
     4
 10
67.750000071436034
 20
81.867448111924432
 30
0.0
 11
67.750000071436034
 21
81.217448111921144
 31
0.0
1001
GENIUS_GENOBJ-N-FIL_13
1002
{
1000
OWNER
1000
GEN
1002
}
1001
GENIUS_GENODEF_13
1002
{
1000
HIER
1070
     0
1002
}
1002
{
1000
MANEDIT
1070
     0
1002
}
1002
{
1000
NOSEL
1070
     0
1002
}
1002
{
1000
BEHIND
1070
     0
1002
}
1002
{
1000
OTHER
1070
     0
1002
}
1002
{
1000
REACTOR
1002
}
  0
ARC
  5
182E
  8
SAPA_PROFIL
 62
     4
 10
68.050000071435761
 20
81.217448111921613
 30
0.0
 40
0.2999999999997271
 50
180.0000000000868
 51
270.0000000000868
1001
GENIUS_GENOBJ-N-FIL_13
1002
{
1000
OWNER
1000
GEN
1002
}
1001
GENIUS_GENODEF_13
1002
{
1000
HIER
1070
     0
1002
}
1002
{
1000
MANEDIT
1070
     0
1002
}
1002
{
1000
NOSEL
1070
     0
1002
}
1002
{
1000
BEHIND
1070
     0
1002
}
1002
{
1000
OTHER
1070
     0
1002
}
1002
{
1000
REACTOR
1002
}
  0
LINE
  5
182F
  8
SAPA_PROFIL
 62
     4
 10
68.050000071436216
 20
80.917448111921885
 30
0.0
 11
68.250000071436034
 21
80.917448111921885
 31
0.0
1001
GENIUS_GENOBJ-N-FIL_13
1002
{
1000
OWNER
1000
GEN
1002
}
1001
GENIUS_GENODEF_13
1002
{
1000
HIER
1070
     0
1002
}
1002
{
1000
MANEDIT
1070
     0
1002
}
1002
{
1000
NOSEL
1070
     0
1002
}
1002
{
1000
BEHIND
1070
     0
1002
}
1002
{
1000
OTHER
1070
     0
1002
}
1002
{
1000
REACTOR
1002
}
  0
ARC
  5
1830
  8
SAPA_PROFIL
 62
     4
 10
68.250000071436034
 20
81.417448111921885
 30
0.0
 40
0.5
 50
270.0
 51
0.0
1001
GENIUS_GENOBJ-N-FIL_13
1002
{
1000
OWNER
1000
GEN
1002
}
1001
GENIUS_GENODEF_13
1002
{
1000
HIER
1070
     0
1002
}
1002
{
1000
MANEDIT
1070
     0
1002
}
1002
{
1000
NOSEL
1070
     0
1002
}
1002
{
1000
BEHIND
1070
     0
1002
}
1002
{
1000
OTHER
1070
     0
1002
}
1002
{
1000
REACTOR
1002
}
  0
LINE
  5
1831
  8
SAPA_PROFIL
 62
     4
 10
68.750000071436034
 20
81.417448111921885
 30
0.0
 11
68.750000071354179
 21
107.21518313884479
 31
0.0
1001
GENIUS_GENOBJ-N-FIL_13
1002
{
1000
OWNER
1000
GEN
1002
}
1001
GENIUS_GENODEF_13
1002
{
1000
HIER
1070
     0
1002
}
1002
{
1000
MANEDIT
1070
     0
1002
}
1002
{
1000
NOSEL
1070
     0
1002
}
1002
{
1000
BEHIND
1070
     0
1002
}
1002
{
1000
OTHER
1070
     0
1002
}
1002
{
1000
REACTOR
1002
}
  0
ARC
  5
1832
  8
SAPA_PROFIL
 62
     4
 10
69.950000071354225
 20
107.2151831388491
 30
0.0
 40
1.200000000000045
 50
90.000000000010857
 51
180.00000000020631
1001
GENIUS_GENOBJ-N-FIL_13
1002
{
1000
OWNER
1000
GEN
1002
}
1001
GENIUS_GENODEF_13
1002
{
1000
HIER
1070
     0
1002
}
1002
{
1000
MANEDIT
1070
     0
1002
}
1002
{
1000
NOSEL
1070
     0
1002
}
1002
{
1000
BEHIND
1070
     0
1002
}
1002
{
1000
OTHER
1070
     0
1002
}
1002
{
1000
REACTOR
1002
}
  0
LINE
  5
1833
  8
SAPA_PROFIL
 62
     4
 10
69.950000071353983
 20
108.4151831388492
 30
0.0
 11
72.678481421434071
 21
108.4151831388492
 31
0.0
1001
GENIUS_GENOBJ-N-FIL_13
1002
{
1000
OWNER
1000
GEN
1002
}
1001
GENIUS_GENODEF_13
1002
{
1000
HIER
1070
     0
1002
}
1002
{
1000
MANEDIT
1070
     0
1002
}
1002
{
1000
NOSEL
1070
     0
1002
}
1002
{
1000
BEHIND
1070
     0
1002
}
1002
{
1000
OTHER
1070
     0
1002
}
1002
{
1000
REACTOR
1002
}
  0
LINE
  5
1834
  8
SAPA_PROFIL
 62
     4
 10
65.050000003388732
 20
83.451709582438738
 30
0.0
 11
57.550000002830302
 21
83.451709582444224
 31
0.0
  0
ARC
  5
1835
  8
SAPA_PROFIL
 62
     4
 10
57.550000002830302
 20
84.451709582444209
 30
0.0
 40
1.0
 50
180.0
 51
270.0
  0
LINE
  5
1836
  8
SAPA_PROFIL
 62
     4
 10
56.550000002830302
 20
84.451709582444209
 30
0.0
 11
56.550000002814841
 21
107.5994446093675
 31
0.0
  0
ARC
  5
1837
  8
SAPA_PROFIL
 62
     4
 10
57.350000002814561
 20
107.5994446093671
 30
0.0
 40
0.7999999999997272
 50
89.999999999967429
 51
179.9999999999674
  0
LINE
  5
1838
  8
SAPA_PROFIL
 62
     4
 10
57.350000002815023
 20
108.3994446093668
 30
0.0
 11
66.150000003333616
 21
108.3994446093668
 31
0.0
  0
ARC
  5
1839
  8
SAPA_PROFIL
 62
     4
 10
66.150000003333616
 20
107.5994446093666
 30
0.0
 40
0.8000000000001818
 50
359.99999999993491
 51
90.0
  0
LINE
  5
183A
  8
SAPA_PROFIL
 62
     4
 10
66.950000003333784
 20
107.5994446093657
 30
0.0
 11
66.950000003310151
 21
84.451709582438767
 31
0.0
  0
ARC
  5
183B
  8
SAPA_PROFIL
 62
     4
 10
65.950000003310493
 20
84.45170958244023
 30
0.0
 40
0.9999999999996589
 50
270.00000000003263
 51
359.9999999999153
  0
LINE
  5
183C
  8
SAPA_PROFIL
 62
     4
 10
65.950000003311061
 20
83.451709582440571
 30
0.0
 11
65.050000003388732
 21
83.451709582438738
 31
0.0
  0
LINE
  5
183D
  8
SAPA_PROFIL
 10
21.75000007113454
 20
122.69944465005869
 30
0.0
 11
21.750000071134991
 21
110.4994446500579
 31
0.0
  0
LINE
  5
183E
  8
SAPA_PROFIL
 10
21.750000071134991
 20
110.4994446500579
 30
0.0
 11
-10.24999992886546
 21
110.4994446500579
 31
0.0
  0
LINE
  5
183F
  8
SAPA_PROFIL
 10
-10.24999992886546
 20
110.4994446500579
 30
0.0
 11
-10.24999992886546
 21
122.69944465005869
 31
0.0
  0
LINE
  5
1840
  8
SAPA_PROFIL
 10
-10.24999992886546
 20
122.69944465005869
 30
0.0
 11
21.75000007113454
 21
122.69944465005869
 31
0.0
  0
ARC
  5
1841
  8
SAPA_PROFIL
 10
24.750000071134991
 20
112.0994446500583
 30
0.0
 40
1.0
 50
180.0
 51
270.0
  0
LINE
  5
1842
  8
SAPA_PROFIL
 10
23.750000071134991
 20
112.0994446500583
 30
0.0
 11
23.750000071134991
 21
121.0994446500583
 31
0.0
  0
ARC
  5
1843
  8
SAPA_PROFIL
 10
24.750000071134991
 20
121.0994446500583
 30
0.0
 40
1.0
 50
90.0
 51
180.0
  0
LINE
  5
1844
  8
SAPA_PROFIL
 10
24.750000071134991
 20
122.0994446500583
 30
0.0
 11
27.250000106536621
 21
122.0994446500583
 31
0.0
  0
LINE
  5
1845
  8
SAPA_PROFIL
 10
27.250000106536621
 20
122.0994446500583
 30
0.0
 11
27.250000106536621
 21
122.69944465005869
 31
0.0
  0
LINE
  5
1846
  8
SAPA_PROFIL
 10
27.250000106536621
 20
122.69944465005869
 30
0.0
 11
44.750000106536611
 21
122.69944465005869
 31
0.0
  0
LINE
  5
1847
  8
SAPA_PROFIL
 10
44.750000106536611
 20
122.69944465005869
 30
0.0
 11
44.750000106536611
 21
110.4994446500579
 31
0.0
  0
LINE
  5
1848
  8
SAPA_PROFIL
 10
44.750000106536611
 20
110.4994446500579
 30
0.0
 11
27.250000106536621
 21
110.4994446500579
 31
0.0
  0
LINE
  5
1849
  8
SAPA_PROFIL
 10
27.250000106536621
 20
110.4994446500579
 30
0.0
 11
27.250000106536621
 21
111.0994446500583
 31
0.0
  0
LINE
  5
184A
  8
SAPA_PROFIL
 10
27.250000106536621
 20
111.0994446500583
 30
0.0
 11
24.750000071134991
 21
111.0994446500583
 31
0.0
  0
ARC
  5
184B
  8
SAPA_PROFIL
 10
47.750000071148747
 20
124.9994446500562
 30
0.0
 40
0.2000000000001592
 50
179.99999999949111
 51
359.9999999994667
  0
LINE
  5
184C
  8
SAPA_PROFIL
 10
47.950000071148899
 20
124.9994446500543
 30
0.0
 11
51.535810508775967
 21
124.99946865005521
 31
0.0
  0
ARC
  5
184D
  8
SAPA_PROFIL
 10
51.535810508775832
 20
123.99946865005499
 30
0.0
 40
1.0000000000001561
 50
315.00000000001148
 51
89.999999999992653
  0
LINE
  5
184E
  8
SAPA_PROFIL
 10
52.242917289962627
 20
123.2923618688685
 30
0.0
 11
50.937868036793589
 21
121.9873126156992
 31
0.0
  0
ARC
  5
184F
  8
SAPA_PROFIL
 10
50.725736002438332
 20
122.1994446500554
 30
0.0
 40
0.2999999999996879
 50
269.99999999984942
 51
314.99999999986858
  0
LINE
  5
1850
  8
SAPA_PROFIL
 10
50.725736002437543
 20
121.8994446500557
 30
0.0
 11
50.139230555690339
 21
121.8994446500548
 31
0.0
  0
ARC
  5
1851
  8
SAPA_PROFIL
 10
50.139230555692777
 20
122.1994446500548
 30
0.0
 40
0.2999999999999545
 50
239.9999999995394
 51
269.99999999953587
  0
LINE
  5
1852
  8
SAPA_PROFIL
 10
49.98923055569071
 20
121.9396370289207
 30
0.0
 11
48.500000071149543
 21
122.79944465005541
 31
0.0
  0
LINE
  5
1853
  8
SAPA_PROFIL
 10
48.500000071149543
 20
122.79944465005541
 30
0.0
 11
48.050000071149732
 21
122.79945665005491
 31
0.0
  0
ARC
  5
1854
  8
SAPA_PROFIL
 10
48.050000071149732
 20
122.4994566500547
 30
0.0
 40
0.3000000000001819
 50
90.0
 51
180.0
  0
LINE
  5
1855
  8
SAPA_PROFIL
 10
47.750000071149543
 20
122.4994566500547
 30
0.0
 11
47.750000071149771
 21
118.8994446500558
 31
0.0
  0
ARC
  5
1856
  8
SAPA_PROFIL
 10
48.050000071150301
 20
118.8994446500552
 30
0.0
 40
0.300000000000523
 50
179.9999999998914
 51
269.99999999989137
  0
LINE
  5
1857
  8
SAPA_PROFIL
 10
48.050000071149732
 20
118.59944465005471
 30
0.0
 11
48.500000071149543
 21
118.59944465005471
 31
0.0
  0
LINE
  5
1858
  8
SAPA_PROFIL
 10
48.500000071149543
 20
118.59944465005471
 30
0.0
 11
49.989260202223591
 21
119.4592693876241
 31
0.0
  0
ARC
  5
1859
  8
SAPA_PROFIL
 10
50.139260202222808
 20
119.1994617664882
 30
0.0
 40
0.3000000000000934
 50
90.003646867272053
 51
119.99999999981701
  0
LINE
  5
185A
  8
SAPA_PROFIL
 10
50.139241107270429
 20
119.4994617658806
 30
0.0
 11
50.250000071149543
 21
119.4994688156723
 31
0.0
  0
LINE
  5
185B
  8
SAPA_PROFIL
 10
50.250000071149543
 20
119.4994688156723
 30
0.0
 11
50.250000071149088
 21
117.8777568135676
 31
0.0
  0
ARC
  5
185C
  8
SAPA_PROFIL
 10
49.250000071149437
 20
117.8777568135678
 30
0.0
 40
0.9999999999996447
 50
299.99999999998818
 51
359.99999999999102
  0
LINE
  5
185D
  8
SAPA_PROFIL
 10
49.750000071149088
 20
117.01173140978359
 30
0.0
 11
48.25000007114955
 21
116.1457060059995
 31
0.0
  0
ARC
  5
185E
  8
SAPA_PROFIL
 10
48.750000071149188
 20
115.27968060221519
 30
0.0
 40
0.999999999999646
 50
119.9999999999882
 51
179.99999999999099
  0
LINE
  5
185F
  8
SAPA_PROFIL
 10
47.750000071149543
 20
115.27968060221539
 30
0.0
 11
47.750000071149543
 21
114.71920869789869
 31
0.0
  0
ARC
  5
1860
  8
SAPA_PROFIL
 10
48.750000071149188
 20
114.71920869789879
 30
0.0
 40
0.9999999999996447
 50
180.0000000000089
 51
240.0000000000118
  0
LINE
  5
1861
  8
SAPA_PROFIL
 10
48.25000007114955
 20
113.8531832941146
 30
0.0
 11
49.750000071148861
 21
112.9871578903296
 31
0.0
  0
ARC
  5
1862
  8
SAPA_PROFIL
 10
49.250000071148712
 20
112.1211324865443
 30
0.0
 40
1.0000000000008329
 50
0.0000000000187271
 51
60.000000000017707
  0
LINE
  5
1863
  8
SAPA_PROFIL
 10
50.250000071149543
 20
112.1211324865446
 30
0.0
 11
50.250000071149543
 21
110.4994204844417
 31
0.0
  0
LINE
  5
1864
  8
SAPA_PROFIL
 10
50.250000071149543
 20
110.4994204844417
 30
0.0
 11
50.139241107270429
 21
110.49942753423259
 31
0.0
  0
ARC
  5
1865
  8
SAPA_PROFIL
 10
50.139260202222907
 20
110.7994275336241
 30
0.0
 40
0.2999999999991979
 50
240.00000000013739
 51
269.99635313270892
  0
LINE
  5
1866
  8
SAPA_PROFIL
 10
49.989260202223932
 20
110.5396199124891
 30
0.0
 11
48.500000071149543
 21
111.3994446500576
 31
0.0
  0
LINE
  5
1867
  8
SAPA_PROFIL
 10
48.500000071149543
 20
111.3994446500576
 30
0.0
 11
48.050000071149732
 21
111.3994446500585
 31
0.0
  0
ARC
  5
1868
  8
SAPA_PROFIL
 10
48.050000071149732
 20
111.0994446500583
 30
0.0
 40
0.3000000000001819
 50
90.0
 51
180.0
  0
LINE
  5
1869
  8
SAPA_PROFIL
 10
47.750000071149543
 20
111.0994446500583
 30
0.0
 11
47.750000071149771
 21
107.4994326500593
 31
0.0
  0
ARC
  5
186A
  8
SAPA_PROFIL
 10
48.050000071150301
 20
107.49943265005879
 30
0.0
 40
0.300000000000523
 50
179.9999999998914
 51
269.99999999989137
  0
LINE
  5
186B
  8
SAPA_PROFIL
 10
48.050000071149732
 20
107.1994326500582
 30
0.0
 11
48.500000071149543
 21
107.19944465005869
 31
0.0
  0
LINE
  5
186C
  8
SAPA_PROFIL
 10
48.500000071149543
 20
107.19944465005869
 30
0.0
 11
49.989230555690483
 21
108.0592522711943
 31
0.0
  0
ARC
  5
186D
  8
SAPA_PROFIL
 10
50.139230555689267
 20
107.7994446500589
 30
0.0
 40
0.2999999999994582
 50
89.999999999793715
 51
119.9999999997914
  0
LINE
  5
186E
  8
SAPA_PROFIL
 10
50.139230555690339
 20
108.0994446500583
 30
0.0
 11
50.725736002437543
 21
108.0994446500592
 31
0.0
  0
ARC
  5
186F
  8
SAPA_PROFIL
 10
50.725736002437351
 20
107.7994446500588
 30
0.0
 40
0.3000000000004235
 50
44.99999999994531
 51
89.999999999963364
  0
LINE
  5
1870
  8
SAPA_PROFIL
 10
50.937868036793823
 20
108.01157668441491
 30
0.0
 11
52.24291728996274
 21
106.7065274312456
 31
0.0
  0
ARC
  5
1871
  8
SAPA_PROFIL
 10
51.535810508775903
 20
105.99942065005909
 30
0.0
 40
1.0000000000001781
 50
270.00000000000409
 51
44.999999999985612
  0
LINE
  5
1872
  8
SAPA_PROFIL
 10
51.535810508775967
 20
104.99942065005889
 30
0.0
 11
47.950000071148672
 21
104.9994446500579
 31
0.0
  0
ARC
  5
1873
  8
SAPA_PROFIL
 10
47.750000071149202
 20
104.9994446500579
 30
0.0
 40
0.199999999999477
 50
0.0
 51
180.0
  0
LINE
  5
1874
  8
SAPA_PROFIL
 10
47.550000071149718
 20
104.9994446500579
 30
0.0
 11
46.250000041599598
 21
104.9994446500579
 31
0.0
  0
ARC
  5
1875
  8
SAPA_PROFIL
 10
46.250000041743981
 20
105.999444649914
 30
0.0
 40
0.9999999998560724
 50
179.99999999154511
 51
269.99999999172752
  0
LINE
  5
1876
  8
SAPA_PROFIL
 10
45.250000041887908
 20
105.9994446500616
 30
0.0
 11
45.250000041887908
 21
106.9994446500579
 31
0.0
  0
ARC
  5
1877
  8
SAPA_PROFIL
 10
44.250000041887908
 20
106.9994446500579
 30
0.0
 40
1.0
 50
0.0
 51
90.0
  0
LINE
  5
1878
  8
SAPA_PROFIL
 10
44.250000041887908
 20
107.9994446500579
 30
0.0
 11
38.137070331926452
 21
107.9994446500579
 31
0.0
  0
ARC
  5
1879
  8
SAPA_PROFIL
 10
38.137070331925791
 20
106.99944465005839
 30
0.0
 40
0.9999999999995168
 50
89.999999999962142
 51
154.9999999996945
  0
LINE
  5
187A
  8
SAPA_PROFIL
 10
37.230762544891832
 20
107.42206291180381
 30
0.0
 11
35.437699306545142
 21
103.5768263883039
 31
0.0
  0
ARC
  5
187B
  8
SAPA_PROFIL
 10
34.531391519510422
 20
103.9994446500489
 30
0.0
 40
1.0000000000000571
 50
269.9999999999996
 51
334.99999999973232
  0
LINE
  5
187C
  8
SAPA_PROFIL
 10
34.531391519510407
 20
102.9994446500488
 30
0.0
 11
31.48264604618203
 21
102.9994446500488
 31
0.0
  0
ARC
  5
187D
  8
SAPA_PROFIL
 10
31.482646046182481
 20
103.1994446500495
 30
0.0
 40
0.2000000000006423
 50
150.89009105946849
 51
269.99999999986869
  0
ARC
  5
187E
  8
SAPA_PROFIL
 10
28.250000071144608
 20
104.9994446500811
 30
0.0
 40
3.5000000000050888
 50
330.8900910596189
 51
355.08289966396012
  0
LINE
  5
187F
  8
SAPA_PROFIL
 10
31.737119225979541
 20
104.6994446500496
 30
0.0
 11
33.00000007114955
 21
104.6994446500496
 31
0.0
  0
ARC
  5
1880
  8
SAPA_PROFIL
 10
33.00000007114955
 20
105.1994446500496
 30
0.0
 40
0.5
 50
270.0
 51
0.0
  0
LINE
  5
1881
  8
SAPA_PROFIL
 10
33.500000071149543
 20
105.1994446500496
 30
0.0
 11
33.500000071149543
 21
107.4994446500579
 31
0.0
  0
ARC
  5
1882
  8
SAPA_PROFIL
 10
33.00000007114955
 20
107.4994446500579
 30
0.0
 40
0.5
 50
0.0
 51
90.0
  0
LINE
  5
1883
  8
SAPA_PROFIL
 10
33.00000007114955
 20
107.9994446500579
 30
0.0
 11
30.05277570891781
 21
107.9994446500579
 31
0.0
  0
ARC
  5
1884
  8
SAPA_PROFIL
 10
28.25000007114955
 20
104.9994446500797
 30
0.0
 40
3.500000000000032
 50
58.997280865433652
 51
121.00271913456631
  0
LINE
  5
1885
  8
SAPA_PROFIL
 10
26.44722443338128
 20
107.9994446500579
 30
0.0
 11
20.05277570891781
 21
107.9994446500579
 31
0.0
  0
ARC
  5
1886
  8
SAPA_PROFIL
 10
18.25000007114954
 20
104.9994446500797
 30
0.0
 40
3.500000000000032
 50
58.997280865433652
 51
121.00271913456631
  0
LINE
  5
1887
  8
SAPA_PROFIL
 10
16.44722443338128
 20
107.9994446500579
 30
0.0
 11
13.50000007114954
 21
107.9994446500579
 31
0.0
  0
ARC
  5
1888
  8
SAPA_PROFIL
 10
13.50000007114954
 20
107.4994446500579
 30
0.0
 40
0.5
 50
90.0
 51
180.0
  0
LINE
  5
1889
  8
SAPA_PROFIL
 10
13.00000007114954
 20
107.4994446500579
 30
0.0
 11
13.00000007114954
 21
105.1994446500496
 31
0.0
  0
ARC
  5
188A
  8
SAPA_PROFIL
 10
13.50000007114954
 20
105.1994446500496
 30
0.0
 40
0.5
 50
180.0
 51
270.0
  0
LINE
  5
188B
  8
SAPA_PROFIL
 10
13.50000007114954
 20
104.6994446500496
 30
0.0
 11
14.762880916319769
 21
104.69944465004779
 31
0.0
  0
ARC
  5
188C
  8
SAPA_PROFIL
 10
18.250000071150861
 20
104.9994446500821
 30
0.0
 40
3.5000000000014921
 50
184.9171003360905
 51
209.10990894043169
  0
ARC
  5
188D
  8
SAPA_PROFIL
 10
15.017354096117341
 20
103.1994446500497
 30
0.0
 40
0.2000000000008141
 50
270.00000000005042
 51
29.109908940448911
  0
LINE
  5
188E
  8
SAPA_PROFIL
 10
15.01735409611751
 20
102.9994446500488
 30
0.0
 11
11.968608622788681
 21
102.9994446500488
 31
0.0
  0
ARC
  5
188F
  8
SAPA_PROFIL
 10
11.96860862278967
 20
103.9994446500489
 30
0.0
 40
1.0000000000000711
 50
205.0000000002108
 51
269.99999999994321
  0
LINE
  5
1890
  8
SAPA_PROFIL
 10
11.06230083575451
 20
103.5768263883048
 30
0.0
 11
9.2692375974073684
 21
107.4220629118028
 31
0.0
  0
ARC
  5
1891
  8
SAPA_PROFIL
 10
8.3629298103726413
 20
106.9994446500579
 30
0.0
 40
1.0000000000000571
 50
25.000000000267701
 51
90.000000000000398
  0
LINE
  5
1892
  8
SAPA_PROFIL
 10
8.3629298103726342
 20
107.9994446500579
 30
0.0
 11
-7.9499999288502741
 21
107.9994446500579
 31
0.0
  0
LINE
  5
1893
  8
SAPA_PROFIL
 10
-7.9499999288502741
 20
107.9994446500579
 30
0.0
 11
-7.9499999288502741
 21
106.4994446500579
 31
0.0
  0
LINE
  5
1894
  8
SAPA_PROFIL
 10
-7.9499999288502741
 20
106.4994446500579
 30
0.0
 11
-8.7499999288504569
 21
106.4994446500579
 31
0.0
  0
LINE
  5
1895
  8
SAPA_PROFIL
 10
-8.7499999288504569
 20
106.4994446500579
 30
0.0
 11
-8.7499999288504569
 21
107.9994446500579
 31
0.0
  0
LINE
  5
1896
  8
SAPA_PROFIL
 10
-8.7499999288504569
 20
107.9994446500579
 30
0.0
 11
-10.44999992885027
 21
107.9994446500579
 31
0.0
  0
LINE
  5
1897
  8
SAPA_PROFIL
 10
-10.44999992885027
 20
107.9994446500579
 30
0.0
 11
-10.74999992885045
 21
83.399444650059422
 31
0.0
  0
LINE
  5
1898
  8
SAPA_PROFIL
 10
-10.74999992885045
 20
83.399444650059422
 30
0.0
 11
-9.049999928850184
 21
83.399444650059422
 31
0.0
  0
LINE
  5
1899
  8
SAPA_PROFIL
 10
-9.049999928850184
 20
83.399444650059422
 30
0.0
 11
-9.049999928850184
 21
85.399444650059436
 31
0.0
  0
LINE
  5
189A
  8
SAPA_PROFIL
 10
-9.049999928850184
 20
85.399444650059436
 30
0.0
 11
-8.2499999288504569
 21
85.399444650059436
 31
0.0
  0
LINE
  5
189B
  8
SAPA_PROFIL
 10
-8.2499999288504569
 20
85.399444650059436
 30
0.0
 11
-8.2499999288504569
 21
81.249444650067062
 31
0.0
  0
ARC
  5
189C
  8
SAPA_PROFIL
 10
-8.7499999288504569
 20
81.249444650067062
 30
0.0
 40
0.5
 50
270.0
 51
0.0
  0
LINE
  5
189D
  8
SAPA_PROFIL
 10
-8.7499999288504569
 20
80.749444650067076
 30
0.0
 11
-9.2499999288322652
 21
80.749444650056134
 31
0.0
  0
LINE
  5
189E
  8
SAPA_PROFIL
 10
-9.2499999288322652
 20
80.749444650056134
 30
0.0
 11
-9.2499999288536401
 21
81.999444650030696
 31
0.0
  0
LINE
  5
189F
  8
SAPA_PROFIL
 10
-9.2499999288536401
 20
81.999444650030696
 30
0.0
 11
-10.649999928832241
 21
81.999444650066138
 31
0.0
  0
ARC
  5
18A0
  8
SAPA_PROFIL
 10
-10.64999992882611
 20
81.699444650079741
 30
0.0
 40
0.2999999999864116
 50
90.000000001170449
 51
180.00000000262989
  0
LINE
  5
18A1
  8
SAPA_PROFIL
 10
-10.949999928812529
 20
81.699444650065971
 30
0.0
 11
-10.949999928839929
 21
75.299444650061787
 31
0.0
  0
ARC
  5
18A2
  8
SAPA_PROFIL
 10
-10.64999992884974
 20
75.299444650079081
 30
0.0
 40
0.2999999999901881
 50
180.000000003303
 51
270.00000000184349
  0
LINE
  5
18A3
  8
SAPA_PROFIL
 10
-10.64999992884009
 20
74.99944465008889
 30
0.0
 11
-9.2499999288536401
 21
74.999444650096166
 31
0.0
  0
LINE
  5
18A4
  8
SAPA_PROFIL
 10
-9.2499999288536401
 20
74.999444650096166
 30
0.0
 11
-9.2499999288322652
 21
76.2494446500707
 31
0.0
  0
LINE
  5
18A5
  8
SAPA_PROFIL
 10
-9.2499999288322652
 20
76.2494446500707
 30
0.0
 11
-8.7499999288504569
 21
76.249444650057967
 31
0.0
  0
ARC
  5
18A6
  8
SAPA_PROFIL
 10
-8.7499999288504569
 20
75.749444650057967
 30
0.0
 40
0.5
 50
0.0
 51
90.0
  0
LINE
  5
18A7
  8
SAPA_PROFIL
 10
-8.2499999288504569
 20
75.749444650057967
 30
0.0
 11
-8.2499999288500021
 21
72.749444650057967
 31
0.0
  0
ARC
  5
18A8
  8
SAPA_PROFIL
 10
-8.7499999288500021
 20
72.749444650050691
 30
0.0
 40
0.5
 50
270.0
 51
0.0000000008337633
  0
LINE
  5
18A9
  8
SAPA_PROFIL
 10
-8.7499999288500021
 20
72.249444650050691
 30
0.0
 11
-9.2499999288500021
 21
72.249444650050691
 31
0.0
  0
LINE
  5
18AA
  8
SAPA_PROFIL
 10
-9.2499999288500021
 20
72.249444650050691
 30
0.0
 11
-9.2499999288495474
 21
73.699444650047781
 31
0.0
  0
LINE
  5
18AB
  8
SAPA_PROFIL
 10
-9.2499999288495474
 20
73.699444650047781
 30
0.0
 11
-11.09999992884252
 21
73.699444650047781
 31
0.0
  0
ARC
  5
18AC
  8
SAPA_PROFIL
 10
-11.0999999288262
 20
73.399444650061184
 30
0.0
 40
0.2999999999865963
 50
90.000000003115744
 51
180.0000000031157
  0
LINE
  5
18AD
  8
SAPA_PROFIL
 10
-11.3999999288128
 20
73.39944465004487
 30
0.0
 11
-11.399999928841909
 21
71.159252271188279
 31
0.0
  0
LINE
  5
18AE
  8
SAPA_PROFIL
 10
-11.399999928841909
 20
71.159252271188279
 30
0.0
 11
-10.94999992884709
 21
70.899444650059422
 31
0.0
  0
LINE
  5
18AF
  8
SAPA_PROFIL
 10
-10.94999992884709
 20
70.899444650059422
 30
0.0
 11
-10.94999992884709
 21
69.099444650049236
 31
0.0
  0
LINE
  5
18B0
  8
SAPA_PROFIL
 10
-10.94999992884709
 20
69.099444650049236
 30
0.0
 11
-11.399999928841909
 21
68.839637028920379
 31
0.0
  0
LINE
  5
18B1
  8
SAPA_PROFIL
 10
-11.399999928841909
 20
68.839637028920379
 30
0.0
 11
-11.399999928841559
 21
66.599444650064697
 31
0.0
  0
ARC
  5
18B2
  8
SAPA_PROFIL
 10
-11.09999992885545
 20
66.599444650076094
 30
0.0
 40
0.2999999999861185
 50
180.00000000217671
 51
270.00000000288139
  0
LINE
  5
18B3
  8
SAPA_PROFIL
 10
-11.09999992884036
 20
66.299444650089981
 30
0.0
 11
-9.2499999288495474
 21
66.299444650060863
 31
0.0
  0
LINE
  5
18B4
  8
SAPA_PROFIL
 10
-9.2499999288495474
 20
66.299444650060863
 30
0.0
 11
-9.2499999288500021
 21
67.749444650057967
 31
0.0
  0
LINE
  5
18B5
  8
SAPA_PROFIL
 10
-9.2499999288500021
 20
67.749444650057967
 30
0.0
 11
-8.7499999288500021
 21
67.749444650057967
 31
0.0
  0
ARC
  5
18B6
  8
SAPA_PROFIL
 10
-8.7499999288500021
 20
67.249444650057967
 30
0.0
 40
0.5
 50
0.0
 51
90.0
  0
LINE
  5
18B7
  8
SAPA_PROFIL
 10
-8.2499999288500021
 20
67.249444650057967
 30
0.0
 11
-8.2499999288504569
 21
65.499444650057967
 31
0.0
  0
ARC
  5
18B8
  8
SAPA_PROFIL
 10
-8.7499999288504569
 20
65.499444650057967
 30
0.0
 40
0.5
 50
270.0
 51
0.0
  0
LINE
  5
18B9
  8
SAPA_PROFIL
 10
-8.7499999288504569
 20
64.999444650057967
 30
0.0
 11
-11.24999992885046
 21
64.999444650057967
 31
0.0
  0
ARC
  5
18BA
  8
SAPA_PROFIL
 10
-11.24999992885046
 20
66.999444650057967
 30
0.0
 40
2.0
 50
180.0
 51
270.0
  0
LINE
  5
18BB
  8
SAPA_PROFIL
 10
-13.24999992885045
 20
66.999444650057967
 30
0.0
 11
-13.24999992885045
 21
124.6994446500541
 31
0.0
  0
ARC
  5
18BC
  8
SAPA_PROFIL
 10
-12.94999992885027
 20
124.6994446500541
 30
0.0
 40
0.3000000000001819
 50
90.0
 51
180.0
  0
LINE
  5
18BD
  8
SAPA_PROFIL
 10
-12.94999992885027
 20
124.9994446500543
 30
0.0
 11
47.550000071148581
 21
124.9994446500579
 31
0.0
  0
LINE
  5
18BE
  8
SAPA_PROFIL
 10
101.7500000711627
 20
122.69944465005869
 30
0.0
 11
101.7500000711627
 21
110.4994446500579
 31
0.0
  0
LINE
  5
18BF
  8
SAPA_PROFIL
 10
101.7500000711627
 20
110.4994446500579
 30
0.0
 11
133.7500000711627
 21
110.4994446500579
 31
0.0
  0
LINE
  5
18C0
  8
SAPA_PROFIL
 10
133.7500000711627
 20
110.4994446500579
 30
0.0
 11
133.7500000711627
 21
122.69944465005869
 31
0.0
  0
LINE
  5
18C1
  8
SAPA_PROFIL
 10
133.7500000711627
 20
122.69944465005869
 30
0.0
 11
101.7500000711627
 21
122.69944465005869
 31
0.0
  0
ARC
  5
18C2
  8
SAPA_PROFIL
 10
98.750000071162731
 20
112.0994446500583
 30
0.0
 40
1.0
 50
270.0
 51
0.0
  0
LINE
  5
18C3
  8
SAPA_PROFIL
 10
99.750000071162731
 20
112.0994446500583
 30
0.0
 11
99.750000071162731
 21
121.0994446500583
 31
0.0
  0
ARC
  5
18C4
  8
SAPA_PROFIL
 10
98.750000071162731
 20
121.0994446500583
 30
0.0
 40
1.0
 50
0.0
 51
90.0
  0
LINE
  5
18C5
  8
SAPA_PROFIL
 10
98.750000071162731
 20
122.0994446500583
 30
0.0
 11
96.25000003576065
 21
122.0994446500583
 31
0.0
  0
LINE
  5
18C6
  8
SAPA_PROFIL
 10
96.25000003576065
 20
122.0994446500583
 30
0.0
 11
96.25000003576065
 21
122.69944465005869
 31
0.0
  0
LINE
  5
18C7
  8
SAPA_PROFIL
 10
96.25000003576065
 20
122.69944465005869
 30
0.0
 11
78.75000003576065
 21
122.69944465005869
 31
0.0
  0
LINE
  5
18C8
  8
SAPA_PROFIL
 10
78.75000003576065
 20
122.69944465005869
 30
0.0
 11
78.75000003576065
 21
110.4994446500579
 31
0.0
  0
LINE
  5
18C9
  8
SAPA_PROFIL
 10
78.75000003576065
 20
110.4994446500579
 30
0.0
 11
96.25000003576065
 21
110.4994446500579
 31
0.0
  0
LINE
  5
18CA
  8
SAPA_PROFIL
 10
96.25000003576065
 20
110.4994446500579
 30
0.0
 11
96.25000003576065
 21
111.0994446500583
 31
0.0
  0
LINE
  5
18CB
  8
SAPA_PROFIL
 10
96.25000003576065
 20
111.0994446500583
 30
0.0
 11
98.750000071162731
 21
111.0994446500583
 31
0.0
  0
LINE
  5
18CC
  8
SAPA_PROFIL
 10
110.00000007114819
 20
104.6994446500496
 30
0.0
 11
108.73711922597769
 21
104.6994446500496
 31
0.0
  0
ARC
  5
18CD
  8
SAPA_PROFIL
 10
105.2500000711475
 20
104.9994446500809
 30
0.0
 40
3.5000000000003948
 50
330.89009105957979
 51
355.08289966395671
  0
ARC
  5
18CE
  8
SAPA_PROFIL
 10
108.48264604618031
 20
103.1994446500496
 30
0.0
 40
0.2000000000007985
 50
150.89009105953929
 51
269.9999999999593
  0
LINE
  5
18CF
  8
SAPA_PROFIL
 10
108.48264604618019
 20
102.9994446500488
 30
0.0
 11
111.5313915195086
 21
102.9994446500488
 31
0.0
  0
ARC
  5
18D0
  8
SAPA_PROFIL
 10
111.53139151950781
 20
103.9994446500493
 30
0.0
 40
1.0000000000004261
 50
270.00000000004388
 51
334.99999999977632
  0
LINE
  5
18D1
  8
SAPA_PROFIL
 10
112.43769930654319
 20
103.5768263883048
 30
0.0
 11
114.2307625448904
 21
107.42206291180381
 31
0.0
  0
ARC
  5
18D2
  8
SAPA_PROFIL
 10
115.13707033192441
 20
106.99944465005839
 30
0.0
 40
0.9999999999995303
 50
89.999999999962526
 51
154.9999999996939
  0
LINE
  5
18D3
  8
SAPA_PROFIL
 10
115.1370703319251
 20
107.9994446500579
 30
0.0
 11
131.450000071148
 21
107.9994446500579
 31
0.0
  0
LINE
  5
18D4
  8
SAPA_PROFIL
 10
131.450000071148
 20
107.9994446500579
 30
0.0
 11
131.450000071148
 21
106.4994446500579
 31
0.0
  0
LINE
  5
18D5
  8
SAPA_PROFIL
 10
131.450000071148
 20
106.4994446500579
 30
0.0
 11
132.2500000711477
 21
106.4994446500579
 31
0.0
  0
LINE
  5
18D6
  8
SAPA_PROFIL
 10
132.2500000711477
 20
106.4994446500579
 30
0.0
 11
132.2500000711477
 21
107.9994446500579
 31
0.0
  0
LINE
  5
18D7
  8
SAPA_PROFIL
 10
132.2500000711477
 20
107.9994446500579
 30
0.0
 11
133.950000071148
 21
107.9994446500579
 31
0.0
  0
LINE
  5
18D8
  8
SAPA_PROFIL
 10
133.950000071148
 20
107.9994446500579
 30
0.0
 11
134.2500000711477
 21
83.399444650059422
 31
0.0
  0
LINE
  5
18D9
  8
SAPA_PROFIL
 10
134.2500000711477
 20
83.399444650059422
 30
0.0
 11
132.55000007114791
 21
83.399444650059422
 31
0.0
  0
LINE
  5
18DA
  8
SAPA_PROFIL
 10
132.55000007114791
 20
83.399444650059422
 30
0.0
 11
132.55000007114791
 21
85.399444650059436
 31
0.0
  0
LINE
  5
18DB
  8
SAPA_PROFIL
 10
132.55000007114791
 20
85.399444650059436
 30
0.0
 11
131.7500000711477
 21
85.399444650059436
 31
0.0
  0
LINE
  5
18DC
  8
SAPA_PROFIL
 10
131.7500000711477
 20
85.399444650059436
 30
0.0
 11
131.7500000711477
 21
81.249444650067062
 31
0.0
  0
ARC
  5
18DD
  8
SAPA_PROFIL
 10
132.2500000711477
 20
81.249444650067034
 30
0.0
 40
0.4999999999999716
 50
179.9999999999967
 51
270.0000000000033
  0
LINE
  5
18DE
  8
SAPA_PROFIL
 10
132.2500000711477
 20
80.749444650067076
 30
0.0
 11
132.75000007112999
 21
80.749444650056134
 31
0.0
  0
LINE
  5
18DF
  8
SAPA_PROFIL
 10
132.75000007112999
 20
80.749444650056134
 30
0.0
 11
132.75000007115131
 21
81.999444650030696
 31
0.0
  0
LINE
  5
18E0
  8
SAPA_PROFIL
 10
132.75000007115131
 20
81.999444650030696
 30
0.0
 11
134.15000007113011
 21
81.999444650065243
 31
0.0
  0
ARC
  5
18E1
  8
SAPA_PROFIL
 10
134.15000007112411
 20
81.699444650079556
 30
0.0
 40
0.2999999999856868
 50
359.99999999740533
 51
89.99999999886009
  0
LINE
  5
18E2
  8
SAPA_PROFIL
 10
134.4500000711098
 20
81.699444650065971
 30
0.0
 11
134.45000007113751
 21
75.299444650060877
 31
0.0
  0
ARC
  5
18E3
  8
SAPA_PROFIL
 10
134.1500000711479
 20
75.29944465007857
 30
0.0
 40
0.2999999999896659
 50
269.99999999807841
 51
359.999999996621
  0
LINE
  5
18E4
  8
SAPA_PROFIL
 10
134.15000007113781
 20
74.99944465008889
 30
0.0
 11
132.75000007115131
 21
74.999444650096166
 31
0.0
  0
LINE
  5
18E5
  8
SAPA_PROFIL
 10
132.75000007115131
 20
74.999444650096166
 30
0.0
 11
132.75000007112999
 21
76.2494446500707
 31
0.0
  0
LINE
  5
18E6
  8
SAPA_PROFIL
 10
132.75000007112999
 20
76.2494446500707
 30
0.0
 11
132.2500000711477
 21
76.249444650057967
 31
0.0
  0
ARC
  5
18E7
  8
SAPA_PROFIL
 10
132.2500000711477
 20
75.749444650057967
 30
0.0
 40
0.5
 50
90.0
 51
180.0
  0
LINE
  5
18E8
  8
SAPA_PROFIL
 10
131.7500000711477
 20
75.749444650057967
 30
0.0
 11
131.7500000711477
 21
72.749444650057967
 31
0.0
  0
ARC
  5
18E9
  8
SAPA_PROFIL
 10
132.2500000711477
 20
72.749444650050691
 30
0.0
 40
0.5
 50
179.99999999916619
 51
270.0
  0
LINE
  5
18EA
  8
SAPA_PROFIL
 10
132.2500000711477
 20
72.249444650050691
 30
0.0
 11
132.7500000711477
 21
72.249444650050691
 31
0.0
  0
LINE
  5
18EB
  8
SAPA_PROFIL
 10
132.7500000711477
 20
72.249444650050691
 30
0.0
 11
132.7500000711473
 21
73.699444650047781
 31
0.0
  0
LINE
  5
18EC
  8
SAPA_PROFIL
 10
132.7500000711473
 20
73.699444650047781
 30
0.0
 11
134.6000000711399
 21
73.699444650047781
 31
0.0
  0
ARC
  5
18ED
  8
SAPA_PROFIL
 10
134.6000000711237
 20
73.399444650061014
 30
0.0
 40
0.2999999999867668
 50
359.99999999691681
 51
89.999999996916827
  0
LINE
  5
18EE
  8
SAPA_PROFIL
 10
134.9000000711105
 20
73.39944465004487
 30
0.0
 11
134.9000000711392
 21
71.159252271188279
 31
0.0
  0
LINE
  5
18EF
  8
SAPA_PROFIL
 10
134.9000000711392
 20
71.159252271188279
 30
0.0
 11
134.45000007114481
 21
70.899444650059422
 31
0.0
  0
LINE
  5
18F0
  8
SAPA_PROFIL
 10
134.45000007114481
 20
70.899444650059422
 30
0.0
 11
134.45000007114481
 21
69.099444650049236
 31
0.0
  0
LINE
  5
18F1
  8
SAPA_PROFIL
 10
134.45000007114481
 20
69.099444650049236
 30
0.0
 11
134.9000000711392
 21
68.839637028920379
 31
0.0
  0
LINE
  5
18F2
  8
SAPA_PROFIL
 10
134.9000000711392
 20
68.839637028920379
 30
0.0
 11
134.9000000711392
 21
66.599444650063788
 31
0.0
  0
ARC
  5
18F3
  8
SAPA_PROFIL
 10
134.60000007115349
 20
66.599444650075611
 30
0.0
 40
0.29999999998563
 50
269.9999999970471
 51
359.9999999977419
  0
LINE
  5
18F4
  8
SAPA_PROFIL
 10
134.60000007113811
 20
66.299444650089981
 30
0.0
 11
132.7500000711473
 21
66.299444650060863
 31
0.0
  0
LINE
  5
18F5
  8
SAPA_PROFIL
 10
132.7500000711473
 20
66.299444650060863
 30
0.0
 11
132.7500000711477
 21
67.749444650057967
 31
0.0
  0
LINE
  5
18F6
  8
SAPA_PROFIL
 10
132.7500000711477
 20
67.749444650057967
 30
0.0
 11
132.2500000711477
 21
67.749444650057967
 31
0.0
  0
ARC
  5
18F7
  8
SAPA_PROFIL
 10
132.2500000711477
 20
67.249444650057981
 30
0.0
 40
0.4999999999999858
 50
90.0
 51
180.00000000000159
  0
LINE
  5
18F8
  8
SAPA_PROFIL
 10
131.7500000711477
 20
67.249444650057967
 30
0.0
 11
131.7500000711477
 21
65.499444650057967
 31
0.0
  0
ARC
  5
18F9
  8
SAPA_PROFIL
 10
132.2500000711477
 20
65.499444650057967
 30
0.0
 40
0.5
 50
180.0
 51
270.0
  0
LINE
  5
18FA
  8
SAPA_PROFIL
 10
132.2500000711477
 20
64.999444650057967
 30
0.0
 11
134.7500000711477
 21
64.999444650057967
 31
0.0
  0
ARC
  5
18FB
  8
SAPA_PROFIL
 10
134.75000007114781
 20
66.999444650057868
 30
0.0
 40
1.9999999999999001
 50
269.99999999999761
 51
0.0000000000028498
  0
LINE
  5
18FC
  8
SAPA_PROFIL
 10
136.7500000711477
 20
66.999444650057967
 30
0.0
 11
136.75000007114821
 21
124.69944465005869
 31
0.0
  0
ARC
  5
18FD
  8
SAPA_PROFIL
 10
136.45000007114251
 20
124.6994446500486
 30
0.0
 40
0.3000000000056389
 50
0.0000000019134217
 51
89.999999999826301
  0
LINE
  5
18FE
  8
SAPA_PROFIL
 10
136.45000007114339
 20
124.9994446500543
 30
0.0
 11
75.950000071148906
 21
124.9994446500579
 31
0.0
  0
ARC
  5
18FF
  8
SAPA_PROFIL
 10
75.750000071148861
 20
124.99944465005611
 30
0.0
 40
0.2000000000000455
 50
180.00000000052111
 51
0.0000000005211021
  0
LINE
  5
1900
  8
SAPA_PROFIL
 10
75.550000071148816
 20
124.9994446500543
 30
0.0
 11
71.964189633521755
 21
124.99946865005521
 31
0.0
  0
ARC
  5
1901
  8
SAPA_PROFIL
 10
71.964189633521755
 20
123.99946865005511
 30
0.0
 40
1.000000000000099
 50
90.0
 51
224.99999999999599
  0
LINE
  5
1902
  8
SAPA_PROFIL
 10
71.257082852335088
 20
123.2923618688685
 30
0.0
 11
72.562132105503906
 21
121.9873126156992
 31
0.0
  0
ARC
  5
1903
  8
SAPA_PROFIL
 10
72.774264139859284
 20
122.1994446500557
 30
0.0
 40
0.2999999999999743
 50
225.00000000015351
 51
270.00000000017099
  0
LINE
  5
1904
  8
SAPA_PROFIL
 10
72.774264139860179
 20
121.8994446500557
 30
0.0
 11
73.360769586606921
 21
121.8994446500557
 31
0.0
  0
ARC
  5
1905
  8
SAPA_PROFIL
 10
73.360769586606423
 20
122.19944465005609
 30
0.0
 40
0.3000000000003382
 50
270.00000000009499
 51
300.00000000009271
  0
LINE
  5
1906
  8
SAPA_PROFIL
 10
73.510769586607012
 20
121.9396370289207
 30
0.0
 11
75.000000071148179
 21
122.79944465005541
 31
0.0
  0
LINE
  5
1907
  8
SAPA_PROFIL
 10
75.000000071148179
 20
122.79944465005541
 30
0.0
 11
75.450000071147997
 21
122.7994566500558
 31
0.0
  0
ARC
  5
1908
  8
SAPA_PROFIL
 10
75.450000071147556
 20
122.49945665005519
 30
0.0
 40
0.3000000000006224
 50
359.99999999991041
 51
89.999999999915872
  0
LINE
  5
1909
  8
SAPA_PROFIL
 10
75.750000071148179
 20
122.4994566500547
 30
0.0
 11
75.750000071147724
 21
118.8994446500558
 31
0.0
  0
ARC
  5
190A
  8
SAPA_PROFIL
 10
75.450000071147315
 20
118.8994446500551
 30
0.0
 40
0.3000000000004093
 50
270.00000000013029
 51
0.0000000001302755
  0
LINE
  5
190B
  8
SAPA_PROFIL
 10
75.450000071147997
 20
118.59944465005471
 30
0.0
 11
75.000000071147724
 21
118.59944465005471
 31
0.0
  0
LINE
  5
190C
  8
SAPA_PROFIL
 10
75.000000071147724
 20
118.59944465005471
 30
0.0
 11
73.51073994007379
 21
119.459269387625
 31
0.0
  0
ARC
  5
190D
  8
SAPA_PROFIL
 10
73.360739940076243
 20
119.1994617664885
 30
0.0
 40
0.2999999999997262
 50
60.000000000510731
 51
89.996353133068567
  0
LINE
  5
190E
  8
SAPA_PROFIL
 10
73.360759035026831
 20
119.4994617658806
 30
0.0
 11
73.250000071148179
 21
119.4994688156723
 31
0.0
  0
LINE
  5
190F
  8
SAPA_PROFIL
 10
73.250000071148179
 20
119.4994688156723
 30
0.0
 11
73.250000071148634
 21
117.8777568135676
 31
0.0
  0
ARC
  5
1910
  8
SAPA_PROFIL
 10
74.250000071148307
 20
117.8777568135678
 30
0.0
 40
0.9999999999996732
 50
180.00000000000969
 51
240.0000000000108
  0
LINE
  5
1911
  8
SAPA_PROFIL
 10
73.750000071148634
 20
117.01173140978359
 30
0.0
 11
75.250000071148179
 21
116.1457060059995
 31
0.0
  0
ARC
  5
1912
  8
SAPA_PROFIL
 10
74.750000071148506
 20
115.27968060221519
 30
0.0
 40
0.9999999999996724
 50
0.0000000000097707
 51
60.0000000000108
  0
LINE
  5
1913
  8
SAPA_PROFIL
 10
75.750000071148179
 20
115.27968060221539
 30
0.0
 11
75.750000071148179
 21
114.71920869789869
 31
0.0
  0
ARC
  5
1914
  8
SAPA_PROFIL
 10
74.750000071148506
 20
114.71920869789879
 30
0.0
 40
0.9999999999996732
 50
299.9999999999892
 51
359.99999999999022
  0
LINE
  5
1915
  8
SAPA_PROFIL
 10
75.250000071148179
 20
113.8531832941146
 30
0.0
 11
73.750000071148634
 21
112.9871578903287
 31
0.0
  0
ARC
  5
1916
  8
SAPA_PROFIL
 10
74.250000071148065
 20
112.1211324865441
 30
0.0
 40
0.999999999999884
 50
119.99999999996621
 51
179.9999999999682
  0
LINE
  5
1917
  8
SAPA_PROFIL
 10
73.250000071148179
 20
112.1211324865446
 30
0.0
 11
73.250000071148179
 21
110.4994204844417
 31
0.0
  0
LINE
  5
1918
  8
SAPA_PROFIL
 10
73.250000071148179
 20
110.4994204844417
 30
0.0
 11
73.360759035026831
 21
110.4994275342317
 31
0.0
  0
ARC
  5
1919
  8
SAPA_PROFIL
 10
73.360739940072861
 20
110.79942753362459
 30
0.0
 40
0.3000000000006333
 50
270.0036468675774
 51
300.00000000013551
  0
LINE
  5
191A
  8
SAPA_PROFIL
 10
73.51073994007379
 20
110.5396199124891
 30
0.0
 11
75.000000071147724
 21
111.3994446500576
 31
0.0
  0
LINE
  5
191B
  8
SAPA_PROFIL
 10
75.000000071147724
 20
111.3994446500576
 30
0.0
 11
75.450000071147997
 21
111.39944465005939
 31
0.0
  0
ARC
  5
191C
  8
SAPA_PROFIL
 10
75.450000071147315
 20
111.099444650059
 30
0.0
 40
0.3000000000004093
 50
359.99999999986971
 51
89.999999999869729
  0
LINE
  5
191D
  8
SAPA_PROFIL
 10
75.750000071147724
 20
111.0994446500583
 30
0.0
 11
75.750000071148179
 21
107.4994326500593
 31
0.0
  0
ARC
  5
191E
  8
SAPA_PROFIL
 10
75.450000071147556
 20
107.49943265005891
 30
0.0
 40
0.3000000000006224
 50
270.00000000008413
 51
0.0000000000895644
  0
LINE
  5
191F
  8
SAPA_PROFIL
 10
75.450000071147997
 20
107.1994326500582
 30
0.0
 11
75.000000071148179
 21
107.19944465005869
 31
0.0
  0
LINE
  5
1920
  8
SAPA_PROFIL
 10
75.000000071148179
 20
107.19944465005869
 30
0.0
 11
73.510769586607012
 21
108.0592522711933
 31
0.0
  0
ARC
  5
1921
  8
SAPA_PROFIL
 10
73.360769586606423
 20
107.79944465005801
 30
0.0
 40
0.300000000000336
 50
59.99999999990731
 51
89.999999999905015
  0
LINE
  5
1922
  8
SAPA_PROFIL
 10
73.360769586606921
 20
108.0994446500583
 30
0.0
 11
72.774264139860179
 21
108.0994446500583
 31
0.0
  0
ARC
  5
1923
  8
SAPA_PROFIL
 10
72.774264139859284
 20
107.79944465005831
 30
0.0
 40
0.2999999999999687
 50
89.999999999829015
 51
134.99999999984641
  0
LINE
  5
1924
  8
SAPA_PROFIL
 10
72.562132105503906
 20
108.01157668441491
 30
0.0
 11
71.257082852335088
 21
106.7065274312456
 31
0.0
  0
ARC
  5
1925
  8
SAPA_PROFIL
 10
71.964189633521755
 20
105.99942065005899
 30
0.0
 40
1.0000000000000979
 50
135.00000000000401
 51
270.0
  0
LINE
  5
1926
  8
SAPA_PROFIL
 10
71.964189633521755
 20
104.99942065005889
 30
0.0
 11
75.550000071148816
 21
104.9994446500579
 31
0.0
  0
ARC
  5
1927
  8
SAPA_PROFIL
 10
75.750000071148406
 20
104.9994446500579
 30
0.0
 40
0.1999999999995907
 50
0.0
 51
180.0
  0
LINE
  5
1928
  8
SAPA_PROFIL
 10
75.950000071147997
 20
104.9994446500579
 30
0.0
 11
77.250000100697662
 21
104.9994446500579
 31
0.0
  0
ARC
  5
1929
  8
SAPA_PROFIL
 10
77.250000100553649
 20
105.9994446499141
 30
0.0
 40
0.9999999998561577
 50
270.00000000825128
 51
0.0000000084499959
  0
LINE
  5
192A
  8
SAPA_PROFIL
 10
78.250000100409807
 20
105.9994446500616
 30
0.0
 11
78.250000100409807
 21
106.9994446500579
 31
0.0
  0
ARC
  5
192B
  8
SAPA_PROFIL
 10
79.250000100409807
 20
106.9994446500579
 30
0.0
 40
1.0
 50
90.0
 51
180.0
  0
LINE
  5
192C
  8
SAPA_PROFIL
 10
79.250000100409807
 20
107.9994446500579
 30
0.0
 11
85.362929810370815
 21
107.9994446500579
 31
0.0
  0
ARC
  5
192D
  8
SAPA_PROFIL
 10
85.362929810371469
 20
106.99944465005839
 30
0.0
 40
0.9999999999995168
 50
25.000000000305299
 51
90.00000000003746
  0
LINE
  5
192E
  8
SAPA_PROFIL
 10
86.269237597405436
 20
107.42206291180381
 30
0.0
 11
88.062300835752694
 21
103.5768263883048
 31
0.0
  0
ARC
  5
192F
  8
SAPA_PROFIL
 10
88.968608622788082
 20
103.9994446500493
 30
0.0
 40
1.000000000000427
 50
205.00000000022371
 51
269.999999999956
  0
LINE
  5
1930
  8
SAPA_PROFIL
 10
88.968608622787315
 20
102.9994446500488
 30
0.0
 11
92.017354096115696
 21
102.9994446500488
 31
0.0
  0
ARC
  5
1931
  8
SAPA_PROFIL
 10
92.017354096115554
 20
103.1994446500496
 30
0.0
 40
0.2000000000007844
 50
270.00000000003661
 51
29.109908940462709
  0
ARC
  5
1932
  8
SAPA_PROFIL
 10
95.250000071148435
 20
104.9994446500809
 30
0.0
 40
3.5000000000004081
 50
184.91710033604321
 51
209.1099089404201
  0
LINE
  5
1933
  8
SAPA_PROFIL
 10
91.762880916318181
 20
104.6994446500496
 30
0.0
 11
90.500000071148165
 21
104.6994446500496
 31
0.0
  0
ARC
  5
1934
  8
SAPA_PROFIL
 10
90.500000071148165
 20
105.1994446500496
 30
0.0
 40
0.5
 50
180.0
 51
270.0
  0
LINE
  5
1935
  8
SAPA_PROFIL
 10
90.000000071148179
 20
105.1994446500496
 30
0.0
 11
90.000000071148179
 21
107.4994446500579
 31
0.0
  0
ARC
  5
1936
  8
SAPA_PROFIL
 10
90.500000071148165
 20
107.4994446500579
 30
0.0
 40
0.5
 50
90.0
 51
180.0
  0
LINE
  5
1937
  8
SAPA_PROFIL
 10
90.500000071148165
 20
107.9994446500579
 30
0.0
 11
93.447224433379461
 21
107.9994446500579
 31
0.0
  0
ARC
  5
1938
  8
SAPA_PROFIL
 10
95.250000071147966
 20
104.99944465007989
 30
0.0
 40
3.4999999999999671
 50
58.997280865428657
 51
121.00271913457129
  0
LINE
  5
1939
  8
SAPA_PROFIL
 10
97.052775708916457
 20
107.9994446500579
 30
0.0
 11
103.4472244333794
 21
107.9994446500579
 31
0.0
  0
ARC
  5
193A
  8
SAPA_PROFIL
 10
105.25000007114789
 20
104.99944465007989
 30
0.0
 40
3.4999999999999671
 50
58.997280865428657
 51
121.00271913457129
  0
LINE
  5
193B
  8
SAPA_PROFIL
 10
107.0527757089164
 20
107.9994446500579
 30
0.0
 11
110.00000007114819
 21
107.9994446500579
 31
0.0
  0
ARC
  5
193C
  8
SAPA_PROFIL
 10
110.00000007114819
 20
107.4994446500579
 30
0.0
 40
0.5
 50
0.0
 51
90.0
  0
LINE
  5
193D
  8
SAPA_PROFIL
 10
110.50000007114809
 20
107.4994446500579
 30
0.0
 11
110.50000007114809
 21
105.1994446500496
 31
0.0
  0
ARC
  5
193E
  8
SAPA_PROFIL
 10
110.00000007114819
 20
105.1994446500496
 30
0.0
 40
0.5
 50
270.0
 51
0.0
  0
ARC
  5
193F
  8
SAPA_PROFIL
 62
     4
 10
73.374166918408903
 20
119.2494446825622
 30
0.0
 40
0.3000000000003382
 50
59.99999999990731
 51
89.999999999905015
  0
LINE
  5
1940
  8
SAPA_PROFIL
 62
     4
 10
73.524166918409492
 20
119.50925230369759
 30
0.0
 11
75.013397459254733
 21
118.6494446500558
 31
0.0
  0
LINE
  5
1941
  8
SAPA_PROFIL
 62
     4
 10
75.013397459254733
 20
118.6494446500558
 30
0.0
 11
75.449999999633064
 21
118.6494446500558
 31
0.0
  0
ARC
  5
1942
  8
SAPA_PROFIL
 62
     4
 10
75.449999999633064
 20
118.8994446500558
 30
0.0
 40
0.25
 50
270.0
 51
0.0
  0
LINE
  5
1943
  8
SAPA_PROFIL
 62
     4
 10
75.699999999633064
 20
118.8994446500558
 30
0.0
 11
75.699999999633519
 21
122.4994566500547
 31
0.0
  0
ARC
  5
1944
  8
SAPA_PROFIL
 62
     4
 10
75.449999999633505
 20
122.4994566500547
 30
0.0
 40
0.25
 50
0.0
 51
90.0
  0
LINE
  5
1945
  8
SAPA_PROFIL
 62
     4
 10
75.449999999633505
 20
122.7494566500547
 30
0.0
 11
75.013398078054934
 21
122.7494450073202
 31
0.0
  0
LINE
  5
1946
  8
SAPA_PROFIL
 62
     4
 10
75.013398078054934
 20
122.7494450073202
 30
0.0
 11
73.524167031017214
 21
121.8896370614268
 31
0.0
  0
ARC
  5
1947
  8
SAPA_PROFIL
 62
     4
 10
73.37416703101664
 20
122.14944468256211
 30
0.0
 40
0.3000000000002551
 50
270.0000000000922
 51
300.00000000009851
  0
LINE
  5
1948
  8
SAPA_PROFIL
 62
     4
 10
73.374167031017123
 20
121.8494446825618
 30
0.0
 11
50.125833039765659
 21
121.8494446825618
 31
0.0
  0
ARC
  5
1949
  8
SAPA_PROFIL
 62
     4
 10
50.125833039766142
 20
122.14944468256211
 30
0.0
 40
0.3000000000002529
 50
239.99999999990271
 51
269.99999999990911
  0
LINE
  5
194A
  8
SAPA_PROFIL
 62
     4
 10
49.975833039765583
 20
121.8896370614268
 30
0.0
 11
48.486601992727849
 21
122.7494450073202
 31
0.0
  0
LINE
  5
194B
  8
SAPA_PROFIL
 62
     4
 10
48.486601992727849
 20
122.7494450073202
 30
0.0
 11
48.050000071149732
 21
122.7494566500547
 31
0.0
  0
ARC
  5
194C
  8
SAPA_PROFIL
 62
     4
 10
48.050000071149718
 20
122.4994566500547
 30
0.0
 40
0.25
 50
89.999999999998366
 51
180.0
  0
LINE
  5
194D
  8
SAPA_PROFIL
 62
     4
 10
47.800000071149718
 20
122.4994566500547
 30
0.0
 11
47.800000071149718
 21
118.8994446500558
 31
0.0
  0
ARC
  5
194E
  8
SAPA_PROFIL
 62
     4
 10
48.050000071149732
 20
118.8994446500558
 30
0.0
 40
0.25
 50
180.0
 51
270.0
  0
LINE
  5
194F
  8
SAPA_PROFIL
 62
     4
 10
48.050000071149732
 20
118.6494446500558
 30
0.0
 11
48.486602611528042
 21
118.6494446500558
 31
0.0
  0
LINE
  5
1950
  8
SAPA_PROFIL
 62
     4
 10
48.486602611528042
 20
118.6494446500558
 30
0.0
 11
49.975833152373298
 21
119.50925230369759
 31
0.0
  0
ARC
  5
1951
  8
SAPA_PROFIL
 62
     4
 10
50.125833152373893
 20
119.2494446825622
 30
0.0
 40
0.3000000000003395
 50
90.000000000096335
 51
120.00000000009381
  0
LINE
  5
1952
  8
SAPA_PROFIL
 62
     4
 10
50.125833152373389
 20
119.54944468256259
 30
0.0
 11
73.374166918409401
 21
119.54944468256259
 31
0.0
  0
DIMENSION
  5
196E
  8
SAPA_MATT
  2
*D14
 10
131.75000007113391
 20
20.999444650057971
 30
0.0
 11
134.2500000711409
 21
20.999444650057971
 31
0.0
 70
   128
 13
136.75000007114781
 23
66.999444650057967
 33
0.0
 14
131.75000007113391
 24
65.499444650056148
 34
0.0
 50
180.0
1001
ACAD
1000
DSTYLE
1002
{
1070
    40
1040
1.0
1002
}
  0
DIMENSION
  5
196F
  8
SAPA_MATT
  2
*D13
 10
68.750000071428644
 20
20.999444650057971
 30
0.0
 11
100.2500000712882
 21
23.499444650057971
 31
0.0
 70
     0
 13
131.7500000711477
 23
65.499444650056148
 33
0.0
 14
68.750000071428644
 24
65.667448112057173
 34
0.0
 50
180.0
1001
ACAD
1000
DSTYLE
1002
{
1070
   287
1070
     4
1070
    40
1040
1.0
1070
   279
1070
     1
1002
}
  0
DIMENSION
  5
1970
  8
SAPA_MATT
  2
*D12
 10
-13.24999992885046
 20
20.999444650057971
 30
0.0
 11
23.392264849625921
 21
21.759957798868069
 31
0.0
 70
   128
 13
68.750000071428644
 23
65.667448112057173
 33
0.0
 14
-13.24999992885045
 24
66.999444650057967
 34
0.0
 50
180.0
1001
ACAD
1000
DSTYLE
1002
{
1070
   287
1070
     4
1070
    40
1040
1.0
1070
   279
1070
     1
1002
}
  0
DIMENSION
  5
1971
  8
SAPA_MATT
  2
*D11
 10
-13.24999992885046
 20
8.999444650057967
 30
0.0
 11
61.750000071148641
 21
8.999444650057967
 31
0.0
 70
   128
 13
136.75000007114781
 23
66.999444650057967
 33
0.0
 14
-13.24999992885045
 24
66.999444650057967
 34
0.0
 50
180.0
1001
ACAD
1000
DSTYLE
1002
{
1070
    40
1040
1.0
1002
}
  0
DIMENSION
  5
1972
  8
SAPA_MATT
  2
*D10
 10
166.2500000711681
 20
59.999444650057498
 30
0.0
 11
163.75000007116799
 21
62.499444650057761
 31
0.0
 70
     0
 13
134.7500000711477
 23
64.999444650057967
 33
0.0
 14
127.20000007166431
 24
59.999444650057512
 34
0.0
 50
270.0
1001
ACAD
1000
DSTYLE
1002
{
1070
   287
1070
     4
1070
    40
1040
1.0
1070
   279
1070
     1
1002
}
  0
DIMENSION
  5
1973
  8
SAPA_MATT
  2
*D9
 10
166.2499999994206
 20
64.999444650057953
 30
0.0
 11
163.7499999994206
 21
94.999444650057072
 31
0.0
 70
     0
 13
136.4500000711426
 23
124.99944465005611
 33
0.0
 14
134.75000007114781
 24
64.999444650057967
 34
0.0
 50
270.0
1001
ACAD
1000
DSTYLE
1002
{
1070
    40
1040
1.0
1002
}
  0
DIMENSION
  5
1974
  8
SAPA_MATT
  2
*D8
 10
178.2499999994206
 20
124.99944465005611
 30
0.0
 11
175.7499999994206
 21
92.499444650056844
 31
0.0
 70
     0
 13
127.20000007166431
 23
59.999444650057512
 33
0.0
 14
136.4500000711426
 24
124.99944465005611
 34
0.0
 50
270.0
1001
ACAD
1000
DSTYLE
1002
{
1070
    40
1040
1.0
1002
}
  0
VIEWPORT
  5
C4
 67
     1
  8
0
 10
160.5543545598442
 20
116.00969601843509
 30
0.0
 40
404.96977709277462
 41
256.8421457311839
 68
     1
 69
     1
1001
ACAD
1000
MVIEW
1002
{
1070
    16
1010
0.0
1020
0.0
1030
0.0
1010
0.0
1020
0.0
1030
1.0
1040
0.0
1040
256.8421457311839
1040
160.5543545598442
1040
116.00969601843509
1040
50.0
1040
0.0
1040
0.0
1070
     0
1070
   100
1070
     1
1070
     1
1070
     0
1070
     0
1070
     0
1070
     0
1040
0.0
1040
0.0
1040
0.0
1040
10.0
1040
10.0
1040
10.0
1040
10.0
1070
     0
1002
{
1002
}
1002
}
  0
ENDSEC
  0
EOF
