  0
SECTION
  2
HEADER
  9
$ACADVER
  1
AC1009
  9
$INSBASE
 10
0.0
 20
0.0
 30
0.0
  9
$EXTMIN
 10
-60.249999785608921
 20
7.499444650057967
 30
-0.2
  9
$EXTMAX
 10
191.75325600592711
 20
140.0000000000004
 30
0.0000000048844772
  9
$LIMMIN
 10
0.0
 20
0.0
  9
$LIMMAX
 10
790.0
 20
790.0
  9
$ORTHOMODE
 70
     0
  9
$REGENMODE
 70
     1
  9
$FILLMODE
 70
     1
  9
$QTEXTMODE
 70
     0
  9
$MIRRTEXT
 70
     1
  9
$DRAGMODE
 70
     2
  9
$LTSCALE
 40
4.0
  9
$OSMODE
 70
   167
  9
$ATTMODE
 70
     1
  9
$TEXTSIZE
 40
3.5
  9
$TRACEWID
 40
0.05
  9
$TEXTSTYLE
  7
ISO
  9
$CLAYER
  8
0
  9
$CELTYPE
  6
BYLAYER
  9
$CECOLOR
 62
   256
  9
$DIMSCALE
 40
0.0
  9
$DIMASZ
 40
3.0
  9
$DIMEXO
 40
1.5
  9
$DIMDLI
 40
10.0
  9
$DIMRND
 40
0.0
  9
$DIMDLE
 40
0.0
  9
$DIMEXE
 40
1.5
  9
$DIMTP
 40
0.0
  9
$DIMTM
 40
0.0
  9
$DIMTXT
 40
3.0
  9
$DIMCEN
 40
-5.0
  9
$DIMTSZ
 40
0.0
  9
$DIMTOL
 70
     0
  9
$DIMLIM
 70
     0
  9
$DIMTIH
 70
     0
  9
$DIMTOH
 70
     0
  9
$DIMSE1
 70
     0
  9
$DIMSE2
 70
     0
  9
$DIMTAD
 70
     1
  9
$DIMZIN
 70
     8
  9
$DIMBLK
  1

  9
$DIMASO
 70
     1
  9
$DIMSHO
 70
     1
  9
$DIMPOST
  1

  9
$DIMAPOST
  1

  9
$DIMALT
 70
     0
  9
$DIMALTD
 70
     0
  9
$DIMALTF
 40
25.399999999999999
  9
$DIMLFAC
 40
-1.0
  9
$DIMTOFL
 70
     1
  9
$DIMTVP
 40
0.0
  9
$DIMTIX
 70
     0
  9
$DIMSOXD
 70
     0
  9
$DIMSAH
 70
     0
  9
$DIMBLK1
  1

  9
$DIMBLK2
  1

  9
$DIMSTYLE
  2
MASKIN
  9
$DIMCLRD
 70
   256
  9
$DIMCLRE
 70
   256
  9
$DIMCLRT
 70
     2
  9
$DIMTFAC
 40
1.0
  9
$DIMGAP
 40
1.0
  9
$LUNITS
 70
     2
  9
$LUPREC
 70
     8
  9
$SKETCHINC
 40
0.1
  9
$FILLETRAD
 40
0.0
  9
$AUNITS
 70
     0
  9
$AUPREC
 70
     8
  9
$MENU
  1
ACAD
  9
$ELEVATION
 40
0.0
  9
$PELEVATION
 40
0.0
  9
$THICKNESS
 40
0.0
  9
$LIMCHECK
 70
     0
  9
$BLIPMODE
 70
     0
  9
$CHAMFERA
 40
0.0
  9
$CHAMFERB
 40
0.0
  9
$SKPOLY
 70
     0
  9
$TDCREATE
 40
2458299.4382186462
  9
$TDUPDATE
 40
2458302.633957766
  9
$TDINDWG
 40
0.0772696528
  9
$TDUSRTIMER
 40
0.0772694213
  9
$USRTIMER
 70
     1
  9
$ANGBASE
 50
0.0
  9
$ANGDIR
 70
     0
  9
$PDMODE
 70
     0
  9
$PDSIZE
 40
0.0
  9
$PLINEWID
 40
0.0
  9
$COORDS
 70
     1
  9
$SPLFRAME
 70
     0
  9
$SPLINETYPE
 70
     6
  9
$SPLINESEGS
 70
     8
  9
$ATTDIA
 70
     1
  9
$ATTREQ
 70
     1
  9
$HANDLING
 70
     1
  9
$HANDSEED
  5
1F55
  9
$SURFTAB1
 70
     6
  9
$SURFTAB2
 70
     6
  9
$SURFTYPE
 70
     6
  9
$SURFU
 70
     6
  9
$SURFV
 70
     6
  9
$UCSNAME
  2

  9
$UCSORG
 10
0.0
 20
0.0
 30
0.0
  9
$UCSXDIR
 10
1.0
 20
0.0
 30
0.0
  9
$UCSYDIR
 10
0.0
 20
1.0
 30
0.0
  9
$PUCSNAME
  2

  9
$PUCSORG
 10
0.0
 20
0.0
 30
0.0
  9
$PUCSXDIR
 10
1.0
 20
0.0
 30
0.0
  9
$PUCSYDIR
 10
0.0
 20
1.0
 30
0.0
  9
$USERI1
 70
     0
  9
$USERI2
 70
     0
  9
$USERI3
 70
     0
  9
$USERI4
 70
     0
  9
$USERI5
 70
     0
  9
$USERR1
 40
0.0
  9
$USERR2
 40
0.0
  9
$USERR3
 40
0.0
  9
$USERR4
 40
0.0
  9
$USERR5
 40
0.0
  9
$WORLDVIEW
 70
     1
  9
$SHADEDGE
 70
     3
  9
$SHADEDIF
 70
    70
  9
$TILEMODE
 70
     1
  9
$MAXACTVP
 70
    32
  9
$PLIMCHECK
 70
     0
  9
$PEXTMIN
 10
1.0000000000000000E+020
 20
1.0000000000000000E+020
 30
1.0000000000000000E+020
  9
$PEXTMAX
 10
-1.0000000000000000E+020
 20
-1.0000000000000000E+020
 30
-1.0000000000000000E+020
  9
$PLIMMIN
 10
-5.069427490234375
 20
-5.8737497329711914
  9
$PLIMMAX
 10
291.89889526367187
 20
204.0995779037475
  9
$UNITMODE
 70
     0
  9
$VISRETAIN
 70
     1
  9
$PLINEGEN
 70
     0
  9
$PSLTSCALE
 70
     1
  0
ENDSEC
  0
SECTION
  2
TABLES
  0
TABLE
  2
VPORT
 70
     1
  0
VPORT
  2
*ACTIVE
 70
     0
 10
0.0
 20
0.0
 11
1.0
 21
1.0
 12
65.749665230408525
 22
142.65007072497369
 13
0.0
 23
0.0
 14
1.0
 24
1.0
 15
0.0
 25
0.0
 16
0.0
 26
0.0
 36
1.0
 17
0.0
 27
0.0
 37
0.0
 40
188.48697957710721
 41
1.7265193370165739
 42
50.0
 43
0.0
 44
0.0
 50
0.0
 51
0.0
 71
     0
 72
   100
 73
     1
 74
     1
 75
     0
 76
     0
 77
     0
 78
     0
  0
ENDTAB
  0
TABLE
  2
LTYPE
 70
     1
  0
LTYPE
  2
CONTINUOUS
 70
     0
  3
Solid line
 72
    65
 73
     0
 40
0.0
  0
ENDTAB
  0
TABLE
  2
LAYER
 70
    23
  0
LAYER
  2
0
 70
     0
 62
     7
  6
CONTINUOUS
  0
LAYER
  2
DEFPOINTS
 70
     0
 62
     7
  6
CONTINUOUS
  0
LAYER
  2
SAPA_ARTIKELNR
 70
     0
 62
     4
  6
CONTINUOUS
  0
LAYER
  2
SAPA_ANSLUTNING
 70
     0
 62
     6
  6
CONTINUOUS
  0
LAYER
  2
SAPA_GLAS
 70
     0
 62
     4
  6
CONTINUOUS
  0
LAYER
  2
SAPA_FOGBAND
 70
     0
 62
     2
  6
CONTINUOUS
  0
LAYER
  2
SAPA_PROFIL
 70
     0
 62
     7
  6
CONTINUOUS
  0
LAYER
  2
SAPA_MATT
 70
     0
 62
     1
  6
CONTINUOUS
  0
ENDTAB
  0
TABLE
  2
STYLE
 70
     2
  0
STYLE
  2
STANDARD
 70
     0
 40
0.0
 41
1.0
 50
0.0
 71
     0
 42
0.2
  3
txt
  4

  0
STYLE
  2
ISO
 70
     0
 40
0.0
 41
1.0
 50
0.0
 71
     0
 42
3.5
  3
txt
  4

  0
ENDTAB
  0
TABLE
  2
VIEW
 70
     0
  0
ENDTAB
  0
TABLE
  2
UCS
 70
     0
  0
ENDTAB
  0
TABLE
  2
APPID
 70
    22
  0
APPID
  2
ACAD
 70
     0
  0
APPID
  2
ACAD_DSTYLE_DIMTEXT_FILL
 70
     0
  0
APPID
  2
ACAD_DSTYLE_DIMEXT_LENGTH
 70
     0
  0
APPID
  2
ACAD_DSTYLE_DIMEXT_ENABLED
 70
     0
  0
APPID
  2
ACAD_DSTYLE_DIM_LINETYPE
 70
     0
  0
APPID
  2
ACAD_DSTYLE_DIM_EXT1_LINETYPE
 70
     0
  0
APPID
  2
ACAD_DSTYLE_DIM_EXT2_LINETYPE
 70
     0
  0
APPID
  2
ACAD_DSTYLE_DIMJOGGED_JOGA
 70
     0
  0
APPID
  2
ACAD_DSTYLE_DIMARC_LENGTH_
 70
     0
  0
APPID
  2
ACAD_PSEXT
 70
     0
  0
APPID
  2
ACAD_MLEADERVER
 70
     0
  0
APPID
  2
ACAD_NAV_VCDISPLAY
 70
     0
  0
APPID
  2
GENIUS_GENODEF_13
 70
     0
  0
APPID
  2
RC_PROFILE
 70
     0
  0
APPID
  2
ACAECLAYERSTANDARD
 70
     0
  0
APPID
  2
GENIUS_GENOBJ-N-FIL_13
 70
     0
  0
APPID
  2
GENIUS_GENREC_14
 70
     0
  0
APPID
  2
GENIUS_GENOBJ-N-REC_13
 70
     0
  0
APPID
  2
ACCMTRANSPARENCY
 70
     0
  0
APPID
  2
GRADIENTCOLOR1ACI
 70
     0
  0
APPID
  2
GRADIENTCOLOR2ACI
 70
     0
  0
APPID
  2
ACAD_EXEMPT_FROM_CAD_STANDARDS
 70
     0
  0
ENDTAB
  0
TABLE
  2
DIMSTYLE
 70
     2
  0
DIMSTYLE
  2
STANDARD
 70
     0
  3

  4

  5

  6

  7

 40
1.0
 41
0.18
 42
0.0625
 43
0.38
 44
0.18
 45
0.0
 46
0.0
 47
0.0
 48
0.0
140
0.18
141
0.09
142
0.0
143
25.399999999999999
144
1.0
145
0.0
146
1.0
147
0.09
 71
     0
 72
     0
 73
     1
 74
     1
 75
     0
 76
     0
 77
     0
 78
     0
170
     0
171
     2
172
     0
173
     0
174
     0
175
     0
176
     0
177
     0
178
     0
  0
DIMSTYLE
  2
MASKIN
 70
     0
  3

  4

  5

  6

  7

 40
0.0
 41
3.0
 42
1.5
 43
10.0
 44
1.5
 45
0.0
 46
0.0
 47
0.0
 48
0.0
140
3.0
141
-5.0
142
0.0
143
25.399999999999999
144
-1.0
145
0.0
146
1.0
147
1.0
 71
     0
 72
     0
 73
     0
 74
     0
 75
     0
 76
     0
 77
     1
 78
     8
170
     0
171
     0
172
     1
173
     0
174
     0
175
     0
176
   256
177
   256
178
     2
  0
ENDTAB
  0
ENDSEC
  0
SECTION
  2
BLOCKS
  0
BLOCK
  8
0
  2
$MODEL_SPACE
 70
     0
 10
0.0
 20
0.0
 30
0.0
  3
$MODEL_SPACE
  1

  0
ENDBLK
  5
37
  8
0
  0
BLOCK
 67
     1
  8
0
  2
$PAPER_SPACE
 70
     0
 10
0.0
 20
0.0
 30
0.0
  3
$PAPER_SPACE
  1

  0
ENDBLK
  5
35
 67
     1
  8
0
  0
BLOCK
  8
0
  2
*D8
 70
     1
 10
0.0
 20
0.0
 30
0.0
  3
*D8
  1

  0
LINE
  5
1D4A
  8
SAPA_MATT
 10
136.75000007114789
 20
65.499444650057967
 30
0.0
 11
136.75000007114789
 21
7.499444650057967
 31
0.0
  0
LINE
  5
1D4B
  8
SAPA_MATT
 10
-13.24999992885045
 20
65.499444650057967
 30
0.0
 11
-13.24999992885046
 21
7.499444650057967
 31
0.0
  0
LINE
  5
1D4C
  8
SAPA_MATT
 10
133.75000007114789
 20
8.999444650057967
 30
0.0
 11
-10.24999992885046
 21
8.999444650057967
 31
0.0
  0
SOLID
  5
1D4D
  8
SAPA_MATT
 10
133.75000007114789
 20
9.499444650057967
 30
0.0
 11
133.75000007114789
 21
8.499444650057967
 31
0.0
 12
136.75000007114789
 22
8.999444650057967
 32
0.0
 13
136.75000007114789
 23
8.999444650057967
 33
0.0
  0
SOLID
  5
1D4E
  8
SAPA_MATT
 10
-10.24999992885046
 20
9.499444650057967
 30
0.0
 11
-10.24999992885046
 21
8.499444650057967
 31
0.0
 12
-13.24999992885046
 22
8.999444650057967
 32
0.0
 13
-13.24999992885046
 23
8.999444650057967
 33
0.0
  0
INSERT
  5
1D4F
  8
0
  2
*U20
 10
0.0
 20
0.0
 30
0.0
  0
POINT
  5
1D50
  8
DEFPOINTS
 62
     0
 10
136.75000007114789
 20
66.999444650057967
 30
0.0
  0
POINT
  5
1D51
  8
DEFPOINTS
 62
     0
 10
-13.24999992885045
 20
66.999444650057967
 30
0.0
  0
POINT
  5
1D52
  8
DEFPOINTS
 62
     0
 10
-13.24999992885046
 20
8.999444650057967
 30
0.0
  0
ENDBLK
  5
1CBA
  8
0
  0
BLOCK
  8
0
  2
*D9
 70
     1
 10
0.0
 20
0.0
 30
0.0
  3
*D9
  1

  0
LINE
  5
1EB7
  8
SAPA_MATT
 10
54.750000142383222
 20
64.167448112057173
 30
0.0
 11
54.750000142383222
 21
19.499444650057971
 31
0.0
  0
LINE
  5
1EB8
  8
SAPA_MATT
 10
136.7500001426622
 20
65.499444650057967
 30
0.0
 11
136.7500001426622
 21
19.499444650057971
 31
0.0
  0
LINE
  5
1EB9
  8
SAPA_MATT
 10
57.750000142383207
 20
20.999444650057971
 30
0.0
 11
133.7500001426622
 21
20.999444650057971
 31
0.0
  0
TEXT
  8
SAPA_MATT
  40
3
  5
1ED0
  62
2
  72
0
  71
0
 10
94.1077
 20
18.9500
 30
0.000000
  1
82
  7
ISO
  0
SOLID
  5
1EBB
  8
SAPA_MATT
 10
57.750000142383207
 20
21.499444650057971
 30
0.0
 11
57.750000142383207
 21
20.499444650057971
 31
0.0
 12
54.750000142383222
 22
20.999444650057971
 32
0.0
 13
54.750000142383222
 23
20.999444650057971
 33
0.0
  0
SOLID
  5
1EBC
  8
SAPA_MATT
 10
133.7500001426622
 20
21.499444650057971
 30
0.0
 11
133.7500001426622
 21
20.499444650057971
 31
0.0
 12
136.7500001426622
 22
20.999444650057971
 32
0.0
 13
136.7500001426622
 23
20.999444650057971
 33
0.0
  0
POINT
  5
1EBD
  8
DEFPOINTS
 62
     0
 10
54.750000142383222
 20
65.667448112057173
 30
0.0
  0
POINT
  5
1EBE
  8
DEFPOINTS
 62
     0
 10
136.7500001426622
 20
66.999444650057967
 30
0.0
  0
POINT
  5
1EBF
  8
DEFPOINTS
 62
     0
 10
136.7500001426622
 20
20.999444650057971
 30
0.0
  0
ENDBLK
  5
1CC6
  8
0
  0
BLOCK
  8
0
  2
*D10
 70
     1
 10
0.0
 20
0.0
 30
0.0
  3
*D10
  1

  0
LINE
  5
1EAE
  8
SAPA_MATT
 10
-8.2499998573359772
 20
63.999444650056141
 30
0.0
 11
-8.2499998573359825
 21
19.499444650057971
 31
0.0
  0
LINE
  5
1EAF
  8
SAPA_MATT
 10
54.750000142383222
 20
64.167448112057173
 30
0.0
 11
54.750000142383222
 21
19.499444650057971
 31
0.0
  0
LINE
  5
1EB0
  8
SAPA_MATT
 10
-5.2499998573359816
 20
20.999444650057971
 30
0.0
 11
51.750000142383207
 21
20.999444650057971
 31
0.0
  0
SOLID
  5
1EB1
  8
SAPA_MATT
 10
-5.2499998573359816
 20
21.499444650057971
 30
0.0
 11
-5.2499998573359816
 21
20.499444650057971
 31
0.0
 12
-8.2499998573359825
 22
20.999444650057971
 32
0.0
 13
-8.2499998573359825
 23
20.999444650057971
 33
0.0
  0
SOLID
  5
1EB2
  8
SAPA_MATT
 10
51.750000142383207
 20
21.499444650057971
 30
0.0
 11
51.750000142383207
 21
20.499444650057971
 31
0.0
 12
54.750000142383222
 22
20.999444650057971
 32
0.0
 13
54.750000142383222
 23
20.999444650057971
 33
0.0
  0
TEXT
  8
SAPA_MATT
  40
3
  5
1ED1
  62
2
  72
0
  71
0
 10
17.2500
 20
18.1894
 30
0.000000
  1
63
  7
ISO
  0
POINT
  5
1EB4
  8
DEFPOINTS
 62
     0
 10
-8.2499998573359772
 20
65.499444650056148
 30
0.0
  0
POINT
  5
1EB5
  8
DEFPOINTS
 62
     0
 10
54.750000142383222
 20
65.667448112057173
 30
0.0
  0
POINT
  5
1EB6
  8
DEFPOINTS
 62
     0
 10
54.750000142383222
 20
20.999444650057971
 30
0.0
  0
ENDBLK
  5
1CD2
  8
0
  0
BLOCK
  8
0
  2
*D11
 70
     1
 10
0.0
 20
0.0
 30
0.0
  3
*D11
  1

  0
LINE
  5
1D2F
  8
SAPA_MATT
 10
-5.1999998578526174
 20
59.999444650057512
 30
0.0
 11
-56.249999785608921
 21
59.999444650057526
 31
0.0
  0
LINE
  5
1D30
  8
SAPA_MATT
 10
-14.44999985733102
 20
124.99944465005611
 30
0.0
 11
-56.2499997856089
 21
124.99944465005611
 31
0.0
  0
LINE
  5
1D31
  8
SAPA_MATT
 10
-54.749999785608921
 20
62.999444650057526
 30
0.0
 11
-54.749999785608907
 21
121.99944465005611
 31
0.0
  0
SOLID
  5
1D32
  8
SAPA_MATT
 10
-55.249999785608921
 20
62.999444650057526
 30
0.0
 11
-54.249999785608921
 21
62.999444650057526
 31
0.0
 12
-54.749999785608921
 22
59.999444650057526
 32
0.0
 13
-54.749999785608921
 23
59.999444650057526
 33
0.0
  0
SOLID
  5
1D33
  8
SAPA_MATT
 10
-55.249999785608907
 20
121.99944465005611
 30
0.0
 11
-54.2499997856089
 21
121.99944465005611
 31
0.0
 12
-54.749999785608907
 22
124.99944465005611
 32
0.0
 13
-54.749999785608907
 23
124.99944465005611
 33
0.0
  0
INSERT
  5
1D34
  8
0
  2
*U19
 10
0.0
 20
0.0
 30
0.0
  0
POINT
  5
1D35
  8
DEFPOINTS
 62
     0
 10
-3.699999857852617
 20
59.999444650057512
 30
0.0
  0
POINT
  5
1D36
  8
DEFPOINTS
 62
     0
 10
-12.94999985733102
 20
124.99944465005611
 30
0.0
  0
POINT
  5
1D37
  8
DEFPOINTS
 62
     0
 10
-54.749999785608907
 20
124.99944465005611
 30
0.0
  0
ENDBLK
  5
1CDE
  8
0
  0
BLOCK
  8
0
  2
*D12
 70
     1
 10
0.0
 20
0.0
 30
0.0
  3
*D12
  1

  0
LINE
  5
1D26
  8
SAPA_MATT
 10
-14.44999985733102
 20
124.99944465005611
 30
0.0
 11
-44.249999785608892
 21
124.99944465005611
 31
0.0
  0
LINE
  5
1D27
  8
SAPA_MATT
 10
-12.749999857336199
 20
64.999444650057967
 30
0.0
 11
-44.2499997856089
 21
64.999444650057981
 31
0.0
  0
LINE
  5
1D28
  8
SAPA_MATT
 10
-42.749999785608892
 20
121.99944465005611
 30
0.0
 11
-42.749999785608907
 21
67.999444650057981
 31
0.0
  0
SOLID
  5
1D29
  8
SAPA_MATT
 10
-43.249999785608892
 20
121.99944465005611
 30
0.0
 11
-42.249999785608892
 21
121.99944465005611
 31
0.0
 12
-42.749999785608892
 22
124.99944465005611
 32
0.0
 13
-42.749999785608892
 23
124.99944465005611
 33
0.0
  0
SOLID
  5
1D2A
  8
SAPA_MATT
 10
-43.249999785608907
 20
67.999444650057981
 30
0.0
 11
-42.2499997856089
 21
67.999444650057981
 31
0.0
 12
-42.749999785608907
 22
64.999444650057981
 32
0.0
 13
-42.749999785608907
 23
64.999444650057981
 33
0.0
  0
INSERT
  5
1D2B
  8
0
  2
*U18
 10
0.0
 20
0.0
 30
0.0
  0
POINT
  5
1D2C
  8
DEFPOINTS
 62
     0
 10
-12.94999985733102
 20
124.99944465005611
 30
0.0
  0
POINT
  5
1D2D
  8
DEFPOINTS
 62
     0
 10
-11.249999857336199
 20
64.999444650057967
 30
0.0
  0
POINT
  5
1D2E
  8
DEFPOINTS
 62
     0
 10
-42.749999785608907
 20
64.999444650057981
 30
0.0
  0
ENDBLK
  5
1CEA
  8
0
  0
BLOCK
  8
0
  2
*D13
 70
     1
 10
0.0
 20
0.0
 30
0.0
  3
*D13
  1

  0
LINE
  5
1EA3
  8
SAPA_MATT
 10
-12.749999857335981
 20
64.999444650057967
 30
0.0
 11
-44.249999857356208
 21
64.999444650057981
 31
0.0
  0
LINE
  5
1EA4
  8
SAPA_MATT
 10
-5.1999998578526174
 20
59.999444650057512
 30
0.0
 11
-44.249999857356208
 21
59.999444650057519
 31
0.0
  0
LINE
  5
1EA5
  8
SAPA_MATT
 10
-42.749999857356208
 20
67.999444650057981
 30
0.0
 11
-42.749999857356208
 21
70.999444650057981
 31
0.0
  0
LINE
  5
1EA6
  8
SAPA_MATT
 10
-42.749999857356208
 20
56.999444650057519
 30
0.0
 11
-42.749999857356208
 21
53.999444650057519
 31
0.0
  0
LINE
  5
1EA7
  8
SAPA_MATT
 10
-42.749999857356208
 20
64.999444650057981
 30
0.0
 11
-42.749999857356208
 21
59.999444650057519
 31
0.0
  0
SOLID
  5
1EA8
  8
SAPA_MATT
 10
-43.249999857356222
 20
67.999444650057981
 30
0.0
 11
-42.249999857356208
 21
67.999444650057981
 31
0.0
 12
-42.749999857356208
 22
64.999444650057981
 32
0.0
 13
-42.749999857356208
 23
64.999444650057981
 33
0.0
  0
SOLID
  5
1EA9
  8
SAPA_MATT
 10
-43.249999857356222
 20
56.999444650057519
 30
0.0
 11
-42.249999857356208
 21
56.999444650057519
 31
0.0
 12
-42.749999857356208
 22
59.999444650057519
 32
0.0
 13
-42.749999857356208
 23
59.999444650057519
 33
0.0
  0
TEXT
  8
SAPA_MATT
  40
3
  5
1ED2
  62
2
  72
0
  71
0
 10
-51.2500
 20
57.1894
 30
0.000000
  1
5
  7
ISO
  0
POINT
  5
1EAB
  8
DEFPOINTS
 62
     0
 10
-11.249999857335981
 20
64.999444650057967
 30
0.0
  0
POINT
  5
1EAC
  8
DEFPOINTS
 62
     0
 10
-3.699999857852617
 20
59.999444650057512
 30
0.0
  0
POINT
  5
1EAD
  8
DEFPOINTS
 62
     0
 10
-42.749999857356208
 20
59.999444650057519
 30
0.0
  0
ENDBLK
  5
1CF6
  8
0
  0
BLOCK
  8
0
  2
*D14
 70
     1
 10
0.0
 20
0.0
 30
0.0
  3
*D14
  1

  0
LINE
  5
1D10
  8
SAPA_MATT
 10
-13.249999857336199
 20
65.499444650057967
 30
0.0
 11
-13.24999985733621
 21
19.499444650057971
 31
0.0
  0
LINE
  5
1D11
  8
SAPA_MATT
 10
-8.2499998573221092
 20
63.999444650056141
 30
0.0
 11
-8.2499998573221127
 21
19.499444650057971
 31
0.0
  0
LINE
  5
1D12
  8
SAPA_MATT
 10
-16.24999985733621
 20
20.999444650057971
 30
0.0
 11
-19.24999985733621
 21
20.999444650057971
 31
0.0
  0
LINE
  5
1D13
  8
SAPA_MATT
 10
-5.2499998573221118
 20
20.999444650057971
 30
0.0
 11
-2.2499998573221118
 21
20.999444650057971
 31
0.0
  0
LINE
  5
1D14
  8
SAPA_MATT
 10
-13.24999985733621
 20
20.999444650057971
 30
0.0
 11
-8.2499998573221127
 21
20.999444650057971
 31
0.0
  0
SOLID
  5
1D15
  8
SAPA_MATT
 10
-16.24999985733621
 20
21.499444650057971
 30
0.0
 11
-16.24999985733621
 21
20.499444650057971
 31
0.0
 12
-13.24999985733621
 22
20.999444650057971
 32
0.0
 13
-13.24999985733621
 23
20.999444650057971
 33
0.0
  0
SOLID
  5
1D16
  8
SAPA_MATT
 10
-5.2499998573221118
 20
21.499444650057971
 30
0.0
 11
-5.2499998573221118
 21
20.499444650057971
 31
0.0
 12
-8.2499998573221127
 22
20.999444650057971
 32
0.0
 13
-8.2499998573221127
 23
20.999444650057971
 33
0.0
  0
INSERT
  5
1D17
  8
0
  2
*U17
 10
0.0
 20
0.0
 30
0.0
  0
POINT
  5
1D18
  8
DEFPOINTS
 62
     0
 10
-13.249999857336199
 20
66.999444650057967
 30
0.0
  0
POINT
  5
1D19
  8
DEFPOINTS
 62
     0
 10
-8.2499998573221092
 20
65.499444650056148
 30
0.0
  0
POINT
  5
1D1A
  8
DEFPOINTS
 62
     0
 10
-8.2499998573221127
 20
20.999444650057971
 30
0.0
  0
ENDBLK
  5
1D04
  8
0
  0
BLOCK
  8
0
  2
*X15
 70
     1
 10
0.0
 20
0.0
 30
0.0
  3
*X15
  1

  0
LINE
  5
1DAD
  8
0
 62
     0
 10
136.79522041322929
 20
76.582373814363024
 30
0.0
 11
136.750000004828
 21
76.53715340596176
 31
0.0
  0
LINE
  5
1DAE
  8
0
 62
     0
 10
136.98148753969761
 20
75.646108925697661
 30
0.0
 11
136.75000001263339
 21
75.414621398633543
 31
0.0
  0
LINE
  5
1DAF
  8
0
 62
     0
 10
137.27875232595019
 20
74.820841696816643
 30
0.0
 11
136.7500000204389
 21
74.292089391305339
 31
0.0
  0
LINE
  5
1DB0
  8
0
 62
     0
 10
137.66916171149481
 20
74.088719067227601
 30
0.0
 11
136.7500000282443
 21
73.169557383977121
 31
0.0
  0
LINE
  5
1DB1
  8
0
 62
     0
 10
138.14481478816791
 20
73.441840128767012
 30
0.0
 11
136.75000003604981
 21
72.047025376648918
 31
0.0
  0
LINE
  5
1DB2
  8
0
 62
     0
 10
138.70430369637961
 20
72.878797021845102
 30
0.0
 11
136.75000004385521
 21
70.924493369320729
 31
0.0
  0
LINE
  5
1DB3
  8
0
 62
     0
 10
139.35217580284981
 20
72.404137113181633
 30
0.0
 11
136.75000005166061
 21
69.801961361992511
 31
0.0
  0
LINE
  5
1DB4
  8
0
 62
     0
 10
140.10075448227991
 20
72.030183777478186
 30
0.0
 11
136.75000005946609
 21
68.679429354664293
 31
0.0
  0
LINE
  5
1DB5
  8
0
 62
     0
 10
140.9763857898761
 20
71.783283069940751
 30
0.0
 11
136.75000006727149
 21
67.556897347336104
 31
0.0
  0
LINE
  5
1DB6
  8
0
 62
     0
 10
142.04073949992451
 20
71.725104764855445
 30
0.0
 11
136.6284357159148
 21
66.312800980845822
 31
0.0
  0
LINE
  5
1DB7
  8
0
 62
     0
 10
146.74999999926871
 20
76.434365264199712
 30
0.0
 11
146.67363615753499
 21
76.358001422465975
 31
0.0
  0
LINE
  5
1DB8
  8
0
 62
     0
 10
143.5160866374095
 20
72.077919887206775
 30
0.0
 11
137.1575711326312
 21
65.719404382428522
 31
0.0
  0
LINE
  5
1DB9
  8
0
 62
     0
 10
146.74999999926879
 20
75.311833249066083
 30
0.0
 11
146.1899901411706
 21
74.751823390967886
 31
0.0
  0
LINE
  5
1DBA
  8
0
 62
     0
 10
146.74999999926879
 20
74.18930123393244
 30
0.0
 11
138.3919431583171
 21
65.831244392980807
 31
0.0
  0
LINE
  5
1DBB
  8
0
 62
     0
 10
146.74999999926879
 20
73.066769218798783
 30
0.0
 11
139.56505943750989
 21
65.881828657039904
 31
0.0
  0
LINE
  5
1DBC
  8
0
 62
     0
 10
146.74999999926879
 20
71.944237203665153
 30
0.0
 11
140.6855271006965
 21
65.879764305092834
 31
0.0
  0
LINE
  5
1DBD
  8
0
 62
     0
 10
146.74999999926879
 20
70.821705188531496
 30
0.0
 11
141.75985130617329
 21
65.831556495436047
 31
0.0
  0
LINE
  5
1DBE
  8
0
 62
     0
 10
146.74999999926879
 20
69.699173173397867
 30
0.0
 11
142.79308700155639
 21
65.742260175685473
 31
0.0
  0
LINE
  5
1DBF
  8
0
 62
     0
 10
146.74999999926879
 20
68.576641158264209
 30
0.0
 11
143.78925042885371
 21
65.615891587849177
 31
0.0
  0
LINE
  5
1DC0
  8
0
 62
     0
 10
146.74999999926871
 20
67.454109143130566
 30
0.0
 11
144.7515905824462
 21
65.455699726307984
 31
0.0
  0
LINE
  5
1DC1
  8
0
 62
     0
 10
146.74999999926879
 20
66.331577127996923
 30
0.0
 11
145.6827748454472
 21
65.264351974175383
 31
0.0
  0
LINE
  5
1DC2
  8
0
 62
     0
 10
146.74999999926879
 20
65.209045112863294
 30
0.0
 11
146.58501980963661
 21
65.044064923231105
 31
0.0
  0
LINE
  5
1DC3
  8
0
 62
     0
 10
136.4703412882975
 20
65.979431857698771
 30
0.0
 11
136.77707360170939
 21
65.672699544286857
 31
0.0
  0
LINE
  5
1DC4
  8
0
 62
     0
 10
136.74276971707201
 20
66.829535444057967
 30
0.0
 11
137.7882136885151
 21
65.784091472614804
 31
0.0
  0
LINE
  5
1DC5
  8
0
 62
     0
 10
136.75000006457401
 20
67.944837111689608
 30
0.0
 11
138.83798918106311
 21
65.856847995200496
 31
0.0
  0
LINE
  5
1DC6
  8
0
 62
     0
 10
136.75000005676861
 20
69.067369134628677
 30
0.0
 11
139.93080868476409
 21
65.886560506633103
 31
0.0
  0
LINE
  5
1DC7
  8
0
 62
     0
 10
136.7500000489631
 20
70.189901157567775
 30
0.0
 11
141.07226922784869
 21
65.867631978682212
 31
0.0
  0
LINE
  5
1DC8
  8
0
 62
     0
 10
136.7500000411577
 20
71.312433180506872
 30
0.0
 11
142.26965153751391
 21
65.792781684150683
 31
0.0
  0
LINE
  5
1DC9
  8
0
 62
     0
 10
136.75000003335219
 20
72.434965203445955
 30
0.0
 11
143.53272126426361
 21
65.652243972534592
 31
0.0
  0
LINE
  5
1DCA
  8
0
 62
     0
 10
136.7500000255468
 20
73.557497226385024
 30
0.0
 11
144.87510562995129
 21
65.4323916219805
 31
0.0
  0
LINE
  5
1DCB
  8
0
 62
     0
 10
136.7500000177414
 20
74.680029249324093
 30
0.0
 11
146.3168513503353
 21
65.113177916730152
 31
0.0
  0
LINE
  5
1DCC
  8
0
 62
     0
 10
140.71528951161619
 20
71.837271770582902
 30
0.0
 11
146.74999999926871
 21
65.802561282930327
 31
0.0
  0
LINE
  5
1DCD
  8
0
 62
     0
 10
136.75000000993589
 20
75.802561272263176
 30
0.0
 11
137.01216748122769
 21
75.540393800971358
 31
0.0
  0
LINE
  5
1DCE
  8
0
 62
     0
 10
141.95478299691439
 20
71.720310300418333
 30
0.0
 11
146.74999999926871
 21
66.925093298064013
 31
0.0
  0
LINE
  5
1DCF
  8
0
 62
     0
 10
136.75000000213049
 20
76.925093295202274
 30
0.0
 11
136.76437511705001
 21
76.910718180282728
 31
0.0
  0
LINE
  5
1DD0
  8
0
 62
     0
 10
142.92469794820471
 20
71.87292736426167
 30
0.0
 11
146.74999999926871
 21
68.047625313197656
 31
0.0
  0
LINE
  5
1DD1
  8
0
 62
     0
 10
143.7401224553837
 20
72.180034872216325
 30
0.0
 11
146.74999999926871
 21
69.170157328331314
 31
0.0
  0
LINE
  5
1DD2
  8
0
 62
     0
 10
144.4424909673302
 20
72.600198375403465
 30
0.0
 11
146.74999999926879
 21
70.292689343464943
 31
0.0
  0
LINE
  5
1DD3
  8
0
 62
     0
 10
145.05074311282331
 20
73.114478245043983
 30
0.0
 11
146.74999999926871
 21
71.415221358598586
 31
0.0
  0
LINE
  5
1DD4
  8
0
 62
     0
 10
145.5733866468785
 20
73.714366726122449
 30
0.0
 11
146.74999999926871
 21
72.537753373732215
 31
0.0
  0
LINE
  5
1DD5
  8
0
 62
     0
 10
146.01229313222609
 20
74.397992255908505
 30
0.0
 11
146.74999999926871
 21
73.660285388865873
 31
0.0
  0
LINE
  5
1DD6
  8
0
 62
     0
 10
146.3634157892354
 20
75.169401614032907
 30
0.0
 11
146.74999999926871
 21
74.78281740399953
 31
0.0
  0
LINE
  5
1DD7
  8
0
 62
     0
 10
146.61518585014281
 20
76.040163568259175
 30
0.0
 11
146.74999999926871
 21
75.905349419133174
 31
0.0
  0
LINE
  5
1DD8
  8
0
 62
     0
 10
146.74279904953869
 20
77.035082383996837
 30
0.0
 11
146.74999999926871
 21
77.027881434266803
 31
0.0
  0
ENDBLK
  5
1DDA
  8
0
  0
BLOCK
  8
0
  2
*X16
 70
     1
 10
0.0
 20
0.0
 30
0.0
  3
*X16
  1

  0
LINE
  5
1DDC
  8
0
 62
     0
 10
140.22810515680061
 20
72.069598354657003
 30
0.0
 11
140.29131346244901
 21
71.960118357813585
 31
0.0
  0
LINE
  5
1DDD
  8
0
 62
     0
 10
139.0374801568006
 20
74.131821347418693
 30
0.0
 11
139.43435515680059
 21
73.444413683164797
 31
0.0
  0
LINE
  5
1DDE
  8
0
 62
     0
 10
137.8468551568007
 20
76.194044340180383
 30
0.0
 11
138.24373015680061
 21
75.506636675926487
 31
0.0
  0
LINE
  5
1DDF
  8
0
 62
     0
 10
136.78797143577521
 20
78.028084744303996
 30
0.0
 11
137.05310515680071
 21
77.568859668688177
 31
0.0
  0
LINE
  5
1DE0
  8
0
 62
     0
 10
141.41872987230451
 20
72.757005854656995
 30
0.0
 11
141.8156048723045
 21
72.069598190403099
 31
0.0
  0
LINE
  5
1DE1
  8
0
 62
     0
 10
140.22810487230461
 20
74.819228847418685
 30
0.0
 11
140.62497987230449
 21
74.131821183164789
 31
0.0
  0
LINE
  5
1DE2
  8
0
 62
     0
 10
139.0374798723046
 20
76.881451840180375
 30
0.0
 11
139.4343548723046
 21
76.194044175926464
 31
0.0
  0
LINE
  5
1DE3
  8
0
 62
     0
 10
137.84685487230459
 20
78.943674832942065
 30
0.0
 11
138.24372987230461
 21
78.256267168688169
 31
0.0
  0
LINE
  5
1DE4
  8
0
 62
     0
 10
142.60935458780841
 20
73.444413354656973
 30
0.0
 11
143.00622958780841
 21
72.757005690403076
 31
0.0
  0
LINE
  5
1DE5
  8
0
 62
     0
 10
141.4187295878084
 20
75.506636347418663
 30
0.0
 11
141.81560458780839
 21
74.819228683164766
 31
0.0
  0
LINE
  5
1DE6
  8
0
 62
     0
 10
140.22810458780839
 20
77.568859340180353
 30
0.0
 11
140.62497958780841
 21
76.881451675926456
 31
0.0
  0
LINE
  5
1DE7
  8
0
 62
     0
 10
139.03747958780849
 20
79.631082332942043
 30
0.0
 11
139.43435458780851
 21
78.943674668688146
 31
0.0
  0
LINE
  5
1DE8
  8
0
 62
     0
 10
138.12616471508599
 20
81.209525994190557
 30
0.0
 11
138.2437295878085
 21
81.005897661449836
 31
0.0
  0
LINE
  5
1DE9
  8
0
 62
     0
 10
143.79997930331231
 20
74.131820854656993
 30
0.0
 11
144.19685430331231
 21
73.444413190403097
 31
0.0
  0
LINE
  5
1DEA
  8
0
 62
     0
 10
142.6093543033123
 20
76.194043847418683
 30
0.0
 11
143.0062293033123
 21
75.506636183164787
 31
0.0
  0
LINE
  5
1DEB
  8
0
 62
     0
 10
141.4187293033124
 20
78.256266840180373
 30
0.0
 11
141.81560430331231
 21
77.568859175926477
 31
0.0
  0
LINE
  5
1DEC
  8
0
 62
     0
 10
140.22810430331239
 20
80.318489832942063
 30
0.0
 11
140.62497930331239
 21
79.631082168688167
 31
0.0
  0
LINE
  5
1DED
  8
0
 62
     0
 10
139.16983206819941
 20
82.151471112397147
 30
0.0
 11
139.4343543033124
 21
81.693305161449857
 31
0.0
  0
LINE
  5
1DEE
  8
0
 62
     0
 10
144.99060401881621
 20
74.819228354657
 30
0.0
 11
145.38747901881621
 21
74.131820690403103
 31
0.0
  0
LINE
  5
1DEF
  8
0
 62
     0
 10
143.7999790188162
 20
76.88145134741869
 30
0.0
 11
144.1968540188162
 21
76.194043683164793
 31
0.0
  0
LINE
  5
1DF0
  8
0
 62
     0
 10
142.60935401881619
 20
78.94367434018038
 30
0.0
 11
143.00622901881621
 21
78.256266675926483
 31
0.0
  0
LINE
  5
1DF1
  8
0
 62
     0
 10
141.41872901881629
 20
81.005897332942055
 30
0.0
 11
141.81560401881629
 21
80.318489668688173
 31
0.0
  0
LINE
  5
1DF2
  8
0
 62
     0
 10
140.41048074424521
 20
82.75223457114275
 30
0.0
 11
140.6249790188163
 21
82.380712661449863
 31
0.0
  0
LINE
  5
1DF3
  8
0
 62
     0
 10
146.18122873432009
 20
75.506635854656992
 30
0.0
 11
146.3683067456754
 21
75.182607234010703
 31
0.0
  0
LINE
  5
1DF4
  8
0
 62
     0
 10
144.9906037343201
 20
77.568858847418682
 30
0.0
 11
145.3874787343201
 21
76.881451183164785
 31
0.0
  0
LINE
  5
1DF5
  8
0
 62
     0
 10
143.79997873432009
 20
79.631081840180372
 30
0.0
 11
144.1968537343202
 21
78.943674175926475
 31
0.0
  0
LINE
  5
1DF6
  8
0
 62
     0
 10
142.60935373432019
 20
81.693304832942061
 30
0.0
 11
143.00622873432019
 21
81.005897168688165
 31
0.0
  0
LINE
  5
1DF7
  8
0
 62
     0
 10
146.18122844982409
 20
78.256266347418688
 30
0.0
 11
146.57810344982411
 21
77.568858683164791
 31
0.0
  0
LINE
  5
1DF8
  8
0
 62
     0
 10
144.99060344982411
 20
80.318489340180378
 30
0.0
 11
145.3874784498241
 21
79.631081675926481
 31
0.0
  0
LINE
  5
1DF9
  8
0
 62
     0
 10
143.7999784498241
 20
82.380712332942053
 30
0.0
 11
144.19685344982409
 21
81.693304668688171
 31
0.0
  0
LINE
  5
1DFA
  8
0
 62
     0
 10
137.05309519943739
 20
77.568888413120391
 30
0.0
 11
136.7562892693804
 21
77.054805462273833
 31
0.0
  0
LINE
  5
1DFB
  8
0
 62
     0
 10
138.2437201994374
 20
79.631111405882081
 30
0.0
 11
137.84684519943741
 21
78.943703741628184
 31
0.0
  0
LINE
  5
1DFC
  8
0
 62
     0
 10
139.43434519943739
 20
81.693334398643771
 30
0.0
 11
139.03747019943739
 21
81.005926734389874
 31
0.0
  0
LINE
  5
1DFD
  8
0
 62
     0
 10
138.24371991494129
 20
76.881480913120356
 30
0.0
 11
137.84684491494141
 21
76.194073248866459
 31
0.0
  0
LINE
  5
1DFE
  8
0
 62
     0
 10
139.43434491494131
 20
78.943703905882046
 30
0.0
 11
139.03746991494131
 21
78.256296241628135
 31
0.0
  0
LINE
  5
1DFF
  8
0
 62
     0
 10
140.62496991494129
 20
81.005926898643736
 30
0.0
 11
140.22809491494129
 21
80.318519234389825
 31
0.0
  0
LINE
  5
1E00
  8
0
 62
     0
 10
141.7518314188018
 20
82.957708276423546
 30
0.0
 11
141.41871991494131
 21
82.380742227151529
 31
0.0
  0
LINE
  5
1E01
  8
0
 62
     0
 10
138.2437196304453
 20
74.13185042035866
 30
0.0
 11
137.96983913276469
 21
73.657475483173755
 31
0.0
  0
LINE
  5
1E02
  8
0
 62
     0
 10
139.43434463044531
 20
76.19407341312035
 30
0.0
 11
139.03746963044529
 21
75.506665748866453
 31
0.0
  0
LINE
  5
1E03
  8
0
 62
     0
 10
140.62496963044521
 20
78.256296405882026
 30
0.0
 11
140.22809463044521
 21
77.568888741628143
 31
0.0
  0
LINE
  5
1E04
  8
0
 62
     0
 10
141.81559463044519
 20
80.318519398643716
 30
0.0
 11
141.4187196304452
 21
79.631111734389833
 31
0.0
  0
LINE
  5
1E05
  8
0
 62
     0
 10
143.0062196304452
 20
82.380742391405434
 30
0.0
 11
142.60934463044521
 21
81.693334727151523
 31
0.0
  0
LINE
  5
1E06
  8
0
 62
     0
 10
139.4343443459492
 20
73.444442920358682
 30
0.0
 11
139.03746934594921
 21
72.757035256104786
 31
0.0
  0
LINE
  5
1E07
  8
0
 62
     0
 10
140.62496934594921
 20
75.506665913120372
 30
0.0
 11
140.22809434594919
 21
74.819258248866475
 31
0.0
  0
LINE
  5
1E08
  8
0
 62
     0
 10
141.81559434594911
 20
77.568888905882062
 30
0.0
 11
141.4187193459492
 21
76.881481241628165
 31
0.0
  0
LINE
  5
1E09
  8
0
 62
     0
 10
143.00621934594909
 20
79.631111898643752
 30
0.0
 11
142.6093443459491
 21
78.943704234389855
 31
0.0
  0
LINE
  5
1E0A
  8
0
 62
     0
 10
144.1968443459491
 20
81.693334891405442
 30
0.0
 11
143.79996934594911
 21
81.005927227151545
 31
0.0
  0
LINE
  5
1E0B
  8
0
 62
     0
 10
140.6249690614531
 20
72.757035420358662
 30
0.0
 11
140.22809406145311
 21
72.069627756104765
 31
0.0
  0
LINE
  5
1E0C
  8
0
 62
     0
 10
141.815594061453
 20
74.819258413120352
 30
0.0
 11
141.41871906145309
 21
74.131850748866455
 31
0.0
  0
LINE
  5
1E0D
  8
0
 62
     0
 10
143.00621906145301
 20
76.881481405882042
 30
0.0
 11
142.60934406145299
 21
76.194073741628145
 31
0.0
  0
LINE
  5
1E0E
  8
0
 62
     0
 10
144.19684406145299
 20
78.943704398643732
 30
0.0
 11
143.799969061453
 21
78.256296734389835
 31
0.0
  0
LINE
  5
1E0F
  8
0
 62
     0
 10
145.387469061453
 20
81.005927391405436
 30
0.0
 11
144.99059406145301
 21
80.318519727151525
 31
0.0
  0
LINE
  5
1E10
  8
0
 62
     0
 10
141.815593776957
 20
72.069627920358684
 30
0.0
 11
141.6124208753138
 21
71.717722131991351
 31
0.0
  0
LINE
  5
1E11
  8
0
 62
     0
 10
143.00621877695701
 20
74.131850913120374
 30
0.0
 11
142.60934377695699
 21
73.444443248866477
 31
0.0
  0
LINE
  5
1E12
  8
0
 62
     0
 10
144.196843776957
 20
76.194073905882064
 30
0.0
 11
143.799968776957
 21
75.506666241628167
 31
0.0
  0
LINE
  5
1E13
  8
0
 62
     0
 10
145.38746877695701
 20
78.256296898643754
 30
0.0
 11
144.9905937769569
 21
77.568889234389843
 31
0.0
  0
LINE
  5
1E14
  8
0
 62
     0
 10
146.25899468985941
 20
79.765824059903679
 30
0.0
 11
146.18121877695691
 21
79.631112227151547
 31
0.0
  0
LINE
  5
1E15
  8
0
 62
     0
 10
144.19684349246091
 20
73.444443413120368
 30
0.0
 11
143.79996849246089
 21
72.757035748866471
 31
0.0
  0
LINE
  5
1E16
  8
0
 62
     0
 10
145.38746849246081
 20
75.506666405882058
 30
0.0
 11
144.9905934924609
 21
74.819258741628161
 31
0.0
  0
LINE
  5
1E17
  8
0
 62
     0
 10
146.57809349246079
 20
77.568889398643734
 30
0.0
 11
146.1812184924608
 21
76.881481734389851
 31
0.0
  0
LINE
  5
1E18
  8
0
 62
     0
 10
143.0062500715276
 20
72.757029999979991
 30
0.0
 11
143.80000007152759
 21
72.757029999979991
 31
0.0
  0
LINE
  5
1E19
  8
0
 62
     0
 10
140.62500007152761
 20
72.757029999979991
 30
0.0
 11
141.4187500715276
 21
72.757029999979991
 31
0.0
  0
LINE
  5
1E1A
  8
0
 62
     0
 10
138.85076881892761
 20
72.757029999979991
 30
0.0
 11
139.0375000715276
 21
72.757029999979991
 31
0.0
  0
LINE
  5
1E1B
  8
0
 62
     0
 10
145.3875000715276
 20
74.13184499997999
 30
0.0
 11
145.8577275365966
 21
74.13184499997999
 31
0.0
  0
LINE
  5
1E1C
  8
0
 62
     0
 10
143.0062500715276
 20
74.13184499997999
 30
0.0
 11
143.80000007152759
 21
74.13184499997999
 31
0.0
  0
LINE
  5
1E1D
  8
0
 62
     0
 10
140.62500007152761
 20
74.13184499997999
 30
0.0
 11
141.4187500715276
 21
74.13184499997999
 31
0.0
  0
LINE
  5
1E1E
  8
0
 62
     0
 10
138.24375007152759
 20
74.13184499997999
 30
0.0
 11
139.0375000715276
 21
74.13184499997999
 31
0.0
  0
LINE
  5
1E1F
  8
0
 62
     0
 10
145.3875000715276
 20
75.506659999980002
 30
0.0
 11
146.18125007152759
 21
75.506659999980002
 31
0.0
  0
LINE
  5
1E20
  8
0
 62
     0
 10
143.0062500715276
 20
75.506659999980002
 30
0.0
 11
143.80000007152759
 21
75.506659999980002
 31
0.0
  0
LINE
  5
1E21
  8
0
 62
     0
 10
140.62500007152761
 20
75.506659999980002
 30
0.0
 11
141.4187500715276
 21
75.506659999980002
 31
0.0
  0
LINE
  5
1E22
  8
0
 62
     0
 10
138.24375007152759
 20
75.506659999980002
 30
0.0
 11
139.0375000715276
 21
75.506659999980002
 31
0.0
  0
LINE
  5
1E23
  8
0
 62
     0
 10
145.3875000715276
 20
76.881474999979986
 30
0.0
 11
146.18125007152759
 21
76.881474999979986
 31
0.0
  0
LINE
  5
1E24
  8
0
 62
     0
 10
143.0062500715276
 20
76.881474999979986
 30
0.0
 11
143.80000007152759
 21
76.881474999979986
 31
0.0
  0
LINE
  5
1E25
  8
0
 62
     0
 10
140.62500007152761
 20
76.881474999979986
 30
0.0
 11
141.4187500715276
 21
76.881474999979986
 31
0.0
  0
LINE
  5
1E26
  8
0
 62
     0
 10
138.24375007152759
 20
76.881474999979986
 30
0.0
 11
139.0375000715276
 21
76.881474999979986
 31
0.0
  0
LINE
  5
1E27
  8
0
 62
     0
 10
145.3875000715276
 20
78.256289999979984
 30
0.0
 11
146.18125007152759
 21
78.256289999979984
 31
0.0
  0
LINE
  5
1E28
  8
0
 62
     0
 10
143.0062500715276
 20
78.256289999979984
 30
0.0
 11
143.80000007152759
 21
78.256289999979984
 31
0.0
  0
LINE
  5
1E29
  8
0
 62
     0
 10
140.62500007152761
 20
78.256289999979984
 30
0.0
 11
141.4187500715276
 21
78.256289999979984
 31
0.0
  0
LINE
  5
1E2A
  8
0
 62
     0
 10
138.24375007152759
 20
78.256289999979984
 30
0.0
 11
139.0375000715276
 21
78.256289999979984
 31
0.0
  0
LINE
  5
1E2B
  8
0
 62
     0
 10
145.3875000715276
 20
79.631104999979996
 30
0.0
 11
146.18125007152759
 21
79.631104999979996
 31
0.0
  0
LINE
  5
1E2C
  8
0
 62
     0
 10
143.0062500715276
 20
79.631104999979996
 30
0.0
 11
143.80000007152759
 21
79.631104999979996
 31
0.0
  0
LINE
  5
1E2D
  8
0
 62
     0
 10
140.62500007152761
 20
79.631104999979996
 30
0.0
 11
141.4187500715276
 21
79.631104999979996
 31
0.0
  0
LINE
  5
1E2E
  8
0
 62
     0
 10
138.24375007152759
 20
79.631104999979996
 30
0.0
 11
139.0375000715276
 21
79.631104999979996
 31
0.0
  0
LINE
  5
1E2F
  8
0
 62
     0
 10
145.3875000715276
 20
81.005919999979994
 30
0.0
 11
145.53777225327161
 21
81.005919999979994
 31
0.0
  0
LINE
  5
1E30
  8
0
 62
     0
 10
143.0062500715276
 20
81.005919999979994
 30
0.0
 11
143.80000007152759
 21
81.005919999979994
 31
0.0
  0
LINE
  5
1E31
  8
0
 62
     0
 10
140.62500007152761
 20
81.005919999979994
 30
0.0
 11
141.4187500715276
 21
81.005919999979994
 31
0.0
  0
LINE
  5
1E32
  8
0
 62
     0
 10
138.24375007152759
 20
81.005919999979994
 30
0.0
 11
139.0375000715276
 21
81.005919999979994
 31
0.0
  0
LINE
  5
1E33
  8
0
 62
     0
 10
143.0062500715276
 20
82.380734999980007
 30
0.0
 11
143.80000007152759
 21
82.380734999980007
 31
0.0
  0
LINE
  5
1E34
  8
0
 62
     0
 10
140.62500007152761
 20
82.380734999980007
 30
0.0
 11
141.4187500715276
 21
82.380734999980007
 31
0.0
  0
ENDBLK
  5
1E36
  8
0
  0
BLOCK
  8
0
  2
*U17
 70
     1
 10
0.0
 20
0.0
 30
0.0
  3
*U17
  1

  0
TEXT
  5
1EC1
  8
SAPA_MATT
 62
     2
 10
-11.79999985732916
 20
21.999444650057971
 30
0.0
 40
3.0
  1
5
  7
ISO
  0
ENDBLK
  5
1EC3
  8
0
  0
BLOCK
  8
0
  2
*U18
 70
     1
 10
0.0
 20
0.0
 30
0.0
  3
*U18
  1

  0
TEXT
  5
1EC5
  8
SAPA_MATT
 62
     2
 10
-43.749999785608907
 20
92.899444650057063
 30
0.0
 40
3.0
  1
60
 50
90.0
  7
ISO
  0
ENDBLK
  5
1EC7
  8
0
  0
BLOCK
  8
0
  2
*U19
 70
     1
 10
0.0
 20
0.0
 30
0.0
  3
*U19
  1

  0
TEXT
  5
1EC9
  8
SAPA_MATT
 62
     2
 10
-55.749999785608921
 20
90.399444650056836
 30
0.0
 40
3.0
  1
65
 50
90.0
  7
ISO
  0
ENDBLK
  5
1ECB
  8
0
  0
BLOCK
  8
0
  2
*U20
 70
     1
 10
0.0
 20
0.0
 30
0.0
  3
*U20
  1

  0
TEXT
  5
1ECD
  8
SAPA_MATT
 62
     2
 10
58.900000071148632
 20
9.999444650057967
 30
0.0
 40
3.0
  1
150
  7
ISO
  0
ENDBLK
  5
1ECF
  8
0
  0
ENDSEC
  0
SECTION
  2
ENTITIES
  0
LINE
  5
179E
  8
SAPA_FOGBAND
 10
-9.6495673972997338
 20
70.088045158835712
 30
0.0
 11
-4.6533640691234259
 21
70.088045158832983
 31
0.0
  0
LINE
  5
179F
  8
SAPA_FOGBAND
 10
-4.6533640691234259
 20
69.938045158834257
 30
0.0
 11
-9.6495673972997338
 21
69.938045158834257
 31
0.0
  0
LINE
  5
17A4
  8
SAPA_FOGBAND
 10
-9.6495673972997338
 20
78.588045158840259
 30
0.0
 11
-5.0750405436454002
 21
78.588045158836621
 31
0.0
  0
LINE
  5
17A5
  8
SAPA_FOGBAND
 10
-5.0750405436454002
 20
78.438045158838804
 30
0.0
 11
-9.6495673972997338
 21
78.438045158838804
 31
0.0
  0
LINE
  5
17A9
  8
SAPA_FOGBAND
 10
56.149567538933979
 20
70.088045158835712
 30
0.0
 11
51.250898448405451
 21
70.088045158832983
 31
0.0
  0
LINE
  5
17AA
  8
SAPA_FOGBAND
 10
51.250898448405451
 20
69.938045158834257
 30
0.0
 11
56.149567538933979
 21
69.938045158834257
 31
0.0
  0
LINE
  5
17AE
  8
SAPA_FOGBAND
 10
56.149567538933979
 20
78.588045158840259
 30
0.0
 11
51.685747565730018
 21
78.588045158836621
 31
0.0
  0
LINE
  5
17AF
  8
SAPA_FOGBAND
 10
51.685747565730018
 20
78.438045158838804
 30
0.0
 11
56.149567538933979
 21
78.438045158838804
 31
0.0
  0
LINE
  5
17B3
  8
SAPA_GLAS
 10
50.000000070999249
 20
60.19944465005846
 30
0.0
 11
49.250000070986061
 21
60.19944465005846
 31
0.0
  0
LINE
  5
17B4
  8
SAPA_GLAS
 10
49.250000070986061
 20
72.999444650069336
 30
0.0
 11
50.000000070985152
 21
72.999444650070245
 31
0.0
  0
LINE
  5
17B6
  8
SAPA_GLAS
 10
-3.4999999293654578
 20
60.19944465005846
 30
0.0
 11
-2.7499999293522701
 21
60.19944465005846
 31
0.0
  0
LINE
  5
17B7
  8
SAPA_GLAS
 10
-2.7499999293522701
 20
72.999444650069336
 30
0.0
 11
-3.4999999293513611
 21
72.999444650070245
 31
0.0
  0
TEXT
  5
17BC
  8
SAPA_ARTIKELNR
 10
-14.9045493630839
 20
89.437483755359594
 30
0.0000000048844772
 40
3.5
  1
D9K025
 50
90.0
  7
ISO
  0
TEXT
  5
17BD
  8
SAPA_ARTIKELNR
 10
59.909985453607987
 20
45.748386641550717
 30
0.0000000048844772
 40
3.5
  1
D9V005
 50
90.0
  7
ISO
  0
INSERT
  5
17C1
  8
SAPA_ANSLUTNING
  6
CONTINUOUS
  2
*X15
 10
0.0
 20
0.0
 30
0.0
1001
ACAD
1000
HATCH
1002
{
1070
    19
1000
ANSI37
1040
0.25
1040
0.0
1000
R14_HATCH_DATA
1000
17C1
1011
1.0
1021
0.0
1031
0.0
1021
0.0
1031
0.0
1011
0.0
1021
0.0
1031
0.0
1021
1.0
1031
0.0
1011
0.0
1021
0.0
1031
0.0
1021
0.0
1031
1.0
1040
0.0
1010
0.0
1020
0.0
1030
1.0
1000
ANSI37
1070
     0
1070
     0
1071
        1
1071
        1
1071
        6
1070
     3
1040
141.74999999926871
1040
77.336651236670832
1040
0.0
1040
5.6210574168242138
1040
0.8895123513655372
1040
1.5707963267948959
1040
2.144309431217978
1070
     1
1070
     3
1040
141.74999999926871
1040
77.336651236670832
1040
0.0
1040
5.6210574168242138
1040
0.8895123513655372
1040
2.144309431217978
1040
4.7123889803846888
1070
     1
1070
     1
1040
146.74999999926871
1040
77.33665123667015
1040
146.74999999926871
1040
64.999999999994984
1070
     2
1040
140.0782584233047
1040
40.351707880120102
1040
25.535278343560961
1040
1.3064530021775029
1040
1.7246828695821601
1070
     1
1070
     2
1040
134.75000007114789
1040
66.99944465005774
1040
1.9999999999999349
1040
5.4977871437820971
1040
6.283185307179699
1070
     1
1070
     1
1040
136.7500000711477
1040
66.999444650057967
1040
136.74999999926879
1040
77.336651236670605
1071
        0
1070
     0
1070
     1
1040
0.0
1040
0.25
1070
     0
1070
     2
1040
5.4977871437821371
1040
-2.249999928472334
1040
124.99999999998001
1040
-0.5612660075668221
1040
-0.5612660075668221
1070
     0
1040
3.926990816987241
1040
-2.249999928472334
1040
124.99999999998001
1040
-0.5612660075668221
1040
0.5612660075668221
1070
     0
1071
        1
1040
140.74867641851711
1040
68.579635287054089
1040
0.0
1002
}
  0
LINE
  5
17C2
  8
SAPA_ANSLUTNING
 10
-13.24999992848598
 20
140.0000000000004
 30
0.0
 11
146.74999999926871
 21
140.0000000000004
 31
0.0
  0
LINE
  5
17C3
  8
SAPA_ANSLUTNING
 10
146.74999999926871
 20
64.999999999994984
 30
0.0
 11
191.75325600592711
 21
64.999999999994984
 31
0.0
  0
LINE
  5
17C4
  8
SAPA_ANSLUTNING
 10
146.74999999926871
 20
140.0000000000004
 30
0.0
 11
146.74999999926871
 21
64.999999999994984
 31
0.0
  0
INSERT
  5
17C5
  8
SAPA_ANSLUTNING
  6
CONTINUOUS
  2
*X16
 10
0.0
 20
0.0
 30
0.0
1001
ACAD
1000
HATCH
1002
{
1070
    19
1000
HEX
1040
0.25
1040
0.0
1000
ASC_BOUNDS
1070
     1
1070
     1
1070
     1
1005
17C6
1000
ASC_SEEDPOINT
1011
141.99211000934329
1021
0.0
1031
0.0
1021
77.218313547614116
1031
0.0
1000
R14_HATCH_DATA
1000
17C5
1011
1.0
1021
0.0
1031
0.0
1021
0.0
1031
0.0
1011
0.0
1021
0.0
1031
0.0
1021
1.0
1031
0.0
1011
0.0
1021
0.0
1031
0.0
1021
0.0
1031
1.0
1040
0.0
1010
0.0
1020
0.0
1030
1.0
1000
HEX
1070
     0
1070
     1
1071
        1
1071
        5
1071
        1
1070
     3
1040
141.74999999926871
1040
77.336651236670832
1040
0.0
1040
5.6210574168242138
1040
0.8895123513655372
1040
0.0
1040
6.2831853071795862
1070
     0
1071
        1
1005
17C6
1070
     0
1070
     1
1040
0.0
1040
0.25
1070
     0
1070
     3
1040
0.0
1040
-2.249999928472334
1040
124.99999999998001
1040
0.0
1040
-1.374814999999999
1070
     2
1040
0.79375
1040
-1.587499999999999
1040
4.1887902047863914
1040
-2.249999928472334
1040
124.99999999998001
1040
-1.190624715503902
1040
0.6874074999999996
1070
     2
1040
0.7937499999999993
1040
-1.5874999999999979
1040
5.2359877559829879
1040
-1.4562499284725161
1040
124.99999999998001
1040
-1.190624715503902
1040
-0.6874075000000001
1070
     2
1040
0.79375
1040
-1.587499999999999
1040
0.0591690278051155
1071
        1
1040
141.99211000934329
1040
77.218313547614116
1040
0.0
1002
}
  0
POLYLINE
  5
17C6
  8
SAPA_ANSLUTNING
 10
141.74999999926871
 20
82.957708653495047
 30
0.0
 66
     1
 70
     8
  0
VERTEX
  8
SAPA_ANSLUTNING
  5
1ED3
 10
141.750
 20
82.9577
 30
0.000000
  70
    32
  0
VERTEX
  8
SAPA_ANSLUTNING
  5
1ED4
 10
141.995
 20
82.9509
 30
0.000000
  70
    32
  0
VERTEX
  8
SAPA_ANSLUTNING
  5
1ED5
 10
142.240
 20
82.9306
 30
0.000000
  70
    32
  0
VERTEX
  8
SAPA_ANSLUTNING
  5
1ED6
 10
142.484
 20
82.8969
 30
0.000000
  70
    32
  0
VERTEX
  8
SAPA_ANSLUTNING
  5
1ED7
 10
142.725
 20
82.8497
 30
0.000000
  70
    32
  0
VERTEX
  8
SAPA_ANSLUTNING
  5
1ED8
 10
142.965
 20
82.7893
 30
0.000000
  70
    32
  0
VERTEX
  8
SAPA_ANSLUTNING
  5
1ED9
 10
143.201
 20
82.7157
 30
0.000000
  70
    32
  0
VERTEX
  8
SAPA_ANSLUTNING
  5
1EDA
 10
143.434
 20
82.6291
 30
0.000000
  70
    32
  0
VERTEX
  8
SAPA_ANSLUTNING
  5
1EDB
 10
143.663
 20
82.5298
 30
0.000000
  70
    32
  0
VERTEX
  8
SAPA_ANSLUTNING
  5
1EDC
 10
143.888
 20
82.4180
 30
0.000000
  70
    32
  0
VERTEX
  8
SAPA_ANSLUTNING
  5
1EDD
 10
144.107
 20
82.2940
 30
0.000000
  70
    32
  0
VERTEX
  8
SAPA_ANSLUTNING
  5
1EDE
 10
144.321
 20
82.1580
 30
0.000000
  70
    32
  0
VERTEX
  8
SAPA_ANSLUTNING
  5
1EDF
 10
144.528
 20
82.0104
 30
0.000000
  70
    32
  0
VERTEX
  8
SAPA_ANSLUTNING
  5
1EE0
 10
144.728
 20
81.8515
 30
0.000000
  70
    32
  0
VERTEX
  8
SAPA_ANSLUTNING
  5
1EE1
 10
144.922
 20
81.6818
 30
0.000000
  70
    32
  0
VERTEX
  8
SAPA_ANSLUTNING
  5
1EE2
 10
145.108
 20
81.5016
 30
0.000000
  70
    32
  0
VERTEX
  8
SAPA_ANSLUTNING
  5
1EE3
 10
145.286
 20
81.3113
 30
0.000000
  70
    32
  0
VERTEX
  8
SAPA_ANSLUTNING
  5
1EE4
 10
145.455
 20
81.1115
 30
0.000000
  70
    32
  0
VERTEX
  8
SAPA_ANSLUTNING
  5
1EE5
 10
145.615
 20
80.9026
 30
0.000000
  70
    32
  0
VERTEX
  8
SAPA_ANSLUTNING
  5
1EE6
 10
145.766
 20
80.6851
 30
0.000000
  70
    32
  0
VERTEX
  8
SAPA_ANSLUTNING
  5
1EE7
 10
145.907
 20
80.4595
 30
0.000000
  70
    32
  0
VERTEX
  8
SAPA_ANSLUTNING
  5
1EE8
 10
146.039
 20
80.2265
 30
0.000000
  70
    32
  0
VERTEX
  8
SAPA_ANSLUTNING
  5
1EE9
 10
146.160
 20
79.9864
 30
0.000000
  70
    32
  0
VERTEX
  8
SAPA_ANSLUTNING
  5
1EEA
 10
146.270
 20
79.7400
 30
0.000000
  70
    32
  0
VERTEX
  8
SAPA_ANSLUTNING
  5
1EEB
 10
146.369
 20
79.4877
 30
0.000000
  70
    32
  0
VERTEX
  8
SAPA_ANSLUTNING
  5
1EEC
 10
146.458
 20
79.2303
 30
0.000000
  70
    32
  0
VERTEX
  8
SAPA_ANSLUTNING
  5
1EED
 10
146.535
 20
78.9684
 30
0.000000
  70
    32
  0
VERTEX
  8
SAPA_ANSLUTNING
  5
1EEE
 10
146.600
 20
78.7025
 30
0.000000
  70
    32
  0
VERTEX
  8
SAPA_ANSLUTNING
  5
1EEF
 10
146.654
 20
78.4333
 30
0.000000
  70
    32
  0
VERTEX
  8
SAPA_ANSLUTNING
  5
1EF0
 10
146.696
 20
78.1614
 30
0.000000
  70
    32
  0
VERTEX
  8
SAPA_ANSLUTNING
  5
1EF1
 10
146.726
 20
77.8876
 30
0.000000
  70
    32
  0
VERTEX
  8
SAPA_ANSLUTNING
  5
1EF2
 10
146.744
 20
77.6125
 30
0.000000
  70
    32
  0
VERTEX
  8
SAPA_ANSLUTNING
  5
1EF3
 10
146.750
 20
77.3367
 30
0.000000
  70
    32
  0
VERTEX
  8
SAPA_ANSLUTNING
  5
1EF4
 10
146.744
 20
77.0608
 30
0.000000
  70
    32
  0
VERTEX
  8
SAPA_ANSLUTNING
  5
1EF5
 10
146.726
 20
76.7857
 30
0.000000
  70
    32
  0
VERTEX
  8
SAPA_ANSLUTNING
  5
1EF6
 10
146.696
 20
76.5119
 30
0.000000
  70
    32
  0
VERTEX
  8
SAPA_ANSLUTNING
  5
1EF7
 10
146.654
 20
76.2400
 30
0.000000
  70
    32
  0
VERTEX
  8
SAPA_ANSLUTNING
  5
1EF8
 10
146.600
 20
75.9708
 30
0.000000
  70
    32
  0
VERTEX
  8
SAPA_ANSLUTNING
  5
1EF9
 10
146.535
 20
75.7049
 30
0.000000
  70
    32
  0
VERTEX
  8
SAPA_ANSLUTNING
  5
1EFA
 10
146.458
 20
75.4430
 30
0.000000
  70
    32
  0
VERTEX
  8
SAPA_ANSLUTNING
  5
1EFB
 10
146.369
 20
75.1856
 30
0.000000
  70
    32
  0
VERTEX
  8
SAPA_ANSLUTNING
  5
1EFC
 10
146.270
 20
74.9333
 30
0.000000
  70
    32
  0
VERTEX
  8
SAPA_ANSLUTNING
  5
1EFD
 10
146.160
 20
74.6869
 30
0.000000
  70
    32
  0
VERTEX
  8
SAPA_ANSLUTNING
  5
1EFE
 10
146.039
 20
74.4469
 30
0.000000
  70
    32
  0
VERTEX
  8
SAPA_ANSLUTNING
  5
1EFF
 10
145.907
 20
74.2138
 30
0.000000
  70
    32
  0
VERTEX
  8
SAPA_ANSLUTNING
  5
1F00
 10
145.766
 20
73.9882
 30
0.000000
  70
    32
  0
VERTEX
  8
SAPA_ANSLUTNING
  5
1F01
 10
145.615
 20
73.7707
 30
0.000000
  70
    32
  0
VERTEX
  8
SAPA_ANSLUTNING
  5
1F02
 10
145.455
 20
73.5618
 30
0.000000
  70
    32
  0
VERTEX
  8
SAPA_ANSLUTNING
  5
1F03
 10
145.286
 20
73.3620
 30
0.000000
  70
    32
  0
VERTEX
  8
SAPA_ANSLUTNING
  5
1F04
 10
145.108
 20
73.1717
 30
0.000000
  70
    32
  0
VERTEX
  8
SAPA_ANSLUTNING
  5
1F05
 10
144.922
 20
72.9915
 30
0.000000
  70
    32
  0
VERTEX
  8
SAPA_ANSLUTNING
  5
1F06
 10
144.728
 20
72.8218
 30
0.000000
  70
    32
  0
VERTEX
  8
SAPA_ANSLUTNING
  5
1F07
 10
144.528
 20
72.6629
 30
0.000000
  70
    32
  0
VERTEX
  8
SAPA_ANSLUTNING
  5
1F08
 10
144.321
 20
72.5153
 30
0.000000
  70
    32
  0
VERTEX
  8
SAPA_ANSLUTNING
  5
1F09
 10
144.107
 20
72.3793
 30
0.000000
  70
    32
  0
VERTEX
  8
SAPA_ANSLUTNING
  5
1F0A
 10
143.888
 20
72.2553
 30
0.000000
  70
    32
  0
VERTEX
  8
SAPA_ANSLUTNING
  5
1F0B
 10
143.663
 20
72.1435
 30
0.000000
  70
    32
  0
VERTEX
  8
SAPA_ANSLUTNING
  5
1F0C
 10
143.434
 20
72.0442
 30
0.000000
  70
    32
  0
VERTEX
  8
SAPA_ANSLUTNING
  5
1F0D
 10
143.201
 20
71.9576
 30
0.000000
  70
    32
  0
VERTEX
  8
SAPA_ANSLUTNING
  5
1F0E
 10
142.965
 20
71.8840
 30
0.000000
  70
    32
  0
VERTEX
  8
SAPA_ANSLUTNING
  5
1F0F
 10
142.725
 20
71.8236
 30
0.000000
  70
    32
  0
VERTEX
  8
SAPA_ANSLUTNING
  5
1F10
 10
142.484
 20
71.7764
 30
0.000000
  70
    32
  0
VERTEX
  8
SAPA_ANSLUTNING
  5
1F11
 10
142.240
 20
71.7427
 30
0.000000
  70
    32
  0
VERTEX
  8
SAPA_ANSLUTNING
  5
1F12
 10
141.995
 20
71.7224
 30
0.000000
  70
    32
  0
VERTEX
  8
SAPA_ANSLUTNING
  5
1F13
 10
141.750
 20
71.7156
 30
0.000000
  70
    32
  0
VERTEX
  8
SAPA_ANSLUTNING
  5
1F14
 10
141.505
 20
71.7224
 30
0.000000
  70
    32
  0
VERTEX
  8
SAPA_ANSLUTNING
  5
1F15
 10
141.260
 20
71.7427
 30
0.000000
  70
    32
  0
VERTEX
  8
SAPA_ANSLUTNING
  5
1F16
 10
141.016
 20
71.7764
 30
0.000000
  70
    32
  0
VERTEX
  8
SAPA_ANSLUTNING
  5
1F17
 10
140.775
 20
71.8236
 30
0.000000
  70
    32
  0
VERTEX
  8
SAPA_ANSLUTNING
  5
1F18
 10
140.535
 20
71.8840
 30
0.000000
  70
    32
  0
VERTEX
  8
SAPA_ANSLUTNING
  5
1F19
 10
140.299
 20
71.9576
 30
0.000000
  70
    32
  0
VERTEX
  8
SAPA_ANSLUTNING
  5
1F1A
 10
140.066
 20
72.0442
 30
0.000000
  70
    32
  0
VERTEX
  8
SAPA_ANSLUTNING
  5
1F1B
 10
139.837
 20
72.1435
 30
0.000000
  70
    32
  0
VERTEX
  8
SAPA_ANSLUTNING
  5
1F1C
 10
139.612
 20
72.2553
 30
0.000000
  70
    32
  0
VERTEX
  8
SAPA_ANSLUTNING
  5
1F1D
 10
139.393
 20
72.3793
 30
0.000000
  70
    32
  0
VERTEX
  8
SAPA_ANSLUTNING
  5
1F1E
 10
139.179
 20
72.5153
 30
0.000000
  70
    32
  0
VERTEX
  8
SAPA_ANSLUTNING
  5
1F1F
 10
138.972
 20
72.6629
 30
0.000000
  70
    32
  0
VERTEX
  8
SAPA_ANSLUTNING
  5
1F20
 10
138.772
 20
72.8218
 30
0.000000
  70
    32
  0
VERTEX
  8
SAPA_ANSLUTNING
  5
1F21
 10
138.578
 20
72.9915
 30
0.000000
  70
    32
  0
VERTEX
  8
SAPA_ANSLUTNING
  5
1F22
 10
138.392
 20
73.1717
 30
0.000000
  70
    32
  0
VERTEX
  8
SAPA_ANSLUTNING
  5
1F23
 10
138.214
 20
73.3620
 30
0.000000
  70
    32
  0
VERTEX
  8
SAPA_ANSLUTNING
  5
1F24
 10
138.045
 20
73.5618
 30
0.000000
  70
    32
  0
VERTEX
  8
SAPA_ANSLUTNING
  5
1F25
 10
137.885
 20
73.7707
 30
0.000000
  70
    32
  0
VERTEX
  8
SAPA_ANSLUTNING
  5
1F26
 10
137.734
 20
73.9882
 30
0.000000
  70
    32
  0
VERTEX
  8
SAPA_ANSLUTNING
  5
1F27
 10
137.593
 20
74.2138
 30
0.000000
  70
    32
  0
VERTEX
  8
SAPA_ANSLUTNING
  5
1F28
 10
137.461
 20
74.4469
 30
0.000000
  70
    32
  0
VERTEX
  8
SAPA_ANSLUTNING
  5
1F29
 10
137.340
 20
74.6869
 30
0.000000
  70
    32
  0
VERTEX
  8
SAPA_ANSLUTNING
  5
1F2A
 10
137.230
 20
74.9333
 30
0.000000
  70
    32
  0
VERTEX
  8
SAPA_ANSLUTNING
  5
1F2B
 10
137.131
 20
75.1856
 30
0.000000
  70
    32
  0
VERTEX
  8
SAPA_ANSLUTNING
  5
1F2C
 10
137.042
 20
75.4430
 30
0.000000
  70
    32
  0
VERTEX
  8
SAPA_ANSLUTNING
  5
1F2D
 10
136.965
 20
75.7049
 30
0.000000
  70
    32
  0
VERTEX
  8
SAPA_ANSLUTNING
  5
1F2E
 10
136.900
 20
75.9708
 30
0.000000
  70
    32
  0
VERTEX
  8
SAPA_ANSLUTNING
  5
1F2F
 10
136.846
 20
76.2400
 30
0.000000
  70
    32
  0
VERTEX
  8
SAPA_ANSLUTNING
  5
1F30
 10
136.804
 20
76.5119
 30
0.000000
  70
    32
  0
VERTEX
  8
SAPA_ANSLUTNING
  5
1F31
 10
136.774
 20
76.7857
 30
0.000000
  70
    32
  0
VERTEX
  8
SAPA_ANSLUTNING
  5
1F32
 10
136.756
 20
77.0608
 30
0.000000
  70
    32
  0
VERTEX
  8
SAPA_ANSLUTNING
  5
1F33
 10
136.750
 20
77.3367
 30
0.000000
  70
    32
  0
VERTEX
  8
SAPA_ANSLUTNING
  5
1F34
 10
136.756
 20
77.6125
 30
0.000000
  70
    32
  0
VERTEX
  8
SAPA_ANSLUTNING
  5
1F35
 10
136.774
 20
77.8876
 30
0.000000
  70
    32
  0
VERTEX
  8
SAPA_ANSLUTNING
  5
1F36
 10
136.804
 20
78.1614
 30
0.000000
  70
    32
  0
VERTEX
  8
SAPA_ANSLUTNING
  5
1F37
 10
136.846
 20
78.4333
 30
0.000000
  70
    32
  0
VERTEX
  8
SAPA_ANSLUTNING
  5
1F38
 10
136.900
 20
78.7025
 30
0.000000
  70
    32
  0
VERTEX
  8
SAPA_ANSLUTNING
  5
1F39
 10
136.965
 20
78.9684
 30
0.000000
  70
    32
  0
VERTEX
  8
SAPA_ANSLUTNING
  5
1F3A
 10
137.042
 20
79.2303
 30
0.000000
  70
    32
  0
VERTEX
  8
SAPA_ANSLUTNING
  5
1F3B
 10
137.131
 20
79.4877
 30
0.000000
  70
    32
  0
VERTEX
  8
SAPA_ANSLUTNING
  5
1F3C
 10
137.230
 20
79.7400
 30
0.000000
  70
    32
  0
VERTEX
  8
SAPA_ANSLUTNING
  5
1F3D
 10
137.340
 20
79.9864
 30
0.000000
  70
    32
  0
VERTEX
  8
SAPA_ANSLUTNING
  5
1F3E
 10
137.461
 20
80.2265
 30
0.000000
  70
    32
  0
VERTEX
  8
SAPA_ANSLUTNING
  5
1F3F
 10
137.593
 20
80.4595
 30
0.000000
  70
    32
  0
VERTEX
  8
SAPA_ANSLUTNING
  5
1F40
 10
137.734
 20
80.6851
 30
0.000000
  70
    32
  0
VERTEX
  8
SAPA_ANSLUTNING
  5
1F41
 10
137.885
 20
80.9026
 30
0.000000
  70
    32
  0
VERTEX
  8
SAPA_ANSLUTNING
  5
1F42
 10
138.045
 20
81.1115
 30
0.000000
  70
    32
  0
VERTEX
  8
SAPA_ANSLUTNING
  5
1F43
 10
138.214
 20
81.3113
 30
0.000000
  70
    32
  0
VERTEX
  8
SAPA_ANSLUTNING
  5
1F44
 10
138.392
 20
81.5016
 30
0.000000
  70
    32
  0
VERTEX
  8
SAPA_ANSLUTNING
  5
1F45
 10
138.578
 20
81.6818
 30
0.000000
  70
    32
  0
VERTEX
  8
SAPA_ANSLUTNING
  5
1F46
 10
138.772
 20
81.8515
 30
0.000000
  70
    32
  0
VERTEX
  8
SAPA_ANSLUTNING
  5
1F47
 10
138.972
 20
82.0104
 30
0.000000
  70
    32
  0
VERTEX
  8
SAPA_ANSLUTNING
  5
1F48
 10
139.179
 20
82.1580
 30
0.000000
  70
    32
  0
VERTEX
  8
SAPA_ANSLUTNING
  5
1F49
 10
139.393
 20
82.2940
 30
0.000000
  70
    32
  0
VERTEX
  8
SAPA_ANSLUTNING
  5
1F4A
 10
139.612
 20
82.4180
 30
0.000000
  70
    32
  0
VERTEX
  8
SAPA_ANSLUTNING
  5
1F4B
 10
139.837
 20
82.5298
 30
0.000000
  70
    32
  0
VERTEX
  8
SAPA_ANSLUTNING
  5
1F4C
 10
140.066
 20
82.6291
 30
0.000000
  70
    32
  0
VERTEX
  8
SAPA_ANSLUTNING
  5
1F4D
 10
140.299
 20
82.7157
 30
0.000000
  70
    32
  0
VERTEX
  8
SAPA_ANSLUTNING
  5
1F4E
 10
140.535
 20
82.7893
 30
0.000000
  70
    32
  0
VERTEX
  8
SAPA_ANSLUTNING
  5
1F4F
 10
140.775
 20
82.8497
 30
0.000000
  70
    32
  0
VERTEX
  8
SAPA_ANSLUTNING
  5
1F50
 10
141.016
 20
82.8969
 30
0.000000
  70
    32
  0
VERTEX
  8
SAPA_ANSLUTNING
  5
1F51
 10
141.260
 20
82.9306
 30
0.000000
  70
    32
  0
VERTEX
  8
SAPA_ANSLUTNING
  5
1F52
 10
141.505
 20
82.9509
 30
0.000000
  70
    32
  0
VERTEX
  8
SAPA_ANSLUTNING
  5
1F53
 10
141.750
 20
82.9577
 30
0.000000
  70
    32
  0
SEQEND
  8
SAPA_ANSLUTNING
  5
1F54
  0
POLYLINE
  5
17C7
  8
SAPA_ANSLUTNING
 66
     1
 10
0.0
 20
0.0
 30
0.0
  0
VERTEX
  5
1E37
  8
SAPA_ANSLUTNING
 10
138.25107154260959
 20
81.352069590541532
 30
0.0
 42
-0.8812634091771133
  0
VERTEX
  5
1E38
  8
SAPA_ANSLUTNING
 10
138.74999999926871
 20
85.288837618761818
 30
0.0
  0
VERTEX
  5
1E39
  8
SAPA_ANSLUTNING
 10
144.74999999926871
 20
85.288837618761818
 30
0.0
 42
0.9999999999999998
  0
VERTEX
  5
1E3A
  8
SAPA_ANSLUTNING
 10
144.74999999926871
 20
89.288837618761818
 30
0.0
  0
VERTEX
  5
1E3B
  8
SAPA_ANSLUTNING
 10
138.74999999926871
 20
89.288837618761818
 30
0.0
 42
-0.9999999999999998
  0
VERTEX
  5
1E3C
  8
SAPA_ANSLUTNING
 10
138.74999999926871
 20
93.288837618761818
 30
0.0
  0
VERTEX
  5
1E3D
  8
SAPA_ANSLUTNING
 10
144.74999999926871
 20
93.288837618761818
 30
0.0
 42
0.9999999999999998
  0
VERTEX
  5
1E3E
  8
SAPA_ANSLUTNING
 10
144.74999999926871
 20
97.288837618761832
 30
0.0
  0
VERTEX
  5
1E3F
  8
SAPA_ANSLUTNING
 10
138.74999999926871
 20
97.288837618761832
 30
0.0
 42
-0.9999999999999998
  0
VERTEX
  5
1E40
  8
SAPA_ANSLUTNING
 10
138.74999999926871
 20
101.2888376187618
 30
0.0
  0
VERTEX
  5
1E41
  8
SAPA_ANSLUTNING
 10
144.74999999926871
 20
101.2888376187618
 30
0.0
 42
0.9999999999999998
  0
VERTEX
  5
1E42
  8
SAPA_ANSLUTNING
 10
144.74999999926871
 20
105.2888376187618
 30
0.0
  0
VERTEX
  5
1E43
  8
SAPA_ANSLUTNING
 10
138.74999999926871
 20
105.2888376187618
 30
0.0
 42
-0.9999999999999998
  0
VERTEX
  5
1E44
  8
SAPA_ANSLUTNING
 10
138.74999999926871
 20
109.2888376187618
 30
0.0
  0
VERTEX
  5
1E45
  8
SAPA_ANSLUTNING
 10
144.74999999926871
 20
109.2888376187618
 30
0.0
 42
0.9999999999999998
  0
VERTEX
  5
1E46
  8
SAPA_ANSLUTNING
 10
144.74999999926871
 20
113.2888376187618
 30
0.0
  0
VERTEX
  5
1E47
  8
SAPA_ANSLUTNING
 10
138.74999999926871
 20
113.2888376187618
 30
0.0
 42
-0.9999999999999998
  0
VERTEX
  5
1E48
  8
SAPA_ANSLUTNING
 10
138.74999999926871
 20
117.2888376187618
 30
0.0
  0
VERTEX
  5
1E49
  8
SAPA_ANSLUTNING
 10
144.74999999926871
 20
117.2888376187618
 30
0.0
 42
0.9999999999999998
  0
VERTEX
  5
1E4A
  8
SAPA_ANSLUTNING
 10
144.74999999926871
 20
121.2888376187618
 30
0.0
  0
VERTEX
  5
1E4B
  8
SAPA_ANSLUTNING
 10
138.74999999926871
 20
121.2888376187618
 30
0.0
 42
-0.9999999999999998
  0
VERTEX
  5
1E4C
  8
SAPA_ANSLUTNING
 10
138.74999999926871
 20
125.2888376187618
 30
0.0
  0
VERTEX
  5
1E4D
  8
SAPA_ANSLUTNING
 10
144.74999999926871
 20
125.2888376187618
 30
0.0
 42
0.9999999999999998
  0
VERTEX
  5
1E4E
  8
SAPA_ANSLUTNING
 10
144.74999999926871
 20
129.28883761876179
 30
0.0
  0
VERTEX
  5
1E4F
  8
SAPA_ANSLUTNING
 10
138.74999999926871
 20
129.28883761876179
 30
0.0
 42
-0.9999999999999998
  0
VERTEX
  5
1E50
  8
SAPA_ANSLUTNING
 10
138.74999999926871
 20
133.28883761876179
 30
0.0
  0
VERTEX
  5
1E51
  8
SAPA_ANSLUTNING
 10
144.74999999926871
 20
133.28883761876179
 30
0.0
 42
0.9999999999999998
  0
VERTEX
  5
1E52
  8
SAPA_ANSLUTNING
 10
144.74999999926871
 20
137.28883761876179
 30
0.0
  0
VERTEX
  5
1E53
  8
SAPA_ANSLUTNING
 10
138.74999999926871
 20
137.28883761876179
 30
0.0
 42
-0.5251735434384823
  0
VERTEX
  5
1E54
  8
SAPA_ANSLUTNING
 10
136.88070920661221
 20
140.0000000000004
 30
0.0
 42
-0.5251735434384823
  0
SEQEND
  5
1E55
  8
SAPA_ANSLUTNING
  0
LINE
  5
17C8
  8
SAPA_ANSLUTNING
 10
-13.24999992848598
 20
64.999999999994984
 30
0.0
 11
-57.869466405531853
 21
64.999999999994984
 31
0.0
  0
LINE
  5
17C9
  8
SAPA_ANSLUTNING
 10
-13.24999992848598
 20
64.999999999994984
 30
0.0
 11
-13.24999992848598
 21
140.0000000000004
 31
0.0
  0
POLYLINE
  5
17CA
  8
SAPA_ANSLUTNING
 66
     1
 10
0.0
 20
0.0
 30
0.0
  0
VERTEX
  5
1E56
  8
SAPA_ANSLUTNING
 10
-12.8132319002658
 20
137.999999999995
 30
0.0
  0
VERTEX
  5
1E57
  8
SAPA_ANSLUTNING
 10
-12.8132319002658
 20
126.999999999995
 30
0.0
 42
0.9999999999999998
  0
VERTEX
  5
1E58
  8
SAPA_ANSLUTNING
 10
-8.8132319002658051
 20
126.999999999995
 30
0.0
  0
VERTEX
  5
1E59
  8
SAPA_ANSLUTNING
 10
-8.8132319002658051
 20
137.999999999995
 30
0.0
 42
-0.9999999999999998
  0
VERTEX
  5
1E5A
  8
SAPA_ANSLUTNING
 10
-4.8132319002656914
 20
137.999999999995
 30
0.0
  0
VERTEX
  5
1E5B
  8
SAPA_ANSLUTNING
 10
-4.8132319002656914
 20
126.999999999995
 30
0.0
 42
0.9999999999999998
  0
VERTEX
  5
1E5C
  8
SAPA_ANSLUTNING
 10
-0.8132319002656913
 20
126.999999999995
 30
0.0
  0
VERTEX
  5
1E5D
  8
SAPA_ANSLUTNING
 10
-0.8132319002656913
 20
137.999999999995
 30
0.0
 42
-0.9999999999999998
  0
VERTEX
  5
1E5E
  8
SAPA_ANSLUTNING
 10
3.1867680997343082
 20
137.999999999995
 30
0.0
  0
VERTEX
  5
1E5F
  8
SAPA_ANSLUTNING
 10
3.1867680997343082
 20
126.999999999995
 30
0.0
 42
0.9999999999999998
  0
VERTEX
  5
1E60
  8
SAPA_ANSLUTNING
 10
7.1867680997343077
 20
126.999999999995
 30
0.0
  0
VERTEX
  5
1E61
  8
SAPA_ANSLUTNING
 10
7.1867680997343077
 20
137.999999999995
 30
0.0
 42
-0.9999999999999998
  0
VERTEX
  5
1E62
  8
SAPA_ANSLUTNING
 10
11.18676809973431
 20
137.999999999995
 30
0.0
  0
VERTEX
  5
1E63
  8
SAPA_ANSLUTNING
 10
11.18676809973431
 20
126.999999999995
 30
0.0
 42
0.9999999999999998
  0
VERTEX
  5
1E64
  8
SAPA_ANSLUTNING
 10
15.18676809973431
 20
126.999999999995
 30
0.0
  0
VERTEX
  5
1E65
  8
SAPA_ANSLUTNING
 10
15.18676809973431
 20
137.999999999995
 30
0.0
 42
-0.9999999999999998
  0
VERTEX
  5
1E66
  8
SAPA_ANSLUTNING
 10
19.186768099734309
 20
137.999999999995
 30
0.0
  0
VERTEX
  5
1E67
  8
SAPA_ANSLUTNING
 10
19.186768099734309
 20
126.999999999995
 30
0.0
 42
0.9999999999999998
  0
VERTEX
  5
1E68
  8
SAPA_ANSLUTNING
 10
23.186768099734309
 20
126.999999999995
 30
0.0
  0
VERTEX
  5
1E69
  8
SAPA_ANSLUTNING
 10
23.186768099734309
 20
137.999999999995
 30
0.0
 42
-0.9999999999999998
  0
VERTEX
  5
1E6A
  8
SAPA_ANSLUTNING
 10
27.186768099734309
 20
137.999999999995
 30
0.0
  0
VERTEX
  5
1E6B
  8
SAPA_ANSLUTNING
 10
27.186768099734309
 20
126.999999999995
 30
0.0
 42
0.9999999999999998
  0
VERTEX
  5
1E6C
  8
SAPA_ANSLUTNING
 10
31.186768099734309
 20
126.999999999995
 30
0.0
  0
VERTEX
  5
1E6D
  8
SAPA_ANSLUTNING
 10
31.186768099734309
 20
137.999999999995
 30
0.0
 42
-0.9999999999999998
  0
VERTEX
  5
1E6E
  8
SAPA_ANSLUTNING
 10
35.186768099734309
 20
137.999999999995
 30
0.0
  0
VERTEX
  5
1E6F
  8
SAPA_ANSLUTNING
 10
35.186768099734309
 20
126.999999999995
 30
0.0
 42
0.9999999999999998
  0
VERTEX
  5
1E70
  8
SAPA_ANSLUTNING
 10
39.186768099734309
 20
126.999999999995
 30
0.0
  0
VERTEX
  5
1E71
  8
SAPA_ANSLUTNING
 10
39.186768099734309
 20
137.999999999995
 30
0.0
 42
-0.9999999999999998
  0
VERTEX
  5
1E72
  8
SAPA_ANSLUTNING
 10
43.186768099734309
 20
137.999999999995
 30
0.0
  0
VERTEX
  5
1E73
  8
SAPA_ANSLUTNING
 10
43.186768099734309
 20
126.999999999995
 30
0.0
 42
0.9999999999999998
  0
VERTEX
  5
1E74
  8
SAPA_ANSLUTNING
 10
47.186768099734302
 20
126.999999999995
 30
0.0
  0
VERTEX
  5
1E75
  8
SAPA_ANSLUTNING
 10
47.186768099734302
 20
137.999999999995
 30
0.0
 42
-0.9999999999999998
  0
VERTEX
  5
1E76
  8
SAPA_ANSLUTNING
 10
51.186768099734309
 20
137.999999999995
 30
0.0
  0
VERTEX
  5
1E77
  8
SAPA_ANSLUTNING
 10
51.186768099734309
 20
126.999999999995
 30
0.0
 42
0.9999999999999998
  0
VERTEX
  5
1E78
  8
SAPA_ANSLUTNING
 10
55.186768099734309
 20
126.999999999995
 30
0.0
  0
VERTEX
  5
1E79
  8
SAPA_ANSLUTNING
 10
55.186768099734309
 20
137.999999999995
 30
0.0
 42
-0.9999999999999429
  0
VERTEX
  5
1E7A
  8
SAPA_ANSLUTNING
 10
59.186768099733847
 20
137.9999999999952
 30
0.0
  0
VERTEX
  5
1E7B
  8
SAPA_ANSLUTNING
 10
59.186768099734309
 20
126.999999999995
 30
0.0
 42
0.9999999999999998
  0
VERTEX
  5
1E7C
  8
SAPA_ANSLUTNING
 10
63.186768099734309
 20
126.999999999995
 30
0.0
  0
VERTEX
  5
1E7D
  8
SAPA_ANSLUTNING
 10
63.186768099734081
 20
137.999999999995
 30
0.0
 42
-0.9999999999999998
  0
VERTEX
  5
1E7E
  8
SAPA_ANSLUTNING
 10
67.186768099734081
 20
137.999999999995
 30
0.0
  0
VERTEX
  5
1E7F
  8
SAPA_ANSLUTNING
 10
67.186768099734081
 20
126.999999999995
 30
0.0
 42
0.9999999999999998
  0
VERTEX
  5
1E80
  8
SAPA_ANSLUTNING
 10
71.186768099734081
 20
126.999999999995
 30
0.0
  0
VERTEX
  5
1E81
  8
SAPA_ANSLUTNING
 10
71.186768099734081
 20
137.999999999995
 30
0.0
 42
-0.9999999999999998
  0
VERTEX
  5
1E82
  8
SAPA_ANSLUTNING
 10
75.186768099734081
 20
137.999999999995
 30
0.0
  0
VERTEX
  5
1E83
  8
SAPA_ANSLUTNING
 10
75.186768099734081
 20
126.999999999995
 30
0.0
 42
0.9999999999999998
  0
VERTEX
  5
1E84
  8
SAPA_ANSLUTNING
 10
79.186768099734081
 20
126.999999999995
 30
0.0
  0
VERTEX
  5
1E85
  8
SAPA_ANSLUTNING
 10
79.186768099734081
 20
137.999999999995
 30
0.0
 42
-0.9999999999999998
  0
VERTEX
  5
1E86
  8
SAPA_ANSLUTNING
 10
83.186768099734095
 20
137.999999999995
 30
0.0
  0
VERTEX
  5
1E87
  8
SAPA_ANSLUTNING
 10
83.186768099734095
 20
126.999999999995
 30
0.0
 42
0.9999999999999998
  0
VERTEX
  5
1E88
  8
SAPA_ANSLUTNING
 10
87.186768099734067
 20
126.999999999995
 30
0.0
  0
VERTEX
  5
1E89
  8
SAPA_ANSLUTNING
 10
87.186768099734067
 20
137.999999999995
 30
0.0
 42
-0.9999999999999998
  0
VERTEX
  5
1E8A
  8
SAPA_ANSLUTNING
 10
91.186768099734081
 20
137.999999999995
 30
0.0
  0
VERTEX
  5
1E8B
  8
SAPA_ANSLUTNING
 10
91.186768099734081
 20
126.999999999995
 30
0.0
 42
0.9999999999999998
  0
VERTEX
  5
1E8C
  8
SAPA_ANSLUTNING
 10
95.186768099734081
 20
126.999999999995
 30
0.0
  0
VERTEX
  5
1E8D
  8
SAPA_ANSLUTNING
 10
95.186768099734081
 20
137.999999999995
 30
0.0
 42
-0.9999999999999998
  0
VERTEX
  5
1E8E
  8
SAPA_ANSLUTNING
 10
99.186768099734081
 20
137.999999999995
 30
0.0
  0
VERTEX
  5
1E8F
  8
SAPA_ANSLUTNING
 10
99.186768099734081
 20
126.999999999995
 30
0.0
 42
0.9999999999999998
  0
VERTEX
  5
1E90
  8
SAPA_ANSLUTNING
 10
103.1867680997341
 20
126.999999999995
 30
0.0
  0
VERTEX
  5
1E91
  8
SAPA_ANSLUTNING
 10
103.1867680997341
 20
137.999999999995
 30
0.0
 42
-0.9999999999999998
  0
VERTEX
  5
1E92
  8
SAPA_ANSLUTNING
 10
107.1867680997341
 20
137.999999999995
 30
0.0
  0
VERTEX
  5
1E93
  8
SAPA_ANSLUTNING
 10
107.1867680997341
 20
126.999999999995
 30
0.0
 42
0.9999999999999998
  0
VERTEX
  5
1E94
  8
SAPA_ANSLUTNING
 10
111.1867680997341
 20
126.999999999995
 30
0.0
  0
VERTEX
  5
1E95
  8
SAPA_ANSLUTNING
 10
111.1867680997341
 20
137.999999999995
 30
0.0
 42
-0.9999999999999998
  0
VERTEX
  5
1E96
  8
SAPA_ANSLUTNING
 10
115.1867680997341
 20
137.999999999995
 30
0.0
  0
VERTEX
  5
1E97
  8
SAPA_ANSLUTNING
 10
115.1867680997341
 20
126.999999999995
 30
0.0
 42
0.9999999999999998
  0
VERTEX
  5
1E98
  8
SAPA_ANSLUTNING
 10
119.186768099734
 20
126.999999999995
 30
0.0
  0
VERTEX
  5
1E99
  8
SAPA_ANSLUTNING
 10
119.186768099734
 20
137.999999999995
 30
0.0
 42
-0.9999999999999998
  0
VERTEX
  5
1E9A
  8
SAPA_ANSLUTNING
 10
123.1867680997341
 20
137.999999999995
 30
0.0
  0
VERTEX
  5
1E9B
  8
SAPA_ANSLUTNING
 10
123.1867680997341
 20
126.999999999995
 30
0.0
 42
0.9999999999999998
  0
VERTEX
  5
1E9C
  8
SAPA_ANSLUTNING
 10
127.1867680997341
 20
126.999999999995
 30
0.0
  0
VERTEX
  5
1E9D
  8
SAPA_ANSLUTNING
 10
127.1867680997341
 20
137.999999999995
 30
0.0
 42
-0.9999999999999998
  0
VERTEX
  5
1E9E
  8
SAPA_ANSLUTNING
 10
131.18676809973411
 20
137.999999999995
 30
0.0
  0
VERTEX
  5
1E9F
  8
SAPA_ANSLUTNING
 10
131.18676809973411
 20
126.999999999995
 30
0.0
 42
0.9999999999999998
  0
VERTEX
  5
1EA0
  8
SAPA_ANSLUTNING
 10
135.18676809973411
 20
126.999999999995
 30
0.0
  0
VERTEX
  5
1EA1
  8
SAPA_ANSLUTNING
 10
135.18676809973411
 20
137.999999999995
 30
0.0
  0
SEQEND
  5
1EA2
  8
SAPA_ANSLUTNING
  0
ARC
  5
17CB
  8
SAPA_ANSLUTNING
 10
140.07825842330411
 20
40.351707880118958
 30
0.0
 40
25.53527834356208
 50
74.854243156964372
 51
98.817049425563752
  0
LINE
  5
18FC
  8
SAPA_FOGBAND
 10
67.3504326030166
 20
70.256048620696447
 30
0.0
 11
72.346635931192907
 21
70.256048620693704
 31
0.0
  0
LINE
  5
18FD
  8
SAPA_FOGBAND
 10
72.346635931192907
 20
70.106048620694992
 30
0.0
 11
67.3504326030166
 21
70.106048620694992
 31
0.0
  0
LINE
  5
1901
  8
SAPA_FOGBAND
 10
67.3504326030166
 20
78.756048620700994
 30
0.0
 11
71.924959456670933
 21
78.756048620697356
 31
0.0
  0
LINE
  5
1902
  8
SAPA_FOGBAND
 10
71.924959456670933
 20
78.606048620699539
 30
0.0
 11
67.3504326030166
 21
78.606048620699539
 31
0.0
  0
LINE
  5
1906
  8
SAPA_FOGBAND
 10
133.14956753925031
 20
70.256048620696447
 30
0.0
 11
128.25089844872181
 21
70.256048620693704
 31
0.0
  0
LINE
  5
1907
  8
SAPA_FOGBAND
 10
128.25089844872181
 20
70.106048620694992
 30
0.0
 11
133.14956753925031
 21
70.106048620694992
 31
0.0
  0
LINE
  5
190B
  8
SAPA_FOGBAND
 10
133.14956753925031
 20
78.756048620700994
 30
0.0
 11
128.6857475660463
 21
78.756048620697356
 31
0.0
  0
LINE
  5
190C
  8
SAPA_FOGBAND
 10
128.6857475660463
 20
78.606048620699539
 30
0.0
 11
133.14956753925031
 21
78.606048620699539
 31
0.0
  0
LINE
  5
1A16
  8
SAPA_FOGBAND
 10
133.14956753925031
 20
78.531048620698812
 30
0.0
 11
128.93511689923619
 21
78.421051235516416
 31
0.0
  0
LINE
  5
1A17
  8
SAPA_FOGBAND
 10
128.93511689923619
 20
78.421051235516416
 30
0.0
 11
128.9356933981108
 21
75.982957895094614
 31
0.0
  0
LINE
  5
1A18
  8
SAPA_FOGBAND
 10
128.9356933981108
 20
75.982957895094614
 30
0.0
 11
133.14956753925031
 21
77.108359017559224
 31
0.0
  0
LINE
  5
1A1B
  8
SAPA_FOGBAND
 10
133.14956753925031
 20
80.253738223841296
 30
0.0
 11
128.93552368364371
 21
81.379184821157409
 31
0.0
  0
LINE
  5
1A1C
  8
SAPA_FOGBAND
 10
128.93552368364371
 20
81.379184821157409
 30
0.0
 11
128.9350875428236
 21
78.941046774608139
 31
0.0
  0
LINE
  5
1A1D
  8
SAPA_FOGBAND
 10
128.9350875428236
 20
78.941046774608139
 30
0.0
 11
133.14956753925031
 21
78.831048620701722
 31
0.0
  0
LINE
  5
1A1E
  8
SAPA_FOGBAND
 10
133.9495675392514
 20
75.53104862070154
 30
0.0
 11
133.14956753925031
 21
75.53104862070154
 31
0.0
  0
LINE
  5
1A1F
  8
SAPA_FOGBAND
 10
133.14956753925031
 20
75.53104862070154
 30
0.0
 11
133.14956753925031
 21
81.831048620698994
 31
0.0
  0
LINE
  5
1A20
  8
SAPA_FOGBAND
 10
133.14956753925031
 20
81.831048620698994
 30
0.0
 11
133.9495675392514
 21
81.831048620698994
 31
0.0
  0
LINE
  5
1A21
  8
SAPA_FOGBAND
 10
133.9495675392514
 20
81.831048620698994
 30
0.0
 11
133.9495675392514
 21
75.53104862070154
 31
0.0
  0
LINE
  5
1A22
  8
SAPA_FOGBAND
 10
133.14956753925031
 20
70.031048620694264
 30
0.0
 11
128.50026778191159
 21
69.921051235512778
 31
0.0
  0
LINE
  5
1A23
  8
SAPA_FOGBAND
 10
128.50026778191159
 20
69.921051235512778
 30
0.0
 11
128.5008442807862
 21
67.482957895090067
 31
0.0
  0
LINE
  5
1A24
  8
SAPA_FOGBAND
 10
128.5008442807862
 20
67.482957895090067
 30
0.0
 11
133.14956753925031
 21
68.608359017554676
 31
0.0
  0
LINE
  5
1A25
  8
SAPA_FOGBAND
 10
133.14956753925031
 20
71.753738223836763
 30
0.0
 11
128.50067456631911
 21
72.879184821152876
 31
0.0
  0
LINE
  5
1A26
  8
SAPA_FOGBAND
 10
128.50067456631911
 20
72.879184821152876
 30
0.0
 11
128.50023842549899
 21
70.441046774604501
 31
0.0
  0
LINE
  5
1A27
  8
SAPA_FOGBAND
 10
128.50023842549899
 20
70.441046774604501
 30
0.0
 11
133.14956753925031
 21
70.331048620697175
 31
0.0
  0
LINE
  5
1A28
  8
SAPA_FOGBAND
 10
133.9495675392514
 20
67.031048620697902
 30
0.0
 11
133.14956753925031
 21
67.031048620697902
 31
0.0
  0
LINE
  5
1A29
  8
SAPA_FOGBAND
 10
133.14956753925031
 20
67.031048620697902
 30
0.0
 11
133.14956753925031
 21
73.331048620694446
 31
0.0
  0
LINE
  5
1A2A
  8
SAPA_FOGBAND
 10
133.14956753925031
 20
73.331048620694446
 30
0.0
 11
133.9495675392514
 21
73.331048620694446
 31
0.0
  0
LINE
  5
1A2B
  8
SAPA_FOGBAND
 10
133.9495675392514
 20
73.331048620694446
 30
0.0
 11
133.9495675392514
 21
67.031048620697902
 31
0.0
  0
LINE
  5
1A2C
  8
SAPA_FOGBAND
 10
67.3504326030166
 20
78.531048620698812
 30
0.0
 11
71.675590123481072
 21
78.421051235516416
 31
0.0
  0
LINE
  5
1A2D
  8
SAPA_FOGBAND
 10
71.675590123481072
 20
78.421051235516416
 30
0.0
 11
71.675013624606493
 21
75.982957895094614
 31
0.0
  0
LINE
  5
1A2E
  8
SAPA_FOGBAND
 10
71.675013624606493
 20
75.982957895094614
 30
0.0
 11
67.3504326030166
 21
77.108359017559224
 31
0.0
  0
LINE
  5
1A2F
  8
SAPA_FOGBAND
 10
67.3504326030166
 20
80.253738223841296
 30
0.0
 11
71.675183339073612
 21
81.379184821157409
 31
0.0
  0
LINE
  5
1A30
  8
SAPA_FOGBAND
 10
71.675183339073612
 20
81.379184821157409
 30
0.0
 11
71.675619479893669
 21
78.941046774608139
 31
0.0
  0
LINE
  5
1A31
  8
SAPA_FOGBAND
 10
71.675619479893669
 20
78.941046774608139
 30
0.0
 11
67.3504326030166
 21
78.831048620701722
 31
0.0
  0
LINE
  5
1A32
  8
SAPA_FOGBAND
 10
66.550432603015508
 20
75.53104862070154
 30
0.0
 11
67.3504326030166
 21
75.53104862070154
 31
0.0
  0
LINE
  5
1A33
  8
SAPA_FOGBAND
 10
67.3504326030166
 20
75.53104862070154
 30
0.0
 11
67.3504326030166
 21
81.831048620698994
 31
0.0
  0
LINE
  5
1A34
  8
SAPA_FOGBAND
 10
67.3504326030166
 20
81.831048620698994
 30
0.0
 11
66.550432603015508
 21
81.831048620698994
 31
0.0
  0
LINE
  5
1A35
  8
SAPA_FOGBAND
 10
66.550432603015508
 20
81.831048620698994
 30
0.0
 11
66.550432603015508
 21
75.53104862070154
 31
0.0
  0
LINE
  5
1A36
  8
SAPA_FOGBAND
 10
67.3504326030166
 20
70.031048620694264
 30
0.0
 11
72.097266598003046
 21
69.921051235512778
 31
0.0
  0
LINE
  5
1A37
  8
SAPA_FOGBAND
 10
72.097266598003046
 20
69.921051235512778
 30
0.0
 11
72.096690099128466
 21
67.482957895090067
 31
0.0
  0
LINE
  5
1A38
  8
SAPA_FOGBAND
 10
72.096690099128466
 20
67.482957895090067
 30
0.0
 11
67.3504326030166
 21
68.608359017554676
 31
0.0
  0
LINE
  5
1A39
  8
SAPA_FOGBAND
 10
67.3504326030166
 20
71.753738223836763
 30
0.0
 11
72.096859813595586
 21
72.879184821152876
 31
0.0
  0
LINE
  5
1A3A
  8
SAPA_FOGBAND
 10
72.096859813595586
 20
72.879184821152876
 30
0.0
 11
72.097295954415642
 21
70.441046774604501
 31
0.0
  0
LINE
  5
1A3B
  8
SAPA_FOGBAND
 10
72.097295954415642
 20
70.441046774604501
 30
0.0
 11
67.3504326030166
 21
70.331048620697175
 31
0.0
  0
LINE
  5
1A3C
  8
SAPA_FOGBAND
 10
66.550432603015508
 20
67.031048620697902
 30
0.0
 11
67.3504326030166
 21
67.031048620697902
 31
0.0
  0
LINE
  5
1A3D
  8
SAPA_FOGBAND
 10
67.3504326030166
 20
67.031048620697902
 30
0.0
 11
67.3504326030166
 21
73.331048620694446
 31
0.0
  0
LINE
  5
1A3E
  8
SAPA_FOGBAND
 10
67.3504326030166
 20
73.331048620694446
 30
0.0
 11
66.550432603015508
 21
73.331048620694446
 31
0.0
  0
LINE
  5
1A3F
  8
SAPA_FOGBAND
 10
66.550432603015508
 20
73.331048620694446
 30
0.0
 11
66.550432603015508
 21
67.031048620697902
 31
0.0
  0
LINE
  5
1A40
  8
SAPA_GLAS
 10
5.2500000706643268
 20
40.999444650069343
 30
0.0
 11
5.2500000706643268
 21
72.999444650069336
 31
0.0
  0
LINE
  5
1A41
  8
SAPA_GLAS
 10
5.2500000706643268
 20
72.999444650069336
 30
0.0
 11
-2.7499999293356718
 21
72.999444650069336
 31
0.0
  0
LINE
  5
1A42
  8
SAPA_GLAS
 10
-2.7499999293356718
 20
72.999444650069336
 30
0.0
 11
-2.7499999293356718
 21
40.999444650069343
 31
0.0
  0
LINE
  5
1A43
  8
SAPA_GLAS
 10
5.2500000706643268
 20
62.999444650069343
 30
0.0
 11
20.250000070664331
 21
62.999444650069343
 31
0.0
  0
LINE
  5
1A44
  8
SAPA_GLAS
 10
20.250000070664331
 20
62.999444650069343
 30
0.0
 11
20.250000070664331
 21
72.999444650069336
 31
0.0
  0
LINE
  5
1A45
  8
SAPA_GLAS
 10
20.250000070664331
 20
72.999444650069336
 30
0.0
 11
5.2500000706643268
 21
72.999444650069336
 31
0.0
  0
LINE
  5
1A46
  8
SAPA_GLAS
 10
5.2500000706643268
 20
72.999444650069336
 30
0.0
 11
5.2500000706643268
 21
62.999444650069343
 31
0.0
  0
LINE
  5
1A47
  8
SAPA_GLAS
 10
26.250000070664331
 20
40.999444650069343
 30
0.0
 11
26.250000070664331
 21
72.999444650069336
 31
0.0
  0
LINE
  5
1A48
  8
SAPA_GLAS
 10
26.250000070664331
 20
72.999444650069336
 30
0.0
 11
20.250000070664331
 21
72.999444650069336
 31
0.0
  0
LINE
  5
1A49
  8
SAPA_GLAS
 10
20.250000070664331
 20
72.999444650069336
 30
0.0
 11
20.250000070664331
 21
40.999444650069343
 31
0.0
  0
LINE
  5
1A4A
  8
SAPA_GLAS
 10
-3.4865771550077862
 20
72.999444650070245
 30
0.0
 11
-2.7499999293522741
 21
72.262867424414722
 31
0.0
1001
ACAD
1010
0.0
1020
0.0
1030
0.0
  0
LINE
  5
1A4B
  8
SAPA_GLAS
 10
-3.499999929692251
 20
71.890335409621059
 30
0.0
 11
-2.7499999293522772
 21
71.140335409281079
 31
0.0
1001
ACAD
1010
0.0
1020
0.0
1030
0.0
  0
LINE
  5
1A4C
  8
SAPA_GLAS
 10
-3.4999999296934661
 20
70.767803394488624
 30
0.0
 11
-2.749999929352267
 21
70.017803394147435
 31
0.0
1001
ACAD
1010
0.0
1020
0.0
1030
0.0
  0
LINE
  5
1A4D
  8
SAPA_GLAS
 10
-3.4999999296946842
 20
69.645271379356203
 30
0.0
 11
-2.749999929352267
 21
68.895271379013792
 31
0.0
1001
ACAD
1010
0.0
1020
0.0
1030
0.0
  0
LINE
  5
1A4E
  8
SAPA_GLAS
 10
-3.4999999296958961
 20
68.522739364223781
 30
0.0
 11
-2.7499999293522701
 21
67.772739363880149
 31
0.0
1001
ACAD
1010
0.0
1020
0.0
1030
0.0
  0
LINE
  5
1A4F
  8
SAPA_GLAS
 10
-3.4999999296971138
 20
67.400207349091346
 30
0.0
 11
-2.749999929352267
 21
66.650207348746491
 31
0.0
1001
ACAD
1010
0.0
1020
0.0
1030
0.0
  0
LINE
  5
1A50
  8
SAPA_GLAS
 10
-3.49999992969834
 20
66.277675333958925
 30
0.0
 11
-2.7499999293522701
 21
65.527675333612848
 31
0.0
1001
ACAD
1010
0.0
1020
0.0
1030
0.0
  0
LINE
  5
1A51
  8
SAPA_GLAS
 10
-3.4999999296995412
 20
65.155143318826475
 30
0.0
 11
-2.749999929352267
 21
64.405143318479205
 31
0.0
1001
ACAD
1010
0.0
1020
0.0
1030
0.0
  0
LINE
  5
1A52
  8
SAPA_GLAS
 10
-3.499999929700774
 20
64.032611303694068
 30
0.0
 11
-2.7499999293522701
 21
63.282611303345561
 31
0.0
1001
ACAD
1010
0.0
1020
0.0
1030
0.0
  0
LINE
  5
1A53
  8
SAPA_GLAS
 10
-3.499999929701985
 20
62.910079288561633
 30
0.0
 11
-2.7499999293522701
 21
62.160079288211911
 31
0.0
1001
ACAD
1010
0.0
1020
0.0
1030
0.0
  0
LINE
  5
1A54
  8
SAPA_GLAS
 10
-3.4999999297032001
 20
61.78754727342919
 30
0.0
 11
-2.749999929352267
 21
61.037547273078268
 31
0.0
1001
ACAD
1010
0.0
1020
0.0
1030
0.0
  0
LINE
  5
1A55
  8
SAPA_GLAS
 10
-3.4999999297044151
 20
60.665015258296783
 30
0.0
 11
-3.0344293214661171
 21
60.199444650058467
 31
0.0
1001
ACAD
1010
0.0
1020
0.0
1030
0.0
  0
LINE
  5
1A56
  8
SAPA_GLAS
 10
-3.4999999296911208
 20
72.932157307578265
 30
0.0
 11
-3.4327125871992261
 21
72.999444650070146
 31
0.0
1001
ACAD
1010
0.0
1020
0.0
1030
0.0
  0
LINE
  5
1A57
  8
SAPA_GLAS
 10
-3.4999999296923359
 20
71.809625292443386
 30
0.0
 11
-2.749999929352263
 21
72.559625292783466
 31
0.0
1001
ACAD
1010
0.0
1020
0.0
1030
0.0
  0
LINE
  5
1A58
  8
SAPA_GLAS
 10
-3.4999999296935509
 20
70.687093277308534
 30
0.0
 11
-2.749999929352263
 21
71.437093277649822
 31
0.0
1001
ACAD
1010
0.0
1020
0.0
1030
0.0
  0
LINE
  5
1A59
  8
SAPA_GLAS
 10
-3.4999999296947588
 20
69.564561262173683
 30
0.0
 11
-2.7499999293522559
 21
70.314561262516179
 31
0.0
1001
ACAD
1010
0.0
1020
0.0
1030
0.0
  0
LINE
  5
1A5A
  8
SAPA_GLAS
 10
-3.4999999296959952
 20
68.442029247038803
 30
0.0
 11
-2.749999929352263
 21
69.192029247382536
 31
0.0
1001
ACAD
1010
0.0
1020
0.0
1030
0.0
  0
LINE
  5
1A5B
  8
SAPA_GLAS
 10
-3.499999929697196
 20
67.319497231903924
 30
0.0
 11
-2.7499999293522559
 21
68.069497232248892
 31
0.0
1001
ACAD
1010
0.0
1020
0.0
1030
0.0
  0
LINE
  5
1A5C
  8
SAPA_GLAS
 10
-3.4999999296984181
 20
66.196965216769087
 30
0.0
 11
-2.749999929352263
 21
66.946965217115249
 31
0.0
1001
ACAD
1010
0.0
1020
0.0
1030
0.0
  0
LINE
  5
1A5D
  8
SAPA_GLAS
 10
-3.4999999296996331
 20
65.074433201634236
 30
0.0
 11
-2.7499999293522559
 21
65.824433201981606
 31
0.0
1001
ACAD
1010
0.0
1020
0.0
1030
0.0
  0
LINE
  5
1A5E
  8
SAPA_GLAS
 10
-3.4999999297008548
 20
63.95190118649937
 30
0.0
 11
-2.749999929352263
 21
64.701901186847962
 31
0.0
1001
ACAD
1010
0.0
1020
0.0
1030
0.0
  0
LINE
  5
1A5F
  8
SAPA_GLAS
 10
-3.4999999297020561
 20
62.829369171364512
 30
0.0
 11
-2.749999929352263
 21
63.579369171714298
 31
0.0
1001
ACAD
1010
0.0
1020
0.0
1030
0.0
  0
LINE
  5
1A60
  8
SAPA_GLAS
 10
-3.4999999297032849
 20
61.706837156229653
 30
0.0
 11
-2.749999929352263
 21
62.456837156580669
 31
0.0
1001
ACAD
1010
0.0
1020
0.0
1030
0.0
  0
LINE
  5
1A61
  8
SAPA_GLAS
 10
-3.499999929704507
 20
60.584305141094781
 30
0.0
 11
-2.7499999293522559
 21
61.334305141447018
 31
0.0
1001
ACAD
1010
0.0
1020
0.0
1030
0.0
  0
LINE
  5
1A62
  8
SAPA_GLAS
 10
-2.7623284056071848
 20
60.19944465005846
 30
0.0
 11
-2.749999929352263
 21
60.211773126313389
 31
0.0
1001
ACAD
1010
0.0
1020
0.0
1030
0.0
  0
LINE
  5
1A63
  8
SAPA_GLAS
 10
49.272427556274337
 20
72.999444650069364
 30
0.0
 11
50.000000071325623
 21
72.271872135018072
 31
0.0
1001
ACAD
1010
0.0
1020
0.0
1030
0.0
  0
LINE
  5
1A64
  8
SAPA_GLAS
 10
49.250000070986061
 20
71.899340120223997
 30
0.0
 11
50.000000071326852
 21
71.149340119883206
 31
0.0
1001
ACAD
1010
0.0
1020
0.0
1030
0.0
  0
LINE
  5
1A65
  8
SAPA_GLAS
 10
49.250000070986061
 20
70.776808105090353
 30
0.0
 11
50.00000007132806
 21
70.026808104748355
 31
0.0
1001
ACAD
1010
0.0
1020
0.0
1030
0.0
  0
LINE
  5
1A66
  8
SAPA_GLAS
 10
49.250000070986061
 20
69.654276089956724
 30
0.0
 11
50.000000071329282
 21
68.904276089613489
 31
0.0
1001
ACAD
1010
0.0
1020
0.0
1030
0.0
  0
LINE
  5
1A67
  8
SAPA_GLAS
 10
49.250000070986061
 20
68.531744074823067
 30
0.0
 11
50.000000071330497
 21
67.781744074478624
 31
0.0
1001
ACAD
1010
0.0
1020
0.0
1030
0.0
  0
LINE
  5
1A68
  8
SAPA_GLAS
 10
49.250000070986061
 20
67.409212059689423
 30
0.0
 11
50.000000071331733
 21
66.659212059343758
 31
0.0
1001
ACAD
1010
0.0
1020
0.0
1030
0.0
  0
LINE
  5
1A69
  8
SAPA_GLAS
 10
49.250000070986061
 20
66.28668004455578
 30
0.0
 11
50.000000071332927
 21
65.536680044208907
 31
0.0
1001
ACAD
1010
0.0
1020
0.0
1030
0.0
  0
LINE
  5
1A6A
  8
SAPA_GLAS
 10
49.250000070986061
 20
65.164148029422137
 30
0.0
 11
50.000000071334149
 21
64.414148029074042
 31
0.0
1001
ACAD
1010
0.0
1020
0.0
1030
0.0
  0
LINE
  5
1A6B
  8
SAPA_GLAS
 10
49.250000070986061
 20
64.041616014288493
 30
0.0
 11
50.000000071335371
 21
63.291616013939183
 31
0.0
1001
ACAD
1010
0.0
1020
0.0
1030
0.0
  0
LINE
  5
1A6C
  8
SAPA_GLAS
 10
49.250000070986061
 20
62.91908399915485
 30
0.0
 11
50.000000071336594
 21
62.169083998804311
 31
0.0
1001
ACAD
1010
0.0
1020
0.0
1030
0.0
  0
LINE
  5
1A6D
  8
SAPA_GLAS
 10
49.250000070986061
 20
61.796551984021193
 30
0.0
 11
50.000000071337809
 21
61.04655198366946
 31
0.0
1001
ACAD
1010
0.0
1020
0.0
1030
0.0
  0
LINE
  5
1A6E
  8
SAPA_GLAS
 10
49.250000070986061
 20
60.674019968887549
 30
0.0
 11
49.724575389815143
 21
60.199444650058481
 31
0.0
1001
ACAD
1010
0.0
1020
0.0
1030
0.0
  0
LINE
  5
1A6F
  8
SAPA_GLAS
 10
49.250000070986061
 20
72.923152596974163
 30
0.0
 11
49.326292124081341
 21
72.999444650069421
 31
0.0
1001
ACAD
1010
0.0
1020
0.0
1030
0.0
  0
LINE
  5
1A70
  8
SAPA_GLAS
 10
49.250000070986069
 20
71.800620581840505
 30
0.0
 11
50.000000071325339
 21
72.550620582179775
 31
0.0
1001
ACAD
1010
0.0
1020
0.0
1030
0.0
  0
LINE
  5
1A71
  8
SAPA_GLAS
 10
49.250000070986061
 20
70.678088566706876
 30
0.0
 11
50.000000071326554
 21
71.428088567047354
 31
0.0
1001
ACAD
1010
0.0
1020
0.0
1030
0.0
  0
LINE
  5
1A72
  8
SAPA_GLAS
 10
49.250000070986069
 20
69.555556551573218
 30
0.0
 11
50.000000071327769
 21
70.305556551914904
 31
0.0
1001
ACAD
1010
0.0
1020
0.0
1030
0.0
  0
LINE
  5
1A73
  8
SAPA_GLAS
 10
49.250000070986061
 20
68.433024536439589
 30
0.0
 11
50.000000071328977
 21
69.183024536782511
 31
0.0
1001
ACAD
1010
0.0
1020
0.0
1030
0.0
  0
LINE
  5
1A74
  8
SAPA_GLAS
 10
49.250000070986061
 20
67.310492521305932
 30
0.0
 11
50.000000071330213
 21
68.060492521650076
 31
0.0
1001
ACAD
1010
0.0
1020
0.0
1030
0.0
  0
LINE
  5
1A75
  8
SAPA_GLAS
 10
49.250000070986061
 20
66.187960506172303
 30
0.0
 11
50.000000071331421
 21
66.937960506517655
 31
0.0
1001
ACAD
1010
0.0
1020
0.0
1030
0.0
  0
LINE
  5
1A76
  8
SAPA_GLAS
 10
49.250000070986061
 20
65.065428491038645
 30
0.0
 11
50.000000071332629
 21
65.815428491385205
 31
0.0
1001
ACAD
1010
0.0
1020
0.0
1030
0.0
  0
LINE
  5
1A77
  8
SAPA_GLAS
 10
49.250000070986061
 20
63.942896475905002
 30
0.0
 11
50.000000071333837
 21
64.692896476252798
 31
0.0
1001
ACAD
1010
0.0
1020
0.0
1030
0.0
  0
LINE
  5
1A78
  8
SAPA_GLAS
 10
49.250000070986061
 20
62.820364460771351
 30
0.0
 11
50.00000007133508
 21
63.570364461120363
 31
0.0
1001
ACAD
1010
0.0
1020
0.0
1030
0.0
  0
LINE
  5
1A79
  8
SAPA_GLAS
 10
49.250000070986061
 20
61.697832445637729
 30
0.0
 11
50.000000071336281
 21
62.447832445987942
 31
0.0
1001
ACAD
1010
0.0
1020
0.0
1030
0.0
  0
LINE
  5
1A7A
  8
SAPA_GLAS
 10
49.250000070986061
 20
60.575300430504072
 30
0.0
 11
50.000000071337489
 21
61.325300430855513
 31
0.0
1001
ACAD
1010
0.0
1020
0.0
1030
0.0
  0
LINE
  5
1A7B
  8
SAPA_GLAS
 10
49.996676305674107
 20
60.19944465005846
 30
0.0
 11
50.000000071338732
 21
60.202768415723071
 31
0.0
1001
ACAD
1010
0.0
1020
0.0
1030
0.0
  0
LINE
  5
1A7C
  8
SAPA_GLAS
 10
26.250000070825081
 20
62.999444650069343
 30
0.0
 11
41.250000070825067
 21
62.999444650069343
 31
0.0
  0
LINE
  5
1A7D
  8
SAPA_GLAS
 10
41.250000070825067
 20
62.999444650069343
 30
0.0
 11
41.250000070825067
 21
72.999444650069336
 31
0.0
  0
LINE
  5
1A7E
  8
SAPA_GLAS
 10
41.250000070825067
 20
72.999444650069336
 30
0.0
 11
26.250000070825081
 21
72.999444650069336
 31
0.0
  0
LINE
  5
1A7F
  8
SAPA_GLAS
 10
26.250000070825081
 20
72.999444650069336
 30
0.0
 11
26.250000070825081
 21
62.999444650069343
 31
0.0
  0
LINE
  5
1A80
  8
SAPA_GLAS
 10
49.250000070825301
 20
40.999444650069343
 30
0.0
 11
49.250000070825301
 21
72.999444650069336
 31
0.0
  0
LINE
  5
1A81
  8
SAPA_GLAS
 10
49.250000070825301
 20
72.999444650069336
 30
0.0
 11
41.250000070825308
 21
72.999444650069336
 31
0.0
  0
LINE
  5
1A82
  8
SAPA_GLAS
 10
41.250000070825308
 20
72.999444650069336
 30
0.0
 11
41.250000070825308
 21
40.999444650069343
 31
0.0
  0
LINE
  5
1A83
  8
SAPA_FOGBAND
 10
56.149567538933979
 20
78.363045158838077
 30
0.0
 11
51.93511689891988
 21
78.25304777365568
 31
0.0
  0
LINE
  5
1A84
  8
SAPA_FOGBAND
 10
51.93511689891988
 20
78.25304777365568
 30
0.0
 11
51.935693397794473
 21
75.814954433233879
 31
0.0
  0
LINE
  5
1A85
  8
SAPA_FOGBAND
 10
51.935693397794473
 20
75.814954433233879
 30
0.0
 11
56.149567538933979
 21
76.940355555698488
 31
0.0
  0
LINE
  5
1A86
  8
SAPA_FOGBAND
 10
56.149567538933979
 20
80.085734761980575
 30
0.0
 11
51.935523683327347
 21
81.211181359296674
 31
0.0
  0
LINE
  5
1A87
  8
SAPA_FOGBAND
 10
51.935523683327347
 20
81.211181359296674
 30
0.0
 11
51.935087542507283
 21
78.773043312747404
 31
0.0
  0
LINE
  5
1A88
  8
SAPA_FOGBAND
 10
51.935087542507283
 20
78.773043312747404
 30
0.0
 11
56.149567538933979
 21
78.663045158840987
 31
0.0
  0
LINE
  5
1A89
  8
SAPA_FOGBAND
 10
56.949567538935071
 20
75.363045158840805
 30
0.0
 11
56.149567538933979
 21
75.363045158840805
 31
0.0
  0
LINE
  5
1A8A
  8
SAPA_FOGBAND
 10
56.149567538933979
 20
75.363045158840805
 30
0.0
 11
56.149567538933979
 21
81.663045158838258
 31
0.0
  0
LINE
  5
1A8B
  8
SAPA_FOGBAND
 10
56.149567538933979
 20
81.663045158838258
 30
0.0
 11
56.949567538935071
 21
81.663045158838258
 31
0.0
  0
LINE
  5
1A8C
  8
SAPA_FOGBAND
 10
56.949567538935071
 20
81.663045158838258
 30
0.0
 11
56.949567538935071
 21
75.363045158840805
 31
0.0
  0
LINE
  5
1A8D
  8
SAPA_FOGBAND
 10
56.149567538933979
 20
69.863045158833529
 30
0.0
 11
51.500267781595312
 21
69.753047773652042
 31
0.0
  0
LINE
  5
1A8E
  8
SAPA_FOGBAND
 10
51.500267781595312
 20
69.753047773652042
 30
0.0
 11
51.500844280469892
 21
67.314954433229332
 31
0.0
  0
LINE
  5
1A8F
  8
SAPA_FOGBAND
 10
51.500844280469892
 20
67.314954433229332
 30
0.0
 11
56.149567538933979
 21
68.440355555693941
 31
0.0
  0
LINE
  5
1A90
  8
SAPA_FOGBAND
 10
56.149567538933979
 20
71.585734761976013
 30
0.0
 11
51.500674566002772
 21
72.711181359292141
 31
0.0
  0
LINE
  5
1A91
  8
SAPA_FOGBAND
 10
51.500674566002772
 20
72.711181359292141
 30
0.0
 11
51.500238425182722
 21
70.273043312743766
 31
0.0
  0
LINE
  5
1A92
  8
SAPA_FOGBAND
 10
51.500238425182722
 20
70.273043312743766
 30
0.0
 11
56.149567538933979
 21
70.163045158836439
 31
0.0
  0
LINE
  5
1A93
  8
SAPA_FOGBAND
 10
56.949567538935071
 20
66.863045158837167
 30
0.0
 11
56.149567538933979
 21
66.863045158837167
 31
0.0
  0
LINE
  5
1A94
  8
SAPA_FOGBAND
 10
56.149567538933979
 20
66.863045158837167
 30
0.0
 11
56.149567538933979
 21
73.163045158833711
 31
0.0
  0
LINE
  5
1A95
  8
SAPA_FOGBAND
 10
56.149567538933979
 20
73.163045158833711
 30
0.0
 11
56.949567538935071
 21
73.163045158833711
 31
0.0
  0
LINE
  5
1A96
  8
SAPA_FOGBAND
 10
56.949567538935071
 20
73.163045158833711
 30
0.0
 11
56.949567538935071
 21
66.863045158837167
 31
0.0
  0
LINE
  5
1A97
  8
SAPA_FOGBAND
 10
-9.6495673972997338
 20
78.363045158838077
 30
0.0
 11
-5.3244098768352606
 21
78.25304777365568
 31
0.0
  0
LINE
  5
1A98
  8
SAPA_FOGBAND
 10
-5.3244098768352606
 20
78.25304777365568
 30
0.0
 11
-5.324986375709841
 21
75.814954433233879
 31
0.0
  0
LINE
  5
1A99
  8
SAPA_FOGBAND
 10
-5.324986375709841
 20
75.814954433233879
 30
0.0
 11
-9.6495673972997338
 21
76.940355555698488
 31
0.0
  0
LINE
  5
1A9A
  8
SAPA_FOGBAND
 10
-9.6495673972997338
 20
80.085734761980575
 30
0.0
 11
-5.3248166612427212
 21
81.211181359296674
 31
0.0
  0
LINE
  5
1A9B
  8
SAPA_FOGBAND
 10
-5.3248166612427212
 20
81.211181359296674
 30
0.0
 11
-5.3243805204226637
 21
78.773043312747404
 31
0.0
  0
LINE
  5
1A9C
  8
SAPA_FOGBAND
 10
-5.3243805204226637
 20
78.773043312747404
 30
0.0
 11
-9.6495673972997338
 21
78.663045158840987
 31
0.0
  0
LINE
  5
1A9D
  8
SAPA_FOGBAND
 10
-10.44956739730082
 20
75.363045158840805
 30
0.0
 11
-9.6495673972997338
 21
75.363045158840805
 31
0.0
  0
LINE
  5
1A9E
  8
SAPA_FOGBAND
 10
-9.6495673972997338
 20
75.363045158840805
 30
0.0
 11
-9.6495673972997338
 21
81.663045158838258
 31
0.0
  0
LINE
  5
1A9F
  8
SAPA_FOGBAND
 10
-9.6495673972997338
 20
81.663045158838258
 30
0.0
 11
-10.44956739730082
 21
81.663045158838258
 31
0.0
  0
LINE
  5
1AA0
  8
SAPA_FOGBAND
 10
-10.44956739730082
 20
81.663045158838258
 30
0.0
 11
-10.44956739730082
 21
75.363045158840805
 31
0.0
  0
LINE
  5
1AA1
  8
SAPA_FOGBAND
 10
-9.6495673972997338
 20
69.863045158833529
 30
0.0
 11
-4.902733402313288
 21
69.753047773652042
 31
0.0
  0
LINE
  5
1AA2
  8
SAPA_FOGBAND
 10
-4.902733402313288
 20
69.753047773652042
 30
0.0
 11
-4.9033099011878667
 21
67.314954433229332
 31
0.0
  0
LINE
  5
1AA3
  8
SAPA_FOGBAND
 10
-4.9033099011878667
 20
67.314954433229332
 30
0.0
 11
-9.6495673972997338
 21
68.440355555693941
 31
0.0
  0
LINE
  5
1AA4
  8
SAPA_FOGBAND
 10
-9.6495673972997338
 20
71.585734761976013
 30
0.0
 11
-4.9031401867207469
 21
72.711181359292141
 31
0.0
  0
LINE
  5
1AA5
  8
SAPA_FOGBAND
 10
-4.9031401867207469
 20
72.711181359292141
 30
0.0
 11
-4.9027040459006912
 21
70.273043312743766
 31
0.0
  0
LINE
  5
1AA6
  8
SAPA_FOGBAND
 10
-4.9027040459006912
 20
70.273043312743766
 30
0.0
 11
-9.6495673972997338
 21
70.163045158836439
 31
0.0
  0
LINE
  5
1AA7
  8
SAPA_FOGBAND
 10
-10.44956739730082
 20
66.863045158837167
 30
0.0
 11
-9.6495673972997338
 21
66.863045158837167
 31
0.0
  0
LINE
  5
1AA8
  8
SAPA_FOGBAND
 10
-9.6495673972997338
 20
66.863045158837167
 30
0.0
 11
-9.6495673972997338
 21
73.163045158833711
 31
0.0
  0
LINE
  5
1AA9
  8
SAPA_FOGBAND
 10
-9.6495673972997338
 20
73.163045158833711
 30
0.0
 11
-10.44956739730082
 21
73.163045158833711
 31
0.0
  0
LINE
  5
1AAA
  8
SAPA_FOGBAND
 10
-10.44956739730082
 20
73.163045158833711
 30
0.0
 11
-10.44956739730082
 21
66.863045158837167
 31
0.0
  0
ARC
  5
1AAB
  8
SAPA_PROFIL
 62
     4
 10
40.163422587467032
 20
81.016784419713758
 30
0.0
 40
1.341625249269492
 50
270.795569960786
 51
298.02441875660668
  0
LINE
  5
1AAC
  8
SAPA_PROFIL
 62
     4
 10
40.793782288164259
 20
79.832468179339443
 30
0.0
 11
42.513397530438617
 21
80.825288502367826
 31
0.0
  0
LINE
  5
1AAD
  8
SAPA_PROFIL
 62
     4
 10
42.513397530438617
 20
80.825288502367826
 30
0.0
 11
42.950000070816941
 21
80.825288502367826
 31
0.0
  0
ARC
  5
1AAE
  8
SAPA_PROFIL
 62
     4
 10
42.950000070816941
 20
80.575288502367812
 30
0.0
 40
0.25
 50
0.0
 51
90.0
  0
LINE
  5
1AAF
  8
SAPA_PROFIL
 62
     4
 10
43.200000070816941
 20
80.575288502367812
 30
0.0
 11
43.200000070816941
 21
76.975276502368843
 31
0.0
  0
ARC
  5
1AB0
  8
SAPA_PROFIL
 62
     4
 10
42.950000070816948
 20
76.975276502368843
 30
0.0
 40
0.2499999999999929
 50
269.99999999999841
 51
0.0
  0
LINE
  5
1AB1
  8
SAPA_PROFIL
 62
     4
 10
42.950000070816941
 20
76.725276502368843
 30
0.0
 11
42.513398149238348
 21
76.725288145103377
 31
0.0
  0
LINE
  5
1AB2
  8
SAPA_PROFIL
 62
     4
 10
42.513398149238348
 20
76.725288145103377
 30
0.0
 11
40.79378228817108
 21
77.718108825393983
 31
0.0
  0
ARC
  5
1AB3
  8
SAPA_PROFIL
 62
     4
 10
40.17980953801046
 20
76.597883720900441
 30
0.0
 40
1.2774454284537411
 50
61.273742618030738
 51
89.542930992885019
  0
LINE
  5
1AB4
  8
SAPA_PROFIL
 62
     4
 10
40.190000070816723
 20
77.875288502368903
 30
0.0
 11
6.3100000708170683
 21
77.875288502368903
 31
0.0
  0
ARC
  5
1AB5
  8
SAPA_PROFIL
 62
     4
 10
6.3201906036233231
 20
76.597883720900455
 30
0.0
 40
1.2774454284537271
 50
90.457069007114967
 51
118.7262573819695
  0
LINE
  5
1AB6
  8
SAPA_PROFIL
 62
     4
 10
5.7062178534627028
 20
77.718108825393983
 30
0.0
 11
3.986601992395435
 21
76.725288145103377
 31
0.0
  0
LINE
  5
1AB7
  8
SAPA_PROFIL
 62
     4
 10
3.986601992395435
 20
76.725288145103377
 30
0.0
 11
3.5500000708168491
 21
76.725276502368843
 31
0.0
  0
ARC
  5
1AB8
  8
SAPA_PROFIL
 62
     4
 10
3.550000070816846
 20
76.975276502368843
 30
0.0
 40
0.25
 50
180.0
 51
270.0000000000008
  0
LINE
  5
1AB9
  8
SAPA_PROFIL
 62
     4
 10
3.3000000708168491
 20
76.975276502368843
 30
0.0
 11
3.3000000708168491
 21
80.575288502367812
 31
0.0
  0
ARC
  5
1ABA
  8
SAPA_PROFIL
 62
     4
 10
3.5500000708168491
 20
80.575288502367812
 30
0.0
 40
0.2499999999999996
 50
89.999999999999915
 51
180.0
  0
LINE
  5
1ABB
  8
SAPA_PROFIL
 62
     4
 10
3.5500000708168491
 20
80.825288502367826
 30
0.0
 11
3.986602611195166
 21
80.825288502367826
 31
0.0
  0
LINE
  5
1ABC
  8
SAPA_PROFIL
 62
     4
 10
3.986602611195166
 20
80.825288502367826
 30
0.0
 11
5.706217853469524
 21
79.832468179339443
 31
0.0
  0
ARC
  5
1ABD
  8
SAPA_PROFIL
 62
     4
 10
6.3365775541669871
 20
81.016784419714696
 30
0.0
 40
1.341625249270427
 50
241.9755812434035
 51
269.20443003922418
  0
LINE
  5
1ABE
  8
SAPA_PROFIL
 62
     4
 10
6.317949263248237
 20
79.675288502368176
 30
0.0
 11
40.182050878386008
 21
79.675288502368176
 31
0.0
  0
ARC
  5
1ABF
  8
SAPA_PROFIL
 10
43.493869111773733
 20
82.699444650058496
 30
0.0
 40
0.2999999999994713
 50
90.000000000065128
 51
144.3799302409254
  0
ARC
  5
1AC0
  8
SAPA_PROFIL
 10
43.006131029865458
 20
83.048889300117835
 30
0.0
 40
0.2999999999994016
 50
269.99999999981412
 51
324.37993024349629
  0
LINE
  5
1AC1
  8
SAPA_PROFIL
 10
43.006131029864477
 20
82.748889300118435
 30
0.0
 11
42.050000070829121
 21
82.748889300118435
 31
0.0
  0
ARC
  5
1AC2
  8
SAPA_PROFIL
 10
42.050000070823131
 20
83.048889300123207
 30
0.0
 40
0.300000000004772
 50
207.12809249346429
 51
270.00000000114528
  0
ARC
  5
1AC3
  8
SAPA_PROFIL
 10
41.516006466227708
 20
82.775300502368097
 30
0.0
 40
0.3000000000001409
 50
27.128092493313378
 51
89.999999999952507
  0
LINE
  5
1AC4
  8
SAPA_PROFIL
 10
41.516006466227957
 20
83.075300502368236
 30
0.0
 11
39.338458111270711
 21
83.075300502368236
 31
0.0
  0
ARC
  5
1AC5
  8
SAPA_PROFIL
 10
39.338458111271869
 20
82.775300502367415
 30
0.0
 40
0.3000000000008214
 50
90.000000000221192
 51
109.9999999999832
  0
LINE
  5
1AC6
  8
SAPA_PROFIL
 10
39.235852068273971
 20
83.057208288603988
 30
0.0
 11
37.808498898228891
 21
82.537694220928856
 31
0.0
  0
ARC
  5
1AC7
  8
SAPA_PROFIL
 10
37.911104941233241
 20
82.255786434688275
 30
0.0
 40
0.3000000000067923
 50
110.0000000008793
 51
200.00000000023709
  0
LINE
  5
1AC8
  8
SAPA_PROFIL
 10
37.629197154991523
 20
82.153180391687101
 30
0.0
 11
37.697601183662528
 21
81.965241867537088
 31
0.0
  0
ARC
  5
1AC9
  8
SAPA_PROFIL
 10
37.979508969893942
 20
82.067847910527519
 30
0.0
 40
0.2999999999934183
 50
199.99999999897989
 51
289.99999999896278
  0
LINE
  5
1ACA
  8
SAPA_PROFIL
 10
38.082115012884287
 20
81.785940124296076
 30
0.0
 11
39.115776895753022
 21
82.1621622819614
 31
0.0
  0
ARC
  5
1ACB
  8
SAPA_PROFIL
 10
39.218382938745798
 20
81.880254495724643
 30
0.0
 40
0.2999999999992438
 50
19.999999997807208
 51
109.9999999990529
  0
LINE
  5
1ACC
  8
SAPA_PROFIL
 10
39.500290724984779
 20
81.982860538711293
 30
0.0
 11
40.15914603222086
 21
80.172670459372284
 31
0.0
  0
ARC
  5
1ACD
  8
SAPA_PROFIL
 10
40.441053818456943
 20
80.275276502368669
 30
0.0
 40
0.2999999999998464
 50
199.99999999974611
 51
269.99999999997152
  0
LINE
  5
1ACE
  8
SAPA_PROFIL
 10
40.441053818456787
 20
79.975276502368843
 30
0.0
 11
40.860769586276312
 21
79.975276502368843
 31
0.0
  0
ARC
  5
1ACF
  8
SAPA_PROFIL
 10
40.86076958627558
 20
80.275276502368314
 30
0.0
 40
0.2999999999994856
 50
270.00000000013972
 51
300.00000000013767
  0
LINE
  5
1AD0
  8
SAPA_PROFIL
 10
41.010769586275948
 20
80.015468881233801
 30
0.0
 11
42.500000070817123
 21
80.875276502368479
 31
0.0
  0
LINE
  5
1AD1
  8
SAPA_PROFIL
 10
42.500000070817123
 20
80.875276502368479
 30
0.0
 11
42.950000070816941
 21
80.875288502368903
 31
0.0
  0
ARC
  5
1AD2
  8
SAPA_PROFIL
 10
42.950000070816493
 20
80.575288502368267
 30
0.0
 40
0.3000000000006366
 50
359.99999999991309
 51
89.999999999914493
  0
LINE
  5
1AD3
  8
SAPA_PROFIL
 10
43.250000070817123
 20
80.575288502367812
 30
0.0
 11
43.250000070817123
 21
76.975276502368843
 31
0.0
  0
ARC
  5
1AD4
  8
SAPA_PROFIL
 10
42.950000070816479
 20
76.975276502368388
 30
0.0
 40
0.3000000000006366
 50
270.0000000000868
 51
0.0000000000868503
  0
LINE
  5
1AD5
  8
SAPA_PROFIL
 10
42.950000070816941
 20
76.675276502367751
 30
0.0
 11
42.500000070817123
 21
76.675276502367751
 31
0.0
  0
LINE
  5
1AD6
  8
SAPA_PROFIL
 10
42.500000070817123
 20
76.675276502367751
 30
0.0
 11
41.010739939742727
 21
77.535101239938044
 31
0.0
  0
ARC
  5
1AD7
  8
SAPA_PROFIL
 10
40.860739939745187
 20
77.275293618801641
 30
0.0
 40
0.2999999999997103
 50
60.000000000510539
 51
89.996353133069917
  0
LINE
  5
1AD8
  8
SAPA_PROFIL
 10
40.860759034695768
 20
77.575293618193655
 30
0.0
 11
40.750000070818942
 21
77.575300667985402
 31
0.0
  0
LINE
  5
1AD9
  8
SAPA_PROFIL
 10
40.750000070818942
 20
77.575300667985402
 30
0.0
 11
40.750000070818942
 21
75.499444650068881
 31
0.0
  0
ARC
  5
1ADA
  8
SAPA_PROFIL
 10
41.250000070818942
 20
75.499444650068881
 30
0.0
 40
0.5
 50
180.0
 51
270.0
  0
LINE
  5
1ADB
  8
SAPA_PROFIL
 10
41.250000070818942
 20
74.999444650068881
 30
0.0
 11
46.500000070484248
 21
74.999444650068881
 31
0.0
  0
ARC
  5
1ADC
  8
SAPA_PROFIL
 10
46.500000070484248
 20
75.499444650068881
 30
0.0
 40
0.5
 50
270.0
 51
0.0
  0
LINE
  5
1ADD
  8
SAPA_PROFIL
 10
47.000000070484248
 20
75.499444650068881
 30
0.0
 11
47.000000070484248
 21
75.99944465365229
 31
0.0
  0
ARC
  5
1ADE
  8
SAPA_PROFIL
 10
46.500000070484248
 20
75.99944465365229
 30
0.0
 40
0.5
 50
0.0
 51
90.0
  0
LINE
  5
1ADF
  8
SAPA_PROFIL
 10
46.500000070484248
 20
76.49944465365229
 30
0.0
 11
45.500000070076787
 21
76.499444653657747
 31
0.0
  0
LINE
  5
1AE0
  8
SAPA_PROFIL
 10
45.500000070076787
 20
76.499444653657747
 30
0.0
 11
45.500000070072701
 21
79.699444654111403
 31
0.0
  0
LINE
  5
1AE1
  8
SAPA_PROFIL
 10
45.500000070072701
 20
79.699444654111403
 30
0.0
 11
50.000000070978558
 21
79.699444654104127
 31
0.0
  0
LINE
  5
1AE2
  8
SAPA_PROFIL
 10
50.000000070978558
 20
79.699444654104127
 30
0.0
 11
50.000000070999931
 21
60.199444650058688
 31
0.0
  0
ARC
  5
1AE3
  8
SAPA_PROFIL
 10
50.2000000710009
 20
60.199444650058417
 30
0.0
 40
0.2000000000009763
 50
179.99999999992261
 51
285.60191674437738
  0
ARC
  5
1AE4
  8
SAPA_PROFIL
 10
49.984838437699167
 20
60.969967506016808
 30
0.0
 40
1.0000000000005631
 50
285.601916744535
 51
353.75641154149349
  0
ARC
  5
1AE5
  8
SAPA_PROFIL
 10
-78.249999933635394
 20
74.999444650245096
 30
0.0
 40
130.00000000411961
 50
353.75641154141101
 51
359.99999999991269
  0
LINE
  5
1AE6
  8
SAPA_PROFIL
 10
51.750000070484241
 20
74.999444650047053
 30
0.0
 11
51.750000070622491
 21
79.999444649967003
 31
0.0
  0
ARC
  5
1AE7
  8
SAPA_PROFIL
 10
48.750000070622512
 20
79.999444650057981
 30
0.0
 40
2.9999999999999849
 50
359.99999999826269
 51
90.000000000000256
  0
LINE
  5
1AE8
  8
SAPA_PROFIL
 10
48.750000070622491
 20
82.999444650057967
 30
0.0
 11
43.493869111773392
 21
82.999444650057967
 31
0.0
  0
ARC
  5
1AE9
  8
SAPA_PROFIL
 10
3.0061310298605131
 20
82.699444650058496
 30
0.0
 40
0.2999999999994713
 50
35.620069759074717
 51
89.999999999935099
  0
ARC
  5
1AEA
  8
SAPA_PROFIL
 10
3.4938691117687779
 20
83.048889300117835
 30
0.0
 40
0.2999999999993999
 50
215.62006975650399
 51
270.00000000018639
  0
LINE
  5
1AEB
  8
SAPA_PROFIL
 10
3.493869111769754
 20
82.748889300118435
 30
0.0
 11
4.4500000708051166
 21
82.748889300118435
 31
0.0
  0
ARC
  5
1AEC
  8
SAPA_PROFIL
 10
4.4500000708108827
 20
83.048889300122838
 30
0.0
 40
0.3000000000044025
 50
269.99999999889877
 51
332.87190750657902
  0
ARC
  5
1AED
  8
SAPA_PROFIL
 10
4.983993675406075
 20
82.775300502368097
 30
0.0
 40
0.3000000000001409
 50
90.000000000047507
 51
152.8719075066866
  0
LINE
  5
1AEE
  8
SAPA_PROFIL
 10
4.9839936754058272
 20
83.075300502368236
 30
0.0
 11
7.161542030363079
 21
83.075300502368236
 31
0.0
  0
ARC
  5
1AEF
  8
SAPA_PROFIL
 10
7.1615420303616899
 20
82.775300502368708
 30
0.0
 40
0.2999999999995282
 50
69.999999999972516
 51
89.999999999734698
  0
LINE
  5
1AF0
  8
SAPA_PROFIL
 10
7.2641480733593653
 20
83.057208288603988
 30
0.0
 11
8.6915012434049004
 21
82.537694220928856
 31
0.0
  0
ARC
  5
1AF1
  8
SAPA_PROFIL
 10
8.5888952004005539
 20
82.255786434688275
 30
0.0
 40
0.3000000000067911
 50
339.99999999976268
 51
69.999999999121343
  0
LINE
  5
1AF2
  8
SAPA_PROFIL
 10
8.8708029866422748
 20
82.153180391687101
 30
0.0
 11
8.8023989579712634
 21
81.965241867537088
 31
0.0
  0
ARC
  5
1AF3
  8
SAPA_PROFIL
 10
8.5204911717400762
 20
82.067847910527291
 30
0.0
 40
0.2999999999931269
 50
250.0000000010632
 51
340.00000000104598
  0
LINE
  5
1AF4
  8
SAPA_PROFIL
 10
8.4178851287499583
 20
81.785940124296076
 30
0.0
 11
7.3842232458803201
 21
82.1621622819614
 31
0.0
  0
ARC
  5
1AF5
  8
SAPA_PROFIL
 10
7.2816172028877677
 20
81.88025449572487
 30
0.0
 40
0.2999999999989514
 50
70.000000000973444
 51
160.00000000221891
  0
LINE
  5
1AF6
  8
SAPA_PROFIL
 10
6.9997094166490106
 20
81.982860538711293
 30
0.0
 11
6.3408541094133852
 21
80.172670459372284
 31
0.0
  0
ARC
  5
1AF7
  8
SAPA_PROFIL
 10
6.058946323177075
 20
80.27527650236901
 30
0.0
 40
0.3000000000001711
 50
269.99999999998499
 51
340.00000000020998
  0
LINE
  5
1AF8
  8
SAPA_PROFIL
 10
6.058946323176996
 20
79.975276502368843
 30
0.0
 11
5.6392305553574706
 21
79.975276502368843
 31
0.0
  0
ARC
  5
1AF9
  8
SAPA_PROFIL
 10
5.6392305553581998
 20
80.275276502368314
 30
0.0
 40
0.2999999999994856
 50
239.99999999986269
 51
269.99999999986079
  0
LINE
  5
1AFA
  8
SAPA_PROFIL
 10
5.4892305553578353
 20
80.015468881233801
 30
0.0
 11
4.0000000708171219
 21
80.875276502368479
 31
0.0
  0
LINE
  5
1AFB
  8
SAPA_PROFIL
 10
4.0000000708171219
 20
80.875276502368479
 30
0.0
 11
3.5500000708168491
 21
80.875288502368903
 31
0.0
  0
ARC
  5
1AFC
  8
SAPA_PROFIL
 10
3.5500000708175259
 20
80.575288502368494
 30
0.0
 40
0.3000000000004093
 50
90.000000000129262
 51
180.0000000001302
  0
LINE
  5
1AFD
  8
SAPA_PROFIL
 10
3.2500000708171219
 20
80.575288502367812
 30
0.0
 11
3.2500000708171219
 21
76.975276502368843
 31
0.0
  0
ARC
  5
1AFE
  8
SAPA_PROFIL
 10
3.5500000708175321
 20
76.97527650236816
 30
0.0
 40
0.3000000000004093
 50
179.99999999986969
 51
269.99999999986971
  0
LINE
  5
1AFF
  8
SAPA_PROFIL
 10
3.5500000708168491
 20
76.675276502367751
 30
0.0
 11
4.0000000708171219
 21
76.675276502367751
 31
0.0
  0
LINE
  5
1B00
  8
SAPA_PROFIL
 10
4.0000000708171219
 20
76.675276502367751
 30
0.0
 11
5.4892602018910557
 21
77.535101239938044
 31
0.0
  0
ARC
  5
1B01
  8
SAPA_PROFIL
 10
5.6392602018885958
 20
77.275293618801641
 30
0.0
 40
0.2999999999997103
 50
90.003646866930069
 51
119.9999999994894
  0
LINE
  5
1B02
  8
SAPA_PROFIL
 10
5.6392411069380151
 20
77.575293618193655
 30
0.0
 11
5.750000070815303
 21
77.575300667985402
 31
0.0
  0
LINE
  5
1B03
  8
SAPA_PROFIL
 10
5.750000070815303
 20
77.575300667985402
 30
0.0
 11
5.750000070815303
 21
75.499444650068881
 31
0.0
  0
ARC
  5
1B04
  8
SAPA_PROFIL
 10
5.250000070815303
 20
75.499444650068881
 30
0.0
 40
0.5
 50
270.0
 51
0.0
  0
LINE
  5
1B05
  8
SAPA_PROFIL
 10
5.250000070815303
 20
74.999444650068881
 30
0.0
 11
0.0000000711499979
 21
74.999444650068881
 31
0.0
  0
ARC
  5
1B06
  8
SAPA_PROFIL
 10
0.0000000711499977
 20
75.499444650068881
 30
0.0
 40
0.5
 50
180.0
 51
270.0
  0
LINE
  5
1B07
  8
SAPA_PROFIL
 10
-0.4999999288500021
 20
75.499444650068881
 30
0.0
 11
-0.4999999288500021
 21
75.99944465365229
 31
0.0
  0
ARC
  5
1B08
  8
SAPA_PROFIL
 10
0.0000000711499977
 20
75.99944465365229
 30
0.0
 40
0.4999999999999999
 50
89.999999999999986
 51
180.0
  0
LINE
  5
1B09
  8
SAPA_PROFIL
 10
0.0000000711499979
 20
76.49944465365229
 30
0.0
 11
1.0000000715569961
 21
76.499444653657747
 31
0.0
  0
LINE
  5
1B0A
  8
SAPA_PROFIL
 10
1.0000000715569961
 20
76.499444653657747
 30
0.0
 11
1.0000000715610891
 21
79.699444654111403
 31
0.0
  0
LINE
  5
1B0B
  8
SAPA_PROFIL
 10
1.0000000715610891
 20
79.699444654111403
 30
0.0
 11
-3.4999999293447668
 21
79.699444654104127
 31
0.0
  0
LINE
  5
1B0C
  8
SAPA_PROFIL
 10
-3.4999999293447668
 20
79.699444654104127
 30
0.0
 11
-3.4999999293661399
 21
60.199444650058688
 31
0.0
  0
ARC
  5
1B0D
  8
SAPA_PROFIL
 10
-3.699999929367118
 20
60.199444650058417
 30
0.0
 40
0.2000000000009781
 50
254.39808325562299
 51
0.0000000000773511
  0
ARC
  5
1B0E
  8
SAPA_PROFIL
 10
-3.4848382960653761
 20
60.969967506016808
 30
0.0
 40
1.0000000000005631
 50
186.24358845850639
 51
254.398083255465
  0
ARC
  5
1B0F
  8
SAPA_PROFIL
 10
124.7500000752692
 20
74.999444650245096
 30
0.0
 40
130.00000000411961
 50
180.00000000008731
 51
186.24358845858899
  0
LINE
  5
1B10
  8
SAPA_PROFIL
 10
-5.249999928850456
 20
74.999444650047053
 30
0.0
 11
-5.2499999289882453
 21
79.999444649967003
 31
0.0
  0
ARC
  5
1B11
  8
SAPA_PROFIL
 10
-2.2499999289882568
 20
79.999444650057981
 30
0.0
 40
2.9999999999999871
 50
89.999999999999758
 51
180.00000000173719
  0
LINE
  5
1B12
  8
SAPA_PROFIL
 10
-2.2499999289882449
 20
82.999444650057967
 30
0.0
 11
3.0061310298608528
 21
82.999444650057967
 31
0.0
  0
LINE
  5
1B13
  8
SAPA_PROFIL
 62
     4
 10
64.250000139538997
 20
81.651709582441299
 30
-0.2
 11
64.250000139538997
 21
67.451709582438752
 31
-0.2
1001
RC_PROFILE
1002
{
1000
Region
1002
}
  0
ARC
  5
1B14
  8
SAPA_PROFIL
 62
     4
 10
63.750000139538997
 20
67.451709582438752
 30
-0.2
 40
0.5
 50
270.00000000020839
 51
0.0
1001
RC_PROFILE
1002
{
1000
Region
1002
}
  0
LINE
  5
1B15
  8
SAPA_PROFIL
 62
     4
 10
63.750000139540823
 20
66.951709582438752
 30
-0.2
 11
59.750000138919631
 21
66.951709582436933
 31
-0.2
1001
RC_PROFILE
1002
{
1000
Region
1002
}
  0
ARC
  5
1B16
  8
SAPA_PROFIL
 62
     4
 10
59.750000138919631
 20
67.451709582436933
 30
-0.2
 40
0.5
 50
180.0
 51
270.0
1001
RC_PROFILE
1002
{
1000
Region
1002
}
  0
LINE
  5
1B17
  8
SAPA_PROFIL
 62
     4
 10
59.250000138919631
 20
67.451709582436933
 30
-0.2
 11
59.250000138912348
 21
81.65170958243948
 31
-0.2
1001
RC_PROFILE
1002
{
1000
Region
1002
}
  0
ARC
  5
1B18
  8
SAPA_PROFIL
 62
     4
 10
59.750000138912696
 20
81.651709582440944
 30
-0.2
 40
0.5000000000003411
 50
90.000000000039066
 51
180.00000000016931
1001
RC_PROFILE
1002
{
1000
Region
1002
}
  0
LINE
  5
1B19
  8
SAPA_PROFIL
 62
     4
 10
59.750000138912363
 20
82.151709582441285
 30
-0.2
 11
63.750000139538997
 21
82.151709582441285
 31
-0.2
1001
RC_PROFILE
1002
{
1000
Region
1002
}
  0
ARC
  5
1B1A
  8
SAPA_PROFIL
 62
     4
 10
63.750000139538997
 20
81.651709582441299
 30
-0.2
 40
0.5
 50
0.0
 51
90.0
1001
RC_PROFILE
1002
{
1000
Region
1002
}
  0
ARC
  5
1B1B
  8
SAPA_PROFIL
 62
     4
 10
50.827260069521969
 20
107.21518313885061
 30
0.0
 40
1.2000000000004429
 50
90.000000000084114
 51
120.000000000105
1001
GENIUS_GENOBJ-N-FIL_13
1002
{
1000
OWNER
1000
GEN
1002
}
1001
GENIUS_GENODEF_13
1002
{
1000
HIER
1070
     0
1002
}
1002
{
1000
MANEDIT
1070
     0
1002
}
1002
{
1000
NOSEL
1070
     0
1002
}
1002
{
1000
BEHIND
1070
     0
1002
}
1002
{
1000
OTHER
1070
     0
1002
}
1002
{
1000
REACTOR
1002
}
  0
LINE
  5
1B1C
  8
SAPA_PROFIL
 62
     4
 10
50.227260069519843
 20
108.2544136233912
 30
0.0
 11
48.486602128876477
 21
107.2494442927939
 31
0.0
1001
GENIUS_GENOBJ-N-FIL_13
1002
{
1000
OWNER
1000
GEN
1002
}
1001
GENIUS_GENODEF_13
1002
{
1000
HIER
1070
     0
1002
}
1002
{
1000
MANEDIT
1070
     0
1002
}
1002
{
1000
NOSEL
1070
     0
1002
}
1002
{
1000
BEHIND
1070
     0
1002
}
1002
{
1000
OTHER
1070
     0
1002
}
1002
{
1000
REACTOR
1002
}
  0
LINE
  5
1B1D
  8
SAPA_PROFIL
 62
     4
 10
48.486602128876477
 20
107.2494442927939
 30
0.0
 11
48.050000207297899
 21
107.2494326500593
 31
0.0
1001
GENIUS_GENOBJ-N-FIL_13
1002
{
1000
OWNER
1000
GEN
1002
}
1001
GENIUS_GENODEF_13
1002
{
1000
HIER
1070
     0
1002
}
1002
{
1000
MANEDIT
1070
     0
1002
}
1002
{
1000
NOSEL
1070
     0
1002
}
1002
{
1000
BEHIND
1070
     0
1002
}
1002
{
1000
OTHER
1070
     0
1002
}
1002
{
1000
REACTOR
1002
}
  0
ARC
  5
1B1E
  8
SAPA_PROFIL
 62
     4
 10
48.050000207297892
 20
107.4994326500593
 30
0.0
 40
0.25
 50
180.0
 51
270.00000000000171
1001
GENIUS_GENOBJ-N-FIL_13
1002
{
1000
OWNER
1000
GEN
1002
}
1001
GENIUS_GENODEF_13
1002
{
1000
HIER
1070
     0
1002
}
1002
{
1000
MANEDIT
1070
     0
1002
}
1002
{
1000
NOSEL
1070
     0
1002
}
1002
{
1000
BEHIND
1070
     0
1002
}
1002
{
1000
OTHER
1070
     0
1002
}
1002
{
1000
REACTOR
1002
}
  0
LINE
  5
1B1F
  8
SAPA_PROFIL
 62
     4
 10
47.800000207297892
 20
107.4994326500593
 30
0.0
 11
47.800000207297892
 21
111.0994446500583
 31
0.0
1001
GENIUS_GENOBJ-N-FIL_13
1002
{
1000
OWNER
1000
GEN
1002
}
1001
GENIUS_GENODEF_13
1002
{
1000
HIER
1070
     0
1002
}
1002
{
1000
MANEDIT
1070
     0
1002
}
1002
{
1000
NOSEL
1070
     0
1002
}
1002
{
1000
BEHIND
1070
     0
1002
}
1002
{
1000
OTHER
1070
     0
1002
}
1002
{
1000
REACTOR
1002
}
  0
ARC
  5
1B20
  8
SAPA_PROFIL
 62
     4
 10
48.050000207297899
 20
111.0994446500583
 30
0.0
 40
0.25
 50
90.0
 51
180.0
1001
GENIUS_GENOBJ-N-FIL_13
1002
{
1000
OWNER
1000
GEN
1002
}
1001
GENIUS_GENODEF_13
1002
{
1000
HIER
1070
     0
1002
}
1002
{
1000
MANEDIT
1070
     0
1002
}
1002
{
1000
NOSEL
1070
     0
1002
}
1002
{
1000
BEHIND
1070
     0
1002
}
1002
{
1000
OTHER
1070
     0
1002
}
1002
{
1000
REACTOR
1002
}
  0
LINE
  5
1B21
  8
SAPA_PROFIL
 62
     4
 10
48.050000207297899
 20
111.3494446500583
 30
0.0
 11
48.48660274767667
 21
111.3494446500583
 31
0.0
1001
GENIUS_GENOBJ-N-FIL_13
1002
{
1000
OWNER
1000
GEN
1002
}
1001
GENIUS_GENODEF_13
1002
{
1000
HIER
1070
     0
1002
}
1002
{
1000
MANEDIT
1070
     0
1002
}
1002
{
1000
NOSEL
1070
     0
1002
}
1002
{
1000
BEHIND
1070
     0
1002
}
1002
{
1000
OTHER
1070
     0
1002
}
1002
{
1000
REACTOR
1002
}
  0
LINE
  5
1B22
  8
SAPA_PROFIL
 62
     4
 10
48.48660274767667
 20
111.3494446500583
 30
0.0
 11
50.1727403450775
 21
110.37595265430831
 31
0.0
1001
GENIUS_GENOBJ-N-FIL_13
1002
{
1000
OWNER
1000
GEN
1002
}
1001
GENIUS_GENODEF_13
1002
{
1000
HIER
1070
     0
1002
}
1002
{
1000
MANEDIT
1070
     0
1002
}
1002
{
1000
NOSEL
1070
     0
1002
}
1002
{
1000
BEHIND
1070
     0
1002
}
1002
{
1000
OTHER
1070
     0
1002
}
1002
{
1000
REACTOR
1002
}
  0
ARC
  5
1B23
  8
SAPA_PROFIL
 62
     4
 10
50.772740345076251
 20
111.4151831388499
 30
0.0
 40
1.1999999999996041
 50
240.0000000000579
 51
270.00000000005531
1001
GENIUS_GENOBJ-N-FIL_13
1002
{
1000
OWNER
1000
GEN
1002
}
1001
GENIUS_GENODEF_13
1002
{
1000
HIER
1070
     0
1002
}
1002
{
1000
MANEDIT
1070
     0
1002
}
1002
{
1000
NOSEL
1070
     0
1002
}
1002
{
1000
BEHIND
1070
     0
1002
}
1002
{
1000
OTHER
1070
     0
1002
}
1002
{
1000
REACTOR
1002
}
  0
LINE
  5
1B24
  8
SAPA_PROFIL
 62
     4
 10
50.772740345077409
 20
110.21518313885031
 30
0.0
 11
72.727259933368487
 21
110.21518313885031
 31
0.0
1001
GENIUS_GENOBJ-N-FIL_13
1002
{
1000
OWNER
1000
GEN
1002
}
1001
GENIUS_GENODEF_13
1002
{
1000
HIER
1070
     0
1002
}
1002
{
1000
MANEDIT
1070
     0
1002
}
1002
{
1000
NOSEL
1070
     0
1002
}
1002
{
1000
BEHIND
1070
     0
1002
}
1002
{
1000
OTHER
1070
     0
1002
}
1002
{
1000
REACTOR
1002
}
  0
ARC
  5
1B25
  8
SAPA_PROFIL
 62
     4
 10
72.727259933369652
 20
111.4151831388499
 30
0.0
 40
1.1999999999996041
 50
269.99999999994441
 51
299.99999999994168
1001
GENIUS_GENOBJ-N-FIL_13
1002
{
1000
OWNER
1000
GEN
1002
}
1001
GENIUS_GENODEF_13
1002
{
1000
HIER
1070
     0
1002
}
1002
{
1000
MANEDIT
1070
     0
1002
}
1002
{
1000
NOSEL
1070
     0
1002
}
1002
{
1000
BEHIND
1070
     0
1002
}
1002
{
1000
OTHER
1070
     0
1002
}
1002
{
1000
REACTOR
1002
}
  0
LINE
  5
1B26
  8
SAPA_PROFIL
 62
     4
 10
73.327259933368396
 20
110.37595265430831
 30
0.0
 11
75.013397530769225
 21
111.3494446500583
 31
0.0
1001
GENIUS_GENOBJ-N-FIL_13
1002
{
1000
OWNER
1000
GEN
1002
}
1001
GENIUS_GENODEF_13
1002
{
1000
HIER
1070
     0
1002
}
1002
{
1000
MANEDIT
1070
     0
1002
}
1002
{
1000
NOSEL
1070
     0
1002
}
1002
{
1000
BEHIND
1070
     0
1002
}
1002
{
1000
OTHER
1070
     0
1002
}
1002
{
1000
REACTOR
1002
}
  0
LINE
  5
1B27
  8
SAPA_PROFIL
 62
     4
 10
75.013397530769225
 20
111.3494446500583
 30
0.0
 11
75.450000071147542
 21
111.3494446500583
 31
0.0
1001
GENIUS_GENOBJ-N-FIL_13
1002
{
1000
OWNER
1000
GEN
1002
}
1001
GENIUS_GENODEF_13
1002
{
1000
HIER
1070
     0
1002
}
1002
{
1000
MANEDIT
1070
     0
1002
}
1002
{
1000
NOSEL
1070
     0
1002
}
1002
{
1000
BEHIND
1070
     0
1002
}
1002
{
1000
OTHER
1070
     0
1002
}
1002
{
1000
REACTOR
1002
}
  0
ARC
  5
1B28
  8
SAPA_PROFIL
 62
     4
 10
75.450000071147542
 20
111.0994446500583
 30
0.0
 40
0.25
 50
0.0
 51
90.0
1001
GENIUS_GENOBJ-N-FIL_13
1002
{
1000
OWNER
1000
GEN
1002
}
1001
GENIUS_GENODEF_13
1002
{
1000
HIER
1070
     0
1002
}
1002
{
1000
MANEDIT
1070
     0
1002
}
1002
{
1000
NOSEL
1070
     0
1002
}
1002
{
1000
BEHIND
1070
     0
1002
}
1002
{
1000
OTHER
1070
     0
1002
}
1002
{
1000
REACTOR
1002
}
  0
LINE
  5
1B29
  8
SAPA_PROFIL
 62
     4
 10
75.700000071147542
 20
111.0994446500583
 30
0.0
 11
75.700000071147542
 21
107.4994326500593
 31
0.0
1001
GENIUS_GENOBJ-N-FIL_13
1002
{
1000
OWNER
1000
GEN
1002
}
1001
GENIUS_GENODEF_13
1002
{
1000
HIER
1070
     0
1002
}
1002
{
1000
MANEDIT
1070
     0
1002
}
1002
{
1000
NOSEL
1070
     0
1002
}
1002
{
1000
BEHIND
1070
     0
1002
}
1002
{
1000
OTHER
1070
     0
1002
}
1002
{
1000
REACTOR
1002
}
  0
ARC
  5
1B2A
  8
SAPA_PROFIL
 62
     4
 10
75.450000071147542
 20
107.4994326500593
 30
0.0
 40
0.25
 50
270.0
 51
0.0
1001
GENIUS_GENOBJ-N-FIL_13
1002
{
1000
OWNER
1000
GEN
1002
}
1001
GENIUS_GENODEF_13
1002
{
1000
HIER
1070
     0
1002
}
1002
{
1000
MANEDIT
1070
     0
1002
}
1002
{
1000
NOSEL
1070
     0
1002
}
1002
{
1000
BEHIND
1070
     0
1002
}
1002
{
1000
OTHER
1070
     0
1002
}
1002
{
1000
REACTOR
1002
}
  0
LINE
  5
1B2B
  8
SAPA_PROFIL
 62
     4
 10
75.450000071147542
 20
107.2494326500593
 30
0.0
 11
75.013398149569412
 21
107.2494442927939
 31
0.0
1001
GENIUS_GENOBJ-N-FIL_13
1002
{
1000
OWNER
1000
GEN
1002
}
1001
GENIUS_GENODEF_13
1002
{
1000
HIER
1070
     0
1002
}
1002
{
1000
MANEDIT
1070
     0
1002
}
1002
{
1000
NOSEL
1070
     0
1002
}
1002
{
1000
BEHIND
1070
     0
1002
}
1002
{
1000
OTHER
1070
     0
1002
}
1002
{
1000
REACTOR
1002
}
  0
LINE
  5
1B2C
  8
SAPA_PROFIL
 62
     4
 10
75.013398149569412
 20
107.2494442927939
 30
0.0
 11
73.272740208925583
 21
108.2544136233912
 31
0.0
1001
GENIUS_GENOBJ-N-FIL_13
1002
{
1000
OWNER
1000
GEN
1002
}
1001
GENIUS_GENODEF_13
1002
{
1000
HIER
1070
     0
1002
}
1002
{
1000
MANEDIT
1070
     0
1002
}
1002
{
1000
NOSEL
1070
     0
1002
}
1002
{
1000
BEHIND
1070
     0
1002
}
1002
{
1000
OTHER
1070
     0
1002
}
1002
{
1000
REACTOR
1002
}
  0
ARC
  5
1B2D
  8
SAPA_PROFIL
 62
     4
 10
72.672740208923472
 20
107.21518313885061
 30
0.0
 40
1.200000000000442
 50
59.999999999894989
 51
89.999999999915872
1001
GENIUS_GENOBJ-N-FIL_13
1002
{
1000
OWNER
1000
GEN
1002
}
1001
GENIUS_GENODEF_13
1002
{
1000
HIER
1070
     0
1002
}
1002
{
1000
MANEDIT
1070
     0
1002
}
1002
{
1000
NOSEL
1070
     0
1002
}
1002
{
1000
BEHIND
1070
     0
1002
}
1002
{
1000
OTHER
1070
     0
1002
}
1002
{
1000
REACTOR
1002
}
  0
LINE
  5
1B2E
  8
SAPA_PROFIL
 62
     4
 10
72.672740208925234
 20
108.41518313885101
 30
0.0
 11
69.950000071396744
 21
108.4151831388492
 31
0.0
1001
GENIUS_GENOBJ-N-FIL_13
1002
{
1000
OWNER
1000
GEN
1002
}
1001
GENIUS_GENODEF_13
1002
{
1000
HIER
1070
     0
1002
}
1002
{
1000
MANEDIT
1070
     0
1002
}
1002
{
1000
NOSEL
1070
     0
1002
}
1002
{
1000
BEHIND
1070
     0
1002
}
1002
{
1000
OTHER
1070
     0
1002
}
1002
{
1000
REACTOR
1002
}
  0
ARC
  5
1B2F
  8
SAPA_PROFIL
 62
     4
 10
69.950000071397426
 20
107.2151831388496
 30
0.0
 40
1.1999999999995901
 50
90.000000000032571
 51
180.00000000022791
1001
GENIUS_GENOBJ-N-FIL_13
1002
{
1000
OWNER
1000
GEN
1002
}
1001
GENIUS_GENODEF_13
1002
{
1000
HIER
1070
     0
1002
}
1002
{
1000
MANEDIT
1070
     0
1002
}
1002
{
1000
NOSEL
1070
     0
1002
}
1002
{
1000
BEHIND
1070
     0
1002
}
1002
{
1000
OTHER
1070
     0
1002
}
1002
{
1000
REACTOR
1002
}
  0
LINE
  5
1B30
  8
SAPA_PROFIL
 62
     4
 10
68.750000071397835
 20
107.21518313884479
 30
0.0
 11
68.750000071486966
 21
81.417448111923704
 31
0.0
1001
GENIUS_GENOBJ-N-FIL_13
1002
{
1000
OWNER
1000
GEN
1002
}
1001
GENIUS_GENODEF_13
1002
{
1000
HIER
1070
     0
1002
}
1002
{
1000
MANEDIT
1070
     0
1002
}
1002
{
1000
NOSEL
1070
     0
1002
}
1002
{
1000
BEHIND
1070
     0
1002
}
1002
{
1000
OTHER
1070
     0
1002
}
1002
{
1000
REACTOR
1002
}
  0
ARC
  5
1B31
  8
SAPA_PROFIL
 62
     4
 10
68.250000071486966
 20
81.417448111923704
 30
0.0
 40
0.5
 50
270.0
 51
0.0
1001
GENIUS_GENOBJ-N-FIL_13
1002
{
1000
OWNER
1000
GEN
1002
}
1001
GENIUS_GENODEF_13
1002
{
1000
HIER
1070
     0
1002
}
1002
{
1000
MANEDIT
1070
     0
1002
}
1002
{
1000
NOSEL
1070
     0
1002
}
1002
{
1000
BEHIND
1070
     0
1002
}
1002
{
1000
OTHER
1070
     0
1002
}
1002
{
1000
REACTOR
1002
}
  0
LINE
  5
1B32
  8
SAPA_PROFIL
 62
     4
 10
68.250000071486966
 20
80.917448111923704
 30
0.0
 11
68.050000071487148
 21
80.917448111923704
 31
0.0
1001
GENIUS_GENOBJ-N-FIL_13
1002
{
1000
OWNER
1000
GEN
1002
}
1001
GENIUS_GENODEF_13
1002
{
1000
HIER
1070
     0
1002
}
1002
{
1000
MANEDIT
1070
     0
1002
}
1002
{
1000
NOSEL
1070
     0
1002
}
1002
{
1000
BEHIND
1070
     0
1002
}
1002
{
1000
OTHER
1070
     0
1002
}
1002
{
1000
REACTOR
1002
}
  0
ARC
  5
1B33
  8
SAPA_PROFIL
 62
     4
 10
68.050000071486693
 20
81.217448111923431
 30
0.0
 40
0.2999999999997271
 50
180.0000000000868
 51
270.0000000000868
1001
GENIUS_GENOBJ-N-FIL_13
1002
{
1000
OWNER
1000
GEN
1002
}
1001
GENIUS_GENODEF_13
1002
{
1000
HIER
1070
     0
1002
}
1002
{
1000
MANEDIT
1070
     0
1002
}
1002
{
1000
NOSEL
1070
     0
1002
}
1002
{
1000
BEHIND
1070
     0
1002
}
1002
{
1000
OTHER
1070
     0
1002
}
1002
{
1000
REACTOR
1002
}
  0
LINE
  5
1B34
  8
SAPA_PROFIL
 62
     4
 10
67.750000071486966
 20
81.217448111922977
 30
0.0
 11
67.750000071486966
 21
81.867448111926251
 31
0.0
1001
GENIUS_GENOBJ-N-FIL_13
1002
{
1000
OWNER
1000
GEN
1002
}
1001
GENIUS_GENODEF_13
1002
{
1000
HIER
1070
     0
1002
}
1002
{
1000
MANEDIT
1070
     0
1002
}
1002
{
1000
NOSEL
1070
     0
1002
}
1002
{
1000
BEHIND
1070
     0
1002
}
1002
{
1000
OTHER
1070
     0
1002
}
1002
{
1000
REACTOR
1002
}
  0
ARC
  5
1B35
  8
SAPA_PROFIL
 62
     4
 10
67.450000071486784
 20
81.867448111925341
 30
0.0
 40
0.3000000000001819
 50
0.0000000001737007
 51
90.000000000173699
1001
GENIUS_GENOBJ-N-FIL_13
1002
{
1000
OWNER
1000
GEN
1002
}
1001
GENIUS_GENODEF_13
1002
{
1000
HIER
1070
     0
1002
}
1002
{
1000
MANEDIT
1070
     0
1002
}
1002
{
1000
NOSEL
1070
     0
1002
}
1002
{
1000
BEHIND
1070
     0
1002
}
1002
{
1000
OTHER
1070
     0
1002
}
1002
{
1000
REACTOR
1002
}
  0
LINE
  5
1B36
  8
SAPA_PROFIL
 62
     4
 10
67.450000071485874
 20
82.167448111925523
 30
0.0
 11
66.550000071489876
 21
82.167448111925523
 31
0.0
1001
GENIUS_GENOBJ-N-FIL_13
1002
{
1000
OWNER
1000
GEN
1002
}
1001
GENIUS_GENODEF_13
1002
{
1000
HIER
1070
     0
1002
}
1002
{
1000
MANEDIT
1070
     0
1002
}
1002
{
1000
NOSEL
1070
     0
1002
}
1002
{
1000
BEHIND
1070
     0
1002
}
1002
{
1000
OTHER
1070
     0
1002
}
1002
{
1000
REACTOR
1002
}
  0
ARC
  5
1B37
  8
SAPA_PROFIL
 62
     4
 10
66.550000071489876
 20
81.667448111925523
 30
0.0
 40
0.5
 50
90.0
 51
180.0
1001
GENIUS_GENOBJ-N-FIL_13
1002
{
1000
OWNER
1000
GEN
1002
}
1001
GENIUS_GENODEF_13
1002
{
1000
HIER
1070
     0
1002
}
1002
{
1000
MANEDIT
1070
     0
1002
}
1002
{
1000
NOSEL
1070
     0
1002
}
1002
{
1000
BEHIND
1070
     0
1002
}
1002
{
1000
OTHER
1070
     0
1002
}
1002
{
1000
REACTOR
1002
}
  0
LINE
  5
1B38
  8
SAPA_PROFIL
 62
     4
 10
66.050000071489876
 20
81.667448111925523
 30
0.0
 11
66.050000071489876
 21
75.667448111923704
 31
0.0
1001
GENIUS_GENOBJ-N-FIL_13
1002
{
1000
OWNER
1000
GEN
1002
}
1001
GENIUS_GENODEF_13
1002
{
1000
HIER
1070
     0
1002
}
1002
{
1000
MANEDIT
1070
     0
1002
}
1002
{
1000
NOSEL
1070
     0
1002
}
1002
{
1000
BEHIND
1070
     0
1002
}
1002
{
1000
OTHER
1070
     0
1002
}
1002
{
1000
REACTOR
1002
}
  0
ARC
  5
1B39
  8
SAPA_PROFIL
 62
     4
 10
66.550000071489876
 20
75.667448111923704
 30
0.0
 40
0.5
 50
180.0
 51
270.0
1001
GENIUS_GENOBJ-N-FIL_13
1002
{
1000
OWNER
1000
GEN
1002
}
1001
GENIUS_GENODEF_13
1002
{
1000
HIER
1070
     0
1002
}
1002
{
1000
MANEDIT
1070
     0
1002
}
1002
{
1000
NOSEL
1070
     0
1002
}
1002
{
1000
BEHIND
1070
     0
1002
}
1002
{
1000
OTHER
1070
     0
1002
}
1002
{
1000
REACTOR
1002
}
  0
LINE
  5
1B3A
  8
SAPA_PROFIL
 62
     4
 10
66.550000071489876
 20
75.167448111923704
 30
0.0
 11
67.450000071488603
 21
75.167448111923704
 31
0.0
1001
GENIUS_GENOBJ-N-FIL_13
1002
{
1000
OWNER
1000
GEN
1002
}
1001
GENIUS_GENODEF_13
1002
{
1000
HIER
1070
     0
1002
}
1002
{
1000
MANEDIT
1070
     0
1002
}
1002
{
1000
NOSEL
1070
     0
1002
}
1002
{
1000
BEHIND
1070
     0
1002
}
1002
{
1000
OTHER
1070
     0
1002
}
1002
{
1000
REACTOR
1002
}
  0
ARC
  5
1B3B
  8
SAPA_PROFIL
 62
     4
 10
67.450000071488489
 20
75.46744811192309
 30
0.0
 40
0.2999999999993861
 50
270.0000000000216
 51
359.99999999963092
1001
GENIUS_GENOBJ-N-FIL_13
1002
{
1000
OWNER
1000
GEN
1002
}
1001
GENIUS_GENODEF_13
1002
{
1000
HIER
1070
     0
1002
}
1002
{
1000
MANEDIT
1070
     0
1002
}
1002
{
1000
NOSEL
1070
     0
1002
}
1002
{
1000
BEHIND
1070
     0
1002
}
1002
{
1000
OTHER
1070
     0
1002
}
1002
{
1000
REACTOR
1002
}
  0
LINE
  5
1B3C
  8
SAPA_PROFIL
 62
     4
 10
67.750000071487875
 20
75.467448111921158
 30
0.0
 11
67.750000071492423
 21
76.117448111924432
 31
0.0
1001
GENIUS_GENOBJ-N-FIL_13
1002
{
1000
OWNER
1000
GEN
1002
}
1001
GENIUS_GENODEF_13
1002
{
1000
HIER
1070
     0
1002
}
1002
{
1000
MANEDIT
1070
     0
1002
}
1002
{
1000
NOSEL
1070
     0
1002
}
1002
{
1000
BEHIND
1070
     0
1002
}
1002
{
1000
OTHER
1070
     0
1002
}
1002
{
1000
REACTOR
1002
}
  0
ARC
  5
1B3D
  8
SAPA_PROFIL
 62
     4
 10
68.05000007149215
 20
76.117448111922158
 30
0.0
 40
0.2999999999997271
 50
89.999999999565759
 51
179.99999999956569
1001
GENIUS_GENOBJ-N-FIL_13
1002
{
1000
OWNER
1000
GEN
1002
}
1001
GENIUS_GENODEF_13
1002
{
1000
HIER
1070
     0
1002
}
1002
{
1000
MANEDIT
1070
     0
1002
}
1002
{
1000
NOSEL
1070
     0
1002
}
1002
{
1000
BEHIND
1070
     0
1002
}
1002
{
1000
OTHER
1070
     0
1002
}
1002
{
1000
REACTOR
1002
}
  0
LINE
  5
1B3E
  8
SAPA_PROFIL
 62
     4
 10
68.050000071494424
 20
76.417448111921885
 30
0.0
 11
68.250000071486966
 21
76.417448111920066
 31
0.0
1001
GENIUS_GENOBJ-N-FIL_13
1002
{
1000
OWNER
1000
GEN
1002
}
1001
GENIUS_GENODEF_13
1002
{
1000
HIER
1070
     0
1002
}
1002
{
1000
MANEDIT
1070
     0
1002
}
1002
{
1000
NOSEL
1070
     0
1002
}
1002
{
1000
BEHIND
1070
     0
1002
}
1002
{
1000
OTHER
1070
     0
1002
}
1002
{
1000
REACTOR
1002
}
  0
ARC
  5
1B3F
  8
SAPA_PROFIL
 62
     4
 10
68.250000071486966
 20
75.917448111920066
 30
0.0
 40
0.5
 50
0.0
 51
90.0
1001
GENIUS_GENOBJ-N-FIL_13
1002
{
1000
OWNER
1000
GEN
1002
}
1001
GENIUS_GENODEF_13
1002
{
1000
HIER
1070
     0
1002
}
1002
{
1000
MANEDIT
1070
     0
1002
}
1002
{
1000
NOSEL
1070
     0
1002
}
1002
{
1000
BEHIND
1070
     0
1002
}
1002
{
1000
OTHER
1070
     0
1002
}
1002
{
1000
REACTOR
1002
}
  0
LINE
  5
1B40
  8
SAPA_PROFIL
 62
     4
 10
68.750000071486966
 20
75.917448111920066
 30
0.0
 11
68.750000071486966
 21
72.917448111920066
 31
0.0
1001
GENIUS_GENOBJ-N-FIL_13
1002
{
1000
OWNER
1000
GEN
1002
}
1001
GENIUS_GENODEF_13
1002
{
1000
HIER
1070
     0
1002
}
1002
{
1000
MANEDIT
1070
     0
1002
}
1002
{
1000
NOSEL
1070
     0
1002
}
1002
{
1000
BEHIND
1070
     0
1002
}
1002
{
1000
OTHER
1070
     0
1002
}
1002
{
1000
REACTOR
1002
}
  0
ARC
  5
1B41
  8
SAPA_PROFIL
 62
     4
 10
68.250000071486966
 20
72.917448111920066
 30
0.0
 40
0.5
 50
270.0
 51
0.0
1001
GENIUS_GENOBJ-N-FIL_13
1002
{
1000
OWNER
1000
GEN
1002
}
1001
GENIUS_GENODEF_13
1002
{
1000
HIER
1070
     0
1002
}
1002
{
1000
MANEDIT
1070
     0
1002
}
1002
{
1000
NOSEL
1070
     0
1002
}
1002
{
1000
BEHIND
1070
     0
1002
}
1002
{
1000
OTHER
1070
     0
1002
}
1002
{
1000
REACTOR
1002
}
  0
LINE
  5
1B42
  8
SAPA_PROFIL
 62
     4
 10
68.250000071486966
 20
72.417448111920066
 30
0.0
 11
68.050000071487148
 21
72.417448111920066
 31
0.0
1001
GENIUS_GENOBJ-N-FIL_13
1002
{
1000
OWNER
1000
GEN
1002
}
1001
GENIUS_GENODEF_13
1002
{
1000
HIER
1070
     0
1002
}
1002
{
1000
MANEDIT
1070
     0
1002
}
1002
{
1000
NOSEL
1070
     0
1002
}
1002
{
1000
BEHIND
1070
     0
1002
}
1002
{
1000
OTHER
1070
     0
1002
}
1002
{
1000
REACTOR
1002
}
  0
ARC
  5
1B43
  8
SAPA_PROFIL
 62
     4
 10
68.050000071487602
 20
72.717448111920703
 30
0.0
 40
0.3000000000006366
 50
179.99999999991309
 51
269.99999999991309
1001
GENIUS_GENOBJ-N-FIL_13
1002
{
1000
OWNER
1000
GEN
1002
}
1001
GENIUS_GENODEF_13
1002
{
1000
HIER
1070
     0
1002
}
1002
{
1000
MANEDIT
1070
     0
1002
}
1002
{
1000
NOSEL
1070
     0
1002
}
1002
{
1000
BEHIND
1070
     0
1002
}
1002
{
1000
OTHER
1070
     0
1002
}
1002
{
1000
REACTOR
1002
}
  0
LINE
  5
1B44
  8
SAPA_PROFIL
 62
     4
 10
67.750000071486966
 20
72.717448111921158
 30
0.0
 11
67.750000071486966
 21
73.367448111920794
 31
0.0
1001
GENIUS_GENOBJ-N-FIL_13
1002
{
1000
OWNER
1000
GEN
1002
}
1001
GENIUS_GENODEF_13
1002
{
1000
HIER
1070
     0
1002
}
1002
{
1000
MANEDIT
1070
     0
1002
}
1002
{
1000
NOSEL
1070
     0
1002
}
1002
{
1000
BEHIND
1070
     0
1002
}
1002
{
1000
OTHER
1070
     0
1002
}
1002
{
1000
REACTOR
1002
}
  0
ARC
  5
1B45
  8
SAPA_PROFIL
 62
     4
 10
67.450000071486784
 20
73.367448111919884
 30
0.0
 40
0.3000000000001819
 50
0.0000000001737007
 51
90.000000000173699
1001
GENIUS_GENOBJ-N-FIL_13
1002
{
1000
OWNER
1000
GEN
1002
}
1001
GENIUS_GENODEF_13
1002
{
1000
HIER
1070
     0
1002
}
1002
{
1000
MANEDIT
1070
     0
1002
}
1002
{
1000
NOSEL
1070
     0
1002
}
1002
{
1000
BEHIND
1070
     0
1002
}
1002
{
1000
OTHER
1070
     0
1002
}
1002
{
1000
REACTOR
1002
}
  0
LINE
  5
1B46
  8
SAPA_PROFIL
 62
     4
 10
67.450000071485874
 20
73.667448111920066
 30
0.0
 11
66.550000071489876
 21
73.667448111920066
 31
0.0
1001
GENIUS_GENOBJ-N-FIL_13
1002
{
1000
OWNER
1000
GEN
1002
}
1001
GENIUS_GENODEF_13
1002
{
1000
HIER
1070
     0
1002
}
1002
{
1000
MANEDIT
1070
     0
1002
}
1002
{
1000
NOSEL
1070
     0
1002
}
1002
{
1000
BEHIND
1070
     0
1002
}
1002
{
1000
OTHER
1070
     0
1002
}
1002
{
1000
REACTOR
1002
}
  0
ARC
  5
1B47
  8
SAPA_PROFIL
 62
     4
 10
66.550000071489876
 20
73.167448111920066
 30
0.0
 40
0.5
 50
90.0
 51
180.0
1001
GENIUS_GENOBJ-N-FIL_13
1002
{
1000
OWNER
1000
GEN
1002
}
1001
GENIUS_GENODEF_13
1002
{
1000
HIER
1070
     0
1002
}
1002
{
1000
MANEDIT
1070
     0
1002
}
1002
{
1000
NOSEL
1070
     0
1002
}
1002
{
1000
BEHIND
1070
     0
1002
}
1002
{
1000
OTHER
1070
     0
1002
}
1002
{
1000
REACTOR
1002
}
  0
LINE
  5
1B48
  8
SAPA_PROFIL
 62
     4
 10
66.050000071489876
 20
73.167448111920066
 30
0.0
 11
66.050000071489876
 21
67.167448111920066
 31
0.0
1001
GENIUS_GENOBJ-N-FIL_13
1002
{
1000
OWNER
1000
GEN
1002
}
1001
GENIUS_GENODEF_13
1002
{
1000
HIER
1070
     0
1002
}
1002
{
1000
MANEDIT
1070
     0
1002
}
1002
{
1000
NOSEL
1070
     0
1002
}
1002
{
1000
BEHIND
1070
     0
1002
}
1002
{
1000
OTHER
1070
     0
1002
}
1002
{
1000
REACTOR
1002
}
  0
ARC
  5
1B49
  8
SAPA_PROFIL
 62
     4
 10
66.550000071489876
 20
67.167448111920066
 30
0.0
 40
0.5
 50
180.0
 51
270.0
1001
GENIUS_GENOBJ-N-FIL_13
1002
{
1000
OWNER
1000
GEN
1002
}
1001
GENIUS_GENODEF_13
1002
{
1000
HIER
1070
     0
1002
}
1002
{
1000
MANEDIT
1070
     0
1002
}
1002
{
1000
NOSEL
1070
     0
1002
}
1002
{
1000
BEHIND
1070
     0
1002
}
1002
{
1000
OTHER
1070
     0
1002
}
1002
{
1000
REACTOR
1002
}
  0
LINE
  5
1B4A
  8
SAPA_PROFIL
 62
     4
 10
66.550000071489876
 20
66.667448111920066
 30
0.0
 11
67.450000071485874
 21
66.667448111920066
 31
0.0
1001
GENIUS_GENOBJ-N-FIL_13
1002
{
1000
OWNER
1000
GEN
1002
}
1001
GENIUS_GENODEF_13
1002
{
1000
HIER
1070
     0
1002
}
1002
{
1000
MANEDIT
1070
     0
1002
}
1002
{
1000
NOSEL
1070
     0
1002
}
1002
{
1000
BEHIND
1070
     0
1002
}
1002
{
1000
OTHER
1070
     0
1002
}
1002
{
1000
REACTOR
1002
}
  0
ARC
  5
1B4B
  8
SAPA_PROFIL
 62
     4
 10
67.450000071485874
 20
66.967448111921144
 30
0.0
 40
0.3000000000010914
 50
270.0
 51
0.0
1001
GENIUS_GENOBJ-N-FIL_13
1002
{
1000
OWNER
1000
GEN
1002
}
1001
GENIUS_GENODEF_13
1002
{
1000
HIER
1070
     0
1002
}
1002
{
1000
MANEDIT
1070
     0
1002
}
1002
{
1000
NOSEL
1070
     0
1002
}
1002
{
1000
BEHIND
1070
     0
1002
}
1002
{
1000
OTHER
1070
     0
1002
}
1002
{
1000
REACTOR
1002
}
  0
LINE
  5
1B4C
  8
SAPA_PROFIL
 62
     4
 10
67.750000071486966
 20
66.967448111921144
 30
0.0
 11
67.750000071486966
 21
67.617448111920794
 31
0.0
1001
GENIUS_GENOBJ-N-FIL_13
1002
{
1000
OWNER
1000
GEN
1002
}
1001
GENIUS_GENODEF_13
1002
{
1000
HIER
1070
     0
1002
}
1002
{
1000
MANEDIT
1070
     0
1002
}
1002
{
1000
NOSEL
1070
     0
1002
}
1002
{
1000
BEHIND
1070
     0
1002
}
1002
{
1000
OTHER
1070
     0
1002
}
1002
{
1000
REACTOR
1002
}
  0
ARC
  5
1B4D
  8
SAPA_PROFIL
 62
     4
 10
68.050000071486693
 20
67.617448111920339
 30
0.0
 40
0.2999999999997271
 50
89.999999999913143
 51
179.99999999991309
1001
GENIUS_GENOBJ-N-FIL_13
1002
{
1000
OWNER
1000
GEN
1002
}
1001
GENIUS_GENODEF_13
1002
{
1000
HIER
1070
     0
1002
}
1002
{
1000
MANEDIT
1070
     0
1002
}
1002
{
1000
NOSEL
1070
     0
1002
}
1002
{
1000
BEHIND
1070
     0
1002
}
1002
{
1000
OTHER
1070
     0
1002
}
1002
{
1000
REACTOR
1002
}
  0
LINE
  5
1B4E
  8
SAPA_PROFIL
 62
     4
 10
68.050000071487148
 20
67.917448111920066
 30
0.0
 11
68.250000071486966
 21
67.917448111920066
 31
0.0
1001
GENIUS_GENOBJ-N-FIL_13
1002
{
1000
OWNER
1000
GEN
1002
}
1001
GENIUS_GENODEF_13
1002
{
1000
HIER
1070
     0
1002
}
1002
{
1000
MANEDIT
1070
     0
1002
}
1002
{
1000
NOSEL
1070
     0
1002
}
1002
{
1000
BEHIND
1070
     0
1002
}
1002
{
1000
OTHER
1070
     0
1002
}
1002
{
1000
REACTOR
1002
}
  0
ARC
  5
1B4F
  8
SAPA_PROFIL
 62
     4
 10
68.250000071486966
 20
67.417448111920066
 30
0.0
 40
0.5
 50
0.0
 51
90.0
1001
GENIUS_GENOBJ-N-FIL_13
1002
{
1000
OWNER
1000
GEN
1002
}
1001
GENIUS_GENODEF_13
1002
{
1000
HIER
1070
     0
1002
}
1002
{
1000
MANEDIT
1070
     0
1002
}
1002
{
1000
NOSEL
1070
     0
1002
}
1002
{
1000
BEHIND
1070
     0
1002
}
1002
{
1000
OTHER
1070
     0
1002
}
1002
{
1000
REACTOR
1002
}
  0
LINE
  5
1B50
  8
SAPA_PROFIL
 62
     4
 10
68.750000071486966
 20
67.417448111920066
 30
0.0
 11
68.750000071486056
 21
65.667448111920066
 31
0.0
1001
GENIUS_GENOBJ-N-FIL_13
1002
{
1000
OWNER
1000
GEN
1002
}
1001
GENIUS_GENODEF_13
1002
{
1000
HIER
1070
     0
1002
}
1002
{
1000
MANEDIT
1070
     0
1002
}
1002
{
1000
NOSEL
1070
     0
1002
}
1002
{
1000
BEHIND
1070
     0
1002
}
1002
{
1000
OTHER
1070
     0
1002
}
1002
{
1000
REACTOR
1002
}
  0
ARC
  5
1B51
  8
SAPA_PROFIL
 62
     4
 10
68.250000071318823
 20
65.6674481120873
 30
0.0
 40
0.5000000001672335
 50
269.99999998091471
 51
359.99999998083649
1001
GENIUS_GENOBJ-N-FIL_13
1002
{
1000
OWNER
1000
GEN
1002
}
1001
GENIUS_GENODEF_13
1002
{
1000
HIER
1070
     0
1002
}
1002
{
1000
MANEDIT
1070
     0
1002
}
1002
{
1000
NOSEL
1070
     0
1002
}
1002
{
1000
BEHIND
1070
     0
1002
}
1002
{
1000
OTHER
1070
     0
1002
}
1002
{
1000
REACTOR
1002
}
  0
LINE
  5
1B52
  8
SAPA_PROFIL
 62
     4
 10
68.250000071152272
 20
65.167448111920066
 30
0.0
 11
55.250000071144989
 21
65.167448111920066
 31
0.0
1001
GENIUS_GENOBJ-N-FIL_13
1002
{
1000
OWNER
1000
GEN
1002
}
1001
GENIUS_GENODEF_13
1002
{
1000
HIER
1070
     0
1002
}
1002
{
1000
MANEDIT
1070
     0
1002
}
1002
{
1000
NOSEL
1070
     0
1002
}
1002
{
1000
BEHIND
1070
     0
1002
}
1002
{
1000
OTHER
1070
     0
1002
}
1002
{
1000
REACTOR
1002
}
  0
ARC
  5
1B53
  8
SAPA_PROFIL
 62
     4
 10
55.250000071005722
 20
65.667448112057286
 30
0.0
 40
0.5000000001372201
 50
180.0000000159327
 51
270.00000001595868
1001
GENIUS_GENOBJ-N-FIL_13
1002
{
1000
OWNER
1000
GEN
1002
}
1001
GENIUS_GENODEF_13
1002
{
1000
HIER
1070
     0
1002
}
1002
{
1000
MANEDIT
1070
     0
1002
}
1002
{
1000
NOSEL
1070
     0
1002
}
1002
{
1000
BEHIND
1070
     0
1002
}
1002
{
1000
OTHER
1070
     0
1002
}
1002
{
1000
REACTOR
1002
}
  0
LINE
  5
1B54
  8
SAPA_PROFIL
 62
     4
 10
54.750000070868509
 20
65.667448111918233
 30
0.0
 11
54.750000070868509
 21
67.417448111918247
 31
0.0
1001
GENIUS_GENOBJ-N-FIL_13
1002
{
1000
OWNER
1000
GEN
1002
}
1001
GENIUS_GENODEF_13
1002
{
1000
HIER
1070
     0
1002
}
1002
{
1000
MANEDIT
1070
     0
1002
}
1002
{
1000
NOSEL
1070
     0
1002
}
1002
{
1000
BEHIND
1070
     0
1002
}
1002
{
1000
OTHER
1070
     0
1002
}
1002
{
1000
REACTOR
1002
}
  0
ARC
  5
1B55
  8
SAPA_PROFIL
 62
     4
 10
55.250000070868509
 20
67.417448111918247
 30
0.0
 40
0.5
 50
90.0
 51
180.0
1001
GENIUS_GENOBJ-N-FIL_13
1002
{
1000
OWNER
1000
GEN
1002
}
1001
GENIUS_GENODEF_13
1002
{
1000
HIER
1070
     0
1002
}
1002
{
1000
MANEDIT
1070
     0
1002
}
1002
{
1000
NOSEL
1070
     0
1002
}
1002
{
1000
BEHIND
1070
     0
1002
}
1002
{
1000
OTHER
1070
     0
1002
}
1002
{
1000
REACTOR
1002
}
  0
LINE
  5
1B56
  8
SAPA_PROFIL
 62
     4
 10
55.250000070868509
 20
67.917448111918247
 30
0.0
 11
55.450000070868327
 21
67.917448111918247
 31
0.0
1001
GENIUS_GENOBJ-N-FIL_13
1002
{
1000
OWNER
1000
GEN
1002
}
1001
GENIUS_GENODEF_13
1002
{
1000
HIER
1070
     0
1002
}
1002
{
1000
MANEDIT
1070
     0
1002
}
1002
{
1000
NOSEL
1070
     0
1002
}
1002
{
1000
BEHIND
1070
     0
1002
}
1002
{
1000
OTHER
1070
     0
1002
}
1002
{
1000
REACTOR
1002
}
  0
ARC
  5
1B57
  8
SAPA_PROFIL
 62
     4
 10
55.450000070868782
 20
67.61744811191852
 30
0.0
 40
0.2999999999997271
 50
0.0000000000868503
 51
90.000000000086857
1001
GENIUS_GENOBJ-N-FIL_13
1002
{
1000
OWNER
1000
GEN
1002
}
1001
GENIUS_GENODEF_13
1002
{
1000
HIER
1070
     0
1002
}
1002
{
1000
MANEDIT
1070
     0
1002
}
1002
{
1000
NOSEL
1070
     0
1002
}
1002
{
1000
BEHIND
1070
     0
1002
}
1002
{
1000
OTHER
1070
     0
1002
}
1002
{
1000
REACTOR
1002
}
  0
LINE
  5
1B58
  8
SAPA_PROFIL
 62
     4
 10
55.750000070868509
 20
67.617448111918975
 30
0.0
 11
55.750000070868509
 21
66.967448111919325
 31
0.0
1001
GENIUS_GENOBJ-N-FIL_13
1002
{
1000
OWNER
1000
GEN
1002
}
1001
GENIUS_GENODEF_13
1002
{
1000
HIER
1070
     0
1002
}
1002
{
1000
MANEDIT
1070
     0
1002
}
1002
{
1000
NOSEL
1070
     0
1002
}
1002
{
1000
BEHIND
1070
     0
1002
}
1002
{
1000
OTHER
1070
     0
1002
}
1002
{
1000
REACTOR
1002
}
  0
ARC
  5
1B59
  8
SAPA_PROFIL
 62
     4
 10
56.050000070868691
 20
66.967448111918429
 30
0.0
 40
0.3000000000001819
 50
179.99999999982629
 51
269.99999999982629
1001
GENIUS_GENOBJ-N-FIL_13
1002
{
1000
OWNER
1000
GEN
1002
}
1001
GENIUS_GENODEF_13
1002
{
1000
HIER
1070
     0
1002
}
1002
{
1000
MANEDIT
1070
     0
1002
}
1002
{
1000
NOSEL
1070
     0
1002
}
1002
{
1000
BEHIND
1070
     0
1002
}
1002
{
1000
OTHER
1070
     0
1002
}
1002
{
1000
REACTOR
1002
}
  0
LINE
  5
1B5A
  8
SAPA_PROFIL
 62
     4
 10
56.050000070867782
 20
66.667448111918247
 30
0.0
 11
56.950000070865599
 21
66.667448111918247
 31
0.0
1001
GENIUS_GENOBJ-N-FIL_13
1002
{
1000
OWNER
1000
GEN
1002
}
1001
GENIUS_GENODEF_13
1002
{
1000
HIER
1070
     0
1002
}
1002
{
1000
MANEDIT
1070
     0
1002
}
1002
{
1000
NOSEL
1070
     0
1002
}
1002
{
1000
BEHIND
1070
     0
1002
}
1002
{
1000
OTHER
1070
     0
1002
}
1002
{
1000
REACTOR
1002
}
  0
ARC
  5
1B5B
  8
SAPA_PROFIL
 62
     4
 10
56.950000070865599
 20
67.167448111918247
 30
0.0
 40
0.5
 50
270.0
 51
0.0
1001
GENIUS_GENOBJ-N-FIL_13
1002
{
1000
OWNER
1000
GEN
1002
}
1001
GENIUS_GENODEF_13
1002
{
1000
HIER
1070
     0
1002
}
1002
{
1000
MANEDIT
1070
     0
1002
}
1002
{
1000
NOSEL
1070
     0
1002
}
1002
{
1000
BEHIND
1070
     0
1002
}
1002
{
1000
OTHER
1070
     0
1002
}
1002
{
1000
REACTOR
1002
}
  0
LINE
  5
1B5C
  8
SAPA_PROFIL
 62
     4
 10
57.450000070865592
 20
67.167448111918247
 30
0.0
 11
57.450000070865592
 21
73.167448111918233
 31
0.0
1001
GENIUS_GENOBJ-N-FIL_13
1002
{
1000
OWNER
1000
GEN
1002
}
1001
GENIUS_GENODEF_13
1002
{
1000
HIER
1070
     0
1002
}
1002
{
1000
MANEDIT
1070
     0
1002
}
1002
{
1000
NOSEL
1070
     0
1002
}
1002
{
1000
BEHIND
1070
     0
1002
}
1002
{
1000
OTHER
1070
     0
1002
}
1002
{
1000
REACTOR
1002
}
  0
ARC
  5
1B5D
  8
SAPA_PROFIL
 62
     4
 10
56.950000070865599
 20
73.167448111918233
 30
0.0
 40
0.5
 50
0.0
 51
90.0
1001
GENIUS_GENOBJ-N-FIL_13
1002
{
1000
OWNER
1000
GEN
1002
}
1001
GENIUS_GENODEF_13
1002
{
1000
HIER
1070
     0
1002
}
1002
{
1000
MANEDIT
1070
     0
1002
}
1002
{
1000
NOSEL
1070
     0
1002
}
1002
{
1000
BEHIND
1070
     0
1002
}
1002
{
1000
OTHER
1070
     0
1002
}
1002
{
1000
REACTOR
1002
}
  0
LINE
  5
1B5E
  8
SAPA_PROFIL
 62
     4
 10
56.950000070865599
 20
73.667448111918247
 30
0.0
 11
56.050000070867782
 21
73.667448111918247
 31
0.0
1001
GENIUS_GENOBJ-N-FIL_13
1002
{
1000
OWNER
1000
GEN
1002
}
1001
GENIUS_GENODEF_13
1002
{
1000
HIER
1070
     0
1002
}
1002
{
1000
MANEDIT
1070
     0
1002
}
1002
{
1000
NOSEL
1070
     0
1002
}
1002
{
1000
BEHIND
1070
     0
1002
}
1002
{
1000
OTHER
1070
     0
1002
}
1002
{
1000
REACTOR
1002
}
  0
ARC
  5
1B5F
  8
SAPA_PROFIL
 62
     4
 10
56.050000070867782
 20
73.367448111918975
 30
0.0
 40
0.2999999999992724
 50
90.0
 51
180.0
1001
GENIUS_GENOBJ-N-FIL_13
1002
{
1000
OWNER
1000
GEN
1002
}
1001
GENIUS_GENODEF_13
1002
{
1000
HIER
1070
     0
1002
}
1002
{
1000
MANEDIT
1070
     0
1002
}
1002
{
1000
NOSEL
1070
     0
1002
}
1002
{
1000
BEHIND
1070
     0
1002
}
1002
{
1000
OTHER
1070
     0
1002
}
1002
{
1000
REACTOR
1002
}
  0
LINE
  5
1B60
  8
SAPA_PROFIL
 62
     4
 10
55.750000070868509
 20
73.367448111918975
 30
0.0
 11
55.750000070868509
 21
72.717448111919339
 31
0.0
1001
GENIUS_GENOBJ-N-FIL_13
1002
{
1000
OWNER
1000
GEN
1002
}
1001
GENIUS_GENODEF_13
1002
{
1000
HIER
1070
     0
1002
}
1002
{
1000
MANEDIT
1070
     0
1002
}
1002
{
1000
NOSEL
1070
     0
1002
}
1002
{
1000
BEHIND
1070
     0
1002
}
1002
{
1000
OTHER
1070
     0
1002
}
1002
{
1000
REACTOR
1002
}
  0
ARC
  5
1B61
  8
SAPA_PROFIL
 62
     4
 10
55.450000070867873
 20
72.717448111918884
 30
0.0
 40
0.3000000000006366
 50
270.0000000000868
 51
0.0000000000868503
1001
GENIUS_GENOBJ-N-FIL_13
1002
{
1000
OWNER
1000
GEN
1002
}
1001
GENIUS_GENODEF_13
1002
{
1000
HIER
1070
     0
1002
}
1002
{
1000
MANEDIT
1070
     0
1002
}
1002
{
1000
NOSEL
1070
     0
1002
}
1002
{
1000
BEHIND
1070
     0
1002
}
1002
{
1000
OTHER
1070
     0
1002
}
1002
{
1000
REACTOR
1002
}
  0
LINE
  5
1B62
  8
SAPA_PROFIL
 62
     4
 10
55.450000070868327
 20
72.417448111918247
 30
0.0
 11
55.250000070868509
 21
72.417448111918247
 31
0.0
1001
GENIUS_GENOBJ-N-FIL_13
1002
{
1000
OWNER
1000
GEN
1002
}
1001
GENIUS_GENODEF_13
1002
{
1000
HIER
1070
     0
1002
}
1002
{
1000
MANEDIT
1070
     0
1002
}
1002
{
1000
NOSEL
1070
     0
1002
}
1002
{
1000
BEHIND
1070
     0
1002
}
1002
{
1000
OTHER
1070
     0
1002
}
1002
{
1000
REACTOR
1002
}
  0
ARC
  5
1B63
  8
SAPA_PROFIL
 62
     4
 10
55.250000070868509
 20
72.917448111918247
 30
0.0
 40
0.5
 50
180.0
 51
270.0
1001
GENIUS_GENOBJ-N-FIL_13
1002
{
1000
OWNER
1000
GEN
1002
}
1001
GENIUS_GENODEF_13
1002
{
1000
HIER
1070
     0
1002
}
1002
{
1000
MANEDIT
1070
     0
1002
}
1002
{
1000
NOSEL
1070
     0
1002
}
1002
{
1000
BEHIND
1070
     0
1002
}
1002
{
1000
OTHER
1070
     0
1002
}
1002
{
1000
REACTOR
1002
}
  0
LINE
  5
1B64
  8
SAPA_PROFIL
 62
     4
 10
54.750000070868509
 20
72.917448111918247
 30
0.0
 11
54.750000070868509
 21
75.917448111918247
 31
0.0
1001
GENIUS_GENOBJ-N-FIL_13
1002
{
1000
OWNER
1000
GEN
1002
}
1001
GENIUS_GENODEF_13
1002
{
1000
HIER
1070
     0
1002
}
1002
{
1000
MANEDIT
1070
     0
1002
}
1002
{
1000
NOSEL
1070
     0
1002
}
1002
{
1000
BEHIND
1070
     0
1002
}
1002
{
1000
OTHER
1070
     0
1002
}
1002
{
1000
REACTOR
1002
}
  0
ARC
  5
1B65
  8
SAPA_PROFIL
 62
     4
 10
55.250000070868509
 20
75.917448111918247
 30
0.0
 40
0.5
 50
90.0
 51
180.0
1001
GENIUS_GENOBJ-N-FIL_13
1002
{
1000
OWNER
1000
GEN
1002
}
1001
GENIUS_GENODEF_13
1002
{
1000
HIER
1070
     0
1002
}
1002
{
1000
MANEDIT
1070
     0
1002
}
1002
{
1000
NOSEL
1070
     0
1002
}
1002
{
1000
BEHIND
1070
     0
1002
}
1002
{
1000
OTHER
1070
     0
1002
}
1002
{
1000
REACTOR
1002
}
  0
LINE
  5
1B66
  8
SAPA_PROFIL
 62
     4
 10
55.250000070868509
 20
76.417448111918233
 30
0.0
 11
55.450000070861051
 21
76.417448111920066
 31
0.0
1001
GENIUS_GENOBJ-N-FIL_13
1002
{
1000
OWNER
1000
GEN
1002
}
1001
GENIUS_GENODEF_13
1002
{
1000
HIER
1070
     0
1002
}
1002
{
1000
MANEDIT
1070
     0
1002
}
1002
{
1000
NOSEL
1070
     0
1002
}
1002
{
1000
BEHIND
1070
     0
1002
}
1002
{
1000
OTHER
1070
     0
1002
}
1002
{
1000
REACTOR
1002
}
  0
ARC
  5
1B67
  8
SAPA_PROFIL
 62
     4
 10
55.450000070863211
 20
76.117448111920226
 30
0.0
 40
0.2999999999998408
 50
0.0000000004559643
 51
90.000000000412527
1001
GENIUS_GENOBJ-N-FIL_13
1002
{
1000
OWNER
1000
GEN
1002
}
1001
GENIUS_GENODEF_13
1002
{
1000
HIER
1070
     0
1002
}
1002
{
1000
MANEDIT
1070
     0
1002
}
1002
{
1000
NOSEL
1070
     0
1002
}
1002
{
1000
BEHIND
1070
     0
1002
}
1002
{
1000
OTHER
1070
     0
1002
}
1002
{
1000
REACTOR
1002
}
  0
LINE
  5
1B68
  8
SAPA_PROFIL
 62
     4
 10
55.750000070863052
 20
76.117448111922613
 30
0.0
 11
55.750000070865781
 21
75.467448111921158
 31
0.0
1001
GENIUS_GENOBJ-N-FIL_13
1002
{
1000
OWNER
1000
GEN
1002
}
1001
GENIUS_GENODEF_13
1002
{
1000
HIER
1070
     0
1002
}
1002
{
1000
MANEDIT
1070
     0
1002
}
1002
{
1000
NOSEL
1070
     0
1002
}
1002
{
1000
BEHIND
1070
     0
1002
}
1002
{
1000
OTHER
1070
     0
1002
}
1002
{
1000
REACTOR
1002
}
  0
ARC
  5
1B69
  8
SAPA_PROFIL
 62
     4
 10
56.05000007086641
 20
75.467448111922522
 30
0.0
 40
0.3000000000006366
 50
180.00000000026051
 51
270.0000000000868
1001
GENIUS_GENOBJ-N-FIL_13
1002
{
1000
OWNER
1000
GEN
1002
}
1001
GENIUS_GENODEF_13
1002
{
1000
HIER
1070
     0
1002
}
1002
{
1000
MANEDIT
1070
     0
1002
}
1002
{
1000
NOSEL
1070
     0
1002
}
1002
{
1000
BEHIND
1070
     0
1002
}
1002
{
1000
OTHER
1070
     0
1002
}
1002
{
1000
REACTOR
1002
}
  0
LINE
  5
1B6A
  8
SAPA_PROFIL
 62
     4
 10
56.050000070866872
 20
75.167448111921885
 30
0.0
 11
56.950000070865599
 21
75.167448111921885
 31
0.0
1001
GENIUS_GENOBJ-N-FIL_13
1002
{
1000
OWNER
1000
GEN
1002
}
1001
GENIUS_GENODEF_13
1002
{
1000
HIER
1070
     0
1002
}
1002
{
1000
MANEDIT
1070
     0
1002
}
1002
{
1000
NOSEL
1070
     0
1002
}
1002
{
1000
BEHIND
1070
     0
1002
}
1002
{
1000
OTHER
1070
     0
1002
}
1002
{
1000
REACTOR
1002
}
  0
ARC
  5
1B6B
  8
SAPA_PROFIL
 62
     4
 10
56.950000070865599
 20
75.667448111921885
 30
0.0
 40
0.5
 50
270.0
 51
0.0
1001
GENIUS_GENOBJ-N-FIL_13
1002
{
1000
OWNER
1000
GEN
1002
}
1001
GENIUS_GENODEF_13
1002
{
1000
HIER
1070
     0
1002
}
1002
{
1000
MANEDIT
1070
     0
1002
}
1002
{
1000
NOSEL
1070
     0
1002
}
1002
{
1000
BEHIND
1070
     0
1002
}
1002
{
1000
OTHER
1070
     0
1002
}
1002
{
1000
REACTOR
1002
}
  0
LINE
  5
1B6C
  8
SAPA_PROFIL
 62
     4
 10
57.450000070865592
 20
75.667448111921885
 30
0.0
 11
57.450000070858323
 21
81.667448111923704
 31
0.0
1001
GENIUS_GENOBJ-N-FIL_13
1002
{
1000
OWNER
1000
GEN
1002
}
1001
GENIUS_GENODEF_13
1002
{
1000
HIER
1070
     0
1002
}
1002
{
1000
MANEDIT
1070
     0
1002
}
1002
{
1000
NOSEL
1070
     0
1002
}
1002
{
1000
BEHIND
1070
     0
1002
}
1002
{
1000
OTHER
1070
     0
1002
}
1002
{
1000
REACTOR
1002
}
  0
ARC
  5
1B6D
  8
SAPA_PROFIL
 62
     4
 10
56.950000070858323
 20
81.667448111923704
 30
0.0
 40
0.5
 50
0.0
 51
90.0
1001
GENIUS_GENOBJ-N-FIL_13
1002
{
1000
OWNER
1000
GEN
1002
}
1001
GENIUS_GENODEF_13
1002
{
1000
HIER
1070
     0
1002
}
1002
{
1000
MANEDIT
1070
     0
1002
}
1002
{
1000
NOSEL
1070
     0
1002
}
1002
{
1000
BEHIND
1070
     0
1002
}
1002
{
1000
OTHER
1070
     0
1002
}
1002
{
1000
REACTOR
1002
}
  0
LINE
  5
1B6E
  8
SAPA_PROFIL
 62
     4
 10
56.950000070858323
 20
82.167448111923704
 30
0.0
 11
56.050000070861408
 21
82.167448111923704
 31
0.0
1001
GENIUS_GENOBJ-N-FIL_13
1002
{
1000
OWNER
1000
GEN
1002
}
1001
GENIUS_GENODEF_13
1002
{
1000
HIER
1070
     0
1002
}
1002
{
1000
MANEDIT
1070
     0
1002
}
1002
{
1000
NOSEL
1070
     0
1002
}
1002
{
1000
BEHIND
1070
     0
1002
}
1002
{
1000
OTHER
1070
     0
1002
}
1002
{
1000
REACTOR
1002
}
  0
ARC
  5
1B6F
  8
SAPA_PROFIL
 62
     4
 10
56.05000007086096
 20
81.867448111923963
 30
0.0
 40
0.2999999999997271
 50
89.999999999913143
 51
179.99999999991309
1001
GENIUS_GENOBJ-N-FIL_13
1002
{
1000
OWNER
1000
GEN
1002
}
1001
GENIUS_GENODEF_13
1002
{
1000
HIER
1070
     0
1002
}
1002
{
1000
MANEDIT
1070
     0
1002
}
1002
{
1000
NOSEL
1070
     0
1002
}
1002
{
1000
BEHIND
1070
     0
1002
}
1002
{
1000
OTHER
1070
     0
1002
}
1002
{
1000
REACTOR
1002
}
  0
LINE
  5
1B70
  8
SAPA_PROFIL
 62
     4
 10
55.750000070861233
 20
81.867448111924432
 30
0.0
 11
55.750000070861233
 21
81.217448111921144
 31
0.0
1001
GENIUS_GENOBJ-N-FIL_13
1002
{
1000
OWNER
1000
GEN
1002
}
1001
GENIUS_GENODEF_13
1002
{
1000
HIER
1070
     0
1002
}
1002
{
1000
MANEDIT
1070
     0
1002
}
1002
{
1000
NOSEL
1070
     0
1002
}
1002
{
1000
BEHIND
1070
     0
1002
}
1002
{
1000
OTHER
1070
     0
1002
}
1002
{
1000
REACTOR
1002
}
  0
ARC
  5
1B71
  8
SAPA_PROFIL
 62
     4
 10
55.450000070861513
 20
81.217448111921613
 30
0.0
 40
0.2999999999997271
 50
269.99999999991309
 51
359.99999999991309
1001
GENIUS_GENOBJ-N-FIL_13
1002
{
1000
OWNER
1000
GEN
1002
}
1001
GENIUS_GENODEF_13
1002
{
1000
HIER
1070
     0
1002
}
1002
{
1000
MANEDIT
1070
     0
1002
}
1002
{
1000
NOSEL
1070
     0
1002
}
1002
{
1000
BEHIND
1070
     0
1002
}
1002
{
1000
OTHER
1070
     0
1002
}
1002
{
1000
REACTOR
1002
}
  0
LINE
  5
1B72
  8
SAPA_PROFIL
 62
     4
 10
55.450000070861051
 20
80.917448111921885
 30
0.0
 11
55.25000007086124
 21
80.917448111921885
 31
0.0
1001
GENIUS_GENOBJ-N-FIL_13
1002
{
1000
OWNER
1000
GEN
1002
}
1001
GENIUS_GENODEF_13
1002
{
1000
HIER
1070
     0
1002
}
1002
{
1000
MANEDIT
1070
     0
1002
}
1002
{
1000
NOSEL
1070
     0
1002
}
1002
{
1000
BEHIND
1070
     0
1002
}
1002
{
1000
OTHER
1070
     0
1002
}
1002
{
1000
REACTOR
1002
}
  0
ARC
  5
1B73
  8
SAPA_PROFIL
 62
     4
 10
55.25000007086124
 20
81.417448111921885
 30
0.0
 40
0.5
 50
180.0
 51
270.0
1001
GENIUS_GENOBJ-N-FIL_13
1002
{
1000
OWNER
1000
GEN
1002
}
1001
GENIUS_GENODEF_13
1002
{
1000
HIER
1070
     0
1002
}
1002
{
1000
MANEDIT
1070
     0
1002
}
1002
{
1000
NOSEL
1070
     0
1002
}
1002
{
1000
BEHIND
1070
     0
1002
}
1002
{
1000
OTHER
1070
     0
1002
}
1002
{
1000
REACTOR
1002
}
  0
LINE
  5
1B74
  8
SAPA_PROFIL
 62
     4
 10
54.750000070861233
 20
81.417448111921885
 30
0.0
 11
54.750000070943081
 21
107.21518313884479
 31
0.0
1001
GENIUS_GENOBJ-N-FIL_13
1002
{
1000
OWNER
1000
GEN
1002
}
1001
GENIUS_GENODEF_13
1002
{
1000
HIER
1070
     0
1002
}
1002
{
1000
MANEDIT
1070
     0
1002
}
1002
{
1000
NOSEL
1070
     0
1002
}
1002
{
1000
BEHIND
1070
     0
1002
}
1002
{
1000
OTHER
1070
     0
1002
}
1002
{
1000
REACTOR
1002
}
  0
ARC
  5
1B75
  8
SAPA_PROFIL
 62
     4
 10
53.550000070943042
 20
107.2151831388491
 30
0.0
 40
1.200000000000045
 50
359.99999999979377
 51
89.999999999989143
1001
GENIUS_GENOBJ-N-FIL_13
1002
{
1000
OWNER
1000
GEN
1002
}
1001
GENIUS_GENODEF_13
1002
{
1000
HIER
1070
     0
1002
}
1002
{
1000
MANEDIT
1070
     0
1002
}
1002
{
1000
NOSEL
1070
     0
1002
}
1002
{
1000
BEHIND
1070
     0
1002
}
1002
{
1000
OTHER
1070
     0
1002
}
1002
{
1000
REACTOR
1002
}
  0
LINE
  5
1B76
  8
SAPA_PROFIL
 62
     4
 10
53.55000007094327
 20
108.4151831388492
 30
0.0
 11
50.821518720863203
 21
108.4151831388492
 31
0.0
1001
GENIUS_GENOBJ-N-FIL_13
1002
{
1000
OWNER
1000
GEN
1002
}
1001
GENIUS_GENODEF_13
1002
{
1000
HIER
1070
     0
1002
}
1002
{
1000
MANEDIT
1070
     0
1002
}
1002
{
1000
NOSEL
1070
     0
1002
}
1002
{
1000
BEHIND
1070
     0
1002
}
1002
{
1000
OTHER
1070
     0
1002
}
1002
{
1000
REACTOR
1002
}
  0
LINE
  5
1B77
  8
SAPA_PROFIL
 62
     4
 10
58.450000138908528
 20
83.451709582438738
 30
0.0
 11
65.950000139466965
 21
83.451709582444224
 31
0.0
  0
ARC
  5
1B78
  8
SAPA_PROFIL
 62
     4
 10
65.950000139466965
 20
84.451709582444209
 30
0.0
 40
1.0
 50
270.0
 51
0.0
  0
LINE
  5
1B79
  8
SAPA_PROFIL
 62
     4
 10
66.950000139466965
 20
84.451709582444209
 30
0.0
 11
66.950000139482427
 21
107.5994446093675
 31
0.0
  0
ARC
  5
1B7A
  8
SAPA_PROFIL
 62
     4
 10
66.1500001394827
 20
107.5994446093671
 30
0.0
 40
0.7999999999997272
 50
0.0000000000325689
 51
90.000000000032571
  0
LINE
  5
1B7B
  8
SAPA_PROFIL
 62
     4
 10
66.150000139482245
 20
108.3994446093668
 30
0.0
 11
57.350000138963651
 21
108.3994446093668
 31
0.0
  0
ARC
  5
1B7C
  8
SAPA_PROFIL
 62
     4
 10
57.350000138963651
 20
107.5994446093666
 30
0.0
 40
0.8000000000001818
 50
90.0
 51
180.00000000006511
  0
LINE
  5
1B7D
  8
SAPA_PROFIL
 62
     4
 10
56.550000138963469
 20
107.5994446093657
 30
0.0
 11
56.550000138987109
 21
84.451709582438767
 31
0.0
  0
ARC
  5
1B7E
  8
SAPA_PROFIL
 62
     4
 10
57.550000138986768
 20
84.45170958244023
 30
0.0
 40
0.9999999999996589
 50
180.0000000000847
 51
269.99999999996737
  0
LINE
  5
1B7F
  8
SAPA_PROFIL
 62
     4
 10
57.550000138986199
 20
83.451709582440571
 30
0.0
 11
58.450000138908528
 21
83.451709582438738
 31
0.0
  0
LINE
  5
1B80
  8
SAPA_PROFIL
 10
101.7500000711627
 20
122.69944465005869
 30
0.0
 11
101.7500000711623
 21
110.4994446500579
 31
0.0
  0
LINE
  5
1B81
  8
SAPA_PROFIL
 10
101.7500000711623
 20
110.4994446500579
 30
0.0
 11
133.7500000711627
 21
110.4994446500579
 31
0.0
  0
LINE
  5
1B82
  8
SAPA_PROFIL
 10
133.7500000711627
 20
110.4994446500579
 30
0.0
 11
133.7500000711627
 21
122.69944465005869
 31
0.0
  0
LINE
  5
1B83
  8
SAPA_PROFIL
 10
133.7500000711627
 20
122.69944465005869
 30
0.0
 11
101.7500000711627
 21
122.69944465005869
 31
0.0
  0
ARC
  5
1B84
  8
SAPA_PROFIL
 10
98.750000071162276
 20
112.0994446500583
 30
0.0
 40
1.0
 50
270.0
 51
0.0
  0
LINE
  5
1B85
  8
SAPA_PROFIL
 10
99.75000007116229
 20
112.0994446500583
 30
0.0
 11
99.75000007116229
 21
121.0994446500583
 31
0.0
  0
ARC
  5
1B86
  8
SAPA_PROFIL
 10
98.750000071162276
 20
121.0994446500583
 30
0.0
 40
1.0
 50
0.0
 51
90.0
  0
LINE
  5
1B87
  8
SAPA_PROFIL
 10
98.750000071162276
 20
122.0994446500583
 30
0.0
 11
96.25000003576065
 21
122.0994446500583
 31
0.0
  0
LINE
  5
1B88
  8
SAPA_PROFIL
 10
96.25000003576065
 20
122.0994446500583
 30
0.0
 11
96.25000003576065
 21
122.69944465005869
 31
0.0
  0
LINE
  5
1B89
  8
SAPA_PROFIL
 10
96.25000003576065
 20
122.69944465005869
 30
0.0
 11
78.75000003576065
 21
122.69944465005869
 31
0.0
  0
LINE
  5
1B8A
  8
SAPA_PROFIL
 10
78.75000003576065
 20
122.69944465005869
 30
0.0
 11
78.75000003576065
 21
110.4994446500579
 31
0.0
  0
LINE
  5
1B8B
  8
SAPA_PROFIL
 10
78.75000003576065
 20
110.4994446500579
 30
0.0
 11
96.25000003576065
 21
110.4994446500579
 31
0.0
  0
LINE
  5
1B8C
  8
SAPA_PROFIL
 10
96.25000003576065
 20
110.4994446500579
 30
0.0
 11
96.25000003576065
 21
111.0994446500583
 31
0.0
  0
LINE
  5
1B8D
  8
SAPA_PROFIL
 10
96.25000003576065
 20
111.0994446500583
 30
0.0
 11
98.750000071162276
 21
111.0994446500583
 31
0.0
  0
ARC
  5
1B8E
  8
SAPA_PROFIL
 10
75.750000071148506
 20
124.9994446500562
 30
0.0
 40
0.2000000000001592
 50
180.0000000005333
 51
0.0000000005088887
  0
LINE
  5
1B8F
  8
SAPA_PROFIL
 10
75.550000071148361
 20
124.9994446500543
 30
0.0
 11
71.9641896335213
 21
124.99946865005521
 31
0.0
  0
ARC
  5
1B90
  8
SAPA_PROFIL
 10
71.964189633521428
 20
123.99946865005499
 30
0.0
 40
1.0000000000001561
 50
90.000000000007333
 51
224.99999999998849
  0
LINE
  5
1B91
  8
SAPA_PROFIL
 10
71.257082852334634
 20
123.2923618688685
 30
0.0
 11
72.562132105503679
 21
121.9873126156992
 31
0.0
  0
ARC
  5
1B92
  8
SAPA_PROFIL
 10
72.774264139858914
 20
122.1994446500554
 30
0.0
 40
0.2999999999996828
 50
225.00000000013239
 51
270.00000000015189
  0
LINE
  5
1B93
  8
SAPA_PROFIL
 10
72.774264139859724
 20
121.8994446500557
 30
0.0
 11
73.360769586606921
 21
121.8994446500548
 31
0.0
  0
ARC
  5
1B94
  8
SAPA_PROFIL
 10
73.360769586604491
 20
122.1994446500548
 30
0.0
 40
0.2999999999999545
 50
270.00000000046413
 51
300.0000000004606
  0
LINE
  5
1B95
  8
SAPA_PROFIL
 10
73.510769586606557
 20
121.9396370289207
 30
0.0
 11
75.000000071147724
 21
122.79944465005541
 31
0.0
  0
LINE
  5
1B96
  8
SAPA_PROFIL
 10
75.000000071147724
 20
122.79944465005541
 30
0.0
 11
75.450000071147542
 21
122.79945665005491
 31
0.0
  0
ARC
  5
1B97
  8
SAPA_PROFIL
 10
75.450000071147542
 20
122.4994566500547
 30
0.0
 40
0.3000000000001819
 50
0.0
 51
90.0
  0
LINE
  5
1B98
  8
SAPA_PROFIL
 10
75.750000071147724
 20
122.4994566500547
 30
0.0
 11
75.750000071147497
 21
118.8994446500558
 31
0.0
  0
ARC
  5
1B99
  8
SAPA_PROFIL
 10
75.450000071146974
 20
118.8994446500552
 30
0.0
 40
0.300000000000523
 50
270.00000000010863
 51
0.0000000001085629
  0
LINE
  5
1B9A
  8
SAPA_PROFIL
 10
75.450000071147542
 20
118.59944465005471
 30
0.0
 11
75.000000071147724
 21
118.59944465005471
 31
0.0
  0
LINE
  5
1B9B
  8
SAPA_PROFIL
 10
75.000000071147724
 20
118.59944465005471
 30
0.0
 11
73.510739940073563
 21
119.4592693876241
 31
0.0
  0
ARC
  5
1B9C
  8
SAPA_PROFIL
 10
73.36073994007441
 20
119.1994617664884
 30
0.0
 40
0.2999999999998768
 50
60.000000000173188
 51
89.996353132718426
  0
LINE
  5
1B9D
  8
SAPA_PROFIL
 10
73.360759035026831
 20
119.4994617658806
 30
0.0
 11
73.250000071147724
 21
119.4994688156723
 31
0.0
  0
LINE
  5
1B9E
  8
SAPA_PROFIL
 10
73.250000071147724
 20
119.4994688156723
 30
0.0
 11
73.250000071148179
 21
117.8777568135676
 31
0.0
  0
ARC
  5
1B9F
  8
SAPA_PROFIL
 10
74.250000071147824
 20
117.8777568135678
 30
0.0
 40
0.9999999999996447
 50
180.0000000000089
 51
240.0000000000118
  0
LINE
  5
1BA0
  8
SAPA_PROFIL
 10
73.750000071148179
 20
117.01173140978359
 30
0.0
 11
75.250000071147724
 21
116.1457060059995
 31
0.0
  0
ARC
  5
1BA1
  8
SAPA_PROFIL
 10
74.750000071148065
 20
115.27968060221519
 30
0.0
 40
0.999999999999646
 50
0.0000000000089564
 51
60.000000000011802
  0
LINE
  5
1BA2
  8
SAPA_PROFIL
 10
75.750000071147724
 20
115.27968060221539
 30
0.0
 11
75.750000071147724
 21
114.71920869789869
 31
0.0
  0
ARC
  5
1BA3
  8
SAPA_PROFIL
 10
74.750000071148065
 20
114.71920869789879
 30
0.0
 40
0.9999999999996447
 50
299.99999999998818
 51
359.99999999999102
  0
LINE
  5
1BA4
  8
SAPA_PROFIL
 10
75.250000071147724
 20
113.8531832941146
 30
0.0
 11
73.750000071148406
 21
112.9871578903296
 31
0.0
  0
ARC
  5
1BA5
  8
SAPA_PROFIL
 10
74.250000071148548
 20
112.1211324865443
 30
0.0
 40
1.00000000000083
 50
119.9999999999819
 51
179.99999999998121
  0
LINE
  5
1BA6
  8
SAPA_PROFIL
 10
73.250000071147724
 20
112.1211324865446
 30
0.0
 11
73.250000071147724
 21
110.4994204844417
 31
0.0
  0
LINE
  5
1BA7
  8
SAPA_PROFIL
 10
73.250000071147724
 20
110.4994204844417
 30
0.0
 11
73.360759035026831
 21
110.49942753423259
 31
0.0
  0
ARC
  5
1BA8
  8
SAPA_PROFIL
 10
73.360739940074353
 20
110.7994275336241
 30
0.0
 40
0.2999999999991979
 50
270.00364686729239
 51
299.99999999986369
  0
LINE
  5
1BA9
  8
SAPA_PROFIL
 10
73.510739940073336
 20
110.5396199124891
 30
0.0
 11
75.000000071147724
 21
111.3994446500576
 31
0.0
  0
LINE
  5
1BAA
  8
SAPA_PROFIL
 10
75.000000071147724
 20
111.3994446500576
 30
0.0
 11
75.450000071147542
 21
111.3994446500585
 31
0.0
  0
ARC
  5
1BAB
  8
SAPA_PROFIL
 10
75.450000071147542
 20
111.0994446500583
 30
0.0
 40
0.3000000000001819
 50
0.0
 51
90.0
  0
LINE
  5
1BAC
  8
SAPA_PROFIL
 10
75.750000071147724
 20
111.0994446500583
 30
0.0
 11
75.750000071147497
 21
107.4994326500593
 31
0.0
  0
ARC
  5
1BAD
  8
SAPA_PROFIL
 10
75.450000071146974
 20
107.49943265005879
 30
0.0
 40
0.300000000000523
 50
270.00000000010863
 51
0.0000000001085629
  0
LINE
  5
1BAE
  8
SAPA_PROFIL
 10
75.450000071147542
 20
107.1994326500582
 30
0.0
 11
75.000000071147724
 21
107.19944465005869
 31
0.0
  0
LINE
  5
1BAF
  8
SAPA_PROFIL
 10
75.000000071147724
 20
107.19944465005869
 30
0.0
 11
73.510769586606784
 21
108.0592522711943
 31
0.0
  0
ARC
  5
1BB0
  8
SAPA_PROFIL
 10
73.360769586608001
 20
107.7994446500589
 30
0.0
 40
0.2999999999994582
 50
60.000000000208523
 51
90.000000000206285
  0
LINE
  5
1BB1
  8
SAPA_PROFIL
 10
73.360769586606921
 20
108.0994446500583
 30
0.0
 11
72.774264139859724
 21
108.0994446500592
 31
0.0
  0
ARC
  5
1BB2
  8
SAPA_PROFIL
 10
72.774264139859923
 20
107.7994446500588
 30
0.0
 40
0.3000000000004235
 50
90.000000000037986
 51
135.00000000005559
  0
LINE
  5
1BB3
  8
SAPA_PROFIL
 10
72.562132105503451
 20
108.01157668441491
 30
0.0
 11
71.257082852334406
 21
106.7065274312456
 31
0.0
  0
ARC
  5
1BB4
  8
SAPA_PROFIL
 10
71.964189633521315
 20
105.99942065005909
 30
0.0
 40
1.0000000000001981
 50
135.00000000001779
 51
269.9999999999992
  0
LINE
  5
1BB5
  8
SAPA_PROFIL
 10
71.9641896335213
 20
104.99942065005889
 30
0.0
 11
75.550000071148588
 21
104.9994446500579
 31
0.0
  0
ARC
  5
1BB6
  8
SAPA_PROFIL
 10
75.750000071148065
 20
104.9994446500579
 30
0.0
 40
0.199999999999477
 50
0.0
 51
180.0
  0
LINE
  5
1BB7
  8
SAPA_PROFIL
 10
75.950000071147542
 20
104.9994446500579
 30
0.0
 11
77.250000100697662
 21
104.9994446500579
 31
0.0
  0
ARC
  5
1BB8
  8
SAPA_PROFIL
 10
77.250000100553279
 20
105.999444649914
 30
0.0
 40
0.9999999998560724
 50
270.00000000827248
 51
0.0000000084548812
  0
LINE
  5
1BB9
  8
SAPA_PROFIL
 10
78.250000100409352
 20
105.9994446500616
 30
0.0
 11
78.250000100409352
 21
106.9994446500579
 31
0.0
  0
ARC
  5
1BBA
  8
SAPA_PROFIL
 10
79.250000100409352
 20
106.9994446500579
 30
0.0
 40
1.0
 50
90.0
 51
180.0
  0
LINE
  5
1BBB
  8
SAPA_PROFIL
 10
79.250000100409352
 20
107.9994446500579
 30
0.0
 11
85.362929810370815
 21
107.9994446500579
 31
0.0
  0
ARC
  5
1BBC
  8
SAPA_PROFIL
 10
85.362929810371469
 20
106.99944465005839
 30
0.0
 40
0.9999999999995168
 50
25.00000000030564
 51
90.000000000038284
  0
LINE
  5
1BBD
  8
SAPA_PROFIL
 10
86.269237597405436
 20
107.42206291180381
 30
0.0
 11
88.062300835752012
 21
103.5768263883039
 31
0.0
  0
ARC
  5
1BBE
  8
SAPA_PROFIL
 10
88.968608622786803
 20
103.999444650049
 30
0.0
 40
1.000000000000151
 50
205.0000000002706
 51
270.0000000000033
  0
LINE
  5
1BBF
  8
SAPA_PROFIL
 10
88.968608622786846
 20
102.9994446500488
 30
0.0
 11
92.017354096115241
 21
102.9994446500488
 31
0.0
  0
ARC
  5
1BC0
  8
SAPA_PROFIL
 10
92.017354096114715
 20
103.1994446500495
 30
0.0
 40
0.2000000000006139
 50
270.0000000001466
 51
29.10990894054698
  0
ARC
  5
1BC1
  8
SAPA_PROFIL
 10
95.250000071152584
 20
104.9994446500809
 30
0.0
 40
3.500000000005004
 50
184.91710033603559
 51
209.1099089403769
  0
LINE
  5
1BC2
  8
SAPA_PROFIL
 10
91.762880916317727
 20
104.6994446500496
 30
0.0
 11
90.500000071147724
 21
104.6994446500496
 31
0.0
  0
ARC
  5
1BC3
  8
SAPA_PROFIL
 10
90.500000071147724
 20
105.1994446500496
 30
0.0
 40
0.5
 50
180.0
 51
270.0
  0
LINE
  5
1BC4
  8
SAPA_PROFIL
 10
90.000000071147724
 20
105.1994446500496
 30
0.0
 11
90.000000071147724
 21
107.4994446500579
 31
0.0
  0
ARC
  5
1BC5
  8
SAPA_PROFIL
 10
90.500000071147724
 20
107.4994446500579
 30
0.0
 40
0.5
 50
90.0
 51
180.0
  0
LINE
  5
1BC6
  8
SAPA_PROFIL
 10
90.500000071147724
 20
107.9994446500579
 30
0.0
 11
93.447224433379461
 21
107.9994446500579
 31
0.0
  0
ARC
  5
1BC7
  8
SAPA_PROFIL
 10
95.250000071147724
 20
104.9994446500797
 30
0.0
 40
3.500000000000032
 50
58.997280865433652
 51
121.00271913456631
  0
LINE
  5
1BC8
  8
SAPA_PROFIL
 10
97.052775708915988
 20
107.9994446500579
 30
0.0
 11
103.4472244333794
 21
107.9994446500579
 31
0.0
  0
ARC
  5
1BC9
  8
SAPA_PROFIL
 10
105.2500000711477
 20
104.9994446500797
 30
0.0
 40
3.500000000000032
 50
58.997280865433652
 51
121.00271913456631
  0
LINE
  5
1BCA
  8
SAPA_PROFIL
 10
107.052775708916
 20
107.9994446500579
 30
0.0
 11
110.0000000711477
 21
107.9994446500579
 31
0.0
  0
ARC
  5
1BCB
  8
SAPA_PROFIL
 10
110.0000000711477
 20
107.4994446500579
 30
0.0
 40
0.5
 50
0.0
 51
90.0
  0
LINE
  5
1BCC
  8
SAPA_PROFIL
 10
110.5000000711477
 20
107.4994446500579
 30
0.0
 11
110.5000000711477
 21
105.1994446500496
 31
0.0
  0
ARC
  5
1BCD
  8
SAPA_PROFIL
 10
110.0000000711477
 20
105.1994446500496
 30
0.0
 40
0.5
 50
270.0
 51
0.0
  0
LINE
  5
1BCE
  8
SAPA_PROFIL
 10
110.0000000711477
 20
104.6994446500496
 30
0.0
 11
108.73711922597749
 21
104.69944465004779
 31
0.0
  0
ARC
  5
1BCF
  8
SAPA_PROFIL
 10
105.2500000711464
 20
104.9994446500821
 30
0.0
 40
3.5000000000014988
 50
330.89009105956842
 51
355.08289966390947
  0
ARC
  5
1BD0
  8
SAPA_PROFIL
 10
108.48264604617989
 20
103.1994446500497
 30
0.0
 40
0.2000000000008094
 50
150.89009105955029
 51
269.99999999995123
  0
LINE
  5
1BD1
  8
SAPA_PROFIL
 10
108.4826460461797
 20
102.9994446500488
 30
0.0
 11
111.5313915195086
 21
102.9994446500488
 31
0.0
  0
ARC
  5
1BD2
  8
SAPA_PROFIL
 10
111.53139151950759
 20
103.9994446500489
 30
0.0
 40
1.0000000000000711
 50
270.00000000005701
 51
334.99999999978928
  0
LINE
  5
1BD3
  8
SAPA_PROFIL
 10
112.4376993065427
 20
103.5768263883048
 30
0.0
 11
114.2307625448898
 21
107.4220629118028
 31
0.0
  0
ARC
  5
1BD4
  8
SAPA_PROFIL
 10
115.13707033192451
 20
106.9994446500578
 30
0.0
 40
1.000000000000151
 50
89.999999999996746
 51
154.9999999997294
  0
LINE
  5
1BD5
  8
SAPA_PROFIL
 10
115.1370703319246
 20
107.9994446500579
 30
0.0
 11
131.45000007114751
 21
107.9994446500579
 31
0.0
  0
LINE
  5
1BD6
  8
SAPA_PROFIL
 10
131.45000007114751
 20
107.9994446500579
 30
0.0
 11
131.45000007114751
 21
106.4994446500579
 31
0.0
  0
LINE
  5
1BD7
  8
SAPA_PROFIL
 10
131.45000007114751
 20
106.4994446500579
 30
0.0
 11
132.2500000711477
 21
106.4994446500579
 31
0.0
  0
LINE
  5
1BD8
  8
SAPA_PROFIL
 10
132.2500000711477
 20
106.4994446500579
 30
0.0
 11
132.2500000711477
 21
107.9994446500579
 31
0.0
  0
LINE
  5
1BD9
  8
SAPA_PROFIL
 10
132.2500000711477
 20
107.9994446500579
 30
0.0
 11
133.95000007114751
 21
107.9994446500579
 31
0.0
  0
LINE
  5
1BDA
  8
SAPA_PROFIL
 10
133.95000007114751
 20
107.9994446500579
 30
0.0
 11
134.2500000711477
 21
83.399444650059422
 31
0.0
  0
LINE
  5
1BDB
  8
SAPA_PROFIL
 10
134.2500000711477
 20
83.399444650059422
 30
0.0
 11
132.55000007114739
 21
83.399444650059422
 31
0.0
  0
LINE
  5
1BDC
  8
SAPA_PROFIL
 10
132.55000007114739
 20
83.399444650059422
 30
0.0
 11
132.55000007114739
 21
85.399444650059436
 31
0.0
  0
LINE
  5
1BDD
  8
SAPA_PROFIL
 10
132.55000007114739
 20
85.399444650059436
 30
0.0
 11
131.7500000711477
 21
85.399444650059436
 31
0.0
  0
LINE
  5
1BDE
  8
SAPA_PROFIL
 10
131.7500000711477
 20
85.399444650059436
 30
0.0
 11
131.7500000711477
 21
81.249444650067062
 31
0.0
  0
ARC
  5
1BDF
  8
SAPA_PROFIL
 10
132.2500000711477
 20
81.249444650067062
 30
0.0
 40
0.5
 50
180.0
 51
270.0
  0
LINE
  5
1BE0
  8
SAPA_PROFIL
 10
132.2500000711477
 20
80.749444650067076
 30
0.0
 11
132.75000007112951
 21
80.749444650056134
 31
0.0
  0
LINE
  5
1BE1
  8
SAPA_PROFIL
 10
132.75000007112951
 20
80.749444650056134
 30
0.0
 11
132.75000007115091
 21
81.999444650030696
 31
0.0
  0
LINE
  5
1BE2
  8
SAPA_PROFIL
 10
132.75000007115091
 20
81.999444650030696
 30
0.0
 11
134.1500000711294
 21
81.999444650066138
 31
0.0
  0
ARC
  5
1BE3
  8
SAPA_PROFIL
 10
134.15000007112329
 20
81.699444650079684
 30
0.0
 40
0.2999999999864684
 50
359.99999999738088
 51
89.999999998838376
  0
LINE
  5
1BE4
  8
SAPA_PROFIL
 10
134.4500000711098
 20
81.699444650065971
 30
0.0
 11
134.45000007113731
 21
75.299444650061787
 31
0.0
  0
ARC
  5
1BE5
  8
SAPA_PROFIL
 10
134.1500000711471
 20
75.299444650079138
 30
0.0
 40
0.2999999999902343
 50
269.99999999814349
 51
359.9999999966862
  0
LINE
  5
1BE6
  8
SAPA_PROFIL
 10
134.1500000711373
 20
74.99944465008889
 30
0.0
 11
132.75000007115091
 21
74.999444650096166
 31
0.0
  0
LINE
  5
1BE7
  8
SAPA_PROFIL
 10
132.75000007115091
 20
74.999444650096166
 30
0.0
 11
132.75000007112951
 21
76.2494446500707
 31
0.0
  0
LINE
  5
1BE8
  8
SAPA_PROFIL
 10
132.75000007112951
 20
76.2494446500707
 30
0.0
 11
132.2500000711477
 21
76.249444650057967
 31
0.0
  0
ARC
  5
1BE9
  8
SAPA_PROFIL
 10
132.2500000711477
 20
75.749444650057967
 30
0.0
 40
0.5
 50
90.0
 51
180.0
  0
LINE
  5
1BEA
  8
SAPA_PROFIL
 10
131.7500000711477
 20
75.749444650057967
 30
0.0
 11
131.75000007114721
 21
72.749444650057967
 31
0.0
  0
ARC
  5
1BEB
  8
SAPA_PROFIL
 10
132.25000007114721
 20
72.749444650050691
 30
0.0
 40
0.5
 50
179.99999999916619
 51
270.0
  0
LINE
  5
1BEC
  8
SAPA_PROFIL
 10
132.25000007114721
 20
72.249444650050691
 30
0.0
 11
132.7500000711473
 21
72.249444650050691
 31
0.0
  0
LINE
  5
1BED
  8
SAPA_PROFIL
 10
132.7500000711473
 20
72.249444650050691
 30
0.0
 11
132.75000007114679
 21
73.699444650047781
 31
0.0
  0
LINE
  5
1BEE
  8
SAPA_PROFIL
 10
132.75000007114679
 20
73.699444650047781
 30
0.0
 11
134.6000000711397
 21
73.699444650047781
 31
0.0
  0
ARC
  5
1BEF
  8
SAPA_PROFIL
 10
134.60000007112339
 20
73.399444650061113
 30
0.0
 40
0.2999999999866532
 50
359.9999999968951
 51
89.999999996895099
  0
LINE
  5
1BF0
  8
SAPA_PROFIL
 10
134.90000007110999
 20
73.39944465004487
 30
0.0
 11
134.9000000711392
 21
71.159252271188279
 31
0.0
  0
LINE
  5
1BF1
  8
SAPA_PROFIL
 10
134.9000000711392
 20
71.159252271188279
 30
0.0
 11
134.4500000711443
 21
70.899444650059422
 31
0.0
  0
LINE
  5
1BF2
  8
SAPA_PROFIL
 10
134.4500000711443
 20
70.899444650059422
 30
0.0
 11
134.4500000711443
 21
69.099444650049236
 31
0.0
  0
LINE
  5
1BF3
  8
SAPA_PROFIL
 10
134.4500000711443
 20
69.099444650049236
 30
0.0
 11
134.9000000711392
 21
68.839637028920379
 31
0.0
  0
LINE
  5
1BF4
  8
SAPA_PROFIL
 10
134.9000000711392
 20
68.839637028920379
 30
0.0
 11
134.90000007113889
 21
66.599444650064697
 31
0.0
  0
ARC
  5
1BF5
  8
SAPA_PROFIL
 10
134.60000007115281
 20
66.599444650076151
 30
0.0
 40
0.29999999998617
 50
269.99999999710678
 51
359.99999999781238
  0
LINE
  5
1BF6
  8
SAPA_PROFIL
 10
134.6000000711376
 20
66.299444650089981
 30
0.0
 11
132.75000007114679
 21
66.299444650060863
 31
0.0
  0
LINE
  5
1BF7
  8
SAPA_PROFIL
 10
132.75000007114679
 20
66.299444650060863
 30
0.0
 11
132.7500000711473
 21
67.749444650057967
 31
0.0
  0
LINE
  5
1BF8
  8
SAPA_PROFIL
 10
132.7500000711473
 20
67.749444650057967
 30
0.0
 11
132.25000007114721
 21
67.749444650057967
 31
0.0
  0
ARC
  5
1BF9
  8
SAPA_PROFIL
 10
132.25000007114721
 20
67.249444650057967
 30
0.0
 40
0.5
 50
90.0
 51
180.0
  0
LINE
  5
1BFA
  8
SAPA_PROFIL
 10
131.75000007114721
 20
67.249444650057967
 30
0.0
 11
131.7500000711477
 21
65.499444650057967
 31
0.0
  0
ARC
  5
1BFB
  8
SAPA_PROFIL
 10
132.2500000711477
 20
65.499444650057967
 30
0.0
 40
0.5
 50
180.0
 51
270.0
  0
LINE
  5
1BFC
  8
SAPA_PROFIL
 10
132.2500000711477
 20
64.999444650057967
 30
0.0
 11
134.7500000711477
 21
64.999444650057967
 31
0.0
  0
ARC
  5
1BFD
  8
SAPA_PROFIL
 10
134.7500000711477
 20
66.999444650057967
 30
0.0
 40
2.0
 50
270.0
 51
0.0
  0
LINE
  5
1BFE
  8
SAPA_PROFIL
 10
136.7500000711477
 20
66.999444650057967
 30
0.0
 11
136.7500000711477
 21
124.6994446500541
 31
0.0
  0
ARC
  5
1BFF
  8
SAPA_PROFIL
 10
136.45000007114751
 20
124.6994446500541
 30
0.0
 40
0.3000000000001819
 50
0.0
 51
90.0
  0
LINE
  5
1C00
  8
SAPA_PROFIL
 10
136.45000007114751
 20
124.9994446500543
 30
0.0
 11
75.950000071148679
 21
124.9994446500579
 31
0.0
  0
LINE
  5
1C01
  8
SAPA_PROFIL
 10
21.75000007113454
 20
122.69944465005869
 30
0.0
 11
21.75000007113454
 21
110.4994446500579
 31
0.0
  0
LINE
  5
1C02
  8
SAPA_PROFIL
 10
21.75000007113454
 20
110.4994446500579
 30
0.0
 11
-10.24999992886546
 21
110.4994446500579
 31
0.0
  0
LINE
  5
1C03
  8
SAPA_PROFIL
 10
-10.24999992886546
 20
110.4994446500579
 30
0.0
 11
-10.24999992886546
 21
122.69944465005869
 31
0.0
  0
LINE
  5
1C04
  8
SAPA_PROFIL
 10
-10.24999992886546
 20
122.69944465005869
 30
0.0
 11
21.75000007113454
 21
122.69944465005869
 31
0.0
  0
ARC
  5
1C05
  8
SAPA_PROFIL
 10
24.75000007113454
 20
112.0994446500583
 30
0.0
 40
1.0
 50
180.0
 51
270.0
  0
LINE
  5
1C06
  8
SAPA_PROFIL
 10
23.75000007113454
 20
112.0994446500583
 30
0.0
 11
23.75000007113454
 21
121.0994446500583
 31
0.0
  0
ARC
  5
1C07
  8
SAPA_PROFIL
 10
24.75000007113454
 20
121.0994446500583
 30
0.0
 40
1.0
 50
90.0
 51
180.0
  0
LINE
  5
1C08
  8
SAPA_PROFIL
 10
24.75000007113454
 20
122.0994446500583
 30
0.0
 11
27.250000106536621
 21
122.0994446500583
 31
0.0
  0
LINE
  5
1C09
  8
SAPA_PROFIL
 10
27.250000106536621
 20
122.0994446500583
 30
0.0
 11
27.250000106536621
 21
122.69944465005869
 31
0.0
  0
LINE
  5
1C0A
  8
SAPA_PROFIL
 10
27.250000106536621
 20
122.69944465005869
 30
0.0
 11
44.750000106536611
 21
122.69944465005869
 31
0.0
  0
LINE
  5
1C0B
  8
SAPA_PROFIL
 10
44.750000106536611
 20
122.69944465005869
 30
0.0
 11
44.750000106536611
 21
110.4994446500579
 31
0.0
  0
LINE
  5
1C0C
  8
SAPA_PROFIL
 10
44.750000106536611
 20
110.4994446500579
 30
0.0
 11
27.250000106536621
 21
110.4994446500579
 31
0.0
  0
LINE
  5
1C0D
  8
SAPA_PROFIL
 10
27.250000106536621
 20
110.4994446500579
 30
0.0
 11
27.250000106536621
 21
111.0994446500583
 31
0.0
  0
LINE
  5
1C0E
  8
SAPA_PROFIL
 10
27.250000106536621
 20
111.0994446500583
 30
0.0
 11
24.75000007113454
 21
111.0994446500583
 31
0.0
  0
LINE
  5
1C0F
  8
SAPA_PROFIL
 10
13.50000007114909
 20
104.6994446500496
 30
0.0
 11
14.76288091631954
 21
104.6994446500496
 31
0.0
  0
ARC
  5
1C10
  8
SAPA_PROFIL
 10
18.250000071149781
 20
104.9994446500809
 30
0.0
 40
3.5000000000003921
 50
184.91710033604329
 51
209.10990894042021
  0
ARC
  5
1C11
  8
SAPA_PROFIL
 10
15.01735409611692
 20
103.1994446500496
 30
0.0
 40
0.2000000000007938
 50
270.00000000003922
 51
29.109908940461469
  0
LINE
  5
1C12
  8
SAPA_PROFIL
 10
15.01735409611706
 20
102.9994446500488
 30
0.0
 11
11.968608622788681
 21
102.9994446500488
 31
0.0
  0
ARC
  5
1C13
  8
SAPA_PROFIL
 10
11.96860862278945
 20
103.9994446500493
 30
0.0
 40
1.0000000000004261
 50
205.00000000022359
 51
269.999999999956
  0
LINE
  5
1C14
  8
SAPA_PROFIL
 10
11.06230083575406
 20
103.5768263883048
 30
0.0
 11
9.2692375974067982
 21
107.42206291180381
 31
0.0
  0
ARC
  5
1C15
  8
SAPA_PROFIL
 10
8.3629298103728367
 20
106.99944465005839
 30
0.0
 40
0.999999999999527
 50
25.00000000030612
 51
90.000000000037645
  0
LINE
  5
1C16
  8
SAPA_PROFIL
 10
8.3629298103721794
 20
107.9994446500579
 30
0.0
 11
-7.9499999288507288
 21
107.9994446500579
 31
0.0
  0
LINE
  5
1C17
  8
SAPA_PROFIL
 10
-7.9499999288507288
 20
107.9994446500579
 30
0.0
 11
-7.9499999288507288
 21
106.4994446500579
 31
0.0
  0
LINE
  5
1C18
  8
SAPA_PROFIL
 10
-7.9499999288507288
 20
106.4994446500579
 30
0.0
 11
-8.7499999288504569
 21
106.4994446500579
 31
0.0
  0
LINE
  5
1C19
  8
SAPA_PROFIL
 10
-8.7499999288504569
 20
106.4994446500579
 30
0.0
 11
-8.7499999288504569
 21
107.9994446500579
 31
0.0
  0
LINE
  5
1C1A
  8
SAPA_PROFIL
 10
-8.7499999288504569
 20
107.9994446500579
 30
0.0
 11
-10.44999992885073
 21
107.9994446500579
 31
0.0
  0
LINE
  5
1C1B
  8
SAPA_PROFIL
 10
-10.44999992885073
 20
107.9994446500579
 30
0.0
 11
-10.74999992885045
 21
83.399444650059422
 31
0.0
  0
LINE
  5
1C1C
  8
SAPA_PROFIL
 10
-10.74999992885045
 20
83.399444650059422
 30
0.0
 11
-9.0499999288506388
 21
83.399444650059422
 31
0.0
  0
LINE
  5
1C1D
  8
SAPA_PROFIL
 10
-9.0499999288506388
 20
83.399444650059422
 30
0.0
 11
-9.0499999288506388
 21
85.399444650059436
 31
0.0
  0
LINE
  5
1C1E
  8
SAPA_PROFIL
 10
-9.0499999288506388
 20
85.399444650059436
 30
0.0
 11
-8.2499999288504569
 21
85.399444650059436
 31
0.0
  0
LINE
  5
1C1F
  8
SAPA_PROFIL
 10
-8.2499999288504569
 20
85.399444650059436
 30
0.0
 11
-8.2499999288504569
 21
81.249444650067062
 31
0.0
  0
ARC
  5
1C20
  8
SAPA_PROFIL
 10
-8.7499999288504302
 20
81.249444650067034
 30
0.0
 40
0.4999999999999734
 50
269.99999999999687
 51
0.0000000000032569
  0
LINE
  5
1C21
  8
SAPA_PROFIL
 10
-8.7499999288504569
 20
80.749444650067076
 30
0.0
 11
-9.2499999288327217
 21
80.749444650056134
 31
0.0
  0
LINE
  5
1C22
  8
SAPA_PROFIL
 10
-9.2499999288327217
 20
80.749444650056134
 30
0.0
 11
-9.2499999288540948
 21
81.999444650030696
 31
0.0
  0
LINE
  5
1C23
  8
SAPA_PROFIL
 10
-9.2499999288540948
 20
81.999444650030696
 30
0.0
 11
-10.649999928832811
 21
81.999444650065243
 31
0.0
  0
ARC
  5
1C24
  8
SAPA_PROFIL
 10
-10.649999928826841
 20
81.699444650079556
 30
0.0
 40
0.2999999999856868
 50
90.000000001139554
 51
180.00000000259459
  0
LINE
  5
1C25
  8
SAPA_PROFIL
 10
-10.949999928812529
 20
81.699444650065971
 30
0.0
 11
-10.949999928840271
 21
75.299444650060877
 31
0.0
  0
ARC
  5
1C26
  8
SAPA_PROFIL
 10
-10.64999992885059
 20
75.29944465007857
 30
0.0
 40
0.2999999999896801
 50
180.000000003379
 51
270.00000000191881
  0
LINE
  5
1C27
  8
SAPA_PROFIL
 10
-10.64999992884054
 20
74.99944465008889
 30
0.0
 11
-9.2499999288540948
 21
74.999444650096166
 31
0.0
  0
LINE
  5
1C28
  8
SAPA_PROFIL
 10
-9.2499999288540948
 20
74.999444650096166
 30
0.0
 11
-9.2499999288327217
 21
76.2494446500707
 31
0.0
  0
LINE
  5
1C29
  8
SAPA_PROFIL
 10
-9.2499999288327217
 20
76.2494446500707
 30
0.0
 11
-8.7499999288504569
 21
76.249444650057967
 31
0.0
  0
ARC
  5
1C2A
  8
SAPA_PROFIL
 10
-8.7499999288504604
 20
75.749444650057967
 30
0.0
 40
0.5
 50
0.0
 51
89.999999999999588
  0
LINE
  5
1C2B
  8
SAPA_PROFIL
 10
-8.2499999288504569
 20
75.749444650057967
 30
0.0
 11
-8.2499999288504569
 21
72.749444650057967
 31
0.0
  0
ARC
  5
1C2C
  8
SAPA_PROFIL
 10
-8.7499999288504497
 20
72.749444650050691
 30
0.0
 40
0.4999999999999929
 50
269.9999999999992
 51
0.0000000008337633
  0
LINE
  5
1C2D
  8
SAPA_PROFIL
 10
-8.7499999288504569
 20
72.249444650050691
 30
0.0
 11
-9.2499999288504569
 21
72.249444650050691
 31
0.0
  0
LINE
  5
1C2E
  8
SAPA_PROFIL
 10
-9.2499999288504569
 20
72.249444650050691
 30
0.0
 11
-9.2499999288500021
 21
73.699444650047781
 31
0.0
  0
LINE
  5
1C2F
  8
SAPA_PROFIL
 10
-9.2499999288500021
 20
73.699444650047781
 30
0.0
 11
-11.09999992884263
 21
73.699444650047781
 31
0.0
  0
ARC
  5
1C30
  8
SAPA_PROFIL
 10
-11.099999928826479
 20
73.399444650061014
 30
0.0
 40
0.2999999999867668
 50
90.000000003084509
 51
180.00000000308319
  0
LINE
  5
1C31
  8
SAPA_PROFIL
 10
-11.39999992881326
 20
73.39944465004487
 30
0.0
 11
-11.399999928841909
 21
71.159252271188279
 31
0.0
  0
LINE
  5
1C32
  8
SAPA_PROFIL
 10
-11.399999928841909
 20
71.159252271188279
 30
0.0
 11
-10.949999928847539
 21
70.899444650059422
 31
0.0
  0
LINE
  5
1C33
  8
SAPA_PROFIL
 10
-10.949999928847539
 20
70.899444650059422
 30
0.0
 11
-10.949999928847539
 21
69.099444650049236
 31
0.0
  0
LINE
  5
1C34
  8
SAPA_PROFIL
 10
-10.949999928847539
 20
69.099444650049236
 30
0.0
 11
-11.399999928841909
 21
68.839637028920379
 31
0.0
  0
LINE
  5
1C35
  8
SAPA_PROFIL
 10
-11.399999928841909
 20
68.839637028920379
 30
0.0
 11
-11.399999928841909
 21
66.599444650063788
 31
0.0
  0
ARC
  5
1C36
  8
SAPA_PROFIL
 10
-11.099999928856271
 20
66.599444650075611
 30
0.0
 40
0.2999999999856371
 50
180.0000000022581
 51
270.00000000295148
  0
LINE
  5
1C37
  8
SAPA_PROFIL
 10
-11.099999928840811
 20
66.299444650089981
 30
0.0
 11
-9.2499999288500021
 21
66.299444650060863
 31
0.0
  0
LINE
  5
1C38
  8
SAPA_PROFIL
 10
-9.2499999288500021
 20
66.299444650060863
 30
0.0
 11
-9.2499999288504569
 21
67.749444650057967
 31
0.0
  0
LINE
  5
1C39
  8
SAPA_PROFIL
 10
-9.2499999288504569
 20
67.749444650057967
 30
0.0
 11
-8.7499999288504569
 21
67.749444650057967
 31
0.0
  0
ARC
  5
1C3A
  8
SAPA_PROFIL
 10
-8.7499999288504426
 20
67.249444650057981
 30
0.0
 40
0.4999999999999858
 50
359.99999999999841
 51
90.000000000001606
  0
LINE
  5
1C3B
  8
SAPA_PROFIL
 10
-8.2499999288504569
 20
67.249444650057967
 30
0.0
 11
-8.2499999288504569
 21
65.499444650057967
 31
0.0
  0
ARC
  5
1C3C
  8
SAPA_PROFIL
 10
-8.7499999288504622
 20
65.499444650057967
 30
0.0
 40
0.5000000000000071
 50
270.0000000000008
 51
0.0
  0
LINE
  5
1C3D
  8
SAPA_PROFIL
 10
-8.7499999288504569
 20
64.999444650057967
 30
0.0
 11
-11.24999992885046
 21
64.999444650057967
 31
0.0
  0
ARC
  5
1C3E
  8
SAPA_PROFIL
 10
-11.249999928850549
 20
66.999444650057868
 30
0.0
 40
1.9999999999999001
 50
179.9999999999971
 51
270.00000000000267
  0
LINE
  5
1C3F
  8
SAPA_PROFIL
 10
-13.24999992885045
 20
66.999444650057967
 30
0.0
 11
-13.24999992885091
 21
124.69944465005869
 31
0.0
  0
ARC
  5
1C40
  8
SAPA_PROFIL
 10
-12.94999992884526
 20
124.6994446500486
 30
0.0
 40
0.3000000000056531
 50
90.000000000176399
 51
179.99999999808651
  0
LINE
  5
1C41
  8
SAPA_PROFIL
 10
-12.94999992884618
 20
124.9994446500543
 30
0.0
 11
47.550000071148361
 21
124.9994446500579
 31
0.0
  0
ARC
  5
1C42
  8
SAPA_PROFIL
 10
47.750000071148399
 20
124.99944465005611
 30
0.0
 40
0.2000000000000455
 50
179.99999999947889
 51
359.99999999947892
  0
LINE
  5
1C43
  8
SAPA_PROFIL
 10
47.950000071148452
 20
124.9994446500543
 30
0.0
 11
51.535810508775512
 21
124.99946865005521
 31
0.0
  0
ARC
  5
1C44
  8
SAPA_PROFIL
 10
51.535810508775512
 20
123.99946865005511
 30
0.0
 40
1.000000000000099
 50
315.00000000000398
 51
90.0
  0
LINE
  5
1C45
  8
SAPA_PROFIL
 10
52.242917289962179
 20
123.2923618688685
 30
0.0
 11
50.937868036793361
 21
121.9873126156992
 31
0.0
  0
ARC
  5
1C46
  8
SAPA_PROFIL
 10
50.725736002437991
 20
122.1994446500557
 30
0.0
 40
0.2999999999999692
 50
269.99999999982771
 51
314.9999999998455
  0
LINE
  5
1C47
  8
SAPA_PROFIL
 10
50.725736002437088
 20
121.8994446500557
 30
0.0
 11
50.139230555690339
 21
121.8994446500557
 31
0.0
  0
ARC
  5
1C48
  8
SAPA_PROFIL
 10
50.139230555690851
 20
122.19944465005609
 30
0.0
 40
0.3000000000003382
 50
239.99999999990609
 51
269.99999999990359
  0
LINE
  5
1C49
  8
SAPA_PROFIL
 10
49.989230555690263
 20
121.9396370289207
 30
0.0
 11
48.500000071149088
 21
122.79944465005541
 31
0.0
  0
LINE
  5
1C4A
  8
SAPA_PROFIL
 10
48.500000071149088
 20
122.79944465005541
 30
0.0
 11
48.05000007114927
 21
122.7994566500558
 31
0.0
  0
ARC
  5
1C4B
  8
SAPA_PROFIL
 10
48.050000071149718
 20
122.49945665005519
 30
0.0
 40
0.3000000000006224
 50
90.000000000085493
 51
180.0000000000895
  0
LINE
  5
1C4C
  8
SAPA_PROFIL
 10
47.750000071149088
 20
122.4994566500547
 30
0.0
 11
47.750000071149543
 21
118.8994446500558
 31
0.0
  0
ARC
  5
1C4D
  8
SAPA_PROFIL
 10
48.050000071149952
 20
118.8994446500551
 30
0.0
 40
0.3000000000004093
 50
179.99999999986969
 51
269.99999999986971
  0
LINE
  5
1C4E
  8
SAPA_PROFIL
 10
48.05000007114927
 20
118.59944465005471
 30
0.0
 11
48.500000071149543
 21
118.59944465005471
 31
0.0
  0
LINE
  5
1C4F
  8
SAPA_PROFIL
 10
48.500000071149543
 20
118.59944465005471
 30
0.0
 11
49.989260202223477
 21
119.459269387625
 31
0.0
  0
ARC
  5
1C50
  8
SAPA_PROFIL
 10
50.13926020222101
 20
119.1994617664885
 30
0.0
 40
0.2999999999997226
 50
90.003646866930069
 51
119.9999999994881
  0
LINE
  5
1C51
  8
SAPA_PROFIL
 10
50.139241107270429
 20
119.4994617658806
 30
0.0
 11
50.250000071149088
 21
119.4994688156723
 31
0.0
  0
LINE
  5
1C52
  8
SAPA_PROFIL
 10
50.250000071149088
 20
119.4994688156723
 30
0.0
 11
50.250000071148627
 21
117.8777568135676
 31
0.0
  0
ARC
  5
1C53
  8
SAPA_PROFIL
 10
49.250000071148961
 20
117.8777568135678
 30
0.0
 40
0.999999999999666
 50
299.9999999999888
 51
359.99999999999022
  0
LINE
  5
1C54
  8
SAPA_PROFIL
 10
49.750000071148627
 20
117.01173140978359
 30
0.0
 11
48.250000071149081
 21
116.1457060059995
 31
0.0
  0
ARC
  5
1C55
  8
SAPA_PROFIL
 10
48.750000071148769
 20
115.27968060221519
 30
0.0
 40
0.9999999999996759
 50
119.9999999999895
 51
179.99999999999019
  0
LINE
  5
1C56
  8
SAPA_PROFIL
 10
47.750000071149088
 20
115.27968060221539
 30
0.0
 11
47.750000071149088
 21
114.71920869789869
 31
0.0
  0
ARC
  5
1C57
  8
SAPA_PROFIL
 10
48.750000071148769
 20
114.71920869789879
 30
0.0
 40
0.9999999999996801
 50
180.00000000000969
 51
240.0000000000104
  0
LINE
  5
1C58
  8
SAPA_PROFIL
 10
48.250000071149081
 20
113.8531832941146
 30
0.0
 11
49.750000071148627
 21
112.9871578903287
 31
0.0
  0
ARC
  5
1C59
  8
SAPA_PROFIL
 10
49.250000071149202
 20
112.1211324865441
 30
0.0
 40
0.999999999999884
 50
0.0000000000317547
 51
60.000000000033772
  0
LINE
  5
1C5A
  8
SAPA_PROFIL
 10
50.250000071149088
 20
112.1211324865446
 30
0.0
 11
50.250000071149088
 21
110.4994204844417
 31
0.0
  0
LINE
  5
1C5B
  8
SAPA_PROFIL
 10
50.250000071149088
 20
110.4994204844417
 30
0.0
 11
50.139241107270429
 21
110.4994275342317
 31
0.0
  0
ARC
  5
1C5C
  8
SAPA_PROFIL
 10
50.13926020222442
 20
110.79942753362459
 30
0.0
 40
0.3000000000006333
 50
239.99999999986329
 51
269.99635313242129
  0
LINE
  5
1C5D
  8
SAPA_PROFIL
 10
49.989260202223477
 20
110.5396199124891
 30
0.0
 11
48.500000071149543
 21
111.3994446500576
 31
0.0
  0
LINE
  5
1C5E
  8
SAPA_PROFIL
 10
48.500000071149543
 20
111.3994446500576
 30
0.0
 11
48.05000007114927
 21
111.39944465005939
 31
0.0
  0
ARC
  5
1C5F
  8
SAPA_PROFIL
 10
48.050000071149952
 20
111.099444650059
 30
0.0
 40
0.3000000000004093
 50
90.000000000130271
 51
180.0000000001302
  0
LINE
  5
1C60
  8
SAPA_PROFIL
 10
47.750000071149543
 20
111.0994446500583
 30
0.0
 11
47.750000071149088
 21
107.4994326500593
 31
0.0
  0
ARC
  5
1C61
  8
SAPA_PROFIL
 10
48.050000071149718
 20
107.49943265005891
 30
0.0
 40
0.3000000000006295
 50
179.99999999991039
 51
269.99999999991451
  0
LINE
  5
1C62
  8
SAPA_PROFIL
 10
48.05000007114927
 20
107.1994326500582
 30
0.0
 11
48.500000071149088
 21
107.19944465005869
 31
0.0
  0
LINE
  5
1C63
  8
SAPA_PROFIL
 10
48.500000071149088
 20
107.19944465005869
 30
0.0
 11
49.989230555690263
 21
108.0592522711933
 31
0.0
  0
ARC
  5
1C64
  8
SAPA_PROFIL
 10
50.139230555690851
 20
107.79944465005801
 30
0.0
 40
0.3000000000003395
 50
90.000000000096335
 51
120.00000000009381
  0
LINE
  5
1C65
  8
SAPA_PROFIL
 10
50.139230555690339
 20
108.0994446500583
 30
0.0
 11
50.725736002437088
 21
108.0994446500583
 31
0.0
  0
ARC
  5
1C66
  8
SAPA_PROFIL
 10
50.725736002437991
 20
107.79944465005831
 30
0.0
 40
0.2999999999999687
 50
45.000000000154493
 51
90.000000000172349
  0
LINE
  5
1C67
  8
SAPA_PROFIL
 10
50.937868036793361
 20
108.01157668441491
 30
0.0
 11
52.242917289962179
 21
106.7065274312456
 31
0.0
  0
ARC
  5
1C68
  8
SAPA_PROFIL
 10
51.535810508775512
 20
105.99942065005899
 30
0.0
 40
1.0000000000000979
 50
270.0
 51
44.999999999995971
  0
LINE
  5
1C69
  8
SAPA_PROFIL
 10
51.535810508775512
 20
104.99942065005889
 30
0.0
 11
47.950000071148452
 21
104.9994446500579
 31
0.0
  0
ARC
  5
1C6A
  8
SAPA_PROFIL
 10
47.750000071148847
 20
104.9994446500579
 30
0.0
 40
0.1999999999995907
 50
0.0
 51
180.0
  0
LINE
  5
1C6B
  8
SAPA_PROFIL
 10
47.55000007114927
 20
104.9994446500579
 30
0.0
 11
46.250000041599598
 21
104.9994446500579
 31
0.0
  0
ARC
  5
1C6C
  8
SAPA_PROFIL
 10
46.250000041743633
 20
105.9994446499141
 30
0.0
 40
0.9999999998561577
 50
179.99999999155
 51
269.99999999174833
  0
LINE
  5
1C6D
  8
SAPA_PROFIL
 10
45.250000041887461
 20
105.9994446500616
 30
0.0
 11
45.250000041887461
 21
106.9994446500579
 31
0.0
  0
ARC
  5
1C6E
  8
SAPA_PROFIL
 10
44.250000041887461
 20
106.9994446500579
 30
0.0
 40
1.0
 50
0.0
 51
90.0
  0
LINE
  5
1C6F
  8
SAPA_PROFIL
 10
44.250000041887461
 20
107.9994446500579
 30
0.0
 11
38.137070331926452
 21
107.9994446500579
 31
0.0
  0
ARC
  5
1C70
  8
SAPA_PROFIL
 10
38.137070331925791
 20
106.99944465005839
 30
0.0
 40
0.9999999999995168
 50
89.999999999962142
 51
154.9999999996945
  0
LINE
  5
1C71
  8
SAPA_PROFIL
 10
37.230762544891832
 20
107.42206291180381
 30
0.0
 11
35.43769930654458
 21
103.5768263883048
 31
0.0
  0
ARC
  5
1C72
  8
SAPA_PROFIL
 10
34.531391519509192
 20
103.9994446500493
 30
0.0
 40
1.000000000000427
 50
270.00000000004388
 51
334.99999999977632
  0
LINE
  5
1C73
  8
SAPA_PROFIL
 10
34.531391519509953
 20
102.9994446500488
 30
0.0
 11
31.482646046181571
 21
102.9994446500488
 31
0.0
  0
ARC
  5
1C74
  8
SAPA_PROFIL
 10
31.482646046181699
 20
103.1994446500496
 30
0.0
 40
0.2000000000007844
 50
150.8900910595373
 51
269.99999999996328
  0
ARC
  5
1C75
  8
SAPA_PROFIL
 10
28.250000071148829
 20
104.9994446500809
 30
0.0
 40
3.5000000000004081
 50
330.8900910595799
 51
355.08289966395671
  0
LINE
  5
1C76
  8
SAPA_PROFIL
 10
31.73711922597909
 20
104.6994446500496
 30
0.0
 11
33.000000071149088
 21
104.6994446500496
 31
0.0
  0
ARC
  5
1C77
  8
SAPA_PROFIL
 10
33.000000071149088
 20
105.1994446500496
 30
0.0
 40
0.5
 50
270.0
 51
0.0
  0
LINE
  5
1C78
  8
SAPA_PROFIL
 10
33.500000071149088
 20
105.1994446500496
 30
0.0
 11
33.500000071149088
 21
107.4994446500579
 31
0.0
  0
ARC
  5
1C79
  8
SAPA_PROFIL
 10
33.000000071149088
 20
107.4994446500579
 30
0.0
 40
0.5
 50
0.0
 51
90.0
  0
LINE
  5
1C7A
  8
SAPA_PROFIL
 10
33.000000071149088
 20
107.9994446500579
 30
0.0
 11
30.05277570891781
 21
107.9994446500579
 31
0.0
  0
ARC
  5
1C7B
  8
SAPA_PROFIL
 10
28.250000071149319
 20
104.99944465007989
 30
0.0
 40
3.4999999999999671
 50
58.997280865428657
 51
121.00271913457129
  0
LINE
  5
1C7C
  8
SAPA_PROFIL
 10
26.447224433380821
 20
107.9994446500579
 30
0.0
 11
20.05277570891781
 21
107.9994446500579
 31
0.0
  0
ARC
  5
1C7D
  8
SAPA_PROFIL
 10
18.250000071149309
 20
104.99944465007989
 30
0.0
 40
3.4999999999999671
 50
58.997280865428657
 51
121.00271913457129
  0
LINE
  5
1C7E
  8
SAPA_PROFIL
 10
16.447224433380821
 20
107.9994446500579
 30
0.0
 11
13.50000007114909
 21
107.9994446500579
 31
0.0
  0
ARC
  5
1C7F
  8
SAPA_PROFIL
 10
13.50000007114909
 20
107.4994446500579
 30
0.0
 40
0.5
 50
90.0
 51
180.0
  0
LINE
  5
1C80
  8
SAPA_PROFIL
 10
13.00000007114909
 20
107.4994446500579
 30
0.0
 11
13.00000007114909
 21
105.1994446500496
 31
0.0
  0
ARC
  5
1C81
  8
SAPA_PROFIL
 10
13.50000007114909
 20
105.1994446500496
 30
0.0
 40
0.5
 50
180.0
 51
270.0
  0
ARC
  5
1C82
  8
SAPA_PROFIL
 62
     4
 10
50.125833223888357
 20
119.2494446825622
 30
0.0
 40
0.3000000000003382
 50
90.000000000094985
 51
120.0000000000926
  0
LINE
  5
1C83
  8
SAPA_PROFIL
 62
     4
 10
49.975833223887768
 20
119.50925230369759
 30
0.0
 11
48.48660268304252
 21
118.6494446500558
 31
0.0
  0
LINE
  5
1C84
  8
SAPA_PROFIL
 62
     4
 10
48.48660268304252
 20
118.6494446500558
 30
0.0
 11
48.050000142664203
 21
118.6494446500558
 31
0.0
  0
ARC
  5
1C85
  8
SAPA_PROFIL
 62
     4
 10
48.050000142664203
 20
118.8994446500558
 30
0.0
 40
0.25
 50
180.0
 51
270.0
  0
LINE
  5
1C86
  8
SAPA_PROFIL
 62
     4
 10
47.800000142664203
 20
118.8994446500558
 30
0.0
 11
47.800000142663741
 21
122.4994566500547
 31
0.0
  0
ARC
  5
1C87
  8
SAPA_PROFIL
 62
     4
 10
48.050000142663741
 20
122.4994566500547
 30
0.0
 40
0.2499999999999929
 50
89.999999999998366
 51
180.0
  0
LINE
  5
1C88
  8
SAPA_PROFIL
 62
     4
 10
48.050000142663748
 20
122.7494566500547
 30
0.0
 11
48.486602064242327
 21
122.7494450073202
 31
0.0
  0
LINE
  5
1C89
  8
SAPA_PROFIL
 62
     4
 10
48.486602064242327
 20
122.7494450073202
 30
0.0
 11
49.975833111280053
 21
121.8896370614268
 31
0.0
  0
ARC
  5
1C8A
  8
SAPA_PROFIL
 62
     4
 10
50.12583311128062
 20
122.14944468256211
 30
0.0
 40
0.3000000000002515
 50
239.99999999990271
 51
269.99999999990911
  0
LINE
  5
1C8B
  8
SAPA_PROFIL
 62
     4
 10
50.125833111280151
 20
121.8494446825618
 30
0.0
 11
73.374167102531601
 21
121.8494446825618
 31
0.0
  0
ARC
  5
1C8C
  8
SAPA_PROFIL
 62
     4
 10
73.374167102531118
 20
122.14944468256211
 30
0.0
 40
0.3000000000002529
 50
270.0000000000922
 51
300.00000000009851
  0
LINE
  5
1C8D
  8
SAPA_PROFIL
 62
     4
 10
73.524167102531692
 20
121.8896370614268
 30
0.0
 11
75.013398149569412
 21
122.7494450073202
 31
0.0
  0
LINE
  5
1C8E
  8
SAPA_PROFIL
 62
     4
 10
75.013398149569412
 20
122.7494450073202
 30
0.0
 11
75.450000071147542
 21
122.7494566500547
 31
0.0
  0
ARC
  5
1C8F
  8
SAPA_PROFIL
 62
     4
 10
75.450000071147542
 20
122.4994566500547
 30
0.0
 40
0.25
 50
0.0
 51
90.0
  0
LINE
  5
1C90
  8
SAPA_PROFIL
 62
     4
 10
75.700000071147542
 20
122.4994566500547
 30
0.0
 11
75.700000071147542
 21
118.8994446500558
 31
0.0
  0
ARC
  5
1C91
  8
SAPA_PROFIL
 62
     4
 10
75.450000071147542
 20
118.8994446500558
 30
0.0
 40
0.25
 50
270.0
 51
0.0
  0
LINE
  5
1C92
  8
SAPA_PROFIL
 62
     4
 10
75.450000071147542
 20
118.6494446500558
 30
0.0
 11
75.013397530769225
 21
118.6494446500558
 31
0.0
  0
LINE
  5
1C93
  8
SAPA_PROFIL
 62
     4
 10
75.013397530769225
 20
118.6494446500558
 30
0.0
 11
73.52416698992397
 21
119.50925230369759
 31
0.0
  0
ARC
  5
1C94
  8
SAPA_PROFIL
 62
     4
 10
73.374166989923381
 20
119.2494446825622
 30
0.0
 40
0.300000000000336
 50
59.99999999990731
 51
89.999999999905015
  0
LINE
  5
1C95
  8
SAPA_PROFIL
 62
     4
 10
73.374166989923879
 20
119.54944468256259
 30
0.0
 11
50.125833223887867
 21
119.54944468256259
 31
0.0
  0
DIMENSION
  5
1CB1
  8
SAPA_MATT
  2
*D14
 10
-8.2499998573221127
 20
20.999444650057971
 30
0.0
 11
-10.74999985732916
 21
20.999444650057971
 31
0.0
 70
   128
 13
-13.249999857336199
 23
66.999444650057967
 33
0.0
 14
-8.2499998573221092
 24
65.499444650056148
 34
0.0
1001
ACAD
1000
DSTYLE
1002
{
1070
    40
1040
1.0
1002
}
  0
DIMENSION
  5
1CB2
  8
SAPA_MATT
  2
*D13
 10
-42.749999857356208
 20
59.999444650057519
 30
0.0
 11
-45.249999857356222
 21
62.49944465005774
 31
0.0
 70
     0
 13
-11.249999857335981
 23
64.999444650057967
 33
0.0
 14
-3.699999857852617
 24
59.999444650057512
 34
0.0
 50
270.0
1001
ACAD
1000
DSTYLE
1002
{
1070
   287
1070
     4
1070
    40
1040
1.0
1070
   279
1070
     1
1002
}
  0
DIMENSION
  5
1CB3
  8
SAPA_MATT
  2
*D12
 10
-42.749999785608907
 20
64.999444650057981
 30
0.0
 11
-45.249999785608907
 21
94.999444650057058
 31
0.0
 70
     0
 13
-12.94999985733102
 23
124.99944465005611
 33
0.0
 14
-11.249999857336199
 24
64.999444650057967
 34
0.0
 50
270.0
1001
ACAD
1000
DSTYLE
1002
{
1070
    40
1040
1.0
1002
}
  0
DIMENSION
  5
1CB4
  8
SAPA_MATT
  2
*D11
 10
-54.749999785608907
 20
124.99944465005611
 30
0.0
 11
-57.249999785608928
 21
92.49944465005683
 31
0.0
 70
     0
 13
-3.699999857852617
 23
59.999444650057512
 33
0.0
 14
-12.94999985733102
 24
124.99944465005611
 34
0.0
 50
270.0
1001
ACAD
1000
DSTYLE
1002
{
1070
    40
1040
1.0
1002
}
  0
DIMENSION
  5
1CB5
  8
SAPA_MATT
  2
*D10
 10
54.750000142383222
 20
20.999444650057971
 30
0.0
 11
23.250000142523621
 21
23.499444650057971
 31
0.0
 70
     0
 13
-8.2499998573359772
 23
65.499444650056148
 33
0.0
 14
54.750000142383222
 24
65.667448112057173
 34
0.0
1001
ACAD
1000
DSTYLE
1002
{
1070
   287
1070
     4
1070
    40
1040
1.0
1070
   279
1070
     1
1002
}
  0
DIMENSION
  5
1CB6
  8
SAPA_MATT
  2
*D9
 10
136.7500001426622
 20
20.999444650057971
 30
0.0
 11
100.1077353641858
 21
21.759957798868069
 31
0.0
 70
   128
 13
54.750000142383222
 23
65.667448112057173
 33
0.0
 14
136.7500001426622
 24
66.999444650057967
 34
0.0
1001
ACAD
1000
DSTYLE
1002
{
1070
   287
1070
     4
1070
    40
1040
1.0
1070
   279
1070
     1
1002
}
  0
DIMENSION
  5
1CB7
  8
SAPA_MATT
  2
*D8
 10
-13.24999992885046
 20
8.999444650057967
 30
0.0
 11
61.750000071148641
 21
8.999444650057967
 31
0.0
 70
   128
 13
136.75000007114789
 23
66.999444650057967
 33
0.0
 14
-13.24999992885045
 24
66.999444650057967
 34
0.0
 50
180.0
1001
ACAD
1000
DSTYLE
1002
{
1070
    40
1040
1.0
1002
}
  0
VIEWPORT
  5
C4
 67
     1
  8
0
 10
160.5543545598442
 20
116.00969601843509
 30
0.0
 40
404.96977709277462
 41
256.8421457311839
 68
     1
 69
     1
1001
ACAD
1000
MVIEW
1002
{
1070
    16
1010
0.0
1020
0.0
1030
0.0
1010
0.0
1020
0.0
1030
1.0
1040
0.0
1040
256.8421457311839
1040
160.5543545598442
1040
116.00969601843509
1040
50.0
1040
0.0
1040
0.0
1070
     0
1070
   100
1070
     1
1070
     1
1070
     0
1070
     0
1070
     0
1070
     0
1040
0.0
1040
0.0
1040
0.0
1040
10.0
1040
10.0
1040
10.0
1040
10.0
1070
     0
1002
{
1002
}
1002
}
  0
ENDSEC
  0
EOF
