  0
SECTION
  2
HEADER
  9
$ACADVER
  1
AC1009
  9
$INSBASE
 10
0.0
 20
0.0
 30
0.0
  9
$EXTMIN
 10
-60.249999785608921
 20
7.4994446500581944
 30
-0.2
  9
$EXTMAX
 10
191.75325600592711
 20
140.00000000000071
 30
0.0000000048844772
  9
$LIMMIN
 10
0.0
 20
0.0
  9
$LIMMAX
 10
790.0
 20
790.0
  9
$ORTHOMODE
 70
     0
  9
$REGENMODE
 70
     1
  9
$FILLMODE
 70
     1
  9
$QTEXTMODE
 70
     0
  9
$MIRRTEXT
 70
     1
  9
$DRAGMODE
 70
     2
  9
$LTSCALE
 40
4.0
  9
$OSMODE
 70
   167
  9
$ATTMODE
 70
     1
  9
$TEXTSIZE
 40
3.5
  9
$TRACEWID
 40
0.05
  9
$TEXTSTYLE
  7
ISO
  9
$CLAYER
  8
0
  9
$CELTYPE
  6
BYLAYER
  9
$CECOLOR
 62
   256
  9
$DIMSCALE
 40
0.0
  9
$DIMASZ
 40
3.0
  9
$DIMEXO
 40
1.5
  9
$DIMDLI
 40
10.0
  9
$DIMRND
 40
0.0
  9
$DIMDLE
 40
0.0
  9
$DIMEXE
 40
1.5
  9
$DIMTP
 40
0.0
  9
$DIMTM
 40
0.0
  9
$DIMTXT
 40
3.0
  9
$DIMCEN
 40
-5.0
  9
$DIMTSZ
 40
0.0
  9
$DIMTOL
 70
     0
  9
$DIMLIM
 70
     0
  9
$DIMTIH
 70
     0
  9
$DIMTOH
 70
     0
  9
$DIMSE1
 70
     0
  9
$DIMSE2
 70
     0
  9
$DIMTAD
 70
     1
  9
$DIMZIN
 70
     8
  9
$DIMBLK
  1

  9
$DIMASO
 70
     1
  9
$DIMSHO
 70
     1
  9
$DIMPOST
  1

  9
$DIMAPOST
  1

  9
$DIMALT
 70
     0
  9
$DIMALTD
 70
     0
  9
$DIMALTF
 40
25.399999999999999
  9
$DIMLFAC
 40
-1.0
  9
$DIMTOFL
 70
     1
  9
$DIMTVP
 40
0.0
  9
$DIMTIX
 70
     0
  9
$DIMSOXD
 70
     0
  9
$DIMSAH
 70
     0
  9
$DIMBLK1
  1

  9
$DIMBLK2
  1

  9
$DIMSTYLE
  2
MASKIN
  9
$DIMCLRD
 70
   256
  9
$DIMCLRE
 70
   256
  9
$DIMCLRT
 70
     2
  9
$DIMTFAC
 40
1.0
  9
$DIMGAP
 40
1.0
  9
$LUNITS
 70
     2
  9
$LUPREC
 70
     8
  9
$SKETCHINC
 40
0.1
  9
$FILLETRAD
 40
0.0
  9
$AUNITS
 70
     0
  9
$AUPREC
 70
     8
  9
$MENU
  1
ACAD
  9
$ELEVATION
 40
0.0
  9
$PELEVATION
 40
0.0
  9
$THICKNESS
 40
0.0
  9
$LIMCHECK
 70
     0
  9
$BLIPMODE
 70
     0
  9
$CHAMFERA
 40
0.0
  9
$CHAMFERB
 40
0.0
  9
$SKPOLY
 70
     0
  9
$TDCREATE
 40
2458299.4382186462
  9
$TDUPDATE
 40
2458302.6343334839
  9
$TDINDWG
 40
0.0198912269
  9
$TDUSRTIMER
 40
0.0198909954
  9
$USRTIMER
 70
     1
  9
$ANGBASE
 50
0.0
  9
$ANGDIR
 70
     0
  9
$PDMODE
 70
     0
  9
$PDSIZE
 40
0.0
  9
$PLINEWID
 40
0.0
  9
$COORDS
 70
     1
  9
$SPLFRAME
 70
     0
  9
$SPLINETYPE
 70
     6
  9
$SPLINESEGS
 70
     8
  9
$ATTDIA
 70
     1
  9
$ATTREQ
 70
     1
  9
$HANDLING
 70
     1
  9
$HANDSEED
  5
1901
  9
$SURFTAB1
 70
     6
  9
$SURFTAB2
 70
     6
  9
$SURFTYPE
 70
     6
  9
$SURFU
 70
     6
  9
$SURFV
 70
     6
  9
$UCSNAME
  2

  9
$UCSORG
 10
0.0
 20
0.0
 30
0.0
  9
$UCSXDIR
 10
1.0
 20
0.0
 30
0.0
  9
$UCSYDIR
 10
0.0
 20
1.0
 30
0.0
  9
$PUCSNAME
  2

  9
$PUCSORG
 10
0.0
 20
0.0
 30
0.0
  9
$PUCSXDIR
 10
1.0
 20
0.0
 30
0.0
  9
$PUCSYDIR
 10
0.0
 20
1.0
 30
0.0
  9
$USERI1
 70
     0
  9
$USERI2
 70
     0
  9
$USERI3
 70
     0
  9
$USERI4
 70
     0
  9
$USERI5
 70
     0
  9
$USERR1
 40
0.0
  9
$USERR2
 40
0.0
  9
$USERR3
 40
0.0
  9
$USERR4
 40
0.0
  9
$USERR5
 40
0.0
  9
$WORLDVIEW
 70
     1
  9
$SHADEDGE
 70
     3
  9
$SHADEDIF
 70
    70
  9
$TILEMODE
 70
     1
  9
$MAXACTVP
 70
    32
  9
$PLIMCHECK
 70
     0
  9
$PEXTMIN
 10
1.0000000000000000E+020
 20
1.0000000000000000E+020
 30
1.0000000000000000E+020
  9
$PEXTMAX
 10
-1.0000000000000000E+020
 20
-1.0000000000000000E+020
 30
-1.0000000000000000E+020
  9
$PLIMMIN
 10
-5.069427490234375
 20
-5.8737497329711914
  9
$PLIMMAX
 10
291.89889526367187
 20
204.0995779037475
  9
$UNITMODE
 70
     0
  9
$VISRETAIN
 70
     1
  9
$PLINEGEN
 70
     0
  9
$PSLTSCALE
 70
     1
  0
ENDSEC
  0
SECTION
  2
TABLES
  0
TABLE
  2
VPORT
 70
     1
  0
VPORT
  2
*ACTIVE
 70
     0
 10
0.0
 20
0.0
 11
1.0
 21
1.0
 12
65.739420911511417
 22
142.65007072497369
 13
0.0
 23
0.0
 14
1.0
 24
1.0
 15
0.0
 25
0.0
 16
0.0
 26
0.0
 36
1.0
 17
0.0
 27
0.0
 37
0.0
 40
188.48697957710721
 41
1.7265193370165739
 42
50.0
 43
0.0
 44
0.0
 50
0.0
 51
0.0
 71
     0
 72
   100
 73
     1
 74
     1
 75
     0
 76
     0
 77
     0
 78
     0
  0
ENDTAB
  0
TABLE
  2
LTYPE
 70
     1
  0
LTYPE
  2
CONTINUOUS
 70
     0
  3
Solid line
 72
    65
 73
     0
 40
0.0
  0
ENDTAB
  0
TABLE
  2
LAYER
 70
    23
  0
LAYER
  2
0
 70
     0
 62
     7
  6
CONTINUOUS
  0
LAYER
  2
DEFPOINTS
 70
     0
 62
     7
  6
CONTINUOUS
  0
LAYER
  2
SAPA_ARTIKELNR
 70
     0
 62
     4
  6
CONTINUOUS
  0
LAYER
  2
SAPA_ANSLUTNING
 70
     0
 62
     6
  6
CONTINUOUS
  0
LAYER
  2
SAPA_GLAS
 70
     0
 62
     4
  6
CONTINUOUS
  0
LAYER
  2
SAPA_FOGBAND
 70
     0
 62
     2
  6
CONTINUOUS
  0
LAYER
  2
SAPA_PROFIL
 70
     0
 62
     7
  6
CONTINUOUS
  0
LAYER
  2
SAPA_MATT
 70
     0
 62
     1
  6
CONTINUOUS
  0
ENDTAB
  0
TABLE
  2
STYLE
 70
     2
  0
STYLE
  2
STANDARD
 70
     0
 40
0.0
 41
1.0
 50
0.0
 71
     0
 42
0.2
  3
txt
  4

  0
STYLE
  2
ISO
 70
     0
 40
0.0
 41
1.0
 50
0.0
 71
     0
 42
3.5
  3
txt
  4

  0
ENDTAB
  0
TABLE
  2
VIEW
 70
     0
  0
ENDTAB
  0
TABLE
  2
UCS
 70
     0
  0
ENDTAB
  0
TABLE
  2
APPID
 70
    21
  0
APPID
  2
ACAD
 70
     0
  0
APPID
  2
ACAD_DSTYLE_DIMTEXT_FILL
 70
     0
  0
APPID
  2
ACAD_DSTYLE_DIMEXT_LENGTH
 70
     0
  0
APPID
  2
ACAD_DSTYLE_DIMEXT_ENABLED
 70
     0
  0
APPID
  2
ACAD_DSTYLE_DIM_LINETYPE
 70
     0
  0
APPID
  2
ACAD_DSTYLE_DIM_EXT1_LINETYPE
 70
     0
  0
APPID
  2
ACAD_DSTYLE_DIM_EXT2_LINETYPE
 70
     0
  0
APPID
  2
ACAD_DSTYLE_DIMJOGGED_JOGA
 70
     0
  0
APPID
  2
ACAD_DSTYLE_DIMARC_LENGTH_
 70
     0
  0
APPID
  2
ACAD_PSEXT
 70
     0
  0
APPID
  2
ACAD_MLEADERVER
 70
     0
  0
APPID
  2
ACAD_NAV_VCDISPLAY
 70
     0
  0
APPID
  2
GENIUS_GENODEF_13
 70
     0
  0
APPID
  2
RC_PROFILE
 70
     0
  0
APPID
  2
ACAECLAYERSTANDARD
 70
     0
  0
APPID
  2
GENIUS_GENOBJ-N-FIL_13
 70
     0
  0
APPID
  2
GENIUS_GENREC_14
 70
     0
  0
APPID
  2
GENIUS_GENOBJ-N-REC_13
 70
     0
  0
APPID
  2
ACCMTRANSPARENCY
 70
     0
  0
APPID
  2
GRADIENTCOLOR1ACI
 70
     0
  0
APPID
  2
GRADIENTCOLOR2ACI
 70
     0
  0
ENDTAB
  0
TABLE
  2
DIMSTYLE
 70
     2
  0
DIMSTYLE
  2
STANDARD
 70
     0
  3

  4

  5

  6

  7

 40
1.0
 41
0.18
 42
0.0625
 43
0.38
 44
0.18
 45
0.0
 46
0.0
 47
0.0
 48
0.0
140
0.18
141
0.09
142
0.0
143
25.399999999999999
144
1.0
145
0.0
146
1.0
147
0.09
 71
     0
 72
     0
 73
     1
 74
     1
 75
     0
 76
     0
 77
     0
 78
     0
170
     0
171
     2
172
     0
173
     0
174
     0
175
     0
176
     0
177
     0
178
     0
  0
DIMSTYLE
  2
MASKIN
 70
     0
  3

  4

  5

  6

  7

 40
0.0
 41
3.0
 42
1.5
 43
10.0
 44
1.5
 45
0.0
 46
0.0
 47
0.0
 48
0.0
140
3.0
141
-5.0
142
0.0
143
25.399999999999999
144
-1.0
145
0.0
146
1.0
147
1.0
 71
     0
 72
     0
 73
     0
 74
     0
 75
     0
 76
     0
 77
     1
 78
     8
170
     0
171
     0
172
     1
173
     0
174
     0
175
     0
176
   256
177
   256
178
     2
  0
ENDTAB
  0
ENDSEC
  0
SECTION
  2
BLOCKS
  0
BLOCK
  8
0
  2
$MODEL_SPACE
 70
     0
 10
0.0
 20
0.0
 30
0.0
  3
$MODEL_SPACE
  1

  0
ENDBLK
  5
37
  8
0
  0
BLOCK
 67
     1
  8
0
  2
$PAPER_SPACE
 70
     0
 10
0.0
 20
0.0
 30
0.0
  3
$PAPER_SPACE
  1

  0
ENDBLK
  5
35
 67
     1
  8
0
  0
BLOCK
  8
0
  2
*D8
 70
     1
 10
0.0
 20
0.0
 30
0.0
  3
*D8
  1

  0
LINE
  5
16F6
  8
SAPA_MATT
 10
136.75000007114789
 20
65.499444650058194
 30
0.0
 11
136.75000007114789
 21
7.4994446500581944
 31
0.0
  0
LINE
  5
16F7
  8
SAPA_MATT
 10
-13.24999992885045
 20
65.499444650058194
 30
0.0
 11
-13.24999992885046
 21
7.4994446500581944
 31
0.0
  0
LINE
  5
16F8
  8
SAPA_MATT
 10
133.75000007114789
 20
8.9994446500581944
 30
0.0
 11
-10.24999992885046
 21
8.9994446500581944
 31
0.0
  0
SOLID
  5
16F9
  8
SAPA_MATT
 10
133.75000007114789
 20
9.4994446500581944
 30
0.0
 11
133.75000007114789
 21
8.4994446500581944
 31
0.0
 12
136.75000007114789
 22
8.9994446500581944
 32
0.0
 13
136.75000007114789
 23
8.9994446500581944
 33
0.0
  0
SOLID
  5
16FA
  8
SAPA_MATT
 10
-10.24999992885046
 20
9.4994446500581944
 30
0.0
 11
-10.24999992885046
 21
8.4994446500581944
 31
0.0
 12
-13.24999992885046
 22
8.9994446500581944
 32
0.0
 13
-13.24999992885046
 23
8.9994446500581944
 33
0.0
  0
INSERT
  5
16FB
  8
0
  2
*U20
 10
0.0
 20
0.0
 30
0.0
  0
POINT
  5
16FC
  8
DEFPOINTS
 62
     0
 10
136.75000007114789
 20
66.999444650058194
 30
0.0
  0
POINT
  5
16FD
  8
DEFPOINTS
 62
     0
 10
-13.24999992885045
 20
66.999444650058194
 30
0.0
  0
POINT
  5
16FE
  8
DEFPOINTS
 62
     0
 10
-13.24999992885046
 20
8.9994446500581944
 30
0.0
  0
ENDBLK
  5
1666
  8
0
  0
BLOCK
  8
0
  2
*D9
 70
     1
 10
0.0
 20
0.0
 30
0.0
  3
*D9
  1

  0
LINE
  5
1863
  8
SAPA_MATT
 10
54.750000142383222
 20
64.1674481120574
 30
0.0
 11
54.750000142383222
 21
19.499444650058191
 31
0.0
  0
LINE
  5
1864
  8
SAPA_MATT
 10
136.7500001426622
 20
65.499444650058194
 30
0.0
 11
136.7500001426622
 21
19.499444650058191
 31
0.0
  0
LINE
  5
1865
  8
SAPA_MATT
 10
57.750000142383207
 20
20.999444650058191
 30
0.0
 11
133.7500001426622
 21
20.999444650058191
 31
0.0
  0
TEXT
  8
SAPA_MATT
  40
3
  5
187C
  62
2
  72
0
  71
0
 10
94.1077
 20
18.9500
 30
0.000000
  1
82
  7
ISO
  0
SOLID
  5
1867
  8
SAPA_MATT
 10
57.750000142383207
 20
21.499444650058201
 30
0.0
 11
57.750000142383207
 21
20.499444650058201
 31
0.0
 12
54.750000142383222
 22
20.999444650058191
 32
0.0
 13
54.750000142383222
 23
20.999444650058191
 33
0.0
  0
SOLID
  5
1868
  8
SAPA_MATT
 10
133.7500001426622
 20
21.499444650058201
 30
0.0
 11
133.7500001426622
 21
20.499444650058201
 31
0.0
 12
136.7500001426622
 22
20.999444650058191
 32
0.0
 13
136.7500001426622
 23
20.999444650058191
 33
0.0
  0
POINT
  5
1869
  8
DEFPOINTS
 62
     0
 10
54.750000142383222
 20
65.6674481120574
 30
0.0
  0
POINT
  5
186A
  8
DEFPOINTS
 62
     0
 10
136.7500001426622
 20
66.999444650058194
 30
0.0
  0
POINT
  5
186B
  8
DEFPOINTS
 62
     0
 10
136.7500001426622
 20
20.999444650058191
 30
0.0
  0
ENDBLK
  5
1672
  8
0
  0
BLOCK
  8
0
  2
*D10
 70
     1
 10
0.0
 20
0.0
 30
0.0
  3
*D10
  1

  0
LINE
  5
185A
  8
SAPA_MATT
 10
-8.2499998573359772
 20
63.999444650056382
 30
0.0
 11
-8.2499998573359825
 21
19.499444650058191
 31
0.0
  0
LINE
  5
185B
  8
SAPA_MATT
 10
54.750000142383222
 20
64.1674481120574
 30
0.0
 11
54.750000142383222
 21
19.499444650058191
 31
0.0
  0
LINE
  5
185C
  8
SAPA_MATT
 10
-5.2499998573359816
 20
20.999444650058191
 30
0.0
 11
51.750000142383207
 21
20.999444650058191
 31
0.0
  0
SOLID
  5
185D
  8
SAPA_MATT
 10
-5.2499998573359816
 20
21.499444650058201
 30
0.0
 11
-5.2499998573359816
 21
20.499444650058201
 31
0.0
 12
-8.2499998573359825
 22
20.999444650058191
 32
0.0
 13
-8.2499998573359825
 23
20.999444650058191
 33
0.0
  0
SOLID
  5
185E
  8
SAPA_MATT
 10
51.750000142383207
 20
21.499444650058201
 30
0.0
 11
51.750000142383207
 21
20.499444650058201
 31
0.0
 12
54.750000142383222
 22
20.999444650058191
 32
0.0
 13
54.750000142383222
 23
20.999444650058191
 33
0.0
  0
TEXT
  8
SAPA_MATT
  40
3
  5
187D
  62
2
  72
0
  71
0
 10
17.2500
 20
18.1894
 30
0.000000
  1
63
  7
ISO
  0
POINT
  5
1860
  8
DEFPOINTS
 62
     0
 10
-8.2499998573359772
 20
65.499444650056375
 30
0.0
  0
POINT
  5
1861
  8
DEFPOINTS
 62
     0
 10
54.750000142383222
 20
65.6674481120574
 30
0.0
  0
POINT
  5
1862
  8
DEFPOINTS
 62
     0
 10
54.750000142383222
 20
20.999444650058191
 30
0.0
  0
ENDBLK
  5
167E
  8
0
  0
BLOCK
  8
0
  2
*D11
 70
     1
 10
0.0
 20
0.0
 30
0.0
  3
*D11
  1

  0
LINE
  5
16DB
  8
SAPA_MATT
 10
-5.1999998578526174
 20
59.99944465005774
 30
0.0
 11
-56.249999785608921
 21
59.999444650057747
 31
0.0
  0
LINE
  5
16DC
  8
SAPA_MATT
 10
-14.44999985733102
 20
124.9994446500563
 30
0.0
 11
-56.2499997856089
 21
124.9994446500564
 31
0.0
  0
LINE
  5
16DD
  8
SAPA_MATT
 10
-54.749999785608921
 20
62.999444650057761
 30
0.0
 11
-54.749999785608907
 21
121.9994446500564
 31
0.0
  0
SOLID
  5
16DE
  8
SAPA_MATT
 10
-55.249999785608921
 20
62.999444650057761
 30
0.0
 11
-54.249999785608921
 21
62.999444650057761
 31
0.0
 12
-54.749999785608921
 22
59.999444650057747
 32
0.0
 13
-54.749999785608921
 23
59.999444650057747
 33
0.0
  0
SOLID
  5
16DF
  8
SAPA_MATT
 10
-55.249999785608907
 20
121.9994446500564
 30
0.0
 11
-54.2499997856089
 21
121.9994446500564
 31
0.0
 12
-54.749999785608907
 22
124.9994446500564
 32
0.0
 13
-54.749999785608907
 23
124.9994446500564
 33
0.0
  0
INSERT
  5
16E0
  8
0
  2
*U19
 10
0.0
 20
0.0
 30
0.0
  0
POINT
  5
16E1
  8
DEFPOINTS
 62
     0
 10
-3.699999857852617
 20
59.99944465005774
 30
0.0
  0
POINT
  5
16E2
  8
DEFPOINTS
 62
     0
 10
-12.94999985733102
 20
124.9994446500563
 30
0.0
  0
POINT
  5
16E3
  8
DEFPOINTS
 62
     0
 10
-54.749999785608907
 20
124.9994446500564
 30
0.0
  0
ENDBLK
  5
168A
  8
0
  0
BLOCK
  8
0
  2
*D12
 70
     1
 10
0.0
 20
0.0
 30
0.0
  3
*D12
  1

  0
LINE
  5
16D2
  8
SAPA_MATT
 10
-14.44999985733102
 20
124.9994446500563
 30
0.0
 11
-44.249999785608892
 21
124.9994446500564
 31
0.0
  0
LINE
  5
16D3
  8
SAPA_MATT
 10
-12.749999857336199
 20
64.999444650058194
 30
0.0
 11
-44.2499997856089
 21
64.999444650058209
 31
0.0
  0
LINE
  5
16D4
  8
SAPA_MATT
 10
-42.749999785608892
 20
121.9994446500564
 30
0.0
 11
-42.749999785608907
 21
67.999444650058209
 31
0.0
  0
SOLID
  5
16D5
  8
SAPA_MATT
 10
-43.249999785608892
 20
121.9994446500564
 30
0.0
 11
-42.249999785608892
 21
121.9994446500564
 31
0.0
 12
-42.749999785608892
 22
124.9994446500564
 32
0.0
 13
-42.749999785608892
 23
124.9994446500564
 33
0.0
  0
SOLID
  5
16D6
  8
SAPA_MATT
 10
-43.249999785608907
 20
67.999444650058209
 30
0.0
 11
-42.2499997856089
 21
67.999444650058209
 31
0.0
 12
-42.749999785608907
 22
64.999444650058209
 32
0.0
 13
-42.749999785608907
 23
64.999444650058209
 33
0.0
  0
INSERT
  5
16D7
  8
0
  2
*U18
 10
0.0
 20
0.0
 30
0.0
  0
POINT
  5
16D8
  8
DEFPOINTS
 62
     0
 10
-12.94999985733102
 20
124.9994446500563
 30
0.0
  0
POINT
  5
16D9
  8
DEFPOINTS
 62
     0
 10
-11.249999857336199
 20
64.999444650058194
 30
0.0
  0
POINT
  5
16DA
  8
DEFPOINTS
 62
     0
 10
-42.749999785608907
 20
64.999444650058209
 30
0.0
  0
ENDBLK
  5
1696
  8
0
  0
BLOCK
  8
0
  2
*D13
 70
     1
 10
0.0
 20
0.0
 30
0.0
  3
*D13
  1

  0
LINE
  5
184F
  8
SAPA_MATT
 10
-12.749999857335981
 20
64.999444650058194
 30
0.0
 11
-44.249999857356208
 21
64.999444650058209
 31
0.0
  0
LINE
  5
1850
  8
SAPA_MATT
 10
-5.1999998578526174
 20
59.99944465005774
 30
0.0
 11
-44.249999857356208
 21
59.999444650057747
 31
0.0
  0
LINE
  5
1851
  8
SAPA_MATT
 10
-42.749999857356208
 20
67.999444650058209
 30
0.0
 11
-42.749999857356208
 21
70.999444650058209
 31
0.0
  0
LINE
  5
1852
  8
SAPA_MATT
 10
-42.749999857356208
 20
56.99944465005774
 30
0.0
 11
-42.749999857356208
 21
53.99944465005774
 31
0.0
  0
LINE
  5
1853
  8
SAPA_MATT
 10
-42.749999857356208
 20
64.999444650058209
 30
0.0
 11
-42.749999857356208
 21
59.999444650057747
 31
0.0
  0
SOLID
  5
1854
  8
SAPA_MATT
 10
-43.249999857356222
 20
67.999444650058209
 30
0.0
 11
-42.249999857356208
 21
67.999444650058209
 31
0.0
 12
-42.749999857356208
 22
64.999444650058209
 32
0.0
 13
-42.749999857356208
 23
64.999444650058209
 33
0.0
  0
SOLID
  5
1855
  8
SAPA_MATT
 10
-43.249999857356222
 20
56.99944465005774
 30
0.0
 11
-42.249999857356208
 21
56.99944465005774
 31
0.0
 12
-42.749999857356208
 22
59.999444650057747
 32
0.0
 13
-42.749999857356208
 23
59.999444650057747
 33
0.0
  0
TEXT
  8
SAPA_MATT
  40
3
  5
187E
  62
2
  72
0
  71
0
 10
-51.2500
 20
57.1894
 30
0.000000
  1
5
  7
ISO
  0
POINT
  5
1857
  8
DEFPOINTS
 62
     0
 10
-11.249999857335981
 20
64.999444650058194
 30
0.0
  0
POINT
  5
1858
  8
DEFPOINTS
 62
     0
 10
-3.699999857852617
 20
59.99944465005774
 30
0.0
  0
POINT
  5
1859
  8
DEFPOINTS
 62
     0
 10
-42.749999857356208
 20
59.999444650057747
 30
0.0
  0
ENDBLK
  5
16A2
  8
0
  0
BLOCK
  8
0
  2
*D14
 70
     1
 10
0.0
 20
0.0
 30
0.0
  3
*D14
  1

  0
LINE
  5
16BC
  8
SAPA_MATT
 10
-13.249999857336199
 20
65.499444650058194
 30
0.0
 11
-13.24999985733621
 21
19.499444650058191
 31
0.0
  0
LINE
  5
16BD
  8
SAPA_MATT
 10
-8.2499998573221092
 20
63.999444650056382
 30
0.0
 11
-8.2499998573221127
 21
19.499444650058191
 31
0.0
  0
LINE
  5
16BE
  8
SAPA_MATT
 10
-16.24999985733621
 20
20.999444650058191
 30
0.0
 11
-19.24999985733621
 21
20.999444650058191
 31
0.0
  0
LINE
  5
16BF
  8
SAPA_MATT
 10
-5.2499998573221118
 20
20.999444650058191
 30
0.0
 11
-2.2499998573221118
 21
20.999444650058191
 31
0.0
  0
LINE
  5
16C0
  8
SAPA_MATT
 10
-13.24999985733621
 20
20.999444650058191
 30
0.0
 11
-8.2499998573221127
 21
20.999444650058191
 31
0.0
  0
SOLID
  5
16C1
  8
SAPA_MATT
 10
-16.24999985733621
 20
21.499444650058201
 30
0.0
 11
-16.24999985733621
 21
20.499444650058201
 31
0.0
 12
-13.24999985733621
 22
20.999444650058191
 32
0.0
 13
-13.24999985733621
 23
20.999444650058191
 33
0.0
  0
SOLID
  5
16C2
  8
SAPA_MATT
 10
-5.2499998573221118
 20
21.499444650058201
 30
0.0
 11
-5.2499998573221118
 21
20.499444650058201
 31
0.0
 12
-8.2499998573221127
 22
20.999444650058191
 32
0.0
 13
-8.2499998573221127
 23
20.999444650058191
 33
0.0
  0
INSERT
  5
16C3
  8
0
  2
*U17
 10
0.0
 20
0.0
 30
0.0
  0
POINT
  5
16C4
  8
DEFPOINTS
 62
     0
 10
-13.249999857336199
 20
66.999444650058194
 30
0.0
  0
POINT
  5
16C5
  8
DEFPOINTS
 62
     0
 10
-8.2499998573221092
 20
65.499444650056375
 30
0.0
  0
POINT
  5
16C6
  8
DEFPOINTS
 62
     0
 10
-8.2499998573221127
 20
20.999444650058191
 30
0.0
  0
ENDBLK
  5
16B0
  8
0
  0
BLOCK
  8
0
  2
*X15
 70
     1
 10
0.0
 20
0.0
 30
0.0
  3
*X15
  1

  0
LINE
  5
1759
  8
0
 62
     0
 10
136.79522041322929
 20
76.582373814363251
 30
0.0
 11
136.750000004828
 21
76.537153405961988
 31
0.0
  0
LINE
  5
175A
  8
0
 62
     0
 10
136.98148753969761
 20
75.646108925697874
 30
0.0
 11
136.75000001263339
 21
75.414621398633756
 31
0.0
  0
LINE
  5
175B
  8
0
 62
     0
 10
137.27875232595019
 20
74.820841696816871
 30
0.0
 11
136.7500000204389
 21
74.292089391305566
 31
0.0
  0
LINE
  5
175C
  8
0
 62
     0
 10
137.66916171149481
 20
74.088719067227828
 30
0.0
 11
136.7500000282443
 21
73.169557383977349
 31
0.0
  0
LINE
  5
175D
  8
0
 62
     0
 10
138.14481478816791
 20
73.441840128767225
 30
0.0
 11
136.75000003604981
 21
72.047025376649145
 31
0.0
  0
LINE
  5
175E
  8
0
 62
     0
 10
138.70430369637961
 20
72.878797021845315
 30
0.0
 11
136.75000004385521
 21
70.924493369320956
 31
0.0
  0
LINE
  5
175F
  8
0
 62
     0
 10
139.35217580284981
 20
72.404137113181861
 30
0.0
 11
136.75000005166061
 21
69.801961361992738
 31
0.0
  0
LINE
  5
1760
  8
0
 62
     0
 10
140.10075448227991
 20
72.030183777478413
 30
0.0
 11
136.75000005946609
 21
68.679429354664535
 31
0.0
  0
LINE
  5
1761
  8
0
 62
     0
 10
140.9763857898761
 20
71.783283069940978
 30
0.0
 11
136.75000006727149
 21
67.556897347336331
 31
0.0
  0
LINE
  5
1762
  8
0
 62
     0
 10
142.04073949992451
 20
71.725104764855672
 30
0.0
 11
136.6284357159148
 21
66.312800980846049
 31
0.0
  0
LINE
  5
1763
  8
0
 62
     0
 10
146.74999999926871
 20
76.43436526419994
 30
0.0
 11
146.67363615753499
 21
76.358001422466202
 31
0.0
  0
LINE
  5
1764
  8
0
 62
     0
 10
143.5160866374095
 20
72.077919887207003
 30
0.0
 11
137.1575711326312
 21
65.719404382428749
 31
0.0
  0
LINE
  5
1765
  8
0
 62
     0
 10
146.74999999926879
 20
75.311833249066311
 30
0.0
 11
146.1899901411706
 21
74.751823390968127
 31
0.0
  0
LINE
  5
1766
  8
0
 62
     0
 10
146.74999999926879
 20
74.189301233932653
 30
0.0
 11
138.3919431583171
 21
65.831244392981034
 31
0.0
  0
LINE
  5
1767
  8
0
 62
     0
 10
146.74999999926879
 20
73.06676921879901
 30
0.0
 11
139.56505943750989
 21
65.881828657040131
 31
0.0
  0
LINE
  5
1768
  8
0
 62
     0
 10
146.74999999926879
 20
71.944237203665381
 30
0.0
 11
140.6855271006965
 21
65.879764305093062
 31
0.0
  0
LINE
  5
1769
  8
0
 62
     0
 10
146.74999999926879
 20
70.821705188531723
 30
0.0
 11
141.75985130617329
 21
65.831556495436274
 31
0.0
  0
LINE
  5
176A
  8
0
 62
     0
 10
146.74999999926879
 20
69.699173173398094
 30
0.0
 11
142.79308700155639
 21
65.742260175685715
 31
0.0
  0
LINE
  5
176B
  8
0
 62
     0
 10
146.74999999926879
 20
68.576641158264437
 30
0.0
 11
143.78925042885371
 21
65.615891587849404
 31
0.0
  0
LINE
  5
176C
  8
0
 62
     0
 10
146.74999999926871
 20
67.454109143130793
 30
0.0
 11
144.7515905824462
 21
65.455699726308211
 31
0.0
  0
LINE
  5
176D
  8
0
 62
     0
 10
146.74999999926879
 20
66.33157712799715
 30
0.0
 11
145.6827748454472
 21
65.264351974175611
 31
0.0
  0
LINE
  5
176E
  8
0
 62
     0
 10
146.74999999926879
 20
65.209045112863521
 30
0.0
 11
146.58501980963661
 21
65.044064923231332
 31
0.0
  0
LINE
  5
176F
  8
0
 62
     0
 10
136.4703412882975
 20
65.979431857698984
 30
0.0
 11
136.77707360170939
 21
65.672699544287084
 31
0.0
  0
LINE
  5
1770
  8
0
 62
     0
 10
136.74276971707201
 20
66.829535444058195
 30
0.0
 11
137.7882136885151
 21
65.784091472615046
 31
0.0
  0
LINE
  5
1771
  8
0
 62
     0
 10
136.75000006457401
 20
67.944837111689836
 30
0.0
 11
138.83798918106311
 21
65.856847995200724
 31
0.0
  0
LINE
  5
1772
  8
0
 62
     0
 10
136.75000005676861
 20
69.067369134628905
 30
0.0
 11
139.93080868476409
 21
65.88656050663333
 31
0.0
  0
LINE
  5
1773
  8
0
 62
     0
 10
136.7500000489631
 20
70.189901157568002
 30
0.0
 11
141.07226922784869
 21
65.867631978682425
 31
0.0
  0
LINE
  5
1774
  8
0
 62
     0
 10
136.7500000411577
 20
71.312433180507099
 30
0.0
 11
142.26965153751391
 21
65.79278168415091
 31
0.0
  0
LINE
  5
1775
  8
0
 62
     0
 10
136.75000003335219
 20
72.434965203446183
 30
0.0
 11
143.53272126426361
 21
65.652243972534819
 31
0.0
  0
LINE
  5
1776
  8
0
 62
     0
 10
136.7500000255468
 20
73.557497226385252
 30
0.0
 11
144.87510562995129
 21
65.432391621980727
 31
0.0
  0
LINE
  5
1777
  8
0
 62
     0
 10
136.7500000177414
 20
74.680029249324321
 30
0.0
 11
146.3168513503353
 21
65.113177916730379
 31
0.0
  0
LINE
  5
1778
  8
0
 62
     0
 10
140.71528951161619
 20
71.837271770583129
 30
0.0
 11
146.74999999926871
 21
65.802561282930554
 31
0.0
  0
LINE
  5
1779
  8
0
 62
     0
 10
136.75000000993589
 20
75.802561272263404
 30
0.0
 11
137.01216748122769
 21
75.540393800971586
 31
0.0
  0
LINE
  5
177A
  8
0
 62
     0
 10
141.95478299691439
 20
71.720310300418561
 30
0.0
 11
146.74999999926871
 21
66.92509329806424
 31
0.0
  0
LINE
  5
177B
  8
0
 62
     0
 10
136.75000000213049
 20
76.925093295202501
 30
0.0
 11
136.76437511705001
 21
76.910718180282956
 31
0.0
  0
LINE
  5
177C
  8
0
 62
     0
 10
142.92469794820471
 20
71.872927364261898
 30
0.0
 11
146.74999999926871
 21
68.047625313197869
 31
0.0
  0
LINE
  5
177D
  8
0
 62
     0
 10
143.7401224553837
 20
72.180034872216552
 30
0.0
 11
146.74999999926871
 21
69.170157328331541
 31
0.0
  0
LINE
  5
177E
  8
0
 62
     0
 10
144.4424909673302
 20
72.600198375403707
 30
0.0
 11
146.74999999926879
 21
70.29268934346517
 31
0.0
  0
LINE
  5
177F
  8
0
 62
     0
 10
145.05074311282331
 20
73.114478245044211
 30
0.0
 11
146.74999999926879
 21
71.415221358598785
 31
0.0
  0
LINE
  5
1780
  8
0
 62
     0
 10
145.5733866468785
 20
73.714366726122677
 30
0.0
 11
146.74999999926871
 21
72.537753373732443
 31
0.0
  0
LINE
  5
1781
  8
0
 62
     0
 10
146.01229313222609
 20
74.397992255908733
 30
0.0
 11
146.74999999926871
 21
73.660285388866072
 31
0.0
  0
LINE
  5
1782
  8
0
 62
     0
 10
146.3634157892354
 20
75.169401614033134
 30
0.0
 11
146.74999999926871
 21
74.782817403999744
 31
0.0
  0
LINE
  5
1783
  8
0
 62
     0
 10
146.61518585014281
 20
76.040163568259402
 30
0.0
 11
146.74999999926871
 21
75.905349419133387
 31
0.0
  0
LINE
  5
1784
  8
0
 62
     0
 10
146.74279904953869
 20
77.035082383997064
 30
0.0
 11
146.74999999926879
 21
77.027881434267016
 31
0.0
  0
ENDBLK
  5
1786
  8
0
  0
BLOCK
  8
0
  2
*X16
 70
     1
 10
0.0
 20
0.0
 30
0.0
  3
*X16
  1

  0
LINE
  5
1788
  8
0
 62
     0
 10
140.22810515680061
 20
72.069598354657231
 30
0.0
 11
140.29131346244901
 21
71.960118357813812
 31
0.0
  0
LINE
  5
1789
  8
0
 62
     0
 10
139.0374801568006
 20
74.131821347418921
 30
0.0
 11
139.43435515680059
 21
73.444413683165024
 31
0.0
  0
LINE
  5
178A
  8
0
 62
     0
 10
137.8468551568007
 20
76.194044340180611
 30
0.0
 11
138.24373015680061
 21
75.506636675926714
 31
0.0
  0
LINE
  5
178B
  8
0
 62
     0
 10
136.78797143577521
 20
78.028084744304223
 30
0.0
 11
137.05310515680071
 21
77.568859668688404
 31
0.0
  0
LINE
  5
178C
  8
0
 62
     0
 10
141.41872987230451
 20
72.757005854657223
 30
0.0
 11
141.8156048723045
 21
72.069598190403326
 31
0.0
  0
LINE
  5
178D
  8
0
 62
     0
 10
140.22810487230461
 20
74.819228847418913
 30
0.0
 11
140.62497987230449
 21
74.131821183165016
 31
0.0
  0
LINE
  5
178E
  8
0
 62
     0
 10
139.0374798723046
 20
76.881451840180603
 30
0.0
 11
139.4343548723046
 21
76.194044175926706
 31
0.0
  0
LINE
  5
178F
  8
0
 62
     0
 10
137.84685487230459
 20
78.943674832942293
 30
0.0
 11
138.24372987230461
 21
78.256267168688396
 31
0.0
  0
LINE
  5
1790
  8
0
 62
     0
 10
142.60935458780841
 20
73.444413354657215
 30
0.0
 11
143.00622958780841
 21
72.757005690403304
 31
0.0
  0
LINE
  5
1791
  8
0
 62
     0
 10
141.4187295878084
 20
75.506636347418905
 30
0.0
 11
141.81560458780839
 21
74.819228683165008
 31
0.0
  0
LINE
  5
1792
  8
0
 62
     0
 10
140.22810458780839
 20
77.568859340180595
 30
0.0
 11
140.62497958780841
 21
76.881451675926684
 31
0.0
  0
LINE
  5
1793
  8
0
 62
     0
 10
139.03747958780849
 20
79.631082332942285
 30
0.0
 11
139.43435458780851
 21
78.943674668688388
 31
0.0
  0
LINE
  5
1794
  8
0
 62
     0
 10
138.12616471508599
 20
81.209525994190784
 30
0.0
 11
138.2437295878085
 21
81.005897661450078
 31
0.0
  0
LINE
  5
1795
  8
0
 62
     0
 10
143.79997930331231
 20
74.131820854657235
 30
0.0
 11
144.19685430331231
 21
73.444413190403338
 31
0.0
  0
LINE
  5
1796
  8
0
 62
     0
 10
142.6093543033123
 20
76.194043847418925
 30
0.0
 11
143.0062293033123
 21
75.506636183165028
 31
0.0
  0
LINE
  5
1797
  8
0
 62
     0
 10
141.4187293033124
 20
78.256266840180615
 30
0.0
 11
141.81560430331231
 21
77.568859175926718
 31
0.0
  0
LINE
  5
1798
  8
0
 62
     0
 10
140.22810430331239
 20
80.318489832942305
 30
0.0
 11
140.62497930331239
 21
79.631082168688408
 31
0.0
  0
LINE
  5
1799
  8
0
 62
     0
 10
139.16983206819941
 20
82.151471112397346
 30
0.0
 11
139.4343543033124
 21
81.693305161450084
 31
0.0
  0
LINE
  5
179A
  8
0
 62
     0
 10
144.99060401881621
 20
74.819228354657241
 30
0.0
 11
145.38747901881621
 21
74.131820690403345
 31
0.0
  0
LINE
  5
179B
  8
0
 62
     0
 10
143.7999790188162
 20
76.881451347418931
 30
0.0
 11
144.1968540188162
 21
76.194043683165035
 31
0.0
  0
LINE
  5
179C
  8
0
 62
     0
 10
142.60935401881619
 20
78.943674340180621
 30
0.0
 11
143.00622901881621
 21
78.256266675926724
 31
0.0
  0
LINE
  5
179D
  8
0
 62
     0
 10
141.41872901881621
 20
81.005897332942311
 30
0.0
 11
141.8156040188162
 21
80.318489668688414
 31
0.0
  0
LINE
  5
179E
  8
0
 62
     0
 10
140.41048074424521
 20
82.752234571142978
 30
0.0
 11
140.62497901881619
 21
82.380712661450104
 31
0.0
  0
LINE
  5
179F
  8
0
 62
     0
 10
146.18122873432009
 20
75.506635854657219
 30
0.0
 11
146.3683067456754
 21
75.182607234010931
 31
0.0
  0
LINE
  5
17A0
  8
0
 62
     0
 10
144.9906037343201
 20
77.568858847418895
 30
0.0
 11
145.3874787343201
 21
76.881451183165012
 31
0.0
  0
LINE
  5
17A1
  8
0
 62
     0
 10
143.79997873432009
 20
79.631081840180599
 30
0.0
 11
144.1968537343202
 21
78.943674175926702
 31
0.0
  0
LINE
  5
17A2
  8
0
 62
     0
 10
142.60935373432019
 20
81.693304832942289
 30
0.0
 11
143.00622873432019
 21
81.005897168688392
 31
0.0
  0
LINE
  5
17A3
  8
0
 62
     0
 10
146.18122844982409
 20
78.256266347418915
 30
0.0
 11
146.57810344982411
 21
77.568858683165004
 31
0.0
  0
LINE
  5
17A4
  8
0
 62
     0
 10
144.99060344982411
 20
80.318489340180605
 30
0.0
 11
145.3874784498241
 21
79.631081675926708
 31
0.0
  0
LINE
  5
17A5
  8
0
 62
     0
 10
143.7999784498241
 20
82.380712332942295
 30
0.0
 11
144.19685344982409
 21
81.693304668688398
 31
0.0
  0
LINE
  5
17A6
  8
0
 62
     0
 10
137.05309519943739
 20
77.56888841312059
 30
0.0
 11
136.75628926938029
 21
77.054805462274004
 31
0.0
  0
LINE
  5
17A7
  8
0
 62
     0
 10
138.2437201994374
 20
79.63111140588228
 30
0.0
 11
137.84684519943741
 21
78.943703741628383
 31
0.0
  0
LINE
  5
17A8
  8
0
 62
     0
 10
139.43434519943739
 20
81.69333439864397
 30
0.0
 11
139.03747019943739
 21
81.005926734390087
 31
0.0
  0
LINE
  5
17A9
  8
0
 62
     0
 10
138.24371991494129
 20
76.881480913120612
 30
0.0
 11
137.84684491494141
 21
76.194073248866715
 31
0.0
  0
LINE
  5
17AA
  8
0
 62
     0
 10
139.43434491494131
 20
78.943703905882302
 30
0.0
 11
139.03746991494131
 21
78.256296241628405
 31
0.0
  0
LINE
  5
17AB
  8
0
 62
     0
 10
140.62496991494129
 20
81.005926898643992
 30
0.0
 11
140.22809491494129
 21
80.318519234390095
 31
0.0
  0
LINE
  5
17AC
  8
0
 62
     0
 10
141.7518314188018
 20
82.957708276423759
 30
0.0
 11
141.41871991494131
 21
82.380742227151785
 31
0.0
  0
LINE
  5
17AD
  8
0
 62
     0
 10
138.2437196304453
 20
74.131850420358916
 30
0.0
 11
137.96983913276469
 21
73.657475483174011
 31
0.0
  0
LINE
  5
17AE
  8
0
 62
     0
 10
139.43434463044531
 20
76.194073413120606
 30
0.0
 11
139.03746963044529
 21
75.506665748866709
 31
0.0
  0
LINE
  5
17AF
  8
0
 62
     0
 10
140.62496963044521
 20
78.256296405882296
 30
0.0
 11
140.22809463044521
 21
77.568888741628385
 31
0.0
  0
LINE
  5
17B0
  8
0
 62
     0
 10
141.81559463044519
 20
80.318519398643986
 30
0.0
 11
141.4187196304452
 21
79.631111734390089
 31
0.0
  0
LINE
  5
17B1
  8
0
 62
     0
 10
143.0062196304452
 20
82.380742391405676
 30
0.0
 11
142.60934463044521
 21
81.693334727151779
 31
0.0
  0
LINE
  5
17B2
  8
0
 62
     0
 10
139.4343443459492
 20
73.44444292035891
 30
0.0
 11
139.03746934594921
 21
72.757035256105013
 31
0.0
  0
LINE
  5
17B3
  8
0
 62
     0
 10
140.62496934594921
 20
75.506665913120599
 30
0.0
 11
140.22809434594919
 21
74.819258248866703
 31
0.0
  0
LINE
  5
17B4
  8
0
 62
     0
 10
141.81559434594911
 20
77.568888905882275
 30
0.0
 11
141.4187193459492
 21
76.881481241628393
 31
0.0
  0
LINE
  5
17B5
  8
0
 62
     0
 10
143.00621934594909
 20
79.631111898643979
 30
0.0
 11
142.6093443459491
 21
78.943704234390083
 31
0.0
  0
LINE
  5
17B6
  8
0
 62
     0
 10
144.1968443459491
 20
81.693334891405684
 30
0.0
 11
143.79996934594911
 21
81.005927227151773
 31
0.0
  0
LINE
  5
17B7
  8
0
 62
     0
 10
140.6249690614531
 20
72.757035420358903
 30
0.0
 11
140.22809406145311
 21
72.069627756105021
 31
0.0
  0
LINE
  5
17B8
  8
0
 62
     0
 10
141.815594061453
 20
74.819258413120608
 30
0.0
 11
141.41871906145309
 21
74.131850748866711
 31
0.0
  0
LINE
  5
17B9
  8
0
 62
     0
 10
143.00621906145301
 20
76.881481405882283
 30
0.0
 11
142.60934406145299
 21
76.194073741628401
 31
0.0
  0
LINE
  5
17BA
  8
0
 62
     0
 10
144.19684406145299
 20
78.943704398643987
 30
0.0
 11
143.799969061453
 21
78.256296734390091
 31
0.0
  0
LINE
  5
17BB
  8
0
 62
     0
 10
145.387469061453
 20
81.005927391405677
 30
0.0
 11
144.99059406145301
 21
80.318519727151795
 31
0.0
  0
LINE
  5
17BC
  8
0
 62
     0
 10
141.815593776957
 20
72.069627920358883
 30
0.0
 11
141.61242087531369
 21
71.71772213199155
 31
0.0
  0
LINE
  5
17BD
  8
0
 62
     0
 10
143.00621877695701
 20
74.131850913120573
 30
0.0
 11
142.60934377695699
 21
73.444443248866676
 31
0.0
  0
LINE
  5
17BE
  8
0
 62
     0
 10
144.19684377695691
 20
76.194073905882263
 30
0.0
 11
143.79996877695689
 21
75.506666241628366
 31
0.0
  0
LINE
  5
17BF
  8
0
 62
     0
 10
145.38746877695689
 20
78.256296898643953
 30
0.0
 11
144.9905937769569
 21
77.568889234390056
 31
0.0
  0
LINE
  5
17C0
  8
0
 62
     0
 10
146.25899468985941
 20
79.765824059903906
 30
0.0
 11
146.18121877695691
 21
79.631112227151746
 31
0.0
  0
LINE
  5
17C1
  8
0
 62
     0
 10
144.19684349246091
 20
73.444443413120595
 30
0.0
 11
143.79996849246089
 21
72.757035748866684
 31
0.0
  0
LINE
  5
17C2
  8
0
 62
     0
 10
145.38746849246081
 20
75.506666405882285
 30
0.0
 11
144.9905934924609
 21
74.819258741628389
 31
0.0
  0
LINE
  5
17C3
  8
0
 62
     0
 10
146.57809349246079
 20
77.568889398643975
 30
0.0
 11
146.1812184924608
 21
76.881481734390078
 31
0.0
  0
LINE
  5
17C4
  8
0
 62
     0
 10
143.0062500715276
 20
72.757029999980219
 30
0.0
 11
143.80000007152759
 21
72.757029999980219
 31
0.0
  0
LINE
  5
17C5
  8
0
 62
     0
 10
140.62500007152761
 20
72.757029999980219
 30
0.0
 11
141.4187500715276
 21
72.757029999980219
 31
0.0
  0
LINE
  5
17C6
  8
0
 62
     0
 10
138.85076881892761
 20
72.757029999980219
 30
0.0
 11
139.0375000715276
 21
72.757029999980219
 31
0.0
  0
LINE
  5
17C7
  8
0
 62
     0
 10
145.3875000715276
 20
74.131844999980217
 30
0.0
 11
145.8577275365966
 21
74.131844999980217
 31
0.0
  0
LINE
  5
17C8
  8
0
 62
     0
 10
143.0062500715276
 20
74.131844999980217
 30
0.0
 11
143.80000007152759
 21
74.131844999980217
 31
0.0
  0
LINE
  5
17C9
  8
0
 62
     0
 10
140.62500007152761
 20
74.131844999980217
 30
0.0
 11
141.4187500715276
 21
74.131844999980217
 31
0.0
  0
LINE
  5
17CA
  8
0
 62
     0
 10
138.24375007152759
 20
74.131844999980217
 30
0.0
 11
139.0375000715276
 21
74.131844999980217
 31
0.0
  0
LINE
  5
17CB
  8
0
 62
     0
 10
145.3875000715276
 20
75.506659999980229
 30
0.0
 11
146.18125007152759
 21
75.506659999980229
 31
0.0
  0
LINE
  5
17CC
  8
0
 62
     0
 10
143.0062500715276
 20
75.506659999980229
 30
0.0
 11
143.80000007152759
 21
75.506659999980229
 31
0.0
  0
LINE
  5
17CD
  8
0
 62
     0
 10
140.62500007152761
 20
75.506659999980229
 30
0.0
 11
141.4187500715276
 21
75.506659999980229
 31
0.0
  0
LINE
  5
17CE
  8
0
 62
     0
 10
138.24375007152759
 20
75.506659999980229
 30
0.0
 11
139.0375000715276
 21
75.506659999980229
 31
0.0
  0
LINE
  5
17CF
  8
0
 62
     0
 10
145.3875000715276
 20
76.881474999980213
 30
0.0
 11
146.18125007152759
 21
76.881474999980213
 31
0.0
  0
LINE
  5
17D0
  8
0
 62
     0
 10
143.0062500715276
 20
76.881474999980213
 30
0.0
 11
143.80000007152759
 21
76.881474999980213
 31
0.0
  0
LINE
  5
17D1
  8
0
 62
     0
 10
140.62500007152761
 20
76.881474999980213
 30
0.0
 11
141.4187500715276
 21
76.881474999980213
 31
0.0
  0
LINE
  5
17D2
  8
0
 62
     0
 10
138.24375007152759
 20
76.881474999980213
 30
0.0
 11
139.0375000715276
 21
76.881474999980213
 31
0.0
  0
LINE
  5
17D3
  8
0
 62
     0
 10
145.3875000715276
 20
78.256289999980226
 30
0.0
 11
146.18125007152759
 21
78.256289999980226
 31
0.0
  0
LINE
  5
17D4
  8
0
 62
     0
 10
143.0062500715276
 20
78.256289999980226
 30
0.0
 11
143.80000007152759
 21
78.256289999980226
 31
0.0
  0
LINE
  5
17D5
  8
0
 62
     0
 10
140.62500007152761
 20
78.256289999980226
 30
0.0
 11
141.4187500715276
 21
78.256289999980226
 31
0.0
  0
LINE
  5
17D6
  8
0
 62
     0
 10
138.24375007152759
 20
78.256289999980226
 30
0.0
 11
139.0375000715276
 21
78.256289999980226
 31
0.0
  0
LINE
  5
17D7
  8
0
 62
     0
 10
145.3875000715276
 20
79.631104999980224
 30
0.0
 11
146.18125007152759
 21
79.631104999980224
 31
0.0
  0
LINE
  5
17D8
  8
0
 62
     0
 10
143.0062500715276
 20
79.631104999980224
 30
0.0
 11
143.80000007152759
 21
79.631104999980224
 31
0.0
  0
LINE
  5
17D9
  8
0
 62
     0
 10
140.62500007152761
 20
79.631104999980224
 30
0.0
 11
141.4187500715276
 21
79.631104999980224
 31
0.0
  0
LINE
  5
17DA
  8
0
 62
     0
 10
138.24375007152759
 20
79.631104999980224
 30
0.0
 11
139.0375000715276
 21
79.631104999980224
 31
0.0
  0
LINE
  5
17DB
  8
0
 62
     0
 10
145.3875000715276
 20
81.005919999980208
 30
0.0
 11
145.53777225327161
 21
81.005919999980208
 31
0.0
  0
LINE
  5
17DC
  8
0
 62
     0
 10
143.0062500715276
 20
81.005919999980208
 30
0.0
 11
143.80000007152759
 21
81.005919999980208
 31
0.0
  0
LINE
  5
17DD
  8
0
 62
     0
 10
140.62500007152761
 20
81.005919999980208
 30
0.0
 11
141.4187500715276
 21
81.005919999980208
 31
0.0
  0
LINE
  5
17DE
  8
0
 62
     0
 10
138.24375007152759
 20
81.005919999980208
 30
0.0
 11
139.0375000715276
 21
81.005919999980208
 31
0.0
  0
LINE
  5
17DF
  8
0
 62
     0
 10
143.0062500715276
 20
82.380734999980206
 30
0.0
 11
143.80000007152759
 21
82.380734999980206
 31
0.0
  0
LINE
  5
17E0
  8
0
 62
     0
 10
140.62500007152761
 20
82.380734999980206
 30
0.0
 11
141.4187500715276
 21
82.380734999980206
 31
0.0
  0
ENDBLK
  5
17E2
  8
0
  0
BLOCK
  8
0
  2
*U17
 70
     1
 10
0.0
 20
0.0
 30
0.0
  3
*U17
  1

  0
TEXT
  5
186D
  8
SAPA_MATT
 62
     2
 10
-11.79999985732916
 20
21.999444650058191
 30
0.0
 40
3.0
  1
5
  7
ISO
  0
ENDBLK
  5
186F
  8
0
  0
BLOCK
  8
0
  2
*U18
 70
     1
 10
0.0
 20
0.0
 30
0.0
  3
*U18
  1

  0
TEXT
  5
1871
  8
SAPA_MATT
 62
     2
 10
-43.749999785608907
 20
92.899444650057305
 30
0.0
 40
3.0
  1
60
 50
90.0
  7
ISO
  0
ENDBLK
  5
1873
  8
0
  0
BLOCK
  8
0
  2
*U19
 70
     1
 10
0.0
 20
0.0
 30
0.0
  3
*U19
  1

  0
TEXT
  5
1875
  8
SAPA_MATT
 62
     2
 10
-55.749999785608921
 20
90.399444650057063
 30
0.0
 40
3.0
  1
65
 50
90.0
  7
ISO
  0
ENDBLK
  5
1877
  8
0
  0
BLOCK
  8
0
  2
*U20
 70
     1
 10
0.0
 20
0.0
 30
0.0
  3
*U20
  1

  0
TEXT
  5
1879
  8
SAPA_MATT
 62
     2
 10
58.900000071148632
 20
9.9994446500581944
 30
0.0
 40
3.0
  1
150
  7
ISO
  0
ENDBLK
  5
187B
  8
0
  0
ENDSEC
  0
SECTION
  2
ENTITIES
  0
LINE
  5
11A3
  8
SAPA_FOGBAND
 10
133.1495675395974
 20
70.088045158835939
 30
0.0
 11
129.55099068174621
 21
70.088045158832301
 31
0.0
  0
LINE
  5
11A4
  8
SAPA_FOGBAND
 10
129.55099068174621
 20
70.088045158832301
 30
0.0
 11
129.55099068174621
 21
69.938045158834484
 31
0.0
  0
LINE
  5
11A5
  8
SAPA_FOGBAND
 10
129.55099068174621
 20
69.938045158834484
 30
0.0
 11
133.1495675395974
 21
69.938045158834484
 31
0.0
  0
LINE
  5
11AB
  8
SAPA_FOGBAND
 10
-9.6495673972997338
 20
70.088045158835939
 30
0.0
 11
-4.6533640691234259
 21
70.088045158833211
 31
0.0
  0
LINE
  5
11AC
  8
SAPA_FOGBAND
 10
-4.6533640691234259
 20
69.938045158834484
 30
0.0
 11
-9.6495673972997338
 21
69.938045158834484
 31
0.0
  0
LINE
  5
11B1
  8
SAPA_FOGBAND
 10
-9.6495673972997338
 20
78.588045158840487
 30
0.0
 11
-5.0750405436454002
 21
78.588045158836849
 31
0.0
  0
LINE
  5
11B2
  8
SAPA_FOGBAND
 10
-5.0750405436454002
 20
78.438045158839032
 30
0.0
 11
-9.6495673972997338
 21
78.438045158839032
 31
0.0
  0
LINE
  5
11B6
  8
SAPA_FOGBAND
 10
56.149567538933979
 20
70.088045158835939
 30
0.0
 11
51.250898448405451
 21
70.088045158833211
 31
0.0
  0
LINE
  5
11B7
  8
SAPA_FOGBAND
 10
51.250898448405451
 20
69.938045158834484
 30
0.0
 11
56.149567538933979
 21
69.938045158834484
 31
0.0
  0
LINE
  5
11BB
  8
SAPA_FOGBAND
 10
56.149567538933979
 20
78.588045158840487
 30
0.0
 11
51.685747565730018
 21
78.588045158836849
 31
0.0
  0
LINE
  5
11BC
  8
SAPA_FOGBAND
 10
51.685747565730018
 20
78.438045158839032
 30
0.0
 11
56.149567538933979
 21
78.438045158839032
 31
0.0
  0
LINE
  5
11C0
  8
SAPA_GLAS
 10
50.000000070999249
 20
60.199444650058688
 30
0.0
 11
49.250000070986061
 21
60.199444650058688
 31
0.0
  0
LINE
  5
11C1
  8
SAPA_GLAS
 10
49.250000070986061
 20
72.999444650069563
 30
0.0
 11
50.000000070985152
 21
72.999444650070473
 31
0.0
  0
LINE
  5
11C3
  8
SAPA_GLAS
 10
-3.4999999293654578
 20
60.199444650058688
 30
0.0
 11
-2.7499999293522701
 21
60.199444650058688
 31
0.0
  0
LINE
  5
11C4
  8
SAPA_GLAS
 10
-2.7499999293522701
 20
72.999444650069563
 30
0.0
 11
-3.4999999293513611
 21
72.999444650070473
 31
0.0
  0
TEXT
  5
11C9
  8
SAPA_ARTIKELNR
 10
-14.9045493630839
 20
89.437483755359835
 30
0.0000000048844772
 40
3.5
  1
D9K025
 50
90.0
  7
ISO
  0
TEXT
  5
11CA
  8
SAPA_ARTIKELNR
 10
59.909985453607987
 20
45.748386641550951
 30
0.0000000048844772
 40
3.5
  1
D9V005
 50
90.0
  7
ISO
  0
INSERT
  5
11CE
  8
SAPA_ANSLUTNING
  6
CONTINUOUS
  2
*X15
 10
0.0
 20
0.0
 30
0.0
1001
ACAD
1000
HATCH
1002
{
1070
    19
1000
ANSI37
1040
0.25
1040
0.0
1000
R14_HATCH_DATA
1000
11CE
1011
1.0
1021
0.0
1031
0.0
1021
0.0
1031
0.0
1011
0.0
1021
0.0
1031
0.0
1021
1.0
1031
0.0
1011
0.0
1021
0.0
1031
0.0
1021
0.0
1031
1.0
1040
0.0
1010
0.0
1020
0.0
1030
1.0
1000
ANSI37
1070
     0
1070
     0
1071
        1
1071
        1
1071
        6
1070
     3
1040
141.74999999926871
1040
77.336651236671059
1040
0.0
1040
5.6210574168242138
1040
0.8895123513655372
1040
1.5707963267948959
1040
2.144309431217978
1070
     1
1070
     3
1040
141.74999999926871
1040
77.336651236671059
1040
0.0
1040
5.6210574168242138
1040
0.8895123513655372
1040
2.144309431217978
1040
4.7123889803846888
1070
     1
1070
     1
1040
146.74999999926871
1040
77.336651236670363
1040
146.74999999926871
1040
64.999999999995225
1070
     2
1040
140.0782584233047
1040
40.35170788012033
1040
25.535278343560961
1040
1.3064530021775029
1040
1.7246828695821601
1070
     1
1070
     2
1040
134.75000007114789
1040
66.999444650057967
1040
1.9999999999999349
1040
5.4977871437820971
1040
6.283185307179699
1070
     1
1070
     1
1040
136.7500000711477
1040
66.999444650058194
1040
136.74999999926879
1040
77.336651236670832
1071
        0
1070
     0
1070
     1
1040
0.0
1040
0.25
1070
     0
1070
     2
1040
5.4977871437821371
1040
-2.249999928472334
1040
124.9999999999802
1040
-0.5612660075668221
1040
-0.5612660075668221
1070
     0
1040
3.926990816987241
1040
-2.249999928472334
1040
124.9999999999802
1040
-0.5612660075668221
1040
0.5612660075668221
1070
     0
1071
        1
1040
140.74867641851711
1040
68.579635287054316
1040
0.0
1002
}
  0
LINE
  5
11CF
  8
SAPA_ANSLUTNING
 10
-13.24999992848598
 20
140.00000000000071
 30
0.0
 11
146.74999999926871
 21
140.00000000000071
 31
0.0
  0
LINE
  5
11D0
  8
SAPA_ANSLUTNING
 10
146.74999999926871
 20
64.999999999995225
 30
0.0
 11
191.75325600592711
 21
64.999999999995225
 31
0.0
  0
LINE
  5
11D1
  8
SAPA_ANSLUTNING
 10
146.74999999926871
 20
140.00000000000071
 30
0.0
 11
146.74999999926871
 21
64.999999999995225
 31
0.0
  0
INSERT
  5
11D2
  8
SAPA_ANSLUTNING
  6
CONTINUOUS
  2
*X16
 10
0.0
 20
0.0
 30
0.0
1001
ACAD
1000
HATCH
1002
{
1070
    19
1000
HEX
1040
0.25
1040
0.0
1000
ASC_BOUNDS
1070
     1
1070
     1
1070
     1
1005
11D3
1000
ASC_SEEDPOINT
1011
141.99211000934329
1021
0.0
1031
0.0
1021
77.218313547614343
1031
0.0
1000
R14_HATCH_DATA
1000
11D2
1011
1.0
1021
0.0
1031
0.0
1021
0.0
1031
0.0
1011
0.0
1021
0.0
1031
0.0
1021
1.0
1031
0.0
1011
0.0
1021
0.0
1031
0.0
1021
0.0
1031
1.0
1040
0.0
1010
0.0
1020
0.0
1030
1.0
1000
HEX
1070
     0
1070
     1
1071
        1
1071
        5
1071
        1
1070
     3
1040
141.74999999926871
1040
77.336651236671059
1040
0.0
1040
5.6210574168242138
1040
0.8895123513655372
1040
0.0
1040
6.2831853071795862
1070
     0
1071
        1
1005
11D3
1070
     0
1070
     1
1040
0.0
1040
0.25
1070
     0
1070
     3
1040
0.0
1040
-2.249999928472334
1040
124.9999999999802
1040
0.0
1040
-1.374814999999999
1070
     2
1040
0.79375
1040
-1.587499999999999
1040
4.1887902047863914
1040
-2.249999928472334
1040
124.9999999999802
1040
-1.190624715503902
1040
0.6874074999999996
1070
     2
1040
0.7937499999999993
1040
-1.5874999999999979
1040
5.2359877559829879
1040
-1.4562499284725161
1040
124.9999999999802
1040
-1.190624715503902
1040
-0.6874075000000001
1070
     2
1040
0.79375
1040
-1.587499999999999
1040
0.0591690278051155
1071
        1
1040
141.99211000934329
1040
77.218313547614343
1040
0.0
1002
}
  0
POLYLINE
  5
11D3
  8
SAPA_ANSLUTNING
 10
141.74999999926871
 20
82.957708653495274
 30
0.0
 66
     1
 70
     8
  0
VERTEX
  8
SAPA_ANSLUTNING
  5
187F
 10
141.750
 20
82.9577
 30
0.000000
  70
    32
  0
VERTEX
  8
SAPA_ANSLUTNING
  5
1880
 10
141.995
 20
82.9509
 30
0.000000
  70
    32
  0
VERTEX
  8
SAPA_ANSLUTNING
  5
1881
 10
142.240
 20
82.9306
 30
0.000000
  70
    32
  0
VERTEX
  8
SAPA_ANSLUTNING
  5
1882
 10
142.484
 20
82.8969
 30
0.000000
  70
    32
  0
VERTEX
  8
SAPA_ANSLUTNING
  5
1883
 10
142.725
 20
82.8497
 30
0.000000
  70
    32
  0
VERTEX
  8
SAPA_ANSLUTNING
  5
1884
 10
142.965
 20
82.7893
 30
0.000000
  70
    32
  0
VERTEX
  8
SAPA_ANSLUTNING
  5
1885
 10
143.201
 20
82.7157
 30
0.000000
  70
    32
  0
VERTEX
  8
SAPA_ANSLUTNING
  5
1886
 10
143.434
 20
82.6291
 30
0.000000
  70
    32
  0
VERTEX
  8
SAPA_ANSLUTNING
  5
1887
 10
143.663
 20
82.5298
 30
0.000000
  70
    32
  0
VERTEX
  8
SAPA_ANSLUTNING
  5
1888
 10
143.888
 20
82.4180
 30
0.000000
  70
    32
  0
VERTEX
  8
SAPA_ANSLUTNING
  5
1889
 10
144.107
 20
82.2940
 30
0.000000
  70
    32
  0
VERTEX
  8
SAPA_ANSLUTNING
  5
188A
 10
144.321
 20
82.1580
 30
0.000000
  70
    32
  0
VERTEX
  8
SAPA_ANSLUTNING
  5
188B
 10
144.528
 20
82.0104
 30
0.000000
  70
    32
  0
VERTEX
  8
SAPA_ANSLUTNING
  5
188C
 10
144.728
 20
81.8515
 30
0.000000
  70
    32
  0
VERTEX
  8
SAPA_ANSLUTNING
  5
188D
 10
144.922
 20
81.6818
 30
0.000000
  70
    32
  0
VERTEX
  8
SAPA_ANSLUTNING
  5
188E
 10
145.108
 20
81.5016
 30
0.000000
  70
    32
  0
VERTEX
  8
SAPA_ANSLUTNING
  5
188F
 10
145.286
 20
81.3113
 30
0.000000
  70
    32
  0
VERTEX
  8
SAPA_ANSLUTNING
  5
1890
 10
145.455
 20
81.1115
 30
0.000000
  70
    32
  0
VERTEX
  8
SAPA_ANSLUTNING
  5
1891
 10
145.615
 20
80.9026
 30
0.000000
  70
    32
  0
VERTEX
  8
SAPA_ANSLUTNING
  5
1892
 10
145.766
 20
80.6851
 30
0.000000
  70
    32
  0
VERTEX
  8
SAPA_ANSLUTNING
  5
1893
 10
145.907
 20
80.4595
 30
0.000000
  70
    32
  0
VERTEX
  8
SAPA_ANSLUTNING
  5
1894
 10
146.039
 20
80.2265
 30
0.000000
  70
    32
  0
VERTEX
  8
SAPA_ANSLUTNING
  5
1895
 10
146.160
 20
79.9864
 30
0.000000
  70
    32
  0
VERTEX
  8
SAPA_ANSLUTNING
  5
1896
 10
146.270
 20
79.7400
 30
0.000000
  70
    32
  0
VERTEX
  8
SAPA_ANSLUTNING
  5
1897
 10
146.369
 20
79.4877
 30
0.000000
  70
    32
  0
VERTEX
  8
SAPA_ANSLUTNING
  5
1898
 10
146.458
 20
79.2303
 30
0.000000
  70
    32
  0
VERTEX
  8
SAPA_ANSLUTNING
  5
1899
 10
146.535
 20
78.9684
 30
0.000000
  70
    32
  0
VERTEX
  8
SAPA_ANSLUTNING
  5
189A
 10
146.600
 20
78.7025
 30
0.000000
  70
    32
  0
VERTEX
  8
SAPA_ANSLUTNING
  5
189B
 10
146.654
 20
78.4333
 30
0.000000
  70
    32
  0
VERTEX
  8
SAPA_ANSLUTNING
  5
189C
 10
146.696
 20
78.1614
 30
0.000000
  70
    32
  0
VERTEX
  8
SAPA_ANSLUTNING
  5
189D
 10
146.726
 20
77.8876
 30
0.000000
  70
    32
  0
VERTEX
  8
SAPA_ANSLUTNING
  5
189E
 10
146.744
 20
77.6125
 30
0.000000
  70
    32
  0
VERTEX
  8
SAPA_ANSLUTNING
  5
189F
 10
146.750
 20
77.3367
 30
0.000000
  70
    32
  0
VERTEX
  8
SAPA_ANSLUTNING
  5
18A0
 10
146.744
 20
77.0608
 30
0.000000
  70
    32
  0
VERTEX
  8
SAPA_ANSLUTNING
  5
18A1
 10
146.726
 20
76.7857
 30
0.000000
  70
    32
  0
VERTEX
  8
SAPA_ANSLUTNING
  5
18A2
 10
146.696
 20
76.5119
 30
0.000000
  70
    32
  0
VERTEX
  8
SAPA_ANSLUTNING
  5
18A3
 10
146.654
 20
76.2400
 30
0.000000
  70
    32
  0
VERTEX
  8
SAPA_ANSLUTNING
  5
18A4
 10
146.600
 20
75.9708
 30
0.000000
  70
    32
  0
VERTEX
  8
SAPA_ANSLUTNING
  5
18A5
 10
146.535
 20
75.7049
 30
0.000000
  70
    32
  0
VERTEX
  8
SAPA_ANSLUTNING
  5
18A6
 10
146.458
 20
75.4430
 30
0.000000
  70
    32
  0
VERTEX
  8
SAPA_ANSLUTNING
  5
18A7
 10
146.369
 20
75.1856
 30
0.000000
  70
    32
  0
VERTEX
  8
SAPA_ANSLUTNING
  5
18A8
 10
146.270
 20
74.9333
 30
0.000000
  70
    32
  0
VERTEX
  8
SAPA_ANSLUTNING
  5
18A9
 10
146.160
 20
74.6869
 30
0.000000
  70
    32
  0
VERTEX
  8
SAPA_ANSLUTNING
  5
18AA
 10
146.039
 20
74.4469
 30
0.000000
  70
    32
  0
VERTEX
  8
SAPA_ANSLUTNING
  5
18AB
 10
145.907
 20
74.2138
 30
0.000000
  70
    32
  0
VERTEX
  8
SAPA_ANSLUTNING
  5
18AC
 10
145.766
 20
73.9882
 30
0.000000
  70
    32
  0
VERTEX
  8
SAPA_ANSLUTNING
  5
18AD
 10
145.615
 20
73.7707
 30
0.000000
  70
    32
  0
VERTEX
  8
SAPA_ANSLUTNING
  5
18AE
 10
145.455
 20
73.5618
 30
0.000000
  70
    32
  0
VERTEX
  8
SAPA_ANSLUTNING
  5
18AF
 10
145.286
 20
73.3620
 30
0.000000
  70
    32
  0
VERTEX
  8
SAPA_ANSLUTNING
  5
18B0
 10
145.108
 20
73.1717
 30
0.000000
  70
    32
  0
VERTEX
  8
SAPA_ANSLUTNING
  5
18B1
 10
144.922
 20
72.9915
 30
0.000000
  70
    32
  0
VERTEX
  8
SAPA_ANSLUTNING
  5
18B2
 10
144.728
 20
72.8218
 30
0.000000
  70
    32
  0
VERTEX
  8
SAPA_ANSLUTNING
  5
18B3
 10
144.528
 20
72.6629
 30
0.000000
  70
    32
  0
VERTEX
  8
SAPA_ANSLUTNING
  5
18B4
 10
144.321
 20
72.5153
 30
0.000000
  70
    32
  0
VERTEX
  8
SAPA_ANSLUTNING
  5
18B5
 10
144.107
 20
72.3793
 30
0.000000
  70
    32
  0
VERTEX
  8
SAPA_ANSLUTNING
  5
18B6
 10
143.888
 20
72.2553
 30
0.000000
  70
    32
  0
VERTEX
  8
SAPA_ANSLUTNING
  5
18B7
 10
143.663
 20
72.1435
 30
0.000000
  70
    32
  0
VERTEX
  8
SAPA_ANSLUTNING
  5
18B8
 10
143.434
 20
72.0442
 30
0.000000
  70
    32
  0
VERTEX
  8
SAPA_ANSLUTNING
  5
18B9
 10
143.201
 20
71.9576
 30
0.000000
  70
    32
  0
VERTEX
  8
SAPA_ANSLUTNING
  5
18BA
 10
142.965
 20
71.8840
 30
0.000000
  70
    32
  0
VERTEX
  8
SAPA_ANSLUTNING
  5
18BB
 10
142.725
 20
71.8236
 30
0.000000
  70
    32
  0
VERTEX
  8
SAPA_ANSLUTNING
  5
18BC
 10
142.484
 20
71.7764
 30
0.000000
  70
    32
  0
VERTEX
  8
SAPA_ANSLUTNING
  5
18BD
 10
142.240
 20
71.7427
 30
0.000000
  70
    32
  0
VERTEX
  8
SAPA_ANSLUTNING
  5
18BE
 10
141.995
 20
71.7224
 30
0.000000
  70
    32
  0
VERTEX
  8
SAPA_ANSLUTNING
  5
18BF
 10
141.750
 20
71.7156
 30
0.000000
  70
    32
  0
VERTEX
  8
SAPA_ANSLUTNING
  5
18C0
 10
141.505
 20
71.7224
 30
0.000000
  70
    32
  0
VERTEX
  8
SAPA_ANSLUTNING
  5
18C1
 10
141.260
 20
71.7427
 30
0.000000
  70
    32
  0
VERTEX
  8
SAPA_ANSLUTNING
  5
18C2
 10
141.016
 20
71.7764
 30
0.000000
  70
    32
  0
VERTEX
  8
SAPA_ANSLUTNING
  5
18C3
 10
140.775
 20
71.8236
 30
0.000000
  70
    32
  0
VERTEX
  8
SAPA_ANSLUTNING
  5
18C4
 10
140.535
 20
71.8840
 30
0.000000
  70
    32
  0
VERTEX
  8
SAPA_ANSLUTNING
  5
18C5
 10
140.299
 20
71.9576
 30
0.000000
  70
    32
  0
VERTEX
  8
SAPA_ANSLUTNING
  5
18C6
 10
140.066
 20
72.0442
 30
0.000000
  70
    32
  0
VERTEX
  8
SAPA_ANSLUTNING
  5
18C7
 10
139.837
 20
72.1435
 30
0.000000
  70
    32
  0
VERTEX
  8
SAPA_ANSLUTNING
  5
18C8
 10
139.612
 20
72.2553
 30
0.000000
  70
    32
  0
VERTEX
  8
SAPA_ANSLUTNING
  5
18C9
 10
139.393
 20
72.3793
 30
0.000000
  70
    32
  0
VERTEX
  8
SAPA_ANSLUTNING
  5
18CA
 10
139.179
 20
72.5153
 30
0.000000
  70
    32
  0
VERTEX
  8
SAPA_ANSLUTNING
  5
18CB
 10
138.972
 20
72.6629
 30
0.000000
  70
    32
  0
VERTEX
  8
SAPA_ANSLUTNING
  5
18CC
 10
138.772
 20
72.8218
 30
0.000000
  70
    32
  0
VERTEX
  8
SAPA_ANSLUTNING
  5
18CD
 10
138.578
 20
72.9915
 30
0.000000
  70
    32
  0
VERTEX
  8
SAPA_ANSLUTNING
  5
18CE
 10
138.392
 20
73.1717
 30
0.000000
  70
    32
  0
VERTEX
  8
SAPA_ANSLUTNING
  5
18CF
 10
138.214
 20
73.3620
 30
0.000000
  70
    32
  0
VERTEX
  8
SAPA_ANSLUTNING
  5
18D0
 10
138.045
 20
73.5618
 30
0.000000
  70
    32
  0
VERTEX
  8
SAPA_ANSLUTNING
  5
18D1
 10
137.885
 20
73.7707
 30
0.000000
  70
    32
  0
VERTEX
  8
SAPA_ANSLUTNING
  5
18D2
 10
137.734
 20
73.9882
 30
0.000000
  70
    32
  0
VERTEX
  8
SAPA_ANSLUTNING
  5
18D3
 10
137.593
 20
74.2138
 30
0.000000
  70
    32
  0
VERTEX
  8
SAPA_ANSLUTNING
  5
18D4
 10
137.461
 20
74.4469
 30
0.000000
  70
    32
  0
VERTEX
  8
SAPA_ANSLUTNING
  5
18D5
 10
137.340
 20
74.6869
 30
0.000000
  70
    32
  0
VERTEX
  8
SAPA_ANSLUTNING
  5
18D6
 10
137.230
 20
74.9333
 30
0.000000
  70
    32
  0
VERTEX
  8
SAPA_ANSLUTNING
  5
18D7
 10
137.131
 20
75.1856
 30
0.000000
  70
    32
  0
VERTEX
  8
SAPA_ANSLUTNING
  5
18D8
 10
137.042
 20
75.4430
 30
0.000000
  70
    32
  0
VERTEX
  8
SAPA_ANSLUTNING
  5
18D9
 10
136.965
 20
75.7049
 30
0.000000
  70
    32
  0
VERTEX
  8
SAPA_ANSLUTNING
  5
18DA
 10
136.900
 20
75.9708
 30
0.000000
  70
    32
  0
VERTEX
  8
SAPA_ANSLUTNING
  5
18DB
 10
136.846
 20
76.2400
 30
0.000000
  70
    32
  0
VERTEX
  8
SAPA_ANSLUTNING
  5
18DC
 10
136.804
 20
76.5119
 30
0.000000
  70
    32
  0
VERTEX
  8
SAPA_ANSLUTNING
  5
18DD
 10
136.774
 20
76.7857
 30
0.000000
  70
    32
  0
VERTEX
  8
SAPA_ANSLUTNING
  5
18DE
 10
136.756
 20
77.0608
 30
0.000000
  70
    32
  0
VERTEX
  8
SAPA_ANSLUTNING
  5
18DF
 10
136.750
 20
77.3367
 30
0.000000
  70
    32
  0
VERTEX
  8
SAPA_ANSLUTNING
  5
18E0
 10
136.756
 20
77.6125
 30
0.000000
  70
    32
  0
VERTEX
  8
SAPA_ANSLUTNING
  5
18E1
 10
136.774
 20
77.8876
 30
0.000000
  70
    32
  0
VERTEX
  8
SAPA_ANSLUTNING
  5
18E2
 10
136.804
 20
78.1614
 30
0.000000
  70
    32
  0
VERTEX
  8
SAPA_ANSLUTNING
  5
18E3
 10
136.846
 20
78.4333
 30
0.000000
  70
    32
  0
VERTEX
  8
SAPA_ANSLUTNING
  5
18E4
 10
136.900
 20
78.7025
 30
0.000000
  70
    32
  0
VERTEX
  8
SAPA_ANSLUTNING
  5
18E5
 10
136.965
 20
78.9684
 30
0.000000
  70
    32
  0
VERTEX
  8
SAPA_ANSLUTNING
  5
18E6
 10
137.042
 20
79.2303
 30
0.000000
  70
    32
  0
VERTEX
  8
SAPA_ANSLUTNING
  5
18E7
 10
137.131
 20
79.4877
 30
0.000000
  70
    32
  0
VERTEX
  8
SAPA_ANSLUTNING
  5
18E8
 10
137.230
 20
79.7400
 30
0.000000
  70
    32
  0
VERTEX
  8
SAPA_ANSLUTNING
  5
18E9
 10
137.340
 20
79.9864
 30
0.000000
  70
    32
  0
VERTEX
  8
SAPA_ANSLUTNING
  5
18EA
 10
137.461
 20
80.2265
 30
0.000000
  70
    32
  0
VERTEX
  8
SAPA_ANSLUTNING
  5
18EB
 10
137.593
 20
80.4595
 30
0.000000
  70
    32
  0
VERTEX
  8
SAPA_ANSLUTNING
  5
18EC
 10
137.734
 20
80.6851
 30
0.000000
  70
    32
  0
VERTEX
  8
SAPA_ANSLUTNING
  5
18ED
 10
137.885
 20
80.9026
 30
0.000000
  70
    32
  0
VERTEX
  8
SAPA_ANSLUTNING
  5
18EE
 10
138.045
 20
81.1115
 30
0.000000
  70
    32
  0
VERTEX
  8
SAPA_ANSLUTNING
  5
18EF
 10
138.214
 20
81.3113
 30
0.000000
  70
    32
  0
VERTEX
  8
SAPA_ANSLUTNING
  5
18F0
 10
138.392
 20
81.5016
 30
0.000000
  70
    32
  0
VERTEX
  8
SAPA_ANSLUTNING
  5
18F1
 10
138.578
 20
81.6818
 30
0.000000
  70
    32
  0
VERTEX
  8
SAPA_ANSLUTNING
  5
18F2
 10
138.772
 20
81.8515
 30
0.000000
  70
    32
  0
VERTEX
  8
SAPA_ANSLUTNING
  5
18F3
 10
138.972
 20
82.0104
 30
0.000000
  70
    32
  0
VERTEX
  8
SAPA_ANSLUTNING
  5
18F4
 10
139.179
 20
82.1580
 30
0.000000
  70
    32
  0
VERTEX
  8
SAPA_ANSLUTNING
  5
18F5
 10
139.393
 20
82.2940
 30
0.000000
  70
    32
  0
VERTEX
  8
SAPA_ANSLUTNING
  5
18F6
 10
139.612
 20
82.4180
 30
0.000000
  70
    32
  0
VERTEX
  8
SAPA_ANSLUTNING
  5
18F7
 10
139.837
 20
82.5298
 30
0.000000
  70
    32
  0
VERTEX
  8
SAPA_ANSLUTNING
  5
18F8
 10
140.066
 20
82.6291
 30
0.000000
  70
    32
  0
VERTEX
  8
SAPA_ANSLUTNING
  5
18F9
 10
140.299
 20
82.7157
 30
0.000000
  70
    32
  0
VERTEX
  8
SAPA_ANSLUTNING
  5
18FA
 10
140.535
 20
82.7893
 30
0.000000
  70
    32
  0
VERTEX
  8
SAPA_ANSLUTNING
  5
18FB
 10
140.775
 20
82.8497
 30
0.000000
  70
    32
  0
VERTEX
  8
SAPA_ANSLUTNING
  5
18FC
 10
141.016
 20
82.8969
 30
0.000000
  70
    32
  0
VERTEX
  8
SAPA_ANSLUTNING
  5
18FD
 10
141.260
 20
82.9306
 30
0.000000
  70
    32
  0
VERTEX
  8
SAPA_ANSLUTNING
  5
18FE
 10
141.505
 20
82.9509
 30
0.000000
  70
    32
  0
VERTEX
  8
SAPA_ANSLUTNING
  5
18FF
 10
141.750
 20
82.9577
 30
0.000000
  70
    32
  0
SEQEND
  8
SAPA_ANSLUTNING
  5
1900
  0
POLYLINE
  5
11D4
  8
SAPA_ANSLUTNING
 66
     1
 10
0.0
 20
0.0
 30
0.0
  0
VERTEX
  5
17E3
  8
SAPA_ANSLUTNING
 10
138.25107154260959
 20
81.35206959054176
 30
0.0
 42
-0.8812634091771133
  0
VERTEX
  5
17E4
  8
SAPA_ANSLUTNING
 10
138.74999999926871
 20
85.288837618762045
 30
0.0
  0
VERTEX
  5
17E5
  8
SAPA_ANSLUTNING
 10
144.74999999926871
 20
85.288837618762045
 30
0.0
 42
0.9999999999999998
  0
VERTEX
  5
17E6
  8
SAPA_ANSLUTNING
 10
144.74999999926871
 20
89.288837618762045
 30
0.0
  0
VERTEX
  5
17E7
  8
SAPA_ANSLUTNING
 10
138.74999999926871
 20
89.288837618762045
 30
0.0
 42
-0.9999999999999998
  0
VERTEX
  5
17E8
  8
SAPA_ANSLUTNING
 10
138.74999999926871
 20
93.288837618762045
 30
0.0
  0
VERTEX
  5
17E9
  8
SAPA_ANSLUTNING
 10
144.74999999926871
 20
93.288837618762045
 30
0.0
 42
0.9999999999999998
  0
VERTEX
  5
17EA
  8
SAPA_ANSLUTNING
 10
144.74999999926871
 20
97.288837618762045
 30
0.0
  0
VERTEX
  5
17EB
  8
SAPA_ANSLUTNING
 10
138.74999999926871
 20
97.288837618762045
 30
0.0
 42
-0.9999999999999998
  0
VERTEX
  5
17EC
  8
SAPA_ANSLUTNING
 10
138.74999999926871
 20
101.288837618762
 30
0.0
  0
VERTEX
  5
17ED
  8
SAPA_ANSLUTNING
 10
144.74999999926871
 20
101.288837618762
 30
0.0
 42
0.9999999999999998
  0
VERTEX
  5
17EE
  8
SAPA_ANSLUTNING
 10
144.74999999926871
 20
105.288837618762
 30
0.0
  0
VERTEX
  5
17EF
  8
SAPA_ANSLUTNING
 10
138.74999999926871
 20
105.288837618762
 30
0.0
 42
-0.9999999999999998
  0
VERTEX
  5
17F0
  8
SAPA_ANSLUTNING
 10
138.74999999926871
 20
109.288837618762
 30
0.0
  0
VERTEX
  5
17F1
  8
SAPA_ANSLUTNING
 10
144.74999999926871
 20
109.288837618762
 30
0.0
 42
0.9999999999999998
  0
VERTEX
  5
17F2
  8
SAPA_ANSLUTNING
 10
144.74999999926871
 20
113.288837618762
 30
0.0
  0
VERTEX
  5
17F3
  8
SAPA_ANSLUTNING
 10
138.74999999926871
 20
113.288837618762
 30
0.0
 42
-0.9999999999999998
  0
VERTEX
  5
17F4
  8
SAPA_ANSLUTNING
 10
138.74999999926871
 20
117.288837618762
 30
0.0
  0
VERTEX
  5
17F5
  8
SAPA_ANSLUTNING
 10
144.74999999926871
 20
117.288837618762
 30
0.0
 42
0.9999999999999998
  0
VERTEX
  5
17F6
  8
SAPA_ANSLUTNING
 10
144.74999999926871
 20
121.288837618762
 30
0.0
  0
VERTEX
  5
17F7
  8
SAPA_ANSLUTNING
 10
138.74999999926871
 20
121.288837618762
 30
0.0
 42
-0.9999999999999998
  0
VERTEX
  5
17F8
  8
SAPA_ANSLUTNING
 10
138.74999999926871
 20
125.288837618762
 30
0.0
  0
VERTEX
  5
17F9
  8
SAPA_ANSLUTNING
 10
144.74999999926871
 20
125.288837618762
 30
0.0
 42
0.9999999999999998
  0
VERTEX
  5
17FA
  8
SAPA_ANSLUTNING
 10
144.74999999926871
 20
129.28883761876199
 30
0.0
  0
VERTEX
  5
17FB
  8
SAPA_ANSLUTNING
 10
138.74999999926871
 20
129.28883761876199
 30
0.0
 42
-0.9999999999999998
  0
VERTEX
  5
17FC
  8
SAPA_ANSLUTNING
 10
138.74999999926871
 20
133.28883761876199
 30
0.0
  0
VERTEX
  5
17FD
  8
SAPA_ANSLUTNING
 10
144.74999999926871
 20
133.28883761876199
 30
0.0
 42
0.9999999999999998
  0
VERTEX
  5
17FE
  8
SAPA_ANSLUTNING
 10
144.74999999926871
 20
137.28883761876199
 30
0.0
  0
VERTEX
  5
17FF
  8
SAPA_ANSLUTNING
 10
138.74999999926871
 20
137.28883761876199
 30
0.0
 42
-0.5251735434384823
  0
VERTEX
  5
1800
  8
SAPA_ANSLUTNING
 10
136.88070920661221
 20
140.00000000000071
 30
0.0
 42
-0.5251735434384823
  0
SEQEND
  5
1801
  8
SAPA_ANSLUTNING
  0
LINE
  5
11D5
  8
SAPA_ANSLUTNING
 10
-13.24999992848598
 20
64.999999999995225
 30
0.0
 11
-57.869466405531853
 21
64.999999999995225
 31
0.0
  0
LINE
  5
11D6
  8
SAPA_ANSLUTNING
 10
-13.24999992848598
 20
64.999999999995225
 30
0.0
 11
-13.24999992848598
 21
140.00000000000071
 31
0.0
  0
POLYLINE
  5
11D7
  8
SAPA_ANSLUTNING
 66
     1
 10
0.0
 20
0.0
 30
0.0
  0
VERTEX
  5
1802
  8
SAPA_ANSLUTNING
 10
-12.8132319002658
 20
137.9999999999952
 30
0.0
  0
VERTEX
  5
1803
  8
SAPA_ANSLUTNING
 10
-12.8132319002658
 20
126.9999999999952
 30
0.0
 42
0.9999999999999998
  0
VERTEX
  5
1804
  8
SAPA_ANSLUTNING
 10
-8.8132319002658051
 20
126.9999999999952
 30
0.0
  0
VERTEX
  5
1805
  8
SAPA_ANSLUTNING
 10
-8.8132319002658051
 20
137.9999999999952
 30
0.0
 42
-0.9999999999999998
  0
VERTEX
  5
1806
  8
SAPA_ANSLUTNING
 10
-4.8132319002656914
 20
137.9999999999952
 30
0.0
  0
VERTEX
  5
1807
  8
SAPA_ANSLUTNING
 10
-4.8132319002656914
 20
126.9999999999952
 30
0.0
 42
0.9999999999999998
  0
VERTEX
  5
1808
  8
SAPA_ANSLUTNING
 10
-0.8132319002656913
 20
126.9999999999952
 30
0.0
  0
VERTEX
  5
1809
  8
SAPA_ANSLUTNING
 10
-0.8132319002656913
 20
137.9999999999952
 30
0.0
 42
-0.9999999999999998
  0
VERTEX
  5
180A
  8
SAPA_ANSLUTNING
 10
3.1867680997343082
 20
137.9999999999952
 30
0.0
  0
VERTEX
  5
180B
  8
SAPA_ANSLUTNING
 10
3.1867680997343082
 20
126.9999999999952
 30
0.0
 42
0.9999999999999998
  0
VERTEX
  5
180C
  8
SAPA_ANSLUTNING
 10
7.1867680997343077
 20
126.9999999999952
 30
0.0
  0
VERTEX
  5
180D
  8
SAPA_ANSLUTNING
 10
7.1867680997343077
 20
137.9999999999952
 30
0.0
 42
-0.9999999999999998
  0
VERTEX
  5
180E
  8
SAPA_ANSLUTNING
 10
11.18676809973431
 20
137.9999999999952
 30
0.0
  0
VERTEX
  5
180F
  8
SAPA_ANSLUTNING
 10
11.18676809973431
 20
126.9999999999952
 30
0.0
 42
0.9999999999999998
  0
VERTEX
  5
1810
  8
SAPA_ANSLUTNING
 10
15.18676809973431
 20
126.9999999999952
 30
0.0
  0
VERTEX
  5
1811
  8
SAPA_ANSLUTNING
 10
15.18676809973431
 20
137.9999999999952
 30
0.0
 42
-0.9999999999999998
  0
VERTEX
  5
1812
  8
SAPA_ANSLUTNING
 10
19.186768099734309
 20
137.9999999999952
 30
0.0
  0
VERTEX
  5
1813
  8
SAPA_ANSLUTNING
 10
19.186768099734309
 20
126.9999999999952
 30
0.0
 42
0.9999999999999998
  0
VERTEX
  5
1814
  8
SAPA_ANSLUTNING
 10
23.186768099734309
 20
126.9999999999952
 30
0.0
  0
VERTEX
  5
1815
  8
SAPA_ANSLUTNING
 10
23.186768099734309
 20
137.9999999999952
 30
0.0
 42
-0.9999999999999998
  0
VERTEX
  5
1816
  8
SAPA_ANSLUTNING
 10
27.186768099734309
 20
137.9999999999952
 30
0.0
  0
VERTEX
  5
1817
  8
SAPA_ANSLUTNING
 10
27.186768099734309
 20
126.9999999999952
 30
0.0
 42
0.9999999999999998
  0
VERTEX
  5
1818
  8
SAPA_ANSLUTNING
 10
31.186768099734309
 20
126.9999999999952
 30
0.0
  0
VERTEX
  5
1819
  8
SAPA_ANSLUTNING
 10
31.186768099734309
 20
137.9999999999952
 30
0.0
 42
-0.9999999999999998
  0
VERTEX
  5
181A
  8
SAPA_ANSLUTNING
 10
35.186768099734309
 20
137.9999999999952
 30
0.0
  0
VERTEX
  5
181B
  8
SAPA_ANSLUTNING
 10
35.186768099734309
 20
126.9999999999952
 30
0.0
 42
0.9999999999999998
  0
VERTEX
  5
181C
  8
SAPA_ANSLUTNING
 10
39.186768099734309
 20
126.9999999999952
 30
0.0
  0
VERTEX
  5
181D
  8
SAPA_ANSLUTNING
 10
39.186768099734309
 20
137.9999999999952
 30
0.0
 42
-0.9999999999999998
  0
VERTEX
  5
181E
  8
SAPA_ANSLUTNING
 10
43.186768099734309
 20
137.9999999999952
 30
0.0
  0
VERTEX
  5
181F
  8
SAPA_ANSLUTNING
 10
43.186768099734309
 20
126.9999999999952
 30
0.0
 42
0.9999999999999998
  0
VERTEX
  5
1820
  8
SAPA_ANSLUTNING
 10
47.186768099734302
 20
126.9999999999952
 30
0.0
  0
VERTEX
  5
1821
  8
SAPA_ANSLUTNING
 10
47.186768099734302
 20
137.9999999999952
 30
0.0
 42
-0.9999999999999998
  0
VERTEX
  5
1822
  8
SAPA_ANSLUTNING
 10
51.186768099734309
 20
137.9999999999952
 30
0.0
  0
VERTEX
  5
1823
  8
SAPA_ANSLUTNING
 10
51.186768099734309
 20
126.9999999999952
 30
0.0
 42
0.9999999999999998
  0
VERTEX
  5
1824
  8
SAPA_ANSLUTNING
 10
55.186768099734309
 20
126.9999999999952
 30
0.0
  0
VERTEX
  5
1825
  8
SAPA_ANSLUTNING
 10
55.186768099734309
 20
137.9999999999952
 30
0.0
 42
-0.9999999999999429
  0
VERTEX
  5
1826
  8
SAPA_ANSLUTNING
 10
59.186768099733847
 20
137.9999999999954
 30
0.0
  0
VERTEX
  5
1827
  8
SAPA_ANSLUTNING
 10
59.186768099734309
 20
126.9999999999952
 30
0.0
 42
0.9999999999999998
  0
VERTEX
  5
1828
  8
SAPA_ANSLUTNING
 10
63.186768099734309
 20
126.9999999999952
 30
0.0
  0
VERTEX
  5
1829
  8
SAPA_ANSLUTNING
 10
63.186768099734081
 20
137.9999999999952
 30
0.0
 42
-0.9999999999999998
  0
VERTEX
  5
182A
  8
SAPA_ANSLUTNING
 10
67.186768099734081
 20
137.9999999999952
 30
0.0
  0
VERTEX
  5
182B
  8
SAPA_ANSLUTNING
 10
67.186768099734081
 20
126.9999999999952
 30
0.0
 42
0.9999999999999998
  0
VERTEX
  5
182C
  8
SAPA_ANSLUTNING
 10
71.186768099734081
 20
126.9999999999952
 30
0.0
  0
VERTEX
  5
182D
  8
SAPA_ANSLUTNING
 10
71.186768099734081
 20
137.9999999999952
 30
0.0
 42
-0.9999999999999998
  0
VERTEX
  5
182E
  8
SAPA_ANSLUTNING
 10
75.186768099734081
 20
137.9999999999952
 30
0.0
  0
VERTEX
  5
182F
  8
SAPA_ANSLUTNING
 10
75.186768099734081
 20
126.9999999999952
 30
0.0
 42
0.9999999999999998
  0
VERTEX
  5
1830
  8
SAPA_ANSLUTNING
 10
79.186768099734081
 20
126.9999999999952
 30
0.0
  0
VERTEX
  5
1831
  8
SAPA_ANSLUTNING
 10
79.186768099734081
 20
137.9999999999952
 30
0.0
 42
-0.9999999999999998
  0
VERTEX
  5
1832
  8
SAPA_ANSLUTNING
 10
83.186768099734095
 20
137.9999999999952
 30
0.0
  0
VERTEX
  5
1833
  8
SAPA_ANSLUTNING
 10
83.186768099734095
 20
126.9999999999952
 30
0.0
 42
0.9999999999999998
  0
VERTEX
  5
1834
  8
SAPA_ANSLUTNING
 10
87.186768099734067
 20
126.9999999999952
 30
0.0
  0
VERTEX
  5
1835
  8
SAPA_ANSLUTNING
 10
87.186768099734067
 20
137.9999999999952
 30
0.0
 42
-0.9999999999999998
  0
VERTEX
  5
1836
  8
SAPA_ANSLUTNING
 10
91.186768099734081
 20
137.9999999999952
 30
0.0
  0
VERTEX
  5
1837
  8
SAPA_ANSLUTNING
 10
91.186768099734081
 20
126.9999999999952
 30
0.0
 42
0.9999999999999998
  0
VERTEX
  5
1838
  8
SAPA_ANSLUTNING
 10
95.186768099734081
 20
126.9999999999952
 30
0.0
  0
VERTEX
  5
1839
  8
SAPA_ANSLUTNING
 10
95.186768099734081
 20
137.9999999999952
 30
0.0
 42
-0.9999999999999998
  0
VERTEX
  5
183A
  8
SAPA_ANSLUTNING
 10
99.186768099734081
 20
137.9999999999952
 30
0.0
  0
VERTEX
  5
183B
  8
SAPA_ANSLUTNING
 10
99.186768099734081
 20
126.9999999999952
 30
0.0
 42
0.9999999999999998
  0
VERTEX
  5
183C
  8
SAPA_ANSLUTNING
 10
103.1867680997341
 20
126.9999999999952
 30
0.0
  0
VERTEX
  5
183D
  8
SAPA_ANSLUTNING
 10
103.1867680997341
 20
137.9999999999952
 30
0.0
 42
-0.9999999999999998
  0
VERTEX
  5
183E
  8
SAPA_ANSLUTNING
 10
107.1867680997341
 20
137.9999999999952
 30
0.0
  0
VERTEX
  5
183F
  8
SAPA_ANSLUTNING
 10
107.1867680997341
 20
126.9999999999952
 30
0.0
 42
0.9999999999999998
  0
VERTEX
  5
1840
  8
SAPA_ANSLUTNING
 10
111.1867680997341
 20
126.9999999999952
 30
0.0
  0
VERTEX
  5
1841
  8
SAPA_ANSLUTNING
 10
111.1867680997341
 20
137.9999999999952
 30
0.0
 42
-0.9999999999999998
  0
VERTEX
  5
1842
  8
SAPA_ANSLUTNING
 10
115.1867680997341
 20
137.9999999999952
 30
0.0
  0
VERTEX
  5
1843
  8
SAPA_ANSLUTNING
 10
115.1867680997341
 20
126.9999999999952
 30
0.0
 42
0.9999999999999998
  0
VERTEX
  5
1844
  8
SAPA_ANSLUTNING
 10
119.186768099734
 20
126.9999999999952
 30
0.0
  0
VERTEX
  5
1845
  8
SAPA_ANSLUTNING
 10
119.186768099734
 20
137.9999999999952
 30
0.0
 42
-0.9999999999999998
  0
VERTEX
  5
1846
  8
SAPA_ANSLUTNING
 10
123.1867680997341
 20
137.9999999999952
 30
0.0
  0
VERTEX
  5
1847
  8
SAPA_ANSLUTNING
 10
123.1867680997341
 20
126.9999999999952
 30
0.0
 42
0.9999999999999998
  0
VERTEX
  5
1848
  8
SAPA_ANSLUTNING
 10
127.1867680997341
 20
126.9999999999952
 30
0.0
  0
VERTEX
  5
1849
  8
SAPA_ANSLUTNING
 10
127.1867680997341
 20
137.9999999999952
 30
0.0
 42
-0.9999999999999998
  0
VERTEX
  5
184A
  8
SAPA_ANSLUTNING
 10
131.18676809973411
 20
137.9999999999952
 30
0.0
  0
VERTEX
  5
184B
  8
SAPA_ANSLUTNING
 10
131.18676809973411
 20
126.9999999999952
 30
0.0
 42
0.9999999999999998
  0
VERTEX
  5
184C
  8
SAPA_ANSLUTNING
 10
135.18676809973411
 20
126.9999999999952
 30
0.0
  0
VERTEX
  5
184D
  8
SAPA_ANSLUTNING
 10
135.18676809973411
 20
137.9999999999952
 30
0.0
  0
SEQEND
  5
184E
  8
SAPA_ANSLUTNING
  0
ARC
  5
11D8
  8
SAPA_ANSLUTNING
 10
140.07825842330411
 20
40.351707880119193
 30
0.0
 40
25.53527834356208
 50
74.854243156964372
 51
98.817049425563752
  0
TEXT
  5
11DD
  8
SAPA_ARTIKELNR
 10
116.8131538459192
 20
58.544399619755261
 30
0.0000000048844772
 40
3.5
  1
D9A050
  7
ISO
  0
LINE
  5
13C6
  8
SAPA_GLAS
 10
5.2500000706643268
 20
40.999444650069563
 30
0.0
 11
5.2500000706643268
 21
72.999444650069563
 31
0.0
  0
LINE
  5
13C7
  8
SAPA_GLAS
 10
5.2500000706643268
 20
72.999444650069563
 30
0.0
 11
-2.7499999293356718
 21
72.999444650069563
 31
0.0
  0
LINE
  5
13C8
  8
SAPA_GLAS
 10
-2.7499999293356718
 20
72.999444650069563
 30
0.0
 11
-2.7499999293356718
 21
40.999444650069563
 31
0.0
  0
LINE
  5
13CB
  8
SAPA_GLAS
 10
5.2500000706643268
 20
62.999444650069563
 30
0.0
 11
20.250000070664331
 21
62.999444650069563
 31
0.0
  0
LINE
  5
13CC
  8
SAPA_GLAS
 10
20.250000070664331
 20
62.999444650069563
 30
0.0
 11
20.250000070664331
 21
72.999444650069563
 31
0.0
  0
LINE
  5
13CD
  8
SAPA_GLAS
 10
20.250000070664331
 20
72.999444650069563
 30
0.0
 11
5.2500000706643268
 21
72.999444650069563
 31
0.0
  0
LINE
  5
13CE
  8
SAPA_GLAS
 10
5.2500000706643268
 20
72.999444650069563
 30
0.0
 11
5.2500000706643268
 21
62.999444650069563
 31
0.0
  0
LINE
  5
13CF
  8
SAPA_GLAS
 10
26.250000070664331
 20
40.999444650069563
 30
0.0
 11
26.250000070664331
 21
72.999444650069563
 31
0.0
  0
LINE
  5
13D0
  8
SAPA_GLAS
 10
26.250000070664331
 20
72.999444650069563
 30
0.0
 11
20.250000070664331
 21
72.999444650069563
 31
0.0
  0
LINE
  5
13D1
  8
SAPA_GLAS
 10
20.250000070664331
 20
72.999444650069563
 30
0.0
 11
20.250000070664331
 21
40.999444650069563
 31
0.0
  0
LINE
  5
13D2
  8
SAPA_GLAS
 10
-3.4865771550077862
 20
72.999444650070473
 30
0.0
 11
-2.7499999293522741
 21
72.262867424414935
 31
0.0
1001
ACAD
1010
0.0
1020
0.0
1030
0.0
  0
LINE
  5
13D3
  8
SAPA_GLAS
 10
-3.499999929692251
 20
71.890335409621287
 30
0.0
 11
-2.7499999293522772
 21
71.140335409281306
 31
0.0
1001
ACAD
1010
0.0
1020
0.0
1030
0.0
  0
LINE
  5
13D4
  8
SAPA_GLAS
 10
-3.4999999296934661
 20
70.767803394488851
 30
0.0
 11
-2.749999929352267
 21
70.017803394147663
 31
0.0
1001
ACAD
1010
0.0
1020
0.0
1030
0.0
  0
LINE
  5
13D5
  8
SAPA_GLAS
 10
-3.4999999296946842
 20
69.64527137935643
 30
0.0
 11
-2.749999929352267
 21
68.895271379014019
 31
0.0
1001
ACAD
1010
0.0
1020
0.0
1030
0.0
  0
LINE
  5
13D6
  8
SAPA_GLAS
 10
-3.4999999296958961
 20
68.522739364224009
 30
0.0
 11
-2.7499999293522701
 21
67.772739363880376
 31
0.0
1001
ACAD
1010
0.0
1020
0.0
1030
0.0
  0
LINE
  5
13D7
  8
SAPA_GLAS
 10
-3.4999999296971138
 20
67.400207349091573
 30
0.0
 11
-2.749999929352267
 21
66.650207348746719
 31
0.0
1001
ACAD
1010
0.0
1020
0.0
1030
0.0
  0
LINE
  5
13D8
  8
SAPA_GLAS
 10
-3.49999992969834
 20
66.277675333959152
 30
0.0
 11
-2.7499999293522701
 21
65.527675333613075
 31
0.0
1001
ACAD
1010
0.0
1020
0.0
1030
0.0
  0
LINE
  5
13D9
  8
SAPA_GLAS
 10
-3.4999999296995412
 20
65.155143318826703
 30
0.0
 11
-2.749999929352267
 21
64.405143318479432
 31
0.0
1001
ACAD
1010
0.0
1020
0.0
1030
0.0
  0
LINE
  5
13DA
  8
SAPA_GLAS
 10
-3.499999929700774
 20
64.032611303694296
 30
0.0
 11
-2.7499999293522701
 21
63.282611303345789
 31
0.0
1001
ACAD
1010
0.0
1020
0.0
1030
0.0
  0
LINE
  5
13DB
  8
SAPA_GLAS
 10
-3.499999929701985
 20
62.91007928856186
 30
0.0
 11
-2.7499999293522701
 21
62.160079288212138
 31
0.0
1001
ACAD
1010
0.0
1020
0.0
1030
0.0
  0
LINE
  5
13DC
  8
SAPA_GLAS
 10
-3.4999999297032001
 20
61.787547273429418
 30
0.0
 11
-2.749999929352267
 21
61.037547273078502
 31
0.0
1001
ACAD
1010
0.0
1020
0.0
1030
0.0
  0
LINE
  5
13DD
  8
SAPA_GLAS
 10
-3.4999999297044151
 20
60.665015258296997
 30
0.0
 11
-3.0344293214661171
 21
60.199444650058702
 31
0.0
1001
ACAD
1010
0.0
1020
0.0
1030
0.0
  0
LINE
  5
13DE
  8
SAPA_GLAS
 10
-3.4999999296911208
 20
72.932157307578493
 30
0.0
 11
-3.4327125871992261
 21
72.999444650070387
 31
0.0
1001
ACAD
1010
0.0
1020
0.0
1030
0.0
  0
LINE
  5
13DF
  8
SAPA_GLAS
 10
-3.4999999296923359
 20
71.809625292443627
 30
0.0
 11
-2.749999929352263
 21
72.559625292783693
 31
0.0
1001
ACAD
1010
0.0
1020
0.0
1030
0.0
  0
LINE
  5
13E0
  8
SAPA_GLAS
 10
-3.4999999296935509
 20
70.687093277308762
 30
0.0
 11
-2.749999929352263
 21
71.43709327765005
 31
0.0
1001
ACAD
1010
0.0
1020
0.0
1030
0.0
  0
LINE
  5
13E1
  8
SAPA_GLAS
 10
-3.4999999296947588
 20
69.56456126217391
 30
0.0
 11
-2.7499999293522559
 21
70.314561262516406
 31
0.0
1001
ACAD
1010
0.0
1020
0.0
1030
0.0
  0
LINE
  5
13E2
  8
SAPA_GLAS
 10
-3.4999999296959952
 20
68.442029247039031
 30
0.0
 11
-2.749999929352263
 21
69.192029247382763
 31
0.0
1001
ACAD
1010
0.0
1020
0.0
1030
0.0
  0
LINE
  5
13E3
  8
SAPA_GLAS
 10
-3.499999929697196
 20
67.319497231904165
 30
0.0
 11
-2.7499999293522559
 21
68.06949723224912
 31
0.0
1001
ACAD
1010
0.0
1020
0.0
1030
0.0
  0
LINE
  5
13E4
  8
SAPA_GLAS
 10
-3.4999999296984319
 20
66.196965216769314
 30
0.0
 11
-2.749999929352263
 21
66.946965217115476
 31
0.0
1001
ACAD
1010
0.0
1020
0.0
1030
0.0
  0
LINE
  5
13E5
  8
SAPA_GLAS
 10
-3.4999999296996331
 20
65.074433201634463
 30
0.0
 11
-2.7499999293522559
 21
65.824433201981833
 31
0.0
1001
ACAD
1010
0.0
1020
0.0
1030
0.0
  0
LINE
  5
13E6
  8
SAPA_GLAS
 10
-3.4999999297008548
 20
63.951901186499597
 30
0.0
 11
-2.749999929352263
 21
64.701901186848175
 31
0.0
1001
ACAD
1010
0.0
1020
0.0
1030
0.0
  0
LINE
  5
13E7
  8
SAPA_GLAS
 10
-3.4999999297020699
 20
62.829369171364718
 30
0.0
 11
-2.749999929352263
 21
63.579369171714532
 31
0.0
1001
ACAD
1010
0.0
1020
0.0
1030
0.0
  0
LINE
  5
13E8
  8
SAPA_GLAS
 10
-3.4999999297032849
 20
61.706837156229881
 30
0.0
 11
-2.7499999293522701
 21
62.456837156580889
 31
0.0
1001
ACAD
1010
0.0
1020
0.0
1030
0.0
  0
LINE
  5
13E9
  8
SAPA_GLAS
 10
-3.499999929704507
 20
60.584305141095001
 30
0.0
 11
-2.7499999293522559
 21
61.334305141447253
 31
0.0
1001
ACAD
1010
0.0
1020
0.0
1030
0.0
  0
LINE
  5
13EA
  8
SAPA_GLAS
 10
-2.7623284056071782
 20
60.199444650058702
 30
0.0
 11
-2.749999929352263
 21
60.211773126313624
 31
0.0
1001
ACAD
1010
0.0
1020
0.0
1030
0.0
  0
LINE
  5
13EB
  8
SAPA_GLAS
 10
49.272427556274337
 20
72.999444650069591
 30
0.0
 11
50.000000071325623
 21
72.271872135018299
 31
0.0
1001
ACAD
1010
0.0
1020
0.0
1030
0.0
  0
LINE
  5
13EC
  8
SAPA_GLAS
 10
49.250000070986061
 20
71.899340120224224
 30
0.0
 11
50.000000071326852
 21
71.149340119883433
 31
0.0
1001
ACAD
1010
0.0
1020
0.0
1030
0.0
  0
LINE
  5
13ED
  8
SAPA_GLAS
 10
49.250000070986061
 20
70.776808105090581
 30
0.0
 11
50.00000007132806
 21
70.026808104748582
 31
0.0
1001
ACAD
1010
0.0
1020
0.0
1030
0.0
  0
LINE
  5
13EE
  8
SAPA_GLAS
 10
49.250000070986061
 20
69.654276089956952
 30
0.0
 11
50.000000071329282
 21
68.904276089613717
 31
0.0
1001
ACAD
1010
0.0
1020
0.0
1030
0.0
  0
LINE
  5
13EF
  8
SAPA_GLAS
 10
49.250000070986061
 20
68.531744074823294
 30
0.0
 11
50.000000071330497
 21
67.781744074478851
 31
0.0
1001
ACAD
1010
0.0
1020
0.0
1030
0.0
  0
LINE
  5
13F0
  8
SAPA_GLAS
 10
49.250000070986061
 20
67.409212059689651
 30
0.0
 11
50.000000071331733
 21
66.659212059343986
 31
0.0
1001
ACAD
1010
0.0
1020
0.0
1030
0.0
  0
LINE
  5
13F1
  8
SAPA_GLAS
 10
49.250000070986061
 20
66.286680044556007
 30
0.0
 11
50.000000071332927
 21
65.536680044209135
 31
0.0
1001
ACAD
1010
0.0
1020
0.0
1030
0.0
  0
LINE
  5
13F2
  8
SAPA_GLAS
 10
49.250000070986061
 20
65.164148029422364
 30
0.0
 11
50.000000071334149
 21
64.414148029074269
 31
0.0
1001
ACAD
1010
0.0
1020
0.0
1030
0.0
  0
LINE
  5
13F3
  8
SAPA_GLAS
 10
49.250000070986061
 20
64.041616014288721
 30
0.0
 11
50.000000071335371
 21
63.291616013939411
 31
0.0
1001
ACAD
1010
0.0
1020
0.0
1030
0.0
  0
LINE
  5
13F4
  8
SAPA_GLAS
 10
49.250000070986061
 20
62.91908399915507
 30
0.0
 11
50.000000071336594
 21
62.169083998804552
 31
0.0
1001
ACAD
1010
0.0
1020
0.0
1030
0.0
  0
LINE
  5
13F5
  8
SAPA_GLAS
 10
49.250000070986061
 20
61.796551984021427
 30
0.0
 11
50.000000071337809
 21
61.046551983669687
 31
0.0
1001
ACAD
1010
0.0
1020
0.0
1030
0.0
  0
LINE
  5
13F6
  8
SAPA_GLAS
 10
49.250000070986061
 20
60.674019968887777
 30
0.0
 11
49.724575389815143
 21
60.199444650058702
 31
0.0
1001
ACAD
1010
0.0
1020
0.0
1030
0.0
  0
LINE
  5
13F7
  8
SAPA_GLAS
 10
49.250000070986061
 20
72.923152596974376
 30
0.0
 11
49.326292124081341
 21
72.999444650069648
 31
0.0
1001
ACAD
1010
0.0
1020
0.0
1030
0.0
  0
LINE
  5
13F8
  8
SAPA_GLAS
 10
49.250000070986069
 20
71.800620581840732
 30
0.0
 11
50.000000071325339
 21
72.550620582180002
 31
0.0
1001
ACAD
1010
0.0
1020
0.0
1030
0.0
  0
LINE
  5
13F9
  8
SAPA_GLAS
 10
49.250000070986061
 20
70.678088566707103
 30
0.0
 11
50.000000071326554
 21
71.428088567047581
 31
0.0
1001
ACAD
1010
0.0
1020
0.0
1030
0.0
  0
LINE
  5
13FA
  8
SAPA_GLAS
 10
49.250000070986069
 20
69.555556551573446
 30
0.0
 11
50.000000071327769
 21
70.305556551915146
 31
0.0
1001
ACAD
1010
0.0
1020
0.0
1030
0.0
  0
LINE
  5
13FB
  8
SAPA_GLAS
 10
49.250000070986047
 20
68.433024536439802
 30
0.0
 11
50.000000071328977
 21
69.183024536782739
 31
0.0
1001
ACAD
1010
0.0
1020
0.0
1030
0.0
  0
LINE
  5
13FC
  8
SAPA_GLAS
 10
49.250000070986061
 20
67.310492521306159
 30
0.0
 11
50.000000071330213
 21
68.060492521650303
 31
0.0
1001
ACAD
1010
0.0
1020
0.0
1030
0.0
  0
LINE
  5
13FD
  8
SAPA_GLAS
 10
49.250000070986047
 20
66.187960506172516
 30
0.0
 11
50.000000071331421
 21
66.937960506517868
 31
0.0
1001
ACAD
1010
0.0
1020
0.0
1030
0.0
  0
LINE
  5
13FE
  8
SAPA_GLAS
 10
49.250000070986061
 20
65.065428491038872
 30
0.0
 11
50.000000071332629
 21
65.815428491385447
 31
0.0
1001
ACAD
1010
0.0
1020
0.0
1030
0.0
  0
LINE
  5
13FF
  8
SAPA_GLAS
 10
49.250000070986047
 20
63.942896475905229
 30
0.0
 11
50.000000071333837
 21
64.692896476253026
 31
0.0
1001
ACAD
1010
0.0
1020
0.0
1030
0.0
  0
LINE
  5
1400
  8
SAPA_GLAS
 10
49.250000070986061
 20
62.820364460771579
 30
0.0
 11
50.000000071335073
 21
63.57036446112059
 31
0.0
1001
ACAD
1010
0.0
1020
0.0
1030
0.0
  0
LINE
  5
1401
  8
SAPA_GLAS
 10
49.250000070986047
 20
61.697832445637943
 30
0.0
 11
50.000000071336267
 21
62.447832445988169
 31
0.0
1001
ACAD
1010
0.0
1020
0.0
1030
0.0
  0
LINE
  5
1402
  8
SAPA_GLAS
 10
49.250000070986061
 20
60.575300430504299
 30
0.0
 11
50.000000071337489
 21
61.325300430855727
 31
0.0
1001
ACAD
1010
0.0
1020
0.0
1030
0.0
  0
LINE
  5
1403
  8
SAPA_GLAS
 10
49.996676305674121
 20
60.19944465005868
 30
0.0
 11
50.000000071338718
 21
60.202768415723298
 31
0.0
1001
ACAD
1010
0.0
1020
0.0
1030
0.0
  0
LINE
  5
1404
  8
SAPA_GLAS
 10
26.250000070825081
 20
62.999444650069563
 30
0.0
 11
41.250000070825067
 21
62.999444650069563
 31
0.0
  0
LINE
  5
1405
  8
SAPA_GLAS
 10
41.250000070825067
 20
62.999444650069563
 30
0.0
 11
41.250000070825067
 21
72.999444650069563
 31
0.0
  0
LINE
  5
1406
  8
SAPA_GLAS
 10
41.250000070825067
 20
72.999444650069563
 30
0.0
 11
26.250000070825081
 21
72.999444650069563
 31
0.0
  0
LINE
  5
1407
  8
SAPA_GLAS
 10
26.250000070825081
 20
72.999444650069563
 30
0.0
 11
26.250000070825081
 21
62.999444650069563
 31
0.0
  0
LINE
  5
1408
  8
SAPA_GLAS
 10
49.250000070825301
 20
40.999444650069563
 30
0.0
 11
49.250000070825301
 21
72.999444650069563
 31
0.0
  0
LINE
  5
1409
  8
SAPA_GLAS
 10
49.250000070825301
 20
72.999444650069563
 30
0.0
 11
41.250000070825308
 21
72.999444650069563
 31
0.0
  0
LINE
  5
140A
  8
SAPA_GLAS
 10
41.250000070825308
 20
72.999444650069563
 30
0.0
 11
41.250000070825308
 21
40.999444650069563
 31
0.0
  0
LINE
  5
140B
  8
SAPA_FOGBAND
 10
56.149567538933979
 20
78.363045158838304
 30
0.0
 11
51.93511689891988
 21
78.253047773655908
 31
0.0
  0
LINE
  5
140C
  8
SAPA_FOGBAND
 10
51.93511689891988
 20
78.253047773655908
 30
0.0
 11
51.935693397794473
 21
75.814954433234107
 31
0.0
  0
LINE
  5
140D
  8
SAPA_FOGBAND
 10
51.935693397794473
 20
75.814954433234107
 30
0.0
 11
56.149567538933979
 21
76.940355555698716
 31
0.0
  0
LINE
  5
140E
  8
SAPA_FOGBAND
 10
56.149567538933979
 20
80.085734761980802
 30
0.0
 11
51.935523683327347
 21
81.211181359296916
 31
0.0
  0
LINE
  5
140F
  8
SAPA_FOGBAND
 10
51.935523683327347
 20
81.211181359296916
 30
0.0
 11
51.935087542507283
 21
78.773043312747632
 31
0.0
  0
LINE
  5
1410
  8
SAPA_FOGBAND
 10
51.935087542507283
 20
78.773043312747632
 30
0.0
 11
56.149567538933979
 21
78.663045158841214
 31
0.0
  0
LINE
  5
1411
  8
SAPA_FOGBAND
 10
56.949567538935071
 20
75.363045158841032
 30
0.0
 11
56.149567538933979
 21
75.363045158841032
 31
0.0
  0
LINE
  5
1412
  8
SAPA_FOGBAND
 10
56.149567538933979
 20
75.363045158841032
 30
0.0
 11
56.149567538933979
 21
81.663045158838486
 31
0.0
  0
LINE
  5
1413
  8
SAPA_FOGBAND
 10
56.149567538933979
 20
81.663045158838486
 30
0.0
 11
56.949567538935071
 21
81.663045158838486
 31
0.0
  0
LINE
  5
1414
  8
SAPA_FOGBAND
 10
56.949567538935071
 20
81.663045158838486
 30
0.0
 11
56.949567538935071
 21
75.363045158841032
 31
0.0
  0
LINE
  5
1415
  8
SAPA_FOGBAND
 10
56.149567538933979
 20
69.863045158833756
 30
0.0
 11
51.500267781595312
 21
69.75304777365227
 31
0.0
  0
LINE
  5
1416
  8
SAPA_FOGBAND
 10
51.500267781595312
 20
69.75304777365227
 30
0.0
 11
51.500844280469892
 21
67.314954433229545
 31
0.0
  0
LINE
  5
1417
  8
SAPA_FOGBAND
 10
51.500844280469892
 20
67.314954433229545
 30
0.0
 11
56.149567538933979
 21
68.440355555694168
 31
0.0
  0
LINE
  5
1418
  8
SAPA_FOGBAND
 10
56.149567538933979
 20
71.585734761976255
 30
0.0
 11
51.500674566002772
 21
72.711181359292368
 31
0.0
  0
LINE
  5
1419
  8
SAPA_FOGBAND
 10
51.500674566002772
 20
72.711181359292368
 30
0.0
 11
51.500238425182722
 21
70.273043312743994
 31
0.0
  0
LINE
  5
141A
  8
SAPA_FOGBAND
 10
51.500238425182722
 20
70.273043312743994
 30
0.0
 11
56.149567538933979
 21
70.163045158836667
 31
0.0
  0
LINE
  5
141B
  8
SAPA_FOGBAND
 10
56.949567538935071
 20
66.863045158837394
 30
0.0
 11
56.149567538933979
 21
66.863045158837394
 31
0.0
  0
LINE
  5
141C
  8
SAPA_FOGBAND
 10
56.149567538933979
 20
66.863045158837394
 30
0.0
 11
56.149567538933979
 21
73.163045158833938
 31
0.0
  0
LINE
  5
141D
  8
SAPA_FOGBAND
 10
56.149567538933979
 20
73.163045158833938
 30
0.0
 11
56.949567538935071
 21
73.163045158833938
 31
0.0
  0
LINE
  5
141E
  8
SAPA_FOGBAND
 10
56.949567538935071
 20
73.163045158833938
 30
0.0
 11
56.949567538935071
 21
66.863045158837394
 31
0.0
  0
LINE
  5
141F
  8
SAPA_FOGBAND
 10
-9.6495673972997338
 20
78.363045158838304
 30
0.0
 11
-5.3244098768352606
 21
78.253047773655908
 31
0.0
  0
LINE
  5
1420
  8
SAPA_FOGBAND
 10
-5.3244098768352606
 20
78.253047773655908
 30
0.0
 11
-5.324986375709841
 21
75.814954433234107
 31
0.0
  0
LINE
  5
1421
  8
SAPA_FOGBAND
 10
-5.324986375709841
 20
75.814954433234107
 30
0.0
 11
-9.6495673972997338
 21
76.940355555698716
 31
0.0
  0
LINE
  5
1422
  8
SAPA_FOGBAND
 10
-9.6495673972997338
 20
80.085734761980802
 30
0.0
 11
-5.3248166612427212
 21
81.211181359296916
 31
0.0
  0
LINE
  5
1423
  8
SAPA_FOGBAND
 10
-5.3248166612427212
 20
81.211181359296916
 30
0.0
 11
-5.3243805204226637
 21
78.773043312747632
 31
0.0
  0
LINE
  5
1424
  8
SAPA_FOGBAND
 10
-5.3243805204226637
 20
78.773043312747632
 30
0.0
 11
-9.6495673972997338
 21
78.663045158841214
 31
0.0
  0
LINE
  5
1425
  8
SAPA_FOGBAND
 10
-10.44956739730082
 20
75.363045158841032
 30
0.0
 11
-9.6495673972997338
 21
75.363045158841032
 31
0.0
  0
LINE
  5
1426
  8
SAPA_FOGBAND
 10
-9.6495673972997338
 20
75.363045158841032
 30
0.0
 11
-9.6495673972997338
 21
81.663045158838486
 31
0.0
  0
LINE
  5
1427
  8
SAPA_FOGBAND
 10
-9.6495673972997338
 20
81.663045158838486
 30
0.0
 11
-10.44956739730082
 21
81.663045158838486
 31
0.0
  0
LINE
  5
1428
  8
SAPA_FOGBAND
 10
-10.44956739730082
 20
81.663045158838486
 30
0.0
 11
-10.44956739730082
 21
75.363045158841032
 31
0.0
  0
LINE
  5
1429
  8
SAPA_FOGBAND
 10
-9.6495673972997338
 20
69.863045158833756
 30
0.0
 11
-4.902733402313288
 21
69.75304777365227
 31
0.0
  0
LINE
  5
142A
  8
SAPA_FOGBAND
 10
-4.902733402313288
 20
69.75304777365227
 30
0.0
 11
-4.9033099011878667
 21
67.314954433229545
 31
0.0
  0
LINE
  5
142B
  8
SAPA_FOGBAND
 10
-4.9033099011878667
 20
67.314954433229545
 30
0.0
 11
-9.6495673972997338
 21
68.440355555694168
 31
0.0
  0
LINE
  5
142C
  8
SAPA_FOGBAND
 10
-9.6495673972997338
 20
71.585734761976255
 30
0.0
 11
-4.9031401867207469
 21
72.711181359292368
 31
0.0
  0
LINE
  5
142D
  8
SAPA_FOGBAND
 10
-4.9031401867207469
 20
72.711181359292368
 30
0.0
 11
-4.9027040459006912
 21
70.273043312743994
 31
0.0
  0
LINE
  5
142E
  8
SAPA_FOGBAND
 10
-4.9027040459006912
 20
70.273043312743994
 30
0.0
 11
-9.6495673972997338
 21
70.163045158836667
 31
0.0
  0
LINE
  5
142F
  8
SAPA_FOGBAND
 10
-10.44956739730082
 20
66.863045158837394
 30
0.0
 11
-9.6495673972997338
 21
66.863045158837394
 31
0.0
  0
LINE
  5
1430
  8
SAPA_FOGBAND
 10
-9.6495673972997338
 20
66.863045158837394
 30
0.0
 11
-9.6495673972997338
 21
73.163045158833938
 31
0.0
  0
LINE
  5
1431
  8
SAPA_FOGBAND
 10
-9.6495673972997338
 20
73.163045158833938
 30
0.0
 11
-10.44956739730082
 21
73.163045158833938
 31
0.0
  0
LINE
  5
1432
  8
SAPA_FOGBAND
 10
-10.44956739730082
 20
73.163045158833938
 30
0.0
 11
-10.44956739730082
 21
66.863045158837394
 31
0.0
  0
LINE
  5
1433
  8
SAPA_PROFIL
 10
135.7500000707966
 20
64.999444650058194
 30
0.0
 11
130.7500000707966
 21
64.999444650061832
 31
0.0
  0
ARC
  5
1434
  8
SAPA_PROFIL
 10
130.7500000707966
 20
65.999444650061832
 30
0.0
 40
1.0
 50
180.0
 51
270.0
  0
LINE
  5
1435
  8
SAPA_PROFIL
 10
129.7500000707966
 20
65.999444650061832
 30
0.0
 11
129.75000007080391
 21
75.999444650060923
 31
0.0
  0
ARC
  5
1436
  8
SAPA_PROFIL
 10
130.7500000708003
 20
75.999444650064561
 30
0.0
 40
0.999999999996362
 50
90.000000000208431
 51
180.00000000020839
  0
LINE
  5
1437
  8
SAPA_PROFIL
 10
130.7500000707966
 20
76.999444650060923
 30
0.0
 11
132.50000007083301
 21
76.999444650060923
 31
0.0
  0
ARC
  5
1438
  8
SAPA_PROFIL
 10
132.50000007083301
 20
77.749444650064561
 30
0.0
 40
0.750000000003638
 50
270.0
 51
90.0
  0
LINE
  5
1439
  8
SAPA_PROFIL
 10
132.50000007083301
 20
78.499444650068199
 30
0.0
 11
130.75000007080391
 21
78.499444650071837
 31
0.0
  0
ARC
  5
143A
  8
SAPA_PROFIL
 10
130.75000007080209
 20
75.99944465006638
 30
0.0
 40
2.5000000000054561
 50
89.999999999958305
 51
179.99999999995831
  0
LINE
  5
143B
  8
SAPA_PROFIL
 10
128.2500000707966
 20
75.999444650068199
 30
0.0
 11
128.2500000707966
 21
66.199444650062546
 31
0.0
  0
ARC
  5
143C
  8
SAPA_PROFIL
 10
127.2500000707966
 20
66.199444650062546
 30
0.0
 40
1.0
 50
270.0
 51
0.0
  0
LINE
  5
143D
  8
SAPA_PROFIL
 10
127.2500000707966
 20
65.19944465006256
 30
0.0
 11
71.000000071502427
 21
65.19944465006256
 31
0.0
  0
ARC
  5
143E
  8
SAPA_PROFIL
 10
71.000000071502427
 20
65.69944465006256
 30
0.0
 40
0.5
 50
180.0
 51
270.0
  0
LINE
  5
143F
  8
SAPA_PROFIL
 10
70.500000071502427
 20
65.69944465006256
 30
0.0
 11
70.500000071499699
 21
83.49944465006547
 31
0.0
  0
ARC
  5
1440
  8
SAPA_PROFIL
 10
70.200000071499005
 20
83.499444650064945
 30
0.0
 40
0.3000000000006935
 50
0.0000000001004207
 51
159.99999999995131
  0
LINE
  5
1441
  8
SAPA_PROFIL
 10
69.918092285262674
 20
83.60205069306312
 30
0.0
 11
67.625079809378121
 21
77.302050693063848
 31
0.0
  0
ARC
  5
1442
  8
SAPA_PROFIL
 10
67.906987595614297
 20
77.199444650066795
 30
0.0
 40
0.3000000000001568
 50
160.00000000014251
 51
260.0000000002351
  0
LINE
  5
1443
  8
SAPA_PROFIL
 10
67.854893142315404
 20
76.904002324162775
 30
0.0
 11
68.586824160329115
 21
76.774943137666469
 31
0.0
  0
ARC
  5
1444
  8
SAPA_PROFIL
 10
68.500000071495336
 20
76.282539261160608
 30
0.0
 40
0.4999999999998154
 50
0.0000000000179129
 51
79.999999999959712
  0
LINE
  5
1445
  8
SAPA_PROFIL
 10
69.000000071495151
 20
76.282539261160764
 30
0.0
 11
69.000000071502427
 21
65.499444650061832
 31
0.0
  0
ARC
  5
1446
  8
SAPA_PROFIL
 10
68.500000071502427
 20
65.499444650061832
 30
0.0
 40
0.5
 50
270.0
 51
0.0
  0
LINE
  5
1447
  8
SAPA_PROFIL
 10
68.500000071502427
 20
64.999444650061832
 30
0.0
 11
55.250000070811211
 21
64.999444650069108
 31
0.0
  0
ARC
  5
1448
  8
SAPA_PROFIL
 10
55.25000007081303
 20
64.499444650067289
 30
0.0
 40
0.500000000001819
 50
90.000000000208431
 51
180.00000000020839
  0
ARC
  5
1449
  8
SAPA_PROFIL
 10
55.750000070811211
 20
64.49944465006547
 30
0.0
 40
1.0
 50
180.0
 51
270.0
  0
LINE
  5
144A
  8
SAPA_PROFIL
 10
55.750000070811211
 20
63.49944465006547
 30
0.0
 11
135.2500000707966
 21
63.499444650061832
 31
0.0
  0
ARC
  5
144B
  8
SAPA_PROFIL
 10
135.2500000707966
 20
64.499444650061832
 30
0.0
 40
1.0
 50
270.0
 51
0.0
  0
ARC
  5
144C
  8
SAPA_PROFIL
 10
135.75000007079839
 20
64.499444650060013
 30
0.0
 40
0.499999999998181
 50
0.0000000002084408
 51
90.000000000208431
  0
LINE
  5
144D
  8
SAPA_FOGBAND
 10
133.1495675395974
 20
69.863045158833756
 30
0.0
 11
129.8003600149361
 21
69.75304777365227
 31
0.0
  0
LINE
  5
144E
  8
SAPA_FOGBAND
 10
129.8003600149361
 20
69.75304777365227
 30
0.0
 11
129.8009365138102
 21
67.314954433229545
 31
0.0
  0
LINE
  5
144F
  8
SAPA_FOGBAND
 10
129.8009365138102
 20
67.314954433229545
 30
0.0
 11
133.1495675395974
 21
68.440355555694168
 31
0.0
  0
LINE
  5
1450
  8
SAPA_FOGBAND
 10
133.1495675395974
 20
71.585734761976255
 30
0.0
 11
129.80076679934311
 21
72.711181359292368
 31
0.0
  0
LINE
  5
1451
  8
SAPA_FOGBAND
 10
129.80076679934311
 20
72.711181359292368
 30
0.0
 11
129.800330658523
 21
70.273043312743084
 31
0.0
  0
LINE
  5
1452
  8
SAPA_FOGBAND
 10
129.800330658523
 20
70.273043312743084
 30
0.0
 11
133.1495675395974
 21
70.163045158836667
 31
0.0
  0
LINE
  5
1453
  8
SAPA_FOGBAND
 10
133.94956753959761
 20
66.863045158837394
 30
0.0
 11
133.1495675395974
 21
66.863045158837394
 31
0.0
  0
LINE
  5
1454
  8
SAPA_FOGBAND
 10
133.1495675395974
 20
66.863045158837394
 30
0.0
 11
133.1495675395974
 21
73.163045158833015
 31
0.0
  0
LINE
  5
1455
  8
SAPA_FOGBAND
 10
133.1495675395974
 20
73.163045158833015
 30
0.0
 11
133.94956753959761
 21
73.163045158833015
 31
0.0
  0
LINE
  5
1456
  8
SAPA_FOGBAND
 10
133.94956753959761
 20
73.163045158833015
 30
0.0
 11
133.94956753959761
 21
66.863045158837394
 31
0.0
  0
ARC
  5
1457
  8
SAPA_PROFIL
 62
     4
 10
40.163422587467032
 20
81.016784419713986
 30
0.0
 40
1.341625249269492
 50
270.795569960786
 51
298.02441875660668
  0
LINE
  5
1458
  8
SAPA_PROFIL
 62
     4
 10
40.793782288164259
 20
79.832468179339685
 30
0.0
 11
42.513397530438617
 21
80.825288502368025
 31
0.0
  0
LINE
  5
1459
  8
SAPA_PROFIL
 62
     4
 10
42.513397530438617
 20
80.825288502368025
 30
0.0
 11
42.950000070816941
 21
80.825288502368025
 31
0.0
  0
ARC
  5
145A
  8
SAPA_PROFIL
 62
     4
 10
42.950000070816941
 20
80.575288502368039
 30
0.0
 40
0.25
 50
0.0
 51
90.0
  0
LINE
  5
145B
  8
SAPA_PROFIL
 62
     4
 10
43.200000070816941
 20
80.575288502368039
 30
0.0
 11
43.200000070816941
 21
76.975276502369056
 31
0.0
  0
ARC
  5
145C
  8
SAPA_PROFIL
 62
     4
 10
42.950000070816948
 20
76.975276502369056
 30
0.0
 40
0.2499999999999929
 50
269.99999999999841
 51
0.0
  0
LINE
  5
145D
  8
SAPA_PROFIL
 62
     4
 10
42.950000070816941
 20
76.72527650236907
 30
0.0
 11
42.513398149238348
 21
76.725288145103605
 31
0.0
  0
LINE
  5
145E
  8
SAPA_PROFIL
 62
     4
 10
42.513398149238348
 20
76.725288145103605
 30
0.0
 11
40.79378228817108
 21
77.718108825394211
 31
0.0
  0
ARC
  5
145F
  8
SAPA_PROFIL
 62
     4
 10
40.17980953801046
 20
76.597883720900668
 30
0.0
 40
1.2774454284537411
 50
61.273742618030738
 51
89.542930992885019
  0
LINE
  5
1460
  8
SAPA_PROFIL
 62
     4
 10
40.190000070816723
 20
77.875288502369131
 30
0.0
 11
6.3100000708170683
 21
77.875288502369131
 31
0.0
  0
ARC
  5
1461
  8
SAPA_PROFIL
 62
     4
 10
6.3201906036233231
 20
76.597883720900683
 30
0.0
 40
1.2774454284537271
 50
90.457069007114967
 51
118.7262573819695
  0
LINE
  5
1462
  8
SAPA_PROFIL
 62
     4
 10
5.7062178534627028
 20
77.718108825394211
 30
0.0
 11
3.986601992395435
 21
76.725288145103605
 31
0.0
  0
LINE
  5
1463
  8
SAPA_PROFIL
 62
     4
 10
3.986601992395435
 20
76.725288145103605
 30
0.0
 11
3.5500000708168491
 21
76.72527650236907
 31
0.0
  0
ARC
  5
1464
  8
SAPA_PROFIL
 62
     4
 10
3.550000070816846
 20
76.975276502369056
 30
0.0
 40
0.25
 50
180.0
 51
270.0000000000008
  0
LINE
  5
1465
  8
SAPA_PROFIL
 62
     4
 10
3.3000000708168491
 20
76.975276502369056
 30
0.0
 11
3.3000000708168491
 21
80.575288502368039
 31
0.0
  0
ARC
  5
1466
  8
SAPA_PROFIL
 62
     4
 10
3.5500000708168491
 20
80.575288502368039
 30
0.0
 40
0.2499999999999996
 50
89.999999999999915
 51
180.0
  0
LINE
  5
1467
  8
SAPA_PROFIL
 62
     4
 10
3.5500000708168491
 20
80.825288502368025
 30
0.0
 11
3.986602611195166
 21
80.825288502368025
 31
0.0
  0
LINE
  5
1468
  8
SAPA_PROFIL
 62
     4
 10
3.986602611195166
 20
80.825288502368025
 30
0.0
 11
5.706217853469524
 21
79.832468179339685
 31
0.0
  0
ARC
  5
1469
  8
SAPA_PROFIL
 62
     4
 10
6.3365775541669871
 20
81.016784419714924
 30
0.0
 40
1.341625249270427
 50
241.9755812434035
 51
269.20443003922418
  0
LINE
  5
146A
  8
SAPA_PROFIL
 62
     4
 10
6.317949263248237
 20
79.675288502368403
 30
0.0
 11
40.182050878386008
 21
79.675288502368403
 31
0.0
  0
ARC
  5
146B
  8
SAPA_PROFIL
 10
43.493869111773733
 20
82.699444650058723
 30
0.0
 40
0.2999999999994713
 50
90.000000000065128
 51
144.3799302409254
  0
ARC
  5
146C
  8
SAPA_PROFIL
 10
43.006131029865458
 20
83.048889300118063
 30
0.0
 40
0.2999999999994016
 50
269.99999999981412
 51
324.37993024349629
  0
LINE
  5
146D
  8
SAPA_PROFIL
 10
43.006131029864477
 20
82.748889300118677
 30
0.0
 11
42.050000070829121
 21
82.748889300118677
 31
0.0
  0
ARC
  5
146E
  8
SAPA_PROFIL
 10
42.050000070823131
 20
83.048889300123435
 30
0.0
 40
0.300000000004772
 50
207.12809249346429
 51
270.00000000114528
  0
ARC
  5
146F
  8
SAPA_PROFIL
 10
41.516006466227708
 20
82.775300502368324
 30
0.0
 40
0.3000000000001409
 50
27.128092493313378
 51
89.999999999952507
  0
LINE
  5
1470
  8
SAPA_PROFIL
 10
41.516006466227957
 20
83.075300502368464
 30
0.0
 11
39.338458111270711
 21
83.075300502368464
 31
0.0
  0
ARC
  5
1471
  8
SAPA_PROFIL
 10
39.338458111271869
 20
82.775300502367642
 30
0.0
 40
0.3000000000008214
 50
90.000000000221192
 51
109.9999999999832
  0
LINE
  5
1472
  8
SAPA_PROFIL
 10
39.235852068273971
 20
83.057208288604215
 30
0.0
 11
37.808498898228891
 21
82.537694220929097
 31
0.0
  0
ARC
  5
1473
  8
SAPA_PROFIL
 10
37.911104941233241
 20
82.255786434688517
 30
0.0
 40
0.3000000000067923
 50
110.0000000008793
 51
200.00000000023709
  0
LINE
  5
1474
  8
SAPA_PROFIL
 10
37.629197154991523
 20
82.153180391687329
 30
0.0
 11
37.697601183662528
 21
81.965241867537316
 31
0.0
  0
ARC
  5
1475
  8
SAPA_PROFIL
 10
37.979508969893942
 20
82.067847910527746
 30
0.0
 40
0.2999999999934183
 50
199.99999999897989
 51
289.99999999896278
  0
LINE
  5
1476
  8
SAPA_PROFIL
 10
38.082115012884287
 20
81.785940124296303
 30
0.0
 11
39.115776895753022
 21
82.162162281961628
 31
0.0
  0
ARC
  5
1477
  8
SAPA_PROFIL
 10
39.218382938745798
 20
81.88025449572487
 30
0.0
 40
0.2999999999992438
 50
19.999999997807208
 51
109.9999999990529
  0
LINE
  5
1478
  8
SAPA_PROFIL
 10
39.500290724984779
 20
81.98286053871152
 30
0.0
 11
40.15914603222086
 21
80.172670459372497
 31
0.0
  0
ARC
  5
1479
  8
SAPA_PROFIL
 10
40.441053818456943
 20
80.275276502368911
 30
0.0
 40
0.2999999999998464
 50
199.99999999974611
 51
269.99999999997152
  0
LINE
  5
147A
  8
SAPA_PROFIL
 10
40.441053818456787
 20
79.97527650236907
 30
0.0
 11
40.860769586276312
 21
79.97527650236907
 31
0.0
  0
ARC
  5
147B
  8
SAPA_PROFIL
 10
40.86076958627558
 20
80.275276502368555
 30
0.0
 40
0.2999999999994856
 50
270.00000000013972
 51
300.00000000013767
  0
LINE
  5
147C
  8
SAPA_PROFIL
 10
41.010769586275948
 20
80.015468881234028
 30
0.0
 11
42.500000070817123
 21
80.875276502368706
 31
0.0
  0
LINE
  5
147D
  8
SAPA_PROFIL
 10
42.500000070817123
 20
80.875276502368706
 30
0.0
 11
42.950000070816941
 21
80.875288502369116
 31
0.0
  0
ARC
  5
147E
  8
SAPA_PROFIL
 10
42.950000070816493
 20
80.575288502368494
 30
0.0
 40
0.3000000000006366
 50
359.99999999991309
 51
89.999999999914493
  0
LINE
  5
147F
  8
SAPA_PROFIL
 10
43.250000070817123
 20
80.575288502368039
 30
0.0
 11
43.250000070817123
 21
76.975276502369056
 31
0.0
  0
ARC
  5
1480
  8
SAPA_PROFIL
 10
42.950000070816479
 20
76.975276502368615
 30
0.0
 40
0.3000000000006366
 50
270.0000000000868
 51
0.0000000000868503
  0
LINE
  5
1481
  8
SAPA_PROFIL
 10
42.950000070816941
 20
76.675276502367979
 30
0.0
 11
42.500000070817123
 21
76.675276502367979
 31
0.0
  0
LINE
  5
1482
  8
SAPA_PROFIL
 10
42.500000070817123
 20
76.675276502367979
 30
0.0
 11
41.010739939742727
 21
77.535101239938285
 31
0.0
  0
ARC
  5
1483
  8
SAPA_PROFIL
 10
40.860739939745187
 20
77.275293618801854
 30
0.0
 40
0.2999999999997103
 50
60.000000000510539
 51
89.996353133069917
  0
LINE
  5
1484
  8
SAPA_PROFIL
 10
40.860759034695768
 20
77.575293618193882
 30
0.0
 11
40.750000070818942
 21
77.57530066798563
 31
0.0
  0
LINE
  5
1485
  8
SAPA_PROFIL
 10
40.750000070818942
 20
77.57530066798563
 30
0.0
 11
40.750000070818942
 21
75.499444650069108
 31
0.0
  0
ARC
  5
1486
  8
SAPA_PROFIL
 10
41.250000070818942
 20
75.499444650069108
 30
0.0
 40
0.5
 50
180.0
 51
270.0
  0
LINE
  5
1487
  8
SAPA_PROFIL
 10
41.250000070818942
 20
74.999444650069108
 30
0.0
 11
46.500000070484248
 21
74.999444650069108
 31
0.0
  0
ARC
  5
1488
  8
SAPA_PROFIL
 10
46.500000070484248
 20
75.499444650069108
 30
0.0
 40
0.5
 50
270.0
 51
0.0
  0
LINE
  5
1489
  8
SAPA_PROFIL
 10
47.000000070484248
 20
75.499444650069108
 30
0.0
 11
47.000000070484248
 21
75.999444653652503
 31
0.0
  0
ARC
  5
148A
  8
SAPA_PROFIL
 10
46.500000070484248
 20
75.999444653652503
 30
0.0
 40
0.5
 50
0.0
 51
90.0
  0
LINE
  5
148B
  8
SAPA_PROFIL
 10
46.500000070484248
 20
76.499444653652503
 30
0.0
 11
45.500000070076787
 21
76.499444653657974
 31
0.0
  0
LINE
  5
148C
  8
SAPA_PROFIL
 10
45.500000070076787
 20
76.499444653657974
 30
0.0
 11
45.500000070072701
 21
79.69944465411163
 31
0.0
  0
LINE
  5
148D
  8
SAPA_PROFIL
 10
45.500000070072701
 20
79.69944465411163
 30
0.0
 11
50.000000070978558
 21
79.699444654104354
 31
0.0
  0
LINE
  5
148E
  8
SAPA_PROFIL
 10
50.000000070978558
 20
79.699444654104354
 30
0.0
 11
50.000000070999931
 21
60.199444650058922
 31
0.0
  0
ARC
  5
148F
  8
SAPA_PROFIL
 10
50.2000000710009
 20
60.199444650058652
 30
0.0
 40
0.2000000000009763
 50
179.99999999992261
 51
285.60191674437738
  0
ARC
  5
1490
  8
SAPA_PROFIL
 10
49.984838437699167
 20
60.969967506017042
 30
0.0
 40
1.0000000000005631
 50
285.601916744535
 51
353.75641154149349
  0
ARC
  5
1491
  8
SAPA_PROFIL
 10
-78.249999933635394
 20
74.999444650245323
 30
0.0
 40
130.00000000411961
 50
353.75641154141101
 51
359.99999999991269
  0
LINE
  5
1492
  8
SAPA_PROFIL
 10
51.750000070484241
 20
74.99944465004728
 30
0.0
 11
51.750000070622491
 21
79.999444649967245
 31
0.0
  0
ARC
  5
1493
  8
SAPA_PROFIL
 10
48.750000070622512
 20
79.999444650058209
 30
0.0
 40
2.9999999999999849
 50
359.99999999826269
 51
90.000000000000256
  0
LINE
  5
1494
  8
SAPA_PROFIL
 10
48.750000070622491
 20
82.999444650058194
 30
0.0
 11
43.493869111773392
 21
82.999444650058194
 31
0.0
  0
ARC
  5
1495
  8
SAPA_PROFIL
 10
3.0061310298605131
 20
82.699444650058723
 30
0.0
 40
0.2999999999994713
 50
35.620069759074717
 51
89.999999999935099
  0
ARC
  5
1496
  8
SAPA_PROFIL
 10
3.4938691117687779
 20
83.048889300118063
 30
0.0
 40
0.2999999999993999
 50
215.62006975650399
 51
270.00000000018639
  0
LINE
  5
1497
  8
SAPA_PROFIL
 10
3.493869111769754
 20
82.748889300118677
 30
0.0
 11
4.4500000708051166
 21
82.748889300118677
 31
0.0
  0
ARC
  5
1498
  8
SAPA_PROFIL
 10
4.4500000708108827
 20
83.048889300123065
 30
0.0
 40
0.3000000000044025
 50
269.99999999889877
 51
332.87190750657902
  0
ARC
  5
1499
  8
SAPA_PROFIL
 10
4.983993675406075
 20
82.775300502368324
 30
0.0
 40
0.3000000000001409
 50
90.000000000047507
 51
152.8719075066866
  0
LINE
  5
149A
  8
SAPA_PROFIL
 10
4.9839936754058272
 20
83.075300502368464
 30
0.0
 11
7.161542030363079
 21
83.075300502368464
 31
0.0
  0
ARC
  5
149B
  8
SAPA_PROFIL
 10
7.1615420303616899
 20
82.775300502368935
 30
0.0
 40
0.2999999999995282
 50
69.999999999972516
 51
89.999999999734698
  0
LINE
  5
149C
  8
SAPA_PROFIL
 10
7.2641480733593653
 20
83.057208288604215
 30
0.0
 11
8.6915012434049004
 21
82.537694220929097
 31
0.0
  0
ARC
  5
149D
  8
SAPA_PROFIL
 10
8.5888952004005539
 20
82.255786434688517
 30
0.0
 40
0.3000000000067911
 50
339.99999999976268
 51
69.999999999121343
  0
LINE
  5
149E
  8
SAPA_PROFIL
 10
8.8708029866422748
 20
82.153180391687329
 30
0.0
 11
8.8023989579712634
 21
81.965241867537316
 31
0.0
  0
ARC
  5
149F
  8
SAPA_PROFIL
 10
8.5204911717400762
 20
82.067847910527519
 30
0.0
 40
0.2999999999931269
 50
250.0000000010632
 51
340.00000000104598
  0
LINE
  5
14A0
  8
SAPA_PROFIL
 10
8.4178851287499583
 20
81.785940124296303
 30
0.0
 11
7.3842232458803201
 21
82.162162281961628
 31
0.0
  0
ARC
  5
14A1
  8
SAPA_PROFIL
 10
7.2816172028877677
 20
81.880254495725097
 30
0.0
 40
0.2999999999989514
 50
70.000000000973444
 51
160.00000000221891
  0
LINE
  5
14A2
  8
SAPA_PROFIL
 10
6.9997094166490106
 20
81.98286053871152
 30
0.0
 11
6.3408541094133852
 21
80.172670459372497
 31
0.0
  0
ARC
  5
14A3
  8
SAPA_PROFIL
 10
6.058946323177075
 20
80.275276502369238
 30
0.0
 40
0.3000000000001711
 50
269.99999999998499
 51
340.00000000020998
  0
LINE
  5
14A4
  8
SAPA_PROFIL
 10
6.058946323176996
 20
79.97527650236907
 30
0.0
 11
5.6392305553574706
 21
79.97527650236907
 31
0.0
  0
ARC
  5
14A5
  8
SAPA_PROFIL
 10
5.6392305553581998
 20
80.275276502368555
 30
0.0
 40
0.2999999999994856
 50
239.99999999986269
 51
269.99999999986079
  0
LINE
  5
14A6
  8
SAPA_PROFIL
 10
5.4892305553578353
 20
80.015468881234028
 30
0.0
 11
4.0000000708171219
 21
80.875276502368706
 31
0.0
  0
LINE
  5
14A7
  8
SAPA_PROFIL
 10
4.0000000708171219
 20
80.875276502368706
 30
0.0
 11
3.5500000708168491
 21
80.875288502369116
 31
0.0
  0
ARC
  5
14A8
  8
SAPA_PROFIL
 10
3.5500000708175259
 20
80.575288502368721
 30
0.0
 40
0.3000000000004093
 50
90.000000000129262
 51
180.0000000001302
  0
LINE
  5
14A9
  8
SAPA_PROFIL
 10
3.2500000708171219
 20
80.575288502368039
 30
0.0
 11
3.2500000708171219
 21
76.975276502369056
 31
0.0
  0
ARC
  5
14AA
  8
SAPA_PROFIL
 10
3.5500000708175321
 20
76.975276502368388
 30
0.0
 40
0.3000000000004093
 50
179.99999999986969
 51
269.99999999986971
  0
LINE
  5
14AB
  8
SAPA_PROFIL
 10
3.5500000708168491
 20
76.675276502367979
 30
0.0
 11
4.0000000708171219
 21
76.675276502367979
 31
0.0
  0
LINE
  5
14AC
  8
SAPA_PROFIL
 10
4.0000000708171219
 20
76.675276502367979
 30
0.0
 11
5.4892602018910557
 21
77.535101239938285
 31
0.0
  0
ARC
  5
14AD
  8
SAPA_PROFIL
 10
5.6392602018885958
 20
77.275293618801854
 30
0.0
 40
0.2999999999997103
 50
90.003646866930069
 51
119.9999999994894
  0
LINE
  5
14AE
  8
SAPA_PROFIL
 10
5.6392411069380151
 20
77.575293618193882
 30
0.0
 11
5.750000070815303
 21
77.57530066798563
 31
0.0
  0
LINE
  5
14AF
  8
SAPA_PROFIL
 10
5.750000070815303
 20
77.57530066798563
 30
0.0
 11
5.750000070815303
 21
75.499444650069108
 31
0.0
  0
ARC
  5
14B0
  8
SAPA_PROFIL
 10
5.250000070815303
 20
75.499444650069108
 30
0.0
 40
0.5
 50
270.0
 51
0.0
  0
LINE
  5
14B1
  8
SAPA_PROFIL
 10
5.250000070815303
 20
74.999444650069108
 30
0.0
 11
0.0000000711499979
 21
74.999444650069108
 31
0.0
  0
ARC
  5
14B2
  8
SAPA_PROFIL
 10
0.0000000711499977
 20
75.499444650069108
 30
0.0
 40
0.5
 50
180.0
 51
270.0
  0
LINE
  5
14B3
  8
SAPA_PROFIL
 10
-0.4999999288500021
 20
75.499444650069108
 30
0.0
 11
-0.4999999288500021
 21
75.999444653652503
 31
0.0
  0
ARC
  5
14B4
  8
SAPA_PROFIL
 10
0.0000000711499977
 20
75.999444653652503
 30
0.0
 40
0.4999999999999999
 50
89.999999999999986
 51
180.0
  0
LINE
  5
14B5
  8
SAPA_PROFIL
 10
0.0000000711499979
 20
76.499444653652503
 30
0.0
 11
1.0000000715569961
 21
76.499444653657974
 31
0.0
  0
LINE
  5
14B6
  8
SAPA_PROFIL
 10
1.0000000715569961
 20
76.499444653657974
 30
0.0
 11
1.0000000715610891
 21
79.69944465411163
 31
0.0
  0
LINE
  5
14B7
  8
SAPA_PROFIL
 10
1.0000000715610891
 20
79.69944465411163
 30
0.0
 11
-3.4999999293447668
 21
79.699444654104354
 31
0.0
  0
LINE
  5
14B8
  8
SAPA_PROFIL
 10
-3.4999999293447668
 20
79.699444654104354
 30
0.0
 11
-3.4999999293661399
 21
60.199444650058922
 31
0.0
  0
ARC
  5
14B9
  8
SAPA_PROFIL
 10
-3.699999929367118
 20
60.199444650058652
 30
0.0
 40
0.2000000000009781
 50
254.39808325562299
 51
0.0000000000773511
  0
ARC
  5
14BA
  8
SAPA_PROFIL
 10
-3.4848382960653761
 20
60.969967506017042
 30
0.0
 40
1.0000000000005631
 50
186.24358845850639
 51
254.398083255465
  0
ARC
  5
14BB
  8
SAPA_PROFIL
 10
124.7500000752692
 20
74.999444650245323
 30
0.0
 40
130.00000000411961
 50
180.00000000008731
 51
186.24358845858899
  0
LINE
  5
14BC
  8
SAPA_PROFIL
 10
-5.249999928850456
 20
74.99944465004728
 30
0.0
 11
-5.2499999289882453
 21
79.999444649967245
 31
0.0
  0
ARC
  5
14BD
  8
SAPA_PROFIL
 10
-2.2499999289882568
 20
79.999444650058209
 30
0.0
 40
2.9999999999999871
 50
89.999999999999758
 51
180.00000000173719
  0
LINE
  5
14BE
  8
SAPA_PROFIL
 10
-2.2499999289882449
 20
82.999444650058194
 30
0.0
 11
3.0061310298608528
 21
82.999444650058194
 31
0.0
  0
LINE
  5
14BF
  8
SAPA_PROFIL
 62
     4
 10
64.250000139538997
 20
81.651709582441526
 30
-0.2
 11
64.250000139538997
 21
67.45170958243898
 31
-0.2
1001
RC_PROFILE
1002
{
1000
Region
1002
}
  0
ARC
  5
14C0
  8
SAPA_PROFIL
 62
     4
 10
63.750000139538997
 20
67.45170958243898
 30
-0.2
 40
0.5
 50
270.00000000020839
 51
0.0
1001
RC_PROFILE
1002
{
1000
Region
1002
}
  0
LINE
  5
14C1
  8
SAPA_PROFIL
 62
     4
 10
63.750000139540823
 20
66.95170958243898
 30
-0.2
 11
59.750000138919631
 21
66.951709582437161
 31
-0.2
1001
RC_PROFILE
1002
{
1000
Region
1002
}
  0
ARC
  5
14C2
  8
SAPA_PROFIL
 62
     4
 10
59.750000138919631
 20
67.451709582437161
 30
-0.2
 40
0.5
 50
180.0
 51
270.0
1001
RC_PROFILE
1002
{
1000
Region
1002
}
  0
LINE
  5
14C3
  8
SAPA_PROFIL
 62
     4
 10
59.250000138919631
 20
67.451709582437161
 30
-0.2
 11
59.250000138912348
 21
81.651709582439707
 31
-0.2
1001
RC_PROFILE
1002
{
1000
Region
1002
}
  0
ARC
  5
14C4
  8
SAPA_PROFIL
 62
     4
 10
59.750000138912696
 20
81.651709582441185
 30
-0.2
 40
0.5000000000003411
 50
90.000000000039066
 51
180.00000000016931
1001
RC_PROFILE
1002
{
1000
Region
1002
}
  0
LINE
  5
14C5
  8
SAPA_PROFIL
 62
     4
 10
59.750000138912363
 20
82.151709582441526
 30
-0.2
 11
63.750000139538997
 21
82.151709582441526
 31
-0.2
1001
RC_PROFILE
1002
{
1000
Region
1002
}
  0
ARC
  5
14C6
  8
SAPA_PROFIL
 62
     4
 10
63.750000139538997
 20
81.651709582441526
 30
-0.2
 40
0.5
 50
0.0
 51
90.0
1001
RC_PROFILE
1002
{
1000
Region
1002
}
  0
ARC
  5
14C7
  8
SAPA_PROFIL
 62
     4
 10
50.827260069521969
 20
107.2151831388508
 30
0.0
 40
1.2000000000004429
 50
90.000000000084114
 51
120.000000000105
1001
GENIUS_GENOBJ-N-FIL_13
1002
{
1000
OWNER
1000
GEN
1002
}
1001
GENIUS_GENODEF_13
1002
{
1000
HIER
1070
     0
1002
}
1002
{
1000
MANEDIT
1070
     0
1002
}
1002
{
1000
NOSEL
1070
     0
1002
}
1002
{
1000
BEHIND
1070
     0
1002
}
1002
{
1000
OTHER
1070
     0
1002
}
1002
{
1000
REACTOR
1002
}
  0
LINE
  5
14C8
  8
SAPA_PROFIL
 62
     4
 10
50.227260069519843
 20
108.2544136233914
 30
0.0
 11
48.486602128876477
 21
107.2494442927941
 31
0.0
1001
GENIUS_GENOBJ-N-FIL_13
1002
{
1000
OWNER
1000
GEN
1002
}
1001
GENIUS_GENODEF_13
1002
{
1000
HIER
1070
     0
1002
}
1002
{
1000
MANEDIT
1070
     0
1002
}
1002
{
1000
NOSEL
1070
     0
1002
}
1002
{
1000
BEHIND
1070
     0
1002
}
1002
{
1000
OTHER
1070
     0
1002
}
1002
{
1000
REACTOR
1002
}
  0
LINE
  5
14C9
  8
SAPA_PROFIL
 62
     4
 10
48.486602128876477
 20
107.2494442927941
 30
0.0
 11
48.050000207297899
 21
107.2494326500596
 31
0.0
1001
GENIUS_GENOBJ-N-FIL_13
1002
{
1000
OWNER
1000
GEN
1002
}
1001
GENIUS_GENODEF_13
1002
{
1000
HIER
1070
     0
1002
}
1002
{
1000
MANEDIT
1070
     0
1002
}
1002
{
1000
NOSEL
1070
     0
1002
}
1002
{
1000
BEHIND
1070
     0
1002
}
1002
{
1000
OTHER
1070
     0
1002
}
1002
{
1000
REACTOR
1002
}
  0
ARC
  5
14CA
  8
SAPA_PROFIL
 62
     4
 10
48.050000207297892
 20
107.4994326500596
 30
0.0
 40
0.25
 50
180.0
 51
270.00000000000171
1001
GENIUS_GENOBJ-N-FIL_13
1002
{
1000
OWNER
1000
GEN
1002
}
1001
GENIUS_GENODEF_13
1002
{
1000
HIER
1070
     0
1002
}
1002
{
1000
MANEDIT
1070
     0
1002
}
1002
{
1000
NOSEL
1070
     0
1002
}
1002
{
1000
BEHIND
1070
     0
1002
}
1002
{
1000
OTHER
1070
     0
1002
}
1002
{
1000
REACTOR
1002
}
  0
LINE
  5
14CB
  8
SAPA_PROFIL
 62
     4
 10
47.800000207297892
 20
107.4994326500596
 30
0.0
 11
47.800000207297892
 21
111.0994446500585
 31
0.0
1001
GENIUS_GENOBJ-N-FIL_13
1002
{
1000
OWNER
1000
GEN
1002
}
1001
GENIUS_GENODEF_13
1002
{
1000
HIER
1070
     0
1002
}
1002
{
1000
MANEDIT
1070
     0
1002
}
1002
{
1000
NOSEL
1070
     0
1002
}
1002
{
1000
BEHIND
1070
     0
1002
}
1002
{
1000
OTHER
1070
     0
1002
}
1002
{
1000
REACTOR
1002
}
  0
ARC
  5
14CC
  8
SAPA_PROFIL
 62
     4
 10
48.050000207297899
 20
111.0994446500585
 30
0.0
 40
0.25
 50
90.0
 51
180.0
1001
GENIUS_GENOBJ-N-FIL_13
1002
{
1000
OWNER
1000
GEN
1002
}
1001
GENIUS_GENODEF_13
1002
{
1000
HIER
1070
     0
1002
}
1002
{
1000
MANEDIT
1070
     0
1002
}
1002
{
1000
NOSEL
1070
     0
1002
}
1002
{
1000
BEHIND
1070
     0
1002
}
1002
{
1000
OTHER
1070
     0
1002
}
1002
{
1000
REACTOR
1002
}
  0
LINE
  5
14CD
  8
SAPA_PROFIL
 62
     4
 10
48.050000207297899
 20
111.3494446500585
 30
0.0
 11
48.48660274767667
 21
111.3494446500585
 31
0.0
1001
GENIUS_GENOBJ-N-FIL_13
1002
{
1000
OWNER
1000
GEN
1002
}
1001
GENIUS_GENODEF_13
1002
{
1000
HIER
1070
     0
1002
}
1002
{
1000
MANEDIT
1070
     0
1002
}
1002
{
1000
NOSEL
1070
     0
1002
}
1002
{
1000
BEHIND
1070
     0
1002
}
1002
{
1000
OTHER
1070
     0
1002
}
1002
{
1000
REACTOR
1002
}
  0
LINE
  5
14CE
  8
SAPA_PROFIL
 62
     4
 10
48.48660274767667
 20
111.3494446500585
 30
0.0
 11
50.1727403450775
 21
110.37595265430851
 31
0.0
1001
GENIUS_GENOBJ-N-FIL_13
1002
{
1000
OWNER
1000
GEN
1002
}
1001
GENIUS_GENODEF_13
1002
{
1000
HIER
1070
     0
1002
}
1002
{
1000
MANEDIT
1070
     0
1002
}
1002
{
1000
NOSEL
1070
     0
1002
}
1002
{
1000
BEHIND
1070
     0
1002
}
1002
{
1000
OTHER
1070
     0
1002
}
1002
{
1000
REACTOR
1002
}
  0
ARC
  5
14CF
  8
SAPA_PROFIL
 62
     4
 10
50.772740345076251
 20
111.4151831388501
 30
0.0
 40
1.1999999999996041
 50
240.0000000000579
 51
270.00000000005531
1001
GENIUS_GENOBJ-N-FIL_13
1002
{
1000
OWNER
1000
GEN
1002
}
1001
GENIUS_GENODEF_13
1002
{
1000
HIER
1070
     0
1002
}
1002
{
1000
MANEDIT
1070
     0
1002
}
1002
{
1000
NOSEL
1070
     0
1002
}
1002
{
1000
BEHIND
1070
     0
1002
}
1002
{
1000
OTHER
1070
     0
1002
}
1002
{
1000
REACTOR
1002
}
  0
LINE
  5
14D0
  8
SAPA_PROFIL
 62
     4
 10
50.772740345077409
 20
110.21518313885051
 30
0.0
 11
72.727259933368487
 21
110.21518313885051
 31
0.0
1001
GENIUS_GENOBJ-N-FIL_13
1002
{
1000
OWNER
1000
GEN
1002
}
1001
GENIUS_GENODEF_13
1002
{
1000
HIER
1070
     0
1002
}
1002
{
1000
MANEDIT
1070
     0
1002
}
1002
{
1000
NOSEL
1070
     0
1002
}
1002
{
1000
BEHIND
1070
     0
1002
}
1002
{
1000
OTHER
1070
     0
1002
}
1002
{
1000
REACTOR
1002
}
  0
ARC
  5
14D1
  8
SAPA_PROFIL
 62
     4
 10
72.727259933369652
 20
111.4151831388501
 30
0.0
 40
1.1999999999996041
 50
269.99999999994441
 51
299.99999999994168
1001
GENIUS_GENOBJ-N-FIL_13
1002
{
1000
OWNER
1000
GEN
1002
}
1001
GENIUS_GENODEF_13
1002
{
1000
HIER
1070
     0
1002
}
1002
{
1000
MANEDIT
1070
     0
1002
}
1002
{
1000
NOSEL
1070
     0
1002
}
1002
{
1000
BEHIND
1070
     0
1002
}
1002
{
1000
OTHER
1070
     0
1002
}
1002
{
1000
REACTOR
1002
}
  0
LINE
  5
14D2
  8
SAPA_PROFIL
 62
     4
 10
73.327259933368396
 20
110.37595265430851
 30
0.0
 11
75.013397530769225
 21
111.3494446500585
 31
0.0
1001
GENIUS_GENOBJ-N-FIL_13
1002
{
1000
OWNER
1000
GEN
1002
}
1001
GENIUS_GENODEF_13
1002
{
1000
HIER
1070
     0
1002
}
1002
{
1000
MANEDIT
1070
     0
1002
}
1002
{
1000
NOSEL
1070
     0
1002
}
1002
{
1000
BEHIND
1070
     0
1002
}
1002
{
1000
OTHER
1070
     0
1002
}
1002
{
1000
REACTOR
1002
}
  0
LINE
  5
14D3
  8
SAPA_PROFIL
 62
     4
 10
75.013397530769225
 20
111.3494446500585
 30
0.0
 11
75.450000071147542
 21
111.3494446500585
 31
0.0
1001
GENIUS_GENOBJ-N-FIL_13
1002
{
1000
OWNER
1000
GEN
1002
}
1001
GENIUS_GENODEF_13
1002
{
1000
HIER
1070
     0
1002
}
1002
{
1000
MANEDIT
1070
     0
1002
}
1002
{
1000
NOSEL
1070
     0
1002
}
1002
{
1000
BEHIND
1070
     0
1002
}
1002
{
1000
OTHER
1070
     0
1002
}
1002
{
1000
REACTOR
1002
}
  0
ARC
  5
14D4
  8
SAPA_PROFIL
 62
     4
 10
75.450000071147542
 20
111.0994446500585
 30
0.0
 40
0.25
 50
0.0
 51
90.0
1001
GENIUS_GENOBJ-N-FIL_13
1002
{
1000
OWNER
1000
GEN
1002
}
1001
GENIUS_GENODEF_13
1002
{
1000
HIER
1070
     0
1002
}
1002
{
1000
MANEDIT
1070
     0
1002
}
1002
{
1000
NOSEL
1070
     0
1002
}
1002
{
1000
BEHIND
1070
     0
1002
}
1002
{
1000
OTHER
1070
     0
1002
}
1002
{
1000
REACTOR
1002
}
  0
LINE
  5
14D5
  8
SAPA_PROFIL
 62
     4
 10
75.700000071147542
 20
111.0994446500585
 30
0.0
 11
75.700000071147542
 21
107.4994326500596
 31
0.0
1001
GENIUS_GENOBJ-N-FIL_13
1002
{
1000
OWNER
1000
GEN
1002
}
1001
GENIUS_GENODEF_13
1002
{
1000
HIER
1070
     0
1002
}
1002
{
1000
MANEDIT
1070
     0
1002
}
1002
{
1000
NOSEL
1070
     0
1002
}
1002
{
1000
BEHIND
1070
     0
1002
}
1002
{
1000
OTHER
1070
     0
1002
}
1002
{
1000
REACTOR
1002
}
  0
ARC
  5
14D6
  8
SAPA_PROFIL
 62
     4
 10
75.450000071147542
 20
107.4994326500596
 30
0.0
 40
0.25
 50
270.0
 51
0.0
1001
GENIUS_GENOBJ-N-FIL_13
1002
{
1000
OWNER
1000
GEN
1002
}
1001
GENIUS_GENODEF_13
1002
{
1000
HIER
1070
     0
1002
}
1002
{
1000
MANEDIT
1070
     0
1002
}
1002
{
1000
NOSEL
1070
     0
1002
}
1002
{
1000
BEHIND
1070
     0
1002
}
1002
{
1000
OTHER
1070
     0
1002
}
1002
{
1000
REACTOR
1002
}
  0
LINE
  5
14D7
  8
SAPA_PROFIL
 62
     4
 10
75.450000071147542
 20
107.2494326500596
 30
0.0
 11
75.013398149569412
 21
107.2494442927941
 31
0.0
1001
GENIUS_GENOBJ-N-FIL_13
1002
{
1000
OWNER
1000
GEN
1002
}
1001
GENIUS_GENODEF_13
1002
{
1000
HIER
1070
     0
1002
}
1002
{
1000
MANEDIT
1070
     0
1002
}
1002
{
1000
NOSEL
1070
     0
1002
}
1002
{
1000
BEHIND
1070
     0
1002
}
1002
{
1000
OTHER
1070
     0
1002
}
1002
{
1000
REACTOR
1002
}
  0
LINE
  5
14D8
  8
SAPA_PROFIL
 62
     4
 10
75.013398149569412
 20
107.2494442927941
 30
0.0
 11
73.272740208925583
 21
108.2544136233914
 31
0.0
1001
GENIUS_GENOBJ-N-FIL_13
1002
{
1000
OWNER
1000
GEN
1002
}
1001
GENIUS_GENODEF_13
1002
{
1000
HIER
1070
     0
1002
}
1002
{
1000
MANEDIT
1070
     0
1002
}
1002
{
1000
NOSEL
1070
     0
1002
}
1002
{
1000
BEHIND
1070
     0
1002
}
1002
{
1000
OTHER
1070
     0
1002
}
1002
{
1000
REACTOR
1002
}
  0
ARC
  5
14D9
  8
SAPA_PROFIL
 62
     4
 10
72.672740208923472
 20
107.2151831388508
 30
0.0
 40
1.200000000000442
 50
59.999999999894989
 51
89.999999999915872
1001
GENIUS_GENOBJ-N-FIL_13
1002
{
1000
OWNER
1000
GEN
1002
}
1001
GENIUS_GENODEF_13
1002
{
1000
HIER
1070
     0
1002
}
1002
{
1000
MANEDIT
1070
     0
1002
}
1002
{
1000
NOSEL
1070
     0
1002
}
1002
{
1000
BEHIND
1070
     0
1002
}
1002
{
1000
OTHER
1070
     0
1002
}
1002
{
1000
REACTOR
1002
}
  0
LINE
  5
14DA
  8
SAPA_PROFIL
 62
     4
 10
72.672740208925234
 20
108.41518313885121
 30
0.0
 11
69.950000071396744
 21
108.4151831388494
 31
0.0
1001
GENIUS_GENOBJ-N-FIL_13
1002
{
1000
OWNER
1000
GEN
1002
}
1001
GENIUS_GENODEF_13
1002
{
1000
HIER
1070
     0
1002
}
1002
{
1000
MANEDIT
1070
     0
1002
}
1002
{
1000
NOSEL
1070
     0
1002
}
1002
{
1000
BEHIND
1070
     0
1002
}
1002
{
1000
OTHER
1070
     0
1002
}
1002
{
1000
REACTOR
1002
}
  0
ARC
  5
14DB
  8
SAPA_PROFIL
 62
     4
 10
69.950000071397426
 20
107.2151831388498
 30
0.0
 40
1.1999999999995901
 50
90.000000000032571
 51
180.00000000022791
1001
GENIUS_GENOBJ-N-FIL_13
1002
{
1000
OWNER
1000
GEN
1002
}
1001
GENIUS_GENODEF_13
1002
{
1000
HIER
1070
     0
1002
}
1002
{
1000
MANEDIT
1070
     0
1002
}
1002
{
1000
NOSEL
1070
     0
1002
}
1002
{
1000
BEHIND
1070
     0
1002
}
1002
{
1000
OTHER
1070
     0
1002
}
1002
{
1000
REACTOR
1002
}
  0
LINE
  5
14DC
  8
SAPA_PROFIL
 62
     4
 10
68.750000071397835
 20
107.21518313884511
 30
0.0
 11
68.750000071486966
 21
81.417448111923946
 31
0.0
1001
GENIUS_GENOBJ-N-FIL_13
1002
{
1000
OWNER
1000
GEN
1002
}
1001
GENIUS_GENODEF_13
1002
{
1000
HIER
1070
     0
1002
}
1002
{
1000
MANEDIT
1070
     0
1002
}
1002
{
1000
NOSEL
1070
     0
1002
}
1002
{
1000
BEHIND
1070
     0
1002
}
1002
{
1000
OTHER
1070
     0
1002
}
1002
{
1000
REACTOR
1002
}
  0
ARC
  5
14DD
  8
SAPA_PROFIL
 62
     4
 10
68.250000071486966
 20
81.417448111923946
 30
0.0
 40
0.5
 50
270.0
 51
0.0
1001
GENIUS_GENOBJ-N-FIL_13
1002
{
1000
OWNER
1000
GEN
1002
}
1001
GENIUS_GENODEF_13
1002
{
1000
HIER
1070
     0
1002
}
1002
{
1000
MANEDIT
1070
     0
1002
}
1002
{
1000
NOSEL
1070
     0
1002
}
1002
{
1000
BEHIND
1070
     0
1002
}
1002
{
1000
OTHER
1070
     0
1002
}
1002
{
1000
REACTOR
1002
}
  0
LINE
  5
14DE
  8
SAPA_PROFIL
 62
     4
 10
68.250000071486966
 20
80.917448111923932
 30
0.0
 11
68.050000071487148
 21
80.917448111923932
 31
0.0
1001
GENIUS_GENOBJ-N-FIL_13
1002
{
1000
OWNER
1000
GEN
1002
}
1001
GENIUS_GENODEF_13
1002
{
1000
HIER
1070
     0
1002
}
1002
{
1000
MANEDIT
1070
     0
1002
}
1002
{
1000
NOSEL
1070
     0
1002
}
1002
{
1000
BEHIND
1070
     0
1002
}
1002
{
1000
OTHER
1070
     0
1002
}
1002
{
1000
REACTOR
1002
}
  0
ARC
  5
14DF
  8
SAPA_PROFIL
 62
     4
 10
68.050000071486693
 20
81.217448111923659
 30
0.0
 40
0.2999999999997271
 50
180.0000000000868
 51
270.0000000000868
1001
GENIUS_GENOBJ-N-FIL_13
1002
{
1000
OWNER
1000
GEN
1002
}
1001
GENIUS_GENODEF_13
1002
{
1000
HIER
1070
     0
1002
}
1002
{
1000
MANEDIT
1070
     0
1002
}
1002
{
1000
NOSEL
1070
     0
1002
}
1002
{
1000
BEHIND
1070
     0
1002
}
1002
{
1000
OTHER
1070
     0
1002
}
1002
{
1000
REACTOR
1002
}
  0
LINE
  5
14E0
  8
SAPA_PROFIL
 62
     4
 10
67.750000071486966
 20
81.217448111923204
 30
0.0
 11
67.750000071486966
 21
81.867448111926478
 31
0.0
1001
GENIUS_GENOBJ-N-FIL_13
1002
{
1000
OWNER
1000
GEN
1002
}
1001
GENIUS_GENODEF_13
1002
{
1000
HIER
1070
     0
1002
}
1002
{
1000
MANEDIT
1070
     0
1002
}
1002
{
1000
NOSEL
1070
     0
1002
}
1002
{
1000
BEHIND
1070
     0
1002
}
1002
{
1000
OTHER
1070
     0
1002
}
1002
{
1000
REACTOR
1002
}
  0
ARC
  5
14E1
  8
SAPA_PROFIL
 62
     4
 10
67.450000071486784
 20
81.867448111925569
 30
0.0
 40
0.3000000000001819
 50
0.0000000001737007
 51
90.000000000173699
1001
GENIUS_GENOBJ-N-FIL_13
1002
{
1000
OWNER
1000
GEN
1002
}
1001
GENIUS_GENODEF_13
1002
{
1000
HIER
1070
     0
1002
}
1002
{
1000
MANEDIT
1070
     0
1002
}
1002
{
1000
NOSEL
1070
     0
1002
}
1002
{
1000
BEHIND
1070
     0
1002
}
1002
{
1000
OTHER
1070
     0
1002
}
1002
{
1000
REACTOR
1002
}
  0
LINE
  5
14E2
  8
SAPA_PROFIL
 62
     4
 10
67.450000071485874
 20
82.167448111925736
 30
0.0
 11
66.550000071489876
 21
82.167448111925736
 31
0.0
1001
GENIUS_GENOBJ-N-FIL_13
1002
{
1000
OWNER
1000
GEN
1002
}
1001
GENIUS_GENODEF_13
1002
{
1000
HIER
1070
     0
1002
}
1002
{
1000
MANEDIT
1070
     0
1002
}
1002
{
1000
NOSEL
1070
     0
1002
}
1002
{
1000
BEHIND
1070
     0
1002
}
1002
{
1000
OTHER
1070
     0
1002
}
1002
{
1000
REACTOR
1002
}
  0
ARC
  5
14E3
  8
SAPA_PROFIL
 62
     4
 10
66.550000071489876
 20
81.667448111925751
 30
0.0
 40
0.5
 50
90.0
 51
180.0
1001
GENIUS_GENOBJ-N-FIL_13
1002
{
1000
OWNER
1000
GEN
1002
}
1001
GENIUS_GENODEF_13
1002
{
1000
HIER
1070
     0
1002
}
1002
{
1000
MANEDIT
1070
     0
1002
}
1002
{
1000
NOSEL
1070
     0
1002
}
1002
{
1000
BEHIND
1070
     0
1002
}
1002
{
1000
OTHER
1070
     0
1002
}
1002
{
1000
REACTOR
1002
}
  0
LINE
  5
14E4
  8
SAPA_PROFIL
 62
     4
 10
66.050000071489876
 20
81.667448111925751
 30
0.0
 11
66.050000071489876
 21
75.667448111923932
 31
0.0
1001
GENIUS_GENOBJ-N-FIL_13
1002
{
1000
OWNER
1000
GEN
1002
}
1001
GENIUS_GENODEF_13
1002
{
1000
HIER
1070
     0
1002
}
1002
{
1000
MANEDIT
1070
     0
1002
}
1002
{
1000
NOSEL
1070
     0
1002
}
1002
{
1000
BEHIND
1070
     0
1002
}
1002
{
1000
OTHER
1070
     0
1002
}
1002
{
1000
REACTOR
1002
}
  0
ARC
  5
14E5
  8
SAPA_PROFIL
 62
     4
 10
66.550000071489876
 20
75.667448111923932
 30
0.0
 40
0.5
 50
180.0
 51
270.0
1001
GENIUS_GENOBJ-N-FIL_13
1002
{
1000
OWNER
1000
GEN
1002
}
1001
GENIUS_GENODEF_13
1002
{
1000
HIER
1070
     0
1002
}
1002
{
1000
MANEDIT
1070
     0
1002
}
1002
{
1000
NOSEL
1070
     0
1002
}
1002
{
1000
BEHIND
1070
     0
1002
}
1002
{
1000
OTHER
1070
     0
1002
}
1002
{
1000
REACTOR
1002
}
  0
LINE
  5
14E6
  8
SAPA_PROFIL
 62
     4
 10
66.550000071489876
 20
75.167448111923932
 30
0.0
 11
67.450000071488603
 21
75.167448111923932
 31
0.0
1001
GENIUS_GENOBJ-N-FIL_13
1002
{
1000
OWNER
1000
GEN
1002
}
1001
GENIUS_GENODEF_13
1002
{
1000
HIER
1070
     0
1002
}
1002
{
1000
MANEDIT
1070
     0
1002
}
1002
{
1000
NOSEL
1070
     0
1002
}
1002
{
1000
BEHIND
1070
     0
1002
}
1002
{
1000
OTHER
1070
     0
1002
}
1002
{
1000
REACTOR
1002
}
  0
ARC
  5
14E7
  8
SAPA_PROFIL
 62
     4
 10
67.450000071488489
 20
75.467448111923318
 30
0.0
 40
0.2999999999993861
 50
270.0000000000216
 51
359.99999999963092
1001
GENIUS_GENOBJ-N-FIL_13
1002
{
1000
OWNER
1000
GEN
1002
}
1001
GENIUS_GENODEF_13
1002
{
1000
HIER
1070
     0
1002
}
1002
{
1000
MANEDIT
1070
     0
1002
}
1002
{
1000
NOSEL
1070
     0
1002
}
1002
{
1000
BEHIND
1070
     0
1002
}
1002
{
1000
OTHER
1070
     0
1002
}
1002
{
1000
REACTOR
1002
}
  0
LINE
  5
14E8
  8
SAPA_PROFIL
 62
     4
 10
67.750000071487875
 20
75.467448111921385
 30
0.0
 11
67.750000071492423
 21
76.117448111924645
 31
0.0
1001
GENIUS_GENOBJ-N-FIL_13
1002
{
1000
OWNER
1000
GEN
1002
}
1001
GENIUS_GENODEF_13
1002
{
1000
HIER
1070
     0
1002
}
1002
{
1000
MANEDIT
1070
     0
1002
}
1002
{
1000
NOSEL
1070
     0
1002
}
1002
{
1000
BEHIND
1070
     0
1002
}
1002
{
1000
OTHER
1070
     0
1002
}
1002
{
1000
REACTOR
1002
}
  0
ARC
  5
14E9
  8
SAPA_PROFIL
 62
     4
 10
68.05000007149215
 20
76.117448111922386
 30
0.0
 40
0.2999999999997271
 50
89.999999999565759
 51
179.99999999956569
1001
GENIUS_GENOBJ-N-FIL_13
1002
{
1000
OWNER
1000
GEN
1002
}
1001
GENIUS_GENODEF_13
1002
{
1000
HIER
1070
     0
1002
}
1002
{
1000
MANEDIT
1070
     0
1002
}
1002
{
1000
NOSEL
1070
     0
1002
}
1002
{
1000
BEHIND
1070
     0
1002
}
1002
{
1000
OTHER
1070
     0
1002
}
1002
{
1000
REACTOR
1002
}
  0
LINE
  5
14EA
  8
SAPA_PROFIL
 62
     4
 10
68.050000071494424
 20
76.417448111922113
 30
0.0
 11
68.250000071486966
 21
76.417448111920294
 31
0.0
1001
GENIUS_GENOBJ-N-FIL_13
1002
{
1000
OWNER
1000
GEN
1002
}
1001
GENIUS_GENODEF_13
1002
{
1000
HIER
1070
     0
1002
}
1002
{
1000
MANEDIT
1070
     0
1002
}
1002
{
1000
NOSEL
1070
     0
1002
}
1002
{
1000
BEHIND
1070
     0
1002
}
1002
{
1000
OTHER
1070
     0
1002
}
1002
{
1000
REACTOR
1002
}
  0
ARC
  5
14EB
  8
SAPA_PROFIL
 62
     4
 10
68.250000071486966
 20
75.917448111920294
 30
0.0
 40
0.5
 50
0.0
 51
90.0
1001
GENIUS_GENOBJ-N-FIL_13
1002
{
1000
OWNER
1000
GEN
1002
}
1001
GENIUS_GENODEF_13
1002
{
1000
HIER
1070
     0
1002
}
1002
{
1000
MANEDIT
1070
     0
1002
}
1002
{
1000
NOSEL
1070
     0
1002
}
1002
{
1000
BEHIND
1070
     0
1002
}
1002
{
1000
OTHER
1070
     0
1002
}
1002
{
1000
REACTOR
1002
}
  0
LINE
  5
14EC
  8
SAPA_PROFIL
 62
     4
 10
68.750000071486966
 20
75.917448111920294
 30
0.0
 11
68.750000071486966
 21
72.917448111920294
 31
0.0
1001
GENIUS_GENOBJ-N-FIL_13
1002
{
1000
OWNER
1000
GEN
1002
}
1001
GENIUS_GENODEF_13
1002
{
1000
HIER
1070
     0
1002
}
1002
{
1000
MANEDIT
1070
     0
1002
}
1002
{
1000
NOSEL
1070
     0
1002
}
1002
{
1000
BEHIND
1070
     0
1002
}
1002
{
1000
OTHER
1070
     0
1002
}
1002
{
1000
REACTOR
1002
}
  0
ARC
  5
14ED
  8
SAPA_PROFIL
 62
     4
 10
68.250000071486966
 20
72.917448111920294
 30
0.0
 40
0.5
 50
270.0
 51
0.0
1001
GENIUS_GENOBJ-N-FIL_13
1002
{
1000
OWNER
1000
GEN
1002
}
1001
GENIUS_GENODEF_13
1002
{
1000
HIER
1070
     0
1002
}
1002
{
1000
MANEDIT
1070
     0
1002
}
1002
{
1000
NOSEL
1070
     0
1002
}
1002
{
1000
BEHIND
1070
     0
1002
}
1002
{
1000
OTHER
1070
     0
1002
}
1002
{
1000
REACTOR
1002
}
  0
LINE
  5
14EE
  8
SAPA_PROFIL
 62
     4
 10
68.250000071486966
 20
72.417448111920294
 30
0.0
 11
68.050000071487148
 21
72.417448111920294
 31
0.0
1001
GENIUS_GENOBJ-N-FIL_13
1002
{
1000
OWNER
1000
GEN
1002
}
1001
GENIUS_GENODEF_13
1002
{
1000
HIER
1070
     0
1002
}
1002
{
1000
MANEDIT
1070
     0
1002
}
1002
{
1000
NOSEL
1070
     0
1002
}
1002
{
1000
BEHIND
1070
     0
1002
}
1002
{
1000
OTHER
1070
     0
1002
}
1002
{
1000
REACTOR
1002
}
  0
ARC
  5
14EF
  8
SAPA_PROFIL
 62
     4
 10
68.050000071487602
 20
72.71744811192093
 30
0.0
 40
0.3000000000006366
 50
179.99999999991309
 51
269.99999999991309
1001
GENIUS_GENOBJ-N-FIL_13
1002
{
1000
OWNER
1000
GEN
1002
}
1001
GENIUS_GENODEF_13
1002
{
1000
HIER
1070
     0
1002
}
1002
{
1000
MANEDIT
1070
     0
1002
}
1002
{
1000
NOSEL
1070
     0
1002
}
1002
{
1000
BEHIND
1070
     0
1002
}
1002
{
1000
OTHER
1070
     0
1002
}
1002
{
1000
REACTOR
1002
}
  0
LINE
  5
14F0
  8
SAPA_PROFIL
 62
     4
 10
67.750000071486966
 20
72.717448111921385
 30
0.0
 11
67.750000071486966
 21
73.367448111921021
 31
0.0
1001
GENIUS_GENOBJ-N-FIL_13
1002
{
1000
OWNER
1000
GEN
1002
}
1001
GENIUS_GENODEF_13
1002
{
1000
HIER
1070
     0
1002
}
1002
{
1000
MANEDIT
1070
     0
1002
}
1002
{
1000
NOSEL
1070
     0
1002
}
1002
{
1000
BEHIND
1070
     0
1002
}
1002
{
1000
OTHER
1070
     0
1002
}
1002
{
1000
REACTOR
1002
}
  0
ARC
  5
14F1
  8
SAPA_PROFIL
 62
     4
 10
67.450000071486784
 20
73.367448111920112
 30
0.0
 40
0.3000000000001819
 50
0.0000000001737007
 51
90.000000000173699
1001
GENIUS_GENOBJ-N-FIL_13
1002
{
1000
OWNER
1000
GEN
1002
}
1001
GENIUS_GENODEF_13
1002
{
1000
HIER
1070
     0
1002
}
1002
{
1000
MANEDIT
1070
     0
1002
}
1002
{
1000
NOSEL
1070
     0
1002
}
1002
{
1000
BEHIND
1070
     0
1002
}
1002
{
1000
OTHER
1070
     0
1002
}
1002
{
1000
REACTOR
1002
}
  0
LINE
  5
14F2
  8
SAPA_PROFIL
 62
     4
 10
67.450000071485874
 20
73.667448111920294
 30
0.0
 11
66.550000071489876
 21
73.667448111920294
 31
0.0
1001
GENIUS_GENOBJ-N-FIL_13
1002
{
1000
OWNER
1000
GEN
1002
}
1001
GENIUS_GENODEF_13
1002
{
1000
HIER
1070
     0
1002
}
1002
{
1000
MANEDIT
1070
     0
1002
}
1002
{
1000
NOSEL
1070
     0
1002
}
1002
{
1000
BEHIND
1070
     0
1002
}
1002
{
1000
OTHER
1070
     0
1002
}
1002
{
1000
REACTOR
1002
}
  0
ARC
  5
14F3
  8
SAPA_PROFIL
 62
     4
 10
66.550000071489876
 20
73.167448111920294
 30
0.0
 40
0.5
 50
90.0
 51
180.0
1001
GENIUS_GENOBJ-N-FIL_13
1002
{
1000
OWNER
1000
GEN
1002
}
1001
GENIUS_GENODEF_13
1002
{
1000
HIER
1070
     0
1002
}
1002
{
1000
MANEDIT
1070
     0
1002
}
1002
{
1000
NOSEL
1070
     0
1002
}
1002
{
1000
BEHIND
1070
     0
1002
}
1002
{
1000
OTHER
1070
     0
1002
}
1002
{
1000
REACTOR
1002
}
  0
LINE
  5
14F4
  8
SAPA_PROFIL
 62
     4
 10
66.050000071489876
 20
73.167448111920294
 30
0.0
 11
66.050000071489876
 21
67.167448111920294
 31
0.0
1001
GENIUS_GENOBJ-N-FIL_13
1002
{
1000
OWNER
1000
GEN
1002
}
1001
GENIUS_GENODEF_13
1002
{
1000
HIER
1070
     0
1002
}
1002
{
1000
MANEDIT
1070
     0
1002
}
1002
{
1000
NOSEL
1070
     0
1002
}
1002
{
1000
BEHIND
1070
     0
1002
}
1002
{
1000
OTHER
1070
     0
1002
}
1002
{
1000
REACTOR
1002
}
  0
ARC
  5
14F5
  8
SAPA_PROFIL
 62
     4
 10
66.550000071489876
 20
67.167448111920294
 30
0.0
 40
0.5
 50
180.0
 51
270.0
1001
GENIUS_GENOBJ-N-FIL_13
1002
{
1000
OWNER
1000
GEN
1002
}
1001
GENIUS_GENODEF_13
1002
{
1000
HIER
1070
     0
1002
}
1002
{
1000
MANEDIT
1070
     0
1002
}
1002
{
1000
NOSEL
1070
     0
1002
}
1002
{
1000
BEHIND
1070
     0
1002
}
1002
{
1000
OTHER
1070
     0
1002
}
1002
{
1000
REACTOR
1002
}
  0
LINE
  5
14F6
  8
SAPA_PROFIL
 62
     4
 10
66.550000071489876
 20
66.667448111920294
 30
0.0
 11
67.450000071485874
 21
66.667448111920294
 31
0.0
1001
GENIUS_GENOBJ-N-FIL_13
1002
{
1000
OWNER
1000
GEN
1002
}
1001
GENIUS_GENODEF_13
1002
{
1000
HIER
1070
     0
1002
}
1002
{
1000
MANEDIT
1070
     0
1002
}
1002
{
1000
NOSEL
1070
     0
1002
}
1002
{
1000
BEHIND
1070
     0
1002
}
1002
{
1000
OTHER
1070
     0
1002
}
1002
{
1000
REACTOR
1002
}
  0
ARC
  5
14F7
  8
SAPA_PROFIL
 62
     4
 10
67.450000071485874
 20
66.967448111921385
 30
0.0
 40
0.3000000000010914
 50
270.0
 51
0.0
1001
GENIUS_GENOBJ-N-FIL_13
1002
{
1000
OWNER
1000
GEN
1002
}
1001
GENIUS_GENODEF_13
1002
{
1000
HIER
1070
     0
1002
}
1002
{
1000
MANEDIT
1070
     0
1002
}
1002
{
1000
NOSEL
1070
     0
1002
}
1002
{
1000
BEHIND
1070
     0
1002
}
1002
{
1000
OTHER
1070
     0
1002
}
1002
{
1000
REACTOR
1002
}
  0
LINE
  5
14F8
  8
SAPA_PROFIL
 62
     4
 10
67.750000071486966
 20
66.967448111921385
 30
0.0
 11
67.750000071486966
 21
67.617448111921021
 31
0.0
1001
GENIUS_GENOBJ-N-FIL_13
1002
{
1000
OWNER
1000
GEN
1002
}
1001
GENIUS_GENODEF_13
1002
{
1000
HIER
1070
     0
1002
}
1002
{
1000
MANEDIT
1070
     0
1002
}
1002
{
1000
NOSEL
1070
     0
1002
}
1002
{
1000
BEHIND
1070
     0
1002
}
1002
{
1000
OTHER
1070
     0
1002
}
1002
{
1000
REACTOR
1002
}
  0
ARC
  5
14F9
  8
SAPA_PROFIL
 62
     4
 10
68.050000071486693
 20
67.617448111920567
 30
0.0
 40
0.2999999999997271
 50
89.999999999913143
 51
179.99999999991309
1001
GENIUS_GENOBJ-N-FIL_13
1002
{
1000
OWNER
1000
GEN
1002
}
1001
GENIUS_GENODEF_13
1002
{
1000
HIER
1070
     0
1002
}
1002
{
1000
MANEDIT
1070
     0
1002
}
1002
{
1000
NOSEL
1070
     0
1002
}
1002
{
1000
BEHIND
1070
     0
1002
}
1002
{
1000
OTHER
1070
     0
1002
}
1002
{
1000
REACTOR
1002
}
  0
LINE
  5
14FA
  8
SAPA_PROFIL
 62
     4
 10
68.050000071487148
 20
67.917448111920294
 30
0.0
 11
68.250000071486966
 21
67.917448111920294
 31
0.0
1001
GENIUS_GENOBJ-N-FIL_13
1002
{
1000
OWNER
1000
GEN
1002
}
1001
GENIUS_GENODEF_13
1002
{
1000
HIER
1070
     0
1002
}
1002
{
1000
MANEDIT
1070
     0
1002
}
1002
{
1000
NOSEL
1070
     0
1002
}
1002
{
1000
BEHIND
1070
     0
1002
}
1002
{
1000
OTHER
1070
     0
1002
}
1002
{
1000
REACTOR
1002
}
  0
ARC
  5
14FB
  8
SAPA_PROFIL
 62
     4
 10
68.250000071486966
 20
67.417448111920294
 30
0.0
 40
0.5
 50
0.0
 51
90.0
1001
GENIUS_GENOBJ-N-FIL_13
1002
{
1000
OWNER
1000
GEN
1002
}
1001
GENIUS_GENODEF_13
1002
{
1000
HIER
1070
     0
1002
}
1002
{
1000
MANEDIT
1070
     0
1002
}
1002
{
1000
NOSEL
1070
     0
1002
}
1002
{
1000
BEHIND
1070
     0
1002
}
1002
{
1000
OTHER
1070
     0
1002
}
1002
{
1000
REACTOR
1002
}
  0
LINE
  5
14FC
  8
SAPA_PROFIL
 62
     4
 10
68.750000071486966
 20
67.417448111920294
 30
0.0
 11
68.750000071486056
 21
65.667448111920294
 31
0.0
1001
GENIUS_GENOBJ-N-FIL_13
1002
{
1000
OWNER
1000
GEN
1002
}
1001
GENIUS_GENODEF_13
1002
{
1000
HIER
1070
     0
1002
}
1002
{
1000
MANEDIT
1070
     0
1002
}
1002
{
1000
NOSEL
1070
     0
1002
}
1002
{
1000
BEHIND
1070
     0
1002
}
1002
{
1000
OTHER
1070
     0
1002
}
1002
{
1000
REACTOR
1002
}
  0
ARC
  5
14FD
  8
SAPA_PROFIL
 62
     4
 10
68.250000071318823
 20
65.667448112087527
 30
0.0
 40
0.5000000001672335
 50
269.99999998091471
 51
359.99999998083649
1001
GENIUS_GENOBJ-N-FIL_13
1002
{
1000
OWNER
1000
GEN
1002
}
1001
GENIUS_GENODEF_13
1002
{
1000
HIER
1070
     0
1002
}
1002
{
1000
MANEDIT
1070
     0
1002
}
1002
{
1000
NOSEL
1070
     0
1002
}
1002
{
1000
BEHIND
1070
     0
1002
}
1002
{
1000
OTHER
1070
     0
1002
}
1002
{
1000
REACTOR
1002
}
  0
LINE
  5
14FE
  8
SAPA_PROFIL
 62
     4
 10
68.250000071152272
 20
65.167448111920294
 30
0.0
 11
55.250000071144989
 21
65.167448111920294
 31
0.0
1001
GENIUS_GENOBJ-N-FIL_13
1002
{
1000
OWNER
1000
GEN
1002
}
1001
GENIUS_GENODEF_13
1002
{
1000
HIER
1070
     0
1002
}
1002
{
1000
MANEDIT
1070
     0
1002
}
1002
{
1000
NOSEL
1070
     0
1002
}
1002
{
1000
BEHIND
1070
     0
1002
}
1002
{
1000
OTHER
1070
     0
1002
}
1002
{
1000
REACTOR
1002
}
  0
ARC
  5
14FF
  8
SAPA_PROFIL
 62
     4
 10
55.250000071005722
 20
65.667448112057514
 30
0.0
 40
0.5000000001372201
 50
180.0000000159327
 51
270.00000001595868
1001
GENIUS_GENOBJ-N-FIL_13
1002
{
1000
OWNER
1000
GEN
1002
}
1001
GENIUS_GENODEF_13
1002
{
1000
HIER
1070
     0
1002
}
1002
{
1000
MANEDIT
1070
     0
1002
}
1002
{
1000
NOSEL
1070
     0
1002
}
1002
{
1000
BEHIND
1070
     0
1002
}
1002
{
1000
OTHER
1070
     0
1002
}
1002
{
1000
REACTOR
1002
}
  0
LINE
  5
1500
  8
SAPA_PROFIL
 62
     4
 10
54.750000070868509
 20
65.667448111918475
 30
0.0
 11
54.750000070868509
 21
67.417448111918475
 31
0.0
1001
GENIUS_GENOBJ-N-FIL_13
1002
{
1000
OWNER
1000
GEN
1002
}
1001
GENIUS_GENODEF_13
1002
{
1000
HIER
1070
     0
1002
}
1002
{
1000
MANEDIT
1070
     0
1002
}
1002
{
1000
NOSEL
1070
     0
1002
}
1002
{
1000
BEHIND
1070
     0
1002
}
1002
{
1000
OTHER
1070
     0
1002
}
1002
{
1000
REACTOR
1002
}
  0
ARC
  5
1501
  8
SAPA_PROFIL
 62
     4
 10
55.250000070868509
 20
67.417448111918475
 30
0.0
 40
0.5
 50
90.0
 51
180.0
1001
GENIUS_GENOBJ-N-FIL_13
1002
{
1000
OWNER
1000
GEN
1002
}
1001
GENIUS_GENODEF_13
1002
{
1000
HIER
1070
     0
1002
}
1002
{
1000
MANEDIT
1070
     0
1002
}
1002
{
1000
NOSEL
1070
     0
1002
}
1002
{
1000
BEHIND
1070
     0
1002
}
1002
{
1000
OTHER
1070
     0
1002
}
1002
{
1000
REACTOR
1002
}
  0
LINE
  5
1502
  8
SAPA_PROFIL
 62
     4
 10
55.250000070868509
 20
67.917448111918475
 30
0.0
 11
55.450000070868327
 21
67.917448111918475
 31
0.0
1001
GENIUS_GENOBJ-N-FIL_13
1002
{
1000
OWNER
1000
GEN
1002
}
1001
GENIUS_GENODEF_13
1002
{
1000
HIER
1070
     0
1002
}
1002
{
1000
MANEDIT
1070
     0
1002
}
1002
{
1000
NOSEL
1070
     0
1002
}
1002
{
1000
BEHIND
1070
     0
1002
}
1002
{
1000
OTHER
1070
     0
1002
}
1002
{
1000
REACTOR
1002
}
  0
ARC
  5
1503
  8
SAPA_PROFIL
 62
     4
 10
55.450000070868782
 20
67.617448111918733
 30
0.0
 40
0.2999999999997271
 50
0.0000000000868503
 51
90.000000000086857
1001
GENIUS_GENOBJ-N-FIL_13
1002
{
1000
OWNER
1000
GEN
1002
}
1001
GENIUS_GENODEF_13
1002
{
1000
HIER
1070
     0
1002
}
1002
{
1000
MANEDIT
1070
     0
1002
}
1002
{
1000
NOSEL
1070
     0
1002
}
1002
{
1000
BEHIND
1070
     0
1002
}
1002
{
1000
OTHER
1070
     0
1002
}
1002
{
1000
REACTOR
1002
}
  0
LINE
  5
1504
  8
SAPA_PROFIL
 62
     4
 10
55.750000070868509
 20
67.617448111919202
 30
0.0
 11
55.750000070868509
 21
66.967448111919566
 31
0.0
1001
GENIUS_GENOBJ-N-FIL_13
1002
{
1000
OWNER
1000
GEN
1002
}
1001
GENIUS_GENODEF_13
1002
{
1000
HIER
1070
     0
1002
}
1002
{
1000
MANEDIT
1070
     0
1002
}
1002
{
1000
NOSEL
1070
     0
1002
}
1002
{
1000
BEHIND
1070
     0
1002
}
1002
{
1000
OTHER
1070
     0
1002
}
1002
{
1000
REACTOR
1002
}
  0
ARC
  5
1505
  8
SAPA_PROFIL
 62
     4
 10
56.050000070868691
 20
66.967448111918657
 30
0.0
 40
0.3000000000001819
 50
179.99999999982629
 51
269.99999999982629
1001
GENIUS_GENOBJ-N-FIL_13
1002
{
1000
OWNER
1000
GEN
1002
}
1001
GENIUS_GENODEF_13
1002
{
1000
HIER
1070
     0
1002
}
1002
{
1000
MANEDIT
1070
     0
1002
}
1002
{
1000
NOSEL
1070
     0
1002
}
1002
{
1000
BEHIND
1070
     0
1002
}
1002
{
1000
OTHER
1070
     0
1002
}
1002
{
1000
REACTOR
1002
}
  0
LINE
  5
1506
  8
SAPA_PROFIL
 62
     4
 10
56.050000070867782
 20
66.667448111918475
 30
0.0
 11
56.950000070865599
 21
66.667448111918475
 31
0.0
1001
GENIUS_GENOBJ-N-FIL_13
1002
{
1000
OWNER
1000
GEN
1002
}
1001
GENIUS_GENODEF_13
1002
{
1000
HIER
1070
     0
1002
}
1002
{
1000
MANEDIT
1070
     0
1002
}
1002
{
1000
NOSEL
1070
     0
1002
}
1002
{
1000
BEHIND
1070
     0
1002
}
1002
{
1000
OTHER
1070
     0
1002
}
1002
{
1000
REACTOR
1002
}
  0
ARC
  5
1507
  8
SAPA_PROFIL
 62
     4
 10
56.950000070865599
 20
67.167448111918475
 30
0.0
 40
0.5
 50
270.0
 51
0.0
1001
GENIUS_GENOBJ-N-FIL_13
1002
{
1000
OWNER
1000
GEN
1002
}
1001
GENIUS_GENODEF_13
1002
{
1000
HIER
1070
     0
1002
}
1002
{
1000
MANEDIT
1070
     0
1002
}
1002
{
1000
NOSEL
1070
     0
1002
}
1002
{
1000
BEHIND
1070
     0
1002
}
1002
{
1000
OTHER
1070
     0
1002
}
1002
{
1000
REACTOR
1002
}
  0
LINE
  5
1508
  8
SAPA_PROFIL
 62
     4
 10
57.450000070865592
 20
67.167448111918475
 30
0.0
 11
57.450000070865592
 21
73.167448111918475
 31
0.0
1001
GENIUS_GENOBJ-N-FIL_13
1002
{
1000
OWNER
1000
GEN
1002
}
1001
GENIUS_GENODEF_13
1002
{
1000
HIER
1070
     0
1002
}
1002
{
1000
MANEDIT
1070
     0
1002
}
1002
{
1000
NOSEL
1070
     0
1002
}
1002
{
1000
BEHIND
1070
     0
1002
}
1002
{
1000
OTHER
1070
     0
1002
}
1002
{
1000
REACTOR
1002
}
  0
ARC
  5
1509
  8
SAPA_PROFIL
 62
     4
 10
56.950000070865599
 20
73.167448111918475
 30
0.0
 40
0.5
 50
0.0
 51
90.0
1001
GENIUS_GENOBJ-N-FIL_13
1002
{
1000
OWNER
1000
GEN
1002
}
1001
GENIUS_GENODEF_13
1002
{
1000
HIER
1070
     0
1002
}
1002
{
1000
MANEDIT
1070
     0
1002
}
1002
{
1000
NOSEL
1070
     0
1002
}
1002
{
1000
BEHIND
1070
     0
1002
}
1002
{
1000
OTHER
1070
     0
1002
}
1002
{
1000
REACTOR
1002
}
  0
LINE
  5
150A
  8
SAPA_PROFIL
 62
     4
 10
56.950000070865599
 20
73.667448111918475
 30
0.0
 11
56.050000070867782
 21
73.667448111918475
 31
0.0
1001
GENIUS_GENOBJ-N-FIL_13
1002
{
1000
OWNER
1000
GEN
1002
}
1001
GENIUS_GENODEF_13
1002
{
1000
HIER
1070
     0
1002
}
1002
{
1000
MANEDIT
1070
     0
1002
}
1002
{
1000
NOSEL
1070
     0
1002
}
1002
{
1000
BEHIND
1070
     0
1002
}
1002
{
1000
OTHER
1070
     0
1002
}
1002
{
1000
REACTOR
1002
}
  0
ARC
  5
150B
  8
SAPA_PROFIL
 62
     4
 10
56.050000070867782
 20
73.367448111919202
 30
0.0
 40
0.2999999999992724
 50
90.0
 51
180.0
1001
GENIUS_GENOBJ-N-FIL_13
1002
{
1000
OWNER
1000
GEN
1002
}
1001
GENIUS_GENODEF_13
1002
{
1000
HIER
1070
     0
1002
}
1002
{
1000
MANEDIT
1070
     0
1002
}
1002
{
1000
NOSEL
1070
     0
1002
}
1002
{
1000
BEHIND
1070
     0
1002
}
1002
{
1000
OTHER
1070
     0
1002
}
1002
{
1000
REACTOR
1002
}
  0
LINE
  5
150C
  8
SAPA_PROFIL
 62
     4
 10
55.750000070868509
 20
73.367448111919202
 30
0.0
 11
55.750000070868509
 21
72.717448111919566
 31
0.0
1001
GENIUS_GENOBJ-N-FIL_13
1002
{
1000
OWNER
1000
GEN
1002
}
1001
GENIUS_GENODEF_13
1002
{
1000
HIER
1070
     0
1002
}
1002
{
1000
MANEDIT
1070
     0
1002
}
1002
{
1000
NOSEL
1070
     0
1002
}
1002
{
1000
BEHIND
1070
     0
1002
}
1002
{
1000
OTHER
1070
     0
1002
}
1002
{
1000
REACTOR
1002
}
  0
ARC
  5
150D
  8
SAPA_PROFIL
 62
     4
 10
55.450000070867873
 20
72.717448111919111
 30
0.0
 40
0.3000000000006366
 50
270.0000000000868
 51
0.0000000000868503
1001
GENIUS_GENOBJ-N-FIL_13
1002
{
1000
OWNER
1000
GEN
1002
}
1001
GENIUS_GENODEF_13
1002
{
1000
HIER
1070
     0
1002
}
1002
{
1000
MANEDIT
1070
     0
1002
}
1002
{
1000
NOSEL
1070
     0
1002
}
1002
{
1000
BEHIND
1070
     0
1002
}
1002
{
1000
OTHER
1070
     0
1002
}
1002
{
1000
REACTOR
1002
}
  0
LINE
  5
150E
  8
SAPA_PROFIL
 62
     4
 10
55.450000070868327
 20
72.417448111918475
 30
0.0
 11
55.250000070868509
 21
72.417448111918475
 31
0.0
1001
GENIUS_GENOBJ-N-FIL_13
1002
{
1000
OWNER
1000
GEN
1002
}
1001
GENIUS_GENODEF_13
1002
{
1000
HIER
1070
     0
1002
}
1002
{
1000
MANEDIT
1070
     0
1002
}
1002
{
1000
NOSEL
1070
     0
1002
}
1002
{
1000
BEHIND
1070
     0
1002
}
1002
{
1000
OTHER
1070
     0
1002
}
1002
{
1000
REACTOR
1002
}
  0
ARC
  5
150F
  8
SAPA_PROFIL
 62
     4
 10
55.250000070868509
 20
72.917448111918475
 30
0.0
 40
0.5
 50
180.0
 51
270.0
1001
GENIUS_GENOBJ-N-FIL_13
1002
{
1000
OWNER
1000
GEN
1002
}
1001
GENIUS_GENODEF_13
1002
{
1000
HIER
1070
     0
1002
}
1002
{
1000
MANEDIT
1070
     0
1002
}
1002
{
1000
NOSEL
1070
     0
1002
}
1002
{
1000
BEHIND
1070
     0
1002
}
1002
{
1000
OTHER
1070
     0
1002
}
1002
{
1000
REACTOR
1002
}
  0
LINE
  5
1510
  8
SAPA_PROFIL
 62
     4
 10
54.750000070868509
 20
72.917448111918475
 30
0.0
 11
54.750000070868509
 21
75.917448111918475
 31
0.0
1001
GENIUS_GENOBJ-N-FIL_13
1002
{
1000
OWNER
1000
GEN
1002
}
1001
GENIUS_GENODEF_13
1002
{
1000
HIER
1070
     0
1002
}
1002
{
1000
MANEDIT
1070
     0
1002
}
1002
{
1000
NOSEL
1070
     0
1002
}
1002
{
1000
BEHIND
1070
     0
1002
}
1002
{
1000
OTHER
1070
     0
1002
}
1002
{
1000
REACTOR
1002
}
  0
ARC
  5
1511
  8
SAPA_PROFIL
 62
     4
 10
55.250000070868509
 20
75.917448111918475
 30
0.0
 40
0.5
 50
90.0
 51
180.0
1001
GENIUS_GENOBJ-N-FIL_13
1002
{
1000
OWNER
1000
GEN
1002
}
1001
GENIUS_GENODEF_13
1002
{
1000
HIER
1070
     0
1002
}
1002
{
1000
MANEDIT
1070
     0
1002
}
1002
{
1000
NOSEL
1070
     0
1002
}
1002
{
1000
BEHIND
1070
     0
1002
}
1002
{
1000
OTHER
1070
     0
1002
}
1002
{
1000
REACTOR
1002
}
  0
LINE
  5
1512
  8
SAPA_PROFIL
 62
     4
 10
55.250000070868509
 20
76.417448111918475
 30
0.0
 11
55.450000070861051
 21
76.417448111920294
 31
0.0
1001
GENIUS_GENOBJ-N-FIL_13
1002
{
1000
OWNER
1000
GEN
1002
}
1001
GENIUS_GENODEF_13
1002
{
1000
HIER
1070
     0
1002
}
1002
{
1000
MANEDIT
1070
     0
1002
}
1002
{
1000
NOSEL
1070
     0
1002
}
1002
{
1000
BEHIND
1070
     0
1002
}
1002
{
1000
OTHER
1070
     0
1002
}
1002
{
1000
REACTOR
1002
}
  0
ARC
  5
1513
  8
SAPA_PROFIL
 62
     4
 10
55.450000070863211
 20
76.117448111920453
 30
0.0
 40
0.2999999999998408
 50
0.0000000004559643
 51
90.000000000412527
1001
GENIUS_GENOBJ-N-FIL_13
1002
{
1000
OWNER
1000
GEN
1002
}
1001
GENIUS_GENODEF_13
1002
{
1000
HIER
1070
     0
1002
}
1002
{
1000
MANEDIT
1070
     0
1002
}
1002
{
1000
NOSEL
1070
     0
1002
}
1002
{
1000
BEHIND
1070
     0
1002
}
1002
{
1000
OTHER
1070
     0
1002
}
1002
{
1000
REACTOR
1002
}
  0
LINE
  5
1514
  8
SAPA_PROFIL
 62
     4
 10
55.750000070863052
 20
76.11744811192284
 30
0.0
 11
55.750000070865781
 21
75.467448111921385
 31
0.0
1001
GENIUS_GENOBJ-N-FIL_13
1002
{
1000
OWNER
1000
GEN
1002
}
1001
GENIUS_GENODEF_13
1002
{
1000
HIER
1070
     0
1002
}
1002
{
1000
MANEDIT
1070
     0
1002
}
1002
{
1000
NOSEL
1070
     0
1002
}
1002
{
1000
BEHIND
1070
     0
1002
}
1002
{
1000
OTHER
1070
     0
1002
}
1002
{
1000
REACTOR
1002
}
  0
ARC
  5
1515
  8
SAPA_PROFIL
 62
     4
 10
56.05000007086641
 20
75.467448111922749
 30
0.0
 40
0.3000000000006366
 50
180.00000000026051
 51
270.0000000000868
1001
GENIUS_GENOBJ-N-FIL_13
1002
{
1000
OWNER
1000
GEN
1002
}
1001
GENIUS_GENODEF_13
1002
{
1000
HIER
1070
     0
1002
}
1002
{
1000
MANEDIT
1070
     0
1002
}
1002
{
1000
NOSEL
1070
     0
1002
}
1002
{
1000
BEHIND
1070
     0
1002
}
1002
{
1000
OTHER
1070
     0
1002
}
1002
{
1000
REACTOR
1002
}
  0
LINE
  5
1516
  8
SAPA_PROFIL
 62
     4
 10
56.050000070866872
 20
75.167448111922113
 30
0.0
 11
56.950000070865599
 21
75.167448111922113
 31
0.0
1001
GENIUS_GENOBJ-N-FIL_13
1002
{
1000
OWNER
1000
GEN
1002
}
1001
GENIUS_GENODEF_13
1002
{
1000
HIER
1070
     0
1002
}
1002
{
1000
MANEDIT
1070
     0
1002
}
1002
{
1000
NOSEL
1070
     0
1002
}
1002
{
1000
BEHIND
1070
     0
1002
}
1002
{
1000
OTHER
1070
     0
1002
}
1002
{
1000
REACTOR
1002
}
  0
ARC
  5
1517
  8
SAPA_PROFIL
 62
     4
 10
56.950000070865599
 20
75.667448111922113
 30
0.0
 40
0.5
 50
270.0
 51
0.0
1001
GENIUS_GENOBJ-N-FIL_13
1002
{
1000
OWNER
1000
GEN
1002
}
1001
GENIUS_GENODEF_13
1002
{
1000
HIER
1070
     0
1002
}
1002
{
1000
MANEDIT
1070
     0
1002
}
1002
{
1000
NOSEL
1070
     0
1002
}
1002
{
1000
BEHIND
1070
     0
1002
}
1002
{
1000
OTHER
1070
     0
1002
}
1002
{
1000
REACTOR
1002
}
  0
LINE
  5
1518
  8
SAPA_PROFIL
 62
     4
 10
57.450000070865592
 20
75.667448111922113
 30
0.0
 11
57.450000070858323
 21
81.667448111923918
 31
0.0
1001
GENIUS_GENOBJ-N-FIL_13
1002
{
1000
OWNER
1000
GEN
1002
}
1001
GENIUS_GENODEF_13
1002
{
1000
HIER
1070
     0
1002
}
1002
{
1000
MANEDIT
1070
     0
1002
}
1002
{
1000
NOSEL
1070
     0
1002
}
1002
{
1000
BEHIND
1070
     0
1002
}
1002
{
1000
OTHER
1070
     0
1002
}
1002
{
1000
REACTOR
1002
}
  0
ARC
  5
1519
  8
SAPA_PROFIL
 62
     4
 10
56.950000070858323
 20
81.667448111923918
 30
0.0
 40
0.5
 50
0.0
 51
90.0
1001
GENIUS_GENOBJ-N-FIL_13
1002
{
1000
OWNER
1000
GEN
1002
}
1001
GENIUS_GENODEF_13
1002
{
1000
HIER
1070
     0
1002
}
1002
{
1000
MANEDIT
1070
     0
1002
}
1002
{
1000
NOSEL
1070
     0
1002
}
1002
{
1000
BEHIND
1070
     0
1002
}
1002
{
1000
OTHER
1070
     0
1002
}
1002
{
1000
REACTOR
1002
}
  0
LINE
  5
151A
  8
SAPA_PROFIL
 62
     4
 10
56.950000070858323
 20
82.167448111923932
 30
0.0
 11
56.050000070861408
 21
82.167448111923932
 31
0.0
1001
GENIUS_GENOBJ-N-FIL_13
1002
{
1000
OWNER
1000
GEN
1002
}
1001
GENIUS_GENODEF_13
1002
{
1000
HIER
1070
     0
1002
}
1002
{
1000
MANEDIT
1070
     0
1002
}
1002
{
1000
NOSEL
1070
     0
1002
}
1002
{
1000
BEHIND
1070
     0
1002
}
1002
{
1000
OTHER
1070
     0
1002
}
1002
{
1000
REACTOR
1002
}
  0
ARC
  5
151B
  8
SAPA_PROFIL
 62
     4
 10
56.05000007086096
 20
81.867448111924205
 30
0.0
 40
0.2999999999997271
 50
89.999999999913143
 51
179.99999999991309
1001
GENIUS_GENOBJ-N-FIL_13
1002
{
1000
OWNER
1000
GEN
1002
}
1001
GENIUS_GENODEF_13
1002
{
1000
HIER
1070
     0
1002
}
1002
{
1000
MANEDIT
1070
     0
1002
}
1002
{
1000
NOSEL
1070
     0
1002
}
1002
{
1000
BEHIND
1070
     0
1002
}
1002
{
1000
OTHER
1070
     0
1002
}
1002
{
1000
REACTOR
1002
}
  0
LINE
  5
151C
  8
SAPA_PROFIL
 62
     4
 10
55.750000070861233
 20
81.867448111924659
 30
0.0
 11
55.750000070861233
 21
81.217448111921385
 31
0.0
1001
GENIUS_GENOBJ-N-FIL_13
1002
{
1000
OWNER
1000
GEN
1002
}
1001
GENIUS_GENODEF_13
1002
{
1000
HIER
1070
     0
1002
}
1002
{
1000
MANEDIT
1070
     0
1002
}
1002
{
1000
NOSEL
1070
     0
1002
}
1002
{
1000
BEHIND
1070
     0
1002
}
1002
{
1000
OTHER
1070
     0
1002
}
1002
{
1000
REACTOR
1002
}
  0
ARC
  5
151D
  8
SAPA_PROFIL
 62
     4
 10
55.450000070861513
 20
81.217448111921854
 30
0.0
 40
0.2999999999997271
 50
269.99999999991309
 51
359.99999999991309
1001
GENIUS_GENOBJ-N-FIL_13
1002
{
1000
OWNER
1000
GEN
1002
}
1001
GENIUS_GENODEF_13
1002
{
1000
HIER
1070
     0
1002
}
1002
{
1000
MANEDIT
1070
     0
1002
}
1002
{
1000
NOSEL
1070
     0
1002
}
1002
{
1000
BEHIND
1070
     0
1002
}
1002
{
1000
OTHER
1070
     0
1002
}
1002
{
1000
REACTOR
1002
}
  0
LINE
  5
151E
  8
SAPA_PROFIL
 62
     4
 10
55.450000070861051
 20
80.917448111922127
 30
0.0
 11
55.25000007086124
 21
80.917448111922127
 31
0.0
1001
GENIUS_GENOBJ-N-FIL_13
1002
{
1000
OWNER
1000
GEN
1002
}
1001
GENIUS_GENODEF_13
1002
{
1000
HIER
1070
     0
1002
}
1002
{
1000
MANEDIT
1070
     0
1002
}
1002
{
1000
NOSEL
1070
     0
1002
}
1002
{
1000
BEHIND
1070
     0
1002
}
1002
{
1000
OTHER
1070
     0
1002
}
1002
{
1000
REACTOR
1002
}
  0
ARC
  5
151F
  8
SAPA_PROFIL
 62
     4
 10
55.25000007086124
 20
81.417448111922113
 30
0.0
 40
0.5
 50
180.0
 51
270.0
1001
GENIUS_GENOBJ-N-FIL_13
1002
{
1000
OWNER
1000
GEN
1002
}
1001
GENIUS_GENODEF_13
1002
{
1000
HIER
1070
     0
1002
}
1002
{
1000
MANEDIT
1070
     0
1002
}
1002
{
1000
NOSEL
1070
     0
1002
}
1002
{
1000
BEHIND
1070
     0
1002
}
1002
{
1000
OTHER
1070
     0
1002
}
1002
{
1000
REACTOR
1002
}
  0
LINE
  5
1520
  8
SAPA_PROFIL
 62
     4
 10
54.750000070861233
 20
81.417448111922113
 30
0.0
 11
54.750000070943081
 21
107.21518313884511
 31
0.0
1001
GENIUS_GENOBJ-N-FIL_13
1002
{
1000
OWNER
1000
GEN
1002
}
1001
GENIUS_GENODEF_13
1002
{
1000
HIER
1070
     0
1002
}
1002
{
1000
MANEDIT
1070
     0
1002
}
1002
{
1000
NOSEL
1070
     0
1002
}
1002
{
1000
BEHIND
1070
     0
1002
}
1002
{
1000
OTHER
1070
     0
1002
}
1002
{
1000
REACTOR
1002
}
  0
ARC
  5
1521
  8
SAPA_PROFIL
 62
     4
 10
53.550000070943042
 20
107.2151831388494
 30
0.0
 40
1.200000000000045
 50
359.99999999979377
 51
89.999999999989143
1001
GENIUS_GENOBJ-N-FIL_13
1002
{
1000
OWNER
1000
GEN
1002
}
1001
GENIUS_GENODEF_13
1002
{
1000
HIER
1070
     0
1002
}
1002
{
1000
MANEDIT
1070
     0
1002
}
1002
{
1000
NOSEL
1070
     0
1002
}
1002
{
1000
BEHIND
1070
     0
1002
}
1002
{
1000
OTHER
1070
     0
1002
}
1002
{
1000
REACTOR
1002
}
  0
LINE
  5
1522
  8
SAPA_PROFIL
 62
     4
 10
53.55000007094327
 20
108.4151831388494
 30
0.0
 11
50.821518720863203
 21
108.4151831388494
 31
0.0
1001
GENIUS_GENOBJ-N-FIL_13
1002
{
1000
OWNER
1000
GEN
1002
}
1001
GENIUS_GENODEF_13
1002
{
1000
HIER
1070
     0
1002
}
1002
{
1000
MANEDIT
1070
     0
1002
}
1002
{
1000
NOSEL
1070
     0
1002
}
1002
{
1000
BEHIND
1070
     0
1002
}
1002
{
1000
OTHER
1070
     0
1002
}
1002
{
1000
REACTOR
1002
}
  0
LINE
  5
1523
  8
SAPA_PROFIL
 62
     4
 10
58.450000138908528
 20
83.451709582438966
 30
0.0
 11
65.950000139466965
 21
83.451709582444437
 31
0.0
  0
ARC
  5
1524
  8
SAPA_PROFIL
 62
     4
 10
65.950000139466965
 20
84.451709582444437
 30
0.0
 40
1.0
 50
270.0
 51
0.0
  0
LINE
  5
1525
  8
SAPA_PROFIL
 62
     4
 10
66.950000139466965
 20
84.451709582444437
 30
0.0
 11
66.950000139482427
 21
107.59944460936769
 31
0.0
  0
ARC
  5
1526
  8
SAPA_PROFIL
 62
     4
 10
66.1500001394827
 20
107.5994446093673
 30
0.0
 40
0.7999999999997272
 50
0.0000000000325689
 51
90.000000000032571
  0
LINE
  5
1527
  8
SAPA_PROFIL
 62
     4
 10
66.150000139482245
 20
108.39944460936699
 30
0.0
 11
57.350000138963651
 21
108.39944460936699
 31
0.0
  0
ARC
  5
1528
  8
SAPA_PROFIL
 62
     4
 10
57.350000138963651
 20
107.5994446093668
 30
0.0
 40
0.8000000000001818
 50
90.0
 51
180.00000000006511
  0
LINE
  5
1529
  8
SAPA_PROFIL
 62
     4
 10
56.550000138963469
 20
107.5994446093659
 30
0.0
 11
56.550000138987109
 21
84.451709582438966
 31
0.0
  0
ARC
  5
152A
  8
SAPA_PROFIL
 62
     4
 10
57.550000138986768
 20
84.451709582440458
 30
0.0
 40
0.9999999999996589
 50
180.0000000000847
 51
269.99999999996737
  0
LINE
  5
152B
  8
SAPA_PROFIL
 62
     4
 10
57.550000138986199
 20
83.451709582440799
 30
0.0
 11
58.450000138908528
 21
83.451709582438966
 31
0.0
  0
LINE
  5
152C
  8
SAPA_PROFIL
 10
101.7500000711627
 20
122.69944465005889
 30
0.0
 11
101.7500000711623
 21
110.49944465005819
 31
0.0
  0
LINE
  5
152D
  8
SAPA_PROFIL
 10
101.7500000711623
 20
110.49944465005819
 30
0.0
 11
133.7500000711627
 21
110.49944465005819
 31
0.0
  0
LINE
  5
152E
  8
SAPA_PROFIL
 10
133.7500000711627
 20
110.49944465005819
 30
0.0
 11
133.7500000711627
 21
122.69944465005889
 31
0.0
  0
LINE
  5
152F
  8
SAPA_PROFIL
 10
133.7500000711627
 20
122.69944465005889
 30
0.0
 11
101.7500000711627
 21
122.69944465005889
 31
0.0
  0
ARC
  5
1530
  8
SAPA_PROFIL
 10
98.750000071162276
 20
112.0994446500585
 30
0.0
 40
1.0
 50
270.0
 51
0.0
  0
LINE
  5
1531
  8
SAPA_PROFIL
 10
99.75000007116229
 20
112.0994446500585
 30
0.0
 11
99.75000007116229
 21
121.0994446500585
 31
0.0
  0
ARC
  5
1532
  8
SAPA_PROFIL
 10
98.750000071162276
 20
121.0994446500585
 30
0.0
 40
1.0
 50
0.0
 51
90.0
  0
LINE
  5
1533
  8
SAPA_PROFIL
 10
98.750000071162276
 20
122.0994446500585
 30
0.0
 11
96.25000003576065
 21
122.0994446500585
 31
0.0
  0
LINE
  5
1534
  8
SAPA_PROFIL
 10
96.25000003576065
 20
122.0994446500585
 30
0.0
 11
96.25000003576065
 21
122.69944465005889
 31
0.0
  0
LINE
  5
1535
  8
SAPA_PROFIL
 10
96.25000003576065
 20
122.69944465005889
 30
0.0
 11
78.75000003576065
 21
122.69944465005889
 31
0.0
  0
LINE
  5
1536
  8
SAPA_PROFIL
 10
78.75000003576065
 20
122.69944465005889
 30
0.0
 11
78.75000003576065
 21
110.49944465005819
 31
0.0
  0
LINE
  5
1537
  8
SAPA_PROFIL
 10
78.75000003576065
 20
110.49944465005819
 30
0.0
 11
96.25000003576065
 21
110.49944465005819
 31
0.0
  0
LINE
  5
1538
  8
SAPA_PROFIL
 10
96.25000003576065
 20
110.49944465005819
 30
0.0
 11
96.25000003576065
 21
111.0994446500585
 31
0.0
  0
LINE
  5
1539
  8
SAPA_PROFIL
 10
96.25000003576065
 20
111.0994446500585
 30
0.0
 11
98.750000071162276
 21
111.0994446500585
 31
0.0
  0
ARC
  5
153A
  8
SAPA_PROFIL
 10
75.750000071148506
 20
124.9994446500564
 30
0.0
 40
0.2000000000001592
 50
180.0000000005333
 51
0.0000000005088887
  0
LINE
  5
153B
  8
SAPA_PROFIL
 10
75.550000071148361
 20
124.9994446500545
 30
0.0
 11
71.9641896335213
 21
124.99946865005541
 31
0.0
  0
ARC
  5
153C
  8
SAPA_PROFIL
 10
71.964189633521428
 20
123.99946865005521
 30
0.0
 40
1.0000000000001561
 50
90.000000000007333
 51
224.99999999998849
  0
LINE
  5
153D
  8
SAPA_PROFIL
 10
71.257082852334634
 20
123.2923618688687
 30
0.0
 11
72.562132105503679
 21
121.98731261569939
 31
0.0
  0
ARC
  5
153E
  8
SAPA_PROFIL
 10
72.774264139858914
 20
122.1994446500557
 30
0.0
 40
0.2999999999996828
 50
225.00000000013239
 51
270.00000000015189
  0
LINE
  5
153F
  8
SAPA_PROFIL
 10
72.774264139859724
 20
121.899444650056
 30
0.0
 11
73.360769586606921
 21
121.8994446500551
 31
0.0
  0
ARC
  5
1540
  8
SAPA_PROFIL
 10
73.360769586604491
 20
122.199444650055
 30
0.0
 40
0.2999999999999545
 50
270.00000000046413
 51
300.0000000004606
  0
LINE
  5
1541
  8
SAPA_PROFIL
 10
73.510769586606557
 20
121.9396370289209
 30
0.0
 11
75.000000071147724
 21
122.79944465005561
 31
0.0
  0
LINE
  5
1542
  8
SAPA_PROFIL
 10
75.000000071147724
 20
122.79944465005561
 30
0.0
 11
75.450000071147542
 21
122.79945665005511
 31
0.0
  0
ARC
  5
1543
  8
SAPA_PROFIL
 10
75.450000071147542
 20
122.499456650055
 30
0.0
 40
0.3000000000001819
 50
0.0
 51
90.0
  0
LINE
  5
1544
  8
SAPA_PROFIL
 10
75.750000071147724
 20
122.499456650055
 30
0.0
 11
75.750000071147497
 21
118.899444650056
 31
0.0
  0
ARC
  5
1545
  8
SAPA_PROFIL
 10
75.450000071146974
 20
118.8994446500554
 30
0.0
 40
0.300000000000523
 50
270.00000000010863
 51
0.0000000001085629
  0
LINE
  5
1546
  8
SAPA_PROFIL
 10
75.450000071147542
 20
118.59944465005491
 30
0.0
 11
75.000000071147724
 21
118.59944465005491
 31
0.0
  0
LINE
  5
1547
  8
SAPA_PROFIL
 10
75.000000071147724
 20
118.59944465005491
 30
0.0
 11
73.510739940073563
 21
119.4592693876243
 31
0.0
  0
ARC
  5
1548
  8
SAPA_PROFIL
 10
73.36073994007441
 20
119.1994617664886
 30
0.0
 40
0.2999999999998768
 50
60.000000000173188
 51
89.996353132718426
  0
LINE
  5
1549
  8
SAPA_PROFIL
 10
73.360759035026831
 20
119.4994617658808
 30
0.0
 11
73.250000071147724
 21
119.4994688156725
 31
0.0
  0
LINE
  5
154A
  8
SAPA_PROFIL
 10
73.250000071147724
 20
119.4994688156725
 30
0.0
 11
73.250000071148179
 21
117.8777568135679
 31
0.0
  0
ARC
  5
154B
  8
SAPA_PROFIL
 10
74.250000071147824
 20
117.877756813568
 30
0.0
 40
0.9999999999996447
 50
180.0000000000089
 51
240.0000000000118
  0
LINE
  5
154C
  8
SAPA_PROFIL
 10
73.750000071148179
 20
117.01173140978381
 30
0.0
 11
75.250000071147724
 21
116.1457060059997
 31
0.0
  0
ARC
  5
154D
  8
SAPA_PROFIL
 10
74.750000071148065
 20
115.27968060221551
 30
0.0
 40
0.999999999999646
 50
0.0000000000089564
 51
60.000000000011802
  0
LINE
  5
154E
  8
SAPA_PROFIL
 10
75.750000071147724
 20
115.27968060221561
 30
0.0
 11
75.750000071147724
 21
114.71920869789891
 31
0.0
  0
ARC
  5
154F
  8
SAPA_PROFIL
 10
74.750000071148065
 20
114.71920869789911
 30
0.0
 40
0.9999999999996447
 50
299.99999999998818
 51
359.99999999999102
  0
LINE
  5
1550
  8
SAPA_PROFIL
 10
75.250000071147724
 20
113.8531832941148
 30
0.0
 11
73.750000071148406
 21
112.9871578903298
 31
0.0
  0
ARC
  5
1551
  8
SAPA_PROFIL
 10
74.250000071148548
 20
112.1211324865445
 30
0.0
 40
1.00000000000083
 50
119.9999999999819
 51
179.99999999998121
  0
LINE
  5
1552
  8
SAPA_PROFIL
 10
73.250000071147724
 20
112.12113248654479
 30
0.0
 11
73.250000071147724
 21
110.499420484442
 31
0.0
  0
LINE
  5
1553
  8
SAPA_PROFIL
 10
73.250000071147724
 20
110.499420484442
 30
0.0
 11
73.360759035026831
 21
110.49942753423279
 31
0.0
  0
ARC
  5
1554
  8
SAPA_PROFIL
 10
73.360739940074353
 20
110.7994275336243
 30
0.0
 40
0.2999999999991979
 50
270.00364686729239
 51
299.99999999986369
  0
LINE
  5
1555
  8
SAPA_PROFIL
 10
73.510739940073336
 20
110.5396199124893
 30
0.0
 11
75.000000071147724
 21
111.3994446500578
 31
0.0
  0
LINE
  5
1556
  8
SAPA_PROFIL
 10
75.000000071147724
 20
111.3994446500578
 30
0.0
 11
75.450000071147542
 21
111.3994446500587
 31
0.0
  0
ARC
  5
1557
  8
SAPA_PROFIL
 10
75.450000071147542
 20
111.0994446500585
 30
0.0
 40
0.3000000000001819
 50
0.0
 51
90.0
  0
LINE
  5
1558
  8
SAPA_PROFIL
 10
75.750000071147724
 20
111.0994446500585
 30
0.0
 11
75.750000071147497
 21
107.4994326500596
 31
0.0
  0
ARC
  5
1559
  8
SAPA_PROFIL
 10
75.450000071146974
 20
107.49943265005901
 30
0.0
 40
0.300000000000523
 50
270.00000000010863
 51
0.0000000001085629
  0
LINE
  5
155A
  8
SAPA_PROFIL
 10
75.450000071147542
 20
107.1994326500585
 30
0.0
 11
75.000000071147724
 21
107.19944465005889
 31
0.0
  0
LINE
  5
155B
  8
SAPA_PROFIL
 10
75.000000071147724
 20
107.19944465005889
 30
0.0
 11
73.510769586606784
 21
108.0592522711945
 31
0.0
  0
ARC
  5
155C
  8
SAPA_PROFIL
 10
73.360769586608001
 20
107.7994446500591
 30
0.0
 40
0.2999999999994582
 50
60.000000000208523
 51
90.000000000206285
  0
LINE
  5
155D
  8
SAPA_PROFIL
 10
73.360769586606921
 20
108.0994446500585
 30
0.0
 11
72.774264139859724
 21
108.0994446500594
 31
0.0
  0
ARC
  5
155E
  8
SAPA_PROFIL
 10
72.774264139859923
 20
107.799444650059
 30
0.0
 40
0.3000000000004235
 50
90.000000000037986
 51
135.00000000005559
  0
LINE
  5
155F
  8
SAPA_PROFIL
 10
72.562132105503451
 20
108.0115766844151
 30
0.0
 11
71.257082852334406
 21
106.7065274312458
 31
0.0
  0
ARC
  5
1560
  8
SAPA_PROFIL
 10
71.964189633521315
 20
105.99942065005931
 30
0.0
 40
1.0000000000001981
 50
135.00000000001779
 51
269.9999999999992
  0
LINE
  5
1561
  8
SAPA_PROFIL
 10
71.9641896335213
 20
104.99942065005909
 30
0.0
 11
75.550000071148588
 21
104.99944465005819
 31
0.0
  0
ARC
  5
1562
  8
SAPA_PROFIL
 10
75.750000071148065
 20
104.99944465005819
 30
0.0
 40
0.199999999999477
 50
0.0
 51
180.0
  0
LINE
  5
1563
  8
SAPA_PROFIL
 10
75.950000071147542
 20
104.99944465005819
 30
0.0
 11
77.250000100697662
 21
104.99944465005819
 31
0.0
  0
ARC
  5
1564
  8
SAPA_PROFIL
 10
77.250000100553279
 20
105.9994446499142
 30
0.0
 40
0.9999999998560724
 50
270.00000000827248
 51
0.0000000084548812
  0
LINE
  5
1565
  8
SAPA_PROFIL
 10
78.250000100409352
 20
105.9994446500618
 30
0.0
 11
78.250000100409352
 21
106.99944465005819
 31
0.0
  0
ARC
  5
1566
  8
SAPA_PROFIL
 10
79.250000100409352
 20
106.99944465005819
 30
0.0
 40
1.0
 50
90.0
 51
180.0
  0
LINE
  5
1567
  8
SAPA_PROFIL
 10
79.250000100409352
 20
107.99944465005819
 30
0.0
 11
85.362929810370815
 21
107.99944465005819
 31
0.0
  0
ARC
  5
1568
  8
SAPA_PROFIL
 10
85.362929810371469
 20
106.99944465005871
 30
0.0
 40
0.9999999999995168
 50
25.00000000030564
 51
90.000000000038284
  0
LINE
  5
1569
  8
SAPA_PROFIL
 10
86.269237597405436
 20
107.42206291180401
 30
0.0
 11
88.062300835752012
 21
103.5768263883042
 31
0.0
  0
ARC
  5
156A
  8
SAPA_PROFIL
 10
88.968608622786803
 20
103.9994446500492
 30
0.0
 40
1.000000000000151
 50
205.0000000002706
 51
270.0000000000033
  0
LINE
  5
156B
  8
SAPA_PROFIL
 10
88.968608622786846
 20
102.9994446500491
 30
0.0
 11
92.017354096115241
 21
102.9994446500491
 31
0.0
  0
ARC
  5
156C
  8
SAPA_PROFIL
 10
92.017354096114715
 20
103.1994446500497
 30
0.0
 40
0.2000000000006139
 50
270.0000000001466
 51
29.10990894054698
  0
ARC
  5
156D
  8
SAPA_PROFIL
 10
95.250000071152584
 20
104.9994446500811
 30
0.0
 40
3.500000000005004
 50
184.91710033603559
 51
209.1099089403769
  0
LINE
  5
156E
  8
SAPA_PROFIL
 10
91.762880916317727
 20
104.6994446500498
 30
0.0
 11
90.500000071147724
 21
104.6994446500498
 31
0.0
  0
ARC
  5
156F
  8
SAPA_PROFIL
 10
90.500000071147724
 20
105.1994446500498
 30
0.0
 40
0.5
 50
180.0
 51
270.0
  0
LINE
  5
1570
  8
SAPA_PROFIL
 10
90.000000071147724
 20
105.1994446500498
 30
0.0
 11
90.000000071147724
 21
107.49944465005819
 31
0.0
  0
ARC
  5
1571
  8
SAPA_PROFIL
 10
90.500000071147724
 20
107.49944465005819
 30
0.0
 40
0.5
 50
90.0
 51
180.0
  0
LINE
  5
1572
  8
SAPA_PROFIL
 10
90.500000071147724
 20
107.99944465005819
 30
0.0
 11
93.447224433379461
 21
107.99944465005819
 31
0.0
  0
ARC
  5
1573
  8
SAPA_PROFIL
 10
95.250000071147724
 20
104.99944465007989
 30
0.0
 40
3.500000000000032
 50
58.997280865433652
 51
121.00271913456631
  0
LINE
  5
1574
  8
SAPA_PROFIL
 10
97.052775708915988
 20
107.99944465005819
 30
0.0
 11
103.4472244333794
 21
107.99944465005819
 31
0.0
  0
ARC
  5
1575
  8
SAPA_PROFIL
 10
105.2500000711477
 20
104.99944465007989
 30
0.0
 40
3.500000000000032
 50
58.997280865433652
 51
121.00271913456631
  0
LINE
  5
1576
  8
SAPA_PROFIL
 10
107.052775708916
 20
107.99944465005819
 30
0.0
 11
110.0000000711477
 21
107.99944465005819
 31
0.0
  0
ARC
  5
1577
  8
SAPA_PROFIL
 10
110.0000000711477
 20
107.49944465005819
 30
0.0
 40
0.5
 50
0.0
 51
90.0
  0
LINE
  5
1578
  8
SAPA_PROFIL
 10
110.5000000711477
 20
107.49944465005819
 30
0.0
 11
110.5000000711477
 21
105.1994446500498
 31
0.0
  0
ARC
  5
1579
  8
SAPA_PROFIL
 10
110.0000000711477
 20
105.1994446500498
 30
0.0
 40
0.5
 50
270.0
 51
0.0
  0
LINE
  5
157A
  8
SAPA_PROFIL
 10
110.0000000711477
 20
104.6994446500498
 30
0.0
 11
108.73711922597749
 21
104.69944465004799
 31
0.0
  0
ARC
  5
157B
  8
SAPA_PROFIL
 10
105.2500000711464
 20
104.9994446500823
 30
0.0
 40
3.5000000000014988
 50
330.89009105956842
 51
355.08289966390947
  0
ARC
  5
157C
  8
SAPA_PROFIL
 10
108.48264604617989
 20
103.1994446500499
 30
0.0
 40
0.2000000000008094
 50
150.89009105955029
 51
269.99999999995123
  0
LINE
  5
157D
  8
SAPA_PROFIL
 10
108.4826460461797
 20
102.9994446500491
 30
0.0
 11
111.5313915195086
 21
102.9994446500491
 31
0.0
  0
ARC
  5
157E
  8
SAPA_PROFIL
 10
111.53139151950759
 20
103.9994446500491
 30
0.0
 40
1.0000000000000711
 50
270.00000000005701
 51
334.99999999978928
  0
LINE
  5
157F
  8
SAPA_PROFIL
 10
112.4376993065427
 20
103.57682638830509
 30
0.0
 11
114.2307625448898
 21
107.4220629118031
 31
0.0
  0
ARC
  5
1580
  8
SAPA_PROFIL
 10
115.13707033192451
 20
106.999444650058
 30
0.0
 40
1.000000000000151
 50
89.999999999996746
 51
154.9999999997294
  0
LINE
  5
1581
  8
SAPA_PROFIL
 10
115.1370703319246
 20
107.99944465005819
 30
0.0
 11
131.45000007114751
 21
107.99944465005819
 31
0.0
  0
LINE
  5
1582
  8
SAPA_PROFIL
 10
131.45000007114751
 20
107.99944465005819
 30
0.0
 11
131.45000007114751
 21
106.49944465005819
 31
0.0
  0
LINE
  5
1583
  8
SAPA_PROFIL
 10
131.45000007114751
 20
106.49944465005819
 30
0.0
 11
132.2500000711477
 21
106.49944465005819
 31
0.0
  0
LINE
  5
1584
  8
SAPA_PROFIL
 10
132.2500000711477
 20
106.49944465005819
 30
0.0
 11
132.2500000711477
 21
107.99944465005819
 31
0.0
  0
LINE
  5
1585
  8
SAPA_PROFIL
 10
132.2500000711477
 20
107.99944465005819
 30
0.0
 11
133.95000007114751
 21
107.99944465005819
 31
0.0
  0
LINE
  5
1586
  8
SAPA_PROFIL
 10
133.95000007114751
 20
107.99944465005819
 30
0.0
 11
134.2500000711477
 21
83.39944465005965
 31
0.0
  0
LINE
  5
1587
  8
SAPA_PROFIL
 10
134.2500000711477
 20
83.39944465005965
 30
0.0
 11
132.55000007114739
 21
83.39944465005965
 31
0.0
  0
LINE
  5
1588
  8
SAPA_PROFIL
 10
132.55000007114739
 20
83.39944465005965
 30
0.0
 11
132.55000007114739
 21
85.399444650059635
 31
0.0
  0
LINE
  5
1589
  8
SAPA_PROFIL
 10
132.55000007114739
 20
85.399444650059635
 30
0.0
 11
131.7500000711477
 21
85.399444650059635
 31
0.0
  0
LINE
  5
158A
  8
SAPA_PROFIL
 10
131.7500000711477
 20
85.399444650059635
 30
0.0
 11
131.7500000711477
 21
81.249444650067289
 31
0.0
  0
ARC
  5
158B
  8
SAPA_PROFIL
 10
132.2500000711477
 20
81.249444650067289
 30
0.0
 40
0.5
 50
180.0
 51
270.0
  0
LINE
  5
158C
  8
SAPA_PROFIL
 10
132.2500000711477
 20
80.749444650067275
 30
0.0
 11
132.75000007112951
 21
80.749444650056375
 31
0.0
  0
LINE
  5
158D
  8
SAPA_PROFIL
 10
132.75000007112951
 20
80.749444650056375
 30
0.0
 11
132.75000007115091
 21
81.999444650030895
 31
0.0
  0
LINE
  5
158E
  8
SAPA_PROFIL
 10
132.75000007115091
 20
81.999444650030895
 30
0.0
 11
134.1500000711294
 21
81.999444650066366
 31
0.0
  0
ARC
  5
158F
  8
SAPA_PROFIL
 10
134.15000007112329
 20
81.699444650079926
 30
0.0
 40
0.2999999999864684
 50
359.99999999738088
 51
89.999999998838376
  0
LINE
  5
1590
  8
SAPA_PROFIL
 10
134.4500000711098
 20
81.699444650066198
 30
0.0
 11
134.45000007113731
 21
75.299444650062014
 31
0.0
  0
ARC
  5
1591
  8
SAPA_PROFIL
 10
134.1500000711471
 20
75.299444650079366
 30
0.0
 40
0.2999999999902343
 50
269.99999999814349
 51
359.9999999966862
  0
LINE
  5
1592
  8
SAPA_PROFIL
 10
134.1500000711373
 20
74.999444650089117
 30
0.0
 11
132.75000007115091
 21
74.999444650096393
 31
0.0
  0
LINE
  5
1593
  8
SAPA_PROFIL
 10
132.75000007115091
 20
74.999444650096393
 30
0.0
 11
132.75000007112951
 21
76.249444650070927
 31
0.0
  0
LINE
  5
1594
  8
SAPA_PROFIL
 10
132.75000007112951
 20
76.249444650070927
 30
0.0
 11
132.2500000711477
 21
76.249444650058194
 31
0.0
  0
ARC
  5
1595
  8
SAPA_PROFIL
 10
132.2500000711477
 20
75.749444650058194
 30
0.0
 40
0.5
 50
90.0
 51
180.0
  0
LINE
  5
1596
  8
SAPA_PROFIL
 10
131.7500000711477
 20
75.749444650058194
 30
0.0
 11
131.75000007114721
 21
72.749444650058194
 31
0.0
  0
ARC
  5
1597
  8
SAPA_PROFIL
 10
132.25000007114721
 20
72.749444650050904
 30
0.0
 40
0.5
 50
179.99999999916619
 51
270.0
  0
LINE
  5
1598
  8
SAPA_PROFIL
 10
132.25000007114721
 20
72.249444650050918
 30
0.0
 11
132.7500000711473
 21
72.249444650050918
 31
0.0
  0
LINE
  5
1599
  8
SAPA_PROFIL
 10
132.7500000711473
 20
72.249444650050918
 30
0.0
 11
132.75000007114679
 21
73.699444650048008
 31
0.0
  0
LINE
  5
159A
  8
SAPA_PROFIL
 10
132.75000007114679
 20
73.699444650048008
 30
0.0
 11
134.6000000711397
 21
73.699444650048008
 31
0.0
  0
ARC
  5
159B
  8
SAPA_PROFIL
 10
134.60000007112339
 20
73.399444650061355
 30
0.0
 40
0.2999999999866532
 50
359.9999999968951
 51
89.999999996895099
  0
LINE
  5
159C
  8
SAPA_PROFIL
 10
134.90000007110999
 20
73.399444650045098
 30
0.0
 11
134.9000000711392
 21
71.159252271188507
 31
0.0
  0
LINE
  5
159D
  8
SAPA_PROFIL
 10
134.9000000711392
 20
71.159252271188507
 30
0.0
 11
134.4500000711443
 21
70.89944465005965
 31
0.0
  0
LINE
  5
159E
  8
SAPA_PROFIL
 10
134.4500000711443
 20
70.89944465005965
 30
0.0
 11
134.4500000711443
 21
69.099444650049463
 31
0.0
  0
LINE
  5
159F
  8
SAPA_PROFIL
 10
134.4500000711443
 20
69.099444650049463
 30
0.0
 11
134.9000000711392
 21
68.839637028920606
 31
0.0
  0
LINE
  5
15A0
  8
SAPA_PROFIL
 10
134.9000000711392
 20
68.839637028920606
 30
0.0
 11
134.90000007113889
 21
66.599444650064925
 31
0.0
  0
ARC
  5
15A1
  8
SAPA_PROFIL
 10
134.60000007115281
 20
66.599444650076379
 30
0.0
 40
0.29999999998617
 50
269.99999999710678
 51
359.99999999781238
  0
LINE
  5
15A2
  8
SAPA_PROFIL
 10
134.6000000711376
 20
66.299444650090209
 30
0.0
 11
132.75000007114679
 21
66.299444650061105
 31
0.0
  0
LINE
  5
15A3
  8
SAPA_PROFIL
 10
132.75000007114679
 20
66.299444650061105
 30
0.0
 11
132.7500000711473
 21
67.749444650058194
 31
0.0
  0
LINE
  5
15A4
  8
SAPA_PROFIL
 10
132.7500000711473
 20
67.749444650058194
 30
0.0
 11
132.25000007114721
 21
67.749444650058194
 31
0.0
  0
ARC
  5
15A5
  8
SAPA_PROFIL
 10
132.25000007114721
 20
67.249444650058194
 30
0.0
 40
0.5
 50
90.0
 51
180.0
  0
LINE
  5
15A6
  8
SAPA_PROFIL
 10
131.75000007114721
 20
67.249444650058194
 30
0.0
 11
131.7500000711477
 21
65.499444650058194
 31
0.0
  0
ARC
  5
15A7
  8
SAPA_PROFIL
 10
132.2500000711477
 20
65.499444650058194
 30
0.0
 40
0.5
 50
180.0
 51
270.0
  0
LINE
  5
15A8
  8
SAPA_PROFIL
 10
132.2500000711477
 20
64.999444650058194
 30
0.0
 11
134.7500000711477
 21
64.999444650058194
 31
0.0
  0
ARC
  5
15A9
  8
SAPA_PROFIL
 10
134.7500000711477
 20
66.999444650058194
 30
0.0
 40
2.0
 50
270.0
 51
0.0
  0
LINE
  5
15AA
  8
SAPA_PROFIL
 10
136.7500000711477
 20
66.999444650058194
 30
0.0
 11
136.7500000711477
 21
124.6994446500544
 31
0.0
  0
ARC
  5
15AB
  8
SAPA_PROFIL
 10
136.45000007114751
 20
124.6994446500544
 30
0.0
 40
0.3000000000001819
 50
0.0
 51
90.0
  0
LINE
  5
15AC
  8
SAPA_PROFIL
 10
136.45000007114751
 20
124.9994446500545
 30
0.0
 11
75.950000071148679
 21
124.99944465005819
 31
0.0
  0
LINE
  5
15AD
  8
SAPA_PROFIL
 10
21.75000007113454
 20
122.69944465005889
 30
0.0
 11
21.75000007113454
 21
110.49944465005819
 31
0.0
  0
LINE
  5
15AE
  8
SAPA_PROFIL
 10
21.75000007113454
 20
110.49944465005819
 30
0.0
 11
-10.24999992886546
 21
110.49944465005819
 31
0.0
  0
LINE
  5
15AF
  8
SAPA_PROFIL
 10
-10.24999992886546
 20
110.49944465005819
 30
0.0
 11
-10.24999992886546
 21
122.69944465005889
 31
0.0
  0
LINE
  5
15B0
  8
SAPA_PROFIL
 10
-10.24999992886546
 20
122.69944465005889
 30
0.0
 11
21.75000007113454
 21
122.69944465005889
 31
0.0
  0
ARC
  5
15B1
  8
SAPA_PROFIL
 10
24.75000007113454
 20
112.0994446500585
 30
0.0
 40
1.0
 50
180.0
 51
270.0
  0
LINE
  5
15B2
  8
SAPA_PROFIL
 10
23.75000007113454
 20
112.0994446500585
 30
0.0
 11
23.75000007113454
 21
121.0994446500585
 31
0.0
  0
ARC
  5
15B3
  8
SAPA_PROFIL
 10
24.75000007113454
 20
121.0994446500585
 30
0.0
 40
1.0
 50
90.0
 51
180.0
  0
LINE
  5
15B4
  8
SAPA_PROFIL
 10
24.75000007113454
 20
122.0994446500585
 30
0.0
 11
27.250000106536621
 21
122.0994446500585
 31
0.0
  0
LINE
  5
15B5
  8
SAPA_PROFIL
 10
27.250000106536621
 20
122.0994446500585
 30
0.0
 11
27.250000106536621
 21
122.69944465005889
 31
0.0
  0
LINE
  5
15B6
  8
SAPA_PROFIL
 10
27.250000106536621
 20
122.69944465005889
 30
0.0
 11
44.750000106536611
 21
122.69944465005889
 31
0.0
  0
LINE
  5
15B7
  8
SAPA_PROFIL
 10
44.750000106536611
 20
122.69944465005889
 30
0.0
 11
44.750000106536611
 21
110.49944465005819
 31
0.0
  0
LINE
  5
15B8
  8
SAPA_PROFIL
 10
44.750000106536611
 20
110.49944465005819
 30
0.0
 11
27.250000106536621
 21
110.49944465005819
 31
0.0
  0
LINE
  5
15B9
  8
SAPA_PROFIL
 10
27.250000106536621
 20
110.49944465005819
 30
0.0
 11
27.250000106536621
 21
111.0994446500585
 31
0.0
  0
LINE
  5
15BA
  8
SAPA_PROFIL
 10
27.250000106536621
 20
111.0994446500585
 30
0.0
 11
24.75000007113454
 21
111.0994446500585
 31
0.0
  0
LINE
  5
15BB
  8
SAPA_PROFIL
 10
13.50000007114909
 20
104.6994446500498
 30
0.0
 11
14.76288091631954
 21
104.6994446500498
 31
0.0
  0
ARC
  5
15BC
  8
SAPA_PROFIL
 10
18.250000071149781
 20
104.9994446500811
 30
0.0
 40
3.5000000000003921
 50
184.91710033604329
 51
209.10990894042021
  0
ARC
  5
15BD
  8
SAPA_PROFIL
 10
15.01735409611692
 20
103.1994446500499
 30
0.0
 40
0.2000000000007938
 50
270.00000000003922
 51
29.109908940461469
  0
LINE
  5
15BE
  8
SAPA_PROFIL
 10
15.01735409611706
 20
102.9994446500491
 30
0.0
 11
11.968608622788681
 21
102.9994446500491
 31
0.0
  0
ARC
  5
15BF
  8
SAPA_PROFIL
 10
11.96860862278945
 20
103.9994446500495
 30
0.0
 40
1.0000000000004261
 50
205.00000000022359
 51
269.999999999956
  0
LINE
  5
15C0
  8
SAPA_PROFIL
 10
11.06230083575406
 20
103.57682638830509
 30
0.0
 11
9.2692375974067982
 21
107.42206291180401
 31
0.0
  0
ARC
  5
15C1
  8
SAPA_PROFIL
 10
8.3629298103728367
 20
106.99944465005861
 30
0.0
 40
0.999999999999527
 50
25.00000000030612
 51
90.000000000037645
  0
LINE
  5
15C2
  8
SAPA_PROFIL
 10
8.3629298103721794
 20
107.99944465005819
 30
0.0
 11
-7.9499999288507288
 21
107.99944465005819
 31
0.0
  0
LINE
  5
15C3
  8
SAPA_PROFIL
 10
-7.9499999288507288
 20
107.99944465005819
 30
0.0
 11
-7.9499999288507288
 21
106.49944465005819
 31
0.0
  0
LINE
  5
15C4
  8
SAPA_PROFIL
 10
-7.9499999288507288
 20
106.49944465005819
 30
0.0
 11
-8.7499999288504569
 21
106.49944465005819
 31
0.0
  0
LINE
  5
15C5
  8
SAPA_PROFIL
 10
-8.7499999288504569
 20
106.49944465005819
 30
0.0
 11
-8.7499999288504569
 21
107.99944465005819
 31
0.0
  0
LINE
  5
15C6
  8
SAPA_PROFIL
 10
-8.7499999288504569
 20
107.99944465005819
 30
0.0
 11
-10.44999992885073
 21
107.99944465005819
 31
0.0
  0
LINE
  5
15C7
  8
SAPA_PROFIL
 10
-10.44999992885073
 20
107.99944465005819
 30
0.0
 11
-10.74999992885045
 21
83.39944465005965
 31
0.0
  0
LINE
  5
15C8
  8
SAPA_PROFIL
 10
-10.74999992885045
 20
83.39944465005965
 30
0.0
 11
-9.0499999288506388
 21
83.39944465005965
 31
0.0
  0
LINE
  5
15C9
  8
SAPA_PROFIL
 10
-9.0499999288506388
 20
83.39944465005965
 30
0.0
 11
-9.0499999288506388
 21
85.399444650059635
 31
0.0
  0
LINE
  5
15CA
  8
SAPA_PROFIL
 10
-9.0499999288506388
 20
85.399444650059635
 30
0.0
 11
-8.2499999288504569
 21
85.399444650059635
 31
0.0
  0
LINE
  5
15CB
  8
SAPA_PROFIL
 10
-8.2499999288504569
 20
85.399444650059635
 30
0.0
 11
-8.2499999288504569
 21
81.249444650067289
 31
0.0
  0
ARC
  5
15CC
  8
SAPA_PROFIL
 10
-8.7499999288504302
 20
81.249444650067247
 30
0.0
 40
0.4999999999999734
 50
269.99999999999687
 51
0.0000000000032569
  0
LINE
  5
15CD
  8
SAPA_PROFIL
 10
-8.7499999288504569
 20
80.749444650067275
 30
0.0
 11
-9.2499999288327217
 21
80.749444650056375
 31
0.0
  0
LINE
  5
15CE
  8
SAPA_PROFIL
 10
-9.2499999288327217
 20
80.749444650056375
 30
0.0
 11
-9.2499999288540948
 21
81.999444650030895
 31
0.0
  0
LINE
  5
15CF
  8
SAPA_PROFIL
 10
-9.2499999288540948
 20
81.999444650030895
 30
0.0
 11
-10.649999928832811
 21
81.99944465006547
 31
0.0
  0
ARC
  5
15D0
  8
SAPA_PROFIL
 10
-10.649999928826841
 20
81.699444650079769
 30
0.0
 40
0.2999999999856868
 50
90.000000001139554
 51
180.00000000259459
  0
LINE
  5
15D1
  8
SAPA_PROFIL
 10
-10.949999928812529
 20
81.699444650066198
 30
0.0
 11
-10.949999928840271
 21
75.299444650061105
 31
0.0
  0
ARC
  5
15D2
  8
SAPA_PROFIL
 10
-10.64999992885059
 20
75.299444650078783
 30
0.0
 40
0.2999999999896801
 50
180.000000003379
 51
270.00000000191881
  0
LINE
  5
15D3
  8
SAPA_PROFIL
 10
-10.64999992884054
 20
74.999444650089117
 30
0.0
 11
-9.2499999288540948
 21
74.999444650096393
 31
0.0
  0
LINE
  5
15D4
  8
SAPA_PROFIL
 10
-9.2499999288540948
 20
74.999444650096393
 30
0.0
 11
-9.2499999288327217
 21
76.249444650070927
 31
0.0
  0
LINE
  5
15D5
  8
SAPA_PROFIL
 10
-9.2499999288327217
 20
76.249444650070927
 30
0.0
 11
-8.7499999288504569
 21
76.249444650058194
 31
0.0
  0
ARC
  5
15D6
  8
SAPA_PROFIL
 10
-8.7499999288504604
 20
75.749444650058194
 30
0.0
 40
0.5
 50
0.0
 51
89.999999999999588
  0
LINE
  5
15D7
  8
SAPA_PROFIL
 10
-8.2499999288504569
 20
75.749444650058194
 30
0.0
 11
-8.2499999288504569
 21
72.749444650058194
 31
0.0
  0
ARC
  5
15D8
  8
SAPA_PROFIL
 10
-8.7499999288504497
 20
72.749444650050904
 30
0.0
 40
0.4999999999999929
 50
269.9999999999992
 51
0.0000000008337633
  0
LINE
  5
15D9
  8
SAPA_PROFIL
 10
-8.7499999288504569
 20
72.249444650050918
 30
0.0
 11
-9.2499999288504569
 21
72.249444650050918
 31
0.0
  0
LINE
  5
15DA
  8
SAPA_PROFIL
 10
-9.2499999288504569
 20
72.249444650050918
 30
0.0
 11
-9.2499999288500021
 21
73.699444650048008
 31
0.0
  0
LINE
  5
15DB
  8
SAPA_PROFIL
 10
-9.2499999288500021
 20
73.699444650048008
 30
0.0
 11
-11.09999992884263
 21
73.699444650048008
 31
0.0
  0
ARC
  5
15DC
  8
SAPA_PROFIL
 10
-11.099999928826479
 20
73.399444650061241
 30
0.0
 40
0.2999999999867668
 50
90.000000003084509
 51
180.00000000308319
  0
LINE
  5
15DD
  8
SAPA_PROFIL
 10
-11.39999992881326
 20
73.399444650045098
 30
0.0
 11
-11.399999928841909
 21
71.159252271188507
 31
0.0
  0
LINE
  5
15DE
  8
SAPA_PROFIL
 10
-11.399999928841909
 20
71.159252271188507
 30
0.0
 11
-10.949999928847539
 21
70.89944465005965
 31
0.0
  0
LINE
  5
15DF
  8
SAPA_PROFIL
 10
-10.949999928847539
 20
70.89944465005965
 30
0.0
 11
-10.949999928847539
 21
69.099444650049463
 31
0.0
  0
LINE
  5
15E0
  8
SAPA_PROFIL
 10
-10.949999928847539
 20
69.099444650049463
 30
0.0
 11
-11.399999928841909
 21
68.839637028920606
 31
0.0
  0
LINE
  5
15E1
  8
SAPA_PROFIL
 10
-11.399999928841909
 20
68.839637028920606
 30
0.0
 11
-11.399999928841909
 21
66.599444650064015
 31
0.0
  0
ARC
  5
15E2
  8
SAPA_PROFIL
 10
-11.099999928856271
 20
66.599444650075824
 30
0.0
 40
0.2999999999856371
 50
180.0000000022581
 51
270.00000000295148
  0
LINE
  5
15E3
  8
SAPA_PROFIL
 10
-11.099999928840811
 20
66.299444650090209
 30
0.0
 11
-9.2499999288500021
 21
66.299444650061105
 31
0.0
  0
LINE
  5
15E4
  8
SAPA_PROFIL
 10
-9.2499999288500021
 20
66.299444650061105
 30
0.0
 11
-9.2499999288504569
 21
67.749444650058194
 31
0.0
  0
LINE
  5
15E5
  8
SAPA_PROFIL
 10
-9.2499999288504569
 20
67.749444650058194
 30
0.0
 11
-8.7499999288504569
 21
67.749444650058194
 31
0.0
  0
ARC
  5
15E6
  8
SAPA_PROFIL
 10
-8.7499999288504426
 20
67.249444650058209
 30
0.0
 40
0.4999999999999858
 50
359.99999999999841
 51
90.000000000001606
  0
LINE
  5
15E7
  8
SAPA_PROFIL
 10
-8.2499999288504569
 20
67.249444650058194
 30
0.0
 11
-8.2499999288504569
 21
65.499444650058194
 31
0.0
  0
ARC
  5
15E8
  8
SAPA_PROFIL
 10
-8.7499999288504622
 20
65.499444650058194
 30
0.0
 40
0.5000000000000071
 50
270.0000000000008
 51
0.0
  0
LINE
  5
15E9
  8
SAPA_PROFIL
 10
-8.7499999288504569
 20
64.999444650058194
 30
0.0
 11
-11.24999992885046
 21
64.999444650058194
 31
0.0
  0
ARC
  5
15EA
  8
SAPA_PROFIL
 10
-11.249999928850549
 20
66.999444650058095
 30
0.0
 40
1.9999999999999001
 50
179.9999999999971
 51
270.00000000000267
  0
LINE
  5
15EB
  8
SAPA_PROFIL
 10
-13.24999992885045
 20
66.999444650058194
 30
0.0
 11
-13.24999992885091
 21
124.69944465005889
 31
0.0
  0
ARC
  5
15EC
  8
SAPA_PROFIL
 10
-12.94999992884526
 20
124.6994446500489
 30
0.0
 40
0.3000000000056531
 50
90.000000000176399
 51
179.99999999808651
  0
LINE
  5
15ED
  8
SAPA_PROFIL
 10
-12.94999992884618
 20
124.9994446500545
 30
0.0
 11
47.550000071148361
 21
124.99944465005819
 31
0.0
  0
ARC
  5
15EE
  8
SAPA_PROFIL
 10
47.750000071148399
 20
124.9994446500563
 30
0.0
 40
0.2000000000000455
 50
179.99999999947889
 51
359.99999999947892
  0
LINE
  5
15EF
  8
SAPA_PROFIL
 10
47.950000071148452
 20
124.9994446500545
 30
0.0
 11
51.535810508775512
 21
124.99946865005541
 31
0.0
  0
ARC
  5
15F0
  8
SAPA_PROFIL
 10
51.535810508775512
 20
123.99946865005531
 30
0.0
 40
1.000000000000099
 50
315.00000000000398
 51
90.0
  0
LINE
  5
15F1
  8
SAPA_PROFIL
 10
52.242917289962179
 20
123.2923618688687
 30
0.0
 11
50.937868036793361
 21
121.98731261569939
 31
0.0
  0
ARC
  5
15F2
  8
SAPA_PROFIL
 10
50.725736002437991
 20
122.19944465005599
 30
0.0
 40
0.2999999999999692
 50
269.99999999982771
 51
314.9999999998455
  0
LINE
  5
15F3
  8
SAPA_PROFIL
 10
50.725736002437088
 20
121.899444650056
 30
0.0
 11
50.139230555690339
 21
121.899444650056
 31
0.0
  0
ARC
  5
15F4
  8
SAPA_PROFIL
 10
50.139230555690851
 20
122.19944465005629
 30
0.0
 40
0.3000000000003382
 50
239.99999999990609
 51
269.99999999990359
  0
LINE
  5
15F5
  8
SAPA_PROFIL
 10
49.989230555690263
 20
121.9396370289209
 30
0.0
 11
48.500000071149088
 21
122.79944465005561
 31
0.0
  0
LINE
  5
15F6
  8
SAPA_PROFIL
 10
48.500000071149088
 20
122.79944465005561
 30
0.0
 11
48.05000007114927
 21
122.799456650056
 31
0.0
  0
ARC
  5
15F7
  8
SAPA_PROFIL
 10
48.050000071149718
 20
122.49945665005539
 30
0.0
 40
0.3000000000006224
 50
90.000000000085493
 51
180.0000000000895
  0
LINE
  5
15F8
  8
SAPA_PROFIL
 10
47.750000071149088
 20
122.499456650055
 30
0.0
 11
47.750000071149543
 21
118.899444650056
 31
0.0
  0
ARC
  5
15F9
  8
SAPA_PROFIL
 10
48.050000071149952
 20
118.8994446500553
 30
0.0
 40
0.3000000000004093
 50
179.99999999986969
 51
269.99999999986971
  0
LINE
  5
15FA
  8
SAPA_PROFIL
 10
48.05000007114927
 20
118.59944465005491
 30
0.0
 11
48.500000071149543
 21
118.59944465005491
 31
0.0
  0
LINE
  5
15FB
  8
SAPA_PROFIL
 10
48.500000071149543
 20
118.59944465005491
 30
0.0
 11
49.989260202223477
 21
119.4592693876252
 31
0.0
  0
ARC
  5
15FC
  8
SAPA_PROFIL
 10
50.13926020222101
 20
119.1994617664888
 30
0.0
 40
0.2999999999997226
 50
90.003646866930069
 51
119.9999999994881
  0
LINE
  5
15FD
  8
SAPA_PROFIL
 10
50.139241107270429
 20
119.4994617658808
 30
0.0
 11
50.250000071149088
 21
119.4994688156725
 31
0.0
  0
LINE
  5
15FE
  8
SAPA_PROFIL
 10
50.250000071149088
 20
119.4994688156725
 30
0.0
 11
50.250000071148627
 21
117.8777568135679
 31
0.0
  0
ARC
  5
15FF
  8
SAPA_PROFIL
 10
49.250000071148961
 20
117.877756813568
 30
0.0
 40
0.999999999999666
 50
299.9999999999888
 51
359.99999999999022
  0
LINE
  5
1600
  8
SAPA_PROFIL
 10
49.750000071148627
 20
117.01173140978381
 30
0.0
 11
48.250000071149081
 21
116.1457060059997
 31
0.0
  0
ARC
  5
1601
  8
SAPA_PROFIL
 10
48.750000071148769
 20
115.27968060221539
 30
0.0
 40
0.9999999999996759
 50
119.9999999999895
 51
179.99999999999019
  0
LINE
  5
1602
  8
SAPA_PROFIL
 10
47.750000071149088
 20
115.27968060221561
 30
0.0
 11
47.750000071149088
 21
114.71920869789891
 31
0.0
  0
ARC
  5
1603
  8
SAPA_PROFIL
 10
48.750000071148769
 20
114.71920869789911
 30
0.0
 40
0.9999999999996801
 50
180.00000000000969
 51
240.0000000000104
  0
LINE
  5
1604
  8
SAPA_PROFIL
 10
48.250000071149081
 20
113.8531832941148
 30
0.0
 11
49.750000071148627
 21
112.9871578903289
 31
0.0
  0
ARC
  5
1605
  8
SAPA_PROFIL
 10
49.250000071149202
 20
112.1211324865443
 30
0.0
 40
0.999999999999884
 50
0.0000000000317547
 51
60.000000000033772
  0
LINE
  5
1606
  8
SAPA_PROFIL
 10
50.250000071149088
 20
112.12113248654479
 30
0.0
 11
50.250000071149088
 21
110.499420484442
 31
0.0
  0
LINE
  5
1607
  8
SAPA_PROFIL
 10
50.250000071149088
 20
110.499420484442
 30
0.0
 11
50.139241107270429
 21
110.4994275342319
 31
0.0
  0
ARC
  5
1608
  8
SAPA_PROFIL
 10
50.13926020222442
 20
110.79942753362479
 30
0.0
 40
0.3000000000006333
 50
239.99999999986329
 51
269.99635313242129
  0
LINE
  5
1609
  8
SAPA_PROFIL
 10
49.989260202223477
 20
110.5396199124893
 30
0.0
 11
48.500000071149543
 21
111.3994446500578
 31
0.0
  0
LINE
  5
160A
  8
SAPA_PROFIL
 10
48.500000071149543
 20
111.3994446500578
 30
0.0
 11
48.05000007114927
 21
111.39944465005961
 31
0.0
  0
ARC
  5
160B
  8
SAPA_PROFIL
 10
48.050000071149952
 20
111.0994446500592
 30
0.0
 40
0.3000000000004093
 50
90.000000000130271
 51
180.0000000001302
  0
LINE
  5
160C
  8
SAPA_PROFIL
 10
47.750000071149543
 20
111.0994446500585
 30
0.0
 11
47.750000071149088
 21
107.4994326500596
 31
0.0
  0
ARC
  5
160D
  8
SAPA_PROFIL
 10
48.050000071149718
 20
107.49943265005911
 30
0.0
 40
0.3000000000006295
 50
179.99999999991039
 51
269.99999999991451
  0
LINE
  5
160E
  8
SAPA_PROFIL
 10
48.05000007114927
 20
107.1994326500585
 30
0.0
 11
48.500000071149088
 21
107.19944465005889
 31
0.0
  0
LINE
  5
160F
  8
SAPA_PROFIL
 10
48.500000071149088
 20
107.19944465005889
 30
0.0
 11
49.989230555690263
 21
108.0592522711936
 31
0.0
  0
ARC
  5
1610
  8
SAPA_PROFIL
 10
50.139230555690851
 20
107.79944465005821
 30
0.0
 40
0.3000000000003395
 50
90.000000000096335
 51
120.00000000009381
  0
LINE
  5
1611
  8
SAPA_PROFIL
 10
50.139230555690339
 20
108.0994446500585
 30
0.0
 11
50.725736002437088
 21
108.0994446500585
 31
0.0
  0
ARC
  5
1612
  8
SAPA_PROFIL
 10
50.725736002437991
 20
107.7994446500586
 30
0.0
 40
0.2999999999999687
 50
45.000000000154493
 51
90.000000000172349
  0
LINE
  5
1613
  8
SAPA_PROFIL
 10
50.937868036793361
 20
108.0115766844151
 30
0.0
 11
52.242917289962179
 21
106.7065274312458
 31
0.0
  0
ARC
  5
1614
  8
SAPA_PROFIL
 10
51.535810508775512
 20
105.99942065005921
 30
0.0
 40
1.0000000000000979
 50
270.0
 51
44.999999999995971
  0
LINE
  5
1615
  8
SAPA_PROFIL
 10
51.535810508775512
 20
104.99942065005909
 30
0.0
 11
47.950000071148452
 21
104.99944465005819
 31
0.0
  0
ARC
  5
1616
  8
SAPA_PROFIL
 10
47.750000071148847
 20
104.99944465005819
 30
0.0
 40
0.1999999999995907
 50
0.0
 51
180.0
  0
LINE
  5
1617
  8
SAPA_PROFIL
 10
47.55000007114927
 20
104.99944465005819
 30
0.0
 11
46.250000041599598
 21
104.99944465005819
 31
0.0
  0
ARC
  5
1618
  8
SAPA_PROFIL
 10
46.250000041743633
 20
105.9994446499143
 30
0.0
 40
0.9999999998561577
 50
179.99999999155
 51
269.99999999174833
  0
LINE
  5
1619
  8
SAPA_PROFIL
 10
45.250000041887461
 20
105.9994446500618
 30
0.0
 11
45.250000041887461
 21
106.99944465005819
 31
0.0
  0
ARC
  5
161A
  8
SAPA_PROFIL
 10
44.250000041887461
 20
106.99944465005819
 30
0.0
 40
1.0
 50
0.0
 51
90.0
  0
LINE
  5
161B
  8
SAPA_PROFIL
 10
44.250000041887461
 20
107.99944465005819
 30
0.0
 11
38.137070331926452
 21
107.99944465005819
 31
0.0
  0
ARC
  5
161C
  8
SAPA_PROFIL
 10
38.137070331925791
 20
106.99944465005871
 30
0.0
 40
0.9999999999995168
 50
89.999999999962142
 51
154.9999999996945
  0
LINE
  5
161D
  8
SAPA_PROFIL
 10
37.230762544891832
 20
107.42206291180401
 30
0.0
 11
35.43769930654458
 21
103.57682638830509
 31
0.0
  0
ARC
  5
161E
  8
SAPA_PROFIL
 10
34.531391519509192
 20
103.9994446500495
 30
0.0
 40
1.000000000000427
 50
270.00000000004388
 51
334.99999999977632
  0
LINE
  5
161F
  8
SAPA_PROFIL
 10
34.531391519509953
 20
102.9994446500491
 30
0.0
 11
31.482646046181571
 21
102.9994446500491
 31
0.0
  0
ARC
  5
1620
  8
SAPA_PROFIL
 10
31.482646046181699
 20
103.1994446500499
 30
0.0
 40
0.2000000000007844
 50
150.8900910595373
 51
269.99999999996328
  0
ARC
  5
1621
  8
SAPA_PROFIL
 10
28.250000071148829
 20
104.9994446500811
 30
0.0
 40
3.5000000000004081
 50
330.8900910595799
 51
355.08289966395671
  0
LINE
  5
1622
  8
SAPA_PROFIL
 10
31.73711922597909
 20
104.6994446500498
 30
0.0
 11
33.000000071149088
 21
104.6994446500498
 31
0.0
  0
ARC
  5
1623
  8
SAPA_PROFIL
 10
33.000000071149088
 20
105.1994446500498
 30
0.0
 40
0.5
 50
270.0
 51
0.0
  0
LINE
  5
1624
  8
SAPA_PROFIL
 10
33.500000071149088
 20
105.1994446500498
 30
0.0
 11
33.500000071149088
 21
107.49944465005819
 31
0.0
  0
ARC
  5
1625
  8
SAPA_PROFIL
 10
33.000000071149088
 20
107.49944465005819
 30
0.0
 40
0.5
 50
0.0
 51
90.0
  0
LINE
  5
1626
  8
SAPA_PROFIL
 10
33.000000071149088
 20
107.99944465005819
 30
0.0
 11
30.05277570891781
 21
107.99944465005819
 31
0.0
  0
ARC
  5
1627
  8
SAPA_PROFIL
 10
28.250000071149319
 20
104.99944465008009
 30
0.0
 40
3.4999999999999671
 50
58.997280865428657
 51
121.00271913457129
  0
LINE
  5
1628
  8
SAPA_PROFIL
 10
26.447224433380821
 20
107.99944465005819
 30
0.0
 11
20.05277570891781
 21
107.99944465005819
 31
0.0
  0
ARC
  5
1629
  8
SAPA_PROFIL
 10
18.250000071149309
 20
104.99944465008009
 30
0.0
 40
3.4999999999999671
 50
58.997280865428657
 51
121.00271913457129
  0
LINE
  5
162A
  8
SAPA_PROFIL
 10
16.447224433380821
 20
107.99944465005819
 30
0.0
 11
13.50000007114909
 21
107.99944465005819
 31
0.0
  0
ARC
  5
162B
  8
SAPA_PROFIL
 10
13.50000007114909
 20
107.49944465005819
 30
0.0
 40
0.5
 50
90.0
 51
180.0
  0
LINE
  5
162C
  8
SAPA_PROFIL
 10
13.00000007114909
 20
107.49944465005819
 30
0.0
 11
13.00000007114909
 21
105.1994446500498
 31
0.0
  0
ARC
  5
162D
  8
SAPA_PROFIL
 10
13.50000007114909
 20
105.1994446500498
 30
0.0
 40
0.5
 50
180.0
 51
270.0
  0
ARC
  5
162E
  8
SAPA_PROFIL
 62
     4
 10
50.125833223888357
 20
119.2494446825624
 30
0.0
 40
0.3000000000003382
 50
90.000000000094985
 51
120.0000000000926
  0
LINE
  5
162F
  8
SAPA_PROFIL
 62
     4
 10
49.975833223887768
 20
119.50925230369781
 30
0.0
 11
48.48660268304252
 21
118.649444650056
 31
0.0
  0
LINE
  5
1630
  8
SAPA_PROFIL
 62
     4
 10
48.48660268304252
 20
118.649444650056
 30
0.0
 11
48.050000142664203
 21
118.649444650056
 31
0.0
  0
ARC
  5
1631
  8
SAPA_PROFIL
 62
     4
 10
48.050000142664203
 20
118.899444650056
 30
0.0
 40
0.25
 50
180.0
 51
270.0
  0
LINE
  5
1632
  8
SAPA_PROFIL
 62
     4
 10
47.800000142664203
 20
118.899444650056
 30
0.0
 11
47.800000142663741
 21
122.499456650055
 31
0.0
  0
ARC
  5
1633
  8
SAPA_PROFIL
 62
     4
 10
48.050000142663741
 20
122.499456650055
 30
0.0
 40
0.2499999999999929
 50
89.999999999998366
 51
180.0
  0
LINE
  5
1634
  8
SAPA_PROFIL
 62
     4
 10
48.050000142663748
 20
122.749456650055
 30
0.0
 11
48.486602064242327
 21
122.7494450073204
 31
0.0
  0
LINE
  5
1635
  8
SAPA_PROFIL
 62
     4
 10
48.486602064242327
 20
122.7494450073204
 30
0.0
 11
49.975833111280053
 21
121.889637061427
 31
0.0
  0
ARC
  5
1636
  8
SAPA_PROFIL
 62
     4
 10
50.12583311128062
 20
122.1494446825623
 30
0.0
 40
0.3000000000002515
 50
239.99999999990271
 51
269.99999999990911
  0
LINE
  5
1637
  8
SAPA_PROFIL
 62
     4
 10
50.125833111280151
 20
121.84944468256209
 30
0.0
 11
73.374167102531601
 21
121.84944468256209
 31
0.0
  0
ARC
  5
1638
  8
SAPA_PROFIL
 62
     4
 10
73.374167102531118
 20
122.1494446825623
 30
0.0
 40
0.3000000000002529
 50
270.0000000000922
 51
300.00000000009851
  0
LINE
  5
1639
  8
SAPA_PROFIL
 62
     4
 10
73.524167102531692
 20
121.889637061427
 30
0.0
 11
75.013398149569412
 21
122.7494450073204
 31
0.0
  0
LINE
  5
163A
  8
SAPA_PROFIL
 62
     4
 10
75.013398149569412
 20
122.7494450073204
 30
0.0
 11
75.450000071147542
 21
122.749456650055
 31
0.0
  0
ARC
  5
163B
  8
SAPA_PROFIL
 62
     4
 10
75.450000071147542
 20
122.499456650055
 30
0.0
 40
0.25
 50
0.0
 51
90.0
  0
LINE
  5
163C
  8
SAPA_PROFIL
 62
     4
 10
75.700000071147542
 20
122.499456650055
 30
0.0
 11
75.700000071147542
 21
118.899444650056
 31
0.0
  0
ARC
  5
163D
  8
SAPA_PROFIL
 62
     4
 10
75.450000071147542
 20
118.899444650056
 30
0.0
 40
0.25
 50
270.0
 51
0.0
  0
LINE
  5
163E
  8
SAPA_PROFIL
 62
     4
 10
75.450000071147542
 20
118.649444650056
 30
0.0
 11
75.013397530769225
 21
118.649444650056
 31
0.0
  0
LINE
  5
163F
  8
SAPA_PROFIL
 62
     4
 10
75.013397530769225
 20
118.649444650056
 30
0.0
 11
73.52416698992397
 21
119.50925230369781
 31
0.0
  0
ARC
  5
1640
  8
SAPA_PROFIL
 62
     4
 10
73.374166989923381
 20
119.2494446825624
 30
0.0
 40
0.300000000000336
 50
59.99999999990731
 51
89.999999999905015
  0
LINE
  5
1641
  8
SAPA_PROFIL
 62
     4
 10
73.374166989923879
 20
119.54944468256279
 30
0.0
 11
50.125833223887867
 21
119.54944468256279
 31
0.0
  0
DIMENSION
  5
165D
  8
SAPA_MATT
  2
*D14
 10
-8.2499998573221127
 20
20.999444650058191
 30
0.0
 11
-10.74999985732916
 21
20.999444650058191
 31
0.0
 70
   128
 13
-13.249999857336199
 23
66.999444650058194
 33
0.0
 14
-8.2499998573221092
 24
65.499444650056375
 34
0.0
1001
ACAD
1000
DSTYLE
1002
{
1070
    40
1040
1.0
1002
}
  0
DIMENSION
  5
165E
  8
SAPA_MATT
  2
*D13
 10
-42.749999857356208
 20
59.999444650057747
 30
0.0
 11
-45.249999857356222
 21
62.49944465005796
 31
0.0
 70
     0
 13
-11.249999857335981
 23
64.999444650058194
 33
0.0
 14
-3.699999857852617
 24
59.99944465005774
 34
0.0
 50
270.0
1001
ACAD
1000
DSTYLE
1002
{
1070
   287
1070
     4
1070
    40
1040
1.0
1070
   279
1070
     1
1002
}
  0
DIMENSION
  5
165F
  8
SAPA_MATT
  2
*D12
 10
-42.749999785608907
 20
64.999444650058209
 30
0.0
 11
-45.249999785608907
 21
94.999444650057285
 31
0.0
 70
     0
 13
-12.94999985733102
 23
124.9994446500563
 33
0.0
 14
-11.249999857336199
 24
64.999444650058194
 34
0.0
 50
270.0
1001
ACAD
1000
DSTYLE
1002
{
1070
    40
1040
1.0
1002
}
  0
DIMENSION
  5
1660
  8
SAPA_MATT
  2
*D11
 10
-54.749999785608907
 20
124.9994446500564
 30
0.0
 11
-57.249999785608928
 21
92.499444650057058
 31
0.0
 70
     0
 13
-3.699999857852617
 23
59.99944465005774
 33
0.0
 14
-12.94999985733102
 24
124.9994446500563
 34
0.0
 50
270.0
1001
ACAD
1000
DSTYLE
1002
{
1070
    40
1040
1.0
1002
}
  0
DIMENSION
  5
1661
  8
SAPA_MATT
  2
*D10
 10
54.750000142383222
 20
20.999444650058191
 30
0.0
 11
23.250000142523621
 21
23.499444650058191
 31
0.0
 70
     0
 13
-8.2499998573359772
 23
65.499444650056375
 33
0.0
 14
54.750000142383222
 24
65.6674481120574
 34
0.0
1001
ACAD
1000
DSTYLE
1002
{
1070
   287
1070
     4
1070
    40
1040
1.0
1070
   279
1070
     1
1002
}
  0
DIMENSION
  5
1662
  8
SAPA_MATT
  2
*D9
 10
136.7500001426622
 20
20.999444650058191
 30
0.0
 11
100.1077353641858
 21
21.7599577988683
 31
0.0
 70
   128
 13
54.750000142383222
 23
65.6674481120574
 33
0.0
 14
136.7500001426622
 24
66.999444650058194
 34
0.0
1001
ACAD
1000
DSTYLE
1002
{
1070
   287
1070
     4
1070
    40
1040
1.0
1070
   279
1070
     1
1002
}
  0
DIMENSION
  5
1663
  8
SAPA_MATT
  2
*D8
 10
-13.24999992885046
 20
8.9994446500581944
 30
0.0
 11
61.750000071148641
 21
8.9994446500581944
 31
0.0
 70
   128
 13
136.75000007114789
 23
66.999444650058194
 33
0.0
 14
-13.24999992885045
 24
66.999444650058194
 34
0.0
 50
180.0
1001
ACAD
1000
DSTYLE
1002
{
1070
    40
1040
1.0
1002
}
  0
VIEWPORT
  5
C4
 67
     1
  8
0
 10
160.5543545598442
 20
116.00969601843509
 30
0.0
 40
404.96977709277462
 41
256.8421457311839
 68
     1
 69
     1
1001
ACAD
1000
MVIEW
1002
{
1070
    16
1010
0.0
1020
0.0
1030
0.0
1010
0.0
1020
0.0
1030
1.0
1040
0.0
1040
256.8421457311839
1040
160.5543545598442
1040
116.00969601843509
1040
50.0
1040
0.0
1040
0.0
1070
     0
1070
   100
1070
     1
1070
     1
1070
     0
1070
     0
1070
     0
1070
     0
1040
0.0
1040
0.0
1040
0.0
1040
10.0
1040
10.0
1040
10.0
1040
10.0
1070
     0
1002
{
1002
}
1002
}
  0
ENDSEC
  0
EOF
