  0
SECTION
  2
HEADER
  9
$ACADVER
  1
AC1009
  9
$INSBASE
 10
0.0
 20
0.0
 30
0.0
  9
$EXTMIN
 10
-0.0000000000000049
 20
-44.619466477045989
 30
-0.2
  9
$EXTMAX
 10
152.43760658613519
 20
205.00325593441309
 30
0.0000000048844772
  9
$LIMMIN
 10
0.0
 20
0.0
  9
$LIMMAX
 10
790.0
 20
790.0
  9
$ORTHOMODE
 70
     0
  9
$REGENMODE
 70
     1
  9
$FILLMODE
 70
     1
  9
$QTEXTMODE
 70
     0
  9
$MIRRTEXT
 70
     1
  9
$DRAGMODE
 70
     2
  9
$LTSCALE
 40
4.0
  9
$OSMODE
 70
   167
  9
$ATTMODE
 70
     1
  9
$TEXTSIZE
 40
3.5
  9
$TRACEWID
 40
0.05
  9
$TEXTSTYLE
  7
ISO
  9
$CLAYER
  8
0
  9
$CELTYPE
  6
BYLAYER
  9
$CECOLOR
 62
   256
  9
$DIMSCALE
 40
0.0
  9
$DIMASZ
 40
3.0
  9
$DIMEXO
 40
1.5
  9
$DIMDLI
 40
10.0
  9
$DIMRND
 40
0.0
  9
$DIMDLE
 40
0.0
  9
$DIMEXE
 40
1.5
  9
$DIMTP
 40
0.0
  9
$DIMTM
 40
0.0
  9
$DIMTXT
 40
3.0
  9
$DIMCEN
 40
-5.0
  9
$DIMTSZ
 40
0.0
  9
$DIMTOL
 70
     0
  9
$DIMLIM
 70
     0
  9
$DIMTIH
 70
     0
  9
$DIMTOH
 70
     0
  9
$DIMSE1
 70
     0
  9
$DIMSE2
 70
     0
  9
$DIMTAD
 70
     1
  9
$DIMZIN
 70
     8
  9
$DIMBLK
  1

  9
$DIMASO
 70
     1
  9
$DIMSHO
 70
     1
  9
$DIMPOST
  1

  9
$DIMAPOST
  1

  9
$DIMALT
 70
     0
  9
$DIMALTD
 70
     0
  9
$DIMALTF
 40
25.399999999999999
  9
$DIMLFAC
 40
-1.0
  9
$DIMTOFL
 70
     1
  9
$DIMTVP
 40
0.0
  9
$DIMTIX
 70
     0
  9
$DIMSOXD
 70
     0
  9
$DIMSAH
 70
     0
  9
$DIMBLK1
  1

  9
$DIMBLK2
  1

  9
$DIMSTYLE
  2
MASKIN
  9
$DIMCLRD
 70
   256
  9
$DIMCLRE
 70
   256
  9
$DIMCLRT
 70
     2
  9
$DIMTFAC
 40
1.0
  9
$DIMGAP
 40
1.0
  9
$LUNITS
 70
     2
  9
$LUPREC
 70
     8
  9
$SKETCHINC
 40
0.1
  9
$FILLETRAD
 40
0.0
  9
$AUNITS
 70
     0
  9
$AUPREC
 70
     8
  9
$MENU
  1
ACAD
  9
$ELEVATION
 40
0.0
  9
$PELEVATION
 40
0.0
  9
$THICKNESS
 40
0.0
  9
$LIMCHECK
 70
     0
  9
$BLIPMODE
 70
     0
  9
$CHAMFERA
 40
0.0
  9
$CHAMFERB
 40
0.0
  9
$SKPOLY
 70
     0
  9
$TDCREATE
 40
2458299.4382186462
  9
$TDUPDATE
 40
2458302.6530445828
  9
$TDINDWG
 40
0.0951949653
  9
$TDUSRTIMER
 40
0.0951947338
  9
$USRTIMER
 70
     1
  9
$ANGBASE
 50
0.0
  9
$ANGDIR
 70
     0
  9
$PDMODE
 70
     0
  9
$PDSIZE
 40
0.0
  9
$PLINEWID
 40
0.0
  9
$COORDS
 70
     1
  9
$SPLFRAME
 70
     0
  9
$SPLINETYPE
 70
     6
  9
$SPLINESEGS
 70
     8
  9
$ATTDIA
 70
     1
  9
$ATTREQ
 70
     1
  9
$HANDLING
 70
     1
  9
$HANDSEED
  5
23F1
  9
$SURFTAB1
 70
     6
  9
$SURFTAB2
 70
     6
  9
$SURFTYPE
 70
     6
  9
$SURFU
 70
     6
  9
$SURFV
 70
     6
  9
$UCSNAME
  2

  9
$UCSORG
 10
0.0
 20
0.0
 30
0.0
  9
$UCSXDIR
 10
1.0
 20
0.0
 30
0.0
  9
$UCSYDIR
 10
0.0
 20
1.0
 30
0.0
  9
$PUCSNAME
  2

  9
$PUCSORG
 10
0.0
 20
0.0
 30
0.0
  9
$PUCSXDIR
 10
1.0
 20
0.0
 30
0.0
  9
$PUCSYDIR
 10
0.0
 20
1.0
 30
0.0
  9
$USERI1
 70
     0
  9
$USERI2
 70
     0
  9
$USERI3
 70
     0
  9
$USERI4
 70
     0
  9
$USERI5
 70
     0
  9
$USERR1
 40
0.0
  9
$USERR2
 40
0.0
  9
$USERR3
 40
0.0
  9
$USERR4
 40
0.0
  9
$USERR5
 40
0.0
  9
$WORLDVIEW
 70
     1
  9
$SHADEDGE
 70
     3
  9
$SHADEDIF
 70
    70
  9
$TILEMODE
 70
     1
  9
$MAXACTVP
 70
    32
  9
$PLIMCHECK
 70
     0
  9
$PEXTMIN
 10
1.0000000000000000E+020
 20
1.0000000000000000E+020
 30
1.0000000000000000E+020
  9
$PEXTMAX
 10
-1.0000000000000000E+020
 20
-1.0000000000000000E+020
 30
-1.0000000000000000E+020
  9
$PLIMMIN
 10
-5.069427490234375
 20
-5.8737497329711914
  9
$PLIMMAX
 10
291.89889526367187
 20
204.0995779037475
  9
$UNITMODE
 70
     0
  9
$VISRETAIN
 70
     1
  9
$PLINEGEN
 70
     0
  9
$PSLTSCALE
 70
     1
  0
ENDSEC
  0
SECTION
  2
TABLES
  0
TABLE
  2
VPORT
 70
     1
  0
VPORT
  2
*ACTIVE
 70
     0
 10
0.0
 20
0.0
 11
1.0
 21
1.0
 12
76.240711128412158
 22
209.91997674078809
 13
0.0
 23
0.0
 14
1.0
 24
1.0
 15
0.0
 25
0.0
 16
0.0
 26
0.0
 36
1.0
 17
0.0
 27
0.0
 37
0.0
 40
354.8695781578067
 41
1.7265193370165739
 42
50.0
 43
0.0
 44
0.0
 50
0.0
 51
0.0
 71
     0
 72
   100
 73
     1
 74
     1
 75
     0
 76
     0
 77
     0
 78
     0
  0
ENDTAB
  0
TABLE
  2
LTYPE
 70
     1
  0
LTYPE
  2
CONTINUOUS
 70
     0
  3
Solid line
 72
    65
 73
     0
 40
0.0
  0
ENDTAB
  0
TABLE
  2
LAYER
 70
    23
  0
LAYER
  2
0
 70
     0
 62
     7
  6
CONTINUOUS
  0
LAYER
  2
DEFPOINTS
 70
     0
 62
     7
  6
CONTINUOUS
  0
LAYER
  2
SAPA_ARTIKELNR
 70
     0
 62
     4
  6
CONTINUOUS
  0
LAYER
  2
SAPA_ANSLUTNING
 70
     0
 62
     6
  6
CONTINUOUS
  0
LAYER
  2
SAPA_GLAS
 70
     0
 62
     4
  6
CONTINUOUS
  0
LAYER
  2
SAPA_FOGBAND
 70
     0
 62
     2
  6
CONTINUOUS
  0
LAYER
  2
SAPA_PROFIL
 70
     0
 62
     7
  6
CONTINUOUS
  0
LAYER
  2
SAPA_MATT
 70
     0
 62
     1
  6
CONTINUOUS
  0
ENDTAB
  0
TABLE
  2
STYLE
 70
     2
  0
STYLE
  2
STANDARD
 70
     0
 40
0.0
 41
1.0
 50
0.0
 71
     0
 42
0.2
  3
txt
  4

  0
STYLE
  2
ISO
 70
     0
 40
0.0
 41
1.0
 50
0.0
 71
     0
 42
3.5
  3
txt
  4

  0
ENDTAB
  0
TABLE
  2
VIEW
 70
     0
  0
ENDTAB
  0
TABLE
  2
UCS
 70
     0
  0
ENDTAB
  0
TABLE
  2
APPID
 70
    22
  0
APPID
  2
ACAD
 70
     0
  0
APPID
  2
ACAD_DSTYLE_DIMTEXT_FILL
 70
     0
  0
APPID
  2
ACAD_DSTYLE_DIMEXT_LENGTH
 70
     0
  0
APPID
  2
ACAD_DSTYLE_DIMEXT_ENABLED
 70
     0
  0
APPID
  2
ACAD_DSTYLE_DIM_LINETYPE
 70
     0
  0
APPID
  2
ACAD_DSTYLE_DIM_EXT1_LINETYPE
 70
     0
  0
APPID
  2
ACAD_DSTYLE_DIM_EXT2_LINETYPE
 70
     0
  0
APPID
  2
ACAD_DSTYLE_DIMJOGGED_JOGA
 70
     0
  0
APPID
  2
ACAD_DSTYLE_DIMARC_LENGTH_
 70
     0
  0
APPID
  2
ACAD_PSEXT
 70
     0
  0
APPID
  2
ACAD_MLEADERVER
 70
     0
  0
APPID
  2
ACAD_NAV_VCDISPLAY
 70
     0
  0
APPID
  2
GENIUS_GENODEF_13
 70
     0
  0
APPID
  2
RC_PROFILE
 70
     0
  0
APPID
  2
ACAECLAYERSTANDARD
 70
     0
  0
APPID
  2
GENIUS_GENOBJ-N-FIL_13
 70
     0
  0
APPID
  2
GENIUS_GENREC_14
 70
     0
  0
APPID
  2
GENIUS_GENOBJ-N-REC_13
 70
     0
  0
APPID
  2
ACCMTRANSPARENCY
 70
     0
  0
APPID
  2
GRADIENTCOLOR1ACI
 70
     0
  0
APPID
  2
GRADIENTCOLOR2ACI
 70
     0
  0
APPID
  2
ACAD_EXEMPT_FROM_CAD_STANDARDS
 70
     0
  0
ENDTAB
  0
TABLE
  2
DIMSTYLE
 70
     2
  0
DIMSTYLE
  2
STANDARD
 70
     0
  3

  4

  5

  6

  7

 40
1.0
 41
0.18
 42
0.0625
 43
0.38
 44
0.18
 45
0.0
 46
0.0
 47
0.0
 48
0.0
140
0.18
141
0.09
142
0.0
143
25.399999999999999
144
1.0
145
0.0
146
1.0
147
0.09
 71
     0
 72
     0
 73
     1
 74
     1
 75
     0
 76
     0
 77
     0
 78
     0
170
     0
171
     2
172
     0
173
     0
174
     0
175
     0
176
     0
177
     0
178
     0
  0
DIMSTYLE
  2
MASKIN
 70
     0
  3

  4

  5

  6

  7

 40
0.0
 41
3.0
 42
1.5
 43
10.0
 44
1.5
 45
0.0
 46
0.0
 47
0.0
 48
0.0
140
3.0
141
-5.0
142
0.0
143
25.399999999999999
144
-1.0
145
0.0
146
1.0
147
1.0
 71
     0
 72
     0
 73
     0
 74
     0
 75
     0
 76
     0
 77
     1
 78
     8
170
     0
171
     0
172
     1
173
     0
174
     0
175
     0
176
   256
177
   256
178
     2
  0
ENDTAB
  0
ENDSEC
  0
SECTION
  2
BLOCKS
  0
BLOCK
  8
0
  2
$MODEL_SPACE
 70
     0
 10
0.0
 20
0.0
 30
0.0
  3
$MODEL_SPACE
  1

  0
ENDBLK
  5
37
  8
0
  0
BLOCK
 67
     1
  8
0
  2
$PAPER_SPACE
 70
     0
 10
0.0
 20
0.0
 30
0.0
  3
$PAPER_SPACE
  1

  0
ENDBLK
  5
35
 67
     1
  8
0
  0
BLOCK
  8
0
  2
*D8
 70
     1
 10
0.0
 20
0.0
 30
0.0
  3
*D8
  1

  0
LINE
  5
21EA
  8
SAPA_MATT
 10
74.50055534994226
 20
149.9999999996339
 30
0.0
 11
152.43760658613519
 21
149.9999999996339
 31
0.0
  0
LINE
  5
21EB
  8
SAPA_MATT
 10
74.50055534994226
 20
-0.0000000003644804
 30
0.0
 11
152.43760658613519
 21
-0.0000000003645025
 31
0.0
  0
LINE
  5
21EC
  8
SAPA_MATT
 10
150.93760658613519
 20
146.9999999996339
 30
0.0
 11
150.93760658613519
 21
2.9999999996354978
 31
0.0
  0
SOLID
  5
21ED
  8
SAPA_MATT
 10
150.43760658613519
 20
146.9999999996339
 30
0.0
 11
151.43760658613519
 21
146.9999999996339
 31
0.0
 12
150.93760658613519
 22
149.9999999996339
 32
0.0
 13
150.93760658613519
 23
149.9999999996339
 33
0.0
  0
SOLID
  5
21EE
  8
SAPA_MATT
 10
150.43760658613519
 20
2.9999999996354978
 30
0.0
 11
151.43760658613519
 21
2.9999999996354969
 31
0.0
 12
150.93760658613519
 22
-0.0000000003645021
 32
0.0
 13
150.93760658613519
 23
-0.0000000003645021
 33
0.0
  0
INSERT
  5
21EF
  8
0
  2
*U20
 10
0.0
 20
0.0
 30
0.0
  0
POINT
  5
21F0
  8
DEFPOINTS
 62
     0
 10
73.00055534994226
 20
149.9999999996339
 30
0.0
  0
POINT
  5
21F1
  8
DEFPOINTS
 62
     0
 10
73.00055534994226
 20
-0.00000000036448
 30
0.0
  0
POINT
  5
21F2
  8
DEFPOINTS
 62
     0
 10
150.93760658613519
 20
-0.0000000003645021
 30
0.0
  0
ENDBLK
  5
2162
  8
0
  0
BLOCK
  8
0
  2
*D9
 70
     1
 10
0.0
 20
0.0
 30
0.0
  3
*D9
  1

  0
LINE
  5
2353
  8
SAPA_MATT
 10
75.832551887943282
 20
68.000000070869191
 30
0.0
 11
135.1962117748721
 21
68.000000070869177
 31
0.0
  0
LINE
  5
2354
  8
SAPA_MATT
 10
74.50055534994226
 20
150.00000007114809
 30
0.0
 11
135.1962117748721
 21
150.00000007114809
 31
0.0
  0
LINE
  5
2355
  8
SAPA_MATT
 10
133.6962117748721
 20
71.000000070869177
 30
0.0
 11
133.6962117748721
 21
147.00000007114821
 31
0.0
  0
TEXT
  8
SAPA_MATT
  40
3
  5
236C
  62
2
  72
0
  71
0
 10
125.196
 20
103.690
 30
0.000000
  1
82
  7
ISO
  0
SOLID
  5
2357
  8
SAPA_MATT
 10
133.1962117748721
 20
71.000000070869177
 30
0.0
 11
134.1962117748721
 21
71.000000070869177
 31
0.0
 12
133.6962117748721
 22
68.000000070869177
 32
0.0
 13
133.6962117748721
 23
68.000000070869177
 33
0.0
  0
SOLID
  5
2358
  8
SAPA_MATT
 10
133.1962117748721
 20
147.00000007114821
 30
0.0
 11
134.1962117748721
 21
147.00000007114821
 31
0.0
 12
133.6962117748721
 22
150.00000007114809
 32
0.0
 13
133.6962117748721
 23
150.00000007114809
 33
0.0
  0
POINT
  5
2359
  8
DEFPOINTS
 62
     0
 10
74.332551887943282
 20
68.000000070869191
 30
0.0
  0
POINT
  5
235A
  8
DEFPOINTS
 62
     0
 10
73.00055534994226
 20
150.00000007114809
 30
0.0
  0
POINT
  5
235B
  8
DEFPOINTS
 62
     0
 10
133.6962117748721
 20
150.00000007114809
 30
0.0
  0
ENDBLK
  5
216E
  8
0
  0
BLOCK
  8
0
  2
*D10
 70
     1
 10
0.0
 20
0.0
 30
0.0
  3
*D10
  1

  0
LINE
  5
234A
  8
SAPA_MATT
 10
91.500555349947248
 20
8.0000000714724138
 30
0.0
 11
135.1962117748721
 21
8.0000000714723996
 31
0.0
  0
LINE
  5
234B
  8
SAPA_MATT
 10
75.832551887943282
 20
68.000000070869191
 30
0.0
 11
135.1962117748721
 21
68.000000070869177
 31
0.0
  0
LINE
  5
234C
  8
SAPA_MATT
 10
133.6962117748721
 20
11.0000000714724
 30
0.0
 11
133.6962117748721
 21
65.000000070869163
 31
0.0
  0
SOLID
  5
234D
  8
SAPA_MATT
 10
133.1962117748721
 20
11.0000000714724
 30
0.0
 11
134.1962117748721
 21
11.0000000714724
 31
0.0
 12
133.6962117748721
 22
8.0000000714723996
 32
0.0
 13
133.6962117748721
 23
8.0000000714723996
 33
0.0
  0
SOLID
  5
234E
  8
SAPA_MATT
 10
133.1962117748721
 20
65.000000070869163
 30
0.0
 11
134.1962117748721
 21
65.000000070869163
 31
0.0
 12
133.6962117748721
 22
68.000000070869177
 32
0.0
 13
133.6962117748721
 23
68.000000070869177
 33
0.0
  0
TEXT
  8
SAPA_MATT
  40
3
  5
236D
  62
2
  72
0
  71
0
 10
125.196
 20
32.6900
 30
0.000000
  1
60
  7
ISO
  0
POINT
  5
2350
  8
DEFPOINTS
 62
     0
 10
90.000555349947277
 20
8.0000000714724138
 30
0.0
  0
POINT
  5
2351
  8
DEFPOINTS
 62
     0
 10
74.332551887943282
 20
68.000000070869191
 30
0.0
  0
POINT
  5
2352
  8
DEFPOINTS
 62
     0
 10
133.6962117748721
 20
68.000000070869177
 30
0.0
  0
ENDBLK
  5
217A
  8
0
  0
BLOCK
  8
0
  2
*D11
 70
     1
 10
0.0
 20
0.0
 30
0.0
  3
*D11
  1

  0
LINE
  5
21CF
  8
SAPA_MATT
 10
74.50055534994226
 20
-0.0000000718796404
 30
0.0
 11
135.19621177487261
 21
-0.0000000718796576
 31
0.0
  0
LINE
  5
21D0
  8
SAPA_MATT
 10
91.500555349947248
 20
7.999999928456873
 30
0.0
 11
135.19621177487261
 21
7.9999999284568597
 31
0.0
  0
LINE
  5
21D1
  8
SAPA_MATT
 10
133.69621177487261
 20
2.9999999281203422
 30
0.0
 11
133.69621177487261
 21
4.9999999284568606
 31
0.0
  0
SOLID
  5
21D2
  8
SAPA_MATT
 10
133.19621177487261
 20
2.9999999281203422
 30
0.0
 11
134.19621177487261
 21
2.9999999281203422
 31
0.0
 12
133.69621177487261
 22
-0.0000000718796572
 32
0.0
 13
133.69621177487261
 23
-0.0000000718796572
 33
0.0
  0
SOLID
  5
21D3
  8
SAPA_MATT
 10
133.19621177487261
 20
4.9999999284568606
 30
0.0
 11
134.19621177487261
 21
4.9999999284568597
 31
0.0
 12
133.69621177487261
 22
7.9999999284568606
 32
0.0
 13
133.69621177487261
 23
7.9999999284568606
 33
0.0
  0
INSERT
  5
21D4
  8
0
  2
*U19
 10
0.0
 20
0.0
 30
0.0
  0
POINT
  5
21D5
  8
DEFPOINTS
 62
     0
 10
73.00055534994226
 20
-0.00000007187964
 30
0.0
  0
POINT
  5
21D6
  8
DEFPOINTS
 62
     0
 10
90.000555349947277
 20
7.999999928456873
 30
0.0
  0
POINT
  5
21D7
  8
DEFPOINTS
 62
     0
 10
133.69621177487261
 20
7.9999999284568606
 30
0.0
  0
ENDBLK
  5
2186
  8
0
  0
BLOCK
  8
0
  2
*D12
 70
     1
 10
0.0
 20
0.0
 30
0.0
  3
*D12
  1

  0
LINE
  5
21C6
  8
SAPA_MATT
 10
106.50055534995811
 20
8.0499999291691893
 30
0.0
 11
106.50055534995811
 21
-42.999999857122923
 31
0.0
  0
LINE
  5
21C7
  8
SAPA_MATT
 10
15.000555349944079
 20
-1.1999999288450449
 30
0.0
 11
15.000555349944079
 21
-42.999999857122923
 31
0.0
  0
LINE
  5
21C8
  8
SAPA_MATT
 10
103.50055534995811
 20
-41.49999985712293
 30
0.0
 11
18.000555349944079
 21
-41.49999985712293
 31
0.0
  0
SOLID
  5
21C9
  8
SAPA_MATT
 10
103.50055534995811
 20
-40.99999985712293
 30
0.0
 11
103.50055534995811
 21
-41.99999985712293
 31
0.0
 12
106.50055534995811
 22
-41.49999985712293
 32
0.0
 13
106.50055534995811
 23
-41.49999985712293
 33
0.0
  0
SOLID
  5
21CA
  8
SAPA_MATT
 10
18.000555349944079
 20
-40.99999985712293
 30
0.0
 11
18.000555349944079
 21
-41.99999985712293
 31
0.0
 12
15.000555349944079
 22
-41.49999985712293
 32
0.0
 13
15.000555349944079
 23
-41.49999985712293
 33
0.0
  0
INSERT
  5
21CB
  8
0
  2
*U18
 10
0.0
 20
0.0
 30
0.0
  0
POINT
  5
21CC
  8
DEFPOINTS
 62
     0
 10
106.50055534995811
 20
9.5499999291691893
 30
0.0
  0
POINT
  5
21CD
  8
DEFPOINTS
 62
     0
 10
15.000555349944079
 20
0.3000000711549546
 30
0.0
  0
POINT
  5
21CE
  8
DEFPOINTS
 62
     0
 10
15.000555349944079
 20
-41.49999985712293
 30
0.0
  0
ENDBLK
  5
2192
  8
0
  0
BLOCK
  8
0
  2
*D13
 70
     1
 10
0.0
 20
0.0
 30
0.0
  3
*D13
  1

  0
LINE
  5
21BD
  8
SAPA_MATT
 10
15.000555349944079
 20
-1.1999999288450449
 30
0.0
 11
15.000555349944079
 21
-30.99999985712293
 31
0.0
  0
LINE
  5
21BE
  8
SAPA_MATT
 10
75.00055534994226
 20
0.5000000711497706
 30
0.0
 11
75.00055534994226
 21
-30.99999985712293
 31
0.0
  0
LINE
  5
21BF
  8
SAPA_MATT
 10
18.000555349944079
 20
-29.49999985712293
 30
0.0
 11
72.00055534994226
 21
-29.49999985712293
 31
0.0
  0
SOLID
  5
21C0
  8
SAPA_MATT
 10
18.000555349944079
 20
-28.99999985712293
 30
0.0
 11
18.000555349944079
 21
-29.99999985712293
 31
0.0
 12
15.000555349944079
 22
-29.49999985712293
 32
0.0
 13
15.000555349944079
 23
-29.49999985712293
 33
0.0
  0
SOLID
  5
21C1
  8
SAPA_MATT
 10
72.00055534994226
 20
-28.99999985712293
 30
0.0
 11
72.00055534994226
 21
-29.99999985712293
 31
0.0
 12
75.00055534994226
 22
-29.49999985712293
 32
0.0
 13
75.00055534994226
 23
-29.49999985712293
 33
0.0
  0
INSERT
  5
21C2
  8
0
  2
*U17
 10
0.0
 20
0.0
 30
0.0
  0
POINT
  5
21C3
  8
DEFPOINTS
 62
     0
 10
15.000555349944079
 20
0.3000000711549546
 30
0.0
  0
POINT
  5
21C4
  8
DEFPOINTS
 62
     0
 10
75.00055534994226
 20
2.0000000711497701
 30
0.0
  0
POINT
  5
21C5
  8
DEFPOINTS
 62
     0
 10
75.00055534994226
 20
-29.49999985712293
 30
0.0
  0
ENDBLK
  5
219E
  8
0
  0
BLOCK
  8
0
  2
*D14
 70
     1
 10
0.0
 20
0.0
 30
0.0
  3
*D14
  1

  0
LINE
  5
2341
  8
SAPA_MATT
 10
75.00055534994226
 20
0.5000000711499979
 30
0.0
 11
75.00055534994226
 21
-30.999999928870238
 31
0.0
  0
LINE
  5
2342
  8
SAPA_MATT
 10
106.50055534995811
 20
8.0499999291691893
 30
0.0
 11
106.50055534995811
 21
-30.999999928870238
 31
0.0
  0
LINE
  5
2343
  8
SAPA_MATT
 10
78.00055534994226
 20
-29.499999928870238
 30
0.0
 11
103.50055534995811
 21
-29.499999928870238
 31
0.0
  0
SOLID
  5
2344
  8
SAPA_MATT
 10
78.00055534994226
 20
-28.999999928870238
 30
0.0
 11
78.00055534994226
 21
-29.999999928870238
 31
0.0
 12
75.00055534994226
 22
-29.499999928870238
 32
0.0
 13
75.00055534994226
 23
-29.499999928870238
 33
0.0
  0
SOLID
  5
2345
  8
SAPA_MATT
 10
103.50055534995811
 20
-28.999999928870238
 30
0.0
 11
103.50055534995811
 21
-29.999999928870238
 31
0.0
 12
106.50055534995811
 22
-29.499999928870238
 32
0.0
 13
106.50055534995811
 23
-29.499999928870238
 33
0.0
  0
TEXT
  8
SAPA_MATT
  40
3
  5
236E
  62
2
  72
0
  71
0
 10
84.7506
 20
-32.3100
 30
0.000000
  1
31.5
  7
ISO
  0
POINT
  5
2347
  8
DEFPOINTS
 62
     0
 10
75.00055534994226
 20
2.000000071149997
 30
0.0
  0
POINT
  5
2348
  8
DEFPOINTS
 62
     0
 10
106.50055534995811
 20
9.5499999291691893
 30
0.0
  0
POINT
  5
2349
  8
DEFPOINTS
 62
     0
 10
106.50055534995811
 20
-29.499999928870238
 30
0.0
  0
ENDBLK
  5
21AA
  8
0
  0
BLOCK
  8
0
  2
*X15
 70
     1
 10
0.0
 20
0.0
 30
0.0
  3
*X15
  1

  0
LINE
  5
224D
  8
0
 62
     0
 10
63.329370200914738
 20
150.0352218253517
 30
0.0
 11
63.364592093635729
 21
149.99999993263069
 31
0.0
  0
LINE
  5
224E
  8
0
 62
     0
 10
64.276738139878645
 20
150.21038590152139
 30
0.0
 11
64.487124100963925
 21
149.9999999404362
 31
0.0
  0
LINE
  5
224F
  8
0
 62
     0
 10
65.110816228148934
 20
150.4988398283848
 30
0.0
 11
65.609656108292143
 21
149.99999994824159
 31
0.0
  0
LINE
  5
2250
  8
0
 62
     0
 10
65.850667429278076
 20
150.88152064238929
 30
0.0
 11
66.732188115620346
 21
149.99999995604699
 31
0.0
  0
LINE
  5
2251
  8
0
 62
     0
 10
66.504867488173005
 20
151.34985259862799
 30
0.0
 11
67.854720122948549
 21
149.9999999638525
 31
0.0
  0
LINE
  5
2252
  8
0
 62
     0
 10
67.075339173285869
 20
151.90191292864881
 30
0.0
 11
68.977252130276753
 21
149.9999999716579
 31
0.0
  0
LINE
  5
2253
  8
0
 62
     0
 10
67.558090144487238
 20
152.5416939725811
 30
0.0
 11
70.099784137604956
 21
149.99999997946341
 31
0.0
  0
LINE
  5
2254
  8
0
 62
     0
 10
67.941632569608075
 20
153.28068356259391
 30
0.0
 11
71.222316144933146
 21
149.99999998726881
 31
0.0
  0
LINE
  5
2255
  8
0
 62
     0
 10
68.201325326170419
 20
154.14352282116519
 30
0.0
 11
72.344848152261363
 21
149.99999999507421
 31
0.0
  0
LINE
  5
2256
  8
0
 62
     0
 10
68.280477646876989
 20
155.18690251559229
 30
0.0
 11
73.5420907184523
 21
149.92528944401701
 31
0.0
  0
LINE
  5
2257
  8
0
 62
     0
 10
63.467380234714561
 20
159.99999992775469
 30
0.0
 11
63.526710121201383
 21
159.94067004126791
 31
0.0
  0
LINE
  5
2258
  8
0
 62
     0
 10
67.988178405550087
 20
156.6017337720528
 30
0.0
 11
74.29365980494336
 21
150.2962523726595
 31
0.0
  0
LINE
  5
2259
  8
0
 62
     0
 10
64.589912249848197
 20
159.99999992775469
 30
0.0
 11
65.072372271675036
 21
159.51753990592789
 31
0.0
  0
LINE
  5
225A
  8
0
 62
     0
 10
65.712444264981841
 20
159.99999992775469
 30
0.0
 11
74.175954049537992
 21
151.53649014319859
 31
0.0
  0
LINE
  5
225B
  8
0
 62
     0
 10
66.834976280115484
 20
159.99999992775469
 30
0.0
 11
74.120388797058638
 21
152.71458741081159
 31
0.0
  0
LINE
  5
225C
  8
0
 62
     0
 10
67.957508295249113
 20
159.99999992775469
 30
0.0
 11
74.118129641088885
 21
153.83937858191501
 31
0.0
  0
LINE
  5
225D
  8
0
 62
     0
 10
69.08004031038277
 20
159.99999992775469
 30
0.0
 11
74.162518038908075
 21
154.91752219922941
 31
0.0
  0
LINE
  5
225E
  8
0
 62
     0
 10
70.202572325516414
 20
159.99999992775469
 30
0.0
 11
74.248391140960791
 21
155.95418111231029
 31
0.0
  0
LINE
  5
225F
  8
0
 62
     0
 10
71.325104340650057
 20
159.99999992775469
 30
0.0
 11
74.37165419017029
 21
156.95345007823451
 31
0.0
  0
LINE
  5
2260
  8
0
 62
     0
 10
72.4476363557837
 20
159.99999992775469
 30
0.0
 11
74.528999429092039
 21
157.91863685444639
 31
0.0
  0
LINE
  5
2261
  8
0
 62
     0
 10
73.570168370917344
 20
159.99999992775469
 30
0.0
 11
74.717714429618425
 21
158.8524538690537
 31
0.0
  0
LINE
  5
2262
  8
0
 62
     0
 10
74.692700386050987
 20
159.99999992775469
 30
0.0
 11
74.935547348563176
 21
159.75715296524251
 31
0.0
  0
LINE
  5
2263
  8
0
 62
     0
 10
74.119143437210383
 20
149.65793868698711
 30
0.0
 11
74.346225853756096
 21
149.88502110353281
 31
0.0
  0
LINE
  5
2264
  8
0
 62
     0
 10
73.313963876652963
 20
149.97529114156339
 30
0.0
 11
74.229600930305224
 21
150.89092819521559
 31
0.0
  0
LINE
  5
2265
  8
0
 62
     0
 10
72.216140714135292
 20
149.99999999417929
 30
0.0
 11
74.15105627119874
 21
151.9349155512428
 31
0.0
  0
LINE
  5
2266
  8
0
 62
     0
 10
71.093608691196209
 20
149.99999998637389
 30
0.0
 11
74.114859401523631
 21
153.02125069670129
 31
0.0
  0
LINE
  5
2267
  8
0
 62
     0
 10
69.971076668257126
 20
149.9999999785685
 30
0.0
 11
74.126411616634442
 21
154.15533492694581
 31
0.0
  0
LINE
  5
2268
  8
0
 62
     0
 10
68.848544645318043
 20
149.99999997076301
 30
0.0
 11
74.192712173777494
 21
155.34416749922241
 31
0.0
  0
LINE
  5
2269
  8
0
 62
     0
 10
67.72601262237896
 20
149.99999996295759
 30
0.0
 11
74.323103599498282
 21
156.5970909400769
 31
0.0
  0
LINE
  5
226A
  8
0
 62
     0
 10
66.603480599439877
 20
149.99999995515211
 30
0.0
 11
74.530540052300182
 21
157.9270594080125
 31
0.0
  0
LINE
  5
226B
  8
0
 62
     0
 10
65.480948576500765
 20
149.99999994734659
 30
0.0
 11
74.833914427328295
 21
159.35296579817421
 31
0.0
  0
LINE
  5
226C
  8
0
 62
     0
 10
68.104888608774303
 20
153.7464719947539
 30
0.0
 11
74.358416541775199
 21
159.9999999277548
 31
0.0
  0
LINE
  5
226D
  8
0
 62
     0
 10
64.35841655356171
 20
149.9999999395412
 30
0.0
 11
64.697185579394215
 21
150.33876896537379
 31
0.0
  0
LINE
  5
226E
  8
0
 62
     0
 10
68.284144344078939
 20
155.0482597451921
 30
0.0
 11
73.235884526641556
 21
159.99999992775469
 31
0.0
  0
LINE
  5
226F
  8
0
 62
     0
 10
63.235884530622627
 20
149.9999999317358
 30
0.0
 11
63.264566934942827
 21
150.02868233605599
 31
0.0
  0
LINE
  5
2270
  8
0
 62
     0
 10
68.15989728390565
 20
156.04654470015251
 30
0.0
 11
72.113352511507884
 21
159.99999992775469
 31
0.0
  0
LINE
  5
2271
  8
0
 62
     0
 10
67.871583119124196
 20
156.8807625505047
 30
0.0
 11
70.990820496374255
 21
159.99999992775469
 31
0.0
  0
LINE
  5
2272
  8
0
 62
     0
 10
67.466137588401637
 20
157.59784903491581
 30
0.0
 11
69.868288481240626
 21
159.99999992775469
 31
0.0
  0
LINE
  5
2273
  8
0
 62
     0
 10
66.96464885830413
 20
158.21889231995189
 30
0.0
 11
68.745756466106968
 21
159.99999992775469
 31
0.0
  0
LINE
  5
2274
  8
0
 62
     0
 10
66.376785034997994
 20
158.7535605117794
 30
0.0
 11
67.623224450973311
 21
159.99999992775469
 31
0.0
  0
LINE
  5
2275
  8
0
 62
     0
 10
65.705272298624379
 20
159.20457979053941
 30
0.0
 11
66.500692435839682
 21
159.99999992775469
 31
0.0
  0
LINE
  5
2276
  8
0
 62
     0
 10
64.946951301778157
 20
159.5687908088268
 30
0.0
 11
65.378160420706038
 21
159.99999992775469
 31
0.0
  0
LINE
  5
2277
  8
0
 62
     0
 10
64.09154492656188
 20
159.8359164487442
 30
0.0
 11
64.255628405572367
 21
159.99999992775469
 31
0.0
  0
LINE
  5
2278
  8
0
 62
     0
 10
63.11680062945841
 20
159.9837041667744
 30
0.0
 11
63.133096390438737
 21
159.99999992775469
 31
0.0
  0
ENDBLK
  5
227A
  8
0
  0
BLOCK
  8
0
  2
*X16
 70
     1
 10
0.0
 20
0.0
 30
0.0
  3
*X16
  1

  0
LINE
  5
227C
  8
0
 62
     0
 10
65.950512387353072
 20
152.1248188116308
 30
0.0
 11
66.637920051606969
 21
152.52169381163071
 31
0.0
  0
LINE
  5
227D
  8
0
 62
     0
 10
63.888289394591382
 20
150.93419381163079
 30
0.0
 11
64.575697058845279
 21
151.33106881163079
 31
0.0
  0
LINE
  5
227E
  8
0
 62
     0
 10
62.289403165637097
 20
150.0110764169404
 30
0.0
 11
62.513474066083589
 21
150.1404438116308
 31
0.0
  0
LINE
  5
227F
  8
0
 62
     0
 10
67.32532788011477
 20
154.5060685271346
 30
0.0
 11
68.012735544368667
 21
154.9029435271346
 31
0.0
  0
LINE
  5
2280
  8
0
 62
     0
 10
65.26310488735308
 20
153.3154435271347
 30
0.0
 11
65.950512551606977
 21
153.71231852713461
 31
0.0
  0
LINE
  5
2281
  8
0
 62
     0
 10
63.20088189459139
 20
152.12481852713469
 30
0.0
 11
63.888289558845287
 21
152.52169352713469
 31
0.0
  0
LINE
  5
2282
  8
0
 62
     0
 10
61.1386589018297
 20
150.93419352713471
 30
0.0
 11
61.826066566083597
 21
151.3310685271347
 31
0.0
  0
LINE
  5
2283
  8
0
 62
     0
 10
66.637920380114764
 20
155.6966932426385
 30
0.0
 11
67.325328044368661
 21
156.0935682426385
 31
0.0
  0
LINE
  5
2284
  8
0
 62
     0
 10
64.575697387353074
 20
154.50606824263849
 30
0.0
 11
65.263105051606971
 21
154.90294324263849
 31
0.0
  0
LINE
  5
2285
  8
0
 62
     0
 10
62.513474394591377
 20
153.31544324263851
 30
0.0
 11
63.200882058845274
 21
153.7123182426385
 31
0.0
  0
LINE
  5
2286
  8
0
 62
     0
 10
60.45125140182968
 20
152.12481824263861
 30
0.0
 11
61.138659066083576
 21
152.52169324263861
 31
0.0
  0
LINE
  5
2287
  8
0
 62
     0
 10
58.941408178058822
 20
151.2531098509603
 30
0.0
 11
59.076436073321901
 21
151.33106824263859
 31
0.0
  0
LINE
  5
2288
  8
0
 62
     0
 10
65.950512880114744
 20
156.8873179581424
 30
0.0
 11
66.637920544368654
 21
157.2841929581424
 31
0.0
  0
LINE
  5
2289
  8
0
 62
     0
 10
63.888289887353061
 20
155.69669295814251
 30
0.0
 11
64.575697551606964
 21
156.09356795814239
 31
0.0
  0
LINE
  5
228A
  8
0
 62
     0
 10
61.826066894591371
 20
154.50606795814249
 30
0.0
 11
62.513474558845267
 21
154.90294295814249
 31
0.0
  0
LINE
  5
228B
  8
0
 62
     0
 10
59.763843901829681
 20
153.31544295814251
 30
0.0
 11
60.45125156608357
 21
153.71231795814251
 31
0.0
  0
LINE
  5
228C
  8
0
 62
     0
 10
57.95380500374096
 20
152.2704165130873
 30
0.0
 11
58.389028573321887
 21
152.52169295814249
 31
0.0
  0
LINE
  5
228D
  8
0
 62
     0
 10
65.263105380114752
 20
158.07794267364631
 30
0.0
 11
65.950513044368634
 21
158.4748176736463
 31
0.0
  0
LINE
  5
228E
  8
0
 62
     0
 10
63.200882387353062
 20
156.88731767364629
 30
0.0
 11
63.888290051606958
 21
157.28419267364629
 31
0.0
  0
LINE
  5
228F
  8
0
 62
     0
 10
61.138659394591372
 20
155.69669267364631
 30
0.0
 11
61.826067058845268
 21
156.09356767364631
 31
0.0
  0
LINE
  5
2290
  8
0
 62
     0
 10
59.076436401829682
 20
154.50606767364641
 30
0.0
 11
59.763844066083578
 21
154.90294267364641
 31
0.0
  0
LINE
  5
2291
  8
0
 62
     0
 10
57.30676700526638
 20
153.48434857116391
 30
0.0
 11
57.701621073321888
 21
153.7123176736464
 31
0.0
  0
LINE
  5
2292
  8
0
 62
     0
 10
64.575697880114745
 20
159.26856738915021
 30
0.0
 11
65.034408396267608
 21
159.53340402913119
 31
0.0
  0
LINE
  5
2293
  8
0
 62
     0
 10
62.51347488735307
 20
158.07794238915031
 30
0.0
 11
63.200882551606973
 21
158.4748173891503
 31
0.0
  0
LINE
  5
2294
  8
0
 62
     0
 10
60.45125189459138
 20
156.8873173891503
 30
0.0
 11
61.138659558845269
 21
157.28419238915029
 31
0.0
  0
LINE
  5
2295
  8
0
 62
     0
 10
58.38902890182969
 20
155.69669238915029
 30
0.0
 11
59.076436566083579
 21
156.09356738915031
 31
0.0
  0
LINE
  5
2296
  8
0
 62
     0
 10
61.826067387353071
 20
159.26856710465421
 30
0.0
 11
62.513475051606967
 21
159.6654421046542
 31
0.0
  0
LINE
  5
2297
  8
0
 62
     0
 10
59.763844394591381
 20
158.0779421046542
 30
0.0
 11
60.45125205884527
 21
158.47481710465419
 31
0.0
  0
LINE
  5
2298
  8
0
 62
     0
 10
57.701621401829691
 20
156.88731710465419
 30
0.0
 11
58.389029066083587
 21
157.28419210465421
 31
0.0
  0
LINE
  5
2299
  8
0
 62
     0
 10
62.513441379557833
 20
150.14042873333781
 30
0.0
 11
62.755507176781428
 21
150.00067198014909
 31
0.0
  0
LINE
  5
229A
  8
0
 62
     0
 10
60.451218386796128
 20
151.3310537333378
 30
0.0
 11
61.138626051050032
 21
150.9341787333378
 31
0.0
  0
LINE
  5
229B
  8
0
 62
     0
 10
58.388995394034453
 20
152.52167873333769
 30
0.0
 11
59.076403058288342
 21
152.12480373333781
 31
0.0
  0
LINE
  5
229C
  8
0
 62
     0
 10
63.200848879557832
 20
151.33105344884169
 30
0.0
 11
63.888256543811721
 21
150.93417844884169
 31
0.0
  0
LINE
  5
229D
  8
0
 62
     0
 10
61.138625886796127
 20
152.5216784488417
 30
0.0
 11
61.826033551050031
 21
152.1248034488417
 31
0.0
  0
LINE
  5
229E
  8
0
 62
     0
 10
59.076402894034437
 20
153.71230344884171
 30
0.0
 11
59.763810558288341
 21
153.31542844884169
 31
0.0
  0
LINE
  5
229F
  8
0
 62
     0
 10
57.043756344449747
 20
154.8858524814118
 30
0.0
 11
57.701587565526651
 21
154.5060534488417
 31
0.0
  0
LINE
  5
22A0
  8
0
 62
     0
 10
65.950479372319506
 20
151.3310531643456
 30
0.0
 11
66.256080905388202
 21
151.15461403696369
 31
0.0
  0
LINE
  5
22A1
  8
0
 62
     0
 10
63.888256379557824
 20
152.52167816434559
 30
0.0
 11
64.575664043811713
 21
152.12480316434559
 31
0.0
  0
LINE
  5
22A2
  8
0
 62
     0
 10
61.826033386796119
 20
153.7123031643456
 30
0.0
 11
62.513441051050023
 21
153.3154281643456
 31
0.0
  0
LINE
  5
22A3
  8
0
 62
     0
 10
59.763810394034437
 20
154.90292816434561
 30
0.0
 11
60.451218058288333
 21
154.50605316434559
 31
0.0
  0
LINE
  5
22A4
  8
0
 62
     0
 10
57.701587401272747
 20
156.09355316434559
 30
0.0
 11
58.388995065526643
 21
155.6966781643456
 31
0.0
  0
LINE
  5
22A5
  8
0
 62
     0
 10
66.637886872319527
 20
152.52167787984951
 30
0.0
 11
67.281795930240165
 21
152.14991681192541
 31
0.0
  0
LINE
  5
22A6
  8
0
 62
     0
 10
64.575663879557837
 20
153.71230287984949
 30
0.0
 11
65.263071543811733
 21
153.31542787984949
 31
0.0
  0
LINE
  5
22A7
  8
0
 62
     0
 10
62.513440886796147
 20
154.9029278798495
 30
0.0
 11
63.200848551050051
 21
154.50605287984951
 31
0.0
  0
LINE
  5
22A8
  8
0
 62
     0
 10
60.45121789403445
 20
156.09355287984951
 30
0.0
 11
61.138625558288354
 21
155.69667787984949
 31
0.0
  0
LINE
  5
22A9
  8
0
 62
     0
 10
58.388994901272767
 20
157.28417787984949
 30
0.0
 11
59.076402565526656
 21
156.8873028798495
 31
0.0
  0
LINE
  5
22AA
  8
0
 62
     0
 10
67.325294372319519
 20
153.71230259535341
 30
0.0
 11
67.966424804521949
 21
153.3421457677357
 31
0.0
  0
LINE
  5
22AB
  8
0
 62
     0
 10
65.263071379557815
 20
154.90292759535339
 30
0.0
 11
65.950479043811725
 21
154.5060525953534
 31
0.0
  0
LINE
  5
22AC
  8
0
 62
     0
 10
63.200848386796132
 20
156.0935525953534
 30
0.0
 11
63.888256051050028
 21
155.69667759535341
 31
0.0
  0
LINE
  5
22AD
  8
0
 62
     0
 10
61.138625394034442
 20
157.28417759535341
 30
0.0
 11
61.826033058288338
 21
156.88730259535339
 31
0.0
  0
LINE
  5
22AE
  8
0
 62
     0
 10
59.076402401272752
 20
158.4748025953534
 30
0.0
 11
59.763810065526648
 21
158.0779275953534
 31
0.0
  0
LINE
  5
22AF
  8
0
 62
     0
 10
68.012701872319525
 20
154.90292731085731
 30
0.0
 11
68.277381892982334
 21
154.7501142296785
 31
0.0
  0
LINE
  5
22B0
  8
0
 62
     0
 10
65.950478879557835
 20
156.09355231085729
 30
0.0
 11
66.637886543811732
 21
155.6966773108573
 31
0.0
  0
LINE
  5
22B1
  8
0
 62
     0
 10
63.888255886796152
 20
157.2841773108573
 30
0.0
 11
64.575663551050042
 21
156.88730231085731
 31
0.0
  0
LINE
  5
22B2
  8
0
 62
     0
 10
61.826032894034448
 20
158.47480231085731
 30
0.0
 11
62.513440558288352
 21
158.07792731085729
 31
0.0
  0
LINE
  5
22B3
  8
0
 62
     0
 10
60.120853422500659
 20
159.45928813776391
 30
0.0
 11
60.451217565526662
 21
159.2685523108573
 31
0.0
  0
LINE
  5
22B4
  8
0
 62
     0
 10
66.637886379557813
 20
157.28417702636119
 30
0.0
 11
67.325294043811709
 21
156.8873020263612
 31
0.0
  0
LINE
  5
22B5
  8
0
 62
     0
 10
64.575663386796123
 20
158.4748020263612
 30
0.0
 11
65.263071051050019
 21
158.07792702636121
 31
0.0
  0
LINE
  5
22B6
  8
0
 62
     0
 10
62.513440394034433
 20
159.66542702636119
 30
0.0
 11
63.200848058288329
 21
159.26855202636119
 31
0.0
  0
LINE
  5
22B7
  8
0
 62
     0
 10
67.325297328889746
 20
156.093589579846
 30
0.0
 11
67.325297328889746
 21
156.88733957984601
 31
0.0
  0
LINE
  5
22B8
  8
0
 62
     0
 10
67.325297328889746
 20
153.712339579846
 30
0.0
 11
67.325297328889746
 21
154.50608957984599
 31
0.0
  0
LINE
  5
22B9
  8
0
 62
     0
 10
65.950482328889748
 20
158.47483957984599
 30
0.0
 11
65.950482328889748
 21
159.05592649662111
 31
0.0
  0
LINE
  5
22BA
  8
0
 62
     0
 10
65.950482328889748
 20
156.093589579846
 30
0.0
 11
65.950482328889748
 21
156.88733957984601
 31
0.0
  0
LINE
  5
22BB
  8
0
 62
     0
 10
65.950482328889748
 20
153.712339579846
 30
0.0
 11
65.950482328889748
 21
154.50608957984599
 31
0.0
  0
LINE
  5
22BC
  8
0
 62
     0
 10
65.950482328889748
 20
151.33108957984601
 30
0.0
 11
65.950482328889748
 21
152.124839579846
 31
0.0
  0
LINE
  5
22BD
  8
0
 62
     0
 10
64.57566732888975
 20
158.47483957984599
 30
0.0
 11
64.57566732888975
 21
159.26858957984589
 31
0.0
  0
LINE
  5
22BE
  8
0
 62
     0
 10
64.57566732888975
 20
156.093589579846
 30
0.0
 11
64.57566732888975
 21
156.88733957984601
 31
0.0
  0
LINE
  5
22BF
  8
0
 62
     0
 10
64.57566732888975
 20
153.712339579846
 30
0.0
 11
64.57566732888975
 21
154.50608957984599
 31
0.0
  0
LINE
  5
22C0
  8
0
 62
     0
 10
64.57566732888975
 20
151.33108957984601
 30
0.0
 11
64.57566732888975
 21
152.124839579846
 31
0.0
  0
LINE
  5
22C1
  8
0
 62
     0
 10
63.200852328889738
 20
158.47483957984599
 30
0.0
 11
63.200852328889738
 21
159.26858957984589
 31
0.0
  0
LINE
  5
22C2
  8
0
 62
     0
 10
63.200852328889738
 20
156.093589579846
 30
0.0
 11
63.200852328889738
 21
156.88733957984601
 31
0.0
  0
LINE
  5
22C3
  8
0
 62
     0
 10
63.200852328889738
 20
153.712339579846
 30
0.0
 11
63.200852328889738
 21
154.50608957984599
 31
0.0
  0
LINE
  5
22C4
  8
0
 62
     0
 10
63.200852328889738
 20
151.33108957984601
 30
0.0
 11
63.200852328889738
 21
152.124839579846
 31
0.0
  0
LINE
  5
22C5
  8
0
 62
     0
 10
61.826037328889733
 20
158.47483957984599
 30
0.0
 11
61.826037328889733
 21
159.26858957984589
 31
0.0
  0
LINE
  5
22C6
  8
0
 62
     0
 10
61.826037328889733
 20
156.093589579846
 30
0.0
 11
61.826037328889733
 21
156.88733957984601
 31
0.0
  0
LINE
  5
22C7
  8
0
 62
     0
 10
61.826037328889733
 20
153.712339579846
 30
0.0
 11
61.826037328889733
 21
154.50608957984599
 31
0.0
  0
LINE
  5
22C8
  8
0
 62
     0
 10
61.826037328889733
 20
151.33108957984601
 30
0.0
 11
61.826037328889733
 21
152.124839579846
 31
0.0
  0
LINE
  5
22C9
  8
0
 62
     0
 10
60.451222328889727
 20
158.47483957984599
 30
0.0
 11
60.451222328889727
 21
159.26858957984589
 31
0.0
  0
LINE
  5
22CA
  8
0
 62
     0
 10
60.451222328889727
 20
156.093589579846
 30
0.0
 11
60.451222328889727
 21
156.88733957984601
 31
0.0
  0
LINE
  5
22CB
  8
0
 62
     0
 10
60.451222328889727
 20
153.712339579846
 30
0.0
 11
60.451222328889727
 21
154.50608957984599
 31
0.0
  0
LINE
  5
22CC
  8
0
 62
     0
 10
60.451222328889727
 20
151.33108957984601
 30
0.0
 11
60.451222328889727
 21
152.124839579846
 31
0.0
  0
LINE
  5
22CD
  8
0
 62
     0
 10
59.076407328889736
 20
158.47483957984599
 30
0.0
 11
59.076407328889736
 21
158.84966074888411
 31
0.0
  0
LINE
  5
22CE
  8
0
 62
     0
 10
59.076407328889736
 20
156.093589579846
 30
0.0
 11
59.076407328889736
 21
156.88733957984601
 31
0.0
  0
LINE
  5
22CF
  8
0
 62
     0
 10
59.076407328889736
 20
153.712339579846
 30
0.0
 11
59.076407328889736
 21
154.50608957984599
 31
0.0
  0
LINE
  5
22D0
  8
0
 62
     0
 10
59.076407328889736
 20
151.33108957984601
 30
0.0
 11
59.076407328889736
 21
152.124839579846
 31
0.0
  0
LINE
  5
22D1
  8
0
 62
     0
 10
57.701592328889738
 20
156.093589579846
 30
0.0
 11
57.701592328889738
 21
156.88733957984601
 31
0.0
  0
LINE
  5
22D2
  8
0
 62
     0
 10
57.701592328889738
 20
153.712339579846
 30
0.0
 11
57.701592328889738
 21
154.50608957984599
 31
0.0
  0
ENDBLK
  5
22D4
  8
0
  0
BLOCK
  8
0
  2
*U17
 70
     1
 10
0.0
 20
0.0
 30
0.0
  3
*U17
  1

  0
TEXT
  5
235D
  8
SAPA_MATT
 62
     2
 10
42.900555349943168
 20
-28.49999985712293
 30
0.0
 40
3.0
  1
60
  7
ISO
  0
ENDBLK
  5
235F
  8
0
  0
BLOCK
  8
0
  2
*U18
 70
     1
 10
0.0
 20
0.0
 30
0.0
  3
*U18
  1

  0
TEXT
  5
2361
  8
SAPA_MATT
 62
     2
 10
57.450555349951131
 20
-40.499999857122923
 30
0.0
 40
3.0
  1
91.5
  7
ISO
  0
ENDBLK
  5
2363
  8
0
  0
BLOCK
  8
0
  2
*U19
 70
     1
 10
0.0
 20
0.0
 30
0.0
  3
*U19
  1

  0
TEXT
  5
2365
  8
SAPA_MATT
 62
     2
 10
132.69621177487261
 20
2.949999928288602
 30
0.0
 40
3.0
  1
8
 50
90.0
  7
ISO
  0
ENDBLK
  5
2367
  8
0
  0
BLOCK
  8
0
  2
*U20
 70
     1
 10
0.0
 20
0.0
 30
0.0
  3
*U20
  1

  0
TEXT
  5
2369
  8
SAPA_MATT
 62
     2
 10
149.93760658613519
 20
72.149999999634616
 30
0.0
 40
3.0
  1
150
 50
90.0
  7
ISO
  0
ENDBLK
  5
236B
  8
0
  0
ENDSEC
  0
SECTION
  2
ENTITIES
  0
POINT
  5
1AC4
  8
SAPA_FOGBAND
 10
70.000555349945898
 20
147.69999992811881
 30
0.0
 50
270.00000005963659
  0
POINT
  5
1AC5
  8
SAPA_FOGBAND
 10
70.000555349945898
 20
144.999999928119
 30
0.0
 50
270.00000005963659
  0
POINT
  5
1AE2
  8
SAPA_FOGBAND
 10
70.000555349945898
 20
147.6999999281156
 30
0.0
 50
270.0
  0
POINT
  5
1AE3
  8
SAPA_FOGBAND
 10
70.000555349945898
 20
144.999999928119
 30
0.0
 50
270.0
  0
LINE
  5
1AEC
  8
SAPA_FOGBAND
 10
69.911954841164516
 20
146.3995673965687
 30
0.0
 11
69.911954841168154
 21
142.80099053871751
 31
0.0
  0
LINE
  5
1AED
  8
SAPA_FOGBAND
 10
69.911954841168154
 20
142.80099053871751
 30
0.0
 11
70.061954841165971
 21
142.80099053871751
 31
0.0
  0
LINE
  5
1AEE
  8
SAPA_FOGBAND
 10
70.061954841165971
 20
142.80099053871751
 30
0.0
 11
70.061954841165971
 21
146.3995673965687
 31
0.0
  0
LINE
  5
1AF1
  8
SAPA_GLAS
 10
104.8758438523368
 20
63.249999927970521
 30
0.0
 11
104.8758438523368
 21
62.499999927957333
 31
0.0
  0
LINE
  5
1AF2
  8
SAPA_GLAS
 10
92.075843852325775
 20
62.499999927957333
 30
0.0
 11
92.075843852324837
 21
63.249999927956431
 31
0.0
  0
LINE
  5
1AF4
  8
SAPA_GLAS
 10
104.8758438523368
 20
9.7499999276058134
 30
0.0
 11
104.8758438523368
 21
10.499999927618999
 31
0.0
  0
LINE
  5
1AF5
  8
SAPA_GLAS
 10
92.075843852325775
 20
10.499999927618999
 30
0.0
 11
92.075843852324837
 21
9.7499999276199105
 31
0.0
  0
TEXT
  5
1AF7
  8
SAPA_ARTIKELNR
 10
34.759509799235282
 20
-6.414773994154074
 30
0.0000000048844772
 40
3.5
  1
D9K025
  7
ISO
  0
TEXT
  5
1AF8
  8
SAPA_ARTIKELNR
 10
108.2220743373618
 20
2.9227556329149129
 30
0.0000000048844772
 40
3.5
  1
D9V005
  7
ISO
  0
INSERT
  5
1AFD
  8
SAPA_ANSLUTNING
  6
CONTINUOUS
  2
*X15
 10
0.0
 20
0.0
 30
0.0
1001
ACAD
1000
HATCH
1002
{
1070
    19
1000
ANSI37
1040
0.25
1040
1.5707963267948959
1000
R14_HATCH_DATA
1000
1AFD
1011
1.0
1021
0.0
1031
0.0
1021
0.0
1031
0.0
1011
0.0
1021
0.0
1031
0.0
1021
1.0
1031
0.0
1011
0.0
1021
0.0
1031
0.0
1021
0.0
1031
1.0
1040
0.0
1010
0.0
1020
0.0
1030
1.0
1000
ANSI37
1070
     0
1070
     0
1071
        1
1071
        1
1071
        6
1070
     3
1040
62.663348763329402
1040
154.99999992775469
1040
-5.6210574168242138
1040
0.0000000000000003
1040
0.8895123513655372
1040
1.5707963267948959
1040
2.144309431217978
1070
     1
1070
     3
1040
62.663348763329402
1040
154.99999992775469
1040
-5.6210574168242138
1040
0.0000000000000003
1040
0.8895123513655372
1040
2.144309431217978
1040
4.7123889803846888
1070
     1
1070
     1
1040
62.663348763330298
1040
159.99999992775469
1040
75.000000000005457
1040
159.99999992775469
1070
     2
1040
99.648292119880352
1040
153.32825835179071
1040
25.535278343560961
1040
2.8772493289723999
1040
3.2954791963770571
1070
     1
1070
     2
1040
73.000555349942715
1040
147.9999999996339
1040
1.9999999999999349
1040
7.0685834705769937
1040
7.8539816339745956
1070
     1
1070
     1
1040
73.00055534994226
1040
149.9999999996337
1040
62.663348763329402
1040
149.99999992775469
1071
        0
1070
     0
1070
     1
1040
1.5707963267948959
1040
0.25
1070
     0
1070
     2
1040
0.7853981633974481
1040
-9.664342671110262
1040
-8.2126604201539521
1040
0.5612660075668221
1040
-0.5612660075668221
1070
     0
1040
5.4977871437821371
1040
-9.664342671110262
1040
-8.2126604201539521
1040
-0.5612660075668221
1040
-0.5612660075668221
1070
     0
1071
        1
1040
71.420364712946139
1040
153.99867634700311
1040
0.0
1002
}
  0
LINE
  5
1AFE
  8
SAPA_ANSLUTNING
 10
0.0
 20
0.0
 30
0.0
 11
0.0
 21
159.99999992775469
 31
0.0
  0
LINE
  5
1AFF
  8
SAPA_ANSLUTNING
 10
75.000000000005457
 20
159.99999992775469
 30
0.0
 11
75.000000000005457
 21
205.00325593441309
 31
0.0
  0
LINE
  5
1B00
  8
SAPA_ANSLUTNING
 10
0.0
 20
159.99999992775469
 30
0.0
 11
75.000000000005457
 21
159.99999992775469
 31
0.0
  0
INSERT
  5
1B01
  8
SAPA_ANSLUTNING
  6
CONTINUOUS
  2
*X16
 10
0.0
 20
0.0
 30
0.0
1001
ACAD
1000
HATCH
1002
{
1070
    19
1000
HEX
1040
0.25
1040
1.5707963267948959
1000
ASC_BOUNDS
1070
     1
1070
     1
1070
     1
1005
1B02
1000
ASC_SEEDPOINT
1011
62.781686452386111
1021
0.0
1031
0.0
1021
155.2421099378293
1031
0.0
1000
R14_HATCH_DATA
1000
1B01
1011
1.0
1021
0.0
1031
0.0
1021
0.0
1031
0.0
1011
0.0
1021
0.0
1031
0.0
1021
1.0
1031
0.0
1011
0.0
1021
0.0
1031
0.0
1021
0.0
1031
1.0
1040
0.0
1010
0.0
1020
0.0
1030
1.0
1000
HEX
1070
     0
1070
     1
1071
        1
1071
        5
1071
        1
1070
     3
1040
62.663348763329402
1040
154.99999992775469
1040
-5.6210574168242138
1040
0.0000000000000003
1040
0.8895123513655372
1040
0.0
1040
6.2831853071795862
1070
     0
1071
        1
1005
1B02
1070
     0
1070
     1
1040
1.5707963267948959
1040
0.25
1070
     0
1070
     3
1040
1.5707963267948959
1040
-9.664342671110262
1040
-8.2126604201539521
1040
1.374814999999999
1040
-0.0000000000000001
1070
     2
1040
0.79375
1040
-1.587499999999999
1040
5.7595865315812871
1040
-9.664342671110262
1040
-8.2126604201539521
1040
-0.6874074999999998
1040
-1.190624715503902
1070
     2
1040
0.7937499999999993
1040
-1.5874999999999979
1040
0.5235987755982992
1040
-9.664342671110262
1040
-7.418910420154134
1040
0.6874075
1040
-1.190624715503902
1070
     2
1040
0.79375
1040
-1.587499999999999
1040
0.0591690278051155
1071
        1
1040
62.781686452386111
1040
155.2421099378293
1040
0.0
1002
}
  0
POLYLINE
  5
1B02
  8
SAPA_ANSLUTNING
 10
57.042291346505188
 20
154.99999992775469
 30
0.0
 66
     1
 70
     8
  0
VERTEX
  8
SAPA_ANSLUTNING
  5
236F
 10
57.0423
 20
155.000
 30
0.000000
  70
    32
  0
VERTEX
  8
SAPA_ANSLUTNING
  5
2370
 10
57.0491
 20
155.245
 30
0.000000
  70
    32
  0
VERTEX
  8
SAPA_ANSLUTNING
  5
2371
 10
57.0694
 20
155.490
 30
0.000000
  70
    32
  0
VERTEX
  8
SAPA_ANSLUTNING
  5
2372
 10
57.1031
 20
155.734
 30
0.000000
  70
    32
  0
VERTEX
  8
SAPA_ANSLUTNING
  5
2373
 10
57.1503
 20
155.975
 30
0.000000
  70
    32
  0
VERTEX
  8
SAPA_ANSLUTNING
  5
2374
 10
57.2107
 20
156.215
 30
0.000000
  70
    32
  0
VERTEX
  8
SAPA_ANSLUTNING
  5
2375
 10
57.2843
 20
156.451
 30
0.000000
  70
    32
  0
VERTEX
  8
SAPA_ANSLUTNING
  5
2376
 10
57.3709
 20
156.684
 30
0.000000
  70
    32
  0
VERTEX
  8
SAPA_ANSLUTNING
  5
2377
 10
57.4702
 20
156.913
 30
0.000000
  70
    32
  0
VERTEX
  8
SAPA_ANSLUTNING
  5
2378
 10
57.5820
 20
157.138
 30
0.000000
  70
    32
  0
VERTEX
  8
SAPA_ANSLUTNING
  5
2379
 10
57.7060
 20
157.357
 30
0.000000
  70
    32
  0
VERTEX
  8
SAPA_ANSLUTNING
  5
237A
 10
57.8420
 20
157.571
 30
0.000000
  70
    32
  0
VERTEX
  8
SAPA_ANSLUTNING
  5
237B
 10
57.9896
 20
157.778
 30
0.000000
  70
    32
  0
VERTEX
  8
SAPA_ANSLUTNING
  5
237C
 10
58.1485
 20
157.978
 30
0.000000
  70
    32
  0
VERTEX
  8
SAPA_ANSLUTNING
  5
237D
 10
58.3182
 20
158.172
 30
0.000000
  70
    32
  0
VERTEX
  8
SAPA_ANSLUTNING
  5
237E
 10
58.4984
 20
158.358
 30
0.000000
  70
    32
  0
VERTEX
  8
SAPA_ANSLUTNING
  5
237F
 10
58.6887
 20
158.536
 30
0.000000
  70
    32
  0
VERTEX
  8
SAPA_ANSLUTNING
  5
2380
 10
58.8885
 20
158.705
 30
0.000000
  70
    32
  0
VERTEX
  8
SAPA_ANSLUTNING
  5
2381
 10
59.0974
 20
158.865
 30
0.000000
  70
    32
  0
VERTEX
  8
SAPA_ANSLUTNING
  5
2382
 10
59.3149
 20
159.016
 30
0.000000
  70
    32
  0
VERTEX
  8
SAPA_ANSLUTNING
  5
2383
 10
59.5405
 20
159.157
 30
0.000000
  70
    32
  0
VERTEX
  8
SAPA_ANSLUTNING
  5
2384
 10
59.7735
 20
159.289
 30
0.000000
  70
    32
  0
VERTEX
  8
SAPA_ANSLUTNING
  5
2385
 10
60.0136
 20
159.410
 30
0.000000
  70
    32
  0
VERTEX
  8
SAPA_ANSLUTNING
  5
2386
 10
60.2600
 20
159.520
 30
0.000000
  70
    32
  0
VERTEX
  8
SAPA_ANSLUTNING
  5
2387
 10
60.5123
 20
159.619
 30
0.000000
  70
    32
  0
VERTEX
  8
SAPA_ANSLUTNING
  5
2388
 10
60.7697
 20
159.708
 30
0.000000
  70
    32
  0
VERTEX
  8
SAPA_ANSLUTNING
  5
2389
 10
61.0316
 20
159.785
 30
0.000000
  70
    32
  0
VERTEX
  8
SAPA_ANSLUTNING
  5
238A
 10
61.2975
 20
159.850
 30
0.000000
  70
    32
  0
VERTEX
  8
SAPA_ANSLUTNING
  5
238B
 10
61.5667
 20
159.904
 30
0.000000
  70
    32
  0
VERTEX
  8
SAPA_ANSLUTNING
  5
238C
 10
61.8386
 20
159.946
 30
0.000000
  70
    32
  0
VERTEX
  8
SAPA_ANSLUTNING
  5
238D
 10
62.1124
 20
159.976
 30
0.000000
  70
    32
  0
VERTEX
  8
SAPA_ANSLUTNING
  5
238E
 10
62.3875
 20
159.994
 30
0.000000
  70
    32
  0
VERTEX
  8
SAPA_ANSLUTNING
  5
238F
 10
62.6633
 20
160.000
 30
0.000000
  70
    32
  0
VERTEX
  8
SAPA_ANSLUTNING
  5
2390
 10
62.9392
 20
159.994
 30
0.000000
  70
    32
  0
VERTEX
  8
SAPA_ANSLUTNING
  5
2391
 10
63.2143
 20
159.976
 30
0.000000
  70
    32
  0
VERTEX
  8
SAPA_ANSLUTNING
  5
2392
 10
63.4881
 20
159.946
 30
0.000000
  70
    32
  0
VERTEX
  8
SAPA_ANSLUTNING
  5
2393
 10
63.7600
 20
159.904
 30
0.000000
  70
    32
  0
VERTEX
  8
SAPA_ANSLUTNING
  5
2394
 10
64.0292
 20
159.850
 30
0.000000
  70
    32
  0
VERTEX
  8
SAPA_ANSLUTNING
  5
2395
 10
64.2951
 20
159.785
 30
0.000000
  70
    32
  0
VERTEX
  8
SAPA_ANSLUTNING
  5
2396
 10
64.5570
 20
159.708
 30
0.000000
  70
    32
  0
VERTEX
  8
SAPA_ANSLUTNING
  5
2397
 10
64.8144
 20
159.619
 30
0.000000
  70
    32
  0
VERTEX
  8
SAPA_ANSLUTNING
  5
2398
 10
65.0667
 20
159.520
 30
0.000000
  70
    32
  0
VERTEX
  8
SAPA_ANSLUTNING
  5
2399
 10
65.3131
 20
159.410
 30
0.000000
  70
    32
  0
VERTEX
  8
SAPA_ANSLUTNING
  5
239A
 10
65.5531
 20
159.289
 30
0.000000
  70
    32
  0
VERTEX
  8
SAPA_ANSLUTNING
  5
239B
 10
65.7862
 20
159.157
 30
0.000000
  70
    32
  0
VERTEX
  8
SAPA_ANSLUTNING
  5
239C
 10
66.0118
 20
159.016
 30
0.000000
  70
    32
  0
VERTEX
  8
SAPA_ANSLUTNING
  5
239D
 10
66.2293
 20
158.865
 30
0.000000
  70
    32
  0
VERTEX
  8
SAPA_ANSLUTNING
  5
239E
 10
66.4382
 20
158.705
 30
0.000000
  70
    32
  0
VERTEX
  8
SAPA_ANSLUTNING
  5
239F
 10
66.6380
 20
158.536
 30
0.000000
  70
    32
  0
VERTEX
  8
SAPA_ANSLUTNING
  5
23A0
 10
66.8283
 20
158.358
 30
0.000000
  70
    32
  0
VERTEX
  8
SAPA_ANSLUTNING
  5
23A1
 10
67.0085
 20
158.172
 30
0.000000
  70
    32
  0
VERTEX
  8
SAPA_ANSLUTNING
  5
23A2
 10
67.1782
 20
157.978
 30
0.000000
  70
    32
  0
VERTEX
  8
SAPA_ANSLUTNING
  5
23A3
 10
67.3371
 20
157.778
 30
0.000000
  70
    32
  0
VERTEX
  8
SAPA_ANSLUTNING
  5
23A4
 10
67.4847
 20
157.571
 30
0.000000
  70
    32
  0
VERTEX
  8
SAPA_ANSLUTNING
  5
23A5
 10
67.6207
 20
157.357
 30
0.000000
  70
    32
  0
VERTEX
  8
SAPA_ANSLUTNING
  5
23A6
 10
67.7447
 20
157.138
 30
0.000000
  70
    32
  0
VERTEX
  8
SAPA_ANSLUTNING
  5
23A7
 10
67.8565
 20
156.913
 30
0.000000
  70
    32
  0
VERTEX
  8
SAPA_ANSLUTNING
  5
23A8
 10
67.9558
 20
156.684
 30
0.000000
  70
    32
  0
VERTEX
  8
SAPA_ANSLUTNING
  5
23A9
 10
68.0424
 20
156.451
 30
0.000000
  70
    32
  0
VERTEX
  8
SAPA_ANSLUTNING
  5
23AA
 10
68.1160
 20
156.215
 30
0.000000
  70
    32
  0
VERTEX
  8
SAPA_ANSLUTNING
  5
23AB
 10
68.1764
 20
155.975
 30
0.000000
  70
    32
  0
VERTEX
  8
SAPA_ANSLUTNING
  5
23AC
 10
68.2236
 20
155.734
 30
0.000000
  70
    32
  0
VERTEX
  8
SAPA_ANSLUTNING
  5
23AD
 10
68.2573
 20
155.490
 30
0.000000
  70
    32
  0
VERTEX
  8
SAPA_ANSLUTNING
  5
23AE
 10
68.2776
 20
155.245
 30
0.000000
  70
    32
  0
VERTEX
  8
SAPA_ANSLUTNING
  5
23AF
 10
68.2844
 20
155.000
 30
0.000000
  70
    32
  0
VERTEX
  8
SAPA_ANSLUTNING
  5
23B0
 10
68.2776
 20
154.755
 30
0.000000
  70
    32
  0
VERTEX
  8
SAPA_ANSLUTNING
  5
23B1
 10
68.2573
 20
154.510
 30
0.000000
  70
    32
  0
VERTEX
  8
SAPA_ANSLUTNING
  5
23B2
 10
68.2236
 20
154.266
 30
0.000000
  70
    32
  0
VERTEX
  8
SAPA_ANSLUTNING
  5
23B3
 10
68.1764
 20
154.025
 30
0.000000
  70
    32
  0
VERTEX
  8
SAPA_ANSLUTNING
  5
23B4
 10
68.1160
 20
153.785
 30
0.000000
  70
    32
  0
VERTEX
  8
SAPA_ANSLUTNING
  5
23B5
 10
68.0424
 20
153.549
 30
0.000000
  70
    32
  0
VERTEX
  8
SAPA_ANSLUTNING
  5
23B6
 10
67.9558
 20
153.316
 30
0.000000
  70
    32
  0
VERTEX
  8
SAPA_ANSLUTNING
  5
23B7
 10
67.8565
 20
153.087
 30
0.000000
  70
    32
  0
VERTEX
  8
SAPA_ANSLUTNING
  5
23B8
 10
67.7447
 20
152.862
 30
0.000000
  70
    32
  0
VERTEX
  8
SAPA_ANSLUTNING
  5
23B9
 10
67.6207
 20
152.643
 30
0.000000
  70
    32
  0
VERTEX
  8
SAPA_ANSLUTNING
  5
23BA
 10
67.4847
 20
152.429
 30
0.000000
  70
    32
  0
VERTEX
  8
SAPA_ANSLUTNING
  5
23BB
 10
67.3371
 20
152.222
 30
0.000000
  70
    32
  0
VERTEX
  8
SAPA_ANSLUTNING
  5
23BC
 10
67.1782
 20
152.022
 30
0.000000
  70
    32
  0
VERTEX
  8
SAPA_ANSLUTNING
  5
23BD
 10
67.0085
 20
151.828
 30
0.000000
  70
    32
  0
VERTEX
  8
SAPA_ANSLUTNING
  5
23BE
 10
66.8283
 20
151.642
 30
0.000000
  70
    32
  0
VERTEX
  8
SAPA_ANSLUTNING
  5
23BF
 10
66.6380
 20
151.464
 30
0.000000
  70
    32
  0
VERTEX
  8
SAPA_ANSLUTNING
  5
23C0
 10
66.4382
 20
151.295
 30
0.000000
  70
    32
  0
VERTEX
  8
SAPA_ANSLUTNING
  5
23C1
 10
66.2293
 20
151.135
 30
0.000000
  70
    32
  0
VERTEX
  8
SAPA_ANSLUTNING
  5
23C2
 10
66.0118
 20
150.984
 30
0.000000
  70
    32
  0
VERTEX
  8
SAPA_ANSLUTNING
  5
23C3
 10
65.7862
 20
150.843
 30
0.000000
  70
    32
  0
VERTEX
  8
SAPA_ANSLUTNING
  5
23C4
 10
65.5531
 20
150.711
 30
0.000000
  70
    32
  0
VERTEX
  8
SAPA_ANSLUTNING
  5
23C5
 10
65.3131
 20
150.590
 30
0.000000
  70
    32
  0
VERTEX
  8
SAPA_ANSLUTNING
  5
23C6
 10
65.0667
 20
150.480
 30
0.000000
  70
    32
  0
VERTEX
  8
SAPA_ANSLUTNING
  5
23C7
 10
64.8144
 20
150.381
 30
0.000000
  70
    32
  0
VERTEX
  8
SAPA_ANSLUTNING
  5
23C8
 10
64.5570
 20
150.292
 30
0.000000
  70
    32
  0
VERTEX
  8
SAPA_ANSLUTNING
  5
23C9
 10
64.2951
 20
150.215
 30
0.000000
  70
    32
  0
VERTEX
  8
SAPA_ANSLUTNING
  5
23CA
 10
64.0292
 20
150.150
 30
0.000000
  70
    32
  0
VERTEX
  8
SAPA_ANSLUTNING
  5
23CB
 10
63.7600
 20
150.096
 30
0.000000
  70
    32
  0
VERTEX
  8
SAPA_ANSLUTNING
  5
23CC
 10
63.4881
 20
150.054
 30
0.000000
  70
    32
  0
VERTEX
  8
SAPA_ANSLUTNING
  5
23CD
 10
63.2143
 20
150.024
 30
0.000000
  70
    32
  0
VERTEX
  8
SAPA_ANSLUTNING
  5
23CE
 10
62.9392
 20
150.006
 30
0.000000
  70
    32
  0
VERTEX
  8
SAPA_ANSLUTNING
  5
23CF
 10
62.6633
 20
150.000
 30
0.000000
  70
    32
  0
VERTEX
  8
SAPA_ANSLUTNING
  5
23D0
 10
62.3875
 20
150.006
 30
0.000000
  70
    32
  0
VERTEX
  8
SAPA_ANSLUTNING
  5
23D1
 10
62.1124
 20
150.024
 30
0.000000
  70
    32
  0
VERTEX
  8
SAPA_ANSLUTNING
  5
23D2
 10
61.8386
 20
150.054
 30
0.000000
  70
    32
  0
VERTEX
  8
SAPA_ANSLUTNING
  5
23D3
 10
61.5667
 20
150.096
 30
0.000000
  70
    32
  0
VERTEX
  8
SAPA_ANSLUTNING
  5
23D4
 10
61.2975
 20
150.150
 30
0.000000
  70
    32
  0
VERTEX
  8
SAPA_ANSLUTNING
  5
23D5
 10
61.0316
 20
150.215
 30
0.000000
  70
    32
  0
VERTEX
  8
SAPA_ANSLUTNING
  5
23D6
 10
60.7697
 20
150.292
 30
0.000000
  70
    32
  0
VERTEX
  8
SAPA_ANSLUTNING
  5
23D7
 10
60.5123
 20
150.381
 30
0.000000
  70
    32
  0
VERTEX
  8
SAPA_ANSLUTNING
  5
23D8
 10
60.2600
 20
150.480
 30
0.000000
  70
    32
  0
VERTEX
  8
SAPA_ANSLUTNING
  5
23D9
 10
60.0136
 20
150.590
 30
0.000000
  70
    32
  0
VERTEX
  8
SAPA_ANSLUTNING
  5
23DA
 10
59.7735
 20
150.711
 30
0.000000
  70
    32
  0
VERTEX
  8
SAPA_ANSLUTNING
  5
23DB
 10
59.5405
 20
150.843
 30
0.000000
  70
    32
  0
VERTEX
  8
SAPA_ANSLUTNING
  5
23DC
 10
59.3149
 20
150.984
 30
0.000000
  70
    32
  0
VERTEX
  8
SAPA_ANSLUTNING
  5
23DD
 10
59.0974
 20
151.135
 30
0.000000
  70
    32
  0
VERTEX
  8
SAPA_ANSLUTNING
  5
23DE
 10
58.8885
 20
151.295
 30
0.000000
  70
    32
  0
VERTEX
  8
SAPA_ANSLUTNING
  5
23DF
 10
58.6887
 20
151.464
 30
0.000000
  70
    32
  0
VERTEX
  8
SAPA_ANSLUTNING
  5
23E0
 10
58.4984
 20
151.642
 30
0.000000
  70
    32
  0
VERTEX
  8
SAPA_ANSLUTNING
  5
23E1
 10
58.3182
 20
151.828
 30
0.000000
  70
    32
  0
VERTEX
  8
SAPA_ANSLUTNING
  5
23E2
 10
58.1485
 20
152.022
 30
0.000000
  70
    32
  0
VERTEX
  8
SAPA_ANSLUTNING
  5
23E3
 10
57.9896
 20
152.222
 30
0.000000
  70
    32
  0
VERTEX
  8
SAPA_ANSLUTNING
  5
23E4
 10
57.8420
 20
152.429
 30
0.000000
  70
    32
  0
VERTEX
  8
SAPA_ANSLUTNING
  5
23E5
 10
57.7060
 20
152.643
 30
0.000000
  70
    32
  0
VERTEX
  8
SAPA_ANSLUTNING
  5
23E6
 10
57.5820
 20
152.862
 30
0.000000
  70
    32
  0
VERTEX
  8
SAPA_ANSLUTNING
  5
23E7
 10
57.4702
 20
153.087
 30
0.000000
  70
    32
  0
VERTEX
  8
SAPA_ANSLUTNING
  5
23E8
 10
57.3709
 20
153.316
 30
0.000000
  70
    32
  0
VERTEX
  8
SAPA_ANSLUTNING
  5
23E9
 10
57.2843
 20
153.549
 30
0.000000
  70
    32
  0
VERTEX
  8
SAPA_ANSLUTNING
  5
23EA
 10
57.2107
 20
153.785
 30
0.000000
  70
    32
  0
VERTEX
  8
SAPA_ANSLUTNING
  5
23EB
 10
57.1503
 20
154.025
 30
0.000000
  70
    32
  0
VERTEX
  8
SAPA_ANSLUTNING
  5
23EC
 10
57.1031
 20
154.266
 30
0.000000
  70
    32
  0
VERTEX
  8
SAPA_ANSLUTNING
  5
23ED
 10
57.0694
 20
154.510
 30
0.000000
  70
    32
  0
VERTEX
  8
SAPA_ANSLUTNING
  5
23EE
 10
57.0491
 20
154.755
 30
0.000000
  70
    32
  0
VERTEX
  8
SAPA_ANSLUTNING
  5
23EF
 10
57.0423
 20
155.000
 30
0.000000
  70
    32
  0
SEQEND
  8
SAPA_ANSLUTNING
  5
23F0
  0
POLYLINE
  5
1B03
  8
SAPA_ANSLUTNING
 66
     1
 10
0.0
 20
0.0
 30
0.0
  0
VERTEX
  5
22D5
  8
SAPA_ANSLUTNING
 10
58.647930409458688
 20
151.5010714710956
 30
0.0
 42
-0.8812634091771133
  0
VERTEX
  5
22D6
  8
SAPA_ANSLUTNING
 10
54.711162381238402
 20
151.99999992775469
 30
0.0
  0
VERTEX
  5
22D7
  8
SAPA_ANSLUTNING
 10
54.711162381238402
 20
157.99999992775469
 30
0.0
 42
0.9999999999999998
  0
VERTEX
  5
22D8
  8
SAPA_ANSLUTNING
 10
50.71116238123841
 20
157.99999992775469
 30
0.0
  0
VERTEX
  5
22D9
  8
SAPA_ANSLUTNING
 10
50.71116238123841
 20
151.99999992775469
 30
0.0
 42
-0.9999999999999998
  0
VERTEX
  5
22DA
  8
SAPA_ANSLUTNING
 10
46.71116238123841
 20
151.99999992775469
 30
0.0
  0
VERTEX
  5
22DB
  8
SAPA_ANSLUTNING
 10
46.71116238123841
 20
157.99999992775469
 30
0.0
 42
0.9999999999999998
  0
VERTEX
  5
22DC
  8
SAPA_ANSLUTNING
 10
42.711162381238402
 20
157.99999992775469
 30
0.0
  0
VERTEX
  5
22DD
  8
SAPA_ANSLUTNING
 10
42.711162381238402
 20
151.99999992775469
 30
0.0
 42
-0.9999999999999998
  0
VERTEX
  5
22DE
  8
SAPA_ANSLUTNING
 10
38.71116238123841
 20
151.99999992775469
 30
0.0
  0
VERTEX
  5
22DF
  8
SAPA_ANSLUTNING
 10
38.71116238123841
 20
157.99999992775469
 30
0.0
 42
0.9999999999999998
  0
VERTEX
  5
22E0
  8
SAPA_ANSLUTNING
 10
34.71116238123841
 20
157.99999992775469
 30
0.0
  0
VERTEX
  5
22E1
  8
SAPA_ANSLUTNING
 10
34.71116238123841
 20
151.99999992775469
 30
0.0
 42
-0.9999999999999998
  0
VERTEX
  5
22E2
  8
SAPA_ANSLUTNING
 10
30.71116238123841
 20
151.99999992775469
 30
0.0
  0
VERTEX
  5
22E3
  8
SAPA_ANSLUTNING
 10
30.71116238123841
 20
157.99999992775469
 30
0.0
 42
0.9999999999999998
  0
VERTEX
  5
22E4
  8
SAPA_ANSLUTNING
 10
26.71116238123841
 20
157.99999992775469
 30
0.0
  0
VERTEX
  5
22E5
  8
SAPA_ANSLUTNING
 10
26.71116238123841
 20
151.99999992775469
 30
0.0
 42
-0.9999999999999998
  0
VERTEX
  5
22E6
  8
SAPA_ANSLUTNING
 10
22.71116238123841
 20
151.99999992775469
 30
0.0
  0
VERTEX
  5
22E7
  8
SAPA_ANSLUTNING
 10
22.71116238123841
 20
157.99999992775469
 30
0.0
 42
0.9999999999999998
  0
VERTEX
  5
22E8
  8
SAPA_ANSLUTNING
 10
18.71116238123841
 20
157.99999992775469
 30
0.0
  0
VERTEX
  5
22E9
  8
SAPA_ANSLUTNING
 10
18.71116238123841
 20
151.99999992775469
 30
0.0
 42
-0.9999999999999998
  0
VERTEX
  5
22EA
  8
SAPA_ANSLUTNING
 10
14.71116238123841
 20
151.99999992775469
 30
0.0
  0
VERTEX
  5
22EB
  8
SAPA_ANSLUTNING
 10
14.71116238123841
 20
157.99999992775469
 30
0.0
 42
0.9999999999999998
  0
VERTEX
  5
22EC
  8
SAPA_ANSLUTNING
 10
10.71116238123841
 20
157.99999992775469
 30
0.0
  0
VERTEX
  5
22ED
  8
SAPA_ANSLUTNING
 10
10.71116238123841
 20
151.99999992775469
 30
0.0
 42
-0.9999999999999998
  0
VERTEX
  5
22EE
  8
SAPA_ANSLUTNING
 10
6.7111623812384087
 20
151.99999992775469
 30
0.0
  0
VERTEX
  5
22EF
  8
SAPA_ANSLUTNING
 10
6.7111623812384087
 20
157.99999992775469
 30
0.0
 42
0.9999999999999998
  0
VERTEX
  5
22F0
  8
SAPA_ANSLUTNING
 10
2.7111623812384091
 20
157.99999992775469
 30
0.0
  0
VERTEX
  5
22F1
  8
SAPA_ANSLUTNING
 10
2.7111623812384091
 20
151.99999992775469
 30
0.0
 42
-0.5251735434384823
  0
VERTEX
  5
22F2
  8
SAPA_ANSLUTNING
 10
0.0
 20
150.13070913509819
 30
0.0
 42
-0.5251735434384823
  0
SEQEND
  5
22F3
  8
SAPA_ANSLUTNING
  0
LINE
  5
1B04
  8
SAPA_ANSLUTNING
 10
75.000000000005457
 20
0.0
 30
0.0
 11
75.000000000005457
 21
-44.619466477045989
 31
0.0
  0
LINE
  5
1B05
  8
SAPA_ANSLUTNING
 10
75.000000000005457
 20
0.0
 30
0.0
 11
0.0
 21
0.0
 31
0.0
  0
POLYLINE
  5
1B06
  8
SAPA_ANSLUTNING
 66
     1
 10
0.0
 20
0.0
 30
0.0
  0
VERTEX
  5
22F4
  8
SAPA_ANSLUTNING
 10
2.0000000000054561
 20
0.4367680282202855
 30
0.0
  0
VERTEX
  5
22F5
  8
SAPA_ANSLUTNING
 10
13.000000000005461
 20
0.4367680282202855
 30
0.0
 42
0.9999999999999998
  0
VERTEX
  5
22F6
  8
SAPA_ANSLUTNING
 10
13.000000000005461
 20
4.4367680282202846
 30
0.0
  0
VERTEX
  5
22F7
  8
SAPA_ANSLUTNING
 10
2.0000000000054561
 20
4.4367680282202846
 30
0.0
 42
-0.9999999999999998
  0
VERTEX
  5
22F8
  8
SAPA_ANSLUTNING
 10
2.0000000000054561
 20
8.4367680282202855
 30
0.0
  0
VERTEX
  5
22F9
  8
SAPA_ANSLUTNING
 10
13.000000000005461
 20
8.4367680282202855
 30
0.0
 42
0.9999999999999998
  0
VERTEX
  5
22FA
  8
SAPA_ANSLUTNING
 10
13.000000000005461
 20
12.43676802822028
 30
0.0
  0
VERTEX
  5
22FB
  8
SAPA_ANSLUTNING
 10
2.0000000000054561
 20
12.43676802822028
 30
0.0
 42
-0.9999999999999998
  0
VERTEX
  5
22FC
  8
SAPA_ANSLUTNING
 10
2.0000000000054561
 20
16.436768028220278
 30
0.0
  0
VERTEX
  5
22FD
  8
SAPA_ANSLUTNING
 10
13.000000000005461
 20
16.436768028220278
 30
0.0
 42
0.9999999999999998
  0
VERTEX
  5
22FE
  8
SAPA_ANSLUTNING
 10
13.000000000005461
 20
20.436768028220278
 30
0.0
  0
VERTEX
  5
22FF
  8
SAPA_ANSLUTNING
 10
2.0000000000054561
 20
20.436768028220278
 30
0.0
 42
-0.9999999999999998
  0
VERTEX
  5
2300
  8
SAPA_ANSLUTNING
 10
2.0000000000054561
 20
24.436768028220289
 30
0.0
  0
VERTEX
  5
2301
  8
SAPA_ANSLUTNING
 10
13.000000000005461
 20
24.436768028220289
 30
0.0
 42
0.9999999999999998
  0
VERTEX
  5
2302
  8
SAPA_ANSLUTNING
 10
13.000000000005461
 20
28.436768028220289
 30
0.0
  0
VERTEX
  5
2303
  8
SAPA_ANSLUTNING
 10
2.0000000000054561
 20
28.436768028220289
 30
0.0
 42
-0.9999999999999998
  0
VERTEX
  5
2304
  8
SAPA_ANSLUTNING
 10
2.0000000000054561
 20
32.436768028220293
 30
0.0
  0
VERTEX
  5
2305
  8
SAPA_ANSLUTNING
 10
13.000000000005461
 20
32.436768028220293
 30
0.0
 42
0.9999999999999998
  0
VERTEX
  5
2306
  8
SAPA_ANSLUTNING
 10
13.000000000005461
 20
36.436768028220278
 30
0.0
  0
VERTEX
  5
2307
  8
SAPA_ANSLUTNING
 10
2.0000000000054561
 20
36.436768028220278
 30
0.0
 42
-0.9999999999999998
  0
VERTEX
  5
2308
  8
SAPA_ANSLUTNING
 10
2.0000000000054561
 20
40.436768028220278
 30
0.0
  0
VERTEX
  5
2309
  8
SAPA_ANSLUTNING
 10
13.000000000005461
 20
40.436768028220278
 30
0.0
 42
0.9999999999999998
  0
VERTEX
  5
230A
  8
SAPA_ANSLUTNING
 10
13.000000000005461
 20
44.436768028220278
 30
0.0
  0
VERTEX
  5
230B
  8
SAPA_ANSLUTNING
 10
2.0000000000054561
 20
44.436768028220278
 30
0.0
 42
-0.9999999999999998
  0
VERTEX
  5
230C
  8
SAPA_ANSLUTNING
 10
2.0000000000054561
 20
48.436768028220278
 30
0.0
  0
VERTEX
  5
230D
  8
SAPA_ANSLUTNING
 10
13.000000000005461
 20
48.436768028220278
 30
0.0
 42
0.9999999999999998
  0
VERTEX
  5
230E
  8
SAPA_ANSLUTNING
 10
13.000000000005461
 20
52.436768028220293
 30
0.0
  0
VERTEX
  5
230F
  8
SAPA_ANSLUTNING
 10
2.0000000000054561
 20
52.436768028220293
 30
0.0
 42
-0.9999999999999998
  0
VERTEX
  5
2310
  8
SAPA_ANSLUTNING
 10
2.0000000000054561
 20
56.436768028220278
 30
0.0
  0
VERTEX
  5
2311
  8
SAPA_ANSLUTNING
 10
13.000000000005461
 20
56.436768028220278
 30
0.0
 42
0.9999999999999998
  0
VERTEX
  5
2312
  8
SAPA_ANSLUTNING
 10
13.000000000005461
 20
60.436768028220278
 30
0.0
  0
VERTEX
  5
2313
  8
SAPA_ANSLUTNING
 10
2.0000000000054561
 20
60.436768028220278
 30
0.0
 42
-0.9999999999999998
  0
VERTEX
  5
2314
  8
SAPA_ANSLUTNING
 10
2.0000000000054561
 20
64.436768028220285
 30
0.0
  0
VERTEX
  5
2315
  8
SAPA_ANSLUTNING
 10
13.000000000005461
 20
64.436768028220285
 30
0.0
 42
0.9999999999999998
  0
VERTEX
  5
2316
  8
SAPA_ANSLUTNING
 10
13.000000000005461
 20
68.436768028220285
 30
0.0
  0
VERTEX
  5
2317
  8
SAPA_ANSLUTNING
 10
2.0000000000054561
 20
68.436768028220285
 30
0.0
 42
-0.9999999999999429
  0
VERTEX
  5
2318
  8
SAPA_ANSLUTNING
 10
2.0000000000050022
 20
72.436768028219831
 30
0.0
  0
VERTEX
  5
2319
  8
SAPA_ANSLUTNING
 10
13.000000000005461
 20
72.436768028220285
 30
0.0
 42
0.9999999999999998
  0
VERTEX
  5
231A
  8
SAPA_ANSLUTNING
 10
13.000000000005461
 20
76.436768028220285
 30
0.0
  0
VERTEX
  5
231B
  8
SAPA_ANSLUTNING
 10
2.0000000000054561
 20
76.436768028220058
 30
0.0
 42
-0.9999999999999998
  0
VERTEX
  5
231C
  8
SAPA_ANSLUTNING
 10
2.0000000000054561
 20
80.436768028220044
 30
0.0
  0
VERTEX
  5
231D
  8
SAPA_ANSLUTNING
 10
13.000000000005461
 20
80.436768028220044
 30
0.0
 42
0.9999999999999998
  0
VERTEX
  5
231E
  8
SAPA_ANSLUTNING
 10
13.000000000005461
 20
84.436768028220058
 30
0.0
  0
VERTEX
  5
231F
  8
SAPA_ANSLUTNING
 10
2.0000000000054561
 20
84.436768028220058
 30
0.0
 42
-0.9999999999999998
  0
VERTEX
  5
2320
  8
SAPA_ANSLUTNING
 10
2.0000000000054561
 20
88.436768028220058
 30
0.0
  0
VERTEX
  5
2321
  8
SAPA_ANSLUTNING
 10
13.000000000005461
 20
88.436768028220058
 30
0.0
 42
0.9999999999999998
  0
VERTEX
  5
2322
  8
SAPA_ANSLUTNING
 10
13.000000000005461
 20
92.436768028220058
 30
0.0
  0
VERTEX
  5
2323
  8
SAPA_ANSLUTNING
 10
2.0000000000054561
 20
92.436768028220058
 30
0.0
 42
-0.9999999999999998
  0
VERTEX
  5
2324
  8
SAPA_ANSLUTNING
 10
2.0000000000054561
 20
96.436768028220072
 30
0.0
  0
VERTEX
  5
2325
  8
SAPA_ANSLUTNING
 10
13.000000000005461
 20
96.436768028220072
 30
0.0
 42
0.9999999999999998
  0
VERTEX
  5
2326
  8
SAPA_ANSLUTNING
 10
13.000000000005461
 20
100.43676802822
 30
0.0
  0
VERTEX
  5
2327
  8
SAPA_ANSLUTNING
 10
2.0000000000054561
 20
100.43676802822
 30
0.0
 42
-0.9999999999999998
  0
VERTEX
  5
2328
  8
SAPA_ANSLUTNING
 10
2.0000000000054561
 20
104.43676802822
 30
0.0
  0
VERTEX
  5
2329
  8
SAPA_ANSLUTNING
 10
13.000000000005461
 20
104.43676802822
 30
0.0
 42
0.9999999999999998
  0
VERTEX
  5
232A
  8
SAPA_ANSLUTNING
 10
13.000000000005461
 20
108.43676802822
 30
0.0
  0
VERTEX
  5
232B
  8
SAPA_ANSLUTNING
 10
2.0000000000054561
 20
108.43676802822
 30
0.0
 42
-0.9999999999999998
  0
VERTEX
  5
232C
  8
SAPA_ANSLUTNING
 10
2.0000000000054561
 20
112.43676802822
 30
0.0
  0
VERTEX
  5
232D
  8
SAPA_ANSLUTNING
 10
13.000000000005461
 20
112.43676802822
 30
0.0
 42
0.9999999999999998
  0
VERTEX
  5
232E
  8
SAPA_ANSLUTNING
 10
13.000000000005461
 20
116.43676802822
 30
0.0
  0
VERTEX
  5
232F
  8
SAPA_ANSLUTNING
 10
2.0000000000054561
 20
116.43676802822
 30
0.0
 42
-0.9999999999999998
  0
VERTEX
  5
2330
  8
SAPA_ANSLUTNING
 10
2.0000000000054561
 20
120.43676802822
 30
0.0
  0
VERTEX
  5
2331
  8
SAPA_ANSLUTNING
 10
13.000000000005461
 20
120.43676802822
 30
0.0
 42
0.9999999999999998
  0
VERTEX
  5
2332
  8
SAPA_ANSLUTNING
 10
13.000000000005461
 20
124.43676802822
 30
0.0
  0
VERTEX
  5
2333
  8
SAPA_ANSLUTNING
 10
2.0000000000054561
 20
124.43676802822
 30
0.0
 42
-0.9999999999999998
  0
VERTEX
  5
2334
  8
SAPA_ANSLUTNING
 10
2.0000000000054561
 20
128.43676802822
 30
0.0
  0
VERTEX
  5
2335
  8
SAPA_ANSLUTNING
 10
13.000000000005461
 20
128.43676802822
 30
0.0
 42
0.9999999999999998
  0
VERTEX
  5
2336
  8
SAPA_ANSLUTNING
 10
13.000000000005461
 20
132.43676802822
 30
0.0
  0
VERTEX
  5
2337
  8
SAPA_ANSLUTNING
 10
2.0000000000054561
 20
132.43676802822
 30
0.0
 42
-0.9999999999999998
  0
VERTEX
  5
2338
  8
SAPA_ANSLUTNING
 10
2.0000000000054561
 20
136.43676802822
 30
0.0
  0
VERTEX
  5
2339
  8
SAPA_ANSLUTNING
 10
13.000000000005461
 20
136.43676802822
 30
0.0
 42
0.9999999999999998
  0
VERTEX
  5
233A
  8
SAPA_ANSLUTNING
 10
13.000000000005461
 20
140.43676802822
 30
0.0
  0
VERTEX
  5
233B
  8
SAPA_ANSLUTNING
 10
2.0000000000054561
 20
140.43676802822
 30
0.0
 42
-0.9999999999999998
  0
VERTEX
  5
233C
  8
SAPA_ANSLUTNING
 10
2.0000000000054561
 20
144.43676802822
 30
0.0
  0
VERTEX
  5
233D
  8
SAPA_ANSLUTNING
 10
13.000000000005461
 20
144.43676802822
 30
0.0
 42
0.9999999999999998
  0
VERTEX
  5
233E
  8
SAPA_ANSLUTNING
 10
13.000000000005461
 20
148.43676802822
 30
0.0
  0
VERTEX
  5
233F
  8
SAPA_ANSLUTNING
 10
2.0000000000054561
 20
148.43676802822
 30
0.0
  0
SEQEND
  5
2340
  8
SAPA_ANSLUTNING
  0
ARC
  5
1B07
  8
SAPA_ANSLUTNING
 10
99.648292119881262
 20
153.32825835179
 30
0.0
 40
25.53527834356208
 50
164.8542431569565
 51
188.81704942556391
  0
LINE
  5
1B0D
  8
SAPA_FOGBAND
 10
69.911954841164516
 20
3.6004324596715369
 30
0.0
 11
69.911954841167244
 21
8.5966357878478448
 31
0.0
  0
LINE
  5
1B0E
  8
SAPA_FOGBAND
 10
70.061954841165971
 20
8.5966357878478448
 30
0.0
 11
70.061954841165971
 21
3.6004324596715369
 31
0.0
  0
LINE
  5
1B12
  8
SAPA_FOGBAND
 10
69.911954841164516
 20
69.399567395905251
 30
0.0
 11
69.911954841167244
 21
64.500898305376722
 31
0.0
  0
LINE
  5
1B13
  8
SAPA_FOGBAND
 10
70.061954841165971
 20
64.500898305376722
 30
0.0
 11
70.061954841165971
 21
69.399567395905251
 31
0.0
  0
TEXT
  5
1B29
  8
SAPA_ARTIKELNR
 10
78.835235202215699
 20
68.732319140174468
 30
0.0000000048844772
 40
3.5
  1
D9V007
  7
ISO
  0
TEXT
  5
1B2A
  8
SAPA_ARTIKELNR
 10
81.562798414222016
 20
117.78996674677251
 30
0.0000000048844772
 40
3.5
  1
D9A050
 50
90.0
  7
ISO
  0
LINE
  5
1B2D
  8
SAPA_FOGBAND
 10
61.411954841159961
 20
69.399567395901613
 30
0.0
 11
61.411954841162697
 21
64.500898305373084
 31
0.0
  0
LINE
  5
1B2E
  8
SAPA_FOGBAND
 10
61.56195484116143
 20
64.500898305373084
 30
0.0
 11
61.56195484116143
 21
69.399567395901613
 31
0.0
  0
LINE
  5
1B32
  8
SAPA_FOGBAND
 10
61.411954841155421
 20
3.6004324596926831
 30
0.0
 11
61.411954841158149
 21
8.5966357878689905
 31
0.0
  0
LINE
  5
1B33
  8
SAPA_FOGBAND
 10
61.561954841156883
 20
8.5966357878689905
 30
0.0
 11
61.561954841156883
 21
3.6004324596926831
 31
0.0
  0
LINE
  5
1D1B
  8
SAPA_FOGBAND
 10
61.636954841157603
 20
3.6004324596926831
 30
0.0
 11
61.74695222633909
 21
8.3472664546791293
 31
0.0
  0
LINE
  5
1D1C
  8
SAPA_FOGBAND
 10
61.74695222633909
 20
8.3472664546791293
 30
0.0
 11
64.185045566761801
 21
8.3466899558045498
 31
0.0
  0
LINE
  5
1D1D
  8
SAPA_FOGBAND
 10
64.185045566761801
 20
8.3466899558045498
 30
0.0
 11
63.059644444297192
 21
3.6004324596926831
 31
0.0
  0
LINE
  5
1D20
  8
SAPA_FOGBAND
 10
59.914265238015112
 20
3.6004324596926831
 30
0.0
 11
58.788818640698992
 21
8.3468596702716695
 31
0.0
  0
LINE
  5
1D21
  8
SAPA_FOGBAND
 10
58.788818640698992
 20
8.3468596702716695
 30
0.0
 11
61.226956687247373
 21
8.3472958110917261
 31
0.0
  0
LINE
  5
1D22
  8
SAPA_FOGBAND
 10
61.226956687247373
 20
8.3472958110917261
 30
0.0
 11
61.336954841154693
 21
3.6004324596926831
 31
0.0
  0
LINE
  5
1D23
  8
SAPA_FOGBAND
 10
64.636954841153965
 20
2.8004324596915922
 30
0.0
 11
64.636954841153965
 21
3.6004324596926831
 31
0.0
  0
LINE
  5
1D24
  8
SAPA_FOGBAND
 10
64.636954841153965
 20
3.6004324596926831
 30
0.0
 11
58.336954841157421
 21
3.6004324596926831
 31
0.0
  0
LINE
  5
1D25
  8
SAPA_FOGBAND
 10
58.336954841157421
 20
3.6004324596926831
 30
0.0
 11
58.336954841157421
 21
2.8004324596915922
 31
0.0
  0
LINE
  5
1D26
  8
SAPA_FOGBAND
 10
58.336954841157421
 20
2.8004324596915922
 30
0.0
 11
64.636954841153965
 21
2.8004324596915922
 31
0.0
  0
LINE
  5
1D27
  8
SAPA_FOGBAND
 10
61.636954841162151
 20
69.399567395901613
 30
0.0
 11
61.746952226343637
 21
64.750267638562946
 31
0.0
  0
LINE
  5
1D28
  8
SAPA_FOGBAND
 10
61.746952226343637
 20
64.750267638562946
 30
0.0
 11
64.185045566766334
 21
64.750844137437525
 31
0.0
  0
LINE
  5
1D29
  8
SAPA_FOGBAND
 10
64.185045566766334
 20
64.750844137437525
 30
0.0
 11
63.059644444301732
 21
69.399567395901613
 31
0.0
  0
LINE
  5
1D2A
  8
SAPA_FOGBAND
 10
59.914265238019652
 20
69.399567395901613
 30
0.0
 11
58.788818640703539
 21
64.750674422970405
 31
0.0
  0
LINE
  5
1D2B
  8
SAPA_FOGBAND
 10
58.788818640703539
 20
64.750674422970405
 30
0.0
 11
61.226956687251914
 21
64.750238282150349
 31
0.0
  0
LINE
  5
1D2C
  8
SAPA_FOGBAND
 10
61.226956687251914
 20
64.750238282150349
 30
0.0
 11
61.33695484115924
 21
69.399567395901613
 31
0.0
  0
LINE
  5
1D2D
  8
SAPA_FOGBAND
 10
64.636954841158513
 20
70.199567395902704
 30
0.0
 11
64.636954841158513
 21
69.399567395901613
 31
0.0
  0
LINE
  5
1D2E
  8
SAPA_FOGBAND
 10
64.636954841158513
 20
69.399567395901613
 30
0.0
 11
58.336954841161969
 21
69.399567395901613
 31
0.0
  0
LINE
  5
1D2F
  8
SAPA_FOGBAND
 10
58.336954841161969
 20
69.399567395901613
 30
0.0
 11
58.336954841161969
 21
70.199567395902704
 31
0.0
  0
LINE
  5
1D30
  8
SAPA_FOGBAND
 10
58.336954841161969
 20
70.199567395902704
 30
0.0
 11
64.636954841158513
 21
70.199567395902704
 31
0.0
  0
LINE
  5
1D31
  8
SAPA_GLAS
 10
124.07584385232479
 20
54.499999927940962
 30
0.0
 11
92.075843852324837
 21
54.499999927940962
 31
0.0
  0
LINE
  5
1D32
  8
SAPA_GLAS
 10
92.075843852324837
 20
54.499999927940962
 30
0.0
 11
92.075843852324837
 21
62.499999927940962
 31
0.0
  0
LINE
  5
1D33
  8
SAPA_GLAS
 10
92.075843852324837
 20
62.499999927940962
 30
0.0
 11
124.07584385232479
 21
62.499999927940962
 31
0.0
  0
LINE
  5
1D34
  8
SAPA_GLAS
 10
102.07584385232479
 20
54.499999927940962
 30
0.0
 11
102.07584385232479
 21
39.499999927940962
 31
0.0
  0
LINE
  5
1D35
  8
SAPA_GLAS
 10
102.07584385232479
 20
39.499999927940962
 30
0.0
 11
92.075843852324837
 21
39.499999927940962
 31
0.0
  0
LINE
  5
1D36
  8
SAPA_GLAS
 10
92.075843852324837
 20
39.499999927940962
 30
0.0
 11
92.075843852324837
 21
54.499999927940962
 31
0.0
  0
LINE
  5
1D37
  8
SAPA_GLAS
 10
92.075843852324837
 20
54.499999927940962
 30
0.0
 11
102.07584385232479
 21
54.499999927940962
 31
0.0
  0
LINE
  5
1D38
  8
SAPA_GLAS
 10
124.07584385232479
 20
33.499999927940962
 30
0.0
 11
92.075843852324837
 21
33.499999927940962
 31
0.0
  0
LINE
  5
1D39
  8
SAPA_GLAS
 10
92.075843852324837
 20
33.499999927940962
 30
0.0
 11
92.075843852324837
 21
39.499999927940962
 31
0.0
  0
LINE
  5
1D3A
  8
SAPA_GLAS
 10
92.075843852324837
 20
39.499999927940962
 30
0.0
 11
124.07584385232479
 21
39.499999927940962
 31
0.0
  0
LINE
  5
1D3B
  8
SAPA_GLAS
 10
102.07584385232479
 20
33.499999927780209
 30
0.0
 11
102.07584385232479
 21
18.499999927780209
 31
0.0
  0
LINE
  5
1D3C
  8
SAPA_GLAS
 10
102.07584385232479
 20
18.499999927780209
 30
0.0
 11
92.075843852324837
 21
18.499999927780209
 31
0.0
  0
LINE
  5
1D3D
  8
SAPA_GLAS
 10
92.075843852324837
 20
18.499999927780209
 30
0.0
 11
92.075843852324837
 21
33.499999927780209
 31
0.0
  0
LINE
  5
1D3E
  8
SAPA_GLAS
 10
92.075843852324837
 20
33.499999927780209
 30
0.0
 11
102.07584385232479
 21
33.499999927780209
 31
0.0
  0
LINE
  5
1D3F
  8
SAPA_GLAS
 10
124.07584385232479
 20
10.49999992777998
 30
0.0
 11
92.075843852324837
 21
10.49999992777998
 31
0.0
  0
LINE
  5
1D40
  8
SAPA_GLAS
 10
92.075843852324837
 20
10.49999992777998
 30
0.0
 11
92.075843852324837
 21
18.499999927779982
 31
0.0
  0
LINE
  5
1D41
  8
SAPA_GLAS
 10
92.075843852324837
 20
18.499999927779982
 30
0.0
 11
124.07584385232479
 21
18.499999927779982
 31
0.0
  0
LINE
  5
1D42
  8
SAPA_PROFIL
 10
79.30055534993744
 20
15.49999992846824
 30
0.0
 11
81.700555349946171
 21
15.49999992844641
 31
0.0
  0
ARC
  5
1D43
  8
SAPA_PROFIL
 10
81.700555349948715
 20
15.19999992844787
 30
0.0
 40
0.2999999999985459
 50
0.0000000019456513
 51
90.000000000485812
  0
LINE
  5
1D44
  8
SAPA_PROFIL
 10
82.000555349947263
 20
15.19999992845805
 30
0.0
 11
82.000555349947263
 21
10.99999992844641
 31
0.0
  0
ARC
  5
1D45
  8
SAPA_PROFIL
 10
85.000555349947277
 20
10.999999928457321
 30
0.0
 40
3.0
 50
180.00000000020839
 51
270.00000000020839
  0
LINE
  5
1D46
  8
SAPA_PROFIL
 10
85.000555349958177
 20
7.9999999284573269
 30
0.0
 11
90.000555349947277
 21
7.9999999284573269
 31
0.0
  0
ARC
  5
1D47
  8
SAPA_PROFIL
 10
90.000555349987536
 20
137.99999992846909
 30
0.0
 40
130.0000000000118
 50
269.99999999998221
 51
276.3992029854416
  0
ARC
  5
1D48
  8
SAPA_PROFIL
 10
104.4005553492083
 20
9.6049844494983105
 30
0.0
 40
0.8000000006978916
 50
276.39920303342791
 51
356.84802947221658
  0
ARC
  5
1D49
  8
SAPA_PROFIL
 10
105.39904255689569
 20
9.5499999291805331
 30
0.0
 40
0.1999999999971096
 50
89.999999999951143
 51
176.84802942485851
  0
LINE
  5
1D4A
  8
SAPA_PROFIL
 10
105.39904255689591
 20
9.7499999291776476
 30
0.0
 11
106.30055534995741
 21
9.7499999291812856
 31
0.0
  0
ARC
  5
1D4B
  8
SAPA_PROFIL
 10
106.30055534995741
 20
9.5499999291805651
 30
0.0
 40
0.2000000000007205
 50
359.9999999968714
 51
90.0
  0
LINE
  5
1D4C
  8
SAPA_PROFIL
 10
106.50055534995811
 20
9.549999929169644
 30
0.0
 11
106.5005553499654
 21
9.3239408606987126
 31
0.0
  0
ARC
  5
1D4D
  8
SAPA_PROFIL
 10
104.50055534996559
 20
9.3239408607206968
 30
0.0
 40
1.999999999999829
 50
276.50450009400748
 51
359.99999999937017
  0
ARC
  5
1D4E
  8
SAPA_PROFIL
 10
90.000555349962767
 20
136.49999992847361
 30
0.0
 40
130.0000000000181
 50
264.11075825155928
 51
276.5045000940122
  0
ARC
  5
1D4F
  8
SAPA_PROFIL
 10
77.687863825976592
 20
17.133347853493639
 30
0.0
 40
9.9999999993756976
 50
253.29089246669531
 51
264.1107582507554
  0
ARC
  5
1D50
  8
SAPA_PROFIL
 10
82.000555349984552
 20
31.499999928145499
 30
0.0
 40
24.999999999887329
 50
250.53704905358981
 51
253.29089246734139
  0
ARC
  5
1D51
  8
SAPA_PROFIL
 10
70.338651560272993
 20
-1.500000071738419
 30
0.0
 40
10.00000000001021
 50
70.537049053587566
 51
90.000000000042505
  0
LINE
  5
1D52
  8
SAPA_PROFIL
 10
70.338651560265589
 20
8.4999999282717908
 30
0.0
 11
63.000555349936349
 21
8.4999999282717908
 31
0.0
  0
ARC
  5
1D53
  8
SAPA_PROFIL
 10
63.000555349936349
 20
13.499999928271791
 30
0.0
 40
5.0
 50
180.0
 51
270.0
  0
LINE
  5
1D54
  8
SAPA_PROFIL
 10
58.000555349936349
 20
13.499999928271791
 30
0.0
 11
58.000555349947263
 21
16.256130887171821
 31
0.0
  0
ARC
  5
1D55
  8
SAPA_PROFIL
 10
58.30055534996837
 20
16.256130887171921
 30
0.0
 40
0.3000000000211074
 50
125.62006975991559
 51
180.00000000001901
  0
ARC
  5
1D56
  8
SAPA_PROFIL
 10
57.951110699925401
 20
16.74386896909639
 30
0.0
 40
0.2999999999814031
 50
305.62006975131902
 51
359.99999999492331
  0
LINE
  5
1D57
  8
SAPA_PROFIL
 10
58.251110699906803
 20
16.743868969069808
 30
0.0
 11
58.251110699906803
 21
17.69999992811972
 31
0.0
  0
ARC
  5
1D58
  8
SAPA_PROFIL
 10
57.951110699907929
 20
17.69999992811924
 30
0.0
 40
0.2999999999988745
 50
0.0000000000909215
 51
70.533640999696289
  0
LINE
  5
1D59
  8
SAPA_PROFIL
 10
58.051086699912503
 20
17.982851124726949
 30
0.0
 11
58.051086699912503
 21
20.285810365754511
 31
0.0
  0
ARC
  5
1D5A
  8
SAPA_PROFIL
 10
59.051086699912219
 20
20.285810365753601
 30
0.0
 40
0.9999999999997228
 50
44.99999999995206
 51
179.99999999994759
  0
LINE
  5
1D5B
  8
SAPA_PROFIL
 10
59.75819348109917
 20
20.992917146939359
 30
0.0
 11
61.063242734268442
 21
19.68786789377009
 31
0.0
  0
ARC
  5
1D5C
  8
SAPA_PROFIL
 10
60.851110699910272
 20
19.47573585941403
 30
0.0
 40
0.3000000000016247
 50
359.9999999996981
 51
44.999999999714532
  0
LINE
  5
1D5D
  8
SAPA_PROFIL
 10
61.151110699911897
 20
19.475735859412449
 30
0.0
 11
61.151110699911897
 21
18.889230412665711
 31
0.0
  0
ARC
  5
1D5E
  8
SAPA_PROFIL
 10
60.851110699909007
 20
18.88923041266553
 30
0.0
 40
0.300000000002882
 50
330.00000000003678
 51
0.0000000000346044
  0
LINE
  5
1D5F
  8
SAPA_PROFIL
 10
61.110918321046938
 20
18.739230412664249
 30
0.0
 11
60.251110699910441
 21
17.249999928126272
 31
0.0
  0
LINE
  5
1D60
  8
SAPA_PROFIL
 10
60.251110699910441
 20
17.249999928126272
 30
0.0
 11
60.251098699911829
 21
16.799999928125541
 31
0.0
  0
ARC
  5
1D61
  8
SAPA_PROFIL
 10
60.551098699911101
 20
16.799999928125541
 30
0.0
 40
0.2999999999992653
 50
179.99999999999929
 51
270.00000000000131
  0
LINE
  5
1D62
  8
SAPA_PROFIL
 10
60.551098699911108
 20
16.499999928126272
 30
0.0
 11
64.151110699911897
 21
16.49999992812263
 31
0.0
  0
ARC
  5
1D63
  8
SAPA_PROFIL
 10
64.151110699911897
 20
16.799999928121899
 30
0.0
 40
0.2999999999992724
 50
270.0
 51
0.0
  0
LINE
  5
1D64
  8
SAPA_PROFIL
 10
64.451110699911169
 20
16.799999928121899
 30
0.0
 11
64.451110699911169
 21
17.24999992812263
 31
0.0
  0
LINE
  5
1D65
  8
SAPA_PROFIL
 10
64.451110699911169
 20
17.24999992812263
 30
0.0
 11
63.591285962342681
 21
18.739260059197481
 31
0.0
  0
ARC
  5
1D66
  8
SAPA_PROFIL
 10
63.851093583479042
 20
18.889260059198641
 30
0.0
 40
0.3000000000014712
 50
180.0036468675346
 51
210.00000000009371
  0
LINE
  5
1D67
  8
SAPA_PROFIL
 10
63.551093584085258
 20
18.889240964244891
 30
0.0
 11
63.55109121227769
 21
18.99999992812991
 31
0.0
  0
LINE
  5
1D68
  8
SAPA_PROFIL
 10
63.55109121227769
 20
18.99999992812991
 30
0.0
 11
68.450018924999753
 21
18.999999928115361
 31
0.0
  0
LINE
  5
1D69
  8
SAPA_PROFIL
 10
68.450018924999753
 20
18.999999928115361
 30
0.0
 11
68.450017115852916
 21
18.88924096424125
 31
0.0
  0
ARC
  5
1D6A
  8
SAPA_PROFIL
 10
68.150017116459139
 20
18.889260059194999
 30
0.0
 40
0.3000000000014718
 50
329.99999999990632
 51
359.9963531324654
  0
LINE
  5
1D6B
  8
SAPA_PROFIL
 10
68.4098247375955
 20
18.739260059193839
 30
0.0
 11
67.550000000027012
 21
17.249999928118989
 31
0.0
  0
LINE
  5
1D6C
  8
SAPA_PROFIL
 10
67.550000000027012
 20
17.249999928118989
 30
0.0
 11
67.550000000027012
 21
16.799999928118272
 31
0.0
  0
ARC
  5
1D6D
  8
SAPA_PROFIL
 10
67.850000000026284
 20
16.799999928118272
 30
0.0
 40
0.2999999999992724
 50
180.0
 51
270.0
  0
LINE
  5
1D6E
  8
SAPA_PROFIL
 10
67.850000000026284
 20
16.499999928118989
 30
0.0
 11
71.450012000027073
 21
16.499999928118989
 31
0.0
  0
ARC
  5
1D6F
  8
SAPA_PROFIL
 10
71.450012000027073
 20
16.799999928118261
 30
0.0
 40
0.2999999999992688
 50
270.0
 51
0.0000000000006785
  0
LINE
  5
1D70
  8
SAPA_PROFIL
 10
71.750012000026345
 20
16.799999928118272
 30
0.0
 11
71.75000000002774
 21
17.249999928118989
 31
0.0
  0
LINE
  5
1D71
  8
SAPA_PROFIL
 10
71.75000000002774
 20
17.249999928118989
 30
0.0
 11
70.890192378893062
 21
18.739230412660621
 31
0.0
  0
ARC
  5
1D72
  8
SAPA_PROFIL
 10
71.150000000024193
 20
18.889230412660069
 30
0.0
 40
0.2999999999960896
 50
180.0000000003127
 51
210.00000000031099
  0
LINE
  5
1D73
  8
SAPA_PROFIL
 10
70.850000000028103
 20
18.889230412658431
 30
0.0
 11
70.850000000028103
 21
19.475735859405169
 31
0.0
  0
ARC
  5
1D74
  8
SAPA_PROFIL
 10
71.150000000029721
 20
19.47573585940675
 30
0.0
 40
0.3000000000016172
 50
135.0000000002845
 51
180.0000000003019
  0
LINE
  5
1D75
  8
SAPA_PROFIL
 10
70.937867965671543
 20
19.68786789376281
 30
0.0
 11
72.24291721884083
 21
20.99291714693209
 31
0.0
  0
ARC
  5
1D76
  8
SAPA_PROFIL
 10
72.950024000027014
 20
20.285810365744499
 30
0.0
 40
1.0000000000004721
 50
359.9999999999481
 51
134.99999999994341
  0
LINE
  5
1D77
  8
SAPA_PROFIL
 10
73.950024000027497
 20
20.2858103657436
 30
0.0
 11
73.950024000027497
 21
17.982851124734221
 31
0.0
  0
ARC
  5
1D78
  8
SAPA_PROFIL
 10
74.050000000028945
 20
17.699999928121009
 30
0.0
 40
0.3000000000030255
 50
109.46635899939
 51
180.00000000024619
  0
LINE
  5
1D79
  8
SAPA_PROFIL
 10
73.750000000025921
 20
17.69999992811972
 30
0.0
 11
73.75000000002774
 21
16.743868969069808
 31
0.0
  0
ARC
  5
1D7A
  8
SAPA_PROFIL
 10
74.050000000023303
 20
16.74386896907766
 30
0.0
 40
0.2999999999955776
 50
180.0000000014995
 51
234.3799302447257
  0
ARC
  5
1D7B
  8
SAPA_PROFIL
 10
73.700555349986473
 20
16.256130887127249
 30
0.0
 40
0.3000000000244556
 50
0.0000000078178882
 51
54.379930247876068
  0
LINE
  5
1D7C
  8
SAPA_PROFIL
 10
74.000555350010927
 20
16.25613088716818
 30
0.0
 11
74.000555349965452
 21
15.49999992844641
 31
0.0
  0
ARC
  5
1D7D
  8
SAPA_PROFIL
 10
73.000555349961814
 20
15.49999992845005
 30
0.0
 40
1.0000000000036371
 50
270.00000000020839
 51
359.9999999997915
  0
LINE
  5
1D7E
  8
SAPA_PROFIL
 10
73.000555349965452
 20
14.49999992844641
 30
0.0
 11
70.500555349809019
 21
14.499999928271791
 31
0.0
  0
ARC
  5
1D7F
  8
SAPA_PROFIL
 10
70.500555349958177
 20
12.499999928271791
 30
0.0
 40
2.0
 50
90.000000004273033
 51
270.0
  0
LINE
  5
1D80
  8
SAPA_PROFIL
 10
70.500555349958177
 20
10.499999928271791
 30
0.0
 11
78.500555349958177
 21
10.499999928271791
 31
0.0
  0
ARC
  5
1D81
  8
SAPA_PROFIL
 10
78.500555349961814
 20
12.499999928268149
 30
0.0
 40
1.999999999996362
 50
269.99999999989581
 51
0.0000000003126612
  0
LINE
  5
1D82
  8
SAPA_PROFIL
 10
80.500555349958177
 20
12.49999992827907
 30
0.0
 11
80.500555349936349
 21
14.199999928454419
 31
0.0
  0
ARC
  5
1D83
  8
SAPA_PROFIL
 10
80.200555349937801
 20
14.19999992844787
 30
0.0
 40
0.2999999999985476
 50
0.00000000125017
 51
90.000000001875421
  0
LINE
  5
1D84
  8
SAPA_PROFIL
 10
80.200555349927967
 20
14.49999992844641
 30
0.0
 11
79.30055534993744
 21
14.499999928457321
 31
0.0
  0
ARC
  5
1D85
  8
SAPA_PROFIL
 10
79.300555349931983
 20
14.79999992846205
 30
0.0
 40
0.3000000000047294
 50
180.0000000010422
 51
270.00000000104222
  0
LINE
  5
1D86
  8
SAPA_PROFIL
 10
79.000555349927254
 20
14.7999999284566
 30
0.0
 11
79.000555349927254
 21
15.19999992845805
 31
0.0
  0
ARC
  5
1D87
  8
SAPA_PROFIL
 10
79.30055534993744
 20
15.19999992845805
 30
0.0
 40
0.3000000000101863
 50
90.0
 51
179.9999999999996
  0
LINE
  5
1D88
  8
SAPA_PROFIL
 10
79.30055534993744
 20
15.49999992846778
 30
0.0
 11
81.700555349946171
 21
15.499999928445961
 31
0.0
  0
ARC
  5
1D89
  8
SAPA_PROFIL
 10
81.700555349948715
 20
15.19999992844741
 30
0.0
 40
0.2999999999985459
 50
0.0000000019456513
 51
90.000000000485812
  0
LINE
  5
1D8A
  8
SAPA_PROFIL
 10
82.000555349947263
 20
15.199999928457601
 30
0.0
 11
82.000555349947263
 21
10.999999928445961
 31
0.0
  0
ARC
  5
1D8B
  8
SAPA_PROFIL
 10
85.000555349947277
 20
10.999999928456869
 30
0.0
 40
3.0
 50
180.00000000020839
 51
270.00000000020839
  0
LINE
  5
1D8C
  8
SAPA_PROFIL
 10
85.000555349958177
 20
7.999999928456873
 30
0.0
 11
90.000555349947277
 21
7.999999928456873
 31
0.0
  0
ARC
  5
1D8D
  8
SAPA_PROFIL
 10
90.000555349987536
 20
137.9999999284687
 30
0.0
 40
130.0000000000118
 50
269.99999999998221
 51
276.3992029854416
  0
ARC
  5
1D8E
  8
SAPA_PROFIL
 10
104.4005553492083
 20
9.6049844494978558
 30
0.0
 40
0.8000000006978916
 50
276.39920303342791
 51
356.84802947221658
  0
ARC
  5
1D8F
  8
SAPA_PROFIL
 10
105.39904255689569
 20
9.5499999291800783
 30
0.0
 40
0.1999999999971096
 50
89.999999999951143
 51
176.84802942485851
  0
LINE
  5
1D90
  8
SAPA_PROFIL
 10
105.39904255689591
 20
9.7499999291771928
 30
0.0
 11
106.30055534995741
 21
9.7499999291808308
 31
0.0
  0
ARC
  5
1D91
  8
SAPA_PROFIL
 10
106.30055534995741
 20
9.5499999291801103
 30
0.0
 40
0.2000000000007205
 50
359.9999999968714
 51
90.0
  0
LINE
  5
1D92
  8
SAPA_PROFIL
 10
106.50055534995811
 20
9.5499999291691893
 30
0.0
 11
106.5005553499654
 21
9.3239408606982561
 31
0.0
  0
ARC
  5
1D93
  8
SAPA_PROFIL
 10
104.50055534996559
 20
9.3239408607202421
 30
0.0
 40
1.999999999999829
 50
276.50450009400748
 51
359.99999999937017
  0
ARC
  5
1D94
  8
SAPA_PROFIL
 10
90.000555349962767
 20
136.49999992847319
 30
0.0
 40
130.0000000000181
 50
264.11075825155928
 51
276.5045000940122
  0
ARC
  5
1D95
  8
SAPA_PROFIL
 10
77.687863825976592
 20
17.133347853493181
 30
0.0
 40
9.9999999993756976
 50
253.29089246669531
 51
264.1107582507554
  0
ARC
  5
1D96
  8
SAPA_PROFIL
 10
82.000555349984552
 20
31.499999928145051
 30
0.0
 40
24.999999999887329
 50
250.53704905358981
 51
253.29089246734139
  0
ARC
  5
1D97
  8
SAPA_PROFIL
 10
70.338651560272993
 20
-1.500000071738874
 30
0.0
 40
10.00000000001021
 50
70.537049053587566
 51
90.000000000042505
  0
LINE
  5
1D98
  8
SAPA_PROFIL
 10
70.338651560265589
 20
8.4999999282713361
 30
0.0
 11
63.000555349936349
 21
8.4999999282713361
 31
0.0
  0
ARC
  5
1D99
  8
SAPA_PROFIL
 10
63.000555349936349
 20
13.49999992827134
 30
0.0
 40
5.0
 50
180.0
 51
270.0
  0
LINE
  5
1D9A
  8
SAPA_PROFIL
 10
58.000555349936349
 20
13.49999992827134
 30
0.0
 11
58.000555349947263
 21
16.256130887171359
 31
0.0
  0
ARC
  5
1D9B
  8
SAPA_PROFIL
 10
58.30055534996837
 20
16.256130887171459
 30
0.0
 40
0.3000000000211074
 50
125.62006975991559
 51
180.00000000001901
  0
ARC
  5
1D9C
  8
SAPA_PROFIL
 10
57.951110699925401
 20
16.743868969095931
 30
0.0
 40
0.2999999999814031
 50
305.62006975131902
 51
359.99999999492331
  0
LINE
  5
1D9D
  8
SAPA_PROFIL
 10
58.251110699906803
 20
16.74386896906935
 30
0.0
 11
58.251110699906803
 21
17.699999928119269
 31
0.0
  0
ARC
  5
1D9E
  8
SAPA_PROFIL
 10
57.951110699907929
 20
17.699999928118789
 30
0.0
 40
0.2999999999988745
 50
0.0000000000909215
 51
70.533640999696289
  0
LINE
  5
1D9F
  8
SAPA_PROFIL
 10
58.051086699912503
 20
17.982851124726491
 30
0.0
 11
58.051086699912503
 21
20.28581036575406
 31
0.0
  0
ARC
  5
1DA0
  8
SAPA_PROFIL
 10
59.051086699912219
 20
20.28581036575315
 30
0.0
 40
0.9999999999997228
 50
44.99999999995206
 51
179.99999999994759
  0
LINE
  5
1DA1
  8
SAPA_PROFIL
 10
59.75819348109917
 20
20.992917146938911
 30
0.0
 11
61.063242734268442
 21
19.687867893769631
 31
0.0
  0
ARC
  5
1DA2
  8
SAPA_PROFIL
 10
60.851110699910272
 20
19.475735859413579
 30
0.0
 40
0.3000000000016247
 50
359.9999999996981
 51
44.999999999714532
  0
LINE
  5
1DA3
  8
SAPA_PROFIL
 10
61.151110699911897
 20
19.475735859411991
 30
0.0
 11
61.151110699911897
 21
18.889230412665249
 31
0.0
  0
ARC
  5
1DA4
  8
SAPA_PROFIL
 10
60.851110699909007
 20
18.889230412665071
 30
0.0
 40
0.300000000002882
 50
330.00000000003678
 51
0.0000000000346044
  0
LINE
  5
1DA5
  8
SAPA_PROFIL
 10
61.110918321046938
 20
18.739230412663801
 30
0.0
 11
60.251110699910441
 21
17.249999928125821
 31
0.0
  0
LINE
  5
1DA6
  8
SAPA_PROFIL
 10
60.251110699910441
 20
17.249999928125821
 30
0.0
 11
60.251098699911829
 21
16.799999928125089
 31
0.0
  0
ARC
  5
1DA7
  8
SAPA_PROFIL
 10
60.551098699911101
 20
16.799999928125079
 30
0.0
 40
0.2999999999992653
 50
179.99999999999929
 51
270.00000000000131
  0
LINE
  5
1DA8
  8
SAPA_PROFIL
 10
60.551098699911108
 20
16.49999992812581
 30
0.0
 11
64.151110699911897
 21
16.499999928122179
 31
0.0
  0
ARC
  5
1DA9
  8
SAPA_PROFIL
 10
64.151110699911897
 20
16.799999928121451
 30
0.0
 40
0.2999999999992724
 50
270.0
 51
0.0
  0
LINE
  5
1DAA
  8
SAPA_PROFIL
 10
64.451110699911169
 20
16.799999928121451
 30
0.0
 11
64.451110699911169
 21
17.249999928122179
 31
0.0
  0
LINE
  5
1DAB
  8
SAPA_PROFIL
 10
64.451110699911169
 20
17.249999928122179
 30
0.0
 11
63.591285962342681
 21
18.739260059197019
 31
0.0
  0
ARC
  5
1DAC
  8
SAPA_PROFIL
 10
63.851093583479042
 20
18.889260059198179
 30
0.0
 40
0.3000000000014712
 50
180.0036468675346
 51
210.00000000009371
  0
LINE
  5
1DAD
  8
SAPA_PROFIL
 10
63.551093584085258
 20
18.889240964244429
 30
0.0
 11
63.55109121227769
 21
18.999999928129451
 31
0.0
  0
LINE
  5
1DAE
  8
SAPA_PROFIL
 10
63.55109121227769
 20
18.999999928129451
 30
0.0
 11
68.450018924999753
 21
18.999999928114899
 31
0.0
  0
LINE
  5
1DAF
  8
SAPA_PROFIL
 10
68.450018924999753
 20
18.999999928114899
 30
0.0
 11
68.450017115852916
 21
18.889240964240798
 31
0.0
  0
ARC
  5
1DB0
  8
SAPA_PROFIL
 10
68.150017116459139
 20
18.889260059194541
 30
0.0
 40
0.3000000000014718
 50
329.99999999990632
 51
359.9963531324654
  0
LINE
  5
1DB1
  8
SAPA_PROFIL
 10
68.4098247375955
 20
18.739260059193381
 30
0.0
 11
67.550000000027012
 21
17.249999928118541
 31
0.0
  0
LINE
  5
1DB2
  8
SAPA_PROFIL
 10
67.550000000027012
 20
17.249999928118541
 30
0.0
 11
67.550000000027012
 21
16.79999992811781
 31
0.0
  0
ARC
  5
1DB3
  8
SAPA_PROFIL
 10
67.850000000026284
 20
16.79999992811781
 30
0.0
 40
0.2999999999992724
 50
180.0
 51
270.0
  0
LINE
  5
1DB4
  8
SAPA_PROFIL
 10
67.850000000026284
 20
16.499999928118541
 30
0.0
 11
71.450012000027073
 21
16.499999928118541
 31
0.0
  0
ARC
  5
1DB5
  8
SAPA_PROFIL
 10
71.450012000027073
 20
16.79999992811781
 30
0.0
 40
0.2999999999992688
 50
270.0
 51
0.0000000000006785
  0
LINE
  5
1DB6
  8
SAPA_PROFIL
 10
71.750012000026345
 20
16.79999992811781
 30
0.0
 11
71.75000000002774
 21
17.249999928118541
 31
0.0
  0
LINE
  5
1DB7
  8
SAPA_PROFIL
 10
71.75000000002774
 20
17.249999928118541
 30
0.0
 11
70.890192378893062
 21
18.739230412660159
 31
0.0
  0
ARC
  5
1DB8
  8
SAPA_PROFIL
 10
71.150000000024193
 20
18.889230412659622
 30
0.0
 40
0.2999999999960896
 50
180.0000000003127
 51
210.00000000031099
  0
LINE
  5
1DB9
  8
SAPA_PROFIL
 10
70.850000000028103
 20
18.88923041265798
 30
0.0
 11
70.850000000028103
 21
19.475735859404718
 31
0.0
  0
ARC
  5
1DBA
  8
SAPA_PROFIL
 10
71.150000000029721
 20
19.475735859406299
 30
0.0
 40
0.3000000000016172
 50
135.0000000002845
 51
180.0000000003019
  0
LINE
  5
1DBB
  8
SAPA_PROFIL
 10
70.937867965671543
 20
19.687867893762359
 30
0.0
 11
72.24291721884083
 21
20.992917146931632
 31
0.0
  0
ARC
  5
1DBC
  8
SAPA_PROFIL
 10
72.950024000027014
 20
20.285810365744052
 30
0.0
 40
1.0000000000004721
 50
359.9999999999481
 51
134.99999999994341
  0
LINE
  5
1DBD
  8
SAPA_PROFIL
 10
73.950024000027497
 20
20.285810365743149
 30
0.0
 11
73.950024000027497
 21
17.98285112473377
 31
0.0
  0
ARC
  5
1DBE
  8
SAPA_PROFIL
 10
74.050000000028945
 20
17.699999928120562
 30
0.0
 40
0.3000000000030255
 50
109.46635899939
 51
180.00000000024619
  0
LINE
  5
1DBF
  8
SAPA_PROFIL
 10
73.750000000025921
 20
17.699999928119269
 30
0.0
 11
73.75000000002774
 21
16.74386896906935
 31
0.0
  0
ARC
  5
1DC0
  8
SAPA_PROFIL
 10
74.050000000023303
 20
16.743868969077202
 30
0.0
 40
0.2999999999955776
 50
180.0000000014995
 51
234.3799302447257
  0
ARC
  5
1DC1
  8
SAPA_PROFIL
 10
73.700555349986473
 20
16.25613088712679
 30
0.0
 40
0.3000000000244556
 50
0.0000000078178882
 51
54.379930247876068
  0
LINE
  5
1DC2
  8
SAPA_PROFIL
 10
74.000555350010927
 20
16.256130887167728
 30
0.0
 11
74.000555349965452
 21
15.499999928445961
 31
0.0
  0
ARC
  5
1DC3
  8
SAPA_PROFIL
 10
73.000555349961814
 20
15.49999992844959
 30
0.0
 40
1.0000000000036371
 50
270.00000000020839
 51
359.9999999997915
  0
LINE
  5
1DC4
  8
SAPA_PROFIL
 10
73.000555349965452
 20
14.499999928445961
 30
0.0
 11
70.500555349809019
 21
14.499999928271331
 31
0.0
  0
ARC
  5
1DC5
  8
SAPA_PROFIL
 10
70.500555349958177
 20
12.499999928271331
 30
0.0
 40
2.0
 50
90.000000004273033
 51
270.0
  0
LINE
  5
1DC6
  8
SAPA_PROFIL
 10
70.500555349958177
 20
10.499999928271331
 30
0.0
 11
78.500555349958177
 21
10.499999928271331
 31
0.0
  0
ARC
  5
1DC7
  8
SAPA_PROFIL
 10
78.500555349961814
 20
12.4999999282677
 30
0.0
 40
1.999999999996362
 50
269.99999999989581
 51
0.0000000003126612
  0
LINE
  5
1DC8
  8
SAPA_PROFIL
 10
80.500555349958177
 20
12.49999992827861
 30
0.0
 11
80.500555349936349
 21
14.199999928453961
 31
0.0
  0
ARC
  5
1DC9
  8
SAPA_PROFIL
 10
80.200555349937801
 20
14.19999992844742
 30
0.0
 40
0.2999999999985476
 50
0.00000000125017
 51
90.000000001875421
  0
LINE
  5
1DCA
  8
SAPA_PROFIL
 10
80.200555349927967
 20
14.499999928445961
 30
0.0
 11
79.30055534993744
 21
14.499999928456869
 31
0.0
  0
ARC
  5
1DCB
  8
SAPA_PROFIL
 10
79.300555349931983
 20
14.799999928461601
 30
0.0
 40
0.3000000000047294
 50
180.0000000010422
 51
270.00000000104222
  0
LINE
  5
1DCC
  8
SAPA_PROFIL
 10
79.000555349927254
 20
14.79999992845614
 30
0.0
 11
79.000555349927254
 21
15.199999928457601
 31
0.0
  0
ARC
  5
1DCD
  8
SAPA_PROFIL
 10
79.30055534993744
 20
15.199999928457601
 30
0.0
 40
0.3000000000101863
 50
90.0
 51
179.9999999999996
  0
ARC
  5
1DCE
  8
SAPA_PROFIL
 62
     4
 10
60.109602782561979
 20
19.586577411466749
 30
-0.2
 40
1.3416252492690111
 50
331.97558124347307
 51
359.20443003929381
  0
LINE
  5
1DCF
  8
SAPA_PROFIL
 62
     4
 10
61.293919022936727
 20
18.956217710771401
 30
-0.2
 11
60.30109869990747
 21
17.23660246849704
 31
-0.2
  0
LINE
  5
1DD0
  8
SAPA_PROFIL
 62
     4
 10
60.30109869990747
 20
17.23660246849704
 30
-0.2
 11
60.30109869990747
 21
16.799999928118719
 31
-0.2
  0
ARC
  5
1DD1
  8
SAPA_PROFIL
 62
     4
 10
60.55109869990747
 20
16.799999928118719
 30
-0.2
 40
0.25
 50
180.0
 51
270.0
  0
LINE
  5
1DD2
  8
SAPA_PROFIL
 62
     4
 10
60.55109869990747
 20
16.549999928118719
 30
-0.2
 11
64.151110699907349
 21
16.549999928118719
 31
-0.2
  0
ARC
  5
1DD3
  8
SAPA_PROFIL
 62
     4
 10
64.151110699907349
 20
16.799999928118719
 30
-0.2
 40
0.2499999999999964
 50
270.0
 51
0.0000000000008142
  0
LINE
  5
1DD4
  8
SAPA_PROFIL
 62
     4
 10
64.401110699907335
 20
16.799999928118719
 30
-0.2
 11
64.401099057171905
 21
17.236601849697308
 31
-0.2
  0
LINE
  5
1DD5
  8
SAPA_PROFIL
 62
     4
 10
64.401099057171905
 20
17.236601849697308
 30
-0.2
 11
63.408278376881754
 21
18.95621771076458
 31
-0.2
  0
ARC
  5
1DD6
  8
SAPA_PROFIL
 62
     4
 10
64.528503481375523
 20
19.570190460924291
 30
-0.2
 40
1.2774454284535071
 50
180.45706900707461
 51
208.7262573819288
  0
LINE
  5
1DD7
  8
SAPA_PROFIL
 62
     4
 10
63.251098699907288
 20
19.559999928118941
 30
-0.2
 11
63.251098699907288
 21
53.439999928118588
 31
-0.2
  0
ARC
  5
1DD8
  8
SAPA_PROFIL
 62
     4
 10
64.528503481375509
 20
53.429809395313242
 30
-0.2
 40
1.2774454284534931
 50
151.2737426180708
 51
179.54293099292539
  0
LINE
  5
1DD9
  8
SAPA_PROFIL
 62
     4
 10
63.408278376881754
 20
54.04378214547296
 30
-0.2
 11
64.401099057171905
 21
55.763398006540228
 31
-0.2
  0
LINE
  5
1DDA
  8
SAPA_PROFIL
 62
     4
 10
64.401099057171905
 20
55.763398006540228
 30
-0.2
 11
64.401110699907335
 21
56.199999928118807
 31
-0.2
  0
ARC
  5
1DDB
  8
SAPA_PROFIL
 62
     4
 10
64.151110699907349
 20
56.199999928118821
 30
-0.2
 40
0.25
 50
359.99999999999841
 51
90.0
  0
LINE
  5
1DDC
  8
SAPA_PROFIL
 62
     4
 10
64.151110699907349
 20
56.449999928118807
 30
-0.2
 11
60.55109869990747
 21
56.449999928118807
 31
-0.2
  0
ARC
  5
1DDD
  8
SAPA_PROFIL
 62
     4
 10
60.55109869990747
 20
56.199999928118807
 30
-0.2
 40
0.25
 50
90.0
 51
180.0
  0
LINE
  5
1DDE
  8
SAPA_PROFIL
 62
     4
 10
60.30109869990747
 20
56.199999928118807
 30
-0.2
 11
60.30109869990747
 21
55.76339738774049
 31
-0.2
  0
LINE
  5
1DDF
  8
SAPA_PROFIL
 62
     4
 10
60.30109869990747
 20
55.76339738774049
 30
-0.2
 11
61.293919022936727
 21
54.043782145466139
 31
-0.2
  0
ARC
  5
1DE0
  8
SAPA_PROFIL
 62
     4
 10
60.109602782561041
 20
53.413422444770553
 30
-0.2
 40
1.3416252492699461
 50
0.7955699606958867
 51
28.024418756516631
  0
LINE
  5
1DE1
  8
SAPA_PROFIL
 62
     4
 10
61.451098699907106
 20
53.432050735687433
 30
-0.2
 11
61.451098699907106
 21
19.567949120549649
 31
-0.2
  0
ARC
  5
1DE2
  8
SAPA_PROFIL
 62
     4
 10
67.408504082681702
 20
19.586577411466749
 30
-0.2
 40
1.3416252492690111
 50
331.97558124347307
 51
359.20443003929381
  0
LINE
  5
1DE3
  8
SAPA_PROFIL
 62
     4
 10
68.592820323056458
 20
18.956217710771401
 30
-0.2
 11
67.600000000027194
 21
17.23660246849704
 31
-0.2
  0
LINE
  5
1DE4
  8
SAPA_PROFIL
 62
     4
 10
67.600000000027194
 20
17.23660246849704
 30
-0.2
 11
67.600000000027194
 21
16.799999928118719
 31
-0.2
  0
ARC
  5
1DE5
  8
SAPA_PROFIL
 62
     4
 10
67.850000000027194
 20
16.799999928118719
 30
-0.2
 40
0.25
 50
180.0
 51
270.0
  0
LINE
  5
1DE6
  8
SAPA_PROFIL
 62
     4
 10
67.850000000027194
 20
16.549999928118719
 30
-0.2
 11
71.450012000027073
 21
16.549999928118719
 31
-0.2
  0
ARC
  5
1DE7
  8
SAPA_PROFIL
 62
     4
 10
71.450012000027073
 20
16.799999928118719
 30
-0.2
 40
0.2499999999999964
 50
270.0
 51
0.0000000000008142
  0
LINE
  5
1DE8
  8
SAPA_PROFIL
 62
     4
 10
71.700012000027073
 20
16.799999928118719
 30
-0.2
 11
71.700000357291628
 21
17.236601849697308
 31
-0.2
  0
LINE
  5
1DE9
  8
SAPA_PROFIL
 62
     4
 10
71.700000357291628
 20
17.236601849697308
 30
-0.2
 11
70.707179677001477
 21
18.95621771076458
 31
-0.2
  0
ARC
  5
1DEA
  8
SAPA_PROFIL
 62
     4
 10
71.827404781495247
 20
19.570190460924291
 30
-0.2
 40
1.2774454284535071
 50
180.45706900707461
 51
208.7262573819288
  0
LINE
  5
1DEB
  8
SAPA_PROFIL
 62
     4
 10
70.550000000027012
 20
19.559999928118941
 30
-0.2
 11
70.550000000027012
 21
53.439999928118588
 31
-0.2
  0
ARC
  5
1DEC
  8
SAPA_PROFIL
 62
     4
 10
71.827404781495233
 20
53.429809395313242
 30
-0.2
 40
1.2774454284534931
 50
151.2737426180708
 51
179.54293099292539
  0
LINE
  5
1DED
  8
SAPA_PROFIL
 62
     4
 10
70.707179677001477
 20
54.04378214547296
 30
-0.2
 11
71.700000357291628
 21
55.763398006540228
 31
-0.2
  0
LINE
  5
1DEE
  8
SAPA_PROFIL
 62
     4
 10
71.700000357291628
 20
55.763398006540228
 30
-0.2
 11
71.700012000027073
 21
56.199999928118807
 31
-0.2
  0
ARC
  5
1DEF
  8
SAPA_PROFIL
 62
     4
 10
71.450012000027073
 20
56.199999928118821
 30
-0.2
 40
0.25
 50
359.99999999999841
 51
90.0
  0
LINE
  5
1DF0
  8
SAPA_PROFIL
 62
     4
 10
71.450012000027073
 20
56.449999928118807
 30
-0.2
 11
67.850000000027194
 21
56.449999928118807
 31
-0.2
  0
ARC
  5
1DF1
  8
SAPA_PROFIL
 62
     4
 10
67.850000000027194
 20
56.199999928118807
 30
-0.2
 40
0.25
 50
90.0
 51
180.0
  0
LINE
  5
1DF2
  8
SAPA_PROFIL
 62
     4
 10
67.600000000027194
 20
56.199999928118807
 30
-0.2
 11
67.600000000027194
 21
55.76339738774049
 31
-0.2
  0
LINE
  5
1DF3
  8
SAPA_PROFIL
 62
     4
 10
67.600000000027194
 20
55.76339738774049
 30
-0.2
 11
68.592820323056458
 21
54.043782145466139
 31
-0.2
  0
ARC
  5
1DF4
  8
SAPA_PROFIL
 62
     4
 10
67.408504082680764
 20
53.413422444770553
 30
-0.2
 40
1.3416252492699461
 50
0.7955699606958867
 51
28.024418756516631
  0
LINE
  5
1DF5
  8
SAPA_PROFIL
 62
     4
 10
68.75000000002683
 20
53.432050735687433
 30
-0.2
 11
68.75000000002683
 21
19.567949120549649
 31
-0.2
  0
LINE
  5
1DF6
  8
SAPA_PROFIL
 10
98.000555349967286
 20
93.999999927791563
 30
0.0
 11
98.000555349967286
 21
93.211460953179994
 31
0.0
  0
ARC
  5
1DF7
  8
SAPA_PROFIL
 10
108.00055534999559
 20
93.211460953089158
 30
0.0
 40
10.00000000002832
 50
179.9999999994796
 51
193.21020964705349
  0
ARC
  5
1DF8
  8
SAPA_PROFIL
 10
49.588263522547493
 20
79.499999927455946
 30
0.0
 40
49.999999999908503
 50
347.57420808933438
 51
13.2102096480073
  0
ARC
  5
1DF9
  8
SAPA_PROFIL
 10
95.487312749256134
 20
69.386776897029819
 30
0.0
 40
3.0000000001322711
 50
267.6356595500414
 51
347.57420808929322
  0
ARC
  5
1DFA
  8
SAPA_PROFIL
 10
90.000555349919495
 20
-63.500000071409261
 30
0.0
 40
129.99999999918671
 50
87.635659549935056
 51
95.889241748406974
  0
ARC
  5
1DFB
  8
SAPA_PROFIL
 10
77.6878638260374
 20
55.866652002147198
 30
0.0
 40
9.9999999999710454
 50
95.889241748561986
 51
106.7091075326227
  0
ARC
  5
1DFC
  8
SAPA_PROFIL
 10
82.000555349983784
 20
41.499999927991396
 30
0.0
 40
24.99999999998985
 50
106.70910753257751
 51
109.4629509463298
  0
ARC
  5
1DFD
  8
SAPA_PROFIL
 10
70.338651560262406
 20
74.499999927971231
 30
0.0
 40
10.000000000001391
 50
270.00000000002871
 51
289.46295094648372
  0
LINE
  5
1DFE
  8
SAPA_PROFIL
 10
70.338651560267408
 20
64.499999927969839
 30
0.0
 11
63.000555349938161
 21
64.499999927969839
 31
0.0
  0
ARC
  5
1DFF
  8
SAPA_PROFIL
 10
63.000555349938161
 20
59.499999927969839
 30
0.0
 40
5.0
 50
90.0
 51
180.0
  0
LINE
  5
1E00
  8
SAPA_PROFIL
 10
58.000555349938161
 20
59.499999927969839
 30
0.0
 11
58.000555349949082
 21
56.743868969069801
 31
0.0
  0
ARC
  5
1E01
  8
SAPA_PROFIL
 10
58.30055534996837
 20
56.74386896906617
 30
0.0
 40
0.3000000000192955
 50
179.9999999993052
 51
234.37993023940729
  0
ARC
  5
1E02
  8
SAPA_PROFIL
 10
57.951110699919937
 20
56.256130887138887
 30
0.0
 40
0.2999999999886798
 50
0.0000000055937051
 51
54.379930248821907
  0
LINE
  5
1E03
  8
SAPA_PROFIL
 10
58.251110699908622
 20
56.256130887168183
 30
0.0
 11
58.251110699908622
 21
55.299999928118268
 31
0.0
  0
ARC
  5
1E04
  8
SAPA_PROFIL
 10
57.95111069990778
 20
55.299999928119071
 30
0.0
 40
0.3000000000008356
 50
289.46635899909433
 51
359.99999999984669
  0
LINE
  5
1E05
  8
SAPA_PROFIL
 10
58.051086699907053
 20
55.017148731507397
 30
0.0
 11
58.051086699907053
 21
52.714189490494391
 31
0.0
  0
ARC
  5
1E06
  8
SAPA_PROFIL
 10
59.051086699907522
 20
52.714189490493482
 30
0.0
 40
1.0000000000004761
 50
179.9999999999479
 51
314.9999999999439
  0
LINE
  5
1E07
  8
SAPA_PROFIL
 10
59.758193481093713
 20
52.007082709305898
 30
0.0
 11
61.063242734262992
 21
53.312131962475171
 31
0.0
  0
ARC
  5
1E08
  8
SAPA_PROFIL
 10
60.851110699904822
 20
53.52426399683123
 30
0.0
 40
0.3000000000016223
 50
315.00000000028592
 51
0.0000000003026192
  0
LINE
  5
1E09
  8
SAPA_PROFIL
 10
61.15111069990644
 20
53.524263996832808
 30
0.0
 11
61.15111069990644
 21
54.110769443579549
 31
0.0
  0
ARC
  5
1E0A
  8
SAPA_PROFIL
 10
60.851110699910343
 20
54.110769443577908
 30
0.0
 40
0.2999999999960963
 50
0.0000000003134755
 51
30.000000000310909
  0
LINE
  5
1E0B
  8
SAPA_PROFIL
 10
61.110918321041481
 20
54.260769443577367
 30
0.0
 11
60.251110699906803
 21
55.749999928119003
 31
0.0
  0
LINE
  5
1E0C
  8
SAPA_PROFIL
 10
60.251110699906803
 20
55.749999928119003
 30
0.0
 11
60.251098699908198
 21
56.19999992811973
 31
0.0
  0
ARC
  5
1E0D
  8
SAPA_PROFIL
 10
60.551098699907463
 20
56.19999992811973
 30
0.0
 40
0.2999999999992653
 50
89.999999999998636
 51
180.00000000000131
  0
LINE
  5
1E0E
  8
SAPA_PROFIL
 10
60.55109869990747
 20
56.499999928118989
 30
0.0
 11
64.151110699908259
 21
56.499999928118989
 31
0.0
  0
ARC
  5
1E0F
  8
SAPA_PROFIL
 10
64.151110699908259
 20
56.19999992811973
 30
0.0
 40
0.2999999999992724
 50
0.0
 51
90.0
  0
LINE
  5
1E10
  8
SAPA_PROFIL
 10
64.451110699907531
 20
56.19999992811973
 30
0.0
 11
64.451110699907531
 21
55.749999928119003
 31
0.0
  0
LINE
  5
1E11
  8
SAPA_PROFIL
 10
64.451110699907531
 20
55.749999928119003
 30
0.0
 11
63.59128596233905
 21
54.260739797044153
 31
0.0
  0
ARC
  5
1E12
  8
SAPA_PROFIL
 10
63.851093583475397
 20
54.110739797042989
 30
0.0
 40
0.3000000000014729
 50
149.9999999999057
 51
179.99635313246469
  0
LINE
  5
1E13
  8
SAPA_PROFIL
 10
63.551093584081627
 20
54.110758891996738
 30
0.0
 11
63.551086699907053
 21
53.99999992811172
 31
0.0
  0
LINE
  5
1E14
  8
SAPA_PROFIL
 10
63.551086699907053
 20
53.99999992811172
 30
0.0
 11
66.000555349967271
 21
53.999999928118989
 31
0.0
  0
LINE
  5
1E15
  8
SAPA_PROFIL
 10
66.000555349967271
 20
53.999999928118989
 30
0.0
 11
68.450024000027497
 21
54.002601928119482
 31
0.0
  0
LINE
  5
1E16
  8
SAPA_PROFIL
 10
68.450024000027497
 20
54.002601928119482
 30
0.0
 11
68.450017115852916
 21
54.110758891996738
 31
0.0
  0
ARC
  5
1E17
  8
SAPA_PROFIL
 10
68.150017116459139
 20
54.110739797042989
 30
0.0
 40
0.3000000000014718
 50
0.0036468675353038
 51
30.00000000009425
  0
LINE
  5
1E18
  8
SAPA_PROFIL
 10
68.4098247375955
 20
54.260739797044153
 30
0.0
 11
67.550000000027012
 21
55.749999928119003
 31
0.0
  0
LINE
  5
1E19
  8
SAPA_PROFIL
 10
67.550000000027012
 20
55.749999928119003
 30
0.0
 11
67.550000000027012
 21
56.19999992811973
 31
0.0
  0
ARC
  5
1E1A
  8
SAPA_PROFIL
 10
67.850000000026284
 20
56.19999992811973
 30
0.0
 40
0.2999999999992724
 50
90.0
 51
180.0
  0
LINE
  5
1E1B
  8
SAPA_PROFIL
 10
67.850000000026284
 20
56.499999928118989
 30
0.0
 11
71.450012000027073
 21
56.499999928118989
 31
0.0
  0
ARC
  5
1E1C
  8
SAPA_PROFIL
 10
71.450012000027073
 20
56.19999992811973
 30
0.0
 40
0.2999999999992653
 50
359.99999999999858
 51
90.0
  0
LINE
  5
1E1D
  8
SAPA_PROFIL
 10
71.750012000026345
 20
56.19999992811973
 30
0.0
 11
71.75000000002774
 21
55.749999928119003
 31
0.0
  0
LINE
  5
1E1E
  8
SAPA_PROFIL
 10
71.75000000002774
 20
55.749999928119003
 30
0.0
 11
70.890192378893062
 21
54.260769443577367
 31
0.0
  0
ARC
  5
1E1F
  8
SAPA_PROFIL
 10
71.150000000024193
 20
54.110769443577908
 30
0.0
 40
0.2999999999960913
 50
149.99999999968841
 51
179.99999999968651
  0
LINE
  5
1E20
  8
SAPA_PROFIL
 10
70.850000000028103
 20
54.110769443579549
 30
0.0
 11
70.850000000028103
 21
53.524263996832808
 31
0.0
  0
ARC
  5
1E21
  8
SAPA_PROFIL
 10
71.150000000029721
 20
53.52426399683123
 30
0.0
 40
0.3000000000016172
 50
179.99999999969739
 51
224.99999999971499
  0
LINE
  5
1E22
  8
SAPA_PROFIL
 10
70.937867965671543
 20
53.312131962475171
 30
0.0
 11
72.24291721884083
 21
52.007082709305898
 31
0.0
  0
ARC
  5
1E23
  8
SAPA_PROFIL
 10
72.950024000027014
 20
52.714189490493482
 30
0.0
 40
1.0000000000004701
 50
225.00000000005639
 51
0.0000000000521102
  0
LINE
  5
1E24
  8
SAPA_PROFIL
 10
73.950024000027497
 20
52.714189490494391
 30
0.0
 11
73.950024000027497
 21
55.017148731507397
 31
0.0
  0
ARC
  5
1E25
  8
SAPA_PROFIL
 10
74.050000000027936
 20
55.29999992811797
 30
0.0
 40
0.3000000000001938
 50
179.99999999994299
 51
250.53364100062319
  0
LINE
  5
1E26
  8
SAPA_PROFIL
 10
73.75000000002774
 20
55.299999928118268
 30
0.0
 11
73.75000000002774
 21
56.256130887168183
 31
0.0
  0
ARC
  5
1E27
  8
SAPA_PROFIL
 10
74.050000000022294
 20
56.25613088715955
 30
0.0
 40
0.2999999999945544
 50
125.6200697547461
 51
179.9999999983512
  0
ARC
  5
1E28
  8
SAPA_PROFIL
 10
73.700555349988292
 20
56.743868969110743
 30
0.0
 40
0.3000000000244556
 50
305.62006975212392
 51
359.9999999921821
  0
LINE
  5
1E29
  8
SAPA_PROFIL
 10
74.000555350012746
 20
56.743868969069801
 30
0.0
 11
74.000555349967271
 21
57.499999927791578
 31
0.0
  0
ARC
  5
1E2A
  8
SAPA_PROFIL
 10
73.000555349967271
 20
57.499999927791578
 30
0.0
 40
1.0
 50
0.0
 51
89.999999995935383
  0
LINE
  5
1E2B
  8
SAPA_PROFIL
 10
73.000555350038212
 20
58.499999927791571
 30
0.0
 11
70.500555349809019
 21
58.499999927969839
 31
0.0
  0
ARC
  5
1E2C
  8
SAPA_PROFIL
 10
70.500555349958177
 20
60.499999927969832
 30
0.0
 40
2.0
 50
90.0
 51
269.99999999572702
  0
LINE
  5
1E2D
  8
SAPA_PROFIL
 10
70.500555349958177
 20
62.499999927969839
 30
0.0
 11
78.500555349958177
 21
62.499999927969839
 31
0.0
  0
ARC
  5
1E2E
  8
SAPA_PROFIL
 10
78.500555349959996
 20
60.49999992797165
 30
0.0
 40
1.999999999998181
 50
359.99999999963518
 51
90.000000000052125
  0
LINE
  5
1E2F
  8
SAPA_PROFIL
 10
80.500555349958177
 20
60.499999927958932
 30
0.0
 11
80.500555349939987
 21
58.799999927779929
 31
0.0
  0
ARC
  5
1E30
  8
SAPA_PROFIL
 10
80.200555349938995
 20
58.79999992779257
 30
0.0
 40
0.3000000000009919
 50
269.99999999789662
 51
359.9999999975858
  0
LINE
  5
1E31
  8
SAPA_PROFIL
 10
80.200555349927967
 20
58.499999927791571
 30
0.0
 11
79.30055534993744
 21
58.499999927784302
 31
0.0
  0
ARC
  5
1E32
  8
SAPA_PROFIL
 10
79.300555349933802
 20
58.199999927777753
 30
0.0
 40
0.3000000000065484
 50
89.999999999305217
 51
179.9999999993052
  0
LINE
  5
1E33
  8
SAPA_PROFIL
 10
79.000555349927254
 20
58.199999927781391
 30
0.0
 11
79.000555349927254
 21
57.799999927779943
 31
0.0
  0
ARC
  5
1E34
  8
SAPA_PROFIL
 10
79.30055534993744
 20
57.799999927779943
 30
0.0
 40
0.3000000000101863
 50
180.0
 51
270.0
  0
LINE
  5
1E35
  8
SAPA_PROFIL
 10
79.30055534993744
 20
57.49999992776975
 30
0.0
 11
81.700555349948004
 21
57.49999992778794
 31
0.0
  0
ARC
  5
1E36
  8
SAPA_PROFIL
 10
81.700555349947066
 20
57.799999927789941
 30
0.0
 40
0.3000000000020009
 50
270.00000000017371
 51
359.99999999808932
  0
LINE
  5
1E37
  8
SAPA_PROFIL
 10
82.000555349949067
 20
57.799999927779943
 30
0.0
 11
82.000555349949067
 21
61.999999927791578
 31
0.0
  0
ARC
  5
1E38
  8
SAPA_PROFIL
 10
85.000555349948172
 20
61.999999927781573
 30
0.0
 40
2.9999999999990901
 50
89.999999999808935
 51
179.99999999980889
  0
LINE
  5
1E39
  8
SAPA_PROFIL
 10
85.000555349958177
 20
64.999999927780664
 30
0.0
 11
90.000555349949082
 21
64.999999927780664
 31
0.0
  0
ARC
  5
1E3A
  8
SAPA_PROFIL
 10
90.000555349954936
 20
-65.000000072266445
 30
0.0
 40
130.00000000004709
 50
83.600797014544881
 51
90.000000000002586
  0
ARC
  5
1E3B
  8
SAPA_PROFIL
 10
104.4005553492114
 20
63.39501540673897
 30
0.0
 40
0.8000000006948486
 50
3.151970527846792
 51
83.600796966638725
  0
ARC
  5
1E3C
  8
SAPA_PROFIL
 10
105.39904255689849
 20
63.449999927056588
 30
0.0
 40
0.1999999999998857
 50
183.15197057484991
 51
269.99999999975978
  0
LINE
  5
1E3D
  8
SAPA_PROFIL
 10
105.3990425568977
 20
63.249999927056699
 30
0.0
 11
106.30055534995741
 21
63.249999927056699
 31
0.0
  0
ARC
  5
1E3E
  8
SAPA_PROFIL
 10
106.3005553499556
 20
63.4499999270556
 30
0.0
 40
0.1999999999989015
 50
270.00000000052108
 51
0.0000000036497501
  0
LINE
  5
1E3F
  8
SAPA_PROFIL
 10
106.5005553499545
 20
63.449999927068347
 30
0.0
 11
106.5005553499672
 21
63.676058995539279
 31
0.0
  0
ARC
  5
1E40
  8
SAPA_PROFIL
 10
104.5005553499654
 20
63.676058995519107
 30
0.0
 40
2.0000000000018749
 50
0.0000000005778941
 51
83.495499905940108
  0
ARC
  5
1E41
  8
SAPA_PROFIL
 10
90.000555350863408
 20
-63.500000067816813
 30
0.0
 40
129.99999999552941
 50
83.495499906160944
 51
83.819658504809709
  0
ARC
  5
1E42
  8
SAPA_PROFIL
 10
104.1037861735857
 20
66.738622772022239
 30
0.0
 40
1.0000000001072931
 50
195.09595033281249
 51
263.81965849987961
  0
ARC
  5
1E43
  8
SAPA_PROFIL
 10
151.412847177521
 20
79.499999927792246
 30
0.0
 40
49.999999999963229
 50
166.78979035242469
 51
195.09595034005551
  0
ARC
  5
1E44
  8
SAPA_PROFIL
 10
93.000555349967584
 20
93.211460953090921
 30
0.0
 40
9.9999999999996874
 50
346.78979035279059
 51
359.99999999994759
  0
LINE
  5
1E45
  8
SAPA_PROFIL
 10
103.0005553499673
 20
93.211460953081769
 30
0.0
 11
103.0005553499673
 21
93.999999927791563
 31
0.0
  0
ARC
  5
1E46
  8
SAPA_PROFIL
 10
102.0005553499673
 20
93.999999927791563
 30
0.0
 40
1.0
 50
0.0
 51
90.0
  0
LINE
  5
1E47
  8
SAPA_PROFIL
 10
102.0005553499673
 20
94.999999927791563
 30
0.0
 11
99.000555349967271
 21
94.999999927791563
 31
0.0
  0
ARC
  5
1E48
  8
SAPA_PROFIL
 10
99.000555349967271
 20
93.999999927791563
 30
0.0
 40
1.0
 50
90.0
 51
180.0
  0
LINE
  5
1E49
  8
SAPA_FOGBAND
 10
53.57588775630802
 20
62.403595983017567
 30
0.0
 11
54.792381493683934
 21
62.744391342992458
 31
0.0
  0
ARC
  5
1E4A
  8
SAPA_FOGBAND
 10
55.197021383764522
 20
61.299999928120798
 30
0.0
 40
1.4999999999997931
 50
57.264561311860533
 51
105.6499815966025
  0
ARC
  5
1E4B
  8
SAPA_FOGBAND
 10
50.631635662212616
 20
57.465163126364757
 30
0.0
 40
7.4082647908884773
 50
353.43189468980597
 51
43.468965622016519
  0
ARC
  5
1E4C
  8
SAPA_FOGBAND
 10
57.700555349126162
 20
56.543741768735153
 30
0.0
 40
0.3000000008174772
 50
300.50000000002268
 51
14.286903372503261
  0
LINE
  5
1E4D
  8
SAPA_FOGBAND
 10
57.852816858429378
 20
56.285253019898391
 30
0.0
 11
57.065398538914451
 21
55.821428182950058
 31
0.0
  0
ARC
  5
1E4E
  8
SAPA_FOGBAND
 10
57.319167720394653
 20
55.390613602729474
 30
0.0
 40
0.4999999999997698
 50
120.4999999999955
 51
169.99999999999349
  0
LINE
  5
1E4F
  8
SAPA_FOGBAND
 10
56.826763843888777
 20
55.477437691562947
 30
0.0
 11
58.000555349943618
 21
48.383341456941707
 31
0.0
  0
ARC
  5
1E50
  8
SAPA_FOGBAND
 10
57.50815147343765
 20
48.470165545775252
 30
0.0
 40
0.4999999999998784
 50
288.49999999998892
 51
349.99999999998909
  0
LINE
  5
1E51
  8
SAPA_FOGBAND
 10
57.666803801640071
 20
47.996003718172233
 30
0.0
 11
51.146711624827283
 21
46.797127903728317
 31
0.0
  0
ARC
  5
1E52
  8
SAPA_FOGBAND
 10
51.400555349951368
 20
46.038468979563262
 30
0.0
 40
0.8000000000001024
 50
108.49999999999891
 51
179.99999999999901
  0
LINE
  5
1E53
  8
SAPA_FOGBAND
 10
50.600555349951257
 20
46.03846897956327
 30
0.0
 11
50.600555349951257
 21
26.961530876677902
 31
0.0
  0
ARC
  5
1E54
  8
SAPA_FOGBAND
 10
51.400555349951382
 20
26.961530876677919
 30
0.0
 40
0.8000000000001108
 50
180.00000000000131
 51
251.50000000000071
  0
LINE
  5
1E55
  8
SAPA_FOGBAND
 10
51.146711624827283
 20
26.202871952512851
 30
0.0
 11
57.718458706395268
 21
25.003996138068938
 31
0.0
  0
ARC
  5
1E56
  8
SAPA_FOGBAND
 10
57.55980637819286
 20
24.52983431046594
 30
0.0
 40
0.4999999999998699
 50
10.000000000010649
 51
71.500000000011767
  0
LINE
  5
1E57
  8
SAPA_FOGBAND
 10
58.052210254698821
 20
24.616658399299471
 30
0.0
 11
56.82676384388833
 21
17.52256216467822
 31
0.0
  0
ARC
  5
1E58
  8
SAPA_FOGBAND
 10
57.319167720394688
 20
17.609386253511481
 30
0.0
 40
0.5000000000002222
 50
189.99999999997169
 51
239.49999999996899
  0
LINE
  5
1E59
  8
SAPA_FOGBAND
 10
57.065398538913989
 20
17.178571673290659
 30
0.0
 11
57.852816858429378
 21
16.714746836342329
 31
0.0
  0
ARC
  5
1E5A
  8
SAPA_FOGBAND
 10
57.700555349126489
 20
16.456258087505809
 30
0.0
 40
0.3000000008171052
 50
345.71309662752083
 51
59.50000000000766
  0
ARC
  5
1E5B
  8
SAPA_FOGBAND
 10
50.631635662212673
 20
15.5348367298764
 30
0.0
 40
7.4082647908884223
 50
316.53103437798319
 51
6.5681053101942144
  0
ARC
  5
1E5C
  8
SAPA_FOGBAND
 10
55.197021383764508
 20
11.699999928120389
 30
0.0
 40
1.4999999999998079
 50
254.35001840339791
 51
302.73543868813942
  0
LINE
  5
1E5D
  8
SAPA_FOGBAND
 10
54.792381493683934
 20
10.25560851324871
 30
0.0
 11
53.57588775630802
 21
10.596403873223601
 31
0.0
  0
ARC
  5
1E5E
  8
SAPA_FOGBAND
 10
53.521935770963971
 20
10.403818351240609
 30
0.0
 40
0.200000000000071
 50
74.35001840341576
 51
197.35001840341579
  0
LINE
  5
1E5F
  8
SAPA_FOGBAND
 10
53.331035604629513
 20
10.34417670058019
 30
0.0
 11
54.182355682620262
 21
7.6192832294414066
 31
0.0
  0
ARC
  5
1E60
  8
SAPA_FOGBAND
 10
53.80055534995126
 20
7.4999999281207872
 30
0.0
 40
0.4000000000001194
 50
211.3500184033864
 51
17.350018403385221
  0
LINE
  5
1E61
  8
SAPA_FOGBAND
 10
53.458953361240667
 20
7.2918939904134268
 30
0.0
 11
50.224417326742241
 21
12.601324149462011
 31
0.0
  0
ARC
  5
1E62
  8
SAPA_FOGBAND
 10
45.954392467861197
 20
9.9999999281201983
 30
0.0
 40
5.0000000000001634
 50
31.350018403392902
 51
90.000000000002359
  0
LINE
  5
1E63
  8
SAPA_FOGBAND
 10
45.954392467860991
 20
14.99999992812036
 30
0.0
 11
41.57118366921349
 21
14.99999992812036
 31
0.0
  0
ARC
  5
1E64
  8
SAPA_FOGBAND
 10
41.571183669213077
 20
9.9999999281205163
 30
0.0
 40
4.9999999999998428
 50
89.999999999995353
 51
143.00001840338601
  0
LINE
  5
1E65
  8
SAPA_FOGBAND
 10
37.578005152462993
 20
13.00907376127315
 30
0.0
 11
33.19987320162636
 21
7.1990925448053531
 31
0.0
  0
ARC
  5
1E66
  8
SAPA_FOGBAND
 10
32.800555349951289
 20
7.499999928120431
 30
0.0
 40
0.4999999999999224
 50
146.50000000001879
 51
323.0000184034073
  0
LINE
  5
1E67
  8
SAPA_FOGBAND
 10
32.38361243891768
 20
7.7759684207762803
 30
0.0
 11
36.765756459305067
 21
14.396665830267009
 31
0.0
  0
ARC
  5
1E68
  8
SAPA_FOGBAND
 10
36.348813548271579
 20
14.67263432292304
 30
0.0
 40
0.4999999999999192
 50
326.49999999999392
 51
74.999999999992909
  0
LINE
  5
1E69
  8
SAPA_FOGBAND
 10
36.478223070822878
 20
15.15559723606748
 30
0.0
 11
32.671145827399869
 21
16.175700508965289
 31
0.0
  0
ARC
  5
1E6A
  8
SAPA_FOGBAND
 10
32.800555349951111
 20
16.658663422109861
 30
0.0
 40
0.5000000000000285
 50
180.00000000000239
 51
255.0000000000031
  0
LINE
  5
1E6B
  8
SAPA_FOGBAND
 10
32.300555349951082
 20
16.658663422109839
 30
0.0
 11
32.300555349951082
 21
21.924896159015589
 31
0.0
  0
ARC
  5
1E6C
  8
SAPA_FOGBAND
 10
32.80055534995099
 20
21.924896159015439
 30
0.0
 40
0.4999999999999077
 50
109.99999999998219
 51
179.99999999998249
  0
LINE
  5
1E6D
  8
SAPA_FOGBAND
 10
32.62954527828834
 20
22.39474246940836
 30
0.0
 11
36.671565421614112
 21
23.865917487883511
 31
0.0
  0
ARC
  5
1E6E
  8
SAPA_FOGBAND
 10
36.500555349951121
 20
24.335763798276659
 30
0.0
 40
0.5000000000002333
 50
290.00000000000853
 51
0.0000000000085493
  0
LINE
  5
1E6F
  8
SAPA_FOGBAND
 10
37.000555349951362
 20
24.33576379827673
 30
0.0
 11
37.000555349951362
 21
26.809359653826959
 31
0.0
  0
ARC
  5
1E70
  8
SAPA_FOGBAND
 10
37.500555349951298
 20
26.809359653827059
 30
0.0
 40
0.4999999999999432
 50
164.500000000011
 51
180.0000000000114
  0
LINE
  5
1E71
  8
SAPA_FOGBAND
 10
37.018740123347023
 20
26.942978841866079
 30
0.0
 11
37.289644485913868
 21
27.919828415297161
 31
0.0
  0
ARC
  5
1E72
  8
SAPA_FOGBAND
 10
37.000555349951362
 20
27.999999928120619
 30
0.0
 40
0.2999999999999228
 50
344.50000000000028
 51
90.0
  0
LINE
  5
1E73
  8
SAPA_FOGBAND
 10
37.000555349951362
 20
28.299999928120538
 30
0.0
 11
35.300555349951537
 21
28.299999928120538
 31
0.0
  0
ARC
  5
1E74
  8
SAPA_FOGBAND
 10
35.300555349951537
 20
28.099999928120269
 30
0.0
 40
0.2000000000002728
 50
90.0
 51
180.0
  0
LINE
  5
1E75
  8
SAPA_FOGBAND
 10
35.100555349951271
 20
28.099999928120269
 30
0.0
 11
35.100555349951271
 21
27.299999928120538
 31
0.0
  0
ARC
  5
1E76
  8
SAPA_FOGBAND
 10
34.900555349951212
 20
27.29999992812045
 30
0.0
 40
0.2000000000000526
 50
225.00000000002811
 51
0.00000000002748
  0
LINE
  5
1E77
  8
SAPA_FOGBAND
 10
34.759133993713931
 20
27.15857857188303
 30
0.0
 11
32.447001959357749
 21
29.470710606239209
 31
0.0
  0
ARC
  5
1E78
  8
SAPA_FOGBAND
 10
32.800555349951118
 20
29.824263996832439
 30
0.0
 40
0.5000000000000368
 50
179.9999999999882
 51
224.9999999999888
  0
LINE
  5
1E79
  8
SAPA_FOGBAND
 10
32.300555349951082
 20
29.824263996832538
 30
0.0
 11
32.300555349951082
 21
43.175735859408633
 31
0.0
  0
ARC
  5
1E7A
  8
SAPA_FOGBAND
 10
32.800555349950812
 20
43.175735859407951
 30
0.0
 40
0.4999999999997229
 50
134.99999999992281
 51
179.99999999992261
  0
LINE
  5
1E7B
  8
SAPA_FOGBAND
 10
32.447001959358197
 20
43.529289250001511
 30
0.0
 11
34.759133993713931
 21
45.841421284357693
 31
0.0
  0
ARC
  5
1E7C
  8
SAPA_FOGBAND
 10
34.900555349951311
 20
45.699999928120498
 30
0.0
 40
0.1999999999999594
 50
0.00000000003664
 51
135.0000000000374
  0
LINE
  5
1E7D
  8
SAPA_FOGBAND
 10
35.100555349951271
 20
45.699999928120633
 30
0.0
 11
35.100555349951271
 21
44.899999928120899
 31
0.0
  0
ARC
  5
1E7E
  8
SAPA_FOGBAND
 10
35.300555349951537
 20
44.899999928120899
 30
0.0
 40
0.2000000000002728
 50
180.0
 51
270.0
  0
LINE
  5
1E7F
  8
SAPA_FOGBAND
 10
35.300555349951537
 20
44.699999928120633
 30
0.0
 11
37.000555349951362
 21
44.699999928120633
 31
0.0
  0
ARC
  5
1E80
  8
SAPA_FOGBAND
 10
37.000555349951362
 20
44.999999928120559
 30
0.0
 40
0.2999999999999261
 50
270.0
 51
15.49999999999968
  0
LINE
  5
1E81
  8
SAPA_FOGBAND
 10
37.289644485913868
 20
45.080171440944007
 30
0.0
 11
37.018740123347023
 21
46.057021014375088
 31
0.0
  0
ARC
  5
1E82
  8
SAPA_FOGBAND
 10
37.500555349951313
 20
46.190640202414109
 30
0.0
 40
0.4999999999999505
 50
179.9999999999886
 51
195.49999999998869
  0
LINE
  5
1E83
  8
SAPA_FOGBAND
 10
37.000555349951362
 20
46.190640202414208
 30
0.0
 11
37.000555349951362
 21
48.664236057964452
 31
0.0
  0
ARC
  5
1E84
  8
SAPA_FOGBAND
 10
36.500555349951448
 20
48.664236057964303
 30
0.0
 40
0.4999999999999077
 50
0.0000000000170987
 51
70.000000000017636
  0
LINE
  5
1E85
  8
SAPA_FOGBAND
 10
36.671565421614112
 20
49.134082368357213
 30
0.0
 11
32.62954527828834
 21
50.605257386832363
 31
0.0
  0
ARC
  5
1E86
  8
SAPA_FOGBAND
 10
32.800555349951551
 20
51.075103697225181
 30
0.0
 40
0.5000000000000073
 50
179.99999999995441
 51
249.9999999999543
  0
LINE
  5
1E87
  8
SAPA_FOGBAND
 10
32.300555349951537
 20
51.075103697225579
 30
0.0
 11
32.300555349951082
 21
56.341336434130881
 31
0.0
  0
ARC
  5
1E88
  8
SAPA_FOGBAND
 10
32.800555349951111
 20
56.341336434130859
 30
0.0
 40
0.5000000000000285
 50
104.9999999999969
 51
179.9999999999975
  0
LINE
  5
1E89
  8
SAPA_FOGBAND
 10
32.671145827399869
 20
56.824299347275428
 30
0.0
 11
36.478223070822878
 21
57.844402620173689
 31
0.0
  0
ARC
  5
1E8A
  8
SAPA_FOGBAND
 10
36.348813548271579
 20
58.32736553331813
 30
0.0
 40
0.4999999999999197
 50
285.00000000000711
 51
33.500000000005898
  0
LINE
  5
1E8B
  8
SAPA_FOGBAND
 10
36.765756459305067
 20
58.603334025974164
 30
0.0
 11
35.831126239615521
 21
60.015406254897243
 31
0.0
  0
ARC
  5
1E8C
  8
SAPA_FOGBAND
 10
40.00055534995181
 20
62.775091181457668
 30
0.0
 40
5.0000000000004521
 50
179.99999999999841
 51
213.49999999999841
  0
LINE
  5
1E8D
  8
SAPA_FOGBAND
 10
35.000555349951362
 20
62.77509118145781
 30
0.0
 11
35.000555349951362
 21
66.011641854646314
 31
0.0
  0
ARC
  5
1E8E
  8
SAPA_FOGBAND
 10
35.500555349951419
 20
66.011641854646271
 30
0.0
 40
0.500000000000064
 50
3.4999815966052918
 51
179.99999999999511
  0
LINE
  5
1E8F
  8
SAPA_FOGBAND
 10
35.99962275896678
 20
66.042165964113323
 30
0.0
 11
36.20435787057977
 21
62.694758833449661
 31
0.0
  0
ARC
  5
1E90
  8
SAPA_FOGBAND
 10
41.195031960732827
 20
62.999999928120459
 30
0.0
 40
5.0000000000000933
 50
183.49998159660711
 51
269.99999999999778
  0
LINE
  5
1E91
  8
SAPA_FOGBAND
 10
41.195031960732649
 20
57.99999992812036
 30
0.0
 11
45.954392467861453
 21
57.99999992812036
 31
0.0
  0
ARC
  5
1E92
  8
SAPA_FOGBAND
 10
45.954392467861027
 20
62.999999928120339
 30
0.0
 40
4.9999999999999778
 50
270.00000000000477
 51
328.6499815966144
  0
LINE
  5
1E93
  8
SAPA_FOGBAND
 10
50.224417326742241
 20
60.398675706779159
 30
0.0
 11
53.458953361240667
 21
65.708105865827747
 31
0.0
  0
ARC
  5
1E94
  8
SAPA_FOGBAND
 10
53.800555349951267
 20
65.499999928120388
 30
0.0
 40
0.4000000000001202
 50
342.64998159661428
 51
148.6499815966142
  0
LINE
  5
1E95
  8
SAPA_FOGBAND
 10
54.182355682620262
 20
65.380716626799767
 30
0.0
 11
53.331035604629513
 21
62.655823155660528
 31
0.0
  0
ARC
  5
1E96
  8
SAPA_FOGBAND
 10
53.521935770963857
 20
62.596181505000338
 30
0.0
 40
0.1999999999998881
 50
162.64998159663551
 51
285.64998159663531
  0
LINE
  5
1E97
  8
SAPA_FOGBAND
 10
36.597949306922601
 20
50.969978656076371
 30
0.0
 11
34.197949306953888
 21
51.843507218304239
 31
0.0
  0
ARC
  5
1E98
  8
SAPA_FOGBAND
 10
34.300555349951587
 20
52.125415004540258
 30
0.0
 40
0.3000000000002311
 50
180.0000000000162
 51
250.00000000001631
  0
LINE
  5
1E99
  8
SAPA_FOGBAND
 10
34.000555349951362
 20
52.125415004540173
 30
0.0
 11
34.000555349951362
 21
55.190345952162723
 31
0.0
  0
ARC
  5
1E9A
  8
SAPA_FOGBAND
 10
34.300555349951118
 20
55.190345952162787
 30
0.0
 40
0.2999999999997698
 50
105.00000000001479
 51
180.0000000000135
  0
LINE
  5
1E9B
  8
SAPA_FOGBAND
 10
34.222909636420361
 20
55.480123700049262
 30
0.0
 11
36.622909636389522
 21
56.123201761875862
 31
0.0
  0
ARC
  5
1E9C
  8
SAPA_FOGBAND
 10
36.700555349920251
 20
55.833424013988939
 30
0.0
 40
0.3000000000001815
 50
359.99999999998369
 51
104.99999999998511
  0
LINE
  5
1E9D
  8
SAPA_FOGBAND
 10
37.000555349920432
 20
55.833424013988861
 30
0.0
 11
37.000555349920432
 21
51.251886442312291
 31
0.0
  0
ARC
  5
1E9E
  8
SAPA_FOGBAND
 10
36.700555349920322
 20
51.251886442312262
 30
0.0
 40
0.3000000000001179
 50
250.00000000000591
 51
0.0000000000067852
  0
ARC
  5
1E9F
  8
SAPA_FOGBAND
 10
34.100555349937622
 20
37.749999928104451
 30
0.0
 40
0.4999999999863576
 50
180.0
 51
270.0
  0
LINE
  5
1EA0
  8
SAPA_FOGBAND
 10
33.600555349951257
 20
37.749999928104451
 30
0.0
 11
33.600555349951257
 21
42.499999928109439
 31
0.0
  0
ARC
  5
1EA1
  8
SAPA_FOGBAND
 10
34.100555349961724
 20
42.499999928109439
 30
0.0
 40
0.5000000000104592
 50
90.0
 51
180.0
  0
LINE
  5
1EA2
  8
SAPA_FOGBAND
 10
34.100555349961724
 20
42.999999928119898
 30
0.0
 11
36.800555349960177
 21
42.999999928119898
 31
0.0
  0
ARC
  5
1EA3
  8
SAPA_FOGBAND
 10
36.800555349960177
 20
42.499999928122627
 30
0.0
 40
0.4999999999972716
 50
0.0
 51
90.0
  0
LINE
  5
1EA4
  8
SAPA_FOGBAND
 10
37.300555349957449
 20
42.499999928122627
 30
0.0
 11
37.300555349957449
 21
37.749999928113539
 31
0.0
  0
ARC
  5
1EA5
  8
SAPA_FOGBAND
 10
36.800555349962004
 20
37.749999928113539
 30
0.0
 40
0.4999999999954526
 50
270.0
 51
0.0
  0
LINE
  5
1EA6
  8
SAPA_FOGBAND
 10
36.800555349962004
 20
37.249999928118093
 30
0.0
 11
34.100555349937622
 21
37.249999928118093
 31
0.0
  0
ARC
  5
1EA7
  8
SAPA_FOGBAND
 10
34.100555349961269
 20
30.499999928131281
 30
0.0
 40
0.500000000010008
 50
180.0000000000004
 51
270.0
  0
LINE
  5
1EA8
  8
SAPA_FOGBAND
 10
33.600555349951257
 20
30.49999992813127
 30
0.0
 11
33.600555349951257
 21
35.249999928136731
 31
0.0
  0
ARC
  5
1EA9
  8
SAPA_FOGBAND
 10
34.100555349937622
 20
35.249999928136731
 30
0.0
 40
0.4999999999863576
 50
90.0
 51
180.0
  0
LINE
  5
1EAA
  8
SAPA_FOGBAND
 10
34.100555349937622
 20
35.749999928123088
 30
0.0
 11
36.800555349962004
 21
35.749999928123088
 31
0.0
  0
ARC
  5
1EAB
  8
SAPA_FOGBAND
 10
36.800555349962004
 20
35.249999928127643
 30
0.0
 40
0.4999999999954526
 50
0.0
 51
90.0
  0
LINE
  5
1EAC
  8
SAPA_FOGBAND
 10
37.300555349957449
 20
35.249999928127643
 30
0.0
 11
37.300555349957449
 21
30.499999928118541
 31
0.0
  0
ARC
  5
1EAD
  8
SAPA_FOGBAND
 10
36.800555349960177
 20
30.499999928118541
 30
0.0
 40
0.4999999999972716
 50
270.0
 51
0.0
  0
LINE
  5
1EAE
  8
SAPA_FOGBAND
 10
36.800555349960177
 20
29.999999928121269
 30
0.0
 11
34.100555349961269
 21
29.999999928121269
 31
0.0
  0
LINE
  5
1EAF
  8
SAPA_FOGBAND
 10
51.75698981499135
 20
24.093467430679091
 30
0.0
 11
57.169999003841887
 21
24.236130999831399
 31
0.0
  0
ARC
  5
1EB0
  8
SAPA_FOGBAND
 10
57.138712110833531
 20
24.03859333171248
 30
0.0
 40
0.1999999999999459
 50
9.9999999999051816
 51
80.999999999905427
  0
LINE
  5
1EB1
  8
SAPA_FOGBAND
 10
57.335673661435969
 20
24.073322967245531
 30
0.0
 11
56.03891764147874
 21
17.383643622544689
 31
0.0
  0
ARC
  5
1EB2
  8
SAPA_FOGBAND
 10
57.319167720394759
 20
17.609386253511431
 30
0.0
 40
1.300000000000098
 50
189.9999999999869
 51
239.4999999999882
  0
LINE
  5
1EB3
  8
SAPA_FOGBAND
 10
56.659367848545571
 20
16.4892683449375
 30
0.0
 11
56.965827916556471
 21
16.308749569144311
 31
0.0
  0
ARC
  5
1EB4
  8
SAPA_FOGBAND
 10
56.864320243964158
 20
16.136423737056528
 30
0.0
 40
0.199999999999627
 50
342.17959874227972
 51
59.499999999882412
  0
ARC
  5
1EB5
  8
SAPA_FOGBAND
 10
51.55163522247441
 20
15.229088699134421
 30
0.0
 40
5.5677574240903374
 50
317.67181654101211
 51
8.7410674266213597
  0
ARC
  5
1EB6
  8
SAPA_FOGBAND
 10
55.465826024386949
 20
11.825110373414731
 30
0.0
 40
0.400000000000049
 50
244.3500184033976
 51
300.33998390760871
  0
LINE
  5
1EB7
  8
SAPA_FOGBAND
 10
55.292677107597683
 20
11.464528270954361
 30
0.0
 11
54.340052037300659
 21
11.92197193746733
 31
0.0
  0
ARC
  5
1EB8
  8
SAPA_FOGBAND
 10
54.772924329273067
 20
12.82342719361813
 30
0.0
 40
0.9999999999996742
 50
211.35001840343361
 51
244.35001840343349
  0
LINE
  5
1EB9
  8
SAPA_FOGBAND
 10
53.918919357497543
 20
12.30316234934935
 30
0.0
 11
50.746550378175009
 21
17.51054645476642
 31
0.0
  0
ARC
  5
1EBA
  8
SAPA_FOGBAND
 10
51.600555349951087
 20
18.03081129903461
 30
0.0
 40
0.9999999999998225
 50
179.9999999999967
 51
211.35001840338819
  0
LINE
  5
1EBB
  8
SAPA_FOGBAND
 10
50.600555349951257
 20
18.030811299034671
 30
0.0
 11
50.600555349951257
 21
23.10577909008407
 31
0.0
  0
ARC
  5
1EBC
  8
SAPA_FOGBAND
 10
51.600555349951136
 20
23.10577909008407
 30
0.0
 40
0.9999999999998792
 50
80.999999999999915
 51
179.9999999999998
  0
ARC
  5
1EBD
  8
SAPA_FOGBAND
 10
41.000555349961807
 20
18.999999931086681
 30
0.0
 40
1.800000000000185
 50
180.00000000000011
 51
270.0
  0
LINE
  5
1EBE
  8
SAPA_FOGBAND
 10
39.200555349961633
 20
18.999999931086681
 30
0.0
 11
39.200555349961633
 21
27.396471484717502
 31
0.0
  0
ARC
  5
1EBF
  8
SAPA_FOGBAND
 10
39.700555349961782
 20
27.39647148471764
 30
0.0
 40
0.5000000000001493
 50
71.500000000016556
 51
180.00000000001711
  0
LINE
  5
1EC0
  8
SAPA_FOGBAND
 10
39.859207678164239
 20
27.87063331232094
 30
0.0
 11
48.35920767815378
 21
25.026573096557058
 31
0.0
  0
ARC
  5
1EC1
  8
SAPA_FOGBAND
 10
48.200555349950967
 20
24.552411268953829
 30
0.0
 40
0.5000000000002073
 50
359.99999999997601
 51
71.499999999975756
  0
LINE
  5
1EC2
  8
SAPA_FOGBAND
 10
48.700555349951173
 20
24.55241126895362
 30
0.0
 11
48.700555349951173
 21
18.999999931086681
 31
0.0
  0
ARC
  5
1EC3
  8
SAPA_FOGBAND
 10
46.900555349951219
 20
18.99999993108645
 30
0.0
 40
1.7999999999999541
 50
270.00000000000722
 51
0.0000000000072375
  0
LINE
  5
1EC4
  8
SAPA_FOGBAND
 10
46.900555349951453
 20
17.199999931086492
 30
0.0
 11
41.000555349961807
 21
17.199999931086492
 31
0.0
  0
LINE
  5
1EC5
  8
SAPA_FOGBAND
 10
48.04190302174856
 20
27.241726379052579
 30
0.0
 11
39.541903021758571
 21
30.085786594816909
 31
0.0
  0
ARC
  5
1EC6
  8
SAPA_FOGBAND
 10
39.700555349960979
 20
30.559948422419371
 30
0.0
 40
0.4999999999993478
 50
179.99999999999179
 51
251.4999999999917
  0
LINE
  5
1EC7
  8
SAPA_FOGBAND
 10
39.200555349961633
 20
30.559948422419438
 30
0.0
 11
39.200555349961633
 21
34.999999928123088
 31
0.0
  0
ARC
  5
1EC8
  8
SAPA_FOGBAND
 10
39.700555349961633
 20
34.999999928123088
 30
0.0
 40
0.5
 50
90.0
 51
180.0
  0
LINE
  5
1EC9
  8
SAPA_FOGBAND
 10
39.700555349961633
 20
35.499999928123088
 30
0.0
 11
48.200555349951173
 21
35.499999928123088
 31
0.0
  0
ARC
  5
1ECA
  8
SAPA_FOGBAND
 10
48.200555349951173
 20
34.999999928123088
 30
0.0
 40
0.5
 50
0.0
 51
90.0
  0
LINE
  5
1ECB
  8
SAPA_FOGBAND
 10
48.700555349951173
 20
34.999999928123088
 30
0.0
 11
48.700555349951173
 21
27.71588820665556
 31
0.0
  0
ARC
  5
1ECC
  8
SAPA_FOGBAND
 10
48.200555349951188
 20
27.715888206655642
 30
0.0
 40
0.4999999999999858
 50
251.49999999999051
 51
359.99999999999102
  0
ARC
  5
1ECD
  8
SAPA_FOGBAND
 10
39.700555349961633
 20
37.999999928117631
 30
0.0
 40
0.5
 50
180.0
 51
270.0
  0
LINE
  5
1ECE
  8
SAPA_FOGBAND
 10
39.200555349961633
 20
37.999999928117631
 30
0.0
 11
39.200555349961633
 21
42.440051433821743
 31
0.0
  0
ARC
  5
1ECF
  8
SAPA_FOGBAND
 10
39.700555349960659
 20
42.44005143382158
 30
0.0
 40
0.4999999999990266
 50
108.4999999999818
 51
179.99999999998209
  0
LINE
  5
1ED0
  8
SAPA_FOGBAND
 10
39.541903021758571
 20
42.914213261423811
 30
0.0
 11
48.04190302174856
 21
45.758273477188141
 31
0.0
  0
ARC
  5
1ED1
  8
SAPA_FOGBAND
 10
48.200555349951181
 20
45.284111649585078
 30
0.0
 40
0.4999999999999859
 50
0.0000000000089564
 51
108.5000000000087
  0
LINE
  5
1ED2
  8
SAPA_FOGBAND
 10
48.700555349951173
 20
45.284111649585149
 30
0.0
 11
48.700555349951173
 21
37.999999928117631
 31
0.0
  0
ARC
  5
1ED3
  8
SAPA_FOGBAND
 10
48.200555349951173
 20
37.999999928117631
 30
0.0
 40
0.5
 50
270.0
 51
0.0
  0
LINE
  5
1ED4
  8
SAPA_FOGBAND
 10
48.200555349951173
 20
37.499999928117631
 30
0.0
 11
39.700555349961633
 21
37.499999928117631
 31
0.0
  0
ARC
  5
1ED5
  8
SAPA_FOGBAND
 10
39.700555349961618
 20
45.603528371523304
 30
0.0
 40
0.4999999999999881
 50
180.0000000000089
 51
288.50000000000949
  0
LINE
  5
1ED6
  8
SAPA_FOGBAND
 10
39.200555349961633
 20
45.603528371523218
 30
0.0
 11
39.200555349961633
 21
53.999999925154498
 31
0.0
  0
ARC
  5
1ED7
  8
SAPA_FOGBAND
 10
41.000555349961807
 20
53.999999925154498
 30
0.0
 40
1.800000000000181
 50
90.0
 51
180.0
  0
LINE
  5
1ED8
  8
SAPA_FOGBAND
 10
41.000555349961807
 20
55.799999925154673
 30
0.0
 11
46.900555349951453
 21
55.799999925154673
 31
0.0
  0
ARC
  5
1ED9
  8
SAPA_FOGBAND
 10
46.900555349951219
 20
53.999999925154718
 30
0.0
 40
1.7999999999999541
 50
359.99999999999278
 51
89.999999999992767
  0
LINE
  5
1EDA
  8
SAPA_FOGBAND
 10
48.700555349951173
 20
53.999999925154498
 30
0.0
 11
48.700555349951173
 21
48.447588587287562
 31
0.0
  0
ARC
  5
1EDB
  8
SAPA_FOGBAND
 10
48.200555349950967
 20
48.447588587287342
 30
0.0
 40
0.500000000000199
 50
288.50000000002359
 51
0.0000000000244267
  0
LINE
  5
1EDC
  8
SAPA_FOGBAND
 10
48.35920767815378
 20
47.973426759684109
 30
0.0
 11
39.859207678164239
 21
45.129366543920227
 31
0.0
  0
ARC
  5
1EDD
  8
SAPA_FOGBAND
 10
55.465826024386963
 20
61.17488948282648
 30
0.0
 40
0.4000000000000173
 50
59.660016092389647
 51
115.6499815966055
  0
ARC
  5
1EDE
  8
SAPA_FOGBAND
 10
51.551635222474602
 20
57.770911157106269
 30
0.0
 40
5.5677574240905239
 50
351.25893257338402
 51
42.328183458992953
  0
ARC
  5
1EDF
  8
SAPA_FOGBAND
 10
56.864320243964379
 20
56.86357611918492
 30
0.0
 40
0.1999999999997605
 50
300.50000000002137
 51
17.820401257621231
  0
LINE
  5
1EE0
  8
SAPA_FOGBAND
 10
56.965827916556471
 20
56.691250287096857
 30
0.0
 11
56.659367848545571
 21
56.51073151130322
 31
0.0
  0
ARC
  5
1EE1
  8
SAPA_FOGBAND
 10
57.319167720394312
 20
55.390613602729488
 30
0.0
 40
1.2999999999996941
 50
120.49999999999891
 51
169.99999999999841
  0
LINE
  5
1EE2
  8
SAPA_FOGBAND
 10
56.03891764147874
 20
55.616356233696479
 30
0.0
 11
57.28401875668078
 21
48.926676888995189
 31
0.0
  0
ARC
  5
1EE3
  8
SAPA_FOGBAND
 10
57.087057206078647
 20
48.961406524528471
 30
0.0
 40
0.1999999999996776
 50
279.0000000000162
 51
350.0000000000141
  0
LINE
  5
1EE4
  8
SAPA_FOGBAND
 10
57.118344099086698
 20
48.763868856409772
 30
0.0
 11
51.75698981499135
 21
48.906532425562091
 31
0.0
  0
ARC
  5
1EE5
  8
SAPA_FOGBAND
 10
51.600555349951136
 20
49.894220766157112
 30
0.0
 40
0.999999999999882
 50
180.0000000000004
 51
279.0
  0
LINE
  5
1EE6
  8
SAPA_FOGBAND
 10
50.600555349951257
 20
49.894220766157098
 30
0.0
 11
50.600555349951257
 21
54.9691885572065
 31
0.0
  0
ARC
  5
1EE7
  8
SAPA_FOGBAND
 10
51.600555349951087
 20
54.969188557206557
 30
0.0
 40
0.9999999999998223
 50
148.64998159661181
 51
180.00000000000321
  0
LINE
  5
1EE8
  8
SAPA_FOGBAND
 10
50.746550378175009
 20
55.489453401474748
 30
0.0
 11
53.918919357497543
 21
60.69683750689137
 31
0.0
  0
ARC
  5
1EE9
  8
SAPA_FOGBAND
 10
54.772924329273827
 20
60.176572662622831
 30
0.0
 40
1.000000000000189
 50
115.6499815966001
 51
148.64998159660081
  0
LINE
  5
1EEA
  8
SAPA_FOGBAND
 10
54.340052037300659
 20
61.078027918773842
 30
0.0
 11
55.292677107597683
 21
61.535471585286807
 31
0.0
  0
LINE
  5
1EEB
  8
SAPA_FOGBAND
 10
70.136954841166698
 20
69.399567395905251
 30
0.0
 11
70.246952226348185
 21
64.750267638566584
 31
0.0
  0
LINE
  5
1EEC
  8
SAPA_FOGBAND
 10
70.246952226348185
 20
64.750267638566584
 30
0.0
 11
72.685045566770896
 21
64.750844137441163
 31
0.0
  0
LINE
  5
1EED
  8
SAPA_FOGBAND
 10
72.685045566770896
 20
64.750844137441163
 30
0.0
 11
71.559644444306286
 21
69.399567395905251
 31
0.0
  0
LINE
  5
1EEE
  8
SAPA_FOGBAND
 10
68.4142652380242
 20
69.399567395905251
 30
0.0
 11
67.288818640708087
 21
64.750674422974043
 31
0.0
  0
LINE
  5
1EEF
  8
SAPA_FOGBAND
 10
67.288818640708087
 20
64.750674422974043
 30
0.0
 11
69.726956687256461
 21
64.750238282153987
 31
0.0
  0
LINE
  5
1EF0
  8
SAPA_FOGBAND
 10
69.726956687256461
 20
64.750238282153987
 30
0.0
 11
69.836954841163774
 21
69.399567395905251
 31
0.0
  0
LINE
  5
1EF1
  8
SAPA_FOGBAND
 10
73.13695484116306
 20
70.199567395906342
 30
0.0
 11
73.13695484116306
 21
69.399567395905251
 31
0.0
  0
LINE
  5
1EF2
  8
SAPA_FOGBAND
 10
73.13695484116306
 20
69.399567395905251
 30
0.0
 11
66.836954841166516
 21
69.399567395905251
 31
0.0
  0
LINE
  5
1EF3
  8
SAPA_FOGBAND
 10
66.836954841166516
 20
69.399567395905251
 30
0.0
 11
66.836954841166516
 21
70.199567395906342
 31
0.0
  0
LINE
  5
1EF4
  8
SAPA_FOGBAND
 10
66.836954841166516
 20
70.199567395906342
 30
0.0
 11
73.13695484116306
 21
70.199567395906342
 31
0.0
  0
LINE
  5
1EF5
  8
SAPA_FOGBAND
 10
70.136954841166698
 20
3.6004324596715369
 30
0.0
 11
70.246952226348185
 21
8.3472664546579836
 31
0.0
  0
LINE
  5
1EF6
  8
SAPA_FOGBAND
 10
70.246952226348185
 20
8.3472664546579836
 30
0.0
 11
72.685045566770896
 21
8.346689955783404
 31
0.0
  0
LINE
  5
1EF7
  8
SAPA_FOGBAND
 10
72.685045566770896
 20
8.346689955783404
 30
0.0
 11
71.559644444306286
 21
3.6004324596715369
 31
0.0
  0
LINE
  5
1EF8
  8
SAPA_FOGBAND
 10
68.4142652380242
 20
3.6004324596715369
 30
0.0
 11
67.288818640708087
 21
8.3468596702505238
 31
0.0
  0
LINE
  5
1EF9
  8
SAPA_FOGBAND
 10
67.288818640708087
 20
8.3468596702505238
 30
0.0
 11
69.726956687256461
 21
8.3472958110705804
 31
0.0
  0
LINE
  5
1EFA
  8
SAPA_FOGBAND
 10
69.726956687256461
 20
8.3472958110705804
 30
0.0
 11
69.836954841163774
 21
3.6004324596715369
 31
0.0
  0
LINE
  5
1EFB
  8
SAPA_FOGBAND
 10
73.13695484116306
 20
2.800432459670446
 30
0.0
 11
73.13695484116306
 21
3.6004324596715369
 31
0.0
  0
LINE
  5
1EFC
  8
SAPA_FOGBAND
 10
73.13695484116306
 20
3.6004324596715369
 30
0.0
 11
66.836954841166516
 21
3.6004324596715369
 31
0.0
  0
LINE
  5
1EFD
  8
SAPA_FOGBAND
 10
66.836954841166516
 20
3.6004324596715369
 30
0.0
 11
66.836954841166516
 21
2.800432459670446
 31
0.0
  0
LINE
  5
1EFE
  8
SAPA_FOGBAND
 10
66.836954841166516
 20
2.800432459670446
 30
0.0
 11
73.13695484116306
 21
2.800432459670446
 31
0.0
  0
LINE
  5
1EFF
  8
SAPA_GLAS
 10
92.075843852325576
 20
10.3616132161685
 30
0.0
 11
92.214230563776084
 21
10.49999992761899
 31
0.0
1001
ACAD
1010
0.0
1020
0.0
1030
0.0
  0
LINE
  5
1F00
  8
SAPA_GLAS
 10
92.586762578570386
 20
9.74999992727966
 30
0.0
 11
93.336762578909727
 21
10.49999992761899
 31
0.0
1001
ACAD
1010
0.0
1020
0.0
1030
0.0
  0
LINE
  5
1F01
  8
SAPA_GLAS
 10
93.709294593702793
 20
9.7499999272784486
 30
0.0
 11
94.459294594043385
 21
10.499999927618999
 31
0.0
1001
ACAD
1010
0.0
1020
0.0
1030
0.0
  0
LINE
  5
1F02
  8
SAPA_GLAS
 10
94.831826608835243
 20
9.7499999272772282
 30
0.0
 11
95.581826609177014
 21
10.49999992761899
 31
0.0
1001
ACAD
1010
0.0
1020
0.0
1030
0.0
  0
LINE
  5
1F03
  8
SAPA_GLAS
 10
95.954358623967664
 20
9.7499999272759972
 30
0.0
 11
96.704358624310657
 21
10.49999992761899
 31
0.0
1001
ACAD
1010
0.0
1020
0.0
1030
0.0
  0
LINE
  5
1F04
  8
SAPA_GLAS
 10
97.076890639100085
 20
9.7499999272747857
 30
0.0
 11
97.826890639444315
 21
10.49999992761899
 31
0.0
1001
ACAD
1010
0.0
1020
0.0
1030
0.0
  0
LINE
  5
1F05
  8
SAPA_GLAS
 10
98.199422654232535
 20
9.7499999272735671
 30
0.0
 11
98.949422654577944
 21
10.49999992761899
 31
0.0
1001
ACAD
1010
0.0
1020
0.0
1030
0.0
  0
LINE
  5
1F06
  8
SAPA_GLAS
 10
99.321954669364942
 20
9.7499999272723556
 30
0.0
 11
100.0719546697116
 21
10.49999992761899
 31
0.0
1001
ACAD
1010
0.0
1020
0.0
1030
0.0
  0
LINE
  5
1F07
  8
SAPA_GLAS
 10
100.44448668449741
 20
9.7499999272711371
 30
0.0
 11
101.1944866848452
 21
10.49999992761899
 31
0.0
1001
ACAD
1010
0.0
1020
0.0
1030
0.0
  0
LINE
  5
1F08
  8
SAPA_GLAS
 10
101.5670186996298
 20
9.7499999272699256
 30
0.0
 11
102.3170186999789
 21
10.499999927618999
 31
0.0
1001
ACAD
1010
0.0
1020
0.0
1030
0.0
  0
LINE
  5
1F09
  8
SAPA_GLAS
 10
102.68955071476221
 20
9.749999927268707
 30
0.0
 11
103.4395507151125
 21
10.49999992761899
 31
0.0
1001
ACAD
1010
0.0
1020
0.0
1030
0.0
  0
LINE
  5
1F0A
  8
SAPA_GLAS
 10
103.8120827298946
 20
9.7499999272674884
 30
0.0
 11
104.5620827302461
 21
10.49999992761899
 31
0.0
1001
ACAD
1010
0.0
1020
0.0
1030
0.0
  0
LINE
  5
1F0B
  8
SAPA_GLAS
 10
92.408240369955195
 20
9.7499999272798572
 30
0.0
 11
92.075843852325249
 21
10.082396444909801
 31
0.0
1001
ACAD
1010
0.0
1020
0.0
1030
0.0
  0
LINE
  5
1F0C
  8
SAPA_GLAS
 10
93.530772385090046
 20
9.7499999272786511
 30
0.0
 11
92.780772384749696
 21
10.49999992761901
 31
0.0
1001
ACAD
1010
0.0
1020
0.0
1030
0.0
  0
LINE
  5
1F0D
  8
SAPA_GLAS
 10
94.653304400224911
 20
9.7499999272774431
 30
0.0
 11
93.903304399883339
 21
10.499999927618999
 31
0.0
1001
ACAD
1010
0.0
1020
0.0
1030
0.0
  0
LINE
  5
1F0E
  8
SAPA_GLAS
 10
95.775836415359777
 20
9.7499999272762068
 30
0.0
 11
95.025836415016997
 21
10.499999927618999
 31
0.0
1001
ACAD
1010
0.0
1020
0.0
1030
0.0
  0
LINE
  5
1F0F
  8
SAPA_GLAS
 10
96.898368430494642
 20
9.7499999272749847
 30
0.0
 11
96.148368430150626
 21
10.49999992761901
 31
0.0
1001
ACAD
1010
0.0
1020
0.0
1030
0.0
  0
LINE
  5
1F10
  8
SAPA_GLAS
 10
98.020900445629479
 20
9.7499999272737767
 30
0.0
 11
97.270900445284269
 21
10.499999927618999
 31
0.0
1001
ACAD
1010
0.0
1020
0.0
1030
0.0
  0
LINE
  5
1F11
  8
SAPA_GLAS
 10
99.143432460764345
 20
9.7499999272725688
 30
0.0
 11
98.393432460417898
 21
10.49999992761901
 31
0.0
1001
ACAD
1010
0.0
1020
0.0
1030
0.0
  0
LINE
  5
1F12
  8
SAPA_GLAS
 10
100.2659644758992
 20
9.7499999272713325
 30
0.0
 11
99.515964475551556
 21
10.499999927618999
 31
0.0
1001
ACAD
1010
0.0
1020
0.0
1030
0.0
  0
LINE
  5
1F13
  8
SAPA_GLAS
 10
101.388496491034
 20
9.7499999272701388
 30
0.0
 11
100.6384964906852
 21
10.49999992761901
 31
0.0
1001
ACAD
1010
0.0
1020
0.0
1030
0.0
  0
LINE
  5
1F14
  8
SAPA_GLAS
 10
102.5110285061689
 20
9.7499999272689166
 30
0.0
 11
101.7610285058188
 21
10.49999992761899
 31
0.0
1001
ACAD
1010
0.0
1020
0.0
1030
0.0
  0
LINE
  5
1F15
  8
SAPA_GLAS
 10
103.63356052130381
 20
9.7499999272676945
 30
0.0
 11
102.8835605209525
 21
10.499999927618999
 31
0.0
1001
ACAD
1010
0.0
1020
0.0
1030
0.0
  0
LINE
  5
1F16
  8
SAPA_GLAS
 10
104.7560925364386
 20
9.7499999272664724
 30
0.0
 11
104.0060925360861
 21
10.499999927618999
 31
0.0
1001
ACAD
1010
0.0
1020
0.0
1030
0.0
  0
LINE
  5
1F17
  8
SAPA_GLAS
 10
92.075843852324994
 20
63.120617927449167
 30
0.0
 11
92.205225853172095
 21
63.249999928296262
 31
0.0
1001
ACAD
1010
0.0
1020
0.0
1030
0.0
  0
LINE
  5
1F18
  8
SAPA_GLAS
 10
92.577757867966795
 20
62.499999927957319
 30
0.0
 11
93.327757868306946
 21
63.249999928297477
 31
0.0
1001
ACAD
1010
0.0
1020
0.0
1030
0.0
  0
LINE
  5
1F19
  8
SAPA_GLAS
 10
93.700289883100439
 20
62.499999927957333
 30
0.0
 11
94.450289883441798
 21
63.249999928298692
 31
0.0
1001
ACAD
1010
0.0
1020
0.0
1030
0.0
  0
LINE
  5
1F1A
  8
SAPA_GLAS
 10
94.822821898234096
 20
62.499999927957333
 30
0.0
 11
95.572821898576677
 21
63.249999928299907
 31
0.0
1001
ACAD
1010
0.0
1020
0.0
1030
0.0
  0
LINE
  5
1F1B
  8
SAPA_GLAS
 10
95.945353913367754
 20
62.499999927957333
 30
0.0
 11
96.695353913711529
 21
63.249999928301122
 31
0.0
1001
ACAD
1010
0.0
1020
0.0
1030
0.0
  0
LINE
  5
1F1C
  8
SAPA_GLAS
 10
97.067885928501383
 20
62.499999927957319
 30
0.0
 11
97.817885928846394
 21
63.249999928302337
 31
0.0
1001
ACAD
1010
0.0
1020
0.0
1030
0.0
  0
LINE
  5
1F1D
  8
SAPA_GLAS
 10
98.190417943635026
 20
62.499999927957319
 30
0.0
 11
98.940417943981245
 21
63.249999928303538
 31
0.0
1001
ACAD
1010
0.0
1020
0.0
1030
0.0
  0
LINE
  5
1F1E
  8
SAPA_GLAS
 10
99.312949958768684
 20
62.499999927957319
 30
0.0
 11
100.0629499591161
 21
63.249999928304767
 31
0.0
1001
ACAD
1010
0.0
1020
0.0
1030
0.0
  0
LINE
  5
1F1F
  8
SAPA_GLAS
 10
100.4354819739023
 20
62.499999927957319
 30
0.0
 11
101.18548197425091
 21
63.249999928305982
 31
0.0
1001
ACAD
1010
0.0
1020
0.0
1030
0.0
  0
LINE
  5
1F20
  8
SAPA_GLAS
 10
101.5580139890359
 20
62.499999927957333
 30
0.0
 11
102.3080139893858
 21
63.24999992830719
 31
0.0
1001
ACAD
1010
0.0
1020
0.0
1030
0.0
  0
LINE
  5
1F21
  8
SAPA_GLAS
 10
102.6805460041696
 20
62.499999927957333
 30
0.0
 11
103.43054600452071
 21
63.249999928308419
 31
0.0
1001
ACAD
1010
0.0
1020
0.0
1030
0.0
  0
LINE
  5
1F22
  8
SAPA_GLAS
 10
103.8030780193032
 20
62.499999927957319
 30
0.0
 11
104.5530780196555
 21
63.249999928309641
 31
0.0
1001
ACAD
1010
0.0
1020
0.0
1030
0.0
  0
LINE
  5
1F23
  8
SAPA_GLAS
 10
92.417245080558999
 20
62.499999927957319
 30
0.0
 11
92.075843852325335
 21
62.841401156190983
 31
0.0
1001
ACAD
1010
0.0
1020
0.0
1030
0.0
  0
LINE
  5
1F24
  8
SAPA_GLAS
 10
93.539777095692642
 20
62.499999927957319
 30
0.0
 11
92.789777095353074
 21
63.24999992829688
 31
0.0
1001
ACAD
1010
0.0
1020
0.0
1030
0.0
  0
LINE
  5
1F25
  8
SAPA_GLAS
 10
94.662309110826286
 20
62.49999992795734
 30
0.0
 11
93.912309110485495
 21
63.249999928298116
 31
0.0
1001
ACAD
1010
0.0
1020
0.0
1030
0.0
  0
LINE
  5
1F26
  8
SAPA_GLAS
 10
95.784841125959915
 20
62.49999992795734
 30
0.0
 11
95.03484112561793
 21
63.249999928299331
 31
0.0
1001
ACAD
1010
0.0
1020
0.0
1030
0.0
  0
LINE
  5
1F27
  8
SAPA_GLAS
 10
96.907373141093572
 20
62.499999927957319
 30
0.0
 11
96.157373140750366
 21
63.249999928300532
 31
0.0
1001
ACAD
1010
0.0
1020
0.0
1030
0.0
  0
LINE
  5
1F28
  8
SAPA_GLAS
 10
98.029905156227215
 20
62.499999927957333
 30
0.0
 11
97.279905155882773
 21
63.249999928301762
 31
0.0
1001
ACAD
1010
0.0
1020
0.0
1030
0.0
  0
LINE
  5
1F29
  8
SAPA_GLAS
 10
99.152437171360845
 20
62.499999927957347
 30
0.0
 11
98.402437171015222
 21
63.249999928302977
 31
0.0
1001
ACAD
1010
0.0
1020
0.0
1030
0.0
  0
LINE
  5
1F2A
  8
SAPA_GLAS
 10
100.2749691864945
 20
62.49999992795734
 30
0.0
 11
99.524969186147644
 21
63.249999928304192
 31
0.0
1001
ACAD
1010
0.0
1020
0.0
1030
0.0
  0
LINE
  5
1F2B
  8
SAPA_GLAS
 10
101.3975012016281
 20
62.499999927957319
 30
0.0
 11
100.64750120127999
 21
63.2499999283054
 31
0.0
1001
ACAD
1010
0.0
1020
0.0
1030
0.0
  0
LINE
  5
1F2C
  8
SAPA_GLAS
 10
102.5200332167618
 20
62.499999927957333
 30
0.0
 11
101.7700332164125
 21
63.249999928306622
 31
0.0
1001
ACAD
1010
0.0
1020
0.0
1030
0.0
  0
LINE
  5
1F2D
  8
SAPA_GLAS
 10
103.6425652318954
 20
62.49999992795734
 30
0.0
 11
102.89256523154491
 21
63.24999992830783
 31
0.0
1001
ACAD
1010
0.0
1020
0.0
1030
0.0
  0
LINE
  5
1F2E
  8
SAPA_GLAS
 10
104.765097247029
 20
62.499999927957319
 30
0.0
 11
104.0150972466773
 21
63.249999928309059
 31
0.0
1001
ACAD
1010
0.0
1020
0.0
1030
0.0
  0
LINE
  5
1F2F
  8
SAPA_PROFIL
 10
75.00055534994226
 20
148.9999999277679
 30
0.0
 11
75.000555349938622
 21
143.9999999277679
 31
0.0
  0
ARC
  5
1F30
  8
SAPA_PROFIL
 10
74.000555349938622
 20
143.9999999277679
 30
0.0
 40
1.0
 50
270.0
 51
0.0
  0
LINE
  5
1F31
  8
SAPA_PROFIL
 10
74.000555349938622
 20
142.9999999277679
 30
0.0
 11
64.000555349939532
 21
142.99999992777521
 31
0.0
  0
ARC
  5
1F32
  8
SAPA_PROFIL
 10
64.000555349935894
 20
143.99999992777151
 30
0.0
 40
0.999999999996362
 50
180.00000000020839
 51
270.00000000020839
  0
LINE
  5
1F33
  8
SAPA_PROFIL
 10
63.000555349939532
 20
143.9999999277679
 30
0.0
 11
63.000555349939532
 21
145.74999992780431
 31
0.0
  0
ARC
  5
1F34
  8
SAPA_PROFIL
 10
62.250555349935901
 20
145.74999992780431
 30
0.0
 40
0.750000000003638
 50
0.0
 51
180.0
  0
LINE
  5
1F35
  8
SAPA_PROFIL
 10
61.500555349932249
 20
145.74999992780431
 30
0.0
 11
61.500555349928618
 21
143.99999992777521
 31
0.0
  0
ARC
  5
1F36
  8
SAPA_PROFIL
 10
64.000555349934075
 20
143.99999992777339
 30
0.0
 40
2.5000000000054561
 50
179.99999999995831
 51
269.99999999995828
  0
LINE
  5
1F37
  8
SAPA_PROFIL
 10
64.000555349932256
 20
141.4999999277679
 30
0.0
 11
73.800555349937895
 21
141.4999999277679
 31
0.0
  0
ARC
  5
1F38
  8
SAPA_PROFIL
 10
73.800555349937895
 20
140.4999999277679
 30
0.0
 40
1.0
 50
0.0
 51
90.0
  0
LINE
  5
1F39
  8
SAPA_PROFIL
 10
74.800555349937895
 20
140.4999999277679
 30
0.0
 11
74.800555349937895
 21
84.249999928473699
 31
0.0
  0
ARC
  5
1F3A
  8
SAPA_PROFIL
 10
74.300555349937895
 20
84.249999928473699
 30
0.0
 40
0.5
 50
270.0
 51
0.0
  0
LINE
  5
1F3B
  8
SAPA_PROFIL
 10
74.300555349937895
 20
83.749999928473684
 30
0.0
 11
56.500555349934977
 21
83.74999992847097
 31
0.0
  0
ARC
  5
1F3C
  8
SAPA_PROFIL
 10
56.50055534993551
 20
83.449999928470277
 30
0.0
 40
0.3000000000006935
 50
90.000000000101778
 51
249.99999999995001
  0
LINE
  5
1F3D
  8
SAPA_PROFIL
 10
56.397949306937328
 20
83.168092142233945
 30
0.0
 11
62.6979493069366
 21
80.875079666349393
 31
0.0
  0
ARC
  5
1F3E
  8
SAPA_PROFIL
 10
62.800555349933653
 20
81.156987452585568
 30
0.0
 40
0.3000000000001544
 50
250.00000000014381
 51
350.00000000023539
  0
LINE
  5
1F3F
  8
SAPA_PROFIL
 10
63.09599767583768
 20
81.104892999286676
 30
0.0
 11
63.225056862333979
 21
81.836824017300387
 31
0.0
  0
ARC
  5
1F40
  8
SAPA_PROFIL
 10
63.717460738839847
 20
81.749999928466607
 30
0.0
 40
0.4999999999998154
 50
90.000000000017906
 51
169.9999999999597
  0
LINE
  5
1F41
  8
SAPA_PROFIL
 10
63.717460738839691
 20
82.249999928466423
 30
0.0
 11
74.500555349938622
 21
82.249999928473699
 31
0.0
  0
ARC
  5
1F42
  8
SAPA_PROFIL
 10
74.500555349938622
 20
81.749999928473699
 30
0.0
 40
0.5
 50
0.0
 51
90.0
  0
LINE
  5
1F43
  8
SAPA_PROFIL
 10
75.000555349938622
 20
81.749999928473699
 30
0.0
 11
75.000555349931346
 21
68.499999927782483
 31
0.0
  0
ARC
  5
1F44
  8
SAPA_PROFIL
 10
75.500555349933165
 20
68.499999927784302
 30
0.0
 40
0.500000000001819
 50
180.00000000020839
 51
270.00000000020839
  0
ARC
  5
1F45
  8
SAPA_PROFIL
 10
75.500555349934984
 20
68.999999927782483
 30
0.0
 40
1.0
 50
270.0
 51
0.0
  0
LINE
  5
1F46
  8
SAPA_PROFIL
 10
76.500555349934984
 20
68.999999927782483
 30
0.0
 11
76.500555349938622
 21
148.4999999277679
 31
0.0
  0
ARC
  5
1F47
  8
SAPA_PROFIL
 10
75.500555349938622
 20
148.4999999277679
 30
0.0
 40
1.0
 50
0.0
 51
90.0
  0
ARC
  5
1F48
  8
SAPA_PROFIL
 10
75.500555349940441
 20
148.99999992776969
 30
0.0
 40
0.499999999998181
 50
90.000000000208431
 51
180.00000000020839
  0
LINE
  5
1F49
  8
SAPA_FOGBAND
 10
70.136954841166698
 20
146.3995673965687
 30
0.0
 11
70.246952226348185
 21
143.0503598719074
 31
0.0
  0
LINE
  5
1F4A
  8
SAPA_FOGBAND
 10
70.246952226348185
 20
143.0503598719074
 30
0.0
 11
72.685045566770896
 21
143.0509363707815
 31
0.0
  0
LINE
  5
1F4B
  8
SAPA_FOGBAND
 10
72.685045566770896
 20
143.0509363707815
 30
0.0
 11
71.559644444306286
 21
146.3995673965687
 31
0.0
  0
LINE
  5
1F4C
  8
SAPA_FOGBAND
 10
68.4142652380242
 20
146.3995673965687
 30
0.0
 11
67.288818640708087
 21
143.05076665631441
 31
0.0
  0
LINE
  5
1F4D
  8
SAPA_FOGBAND
 10
67.288818640708087
 20
143.05076665631441
 30
0.0
 11
69.726956687257371
 21
143.0503305154943
 31
0.0
  0
LINE
  5
1F4E
  8
SAPA_FOGBAND
 10
69.726956687257371
 20
143.0503305154943
 30
0.0
 11
69.836954841163774
 21
146.3995673965687
 31
0.0
  0
LINE
  5
1F4F
  8
SAPA_FOGBAND
 10
73.13695484116306
 20
147.19956739656891
 30
0.0
 11
73.13695484116306
 21
146.3995673965687
 31
0.0
  0
LINE
  5
1F50
  8
SAPA_FOGBAND
 10
73.13695484116306
 20
146.3995673965687
 30
0.0
 11
66.836954841167426
 21
146.3995673965687
 31
0.0
  0
LINE
  5
1F51
  8
SAPA_FOGBAND
 10
66.836954841167426
 20
146.3995673965687
 30
0.0
 11
66.836954841167426
 21
147.19956739656891
 31
0.0
  0
LINE
  5
1F52
  8
SAPA_FOGBAND
 10
66.836954841167426
 20
147.19956739656891
 30
0.0
 11
73.13695484116306
 21
147.19956739656891
 31
0.0
  0
ARC
  5
1F53
  8
SAPA_PROFIL
 62
     4
 10
84.058504082681338
 20
53.413422444438297
 30
0.0
 40
1.341625249269492
 50
0.7955699607859846
 51
28.024418756606721
  0
LINE
  5
1F54
  8
SAPA_PROFIL
 62
     4
 10
85.242820323055625
 20
54.04378214513553
 30
0.0
 11
84.250000000027285
 21
55.763397387409903
 31
0.0
  0
LINE
  5
1F55
  8
SAPA_PROFIL
 62
     4
 10
84.250000000027285
 20
55.763397387409903
 30
0.0
 11
84.250000000027285
 21
56.199999927788213
 31
0.0
  0
ARC
  5
1F56
  8
SAPA_PROFIL
 62
     4
 10
84.500000000027285
 20
56.199999927788213
 30
0.0
 40
0.25
 50
90.0
 51
180.0
  0
LINE
  5
1F57
  8
SAPA_PROFIL
 62
     4
 10
84.500000000027285
 20
56.449999927788213
 30
0.0
 11
88.100012000026254
 21
56.449999927788213
 31
0.0
  0
ARC
  5
1F58
  8
SAPA_PROFIL
 62
     4
 10
88.100012000026254
 20
56.19999992778822
 30
0.0
 40
0.2499999999999929
 50
359.99999999999841
 51
90.0
  0
LINE
  5
1F59
  8
SAPA_PROFIL
 62
     4
 10
88.350012000026254
 20
56.199999927788213
 30
0.0
 11
88.350000357291705
 21
55.763398006209627
 31
0.0
  0
LINE
  5
1F5A
  8
SAPA_PROFIL
 62
     4
 10
88.350000357291705
 20
55.763398006209627
 30
0.0
 11
87.357179677001113
 21
54.043782145142359
 31
0.0
  0
ARC
  5
1F5B
  8
SAPA_PROFIL
 62
     4
 10
88.477404781494656
 20
53.429809394981739
 30
0.0
 40
1.2774454284537411
 50
151.2737426180307
 51
179.542930992885
  0
LINE
  5
1F5C
  8
SAPA_PROFIL
 62
     4
 10
87.200000000026179
 20
53.439999927787987
 30
0.0
 11
87.200000000026179
 21
19.55999992778834
 31
0.0
  0
ARC
  5
1F5D
  8
SAPA_PROFIL
 62
     4
 10
88.477404781494641
 20
19.570190460594588
 30
0.0
 40
1.2774454284537271
 50
180.457069007115
 51
208.72625738196959
  0
LINE
  5
1F5E
  8
SAPA_PROFIL
 62
     4
 10
87.357179677001113
 20
18.956217710433972
 30
0.0
 11
88.350000357291705
 21
17.236601849366711
 31
0.0
  0
LINE
  5
1F5F
  8
SAPA_PROFIL
 62
     4
 10
88.350000357291705
 20
17.236601849366711
 30
0.0
 11
88.350012000026254
 21
16.799999927788122
 31
0.0
  0
ARC
  5
1F60
  8
SAPA_PROFIL
 62
     4
 10
88.100012000026254
 20
16.799999927788122
 30
0.0
 40
0.25
 50
270.0
 51
0.0000000000008142
  0
LINE
  5
1F61
  8
SAPA_PROFIL
 62
     4
 10
88.100012000026254
 20
16.549999927788122
 30
0.0
 11
84.500000000027285
 21
16.549999927788122
 31
0.0
  0
ARC
  5
1F62
  8
SAPA_PROFIL
 62
     4
 10
84.500000000027285
 20
16.799999927788122
 30
0.0
 40
0.25
 50
180.0
 51
270.0
  0
LINE
  5
1F63
  8
SAPA_PROFIL
 62
     4
 10
84.250000000027285
 20
16.799999927788122
 30
0.0
 11
84.250000000027285
 21
17.236602468166438
 31
0.0
  0
LINE
  5
1F64
  8
SAPA_PROFIL
 62
     4
 10
84.250000000027285
 20
17.236602468166438
 30
0.0
 11
85.242820323055625
 21
18.9562177104408
 31
0.0
  0
ARC
  5
1F65
  8
SAPA_PROFIL
 62
     4
 10
84.0585040826804
 20
19.586577411138261
 30
0.0
 40
1.341625249270427
 50
331.97558124340338
 51
359.20443003922412
  0
LINE
  5
1F66
  8
SAPA_PROFIL
 62
     4
 10
85.400000000026921
 20
19.567949120219509
 30
0.0
 11
85.400000000026921
 21
53.432050735357272
 31
0.0
  0
ARC
  5
1F67
  8
SAPA_PROFIL
 10
82.375843852336601
 20
56.743868968745012
 30
0.0
 40
0.2999999999994713
 50
180.00000000006511
 51
234.3799302409254
  0
ARC
  5
1F68
  8
SAPA_PROFIL
 10
82.026399202277261
 20
56.256130886836743
 30
0.0
 40
0.2999999999994016
 50
359.99999999981412
 51
54.37993024349629
  0
LINE
  5
1F69
  8
SAPA_PROFIL
 10
82.326399202276676
 20
56.256130886835763
 30
0.0
 11
82.326399202276676
 21
55.2999999278004
 31
0.0
  0
ARC
  5
1F6A
  8
SAPA_PROFIL
 10
82.026399202271904
 20
55.299999927794403
 30
0.0
 40
0.300000000004772
 50
297.12809249346429
 51
0.0000000011453389
  0
ARC
  5
1F6B
  8
SAPA_PROFIL
 10
82.299988000027
 20
54.766006323198987
 30
0.0
 40
0.3000000000001409
 50
117.1280924933133
 51
179.99999999995251
  0
LINE
  5
1F6C
  8
SAPA_PROFIL
 10
81.999988000026875
 20
54.766006323199228
 30
0.0
 11
81.999988000026875
 21
52.588457968241983
 31
0.0
  0
ARC
  5
1F6D
  8
SAPA_PROFIL
 10
82.299988000027682
 20
52.588457968243141
 30
0.0
 40
0.3000000000008214
 50
180.00000000022121
 51
199.99999999998309
  0
LINE
  5
1F6E
  8
SAPA_PROFIL
 10
82.018080213791109
 20
52.485851925245242
 30
0.0
 11
82.537594281466227
 21
51.058498755200162
 31
0.0
  0
ARC
  5
1F6F
  8
SAPA_PROFIL
 10
82.819502067706793
 20
51.161104798204512
 30
0.0
 40
0.3000000000067923
 50
200.00000000087931
 51
290.00000000023709
  0
LINE
  5
1F70
  8
SAPA_PROFIL
 10
82.922108110707995
 20
50.879197011962788
 30
0.0
 11
83.110046634858008
 21
50.947601040633799
 31
0.0
  0
ARC
  5
1F71
  8
SAPA_PROFIL
 10
83.007440591867578
 20
51.229508826865207
 30
0.0
 40
0.2999999999934183
 50
289.99999999897989
 51
19.99999999896276
  0
LINE
  5
1F72
  8
SAPA_PROFIL
 10
83.289348378099007
 20
51.332114869855559
 30
0.0
 11
82.913126220433696
 21
52.36577675272428
 31
0.0
  0
ARC
  5
1F73
  8
SAPA_PROFIL
 10
83.195034006670454
 20
52.468382795717069
 30
0.0
 40
0.2999999999992438
 50
109.99999999780719
 51
199.9999999990529
  0
LINE
  5
1F74
  8
SAPA_PROFIL
 10
83.092427963683804
 20
52.750290581956051
 30
0.0
 11
84.902618043022812
 21
53.409145889192132
 31
0.0
  0
ARC
  5
1F75
  8
SAPA_PROFIL
 10
84.800012000026413
 20
53.691053675428222
 30
0.0
 40
0.2999999999998464
 50
289.99999999974608
 51
359.99999999997152
  0
LINE
  5
1F76
  8
SAPA_PROFIL
 10
85.100012000026254
 20
53.691053675428073
 30
0.0
 11
85.100012000026254
 21
54.110769443247591
 31
0.0
  0
ARC
  5
1F77
  8
SAPA_PROFIL
 10
84.800012000026769
 20
54.110769443246859
 30
0.0
 40
0.2999999999994856
 50
0.0000000001397748
 51
30.000000000137678
  0
LINE
  5
1F78
  8
SAPA_PROFIL
 10
85.059819621161296
 20
54.260769443247227
 30
0.0
 11
84.200012000026618
 21
55.749999927788387
 31
0.0
  0
LINE
  5
1F79
  8
SAPA_PROFIL
 10
84.200012000026618
 20
55.749999927788387
 30
0.0
 11
84.200000000026193
 21
56.199999927788213
 31
0.0
  0
ARC
  5
1F7A
  8
SAPA_PROFIL
 10
84.50000000002683
 20
56.199999927787758
 30
0.0
 40
0.3000000000006366
 50
89.999999999913143
 51
179.99999999991451
  0
LINE
  5
1F7B
  8
SAPA_PROFIL
 10
84.500000000027285
 20
56.499999927788387
 30
0.0
 11
88.100012000026254
 21
56.499999927788387
 31
0.0
  0
ARC
  5
1F7C
  8
SAPA_PROFIL
 10
88.100012000026709
 20
56.199999927787758
 30
0.0
 40
0.3000000000006366
 50
0.0000000000868503
 51
90.000000000086857
  0
LINE
  5
1F7D
  8
SAPA_PROFIL
 10
88.400012000027345
 20
56.199999927788213
 30
0.0
 11
88.400012000027345
 21
55.749999927788387
 31
0.0
  0
LINE
  5
1F7E
  8
SAPA_PROFIL
 10
88.400012000027345
 20
55.749999927788387
 30
0.0
 11
87.540187262457025
 21
54.260739796713999
 31
0.0
  0
ARC
  5
1F7F
  8
SAPA_PROFIL
 10
87.799994883593456
 20
54.110739796716459
 30
0.0
 40
0.2999999999997103
 50
150.00000000051051
 51
179.9963531330699
  0
LINE
  5
1F80
  8
SAPA_PROFIL
 10
87.499994884201442
 20
54.110758891667047
 30
0.0
 11
87.499987834409694
 21
53.999999927790213
 31
0.0
  0
LINE
  5
1F81
  8
SAPA_PROFIL
 10
87.499987834409694
 20
53.999999927790213
 30
0.0
 11
89.575843852326216
 21
53.999999927790213
 31
0.0
  0
ARC
  5
1F82
  8
SAPA_PROFIL
 10
89.575843852326216
 20
54.499999927790213
 30
0.0
 40
0.5
 50
270.0
 51
0.0
  0
LINE
  5
1F83
  8
SAPA_PROFIL
 10
90.075843852326216
 20
54.499999927790213
 30
0.0
 11
90.075843852326216
 21
59.749999927455512
 31
0.0
  0
ARC
  5
1F84
  8
SAPA_PROFIL
 10
89.575843852326216
 20
59.749999927455512
 30
0.0
 40
0.5
 50
0.0
 51
90.0
  0
LINE
  5
1F85
  8
SAPA_PROFIL
 10
89.575843852326216
 20
60.249999927455519
 30
0.0
 11
89.075843848742807
 21
60.249999927455519
 31
0.0
  0
ARC
  5
1F86
  8
SAPA_PROFIL
 10
89.075843848742807
 20
59.749999927455512
 30
0.0
 40
0.5
 50
90.0
 51
180.0
  0
LINE
  5
1F87
  8
SAPA_PROFIL
 10
88.575843848742807
 20
59.749999927455512
 30
0.0
 11
88.57584384873735
 21
58.749999927048073
 31
0.0
  0
LINE
  5
1F88
  8
SAPA_PROFIL
 10
88.57584384873735
 20
58.749999927048073
 30
0.0
 11
85.375843848283694
 21
58.749999927043973
 31
0.0
  0
LINE
  5
1F89
  8
SAPA_PROFIL
 10
85.375843848283694
 20
58.749999927043973
 30
0.0
 11
85.37584384829097
 21
63.24999992794983
 31
0.0
  0
LINE
  5
1F8A
  8
SAPA_PROFIL
 10
85.37584384829097
 20
63.24999992794983
 30
0.0
 11
104.8758438523364
 21
63.249999927971203
 31
0.0
  0
ARC
  5
1F8B
  8
SAPA_PROFIL
 10
104.8758438523367
 20
63.449999927972179
 30
0.0
 40
0.2000000000009763
 50
269.99999999992269
 51
15.601916744377419
  0
ARC
  5
1F8C
  8
SAPA_PROFIL
 10
104.1053209963783
 20
63.234838294670432
 30
0.0
 40
1.000000000000556
 50
15.60191674453514
 51
83.756411541493932
  0
ARC
  5
1F8D
  8
SAPA_PROFIL
 10
90.075843852150001
 20
-65.000000076664122
 30
0.0
 40
130.00000000411961
 50
83.756411541411026
 51
89.999999999912717
  0
LINE
  5
1F8E
  8
SAPA_PROFIL
 10
90.075843852348044
 20
64.999999927455519
 30
0.0
 11
85.075843852428065
 21
64.999999927593763
 31
0.0
  0
ARC
  5
1F8F
  8
SAPA_PROFIL
 10
85.075843852337115
 20
61.99999992759377
 30
0.0
 40
2.9999999999999849
 50
89.999999998262723
 51
180.00000000000031
  0
LINE
  5
1F90
  8
SAPA_PROFIL
 10
82.075843852337144
 20
61.999999927593763
 30
0.0
 11
82.075843852337144
 21
56.743868968744657
 31
0.0
  0
ARC
  5
1F91
  8
SAPA_PROFIL
 10
82.375843852336601
 20
16.25613088683178
 30
0.0
 40
0.2999999999994713
 50
125.6200697590746
 51
179.9999999999348
  0
ARC
  5
1F92
  8
SAPA_PROFIL
 10
82.026399202277261
 20
16.743868968740049
 30
0.0
 40
0.2999999999993987
 50
305.62006975650411
 51
0.0000000001865925
  0
LINE
  5
1F93
  8
SAPA_PROFIL
 10
82.326399202276676
 20
16.743868968741019
 30
0.0
 11
82.326399202276676
 21
17.699999927776389
 31
0.0
  0
ARC
  5
1F94
  8
SAPA_PROFIL
 10
82.026399202272245
 20
17.699999927782152
 30
0.0
 40
0.3000000000044025
 50
359.99999999889877
 51
62.871907506579007
  0
ARC
  5
1F95
  8
SAPA_PROFIL
 10
82.299988000027
 20
18.233993532377351
 30
0.0
 40
0.3000000000001409
 50
180.00000000004749
 51
242.8719075066866
  0
LINE
  5
1F96
  8
SAPA_PROFIL
 10
81.999988000026875
 20
18.233993532377099
 30
0.0
 11
81.999988000026875
 21
20.411541887334351
 31
0.0
  0
ARC
  5
1F97
  8
SAPA_PROFIL
 10
82.299988000026374
 20
20.411541887332959
 30
0.0
 40
0.2999999999995282
 50
159.99999999997249
 51
179.99999999973471
  0
LINE
  5
1F98
  8
SAPA_PROFIL
 10
82.018080213791109
 20
20.51414793033064
 30
0.0
 11
82.537594281466227
 21
21.941501100376168
 31
0.0
  0
ARC
  5
1F99
  8
SAPA_PROFIL
 10
82.819502067706793
 20
21.838895057371818
 30
0.0
 40
0.3000000000067911
 50
69.999999999762665
 51
159.99999999912129
  0
LINE
  5
1F9A
  8
SAPA_PROFIL
 10
82.922108110707995
 20
22.12080284361355
 30
0.0
 11
83.110046634858008
 21
22.052398814942539
 31
0.0
  0
ARC
  5
1F9B
  8
SAPA_PROFIL
 10
83.007440591867805
 20
21.770491028711351
 30
0.0
 40
0.2999999999931269
 50
340.0000000010632
 51
70.000000001046047
  0
LINE
  5
1F9C
  8
SAPA_PROFIL
 10
83.289348378099007
 20
21.66788498572123
 30
0.0
 11
82.913126220433696
 21
20.634223102851589
 31
0.0
  0
ARC
  5
1F9D
  8
SAPA_PROFIL
 10
83.195034006670227
 20
20.531617059859041
 30
0.0
 40
0.2999999999989511
 50
160.00000000097361
 51
250.000000002219
  0
LINE
  5
1F9E
  8
SAPA_PROFIL
 10
83.092427963683804
 20
20.24970927362028
 30
0.0
 11
84.902618043022812
 21
19.59085396638466
 31
0.0
  0
ARC
  5
1F9F
  8
SAPA_PROFIL
 10
84.800012000026086
 20
19.30894618014835
 30
0.0
 40
0.3000000000001719
 50
359.99999999998511
 51
70.000000000210051
  0
LINE
  5
1FA0
  8
SAPA_PROFIL
 10
85.100012000026254
 20
19.308946180148268
 30
0.0
 11
85.100012000026254
 21
18.88923041232874
 31
0.0
  0
ARC
  5
1FA1
  8
SAPA_PROFIL
 10
84.800012000026769
 20
18.889230412329471
 30
0.0
 40
0.2999999999994856
 50
329.99999999986289
 51
359.9999999998609
  0
LINE
  5
1FA2
  8
SAPA_PROFIL
 10
85.059819621161296
 20
18.73923041232911
 30
0.0
 11
84.200012000026618
 21
17.249999927788391
 31
0.0
  0
LINE
  5
1FA3
  8
SAPA_PROFIL
 10
84.200012000026618
 20
17.249999927788391
 30
0.0
 11
84.200000000026193
 21
16.799999927788122
 31
0.0
  0
ARC
  5
1FA4
  8
SAPA_PROFIL
 10
84.500000000026603
 20
16.7999999277888
 30
0.0
 40
0.3000000000004093
 50
180.00000000012949
 51
270.00000000013029
  0
LINE
  5
1FA5
  8
SAPA_PROFIL
 10
84.500000000027285
 20
16.499999927788391
 30
0.0
 11
88.100012000026254
 21
16.499999927788391
 31
0.0
  0
ARC
  5
1FA6
  8
SAPA_PROFIL
 10
88.100012000026936
 20
16.7999999277888
 30
0.0
 40
0.3000000000004093
 50
269.99999999986971
 51
359.99999999986971
  0
LINE
  5
1FA7
  8
SAPA_PROFIL
 10
88.400012000027345
 20
16.799999927788122
 30
0.0
 11
88.400012000027345
 21
17.249999927788391
 31
0.0
  0
LINE
  5
1FA8
  8
SAPA_PROFIL
 10
88.400012000027345
 20
17.249999927788391
 30
0.0
 11
87.540187262457025
 21
18.739260058862321
 31
0.0
  0
ARC
  5
1FA9
  8
SAPA_PROFIL
 10
87.799994883593456
 20
18.889260058859868
 30
0.0
 40
0.2999999999997103
 50
180.0036468669301
 51
209.99999999948949
  0
LINE
  5
1FAA
  8
SAPA_PROFIL
 10
87.499994884201442
 20
18.889240963909291
 30
0.0
 11
87.499987834409694
 21
18.999999927786568
 31
0.0
  0
LINE
  5
1FAB
  8
SAPA_PROFIL
 10
87.499987834409694
 20
18.999999927786568
 30
0.0
 11
89.575843852326216
 21
18.999999927786568
 31
0.0
  0
ARC
  5
1FAC
  8
SAPA_PROFIL
 10
89.575843852326216
 20
18.499999927786568
 30
0.0
 40
0.5
 50
0.0
 51
90.0
  0
LINE
  5
1FAD
  8
SAPA_PROFIL
 10
90.075843852326216
 20
18.499999927786568
 30
0.0
 11
90.075843852326216
 21
13.249999928121269
 31
0.0
  0
ARC
  5
1FAE
  8
SAPA_PROFIL
 10
89.575843852326216
 20
13.249999928121269
 30
0.0
 40
0.5
 50
270.0
 51
0.0
  0
LINE
  5
1FAF
  8
SAPA_PROFIL
 10
89.575843852326216
 20
12.749999928121269
 30
0.0
 11
89.075843848742807
 21
12.749999928121269
 31
0.0
  0
ARC
  5
1FB0
  8
SAPA_PROFIL
 10
89.075843848742807
 20
13.249999928121269
 30
0.0
 40
0.5
 50
180.0
 51
270.0
  0
LINE
  5
1FB1
  8
SAPA_PROFIL
 10
88.575843848742807
 20
13.249999928121269
 30
0.0
 11
88.57584384873735
 21
14.24999992852827
 31
0.0
  0
LINE
  5
1FB2
  8
SAPA_PROFIL
 10
88.57584384873735
 20
14.24999992852827
 30
0.0
 11
85.375843848283694
 21
14.249999928532359
 31
0.0
  0
LINE
  5
1FB3
  8
SAPA_PROFIL
 10
85.375843848283694
 20
14.249999928532359
 30
0.0
 11
85.37584384829097
 21
9.7499999276265044
 31
0.0
  0
LINE
  5
1FB4
  8
SAPA_PROFIL
 10
85.37584384829097
 20
9.7499999276265044
 30
0.0
 11
104.8758438523364
 21
9.7499999276051312
 31
0.0
  0
ARC
  5
1FB5
  8
SAPA_PROFIL
 10
104.8758438523367
 20
9.5499999276041532
 30
0.0
 40
0.2000000000009781
 50
344.39808325562308
 51
90.000000000077364
  0
ARC
  5
1FB6
  8
SAPA_PROFIL
 10
104.1053209963783
 20
9.765161560905895
 30
0.0
 40
1.000000000000556
 50
276.24358845850611
 51
344.39808325546488
  0
ARC
  5
1FB7
  8
SAPA_PROFIL
 10
90.075843852150001
 20
137.9999999322404
 30
0.0
 40
130.00000000411961
 50
270.00000000008731
 51
276.24358845858899
  0
LINE
  5
1FB8
  8
SAPA_PROFIL
 10
90.075843852348044
 20
7.9999999281208138
 30
0.0
 11
85.075843852428065
 21
7.9999999279830263
 31
0.0
  0
ARC
  5
1FB9
  8
SAPA_PROFIL
 10
85.075843852337115
 20
10.99999992798301
 30
0.0
 40
2.9999999999999871
 50
179.9999999999998
 51
270.00000000173719
  0
LINE
  5
1FBA
  8
SAPA_PROFIL
 10
82.075843852337144
 20
10.999999927983019
 30
0.0
 11
82.075843852337144
 21
16.256130886832121
 31
0.0
  0
LINE
  5
1FBB
  8
SAPA_PROFIL
 62
     4
 10
58.348290417558928
 20
77.499999996510269
 30
-0.2
 11
72.548290417561475
 21
77.499999996510269
 31
-0.2
1001
RC_PROFILE
1002
{
1000
Region
1002
}
  0
ARC
  5
1FBC
  8
SAPA_PROFIL
 62
     4
 10
72.548290417561475
 20
76.999999996510255
 30
-0.2
 40
0.5
 50
0.0000000002084408
 51
90.0
1001
RC_PROFILE
1002
{
1000
Region
1002
}
  0
LINE
  5
1FBD
  8
SAPA_PROFIL
 62
     4
 10
73.048290417561475
 20
76.999999996512074
 30
-0.2
 11
73.048290417563294
 21
72.999999995890903
 31
-0.2
1001
RC_PROFILE
1002
{
1000
Region
1002
}
  0
ARC
  5
1FBE
  8
SAPA_PROFIL
 62
     4
 10
72.548290417563294
 20
72.999999995890903
 30
-0.2
 40
0.5
 50
270.0
 51
0.0
1001
RC_PROFILE
1002
{
1000
Region
1002
}
  0
LINE
  5
1FBF
  8
SAPA_PROFIL
 62
     4
 10
72.548290417563294
 20
72.499999995890903
 30
-0.2
 11
58.348290417560747
 21
72.499999995883627
 31
-0.2
1001
RC_PROFILE
1002
{
1000
Region
1002
}
  0
ARC
  5
1FC0
  8
SAPA_PROFIL
 62
     4
 10
58.348290417559269
 20
72.999999995883968
 30
-0.2
 40
0.5000000000003411
 50
180.00000000003911
 51
270.00000000016928
1001
RC_PROFILE
1002
{
1000
Region
1002
}
  0
LINE
  5
1FC1
  8
SAPA_PROFIL
 62
     4
 10
57.848290417558928
 20
72.999999995883627
 30
-0.2
 11
57.848290417558928
 21
76.999999996510255
 31
-0.2
1001
RC_PROFILE
1002
{
1000
Region
1002
}
  0
ARC
  5
1FC2
  8
SAPA_PROFIL
 62
     4
 10
58.348290417558928
 20
76.999999996510255
 30
-0.2
 40
0.5
 50
90.0
 51
180.0
1001
RC_PROFILE
1002
{
1000
Region
1002
}
  0
ARC
  5
1FC3
  8
SAPA_PROFIL
 62
     4
 10
32.784816861149629
 20
64.077259926493241
 30
0.0
 40
1.2000000000004361
 50
180.0000000000841
 51
210.00000000010519
1001
GENIUS_GENOBJ-N-FIL_13
1002
{
1000
OWNER
1000
GEN
1002
}
1001
GENIUS_GENODEF_13
1002
{
1000
HIER
1070
     0
1002
}
1002
{
1000
MANEDIT
1070
     0
1002
}
1002
{
1000
NOSEL
1070
     0
1002
}
1002
{
1000
BEHIND
1070
     0
1002
}
1002
{
1000
OTHER
1070
     0
1002
}
1002
{
1000
REACTOR
1002
}
  0
LINE
  5
1FC4
  8
SAPA_PROFIL
 62
     4
 10
31.74558637660903
 20
63.477259926491108
 30
0.0
 11
32.750555707206331
 21
61.736601985847763
 31
0.0
1001
GENIUS_GENOBJ-N-FIL_13
1002
{
1000
OWNER
1000
GEN
1002
}
1001
GENIUS_GENODEF_13
1002
{
1000
HIER
1070
     0
1002
}
1002
{
1000
MANEDIT
1070
     0
1002
}
1002
{
1000
NOSEL
1070
     0
1002
}
1002
{
1000
BEHIND
1070
     0
1002
}
1002
{
1000
OTHER
1070
     0
1002
}
1002
{
1000
REACTOR
1002
}
  0
LINE
  5
1FC5
  8
SAPA_PROFIL
 62
     4
 10
32.750555707206331
 20
61.736601985847763
 30
0.0
 11
32.750567349940873
 21
61.30000006426917
 31
0.0
1001
GENIUS_GENOBJ-N-FIL_13
1002
{
1000
OWNER
1000
GEN
1002
}
1001
GENIUS_GENODEF_13
1002
{
1000
HIER
1070
     0
1002
}
1002
{
1000
MANEDIT
1070
     0
1002
}
1002
{
1000
NOSEL
1070
     0
1002
}
1002
{
1000
BEHIND
1070
     0
1002
}
1002
{
1000
OTHER
1070
     0
1002
}
1002
{
1000
REACTOR
1002
}
  0
ARC
  5
1FC6
  8
SAPA_PROFIL
 62
     4
 10
32.50056734994088
 20
61.300000064269163
 30
0.0
 40
0.2499999999999929
 50
269.99999999999841
 51
0.0000000000016284
1001
GENIUS_GENOBJ-N-FIL_13
1002
{
1000
OWNER
1000
GEN
1002
}
1001
GENIUS_GENODEF_13
1002
{
1000
HIER
1070
     0
1002
}
1002
{
1000
MANEDIT
1070
     0
1002
}
1002
{
1000
NOSEL
1070
     0
1002
}
1002
{
1000
BEHIND
1070
     0
1002
}
1002
{
1000
OTHER
1070
     0
1002
}
1002
{
1000
REACTOR
1002
}
  0
LINE
  5
1FC7
  8
SAPA_PROFIL
 62
     4
 10
32.500567349940873
 20
61.05000006426917
 30
0.0
 11
28.9005553499419
 21
61.05000006426917
 31
0.0
1001
GENIUS_GENOBJ-N-FIL_13
1002
{
1000
OWNER
1000
GEN
1002
}
1001
GENIUS_GENODEF_13
1002
{
1000
HIER
1070
     0
1002
}
1002
{
1000
MANEDIT
1070
     0
1002
}
1002
{
1000
NOSEL
1070
     0
1002
}
1002
{
1000
BEHIND
1070
     0
1002
}
1002
{
1000
OTHER
1070
     0
1002
}
1002
{
1000
REACTOR
1002
}
  0
ARC
  5
1FC8
  8
SAPA_PROFIL
 62
     4
 10
28.9005553499419
 20
61.30000006426917
 30
0.0
 40
0.25
 50
180.0
 51
270.0
1001
GENIUS_GENOBJ-N-FIL_13
1002
{
1000
OWNER
1000
GEN
1002
}
1001
GENIUS_GENODEF_13
1002
{
1000
HIER
1070
     0
1002
}
1002
{
1000
MANEDIT
1070
     0
1002
}
1002
{
1000
NOSEL
1070
     0
1002
}
1002
{
1000
BEHIND
1070
     0
1002
}
1002
{
1000
OTHER
1070
     0
1002
}
1002
{
1000
REACTOR
1002
}
  0
LINE
  5
1FC9
  8
SAPA_PROFIL
 62
     4
 10
28.6505553499419
 20
61.30000006426917
 30
0.0
 11
28.6505553499419
 21
61.736602604647942
 31
0.0
1001
GENIUS_GENOBJ-N-FIL_13
1002
{
1000
OWNER
1000
GEN
1002
}
1001
GENIUS_GENODEF_13
1002
{
1000
HIER
1070
     0
1002
}
1002
{
1000
MANEDIT
1070
     0
1002
}
1002
{
1000
NOSEL
1070
     0
1002
}
1002
{
1000
BEHIND
1070
     0
1002
}
1002
{
1000
OTHER
1070
     0
1002
}
1002
{
1000
REACTOR
1002
}
  0
LINE
  5
1FCA
  8
SAPA_PROFIL
 62
     4
 10
28.6505553499419
 20
61.736602604647942
 30
0.0
 11
29.624047345691899
 21
63.422740202048772
 31
0.0
1001
GENIUS_GENOBJ-N-FIL_13
1002
{
1000
OWNER
1000
GEN
1002
}
1001
GENIUS_GENODEF_13
1002
{
1000
HIER
1070
     0
1002
}
1002
{
1000
MANEDIT
1070
     0
1002
}
1002
{
1000
NOSEL
1070
     0
1002
}
1002
{
1000
BEHIND
1070
     0
1002
}
1002
{
1000
OTHER
1070
     0
1002
}
1002
{
1000
REACTOR
1002
}
  0
ARC
  5
1FCB
  8
SAPA_PROFIL
 62
     4
 10
28.584816861150319
 20
64.022740202047515
 30
0.0
 40
1.1999999999995941
 50
330.00000000005809
 51
0.0000000000556385
1001
GENIUS_GENOBJ-N-FIL_13
1002
{
1000
OWNER
1000
GEN
1002
}
1001
GENIUS_GENODEF_13
1002
{
1000
HIER
1070
     0
1002
}
1002
{
1000
MANEDIT
1070
     0
1002
}
1002
{
1000
NOSEL
1070
     0
1002
}
1002
{
1000
BEHIND
1070
     0
1002
}
1002
{
1000
OTHER
1070
     0
1002
}
1002
{
1000
REACTOR
1002
}
  0
LINE
  5
1FCC
  8
SAPA_PROFIL
 62
     4
 10
29.78481686114992
 20
64.022740202048681
 30
0.0
 11
29.78481686114992
 21
85.977259790339758
 31
0.0
1001
GENIUS_GENOBJ-N-FIL_13
1002
{
1000
OWNER
1000
GEN
1002
}
1001
GENIUS_GENODEF_13
1002
{
1000
HIER
1070
     0
1002
}
1002
{
1000
MANEDIT
1070
     0
1002
}
1002
{
1000
NOSEL
1070
     0
1002
}
1002
{
1000
BEHIND
1070
     0
1002
}
1002
{
1000
OTHER
1070
     0
1002
}
1002
{
1000
REACTOR
1002
}
  0
ARC
  5
1FCD
  8
SAPA_PROFIL
 62
     4
 10
28.584816861150319
 20
85.977259790340923
 30
0.0
 40
1.1999999999995969
 50
359.99999999994441
 51
29.99999999994191
1001
GENIUS_GENOBJ-N-FIL_13
1002
{
1000
OWNER
1000
GEN
1002
}
1001
GENIUS_GENODEF_13
1002
{
1000
HIER
1070
     0
1002
}
1002
{
1000
MANEDIT
1070
     0
1002
}
1002
{
1000
NOSEL
1070
     0
1002
}
1002
{
1000
BEHIND
1070
     0
1002
}
1002
{
1000
OTHER
1070
     0
1002
}
1002
{
1000
REACTOR
1002
}
  0
LINE
  5
1FCE
  8
SAPA_PROFIL
 62
     4
 10
29.624047345691899
 20
86.577259790339667
 30
0.0
 11
28.6505553499419
 21
88.263397387740497
 31
0.0
1001
GENIUS_GENOBJ-N-FIL_13
1002
{
1000
OWNER
1000
GEN
1002
}
1001
GENIUS_GENODEF_13
1002
{
1000
HIER
1070
     0
1002
}
1002
{
1000
MANEDIT
1070
     0
1002
}
1002
{
1000
NOSEL
1070
     0
1002
}
1002
{
1000
BEHIND
1070
     0
1002
}
1002
{
1000
OTHER
1070
     0
1002
}
1002
{
1000
REACTOR
1002
}
  0
LINE
  5
1FCF
  8
SAPA_PROFIL
 62
     4
 10
28.6505553499419
 20
88.263397387740497
 30
0.0
 11
28.6505553499419
 21
88.699999928118814
 31
0.0
1001
GENIUS_GENOBJ-N-FIL_13
1002
{
1000
OWNER
1000
GEN
1002
}
1001
GENIUS_GENODEF_13
1002
{
1000
HIER
1070
     0
1002
}
1002
{
1000
MANEDIT
1070
     0
1002
}
1002
{
1000
NOSEL
1070
     0
1002
}
1002
{
1000
BEHIND
1070
     0
1002
}
1002
{
1000
OTHER
1070
     0
1002
}
1002
{
1000
REACTOR
1002
}
  0
ARC
  5
1FD0
  8
SAPA_PROFIL
 62
     4
 10
28.9005553499419
 20
88.699999928118814
 30
0.0
 40
0.25
 50
90.0
 51
180.0
1001
GENIUS_GENOBJ-N-FIL_13
1002
{
1000
OWNER
1000
GEN
1002
}
1001
GENIUS_GENODEF_13
1002
{
1000
HIER
1070
     0
1002
}
1002
{
1000
MANEDIT
1070
     0
1002
}
1002
{
1000
NOSEL
1070
     0
1002
}
1002
{
1000
BEHIND
1070
     0
1002
}
1002
{
1000
OTHER
1070
     0
1002
}
1002
{
1000
REACTOR
1002
}
  0
LINE
  5
1FD1
  8
SAPA_PROFIL
 62
     4
 10
28.9005553499419
 20
88.949999928118814
 30
0.0
 11
32.500567349940873
 21
88.949999928118814
 31
0.0
1001
GENIUS_GENOBJ-N-FIL_13
1002
{
1000
OWNER
1000
GEN
1002
}
1001
GENIUS_GENODEF_13
1002
{
1000
HIER
1070
     0
1002
}
1002
{
1000
MANEDIT
1070
     0
1002
}
1002
{
1000
NOSEL
1070
     0
1002
}
1002
{
1000
BEHIND
1070
     0
1002
}
1002
{
1000
OTHER
1070
     0
1002
}
1002
{
1000
REACTOR
1002
}
  0
ARC
  5
1FD2
  8
SAPA_PROFIL
 62
     4
 10
32.50056734994088
 20
88.699999928118814
 30
0.0
 40
0.25
 50
0.0
 51
90.000000000001606
1001
GENIUS_GENOBJ-N-FIL_13
1002
{
1000
OWNER
1000
GEN
1002
}
1001
GENIUS_GENODEF_13
1002
{
1000
HIER
1070
     0
1002
}
1002
{
1000
MANEDIT
1070
     0
1002
}
1002
{
1000
NOSEL
1070
     0
1002
}
1002
{
1000
BEHIND
1070
     0
1002
}
1002
{
1000
OTHER
1070
     0
1002
}
1002
{
1000
REACTOR
1002
}
  0
LINE
  5
1FD3
  8
SAPA_PROFIL
 62
     4
 10
32.750567349940873
 20
88.699999928118814
 30
0.0
 11
32.750555707206331
 21
88.263398006540683
 31
0.0
1001
GENIUS_GENOBJ-N-FIL_13
1002
{
1000
OWNER
1000
GEN
1002
}
1001
GENIUS_GENODEF_13
1002
{
1000
HIER
1070
     0
1002
}
1002
{
1000
MANEDIT
1070
     0
1002
}
1002
{
1000
NOSEL
1070
     0
1002
}
1002
{
1000
BEHIND
1070
     0
1002
}
1002
{
1000
OTHER
1070
     0
1002
}
1002
{
1000
REACTOR
1002
}
  0
LINE
  5
1FD4
  8
SAPA_PROFIL
 62
     4
 10
32.750555707206331
 20
88.263398006540683
 30
0.0
 11
31.74558637660903
 21
86.522740065896869
 31
0.0
1001
GENIUS_GENOBJ-N-FIL_13
1002
{
1000
OWNER
1000
GEN
1002
}
1001
GENIUS_GENODEF_13
1002
{
1000
HIER
1070
     0
1002
}
1002
{
1000
MANEDIT
1070
     0
1002
}
1002
{
1000
NOSEL
1070
     0
1002
}
1002
{
1000
BEHIND
1070
     0
1002
}
1002
{
1000
OTHER
1070
     0
1002
}
1002
{
1000
REACTOR
1002
}
  0
ARC
  5
1FD5
  8
SAPA_PROFIL
 62
     4
 10
32.784816861149629
 20
85.922740065894743
 30
0.0
 40
1.2000000000004361
 50
149.99999999989481
 51
179.99999999991579
1001
GENIUS_GENOBJ-N-FIL_13
1002
{
1000
OWNER
1000
GEN
1002
}
1001
GENIUS_GENODEF_13
1002
{
1000
HIER
1070
     0
1002
}
1002
{
1000
MANEDIT
1070
     0
1002
}
1002
{
1000
NOSEL
1070
     0
1002
}
1002
{
1000
BEHIND
1070
     0
1002
}
1002
{
1000
OTHER
1070
     0
1002
}
1002
{
1000
REACTOR
1002
}
  0
LINE
  5
1FD6
  8
SAPA_PROFIL
 62
     4
 10
31.5848168611492
 20
85.922740065896505
 30
0.0
 11
31.584816861151008
 21
83.199999928368015
 31
0.0
1001
GENIUS_GENOBJ-N-FIL_13
1002
{
1000
OWNER
1000
GEN
1002
}
1001
GENIUS_GENODEF_13
1002
{
1000
HIER
1070
     0
1002
}
1002
{
1000
MANEDIT
1070
     0
1002
}
1002
{
1000
NOSEL
1070
     0
1002
}
1002
{
1000
BEHIND
1070
     0
1002
}
1002
{
1000
OTHER
1070
     0
1002
}
1002
{
1000
REACTOR
1002
}
  0
ARC
  5
1FD7
  8
SAPA_PROFIL
 62
     4
 10
32.784816861150603
 20
83.199999928368683
 30
0.0
 40
1.1999999999995901
 50
180.00000000003249
 51
270.000000000228
1001
GENIUS_GENOBJ-N-FIL_13
1002
{
1000
OWNER
1000
GEN
1002
}
1001
GENIUS_GENODEF_13
1002
{
1000
HIER
1070
     0
1002
}
1002
{
1000
MANEDIT
1070
     0
1002
}
1002
{
1000
NOSEL
1070
     0
1002
}
1002
{
1000
BEHIND
1070
     0
1002
}
1002
{
1000
OTHER
1070
     0
1002
}
1002
{
1000
REACTOR
1002
}
  0
LINE
  5
1FD8
  8
SAPA_PROFIL
 62
     4
 10
32.784816861155377
 20
81.999999928369107
 30
0.0
 11
58.582551888076523
 21
81.999999928458223
 31
0.0
1001
GENIUS_GENOBJ-N-FIL_13
1002
{
1000
OWNER
1000
GEN
1002
}
1001
GENIUS_GENODEF_13
1002
{
1000
HIER
1070
     0
1002
}
1002
{
1000
MANEDIT
1070
     0
1002
}
1002
{
1000
NOSEL
1070
     0
1002
}
1002
{
1000
BEHIND
1070
     0
1002
}
1002
{
1000
OTHER
1070
     0
1002
}
1002
{
1000
REACTOR
1002
}
  0
ARC
  5
1FD9
  8
SAPA_PROFIL
 62
     4
 10
58.582551888076523
 20
81.499999928458237
 30
0.0
 40
0.5
 50
0.0
 51
90.0
1001
GENIUS_GENOBJ-N-FIL_13
1002
{
1000
OWNER
1000
GEN
1002
}
1001
GENIUS_GENODEF_13
1002
{
1000
HIER
1070
     0
1002
}
1002
{
1000
MANEDIT
1070
     0
1002
}
1002
{
1000
NOSEL
1070
     0
1002
}
1002
{
1000
BEHIND
1070
     0
1002
}
1002
{
1000
OTHER
1070
     0
1002
}
1002
{
1000
REACTOR
1002
}
  0
LINE
  5
1FDA
  8
SAPA_PROFIL
 62
     4
 10
59.082551888076523
 20
81.499999928458237
 30
0.0
 11
59.082551888076523
 21
81.299999928458419
 31
0.0
1001
GENIUS_GENOBJ-N-FIL_13
1002
{
1000
OWNER
1000
GEN
1002
}
1001
GENIUS_GENODEF_13
1002
{
1000
HIER
1070
     0
1002
}
1002
{
1000
MANEDIT
1070
     0
1002
}
1002
{
1000
NOSEL
1070
     0
1002
}
1002
{
1000
BEHIND
1070
     0
1002
}
1002
{
1000
OTHER
1070
     0
1002
}
1002
{
1000
REACTOR
1002
}
  0
ARC
  5
1FDB
  8
SAPA_PROFIL
 62
     4
 10
58.782551888076789
 20
81.299999928457964
 30
0.0
 40
0.2999999999997271
 50
270.0000000000868
 51
0.0000000000868503
1001
GENIUS_GENOBJ-N-FIL_13
1002
{
1000
OWNER
1000
GEN
1002
}
1001
GENIUS_GENODEF_13
1002
{
1000
HIER
1070
     0
1002
}
1002
{
1000
MANEDIT
1070
     0
1002
}
1002
{
1000
NOSEL
1070
     0
1002
}
1002
{
1000
BEHIND
1070
     0
1002
}
1002
{
1000
OTHER
1070
     0
1002
}
1002
{
1000
REACTOR
1002
}
  0
LINE
  5
1FDC
  8
SAPA_PROFIL
 62
     4
 10
58.782551888077251
 20
80.999999928458223
 30
0.0
 11
58.132551888073969
 21
80.999999928458223
 31
0.0
1001
GENIUS_GENOBJ-N-FIL_13
1002
{
1000
OWNER
1000
GEN
1002
}
1001
GENIUS_GENODEF_13
1002
{
1000
HIER
1070
     0
1002
}
1002
{
1000
MANEDIT
1070
     0
1002
}
1002
{
1000
NOSEL
1070
     0
1002
}
1002
{
1000
BEHIND
1070
     0
1002
}
1002
{
1000
OTHER
1070
     0
1002
}
1002
{
1000
REACTOR
1002
}
  0
ARC
  5
1FDD
  8
SAPA_PROFIL
 62
     4
 10
58.132551888074879
 20
80.699999928458055
 30
0.0
 40
0.3000000000001819
 50
90.000000000173699
 51
180.00000000017371
1001
GENIUS_GENOBJ-N-FIL_13
1002
{
1000
OWNER
1000
GEN
1002
}
1001
GENIUS_GENODEF_13
1002
{
1000
HIER
1070
     0
1002
}
1002
{
1000
MANEDIT
1070
     0
1002
}
1002
{
1000
NOSEL
1070
     0
1002
}
1002
{
1000
BEHIND
1070
     0
1002
}
1002
{
1000
OTHER
1070
     0
1002
}
1002
{
1000
REACTOR
1002
}
  0
LINE
  5
1FDE
  8
SAPA_PROFIL
 62
     4
 10
57.832551888074697
 20
80.699999928457146
 30
0.0
 11
57.832551888074697
 21
79.799999928461133
 31
0.0
1001
GENIUS_GENOBJ-N-FIL_13
1002
{
1000
OWNER
1000
GEN
1002
}
1001
GENIUS_GENODEF_13
1002
{
1000
HIER
1070
     0
1002
}
1002
{
1000
MANEDIT
1070
     0
1002
}
1002
{
1000
NOSEL
1070
     0
1002
}
1002
{
1000
BEHIND
1070
     0
1002
}
1002
{
1000
OTHER
1070
     0
1002
}
1002
{
1000
REACTOR
1002
}
  0
ARC
  5
1FDF
  8
SAPA_PROFIL
 62
     4
 10
58.332551888074697
 20
79.799999928461133
 30
0.0
 40
0.5
 50
180.0
 51
270.0
1001
GENIUS_GENOBJ-N-FIL_13
1002
{
1000
OWNER
1000
GEN
1002
}
1001
GENIUS_GENODEF_13
1002
{
1000
HIER
1070
     0
1002
}
1002
{
1000
MANEDIT
1070
     0
1002
}
1002
{
1000
NOSEL
1070
     0
1002
}
1002
{
1000
BEHIND
1070
     0
1002
}
1002
{
1000
OTHER
1070
     0
1002
}
1002
{
1000
REACTOR
1002
}
  0
LINE
  5
1FE0
  8
SAPA_PROFIL
 62
     4
 10
58.332551888074697
 20
79.299999928461148
 30
0.0
 11
64.332551888076523
 21
79.299999928461148
 31
0.0
1001
GENIUS_GENOBJ-N-FIL_13
1002
{
1000
OWNER
1000
GEN
1002
}
1001
GENIUS_GENODEF_13
1002
{
1000
HIER
1070
     0
1002
}
1002
{
1000
MANEDIT
1070
     0
1002
}
1002
{
1000
NOSEL
1070
     0
1002
}
1002
{
1000
BEHIND
1070
     0
1002
}
1002
{
1000
OTHER
1070
     0
1002
}
1002
{
1000
REACTOR
1002
}
  0
ARC
  5
1FE1
  8
SAPA_PROFIL
 62
     4
 10
64.332551888076523
 20
79.799999928461133
 30
0.0
 40
0.5
 50
270.0
 51
0.0
1001
GENIUS_GENOBJ-N-FIL_13
1002
{
1000
OWNER
1000
GEN
1002
}
1001
GENIUS_GENODEF_13
1002
{
1000
HIER
1070
     0
1002
}
1002
{
1000
MANEDIT
1070
     0
1002
}
1002
{
1000
NOSEL
1070
     0
1002
}
1002
{
1000
BEHIND
1070
     0
1002
}
1002
{
1000
OTHER
1070
     0
1002
}
1002
{
1000
REACTOR
1002
}
  0
LINE
  5
1FE2
  8
SAPA_PROFIL
 62
     4
 10
64.832551888076523
 20
79.799999928461133
 30
0.0
 11
64.832551888076523
 21
80.699999928459874
 31
0.0
1001
GENIUS_GENOBJ-N-FIL_13
1002
{
1000
OWNER
1000
GEN
1002
}
1001
GENIUS_GENODEF_13
1002
{
1000
HIER
1070
     0
1002
}
1002
{
1000
MANEDIT
1070
     0
1002
}
1002
{
1000
NOSEL
1070
     0
1002
}
1002
{
1000
BEHIND
1070
     0
1002
}
1002
{
1000
OTHER
1070
     0
1002
}
1002
{
1000
REACTOR
1002
}
  0
ARC
  5
1FE3
  8
SAPA_PROFIL
 62
     4
 10
64.532551888077137
 20
80.699999928459775
 30
0.0
 40
0.2999999999993861
 50
0.0000000000217126
 51
89.999999999630887
1001
GENIUS_GENOBJ-N-FIL_13
1002
{
1000
OWNER
1000
GEN
1002
}
1001
GENIUS_GENODEF_13
1002
{
1000
HIER
1070
     0
1002
}
1002
{
1000
MANEDIT
1070
     0
1002
}
1002
{
1000
NOSEL
1070
     0
1002
}
1002
{
1000
BEHIND
1070
     0
1002
}
1002
{
1000
OTHER
1070
     0
1002
}
1002
{
1000
REACTOR
1002
}
  0
LINE
  5
1FE4
  8
SAPA_PROFIL
 62
     4
 10
64.53255188807907
 20
80.999999928459147
 30
0.0
 11
63.882551888075803
 21
80.999999928463694
 31
0.0
1001
GENIUS_GENOBJ-N-FIL_13
1002
{
1000
OWNER
1000
GEN
1002
}
1001
GENIUS_GENODEF_13
1002
{
1000
HIER
1070
     0
1002
}
1002
{
1000
MANEDIT
1070
     0
1002
}
1002
{
1000
NOSEL
1070
     0
1002
}
1002
{
1000
BEHIND
1070
     0
1002
}
1002
{
1000
OTHER
1070
     0
1002
}
1002
{
1000
REACTOR
1002
}
  0
ARC
  5
1FE5
  8
SAPA_PROFIL
 62
     4
 10
63.882551888078069
 20
81.299999928463407
 30
0.0
 40
0.2999999999997271
 50
179.99999999956569
 51
269.99999999956577
1001
GENIUS_GENOBJ-N-FIL_13
1002
{
1000
OWNER
1000
GEN
1002
}
1001
GENIUS_GENODEF_13
1002
{
1000
HIER
1070
     0
1002
}
1002
{
1000
MANEDIT
1070
     0
1002
}
1002
{
1000
NOSEL
1070
     0
1002
}
1002
{
1000
BEHIND
1070
     0
1002
}
1002
{
1000
OTHER
1070
     0
1002
}
1002
{
1000
REACTOR
1002
}
  0
LINE
  5
1FE6
  8
SAPA_PROFIL
 62
     4
 10
63.582551888078342
 20
81.299999928465695
 30
0.0
 11
63.582551888080161
 21
81.499999928458237
 31
0.0
1001
GENIUS_GENOBJ-N-FIL_13
1002
{
1000
OWNER
1000
GEN
1002
}
1001
GENIUS_GENODEF_13
1002
{
1000
HIER
1070
     0
1002
}
1002
{
1000
MANEDIT
1070
     0
1002
}
1002
{
1000
NOSEL
1070
     0
1002
}
1002
{
1000
BEHIND
1070
     0
1002
}
1002
{
1000
OTHER
1070
     0
1002
}
1002
{
1000
REACTOR
1002
}
  0
ARC
  5
1FE7
  8
SAPA_PROFIL
 62
     4
 10
64.082551888080161
 20
81.499999928458237
 30
0.0
 40
0.5
 50
90.0
 51
180.0
1001
GENIUS_GENOBJ-N-FIL_13
1002
{
1000
OWNER
1000
GEN
1002
}
1001
GENIUS_GENODEF_13
1002
{
1000
HIER
1070
     0
1002
}
1002
{
1000
MANEDIT
1070
     0
1002
}
1002
{
1000
NOSEL
1070
     0
1002
}
1002
{
1000
BEHIND
1070
     0
1002
}
1002
{
1000
OTHER
1070
     0
1002
}
1002
{
1000
REACTOR
1002
}
  0
LINE
  5
1FE8
  8
SAPA_PROFIL
 62
     4
 10
64.082551888080161
 20
81.999999928458223
 30
0.0
 11
67.082551888080161
 21
81.999999928458223
 31
0.0
1001
GENIUS_GENOBJ-N-FIL_13
1002
{
1000
OWNER
1000
GEN
1002
}
1001
GENIUS_GENODEF_13
1002
{
1000
HIER
1070
     0
1002
}
1002
{
1000
MANEDIT
1070
     0
1002
}
1002
{
1000
NOSEL
1070
     0
1002
}
1002
{
1000
BEHIND
1070
     0
1002
}
1002
{
1000
OTHER
1070
     0
1002
}
1002
{
1000
REACTOR
1002
}
  0
ARC
  5
1FE9
  8
SAPA_PROFIL
 62
     4
 10
67.082551888080161
 20
81.499999928458237
 30
0.0
 40
0.5
 50
0.0
 51
90.0
1001
GENIUS_GENOBJ-N-FIL_13
1002
{
1000
OWNER
1000
GEN
1002
}
1001
GENIUS_GENODEF_13
1002
{
1000
HIER
1070
     0
1002
}
1002
{
1000
MANEDIT
1070
     0
1002
}
1002
{
1000
NOSEL
1070
     0
1002
}
1002
{
1000
BEHIND
1070
     0
1002
}
1002
{
1000
OTHER
1070
     0
1002
}
1002
{
1000
REACTOR
1002
}
  0
LINE
  5
1FEA
  8
SAPA_PROFIL
 62
     4
 10
67.582551888080161
 20
81.499999928458237
 30
0.0
 11
67.582551888080161
 21
81.299999928458419
 31
0.0
1001
GENIUS_GENOBJ-N-FIL_13
1002
{
1000
OWNER
1000
GEN
1002
}
1001
GENIUS_GENODEF_13
1002
{
1000
HIER
1070
     0
1002
}
1002
{
1000
MANEDIT
1070
     0
1002
}
1002
{
1000
NOSEL
1070
     0
1002
}
1002
{
1000
BEHIND
1070
     0
1002
}
1002
{
1000
OTHER
1070
     0
1002
}
1002
{
1000
REACTOR
1002
}
  0
ARC
  5
1FEB
  8
SAPA_PROFIL
 62
     4
 10
67.282551888079524
 20
81.299999928458874
 30
0.0
 40
0.3000000000006366
 50
269.99999999991309
 51
359.99999999991309
1001
GENIUS_GENOBJ-N-FIL_13
1002
{
1000
OWNER
1000
GEN
1002
}
1001
GENIUS_GENODEF_13
1002
{
1000
HIER
1070
     0
1002
}
1002
{
1000
MANEDIT
1070
     0
1002
}
1002
{
1000
NOSEL
1070
     0
1002
}
1002
{
1000
BEHIND
1070
     0
1002
}
1002
{
1000
OTHER
1070
     0
1002
}
1002
{
1000
REACTOR
1002
}
  0
LINE
  5
1FEC
  8
SAPA_PROFIL
 62
     4
 10
67.282551888079055
 20
80.999999928458223
 30
0.0
 11
66.632551888079433
 21
80.999999928458223
 31
0.0
1001
GENIUS_GENOBJ-N-FIL_13
1002
{
1000
OWNER
1000
GEN
1002
}
1001
GENIUS_GENODEF_13
1002
{
1000
HIER
1070
     0
1002
}
1002
{
1000
MANEDIT
1070
     0
1002
}
1002
{
1000
NOSEL
1070
     0
1002
}
1002
{
1000
BEHIND
1070
     0
1002
}
1002
{
1000
OTHER
1070
     0
1002
}
1002
{
1000
REACTOR
1002
}
  0
ARC
  5
1FED
  8
SAPA_PROFIL
 62
     4
 10
66.632551888080343
 20
80.699999928458055
 30
0.0
 40
0.3000000000001819
 50
90.000000000173699
 51
180.00000000017371
1001
GENIUS_GENOBJ-N-FIL_13
1002
{
1000
OWNER
1000
GEN
1002
}
1001
GENIUS_GENODEF_13
1002
{
1000
HIER
1070
     0
1002
}
1002
{
1000
MANEDIT
1070
     0
1002
}
1002
{
1000
NOSEL
1070
     0
1002
}
1002
{
1000
BEHIND
1070
     0
1002
}
1002
{
1000
OTHER
1070
     0
1002
}
1002
{
1000
REACTOR
1002
}
  0
LINE
  5
1FEE
  8
SAPA_PROFIL
 62
     4
 10
66.332551888080161
 20
80.699999928457146
 30
0.0
 11
66.332551888080161
 21
79.799999928461133
 31
0.0
1001
GENIUS_GENOBJ-N-FIL_13
1002
{
1000
OWNER
1000
GEN
1002
}
1001
GENIUS_GENODEF_13
1002
{
1000
HIER
1070
     0
1002
}
1002
{
1000
MANEDIT
1070
     0
1002
}
1002
{
1000
NOSEL
1070
     0
1002
}
1002
{
1000
BEHIND
1070
     0
1002
}
1002
{
1000
OTHER
1070
     0
1002
}
1002
{
1000
REACTOR
1002
}
  0
ARC
  5
1FEF
  8
SAPA_PROFIL
 62
     4
 10
66.832551888080161
 20
79.799999928461133
 30
0.0
 40
0.5
 50
180.0
 51
270.0
1001
GENIUS_GENOBJ-N-FIL_13
1002
{
1000
OWNER
1000
GEN
1002
}
1001
GENIUS_GENODEF_13
1002
{
1000
HIER
1070
     0
1002
}
1002
{
1000
MANEDIT
1070
     0
1002
}
1002
{
1000
NOSEL
1070
     0
1002
}
1002
{
1000
BEHIND
1070
     0
1002
}
1002
{
1000
OTHER
1070
     0
1002
}
1002
{
1000
REACTOR
1002
}
  0
LINE
  5
1FF0
  8
SAPA_PROFIL
 62
     4
 10
66.832551888080161
 20
79.299999928461148
 30
0.0
 11
72.832551888080161
 21
79.299999928461148
 31
0.0
1001
GENIUS_GENOBJ-N-FIL_13
1002
{
1000
OWNER
1000
GEN
1002
}
1001
GENIUS_GENODEF_13
1002
{
1000
HIER
1070
     0
1002
}
1002
{
1000
MANEDIT
1070
     0
1002
}
1002
{
1000
NOSEL
1070
     0
1002
}
1002
{
1000
BEHIND
1070
     0
1002
}
1002
{
1000
OTHER
1070
     0
1002
}
1002
{
1000
REACTOR
1002
}
  0
ARC
  5
1FF1
  8
SAPA_PROFIL
 62
     4
 10
72.832551888080161
 20
79.799999928461133
 30
0.0
 40
0.5
 50
270.0
 51
0.0
1001
GENIUS_GENOBJ-N-FIL_13
1002
{
1000
OWNER
1000
GEN
1002
}
1001
GENIUS_GENODEF_13
1002
{
1000
HIER
1070
     0
1002
}
1002
{
1000
MANEDIT
1070
     0
1002
}
1002
{
1000
NOSEL
1070
     0
1002
}
1002
{
1000
BEHIND
1070
     0
1002
}
1002
{
1000
OTHER
1070
     0
1002
}
1002
{
1000
REACTOR
1002
}
  0
LINE
  5
1FF2
  8
SAPA_PROFIL
 62
     4
 10
73.332551888080161
 20
79.799999928461133
 30
0.0
 11
73.332551888080161
 21
80.699999928457146
 31
0.0
1001
GENIUS_GENOBJ-N-FIL_13
1002
{
1000
OWNER
1000
GEN
1002
}
1001
GENIUS_GENODEF_13
1002
{
1000
HIER
1070
     0
1002
}
1002
{
1000
MANEDIT
1070
     0
1002
}
1002
{
1000
NOSEL
1070
     0
1002
}
1002
{
1000
BEHIND
1070
     0
1002
}
1002
{
1000
OTHER
1070
     0
1002
}
1002
{
1000
REACTOR
1002
}
  0
ARC
  5
1FF3
  8
SAPA_PROFIL
 62
     4
 10
73.03255188807907
 20
80.699999928457146
 30
0.0
 40
0.3000000000010914
 50
0.0
 51
90.0
1001
GENIUS_GENOBJ-N-FIL_13
1002
{
1000
OWNER
1000
GEN
1002
}
1001
GENIUS_GENODEF_13
1002
{
1000
HIER
1070
     0
1002
}
1002
{
1000
MANEDIT
1070
     0
1002
}
1002
{
1000
NOSEL
1070
     0
1002
}
1002
{
1000
BEHIND
1070
     0
1002
}
1002
{
1000
OTHER
1070
     0
1002
}
1002
{
1000
REACTOR
1002
}
  0
LINE
  5
1FF4
  8
SAPA_PROFIL
 62
     4
 10
73.03255188807907
 20
80.999999928458223
 30
0.0
 11
72.382551888079433
 21
80.999999928458223
 31
0.0
1001
GENIUS_GENOBJ-N-FIL_13
1002
{
1000
OWNER
1000
GEN
1002
}
1001
GENIUS_GENODEF_13
1002
{
1000
HIER
1070
     0
1002
}
1002
{
1000
MANEDIT
1070
     0
1002
}
1002
{
1000
NOSEL
1070
     0
1002
}
1002
{
1000
BEHIND
1070
     0
1002
}
1002
{
1000
OTHER
1070
     0
1002
}
1002
{
1000
REACTOR
1002
}
  0
ARC
  5
1FF5
  8
SAPA_PROFIL
 62
     4
 10
72.382551888079888
 20
81.299999928457964
 30
0.0
 40
0.2999999999997271
 50
179.99999999991309
 51
269.99999999991309
1001
GENIUS_GENOBJ-N-FIL_13
1002
{
1000
OWNER
1000
GEN
1002
}
1001
GENIUS_GENODEF_13
1002
{
1000
HIER
1070
     0
1002
}
1002
{
1000
MANEDIT
1070
     0
1002
}
1002
{
1000
NOSEL
1070
     0
1002
}
1002
{
1000
BEHIND
1070
     0
1002
}
1002
{
1000
OTHER
1070
     0
1002
}
1002
{
1000
REACTOR
1002
}
  0
LINE
  5
1FF6
  8
SAPA_PROFIL
 62
     4
 10
72.082551888080161
 20
81.299999928458419
 30
0.0
 11
72.082551888080161
 21
81.499999928458237
 31
0.0
1001
GENIUS_GENOBJ-N-FIL_13
1002
{
1000
OWNER
1000
GEN
1002
}
1001
GENIUS_GENODEF_13
1002
{
1000
HIER
1070
     0
1002
}
1002
{
1000
MANEDIT
1070
     0
1002
}
1002
{
1000
NOSEL
1070
     0
1002
}
1002
{
1000
BEHIND
1070
     0
1002
}
1002
{
1000
OTHER
1070
     0
1002
}
1002
{
1000
REACTOR
1002
}
  0
ARC
  5
1FF7
  8
SAPA_PROFIL
 62
     4
 10
72.582551888080161
 20
81.499999928458237
 30
0.0
 40
0.5
 50
90.0
 51
180.0
1001
GENIUS_GENOBJ-N-FIL_13
1002
{
1000
OWNER
1000
GEN
1002
}
1001
GENIUS_GENODEF_13
1002
{
1000
HIER
1070
     0
1002
}
1002
{
1000
MANEDIT
1070
     0
1002
}
1002
{
1000
NOSEL
1070
     0
1002
}
1002
{
1000
BEHIND
1070
     0
1002
}
1002
{
1000
OTHER
1070
     0
1002
}
1002
{
1000
REACTOR
1002
}
  0
LINE
  5
1FF8
  8
SAPA_PROFIL
 62
     4
 10
72.582551888080161
 20
81.999999928458223
 30
0.0
 11
74.332551888080161
 21
81.999999928457314
 31
0.0
1001
GENIUS_GENOBJ-N-FIL_13
1002
{
1000
OWNER
1000
GEN
1002
}
1001
GENIUS_GENODEF_13
1002
{
1000
HIER
1070
     0
1002
}
1002
{
1000
MANEDIT
1070
     0
1002
}
1002
{
1000
NOSEL
1070
     0
1002
}
1002
{
1000
BEHIND
1070
     0
1002
}
1002
{
1000
OTHER
1070
     0
1002
}
1002
{
1000
REACTOR
1002
}
  0
ARC
  5
1FF9
  8
SAPA_PROFIL
 62
     4
 10
74.332551887912913
 20
81.499999928290094
 30
0.0
 40
0.5000000001672335
 50
359.99999998091459
 51
89.999999980836478
1001
GENIUS_GENOBJ-N-FIL_13
1002
{
1000
OWNER
1000
GEN
1002
}
1001
GENIUS_GENODEF_13
1002
{
1000
HIER
1070
     0
1002
}
1002
{
1000
MANEDIT
1070
     0
1002
}
1002
{
1000
NOSEL
1070
     0
1002
}
1002
{
1000
BEHIND
1070
     0
1002
}
1002
{
1000
OTHER
1070
     0
1002
}
1002
{
1000
REACTOR
1002
}
  0
LINE
  5
1FFA
  8
SAPA_PROFIL
 62
     4
 10
74.832551888080161
 20
81.499999928123543
 30
0.0
 11
74.832551888080161
 21
68.499999928116267
 31
0.0
1001
GENIUS_GENOBJ-N-FIL_13
1002
{
1000
OWNER
1000
GEN
1002
}
1001
GENIUS_GENODEF_13
1002
{
1000
HIER
1070
     0
1002
}
1002
{
1000
MANEDIT
1070
     0
1002
}
1002
{
1000
NOSEL
1070
     0
1002
}
1002
{
1000
BEHIND
1070
     0
1002
}
1002
{
1000
OTHER
1070
     0
1002
}
1002
{
1000
REACTOR
1002
}
  0
ARC
  5
1FFB
  8
SAPA_PROFIL
 62
     4
 10
74.332551887942941
 20
68.499999927977001
 30
0.0
 40
0.5000000001372201
 50
270.0000000159327
 51
0.0000000159587512
1001
GENIUS_GENOBJ-N-FIL_13
1002
{
1000
OWNER
1000
GEN
1002
}
1001
GENIUS_GENODEF_13
1002
{
1000
HIER
1070
     0
1002
}
1002
{
1000
MANEDIT
1070
     0
1002
}
1002
{
1000
NOSEL
1070
     0
1002
}
1002
{
1000
BEHIND
1070
     0
1002
}
1002
{
1000
OTHER
1070
     0
1002
}
1002
{
1000
REACTOR
1002
}
  0
LINE
  5
1FFC
  8
SAPA_PROFIL
 62
     4
 10
74.33255188808198
 20
67.999999927839781
 30
0.0
 11
72.58255188808198
 21
67.999999927839781
 31
0.0
1001
GENIUS_GENOBJ-N-FIL_13
1002
{
1000
OWNER
1000
GEN
1002
}
1001
GENIUS_GENODEF_13
1002
{
1000
HIER
1070
     0
1002
}
1002
{
1000
MANEDIT
1070
     0
1002
}
1002
{
1000
NOSEL
1070
     0
1002
}
1002
{
1000
BEHIND
1070
     0
1002
}
1002
{
1000
OTHER
1070
     0
1002
}
1002
{
1000
REACTOR
1002
}
  0
ARC
  5
1FFD
  8
SAPA_PROFIL
 62
     4
 10
72.58255188808198
 20
68.499999927839781
 30
0.0
 40
0.5
 50
180.0
 51
270.0
1001
GENIUS_GENOBJ-N-FIL_13
1002
{
1000
OWNER
1000
GEN
1002
}
1001
GENIUS_GENODEF_13
1002
{
1000
HIER
1070
     0
1002
}
1002
{
1000
MANEDIT
1070
     0
1002
}
1002
{
1000
NOSEL
1070
     0
1002
}
1002
{
1000
BEHIND
1070
     0
1002
}
1002
{
1000
OTHER
1070
     0
1002
}
1002
{
1000
REACTOR
1002
}
  0
LINE
  5
1FFE
  8
SAPA_PROFIL
 62
     4
 10
72.08255188808198
 20
68.499999927839781
 30
0.0
 11
72.08255188808198
 21
68.699999927839585
 31
0.0
1001
GENIUS_GENOBJ-N-FIL_13
1002
{
1000
OWNER
1000
GEN
1002
}
1001
GENIUS_GENODEF_13
1002
{
1000
HIER
1070
     0
1002
}
1002
{
1000
MANEDIT
1070
     0
1002
}
1002
{
1000
NOSEL
1070
     0
1002
}
1002
{
1000
BEHIND
1070
     0
1002
}
1002
{
1000
OTHER
1070
     0
1002
}
1002
{
1000
REACTOR
1002
}
  0
ARC
  5
1FFF
  8
SAPA_PROFIL
 62
     4
 10
72.382551888081707
 20
68.699999927840054
 30
0.0
 40
0.2999999999997271
 50
90.000000000086857
 51
180.0000000000868
1001
GENIUS_GENOBJ-N-FIL_13
1002
{
1000
OWNER
1000
GEN
1002
}
1001
GENIUS_GENODEF_13
1002
{
1000
HIER
1070
     0
1002
}
1002
{
1000
MANEDIT
1070
     0
1002
}
1002
{
1000
NOSEL
1070
     0
1002
}
1002
{
1000
BEHIND
1070
     0
1002
}
1002
{
1000
OTHER
1070
     0
1002
}
1002
{
1000
REACTOR
1002
}
  0
LINE
  5
2000
  8
SAPA_PROFIL
 62
     4
 10
72.382551888081252
 20
68.999999927839781
 30
0.0
 11
73.032551888080889
 21
68.999999927839781
 31
0.0
1001
GENIUS_GENOBJ-N-FIL_13
1002
{
1000
OWNER
1000
GEN
1002
}
1001
GENIUS_GENODEF_13
1002
{
1000
HIER
1070
     0
1002
}
1002
{
1000
MANEDIT
1070
     0
1002
}
1002
{
1000
NOSEL
1070
     0
1002
}
1002
{
1000
BEHIND
1070
     0
1002
}
1002
{
1000
OTHER
1070
     0
1002
}
1002
{
1000
REACTOR
1002
}
  0
ARC
  5
2001
  8
SAPA_PROFIL
 62
     4
 10
73.032551888081784
 20
69.299999927839963
 30
0.0
 40
0.3000000000001819
 50
269.99999999982629
 51
359.99999999982629
1001
GENIUS_GENOBJ-N-FIL_13
1002
{
1000
OWNER
1000
GEN
1002
}
1001
GENIUS_GENODEF_13
1002
{
1000
HIER
1070
     0
1002
}
1002
{
1000
MANEDIT
1070
     0
1002
}
1002
{
1000
NOSEL
1070
     0
1002
}
1002
{
1000
BEHIND
1070
     0
1002
}
1002
{
1000
OTHER
1070
     0
1002
}
1002
{
1000
REACTOR
1002
}
  0
LINE
  5
2002
  8
SAPA_PROFIL
 62
     4
 10
73.33255188808198
 20
69.299999927839053
 30
0.0
 11
73.33255188808198
 21
70.19999992783687
 31
0.0
1001
GENIUS_GENOBJ-N-FIL_13
1002
{
1000
OWNER
1000
GEN
1002
}
1001
GENIUS_GENODEF_13
1002
{
1000
HIER
1070
     0
1002
}
1002
{
1000
MANEDIT
1070
     0
1002
}
1002
{
1000
NOSEL
1070
     0
1002
}
1002
{
1000
BEHIND
1070
     0
1002
}
1002
{
1000
OTHER
1070
     0
1002
}
1002
{
1000
REACTOR
1002
}
  0
ARC
  5
2003
  8
SAPA_PROFIL
 62
     4
 10
72.832551888081966
 20
70.19999992783687
 30
0.0
 40
0.5
 50
0.0
 51
90.0
1001
GENIUS_GENOBJ-N-FIL_13
1002
{
1000
OWNER
1000
GEN
1002
}
1001
GENIUS_GENODEF_13
1002
{
1000
HIER
1070
     0
1002
}
1002
{
1000
MANEDIT
1070
     0
1002
}
1002
{
1000
NOSEL
1070
     0
1002
}
1002
{
1000
BEHIND
1070
     0
1002
}
1002
{
1000
OTHER
1070
     0
1002
}
1002
{
1000
REACTOR
1002
}
  0
LINE
  5
2004
  8
SAPA_PROFIL
 62
     4
 10
72.832551888081966
 20
70.69999992783687
 30
0.0
 11
66.83255188808198
 21
70.69999992783687
 31
0.0
1001
GENIUS_GENOBJ-N-FIL_13
1002
{
1000
OWNER
1000
GEN
1002
}
1001
GENIUS_GENODEF_13
1002
{
1000
HIER
1070
     0
1002
}
1002
{
1000
MANEDIT
1070
     0
1002
}
1002
{
1000
NOSEL
1070
     0
1002
}
1002
{
1000
BEHIND
1070
     0
1002
}
1002
{
1000
OTHER
1070
     0
1002
}
1002
{
1000
REACTOR
1002
}
  0
ARC
  5
2005
  8
SAPA_PROFIL
 62
     4
 10
66.83255188808198
 20
70.19999992783687
 30
0.0
 40
0.5
 50
90.0
 51
180.0
1001
GENIUS_GENOBJ-N-FIL_13
1002
{
1000
OWNER
1000
GEN
1002
}
1001
GENIUS_GENODEF_13
1002
{
1000
HIER
1070
     0
1002
}
1002
{
1000
MANEDIT
1070
     0
1002
}
1002
{
1000
NOSEL
1070
     0
1002
}
1002
{
1000
BEHIND
1070
     0
1002
}
1002
{
1000
OTHER
1070
     0
1002
}
1002
{
1000
REACTOR
1002
}
  0
LINE
  5
2006
  8
SAPA_PROFIL
 62
     4
 10
66.33255188808198
 20
70.19999992783687
 30
0.0
 11
66.33255188808198
 21
69.299999927839053
 31
0.0
1001
GENIUS_GENOBJ-N-FIL_13
1002
{
1000
OWNER
1000
GEN
1002
}
1001
GENIUS_GENODEF_13
1002
{
1000
HIER
1070
     0
1002
}
1002
{
1000
MANEDIT
1070
     0
1002
}
1002
{
1000
NOSEL
1070
     0
1002
}
1002
{
1000
BEHIND
1070
     0
1002
}
1002
{
1000
OTHER
1070
     0
1002
}
1002
{
1000
REACTOR
1002
}
  0
ARC
  5
2007
  8
SAPA_PROFIL
 62
     4
 10
66.632551888081252
 20
69.299999927839053
 30
0.0
 40
0.2999999999992724
 50
180.0
 51
270.0
1001
GENIUS_GENOBJ-N-FIL_13
1002
{
1000
OWNER
1000
GEN
1002
}
1001
GENIUS_GENODEF_13
1002
{
1000
HIER
1070
     0
1002
}
1002
{
1000
MANEDIT
1070
     0
1002
}
1002
{
1000
NOSEL
1070
     0
1002
}
1002
{
1000
BEHIND
1070
     0
1002
}
1002
{
1000
OTHER
1070
     0
1002
}
1002
{
1000
REACTOR
1002
}
  0
LINE
  5
2008
  8
SAPA_PROFIL
 62
     4
 10
66.632551888081252
 20
68.999999927839781
 30
0.0
 11
67.282551888080889
 21
68.999999927839781
 31
0.0
1001
GENIUS_GENOBJ-N-FIL_13
1002
{
1000
OWNER
1000
GEN
1002
}
1001
GENIUS_GENODEF_13
1002
{
1000
HIER
1070
     0
1002
}
1002
{
1000
MANEDIT
1070
     0
1002
}
1002
{
1000
NOSEL
1070
     0
1002
}
1002
{
1000
BEHIND
1070
     0
1002
}
1002
{
1000
OTHER
1070
     0
1002
}
1002
{
1000
REACTOR
1002
}
  0
ARC
  5
2009
  8
SAPA_PROFIL
 62
     4
 10
67.282551888081343
 20
68.699999927839144
 30
0.0
 40
0.3000000000006366
 50
0.0000000000868503
 51
90.000000000086857
1001
GENIUS_GENOBJ-N-FIL_13
1002
{
1000
OWNER
1000
GEN
1002
}
1001
GENIUS_GENODEF_13
1002
{
1000
HIER
1070
     0
1002
}
1002
{
1000
MANEDIT
1070
     0
1002
}
1002
{
1000
NOSEL
1070
     0
1002
}
1002
{
1000
BEHIND
1070
     0
1002
}
1002
{
1000
OTHER
1070
     0
1002
}
1002
{
1000
REACTOR
1002
}
  0
LINE
  5
200A
  8
SAPA_PROFIL
 62
     4
 10
67.58255188808198
 20
68.699999927839585
 30
0.0
 11
67.58255188808198
 21
68.499999927839781
 31
0.0
1001
GENIUS_GENOBJ-N-FIL_13
1002
{
1000
OWNER
1000
GEN
1002
}
1001
GENIUS_GENODEF_13
1002
{
1000
HIER
1070
     0
1002
}
1002
{
1000
MANEDIT
1070
     0
1002
}
1002
{
1000
NOSEL
1070
     0
1002
}
1002
{
1000
BEHIND
1070
     0
1002
}
1002
{
1000
OTHER
1070
     0
1002
}
1002
{
1000
REACTOR
1002
}
  0
ARC
  5
200B
  8
SAPA_PROFIL
 62
     4
 10
67.08255188808198
 20
68.499999927839781
 30
0.0
 40
0.5
 50
270.0
 51
0.0
1001
GENIUS_GENOBJ-N-FIL_13
1002
{
1000
OWNER
1000
GEN
1002
}
1001
GENIUS_GENODEF_13
1002
{
1000
HIER
1070
     0
1002
}
1002
{
1000
MANEDIT
1070
     0
1002
}
1002
{
1000
NOSEL
1070
     0
1002
}
1002
{
1000
BEHIND
1070
     0
1002
}
1002
{
1000
OTHER
1070
     0
1002
}
1002
{
1000
REACTOR
1002
}
  0
LINE
  5
200C
  8
SAPA_PROFIL
 62
     4
 10
67.08255188808198
 20
67.999999927839781
 30
0.0
 11
64.082551888081966
 21
67.999999927839781
 31
0.0
1001
GENIUS_GENOBJ-N-FIL_13
1002
{
1000
OWNER
1000
GEN
1002
}
1001
GENIUS_GENODEF_13
1002
{
1000
HIER
1070
     0
1002
}
1002
{
1000
MANEDIT
1070
     0
1002
}
1002
{
1000
NOSEL
1070
     0
1002
}
1002
{
1000
BEHIND
1070
     0
1002
}
1002
{
1000
OTHER
1070
     0
1002
}
1002
{
1000
REACTOR
1002
}
  0
ARC
  5
200D
  8
SAPA_PROFIL
 62
     4
 10
64.082551888081966
 20
68.499999927839781
 30
0.0
 40
0.5
 50
180.0
 51
270.0
1001
GENIUS_GENOBJ-N-FIL_13
1002
{
1000
OWNER
1000
GEN
1002
}
1001
GENIUS_GENODEF_13
1002
{
1000
HIER
1070
     0
1002
}
1002
{
1000
MANEDIT
1070
     0
1002
}
1002
{
1000
NOSEL
1070
     0
1002
}
1002
{
1000
BEHIND
1070
     0
1002
}
1002
{
1000
OTHER
1070
     0
1002
}
1002
{
1000
REACTOR
1002
}
  0
LINE
  5
200E
  8
SAPA_PROFIL
 62
     4
 10
63.58255188808198
 20
68.499999927839781
 30
0.0
 11
63.582551888080161
 21
68.699999927832323
 31
0.0
1001
GENIUS_GENOBJ-N-FIL_13
1002
{
1000
OWNER
1000
GEN
1002
}
1001
GENIUS_GENODEF_13
1002
{
1000
HIER
1070
     0
1002
}
1002
{
1000
MANEDIT
1070
     0
1002
}
1002
{
1000
NOSEL
1070
     0
1002
}
1002
{
1000
BEHIND
1070
     0
1002
}
1002
{
1000
OTHER
1070
     0
1002
}
1002
{
1000
REACTOR
1002
}
  0
ARC
  5
200F
  8
SAPA_PROFIL
 62
     4
 10
63.882551888080002
 20
68.699999927834483
 30
0.0
 40
0.2999999999998408
 50
90.000000000455955
 51
180.00000000041251
1001
GENIUS_GENOBJ-N-FIL_13
1002
{
1000
OWNER
1000
GEN
1002
}
1001
GENIUS_GENODEF_13
1002
{
1000
HIER
1070
     0
1002
}
1002
{
1000
MANEDIT
1070
     0
1002
}
1002
{
1000
NOSEL
1070
     0
1002
}
1002
{
1000
BEHIND
1070
     0
1002
}
1002
{
1000
OTHER
1070
     0
1002
}
1002
{
1000
REACTOR
1002
}
  0
LINE
  5
2010
  8
SAPA_PROFIL
 62
     4
 10
63.882551888077607
 20
68.999999927834324
 30
0.0
 11
64.53255188807907
 21
68.999999927837052
 31
0.0
1001
GENIUS_GENOBJ-N-FIL_13
1002
{
1000
OWNER
1000
GEN
1002
}
1001
GENIUS_GENODEF_13
1002
{
1000
HIER
1070
     0
1002
}
1002
{
1000
MANEDIT
1070
     0
1002
}
1002
{
1000
NOSEL
1070
     0
1002
}
1002
{
1000
BEHIND
1070
     0
1002
}
1002
{
1000
OTHER
1070
     0
1002
}
1002
{
1000
REACTOR
1002
}
  0
ARC
  5
2011
  8
SAPA_PROFIL
 62
     4
 10
64.532551888077705
 20
69.299999927837689
 30
0.0
 40
0.3000000000006366
 50
270.00000000026063
 51
0.0000000000868503
1001
GENIUS_GENOBJ-N-FIL_13
1002
{
1000
OWNER
1000
GEN
1002
}
1001
GENIUS_GENODEF_13
1002
{
1000
HIER
1070
     0
1002
}
1002
{
1000
MANEDIT
1070
     0
1002
}
1002
{
1000
NOSEL
1070
     0
1002
}
1002
{
1000
BEHIND
1070
     0
1002
}
1002
{
1000
OTHER
1070
     0
1002
}
1002
{
1000
REACTOR
1002
}
  0
LINE
  5
2012
  8
SAPA_PROFIL
 62
     4
 10
64.832551888078342
 20
69.299999927838144
 30
0.0
 11
64.832551888078342
 21
70.19999992783687
 31
0.0
1001
GENIUS_GENOBJ-N-FIL_13
1002
{
1000
OWNER
1000
GEN
1002
}
1001
GENIUS_GENODEF_13
1002
{
1000
HIER
1070
     0
1002
}
1002
{
1000
MANEDIT
1070
     0
1002
}
1002
{
1000
NOSEL
1070
     0
1002
}
1002
{
1000
BEHIND
1070
     0
1002
}
1002
{
1000
OTHER
1070
     0
1002
}
1002
{
1000
REACTOR
1002
}
  0
ARC
  5
2013
  8
SAPA_PROFIL
 62
     4
 10
64.332551888078342
 20
70.19999992783687
 30
0.0
 40
0.5
 50
0.0
 51
90.0
1001
GENIUS_GENOBJ-N-FIL_13
1002
{
1000
OWNER
1000
GEN
1002
}
1001
GENIUS_GENODEF_13
1002
{
1000
HIER
1070
     0
1002
}
1002
{
1000
MANEDIT
1070
     0
1002
}
1002
{
1000
NOSEL
1070
     0
1002
}
1002
{
1000
BEHIND
1070
     0
1002
}
1002
{
1000
OTHER
1070
     0
1002
}
1002
{
1000
REACTOR
1002
}
  0
LINE
  5
2014
  8
SAPA_PROFIL
 62
     4
 10
64.332551888078342
 20
70.69999992783687
 30
0.0
 11
58.332551888076523
 21
70.699999927829595
 31
0.0
1001
GENIUS_GENOBJ-N-FIL_13
1002
{
1000
OWNER
1000
GEN
1002
}
1001
GENIUS_GENODEF_13
1002
{
1000
HIER
1070
     0
1002
}
1002
{
1000
MANEDIT
1070
     0
1002
}
1002
{
1000
NOSEL
1070
     0
1002
}
1002
{
1000
BEHIND
1070
     0
1002
}
1002
{
1000
OTHER
1070
     0
1002
}
1002
{
1000
REACTOR
1002
}
  0
ARC
  5
2015
  8
SAPA_PROFIL
 62
     4
 10
58.332551888076523
 20
70.199999927829595
 30
0.0
 40
0.5
 50
90.0
 51
180.0
1001
GENIUS_GENOBJ-N-FIL_13
1002
{
1000
OWNER
1000
GEN
1002
}
1001
GENIUS_GENODEF_13
1002
{
1000
HIER
1070
     0
1002
}
1002
{
1000
MANEDIT
1070
     0
1002
}
1002
{
1000
NOSEL
1070
     0
1002
}
1002
{
1000
BEHIND
1070
     0
1002
}
1002
{
1000
OTHER
1070
     0
1002
}
1002
{
1000
REACTOR
1002
}
  0
LINE
  5
2016
  8
SAPA_PROFIL
 62
     4
 10
57.832551888076523
 20
70.199999927829595
 30
0.0
 11
57.832551888076523
 21
69.299999927832687
 31
0.0
1001
GENIUS_GENOBJ-N-FIL_13
1002
{
1000
OWNER
1000
GEN
1002
}
1001
GENIUS_GENODEF_13
1002
{
1000
HIER
1070
     0
1002
}
1002
{
1000
MANEDIT
1070
     0
1002
}
1002
{
1000
NOSEL
1070
     0
1002
}
1002
{
1000
BEHIND
1070
     0
1002
}
1002
{
1000
OTHER
1070
     0
1002
}
1002
{
1000
REACTOR
1002
}
  0
ARC
  5
2017
  8
SAPA_PROFIL
 62
     4
 10
58.13255188807625
 20
69.299999927832232
 30
0.0
 40
0.2999999999997271
 50
179.99999999991309
 51
269.99999999991309
1001
GENIUS_GENOBJ-N-FIL_13
1002
{
1000
OWNER
1000
GEN
1002
}
1001
GENIUS_GENODEF_13
1002
{
1000
HIER
1070
     0
1002
}
1002
{
1000
MANEDIT
1070
     0
1002
}
1002
{
1000
NOSEL
1070
     0
1002
}
1002
{
1000
BEHIND
1070
     0
1002
}
1002
{
1000
OTHER
1070
     0
1002
}
1002
{
1000
REACTOR
1002
}
  0
LINE
  5
2018
  8
SAPA_PROFIL
 62
     4
 10
58.132551888075803
 20
68.999999927832505
 30
0.0
 11
58.78255188807907
 21
68.999999927832505
 31
0.0
1001
GENIUS_GENOBJ-N-FIL_13
1002
{
1000
OWNER
1000
GEN
1002
}
1001
GENIUS_GENODEF_13
1002
{
1000
HIER
1070
     0
1002
}
1002
{
1000
MANEDIT
1070
     0
1002
}
1002
{
1000
NOSEL
1070
     0
1002
}
1002
{
1000
BEHIND
1070
     0
1002
}
1002
{
1000
OTHER
1070
     0
1002
}
1002
{
1000
REACTOR
1002
}
  0
ARC
  5
2019
  8
SAPA_PROFIL
 62
     4
 10
58.782551888078622
 20
68.699999927832764
 30
0.0
 40
0.2999999999997271
 50
359.99999999991309
 51
89.999999999913143
1001
GENIUS_GENOBJ-N-FIL_13
1002
{
1000
OWNER
1000
GEN
1002
}
1001
GENIUS_GENODEF_13
1002
{
1000
HIER
1070
     0
1002
}
1002
{
1000
MANEDIT
1070
     0
1002
}
1002
{
1000
NOSEL
1070
     0
1002
}
1002
{
1000
BEHIND
1070
     0
1002
}
1002
{
1000
OTHER
1070
     0
1002
}
1002
{
1000
REACTOR
1002
}
  0
LINE
  5
201A
  8
SAPA_PROFIL
 62
     4
 10
59.082551888078342
 20
68.699999927832323
 30
0.0
 11
59.082551888078342
 21
68.499999927832505
 31
0.0
1001
GENIUS_GENOBJ-N-FIL_13
1002
{
1000
OWNER
1000
GEN
1002
}
1001
GENIUS_GENODEF_13
1002
{
1000
HIER
1070
     0
1002
}
1002
{
1000
MANEDIT
1070
     0
1002
}
1002
{
1000
NOSEL
1070
     0
1002
}
1002
{
1000
BEHIND
1070
     0
1002
}
1002
{
1000
OTHER
1070
     0
1002
}
1002
{
1000
REACTOR
1002
}
  0
ARC
  5
201B
  8
SAPA_PROFIL
 62
     4
 10
58.582551888078342
 20
68.499999927832505
 30
0.0
 40
0.5
 50
270.0
 51
0.0
1001
GENIUS_GENOBJ-N-FIL_13
1002
{
1000
OWNER
1000
GEN
1002
}
1001
GENIUS_GENODEF_13
1002
{
1000
HIER
1070
     0
1002
}
1002
{
1000
MANEDIT
1070
     0
1002
}
1002
{
1000
NOSEL
1070
     0
1002
}
1002
{
1000
BEHIND
1070
     0
1002
}
1002
{
1000
OTHER
1070
     0
1002
}
1002
{
1000
REACTOR
1002
}
  0
LINE
  5
201C
  8
SAPA_PROFIL
 62
     4
 10
58.582551888078342
 20
67.999999927832505
 30
0.0
 11
32.784816861155377
 21
67.999999927914359
 31
0.0
1001
GENIUS_GENOBJ-N-FIL_13
1002
{
1000
OWNER
1000
GEN
1002
}
1001
GENIUS_GENODEF_13
1002
{
1000
HIER
1070
     0
1002
}
1002
{
1000
MANEDIT
1070
     0
1002
}
1002
{
1000
NOSEL
1070
     0
1002
}
1002
{
1000
BEHIND
1070
     0
1002
}
1002
{
1000
OTHER
1070
     0
1002
}
1002
{
1000
REACTOR
1002
}
  0
ARC
  5
201D
  8
SAPA_PROFIL
 62
     4
 10
32.784816861151057
 20
66.799999927914314
 30
0.0
 40
1.200000000000045
 50
89.999999999793715
 51
179.99999999998909
1001
GENIUS_GENOBJ-N-FIL_13
1002
{
1000
OWNER
1000
GEN
1002
}
1001
GENIUS_GENODEF_13
1002
{
1000
HIER
1070
     0
1002
}
1002
{
1000
MANEDIT
1070
     0
1002
}
1002
{
1000
NOSEL
1070
     0
1002
}
1002
{
1000
BEHIND
1070
     0
1002
}
1002
{
1000
OTHER
1070
     0
1002
}
1002
{
1000
REACTOR
1002
}
  0
LINE
  5
201E
  8
SAPA_PROFIL
 62
     4
 10
31.584816861151008
 20
66.799999927914541
 30
0.0
 11
31.584816861151008
 21
64.071518577834453
 31
0.0
1001
GENIUS_GENOBJ-N-FIL_13
1002
{
1000
OWNER
1000
GEN
1002
}
1001
GENIUS_GENODEF_13
1002
{
1000
HIER
1070
     0
1002
}
1002
{
1000
MANEDIT
1070
     0
1002
}
1002
{
1000
NOSEL
1070
     0
1002
}
1002
{
1000
BEHIND
1070
     0
1002
}
1002
{
1000
OTHER
1070
     0
1002
}
1002
{
1000
REACTOR
1002
}
  0
LINE
  5
201F
  8
SAPA_PROFIL
 62
     4
 10
56.548290417561482
 20
71.699999995879807
 30
0.0
 11
56.548290417556011
 21
79.199999996438237
 31
0.0
  0
ARC
  5
2020
  8
SAPA_PROFIL
 62
     4
 10
55.548290417556018
 20
79.199999996438237
 30
0.0
 40
1.0
 50
0.0
 51
90.0
  0
LINE
  5
2021
  8
SAPA_PROFIL
 62
     4
 10
55.548290417556018
 20
80.199999996438237
 30
0.0
 11
32.40055539063269
 21
80.199999996453684
 31
0.0
  0
ARC
  5
2022
  8
SAPA_PROFIL
 62
     4
 10
32.400555390633151
 20
79.399999996453971
 30
0.0
 40
0.7999999999997272
 50
90.000000000032571
 51
180.00000000003249
  0
LINE
  5
2023
  8
SAPA_PROFIL
 62
     4
 10
31.600555390633421
 20
79.399999996453516
 30
0.0
 11
31.600555390633421
 21
70.599999995934922
 31
0.0
  0
ARC
  5
2024
  8
SAPA_PROFIL
 62
     4
 10
32.400555390633599
 20
70.599999995934922
 30
0.0
 40
0.8000000000001818
 50
180.0
 51
270.0000000000652
  0
LINE
  5
2025
  8
SAPA_PROFIL
 62
     4
 10
32.400555390634509
 20
69.799999995934741
 30
0.0
 11
55.548290417561468
 21
69.799999995958387
 31
0.0
  0
ARC
  5
2026
  8
SAPA_PROFIL
 62
     4
 10
55.548290417559997
 20
70.799999995958046
 30
0.0
 40
0.9999999999996589
 50
270.0000000000847
 51
359.99999999996749
  0
LINE
  5
2027
  8
SAPA_PROFIL
 62
     4
 10
56.548290417559663
 20
70.799999995957478
 30
0.0
 11
56.548290417561482
 21
71.699999995879807
 31
0.0
  0
LINE
  5
2028
  8
SAPA_PROFIL
 10
17.300555349941529
 20
114.999999928134
 30
0.0
 11
29.50055534994226
 21
114.99999992813351
 31
0.0
  0
LINE
  5
2029
  8
SAPA_PROFIL
 10
29.50055534994226
 20
114.99999992813351
 30
0.0
 11
29.50055534994226
 21
146.999999928134
 31
0.0
  0
LINE
  5
202A
  8
SAPA_PROFIL
 10
29.50055534994226
 20
146.999999928134
 30
0.0
 11
17.300555349941529
 21
146.999999928134
 31
0.0
  0
LINE
  5
202B
  8
SAPA_PROFIL
 10
17.300555349941529
 20
146.999999928134
 30
0.0
 11
17.300555349941529
 21
114.999999928134
 31
0.0
  0
ARC
  5
202C
  8
SAPA_PROFIL
 10
27.9005553499419
 20
111.99999992813351
 30
0.0
 40
1.0
 50
0.0
 51
90.0
  0
LINE
  5
202D
  8
SAPA_PROFIL
 10
27.9005553499419
 20
112.99999992813351
 30
0.0
 11
18.900555349941889
 21
112.99999992813351
 31
0.0
  0
ARC
  5
202E
  8
SAPA_PROFIL
 10
18.900555349941889
 20
111.99999992813351
 30
0.0
 40
1.0
 50
90.0
 51
180.0
  0
LINE
  5
202F
  8
SAPA_PROFIL
 10
17.9005553499419
 20
111.99999992813351
 30
0.0
 11
17.9005553499419
 21
109.49999989273191
 31
0.0
  0
LINE
  5
2030
  8
SAPA_PROFIL
 10
17.9005553499419
 20
109.49999989273191
 30
0.0
 11
17.300555349941529
 21
109.49999989273191
 31
0.0
  0
LINE
  5
2031
  8
SAPA_PROFIL
 10
17.300555349941529
 20
109.49999989273191
 30
0.0
 11
17.300555349941529
 21
91.999999892731935
 31
0.0
  0
LINE
  5
2032
  8
SAPA_PROFIL
 10
17.300555349941529
 20
91.999999892731935
 30
0.0
 11
29.50055534994226
 21
91.999999892731935
 31
0.0
  0
LINE
  5
2033
  8
SAPA_PROFIL
 10
29.50055534994226
 20
91.999999892731935
 30
0.0
 11
29.50055534994226
 21
109.49999989273191
 31
0.0
  0
LINE
  5
2034
  8
SAPA_PROFIL
 10
29.50055534994226
 20
109.49999989273191
 30
0.0
 11
28.9005553499419
 21
109.49999989273191
 31
0.0
  0
LINE
  5
2035
  8
SAPA_PROFIL
 10
28.9005553499419
 20
109.49999989273191
 30
0.0
 11
28.9005553499419
 21
111.99999992813351
 31
0.0
  0
ARC
  5
2036
  8
SAPA_PROFIL
 10
15.00055534994403
 20
88.999999928119792
 30
0.0
 40
0.2000000000001592
 50
270.00000000053433
 51
90.000000000507868
  0
LINE
  5
2037
  8
SAPA_PROFIL
 10
15.0005553499459
 20
88.799999928119632
 30
0.0
 11
15.000531349945049
 21
85.214189490492572
 31
0.0
  0
ARC
  5
2038
  8
SAPA_PROFIL
 10
16.000531349945199
 20
85.214189490492686
 30
0.0
 40
1.0000000000001521
 50
180.0000000000073
 51
314.99999999998857
  0
LINE
  5
2039
  8
SAPA_PROFIL
 10
16.707638131131709
 20
84.507082709305905
 30
0.0
 11
18.012687384300989
 21
85.812131962474936
 31
0.0
  0
ARC
  5
203A
  8
SAPA_PROFIL
 10
17.800555349944752
 20
86.0242639968302
 30
0.0
 40
0.2999999999996879
 50
315.0000000001333
 51
0.0000000001519881
  0
LINE
  5
203B
  8
SAPA_PROFIL
 10
18.10055534994444
 20
86.024263996830996
 30
0.0
 11
18.100555349945349
 21
86.610769443578192
 31
0.0
  0
ARC
  5
203C
  8
SAPA_PROFIL
 10
17.800555349945402
 20
86.610769443575762
 30
0.0
 40
0.2999999999999474
 50
0.0000000004641065
 51
30.000000000461309
  0
LINE
  5
203D
  8
SAPA_PROFIL
 10
18.060362971079481
 20
86.760769443577828
 30
0.0
 11
17.200555349944811
 21
88.249999928118996
 31
0.0
  0
LINE
  5
203E
  8
SAPA_PROFIL
 10
17.200555349944811
 20
88.249999928118996
 30
0.0
 11
17.200543349945288
 21
88.699999928118814
 31
0.0
  0
ARC
  5
203F
  8
SAPA_PROFIL
 10
17.50054334994547
 20
88.699999928118814
 30
0.0
 40
0.3000000000001819
 50
90.0
 51
180.0
  0
LINE
  5
2040
  8
SAPA_PROFIL
 10
17.50054334994547
 20
88.999999928118996
 30
0.0
 11
21.10055534994444
 21
88.999999928118754
 31
0.0
  0
ARC
  5
2041
  8
SAPA_PROFIL
 10
21.100555349945012
 20
88.699999928118245
 30
0.0
 40
0.300000000000523
 50
0.0000000001085629
 51
90.000000000108557
  0
LINE
  5
2042
  8
SAPA_PROFIL
 10
21.400555349945531
 20
88.699999928118814
 30
0.0
 11
21.400555349945531
 21
88.249999928118996
 31
0.0
  0
LINE
  5
2043
  8
SAPA_PROFIL
 10
21.400555349945531
 20
88.249999928118996
 30
0.0
 11
20.540730612376141
 21
86.760739797044835
 31
0.0
  0
ARC
  5
2044
  8
SAPA_PROFIL
 10
20.800538233511809
 20
86.610739797045682
 30
0.0
 40
0.2999999999998737
 50
150.0000000001728
 51
179.99635313271841
  0
LINE
  5
2045
  8
SAPA_PROFIL
 10
20.500538234119631
 20
86.610758891998103
 30
0.0
 11
20.50053118432789
 21
86.499999928118996
 31
0.0
  0
LINE
  5
2046
  8
SAPA_PROFIL
 10
20.50053118432789
 20
86.499999928118996
 30
0.0
 11
22.12224318643257
 21
86.49999992811945
 31
0.0
  0
ARC
  5
2047
  8
SAPA_PROFIL
 10
22.12224318643241
 20
87.499999928119095
 30
0.0
 40
0.9999999999996447
 50
270.00000000000898
 51
330.00000000001182
  0
LINE
  5
2048
  8
SAPA_PROFIL
 10
22.988268590216649
 20
86.999999928119436
 30
0.0
 11
23.854293994000731
 21
88.499999928118996
 31
0.0
  0
ARC
  5
2049
  8
SAPA_PROFIL
 10
24.720319397784959
 20
87.999999928119351
 30
0.0
 40
0.999999999999646
 50
90.000000000008953
 51
150.0000000000118
  0
LINE
  5
204A
  8
SAPA_PROFIL
 10
24.720319397784809
 20
88.999999928118996
 30
0.0
 11
25.280791302101541
 21
88.999999928118996
 31
0.0
  0
ARC
  5
204B
  8
SAPA_PROFIL
 10
25.280791302101381
 20
87.999999928119351
 30
0.0
 40
0.9999999999996447
 50
29.999999999988201
 51
89.999999999991033
  0
LINE
  5
204C
  8
SAPA_PROFIL
 10
26.14681670588562
 20
88.499999928118996
 30
0.0
 11
27.012842109670601
 21
86.999999928119664
 31
0.0
  0
ARC
  5
204D
  8
SAPA_PROFIL
 10
27.878867513455909
 20
87.49999992811982
 30
0.0
 40
1.000000000000826
 50
209.99999999998209
 51
269.99999999998141
  0
LINE
  5
204E
  8
SAPA_PROFIL
 10
27.878867513455589
 20
86.499999928118996
 30
0.0
 11
29.50057951555846
 21
86.499999928118996
 31
0.0
  0
LINE
  5
204F
  8
SAPA_PROFIL
 10
29.50057951555846
 20
86.499999928118996
 30
0.0
 11
29.500572465767618
 21
86.610758891998103
 31
0.0
  0
ARC
  5
2050
  8
SAPA_PROFIL
 10
29.200572466376109
 20
86.610739797045625
 30
0.0
 40
0.2999999999991979
 50
0.0036468672924219
 51
29.999999999863729
  0
LINE
  5
2051
  8
SAPA_PROFIL
 10
29.460380087511108
 20
86.760739797044593
 30
0.0
 11
28.600555349942631
 21
88.249999928118996
 31
0.0
  0
LINE
  5
2052
  8
SAPA_PROFIL
 10
28.600555349942631
 20
88.249999928118996
 30
0.0
 11
28.600555349941722
 21
88.699999928118814
 31
0.0
  0
ARC
  5
2053
  8
SAPA_PROFIL
 10
28.9005553499419
 20
88.699999928118814
 30
0.0
 40
0.3000000000001819
 50
90.0
 51
180.0
  0
LINE
  5
2054
  8
SAPA_PROFIL
 10
28.9005553499419
 20
88.999999928118996
 30
0.0
 11
32.500567349940873
 21
88.999999928118754
 31
0.0
  0
ARC
  5
2055
  8
SAPA_PROFIL
 10
32.500567349941441
 20
88.699999928118245
 30
0.0
 40
0.300000000000523
 50
0.0000000001085629
 51
90.000000000108557
  0
LINE
  5
2056
  8
SAPA_PROFIL
 10
32.800567349941957
 20
88.699999928118814
 30
0.0
 11
32.800555349941533
 21
88.249999928118996
 31
0.0
  0
LINE
  5
2057
  8
SAPA_PROFIL
 10
32.800555349941533
 20
88.249999928118996
 30
0.0
 11
31.940747728805949
 21
86.760769443578056
 31
0.0
  0
ARC
  5
2058
  8
SAPA_PROFIL
 10
32.200555349941361
 20
86.610769443579287
 30
0.0
 40
0.2999999999994644
 50
150.00000000020921
 51
180.00000000020631
  0
LINE
  5
2059
  8
SAPA_PROFIL
 10
31.9005553499419
 20
86.610769443578192
 30
0.0
 11
31.900555349940991
 21
86.024263996830996
 31
0.0
  0
ARC
  5
205A
  8
SAPA_PROFIL
 10
32.200555349941411
 20
86.024263996831195
 30
0.0
 40
0.3000000000004235
 50
180.00000000003789
 51
225.00000000005571
  0
LINE
  5
205B
  8
SAPA_PROFIL
 10
31.988423315585351
 20
85.812131962474723
 30
0.0
 11
33.293472568754623
 21
84.507082709305664
 31
0.0
  0
ARC
  5
205C
  8
SAPA_PROFIL
 10
34.000579349941091
 20
85.214189490492586
 30
0.0
 40
1.0000000000001981
 50
225.00000000001779
 51
359.9999999999992
  0
LINE
  5
205D
  8
SAPA_PROFIL
 10
35.00057934994129
 20
85.214189490492572
 30
0.0
 11
35.00055534994226
 21
88.799999928119874
 31
0.0
  0
ARC
  5
205E
  8
SAPA_PROFIL
 10
35.00055534994226
 20
88.999999928119337
 30
0.0
 40
0.199999999999477
 50
90.0
 51
270.0
  0
LINE
  5
205F
  8
SAPA_PROFIL
 10
35.00055534994226
 20
89.199999928118814
 30
0.0
 11
35.00055534994226
 21
90.499999957668933
 31
0.0
  0
ARC
  5
2060
  8
SAPA_PROFIL
 10
34.000555350086188
 20
90.499999957524565
 30
0.0
 40
0.9999999998560724
 50
0.0000000082724955
 51
90.000000008454876
  0
LINE
  5
2061
  8
SAPA_PROFIL
 10
34.000555349938629
 20
91.499999957380609
 30
0.0
 11
33.00055534994226
 21
91.499999957380609
 31
0.0
  0
ARC
  5
2062
  8
SAPA_PROFIL
 10
33.00055534994226
 20
92.499999957380624
 30
0.0
 40
1.0
 50
180.0
 51
270.0
  0
LINE
  5
2063
  8
SAPA_PROFIL
 10
32.00055534994226
 20
92.499999957380624
 30
0.0
 11
32.00055534994226
 21
98.612929667342087
 31
0.0
  0
ARC
  5
2064
  8
SAPA_PROFIL
 10
33.000555349941777
 20
98.612929667342755
 30
0.0
 40
0.9999999999995168
 50
115.0000000003056
 51
180.0000000000382
  0
LINE
  5
2065
  8
SAPA_PROFIL
 10
32.57793708819645
 20
99.519237454376707
 30
0.0
 11
36.423173611696257
 21
101.3123006927233
 31
0.0
  0
ARC
  5
2066
  8
SAPA_PROFIL
 10
36.000555349951213
 20
102.218608479758
 30
0.0
 40
1.0000000000001541
 50
295.00000000027097
 51
0.0000000000032569
  0
LINE
  5
2067
  8
SAPA_PROFIL
 10
37.000555349951362
 20
102.2186084797581
 30
0.0
 11
37.000555349951362
 21
105.2673539530865
 31
0.0
  0
ARC
  5
2068
  8
SAPA_PROFIL
 10
36.800555349950741
 20
105.267353953086
 30
0.0
 40
0.2000000000006139
 50
0.00000000014656
 51
119.109908940547
  0
ARC
  5
2069
  8
SAPA_PROFIL
 10
35.000555349919352
 20
108.4999999281238
 30
0.0
 40
3.500000000005004
 50
274.91710033603567
 51
299.1099089403769
  0
LINE
  5
206A
  8
SAPA_PROFIL
 10
35.300555349950628
 20
105.012880773289
 30
0.0
 11
35.300555349950628
 21
103.749999928119
 31
0.0
  0
ARC
  5
206B
  8
SAPA_PROFIL
 10
34.800555349950628
 20
103.749999928119
 30
0.0
 40
0.5
 50
270.0
 51
0.0
  0
LINE
  5
206C
  8
SAPA_PROFIL
 10
34.800555349950628
 20
103.249999928119
 30
0.0
 11
32.50055534994226
 21
103.249999928119
 31
0.0
  0
ARC
  5
206D
  8
SAPA_PROFIL
 10
32.50055534994226
 20
103.749999928119
 30
0.0
 40
0.5
 50
180.0
 51
270.0
  0
LINE
  5
206E
  8
SAPA_PROFIL
 10
32.00055534994226
 20
103.749999928119
 30
0.0
 11
32.00055534994226
 21
106.6972242903507
 31
0.0
  0
ARC
  5
206F
  8
SAPA_PROFIL
 10
35.000555349920511
 20
108.499999928119
 30
0.0
 40
3.5000000000000382
 50
148.99728086543371
 51
211.00271913456629
  0
LINE
  5
2070
  8
SAPA_PROFIL
 10
32.00055534994226
 20
110.3027755658872
 30
0.0
 11
32.00055534994226
 21
116.6972242903507
 31
0.0
  0
ARC
  5
2071
  8
SAPA_PROFIL
 10
35.000555349920511
 20
118.499999928119
 30
0.0
 40
3.5000000000000382
 50
148.99728086543371
 51
211.00271913456629
  0
LINE
  5
2072
  8
SAPA_PROFIL
 10
32.00055534994226
 20
120.3027755658872
 30
0.0
 11
32.00055534994226
 21
123.249999928119
 31
0.0
  0
ARC
  5
2073
  8
SAPA_PROFIL
 10
32.50055534994226
 20
123.249999928119
 30
0.0
 40
0.5
 50
90.0
 51
180.0
  0
LINE
  5
2074
  8
SAPA_PROFIL
 10
32.50055534994226
 20
123.749999928119
 30
0.0
 11
34.800555349950628
 21
123.749999928119
 31
0.0
  0
ARC
  5
2075
  8
SAPA_PROFIL
 10
34.800555349950628
 20
123.249999928119
 30
0.0
 40
0.5
 50
0.0
 51
90.0
  0
LINE
  5
2076
  8
SAPA_PROFIL
 10
35.300555349950628
 20
123.249999928119
 30
0.0
 11
35.300555349952447
 21
121.98711908294869
 31
0.0
  0
ARC
  5
2077
  8
SAPA_PROFIL
 10
35.000555349918137
 20
118.4999999281177
 30
0.0
 40
3.5000000000014988
 50
60.890091059568427
 51
85.082899663909586
  0
ARC
  5
2078
  8
SAPA_PROFIL
 10
36.800555349950542
 20
121.73264590315119
 30
0.0
 40
0.2000000000008094
 50
240.8900910595504
 51
359.99999999995123
  0
LINE
  5
2079
  8
SAPA_PROFIL
 10
37.000555349951362
 20
121.732645903151
 30
0.0
 11
37.000555349951362
 21
124.7813913764798
 31
0.0
  0
ARC
  5
207A
  8
SAPA_PROFIL
 10
36.000555349951291
 20
124.78139137647889
 30
0.0
 40
1.0000000000000631
 50
0.0000000000569955
 51
64.999999999789651
  0
LINE
  5
207B
  8
SAPA_PROFIL
 10
36.423173611695347
 20
125.687699163514
 30
0.0
 11
32.577937088197359
 21
127.480762401861
 31
0.0
  0
ARC
  5
207C
  8
SAPA_PROFIL
 10
33.00055534994241
 20
128.38707018889579
 30
0.0
 40
1.0000000000001541
 50
179.9999999999967
 51
244.99999999972911
  0
LINE
  5
207D
  8
SAPA_PROFIL
 10
32.00055534994226
 20
128.3870701888959
 30
0.0
 11
32.00055534994226
 21
144.69999992811881
 31
0.0
  0
LINE
  5
207E
  8
SAPA_PROFIL
 10
32.00055534994226
 20
144.69999992811881
 30
0.0
 11
33.50055534994226
 21
144.69999992811881
 31
0.0
  0
LINE
  5
207F
  8
SAPA_PROFIL
 10
33.50055534994226
 20
144.69999992811881
 30
0.0
 11
33.50055534994226
 21
145.499999928119
 31
0.0
  0
LINE
  5
2080
  8
SAPA_PROFIL
 10
33.50055534994226
 20
145.499999928119
 30
0.0
 11
32.00055534994226
 21
145.499999928119
 31
0.0
  0
LINE
  5
2081
  8
SAPA_PROFIL
 10
32.00055534994226
 20
145.499999928119
 30
0.0
 11
32.00055534994226
 21
147.19999992811881
 31
0.0
  0
LINE
  5
2082
  8
SAPA_PROFIL
 10
32.00055534994226
 20
147.19999992811881
 30
0.0
 11
56.600555349940798
 21
147.499999928119
 31
0.0
  0
LINE
  5
2083
  8
SAPA_PROFIL
 10
56.600555349940798
 20
147.499999928119
 30
0.0
 11
56.600555349940798
 21
145.79999992811869
 31
0.0
  0
LINE
  5
2084
  8
SAPA_PROFIL
 10
56.600555349940798
 20
145.79999992811869
 30
0.0
 11
54.600555349940798
 21
145.79999992811869
 31
0.0
  0
LINE
  5
2085
  8
SAPA_PROFIL
 10
54.600555349940798
 20
145.79999992811869
 30
0.0
 11
54.600555349940798
 21
144.999999928119
 31
0.0
  0
LINE
  5
2086
  8
SAPA_PROFIL
 10
54.600555349940798
 20
144.999999928119
 30
0.0
 11
58.750555349933158
 21
144.999999928119
 31
0.0
  0
ARC
  5
2087
  8
SAPA_PROFIL
 10
58.750555349933158
 20
145.499999928119
 30
0.0
 40
0.5
 50
270.0
 51
0.0
  0
LINE
  5
2088
  8
SAPA_PROFIL
 10
59.250555349933158
 20
145.499999928119
 30
0.0
 11
59.250555349944079
 21
145.99999992810081
 31
0.0
  0
LINE
  5
2089
  8
SAPA_PROFIL
 10
59.250555349944079
 20
145.99999992810081
 30
0.0
 11
58.000555349969538
 21
145.99999992812221
 31
0.0
  0
LINE
  5
208A
  8
SAPA_PROFIL
 10
58.000555349969538
 20
145.99999992812221
 30
0.0
 11
58.000555349934082
 21
147.39999992810061
 31
0.0
  0
ARC
  5
208B
  8
SAPA_PROFIL
 10
58.300555349920543
 20
147.39999992809459
 30
0.0
 40
0.2999999999864684
 50
89.999999997380925
 51
179.9999999988384
  0
LINE
  5
208C
  8
SAPA_PROFIL
 10
58.300555349934257
 20
147.69999992808101
 30
0.0
 11
64.70055534993844
 21
147.69999992810861
 31
0.0
  0
ARC
  5
208D
  8
SAPA_PROFIL
 10
64.700555349921089
 20
147.39999992811829
 30
0.0
 40
0.2999999999902343
 50
359.99999999814349
 51
89.999999996686114
  0
LINE
  5
208E
  8
SAPA_PROFIL
 10
65.000555349911323
 20
147.3999999281086
 30
0.0
 11
65.000555349904062
 21
145.99999992812221
 31
0.0
  0
LINE
  5
208F
  8
SAPA_PROFIL
 10
65.000555349904062
 20
145.99999992812221
 30
0.0
 11
63.75055534992952
 21
145.99999992810081
 31
0.0
  0
LINE
  5
2090
  8
SAPA_PROFIL
 10
63.75055534992952
 20
145.99999992810081
 30
0.0
 11
63.75055534994226
 21
145.499999928119
 31
0.0
  0
ARC
  5
2091
  8
SAPA_PROFIL
 10
64.25055534994226
 20
145.499999928119
 30
0.0
 40
0.5
 50
180.0
 51
270.0
  0
LINE
  5
2092
  8
SAPA_PROFIL
 10
64.25055534994226
 20
144.999999928119
 30
0.0
 11
67.25055534994226
 21
144.99999992811851
 31
0.0
  0
ARC
  5
2093
  8
SAPA_PROFIL
 10
67.250555349949536
 20
145.49999992811851
 30
0.0
 40
0.5
 50
269.99999999916622
 51
0.0
  0
LINE
  5
2094
  8
SAPA_PROFIL
 10
67.750555349949536
 20
145.49999992811851
 30
0.0
 11
67.750555349949536
 21
145.99999992811851
 31
0.0
  0
LINE
  5
2095
  8
SAPA_PROFIL
 10
67.750555349949536
 20
145.99999992811851
 30
0.0
 11
66.300555349952447
 21
145.99999992811809
 31
0.0
  0
LINE
  5
2096
  8
SAPA_PROFIL
 10
66.300555349952447
 20
145.99999992811809
 30
0.0
 11
66.300555349952447
 21
147.84999992811089
 31
0.0
  0
ARC
  5
2097
  8
SAPA_PROFIL
 10
66.6005553499391
 20
147.84999992809469
 30
0.0
 40
0.2999999999866532
 50
89.999999996895099
 51
179.9999999968951
  0
LINE
  5
2098
  8
SAPA_PROFIL
 10
66.600555349955357
 20
148.14999992808129
 30
0.0
 11
68.840747728811948
 21
148.14999992811039
 31
0.0
  0
LINE
  5
2099
  8
SAPA_PROFIL
 10
68.840747728811948
 20
148.14999992811039
 30
0.0
 11
69.100555349940805
 21
147.6999999281156
 31
0.0
  0
LINE
  5
209A
  8
SAPA_PROFIL
 10
69.100555349940805
 20
147.6999999281156
 30
0.0
 11
70.900555349950992
 21
147.6999999281156
 31
0.0
  0
LINE
  5
209B
  8
SAPA_PROFIL
 10
70.900555349950992
 20
147.6999999281156
 30
0.0
 11
71.160362971079849
 21
148.14999992811039
 31
0.0
  0
LINE
  5
209C
  8
SAPA_PROFIL
 10
71.160362971079849
 20
148.14999992811039
 30
0.0
 11
73.40055534993553
 21
148.14999992811019
 31
0.0
  0
ARC
  5
209D
  8
SAPA_PROFIL
 10
73.400555349924076
 20
147.84999992812399
 30
0.0
 40
0.29999999998617
 50
359.9999999971069
 51
89.999999997812466
  0
LINE
  5
209E
  8
SAPA_PROFIL
 10
73.700555349910246
 20
147.8499999281089
 30
0.0
 11
73.70055534993935
 21
145.99999992811809
 31
0.0
  0
LINE
  5
209F
  8
SAPA_PROFIL
 10
73.70055534993935
 20
145.99999992811809
 30
0.0
 11
72.25055534994226
 21
145.99999992811851
 31
0.0
  0
LINE
  5
20A0
  8
SAPA_PROFIL
 10
72.25055534994226
 20
145.99999992811851
 30
0.0
 11
72.25055534994226
 21
145.49999992811851
 31
0.0
  0
ARC
  5
20A1
  8
SAPA_PROFIL
 10
72.75055534994226
 20
145.49999992811851
 30
0.0
 40
0.5
 50
180.0
 51
270.0
  0
LINE
  5
20A2
  8
SAPA_PROFIL
 10
72.75055534994226
 20
144.99999992811851
 30
0.0
 11
74.50055534994226
 21
144.999999928119
 31
0.0
  0
ARC
  5
20A3
  8
SAPA_PROFIL
 10
74.50055534994226
 20
145.499999928119
 30
0.0
 40
0.5
 50
270.0
 51
0.0
  0
LINE
  5
20A4
  8
SAPA_PROFIL
 10
75.00055534994226
 20
145.499999928119
 30
0.0
 11
75.00055534994226
 21
147.999999928119
 31
0.0
  0
ARC
  5
20A5
  8
SAPA_PROFIL
 10
73.00055534994226
 20
147.999999928119
 30
0.0
 40
2.0
 50
0.0
 51
90.0
  0
LINE
  5
20A6
  8
SAPA_PROFIL
 10
73.00055534994226
 20
149.999999928119
 30
0.0
 11
15.30055534994608
 21
149.999999928119
 31
0.0
  0
ARC
  5
20A7
  8
SAPA_PROFIL
 10
15.30055534994608
 20
149.69999992811881
 30
0.0
 40
0.3000000000001819
 50
90.0
 51
180.0
  0
LINE
  5
20A8
  8
SAPA_PROFIL
 10
15.0005553499459
 20
149.69999992811881
 30
0.0
 11
15.00055534994226
 21
89.199999928119951
 31
0.0
  0
LINE
  5
20A9
  8
SAPA_PROFIL
 10
17.300555349941529
 20
34.999999928105808
 30
0.0
 11
29.50055534994226
 21
34.999999928105808
 31
0.0
  0
LINE
  5
20AA
  8
SAPA_PROFIL
 10
29.50055534994226
 20
34.999999928105808
 30
0.0
 11
29.50055534994226
 21
2.9999999281058081
 31
0.0
  0
LINE
  5
20AB
  8
SAPA_PROFIL
 10
29.50055534994226
 20
2.9999999281058081
 30
0.0
 11
17.300555349941529
 21
2.9999999281058081
 31
0.0
  0
LINE
  5
20AC
  8
SAPA_PROFIL
 10
17.300555349941529
 20
2.9999999281058081
 30
0.0
 11
17.300555349941529
 21
34.999999928105808
 31
0.0
  0
ARC
  5
20AD
  8
SAPA_PROFIL
 10
27.9005553499419
 20
37.999999928105808
 30
0.0
 40
1.0
 50
270.0
 51
0.0
  0
LINE
  5
20AE
  8
SAPA_PROFIL
 10
27.9005553499419
 20
36.999999928105808
 30
0.0
 11
18.900555349941889
 21
36.999999928105808
 31
0.0
  0
ARC
  5
20AF
  8
SAPA_PROFIL
 10
18.900555349941889
 20
37.999999928105808
 30
0.0
 40
1.0
 50
180.0
 51
270.0
  0
LINE
  5
20B0
  8
SAPA_PROFIL
 10
17.9005553499419
 20
37.999999928105808
 30
0.0
 11
17.9005553499419
 21
40.499999963507889
 31
0.0
  0
LINE
  5
20B1
  8
SAPA_PROFIL
 10
17.9005553499419
 20
40.499999963507889
 30
0.0
 11
17.300555349941529
 21
40.499999963507889
 31
0.0
  0
LINE
  5
20B2
  8
SAPA_PROFIL
 10
17.300555349941529
 20
40.499999963507889
 30
0.0
 11
17.300555349941529
 21
57.999999963507889
 31
0.0
  0
LINE
  5
20B3
  8
SAPA_PROFIL
 10
17.300555349941529
 20
57.999999963507889
 30
0.0
 11
29.50055534994226
 21
57.999999963507889
 31
0.0
  0
LINE
  5
20B4
  8
SAPA_PROFIL
 10
29.50055534994226
 20
57.999999963507889
 30
0.0
 11
29.50055534994226
 21
40.499999963507889
 31
0.0
  0
LINE
  5
20B5
  8
SAPA_PROFIL
 10
29.50055534994226
 20
40.499999963507889
 30
0.0
 11
28.9005553499419
 21
40.499999963507889
 31
0.0
  0
LINE
  5
20B6
  8
SAPA_PROFIL
 10
28.9005553499419
 20
40.499999963507889
 30
0.0
 11
28.9005553499419
 21
37.999999928105808
 31
0.0
  0
LINE
  5
20B7
  8
SAPA_PROFIL
 10
35.300555349950628
 20
26.74999992812036
 30
0.0
 11
35.300555349950628
 21
28.012880773290821
 31
0.0
  0
ARC
  5
20B8
  8
SAPA_PROFIL
 10
35.000555349919281
 20
31.49999992812106
 30
0.0
 40
3.5000000000003921
 50
274.91710033604329
 51
299.10990894042021
  0
ARC
  5
20B9
  8
SAPA_PROFIL
 10
36.800555349950557
 20
28.2673539530882
 30
0.0
 40
0.2000000000007888
 50
0.0000000000386755
 51
119.1099089404599
  0
LINE
  5
20BA
  8
SAPA_PROFIL
 10
37.000555349951362
 20
28.267353953088332
 30
0.0
 11
37.000555349951362
 21
25.218608479759951
 31
0.0
  0
ARC
  5
20BB
  8
SAPA_PROFIL
 10
36.000555349950922
 20
25.218608479760722
 30
0.0
 40
1.000000000000433
 50
295.00000000022391
 51
359.99999999995578
  0
LINE
  5
20BC
  8
SAPA_PROFIL
 10
36.423173611695347
 20
24.31230069272533
 30
0.0
 11
32.57793708819645
 21
22.519237454378072
 31
0.0
  0
ARC
  5
20BD
  8
SAPA_PROFIL
 10
33.000555349941791
 20
21.612929667344108
 30
0.0
 40
0.9999999999995241
 50
115.0000000003057
 51
180.0000000000376
  0
LINE
  5
20BE
  8
SAPA_PROFIL
 10
32.00055534994226
 20
21.612929667343451
 30
0.0
 11
32.00055534994226
 21
5.299999928120541
 31
0.0
  0
LINE
  5
20BF
  8
SAPA_PROFIL
 10
32.00055534994226
 20
5.299999928120541
 30
0.0
 11
33.50055534994226
 21
5.299999928120541
 31
0.0
  0
LINE
  5
20C0
  8
SAPA_PROFIL
 10
33.50055534994226
 20
5.299999928120541
 30
0.0
 11
33.50055534994226
 21
4.4999999281208138
 31
0.0
  0
LINE
  5
20C1
  8
SAPA_PROFIL
 10
33.50055534994226
 20
4.4999999281208138
 30
0.0
 11
32.00055534994226
 21
4.4999999281208138
 31
0.0
  0
LINE
  5
20C2
  8
SAPA_PROFIL
 10
32.00055534994226
 20
4.4999999281208138
 30
0.0
 11
32.00055534994226
 21
2.799999928120541
 31
0.0
  0
LINE
  5
20C3
  8
SAPA_PROFIL
 10
32.00055534994226
 20
2.799999928120541
 30
0.0
 11
56.600555349940798
 21
2.4999999281208138
 31
0.0
  0
LINE
  5
20C4
  8
SAPA_PROFIL
 10
56.600555349940798
 20
2.4999999281208138
 30
0.0
 11
56.600555349940798
 21
4.1999999281206319
 31
0.0
  0
LINE
  5
20C5
  8
SAPA_PROFIL
 10
56.600555349940798
 20
4.1999999281206319
 30
0.0
 11
54.600555349940798
 21
4.1999999281206319
 31
0.0
  0
LINE
  5
20C6
  8
SAPA_PROFIL
 10
54.600555349940798
 20
4.1999999281206319
 30
0.0
 11
54.600555349940798
 21
4.9999999281208138
 31
0.0
  0
LINE
  5
20C7
  8
SAPA_PROFIL
 10
54.600555349940798
 20
4.9999999281208138
 30
0.0
 11
58.750555349933158
 21
4.9999999281208138
 31
0.0
  0
ARC
  5
20C8
  8
SAPA_PROFIL
 10
58.750555349933187
 20
4.4999999281208414
 30
0.0
 40
0.4999999999999734
 50
359.99999999999687
 51
90.000000000003254
  0
LINE
  5
20C9
  8
SAPA_PROFIL
 10
59.250555349933158
 20
4.4999999281208138
 30
0.0
 11
59.250555349944079
 21
3.999999928138549
 31
0.0
  0
LINE
  5
20CA
  8
SAPA_PROFIL
 10
59.250555349944079
 20
3.999999928138549
 30
0.0
 11
58.000555349969538
 21
3.9999999281171759
 31
0.0
  0
LINE
  5
20CB
  8
SAPA_PROFIL
 10
58.000555349969538
 20
3.9999999281171759
 30
0.0
 11
58.000555349934977
 21
2.599999928138458
 31
0.0
  0
ARC
  5
20CC
  8
SAPA_PROFIL
 10
58.300555349920671
 20
2.5999999281444248
 30
0.0
 40
0.2999999999856868
 50
180.0000000011396
 51
270.00000000259462
  0
LINE
  5
20CD
  8
SAPA_PROFIL
 10
58.300555349934257
 20
2.2999999281587402
 30
0.0
 11
64.70055534993935
 21
2.2999999281310011
 31
0.0
  0
ARC
  5
20CE
  8
SAPA_PROFIL
 10
64.700555349921657
 20
2.5999999281206811
 30
0.0
 40
0.2999999999896801
 50
270.000000003379
 51
0.0000000019188498
  0
LINE
  5
20CF
  8
SAPA_PROFIL
 10
65.000555349911323
 20
2.5999999281307282
 30
0.0
 11
65.000555349904062
 21
3.9999999281171759
 31
0.0
  0
LINE
  5
20D0
  8
SAPA_PROFIL
 10
65.000555349904062
 20
3.9999999281171759
 30
0.0
 11
63.75055534992952
 21
3.999999928138549
 31
0.0
  0
LINE
  5
20D1
  8
SAPA_PROFIL
 10
63.75055534992952
 20
3.999999928138549
 30
0.0
 11
63.75055534994226
 21
4.4999999281208138
 31
0.0
  0
ARC
  5
20D2
  8
SAPA_PROFIL
 10
64.25055534994226
 20
4.4999999281208112
 30
0.0
 40
0.5
 50
90.0
 51
179.9999999999996
  0
LINE
  5
20D3
  8
SAPA_PROFIL
 10
64.25055534994226
 20
4.9999999281208138
 30
0.0
 11
67.25055534994226
 21
4.9999999281208138
 31
0.0
  0
ARC
  5
20D4
  8
SAPA_PROFIL
 10
67.250555349949536
 20
4.4999999281208209
 30
0.0
 40
0.4999999999999929
 50
359.9999999999992
 51
90.000000000833779
  0
LINE
  5
20D5
  8
SAPA_PROFIL
 10
67.750555349949536
 20
4.4999999281208138
 30
0.0
 11
67.750555349949536
 21
3.9999999281208138
 31
0.0
  0
LINE
  5
20D6
  8
SAPA_PROFIL
 10
67.750555349949536
 20
3.9999999281208138
 30
0.0
 11
66.300555349952447
 21
3.999999928121269
 31
0.0
  0
LINE
  5
20D7
  8
SAPA_PROFIL
 10
66.300555349952447
 20
3.999999928121269
 30
0.0
 11
66.300555349952447
 21
2.1499999281286359
 31
0.0
  0
ARC
  5
20D8
  8
SAPA_PROFIL
 10
66.600555349939214
 20
2.149999928144787
 30
0.0
 40
0.2999999999867668
 50
180.00000000308461
 51
270.00000000308307
  0
LINE
  5
20D9
  8
SAPA_PROFIL
 10
66.600555349955357
 20
1.8499999281580131
 30
0.0
 11
68.840747728811948
 21
1.8499999281293631
 31
0.0
  0
LINE
  5
20DA
  8
SAPA_PROFIL
 10
68.840747728811948
 20
1.8499999281293631
 30
0.0
 11
69.100555349940805
 21
2.2999999281237251
 31
0.0
  0
LINE
  5
20DB
  8
SAPA_PROFIL
 10
69.100555349940805
 20
2.2999999281237251
 30
0.0
 11
70.900555349950992
 21
2.2999999281237251
 31
0.0
  0
LINE
  5
20DC
  8
SAPA_PROFIL
 10
70.900555349950992
 20
2.2999999281237251
 30
0.0
 11
71.160362971079849
 21
1.8499999281293631
 31
0.0
  0
LINE
  5
20DD
  8
SAPA_PROFIL
 10
71.160362971079849
 20
1.8499999281293631
 30
0.0
 11
73.40055534993644
 21
1.8499999281293631
 31
0.0
  0
ARC
  5
20DE
  8
SAPA_PROFIL
 10
73.400555349924616
 20
2.1499999281150011
 30
0.0
 40
0.2999999999856371
 50
270.0000000022581
 51
0.0000000029515547
  0
LINE
  5
20DF
  8
SAPA_PROFIL
 10
73.700555349910246
 20
2.1499999281304549
 30
0.0
 11
73.70055534993935
 21
3.999999928121269
 31
0.0
  0
LINE
  5
20E0
  8
SAPA_PROFIL
 10
73.70055534993935
 20
3.999999928121269
 30
0.0
 11
72.25055534994226
 21
3.9999999281208138
 31
0.0
  0
LINE
  5
20E1
  8
SAPA_PROFIL
 10
72.25055534994226
 20
3.9999999281208138
 30
0.0
 11
72.25055534994226
 21
4.4999999281208138
 31
0.0
  0
ARC
  5
20E2
  8
SAPA_PROFIL
 10
72.750555349942246
 20
4.4999999281208281
 30
0.0
 40
0.4999999999999858
 50
89.999999999998366
 51
180.00000000000159
  0
LINE
  5
20E3
  8
SAPA_PROFIL
 10
72.75055534994226
 20
4.9999999281208138
 30
0.0
 11
74.50055534994226
 21
4.9999999281208138
 31
0.0
  0
ARC
  5
20E4
  8
SAPA_PROFIL
 10
74.50055534994226
 20
4.4999999281208067
 30
0.0
 40
0.5000000000000071
 50
0.0000000000008142
 51
90.0
  0
LINE
  5
20E5
  8
SAPA_PROFIL
 10
75.00055534994226
 20
4.4999999281208138
 30
0.0
 11
75.00055534994226
 21
1.9999999281208141
 31
0.0
  0
ARC
  5
20E6
  8
SAPA_PROFIL
 10
73.000555349942346
 20
1.9999999281207179
 30
0.0
 40
1.9999999999999001
 50
269.99999999999721
 51
0.000000000002748
  0
LINE
  5
20E7
  8
SAPA_PROFIL
 10
73.00055534994226
 20
-0.0000000718791853
 30
0.0
 11
15.300555349941529
 21
-0.00000007187964
 31
0.0
  0
ARC
  5
20E8
  8
SAPA_PROFIL
 10
15.30055534995155
 20
0.299999928126013
 30
0.0
 40
0.300000000005653
 50
180.00000000017641
 51
269.99999999808659
  0
LINE
  5
20E9
  8
SAPA_PROFIL
 10
15.0005553499459
 20
0.2999999281250893
 30
0.0
 11
15.00055534994226
 21
60.799999928119632
 31
0.0
  0
ARC
  5
20EA
  8
SAPA_PROFIL
 10
15.00055534994407
 20
60.999999928119678
 30
0.0
 40
0.2000000000000455
 50
269.99999999947988
 51
89.999999999477865
  0
LINE
  5
20EB
  8
SAPA_PROFIL
 10
15.0005553499459
 20
61.19999992811973
 30
0.0
 11
15.000531349945049
 21
64.785810365746784
 31
0.0
  0
ARC
  5
20EC
  8
SAPA_PROFIL
 10
16.000531349945149
 20
64.785810365746784
 30
0.0
 40
1.000000000000099
 50
45.000000000004043
 51
180.0
  0
LINE
  5
20ED
  8
SAPA_PROFIL
 10
16.707638131131709
 20
65.492917146933451
 30
0.0
 11
18.012687384300989
 21
64.187867893764633
 31
0.0
  0
ARC
  5
20EE
  8
SAPA_PROFIL
 10
17.800555349944471
 20
63.975735859409262
 30
0.0
 40
0.2999999999999743
 50
359.99999999982771
 51
44.999999999844547
  0
LINE
  5
20EF
  8
SAPA_PROFIL
 10
18.10055534994444
 20
63.97573585940836
 30
0.0
 11
18.10055534994444
 21
63.389230412661618
 31
0.0
  0
ARC
  5
20F0
  8
SAPA_PROFIL
 10
17.800555349944101
 20
63.389230412662123
 30
0.0
 40
0.3000000000003382
 50
329.99999999990609
 51
359.99999999990359
  0
LINE
  5
20F1
  8
SAPA_PROFIL
 10
18.060362971079481
 20
63.23923041266152
 30
0.0
 11
17.200555349944811
 21
61.74999992812036
 31
0.0
  0
LINE
  5
20F2
  8
SAPA_PROFIL
 10
17.200555349944811
 20
61.74999992812036
 30
0.0
 11
17.200543349944379
 21
61.299999928120542
 31
0.0
  0
ARC
  5
20F3
  8
SAPA_PROFIL
 10
17.500543349945008
 20
61.299999928120982
 30
0.0
 40
0.3000000000006295
 50
180.00000000008549
 51
270.00000000008822
  0
LINE
  5
20F4
  8
SAPA_PROFIL
 10
17.50054334994547
 20
60.99999992812036
 30
0.0
 11
21.10055534994444
 21
60.999999928120808
 31
0.0
  0
ARC
  5
20F5
  8
SAPA_PROFIL
 10
21.100555349945129
 20
61.299999928121217
 30
0.0
 40
0.3000000000004093
 50
269.99999999986971
 51
359.99999999986971
  0
LINE
  5
20F6
  8
SAPA_PROFIL
 10
21.400555349945531
 20
61.299999928120542
 30
0.0
 11
21.400555349945531
 21
61.749999928120822
 31
0.0
  0
LINE
  5
20F7
  8
SAPA_PROFIL
 10
21.400555349945531
 20
61.749999928120822
 30
0.0
 11
20.540730612375231
 21
63.239260059194741
 31
0.0
  0
ARC
  5
20F8
  8
SAPA_PROFIL
 10
20.800538233511649
 20
63.389260059192289
 30
0.0
 40
0.2999999999997164
 50
180.0036468669301
 51
209.99999999948881
  0
LINE
  5
20F9
  8
SAPA_PROFIL
 10
20.500538234119631
 20
63.389240964241708
 30
0.0
 11
20.50053118432789
 21
63.49999992812036
 31
0.0
  0
LINE
  5
20FA
  8
SAPA_PROFIL
 10
20.50053118432789
 20
63.49999992812036
 30
0.0
 11
22.12224318643257
 21
63.499999928119912
 31
0.0
  0
ARC
  5
20FB
  8
SAPA_PROFIL
 10
22.122243186432399
 20
62.499999928120239
 30
0.0
 40
0.999999999999666
 50
29.999999999988962
 51
89.999999999990436
  0
LINE
  5
20FC
  8
SAPA_PROFIL
 10
22.988268590216649
 20
62.999999928119898
 30
0.0
 11
23.854293994000731
 21
61.49999992812036
 31
0.0
  0
ARC
  5
20FD
  8
SAPA_PROFIL
 10
24.72031939778498
 20
61.99999992812004
 30
0.0
 40
0.9999999999996792
 50
209.9999999999894
 51
269.99999999999011
  0
LINE
  5
20FE
  8
SAPA_PROFIL
 10
24.720319397784809
 20
60.99999992812036
 30
0.0
 11
25.280791302101541
 21
60.99999992812036
 31
0.0
  0
ARC
  5
20FF
  8
SAPA_PROFIL
 10
25.28079130210136
 20
61.99999992812004
 30
0.0
 40
0.9999999999996801
 50
270.00000000001
 51
330.00000000001052
  0
LINE
  5
2100
  8
SAPA_PROFIL
 10
26.14681670588562
 20
61.49999992812036
 30
0.0
 11
27.01284210967151
 21
62.999999928119898
 31
0.0
  0
ARC
  5
2101
  8
SAPA_PROFIL
 10
27.87886751345615
 20
62.499999928120467
 30
0.0
 40
0.999999999999887
 50
90.000000000031946
 51
150.00000000003391
  0
LINE
  5
2102
  8
SAPA_PROFIL
 10
27.878867513455589
 20
63.49999992812036
 30
0.0
 11
29.50057951555846
 21
63.49999992812036
 31
0.0
  0
LINE
  5
2103
  8
SAPA_PROFIL
 10
29.50057951555846
 20
63.49999992812036
 30
0.0
 11
29.500572465768531
 21
63.389240964241708
 31
0.0
  0
ARC
  5
2104
  8
SAPA_PROFIL
 10
29.200572466375601
 20
63.389260059195678
 30
0.0
 40
0.3000000000006262
 50
329.99999999986261
 51
359.99635313242118
  0
LINE
  5
2105
  8
SAPA_PROFIL
 10
29.460380087511108
 20
63.239260059194741
 30
0.0
 11
28.600555349942631
 21
61.749999928120822
 31
0.0
  0
LINE
  5
2106
  8
SAPA_PROFIL
 10
28.600555349942631
 20
61.749999928120822
 30
0.0
 11
28.600555349940809
 21
61.299999928120542
 31
0.0
  0
ARC
  5
2107
  8
SAPA_PROFIL
 10
28.900555349941222
 20
61.299999928121217
 30
0.0
 40
0.3000000000004093
 50
180.0000000001302
 51
270.00000000013029
  0
LINE
  5
2108
  8
SAPA_PROFIL
 10
28.9005553499419
 20
60.999999928120808
 30
0.0
 11
32.500567349940873
 21
60.99999992812036
 31
0.0
  0
ARC
  5
2109
  8
SAPA_PROFIL
 10
32.500567349941328
 20
61.299999928120982
 30
0.0
 40
0.3000000000006295
 50
269.99999999991178
 51
359.99999999991451
  0
LINE
  5
210A
  8
SAPA_PROFIL
 10
32.800567349941957
 20
61.299999928120542
 30
0.0
 11
32.800555349941533
 21
61.74999992812036
 31
0.0
  0
LINE
  5
210B
  8
SAPA_PROFIL
 10
32.800555349941533
 20
61.74999992812036
 30
0.0
 11
31.940747728806858
 21
63.23923041266152
 31
0.0
  0
ARC
  5
210C
  8
SAPA_PROFIL
 10
32.200555349942228
 20
63.389230412662123
 30
0.0
 40
0.3000000000003395
 50
180.00000000009629
 51
210.00000000009379
  0
LINE
  5
210D
  8
SAPA_PROFIL
 10
31.9005553499419
 20
63.389230412661618
 30
0.0
 11
31.9005553499419
 21
63.97573585940836
 31
0.0
  0
ARC
  5
210E
  8
SAPA_PROFIL
 10
32.200555349941872
 20
63.975735859409262
 30
0.0
 40
0.2999999999999758
 50
135.00000000015541
 51
180.00000000017229
  0
LINE
  5
210F
  8
SAPA_PROFIL
 10
31.988423315585351
 20
64.187867893764633
 30
0.0
 11
33.293472568754623
 21
65.492917146933451
 31
0.0
  0
ARC
  5
2110
  8
SAPA_PROFIL
 10
34.000579349941191
 20
64.785810365746784
 30
0.0
 40
1.0000000000000979
 50
0.0
 51
134.99999999999599
  0
LINE
  5
2111
  8
SAPA_PROFIL
 10
35.00057934994129
 20
64.785810365746784
 30
0.0
 11
35.00055534994226
 21
61.19999992811973
 31
0.0
  0
ARC
  5
2112
  8
SAPA_PROFIL
 10
35.00055534994226
 20
60.999999928120133
 30
0.0
 40
0.1999999999995907
 50
90.0
 51
270.0
  0
LINE
  5
2113
  8
SAPA_PROFIL
 10
35.00055534994226
 20
60.799999928120542
 30
0.0
 11
35.00055534994226
 21
59.49999989857087
 31
0.0
  0
ARC
  5
2114
  8
SAPA_PROFIL
 10
34.000555350086103
 20
59.49999989871489
 30
0.0
 40
0.9999999998561648
 50
269.9999999915504
 51
359.99999999174821
  0
LINE
  5
2115
  8
SAPA_PROFIL
 10
34.000555349938629
 20
58.499999898858732
 30
0.0
 11
33.00055534994226
 21
58.499999898858732
 31
0.0
  0
ARC
  5
2116
  8
SAPA_PROFIL
 10
33.00055534994226
 20
57.499999898858732
 30
0.0
 40
1.0
 50
90.0
 51
180.0
  0
LINE
  5
2117
  8
SAPA_PROFIL
 10
32.00055534994226
 20
57.499999898858732
 30
0.0
 11
32.00055534994226
 21
51.387070188897717
 31
0.0
  0
ARC
  5
2118
  8
SAPA_PROFIL
 10
33.000555349941791
 20
51.387070188897063
 30
0.0
 40
0.9999999999995239
 50
179.99999999996211
 51
244.99999999969421
  0
LINE
  5
2119
  8
SAPA_PROFIL
 10
32.57793708819645
 20
50.480762401863103
 30
0.0
 11
36.423173611695347
 21
48.687699163515852
 31
0.0
  0
ARC
  5
211A
  8
SAPA_PROFIL
 10
36.000555349950929
 20
47.781391376480457
 30
0.0
 40
1.000000000000427
 50
0.000000000043968
 51
64.99999999977635
  0
LINE
  5
211B
  8
SAPA_PROFIL
 10
37.000555349951362
 20
47.781391376481217
 30
0.0
 11
37.000555349951362
 21
44.732645903152843
 31
0.0
  0
ARC
  5
211C
  8
SAPA_PROFIL
 10
36.800555349950571
 20
44.732645903152971
 30
0.0
 40
0.2000000000007844
 50
240.8900910595373
 51
359.99999999996328
  0
ARC
  5
211D
  8
SAPA_PROFIL
 10
35.000555349919281
 20
41.499999928120097
 30
0.0
 40
3.5000000000004108
 50
60.890091059579802
 51
85.08289966395661
  0
LINE
  5
211E
  8
SAPA_PROFIL
 10
35.300555349950628
 20
44.98711908295035
 30
0.0
 11
35.300555349950628
 21
46.249999928120353
 31
0.0
  0
ARC
  5
211F
  8
SAPA_PROFIL
 10
34.800555349950628
 20
46.249999928120353
 30
0.0
 40
0.5
 50
0.0
 51
90.0
  0
LINE
  5
2120
  8
SAPA_PROFIL
 10
34.800555349950628
 20
46.749999928120353
 30
0.0
 11
32.50055534994226
 21
46.749999928120353
 31
0.0
  0
ARC
  5
2121
  8
SAPA_PROFIL
 10
32.50055534994226
 20
46.249999928120353
 30
0.0
 40
0.5
 50
90.0
 51
180.0
  0
LINE
  5
2122
  8
SAPA_PROFIL
 10
32.00055534994226
 20
46.249999928120353
 30
0.0
 11
32.00055534994226
 21
43.302775565889078
 31
0.0
  0
ARC
  5
2123
  8
SAPA_PROFIL
 10
35.000555349920297
 20
41.49999992812058
 30
0.0
 40
3.4999999999999729
 50
148.99728086542871
 51
211.00271913457129
  0
LINE
  5
2124
  8
SAPA_PROFIL
 10
32.00055534994226
 20
39.697224290352104
 30
0.0
 11
32.00055534994226
 21
33.302775565889078
 31
0.0
  0
ARC
  5
2125
  8
SAPA_PROFIL
 10
35.000555349920297
 20
31.499999928120591
 30
0.0
 40
3.4999999999999729
 50
148.99728086542871
 51
211.00271913457129
  0
LINE
  5
2126
  8
SAPA_PROFIL
 10
32.00055534994226
 20
29.6972242903521
 30
0.0
 11
32.00055534994226
 21
26.74999992812036
 31
0.0
  0
ARC
  5
2127
  8
SAPA_PROFIL
 10
32.50055534994226
 20
26.74999992812036
 30
0.0
 40
0.5
 50
180.0
 51
270.0
  0
LINE
  5
2128
  8
SAPA_PROFIL
 10
32.50055534994226
 20
26.24999992812036
 30
0.0
 11
34.800555349950628
 21
26.24999992812036
 31
0.0
  0
ARC
  5
2129
  8
SAPA_PROFIL
 10
34.800555349950628
 20
26.74999992812036
 30
0.0
 40
0.5
 50
270.0
 51
0.0
  0
ARC
  5
212A
  8
SAPA_PROFIL
 62
     4
 10
20.750555317437978
 20
63.375833080859643
 30
0.0
 40
0.3000000000003311
 50
180.00000000009501
 51
210.00000000009339
  0
LINE
  5
212B
  8
SAPA_PROFIL
 62
     4
 10
20.490747696302599
 20
63.225833080859047
 30
0.0
 11
21.35055534994444
 21
61.736602540013791
 31
0.0
  0
LINE
  5
212C
  8
SAPA_PROFIL
 62
     4
 10
21.35055534994444
 20
61.736602540013791
 30
0.0
 11
21.35055534994444
 21
61.299999999635482
 31
0.0
  0
ARC
  5
212D
  8
SAPA_PROFIL
 62
     4
 10
21.10055534994444
 20
61.299999999635482
 30
0.0
 40
0.25
 50
270.0
 51
0.0
  0
LINE
  5
212E
  8
SAPA_PROFIL
 62
     4
 10
21.10055534994444
 20
61.049999999635467
 30
0.0
 11
17.50054334994547
 21
61.04999999963502
 31
0.0
  0
ARC
  5
212F
  8
SAPA_PROFIL
 62
     4
 10
17.50054334994547
 20
61.299999999635013
 30
0.0
 40
0.2499999999999929
 50
179.99999999999841
 51
270.0000000000008
  0
LINE
  5
2130
  8
SAPA_PROFIL
 62
     4
 10
17.25054334994547
 20
61.299999999635013
 30
0.0
 11
17.250554992680009
 21
61.736601921213598
 31
0.0
  0
LINE
  5
2131
  8
SAPA_PROFIL
 62
     4
 10
17.250554992680009
 20
61.736601921213598
 30
0.0
 11
18.11036293857341
 21
63.225832968251332
 31
0.0
  0
ARC
  5
2132
  8
SAPA_PROFIL
 62
     4
 10
17.850555317438118
 20
63.375832968251892
 30
0.0
 40
0.3000000000002485
 50
329.9999999999024
 51
359.99999999990911
  0
LINE
  5
2133
  8
SAPA_PROFIL
 62
     4
 10
18.150555317438371
 20
63.375832968251409
 30
0.0
 11
18.150555317438371
 21
86.624166959502872
 31
0.0
  0
ARC
  5
2134
  8
SAPA_PROFIL
 62
     4
 10
17.850555317438118
 20
86.624166959502389
 30
0.0
 40
0.3000000000002494
 50
0.0000000000922785
 51
30.000000000098819
  0
LINE
  5
2135
  8
SAPA_PROFIL
 62
     4
 10
18.11036293857341
 20
86.774166959502963
 30
0.0
 11
17.250554992680009
 21
88.263398006540683
 31
0.0
  0
LINE
  5
2136
  8
SAPA_PROFIL
 62
     4
 10
17.250554992680009
 20
88.263398006540683
 30
0.0
 11
17.25054334994547
 21
88.699999928118814
 31
0.0
  0
ARC
  5
2137
  8
SAPA_PROFIL
 62
     4
 10
17.50054334994547
 20
88.699999928118814
 30
0.0
 40
0.2499999999999964
 50
89.999999999999204
 51
180.0
  0
LINE
  5
2138
  8
SAPA_PROFIL
 62
     4
 10
17.50054334994547
 20
88.949999928118814
 30
0.0
 11
21.10055534994444
 21
88.949999928118814
 31
0.0
  0
ARC
  5
2139
  8
SAPA_PROFIL
 62
     4
 10
21.10055534994444
 20
88.699999928118814
 30
0.0
 40
0.25
 50
0.0
 51
90.0
  0
LINE
  5
213A
  8
SAPA_PROFIL
 62
     4
 10
21.35055534994444
 20
88.699999928118814
 30
0.0
 11
21.35055534994444
 21
88.263397387740497
 31
0.0
  0
LINE
  5
213B
  8
SAPA_PROFIL
 62
     4
 10
21.35055534994444
 20
88.263397387740497
 30
0.0
 11
20.490747696302599
 21
86.774166846895227
 31
0.0
  0
ARC
  5
213C
  8
SAPA_PROFIL
 62
     4
 10
20.750555317437978
 20
86.624166846894667
 30
0.0
 40
0.3000000000003329
 50
149.99999999990689
 51
179.99999999990499
  0
LINE
  5
213D
  8
SAPA_PROFIL
 62
     4
 10
20.450555317437651
 20
86.624166846895164
 30
0.0
 11
20.450555317437651
 21
63.375833080859138
 31
0.0
  0
DIMENSION
  5
2159
  8
SAPA_MATT
  2
*D14
 10
106.50055534995811
 20
-29.499999928870238
 30
0.0
 11
90.750555349950204
 21
-26.999999928870238
 31
0.0
 70
     0
 13
75.00055534994226
 23
2.000000071149997
 33
0.0
 14
106.50055534995811
 24
9.5499999291691893
 34
0.0
1001
ACAD
1000
DSTYLE
1002
{
1070
   287
1070
     4
1070
    40
1040
1.0
1070
   279
1070
     1
1002
}
  0
DIMENSION
  5
215A
  8
SAPA_MATT
  2
*D13
 10
75.00055534994226
 20
-29.49999985712293
 30
0.0
 11
45.000555349943163
 21
-26.99999985712293
 31
0.0
 70
     0
 13
15.000555349944079
 23
0.3000000711549546
 33
0.0
 14
75.00055534994226
 24
2.0000000711497701
 34
0.0
1001
ACAD
1000
DSTYLE
1002
{
1070
    40
1040
1.0
1002
}
  0
DIMENSION
  5
215B
  8
SAPA_MATT
  2
*D12
 10
15.000555349944079
 20
-41.49999985712293
 30
0.0
 11
60.750555349951121
 21
-38.99999985712293
 31
0.0
 70
     0
 13
106.50055534995811
 23
9.5499999291691893
 33
0.0
 14
15.000555349944079
 24
0.3000000711549546
 34
0.0
1001
ACAD
1000
DSTYLE
1002
{
1070
    40
1040
1.0
1002
}
  0
DIMENSION
  5
215C
  8
SAPA_MATT
  2
*D11
 10
133.69621177487261
 20
7.9999999284568606
 30
0.0
 11
133.69621177487261
 21
3.9999999282886018
 31
0.0
 70
   128
 13
73.00055534994226
 23
-0.00000007187964
 33
0.0
 14
90.000555349947277
 24
7.999999928456873
 34
0.0
 50
90.0
1001
ACAD
1000
DSTYLE
1002
{
1070
    40
1040
1.0
1002
}
  0
DIMENSION
  5
215D
  8
SAPA_MATT
  2
*D10
 10
133.6962117748721
 20
68.000000070869177
 30
0.0
 11
131.1962117748721
 21
38.00000007117081
 31
0.0
 70
     0
 13
90.000555349947277
 23
8.0000000714724138
 33
0.0
 14
74.332551887943282
 24
68.000000070869191
 34
0.0
 50
90.0
1001
ACAD
1000
DSTYLE
1002
{
1070
   287
1070
     4
1070
    40
1040
1.0
1070
   279
1070
     1
1002
}
  0
DIMENSION
  5
215E
  8
SAPA_MATT
  2
*D9
 10
133.6962117748721
 20
150.00000007114809
 30
0.0
 11
133.6962117748721
 21
109.0000000710088
 31
0.0
 70
   128
 13
74.332551887943282
 23
68.000000070869191
 33
0.0
 14
73.00055534994226
 24
150.00000007114809
 34
0.0
 50
90.0
1001
ACAD
1000
DSTYLE
1002
{
1070
   287
1070
     4
1070
    40
1040
1.0
1070
   279
1070
     1
1002
}
  0
DIMENSION
  5
215F
  8
SAPA_MATT
  2
*D8
 10
150.93760658613519
 20
-0.0000000003645021
 30
0.0
 11
150.93760658613519
 21
74.999999999634611
 31
0.0
 70
   128
 13
73.00055534994226
 23
149.9999999996339
 33
0.0
 14
73.00055534994226
 24
-0.00000000036448
 34
0.0
 50
270.0
1001
ACAD
1000
DSTYLE
1002
{
1070
    40
1040
1.0
1002
}
  0
VIEWPORT
  5
C4
 67
     1
  8
0
 10
160.5543545598442
 20
116.00969601843509
 30
0.0
 40
404.96977709277462
 41
256.8421457311839
 68
     1
 69
     1
1001
ACAD
1000
MVIEW
1002
{
1070
    16
1010
0.0
1020
0.0
1030
0.0
1010
0.0
1020
0.0
1030
1.0
1040
0.0
1040
256.8421457311839
1040
160.5543545598442
1040
116.00969601843509
1040
50.0
1040
0.0
1040
0.0
1070
     0
1070
   100
1070
     1
1070
     1
1070
     0
1070
     0
1070
     0
1070
     0
1040
0.0
1040
0.0
1040
0.0
1040
10.0
1040
10.0
1040
10.0
1040
10.0
1070
     0
1002
{
1002
}
1002
}
  0
ENDSEC
  0
EOF
