  0
SECTION
  2
HEADER
  9
$ACADVER
  1
AC1009
  9
$INSBASE
 10
0.0
 20
0.0
 30
0.0
  9
$EXTMIN
 10
-74.75055527878726
 20
20.38053366634324
 30
-0.2
  9
$EXTMAX
 10
61.750000071155
 20
270.00325607780218
 30
0.0000000048844772
  9
$LIMMIN
 10
0.0
 20
0.0
  9
$LIMMAX
 10
790.0
 20
790.0
  9
$ORTHOMODE
 70
     0
  9
$REGENMODE
 70
     1
  9
$FILLMODE
 70
     1
  9
$QTEXTMODE
 70
     0
  9
$MIRRTEXT
 70
     1
  9
$DRAGMODE
 70
     2
  9
$LTSCALE
 40
4.0
  9
$OSMODE
 70
   167
  9
$ATTMODE
 70
     1
  9
$TEXTSIZE
 40
3.5
  9
$TRACEWID
 40
0.05
  9
$TEXTSTYLE
  7
ISO
  9
$CLAYER
  8
0
  9
$CELTYPE
  6
BYLAYER
  9
$CECOLOR
 62
   256
  9
$DIMSCALE
 40
0.0
  9
$DIMASZ
 40
3.0
  9
$DIMEXO
 40
1.5
  9
$DIMDLI
 40
10.0
  9
$DIMRND
 40
0.0
  9
$DIMDLE
 40
0.0
  9
$DIMEXE
 40
1.5
  9
$DIMTP
 40
0.0
  9
$DIMTM
 40
0.0
  9
$DIMTXT
 40
3.0
  9
$DIMCEN
 40
-5.0
  9
$DIMTSZ
 40
0.0
  9
$DIMTOL
 70
     0
  9
$DIMLIM
 70
     0
  9
$DIMTIH
 70
     0
  9
$DIMTOH
 70
     0
  9
$DIMSE1
 70
     0
  9
$DIMSE2
 70
     0
  9
$DIMTAD
 70
     1
  9
$DIMZIN
 70
     8
  9
$DIMBLK
  1

  9
$DIMASO
 70
     1
  9
$DIMSHO
 70
     1
  9
$DIMPOST
  1

  9
$DIMAPOST
  1

  9
$DIMALT
 70
     0
  9
$DIMALTD
 70
     0
  9
$DIMALTF
 40
25.399999999999999
  9
$DIMLFAC
 40
-1.0
  9
$DIMTOFL
 70
     1
  9
$DIMTVP
 40
0.0
  9
$DIMTIX
 70
     0
  9
$DIMSOXD
 70
     0
  9
$DIMSAH
 70
     0
  9
$DIMBLK1
  1

  9
$DIMBLK2
  1

  9
$DIMSTYLE
  2
MASKIN
  9
$DIMCLRD
 70
   256
  9
$DIMCLRE
 70
   256
  9
$DIMCLRT
 70
     2
  9
$DIMTFAC
 40
1.0
  9
$DIMGAP
 40
1.0
  9
$LUNITS
 70
     2
  9
$LUPREC
 70
     8
  9
$SKETCHINC
 40
0.1
  9
$FILLETRAD
 40
0.0
  9
$AUNITS
 70
     0
  9
$AUPREC
 70
     8
  9
$MENU
  1
ACAD
  9
$ELEVATION
 40
0.0
  9
$PELEVATION
 40
0.0
  9
$THICKNESS
 40
0.0
  9
$LIMCHECK
 70
     0
  9
$BLIPMODE
 70
     0
  9
$CHAMFERA
 40
0.0
  9
$CHAMFERB
 40
0.0
  9
$SKPOLY
 70
     0
  9
$TDCREATE
 40
2458299.4382186462
  9
$TDUPDATE
 40
2458302.6742930561
  9
$TDINDWG
 40
0.0195519444
  9
$TDUSRTIMER
 40
0.019551713
  9
$USRTIMER
 70
     1
  9
$ANGBASE
 50
0.0
  9
$ANGDIR
 70
     0
  9
$PDMODE
 70
     0
  9
$PDSIZE
 40
0.0
  9
$PLINEWID
 40
0.0
  9
$COORDS
 70
     1
  9
$SPLFRAME
 70
     0
  9
$SPLINETYPE
 70
     6
  9
$SPLINESEGS
 70
     8
  9
$ATTDIA
 70
     1
  9
$ATTREQ
 70
     1
  9
$HANDLING
 70
     1
  9
$HANDSEED
  5
18A0
  9
$SURFTAB1
 70
     6
  9
$SURFTAB2
 70
     6
  9
$SURFTYPE
 70
     6
  9
$SURFU
 70
     6
  9
$SURFV
 70
     6
  9
$UCSNAME
  2

  9
$UCSORG
 10
0.0
 20
0.0
 30
0.0
  9
$UCSXDIR
 10
1.0
 20
0.0
 30
0.0
  9
$UCSYDIR
 10
0.0
 20
1.0
 30
0.0
  9
$PUCSNAME
  2

  9
$PUCSORG
 10
0.0
 20
0.0
 30
0.0
  9
$PUCSXDIR
 10
1.0
 20
0.0
 30
0.0
  9
$PUCSYDIR
 10
0.0
 20
1.0
 30
0.0
  9
$USERI1
 70
     0
  9
$USERI2
 70
     0
  9
$USERI3
 70
     0
  9
$USERI4
 70
     0
  9
$USERI5
 70
     0
  9
$USERR1
 40
0.0
  9
$USERR2
 40
0.0
  9
$USERR3
 40
0.0
  9
$USERR4
 40
0.0
  9
$USERR5
 40
0.0
  9
$WORLDVIEW
 70
     1
  9
$SHADEDGE
 70
     3
  9
$SHADEDIF
 70
    70
  9
$TILEMODE
 70
     1
  9
$MAXACTVP
 70
    32
  9
$PLIMCHECK
 70
     0
  9
$PEXTMIN
 10
1.0000000000000000E+020
 20
1.0000000000000000E+020
 30
1.0000000000000000E+020
  9
$PEXTMAX
 10
-1.0000000000000000E+020
 20
-1.0000000000000000E+020
 30
-1.0000000000000000E+020
  9
$PLIMMIN
 10
-5.069427490234375
 20
-5.8737497329711914
  9
$PLIMMAX
 10
291.89889526367187
 20
204.0995779037475
  9
$UNITMODE
 70
     0
  9
$VISRETAIN
 70
     1
  9
$PLINEGEN
 70
     0
  9
$PSLTSCALE
 70
     1
  0
ENDSEC
  0
SECTION
  2
TABLES
  0
TABLE
  2
VPORT
 70
     1
  0
VPORT
  2
*ACTIVE
 70
     0
 10
0.0
 20
0.0
 11
1.0
 21
1.0
 12
-6.5012746130329901
 22
274.95488126155777
 13
0.0
 23
0.0
 14
1.0
 24
1.0
 15
0.0
 25
0.0
 16
0.0
 26
0.0
 36
1.0
 17
0.0
 27
0.0
 37
0.0
 40
354.95525405820888
 41
1.7265193370165739
 42
50.0
 43
0.0
 44
0.0
 50
0.0
 51
0.0
 71
     0
 72
   100
 73
     1
 74
     1
 75
     0
 76
     0
 77
     0
 78
     0
  0
ENDTAB
  0
TABLE
  2
LTYPE
 70
     1
  0
LTYPE
  2
CONTINUOUS
 70
     0
  3
Solid line
 72
    65
 73
     0
 40
0.0
  0
ENDTAB
  0
TABLE
  2
LAYER
 70
    23
  0
LAYER
  2
0
 70
     0
 62
     7
  6
CONTINUOUS
  0
LAYER
  2
DEFPOINTS
 70
     0
 62
     7
  6
CONTINUOUS
  0
LAYER
  2
SAPA_ARTIKELNR
 70
     0
 62
     4
  6
CONTINUOUS
  0
LAYER
  2
SAPA_ANSLUTNING
 70
     0
 62
     6
  6
CONTINUOUS
  0
LAYER
  2
SAPA_GLAS
 70
     0
 62
     4
  6
CONTINUOUS
  0
LAYER
  2
SAPA_FOGBAND
 70
     0
 62
     2
  6
CONTINUOUS
  0
LAYER
  2
SAPA_PROFIL
 70
     0
 62
     7
  6
CONTINUOUS
  0
LAYER
  2
SAPA_MATT
 70
     0
 62
     1
  6
CONTINUOUS
  0
ENDTAB
  0
TABLE
  2
STYLE
 70
     2
  0
STYLE
  2
STANDARD
 70
     0
 40
0.0
 41
1.0
 50
0.0
 71
     0
 42
0.2
  3
txt
  4

  0
STYLE
  2
ISO
 70
     0
 40
0.0
 41
1.0
 50
0.0
 71
     0
 42
3.5
  3
txt
  4

  0
ENDTAB
  0
TABLE
  2
VIEW
 70
     0
  0
ENDTAB
  0
TABLE
  2
UCS
 70
     0
  0
ENDTAB
  0
TABLE
  2
APPID
 70
    22
  0
APPID
  2
ACAD
 70
     0
  0
APPID
  2
ACAD_DSTYLE_DIMTEXT_FILL
 70
     0
  0
APPID
  2
ACAD_DSTYLE_DIMEXT_LENGTH
 70
     0
  0
APPID
  2
ACAD_DSTYLE_DIMEXT_ENABLED
 70
     0
  0
APPID
  2
ACAD_DSTYLE_DIM_LINETYPE
 70
     0
  0
APPID
  2
ACAD_DSTYLE_DIM_EXT1_LINETYPE
 70
     0
  0
APPID
  2
ACAD_DSTYLE_DIM_EXT2_LINETYPE
 70
     0
  0
APPID
  2
ACAD_DSTYLE_DIMJOGGED_JOGA
 70
     0
  0
APPID
  2
ACAD_DSTYLE_DIMARC_LENGTH_
 70
     0
  0
APPID
  2
ACAD_PSEXT
 70
     0
  0
APPID
  2
ACAD_MLEADERVER
 70
     0
  0
APPID
  2
ACAD_NAV_VCDISPLAY
 70
     0
  0
APPID
  2
GENIUS_GENODEF_13
 70
     0
  0
APPID
  2
RC_PROFILE
 70
     0
  0
APPID
  2
ACAECLAYERSTANDARD
 70
     0
  0
APPID
  2
GENIUS_GENOBJ-N-FIL_13
 70
     0
  0
APPID
  2
GENIUS_GENREC_14
 70
     0
  0
APPID
  2
GENIUS_GENOBJ-N-REC_13
 70
     0
  0
APPID
  2
ACCMTRANSPARENCY
 70
     0
  0
APPID
  2
GRADIENTCOLOR1ACI
 70
     0
  0
APPID
  2
GRADIENTCOLOR2ACI
 70
     0
  0
APPID
  2
ACAD_EXEMPT_FROM_CAD_STANDARDS
 70
     0
  0
ENDTAB
  0
TABLE
  2
DIMSTYLE
 70
     2
  0
DIMSTYLE
  2
STANDARD
 70
     0
  3

  4

  5

  6

  7

 40
1.0
 41
0.18
 42
0.0625
 43
0.38
 44
0.18
 45
0.0
 46
0.0
 47
0.0
 48
0.0
140
0.18
141
0.09
142
0.0
143
25.399999999999999
144
1.0
145
0.0
146
1.0
147
0.09
 71
     0
 72
     0
 73
     1
 74
     1
 75
     0
 76
     0
 77
     0
 78
     0
170
     0
171
     2
172
     0
173
     0
174
     0
175
     0
176
     0
177
     0
178
     0
  0
DIMSTYLE
  2
MASKIN
 70
     0
  3

  4

  5

  6

  7

 40
0.0
 41
3.0
 42
1.5
 43
10.0
 44
1.5
 45
0.0
 46
0.0
 47
0.0
 48
0.0
140
3.0
141
-5.0
142
0.0
143
25.399999999999999
144
-1.0
145
0.0
146
1.0
147
1.0
 71
     0
 72
     0
 73
     0
 74
     0
 75
     0
 76
     0
 77
     1
 78
     8
170
     0
171
     0
172
     1
173
     0
174
     0
175
     0
176
   256
177
   256
178
     2
  0
ENDTAB
  0
ENDSEC
  0
SECTION
  2
BLOCKS
  0
BLOCK
  8
0
  2
$MODEL_SPACE
 70
     0
 10
0.0
 20
0.0
 30
0.0
  3
$MODEL_SPACE
  1

  0
ENDBLK
  5
37
  8
0
  0
BLOCK
 67
     1
  8
0
  2
$PAPER_SPACE
 70
     0
 10
0.0
 20
0.0
 30
0.0
  3
$PAPER_SPACE
  1

  0
ENDBLK
  5
35
 67
     1
  8
0
  0
BLOCK
  8
0
  2
*D8
 70
     1
 10
0.0
 20
0.0
 30
0.0
  3
*D8
  1

  0
LINE
  5
1696
  8
SAPA_MATT
 10
-12.75055527878726
 20
65.000000071509476
 30
0.0
 11
-70.75055527878726
 21
65.00000007150949
 31
0.0
  0
LINE
  5
1697
  8
SAPA_MATT
 10
-12.75055527878726
 20
215.00000007150791
 30
0.0
 11
-70.750555278787232
 21
215.00000007150791
 31
0.0
  0
LINE
  5
1698
  8
SAPA_MATT
 10
-69.25055527878726
 20
68.000000071509476
 30
0.0
 11
-69.250555278787232
 21
212.00000007150791
 31
0.0
  0
SOLID
  5
1699
  8
SAPA_MATT
 10
-69.75055527878726
 20
68.000000071509476
 30
0.0
 11
-68.75055527878726
 21
68.000000071509476
 31
0.0
 12
-69.25055527878726
 22
65.00000007150949
 32
0.0
 13
-69.25055527878726
 23
65.00000007150949
 33
0.0
  0
SOLID
  5
169A
  8
SAPA_MATT
 10
-69.750555278787232
 20
212.00000007150791
 30
0.0
 11
-68.750555278787232
 21
212.00000007150791
 31
0.0
 12
-69.250555278787232
 22
215.00000007150791
 32
0.0
 13
-69.250555278787232
 23
215.00000007150791
 33
0.0
  0
INSERT
  5
169B
  8
0
  2
*U20
 10
0.0
 20
0.0
 30
0.0
  0
POINT
  5
169C
  8
DEFPOINTS
 62
     0
 10
-11.25055527878726
 20
65.000000071509476
 30
0.0
  0
POINT
  5
169D
  8
DEFPOINTS
 62
     0
 10
-11.25055527878726
 20
215.00000007150791
 30
0.0
  0
POINT
  5
169E
  8
DEFPOINTS
 62
     0
 10
-69.250555278787232
 20
215.00000007150791
 30
0.0
  0
ENDBLK
  5
1606
  8
0
  0
BLOCK
  8
0
  2
*D9
 70
     1
 10
0.0
 20
0.0
 30
0.0
  3
*D9
  1

  0
LINE
  5
1802
  8
SAPA_MATT
 10
-14.08255181678828
 20
147.00000000027421
 30
0.0
 11
-58.750555278787239
 21
147.00000000027421
 31
0.0
  0
LINE
  5
1803
  8
SAPA_MATT
 10
-12.75055527878726
 20
64.999999999995225
 30
0.0
 11
-58.75055527878726
 21
64.999999999995225
 31
0.0
  0
LINE
  5
1804
  8
SAPA_MATT
 10
-57.250555278787239
 20
144.00000000027421
 30
0.0
 11
-57.25055527878726
 21
67.999999999995239
 31
0.0
  0
TEXT
  8
SAPA_MATT
  40
3
  5
181B
  62
2
  72
0
  71
0
 10
-64.9900
 20
96.3323
 30
0.000000
  1
82
  7
ISO
  0
SOLID
  5
1806
  8
SAPA_MATT
 10
-57.750555278787232
 20
144.00000000027421
 30
0.0
 11
-56.750555278787239
 21
144.00000000027421
 31
0.0
 12
-57.250555278787239
 22
147.00000000027421
 32
0.0
 13
-57.250555278787239
 23
147.00000000027421
 33
0.0
  0
SOLID
  5
1807
  8
SAPA_MATT
 10
-57.75055527878726
 20
67.999999999995239
 30
0.0
 11
-56.75055527878726
 21
67.999999999995239
 31
0.0
 12
-57.25055527878726
 22
64.999999999995225
 32
0.0
 13
-57.25055527878726
 23
64.999999999995225
 33
0.0
  0
POINT
  5
1808
  8
DEFPOINTS
 62
     0
 10
-12.58255181678828
 20
147.00000000027421
 30
0.0
  0
POINT
  5
1809
  8
DEFPOINTS
 62
     0
 10
-11.25055527878726
 20
64.999999999995225
 30
0.0
  0
POINT
  5
180A
  8
DEFPOINTS
 62
     0
 10
-57.25055527878726
 20
64.999999999995225
 30
0.0
  0
ENDBLK
  5
1612
  8
0
  0
BLOCK
  8
0
  2
*D10
 70
     1
 10
0.0
 20
0.0
 30
0.0
  3
*D10
  1

  0
LINE
  5
17F9
  8
SAPA_MATT
 10
-14.250555278789079
 20
209.99999999999341
 30
0.0
 11
-58.750555278787239
 21
209.99999999999341
 31
0.0
  0
LINE
  5
17FA
  8
SAPA_MATT
 10
-14.08255181678828
 20
147.00000000027421
 30
0.0
 11
-58.750555278787253
 21
147.00000000027421
 31
0.0
  0
LINE
  5
17FB
  8
SAPA_MATT
 10
-57.250555278787253
 20
206.99999999999341
 30
0.0
 11
-57.25055527878726
 21
150.00000000027421
 31
0.0
  0
SOLID
  5
17FC
  8
SAPA_MATT
 10
-57.750555278787253
 20
206.99999999999341
 30
0.0
 11
-56.75055527878726
 21
206.99999999999341
 31
0.0
 12
-57.250555278787239
 22
209.99999999999341
 32
0.0
 13
-57.250555278787239
 23
209.99999999999341
 33
0.0
  0
SOLID
  5
17FD
  8
SAPA_MATT
 10
-57.75055527878726
 20
150.00000000027421
 30
0.0
 11
-56.75055527878726
 21
150.00000000027421
 31
0.0
 12
-57.25055527878726
 22
147.00000000027421
 32
0.0
 13
-57.25055527878726
 23
147.00000000027421
 33
0.0
  0
TEXT
  8
SAPA_MATT
  40
3
  5
181C
  62
2
  72
0
  71
0
 10
-65.7506
 20
173.190
 30
0.000000
  1
63
  7
ISO
  0
POINT
  5
17FF
  8
DEFPOINTS
 62
     0
 10
-12.750555278789079
 20
209.99999999999341
 30
0.0
  0
POINT
  5
1800
  8
DEFPOINTS
 62
     0
 10
-12.58255181678828
 20
147.00000000027421
 30
0.0
  0
POINT
  5
1801
  8
DEFPOINTS
 62
     0
 10
-57.25055527878726
 20
147.00000000027421
 30
0.0
  0
ENDBLK
  5
161E
  8
0
  0
BLOCK
  8
0
  2
*D11
 70
     1
 10
0.0
 20
0.0
 30
0.0
  3
*D11
  1

  0
LINE
  5
1679
  8
SAPA_MATT
 10
-12.75055527878726
 20
215.00000014302299
 30
0.0
 11
-58.750555278787218
 21
215.00000014302299
 31
0.0
  0
LINE
  5
167A
  8
SAPA_MATT
 10
-14.250555278789079
 20
210.00000014300889
 30
0.0
 11
-58.750555278787218
 21
210.00000014300889
 31
0.0
  0
LINE
  5
167B
  8
SAPA_MATT
 10
-57.250555278787232
 20
218.00000014302299
 30
0.0
 11
-57.250555278787232
 21
221.0000001430231
 31
0.0
  0
LINE
  5
167C
  8
SAPA_MATT
 10
-57.250555278787232
 20
207.000000143009
 30
0.0
 11
-57.250555278787232
 21
204.00000014300889
 31
0.0
  0
LINE
  5
167D
  8
SAPA_MATT
 10
-57.250555278787232
 20
215.00000014302299
 30
0.0
 11
-57.250555278787232
 21
210.00000014300889
 31
0.0
  0
SOLID
  5
167E
  8
SAPA_MATT
 10
-57.750555278787232
 20
218.00000014302299
 30
0.0
 11
-56.750555278787218
 21
218.00000014302299
 31
0.0
 12
-57.250555278787232
 22
215.00000014302299
 32
0.0
 13
-57.250555278787232
 23
215.00000014302299
 33
0.0
  0
SOLID
  5
167F
  8
SAPA_MATT
 10
-57.750555278787232
 20
207.000000143009
 30
0.0
 11
-56.750555278787232
 21
207.000000143009
 31
0.0
 12
-57.250555278787232
 22
210.00000014300889
 32
0.0
 13
-57.250555278787232
 23
210.00000014300889
 33
0.0
  0
INSERT
  5
1680
  8
0
  2
*U19
 10
0.0
 20
0.0
 30
0.0
  0
POINT
  5
1681
  8
DEFPOINTS
 62
     0
 10
-11.25055527878726
 20
215.00000014302299
 30
0.0
  0
POINT
  5
1682
  8
DEFPOINTS
 62
     0
 10
-12.750555278789079
 20
210.00000014300889
 30
0.0
  0
POINT
  5
1683
  8
DEFPOINTS
 62
     0
 10
-57.250555278787232
 20
210.00000014300889
 30
0.0
  0
ENDBLK
  5
162A
  8
0
  0
BLOCK
  8
0
  2
*D12
 70
     1
 10
0.0
 20
0.0
 30
0.0
  3
*D12
  1

  0
LINE
  5
1670
  8
SAPA_MATT
 10
-18.250555278787711
 20
206.95000000050999
 30
0.0
 11
-18.250555278787711
 21
257.99999992826628
 31
0.0
  0
LINE
  5
1671
  8
SAPA_MATT
 10
46.749444721210921
 20
216.19999999998839
 30
0.0
 11
46.749444721210921
 21
257.99999992826628
 31
0.0
  0
LINE
  5
1672
  8
SAPA_MATT
 10
-15.25055527878771
 20
256.49999992826628
 30
0.0
 11
43.749444721210921
 21
256.49999992826628
 31
0.0
  0
SOLID
  5
1673
  8
SAPA_MATT
 10
-15.25055527878771
 20
256.99999992826628
 30
0.0
 11
-15.25055527878771
 21
255.99999992826631
 31
0.0
 12
-18.250555278787711
 22
256.49999992826628
 32
0.0
 13
-18.250555278787711
 23
256.49999992826628
 33
0.0
  0
SOLID
  5
1674
  8
SAPA_MATT
 10
43.749444721210921
 20
256.99999992826628
 30
0.0
 11
43.749444721210921
 21
255.99999992826631
 31
0.0
 12
46.749444721210921
 22
256.49999992826628
 32
0.0
 13
46.749444721210921
 23
256.49999992826628
 33
0.0
  0
INSERT
  5
1675
  8
0
  2
*U18
 10
0.0
 20
0.0
 30
0.0
  0
POINT
  5
1676
  8
DEFPOINTS
 62
     0
 10
-18.250555278787711
 20
205.45000000050999
 30
0.0
  0
POINT
  5
1677
  8
DEFPOINTS
 62
     0
 10
46.749444721210921
 20
214.69999999998839
 30
0.0
  0
POINT
  5
1678
  8
DEFPOINTS
 62
     0
 10
46.749444721210921
 20
256.49999992826628
 30
0.0
  0
ENDBLK
  5
1638
  8
0
  0
BLOCK
  8
0
  2
*D13
 70
     1
 10
0.0
 20
0.0
 30
0.0
  3
*D13
  1

  0
LINE
  5
1667
  8
SAPA_MATT
 10
46.749444721210921
 20
216.19999999998839
 30
0.0
 11
46.749444721210921
 21
245.99999992826631
 31
0.0
  0
LINE
  5
1668
  8
SAPA_MATT
 10
-13.25055527878726
 20
214.49999999999361
 30
0.0
 11
-13.25055527878726
 21
245.99999992826631
 31
0.0
  0
LINE
  5
1669
  8
SAPA_MATT
 10
43.749444721210921
 20
244.49999992826631
 30
0.0
 11
-10.25055527878726
 21
244.49999992826631
 31
0.0
  0
SOLID
  5
166A
  8
SAPA_MATT
 10
43.749444721210921
 20
244.99999992826631
 30
0.0
 11
43.749444721210921
 21
243.99999992826631
 31
0.0
 12
46.749444721210921
 22
244.49999992826631
 32
0.0
 13
46.749444721210921
 23
244.49999992826631
 33
0.0
  0
SOLID
  5
166B
  8
SAPA_MATT
 10
-10.25055527878726
 20
244.99999992826631
 30
0.0
 11
-10.25055527878726
 21
243.99999992826631
 31
0.0
 12
-13.25055527878726
 22
244.49999992826631
 32
0.0
 13
-13.25055527878726
 23
244.49999992826631
 33
0.0
  0
INSERT
  5
166C
  8
0
  2
*U17
 10
0.0
 20
0.0
 30
0.0
  0
POINT
  5
166D
  8
DEFPOINTS
 62
     0
 10
46.749444721210921
 20
214.69999999998839
 30
0.0
  0
POINT
  5
166E
  8
DEFPOINTS
 62
     0
 10
-13.25055527878726
 20
212.99999999999361
 30
0.0
  0
POINT
  5
166F
  8
DEFPOINTS
 62
     0
 10
-13.25055527878726
 20
244.49999992826631
 30
0.0
  0
ENDBLK
  5
1644
  8
0
  0
BLOCK
  8
0
  2
*D14
 70
     1
 10
0.0
 20
0.0
 30
0.0
  3
*D14
  1

  0
LINE
  5
17EE
  8
SAPA_MATT
 10
-13.25055527878726
 20
214.49999999999341
 30
0.0
 11
-13.25055527878726
 21
246.00000000001361
 31
0.0
  0
LINE
  5
17EF
  8
SAPA_MATT
 10
-18.250555278787711
 20
206.95000000050999
 30
0.0
 11
-18.250555278787711
 21
246.00000000001361
 31
0.0
  0
LINE
  5
17F0
  8
SAPA_MATT
 10
-10.25055527878726
 20
244.5000000000137
 30
0.0
 11
-7.2505552787872576
 21
244.5000000000137
 31
0.0
  0
LINE
  5
17F1
  8
SAPA_MATT
 10
-21.250555278787711
 20
244.5000000000137
 30
0.0
 11
-24.250555278787711
 21
244.5000000000137
 31
0.0
  0
LINE
  5
17F2
  8
SAPA_MATT
 10
-13.25055527878726
 20
244.5000000000137
 30
0.0
 11
-18.250555278787711
 21
244.5000000000137
 31
0.0
  0
SOLID
  5
17F3
  8
SAPA_MATT
 10
-10.25055527878726
 20
245.00000000001361
 30
0.0
 11
-10.25055527878726
 21
244.00000000001361
 31
0.0
 12
-13.25055527878726
 22
244.5000000000137
 32
0.0
 13
-13.25055527878726
 23
244.5000000000137
 33
0.0
  0
SOLID
  5
17F4
  8
SAPA_MATT
 10
-21.250555278787711
 20
245.00000000001361
 30
0.0
 11
-21.250555278787711
 21
244.00000000001361
 31
0.0
 12
-18.250555278787711
 22
244.5000000000137
 32
0.0
 13
-18.250555278787711
 23
244.5000000000137
 33
0.0
  0
TEXT
  8
SAPA_MATT
  40
3
  5
181D
  62
2
  72
0
  71
0
 10
-21.7506
 20
241.690
 30
0.000000
  1
5
  7
ISO
  0
POINT
  5
17F6
  8
DEFPOINTS
 62
     0
 10
-13.25055527878726
 20
212.99999999999341
 30
0.0
  0
POINT
  5
17F7
  8
DEFPOINTS
 62
     0
 10
-18.250555278787711
 20
205.45000000050999
 30
0.0
  0
POINT
  5
17F8
  8
DEFPOINTS
 62
     0
 10
-18.250555278787711
 20
244.5000000000137
 30
0.0
  0
ENDBLK
  5
1650
  8
0
  0
BLOCK
  8
0
  2
*X15
 70
     1
 10
0.0
 20
0.0
 30
0.0
  3
*X15
  1

  0
LINE
  5
16F9
  8
0
 62
     0
 10
-12.602274982379569
 20
214.84085822244421
 30
0.0
 11
-12.398891655627059
 21
214.6374748956917
 31
0.0
  0
LINE
  5
16FA
  8
0
 62
     0
 10
-12.484032271911399
 20
215.8451475271097
 30
0.0
 11
-11.606886008517961
 21
214.96800126371619
 31
0.0
  0
LINE
  5
16FB
  8
0
 62
     0
 10
-12.40370016345879
 20
216.88734743379069
 30
0.0
 11
-10.51635286758569
 21
215.0000001379176
 31
0.0
  0
LINE
  5
16FC
  8
0
 62
     0
 10
-12.365503446455699
 20
217.97168273192131
 30
0.0
 11
-9.393820844646612
 21
215.0000001301122
 31
0.0
  0
LINE
  5
16FD
  8
0
 62
     0
 10
-12.37478430577268
 20
219.10349560637189
 30
0.0
 11
-8.2712888217075005
 21
215.00000012230669
 31
0.0
  0
LINE
  5
16FE
  8
0
 62
     0
 10
-12.43845731152309
 20
220.28970062725591
 30
0.0
 11
-7.1487567987684377
 21
215.00000011450129
 31
0.0
  0
LINE
  5
16FF
  8
0
 62
     0
 10
-12.56573827503308
 20
221.5395136058996
 30
0.0
 11
-6.0262247758293412
 21
215.00000010669581
 31
0.0
  0
LINE
  5
1700
  8
0
 62
     0
 10
-12.769381001523261
 20
222.86568834752339
 30
0.0
 11
-4.9036927528902794
 21
215.00000009889041
 31
0.0
  0
LINE
  5
1701
  8
0
 62
     0
 10
-13.06793771327235
 20
224.2867770744061
 30
0.0
 11
-3.781160729951174
 21
215.0000000910849
 31
0.0
  0
LINE
  5
1702
  8
0
 62
     0
 10
-3.0247765351559428
 20
215.36614791142341
 30
0.0
 11
-2.6586287070121051
 21
215.0000000832795
 31
0.0
  0
LINE
  5
1703
  8
0
 62
     0
 10
-12.65862869487643
 20
225.0000000711438
 30
0.0
 11
-6.3333619601972231
 21
218.67473333646461
 31
0.0
  0
LINE
  5
1704
  8
0
 62
     0
 10
-1.570369798632945
 20
215.03427319003401
 30
0.0
 11
-1.5360966840730079
 21
215.00000007547411
 31
0.0
  0
LINE
  5
1705
  8
0
 62
     0
 10
-11.53609667974278
 20
225.0000000711438
 30
0.0
 11
-6.5344057875734469
 21
219.99830917897449
 31
0.0
  0
LINE
  5
1706
  8
0
 62
     0
 10
-10.413564664609151
 20
225.0000000711438
 30
0.0
 11
-6.4194767989965982
 21
221.0059122055313
 31
0.0
  0
LINE
  5
1707
  8
0
 62
     0
 10
-9.2910326494754951
 20
225.0000000711438
 30
0.0
 11
-6.1372023978054102
 21
221.8461698194738
 31
0.0
  0
LINE
  5
1708
  8
0
 62
     0
 10
-8.1685006343418678
 20
225.0000000711438
 30
0.0
 11
-5.7364304031934017
 21
222.5679298399954
 31
0.0
  0
LINE
  5
1709
  8
0
 62
     0
 10
-7.0459686192082174
 20
225.0000000711438
 30
0.0
 11
-5.238969719733773
 21
223.19300117166941
 31
0.0
  0
LINE
  5
170A
  8
0
 62
     0
 10
-5.9234366040745812
 20
225.0000000711438
 30
0.0
 11
-4.6548669665114266
 21
223.7314304335807
 31
0.0
  0
LINE
  5
170B
  8
0
 62
     0
 10
-4.800904588940937
 20
225.0000000711438
 30
0.0
 11
-3.98711872014163
 21
224.18621420234459
 31
0.0
  0
LINE
  5
170C
  8
0
 62
     0
 10
-3.678372573807287
 20
225.0000000711438
 30
0.0
 11
-3.2328373012258629
 21
224.55446479856241
 31
0.0
  0
LINE
  5
170D
  8
0
 62
     0
 10
-2.5558405586736579
 20
225.0000000711438
 30
0.0
 11
-2.3821291894092118
 21
224.82628870187941
 31
0.0
  0
LINE
  5
170E
  8
0
 62
     0
 10
-1.4333085435399999
 20
225.0000000711438
 30
0.0
 11
-1.413478167729195
 21
224.9801696953331
 31
0.0
  0
LINE
  5
170F
  8
0
 62
     0
 10
-1.9240365703765709
 20
215.00000007817161
 30
0.0
 11
-1.8535909928488641
 21
215.0704456556993
 31
0.0
  0
LINE
  5
1710
  8
0
 62
     0
 10
-3.0465685777047891
 20
215.00000008597701
 30
0.0
 11
-2.766905857260368
 21
215.2796628064215
 31
0.0
  0
LINE
  5
1711
  8
0
 62
     0
 10
-4.1691005850330072
 20
215.00000009378249
 30
0.0
 11
-3.5736679390841881
 21
215.59543273973131
 31
0.0
  0
LINE
  5
1712
  8
0
 62
     0
 10
-5.2916325923611964
 20
215.00000010158789
 30
0.0
 11
-4.2893708154354471
 21
216.00226187851371
 31
0.0
  0
LINE
  5
1713
  8
0
 62
     0
 10
-6.4141645996894141
 20
215.00000010939331
 30
0.0
 11
-4.9205441466456534
 21
216.49362056243709
 31
0.0
  0
LINE
  5
1714
  8
0
 62
     0
 10
-7.5366966070176167
 20
215.00000011719879
 30
0.0
 11
-5.467500206839631
 21
217.06919651737681
 31
0.0
  0
LINE
  5
1715
  8
0
 62
     0
 10
-8.659228614345821
 20
215.00000012500419
 30
0.0
 11
-5.9244525763169804
 21
217.7347761630331
 31
0.0
  0
LINE
  5
1716
  8
0
 62
     0
 10
-9.7817606216740245
 20
215.0000001328097
 30
0.0
 11
-6.2771300805242731
 21
218.50463067395941
 31
0.0
  0
LINE
  5
1717
  8
0
 62
     0
 10
-10.90429262900223
 20
215.0000001406151
 30
0.0
 11
-6.4950357922678563
 21
219.40925697734949
 31
0.0
  0
LINE
  5
1718
  8
0
 62
     0
 10
-2.1491608104287532
 20
224.87766397432219
 30
0.0
 11
-2.0268247136071258
 21
225.0000000711438
 31
0.0
  0
LINE
  5
1719
  8
0
 62
     0
 10
-12.36835293708169
 20
214.65847184766929
 30
0.0
 11
-6.50353706915726
 21
220.52328771559371
 31
0.0
  0
LINE
  5
171A
  8
0
 62
     0
 10
-3.930909252742921
 20
224.21844754714169
 30
0.0
 11
-3.1493567287407549
 21
225.0000000711438
 31
0.0
  0
LINE
  5
171B
  8
0
 62
     0
 10
-12.504387258972359
 20
215.64496954091231
 30
0.0
 11
-5.9751515359898368
 21
222.17420526389481
 31
0.0
  0
LINE
  5
171C
  8
0
 62
     0
 10
-12.404856457213009
 20
216.86703235780519
 30
0.0
 11
-4.2718887438744133
 21
225.0000000711438
 31
0.0
  0
LINE
  5
171D
  8
0
 62
     0
 10
-12.36475959115627
 20
218.0296612389956
 30
0.0
 11
-5.3944207590080557
 21
225.0000000711438
 31
0.0
  0
LINE
  5
171E
  8
0
 62
     0
 10
-12.37595108121215
 20
219.14100176407339
 30
0.0
 11
-6.5169527741416848
 21
225.0000000711438
 31
0.0
  0
LINE
  5
171F
  8
0
 62
     0
 10
-12.432239206912991
 20
220.20724565350619
 30
0.0
 11
-7.6394847892753432
 21
225.0000000711438
 31
0.0
  0
LINE
  5
1720
  8
0
 62
     0
 10
-12.52879062614987
 20
221.233226249403
 30
0.0
 11
-8.7620168044089723
 21
225.0000000711438
 31
0.0
  0
LINE
  5
1721
  8
0
 62
     0
 10
-12.661751019292421
 20
222.22279787139411
 30
0.0
 11
-9.8845488195426299
 21
225.0000000711438
 31
0.0
  0
LINE
  5
1722
  8
0
 62
     0
 10
-12.827993004687629
 20
223.1790879011325
 30
0.0
 11
-11.00708083467627
 21
225.0000000711438
 31
0.0
  0
LINE
  5
1723
  8
0
 62
     0
 10
-13.02494270271225
 20
224.10467021824149
 30
0.0
 11
-12.129612849809909
 21
225.0000000711438
 31
0.0
  0
ENDBLK
  5
1725
  8
0
  0
BLOCK
  8
0
  2
*X16
 70
     1
 10
0.0
 20
0.0
 30
0.0
  3
*X16
  1

  0
LINE
  5
1727
  8
0
 62
     0
 10
4.1673894712811821
 20
218.47810465968351
 30
0.0
 11
4.5063830584806066
 21
218.67382269850671
 31
0.0
  0
LINE
  5
1728
  8
0
 62
     0
 10
2.1051664785194868
 20
217.28747965968361
 30
0.0
 11
2.7925741427733879
 21
217.68435465968361
 31
0.0
  0
LINE
  5
1729
  8
0
 62
     0
 10
0.0429434857577935
 20
216.0968546596836
 30
0.0
 11
0.7303511500116944
 21
216.49372965968359
 31
0.0
  0
LINE
  5
172A
  8
0
 62
     0
 10
-1.7584318626965381
 20
215.05683011734189
 30
0.0
 11
-1.33187184275
 21
215.30310465968361
 31
0.0
  0
LINE
  5
172B
  8
0
 62
     0
 10
3.4799819712811861
 20
219.6687293751875
 30
0.0
 11
4.1673896355350868
 21
220.06560437518741
 31
0.0
  0
LINE
  5
172C
  8
0
 62
     0
 10
1.417758978519492
 20
218.47810437518751
 30
0.0
 11
2.1051666427733919
 21
218.87497937518739
 31
0.0
  0
LINE
  5
172D
  8
0
 62
     0
 10
-0.6444640142422023
 20
217.2874793751875
 30
0.0
 11
0.0429436500116984
 21
217.6843543751875
 31
0.0
  0
LINE
  5
172E
  8
0
 62
     0
 10
-2.7066870070038962
 20
216.09685437518749
 30
0.0
 11
-2.0192793427499951
 21
216.49372937518751
 31
0.0
  0
LINE
  5
172F
  8
0
 62
     0
 10
2.7925744712811751
 20
220.85935409069131
 30
0.0
 11
3.4799821355350748
 21
221.25622909069131
 31
0.0
  0
LINE
  5
1730
  8
0
 62
     0
 10
0.7303514785194807
 20
219.6687290906913
 30
0.0
 11
1.4177591427733811
 21
220.06560409069129
 31
0.0
  0
LINE
  5
1731
  8
0
 62
     0
 10
-1.3318715142422131
 20
218.47810409069129
 30
0.0
 11
-0.6444638499883131
 21
218.87497909069131
 31
0.0
  0
LINE
  5
1732
  8
0
 62
     0
 10
-3.3940945070039081
 20
217.28747909069131
 30
0.0
 11
-2.706686842750007
 21
217.68435409069139
 31
0.0
  0
LINE
  5
1733
  8
0
 62
     0
 10
-4.8609872614663914
 20
216.44056816403011
 30
0.0
 11
-4.7689098355117006
 21
216.4937290906914
 31
0.0
  0
LINE
  5
1734
  8
0
 62
     0
 10
2.1051669712811938
 20
222.04997880619521
 30
0.0
 11
2.792574635535094
 21
222.44685380619521
 31
0.0
  0
LINE
  5
1735
  8
0
 62
     0
 10
0.0429439785195003
 20
220.85935380619529
 30
0.0
 11
0.730351642773401
 21
221.25622880619531
 31
0.0
  0
LINE
  5
1736
  8
0
 62
     0
 10
-2.0192790142421941
 20
219.6687288061953
 30
0.0
 11
-1.331871349988293
 21
220.0656038061953
 31
0.0
  0
LINE
  5
1737
  8
0
 62
     0
 10
-4.0815020070038877
 20
218.47810380619529
 30
0.0
 11
-3.394094342749987
 21
218.87497880619529
 31
0.0
  0
LINE
  5
1738
  8
0
 62
     0
 10
-5.7797727805675967
 20
217.4976067179214
 30
0.0
 11
-5.456317335511681
 21
217.6843538061953
 31
0.0
  0
LINE
  5
1739
  8
0
 62
     0
 10
1.4177594712811701
 20
223.2406035216992
 30
0.0
 11
2.105167135535071
 21
223.63747852169911
 31
0.0
  0
LINE
  5
173A
  8
0
 62
     0
 10
-0.6444635214805237
 20
222.04997852169919
 30
0.0
 11
0.0429441427733779
 21
222.4468535216991
 31
0.0
  0
LINE
  5
173B
  8
0
 62
     0
 10
-2.7066865142422181
 20
220.85935352169921
 30
0.0
 11
-2.0192788499883161
 21
221.2562285216992
 31
0.0
  0
LINE
  5
173C
  8
0
 62
     0
 10
-4.7689095070039116
 20
219.66872852169919
 30
0.0
 11
-4.0815018427500096
 21
220.06560352169919
 31
0.0
  0
LINE
  5
173D
  8
0
 62
     0
 10
-6.3565279409837254
 20
218.75211659147061
 30
0.0
 11
-6.143724835511704
 21
218.87497852169921
 31
0.0
  0
LINE
  5
173E
  8
0
 62
     0
 10
0.7303519712811957
 20
224.4312282372031
 30
0.0
 11
1.125642085963187
 21
224.6594490913227
 31
0.0
  0
LINE
  5
173F
  8
0
 62
     0
 10
-1.3318710214804981
 20
223.24060323720309
 30
0.0
 11
-0.6444633572265981
 21
223.63747823720311
 31
0.0
  0
LINE
  5
1740
  8
0
 62
     0
 10
-3.3940940142421931
 20
222.04997823720311
 30
0.0
 11
-2.7066863499882921
 21
222.4468532372031
 31
0.0
  0
LINE
  5
1741
  8
0
 62
     0
 10
-5.4563170070038867
 20
220.85935323720309
 30
0.0
 11
-4.7689093427499856
 21
221.25622823720309
 31
0.0
  0
LINE
  5
1742
  8
0
 62
     0
 10
-2.0192785214805071
 20
224.43122795270699
 30
0.0
 11
-1.331870857226606
 21
224.82810295270701
 31
0.0
  0
LINE
  5
1743
  8
0
 62
     0
 10
-4.0815015142422011
 20
223.24060295270701
 30
0.0
 11
-3.3940938499883009
 21
223.637477952707
 31
0.0
  0
LINE
  5
1744
  8
0
 62
     0
 10
-5.9960827970484161
 20
222.13521893369341
 30
0.0
 11
-5.4563168427499953
 21
222.44685295270699
 31
0.0
  0
LINE
  5
1745
  8
0
 62
     0
 10
-1.331900587182175
 20
215.30309584030479
 30
0.0
 11
-0.8084319768877424
 21
215.0008710972389
 31
0.0
  0
LINE
  5
1746
  8
0
 62
     0
 10
-3.394123579943868
 20
216.49372084030469
 30
0.0
 11
-2.7067159156899678
 21
216.0968458403047
 31
0.0
  0
LINE
  5
1747
  8
0
 62
     0
 10
-5.4563465727055611
 20
217.6843458403047
 30
0.0
 11
-4.76893890845166
 21
217.28747084030471
 31
0.0
  0
LINE
  5
1748
  8
0
 62
     0
 10
-0.644493087182168
 20
216.49372055580861
 30
0.0
 11
0.0429145770717319
 21
216.09684555580861
 31
0.0
  0
LINE
  5
1749
  8
0
 62
     0
 10
-2.7067160799438601
 20
217.68434555580859
 30
0.0
 11
-2.0193084156899608
 21
217.2874705558086
 31
0.0
  0
LINE
  5
174A
  8
0
 62
     0
 10
-4.7689390727055532
 20
218.8749705558086
 30
0.0
 11
-4.081531408451653
 21
218.47809555580861
 31
0.0
  0
LINE
  5
174B
  8
0
 62
     0
 10
-6.5331315133067642
 20
219.893527536292
 30
0.0
 11
-6.1437544012133456
 21
219.66872055580859
 31
0.0
  0
LINE
  5
174C
  8
0
 62
     0
 10
2.1051374055795251
 20
216.49372027131261
 30
0.0
 11
2.6851249545031721
 21
216.15886430381491
 31
0.0
  0
LINE
  5
174D
  8
0
 62
     0
 10
0.0429144128178329
 20
217.68434527131259
 30
0.0
 11
0.7303220770717327
 21
217.2874702713126
 31
0.0
  0
LINE
  5
174E
  8
0
 62
     0
 10
-2.0193085799438588
 20
218.87497027131261
 30
0.0
 11
-1.3319009156899599
 21
218.47809527131261
 31
0.0
  0
LINE
  5
174F
  8
0
 62
     0
 10
-4.0815315727055523
 20
220.0655952713125
 30
0.0
 11
-3.394123908451653
 21
219.66872027131259
 31
0.0
  0
LINE
  5
1750
  8
0
 62
     0
 10
-6.1437545654672441
 20
221.25622027131249
 30
0.0
 11
-5.4563469012133448
 21
220.85934527131261
 31
0.0
  0
LINE
  5
1751
  8
0
 62
     0
 10
2.7925449055795331
 20
217.68434498681651
 30
0.0
 11
3.4799525698334319
 21
217.28746998681649
 31
0.0
  0
LINE
  5
1752
  8
0
 62
     0
 10
0.7303219128178405
 20
218.8749699868165
 30
0.0
 11
1.41772957707174
 21
218.4780949868165
 31
0.0
  0
LINE
  5
1753
  8
0
 62
     0
 10
-1.331901079943852
 20
220.06559498681639
 30
0.0
 11
-0.6444934156899529
 21
219.6687199868164
 31
0.0
  0
LINE
  5
1754
  8
0
 62
     0
 10
-3.3941240727055448
 20
221.2562199868164
 30
0.0
 11
-2.7067164084516451
 21
220.85934498681641
 31
0.0
  0
LINE
  5
1755
  8
0
 62
     0
 10
-5.456347065467237
 20
222.44684498681639
 30
0.0
 11
-4.7689394012133377
 21
222.04996998681639
 31
0.0
  0
LINE
  5
1756
  8
0
 62
     0
 10
3.4799524055795281
 20
218.87496970232041
 30
0.0
 11
4.1673600698334274
 21
218.47809470232039
 31
0.0
  0
LINE
  5
1757
  8
0
 62
     0
 10
1.417729412817835
 20
220.0655947023204
 30
0.0
 11
2.1051370770717339
 21
219.6687197023204
 31
0.0
  0
LINE
  5
1758
  8
0
 62
     0
 10
-0.6444935799438573
 20
221.25621970232041
 30
0.0
 11
0.0429140843100417
 21
220.85934470232041
 31
0.0
  0
LINE
  5
1759
  8
0
 62
     0
 10
-2.7067165727055489
 20
222.44684470232039
 30
0.0
 11
-2.0193089084516509
 21
222.0499697023204
 31
0.0
  0
LINE
  5
175A
  8
0
 62
     0
 10
-4.7689395654672424
 20
223.6374697023204
 30
0.0
 11
-4.0815319012133431
 21
223.24059470232029
 31
0.0
  0
LINE
  5
175B
  8
0
 62
     0
 10
4.1673599055795343
 20
220.06559441782429
 30
0.0
 11
4.701090747194578
 21
219.7574447727431
 31
0.0
  0
LINE
  5
175C
  8
0
 62
     0
 10
2.1051369128178412
 20
221.2562194178243
 30
0.0
 11
2.7925445770717392
 21
220.8593444178243
 31
0.0
  0
LINE
  5
175D
  8
0
 62
     0
 10
0.0429139200561486
 20
222.4468444178242
 30
0.0
 11
0.7303215843100466
 21
222.04996941782429
 31
0.0
  0
LINE
  5
175E
  8
0
 62
     0
 10
-2.0193090727055441
 20
223.63746941782421
 30
0.0
 11
-1.3319014084516461
 21
223.2405944178243
 31
0.0
  0
LINE
  5
175F
  8
0
 62
     0
 10
-3.448482641187943
 20
224.46260316230629
 30
0.0
 11
-3.3941244012133391
 21
224.4312194178242
 31
0.0
  0
LINE
  5
1760
  8
0
 62
     0
 10
2.7925444128178429
 20
222.4468441333282
 30
0.0
 11
3.4799520770717409
 21
222.0499691333282
 31
0.0
  0
LINE
  5
1761
  8
0
 62
     0
 10
0.7303214200561508
 20
223.6374691333281
 30
0.0
 11
1.4177290843100481
 21
223.2405941333281
 31
0.0
  0
LINE
  5
1762
  8
0
 62
     0
 10
-1.3319015727055421
 20
224.82809413332811
 30
0.0
 11
-0.6444939084516448
 21
224.43121913332811
 31
0.0
  0
LINE
  5
1763
  8
0
 62
     0
 10
3.4799588114815738
 20
221.2562501434027
 30
0.0
 11
3.4799588114815738
 21
222.05000014340271
 31
0.0
  0
LINE
  5
1764
  8
0
 62
     0
 10
3.4799588114815738
 20
218.8750001434027
 30
0.0
 11
3.4799588114815738
 21
219.66875014340269
 31
0.0
  0
LINE
  5
1765
  8
0
 62
     0
 10
3.4799588114815738
 20
216.8809765822248
 30
0.0
 11
3.4799588114815738
 21
217.2875001434027
 31
0.0
  0
LINE
  5
1766
  8
0
 62
     0
 10
2.1051438114815761
 20
223.63750014340269
 30
0.0
 11
2.1051438114815761
 21
224.21791996398389
 31
0.0
  0
LINE
  5
1767
  8
0
 62
     0
 10
2.1051438114815761
 20
221.2562501434027
 30
0.0
 11
2.1051438114815761
 21
222.05000014340271
 31
0.0
  0
LINE
  5
1768
  8
0
 62
     0
 10
2.1051438114815761
 20
218.8750001434027
 30
0.0
 11
2.1051438114815761
 21
219.66875014340269
 31
0.0
  0
LINE
  5
1769
  8
0
 62
     0
 10
2.1051438114815761
 20
216.49375014340271
 30
0.0
 11
2.1051438114815761
 21
217.2875001434027
 31
0.0
  0
LINE
  5
176A
  8
0
 62
     0
 10
0.7303288114815789
 20
223.63750014340269
 30
0.0
 11
0.7303288114815789
 21
224.43125014340271
 31
0.0
  0
LINE
  5
176B
  8
0
 62
     0
 10
0.7303288114815789
 20
221.2562501434027
 30
0.0
 11
0.7303288114815789
 21
222.05000014340271
 31
0.0
  0
LINE
  5
176C
  8
0
 62
     0
 10
0.7303288114815788
 20
218.8750001434027
 30
0.0
 11
0.7303288114815788
 21
219.66875014340269
 31
0.0
  0
LINE
  5
176D
  8
0
 62
     0
 10
0.7303288114815786
 20
216.49375014340271
 30
0.0
 11
0.7303288114815786
 21
217.2875001434027
 31
0.0
  0
LINE
  5
176E
  8
0
 62
     0
 10
-0.6444861885184192
 20
223.63750014340269
 30
0.0
 11
-0.6444861885184192
 21
224.43125014340271
 31
0.0
  0
LINE
  5
176F
  8
0
 62
     0
 10
-0.6444861885184193
 20
221.2562501434027
 30
0.0
 11
-0.6444861885184193
 21
222.05000014340271
 31
0.0
  0
LINE
  5
1770
  8
0
 62
     0
 10
-0.6444861885184193
 20
218.8750001434027
 30
0.0
 11
-0.6444861885184193
 21
219.66875014340269
 31
0.0
  0
LINE
  5
1771
  8
0
 62
     0
 10
-0.6444861885184194
 20
216.49375014340271
 30
0.0
 11
-0.6444861885184194
 21
217.2875001434027
 31
0.0
  0
LINE
  5
1772
  8
0
 62
     0
 10
-2.0193011885184169
 20
223.63750014340269
 30
0.0
 11
-2.0193011885184169
 21
224.43125014340271
 31
0.0
  0
LINE
  5
1773
  8
0
 62
     0
 10
-2.0193011885184169
 20
221.2562501434027
 30
0.0
 11
-2.0193011885184169
 21
222.05000014340271
 31
0.0
  0
LINE
  5
1774
  8
0
 62
     0
 10
-2.0193011885184169
 20
218.8750001434027
 30
0.0
 11
-2.0193011885184169
 21
219.66875014340269
 31
0.0
  0
LINE
  5
1775
  8
0
 62
     0
 10
-2.0193011885184169
 20
216.49375014340271
 30
0.0
 11
-2.0193011885184169
 21
217.2875001434027
 31
0.0
  0
LINE
  5
1776
  8
0
 62
     0
 10
-3.394116188518423
 20
223.63750014340269
 30
0.0
 11
-3.394116188518423
 21
224.43125014340271
 31
0.0
  0
LINE
  5
1777
  8
0
 62
     0
 10
-3.394116188518423
 20
221.2562501434027
 30
0.0
 11
-3.394116188518423
 21
222.05000014340271
 31
0.0
  0
LINE
  5
1778
  8
0
 62
     0
 10
-3.394116188518423
 20
218.8750001434027
 30
0.0
 11
-3.394116188518423
 21
219.66875014340269
 31
0.0
  0
LINE
  5
1779
  8
0
 62
     0
 10
-3.394116188518423
 20
216.49375014340271
 30
0.0
 11
-3.394116188518423
 21
217.2875001434027
 31
0.0
  0
LINE
  5
177A
  8
0
 62
     0
 10
-4.7689311885184198
 20
223.63750014340269
 30
0.0
 11
-4.7689311885184198
 21
223.63839592925561
 31
0.0
  0
LINE
  5
177B
  8
0
 62
     0
 10
-4.7689311885184198
 20
221.2562501434027
 30
0.0
 11
-4.7689311885184198
 21
222.05000014340271
 31
0.0
  0
LINE
  5
177C
  8
0
 62
     0
 10
-4.7689311885184198
 20
218.8750001434027
 30
0.0
 11
-4.7689311885184198
 21
219.66875014340269
 31
0.0
  0
LINE
  5
177D
  8
0
 62
     0
 10
-4.7689311885184198
 20
216.49375014340271
 30
0.0
 11
-4.7689311885184198
 21
217.2875001434027
 31
0.0
  0
LINE
  5
177E
  8
0
 62
     0
 10
-6.1437461885184179
 20
221.2562501434027
 30
0.0
 11
-6.1437461885184179
 21
221.8314514632105
 31
0.0
  0
LINE
  5
177F
  8
0
 62
     0
 10
-6.1437461885184179
 20
218.8750001434027
 30
0.0
 11
-6.1437461885184179
 21
219.66875014340269
 31
0.0
  0
ENDBLK
  5
1781
  8
0
  0
BLOCK
  8
0
  2
*U17
 70
     1
 10
0.0
 20
0.0
 30
0.0
  3
*U17
  1

  0
TEXT
  5
180C
  8
SAPA_MATT
 62
     2
 10
14.649444721211831
 20
245.49999992826631
 30
0.0
 40
3.0
  1
60
  7
ISO
  0
ENDBLK
  5
180E
  8
0
  0
BLOCK
  8
0
  2
*U18
 70
     1
 10
0.0
 20
0.0
 30
0.0
  3
*U18
  1

  0
TEXT
  5
1810
  8
SAPA_MATT
 62
     2
 10
12.1494447212116
 20
257.49999992826628
 30
0.0
 40
3.0
  1
65
  7
ISO
  0
ENDBLK
  5
1812
  8
0
  0
BLOCK
  8
0
  2
*U19
 70
     1
 10
0.0
 20
0.0
 30
0.0
  3
*U19
  1

  0
TEXT
  5
1814
  8
SAPA_MATT
 62
     2
 10
-58.25055527878726
 20
211.45000014301601
 30
0.0
 40
3.0
  1
5
 50
90.0
  7
ISO
  0
ENDBLK
  5
1816
  8
0
  0
BLOCK
  8
0
  2
*U20
 70
     1
 10
0.0
 20
0.0
 30
0.0
  3
*U20
  1

  0
TEXT
  5
1818
  8
SAPA_MATT
 62
     2
 10
-70.25055527878726
 20
137.15000007150871
 30
0.0
 40
3.0
  1
150
 50
90.0
  7
ISO
  0
ENDBLK
  5
181A
  8
0
  0
ENDSEC
  0
SECTION
  2
ENTITIES
  0
POINT
  5
1191
  8
SAPA_FOGBAND
 10
-8.2505552787908982
 20
67.30000014302459
 30
0.0
 50
90.000000059636591
  0
POINT
  5
1192
  8
SAPA_FOGBAND
 10
-8.2505552787908982
 20
70.000000143024408
 30
0.0
 50
90.000000059636591
  0
POINT
  5
11B0
  8
SAPA_FOGBAND
 10
-8.2505552787908982
 20
67.300000143027773
 30
0.0
 50
90.0
  0
POINT
  5
11B1
  8
SAPA_FOGBAND
 10
-8.2505552787908982
 20
70.000000143024408
 30
0.0
 50
90.0
  0
LINE
  5
11BB
  8
SAPA_FOGBAND
 10
-8.1619547700095154
 20
68.600432674574677
 30
0.0
 11
-8.1619547700131534
 21
72.199009532425862
 31
0.0
  0
LINE
  5
11BC
  8
SAPA_FOGBAND
 10
-8.1619547700131534
 20
72.199009532425862
 30
0.0
 11
-8.3119547700109706
 21
72.199009532425862
 31
0.0
  0
LINE
  5
11BD
  8
SAPA_FOGBAND
 10
-8.3119547700109706
 20
72.199009532425862
 30
0.0
 11
-8.3119547700109706
 21
68.600432674574677
 31
0.0
  0
LINE
  5
11C2
  8
SAPA_GLAS
 10
-18.05055527878676
 20
151.75000014317291
 30
0.0
 11
-18.05055527878676
 21
152.5000001431861
 31
0.0
  0
LINE
  5
11C3
  8
SAPA_GLAS
 10
-5.2505552787756642
 20
152.5000001431861
 30
0.0
 11
-5.2505552787749821
 21
151.7500001431869
 31
0.0
  0
LINE
  5
11C5
  8
SAPA_GLAS
 10
-18.05055527878676
 20
205.25000014353759
 30
0.0
 11
-18.05055527878676
 21
204.5000001435244
 31
0.0
  0
LINE
  5
11C6
  8
SAPA_GLAS
 10
-5.2505552787756642
 20
204.5000001435244
 30
0.0
 11
-5.2505552787749821
 21
205.25000014352349
 31
0.0
  0
LINE
  5
11CC
  8
SAPA_GLAS
 10
-12.750555278789079
 20
210.00000014300869
 30
0.0
 11
-12.750555278789079
 21
206.5752678448473
 31
0.0
  0
LINE
  5
11CE
  8
SAPA_GLAS
 10
-13.08255181692652
 20
146.50000014297279
 30
0.0
 11
-13.08255181692652
 21
150.4520636452728
 31
0.0
  0
TEXT
  5
11CF
  8
SAPA_ARTIKELNR
 10
12.339950950756471
 20
59.609108100461292
 30
0.0000000048844772
 40
3.5
  1
D9K025
  7
ISO
  0
TEXT
  5
11D0
  8
SAPA_ARTIKELNR
 10
-33.736540157417721
 20
147.80581280538701
 30
0.0000000048844772
 40
3.5
  1
D9V005
  7
ISO
  0
INSERT
  5
11D5
  8
SAPA_ANSLUTNING
  6
CONTINUOUS
  2
*X15
 10
0.0
 20
0.0
 30
0.0
1001
ACAD
1000
HATCH
1002
{
1070
    19
1000
ANSI37
1040
0.25
1040
1.5707963267948959
1000
R14_HATCH_DATA
1000
11D5
1011
1.0
1021
0.0
1031
0.0
1021
0.0
1031
0.0
1011
0.0
1021
0.0
1031
0.0
1021
1.0
1031
0.0
1011
0.0
1021
0.0
1031
0.0
1021
0.0
1031
1.0
1040
0.0
1010
0.0
1020
0.0
1030
1.0
1000
ANSI37
1070
     0
1070
     0
1071
        1
1071
        1
1071
        6
1070
     3
1040
-0.9133486921743951
1040
220.00000007114389
1040
5.6210574168242138
1040
0.0000000000000003
1040
0.8895123513655372
1040
1.5707963267948959
1040
2.144309431217978
1070
     0
1070
     3
1040
-0.9133486921743951
1040
220.00000007114389
1040
5.6210574168242138
1040
0.0000000000000003
1040
0.8895123513655372
1040
2.144309431217978
1040
4.7123889803846888
1070
     0
1070
     1
1040
-0.9133486921753046
1040
225.0000000711438
1040
-13.24999992885045
1040
225.0000000711438
1070
     2
1040
-37.898292048725352
1040
218.32825849517991
1040
25.535278343560961
1040
-0.2643433246173932
1040
0.153886542787264
1070
     0
1070
     2
1040
-11.25055527878771
1040
213.00000014302299
1040
1.9999999999999349
1040
3.926990816987201
1040
4.7123889803848034
1070
     0
1070
     1
1040
-11.25055527878726
1040
215.00000014302279
1040
-0.9133486921746225
1040
215.00000007114389
1071
        0
1070
     0
1070
     1
1040
1.5707963267948959
1040
0.25
1070
     0
1070
     2
1040
0.7853981633974481
1040
-43.26375118851842
1040
76.000000143402758
1040
0.5612660075668221
1040
-0.5612660075668221
1070
     0
1040
5.4977871437821371
1040
-43.26375118851842
1040
76.000000143402758
1040
-0.5612660075668221
1040
-0.5612660075668221
1070
     0
1071
        1
1040
-9.6703646417911386
1040
218.9986764903922
1040
0.0
1002
}
  0
LINE
  5
11D6
  8
SAPA_ANSLUTNING
 10
61.750000071155
 20
65.000000143389116
 30
0.0
 11
61.750000071155
 21
225.0000000711438
 31
0.0
  0
LINE
  5
11D7
  8
SAPA_ANSLUTNING
 10
-13.24999992885045
 20
225.0000000711438
 30
0.0
 11
-13.24999992885045
 21
270.00325607780218
 31
0.0
  0
LINE
  5
11D8
  8
SAPA_ANSLUTNING
 10
61.750000071155
 20
225.0000000711438
 30
0.0
 11
-13.24999992885045
 21
225.0000000711438
 31
0.0
  0
INSERT
  5
11D9
  8
SAPA_ANSLUTNING
  6
CONTINUOUS
  2
*X16
 10
0.0
 20
0.0
 30
0.0
1001
ACAD
1000
HATCH
1002
{
1070
    19
1000
HEX
1040
0.25
1040
1.5707963267948959
1000
ASC_BOUNDS
1070
     1
1070
     1
1070
     1
1005
11DA
1000
ASC_SEEDPOINT
1011
-1.031686381231111
1021
0.0
1031
0.0
1021
220.2421100812185
1031
0.0
1000
R14_HATCH_DATA
1000
11D9
1011
1.0
1021
0.0
1031
0.0
1021
0.0
1031
0.0
1011
0.0
1021
0.0
1031
0.0
1021
1.0
1031
0.0
1011
0.0
1021
0.0
1031
0.0
1021
0.0
1031
1.0
1040
0.0
1010
0.0
1020
0.0
1030
1.0
1000
HEX
1070
     0
1070
     1
1071
        1
1071
        5
1071
        1
1070
     3
1040
-0.9133486921743951
1040
220.00000007114389
1040
5.6210574168242138
1040
0.0000000000000003
1040
0.8895123513655372
1040
0.0
1040
6.2831853071795862
1070
     1
1071
        1
1005
11DA
1070
     0
1070
     1
1040
1.5707963267948959
1040
0.25
1070
     0
1070
     3
1040
1.5707963267948959
1040
-43.26375118851842
1040
76.000000143402758
1040
1.374814999999999
1040
-0.0000000000000001
1070
     2
1040
0.79375
1040
-1.587499999999999
1040
5.7595865315812871
1040
-43.26375118851842
1040
76.000000143402758
1040
-0.6874074999999998
1040
-1.190624715503902
1070
     2
1040
0.7937499999999993
1040
-1.5874999999999979
1040
0.5235987755982992
1040
-43.26375118851842
1040
76.793750143402576
1040
0.6874075
1040
-1.190624715503902
1070
     2
1040
0.79375
1040
-1.587499999999999
1040
0.0591690278051155
1071
        1
1040
-1.031686381231111
1040
220.2421100812185
1040
0.0
1002
}
  0
POLYLINE
  5
11DA
  8
SAPA_ANSLUTNING
 10
4.7077087246498186
 20
220.00000007114389
 30
0.0
 66
     1
 70
     8
  0
VERTEX
  8
SAPA_ANSLUTNING
  5
181E
 10
4.70771
 20
220.000
 30
0.000000
  70
    32
  0
VERTEX
  8
SAPA_ANSLUTNING
  5
181F
 10
4.70094
 20
220.245
 30
0.000000
  70
    32
  0
VERTEX
  8
SAPA_ANSLUTNING
  5
1820
 10
4.68064
 20
220.490
 30
0.000000
  70
    32
  0
VERTEX
  8
SAPA_ANSLUTNING
  5
1821
 10
4.64687
 20
220.734
 30
0.000000
  70
    32
  0
VERTEX
  8
SAPA_ANSLUTNING
  5
1822
 10
4.59970
 20
220.975
 30
0.000000
  70
    32
  0
VERTEX
  8
SAPA_ANSLUTNING
  5
1823
 10
4.53925
 20
221.215
 30
0.000000
  70
    32
  0
VERTEX
  8
SAPA_ANSLUTNING
  5
1824
 10
4.46567
 20
221.451
 30
0.000000
  70
    32
  0
VERTEX
  8
SAPA_ANSLUTNING
  5
1825
 10
4.37912
 20
221.684
 30
0.000000
  70
    32
  0
VERTEX
  8
SAPA_ANSLUTNING
  5
1826
 10
4.27983
 20
221.913
 30
0.000000
  70
    32
  0
VERTEX
  8
SAPA_ANSLUTNING
  5
1827
 10
4.16803
 20
222.138
 30
0.000000
  70
    32
  0
VERTEX
  8
SAPA_ANSLUTNING
  5
1828
 10
4.04398
 20
222.357
 30
0.000000
  70
    32
  0
VERTEX
  8
SAPA_ANSLUTNING
  5
1829
 10
3.90799
 20
222.571
 30
0.000000
  70
    32
  0
VERTEX
  8
SAPA_ANSLUTNING
  5
182A
 10
3.76039
 20
222.778
 30
0.000000
  70
    32
  0
VERTEX
  8
SAPA_ANSLUTNING
  5
182B
 10
3.60153
 20
222.978
 30
0.000000
  70
    32
  0
VERTEX
  8
SAPA_ANSLUTNING
  5
182C
 10
3.43179
 20
223.172
 30
0.000000
  70
    32
  0
VERTEX
  8
SAPA_ANSLUTNING
  5
182D
 10
3.25158
 20
223.358
 30
0.000000
  70
    32
  0
VERTEX
  8
SAPA_ANSLUTNING
  5
182E
 10
3.06134
 20
223.536
 30
0.000000
  70
    32
  0
VERTEX
  8
SAPA_ANSLUTNING
  5
182F
 10
2.86152
 20
223.705
 30
0.000000
  70
    32
  0
VERTEX
  8
SAPA_ANSLUTNING
  5
1830
 10
2.65261
 20
223.865
 30
0.000000
  70
    32
  0
VERTEX
  8
SAPA_ANSLUTNING
  5
1831
 10
2.43511
 20
224.016
 30
0.000000
  70
    32
  0
VERTEX
  8
SAPA_ANSLUTNING
  5
1832
 10
2.20954
 20
224.157
 30
0.000000
  70
    32
  0
VERTEX
  8
SAPA_ANSLUTNING
  5
1833
 10
1.97645
 20
224.289
 30
0.000000
  70
    32
  0
VERTEX
  8
SAPA_ANSLUTNING
  5
1834
 10
1.73640
 20
224.410
 30
0.000000
  70
    32
  0
VERTEX
  8
SAPA_ANSLUTNING
  5
1835
 10
1.48996
 20
224.520
 30
0.000000
  70
    32
  0
VERTEX
  8
SAPA_ANSLUTNING
  5
1836
 10
1.23774
 20
224.619
 30
0.000000
  70
    32
  0
VERTEX
  8
SAPA_ANSLUTNING
  5
1837
 10
0.980329
 20
224.708
 30
0.000000
  70
    32
  0
VERTEX
  8
SAPA_ANSLUTNING
  5
1838
 10
0.718358
 20
224.785
 30
0.000000
  70
    32
  0
VERTEX
  8
SAPA_ANSLUTNING
  5
1839
 10
0.452457
 20
224.850
 30
0.000000
  70
    32
  0
VERTEX
  8
SAPA_ANSLUTNING
  5
183A
 10
0.183265
 20
224.904
 30
0.000000
  70
    32
  0
VERTEX
  8
SAPA_ANSLUTNING
  5
183B
 10
-0.0885683
 20
224.946
 30
0.000000
  70
    32
  0
VERTEX
  8
SAPA_ANSLUTNING
  5
183C
 10
-0.362389
 20
224.976
 30
0.000000
  70
    32
  0
VERTEX
  8
SAPA_ANSLUTNING
  5
183D
 10
-0.637536
 20
224.994
 30
0.000000
  70
    32
  0
VERTEX
  8
SAPA_ANSLUTNING
  5
183E
 10
-0.913349
 20
225.000
 30
0.000000
  70
    32
  0
VERTEX
  8
SAPA_ANSLUTNING
  5
183F
 10
-1.18916
 20
224.994
 30
0.000000
  70
    32
  0
VERTEX
  8
SAPA_ANSLUTNING
  5
1840
 10
-1.46431
 20
224.976
 30
0.000000
  70
    32
  0
VERTEX
  8
SAPA_ANSLUTNING
  5
1841
 10
-1.73813
 20
224.946
 30
0.000000
  70
    32
  0
VERTEX
  8
SAPA_ANSLUTNING
  5
1842
 10
-2.00996
 20
224.904
 30
0.000000
  70
    32
  0
VERTEX
  8
SAPA_ANSLUTNING
  5
1843
 10
-2.27915
 20
224.850
 30
0.000000
  70
    32
  0
VERTEX
  8
SAPA_ANSLUTNING
  5
1844
 10
-2.54506
 20
224.785
 30
0.000000
  70
    32
  0
VERTEX
  8
SAPA_ANSLUTNING
  5
1845
 10
-2.80703
 20
224.708
 30
0.000000
  70
    32
  0
VERTEX
  8
SAPA_ANSLUTNING
  5
1846
 10
-3.06443
 20
224.619
 30
0.000000
  70
    32
  0
VERTEX
  8
SAPA_ANSLUTNING
  5
1847
 10
-3.31666
 20
224.520
 30
0.000000
  70
    32
  0
VERTEX
  8
SAPA_ANSLUTNING
  5
1848
 10
-3.56310
 20
224.410
 30
0.000000
  70
    32
  0
VERTEX
  8
SAPA_ANSLUTNING
  5
1849
 10
-3.80315
 20
224.289
 30
0.000000
  70
    32
  0
VERTEX
  8
SAPA_ANSLUTNING
  5
184A
 10
-4.03624
 20
224.157
 30
0.000000
  70
    32
  0
VERTEX
  8
SAPA_ANSLUTNING
  5
184B
 10
-4.26181
 20
224.016
 30
0.000000
  70
    32
  0
VERTEX
  8
SAPA_ANSLUTNING
  5
184C
 10
-4.47931
 20
223.865
 30
0.000000
  70
    32
  0
VERTEX
  8
SAPA_ANSLUTNING
  5
184D
 10
-4.68822
 20
223.705
 30
0.000000
  70
    32
  0
VERTEX
  8
SAPA_ANSLUTNING
  5
184E
 10
-4.88804
 20
223.536
 30
0.000000
  70
    32
  0
VERTEX
  8
SAPA_ANSLUTNING
  5
184F
 10
-5.07828
 20
223.358
 30
0.000000
  70
    32
  0
VERTEX
  8
SAPA_ANSLUTNING
  5
1850
 10
-5.25848
 20
223.172
 30
0.000000
  70
    32
  0
VERTEX
  8
SAPA_ANSLUTNING
  5
1851
 10
-5.42822
 20
222.978
 30
0.000000
  70
    32
  0
VERTEX
  8
SAPA_ANSLUTNING
  5
1852
 10
-5.58709
 20
222.778
 30
0.000000
  70
    32
  0
VERTEX
  8
SAPA_ANSLUTNING
  5
1853
 10
-5.73469
 20
222.571
 30
0.000000
  70
    32
  0
VERTEX
  8
SAPA_ANSLUTNING
  5
1854
 10
-5.87068
 20
222.357
 30
0.000000
  70
    32
  0
VERTEX
  8
SAPA_ANSLUTNING
  5
1855
 10
-5.99472
 20
222.138
 30
0.000000
  70
    32
  0
VERTEX
  8
SAPA_ANSLUTNING
  5
1856
 10
-6.10653
 20
221.913
 30
0.000000
  70
    32
  0
VERTEX
  8
SAPA_ANSLUTNING
  5
1857
 10
-6.20582
 20
221.684
 30
0.000000
  70
    32
  0
VERTEX
  8
SAPA_ANSLUTNING
  5
1858
 10
-6.29237
 20
221.451
 30
0.000000
  70
    32
  0
VERTEX
  8
SAPA_ANSLUTNING
  5
1859
 10
-6.36595
 20
221.215
 30
0.000000
  70
    32
  0
VERTEX
  8
SAPA_ANSLUTNING
  5
185A
 10
-6.42640
 20
220.975
 30
0.000000
  70
    32
  0
VERTEX
  8
SAPA_ANSLUTNING
  5
185B
 10
-6.47357
 20
220.734
 30
0.000000
  70
    32
  0
VERTEX
  8
SAPA_ANSLUTNING
  5
185C
 10
-6.50734
 20
220.490
 30
0.000000
  70
    32
  0
VERTEX
  8
SAPA_ANSLUTNING
  5
185D
 10
-6.52764
 20
220.245
 30
0.000000
  70
    32
  0
VERTEX
  8
SAPA_ANSLUTNING
  5
185E
 10
-6.53441
 20
220.000
 30
0.000000
  70
    32
  0
VERTEX
  8
SAPA_ANSLUTNING
  5
185F
 10
-6.52764
 20
219.755
 30
0.000000
  70
    32
  0
VERTEX
  8
SAPA_ANSLUTNING
  5
1860
 10
-6.50734
 20
219.510
 30
0.000000
  70
    32
  0
VERTEX
  8
SAPA_ANSLUTNING
  5
1861
 10
-6.47357
 20
219.266
 30
0.000000
  70
    32
  0
VERTEX
  8
SAPA_ANSLUTNING
  5
1862
 10
-6.42640
 20
219.025
 30
0.000000
  70
    32
  0
VERTEX
  8
SAPA_ANSLUTNING
  5
1863
 10
-6.36595
 20
218.785
 30
0.000000
  70
    32
  0
VERTEX
  8
SAPA_ANSLUTNING
  5
1864
 10
-6.29237
 20
218.549
 30
0.000000
  70
    32
  0
VERTEX
  8
SAPA_ANSLUTNING
  5
1865
 10
-6.20582
 20
218.316
 30
0.000000
  70
    32
  0
VERTEX
  8
SAPA_ANSLUTNING
  5
1866
 10
-6.10653
 20
218.087
 30
0.000000
  70
    32
  0
VERTEX
  8
SAPA_ANSLUTNING
  5
1867
 10
-5.99472
 20
217.862
 30
0.000000
  70
    32
  0
VERTEX
  8
SAPA_ANSLUTNING
  5
1868
 10
-5.87068
 20
217.643
 30
0.000000
  70
    32
  0
VERTEX
  8
SAPA_ANSLUTNING
  5
1869
 10
-5.73469
 20
217.429
 30
0.000000
  70
    32
  0
VERTEX
  8
SAPA_ANSLUTNING
  5
186A
 10
-5.58709
 20
217.222
 30
0.000000
  70
    32
  0
VERTEX
  8
SAPA_ANSLUTNING
  5
186B
 10
-5.42822
 20
217.022
 30
0.000000
  70
    32
  0
VERTEX
  8
SAPA_ANSLUTNING
  5
186C
 10
-5.25848
 20
216.828
 30
0.000000
  70
    32
  0
VERTEX
  8
SAPA_ANSLUTNING
  5
186D
 10
-5.07828
 20
216.642
 30
0.000000
  70
    32
  0
VERTEX
  8
SAPA_ANSLUTNING
  5
186E
 10
-4.88804
 20
216.464
 30
0.000000
  70
    32
  0
VERTEX
  8
SAPA_ANSLUTNING
  5
186F
 10
-4.68822
 20
216.295
 30
0.000000
  70
    32
  0
VERTEX
  8
SAPA_ANSLUTNING
  5
1870
 10
-4.47931
 20
216.135
 30
0.000000
  70
    32
  0
VERTEX
  8
SAPA_ANSLUTNING
  5
1871
 10
-4.26181
 20
215.984
 30
0.000000
  70
    32
  0
VERTEX
  8
SAPA_ANSLUTNING
  5
1872
 10
-4.03624
 20
215.843
 30
0.000000
  70
    32
  0
VERTEX
  8
SAPA_ANSLUTNING
  5
1873
 10
-3.80315
 20
215.711
 30
0.000000
  70
    32
  0
VERTEX
  8
SAPA_ANSLUTNING
  5
1874
 10
-3.56310
 20
215.590
 30
0.000000
  70
    32
  0
VERTEX
  8
SAPA_ANSLUTNING
  5
1875
 10
-3.31666
 20
215.480
 30
0.000000
  70
    32
  0
VERTEX
  8
SAPA_ANSLUTNING
  5
1876
 10
-3.06443
 20
215.381
 30
0.000000
  70
    32
  0
VERTEX
  8
SAPA_ANSLUTNING
  5
1877
 10
-2.80703
 20
215.292
 30
0.000000
  70
    32
  0
VERTEX
  8
SAPA_ANSLUTNING
  5
1878
 10
-2.54506
 20
215.215
 30
0.000000
  70
    32
  0
VERTEX
  8
SAPA_ANSLUTNING
  5
1879
 10
-2.27915
 20
215.150
 30
0.000000
  70
    32
  0
VERTEX
  8
SAPA_ANSLUTNING
  5
187A
 10
-2.00996
 20
215.096
 30
0.000000
  70
    32
  0
VERTEX
  8
SAPA_ANSLUTNING
  5
187B
 10
-1.73813
 20
215.054
 30
0.000000
  70
    32
  0
VERTEX
  8
SAPA_ANSLUTNING
  5
187C
 10
-1.46431
 20
215.024
 30
0.000000
  70
    32
  0
VERTEX
  8
SAPA_ANSLUTNING
  5
187D
 10
-1.18916
 20
215.006
 30
0.000000
  70
    32
  0
VERTEX
  8
SAPA_ANSLUTNING
  5
187E
 10
-0.913349
 20
215.000
 30
0.000000
  70
    32
  0
VERTEX
  8
SAPA_ANSLUTNING
  5
187F
 10
-0.637536
 20
215.006
 30
0.000000
  70
    32
  0
VERTEX
  8
SAPA_ANSLUTNING
  5
1880
 10
-0.362389
 20
215.024
 30
0.000000
  70
    32
  0
VERTEX
  8
SAPA_ANSLUTNING
  5
1881
 10
-0.0885683
 20
215.054
 30
0.000000
  70
    32
  0
VERTEX
  8
SAPA_ANSLUTNING
  5
1882
 10
0.183265
 20
215.096
 30
0.000000
  70
    32
  0
VERTEX
  8
SAPA_ANSLUTNING
  5
1883
 10
0.452457
 20
215.150
 30
0.000000
  70
    32
  0
VERTEX
  8
SAPA_ANSLUTNING
  5
1884
 10
0.718358
 20
215.215
 30
0.000000
  70
    32
  0
VERTEX
  8
SAPA_ANSLUTNING
  5
1885
 10
0.980329
 20
215.292
 30
0.000000
  70
    32
  0
VERTEX
  8
SAPA_ANSLUTNING
  5
1886
 10
1.23774
 20
215.381
 30
0.000000
  70
    32
  0
VERTEX
  8
SAPA_ANSLUTNING
  5
1887
 10
1.48996
 20
215.480
 30
0.000000
  70
    32
  0
VERTEX
  8
SAPA_ANSLUTNING
  5
1888
 10
1.73640
 20
215.590
 30
0.000000
  70
    32
  0
VERTEX
  8
SAPA_ANSLUTNING
  5
1889
 10
1.97645
 20
215.711
 30
0.000000
  70
    32
  0
VERTEX
  8
SAPA_ANSLUTNING
  5
188A
 10
2.20954
 20
215.843
 30
0.000000
  70
    32
  0
VERTEX
  8
SAPA_ANSLUTNING
  5
188B
 10
2.43511
 20
215.984
 30
0.000000
  70
    32
  0
VERTEX
  8
SAPA_ANSLUTNING
  5
188C
 10
2.65261
 20
216.135
 30
0.000000
  70
    32
  0
VERTEX
  8
SAPA_ANSLUTNING
  5
188D
 10
2.86152
 20
216.295
 30
0.000000
  70
    32
  0
VERTEX
  8
SAPA_ANSLUTNING
  5
188E
 10
3.06134
 20
216.464
 30
0.000000
  70
    32
  0
VERTEX
  8
SAPA_ANSLUTNING
  5
188F
 10
3.25158
 20
216.642
 30
0.000000
  70
    32
  0
VERTEX
  8
SAPA_ANSLUTNING
  5
1890
 10
3.43179
 20
216.828
 30
0.000000
  70
    32
  0
VERTEX
  8
SAPA_ANSLUTNING
  5
1891
 10
3.60153
 20
217.022
 30
0.000000
  70
    32
  0
VERTEX
  8
SAPA_ANSLUTNING
  5
1892
 10
3.76039
 20
217.222
 30
0.000000
  70
    32
  0
VERTEX
  8
SAPA_ANSLUTNING
  5
1893
 10
3.90799
 20
217.429
 30
0.000000
  70
    32
  0
VERTEX
  8
SAPA_ANSLUTNING
  5
1894
 10
4.04398
 20
217.643
 30
0.000000
  70
    32
  0
VERTEX
  8
SAPA_ANSLUTNING
  5
1895
 10
4.16803
 20
217.862
 30
0.000000
  70
    32
  0
VERTEX
  8
SAPA_ANSLUTNING
  5
1896
 10
4.27983
 20
218.087
 30
0.000000
  70
    32
  0
VERTEX
  8
SAPA_ANSLUTNING
  5
1897
 10
4.37912
 20
218.316
 30
0.000000
  70
    32
  0
VERTEX
  8
SAPA_ANSLUTNING
  5
1898
 10
4.46567
 20
218.549
 30
0.000000
  70
    32
  0
VERTEX
  8
SAPA_ANSLUTNING
  5
1899
 10
4.53925
 20
218.785
 30
0.000000
  70
    32
  0
VERTEX
  8
SAPA_ANSLUTNING
  5
189A
 10
4.59970
 20
219.025
 30
0.000000
  70
    32
  0
VERTEX
  8
SAPA_ANSLUTNING
  5
189B
 10
4.64687
 20
219.266
 30
0.000000
  70
    32
  0
VERTEX
  8
SAPA_ANSLUTNING
  5
189C
 10
4.68064
 20
219.510
 30
0.000000
  70
    32
  0
VERTEX
  8
SAPA_ANSLUTNING
  5
189D
 10
4.70094
 20
219.755
 30
0.000000
  70
    32
  0
VERTEX
  8
SAPA_ANSLUTNING
  5
189E
 10
4.70771
 20
220.000
 30
0.000000
  70
    32
  0
SEQEND
  8
SAPA_ANSLUTNING
  5
189F
  0
POLYLINE
  5
11DB
  8
SAPA_ANSLUTNING
 66
     1
 10
0.0
 20
0.0
 30
0.0
  0
VERTEX
  5
1782
  8
SAPA_ANSLUTNING
 10
3.102069661696305
 20
216.5010716144848
 30
0.0
 42
0.8812634091771133
  0
VERTEX
  5
1783
  8
SAPA_ANSLUTNING
 10
7.0388376899165896
 20
217.00000007114389
 30
0.0
  0
VERTEX
  5
1784
  8
SAPA_ANSLUTNING
 10
7.0388376899165896
 20
223.0000000711438
 30
0.0
 42
-0.9999999999999998
  0
VERTEX
  5
1785
  8
SAPA_ANSLUTNING
 10
11.038837689916591
 20
223.0000000711438
 30
0.0
  0
VERTEX
  5
1786
  8
SAPA_ANSLUTNING
 10
11.038837689916591
 20
217.00000007114389
 30
0.0
 42
0.9999999999999998
  0
VERTEX
  5
1787
  8
SAPA_ANSLUTNING
 10
15.038837689916591
 20
217.00000007114389
 30
0.0
  0
VERTEX
  5
1788
  8
SAPA_ANSLUTNING
 10
15.038837689916591
 20
223.0000000711438
 30
0.0
 42
-0.9999999999999998
  0
VERTEX
  5
1789
  8
SAPA_ANSLUTNING
 10
19.038837689916591
 20
223.0000000711438
 30
0.0
  0
VERTEX
  5
178A
  8
SAPA_ANSLUTNING
 10
19.038837689916591
 20
217.00000007114389
 30
0.0
 42
0.9999999999999998
  0
VERTEX
  5
178B
  8
SAPA_ANSLUTNING
 10
23.038837689916591
 20
217.00000007114389
 30
0.0
  0
VERTEX
  5
178C
  8
SAPA_ANSLUTNING
 10
23.038837689916591
 20
223.0000000711438
 30
0.0
 42
-0.9999999999999998
  0
VERTEX
  5
178D
  8
SAPA_ANSLUTNING
 10
27.038837689916591
 20
223.0000000711438
 30
0.0
  0
VERTEX
  5
178E
  8
SAPA_ANSLUTNING
 10
27.038837689916591
 20
217.00000007114389
 30
0.0
 42
0.9999999999999998
  0
VERTEX
  5
178F
  8
SAPA_ANSLUTNING
 10
31.038837689916591
 20
217.00000007114389
 30
0.0
  0
VERTEX
  5
1790
  8
SAPA_ANSLUTNING
 10
31.038837689916591
 20
223.0000000711438
 30
0.0
 42
-0.9999999999999998
  0
VERTEX
  5
1791
  8
SAPA_ANSLUTNING
 10
35.038837689916591
 20
223.0000000711438
 30
0.0
  0
VERTEX
  5
1792
  8
SAPA_ANSLUTNING
 10
35.038837689916591
 20
217.00000007114389
 30
0.0
 42
0.9999999999999998
  0
VERTEX
  5
1793
  8
SAPA_ANSLUTNING
 10
39.038837689916591
 20
217.00000007114389
 30
0.0
  0
VERTEX
  5
1794
  8
SAPA_ANSLUTNING
 10
39.038837689916591
 20
223.0000000711438
 30
0.0
 42
-0.9999999999999998
  0
VERTEX
  5
1795
  8
SAPA_ANSLUTNING
 10
43.038837689916591
 20
223.0000000711438
 30
0.0
  0
VERTEX
  5
1796
  8
SAPA_ANSLUTNING
 10
43.038837689916591
 20
217.00000007114389
 30
0.0
 42
0.9999999999999998
  0
VERTEX
  5
1797
  8
SAPA_ANSLUTNING
 10
47.038837689916591
 20
217.00000007114389
 30
0.0
  0
VERTEX
  5
1798
  8
SAPA_ANSLUTNING
 10
47.038837689916591
 20
223.0000000711438
 30
0.0
 42
-0.9999999999999998
  0
VERTEX
  5
1799
  8
SAPA_ANSLUTNING
 10
51.038837689916591
 20
223.0000000711438
 30
0.0
  0
VERTEX
  5
179A
  8
SAPA_ANSLUTNING
 10
51.038837689916591
 20
217.00000007114389
 30
0.0
 42
0.9999999999999998
  0
VERTEX
  5
179B
  8
SAPA_ANSLUTNING
 10
55.038837689916591
 20
217.00000007114389
 30
0.0
  0
VERTEX
  5
179C
  8
SAPA_ANSLUTNING
 10
55.038837689916591
 20
223.0000000711438
 30
0.0
 42
-0.9999999999999998
  0
VERTEX
  5
179D
  8
SAPA_ANSLUTNING
 10
59.038837689916591
 20
223.0000000711438
 30
0.0
  0
VERTEX
  5
179E
  8
SAPA_ANSLUTNING
 10
59.038837689916591
 20
217.00000007114389
 30
0.0
 42
0.5251735434384823
  0
VERTEX
  5
179F
  8
SAPA_ANSLUTNING
 10
61.750000071155
 20
215.1307092784873
 30
0.0
 42
0.5251735434384823
  0
SEQEND
  5
17A0
  8
SAPA_ANSLUTNING
  0
LINE
  5
11DC
  8
SAPA_ANSLUTNING
 10
-13.24999992885045
 20
65.000000143389116
 30
0.0
 11
-13.24999992885045
 21
20.38053366634324
 31
0.0
  0
LINE
  5
11DD
  8
SAPA_ANSLUTNING
 10
-13.24999992885045
 20
65.000000143389116
 30
0.0
 11
61.750000071155
 21
65.000000143389116
 31
0.0
  0
POLYLINE
  5
11DE
  8
SAPA_ANSLUTNING
 66
     1
 10
0.0
 20
0.0
 30
0.0
  0
VERTEX
  5
17A1
  8
SAPA_ANSLUTNING
 10
59.750000071149543
 20
65.436768171609273
 30
0.0
  0
VERTEX
  5
17A2
  8
SAPA_ANSLUTNING
 10
48.750000071149543
 20
65.436768171609273
 30
0.0
 42
-0.9999999999999998
  0
VERTEX
  5
17A3
  8
SAPA_ANSLUTNING
 10
48.750000071149543
 20
69.436768171609401
 30
0.0
  0
VERTEX
  5
17A4
  8
SAPA_ANSLUTNING
 10
59.750000071149543
 20
69.436768171609401
 30
0.0
 42
0.9999999999999998
  0
VERTEX
  5
17A5
  8
SAPA_ANSLUTNING
 10
59.750000071149543
 20
73.436768171609401
 30
0.0
  0
VERTEX
  5
17A6
  8
SAPA_ANSLUTNING
 10
48.750000071149543
 20
73.436768171609401
 30
0.0
 42
-0.9999999999999998
  0
VERTEX
  5
17A7
  8
SAPA_ANSLUTNING
 10
48.750000071149543
 20
77.436768171609401
 30
0.0
  0
VERTEX
  5
17A8
  8
SAPA_ANSLUTNING
 10
59.750000071149543
 20
77.436768171609401
 30
0.0
 42
0.9999999999999998
  0
VERTEX
  5
17A9
  8
SAPA_ANSLUTNING
 10
59.750000071149543
 20
81.436768171609401
 30
0.0
  0
VERTEX
  5
17AA
  8
SAPA_ANSLUTNING
 10
48.750000071149543
 20
81.436768171609401
 30
0.0
 42
-0.9999999999999998
  0
VERTEX
  5
17AB
  8
SAPA_ANSLUTNING
 10
48.750000071149543
 20
85.436768171609415
 30
0.0
  0
VERTEX
  5
17AC
  8
SAPA_ANSLUTNING
 10
59.750000071149543
 20
85.436768171609415
 30
0.0
 42
0.9999999999999998
  0
VERTEX
  5
17AD
  8
SAPA_ANSLUTNING
 10
59.750000071149543
 20
89.436768171609387
 30
0.0
  0
VERTEX
  5
17AE
  8
SAPA_ANSLUTNING
 10
48.750000071149543
 20
89.436768171609387
 30
0.0
 42
-0.9999999999999998
  0
VERTEX
  5
17AF
  8
SAPA_ANSLUTNING
 10
48.750000071149543
 20
93.436768171609401
 30
0.0
  0
VERTEX
  5
17B0
  8
SAPA_ANSLUTNING
 10
59.750000071149543
 20
93.436768171609401
 30
0.0
 42
0.9999999999999998
  0
VERTEX
  5
17B1
  8
SAPA_ANSLUTNING
 10
59.750000071149543
 20
97.436768171609401
 30
0.0
  0
VERTEX
  5
17B2
  8
SAPA_ANSLUTNING
 10
48.750000071149543
 20
97.436768171609401
 30
0.0
 42
-0.9999999999999998
  0
VERTEX
  5
17B3
  8
SAPA_ANSLUTNING
 10
48.750000071149543
 20
101.4367681716094
 30
0.0
  0
VERTEX
  5
17B4
  8
SAPA_ANSLUTNING
 10
59.750000071149543
 20
101.4367681716094
 30
0.0
 42
0.9999999999999998
  0
VERTEX
  5
17B5
  8
SAPA_ANSLUTNING
 10
59.750000071149543
 20
105.4367681716094
 30
0.0
  0
VERTEX
  5
17B6
  8
SAPA_ANSLUTNING
 10
48.750000071149543
 20
105.4367681716094
 30
0.0
 42
-0.9999999999999998
  0
VERTEX
  5
17B7
  8
SAPA_ANSLUTNING
 10
48.750000071149543
 20
109.4367681716094
 30
0.0
  0
VERTEX
  5
17B8
  8
SAPA_ANSLUTNING
 10
59.750000071149543
 20
109.4367681716094
 30
0.0
 42
0.9999999999999998
  0
VERTEX
  5
17B9
  8
SAPA_ANSLUTNING
 10
59.750000071149543
 20
113.4367681716094
 30
0.0
  0
VERTEX
  5
17BA
  8
SAPA_ANSLUTNING
 10
48.750000071149543
 20
113.4367681716094
 30
0.0
 42
-0.9999999999999998
  0
VERTEX
  5
17BB
  8
SAPA_ANSLUTNING
 10
48.750000071149543
 20
117.4367681716094
 30
0.0
  0
VERTEX
  5
17BC
  8
SAPA_ANSLUTNING
 10
59.750000071149543
 20
117.4367681716094
 30
0.0
 42
0.9999999999999998
  0
VERTEX
  5
17BD
  8
SAPA_ANSLUTNING
 10
59.750000071149543
 20
121.4367681716094
 30
0.0
  0
VERTEX
  5
17BE
  8
SAPA_ANSLUTNING
 10
48.750000071149543
 20
121.4367681716094
 30
0.0
 42
-0.9999999999999998
  0
VERTEX
  5
17BF
  8
SAPA_ANSLUTNING
 10
48.750000071149543
 20
125.4367681716094
 30
0.0
  0
VERTEX
  5
17C0
  8
SAPA_ANSLUTNING
 10
59.750000071149543
 20
125.4367681716094
 30
0.0
 42
0.9999999999999998
  0
VERTEX
  5
17C1
  8
SAPA_ANSLUTNING
 10
59.750000071149543
 20
129.4367681716094
 30
0.0
  0
VERTEX
  5
17C2
  8
SAPA_ANSLUTNING
 10
48.750000071149543
 20
129.4367681716094
 30
0.0
 42
-0.9999999999999998
  0
VERTEX
  5
17C3
  8
SAPA_ANSLUTNING
 10
48.750000071149543
 20
133.4367681716094
 30
0.0
  0
VERTEX
  5
17C4
  8
SAPA_ANSLUTNING
 10
59.750000071149543
 20
133.4367681716094
 30
0.0
 42
0.9999999999999429
  0
VERTEX
  5
17C5
  8
SAPA_ANSLUTNING
 10
59.750000071149991
 20
137.43676817160889
 30
0.0
  0
VERTEX
  5
17C6
  8
SAPA_ANSLUTNING
 10
48.750000071149543
 20
137.4367681716094
 30
0.0
 42
-0.9999999999999998
  0
VERTEX
  5
17C7
  8
SAPA_ANSLUTNING
 10
48.750000071149543
 20
141.4367681716094
 30
0.0
  0
VERTEX
  5
17C8
  8
SAPA_ANSLUTNING
 10
59.750000071149543
 20
141.43676817160909
 30
0.0
 42
0.9999999999999998
  0
VERTEX
  5
17C9
  8
SAPA_ANSLUTNING
 10
59.750000071149543
 20
145.43676817160909
 30
0.0
  0
VERTEX
  5
17CA
  8
SAPA_ANSLUTNING
 10
48.750000071149543
 20
145.43676817160909
 30
0.0
 42
-0.9999999999999998
  0
VERTEX
  5
17CB
  8
SAPA_ANSLUTNING
 10
48.750000071149543
 20
149.4367681716092
 30
0.0
  0
VERTEX
  5
17CC
  8
SAPA_ANSLUTNING
 10
59.750000071149543
 20
149.4367681716092
 30
0.0
 42
0.9999999999999998
  0
VERTEX
  5
17CD
  8
SAPA_ANSLUTNING
 10
59.750000071149543
 20
153.4367681716092
 30
0.0
  0
VERTEX
  5
17CE
  8
SAPA_ANSLUTNING
 10
48.750000071149543
 20
153.4367681716092
 30
0.0
 42
-0.9999999999999998
  0
VERTEX
  5
17CF
  8
SAPA_ANSLUTNING
 10
48.750000071149543
 20
157.4367681716092
 30
0.0
  0
VERTEX
  5
17D0
  8
SAPA_ANSLUTNING
 10
59.750000071149543
 20
157.4367681716092
 30
0.0
 42
0.9999999999999998
  0
VERTEX
  5
17D1
  8
SAPA_ANSLUTNING
 10
59.750000071149543
 20
161.43676817160909
 30
0.0
  0
VERTEX
  5
17D2
  8
SAPA_ANSLUTNING
 10
48.750000071149543
 20
161.43676817160909
 30
0.0
 42
-0.9999999999999998
  0
VERTEX
  5
17D3
  8
SAPA_ANSLUTNING
 10
48.750000071149543
 20
165.43676817160909
 30
0.0
  0
VERTEX
  5
17D4
  8
SAPA_ANSLUTNING
 10
59.750000071149543
 20
165.43676817160909
 30
0.0
 42
0.9999999999999998
  0
VERTEX
  5
17D5
  8
SAPA_ANSLUTNING
 10
59.750000071149543
 20
169.4367681716092
 30
0.0
  0
VERTEX
  5
17D6
  8
SAPA_ANSLUTNING
 10
48.750000071149543
 20
169.4367681716092
 30
0.0
 42
-0.9999999999999998
  0
VERTEX
  5
17D7
  8
SAPA_ANSLUTNING
 10
48.750000071149543
 20
173.4367681716092
 30
0.0
  0
VERTEX
  5
17D8
  8
SAPA_ANSLUTNING
 10
59.750000071149543
 20
173.4367681716092
 30
0.0
 42
0.9999999999999998
  0
VERTEX
  5
17D9
  8
SAPA_ANSLUTNING
 10
59.750000071149543
 20
177.4367681716092
 30
0.0
  0
VERTEX
  5
17DA
  8
SAPA_ANSLUTNING
 10
48.750000071149543
 20
177.4367681716092
 30
0.0
 42
-0.9999999999999998
  0
VERTEX
  5
17DB
  8
SAPA_ANSLUTNING
 10
48.750000071149543
 20
181.4367681716092
 30
0.0
  0
VERTEX
  5
17DC
  8
SAPA_ANSLUTNING
 10
59.750000071149543
 20
181.4367681716092
 30
0.0
 42
0.9999999999999998
  0
VERTEX
  5
17DD
  8
SAPA_ANSLUTNING
 10
59.750000071149543
 20
185.43676817160909
 30
0.0
  0
VERTEX
  5
17DE
  8
SAPA_ANSLUTNING
 10
48.750000071149543
 20
185.43676817160909
 30
0.0
 42
-0.9999999999999998
  0
VERTEX
  5
17DF
  8
SAPA_ANSLUTNING
 10
48.750000071149543
 20
189.4367681716092
 30
0.0
  0
VERTEX
  5
17E0
  8
SAPA_ANSLUTNING
 10
59.750000071149543
 20
189.4367681716092
 30
0.0
 42
0.9999999999999998
  0
VERTEX
  5
17E1
  8
SAPA_ANSLUTNING
 10
59.750000071149543
 20
193.43676817160909
 30
0.0
  0
VERTEX
  5
17E2
  8
SAPA_ANSLUTNING
 10
48.750000071149543
 20
193.43676817160909
 30
0.0
 42
-0.9999999999999998
  0
VERTEX
  5
17E3
  8
SAPA_ANSLUTNING
 10
48.750000071149543
 20
197.4367681716092
 30
0.0
  0
VERTEX
  5
17E4
  8
SAPA_ANSLUTNING
 10
59.750000071149543
 20
197.4367681716092
 30
0.0
 42
0.9999999999999998
  0
VERTEX
  5
17E5
  8
SAPA_ANSLUTNING
 10
59.750000071149543
 20
201.4367681716092
 30
0.0
  0
VERTEX
  5
17E6
  8
SAPA_ANSLUTNING
 10
48.750000071149543
 20
201.4367681716092
 30
0.0
 42
-0.9999999999999998
  0
VERTEX
  5
17E7
  8
SAPA_ANSLUTNING
 10
48.750000071149543
 20
205.4367681716092
 30
0.0
  0
VERTEX
  5
17E8
  8
SAPA_ANSLUTNING
 10
59.750000071149543
 20
205.4367681716092
 30
0.0
 42
0.9999999999999998
  0
VERTEX
  5
17E9
  8
SAPA_ANSLUTNING
 10
59.750000071149543
 20
209.4367681716092
 30
0.0
  0
VERTEX
  5
17EA
  8
SAPA_ANSLUTNING
 10
48.750000071149543
 20
209.4367681716092
 30
0.0
 42
-0.9999999999999998
  0
VERTEX
  5
17EB
  8
SAPA_ANSLUTNING
 10
48.750000071149543
 20
213.4367681716092
 30
0.0
  0
VERTEX
  5
17EC
  8
SAPA_ANSLUTNING
 10
59.750000071149543
 20
213.4367681716092
 30
0.0
  0
SEQEND
  5
17ED
  8
SAPA_ANSLUTNING
  0
ARC
  5
11DF
  8
SAPA_ANSLUTNING
 10
-37.898292048726262
 20
218.3282584951792
 30
0.0
 40
25.53527834356208
 50
351.18295057442901
 51
15.14575684303731
  0
TEXT
  5
11E3
  8
SAPA_ARTIKELNR
 10
-17.964784352782999
 20
72.962445230964931
 30
0.0000000048844772
 40
3.5
  1
D9A050
 50
90.0
  7
ISO
  0
LINE
  5
134D
  8
SAPA_GLAS
 10
-5.5325518169022407
 20
147.00000014308469
 30
0.0
 11
-5.5325518168747294
 21
150.0000001436126
 31
0.0
  0
LINE
  5
134E
  8
SAPA_GLAS
 10
-5.5325518168747294
 20
150.0000001436126
 30
0.0
 11
6.4674481831252697
 21
150.0000001436126
 31
0.0
  0
LINE
  5
134F
  8
SAPA_GLAS
 10
6.4674481831252697
 20
150.0000001436126
 30
0.0
 11
6.4674481830977584
 21
147.00000014308469
 31
0.0
  0
LINE
  5
1350
  8
SAPA_GLAS
 10
6.4674481830977584
 20
147.00000014308469
 30
0.0
 11
-5.5325518169022407
 21
147.00000014308469
 31
0.0
  0
LINE
  5
1353
  8
SAPA_GLAS
 10
-5.5319964669661204
 20
210.00000014300869
 30
0.0
 11
-5.5319964669383799
 21
207.0000001430974
 31
0.0
  0
LINE
  5
1354
  8
SAPA_GLAS
 10
-5.5319964669383799
 20
207.0000001430974
 30
0.0
 11
6.4680035330616192
 21
207.0000001430974
 31
0.0
  0
LINE
  5
1355
  8
SAPA_GLAS
 10
6.4680035330616192
 20
207.0000001430974
 30
0.0
 11
6.4680035330338788
 21
210.00000014300869
 31
0.0
  0
LINE
  5
1356
  8
SAPA_GLAS
 10
6.4680035330338788
 20
210.00000014300869
 30
0.0
 11
-5.5319964669661204
 21
210.00000014300869
 31
0.0
  0
LINE
  5
1357
  8
SAPA_GLAS
 10
-37.250555278775671
 20
196.5000001435078
 30
0.0
 11
-5.2505552787756642
 21
196.5000001435078
 31
0.0
  0
LINE
  5
1358
  8
SAPA_GLAS
 10
-5.2505552787756642
 20
196.5000001435078
 30
0.0
 11
-5.2505552787756642
 21
204.5000001435078
 31
0.0
  0
LINE
  5
1359
  8
SAPA_GLAS
 10
-5.2505552787756642
 20
204.5000001435078
 30
0.0
 11
-37.250555278775671
 21
204.5000001435078
 31
0.0
  0
LINE
  5
135A
  8
SAPA_GLAS
 10
-15.25055527877589
 20
196.5000001435078
 30
0.0
 11
-15.25055527877589
 21
181.5000001435078
 31
0.0
  0
LINE
  5
135B
  8
SAPA_GLAS
 10
-15.25055527877589
 20
181.5000001435078
 30
0.0
 11
-5.2505552787756642
 21
181.5000001435078
 31
0.0
  0
LINE
  5
135C
  8
SAPA_GLAS
 10
-5.2505552787756642
 20
181.5000001435078
 30
0.0
 11
-5.2505552787758907
 21
196.5000001435078
 31
0.0
  0
LINE
  5
135D
  8
SAPA_GLAS
 10
-5.2505552787758907
 20
196.5000001435078
 30
0.0
 11
-15.25055527877589
 21
196.5000001435078
 31
0.0
  0
LINE
  5
135E
  8
SAPA_GLAS
 10
-37.250555278775671
 20
175.5000001435078
 30
0.0
 11
-5.2505552787756642
 21
175.5000001435078
 31
0.0
  0
LINE
  5
135F
  8
SAPA_GLAS
 10
-5.2505552787756642
 20
175.5000001435078
 30
0.0
 11
-5.2505552787756642
 21
181.5000001435078
 31
0.0
  0
LINE
  5
1360
  8
SAPA_GLAS
 10
-5.2505552787756642
 20
181.5000001435078
 30
0.0
 11
-37.250555278775671
 21
181.5000001435078
 31
0.0
  0
LINE
  5
1361
  8
SAPA_GLAS
 10
-18.050555278786771
 20
205.1305455238849
 30
0.0
 11
-17.931100658794719
 21
205.25000014387689
 31
0.0
1001
ACAD
1010
0.0
1020
0.0
1030
0.0
  0
LINE
  5
1362
  8
SAPA_GLAS
 10
-17.558568644013601
 20
204.5000001435244
 30
0.0
 11
-16.80856864366228
 21
205.2500001438757
 31
0.0
1001
ACAD
1010
0.0
1020
0.0
1030
0.0
  0
LINE
  5
1363
  8
SAPA_GLAS
 10
-16.43603662887995
 20
204.5000001435244
 30
0.0
 11
-15.68603662852985
 21
205.2500001438745
 31
0.0
1001
ACAD
1010
0.0
1020
0.0
1030
0.0
  0
LINE
  5
1364
  8
SAPA_GLAS
 10
-15.313504613746311
 20
204.5000001435244
 30
0.0
 11
-14.563504613397431
 21
205.25000014387331
 31
0.0
1001
ACAD
1010
0.0
1020
0.0
1030
0.0
  0
LINE
  5
1365
  8
SAPA_GLAS
 10
-14.190972598612669
 20
204.5000001435244
 30
0.0
 11
-13.440972598265001
 21
205.250000143872
 31
0.0
1001
ACAD
1010
0.0
1020
0.0
1030
0.0
  0
LINE
  5
1366
  8
SAPA_GLAS
 10
-13.06844058347902
 20
204.5000001435244
 30
0.0
 11
-12.318440583132579
 21
205.25000014387081
 31
0.0
1001
ACAD
1010
0.0
1020
0.0
1030
0.0
  0
LINE
  5
1367
  8
SAPA_GLAS
 10
-11.945908568345381
 20
204.5000001435244
 30
0.0
 11
-11.19590856800014
 21
205.2500001438697
 31
0.0
1001
ACAD
1010
0.0
1020
0.0
1030
0.0
  0
LINE
  5
1368
  8
SAPA_GLAS
 10
-10.82337655321173
 20
204.5000001435244
 30
0.0
 11
-10.073376552867719
 21
205.25000014386839
 31
0.0
1001
ACAD
1010
0.0
1020
0.0
1030
0.0
  0
LINE
  5
1369
  8
SAPA_GLAS
 10
-9.7008445380780852
 20
204.5000001435244
 30
0.0
 11
-8.9508445377352928
 21
205.2500001438672
 31
0.0
1001
ACAD
1010
0.0
1020
0.0
1030
0.0
  0
LINE
  5
136A
  8
SAPA_GLAS
 10
-8.5783125229444401
 20
204.5000001435244
 30
0.0
 11
-7.8283125226028574
 21
205.250000143866
 31
0.0
1001
ACAD
1010
0.0
1020
0.0
1030
0.0
  0
LINE
  5
136B
  8
SAPA_GLAS
 10
-7.4557805078107959
 20
204.5000001435244
 30
0.0
 11
-6.7057805074704389
 21
205.25000014386481
 31
0.0
1001
ACAD
1010
0.0
1020
0.0
1030
0.0
  0
LINE
  5
136C
  8
SAPA_GLAS
 10
-6.3332484926771571
 20
204.5000001435244
 30
0.0
 11
-5.5832484923379999
 21
205.25000014386359
 31
0.0
1001
ACAD
1010
0.0
1020
0.0
1030
0.0
  0
LINE
  5
136D
  8
SAPA_GLAS
 10
-17.67296317667677
 20
204.5000001435244
 30
0.0
 11
-18.050555278786771
 21
204.87759224563439
 31
0.0
1001
ACAD
1010
0.0
1020
0.0
1030
0.0
  0
LINE
  5
136E
  8
SAPA_GLAS
 10
-16.550431161543109
 20
204.5000001435244
 30
0.0
 11
-17.300431161894959
 21
205.25000014387621
 31
0.0
1001
ACAD
1010
0.0
1020
0.0
1030
0.0
  0
LINE
  5
136F
  8
SAPA_GLAS
 10
-15.427899146409469
 20
204.5000001435244
 30
0.0
 11
-16.177899146760112
 21
205.25000014387501
 31
0.0
1001
ACAD
1010
0.0
1020
0.0
1030
0.0
  0
LINE
  5
1370
  8
SAPA_GLAS
 10
-14.305367131275821
 20
204.5000001435244
 30
0.0
 11
-15.055367131625241
 21
205.25000014387379
 31
0.0
1001
ACAD
1010
0.0
1020
0.0
1030
0.0
  0
LINE
  5
1371
  8
SAPA_GLAS
 10
-13.18283511614219
 20
204.5000001435244
 30
0.0
 11
-13.932835116490381
 21
205.2500001438726
 31
0.0
1001
ACAD
1010
0.0
1020
0.0
1030
0.0
  0
LINE
  5
1372
  8
SAPA_GLAS
 10
-12.06030310100854
 20
204.5000001435244
 30
0.0
 11
-12.810303101355521
 21
205.2500001438714
 31
0.0
1001
ACAD
1010
0.0
1020
0.0
1030
0.0
  0
LINE
  5
1373
  8
SAPA_GLAS
 10
-10.937771085874891
 20
204.5000001435244
 30
0.0
 11
-11.68777108622065
 21
205.2500001438701
 31
0.0
1001
ACAD
1010
0.0
1020
0.0
1030
0.0
  0
LINE
  5
1374
  8
SAPA_GLAS
 10
-9.8152390707412565
 20
204.5000001435244
 30
0.0
 11
-10.565239071085809
 21
205.25000014386899
 31
0.0
1001
ACAD
1010
0.0
1020
0.0
1030
0.0
  0
LINE
  5
1375
  8
SAPA_GLAS
 10
-8.6927070556076096
 20
204.5000001435244
 30
0.0
 11
-9.4427070559509474
 21
205.25000014386771
 31
0.0
1001
ACAD
1010
0.0
1020
0.0
1030
0.0
  0
LINE
  5
1376
  8
SAPA_GLAS
 10
-7.5701750404739618
 20
204.5000001435244
 30
0.0
 11
-8.3201750408160855
 21
205.25000014386649
 31
0.0
1001
ACAD
1010
0.0
1020
0.0
1030
0.0
  0
LINE
  5
1377
  8
SAPA_GLAS
 10
-6.4476430253403194
 20
204.5000001435244
 30
0.0
 11
-7.1976430256812201
 21
205.25000014386529
 31
0.0
1001
ACAD
1010
0.0
1020
0.0
1030
0.0
  0
LINE
  5
1378
  8
SAPA_GLAS
 10
-5.3251110102066717
 20
204.5000001435244
 30
0.0
 11
-6.0751110105463582
 21
205.25000014386401
 31
0.0
1001
ACAD
1010
0.0
1020
0.0
1030
0.0
  0
LINE
  5
1379
  8
SAPA_GLAS
 10
-18.05055527878676
 20
152.3715408126036
 30
0.0
 11
-17.922095948204309
 21
152.5000001431861
 31
0.0
1001
ACAD
1010
0.0
1020
0.0
1030
0.0
  0
LINE
  5
137A
  8
SAPA_GLAS
 10
-17.549563933422782
 20
151.7500001428339
 30
0.0
 11
-16.799563933070669
 21
152.5000001431861
 31
0.0
1001
ACAD
1010
0.0
1020
0.0
1030
0.0
  0
LINE
  5
137B
  8
SAPA_GLAS
 10
-16.42703191828792
 20
151.75000014283509
 30
0.0
 11
-15.67703191793702
 21
152.5000001431861
 31
0.0
1001
ACAD
1010
0.0
1020
0.0
1030
0.0
  0
LINE
  5
137C
  8
SAPA_GLAS
 10
-15.304499903153051
 20
151.7500001428364
 30
0.0
 11
-14.55449990280338
 21
152.5000001431861
 31
0.0
1001
ACAD
1010
0.0
1020
0.0
1030
0.0
  0
LINE
  5
137D
  8
SAPA_GLAS
 10
-14.1819678880182
 20
151.75000014283759
 30
0.0
 11
-13.43196788766973
 21
152.5000001431861
 31
0.0
1001
ACAD
1010
0.0
1020
0.0
1030
0.0
  0
LINE
  5
137E
  8
SAPA_GLAS
 10
-13.05943587288334
 20
151.75000014283879
 30
0.0
 11
-12.30943587253609
 21
152.5000001431861
 31
0.0
1001
ACAD
1010
0.0
1020
0.0
1030
0.0
  0
LINE
  5
137F
  8
SAPA_GLAS
 10
-11.936903857748471
 20
151.75000014284001
 30
0.0
 11
-11.18690385740245
 21
152.5000001431861
 31
0.0
1001
ACAD
1010
0.0
1020
0.0
1030
0.0
  0
LINE
  5
1380
  8
SAPA_GLAS
 10
-10.81437184261361
 20
151.75000014284129
 30
0.0
 11
-10.0643718422688
 21
152.5000001431861
 31
0.0
1001
ACAD
1010
0.0
1020
0.0
1030
0.0
  0
LINE
  5
1381
  8
SAPA_GLAS
 10
-9.6918398274787467
 20
151.75000014284251
 30
0.0
 11
-8.9418398271351585
 21
152.5000001431861
 31
0.0
1001
ACAD
1010
0.0
1020
0.0
1030
0.0
  0
LINE
  5
1382
  8
SAPA_GLAS
 10
-8.5693078123438973
 20
151.7500001428437
 30
0.0
 11
-7.8193078120015143
 21
152.5000001431861
 31
0.0
1001
ACAD
1010
0.0
1020
0.0
1030
0.0
  0
LINE
  5
1383
  8
SAPA_GLAS
 10
-7.4467757972090309
 20
151.7500001428449
 30
0.0
 11
-6.6967757968678701
 21
152.5000001431861
 31
0.0
1001
ACAD
1010
0.0
1020
0.0
1030
0.0
  0
LINE
  5
1384
  8
SAPA_GLAS
 10
-6.3242437820741682
 20
151.75000014284609
 30
0.0
 11
-5.574243781734225
 21
152.5000001431861
 31
0.0
1001
ACAD
1010
0.0
1020
0.0
1030
0.0
  0
LINE
  5
1385
  8
SAPA_GLAS
 10
-17.681967887267451
 20
151.75000014283381
 30
0.0
 11
-18.050555278786771
 21
152.11858753435311
 31
0.0
1001
ACAD
1010
0.0
1020
0.0
1030
0.0
  0
LINE
  5
1386
  8
SAPA_GLAS
 10
-16.559435872135019
 20
151.75000014283501
 30
0.0
 11
-17.309435872486059
 21
152.5000001431861
 31
0.0
1001
ACAD
1010
0.0
1020
0.0
1030
0.0
  0
LINE
  5
1387
  8
SAPA_GLAS
 10
-15.4369038570026
 20
151.7500001428362
 30
0.0
 11
-16.186903857352419
 21
152.5000001431861
 31
0.0
1001
ACAD
1010
0.0
1020
0.0
1030
0.0
  0
LINE
  5
1388
  8
SAPA_GLAS
 10
-14.314371841870161
 20
151.75000014283739
 30
0.0
 11
-15.064371842218771
 21
152.50000014318601
 31
0.0
1001
ACAD
1010
0.0
1020
0.0
1030
0.0
  0
LINE
  5
1389
  8
SAPA_GLAS
 10
-13.191839826737739
 20
151.7500001428387
 30
0.0
 11
-13.941839827085129
 21
152.5000001431861
 31
0.0
1001
ACAD
1010
0.0
1020
0.0
1030
0.0
  0
LINE
  5
138A
  8
SAPA_GLAS
 10
-12.069307811605309
 20
151.75000014283989
 30
0.0
 11
-12.819307811951489
 21
152.5000001431861
 31
0.0
1001
ACAD
1010
0.0
1020
0.0
1030
0.0
  0
LINE
  5
138B
  8
SAPA_GLAS
 10
-10.94677579647289
 20
151.75000014284109
 30
0.0
 11
-11.69677579681785
 21
152.5000001431861
 31
0.0
1001
ACAD
1010
0.0
1020
0.0
1030
0.0
  0
LINE
  5
138C
  8
SAPA_GLAS
 10
-9.8242437813404671
 20
151.75000014284231
 30
0.0
 11
-10.574243781684199
 21
152.5000001431861
 31
0.0
1001
ACAD
1010
0.0
1020
0.0
1030
0.0
  0
LINE
  5
138D
  8
SAPA_GLAS
 10
-8.7017117662080281
 20
151.7500001428435
 30
0.0
 11
-9.4517117665505594
 21
152.5000001431861
 31
0.0
1001
ACAD
1010
0.0
1020
0.0
1030
0.0
  0
LINE
  5
138E
  8
SAPA_GLAS
 10
-7.5791797510756043
 20
151.7500001428447
 30
0.0
 11
-8.3291797514169161
 21
152.5000001431861
 31
0.0
1001
ACAD
1010
0.0
1020
0.0
1030
0.0
  0
LINE
  5
138F
  8
SAPA_GLAS
 10
-6.4566477359431786
 20
151.75000014284601
 30
0.0
 11
-7.2066477362832737
 21
152.5000001431861
 31
0.0
1001
ACAD
1010
0.0
1020
0.0
1030
0.0
  0
LINE
  5
1390
  8
SAPA_GLAS
 10
-5.3341157208107548
 20
151.75000014284711
 30
0.0
 11
-6.0841157211496304
 21
152.5000001431861
 31
0.0
1001
ACAD
1010
0.0
1020
0.0
1030
0.0
  0
LINE
  5
1391
  8
SAPA_GLAS
 10
-15.25055527877589
 20
175.50000014334699
 30
0.0
 11
-15.25055527877589
 21
160.50000014334699
 31
0.0
  0
LINE
  5
1392
  8
SAPA_GLAS
 10
-15.25055527877589
 20
160.50000014334699
 30
0.0
 11
-5.2505552787756642
 21
160.50000014334699
 31
0.0
  0
LINE
  5
1393
  8
SAPA_GLAS
 10
-5.2505552787756642
 20
160.50000014334699
 30
0.0
 11
-5.2505552787758907
 21
175.50000014334699
 31
0.0
  0
LINE
  5
1394
  8
SAPA_GLAS
 10
-5.2505552787758907
 20
175.50000014334699
 30
0.0
 11
-15.25055527877589
 21
175.50000014334699
 31
0.0
  0
LINE
  5
1395
  8
SAPA_GLAS
 10
-37.250555278775671
 20
152.5000001433468
 30
0.0
 11
-5.2505552787756642
 21
152.5000001433468
 31
0.0
  0
LINE
  5
1396
  8
SAPA_GLAS
 10
-5.2505552787756642
 20
152.5000001433468
 30
0.0
 11
-5.2505552787756642
 21
160.5000001433468
 31
0.0
  0
LINE
  5
1397
  8
SAPA_GLAS
 10
-5.2505552787756642
 20
160.5000001433468
 30
0.0
 11
-37.250555278775671
 21
160.5000001433468
 31
0.0
  0
LINE
  5
1398
  8
SAPA_PROFIL
 10
-13.25055527878726
 20
66.000000143375473
 30
0.0
 11
-13.25055527878362
 21
71.000000143375473
 31
0.0
  0
ARC
  5
1399
  8
SAPA_PROFIL
 10
-12.25055527878362
 20
71.000000143375473
 30
0.0
 40
1.0
 50
90.0
 51
180.0
  0
LINE
  5
139A
  8
SAPA_PROFIL
 10
-12.25055527878362
 20
72.000000143375473
 30
0.0
 11
-2.2505552787845309
 21
72.000000143368183
 31
0.0
  0
ARC
  5
139B
  8
SAPA_PROFIL
 10
-2.2505552787808929
 20
71.000000143371835
 30
0.0
 40
0.999999999996362
 50
0.0000000002084408
 51
90.000000000208431
  0
LINE
  5
139C
  8
SAPA_PROFIL
 10
-1.2505552787845311
 20
71.000000143375473
 30
0.0
 11
-1.2505552787845311
 21
69.250000143339093
 31
0.0
  0
ARC
  5
139D
  8
SAPA_PROFIL
 10
-0.5005552787808938
 20
69.250000143339093
 30
0.0
 40
0.750000000003638
 50
180.0
 51
0.0
  0
LINE
  5
139E
  8
SAPA_PROFIL
 10
0.2494447212227442
 20
69.250000143339093
 30
0.0
 11
0.2494447212263822
 21
71.000000143368197
 31
0.0
  0
ARC
  5
139F
  8
SAPA_PROFIL
 10
-2.2505552787790739
 20
71.000000143370016
 30
0.0
 40
2.5000000000054561
 50
359.99999999995828
 51
89.999999999958305
  0
LINE
  5
13A0
  8
SAPA_PROFIL
 10
-2.2505552787772549
 20
73.500000143375473
 30
0.0
 11
-12.050555278782889
 21
73.500000143375473
 31
0.0
  0
ARC
  5
13A1
  8
SAPA_PROFIL
 10
-12.050555278782889
 20
74.500000143375473
 30
0.0
 40
1.0
 50
180.0
 51
270.0
  0
LINE
  5
13A2
  8
SAPA_PROFIL
 10
-13.050555278782889
 20
74.500000143375473
 30
0.0
 11
-13.050555278782889
 21
130.75000014266971
 31
0.0
  0
ARC
  5
13A3
  8
SAPA_PROFIL
 10
-12.550555278782889
 20
130.75000014266971
 30
0.0
 40
0.5
 50
90.0
 51
180.0
  0
LINE
  5
13A4
  8
SAPA_PROFIL
 10
-12.550555278782889
 20
131.25000014266971
 30
0.0
 11
5.2494447212200148
 21
131.25000014267241
 31
0.0
  0
ARC
  5
13A5
  8
SAPA_PROFIL
 10
5.2494447212194837
 20
131.5500001426731
 30
0.0
 40
0.3000000000006935
 50
270.00000000010141
 51
69.999999999950347
  0
LINE
  5
13A6
  8
SAPA_PROFIL
 10
5.3520507642176653
 20
131.8319079289094
 30
0.0
 11
-0.947949235781607
 21
134.12492040479401
 31
0.0
  0
ARC
  5
13A7
  8
SAPA_PROFIL
 10
-1.050555278778653
 20
133.84301261855779
 30
0.0
 40
0.3000000000001413
 50
70.000000000142805
 51
170.000000000238
  0
LINE
  5
13A8
  8
SAPA_PROFIL
 10
-1.3459976046826789
 20
133.8951070718567
 30
0.0
 11
-1.4750567911789849
 21
133.16317605384299
 31
0.0
  0
ARC
  5
13A9
  8
SAPA_PROFIL
 10
-1.967460667684849
 20
133.25000014267681
 30
0.0
 40
0.4999999999998205
 50
270.00000000001819
 51
349.99999999995811
  0
LINE
  5
13AA
  8
SAPA_PROFIL
 10
-1.96746066768469
 20
132.75000014267701
 30
0.0
 11
-12.75055527878362
 21
132.75000014266971
 31
0.0
  0
ARC
  5
13AB
  8
SAPA_PROFIL
 10
-12.75055527878362
 20
133.25000014266971
 30
0.0
 40
0.5
 50
180.0
 51
270.0
  0
LINE
  5
13AC
  8
SAPA_PROFIL
 10
-13.25055527878362
 20
133.25000014266971
 30
0.0
 11
-13.25055527877635
 21
146.50000014336089
 31
0.0
  0
ARC
  5
13AD
  8
SAPA_PROFIL
 10
-13.75055527877816
 20
146.5000001433591
 30
0.0
 40
0.500000000001819
 50
0.0000000002084408
 51
90.000000000208431
  0
ARC
  5
13AE
  8
SAPA_PROFIL
 10
-13.750555278779981
 20
146.00000014336089
 30
0.0
 40
1.0
 50
90.0
 51
180.0
  0
LINE
  5
13AF
  8
SAPA_PROFIL
 10
-14.750555278779981
 20
146.00000014336089
 30
0.0
 11
-14.75055527878362
 21
66.500000143375473
 31
0.0
  0
ARC
  5
13B0
  8
SAPA_PROFIL
 10
-13.75055527878362
 20
66.500000143375473
 30
0.0
 40
1.0
 50
180.0
 51
270.0
  0
ARC
  5
13B1
  8
SAPA_PROFIL
 10
-13.750555278785439
 20
66.000000143373654
 30
0.0
 40
0.499999999998181
 50
270.00000000020839
 51
0.0000000002084408
  0
LINE
  5
13B2
  8
SAPA_FOGBAND
 10
-8.3869547700116982
 20
68.600432674574677
 30
0.0
 11
-8.4969521551931848
 21
71.949640199236001
 31
0.0
  0
LINE
  5
13B3
  8
SAPA_FOGBAND
 10
-8.4969521551931848
 20
71.949640199236001
 30
0.0
 11
-10.93504549561589
 21
71.949063700361876
 31
0.0
  0
LINE
  5
13B4
  8
SAPA_FOGBAND
 10
-10.93504549561589
 20
71.949063700361876
 30
0.0
 11
-9.8096443731512863
 21
68.600432674574677
 31
0.0
  0
LINE
  5
13B5
  8
SAPA_FOGBAND
 10
-6.6642651668691988
 20
68.600432674574677
 30
0.0
 11
-5.5388185695530856
 21
71.949233414828996
 31
0.0
  0
LINE
  5
13B6
  8
SAPA_FOGBAND
 10
-5.5388185695530856
 20
71.949233414828996
 30
0.0
 11
-7.9769566161023704
 21
71.949669555649052
 31
0.0
  0
LINE
  5
13B7
  8
SAPA_FOGBAND
 10
-7.9769566161023704
 20
71.949669555649052
 30
0.0
 11
-8.0869547700087878
 21
68.600432674574677
 31
0.0
  0
LINE
  5
13B8
  8
SAPA_FOGBAND
 10
-11.38695477000806
 20
67.800432674574495
 30
0.0
 11
-11.38695477000806
 21
68.600432674574677
 31
0.0
  0
LINE
  5
13B9
  8
SAPA_FOGBAND
 10
-11.38695477000806
 20
68.600432674574677
 30
0.0
 11
-5.0869547700124249
 21
68.600432674574677
 31
0.0
  0
LINE
  5
13BA
  8
SAPA_FOGBAND
 10
-5.0869547700124249
 20
68.600432674574677
 30
0.0
 11
-5.0869547700124249
 21
67.800432674574495
 31
0.0
  0
LINE
  5
13BB
  8
SAPA_FOGBAND
 10
-5.0869547700124249
 20
67.800432674574495
 30
0.0
 11
-11.38695477000806
 21
67.800432674574495
 31
0.0
  0
ARC
  5
13BC
  8
SAPA_PROFIL
 62
     4
 10
2.766784490868528
 20
161.58657762670509
 30
0.0
 40
1.34162524926949
 50
180.79556996078571
 51
208.02441875660651
  0
LINE
  5
13BD
  8
SAPA_PROFIL
 62
     4
 10
1.58246825049423
 20
160.95621792600781
 30
0.0
 11
2.5752885735225841
 21
159.23660268373351
 31
0.0
  0
LINE
  5
13BE
  8
SAPA_PROFIL
 62
     4
 10
2.5752885735225841
 20
159.23660268373351
 30
0.0
 11
2.5752885735225841
 21
158.80000014335519
 31
0.0
  0
ARC
  5
13BF
  8
SAPA_PROFIL
 62
     4
 10
2.3252885735225841
 20
158.80000014335519
 30
0.0
 40
0.25
 50
270.0
 51
0.0
  0
LINE
  5
13C0
  8
SAPA_PROFIL
 62
     4
 10
2.3252885735225841
 20
158.55000014335519
 30
0.0
 11
-1.274723426476384
 21
158.55000014335519
 31
0.0
  0
ARC
  5
13C1
  8
SAPA_PROFIL
 62
     4
 10
-1.274723426476388
 20
158.80000014335519
 30
0.0
 40
0.25
 50
180.0
 51
270.00000000000091
  0
LINE
  5
13C2
  8
SAPA_PROFIL
 62
     4
 10
-1.524723426476384
 20
158.80000014335519
 30
0.0
 11
-1.52471178374185
 21
159.23660206493369
 31
0.0
  0
LINE
  5
13C3
  8
SAPA_PROFIL
 62
     4
 10
-1.52471178374185
 20
159.23660206493369
 30
0.0
 11
-0.5318911034512439
 21
160.95621792600099
 31
0.0
  0
ARC
  5
13C4
  8
SAPA_PROFIL
 62
     4
 10
-1.652116207944782
 20
161.57019067616159
 30
0.0
 40
1.2774454284537411
 50
331.27374261803038
 51
359.54293099288469
  0
LINE
  5
13C5
  8
SAPA_PROFIL
 62
     4
 10
-0.374711426476324
 20
161.56000014335541
 30
0.0
 11
-0.374711426476324
 21
195.44000014335501
 31
0.0
  0
ARC
  5
13C6
  8
SAPA_PROFIL
 62
     4
 10
-1.652116207944778
 20
195.4298096105488
 30
0.0
 40
1.277445428453734
 50
0.4570690071153078
 51
28.726257381969699
  0
LINE
  5
13C7
  8
SAPA_PROFIL
 62
     4
 10
-0.5318911034512439
 20
196.0437823607094
 30
0.0
 11
-1.52471178374185
 21
197.7633982217767
 31
0.0
  0
LINE
  5
13C8
  8
SAPA_PROFIL
 62
     4
 10
-1.52471178374185
 20
197.7633982217767
 30
0.0
 11
-1.524723426476384
 21
198.20000014335531
 31
0.0
  0
ARC
  5
13C9
  8
SAPA_PROFIL
 62
     4
 10
-1.274723426476388
 20
198.20000014335531
 30
0.0
 40
0.2499999999999962
 50
89.999999999999119
 51
180.0
  0
LINE
  5
13CA
  8
SAPA_PROFIL
 62
     4
 10
-1.274723426476384
 20
198.4500001433552
 30
0.0
 11
2.3252885735225841
 21
198.4500001433552
 31
0.0
  0
ARC
  5
13CB
  8
SAPA_PROFIL
 62
     4
 10
2.325288573522585
 20
198.20000014335531
 30
0.0
 40
0.25
 50
0.0
 51
90.000000000000099
  0
LINE
  5
13CC
  8
SAPA_PROFIL
 62
     4
 10
2.5752885735225841
 20
198.20000014335531
 30
0.0
 11
2.5752885735225841
 21
197.76339760297691
 31
0.0
  0
LINE
  5
13CD
  8
SAPA_PROFIL
 62
     4
 10
2.5752885735225841
 20
197.76339760297691
 30
0.0
 11
1.58246825049423
 21
196.04378236070261
 31
0.0
  0
ARC
  5
13CE
  8
SAPA_PROFIL
 62
     4
 10
2.7667844908694672
 20
195.4134226600051
 30
0.0
 40
1.341625249270421
 50
151.97558124340381
 51
179.2044300392246
  0
LINE
  5
13CF
  8
SAPA_PROFIL
 62
     4
 10
1.4252885735229479
 20
195.43205095092389
 30
0.0
 11
1.4252885735229479
 21
161.5679493357861
 31
0.0
  0
ARC
  5
13D0
  8
SAPA_PROFIL
 10
4.4494447212132631
 20
158.2561311023984
 30
0.0
 40
0.2999999999994767
 50
0.0000000000651378
 51
54.379930240924601
  0
ARC
  5
13D1
  8
SAPA_PROFIL
 10
4.7988893712726073
 20
158.74386918430659
 30
0.0
 40
0.2999999999994069
 50
179.9999999998154
 51
234.3799302434972
  0
LINE
  5
13D2
  8
SAPA_PROFIL
 10
4.498889371273207
 20
158.74386918430761
 30
0.0
 11
4.498889371273207
 21
159.700000143343
 31
0.0
  0
ARC
  5
13D3
  8
SAPA_PROFIL
 10
4.798889371277979
 20
159.700000143349
 30
0.0
 40
0.300000000004772
 50
117.12809249346429
 51
180.00000000114531
  0
ARC
  5
13D4
  8
SAPA_PROFIL
 10
4.5253005735228662
 20
160.2339937479444
 30
0.0
 40
0.3000000000001489
 50
297.12809249331337
 51
359.99999999995123
  0
LINE
  5
13D5
  8
SAPA_PROFIL
 10
4.825300573523009
 20
160.2339937479442
 30
0.0
 11
4.825300573523009
 21
162.41154210290139
 31
0.0
  0
ARC
  5
13D6
  8
SAPA_PROFIL
 10
4.5253005735221929
 20
162.4115421029002
 30
0.0
 40
0.3000000000008152
 50
0.000000000222554
 51
19.999999999984869
  0
LINE
  5
13D7
  8
SAPA_PROFIL
 10
4.8072083597587598
 20
162.51414814589819
 30
0.0
 11
4.2876942920836418
 21
163.94150131594321
 31
0.0
  0
ARC
  5
13D8
  8
SAPA_PROFIL
 10
4.0057865058430684
 20
163.83889527293891
 30
0.0
 40
0.3000000000067889
 50
20.000000000880981
 51
110.0000000002377
  0
LINE
  5
13D9
  8
SAPA_PROFIL
 10
3.903180462841874
 20
164.12080305918059
 30
0.0
 11
3.71524193869186
 21
164.0523990305096
 31
0.0
  0
ARC
  5
13DA
  8
SAPA_PROFIL
 10
3.8178479816822959
 20
163.77049124427819
 30
0.0
 40
0.29999999999342
 50
109.9999999989808
 51
199.99999999896241
  0
LINE
  5
13DB
  8
SAPA_PROFIL
 10
3.535940195450848
 20
163.66788520128779
 30
0.0
 11
3.9121623531161731
 21
162.63422331841909
 31
0.0
  0
ARC
  5
13DC
  8
SAPA_PROFIL
 10
3.6302545668794211
 20
162.5316172754263
 30
0.0
 40
0.2999999999992399
 50
289.99999999780653
 51
19.99999999905469
  0
LINE
  5
13DD
  8
SAPA_PROFIL
 10
3.7328606098660648
 20
162.2497094891873
 30
0.0
 11
1.9226705305270571
 21
161.59085418195119
 31
0.0
  0
ARC
  5
13DE
  8
SAPA_PROFIL
 10
2.0252765735234619
 20
161.3089463957152
 30
0.0
 40
0.2999999999998421
 50
109.9999999997478
 51
179.9999999999728
  0
LINE
  5
13DF
  8
SAPA_PROFIL
 10
1.7252765735236151
 20
161.30894639571531
 30
0.0
 11
1.7252765735236151
 21
160.88923062789581
 31
0.0
  0
ARC
  5
13E0
  8
SAPA_PROFIL
 10
2.0252765735231031
 20
160.8892306278965
 30
0.0
 40
0.2999999999994882
 50
180.00000000014111
 51
210.00000000013861
  0
LINE
  5
13E1
  8
SAPA_PROFIL
 10
1.7654689523885729
 20
160.73923062789621
 30
0.0
 11
2.6252765735232511
 21
159.25000014335501
 31
0.0
  0
LINE
  5
13E2
  8
SAPA_PROFIL
 10
2.6252765735232511
 20
159.25000014335501
 30
0.0
 11
2.6252885735236751
 21
158.80000014335519
 31
0.0
  0
ARC
  5
13E3
  8
SAPA_PROFIL
 10
2.3252885735230442
 20
158.80000014335559
 30
0.0
 40
0.3000000000006313
 50
269.99999999991218
 51
359.99999999991309
  0
LINE
  5
13E4
  8
SAPA_PROFIL
 10
2.3252885735225841
 20
158.50000014335501
 30
0.0
 11
-1.274723426476384
 21
158.50000014335501
 31
0.0
  0
ARC
  5
13E5
  8
SAPA_PROFIL
 10
-1.274723426476839
 20
158.80000014335559
 30
0.0
 40
0.3000000000006366
 50
180.0000000000868
 51
270.0000000000868
  0
LINE
  5
13E6
  8
SAPA_PROFIL
 10
-1.5747234264774761
 20
158.80000014335519
 30
0.0
 11
-1.5747234264774761
 21
159.25000014335501
 31
0.0
  0
LINE
  5
13E7
  8
SAPA_PROFIL
 10
-1.5747234264774761
 20
159.25000014335501
 30
0.0
 11
-0.7148986889071695
 21
160.7392602744294
 31
0.0
  0
ARC
  5
13E8
  8
SAPA_PROFIL
 10
-0.974706310043593
 20
160.8892602744269
 30
0.0
 40
0.2999999999997122
 50
330.00000000051227
 51
359.9963531330713
  0
LINE
  5
13E9
  8
SAPA_PROFIL
 10
-0.6747063106515725
 20
160.8892411794763
 30
0.0
 11
-0.6746992608598248
 21
161.00000014335319
 31
0.0
  0
LINE
  5
13EA
  8
SAPA_PROFIL
 10
-0.6746992608598248
 20
161.00000014335319
 30
0.0
 11
-2.7505552787763459
 21
161.00000014335319
 31
0.0
  0
ARC
  5
13EB
  8
SAPA_PROFIL
 10
-2.7505552787763459
 20
160.50000014335319
 30
0.0
 40
0.5
 50
89.999999999999943
 51
180.0
  0
LINE
  5
13EC
  8
SAPA_PROFIL
 10
-3.2505552787763459
 20
160.50000014335319
 30
0.0
 11
-3.2505552787763459
 21
155.25000014368791
 31
0.0
  0
ARC
  5
13ED
  8
SAPA_PROFIL
 10
-2.7505552787763459
 20
155.25000014368791
 30
0.0
 40
0.5
 50
180.0
 51
270.0
  0
LINE
  5
13EE
  8
SAPA_PROFIL
 10
-2.7505552787763459
 20
154.75000014368791
 30
0.0
 11
-2.2505552751929372
 21
154.75000014368791
 31
0.0
  0
ARC
  5
13EF
  8
SAPA_PROFIL
 10
-2.2505552751929372
 20
155.25000014368791
 30
0.0
 40
0.5
 50
270.0
 51
0.0
  0
LINE
  5
13F0
  8
SAPA_PROFIL
 10
-1.750555275192937
 20
155.25000014368791
 30
0.0
 11
-1.75055527518748
 21
156.25000014409531
 31
0.0
  0
LINE
  5
13F1
  8
SAPA_PROFIL
 10
-1.75055527518748
 20
156.25000014409531
 30
0.0
 11
1.4494447252661751
 21
156.2500001440994
 31
0.0
  0
LINE
  5
13F2
  8
SAPA_PROFIL
 10
1.4494447252661751
 20
156.2500001440994
 30
0.0
 11
1.4494447252588989
 21
151.75000014319349
 31
0.0
  0
LINE
  5
13F3
  8
SAPA_PROFIL
 10
1.4494447252588989
 20
151.75000014319349
 30
0.0
 11
-18.050555278786529
 21
151.7500001431722
 31
0.0
  0
ARC
  5
13F4
  8
SAPA_PROFIL
 10
-18.050555278786799
 20
151.55000014317119
 30
0.0
 40
0.2000000000009834
 50
89.99999999992265
 51
195.60191674437539
  0
ARC
  5
13F5
  8
SAPA_PROFIL
 10
-17.28003242282842
 20
151.76516177647301
 30
0.0
 40
1.0000000000005631
 50
195.60191674453591
 51
263.75641154149378
  0
ARC
  5
13F6
  8
SAPA_PROFIL
 10
-3.2505552786001308
 20
280.00000014780761
 30
0.0
 40
130.00000000411961
 50
263.75641154141101
 51
269.99999999991269
  0
LINE
  5
13F7
  8
SAPA_PROFIL
 10
-3.2505552787981742
 20
150.00000014368791
 30
0.0
 11
1.7494447211217901
 21
150.00000014354961
 31
0.0
  0
ARC
  5
13F8
  8
SAPA_PROFIL
 10
1.7494447212127511
 20
153.00000014354961
 30
0.0
 40
3.0
 50
269.99999999826269
 51
0.0
  0
LINE
  5
13F9
  8
SAPA_PROFIL
 10
4.7494447212127389
 20
153.00000014354961
 30
0.0
 11
4.7494447212127389
 21
158.25613110239871
 31
0.0
  0
ARC
  5
13FA
  8
SAPA_PROFIL
 10
4.4494447212132631
 20
198.74386918431159
 30
0.0
 40
0.2999999999994767
 50
305.62006975907542
 51
359.99999999993491
  0
ARC
  5
13FB
  8
SAPA_PROFIL
 10
4.7988893712726073
 20
198.25613110240329
 30
0.0
 40
0.2999999999994069
 50
125.6200697565028
 51
180.00000000018451
  0
LINE
  5
13FC
  8
SAPA_PROFIL
 10
4.498889371273207
 20
198.25613110240241
 30
0.0
 11
4.498889371273207
 21
197.30000014336699
 31
0.0
  0
ARC
  5
13FD
  8
SAPA_PROFIL
 10
4.7988893712776068
 20
197.30000014336119
 30
0.0
 40
0.3000000000043999
 50
179.99999999889809
 51
242.87190750657911
  0
ARC
  5
13FE
  8
SAPA_PROFIL
 10
4.5253005735228662
 20
196.76600653876599
 30
0.0
 40
0.3000000000001489
 50
0.0000000000488533
 51
62.871907506686632
  0
LINE
  5
13FF
  8
SAPA_PROFIL
 10
4.825300573523009
 20
196.76600653876631
 30
0.0
 11
4.825300573523009
 21
194.588458183809
 31
0.0
  0
ARC
  5
1400
  8
SAPA_PROFIL
 10
4.5253005735234826
 20
194.58845818381039
 30
0.0
 40
0.2999999999995255
 50
339.99999999997169
 51
359.99999999973397
  0
LINE
  5
1401
  8
SAPA_PROFIL
 10
4.8072083597587598
 20
194.4858521408128
 30
0.0
 11
4.2876942920836418
 21
193.0584989707672
 31
0.0
  0
ARC
  5
1402
  8
SAPA_PROFIL
 10
4.0057865058430684
 20
193.16110501377159
 30
0.0
 40
0.3000000000067889
 50
249.99999999976231
 51
339.99999999911898
  0
LINE
  5
1403
  8
SAPA_PROFIL
 10
3.903180462841874
 20
192.8791972275298
 30
0.0
 11
3.71524193869186
 21
192.9476012562009
 31
0.0
  0
ARC
  5
1404
  8
SAPA_PROFIL
 10
3.817847981682069
 20
193.229509042432
 30
0.0
 40
0.2999999999931286
 50
160.00000000106351
 51
250.00000000104521
  0
LINE
  5
1405
  8
SAPA_PROFIL
 10
3.535940195450848
 20
193.3321150854222
 30
0.0
 11
3.9121623531161731
 21
194.36577696829181
 31
0.0
  0
ARC
  5
1406
  8
SAPA_PROFIL
 10
3.6302545668796489
 20
194.46838301128429
 30
0.0
 40
0.2999999999989485
 50
340.00000000097128
 51
70.00000000221948
  0
LINE
  5
1407
  8
SAPA_PROFIL
 10
3.7328606098660648
 20
194.75029079752309
 30
0.0
 11
1.9226705305270571
 21
195.40914610475869
 31
0.0
  0
ARC
  5
1408
  8
SAPA_PROFIL
 10
2.025276573523787
 20
195.69105389099499
 30
0.0
 40
0.3000000000001667
 50
179.99999999998369
 51
250.00000000020879
  0
LINE
  5
1409
  8
SAPA_PROFIL
 10
1.7252765735236151
 20
195.69105389099511
 30
0.0
 11
1.7252765735236151
 21
196.1107696588146
 31
0.0
  0
ARC
  5
140A
  8
SAPA_PROFIL
 10
2.0252765735231031
 20
196.11076965881389
 30
0.0
 40
0.2999999999994882
 50
149.99999999986139
 51
179.9999999998588
  0
LINE
  5
140B
  8
SAPA_PROFIL
 10
1.7654689523885729
 20
196.2607696588143
 30
0.0
 11
2.6252765735232511
 21
197.75000014335501
 31
0.0
  0
LINE
  5
140C
  8
SAPA_PROFIL
 10
2.6252765735232511
 20
197.75000014335501
 30
0.0
 11
2.6252885735236751
 21
198.20000014335531
 31
0.0
  0
ARC
  5
140D
  8
SAPA_PROFIL
 10
2.325288573523272
 20
198.2000001433546
 30
0.0
 40
0.3000000000004039
 50
0.0000000001302755
 51
90.000000000131294
  0
LINE
  5
140E
  8
SAPA_PROFIL
 10
2.3252885735225841
 20
198.50000014335501
 30
0.0
 11
-1.274723426476384
 21
198.50000014335501
 31
0.0
  0
ARC
  5
140F
  8
SAPA_PROFIL
 10
-1.2747234264770659
 20
198.2000001433546
 30
0.0
 40
0.3000000000004093
 50
89.999999999869729
 51
179.99999999986969
  0
LINE
  5
1410
  8
SAPA_PROFIL
 10
-1.5747234264774761
 20
198.20000014335531
 30
0.0
 11
-1.5747234264774761
 21
197.75000014335501
 31
0.0
  0
LINE
  5
1411
  8
SAPA_PROFIL
 10
-1.5747234264774761
 20
197.75000014335501
 30
0.0
 11
-0.7148986889071695
 21
196.2607400122811
 31
0.0
  0
ARC
  5
1412
  8
SAPA_PROFIL
 10
-0.974706310043593
 20
196.11074001228349
 30
0.0
 40
0.2999999999997122
 50
0.0036468669287298
 51
29.999999999487681
  0
LINE
  5
1413
  8
SAPA_PROFIL
 10
-0.6747063106515725
 20
196.11075910723409
 30
0.0
 11
-0.6746992608598248
 21
196.0000001433568
 31
0.0
  0
LINE
  5
1414
  8
SAPA_PROFIL
 10
-0.6746992608598248
 20
196.0000001433568
 30
0.0
 11
-2.7505552787763459
 21
196.0000001433568
 31
0.0
  0
ARC
  5
1415
  8
SAPA_PROFIL
 10
-2.7505552787763459
 20
196.5000001433568
 30
0.0
 40
0.5
 50
180.0
 51
270.00000000000011
  0
LINE
  5
1416
  8
SAPA_PROFIL
 10
-3.2505552787763459
 20
196.5000001433568
 30
0.0
 11
-3.2505552787763459
 21
201.75000014302211
 31
0.0
  0
ARC
  5
1417
  8
SAPA_PROFIL
 10
-2.7505552787763459
 20
201.75000014302211
 30
0.0
 40
0.5
 50
90.0
 51
180.0
  0
LINE
  5
1418
  8
SAPA_PROFIL
 10
-2.7505552787763459
 20
202.25000014302211
 30
0.0
 11
-2.2505552751929372
 21
202.25000014302211
 31
0.0
  0
ARC
  5
1419
  8
SAPA_PROFIL
 10
-2.2505552751929372
 20
201.75000014302211
 30
0.0
 40
0.5
 50
0.0
 51
90.0
  0
LINE
  5
141A
  8
SAPA_PROFIL
 10
-1.750555275192937
 20
201.75000014302211
 30
0.0
 11
-1.75055527518748
 21
200.75000014261511
 31
0.0
  0
LINE
  5
141B
  8
SAPA_PROFIL
 10
-1.75055527518748
 20
200.75000014261511
 30
0.0
 11
1.4494447252661751
 21
200.7500001426111
 31
0.0
  0
LINE
  5
141C
  8
SAPA_PROFIL
 10
1.4494447252661751
 20
200.7500001426111
 30
0.0
 11
1.4494447252588989
 21
205.2500001435169
 31
0.0
  0
LINE
  5
141D
  8
SAPA_PROFIL
 10
1.4494447252588989
 20
205.2500001435169
 30
0.0
 11
-18.050555278786529
 21
205.2500001435383
 31
0.0
  0
ARC
  5
141E
  8
SAPA_PROFIL
 10
-18.050555278786799
 20
205.45000014353931
 30
0.0
 40
0.2000000000009834
 50
164.3980832556245
 51
270.00000000007742
  0
ARC
  5
141F
  8
SAPA_PROFIL
 10
-17.28003242282842
 20
205.23483851023749
 30
0.0
 40
1.0000000000005631
 50
96.243588458506153
 51
164.39808325546409
  0
ARC
  5
1420
  8
SAPA_PROFIL
 10
-3.2505552786001308
 20
77.000000138902948
 30
0.0
 40
130.00000000411961
 50
90.000000000087283
 51
96.243588458588974
  0
LINE
  5
1421
  8
SAPA_PROFIL
 10
-3.2505552787981742
 20
207.00000014302259
 30
0.0
 11
1.7494447211217901
 21
207.00000014316041
 31
0.0
  0
ARC
  5
1422
  8
SAPA_PROFIL
 10
1.7494447212127511
 20
204.00000014316041
 30
0.0
 40
3.0
 50
0.0
 51
90.000000001737234
  0
LINE
  5
1423
  8
SAPA_PROFIL
 10
4.7494447212127389
 20
204.00000014316041
 30
0.0
 11
4.7494447212127389
 21
198.74386918431131
 31
0.0
  0
LINE
  5
1424
  8
SAPA_PROFIL
 62
     4
 10
3.4017096535960709
 20
137.50000007463311
 30
-0.2
 11
-10.798290346406469
 21
137.50000007463311
 31
-0.2
1001
RC_PROFILE
1002
{
1000
Region
1002
}
  0
ARC
  5
1425
  8
SAPA_PROFIL
 62
     4
 10
-10.798290346406469
 20
138.00000007463311
 30
-0.2
 40
0.5
 50
180.00000000020839
 51
270.0
1001
RC_PROFILE
1002
{
1000
Region
1002
}
  0
LINE
  5
1426
  8
SAPA_PROFIL
 62
     4
 10
-11.298290346406469
 20
138.00000007463129
 30
-0.2
 11
-11.29829034640829
 21
142.0000000752525
 31
-0.2
1001
RC_PROFILE
1002
{
1000
Region
1002
}
  0
ARC
  5
1427
  8
SAPA_PROFIL
 62
     4
 10
-10.79829034640829
 20
142.0000000752525
 30
-0.2
 40
0.5
 50
90.0
 51
180.0
1001
RC_PROFILE
1002
{
1000
Region
1002
}
  0
LINE
  5
1428
  8
SAPA_PROFIL
 62
     4
 10
-10.79829034640829
 20
142.5000000752525
 30
-0.2
 11
3.4017096535942519
 21
142.50000007525969
 31
-0.2
1001
RC_PROFILE
1002
{
1000
Region
1002
}
  0
ARC
  5
1429
  8
SAPA_PROFIL
 62
     4
 10
3.4017096535957299
 20
142.00000007525941
 30
-0.2
 40
0.5000000000003411
 50
0.0000000000390827
 51
90.000000000169351
1001
RC_PROFILE
1002
{
1000
Region
1002
}
  0
LINE
  5
142A
  8
SAPA_PROFIL
 62
     4
 10
3.9017096535960709
 20
142.00000007525969
 30
-0.2
 11
3.9017096535960709
 21
138.00000007463311
 31
-0.2
1001
RC_PROFILE
1002
{
1000
Region
1002
}
  0
ARC
  5
142B
  8
SAPA_PROFIL
 62
     4
 10
3.4017096535960709
 20
138.00000007463311
 30
-0.2
 40
0.5
 50
270.0
 51
0.0
1001
RC_PROFILE
1002
{
1000
Region
1002
}
  0
ARC
  5
142C
  8
SAPA_PROFIL
 62
     4
 10
28.965183210005371
 20
150.92274014465011
 30
0.0
 40
1.2000000000004389
 50
0.0000000000841363
 51
30.000000000105089
1001
GENIUS_GENOBJ-N-FIL_13
1002
{
1000
OWNER
1000
GEN
1002
}
1001
GENIUS_GENODEF_13
1002
{
1000
HIER
1070
     0
1002
}
1002
{
1000
MANEDIT
1070
     0
1002
}
1002
{
1000
NOSEL
1070
     0
1002
}
1002
{
1000
BEHIND
1070
     0
1002
}
1002
{
1000
OTHER
1070
     0
1002
}
1002
{
1000
REACTOR
1002
}
  0
LINE
  5
142D
  8
SAPA_PROFIL
 62
     4
 10
30.004413694545971
 20
151.52274014465229
 30
0.0
 11
28.999444363948669
 21
153.26339808529559
 31
0.0
1001
GENIUS_GENOBJ-N-FIL_13
1002
{
1000
OWNER
1000
GEN
1002
}
1001
GENIUS_GENODEF_13
1002
{
1000
HIER
1070
     0
1002
}
1002
{
1000
MANEDIT
1070
     0
1002
}
1002
{
1000
NOSEL
1070
     0
1002
}
1002
{
1000
BEHIND
1070
     0
1002
}
1002
{
1000
OTHER
1070
     0
1002
}
1002
{
1000
REACTOR
1002
}
  0
LINE
  5
142E
  8
SAPA_PROFIL
 62
     4
 10
28.999444363948669
 20
153.26339808529559
 30
0.0
 11
28.999432721214141
 21
153.70000000687421
 31
0.0
1001
GENIUS_GENOBJ-N-FIL_13
1002
{
1000
OWNER
1000
GEN
1002
}
1001
GENIUS_GENODEF_13
1002
{
1000
HIER
1070
     0
1002
}
1002
{
1000
MANEDIT
1070
     0
1002
}
1002
{
1000
NOSEL
1070
     0
1002
}
1002
{
1000
BEHIND
1070
     0
1002
}
1002
{
1000
OTHER
1070
     0
1002
}
1002
{
1000
REACTOR
1002
}
  0
ARC
  5
142F
  8
SAPA_PROFIL
 62
     4
 10
29.249432721214131
 20
153.70000000687421
 30
0.0
 40
0.2499999999999964
 50
89.999999999999204
 51
180.0
1001
GENIUS_GENOBJ-N-FIL_13
1002
{
1000
OWNER
1000
GEN
1002
}
1001
GENIUS_GENODEF_13
1002
{
1000
HIER
1070
     0
1002
}
1002
{
1000
MANEDIT
1070
     0
1002
}
1002
{
1000
NOSEL
1070
     0
1002
}
1002
{
1000
BEHIND
1070
     0
1002
}
1002
{
1000
OTHER
1070
     0
1002
}
1002
{
1000
REACTOR
1002
}
  0
LINE
  5
1430
  8
SAPA_PROFIL
 62
     4
 10
29.249432721214141
 20
153.95000000687421
 30
0.0
 11
32.849444721213104
 21
153.95000000687421
 31
0.0
1001
GENIUS_GENOBJ-N-FIL_13
1002
{
1000
OWNER
1000
GEN
1002
}
1001
GENIUS_GENODEF_13
1002
{
1000
HIER
1070
     0
1002
}
1002
{
1000
MANEDIT
1070
     0
1002
}
1002
{
1000
NOSEL
1070
     0
1002
}
1002
{
1000
BEHIND
1070
     0
1002
}
1002
{
1000
OTHER
1070
     0
1002
}
1002
{
1000
REACTOR
1002
}
  0
ARC
  5
1431
  8
SAPA_PROFIL
 62
     4
 10
32.849444721213104
 20
153.70000000687421
 30
0.0
 40
0.25
 50
0.0
 51
90.0
1001
GENIUS_GENOBJ-N-FIL_13
1002
{
1000
OWNER
1000
GEN
1002
}
1001
GENIUS_GENODEF_13
1002
{
1000
HIER
1070
     0
1002
}
1002
{
1000
MANEDIT
1070
     0
1002
}
1002
{
1000
NOSEL
1070
     0
1002
}
1002
{
1000
BEHIND
1070
     0
1002
}
1002
{
1000
OTHER
1070
     0
1002
}
1002
{
1000
REACTOR
1002
}
  0
LINE
  5
1432
  8
SAPA_PROFIL
 62
     4
 10
33.099444721213111
 20
153.70000000687421
 30
0.0
 11
33.099444721213111
 21
153.26339746649541
 31
0.0
1001
GENIUS_GENOBJ-N-FIL_13
1002
{
1000
OWNER
1000
GEN
1002
}
1001
GENIUS_GENODEF_13
1002
{
1000
HIER
1070
     0
1002
}
1002
{
1000
MANEDIT
1070
     0
1002
}
1002
{
1000
NOSEL
1070
     0
1002
}
1002
{
1000
BEHIND
1070
     0
1002
}
1002
{
1000
OTHER
1070
     0
1002
}
1002
{
1000
REACTOR
1002
}
  0
LINE
  5
1433
  8
SAPA_PROFIL
 62
     4
 10
33.099444721213111
 20
153.26339746649541
 30
0.0
 11
32.125952725463087
 21
151.5772598690946
 31
0.0
1001
GENIUS_GENOBJ-N-FIL_13
1002
{
1000
OWNER
1000
GEN
1002
}
1001
GENIUS_GENODEF_13
1002
{
1000
HIER
1070
     0
1002
}
1002
{
1000
MANEDIT
1070
     0
1002
}
1002
{
1000
NOSEL
1070
     0
1002
}
1002
{
1000
BEHIND
1070
     0
1002
}
1002
{
1000
OTHER
1070
     0
1002
}
1002
{
1000
REACTOR
1002
}
  0
ARC
  5
1434
  8
SAPA_PROFIL
 62
     4
 10
33.165183210004678
 20
150.97725986909589
 30
0.0
 40
1.1999999999995941
 50
150.00000000005809
 51
180.00000000005559
1001
GENIUS_GENOBJ-N-FIL_13
1002
{
1000
OWNER
1000
GEN
1002
}
1001
GENIUS_GENODEF_13
1002
{
1000
HIER
1070
     0
1002
}
1002
{
1000
MANEDIT
1070
     0
1002
}
1002
{
1000
NOSEL
1070
     0
1002
}
1002
{
1000
BEHIND
1070
     0
1002
}
1002
{
1000
OTHER
1070
     0
1002
}
1002
{
1000
REACTOR
1002
}
  0
LINE
  5
1435
  8
SAPA_PROFIL
 62
     4
 10
31.96518321000508
 20
150.97725986909469
 30
0.0
 11
31.96518321000508
 21
129.02274028080359
 31
0.0
1001
GENIUS_GENOBJ-N-FIL_13
1002
{
1000
OWNER
1000
GEN
1002
}
1001
GENIUS_GENODEF_13
1002
{
1000
HIER
1070
     0
1002
}
1002
{
1000
MANEDIT
1070
     0
1002
}
1002
{
1000
NOSEL
1070
     0
1002
}
1002
{
1000
BEHIND
1070
     0
1002
}
1002
{
1000
OTHER
1070
     0
1002
}
1002
{
1000
REACTOR
1002
}
  0
ARC
  5
1436
  8
SAPA_PROFIL
 62
     4
 10
33.165183210004678
 20
129.0227402808024
 30
0.0
 40
1.1999999999995969
 50
179.99999999994429
 51
209.99999999994191
1001
GENIUS_GENOBJ-N-FIL_13
1002
{
1000
OWNER
1000
GEN
1002
}
1001
GENIUS_GENODEF_13
1002
{
1000
HIER
1070
     0
1002
}
1002
{
1000
MANEDIT
1070
     0
1002
}
1002
{
1000
NOSEL
1070
     0
1002
}
1002
{
1000
BEHIND
1070
     0
1002
}
1002
{
1000
OTHER
1070
     0
1002
}
1002
{
1000
REACTOR
1002
}
  0
LINE
  5
1437
  8
SAPA_PROFIL
 62
     4
 10
32.125952725463087
 20
128.42274028080371
 30
0.0
 11
33.099444721213111
 21
126.73660268340289
 31
0.0
1001
GENIUS_GENOBJ-N-FIL_13
1002
{
1000
OWNER
1000
GEN
1002
}
1001
GENIUS_GENODEF_13
1002
{
1000
HIER
1070
     0
1002
}
1002
{
1000
MANEDIT
1070
     0
1002
}
1002
{
1000
NOSEL
1070
     0
1002
}
1002
{
1000
BEHIND
1070
     0
1002
}
1002
{
1000
OTHER
1070
     0
1002
}
1002
{
1000
REACTOR
1002
}
  0
LINE
  5
1438
  8
SAPA_PROFIL
 62
     4
 10
33.099444721213111
 20
126.73660268340289
 30
0.0
 11
33.099444721213111
 21
126.3000001430246
 31
0.0
1001
GENIUS_GENOBJ-N-FIL_13
1002
{
1000
OWNER
1000
GEN
1002
}
1001
GENIUS_GENODEF_13
1002
{
1000
HIER
1070
     0
1002
}
1002
{
1000
MANEDIT
1070
     0
1002
}
1002
{
1000
NOSEL
1070
     0
1002
}
1002
{
1000
BEHIND
1070
     0
1002
}
1002
{
1000
OTHER
1070
     0
1002
}
1002
{
1000
REACTOR
1002
}
  0
ARC
  5
1439
  8
SAPA_PROFIL
 62
     4
 10
32.849444721213104
 20
126.3000001430246
 30
0.0
 40
0.25
 50
270.0
 51
0.0
1001
GENIUS_GENOBJ-N-FIL_13
1002
{
1000
OWNER
1000
GEN
1002
}
1001
GENIUS_GENODEF_13
1002
{
1000
HIER
1070
     0
1002
}
1002
{
1000
MANEDIT
1070
     0
1002
}
1002
{
1000
NOSEL
1070
     0
1002
}
1002
{
1000
BEHIND
1070
     0
1002
}
1002
{
1000
OTHER
1070
     0
1002
}
1002
{
1000
REACTOR
1002
}
  0
LINE
  5
143A
  8
SAPA_PROFIL
 62
     4
 10
32.849444721213104
 20
126.0500001430246
 30
0.0
 11
29.249432721214141
 21
126.0500001430246
 31
0.0
1001
GENIUS_GENOBJ-N-FIL_13
1002
{
1000
OWNER
1000
GEN
1002
}
1001
GENIUS_GENODEF_13
1002
{
1000
HIER
1070
     0
1002
}
1002
{
1000
MANEDIT
1070
     0
1002
}
1002
{
1000
NOSEL
1070
     0
1002
}
1002
{
1000
BEHIND
1070
     0
1002
}
1002
{
1000
OTHER
1070
     0
1002
}
1002
{
1000
REACTOR
1002
}
  0
ARC
  5
143B
  8
SAPA_PROFIL
 62
     4
 10
29.249432721214131
 20
126.3000001430246
 30
0.0
 40
0.25
 50
180.0
 51
270.0000000000008
1001
GENIUS_GENOBJ-N-FIL_13
1002
{
1000
OWNER
1000
GEN
1002
}
1001
GENIUS_GENODEF_13
1002
{
1000
HIER
1070
     0
1002
}
1002
{
1000
MANEDIT
1070
     0
1002
}
1002
{
1000
NOSEL
1070
     0
1002
}
1002
{
1000
BEHIND
1070
     0
1002
}
1002
{
1000
OTHER
1070
     0
1002
}
1002
{
1000
REACTOR
1002
}
  0
LINE
  5
143C
  8
SAPA_PROFIL
 62
     4
 10
28.999432721214141
 20
126.3000001430246
 30
0.0
 11
28.999444363948669
 21
126.73660206460271
 31
0.0
1001
GENIUS_GENOBJ-N-FIL_13
1002
{
1000
OWNER
1000
GEN
1002
}
1001
GENIUS_GENODEF_13
1002
{
1000
HIER
1070
     0
1002
}
1002
{
1000
MANEDIT
1070
     0
1002
}
1002
{
1000
NOSEL
1070
     0
1002
}
1002
{
1000
BEHIND
1070
     0
1002
}
1002
{
1000
OTHER
1070
     0
1002
}
1002
{
1000
REACTOR
1002
}
  0
LINE
  5
143D
  8
SAPA_PROFIL
 62
     4
 10
28.999444363948669
 20
126.73660206460271
 30
0.0
 11
30.004413694545971
 21
128.47726000524651
 31
0.0
1001
GENIUS_GENOBJ-N-FIL_13
1002
{
1000
OWNER
1000
GEN
1002
}
1001
GENIUS_GENODEF_13
1002
{
1000
HIER
1070
     0
1002
}
1002
{
1000
MANEDIT
1070
     0
1002
}
1002
{
1000
NOSEL
1070
     0
1002
}
1002
{
1000
BEHIND
1070
     0
1002
}
1002
{
1000
OTHER
1070
     0
1002
}
1002
{
1000
REACTOR
1002
}
  0
ARC
  5
143E
  8
SAPA_PROFIL
 62
     4
 10
28.965183210005371
 20
129.0772600052486
 30
0.0
 40
1.2000000000004361
 50
329.99999999989478
 51
359.99999999991587
1001
GENIUS_GENOBJ-N-FIL_13
1002
{
1000
OWNER
1000
GEN
1002
}
1001
GENIUS_GENODEF_13
1002
{
1000
HIER
1070
     0
1002
}
1002
{
1000
MANEDIT
1070
     0
1002
}
1002
{
1000
NOSEL
1070
     0
1002
}
1002
{
1000
BEHIND
1070
     0
1002
}
1002
{
1000
OTHER
1070
     0
1002
}
1002
{
1000
REACTOR
1002
}
  0
LINE
  5
143F
  8
SAPA_PROFIL
 62
     4
 10
30.165183210005811
 20
129.0772600052469
 30
0.0
 11
30.165183210003988
 21
131.80000014277539
 31
0.0
1001
GENIUS_GENOBJ-N-FIL_13
1002
{
1000
OWNER
1000
GEN
1002
}
1001
GENIUS_GENODEF_13
1002
{
1000
HIER
1070
     0
1002
}
1002
{
1000
MANEDIT
1070
     0
1002
}
1002
{
1000
NOSEL
1070
     0
1002
}
1002
{
1000
BEHIND
1070
     0
1002
}
1002
{
1000
OTHER
1070
     0
1002
}
1002
{
1000
REACTOR
1002
}
  0
ARC
  5
1440
  8
SAPA_PROFIL
 62
     4
 10
28.965183210004401
 20
131.80000014277471
 30
0.0
 40
1.1999999999995901
 50
0.0000000000325689
 51
90.000000000227985
1001
GENIUS_GENOBJ-N-FIL_13
1002
{
1000
OWNER
1000
GEN
1002
}
1001
GENIUS_GENODEF_13
1002
{
1000
HIER
1070
     0
1002
}
1002
{
1000
MANEDIT
1070
     0
1002
}
1002
{
1000
NOSEL
1070
     0
1002
}
1002
{
1000
BEHIND
1070
     0
1002
}
1002
{
1000
OTHER
1070
     0
1002
}
1002
{
1000
REACTOR
1002
}
  0
LINE
  5
1441
  8
SAPA_PROFIL
 62
     4
 10
28.965183209999619
 20
133.0000001427743
 30
0.0
 11
3.1674481830784771
 21
133.00000014268511
 31
0.0
1001
GENIUS_GENOBJ-N-FIL_13
1002
{
1000
OWNER
1000
GEN
1002
}
1001
GENIUS_GENODEF_13
1002
{
1000
HIER
1070
     0
1002
}
1002
{
1000
MANEDIT
1070
     0
1002
}
1002
{
1000
NOSEL
1070
     0
1002
}
1002
{
1000
BEHIND
1070
     0
1002
}
1002
{
1000
OTHER
1070
     0
1002
}
1002
{
1000
REACTOR
1002
}
  0
ARC
  5
1442
  8
SAPA_PROFIL
 62
     4
 10
3.1674481830784771
 20
133.50000014268511
 30
0.0
 40
0.5
 50
180.0
 51
270.0
1001
GENIUS_GENOBJ-N-FIL_13
1002
{
1000
OWNER
1000
GEN
1002
}
1001
GENIUS_GENODEF_13
1002
{
1000
HIER
1070
     0
1002
}
1002
{
1000
MANEDIT
1070
     0
1002
}
1002
{
1000
NOSEL
1070
     0
1002
}
1002
{
1000
BEHIND
1070
     0
1002
}
1002
{
1000
OTHER
1070
     0
1002
}
1002
{
1000
REACTOR
1002
}
  0
LINE
  5
1443
  8
SAPA_PROFIL
 62
     4
 10
2.6674481830784771
 20
133.50000014268511
 30
0.0
 11
2.6674481830784771
 21
133.70000014268501
 31
0.0
1001
GENIUS_GENOBJ-N-FIL_13
1002
{
1000
OWNER
1000
GEN
1002
}
1001
GENIUS_GENODEF_13
1002
{
1000
HIER
1070
     0
1002
}
1002
{
1000
MANEDIT
1070
     0
1002
}
1002
{
1000
NOSEL
1070
     0
1002
}
1002
{
1000
BEHIND
1070
     0
1002
}
1002
{
1000
OTHER
1070
     0
1002
}
1002
{
1000
REACTOR
1002
}
  0
ARC
  5
1444
  8
SAPA_PROFIL
 62
     4
 10
2.9674481830782038
 20
133.70000014268541
 30
0.0
 40
0.2999999999997271
 50
90.000000000086857
 51
180.0000000000868
1001
GENIUS_GENOBJ-N-FIL_13
1002
{
1000
OWNER
1000
GEN
1002
}
1001
GENIUS_GENODEF_13
1002
{
1000
HIER
1070
     0
1002
}
1002
{
1000
MANEDIT
1070
     0
1002
}
1002
{
1000
NOSEL
1070
     0
1002
}
1002
{
1000
BEHIND
1070
     0
1002
}
1002
{
1000
OTHER
1070
     0
1002
}
1002
{
1000
REACTOR
1002
}
  0
LINE
  5
1445
  8
SAPA_PROFIL
 62
     4
 10
2.967448183077749
 20
134.00000014268511
 30
0.0
 11
3.6174481830810228
 21
134.00000014268511
 31
0.0
1001
GENIUS_GENOBJ-N-FIL_13
1002
{
1000
OWNER
1000
GEN
1002
}
1001
GENIUS_GENODEF_13
1002
{
1000
HIER
1070
     0
1002
}
1002
{
1000
MANEDIT
1070
     0
1002
}
1002
{
1000
NOSEL
1070
     0
1002
}
1002
{
1000
BEHIND
1070
     0
1002
}
1002
{
1000
OTHER
1070
     0
1002
}
1002
{
1000
REACTOR
1002
}
  0
ARC
  5
1446
  8
SAPA_PROFIL
 62
     4
 10
3.6174481830801142
 20
134.30000014268529
 30
0.0
 40
0.3000000000001819
 50
270.00000000017371
 51
0.0000000001737007
1001
GENIUS_GENOBJ-N-FIL_13
1002
{
1000
OWNER
1000
GEN
1002
}
1001
GENIUS_GENODEF_13
1002
{
1000
HIER
1070
     0
1002
}
1002
{
1000
MANEDIT
1070
     0
1002
}
1002
{
1000
NOSEL
1070
     0
1002
}
1002
{
1000
BEHIND
1070
     0
1002
}
1002
{
1000
OTHER
1070
     0
1002
}
1002
{
1000
REACTOR
1002
}
  0
LINE
  5
1447
  8
SAPA_PROFIL
 62
     4
 10
3.9174481830802961
 20
134.3000001426862
 30
0.0
 11
3.9174481830802961
 21
135.2000001426822
 31
0.0
1001
GENIUS_GENOBJ-N-FIL_13
1002
{
1000
OWNER
1000
GEN
1002
}
1001
GENIUS_GENODEF_13
1002
{
1000
HIER
1070
     0
1002
}
1002
{
1000
MANEDIT
1070
     0
1002
}
1002
{
1000
NOSEL
1070
     0
1002
}
1002
{
1000
BEHIND
1070
     0
1002
}
1002
{
1000
OTHER
1070
     0
1002
}
1002
{
1000
REACTOR
1002
}
  0
ARC
  5
1448
  8
SAPA_PROFIL
 62
     4
 10
3.4174481830802961
 20
135.2000001426822
 30
0.0
 40
0.5
 50
0.0
 51
90.0
1001
GENIUS_GENOBJ-N-FIL_13
1002
{
1000
OWNER
1000
GEN
1002
}
1001
GENIUS_GENODEF_13
1002
{
1000
HIER
1070
     0
1002
}
1002
{
1000
MANEDIT
1070
     0
1002
}
1002
{
1000
NOSEL
1070
     0
1002
}
1002
{
1000
BEHIND
1070
     0
1002
}
1002
{
1000
OTHER
1070
     0
1002
}
1002
{
1000
REACTOR
1002
}
  0
LINE
  5
1449
  8
SAPA_PROFIL
 62
     4
 10
3.4174481830802961
 20
135.7000001426822
 30
0.0
 11
-2.582551816921522
 21
135.7000001426822
 31
0.0
1001
GENIUS_GENOBJ-N-FIL_13
1002
{
1000
OWNER
1000
GEN
1002
}
1001
GENIUS_GENODEF_13
1002
{
1000
HIER
1070
     0
1002
}
1002
{
1000
MANEDIT
1070
     0
1002
}
1002
{
1000
NOSEL
1070
     0
1002
}
1002
{
1000
BEHIND
1070
     0
1002
}
1002
{
1000
OTHER
1070
     0
1002
}
1002
{
1000
REACTOR
1002
}
  0
ARC
  5
144A
  8
SAPA_PROFIL
 62
     4
 10
-2.582551816921522
 20
135.2000001426822
 30
0.0
 40
0.5
 50
90.0
 51
180.0
1001
GENIUS_GENOBJ-N-FIL_13
1002
{
1000
OWNER
1000
GEN
1002
}
1001
GENIUS_GENODEF_13
1002
{
1000
HIER
1070
     0
1002
}
1002
{
1000
MANEDIT
1070
     0
1002
}
1002
{
1000
NOSEL
1070
     0
1002
}
1002
{
1000
BEHIND
1070
     0
1002
}
1002
{
1000
OTHER
1070
     0
1002
}
1002
{
1000
REACTOR
1002
}
  0
LINE
  5
144B
  8
SAPA_PROFIL
 62
     4
 10
-3.082551816921522
 20
135.2000001426822
 30
0.0
 11
-3.082551816921522
 21
134.3000001426835
 31
0.0
1001
GENIUS_GENOBJ-N-FIL_13
1002
{
1000
OWNER
1000
GEN
1002
}
1001
GENIUS_GENODEF_13
1002
{
1000
HIER
1070
     0
1002
}
1002
{
1000
MANEDIT
1070
     0
1002
}
1002
{
1000
NOSEL
1070
     0
1002
}
1002
{
1000
BEHIND
1070
     0
1002
}
1002
{
1000
OTHER
1070
     0
1002
}
1002
{
1000
REACTOR
1002
}
  0
ARC
  5
144C
  8
SAPA_PROFIL
 62
     4
 10
-2.7825518169221359
 20
134.30000014268359
 30
0.0
 40
0.2999999999993861
 50
180.00000000002171
 51
269.99999999963092
1001
GENIUS_GENOBJ-N-FIL_13
1002
{
1000
OWNER
1000
GEN
1002
}
1001
GENIUS_GENODEF_13
1002
{
1000
HIER
1070
     0
1002
}
1002
{
1000
MANEDIT
1070
     0
1002
}
1002
{
1000
NOSEL
1070
     0
1002
}
1002
{
1000
BEHIND
1070
     0
1002
}
1002
{
1000
OTHER
1070
     0
1002
}
1002
{
1000
REACTOR
1002
}
  0
LINE
  5
144D
  8
SAPA_PROFIL
 62
     4
 10
-2.7825518169240691
 20
134.0000001426842
 30
0.0
 11
-2.1325518169207949
 21
134.00000014267971
 31
0.0
1001
GENIUS_GENOBJ-N-FIL_13
1002
{
1000
OWNER
1000
GEN
1002
}
1001
GENIUS_GENODEF_13
1002
{
1000
HIER
1070
     0
1002
}
1002
{
1000
MANEDIT
1070
     0
1002
}
1002
{
1000
NOSEL
1070
     0
1002
}
1002
{
1000
BEHIND
1070
     0
1002
}
1002
{
1000
OTHER
1070
     0
1002
}
1002
{
1000
REACTOR
1002
}
  0
ARC
  5
144E
  8
SAPA_PROFIL
 62
     4
 10
-2.1325518169230691
 20
133.7000001426799
 30
0.0
 40
0.2999999999997271
 50
359.99999999956577
 51
89.999999999565759
1001
GENIUS_GENOBJ-N-FIL_13
1002
{
1000
OWNER
1000
GEN
1002
}
1001
GENIUS_GENODEF_13
1002
{
1000
HIER
1070
     0
1002
}
1002
{
1000
MANEDIT
1070
     0
1002
}
1002
{
1000
NOSEL
1070
     0
1002
}
1002
{
1000
BEHIND
1070
     0
1002
}
1002
{
1000
OTHER
1070
     0
1002
}
1002
{
1000
REACTOR
1002
}
  0
LINE
  5
144F
  8
SAPA_PROFIL
 62
     4
 10
-1.832551816923341
 20
133.70000014267771
 30
0.0
 11
-1.83255181692516
 21
133.50000014268511
 31
0.0
1001
GENIUS_GENOBJ-N-FIL_13
1002
{
1000
OWNER
1000
GEN
1002
}
1001
GENIUS_GENODEF_13
1002
{
1000
HIER
1070
     0
1002
}
1002
{
1000
MANEDIT
1070
     0
1002
}
1002
{
1000
NOSEL
1070
     0
1002
}
1002
{
1000
BEHIND
1070
     0
1002
}
1002
{
1000
OTHER
1070
     0
1002
}
1002
{
1000
REACTOR
1002
}
  0
ARC
  5
1450
  8
SAPA_PROFIL
 62
     4
 10
-2.33255181692516
 20
133.50000014268511
 30
0.0
 40
0.5
 50
270.0
 51
0.0
1001
GENIUS_GENOBJ-N-FIL_13
1002
{
1000
OWNER
1000
GEN
1002
}
1001
GENIUS_GENODEF_13
1002
{
1000
HIER
1070
     0
1002
}
1002
{
1000
MANEDIT
1070
     0
1002
}
1002
{
1000
NOSEL
1070
     0
1002
}
1002
{
1000
BEHIND
1070
     0
1002
}
1002
{
1000
OTHER
1070
     0
1002
}
1002
{
1000
REACTOR
1002
}
  0
LINE
  5
1451
  8
SAPA_PROFIL
 62
     4
 10
-2.33255181692516
 20
133.00000014268511
 30
0.0
 11
-5.33255181692516
 21
133.00000014268511
 31
0.0
1001
GENIUS_GENOBJ-N-FIL_13
1002
{
1000
OWNER
1000
GEN
1002
}
1001
GENIUS_GENODEF_13
1002
{
1000
HIER
1070
     0
1002
}
1002
{
1000
MANEDIT
1070
     0
1002
}
1002
{
1000
NOSEL
1070
     0
1002
}
1002
{
1000
BEHIND
1070
     0
1002
}
1002
{
1000
OTHER
1070
     0
1002
}
1002
{
1000
REACTOR
1002
}
  0
ARC
  5
1452
  8
SAPA_PROFIL
 62
     4
 10
-5.33255181692516
 20
133.50000014268511
 30
0.0
 40
0.5
 50
180.0
 51
270.0
1001
GENIUS_GENOBJ-N-FIL_13
1002
{
1000
OWNER
1000
GEN
1002
}
1001
GENIUS_GENODEF_13
1002
{
1000
HIER
1070
     0
1002
}
1002
{
1000
MANEDIT
1070
     0
1002
}
1002
{
1000
NOSEL
1070
     0
1002
}
1002
{
1000
BEHIND
1070
     0
1002
}
1002
{
1000
OTHER
1070
     0
1002
}
1002
{
1000
REACTOR
1002
}
  0
LINE
  5
1453
  8
SAPA_PROFIL
 62
     4
 10
-5.83255181692516
 20
133.50000014268511
 30
0.0
 11
-5.83255181692516
 21
133.70000014268501
 31
0.0
1001
GENIUS_GENOBJ-N-FIL_13
1002
{
1000
OWNER
1000
GEN
1002
}
1001
GENIUS_GENODEF_13
1002
{
1000
HIER
1070
     0
1002
}
1002
{
1000
MANEDIT
1070
     0
1002
}
1002
{
1000
NOSEL
1070
     0
1002
}
1002
{
1000
BEHIND
1070
     0
1002
}
1002
{
1000
OTHER
1070
     0
1002
}
1002
{
1000
REACTOR
1002
}
  0
ARC
  5
1454
  8
SAPA_PROFIL
 62
     4
 10
-5.5325518169245242
 20
133.7000001426845
 30
0.0
 40
0.3000000000006366
 50
89.999999999913143
 51
179.99999999991309
1001
GENIUS_GENOBJ-N-FIL_13
1002
{
1000
OWNER
1000
GEN
1002
}
1001
GENIUS_GENODEF_13
1002
{
1000
HIER
1070
     0
1002
}
1002
{
1000
MANEDIT
1070
     0
1002
}
1002
{
1000
NOSEL
1070
     0
1002
}
1002
{
1000
BEHIND
1070
     0
1002
}
1002
{
1000
OTHER
1070
     0
1002
}
1002
{
1000
REACTOR
1002
}
  0
LINE
  5
1455
  8
SAPA_PROFIL
 62
     4
 10
-5.5325518169240686
 20
134.00000014268511
 30
0.0
 11
-4.8825518169244333
 21
134.00000014268511
 31
0.0
1001
GENIUS_GENOBJ-N-FIL_13
1002
{
1000
OWNER
1000
GEN
1002
}
1001
GENIUS_GENODEF_13
1002
{
1000
HIER
1070
     0
1002
}
1002
{
1000
MANEDIT
1070
     0
1002
}
1002
{
1000
NOSEL
1070
     0
1002
}
1002
{
1000
BEHIND
1070
     0
1002
}
1002
{
1000
OTHER
1070
     0
1002
}
1002
{
1000
REACTOR
1002
}
  0
ARC
  5
1456
  8
SAPA_PROFIL
 62
     4
 10
-4.8825518169253419
 20
134.30000014268529
 30
0.0
 40
0.3000000000001819
 50
270.00000000017371
 51
0.0000000001737007
1001
GENIUS_GENOBJ-N-FIL_13
1002
{
1000
OWNER
1000
GEN
1002
}
1001
GENIUS_GENODEF_13
1002
{
1000
HIER
1070
     0
1002
}
1002
{
1000
MANEDIT
1070
     0
1002
}
1002
{
1000
NOSEL
1070
     0
1002
}
1002
{
1000
BEHIND
1070
     0
1002
}
1002
{
1000
OTHER
1070
     0
1002
}
1002
{
1000
REACTOR
1002
}
  0
LINE
  5
1457
  8
SAPA_PROFIL
 62
     4
 10
-4.58255181692516
 20
134.3000001426862
 30
0.0
 11
-4.58255181692516
 21
135.2000001426822
 31
0.0
1001
GENIUS_GENOBJ-N-FIL_13
1002
{
1000
OWNER
1000
GEN
1002
}
1001
GENIUS_GENODEF_13
1002
{
1000
HIER
1070
     0
1002
}
1002
{
1000
MANEDIT
1070
     0
1002
}
1002
{
1000
NOSEL
1070
     0
1002
}
1002
{
1000
BEHIND
1070
     0
1002
}
1002
{
1000
OTHER
1070
     0
1002
}
1002
{
1000
REACTOR
1002
}
  0
ARC
  5
1458
  8
SAPA_PROFIL
 62
     4
 10
-5.08255181692516
 20
135.2000001426822
 30
0.0
 40
0.5
 50
0.0
 51
90.0
1001
GENIUS_GENOBJ-N-FIL_13
1002
{
1000
OWNER
1000
GEN
1002
}
1001
GENIUS_GENODEF_13
1002
{
1000
HIER
1070
     0
1002
}
1002
{
1000
MANEDIT
1070
     0
1002
}
1002
{
1000
NOSEL
1070
     0
1002
}
1002
{
1000
BEHIND
1070
     0
1002
}
1002
{
1000
OTHER
1070
     0
1002
}
1002
{
1000
REACTOR
1002
}
  0
LINE
  5
1459
  8
SAPA_PROFIL
 62
     4
 10
-5.08255181692516
 20
135.7000001426822
 30
0.0
 11
-11.082551816925159
 21
135.7000001426822
 31
0.0
1001
GENIUS_GENOBJ-N-FIL_13
1002
{
1000
OWNER
1000
GEN
1002
}
1001
GENIUS_GENODEF_13
1002
{
1000
HIER
1070
     0
1002
}
1002
{
1000
MANEDIT
1070
     0
1002
}
1002
{
1000
NOSEL
1070
     0
1002
}
1002
{
1000
BEHIND
1070
     0
1002
}
1002
{
1000
OTHER
1070
     0
1002
}
1002
{
1000
REACTOR
1002
}
  0
ARC
  5
145A
  8
SAPA_PROFIL
 62
     4
 10
-11.082551816925159
 20
135.2000001426822
 30
0.0
 40
0.5
 50
90.0
 51
180.0
1001
GENIUS_GENOBJ-N-FIL_13
1002
{
1000
OWNER
1000
GEN
1002
}
1001
GENIUS_GENODEF_13
1002
{
1000
HIER
1070
     0
1002
}
1002
{
1000
MANEDIT
1070
     0
1002
}
1002
{
1000
NOSEL
1070
     0
1002
}
1002
{
1000
BEHIND
1070
     0
1002
}
1002
{
1000
OTHER
1070
     0
1002
}
1002
{
1000
REACTOR
1002
}
  0
LINE
  5
145B
  8
SAPA_PROFIL
 62
     4
 10
-11.582551816925159
 20
135.2000001426822
 30
0.0
 11
-11.582551816925159
 21
134.3000001426862
 31
0.0
1001
GENIUS_GENOBJ-N-FIL_13
1002
{
1000
OWNER
1000
GEN
1002
}
1001
GENIUS_GENODEF_13
1002
{
1000
HIER
1070
     0
1002
}
1002
{
1000
MANEDIT
1070
     0
1002
}
1002
{
1000
NOSEL
1070
     0
1002
}
1002
{
1000
BEHIND
1070
     0
1002
}
1002
{
1000
OTHER
1070
     0
1002
}
1002
{
1000
REACTOR
1002
}
  0
ARC
  5
145C
  8
SAPA_PROFIL
 62
     4
 10
-11.282551816924069
 20
134.3000001426862
 30
0.0
 40
0.3000000000010914
 50
180.0
 51
270.0
1001
GENIUS_GENOBJ-N-FIL_13
1002
{
1000
OWNER
1000
GEN
1002
}
1001
GENIUS_GENODEF_13
1002
{
1000
HIER
1070
     0
1002
}
1002
{
1000
MANEDIT
1070
     0
1002
}
1002
{
1000
NOSEL
1070
     0
1002
}
1002
{
1000
BEHIND
1070
     0
1002
}
1002
{
1000
OTHER
1070
     0
1002
}
1002
{
1000
REACTOR
1002
}
  0
LINE
  5
145D
  8
SAPA_PROFIL
 62
     4
 10
-11.282551816924069
 20
134.00000014268511
 30
0.0
 11
-10.63255181692443
 21
134.00000014268511
 31
0.0
1001
GENIUS_GENOBJ-N-FIL_13
1002
{
1000
OWNER
1000
GEN
1002
}
1001
GENIUS_GENODEF_13
1002
{
1000
HIER
1070
     0
1002
}
1002
{
1000
MANEDIT
1070
     0
1002
}
1002
{
1000
NOSEL
1070
     0
1002
}
1002
{
1000
BEHIND
1070
     0
1002
}
1002
{
1000
OTHER
1070
     0
1002
}
1002
{
1000
REACTOR
1002
}
  0
ARC
  5
145E
  8
SAPA_PROFIL
 62
     4
 10
-10.63255181692489
 20
133.70000014268541
 30
0.0
 40
0.2999999999997271
 50
359.99999999991309
 51
89.999999999913143
1001
GENIUS_GENOBJ-N-FIL_13
1002
{
1000
OWNER
1000
GEN
1002
}
1001
GENIUS_GENODEF_13
1002
{
1000
HIER
1070
     0
1002
}
1002
{
1000
MANEDIT
1070
     0
1002
}
1002
{
1000
NOSEL
1070
     0
1002
}
1002
{
1000
BEHIND
1070
     0
1002
}
1002
{
1000
OTHER
1070
     0
1002
}
1002
{
1000
REACTOR
1002
}
  0
LINE
  5
145F
  8
SAPA_PROFIL
 62
     4
 10
-10.332551816925159
 20
133.70000014268501
 30
0.0
 11
-10.332551816925159
 21
133.50000014268511
 31
0.0
1001
GENIUS_GENOBJ-N-FIL_13
1002
{
1000
OWNER
1000
GEN
1002
}
1001
GENIUS_GENODEF_13
1002
{
1000
HIER
1070
     0
1002
}
1002
{
1000
MANEDIT
1070
     0
1002
}
1002
{
1000
NOSEL
1070
     0
1002
}
1002
{
1000
BEHIND
1070
     0
1002
}
1002
{
1000
OTHER
1070
     0
1002
}
1002
{
1000
REACTOR
1002
}
  0
ARC
  5
1460
  8
SAPA_PROFIL
 62
     4
 10
-10.832551816925159
 20
133.50000014268511
 30
0.0
 40
0.5
 50
270.0
 51
0.0
1001
GENIUS_GENOBJ-N-FIL_13
1002
{
1000
OWNER
1000
GEN
1002
}
1001
GENIUS_GENODEF_13
1002
{
1000
HIER
1070
     0
1002
}
1002
{
1000
MANEDIT
1070
     0
1002
}
1002
{
1000
NOSEL
1070
     0
1002
}
1002
{
1000
BEHIND
1070
     0
1002
}
1002
{
1000
OTHER
1070
     0
1002
}
1002
{
1000
REACTOR
1002
}
  0
LINE
  5
1461
  8
SAPA_PROFIL
 62
     4
 10
-10.832551816925159
 20
133.00000014268511
 30
0.0
 11
-12.582551816925159
 21
133.00000014268599
 31
0.0
1001
GENIUS_GENOBJ-N-FIL_13
1002
{
1000
OWNER
1000
GEN
1002
}
1001
GENIUS_GENODEF_13
1002
{
1000
HIER
1070
     0
1002
}
1002
{
1000
MANEDIT
1070
     0
1002
}
1002
{
1000
NOSEL
1070
     0
1002
}
1002
{
1000
BEHIND
1070
     0
1002
}
1002
{
1000
OTHER
1070
     0
1002
}
1002
{
1000
REACTOR
1002
}
  0
ARC
  5
1462
  8
SAPA_PROFIL
 62
     4
 10
-12.58255181675792
 20
133.50000014285331
 30
0.0
 40
0.5000000001672335
 50
179.99999998091459
 51
269.99999998083649
1001
GENIUS_GENOBJ-N-FIL_13
1002
{
1000
OWNER
1000
GEN
1002
}
1001
GENIUS_GENODEF_13
1002
{
1000
HIER
1070
     0
1002
}
1002
{
1000
MANEDIT
1070
     0
1002
}
1002
{
1000
NOSEL
1070
     0
1002
}
1002
{
1000
BEHIND
1070
     0
1002
}
1002
{
1000
OTHER
1070
     0
1002
}
1002
{
1000
REACTOR
1002
}
  0
LINE
  5
1463
  8
SAPA_PROFIL
 62
     4
 10
-13.082551816925159
 20
133.5000001430198
 30
0.0
 11
-13.082551816925159
 21
146.50000014302711
 31
0.0
1001
GENIUS_GENOBJ-N-FIL_13
1002
{
1000
OWNER
1000
GEN
1002
}
1001
GENIUS_GENODEF_13
1002
{
1000
HIER
1070
     0
1002
}
1002
{
1000
MANEDIT
1070
     0
1002
}
1002
{
1000
NOSEL
1070
     0
1002
}
1002
{
1000
BEHIND
1070
     0
1002
}
1002
{
1000
OTHER
1070
     0
1002
}
1002
{
1000
REACTOR
1002
}
  0
ARC
  5
1464
  8
SAPA_PROFIL
 62
     4
 10
-12.582551816787941
 20
146.5000001431664
 30
0.0
 40
0.5000000001372201
 50
90.000000015932685
 51
180.0000000159587
1001
GENIUS_GENOBJ-N-FIL_13
1002
{
1000
OWNER
1000
GEN
1002
}
1001
GENIUS_GENODEF_13
1002
{
1000
HIER
1070
     0
1002
}
1002
{
1000
MANEDIT
1070
     0
1002
}
1002
{
1000
NOSEL
1070
     0
1002
}
1002
{
1000
BEHIND
1070
     0
1002
}
1002
{
1000
OTHER
1070
     0
1002
}
1002
{
1000
REACTOR
1002
}
  0
LINE
  5
1465
  8
SAPA_PROFIL
 62
     4
 10
-12.58255181692698
 20
147.00000014330359
 30
0.0
 11
-10.83255181692698
 21
147.00000014330359
 31
0.0
1001
GENIUS_GENOBJ-N-FIL_13
1002
{
1000
OWNER
1000
GEN
1002
}
1001
GENIUS_GENODEF_13
1002
{
1000
HIER
1070
     0
1002
}
1002
{
1000
MANEDIT
1070
     0
1002
}
1002
{
1000
NOSEL
1070
     0
1002
}
1002
{
1000
BEHIND
1070
     0
1002
}
1002
{
1000
OTHER
1070
     0
1002
}
1002
{
1000
REACTOR
1002
}
  0
ARC
  5
1466
  8
SAPA_PROFIL
 62
     4
 10
-10.83255181692698
 20
146.50000014330359
 30
0.0
 40
0.5
 50
0.0
 51
90.0
1001
GENIUS_GENOBJ-N-FIL_13
1002
{
1000
OWNER
1000
GEN
1002
}
1001
GENIUS_GENODEF_13
1002
{
1000
HIER
1070
     0
1002
}
1002
{
1000
MANEDIT
1070
     0
1002
}
1002
{
1000
NOSEL
1070
     0
1002
}
1002
{
1000
BEHIND
1070
     0
1002
}
1002
{
1000
OTHER
1070
     0
1002
}
1002
{
1000
REACTOR
1002
}
  0
LINE
  5
1467
  8
SAPA_PROFIL
 62
     4
 10
-10.33255181692698
 20
146.50000014330359
 30
0.0
 11
-10.33255181692698
 21
146.30000014330381
 31
0.0
1001
GENIUS_GENOBJ-N-FIL_13
1002
{
1000
OWNER
1000
GEN
1002
}
1001
GENIUS_GENODEF_13
1002
{
1000
HIER
1070
     0
1002
}
1002
{
1000
MANEDIT
1070
     0
1002
}
1002
{
1000
NOSEL
1070
     0
1002
}
1002
{
1000
BEHIND
1070
     0
1002
}
1002
{
1000
OTHER
1070
     0
1002
}
1002
{
1000
REACTOR
1002
}
  0
ARC
  5
1468
  8
SAPA_PROFIL
 62
     4
 10
-10.6325518169267
 20
146.30000014330329
 30
0.0
 40
0.2999999999997271
 50
270.0000000000868
 51
0.0000000000868503
1001
GENIUS_GENOBJ-N-FIL_13
1002
{
1000
OWNER
1000
GEN
1002
}
1001
GENIUS_GENODEF_13
1002
{
1000
HIER
1070
     0
1002
}
1002
{
1000
MANEDIT
1070
     0
1002
}
1002
{
1000
NOSEL
1070
     0
1002
}
1002
{
1000
BEHIND
1070
     0
1002
}
1002
{
1000
OTHER
1070
     0
1002
}
1002
{
1000
REACTOR
1002
}
  0
LINE
  5
1469
  8
SAPA_PROFIL
 62
     4
 10
-10.632551816926251
 20
146.00000014330359
 30
0.0
 11
-11.28255181692589
 21
146.00000014330359
 31
0.0
1001
GENIUS_GENOBJ-N-FIL_13
1002
{
1000
OWNER
1000
GEN
1002
}
1001
GENIUS_GENODEF_13
1002
{
1000
HIER
1070
     0
1002
}
1002
{
1000
MANEDIT
1070
     0
1002
}
1002
{
1000
NOSEL
1070
     0
1002
}
1002
{
1000
BEHIND
1070
     0
1002
}
1002
{
1000
OTHER
1070
     0
1002
}
1002
{
1000
REACTOR
1002
}
  0
ARC
  5
146A
  8
SAPA_PROFIL
 62
     4
 10
-11.2825518169268
 20
145.70000014330341
 30
0.0
 40
0.3000000000001819
 50
89.999999999826301
 51
179.99999999982629
1001
GENIUS_GENOBJ-N-FIL_13
1002
{
1000
OWNER
1000
GEN
1002
}
1001
GENIUS_GENODEF_13
1002
{
1000
HIER
1070
     0
1002
}
1002
{
1000
MANEDIT
1070
     0
1002
}
1002
{
1000
NOSEL
1070
     0
1002
}
1002
{
1000
BEHIND
1070
     0
1002
}
1002
{
1000
OTHER
1070
     0
1002
}
1002
{
1000
REACTOR
1002
}
  0
LINE
  5
146B
  8
SAPA_PROFIL
 62
     4
 10
-11.58255181692698
 20
145.70000014330429
 30
0.0
 11
-11.58255181692698
 21
144.80000014330651
 31
0.0
1001
GENIUS_GENOBJ-N-FIL_13
1002
{
1000
OWNER
1000
GEN
1002
}
1001
GENIUS_GENODEF_13
1002
{
1000
HIER
1070
     0
1002
}
1002
{
1000
MANEDIT
1070
     0
1002
}
1002
{
1000
NOSEL
1070
     0
1002
}
1002
{
1000
BEHIND
1070
     0
1002
}
1002
{
1000
OTHER
1070
     0
1002
}
1002
{
1000
REACTOR
1002
}
  0
ARC
  5
146C
  8
SAPA_PROFIL
 62
     4
 10
-11.08255181692698
 20
144.80000014330651
 30
0.0
 40
0.5
 50
180.0
 51
270.0
1001
GENIUS_GENOBJ-N-FIL_13
1002
{
1000
OWNER
1000
GEN
1002
}
1001
GENIUS_GENODEF_13
1002
{
1000
HIER
1070
     0
1002
}
1002
{
1000
MANEDIT
1070
     0
1002
}
1002
{
1000
NOSEL
1070
     0
1002
}
1002
{
1000
BEHIND
1070
     0
1002
}
1002
{
1000
OTHER
1070
     0
1002
}
1002
{
1000
REACTOR
1002
}
  0
LINE
  5
146D
  8
SAPA_PROFIL
 62
     4
 10
-11.08255181692698
 20
144.30000014330651
 30
0.0
 11
-5.082551816926979
 21
144.30000014330651
 31
0.0
1001
GENIUS_GENOBJ-N-FIL_13
1002
{
1000
OWNER
1000
GEN
1002
}
1001
GENIUS_GENODEF_13
1002
{
1000
HIER
1070
     0
1002
}
1002
{
1000
MANEDIT
1070
     0
1002
}
1002
{
1000
NOSEL
1070
     0
1002
}
1002
{
1000
BEHIND
1070
     0
1002
}
1002
{
1000
OTHER
1070
     0
1002
}
1002
{
1000
REACTOR
1002
}
  0
ARC
  5
146E
  8
SAPA_PROFIL
 62
     4
 10
-5.082551816926979
 20
144.80000014330651
 30
0.0
 40
0.5
 50
270.0
 51
0.0
1001
GENIUS_GENOBJ-N-FIL_13
1002
{
1000
OWNER
1000
GEN
1002
}
1001
GENIUS_GENODEF_13
1002
{
1000
HIER
1070
     0
1002
}
1002
{
1000
MANEDIT
1070
     0
1002
}
1002
{
1000
NOSEL
1070
     0
1002
}
1002
{
1000
BEHIND
1070
     0
1002
}
1002
{
1000
OTHER
1070
     0
1002
}
1002
{
1000
REACTOR
1002
}
  0
LINE
  5
146F
  8
SAPA_PROFIL
 62
     4
 10
-4.582551816926979
 20
144.80000014330651
 30
0.0
 11
-4.582551816926979
 21
145.70000014330429
 31
0.0
1001
GENIUS_GENOBJ-N-FIL_13
1002
{
1000
OWNER
1000
GEN
1002
}
1001
GENIUS_GENODEF_13
1002
{
1000
HIER
1070
     0
1002
}
1002
{
1000
MANEDIT
1070
     0
1002
}
1002
{
1000
NOSEL
1070
     0
1002
}
1002
{
1000
BEHIND
1070
     0
1002
}
1002
{
1000
OTHER
1070
     0
1002
}
1002
{
1000
REACTOR
1002
}
  0
ARC
  5
1470
  8
SAPA_PROFIL
 62
     4
 10
-4.8825518169262523
 20
145.70000014330429
 30
0.0
 40
0.2999999999992724
 50
0.0
 51
90.0
1001
GENIUS_GENOBJ-N-FIL_13
1002
{
1000
OWNER
1000
GEN
1002
}
1001
GENIUS_GENODEF_13
1002
{
1000
HIER
1070
     0
1002
}
1002
{
1000
MANEDIT
1070
     0
1002
}
1002
{
1000
NOSEL
1070
     0
1002
}
1002
{
1000
BEHIND
1070
     0
1002
}
1002
{
1000
OTHER
1070
     0
1002
}
1002
{
1000
REACTOR
1002
}
  0
LINE
  5
1471
  8
SAPA_PROFIL
 62
     4
 10
-4.8825518169262523
 20
146.00000014330359
 30
0.0
 11
-5.5325518169258876
 21
146.00000014330359
 31
0.0
1001
GENIUS_GENOBJ-N-FIL_13
1002
{
1000
OWNER
1000
GEN
1002
}
1001
GENIUS_GENODEF_13
1002
{
1000
HIER
1070
     0
1002
}
1002
{
1000
MANEDIT
1070
     0
1002
}
1002
{
1000
NOSEL
1070
     0
1002
}
1002
{
1000
BEHIND
1070
     0
1002
}
1002
{
1000
OTHER
1070
     0
1002
}
1002
{
1000
REACTOR
1002
}
  0
ARC
  5
1472
  8
SAPA_PROFIL
 62
     4
 10
-5.5325518169263432
 20
146.3000001433042
 30
0.0
 40
0.3000000000006366
 50
180.0000000000868
 51
270.0000000000868
1001
GENIUS_GENOBJ-N-FIL_13
1002
{
1000
OWNER
1000
GEN
1002
}
1001
GENIUS_GENODEF_13
1002
{
1000
HIER
1070
     0
1002
}
1002
{
1000
MANEDIT
1070
     0
1002
}
1002
{
1000
NOSEL
1070
     0
1002
}
1002
{
1000
BEHIND
1070
     0
1002
}
1002
{
1000
OTHER
1070
     0
1002
}
1002
{
1000
REACTOR
1002
}
  0
LINE
  5
1473
  8
SAPA_PROFIL
 62
     4
 10
-5.832551816926979
 20
146.30000014330381
 30
0.0
 11
-5.832551816926979
 21
146.50000014330359
 31
0.0
1001
GENIUS_GENOBJ-N-FIL_13
1002
{
1000
OWNER
1000
GEN
1002
}
1001
GENIUS_GENODEF_13
1002
{
1000
HIER
1070
     0
1002
}
1002
{
1000
MANEDIT
1070
     0
1002
}
1002
{
1000
NOSEL
1070
     0
1002
}
1002
{
1000
BEHIND
1070
     0
1002
}
1002
{
1000
OTHER
1070
     0
1002
}
1002
{
1000
REACTOR
1002
}
  0
ARC
  5
1474
  8
SAPA_PROFIL
 62
     4
 10
-5.332551816926979
 20
146.50000014330359
 30
0.0
 40
0.5
 50
90.0
 51
180.0
1001
GENIUS_GENOBJ-N-FIL_13
1002
{
1000
OWNER
1000
GEN
1002
}
1001
GENIUS_GENODEF_13
1002
{
1000
HIER
1070
     0
1002
}
1002
{
1000
MANEDIT
1070
     0
1002
}
1002
{
1000
NOSEL
1070
     0
1002
}
1002
{
1000
BEHIND
1070
     0
1002
}
1002
{
1000
OTHER
1070
     0
1002
}
1002
{
1000
REACTOR
1002
}
  0
LINE
  5
1475
  8
SAPA_PROFIL
 62
     4
 10
-5.332551816926979
 20
147.00000014330359
 30
0.0
 11
-2.332551816926979
 21
147.00000014330359
 31
0.0
1001
GENIUS_GENOBJ-N-FIL_13
1002
{
1000
OWNER
1000
GEN
1002
}
1001
GENIUS_GENODEF_13
1002
{
1000
HIER
1070
     0
1002
}
1002
{
1000
MANEDIT
1070
     0
1002
}
1002
{
1000
NOSEL
1070
     0
1002
}
1002
{
1000
BEHIND
1070
     0
1002
}
1002
{
1000
OTHER
1070
     0
1002
}
1002
{
1000
REACTOR
1002
}
  0
ARC
  5
1476
  8
SAPA_PROFIL
 62
     4
 10
-2.332551816926979
 20
146.50000014330359
 30
0.0
 40
0.5
 50
0.0
 51
90.0
1001
GENIUS_GENOBJ-N-FIL_13
1002
{
1000
OWNER
1000
GEN
1002
}
1001
GENIUS_GENODEF_13
1002
{
1000
HIER
1070
     0
1002
}
1002
{
1000
MANEDIT
1070
     0
1002
}
1002
{
1000
NOSEL
1070
     0
1002
}
1002
{
1000
BEHIND
1070
     0
1002
}
1002
{
1000
OTHER
1070
     0
1002
}
1002
{
1000
REACTOR
1002
}
  0
LINE
  5
1477
  8
SAPA_PROFIL
 62
     4
 10
-1.832551816926979
 20
146.50000014330359
 30
0.0
 11
-1.83255181692516
 21
146.30000014331111
 31
0.0
1001
GENIUS_GENOBJ-N-FIL_13
1002
{
1000
OWNER
1000
GEN
1002
}
1001
GENIUS_GENODEF_13
1002
{
1000
HIER
1070
     0
1002
}
1002
{
1000
MANEDIT
1070
     0
1002
}
1002
{
1000
NOSEL
1070
     0
1002
}
1002
{
1000
BEHIND
1070
     0
1002
}
1002
{
1000
OTHER
1070
     0
1002
}
1002
{
1000
REACTOR
1002
}
  0
ARC
  5
1478
  8
SAPA_PROFIL
 62
     4
 10
-2.1325518169250008
 20
146.30000014330889
 30
0.0
 40
0.2999999999998408
 50
270.000000000456
 51
0.0000000004125391
1001
GENIUS_GENOBJ-N-FIL_13
1002
{
1000
OWNER
1000
GEN
1002
}
1001
GENIUS_GENODEF_13
1002
{
1000
HIER
1070
     0
1002
}
1002
{
1000
MANEDIT
1070
     0
1002
}
1002
{
1000
NOSEL
1070
     0
1002
}
1002
{
1000
BEHIND
1070
     0
1002
}
1002
{
1000
OTHER
1070
     0
1002
}
1002
{
1000
REACTOR
1002
}
  0
LINE
  5
1479
  8
SAPA_PROFIL
 62
     4
 10
-2.1325518169226139
 20
146.00000014330899
 30
0.0
 11
-2.7825518169240691
 21
146.00000014330629
 31
0.0
1001
GENIUS_GENOBJ-N-FIL_13
1002
{
1000
OWNER
1000
GEN
1002
}
1001
GENIUS_GENODEF_13
1002
{
1000
HIER
1070
     0
1002
}
1002
{
1000
MANEDIT
1070
     0
1002
}
1002
{
1000
NOSEL
1070
     0
1002
}
1002
{
1000
BEHIND
1070
     0
1002
}
1002
{
1000
OTHER
1070
     0
1002
}
1002
{
1000
REACTOR
1002
}
  0
ARC
  5
147A
  8
SAPA_PROFIL
 62
     4
 10
-2.7825518169227048
 20
145.70000014330569
 30
0.0
 40
0.3000000000006366
 50
90.000000000260556
 51
180.0000000000868
1001
GENIUS_GENOBJ-N-FIL_13
1002
{
1000
OWNER
1000
GEN
1002
}
1001
GENIUS_GENODEF_13
1002
{
1000
HIER
1070
     0
1002
}
1002
{
1000
MANEDIT
1070
     0
1002
}
1002
{
1000
NOSEL
1070
     0
1002
}
1002
{
1000
BEHIND
1070
     0
1002
}
1002
{
1000
OTHER
1070
     0
1002
}
1002
{
1000
REACTOR
1002
}
  0
LINE
  5
147B
  8
SAPA_PROFIL
 62
     4
 10
-3.082551816923341
 20
145.7000001433052
 30
0.0
 11
-3.082551816923341
 21
144.80000014330651
 31
0.0
1001
GENIUS_GENOBJ-N-FIL_13
1002
{
1000
OWNER
1000
GEN
1002
}
1001
GENIUS_GENODEF_13
1002
{
1000
HIER
1070
     0
1002
}
1002
{
1000
MANEDIT
1070
     0
1002
}
1002
{
1000
NOSEL
1070
     0
1002
}
1002
{
1000
BEHIND
1070
     0
1002
}
1002
{
1000
OTHER
1070
     0
1002
}
1002
{
1000
REACTOR
1002
}
  0
ARC
  5
147C
  8
SAPA_PROFIL
 62
     4
 10
-2.582551816923341
 20
144.80000014330651
 30
0.0
 40
0.5
 50
180.0
 51
270.0
1001
GENIUS_GENOBJ-N-FIL_13
1002
{
1000
OWNER
1000
GEN
1002
}
1001
GENIUS_GENODEF_13
1002
{
1000
HIER
1070
     0
1002
}
1002
{
1000
MANEDIT
1070
     0
1002
}
1002
{
1000
NOSEL
1070
     0
1002
}
1002
{
1000
BEHIND
1070
     0
1002
}
1002
{
1000
OTHER
1070
     0
1002
}
1002
{
1000
REACTOR
1002
}
  0
LINE
  5
147D
  8
SAPA_PROFIL
 62
     4
 10
-2.582551816923341
 20
144.30000014330651
 30
0.0
 11
3.4174481830784771
 21
144.30000014331381
 31
0.0
1001
GENIUS_GENOBJ-N-FIL_13
1002
{
1000
OWNER
1000
GEN
1002
}
1001
GENIUS_GENODEF_13
1002
{
1000
HIER
1070
     0
1002
}
1002
{
1000
MANEDIT
1070
     0
1002
}
1002
{
1000
NOSEL
1070
     0
1002
}
1002
{
1000
BEHIND
1070
     0
1002
}
1002
{
1000
OTHER
1070
     0
1002
}
1002
{
1000
REACTOR
1002
}
  0
ARC
  5
147E
  8
SAPA_PROFIL
 62
     4
 10
3.4174481830784771
 20
144.80000014331381
 30
0.0
 40
0.5
 50
270.0
 51
0.0
1001
GENIUS_GENOBJ-N-FIL_13
1002
{
1000
OWNER
1000
GEN
1002
}
1001
GENIUS_GENODEF_13
1002
{
1000
HIER
1070
     0
1002
}
1002
{
1000
MANEDIT
1070
     0
1002
}
1002
{
1000
NOSEL
1070
     0
1002
}
1002
{
1000
BEHIND
1070
     0
1002
}
1002
{
1000
OTHER
1070
     0
1002
}
1002
{
1000
REACTOR
1002
}
  0
LINE
  5
147F
  8
SAPA_PROFIL
 62
     4
 10
3.9174481830784771
 20
144.80000014331381
 30
0.0
 11
3.9174481830784771
 21
145.70000014331069
 31
0.0
1001
GENIUS_GENOBJ-N-FIL_13
1002
{
1000
OWNER
1000
GEN
1002
}
1001
GENIUS_GENODEF_13
1002
{
1000
HIER
1070
     0
1002
}
1002
{
1000
MANEDIT
1070
     0
1002
}
1002
{
1000
NOSEL
1070
     0
1002
}
1002
{
1000
BEHIND
1070
     0
1002
}
1002
{
1000
OTHER
1070
     0
1002
}
1002
{
1000
REACTOR
1002
}
  0
ARC
  5
1480
  8
SAPA_PROFIL
 62
     4
 10
3.617448183078749
 20
145.70000014331109
 30
0.0
 40
0.2999999999997271
 50
359.99999999991309
 51
89.999999999913143
1001
GENIUS_GENOBJ-N-FIL_13
1002
{
1000
OWNER
1000
GEN
1002
}
1001
GENIUS_GENODEF_13
1002
{
1000
HIER
1070
     0
1002
}
1002
{
1000
MANEDIT
1070
     0
1002
}
1002
{
1000
NOSEL
1070
     0
1002
}
1002
{
1000
BEHIND
1070
     0
1002
}
1002
{
1000
OTHER
1070
     0
1002
}
1002
{
1000
REACTOR
1002
}
  0
LINE
  5
1481
  8
SAPA_PROFIL
 62
     4
 10
3.6174481830792038
 20
146.0000001433109
 30
0.0
 11
2.9674481830759301
 21
146.0000001433109
 31
0.0
1001
GENIUS_GENOBJ-N-FIL_13
1002
{
1000
OWNER
1000
GEN
1002
}
1001
GENIUS_GENODEF_13
1002
{
1000
HIER
1070
     0
1002
}
1002
{
1000
MANEDIT
1070
     0
1002
}
1002
{
1000
NOSEL
1070
     0
1002
}
1002
{
1000
BEHIND
1070
     0
1002
}
1002
{
1000
OTHER
1070
     0
1002
}
1002
{
1000
REACTOR
1002
}
  0
ARC
  5
1482
  8
SAPA_PROFIL
 62
     4
 10
2.9674481830763848
 20
146.3000001433106
 30
0.0
 40
0.2999999999997271
 50
179.99999999991309
 51
269.99999999991309
1001
GENIUS_GENOBJ-N-FIL_13
1002
{
1000
OWNER
1000
GEN
1002
}
1001
GENIUS_GENODEF_13
1002
{
1000
HIER
1070
     0
1002
}
1002
{
1000
MANEDIT
1070
     0
1002
}
1002
{
1000
NOSEL
1070
     0
1002
}
1002
{
1000
BEHIND
1070
     0
1002
}
1002
{
1000
OTHER
1070
     0
1002
}
1002
{
1000
REACTOR
1002
}
  0
LINE
  5
1483
  8
SAPA_PROFIL
 62
     4
 10
2.6674481830766581
 20
146.30000014331111
 30
0.0
 11
2.6674481830766581
 21
146.5000001433109
 31
0.0
1001
GENIUS_GENOBJ-N-FIL_13
1002
{
1000
OWNER
1000
GEN
1002
}
1001
GENIUS_GENODEF_13
1002
{
1000
HIER
1070
     0
1002
}
1002
{
1000
MANEDIT
1070
     0
1002
}
1002
{
1000
NOSEL
1070
     0
1002
}
1002
{
1000
BEHIND
1070
     0
1002
}
1002
{
1000
OTHER
1070
     0
1002
}
1002
{
1000
REACTOR
1002
}
  0
ARC
  5
1484
  8
SAPA_PROFIL
 62
     4
 10
3.1674481830766581
 20
146.5000001433109
 30
0.0
 40
0.5
 50
90.0
 51
180.0
1001
GENIUS_GENOBJ-N-FIL_13
1002
{
1000
OWNER
1000
GEN
1002
}
1001
GENIUS_GENODEF_13
1002
{
1000
HIER
1070
     0
1002
}
1002
{
1000
MANEDIT
1070
     0
1002
}
1002
{
1000
NOSEL
1070
     0
1002
}
1002
{
1000
BEHIND
1070
     0
1002
}
1002
{
1000
OTHER
1070
     0
1002
}
1002
{
1000
REACTOR
1002
}
  0
LINE
  5
1485
  8
SAPA_PROFIL
 62
     4
 10
3.1674481830766581
 20
147.0000001433109
 30
0.0
 11
28.965183209999619
 21
147.00000014322899
 31
0.0
1001
GENIUS_GENOBJ-N-FIL_13
1002
{
1000
OWNER
1000
GEN
1002
}
1001
GENIUS_GENODEF_13
1002
{
1000
HIER
1070
     0
1002
}
1002
{
1000
MANEDIT
1070
     0
1002
}
1002
{
1000
NOSEL
1070
     0
1002
}
1002
{
1000
BEHIND
1070
     0
1002
}
1002
{
1000
OTHER
1070
     0
1002
}
1002
{
1000
REACTOR
1002
}
  0
ARC
  5
1486
  8
SAPA_PROFIL
 62
     4
 10
28.965183210003939
 20
148.20000014322909
 30
0.0
 40
1.200000000000045
 50
269.99999999979372
 51
359.99999999998909
1001
GENIUS_GENOBJ-N-FIL_13
1002
{
1000
OWNER
1000
GEN
1002
}
1001
GENIUS_GENODEF_13
1002
{
1000
HIER
1070
     0
1002
}
1002
{
1000
MANEDIT
1070
     0
1002
}
1002
{
1000
NOSEL
1070
     0
1002
}
1002
{
1000
BEHIND
1070
     0
1002
}
1002
{
1000
OTHER
1070
     0
1002
}
1002
{
1000
REACTOR
1002
}
  0
LINE
  5
1487
  8
SAPA_PROFIL
 62
     4
 10
30.165183210003988
 20
148.20000014322881
 30
0.0
 11
30.165183210003988
 21
150.92848149330891
 31
0.0
1001
GENIUS_GENOBJ-N-FIL_13
1002
{
1000
OWNER
1000
GEN
1002
}
1001
GENIUS_GENODEF_13
1002
{
1000
HIER
1070
     0
1002
}
1002
{
1000
MANEDIT
1070
     0
1002
}
1002
{
1000
NOSEL
1070
     0
1002
}
1002
{
1000
BEHIND
1070
     0
1002
}
1002
{
1000
OTHER
1070
     0
1002
}
1002
{
1000
REACTOR
1002
}
  0
LINE
  5
1488
  8
SAPA_GLAS
 10
-11.32450047448077
 20
144.3624377510607
 30
0.0
 11
-11.52011420917284
 21
144.55805148575271
 31
0.0
1001
GRADIENTCOLOR1ACI
1070
     5
1001
GRADIENTCOLOR2ACI
1070
     2
1001
ACAD
1010
0.0
1020
0.0
1030
0.0
  0
LINE
  5
1489
  8
SAPA_GLAS
 10
-10.13953085159295
 20
144.30000014330651
 30
0.0
 11
-11.579832459427729
 21
145.7403017511412
 31
0.0
1001
GRADIENTCOLOR1ACI
1070
     5
1001
GRADIENTCOLOR2ACI
1070
     2
1001
ACAD
1010
0.0
1020
0.0
1030
0.0
  0
LINE
  5
148A
  8
SAPA_GLAS
 10
-12.79305820518351
 20
146.95352749689701
 30
0.0
 11
-13.08255181692544
 21
147.243021108639
 31
0.0
1001
GRADIENTCOLOR1ACI
1070
     5
1001
GRADIENTCOLOR2ACI
1070
     2
1001
ACAD
1010
0.0
1020
0.0
1030
0.0
  0
LINE
  5
148B
  8
SAPA_GLAS
 10
-9.0169988364593223
 20
144.30000014330651
 30
0.0
 11
-10.716998836456471
 21
146.00000014330359
 31
0.0
1001
GRADIENTCOLOR1ACI
1070
     5
1001
GRADIENTCOLOR2ACI
1070
     2
1001
ACAD
1010
0.0
1020
0.0
1030
0.0
  0
LINE
  5
148C
  8
SAPA_GLAS
 10
-11.71699883645641
 20
147.00000014330351
 30
0.0
 11
-13.082551816925839
 21
148.365553123773
 31
0.0
1001
GRADIENTCOLOR1ACI
1070
     5
1001
GRADIENTCOLOR2ACI
1070
     2
1001
ACAD
1010
0.0
1020
0.0
1030
0.0
  0
LINE
  5
148D
  8
SAPA_GLAS
 10
-7.8944668213256932
 20
144.30000014330651
 30
0.0
 11
-13.082551816926239
 21
149.488085138907
 31
0.0
1001
GRADIENTCOLOR1ACI
1070
     5
1001
GRADIENTCOLOR2ACI
1070
     2
1001
ACAD
1010
0.0
1020
0.0
1030
0.0
  0
LINE
  5
148E
  8
SAPA_GLAS
 10
-6.7719348061920641
 20
144.30000014330651
 30
0.0
 11
-12.8249904077125
 21
150.35305574482689
 31
0.0
1001
GRADIENTCOLOR1ACI
1070
     5
1001
GRADIENTCOLOR2ACI
1070
     2
1001
ACAD
1010
0.0
1020
0.0
1030
0.0
  0
LINE
  5
148F
  8
SAPA_GLAS
 10
-5.6494027910583782
 20
144.30000014330639
 30
0.0
 11
-11.619034094227571
 21
150.26963144647559
 31
0.0
1001
GRADIENTCOLOR1ACI
1070
     5
1001
GRADIENTCOLOR2ACI
1070
     2
1001
ACAD
1010
0.0
1020
0.0
1030
0.0
  0
LINE
  5
1490
  8
SAPA_GLAS
 10
-4.702255759629792
 20
144.47538512701141
 30
0.0
 11
-10.42499312587614
 21
150.19812249325781
 31
0.0
1001
GRADIENTCOLOR1ACI
1070
     5
1001
GRADIENTCOLOR2ACI
1070
     2
1001
ACAD
1010
0.0
1020
0.0
1030
0.0
  0
LINE
  5
1491
  8
SAPA_GLAS
 10
-4.582551816926979
 20
145.47821319944239
 30
0.0
 11
-5.1043387607882087
 21
146.00000014330359
 31
0.0
1001
GRADIENTCOLOR1ACI
1070
     5
1001
GRADIENTCOLOR2ACI
1070
     2
1001
ACAD
1010
0.0
1020
0.0
1030
0.0
  0
LINE
  5
1492
  8
SAPA_GLAS
 10
-5.794839167915768
 20
146.69050055043121
 30
0.0
 11
-9.2425022926310572
 21
150.1381636751465
 31
0.0
1001
GRADIENTCOLOR1ACI
1070
     5
1001
GRADIENTCOLOR2ACI
1070
     2
1001
ACAD
1010
0.0
1020
0.0
1030
0.0
  0
LINE
  5
1493
  8
SAPA_GLAS
 10
-5.5325518168971248
 20
147.55074521454611
 30
0.0
 11
-8.0712174300707602
 21
150.0894108277198
 31
0.0
1001
GRADIENTCOLOR1ACI
1070
     5
1001
GRADIENTCOLOR2ACI
1070
     2
1001
ACAD
1010
0.0
1020
0.0
1030
0.0
  0
LINE
  5
1494
  8
SAPA_GLAS
 10
-5.532551816886893
 20
148.67327722966951
 30
0.0
 11
-6.9108137633934339
 21
150.05153917617611
 31
0.0
1001
GRADIENTCOLOR1ACI
1070
     5
1001
GRADIENTCOLOR2ACI
1070
     2
1001
ACAD
1010
0.0
1020
0.0
1030
0.0
  0
LINE
  5
1495
  8
SAPA_GLAS
 10
-5.5325518168766052
 20
149.79580924479291
 30
0.0
 11
-5.7609844162130912
 21
150.02424184412939
 31
0.0
1001
GRADIENTCOLOR1ACI
1070
     5
1001
GRADIENTCOLOR2ACI
1070
     2
1001
ACAD
1010
0.0
1020
0.0
1030
0.0
  0
LINE
  5
1496
  8
SAPA_GLAS
 10
-4.5831710683177667
 20
144.7751230872403
 30
0.0
 11
-5.0576747608605501
 21
144.30061939469749
 31
0.0
1001
GRADIENTCOLOR1ACI
1070
     5
1001
GRADIENTCOLOR2ACI
1070
     2
1001
ACAD
1010
0.0
1020
0.0
1030
0.0
  0
LINE
  5
1497
  8
SAPA_GLAS
 10
-4.6257448376691173
 20
145.8550813330225
 30
0.0
 11
-6.1808260273850228
 21
144.30000014330659
 31
0.0
1001
GRADIENTCOLOR1ACI
1070
     5
1001
GRADIENTCOLOR2ACI
1070
     2
1001
ACAD
1010
0.0
1020
0.0
1030
0.0
  0
LINE
  5
1498
  8
SAPA_GLAS
 10
-5.5964697846899858
 20
146.00688840113531
 30
0.0
 11
-7.3033580425186519
 21
144.30000014330659
 31
0.0
1001
GRADIENTCOLOR1ACI
1070
     5
1001
GRADIENTCOLOR2ACI
1070
     2
1001
ACAD
1010
0.0
1020
0.0
1030
0.0
  0
LINE
  5
1499
  8
SAPA_GLAS
 10
-5.5325518169004217
 20
147.19333838405851
 30
0.0
 11
-8.4258900576523388
 21
144.30000014330659
 31
0.0
1001
GRADIENTCOLOR1ACI
1070
     5
1001
GRADIENTCOLOR2ACI
1070
     2
1001
ACAD
1010
0.0
1020
0.0
1030
0.0
  0
LINE
  5
149A
  8
SAPA_GLAS
 10
-5.5325518168901331
 20
148.31587039920251
 30
0.0
 11
-9.5484220727859679
 21
144.30000014330659
 31
0.0
1001
GRADIENTCOLOR1ACI
1070
     5
1001
GRADIENTCOLOR2ACI
1070
     2
1001
ACAD
1010
0.0
1020
0.0
1030
0.0
  0
LINE
  5
149B
  8
SAPA_GLAS
 10
-5.5325518168798453
 20
149.4384024143464
 30
0.0
 11
-10.67095408791959
 21
144.30000014330659
 31
0.0
1001
GRADIENTCOLOR1ACI
1070
     5
1001
GRADIENTCOLOR2ACI
1070
     2
1001
ACAD
1010
0.0
1020
0.0
1030
0.0
  0
LINE
  5
149C
  8
SAPA_GLAS
 10
-6.0630587880115741
 20
150.0304274583483
 30
0.0
 11
-11.525475152308561
 21
144.56801109405129
 31
0.0
1001
GRADIENTCOLOR1ACI
1070
     5
1001
GRADIENTCOLOR2ACI
1070
     2
1001
ACAD
1010
0.0
1020
0.0
1030
0.0
  0
LINE
  5
149D
  8
SAPA_GLAS
 10
-7.1573022730792673
 20
150.05871598841421
 30
0.0
 11
-10.4255659198069
 21
146.7904523416866
 31
0.0
1001
GRADIENTCOLOR1ACI
1070
     5
1001
GRADIENTCOLOR2ACI
1070
     2
1001
ACAD
1010
0.0
1020
0.0
1030
0.0
  0
LINE
  5
149E
  8
SAPA_GLAS
 10
-11.216018118189711
 20
146.00000014330379
 30
0.0
 11
-11.58255181692704
 21
145.63346644456649
 31
0.0
1001
GRADIENTCOLOR1ACI
1070
     5
1001
GRADIENTCOLOR2ACI
1070
     2
1001
ACAD
1010
0.0
1020
0.0
1030
0.0
  0
LINE
  5
149F
  8
SAPA_GLAS
 10
-8.2426641887681171
 20
150.0958860878591
 30
0.0
 11
-11.33855013332345
 21
147.00000014330371
 31
0.0
1001
GRADIENTCOLOR1ACI
1070
     5
1001
GRADIENTCOLOR2ACI
1070
     2
1001
ACAD
1010
0.0
1020
0.0
1030
0.0
  0
LINE
  5
14A0
  8
SAPA_GLAS
 10
-9.3193500041485891
 20
150.1417322876122
 30
0.0
 11
-12.461082148457081
 21
147.00000014330371
 31
0.0
1001
GRADIENTCOLOR1ACI
1070
     5
1001
GRADIENTCOLOR2ACI
1070
     2
1001
ACAD
1010
0.0
1020
0.0
1030
0.0
  0
LINE
  5
14A1
  8
SAPA_GLAS
 10
-10.387555650705851
 20
150.1960586561886
 30
0.0
 11
-13.0825518169255
 21
147.501062489969
 31
0.0
1001
GRADIENTCOLOR1ACI
1070
     5
1001
GRADIENTCOLOR2ACI
1070
     2
1001
ACAD
1010
0.0
1020
0.0
1030
0.0
  0
LINE
  5
14A2
  8
SAPA_GLAS
 10
-11.44746812254885
 20
150.25867819947919
 30
0.0
 11
-13.0825518169259
 21
148.6235945051022
 31
0.0
1001
GRADIENTCOLOR1ACI
1070
     5
1001
GRADIENTCOLOR2ACI
1070
     2
1001
ACAD
1010
0.0
1020
0.0
1030
0.0
  0
LINE
  5
14A3
  8
SAPA_GLAS
 10
-12.49926602845011
 20
150.3294123087116
 30
0.0
 11
-13.082551816926291
 21
149.74612652023541
 31
0.0
1001
GRADIENTCOLOR1ACI
1070
     5
1001
GRADIENTCOLOR2ACI
1070
     2
1001
ACAD
1010
0.0
1020
0.0
1030
0.0
  0
LINE
  5
14A4
  8
SAPA_PROFIL
 62
     4
 10
5.2017096535935252
 20
143.3000000752636
 30
0.0
 11
5.2017096535989822
 21
135.80000007470511
 31
0.0
  0
ARC
  5
14A5
  8
SAPA_PROFIL
 62
     4
 10
6.2017096535989822
 20
135.80000007470511
 30
0.0
 40
1.0
 50
180.0
 51
270.0
  0
LINE
  5
14A6
  8
SAPA_PROFIL
 62
     4
 10
6.2017096535989822
 20
134.80000007470511
 30
0.0
 11
29.349444680522311
 21
134.80000007468971
 31
0.0
  0
ARC
  5
14A7
  8
SAPA_PROFIL
 62
     4
 10
29.349444680521859
 20
135.6000000746894
 30
0.0
 40
0.7999999999997272
 50
270.00000000003263
 51
0.0000000000325689
  0
LINE
  5
14A8
  8
SAPA_PROFIL
 62
     4
 10
30.14944468052159
 20
135.60000007468989
 30
0.0
 11
30.14944468052159
 21
144.40000007520851
 31
0.0
  0
ARC
  5
14A9
  8
SAPA_PROFIL
 62
     4
 10
29.349444680521401
 20
144.40000007520851
 30
0.0
 40
0.8000000000001818
 50
0.0
 51
90.000000000065128
  0
LINE
  5
14AA
  8
SAPA_PROFIL
 62
     4
 10
29.349444680520492
 20
145.20000007520861
 30
0.0
 11
6.2017096535935252
 21
145.20000007518499
 31
0.0
  0
ARC
  5
14AB
  8
SAPA_PROFIL
 62
     4
 10
6.2017096535950031
 20
144.2000000751853
 30
0.0
 40
0.9999999999996589
 50
90.000000000084668
 51
179.9999999999674
  0
LINE
  5
14AC
  8
SAPA_PROFIL
 62
     4
 10
5.2017096535953442
 20
144.2000000751859
 30
0.0
 11
5.2017096535935252
 21
143.3000000752636
 31
0.0
  0
LINE
  5
14AD
  8
SAPA_PROFIL
 10
44.44944472121346
 20
100.0000001430094
 30
0.0
 11
32.24944472121274
 21
100.0000001430098
 31
0.0
  0
LINE
  5
14AE
  8
SAPA_PROFIL
 10
32.24944472121274
 20
100.0000001430098
 30
0.0
 11
32.24944472121274
 21
68.000000143009402
 31
0.0
  0
LINE
  5
14AF
  8
SAPA_PROFIL
 10
32.24944472121274
 20
68.000000143009402
 30
0.0
 11
44.44944472121346
 21
68.000000143009402
 31
0.0
  0
LINE
  5
14B0
  8
SAPA_PROFIL
 10
44.44944472121346
 20
68.000000143009402
 30
0.0
 11
44.44944472121346
 21
100.0000001430094
 31
0.0
  0
ARC
  5
14B1
  8
SAPA_PROFIL
 10
33.849444721213104
 20
103.0000001430098
 30
0.0
 40
1.0
 50
180.0
 51
270.0
  0
LINE
  5
14B2
  8
SAPA_PROFIL
 10
33.849444721213104
 20
102.0000001430098
 30
0.0
 11
42.849444721213104
 21
102.0000001430098
 31
0.0
  0
ARC
  5
14B3
  8
SAPA_PROFIL
 10
42.849444721213104
 20
103.0000001430098
 30
0.0
 40
1.0
 50
270.0
 51
0.0
  0
LINE
  5
14B4
  8
SAPA_PROFIL
 10
43.849444721213104
 20
103.0000001430098
 30
0.0
 11
43.849444721213104
 21
105.5000001784115
 31
0.0
  0
LINE
  5
14B5
  8
SAPA_PROFIL
 10
43.849444721213104
 20
105.5000001784115
 30
0.0
 11
44.44944472121346
 21
105.5000001784115
 31
0.0
  0
LINE
  5
14B6
  8
SAPA_PROFIL
 10
44.44944472121346
 20
105.5000001784115
 30
0.0
 11
44.44944472121346
 21
123.0000001784115
 31
0.0
  0
LINE
  5
14B7
  8
SAPA_PROFIL
 10
44.44944472121346
 20
123.0000001784115
 30
0.0
 11
32.24944472121274
 21
123.0000001784115
 31
0.0
  0
LINE
  5
14B8
  8
SAPA_PROFIL
 10
32.24944472121274
 20
123.0000001784115
 30
0.0
 11
32.24944472121274
 21
105.5000001784115
 31
0.0
  0
LINE
  5
14B9
  8
SAPA_PROFIL
 10
32.24944472121274
 20
105.5000001784115
 30
0.0
 11
32.849444721213104
 21
105.5000001784115
 31
0.0
  0
LINE
  5
14BA
  8
SAPA_PROFIL
 10
32.849444721213104
 20
105.5000001784115
 30
0.0
 11
32.849444721213104
 21
103.0000001430098
 31
0.0
  0
ARC
  5
14BB
  8
SAPA_PROFIL
 10
46.749444721210963
 20
126.0000001430236
 30
0.0
 40
0.2000000000001592
 50
90.000000000533305
 51
270.00000000050881
  0
LINE
  5
14BC
  8
SAPA_PROFIL
 10
46.749444721209102
 20
126.2000001430237
 30
0.0
 11
46.749468721209951
 21
129.7858105806508
 31
0.0
  0
ARC
  5
14BD
  8
SAPA_PROFIL
 10
45.749468721209801
 20
129.78581058065069
 30
0.0
 40
1.000000000000149
 50
0.0000000000065138
 51
134.99999999998931
  0
LINE
  5
14BE
  8
SAPA_PROFIL
 10
45.042361940023277
 20
130.4929173618375
 30
0.0
 11
43.737312686854011
 21
129.1878681086684
 31
0.0
  0
ARC
  5
14BF
  8
SAPA_PROFIL
 10
43.949444721210241
 20
128.9757360743132
 30
0.0
 40
0.2999999999996879
 50
135.00000000013341
 51
180.000000000152
  0
LINE
  5
14C0
  8
SAPA_PROFIL
 10
43.64944472121055
 20
128.97573607431241
 30
0.0
 11
43.64944472120964
 21
128.38923062756521
 31
0.0
  0
ARC
  5
14C1
  8
SAPA_PROFIL
 10
43.949444721209588
 20
128.3892306275676
 30
0.0
 40
0.2999999999999474
 50
180.00000000046131
 51
210.00000000045901
  0
LINE
  5
14C2
  8
SAPA_PROFIL
 10
43.689637100075508
 20
128.23923062756549
 30
0.0
 11
44.549444721210193
 21
126.75000014302439
 31
0.0
  0
LINE
  5
14C3
  8
SAPA_PROFIL
 10
44.549444721210193
 20
126.75000014302439
 30
0.0
 11
44.549456721209701
 21
126.3000001430246
 31
0.0
  0
ARC
  5
14C4
  8
SAPA_PROFIL
 10
44.249456721209519
 20
126.3000001430246
 30
0.0
 40
0.3000000000001819
 50
270.0
 51
0.0
  0
LINE
  5
14C5
  8
SAPA_PROFIL
 10
44.249456721209519
 20
126.00000014302439
 30
0.0
 11
40.64944472121055
 21
126.00000014302459
 31
0.0
  0
ARC
  5
14C6
  8
SAPA_PROFIL
 10
40.649444721209981
 20
126.3000001430251
 30
0.0
 40
0.300000000000523
 50
180.00000000010851
 51
270.00000000010863
  0
LINE
  5
14C7
  8
SAPA_PROFIL
 10
40.349444721209473
 20
126.3000001430246
 30
0.0
 11
40.349444721209473
 21
126.75000014302439
 31
0.0
  0
LINE
  5
14C8
  8
SAPA_PROFIL
 10
40.349444721209473
 20
126.75000014302439
 30
0.0
 11
41.209269458778863
 21
128.23926027409851
 31
0.0
  0
ARC
  5
14C9
  8
SAPA_PROFIL
 10
40.949461837643177
 20
128.38926027409769
 30
0.0
 40
0.2999999999998768
 50
330.0000000001732
 51
359.99635313271853
  0
LINE
  5
14CA
  8
SAPA_PROFIL
 10
41.249461837035369
 20
128.3892411791453
 30
0.0
 11
41.24946888682711
 21
128.50000014302441
 31
0.0
  0
LINE
  5
14CB
  8
SAPA_PROFIL
 10
41.24946888682711
 20
128.50000014302441
 30
0.0
 11
39.62775688472243
 21
128.5000001430239
 31
0.0
  0
ARC
  5
14CC
  8
SAPA_PROFIL
 10
39.627756884722587
 20
127.50000014302429
 30
0.0
 40
0.9999999999996447
 50
90.000000000008953
 51
150.0000000000118
  0
LINE
  5
14CD
  8
SAPA_PROFIL
 10
38.761731480938352
 20
128.0000001430239
 30
0.0
 11
37.89570607715428
 21
126.50000014302439
 31
0.0
  0
ARC
  5
14CE
  8
SAPA_PROFIL
 10
37.029680673370038
 20
127.000000143024
 30
0.0
 40
0.999999999999646
 50
270.00000000000898
 51
330.00000000001182
  0
LINE
  5
14CF
  8
SAPA_PROFIL
 10
37.029680673370201
 20
126.00000014302439
 30
0.0
 11
36.469208769053473
 21
126.00000014302439
 31
0.0
  0
ARC
  5
14D0
  8
SAPA_PROFIL
 10
36.469208769053623
 20
127.000000143024
 30
0.0
 40
0.9999999999996447
 50
209.9999999999882
 51
269.99999999999102
  0
LINE
  5
14D1
  8
SAPA_PROFIL
 10
35.603183365269388
 20
126.50000014302439
 30
0.0
 11
34.737157961484399
 21
128.0000001430237
 31
0.0
  0
ARC
  5
14D2
  8
SAPA_PROFIL
 10
33.871132557699092
 20
127.5000001430236
 30
0.0
 40
1.0000000000008229
 50
29.999999999982151
 51
89.999999999981682
  0
LINE
  5
14D3
  8
SAPA_PROFIL
 10
33.871132557699411
 20
128.50000014302441
 30
0.0
 11
32.249420555596551
 21
128.50000014302441
 31
0.0
  0
LINE
  5
14D4
  8
SAPA_PROFIL
 10
32.249420555596551
 20
128.50000014302441
 30
0.0
 11
32.249427605387382
 21
128.3892411791453
 31
0.0
  0
ARC
  5
14D5
  8
SAPA_PROFIL
 10
32.549427604778877
 20
128.38926027409781
 30
0.0
 40
0.2999999999991979
 50
180.00364686729239
 51
209.99999999986369
  0
LINE
  5
14D6
  8
SAPA_PROFIL
 10
32.289619983643888
 20
128.2392602740988
 30
0.0
 11
33.149444721212383
 21
126.75000014302439
 31
0.0
  0
LINE
  5
14D7
  8
SAPA_PROFIL
 10
33.149444721212383
 20
126.75000014302439
 30
0.0
 11
33.149444721213293
 21
126.3000001430246
 31
0.0
  0
ARC
  5
14D8
  8
SAPA_PROFIL
 10
32.849444721213104
 20
126.3000001430246
 30
0.0
 40
0.3000000000001819
 50
270.0
 51
0.0
  0
LINE
  5
14D9
  8
SAPA_PROFIL
 10
32.849444721213104
 20
126.00000014302439
 30
0.0
 11
29.249432721214141
 21
126.00000014302459
 31
0.0
  0
ARC
  5
14DA
  8
SAPA_PROFIL
 10
29.249432721213569
 20
126.3000001430251
 30
0.0
 40
0.300000000000523
 50
180.00000000010851
 51
270.00000000010863
  0
LINE
  5
14DB
  8
SAPA_PROFIL
 10
28.94943272121305
 20
126.3000001430246
 30
0.0
 11
28.949444721213471
 21
126.75000014302439
 31
0.0
  0
LINE
  5
14DC
  8
SAPA_PROFIL
 10
28.949444721213471
 20
126.75000014302439
 30
0.0
 11
29.809252342349058
 21
128.23923062756529
 31
0.0
  0
ARC
  5
14DD
  8
SAPA_PROFIL
 10
29.549444721213639
 20
128.3892306275641
 30
0.0
 40
0.2999999999994613
 50
330.0000000002089
 51
0.0000000002062696
  0
LINE
  5
14DE
  8
SAPA_PROFIL
 10
29.849444721213111
 20
128.38923062756521
 30
0.0
 11
29.84944472121402
 21
128.97573607431241
 31
0.0
  0
ARC
  5
14DF
  8
SAPA_PROFIL
 10
29.5494447212136
 20
128.97573607431221
 30
0.0
 40
0.3000000000004199
 50
0.000000000037997
 51
45.00000000005614
  0
LINE
  5
14E0
  8
SAPA_PROFIL
 10
29.761576755569649
 20
129.18786810866871
 30
0.0
 11
28.45652750240038
 21
130.4929173618377
 31
0.0
  0
ARC
  5
14E1
  8
SAPA_PROFIL
 10
27.749420721213909
 20
129.7858105806508
 30
0.0
 40
1.0000000000001881
 50
45.000000000017273
 51
180.0
  0
LINE
  5
14E2
  8
SAPA_PROFIL
 10
26.74942072121371
 20
129.7858105806508
 30
0.0
 11
26.74944472121274
 21
126.2000001430235
 31
0.0
  0
ARC
  5
14E3
  8
SAPA_PROFIL
 10
26.74944472121274
 20
126.000000143024
 30
0.0
 40
0.199999999999477
 50
270.0
 51
90.0
  0
LINE
  5
14E4
  8
SAPA_PROFIL
 10
26.74944472121274
 20
125.8000001430246
 30
0.0
 11
26.74944472121274
 21
124.5000001134744
 31
0.0
  0
ARC
  5
14E5
  8
SAPA_PROFIL
 10
27.749444721068809
 20
124.5000001136188
 30
0.0
 40
0.9999999998560724
 50
180.00000000827251
 51
270.00000000845489
  0
LINE
  5
14E6
  8
SAPA_PROFIL
 10
27.749444721216381
 20
123.50000011376279
 30
0.0
 11
28.74944472121274
 21
123.50000011376279
 31
0.0
  0
ARC
  5
14E7
  8
SAPA_PROFIL
 10
28.74944472121274
 20
122.50000011376279
 30
0.0
 40
1.0
 50
0.0
 51
90.0
  0
LINE
  5
14E8
  8
SAPA_PROFIL
 10
29.74944472121274
 20
122.50000011376279
 30
0.0
 11
29.74944472121274
 21
116.3870704038013
 31
0.0
  0
ARC
  5
14E9
  8
SAPA_PROFIL
 10
28.74944472121323
 20
116.38707040380061
 30
0.0
 40
0.9999999999995132
 50
295.00000000030542
 51
0.0000000000382684
  0
LINE
  5
14EA
  8
SAPA_PROFIL
 10
29.17206298295855
 20
115.4807626167667
 30
0.0
 11
25.32682645945874
 21
113.68769937842011
 31
0.0
  0
ARC
  5
14EB
  8
SAPA_PROFIL
 10
25.74944472120379
 20
112.7813915913853
 30
0.0
 40
1.0000000000001521
 50
115.0000000002707
 51
180.00000000000321
  0
LINE
  5
14EC
  8
SAPA_PROFIL
 10
24.749444721203648
 20
112.7813915913852
 30
0.0
 11
24.749444721203648
 21
109.73264611805691
 31
0.0
  0
ARC
  5
14ED
  8
SAPA_PROFIL
 10
24.949444721204259
 20
109.7326461180574
 30
0.0
 40
0.2000000000006139
 50
180.0000000001466
 51
299.10990894054697
  0
ARC
  5
14EE
  8
SAPA_PROFIL
 10
26.749444721235651
 20
106.50000014301951
 30
0.0
 40
3.5000000000050062
 50
94.917100336035674
 51
119.1099089403769
  0
LINE
  5
14EF
  8
SAPA_PROFIL
 10
26.44944472120438
 20
109.98711929785441
 30
0.0
 11
26.44944472120438
 21
111.25000014302439
 31
0.0
  0
ARC
  5
14F0
  8
SAPA_PROFIL
 10
26.949444721204369
 20
111.25000014302439
 30
0.0
 40
0.5
 50
90.0
 51
180.0
  0
LINE
  5
14F1
  8
SAPA_PROFIL
 10
26.949444721204369
 20
111.75000014302439
 30
0.0
 11
29.24944472121274
 21
111.75000014302439
 31
0.0
  0
ARC
  5
14F2
  8
SAPA_PROFIL
 10
29.24944472121274
 20
111.25000014302439
 30
0.0
 40
0.5
 50
0.0
 51
90.0
  0
LINE
  5
14F3
  8
SAPA_PROFIL
 10
29.74944472121274
 20
111.25000014302439
 30
0.0
 11
29.74944472121274
 21
108.3027757807927
 31
0.0
  0
ARC
  5
14F4
  8
SAPA_PROFIL
 10
26.749444721234489
 20
106.50000014302439
 30
0.0
 40
3.5000000000000382
 50
328.99728086543371
 51
31.002719134566291
  0
LINE
  5
14F5
  8
SAPA_PROFIL
 10
29.74944472121274
 20
104.6972245052561
 30
0.0
 11
29.74944472121274
 21
98.302775780792686
 31
0.0
  0
ARC
  5
14F6
  8
SAPA_PROFIL
 10
26.749444721234489
 20
96.500000143024423
 30
0.0
 40
3.5000000000000382
 50
328.99728086543371
 51
31.002719134566291
  0
LINE
  5
14F7
  8
SAPA_PROFIL
 10
29.74944472121274
 20
94.697224505256145
 30
0.0
 11
29.74944472121274
 21
91.750000143024394
 31
0.0
  0
ARC
  5
14F8
  8
SAPA_PROFIL
 10
29.24944472121274
 20
91.750000143024394
 30
0.0
 40
0.5
 50
270.0
 51
0.0
  0
LINE
  5
14F9
  8
SAPA_PROFIL
 10
29.24944472121274
 20
91.250000143024408
 30
0.0
 11
26.949444721204369
 21
91.250000143024408
 31
0.0
  0
ARC
  5
14FA
  8
SAPA_PROFIL
 10
26.949444721204369
 20
91.750000143024394
 30
0.0
 40
0.5
 50
180.0
 51
270.0
  0
LINE
  5
14FB
  8
SAPA_PROFIL
 10
26.44944472120438
 20
91.750000143024394
 30
0.0
 11
26.44944472120255
 21
93.012880988194638
 31
0.0
  0
ARC
  5
14FC
  8
SAPA_PROFIL
 10
26.749444721236859
 20
96.50000014302573
 30
0.0
 40
3.5000000000014988
 50
240.8900910595685
 51
265.08289966390959
  0
ARC
  5
14FD
  8
SAPA_PROFIL
 10
24.949444721204461
 20
93.267354167992224
 30
0.0
 40
0.2000000000008094
 50
60.89009105955035
 51
179.99999999995109
  0
LINE
  5
14FE
  8
SAPA_PROFIL
 10
24.749444721203648
 20
93.26735416799238
 30
0.0
 11
24.749444721203648
 21
90.218608694663544
 31
0.0
  0
ARC
  5
14FF
  8
SAPA_PROFIL
 10
25.749444721203719
 20
90.218608694664539
 30
0.0
 40
1.0000000000000671
 50
180.00000000005701
 51
244.99999999978951
  0
LINE
  5
1500
  8
SAPA_PROFIL
 10
25.326826459459649
 20
89.312300907629364
 30
0.0
 11
29.172062982957641
 21
87.519237669282333
 31
0.0
  0
ARC
  5
1501
  8
SAPA_PROFIL
 10
28.749444721212601
 20
86.612929882247556
 30
0.0
 40
1.0000000000001521
 50
359.99999999999682
 51
64.999999999729241
  0
LINE
  5
1502
  8
SAPA_PROFIL
 10
29.74944472121274
 20
86.612929882247485
 30
0.0
 11
29.74944472121274
 21
70.30000014302459
 31
0.0
  0
LINE
  5
1503
  8
SAPA_PROFIL
 10
29.74944472121274
 20
70.30000014302459
 30
0.0
 11
28.24944472121274
 21
70.30000014302459
 31
0.0
  0
LINE
  5
1504
  8
SAPA_PROFIL
 10
28.24944472121274
 20
70.30000014302459
 30
0.0
 11
28.24944472121274
 21
69.500000143024408
 31
0.0
  0
LINE
  5
1505
  8
SAPA_PROFIL
 10
28.24944472121274
 20
69.500000143024408
 30
0.0
 11
29.74944472121274
 21
69.500000143024408
 31
0.0
  0
LINE
  5
1506
  8
SAPA_PROFIL
 10
29.74944472121274
 20
69.500000143024408
 30
0.0
 11
29.74944472121274
 21
67.80000014302459
 31
0.0
  0
LINE
  5
1507
  8
SAPA_PROFIL
 10
29.74944472121274
 20
67.80000014302459
 30
0.0
 11
5.1494447212141941
 21
67.500000143024408
 31
0.0
  0
LINE
  5
1508
  8
SAPA_PROFIL
 10
5.1494447212141941
 20
67.500000143024408
 30
0.0
 11
5.1494447212141941
 21
69.200000143024681
 31
0.0
  0
LINE
  5
1509
  8
SAPA_PROFIL
 10
5.1494447212141941
 20
69.200000143024681
 30
0.0
 11
7.1494447212141941
 21
69.200000143024681
 31
0.0
  0
LINE
  5
150A
  8
SAPA_PROFIL
 10
7.1494447212141941
 20
69.200000143024681
 30
0.0
 11
7.1494447212141941
 21
70.000000143024408
 31
0.0
  0
LINE
  5
150B
  8
SAPA_PROFIL
 10
7.1494447212141941
 20
70.000000143024408
 30
0.0
 11
2.9994447212218338
 21
70.000000143024408
 31
0.0
  0
ARC
  5
150C
  8
SAPA_PROFIL
 10
2.9994447212218338
 20
69.500000143024408
 30
0.0
 40
0.5
 50
90.0
 51
180.0
  0
LINE
  5
150D
  8
SAPA_PROFIL
 10
2.4994447212218338
 20
69.500000143024408
 30
0.0
 11
2.4994447212109199
 21
69.000000143042598
 31
0.0
  0
LINE
  5
150E
  8
SAPA_PROFIL
 10
2.4994447212109199
 20
69.000000143042598
 30
0.0
 11
3.749444721185454
 21
69.000000143021225
 31
0.0
  0
LINE
  5
150F
  8
SAPA_PROFIL
 10
3.749444721185454
 20
69.000000143021225
 30
0.0
 11
3.7494447212209252
 21
67.600000143042735
 31
0.0
  0
ARC
  5
1510
  8
SAPA_PROFIL
 10
3.4494447212344541
 20
67.600000143048803
 30
0.0
 40
0.2999999999864711
 50
269.99999999738139
 51
359.99999999884119
  0
LINE
  5
1511
  8
SAPA_PROFIL
 10
3.4494447212207429
 20
67.300000143062334
 30
0.0
 11
-2.9505552787834399
 21
67.300000143034822
 31
0.0
  0
ARC
  5
1512
  8
SAPA_PROFIL
 10
-2.9505552787660911
 20
67.600000143025071
 30
0.0
 40
0.2999999999902485
 50
179.99999999814631
 51
269.9999999966866
  0
LINE
  5
1513
  8
SAPA_PROFIL
 10
-3.250555278756337
 20
67.600000143034777
 30
0.0
 11
-3.250555278749061
 21
69.000000143021225
 31
0.0
  0
LINE
  5
1514
  8
SAPA_PROFIL
 10
-3.250555278749061
 20
69.000000143021225
 30
0.0
 11
-2.0005552787745269
 21
69.000000143042598
 31
0.0
  0
LINE
  5
1515
  8
SAPA_PROFIL
 10
-2.0005552787745269
 20
69.000000143042598
 30
0.0
 11
-2.0005552787872598
 21
69.500000143024408
 31
0.0
  0
ARC
  5
1516
  8
SAPA_PROFIL
 10
-2.5005552787872598
 20
69.500000143024408
 30
0.0
 40
0.5
 50
0.0
 51
90.0
  0
LINE
  5
1517
  8
SAPA_PROFIL
 10
-2.5005552787872598
 20
70.000000143024408
 30
0.0
 11
-5.5005552787872602
 21
70.000000143024863
 31
0.0
  0
ARC
  5
1518
  8
SAPA_PROFIL
 10
-5.5005552787945362
 20
69.500000143024863
 30
0.0
 40
0.5
 50
89.999999999166235
 51
180.0
  0
LINE
  5
1519
  8
SAPA_PROFIL
 10
-6.0005552787945362
 20
69.500000143024863
 30
0.0
 11
-6.0005552787945362
 21
69.000000143024863
 31
0.0
  0
LINE
  5
151A
  8
SAPA_PROFIL
 10
-6.0005552787945362
 20
69.000000143024863
 30
0.0
 11
-4.5505552787974457
 21
69.000000143025304
 31
0.0
  0
LINE
  5
151B
  8
SAPA_PROFIL
 10
-4.5505552787974457
 20
69.000000143025304
 30
0.0
 11
-4.5505552787974457
 21
67.150000143032457
 31
0.0
  0
ARC
  5
151C
  8
SAPA_PROFIL
 10
-4.8505552787840989
 20
67.150000143048715
 30
0.0
 40
0.2999999999866532
 50
269.9999999968951
 51
359.9999999968951
  0
LINE
  5
151D
  8
SAPA_PROFIL
 10
-4.8505552788003561
 20
66.850000143062061
 30
0.0
 11
-7.090747657656947
 21
66.850000143032943
 31
0.0
  0
LINE
  5
151E
  8
SAPA_PROFIL
 10
-7.090747657656947
 20
66.850000143032943
 30
0.0
 11
-7.3505552787858051
 21
67.300000143027773
 31
0.0
  0
LINE
  5
151F
  8
SAPA_PROFIL
 10
-7.3505552787858051
 20
67.300000143027773
 30
0.0
 11
-9.1505552787959914
 21
67.300000143027773
 31
0.0
  0
LINE
  5
1520
  8
SAPA_PROFIL
 10
-9.1505552787959914
 20
67.300000143027773
 30
0.0
 11
-9.4103628999248485
 21
66.850000143032943
 31
0.0
  0
LINE
  5
1521
  8
SAPA_PROFIL
 10
-9.4103628999248485
 20
66.850000143032943
 30
0.0
 11
-11.65055527878053
 21
66.850000143033185
 31
0.0
  0
ARC
  5
1522
  8
SAPA_PROFIL
 10
-11.650555278769071
 20
67.150000143019355
 30
0.0
 40
0.29999999998617
 50
179.99999999710681
 51
269.99999999781153
  0
LINE
  5
1523
  8
SAPA_PROFIL
 10
-11.950555278755241
 20
67.150000143034504
 30
0.0
 11
-11.95055527878435
 21
69.000000143025304
 31
0.0
  0
LINE
  5
1524
  8
SAPA_PROFIL
 10
-11.95055527878435
 20
69.000000143025304
 30
0.0
 11
-10.50055527878726
 21
69.000000143024863
 31
0.0
  0
LINE
  5
1525
  8
SAPA_PROFIL
 10
-10.50055527878726
 20
69.000000143024863
 30
0.0
 11
-10.50055527878726
 21
69.500000143024863
 31
0.0
  0
ARC
  5
1526
  8
SAPA_PROFIL
 10
-11.00055527878726
 20
69.500000143024863
 30
0.0
 40
0.5
 50
0.0
 51
90.0
  0
LINE
  5
1527
  8
SAPA_PROFIL
 10
-11.00055527878726
 20
70.000000143024863
 30
0.0
 11
-12.75055527878726
 21
70.000000143024408
 31
0.0
  0
ARC
  5
1528
  8
SAPA_PROFIL
 10
-12.75055527878726
 20
69.500000143024408
 30
0.0
 40
0.5
 50
90.0
 51
180.0
  0
LINE
  5
1529
  8
SAPA_PROFIL
 10
-13.25055527878726
 20
69.500000143024408
 30
0.0
 11
-13.25055527878726
 21
67.000000143024408
 31
0.0
  0
ARC
  5
152A
  8
SAPA_PROFIL
 10
-11.25055527878726
 20
67.000000143024408
 30
0.0
 40
2.0
 50
180.0
 51
270.0
  0
LINE
  5
152B
  8
SAPA_PROFIL
 10
-11.25055527878726
 20
65.000000143024408
 30
0.0
 11
46.44944472120892
 21
65.000000143024408
 31
0.0
  0
ARC
  5
152C
  8
SAPA_PROFIL
 10
46.44944472120892
 20
65.30000014302459
 30
0.0
 40
0.3000000000001819
 50
270.0
 51
0.0
  0
LINE
  5
152D
  8
SAPA_PROFIL
 10
46.749444721209102
 20
65.30000014302459
 30
0.0
 11
46.74944472121274
 21
125.8000001430234
 31
0.0
  0
LINE
  5
152E
  8
SAPA_PROFIL
 10
44.44944472121346
 20
180.0000001430376
 30
0.0
 11
32.24944472121274
 21
180.0000001430376
 31
0.0
  0
LINE
  5
152F
  8
SAPA_PROFIL
 10
32.24944472121274
 20
180.0000001430376
 30
0.0
 11
32.24944472121274
 21
212.0000001430376
 31
0.0
  0
LINE
  5
1530
  8
SAPA_PROFIL
 10
32.24944472121274
 20
212.0000001430376
 30
0.0
 11
44.44944472121346
 21
212.0000001430376
 31
0.0
  0
LINE
  5
1531
  8
SAPA_PROFIL
 10
44.44944472121346
 20
212.0000001430376
 30
0.0
 11
44.44944472121346
 21
180.0000001430376
 31
0.0
  0
ARC
  5
1532
  8
SAPA_PROFIL
 10
33.849444721213104
 20
177.0000001430376
 30
0.0
 40
1.0
 50
90.0
 51
180.0
  0
LINE
  5
1533
  8
SAPA_PROFIL
 10
33.849444721213104
 20
178.0000001430376
 30
0.0
 11
42.849444721213104
 21
178.0000001430376
 31
0.0
  0
ARC
  5
1534
  8
SAPA_PROFIL
 10
42.849444721213104
 20
177.0000001430376
 30
0.0
 40
1.0
 50
0.0
 51
90.0
  0
LINE
  5
1535
  8
SAPA_PROFIL
 10
43.849444721213104
 20
177.0000001430376
 30
0.0
 11
43.849444721213104
 21
174.50000010763549
 31
0.0
  0
LINE
  5
1536
  8
SAPA_PROFIL
 10
43.849444721213104
 20
174.50000010763549
 30
0.0
 11
44.44944472121346
 21
174.50000010763549
 31
0.0
  0
LINE
  5
1537
  8
SAPA_PROFIL
 10
44.44944472121346
 20
174.50000010763549
 30
0.0
 11
44.44944472121346
 21
157.00000010763549
 31
0.0
  0
LINE
  5
1538
  8
SAPA_PROFIL
 10
44.44944472121346
 20
157.00000010763549
 30
0.0
 11
32.24944472121274
 21
157.00000010763549
 31
0.0
  0
LINE
  5
1539
  8
SAPA_PROFIL
 10
32.24944472121274
 20
157.00000010763549
 30
0.0
 11
32.24944472121274
 21
174.50000010763549
 31
0.0
  0
LINE
  5
153A
  8
SAPA_PROFIL
 10
32.24944472121274
 20
174.50000010763549
 30
0.0
 11
32.849444721213104
 21
174.50000010763549
 31
0.0
  0
LINE
  5
153B
  8
SAPA_PROFIL
 10
32.849444721213104
 20
174.50000010763549
 30
0.0
 11
32.849444721213104
 21
177.0000001430376
 31
0.0
  0
LINE
  5
153C
  8
SAPA_PROFIL
 10
26.44944472120438
 20
188.25000014302299
 30
0.0
 11
26.44944472120438
 21
186.98711929785259
 31
0.0
  0
ARC
  5
153D
  8
SAPA_PROFIL
 10
26.749444721235719
 20
183.50000014302231
 30
0.0
 40
3.500000000000381
 50
94.917100336043305
 51
119.1099089404203
  0
ARC
  5
153E
  8
SAPA_PROFIL
 10
24.94944472120444
 20
186.73264611805519
 30
0.0
 40
0.200000000000795
 50
180.0000000000407
 51
299.10990894045892
  0
LINE
  5
153F
  8
SAPA_PROFIL
 10
24.749444721203648
 20
186.73264611805499
 30
0.0
 11
24.749444721203648
 21
189.7813915913834
 31
0.0
  0
ARC
  5
1540
  8
SAPA_PROFIL
 10
25.749444721204078
 20
189.78139159138269
 30
0.0
 40
1.000000000000433
 50
115.00000000022401
 51
179.999999999956
  0
LINE
  5
1541
  8
SAPA_PROFIL
 10
25.326826459459649
 20
190.68769937841799
 30
0.0
 11
29.17206298295855
 21
192.4807626167653
 31
0.0
  0
ARC
  5
1542
  8
SAPA_PROFIL
 10
28.749444721213219
 20
193.3870704037993
 30
0.0
 40
0.9999999999995273
 50
295.00000000030559
 51
0.0000000000374542
  0
LINE
  5
1543
  8
SAPA_PROFIL
 10
29.74944472121274
 20
193.3870704037999
 30
0.0
 11
29.74944472121274
 21
209.70000014302289
 31
0.0
  0
LINE
  5
1544
  8
SAPA_PROFIL
 10
29.74944472121274
 20
209.70000014302289
 30
0.0
 11
28.24944472121274
 21
209.70000014302289
 31
0.0
  0
LINE
  5
1545
  8
SAPA_PROFIL
 10
28.24944472121274
 20
209.70000014302289
 30
0.0
 11
28.24944472121274
 21
210.50000014302259
 31
0.0
  0
LINE
  5
1546
  8
SAPA_PROFIL
 10
28.24944472121274
 20
210.50000014302259
 30
0.0
 11
29.74944472121274
 21
210.50000014302259
 31
0.0
  0
LINE
  5
1547
  8
SAPA_PROFIL
 10
29.74944472121274
 20
210.50000014302259
 30
0.0
 11
29.74944472121274
 21
212.20000014302289
 31
0.0
  0
LINE
  5
1548
  8
SAPA_PROFIL
 10
29.74944472121274
 20
212.20000014302289
 30
0.0
 11
5.1494447212141941
 21
212.50000014302259
 31
0.0
  0
LINE
  5
1549
  8
SAPA_PROFIL
 10
5.1494447212141941
 20
212.50000014302259
 30
0.0
 11
5.1494447212141941
 21
210.8000001430228
 31
0.0
  0
LINE
  5
154A
  8
SAPA_PROFIL
 10
5.1494447212141941
 20
210.8000001430228
 30
0.0
 11
7.1494447212141941
 21
210.8000001430228
 31
0.0
  0
LINE
  5
154B
  8
SAPA_PROFIL
 10
7.1494447212141941
 20
210.8000001430228
 30
0.0
 11
7.1494447212141941
 21
210.00000014302259
 31
0.0
  0
LINE
  5
154C
  8
SAPA_PROFIL
 10
7.1494447212141941
 20
210.00000014302259
 30
0.0
 11
2.9994447212218338
 21
210.00000014302259
 31
0.0
  0
ARC
  5
154D
  8
SAPA_PROFIL
 10
2.9994447212218081
 20
210.50000014302259
 30
0.0
 40
0.4999999999999716
 50
179.9999999999967
 51
270.00000000000313
  0
LINE
  5
154E
  8
SAPA_PROFIL
 10
2.4994447212218338
 20
210.50000014302259
 30
0.0
 11
2.4994447212109199
 21
211.0000001430048
 31
0.0
  0
LINE
  5
154F
  8
SAPA_PROFIL
 10
2.4994447212109199
 20
211.0000001430048
 30
0.0
 11
3.749444721185454
 21
211.0000001430262
 31
0.0
  0
LINE
  5
1550
  8
SAPA_PROFIL
 10
3.749444721185454
 20
211.0000001430262
 30
0.0
 11
3.7494447212200148
 21
212.40000014300489
 31
0.0
  0
ARC
  5
1551
  8
SAPA_PROFIL
 10
3.4494447212343302
 20
212.400000142999
 30
0.0
 40
0.299999999985685
 50
0.0000000011399108
 51
90.000000002594987
  0
LINE
  5
1552
  8
SAPA_PROFIL
 10
3.4494447212207429
 20
212.70000014298469
 30
0.0
 11
-2.950555278784349
 21
212.7000001430124
 31
0.0
  0
ARC
  5
1553
  8
SAPA_PROFIL
 10
-2.9505552787666569
 20
212.40000014302279
 30
0.0
 40
0.2999999999896659
 50
90.000000003379014
 51
180.00000000192159
  0
LINE
  5
1554
  8
SAPA_PROFIL
 10
-3.250555278756337
 20
212.4000001430127
 30
0.0
 11
-3.250555278749061
 21
211.0000001430262
 31
0.0
  0
LINE
  5
1555
  8
SAPA_PROFIL
 10
-3.250555278749061
 20
211.0000001430262
 30
0.0
 11
-2.0005552787745269
 21
211.0000001430048
 31
0.0
  0
LINE
  5
1556
  8
SAPA_PROFIL
 10
-2.0005552787745269
 20
211.0000001430048
 30
0.0
 11
-2.0005552787872598
 21
210.50000014302259
 31
0.0
  0
ARC
  5
1557
  8
SAPA_PROFIL
 10
-2.5005552787872629
 20
210.50000014302259
 30
0.0
 40
0.5000000000000036
 50
270.0000000000004
 51
0.0
  0
LINE
  5
1558
  8
SAPA_PROFIL
 10
-2.5005552787872598
 20
210.00000014302259
 30
0.0
 11
-5.5005552787872602
 21
210.00000014302259
 31
0.0
  0
ARC
  5
1559
  8
SAPA_PROFIL
 10
-5.5005552787945433
 20
210.50000014302259
 30
0.0
 40
0.5
 50
180.0
 51
270.00000000083458
  0
LINE
  5
155A
  8
SAPA_PROFIL
 10
-6.0005552787945362
 20
210.50000014302259
 30
0.0
 11
-6.0005552787945362
 21
211.00000014302259
 31
0.0
  0
LINE
  5
155B
  8
SAPA_PROFIL
 10
-6.0005552787945362
 20
211.00000014302259
 30
0.0
 11
-4.5505552787974457
 21
211.00000014302219
 31
0.0
  0
LINE
  5
155C
  8
SAPA_PROFIL
 10
-4.5505552787974457
 20
211.00000014302219
 30
0.0
 11
-4.5505552787974457
 21
212.8500001430148
 31
0.0
  0
ARC
  5
155D
  8
SAPA_PROFIL
 10
-4.8505552787842197
 20
212.8500001429986
 30
0.0
 40
0.2999999999867739
 50
0.0000000030831873
 51
90.000000003081809
  0
LINE
  5
155E
  8
SAPA_PROFIL
 10
-4.8505552788003561
 20
213.15000014298539
 30
0.0
 11
-7.090747657656947
 21
213.15000014301401
 31
0.0
  0
LINE
  5
155F
  8
SAPA_PROFIL
 10
-7.090747657656947
 20
213.15000014301401
 30
0.0
 11
-7.3505552787858051
 21
212.70000014301971
 31
0.0
  0
LINE
  5
1560
  8
SAPA_PROFIL
 10
-7.3505552787858051
 20
212.70000014301971
 30
0.0
 11
-9.1505552787959914
 21
212.70000014301971
 31
0.0
  0
LINE
  5
1561
  8
SAPA_PROFIL
 10
-9.1505552787959914
 20
212.70000014301971
 30
0.0
 11
-9.4103628999248485
 21
213.15000014301401
 31
0.0
  0
LINE
  5
1562
  8
SAPA_PROFIL
 10
-9.4103628999248485
 20
213.15000014301401
 30
0.0
 11
-11.650555278781439
 21
213.15000014301401
 31
0.0
  0
ARC
  5
1563
  8
SAPA_PROFIL
 10
-11.650555278769611
 20
212.85000014302841
 30
0.0
 40
0.29999999998563
 50
90.000000002259483
 51
180.0000000029529
  0
LINE
  5
1564
  8
SAPA_PROFIL
 10
-11.950555278755241
 20
212.85000014301301
 30
0.0
 11
-11.95055527878435
 21
211.00000014302219
 31
0.0
  0
LINE
  5
1565
  8
SAPA_PROFIL
 10
-11.95055527878435
 20
211.00000014302219
 30
0.0
 11
-10.50055527878726
 21
211.00000014302259
 31
0.0
  0
LINE
  5
1566
  8
SAPA_PROFIL
 10
-10.50055527878726
 20
211.00000014302259
 30
0.0
 11
-10.50055527878726
 21
210.50000014302259
 31
0.0
  0
ARC
  5
1567
  8
SAPA_PROFIL
 10
-11.000555278787241
 20
210.50000014302259
 30
0.0
 40
0.4999999999999858
 50
269.99999999999841
 51
0.0
  0
LINE
  5
1568
  8
SAPA_PROFIL
 10
-11.00055527878726
 20
210.00000014302259
 30
0.0
 11
-12.75055527878726
 21
210.00000014302259
 31
0.0
  0
ARC
  5
1569
  8
SAPA_PROFIL
 10
-12.75055527878725
 20
210.50000014302259
 30
0.0
 40
0.5
 50
180.0
 51
269.9999999999992
  0
LINE
  5
156A
  8
SAPA_PROFIL
 10
-13.25055527878726
 20
210.50000014302259
 30
0.0
 11
-13.25055527878726
 21
213.00000014302259
 31
0.0
  0
ARC
  5
156B
  8
SAPA_PROFIL
 10
-11.250555278787351
 20
213.0000001430227
 30
0.0
 40
1.9999999999999041
 50
89.999999999997257
 51
180.00000000000239
  0
LINE
  5
156C
  8
SAPA_PROFIL
 10
-11.25055527878726
 20
215.00000014302259
 30
0.0
 11
46.449444721213467
 21
215.00000014302299
 31
0.0
  0
ARC
  5
156D
  8
SAPA_PROFIL
 10
46.449444721203449
 20
214.70000014301741
 30
0.0
 40
0.3000000000056389
 50
0.0000000001737007
 51
89.999999998086565
  0
LINE
  5
156E
  8
SAPA_PROFIL
 10
46.749444721209102
 20
214.70000014301829
 30
0.0
 11
46.74944472121274
 21
154.20000014302369
 31
0.0
  0
ARC
  5
156F
  8
SAPA_PROFIL
 10
46.749444721210928
 20
154.0000001430237
 30
0.0
 40
0.2000000000000455
 50
89.999999999480934
 51
269.99999999947693
  0
LINE
  5
1570
  8
SAPA_PROFIL
 10
46.749444721209102
 20
153.80000014302371
 30
0.0
 11
46.749468721209951
 21
150.21418970539659
 31
0.0
  0
ARC
  5
1571
  8
SAPA_PROFIL
 10
45.749468721209837
 20
150.21418970539659
 30
0.0
 40
1.000000000000099
 50
225.00000000000401
 51
0.0
  0
LINE
  5
1572
  8
SAPA_PROFIL
 10
45.042361940023277
 20
149.5070829242099
 30
0.0
 11
43.737312686854011
 21
150.81213217737869
 31
0.0
  0
ARC
  5
1573
  8
SAPA_PROFIL
 10
43.949444721210533
 20
151.02426421173411
 30
0.0
 40
0.2999999999999692
 50
179.99999999982629
 51
224.9999999998436
  0
LINE
  5
1574
  8
SAPA_PROFIL
 10
43.64944472121055
 20
151.02426421173499
 30
0.0
 11
43.64944472121055
 21
151.61076965848179
 31
0.0
  0
ARC
  5
1575
  8
SAPA_PROFIL
 10
43.949444721210888
 20
151.61076965848119
 30
0.0
 40
0.3000000000003382
 50
149.9999999999049
 51
179.99999999990229
  0
LINE
  5
1576
  8
SAPA_PROFIL
 10
43.689637100075508
 20
151.76076965848191
 30
0.0
 11
44.549444721210193
 21
153.25000014302299
 31
0.0
  0
LINE
  5
1577
  8
SAPA_PROFIL
 10
44.549444721210193
 20
153.25000014302299
 30
0.0
 11
44.549456721210618
 21
153.70000014302289
 31
0.0
  0
ARC
  5
1578
  8
SAPA_PROFIL
 10
44.249456721209981
 20
153.70000014302241
 30
0.0
 40
0.3000000000006295
 50
0.0000000000868503
 51
90.000000000088207
  0
LINE
  5
1579
  8
SAPA_PROFIL
 10
44.249456721209519
 20
154.00000014302299
 30
0.0
 11
40.64944472121055
 21
154.00000014302259
 31
0.0
  0
ARC
  5
157A
  8
SAPA_PROFIL
 10
40.649444721209868
 20
153.70000014302221
 30
0.0
 40
0.3000000000004093
 50
89.999999999869729
 51
179.99999999986969
  0
LINE
  5
157B
  8
SAPA_PROFIL
 10
40.349444721209473
 20
153.70000014302289
 30
0.0
 11
40.349444721209473
 21
153.25000014302259
 31
0.0
  0
LINE
  5
157C
  8
SAPA_PROFIL
 10
40.349444721209473
 20
153.25000014302259
 30
0.0
 11
41.209269458779772
 21
151.7607400119486
 31
0.0
  0
ARC
  5
157D
  8
SAPA_PROFIL
 10
40.949461837643341
 20
151.61074001195109
 30
0.0
 40
0.2999999999997129
 50
0.0036468669287298
 51
29.999999999487599
  0
LINE
  5
157E
  8
SAPA_PROFIL
 10
41.249461837035369
 20
151.6107591069017
 30
0.0
 11
41.24946888682711
 21
151.50000014302299
 31
0.0
  0
LINE
  5
157F
  8
SAPA_PROFIL
 10
41.24946888682711
 20
151.50000014302299
 30
0.0
 11
39.62775688472243
 21
151.5000001430235
 31
0.0
  0
ARC
  5
1580
  8
SAPA_PROFIL
 10
39.627756884722601
 20
152.5000001430231
 30
0.0
 40
0.9999999999996589
 50
209.99999999998849
 51
269.99999999999022
  0
LINE
  5
1581
  8
SAPA_PROFIL
 10
38.761731480938352
 20
152.0000001430235
 30
0.0
 11
37.89570607715428
 21
153.50000014302299
 31
0.0
  0
ARC
  5
1582
  8
SAPA_PROFIL
 10
37.029680673370017
 20
153.0000001430233
 30
0.0
 40
0.9999999999996857
 50
29.999999999989711
 51
89.999999999989825
  0
LINE
  5
1583
  8
SAPA_PROFIL
 10
37.029680673370201
 20
154.00000014302299
 30
0.0
 11
36.469208769053473
 21
154.00000014302299
 31
0.0
  0
ARC
  5
1584
  8
SAPA_PROFIL
 10
36.469208769053637
 20
153.0000001430233
 30
0.0
 40
0.9999999999996873
 50
90.000000000010175
 51
150.00000000001029
  0
LINE
  5
1585
  8
SAPA_PROFIL
 10
35.603183365269388
 20
153.50000014302299
 30
0.0
 11
34.73715796148349
 21
152.0000001430235
 31
0.0
  0
ARC
  5
1586
  8
SAPA_PROFIL
 10
33.871132557698857
 20
152.5000001430229
 30
0.0
 40
0.999999999999884
 50
270.00000000003178
 51
330.00000000003382
  0
LINE
  5
1587
  8
SAPA_PROFIL
 10
33.871132557699411
 20
151.50000014302299
 30
0.0
 11
32.249420555596551
 21
151.50000014302299
 31
0.0
  0
LINE
  5
1588
  8
SAPA_PROFIL
 10
32.249420555596551
 20
151.50000014302299
 30
0.0
 11
32.249427605386479
 21
151.6107591069017
 31
0.0
  0
ARC
  5
1589
  8
SAPA_PROFIL
 10
32.549427604779403
 20
151.61074001194771
 30
0.0
 40
0.3000000000006262
 50
149.99999999986139
 51
179.9963531324199
  0
LINE
  5
158A
  8
SAPA_PROFIL
 10
32.289619983643888
 20
151.7607400119486
 30
0.0
 11
33.149444721212383
 21
153.25000014302259
 31
0.0
  0
LINE
  5
158B
  8
SAPA_PROFIL
 10
33.149444721212383
 20
153.25000014302259
 30
0.0
 11
33.149444721214202
 21
153.70000014302289
 31
0.0
  0
ARC
  5
158C
  8
SAPA_PROFIL
 10
32.849444721213793
 20
153.70000014302221
 30
0.0
 40
0.3000000000004093
 50
0.0000000001302755
 51
90.000000000130271
  0
LINE
  5
158D
  8
SAPA_PROFIL
 10
32.849444721213104
 20
154.00000014302259
 30
0.0
 11
29.249432721214141
 21
154.00000014302299
 31
0.0
  0
ARC
  5
158E
  8
SAPA_PROFIL
 10
29.249432721213669
 20
153.70000014302241
 30
0.0
 40
0.3000000000006366
 50
89.999999999911793
 51
179.99999999991309
  0
LINE
  5
158F
  8
SAPA_PROFIL
 10
28.94943272121305
 20
153.70000014302289
 30
0.0
 11
28.949444721213471
 21
153.25000014302299
 31
0.0
  0
LINE
  5
1590
  8
SAPA_PROFIL
 10
28.949444721213471
 20
153.25000014302299
 30
0.0
 11
29.809252342348149
 21
151.76076965848191
 31
0.0
  0
ARC
  5
1591
  8
SAPA_PROFIL
 10
29.549444721212758
 20
151.61076965848119
 30
0.0
 40
0.3000000000003431
 50
0.0000000000977066
 51
30.000000000095049
  0
LINE
  5
1592
  8
SAPA_PROFIL
 10
29.849444721213111
 20
151.61076965848179
 30
0.0
 11
29.849444721213111
 21
151.02426421173499
 31
0.0
  0
ARC
  5
1593
  8
SAPA_PROFIL
 10
29.549444721213131
 20
151.02426421173411
 30
0.0
 40
0.2999999999999758
 50
315.00000000015638
 51
0.0000000001737007
  0
LINE
  5
1594
  8
SAPA_PROFIL
 10
29.761576755569649
 20
150.81213217737869
 30
0.0
 11
28.45652750240038
 21
149.5070829242099
 31
0.0
  0
ARC
  5
1595
  8
SAPA_PROFIL
 10
27.749420721213809
 20
150.21418970539659
 30
0.0
 40
1.0000000000000979
 50
180.0
 51
314.99999999999591
  0
LINE
  5
1596
  8
SAPA_PROFIL
 10
26.74942072121371
 20
150.21418970539659
 30
0.0
 11
26.74944472121274
 21
153.80000014302371
 31
0.0
  0
ARC
  5
1597
  8
SAPA_PROFIL
 10
26.74944472121274
 20
154.0000001430233
 30
0.0
 40
0.1999999999995907
 50
270.0
 51
90.0
  0
LINE
  5
1598
  8
SAPA_PROFIL
 10
26.74944472121274
 20
154.20000014302281
 30
0.0
 11
26.74944472121274
 21
155.5000001725725
 31
0.0
  0
ARC
  5
1599
  8
SAPA_PROFIL
 10
27.749444721068901
 20
155.50000017242851
 30
0.0
 40
0.9999999998561612
 50
89.999999991550197
 51
179.99999999174861
  0
LINE
  5
159A
  8
SAPA_PROFIL
 10
27.749444721216381
 20
156.50000017228459
 30
0.0
 11
28.74944472121274
 21
156.50000017228459
 31
0.0
  0
ARC
  5
159B
  8
SAPA_PROFIL
 10
28.74944472121274
 20
157.50000017228459
 30
0.0
 40
1.0
 50
270.0
 51
0.0
  0
LINE
  5
159C
  8
SAPA_PROFIL
 10
29.74944472121274
 20
157.50000017228459
 30
0.0
 11
29.74944472121274
 21
163.61292988224571
 31
0.0
  0
ARC
  5
159D
  8
SAPA_PROFIL
 10
28.749444721213219
 20
163.61292988224631
 30
0.0
 40
0.9999999999995239
 50
359.99999999996248
 51
64.999999999694339
  0
LINE
  5
159E
  8
SAPA_PROFIL
 10
29.17206298295855
 20
164.5192376692803
 30
0.0
 11
25.326826459459649
 21
166.3123009076275
 31
0.0
  0
ARC
  5
159F
  8
SAPA_PROFIL
 10
25.749444721204071
 20
167.21860869466289
 30
0.0
 40
1.0000000000004261
 50
180.00000000004391
 51
244.99999999977649
  0
LINE
  5
15A0
  8
SAPA_PROFIL
 10
24.749444721203648
 20
167.21860869466221
 30
0.0
 11
24.749444721203648
 21
170.2673541679905
 31
0.0
  0
ARC
  5
15A1
  8
SAPA_PROFIL
 10
24.949444721204429
 20
170.26735416799039
 30
0.0
 40
0.2000000000007844
 50
60.890091059535322
 51
179.9999999999674
  0
ARC
  5
15A2
  8
SAPA_PROFIL
 10
26.749444721235719
 20
173.5000001430233
 30
0.0
 40
3.500000000000409
 50
240.8900910595799
 51
265.08289966395671
  0
LINE
  5
15A3
  8
SAPA_PROFIL
 10
26.44944472120438
 20
170.01288098819299
 30
0.0
 11
26.44944472120438
 21
168.75000014302299
 31
0.0
  0
ARC
  5
15A4
  8
SAPA_PROFIL
 10
26.949444721204369
 20
168.75000014302299
 30
0.0
 40
0.5
 50
180.0
 51
270.0
  0
LINE
  5
15A5
  8
SAPA_PROFIL
 10
26.949444721204369
 20
168.25000014302299
 30
0.0
 11
29.24944472121274
 21
168.25000014302299
 31
0.0
  0
ARC
  5
15A6
  8
SAPA_PROFIL
 10
29.249444721212729
 20
168.75000014302299
 30
0.0
 40
0.5
 50
270.0000000000004
 51
0.0
  0
LINE
  5
15A7
  8
SAPA_PROFIL
 10
29.74944472121274
 20
168.75000014302299
 30
0.0
 11
29.74944472121274
 21
171.6972245052543
 31
0.0
  0
ARC
  5
15A8
  8
SAPA_PROFIL
 10
26.749444721234699
 20
173.50000014302279
 30
0.0
 40
3.4999999999999729
 50
328.99728086542871
 51
31.002719134571279
  0
LINE
  5
15A9
  8
SAPA_PROFIL
 10
29.74944472121274
 20
175.30277578079131
 30
0.0
 11
29.74944472121274
 21
181.6972245052543
 31
0.0
  0
ARC
  5
15AA
  8
SAPA_PROFIL
 10
26.749444721234699
 20
183.50000014302279
 30
0.0
 40
3.4999999999999729
 50
328.99728086542871
 51
31.002719134571279
  0
LINE
  5
15AB
  8
SAPA_PROFIL
 10
29.74944472121274
 20
185.30277578079131
 30
0.0
 11
29.74944472121274
 21
188.25000014302299
 31
0.0
  0
ARC
  5
15AC
  8
SAPA_PROFIL
 10
29.24944472121274
 20
188.25000014302299
 30
0.0
 40
0.5
 50
0.0
 51
90.0
  0
LINE
  5
15AD
  8
SAPA_PROFIL
 10
29.24944472121274
 20
188.75000014302299
 30
0.0
 11
26.949444721204369
 21
188.75000014302299
 31
0.0
  0
ARC
  5
15AE
  8
SAPA_PROFIL
 10
26.949444721204369
 20
188.25000014302299
 30
0.0
 40
0.5
 50
90.0
 51
180.0
  0
LINE
  5
15AF
  8
SAPA_GLAS
 10
-11.932565355974759
 20
206.70976346490511
 30
0.0
 11
-12.750555278789131
 21
207.5277533877194
 31
0.0
1001
GRADIENTCOLOR1ACI
1070
     5
1001
GRADIENTCOLOR2ACI
1070
     2
1001
ACAD
1010
0.0
1020
0.0
1030
0.0
  0
LINE
  5
15B0
  8
SAPA_GLAS
 10
-10.87640938643943
 20
206.7761395105033
 30
0.0
 11
-12.750555278789131
 21
208.650285402853
 31
0.0
1001
GRADIENTCOLOR1ACI
1070
     5
1001
GRADIENTCOLOR2ACI
1070
     2
1001
ACAD
1010
0.0
1020
0.0
1030
0.0
  0
LINE
  5
15B1
  8
SAPA_GLAS
 10
-9.8120434583847782
 20
206.8343055975823
 30
0.0
 11
-12.750555278789131
 21
209.77281741798669
 31
0.0
1001
GRADIENTCOLOR1ACI
1070
     5
1001
GRADIENTCOLOR2ACI
1070
     2
1001
ACAD
1010
0.0
1020
0.0
1030
0.0
  0
LINE
  5
15B2
  8
SAPA_GLAS
 10
-8.7392845029671093
 20
206.88407865729829
 30
0.0
 11
-11.855205988691351
 21
210.0000001430225
 31
0.0
1001
GRADIENTCOLOR1ACI
1070
     5
1001
GRADIENTCOLOR2ACI
1070
     2
1001
ACAD
1010
0.0
1020
0.0
1030
0.0
  0
LINE
  5
15B3
  8
SAPA_GLAS
 10
-7.657940773737379
 20
206.92526694320219
 30
0.0
 11
-10.782653209412221
 21
210.04997937887711
 31
0.0
1001
GRADIENTCOLOR1ACI
1070
     5
1001
GRADIENTCOLOR2ACI
1070
     2
1001
ACAD
1010
0.0
1020
0.0
1030
0.0
  0
LINE
  5
15B4
  8
SAPA_GLAS
 10
-11.73267397355721
 20
211.00000014302211
 30
0.0
 11
-11.950555278780881
 21
211.21788144824581
 31
0.0
1001
GRADIENTCOLOR1ACI
1070
     5
1001
GRADIENTCOLOR2ACI
1070
     2
1001
ACAD
1010
0.0
1020
0.0
1030
0.0
  0
LINE
  5
15B5
  8
SAPA_GLAS
 10
-6.5678112692156674
 20
206.95766945381419
 30
0.0
 11
-10.5005552787872
 21
210.89041346338581
 31
0.0
1001
GRADIENTCOLOR1ACI
1070
     5
1001
GRADIENTCOLOR2ACI
1070
     2
1001
ACAD
1010
0.0
1020
0.0
1030
0.0
  0
LINE
  5
15B6
  8
SAPA_GLAS
 10
-10.61014195842392
 20
211.00000014302239
 30
0.0
 11
-11.950555278763201
 21
212.3404134633617
 31
0.0
1001
GRADIENTCOLOR1ACI
1070
     5
1001
GRADIENTCOLOR2ACI
1070
     2
1001
ACAD
1010
0.0
1020
0.0
1030
0.0
  0
LINE
  5
15B7
  8
SAPA_GLAS
 10
-5.5319964669388346
 20
207.04438666667099
 30
0.0
 11
-11.637609943281801
 21
213.15000014301401
 31
0.0
1001
GRADIENTCOLOR1ACI
1070
     5
1001
GRADIENTCOLOR2ACI
1070
     2
1001
ACAD
1010
0.0
1020
0.0
1030
0.0
  0
LINE
  5
15B8
  8
SAPA_GLAS
 10
-5.531996466949237
 20
208.16691868181499
 30
0.0
 11
-10.51507792814823
 21
213.15000014301401
 31
0.0
1001
GRADIENTCOLOR1ACI
1070
     5
1001
GRADIENTCOLOR2ACI
1070
     2
1001
ACAD
1010
0.0
1020
0.0
1030
0.0
  0
LINE
  5
15B9
  8
SAPA_GLAS
 10
-5.5319964669595834
 20
209.28945069695899
 30
0.0
 11
-8.9425459130201812
 21
212.70000014301959
 31
0.0
1001
GRADIENTCOLOR1ACI
1070
     5
1001
GRADIENTCOLOR2ACI
1070
     2
1001
ACAD
1010
0.0
1020
0.0
1030
0.0
  0
LINE
  5
15BA
  8
SAPA_GLAS
 10
-6.0005552787945931
 20
210.88054152392769
 30
0.0
 11
-7.820013897886497
 21
212.70000014301959
 31
0.0
1001
GRADIENTCOLOR1ACI
1070
     5
1001
GRADIENTCOLOR2ACI
1070
     2
1001
ACAD
1010
0.0
1020
0.0
1030
0.0
  0
LINE
  5
15BB
  8
SAPA_GLAS
 10
-4.9974818827554941
 20
211.00000014302219
 30
0.0
 11
-7.1115138253038586
 21
213.11403208557061
 31
0.0
1001
GRADIENTCOLOR1ACI
1070
     5
1001
GRADIENTCOLOR2ACI
1070
     2
1001
ACAD
1010
0.0
1020
0.0
1030
0.0
  0
LINE
  5
15BC
  8
SAPA_GLAS
 10
-4.5505552787974457
 20
211.6756055541978
 30
0.0
 11
-6.0249498675999567
 21
213.15000014300031
 31
0.0
1001
GRADIENTCOLOR1ACI
1070
     5
1001
GRADIENTCOLOR2ACI
1070
     2
1001
ACAD
1010
0.0
1020
0.0
1030
0.0
  0
LINE
  5
15BD
  8
SAPA_GLAS
 10
-4.5505552787974457
 20
212.79813756933149
 30
0.0
 11
-4.902417852452003
 21
213.15000014298599
 31
0.0
1001
GRADIENTCOLOR1ACI
1070
     5
1001
GRADIENTCOLOR2ACI
1070
     2
1001
ACAD
1010
0.0
1020
0.0
1030
0.0
  0
LINE
  5
15BE
  8
SAPA_GLAS
 10
-5.53199646694594
 20
207.81062255122981
 30
0.0
 11
-6.3802985391283746
 21
206.96232047904741
 31
0.0
1001
GRADIENTCOLOR1ACI
1070
     5
1001
GRADIENTCOLOR2ACI
1070
     2
1001
ACAD
1010
0.0
1020
0.0
1030
0.0
  0
LINE
  5
15BF
  8
SAPA_GLAS
 10
-5.5319964669562864
 20
208.9331545663531
 30
0.0
 11
-7.5357981897000172
 21
206.92935284360939
 31
0.0
1001
GRADIENTCOLOR1ACI
1070
     5
1001
GRADIENTCOLOR2ACI
1070
     2
1001
ACAD
1010
0.0
1020
0.0
1030
0.0
  0
LINE
  5
15C0
  8
SAPA_GLAS
 10
-4.5505552787973889
 20
211.03712776964559
 30
0.0
 11
-4.5876829054207633
 21
211.00000014302219
 31
0.0
1001
GRADIENTCOLOR1ACI
1070
     5
1001
GRADIENTCOLOR2ACI
1070
     2
1001
ACAD
1010
0.0
1020
0.0
1030
0.0
  0
LINE
  5
15C1
  8
SAPA_GLAS
 10
-5.581145398961155
 20
210.00653764948191
 30
0.0
 11
-8.7020356548149493
 21
206.88564739362809
 31
0.0
1001
GRADIENTCOLOR1ACI
1070
     5
1001
GRADIENTCOLOR2ACI
1070
     2
1001
ACAD
1010
0.0
1020
0.0
1030
0.0
  0
LINE
  5
15C2
  8
SAPA_GLAS
 10
-4.5505552787973889
 20
212.15965978477919
 30
0.0
 11
-5.7102149205540513
 21
211.00000014302259
 31
0.0
1001
GRADIENTCOLOR1ACI
1070
     5
1001
GRADIENTCOLOR2ACI
1070
     2
1001
ACAD
1010
0.0
1020
0.0
1030
0.0
  0
LINE
  5
15C3
  8
SAPA_GLAS
 10
-6.0005552787945362
 20
210.7096597847821
 30
0.0
 11
-9.8793272953377596
 21
206.83088776823891
 31
0.0
1001
GRADIENTCOLOR1ACI
1070
     5
1001
GRADIENTCOLOR2ACI
1070
     2
1001
ACAD
1010
0.0
1020
0.0
1030
0.0
  0
LINE
  5
15C4
  8
SAPA_GLAS
 10
-4.7150789329386953
 20
213.1176681457716
 30
0.0
 11
-11.0680081562009
 21
206.76473892250951
 31
0.0
1001
GRADIENTCOLOR1ACI
1070
     5
1001
GRADIENTCOLOR2ACI
1070
     2
1001
ACAD
1010
0.0
1020
0.0
1030
0.0
  0
LINE
  5
15C5
  8
SAPA_GLAS
 10
-5.8052789508462288
 20
213.1500001429977
 30
0.0
 11
-12.2684335439161
 21
206.68684554992791
 31
0.0
1001
GRADIENTCOLOR1ACI
1070
     5
1001
GRADIENTCOLOR2ACI
1070
     2
1001
ACAD
1010
0.0
1020
0.0
1030
0.0
  0
LINE
  5
15C6
  8
SAPA_GLAS
 10
-6.9278109659655343
 20
213.15000014301199
 30
0.0
 11
-7.3133233177124453
 21
212.76448779126511
 31
0.0
1001
GRADIENTCOLOR1ACI
1070
     5
1001
GRADIENTCOLOR2ACI
1070
     2
1001
ACAD
1010
0.0
1020
0.0
1030
0.0
  0
LINE
  5
15C7
  8
SAPA_GLAS
 10
-7.3778109659577922
 20
212.70000014301979
 30
0.0
 11
-12.750555278789021
 21
207.32725583018859
 31
0.0
1001
GRADIENTCOLOR1ACI
1070
     5
1001
GRADIENTCOLOR2ACI
1070
     2
1001
ACAD
1010
0.0
1020
0.0
1030
0.0
  0
LINE
  5
15C8
  8
SAPA_GLAS
 10
-8.5003429810914213
 20
212.70000014301979
 30
0.0
 11
-10.500555278787321
 21
210.69978784532401
 31
0.0
1001
GRADIENTCOLOR1ACI
1070
     5
1001
GRADIENTCOLOR2ACI
1070
     2
1001
ACAD
1010
0.0
1020
0.0
1030
0.0
  0
LINE
  5
15C9
  8
SAPA_GLAS
 10
-11.20034298108857
 20
210.0000001430227
 30
0.0
 11
-12.750555278789079
 21
208.44978784532219
 31
0.0
1001
GRADIENTCOLOR1ACI
1070
     5
1001
GRADIENTCOLOR2ACI
1070
     2
1001
ACAD
1010
0.0
1020
0.0
1030
0.0
  0
LINE
  5
15CA
  8
SAPA_GLAS
 10
-9.3234362940820006
 20
212.9994388451629
 30
0.0
 11
-11.322874996222421
 21
211.0000001430225
 31
0.0
1001
GRADIENTCOLOR1ACI
1070
     5
1001
GRADIENTCOLOR2ACI
1070
     2
1001
ACAD
1010
0.0
1020
0.0
1030
0.0
  0
LINE
  5
15CB
  8
SAPA_GLAS
 10
-12.32287499622219
 20
210.0000001430227
 30
0.0
 11
-12.750555278789021
 21
209.57231986045591
 31
0.0
1001
GRADIENTCOLOR1ACI
1070
     5
1001
GRADIENTCOLOR2ACI
1070
     2
1001
ACAD
1010
0.0
1020
0.0
1030
0.0
  0
LINE
  5
15CC
  8
SAPA_GLAS
 10
-10.29540701136432
 20
213.15000014301421
 30
0.0
 11
-11.950555278776561
 21
211.49485187560191
 31
0.0
1001
GRADIENTCOLOR1ACI
1070
     5
1001
GRADIENTCOLOR2ACI
1070
     2
1001
ACAD
1010
0.0
1020
0.0
1030
0.0
  0
LINE
  5
15CD
  8
SAPA_GLAS
 10
-11.41793902649794
 20
213.15000014301421
 30
0.0
 11
-11.95055527875888
 21
212.6173838907533
 31
0.0
1001
GRADIENTCOLOR1ACI
1070
     5
1001
GRADIENTCOLOR2ACI
1070
     2
1001
ACAD
1010
0.0
1020
0.0
1030
0.0
  0
ARC
  5
15CE
  8
SAPA_PROFIL
 62
     4
 10
40.999444753717022
 20
151.6241669902837
 30
0.0
 40
0.3000000000003311
 50
0.0000000000977066
 51
30.000000000095731
  0
LINE
  5
15CF
  8
SAPA_PROFIL
 62
     4
 10
41.259252374852387
 20
151.7741669902843
 30
0.0
 11
40.399444721210557
 21
153.26339753112961
 31
0.0
  0
LINE
  5
15D0
  8
SAPA_PROFIL
 62
     4
 10
40.399444721210557
 20
153.26339753112961
 30
0.0
 11
40.399444721210557
 21
153.7000000715079
 31
0.0
  0
ARC
  5
15D1
  8
SAPA_PROFIL
 62
     4
 10
40.64944472121055
 20
153.7000000715079
 30
0.0
 40
0.25
 50
90.0
 51
180.0
  0
LINE
  5
15D2
  8
SAPA_PROFIL
 62
     4
 10
40.64944472121055
 20
153.9500000715079
 30
0.0
 11
44.249456721209519
 21
153.95000007150841
 31
0.0
  0
ARC
  5
15D3
  8
SAPA_PROFIL
 62
     4
 10
44.249456721209533
 20
153.70000007150841
 30
0.0
 40
0.25
 50
0.0
 51
90.000000000001606
  0
LINE
  5
15D4
  8
SAPA_PROFIL
 62
     4
 10
44.499456721209533
 20
153.70000007150841
 30
0.0
 11
44.499445078474992
 21
153.2633981499298
 31
0.0
  0
LINE
  5
15D5
  8
SAPA_PROFIL
 62
     4
 10
44.499445078474992
 20
153.2633981499298
 30
0.0
 11
43.639637132581584
 21
151.77416710289211
 31
0.0
  0
ARC
  5
15D6
  8
SAPA_PROFIL
 62
     4
 10
43.899444753716871
 20
151.62416710289151
 30
0.0
 40
0.3000000000002551
 50
149.99999999990149
 51
179.99999999990769
  0
LINE
  5
15D7
  8
SAPA_PROFIL
 62
     4
 10
43.599444753716618
 20
151.62416710289199
 30
0.0
 11
43.599444753716618
 21
128.3758331116405
 31
0.0
  0
ARC
  5
15D8
  8
SAPA_PROFIL
 62
     4
 10
43.899444753716871
 20
128.37583311164099
 30
0.0
 40
0.3000000000002529
 50
180.0000000000922
 51
210.00000000009851
  0
LINE
  5
15D9
  8
SAPA_PROFIL
 62
     4
 10
43.639637132581584
 20
128.22583311164041
 30
0.0
 11
44.499445078474992
 21
126.73660206460271
 31
0.0
  0
LINE
  5
15DA
  8
SAPA_PROFIL
 62
     4
 10
44.499445078474992
 20
126.73660206460271
 30
0.0
 11
44.499456721209533
 21
126.3000001430246
 31
0.0
  0
ARC
  5
15DB
  8
SAPA_PROFIL
 62
     4
 10
44.249456721209533
 20
126.3000001430246
 30
0.0
 40
0.2499999999999929
 50
269.99999999999841
 51
0.0
  0
LINE
  5
15DC
  8
SAPA_PROFIL
 62
     4
 10
44.249456721209519
 20
126.0500001430246
 30
0.0
 11
40.64944472121055
 21
126.0500001430246
 31
0.0
  0
ARC
  5
15DD
  8
SAPA_PROFIL
 62
     4
 10
40.64944472121055
 20
126.3000001430246
 30
0.0
 40
0.25
 50
180.0
 51
270.0
  0
LINE
  5
15DE
  8
SAPA_PROFIL
 62
     4
 10
40.399444721210557
 20
126.3000001430246
 30
0.0
 11
40.399444721210557
 21
126.73660268340289
 31
0.0
  0
LINE
  5
15DF
  8
SAPA_PROFIL
 62
     4
 10
40.399444721210557
 20
126.73660268340289
 30
0.0
 11
41.259252374852387
 21
128.22583322424811
 31
0.0
  0
ARC
  5
15E0
  8
SAPA_PROFIL
 62
     4
 10
40.999444753717007
 20
128.37583322424871
 30
0.0
 40
0.3000000000003431
 50
329.9999999999049
 51
359.99999999990229
  0
LINE
  5
15E1
  8
SAPA_PROFIL
 62
     4
 10
41.299444753717353
 20
128.3758332242482
 30
0.0
 11
41.299444753717353
 21
151.62416699028421
 31
0.0
  0
DIMENSION
  5
15FD
  8
SAPA_MATT
  2
*D14
 10
-18.250555278787711
 20
244.5000000000137
 30
0.0
 11
-15.750555278787481
 21
247.00000000001361
 31
0.0
 70
     0
 13
-13.25055527878726
 23
212.99999999999341
 33
0.0
 14
-18.250555278787711
 24
205.45000000050999
 34
0.0
 50
180.0
1001
ACAD
1000
DSTYLE
1002
{
1070
   287
1070
     4
1070
    40
1040
1.0
1070
   279
1070
     1
1002
}
  0
DIMENSION
  5
15FE
  8
SAPA_MATT
  2
*D13
 10
-13.25055527878726
 20
244.49999992826631
 30
0.0
 11
16.74944472121183
 21
246.99999992826631
 31
0.0
 70
     0
 13
46.749444721210921
 23
214.69999999998839
 33
0.0
 14
-13.25055527878726
 24
212.99999999999361
 34
0.0
 50
180.0
1001
ACAD
1000
DSTYLE
1002
{
1070
    40
1040
1.0
1002
}
  0
DIMENSION
  5
15FF
  8
SAPA_MATT
  2
*D12
 10
46.749444721210921
 20
256.49999992826628
 30
0.0
 11
14.249444721211599
 21
258.99999992826628
 31
0.0
 70
     0
 13
-18.250555278787711
 23
205.45000000050999
 33
0.0
 14
46.749444721210921
 24
214.69999999998839
 34
0.0
 50
180.0
1001
ACAD
1000
DSTYLE
1002
{
1070
    40
1040
1.0
1002
}
  0
DIMENSION
  5
1600
  8
SAPA_MATT
  2
*D11
 10
-57.250555278787232
 20
210.00000014300889
 30
0.0
 11
-57.25055527878726
 21
212.500000143016
 31
0.0
 70
   128
 13
-11.25055527878726
 23
215.00000014302299
 33
0.0
 14
-12.750555278789079
 24
210.00000014300889
 34
0.0
 50
270.0
1001
ACAD
1000
DSTYLE
1002
{
1070
    40
1040
1.0
1002
}
  0
DIMENSION
  5
1601
  8
SAPA_MATT
  2
*D10
 10
-57.25055527878726
 20
147.00000000027421
 30
0.0
 11
-59.750555278787282
 21
178.50000000013381
 31
0.0
 70
     0
 13
-12.750555278789079
 23
209.99999999999341
 33
0.0
 14
-12.58255181678828
 24
147.00000000027421
 34
0.0
 50
270.0
1001
ACAD
1000
DSTYLE
1002
{
1070
   287
1070
     4
1070
    40
1040
1.0
1070
   279
1070
     1
1002
}
  0
DIMENSION
  5
1602
  8
SAPA_MATT
  2
*D9
 10
-57.25055527878726
 20
64.999999999995225
 30
0.0
 11
-56.490042129977383
 21
101.6422647784716
 31
0.0
 70
   128
 13
-12.58255181678828
 23
147.00000000027421
 33
0.0
 14
-11.25055527878726
 24
64.999999999995225
 34
0.0
 50
270.0
1001
ACAD
1000
DSTYLE
1002
{
1070
   287
1070
     4
1070
    40
1040
1.0
1070
   279
1070
     1
1002
}
  0
DIMENSION
  5
1603
  8
SAPA_MATT
  2
*D8
 10
-69.250555278787232
 20
215.00000007150791
 30
0.0
 11
-69.25055527878726
 21
140.00000007150879
 31
0.0
 70
   128
 13
-11.25055527878726
 23
65.000000071509476
 33
0.0
 14
-11.25055527878726
 24
215.00000007150791
 34
0.0
 50
90.0
1001
ACAD
1000
DSTYLE
1002
{
1070
    40
1040
1.0
1002
}
  0
VIEWPORT
  5
C4
 67
     1
  8
0
 10
160.5543545598442
 20
116.00969601843509
 30
0.0
 40
404.96977709277462
 41
256.8421457311839
 68
     1
 69
     1
1001
ACAD
1000
MVIEW
1002
{
1070
    16
1010
0.0
1020
0.0
1030
0.0
1010
0.0
1020
0.0
1030
1.0
1040
0.0
1040
256.8421457311839
1040
160.5543545598442
1040
116.00969601843509
1040
50.0
1040
0.0
1040
0.0
1070
     0
1070
   100
1070
     1
1070
     1
1070
     0
1070
     0
1070
     0
1070
     0
1040
0.0
1040
0.0
1040
0.0
1040
10.0
1040
10.0
1040
10.0
1040
10.0
1070
     0
1002
{
1002
}
1002
}
  0
ENDSEC
  0
EOF
