  0
SECTION
  2
HEADER
  9
$ACADVER
  1
AC1009
  9
$INSBASE
 10
0.0
 20
0.0
 30
0.0
  9
$EXTMIN
 10
-32.974505073126352
 20
57.820791841028807
 30
0.0
  9
$EXTMAX
 10
74.350000070807639
 20
282.5000000014727
 30
0.0000000048844772
  9
$LIMMIN
 10
0.0
 20
0.0
  9
$LIMMAX
 10
790.0
 20
790.0
  9
$ORTHOMODE
 70
     0
  9
$REGENMODE
 70
     1
  9
$FILLMODE
 70
     1
  9
$QTEXTMODE
 70
     0
  9
$MIRRTEXT
 70
     1
  9
$DRAGMODE
 70
     2
  9
$LTSCALE
 40
4.0
  9
$OSMODE
 70
   167
  9
$ATTMODE
 70
     1
  9
$TEXTSIZE
 40
3.5
  9
$TRACEWID
 40
0.05
  9
$TEXTSTYLE
  7
ISO
  9
$CLAYER
  8
0
  9
$CELTYPE
  6
BYLAYER
  9
$CECOLOR
 62
   256
  9
$DIMSCALE
 40
0.0
  9
$DIMASZ
 40
3.0
  9
$DIMEXO
 40
1.5
  9
$DIMDLI
 40
10.0
  9
$DIMRND
 40
0.0
  9
$DIMDLE
 40
0.0
  9
$DIMEXE
 40
1.5
  9
$DIMTP
 40
0.0
  9
$DIMTM
 40
0.0
  9
$DIMTXT
 40
3.0
  9
$DIMCEN
 40
-5.0
  9
$DIMTSZ
 40
0.0
  9
$DIMTOL
 70
     0
  9
$DIMLIM
 70
     0
  9
$DIMTIH
 70
     0
  9
$DIMTOH
 70
     0
  9
$DIMSE1
 70
     0
  9
$DIMSE2
 70
     0
  9
$DIMTAD
 70
     1
  9
$DIMZIN
 70
     8
  9
$DIMBLK
  1

  9
$DIMASO
 70
     1
  9
$DIMSHO
 70
     1
  9
$DIMPOST
  1

  9
$DIMAPOST
  1

  9
$DIMALT
 70
     0
  9
$DIMALTD
 70
     0
  9
$DIMALTF
 40
25.399999999999999
  9
$DIMLFAC
 40
-1.0
  9
$DIMTOFL
 70
     1
  9
$DIMTVP
 40
0.0
  9
$DIMTIX
 70
     0
  9
$DIMSOXD
 70
     0
  9
$DIMSAH
 70
     0
  9
$DIMBLK1
  1

  9
$DIMBLK2
  1

  9
$DIMSTYLE
  2
MASKIN
  9
$DIMCLRD
 70
   256
  9
$DIMCLRE
 70
   256
  9
$DIMCLRT
 70
     2
  9
$DIMTFAC
 40
1.0
  9
$DIMGAP
 40
1.0
  9
$LUNITS
 70
     2
  9
$LUPREC
 70
     8
  9
$SKETCHINC
 40
0.1
  9
$FILLETRAD
 40
0.0
  9
$AUNITS
 70
     0
  9
$AUPREC
 70
     8
  9
$MENU
  1
ACAD
  9
$ELEVATION
 40
0.0
  9
$PELEVATION
 40
0.0
  9
$THICKNESS
 40
0.0
  9
$LIMCHECK
 70
     0
  9
$BLIPMODE
 70
     0
  9
$CHAMFERA
 40
0.0
  9
$CHAMFERB
 40
0.0
  9
$SKPOLY
 70
     0
  9
$TDCREATE
 40
2458299.4382186462
  9
$TDUPDATE
 40
2458302.6746618981
  9
$TDINDWG
 40
0.0870349769
  9
$TDUSRTIMER
 40
0.0870347454
  9
$USRTIMER
 70
     1
  9
$ANGBASE
 50
0.0
  9
$ANGDIR
 70
     0
  9
$PDMODE
 70
     0
  9
$PDSIZE
 40
0.0
  9
$PLINEWID
 40
0.0
  9
$COORDS
 70
     1
  9
$SPLFRAME
 70
     0
  9
$SPLINETYPE
 70
     6
  9
$SPLINESEGS
 70
     8
  9
$ATTDIA
 70
     1
  9
$ATTREQ
 70
     1
  9
$HANDLING
 70
     1
  9
$HANDSEED
  5
2337
  9
$SURFTAB1
 70
     6
  9
$SURFTAB2
 70
     6
  9
$SURFTYPE
 70
     6
  9
$SURFU
 70
     6
  9
$SURFV
 70
     6
  9
$UCSNAME
  2

  9
$UCSORG
 10
0.0
 20
0.0
 30
0.0
  9
$UCSXDIR
 10
1.0
 20
0.0
 30
0.0
  9
$UCSYDIR
 10
0.0
 20
1.0
 30
0.0
  9
$PUCSNAME
  2

  9
$PUCSORG
 10
0.0
 20
0.0
 30
0.0
  9
$PUCSXDIR
 10
1.0
 20
0.0
 30
0.0
  9
$PUCSYDIR
 10
0.0
 20
1.0
 30
0.0
  9
$USERI1
 70
     0
  9
$USERI2
 70
     0
  9
$USERI3
 70
     0
  9
$USERI4
 70
     0
  9
$USERI5
 70
     0
  9
$USERR1
 40
0.0
  9
$USERR2
 40
0.0
  9
$USERR3
 40
0.0
  9
$USERR4
 40
0.0
  9
$USERR5
 40
0.0
  9
$WORLDVIEW
 70
     1
  9
$SHADEDGE
 70
     3
  9
$SHADEDIF
 70
    70
  9
$TILEMODE
 70
     1
  9
$MAXACTVP
 70
    32
  9
$PLIMCHECK
 70
     0
  9
$PEXTMIN
 10
1.0000000000000000E+020
 20
1.0000000000000000E+020
 30
1.0000000000000000E+020
  9
$PEXTMAX
 10
-1.0000000000000000E+020
 20
-1.0000000000000000E+020
 30
-1.0000000000000000E+020
  9
$PLIMMIN
 10
-5.069427490234375
 20
-5.8737497329711914
  9
$PLIMMAX
 10
291.89889526367187
 20
204.0995779037475
  9
$UNITMODE
 70
     0
  9
$VISRETAIN
 70
     1
  9
$PLINEGEN
 70
     0
  9
$PSLTSCALE
 70
     1
  0
ENDSEC
  0
SECTION
  2
TABLES
  0
TABLE
  2
VPORT
 70
     1
  0
VPORT
  2
*ACTIVE
 70
     0
 10
0.0
 20
0.0
 11
1.0
 21
1.0
 12
20.65961953425187
 22
286.94166636285939
 13
0.0
 23
0.0
 14
1.0
 24
1.0
 15
0.0
 25
0.0
 16
0.0
 26
0.0
 36
1.0
 17
0.0
 27
0.0
 37
0.0
 40
319.4854312917779
 41
1.7265193370165739
 42
50.0
 43
0.0
 44
0.0
 50
0.0
 51
0.0
 71
     0
 72
   100
 73
     1
 74
     1
 75
     0
 76
     0
 77
     0
 78
     0
  0
ENDTAB
  0
TABLE
  2
LTYPE
 70
     1
  0
LTYPE
  2
CONTINUOUS
 70
     0
  3
Solid line
 72
    65
 73
     0
 40
0.0
  0
ENDTAB
  0
TABLE
  2
LAYER
 70
    23
  0
LAYER
  2
0
 70
     0
 62
     7
  6
CONTINUOUS
  0
LAYER
  2
DEFPOINTS
 70
     0
 62
     7
  6
CONTINUOUS
  0
LAYER
  2
SAPA_ARTIKELNR
 70
     0
 62
     4
  6
CONTINUOUS
  0
LAYER
  2
SAPA_GLAS
 70
     0
 62
     4
  6
CONTINUOUS
  0
LAYER
  2
SAPA_FOGBAND
 70
     0
 62
     2
  6
CONTINUOUS
  0
LAYER
  2
SAPA_PROFIL
 70
     0
 62
     7
  6
CONTINUOUS
  0
LAYER
  2
SAPA_ISOLATOR
 70
     0
 62
     4
  6
CONTINUOUS
  0
LAYER
  2
SAPA_MATT
 70
     0
 62
     1
  6
CONTINUOUS
  0
ENDTAB
  0
TABLE
  2
STYLE
 70
     2
  0
STYLE
  2
STANDARD
 70
     0
 40
0.0
 41
1.0
 50
0.0
 71
     0
 42
0.2
  3
txt
  4

  0
STYLE
  2
ISO
 70
     0
 40
0.0
 41
1.0
 50
0.0
 71
     0
 42
3.5
  3
txt
  4

  0
ENDTAB
  0
TABLE
  2
VIEW
 70
     0
  0
ENDTAB
  0
TABLE
  2
UCS
 70
     0
  0
ENDTAB
  0
TABLE
  2
APPID
 70
    22
  0
APPID
  2
ACAD
 70
     0
  0
APPID
  2
ACAD_DSTYLE_DIMTEXT_FILL
 70
     0
  0
APPID
  2
ACAD_DSTYLE_DIMEXT_LENGTH
 70
     0
  0
APPID
  2
ACAD_DSTYLE_DIMEXT_ENABLED
 70
     0
  0
APPID
  2
ACAD_DSTYLE_DIM_LINETYPE
 70
     0
  0
APPID
  2
ACAD_DSTYLE_DIM_EXT1_LINETYPE
 70
     0
  0
APPID
  2
ACAD_DSTYLE_DIM_EXT2_LINETYPE
 70
     0
  0
APPID
  2
ACAD_DSTYLE_DIMJOGGED_JOGA
 70
     0
  0
APPID
  2
ACAD_DSTYLE_DIMARC_LENGTH_
 70
     0
  0
APPID
  2
ACAD_PSEXT
 70
     0
  0
APPID
  2
ACAD_MLEADERVER
 70
     0
  0
APPID
  2
ACAD_NAV_VCDISPLAY
 70
     0
  0
APPID
  2
GENIUS_GENODEF_13
 70
     0
  0
APPID
  2
RC_PROFILE
 70
     0
  0
APPID
  2
ACAECLAYERSTANDARD
 70
     0
  0
APPID
  2
GENIUS_GENOBJ-N-FIL_13
 70
     0
  0
APPID
  2
GENIUS_GENREC_14
 70
     0
  0
APPID
  2
GENIUS_GENOBJ-N-REC_13
 70
     0
  0
APPID
  2
ACCMTRANSPARENCY
 70
     0
  0
APPID
  2
GRADIENTCOLOR1ACI
 70
     0
  0
APPID
  2
GRADIENTCOLOR2ACI
 70
     0
  0
APPID
  2
ACAD_EXEMPT_FROM_CAD_STANDARDS
 70
     0
  0
ENDTAB
  0
TABLE
  2
DIMSTYLE
 70
     2
  0
DIMSTYLE
  2
STANDARD
 70
     0
  3

  4

  5

  6

  7

 40
1.0
 41
0.18
 42
0.0625
 43
0.38
 44
0.18
 45
0.0
 46
0.0
 47
0.0
 48
0.0
140
0.18
141
0.09
142
0.0
143
25.399999999999999
144
1.0
145
0.0
146
1.0
147
0.09
 71
     0
 72
     0
 73
     1
 74
     1
 75
     0
 76
     0
 77
     0
 78
     0
170
     0
171
     2
172
     0
173
     0
174
     0
175
     0
176
     0
177
     0
178
     0
  0
DIMSTYLE
  2
MASKIN
 70
     0
  3

  4

  5

  6

  7

 40
0.0
 41
3.0
 42
1.5
 43
10.0
 44
1.5
 45
0.0
 46
0.0
 47
0.0
 48
0.0
140
3.0
141
-5.0
142
0.0
143
25.399999999999999
144
-1.0
145
0.0
146
1.0
147
1.0
 71
     0
 72
     0
 73
     0
 74
     0
 75
     0
 76
     0
 77
     1
 78
     8
170
     0
171
     0
172
     1
173
     0
174
     0
175
     0
176
   256
177
   256
178
     2
  0
ENDTAB
  0
ENDSEC
  0
SECTION
  2
BLOCKS
  0
BLOCK
  8
0
  2
$MODEL_SPACE
 70
     0
 10
0.0
 20
0.0
 30
0.0
  3
$MODEL_SPACE
  1

  0
ENDBLK
  5
37
  8
0
  0
BLOCK
 67
     1
  8
0
  2
$PAPER_SPACE
 70
     0
 10
0.0
 20
0.0
 30
0.0
  3
$PAPER_SPACE
  1

  0
ENDBLK
  5
35
 67
     1
  8
0
  0
BLOCK
  8
0
  2
*D6
 70
     1
 10
0.0
 20
0.0
 30
0.0
  3
*D6
  1

  0
LINE
  5
22B5
  8
SAPA_MATT
 10
-14.749999929160021
 20
257.00000000147179
 30
0.0
 11
-14.749999929160021
 21
278.5000000014727
 31
0.0
  0
LINE
  5
22B6
  8
SAPA_MATT
 10
23.25000007051619
 20
257.00000000148862
 30
0.0
 11
23.25000007051619
 21
278.5000000014727
 31
0.0
  0
LINE
  5
22B7
  8
SAPA_MATT
 10
-11.749999929160021
 20
277.0000000014727
 30
0.0
 11
20.250000070516201
 21
277.0000000014727
 31
0.0
  0
SOLID
  5
22B8
  8
SAPA_MATT
 10
-11.749999929160021
 20
277.5000000014727
 30
0.0
 11
-11.749999929160021
 21
276.5000000014727
 31
0.0
 12
-14.749999929160021
 22
277.0000000014727
 32
0.0
 13
-14.749999929160021
 23
277.0000000014727
 33
0.0
  0
SOLID
  5
22B9
  8
SAPA_MATT
 10
20.250000070516201
 20
277.5000000014727
 30
0.0
 11
20.250000070516201
 21
276.5000000014727
 31
0.0
 12
23.25000007051619
 22
277.0000000014727
 32
0.0
 13
23.25000007051619
 23
277.0000000014727
 33
0.0
  0
INSERT
  5
22BA
  8
0
  2
*U13
 10
0.0
 20
0.0
 30
0.0
  0
POINT
  5
22BB
  8
DEFPOINTS
 62
     0
 10
-14.749999929160021
 20
255.50000000147179
 30
0.0
  0
POINT
  5
22BC
  8
DEFPOINTS
 62
     0
 10
23.25000007051619
 20
255.50000000148859
 30
0.0
  0
POINT
  5
22BD
  8
DEFPOINTS
 62
     0
 10
23.25000007051619
 20
277.0000000014727
 30
0.0
  0
ENDBLK
  5
2257
  8
0
  0
BLOCK
  8
0
  2
*D7
 70
     1
 10
0.0
 20
0.0
 30
0.0
  3
*D7
  1

  0
LINE
  5
22AC
  8
SAPA_MATT
 10
23.250000070681718
 20
64.999999999994984
 30
0.0
 11
74.350000070807596
 21
64.999999999994984
 31
0.0
  0
LINE
  5
22AD
  8
SAPA_MATT
 10
23.250000070825418
 20
257.00000000147202
 30
0.0
 11
74.350000070807639
 21
257.00000000147202
 31
0.0
  0
LINE
  5
22AE
  8
SAPA_MATT
 10
72.850000070807596
 20
67.999999999994984
 30
0.0
 11
72.850000070807639
 21
254.00000000147199
 31
0.0
  0
SOLID
  5
22AF
  8
SAPA_MATT
 10
72.350000070807596
 20
67.999999999994984
 30
0.0
 11
73.350000070807596
 21
67.999999999994984
 31
0.0
 12
72.850000070807596
 22
64.999999999994984
 32
0.0
 13
72.850000070807596
 23
64.999999999994984
 33
0.0
  0
SOLID
  5
22B0
  8
SAPA_MATT
 10
72.350000070807624
 20
254.00000000147199
 30
0.0
 11
73.350000070807639
 21
254.00000000147199
 31
0.0
 12
72.850000070807639
 22
257.00000000147202
 32
0.0
 13
72.850000070807639
 23
257.00000000147202
 33
0.0
  0
INSERT
  5
22B1
  8
0
  2
*U12
 10
0.0
 20
0.0
 30
0.0
  0
POINT
  5
22B2
  8
DEFPOINTS
 62
     0
 10
21.750000070681718
 20
64.999999999994984
 30
0.0
  0
POINT
  5
22B3
  8
DEFPOINTS
 62
     0
 10
21.750000070825418
 20
257.00000000147202
 30
0.0
  0
POINT
  5
22B4
  8
DEFPOINTS
 62
     0
 10
72.850000070807639
 20
257.00000000147202
 30
0.0
  0
ENDBLK
  5
2263
  8
0
  0
BLOCK
  8
0
  2
*D8
 70
     1
 10
0.0
 20
0.0
 30
0.0
  3
*D8
  1

  0
LINE
  5
2320
  8
SAPA_MATT
 10
8.3500000707634872
 20
228.0000000005551
 30
0.0
 11
62.350000070807589
 21
228.0000000005551
 31
0.0
  0
LINE
  5
2321
  8
SAPA_MATT
 10
23.250000070825418
 20
257.00000000147202
 30
0.0
 11
62.350000070807603
 21
257.00000000147202
 31
0.0
  0
LINE
  5
2322
  8
SAPA_MATT
 10
60.850000070807589
 20
231.0000000005551
 30
0.0
 11
60.850000070807589
 21
254.00000000147199
 31
0.0
  0
TEXT
  8
SAPA_MATT
  40
3
  5
2335
  62
2
  72
0
  71
0
 10
52.3500
 20
237.190
 30
0.000000
  1
29
  7
ISO
  0
SOLID
  5
2324
  8
SAPA_MATT
 10
60.350000070807589
 20
231.0000000005551
 30
0.0
 11
61.350000070807582
 21
231.0000000005551
 31
0.0
 12
60.850000070807589
 22
228.0000000005551
 32
0.0
 13
60.850000070807589
 23
228.0000000005551
 33
0.0
  0
SOLID
  5
2325
  8
SAPA_MATT
 10
60.350000070807603
 20
254.00000000147199
 30
0.0
 11
61.350000070807589
 21
254.00000000147199
 31
0.0
 12
60.850000070807589
 22
257.00000000147202
 32
0.0
 13
60.850000070807589
 23
257.00000000147202
 33
0.0
  0
POINT
  5
2326
  8
DEFPOINTS
 62
     0
 10
6.8500000707634854
 20
228.0000000005551
 30
0.0
  0
POINT
  5
2327
  8
DEFPOINTS
 62
     0
 10
21.750000070825418
 20
257.00000000147202
 30
0.0
  0
POINT
  5
2328
  8
DEFPOINTS
 62
     0
 10
60.850000070807589
 20
257.00000000147202
 30
0.0
  0
ENDBLK
  5
226F
  8
0
  0
BLOCK
  8
0
  2
*D9
 70
     1
 10
0.0
 20
0.0
 30
0.0
  3
*D9
  1

  0
LINE
  5
2317
  8
SAPA_MATT
 10
23.75000007081087
 20
167.00000000091171
 30
0.0
 11
62.350000070807582
 21
167.00000000091171
 31
0.0
  0
LINE
  5
2318
  8
SAPA_MATT
 10
8.5500000708253765
 20
227.99999986365609
 30
0.0
 11
62.350000070807603
 21
227.99999986365609
 31
0.0
  0
LINE
  5
2319
  8
SAPA_MATT
 10
60.850000070807582
 20
170.0000000009118
 30
0.0
 11
60.850000070807589
 21
224.999999863656
 31
0.0
  0
SOLID
  5
231A
  8
SAPA_MATT
 10
60.350000070807582
 20
170.0000000009118
 30
0.0
 11
61.350000070807582
 21
170.0000000009118
 31
0.0
 12
60.850000070807582
 22
167.00000000091171
 32
0.0
 13
60.850000070807582
 23
167.00000000091171
 33
0.0
  0
SOLID
  5
231B
  8
SAPA_MATT
 10
60.350000070807603
 20
224.999999863656
 30
0.0
 11
61.350000070807589
 21
224.999999863656
 31
0.0
 12
60.850000070807589
 22
227.99999986365609
 32
0.0
 13
60.850000070807589
 23
227.99999986365609
 33
0.0
  0
TEXT
  8
SAPA_MATT
  40
3
  5
2336
  62
2
  72
0
  71
0
 10
52.3500
 20
192.190
 30
0.000000
  1
61
  7
ISO
  0
POINT
  5
231D
  8
DEFPOINTS
 62
     0
 10
22.25000007081087
 20
167.00000000091171
 30
0.0
  0
POINT
  5
231E
  8
DEFPOINTS
 62
     0
 10
7.0500000708253756
 20
227.99999986365609
 30
0.0
  0
POINT
  5
231F
  8
DEFPOINTS
 62
     0
 10
60.850000070807589
 20
227.99999986365609
 30
0.0
  0
ENDBLK
  5
227B
  8
0
  0
BLOCK
  8
0
  2
*D10
 70
     1
 10
0.0
 20
0.0
 30
0.0
  3
*D10
  1

  0
LINE
  5
2291
  8
SAPA_MATT
 10
23.25000007051619
 20
64.999999999994316
 30
0.0
 11
62.350000070807603
 21
64.999999999994301
 31
0.0
  0
LINE
  5
2292
  8
SAPA_MATT
 10
23.75000007081087
 20
167.00000000091171
 30
0.0
 11
62.350000070807617
 21
167.00000000091171
 31
0.0
  0
LINE
  5
2293
  8
SAPA_MATT
 10
60.850000070807603
 20
67.999999999994301
 30
0.0
 11
60.850000070807617
 21
164.00000000091171
 31
0.0
  0
SOLID
  5
2294
  8
SAPA_MATT
 10
60.35000007080761
 20
67.999999999994301
 30
0.0
 11
61.350000070807603
 21
67.999999999994301
 31
0.0
 12
60.850000070807603
 22
64.999999999994301
 32
0.0
 13
60.850000070807603
 23
64.999999999994301
 33
0.0
  0
SOLID
  5
2295
  8
SAPA_MATT
 10
60.350000070807617
 20
164.00000000091171
 30
0.0
 11
61.350000070807617
 21
164.00000000091171
 31
0.0
 12
60.850000070807617
 22
167.00000000091171
 32
0.0
 13
60.850000070807617
 23
167.00000000091171
 33
0.0
  0
INSERT
  5
2296
  8
0
  2
*U11
 10
0.0
 20
0.0
 30
0.0
  0
POINT
  5
2297
  8
DEFPOINTS
 62
     0
 10
21.75000007051619
 20
64.999999999994316
 30
0.0
  0
POINT
  5
2298
  8
DEFPOINTS
 62
     0
 10
22.25000007081087
 20
167.00000000091171
 30
0.0
  0
POINT
  5
2299
  8
DEFPOINTS
 62
     0
 10
60.850000070807617
 20
167.00000000091171
 30
0.0
  0
ENDBLK
  5
2287
  8
0
  0
BLOCK
  8
0
  2
*U11
 70
     1
 10
0.0
 20
0.0
 30
0.0
  3
*U11
  1

  0
TEXT
  5
232A
  8
SAPA_MATT
 62
     2
 10
59.850000070807603
 20
109.15000000076149
 30
0.0
 40
3.0
  1
102
 50
90.0
  7
ISO
  0
ENDBLK
  5
232C
  8
0
  0
BLOCK
  8
0
  2
*U12
 70
     1
 10
0.0
 20
0.0
 30
0.0
  3
*U12
  1

  0
TEXT
  5
232E
  8
SAPA_MATT
 62
     2
 10
71.850000070807596
 20
147.15000000091541
 30
0.0
 40
3.0
  1
192
 50
90.0
  7
ISO
  0
ENDBLK
  5
2330
  8
0
  0
BLOCK
  8
0
  2
*U13
 70
     1
 10
0.0
 20
0.0
 30
0.0
  3
*U13
  1

  0
TEXT
  5
2332
  8
SAPA_MATT
 62
     2
 10
2.1500000706780851
 20
278.0000000014727
 30
0.0
 40
3.0
  1
38
  7
ISO
  0
ENDBLK
  5
2334
  8
0
  0
ENDSEC
  0
SECTION
  2
ENTITIES
  0
LINE
  5
1D50
  8
SAPA_ISOLATOR
 10
1.8741562185099381
 20
215.3000000001721
 30
0.0
 11
1.8741562185099381
 21
187.30000000017199
 31
0.0
  0
POINT
  5
1D51
  8
SAPA_FOGBAND
 10
11.950000070830241
 20
167.20000000137
 30
0.0
 50
89.999999999999986
  0
POINT
  5
1D52
  8
SAPA_FOGBAND
 10
3.65000007083006
 20
167.20000000137
 30
0.0
 50
89.999999999999986
  0
POINT
  5
1D54
  8
SAPA_FOGBAND
 10
4.9500000708152347
 20
154.79999999958
 30
0.0
 50
89.99999994036331
  0
LINE
  5
1D55
  8
SAPA_FOGBAND
 10
1.813600579596709
 20
156.99956746803261
 30
0.0
 11
1.813600579596709
 21
156.1995674680324
 31
0.0
  0
LINE
  5
1D56
  8
SAPA_FOGBAND
 10
1.813600579596709
 20
156.1995674680324
 30
0.0
 11
8.1136005795941628
 21
156.1995674680324
 31
0.0
  0
LINE
  5
1D57
  8
SAPA_FOGBAND
 10
8.1136005795941628
 20
156.1995674680324
 30
0.0
 11
8.1136005795941628
 21
156.99956746803261
 31
0.0
  0
LINE
  5
1D58
  8
SAPA_FOGBAND
 10
8.1136005795941628
 20
156.99956746803261
 30
0.0
 11
1.813600579596709
 21
156.99956746803261
 31
0.0
  0
LINE
  5
1D5A
  8
SAPA_FOGBAND
 10
5.0386005795961628
 20
156.1995674680324
 30
0.0
 11
5.0386005795929796
 21
150.80415991091559
 31
0.0
  0
LINE
  5
1D5B
  8
SAPA_FOGBAND
 10
5.0386005795929796
 20
150.80415991091559
 30
0.0
 11
4.8886005795947076
 21
150.80415991091559
 31
0.0
  0
LINE
  5
1D5C
  8
SAPA_FOGBAND
 10
4.8886005795947076
 20
150.80415991091559
 30
0.0
 11
4.8886005795947076
 21
156.1995674680324
 31
0.0
  0
POINT
  5
1D5E
  8
SAPA_FOGBAND
 10
-3.3499999291849458
 20
154.79999999958
 30
0.0
 50
89.99999994036331
  0
LINE
  5
1D5F
  8
SAPA_FOGBAND
 10
-6.4863994204030169
 20
156.99956746803261
 30
0.0
 11
-6.4863994204030169
 21
156.1995674680324
 31
0.0
  0
LINE
  5
1D60
  8
SAPA_FOGBAND
 10
-6.4863994204030169
 20
156.1995674680324
 30
0.0
 11
-0.1863994204060191
 21
156.1995674680324
 31
0.0
  0
LINE
  5
1D61
  8
SAPA_FOGBAND
 10
-0.1863994204060191
 20
156.1995674680324
 30
0.0
 11
-0.1863994204060191
 21
156.99956746803261
 31
0.0
  0
LINE
  5
1D62
  8
SAPA_FOGBAND
 10
-0.1863994204060191
 20
156.99956746803261
 30
0.0
 11
-6.4863994204030169
 21
156.99956746803261
 31
0.0
  0
LINE
  5
1D64
  8
SAPA_FOGBAND
 10
-3.2613994204040182
 20
156.1995674680324
 30
0.0
 11
-3.2613994204067458
 21
150.7672257279491
 31
0.0
  0
LINE
  5
1D65
  8
SAPA_FOGBAND
 10
-3.261399420407201
 20
150.7672257279491
 30
0.0
 11
-3.4113994204054729
 21
150.7672257279491
 31
0.0
  0
LINE
  5
1D66
  8
SAPA_FOGBAND
 10
-3.4113994204054729
 20
150.7672257279491
 30
0.0
 11
-3.4113994204054729
 21
156.1995674680324
 31
0.0
  0
POINT
  5
1D68
  8
SAPA_FOGBAND
 10
-3.3499999291849458
 20
154.79999999958
 30
0.0
 50
270.0
  0
POINT
  5
1D69
  8
SAPA_FOGBAND
 10
4.9500000708152347
 20
154.79999999958
 30
0.0
 50
270.0
  0
POINT
  5
1D6B
  8
SAPA_FOGBAND
 10
3.65000007083006
 20
167.20000000137
 30
0.0
 50
269.99999994036341
  0
LINE
  5
1D6C
  8
SAPA_FOGBAND
 10
6.7863995620485857
 20
165.0004325329173
 30
0.0
 11
6.7863995620485857
 21
165.80043253291751
 31
0.0
  0
LINE
  5
1D6D
  8
SAPA_FOGBAND
 10
6.7863995620485857
 20
165.80043253291751
 30
0.0
 11
0.486399562051588
 21
165.80043253291751
 31
0.0
  0
LINE
  5
1D6E
  8
SAPA_FOGBAND
 10
0.486399562051588
 20
165.80043253291751
 30
0.0
 11
0.486399562051588
 21
165.0004325329173
 31
0.0
  0
LINE
  5
1D6F
  8
SAPA_FOGBAND
 10
0.486399562051588
 20
165.0004325329173
 30
0.0
 11
6.7863995620485857
 21
165.0004325329173
 31
0.0
  0
LINE
  5
1D71
  8
SAPA_FOGBAND
 10
3.5613995620491319
 20
165.80043253291751
 30
0.0
 11
3.5613995620523151
 21
171.2064373170719
 31
0.0
  0
LINE
  5
1D72
  8
SAPA_FOGBAND
 10
3.5613995620523151
 20
171.2064373170719
 30
0.0
 11
3.7113995620505871
 21
171.2064373170719
 31
0.0
  0
LINE
  5
1D73
  8
SAPA_FOGBAND
 10
3.7113995620505871
 20
171.2064373170719
 30
0.0
 11
3.7113995620505871
 21
165.80043253291751
 31
0.0
  0
POINT
  5
1D75
  8
SAPA_FOGBAND
 10
11.950000070830241
 20
167.20000000137
 30
0.0
 50
269.99999994036341
  0
LINE
  5
1D76
  8
SAPA_FOGBAND
 10
15.08639956204831
 20
165.0004325329173
 30
0.0
 11
15.08639956204831
 21
165.80043253291751
 31
0.0
  0
LINE
  5
1D77
  8
SAPA_FOGBAND
 10
15.08639956204831
 20
165.80043253291751
 30
0.0
 11
8.7863995620513151
 21
165.80043253291751
 31
0.0
  0
LINE
  5
1D78
  8
SAPA_FOGBAND
 10
8.7863995620513151
 20
165.80043253291751
 30
0.0
 11
8.7863995620513151
 21
165.0004325329173
 31
0.0
  0
LINE
  5
1D79
  8
SAPA_FOGBAND
 10
8.7863995620513151
 20
165.0004325329173
 30
0.0
 11
15.08639956204831
 21
165.0004325329173
 31
0.0
  0
LINE
  5
1D7B
  8
SAPA_FOGBAND
 10
11.861399562049311
 20
165.80043253291751
 30
0.0
 11
11.86139956205249
 21
171.30272148126591
 31
0.0
  0
LINE
  5
1D7C
  8
SAPA_FOGBAND
 10
11.86139956205249
 20
171.30272148126591
 30
0.0
 11
12.011399562050769
 21
171.30272148126591
 31
0.0
  0
LINE
  5
1D7D
  8
SAPA_FOGBAND
 10
12.011399562050769
 20
171.30272148126591
 30
0.0
 11
12.011399562050769
 21
165.80043253291751
 31
0.0
  0
TEXT
  5
1D8A
  8
SAPA_ARTIKELNR
 10
25.625854846815741
 20
229.63806805437579
 30
0.0000000048844772
 40
3.5
  1
D9V005
  7
ISO
  0
LINE
  5
1D8B
  8
SAPA_GLAS
 10
21.35000007081965
 20
172.74999986373791
 30
0.0
 11
21.35000007081965
 21
173.4999998637511
 31
0.0
  0
LINE
  5
1D8C
  8
SAPA_GLAS
 10
8.5500000708087782
 20
173.4999998637511
 30
0.0
 11
8.5500000708078687
 21
172.74999986375201
 31
0.0
  0
LINE
  5
1D8E
  8
SAPA_GLAS
 10
21.35000007081965
 20
226.24999986410259
 30
0.0
 11
21.35000007081965
 21
225.4999998640894
 31
0.0
  0
LINE
  5
1D8F
  8
SAPA_GLAS
 10
8.5500000708087782
 20
225.4999998640894
 30
0.0
 11
8.5500000708078687
 21
226.24999986408849
 31
0.0
  0
TEXT
  5
1D91
  8
SAPA_ARTIKELNR
 10
-3.4869426355757009
 20
258.96451410123473
 30
0.0000000048844772
 40
3.5
  1
D9V113
  7
ISO
  0
LINE
  5
1D98
  8
SAPA_GLAS
 10
-12.7499999291748
 20
95.750000137365078
 30
0.0
 11
-12.7499999291748
 21
96.500000137378265
 31
0.0
  0
LINE
  5
1D99
  8
SAPA_GLAS
 10
0.0500000708362904
 20
96.500000137378265
 30
0.0
 11
0.0500000708369726
 21
95.750000137379175
 31
0.0
  0
LINE
  5
1D9B
  8
SAPA_GLAS
 10
-12.7499999291748
 20
149.2500001377297
 30
0.0
 11
-12.7499999291748
 21
148.5000001377166
 31
0.0
  0
LINE
  5
1D9C
  8
SAPA_GLAS
 10
0.0500000708362904
 20
148.5000001377166
 30
0.0
 11
0.0500000708369726
 21
149.25000013771569
 31
0.0
  0
TEXT
  5
1DA1
  8
SAPA_ARTIKELNR
 10
-3.5446506502777311
 20
59.220791841028813
 30
0.0000000048844772
 40
3.5
  1
D9V113
  7
ISO
  0
TEXT
  5
1DA2
  8
SAPA_ARTIKELNR
 10
-32.974505073126352
 20
90.375996419241119
 30
0.0000000048844772
 40
3.5
  1
D9V005
  7
ISO
  0
LINE
  5
1F8B
  8
SAPA_GLAS
 10
-31.94999992916371
 20
140.5000001377
 30
0.0
 11
0.0500000708362904
 21
140.5000001377
 31
0.0
  0
LINE
  5
1F8C
  8
SAPA_GLAS
 10
0.0500000708362904
 20
140.5000001377
 30
0.0
 11
0.0500000708362904
 21
148.5000001377
 31
0.0
  0
LINE
  5
1F8D
  8
SAPA_GLAS
 10
0.0500000708362904
 20
148.5000001377
 30
0.0
 11
-31.94999992916371
 21
148.5000001377
 31
0.0
  0
LINE
  5
1F90
  8
SAPA_GLAS
 10
-9.9499999291639352
 20
140.5000001377
 30
0.0
 11
-9.9499999291639352
 21
125.5000001377
 31
0.0
  0
LINE
  5
1F91
  8
SAPA_GLAS
 10
-9.9499999291639352
 20
125.5000001377
 30
0.0
 11
0.0500000708362904
 21
125.5000001377
 31
0.0
  0
LINE
  5
1F92
  8
SAPA_GLAS
 10
0.0500000708362904
 20
125.5000001377
 30
0.0
 11
0.0500000708360631
 21
140.5000001377
 31
0.0
  0
LINE
  5
1F93
  8
SAPA_GLAS
 10
0.0500000708360631
 20
140.5000001377
 30
0.0
 11
-9.9499999291639352
 21
140.5000001377
 31
0.0
  0
LINE
  5
1F94
  8
SAPA_GLAS
 10
-31.94999992916371
 20
119.5000001377
 30
0.0
 11
0.0500000708362904
 21
119.5000001377
 31
0.0
  0
LINE
  5
1F95
  8
SAPA_GLAS
 10
0.0500000708362904
 20
119.5000001377
 30
0.0
 11
0.0500000708362904
 21
125.5000001377
 31
0.0
  0
LINE
  5
1F96
  8
SAPA_GLAS
 10
0.0500000708362904
 20
125.5000001377
 30
0.0
 11
-31.94999992916371
 21
125.5000001377
 31
0.0
  0
LINE
  5
1F97
  8
SAPA_GLAS
 10
-12.7499999291748
 20
149.10524488289269
 30
0.0
 11
-12.605244673998429
 21
149.25000013806911
 31
0.0
1001
ACAD
1010
0.0
1020
0.0
1030
0.0
  0
LINE
  5
1F98
  8
SAPA_GLAS
 10
-12.232712659217279
 20
148.5000001377166
 30
0.0
 11
-11.48271265886599
 21
149.25000013806789
 31
0.0
1001
ACAD
1010
0.0
1020
0.0
1030
0.0
  0
LINE
  5
1F99
  8
SAPA_GLAS
 10
-11.110180644083639
 20
148.5000001377166
 30
0.0
 11
-10.36018064373356
 21
149.25000013806661
 31
0.0
1001
ACAD
1010
0.0
1020
0.0
1030
0.0
  0
LINE
  5
1F9A
  8
SAPA_GLAS
 10
-9.9876486289499944
 20
148.5000001377166
 30
0.0
 11
-9.2376486286011392
 21
149.25000013806539
 31
0.0
1001
ACAD
1010
0.0
1020
0.0
1030
0.0
  0
LINE
  5
1F9B
  8
SAPA_GLAS
 10
-8.8651166138163404
 20
148.5000001377166
 30
0.0
 11
-8.1151166134687074
 21
149.25000013806419
 31
0.0
1001
ACAD
1010
0.0
1020
0.0
1030
0.0
  0
LINE
  5
1F9C
  8
SAPA_GLAS
 10
-7.7425845986827042
 20
148.5000001377166
 30
0.0
 11
-6.9925845983362862
 21
149.250000138063
 31
0.0
1001
ACAD
1010
0.0
1020
0.0
1030
0.0
  0
LINE
  5
1F9D
  8
SAPA_GLAS
 10
-6.6200525835490573
 20
148.5000001377166
 30
0.0
 11
-5.8700525832038473
 21
149.25000013806181
 31
0.0
1001
ACAD
1010
0.0
1020
0.0
1030
0.0
  0
LINE
  5
1F9E
  8
SAPA_GLAS
 10
-5.4975205684154096
 20
148.5000001377166
 30
0.0
 11
-4.7475205680714261
 21
149.25000013806061
 31
0.0
1001
ACAD
1010
0.0
1020
0.0
1030
0.0
  0
LINE
  5
1F9F
  8
SAPA_GLAS
 10
-4.3749885532817698
 20
148.5000001377166
 30
0.0
 11
-3.6249885529389969
 21
149.25000013805931
 31
0.0
1001
ACAD
1010
0.0
1020
0.0
1030
0.0
  0
LINE
  5
1FA0
  8
SAPA_GLAS
 10
-3.252456538148123
 20
148.5000001377166
 30
0.0
 11
-2.5024565378065731
 21
149.25000013805811
 31
0.0
1001
ACAD
1010
0.0
1020
0.0
1030
0.0
  0
LINE
  5
1FA1
  8
SAPA_GLAS
 10
-2.1299245230144801
 20
148.5000001377166
 30
0.0
 11
-1.379924522674137
 21
149.25000013805689
 31
0.0
1001
ACAD
1010
0.0
1020
0.0
1030
0.0
  0
LINE
  5
1FA2
  8
SAPA_GLAS
 10
-1.007392507880837
 20
148.5000001377166
 30
0.0
 11
-0.2573925075417058
 21
149.2500001380557
 31
0.0
1001
ACAD
1010
0.0
1020
0.0
1030
0.0
  0
LINE
  5
1FA3
  8
SAPA_GLAS
 10
-12.34710719188044
 20
148.5000001377166
 30
0.0
 11
-12.749999929174811
 21
148.90289287501091
 31
0.0
1001
ACAD
1010
0.0
1020
0.0
1030
0.0
  0
LINE
  5
1FA4
  8
SAPA_GLAS
 10
-11.2245751767468
 20
148.5000001377166
 30
0.0
 11
-11.97457517709862
 21
149.2500001380684
 31
0.0
1001
ACAD
1010
0.0
1020
0.0
1030
0.0
  0
LINE
  5
1FA5
  8
SAPA_GLAS
 10
-10.10204316161315
 20
148.5000001377166
 30
0.0
 11
-10.85204316196376
 21
149.25000013806721
 31
0.0
1001
ACAD
1010
0.0
1020
0.0
1030
0.0
  0
LINE
  5
1FA6
  8
SAPA_GLAS
 10
-8.9795111464795152
 20
148.5000001377166
 30
0.0
 11
-9.7295111468289015
 21
149.25000013806601
 31
0.0
1001
ACAD
1010
0.0
1020
0.0
1030
0.0
  0
LINE
  5
1FA7
  8
SAPA_GLAS
 10
-7.8569791313458701
 20
148.5000001377166
 30
0.0
 11
-8.6069791316940396
 21
149.25000013806479
 31
0.0
1001
ACAD
1010
0.0
1020
0.0
1030
0.0
  0
LINE
  5
1FA8
  8
SAPA_GLAS
 10
-6.7344471162122259
 20
148.5000001377166
 30
0.0
 11
-7.4844471165591697
 21
149.25000013806351
 31
0.0
1001
ACAD
1010
0.0
1020
0.0
1030
0.0
  0
LINE
  5
1FA9
  8
SAPA_GLAS
 10
-5.611915101078579
 20
148.5000001377166
 30
0.0
 11
-6.3619151014243123
 21
149.25000013806229
 31
0.0
1001
ACAD
1010
0.0
1020
0.0
1030
0.0
  0
LINE
  5
1FAA
  8
SAPA_GLAS
 10
-4.4893830859449357
 20
148.5000001377166
 30
0.0
 11
-5.2393830862894681
 21
149.2500001380611
 31
0.0
1001
ACAD
1010
0.0
1020
0.0
1030
0.0
  0
LINE
  5
1FAB
  8
SAPA_GLAS
 10
-3.3668510708112929
 20
148.5000001377166
 30
0.0
 11
-4.1168510711545991
 21
149.2500001380599
 31
0.0
1001
ACAD
1010
0.0
1020
0.0
1030
0.0
  0
LINE
  5
1FAC
  8
SAPA_GLAS
 10
-2.2443190556776491
 20
148.5000001377166
 30
0.0
 11
-2.9943190560197399
 21
149.25000013805871
 31
0.0
1001
ACAD
1010
0.0
1020
0.0
1030
0.0
  0
LINE
  5
1FAD
  8
SAPA_GLAS
 10
-1.1217870405440029
 20
148.5000001377166
 30
0.0
 11
-1.871787040884878
 21
149.25000013805749
 31
0.0
1001
ACAD
1010
0.0
1020
0.0
1030
0.0
  0
LINE
  5
1FAE
  8
SAPA_GLAS
 10
0.0007449745896366
 20
148.5000001377166
 30
0.0
 11
-0.7492550257500099
 21
149.25000013805621
 31
0.0
1001
ACAD
1010
0.0
1020
0.0
1030
0.0
  0
LINE
  5
1FAF
  8
SAPA_GLAS
 10
-12.7499999291748
 20
96.346240171611441
 30
0.0
 11
-12.59623996340799
 21
96.500000137378251
 31
0.0
1001
ACAD
1010
0.0
1020
0.0
1030
0.0
  0
LINE
  5
1FB0
  8
SAPA_GLAS
 10
-12.223707948626441
 20
95.750000137026177
 30
0.0
 11
-11.473707948274351
 21
96.500000137378265
 31
0.0
1001
ACAD
1010
0.0
1020
0.0
1030
0.0
  0
LINE
  5
1FB1
  8
SAPA_GLAS
 10
-11.10117593349157
 20
95.750000137027385
 30
0.0
 11
-10.3511759331407
 21
96.500000137378251
 31
0.0
1001
ACAD
1010
0.0
1020
0.0
1030
0.0
  0
LINE
  5
1FB2
  8
SAPA_GLAS
 10
-9.9786439183567168
 20
95.750000137028593
 30
0.0
 11
-9.2286439180070623
 21
96.500000137378265
 31
0.0
1001
ACAD
1010
0.0
1020
0.0
1030
0.0
  0
LINE
  5
1FB3
  8
SAPA_GLAS
 10
-8.8561119032218532
 20
95.750000137029815
 30
0.0
 11
-8.1061119028734172
 21
96.500000137378251
 31
0.0
1001
ACAD
1010
0.0
1020
0.0
1030
0.0
  0
LINE
  5
1FB4
  8
SAPA_GLAS
 10
-7.7335798880869886
 20
95.750000137031051
 30
0.0
 11
-6.983579887739773
 21
96.500000137378265
 31
0.0
1001
ACAD
1010
0.0
1020
0.0
1030
0.0
  0
LINE
  5
1FB5
  8
SAPA_GLAS
 10
-6.6110478729521329
 20
95.750000137032259
 30
0.0
 11
-5.8610478726061288
 21
96.500000137378265
 31
0.0
1001
ACAD
1010
0.0
1020
0.0
1030
0.0
  0
LINE
  5
1FB6
  8
SAPA_GLAS
 10
-5.4885158578172693
 20
95.750000137033481
 30
0.0
 11
-4.7385158574724846
 21
96.500000137378265
 31
0.0
1001
ACAD
1010
0.0
1020
0.0
1030
0.0
  0
LINE
  5
1FB7
  8
SAPA_GLAS
 10
-4.3659838426824127
 20
95.750000137034689
 30
0.0
 11
-3.61598384233884
 21
96.500000137378265
 31
0.0
1001
ACAD
1010
0.0
1020
0.0
1030
0.0
  0
LINE
  5
1FB8
  8
SAPA_GLAS
 10
-3.243451827547549
 20
95.750000137035926
 30
0.0
 11
-2.4934518272051962
 21
96.500000137378265
 31
0.0
1001
ACAD
1010
0.0
1020
0.0
1030
0.0
  0
LINE
  5
1FB9
  8
SAPA_GLAS
 10
-2.1209198124126929
 20
95.750000137037134
 30
0.0
 11
-1.370919812071552
 21
96.500000137378265
 31
0.0
1001
ACAD
1010
0.0
1020
0.0
1030
0.0
  0
LINE
  5
1FBA
  8
SAPA_GLAS
 10
-0.9983877972778295
 20
95.750000137038327
 30
0.0
 11
-0.2483877969379076
 21
96.500000137378265
 31
0.0
1001
ACAD
1010
0.0
1020
0.0
1030
0.0
  0
LINE
  5
1FBB
  8
SAPA_GLAS
 10
-12.356111902471151
 20
95.750000137026035
 30
0.0
 11
-12.74999992917482
 21
96.143888163729684
 31
0.0
1001
ACAD
1010
0.0
1020
0.0
1030
0.0
  0
LINE
  5
1FBC
  8
SAPA_GLAS
 10
-11.233579887338729
 20
95.750000137027257
 30
0.0
 11
-11.983579887689739
 21
96.500000137378251
 31
0.0
1001
ACAD
1010
0.0
1020
0.0
1030
0.0
  0
LINE
  5
1FBD
  8
SAPA_GLAS
 10
-10.111047872206299
 20
95.750000137028465
 30
0.0
 11
-10.861047872556091
 21
96.500000137378265
 31
0.0
1001
ACAD
1010
0.0
1020
0.0
1030
0.0
  0
LINE
  5
1FBE
  8
SAPA_GLAS
 10
-8.9885158570738746
 20
95.750000137029659
 30
0.0
 11
-9.7385158574224526
 21
96.500000137378251
 31
0.0
1001
ACAD
1010
0.0
1020
0.0
1030
0.0
  0
LINE
  5
1FBF
  8
SAPA_GLAS
 10
-7.8659838419414427
 20
95.750000137030895
 30
0.0
 11
-8.6159838422888093
 21
96.500000137378265
 31
0.0
1001
ACAD
1010
0.0
1020
0.0
1030
0.0
  0
LINE
  5
1FC0
  8
SAPA_GLAS
 10
-6.743451826809018
 20
95.750000137032103
 30
0.0
 11
-7.493451827155166
 21
96.500000137378251
 31
0.0
1001
ACAD
1010
0.0
1020
0.0
1030
0.0
  0
LINE
  5
1FC1
  8
SAPA_GLAS
 10
-5.6209198116765942
 20
95.750000137033339
 30
0.0
 11
-6.3709198120215218
 21
96.500000137378265
 31
0.0
1001
ACAD
1010
0.0
1020
0.0
1030
0.0
  0
LINE
  5
1FC2
  8
SAPA_GLAS
 10
-4.4983877965441632
 20
95.750000137034533
 30
0.0
 11
-5.2483877968878794
 21
96.500000137378251
 31
0.0
1001
ACAD
1010
0.0
1020
0.0
1030
0.0
  0
LINE
  5
1FC3
  8
SAPA_GLAS
 10
-3.375855781411738
 20
95.750000137035784
 30
0.0
 11
-4.1258557817542361
 21
96.500000137378265
 31
0.0
1001
ACAD
1010
0.0
1020
0.0
1030
0.0
  0
LINE
  5
1FC4
  8
SAPA_GLAS
 10
-2.2533237662793071
 20
95.750000137036977
 30
0.0
 11
-3.0033237666205919
 21
96.500000137378265
 31
0.0
1001
ACAD
1010
0.0
1020
0.0
1030
0.0
  0
LINE
  5
1FC5
  8
SAPA_GLAS
 10
-1.130791751146883
 20
95.750000137038185
 30
0.0
 11
-1.880791751486949
 21
96.500000137378265
 31
0.0
1001
ACAD
1010
0.0
1020
0.0
1030
0.0
  0
LINE
  5
1FC6
  8
SAPA_GLAS
 10
-0.008259736014459
 20
95.750000137039422
 30
0.0
 11
-0.758259736353306
 21
96.500000137378265
 31
0.0
1001
ACAD
1010
0.0
1020
0.0
1030
0.0
  0
LINE
  5
1FC7
  8
SAPA_GLAS
 10
-9.9499999291639352
 20
119.5000001375392
 30
0.0
 11
-9.9499999291639352
 21
104.5000001375392
 31
0.0
  0
LINE
  5
1FC8
  8
SAPA_GLAS
 10
-9.9499999291639352
 20
104.5000001375392
 30
0.0
 11
0.0500000708362904
 21
104.5000001375392
 31
0.0
  0
LINE
  5
1FC9
  8
SAPA_GLAS
 10
0.0500000708362904
 20
104.5000001375392
 30
0.0
 11
0.0500000708360631
 21
119.5000001375392
 31
0.0
  0
LINE
  5
1FCA
  8
SAPA_GLAS
 10
0.0500000708360631
 20
119.5000001375392
 30
0.0
 11
-9.9499999291639352
 21
119.5000001375392
 31
0.0
  0
LINE
  5
1FCB
  8
SAPA_GLAS
 10
-31.94999992916371
 20
96.500000137539033
 30
0.0
 11
0.0500000708362904
 21
96.500000137539033
 31
0.0
  0
LINE
  5
1FCC
  8
SAPA_GLAS
 10
0.0500000708362904
 20
96.500000137539033
 30
0.0
 11
0.0500000708362904
 21
104.500000137539
 31
0.0
  0
LINE
  5
1FCD
  8
SAPA_GLAS
 10
0.0500000708362904
 20
104.500000137539
 30
0.0
 11
-31.94999992916371
 21
104.500000137539
 31
0.0
  0
ARC
  5
1FCE
  8
SAPA_FOGBAND
 10
21.131850299090239
 20
156.2013596469414
 30
0.0
 40
10.06528669776978
 50
159.3189709458573
 51
200.68102905375781
  0
ARC
  5
1FCF
  8
SAPA_FOGBAND
 10
12.64309412430859
 20
159.38332224293671
 30
0.0
 40
1.0000000000001501
 50
14.929000002338221
 51
158.1149714938532
  0
LINE
  5
1FD0
  8
SAPA_FOGBAND
 10
13.60933993323863
 20
159.64094413006089
 30
0.0
 11
13.73495379018493
 21
159.3469511940977
 31
0.0
  0
ARC
  5
1FD1
  8
SAPA_FOGBAND
 10
13.931555370286951
 20
159.3836638445288
 30
0.0
 40
0.2000000000007063
 50
190.57737838728431
 51
308.72786277676153
  0
LINE
  5
1FD2
  8
SAPA_FOGBAND
 10
14.05667979098882
 20
159.2276385922639
 30
0.0
 11
14.638568787776309
 21
159.69428436004321
 31
0.0
  0
LINE
  5
1FD3
  8
SAPA_FOGBAND
 10
14.638568787776309
 20
159.69428436004321
 30
0.0
 11
14.438568787779669
 21
161.25000000158391
 31
0.0
  0
LINE
  5
1FD4
  8
SAPA_FOGBAND
 10
14.438568787779669
 20
161.25000000158391
 30
0.0
 11
15.737123408703949
 21
160.05575222797839
 31
0.0
  0
ARC
  5
1FD5
  8
SAPA_FOGBAND
 10
15.9402014561173
 20
160.2765673240624
 30
0.0
 40
0.2999999999996377
 50
227.396041458171
 51
340.98497754267947
  0
LINE
  5
1FD6
  8
SAPA_FOGBAND
 10
16.223831410701791
 20
160.1788225090481
 30
0.0
 11
16.56197426359347
 21
161.16002485715529
 31
0.0
  0
LINE
  5
1FD7
  8
SAPA_FOGBAND
 10
16.56197426359347
 20
161.16002485715529
 30
0.0
 11
17.591978829864839
 21
159.4745329009167
 31
0.0
  0
ARC
  5
1FD8
  8
SAPA_FOGBAND
 10
16.75000007084558
 20
158.93502222506939
 30
0.0
 40
0.999999999996435
 50
359.99999999985351
 51
32.650334642281663
  0
LINE
  5
1FD9
  8
SAPA_FOGBAND
 10
17.75000007084202
 20
158.9350222250668
 30
0.0
 11
17.7500000708302
 21
156.200000001565
 31
0.0
  0
LINE
  5
1FDA
  8
SAPA_FOGBAND
 10
17.7500000708302
 20
156.200000001565
 30
0.0
 11
17.7500000708302
 21
153.76791439602789
 31
0.0
  0
LINE
  5
1FDB
  8
SAPA_FOGBAND
 10
17.7500000708302
 20
153.76791439602789
 30
0.0
 11
17.750000070830652
 21
153.61198244093089
 31
0.0
  0
LINE
  5
1FDC
  8
SAPA_FOGBAND
 10
17.750000070830652
 20
153.61198244093089
 30
0.0
 11
17.7500000708302
 21
153.46497777806459
 31
0.0
  0
ARC
  5
1FDD
  8
SAPA_FOGBAND
 10
16.750000070832339
 20
153.46497777806539
 30
0.0
 40
0.9999999999978541
 50
327.34966535752471
 51
359.99999999995282
  0
LINE
  5
1FDE
  8
SAPA_FOGBAND
 10
17.591978829850969
 20
152.9254671022145
 30
0.0
 11
16.561974263572321
 21
151.23997514597971
 31
0.0
  0
LINE
  5
1FDF
  8
SAPA_FOGBAND
 10
16.561974263572321
 20
151.23997514597971
 30
0.0
 11
16.223831410684738
 21
152.22117749408969
 31
0.0
  0
ARC
  5
1FE0
  8
SAPA_FOGBAND
 10
15.94638172498806
 20
152.14787388694461
 30
0.0
 40
0.2869699407841503
 50
14.79965990396116
 51
136.8193210951126
  0
LINE
  5
1FE1
  8
SAPA_FOGBAND
 10
15.737123408687349
 20
152.3442477751596
 30
0.0
 11
14.43856878777853
 21
151.1500000015692
 31
0.0
  0
LINE
  5
1FE2
  8
SAPA_FOGBAND
 10
14.43856878777853
 20
151.1500000015692
 30
0.0
 11
14.63856878777608
 21
152.70571564310961
 31
0.0
  0
LINE
  5
1FE3
  8
SAPA_FOGBAND
 10
14.63856878777608
 20
152.70571564310961
 30
0.0
 11
14.05667979115162
 21
153.17236141077859
 31
0.0
  0
ARC
  5
1FE4
  8
SAPA_FOGBAND
 10
13.931555370458071
 20
153.0163361585069
 30
0.0
 40
0.2000000000008979
 50
51.272137226334699
 51
169.4226216158155
  0
LINE
  5
1FE5
  8
SAPA_FOGBAND
 10
13.73495379035387
 20
153.05304880892729
 30
0.0
 11
13.609339933423479
 21
152.7590558729573
 31
0.0
  0
ARC
  5
1FE6
  8
SAPA_FOGBAND
 10
12.64309412447961
 20
153.01667776002969
 30
0.0
 40
1.0000000000001721
 50
201.88502850922089
 51
345.07100000073609
  0
ARC
  5
1FE7
  8
SAPA_FOGBAND
 10
21.169924115937452
 20
156.20135964693969
 30
0.0
 40
9.4033605146161392
 50
160.08007031146019
 51
199.9199296880355
  0
ARC
  5
1FE8
  8
SAPA_FOGBAND
 10
12.79527780039975
 20
159.2241955970751
 30
0.0
 40
0.499999999999983
 50
359.99999999999682
 51
158.7829468548141
  0
ARC
  5
1FE9
  8
SAPA_FOGBAND
 10
14.01428522584918
 20
159.298852318217
 30
0.0
 40
0.7228729513981734
 50
185.92795175003161
 51
328.42878462418389
  0
LINE
  5
1FEA
  8
SAPA_FOGBAND
 10
14.63016580236615
 20
158.9203864421697
 30
0.0
 11
14.696178838322909
 21
158.99634140973049
 31
0.0
  0
ARC
  5
1FEB
  8
SAPA_FOGBAND
 10
15.300000070830871
 20
158.47155581620461
 30
0.0
 40
0.7999999999999177
 50
359.99999999987989
 51
139.00584821503719
  0
LINE
  5
1FEC
  8
SAPA_FOGBAND
 10
16.100000070830792
 20
158.47155581620291
 30
0.0
 11
16.100000070831239
 21
153.92844418694949
 31
0.0
  0
ARC
  5
1FED
  8
SAPA_FOGBAND
 10
15.300000070829959
 20
153.92844418695
 30
0.0
 40
0.8000000000012796
 50
220.9941517853232
 51
359.99999999996328
  0
LINE
  5
1FEE
  8
SAPA_FOGBAND
 10
14.69617883832427
 20
153.40365859341929
 30
0.0
 11
14.630165802364781
 21
153.47961356098401
 31
0.0
  0
ARC
  5
1FEF
  8
SAPA_FOGBAND
 10
14.01428522595549
 20
153.1011476848885
 30
0.0
 40
0.7228729513317039
 50
31.571215383543251
 51
174.07204825769711
  0
ARC
  5
1FF0
  8
SAPA_FOGBAND
 10
12.795277800562239
 20
153.17580440589961
 30
0.0
 40
0.4999999999998348
 50
201.2170531482634
 51
0.000000003081016
  0
ARC
  5
1FF1
  8
SAPA_FOGBAND
 10
-12.53185015744471
 20
165.79864035400871
 30
0.0
 40
10.06528669776978
 50
339.3189709458573
 51
20.681029053757769
  0
ARC
  5
1FF2
  8
SAPA_FOGBAND
 10
-4.0430939826631862
 20
162.61667775801351
 30
0.0
 40
1.000000000000278
 50
194.92900000233971
 51
338.11497149385258
  0
LINE
  5
1FF3
  8
SAPA_FOGBAND
 10
-5.0093397915933329
 20
162.35905587088931
 30
0.0
 11
-5.1349536485396348
 21
162.65304880685241
 31
0.0
  0
ARC
  5
1FF4
  8
SAPA_FOGBAND
 10
-5.3315552286417294
 20
162.61633615642151
 30
0.0
 40
0.2000000000007536
 50
10.57737838724873
 51
128.7278627767256
  0
LINE
  5
1FF5
  8
SAPA_FOGBAND
 10
-5.4566796493435268
 20
162.77236140868649
 30
0.0
 11
-6.0385686461310106
 21
162.30571564090701
 31
0.0
  0
LINE
  5
1FF6
  8
SAPA_FOGBAND
 10
-6.0385686461310106
 20
162.30571564090701
 30
0.0
 11
-5.8385686461343758
 21
160.74999999936651
 31
0.0
  0
LINE
  5
1FF7
  8
SAPA_FOGBAND
 10
-5.8385686461343758
 20
160.74999999936651
 30
0.0
 11
-7.1371232670584268
 21
161.94424777297189
 31
0.0
  0
ARC
  5
1FF8
  8
SAPA_FOGBAND
 10
-7.3402013144718881
 20
161.72343267688791
 30
0.0
 40
0.2999999999997571
 50
47.396041458162287
 51
160.98497754267621
  0
LINE
  5
1FF9
  8
SAPA_FOGBAND
 10
-7.6238312690564953
 20
161.82117749190229
 30
0.0
 11
-7.961974121948173
 21
160.83997514379479
 31
0.0
  0
LINE
  5
1FFA
  8
SAPA_FOGBAND
 10
-7.961974121948173
 20
160.83997514379479
 30
0.0
 11
-8.9919786882195467
 21
162.52546710003341
 31
0.0
  0
ARC
  5
1FFB
  8
SAPA_FOGBAND
 10
-8.1499999292001686
 20
163.06497777588041
 30
0.0
 40
0.9999999999963328
 50
179.99999999983231
 51
212.6503346422603
  0
LINE
  5
1FFC
  8
SAPA_FOGBAND
 10
-9.1499999291964969
 20
163.06497777588331
 30
0.0
 11
-9.1499999291849008
 21
165.79999999938531
 31
0.0
  0
LINE
  5
1FFD
  8
SAPA_FOGBAND
 10
-9.1499999291849008
 20
165.79999999938531
 30
0.0
 11
-9.1499999291849008
 21
168.2320856049225
 31
0.0
  0
LINE
  5
1FFE
  8
SAPA_FOGBAND
 10
-9.1499999291849008
 20
168.2320856049225
 30
0.0
 11
-9.1499999291853555
 21
168.38801756001931
 31
0.0
  0
LINE
  5
1FFF
  8
SAPA_FOGBAND
 10
-9.1499999291853555
 20
168.38801756001931
 30
0.0
 11
-9.1499999291849008
 21
168.53502222288549
 31
0.0
  0
ARC
  5
2000
  8
SAPA_FOGBAND
 10
-8.1499999291870466
 20
168.53502222288469
 30
0.0
 40
0.9999999999978541
 50
147.3496653575246
 51
179.99999999995279
  0
LINE
  5
2001
  8
SAPA_FOGBAND
 10
-8.9919786882056751
 20
169.0745328987357
 30
0.0
 11
-7.9619741219270281
 21
170.7600248549704
 31
0.0
  0
LINE
  5
2002
  8
SAPA_FOGBAND
 10
-7.9619741219270281
 20
170.7600248549704
 30
0.0
 11
-7.6238312690394423
 21
169.77882250686071
 31
0.0
  0
ARC
  5
2003
  8
SAPA_FOGBAND
 10
-7.3463815833427688
 20
169.8521261140057
 30
0.0
 40
0.2869699407841494
 50
194.79965990396121
 51
316.81932109511268
  0
LINE
  5
2004
  8
SAPA_FOGBAND
 10
-7.1371232670420559
 20
169.65575222579079
 30
0.0
 11
-5.8385686461332389
 21
170.849999999381
 31
0.0
  0
LINE
  5
2005
  8
SAPA_FOGBAND
 10
-5.8385686461332389
 20
170.849999999381
 30
0.0
 11
-6.0385686461307841
 21
169.2942843578405
 31
0.0
  0
LINE
  5
2006
  8
SAPA_FOGBAND
 10
-6.0385686461307841
 20
169.2942843578405
 30
0.0
 11
-5.4566796495063272
 21
168.82763859017169
 31
0.0
  0
ARC
  5
2007
  8
SAPA_FOGBAND
 10
-5.3315552288127064
 20
168.98366384244341
 30
0.0
 40
0.200000000000852
 50
231.27213722629909
 51
349.42262161577992
  0
LINE
  5
2008
  8
SAPA_FOGBAND
 10
-5.1349536487085743
 20
168.94695119202279
 30
0.0
 11
-5.0093397917781877
 21
169.2409441279928
 31
0.0
  0
ARC
  5
2009
  8
SAPA_FOGBAND
 10
-4.0430939828343124
 20
168.98332224092039
 30
0.0
 40
1.0000000000001721
 50
21.885028509220941
 51
165.07100000073609
  0
ARC
  5
200A
  8
SAPA_FOGBAND
 10
-12.569923974292159
 20
165.7986403540107
 30
0.0
 40
9.4033605146161428
 50
340.08007031146019
 51
19.919929688035449
  0
ARC
  5
200B
  8
SAPA_FOGBAND
 10
-4.1952776587544518
 20
162.7758044038753
 30
0.0
 40
0.499999999999983
 50
179.9999999999967
 51
338.78294685481421
  0
ARC
  5
200C
  8
SAPA_FOGBAND
 10
-5.4142850842038843
 20
162.70114768273339
 30
0.0
 40
0.7228729513981734
 50
5.9279517500316601
 51
148.42878462418389
  0
LINE
  5
200D
  8
SAPA_FOGBAND
 10
-6.0301656607208542
 20
163.07961355878069
 30
0.0
 11
-6.0961786966776108
 21
163.00365859121959
 31
0.0
  0
ARC
  5
200E
  8
SAPA_FOGBAND
 10
-6.6999999291855383
 20
163.52844418474569
 30
0.0
 40
0.7999999999999609
 50
179.99999999987179
 51
319.00584821502918
  0
LINE
  5
200F
  8
SAPA_FOGBAND
 10
-7.4999999291854911
 20
163.52844418474751
 30
0.0
 11
-7.4999999291859458
 21
168.0715558140009
 31
0.0
  0
ARC
  5
2010
  8
SAPA_FOGBAND
 10
-6.6999999291845951
 20
168.07155581400019
 30
0.0
 40
0.8000000000013516
 50
40.99415178531283
 51
179.99999999995109
  0
LINE
  5
2011
  8
SAPA_FOGBAND
 10
-6.0961786966787477
 20
168.5963414075309
 30
0.0
 11
-6.0301656607192617
 21
168.52038643996639
 31
0.0
  0
ARC
  5
2012
  8
SAPA_FOGBAND
 10
-5.4142850843100767
 20
168.89885231606189
 30
0.0
 40
0.7228729513315928
 50
211.57121538354599
 51
354.07204825769838
  0
ARC
  5
2013
  8
SAPA_FOGBAND
 10
-4.195277658916944
 20
168.8241955950507
 30
0.0
 40
0.4999999999998348
 50
21.217053148263389
 51
180.000000003081
  0
LINE
  5
2014
  8
SAPA_GLAS
 10
21.291531132784641
 20
226.249999864442
 30
0.0
 11
20.541531132432041
 21
225.4999998640894
 31
0.0
1001
ACAD
1010
0.0
1020
0.0
1030
0.0
  0
LINE
  5
2015
  8
SAPA_GLAS
 10
20.168999117649768
 20
226.24999986444081
 30
0.0
 11
19.418999117298391
 21
225.4999998640894
 31
0.0
1001
ACAD
1010
0.0
1020
0.0
1030
0.0
  0
LINE
  5
2016
  8
SAPA_GLAS
 10
19.046467102514899
 20
226.24999986443959
 30
0.0
 11
18.296467102164751
 21
225.4999998640894
 31
0.0
1001
ACAD
1010
0.0
1020
0.0
1030
0.0
  0
LINE
  5
2017
  8
SAPA_GLAS
 10
17.923935087380041
 20
226.24999986443831
 30
0.0
 11
17.173935087031101
 21
225.4999998640894
 31
0.0
1001
ACAD
1010
0.0
1020
0.0
1030
0.0
  0
LINE
  5
2018
  8
SAPA_GLAS
 10
16.80140307224519
 20
226.2499998644372
 30
0.0
 11
16.05140307189745
 21
225.4999998640894
 31
0.0
1001
ACAD
1010
0.0
1020
0.0
1030
0.0
  0
LINE
  5
2019
  8
SAPA_GLAS
 10
15.678871057110319
 20
226.24999986443601
 30
0.0
 11
14.928871056763819
 21
225.4999998640894
 31
0.0
1001
ACAD
1010
0.0
1020
0.0
1030
0.0
  0
LINE
  5
201A
  8
SAPA_GLAS
 10
14.556339041975461
 20
226.2499998644347
 30
0.0
 11
13.806339041630171
 21
225.4999998640894
 31
0.0
1001
ACAD
1010
0.0
1020
0.0
1030
0.0
  0
LINE
  5
201B
  8
SAPA_GLAS
 10
13.433807026840601
 20
226.24999986443351
 30
0.0
 11
12.68380702649652
 21
225.4999998640894
 31
0.0
1001
ACAD
1010
0.0
1020
0.0
1030
0.0
  0
LINE
  5
201C
  8
SAPA_GLAS
 10
12.31127501170573
 20
226.24999986443231
 30
0.0
 11
11.561275011362881
 21
225.4999998640894
 31
0.0
1001
ACAD
1010
0.0
1020
0.0
1030
0.0
  0
LINE
  5
201D
  8
SAPA_GLAS
 10
11.18874299657088
 20
226.24999986443109
 30
0.0
 11
10.43874299622923
 21
225.4999998640894
 31
0.0
1001
ACAD
1010
0.0
1020
0.0
1030
0.0
  0
LINE
  5
201E
  8
SAPA_GLAS
 10
10.06621098143602
 20
226.24999986442981
 30
0.0
 11
9.3162109810955922
 21
225.4999998640894
 31
0.0
1001
ACAD
1010
0.0
1020
0.0
1030
0.0
  0
LINE
  5
201F
  8
SAPA_GLAS
 10
8.9436789663011496
 20
226.24999986442859
 30
0.0
 11
8.5500000708083377
 21
225.85632096893579
 31
0.0
1001
ACAD
1010
0.0
1020
0.0
1030
0.0
  0
LINE
  5
2020
  8
SAPA_GLAS
 10
21.210821015581939
 20
226.249999864442
 30
0.0
 11
21.35000007081965
 21
226.11082080920431
 31
0.0
1001
ACAD
1010
0.0
1020
0.0
1030
0.0
  0
LINE
  5
2021
  8
SAPA_GLAS
 10
20.08828900044951
 20
226.2499998644407
 30
0.0
 11
20.83828900080081
 21
225.4999998640894
 31
0.0
1001
ACAD
1010
0.0
1020
0.0
1030
0.0
  0
LINE
  5
2022
  8
SAPA_GLAS
 10
18.965756985317089
 20
226.2499998644395
 30
0.0
 11
19.715756985667159
 21
225.4999998640894
 31
0.0
1001
ACAD
1010
0.0
1020
0.0
1030
0.0
  0
LINE
  5
2023
  8
SAPA_GLAS
 10
17.843224970184671
 20
226.24999986443831
 30
0.0
 11
18.59322497053353
 21
225.4999998640894
 31
0.0
1001
ACAD
1010
0.0
1020
0.0
1030
0.0
  0
LINE
  5
2024
  8
SAPA_GLAS
 10
16.720692955052229
 20
226.24999986443709
 30
0.0
 11
17.470692955399869
 21
225.4999998640894
 31
0.0
1001
ACAD
1010
0.0
1020
0.0
1030
0.0
  0
LINE
  5
2025
  8
SAPA_GLAS
 10
15.598160939919801
 20
226.24999986443589
 30
0.0
 11
16.348160940266229
 21
225.4999998640894
 31
0.0
1001
ACAD
1010
0.0
1020
0.0
1030
0.0
  0
LINE
  5
2026
  8
SAPA_GLAS
 10
14.47562892478738
 20
226.24999986443461
 30
0.0
 11
15.22562892513259
 21
225.4999998640894
 31
0.0
1001
ACAD
1010
0.0
1020
0.0
1030
0.0
  0
LINE
  5
2027
  8
SAPA_GLAS
 10
13.35309690965496
 20
226.24999986443339
 30
0.0
 11
14.103096909998939
 21
225.4999998640894
 31
0.0
1001
ACAD
1010
0.0
1020
0.0
1030
0.0
  0
LINE
  5
2028
  8
SAPA_GLAS
 10
12.23056489452253
 20
226.2499998644322
 30
0.0
 11
12.98056489486531
 21
225.4999998640894
 31
0.0
1001
ACAD
1010
0.0
1020
0.0
1030
0.0
  0
LINE
  5
2029
  8
SAPA_GLAS
 10
11.108032879390089
 20
226.249999864431
 30
0.0
 11
11.85803287973166
 21
225.4999998640894
 31
0.0
1001
ACAD
1010
0.0
1020
0.0
1030
0.0
  0
LINE
  5
202A
  8
SAPA_GLAS
 10
9.9855008642576664
 20
226.24999986442981
 30
0.0
 11
10.735500864598009
 21
225.4999998640894
 31
0.0
1001
ACAD
1010
0.0
1020
0.0
1030
0.0
  0
LINE
  5
202B
  8
SAPA_GLAS
 10
8.8629688491252381
 20
226.2499998644285
 30
0.0
 11
9.612968849464373
 21
225.4999998640894
 31
0.0
1001
ACAD
1010
0.0
1020
0.0
1030
0.0
  0
LINE
  5
202C
  8
SAPA_GLAS
 10
21.300535843374959
 20
173.4999998637511
 30
0.0
 11
20.550535843023159
 21
172.7499998633993
 31
0.0
1001
ACAD
1010
0.0
1020
0.0
1030
0.0
  0
LINE
  5
202D
  8
SAPA_GLAS
 10
20.178003828241319
 20
173.4999998637511
 30
0.0
 11
19.428003827890731
 21
172.74999986340049
 31
0.0
1001
ACAD
1010
0.0
1020
0.0
1030
0.0
  0
LINE
  5
202E
  8
SAPA_GLAS
 10
19.055471813107669
 20
173.4999998637511
 30
0.0
 11
18.305471812758309
 21
172.74999986340171
 31
0.0
1001
ACAD
1010
0.0
1020
0.0
1030
0.0
  0
LINE
  5
202F
  8
SAPA_GLAS
 10
17.932939797974019
 20
173.4999998637511
 30
0.0
 11
17.182939797625881
 21
172.74999986340291
 31
0.0
1001
ACAD
1010
0.0
1020
0.0
1030
0.0
  0
LINE
  5
2030
  8
SAPA_GLAS
 10
16.810407782840379
 20
173.4999998637511
 30
0.0
 11
16.060407782493449
 21
172.74999986340421
 31
0.0
1001
ACAD
1010
0.0
1020
0.0
1030
0.0
  0
LINE
  5
2031
  8
SAPA_GLAS
 10
15.687875767706741
 20
173.4999998637511
 30
0.0
 11
14.93787576736101
 21
172.74999986340541
 31
0.0
1001
ACAD
1010
0.0
1020
0.0
1030
0.0
  0
LINE
  5
2032
  8
SAPA_GLAS
 10
14.56534375257309
 20
173.4999998637511
 30
0.0
 11
13.81534375222858
 21
172.7499998634066
 31
0.0
1001
ACAD
1010
0.0
1020
0.0
1030
0.0
  0
LINE
  5
2033
  8
SAPA_GLAS
 10
13.442811737439451
 20
173.4999998637511
 30
0.0
 11
12.692811737096161
 21
172.74999986340779
 31
0.0
1001
ACAD
1010
0.0
1020
0.0
1030
0.0
  0
LINE
  5
2034
  8
SAPA_GLAS
 10
12.3202797223058
 20
173.4999998637511
 30
0.0
 11
11.570279721963731
 21
172.74999986340899
 31
0.0
1001
ACAD
1010
0.0
1020
0.0
1030
0.0
  0
LINE
  5
2035
  8
SAPA_GLAS
 10
11.197747707172161
 20
173.4999998637511
 30
0.0
 11
10.447747706831301
 21
172.74999986341021
 31
0.0
1001
ACAD
1010
0.0
1020
0.0
1030
0.0
  0
LINE
  5
2036
  8
SAPA_GLAS
 10
10.07521569203851
 20
173.4999998637511
 30
0.0
 11
9.3252156916988671
 21
172.7499998634114
 31
0.0
1001
ACAD
1010
0.0
1020
0.0
1030
0.0
  0
LINE
  5
2037
  8
SAPA_GLAS
 10
8.9526836769048721
 20
173.4999998637511
 30
0.0
 11
8.5500000708082826
 21
173.09731625765451
 31
0.0
1001
ACAD
1010
0.0
1020
0.0
1030
0.0
  0
LINE
  5
2038
  8
SAPA_GLAS
 10
21.20181630499145
 20
173.4999998637511
 30
0.0
 11
21.35000007081964
 21
173.35181609792289
 31
0.0
1001
ACAD
1010
0.0
1020
0.0
1030
0.0
  0
LINE
  5
2039
  8
SAPA_GLAS
 10
20.07928428985781
 20
173.4999998637511
 30
0.0
 11
20.829284290209898
 21
172.74999986339901
 31
0.0
1001
ACAD
1010
0.0
1020
0.0
1030
0.0
  0
LINE
  5
203A
  8
SAPA_GLAS
 10
18.95675227472417
 20
173.4999998637511
 30
0.0
 11
19.70675227507504
 21
172.74999986340021
 31
0.0
1001
ACAD
1010
0.0
1020
0.0
1030
0.0
  0
LINE
  5
203B
  8
SAPA_GLAS
 10
17.83422025959052
 20
173.4999998637511
 30
0.0
 11
18.584220259940189
 21
172.7499998634014
 31
0.0
1001
ACAD
1010
0.0
1020
0.0
1030
0.0
  0
LINE
  5
203C
  8
SAPA_GLAS
 10
16.71168824445688
 20
173.4999998637511
 30
0.0
 11
17.46168824480533
 21
172.74999986340259
 31
0.0
1001
ACAD
1010
0.0
1020
0.0
1030
0.0
  0
LINE
  5
203D
  8
SAPA_GLAS
 10
15.58915622932324
 20
173.4999998637511
 30
0.0
 11
16.339156229670468
 21
172.74999986340379
 31
0.0
1001
ACAD
1010
0.0
1020
0.0
1030
0.0
  0
LINE
  5
203E
  8
SAPA_GLAS
 10
14.46662421418959
 20
173.4999998637511
 30
0.0
 11
15.216624214535599
 21
172.74999986340509
 31
0.0
1001
ACAD
1010
0.0
1020
0.0
1030
0.0
  0
LINE
  5
203F
  8
SAPA_GLAS
 10
13.34409219905595
 20
173.4999998637511
 30
0.0
 11
14.094092199400739
 21
172.74999986340629
 31
0.0
1001
ACAD
1010
0.0
1020
0.0
1030
0.0
  0
LINE
  5
2040
  8
SAPA_GLAS
 10
12.22156018392231
 20
173.4999998637511
 30
0.0
 11
12.97156018426589
 21
172.74999986340751
 31
0.0
1001
ACAD
1010
0.0
1020
0.0
1030
0.0
  0
LINE
  5
2041
  8
SAPA_GLAS
 10
11.09902816878866
 20
173.4999998637511
 30
0.0
 11
11.84902816913103
 21
172.7499998634087
 31
0.0
1001
ACAD
1010
0.0
1020
0.0
1030
0.0
  0
LINE
  5
2042
  8
SAPA_GLAS
 10
9.9764961536550185
 20
173.4999998637511
 30
0.0
 11
10.72649615399617
 21
172.7499998634099
 31
0.0
1001
ACAD
1010
0.0
1020
0.0
1030
0.0
  0
LINE
  5
2043
  8
SAPA_GLAS
 10
8.8539641385213752
 20
173.4999998637511
 30
0.0
 11
9.6039641388613042
 21
172.7499998634112
 31
0.0
1001
ACAD
1010
0.0
1020
0.0
1030
0.0
  0
LINE
  5
2044
  8
SAPA_GLAS
 10
40.550000070808771
 20
217.49999986407281
 30
0.0
 11
8.5500000708087782
 21
217.49999986407281
 31
0.0
  0
LINE
  5
2045
  8
SAPA_GLAS
 10
8.5500000708087782
 20
217.49999986407281
 30
0.0
 11
8.5500000708087782
 21
225.49999986407281
 31
0.0
  0
LINE
  5
2046
  8
SAPA_GLAS
 10
8.5500000708087782
 20
225.49999986407281
 30
0.0
 11
40.550000070808771
 21
225.49999986407281
 31
0.0
  0
LINE
  5
2047
  8
SAPA_GLAS
 10
18.550000070808782
 20
217.49999986407281
 30
0.0
 11
18.550000070808782
 21
202.49999986407281
 31
0.0
  0
LINE
  5
2048
  8
SAPA_GLAS
 10
18.550000070808782
 20
202.49999986407281
 30
0.0
 11
8.5500000708087782
 21
202.49999986407281
 31
0.0
  0
LINE
  5
2049
  8
SAPA_GLAS
 10
8.5500000708087782
 20
202.49999986407281
 30
0.0
 11
8.5500000708087782
 21
217.49999986407281
 31
0.0
  0
LINE
  5
204A
  8
SAPA_GLAS
 10
8.5500000708087782
 20
217.49999986407281
 30
0.0
 11
18.550000070808782
 21
217.49999986407281
 31
0.0
  0
LINE
  5
204B
  8
SAPA_GLAS
 10
40.550000070808771
 20
196.49999986407281
 30
0.0
 11
8.5500000708087782
 21
196.49999986407281
 31
0.0
  0
LINE
  5
204C
  8
SAPA_GLAS
 10
8.5500000708087782
 20
196.49999986407281
 30
0.0
 11
8.5500000708087782
 21
202.49999986407281
 31
0.0
  0
LINE
  5
204D
  8
SAPA_GLAS
 10
8.5500000708087782
 20
202.49999986407281
 30
0.0
 11
40.550000070808771
 21
202.49999986407281
 31
0.0
  0
LINE
  5
204E
  8
SAPA_GLAS
 10
18.550000070808782
 20
196.49999986391211
 30
0.0
 11
18.550000070808782
 21
181.499999863912
 31
0.0
  0
LINE
  5
204F
  8
SAPA_GLAS
 10
18.550000070808782
 20
181.499999863912
 30
0.0
 11
8.5500000708087782
 21
181.499999863912
 31
0.0
  0
LINE
  5
2050
  8
SAPA_GLAS
 10
8.5500000708087782
 20
181.499999863912
 30
0.0
 11
8.5500000708087782
 21
196.49999986391211
 31
0.0
  0
LINE
  5
2051
  8
SAPA_GLAS
 10
8.5500000708087782
 20
196.49999986391211
 30
0.0
 11
18.550000070808782
 21
196.49999986391211
 31
0.0
  0
LINE
  5
2052
  8
SAPA_GLAS
 10
40.550000070808771
 20
173.4999998639118
 30
0.0
 11
8.5500000708087782
 21
173.4999998639118
 31
0.0
  0
LINE
  5
2053
  8
SAPA_GLAS
 10
8.5500000708087782
 20
173.4999998639118
 30
0.0
 11
8.5500000708087782
 21
181.4999998639118
 31
0.0
  0
LINE
  5
2054
  8
SAPA_GLAS
 10
8.5500000708087782
 20
181.4999998639118
 30
0.0
 11
40.550000070808771
 21
181.4999998639118
 31
0.0
  0
ARC
  5
2055
  8
SAPA_ISOLATOR
 10
8.0673398404818766
 20
105.5865776208954
 30
0.0
 40
1.3416252492699441
 50
180.79556996069621
 51
208.02441875651701
  0
LINE
  5
2056
  8
SAPA_ISOLATOR
 10
6.883023600106184
 20
104.9562179201998
 30
0.0
 11
7.8758439231354478
 21
103.2366026779259
 31
0.0
  0
LINE
  5
2057
  8
SAPA_ISOLATOR
 10
7.8758439231354478
 20
103.2366026779259
 30
0.0
 11
7.8758439231354478
 21
102.8000001375476
 31
0.0
  0
ARC
  5
2058
  8
SAPA_ISOLATOR
 10
7.6258439231354478
 20
102.8000001375476
 30
0.0
 40
0.25
 50
270.0
 51
0.0
  0
LINE
  5
2059
  8
SAPA_ISOLATOR
 10
7.6258439231354478
 20
102.5500001375476
 30
0.0
 11
4.025831923135569
 21
102.5500001375476
 31
0.0
  0
ARC
  5
205A
  8
SAPA_ISOLATOR
 10
4.0258319231355646
 20
102.8000001375476
 30
0.0
 40
0.25
 50
180.0
 51
270.00000000000102
  0
LINE
  5
205B
  8
SAPA_ISOLATOR
 10
3.775831923135569
 20
102.8000001375476
 30
0.0
 11
3.7758435658710141
 21
103.2366020591257
 31
0.0
  0
LINE
  5
205C
  8
SAPA_ISOLATOR
 10
3.7758435658710141
 20
103.2366020591257
 30
0.0
 11
4.7686642461611646
 21
104.956217920193
 31
0.0
  0
ARC
  5
205D
  8
SAPA_ISOLATOR
 10
3.6484391416673989
 20
105.5701906703527
 30
0.0
 40
1.2774454284535031
 50
331.27374261807108
 51
359.54293099292539
  0
LINE
  5
205E
  8
SAPA_ISOLATOR
 10
4.9258439231356297
 20
105.56000013754741
 30
0.0
 11
4.9258439231356297
 21
139.44000013754749
 31
0.0
  0
ARC
  5
205F
  8
SAPA_ISOLATOR
 10
3.6484391416674029
 20
139.4298096047421
 30
0.0
 40
1.2774454284534991
 50
0.4570690070745981
 51
28.726257381929042
  0
LINE
  5
2060
  8
SAPA_ISOLATOR
 10
4.7686642461611646
 20
140.04378235490179
 30
0.0
 11
3.7758435658710141
 21
141.76339821596909
 31
0.0
  0
LINE
  5
2061
  8
SAPA_ISOLATOR
 10
3.7758435658710141
 20
141.76339821596909
 30
0.0
 11
3.775831923135569
 21
142.20000013754719
 31
0.0
  0
ARC
  5
2062
  8
SAPA_ISOLATOR
 10
4.0258319231355664
 20
142.20000013754719
 30
0.0
 40
0.2499999999999964
 50
89.999999999999204
 51
180.0
  0
LINE
  5
2063
  8
SAPA_ISOLATOR
 10
4.025831923135569
 20
142.45000013754719
 30
0.0
 11
7.6258439231354478
 21
142.45000013754719
 31
0.0
  0
ARC
  5
2064
  8
SAPA_ISOLATOR
 10
7.6258439231354478
 20
142.20000013754719
 30
0.0
 40
0.25
 50
0.0
 51
90.0
  0
LINE
  5
2065
  8
SAPA_ISOLATOR
 10
7.8758439231354478
 20
142.20000013754719
 30
0.0
 11
7.8758439231354478
 21
141.7633975971689
 31
0.0
  0
LINE
  5
2066
  8
SAPA_ISOLATOR
 10
7.8758439231354478
 20
141.7633975971689
 30
0.0
 11
6.883023600106184
 21
140.043782354895
 31
0.0
  0
ARC
  5
2067
  8
SAPA_ISOLATOR
 10
8.0673398404818766
 20
139.41342265419939
 30
0.0
 40
1.341625249269941
 50
151.9755812434835
 51
179.20443003930441
  0
LINE
  5
2068
  8
SAPA_ISOLATOR
 10
6.7258439231358116
 20
139.43205094511629
 30
0.0
 11
6.7258439231358116
 21
105.5679493299785
 31
0.0
  0
ARC
  5
2069
  8
SAPA_PROFIL
 10
-1.1499999291801479
 20
219.74386890487619
 30
0.0
 40
0.2999999999992495
 50
179.99999999997829
 51
234.37993024083869
  0
ARC
  5
206A
  8
SAPA_PROFIL
 10
-1.499444579239493
 20
219.25613082296789
 30
0.0
 40
0.2999999999996209
 50
359.99999999989677
 51
54.37993024357997
  0
LINE
  5
206B
  8
SAPA_PROFIL
 10
-1.199444579239866
 20
219.25613082296741
 30
0.0
 11
-1.199444579239866
 21
218.2999998639321
 31
0.0
  0
ARC
  5
206C
  8
SAPA_PROFIL
 10
-1.499444579244493
 20
218.29999986392659
 30
0.0
 40
0.3000000000046272
 50
297.12809249334998
 51
0.0000000010313479
  0
ARC
  5
206D
  8
SAPA_PROFIL
 10
-1.2258557814899791
 20
217.76600625933111
 30
0.0
 40
0.3000000000001489
 50
117.1280924933133
 51
179.99999999995109
  0
LINE
  5
206E
  8
SAPA_PROFIL
 10
-1.5258557814901219
 20
217.76600625933139
 30
0.0
 11
-1.525855781489212
 21
215.58845790437411
 31
0.0
  0
ARC
  5
206F
  8
SAPA_PROFIL
 10
-1.225855781488624
 20
215.58845790437391
 30
0.0
 40
0.3000000000005882
 50
179.9999999999728
 51
199.99999999973531
  0
LINE
  5
2070
  8
SAPA_PROFIL
 10
-1.5077635677254191
 20
215.4858518613774
 30
0.0
 11
-0.9882495000503013
 21
214.05849869133181
 31
0.0
  0
ARC
  5
2071
  8
SAPA_PROFIL
 10
-0.7063417138095001
 20
214.16110473433639
 30
0.0
 40
0.3000000000070799
 50
200.00000000090699
 51
290.00000000026381
  0
LINE
  5
2072
  8
SAPA_PROFIL
 10
-0.6037356708080779
 20
213.8791969480944
 30
0.0
 11
-0.4157971466594291
 21
213.9476009767659
 31
0.0
  0
ARC
  5
2073
  8
SAPA_PROFIL
 10
-0.5184031896489549
 20
214.2295087629978
 30
0.0
 40
0.2999999999935362
 50
289.99999999878793
 51
19.999999998769511
  0
LINE
  5
2074
  8
SAPA_PROFIL
 10
-0.2364954034170523
 20
214.3321148059872
 30
0.0
 11
-0.6127175610837412
 21
215.36577668885641
 31
0.0
  0
ARC
  5
2075
  8
SAPA_PROFIL
 10
-0.3308097748463078
 20
215.46838273184849
 30
0.0
 40
0.2999999999996477
 50
109.99999999763951
 51
199.99999999888769
  0
LINE
  5
2076
  8
SAPA_PROFIL
 10
-0.4334158178322696
 20
215.75029051808809
 30
0.0
 11
1.3767742615062839
 21
216.4091458253238
 31
0.0
  0
ARC
  5
2077
  8
SAPA_PROFIL
 10
1.2741682185095531
 20
216.69105361156011
 30
0.0
 40
0.3000000000001667
 50
289.99999999979121
 51
0.0000000000162844
  0
LINE
  5
2078
  8
SAPA_PROFIL
 10
1.5741682185097261
 20
216.69105361156019
 30
0.0
 11
1.5741682185097261
 21
217.11076937937921
 31
0.0
  0
ARC
  5
2079
  8
SAPA_PROFIL
 10
1.274168218510465
 20
217.11076937937941
 30
0.0
 40
0.2999999999992611
 50
359.99999999997829
 51
29.999999999975849
  0
LINE
  5
207A
  8
SAPA_PROFIL
 10
1.5339758396452221
 20
217.2607693793789
 30
0.0
 11
0.6741682185096352
 21
218.74999986392001
 31
0.0
  0
LINE
  5
207B
  8
SAPA_PROFIL
 10
0.6741682185096352
 20
218.74999986392001
 30
0.0
 11
0.6741562185101202
 21
219.19999986392031
 31
0.0
  0
ARC
  5
207C
  8
SAPA_PROFIL
 10
0.9741562185100695
 20
219.19999986392011
 30
0.0
 40
0.2999999999999493
 50
89.999999999955591
 51
179.99999999995649
  0
LINE
  5
207D
  8
SAPA_PROFIL
 10
0.974156218510302
 20
219.49999986392001
 30
0.0
 11
4.57416821851018
 21
219.49999986392001
 31
0.0
  0
ARC
  5
207E
  8
SAPA_PROFIL
 10
4.5741682185104082
 20
219.19999986392011
 30
0.0
 40
0.2999999999999545
 50
0.0000000000434252
 51
90.000000000043414
  0
LINE
  5
207F
  8
SAPA_PROFIL
 10
4.8741682185103619
 20
219.19999986392031
 30
0.0
 11
4.874168218509908
 21
218.74999986392001
 31
0.0
  0
LINE
  5
2080
  8
SAPA_PROFIL
 10
4.874168218509908
 20
218.74999986392001
 30
0.0
 11
4.0143434809409646
 21
217.26073973284559
 31
0.0
  0
ARC
  5
2081
  8
SAPA_PROFIL
 10
4.2741511020758578
 20
217.11073973284579
 30
0.0
 40
0.2999999999995521
 50
149.9999999999807
 51
179.9963531325393
  0
LINE
  5
2082
  8
SAPA_PROFIL
 10
3.974151102684004
 20
217.11075882779909
 30
0.0
 11
3.9741440528931662
 21
216.99999986392189
 31
0.0
  0
LINE
  5
2083
  8
SAPA_PROFIL
 10
3.9741440528931662
 20
216.99999986392189
 30
0.0
 11
6.0500000708096868
 21
216.99999986392189
 31
0.0
  0
ARC
  5
2084
  8
SAPA_PROFIL
 10
6.0500000708096868
 20
217.49999986392189
 30
0.0
 40
0.5
 50
270.0
 51
0.0
  0
LINE
  5
2085
  8
SAPA_PROFIL
 10
6.5500000708096868
 20
217.49999986392189
 30
0.0
 11
6.5500000708096868
 21
222.74999986358719
 31
0.0
  0
ARC
  5
2086
  8
SAPA_PROFIL
 10
6.0500000708096868
 20
222.74999986358719
 30
0.0
 40
0.5
 50
0.0
 51
90.0
  0
LINE
  5
2087
  8
SAPA_PROFIL
 10
6.0500000708096868
 20
223.24999986358719
 30
0.0
 11
5.5500000672262777
 21
223.24999986358719
 31
0.0
  0
ARC
  5
2088
  8
SAPA_PROFIL
 10
5.5500000672262777
 20
222.74999986358719
 30
0.0
 40
0.5
 50
90.0
 51
180.0
  0
LINE
  5
2089
  8
SAPA_PROFIL
 10
5.0500000672262777
 20
222.74999986358719
 30
0.0
 11
5.0500000672217311
 21
221.74999986318019
 31
0.0
  0
LINE
  5
208A
  8
SAPA_PROFIL
 10
5.0500000672217311
 20
221.74999986318019
 30
0.0
 11
1.85000006676671
 21
221.74999986317559
 31
0.0
  0
LINE
  5
208B
  8
SAPA_PROFIL
 10
1.85000006676671
 20
221.74999986317559
 30
0.0
 11
1.8500000667748959
 21
226.2499998640815
 31
0.0
  0
LINE
  5
208C
  8
SAPA_PROFIL
 10
1.8500000667748959
 20
226.2499998640815
 30
0.0
 11
21.350000070820329
 21
226.2499998641033
 31
0.0
  0
ARC
  5
208D
  8
SAPA_PROFIL
 10
21.350000070820549
 20
226.44999986410389
 30
0.0
 40
0.2000000000005855
 50
269.99999999993793
 51
15.60191674439071
  0
ARC
  5
208E
  8
SAPA_PROFIL
 10
20.579477214861431
 20
226.2348382308023
 30
0.0
 40
1.0000000000008269
 50
15.601916744518119
 51
83.756411541476027
  0
ARC
  5
208F
  8
SAPA_PROFIL
 10
6.5500000706330246
 20
97.999999859459763
 30
0.0
 40
130.0000000041278
 50
83.756411541411225
 51
89.999999999912916
  0
LINE
  5
2090
  8
SAPA_PROFIL
 10
6.5500000708306061
 20
227.99999986358759
 30
0.0
 11
1.5500000709115509
 21
227.99999986372541
 31
0.0
  0
ARC
  5
2091
  8
SAPA_PROFIL
 10
1.550000070820589
 20
224.99999986372541
 30
0.0
 40
3.0
 50
89.999999998262751
 51
180.0
  0
LINE
  5
2092
  8
SAPA_PROFIL
 10
-1.4499999291793979
 20
224.99999986372541
 30
0.0
 11
-1.4499999291793979
 21
219.74386890487631
 31
0.0
  0
ARC
  5
2093
  8
SAPA_ISOLATOR
 10
0.5326603011638738
 20
216.41342238057209
 30
0.0
 40
1.341625249269945
 50
0.7955699606955841
 51
28.02441875651639
  0
LINE
  5
2094
  8
SAPA_ISOLATOR
 10
1.716976541539565
 20
217.04378208126761
 30
0.0
 11
0.7241562185103021
 21
218.76339732354151
 31
0.0
  0
LINE
  5
2095
  8
SAPA_ISOLATOR
 10
0.7241562185103021
 20
218.76339732354151
 30
0.0
 11
0.7241562185103021
 21
219.19999986392031
 31
0.0
  0
ARC
  5
2096
  8
SAPA_ISOLATOR
 10
0.974156218510302
 20
219.19999986392031
 30
0.0
 40
0.25
 50
90.0
 51
180.0
  0
LINE
  5
2097
  8
SAPA_ISOLATOR
 10
0.974156218510302
 20
219.44999986392031
 30
0.0
 11
4.57416821851018
 21
219.44999986392031
 31
0.0
  0
ARC
  5
2098
  8
SAPA_ISOLATOR
 10
4.5741682185101853
 20
219.19999986392031
 30
0.0
 40
0.25
 50
0.0
 51
90.000000000001023
  0
LINE
  5
2099
  8
SAPA_ISOLATOR
 10
4.82416821851018
 20
219.19999986392031
 30
0.0
 11
4.8241565757747358
 21
218.7633979423417
 31
0.0
  0
LINE
  5
209A
  8
SAPA_ISOLATOR
 10
4.8241565757747358
 20
218.7633979423417
 30
0.0
 11
3.8313358954845849
 21
217.043782081274
 31
0.0
  0
ARC
  5
209B
  8
SAPA_ISOLATOR
 10
4.951560999977449
 20
216.42980933111451
 30
0.0
 40
1.2774454284526029
 50
151.27374261806051
 51
179.54293099291479
  0
LINE
  5
209C
  8
SAPA_ISOLATOR
 10
3.6741562185101202
 20
216.43999986392009
 30
0.0
 11
3.6741562185101202
 21
182.55999986392001
 31
0.0
  0
ARC
  5
209D
  8
SAPA_ISOLATOR
 10
4.9515609999774428
 20
182.57019039672559
 30
0.0
 40
1.277445428452598
 50
180.4570690070851
 51
208.72625738193949
  0
LINE
  5
209E
  8
SAPA_ISOLATOR
 10
3.8313358954845849
 20
181.9562176465661
 30
0.0
 11
4.8241565757747358
 21
180.23660178549829
 31
0.0
  0
LINE
  5
209F
  8
SAPA_ISOLATOR
 10
4.8241565757747358
 20
180.23660178549829
 30
0.0
 11
4.82416821851018
 21
179.79999986391971
 31
0.0
  0
ARC
  5
20A0
  8
SAPA_ISOLATOR
 10
4.5741682185101844
 20
179.79999986391971
 30
0.0
 40
0.2499999999999964
 50
269.9999999999992
 51
0.0
  0
LINE
  5
20A1
  8
SAPA_ISOLATOR
 10
4.57416821851018
 20
179.54999986391971
 30
0.0
 11
0.974156218510302
 21
179.54999986391971
 31
0.0
  0
ARC
  5
20A2
  8
SAPA_ISOLATOR
 10
0.9741562185103019
 20
179.79999986391971
 30
0.0
 40
0.25
 50
180.0
 51
270.00000000000011
  0
LINE
  5
20A3
  8
SAPA_ISOLATOR
 10
0.7241562185103021
 20
179.79999986391971
 30
0.0
 11
0.7241562185103021
 21
180.23660240429851
 31
0.0
  0
LINE
  5
20A4
  8
SAPA_ISOLATOR
 10
0.7241562185103021
 20
180.23660240429851
 30
0.0
 11
1.716976541539565
 21
181.95621764657241
 31
0.0
  0
ARC
  5
20A5
  8
SAPA_ISOLATOR
 10
0.5326603011638738
 20
182.58657734726799
 30
0.0
 40
1.341625249269941
 50
331.97558124348359
 51
359.2044300393045
  0
LINE
  5
20A6
  8
SAPA_ISOLATOR
 10
1.8741562185099381
 20
182.5679490563511
 30
0.0
 11
1.8741562185099381
 21
216.43205067148889
 31
0.0
  0
ARC
  5
20A7
  8
SAPA_PROFIL
 10
-1.1499999291801479
 20
179.25613082296391
 30
0.0
 40
0.2999999999992495
 50
125.6200697591613
 51
180.00000000002171
  0
ARC
  5
20A8
  8
SAPA_PROFIL
 10
-1.499444579239493
 20
179.7438689048721
 30
0.0
 40
0.2999999999996209
 50
305.62006975642009
 51
0.0000000001031348
  0
LINE
  5
20A9
  8
SAPA_PROFIL
 10
-1.199444579239866
 20
179.7438689048727
 30
0.0
 11
-1.199444579239866
 21
180.699999863908
 31
0.0
  0
ARC
  5
20AA
  8
SAPA_PROFIL
 10
-1.499444579244493
 20
180.6999998639134
 30
0.0
 40
0.3000000000046272
 50
359.99999999896869
 51
62.871907506649968
  0
ARC
  5
20AB
  8
SAPA_PROFIL
 10
-1.2258557814899791
 20
181.233993468509
 30
0.0
 40
0.3000000000001489
 50
180.0000000000488
 51
242.8719075066866
  0
LINE
  5
20AC
  8
SAPA_PROFIL
 10
-1.5258557814901219
 20
181.23399346850869
 30
0.0
 11
-1.525855781489212
 21
183.411541823466
 31
0.0
  0
ARC
  5
20AD
  8
SAPA_PROFIL
 10
-1.225855781488624
 20
183.41154182346611
 30
0.0
 40
0.3000000000005882
 50
160.00000000026461
 51
180.00000000002709
  0
LINE
  5
20AE
  8
SAPA_PROFIL
 10
-1.5077635677254191
 20
183.51414786646271
 30
0.0
 11
-0.9882495000503013
 21
184.9415010365083
 31
0.0
  0
ARC
  5
20AF
  8
SAPA_PROFIL
 10
-0.7063417138095001
 20
184.83889499350369
 30
0.0
 40
0.3000000000070799
 50
69.999999999736204
 51
159.99999999909301
  0
LINE
  5
20B0
  8
SAPA_PROFIL
 10
-0.6037356708080779
 20
185.12080277974559
 30
0.0
 11
-0.4157971466594291
 21
185.05239875107421
 31
0.0
  0
ARC
  5
20B1
  8
SAPA_PROFIL
 10
-0.5184031896489549
 20
184.77049096484231
 30
0.0
 40
0.2999999999935362
 50
340.00000000123049
 51
70.000000001212143
  0
LINE
  5
20B2
  8
SAPA_PROFIL
 10
-0.2364954034170523
 20
184.6678849218529
 30
0.0
 11
-0.6127175610837412
 21
183.63422303898369
 31
0.0
  0
ARC
  5
20B3
  8
SAPA_PROFIL
 10
-0.3308097748463078
 20
183.53161699599161
 30
0.0
 40
0.2999999999996477
 50
160.00000000111231
 51
250.00000000236051
  0
LINE
  5
20B4
  8
SAPA_PROFIL
 10
-0.4334158178322696
 20
183.2497092097519
 30
0.0
 11
1.3767742615062839
 21
182.5908539025163
 31
0.0
  0
ARC
  5
20B5
  8
SAPA_PROFIL
 10
1.2741682185095531
 20
182.30894611628
 30
0.0
 40
0.3000000000001667
 50
359.99999999998369
 51
70.0000000002088
  0
LINE
  5
20B6
  8
SAPA_PROFIL
 10
1.5741682185097261
 20
182.30894611627991
 30
0.0
 11
1.5741682185097261
 21
181.88923034846081
 31
0.0
  0
ARC
  5
20B7
  8
SAPA_PROFIL
 10
1.274168218510465
 20
181.8892303484607
 30
0.0
 40
0.2999999999992611
 50
330.00000000002422
 51
0.0000000000217126
  0
LINE
  5
20B8
  8
SAPA_PROFIL
 10
1.5339758396452221
 20
181.73923034846121
 30
0.0
 11
0.6741682185096352
 21
180.24999986392001
 31
0.0
  0
LINE
  5
20B9
  8
SAPA_PROFIL
 10
0.6741682185096352
 20
180.24999986392001
 30
0.0
 11
0.6741562185101202
 21
179.79999986391971
 31
0.0
  0
ARC
  5
20BA
  8
SAPA_PROFIL
 10
0.9741562185100695
 20
179.79999986391999
 30
0.0
 40
0.2999999999999493
 50
180.0000000000434
 51
270.00000000004451
  0
LINE
  5
20BB
  8
SAPA_PROFIL
 10
0.974156218510302
 20
179.49999986392001
 30
0.0
 11
4.57416821851018
 21
179.49999986392001
 31
0.0
  0
ARC
  5
20BC
  8
SAPA_PROFIL
 10
4.5741682185104082
 20
179.79999986391999
 30
0.0
 40
0.2999999999999545
 50
269.99999999995657
 51
359.99999999995657
  0
LINE
  5
20BD
  8
SAPA_PROFIL
 10
4.8741682185103619
 20
179.79999986391971
 30
0.0
 11
4.874168218509908
 21
180.24999986392001
 31
0.0
  0
LINE
  5
20BE
  8
SAPA_PROFIL
 10
4.874168218509908
 20
180.24999986392001
 30
0.0
 11
4.0143434809409646
 21
181.7392599949944
 31
0.0
  0
ARC
  5
20BF
  8
SAPA_PROFIL
 10
4.2741511020758578
 20
181.88925999499429
 30
0.0
 40
0.2999999999995521
 50
180.0036468674607
 51
210.0000000000193
  0
LINE
  5
20C0
  8
SAPA_PROFIL
 10
3.974151102684004
 20
181.8892409000409
 30
0.0
 11
3.9741440528931662
 21
181.99999986391819
 31
0.0
  0
LINE
  5
20C1
  8
SAPA_PROFIL
 10
3.9741440528931662
 20
181.99999986391819
 30
0.0
 11
6.0500000708096868
 21
181.99999986391819
 31
0.0
  0
ARC
  5
20C2
  8
SAPA_PROFIL
 10
6.0500000708096868
 20
181.49999986391819
 30
0.0
 40
0.5
 50
0.0
 51
90.0
  0
LINE
  5
20C3
  8
SAPA_PROFIL
 10
6.5500000708096868
 20
181.49999986391819
 30
0.0
 11
6.5500000708096868
 21
176.24999986425291
 31
0.0
  0
ARC
  5
20C4
  8
SAPA_PROFIL
 10
6.0500000708096868
 20
176.24999986425291
 30
0.0
 40
0.5
 50
270.0
 51
0.0
  0
LINE
  5
20C5
  8
SAPA_PROFIL
 10
6.0500000708096868
 20
175.74999986425291
 30
0.0
 11
5.5500000672262777
 21
175.74999986425291
 31
0.0
  0
ARC
  5
20C6
  8
SAPA_PROFIL
 10
5.5500000672262777
 20
176.24999986425291
 30
0.0
 40
0.5
 50
180.0
 51
270.0
  0
LINE
  5
20C7
  8
SAPA_PROFIL
 10
5.0500000672262777
 20
176.24999986425291
 30
0.0
 11
5.0500000672217311
 21
177.24999986465991
 31
0.0
  0
LINE
  5
20C8
  8
SAPA_PROFIL
 10
5.0500000672217311
 20
177.24999986465991
 30
0.0
 11
1.85000006676671
 21
177.2499998646644
 31
0.0
  0
LINE
  5
20C9
  8
SAPA_PROFIL
 10
1.85000006676671
 20
177.2499998646644
 30
0.0
 11
1.8500000667748959
 21
172.7499998637586
 31
0.0
  0
LINE
  5
20CA
  8
SAPA_PROFIL
 10
1.8500000667748959
 20
172.7499998637586
 30
0.0
 11
21.350000070820329
 21
172.7499998637368
 31
0.0
  0
ARC
  5
20CB
  8
SAPA_PROFIL
 10
21.350000070820549
 20
172.54999986373619
 30
0.0
 40
0.2000000000005855
 50
344.39808325560932
 51
90.000000000062073
  0
ARC
  5
20CC
  8
SAPA_PROFIL
 10
20.579477214861431
 20
172.76516149703781
 30
0.0
 40
1.0000000000008269
 50
276.24358845852402
 51
344.39808325548188
  0
ARC
  5
20CD
  8
SAPA_PROFIL
 10
6.5500000706330246
 20
300.99999986838031
 30
0.0
 40
130.0000000041278
 50
270.00000000008708
 51
276.24358845858882
  0
LINE
  5
20CE
  8
SAPA_PROFIL
 10
6.5500000708306061
 20
170.9999998642524
 30
0.0
 11
1.5500000709115509
 21
170.99999986411461
 31
0.0
  0
ARC
  5
20CF
  8
SAPA_PROFIL
 10
1.550000070820589
 20
173.99999986411461
 30
0.0
 40
3.0
 50
180.0
 51
270.00000000173719
  0
LINE
  5
20D0
  8
SAPA_PROFIL
 10
-1.4499999291793979
 20
173.99999986411461
 30
0.0
 11
-1.4499999291793979
 21
179.25613082296371
 31
0.0
  0
ARC
  5
20D1
  8
SAPA_PROFIL
 10
9.7500000708261272
 20
142.74386904272461
 30
0.0
 40
0.2999999999992493
 50
305.6200697591612
 51
0.0000000000217126
  0
ARC
  5
20D2
  8
SAPA_PROFIL
 10
10.099444720885471
 20
142.25613096081639
 30
0.0
 40
0.2999999999996205
 50
125.62006975641989
 51
180.00000000010311
  0
LINE
  5
20D3
  8
SAPA_PROFIL
 10
9.7994447208858446
 20
142.25613096081591
 30
0.0
 11
9.7994447208858446
 21
141.30000000178049
 31
0.0
  0
ARC
  5
20D4
  8
SAPA_PROFIL
 10
10.09944472089084
 20
141.30000000177489
 30
0.0
 40
0.3000000000049994
 50
179.9999999989252
 51
242.8719075066065
  0
ARC
  5
20D5
  8
SAPA_PROFIL
 10
9.8258559231359577
 20
140.7660063971791
 30
0.0
 40
0.3000000000001489
 50
0.0000000000488533
 51
62.871907506686632
  0
LINE
  5
20D6
  8
SAPA_PROFIL
 10
10.125855923136101
 20
140.7660063971793
 30
0.0
 11
10.125855923135189
 21
138.5884580422221
 31
0.0
  0
ARC
  5
20D7
  8
SAPA_PROFIL
 10
9.8258559231358902
 20
138.58845804222219
 30
0.0
 40
0.299999999999299
 50
340.00000000022118
 51
359.99999999998369
  0
LINE
  5
20D8
  8
SAPA_PROFIL
 10
10.107763709371399
 20
138.48585199922579
 30
0.0
 11
9.5882496416962795
 21
137.05849882918031
 31
0.0
  0
ARC
  5
20D9
  8
SAPA_PROFIL
 10
9.3063418554554787
 20
137.16110487218481
 30
0.0
 40
0.3000000000070795
 50
249.9999999997361
 51
339.99999999909301
  0
LINE
  5
20DA
  8
SAPA_PROFIL
 10
9.203735812454056
 20
136.87919708594291
 30
0.0
 11
9.0157972883054072
 21
136.94760111461389
 31
0.0
  0
ARC
  5
20DB
  8
SAPA_PROFIL
 10
9.1184033312951591
 20
137.22950890084601
 30
0.0
 40
0.2999999999938278
 50
160.0000000012046
 51
250.00000000118609
  0
LINE
  5
20DC
  8
SAPA_PROFIL
 10
8.8364955450630305
 20
137.33211494383571
 30
0.0
 11
9.2127177027297193
 21
138.3657768267048
 31
0.0
  0
ARC
  5
20DD
  8
SAPA_PROFIL
 10
8.9308099164925139
 20
138.46838286969671
 30
0.0
 40
0.2999999999993558
 50
340.00000000113818
 51
70.000000002386528
  0
LINE
  5
20DE
  8
SAPA_PROFIL
 10
9.0334159594782477
 20
138.7502906559362
 30
0.0
 11
7.2232258801396929
 21
139.40914596317219
 31
0.0
  0
ARC
  5
20DF
  8
SAPA_PROFIL
 10
7.3258319231360991
 20
139.6910537494083
 30
0.0
 40
0.2999999999998419
 50
180.00000000002709
 51
250.0000000002523
  0
LINE
  5
20E0
  8
SAPA_PROFIL
 10
7.025831923136252
 20
139.69105374940821
 30
0.0
 11
7.025831923136252
 21
140.11076951722771
 31
0.0
  0
ARC
  5
20E1
  8
SAPA_PROFIL
 10
7.325831923136362
 20
140.11076951722799
 30
0.0
 40
0.30000000000011
 50
150.00000000006759
 51
180.00000000006511
  0
LINE
  5
20E2
  8
SAPA_PROFIL
 10
7.0660243020007547
 20
140.2607695172278
 30
0.0
 11
7.9258319231363421
 21
141.75000000176851
 31
0.0
  0
LINE
  5
20E3
  8
SAPA_PROFIL
 10
7.9258319231363421
 20
141.75000000176851
 30
0.0
 11
7.9258439231358571
 21
142.2000000017683
 31
0.0
  0
ARC
  5
20E4
  8
SAPA_PROFIL
 10
7.6258439231356814
 20
142.2000000017683
 30
0.0
 40
0.3000000000001766
 50
0.0
 51
90.000000000001023
  0
LINE
  5
20E5
  8
SAPA_PROFIL
 10
7.6258439231356761
 20
142.50000000176851
 30
0.0
 11
4.0258319231357973
 21
142.50000000176851
 31
0.0
  0
ARC
  5
20E6
  8
SAPA_PROFIL
 10
4.0258319231357973
 20
142.2000000017683
 30
0.0
 40
0.3000000000001819
 50
90.0
 51
180.0
  0
LINE
  5
20E7
  8
SAPA_PROFIL
 10
3.725831923135615
 20
142.2000000017683
 30
0.0
 11
3.7258319231360701
 21
141.75000000176851
 31
0.0
  0
LINE
  5
20E8
  8
SAPA_PROFIL
 10
3.7258319231360701
 20
141.75000000176851
 30
0.0
 11
4.5856566607050118
 21
140.26073987069461
 31
0.0
  0
ARC
  5
20E9
  8
SAPA_PROFIL
 10
4.3258490395692712
 20
140.11073987069449
 30
0.0
 40
0.3000000000004004
 50
0.0036468674172547
 51
29.999999999975909
  0
LINE
  5
20EA
  8
SAPA_PROFIL
 10
4.6258490389619729
 20
140.11075896564759
 30
0.0
 11
4.6258560887528111
 21
140.0000000017703
 31
0.0
  0
LINE
  5
20EB
  8
SAPA_PROFIL
 10
4.6258560887528111
 20
140.0000000017703
 30
0.0
 11
2.55000007083629
 21
140.0000000017703
 31
0.0
  0
ARC
  5
20EC
  8
SAPA_PROFIL
 10
2.5500000708362891
 20
140.5000000017703
 30
0.0
 40
0.5
 50
180.0
 51
270.00000000000011
  0
LINE
  5
20ED
  8
SAPA_PROFIL
 10
2.05000007083629
 20
140.5000000017703
 30
0.0
 11
2.05000007083629
 21
145.75000000143561
 31
0.0
  0
ARC
  5
20EE
  8
SAPA_PROFIL
 10
2.55000007083629
 20
145.75000000143561
 30
0.0
 40
0.5
 50
90.0
 51
180.0
  0
LINE
  5
20EF
  8
SAPA_PROFIL
 10
2.55000007083629
 20
146.25000000143561
 30
0.0
 11
3.0500000744196991
 21
146.25000000143561
 31
0.0
  0
ARC
  5
20F0
  8
SAPA_PROFIL
 10
3.0500000744196991
 20
145.75000000143561
 30
0.0
 40
0.5
 50
0.0
 51
90.0
  0
LINE
  5
20F1
  8
SAPA_PROFIL
 10
3.5500000744196991
 20
145.75000000143561
 30
0.0
 11
3.550000074424247
 21
144.75000000102821
 31
0.0
  0
LINE
  5
20F2
  8
SAPA_PROFIL
 10
3.550000074424247
 20
144.75000000102821
 30
0.0
 11
6.7500000748792672
 21
144.75000000102449
 31
0.0
  0
LINE
  5
20F3
  8
SAPA_PROFIL
 10
6.7500000748792672
 20
144.75000000102449
 30
0.0
 11
6.7500000748710809
 21
149.2500000019304
 31
0.0
  0
LINE
  5
20F4
  8
SAPA_PROFIL
 10
6.7500000748710809
 20
149.2500000019304
 30
0.0
 11
-12.749999929174351
 21
149.25000000195129
 31
0.0
  0
ARC
  5
20F5
  8
SAPA_PROFIL
 10
-12.749999929174219
 20
149.4500000019523
 30
0.0
 40
0.2000000000010402
 50
164.3980832555105
 51
269.99999999996282
  0
ARC
  5
20F6
  8
SAPA_PROFIL
 10
-11.979477073215779
 20
149.234838368651
 30
0.0
 40
1.0000000000005651
 50
96.243588458506252
 51
164.39808325546409
  0
ARC
  5
20F7
  8
SAPA_PROFIL
 10
2.0500000710129518
 20
20.99999999730824
 30
0.0
 40
130.0000000041278
 50
90.000000000087084
 51
96.243588458588775
  0
LINE
  5
20F8
  8
SAPA_PROFIL
 10
2.0500000708153721
 20
151.00000000143609
 30
0.0
 11
7.050000070734427
 21
151.00000000157391
 31
0.0
  0
ARC
  5
20F9
  8
SAPA_PROFIL
 10
7.050000070825388
 20
148.0000000015738
 30
0.0
 40
3.0
 50
0.0
 51
90.000000001737249
  0
LINE
  5
20FA
  8
SAPA_PROFIL
 10
10.05000007082538
 20
148.0000000015738
 30
0.0
 11
10.05000007082538
 21
142.74386904272481
 31
0.0
  0
ARC
  5
20FB
  8
SAPA_PROFIL
 10
9.7500000708258998
 20
102.2561310965912
 30
0.0
 40
0.2999999999992493
 50
359.99999999998101
 51
54.379930240840288
  0
ARC
  5
20FC
  8
SAPA_PROFIL
 10
10.09944472088524
 20
102.74386917849949
 30
0.0
 40
0.2999999999996205
 50
179.99999999989689
 51
234.37993024358011
  0
LINE
  5
20FD
  8
SAPA_PROFIL
 10
9.7994447208856172
 20
102.74386917850001
 30
0.0
 11
9.7994447208856172
 21
103.7000001375354
 31
0.0
  0
ARC
  5
20FE
  8
SAPA_PROFIL
 10
10.09944472089062
 20
103.700000137541
 30
0.0
 40
0.3000000000049994
 50
117.1280924933934
 51
180.00000000107471
  0
ARC
  5
20FF
  8
SAPA_PROFIL
 10
9.8258559231357303
 20
104.2339937421368
 30
0.0
 40
0.3000000000001489
 50
297.12809249331337
 51
359.99999999995123
  0
LINE
  5
2100
  8
SAPA_PROFIL
 10
10.12585592313587
 20
104.2339937421366
 30
0.0
 11
10.12585592313496
 21
106.4115420970938
 31
0.0
  0
ARC
  5
2101
  8
SAPA_PROFIL
 10
9.8258559231356646
 20
106.4115420970937
 30
0.0
 40
0.299999999999299
 50
0.0000000000189985
 51
19.999999999781309
  0
LINE
  5
2102
  8
SAPA_PROFIL
 10
10.10776370937117
 20
106.5141481400901
 30
0.0
 11
9.5882496416960521
 21
107.94150131013561
 31
0.0
  0
ARC
  5
2103
  8
SAPA_PROFIL
 10
9.3063418554552513
 20
107.83889526713109
 30
0.0
 40
0.3000000000070746
 50
20.000000000904439
 51
110.00000000026481
  0
LINE
  5
2104
  8
SAPA_PROFIL
 10
9.2037358124538287
 20
108.120803053373
 30
0.0
 11
9.0157972883051798
 21
108.052399024702
 31
0.0
  0
ARC
  5
2105
  8
SAPA_PROFIL
 10
9.1184033312949335
 20
107.7704912384699
 30
0.0
 40
0.2999999999938278
 50
109.99999999881391
 51
199.9999999987954
  0
LINE
  5
2106
  8
SAPA_PROFIL
 10
8.8364955450628031
 20
107.6678851954802
 30
0.0
 11
9.2127177027294902
 21
106.634223312611
 31
0.0
  0
ARC
  5
2107
  8
SAPA_PROFIL
 10
8.9308099164922865
 20
106.5316172696192
 30
0.0
 40
0.2999999999993509
 50
289.99999999761252
 51
19.999999998859241
  0
LINE
  5
2108
  8
SAPA_PROFIL
 10
9.0334159594780203
 20
106.2497094833797
 30
0.0
 11
7.2232258801394664
 21
105.59085417614369
 31
0.0
  0
ARC
  5
2109
  8
SAPA_PROFIL
 10
7.3258319231358708
 20
105.3089463899076
 30
0.0
 40
0.2999999999998419
 50
109.9999999997477
 51
179.9999999999728
  0
LINE
  5
210A
  8
SAPA_PROFIL
 10
7.0258319231360238
 20
105.3089463899077
 30
0.0
 11
7.0258319231360238
 21
104.88923062208821
 31
0.0
  0
ARC
  5
210B
  8
SAPA_PROFIL
 10
7.3258319231361337
 20
104.88923062208789
 30
0.0
 40
0.30000000000011
 50
179.9999999999348
 51
209.99999999993241
  0
LINE
  5
210C
  8
SAPA_PROFIL
 10
7.0660243020005282
 20
104.7392306220881
 30
0.0
 11
7.9258319231361147
 21
103.2500001375474
 31
0.0
  0
LINE
  5
210D
  8
SAPA_PROFIL
 10
7.9258319231361147
 20
103.2500001375474
 30
0.0
 11
7.9258439231356297
 21
102.8000001375476
 31
0.0
  0
ARC
  5
210E
  8
SAPA_PROFIL
 10
7.625843923135454
 20
102.8000001375476
 30
0.0
 40
0.3000000000001766
 50
269.99999999999898
 51
0.0
  0
LINE
  5
210F
  8
SAPA_PROFIL
 10
7.6258439231354478
 20
102.5000001375474
 30
0.0
 11
4.025831923135569
 21
102.5000001375474
 31
0.0
  0
ARC
  5
2110
  8
SAPA_PROFIL
 10
4.025831923135569
 20
102.8000001375476
 30
0.0
 40
0.3000000000001819
 50
180.0
 51
270.0
  0
LINE
  5
2111
  8
SAPA_PROFIL
 10
3.725831923135388
 20
102.8000001375476
 30
0.0
 11
3.7258319231358419
 21
103.2500001375474
 31
0.0
  0
LINE
  5
2112
  8
SAPA_PROFIL
 10
3.7258319231358419
 20
103.2500001375474
 30
0.0
 11
4.5856566607047853
 21
104.73926026862129
 31
0.0
  0
ARC
  5
2113
  8
SAPA_PROFIL
 10
4.325849039569043
 20
104.8892602686214
 30
0.0
 40
0.3000000000004004
 50
330.0000000000241
 51
359.99635313258273
  0
LINE
  5
2114
  8
SAPA_PROFIL
 10
4.6258490389617464
 20
104.8892411736683
 30
0.0
 11
4.6258560887525837
 21
105.0000001375456
 31
0.0
  0
LINE
  5
2115
  8
SAPA_PROFIL
 10
4.6258560887525837
 20
105.0000001375456
 30
0.0
 11
2.5500000708360631
 21
105.0000001375456
 31
0.0
  0
ARC
  5
2116
  8
SAPA_PROFIL
 10
2.5500000708360622
 20
104.5000001375456
 30
0.0
 40
0.5
 50
89.999999999999943
 51
180.0
  0
LINE
  5
2117
  8
SAPA_PROFIL
 10
2.0500000708360631
 20
104.5000001375456
 30
0.0
 11
2.0500000708360631
 21
99.250000137880306
 31
0.0
  0
ARC
  5
2118
  8
SAPA_PROFIL
 10
2.5500000708360631
 20
99.250000137880306
 30
0.0
 40
0.5
 50
180.0
 51
270.0
  0
LINE
  5
2119
  8
SAPA_PROFIL
 10
2.5500000708360631
 20
98.75000013788032
 30
0.0
 11
3.0500000744194722
 21
98.75000013788032
 31
0.0
  0
ARC
  5
211A
  8
SAPA_PROFIL
 10
3.0500000744194722
 20
99.250000137880306
 30
0.0
 40
0.5
 50
270.0
 51
0.0
  0
LINE
  5
211B
  8
SAPA_PROFIL
 10
3.5500000744194722
 20
99.250000137880306
 30
0.0
 11
3.5500000744240192
 21
100.2500001382877
 31
0.0
  0
LINE
  5
211C
  8
SAPA_PROFIL
 10
3.5500000744240192
 20
100.2500001382877
 30
0.0
 11
6.750000074879039
 21
100.2500001382914
 31
0.0
  0
LINE
  5
211D
  8
SAPA_PROFIL
 10
6.750000074879039
 20
100.2500001382914
 30
0.0
 11
6.7500000748708544
 21
95.750000137385541
 31
0.0
  0
LINE
  5
211E
  8
SAPA_PROFIL
 10
6.7500000748708544
 20
95.750000137385541
 30
0.0
 11
-12.74999992917458
 21
95.750000137364609
 31
0.0
  0
ARC
  5
211F
  8
SAPA_PROFIL
 10
-12.74999992917445
 20
95.550000137363597
 30
0.0
 40
0.200000000001026
 50
90.000000000037133
 51
195.60191674449339
  0
ARC
  5
2120
  8
SAPA_PROFIL
 10
-11.97947707321601
 20
95.765161770664918
 30
0.0
 40
1.0000000000005611
 50
195.601916744535
 51
263.75641154149361
  0
ARC
  5
2121
  8
SAPA_PROFIL
 10
2.0500000710127249
 20
224.00000014200771
 30
0.0
 40
130.0000000041278
 50
263.75641154141118
 51
269.9999999999128
  0
LINE
  5
2122
  8
SAPA_PROFIL
 10
2.0500000708151438
 20
94.000000137879866
 30
0.0
 11
7.0500000707341988
 21
94.000000137742063
 31
0.0
  0
ARC
  5
2123
  8
SAPA_PROFIL
 10
7.0500000708251607
 20
97.000000137742049
 30
0.0
 40
2.9999999999999849
 50
269.99999999826269
 51
0.0000000000002714
  0
LINE
  5
2124
  8
SAPA_PROFIL
 10
10.050000070825149
 20
97.000000137742063
 30
0.0
 11
10.050000070825149
 21
102.2561310965911
 31
0.0
  0
LINE
  5
2125
  8
SAPA_FOGBAND
 10
12.08639956205149
 20
165.80043253291751
 30
0.0
 11
12.19639694723344
 21
171.05335214807559
 31
0.0
  0
LINE
  5
2126
  8
SAPA_FOGBAND
 10
12.19639694723344
 20
171.05335214807559
 30
0.0
 11
14.634490287655691
 21
171.052775649202
 31
0.0
  0
LINE
  5
2127
  8
SAPA_FOGBAND
 10
14.634490287655691
 20
171.052775649202
 30
0.0
 11
13.50908916519108
 21
165.80043253291751
 31
0.0
  0
LINE
  5
2128
  8
SAPA_FOGBAND
 10
10.363709958909
 20
165.80043253291751
 30
0.0
 11
9.2382633615928853
 21
171.05294536366861
 31
0.0
  0
LINE
  5
2129
  8
SAPA_FOGBAND
 10
9.2382633615928853
 20
171.05294536366861
 30
0.0
 11
11.676401408141709
 21
171.0533815044891
 31
0.0
  0
LINE
  5
212A
  8
SAPA_FOGBAND
 10
11.676401408141709
 20
171.0533815044891
 30
0.0
 11
11.78639956204858
 21
165.80043253291751
 31
0.0
  0
LINE
  5
212B
  8
SAPA_FOGBAND
 10
3.7863995620513151
 20
165.80043253291751
 30
0.0
 11
3.8963969472337112
 21
170.95706798388159
 31
0.0
  0
LINE
  5
212C
  8
SAPA_FOGBAND
 10
3.8963969472337112
 20
170.95706798388159
 30
0.0
 11
6.3344902876559672
 21
170.95649148500789
 31
0.0
  0
LINE
  5
212D
  8
SAPA_FOGBAND
 10
6.3344902876559672
 20
170.95649148500789
 30
0.0
 11
5.2090891651909033
 21
165.80043253291751
 31
0.0
  0
LINE
  5
212E
  8
SAPA_FOGBAND
 10
2.0637099589088161
 20
165.80043253291751
 30
0.0
 11
0.9382633615931582
 21
170.95666119947461
 31
0.0
  0
LINE
  5
212F
  8
SAPA_FOGBAND
 10
0.9382633615931582
 20
170.95666119947461
 30
0.0
 11
3.3764014081415321
 21
170.95709734029509
 31
0.0
  0
LINE
  5
2130
  8
SAPA_FOGBAND
 10
3.3764014081415321
 20
170.95709734029509
 30
0.0
 11
3.4863995620484038
 21
165.80043253291751
 31
0.0
  0
LINE
  5
2131
  8
SAPA_PROFIL
 62
     4
 10
-1.4499999291798531
 20
173.79948974286981
 30
0.0
 11
-1.4499999291798531
 21
181.1000000001722
 31
0.0
  0
LINE
  5
2132
  8
SAPA_PROFIL
 62
     4
 10
-1.4499999291798531
 20
181.1000000001722
 30
0.0
 11
-1.649999929179671
 21
181.3000000001721
 31
0.0
  0
LINE
  5
2133
  8
SAPA_PROFIL
 62
     4
 10
-1.649999929179671
 20
181.3000000001721
 30
0.0
 11
-1.649999929179671
 21
184.80000000017199
 31
0.0
  0
ARC
  5
2134
  8
SAPA_PROFIL
 62
     4
 10
-1.149999929179671
 20
184.80000000017199
 30
0.0
 40
0.5
 50
90.0
 51
180.0
  0
LINE
  5
2135
  8
SAPA_PROFIL
 62
     4
 10
-1.149999929179671
 20
185.3000000001721
 30
0.0
 11
-0.3499999291794893
 21
185.3000000001721
 31
0.0
  0
ARC
  5
2136
  8
SAPA_PROFIL
 62
     4
 10
-0.3499999291794893
 20
184.80000000017199
 30
0.0
 40
0.5
 50
0.0
 51
90.0
  0
LINE
  5
2137
  8
SAPA_PROFIL
 62
     4
 10
0.1500000708205107
 20
184.80000000017199
 30
0.0
 11
0.1500000708205107
 21
184.1000000001722
 31
0.0
  0
ARC
  5
2138
  8
SAPA_PROFIL
 62
     4
 10
0.6500000708205107
 20
184.1000000001722
 30
0.0
 40
0.5
 50
180.0
 51
270.0
  0
LINE
  5
2139
  8
SAPA_PROFIL
 62
     4
 10
0.6500000708205107
 20
183.60000000017229
 30
0.0
 11
1.15000007082051
 21
183.60000000017229
 31
0.0
  0
ARC
  5
213A
  8
SAPA_PROFIL
 62
     4
 10
1.1500000708204681
 20
184.100000000172
 30
0.0
 40
0.4999999999997442
 50
270.00000000000489
 51
5.0000000000056843
  0
LINE
  5
213B
  8
SAPA_PROFIL
 62
     4
 10
1.6480974198660761
 20
184.1435778715458
 30
0.0
 11
1.4518097903834351
 21
186.3871557429197
 31
0.0
  0
ARC
  5
213C
  8
SAPA_PROFIL
 62
     4
 10
0.4556150922916427
 20
186.30000000017199
 30
0.0
 40
1.000000000000052
 50
5.0000000000028013
 51
90.000000000001108
  0
LINE
  5
213D
  8
SAPA_PROFIL
 62
     4
 10
0.4556150922916232
 20
187.30000000017199
 30
0.0
 11
-2.6499999291796712
 21
187.30000000017199
 31
0.0
  0
ARC
  5
213E
  8
SAPA_PROFIL
 62
     4
 10
-2.6499999291796712
 20
186.3000000001721
 30
0.0
 40
1.0
 50
90.0
 51
180.0
  0
LINE
  5
213F
  8
SAPA_PROFIL
 62
     4
 10
-3.6499999291796712
 20
186.3000000001721
 30
0.0
 11
-3.6499999291796712
 21
180.90000000067039
 31
0.0
  0
ARC
  5
2140
  8
SAPA_PROFIL
 62
     4
 10
-3.3499999292394742
 20
180.90000000066999
 30
0.0
 40
0.299999999940197
 50
179.999999999924
 51
210.00000000091109
  0
LINE
  5
2141
  8
SAPA_PROFIL
 62
     4
 10
-3.6098075503206242
 20
180.75000000069571
 30
0.0
 11
-3.4366024695422079
 21
180.45000000067009
 31
0.0
  0
ARC
  5
2142
  8
SAPA_PROFIL
 62
     4
 10
-3.6964100907075941
 20
180.3000000006468
 30
0.0
 40
0.3000000000376557
 50
330.00000001786628
 51
30.00000000097625
  0
LINE
  5
2143
  8
SAPA_PROFIL
 62
     4
 10
-3.4366024694928679
 20
180.15000000070901
 30
0.0
 11
-3.6098075501723761
 21
179.85000000062681
 31
0.0
  0
ARC
  5
2144
  8
SAPA_PROFIL
 62
     4
 10
-3.3499999296536118
 20
179.6999999987504
 30
0.0
 40
0.3000000004041983
 50
149.9999996307811
 51
180.00438388732439
  0
LINE
  5
2145
  8
SAPA_PROFIL
 62
     4
 10
-3.6499999291796712
 20
179.69997704477009
 30
0.0
 11
-3.6499999291796712
 21
174.74999999938521
 31
0.0
  0
ARC
  5
2146
  8
SAPA_PROFIL
 62
     4
 10
-5.1499999291796712
 20
174.74999999938521
 30
0.0
 40
1.5
 50
270.0
 51
0.0
  0
LINE
  5
2147
  8
SAPA_PROFIL
 62
     4
 10
-5.1499999291796712
 20
173.24999999938521
 30
0.0
 11
-7.2499999291850372
 21
173.24999999938541
 31
0.0
  0
ARC
  5
2148
  8
SAPA_PROFIL
 62
     4
 10
-7.2499999291849226
 20
169.04999999938539
 30
0.0
 40
4.1999999999999309
 50
90.000000000001563
 51
180.00000000000151
  0
LINE
  5
2149
  8
SAPA_PROFIL
 62
     4
 10
-11.44999992918485
 20
169.04999999938531
 30
0.0
 11
-11.449999929185079
 21
157.04999999964051
 31
0.0
  0
ARC
  5
214A
  8
SAPA_PROFIL
 62
     4
 10
-11.14999992918524
 20
157.04999999964059
 30
0.0
 40
0.2999999999998408
 50
180.00000000002171
 51
270.0000000000216
  0
LINE
  5
214B
  8
SAPA_PROFIL
 62
     4
 10
-11.14999992918513
 20
156.74999999964069
 30
0.0
 11
-10.449999929172121
 21
156.74999999964049
 31
0.0
  0
ARC
  5
214C
  8
SAPA_PROFIL
 62
     4
 10
-10.449999929172231
 20
157.0499999996276
 30
0.0
 40
0.2999999999871079
 50
270.0000000000216
 51
0.0000000000217126
  0
LINE
  5
214D
  8
SAPA_PROFIL
 62
     4
 10
-10.14999992918513
 20
157.04999999962769
 30
0.0
 11
-10.149999929184901
 21
158.19999999962869
 31
0.0
  0
ARC
  5
214E
  8
SAPA_PROFIL
 62
     4
 10
-9.8499999291977929
 20
158.1999999996286
 30
0.0
 40
0.2999999999871079
 50
89.999999999978314
 51
179.99999999997829
  0
LINE
  5
214F
  8
SAPA_PROFIL
 62
     4
 10
-9.8499999291976792
 20
158.49999999961571
 30
0.0
 11
-8.4499999291721224
 21
158.49999999961591
 31
0.0
  0
ARC
  5
2150
  8
SAPA_PROFIL
 62
     4
 10
-8.4499999291722361
 20
158.1999999996288
 30
0.0
 40
0.2999999999871079
 50
359.99999999997829
 51
89.999999999978314
  0
LINE
  5
2151
  8
SAPA_PROFIL
 62
     4
 10
-8.1499999291851282
 20
158.19999999962869
 30
0.0
 11
-8.1499999291849008
 21
155.09999999958009
 31
0.0
  0
ARC
  5
2152
  8
SAPA_PROFIL
 62
     4
 10
-7.8499999291848317
 20
155.09999999958001
 30
0.0
 40
0.3000000000000682
 50
179.99999999997829
 51
269.99999999997829
  0
LINE
  5
2153
  8
SAPA_PROFIL
 62
     4
 10
-7.8499999291849463
 20
154.79999999958
 30
0.0
 11
-6.0999999291849463
 21
154.79999999958
 31
0.0
  0
ARC
  5
2154
  8
SAPA_PROFIL
 62
     4
 10
-6.0999999291849463
 20
155.29999999958
 30
0.0
 40
0.5
 50
270.0
 51
0.0
  0
LINE
  5
2155
  8
SAPA_PROFIL
 62
     4
 10
-5.5999999291849463
 20
155.29999999958
 30
0.0
 11
-5.5999999291849463
 21
155.79999999958
 31
0.0
  0
LINE
  5
2156
  8
SAPA_PROFIL
 62
     4
 10
-5.5999999291849463
 20
155.79999999958
 30
0.0
 11
-6.8499999291849463
 21
155.79999999958
 31
0.0
  0
LINE
  5
2157
  8
SAPA_PROFIL
 62
     4
 10
-6.8499999291849463
 20
155.79999999958
 30
0.0
 11
-6.8499999291849463
 21
156.99999999957981
 31
0.0
  0
ARC
  5
2158
  8
SAPA_PROFIL
 62
     4
 10
-6.3499999291849463
 20
156.99999999957981
 30
0.0
 40
0.5
 50
90.0
 51
180.0
  0
LINE
  5
2159
  8
SAPA_PROFIL
 62
     4
 10
-6.3499999291849463
 20
157.49999999957981
 30
0.0
 11
-5.5999999291842641
 21
157.49999999958089
 31
0.0
  0
ARC
  5
215A
  8
SAPA_PROFIL
 62
     4
 10
-3.3499999291851061
 20
155.5156865163099
 30
0.0
 40
2.9999999999812501
 50
41.409622108860198
 51
138.59037789111079
  0
LINE
  5
215B
  8
SAPA_PROFIL
 62
     4
 10
-1.099999929184946
 20
157.49999999957981
 30
0.0
 11
-0.3499999291849463
 21
157.49999999957981
 31
0.0
  0
ARC
  5
215C
  8
SAPA_PROFIL
 62
     4
 10
-0.3499999291849463
 20
156.99999999957981
 30
0.0
 40
0.5
 50
0.0
 51
90.0
  0
LINE
  5
215D
  8
SAPA_PROFIL
 62
     4
 10
0.1500000708150537
 20
156.99999999957981
 30
0.0
 11
0.1500000708150537
 21
155.79999999958
 31
0.0
  0
LINE
  5
215E
  8
SAPA_PROFIL
 62
     4
 10
0.1500000708150537
 20
155.79999999958
 30
0.0
 11
-1.099999929184946
 21
155.79999999958
 31
0.0
  0
LINE
  5
215F
  8
SAPA_PROFIL
 62
     4
 10
-1.099999929184946
 20
155.79999999958
 30
0.0
 11
-1.099999929184946
 21
155.29999999958
 31
0.0
  0
ARC
  5
2160
  8
SAPA_PROFIL
 62
     4
 10
-0.5999999291849463
 20
155.29999999958
 30
0.0
 40
0.5
 50
180.0
 51
270.0
  0
LINE
  5
2161
  8
SAPA_PROFIL
 62
     4
 10
-0.5999999291849463
 20
154.79999999958
 30
0.0
 11
2.2000000708152352
 21
154.79999999958
 31
0.0
  0
ARC
  5
2162
  8
SAPA_PROFIL
 62
     4
 10
2.2000000708152352
 20
155.29999999958
 30
0.0
 40
0.5
 50
270.0
 51
0.0
  0
LINE
  5
2163
  8
SAPA_PROFIL
 62
     4
 10
2.7000000708152352
 20
155.29999999958
 30
0.0
 11
2.7000000708152352
 21
155.79999999958
 31
0.0
  0
LINE
  5
2164
  8
SAPA_PROFIL
 62
     4
 10
2.7000000708152352
 20
155.79999999958
 30
0.0
 11
1.450000070815235
 21
155.79999999958
 31
0.0
  0
LINE
  5
2165
  8
SAPA_PROFIL
 62
     4
 10
1.450000070815235
 20
155.79999999958
 30
0.0
 11
1.450000070815235
 21
156.99999999957981
 31
0.0
  0
ARC
  5
2166
  8
SAPA_PROFIL
 62
     4
 10
1.950000070815235
 20
156.99999999957981
 30
0.0
 40
0.5
 50
90.0
 51
180.0
  0
LINE
  5
2167
  8
SAPA_PROFIL
 62
     4
 10
1.950000070815235
 20
157.49999999957981
 30
0.0
 11
2.7000000708159169
 21
157.49999999958089
 31
0.0
  0
ARC
  5
2168
  8
SAPA_PROFIL
 62
     4
 10
4.9500000708150749
 20
155.5156865163099
 30
0.0
 40
2.9999999999812501
 50
41.409622108860212
 51
138.59037789111079
  0
LINE
  5
2169
  8
SAPA_PROFIL
 62
     4
 10
7.2000000708152347
 20
157.49999999957981
 30
0.0
 11
7.9500000708152347
 21
157.49999999957981
 31
0.0
  0
ARC
  5
216A
  8
SAPA_PROFIL
 62
     4
 10
7.9500000708152347
 20
156.99999999957981
 30
0.0
 40
0.5
 50
0.0
 51
90.0
  0
LINE
  5
216B
  8
SAPA_PROFIL
 62
     4
 10
8.4500000708152356
 20
156.99999999957981
 30
0.0
 11
8.4500000708152356
 21
155.79999999958
 31
0.0
  0
LINE
  5
216C
  8
SAPA_PROFIL
 62
     4
 10
8.4500000708152356
 20
155.79999999958
 30
0.0
 11
7.2000000708152347
 21
155.79999999958
 31
0.0
  0
LINE
  5
216D
  8
SAPA_PROFIL
 62
     4
 10
7.2000000708152347
 20
155.79999999958
 30
0.0
 11
7.2000000708152347
 21
155.29999999958
 31
0.0
  0
ARC
  5
216E
  8
SAPA_PROFIL
 62
     4
 10
7.7000000708152347
 20
155.29999999958
 30
0.0
 40
0.5
 50
180.0
 51
270.0
  0
LINE
  5
216F
  8
SAPA_PROFIL
 62
     4
 10
7.7000000708152347
 20
154.79999999958
 30
0.0
 11
9.9500000708152356
 21
154.79999999958
 31
0.0
  0
ARC
  5
2170
  8
SAPA_PROFIL
 62
     4
 10
9.9500000708153564
 20
155.79999999957971
 30
0.0
 40
0.9999999999996873
 50
269.99999999999312
 51
30.000000000753221
  0
LINE
  5
2171
  8
SAPA_PROFIL
 62
     4
 10
10.816025474592941
 20
156.29999999959091
 30
0.0
 11
10.144555742382069
 21
157.4630196914907
 31
0.0
  0
ARC
  5
2172
  8
SAPA_PROFIL
 62
     4
 10
5.81442872349335
 20
154.96301969143369
 30
0.0
 40
4.9999999999994733
 50
30.00000000075676
 51
75.000000000002046
  0
LINE
  5
2173
  8
SAPA_PROFIL
 62
     4
 10
7.1085239490056429
 20
159.79264882287859
 30
0.0
 11
1.1858328083902729
 21
161.37962913102541
 31
0.0
  0
ARC
  5
2174
  8
SAPA_PROFIL
 62
     4
 10
-0.1082624171218424
 20
156.54999999958
 30
0.0
 40
5.0
 50
75.000000000005784
 51
90.000000000000242
  0
LINE
  5
2175
  8
SAPA_PROFIL
 62
     4
 10
-0.108262417121864
 20
161.54999999958
 30
0.0
 11
-5.3499999291849463
 21
161.54999999957971
 31
0.0
  0
ARC
  5
2176
  8
SAPA_PROFIL
 62
     4
 10
-5.3499999291850591
 20
161.2499999995797
 30
0.0
 40
0.3000000000000682
 50
89.999999999978314
 51
179.99999999997829
  0
LINE
  5
2177
  8
SAPA_PROFIL
 62
     4
 10
-5.6499999291851282
 20
161.24999999957981
 30
0.0
 11
-5.6499999291848999
 21
160.84999999938509
 31
0.0
  0
ARC
  5
2178
  8
SAPA_PROFIL
 62
     4
 10
-5.9499999291847407
 20
160.8499999993852
 30
0.0
 40
0.2999999999998408
 50
269.99999999997829
 51
359.99999999997829
  0
LINE
  5
2179
  8
SAPA_PROFIL
 62
     4
 10
-5.9499999291848553
 20
160.54999999938531
 30
0.0
 11
-7.2499999291850372
 21
160.54999999938531
 31
0.0
  0
ARC
  5
217A
  8
SAPA_PROFIL
 62
     4
 10
-7.2499999291850372
 20
162.54999999938531
 30
0.0
 40
2.0
 50
180.0
 51
270.0
  0
LINE
  5
217B
  8
SAPA_PROFIL
 62
     4
 10
-9.2499999291850372
 20
162.54999999938531
 30
0.0
 11
-9.2499999291850372
 21
169.04999999938531
 31
0.0
  0
ARC
  5
217C
  8
SAPA_PROFIL
 62
     4
 10
-7.2499999291850372
 20
169.04999999938531
 30
0.0
 40
2.0
 50
90.0
 51
180.0
  0
LINE
  5
217D
  8
SAPA_PROFIL
 62
     4
 10
-7.2499999291850372
 20
171.04999999938531
 30
0.0
 11
-5.9499999291848553
 21
171.04999999938511
 31
0.0
  0
ARC
  5
217E
  8
SAPA_PROFIL
 62
     4
 10
-5.949999929184969
 20
170.7499999993853
 30
0.0
 40
0.2999999999998408
 50
359.99999999997829
 51
89.999999999978314
  0
LINE
  5
217F
  8
SAPA_PROFIL
 62
     4
 10
-5.6499999291851282
 20
170.74999999938521
 30
0.0
 11
-5.6499999291848999
 21
170.34999999919
 31
0.0
  0
ARC
  5
2180
  8
SAPA_PROFIL
 62
     4
 10
-5.3499999291848317
 20
170.34999999918989
 30
0.0
 40
0.3000000000000682
 50
179.99999999997829
 51
269.99999999997829
  0
LINE
  5
2181
  8
SAPA_PROFIL
 62
     4
 10
-5.3499999291849463
 20
170.04999999918979
 30
0.0
 11
-4.6499999291851282
 21
170.04999999918999
 31
0.0
  0
ARC
  5
2182
  8
SAPA_PROFIL
 62
     4
 10
-4.6499999291850136
 20
170.34999999919009
 30
0.0
 40
0.3000000000000682
 50
269.99999999997829
 51
359.99999999997829
  0
LINE
  5
2183
  8
SAPA_PROFIL
 62
     4
 10
-4.3499999291849463
 20
170.34999999919
 30
0.0
 11
-4.349999929184718
 21
170.74999999938521
 31
0.0
  0
ARC
  5
2184
  8
SAPA_PROFIL
 62
     4
 10
-4.0499999291846498
 20
170.7499999993853
 30
0.0
 40
0.3000000000000682
 50
90.0000000000217
 51
180.00000000002171
  0
LINE
  5
2185
  8
SAPA_PROFIL
 62
     4
 10
-4.0499999291847644
 20
171.04999999938531
 30
0.0
 11
-0.7499999296957185
 21
171.04999999938531
 31
0.0
  0
ARC
  5
2186
  8
SAPA_PROFIL
 62
     4
 10
-0.7499999296956084
 20
171.34999999989591
 30
0.0
 40
0.300000000510579
 50
269.99999999997902
 51
44.415308593852103
  0
ARC
  5
2187
  8
SAPA_PROFIL
 62
     4
 10
1.7500000707890291
 20
173.79948974286961
 30
0.0
 40
3.1999999999688868
 50
179.99999999999591
 51
224.4153085938691
  0
LINE
  5
2188
  8
SAPA_FOGBAND
 10
-3.4863994204062001
 20
156.1995674680324
 30
0.0
 11
-3.5963968055881419
 21
151.01659506113899
 31
0.0
  0
LINE
  5
2189
  8
SAPA_FOGBAND
 10
-3.5963968055881419
 20
151.01659506113899
 30
0.0
 11
-6.0344901460103983
 21
151.01717156001359
 31
0.0
  0
LINE
  5
218A
  8
SAPA_FOGBAND
 10
-6.0344901460103983
 20
151.01717156001359
 30
0.0
 11
-4.9090890235457891
 21
156.1995674680324
 31
0.0
  0
LINE
  5
218B
  8
SAPA_FOGBAND
 10
-1.763709817263702
 20
156.1995674680324
 30
0.0
 11
-0.6382632199475893
 21
151.01700184554639
 31
0.0
  0
LINE
  5
218C
  8
SAPA_FOGBAND
 10
-0.6382632199475893
 20
151.01700184554639
 30
0.0
 11
-3.0764012664959628
 21
151.01656570472639
 31
0.0
  0
LINE
  5
218D
  8
SAPA_FOGBAND
 10
-3.0764012664959628
 20
151.01656570472639
 30
0.0
 11
-3.1863994204032902
 21
156.1995674680324
 31
0.0
  0
LINE
  5
218E
  8
SAPA_FOGBAND
 10
4.81360057959398
 20
156.1995674680324
 30
0.0
 11
4.7036031944115839
 21
151.05352924410539
 31
0.0
  0
LINE
  5
218F
  8
SAPA_FOGBAND
 10
4.7036031944115839
 20
151.05352924410539
 30
0.0
 11
2.2655098539893279
 21
151.05410574298
 31
0.0
  0
LINE
  5
2190
  8
SAPA_FOGBAND
 10
2.2655098539893279
 20
151.05410574298
 30
0.0
 11
3.3909109764543919
 21
156.1995674680324
 31
0.0
  0
LINE
  5
2191
  8
SAPA_FOGBAND
 10
6.5362901827364794
 20
156.1995674680324
 30
0.0
 11
7.6617367800525917
 21
151.05393602851291
 31
0.0
  0
LINE
  5
2192
  8
SAPA_FOGBAND
 10
7.6617367800525917
 20
151.05393602851291
 30
0.0
 11
5.2235987335037626
 21
151.05349988769279
 31
0.0
  0
LINE
  5
2193
  8
SAPA_FOGBAND
 10
5.2235987335037626
 20
151.05349988769279
 30
0.0
 11
5.1136005795968913
 21
156.1995674680324
 31
0.0
  0
ARC
  5
2194
  8
SAPA_PROFIL
 62
     4
 10
2.785571418151398
 20
167.036980309516
 30
0.0
 40
4.9999999999991127
 50
210.0000000007621
 51
255.00000000000739
  0
LINE
  5
2195
  8
SAPA_PROFIL
 62
     4
 10
1.491476192639652
 20
162.20735117807129
 30
0.0
 11
7.4141673332550218
 21
160.6203708699245
 31
0.0
  0
ARC
  5
2196
  8
SAPA_PROFIL
 62
     4
 10
8.7082625587671387
 20
165.45000000136989
 30
0.0
 40
5.0
 50
255.0000000000058
 51
270.00000000000023
  0
LINE
  5
2197
  8
SAPA_PROFIL
 62
     4
 10
8.70826255876716
 20
160.45000000136989
 30
0.0
 11
13.950000070830241
 21
160.45000000136969
 31
0.0
  0
ARC
  5
2198
  8
SAPA_PROFIL
 62
     4
 10
13.950000070830351
 20
160.75000000136981
 30
0.0
 40
0.3000000000000682
 50
269.99999999997829
 51
359.99999999997829
  0
LINE
  5
2199
  8
SAPA_PROFIL
 62
     4
 10
14.250000070830421
 20
160.7500000013697
 30
0.0
 11
14.2500000708302
 21
161.15000000156491
 31
0.0
  0
ARC
  5
219A
  8
SAPA_PROFIL
 62
     4
 10
14.55000007083026
 20
161.15000000156499
 30
0.0
 40
0.3000000000000682
 50
90.0000000000217
 51
180.00000000002171
  0
LINE
  5
219B
  8
SAPA_PROFIL
 62
     4
 10
14.55000007083015
 20
161.450000001565
 30
0.0
 11
15.85000007083033
 21
161.450000001565
 31
0.0
  0
ARC
  5
219C
  8
SAPA_PROFIL
 62
     4
 10
15.85000007083033
 20
159.450000001565
 30
0.0
 40
2.0
 50
0.0
 51
90.0
  0
LINE
  5
219D
  8
SAPA_PROFIL
 62
     4
 10
17.85000007083033
 20
159.450000001565
 30
0.0
 11
17.85000007083033
 21
152.950000001565
 31
0.0
  0
ARC
  5
219E
  8
SAPA_PROFIL
 62
     4
 10
15.85000007083033
 20
152.950000001565
 30
0.0
 40
2.0
 50
270.0
 51
0.0
  0
LINE
  5
219F
  8
SAPA_PROFIL
 62
     4
 10
15.85000007083033
 20
150.950000001565
 30
0.0
 11
14.55000007083015
 21
150.95000000156529
 31
0.0
  0
ARC
  5
21A0
  8
SAPA_PROFIL
 62
     4
 10
14.550000070830039
 20
151.2500000015649
 30
0.0
 40
0.2999999999996135
 50
180.00000000002171
 51
270.0000000000216
  0
LINE
  5
21A1
  8
SAPA_PROFIL
 62
     4
 10
14.250000070830421
 20
151.25000000156481
 30
0.0
 11
14.2500000708302
 21
151.65000000175991
 31
0.0
  0
ARC
  5
21A2
  8
SAPA_PROFIL
 62
     4
 10
13.950000070830351
 20
151.65000000175979
 30
0.0
 40
0.2999999999998408
 50
0.0000000000217126
 51
90.0000000000217
  0
LINE
  5
21A3
  8
SAPA_PROFIL
 62
     4
 10
13.950000070830241
 20
151.95000000175969
 30
0.0
 11
13.250000070830421
 21
151.95000000175989
 31
0.0
  0
ARC
  5
21A4
  8
SAPA_PROFIL
 62
     4
 10
13.250000070830311
 20
151.65000000175979
 30
0.0
 40
0.3000000000000682
 50
89.999999999978314
 51
179.99999999997829
  0
LINE
  5
21A5
  8
SAPA_PROFIL
 62
     4
 10
12.950000070830241
 20
151.65000000175991
 30
0.0
 11
12.95000007083001
 21
151.25000000156521
 31
0.0
  0
ARC
  5
21A6
  8
SAPA_PROFIL
 62
     4
 10
12.65000007082994
 20
151.2500000015651
 30
0.0
 40
0.3000000000000682
 50
270.0000000000216
 51
0.0000000000217126
  0
LINE
  5
21A7
  8
SAPA_PROFIL
 62
     4
 10
12.65000007083006
 20
150.950000001565
 30
0.0
 11
9.3500000713410145
 21
150.9500000015648
 31
0.0
  0
ARC
  5
21A8
  8
SAPA_PROFIL
 62
     4
 10
9.3500000713404194
 20
150.65000000105439
 30
0.0
 40
0.30000000051038
 50
89.999999999886356
 51
224.41530859375979
  0
ARC
  5
21A9
  8
SAPA_PROFIL
 62
     4
 10
6.8500000708548141
 20
148.20051025807999
 30
0.0
 40
3.1999999999703319
 50
0.0000000000025444
 51
44.415308593875828
  0
LINE
  5
21AA
  8
SAPA_PROFIL
 62
     4
 10
10.050000070825149
 20
148.2005102580801
 30
0.0
 11
10.050000070825149
 21
140.90000000077811
 31
0.0
  0
LINE
  5
21AB
  8
SAPA_PROFIL
 62
     4
 10
10.050000070825149
 20
140.90000000077811
 30
0.0
 11
10.25000007082496
 21
140.70000000077789
 31
0.0
  0
LINE
  5
21AC
  8
SAPA_PROFIL
 62
     4
 10
10.25000007082496
 20
140.70000000077789
 30
0.0
 11
10.25000007082496
 21
137.20000000077789
 31
0.0
  0
ARC
  5
21AD
  8
SAPA_PROFIL
 62
     4
 10
9.7500000708249672
 20
137.20000000077789
 30
0.0
 40
0.5
 50
270.0
 51
0.0
  0
LINE
  5
21AE
  8
SAPA_PROFIL
 62
     4
 10
9.7500000708249672
 20
136.70000000077789
 30
0.0
 11
8.9500000708252401
 21
136.70000000077789
 31
0.0
  0
ARC
  5
21AF
  8
SAPA_PROFIL
 62
     4
 10
8.9500000708252401
 20
137.20000000077789
 30
0.0
 40
0.5
 50
180.0
 51
270.0
  0
LINE
  5
21B0
  8
SAPA_PROFIL
 62
     4
 10
8.4500000708252401
 20
137.20000000077789
 30
0.0
 11
8.4500000708247853
 21
137.90000000077811
 31
0.0
  0
ARC
  5
21B1
  8
SAPA_PROFIL
 62
     4
 10
7.9500000708250118
 20
137.90000000077839
 30
0.0
 40
0.4999999999997727
 50
359.99999999997402
 51
89.999999999973952
  0
LINE
  5
21B2
  8
SAPA_PROFIL
 62
     4
 10
7.9500000708252401
 20
138.40000000077811
 30
0.0
 11
7.4500000708252401
 21
138.40000000077811
 31
0.0
  0
ARC
  5
21B3
  8
SAPA_PROFIL
 62
     4
 10
7.4500000708252641
 20
137.90000000077799
 30
0.0
 40
0.5000000000001706
 50
90.000000000002757
 51
185.0000000000046
  0
LINE
  5
21B4
  8
SAPA_PROFIL
 62
     4
 10
6.9519027217792191
 20
137.85642212940411
 30
0.0
 11
7.1481903512618601
 21
135.61284425803021
 31
0.0
  0
ARC
  5
21B5
  8
SAPA_PROFIL
 62
     4
 10
8.1443850493536534
 20
135.70000000077789
 30
0.0
 40
1.000000000000052
 50
185.0000000000027
 51
270.00000000000108
  0
LINE
  5
21B6
  8
SAPA_PROFIL
 62
     4
 10
8.1443850493536711
 20
134.70000000077789
 30
0.0
 11
11.250000070824971
 21
134.70000000077789
 31
0.0
  0
ARC
  5
21B7
  8
SAPA_PROFIL
 62
     4
 10
11.250000070824971
 20
135.70000000077789
 30
0.0
 40
1.0
 50
270.0
 51
0.0
  0
LINE
  5
21B8
  8
SAPA_PROFIL
 62
     4
 10
12.250000070824971
 20
135.70000000077789
 30
0.0
 11
12.250000070824971
 21
141.10000000027961
 31
0.0
  0
ARC
  5
21B9
  8
SAPA_PROFIL
 62
     4
 10
11.95000007088562
 20
141.10000000027969
 30
0.0
 40
0.2999999999393488
 50
359.99999999996749
 51
30.000000000954518
  0
LINE
  5
21BA
  8
SAPA_PROFIL
 62
     4
 10
12.209807691965921
 20
141.25000000025369
 30
0.0
 11
12.036602611187501
 21
141.5500000002794
 31
0.0
  0
ARC
  5
21BB
  8
SAPA_PROFIL
 62
     4
 10
12.296410232352891
 20
141.70000000030259
 30
0.0
 40
0.3000000000376553
 50
150.00000001786631
 51
210.00000000097631
  0
LINE
  5
21BC
  8
SAPA_PROFIL
 62
     4
 10
12.036602611138161
 20
141.8500000002405
 30
0.0
 11
12.209807691817669
 21
142.15000000032319
 31
0.0
  0
ARC
  5
21BD
  8
SAPA_PROFIL
 62
     4
 10
11.950000071297801
 20
142.30000000219979
 30
0.0
 40
0.3000000004053092
 50
329.99999963083462
 51
0.0043838873515198
  0
LINE
  5
21BE
  8
SAPA_PROFIL
 62
     4
 10
12.250000070824971
 20
142.3000229561803
 30
0.0
 11
12.250000070824971
 21
147.25000000156481
 31
0.0
  0
ARC
  5
21BF
  8
SAPA_PROFIL
 62
     4
 10
13.750000070824971
 20
147.25000000156481
 30
0.0
 40
1.5
 50
90.0
 51
180.0
  0
LINE
  5
21C0
  8
SAPA_PROFIL
 62
     4
 10
13.750000070824971
 20
148.75000000156481
 30
0.0
 11
15.85000007083033
 21
148.75000000156501
 31
0.0
  0
ARC
  5
21C1
  8
SAPA_PROFIL
 62
     4
 10
15.85000007083022
 20
152.95000000156489
 30
0.0
 40
4.1999999999999309
 50
270.00000000000148
 51
0.0000000000015509
  0
LINE
  5
21C2
  8
SAPA_PROFIL
 62
     4
 10
20.050000070830151
 20
152.950000001565
 30
0.0
 11
20.050000070830379
 21
164.95000000130949
 31
0.0
  0
ARC
  5
21C3
  8
SAPA_PROFIL
 62
     4
 10
19.750000070830311
 20
164.9500000013096
 30
0.0
 40
0.3000000000000682
 50
359.99999999997829
 51
89.999999999978314
  0
LINE
  5
21C4
  8
SAPA_PROFIL
 62
     4
 10
19.750000070830421
 20
165.25000000130959
 30
0.0
 11
19.050000070817418
 21
165.25000000130939
 31
0.0
  0
ARC
  5
21C5
  8
SAPA_PROFIL
 62
     4
 10
19.050000070817529
 20
164.95000000132231
 30
0.0
 40
0.2999999999871079
 50
90.0000000000217
 51
180.00000000002171
  0
LINE
  5
21C6
  8
SAPA_PROFIL
 62
     4
 10
18.750000070830421
 20
164.95000000132219
 30
0.0
 11
18.7500000708302
 21
163.80000000132171
 31
0.0
  0
ARC
  5
21C7
  8
SAPA_PROFIL
 62
     4
 10
18.450000070842862
 20
163.80000000132151
 30
0.0
 40
0.2999999999873353
 50
270.0000000000216
 51
0.0000000000217126
  0
LINE
  5
21C8
  8
SAPA_PROFIL
 62
     4
 10
18.450000070842972
 20
163.5000000013342
 30
0.0
 11
17.050000070817418
 21
163.5000000013344
 31
0.0
  0
ARC
  5
21C9
  8
SAPA_PROFIL
 62
     4
 10
17.050000070817529
 20
163.80000000132151
 30
0.0
 40
0.2999999999871079
 50
179.99999999997829
 51
269.99999999997829
  0
LINE
  5
21CA
  8
SAPA_PROFIL
 62
     4
 10
16.750000070830421
 20
163.80000000132171
 30
0.0
 11
16.7500000708302
 21
166.90000000137019
 31
0.0
  0
ARC
  5
21CB
  8
SAPA_PROFIL
 62
     4
 10
16.450000070830349
 20
166.9000000013701
 30
0.0
 40
0.2999999999998408
 50
0.0000000000217126
 51
90.0000000000217
  0
LINE
  5
21CC
  8
SAPA_PROFIL
 62
     4
 10
16.450000070830239
 20
167.20000000137
 30
0.0
 11
14.700000070830241
 21
167.20000000137
 31
0.0
  0
ARC
  5
21CD
  8
SAPA_PROFIL
 62
     4
 10
14.700000070830241
 20
166.70000000136989
 30
0.0
 40
0.5
 50
90.0
 51
180.0
  0
LINE
  5
21CE
  8
SAPA_PROFIL
 62
     4
 10
14.200000070830241
 20
166.70000000136989
 30
0.0
 11
14.200000070830241
 21
166.20000000137
 31
0.0
  0
LINE
  5
21CF
  8
SAPA_PROFIL
 62
     4
 10
14.200000070830241
 20
166.20000000137
 30
0.0
 11
15.450000070830241
 21
166.20000000137
 31
0.0
  0
LINE
  5
21D0
  8
SAPA_PROFIL
 62
     4
 10
15.450000070830241
 20
166.20000000137
 30
0.0
 11
15.450000070830241
 21
165.0000000013697
 31
0.0
  0
ARC
  5
21D1
  8
SAPA_PROFIL
 62
     4
 10
14.950000070830241
 20
165.0000000013697
 30
0.0
 40
0.5
 50
270.0
 51
0.0
  0
LINE
  5
21D2
  8
SAPA_PROFIL
 62
     4
 10
14.950000070830241
 20
164.5000000013697
 30
0.0
 11
14.20000007082956
 21
164.50000000136899
 31
0.0
  0
ARC
  5
21D3
  8
SAPA_PROFIL
 62
     4
 10
11.9500000708302
 20
166.48431348463981
 30
0.0
 40
2.9999999999812501
 50
221.40962210886599
 51
318.59037789111659
  0
LINE
  5
21D4
  8
SAPA_PROFIL
 62
     4
 10
9.7000000708302423
 20
164.5000000013697
 30
0.0
 11
8.9500000708302423
 21
164.5000000013697
 31
0.0
  0
ARC
  5
21D5
  8
SAPA_PROFIL
 62
     4
 10
8.9500000708302423
 20
165.0000000013697
 30
0.0
 40
0.5
 50
180.0
 51
270.0
  0
LINE
  5
21D6
  8
SAPA_PROFIL
 62
     4
 10
8.4500000708302423
 20
165.0000000013697
 30
0.0
 11
8.4500000708302423
 21
166.20000000137
 31
0.0
  0
LINE
  5
21D7
  8
SAPA_PROFIL
 62
     4
 10
8.4500000708302423
 20
166.20000000137
 30
0.0
 11
9.7000000708302423
 21
166.20000000137
 31
0.0
  0
LINE
  5
21D8
  8
SAPA_PROFIL
 62
     4
 10
9.7000000708302423
 20
166.20000000137
 30
0.0
 11
9.7000000708302423
 21
166.70000000136989
 31
0.0
  0
ARC
  5
21D9
  8
SAPA_PROFIL
 62
     4
 10
9.2000000708302423
 20
166.70000000136989
 30
0.0
 40
0.5
 50
0.0
 51
90.0
  0
LINE
  5
21DA
  8
SAPA_PROFIL
 62
     4
 10
9.2000000708302423
 20
167.20000000137
 30
0.0
 11
6.4000000708300604
 21
167.20000000137
 31
0.0
  0
ARC
  5
21DB
  8
SAPA_PROFIL
 62
     4
 10
6.4000000708300604
 20
166.70000000136989
 30
0.0
 40
0.5
 50
90.0
 51
180.0
  0
LINE
  5
21DC
  8
SAPA_PROFIL
 62
     4
 10
5.9000000708300604
 20
166.70000000136989
 30
0.0
 11
5.9000000708300604
 21
166.20000000137
 31
0.0
  0
LINE
  5
21DD
  8
SAPA_PROFIL
 62
     4
 10
5.9000000708300604
 20
166.20000000137
 30
0.0
 11
7.1500000708300604
 21
166.20000000137
 31
0.0
  0
LINE
  5
21DE
  8
SAPA_PROFIL
 62
     4
 10
7.1500000708300604
 20
166.20000000137
 30
0.0
 11
7.1500000708300604
 21
165.0000000013697
 31
0.0
  0
ARC
  5
21DF
  8
SAPA_PROFIL
 62
     4
 10
6.6500000708300604
 20
165.0000000013697
 30
0.0
 40
0.5
 50
270.0
 51
0.0
  0
LINE
  5
21E0
  8
SAPA_PROFIL
 62
     4
 10
6.6500000708300604
 20
164.5000000013697
 30
0.0
 11
5.9000000708293783
 21
164.50000000136899
 31
0.0
  0
ARC
  5
21E1
  8
SAPA_PROFIL
 62
     4
 10
3.6500000708300191
 20
166.48431348463981
 30
0.0
 40
2.9999999999812501
 50
221.40962210886599
 51
318.59037789111659
  0
LINE
  5
21E2
  8
SAPA_PROFIL
 62
     4
 10
1.40000007083006
 20
164.5000000013697
 30
0.0
 11
0.6500000708300604
 21
164.5000000013697
 31
0.0
  0
ARC
  5
21E3
  8
SAPA_PROFIL
 62
     4
 10
0.6500000708300604
 20
165.0000000013697
 30
0.0
 40
0.5
 50
180.0
 51
270.0
  0
LINE
  5
21E4
  8
SAPA_PROFIL
 62
     4
 10
0.1500000708300604
 20
165.0000000013697
 30
0.0
 11
0.1500000708300604
 21
166.20000000137
 31
0.0
  0
LINE
  5
21E5
  8
SAPA_PROFIL
 62
     4
 10
0.1500000708300604
 20
166.20000000137
 30
0.0
 11
1.40000007083006
 21
166.20000000137
 31
0.0
  0
LINE
  5
21E6
  8
SAPA_PROFIL
 62
     4
 10
1.40000007083006
 20
166.20000000137
 30
0.0
 11
1.40000007083006
 21
166.70000000136989
 31
0.0
  0
ARC
  5
21E7
  8
SAPA_PROFIL
 62
     4
 10
0.9000000708300603
 20
166.70000000136989
 30
0.0
 40
0.5
 50
0.0
 51
90.0
  0
LINE
  5
21E8
  8
SAPA_PROFIL
 62
     4
 10
0.9000000708300603
 20
167.20000000137
 30
0.0
 11
-1.3499999291699389
 21
167.20000000137
 31
0.0
  0
ARC
  5
21E9
  8
SAPA_PROFIL
 62
     4
 10
-1.349999929169863
 20
166.20000000136989
 30
0.0
 40
1.000000000000028
 50
90.000000000004349
 51
210.00000000076449
  0
LINE
  5
21EA
  8
SAPA_PROFIL
 62
     4
 10
-2.2160253329476509
 20
165.7000000013584
 30
0.0
 11
-1.5445556007367709
 21
164.53698030945881
 31
0.0
  0
ARC
  5
21EB
  8
SAPA_PROFIL
 10
21.750000070825649
 20
66.499999999995225
 30
0.0
 40
1.5000000000002269
 50
270.00000000000858
 51
0.000000000008685
  0
LINE
  5
21EC
  8
SAPA_PROFIL
 10
23.25000007082588
 20
66.499999999995453
 30
0.0
 11
23.2500000708086
 21
166.0000000009118
 31
0.0
  0
ARC
  5
21ED
  8
SAPA_PROFIL
 10
22.250000070808831
 20
166.000000000912
 30
0.0
 40
0.9999999999997726
 50
359.99999999998698
 51
89.999999999882746
  0
LINE
  5
21EE
  8
SAPA_PROFIL
 10
22.25000007081087
 20
167.00000000091171
 30
0.0
 11
17.561348314853941
 21
167.00000000092331
 31
0.0
  0
ARC
  5
21EF
  8
SAPA_PROFIL
 10
17.561348314858169
 20
166.7000000009167
 30
0.0
 40
0.3000000000066336
 50
90.00000000080675
 51
170.0000000007042
  0
LINE
  5
21F0
  8
SAPA_PROFIL
 10
17.265905988947338
 20
166.7520944542143
 30
0.0
 11
16.75455774489307
 21
163.85209445421509
 31
0.0
  0
ARC
  5
21F1
  8
SAPA_PROFIL
 10
17.050000070797999
 20
163.80000000091329
 30
0.0
 40
0.3000000000015523
 50
169.999999999712
 51
269.99999999979912
  0
LINE
  5
21F2
  8
SAPA_PROFIL
 10
17.050000070796951
 20
163.5000000009118
 30
0.0
 11
18.050000070804231
 21
163.5000000009145
 31
0.0
  0
ARC
  5
21F3
  8
SAPA_PROFIL
 10
18.05000007080552
 20
163.8000000009161
 30
0.0
 40
0.300000000001603
 50
269.99999999975239
 51
359.99999999972857
  0
LINE
  5
21F4
  8
SAPA_PROFIL
 10
18.350000070807141
 20
163.80000000091471
 30
0.0
 11
18.35000007080987
 21
164.95000000092341
 31
0.0
  0
ARC
  5
21F5
  8
SAPA_PROFIL
 10
18.650000071280711
 20
164.95000000135769
 30
0.0
 40
0.3000000004708454
 50
90.000000082942066
 51
180.00000008294199
  0
LINE
  5
21F6
  8
SAPA_PROFIL
 10
18.650000070846431
 20
165.25000000182851
 30
0.0
 11
19.950000070841838
 21
165.25000000182581
 31
0.0
  0
ARC
  5
21F7
  8
SAPA_PROFIL
 10
19.950000070843451
 20
164.95000000182429
 30
0.0
 40
0.3000000000015177
 50
0.0000000002551229
 51
90.000000000308034
  0
LINE
  5
21F8
  8
SAPA_PROFIL
 10
20.25000007084498
 20
164.9500000018256
 30
0.0
 11
20.25000007087408
 21
97.000000000911768
 31
0.0
  0
ARC
  5
21F9
  8
SAPA_PROFIL
 10
19.25000007087408
 20
97.000000000911768
 30
0.0
 40
1.0
 50
270.0
 51
0.0
  0
LINE
  5
21FA
  8
SAPA_PROFIL
 10
19.25000007087408
 20
96.000000000911783
 30
0.0
 11
11.550000070872899
 21
96.000000000911555
 31
0.0
  0
ARC
  5
21FB
  8
SAPA_PROFIL
 10
11.550000070872811
 20
96.300000000911652
 30
0.0
 40
0.3000000000000966
 50
180.00000000176411
 51
270.00000000001728
  0
LINE
  5
21FC
  8
SAPA_PROFIL
 10
11.25000007087271
 20
96.300000000902415
 30
0.0
 11
11.250000070830421
 21
97.700000001083481
 31
0.0
  0
ARC
  5
21FD
  8
SAPA_PROFIL
 10
10.95000007128394
 20
97.700000000612675
 30
0.0
 40
0.2999999995464808
 50
0.0000000899172495
 51
90.000000090385058
  0
LINE
  5
21FE
  8
SAPA_PROFIL
 10
10.95000007081069
 20
98.000000000159162
 30
0.0
 11
10.850000070843519
 21
98.00000000107184
 31
0.0
  0
ARC
  5
21FF
  8
SAPA_PROFIL
 10
10.850000070858069
 20
97.00000000107184
 30
0.0
 40
1.0
 50
90.000000000833779
 51
180.0
  0
ARC
  5
2200
  8
SAPA_PROFIL
 10
6.8500000707634854
 20
97.00000000100637
 30
0.0
 40
3.000000000094587
 50
270.0000000016675
 51
0.000000001250645
  0
LINE
  5
2201
  8
SAPA_PROFIL
 10
6.850000070850796
 20
94.000000000911768
 30
0.0
 11
1.750000070866349
 21
94.000000000911541
 31
0.0
  0
ARC
  5
2202
  8
SAPA_PROFIL
 10
1.7500000708647969
 20
224.0000000008381
 30
0.0
 40
129.99999999992659
 50
263.60079701453742
 51
270.00000000000068
  0
ARC
  5
2203
  8
SAPA_PROFIL
 10
-12.649999928824039
 20
95.604984521601352
 30
0.0
 40
0.800000000296208
 50
183.15197055573171
 51
263.60079699435391
  0
LINE
  5
2204
  8
SAPA_PROFIL
 10
-13.448789694700389
 20
95.560996905103821
 30
0.0
 11
-13.448789694700389
 21
95.750000000914952
 31
0.0
  0
LINE
  5
2205
  8
SAPA_PROFIL
 10
-13.448789694700389
 20
95.750000000914952
 30
0.0
 11
-14.749999929160021
 21
95.750000000911314
 31
0.0
  0
LINE
  5
2206
  8
SAPA_PROFIL
 10
-14.749999929160021
 20
95.750000000911314
 30
0.0
 11
-14.74999992885034
 21
66.499999999979082
 31
0.0
  0
ARC
  5
2207
  8
SAPA_PROFIL
 10
-13.24999992885045
 20
66.499999999994884
 30
0.0
 40
1.4999999999998861
 50
180.00000000060359
 51
270.00000000000432
  0
LINE
  5
2208
  8
SAPA_PROFIL
 10
-13.24999992885034
 20
64.999999999994984
 30
0.0
 11
21.75000007082588
 21
64.999999999994984
 31
0.0
  0
ARC
  5
2209
  8
SAPA_PROFIL
 10
-11.4499999291693
 20
70.299999999998221
 30
0.0
 40
0.3000000000004999
 50
180.00000000005971
 51
270.0000000005038
  0
LINE
  5
220A
  8
SAPA_PROFIL
 10
-11.44999992916666
 20
69.999999999997726
 30
0.0
 11
19.950000070820241
 21
69.999999999997726
 31
0.0
  0
ARC
  5
220B
  8
SAPA_PROFIL
 10
19.950000070821531
 20
70.299999999999343
 30
0.0
 40
0.3000000000016172
 50
269.99999999975239
 51
359.9999999997259
  0
LINE
  5
220C
  8
SAPA_PROFIL
 10
20.250000070823148
 20
70.299999999997908
 30
0.0
 11
20.250000070819969
 21
90.69999999999186
 31
0.0
  0
ARC
  5
220D
  8
SAPA_PROFIL
 10
19.9500000708186
 20
90.699999999993636
 30
0.0
 40
0.3000000000013649
 50
359.9999999996607
 51
89.999999999687205
  0
LINE
  5
220E
  8
SAPA_PROFIL
 10
19.950000070820241
 20
90.999999999994998
 30
0.0
 11
-11.4499999290648
 21
90.999999999994998
 31
0.0
  0
ARC
  5
220F
  8
SAPA_PROFIL
 10
-11.449999929063351
 20
90.699999999993366
 30
0.0
 40
0.3000000000016314
 50
90.000000000277851
 51
179.99999999981
  0
LINE
  5
2210
  8
SAPA_PROFIL
 10
-11.74999992906498
 20
90.699999999994375
 30
0.0
 11
-11.7499999291698
 21
70.299999999997908
 31
0.0
  0
ARC
  5
2211
  8
SAPA_PROFIL
 10
-13.7499999291432
 20
156.00000000055519
 30
0.0
 40
0.9999999999995453
 50
180.0
 51
269.99999999986971
  0
LINE
  5
2212
  8
SAPA_PROFIL
 10
-13.749999929145471
 20
155.0000000005557
 30
0.0
 11
-9.0613481731885486
 21
155.00000000054411
 31
0.0
  0
ARC
  5
2213
  8
SAPA_PROFIL
 10
-9.0613481731925454
 20
155.30000000055099
 30
0.0
 40
0.3000000000068894
 50
270.00000000076341
 51
350.00000000066359
  0
LINE
  5
2214
  8
SAPA_PROFIL
 10
-8.7659058472814877
 20
155.24790554725311
 30
0.0
 11
-8.2545576032276813
 21
158.14790554725269
 31
0.0
  0
ARC
  5
2215
  8
SAPA_PROFIL
 10
-8.5499999291321931
 20
158.20000000055461
 30
0.0
 40
0.3000000000011362
 50
349.9999999997035
 51
89.999999999792038
  0
LINE
  5
2216
  8
SAPA_PROFIL
 10
-8.5499999291311042
 20
158.5000000005557
 30
0.0
 11
-9.5499999291383801
 21
158.50000000055289
 31
0.0
  0
ARC
  5
2217
  8
SAPA_PROFIL
 10
-9.5499999291396769
 20
158.20000000055131
 30
0.0
 40
0.300000000001603
 50
89.999999999752347
 51
179.99999999972849
  0
LINE
  5
2218
  8
SAPA_PROFIL
 10
-9.8499999291412905
 20
158.20000000055279
 30
0.0
 11
-9.849999929144019
 21
157.050000000544
 31
0.0
  0
ARC
  5
2219
  8
SAPA_PROFIL
 10
-10.149999929614861
 20
157.05000000010969
 30
0.0
 40
0.3000000004708454
 50
270.00000008294211
 51
0.0000000829420808
  0
LINE
  5
221A
  8
SAPA_PROFIL
 10
-10.149999929180581
 20
156.7499999996389
 30
0.0
 11
-11.44999992917599
 21
156.74999999964211
 31
0.0
  0
ARC
  5
221B
  8
SAPA_PROFIL
 10
-11.449999929177761
 20
157.04999999964349
 30
0.0
 40
0.3000000000013756
 50
180.0000000003148
 51
270.0000000003385
  0
LINE
  5
221C
  8
SAPA_PROFIL
 10
-11.74999992917912
 20
157.04999999964181
 30
0.0
 11
-11.749999929208229
 21
225.0000000005557
 31
0.0
  0
ARC
  5
221D
  8
SAPA_PROFIL
 10
-10.749999929208229
 20
225.0000000005557
 30
0.0
 40
1.0
 50
90.0
 51
180.0
  0
LINE
  5
221E
  8
SAPA_PROFIL
 10
-10.749999929208229
 20
226.0000000005557
 30
0.0
 11
-3.0499999292070461
 21
226.0000000005555
 31
0.0
  0
ARC
  5
221F
  8
SAPA_PROFIL
 10
-3.0499999292071829
 20
225.7000000005556
 30
0.0
 40
0.2999999999998692
 50
0.0000000017207225
 51
89.999999999973966
  0
LINE
  5
2220
  8
SAPA_PROFIL
 10
-2.7499999292073189
 20
225.70000000056459
 30
0.0
 11
-2.7499999291645731
 21
224.30000000038439
 31
0.0
  0
ARC
  5
2221
  8
SAPA_PROFIL
 10
-2.4499999296178649
 20
224.3000000008546
 30
0.0
 40
0.2999999995467078
 50
180.00000008978699
 51
270.0000000902549
  0
LINE
  5
2222
  8
SAPA_PROFIL
 10
-2.4499999291452919
 20
224.00000000130791
 30
0.0
 11
-2.3499999291776699
 21
224.0000000003956
 31
0.0
  0
ARC
  5
2223
  8
SAPA_PROFIL
 10
-2.3499999291922218
 20
225.0000000003956
 30
0.0
 40
1.0
 50
270.00000000083378
 51
0.0
  0
ARC
  5
2224
  8
SAPA_PROFIL
 10
1.650000070902365
 20
225.00000000046111
 30
0.0
 40
3.000000000094587
 50
90.00000000166753
 51
180.00000000125061
  0
LINE
  5
2225
  8
SAPA_PROFIL
 10
1.6500000708150531
 20
228.0000000005557
 30
0.0
 11
6.7500000707990457
 21
228.0000000005559
 31
0.0
  0
ARC
  5
2226
  8
SAPA_PROFIL
 10
6.7500000708046803
 20
98.000000000629825
 30
0.0
 40
129.9999999999261
 50
83.600797014539197
 51
90.000000000002487
  0
ARC
  5
2227
  8
SAPA_PROFIL
 10
21.15000007048917
 20
226.3950154798664
 30
0.0
 40
0.8000000002964641
 50
3.1519705557144069
 51
83.600796994336577
  0
LINE
  5
2228
  8
SAPA_PROFIL
 10
21.948789836365791
 20
226.43900309636371
 30
0.0
 11
21.948789836365791
 21
226.25000000055209
 31
0.0
  0
LINE
  5
2229
  8
SAPA_PROFIL
 10
21.948789836365791
 20
226.25000000055209
 30
0.0
 11
23.25000007082588
 21
226.25000000055661
 31
0.0
  0
LINE
  5
222A
  8
SAPA_PROFIL
 10
23.25000007082588
 20
226.25000000055661
 30
0.0
 11
23.25000007051619
 21
255.50000000148819
 31
0.0
  0
ARC
  5
222B
  8
SAPA_PROFIL
 10
21.75000007051619
 20
255.5000000014725
 30
0.0
 40
1.5
 50
0.0000000005992674
 51
90.0
  0
LINE
  5
222C
  8
SAPA_PROFIL
 10
21.75000007051619
 20
257.00000000147247
 30
0.0
 11
-13.24999992916003
 21
257.00000000147247
 31
0.0
  0
ARC
  5
222D
  8
SAPA_PROFIL
 10
-13.24999992916003
 20
255.5000000014725
 30
0.0
 40
1.5
 50
90.0
 51
180.00000000002601
  0
LINE
  5
222E
  8
SAPA_PROFIL
 10
-14.749999929160021
 20
255.50000000147179
 30
0.0
 11
-14.74999992914274
 21
156.00000000055519
 31
0.0
  0
ARC
  5
222F
  8
SAPA_PROFIL
 10
-11.44999992915297
 20
231.3000000014741
 30
0.0
 40
0.3000000000015923
 50
179.99999999970689
 51
269.99999999973062
  0
LINE
  5
2230
  8
SAPA_PROFIL
 10
-11.449999929154391
 20
231.0000000014725
 30
0.0
 11
19.95000007073088
 21
231.0000000014725
 31
0.0
  0
ARC
  5
2231
  8
SAPA_PROFIL
 10
19.950000070728851
 20
231.30000000147399
 30
0.0
 40
0.3000000000015177
 50
270.00000000038682
 51
359.9999999999186
  0
LINE
  5
2232
  8
SAPA_PROFIL
 10
20.25000007073038
 20
231.30000000147351
 30
0.0
 11
20.250000070835199
 21
251.70000000146979
 31
0.0
  0
ARC
  5
2233
  8
SAPA_PROFIL
 10
19.95000007083511
 20
251.7000000014697
 30
0.0
 40
0.3000000000000895
 50
0.0000000000271407
 51
90.000000000495334
  0
LINE
  5
2234
  8
SAPA_PROFIL
 10
19.950000070832509
 20
252.0000000014698
 30
0.0
 11
-11.449999929154391
 21
252.0000000014698
 31
0.0
  0
ARC
  5
2235
  8
SAPA_PROFIL
 10
-11.449999929155799
 20
251.7000000014682
 30
0.0
 40
0.3000000000014893
 50
89.999999999730633
 51
179.99999999970689
  0
LINE
  5
2236
  8
SAPA_PROFIL
 10
-11.749999929157291
 20
251.70000000146979
 30
0.0
 11
-11.749999929154569
 21
231.30000000147561
 31
0.0
  0
DIMENSION
  5
2250
  8
SAPA_MATT
  2
*D10
 10
60.850000070807617
 20
167.00000000091171
 30
0.0
 11
60.850000070807589
 21
112.0000000007614
 31
0.0
 70
   128
 13
21.75000007051619
 23
64.999999999994316
 33
0.0
 14
22.25000007081087
 24
167.00000000091171
 34
0.0
 50
90.0
1001
ACAD
1000
DSTYLE
1002
{
1070
    40
1040
1.0
1002
}
  0
DIMENSION
  5
2251
  8
SAPA_MATT
  2
*D9
 10
60.850000070807589
 20
227.99999986365609
 30
0.0
 11
58.35000007080756
 21
197.49999993228391
 31
0.0
 70
     0
  1
61
 13
22.25000007081087
 23
167.00000000091171
 33
0.0
 14
7.0500000708253756
 24
227.99999986365609
 34
0.0
 50
90.0
1001
ACAD
1000
DSTYLE
1002
{
1070
   287
1070
     4
1070
    40
1040
1.0
1070
   279
1070
     1
1002
}
  0
DIMENSION
  5
2252
  8
SAPA_MATT
  2
*D8
 10
60.850000070807589
 20
257.00000000147202
 30
0.0
 11
60.850000070807589
 21
242.5000000010136
 31
0.0
 70
   128
 13
6.8500000707634854
 23
228.0000000005551
 33
0.0
 14
21.750000070825418
 24
257.00000000147202
 34
0.0
 50
90.0
1001
ACAD
1000
DSTYLE
1002
{
1070
   287
1070
     4
1070
    40
1040
1.0
1070
   279
1070
     1
1002
}
  0
DIMENSION
  5
2253
  8
SAPA_MATT
  2
*D7
 10
72.850000070807639
 20
257.00000000147202
 30
0.0
 11
72.850000070807596
 21
150.00000000091541
 31
0.0
 70
   128
 13
21.750000070681718
 23
64.999999999994984
 33
0.0
 14
21.750000070825418
 24
257.00000000147202
 34
0.0
 50
90.0
1001
ACAD
1000
DSTYLE
1002
{
1070
    40
1040
1.0
1002
}
  0
DIMENSION
  5
2254
  8
SAPA_MATT
  2
*D6
 10
23.25000007051619
 20
277.0000000014727
 30
0.0
 11
4.2500000706780838
 21
279.5000000014727
 31
0.0
 70
     0
 13
-14.749999929160021
 23
255.50000000147179
 33
0.0
 14
23.25000007051619
 24
255.50000000148859
 34
0.0
1001
ACAD
1000
DSTYLE
1002
{
1070
    40
1040
1.0
1002
}
  0
VIEWPORT
  5
C4
 67
     1
  8
0
 10
160.5543545598442
 20
116.00969601843509
 30
0.0
 40
404.96977709277462
 41
256.8421457311839
 68
     1
 69
     1
1001
ACAD
1000
MVIEW
1002
{
1070
    16
1010
0.0
1020
0.0
1030
0.0
1010
0.0
1020
0.0
1030
1.0
1040
0.0
1040
256.8421457311839
1040
160.5543545598442
1040
116.00969601843509
1040
50.0
1040
0.0
1040
0.0
1070
     0
1070
   100
1070
     1
1070
     1
1070
     0
1070
     0
1070
     0
1070
     0
1040
0.0
1040
0.0
1040
0.0
1040
10.0
1040
10.0
1040
10.0
1040
10.0
1070
     0
1002
{
1002
}
1002
}
  0
ENDSEC
  0
EOF
