  0
SECTION
  2
HEADER
  9
$ACADVER
  1
AC1009
  9
$INSBASE
 10
0.0
 20
0.0
 30
0.0
  9
$EXTMIN
 10
-53.741478916058441
 20
-32.297208375444477
 30
-0.2
  9
$EXTMAX
 10
278.7532560066411
 20
197.4956243341847
 30
0.0000000048844772
  9
$LIMMIN
 10
0.0
 20
0.0
  9
$LIMMAX
 10
790.0
 20
790.0
  9
$ORTHOMODE
 70
     0
  9
$REGENMODE
 70
     1
  9
$FILLMODE
 70
     1
  9
$QTEXTMODE
 70
     0
  9
$MIRRTEXT
 70
     1
  9
$DRAGMODE
 70
     2
  9
$LTSCALE
 40
4.0
  9
$OSMODE
 70
   167
  9
$ATTMODE
 70
     1
  9
$TEXTSIZE
 40
3.5
  9
$TRACEWID
 40
0.05
  9
$TEXTSTYLE
  7
ISO
  9
$CLAYER
  8
0
  9
$CELTYPE
  6
BYLAYER
  9
$CECOLOR
 62
   256
  9
$DIMSCALE
 40
0.0
  9
$DIMASZ
 40
3.0
  9
$DIMEXO
 40
1.5
  9
$DIMDLI
 40
10.0
  9
$DIMRND
 40
0.0
  9
$DIMDLE
 40
0.0
  9
$DIMEXE
 40
1.5
  9
$DIMTP
 40
0.0
  9
$DIMTM
 40
0.0
  9
$DIMTXT
 40
3.0
  9
$DIMCEN
 40
-5.0
  9
$DIMTSZ
 40
0.0
  9
$DIMTOL
 70
     0
  9
$DIMLIM
 70
     0
  9
$DIMTIH
 70
     0
  9
$DIMTOH
 70
     0
  9
$DIMSE1
 70
     0
  9
$DIMSE2
 70
     0
  9
$DIMTAD
 70
     1
  9
$DIMZIN
 70
     8
  9
$DIMBLK
  1

  9
$DIMASO
 70
     1
  9
$DIMSHO
 70
     1
  9
$DIMPOST
  1

  9
$DIMAPOST
  1

  9
$DIMALT
 70
     0
  9
$DIMALTD
 70
     0
  9
$DIMALTF
 40
25.399999999999999
  9
$DIMLFAC
 40
-1.0
  9
$DIMTOFL
 70
     1
  9
$DIMTVP
 40
0.0
  9
$DIMTIX
 70
     0
  9
$DIMSOXD
 70
     0
  9
$DIMSAH
 70
     0
  9
$DIMBLK1
  1

  9
$DIMBLK2
  1

  9
$DIMSTYLE
  2
MASKIN
  9
$DIMCLRD
 70
   256
  9
$DIMCLRE
 70
   256
  9
$DIMCLRT
 70
     2
  9
$DIMTFAC
 40
1.0
  9
$DIMGAP
 40
1.0
  9
$LUNITS
 70
     2
  9
$LUPREC
 70
     8
  9
$SKETCHINC
 40
0.1
  9
$FILLETRAD
 40
0.0
  9
$AUNITS
 70
     0
  9
$AUPREC
 70
     8
  9
$MENU
  1
ACAD
  9
$ELEVATION
 40
0.0
  9
$PELEVATION
 40
0.0
  9
$THICKNESS
 40
0.0
  9
$LIMCHECK
 70
     0
  9
$BLIPMODE
 70
     0
  9
$CHAMFERA
 40
0.0
  9
$CHAMFERB
 40
0.0
  9
$SKPOLY
 70
     0
  9
$TDCREATE
 40
2458299.4382186462
  9
$TDUPDATE
 40
2458303.4506292832
  9
$TDINDWG
 40
0.0685839699
  9
$TDUSRTIMER
 40
0.0685837384
  9
$USRTIMER
 70
     1
  9
$ANGBASE
 50
0.0
  9
$ANGDIR
 70
     0
  9
$PDMODE
 70
     0
  9
$PDSIZE
 40
0.0
  9
$PLINEWID
 40
0.0
  9
$COORDS
 70
     1
  9
$SPLFRAME
 70
     0
  9
$SPLINETYPE
 70
     6
  9
$SPLINESEGS
 70
     8
  9
$ATTDIA
 70
     1
  9
$ATTREQ
 70
     1
  9
$HANDLING
 70
     1
  9
$HANDSEED
  5
2091
  9
$SURFTAB1
 70
     6
  9
$SURFTAB2
 70
     6
  9
$SURFTYPE
 70
     6
  9
$SURFU
 70
     6
  9
$SURFV
 70
     6
  9
$UCSNAME
  2

  9
$UCSORG
 10
0.0
 20
0.0
 30
0.0
  9
$UCSXDIR
 10
1.0
 20
0.0
 30
0.0
  9
$UCSYDIR
 10
0.0
 20
1.0
 30
0.0
  9
$PUCSNAME
  2

  9
$PUCSORG
 10
0.0
 20
0.0
 30
0.0
  9
$PUCSXDIR
 10
1.0
 20
0.0
 30
0.0
  9
$PUCSYDIR
 10
0.0
 20
1.0
 30
0.0
  9
$USERI1
 70
     0
  9
$USERI2
 70
     0
  9
$USERI3
 70
     0
  9
$USERI4
 70
     0
  9
$USERI5
 70
     0
  9
$USERR1
 40
0.0
  9
$USERR2
 40
0.0
  9
$USERR3
 40
0.0
  9
$USERR4
 40
0.0
  9
$USERR5
 40
0.0
  9
$WORLDVIEW
 70
     1
  9
$SHADEDGE
 70
     3
  9
$SHADEDIF
 70
    70
  9
$TILEMODE
 70
     1
  9
$MAXACTVP
 70
    32
  9
$PLIMCHECK
 70
     0
  9
$PEXTMIN
 10
1.0000000000000000E+020
 20
1.0000000000000000E+020
 30
1.0000000000000000E+020
  9
$PEXTMAX
 10
-1.0000000000000000E+020
 20
-1.0000000000000000E+020
 30
-1.0000000000000000E+020
  9
$PLIMMIN
 10
-5.069427490234375
 20
-5.8737497329711914
  9
$PLIMMAX
 10
291.89889526367187
 20
204.0995779037475
  9
$UNITMODE
 70
     0
  9
$VISRETAIN
 70
     1
  9
$PLINEGEN
 70
     0
  9
$PSLTSCALE
 70
     1
  0
ENDSEC
  0
SECTION
  2
TABLES
  0
TABLE
  2
VPORT
 70
     1
  0
VPORT
  2
*ACTIVE
 70
     0
 10
0.0
 20
0.0
 11
1.0
 21
1.0
 12
112.4859218909691
 22
202.03676959043071
 13
0.0
 23
0.0
 14
1.0
 24
1.0
 15
0.0
 25
0.0
 16
0.0
 26
0.0
 36
1.0
 17
0.0
 27
0.0
 37
0.0
 40
326.75943736064039
 41
1.7265193370165739
 42
50.0
 43
0.0
 44
0.0
 50
0.0
 51
0.0
 71
     0
 72
   100
 73
     1
 74
     1
 75
     0
 76
     0
 77
     0
 78
     0
  0
ENDTAB
  0
TABLE
  2
LTYPE
 70
     1
  0
LTYPE
  2
CONTINUOUS
 70
     0
  3
Solid line
 72
    65
 73
     0
 40
0.0
  0
ENDTAB
  0
TABLE
  2
LAYER
 70
    23
  0
LAYER
  2
0
 70
     0
 62
     7
  6
CONTINUOUS
  0
LAYER
  2
DEFPOINTS
 70
     0
 62
     7
  6
CONTINUOUS
  0
LAYER
  2
SAPA_ARTIKELNR
 70
     0
 62
     4
  6
CONTINUOUS
  0
LAYER
  2
SAPA_BESLAG
 70
     0
 62
     1
  6
CONTINUOUS
  0
LAYER
  2
SAPA_ANSLUTNING
 70
     0
 62
     6
  6
CONTINUOUS
  0
LAYER
  2
SAPA_GLAS
 70
     0
 62
     4
  6
CONTINUOUS
  0
LAYER
  2
SAPA_FOGBAND
 70
     0
 62
     2
  6
CONTINUOUS
  0
LAYER
  2
SAPA_PROFIL
 70
     0
 62
     7
  6
CONTINUOUS
  0
LAYER
  2
SAPA_MATT
 70
     0
 62
     1
  6
CONTINUOUS
  0
ENDTAB
  0
TABLE
  2
STYLE
 70
     2
  0
STYLE
  2
STANDARD
 70
     0
 40
0.0
 41
1.0
 50
0.0
 71
     0
 42
0.2
  3
txt
  4

  0
STYLE
  2
ISO
 70
     0
 40
0.0
 41
1.0
 50
0.0
 71
     0
 42
3.5
  3
txt
  4

  0
ENDTAB
  0
TABLE
  2
VIEW
 70
     0
  0
ENDTAB
  0
TABLE
  2
UCS
 70
     0
  0
ENDTAB
  0
TABLE
  2
APPID
 70
    20
  0
APPID
  2
ACAD
 70
     0
  0
APPID
  2
ACAD_DSTYLE_DIMTEXT_FILL
 70
     0
  0
APPID
  2
ACAD_DSTYLE_DIMEXT_LENGTH
 70
     0
  0
APPID
  2
ACAD_DSTYLE_DIMEXT_ENABLED
 70
     0
  0
APPID
  2
ACAD_DSTYLE_DIM_LINETYPE
 70
     0
  0
APPID
  2
ACAD_DSTYLE_DIM_EXT1_LINETYPE
 70
     0
  0
APPID
  2
ACAD_DSTYLE_DIM_EXT2_LINETYPE
 70
     0
  0
APPID
  2
ACAD_DSTYLE_DIMJOGGED_JOGA
 70
     0
  0
APPID
  2
ACAD_DSTYLE_DIMARC_LENGTH_
 70
     0
  0
APPID
  2
ACAD_PSEXT
 70
     0
  0
APPID
  2
ACAD_MLEADERVER
 70
     0
  0
APPID
  2
ACAD_NAV_VCDISPLAY
 70
     0
  0
APPID
  2
GENIUS_GENODEF_13
 70
     0
  0
APPID
  2
RC_PROFILE
 70
     0
  0
APPID
  2
ACAECLAYERSTANDARD
 70
     0
  0
APPID
  2
GENIUS_GENOBJ-N-FIL_13
 70
     0
  0
APPID
  2
GENIUS_GENREC_14
 70
     0
  0
APPID
  2
GENIUS_GENOBJ-N-REC_13
 70
     0
  0
APPID
  2
ACCMTRANSPARENCY
 70
     0
  0
APPID
  2
ACAD_EXEMPT_FROM_CAD_STANDARDS
 70
     0
  0
ENDTAB
  0
TABLE
  2
DIMSTYLE
 70
     2
  0
DIMSTYLE
  2
STANDARD
 70
     0
  3

  4

  5

  6

  7

 40
1.0
 41
0.18
 42
0.0625
 43
0.38
 44
0.18
 45
0.0
 46
0.0
 47
0.0
 48
0.0
140
0.18
141
0.09
142
0.0
143
25.399999999999999
144
1.0
145
0.0
146
1.0
147
0.09
 71
     0
 72
     0
 73
     1
 74
     1
 75
     0
 76
     0
 77
     0
 78
     0
170
     0
171
     2
172
     0
173
     0
174
     0
175
     0
176
     0
177
     0
178
     0
  0
DIMSTYLE
  2
MASKIN
 70
     0
  3

  4

  5

  6

  7

 40
0.0
 41
3.0
 42
1.5
 43
10.0
 44
1.5
 45
0.0
 46
0.0
 47
0.0
 48
0.0
140
3.0
141
-5.0
142
0.0
143
25.399999999999999
144
-1.0
145
0.0
146
1.0
147
1.0
 71
     0
 72
     0
 73
     0
 74
     0
 75
     0
 76
     0
 77
     1
 78
     8
170
     0
171
     0
172
     1
173
     0
174
     0
175
     0
176
   256
177
   256
178
     2
  0
ENDTAB
  0
ENDSEC
  0
SECTION
  2
BLOCKS
  0
BLOCK
  8
0
  2
$MODEL_SPACE
 70
     0
 10
0.0
 20
0.0
 30
0.0
  3
$MODEL_SPACE
  1

  0
ENDBLK
  5
37
  8
0
  0
BLOCK
 67
     1
  8
0
  2
$PAPER_SPACE
 70
     0
 10
0.0
 20
0.0
 30
0.0
  3
$PAPER_SPACE
  1

  0
ENDBLK
  5
35
 67
     1
  8
0
  0
BLOCK
  8
0
  2
*D9
 70
     1
 10
0.0
 20
0.0
 30
0.0
  3
*D9
  1

  0
LINE
  5
1EB1
  8
SAPA_MATT
 10
223.7499999284687
 20
138.2661669005779
 30
0.0
 11
223.7499999284687
 21
193.4956243341847
 31
0.0
  0
LINE
  5
1EB2
  8
SAPA_MATT
 10
-3.2499999284868859
 20
138.49562433418669
 30
0.0
 11
-3.2499999284868819
 21
193.4956243341847
 31
0.0
  0
LINE
  5
1EB3
  8
SAPA_MATT
 10
220.7499999284687
 20
191.9956243341847
 30
0.0
 11
-0.2499999284868828
 21
191.9956243341847
 31
0.0
  0
SOLID
  5
1EB4
  8
SAPA_MATT
 10
220.7499999284687
 20
192.4956243341847
 30
0.0
 11
220.7499999284687
 21
191.4956243341847
 31
0.0
 12
223.7499999284687
 22
191.9956243341847
 32
0.0
 13
223.7499999284687
 23
191.9956243341847
 33
0.0
  0
SOLID
  5
1EB5
  8
SAPA_MATT
 10
-0.2499999284868828
 20
192.4956243341847
 30
0.0
 11
-0.2499999284868828
 21
191.4956243341847
 31
0.0
 12
-3.2499999284868819
 22
191.9956243341847
 32
0.0
 13
-3.2499999284868819
 23
191.9956243341847
 33
0.0
  0
INSERT
  5
1EB6
  8
0
  2
*U23
 10
0.0
 20
0.0
 30
0.0
  0
POINT
  5
1EB7
  8
DEFPOINTS
 62
     0
 10
223.7499999284687
 20
136.7661669005779
 30
0.0
  0
POINT
  5
1EB8
  8
DEFPOINTS
 62
     0
 10
-3.2499999284868859
 20
136.99562433418669
 30
0.0
  0
POINT
  5
1EB9
  8
DEFPOINTS
 62
     0
 10
-3.2499999284868819
 20
191.9956243341847
 30
0.0
  0
ENDBLK
  5
1E0C
  8
0
  0
BLOCK
  8
0
  2
*D10
 70
     1
 10
0.0
 20
0.0
 30
0.0
  3
*D10
  1

  0
LINE
  5
1FEF
  8
SAPA_MATT
 10
218.7499999284687
 20
139.9956243341864
 30
0.0
 11
218.7499999284687
 21
181.4956243341847
 31
0.0
  0
LINE
  5
1FF0
  8
SAPA_MATT
 10
138.75000007116881
 20
135.4956243373413
 30
0.0
 11
138.75000007116881
 21
181.4956243341847
 31
0.0
  0
LINE
  5
1FF1
  8
SAPA_MATT
 10
215.7499999284687
 20
179.9956243341847
 30
0.0
 11
141.75000007116881
 21
179.9956243341847
 31
0.0
  0
SOLID
  5
1FF2
  8
SAPA_MATT
 10
215.7499999284687
 20
180.4956243341847
 30
0.0
 11
215.7499999284687
 21
179.4956243341847
 31
0.0
 12
218.7499999284687
 22
179.9956243341847
 32
0.0
 13
218.7499999284687
 23
179.9956243341847
 33
0.0
  0
SOLID
  5
1FF3
  8
SAPA_MATT
 10
141.75000007116881
 20
180.4956243341847
 30
0.0
 11
141.75000007116881
 21
179.4956243341847
 31
0.0
 12
138.75000007116881
 22
179.9956243341847
 32
0.0
 13
138.75000007116881
 23
179.9956243341847
 33
0.0
  0
TEXT
  8
SAPA_MATT
  40
3
  5
200C
  62
2
  72
0
  71
0
 10
172.750
 20
177.186
 30
0.000000
  1
80
  7
ISO
  0
POINT
  5
1FF5
  8
DEFPOINTS
 62
     0
 10
218.7499999284687
 20
138.4956243341864
 30
0.0
  0
POINT
  5
1FF6
  8
DEFPOINTS
 62
     0
 10
138.75000007116881
 20
133.99562433734121
 30
0.0
  0
POINT
  5
1FF7
  8
DEFPOINTS
 62
     0
 10
138.75000007116881
 20
179.9956243341847
 30
0.0
  0
ENDBLK
  5
1E18
  8
0
  0
BLOCK
  8
0
  2
*D11
 70
     1
 10
0.0
 20
0.0
 30
0.0
  3
*D11
  1

  0
LINE
  5
1E9D
  8
SAPA_MATT
 10
223.7499999284687
 20
138.49562433418669
 30
0.0
 11
223.7499999284687
 21
181.4956243341847
 31
0.0
  0
LINE
  5
1E9E
  8
SAPA_MATT
 10
218.7499999284687
 20
139.9956243341864
 30
0.0
 11
218.7499999284687
 21
181.4956243341847
 31
0.0
  0
LINE
  5
1E9F
  8
SAPA_MATT
 10
226.7499999284687
 20
179.9956243341847
 30
0.0
 11
229.7499999284687
 21
179.9956243341847
 31
0.0
  0
LINE
  5
1EA0
  8
SAPA_MATT
 10
215.7499999284687
 20
179.9956243341847
 30
0.0
 11
212.7499999284687
 21
179.9956243341847
 31
0.0
  0
LINE
  5
1EA1
  8
SAPA_MATT
 10
223.7499999284687
 20
179.9956243341847
 30
0.0
 11
218.7499999284687
 21
179.9956243341847
 31
0.0
  0
SOLID
  5
1EA2
  8
SAPA_MATT
 10
226.7499999284687
 20
180.4956243341847
 30
0.0
 11
226.7499999284687
 21
179.4956243341847
 31
0.0
 12
223.7499999284687
 22
179.9956243341847
 32
0.0
 13
223.7499999284687
 23
179.9956243341847
 33
0.0
  0
SOLID
  5
1EA3
  8
SAPA_MATT
 10
215.7499999284687
 20
180.4956243341847
 30
0.0
 11
215.7499999284687
 21
179.4956243341847
 31
0.0
 12
218.7499999284687
 22
179.9956243341847
 32
0.0
 13
218.7499999284687
 23
179.9956243341847
 33
0.0
  0
INSERT
  5
1EA4
  8
0
  2
*U22
 10
0.0
 20
0.0
 30
0.0
  0
POINT
  5
1EA5
  8
DEFPOINTS
 62
     0
 10
223.7499999284687
 20
136.99562433418669
 30
0.0
  0
POINT
  5
1EA6
  8
DEFPOINTS
 62
     0
 10
218.7499999284687
 20
138.4956243341864
 30
0.0
  0
POINT
  5
1EA7
  8
DEFPOINTS
 62
     0
 10
218.7499999284687
 20
179.9956243341847
 30
0.0
  0
ENDBLK
  5
1E24
  8
0
  0
BLOCK
  8
0
  2
*D12
 70
     1
 10
0.0
 20
0.0
 30
0.0
  3
*D12
  1

  0
LINE
  5
1FE6
  8
SAPA_MATT
 10
81.750000071830996
 20
135.49563233521769
 30
0.0
 11
81.750000071830996
 21
181.49563233418399
 31
0.0
  0
LINE
  5
1FE7
  8
SAPA_MATT
 10
138.75000007116881
 20
135.49563233521769
 30
0.0
 11
138.75000007116881
 21
181.49563233418399
 31
0.0
  0
LINE
  5
1FE8
  8
SAPA_MATT
 10
84.750000071830982
 20
179.99563233418399
 30
0.0
 11
135.75000007116881
 21
179.99563233418399
 31
0.0
  0
SOLID
  5
1FE9
  8
SAPA_MATT
 10
84.750000071830982
 20
180.49563233418399
 30
0.0
 11
84.750000071830982
 21
179.49563233418399
 31
0.0
 12
81.750000071830996
 22
179.99563233418399
 32
0.0
 13
81.750000071830996
 23
179.99563233418399
 33
0.0
  0
SOLID
  5
1FEA
  8
SAPA_MATT
 10
135.75000007116881
 20
180.49563233418399
 30
0.0
 11
135.75000007116881
 21
179.49563233418399
 31
0.0
 12
138.75000007116881
 22
179.99563233418399
 32
0.0
 13
138.75000007116881
 23
179.99563233418399
 33
0.0
  0
TEXT
  8
SAPA_MATT
  40
3
  5
200D
  62
2
  72
0
  71
0
 10
104.250
 20
177.186
 30
0.000000
  1
57
  7
ISO
  0
POINT
  5
1FEC
  8
DEFPOINTS
 62
     0
 10
81.750000071830996
 20
133.99563233521769
 30
0.0
  0
POINT
  5
1FED
  8
DEFPOINTS
 62
     0
 10
138.75000007116881
 20
133.99563233521769
 30
0.0
  0
POINT
  5
1FEE
  8
DEFPOINTS
 62
     0
 10
138.75000007116881
 20
179.99563233418399
 30
0.0
  0
ENDBLK
  5
1E32
  8
0
  0
BLOCK
  8
0
  2
*D13
 70
     1
 10
0.0
 20
0.0
 30
0.0
  3
*D13
  1

  0
LINE
  5
1E8B
  8
SAPA_MATT
 10
-1.499999863852735
 20
-0.0043756658134835
 30
0.0
 11
-41.749999792338741
 21
-0.0043756658134721
 31
0.0
  0
LINE
  5
1E8C
  8
SAPA_MATT
 10
-3.2499997923387132
 20
138.9956243341849
 30
0.0
 11
-41.749999792338713
 21
138.9956243341849
 31
0.0
  0
LINE
  5
1E8D
  8
SAPA_MATT
 10
-40.249999792338741
 20
2.9956243341865272
 30
0.0
 11
-40.249999792338713
 21
135.99562433418501
 31
0.0
  0
SOLID
  5
1E8E
  8
SAPA_MATT
 10
-40.749999792338741
 20
2.9956243341865272
 30
0.0
 11
-39.749999792338741
 21
2.9956243341865272
 31
0.0
 12
-40.249999792338741
 22
-0.0043756658134725
 32
0.0
 13
-40.249999792338741
 23
-0.0043756658134725
 33
0.0
  0
SOLID
  5
1E8F
  8
SAPA_MATT
 10
-40.749999792338713
 20
135.99562433418501
 30
0.0
 11
-39.749999792338713
 21
135.99562433418501
 31
0.0
 12
-40.249999792338713
 22
138.9956243341849
 32
0.0
 13
-40.249999792338713
 23
138.9956243341849
 33
0.0
  0
INSERT
  5
1E90
  8
0
  2
*U21
 10
0.0
 20
0.0
 30
0.0
  0
POINT
  5
1E91
  8
DEFPOINTS
 62
     0
 10
0.0000001361472641
 20
-0.0043756658134839
 30
0.0
  0
POINT
  5
1E92
  8
DEFPOINTS
 62
     0
 10
-1.7499997923387121
 20
138.9956243341849
 30
0.0
  0
POINT
  5
1E93
  8
DEFPOINTS
 62
     0
 10
-40.249999792338713
 20
138.9956243341849
 30
0.0
  0
ENDBLK
  5
1E3E
  8
0
  0
BLOCK
  8
0
  2
*D14
 70
     1
 10
0.0
 20
0.0
 30
0.0
  3
*D14
  1

  0
LINE
  5
1E82
  8
SAPA_MATT
 10
-3.3749997923387118
 20
21.995624334184981
 30
0.0
 11
-29.749999792338741
 21
21.995624334184988
 31
0.0
  0
LINE
  5
1E83
  8
SAPA_MATT
 10
-3.2499997923387132
 20
138.9956243341849
 30
0.0
 11
-29.749999792338709
 21
138.9956243341849
 31
0.0
  0
LINE
  5
1E84
  8
SAPA_MATT
 10
-28.249999792338741
 20
24.995624334184988
 30
0.0
 11
-28.24999979233872
 21
135.99562433418501
 31
0.0
  0
SOLID
  5
1E85
  8
SAPA_MATT
 10
-28.749999792338741
 20
24.995624334184988
 30
0.0
 11
-27.749999792338741
 21
24.995624334184988
 31
0.0
 12
-28.249999792338741
 22
21.995624334184988
 32
0.0
 13
-28.249999792338741
 23
21.995624334184988
 33
0.0
  0
SOLID
  5
1E86
  8
SAPA_MATT
 10
-28.749999792338709
 20
135.99562433418501
 30
0.0
 11
-27.74999979233872
 21
135.99562433418501
 31
0.0
 12
-28.249999792338709
 22
138.9956243341849
 32
0.0
 13
-28.249999792338709
 23
138.9956243341849
 33
0.0
  0
INSERT
  5
1E87
  8
0
  2
*U20
 10
0.0
 20
0.0
 30
0.0
  0
POINT
  5
1E88
  8
DEFPOINTS
 62
     0
 10
-1.8749997923387121
 20
21.995624334184981
 30
0.0
  0
POINT
  5
1E89
  8
DEFPOINTS
 62
     0
 10
-1.7499997923387121
 20
138.9956243341849
 30
0.0
  0
POINT
  5
1E8A
  8
DEFPOINTS
 62
     0
 10
-28.249999792338709
 20
138.9956243341849
 30
0.0
  0
ENDBLK
  5
1E4A
  8
0
  0
BLOCK
  8
0
  2
*D15
 70
     1
 10
0.0
 20
0.0
 30
0.0
  3
*D15
  1

  0
LINE
  5
1FDD
  8
SAPA_MATT
 10
1.7500002145311551
 20
139.9956243341864
 30
0.0
 11
1.7500002145311579
 21
181.4956243341847
 31
0.0
  0
LINE
  5
1FDE
  8
SAPA_MATT
 10
81.750000071830996
 20
135.4956243373413
 30
0.0
 11
81.750000071830996
 21
181.4956243341847
 31
0.0
  0
LINE
  5
1FDF
  8
SAPA_MATT
 10
4.7500002145311582
 20
179.9956243341847
 30
0.0
 11
78.750000071830982
 21
179.9956243341847
 31
0.0
  0
SOLID
  5
1FE0
  8
SAPA_MATT
 10
4.7500002145311582
 20
180.4956243341847
 30
0.0
 11
4.7500002145311582
 21
179.4956243341847
 31
0.0
 12
1.7500002145311571
 22
179.9956243341847
 32
0.0
 13
1.7500002145311571
 23
179.9956243341847
 33
0.0
  0
SOLID
  5
1FE1
  8
SAPA_MATT
 10
78.750000071830982
 20
180.4956243341847
 30
0.0
 11
78.750000071830982
 21
179.4956243341847
 31
0.0
 12
81.750000071830996
 22
179.9956243341847
 32
0.0
 13
81.750000071830996
 23
179.9956243341847
 33
0.0
  0
TEXT
  8
SAPA_MATT
  40
3
  5
200E
  62
2
  72
0
  71
0
 10
35.7500
 20
177.186
 30
0.000000
  1
80
  7
ISO
  0
POINT
  5
1FE3
  8
DEFPOINTS
 62
     0
 10
1.7500002145311551
 20
138.4956243341864
 30
0.0
  0
POINT
  5
1FE4
  8
DEFPOINTS
 62
     0
 10
81.750000071830996
 20
133.99562433734121
 30
0.0
  0
POINT
  5
1FE5
  8
DEFPOINTS
 62
     0
 10
81.750000071830996
 20
179.9956243341847
 30
0.0
  0
ENDBLK
  5
1E56
  8
0
  0
BLOCK
  8
0
  2
*D16
 70
     1
 10
0.0
 20
0.0
 30
0.0
  3
*D16
  1

  0
LINE
  5
1E6E
  8
SAPA_MATT
 10
-3.249999785468844
 20
138.49562433418669
 30
0.0
 11
-3.2499997854688409
 21
181.4956243341847
 31
0.0
  0
LINE
  5
1E6F
  8
SAPA_MATT
 10
1.7500002145311551
 20
139.9956243341864
 30
0.0
 11
1.7500002145311579
 21
181.4956243341847
 31
0.0
  0
LINE
  5
1E70
  8
SAPA_MATT
 10
-6.2499997854688409
 20
179.9956243341847
 30
0.0
 11
-9.2499997854688392
 21
179.9956243341847
 31
0.0
  0
LINE
  5
1E71
  8
SAPA_MATT
 10
4.7500002145311582
 20
179.9956243341847
 30
0.0
 11
7.7500002145311582
 21
179.9956243341847
 31
0.0
  0
LINE
  5
1E72
  8
SAPA_MATT
 10
-3.2499997854688409
 20
179.9956243341847
 30
0.0
 11
1.7500002145311571
 21
179.9956243341847
 31
0.0
  0
SOLID
  5
1E73
  8
SAPA_MATT
 10
-6.2499997854688409
 20
180.4956243341847
 30
0.0
 11
-6.2499997854688409
 21
179.4956243341847
 31
0.0
 12
-3.2499997854688409
 22
179.9956243341847
 32
0.0
 13
-3.2499997854688409
 23
179.9956243341847
 33
0.0
  0
SOLID
  5
1E74
  8
SAPA_MATT
 10
4.7500002145311582
 20
180.4956243341847
 30
0.0
 11
4.7500002145311582
 21
179.4956243341847
 31
0.0
 12
1.7500002145311571
 22
179.9956243341847
 32
0.0
 13
1.7500002145311571
 23
179.9956243341847
 33
0.0
  0
INSERT
  5
1E75
  8
0
  2
*U19
 10
0.0
 20
0.0
 30
0.0
  0
POINT
  5
1E76
  8
DEFPOINTS
 62
     0
 10
-3.249999785468844
 20
136.99562433418669
 30
0.0
  0
POINT
  5
1E77
  8
DEFPOINTS
 62
     0
 10
1.7500002145311551
 20
138.4956243341864
 30
0.0
  0
POINT
  5
1E78
  8
DEFPOINTS
 62
     0
 10
1.7500002145311571
 20
179.9956243341847
 30
0.0
  0
ENDBLK
  5
1E62
  8
0
  0
BLOCK
  8
0
  2
*X17
 70
     1
 10
0.0
 20
0.0
 30
0.0
  3
*X17
  1

  0
LINE
  5
1F14
  8
0
 62
     0
 10
233.74999999998769
 20
138.98657922130491
 30
0.0
 11
233.74245539399439
 21
138.99412382729821
 31
0.0
  0
LINE
  5
1F15
  8
0
 62
     0
 10
233.74999999998721
 20
137.8640472061717
 30
0.0
 11
232.7955929782616
 21
138.81845422789729
 31
0.0
  0
LINE
  5
1F16
  8
0
 62
     0
 10
233.7499999999867
 20
136.74151519103859
 30
0.0
 11
231.8270325998956
 21
138.66448259112971
 31
0.0
  0
LINE
  5
1F17
  8
0
 62
     0
 10
233.74999999998619
 20
135.6189831759055
 30
0.0
 11
230.8355075658223
 21
138.5334756100693
 31
0.0
  0
LINE
  5
1F18
  8
0
 62
     0
 10
233.7499999999857
 20
134.4964511607723
 30
0.0
 11
229.81957020392261
 21
138.4268809568355
 31
0.0
  0
LINE
  5
1F19
  8
0
 62
     0
 10
233.74999999998519
 20
133.37391914563921
 30
0.0
 11
228.77755517361561
 21
138.3463639720089
 31
0.0
  0
LINE
  5
1F1A
  8
0
 62
     0
 10
233.74999999998471
 20
132.251387130506
 30
0.0
 11
227.70753240208859
 21
138.2938547284021
 31
0.0
  0
LINE
  5
1F1B
  8
0
 62
     0
 10
233.7499999999842
 20
131.12885511537289
 30
0.0
 11
226.60724581481401
 21
138.2716093005431
 31
0.0
  0
LINE
  5
1F1C
  8
0
 62
     0
 10
233.74999999998369
 20
130.00632310023971
 30
0.0
 11
225.47403223030821
 21
138.2822908699153
 31
0.0
  0
LINE
  5
1F1D
  8
0
 62
     0
 10
230.51608663812371
 20
132.11770444696609
 30
0.0
 11
224.30471193804911
 21
138.32907914704069
 31
0.0
  0
LINE
  5
1F1E
  8
0
 62
     0
 10
233.7499999999832
 20
128.88379108510659
 30
0.0
 11
233.1899901418837
 21
129.4438009432061
 31
0.0
  0
LINE
  5
1F1F
  8
0
 62
     0
 10
229.04073950063849
 20
132.4705195693177
 30
0.0
 11
223.7251017344683
 21
137.78615733548779
 31
0.0
  0
LINE
  5
1F20
  8
0
 62
     0
 10
233.74999999998269
 20
127.76125906997351
 30
0.0
 11
233.6736361582484
 21
127.8376229117077
 31
0.0
  0
LINE
  5
1F21
  8
0
 62
     0
 10
227.97638579059
 20
132.41234126423251
 30
0.0
 11
223.74999999998229
 21
136.6387270548403
 31
0.0
  0
LINE
  5
1F22
  8
0
 62
     0
 10
227.10075448299381
 20
132.1654405566951
 30
0.0
 11
223.74999999998229
 21
135.51619503970659
 31
0.0
  0
LINE
  5
1F23
  8
0
 62
     0
 10
226.35217580356351
 20
131.79148722099171
 30
0.0
 11
223.74999999998229
 21
134.39366302457299
 31
0.0
  0
LINE
  5
1F24
  8
0
 62
     0
 10
225.70430369709331
 20
131.31682731232829
 30
0.0
 11
223.74999999998229
 21
133.2711310094393
 31
0.0
  0
LINE
  5
1F25
  8
0
 62
     0
 10
225.1448147888816
 20
130.75378420540639
 30
0.0
 11
223.74999999998229
 21
132.1485989943057
 31
0.0
  0
LINE
  5
1F26
  8
0
 62
     0
 10
224.66916171220851
 20
130.1069052669458
 30
0.0
 11
223.74999999998229
 21
131.02606697917199
 31
0.0
  0
LINE
  5
1F27
  8
0
 62
     0
 10
224.27875232666381
 20
129.37478263735679
 30
0.0
 11
223.74999999998229
 21
129.90353496403841
 31
0.0
  0
LINE
  5
1F28
  8
0
 62
     0
 10
223.98148754041111
 20
128.54951540847591
 30
0.0
 11
223.74999999998229
 21
128.7810029489047
 31
0.0
  0
LINE
  5
1F29
  8
0
 62
     0
 10
223.79522041394279
 20
127.61325051981061
 30
0.0
 11
223.74999999998229
 21
127.6584709337711
 31
0.0
  0
LINE
  5
1F2A
  8
0
 62
     0
 10
233.7427990502523
 20
127.1605419501758
 30
0.0
 11
233.74999999998241
 21
127.167742899906
 31
0.0
  0
LINE
  5
1F2B
  8
0
 62
     0
 10
233.61518585085631
 20
128.1554607659136
 30
0.0
 11
233.74999999998289
 21
128.2902749150401
 31
0.0
  0
LINE
  5
1F2C
  8
0
 62
     0
 10
233.36341578994899
 20
129.02622272013991
 30
0.0
 11
233.7499999999834
 21
129.41280693017421
 31
0.0
  0
LINE
  5
1F2D
  8
0
 62
     0
 10
233.01229313293979
 20
129.7976320782644
 30
0.0
 11
233.74999999998391
 21
130.53533894530841
 31
0.0
  0
LINE
  5
1F2E
  8
0
 62
     0
 10
232.57338664759229
 20
130.48125760805041
 30
0.0
 11
233.7499999999844
 21
131.65787096044261
 31
0.0
  0
LINE
  5
1F2F
  8
0
 62
     0
 10
232.0507431135371
 20
131.08114608912891
 30
0.0
 11
233.74999999998491
 21
132.78040297557669
 31
0.0
  0
LINE
  5
1F30
  8
0
 62
     0
 10
231.4424909680441
 20
131.59542595876951
 30
0.0
 11
233.74999999998539
 21
133.9029349907108
 31
0.0
  0
LINE
  5
1F31
  8
0
 62
     0
 10
230.74012245609759
 20
132.01558946195669
 30
0.0
 11
233.7499999999859
 21
135.025467005845
 31
0.0
  0
LINE
  5
1F32
  8
0
 62
     0
 10
229.92469794891869
 20
132.32269696991139
 30
0.0
 11
233.74999999998639
 21
136.1479990209792
 31
0.0
  0
LINE
  5
1F33
  8
0
 62
     0
 10
228.9547829976284
 20
132.47531403375481
 30
0.0
 11
233.7499999999869
 21
137.27053103611331
 31
0.0
  0
LINE
  5
1F34
  8
0
 62
     0
 10
223.74999999998229
 20
127.27053103610859
 30
0.0
 11
223.76437511776351
 21
127.28490615388991
 31
0.0
  0
LINE
  5
1F35
  8
0
 62
     0
 10
227.7152895123304
 20
132.35835256359039
 30
0.0
 11
233.74999999998741
 21
138.39306305124751
 31
0.0
  0
LINE
  5
1F36
  8
0
 62
     0
 10
223.74999999998229
 20
128.39306305124219
 30
0.0
 11
224.01216748194099
 21
128.65523053320101
 31
0.0
  0
LINE
  5
1F37
  8
0
 62
     0
 10
223.74999999998229
 20
129.51559506637591
 30
0.0
 11
233.10806667537949
 21
138.87366174177319
 31
0.0
  0
LINE
  5
1F38
  8
0
 62
     0
 10
223.74999999998221
 20
130.63812708150951
 30
0.0
 11
231.76777204554239
 21
138.65589912706969
 31
0.0
  0
LINE
  5
1F39
  8
0
 62
     0
 10
223.74999999998229
 20
131.7606590966432
 30
0.0
 11
230.4826346702832
 21
138.49329376694419
 31
0.0
  0
LINE
  5
1F3A
  8
0
 62
     0
 10
223.74999999998229
 20
132.8831911117768
 30
0.0
 11
229.24575425097251
 21
138.3789453627671
 31
0.0
  0
LINE
  5
1F3B
  8
0
 62
     0
 10
223.74999999998229
 20
134.00572312691051
 30
0.0
 11
228.0516945930807
 21
138.30741772000891
 31
0.0
  0
LINE
  5
1F3C
  8
0
 62
     0
 10
223.74999999998229
 20
135.12825514204411
 30
0.0
 11
226.89608222974181
 21
138.27433737180371
 31
0.0
  0
LINE
  5
1F3D
  8
0
 62
     0
 10
223.74999999998229
 20
136.2507871571778
 30
0.0
 11
225.77533680519011
 21
138.27612396238561
 31
0.0
  0
LINE
  5
1F3E
  8
0
 62
     0
 10
223.74999999998229
 20
137.3733191723114
 30
0.0
 11
224.68648386618389
 21
138.309803038513
 31
0.0
  0
LINE
  5
1F3F
  8
0
 62
     0
 10
223.4622377463148
 20
138.20808893377759
 30
0.0
 11
223.6270211870324
 21
138.37287237449519
 31
0.0
  0
ENDBLK
  5
1F41
  8
0
  0
BLOCK
  8
0
  2
*X18
 70
     1
 10
0.0
 20
0.0
 30
0.0
  3
*X18
  1

  0
LINE
  5
1F43
  8
0
 62
     0
 10
233.18122845053711
 20
125.9393579867545
 30
0.0
 11
233.5781034505371
 21
126.6267656510084
 31
0.0
  0
LINE
  5
1F44
  8
0
 62
     0
 10
231.99060345053709
 20
123.8771349939928
 30
0.0
 11
232.38747845053709
 21
124.56454265824669
 31
0.0
  0
LINE
  5
1F45
  8
0
 62
     0
 10
230.79997845053711
 20
121.81491200123109
 30
0.0
 11
231.19685345053711
 21
122.502319665485
 31
0.0
  0
LINE
  5
1F46
  8
0
 62
     0
 10
233.18122873503319
 20
128.6889884795161
 30
0.0
 11
233.3683067463887
 21
129.0130171001629
 31
0.0
  0
LINE
  5
1F47
  8
0
 62
     0
 10
231.9906037350332
 20
126.62676548675449
 30
0.0
 11
232.3874787350332
 21
127.3141731510083
 31
0.0
  0
LINE
  5
1F48
  8
0
 62
     0
 10
230.79997873503319
 20
124.5645424939928
 30
0.0
 11
231.19685373503319
 21
125.2519501582467
 31
0.0
  0
LINE
  5
1F49
  8
0
 62
     0
 10
229.6093537350333
 20
122.5023195012311
 30
0.0
 11
230.0062287350332
 21
123.189727165485
 31
0.0
  0
LINE
  5
1F4A
  8
0
 62
     0
 10
231.9906040195292
 20
129.37639597951619
 30
0.0
 11
232.38747901952931
 21
130.06380364377009
 31
0.0
  0
LINE
  5
1F4B
  8
0
 62
     0
 10
230.7999790195293
 20
127.3141729867545
 30
0.0
 11
231.1968540195293
 21
128.0015806510084
 31
0.0
  0
LINE
  5
1F4C
  8
0
 62
     0
 10
229.60935401952929
 20
125.2519499939928
 30
0.0
 11
230.00622901952929
 21
125.93935765824671
 31
0.0
  0
LINE
  5
1F4D
  8
0
 62
     0
 10
228.41872901952931
 20
123.18972700123111
 30
0.0
 11
228.8156040195293
 21
123.877134665485
 31
0.0
  0
LINE
  5
1F4E
  8
0
 62
     0
 10
227.41048074495831
 20
121.4433897630305
 30
0.0
 11
227.62497901952929
 21
121.8149116727233
 31
0.0
  0
LINE
  5
1F4F
  8
0
 62
     0
 10
230.79997930402541
 20
130.0638034795162
 30
0.0
 11
231.19685430402541
 21
130.75121114377009
 31
0.0
  0
LINE
  5
1F50
  8
0
 62
     0
 10
229.6093543040254
 20
128.00158048675451
 30
0.0
 11
230.0062293040254
 21
128.6889881510084
 31
0.0
  0
LINE
  5
1F51
  8
0
 62
     0
 10
228.41872930402539
 20
125.9393574939928
 30
0.0
 11
228.81560430402541
 21
126.6267651582467
 31
0.0
  0
LINE
  5
1F52
  8
0
 62
     0
 10
227.22810430402541
 20
123.8771345012311
 30
0.0
 11
227.6249793040254
 21
124.56454216548499
 31
0.0
  0
LINE
  5
1F53
  8
0
 62
     0
 10
226.1698320689126
 20
122.0441532217762
 30
0.0
 11
226.43435430402539
 21
122.5023191727233
 31
0.0
  0
LINE
  5
1F54
  8
0
 62
     0
 10
229.60935458852151
 20
130.7512109795162
 30
0.0
 11
230.00622958852151
 21
131.4386186437701
 31
0.0
  0
LINE
  5
1F55
  8
0
 62
     0
 10
228.4187295885215
 20
128.68898798675451
 30
0.0
 11
228.8156045885215
 21
129.37639565100841
 31
0.0
  0
LINE
  5
1F56
  8
0
 62
     0
 10
227.22810458852149
 20
126.62676499399279
 30
0.0
 11
227.62497958852151
 21
127.3141726582467
 31
0.0
  0
LINE
  5
1F57
  8
0
 62
     0
 10
226.03747958852151
 20
124.5645420012311
 30
0.0
 11
226.4343545885215
 21
125.251949665485
 31
0.0
  0
LINE
  5
1F58
  8
0
 62
     0
 10
225.12616471579921
 20
122.9860983399829
 30
0.0
 11
225.24372958852149
 21
123.1897266727233
 31
0.0
  0
LINE
  5
1F59
  8
0
 62
     0
 10
228.41872987301761
 20
131.43861847951621
 30
0.0
 11
228.81560487301761
 21
132.1260261437701
 31
0.0
  0
LINE
  5
1F5A
  8
0
 62
     0
 10
227.2281048730176
 20
129.37639548675449
 30
0.0
 11
227.62497987301759
 21
130.06380315100839
 31
0.0
  0
LINE
  5
1F5B
  8
0
 62
     0
 10
226.03747987301759
 20
127.3141724939928
 30
0.0
 11
226.4343548730177
 21
128.0015801582467
 31
0.0
  0
LINE
  5
1F5C
  8
0
 62
     0
 10
224.84685487301769
 20
125.2519495012311
 30
0.0
 11
225.24372987301771
 21
125.93935716548501
 31
0.0
  0
LINE
  5
1F5D
  8
0
 62
     0
 10
227.22810515751371
 20
132.12602597951621
 30
0.0
 11
227.291313463162
 21
132.23550597635941
 31
0.0
  0
LINE
  5
1F5E
  8
0
 62
     0
 10
226.0374801575137
 20
130.0638029867545
 30
0.0
 11
226.43435515751369
 21
130.75121065100839
 31
0.0
  0
LINE
  5
1F5F
  8
0
 62
     0
 10
224.84685515751369
 20
128.00157999399281
 30
0.0
 11
225.24373015751371
 21
128.6889876582467
 31
0.0
  0
LINE
  5
1F60
  8
0
 62
     0
 10
223.78797143648859
 20
126.1675395898698
 30
0.0
 11
224.0531051575137
 21
126.626764665485
 31
0.0
  0
LINE
  5
1F61
  8
0
 62
     0
 10
231.19684349317481
 20
130.75118092105291
 30
0.0
 11
230.79996849317479
 21
131.4385885853068
 31
0.0
  0
LINE
  5
1F62
  8
0
 62
     0
 10
232.38746849317479
 20
128.68895792829119
 30
0.0
 11
231.9905934931748
 21
129.37636559254511
 31
0.0
  0
LINE
  5
1F63
  8
0
 62
     0
 10
233.5780934931748
 20
126.6267349355295
 30
0.0
 11
233.18121849317481
 21
127.31414259978339
 31
0.0
  0
LINE
  5
1F64
  8
0
 62
     0
 10
228.81559377767101
 20
132.12599641381459
 30
0.0
 11
228.6124208760277
 21
132.47790220218189
 31
0.0
  0
LINE
  5
1F65
  8
0
 62
     0
 10
230.00621877767091
 20
130.0637734210529
 30
0.0
 11
229.60934377767089
 21
130.7511810853068
 31
0.0
  0
LINE
  5
1F66
  8
0
 62
     0
 10
231.19684377767089
 20
128.00155042829121
 30
0.0
 11
230.7999687776709
 21
128.68895809254511
 31
0.0
  0
LINE
  5
1F67
  8
0
 62
     0
 10
232.3874687776709
 20
125.93932743552951
 30
0.0
 11
231.99059377767091
 21
126.6267350997834
 31
0.0
  0
LINE
  5
1F68
  8
0
 62
     0
 10
233.25899469057319
 20
124.42980027426989
 30
0.0
 11
233.18121877767089
 21
124.5645121070217
 31
0.0
  0
LINE
  5
1F69
  8
0
 62
     0
 10
227.624969062167
 20
131.4385889138147
 30
0.0
 11
227.22809406216709
 21
132.12599657806851
 31
0.0
  0
LINE
  5
1F6A
  8
0
 62
     0
 10
228.81559406216701
 20
129.37636592105289
 30
0.0
 11
228.4187190621671
 21
130.06377358530679
 31
0.0
  0
LINE
  5
1F6B
  8
0
 62
     0
 10
230.00621906216699
 20
127.3141429282913
 30
0.0
 11
229.609344062167
 21
128.00155059254519
 31
0.0
  0
LINE
  5
1F6C
  8
0
 62
     0
 10
231.196844062167
 20
125.2519199355296
 30
0.0
 11
230.79996906216701
 21
125.9393275997835
 31
0.0
  0
LINE
  5
1F6D
  8
0
 62
     0
 10
232.38746906216701
 20
123.1896969427679
 30
0.0
 11
231.99059406216699
 21
123.87710460702181
 31
0.0
  0
LINE
  5
1F6E
  8
0
 62
     0
 10
226.43434434666321
 20
130.75118141381461
 30
0.0
 11
226.03746934666319
 21
131.4385890780685
 31
0.0
  0
LINE
  5
1F6F
  8
0
 62
     0
 10
227.62496934666311
 20
128.68895842105289
 30
0.0
 11
227.22809434666311
 21
129.37636608530681
 31
0.0
  0
LINE
  5
1F70
  8
0
 62
     0
 10
228.81559434666309
 20
126.6267354282913
 30
0.0
 11
228.4187193466631
 21
127.31414309254519
 31
0.0
  0
LINE
  5
1F71
  8
0
 62
     0
 10
230.0062193466631
 20
124.56451243552959
 30
0.0
 11
229.60934434666311
 21
125.2519200997835
 31
0.0
  0
LINE
  5
1F72
  8
0
 62
     0
 10
231.19684434666311
 20
122.5022894427679
 30
0.0
 11
230.79996934666309
 21
123.1896971070218
 31
0.0
  0
LINE
  5
1F73
  8
0
 62
     0
 10
225.24371963115919
 20
130.0637739138146
 30
0.0
 11
224.96983913347859
 21
130.53814885099979
 31
0.0
  0
LINE
  5
1F74
  8
0
 62
     0
 10
226.43434463115921
 20
128.00155092105291
 30
0.0
 11
226.03746963115921
 21
128.68895858530681
 31
0.0
  0
LINE
  5
1F75
  8
0
 62
     0
 10
227.62496963115919
 20
125.93932792829131
 30
0.0
 11
227.22809463115919
 21
126.6267355925452
 31
0.0
  0
LINE
  5
1F76
  8
0
 62
     0
 10
228.8155946311592
 20
123.8771049355296
 30
0.0
 11
228.41871963115921
 21
124.5645125997835
 31
0.0
  0
LINE
  5
1F77
  8
0
 62
     0
 10
230.0062196311591
 20
121.8148819427679
 30
0.0
 11
229.60934463115919
 21
122.50228960702179
 31
0.0
  0
LINE
  5
1F78
  8
0
 62
     0
 10
225.2437199156553
 20
127.314143421053
 30
0.0
 11
224.84684491565531
 21
128.00155108530689
 31
0.0
  0
LINE
  5
1F79
  8
0
 62
     0
 10
226.43434491565529
 20
125.2519204282913
 30
0.0
 11
226.03746991565529
 21
125.9393280925452
 31
0.0
  0
LINE
  5
1F7A
  8
0
 62
     0
 10
227.6249699156553
 20
123.1896974355296
 30
0.0
 11
227.2280949156553
 21
123.87710509978351
 31
0.0
  0
LINE
  5
1F7B
  8
0
 62
     0
 10
228.75183141951581
 20
121.2379160577496
 30
0.0
 11
228.41871991565529
 21
121.8148821070218
 31
0.0
  0
LINE
  5
1F7C
  8
0
 62
     0
 10
224.0530952001514
 20
126.6267359210529
 30
0.0
 11
223.75628927009399
 21
127.14081887190009
 31
0.0
  0
LINE
  5
1F7D
  8
0
 62
     0
 10
225.24372020015139
 20
124.56451292829119
 30
0.0
 11
224.84684520015139
 21
125.2519205925451
 31
0.0
  0
LINE
  5
1F7E
  8
0
 62
     0
 10
226.4343452001514
 20
122.5022899355295
 30
0.0
 11
226.0374702001514
 21
123.1896975997834
 31
0.0
  0
LINE
  5
1F7F
  8
0
 62
     0
 10
230.00625007224161
 20
121.8148893341932
 30
0.0
 11
230.8000000722416
 21
121.8148893341932
 31
0.0
  0
LINE
  5
1F80
  8
0
 62
     0
 10
227.62500007224159
 20
121.8148893341932
 30
0.0
 11
228.41875007224161
 21
121.8148893341932
 31
0.0
  0
LINE
  5
1F81
  8
0
 62
     0
 10
232.38750007224161
 20
123.18970433419319
 30
0.0
 11
232.53777225398511
 21
123.18970433419319
 31
0.0
  0
LINE
  5
1F82
  8
0
 62
     0
 10
230.00625007224161
 20
123.18970433419319
 30
0.0
 11
230.8000000722416
 21
123.18970433419319
 31
0.0
  0
LINE
  5
1F83
  8
0
 62
     0
 10
227.62500007224159
 20
123.18970433419319
 30
0.0
 11
228.41875007224161
 21
123.18970433419319
 31
0.0
  0
LINE
  5
1F84
  8
0
 62
     0
 10
225.2437500722416
 20
123.18970433419319
 30
0.0
 11
226.03750007224161
 21
123.18970433419319
 31
0.0
  0
LINE
  5
1F85
  8
0
 62
     0
 10
232.38750007224161
 20
124.56451933419321
 30
0.0
 11
233.1812500722416
 21
124.56451933419321
 31
0.0
  0
LINE
  5
1F86
  8
0
 62
     0
 10
230.00625007224161
 20
124.56451933419321
 30
0.0
 11
230.8000000722416
 21
124.56451933419321
 31
0.0
  0
LINE
  5
1F87
  8
0
 62
     0
 10
227.62500007224159
 20
124.56451933419321
 30
0.0
 11
228.41875007224161
 21
124.56451933419321
 31
0.0
  0
LINE
  5
1F88
  8
0
 62
     0
 10
225.2437500722416
 20
124.56451933419321
 30
0.0
 11
226.03750007224161
 21
124.56451933419321
 31
0.0
  0
LINE
  5
1F89
  8
0
 62
     0
 10
232.38750007224161
 20
125.93933433419321
 30
0.0
 11
233.1812500722416
 21
125.93933433419321
 31
0.0
  0
LINE
  5
1F8A
  8
0
 62
     0
 10
230.00625007224161
 20
125.93933433419321
 30
0.0
 11
230.8000000722416
 21
125.93933433419321
 31
0.0
  0
LINE
  5
1F8B
  8
0
 62
     0
 10
227.62500007224159
 20
125.93933433419321
 30
0.0
 11
228.41875007224161
 21
125.93933433419321
 31
0.0
  0
LINE
  5
1F8C
  8
0
 62
     0
 10
225.2437500722416
 20
125.93933433419321
 30
0.0
 11
226.03750007224161
 21
125.93933433419321
 31
0.0
  0
LINE
  5
1F8D
  8
0
 62
     0
 10
232.38750007224161
 20
127.3141493341932
 30
0.0
 11
233.1812500722416
 21
127.3141493341932
 31
0.0
  0
LINE
  5
1F8E
  8
0
 62
     0
 10
230.00625007224161
 20
127.3141493341932
 30
0.0
 11
230.8000000722416
 21
127.3141493341932
 31
0.0
  0
LINE
  5
1F8F
  8
0
 62
     0
 10
227.62500007224159
 20
127.3141493341932
 30
0.0
 11
228.41875007224161
 21
127.3141493341932
 31
0.0
  0
LINE
  5
1F90
  8
0
 62
     0
 10
225.2437500722416
 20
127.3141493341932
 30
0.0
 11
226.03750007224161
 21
127.3141493341932
 31
0.0
  0
LINE
  5
1F91
  8
0
 62
     0
 10
232.38750007224161
 20
128.6889643341932
 30
0.0
 11
233.1812500722416
 21
128.6889643341932
 31
0.0
  0
LINE
  5
1F92
  8
0
 62
     0
 10
230.00625007224161
 20
128.6889643341932
 30
0.0
 11
230.8000000722416
 21
128.6889643341932
 31
0.0
  0
LINE
  5
1F93
  8
0
 62
     0
 10
227.62500007224159
 20
128.6889643341932
 30
0.0
 11
228.41875007224161
 21
128.6889643341932
 31
0.0
  0
LINE
  5
1F94
  8
0
 62
     0
 10
225.2437500722416
 20
128.6889643341932
 30
0.0
 11
226.03750007224161
 21
128.6889643341932
 31
0.0
  0
LINE
  5
1F95
  8
0
 62
     0
 10
232.38750007224161
 20
130.06377933419321
 30
0.0
 11
232.8577275373101
 21
130.06377933419321
 31
0.0
  0
LINE
  5
1F96
  8
0
 62
     0
 10
230.00625007224161
 20
130.06377933419321
 30
0.0
 11
230.8000000722416
 21
130.06377933419321
 31
0.0
  0
LINE
  5
1F97
  8
0
 62
     0
 10
227.62500007224159
 20
130.06377933419321
 30
0.0
 11
228.41875007224161
 21
130.06377933419321
 31
0.0
  0
LINE
  5
1F98
  8
0
 62
     0
 10
225.2437500722416
 20
130.06377933419321
 30
0.0
 11
226.03750007224161
 21
130.06377933419321
 31
0.0
  0
LINE
  5
1F99
  8
0
 62
     0
 10
230.00625007224161
 20
131.4385943341932
 30
0.0
 11
230.8000000722416
 21
131.4385943341932
 31
0.0
  0
LINE
  5
1F9A
  8
0
 62
     0
 10
227.62500007224159
 20
131.4385943341932
 30
0.0
 11
228.41875007224161
 21
131.4385943341932
 31
0.0
  0
LINE
  5
1F9B
  8
0
 62
     0
 10
225.8507688196411
 20
131.4385943341932
 30
0.0
 11
226.03750007224161
 21
131.4385943341932
 31
0.0
  0
ENDBLK
  5
1F9D
  8
0
  0
BLOCK
  8
0
  2
*U19
 70
     1
 10
0.0
 20
0.0
 30
0.0
  3
*U19
  1

  0
TEXT
  5
1FF9
  8
SAPA_MATT
 62
     2
 10
-1.799999785468841
 20
180.9956243341847
 30
0.0
 40
3.0
  1
5
  7
ISO
  0
ENDBLK
  5
1FFB
  8
0
  0
BLOCK
  8
0
  2
*U20
 70
     1
 10
0.0
 20
0.0
 30
0.0
  3
*U20
  1

  0
TEXT
  5
1FFD
  8
SAPA_MATT
 62
     2
 10
-29.249999792338741
 20
77.945624334184984
 30
0.0
 40
3.0
  1
117
 50
90.0
  7
ISO
  0
ENDBLK
  5
1FFF
  8
0
  0
BLOCK
  8
0
  2
*U21
 70
     1
 10
0.0
 20
0.0
 30
0.0
  3
*U21
  1

  0
TEXT
  5
2001
  8
SAPA_MATT
 62
     2
 10
-41.252272519611452
 20
62.445624334185752
 30
0.0
 40
3.0
  1
min. 130
 50
90.0
  7
ISO
  0
ENDBLK
  5
2003
  8
0
  0
BLOCK
  8
0
  2
*U22
 70
     1
 10
0.0
 20
0.0
 30
0.0
  3
*U22
  1

  0
TEXT
  5
2005
  8
SAPA_MATT
 62
     2
 10
220.19999992846871
 20
180.9956243341847
 30
0.0
 40
3.0
  1
5
  7
ISO
  0
ENDBLK
  5
2007
  8
0
  0
BLOCK
  8
0
  2
*U23
 70
     1
 10
0.0
 20
0.0
 30
0.0
  3
*U23
  1

  0
TEXT
  5
2009
  8
SAPA_MATT
 62
     2
 10
107.0999999999909
 20
192.9956243341847
 30
0.0
 40
3.0
  1
227
  7
ISO
  0
ENDBLK
  5
200B
  8
0
  0
ENDSEC
  0
SECTION
  2
ENTITIES
  0
TEXT
  5
109A
  8
SAPA_ARTIKELNR
 10
-4.9045492909594941
 20
59.798747171152058
 30
0.0000000048844772
 40
3.5
  1
D9K039
 50
90.0
  7
ISO
  0
LINE
  5
10AD
  8
SAPA_ANSLUTNING
 10
134.75000014311399
 20
70.19621568416926
 30
0.0
 11
134.75000014311399
 21
13.24562433418521
 31
0.0
  0
ARC
  5
10AE
  8
SAPA_ANSLUTNING
 10
125.75000014311399
 20
13.24562433418521
 30
0.0
 40
9.0
 50
180.0
 51
0.0
  0
LINE
  5
10AF
  8
SAPA_ANSLUTNING
 10
116.75000014311399
 20
13.24562433418521
 30
0.0
 11
116.75000014311399
 21
70.19621568416926
 31
0.0
  0
ARC
  5
10B0
  8
SAPA_ANSLUTNING
 10
107.75000014311399
 20
70.19621568416926
 30
0.0
 40
9.0
 50
0.0
 51
180.0
  0
LINE
  5
10B1
  8
SAPA_ANSLUTNING
 10
98.750000143113994
 20
70.19621568416926
 30
0.0
 11
98.750000143113994
 21
13.24562433418521
 31
0.0
  0
ARC
  5
10B2
  8
SAPA_ANSLUTNING
 10
89.750000143113994
 20
13.24562433418521
 30
0.0
 40
9.0
 50
180.0
 51
0.0
  0
LINE
  5
10B3
  8
SAPA_ANSLUTNING
 10
80.750000143113994
 20
13.24562433418521
 30
0.0
 11
80.750000143113994
 21
70.19621568416926
 31
0.0
  0
ARC
  5
10B4
  8
SAPA_ANSLUTNING
 10
71.750000143113994
 20
70.19621568416926
 30
0.0
 40
9.0
 50
0.0
 51
180.0
  0
LINE
  5
10B5
  8
SAPA_ANSLUTNING
 10
62.750000143113994
 20
70.19621568416926
 30
0.0
 11
62.750000143113994
 21
13.24562433418521
 31
0.0
  0
ARC
  5
10B6
  8
SAPA_ANSLUTNING
 10
53.750000143114001
 20
13.24562433418521
 30
0.0
 40
9.0
 50
180.0
 51
0.0
  0
LINE
  5
10B7
  8
SAPA_ANSLUTNING
 10
44.750000143113994
 20
13.24562433418521
 30
0.0
 11
44.750000143113994
 21
70.19621568416926
 31
0.0
  0
ARC
  5
10B8
  8
SAPA_ANSLUTNING
 10
35.750000143113994
 20
70.19621568416926
 30
0.0
 40
9.0
 50
0.0
 51
180.0
  0
LINE
  5
10B9
  8
SAPA_ANSLUTNING
 10
26.75000014311399
 20
70.19621568416926
 30
0.0
 11
26.75000014311399
 21
14.0
 31
0.0
  0
ARC
  5
10BA
  8
SAPA_ANSLUTNING
 10
17.75000014311399
 20
14.0
 30
0.0
 40
9.0
 50
180.0
 51
0.0
  0
LINE
  5
10BB
  8
SAPA_ANSLUTNING
 10
8.7500001431139935
 20
14.0
 30
0.0
 11
8.7500001431139935
 21
70.19621568416926
 31
0.0
  0
ARC
  5
10BC
  8
SAPA_ANSLUTNING
 10
-0.2499998568860064
 20
70.196215684169317
 30
0.0
 40
9.0
 50
0.0
 51
75.947599252306944
  0
INSERT
  5
10BE
  8
SAPA_ANSLUTNING
  6
CONTINUOUS
  2
*X17
 10
0.0
 20
0.0
 30
0.0
1001
ACAD
1000
HATCH
1002
{
1070
    19
1000
ANSI37
1040
0.25
1040
0.0
1000
R14_HATCH_DATA
1000
10BE
1011
1.0
1021
0.0
1031
0.0
1021
0.0
1031
0.0
1011
0.0
1021
0.0
1031
0.0
1021
1.0
1031
0.0
1011
0.0
1021
0.0
1031
0.0
1021
0.0
1031
1.0
1040
0.0
1010
0.0
1020
0.0
1030
1.0
1000
ANSI37
1070
     0
1070
     0
1071
        1
1071
        1
1071
        6
1070
     3
1040
228.74999999998229
1040
126.8589730975024
1040
0.0
1040
-5.6210574168242138
1040
0.8895123513655372
1040
1.5707963267948959
1040
2.1443094312180282
1070
     0
1070
     3
1040
228.74999999998229
1040
126.8589730975024
1040
0.0
1040
-5.6210574168242138
1040
0.8895123513655372
1040
2.1443094312180282
1040
4.7123889803846888
1070
     0
1070
     1
1040
233.74999999998229
1040
126.858973097503
1040
233.74999999998769
1040
138.99562433418649
1070
     2
1040
226.39577238540551
1040
175.9532443697085
1040
37.682228470422281
1040
1.3743713074094801
1040
1.656659962157667
1070
     0
1070
     2
1040
222.7436210287556
1040
137.4675415736142
1040
1.03190134189308
1040
5.1322020923130438
1040
6.0603132450238819
1070
     0
1070
     1
1040
223.74999999998229
1040
137.69562433419321
1040
223.74999999998229
1040
126.8589730975026
1071
        0
1070
     0
1070
     1
1040
0.0
1040
0.25
1070
     0
1070
     2
1040
0.7853981633974483
1040
84.750000072241619
1040
79.195624334193212
1040
-0.5612660075668221
1040
0.5612660075668221
1070
     0
1040
2.3561944901923439
1040
84.750000072241619
1040
79.195624334193212
1040
-0.5612660075668221
1040
-0.5612660075668221
1070
     0
1071
        1
1040
227.74867641923129
1040
135.61598904711909
1040
0.0
1002
}
  0
LINE
  5
10BF
  8
SAPA_ANSLUTNING
 10
233.74999999998269
 20
138.9956243341849
 30
0.0
 11
278.7532560066411
 21
138.9956243341849
 31
0.0
  0
LINE
  5
10C0
  8
SAPA_ANSLUTNING
 10
278.75325600664058
 20
110.19562433417821
 30
0.0
 11
233.74999999998229
 21
110.19562433417821
 31
0.0
  0
LINE
  5
10C1
  8
SAPA_ANSLUTNING
 10
233.74999999998229
 20
-0.0043756658134271
 30
0.0
 11
233.74999999998269
 21
138.9956243341849
 31
0.0
  0
ARC
  5
10C2
  8
SAPA_ANSLUTNING
 10
226.39577238540551
 20
175.95324436970901
 30
0.0
 40
37.6822284704227
 50
265.08037608006839
 51
281.25432460154741
  0
INSERT
  5
10C3
  8
SAPA_ANSLUTNING
  6
CONTINUOUS
  2
*X18
 10
0.0
 20
0.0
 30
0.0
1001
ACAD
1000
HATCH
1002
{
1070
    19
1000
HEX
1040
0.25
1040
0.0
1000
ASC_BOUNDS
1070
     1
1070
     1
1070
     1
1005
10C4
1000
ASC_SEEDPOINT
1011
228.9921100100569
1021
0.0
1031
0.0
1021
126.9773107865591
1031
0.0
1000
R14_HATCH_DATA
1000
10C3
1011
1.0
1021
0.0
1031
0.0
1021
0.0
1031
0.0
1011
0.0
1021
0.0
1031
0.0
1021
1.0
1031
0.0
1011
0.0
1021
0.0
1031
0.0
1021
0.0
1031
1.0
1040
0.0
1010
0.0
1020
0.0
1030
1.0
1000
HEX
1070
     0
1070
     1
1071
        1
1071
        5
1071
        1
1070
     3
1040
228.74999999998229
1040
126.8589730975024
1040
0.0
1040
-5.6210574168242138
1040
0.8895123513655372
1040
0.0
1040
6.2831853071795862
1070
     1
1071
        1
1005
10C4
1070
     0
1070
     1
1040
0.0
1040
0.25
1070
     0
1070
     3
1040
0.0
1040
84.750000072241619
1040
79.195624334193212
1040
0.0
1040
1.374814999999999
1070
     2
1040
0.79375
1040
-1.587499999999999
1040
2.0943951023931948
1040
84.750000072241619
1040
79.195624334193212
1040
-1.190624715503902
1040
-0.6874074999999996
1070
     2
1040
0.7937499999999963
1040
-1.5874999999999919
1040
1.047197551196597
1040
85.543750072240513
1040
79.195624334193212
1040
-1.190624715503902
1040
0.6874075000000001
1070
     2
1040
0.79375
1040
-1.587499999999999
1040
0.0591690278051155
1071
        1
1040
228.9921100100569
1040
126.9773107865591
1040
0.0
1002
}
  0
POLYLINE
  5
10C4
  8
SAPA_ANSLUTNING
 10
228.74999999998229
 20
121.23791568067819
 30
0.0
 66
     1
 70
     8
  0
VERTEX
  8
SAPA_ANSLUTNING
  5
200F
 10
228.750
 20
121.238
 30
0.000000
  70
    32
  0
VERTEX
  8
SAPA_ANSLUTNING
  5
2010
 10
228.995
 20
121.245
 30
0.000000
  70
    32
  0
VERTEX
  8
SAPA_ANSLUTNING
  5
2011
 10
229.240
 20
121.265
 30
0.000000
  70
    32
  0
VERTEX
  8
SAPA_ANSLUTNING
  5
2012
 10
229.484
 20
121.299
 30
0.000000
  70
    32
  0
VERTEX
  8
SAPA_ANSLUTNING
  5
2013
 10
229.725
 20
121.346
 30
0.000000
  70
    32
  0
VERTEX
  8
SAPA_ANSLUTNING
  5
2014
 10
229.965
 20
121.406
 30
0.000000
  70
    32
  0
VERTEX
  8
SAPA_ANSLUTNING
  5
2015
 10
230.201
 20
121.480
 30
0.000000
  70
    32
  0
VERTEX
  8
SAPA_ANSLUTNING
  5
2016
 10
230.434
 20
121.566
 30
0.000000
  70
    32
  0
VERTEX
  8
SAPA_ANSLUTNING
  5
2017
 10
230.663
 20
121.666
 30
0.000000
  70
    32
  0
VERTEX
  8
SAPA_ANSLUTNING
  5
2018
 10
230.888
 20
121.778
 30
0.000000
  70
    32
  0
VERTEX
  8
SAPA_ANSLUTNING
  5
2019
 10
231.107
 20
121.902
 30
0.000000
  70
    32
  0
VERTEX
  8
SAPA_ANSLUTNING
  5
201A
 10
231.321
 20
122.038
 30
0.000000
  70
    32
  0
VERTEX
  8
SAPA_ANSLUTNING
  5
201B
 10
231.528
 20
122.185
 30
0.000000
  70
    32
  0
VERTEX
  8
SAPA_ANSLUTNING
  5
201C
 10
231.728
 20
122.344
 30
0.000000
  70
    32
  0
VERTEX
  8
SAPA_ANSLUTNING
  5
201D
 10
231.922
 20
122.514
 30
0.000000
  70
    32
  0
VERTEX
  8
SAPA_ANSLUTNING
  5
201E
 10
232.108
 20
122.694
 30
0.000000
  70
    32
  0
VERTEX
  8
SAPA_ANSLUTNING
  5
201F
 10
232.286
 20
122.884
 30
0.000000
  70
    32
  0
VERTEX
  8
SAPA_ANSLUTNING
  5
2020
 10
232.455
 20
123.084
 30
0.000000
  70
    32
  0
VERTEX
  8
SAPA_ANSLUTNING
  5
2021
 10
232.615
 20
123.293
 30
0.000000
  70
    32
  0
VERTEX
  8
SAPA_ANSLUTNING
  5
2022
 10
232.766
 20
123.511
 30
0.000000
  70
    32
  0
VERTEX
  8
SAPA_ANSLUTNING
  5
2023
 10
232.907
 20
123.736
 30
0.000000
  70
    32
  0
VERTEX
  8
SAPA_ANSLUTNING
  5
2024
 10
233.039
 20
123.969
 30
0.000000
  70
    32
  0
VERTEX
  8
SAPA_ANSLUTNING
  5
2025
 10
233.160
 20
124.209
 30
0.000000
  70
    32
  0
VERTEX
  8
SAPA_ANSLUTNING
  5
2026
 10
233.270
 20
124.456
 30
0.000000
  70
    32
  0
VERTEX
  8
SAPA_ANSLUTNING
  5
2027
 10
233.369
 20
124.708
 30
0.000000
  70
    32
  0
VERTEX
  8
SAPA_ANSLUTNING
  5
2028
 10
233.458
 20
124.965
 30
0.000000
  70
    32
  0
VERTEX
  8
SAPA_ANSLUTNING
  5
2029
 10
233.535
 20
125.227
 30
0.000000
  70
    32
  0
VERTEX
  8
SAPA_ANSLUTNING
  5
202A
 10
233.600
 20
125.493
 30
0.000000
  70
    32
  0
VERTEX
  8
SAPA_ANSLUTNING
  5
202B
 10
233.654
 20
125.762
 30
0.000000
  70
    32
  0
VERTEX
  8
SAPA_ANSLUTNING
  5
202C
 10
233.696
 20
126.034
 30
0.000000
  70
    32
  0
VERTEX
  8
SAPA_ANSLUTNING
  5
202D
 10
233.726
 20
126.308
 30
0.000000
  70
    32
  0
VERTEX
  8
SAPA_ANSLUTNING
  5
202E
 10
233.744
 20
126.583
 30
0.000000
  70
    32
  0
VERTEX
  8
SAPA_ANSLUTNING
  5
202F
 10
233.750
 20
126.859
 30
0.000000
  70
    32
  0
VERTEX
  8
SAPA_ANSLUTNING
  5
2030
 10
233.744
 20
127.135
 30
0.000000
  70
    32
  0
VERTEX
  8
SAPA_ANSLUTNING
  5
2031
 10
233.726
 20
127.410
 30
0.000000
  70
    32
  0
VERTEX
  8
SAPA_ANSLUTNING
  5
2032
 10
233.696
 20
127.684
 30
0.000000
  70
    32
  0
VERTEX
  8
SAPA_ANSLUTNING
  5
2033
 10
233.654
 20
127.956
 30
0.000000
  70
    32
  0
VERTEX
  8
SAPA_ANSLUTNING
  5
2034
 10
233.600
 20
128.225
 30
0.000000
  70
    32
  0
VERTEX
  8
SAPA_ANSLUTNING
  5
2035
 10
233.535
 20
128.491
 30
0.000000
  70
    32
  0
VERTEX
  8
SAPA_ANSLUTNING
  5
2036
 10
233.458
 20
128.753
 30
0.000000
  70
    32
  0
VERTEX
  8
SAPA_ANSLUTNING
  5
2037
 10
233.369
 20
129.010
 30
0.000000
  70
    32
  0
VERTEX
  8
SAPA_ANSLUTNING
  5
2038
 10
233.270
 20
129.262
 30
0.000000
  70
    32
  0
VERTEX
  8
SAPA_ANSLUTNING
  5
2039
 10
233.160
 20
129.509
 30
0.000000
  70
    32
  0
VERTEX
  8
SAPA_ANSLUTNING
  5
203A
 10
233.039
 20
129.749
 30
0.000000
  70
    32
  0
VERTEX
  8
SAPA_ANSLUTNING
  5
203B
 10
232.907
 20
129.982
 30
0.000000
  70
    32
  0
VERTEX
  8
SAPA_ANSLUTNING
  5
203C
 10
232.766
 20
130.207
 30
0.000000
  70
    32
  0
VERTEX
  8
SAPA_ANSLUTNING
  5
203D
 10
232.615
 20
130.425
 30
0.000000
  70
    32
  0
VERTEX
  8
SAPA_ANSLUTNING
  5
203E
 10
232.455
 20
130.634
 30
0.000000
  70
    32
  0
VERTEX
  8
SAPA_ANSLUTNING
  5
203F
 10
232.286
 20
130.834
 30
0.000000
  70
    32
  0
VERTEX
  8
SAPA_ANSLUTNING
  5
2040
 10
232.108
 20
131.024
 30
0.000000
  70
    32
  0
VERTEX
  8
SAPA_ANSLUTNING
  5
2041
 10
231.922
 20
131.204
 30
0.000000
  70
    32
  0
VERTEX
  8
SAPA_ANSLUTNING
  5
2042
 10
231.728
 20
131.374
 30
0.000000
  70
    32
  0
VERTEX
  8
SAPA_ANSLUTNING
  5
2043
 10
231.528
 20
131.533
 30
0.000000
  70
    32
  0
VERTEX
  8
SAPA_ANSLUTNING
  5
2044
 10
231.321
 20
131.680
 30
0.000000
  70
    32
  0
VERTEX
  8
SAPA_ANSLUTNING
  5
2045
 10
231.107
 20
131.816
 30
0.000000
  70
    32
  0
VERTEX
  8
SAPA_ANSLUTNING
  5
2046
 10
230.888
 20
131.940
 30
0.000000
  70
    32
  0
VERTEX
  8
SAPA_ANSLUTNING
  5
2047
 10
230.663
 20
132.052
 30
0.000000
  70
    32
  0
VERTEX
  8
SAPA_ANSLUTNING
  5
2048
 10
230.434
 20
132.151
 30
0.000000
  70
    32
  0
VERTEX
  8
SAPA_ANSLUTNING
  5
2049
 10
230.201
 20
132.238
 30
0.000000
  70
    32
  0
VERTEX
  8
SAPA_ANSLUTNING
  5
204A
 10
229.965
 20
132.312
 30
0.000000
  70
    32
  0
VERTEX
  8
SAPA_ANSLUTNING
  5
204B
 10
229.725
 20
132.372
 30
0.000000
  70
    32
  0
VERTEX
  8
SAPA_ANSLUTNING
  5
204C
 10
229.484
 20
132.419
 30
0.000000
  70
    32
  0
VERTEX
  8
SAPA_ANSLUTNING
  5
204D
 10
229.240
 20
132.453
 30
0.000000
  70
    32
  0
VERTEX
  8
SAPA_ANSLUTNING
  5
204E
 10
228.995
 20
132.473
 30
0.000000
  70
    32
  0
VERTEX
  8
SAPA_ANSLUTNING
  5
204F
 10
228.750
 20
132.480
 30
0.000000
  70
    32
  0
VERTEX
  8
SAPA_ANSLUTNING
  5
2050
 10
228.505
 20
132.473
 30
0.000000
  70
    32
  0
VERTEX
  8
SAPA_ANSLUTNING
  5
2051
 10
228.260
 20
132.453
 30
0.000000
  70
    32
  0
VERTEX
  8
SAPA_ANSLUTNING
  5
2052
 10
228.016
 20
132.419
 30
0.000000
  70
    32
  0
VERTEX
  8
SAPA_ANSLUTNING
  5
2053
 10
227.775
 20
132.372
 30
0.000000
  70
    32
  0
VERTEX
  8
SAPA_ANSLUTNING
  5
2054
 10
227.535
 20
132.312
 30
0.000000
  70
    32
  0
VERTEX
  8
SAPA_ANSLUTNING
  5
2055
 10
227.299
 20
132.238
 30
0.000000
  70
    32
  0
VERTEX
  8
SAPA_ANSLUTNING
  5
2056
 10
227.066
 20
132.151
 30
0.000000
  70
    32
  0
VERTEX
  8
SAPA_ANSLUTNING
  5
2057
 10
226.837
 20
132.052
 30
0.000000
  70
    32
  0
VERTEX
  8
SAPA_ANSLUTNING
  5
2058
 10
226.612
 20
131.940
 30
0.000000
  70
    32
  0
VERTEX
  8
SAPA_ANSLUTNING
  5
2059
 10
226.393
 20
131.816
 30
0.000000
  70
    32
  0
VERTEX
  8
SAPA_ANSLUTNING
  5
205A
 10
226.179
 20
131.680
 30
0.000000
  70
    32
  0
VERTEX
  8
SAPA_ANSLUTNING
  5
205B
 10
225.972
 20
131.533
 30
0.000000
  70
    32
  0
VERTEX
  8
SAPA_ANSLUTNING
  5
205C
 10
225.772
 20
131.374
 30
0.000000
  70
    32
  0
VERTEX
  8
SAPA_ANSLUTNING
  5
205D
 10
225.578
 20
131.204
 30
0.000000
  70
    32
  0
VERTEX
  8
SAPA_ANSLUTNING
  5
205E
 10
225.392
 20
131.024
 30
0.000000
  70
    32
  0
VERTEX
  8
SAPA_ANSLUTNING
  5
205F
 10
225.214
 20
130.834
 30
0.000000
  70
    32
  0
VERTEX
  8
SAPA_ANSLUTNING
  5
2060
 10
225.045
 20
130.634
 30
0.000000
  70
    32
  0
VERTEX
  8
SAPA_ANSLUTNING
  5
2061
 10
224.885
 20
130.425
 30
0.000000
  70
    32
  0
VERTEX
  8
SAPA_ANSLUTNING
  5
2062
 10
224.734
 20
130.207
 30
0.000000
  70
    32
  0
VERTEX
  8
SAPA_ANSLUTNING
  5
2063
 10
224.593
 20
129.982
 30
0.000000
  70
    32
  0
VERTEX
  8
SAPA_ANSLUTNING
  5
2064
 10
224.461
 20
129.749
 30
0.000000
  70
    32
  0
VERTEX
  8
SAPA_ANSLUTNING
  5
2065
 10
224.340
 20
129.509
 30
0.000000
  70
    32
  0
VERTEX
  8
SAPA_ANSLUTNING
  5
2066
 10
224.230
 20
129.262
 30
0.000000
  70
    32
  0
VERTEX
  8
SAPA_ANSLUTNING
  5
2067
 10
224.131
 20
129.010
 30
0.000000
  70
    32
  0
VERTEX
  8
SAPA_ANSLUTNING
  5
2068
 10
224.042
 20
128.753
 30
0.000000
  70
    32
  0
VERTEX
  8
SAPA_ANSLUTNING
  5
2069
 10
223.965
 20
128.491
 30
0.000000
  70
    32
  0
VERTEX
  8
SAPA_ANSLUTNING
  5
206A
 10
223.900
 20
128.225
 30
0.000000
  70
    32
  0
VERTEX
  8
SAPA_ANSLUTNING
  5
206B
 10
223.846
 20
127.956
 30
0.000000
  70
    32
  0
VERTEX
  8
SAPA_ANSLUTNING
  5
206C
 10
223.804
 20
127.684
 30
0.000000
  70
    32
  0
VERTEX
  8
SAPA_ANSLUTNING
  5
206D
 10
223.774
 20
127.410
 30
0.000000
  70
    32
  0
VERTEX
  8
SAPA_ANSLUTNING
  5
206E
 10
223.756
 20
127.135
 30
0.000000
  70
    32
  0
VERTEX
  8
SAPA_ANSLUTNING
  5
206F
 10
223.750
 20
126.859
 30
0.000000
  70
    32
  0
VERTEX
  8
SAPA_ANSLUTNING
  5
2070
 10
223.756
 20
126.583
 30
0.000000
  70
    32
  0
VERTEX
  8
SAPA_ANSLUTNING
  5
2071
 10
223.774
 20
126.308
 30
0.000000
  70
    32
  0
VERTEX
  8
SAPA_ANSLUTNING
  5
2072
 10
223.804
 20
126.034
 30
0.000000
  70
    32
  0
VERTEX
  8
SAPA_ANSLUTNING
  5
2073
 10
223.846
 20
125.762
 30
0.000000
  70
    32
  0
VERTEX
  8
SAPA_ANSLUTNING
  5
2074
 10
223.900
 20
125.493
 30
0.000000
  70
    32
  0
VERTEX
  8
SAPA_ANSLUTNING
  5
2075
 10
223.965
 20
125.227
 30
0.000000
  70
    32
  0
VERTEX
  8
SAPA_ANSLUTNING
  5
2076
 10
224.042
 20
124.965
 30
0.000000
  70
    32
  0
VERTEX
  8
SAPA_ANSLUTNING
  5
2077
 10
224.131
 20
124.708
 30
0.000000
  70
    32
  0
VERTEX
  8
SAPA_ANSLUTNING
  5
2078
 10
224.230
 20
124.456
 30
0.000000
  70
    32
  0
VERTEX
  8
SAPA_ANSLUTNING
  5
2079
 10
224.340
 20
124.209
 30
0.000000
  70
    32
  0
VERTEX
  8
SAPA_ANSLUTNING
  5
207A
 10
224.461
 20
123.969
 30
0.000000
  70
    32
  0
VERTEX
  8
SAPA_ANSLUTNING
  5
207B
 10
224.593
 20
123.736
 30
0.000000
  70
    32
  0
VERTEX
  8
SAPA_ANSLUTNING
  5
207C
 10
224.734
 20
123.511
 30
0.000000
  70
    32
  0
VERTEX
  8
SAPA_ANSLUTNING
  5
207D
 10
224.885
 20
123.293
 30
0.000000
  70
    32
  0
VERTEX
  8
SAPA_ANSLUTNING
  5
207E
 10
225.045
 20
123.084
 30
0.000000
  70
    32
  0
VERTEX
  8
SAPA_ANSLUTNING
  5
207F
 10
225.214
 20
122.884
 30
0.000000
  70
    32
  0
VERTEX
  8
SAPA_ANSLUTNING
  5
2080
 10
225.392
 20
122.694
 30
0.000000
  70
    32
  0
VERTEX
  8
SAPA_ANSLUTNING
  5
2081
 10
225.578
 20
122.514
 30
0.000000
  70
    32
  0
VERTEX
  8
SAPA_ANSLUTNING
  5
2082
 10
225.772
 20
122.344
 30
0.000000
  70
    32
  0
VERTEX
  8
SAPA_ANSLUTNING
  5
2083
 10
225.972
 20
122.185
 30
0.000000
  70
    32
  0
VERTEX
  8
SAPA_ANSLUTNING
  5
2084
 10
226.179
 20
122.038
 30
0.000000
  70
    32
  0
VERTEX
  8
SAPA_ANSLUTNING
  5
2085
 10
226.393
 20
121.902
 30
0.000000
  70
    32
  0
VERTEX
  8
SAPA_ANSLUTNING
  5
2086
 10
226.612
 20
121.778
 30
0.000000
  70
    32
  0
VERTEX
  8
SAPA_ANSLUTNING
  5
2087
 10
226.837
 20
121.666
 30
0.000000
  70
    32
  0
VERTEX
  8
SAPA_ANSLUTNING
  5
2088
 10
227.066
 20
121.566
 30
0.000000
  70
    32
  0
VERTEX
  8
SAPA_ANSLUTNING
  5
2089
 10
227.299
 20
121.480
 30
0.000000
  70
    32
  0
VERTEX
  8
SAPA_ANSLUTNING
  5
208A
 10
227.535
 20
121.406
 30
0.000000
  70
    32
  0
VERTEX
  8
SAPA_ANSLUTNING
  5
208B
 10
227.775
 20
121.346
 30
0.000000
  70
    32
  0
VERTEX
  8
SAPA_ANSLUTNING
  5
208C
 10
228.016
 20
121.299
 30
0.000000
  70
    32
  0
VERTEX
  8
SAPA_ANSLUTNING
  5
208D
 10
228.260
 20
121.265
 30
0.000000
  70
    32
  0
VERTEX
  8
SAPA_ANSLUTNING
  5
208E
 10
228.505
 20
121.245
 30
0.000000
  70
    32
  0
VERTEX
  8
SAPA_ANSLUTNING
  5
208F
 10
228.750
 20
121.238
 30
0.000000
  70
    32
  0
SEQEND
  8
SAPA_ANSLUTNING
  5
2090
  0
POLYLINE
  5
10C5
  8
SAPA_ANSLUTNING
 66
     1
 10
0.0
 20
0.0
 30
0.0
  0
VERTEX
  5
1F9E
  8
SAPA_ANSLUTNING
 10
225.25107147180961
 20
122.8935547436227
 30
0.0
 42
0.8812634091770721
  0
VERTEX
  5
1F9F
  8
SAPA_ANSLUTNING
 10
225.7499999284687
 20
118.9567867154027
 30
0.0
  0
VERTEX
  5
1FA0
  8
SAPA_ANSLUTNING
 10
231.7499999284687
 20
118.9567867154027
 30
0.0
 42
-0.9999999999999998
  0
VERTEX
  5
1FA1
  8
SAPA_ANSLUTNING
 10
231.7499999284687
 20
114.9567867154027
 30
0.0
  0
VERTEX
  5
1FA2
  8
SAPA_ANSLUTNING
 10
225.7499999284687
 20
114.9567867154027
 30
0.0
 42
0.9999999999999998
  0
VERTEX
  5
1FA3
  8
SAPA_ANSLUTNING
 10
225.7499999284687
 20
110.9567867154027
 30
0.0
  0
VERTEX
  5
1FA4
  8
SAPA_ANSLUTNING
 10
231.7499999284687
 20
110.9567867154027
 30
0.0
 42
-0.9999999999999998
  0
VERTEX
  5
1FA5
  8
SAPA_ANSLUTNING
 10
231.7499999284687
 20
106.9567867154027
 30
0.0
  0
VERTEX
  5
1FA6
  8
SAPA_ANSLUTNING
 10
225.7499999284687
 20
106.9567867154027
 30
0.0
 42
0.9999999999999998
  0
VERTEX
  5
1FA7
  8
SAPA_ANSLUTNING
 10
225.7499999284687
 20
102.9567867154027
 30
0.0
  0
VERTEX
  5
1FA8
  8
SAPA_ANSLUTNING
 10
231.7499999284687
 20
102.9567867154027
 30
0.0
 42
-0.9999999999999998
  0
VERTEX
  5
1FA9
  8
SAPA_ANSLUTNING
 10
231.7499999284687
 20
98.9567867154027
 30
0.0
  0
VERTEX
  5
1FAA
  8
SAPA_ANSLUTNING
 10
225.7499999284687
 20
98.9567867154027
 30
0.0
 42
0.9999999999999998
  0
VERTEX
  5
1FAB
  8
SAPA_ANSLUTNING
 10
225.7499999284687
 20
94.9567867154027
 30
0.0
  0
VERTEX
  5
1FAC
  8
SAPA_ANSLUTNING
 10
231.7499999284687
 20
94.9567867154027
 30
0.0
 42
-0.9999999999999998
  0
VERTEX
  5
1FAD
  8
SAPA_ANSLUTNING
 10
231.7499999284687
 20
90.956786715402686
 30
0.0
  0
VERTEX
  5
1FAE
  8
SAPA_ANSLUTNING
 10
225.7499999284687
 20
90.956786715402686
 30
0.0
 42
0.9999999999999998
  0
VERTEX
  5
1FAF
  8
SAPA_ANSLUTNING
 10
225.7499999284687
 20
86.956786715402686
 30
0.0
  0
VERTEX
  5
1FB0
  8
SAPA_ANSLUTNING
 10
231.7499999284687
 20
86.956786715402686
 30
0.0
 42
-0.9999999999999998
  0
VERTEX
  5
1FB1
  8
SAPA_ANSLUTNING
 10
231.7499999284687
 20
82.956786715402714
 30
0.0
  0
VERTEX
  5
1FB2
  8
SAPA_ANSLUTNING
 10
225.7499999284687
 20
82.956786715402714
 30
0.0
 42
0.9999999999999998
  0
VERTEX
  5
1FB3
  8
SAPA_ANSLUTNING
 10
225.7499999284687
 20
78.9567867154027
 30
0.0
  0
VERTEX
  5
1FB4
  8
SAPA_ANSLUTNING
 10
231.7499999284687
 20
78.9567867154027
 30
0.0
 42
-0.9999999999999998
  0
VERTEX
  5
1FB5
  8
SAPA_ANSLUTNING
 10
231.7499999284687
 20
74.9567867154027
 30
0.0
  0
VERTEX
  5
1FB6
  8
SAPA_ANSLUTNING
 10
225.7499999284687
 20
74.9567867154027
 30
0.0
 42
0.9999999999999998
  0
VERTEX
  5
1FB7
  8
SAPA_ANSLUTNING
 10
225.7499999284687
 20
70.956786715402686
 30
0.0
  0
VERTEX
  5
1FB8
  8
SAPA_ANSLUTNING
 10
231.7499999284687
 20
70.956786715402686
 30
0.0
 42
-0.9999999999999998
  0
VERTEX
  5
1FB9
  8
SAPA_ANSLUTNING
 10
231.7499999284687
 20
66.9567867154027
 30
0.0
  0
VERTEX
  5
1FBA
  8
SAPA_ANSLUTNING
 10
225.7499999284687
 20
66.9567867154027
 30
0.0
 42
0.9999999999999998
  0
VERTEX
  5
1FBB
  8
SAPA_ANSLUTNING
 10
225.7499999284687
 20
62.9567867154027
 30
0.0
  0
VERTEX
  5
1FBC
  8
SAPA_ANSLUTNING
 10
231.7499999284687
 20
62.9567867154027
 30
0.0
 42
-0.9999999999999998
  0
VERTEX
  5
1FBD
  8
SAPA_ANSLUTNING
 10
231.7499999284687
 20
58.9567867154027
 30
0.0
  0
VERTEX
  5
1FBE
  8
SAPA_ANSLUTNING
 10
225.7499999284687
 20
58.9567867154027
 30
0.0
 42
0.9999999999999998
  0
VERTEX
  5
1FBF
  8
SAPA_ANSLUTNING
 10
225.7499999284687
 20
54.9567867154027
 30
0.0
  0
VERTEX
  5
1FC0
  8
SAPA_ANSLUTNING
 10
231.7499999284687
 20
54.9567867154027
 30
0.0
 42
-0.9999999999999998
  0
VERTEX
  5
1FC1
  8
SAPA_ANSLUTNING
 10
231.7499999284687
 20
50.956786715402693
 30
0.0
  0
VERTEX
  5
1FC2
  8
SAPA_ANSLUTNING
 10
225.7499999284687
 20
50.956786715402693
 30
0.0
 42
0.9999999999999998
  0
VERTEX
  5
1FC3
  8
SAPA_ANSLUTNING
 10
225.7499999284687
 20
46.9567867154027
 30
0.0
  0
VERTEX
  5
1FC4
  8
SAPA_ANSLUTNING
 10
231.7499999284687
 20
46.9567867154027
 30
0.0
 42
-0.9999999999999998
  0
VERTEX
  5
1FC5
  8
SAPA_ANSLUTNING
 10
231.7499999284687
 20
42.9567867154027
 30
0.0
  0
VERTEX
  5
1FC6
  8
SAPA_ANSLUTNING
 10
225.7499999284687
 20
42.9567867154027
 30
0.0
 42
0.9999999999999998
  0
VERTEX
  5
1FC7
  8
SAPA_ANSLUTNING
 10
225.7499999284687
 20
38.9567867154027
 30
0.0
  0
VERTEX
  5
1FC8
  8
SAPA_ANSLUTNING
 10
231.7499999284687
 20
38.9567867154027
 30
0.0
 42
-0.9999999999999998
  0
VERTEX
  5
1FC9
  8
SAPA_ANSLUTNING
 10
231.7499999284687
 20
34.9567867154027
 30
0.0
  0
VERTEX
  5
1FCA
  8
SAPA_ANSLUTNING
 10
225.7499999284687
 20
34.9567867154027
 30
0.0
 42
0.9999999999999998
  0
VERTEX
  5
1FCB
  8
SAPA_ANSLUTNING
 10
225.7499999284687
 20
30.9567867154027
 30
0.0
  0
VERTEX
  5
1FCC
  8
SAPA_ANSLUTNING
 10
231.7499999284687
 20
30.9567867154027
 30
0.0
 42
-0.9999999999999998
  0
VERTEX
  5
1FCD
  8
SAPA_ANSLUTNING
 10
231.7499999284687
 20
26.9567867154027
 30
0.0
  0
VERTEX
  5
1FCE
  8
SAPA_ANSLUTNING
 10
225.7499999284687
 20
26.9567867154027
 30
0.0
 42
0.9999999999999998
  0
VERTEX
  5
1FCF
  8
SAPA_ANSLUTNING
 10
225.7499999284687
 20
22.9567867154027
 30
0.0
  0
VERTEX
  5
1FD0
  8
SAPA_ANSLUTNING
 10
231.7499999284687
 20
22.9567867154027
 30
0.0
 42
-0.9999999999999998
  0
VERTEX
  5
1FD1
  8
SAPA_ANSLUTNING
 10
231.7499999284687
 20
18.9567867154027
 30
0.0
  0
VERTEX
  5
1FD2
  8
SAPA_ANSLUTNING
 10
222.9999999284687
 20
18.9567867154027
 30
0.0
 42
0.9999999999999998
  0
VERTEX
  5
1FD3
  8
SAPA_ANSLUTNING
 10
222.9999999284687
 20
14.9567867154027
 30
0.0
  0
VERTEX
  5
1FD4
  8
SAPA_ANSLUTNING
 10
231.7499999284687
 20
14.9567867154027
 30
0.0
 42
-0.9999999999999998
  0
VERTEX
  5
1FD5
  8
SAPA_ANSLUTNING
 10
231.7499999284687
 20
10.9567867154027
 30
0.0
  0
VERTEX
  5
1FD6
  8
SAPA_ANSLUTNING
 10
222.9999999284687
 20
10.9567867154027
 30
0.0
 42
0.9999999999999998
  0
VERTEX
  5
1FD7
  8
SAPA_ANSLUTNING
 10
222.9999999284687
 20
6.956786715402699
 30
0.0
  0
VERTEX
  5
1FD8
  8
SAPA_ANSLUTNING
 10
231.7499999284687
 20
6.956786715402699
 30
0.0
 42
-0.9999999999999998
  0
VERTEX
  5
1FD9
  8
SAPA_ANSLUTNING
 10
231.7499999284687
 20
2.956786715402699
 30
0.0
  0
VERTEX
  5
1FDA
  8
SAPA_ANSLUTNING
 10
222.9999999284687
 20
2.956786715402699
 30
0.0
 42
0.5699468547749902
  0
VERTEX
  5
1FDB
  8
SAPA_ANSLUTNING
 10
221.24609945326071
 20
-0.0043756658134271
 30
0.0
 42
0.5699468547749902
  0
SEQEND
  5
1FDC
  8
SAPA_ANSLUTNING
  0
LINE
  5
10C8
  8
SAPA_ANSLUTNING
 10
170.75000014311399
 20
70.19621568416926
 30
0.0
 11
170.75000014311399
 21
13.24562433418521
 31
0.0
  0
ARC
  5
10C9
  8
SAPA_ANSLUTNING
 10
161.75000014311399
 20
13.24562433418521
 30
0.0
 40
9.0
 50
180.0
 51
0.0
  0
LINE
  5
10CA
  8
SAPA_ANSLUTNING
 10
152.75000014311399
 20
13.24562433418521
 30
0.0
 11
152.75000014311399
 21
70.19621568416926
 31
0.0
  0
ARC
  5
10CB
  8
SAPA_ANSLUTNING
 10
143.75000014311399
 20
70.19621568416926
 30
0.0
 40
9.0
 50
0.0
 51
180.0
  0
LINE
  5
1189
  8
SAPA_ANSLUTNING
 10
206.75000014311399
 20
70.19621568416926
 30
0.0
 11
206.75000014311399
 21
13.995624334186569
 31
0.0
  0
ARC
  5
118A
  8
SAPA_ANSLUTNING
 10
197.75000014311399
 20
13.995624334186569
 30
0.0
 40
9.0
 50
180.0
 51
0.0
  0
LINE
  5
118B
  8
SAPA_ANSLUTNING
 10
188.75000014311399
 20
13.995624334186569
 30
0.0
 11
188.75000014311399
 21
70.19621568416926
 31
0.0
  0
ARC
  5
118C
  8
SAPA_ANSLUTNING
 10
179.75000014311399
 20
70.19621568416926
 30
0.0
 40
9.0
 50
0.0
 51
180.0
  0
ARC
  5
118D
  8
SAPA_ANSLUTNING
 10
215.75000014311399
 20
70.19621568416926
 30
0.0
 40
9.0
 50
102.119436275377
 51
180.0
  0
TEXT
  5
118E
  8
SAPA_ARTIKELNR
 10
79.894451169714102
 20
144.6558675641628
 30
0.0000000048844772
 40
3.5
  1
D9V004
 50
90.0
  7
ISO
  0
LINE
  5
1194
  8
SAPA_GLAS
 10
137.00000013598401
 20
148.7956323341852
 30
0.0
 11
136.25000013597031
 21
148.7956323341852
 31
0.0
  0
LINE
  5
1195
  8
SAPA_GLAS
 10
136.25000013597031
 20
135.9956323341741
 30
0.0
 11
137.0000001359704
 21
135.99563233417319
 31
0.0
  0
LINE
  5
1197
  8
SAPA_GLAS
 10
83.500000135619288
 20
148.7956323341852
 30
0.0
 11
84.25000013563249
 21
148.7956323341852
 31
0.0
  0
LINE
  5
1198
  8
SAPA_GLAS
 10
84.25000013563249
 20
135.9956323341741
 30
0.0
 11
83.5000001356334
 21
135.99563233417319
 31
0.0
  0
CIRCLE
  5
119D
  8
SAPA_BESLAG
 10
115.2499999999845
 20
98.995632334185018
 30
0.0
 40
3.5
  0
CIRCLE
  5
119E
  8
SAPA_BESLAG
 10
105.24999999998499
 20
98.995632334185018
 30
0.0
 40
3.5
  0
CIRCLE
  5
119F
  8
SAPA_FOGBAND
 10
110.2499999999704
 20
97.795632334185214
 30
0.0
 40
0.7500000000000001
  0
LINE
  5
11A3
  8
SAPA_FOGBAND
 10
154.35043246001939
 20
133.9070238254088
 30
0.0
 11
159.3466357881957
 21
133.9070238254115
 31
0.0
  0
LINE
  5
11A4
  8
SAPA_FOGBAND
 10
159.3466357881957
 20
134.05702382541031
 30
0.0
 11
154.35043246001939
 21
134.05702382541031
 31
0.0
  0
LINE
  5
11A8
  8
SAPA_FOGBAND
 10
154.35043246001939
 20
125.4070238254042
 30
0.0
 11
158.9249593136737
 21
125.4070238254079
 31
0.0
  0
LINE
  5
11A9
  8
SAPA_FOGBAND
 10
158.9249593136737
 20
125.55702382540569
 30
0.0
 11
154.35043246001939
 21
125.55702382540569
 31
0.0
  0
LINE
  5
11AD
  8
SAPA_FOGBAND
 10
220.1495673962531
 20
133.9070238254088
 30
0.0
 11
215.2508983057246
 21
133.9070238254115
 31
0.0
  0
LINE
  5
11AE
  8
SAPA_FOGBAND
 10
215.2508983057246
 20
134.05702382541031
 30
0.0
 11
220.1495673962531
 21
134.05702382541031
 31
0.0
  0
LINE
  5
11B2
  8
SAPA_FOGBAND
 10
220.1495673962531
 20
125.4070238254042
 30
0.0
 11
215.6857474230487
 21
125.4070238254079
 31
0.0
  0
LINE
  5
11B3
  8
SAPA_FOGBAND
 10
215.6857474230487
 20
125.55702382540569
 30
0.0
 11
220.1495673962531
 21
125.55702382540569
 31
0.0
  0
LINE
  5
11CF
  8
SAPA_ANSLUTNING
 10
233.74999999998229
 20
-0.0043756658134839
 30
0.0
 11
-13.24999985697286
 21
-0.0043756658134839
 31
0.0
  0
LINE
  5
11D4
  8
SAPA_FOGBAND
 10
143.1495674684343
 20
133.907031825405
 30
0.0
 11
138.15336414025879
 21
133.9070318254077
 31
0.0
  0
LINE
  5
11D5
  8
SAPA_FOGBAND
 10
138.15336414025879
 20
134.0570318254064
 30
0.0
 11
143.1495674684343
 21
134.0570318254064
 31
0.0
  0
LINE
  5
11DA
  8
SAPA_FOGBAND
 10
143.1495674684343
 20
125.4070318254004
 30
0.0
 11
138.57504061478039
 21
125.4070318254041
 31
0.0
  0
LINE
  5
11DB
  8
SAPA_FOGBAND
 10
138.57504061478039
 20
125.55703182540191
 30
0.0
 11
143.1495674684343
 21
125.55703182540191
 31
0.0
  0
LINE
  5
11DF
  8
SAPA_FOGBAND
 10
77.35043246064788
 20
133.907031825405
 30
0.0
 11
82.249101551176395
 21
133.9070318254077
 31
0.0
  0
LINE
  5
11E0
  8
SAPA_FOGBAND
 10
82.249101551176395
 20
134.0570318254064
 30
0.0
 11
77.35043246064788
 21
134.0570318254064
 31
0.0
  0
LINE
  5
11E4
  8
SAPA_FOGBAND
 10
77.35043246064788
 20
125.4070318254004
 30
0.0
 11
81.814252433851379
 21
125.4070318254041
 31
0.0
  0
LINE
  5
11E5
  8
SAPA_FOGBAND
 10
81.814252433851379
 20
125.55703182540191
 30
0.0
 11
77.35043246064788
 21
125.55703182540191
 31
0.0
  0
LINE
  5
11EB
  8
SAPA_FOGBAND
 10
66.149567539962391
 20
133.90703182540381
 30
0.0
 11
61.153364211787
 21
133.90703182540651
 31
0.0
  0
LINE
  5
11EC
  8
SAPA_FOGBAND
 10
61.153364211787
 20
134.0570318254052
 30
0.0
 11
66.149567539962391
 21
134.0570318254052
 31
0.0
  0
LINE
  5
11F1
  8
SAPA_FOGBAND
 10
66.149567539962391
 20
125.4070318253992
 30
0.0
 11
61.575040686308512
 21
125.4070318254029
 31
0.0
  0
LINE
  5
11F2
  8
SAPA_FOGBAND
 10
61.575040686308512
 20
125.5570318254007
 30
0.0
 11
66.149567539962391
 21
125.5570318254007
 31
0.0
  0
LINE
  5
11F6
  8
SAPA_FOGBAND
 10
0.3504325321760007
 20
133.90703182540381
 30
0.0
 11
5.2491016227045293
 21
133.90703182540659
 31
0.0
  0
LINE
  5
11F7
  8
SAPA_FOGBAND
 10
5.2491016227045293
 20
134.05703182540529
 30
0.0
 11
0.3504325321760007
 21
134.05703182540529
 31
0.0
  0
LINE
  5
11FB
  8
SAPA_FOGBAND
 10
0.3504325321760007
 20
125.4070318253993
 30
0.0
 11
4.8142525053794989
 21
125.4070318254029
 31
0.0
  0
LINE
  5
11FC
  8
SAPA_FOGBAND
 10
4.8142525053794989
 20
125.5570318254007
 30
0.0
 11
0.3504325321760007
 21
125.5570318254007
 31
0.0
  0
CIRCLE
  5
1202
  8
SAPA_BESLAG
 10
38.250000071512659
 20
98.995624334185734
 30
0.0
 40
3.5
  0
CIRCLE
  5
1203
  8
SAPA_BESLAG
 10
28.250000071513121
 20
98.995624334185734
 30
0.0
 40
3.5
  0
CIRCLE
  5
1204
  8
SAPA_FOGBAND
 10
33.250000071498562
 20
97.795624334185902
 30
0.0
 40
0.7500000000000001
  0
CIRCLE
  5
1206
  8
SAPA_BESLAG
 10
192.24999992846779
 20
98.995624334186118
 30
0.0
 40
3.5
  0
CIRCLE
  5
1207
  8
SAPA_BESLAG
 10
182.24999992846821
 20
98.995624334186118
 30
0.0
 40
3.5
  0
CIRCLE
  5
1208
  8
SAPA_FOGBAND
 10
187.24999992845369
 20
97.795624334186314
 30
0.0
 40
0.7500000000000001
  0
LINE
  5
14A7
  8
SAPA_ANSLUTNING
 10
-13.24999985697286
 20
138.9956243341849
 30
0.0
 11
-53.741478916058441
 21
138.9956243341849
 31
0.0
  0
LINE
  5
14A8
  8
SAPA_ANSLUTNING
 10
-13.24999985697286
 20
110.19562433417821
 30
0.0
 11
-53.741478916058441
 21
110.19562433417821
 31
0.0
1001
GENIUS_GENREC_14
1002
{
1000
PYDIR
1011
-55.749999893102078
1021
0.0
1031
0.0
1021
110.19562433417821
1031
0.0
1002
}
1002
{
1000
PXDIR
1011
14.750000143019861
1021
0.0
1031
0.0
1021
9.1956243341782056
1031
0.0
1002
}
1002
{
1000
PORI
1011
-45.749999893102078
1021
0.0
1031
0.0
1021
9.1956243341782056
1031
0.0
1002
}
1002
{
1000
PINS
1011
-45.749999893102078
1021
0.0
1031
0.0
1021
9.1956243341782056
1031
0.0
1002
}
1002
{
1000
PINS2
1011
-13.249999856994689
1021
0.0
1031
0.0
1021
110.19562433417821
1031
0.0
1002
}
1002
{
1000
C
1070
     1
1002
}
1001
GENIUS_GENOBJ-N-REC_13
1002
{
1000
OWNER
1000
GEN
1002
}
1001
GENIUS_GENODEF_13
1002
{
1000
HIER
1070
     0
1002
}
1002
{
1000
MANEDIT
1070
     0
1002
}
1002
{
1000
NOSEL
1070
     0
1002
}
1002
{
1000
BEHIND
1070
     0
1002
}
1002
{
1000
OTHER
1070
     0
1002
}
1002
{
1000
REACTOR
1002
}
  0
LINE
  5
14A9
  8
SAPA_ANSLUTNING
 10
-13.24999985697286
 20
-32.297208375444477
 30
0.0
 11
-13.24999985697286
 21
138.99562433418521
 31
0.0
  0
ARC
  5
19B5
  8
SAPA_FOGBAND
 10
185.42490150174541
 20
100.89562433418639
 30
0.0
 40
0.2000000000002316
 50
83.103726790278898
 51
210.89814782521151
  0
ARC
  5
19B6
  8
SAPA_FOGBAND
 10
182.2499999284685
 20
98.995624334185692
 30
0.0
 40
3.4999999999996532
 50
329.86727816899332
 51
30.898147825250948
  0
ARC
  5
19B7
  8
SAPA_FOGBAND
 10
185.4499999284684
 20
97.138206772085084
 30
0.0
 40
0.200000000000276
 50
149.86727816894171
 51
209.99999999994839
  0
LINE
  5
19B8
  8
SAPA_FOGBAND
 10
185.27679484771119
 20
97.038206772085104
 30
0.0
 11
185.79212755850631
 21
96.145624334186664
 31
0.0
  0
ARC
  5
19B9
  8
SAPA_FOGBAND
 10
186.05193517964159
 20
96.295624334186527
 30
0.0
 40
0.2999999999999614
 50
209.99999999997419
 51
269.99999999997289
  0
LINE
  5
19BA
  8
SAPA_FOGBAND
 10
186.0519351796415
 20
95.995624334186573
 30
0.0
 11
188.44806467729489
 21
95.995624334186573
 31
0.0
  0
ARC
  5
19BB
  8
SAPA_FOGBAND
 10
188.44806467729481
 20
96.295624334186527
 30
0.0
 40
0.2999999999999545
 50
270.00000000002711
 51
330.00000000002581
  0
LINE
  5
19BC
  8
SAPA_FOGBAND
 10
188.7078722984302
 20
96.145624334186664
 30
0.0
 11
189.22320500922481
 21
97.038206772085104
 31
0.0
  0
ARC
  5
19BD
  8
SAPA_FOGBAND
 10
189.0499999284678
 20
97.138206772085496
 30
0.0
 40
0.2000000000002744
 50
329.99999999992042
 51
30.132721830926972
  0
ARC
  5
19BE
  8
SAPA_FOGBAND
 10
192.2499999284677
 20
98.995624334186076
 30
0.0
 40
3.4999999999996461
 50
149.10185217475629
 51
210.13272183101401
  0
ARC
  5
19BF
  8
SAPA_FOGBAND
 10
189.07509835519079
 20
100.89562433418649
 30
0.0
 40
0.2000000000001001
 50
329.1018521747306
 51
96.896273209659867
  0
ARC
  5
19C0
  8
SAPA_FOGBAND
 10
187.24999992846821
 20
115.9856546765253
 30
0.0
 40
14.999999999997661
 50
263.1037267903157
 51
276.8962732096843
  0
ARC
  5
19C3
  8
SAPA_FOGBAND
 10
31.424901644790332
 20
100.895624334186
 30
0.0
 40
0.200000000000232
 50
83.103726790277889
 51
210.89814782521211
  0
ARC
  5
19C4
  8
SAPA_FOGBAND
 10
28.250000071513359
 20
98.995624334185294
 30
0.0
 40
3.4999999999996558
 50
329.86727816899332
 51
30.89814782525092
  0
ARC
  5
19C5
  8
SAPA_FOGBAND
 10
31.450000071513319
 20
97.1382067720847
 30
0.0
 40
0.2000000000002668
 50
149.8672781689402
 51
209.99999999995001
  0
LINE
  5
19C6
  8
SAPA_FOGBAND
 10
31.27679499075612
 20
97.03820677208472
 30
0.0
 11
31.792127701551181
 21
96.145624334186266
 31
0.0
  0
ARC
  5
19C7
  8
SAPA_FOGBAND
 10
32.051935322686539
 20
96.295624334186115
 30
0.0
 40
0.2999999999999552
 50
209.99999999997479
 51
269.99999999997431
  0
LINE
  5
19C8
  8
SAPA_FOGBAND
 10
32.051935322686411
 20
95.995624334186175
 30
0.0
 11
34.448064820339823
 21
95.995624334186175
 31
0.0
  0
ARC
  5
19C9
  8
SAPA_FOGBAND
 10
34.448064820339688
 20
96.295624334186115
 30
0.0
 40
0.2999999999999545
 50
270.00000000002581
 51
330.00000000002512
  0
LINE
  5
19CA
  8
SAPA_FOGBAND
 10
34.707872441475047
 20
96.145624334186266
 30
0.0
 11
35.223205152269657
 21
97.03820677208472
 31
0.0
  0
ARC
  5
19CB
  8
SAPA_FOGBAND
 10
35.050000071512692
 20
97.138206772085084
 30
0.0
 40
0.200000000000262
 50
329.99999999991832
 51
30.132721830929011
  0
ARC
  5
19CC
  8
SAPA_FOGBAND
 10
38.25000007151263
 20
98.995624334185678
 30
0.0
 40
3.4999999999996461
 50
149.10185217475629
 51
210.13272183101401
  0
ARC
  5
19CD
  8
SAPA_FOGBAND
 10
35.075098498235661
 20
100.8956243341861
 30
0.0
 40
0.2000000000001001
 50
329.1018521747306
 51
96.896273209659867
  0
ARC
  5
19CE
  8
SAPA_FOGBAND
 10
33.250000071513121
 20
115.9856546765249
 30
0.0
 40
14.999999999997661
 50
263.1037267903157
 51
276.8962732096843
  0
LINE
  5
19CF
  8
SAPA_FOGBAND
 10
0.3504325321760007
 20
125.6320318254015
 30
0.0
 11
4.5648831721896377
 21
125.74202921058389
 31
0.0
  0
LINE
  5
19D0
  8
SAPA_FOGBAND
 10
4.5648831721896377
 20
125.74202921058389
 30
0.0
 11
4.564306673315059
 21
128.1801225510057
 31
0.0
  0
LINE
  5
19D1
  8
SAPA_FOGBAND
 10
4.564306673315059
 20
128.1801225510057
 30
0.0
 11
0.3504325321760007
 21
127.0547214285411
 31
0.0
  0
LINE
  5
19D2
  8
SAPA_FOGBAND
 10
0.3504325321760007
 20
123.909342222259
 30
0.0
 11
4.5644763877821779
 21
122.7838956249429
 31
0.0
  0
LINE
  5
19D3
  8
SAPA_FOGBAND
 10
4.5644763877821779
 20
122.7838956249429
 30
0.0
 11
4.5649125286022354
 21
125.2220336714922
 31
0.0
  0
LINE
  5
19D4
  8
SAPA_FOGBAND
 10
4.5649125286022354
 20
125.2220336714922
 30
0.0
 11
0.3504325321760007
 21
125.3320318253986
 31
0.0
  0
LINE
  5
19D5
  8
SAPA_FOGBAND
 10
-0.4495674678250908
 20
128.63203182539871
 30
0.0
 11
0.3504325321760007
 21
128.63203182539871
 31
0.0
  0
LINE
  5
19D6
  8
SAPA_FOGBAND
 10
0.3504325321760007
 20
128.63203182539871
 30
0.0
 11
0.3504325321760007
 21
122.3320318254013
 31
0.0
  0
LINE
  5
19D7
  8
SAPA_FOGBAND
 10
0.3504325321760007
 20
122.3320318254013
 30
0.0
 11
-0.4495674678250908
 21
122.3320318254013
 31
0.0
  0
LINE
  5
19D8
  8
SAPA_FOGBAND
 10
-0.4495674678250908
 20
122.3320318254013
 30
0.0
 11
-0.4495674678250908
 21
128.63203182539871
 31
0.0
  0
LINE
  5
19D9
  8
SAPA_FOGBAND
 10
0.3504325321760007
 20
134.13203182540599
 30
0.0
 11
4.9997322895146681
 21
134.2420292105875
 31
0.0
  0
LINE
  5
19DA
  8
SAPA_FOGBAND
 10
4.9997322895146681
 20
134.2420292105875
 30
0.0
 11
4.9991557906400876
 21
136.68012255101019
 31
0.0
  0
LINE
  5
19DB
  8
SAPA_FOGBAND
 10
4.9991557906400876
 20
136.68012255101019
 30
0.0
 11
0.3504325321760007
 21
135.55472142854561
 31
0.0
  0
LINE
  5
19DC
  8
SAPA_FOGBAND
 10
0.3504325321760007
 20
132.40934222226349
 30
0.0
 11
4.9993255051072083
 21
131.28389562494741
 31
0.0
  0
LINE
  5
19DD
  8
SAPA_FOGBAND
 10
4.9993255051072083
 20
131.28389562494741
 30
0.0
 11
4.999761645927264
 21
133.72203367149581
 31
0.0
  0
LINE
  5
19DE
  8
SAPA_FOGBAND
 10
4.999761645927264
 20
133.72203367149581
 30
0.0
 11
0.3504325321760007
 21
133.83203182540311
 31
0.0
  0
LINE
  5
19DF
  8
SAPA_FOGBAND
 10
-0.4495674678250908
 20
137.13203182540241
 30
0.0
 11
0.3504325321760007
 21
137.13203182540241
 31
0.0
  0
LINE
  5
19E0
  8
SAPA_FOGBAND
 10
0.3504325321760007
 20
137.13203182540241
 30
0.0
 11
0.3504325321760007
 21
130.83203182540581
 31
0.0
  0
LINE
  5
19E1
  8
SAPA_FOGBAND
 10
0.3504325321760007
 20
130.83203182540581
 30
0.0
 11
-0.4495674678250908
 21
130.83203182540581
 31
0.0
  0
LINE
  5
19E2
  8
SAPA_FOGBAND
 10
-0.4495674678250908
 20
130.83203182540581
 30
0.0
 11
-0.4495674678250908
 21
137.13203182540241
 31
0.0
  0
LINE
  5
19E3
  8
SAPA_FOGBAND
 10
66.149567539962391
 20
125.6320318254014
 30
0.0
 11
61.824410019497464
 21
125.74202921058379
 31
0.0
  0
LINE
  5
19E4
  8
SAPA_FOGBAND
 10
61.824410019497464
 20
125.74202921058379
 30
0.0
 11
61.824986518372043
 21
128.18012255100561
 31
0.0
  0
LINE
  5
19E5
  8
SAPA_FOGBAND
 10
61.824986518372043
 20
128.18012255100561
 30
0.0
 11
66.149567539962391
 21
127.054721428541
 31
0.0
  0
LINE
  5
19E6
  8
SAPA_FOGBAND
 10
66.149567539962391
 20
123.9093422222589
 30
0.0
 11
61.824816803904923
 21
122.7838956249428
 31
0.0
  0
LINE
  5
19E7
  8
SAPA_FOGBAND
 10
61.824816803904923
 20
122.7838956249428
 30
0.0
 11
61.824380663085769
 21
125.2220336714921
 31
0.0
  0
LINE
  5
19E8
  8
SAPA_FOGBAND
 10
61.824380663085769
 20
125.2220336714921
 30
0.0
 11
66.149567539962391
 21
125.3320318253985
 31
0.0
  0
LINE
  5
19E9
  8
SAPA_FOGBAND
 10
66.949567539963482
 20
128.63203182539871
 30
0.0
 11
66.149567539962391
 21
128.63203182539871
 31
0.0
  0
LINE
  5
19EA
  8
SAPA_FOGBAND
 10
66.149567539962391
 20
128.63203182539871
 30
0.0
 11
66.149567539962391
 21
122.3320318254012
 31
0.0
  0
LINE
  5
19EB
  8
SAPA_FOGBAND
 10
66.149567539962391
 20
122.3320318254012
 30
0.0
 11
66.949567539963482
 21
122.3320318254012
 31
0.0
  0
LINE
  5
19EC
  8
SAPA_FOGBAND
 10
66.949567539963482
 20
122.3320318254012
 30
0.0
 11
66.949567539963482
 21
128.63203182539871
 31
0.0
  0
LINE
  5
19ED
  8
SAPA_FOGBAND
 10
66.149567539962391
 20
134.13203182540599
 30
0.0
 11
61.402733544975938
 21
134.24202921058739
 31
0.0
  0
LINE
  5
19EE
  8
SAPA_FOGBAND
 10
61.402733544975938
 20
134.24202921058739
 30
0.0
 11
61.403310043850517
 21
136.68012255101019
 31
0.0
  0
LINE
  5
19EF
  8
SAPA_FOGBAND
 10
61.403310043850517
 20
136.68012255101019
 30
0.0
 11
66.149567539962391
 21
135.55472142854561
 31
0.0
  0
LINE
  5
19F0
  8
SAPA_FOGBAND
 10
66.149567539962391
 20
132.40934222226349
 30
0.0
 11
61.403140329383397
 21
131.28389562494729
 31
0.0
  0
LINE
  5
19F1
  8
SAPA_FOGBAND
 10
61.403140329383397
 20
131.28389562494729
 30
0.0
 11
61.402704188564257
 21
133.72203367149569
 31
0.0
  0
LINE
  5
19F2
  8
SAPA_FOGBAND
 10
61.402704188564257
 20
133.72203367149569
 30
0.0
 11
66.149567539962391
 21
133.83203182540311
 31
0.0
  0
LINE
  5
19F3
  8
SAPA_FOGBAND
 10
66.949567539963482
 20
137.13203182540229
 30
0.0
 11
66.149567539962391
 21
137.13203182540229
 31
0.0
  0
LINE
  5
19F4
  8
SAPA_FOGBAND
 10
66.149567539962391
 20
137.13203182540229
 30
0.0
 11
66.149567539962391
 21
130.83203182540581
 31
0.0
  0
LINE
  5
19F5
  8
SAPA_FOGBAND
 10
66.149567539962391
 20
130.83203182540581
 30
0.0
 11
66.949567539963482
 21
130.83203182540581
 31
0.0
  0
LINE
  5
19F6
  8
SAPA_FOGBAND
 10
66.949567539963482
 20
130.83203182540581
 30
0.0
 11
66.949567539963482
 21
137.13203182540229
 31
0.0
  0
LINE
  5
19F7
  8
SAPA_FOGBAND
 10
77.35043246064788
 20
125.63203182540261
 30
0.0
 11
81.564883100661504
 21
125.742029210585
 31
0.0
  0
LINE
  5
19F8
  8
SAPA_FOGBAND
 10
81.564883100661504
 20
125.742029210585
 30
0.0
 11
81.564306601786939
 21
128.1801225510068
 31
0.0
  0
LINE
  5
19F9
  8
SAPA_FOGBAND
 10
81.564306601786939
 20
128.1801225510068
 30
0.0
 11
77.35043246064788
 21
127.05472142854219
 31
0.0
  0
LINE
  5
19FA
  8
SAPA_FOGBAND
 10
77.35043246064788
 20
123.90934222226009
 30
0.0
 11
81.564476316254058
 21
122.78389562494399
 31
0.0
  0
LINE
  5
19FB
  8
SAPA_FOGBAND
 10
81.564476316254058
 20
122.78389562494399
 30
0.0
 11
81.564912457074115
 21
125.22203367149331
 31
0.0
  0
LINE
  5
19FC
  8
SAPA_FOGBAND
 10
81.564912457074115
 20
125.22203367149331
 30
0.0
 11
77.35043246064788
 21
125.3320318253997
 31
0.0
  0
LINE
  5
19FD
  8
SAPA_FOGBAND
 10
76.550432460646775
 20
128.63203182539991
 30
0.0
 11
77.35043246064788
 21
128.63203182539991
 31
0.0
  0
LINE
  5
19FE
  8
SAPA_FOGBAND
 10
77.35043246064788
 20
128.63203182539991
 30
0.0
 11
77.35043246064788
 21
122.3320318254024
 31
0.0
  0
LINE
  5
19FF
  8
SAPA_FOGBAND
 10
77.35043246064788
 20
122.3320318254024
 30
0.0
 11
76.550432460646775
 21
122.3320318254024
 31
0.0
  0
LINE
  5
1A00
  8
SAPA_FOGBAND
 10
76.550432460646775
 20
122.3320318254024
 30
0.0
 11
76.550432460646775
 21
128.63203182539991
 31
0.0
  0
LINE
  5
1A01
  8
SAPA_FOGBAND
 10
77.35043246064788
 20
134.13203182540721
 30
0.0
 11
81.999732217986548
 21
134.24202921058861
 31
0.0
  0
LINE
  5
1A02
  8
SAPA_FOGBAND
 10
81.999732217986548
 20
134.24202921058861
 30
0.0
 11
81.999155719111954
 21
136.68012255101141
 31
0.0
  0
LINE
  5
1A03
  8
SAPA_FOGBAND
 10
81.999155719111954
 20
136.68012255101141
 30
0.0
 11
77.35043246064788
 21
135.55472142854671
 31
0.0
  0
LINE
  5
1A04
  8
SAPA_FOGBAND
 10
77.35043246064788
 20
132.40934222226471
 30
0.0
 11
81.999325433579074
 21
131.28389562494851
 31
0.0
  0
LINE
  5
1A05
  8
SAPA_FOGBAND
 10
81.999325433579074
 20
131.28389562494851
 30
0.0
 11
81.999761574399145
 21
133.72203367149689
 31
0.0
  0
LINE
  5
1A06
  8
SAPA_FOGBAND
 10
81.999761574399145
 20
133.72203367149689
 30
0.0
 11
77.35043246064788
 21
133.8320318254043
 31
0.0
  0
LINE
  5
1A07
  8
SAPA_FOGBAND
 10
76.550432460646775
 20
137.13203182540349
 30
0.0
 11
77.35043246064788
 21
137.13203182540349
 31
0.0
  0
LINE
  5
1A08
  8
SAPA_FOGBAND
 10
77.35043246064788
 20
137.13203182540349
 30
0.0
 11
77.35043246064788
 21
130.832031825407
 31
0.0
  0
LINE
  5
1A09
  8
SAPA_FOGBAND
 10
77.35043246064788
 20
130.832031825407
 30
0.0
 11
76.550432460646775
 21
130.832031825407
 31
0.0
  0
LINE
  5
1A0A
  8
SAPA_FOGBAND
 10
76.550432460646775
 20
130.832031825407
 30
0.0
 11
76.550432460646775
 21
137.13203182540349
 31
0.0
  0
LINE
  5
1A0B
  8
SAPA_FOGBAND
 10
143.1495674684343
 20
125.63203182540261
 30
0.0
 11
138.82440994796929
 21
125.742029210585
 31
0.0
  0
LINE
  5
1A0C
  8
SAPA_FOGBAND
 10
138.82440994796929
 20
125.742029210585
 30
0.0
 11
138.82498644684389
 21
128.1801225510068
 31
0.0
  0
LINE
  5
1A0D
  8
SAPA_FOGBAND
 10
138.82498644684389
 20
128.1801225510068
 30
0.0
 11
143.1495674684343
 21
127.05472142854219
 31
0.0
  0
LINE
  5
1A0E
  8
SAPA_FOGBAND
 10
143.1495674684343
 20
123.90934222226009
 30
0.0
 11
138.8248167323768
 21
122.78389562494399
 31
0.0
  0
LINE
  5
1A0F
  8
SAPA_FOGBAND
 10
138.8248167323768
 20
122.78389562494399
 30
0.0
 11
138.8243805915576
 21
125.22203367149331
 31
0.0
  0
LINE
  5
1A10
  8
SAPA_FOGBAND
 10
138.8243805915576
 20
125.22203367149331
 30
0.0
 11
143.1495674684343
 21
125.3320318253997
 31
0.0
  0
LINE
  5
1A11
  8
SAPA_FOGBAND
 10
143.9495674684353
 20
128.63203182539991
 30
0.0
 11
143.1495674684343
 21
128.63203182539991
 31
0.0
  0
LINE
  5
1A12
  8
SAPA_FOGBAND
 10
143.1495674684343
 20
128.63203182539991
 30
0.0
 11
143.1495674684343
 21
122.3320318254024
 31
0.0
  0
LINE
  5
1A13
  8
SAPA_FOGBAND
 10
143.1495674684343
 20
122.3320318254024
 30
0.0
 11
143.9495674684353
 21
122.3320318254024
 31
0.0
  0
LINE
  5
1A14
  8
SAPA_FOGBAND
 10
143.9495674684353
 20
122.3320318254024
 30
0.0
 11
143.9495674684353
 21
128.63203182539991
 31
0.0
  0
LINE
  5
1A15
  8
SAPA_FOGBAND
 10
143.1495674684343
 20
134.13203182540721
 30
0.0
 11
138.4027334734478
 21
134.24202921058861
 31
0.0
  0
LINE
  5
1A16
  8
SAPA_FOGBAND
 10
138.4027334734478
 20
134.24202921058861
 30
0.0
 11
138.4033099723224
 21
136.68012255101141
 31
0.0
  0
LINE
  5
1A17
  8
SAPA_FOGBAND
 10
138.4033099723224
 20
136.68012255101141
 30
0.0
 11
143.1495674684343
 21
135.55472142854671
 31
0.0
  0
LINE
  5
1A18
  8
SAPA_FOGBAND
 10
143.1495674684343
 20
132.40934222226471
 30
0.0
 11
138.40314025785531
 21
131.28389562494851
 31
0.0
  0
LINE
  5
1A19
  8
SAPA_FOGBAND
 10
138.40314025785531
 20
131.28389562494851
 30
0.0
 11
138.40270411703611
 21
133.72203367149689
 31
0.0
  0
LINE
  5
1A1A
  8
SAPA_FOGBAND
 10
138.40270411703611
 20
133.72203367149689
 30
0.0
 11
143.1495674684343
 21
133.8320318254043
 31
0.0
  0
LINE
  5
1A1B
  8
SAPA_FOGBAND
 10
143.9495674684353
 20
137.13203182540349
 30
0.0
 11
143.1495674684343
 21
137.13203182540349
 31
0.0
  0
LINE
  5
1A1C
  8
SAPA_FOGBAND
 10
143.1495674684343
 20
137.13203182540349
 30
0.0
 11
143.1495674684343
 21
130.832031825407
 31
0.0
  0
LINE
  5
1A1D
  8
SAPA_FOGBAND
 10
143.1495674684343
 20
130.832031825407
 30
0.0
 11
143.9495674684353
 21
130.832031825407
 31
0.0
  0
LINE
  5
1A1E
  8
SAPA_FOGBAND
 10
143.9495674684353
 20
130.832031825407
 30
0.0
 11
143.9495674684353
 21
137.13203182540349
 31
0.0
  0
LINE
  5
1A1F
  8
SAPA_BESLAG
 10
100.04999999998471
 20
124.495632331653
 30
0.0
 11
99.049999999708234
 21
124.495632331653
 31
0.0
1001
GENIUS_GENREC_14
1002
{
1000
PYDIR
1011
100.04999999998471
1021
0.0
1031
0.0
1021
110.4956323316957
1031
0.0
1002
}
1002
{
1000
PXDIR
1011
99.049999999708234
1021
0.0
1031
0.0
1021
124.495632331653
1031
0.0
1002
}
1002
{
1000
PORI
1011
100.04999999998471
1021
0.0
1031
0.0
1021
124.495632331653
1031
0.0
1002
}
1002
{
1000
PINS
1011
100.04999999998471
1021
0.0
1031
0.0
1021
124.495632331653
1031
0.0
1002
}
1002
{
1000
PINS2
1011
99.049999999708234
1021
0.0
1031
0.0
1021
110.4956323316957
1031
0.0
1002
}
1002
{
1000
C
1070
     1
1002
}
1001
GENIUS_GENOBJ-N-REC_13
1002
{
1000
OWNER
1000
GEN
1002
}
1001
GENIUS_GENODEF_13
1002
{
1000
HIER
1070
     0
1002
}
1002
{
1000
MANEDIT
1070
     0
1002
}
1002
{
1000
NOSEL
1070
     0
1002
}
1002
{
1000
BEHIND
1070
     0
1002
}
1002
{
1000
OTHER
1070
     0
1002
}
1002
{
1000
REACTOR
1002
}
  0
LINE
  5
1A20
  8
SAPA_BESLAG
 10
99.049999999708234
 20
124.495632331653
 30
0.0
 11
99.049999999708234
 21
110.4956323316957
 31
0.0
1001
GENIUS_GENREC_14
1002
{
1000
PYDIR
1011
100.04999999998471
1021
0.0
1031
0.0
1021
110.4956323316957
1031
0.0
1002
}
1002
{
1000
PXDIR
1011
99.049999999708234
1021
0.0
1031
0.0
1021
124.495632331653
1031
0.0
1002
}
1002
{
1000
PORI
1011
100.04999999998471
1021
0.0
1031
0.0
1021
124.495632331653
1031
0.0
1002
}
1002
{
1000
PINS
1011
100.04999999998471
1021
0.0
1031
0.0
1021
124.495632331653
1031
0.0
1002
}
1002
{
1000
PINS2
1011
99.049999999708234
1021
0.0
1031
0.0
1021
110.4956323316957
1031
0.0
1002
}
1002
{
1000
C
1070
     1
1002
}
1001
GENIUS_GENOBJ-N-REC_13
1002
{
1000
OWNER
1000
GEN
1002
}
1001
GENIUS_GENODEF_13
1002
{
1000
HIER
1070
     0
1002
}
1002
{
1000
MANEDIT
1070
     0
1002
}
1002
{
1000
NOSEL
1070
     0
1002
}
1002
{
1000
BEHIND
1070
     0
1002
}
1002
{
1000
OTHER
1070
     0
1002
}
1002
{
1000
REACTOR
1002
}
  0
LINE
  5
1A21
  8
SAPA_BESLAG
 10
99.049999999708234
 20
110.4956323316957
 30
0.0
 11
100.04999999998471
 21
110.4956323316957
 31
0.0
1001
GENIUS_GENREC_14
1002
{
1000
PYDIR
1011
100.04999999998471
1021
0.0
1031
0.0
1021
110.4956323316957
1031
0.0
1002
}
1002
{
1000
PXDIR
1011
99.049999999708234
1021
0.0
1031
0.0
1021
124.495632331653
1031
0.0
1002
}
1002
{
1000
PORI
1011
100.04999999998471
1021
0.0
1031
0.0
1021
124.495632331653
1031
0.0
1002
}
1002
{
1000
PINS
1011
100.04999999998471
1021
0.0
1031
0.0
1021
124.495632331653
1031
0.0
1002
}
1002
{
1000
PINS2
1011
99.049999999708234
1021
0.0
1031
0.0
1021
110.4956323316957
1031
0.0
1002
}
1002
{
1000
C
1070
     1
1002
}
1001
GENIUS_GENOBJ-N-REC_13
1002
{
1000
OWNER
1000
GEN
1002
}
1001
GENIUS_GENODEF_13
1002
{
1000
HIER
1070
     0
1002
}
1002
{
1000
MANEDIT
1070
     0
1002
}
1002
{
1000
NOSEL
1070
     0
1002
}
1002
{
1000
BEHIND
1070
     0
1002
}
1002
{
1000
OTHER
1070
     0
1002
}
1002
{
1000
REACTOR
1002
}
  0
LINE
  5
1A22
  8
SAPA_BESLAG
 10
100.04999999998471
 20
110.4956323316957
 30
0.0
 11
100.04999999998471
 21
124.495632331653
 31
0.0
1001
GENIUS_GENREC_14
1002
{
1000
PYDIR
1011
100.04999999998471
1021
0.0
1031
0.0
1021
110.4956323316957
1031
0.0
1002
}
1002
{
1000
PXDIR
1011
99.049999999708234
1021
0.0
1031
0.0
1021
124.495632331653
1031
0.0
1002
}
1002
{
1000
PORI
1011
100.04999999998471
1021
0.0
1031
0.0
1021
124.495632331653
1031
0.0
1002
}
1002
{
1000
PINS
1011
100.04999999998471
1021
0.0
1031
0.0
1021
124.495632331653
1031
0.0
1002
}
1002
{
1000
PINS2
1011
99.049999999708234
1021
0.0
1031
0.0
1021
110.4956323316957
1031
0.0
1002
}
1002
{
1000
C
1070
     1
1002
}
1001
GENIUS_GENOBJ-N-REC_13
1002
{
1000
OWNER
1000
GEN
1002
}
1001
GENIUS_GENODEF_13
1002
{
1000
HIER
1070
     0
1002
}
1002
{
1000
MANEDIT
1070
     0
1002
}
1002
{
1000
NOSEL
1070
     0
1002
}
1002
{
1000
BEHIND
1070
     0
1002
}
1002
{
1000
OTHER
1070
     0
1002
}
1002
{
1000
REACTOR
1002
}
  0
LINE
  5
1A23
  8
SAPA_BESLAG
 10
121.44999999289939
 20
124.4956403312525
 30
0.0
 11
120.4499999999852
 21
124.4956403312525
 31
0.0
1001
GENIUS_GENREC_14
1002
{
1000
PYDIR
1011
121.44999999289939
1021
0.0
1031
0.0
1021
110.49564033125159
1031
0.0
1002
}
1002
{
1000
PXDIR
1011
120.4499999999852
1021
0.0
1031
0.0
1021
124.4956403312525
1031
0.0
1002
}
1002
{
1000
PORI
1011
121.44999999289939
1021
0.0
1031
0.0
1021
124.4956403312525
1031
0.0
1002
}
1002
{
1000
PINS
1011
121.44999999289939
1021
0.0
1031
0.0
1021
124.4956403312525
1031
0.0
1002
}
1002
{
1000
PINS2
1011
120.4499999999852
1021
0.0
1031
0.0
1021
110.49564033125159
1031
0.0
1002
}
1002
{
1000
C
1070
     1
1002
}
1001
GENIUS_GENODEF_13
1002
{
1000
HIER
1070
     0
1002
}
1002
{
1000
MANEDIT
1070
     0
1002
}
1002
{
1000
NOSEL
1070
     0
1002
}
1002
{
1000
BEHIND
1070
     0
1002
}
1002
{
1000
OTHER
1070
     0
1002
}
1002
{
1000
REACTOR
1002
}
1001
GENIUS_GENOBJ-N-REC_13
1002
{
1000
OWNER
1000
GEN
1002
}
  0
LINE
  5
1A24
  8
SAPA_BESLAG
 10
120.4499999999852
 20
124.4956403312525
 30
0.0
 11
120.4499999999852
 21
110.49564033125159
 31
0.0
1001
GENIUS_GENREC_14
1002
{
1000
PYDIR
1011
121.44999999289939
1021
0.0
1031
0.0
1021
110.49564033125159
1031
0.0
1002
}
1002
{
1000
PXDIR
1011
120.4499999999852
1021
0.0
1031
0.0
1021
124.4956403312525
1031
0.0
1002
}
1002
{
1000
PORI
1011
121.44999999289939
1021
0.0
1031
0.0
1021
124.4956403312525
1031
0.0
1002
}
1002
{
1000
PINS
1011
121.44999999289939
1021
0.0
1031
0.0
1021
124.4956403312525
1031
0.0
1002
}
1002
{
1000
PINS2
1011
120.4499999999852
1021
0.0
1031
0.0
1021
110.49564033125159
1031
0.0
1002
}
1002
{
1000
C
1070
     1
1002
}
1001
GENIUS_GENODEF_13
1002
{
1000
HIER
1070
     0
1002
}
1002
{
1000
MANEDIT
1070
     0
1002
}
1002
{
1000
NOSEL
1070
     0
1002
}
1002
{
1000
BEHIND
1070
     0
1002
}
1002
{
1000
OTHER
1070
     0
1002
}
1002
{
1000
REACTOR
1002
}
1001
GENIUS_GENOBJ-N-REC_13
1002
{
1000
OWNER
1000
GEN
1002
}
  0
LINE
  5
1A25
  8
SAPA_BESLAG
 10
120.4499999999852
 20
110.49564033125159
 30
0.0
 11
121.44999999289939
 21
110.49564033125159
 31
0.0
1001
GENIUS_GENREC_14
1002
{
1000
PYDIR
1011
121.44999999289939
1021
0.0
1031
0.0
1021
110.49564033125159
1031
0.0
1002
}
1002
{
1000
PXDIR
1011
120.4499999999852
1021
0.0
1031
0.0
1021
124.4956403312525
1031
0.0
1002
}
1002
{
1000
PORI
1011
121.44999999289939
1021
0.0
1031
0.0
1021
124.4956403312525
1031
0.0
1002
}
1002
{
1000
PINS
1011
121.44999999289939
1021
0.0
1031
0.0
1021
124.4956403312525
1031
0.0
1002
}
1002
{
1000
PINS2
1011
120.4499999999852
1021
0.0
1031
0.0
1021
110.49564033125159
1031
0.0
1002
}
1002
{
1000
C
1070
     1
1002
}
1001
GENIUS_GENODEF_13
1002
{
1000
HIER
1070
     0
1002
}
1002
{
1000
MANEDIT
1070
     0
1002
}
1002
{
1000
NOSEL
1070
     0
1002
}
1002
{
1000
BEHIND
1070
     0
1002
}
1002
{
1000
OTHER
1070
     0
1002
}
1002
{
1000
REACTOR
1002
}
1001
GENIUS_GENOBJ-N-REC_13
1002
{
1000
OWNER
1000
GEN
1002
}
  0
LINE
  5
1A26
  8
SAPA_BESLAG
 10
121.44999999289939
 20
110.49564033125159
 30
0.0
 11
121.44999999289939
 21
124.4956403312525
 31
0.0
1001
GENIUS_GENREC_14
1002
{
1000
PYDIR
1011
121.44999999289939
1021
0.0
1031
0.0
1021
110.49564033125159
1031
0.0
1002
}
1002
{
1000
PXDIR
1011
120.4499999999852
1021
0.0
1031
0.0
1021
124.4956403312525
1031
0.0
1002
}
1002
{
1000
PORI
1011
121.44999999289939
1021
0.0
1031
0.0
1021
124.4956403312525
1031
0.0
1002
}
1002
{
1000
PINS
1011
121.44999999289939
1021
0.0
1031
0.0
1021
124.4956403312525
1031
0.0
1002
}
1002
{
1000
PINS2
1011
120.4499999999852
1021
0.0
1031
0.0
1021
110.49564033125159
1031
0.0
1002
}
1002
{
1000
C
1070
     1
1002
}
1001
GENIUS_GENODEF_13
1002
{
1000
HIER
1070
     0
1002
}
1002
{
1000
MANEDIT
1070
     0
1002
}
1002
{
1000
NOSEL
1070
     0
1002
}
1002
{
1000
BEHIND
1070
     0
1002
}
1002
{
1000
OTHER
1070
     0
1002
}
1002
{
1000
REACTOR
1002
}
1001
GENIUS_GENOBJ-N-REC_13
1002
{
1000
OWNER
1000
GEN
1002
}
  0
LINE
  5
1A27
  8
SAPA_BESLAG
 10
100.04999999998471
 20
129.3956443352055
 30
0.0
 11
100.04999999998471
 21
101.7456323341914
 31
0.0
  0
LINE
  5
1A28
  8
SAPA_BESLAG
 10
100.04999999998471
 20
101.7456323341914
 30
0.0
 11
100.2999999999915
 21
101.495632334185
 31
0.0
  0
LINE
  5
1A29
  8
SAPA_BESLAG
 10
100.2999999999915
 20
101.495632334185
 30
0.0
 11
102.80051025720149
 21
101.495632334185
 31
0.0
  0
ARC
  5
1A2A
  8
SAPA_BESLAG
 10
105.24999999998469
 20
98.995632334184918
 30
0.0
 40
3.5000000000001359
 50
45.584691402807067
 51
134.4153085971929
  0
LINE
  5
1A2B
  8
SAPA_BESLAG
 10
107.69948974276799
 20
101.495632334185
 30
0.0
 11
112.80051025720149
 21
101.495632334185
 31
0.0
  0
ARC
  5
1A2C
  8
SAPA_BESLAG
 10
115.2499999999845
 20
98.995632334185217
 30
0.0
 40
3.4999999999997629
 50
45.584691402806307
 51
134.4153085971937
  0
LINE
  5
1A2D
  8
SAPA_BESLAG
 10
117.6994897427676
 20
101.495632334185
 30
0.0
 11
120.199999999978
 21
101.495632334185
 31
0.0
  0
LINE
  5
1A2E
  8
SAPA_BESLAG
 10
120.199999999978
 20
101.495632334185
 30
0.0
 11
120.4499999999852
 21
101.7456323341914
 31
0.0
  0
LINE
  5
1A2F
  8
SAPA_BESLAG
 10
120.4499999999852
 20
101.7456323341914
 30
0.0
 11
120.4499999999852
 21
129.3956443352055
 31
0.0
  0
ARC
  5
1A30
  8
SAPA_BESLAG
 10
126.2499999929375
 20
106.4956403376879
 30
0.0
 40
0.5000000000002274
 50
270.00000000002598
 51
0.0000000000781653
  0
LINE
  5
1A31
  8
SAPA_BESLAG
 10
126.2499999929378
 20
105.9956403376877
 30
0.0
 11
121.94999999293481
 21
105.9956403376877
 31
0.0
  0
ARC
  5
1A32
  8
SAPA_BESLAG
 10
121.94999999293481
 20
106.4956403376877
 30
0.0
 40
0.5
 50
180.0
 51
270.0
  0
LINE
  5
1A33
  8
SAPA_BESLAG
 10
121.44999999293481
 20
106.4956403376877
 30
0.0
 11
121.44999999293481
 21
125.9298140888845
 31
0.0
  0
ARC
  5
1A34
  8
SAPA_BESLAG
 10
121.9499999929121
 20
125.9298140888791
 30
0.0
 40
0.4999999999772342
 50
164.99999999845511
 51
179.99999999938601
  0
LINE
  5
1A35
  8
SAPA_BESLAG
 10
121.467037079793
 20
126.0592236114375
 30
0.0
 11
122.15454815109391
 21
128.62504986024709
 31
0.0
  0
ARC
  5
1A36
  8
SAPA_BESLAG
 10
122.63751106423631
 20
128.4956403376888
 30
0.0
 40
0.4999999999997659
 50
90.000000000068383
 51
164.9999999991621
  0
LINE
  5
1A37
  8
SAPA_BESLAG
 10
122.6375110642357
 20
128.9956403376886
 30
0.0
 11
124.4553092439555
 21
128.9956403376886
 31
0.0
  0
ARC
  5
1A38
  8
SAPA_BESLAG
 10
124.4553092439581
 20
128.49564033769721
 30
0.0
 40
0.4999999999914167
 50
14.999999998699931
 51
90.000000000301256
  0
LINE
  5
1A39
  8
SAPA_BESLAG
 10
124.9382721570973
 20
128.62504986023521
 30
0.0
 11
125.65070057305731
 21
125.9662308150486
 31
0.0
  0
ARC
  5
1A3A
  8
SAPA_BESLAG
 10
126.13366348620541
 20
126.0956403375848
 30
0.0
 40
0.4999999999995519
 50
194.99999999822961
 51
269.99999999990553
  0
LINE
  5
1A3B
  8
SAPA_BESLAG
 10
126.1336634862045
 20
125.59564033758529
 30
0.0
 11
128.36633650034031
 21
125.5956403375862
 31
0.0
  0
ARC
  5
1A3C
  8
SAPA_BESLAG
 10
128.36633650034841
 20
126.0956403375822
 30
0.0
 40
0.4999999999960494
 50
269.99999999908158
 51
323.13010224928809
  0
ARC
  5
1A3D
  8
SAPA_BESLAG
 10
129.166336499252
 20
125.4956403361268
 30
0.0
 40
0.5000000000001308
 50
89.999999988346858
 51
143.130102250226
  0
LINE
  5
1A3E
  8
SAPA_BESLAG
 10
129.16633649935369
 20
125.995640336127
 30
0.0
 11
136.2499999944948
 21
125.9956403346945
 31
0.0
  0
ARC
  5
1A3F
  8
SAPA_BESLAG
 10
136.24999999439299
 20
125.4956403346945
 30
0.0
 40
0.5
 50
0.0
 51
89.999999988327318
  0
LINE
  5
1A40
  8
SAPA_BESLAG
 10
136.74999999439291
 20
125.4956403346945
 30
0.0
 11
136.74999999437841
 21
123.095640337688
 31
0.0
  0
ARC
  5
1A41
  8
SAPA_BESLAG
 10
136.24999999437841
 20
123.095640337688
 30
0.0
 40
0.5
 50
270.0
 51
0.0
  0
LINE
  5
1A42
  8
SAPA_BESLAG
 10
136.24999999437841
 20
122.595640337688
 30
0.0
 11
128.2499999929378
 21
122.59564033768891
 31
0.0
  0
ARC
  5
1A43
  8
SAPA_BESLAG
 10
128.2499999929378
 20
121.09564033768891
 30
0.0
 40
1.5
 50
90.0
 51
180.0
  0
LINE
  5
1A44
  8
SAPA_BESLAG
 10
126.7499999929377
 20
121.09564033768891
 30
0.0
 11
126.74999999292319
 21
117.8420504991585
 31
0.0
  0
LINE
  5
1A45
  8
SAPA_BESLAG
 10
126.74999999292319
 20
117.8420504991585
 30
0.0
 11
126.54999999295519
 21
117.49564033768949
 31
0.0
  0
LINE
  5
1A46
  8
SAPA_BESLAG
 10
126.54999999295519
 20
117.49564033768949
 30
0.0
 11
126.7499999929377
 21
117.1492301761713
 31
0.0
  0
LINE
  5
1A47
  8
SAPA_BESLAG
 10
126.7499999929377
 20
117.1492301761713
 30
0.0
 11
126.74999999292319
 21
115.8420504991758
 31
0.0
  0
LINE
  5
1A48
  8
SAPA_BESLAG
 10
126.74999999292319
 20
115.8420504991758
 30
0.0
 11
126.54999999295519
 21
115.4956403376877
 31
0.0
  0
LINE
  5
1A49
  8
SAPA_BESLAG
 10
126.54999999295519
 20
115.4956403376877
 30
0.0
 11
126.7499999929377
 21
115.1492301761695
 31
0.0
  0
LINE
  5
1A4A
  8
SAPA_BESLAG
 10
126.7499999929377
 20
115.1492301761695
 30
0.0
 11
126.7499999929377
 21
106.4956403376886
 31
0.0
  0
ARC
  5
1A4B
  8
SAPA_BESLAG
 10
94.249999992472794
 20
106.4956323376886
 30
0.0
 40
0.5000000000002274
 50
179.99999999992181
 51
269.99999999997391
  0
LINE
  5
1A4C
  8
SAPA_BESLAG
 10
94.249999992472567
 20
105.99563233768841
 30
0.0
 11
98.549999992475477
 21
105.99563233768841
 31
0.0
  0
ARC
  5
1A4D
  8
SAPA_BESLAG
 10
98.549999992475477
 20
106.49563233768841
 30
0.0
 40
0.5
 50
270.0
 51
0.0
  0
LINE
  5
1A4E
  8
SAPA_BESLAG
 10
99.049999992475477
 20
106.49563233768841
 30
0.0
 11
99.049999992475477
 21
125.9298060888852
 31
0.0
  0
ARC
  5
1A4F
  8
SAPA_BESLAG
 10
98.549999992498243
 20
125.9298060888798
 30
0.0
 40
0.4999999999772342
 50
0.0000000006139234
 51
15.00000000154491
  0
LINE
  5
1A50
  8
SAPA_BESLAG
 10
99.032962905617296
 20
126.0592156114382
 30
0.0
 11
98.345451834316933
 21
128.62504186024779
 31
0.0
  0
ARC
  5
1A51
  8
SAPA_BESLAG
 10
97.862488921174275
 20
128.49563233768919
 30
0.0
 40
0.5000000000000591
 50
15.00000000086257
 51
89.999999999957666
  0
LINE
  5
1A52
  8
SAPA_BESLAG
 10
97.862488921174645
 20
128.9956323376893
 30
0.0
 11
96.044690741454815
 21
128.9956323376893
 31
0.0
  0
ARC
  5
1A53
  8
SAPA_BESLAG
 10
96.044690741452186
 20
128.49563233769791
 30
0.0
 40
0.4999999999914167
 50
89.999999999698744
 51
165.00000000130001
  0
LINE
  5
1A54
  8
SAPA_BESLAG
 10
95.561727828312996
 20
128.62504186023591
 30
0.0
 11
94.849299412354398
 21
125.96622281504931
 31
0.0
  0
ARC
  5
1A55
  8
SAPA_BESLAG
 10
94.366336499205644
 20
126.09563233758639
 30
0.0
 40
0.5000000000004388
 50
270.00000000001631
 51
345.00000000169308
  0
LINE
  5
1A56
  8
SAPA_BESLAG
 10
94.366336499205786
 20
125.595632337586
 30
0.0
 11
92.133663485069974
 21
125.59563233758691
 31
0.0
  0
ARC
  5
1A57
  8
SAPA_BESLAG
 10
92.133663485061959
 20
126.0956323375829
 30
0.0
 40
0.4999999999960494
 50
216.86989775071089
 51
270.00000000091683
  0
ARC
  5
1A58
  8
SAPA_BESLAG
 10
91.333663486158287
 20
125.4956323361275
 30
0.0
 40
0.5000000000001421
 50
36.869897749772953
 51
90.000000011651537
  0
LINE
  5
1A59
  8
SAPA_BESLAG
 10
91.333663486056594
 20
125.9956323361277
 30
0.0
 11
84.249999990915526
 21
125.9956323346952
 31
0.0
  0
ARC
  5
1A5A
  8
SAPA_BESLAG
 10
84.249999991017376
 20
125.4956323346952
 30
0.0
 40
0.5
 50
90.000000011672682
 51
180.0
  0
LINE
  5
1A5B
  8
SAPA_BESLAG
 10
83.749999991017376
 20
125.4956323346952
 30
0.0
 11
83.749999991031927
 21
123.0956323376887
 31
0.0
  0
ARC
  5
1A5C
  8
SAPA_BESLAG
 10
84.249999991031913
 20
123.0956323376887
 30
0.0
 40
0.5
 50
180.0
 51
270.0
  0
LINE
  5
1A5D
  8
SAPA_BESLAG
 10
84.249999991031913
 20
122.5956323376887
 30
0.0
 11
92.249999992472567
 21
122.59563233768959
 31
0.0
  0
ARC
  5
1A5E
  8
SAPA_BESLAG
 10
92.249999992472567
 20
121.09563233768959
 30
0.0
 40
1.5
 50
0.0
 51
90.0
  0
LINE
  5
1A5F
  8
SAPA_BESLAG
 10
93.749999992472567
 20
121.09563233768959
 30
0.0
 11
93.749999992487119
 21
117.84204249915931
 31
0.0
  0
LINE
  5
1A60
  8
SAPA_BESLAG
 10
93.749999992487119
 20
117.84204249915931
 30
0.0
 11
93.949999992455105
 21
117.4956323376902
 31
0.0
  0
LINE
  5
1A61
  8
SAPA_BESLAG
 10
93.949999992455105
 20
117.4956323376902
 30
0.0
 11
93.749999992472567
 21
117.149222176172
 31
0.0
  0
LINE
  5
1A62
  8
SAPA_BESLAG
 10
93.749999992472567
 20
117.149222176172
 30
0.0
 11
93.749999992487119
 21
115.8420424991765
 31
0.0
  0
LINE
  5
1A63
  8
SAPA_BESLAG
 10
93.749999992487119
 20
115.8420424991765
 30
0.0
 11
93.949999992455105
 21
115.49563233768841
 31
0.0
  0
LINE
  5
1A64
  8
SAPA_BESLAG
 10
93.949999992455105
 20
115.49563233768841
 30
0.0
 11
93.749999992472567
 21
115.1492221761702
 31
0.0
  0
LINE
  5
1A65
  8
SAPA_BESLAG
 10
93.749999992472567
 20
115.1492221761702
 30
0.0
 11
93.749999992472567
 21
106.4956323376893
 31
0.0
  0
LINE
  5
1A66
  8
SAPA_FOGBAND
 10
220.1495673962531
 20
125.63202382540641
 30
0.0
 11
215.93511675623949
 21
125.7420212105888
 31
0.0
  0
LINE
  5
1A67
  8
SAPA_FOGBAND
 10
215.93511675623949
 20
125.7420212105888
 30
0.0
 11
215.9356932551141
 21
128.1801145510106
 31
0.0
  0
LINE
  5
1A68
  8
SAPA_FOGBAND
 10
215.9356932551141
 20
128.1801145510106
 30
0.0
 11
220.1495673962531
 21
127.05471342854599
 31
0.0
  0
LINE
  5
1A69
  8
SAPA_FOGBAND
 10
220.1495673962531
 20
123.90933422226399
 30
0.0
 11
215.93552354064701
 21
122.78388762494779
 31
0.0
  0
LINE
  5
1A6A
  8
SAPA_FOGBAND
 10
215.93552354064701
 20
122.78388762494779
 30
0.0
 11
215.93508739982599
 21
125.22202567149709
 31
0.0
  0
LINE
  5
1A6B
  8
SAPA_FOGBAND
 10
215.93508739982599
 20
125.22202567149709
 30
0.0
 11
220.1495673962531
 21
125.3320238254035
 31
0.0
  0
LINE
  5
1A6C
  8
SAPA_FOGBAND
 10
220.9495673962542
 20
128.63202382540371
 30
0.0
 11
220.1495673962531
 21
128.63202382540371
 31
0.0
  0
LINE
  5
1A6D
  8
SAPA_FOGBAND
 10
220.1495673962531
 20
128.63202382540371
 30
0.0
 11
220.1495673962531
 21
122.3320238254063
 31
0.0
  0
LINE
  5
1A6E
  8
SAPA_FOGBAND
 10
220.1495673962531
 20
122.3320238254063
 30
0.0
 11
220.9495673962542
 21
122.3320238254063
 31
0.0
  0
LINE
  5
1A6F
  8
SAPA_FOGBAND
 10
220.9495673962542
 20
122.3320238254063
 30
0.0
 11
220.9495673962542
 21
128.63202382540371
 31
0.0
  0
LINE
  5
1A70
  8
SAPA_FOGBAND
 10
220.1495673962531
 20
134.13202382541101
 30
0.0
 11
215.50026763891449
 21
134.2420212105925
 31
0.0
  0
LINE
  5
1A71
  8
SAPA_FOGBAND
 10
215.50026763891449
 20
134.2420212105925
 30
0.0
 11
215.5008441377891
 21
136.68011455101521
 31
0.0
  0
LINE
  5
1A72
  8
SAPA_FOGBAND
 10
215.5008441377891
 20
136.68011455101521
 30
0.0
 11
220.1495673962531
 21
135.5547134285506
 31
0.0
  0
LINE
  5
1A73
  8
SAPA_FOGBAND
 10
220.1495673962531
 20
132.40933422226851
 30
0.0
 11
215.5006744233219
 21
131.2838876249524
 31
0.0
  0
LINE
  5
1A74
  8
SAPA_FOGBAND
 10
215.5006744233219
 20
131.2838876249524
 30
0.0
 11
215.5002382825019
 21
133.72202567150069
 31
0.0
  0
LINE
  5
1A75
  8
SAPA_FOGBAND
 10
215.5002382825019
 20
133.72202567150069
 30
0.0
 11
220.1495673962531
 21
133.8320238254081
 31
0.0
  0
LINE
  5
1A76
  8
SAPA_FOGBAND
 10
220.9495673962542
 20
137.13202382540729
 30
0.0
 11
220.1495673962531
 21
137.13202382540729
 31
0.0
  0
LINE
  5
1A77
  8
SAPA_FOGBAND
 10
220.1495673962531
 20
137.13202382540729
 30
0.0
 11
220.1495673962531
 21
130.8320238254108
 31
0.0
  0
LINE
  5
1A78
  8
SAPA_FOGBAND
 10
220.1495673962531
 20
130.8320238254108
 30
0.0
 11
220.9495673962542
 21
130.8320238254108
 31
0.0
  0
LINE
  5
1A79
  8
SAPA_FOGBAND
 10
220.9495673962542
 20
130.8320238254108
 30
0.0
 11
220.9495673962542
 21
137.13202382540729
 31
0.0
  0
LINE
  5
1A7A
  8
SAPA_FOGBAND
 10
154.35043246001939
 20
125.63202382540641
 30
0.0
 11
158.67558998048389
 21
125.7420212105888
 31
0.0
  0
LINE
  5
1A7B
  8
SAPA_FOGBAND
 10
158.67558998048389
 20
125.7420212105888
 30
0.0
 11
158.67501348160931
 21
128.1801145510106
 31
0.0
  0
LINE
  5
1A7C
  8
SAPA_FOGBAND
 10
158.67501348160931
 20
128.1801145510106
 30
0.0
 11
154.35043246001939
 21
127.05471342854599
 31
0.0
  0
LINE
  5
1A7D
  8
SAPA_FOGBAND
 10
154.35043246001939
 20
123.90933422226399
 30
0.0
 11
158.6751831960764
 21
122.78388762494779
 31
0.0
  0
LINE
  5
1A7E
  8
SAPA_FOGBAND
 10
158.6751831960764
 20
122.78388762494779
 30
0.0
 11
158.67561933689649
 21
125.22202567149709
 31
0.0
  0
LINE
  5
1A7F
  8
SAPA_FOGBAND
 10
158.67561933689649
 20
125.22202567149709
 30
0.0
 11
154.35043246001939
 21
125.3320238254035
 31
0.0
  0
LINE
  5
1A80
  8
SAPA_FOGBAND
 10
153.5504324600183
 20
128.63202382540371
 30
0.0
 11
154.35043246001939
 21
128.63202382540371
 31
0.0
  0
LINE
  5
1A81
  8
SAPA_FOGBAND
 10
154.35043246001939
 20
128.63202382540371
 30
0.0
 11
154.35043246001939
 21
122.3320238254063
 31
0.0
  0
LINE
  5
1A82
  8
SAPA_FOGBAND
 10
154.35043246001939
 20
122.3320238254063
 30
0.0
 11
153.5504324600183
 21
122.3320238254063
 31
0.0
  0
LINE
  5
1A83
  8
SAPA_FOGBAND
 10
153.5504324600183
 20
122.3320238254063
 30
0.0
 11
153.5504324600183
 21
128.63202382540371
 31
0.0
  0
LINE
  5
1A84
  8
SAPA_FOGBAND
 10
154.35043246001939
 20
134.13202382541101
 30
0.0
 11
159.09726645500581
 21
134.2420212105925
 31
0.0
  0
LINE
  5
1A85
  8
SAPA_FOGBAND
 10
159.09726645500581
 20
134.2420212105925
 30
0.0
 11
159.09668995613131
 21
136.68011455101521
 31
0.0
  0
LINE
  5
1A86
  8
SAPA_FOGBAND
 10
159.09668995613131
 20
136.68011455101521
 30
0.0
 11
154.35043246001939
 21
135.5547134285506
 31
0.0
  0
LINE
  5
1A87
  8
SAPA_FOGBAND
 10
154.35043246001939
 20
132.40933422226851
 30
0.0
 11
159.09685967059841
 21
131.2838876249524
 31
0.0
  0
LINE
  5
1A88
  8
SAPA_FOGBAND
 10
159.09685967059841
 20
131.2838876249524
 30
0.0
 11
159.09729581141841
 21
133.72202567150069
 31
0.0
  0
LINE
  5
1A89
  8
SAPA_FOGBAND
 10
159.09729581141841
 20
133.72202567150069
 30
0.0
 11
154.35043246001939
 21
133.8320238254081
 31
0.0
  0
LINE
  5
1A8A
  8
SAPA_FOGBAND
 10
153.5504324600183
 20
137.13202382540729
 30
0.0
 11
154.35043246001939
 21
137.13202382540729
 31
0.0
  0
LINE
  5
1A8B
  8
SAPA_FOGBAND
 10
154.35043246001939
 20
137.13202382540729
 30
0.0
 11
154.35043246001939
 21
130.8320238254108
 31
0.0
  0
LINE
  5
1A8C
  8
SAPA_FOGBAND
 10
154.35043246001939
 20
130.8320238254108
 30
0.0
 11
153.5504324600183
 21
130.8320238254108
 31
0.0
  0
LINE
  5
1A8D
  8
SAPA_FOGBAND
 10
153.5504324600183
 20
130.8320238254108
 30
0.0
 11
153.5504324600183
 21
137.13202382540729
 31
0.0
  0
ARC
  5
1A8E
  8
SAPA_FOGBAND
 10
108.4249015732622
 20
100.89563233418529
 30
0.0
 40
0.2000000000002316
 50
83.103726790278898
 51
210.89814782521151
  0
ARC
  5
1A8F
  8
SAPA_FOGBAND
 10
105.24999999998521
 20
98.995632334184606
 30
0.0
 40
3.4999999999996532
 50
329.86727816899332
 51
30.898147825250948
  0
ARC
  5
1A90
  8
SAPA_FOGBAND
 10
108.4499999999852
 20
97.138214772083998
 30
0.0
 40
0.2000000000002637
 50
149.86727816893969
 51
209.9999999999504
  0
LINE
  5
1A91
  8
SAPA_FOGBAND
 10
108.276794919228
 20
97.038214772084018
 30
0.0
 11
108.792127630023
 21
96.145632334185564
 31
0.0
  0
ARC
  5
1A92
  8
SAPA_FOGBAND
 10
109.0519352511584
 20
96.295632334185441
 30
0.0
 40
0.299999999999949
 50
209.9999999999755
 51
269.9999999999755
  0
LINE
  5
1A93
  8
SAPA_FOGBAND
 10
109.0519352511583
 20
95.995632334185487
 30
0.0
 11
111.4480647488117
 21
95.995632334185487
 31
0.0
  0
ARC
  5
1A94
  8
SAPA_FOGBAND
 10
111.4480647488115
 20
96.295632334185441
 30
0.0
 40
0.2999999999999545
 50
270.00000000002439
 51
330.00000000002439
  0
LINE
  5
1A95
  8
SAPA_FOGBAND
 10
111.7078723699469
 20
96.145632334185564
 30
0.0
 11
112.22320508074149
 21
97.038214772084018
 31
0.0
  0
ARC
  5
1A96
  8
SAPA_FOGBAND
 10
112.04999999998449
 20
97.13821477208441
 30
0.0
 40
0.200000000000262
 50
329.99999999991832
 51
30.132721830929011
  0
ARC
  5
1A97
  8
SAPA_FOGBAND
 10
115.2499999999845
 20
98.995632334184975
 30
0.0
 40
3.4999999999996461
 50
149.10185217475629
 51
210.13272183101401
  0
ARC
  5
1A98
  8
SAPA_FOGBAND
 10
112.0750984267075
 20
100.89563233418539
 30
0.0
 40
0.2000000000001001
 50
329.1018521747306
 51
96.896273209659867
  0
ARC
  5
1A99
  8
SAPA_FOGBAND
 10
110.24999999998499
 20
115.9856626765242
 30
0.0
 40
14.999999999997661
 50
263.1037267903157
 51
276.8962732096843
  0
LINE
  5
1A9A
  8
SAPA_GLAS
 10
92.250000135648847
 20
167.9956323341741
 30
0.0
 11
92.250000135648847
 21
135.9956323341741
 31
0.0
  0
LINE
  5
1A9B
  8
SAPA_GLAS
 10
92.250000135648847
 20
135.9956323341741
 30
0.0
 11
84.250000135648861
 21
135.9956323341741
 31
0.0
  0
LINE
  5
1A9C
  8
SAPA_GLAS
 10
84.250000135648861
 20
135.9956323341741
 30
0.0
 11
84.250000135648861
 21
167.9956323341741
 31
0.0
  0
LINE
  5
1A9D
  8
SAPA_GLAS
 10
92.250000135648847
 20
145.9956323341741
 30
0.0
 11
107.2500001356488
 21
145.9956323341741
 31
0.0
  0
LINE
  5
1A9E
  8
SAPA_GLAS
 10
107.2500001356488
 20
145.9956323341741
 30
0.0
 11
107.2500001356488
 21
135.9956323341741
 31
0.0
  0
LINE
  5
1A9F
  8
SAPA_GLAS
 10
107.2500001356488
 20
135.9956323341741
 30
0.0
 11
92.250000135648847
 21
135.9956323341741
 31
0.0
  0
LINE
  5
1AA0
  8
SAPA_GLAS
 10
92.250000135648847
 20
135.9956323341741
 30
0.0
 11
92.250000135648847
 21
145.9956323341741
 31
0.0
  0
LINE
  5
1AA1
  8
SAPA_GLAS
 10
113.25000013564841
 20
167.9956323341741
 30
0.0
 11
113.25000013564841
 21
135.9956323341741
 31
0.0
  0
LINE
  5
1AA2
  8
SAPA_GLAS
 10
113.25000013564841
 20
135.9956323341741
 30
0.0
 11
107.2500001356488
 21
135.9956323341741
 31
0.0
  0
LINE
  5
1AA3
  8
SAPA_GLAS
 10
107.2500001356488
 20
135.9956323341741
 30
0.0
 11
107.2500001356488
 21
167.9956323341741
 31
0.0
  0
LINE
  5
1AA4
  8
SAPA_GLAS
 10
83.832322393227443
 20
135.99563233417359
 30
0.0
 11
83.500000135293305
 21
136.32795459210769
 31
0.0
1001
ACAD
1010
0.0
1020
0.0
1030
0.0
  0
LINE
  5
1AA5
  8
SAPA_GLAS
 10
84.250000135632476
 20
136.70048660690219
 30
0.0
 11
83.500000135292083
 21
137.4504866072426
 31
0.0
1001
ACAD
1010
0.0
1020
0.0
1030
0.0
  0
LINE
  5
1AA6
  8
SAPA_GLAS
 10
84.250000135632476
 20
137.82301862203579
 30
0.0
 11
83.500000135290847
 21
138.57301862237739
 31
0.0
1001
ACAD
1010
0.0
1020
0.0
1030
0.0
  0
LINE
  5
1AA7
  8
SAPA_GLAS
 10
84.250000135632476
 20
138.94555063716939
 30
0.0
 11
83.500000135289596
 21
139.6955506375123
 31
0.0
1001
ACAD
1010
0.0
1020
0.0
1030
0.0
  0
LINE
  5
1AA8
  8
SAPA_GLAS
 10
84.250000135632476
 20
140.0680826523031
 30
0.0
 11
83.500000135288374
 21
140.81808265264721
 31
0.0
1001
ACAD
1010
0.0
1020
0.0
1030
0.0
  0
LINE
  5
1AA9
  8
SAPA_GLAS
 10
84.250000135632476
 20
141.19061466743679
 30
0.0
 11
83.500000135287124
 21
141.94061466778211
 31
0.0
1001
ACAD
1010
0.0
1020
0.0
1030
0.0
  0
LINE
  5
1AAA
  8
SAPA_GLAS
 10
84.250000135632476
 20
142.31314668257039
 30
0.0
 11
83.500000135285916
 21
143.06314668291691
 31
0.0
1001
ACAD
1010
0.0
1020
0.0
1030
0.0
  0
LINE
  5
1AAB
  8
SAPA_GLAS
 10
84.250000135632476
 20
143.43567869770411
 30
0.0
 11
83.500000135284665
 21
144.1856786980519
 31
0.0
1001
ACAD
1010
0.0
1020
0.0
1030
0.0
  0
LINE
  5
1AAC
  8
SAPA_GLAS
 10
84.250000135632476
 20
144.55821071283771
 30
0.0
 11
83.500000135283443
 21
145.3082107131867
 31
0.0
1001
ACAD
1010
0.0
1020
0.0
1030
0.0
  0
LINE
  5
1AAD
  8
SAPA_GLAS
 10
84.250000135632476
 20
145.68074272797131
 30
0.0
 11
83.500000135282193
 21
146.4307427283216
 31
0.0
1001
ACAD
1010
0.0
1020
0.0
1030
0.0
  0
LINE
  5
1AAE
  8
SAPA_GLAS
 10
84.250000135632476
 20
146.80327474310499
 30
0.0
 11
83.500000135280928
 21
147.55327474345651
 31
0.0
1001
ACAD
1010
0.0
1020
0.0
1030
0.0
  0
LINE
  5
1AAF
  8
SAPA_GLAS
 10
84.250000135632476
 20
147.92580675823859
 30
0.0
 11
83.500000135279691
 21
148.67580675859139
 31
0.0
1001
ACAD
1010
0.0
1020
0.0
1030
0.0
  0
LINE
  5
1AB0
  8
SAPA_GLAS
 10
84.25000013563249
 20
136.4671746443866
 30
0.0
 11
83.778457825419437
 21
135.99563233417351
 31
0.0
1001
ACAD
1010
0.0
1020
0.0
1030
0.0
  0
LINE
  5
1AB1
  8
SAPA_GLAS
 10
84.250000135632476
 20
137.5897066595202
 30
0.0
 11
83.50000013529278
 21
136.83970665918051
 31
0.0
1001
ACAD
1010
0.0
1020
0.0
1030
0.0
  0
LINE
  5
1AB2
  8
SAPA_GLAS
 10
84.250000135632476
 20
138.7122386746538
 30
0.0
 11
83.500000135291515
 21
137.96223867431291
 31
0.0
1001
ACAD
1010
0.0
1020
0.0
1030
0.0
  0
LINE
  5
1AB3
  8
SAPA_GLAS
 10
84.250000135632476
 20
139.83477068978749
 30
0.0
 11
83.500000135290293
 21
139.08477068944529
 31
0.0
1001
ACAD
1010
0.0
1020
0.0
1030
0.0
  0
LINE
  5
1AB4
  8
SAPA_GLAS
 10
84.25000013563249
 20
140.95730270492109
 30
0.0
 11
83.500000135289071
 21
140.2073027045777
 31
0.0
1001
ACAD
1010
0.0
1020
0.0
1030
0.0
  0
LINE
  5
1AB5
  8
SAPA_GLAS
 10
84.250000135632476
 20
142.07983472005481
 30
0.0
 11
83.500000135287834
 21
141.32983471971011
 31
0.0
1001
ACAD
1010
0.0
1020
0.0
1030
0.0
  0
LINE
  5
1AB6
  8
SAPA_GLAS
 10
84.250000135632476
 20
143.20236673518841
 30
0.0
 11
83.500000135286584
 21
142.45236673484251
 31
0.0
1001
ACAD
1010
0.0
1020
0.0
1030
0.0
  0
LINE
  5
1AB7
  8
SAPA_GLAS
 10
84.250000135632476
 20
144.32489875032209
 30
0.0
 11
83.500000135285333
 21
143.57489874997489
 31
0.0
1001
ACAD
1010
0.0
1020
0.0
1030
0.0
  0
LINE
  5
1AB8
  8
SAPA_GLAS
 10
84.25000013563249
 20
145.44743076545569
 30
0.0
 11
83.500000135284125
 21
144.6974307651073
 31
0.0
1001
ACAD
1010
0.0
1020
0.0
1030
0.0
  0
LINE
  5
1AB9
  8
SAPA_GLAS
 10
84.25000013563249
 20
146.56996278058941
 30
0.0
 11
83.500000135282875
 21
145.81996278023971
 31
0.0
1001
ACAD
1010
0.0
1020
0.0
1030
0.0
  0
LINE
  5
1ABA
  8
SAPA_GLAS
 10
84.250000135632476
 20
147.69249479572301
 30
0.0
 11
83.500000135281638
 21
146.94249479537211
 31
0.0
1001
ACAD
1010
0.0
1020
0.0
1030
0.0
  0
LINE
  5
1ABB
  8
SAPA_GLAS
 10
84.230605658961039
 20
148.7956323341852
 30
0.0
 11
83.500000135280402
 21
148.06502681050449
 31
0.0
1001
ACAD
1010
0.0
1020
0.0
1030
0.0
  0
LINE
  5
1ABC
  8
SAPA_GLAS
 10
136.59132710450859
 20
135.99563233417371
 30
0.0
 11
136.25000013597031
 21
136.3369593027119
 31
0.0
1001
ACAD
1010
0.0
1020
0.0
1030
0.0
  0
LINE
  5
1ABD
  8
SAPA_GLAS
 10
137.00000013631029
 20
136.70949131750561
 30
0.0
 11
136.25000013597031
 21
137.45949131784559
 31
0.0
1001
ACAD
1010
0.0
1020
0.0
1030
0.0
  0
LINE
  5
1ABE
  8
SAPA_GLAS
 10
137.00000013631151
 20
137.83202333263799
 30
0.0
 11
136.25000013597031
 21
138.58202333297919
 31
0.0
1001
ACAD
1010
0.0
1020
0.0
1030
0.0
  0
LINE
  5
1ABF
  8
SAPA_GLAS
 10
137.00000013631271
 20
138.95455534777051
 30
0.0
 11
136.25000013597031
 21
139.7045553481129
 31
0.0
1001
ACAD
1010
0.0
1020
0.0
1030
0.0
  0
LINE
  5
1AC0
  8
SAPA_GLAS
 10
137.0000001363139
 20
140.07708736290289
 30
0.0
 11
136.25000013597031
 21
140.82708736324651
 31
0.0
1001
ACAD
1010
0.0
1020
0.0
1030
0.0
  0
LINE
  5
1AC1
  8
SAPA_GLAS
 10
137.00000013631509
 20
141.19961937803529
 30
0.0
 11
136.25000013597031
 21
141.94961937838011
 31
0.0
1001
ACAD
1010
0.0
1020
0.0
1030
0.0
  0
LINE
  5
1AC2
  8
SAPA_GLAS
 10
137.00000013631629
 20
142.32215139316779
 30
0.0
 11
136.25000013597031
 21
143.07215139351379
 31
0.0
1001
ACAD
1010
0.0
1020
0.0
1030
0.0
  0
LINE
  5
1AC3
  8
SAPA_GLAS
 10
137.00000013631751
 20
143.44468340830019
 30
0.0
 11
136.25000013597031
 21
144.19468340864739
 31
0.0
1001
ACAD
1010
0.0
1020
0.0
1030
0.0
  0
LINE
  5
1AC4
  8
SAPA_GLAS
 10
137.0000001363187
 20
144.56721542343271
 30
0.0
 11
136.25000013597031
 21
145.31721542378111
 31
0.0
1001
ACAD
1010
0.0
1020
0.0
1030
0.0
  0
LINE
  5
1AC5
  8
SAPA_GLAS
 10
137.0000001363199
 20
145.68974743856509
 30
0.0
 11
136.25000013597031
 21
146.43974743891471
 31
0.0
1001
ACAD
1010
0.0
1020
0.0
1030
0.0
  0
LINE
  5
1AC6
  8
SAPA_GLAS
 10
137.00000013632109
 20
146.81227945369761
 30
0.0
 11
136.25000013597031
 21
147.56227945404831
 31
0.0
1001
ACAD
1010
0.0
1020
0.0
1030
0.0
  0
LINE
  5
1AC7
  8
SAPA_GLAS
 10
137.00000013632231
 20
147.93481146882999
 30
0.0
 11
136.25000013597031
 21
148.68481146918199
 31
0.0
1001
ACAD
1010
0.0
1020
0.0
1030
0.0
  0
LINE
  5
1AC8
  8
SAPA_GLAS
 10
137.00000013631009
 20
136.4581699337829
 30
0.0
 11
136.5374625367009
 21
135.99563233417371
 31
0.0
1001
ACAD
1010
0.0
1020
0.0
1030
0.0
  0
LINE
  5
1AC9
  8
SAPA_GLAS
 10
137.00000013631129
 20
137.58070194891769
 30
0.0
 11
136.25000013597031
 21
136.8307019485768
 31
0.0
1001
ACAD
1010
0.0
1020
0.0
1030
0.0
  0
LINE
  5
1ACA
  8
SAPA_GLAS
 10
137.00000013631251
 20
138.7032339640526
 30
0.0
 11
136.2500001359704
 21
137.9532339637104
 31
0.0
1001
ACAD
1010
0.0
1020
0.0
1030
0.0
  0
LINE
  5
1ACB
  8
SAPA_GLAS
 10
137.0000001363137
 20
139.82576597918739
 30
0.0
 11
136.25000013597031
 21
139.07576597884409
 31
0.0
1001
ACAD
1010
0.0
1020
0.0
1030
0.0
  0
LINE
  5
1ACC
  8
SAPA_GLAS
 10
137.0000001363149
 20
140.94829799432219
 30
0.0
 11
136.25000013597031
 21
140.19829799397769
 31
0.0
1001
ACAD
1010
0.0
1020
0.0
1030
0.0
  0
LINE
  5
1ACD
  8
SAPA_GLAS
 10
137.00000013631609
 20
142.0708300094571
 30
0.0
 11
136.25000013597031
 21
141.32083000911129
 31
0.0
1001
ACAD
1010
0.0
1020
0.0
1030
0.0
  0
LINE
  5
1ACE
  8
SAPA_GLAS
 10
137.00000013631731
 20
143.19336202459201
 30
0.0
 11
136.2500001359704
 21
142.443362024245
 31
0.0
1001
ACAD
1010
0.0
1020
0.0
1030
0.0
  0
LINE
  5
1ACF
  8
SAPA_GLAS
 10
137.0000001363185
 20
144.3158940397268
 30
0.0
 11
136.25000013597031
 21
143.56589403937861
 31
0.0
1001
ACAD
1010
0.0
1020
0.0
1030
0.0
  0
LINE
  5
1AD0
  8
SAPA_GLAS
 10
137.00000013631961
 20
145.43842605486159
 30
0.0
 11
136.25000013597031
 21
144.68842605451229
 31
0.0
1001
ACAD
1010
0.0
1020
0.0
1030
0.0
  0
LINE
  5
1AD1
  8
SAPA_GLAS
 10
137.00000013632089
 20
146.56095806999639
 30
0.0
 11
136.25000013597031
 21
145.81095806964589
 31
0.0
1001
ACAD
1010
0.0
1020
0.0
1030
0.0
  0
LINE
  5
1AD2
  8
SAPA_GLAS
 10
137.000000136322
 20
147.6834900851313
 30
0.0
 11
136.25000013597031
 21
146.93349008477961
 31
0.0
1001
ACAD
1010
0.0
1020
0.0
1030
0.0
  0
LINE
  5
1AD3
  8
SAPA_GLAS
 10
136.9896103702423
 20
148.7956323341852
 30
0.0
 11
136.25000013597031
 21
148.05602209991321
 31
0.0
1001
ACAD
1010
0.0
1020
0.0
1030
0.0
  0
LINE
  5
1AD4
  8
SAPA_GLAS
 10
113.2500001358103
 20
145.9956323341741
 30
0.0
 11
128.2500001358103
 21
145.9956323341741
 31
0.0
  0
LINE
  5
1AD5
  8
SAPA_GLAS
 10
128.2500001358103
 20
145.9956323341741
 30
0.0
 11
128.2500001358103
 21
135.9956323341741
 31
0.0
  0
LINE
  5
1AD6
  8
SAPA_GLAS
 10
128.2500001358103
 20
135.9956323341741
 30
0.0
 11
113.2500001358103
 21
135.9956323341741
 31
0.0
  0
LINE
  5
1AD7
  8
SAPA_GLAS
 10
113.2500001358103
 20
135.9956323341741
 30
0.0
 11
113.2500001358103
 21
145.9956323341741
 31
0.0
  0
LINE
  5
1AD8
  8
SAPA_GLAS
 10
136.2500001358103
 20
167.9956323341741
 30
0.0
 11
136.2500001358103
 21
135.9956323341741
 31
0.0
  0
LINE
  5
1AD9
  8
SAPA_GLAS
 10
136.2500001358103
 20
135.9956323341741
 30
0.0
 11
128.2500001358103
 21
135.9956323341741
 31
0.0
  0
LINE
  5
1ADA
  8
SAPA_GLAS
 10
128.2500001358103
 20
135.9956323341741
 30
0.0
 11
128.2500001358103
 21
167.9956323341741
 31
0.0
  0
LINE
  5
1ADB
  8
SAPA_PROFIL
 10
128.56226198959391
 20
125.9956323352054
 30
0.0
 11
126.4641896338735
 21
125.9956323352054
 31
0.0
  0
ARC
  5
1ADC
  8
SAPA_PROFIL
 10
126.4641896338734
 20
126.9956323352053
 30
0.0
 40
0.9999999999998721
 50
135.00000000000981
 51
270.00000000000489
  0
LINE
  5
1ADD
  8
SAPA_PROFIL
 10
125.75708285268681
 20
127.7027391163917
 30
0.0
 11
127.06213210585609
 21
129.0077883695609
 31
0.0
  0
ARC
  5
1ADE
  8
SAPA_PROFIL
 10
127.2742641402123
 20
128.79565633520539
 30
0.0
 40
0.2999999999998738
 50
90.000000000081414
 51
135.00000000009979
  0
LINE
  5
1ADF
  8
SAPA_PROFIL
 10
127.2742641402119
 20
129.09565633520529
 30
0.0
 11
127.8607695869586
 21
129.09565633520529
 31
0.0
  0
ARC
  5
1AE0
  8
SAPA_PROFIL
 10
127.8607695869584
 20
128.79565633520409
 30
0.0
 40
0.3000000000011767
 50
59.999999999949772
 51
89.999999999948443
  0
LINE
  5
1AE1
  8
SAPA_PROFIL
 10
128.01076958695921
 20
129.0554639563403
 30
0.0
 11
129.5000000714999
 21
128.1956563352052
 31
0.0
  0
LINE
  5
1AE2
  8
SAPA_PROFIL
 10
129.5000000714999
 20
128.1956563352052
 30
0.0
 11
129.9500000715006
 21
128.1956443352052
 31
0.0
  0
ARC
  5
1AE3
  8
SAPA_PROFIL
 10
129.9500000715002
 20
128.49564433520499
 30
0.0
 40
0.2999999999997271
 50
270.0000000000868
 51
0.0000000000868503
  0
LINE
  5
1AE4
  8
SAPA_PROFIL
 10
130.2500000714999
 20
128.49564433520541
 30
0.0
 11
130.2500000714999
 21
132.09565633520529
 31
0.0
  0
ARC
  5
1AE5
  8
SAPA_PROFIL
 10
129.9500000715002
 20
132.09565633520569
 30
0.0
 40
0.2999999999997271
 50
359.99999999991309
 51
89.999999999913143
  0
LINE
  5
1AE6
  8
SAPA_PROFIL
 10
129.9500000715006
 20
132.3956563352055
 30
0.0
 11
129.5000000714999
 21
132.3956563352055
 31
0.0
  0
LINE
  5
1AE7
  8
SAPA_PROFIL
 10
129.5000000714999
 20
132.3956563352055
 30
0.0
 11
128.01073994042511
 21
131.5358315976365
 31
0.0
  0
ARC
  5
1AE8
  8
SAPA_PROFIL
 10
127.8607399404257
 20
131.79563921876979
 30
0.0
 40
0.2999999999978633
 50
270.00364686754762
 51
300.00000000010522
  0
LINE
  5
1AE9
  8
SAPA_PROFIL
 10
127.8607590353795
 20
131.4956392193796
 30
0.0
 11
127.7500000714999
 21
131.4956321695887
 31
0.0
  0
LINE
  5
1AEA
  8
SAPA_PROFIL
 10
127.7500000714999
 20
131.4956321695887
 30
0.0
 11
127.7500000714999
 21
133.4956323351945
 31
0.0
  0
ARC
  5
1AEB
  8
SAPA_PROFIL
 10
128.2500000714999
 20
133.4956323351945
 30
0.0
 40
0.5
 50
90.0
 51
180.0
  0
LINE
  5
1AEC
  8
SAPA_PROFIL
 10
128.2500000714999
 20
133.9956323351945
 30
0.0
 11
133.50000007012571
 21
133.9956323351945
 31
0.0
  0
ARC
  5
1AED
  8
SAPA_PROFIL
 10
133.50000007012571
 20
133.4956323351945
 30
0.0
 40
0.5
 50
0.0
 51
90.0
  0
LINE
  5
1AEE
  8
SAPA_PROFIL
 10
134.00000007012571
 20
133.4956323351945
 30
0.0
 11
134.00000007012571
 21
132.99563233517861
 31
0.0
  0
ARC
  5
1AEF
  8
SAPA_PROFIL
 10
133.50000007012559
 20
132.9956323351787
 30
0.0
 40
0.5000000000000285
 50
270.0000000000033
 51
359.99999999999682
  0
LINE
  5
1AF0
  8
SAPA_PROFIL
 10
133.50000007012571
 20
132.49563233517861
 30
0.0
 11
132.7000000701309
 21
132.49563233517861
 31
0.0
  0
ARC
  5
1AF1
  8
SAPA_PROFIL
 10
132.7000000701307
 20
132.29563233517811
 30
0.0
 40
0.2000000000005002
 50
89.999999999934857
 51
179.9999999999348
  0
LINE
  5
1AF2
  8
SAPA_PROFIL
 10
132.5000000701302
 20
132.2956323351784
 30
0.0
 11
132.5000000701302
 21
129.49563233518359
 31
0.0
  0
ARC
  5
1AF3
  8
SAPA_PROFIL
 10
132.7000000701307
 20
129.49563233518381
 30
0.0
 40
0.2000000000005002
 50
180.00000000006511
 51
270.0000000000652
  0
LINE
  5
1AF4
  8
SAPA_PROFIL
 10
132.7000000701309
 20
129.29563233518331
 30
0.0
 11
136.80000007165921
 21
129.29563233518331
 31
0.0
  0
ARC
  5
1AF5
  8
SAPA_PROFIL
 10
136.8000000716595
 20
129.49563233518381
 30
0.0
 40
0.200000000000415
 50
269.99999999991041
 51
359.99999999982901
  0
LINE
  5
1AF6
  8
SAPA_PROFIL
 10
137.00000007166
 20
129.49563233518319
 30
0.0
 11
137.0000000716891
 21
148.79563233519971
 31
0.0
  0
ARC
  5
1AF7
  8
SAPA_PROFIL
 10
137.200000071689
 20
148.7956323351994
 30
0.0
 40
0.1999999999999318
 50
74.398083255364597
 51
179.99999999991039
  0
ARC
  5
1AF8
  8
SAPA_PROFIL
 10
136.98483843838491
 20
148.0251094792404
 30
0.0
 40
1.0000000000008009
 50
6.2435884584970918
 51
74.398083255290402
  0
ARC
  5
1AF9
  8
SAPA_PROFIL
 10
8.7500000670488571
 20
133.9956323350244
 30
0.0
 40
130.00000000412001
 50
0.0000000000852052
 51
6.2435884585834387
  0
LINE
  5
1AFA
  8
SAPA_PROFIL
 10
138.75000007116881
 20
133.99563233521769
 30
0.0
 11
138.7500000715217
 21
121.19563233395471
 31
0.0
  0
ARC
  5
1AFB
  8
SAPA_PROFIL
 10
138.550000071521
 20
121.19563233394381
 30
0.0
 40
0.2000000000007276
 50
270.0
 51
0.0000000031266125
  0
LINE
  5
1AFC
  8
SAPA_PROFIL
 10
138.550000071521
 20
120.99563233394311
 30
0.0
 11
138.21547012526111
 21
120.9956323339449
 31
0.0
  0
ARC
  5
1AFD
  8
SAPA_PROFIL
 10
138.21547012526131
 20
121.19563233394329
 30
0.0
 40
0.1999999999984538
 50
209.99999999811919
 51
269.99999999994299
  0
LINE
  5
1AFE
  8
SAPA_PROFIL
 10
138.0422650445025
 20
121.09563233394979
 30
0.0
 11
137.02679499090931
 21
122.85447806034441
 31
0.0
  0
ARC
  5
1AFF
  8
SAPA_PROFIL
 10
137.20000007167189
 20
122.9544780603439
 30
0.0
 40
0.2000000000045947
 50
179.99999999974349
 51
209.99999999906419
  0
LINE
  5
1B00
  8
SAPA_PROFIL
 10
137.0000000716673
 20
122.9544780603448
 30
0.0
 11
137.00000007167091
 21
125.7956323352047
 31
0.0
  0
ARC
  5
1B01
  8
SAPA_PROFIL
 10
136.80000007167021
 20
125.7956323352047
 30
0.0
 40
0.2000000000007276
 50
0.0
 51
90.0
  0
LINE
  5
1B02
  8
SAPA_PROFIL
 10
136.80000007167021
 20
125.9956323352054
 30
0.0
 11
130.4938691124616
 21
125.9956323352054
 31
0.0
  0
ARC
  5
1B03
  8
SAPA_PROFIL
 10
130.49386911246191
 20
126.2956323352041
 30
0.0
 40
0.2999999999986045
 50
215.62006975856281
 51
269.99999999994583
  0
ARC
  5
1B04
  8
SAPA_PROFIL
 10
130.0061310305521
 20
125.94618768514179
 30
0.0
 40
0.3000000000032163
 50
35.620069757303881
 51
90.000000000580826
  0
LINE
  5
1B05
  8
SAPA_PROFIL
 10
130.00613103054911
 20
126.246187685145
 30
0.0
 11
129.05000007151011
 21
126.246187685145
 31
0.0
  0
ARC
  5
1B06
  8
SAPA_PROFIL
 10
129.05000007150579
 20
125.94618768513929
 30
0.0
 40
0.3000000000056673
 50
89.999999999174932
 51
144.37993024192031
  0
ARC
  5
1B07
  8
SAPA_PROFIL
 10
128.56226198959411
 20
126.2956323352053
 30
0.0
 40
0.2999999999998642
 50
269.99999999996737
 51
324.37993024184681
  0
ARC
  5
1B08
  8
SAPA_PROFIL
 62
     4
 10
93.336577554847906
 20
128.05414841785941
 30
0.0
 40
1.3416252492699461
 50
90.795569960696184
 51
118.02441875651689
  0
LINE
  5
1B09
  8
SAPA_PROFIL
 62
     4
 10
92.706217854152328
 20
129.2384646582351
 30
0.0
 11
90.986602611878425
 21
128.24564433520541
 31
0.0
  0
LINE
  5
1B0A
  8
SAPA_PROFIL
 62
     4
 10
90.986602611878425
 20
128.24564433520541
 30
0.0
 11
90.550000071500108
 21
128.24564433520541
 31
0.0
  0
ARC
  5
1B0B
  8
SAPA_PROFIL
 62
     4
 10
90.550000071500108
 20
128.49564433520541
 30
0.0
 40
0.25
 50
180.0
 51
270.0
  0
LINE
  5
1B0C
  8
SAPA_PROFIL
 62
     4
 10
90.300000071500108
 20
128.49564433520541
 30
0.0
 11
90.300000071499653
 21
132.09565633520529
 31
0.0
  0
ARC
  5
1B0D
  8
SAPA_PROFIL
 62
     4
 10
90.550000071499653
 20
132.09565633520529
 30
0.0
 40
0.25
 50
90.0
 51
180.0
  0
LINE
  5
1B0E
  8
SAPA_PROFIL
 62
     4
 10
90.550000071499653
 20
132.34565633520529
 30
0.0
 11
90.986601993078239
 21
132.3456446924703
 31
0.0
  0
LINE
  5
1B0F
  8
SAPA_PROFIL
 62
     4
 10
90.986601993078239
 20
132.3456446924703
 30
0.0
 11
92.706217854145947
 21
131.35282401218021
 31
0.0
  0
ARC
  5
1B10
  8
SAPA_PROFIL
 62
     4
 10
93.320190604306376
 20
132.4730491166728
 30
0.0
 40
1.27744542845285
 50
241.27374261802021
 51
269.54293099287418
  0
LINE
  5
1B11
  8
SAPA_PROFIL
 62
     4
 10
93.310000071499857
 20
131.1956443352052
 30
0.0
 11
127.19000007150041
 21
131.1956443352052
 31
0.0
  0
ARC
  5
1B12
  8
SAPA_PROFIL
 62
     4
 10
127.1798095386935
 20
132.47304911667101
 30
0.0
 40
1.277445428451033
 50
270.45706900714629
 51
298.7262573820006
  0
LINE
  5
1B13
  8
SAPA_PROFIL
 62
     4
 10
127.79378228885339
 20
131.35282401218021
 30
0.0
 11
129.5133981499211
 21
132.3456446924703
 31
0.0
  0
LINE
  5
1B14
  8
SAPA_PROFIL
 62
     4
 10
129.5133981499211
 20
132.3456446924703
 30
0.0
 11
129.9500000715006
 21
132.34565633520529
 31
0.0
  0
ARC
  5
1B15
  8
SAPA_PROFIL
 62
     4
 10
129.9500000715006
 20
132.09565633520529
 30
0.0
 40
0.25
 50
0.0
 51
90.0
  0
LINE
  5
1B16
  8
SAPA_PROFIL
 62
     4
 10
130.2000000715006
 20
132.09565633520529
 30
0.0
 11
130.2000000715006
 21
128.49564433520541
 31
0.0
  0
ARC
  5
1B17
  8
SAPA_PROFIL
 62
     4
 10
129.9500000715006
 20
128.49564433520541
 30
0.0
 40
0.25
 50
270.0
 51
0.0
  0
LINE
  5
1B18
  8
SAPA_PROFIL
 62
     4
 10
129.9500000715006
 20
128.24564433520541
 30
0.0
 11
129.51339753112089
 21
128.24564433520541
 31
0.0
  0
LINE
  5
1B19
  8
SAPA_PROFIL
 62
     4
 10
129.51339753112089
 20
128.24564433520541
 30
0.0
 11
127.79378228884801
 21
129.2384646582351
 31
0.0
  0
ARC
  5
1B1A
  8
SAPA_PROFIL
 62
     4
 10
127.1634225881521
 20
128.0541484178585
 30
0.0
 40
1.341625249270884
 50
61.975581243493352
 51
89.204430039314076
  0
LINE
  5
1B1B
  8
SAPA_PROFIL
 62
     4
 10
127.1820508790688
 20
129.3956443352055
 30
0.0
 11
93.317949263931041
 21
129.3956443352055
 31
0.0
  0
LINE
  5
1B1C
  8
SAPA_PROFIL
 10
91.937738153406372
 20
125.9956323352054
 30
0.0
 11
94.035810509126335
 21
125.9956323352054
 31
0.0
  0
ARC
  5
1B1D
  8
SAPA_PROFIL
 10
94.035810509126435
 20
126.9956323352053
 30
0.0
 40
0.9999999999998721
 50
269.99999999999511
 51
44.999999999990223
  0
LINE
  5
1B1E
  8
SAPA_PROFIL
 10
94.742917290313017
 20
127.7027391163917
 30
0.0
 11
93.437868037144199
 21
129.0077883695609
 31
0.0
  0
ARC
  5
1B1F
  8
SAPA_PROFIL
 10
93.225736002787727
 20
128.79565633520491
 30
0.0
 40
0.3000000000004365
 50
44.999999999946269
 51
89.999999999962014
  0
LINE
  5
1B20
  8
SAPA_PROFIL
 10
93.225736002787926
 20
129.09565633520529
 30
0.0
 11
92.639230556040715
 21
129.09565633520529
 31
0.0
  0
ARC
  5
1B21
  8
SAPA_PROFIL
 10
92.639230556041454
 20
128.79565633520579
 30
0.0
 40
0.2999999999994998
 50
90.000000000138385
 51
120.0000000001351
  0
LINE
  5
1B22
  8
SAPA_PROFIL
 10
92.489230556041093
 20
129.0554639563403
 30
0.0
 11
91.000000071499926
 21
128.1956563352052
 31
0.0
  0
LINE
  5
1B23
  8
SAPA_PROFIL
 10
91.000000071499926
 20
128.1956563352052
 30
0.0
 11
90.550000071500108
 21
128.1956443352052
 31
0.0
  0
ARC
  5
1B24
  8
SAPA_PROFIL
 10
90.550000071500108
 20
128.49564433520541
 30
0.0
 40
0.3000000000001819
 50
180.0
 51
270.0
  0
LINE
  5
1B25
  8
SAPA_PROFIL
 10
90.250000071499926
 20
128.49564433520541
 30
0.0
 11
90.250000071499926
 21
132.09565633520529
 31
0.0
  0
ARC
  5
1B26
  8
SAPA_PROFIL
 10
90.550000071500108
 20
132.09565633520529
 30
0.0
 40
0.3000000000001819
 50
90.0
 51
180.0
  0
LINE
  5
1B27
  8
SAPA_PROFIL
 10
90.550000071500108
 20
132.3956563352055
 30
0.0
 11
91.000000071499926
 21
132.3956563352055
 31
0.0
  0
LINE
  5
1B28
  8
SAPA_PROFIL
 10
91.000000071499926
 20
132.3956563352055
 30
0.0
 11
92.489260202574314
 21
131.5358315976365
 31
0.0
  0
ARC
  5
1B29
  8
SAPA_PROFIL
 10
92.639260202574178
 20
131.79563921877141
 30
0.0
 40
0.2999999999995429
 50
239.99999999997971
 51
269.9963531325393
  0
LINE
  5
1B2A
  8
SAPA_PROFIL
 10
92.639241107620805
 20
131.4956392193796
 30
0.0
 11
92.750000071499926
 21
131.4956321695887
 31
0.0
  0
LINE
  5
1B2B
  8
SAPA_PROFIL
 10
92.750000071499926
 20
131.4956321695887
 30
0.0
 11
92.750000071499926
 21
133.4956323351945
 31
0.0
  0
ARC
  5
1B2C
  8
SAPA_PROFIL
 10
92.250000071499926
 20
133.4956323351945
 30
0.0
 40
0.5
 50
0.0
 51
90.0
  0
LINE
  5
1B2D
  8
SAPA_PROFIL
 10
92.250000071499926
 20
133.9956323351945
 30
0.0
 11
87.000000072874613
 21
133.9956323351945
 31
0.0
  0
ARC
  5
1B2E
  8
SAPA_PROFIL
 10
87.000000072874613
 20
133.4956323351945
 30
0.0
 40
0.5
 50
90.0
 51
180.0
  0
LINE
  5
1B2F
  8
SAPA_PROFIL
 10
86.500000072874627
 20
133.4956323351945
 30
0.0
 11
86.500000072874627
 21
132.99563233517861
 31
0.0
  0
ARC
  5
1B30
  8
SAPA_PROFIL
 10
87.000000072874641
 20
132.9956323351787
 30
0.0
 40
0.5000000000000142
 50
180.00000000000321
 51
269.99999999999841
  0
LINE
  5
1B31
  8
SAPA_PROFIL
 10
87.000000072874613
 20
132.49563233517861
 30
0.0
 11
87.800000072869807
 21
132.49563233517861
 31
0.0
  0
ARC
  5
1B32
  8
SAPA_PROFIL
 10
87.800000072869807
 20
132.2956323351784
 30
0.0
 40
0.2000000000002728
 50
0.0
 51
90.0
  0
LINE
  5
1B33
  8
SAPA_PROFIL
 10
88.000000072870094
 20
132.2956323351784
 30
0.0
 11
88.000000072870094
 21
129.49563233518359
 31
0.0
  0
ARC
  5
1B34
  8
SAPA_PROFIL
 10
87.800000072869807
 20
129.49563233518359
 30
0.0
 40
0.2000000000002728
 50
270.0
 51
0.0
  0
LINE
  5
1B35
  8
SAPA_PROFIL
 10
87.800000072869807
 20
129.29563233518331
 30
0.0
 11
83.700000071340128
 21
129.29563233518331
 31
0.0
  0
ARC
  5
1B36
  8
SAPA_PROFIL
 10
83.70000007134027
 20
129.4956323351833
 30
0.0
 40
0.1999999999999602
 50
180.0000000000407
 51
269.9999999999593
  0
LINE
  5
1B37
  8
SAPA_PROFIL
 10
83.50000007134031
 20
129.49563233518319
 30
0.0
 11
83.500000071311206
 21
148.79563233519971
 31
0.0
  0
ARC
  5
1B38
  8
SAPA_PROFIL
 10
83.300000071311246
 20
148.7956323351994
 30
0.0
 40
0.199999999999946
 50
0.0000000000895644
 51
105.6019167446315
  0
ARC
  5
1B39
  8
SAPA_PROFIL
 10
83.515161704615409
 20
148.0251094792404
 30
0.0
 40
1.0000000000008009
 50
105.6019167447096
 51
173.7564115415029
  0
ARC
  5
1B3A
  8
SAPA_PROFIL
 10
211.75000007595119
 20
133.99563233502019
 30
0.0
 40
130.00000000412021
 50
173.75641154141471
 51
179.99999999991289
  0
LINE
  5
1B3B
  8
SAPA_PROFIL
 10
81.750000071830996
 20
133.99563233521769
 30
0.0
 11
81.750000071478098
 21
121.19563233395471
 31
0.0
  0
ARC
  5
1B3C
  8
SAPA_PROFIL
 10
81.950000071478826
 20
121.19563233394381
 30
0.0
 40
0.2000000000007276
 50
179.99999999687341
 51
270.0
  0
LINE
  5
1B3D
  8
SAPA_PROFIL
 10
81.950000071478826
 20
120.99563233394311
 30
0.0
 11
82.284530017738689
 21
120.9956323339449
 31
0.0
  0
ARC
  5
1B3E
  8
SAPA_PROFIL
 10
82.284530017738703
 20
121.19563233394371
 30
0.0
 40
0.1999999999988517
 50
269.99999999999193
 51
330.00000000181461
  0
LINE
  5
1B3F
  8
SAPA_PROFIL
 10
82.457735098497778
 20
121.09563233394979
 30
0.0
 11
83.473205152090486
 21
122.85447806034441
 31
0.0
  0
ARC
  5
1B40
  8
SAPA_PROFIL
 10
83.300000071328213
 20
122.9544780603447
 30
0.0
 40
0.2000000000048241
 50
330.00000000069173
 51
0.0000000000122133
  0
LINE
  5
1B41
  8
SAPA_PROFIL
 10
83.500000071333034
 20
122.9544780603448
 30
0.0
 11
83.500000071328941
 21
125.7956323352047
 31
0.0
  0
ARC
  5
1B42
  8
SAPA_PROFIL
 10
83.700000071329669
 20
125.7956323352047
 30
0.0
 40
0.2000000000007276
 50
90.0
 51
180.0
  0
LINE
  5
1B43
  8
SAPA_PROFIL
 10
83.700000071329669
 20
125.9956323352054
 30
0.0
 11
90.006131030538214
 21
125.9956323352054
 31
0.0
  0
ARC
  5
1B44
  8
SAPA_PROFIL
 10
90.006131030538128
 20
126.2956323352045
 30
0.0
 40
0.299999999999045
 50
270.0000000000108
 51
324.37993024139411
  0
ARC
  5
1B45
  8
SAPA_PROFIL
 10
90.493869112447911
 20
125.94618768514221
 30
0.0
 40
0.3000000000027633
 50
89.999999999459888
 51
144.3799302427376
  0
LINE
  5
1B46
  8
SAPA_PROFIL
 10
90.493869112450739
 20
126.246187685145
 30
0.0
 11
91.45000007148974
 21
126.246187685145
 31
0.0
  0
ARC
  5
1B47
  8
SAPA_PROFIL
 10
91.450000071494301
 20
125.9461876851389
 30
0.0
 40
0.3000000000061078
 50
35.620069758124352
 51
90.000000000871211
  0
ARC
  5
1B48
  8
SAPA_PROFIL
 10
91.937738153406201
 20
126.2956323352053
 30
0.0
 40
0.2999999999998642
 50
215.62006975815319
 51
270.00000000003263
  0
LINE
  5
1B49
  8
SAPA_PROFIL
 10
165.74999989308211
 20
81.295624334186414
 30
0.0
 11
165.74999989308211
 21
81.295624334186414
 31
0.0
  0
LINE
  5
1B4A
  8
SAPA_PROFIL
 10
165.74999989308211
 20
81.295624334186414
 30
0.0
 11
165.74999989308211
 21
93.495624334186402
 31
0.0
  0
LINE
  5
1B4B
  8
SAPA_PROFIL
 10
165.74999989308211
 20
93.495624334186402
 30
0.0
 11
183.24999989308211
 21
93.495624334186402
 31
0.0
  0
LINE
  5
1B4C
  8
SAPA_PROFIL
 10
183.24999989308211
 20
93.495624334186402
 30
0.0
 11
183.24999989308211
 21
92.895624334186323
 31
0.0
  0
LINE
  5
1B4D
  8
SAPA_PROFIL
 10
183.24999989308211
 20
92.895624334186323
 30
0.0
 11
185.74999992848319
 21
92.895624334186323
 31
0.0
  0
ARC
  5
1B4E
  8
SAPA_PROFIL
 10
185.74999992848319
 20
91.895624334186323
 30
0.0
 40
1.0
 50
0.0
 51
90.0
  0
LINE
  5
1B4F
  8
SAPA_PROFIL
 10
186.74999992848319
 20
91.895624334186323
 30
0.0
 11
186.74999992848319
 21
82.895624334186323
 31
0.0
  0
ARC
  5
1B50
  8
SAPA_PROFIL
 10
185.74999992848319
 20
82.895624334186323
 30
0.0
 40
1.0
 50
270.0
 51
0.0
  0
LINE
  5
1B51
  8
SAPA_PROFIL
 10
185.74999992848319
 20
81.895624334186323
 30
0.0
 11
183.24999989308211
 21
81.895624334186323
 31
0.0
  0
LINE
  5
1B52
  8
SAPA_PROFIL
 10
183.24999989308211
 20
81.895624334186323
 30
0.0
 11
183.24999989308211
 21
81.295624334186414
 31
0.0
  0
LINE
  5
1B53
  8
SAPA_PROFIL
 10
183.24999989308211
 20
81.295624334186414
 30
0.0
 11
165.74999989308211
 21
81.295624334186414
 31
0.0
  0
LINE
  5
1B54
  8
SAPA_PROFIL
 10
165.74999989308211
 20
81.295624334186414
 30
0.0
 11
165.74999989308211
 21
81.295624334186414
 31
0.0
  0
LINE
  5
1B55
  8
SAPA_PROFIL
 10
220.74999992848319
 20
81.295624334186414
 30
0.0
 11
188.74999992848319
 21
81.295624334186414
 31
0.0
  0
LINE
  5
1B56
  8
SAPA_PROFIL
 10
188.74999992848319
 20
81.295624334186414
 30
0.0
 11
188.74999992848319
 21
93.495624334186402
 31
0.0
  0
LINE
  5
1B57
  8
SAPA_PROFIL
 10
188.74999992848319
 20
93.495624334186402
 30
0.0
 11
220.74999992848319
 21
93.495624334186402
 31
0.0
  0
LINE
  5
1B58
  8
SAPA_PROFIL
 10
220.74999992848319
 20
93.495624334186402
 30
0.0
 11
220.74999992848319
 21
81.295624334186414
 31
0.0
  0
LINE
  5
1B59
  8
SAPA_PROFIL
 10
162.54999992846979
 20
78.995624334189813
 30
0.0
 11
158.9641894908423
 21
78.995600334189703
 31
0.0
  0
ARC
  5
1B5A
  8
SAPA_PROFIL
 10
158.9641894908423
 20
79.995600334189731
 30
0.0
 40
1.000000000000028
 50
135.00000000000799
 51
270.0
  0
LINE
  5
1B5B
  8
SAPA_PROFIL
 10
158.25708270965561
 20
80.702707115376199
 30
0.0
 11
159.56213196282479
 21
82.007756368545415
 31
0.0
  0
ARC
  5
1B5C
  8
SAPA_PROFIL
 10
159.77426399718081
 20
81.795624334189739
 30
0.0
 40
0.2999999999997532
 50
90.000000000016286
 51
135.0000000000307
  0
LINE
  5
1B5D
  8
SAPA_PROFIL
 10
159.7742639971807
 20
82.095624334189495
 30
0.0
 11
160.36076944392829
 21
82.095624334189324
 31
0.0
  0
ARC
  5
1B5E
  8
SAPA_PROFIL
 10
160.36076944392829
 20
81.795624334190023
 30
0.0
 40
0.2999999999993008
 50
59.99999999998419
 51
89.999999999983714
  0
LINE
  5
1B5F
  8
SAPA_PROFIL
 10
160.51076944392801
 20
82.055431955324707
 30
0.0
 11
161.9999999284687
 21
81.195624334189404
 31
0.0
  0
LINE
  5
1B60
  8
SAPA_PROFIL
 10
161.9999999284687
 20
81.195624334189404
 30
0.0
 11
162.44999992846849
 21
81.195612334189718
 31
0.0
  0
ARC
  5
1B61
  8
SAPA_PROFIL
 10
162.4499999284686
 20
81.495612334189815
 30
0.0
 40
0.3000000000000966
 50
269.9999999999838
 51
359.99999999998369
  0
LINE
  5
1B62
  8
SAPA_PROFIL
 10
162.7499999284687
 20
81.49561233418973
 30
0.0
 11
162.7499999284687
 21
85.095624334189765
 31
0.0
  0
ARC
  5
1B63
  8
SAPA_PROFIL
 10
162.4499999284686
 20
85.095624334189694
 30
0.0
 40
0.3000000000000966
 50
0.0000000000162844
 51
90.000000000016286
  0
LINE
  5
1B64
  8
SAPA_PROFIL
 10
162.44999992846849
 20
85.39562433418979
 30
0.0
 11
161.9999999284687
 21
85.395624334189677
 31
0.0
  0
LINE
  5
1B65
  8
SAPA_PROFIL
 10
161.9999999284687
 20
85.395624334189677
 30
0.0
 11
160.5107397973938
 21
84.535799596620734
 31
0.0
  0
ARC
  5
1B66
  8
SAPA_PROFIL
 10
160.36073979739379
 20
84.795607217755716
 30
0.0
 40
0.2999999999997001
 50
270.00364686748782
 51
300.00000000003428
  0
LINE
  5
1B67
  8
SAPA_PROFIL
 10
160.36075889234729
 20
84.495607218363716
 30
0.0
 11
160.2499999284687
 21
84.495600168572935
 31
0.0
  0
LINE
  5
1B68
  8
SAPA_PROFIL
 10
160.2499999284687
 20
84.495600168572935
 30
0.0
 11
160.24999992846961
 21
86.117312170677323
 31
0.0
  0
ARC
  5
1B69
  8
SAPA_PROFIL
 10
161.24999992846961
 20
86.117312170677366
 30
0.0
 40
1.000000000000028
 50
120.00000000000109
 51
180.00000000000159
  0
LINE
  5
1B6A
  8
SAPA_PROFIL
 10
160.74999992846961
 20
86.983337574461814
 30
0.0
 11
162.2499999284687
 21
87.849362978245608
 31
0.0
  0
ARC
  5
1B6B
  8
SAPA_PROFIL
 10
161.7499999284687
 20
88.715388382030042
 30
0.0
 40
0.9999999999999959
 50
300.00000000000011
 51
359.9999999999992
  0
LINE
  5
1B6C
  8
SAPA_PROFIL
 10
162.7499999284687
 20
88.715388382030028
 30
0.0
 11
162.7499999284687
 21
89.275860286346074
 31
0.0
  0
ARC
  5
1B6D
  8
SAPA_PROFIL
 10
161.7499999284687
 20
89.275860286346045
 30
0.0
 40
1.0
 50
0.0000000000008142
 51
59.999999999999858
  0
LINE
  5
1B6E
  8
SAPA_PROFIL
 10
162.2499999284687
 20
90.141885690130479
 30
0.0
 11
160.74999992846961
 21
91.007911093915197
 31
0.0
  0
ARC
  5
1B6F
  8
SAPA_PROFIL
 10
161.24999992846901
 20
91.873936497700385
 30
0.0
 40
1.0000000000003779
 50
180.00000000002771
 51
240.0000000000482
  0
LINE
  5
1B70
  8
SAPA_PROFIL
 10
160.2499999284687
 20
91.873936497699901
 30
0.0
 11
160.2499999284687
 21
93.495648499803167
 31
0.0
  0
LINE
  5
1B71
  8
SAPA_PROFIL
 10
160.2499999284687
 20
93.495648499803167
 30
0.0
 11
160.36075889234729
 21
93.495641450012386
 31
0.0
  0
ARC
  5
1B72
  8
SAPA_PROFIL
 10
160.36073979739439
 20
93.195641450618723
 30
0.0
 40
0.300000000001358
 50
60.00000000007347
 51
89.996353132620754
  0
LINE
  5
1B73
  8
SAPA_PROFIL
 10
160.51073979739471
 20
93.455449071755424
 30
0.0
 11
161.9999999284687
 21
92.595624334186425
 31
0.0
  0
LINE
  5
1B74
  8
SAPA_PROFIL
 10
161.9999999284687
 20
92.595624334186425
 30
0.0
 11
162.44999992846849
 21
92.595624334186311
 31
0.0
  0
ARC
  5
1B75
  8
SAPA_PROFIL
 10
162.4499999284686
 20
92.895624334186408
 30
0.0
 40
0.3000000000000966
 50
269.9999999999838
 51
359.99999999998369
  0
LINE
  5
1B76
  8
SAPA_PROFIL
 10
162.7499999284687
 20
92.895624334186323
 30
0.0
 11
162.7499999284687
 21
96.495636334186372
 31
0.0
  0
ARC
  5
1B77
  8
SAPA_PROFIL
 10
162.4499999284686
 20
96.495636334186301
 30
0.0
 40
0.3000000000000966
 50
0.0000000000162844
 51
90.000000000016286
  0
LINE
  5
1B78
  8
SAPA_PROFIL
 10
162.44999992846849
 20
96.795636334186383
 30
0.0
 11
161.9999999284687
 21
96.795624334186698
 31
0.0
  0
LINE
  5
1B79
  8
SAPA_PROFIL
 10
161.9999999284687
 20
96.795624334186698
 30
0.0
 11
160.51076944392801
 21
95.935816713051395
 31
0.0
  0
ARC
  5
1B7A
  8
SAPA_PROFIL
 10
160.36076944392829
 20
96.195624334186064
 30
0.0
 40
0.2999999999992995
 50
270.00000000001631
 51
300.0000000000158
  0
LINE
  5
1B7B
  8
SAPA_PROFIL
 10
160.36076944392829
 20
95.895624334186763
 30
0.0
 11
159.7742639971807
 21
95.895624334186607
 31
0.0
  0
ARC
  5
1B7C
  8
SAPA_PROFIL
 10
159.77426399718081
 20
96.195624334186391
 30
0.0
 40
0.299999999999784
 50
224.9999999999539
 51
269.99999999996737
  0
LINE
  5
1B7D
  8
SAPA_PROFIL
 10
159.56213196282479
 20
95.983492299830743
 30
0.0
 11
158.25708270965561
 21
97.288541552999959
 31
0.0
  0
ARC
  5
1B7E
  8
SAPA_PROFIL
 10
158.96418949084219
 20
97.995648334186399
 30
0.0
 40
0.9999999999999879
 50
89.999999999998366
 51
224.9999999999919
  0
LINE
  5
1B7F
  8
SAPA_PROFIL
 10
158.9641894908423
 20
98.995648334186399
 30
0.0
 11
162.54999992846979
 21
98.995624334186346
 31
0.0
  0
ARC
  5
1B80
  8
SAPA_PROFIL
 10
162.74999992846909
 20
98.995624334186346
 30
0.0
 40
0.1999999999993633
 50
180.0
 51
0.0
  0
LINE
  5
1B81
  8
SAPA_PROFIL
 10
162.94999992846849
 20
98.995624334186346
 30
0.0
 11
164.24999995801821
 21
98.995624334186346
 31
0.0
  0
ARC
  5
1B82
  8
SAPA_PROFIL
 10
164.24999995787459
 20
97.995624334330188
 30
0.0
 40
0.9999999998561577
 50
359.99999999155978
 51
89.999999991774729
  0
LINE
  5
1B83
  8
SAPA_PROFIL
 10
165.24999995773069
 20
97.995624334182864
 30
0.0
 11
165.24999995773069
 21
96.995624334186346
 31
0.0
  0
ARC
  5
1B84
  8
SAPA_PROFIL
 10
166.24999995773069
 20
96.995624334186346
 30
0.0
 40
1.0
 50
180.0
 51
270.0
  0
LINE
  5
1B85
  8
SAPA_PROFIL
 10
166.24999995773069
 20
95.995624334186346
 30
0.0
 11
172.3629296676913
 21
95.995624334186246
 31
0.0
  0
ARC
  5
1B86
  8
SAPA_PROFIL
 10
172.36292966769159
 20
96.995624334186374
 30
0.0
 40
1.0000000000001421
 50
269.99999999998209
 51
334.99999999972579
  0
LINE
  5
1B87
  8
SAPA_PROFIL
 10
173.26923745472641
 20
96.573006072441274
 30
0.0
 11
175.06230069307321
 21
100.4182425959405
 31
0.0
  0
ARC
  5
1B88
  8
SAPA_PROFIL
 10
175.96860848010809
 20
99.995624334195512
 30
0.0
 40
1.00000000000026
 50
89.999999999990223
 51
154.99999999973139
  0
LINE
  5
1B89
  8
SAPA_PROFIL
 10
175.96860848010829
 20
100.9956243341957
 30
0.0
 11
179.01735395343661
 21
100.9956243341958
 31
0.0
  0
ARC
  5
1B8A
  8
SAPA_PROFIL
 10
179.01735395343641
 20
100.7956243341953
 30
0.0
 40
0.2000000000005144
 50
330.8900910594993
 51
89.999999999918572
  0
ARC
  5
1B8B
  8
SAPA_PROFIL
 10
182.24999992846841
 20
98.995624334164134
 30
0.0
 40
3.4999999999998939
 50
150.8900910595768
 51
175.0828996639508
  0
LINE
  5
1B8C
  8
SAPA_PROFIL
 10
178.7628807736387
 20
99.295624334195793
 30
0.0
 11
177.4999999284687
 21
99.295624334195793
 31
0.0
  0
ARC
  5
1B8D
  8
SAPA_PROFIL
 10
177.4999999284687
 20
98.795624334195793
 30
0.0
 40
0.5
 50
90.0
 51
180.0
  0
LINE
  5
1B8E
  8
SAPA_PROFIL
 10
176.9999999284687
 20
98.795624334195793
 30
0.0
 11
176.9999999284687
 21
96.495624334186232
 31
0.0
  0
ARC
  5
1B8F
  8
SAPA_PROFIL
 10
177.4999999284687
 20
96.495624334186232
 30
0.0
 40
0.5
 50
180.0
 51
270.0
  0
LINE
  5
1B90
  8
SAPA_PROFIL
 10
177.4999999284687
 20
95.995624334186246
 30
0.0
 11
180.4472242906991
 21
95.995624334186914
 31
0.0
  0
ARC
  5
1B91
  8
SAPA_PROFIL
 10
182.24999992846881
 20
98.995624334163097
 30
0.0
 40
3.499999999999027
 50
238.99728086539551
 51
301.00271913458272
  0
LINE
  5
1B92
  8
SAPA_PROFIL
 10
184.05277556623739
 20
95.995624334186246
 30
0.0
 11
190.44722429069901
 21
95.995624334186914
 31
0.0
  0
ARC
  5
1B93
  8
SAPA_PROFIL
 10
192.24999992846881
 20
98.995624334163097
 30
0.0
 40
3.499999999999027
 50
238.99728086539551
 51
301.00271913458272
  0
LINE
  5
1B94
  8
SAPA_PROFIL
 10
194.05277556623739
 20
95.995624334186246
 30
0.0
 11
196.9999999284687
 21
95.995624334186175
 31
0.0
  0
ARC
  5
1B95
  8
SAPA_PROFIL
 10
196.9999999284687
 20
96.495624334186175
 30
0.0
 40
0.5
 50
270.0
 51
0.0
  0
LINE
  5
1B96
  8
SAPA_PROFIL
 10
197.4999999284687
 20
96.495624334186175
 30
0.0
 11
197.4999999284687
 21
98.795624334195793
 31
0.0
  0
ARC
  5
1B97
  8
SAPA_PROFIL
 10
196.9999999284687
 20
98.795624334195793
 30
0.0
 40
0.5
 50
0.0
 51
90.0
  0
LINE
  5
1B98
  8
SAPA_PROFIL
 10
196.9999999284687
 20
99.295624334195793
 30
0.0
 11
195.73711908329869
 21
99.295624334195693
 31
0.0
  0
ARC
  5
1B99
  8
SAPA_PROFIL
 10
192.24999992846821
 20
98.995624334164205
 30
0.0
 40
3.5000000000006759
 50
4.9171003360452348
 51
29.10990894041927
  0
ARC
  5
1B9A
  8
SAPA_PROFIL
 10
195.4826459035009
 20
100.7956243341954
 30
0.0
 40
0.2000000000003748
 50
90.000000000057
 51
209.109908940477
  0
LINE
  5
1B9B
  8
SAPA_PROFIL
 10
195.4826459035007
 20
100.9956243341957
 30
0.0
 11
198.53139137682911
 21
100.9956243341957
 31
0.0
  0
ARC
  5
1B9C
  8
SAPA_PROFIL
 10
198.53139137682939
 20
99.995624334195597
 30
0.0
 40
1.0000000000001841
 50
25.000000000275751
 51
90.000000000016286
  0
LINE
  5
1B9D
  8
SAPA_PROFIL
 10
199.43769916386421
 20
100.4182425959407
 30
0.0
 11
201.23076240221101
 21
96.573006072441444
 31
0.0
  0
ARC
  5
1B9E
  8
SAPA_PROFIL
 10
202.13707018924589
 20
96.995624334186502
 30
0.0
 40
1.00000000000026
 50
205.00000000026861
 51
270.00000000000978
  0
LINE
  5
1B9F
  8
SAPA_PROFIL
 10
202.13707018924609
 20
95.995624334186246
 30
0.0
 11
218.44999992846849
 21
95.995624334186346
 31
0.0
  0
LINE
  5
1BA0
  8
SAPA_PROFIL
 10
218.44999992846849
 20
95.995624334186346
 30
0.0
 11
218.44999992846849
 21
97.495624334186289
 31
0.0
  0
LINE
  5
1BA1
  8
SAPA_PROFIL
 10
218.44999992846849
 20
97.495624334186289
 30
0.0
 11
219.2499999284687
 21
97.495624334186289
 31
0.0
  0
LINE
  5
1BA2
  8
SAPA_PROFIL
 10
219.2499999284687
 20
97.495624334186289
 30
0.0
 11
219.2499999284687
 21
95.995624334186346
 31
0.0
  0
LINE
  5
1BA3
  8
SAPA_PROFIL
 10
219.2499999284687
 20
95.995624334186346
 30
0.0
 11
220.94999992846849
 21
95.995624334186346
 31
0.0
  0
LINE
  5
1BA4
  8
SAPA_PROFIL
 10
220.94999992846849
 20
95.995624334186346
 30
0.0
 11
221.2499999284687
 21
120.5956243341863
 31
0.0
  0
LINE
  5
1BA5
  8
SAPA_PROFIL
 10
221.2499999284687
 20
120.5956243341863
 30
0.0
 11
219.54999992846891
 21
120.5956243341863
 31
0.0
  0
LINE
  5
1BA6
  8
SAPA_PROFIL
 10
219.54999992846891
 20
120.5956243341863
 30
0.0
 11
219.54999992846891
 21
118.5956243341863
 31
0.0
  0
LINE
  5
1BA7
  8
SAPA_PROFIL
 10
219.54999992846891
 20
118.5956243341863
 30
0.0
 11
218.7499999284687
 21
118.5956243341863
 31
0.0
  0
LINE
  5
1BA8
  8
SAPA_PROFIL
 10
218.7499999284687
 20
118.5956243341863
 30
0.0
 11
218.7499999284687
 21
122.7456243341769
 31
0.0
  0
ARC
  5
1BA9
  8
SAPA_PROFIL
 10
219.2499999284687
 20
122.7456243341769
 30
0.0
 40
0.5
 50
90.0
 51
180.00000000000159
  0
LINE
  5
1BAA
  8
SAPA_PROFIL
 10
219.2499999284687
 20
123.2456243341769
 30
0.0
 11
219.74999992845051
 21
123.2456243341891
 31
0.0
  0
LINE
  5
1BAB
  8
SAPA_PROFIL
 10
219.74999992845051
 20
123.2456243341891
 30
0.0
 11
219.74999992847231
 21
121.9956243342148
 31
0.0
  0
LINE
  5
1BAC
  8
SAPA_PROFIL
 10
219.74999992847231
 20
121.9956243342148
 30
0.0
 11
221.14999992845111
 21
121.9956243341792
 31
0.0
  0
ARC
  5
1BAD
  8
SAPA_PROFIL
 10
221.14999992844449
 20
122.2956243341649
 30
0.0
 40
0.2999999999857863
 50
270.0000000012484
 51
0.0000000027059311
  0
LINE
  5
1BAE
  8
SAPA_PROFIL
 10
221.44999992843029
 20
122.2956243341791
 30
0.0
 11
221.44999992845851
 21
128.69562433418429
 31
0.0
  0
ARC
  5
1BAF
  8
SAPA_PROFIL
 10
221.1499999284685
 20
128.69562433416641
 30
0.0
 40
0.2999999999899501
 50
0.0000000034197324
 51
90.000000001954135
  0
LINE
  5
1BB0
  8
SAPA_PROFIL
 10
221.1499999284583
 20
128.9956243341563
 30
0.0
 11
219.74999992847231
 21
128.9956243341486
 31
0.0
  0
LINE
  5
1BB1
  8
SAPA_PROFIL
 10
219.74999992847231
 20
128.9956243341486
 30
0.0
 11
219.74999992845051
 21
127.7456243341742
 31
0.0
  0
LINE
  5
1BB2
  8
SAPA_PROFIL
 10
219.74999992845051
 20
127.7456243341742
 30
0.0
 11
219.2499999284687
 21
127.7456243341864
 31
0.0
  0
ARC
  5
1BB3
  8
SAPA_PROFIL
 10
219.2499999284687
 20
128.2456243341864
 30
0.0
 40
0.5
 50
180.0
 51
270.0
  0
LINE
  5
1BB4
  8
SAPA_PROFIL
 10
218.7499999284687
 20
128.2456243341864
 30
0.0
 11
218.7499999284687
 21
131.2456243341864
 31
0.0
  0
ARC
  5
1BB5
  8
SAPA_PROFIL
 10
219.2499999284687
 20
131.24562433419371
 30
0.0
 40
0.5
 50
90.0
 51
180.00000000083369
  0
LINE
  5
1BB6
  8
SAPA_PROFIL
 10
219.2499999284687
 20
131.74562433419371
 30
0.0
 11
219.7499999284687
 21
131.74562433419371
 31
0.0
  0
LINE
  5
1BB7
  8
SAPA_PROFIL
 10
219.7499999284687
 20
131.74562433419371
 30
0.0
 11
219.74999992846779
 21
130.29562433419659
 31
0.0
  0
LINE
  5
1BB8
  8
SAPA_PROFIL
 10
219.74999992846779
 20
130.29562433419659
 30
0.0
 11
221.5999999284609
 21
130.29562433419659
 31
0.0
  0
ARC
  5
1BB9
  8
SAPA_PROFIL
 10
221.5999999284445
 20
130.59562433418321
 30
0.0
 40
0.2999999999865395
 50
270.00000000312662
 51
0.0000000031157562
  0
LINE
  5
1BBA
  8
SAPA_PROFIL
 10
221.8999999284311
 20
130.5956243341995
 30
0.0
 11
221.89999992846009
 21
132.83581671305609
 31
0.0
  0
LINE
  5
1BBB
  8
SAPA_PROFIL
 10
221.89999992846009
 20
132.83581671305609
 30
0.0
 11
221.44999992846579
 21
133.09562433418489
 31
0.0
  0
LINE
  5
1BBC
  8
SAPA_PROFIL
 10
221.44999992846579
 20
133.09562433418489
 30
0.0
 11
221.44999992846579
 21
134.89562433419519
 31
0.0
  0
LINE
  5
1BBD
  8
SAPA_PROFIL
 10
221.44999992846579
 20
134.89562433419519
 30
0.0
 11
221.89999992846009
 21
135.15543195532399
 31
0.0
  0
LINE
  5
1BBE
  8
SAPA_PROFIL
 10
221.89999992846009
 20
135.15543195532399
 30
0.0
 11
221.89999992846009
 21
137.39562433418061
 31
0.0
  0
ARC
  5
1BBF
  8
SAPA_PROFIL
 10
221.5999999284744
 20
137.39562433416879
 30
0.0
 40
0.2999999999857437
 50
0.000000002258109
 51
90.000000002931202
  0
LINE
  5
1BC0
  8
SAPA_PROFIL
 10
221.59999992845911
 20
137.6956243341545
 30
0.0
 11
219.74999992846779
 21
137.69562433418349
 31
0.0
  0
LINE
  5
1BC1
  8
SAPA_PROFIL
 10
219.74999992846779
 20
137.69562433418349
 30
0.0
 11
219.7499999284687
 21
136.2456243341864
 31
0.0
  0
LINE
  5
1BC2
  8
SAPA_PROFIL
 10
219.7499999284687
 20
136.2456243341864
 30
0.0
 11
219.2499999284687
 21
136.2456243341864
 31
0.0
  0
ARC
  5
1BC3
  8
SAPA_PROFIL
 10
219.2499999284687
 20
136.7456243341864
 30
0.0
 40
0.5
 50
180.0
 51
270.0
  0
LINE
  5
1BC4
  8
SAPA_PROFIL
 10
218.7499999284687
 20
136.7456243341864
 30
0.0
 11
218.7499999284687
 21
138.4956243341864
 31
0.0
  0
ARC
  5
1BC5
  8
SAPA_PROFIL
 10
219.2499999284687
 20
138.4956243341864
 30
0.0
 40
0.5
 50
90.0
 51
179.99999999999349
  0
LINE
  5
1BC6
  8
SAPA_PROFIL
 10
219.2499999284687
 20
138.9956243341864
 30
0.0
 11
221.7499999284687
 21
138.99562433418669
 31
0.0
  0
ARC
  5
1BC7
  8
SAPA_PROFIL
 10
221.7499999284687
 20
136.99562433418669
 30
0.0
 40
2.0
 50
0.0
 51
90.0
  0
LINE
  5
1BC8
  8
SAPA_PROFIL
 10
223.7499999284687
 20
136.99562433418669
 30
0.0
 11
223.7499999284687
 21
23.370624334184981
 31
0.0
  0
ARC
  5
1BC9
  8
SAPA_PROFIL
 10
222.3749999284687
 20
23.37062433418501
 30
0.0
 40
1.375
 50
179.99999999999881
 51
359.99999999999881
  0
LINE
  5
1BCA
  8
SAPA_PROFIL
 10
220.9999999284687
 20
23.370624334185042
 30
0.0
 11
220.9999999284687
 21
74.995624334190666
 31
0.0
  0
ARC
  5
1BCB
  8
SAPA_PROFIL
 10
216.9999999284687
 20
74.995624334190666
 30
0.0
 40
4.0
 50
0.0
 51
90.0
  0
LINE
  5
1BCC
  8
SAPA_PROFIL
 10
216.9999999284687
 20
78.995624334190666
 30
0.0
 11
162.9499999284694
 21
78.995624334186402
 31
0.0
  0
ARC
  5
1BCD
  8
SAPA_PROFIL
 10
162.74999992846961
 20
78.995624334188093
 30
0.0
 40
0.1999999999998181
 50
359.99999999951552
 51
179.99999999950739
  0
LINE
  5
1BCE
  8
SAPA_PROFIL
 10
54.750000106899734
 20
81.295624334186414
 30
0.0
 11
54.750000106899734
 21
81.295624334186414
 31
0.0
  0
LINE
  5
1BCF
  8
SAPA_PROFIL
 10
54.750000106899734
 20
81.295624334186414
 30
0.0
 11
54.750000106899734
 21
93.495624334186402
 31
0.0
  0
LINE
  5
1BD0
  8
SAPA_PROFIL
 10
54.750000106899734
 20
93.495624334186402
 30
0.0
 11
37.250000106899734
 21
93.495624334186402
 31
0.0
  0
LINE
  5
1BD1
  8
SAPA_PROFIL
 10
37.250000106899734
 20
93.495624334186402
 30
0.0
 11
37.250000106899734
 21
92.895624334186323
 31
0.0
  0
LINE
  5
1BD2
  8
SAPA_PROFIL
 10
37.250000106899734
 20
92.895624334186323
 30
0.0
 11
34.750000071498562
 21
92.895624334186323
 31
0.0
  0
ARC
  5
1BD3
  8
SAPA_PROFIL
 10
34.750000071498569
 20
91.895624334186323
 30
0.0
 40
1.0
 50
90.000000000000398
 51
180.0
  0
LINE
  5
1BD4
  8
SAPA_PROFIL
 10
33.750000071498562
 20
91.895624334186323
 30
0.0
 11
33.750000071498562
 21
82.895624334186323
 31
0.0
  0
ARC
  5
1BD5
  8
SAPA_PROFIL
 10
34.750000071498562
 20
82.895624334186323
 30
0.0
 40
1.0
 50
180.0
 51
270.0
  0
LINE
  5
1BD6
  8
SAPA_PROFIL
 10
34.750000071498562
 20
81.895624334186323
 30
0.0
 11
37.250000106899734
 21
81.895624334186323
 31
0.0
  0
LINE
  5
1BD7
  8
SAPA_PROFIL
 10
37.250000106899734
 20
81.895624334186323
 30
0.0
 11
37.250000106899734
 21
81.295624334186414
 31
0.0
  0
LINE
  5
1BD8
  8
SAPA_PROFIL
 10
37.250000106899734
 20
81.295624334186414
 30
0.0
 11
54.750000106899734
 21
81.295624334186414
 31
0.0
  0
LINE
  5
1BD9
  8
SAPA_PROFIL
 10
54.750000106899734
 20
81.295624334186414
 30
0.0
 11
54.750000106899734
 21
81.295624334186414
 31
0.0
  0
LINE
  5
1BDA
  8
SAPA_PROFIL
 10
-0.2499999285014383
 20
81.295624334186414
 30
0.0
 11
31.750000071498562
 21
81.295624334186414
 31
0.0
  0
LINE
  5
1BDB
  8
SAPA_PROFIL
 10
31.750000071498562
 20
81.295624334186414
 30
0.0
 11
31.750000071498562
 21
93.495624334186402
 31
0.0
  0
LINE
  5
1BDC
  8
SAPA_PROFIL
 10
31.750000071498562
 20
93.495624334186402
 30
0.0
 11
-0.2499999285014383
 21
93.495624334186402
 31
0.0
  0
LINE
  5
1BDD
  8
SAPA_PROFIL
 10
-0.2499999285014383
 20
93.495624334186402
 30
0.0
 11
-0.2499999285014383
 21
81.295624334186414
 31
0.0
  0
ARC
  5
1BDE
  8
SAPA_PROFIL
 10
57.750000071512197
 20
78.995624334188108
 30
0.0
 40
0.1999999999998181
 50
0.0000000004885332
 51
180.00000000048851
  0
LINE
  5
1BDF
  8
SAPA_PROFIL
 10
57.950000071512022
 20
78.995624334189813
 30
0.0
 11
61.53581050913953
 21
78.995600334189703
 31
0.0
  0
ARC
  5
1BE0
  8
SAPA_PROFIL
 10
61.535810509139573
 20
79.995600334189717
 30
0.0
 40
1.000000000000014
 50
269.99999999999801
 51
44.999999999993953
  0
LINE
  5
1BE1
  8
SAPA_PROFIL
 10
62.242917290326197
 20
80.702707115376199
 30
0.0
 11
60.937868037156932
 21
82.007756368545344
 31
0.0
  0
ARC
  5
1BE2
  8
SAPA_PROFIL
 10
60.725736002800957
 20
81.795624334189725
 30
0.0
 40
0.2999999999997683
 50
44.999999999954902
 51
89.999999999971493
  0
LINE
  5
1BE3
  8
SAPA_PROFIL
 10
60.725736002801121
 20
82.095624334189495
 30
0.0
 11
60.139230556053462
 21
82.095624334189324
 31
0.0
  0
ARC
  5
1BE4
  8
SAPA_PROFIL
 10
60.139230556053562
 20
81.795624334189995
 30
0.0
 40
0.299999999999315
 50
90.000000000017621
 51
120.0000000000156
  0
LINE
  5
1BE5
  8
SAPA_PROFIL
 10
59.989230556053819
 20
82.055431955324707
 30
0.0
 11
58.500000071513121
 21
81.195624334189404
 31
0.0
  0
LINE
  5
1BE6
  8
SAPA_PROFIL
 10
58.500000071513121
 20
81.195624334189404
 30
0.0
 11
58.050000071513288
 21
81.195612334189718
 31
0.0
  0
ARC
  5
1BE7
  8
SAPA_PROFIL
 10
58.05000007151321
 20
81.495612334189801
 30
0.0
 40
0.3000000000000824
 50
180.0000000000135
 51
270.00000000001762
  0
LINE
  5
1BE8
  8
SAPA_PROFIL
 10
57.750000071513107
 20
81.49561233418973
 30
0.0
 11
57.750000071513107
 21
85.095624334189765
 31
0.0
  0
ARC
  5
1BE9
  8
SAPA_PROFIL
 10
58.05000007151321
 20
85.095624334189694
 30
0.0
 40
0.3000000000000966
 50
89.999999999983714
 51
179.99999999998369
  0
LINE
  5
1BEA
  8
SAPA_PROFIL
 10
58.050000071513288
 20
85.39562433418979
 30
0.0
 11
58.500000071513121
 21
85.395624334189677
 31
0.0
  0
LINE
  5
1BEB
  8
SAPA_PROFIL
 10
58.500000071513121
 20
85.395624334189677
 30
0.0
 11
59.98926020258704
 21
84.535799596620677
 31
0.0
  0
ARC
  5
1BEC
  8
SAPA_PROFIL
 10
60.139260202587359
 20
84.795607217757265
 30
0.0
 40
0.3000000000012435
 50
240.0000000000685
 51
269.99635313262758
  0
LINE
  5
1BED
  8
SAPA_PROFIL
 10
60.139241107634462
 20
84.495607218363716
 30
0.0
 11
60.250000071513107
 21
84.495600168572935
 31
0.0
  0
LINE
  5
1BEE
  8
SAPA_PROFIL
 10
60.250000071513107
 20
84.495600168572935
 30
0.0
 11
60.250000071512197
 21
86.117312170677323
 31
0.0
  0
ARC
  5
1BEF
  8
SAPA_PROFIL
 10
59.250000071512183
 20
86.117312170677366
 30
0.0
 40
1.000000000000014
 50
359.99999999999841
 51
59.999999999999559
  0
LINE
  5
1BF0
  8
SAPA_PROFIL
 10
59.750000071512197
 20
86.983337574461814
 30
0.0
 11
58.250000071513107
 21
87.849362978245608
 31
0.0
  0
ARC
  5
1BF1
  8
SAPA_PROFIL
 10
58.750000071513078
 20
88.715388382030028
 30
0.0
 40
0.9999999999999694
 50
180.0
 51
240.00000000000091
  0
LINE
  5
1BF2
  8
SAPA_PROFIL
 10
57.750000071513107
 20
88.715388382030028
 30
0.0
 11
57.750000071513107
 21
89.275860286346074
 31
0.0
  0
ARC
  5
1BF3
  8
SAPA_PROFIL
 10
58.750000071513078
 20
89.275860286346074
 30
0.0
 40
0.9999999999999715
 50
119.9999999999991
 51
180.0
  0
LINE
  5
1BF4
  8
SAPA_PROFIL
 10
58.250000071513107
 20
90.141885690130479
 30
0.0
 11
59.750000071512197
 21
91.007911093915425
 31
0.0
  0
ARC
  5
1BF5
  8
SAPA_PROFIL
 10
59.250000071512652
 20
91.873936497700655
 30
0.0
 40
1.000000000000461
 50
299.99999999995521
 51
359.9999999999568
  0
LINE
  5
1BF6
  8
SAPA_PROFIL
 10
60.250000071513107
 20
91.873936497699901
 30
0.0
 11
60.250000071513107
 21
93.495648499803167
 31
0.0
  0
LINE
  5
1BF7
  8
SAPA_PROFIL
 10
60.250000071513107
 20
93.495648499803167
 30
0.0
 11
60.139241107634462
 21
93.495641450012329
 31
0.0
  0
ARC
  5
1BF8
  8
SAPA_PROFIL
 10
60.139260202587252
 20
93.195641450618794
 30
0.0
 40
0.3000000000012159
 50
90.003646867352103
 51
119.9999999999111
  0
LINE
  5
1BF9
  8
SAPA_PROFIL
 10
59.98926020258704
 20
93.455449071755424
 30
0.0
 11
58.500000071513121
 21
92.595624334186425
 31
0.0
  0
LINE
  5
1BFA
  8
SAPA_PROFIL
 10
58.500000071513121
 20
92.595624334186425
 30
0.0
 11
58.050000071513288
 21
92.595624334186311
 31
0.0
  0
ARC
  5
1BFB
  8
SAPA_PROFIL
 10
58.05000007151321
 20
92.895624334186408
 30
0.0
 40
0.3000000000000966
 50
180.0000000000162
 51
270.00000000001631
  0
LINE
  5
1BFC
  8
SAPA_PROFIL
 10
57.750000071513107
 20
92.895624334186323
 30
0.0
 11
57.750000071513107
 21
96.495636334186372
 31
0.0
  0
ARC
  5
1BFD
  8
SAPA_PROFIL
 10
58.05000007151321
 20
96.495636334186301
 30
0.0
 40
0.3000000000000895
 50
89.999999999982364
 51
179.99999999998639
  0
LINE
  5
1BFE
  8
SAPA_PROFIL
 10
58.050000071513288
 20
96.795636334186383
 30
0.0
 11
58.500000071513121
 21
96.795624334186698
 31
0.0
  0
LINE
  5
1BFF
  8
SAPA_PROFIL
 10
58.500000071513121
 20
96.795624334186698
 30
0.0
 11
59.989230556053819
 21
95.935816713051395
 31
0.0
  0
ARC
  5
1C00
  8
SAPA_PROFIL
 10
60.139230556053562
 20
96.195624334186093
 30
0.0
 40
0.2999999999993154
 50
239.9999999999844
 51
269.99999999998238
  0
LINE
  5
1C01
  8
SAPA_PROFIL
 10
60.139230556053462
 20
95.895624334186763
 30
0.0
 11
60.725736002801121
 21
95.895624334186607
 31
0.0
  0
ARC
  5
1C02
  8
SAPA_PROFIL
 10
60.725736002800957
 20
96.195624334186377
 30
0.0
 40
0.2999999999997698
 50
270.00000000002848
 51
315.00000000004508
  0
LINE
  5
1C03
  8
SAPA_PROFIL
 10
60.937868037156932
 20
95.983492299830743
 30
0.0
 11
62.242917290326197
 21
97.288541552999916
 31
0.0
  0
ARC
  5
1C04
  8
SAPA_PROFIL
 10
61.535810509139573
 20
97.995648334186384
 30
0.0
 40
1.0000000000000131
 50
315.00000000000608
 51
90.000000000002046
  0
LINE
  5
1C05
  8
SAPA_PROFIL
 10
61.53581050913953
 20
98.995648334186399
 30
0.0
 11
57.950000071512022
 21
98.995624334186303
 31
0.0
  0
ARC
  5
1C06
  8
SAPA_PROFIL
 10
57.750000071512659
 20
98.995624334186317
 30
0.0
 40
0.1999999999993633
 50
179.99999999999179
 51
359.99999999999193
  0
LINE
  5
1C07
  8
SAPA_PROFIL
 10
57.550000071513303
 20
98.995624334186346
 30
0.0
 11
56.250000041963631
 21
98.995624334186346
 31
0.0
  0
ARC
  5
1C08
  8
SAPA_PROFIL
 10
56.250000042107331
 20
97.995624334330046
 30
0.0
 40
0.9999999998562998
 50
90.000000008233826
 51
180.0000000084321
  0
LINE
  5
1C09
  8
SAPA_PROFIL
 10
55.250000042251031
 20
97.995624334182864
 30
0.0
 11
55.250000042251031
 21
96.995624334186346
 31
0.0
  0
ARC
  5
1C0A
  8
SAPA_PROFIL
 10
54.250000042251031
 20
96.995624334186346
 30
0.0
 40
1.0
 50
270.0
 51
0.0
  0
LINE
  5
1C0B
  8
SAPA_PROFIL
 10
54.250000042251031
 20
95.995624334186346
 30
0.0
 11
48.13707033229047
 21
95.995624334186246
 31
0.0
  0
ARC
  5
1C0C
  8
SAPA_PROFIL
 10
48.137070332290257
 20
96.995624334186545
 30
0.0
 40
1.000000000000312
 50
205.00000000028061
 51
270.00000000001222
  0
LINE
  5
1C0D
  8
SAPA_PROFIL
 10
47.230762545255402
 20
96.573006072441274
 30
0.0
 11
45.437699306908591
 21
100.4182425959407
 31
0.0
  0
ARC
  5
1C0E
  8
SAPA_PROFIL
 10
44.531391519873743
 20
99.995624334195483
 30
0.0
 40
1.0000000000002991
 50
25.000000000280099
 51
90.000000000012619
  0
LINE
  5
1C0F
  8
SAPA_PROFIL
 10
44.531391519873523
 20
100.9956243341957
 30
0.0
 11
41.482646046545142
 21
100.9956243341957
 31
0.0
  0
ARC
  5
1C10
  8
SAPA_PROFIL
 10
41.48264604654532
 20
100.7956243341954
 30
0.0
 40
0.2000000000003723
 50
90.000000000052907
 51
209.1099089404791
  0
ARC
  5
1C11
  8
SAPA_PROFIL
 10
38.250000071513263
 20
98.995624334164361
 30
0.0
 40
3.5000000000000182
 50
4.917100336045225
 51
29.109908940422041
  0
LINE
  5
1C12
  8
SAPA_PROFIL
 10
41.737119226343111
 20
99.295624334195793
 30
0.0
 11
43.000000071513107
 21
99.295624334195793
 31
0.0
  0
ARC
  5
1C13
  8
SAPA_PROFIL
 10
43.000000071513107
 20
98.795624334195793
 30
0.0
 40
0.5
 50
0.0
 51
90.0
  0
LINE
  5
1C14
  8
SAPA_PROFIL
 10
43.500000071513107
 20
98.795624334195793
 30
0.0
 11
43.500000071513107
 21
96.495624334186232
 31
0.0
  0
ARC
  5
1C15
  8
SAPA_PROFIL
 10
43.000000071513107
 20
96.495624334186232
 30
0.0
 40
0.5
 50
270.0
 51
0.0
  0
LINE
  5
1C16
  8
SAPA_PROFIL
 10
43.000000071513107
 20
95.995624334186246
 30
0.0
 11
40.052775709281832
 21
95.995624334186175
 31
0.0
  0
ARC
  5
1C17
  8
SAPA_PROFIL
 10
38.25000007151317
 20
98.995624334164631
 30
0.0
 40
3.5000000000004108
 50
238.9972808654278
 51
301.00271913457033
  0
LINE
  5
1C18
  8
SAPA_PROFIL
 10
36.447224433744402
 20
95.995624334186246
 30
0.0
 11
30.052775709281828
 21
95.995624334186175
 31
0.0
  0
ARC
  5
1C19
  8
SAPA_PROFIL
 10
28.25000007151316
 20
98.995624334164631
 30
0.0
 40
3.500000000000413
 50
238.9972808654278
 51
301.0027191345705
  0
LINE
  5
1C1A
  8
SAPA_PROFIL
 10
26.447224433744399
 20
95.995624334186246
 30
0.0
 11
23.500000071513121
 21
95.995624334186175
 31
0.0
  0
ARC
  5
1C1B
  8
SAPA_PROFIL
 10
23.500000071513121
 20
96.495624334186175
 30
0.0
 40
0.5
 50
180.0
 51
270.0
  0
LINE
  5
1C1C
  8
SAPA_PROFIL
 10
23.00000007151311
 20
96.495624334186175
 30
0.0
 11
23.00000007151311
 21
98.795624334195793
 31
0.0
  0
ARC
  5
1C1D
  8
SAPA_PROFIL
 10
23.500000071513121
 20
98.795624334195793
 30
0.0
 40
0.5
 50
90.0
 51
180.0
  0
LINE
  5
1C1E
  8
SAPA_PROFIL
 10
23.500000071513121
 20
99.295624334195793
 30
0.0
 11
24.76288091668312
 21
99.295624334195793
 31
0.0
  0
ARC
  5
1C1F
  8
SAPA_PROFIL
 10
28.250000071512961
 20
98.995624334164361
 30
0.0
 40
3.5000000000000062
 50
150.8900910595778
 51
175.08289966395469
  0
ARC
  5
1C20
  8
SAPA_PROFIL
 10
25.01735409648089
 20
100.7956243341954
 30
0.0
 40
0.2000000000003717
 50
330.89009105952238
 51
89.999999999944023
  0
LINE
  5
1C21
  8
SAPA_PROFIL
 10
25.017354096481089
 20
100.9956243341957
 30
0.0
 11
21.968608623152701
 21
100.9956243341957
 31
0.0
  0
ARC
  5
1C22
  8
SAPA_PROFIL
 10
21.968608623152491
 20
99.995624334195483
 30
0.0
 40
1.000000000000312
 50
89.99999999998758
 51
154.99999999971919
  0
LINE
  5
1C23
  8
SAPA_PROFIL
 10
21.062300836117629
 20
100.4182425959407
 30
0.0
 11
19.269237597770822
 21
96.573006072441274
 31
0.0
  0
ARC
  5
1C24
  8
SAPA_PROFIL
 10
18.36292981073596
 20
96.995624334186545
 30
0.0
 40
1.0000000000003111
 50
269.99999999998778
 51
334.99999999971931
  0
LINE
  5
1C25
  8
SAPA_PROFIL
 10
18.36292981073575
 20
95.995624334186246
 30
0.0
 11
2.0500000715132951
 21
95.995624334186346
 31
0.0
  0
LINE
  5
1C26
  8
SAPA_PROFIL
 10
2.0500000715132951
 20
95.995624334186346
 30
0.0
 11
2.0500000715132951
 21
97.495624334186289
 31
0.0
  0
LINE
  5
1C27
  8
SAPA_PROFIL
 10
2.0500000715132951
 20
97.495624334186289
 30
0.0
 11
1.250000071513113
 21
97.495624334186289
 31
0.0
  0
LINE
  5
1C28
  8
SAPA_PROFIL
 10
1.250000071513113
 20
97.495624334186289
 30
0.0
 11
1.250000071513113
 21
95.995624334186346
 31
0.0
  0
LINE
  5
1C29
  8
SAPA_PROFIL
 10
1.250000071513113
 20
95.995624334186346
 30
0.0
 11
-0.4499999284867045
 21
95.995624334186346
 31
0.0
  0
LINE
  5
1C2A
  8
SAPA_PROFIL
 10
-0.4499999284867045
 20
95.995624334186346
 30
0.0
 11
-0.7499999284868864
 21
120.5956243341863
 31
0.0
  0
LINE
  5
1C2B
  8
SAPA_PROFIL
 10
-0.7499999284868864
 20
120.5956243341863
 30
0.0
 11
0.9500000715129318
 21
120.5956243341863
 31
0.0
  0
LINE
  5
1C2C
  8
SAPA_PROFIL
 10
0.9500000715129318
 20
120.5956243341863
 30
0.0
 11
0.9500000715129318
 21
118.5956243341863
 31
0.0
  0
LINE
  5
1C2D
  8
SAPA_PROFIL
 10
0.9500000715129318
 20
118.5956243341863
 30
0.0
 11
1.750000071513113
 21
118.5956243341863
 31
0.0
  0
LINE
  5
1C2E
  8
SAPA_PROFIL
 10
1.750000071513113
 20
118.5956243341863
 30
0.0
 11
1.750000071513113
 21
122.7456243341769
 31
0.0
  0
ARC
  5
1C2F
  8
SAPA_PROFIL
 10
1.2500000715131061
 20
122.7456243341769
 30
0.0
 40
0.5000000000000071
 50
359.99999999999511
 51
89.999999999999204
  0
LINE
  5
1C30
  8
SAPA_PROFIL
 10
1.250000071513113
 20
123.2456243341769
 30
0.0
 11
0.7500000715313036
 21
123.2456243341891
 31
0.0
  0
LINE
  5
1C31
  8
SAPA_PROFIL
 10
0.7500000715313036
 20
123.2456243341891
 30
0.0
 11
0.7500000715094757
 21
121.9956243342148
 31
0.0
  0
LINE
  5
1C32
  8
SAPA_PROFIL
 10
0.7500000715094757
 20
121.9956243342148
 30
0.0
 11
-0.6499999284692422
 21
121.9956243341791
 31
0.0
  0
ARC
  5
1C33
  8
SAPA_PROFIL
 10
-0.6499999284626786
 20
122.2956243341649
 30
0.0
 40
0.2999999999858289
 50
179.9999999972913
 51
269.99999999874638
  0
LINE
  5
1C34
  8
SAPA_PROFIL
 10
-0.9499999284485056
 20
122.2956243341791
 30
0.0
 11
-0.9499999284767
 21
128.6956243341842
 31
0.0
  0
ARC
  5
1C35
  8
SAPA_PROFIL
 10
-0.6499999284867358
 20
128.6956243341663
 30
0.0
 40
0.2999999999899643
 50
89.999999998048594
 51
179.9999999965857
  0
LINE
  5
1C36
  8
SAPA_PROFIL
 10
-0.6499999284765181
 20
128.9956243341563
 30
0.0
 11
0.7500000715094757
 21
128.9956243341486
 31
0.0
  0
LINE
  5
1C37
  8
SAPA_PROFIL
 10
0.7500000715094757
 20
128.9956243341486
 30
0.0
 11
0.7500000715313036
 21
127.7456243341742
 31
0.0
  0
LINE
  5
1C38
  8
SAPA_PROFIL
 10
0.7500000715313036
 20
127.7456243341742
 30
0.0
 11
1.250000071513113
 21
127.7456243341864
 31
0.0
  0
ARC
  5
1C39
  8
SAPA_PROFIL
 10
1.2500000715131101
 20
128.2456243341864
 30
0.0
 40
0.5
 50
270.0000000000004
 51
0.0
  0
LINE
  5
1C3A
  8
SAPA_PROFIL
 10
1.750000071513113
 20
128.2456243341864
 30
0.0
 11
1.750000071513113
 21
131.2456243341864
 31
0.0
  0
ARC
  5
1C3B
  8
SAPA_PROFIL
 10
1.2500000715130919
 20
131.24562433419371
 30
0.0
 40
0.5000000000000214
 50
359.99999999916298
 51
89.999999999997556
  0
LINE
  5
1C3C
  8
SAPA_PROFIL
 10
1.250000071513113
 20
131.74562433419371
 30
0.0
 11
0.7500000715131137
 21
131.74562433419371
 31
0.0
  0
LINE
  5
1C3D
  8
SAPA_PROFIL
 10
0.7500000715131137
 20
131.74562433419371
 30
0.0
 11
0.7500000715140232
 21
130.29562433419659
 31
0.0
  0
LINE
  5
1C3E
  8
SAPA_PROFIL
 10
0.7500000715140232
 20
130.29562433419659
 30
0.0
 11
-1.099999928479064
 21
130.29562433419659
 31
0.0
  0
ARC
  5
1C3F
  8
SAPA_PROFIL
 10
-1.0999999284627151
 20
130.5956243341831
 30
0.0
 40
0.299999999986511
 50
179.99999999687881
 51
269.99999999687748
  0
LINE
  5
1C40
  8
SAPA_PROFIL
 10
-1.399999928449233
 20
130.5956243341995
 30
0.0
 11
-1.3999999284783371
 21
132.83581671305609
 31
0.0
  0
LINE
  5
1C41
  8
SAPA_PROFIL
 10
-1.3999999284783371
 20
132.83581671305609
 30
0.0
 11
-0.9499999284839759
 21
133.09562433418489
 31
0.0
  0
LINE
  5
1C42
  8
SAPA_PROFIL
 10
-0.9499999284839759
 20
133.09562433418489
 30
0.0
 11
-0.9499999284839759
 21
134.89562433419519
 31
0.0
  0
LINE
  5
1C43
  8
SAPA_PROFIL
 10
-0.9499999284839759
 20
134.89562433419519
 30
0.0
 11
-1.3999999284783371
 21
135.15543195532399
 31
0.0
  0
LINE
  5
1C44
  8
SAPA_PROFIL
 10
-1.3999999284783371
 20
135.15543195532399
 30
0.0
 11
-1.3999999284783371
 21
137.39562433418061
 31
0.0
  0
ARC
  5
1C45
  8
SAPA_PROFIL
 10
-1.0999999284926389
 20
137.39562433416879
 30
0.0
 40
0.2999999999856975
 50
89.999999997059973
 51
179.9999999977527
  0
LINE
  5
1C46
  8
SAPA_PROFIL
 10
-1.099999928477245
 20
137.6956243341545
 30
0.0
 11
0.7500000715140232
 21
137.69562433418349
 31
0.0
  0
LINE
  5
1C47
  8
SAPA_PROFIL
 10
0.7500000715140232
 20
137.69562433418349
 30
0.0
 11
0.7500000715131137
 21
136.2456243341864
 31
0.0
  0
LINE
  5
1C48
  8
SAPA_PROFIL
 10
0.7500000715131137
 20
136.2456243341864
 30
0.0
 11
1.250000071513113
 21
136.2456243341864
 31
0.0
  0
ARC
  5
1C49
  8
SAPA_PROFIL
 10
1.250000071513099
 20
136.7456243341864
 30
0.0
 40
0.5
 50
270.00000000000171
 51
0.0000000000065138
  0
LINE
  5
1C4A
  8
SAPA_PROFIL
 10
1.750000071513113
 20
136.7456243341864
 30
0.0
 11
1.750000071513113
 21
138.4956243341864
 31
0.0
  0
ARC
  5
1C4B
  8
SAPA_PROFIL
 10
1.2500000715131021
 20
138.4956243341864
 30
0.0
 40
0.5000000000000107
 50
0.0
 51
89.999999999998764
  0
LINE
  5
1C4C
  8
SAPA_PROFIL
 10
1.250000071513113
 20
138.9956243341864
 30
0.0
 11
-1.2499999284868859
 21
138.99562433418669
 31
0.0
  0
ARC
  5
1C4D
  8
SAPA_PROFIL
 10
-1.249999928486982
 20
136.99562433418669
 30
0.0
 40
1.9999999999999141
 50
89.999999999997257
 51
180.00000000000239
  0
LINE
  5
1C4E
  8
SAPA_PROFIL
 10
-3.2499999284868859
 20
136.99562433418669
 30
0.0
 11
-3.2499999284868859
 21
23.370624334184981
 31
0.0
  0
ARC
  5
1C4F
  8
SAPA_PROFIL
 10
-1.8749999284868859
 20
23.370624334184999
 30
0.0
 40
1.375
 50
180.00000000000071
 51
0.0000000000016284
  0
LINE
  5
1C50
  8
SAPA_PROFIL
 10
-0.4999999284868864
 20
23.370624334185042
 30
0.0
 11
-0.4999999284868864
 21
74.995624334190666
 31
0.0
  0
ARC
  5
1C51
  8
SAPA_PROFIL
 10
3.5000000715129569
 20
74.995624334190822
 30
0.0
 40
3.9999999999998428
 50
89.999999999997755
 51
180.00000000000219
  0
LINE
  5
1C52
  8
SAPA_PROFIL
 10
3.5000000715131132
 20
78.995624334190666
 30
0.0
 11
57.550000071512379
 21
78.995624334186402
 31
0.0
  0
ARC
  5
1C53
  8
SAPA_PROFIL
 62
     4
 10
160.37416684724511
 20
81.845612366698774
 30
0.0
 40
0.2999999999993434
 50
59.999999999964032
 51
89.999999999962014
  0
LINE
  5
1C54
  8
SAPA_PROFIL
 62
     4
 10
160.52416684724491
 20
82.105419987833443
 30
0.0
 11
162.01339738808969
 21
81.245612334191151
 31
0.0
  0
LINE
  5
1C55
  8
SAPA_PROFIL
 62
     4
 10
162.01339738808969
 20
81.245612334191151
 30
0.0
 11
162.44999992846849
 21
81.245612334191037
 31
0.0
  0
ARC
  5
1C56
  8
SAPA_PROFIL
 62
     4
 10
162.44999992846849
 20
81.495612334191037
 30
0.0
 40
0.25
 50
270.0
 51
0.0
  0
LINE
  5
1C57
  8
SAPA_PROFIL
 62
     4
 10
162.69999992846849
 20
81.495612334191037
 30
0.0
 11
162.69999992846849
 21
85.095624334191086
 31
0.0
  0
ARC
  5
1C58
  8
SAPA_PROFIL
 62
     4
 10
162.44999992846849
 20
85.095624334191086
 30
0.0
 40
0.25
 50
0.0
 51
90.0
  0
LINE
  5
1C59
  8
SAPA_PROFIL
 62
     4
 10
162.44999992846849
 20
85.345624334191086
 30
0.0
 11
162.0133980068899
 21
85.345612691455756
 31
0.0
  0
LINE
  5
1C5A
  8
SAPA_PROFIL
 62
     4
 10
162.0133980068899
 20
85.345612691455756
 30
0.0
 11
160.52416695985221
 21
84.485804745562746
 31
0.0
  0
ARC
  5
1C5B
  8
SAPA_PROFIL
 62
     4
 10
160.3741669598524
 20
84.745612366697344
 30
0.0
 40
0.299999999999256
 50
270.00000000003263
 51
300.00000000003939
  0
LINE
  5
1C5C
  8
SAPA_PROFIL
 62
     4
 10
160.3741669598526
 20
84.445612366698072
 30
0.0
 11
137.12583296860109
 21
84.445612366698072
 31
0.0
  0
ARC
  5
1C5D
  8
SAPA_PROFIL
 62
     4
 10
137.12583296860129
 20
84.745612366697344
 30
0.0
 40
0.2999999999992582
 50
239.99999999996061
 51
269.99999999996737
  0
LINE
  5
1C5E
  8
SAPA_PROFIL
 62
     4
 10
136.9758329686014
 20
84.485804745562746
 30
0.0
 11
135.4866019215637
 21
85.345612691455756
 31
0.0
  0
LINE
  5
1C5F
  8
SAPA_PROFIL
 62
     4
 10
135.4866019215637
 20
85.345612691455756
 30
0.0
 11
135.04999999998509
 21
85.345624334191086
 31
0.0
  0
ARC
  5
1C60
  8
SAPA_PROFIL
 62
     4
 10
135.04999999998509
 20
85.095624334191086
 30
0.0
 40
0.25
 50
90.0
 51
180.0
  0
LINE
  5
1C61
  8
SAPA_PROFIL
 62
     4
 10
134.79999999998509
 20
85.095624334191086
 30
0.0
 11
134.79999999998509
 21
81.495612334191037
 31
0.0
  0
ARC
  5
1C62
  8
SAPA_PROFIL
 62
     4
 10
135.04999999998509
 20
81.495612334191037
 30
0.0
 40
0.25
 50
180.0
 51
270.0
  0
LINE
  5
1C63
  8
SAPA_PROFIL
 62
     4
 10
135.04999999998509
 20
81.245612334191037
 30
0.0
 11
135.48660254036301
 21
81.245612334191151
 31
0.0
  0
LINE
  5
1C64
  8
SAPA_PROFIL
 62
     4
 10
135.48660254036301
 20
81.245612334191151
 30
0.0
 11
136.97583308120869
 21
82.105419987833386
 31
0.0
  0
ARC
  5
1C65
  8
SAPA_PROFIL
 62
     4
 10
137.12583308120861
 20
81.845612366698717
 30
0.0
 40
0.2999999999993441
 50
90.000000000037986
 51
120.0000000000359
  0
LINE
  5
1C66
  8
SAPA_PROFIL
 62
     4
 10
137.12583308120841
 20
82.145612366698074
 30
0.0
 11
160.37416684724531
 21
82.145612366698117
 31
0.0
  0
LINE
  5
1C67
  8
SAPA_PROFIL
 62
     4
 10
146.24999993159369
 20
122.34335940180461
 30
-0.2
 11
146.24999993159369
 21
136.5433594018067
 31
-0.2
1001
RC_PROFILE
1002
{
1000
Region
1002
}
  0
ARC
  5
1C68
  8
SAPA_PROFIL
 62
     4
 10
146.74999993159369
 20
136.5433594018067
 30
-0.2
 40
0.5
 50
90.000000000208431
 51
180.0
1001
RC_PROFILE
1002
{
1000
Region
1002
}
  0
LINE
  5
1C69
  8
SAPA_PROFIL
 62
     4
 10
146.7499999315919
 20
137.0433594018067
 30
-0.2
 11
150.74999993221309
 21
137.04335940180971
 31
-0.2
1001
RC_PROFILE
1002
{
1000
Region
1002
}
  0
ARC
  5
1C6A
  8
SAPA_PROFIL
 62
     4
 10
150.74999993221309
 20
136.54335940180971
 30
-0.2
 40
0.5
 50
0.0
 51
90.0
1001
RC_PROFILE
1002
{
1000
Region
1002
}
  0
LINE
  5
1C6B
  8
SAPA_PROFIL
 62
     4
 10
151.24999993221309
 20
136.54335940180971
 30
-0.2
 11
151.24999993222031
 21
122.3433594018058
 31
-0.2
1001
RC_PROFILE
1002
{
1000
Region
1002
}
  0
ARC
  5
1C6C
  8
SAPA_PROFIL
 62
     4
 10
150.74999993222031
 20
122.34335940180461
 30
-0.2
 40
0.5
 50
270.0
 51
0.0000000001302755
1001
RC_PROFILE
1002
{
1000
Region
1002
}
  0
LINE
  5
1C6D
  8
SAPA_PROFIL
 62
     4
 10
150.74999993222031
 20
121.84335940180461
 30
-0.2
 11
146.74999993159369
 21
121.84335940180461
 31
-0.2
1001
RC_PROFILE
1002
{
1000
Region
1002
}
  0
ARC
  5
1C6E
  8
SAPA_PROFIL
 62
     4
 10
146.74999993159369
 20
122.34335940180461
 30
-0.2
 40
0.5
 50
180.0
 51
270.0
1001
RC_PROFILE
1002
{
1000
Region
1002
}
  0
ARC
  5
1C6F
  8
SAPA_PROFIL
 62
     4
 10
159.67274000161231
 20
96.779885845395569
 30
0.0
 40
1.1999999999999029
 50
269.99999999998778
 51
300.0000000000087
1001
GENIUS_GENOBJ-N-FIL_13
1002
{
1000
OWNER
1000
GEN
1002
}
1001
GENIUS_GENODEF_13
1002
{
1000
HIER
1070
     0
1002
}
1002
{
1000
MANEDIT
1070
     0
1002
}
1002
{
1000
NOSEL
1070
     0
1002
}
1002
{
1000
BEHIND
1070
     0
1002
}
1002
{
1000
OTHER
1070
     0
1002
}
1002
{
1000
REACTOR
1002
}
  0
LINE
  5
1C70
  8
SAPA_PROFIL
 62
     4
 10
160.27274000161239
 20
95.740655360854404
 30
0.0
 11
162.01339794225581
 21
96.745624691452292
 31
0.0
1001
GENIUS_GENOBJ-N-FIL_13
1002
{
1000
OWNER
1000
GEN
1002
}
1001
GENIUS_GENODEF_13
1002
{
1000
HIER
1070
     0
1002
}
1002
{
1000
MANEDIT
1070
     0
1002
}
1002
{
1000
NOSEL
1070
     0
1002
}
1002
{
1000
BEHIND
1070
     0
1002
}
1002
{
1000
OTHER
1070
     0
1002
}
1002
{
1000
REACTOR
1002
}
  0
LINE
  5
1C71
  8
SAPA_PROFIL
 62
     4
 10
162.01339794225581
 20
96.745624691452292
 30
0.0
 11
162.44999986383431
 21
96.745636334187637
 31
0.0
1001
GENIUS_GENOBJ-N-FIL_13
1002
{
1000
OWNER
1000
GEN
1002
}
1001
GENIUS_GENODEF_13
1002
{
1000
HIER
1070
     0
1002
}
1002
{
1000
MANEDIT
1070
     0
1002
}
1002
{
1000
NOSEL
1070
     0
1002
}
1002
{
1000
BEHIND
1070
     0
1002
}
1002
{
1000
OTHER
1070
     0
1002
}
1002
{
1000
REACTOR
1002
}
  0
ARC
  5
1C72
  8
SAPA_PROFIL
 62
     4
 10
162.44999986383431
 20
96.495636334187637
 30
0.0
 40
0.25
 50
0.0
 51
90.0
1001
GENIUS_GENOBJ-N-FIL_13
1002
{
1000
OWNER
1000
GEN
1002
}
1001
GENIUS_GENODEF_13
1002
{
1000
HIER
1070
     0
1002
}
1002
{
1000
MANEDIT
1070
     0
1002
}
1002
{
1000
NOSEL
1070
     0
1002
}
1002
{
1000
BEHIND
1070
     0
1002
}
1002
{
1000
OTHER
1070
     0
1002
}
1002
{
1000
REACTOR
1002
}
  0
LINE
  5
1C73
  8
SAPA_PROFIL
 62
     4
 10
162.69999986383431
 20
96.495636334187637
 30
0.0
 11
162.69999986383431
 21
92.895624334187559
 31
0.0
1001
GENIUS_GENOBJ-N-FIL_13
1002
{
1000
OWNER
1000
GEN
1002
}
1001
GENIUS_GENODEF_13
1002
{
1000
HIER
1070
     0
1002
}
1002
{
1000
MANEDIT
1070
     0
1002
}
1002
{
1000
NOSEL
1070
     0
1002
}
1002
{
1000
BEHIND
1070
     0
1002
}
1002
{
1000
OTHER
1070
     0
1002
}
1002
{
1000
REACTOR
1002
}
  0
ARC
  5
1C74
  8
SAPA_PROFIL
 62
     4
 10
162.44999986383431
 20
92.895624334187559
 30
0.0
 40
0.25
 50
270.0
 51
0.0
1001
GENIUS_GENOBJ-N-FIL_13
1002
{
1000
OWNER
1000
GEN
1002
}
1001
GENIUS_GENODEF_13
1002
{
1000
HIER
1070
     0
1002
}
1002
{
1000
MANEDIT
1070
     0
1002
}
1002
{
1000
NOSEL
1070
     0
1002
}
1002
{
1000
BEHIND
1070
     0
1002
}
1002
{
1000
OTHER
1070
     0
1002
}
1002
{
1000
REACTOR
1002
}
  0
LINE
  5
1C75
  8
SAPA_PROFIL
 62
     4
 10
162.44999986383431
 20
92.645624334187573
 30
0.0
 11
162.0133973234565
 21
92.645624334187687
 31
0.0
1001
GENIUS_GENOBJ-N-FIL_13
1002
{
1000
OWNER
1000
GEN
1002
}
1001
GENIUS_GENODEF_13
1002
{
1000
HIER
1070
     0
1002
}
1002
{
1000
MANEDIT
1070
     0
1002
}
1002
{
1000
NOSEL
1070
     0
1002
}
1002
{
1000
BEHIND
1070
     0
1002
}
1002
{
1000
OTHER
1070
     0
1002
}
1002
{
1000
REACTOR
1002
}
  0
LINE
  5
1C76
  8
SAPA_PROFIL
 62
     4
 10
162.0133973234565
 20
92.645624334187687
 30
0.0
 11
160.32725972605519
 21
93.619116329937754
 31
0.0
1001
GENIUS_GENOBJ-N-FIL_13
1002
{
1000
OWNER
1000
GEN
1002
}
1001
GENIUS_GENODEF_13
1002
{
1000
HIER
1070
     0
1002
}
1002
{
1000
MANEDIT
1070
     0
1002
}
1002
{
1000
NOSEL
1070
     0
1002
}
1002
{
1000
BEHIND
1070
     0
1002
}
1002
{
1000
OTHER
1070
     0
1002
}
1002
{
1000
REACTOR
1002
}
  0
ARC
  5
1C77
  8
SAPA_PROFIL
 62
     4
 10
159.72725972605551
 20
92.579885845397328
 30
0.0
 40
1.19999999999906
 50
59.999999999991658
 51
89.999999999989143
1001
GENIUS_GENOBJ-N-FIL_13
1002
{
1000
OWNER
1000
GEN
1002
}
1001
GENIUS_GENODEF_13
1002
{
1000
HIER
1070
     0
1002
}
1002
{
1000
MANEDIT
1070
     0
1002
}
1002
{
1000
NOSEL
1070
     0
1002
}
1002
{
1000
BEHIND
1070
     0
1002
}
1002
{
1000
OTHER
1070
     0
1002
}
1002
{
1000
REACTOR
1002
}
  0
LINE
  5
1C78
  8
SAPA_PROFIL
 62
     4
 10
159.72725972605571
 20
93.779885845396393
 30
0.0
 11
137.77274013776471
 21
93.779885845396393
 31
0.0
1001
GENIUS_GENOBJ-N-FIL_13
1002
{
1000
OWNER
1000
GEN
1002
}
1001
GENIUS_GENODEF_13
1002
{
1000
HIER
1070
     0
1002
}
1002
{
1000
MANEDIT
1070
     0
1002
}
1002
{
1000
NOSEL
1070
     0
1002
}
1002
{
1000
BEHIND
1070
     0
1002
}
1002
{
1000
OTHER
1070
     0
1002
}
1002
{
1000
REACTOR
1002
}
  0
ARC
  5
1C79
  8
SAPA_PROFIL
 62
     4
 10
137.7727401377644
 20
92.579885845395637
 30
0.0
 40
1.200000000000756
 50
89.999999999989143
 51
119.9999999999868
1001
GENIUS_GENOBJ-N-FIL_13
1002
{
1000
OWNER
1000
GEN
1002
}
1001
GENIUS_GENODEF_13
1002
{
1000
HIER
1070
     0
1002
}
1002
{
1000
MANEDIT
1070
     0
1002
}
1002
{
1000
NOSEL
1070
     0
1002
}
1002
{
1000
BEHIND
1070
     0
1002
}
1002
{
1000
OTHER
1070
     0
1002
}
1002
{
1000
REACTOR
1002
}
  0
LINE
  5
1C7A
  8
SAPA_PROFIL
 62
     4
 10
137.17274013776429
 20
93.619116329937754
 30
0.0
 11
135.48660254036389
 21
92.645624334187687
 31
0.0
1001
GENIUS_GENOBJ-N-FIL_13
1002
{
1000
OWNER
1000
GEN
1002
}
1001
GENIUS_GENODEF_13
1002
{
1000
HIER
1070
     0
1002
}
1002
{
1000
MANEDIT
1070
     0
1002
}
1002
{
1000
NOSEL
1070
     0
1002
}
1002
{
1000
BEHIND
1070
     0
1002
}
1002
{
1000
OTHER
1070
     0
1002
}
1002
{
1000
REACTOR
1002
}
  0
LINE
  5
1C7B
  8
SAPA_PROFIL
 62
     4
 10
135.48660254036389
 20
92.645624334187687
 30
0.0
 11
135.04999999998509
 21
92.645624334187573
 31
0.0
1001
GENIUS_GENOBJ-N-FIL_13
1002
{
1000
OWNER
1000
GEN
1002
}
1001
GENIUS_GENODEF_13
1002
{
1000
HIER
1070
     0
1002
}
1002
{
1000
MANEDIT
1070
     0
1002
}
1002
{
1000
NOSEL
1070
     0
1002
}
1002
{
1000
BEHIND
1070
     0
1002
}
1002
{
1000
OTHER
1070
     0
1002
}
1002
{
1000
REACTOR
1002
}
  0
ARC
  5
1C7C
  8
SAPA_PROFIL
 62
     4
 10
135.04999999998509
 20
92.895624334187559
 30
0.0
 40
0.25
 50
180.0
 51
270.0
1001
GENIUS_GENOBJ-N-FIL_13
1002
{
1000
OWNER
1000
GEN
1002
}
1001
GENIUS_GENODEF_13
1002
{
1000
HIER
1070
     0
1002
}
1002
{
1000
MANEDIT
1070
     0
1002
}
1002
{
1000
NOSEL
1070
     0
1002
}
1002
{
1000
BEHIND
1070
     0
1002
}
1002
{
1000
OTHER
1070
     0
1002
}
1002
{
1000
REACTOR
1002
}
  0
LINE
  5
1C7D
  8
SAPA_PROFIL
 62
     4
 10
134.79999999998509
 20
92.895624334187559
 30
0.0
 11
134.79999999998509
 21
96.495636334187637
 31
0.0
1001
GENIUS_GENOBJ-N-FIL_13
1002
{
1000
OWNER
1000
GEN
1002
}
1001
GENIUS_GENODEF_13
1002
{
1000
HIER
1070
     0
1002
}
1002
{
1000
MANEDIT
1070
     0
1002
}
1002
{
1000
NOSEL
1070
     0
1002
}
1002
{
1000
BEHIND
1070
     0
1002
}
1002
{
1000
OTHER
1070
     0
1002
}
1002
{
1000
REACTOR
1002
}
  0
ARC
  5
1C7E
  8
SAPA_PROFIL
 62
     4
 10
135.04999999998509
 20
96.495636334187637
 30
0.0
 40
0.25
 50
90.0
 51
180.0
1001
GENIUS_GENOBJ-N-FIL_13
1002
{
1000
OWNER
1000
GEN
1002
}
1001
GENIUS_GENODEF_13
1002
{
1000
HIER
1070
     0
1002
}
1002
{
1000
MANEDIT
1070
     0
1002
}
1002
{
1000
NOSEL
1070
     0
1002
}
1002
{
1000
BEHIND
1070
     0
1002
}
1002
{
1000
OTHER
1070
     0
1002
}
1002
{
1000
REACTOR
1002
}
  0
LINE
  5
1C7F
  8
SAPA_PROFIL
 62
     4
 10
135.04999999998509
 20
96.745636334187637
 30
0.0
 11
135.4866019215637
 21
96.745624691452292
 31
0.0
1001
GENIUS_GENOBJ-N-FIL_13
1002
{
1000
OWNER
1000
GEN
1002
}
1001
GENIUS_GENODEF_13
1002
{
1000
HIER
1070
     0
1002
}
1002
{
1000
MANEDIT
1070
     0
1002
}
1002
{
1000
NOSEL
1070
     0
1002
}
1002
{
1000
BEHIND
1070
     0
1002
}
1002
{
1000
OTHER
1070
     0
1002
}
1002
{
1000
REACTOR
1002
}
  0
LINE
  5
1C80
  8
SAPA_PROFIL
 62
     4
 10
135.4866019215637
 20
96.745624691452292
 30
0.0
 11
137.22725986220709
 21
95.740655360854404
 31
0.0
1001
GENIUS_GENOBJ-N-FIL_13
1002
{
1000
OWNER
1000
GEN
1002
}
1001
GENIUS_GENODEF_13
1002
{
1000
HIER
1070
     0
1002
}
1002
{
1000
MANEDIT
1070
     0
1002
}
1002
{
1000
NOSEL
1070
     0
1002
}
1002
{
1000
BEHIND
1070
     0
1002
}
1002
{
1000
OTHER
1070
     0
1002
}
1002
{
1000
REACTOR
1002
}
  0
ARC
  5
1C81
  8
SAPA_PROFIL
 62
     4
 10
137.8272598622072
 20
96.779885845395569
 30
0.0
 40
1.1999999999999009
 50
239.9999999999913
 51
270.00000000001222
1001
GENIUS_GENOBJ-N-FIL_13
1002
{
1000
OWNER
1000
GEN
1002
}
1001
GENIUS_GENODEF_13
1002
{
1000
HIER
1070
     0
1002
}
1002
{
1000
MANEDIT
1070
     0
1002
}
1002
{
1000
NOSEL
1070
     0
1002
}
1002
{
1000
BEHIND
1070
     0
1002
}
1002
{
1000
OTHER
1070
     0
1002
}
1002
{
1000
REACTOR
1002
}
  0
LINE
  5
1C82
  8
SAPA_PROFIL
 62
     4
 10
137.82725986220751
 20
95.579885845395665
 30
0.0
 11
140.549999999736
 21
95.579885845396333
 31
0.0
1001
GENIUS_GENOBJ-N-FIL_13
1002
{
1000
OWNER
1000
GEN
1002
}
1001
GENIUS_GENODEF_13
1002
{
1000
HIER
1070
     0
1002
}
1002
{
1000
MANEDIT
1070
     0
1002
}
1002
{
1000
NOSEL
1070
     0
1002
}
1002
{
1000
BEHIND
1070
     0
1002
}
1002
{
1000
OTHER
1070
     0
1002
}
1002
{
1000
REACTOR
1002
}
  0
ARC
  5
1C83
  8
SAPA_PROFIL
 62
     4
 10
140.54999999973541
 20
96.779885845395825
 30
0.0
 40
1.199999999999477
 50
270.00000000002711
 51
0.000000000222554
1001
GENIUS_GENOBJ-N-FIL_13
1002
{
1000
OWNER
1000
GEN
1002
}
1001
GENIUS_GENODEF_13
1002
{
1000
HIER
1070
     0
1002
}
1002
{
1000
MANEDIT
1070
     0
1002
}
1002
{
1000
NOSEL
1070
     0
1002
}
1002
{
1000
BEHIND
1070
     0
1002
}
1002
{
1000
OTHER
1070
     0
1002
}
1002
{
1000
REACTOR
1002
}
  0
LINE
  5
1C84
  8
SAPA_PROFIL
 62
     4
 10
141.74999999973491
 20
96.779885845400486
 30
0.0
 11
141.74999999964569
 21
122.5776208723222
 31
0.0
1001
GENIUS_GENOBJ-N-FIL_13
1002
{
1000
OWNER
1000
GEN
1002
}
1001
GENIUS_GENODEF_13
1002
{
1000
HIER
1070
     0
1002
}
1002
{
1000
MANEDIT
1070
     0
1002
}
1002
{
1000
NOSEL
1070
     0
1002
}
1002
{
1000
BEHIND
1070
     0
1002
}
1002
{
1000
OTHER
1070
     0
1002
}
1002
{
1000
REACTOR
1002
}
  0
ARC
  5
1C85
  8
SAPA_PROFIL
 62
     4
 10
142.24999999964569
 20
122.5776208723222
 30
0.0
 40
0.5
 50
90.0
 51
180.0
1001
GENIUS_GENOBJ-N-FIL_13
1002
{
1000
OWNER
1000
GEN
1002
}
1001
GENIUS_GENODEF_13
1002
{
1000
HIER
1070
     0
1002
}
1002
{
1000
MANEDIT
1070
     0
1002
}
1002
{
1000
NOSEL
1070
     0
1002
}
1002
{
1000
BEHIND
1070
     0
1002
}
1002
{
1000
OTHER
1070
     0
1002
}
1002
{
1000
REACTOR
1002
}
  0
LINE
  5
1C86
  8
SAPA_PROFIL
 62
     4
 10
142.24999999964569
 20
123.0776208723222
 30
0.0
 11
142.4499999996456
 21
123.0776208723225
 31
0.0
1001
GENIUS_GENOBJ-N-FIL_13
1002
{
1000
OWNER
1000
GEN
1002
}
1001
GENIUS_GENODEF_13
1002
{
1000
HIER
1070
     0
1002
}
1002
{
1000
MANEDIT
1070
     0
1002
}
1002
{
1000
NOSEL
1070
     0
1002
}
1002
{
1000
BEHIND
1070
     0
1002
}
1002
{
1000
OTHER
1070
     0
1002
}
1002
{
1000
REACTOR
1002
}
  0
ARC
  5
1C87
  8
SAPA_PROFIL
 62
     4
 10
142.4499999996456
 20
122.7776208723223
 30
0.0
 40
0.3000000000001819
 50
0.0
 51
90.0
1001
GENIUS_GENOBJ-N-FIL_13
1002
{
1000
OWNER
1000
GEN
1002
}
1001
GENIUS_GENODEF_13
1002
{
1000
HIER
1070
     0
1002
}
1002
{
1000
MANEDIT
1070
     0
1002
}
1002
{
1000
NOSEL
1070
     0
1002
}
1002
{
1000
BEHIND
1070
     0
1002
}
1002
{
1000
OTHER
1070
     0
1002
}
1002
{
1000
REACTOR
1002
}
  0
LINE
  5
1C88
  8
SAPA_PROFIL
 62
     4
 10
142.74999999964569
 20
122.7776208723223
 30
0.0
 11
142.74999999964569
 21
122.12762087232041
 31
0.0
1001
GENIUS_GENOBJ-N-FIL_13
1002
{
1000
OWNER
1000
GEN
1002
}
1001
GENIUS_GENODEF_13
1002
{
1000
HIER
1070
     0
1002
}
1002
{
1000
MANEDIT
1070
     0
1002
}
1002
{
1000
NOSEL
1070
     0
1002
}
1002
{
1000
BEHIND
1070
     0
1002
}
1002
{
1000
OTHER
1070
     0
1002
}
1002
{
1000
REACTOR
1002
}
  0
ARC
  5
1C89
  8
SAPA_PROFIL
 62
     4
 10
143.04999999964619
 20
122.1276208723209
 30
0.0
 40
0.300000000000523
 50
180.00000000010851
 51
270.00000000010863
1001
GENIUS_GENOBJ-N-FIL_13
1002
{
1000
OWNER
1000
GEN
1002
}
1001
GENIUS_GENODEF_13
1002
{
1000
HIER
1070
     0
1002
}
1002
{
1000
MANEDIT
1070
     0
1002
}
1002
{
1000
NOSEL
1070
     0
1002
}
1002
{
1000
BEHIND
1070
     0
1002
}
1002
{
1000
OTHER
1070
     0
1002
}
1002
{
1000
REACTOR
1002
}
  0
LINE
  5
1C8A
  8
SAPA_PROFIL
 62
     4
 10
143.04999999964679
 20
121.8276208723204
 30
0.0
 11
143.94999999964281
 21
121.8276208723213
 31
0.0
1001
GENIUS_GENOBJ-N-FIL_13
1002
{
1000
OWNER
1000
GEN
1002
}
1001
GENIUS_GENODEF_13
1002
{
1000
HIER
1070
     0
1002
}
1002
{
1000
MANEDIT
1070
     0
1002
}
1002
{
1000
NOSEL
1070
     0
1002
}
1002
{
1000
BEHIND
1070
     0
1002
}
1002
{
1000
OTHER
1070
     0
1002
}
1002
{
1000
REACTOR
1002
}
  0
ARC
  5
1C8B
  8
SAPA_PROFIL
 62
     4
 10
143.9499999996433
 20
122.32762087232091
 30
0.0
 40
0.4999999999995453
 50
269.99999999994787
 51
359.99999999994787
1001
GENIUS_GENOBJ-N-FIL_13
1002
{
1000
OWNER
1000
GEN
1002
}
1001
GENIUS_GENODEF_13
1002
{
1000
HIER
1070
     0
1002
}
1002
{
1000
MANEDIT
1070
     0
1002
}
1002
{
1000
NOSEL
1070
     0
1002
}
1002
{
1000
BEHIND
1070
     0
1002
}
1002
{
1000
OTHER
1070
     0
1002
}
1002
{
1000
REACTOR
1002
}
  0
LINE
  5
1C8C
  8
SAPA_PROFIL
 62
     4
 10
144.44999999964281
 20
122.3276208723204
 30
0.0
 11
144.44999999964281
 21
128.3276208723222
 31
0.0
1001
GENIUS_GENOBJ-N-FIL_13
1002
{
1000
OWNER
1000
GEN
1002
}
1001
GENIUS_GENODEF_13
1002
{
1000
HIER
1070
     0
1002
}
1002
{
1000
MANEDIT
1070
     0
1002
}
1002
{
1000
NOSEL
1070
     0
1002
}
1002
{
1000
BEHIND
1070
     0
1002
}
1002
{
1000
OTHER
1070
     0
1002
}
1002
{
1000
REACTOR
1002
}
  0
ARC
  5
1C8D
  8
SAPA_PROFIL
 62
     4
 10
143.94999999964281
 20
128.3276208723222
 30
0.0
 40
0.5
 50
0.0
 51
90.0
1001
GENIUS_GENOBJ-N-FIL_13
1002
{
1000
OWNER
1000
GEN
1002
}
1001
GENIUS_GENODEF_13
1002
{
1000
HIER
1070
     0
1002
}
1002
{
1000
MANEDIT
1070
     0
1002
}
1002
{
1000
NOSEL
1070
     0
1002
}
1002
{
1000
BEHIND
1070
     0
1002
}
1002
{
1000
OTHER
1070
     0
1002
}
1002
{
1000
REACTOR
1002
}
  0
LINE
  5
1C8E
  8
SAPA_PROFIL
 62
     4
 10
143.94999999964281
 20
128.8276208723222
 30
0.0
 11
143.04999999964409
 21
128.8276208723222
 31
0.0
1001
GENIUS_GENOBJ-N-FIL_13
1002
{
1000
OWNER
1000
GEN
1002
}
1001
GENIUS_GENODEF_13
1002
{
1000
HIER
1070
     0
1002
}
1002
{
1000
MANEDIT
1070
     0
1002
}
1002
{
1000
NOSEL
1070
     0
1002
}
1002
{
1000
BEHIND
1070
     0
1002
}
1002
{
1000
OTHER
1070
     0
1002
}
1002
{
1000
REACTOR
1002
}
  0
ARC
  5
1C8F
  8
SAPA_PROFIL
 62
     4
 10
143.0499999996444
 20
128.52762087232259
 30
0.0
 40
0.2999999999996135
 50
90.000000000065128
 51
179.99999999967429
1001
GENIUS_GENOBJ-N-FIL_13
1002
{
1000
OWNER
1000
GEN
1002
}
1001
GENIUS_GENODEF_13
1002
{
1000
HIER
1070
     0
1002
}
1002
{
1000
MANEDIT
1070
     0
1002
}
1002
{
1000
NOSEL
1070
     0
1002
}
1002
{
1000
BEHIND
1070
     0
1002
}
1002
{
1000
OTHER
1070
     0
1002
}
1002
{
1000
REACTOR
1002
}
  0
LINE
  5
1C90
  8
SAPA_PROFIL
 62
     4
 10
142.74999999964481
 20
128.52762087232429
 30
0.0
 11
142.74999999964029
 21
127.8776208723224
 31
0.0
1001
GENIUS_GENOBJ-N-FIL_13
1002
{
1000
OWNER
1000
GEN
1002
}
1001
GENIUS_GENODEF_13
1002
{
1000
HIER
1070
     0
1002
}
1002
{
1000
MANEDIT
1070
     0
1002
}
1002
{
1000
NOSEL
1070
     0
1002
}
1002
{
1000
BEHIND
1070
     0
1002
}
1002
{
1000
OTHER
1070
     0
1002
}
1002
{
1000
REACTOR
1002
}
  0
ARC
  5
1C91
  8
SAPA_PROFIL
 62
     4
 10
142.4499999996402
 20
127.8776208723243
 30
0.0
 40
0.3000000000000682
 50
269.99999999963092
 51
359.99999999963092
1001
GENIUS_GENOBJ-N-FIL_13
1002
{
1000
OWNER
1000
GEN
1002
}
1001
GENIUS_GENODEF_13
1002
{
1000
HIER
1070
     0
1002
}
1002
{
1000
MANEDIT
1070
     0
1002
}
1002
{
1000
NOSEL
1070
     0
1002
}
1002
{
1000
BEHIND
1070
     0
1002
}
1002
{
1000
OTHER
1070
     0
1002
}
1002
{
1000
REACTOR
1002
}
  0
LINE
  5
1C92
  8
SAPA_PROFIL
 62
     4
 10
142.44999999963829
 20
127.5776208723243
 30
0.0
 11
142.24999999964569
 21
127.5776208723254
 31
0.0
1001
GENIUS_GENOBJ-N-FIL_13
1002
{
1000
OWNER
1000
GEN
1002
}
1001
GENIUS_GENODEF_13
1002
{
1000
HIER
1070
     0
1002
}
1002
{
1000
MANEDIT
1070
     0
1002
}
1002
{
1000
NOSEL
1070
     0
1002
}
1002
{
1000
BEHIND
1070
     0
1002
}
1002
{
1000
OTHER
1070
     0
1002
}
1002
{
1000
REACTOR
1002
}
  0
ARC
  5
1C93
  8
SAPA_PROFIL
 62
     4
 10
142.24999999964569
 20
128.07762087232541
 30
0.0
 40
0.5
 50
180.0
 51
270.0
1001
GENIUS_GENOBJ-N-FIL_13
1002
{
1000
OWNER
1000
GEN
1002
}
1001
GENIUS_GENODEF_13
1002
{
1000
HIER
1070
     0
1002
}
1002
{
1000
MANEDIT
1070
     0
1002
}
1002
{
1000
NOSEL
1070
     0
1002
}
1002
{
1000
BEHIND
1070
     0
1002
}
1002
{
1000
OTHER
1070
     0
1002
}
1002
{
1000
REACTOR
1002
}
  0
LINE
  5
1C94
  8
SAPA_PROFIL
 62
     4
 10
141.74999999964569
 20
128.07762087232541
 30
0.0
 11
141.74999999964569
 21
131.07762087232541
 31
0.0
1001
GENIUS_GENOBJ-N-FIL_13
1002
{
1000
OWNER
1000
GEN
1002
}
1001
GENIUS_GENODEF_13
1002
{
1000
HIER
1070
     0
1002
}
1002
{
1000
MANEDIT
1070
     0
1002
}
1002
{
1000
NOSEL
1070
     0
1002
}
1002
{
1000
BEHIND
1070
     0
1002
}
1002
{
1000
OTHER
1070
     0
1002
}
1002
{
1000
REACTOR
1002
}
  0
ARC
  5
1C95
  8
SAPA_PROFIL
 62
     4
 10
142.24999999964569
 20
131.07762087232541
 30
0.0
 40
0.5
 50
90.0
 51
180.0
1001
GENIUS_GENOBJ-N-FIL_13
1002
{
1000
OWNER
1000
GEN
1002
}
1001
GENIUS_GENODEF_13
1002
{
1000
HIER
1070
     0
1002
}
1002
{
1000
MANEDIT
1070
     0
1002
}
1002
{
1000
NOSEL
1070
     0
1002
}
1002
{
1000
BEHIND
1070
     0
1002
}
1002
{
1000
OTHER
1070
     0
1002
}
1002
{
1000
REACTOR
1002
}
  0
LINE
  5
1C96
  8
SAPA_PROFIL
 62
     4
 10
142.24999999964569
 20
131.57762087232541
 30
0.0
 11
142.4499999996456
 21
131.57762087232541
 31
0.0
1001
GENIUS_GENOBJ-N-FIL_13
1002
{
1000
OWNER
1000
GEN
1002
}
1001
GENIUS_GENODEF_13
1002
{
1000
HIER
1070
     0
1002
}
1002
{
1000
MANEDIT
1070
     0
1002
}
1002
{
1000
NOSEL
1070
     0
1002
}
1002
{
1000
BEHIND
1070
     0
1002
}
1002
{
1000
OTHER
1070
     0
1002
}
1002
{
1000
REACTOR
1002
}
  0
ARC
  5
1C97
  8
SAPA_PROFIL
 62
     4
 10
142.4499999996456
 20
131.2776208723252
 30
0.0
 40
0.3000000000001819
 50
0.0
 51
90.0
1001
GENIUS_GENOBJ-N-FIL_13
1002
{
1000
OWNER
1000
GEN
1002
}
1001
GENIUS_GENODEF_13
1002
{
1000
HIER
1070
     0
1002
}
1002
{
1000
MANEDIT
1070
     0
1002
}
1002
{
1000
NOSEL
1070
     0
1002
}
1002
{
1000
BEHIND
1070
     0
1002
}
1002
{
1000
OTHER
1070
     0
1002
}
1002
{
1000
REACTOR
1002
}
  0
LINE
  5
1C98
  8
SAPA_PROFIL
 62
     4
 10
142.74999999964569
 20
131.2776208723252
 30
0.0
 11
142.74999999964569
 21
130.62762087232539
 31
0.0
1001
GENIUS_GENOBJ-N-FIL_13
1002
{
1000
OWNER
1000
GEN
1002
}
1001
GENIUS_GENODEF_13
1002
{
1000
HIER
1070
     0
1002
}
1002
{
1000
MANEDIT
1070
     0
1002
}
1002
{
1000
NOSEL
1070
     0
1002
}
1002
{
1000
BEHIND
1070
     0
1002
}
1002
{
1000
OTHER
1070
     0
1002
}
1002
{
1000
REACTOR
1002
}
  0
ARC
  5
1C99
  8
SAPA_PROFIL
 62
     4
 10
143.04999999964619
 20
130.62762087232591
 30
0.0
 40
0.300000000000523
 50
180.00000000010851
 51
270.00000000010863
1001
GENIUS_GENOBJ-N-FIL_13
1002
{
1000
OWNER
1000
GEN
1002
}
1001
GENIUS_GENODEF_13
1002
{
1000
HIER
1070
     0
1002
}
1002
{
1000
MANEDIT
1070
     0
1002
}
1002
{
1000
NOSEL
1070
     0
1002
}
1002
{
1000
BEHIND
1070
     0
1002
}
1002
{
1000
OTHER
1070
     0
1002
}
1002
{
1000
REACTOR
1002
}
  0
LINE
  5
1C9A
  8
SAPA_PROFIL
 62
     4
 10
143.04999999964679
 20
130.32762087232541
 30
0.0
 11
143.94999999964281
 21
130.32762087232541
 31
0.0
1001
GENIUS_GENOBJ-N-FIL_13
1002
{
1000
OWNER
1000
GEN
1002
}
1001
GENIUS_GENODEF_13
1002
{
1000
HIER
1070
     0
1002
}
1002
{
1000
MANEDIT
1070
     0
1002
}
1002
{
1000
NOSEL
1070
     0
1002
}
1002
{
1000
BEHIND
1070
     0
1002
}
1002
{
1000
OTHER
1070
     0
1002
}
1002
{
1000
REACTOR
1002
}
  0
ARC
  5
1C9B
  8
SAPA_PROFIL
 62
     4
 10
143.94999999964281
 20
130.82762087232541
 30
0.0
 40
0.5
 50
270.0
 51
0.0
1001
GENIUS_GENOBJ-N-FIL_13
1002
{
1000
OWNER
1000
GEN
1002
}
1001
GENIUS_GENODEF_13
1002
{
1000
HIER
1070
     0
1002
}
1002
{
1000
MANEDIT
1070
     0
1002
}
1002
{
1000
NOSEL
1070
     0
1002
}
1002
{
1000
BEHIND
1070
     0
1002
}
1002
{
1000
OTHER
1070
     0
1002
}
1002
{
1000
REACTOR
1002
}
  0
LINE
  5
1C9C
  8
SAPA_PROFIL
 62
     4
 10
144.44999999964281
 20
130.82762087232541
 30
0.0
 11
144.44999999964281
 21
136.82762087232541
 31
0.0
1001
GENIUS_GENOBJ-N-FIL_13
1002
{
1000
OWNER
1000
GEN
1002
}
1001
GENIUS_GENODEF_13
1002
{
1000
HIER
1070
     0
1002
}
1002
{
1000
MANEDIT
1070
     0
1002
}
1002
{
1000
NOSEL
1070
     0
1002
}
1002
{
1000
BEHIND
1070
     0
1002
}
1002
{
1000
OTHER
1070
     0
1002
}
1002
{
1000
REACTOR
1002
}
  0
ARC
  5
1C9D
  8
SAPA_PROFIL
 62
     4
 10
143.94999999964281
 20
136.82762087232541
 30
0.0
 40
0.5
 50
0.0
 51
90.0
1001
GENIUS_GENOBJ-N-FIL_13
1002
{
1000
OWNER
1000
GEN
1002
}
1001
GENIUS_GENODEF_13
1002
{
1000
HIER
1070
     0
1002
}
1002
{
1000
MANEDIT
1070
     0
1002
}
1002
{
1000
NOSEL
1070
     0
1002
}
1002
{
1000
BEHIND
1070
     0
1002
}
1002
{
1000
OTHER
1070
     0
1002
}
1002
{
1000
REACTOR
1002
}
  0
LINE
  5
1C9E
  8
SAPA_PROFIL
 62
     4
 10
143.94999999964281
 20
137.32762087232541
 30
0.0
 11
143.04999999964679
 21
137.32762087232541
 31
0.0
1001
GENIUS_GENOBJ-N-FIL_13
1002
{
1000
OWNER
1000
GEN
1002
}
1001
GENIUS_GENODEF_13
1002
{
1000
HIER
1070
     0
1002
}
1002
{
1000
MANEDIT
1070
     0
1002
}
1002
{
1000
NOSEL
1070
     0
1002
}
1002
{
1000
BEHIND
1070
     0
1002
}
1002
{
1000
OTHER
1070
     0
1002
}
1002
{
1000
REACTOR
1002
}
  0
ARC
  5
1C9F
  8
SAPA_PROFIL
 62
     4
 10
143.04999999964639
 20
137.0276208723248
 30
0.0
 40
0.3000000000006366
 50
89.999999999913143
 51
179.99999999991309
1001
GENIUS_GENOBJ-N-FIL_13
1002
{
1000
OWNER
1000
GEN
1002
}
1001
GENIUS_GENODEF_13
1002
{
1000
HIER
1070
     0
1002
}
1002
{
1000
MANEDIT
1070
     0
1002
}
1002
{
1000
NOSEL
1070
     0
1002
}
1002
{
1000
BEHIND
1070
     0
1002
}
1002
{
1000
OTHER
1070
     0
1002
}
1002
{
1000
REACTOR
1002
}
  0
LINE
  5
1CA0
  8
SAPA_PROFIL
 62
     4
 10
142.74999999964569
 20
137.0276208723252
 30
0.0
 11
142.74999999964569
 21
136.37762087232539
 31
0.0
1001
GENIUS_GENOBJ-N-FIL_13
1002
{
1000
OWNER
1000
GEN
1002
}
1001
GENIUS_GENODEF_13
1002
{
1000
HIER
1070
     0
1002
}
1002
{
1000
MANEDIT
1070
     0
1002
}
1002
{
1000
NOSEL
1070
     0
1002
}
1002
{
1000
BEHIND
1070
     0
1002
}
1002
{
1000
OTHER
1070
     0
1002
}
1002
{
1000
REACTOR
1002
}
  0
ARC
  5
1CA1
  8
SAPA_PROFIL
 62
     4
 10
142.44999999964571
 20
136.37762087232551
 30
0.0
 40
0.3000000000000682
 50
269.99999999997829
 51
359.99999999997829
1001
GENIUS_GENOBJ-N-FIL_13
1002
{
1000
OWNER
1000
GEN
1002
}
1001
GENIUS_GENODEF_13
1002
{
1000
HIER
1070
     0
1002
}
1002
{
1000
MANEDIT
1070
     0
1002
}
1002
{
1000
NOSEL
1070
     0
1002
}
1002
{
1000
BEHIND
1070
     0
1002
}
1002
{
1000
OTHER
1070
     0
1002
}
1002
{
1000
REACTOR
1002
}
  0
LINE
  5
1CA2
  8
SAPA_PROFIL
 62
     4
 10
142.4499999996456
 20
136.07762087232541
 30
0.0
 11
142.24999999964569
 21
136.07762087232541
 31
0.0
1001
GENIUS_GENOBJ-N-FIL_13
1002
{
1000
OWNER
1000
GEN
1002
}
1001
GENIUS_GENODEF_13
1002
{
1000
HIER
1070
     0
1002
}
1002
{
1000
MANEDIT
1070
     0
1002
}
1002
{
1000
NOSEL
1070
     0
1002
}
1002
{
1000
BEHIND
1070
     0
1002
}
1002
{
1000
OTHER
1070
     0
1002
}
1002
{
1000
REACTOR
1002
}
  0
ARC
  5
1CA3
  8
SAPA_PROFIL
 62
     4
 10
142.24999999964569
 20
136.57762087232541
 30
0.0
 40
0.5
 50
180.0
 51
270.0
1001
GENIUS_GENOBJ-N-FIL_13
1002
{
1000
OWNER
1000
GEN
1002
}
1001
GENIUS_GENODEF_13
1002
{
1000
HIER
1070
     0
1002
}
1002
{
1000
MANEDIT
1070
     0
1002
}
1002
{
1000
NOSEL
1070
     0
1002
}
1002
{
1000
BEHIND
1070
     0
1002
}
1002
{
1000
OTHER
1070
     0
1002
}
1002
{
1000
REACTOR
1002
}
  0
LINE
  5
1CA4
  8
SAPA_PROFIL
 62
     4
 10
141.74999999964569
 20
136.57762087232541
 30
0.0
 11
141.7499999996466
 21
138.32762087232541
 31
0.0
1001
GENIUS_GENOBJ-N-FIL_13
1002
{
1000
OWNER
1000
GEN
1002
}
1001
GENIUS_GENODEF_13
1002
{
1000
HIER
1070
     0
1002
}
1002
{
1000
MANEDIT
1070
     0
1002
}
1002
{
1000
NOSEL
1070
     0
1002
}
1002
{
1000
BEHIND
1070
     0
1002
}
1002
{
1000
OTHER
1070
     0
1002
}
1002
{
1000
REACTOR
1002
}
  0
ARC
  5
1CA5
  8
SAPA_PROFIL
 62
     4
 10
142.24999999981389
 20
138.32762087215821
 30
0.0
 40
0.5000000001672335
 50
89.999999980914637
 51
179.99999998083641
1001
GENIUS_GENOBJ-N-FIL_13
1002
{
1000
OWNER
1000
GEN
1002
}
1001
GENIUS_GENODEF_13
1002
{
1000
HIER
1070
     0
1002
}
1002
{
1000
MANEDIT
1070
     0
1002
}
1002
{
1000
NOSEL
1070
     0
1002
}
1002
{
1000
BEHIND
1070
     0
1002
}
1002
{
1000
OTHER
1070
     0
1002
}
1002
{
1000
REACTOR
1002
}
  0
LINE
  5
1CA6
  8
SAPA_PROFIL
 62
     4
 10
142.24999999998039
 20
138.82762087232541
 30
0.0
 11
155.24999999998769
 21
138.82762087232561
 31
0.0
1001
GENIUS_GENOBJ-N-FIL_13
1002
{
1000
OWNER
1000
GEN
1002
}
1001
GENIUS_GENODEF_13
1002
{
1000
HIER
1070
     0
1002
}
1002
{
1000
MANEDIT
1070
     0
1002
}
1002
{
1000
NOSEL
1070
     0
1002
}
1002
{
1000
BEHIND
1070
     0
1002
}
1002
{
1000
OTHER
1070
     0
1002
}
1002
{
1000
REACTOR
1002
}
  0
ARC
  5
1CA7
  8
SAPA_PROFIL
 62
     4
 10
155.25000000012679
 20
138.32762087218831
 30
0.0
 40
0.5000000001373337
 50
0.0000000159196685
 51
90.00000001594573
1001
GENIUS_GENOBJ-N-FIL_13
1002
{
1000
OWNER
1000
GEN
1002
}
1001
GENIUS_GENODEF_13
1002
{
1000
HIER
1070
     0
1002
}
1002
{
1000
MANEDIT
1070
     0
1002
}
1002
{
1000
NOSEL
1070
     0
1002
}
1002
{
1000
BEHIND
1070
     0
1002
}
1002
{
1000
OTHER
1070
     0
1002
}
1002
{
1000
REACTOR
1002
}
  0
LINE
  5
1CA8
  8
SAPA_PROFIL
 62
     4
 10
155.75000000026421
 20
138.3276208723272
 30
0.0
 11
155.75000000026421
 21
136.5776208723272
 31
0.0
1001
GENIUS_GENOBJ-N-FIL_13
1002
{
1000
OWNER
1000
GEN
1002
}
1001
GENIUS_GENODEF_13
1002
{
1000
HIER
1070
     0
1002
}
1002
{
1000
MANEDIT
1070
     0
1002
}
1002
{
1000
NOSEL
1070
     0
1002
}
1002
{
1000
BEHIND
1070
     0
1002
}
1002
{
1000
OTHER
1070
     0
1002
}
1002
{
1000
REACTOR
1002
}
  0
ARC
  5
1CA9
  8
SAPA_PROFIL
 62
     4
 10
155.25000000026421
 20
136.5776208723272
 30
0.0
 40
0.5
 50
270.0
 51
0.0
1001
GENIUS_GENOBJ-N-FIL_13
1002
{
1000
OWNER
1000
GEN
1002
}
1001
GENIUS_GENODEF_13
1002
{
1000
HIER
1070
     0
1002
}
1002
{
1000
MANEDIT
1070
     0
1002
}
1002
{
1000
NOSEL
1070
     0
1002
}
1002
{
1000
BEHIND
1070
     0
1002
}
1002
{
1000
OTHER
1070
     0
1002
}
1002
{
1000
REACTOR
1002
}
  0
LINE
  5
1CAA
  8
SAPA_PROFIL
 62
     4
 10
155.25000000026421
 20
136.0776208723272
 30
0.0
 11
155.05000000026439
 21
136.0776208723272
 31
0.0
1001
GENIUS_GENOBJ-N-FIL_13
1002
{
1000
OWNER
1000
GEN
1002
}
1001
GENIUS_GENODEF_13
1002
{
1000
HIER
1070
     0
1002
}
1002
{
1000
MANEDIT
1070
     0
1002
}
1002
{
1000
NOSEL
1070
     0
1002
}
1002
{
1000
BEHIND
1070
     0
1002
}
1002
{
1000
OTHER
1070
     0
1002
}
1002
{
1000
REACTOR
1002
}
  0
ARC
  5
1CAB
  8
SAPA_PROFIL
 62
     4
 10
155.05000000026439
 20
136.37762087232741
 30
0.0
 40
0.3000000000001819
 50
180.0
 51
270.0
1001
GENIUS_GENOBJ-N-FIL_13
1002
{
1000
OWNER
1000
GEN
1002
}
1001
GENIUS_GENODEF_13
1002
{
1000
HIER
1070
     0
1002
}
1002
{
1000
MANEDIT
1070
     0
1002
}
1002
{
1000
NOSEL
1070
     0
1002
}
1002
{
1000
BEHIND
1070
     0
1002
}
1002
{
1000
OTHER
1070
     0
1002
}
1002
{
1000
REACTOR
1002
}
  0
LINE
  5
1CAC
  8
SAPA_PROFIL
 62
     4
 10
154.75000000026421
 20
136.37762087232741
 30
0.0
 11
154.75000000026421
 21
137.0276208723273
 31
0.0
1001
GENIUS_GENOBJ-N-FIL_13
1002
{
1000
OWNER
1000
GEN
1002
}
1001
GENIUS_GENODEF_13
1002
{
1000
HIER
1070
     0
1002
}
1002
{
1000
MANEDIT
1070
     0
1002
}
1002
{
1000
NOSEL
1070
     0
1002
}
1002
{
1000
BEHIND
1070
     0
1002
}
1002
{
1000
OTHER
1070
     0
1002
}
1002
{
1000
REACTOR
1002
}
  0
ARC
  5
1CAD
  8
SAPA_PROFIL
 62
     4
 10
154.45000000026459
 20
137.02762087232759
 30
0.0
 40
0.2999999999996135
 50
359.99999999993491
 51
89.999999999934857
1001
GENIUS_GENOBJ-N-FIL_13
1002
{
1000
OWNER
1000
GEN
1002
}
1001
GENIUS_GENODEF_13
1002
{
1000
HIER
1070
     0
1002
}
1002
{
1000
MANEDIT
1070
     0
1002
}
1002
{
1000
NOSEL
1070
     0
1002
}
1002
{
1000
BEHIND
1070
     0
1002
}
1002
{
1000
OTHER
1070
     0
1002
}
1002
{
1000
REACTOR
1002
}
  0
LINE
  5
1CAE
  8
SAPA_PROFIL
 62
     4
 10
154.45000000026491
 20
137.3276208723272
 30
0.0
 11
153.55000000026709
 21
137.3276208723272
 31
0.0
1001
GENIUS_GENOBJ-N-FIL_13
1002
{
1000
OWNER
1000
GEN
1002
}
1001
GENIUS_GENODEF_13
1002
{
1000
HIER
1070
     0
1002
}
1002
{
1000
MANEDIT
1070
     0
1002
}
1002
{
1000
NOSEL
1070
     0
1002
}
1002
{
1000
BEHIND
1070
     0
1002
}
1002
{
1000
OTHER
1070
     0
1002
}
1002
{
1000
REACTOR
1002
}
  0
ARC
  5
1CAF
  8
SAPA_PROFIL
 62
     4
 10
153.55000000026709
 20
136.8276208723272
 30
0.0
 40
0.5
 50
90.0
 51
180.0
1001
GENIUS_GENOBJ-N-FIL_13
1002
{
1000
OWNER
1000
GEN
1002
}
1001
GENIUS_GENODEF_13
1002
{
1000
HIER
1070
     0
1002
}
1002
{
1000
MANEDIT
1070
     0
1002
}
1002
{
1000
NOSEL
1070
     0
1002
}
1002
{
1000
BEHIND
1070
     0
1002
}
1002
{
1000
OTHER
1070
     0
1002
}
1002
{
1000
REACTOR
1002
}
  0
LINE
  5
1CB0
  8
SAPA_PROFIL
 62
     4
 10
153.05000000026709
 20
136.8276208723272
 30
0.0
 11
153.05000000026709
 21
130.8276208723272
 31
0.0
1001
GENIUS_GENOBJ-N-FIL_13
1002
{
1000
OWNER
1000
GEN
1002
}
1001
GENIUS_GENODEF_13
1002
{
1000
HIER
1070
     0
1002
}
1002
{
1000
MANEDIT
1070
     0
1002
}
1002
{
1000
NOSEL
1070
     0
1002
}
1002
{
1000
BEHIND
1070
     0
1002
}
1002
{
1000
OTHER
1070
     0
1002
}
1002
{
1000
REACTOR
1002
}
  0
ARC
  5
1CB1
  8
SAPA_PROFIL
 62
     4
 10
153.55000000026709
 20
130.8276208723272
 30
0.0
 40
0.5
 50
180.0
 51
270.0
1001
GENIUS_GENOBJ-N-FIL_13
1002
{
1000
OWNER
1000
GEN
1002
}
1001
GENIUS_GENODEF_13
1002
{
1000
HIER
1070
     0
1002
}
1002
{
1000
MANEDIT
1070
     0
1002
}
1002
{
1000
NOSEL
1070
     0
1002
}
1002
{
1000
BEHIND
1070
     0
1002
}
1002
{
1000
OTHER
1070
     0
1002
}
1002
{
1000
REACTOR
1002
}
  0
LINE
  5
1CB2
  8
SAPA_PROFIL
 62
     4
 10
153.55000000026709
 20
130.3276208723272
 30
0.0
 11
154.45000000026491
 21
130.3276208723272
 31
0.0
1001
GENIUS_GENOBJ-N-FIL_13
1002
{
1000
OWNER
1000
GEN
1002
}
1001
GENIUS_GENODEF_13
1002
{
1000
HIER
1070
     0
1002
}
1002
{
1000
MANEDIT
1070
     0
1002
}
1002
{
1000
NOSEL
1070
     0
1002
}
1002
{
1000
BEHIND
1070
     0
1002
}
1002
{
1000
OTHER
1070
     0
1002
}
1002
{
1000
REACTOR
1002
}
  0
ARC
  5
1CB3
  8
SAPA_PROFIL
 62
     4
 10
154.45000000026451
 20
130.62762087232699
 30
0.0
 40
0.2999999999997271
 50
270.0000000000868
 51
0.0000000000868503
1001
GENIUS_GENOBJ-N-FIL_13
1002
{
1000
OWNER
1000
GEN
1002
}
1001
GENIUS_GENODEF_13
1002
{
1000
HIER
1070
     0
1002
}
1002
{
1000
MANEDIT
1070
     0
1002
}
1002
{
1000
NOSEL
1070
     0
1002
}
1002
{
1000
BEHIND
1070
     0
1002
}
1002
{
1000
OTHER
1070
     0
1002
}
1002
{
1000
REACTOR
1002
}
  0
LINE
  5
1CB4
  8
SAPA_PROFIL
 62
     4
 10
154.75000000026421
 20
130.62762087232741
 30
0.0
 11
154.75000000026421
 21
131.2776208723273
 31
0.0
1001
GENIUS_GENOBJ-N-FIL_13
1002
{
1000
OWNER
1000
GEN
1002
}
1001
GENIUS_GENODEF_13
1002
{
1000
HIER
1070
     0
1002
}
1002
{
1000
MANEDIT
1070
     0
1002
}
1002
{
1000
NOSEL
1070
     0
1002
}
1002
{
1000
BEHIND
1070
     0
1002
}
1002
{
1000
OTHER
1070
     0
1002
}
1002
{
1000
REACTOR
1002
}
  0
ARC
  5
1CB5
  8
SAPA_PROFIL
 62
     4
 10
155.05000000026419
 20
131.27762087232719
 30
0.0
 40
0.3000000000000682
 50
89.999999999978314
 51
179.99999999997829
1001
GENIUS_GENOBJ-N-FIL_13
1002
{
1000
OWNER
1000
GEN
1002
}
1001
GENIUS_GENODEF_13
1002
{
1000
HIER
1070
     0
1002
}
1002
{
1000
MANEDIT
1070
     0
1002
}
1002
{
1000
NOSEL
1070
     0
1002
}
1002
{
1000
BEHIND
1070
     0
1002
}
1002
{
1000
OTHER
1070
     0
1002
}
1002
{
1000
REACTOR
1002
}
  0
LINE
  5
1CB6
  8
SAPA_PROFIL
 62
     4
 10
155.05000000026439
 20
131.5776208723272
 30
0.0
 11
155.25000000026421
 21
131.5776208723272
 31
0.0
1001
GENIUS_GENOBJ-N-FIL_13
1002
{
1000
OWNER
1000
GEN
1002
}
1001
GENIUS_GENODEF_13
1002
{
1000
HIER
1070
     0
1002
}
1002
{
1000
MANEDIT
1070
     0
1002
}
1002
{
1000
NOSEL
1070
     0
1002
}
1002
{
1000
BEHIND
1070
     0
1002
}
1002
{
1000
OTHER
1070
     0
1002
}
1002
{
1000
REACTOR
1002
}
  0
ARC
  5
1CB7
  8
SAPA_PROFIL
 62
     4
 10
155.25000000026421
 20
131.0776208723272
 30
0.0
 40
0.5
 50
0.0
 51
90.0
1001
GENIUS_GENOBJ-N-FIL_13
1002
{
1000
OWNER
1000
GEN
1002
}
1001
GENIUS_GENODEF_13
1002
{
1000
HIER
1070
     0
1002
}
1002
{
1000
MANEDIT
1070
     0
1002
}
1002
{
1000
NOSEL
1070
     0
1002
}
1002
{
1000
BEHIND
1070
     0
1002
}
1002
{
1000
OTHER
1070
     0
1002
}
1002
{
1000
REACTOR
1002
}
  0
LINE
  5
1CB8
  8
SAPA_PROFIL
 62
     4
 10
155.75000000026421
 20
131.0776208723272
 30
0.0
 11
155.75000000026421
 21
128.0776208723272
 31
0.0
1001
GENIUS_GENOBJ-N-FIL_13
1002
{
1000
OWNER
1000
GEN
1002
}
1001
GENIUS_GENODEF_13
1002
{
1000
HIER
1070
     0
1002
}
1002
{
1000
MANEDIT
1070
     0
1002
}
1002
{
1000
NOSEL
1070
     0
1002
}
1002
{
1000
BEHIND
1070
     0
1002
}
1002
{
1000
OTHER
1070
     0
1002
}
1002
{
1000
REACTOR
1002
}
  0
ARC
  5
1CB9
  8
SAPA_PROFIL
 62
     4
 10
155.25000000026421
 20
128.0776208723272
 30
0.0
 40
0.5
 50
270.0
 51
0.0
1001
GENIUS_GENOBJ-N-FIL_13
1002
{
1000
OWNER
1000
GEN
1002
}
1001
GENIUS_GENODEF_13
1002
{
1000
HIER
1070
     0
1002
}
1002
{
1000
MANEDIT
1070
     0
1002
}
1002
{
1000
NOSEL
1070
     0
1002
}
1002
{
1000
BEHIND
1070
     0
1002
}
1002
{
1000
OTHER
1070
     0
1002
}
1002
{
1000
REACTOR
1002
}
  0
LINE
  5
1CBA
  8
SAPA_PROFIL
 62
     4
 10
155.25000000026421
 20
127.5776208723272
 30
0.0
 11
155.05000000027161
 21
127.57762087232609
 31
0.0
1001
GENIUS_GENOBJ-N-FIL_13
1002
{
1000
OWNER
1000
GEN
1002
}
1001
GENIUS_GENODEF_13
1002
{
1000
HIER
1070
     0
1002
}
1002
{
1000
MANEDIT
1070
     0
1002
}
1002
{
1000
NOSEL
1070
     0
1002
}
1002
{
1000
BEHIND
1070
     0
1002
}
1002
{
1000
OTHER
1070
     0
1002
}
1002
{
1000
REACTOR
1002
}
  0
ARC
  5
1CBB
  8
SAPA_PROFIL
 62
     4
 10
155.05000000026979
 20
127.8776208723263
 30
0.0
 40
0.3000000000001819
 50
180.0000000003908
 51
270.00000000034743
1001
GENIUS_GENOBJ-N-FIL_13
1002
{
1000
OWNER
1000
GEN
1002
}
1001
GENIUS_GENODEF_13
1002
{
1000
HIER
1070
     0
1002
}
1002
{
1000
MANEDIT
1070
     0
1002
}
1002
{
1000
NOSEL
1070
     0
1002
}
1002
{
1000
BEHIND
1070
     0
1002
}
1002
{
1000
OTHER
1070
     0
1002
}
1002
{
1000
REACTOR
1002
}
  0
LINE
  5
1CBC
  8
SAPA_PROFIL
 62
     4
 10
154.75000000026961
 20
127.8776208723242
 30
0.0
 11
154.75000000026691
 21
128.5276208723252
 31
0.0
1001
GENIUS_GENOBJ-N-FIL_13
1002
{
1000
OWNER
1000
GEN
1002
}
1001
GENIUS_GENODEF_13
1002
{
1000
HIER
1070
     0
1002
}
1002
{
1000
MANEDIT
1070
     0
1002
}
1002
{
1000
NOSEL
1070
     0
1002
}
1002
{
1000
BEHIND
1070
     0
1002
}
1002
{
1000
OTHER
1070
     0
1002
}
1002
{
1000
REACTOR
1002
}
  0
ARC
  5
1CBD
  8
SAPA_PROFIL
 62
     4
 10
154.45000000026641
 20
128.52762087232381
 30
0.0
 40
0.300000000000523
 50
0.0000000002822636
 51
90.000000000108557
1001
GENIUS_GENOBJ-N-FIL_13
1002
{
1000
OWNER
1000
GEN
1002
}
1001
GENIUS_GENODEF_13
1002
{
1000
HIER
1070
     0
1002
}
1002
{
1000
MANEDIT
1070
     0
1002
}
1002
{
1000
NOSEL
1070
     0
1002
}
1002
{
1000
BEHIND
1070
     0
1002
}
1002
{
1000
OTHER
1070
     0
1002
}
1002
{
1000
REACTOR
1002
}
  0
LINE
  5
1CBE
  8
SAPA_PROFIL
 62
     4
 10
154.45000000026579
 20
128.8276208723243
 30
0.0
 11
153.55000000026709
 21
128.8276208723243
 31
0.0
1001
GENIUS_GENOBJ-N-FIL_13
1002
{
1000
OWNER
1000
GEN
1002
}
1001
GENIUS_GENODEF_13
1002
{
1000
HIER
1070
     0
1002
}
1002
{
1000
MANEDIT
1070
     0
1002
}
1002
{
1000
NOSEL
1070
     0
1002
}
1002
{
1000
BEHIND
1070
     0
1002
}
1002
{
1000
OTHER
1070
     0
1002
}
1002
{
1000
REACTOR
1002
}
  0
ARC
  5
1CBF
  8
SAPA_PROFIL
 62
     4
 10
153.55000000026709
 20
128.3276208723243
 30
0.0
 40
0.5
 50
90.0
 51
180.0
1001
GENIUS_GENOBJ-N-FIL_13
1002
{
1000
OWNER
1000
GEN
1002
}
1001
GENIUS_GENODEF_13
1002
{
1000
HIER
1070
     0
1002
}
1002
{
1000
MANEDIT
1070
     0
1002
}
1002
{
1000
NOSEL
1070
     0
1002
}
1002
{
1000
BEHIND
1070
     0
1002
}
1002
{
1000
OTHER
1070
     0
1002
}
1002
{
1000
REACTOR
1002
}
  0
LINE
  5
1CC0
  8
SAPA_PROFIL
 62
     4
 10
153.05000000026709
 20
128.3276208723243
 30
0.0
 11
153.05000000027439
 21
122.3276208723222
 31
0.0
1001
GENIUS_GENOBJ-N-FIL_13
1002
{
1000
OWNER
1000
GEN
1002
}
1001
GENIUS_GENODEF_13
1002
{
1000
HIER
1070
     0
1002
}
1002
{
1000
MANEDIT
1070
     0
1002
}
1002
{
1000
NOSEL
1070
     0
1002
}
1002
{
1000
BEHIND
1070
     0
1002
}
1002
{
1000
OTHER
1070
     0
1002
}
1002
{
1000
REACTOR
1002
}
  0
ARC
  5
1CC1
  8
SAPA_PROFIL
 62
     4
 10
153.55000000027439
 20
122.3276208723222
 30
0.0
 40
0.5
 50
180.0
 51
270.0
1001
GENIUS_GENOBJ-N-FIL_13
1002
{
1000
OWNER
1000
GEN
1002
}
1001
GENIUS_GENODEF_13
1002
{
1000
HIER
1070
     0
1002
}
1002
{
1000
MANEDIT
1070
     0
1002
}
1002
{
1000
NOSEL
1070
     0
1002
}
1002
{
1000
BEHIND
1070
     0
1002
}
1002
{
1000
OTHER
1070
     0
1002
}
1002
{
1000
REACTOR
1002
}
  0
LINE
  5
1CC2
  8
SAPA_PROFIL
 62
     4
 10
153.55000000027439
 20
121.8276208723222
 30
0.0
 11
154.4500000002713
 21
121.8276208723222
 31
0.0
1001
GENIUS_GENOBJ-N-FIL_13
1002
{
1000
OWNER
1000
GEN
1002
}
1001
GENIUS_GENODEF_13
1002
{
1000
HIER
1070
     0
1002
}
1002
{
1000
MANEDIT
1070
     0
1002
}
1002
{
1000
NOSEL
1070
     0
1002
}
1002
{
1000
BEHIND
1070
     0
1002
}
1002
{
1000
OTHER
1070
     0
1002
}
1002
{
1000
REACTOR
1002
}
  0
ARC
  5
1CC3
  8
SAPA_PROFIL
 62
     4
 10
154.4500000002713
 20
122.1276208723224
 30
0.0
 40
0.3000000000001819
 50
270.0
 51
0.0
1001
GENIUS_GENOBJ-N-FIL_13
1002
{
1000
OWNER
1000
GEN
1002
}
1001
GENIUS_GENODEF_13
1002
{
1000
HIER
1070
     0
1002
}
1002
{
1000
MANEDIT
1070
     0
1002
}
1002
{
1000
NOSEL
1070
     0
1002
}
1002
{
1000
BEHIND
1070
     0
1002
}
1002
{
1000
OTHER
1070
     0
1002
}
1002
{
1000
REACTOR
1002
}
  0
LINE
  5
1CC4
  8
SAPA_PROFIL
 62
     4
 10
154.75000000027151
 20
122.1276208723224
 30
0.0
 11
154.75000000027151
 21
122.77762087232431
 31
0.0
1001
GENIUS_GENOBJ-N-FIL_13
1002
{
1000
OWNER
1000
GEN
1002
}
1001
GENIUS_GENODEF_13
1002
{
1000
HIER
1070
     0
1002
}
1002
{
1000
MANEDIT
1070
     0
1002
}
1002
{
1000
NOSEL
1070
     0
1002
}
1002
{
1000
BEHIND
1070
     0
1002
}
1002
{
1000
OTHER
1070
     0
1002
}
1002
{
1000
REACTOR
1002
}
  0
ARC
  5
1CC5
  8
SAPA_PROFIL
 62
     4
 10
155.0500000002715
 20
122.77762087232421
 30
0.0
 40
0.3000000000000682
 50
89.999999999978314
 51
179.99999999997829
1001
GENIUS_GENOBJ-N-FIL_13
1002
{
1000
OWNER
1000
GEN
1002
}
1001
GENIUS_GENODEF_13
1002
{
1000
HIER
1070
     0
1002
}
1002
{
1000
MANEDIT
1070
     0
1002
}
1002
{
1000
NOSEL
1070
     0
1002
}
1002
{
1000
BEHIND
1070
     0
1002
}
1002
{
1000
OTHER
1070
     0
1002
}
1002
{
1000
REACTOR
1002
}
  0
LINE
  5
1CC6
  8
SAPA_PROFIL
 62
     4
 10
155.05000000027161
 20
123.0776208723243
 30
0.0
 11
155.25000000027151
 21
123.0776208723243
 31
0.0
1001
GENIUS_GENOBJ-N-FIL_13
1002
{
1000
OWNER
1000
GEN
1002
}
1001
GENIUS_GENODEF_13
1002
{
1000
HIER
1070
     0
1002
}
1002
{
1000
MANEDIT
1070
     0
1002
}
1002
{
1000
NOSEL
1070
     0
1002
}
1002
{
1000
BEHIND
1070
     0
1002
}
1002
{
1000
OTHER
1070
     0
1002
}
1002
{
1000
REACTOR
1002
}
  0
ARC
  5
1CC7
  8
SAPA_PROFIL
 62
     4
 10
155.25000000027151
 20
122.5776208723243
 30
0.0
 40
0.5
 50
0.0
 51
90.0
1001
GENIUS_GENOBJ-N-FIL_13
1002
{
1000
OWNER
1000
GEN
1002
}
1001
GENIUS_GENODEF_13
1002
{
1000
HIER
1070
     0
1002
}
1002
{
1000
MANEDIT
1070
     0
1002
}
1002
{
1000
NOSEL
1070
     0
1002
}
1002
{
1000
BEHIND
1070
     0
1002
}
1002
{
1000
OTHER
1070
     0
1002
}
1002
{
1000
REACTOR
1002
}
  0
LINE
  5
1CC8
  8
SAPA_PROFIL
 62
     4
 10
155.75000000027151
 20
122.5776208723243
 30
0.0
 11
155.7500000001896
 21
96.779885845400486
 31
0.0
1001
GENIUS_GENOBJ-N-FIL_13
1002
{
1000
OWNER
1000
GEN
1002
}
1001
GENIUS_GENODEF_13
1002
{
1000
HIER
1070
     0
1002
}
1002
{
1000
MANEDIT
1070
     0
1002
}
1002
{
1000
NOSEL
1070
     0
1002
}
1002
{
1000
BEHIND
1070
     0
1002
}
1002
{
1000
OTHER
1070
     0
1002
}
1002
{
1000
REACTOR
1002
}
  0
ARC
  5
1CC9
  8
SAPA_PROFIL
 62
     4
 10
156.95000000018939
 20
96.779885845396393
 30
0.0
 40
1.1999999999998181
 50
179.9999999998046
 51
270.0
1001
GENIUS_GENOBJ-N-FIL_13
1002
{
1000
OWNER
1000
GEN
1002
}
1001
GENIUS_GENODEF_13
1002
{
1000
HIER
1070
     0
1002
}
1002
{
1000
MANEDIT
1070
     0
1002
}
1002
{
1000
NOSEL
1070
     0
1002
}
1002
{
1000
BEHIND
1070
     0
1002
}
1002
{
1000
OTHER
1070
     0
1002
}
1002
{
1000
REACTOR
1002
}
  0
LINE
  5
1CCA
  8
SAPA_PROFIL
 62
     4
 10
156.95000000018939
 20
95.579885845396575
 30
0.0
 11
159.67848135026949
 21
95.579885845396333
 31
0.0
1001
GENIUS_GENOBJ-N-FIL_13
1002
{
1000
OWNER
1000
GEN
1002
}
1001
GENIUS_GENODEF_13
1002
{
1000
HIER
1070
     0
1002
}
1002
{
1000
MANEDIT
1070
     0
1002
}
1002
{
1000
NOSEL
1070
     0
1002
}
1002
{
1000
BEHIND
1070
     0
1002
}
1002
{
1000
OTHER
1070
     0
1002
}
1002
{
1000
REACTOR
1002
}
  0
LINE
  5
1CCB
  8
SAPA_PROFIL
 62
     4
 10
152.04999993222421
 20
120.5433594018067
 30
0.0
 11
144.5499999316657
 21
120.5433594018026
 31
0.0
  0
ARC
  5
1CCC
  8
SAPA_PROFIL
 62
     4
 10
144.5499999316657
 20
119.5433594018026
 30
0.0
 40
1.0
 50
90.0
 51
180.0
  0
LINE
  5
1CCD
  8
SAPA_PROFIL
 62
     4
 10
143.5499999316657
 20
119.5433594018026
 30
0.0
 11
143.54999993165029
 21
96.395624374878935
 31
0.0
  0
ARC
  5
1CCE
  8
SAPA_PROFIL
 62
     4
 10
144.3499999316505
 20
96.395624374878935
 30
0.0
 40
0.8000000000001818
 50
180.0
 51
270.0
  0
LINE
  5
1CCF
  8
SAPA_PROFIL
 62
     4
 10
144.3499999316505
 20
95.595624374878739
 30
0.0
 11
153.14999993216901
 21
95.595624374878739
 31
0.0
  0
ARC
  5
1CD0
  8
SAPA_PROFIL
 62
     4
 10
153.14999993216901
 20
96.395624374878935
 30
0.0
 40
0.8000000000001818
 50
270.0
 51
0.0000000000651378
  0
LINE
  5
1CD1
  8
SAPA_PROFIL
 62
     4
 10
153.94999993216919
 20
96.395624374879844
 30
0.0
 11
153.9499999321456
 21
119.5433594018067
 31
0.0
  0
ARC
  5
1CD2
  8
SAPA_PROFIL
 62
     4
 10
152.949999932146
 20
119.54335940180511
 30
0.0
 40
0.9999999999995453
 50
0.0000000000911929
 51
89.999999999973952
  0
LINE
  5
1CD3
  8
SAPA_PROFIL
 62
     4
 10
152.94999993214651
 20
120.54335940180469
 30
0.0
 11
152.04999993222421
 21
120.5433594018067
 31
0.0
  0
LINE
  5
1CD4
  8
SAPA_PROFIL
 10
85.449999999996635
 20
92.595632334185595
 30
0.0
 11
84.999999999996817
 21
92.595632334185737
 31
0.0
  0
LINE
  5
1CD5
  8
SAPA_PROFIL
 10
84.999999999996817
 20
92.595632334185737
 30
0.0
 11
83.510739868921974
 21
93.455457071754736
 31
0.0
  0
ARC
  5
1CD6
  8
SAPA_PROFIL
 10
83.36073986892211
 20
93.195649450619825
 30
0.0
 40
0.2999999999995552
 50
59.999999999981043
 51
89.996353132539298
  0
LINE
  5
1CD7
  8
SAPA_PROFIL
 10
83.360758963875455
 20
93.495649450011669
 30
0.0
 11
83.249999999996817
 21
93.495656499802465
 31
0.0
  0
LINE
  5
1CD8
  8
SAPA_PROFIL
 10
83.249999999996817
 20
93.495656499802465
 30
0.0
 11
83.249999999996817
 21
91.873944497699199
 31
0.0
  0
ARC
  5
1CD9
  8
SAPA_PROFIL
 10
84.249999999996817
 20
91.873944497699156
 30
0.0
 40
1.0
 50
179.99999999999841
 51
240.00000000000031
  0
LINE
  5
1CDA
  8
SAPA_PROFIL
 10
83.749999999996817
 20
91.007919093914737
 30
0.0
 11
85.249999999996817
 21
90.141893690129805
 31
0.0
  0
ARC
  5
1CDB
  8
SAPA_PROFIL
 10
84.749999999996845
 20
89.275868286345357
 30
0.0
 40
0.9999999999999694
 50
0.0
 51
60.000000000000867
  0
LINE
  5
1CDC
  8
SAPA_PROFIL
 10
85.749999999996817
 20
89.275868286345357
 30
0.0
 11
85.749999999996817
 21
88.715396382029368
 31
0.0
  0
ARC
  5
1CDD
  8
SAPA_PROFIL
 10
84.749999999996788
 20
88.715396382029354
 30
0.0
 40
1.000000000000028
 50
300.00000000000108
 51
0.0000000000016284
  0
LINE
  5
1CDE
  8
SAPA_PROFIL
 10
85.249999999996817
 20
87.849370978244906
 30
0.0
 11
83.749999999996817
 21
86.983345574461111
 31
0.0
  0
ARC
  5
1CDF
  8
SAPA_PROFIL
 10
84.249999999996817
 20
86.117320170676663
 30
0.0
 40
1.0000000000000151
 50
120.0000000000004
 51
180.00000000000159
  0
LINE
  5
1CE0
  8
SAPA_PROFIL
 10
83.249999999996817
 20
86.117320170676635
 30
0.0
 11
83.249999999996817
 21
84.495608168572232
 31
0.0
  0
LINE
  5
1CE1
  8
SAPA_PROFIL
 10
83.249999999996817
 20
84.495608168572232
 30
0.0
 11
83.360758963875455
 21
84.495615218363056
 31
0.0
  0
ARC
  5
1CE2
  8
SAPA_PROFIL
 10
83.36073986892211
 20
84.795615217754914
 30
0.0
 40
0.2999999999995532
 50
270.0036468674607
 51
300.00000000001887
  0
LINE
  5
1CE3
  8
SAPA_PROFIL
 10
83.510739868921974
 20
84.535807596620032
 30
0.0
 11
84.999999999996817
 21
85.395632334188974
 31
0.0
  0
LINE
  5
1CE4
  8
SAPA_PROFIL
 10
84.999999999996817
 20
85.395632334188974
 30
0.0
 11
85.449999999996635
 21
85.395632334189074
 31
0.0
  0
ARC
  5
1CE5
  8
SAPA_PROFIL
 10
85.449999999996734
 20
85.095632334189006
 30
0.0
 40
0.3000000000000966
 50
0.0000000000162844
 51
90.000000000016286
  0
LINE
  5
1CE6
  8
SAPA_PROFIL
 10
85.749999999996817
 20
85.095632334189077
 30
0.0
 11
85.749999999996817
 21
81.495620334189013
 31
0.0
  0
ARC
  5
1CE7
  8
SAPA_PROFIL
 10
85.449999999996734
 20
81.495620334189084
 30
0.0
 40
0.3000000000000824
 50
269.99999999998101
 51
359.99999999998641
  0
LINE
  5
1CE8
  8
SAPA_PROFIL
 10
85.449999999996635
 20
81.195620334189016
 30
0.0
 11
84.999999999996817
 21
81.195632334188716
 31
0.0
  0
LINE
  5
1CE9
  8
SAPA_PROFIL
 10
84.999999999996817
 20
81.195632334188716
 30
0.0
 11
83.510769515455195
 21
82.055439955324005
 31
0.0
  0
ARC
  5
1CEA
  8
SAPA_PROFIL
 10
83.360769515455459
 20
81.795632334189307
 30
0.0
 40
0.299999999999319
 50
59.999999999983203
 51
89.999999999981014
  0
LINE
  5
1CEB
  8
SAPA_PROFIL
 10
83.360769515455544
 20
82.095632334188622
 30
0.0
 11
82.774264068708817
 21
82.095632334188792
 31
0.0
  0
ARC
  5
1CEC
  8
SAPA_PROFIL
 10
82.774264068708504
 20
81.795632334187928
 30
0.0
 40
0.300000000000864
 50
89.999999999942986
 51
134.9999999999597
  0
LINE
  5
1CED
  8
SAPA_PROFIL
 10
82.562132034352075
 20
82.007764368544656
 30
0.0
 11
81.257082781183726
 21
80.702715115375497
 31
0.0
  0
ARC
  5
1CEE
  8
SAPA_PROFIL
 10
81.964189562370365
 20
79.995608334189015
 30
0.0
 40
1.000000000000018
 50
135.00000000000631
 51
270.00000000000171
  0
LINE
  5
1CEF
  8
SAPA_PROFIL
 10
81.964189562370393
 20
78.995608334189001
 30
0.0
 11
85.549999999996984
 21
78.995632334189111
 31
0.0
  0
ARC
  5
1CF0
  8
SAPA_PROFIL
 10
85.749999999997272
 20
78.995632334187434
 30
0.0
 40
0.2000000000002728
 50
359.99999999951962
 51
179.99999999951959
  0
LINE
  5
1CF1
  8
SAPA_PROFIL
 10
85.949999999997544
 20
78.995632334185757
 30
0.0
 11
134.54999999998421
 21
78.9956323341857
 31
0.0
  0
ARC
  5
1CF2
  8
SAPA_PROFIL
 10
134.74999999998411
 20
78.995632334187405
 30
0.0
 40
0.1999999999998181
 50
0.0000000004885332
 51
180.00000000048851
  0
LINE
  5
1CF3
  8
SAPA_PROFIL
 10
134.9499999999839
 20
78.995632334189111
 30
0.0
 11
138.53581043761139
 21
78.995608334189001
 31
0.0
  0
ARC
  5
1CF4
  8
SAPA_PROFIL
 10
138.53581043761139
 20
79.995608334189015
 30
0.0
 40
1.000000000000014
 50
269.99999999999841
 51
44.999999999993662
  0
LINE
  5
1CF5
  8
SAPA_PROFIL
 10
139.24291721879811
 20
80.702715115375497
 30
0.0
 11
137.93786796562881
 21
82.007764368544656
 31
0.0
  0
ARC
  5
1CF6
  8
SAPA_PROFIL
 10
137.72573593127279
 20
81.795632334189008
 30
0.0
 40
0.2999999999997633
 50
44.999999999955861
 51
89.999999999972843
  0
LINE
  5
1CF7
  8
SAPA_PROFIL
 10
137.72573593127299
 20
82.095632334188792
 30
0.0
 11
137.13923048452531
 21
82.095632334188622
 31
0.0
  0
ARC
  5
1CF8
  8
SAPA_PROFIL
 10
137.1392304845254
 20
81.795632334189307
 30
0.0
 40
0.299999999999315
 50
90.000000000016286
 51
120.0000000000144
  0
LINE
  5
1CF9
  8
SAPA_PROFIL
 10
136.98923048452571
 20
82.055439955324005
 30
0.0
 11
135.49999999998499
 21
81.195632334188716
 31
0.0
  0
LINE
  5
1CFA
  8
SAPA_PROFIL
 10
135.49999999998499
 20
81.195632334188716
 30
0.0
 11
135.04999999998509
 21
81.195620334189016
 31
0.0
  0
ARC
  5
1CFB
  8
SAPA_PROFIL
 10
135.04999999998509
 20
81.495620334189113
 30
0.0
 40
0.3000000000000966
 50
180.0000000000162
 51
270.00000000001631
  0
LINE
  5
1CFC
  8
SAPA_PROFIL
 10
134.74999999998499
 20
81.495620334189013
 30
0.0
 11
134.74999999998499
 21
85.095632334189077
 31
0.0
  0
ARC
  5
1CFD
  8
SAPA_PROFIL
 10
135.04999999998509
 20
85.095632334189006
 30
0.0
 40
0.3000000000000966
 50
89.999999999983714
 51
179.99999999998369
  0
LINE
  5
1CFE
  8
SAPA_PROFIL
 10
135.04999999998509
 20
85.395632334189074
 30
0.0
 11
135.49999999998499
 21
85.395632334188974
 31
0.0
  0
LINE
  5
1CFF
  8
SAPA_PROFIL
 10
135.49999999998499
 20
85.395632334188974
 30
0.0
 11
136.9892601310589
 21
84.535807596619975
 31
0.0
  0
ARC
  5
1D00
  8
SAPA_PROFIL
 10
137.13926013105919
 20
84.795615217756549
 30
0.0
 40
0.3000000000012471
 50
240.0000000000673
 51
269.99635313262621
  0
LINE
  5
1D01
  8
SAPA_PROFIL
 10
137.13924103610631
 20
84.495615218363014
 30
0.0
 11
137.24999999998499
 21
84.495608168572232
 31
0.0
  0
LINE
  5
1D02
  8
SAPA_PROFIL
 10
137.24999999998499
 20
84.495608168572232
 30
0.0
 11
137.24999999998411
 21
86.117320170676635
 31
0.0
  0
ARC
  5
1D03
  8
SAPA_PROFIL
 10
136.24999999998411
 20
86.117320170676635
 30
0.0
 40
0.9999999999999715
 50
0.0
 51
60.000000000000867
  0
LINE
  5
1D04
  8
SAPA_PROFIL
 10
136.74999999998411
 20
86.983345574461055
 30
0.0
 11
135.24999999998499
 21
87.849370978244906
 31
0.0
  0
ARC
  5
1D05
  8
SAPA_PROFIL
 10
135.74999999998491
 20
88.715396382029326
 30
0.0
 40
0.9999999999999694
 50
180.0
 51
240.00000000000091
  0
LINE
  5
1D06
  8
SAPA_PROFIL
 10
134.74999999998499
 20
88.715396382029326
 30
0.0
 11
134.74999999998499
 21
89.275868286345357
 31
0.0
  0
ARC
  5
1D07
  8
SAPA_PROFIL
 10
135.74999999998491
 20
89.275868286345357
 30
0.0
 40
0.9999999999999715
 50
119.9999999999991
 51
180.0
  0
LINE
  5
1D08
  8
SAPA_PROFIL
 10
135.24999999998499
 20
90.141893690129805
 30
0.0
 11
136.74999999998411
 21
91.007919093914737
 31
0.0
  0
ARC
  5
1D09
  8
SAPA_PROFIL
 10
136.24999999998451
 20
91.873944497699938
 30
0.0
 40
1.000000000000457
 50
299.9999999999547
 51
359.9999999999568
  0
LINE
  5
1D0A
  8
SAPA_PROFIL
 10
137.24999999998499
 20
91.873944497699199
 30
0.0
 11
137.24999999998499
 21
93.495656499802465
 31
0.0
  0
LINE
  5
1D0B
  8
SAPA_PROFIL
 10
137.24999999998499
 20
93.495656499802465
 30
0.0
 11
137.13924103610631
 21
93.495649450011669
 31
0.0
  0
ARC
  5
1D0C
  8
SAPA_PROFIL
 10
137.13926013105919
 20
93.195649450618134
 30
0.0
 40
0.3000000000012443
 50
90.003646867373803
 51
119.9999999999327
  0
LINE
  5
1D0D
  8
SAPA_PROFIL
 10
136.9892601310589
 20
93.455457071754736
 30
0.0
 11
135.49999999998499
 21
92.595632334185737
 31
0.0
  0
LINE
  5
1D0E
  8
SAPA_PROFIL
 10
135.49999999998499
 20
92.595632334185737
 30
0.0
 11
135.04999999998509
 21
92.595632334185595
 31
0.0
  0
ARC
  5
1D0F
  8
SAPA_PROFIL
 10
135.04999999998509
 20
92.895632334185706
 30
0.0
 40
0.3000000000000966
 50
180.0000000000162
 51
270.00000000001631
  0
LINE
  5
1D10
  8
SAPA_PROFIL
 10
134.74999999998499
 20
92.89563233418562
 30
0.0
 11
134.74999999998499
 21
96.495644334185684
 31
0.0
  0
ARC
  5
1D11
  8
SAPA_PROFIL
 10
135.04999999998509
 20
96.495644334185585
 30
0.0
 40
0.3000000000000966
 50
89.999999999983714
 51
179.99999999998369
  0
LINE
  5
1D12
  8
SAPA_PROFIL
 10
135.04999999998509
 20
96.795644334185695
 30
0.0
 11
135.49999999998499
 21
96.795632334185996
 31
0.0
  0
LINE
  5
1D13
  8
SAPA_PROFIL
 10
135.49999999998499
 20
96.795632334185996
 30
0.0
 11
136.98923048452571
 21
95.935824713050692
 31
0.0
  0
ARC
  5
1D14
  8
SAPA_PROFIL
 10
137.1392304845254
 20
96.19563233418539
 30
0.0
 40
0.2999999999993119
 50
239.99999999998559
 51
269.9999999999838
  0
LINE
  5
1D15
  8
SAPA_PROFIL
 10
137.13923048452531
 20
95.895632334186075
 30
0.0
 11
137.72573593127299
 21
95.895632334185905
 31
0.0
  0
ARC
  5
1D16
  8
SAPA_PROFIL
 10
137.72573593127279
 20
96.195632334185674
 30
0.0
 40
0.2999999999997698
 50
270.00000000002711
 51
315.00000000004411
  0
LINE
  5
1D17
  8
SAPA_PROFIL
 10
137.93786796562881
 20
95.983500299830041
 30
0.0
 11
139.24291721879811
 21
97.288549552999214
 31
0.0
  0
ARC
  5
1D18
  8
SAPA_PROFIL
 10
138.53581043761139
 20
97.995656334185682
 30
0.0
 40
1.000000000000018
 50
315.00000000000631
 51
90.000000000001606
  0
LINE
  5
1D19
  8
SAPA_PROFIL
 10
138.53581043761139
 20
98.995656334185696
 30
0.0
 11
134.9499999999839
 21
98.995632334185643
 31
0.0
  0
ARC
  5
1D1A
  8
SAPA_PROFIL
 10
134.74999999998451
 20
98.995632334185643
 30
0.0
 40
0.1999999999993633
 50
180.0
 51
0.0
  0
LINE
  5
1D1B
  8
SAPA_PROFIL
 10
134.5499999999852
 20
98.995632334185643
 30
0.0
 11
133.24999997043551
 21
98.995632334185643
 31
0.0
  0
ARC
  5
1D1C
  8
SAPA_PROFIL
 10
133.24999997057921
 20
97.995632334329343
 30
0.0
 40
0.9999999998562998
 50
90.000000008233414
 51
180.0000000084321
  0
LINE
  5
1D1D
  8
SAPA_PROFIL
 10
132.24999997072291
 20
97.995632334182176
 30
0.0
 11
132.24999997072291
 21
96.995632334185643
 31
0.0
  0
ARC
  5
1D1E
  8
SAPA_PROFIL
 10
131.24999997072291
 20
96.995632334185643
 30
0.0
 40
1.0
 50
270.0
 51
0.0
  0
LINE
  5
1D1F
  8
SAPA_PROFIL
 10
131.24999997072291
 20
95.995632334185643
 30
0.0
 11
125.1370702607623
 21
95.99563233418553
 31
0.0
  0
ARC
  5
1D20
  8
SAPA_PROFIL
 10
125.1370702607621
 20
96.995632334185828
 30
0.0
 40
1.000000000000298
 50
205.0000000002799
 51
270.00000000001222
  0
LINE
  5
1D21
  8
SAPA_PROFIL
 10
124.2307624737273
 20
96.573014072440571
 30
0.0
 11
122.43769923538051
 21
100.41825059593999
 31
0.0
  0
ARC
  5
1D22
  8
SAPA_PROFIL
 10
121.5313914483456
 20
99.995632334194795
 30
0.0
 40
1.000000000000292
 50
25.00000000028027
 51
90.000000000013031
  0
LINE
  5
1D23
  8
SAPA_PROFIL
 10
121.5313914483454
 20
100.99563233419509
 30
0.0
 11
118.48264597501699
 21
100.99563233419509
 31
0.0
  0
ARC
  5
1D24
  8
SAPA_PROFIL
 10
118.48264597501721
 20
100.79563233419471
 30
0.0
 40
0.2000000000003723
 50
90.000000000052907
 51
209.1099089404791
  0
ARC
  5
1D25
  8
SAPA_PROFIL
 10
115.24999999998511
 20
98.995632334163645
 30
0.0
 40
3.5000000000000182
 50
4.917100336045225
 51
29.109908940422041
  0
LINE
  5
1D26
  8
SAPA_PROFIL
 10
118.73711915481501
 20
99.295632334195091
 30
0.0
 11
119.99999999998499
 21
99.295632334195091
 31
0.0
  0
ARC
  5
1D27
  8
SAPA_PROFIL
 10
119.99999999998499
 20
98.795632334195105
 30
0.0
 40
0.5
 50
0.0
 51
90.0
  0
LINE
  5
1D28
  8
SAPA_PROFIL
 10
120.49999999998499
 20
98.795632334195105
 30
0.0
 11
120.49999999998499
 21
96.495632334185544
 31
0.0
  0
ARC
  5
1D29
  8
SAPA_PROFIL
 10
119.99999999998499
 20
96.495632334185544
 30
0.0
 40
0.5
 50
270.0
 51
0.0
  0
LINE
  5
1D2A
  8
SAPA_PROFIL
 10
119.99999999998499
 20
95.99563233418553
 30
0.0
 11
117.0527756377537
 21
95.99563233418553
 31
0.0
  0
ARC
  5
1D2B
  8
SAPA_PROFIL
 10
115.24999999998499
 20
98.995632334163943
 30
0.0
 40
3.500000000000413
 50
238.99728086542871
 51
301.00271913457129
  0
LINE
  5
1D2C
  8
SAPA_PROFIL
 10
113.4472243622163
 20
95.99563233418553
 30
0.0
 11
107.0527756377537
 21
95.995632334185487
 31
0.0
  0
ARC
  5
1D2D
  8
SAPA_PROFIL
 10
105.24999999998499
 20
98.995632334163915
 30
0.0
 40
3.5000000000004148
 50
238.99728086542791
 51
301.0027191345705
  0
LINE
  5
1D2E
  8
SAPA_PROFIL
 10
103.4472243622162
 20
95.99563233418553
 30
0.0
 11
100.49999999998499
 21
95.995632334185487
 31
0.0
  0
ARC
  5
1D2F
  8
SAPA_PROFIL
 10
100.49999999998499
 20
96.495632334185473
 30
0.0
 40
0.5
 50
180.0
 51
270.0
  0
LINE
  5
1D30
  8
SAPA_PROFIL
 10
99.999999999984993
 20
96.495632334185473
 30
0.0
 11
99.999999999984993
 21
98.795632334195105
 31
0.0
  0
ARC
  5
1D31
  8
SAPA_PROFIL
 10
100.49999999998499
 20
98.795632334195105
 30
0.0
 40
0.5
 50
90.0
 51
180.0
  0
LINE
  5
1D32
  8
SAPA_PROFIL
 10
100.49999999998499
 20
99.295632334195091
 30
0.0
 11
101.762880845155
 21
99.295632334195091
 31
0.0
  0
ARC
  5
1D33
  8
SAPA_PROFIL
 10
105.24999999998479
 20
98.995632334163645
 30
0.0
 40
3.499999999999992
 50
150.89009105957771
 51
175.08289966395469
  0
ARC
  5
1D34
  8
SAPA_PROFIL
 10
102.0173540249527
 20
100.79563233419471
 30
0.0
 40
0.2000000000003748
 50
330.89009105952289
 51
89.999999999942986
  0
LINE
  5
1D35
  8
SAPA_PROFIL
 10
102.01735402495289
 20
100.99563233419509
 30
0.0
 11
98.968608551624584
 21
100.99563233419509
 31
0.0
  0
ARC
  5
1D36
  8
SAPA_PROFIL
 10
98.968608551624371
 20
99.995632334194767
 30
0.0
 40
1.000000000000312
 50
89.999999999987793
 51
154.99999999971931
  0
LINE
  5
1D37
  8
SAPA_PROFIL
 10
98.062300764589523
 20
100.41825059593999
 30
0.0
 11
96.269237526242705
 21
96.573014072440571
 31
0.0
  0
ARC
  5
1D38
  8
SAPA_PROFIL
 10
95.362929739207857
 20
96.995632334185856
 30
0.0
 40
1.0000000000003111
 50
269.99999999998778
 51
334.99999999971931
  0
LINE
  5
1D39
  8
SAPA_PROFIL
 10
95.362929739207644
 20
95.99563233418553
 30
0.0
 11
89.250000029247076
 21
95.99563233418553
 31
0.0
  0
ARC
  5
1D3A
  8
SAPA_PROFIL
 10
89.250000029247133
 20
96.995632334185586
 30
0.0
 40
1.000000000000056
 50
179.9999999999967
 51
269.99999999999682
  0
LINE
  5
1D3B
  8
SAPA_PROFIL
 10
88.250000029247076
 20
96.995632334185643
 30
0.0
 11
88.250000029247076
 21
97.995632334182176
 31
0.0
  0
ARC
  5
1D3C
  8
SAPA_PROFIL
 10
87.250000029390776
 20
97.995632334329343
 30
0.0
 40
0.9999999998562998
 50
359.9999999915679
 51
89.999999991766586
  0
LINE
  5
1D3D
  8
SAPA_PROFIL
 10
87.250000029534476
 20
98.995632334185643
 30
0.0
 11
85.949999999996635
 21
98.995632334185643
 31
0.0
  0
ARC
  5
1D3E
  8
SAPA_PROFIL
 10
85.749999999996817
 20
98.995632334185643
 30
0.0
 40
0.1999999999998181
 50
180.0
 51
0.0
  0
LINE
  5
1D3F
  8
SAPA_PROFIL
 10
85.549999999996984
 20
98.995632334185643
 30
0.0
 11
81.964189562370393
 21
98.995656334185696
 31
0.0
  0
ARC
  5
1D40
  8
SAPA_PROFIL
 10
81.964189562370365
 20
97.995656334185682
 30
0.0
 40
1.000000000000014
 50
89.999999999998366
 51
224.99999999999361
  0
LINE
  5
1D41
  8
SAPA_PROFIL
 10
81.257082781183726
 20
97.288549552999214
 30
0.0
 11
82.562132034352075
 21
95.983500299830041
 31
0.0
  0
ARC
  5
1D42
  8
SAPA_PROFIL
 10
82.774264068708504
 20
96.195632334186769
 30
0.0
 40
0.3000000000008686
 50
225.0000000000403
 51
270.00000000005701
  0
LINE
  5
1D43
  8
SAPA_PROFIL
 10
82.774264068708817
 20
95.895632334185905
 30
0.0
 11
83.360769515455544
 21
95.895632334186075
 31
0.0
  0
ARC
  5
1D44
  8
SAPA_PROFIL
 10
83.360769515455459
 20
96.19563233418539
 30
0.0
 40
0.299999999999315
 50
270.00000000001899
 51
300.00000000001683
  0
LINE
  5
1D45
  8
SAPA_PROFIL
 10
83.510769515455195
 20
95.935824713050692
 30
0.0
 11
84.999999999996817
 21
96.795632334185996
 31
0.0
  0
LINE
  5
1D46
  8
SAPA_PROFIL
 10
84.999999999996817
 20
96.795632334185996
 30
0.0
 11
85.449999999996635
 21
96.795644334185695
 31
0.0
  0
ARC
  5
1D47
  8
SAPA_PROFIL
 10
85.449999999996734
 20
96.495644334185585
 30
0.0
 40
0.3000000000000966
 50
0.0000000000162844
 51
90.000000000016286
  0
LINE
  5
1D48
  8
SAPA_PROFIL
 10
85.749999999996817
 20
96.495644334185684
 30
0.0
 11
85.749999999996817
 21
92.89563233418562
 31
0.0
  0
ARC
  5
1D49
  8
SAPA_PROFIL
 10
85.449999999996734
 20
92.895632334185706
 30
0.0
 40
0.3000000000000966
 50
269.9999999999838
 51
359.99999999998369
  0
LINE
  5
1D4A
  8
SAPA_PROFIL
 10
131.9999999998067
 20
93.495632334175355
 30
0.0
 11
131.9999999998067
 21
81.295632334193044
 31
0.0
  0
LINE
  5
1D4B
  8
SAPA_PROFIL
 10
131.9999999998067
 20
81.295632334193044
 30
0.0
 11
88.500000000163254
 21
81.295632334178308
 31
0.0
  0
LINE
  5
1D4C
  8
SAPA_PROFIL
 10
88.500000000163254
 20
81.295632334178308
 30
0.0
 11
88.500000000174154
 21
93.495632334197467
 31
0.0
  0
LINE
  5
1D4D
  8
SAPA_PROFIL
 10
88.500000000174154
 20
93.495632334197467
 30
0.0
 11
131.9999999998067
 21
93.495632334175355
 31
0.0
  0
ARC
  5
1D4E
  8
SAPA_PROFIL
 62
     4
 10
83.374166918773227
 20
81.845612366697523
 30
0.0
 40
0.2999999999993434
 50
59.999999999964032
 51
89.999999999962014
  0
LINE
  5
1D4F
  8
SAPA_PROFIL
 62
     4
 10
83.524166918773076
 20
82.105419987832178
 30
0.0
 11
85.013397459617863
 21
81.2456123341899
 31
0.0
  0
LINE
  5
1D50
  8
SAPA_PROFIL
 62
     4
 10
85.013397459617863
 20
81.2456123341899
 30
0.0
 11
85.449999999996635
 21
81.245612334189786
 31
0.0
  0
ARC
  5
1D51
  8
SAPA_PROFIL
 62
     4
 10
85.449999999996635
 20
81.495612334189786
 30
0.0
 40
0.25
 50
270.0
 51
0.0
  0
LINE
  5
1D52
  8
SAPA_PROFIL
 62
     4
 10
85.699999999996635
 20
81.495612334189786
 30
0.0
 11
85.699999999996635
 21
85.095624334189836
 31
0.0
  0
ARC
  5
1D53
  8
SAPA_PROFIL
 62
     4
 10
85.449999999996635
 20
85.095624334189836
 30
0.0
 40
0.25
 50
0.0
 51
90.0
  0
LINE
  5
1D54
  8
SAPA_PROFIL
 62
     4
 10
85.449999999996635
 20
85.345624334189836
 30
0.0
 11
85.013398078418049
 21
85.345612691454505
 31
0.0
  0
LINE
  5
1D55
  8
SAPA_PROFIL
 62
     4
 10
85.013398078418049
 20
85.345612691454505
 30
0.0
 11
83.524167031380316
 21
84.485804745561495
 31
0.0
  0
ARC
  5
1D56
  8
SAPA_PROFIL
 62
     4
 10
83.374167031380509
 20
84.745612366696065
 30
0.0
 40
0.299999999999256
 50
270.00000000003263
 51
300.00000000003939
  0
LINE
  5
1D57
  8
SAPA_PROFIL
 62
     4
 10
83.374167031380694
 20
84.445612366696835
 30
0.0
 11
60.125833040129237
 21
84.445612366696835
 31
0.0
  0
ARC
  5
1D58
  8
SAPA_PROFIL
 62
     4
 10
60.125833040129422
 20
84.745612366696065
 30
0.0
 40
0.2999999999992582
 50
239.99999999995941
 51
269.99999999996612
  0
LINE
  5
1D59
  8
SAPA_PROFIL
 62
     4
 10
59.975833040129601
 20
84.485804745561495
 30
0.0
 11
58.486601993091881
 21
85.345612691454505
 31
0.0
  0
LINE
  5
1D5A
  8
SAPA_PROFIL
 62
     4
 10
58.486601993091881
 20
85.345612691454505
 30
0.0
 11
58.050000071513288
 21
85.345624334189836
 31
0.0
  0
ARC
  5
1D5B
  8
SAPA_PROFIL
 62
     4
 10
58.050000071513288
 20
85.095624334189836
 30
0.0
 40
0.25
 50
89.999999999998366
 51
180.0
  0
LINE
  5
1D5C
  8
SAPA_PROFIL
 62
     4
 10
57.800000071513288
 20
85.095624334189836
 30
0.0
 11
57.800000071513288
 21
81.495612334189786
 31
0.0
  0
ARC
  5
1D5D
  8
SAPA_PROFIL
 62
     4
 10
58.050000071513288
 20
81.495612334189786
 30
0.0
 40
0.25
 50
180.0
 51
270.0
  0
LINE
  5
1D5E
  8
SAPA_PROFIL
 62
     4
 10
58.050000071513288
 20
81.245612334189786
 30
0.0
 11
58.486602611891158
 21
81.2456123341899
 31
0.0
  0
LINE
  5
1D5F
  8
SAPA_PROFIL
 62
     4
 10
58.486602611891158
 20
81.2456123341899
 30
0.0
 11
59.975833152736861
 21
82.105419987832136
 31
0.0
  0
ARC
  5
1D60
  8
SAPA_PROFIL
 62
     4
 10
60.125833152736703
 20
81.845612366697466
 30
0.0
 40
0.2999999999993441
 50
90.000000000037986
 51
120.0000000000359
  0
LINE
  5
1D61
  8
SAPA_PROFIL
 62
     4
 10
60.125833152736497
 20
82.145612366696795
 30
0.0
 11
83.374166918773426
 21
82.145612366696867
 31
0.0
  0
LINE
  5
1D62
  8
SAPA_PROFIL
 62
     4
 10
69.250000003121841
 20
122.3433594018034
 30
-0.2
 11
69.250000003121841
 21
136.5433594018055
 31
-0.2
1001
RC_PROFILE
1002
{
1000
Region
1002
}
  0
ARC
  5
1D63
  8
SAPA_PROFIL
 62
     4
 10
69.750000003121841
 20
136.5433594018055
 30
-0.2
 40
0.5
 50
90.000000000208431
 51
180.0
1001
RC_PROFILE
1002
{
1000
Region
1002
}
  0
LINE
  5
1D64
  8
SAPA_PROFIL
 62
     4
 10
69.750000003120022
 20
137.0433594018055
 30
-0.2
 11
73.750000003741206
 21
137.04335940180849
 31
-0.2
1001
RC_PROFILE
1002
{
1000
Region
1002
}
  0
ARC
  5
1D65
  8
SAPA_PROFIL
 62
     4
 10
73.750000003741206
 20
136.54335940180849
 30
-0.2
 40
0.5
 50
0.0
 51
90.0
1001
RC_PROFILE
1002
{
1000
Region
1002
}
  0
LINE
  5
1D66
  8
SAPA_PROFIL
 62
     4
 10
74.250000003741206
 20
136.54335940180849
 30
-0.2
 11
74.250000003748482
 21
122.34335940180461
 31
-0.2
1001
RC_PROFILE
1002
{
1000
Region
1002
}
  0
ARC
  5
1D67
  8
SAPA_PROFIL
 62
     4
 10
73.750000003748482
 20
122.3433594018034
 30
-0.2
 40
0.5
 50
270.0
 51
0.0000000001302755
1001
RC_PROFILE
1002
{
1000
Region
1002
}
  0
LINE
  5
1D68
  8
SAPA_PROFIL
 62
     4
 10
73.750000003748482
 20
121.8433594018034
 30
-0.2
 11
69.750000003121841
 21
121.8433594018034
 31
-0.2
1001
RC_PROFILE
1002
{
1000
Region
1002
}
  0
ARC
  5
1D69
  8
SAPA_PROFIL
 62
     4
 10
69.750000003121841
 20
122.3433594018034
 30
-0.2
 40
0.5
 50
180.0
 51
270.0
1001
RC_PROFILE
1002
{
1000
Region
1002
}
  0
ARC
  5
1D6A
  8
SAPA_PROFIL
 62
     4
 10
82.672740073140432
 20
96.779885845394375
 30
0.0
 40
1.1999999999999029
 50
269.99999999998778
 51
300.0000000000087
1001
GENIUS_GENOBJ-N-FIL_13
1002
{
1000
OWNER
1000
GEN
1002
}
1001
GENIUS_GENODEF_13
1002
{
1000
HIER
1070
     0
1002
}
1002
{
1000
MANEDIT
1070
     0
1002
}
1002
{
1000
NOSEL
1070
     0
1002
}
1002
{
1000
BEHIND
1070
     0
1002
}
1002
{
1000
OTHER
1070
     0
1002
}
1002
{
1000
REACTOR
1002
}
  0
LINE
  5
1D6B
  8
SAPA_PROFIL
 62
     4
 10
83.27274007314054
 20
95.740655360853225
 30
0.0
 11
85.013398013783899
 21
96.745624691451098
 31
0.0
1001
GENIUS_GENOBJ-N-FIL_13
1002
{
1000
OWNER
1000
GEN
1002
}
1001
GENIUS_GENODEF_13
1002
{
1000
HIER
1070
     0
1002
}
1002
{
1000
MANEDIT
1070
     0
1002
}
1002
{
1000
NOSEL
1070
     0
1002
}
1002
{
1000
BEHIND
1070
     0
1002
}
1002
{
1000
OTHER
1070
     0
1002
}
1002
{
1000
REACTOR
1002
}
  0
LINE
  5
1D6C
  8
SAPA_PROFIL
 62
     4
 10
85.013398013783899
 20
96.745624691451098
 30
0.0
 11
85.449999935362484
 21
96.745636334186415
 31
0.0
1001
GENIUS_GENOBJ-N-FIL_13
1002
{
1000
OWNER
1000
GEN
1002
}
1001
GENIUS_GENODEF_13
1002
{
1000
HIER
1070
     0
1002
}
1002
{
1000
MANEDIT
1070
     0
1002
}
1002
{
1000
NOSEL
1070
     0
1002
}
1002
{
1000
BEHIND
1070
     0
1002
}
1002
{
1000
OTHER
1070
     0
1002
}
1002
{
1000
REACTOR
1002
}
  0
ARC
  5
1D6D
  8
SAPA_PROFIL
 62
     4
 10
85.449999935362484
 20
96.495636334186443
 30
0.0
 40
0.25
 50
0.0
 51
90.0
1001
GENIUS_GENOBJ-N-FIL_13
1002
{
1000
OWNER
1000
GEN
1002
}
1001
GENIUS_GENODEF_13
1002
{
1000
HIER
1070
     0
1002
}
1002
{
1000
MANEDIT
1070
     0
1002
}
1002
{
1000
NOSEL
1070
     0
1002
}
1002
{
1000
BEHIND
1070
     0
1002
}
1002
{
1000
OTHER
1070
     0
1002
}
1002
{
1000
REACTOR
1002
}
  0
LINE
  5
1D6E
  8
SAPA_PROFIL
 62
     4
 10
85.699999935362484
 20
96.495636334186443
 30
0.0
 11
85.699999935362484
 21
92.895624334186365
 31
0.0
1001
GENIUS_GENOBJ-N-FIL_13
1002
{
1000
OWNER
1000
GEN
1002
}
1001
GENIUS_GENODEF_13
1002
{
1000
HIER
1070
     0
1002
}
1002
{
1000
MANEDIT
1070
     0
1002
}
1002
{
1000
NOSEL
1070
     0
1002
}
1002
{
1000
BEHIND
1070
     0
1002
}
1002
{
1000
OTHER
1070
     0
1002
}
1002
{
1000
REACTOR
1002
}
  0
ARC
  5
1D6F
  8
SAPA_PROFIL
 62
     4
 10
85.449999935362484
 20
92.895624334186365
 30
0.0
 40
0.25
 50
270.0
 51
0.0
1001
GENIUS_GENOBJ-N-FIL_13
1002
{
1000
OWNER
1000
GEN
1002
}
1001
GENIUS_GENODEF_13
1002
{
1000
HIER
1070
     0
1002
}
1002
{
1000
MANEDIT
1070
     0
1002
}
1002
{
1000
NOSEL
1070
     0
1002
}
1002
{
1000
BEHIND
1070
     0
1002
}
1002
{
1000
OTHER
1070
     0
1002
}
1002
{
1000
REACTOR
1002
}
  0
LINE
  5
1D70
  8
SAPA_PROFIL
 62
     4
 10
85.449999935362484
 20
92.645624334186365
 30
0.0
 11
85.013397394984622
 21
92.645624334186493
 31
0.0
1001
GENIUS_GENOBJ-N-FIL_13
1002
{
1000
OWNER
1000
GEN
1002
}
1001
GENIUS_GENODEF_13
1002
{
1000
HIER
1070
     0
1002
}
1002
{
1000
MANEDIT
1070
     0
1002
}
1002
{
1000
NOSEL
1070
     0
1002
}
1002
{
1000
BEHIND
1070
     0
1002
}
1002
{
1000
OTHER
1070
     0
1002
}
1002
{
1000
REACTOR
1002
}
  0
LINE
  5
1D71
  8
SAPA_PROFIL
 62
     4
 10
85.013397394984622
 20
92.645624334186493
 30
0.0
 11
83.327259797583338
 21
93.61911632993656
 31
0.0
1001
GENIUS_GENOBJ-N-FIL_13
1002
{
1000
OWNER
1000
GEN
1002
}
1001
GENIUS_GENODEF_13
1002
{
1000
HIER
1070
     0
1002
}
1002
{
1000
MANEDIT
1070
     0
1002
}
1002
{
1000
NOSEL
1070
     0
1002
}
1002
{
1000
BEHIND
1070
     0
1002
}
1002
{
1000
OTHER
1070
     0
1002
}
1002
{
1000
REACTOR
1002
}
  0
ARC
  5
1D72
  8
SAPA_PROFIL
 62
     4
 10
82.727259797583642
 20
92.579885845396134
 30
0.0
 40
1.1999999999990669
 50
59.999999999991061
 51
89.999999999988475
1001
GENIUS_GENOBJ-N-FIL_13
1002
{
1000
OWNER
1000
GEN
1002
}
1001
GENIUS_GENODEF_13
1002
{
1000
HIER
1070
     0
1002
}
1002
{
1000
MANEDIT
1070
     0
1002
}
1002
{
1000
NOSEL
1070
     0
1002
}
1002
{
1000
BEHIND
1070
     0
1002
}
1002
{
1000
OTHER
1070
     0
1002
}
1002
{
1000
REACTOR
1002
}
  0
LINE
  5
1D73
  8
SAPA_PROFIL
 62
     4
 10
82.727259797583883
 20
93.779885845395199
 30
0.0
 11
60.772740209292799
 21
93.779885845395199
 31
0.0
1001
GENIUS_GENOBJ-N-FIL_13
1002
{
1000
OWNER
1000
GEN
1002
}
1001
GENIUS_GENODEF_13
1002
{
1000
HIER
1070
     0
1002
}
1002
{
1000
MANEDIT
1070
     0
1002
}
1002
{
1000
NOSEL
1070
     0
1002
}
1002
{
1000
BEHIND
1070
     0
1002
}
1002
{
1000
OTHER
1070
     0
1002
}
1002
{
1000
REACTOR
1002
}
  0
ARC
  5
1D74
  8
SAPA_PROFIL
 62
     4
 10
60.772740209292593
 20
92.579885845394443
 30
0.0
 40
1.200000000000756
 50
89.999999999989484
 51
119.999999999987
1001
GENIUS_GENOBJ-N-FIL_13
1002
{
1000
OWNER
1000
GEN
1002
}
1001
GENIUS_GENODEF_13
1002
{
1000
HIER
1070
     0
1002
}
1002
{
1000
MANEDIT
1070
     0
1002
}
1002
{
1000
NOSEL
1070
     0
1002
}
1002
{
1000
BEHIND
1070
     0
1002
}
1002
{
1000
OTHER
1070
     0
1002
}
1002
{
1000
REACTOR
1002
}
  0
LINE
  5
1D75
  8
SAPA_PROFIL
 62
     4
 10
60.172740209292442
 20
93.61911632993656
 30
0.0
 11
58.48660261189206
 21
92.645624334186493
 31
0.0
1001
GENIUS_GENOBJ-N-FIL_13
1002
{
1000
OWNER
1000
GEN
1002
}
1001
GENIUS_GENODEF_13
1002
{
1000
HIER
1070
     0
1002
}
1002
{
1000
MANEDIT
1070
     0
1002
}
1002
{
1000
NOSEL
1070
     0
1002
}
1002
{
1000
BEHIND
1070
     0
1002
}
1002
{
1000
OTHER
1070
     0
1002
}
1002
{
1000
REACTOR
1002
}
  0
LINE
  5
1D76
  8
SAPA_PROFIL
 62
     4
 10
58.48660261189206
 20
92.645624334186493
 30
0.0
 11
58.050000071513288
 21
92.645624334186365
 31
0.0
1001
GENIUS_GENOBJ-N-FIL_13
1002
{
1000
OWNER
1000
GEN
1002
}
1001
GENIUS_GENODEF_13
1002
{
1000
HIER
1070
     0
1002
}
1002
{
1000
MANEDIT
1070
     0
1002
}
1002
{
1000
NOSEL
1070
     0
1002
}
1002
{
1000
BEHIND
1070
     0
1002
}
1002
{
1000
OTHER
1070
     0
1002
}
1002
{
1000
REACTOR
1002
}
  0
ARC
  5
1D77
  8
SAPA_PROFIL
 62
     4
 10
58.050000071513288
 20
92.895624334186365
 30
0.0
 40
0.25
 50
180.0
 51
270.0
1001
GENIUS_GENOBJ-N-FIL_13
1002
{
1000
OWNER
1000
GEN
1002
}
1001
GENIUS_GENODEF_13
1002
{
1000
HIER
1070
     0
1002
}
1002
{
1000
MANEDIT
1070
     0
1002
}
1002
{
1000
NOSEL
1070
     0
1002
}
1002
{
1000
BEHIND
1070
     0
1002
}
1002
{
1000
OTHER
1070
     0
1002
}
1002
{
1000
REACTOR
1002
}
  0
LINE
  5
1D78
  8
SAPA_PROFIL
 62
     4
 10
57.800000071513288
 20
92.895624334186365
 30
0.0
 11
57.800000071513288
 21
96.495636334186443
 31
0.0
1001
GENIUS_GENOBJ-N-FIL_13
1002
{
1000
OWNER
1000
GEN
1002
}
1001
GENIUS_GENODEF_13
1002
{
1000
HIER
1070
     0
1002
}
1002
{
1000
MANEDIT
1070
     0
1002
}
1002
{
1000
NOSEL
1070
     0
1002
}
1002
{
1000
BEHIND
1070
     0
1002
}
1002
{
1000
OTHER
1070
     0
1002
}
1002
{
1000
REACTOR
1002
}
  0
ARC
  5
1D79
  8
SAPA_PROFIL
 62
     4
 10
58.050000071513288
 20
96.495636334186443
 30
0.0
 40
0.2499999999999929
 50
89.999999999998366
 51
180.0
1001
GENIUS_GENOBJ-N-FIL_13
1002
{
1000
OWNER
1000
GEN
1002
}
1001
GENIUS_GENODEF_13
1002
{
1000
HIER
1070
     0
1002
}
1002
{
1000
MANEDIT
1070
     0
1002
}
1002
{
1000
NOSEL
1070
     0
1002
}
1002
{
1000
BEHIND
1070
     0
1002
}
1002
{
1000
OTHER
1070
     0
1002
}
1002
{
1000
REACTOR
1002
}
  0
LINE
  5
1D7A
  8
SAPA_PROFIL
 62
     4
 10
58.050000071513288
 20
96.745636334186415
 30
0.0
 11
58.486601993091881
 21
96.745624691451098
 31
0.0
1001
GENIUS_GENOBJ-N-FIL_13
1002
{
1000
OWNER
1000
GEN
1002
}
1001
GENIUS_GENODEF_13
1002
{
1000
HIER
1070
     0
1002
}
1002
{
1000
MANEDIT
1070
     0
1002
}
1002
{
1000
NOSEL
1070
     0
1002
}
1002
{
1000
BEHIND
1070
     0
1002
}
1002
{
1000
OTHER
1070
     0
1002
}
1002
{
1000
REACTOR
1002
}
  0
LINE
  5
1D7B
  8
SAPA_PROFIL
 62
     4
 10
58.486601993091881
 20
96.745624691451098
 30
0.0
 11
60.22725993373524
 21
95.740655360853225
 31
0.0
1001
GENIUS_GENOBJ-N-FIL_13
1002
{
1000
OWNER
1000
GEN
1002
}
1001
GENIUS_GENODEF_13
1002
{
1000
HIER
1070
     0
1002
}
1002
{
1000
MANEDIT
1070
     0
1002
}
1002
{
1000
NOSEL
1070
     0
1002
}
1002
{
1000
BEHIND
1070
     0
1002
}
1002
{
1000
OTHER
1070
     0
1002
}
1002
{
1000
REACTOR
1002
}
  0
ARC
  5
1D7C
  8
SAPA_PROFIL
 62
     4
 10
60.827259933735348
 20
96.779885845394375
 30
0.0
 40
1.1999999999999009
 50
239.9999999999913
 51
270.00000000001222
1001
GENIUS_GENOBJ-N-FIL_13
1002
{
1000
OWNER
1000
GEN
1002
}
1001
GENIUS_GENODEF_13
1002
{
1000
HIER
1070
     0
1002
}
1002
{
1000
MANEDIT
1070
     0
1002
}
1002
{
1000
NOSEL
1070
     0
1002
}
1002
{
1000
BEHIND
1070
     0
1002
}
1002
{
1000
OTHER
1070
     0
1002
}
1002
{
1000
REACTOR
1002
}
  0
LINE
  5
1D7D
  8
SAPA_PROFIL
 62
     4
 10
60.827259933735611
 20
95.579885845394472
 30
0.0
 11
63.550000071264101
 21
95.579885845395154
 31
0.0
1001
GENIUS_GENOBJ-N-FIL_13
1002
{
1000
OWNER
1000
GEN
1002
}
1001
GENIUS_GENODEF_13
1002
{
1000
HIER
1070
     0
1002
}
1002
{
1000
MANEDIT
1070
     0
1002
}
1002
{
1000
NOSEL
1070
     0
1002
}
1002
{
1000
BEHIND
1070
     0
1002
}
1002
{
1000
OTHER
1070
     0
1002
}
1002
{
1000
REACTOR
1002
}
  0
ARC
  5
1D7E
  8
SAPA_PROFIL
 62
     4
 10
63.550000071263533
 20
96.779885845394631
 30
0.0
 40
1.199999999999477
 50
270.00000000002711
 51
0.000000000222554
1001
GENIUS_GENOBJ-N-FIL_13
1002
{
1000
OWNER
1000
GEN
1002
}
1001
GENIUS_GENODEF_13
1002
{
1000
HIER
1070
     0
1002
}
1002
{
1000
MANEDIT
1070
     0
1002
}
1002
{
1000
NOSEL
1070
     0
1002
}
1002
{
1000
BEHIND
1070
     0
1002
}
1002
{
1000
OTHER
1070
     0
1002
}
1002
{
1000
REACTOR
1002
}
  0
LINE
  5
1D7F
  8
SAPA_PROFIL
 62
     4
 10
64.750000071263003
 20
96.779885845399306
 30
0.0
 11
64.750000071173872
 21
122.57762087232101
 31
0.0
1001
GENIUS_GENOBJ-N-FIL_13
1002
{
1000
OWNER
1000
GEN
1002
}
1001
GENIUS_GENODEF_13
1002
{
1000
HIER
1070
     0
1002
}
1002
{
1000
MANEDIT
1070
     0
1002
}
1002
{
1000
NOSEL
1070
     0
1002
}
1002
{
1000
BEHIND
1070
     0
1002
}
1002
{
1000
OTHER
1070
     0
1002
}
1002
{
1000
REACTOR
1002
}
  0
ARC
  5
1D80
  8
SAPA_PROFIL
 62
     4
 10
65.250000071173872
 20
122.57762087232101
 30
0.0
 40
0.5
 50
90.0
 51
180.0
1001
GENIUS_GENOBJ-N-FIL_13
1002
{
1000
OWNER
1000
GEN
1002
}
1001
GENIUS_GENODEF_13
1002
{
1000
HIER
1070
     0
1002
}
1002
{
1000
MANEDIT
1070
     0
1002
}
1002
{
1000
NOSEL
1070
     0
1002
}
1002
{
1000
BEHIND
1070
     0
1002
}
1002
{
1000
OTHER
1070
     0
1002
}
1002
{
1000
REACTOR
1002
}
  0
LINE
  5
1D81
  8
SAPA_PROFIL
 62
     4
 10
65.250000071173872
 20
123.07762087232101
 30
0.0
 11
65.45000007117369
 21
123.0776208723213
 31
0.0
1001
GENIUS_GENOBJ-N-FIL_13
1002
{
1000
OWNER
1000
GEN
1002
}
1001
GENIUS_GENODEF_13
1002
{
1000
HIER
1070
     0
1002
}
1002
{
1000
MANEDIT
1070
     0
1002
}
1002
{
1000
NOSEL
1070
     0
1002
}
1002
{
1000
BEHIND
1070
     0
1002
}
1002
{
1000
OTHER
1070
     0
1002
}
1002
{
1000
REACTOR
1002
}
  0
ARC
  5
1D82
  8
SAPA_PROFIL
 62
     4
 10
65.45000007117369
 20
122.77762087232109
 30
0.0
 40
0.3000000000001819
 50
0.0
 51
90.0
1001
GENIUS_GENOBJ-N-FIL_13
1002
{
1000
OWNER
1000
GEN
1002
}
1001
GENIUS_GENODEF_13
1002
{
1000
HIER
1070
     0
1002
}
1002
{
1000
MANEDIT
1070
     0
1002
}
1002
{
1000
NOSEL
1070
     0
1002
}
1002
{
1000
BEHIND
1070
     0
1002
}
1002
{
1000
OTHER
1070
     0
1002
}
1002
{
1000
REACTOR
1002
}
  0
LINE
  5
1D83
  8
SAPA_PROFIL
 62
     4
 10
65.750000071173872
 20
122.77762087232109
 30
0.0
 11
65.750000071173872
 21
122.1276208723192
 31
0.0
1001
GENIUS_GENOBJ-N-FIL_13
1002
{
1000
OWNER
1000
GEN
1002
}
1001
GENIUS_GENODEF_13
1002
{
1000
HIER
1070
     0
1002
}
1002
{
1000
MANEDIT
1070
     0
1002
}
1002
{
1000
NOSEL
1070
     0
1002
}
1002
{
1000
BEHIND
1070
     0
1002
}
1002
{
1000
OTHER
1070
     0
1002
}
1002
{
1000
REACTOR
1002
}
  0
ARC
  5
1D84
  8
SAPA_PROFIL
 62
     4
 10
66.050000071174395
 20
122.1276208723197
 30
0.0
 40
0.300000000000523
 50
180.00000000010851
 51
270.00000000010863
1001
GENIUS_GENOBJ-N-FIL_13
1002
{
1000
OWNER
1000
GEN
1002
}
1001
GENIUS_GENODEF_13
1002
{
1000
HIER
1070
     0
1002
}
1002
{
1000
MANEDIT
1070
     0
1002
}
1002
{
1000
NOSEL
1070
     0
1002
}
1002
{
1000
BEHIND
1070
     0
1002
}
1002
{
1000
OTHER
1070
     0
1002
}
1002
{
1000
REACTOR
1002
}
  0
LINE
  5
1D85
  8
SAPA_PROFIL
 62
     4
 10
66.050000071174964
 20
121.8276208723192
 30
0.0
 11
66.950000071170962
 21
121.8276208723201
 31
0.0
1001
GENIUS_GENOBJ-N-FIL_13
1002
{
1000
OWNER
1000
GEN
1002
}
1001
GENIUS_GENODEF_13
1002
{
1000
HIER
1070
     0
1002
}
1002
{
1000
MANEDIT
1070
     0
1002
}
1002
{
1000
NOSEL
1070
     0
1002
}
1002
{
1000
BEHIND
1070
     0
1002
}
1002
{
1000
OTHER
1070
     0
1002
}
1002
{
1000
REACTOR
1002
}
  0
ARC
  5
1D86
  8
SAPA_PROFIL
 62
     4
 10
66.950000071171416
 20
122.3276208723197
 30
0.0
 40
0.4999999999995453
 50
269.99999999994787
 51
359.99999999994787
1001
GENIUS_GENOBJ-N-FIL_13
1002
{
1000
OWNER
1000
GEN
1002
}
1001
GENIUS_GENODEF_13
1002
{
1000
HIER
1070
     0
1002
}
1002
{
1000
MANEDIT
1070
     0
1002
}
1002
{
1000
NOSEL
1070
     0
1002
}
1002
{
1000
BEHIND
1070
     0
1002
}
1002
{
1000
OTHER
1070
     0
1002
}
1002
{
1000
REACTOR
1002
}
  0
LINE
  5
1D87
  8
SAPA_PROFIL
 62
     4
 10
67.450000071170962
 20
122.3276208723192
 30
0.0
 11
67.450000071170962
 21
128.32762087232101
 31
0.0
1001
GENIUS_GENOBJ-N-FIL_13
1002
{
1000
OWNER
1000
GEN
1002
}
1001
GENIUS_GENODEF_13
1002
{
1000
HIER
1070
     0
1002
}
1002
{
1000
MANEDIT
1070
     0
1002
}
1002
{
1000
NOSEL
1070
     0
1002
}
1002
{
1000
BEHIND
1070
     0
1002
}
1002
{
1000
OTHER
1070
     0
1002
}
1002
{
1000
REACTOR
1002
}
  0
ARC
  5
1D88
  8
SAPA_PROFIL
 62
     4
 10
66.950000071170962
 20
128.32762087232101
 30
0.0
 40
0.5
 50
0.0
 51
90.0
1001
GENIUS_GENOBJ-N-FIL_13
1002
{
1000
OWNER
1000
GEN
1002
}
1001
GENIUS_GENODEF_13
1002
{
1000
HIER
1070
     0
1002
}
1002
{
1000
MANEDIT
1070
     0
1002
}
1002
{
1000
NOSEL
1070
     0
1002
}
1002
{
1000
BEHIND
1070
     0
1002
}
1002
{
1000
OTHER
1070
     0
1002
}
1002
{
1000
REACTOR
1002
}
  0
LINE
  5
1D89
  8
SAPA_PROFIL
 62
     4
 10
66.950000071170962
 20
128.82762087232101
 30
0.0
 11
66.050000071172235
 21
128.82762087232101
 31
0.0
1001
GENIUS_GENOBJ-N-FIL_13
1002
{
1000
OWNER
1000
GEN
1002
}
1001
GENIUS_GENODEF_13
1002
{
1000
HIER
1070
     0
1002
}
1002
{
1000
MANEDIT
1070
     0
1002
}
1002
{
1000
NOSEL
1070
     0
1002
}
1002
{
1000
BEHIND
1070
     0
1002
}
1002
{
1000
OTHER
1070
     0
1002
}
1002
{
1000
REACTOR
1002
}
  0
ARC
  5
1D8A
  8
SAPA_PROFIL
 62
     4
 10
66.050000071172576
 20
128.52762087232139
 30
0.0
 40
0.2999999999996135
 50
90.000000000065128
 51
179.99999999967429
1001
GENIUS_GENOBJ-N-FIL_13
1002
{
1000
OWNER
1000
GEN
1002
}
1001
GENIUS_GENODEF_13
1002
{
1000
HIER
1070
     0
1002
}
1002
{
1000
MANEDIT
1070
     0
1002
}
1002
{
1000
NOSEL
1070
     0
1002
}
1002
{
1000
BEHIND
1070
     0
1002
}
1002
{
1000
OTHER
1070
     0
1002
}
1002
{
1000
REACTOR
1002
}
  0
LINE
  5
1D8B
  8
SAPA_PROFIL
 62
     4
 10
65.750000071172963
 20
128.5276208723231
 30
0.0
 11
65.750000071168415
 21
127.8776208723212
 31
0.0
1001
GENIUS_GENOBJ-N-FIL_13
1002
{
1000
OWNER
1000
GEN
1002
}
1001
GENIUS_GENODEF_13
1002
{
1000
HIER
1070
     0
1002
}
1002
{
1000
MANEDIT
1070
     0
1002
}
1002
{
1000
NOSEL
1070
     0
1002
}
1002
{
1000
BEHIND
1070
     0
1002
}
1002
{
1000
OTHER
1070
     0
1002
}
1002
{
1000
REACTOR
1002
}
  0
ARC
  5
1D8C
  8
SAPA_PROFIL
 62
     4
 10
65.450000071168347
 20
127.87762087232311
 30
0.0
 40
0.3000000000000682
 50
269.99999999963092
 51
359.99999999963092
1001
GENIUS_GENOBJ-N-FIL_13
1002
{
1000
OWNER
1000
GEN
1002
}
1001
GENIUS_GENODEF_13
1002
{
1000
HIER
1070
     0
1002
}
1002
{
1000
MANEDIT
1070
     0
1002
}
1002
{
1000
NOSEL
1070
     0
1002
}
1002
{
1000
BEHIND
1070
     0
1002
}
1002
{
1000
OTHER
1070
     0
1002
}
1002
{
1000
REACTOR
1002
}
  0
LINE
  5
1D8D
  8
SAPA_PROFIL
 62
     4
 10
65.450000071166414
 20
127.5776208723231
 30
0.0
 11
65.250000071173872
 21
127.5776208723242
 31
0.0
1001
GENIUS_GENOBJ-N-FIL_13
1002
{
1000
OWNER
1000
GEN
1002
}
1001
GENIUS_GENODEF_13
1002
{
1000
HIER
1070
     0
1002
}
1002
{
1000
MANEDIT
1070
     0
1002
}
1002
{
1000
NOSEL
1070
     0
1002
}
1002
{
1000
BEHIND
1070
     0
1002
}
1002
{
1000
OTHER
1070
     0
1002
}
1002
{
1000
REACTOR
1002
}
  0
ARC
  5
1D8E
  8
SAPA_PROFIL
 62
     4
 10
65.250000071173872
 20
128.07762087232419
 30
0.0
 40
0.5
 50
180.0
 51
270.0
1001
GENIUS_GENOBJ-N-FIL_13
1002
{
1000
OWNER
1000
GEN
1002
}
1001
GENIUS_GENODEF_13
1002
{
1000
HIER
1070
     0
1002
}
1002
{
1000
MANEDIT
1070
     0
1002
}
1002
{
1000
NOSEL
1070
     0
1002
}
1002
{
1000
BEHIND
1070
     0
1002
}
1002
{
1000
OTHER
1070
     0
1002
}
1002
{
1000
REACTOR
1002
}
  0
LINE
  5
1D8F
  8
SAPA_PROFIL
 62
     4
 10
64.750000071173872
 20
128.07762087232419
 30
0.0
 11
64.750000071173872
 21
131.07762087232419
 31
0.0
1001
GENIUS_GENOBJ-N-FIL_13
1002
{
1000
OWNER
1000
GEN
1002
}
1001
GENIUS_GENODEF_13
1002
{
1000
HIER
1070
     0
1002
}
1002
{
1000
MANEDIT
1070
     0
1002
}
1002
{
1000
NOSEL
1070
     0
1002
}
1002
{
1000
BEHIND
1070
     0
1002
}
1002
{
1000
OTHER
1070
     0
1002
}
1002
{
1000
REACTOR
1002
}
  0
ARC
  5
1D90
  8
SAPA_PROFIL
 62
     4
 10
65.250000071173872
 20
131.07762087232419
 30
0.0
 40
0.5
 50
90.0
 51
180.0
1001
GENIUS_GENOBJ-N-FIL_13
1002
{
1000
OWNER
1000
GEN
1002
}
1001
GENIUS_GENODEF_13
1002
{
1000
HIER
1070
     0
1002
}
1002
{
1000
MANEDIT
1070
     0
1002
}
1002
{
1000
NOSEL
1070
     0
1002
}
1002
{
1000
BEHIND
1070
     0
1002
}
1002
{
1000
OTHER
1070
     0
1002
}
1002
{
1000
REACTOR
1002
}
  0
LINE
  5
1D91
  8
SAPA_PROFIL
 62
     4
 10
65.250000071173872
 20
131.57762087232419
 30
0.0
 11
65.45000007117369
 21
131.57762087232419
 31
0.0
1001
GENIUS_GENOBJ-N-FIL_13
1002
{
1000
OWNER
1000
GEN
1002
}
1001
GENIUS_GENODEF_13
1002
{
1000
HIER
1070
     0
1002
}
1002
{
1000
MANEDIT
1070
     0
1002
}
1002
{
1000
NOSEL
1070
     0
1002
}
1002
{
1000
BEHIND
1070
     0
1002
}
1002
{
1000
OTHER
1070
     0
1002
}
1002
{
1000
REACTOR
1002
}
  0
ARC
  5
1D92
  8
SAPA_PROFIL
 62
     4
 10
65.45000007117369
 20
131.27762087232401
 30
0.0
 40
0.3000000000001819
 50
0.0
 51
90.0
1001
GENIUS_GENOBJ-N-FIL_13
1002
{
1000
OWNER
1000
GEN
1002
}
1001
GENIUS_GENODEF_13
1002
{
1000
HIER
1070
     0
1002
}
1002
{
1000
MANEDIT
1070
     0
1002
}
1002
{
1000
NOSEL
1070
     0
1002
}
1002
{
1000
BEHIND
1070
     0
1002
}
1002
{
1000
OTHER
1070
     0
1002
}
1002
{
1000
REACTOR
1002
}
  0
LINE
  5
1D93
  8
SAPA_PROFIL
 62
     4
 10
65.750000071173872
 20
131.27762087232401
 30
0.0
 11
65.750000071173872
 21
130.6276208723242
 31
0.0
1001
GENIUS_GENOBJ-N-FIL_13
1002
{
1000
OWNER
1000
GEN
1002
}
1001
GENIUS_GENODEF_13
1002
{
1000
HIER
1070
     0
1002
}
1002
{
1000
MANEDIT
1070
     0
1002
}
1002
{
1000
NOSEL
1070
     0
1002
}
1002
{
1000
BEHIND
1070
     0
1002
}
1002
{
1000
OTHER
1070
     0
1002
}
1002
{
1000
REACTOR
1002
}
  0
ARC
  5
1D94
  8
SAPA_PROFIL
 62
     4
 10
66.050000071174395
 20
130.6276208723248
 30
0.0
 40
0.300000000000523
 50
180.00000000010851
 51
270.00000000010863
1001
GENIUS_GENOBJ-N-FIL_13
1002
{
1000
OWNER
1000
GEN
1002
}
1001
GENIUS_GENODEF_13
1002
{
1000
HIER
1070
     0
1002
}
1002
{
1000
MANEDIT
1070
     0
1002
}
1002
{
1000
NOSEL
1070
     0
1002
}
1002
{
1000
BEHIND
1070
     0
1002
}
1002
{
1000
OTHER
1070
     0
1002
}
1002
{
1000
REACTOR
1002
}
  0
LINE
  5
1D95
  8
SAPA_PROFIL
 62
     4
 10
66.050000071174964
 20
130.32762087232419
 30
0.0
 11
66.950000071170962
 21
130.32762087232419
 31
0.0
1001
GENIUS_GENOBJ-N-FIL_13
1002
{
1000
OWNER
1000
GEN
1002
}
1001
GENIUS_GENODEF_13
1002
{
1000
HIER
1070
     0
1002
}
1002
{
1000
MANEDIT
1070
     0
1002
}
1002
{
1000
NOSEL
1070
     0
1002
}
1002
{
1000
BEHIND
1070
     0
1002
}
1002
{
1000
OTHER
1070
     0
1002
}
1002
{
1000
REACTOR
1002
}
  0
ARC
  5
1D96
  8
SAPA_PROFIL
 62
     4
 10
66.950000071170962
 20
130.82762087232419
 30
0.0
 40
0.5
 50
270.0
 51
0.0
1001
GENIUS_GENOBJ-N-FIL_13
1002
{
1000
OWNER
1000
GEN
1002
}
1001
GENIUS_GENODEF_13
1002
{
1000
HIER
1070
     0
1002
}
1002
{
1000
MANEDIT
1070
     0
1002
}
1002
{
1000
NOSEL
1070
     0
1002
}
1002
{
1000
BEHIND
1070
     0
1002
}
1002
{
1000
OTHER
1070
     0
1002
}
1002
{
1000
REACTOR
1002
}
  0
LINE
  5
1D97
  8
SAPA_PROFIL
 62
     4
 10
67.450000071170962
 20
130.82762087232419
 30
0.0
 11
67.450000071170962
 21
136.82762087232419
 31
0.0
1001
GENIUS_GENOBJ-N-FIL_13
1002
{
1000
OWNER
1000
GEN
1002
}
1001
GENIUS_GENODEF_13
1002
{
1000
HIER
1070
     0
1002
}
1002
{
1000
MANEDIT
1070
     0
1002
}
1002
{
1000
NOSEL
1070
     0
1002
}
1002
{
1000
BEHIND
1070
     0
1002
}
1002
{
1000
OTHER
1070
     0
1002
}
1002
{
1000
REACTOR
1002
}
  0
ARC
  5
1D98
  8
SAPA_PROFIL
 62
     4
 10
66.950000071170962
 20
136.82762087232419
 30
0.0
 40
0.5
 50
0.0
 51
90.0
1001
GENIUS_GENOBJ-N-FIL_13
1002
{
1000
OWNER
1000
GEN
1002
}
1001
GENIUS_GENODEF_13
1002
{
1000
HIER
1070
     0
1002
}
1002
{
1000
MANEDIT
1070
     0
1002
}
1002
{
1000
NOSEL
1070
     0
1002
}
1002
{
1000
BEHIND
1070
     0
1002
}
1002
{
1000
OTHER
1070
     0
1002
}
1002
{
1000
REACTOR
1002
}
  0
LINE
  5
1D99
  8
SAPA_PROFIL
 62
     4
 10
66.950000071170962
 20
137.32762087232419
 30
0.0
 11
66.050000071174964
 21
137.32762087232419
 31
0.0
1001
GENIUS_GENOBJ-N-FIL_13
1002
{
1000
OWNER
1000
GEN
1002
}
1001
GENIUS_GENODEF_13
1002
{
1000
HIER
1070
     0
1002
}
1002
{
1000
MANEDIT
1070
     0
1002
}
1002
{
1000
NOSEL
1070
     0
1002
}
1002
{
1000
BEHIND
1070
     0
1002
}
1002
{
1000
OTHER
1070
     0
1002
}
1002
{
1000
REACTOR
1002
}
  0
ARC
  5
1D9A
  8
SAPA_PROFIL
 62
     4
 10
66.050000071174509
 20
137.02762087232361
 30
0.0
 40
0.3000000000006366
 50
89.999999999913143
 51
179.99999999991309
1001
GENIUS_GENOBJ-N-FIL_13
1002
{
1000
OWNER
1000
GEN
1002
}
1001
GENIUS_GENODEF_13
1002
{
1000
HIER
1070
     0
1002
}
1002
{
1000
MANEDIT
1070
     0
1002
}
1002
{
1000
NOSEL
1070
     0
1002
}
1002
{
1000
BEHIND
1070
     0
1002
}
1002
{
1000
OTHER
1070
     0
1002
}
1002
{
1000
REACTOR
1002
}
  0
LINE
  5
1D9B
  8
SAPA_PROFIL
 62
     4
 10
65.750000071173872
 20
137.02762087232401
 30
0.0
 11
65.750000071173872
 21
136.3776208723242
 31
0.0
1001
GENIUS_GENOBJ-N-FIL_13
1002
{
1000
OWNER
1000
GEN
1002
}
1001
GENIUS_GENODEF_13
1002
{
1000
HIER
1070
     0
1002
}
1002
{
1000
MANEDIT
1070
     0
1002
}
1002
{
1000
NOSEL
1070
     0
1002
}
1002
{
1000
BEHIND
1070
     0
1002
}
1002
{
1000
OTHER
1070
     0
1002
}
1002
{
1000
REACTOR
1002
}
  0
ARC
  5
1D9C
  8
SAPA_PROFIL
 62
     4
 10
65.450000071173804
 20
136.37762087232429
 30
0.0
 40
0.3000000000000682
 50
269.99999999997829
 51
359.99999999997829
1001
GENIUS_GENOBJ-N-FIL_13
1002
{
1000
OWNER
1000
GEN
1002
}
1001
GENIUS_GENODEF_13
1002
{
1000
HIER
1070
     0
1002
}
1002
{
1000
MANEDIT
1070
     0
1002
}
1002
{
1000
NOSEL
1070
     0
1002
}
1002
{
1000
BEHIND
1070
     0
1002
}
1002
{
1000
OTHER
1070
     0
1002
}
1002
{
1000
REACTOR
1002
}
  0
LINE
  5
1D9D
  8
SAPA_PROFIL
 62
     4
 10
65.45000007117369
 20
136.07762087232419
 30
0.0
 11
65.250000071173872
 21
136.07762087232419
 31
0.0
1001
GENIUS_GENOBJ-N-FIL_13
1002
{
1000
OWNER
1000
GEN
1002
}
1001
GENIUS_GENODEF_13
1002
{
1000
HIER
1070
     0
1002
}
1002
{
1000
MANEDIT
1070
     0
1002
}
1002
{
1000
NOSEL
1070
     0
1002
}
1002
{
1000
BEHIND
1070
     0
1002
}
1002
{
1000
OTHER
1070
     0
1002
}
1002
{
1000
REACTOR
1002
}
  0
ARC
  5
1D9E
  8
SAPA_PROFIL
 62
     4
 10
65.250000071173872
 20
136.57762087232419
 30
0.0
 40
0.5
 50
180.0
 51
270.0
1001
GENIUS_GENOBJ-N-FIL_13
1002
{
1000
OWNER
1000
GEN
1002
}
1001
GENIUS_GENODEF_13
1002
{
1000
HIER
1070
     0
1002
}
1002
{
1000
MANEDIT
1070
     0
1002
}
1002
{
1000
NOSEL
1070
     0
1002
}
1002
{
1000
BEHIND
1070
     0
1002
}
1002
{
1000
OTHER
1070
     0
1002
}
1002
{
1000
REACTOR
1002
}
  0
LINE
  5
1D9F
  8
SAPA_PROFIL
 62
     4
 10
64.750000071173872
 20
136.57762087232419
 30
0.0
 11
64.750000071174782
 21
138.32762087232419
 31
0.0
1001
GENIUS_GENOBJ-N-FIL_13
1002
{
1000
OWNER
1000
GEN
1002
}
1001
GENIUS_GENODEF_13
1002
{
1000
HIER
1070
     0
1002
}
1002
{
1000
MANEDIT
1070
     0
1002
}
1002
{
1000
NOSEL
1070
     0
1002
}
1002
{
1000
BEHIND
1070
     0
1002
}
1002
{
1000
OTHER
1070
     0
1002
}
1002
{
1000
REACTOR
1002
}
  0
ARC
  5
1DA0
  8
SAPA_PROFIL
 62
     4
 10
65.250000071342015
 20
138.32762087215701
 30
0.0
 40
0.5000000001672335
 50
89.999999980914637
 51
179.99999998083641
1001
GENIUS_GENOBJ-N-FIL_13
1002
{
1000
OWNER
1000
GEN
1002
}
1001
GENIUS_GENODEF_13
1002
{
1000
HIER
1070
     0
1002
}
1002
{
1000
MANEDIT
1070
     0
1002
}
1002
{
1000
NOSEL
1070
     0
1002
}
1002
{
1000
BEHIND
1070
     0
1002
}
1002
{
1000
OTHER
1070
     0
1002
}
1002
{
1000
REACTOR
1002
}
  0
LINE
  5
1DA1
  8
SAPA_PROFIL
 62
     4
 10
65.250000071508566
 20
138.82762087232419
 30
0.0
 11
78.250000071515842
 21
138.82762087232439
 31
0.0
1001
GENIUS_GENOBJ-N-FIL_13
1002
{
1000
OWNER
1000
GEN
1002
}
1001
GENIUS_GENODEF_13
1002
{
1000
HIER
1070
     0
1002
}
1002
{
1000
MANEDIT
1070
     0
1002
}
1002
{
1000
NOSEL
1070
     0
1002
}
1002
{
1000
BEHIND
1070
     0
1002
}
1002
{
1000
OTHER
1070
     0
1002
}
1002
{
1000
REACTOR
1002
}
  0
ARC
  5
1DA2
  8
SAPA_PROFIL
 62
     4
 10
78.250000071654995
 20
138.32762087218711
 30
0.0
 40
0.5000000001373337
 50
0.0000000159196685
 51
90.00000001594573
1001
GENIUS_GENOBJ-N-FIL_13
1002
{
1000
OWNER
1000
GEN
1002
}
1001
GENIUS_GENODEF_13
1002
{
1000
HIER
1070
     0
1002
}
1002
{
1000
MANEDIT
1070
     0
1002
}
1002
{
1000
NOSEL
1070
     0
1002
}
1002
{
1000
BEHIND
1070
     0
1002
}
1002
{
1000
OTHER
1070
     0
1002
}
1002
{
1000
REACTOR
1002
}
  0
LINE
  5
1DA3
  8
SAPA_PROFIL
 62
     4
 10
78.750000071792329
 20
138.32762087232601
 30
0.0
 11
78.750000071792329
 21
136.57762087232601
 31
0.0
1001
GENIUS_GENOBJ-N-FIL_13
1002
{
1000
OWNER
1000
GEN
1002
}
1001
GENIUS_GENODEF_13
1002
{
1000
HIER
1070
     0
1002
}
1002
{
1000
MANEDIT
1070
     0
1002
}
1002
{
1000
NOSEL
1070
     0
1002
}
1002
{
1000
BEHIND
1070
     0
1002
}
1002
{
1000
OTHER
1070
     0
1002
}
1002
{
1000
REACTOR
1002
}
  0
ARC
  5
1DA4
  8
SAPA_PROFIL
 62
     4
 10
78.250000071792329
 20
136.57762087232601
 30
0.0
 40
0.5
 50
270.0
 51
0.0
1001
GENIUS_GENOBJ-N-FIL_13
1002
{
1000
OWNER
1000
GEN
1002
}
1001
GENIUS_GENODEF_13
1002
{
1000
HIER
1070
     0
1002
}
1002
{
1000
MANEDIT
1070
     0
1002
}
1002
{
1000
NOSEL
1070
     0
1002
}
1002
{
1000
BEHIND
1070
     0
1002
}
1002
{
1000
OTHER
1070
     0
1002
}
1002
{
1000
REACTOR
1002
}
  0
LINE
  5
1DA5
  8
SAPA_PROFIL
 62
     4
 10
78.250000071792329
 20
136.07762087232601
 30
0.0
 11
78.05000007179251
 21
136.07762087232601
 31
0.0
1001
GENIUS_GENOBJ-N-FIL_13
1002
{
1000
OWNER
1000
GEN
1002
}
1001
GENIUS_GENODEF_13
1002
{
1000
HIER
1070
     0
1002
}
1002
{
1000
MANEDIT
1070
     0
1002
}
1002
{
1000
NOSEL
1070
     0
1002
}
1002
{
1000
BEHIND
1070
     0
1002
}
1002
{
1000
OTHER
1070
     0
1002
}
1002
{
1000
REACTOR
1002
}
  0
ARC
  5
1DA6
  8
SAPA_PROFIL
 62
     4
 10
78.05000007179251
 20
136.37762087232619
 30
0.0
 40
0.3000000000001819
 50
180.0
 51
270.0
1001
GENIUS_GENOBJ-N-FIL_13
1002
{
1000
OWNER
1000
GEN
1002
}
1001
GENIUS_GENODEF_13
1002
{
1000
HIER
1070
     0
1002
}
1002
{
1000
MANEDIT
1070
     0
1002
}
1002
{
1000
NOSEL
1070
     0
1002
}
1002
{
1000
BEHIND
1070
     0
1002
}
1002
{
1000
OTHER
1070
     0
1002
}
1002
{
1000
REACTOR
1002
}
  0
LINE
  5
1DA7
  8
SAPA_PROFIL
 62
     4
 10
77.750000071792329
 20
136.37762087232619
 30
0.0
 11
77.750000071792329
 21
137.02762087232611
 31
0.0
1001
GENIUS_GENOBJ-N-FIL_13
1002
{
1000
OWNER
1000
GEN
1002
}
1001
GENIUS_GENODEF_13
1002
{
1000
HIER
1070
     0
1002
}
1002
{
1000
MANEDIT
1070
     0
1002
}
1002
{
1000
NOSEL
1070
     0
1002
}
1002
{
1000
BEHIND
1070
     0
1002
}
1002
{
1000
OTHER
1070
     0
1002
}
1002
{
1000
REACTOR
1002
}
  0
ARC
  5
1DA8
  8
SAPA_PROFIL
 62
     4
 10
77.450000071792715
 20
137.02762087232639
 30
0.0
 40
0.2999999999996135
 50
359.99999999993491
 51
89.999999999934857
1001
GENIUS_GENOBJ-N-FIL_13
1002
{
1000
OWNER
1000
GEN
1002
}
1001
GENIUS_GENODEF_13
1002
{
1000
HIER
1070
     0
1002
}
1002
{
1000
MANEDIT
1070
     0
1002
}
1002
{
1000
NOSEL
1070
     0
1002
}
1002
{
1000
BEHIND
1070
     0
1002
}
1002
{
1000
OTHER
1070
     0
1002
}
1002
{
1000
REACTOR
1002
}
  0
LINE
  5
1DA9
  8
SAPA_PROFIL
 62
     4
 10
77.450000071793056
 20
137.32762087232601
 30
0.0
 11
76.550000071795225
 21
137.32762087232601
 31
0.0
1001
GENIUS_GENOBJ-N-FIL_13
1002
{
1000
OWNER
1000
GEN
1002
}
1001
GENIUS_GENODEF_13
1002
{
1000
HIER
1070
     0
1002
}
1002
{
1000
MANEDIT
1070
     0
1002
}
1002
{
1000
NOSEL
1070
     0
1002
}
1002
{
1000
BEHIND
1070
     0
1002
}
1002
{
1000
OTHER
1070
     0
1002
}
1002
{
1000
REACTOR
1002
}
  0
ARC
  5
1DAA
  8
SAPA_PROFIL
 62
     4
 10
76.550000071795225
 20
136.82762087232601
 30
0.0
 40
0.5
 50
90.0
 51
180.0
1001
GENIUS_GENOBJ-N-FIL_13
1002
{
1000
OWNER
1000
GEN
1002
}
1001
GENIUS_GENODEF_13
1002
{
1000
HIER
1070
     0
1002
}
1002
{
1000
MANEDIT
1070
     0
1002
}
1002
{
1000
NOSEL
1070
     0
1002
}
1002
{
1000
BEHIND
1070
     0
1002
}
1002
{
1000
OTHER
1070
     0
1002
}
1002
{
1000
REACTOR
1002
}
  0
LINE
  5
1DAB
  8
SAPA_PROFIL
 62
     4
 10
76.050000071795239
 20
136.82762087232601
 30
0.0
 11
76.050000071795239
 21
130.82762087232601
 31
0.0
1001
GENIUS_GENOBJ-N-FIL_13
1002
{
1000
OWNER
1000
GEN
1002
}
1001
GENIUS_GENODEF_13
1002
{
1000
HIER
1070
     0
1002
}
1002
{
1000
MANEDIT
1070
     0
1002
}
1002
{
1000
NOSEL
1070
     0
1002
}
1002
{
1000
BEHIND
1070
     0
1002
}
1002
{
1000
OTHER
1070
     0
1002
}
1002
{
1000
REACTOR
1002
}
  0
ARC
  5
1DAC
  8
SAPA_PROFIL
 62
     4
 10
76.550000071795225
 20
130.82762087232601
 30
0.0
 40
0.5
 50
180.0
 51
270.0
1001
GENIUS_GENOBJ-N-FIL_13
1002
{
1000
OWNER
1000
GEN
1002
}
1001
GENIUS_GENODEF_13
1002
{
1000
HIER
1070
     0
1002
}
1002
{
1000
MANEDIT
1070
     0
1002
}
1002
{
1000
NOSEL
1070
     0
1002
}
1002
{
1000
BEHIND
1070
     0
1002
}
1002
{
1000
OTHER
1070
     0
1002
}
1002
{
1000
REACTOR
1002
}
  0
LINE
  5
1DAD
  8
SAPA_PROFIL
 62
     4
 10
76.550000071795225
 20
130.32762087232601
 30
0.0
 11
77.450000071793056
 21
130.32762087232601
 31
0.0
1001
GENIUS_GENOBJ-N-FIL_13
1002
{
1000
OWNER
1000
GEN
1002
}
1001
GENIUS_GENODEF_13
1002
{
1000
HIER
1070
     0
1002
}
1002
{
1000
MANEDIT
1070
     0
1002
}
1002
{
1000
NOSEL
1070
     0
1002
}
1002
{
1000
BEHIND
1070
     0
1002
}
1002
{
1000
OTHER
1070
     0
1002
}
1002
{
1000
REACTOR
1002
}
  0
ARC
  5
1DAE
  8
SAPA_PROFIL
 62
     4
 10
77.450000071792601
 20
130.62762087232579
 30
0.0
 40
0.2999999999997271
 50
270.0000000000868
 51
0.0000000000868503
1001
GENIUS_GENOBJ-N-FIL_13
1002
{
1000
OWNER
1000
GEN
1002
}
1001
GENIUS_GENODEF_13
1002
{
1000
HIER
1070
     0
1002
}
1002
{
1000
MANEDIT
1070
     0
1002
}
1002
{
1000
NOSEL
1070
     0
1002
}
1002
{
1000
BEHIND
1070
     0
1002
}
1002
{
1000
OTHER
1070
     0
1002
}
1002
{
1000
REACTOR
1002
}
  0
LINE
  5
1DAF
  8
SAPA_PROFIL
 62
     4
 10
77.750000071792329
 20
130.62762087232619
 30
0.0
 11
77.750000071792329
 21
131.27762087232611
 31
0.0
1001
GENIUS_GENOBJ-N-FIL_13
1002
{
1000
OWNER
1000
GEN
1002
}
1001
GENIUS_GENODEF_13
1002
{
1000
HIER
1070
     0
1002
}
1002
{
1000
MANEDIT
1070
     0
1002
}
1002
{
1000
NOSEL
1070
     0
1002
}
1002
{
1000
BEHIND
1070
     0
1002
}
1002
{
1000
OTHER
1070
     0
1002
}
1002
{
1000
REACTOR
1002
}
  0
ARC
  5
1DB0
  8
SAPA_PROFIL
 62
     4
 10
78.050000071792397
 20
131.277620872326
 30
0.0
 40
0.3000000000000682
 50
89.999999999978314
 51
179.99999999997829
1001
GENIUS_GENOBJ-N-FIL_13
1002
{
1000
OWNER
1000
GEN
1002
}
1001
GENIUS_GENODEF_13
1002
{
1000
HIER
1070
     0
1002
}
1002
{
1000
MANEDIT
1070
     0
1002
}
1002
{
1000
NOSEL
1070
     0
1002
}
1002
{
1000
BEHIND
1070
     0
1002
}
1002
{
1000
OTHER
1070
     0
1002
}
1002
{
1000
REACTOR
1002
}
  0
LINE
  5
1DB1
  8
SAPA_PROFIL
 62
     4
 10
78.05000007179251
 20
131.57762087232601
 30
0.0
 11
78.250000071792329
 21
131.57762087232601
 31
0.0
1001
GENIUS_GENOBJ-N-FIL_13
1002
{
1000
OWNER
1000
GEN
1002
}
1001
GENIUS_GENODEF_13
1002
{
1000
HIER
1070
     0
1002
}
1002
{
1000
MANEDIT
1070
     0
1002
}
1002
{
1000
NOSEL
1070
     0
1002
}
1002
{
1000
BEHIND
1070
     0
1002
}
1002
{
1000
OTHER
1070
     0
1002
}
1002
{
1000
REACTOR
1002
}
  0
ARC
  5
1DB2
  8
SAPA_PROFIL
 62
     4
 10
78.250000071792329
 20
131.07762087232601
 30
0.0
 40
0.5
 50
0.0
 51
90.0
1001
GENIUS_GENOBJ-N-FIL_13
1002
{
1000
OWNER
1000
GEN
1002
}
1001
GENIUS_GENODEF_13
1002
{
1000
HIER
1070
     0
1002
}
1002
{
1000
MANEDIT
1070
     0
1002
}
1002
{
1000
NOSEL
1070
     0
1002
}
1002
{
1000
BEHIND
1070
     0
1002
}
1002
{
1000
OTHER
1070
     0
1002
}
1002
{
1000
REACTOR
1002
}
  0
LINE
  5
1DB3
  8
SAPA_PROFIL
 62
     4
 10
78.750000071792329
 20
131.07762087232601
 30
0.0
 11
78.750000071792329
 21
128.07762087232601
 31
0.0
1001
GENIUS_GENOBJ-N-FIL_13
1002
{
1000
OWNER
1000
GEN
1002
}
1001
GENIUS_GENODEF_13
1002
{
1000
HIER
1070
     0
1002
}
1002
{
1000
MANEDIT
1070
     0
1002
}
1002
{
1000
NOSEL
1070
     0
1002
}
1002
{
1000
BEHIND
1070
     0
1002
}
1002
{
1000
OTHER
1070
     0
1002
}
1002
{
1000
REACTOR
1002
}
  0
ARC
  5
1DB4
  8
SAPA_PROFIL
 62
     4
 10
78.250000071792329
 20
128.07762087232601
 30
0.0
 40
0.5
 50
270.0
 51
0.0
1001
GENIUS_GENOBJ-N-FIL_13
1002
{
1000
OWNER
1000
GEN
1002
}
1001
GENIUS_GENODEF_13
1002
{
1000
HIER
1070
     0
1002
}
1002
{
1000
MANEDIT
1070
     0
1002
}
1002
{
1000
NOSEL
1070
     0
1002
}
1002
{
1000
BEHIND
1070
     0
1002
}
1002
{
1000
OTHER
1070
     0
1002
}
1002
{
1000
REACTOR
1002
}
  0
LINE
  5
1DB5
  8
SAPA_PROFIL
 62
     4
 10
78.250000071792329
 20
127.57762087232599
 30
0.0
 11
78.050000071799786
 21
127.5776208723249
 31
0.0
1001
GENIUS_GENOBJ-N-FIL_13
1002
{
1000
OWNER
1000
GEN
1002
}
1001
GENIUS_GENODEF_13
1002
{
1000
HIER
1070
     0
1002
}
1002
{
1000
MANEDIT
1070
     0
1002
}
1002
{
1000
NOSEL
1070
     0
1002
}
1002
{
1000
BEHIND
1070
     0
1002
}
1002
{
1000
OTHER
1070
     0
1002
}
1002
{
1000
REACTOR
1002
}
  0
ARC
  5
1DB6
  8
SAPA_PROFIL
 62
     4
 10
78.050000071797953
 20
127.8776208723251
 30
0.0
 40
0.3000000000001819
 50
180.0000000003908
 51
270.00000000034743
1001
GENIUS_GENOBJ-N-FIL_13
1002
{
1000
OWNER
1000
GEN
1002
}
1001
GENIUS_GENODEF_13
1002
{
1000
HIER
1070
     0
1002
}
1002
{
1000
MANEDIT
1070
     0
1002
}
1002
{
1000
NOSEL
1070
     0
1002
}
1002
{
1000
BEHIND
1070
     0
1002
}
1002
{
1000
OTHER
1070
     0
1002
}
1002
{
1000
REACTOR
1002
}
  0
LINE
  5
1DB7
  8
SAPA_PROFIL
 62
     4
 10
77.750000071797785
 20
127.87762087232301
 30
0.0
 11
77.750000071795057
 21
128.52762087232401
 31
0.0
1001
GENIUS_GENOBJ-N-FIL_13
1002
{
1000
OWNER
1000
GEN
1002
}
1001
GENIUS_GENODEF_13
1002
{
1000
HIER
1070
     0
1002
}
1002
{
1000
MANEDIT
1070
     0
1002
}
1002
{
1000
NOSEL
1070
     0
1002
}
1002
{
1000
BEHIND
1070
     0
1002
}
1002
{
1000
OTHER
1070
     0
1002
}
1002
{
1000
REACTOR
1002
}
  0
ARC
  5
1DB8
  8
SAPA_PROFIL
 62
     4
 10
77.450000071794534
 20
128.52762087232259
 30
0.0
 40
0.300000000000523
 50
0.0000000002822636
 51
90.000000000108557
1001
GENIUS_GENOBJ-N-FIL_13
1002
{
1000
OWNER
1000
GEN
1002
}
1001
GENIUS_GENODEF_13
1002
{
1000
HIER
1070
     0
1002
}
1002
{
1000
MANEDIT
1070
     0
1002
}
1002
{
1000
NOSEL
1070
     0
1002
}
1002
{
1000
BEHIND
1070
     0
1002
}
1002
{
1000
OTHER
1070
     0
1002
}
1002
{
1000
REACTOR
1002
}
  0
LINE
  5
1DB9
  8
SAPA_PROFIL
 62
     4
 10
77.450000071793966
 20
128.82762087232311
 30
0.0
 11
76.550000071795225
 21
128.82762087232311
 31
0.0
1001
GENIUS_GENOBJ-N-FIL_13
1002
{
1000
OWNER
1000
GEN
1002
}
1001
GENIUS_GENODEF_13
1002
{
1000
HIER
1070
     0
1002
}
1002
{
1000
MANEDIT
1070
     0
1002
}
1002
{
1000
NOSEL
1070
     0
1002
}
1002
{
1000
BEHIND
1070
     0
1002
}
1002
{
1000
OTHER
1070
     0
1002
}
1002
{
1000
REACTOR
1002
}
  0
ARC
  5
1DBA
  8
SAPA_PROFIL
 62
     4
 10
76.550000071795225
 20
128.32762087232311
 30
0.0
 40
0.5
 50
90.0
 51
180.0
1001
GENIUS_GENOBJ-N-FIL_13
1002
{
1000
OWNER
1000
GEN
1002
}
1001
GENIUS_GENODEF_13
1002
{
1000
HIER
1070
     0
1002
}
1002
{
1000
MANEDIT
1070
     0
1002
}
1002
{
1000
NOSEL
1070
     0
1002
}
1002
{
1000
BEHIND
1070
     0
1002
}
1002
{
1000
OTHER
1070
     0
1002
}
1002
{
1000
REACTOR
1002
}
  0
LINE
  5
1DBB
  8
SAPA_PROFIL
 62
     4
 10
76.050000071795239
 20
128.32762087232311
 30
0.0
 11
76.050000071802515
 21
122.32762087232101
 31
0.0
1001
GENIUS_GENOBJ-N-FIL_13
1002
{
1000
OWNER
1000
GEN
1002
}
1001
GENIUS_GENODEF_13
1002
{
1000
HIER
1070
     0
1002
}
1002
{
1000
MANEDIT
1070
     0
1002
}
1002
{
1000
NOSEL
1070
     0
1002
}
1002
{
1000
BEHIND
1070
     0
1002
}
1002
{
1000
OTHER
1070
     0
1002
}
1002
{
1000
REACTOR
1002
}
  0
ARC
  5
1DBC
  8
SAPA_PROFIL
 62
     4
 10
76.550000071802515
 20
122.32762087232101
 30
0.0
 40
0.5
 50
180.0
 51
270.0
1001
GENIUS_GENOBJ-N-FIL_13
1002
{
1000
OWNER
1000
GEN
1002
}
1001
GENIUS_GENODEF_13
1002
{
1000
HIER
1070
     0
1002
}
1002
{
1000
MANEDIT
1070
     0
1002
}
1002
{
1000
NOSEL
1070
     0
1002
}
1002
{
1000
BEHIND
1070
     0
1002
}
1002
{
1000
OTHER
1070
     0
1002
}
1002
{
1000
REACTOR
1002
}
  0
LINE
  5
1DBD
  8
SAPA_PROFIL
 62
     4
 10
76.550000071802515
 20
121.82762087232101
 30
0.0
 11
77.450000071799423
 21
121.82762087232101
 31
0.0
1001
GENIUS_GENOBJ-N-FIL_13
1002
{
1000
OWNER
1000
GEN
1002
}
1001
GENIUS_GENODEF_13
1002
{
1000
HIER
1070
     0
1002
}
1002
{
1000
MANEDIT
1070
     0
1002
}
1002
{
1000
NOSEL
1070
     0
1002
}
1002
{
1000
BEHIND
1070
     0
1002
}
1002
{
1000
OTHER
1070
     0
1002
}
1002
{
1000
REACTOR
1002
}
  0
ARC
  5
1DBE
  8
SAPA_PROFIL
 62
     4
 10
77.450000071799423
 20
122.1276208723212
 30
0.0
 40
0.3000000000001819
 50
270.0
 51
0.0
1001
GENIUS_GENOBJ-N-FIL_13
1002
{
1000
OWNER
1000
GEN
1002
}
1001
GENIUS_GENODEF_13
1002
{
1000
HIER
1070
     0
1002
}
1002
{
1000
MANEDIT
1070
     0
1002
}
1002
{
1000
NOSEL
1070
     0
1002
}
1002
{
1000
BEHIND
1070
     0
1002
}
1002
{
1000
OTHER
1070
     0
1002
}
1002
{
1000
REACTOR
1002
}
  0
LINE
  5
1DBF
  8
SAPA_PROFIL
 62
     4
 10
77.750000071799604
 20
122.1276208723212
 30
0.0
 11
77.750000071799604
 21
122.7776208723231
 31
0.0
1001
GENIUS_GENOBJ-N-FIL_13
1002
{
1000
OWNER
1000
GEN
1002
}
1001
GENIUS_GENODEF_13
1002
{
1000
HIER
1070
     0
1002
}
1002
{
1000
MANEDIT
1070
     0
1002
}
1002
{
1000
NOSEL
1070
     0
1002
}
1002
{
1000
BEHIND
1070
     0
1002
}
1002
{
1000
OTHER
1070
     0
1002
}
1002
{
1000
REACTOR
1002
}
  0
ARC
  5
1DC0
  8
SAPA_PROFIL
 62
     4
 10
78.050000071799673
 20
122.777620872323
 30
0.0
 40
0.3000000000000682
 50
89.999999999978314
 51
179.99999999997829
1001
GENIUS_GENOBJ-N-FIL_13
1002
{
1000
OWNER
1000
GEN
1002
}
1001
GENIUS_GENODEF_13
1002
{
1000
HIER
1070
     0
1002
}
1002
{
1000
MANEDIT
1070
     0
1002
}
1002
{
1000
NOSEL
1070
     0
1002
}
1002
{
1000
BEHIND
1070
     0
1002
}
1002
{
1000
OTHER
1070
     0
1002
}
1002
{
1000
REACTOR
1002
}
  0
LINE
  5
1DC1
  8
SAPA_PROFIL
 62
     4
 10
78.050000071799786
 20
123.0776208723231
 30
0.0
 11
78.250000071799604
 21
123.0776208723231
 31
0.0
1001
GENIUS_GENOBJ-N-FIL_13
1002
{
1000
OWNER
1000
GEN
1002
}
1001
GENIUS_GENODEF_13
1002
{
1000
HIER
1070
     0
1002
}
1002
{
1000
MANEDIT
1070
     0
1002
}
1002
{
1000
NOSEL
1070
     0
1002
}
1002
{
1000
BEHIND
1070
     0
1002
}
1002
{
1000
OTHER
1070
     0
1002
}
1002
{
1000
REACTOR
1002
}
  0
ARC
  5
1DC2
  8
SAPA_PROFIL
 62
     4
 10
78.250000071799604
 20
122.5776208723231
 30
0.0
 40
0.5
 50
0.0
 51
90.0
1001
GENIUS_GENOBJ-N-FIL_13
1002
{
1000
OWNER
1000
GEN
1002
}
1001
GENIUS_GENODEF_13
1002
{
1000
HIER
1070
     0
1002
}
1002
{
1000
MANEDIT
1070
     0
1002
}
1002
{
1000
NOSEL
1070
     0
1002
}
1002
{
1000
BEHIND
1070
     0
1002
}
1002
{
1000
OTHER
1070
     0
1002
}
1002
{
1000
REACTOR
1002
}
  0
LINE
  5
1DC3
  8
SAPA_PROFIL
 62
     4
 10
78.750000071799604
 20
122.5776208723231
 30
0.0
 11
78.75000007171775
 21
96.779885845399306
 31
0.0
1001
GENIUS_GENOBJ-N-FIL_13
1002
{
1000
OWNER
1000
GEN
1002
}
1001
GENIUS_GENODEF_13
1002
{
1000
HIER
1070
     0
1002
}
1002
{
1000
MANEDIT
1070
     0
1002
}
1002
{
1000
NOSEL
1070
     0
1002
}
1002
{
1000
BEHIND
1070
     0
1002
}
1002
{
1000
OTHER
1070
     0
1002
}
1002
{
1000
REACTOR
1002
}
  0
ARC
  5
1DC4
  8
SAPA_PROFIL
 62
     4
 10
79.950000071717568
 20
96.779885845395185
 30
0.0
 40
1.1999999999998181
 50
179.9999999998046
 51
270.0
1001
GENIUS_GENOBJ-N-FIL_13
1002
{
1000
OWNER
1000
GEN
1002
}
1001
GENIUS_GENODEF_13
1002
{
1000
HIER
1070
     0
1002
}
1002
{
1000
MANEDIT
1070
     0
1002
}
1002
{
1000
NOSEL
1070
     0
1002
}
1002
{
1000
BEHIND
1070
     0
1002
}
1002
{
1000
OTHER
1070
     0
1002
}
1002
{
1000
REACTOR
1002
}
  0
LINE
  5
1DC5
  8
SAPA_PROFIL
 62
     4
 10
79.950000071717568
 20
95.579885845395381
 30
0.0
 11
82.678481421797628
 21
95.579885845395154
 31
0.0
1001
GENIUS_GENOBJ-N-FIL_13
1002
{
1000
OWNER
1000
GEN
1002
}
1001
GENIUS_GENODEF_13
1002
{
1000
HIER
1070
     0
1002
}
1002
{
1000
MANEDIT
1070
     0
1002
}
1002
{
1000
NOSEL
1070
     0
1002
}
1002
{
1000
BEHIND
1070
     0
1002
}
1002
{
1000
OTHER
1070
     0
1002
}
1002
{
1000
REACTOR
1002
}
  0
LINE
  5
1DC6
  8
SAPA_PROFIL
 62
     4
 10
75.050000003752302
 20
120.5433594018055
 30
0.0
 11
67.550000003193873
 21
120.5433594018014
 31
0.0
  0
ARC
  5
1DC7
  8
SAPA_PROFIL
 62
     4
 10
67.550000003193873
 20
119.5433594018014
 30
0.0
 40
1.0
 50
90.0
 51
180.0
  0
LINE
  5
1DC8
  8
SAPA_PROFIL
 62
     4
 10
66.550000003193873
 20
119.5433594018014
 30
0.0
 11
66.550000003178411
 21
96.395624374877755
 31
0.0
  0
ARC
  5
1DC9
  8
SAPA_PROFIL
 62
     4
 10
67.350000003178593
 20
96.395624374877755
 30
0.0
 40
0.8000000000001818
 50
180.0
 51
270.0
  0
LINE
  5
1DCA
  8
SAPA_PROFIL
 62
     4
 10
67.350000003178593
 20
95.595624374877545
 30
0.0
 11
76.150000003697187
 21
95.595624374877545
 31
0.0
  0
ARC
  5
1DCB
  8
SAPA_PROFIL
 62
     4
 10
76.150000003697187
 20
96.395624374877755
 30
0.0
 40
0.8000000000001818
 50
270.0
 51
0.0000000000651378
  0
LINE
  5
1DCC
  8
SAPA_PROFIL
 62
     4
 10
76.950000003697369
 20
96.395624374878665
 30
0.0
 11
76.950000003673722
 21
119.5433594018055
 31
0.0
  0
ARC
  5
1DCD
  8
SAPA_PROFIL
 62
     4
 10
75.950000003674177
 20
119.5433594018039
 30
0.0
 40
0.9999999999995453
 50
0.0000000000911929
 51
89.999999999973952
  0
LINE
  5
1DCE
  8
SAPA_PROFIL
 62
     4
 10
75.950000003674631
 20
120.5433594018035
 30
0.0
 11
75.050000003752302
 21
120.5433594018055
 31
0.0
  0
LINE
  5
1DCF
  8
SAPA_PROFIL
 10
49.5
 20
4.5
 30
0.0
 11
49.5
 21
0.5
 31
0.0
  0
ARC
  5
1DD0
  8
SAPA_PROFIL
 10
49.0
 20
0.5
 30
0.0
 40
0.5
 50
270.0
 51
0.0
  0
LINE
  5
1DD1
  8
SAPA_PROFIL
 10
49.0
 20
0.0
 30
0.0
 11
0.0
 21
0.0
 31
0.0
  0
ARC
  5
1DD2
  8
SAPA_PROFIL
 10
0.0
 20
0.5
 30
0.0
 40
0.5
 50
180.0
 51
270.0
  0
LINE
  5
1DD3
  8
SAPA_PROFIL
 10
-0.5
 20
0.5
 30
0.0
 11
-0.5
 21
49.5
 31
0.0
  0
ARC
  5
1DD4
  8
SAPA_PROFIL
 10
0.0
 20
49.5
 30
0.0
 40
0.5
 50
90.0
 51
180.0
  0
LINE
  5
1DD5
  8
SAPA_PROFIL
 10
0.0
 20
50.0
 30
0.0
 11
4.0
 21
50.0
 31
0.0
  0
ARC
  5
1DD6
  8
SAPA_PROFIL
 10
4.0
 20
49.5
 30
0.0
 40
0.5
 50
0.0
 51
90.0
  0
LINE
  5
1DD7
  8
SAPA_PROFIL
 10
4.5
 20
49.5
 30
0.0
 11
4.5
 21
10.0
 31
0.0
  0
ARC
  5
1DD8
  8
SAPA_PROFIL
 10
9.5
 20
10.0
 30
0.0
 40
5.0
 50
180.0
 51
270.0
  0
LINE
  5
1DD9
  8
SAPA_PROFIL
 10
9.5
 20
5.0
 30
0.0
 11
49.0
 21
5.0
 31
0.0
  0
ARC
  5
1DDA
  8
SAPA_PROFIL
 10
49.0
 20
4.5
 30
0.0
 40
0.5
 50
0.0
 51
90.0
  0
LINE
  5
1DDB
  8
SAPA_PROFIL
 10
171.00000240345841
 20
4.495624334186572
 30
0.0
 11
171.00000240345841
 21
0.495624334186573
 31
0.0
  0
ARC
  5
1DDC
  8
SAPA_PROFIL
 10
171.50000240345841
 20
0.495624334186573
 30
0.0
 40
0.5
 50
180.0
 51
270.0
  0
LINE
  5
1DDD
  8
SAPA_PROFIL
 10
171.50000240345841
 20
-0.0043756658134271
 30
0.0
 11
220.5000024034585
 21
-0.0043756658134271
 31
0.0
  0
ARC
  5
1DDE
  8
SAPA_PROFIL
 10
220.5000024034585
 20
0.495624334186573
 30
0.0
 40
0.5
 50
270.0
 51
0.0
  0
LINE
  5
1DDF
  8
SAPA_PROFIL
 10
221.00000240345841
 20
0.495624334186573
 30
0.0
 11
221.00000240345841
 21
49.495624334186573
 31
0.0
  0
ARC
  5
1DE0
  8
SAPA_PROFIL
 10
220.5000024034585
 20
49.495624334186573
 30
0.0
 40
0.5
 50
0.0
 51
90.0
  0
LINE
  5
1DE1
  8
SAPA_PROFIL
 10
220.5000024034585
 20
49.995624334186573
 30
0.0
 11
216.5000024034585
 21
49.995624334186573
 31
0.0
  0
ARC
  5
1DE2
  8
SAPA_PROFIL
 10
216.5000024034585
 20
49.495624334186573
 30
0.0
 40
0.5
 50
90.0
 51
180.0
  0
LINE
  5
1DE3
  8
SAPA_PROFIL
 10
216.00000240345841
 20
49.495624334186573
 30
0.0
 11
216.00000240345841
 21
9.9956243341865711
 31
0.0
  0
ARC
  5
1DE4
  8
SAPA_PROFIL
 10
211.00000240345841
 20
9.9956243341865711
 30
0.0
 40
5.0
 50
270.0
 51
0.0
  0
LINE
  5
1DE5
  8
SAPA_PROFIL
 10
211.00000240345841
 20
4.995624334186572
 30
0.0
 11
171.50000240345841
 21
4.995624334186572
 31
0.0
  0
ARC
  5
1DE6
  8
SAPA_PROFIL
 10
171.50000240345841
 20
4.495624334186572
 30
0.0
 40
0.5
 50
90.0
 51
180.0
  0
DIMENSION
  5
1E02
  8
SAPA_MATT
  2
*D16
 10
1.7500002145311571
 20
179.9956243341847
 30
0.0
 11
-0.7499997854688421
 21
179.9956243341847
 31
0.0
 70
   128
 13
-3.249999785468844
 23
136.99562433418669
 33
0.0
 14
1.7500002145311551
 24
138.4956243341864
 34
0.0
 50
0.000000000000007
1001
ACAD
1000
DSTYLE
1002
{
1070
    40
1040
1.0
1002
}
  0
DIMENSION
  5
1E03
  8
SAPA_MATT
  2
*D15
 10
81.750000071830996
 20
179.9956243341847
 30
0.0
 11
41.750000143181069
 21
182.4956243341847
 31
0.0
 70
     0
  1
80
 13
1.7500002145311551
 23
138.4956243341864
 33
0.0
 14
81.750000071830996
 24
133.99562433734121
 34
0.0
 50
0.000000000000007
1001
ACAD
1000
DSTYLE
1002
{
1070
   287
1070
     4
1070
    40
1040
1.0
1070
   279
1070
     1
1002
}
  0
DIMENSION
  5
1E04
  8
SAPA_MATT
  2
*D14
 10
-28.249999792338709
 20
138.9956243341849
 30
0.0
 11
-30.749999792338741
 21
80.495624334184996
 31
0.0
 70
     0
 13
-1.8749997923387121
 23
21.995624334184981
 33
0.0
 14
-1.7499997923387121
 24
138.9956243341849
 34
0.0
 50
90.0
1001
ACAD
1000
DSTYLE
1002
{
1070
    40
1040
1.0
1002
}
  0
DIMENSION
  5
1E05
  8
SAPA_MATT
  2
*D13
 10
-40.249999792338713
 20
138.9956243341849
 30
0.0
 11
-42.751136155975097
 21
69.495624334185749
 31
0.0
 70
     0
  1
min. 130
 13
0.0000001361472641
 23
-0.0043756658134839
 33
0.0
 14
-1.7499997923387121
 24
138.9956243341849
 34
0.0
 50
90.0
1001
ACAD
1000
DSTYLE
1002
{
1070
    40
1040
1.0
1002
}
  0
DIMENSION
  5
1E06
  8
SAPA_MATT
  2
*D12
 10
138.75000007116881
 20
179.99563233418399
 30
0.0
 11
110.2500000714999
 21
182.49563233418399
 31
0.0
 70
     0
 13
81.750000071830996
 23
133.99563233521769
 33
0.0
 14
138.75000007116881
 24
133.99563233521769
 34
0.0
 50
0.000000000000007
1001
ACAD
1000
DSTYLE
1002
{
1070
   287
1070
     4
1070
    40
1040
1.0
1070
   279
1070
     1
1002
}
  0
DIMENSION
  5
1E07
  8
SAPA_MATT
  2
*D11
 10
218.7499999284687
 20
179.9956243341847
 30
0.0
 11
221.2499999284687
 21
179.9956243341847
 31
0.0
 70
   128
 13
223.7499999284687
 23
136.99562433418669
 33
0.0
 14
218.7499999284687
 24
138.4956243341864
 34
0.0
 50
180.0
1001
ACAD
1000
DSTYLE
1002
{
1070
    40
1040
1.0
1002
}
  0
DIMENSION
  5
1E08
  8
SAPA_MATT
  2
*D10
 10
138.75000007116881
 20
179.9956243341847
 30
0.0
 11
178.7499999998187
 21
182.4956243341847
 31
0.0
 70
     0
  1
80
 13
218.7499999284687
 23
138.4956243341864
 33
0.0
 14
138.75000007116881
 24
133.99562433734121
 34
0.0
 50
180.0
1001
ACAD
1000
DSTYLE
1002
{
1070
   287
1070
     4
1070
    40
1040
1.0
1070
   279
1070
     1
1002
}
  0
DIMENSION
  5
1E09
  8
SAPA_MATT
  2
*D9
 10
-3.2499999284868819
 20
191.9956243341847
 30
0.0
 11
110.24999999999091
 21
194.4956243341847
 31
0.0
 70
     0
  1
227
 13
223.7499999284687
 23
136.7661669005779
 33
0.0
 14
-3.2499999284868859
 24
136.99562433418669
 34
0.0
 50
180.0
1001
ACAD
1000
DSTYLE
1002
{
1070
    40
1040
1.0
1002
}
  0
VIEWPORT
  5
C4
 67
     1
  8
0
 10
160.5543545598442
 20
116.00969601843509
 30
0.0
 40
404.96977709277462
 41
256.8421457311839
 68
     1
 69
     1
1001
ACAD
1000
MVIEW
1002
{
1070
    16
1010
0.0
1020
0.0
1030
0.0
1010
0.0
1020
0.0
1030
1.0
1040
0.0
1040
256.8421457311839
1040
160.5543545598442
1040
116.00969601843509
1040
50.0
1040
0.0
1040
0.0
1070
     0
1070
   100
1070
     1
1070
     1
1070
     0
1070
     0
1070
     0
1070
     0
1040
0.0
1040
0.0
1040
0.0
1040
10.0
1040
10.0
1040
10.0
1040
10.0
1070
     0
1002
{
1002
}
1002
}
  0
ENDSEC
  0
EOF
