  0
SECTION
  2
HEADER
  9
$ACADVER
  1
AC1009
  9
$INSBASE
 10
0.0
 20
0.0
 30
0.0
  9
$EXTMIN
 10
0.0
 20
-47.536845873416489
 30
-0.2
  9
$EXTMAX
 10
147.50055534994459
 20
282.00325579136961
 30
0.0000000048844772
  9
$LIMMIN
 10
0.0
 20
0.0
  9
$LIMMAX
 10
790.0
 20
790.0
  9
$ORTHOMODE
 70
     0
  9
$REGENMODE
 70
     1
  9
$FILLMODE
 70
     1
  9
$QTEXTMODE
 70
     0
  9
$MIRRTEXT
 70
     1
  9
$DRAGMODE
 70
     2
  9
$LTSCALE
 40
4.0
  9
$OSMODE
 70
   167
  9
$ATTMODE
 70
     1
  9
$TEXTSIZE
 40
3.5
  9
$TRACEWID
 40
0.05
  9
$TEXTSTYLE
  7
ISO
  9
$CLAYER
  8
0
  9
$CELTYPE
  6
BYLAYER
  9
$CECOLOR
 62
   256
  9
$DIMSCALE
 40
0.0
  9
$DIMASZ
 40
3.0
  9
$DIMEXO
 40
1.5
  9
$DIMDLI
 40
10.0
  9
$DIMRND
 40
0.0
  9
$DIMDLE
 40
0.0
  9
$DIMEXE
 40
1.5
  9
$DIMTP
 40
0.0
  9
$DIMTM
 40
0.0
  9
$DIMTXT
 40
3.0
  9
$DIMCEN
 40
-5.0
  9
$DIMTSZ
 40
0.0
  9
$DIMTOL
 70
     0
  9
$DIMLIM
 70
     0
  9
$DIMTIH
 70
     0
  9
$DIMTOH
 70
     0
  9
$DIMSE1
 70
     0
  9
$DIMSE2
 70
     0
  9
$DIMTAD
 70
     1
  9
$DIMZIN
 70
     8
  9
$DIMBLK
  1

  9
$DIMASO
 70
     1
  9
$DIMSHO
 70
     1
  9
$DIMPOST
  1

  9
$DIMAPOST
  1

  9
$DIMALT
 70
     0
  9
$DIMALTD
 70
     0
  9
$DIMALTF
 40
25.399999999999999
  9
$DIMLFAC
 40
-1.0
  9
$DIMTOFL
 70
     1
  9
$DIMTVP
 40
0.0
  9
$DIMTIX
 70
     0
  9
$DIMSOXD
 70
     0
  9
$DIMSAH
 70
     0
  9
$DIMBLK1
  1

  9
$DIMBLK2
  1

  9
$DIMSTYLE
  2
MASKIN
  9
$DIMCLRD
 70
   256
  9
$DIMCLRE
 70
   256
  9
$DIMCLRT
 70
     2
  9
$DIMTFAC
 40
1.0
  9
$DIMGAP
 40
1.0
  9
$LUNITS
 70
     2
  9
$LUPREC
 70
     8
  9
$SKETCHINC
 40
0.1
  9
$FILLETRAD
 40
0.0
  9
$AUNITS
 70
     0
  9
$AUPREC
 70
     8
  9
$MENU
  1
ACAD
  9
$ELEVATION
 40
0.0
  9
$PELEVATION
 40
0.0
  9
$THICKNESS
 40
0.0
  9
$LIMCHECK
 70
     0
  9
$BLIPMODE
 70
     0
  9
$CHAMFERA
 40
0.0
  9
$CHAMFERB
 40
0.0
  9
$SKPOLY
 70
     0
  9
$TDCREATE
 40
2458299.4382186462
  9
$TDUPDATE
 40
2458303.4841013998
  9
$TDINDWG
 40
0.109735787
  9
$TDUSRTIMER
 40
0.1097355556
  9
$USRTIMER
 70
     1
  9
$ANGBASE
 50
0.0
  9
$ANGDIR
 70
     0
  9
$PDMODE
 70
     0
  9
$PDSIZE
 40
0.0
  9
$PLINEWID
 40
0.0
  9
$COORDS
 70
     1
  9
$SPLFRAME
 70
     0
  9
$SPLINETYPE
 70
     6
  9
$SPLINESEGS
 70
     8
  9
$ATTDIA
 70
     1
  9
$ATTREQ
 70
     1
  9
$HANDLING
 70
     1
  9
$HANDSEED
  5
2AA8
  9
$SURFTAB1
 70
     6
  9
$SURFTAB2
 70
     6
  9
$SURFTYPE
 70
     6
  9
$SURFU
 70
     6
  9
$SURFV
 70
     6
  9
$UCSNAME
  2

  9
$UCSORG
 10
0.0
 20
0.0
 30
0.0
  9
$UCSXDIR
 10
1.0
 20
0.0
 30
0.0
  9
$UCSYDIR
 10
0.0
 20
1.0
 30
0.0
  9
$PUCSNAME
  2

  9
$PUCSORG
 10
0.0
 20
0.0
 30
0.0
  9
$PUCSXDIR
 10
1.0
 20
0.0
 30
0.0
  9
$PUCSYDIR
 10
0.0
 20
1.0
 30
0.0
  9
$USERI1
 70
     0
  9
$USERI2
 70
     0
  9
$USERI3
 70
     0
  9
$USERI4
 70
     0
  9
$USERI5
 70
     0
  9
$USERR1
 40
0.0
  9
$USERR2
 40
0.0
  9
$USERR3
 40
0.0
  9
$USERR4
 40
0.0
  9
$USERR5
 40
0.0
  9
$WORLDVIEW
 70
     1
  9
$SHADEDGE
 70
     3
  9
$SHADEDIF
 70
    70
  9
$TILEMODE
 70
     1
  9
$MAXACTVP
 70
    32
  9
$PLIMCHECK
 70
     0
  9
$PEXTMIN
 10
1.0000000000000000E+020
 20
1.0000000000000000E+020
 30
1.0000000000000000E+020
  9
$PEXTMAX
 10
-1.0000000000000000E+020
 20
-1.0000000000000000E+020
 30
-1.0000000000000000E+020
  9
$PLIMMIN
 10
-5.069427490234375
 20
-5.8737497329711914
  9
$PLIMMAX
 10
291.89889526367187
 20
204.0995779037475
  9
$UNITMODE
 70
     0
  9
$VISRETAIN
 70
     1
  9
$PLINEGEN
 70
     0
  9
$PSLTSCALE
 70
     1
  0
ENDSEC
  0
SECTION
  2
TABLES
  0
TABLE
  2
VPORT
 70
     1
  0
VPORT
  2
*ACTIVE
 70
     0
 10
0.0
 20
0.0
 11
1.0
 21
1.0
 12
73.749085938033033
 22
288.4814882906083
 13
0.0
 23
0.0
 14
1.0
 24
1.0
 15
0.0
 25
0.0
 16
0.0
 26
0.0
 36
1.0
 17
0.0
 27
0.0
 37
0.0
 40
468.50514253177909
 41
1.7265193370165739
 42
50.0
 43
0.0
 44
0.0
 50
0.0
 51
0.0
 71
     0
 72
   100
 73
     1
 74
     1
 75
     0
 76
     0
 77
     0
 78
     0
  0
ENDTAB
  0
TABLE
  2
LTYPE
 70
     1
  0
LTYPE
  2
CONTINUOUS
 70
     0
  3
Solid line
 72
    65
 73
     0
 40
0.0
  0
ENDTAB
  0
TABLE
  2
LAYER
 70
    23
  0
LAYER
  2
0
 70
     0
 62
     7
  6
CONTINUOUS
  0
LAYER
  2
DEFPOINTS
 70
     0
 62
     7
  6
CONTINUOUS
  0
LAYER
  2
SAPA_ARTIKELNR
 70
     0
 62
     4
  6
CONTINUOUS
  0
LAYER
  2
SAPA_ANSLUTNING
 70
     0
 62
     6
  6
CONTINUOUS
  0
LAYER
  2
SAPA_GLAS
 70
     0
 62
     4
  6
CONTINUOUS
  0
LAYER
  2
SAPA_FOGBAND
 70
     0
 62
     2
  6
CONTINUOUS
  0
LAYER
  2
SAPA_PROFIL
 70
     0
 62
     7
  6
CONTINUOUS
  0
LAYER
  2
SAPA_MATT
 70
     0
 62
     1
  6
CONTINUOUS
  0
ENDTAB
  0
TABLE
  2
STYLE
 70
     2
  0
STYLE
  2
STANDARD
 70
     0
 40
0.0
 41
1.0
 50
0.0
 71
     0
 42
0.2
  3
txt
  4

  0
STYLE
  2
ISO
 70
     0
 40
0.0
 41
1.0
 50
0.0
 71
     0
 42
3.5
  3
txt
  4

  0
ENDTAB
  0
TABLE
  2
VIEW
 70
     0
  0
ENDTAB
  0
TABLE
  2
UCS
 70
     0
  0
ENDTAB
  0
TABLE
  2
APPID
 70
    22
  0
APPID
  2
ACAD
 70
     0
  0
APPID
  2
ACAD_DSTYLE_DIMTEXT_FILL
 70
     0
  0
APPID
  2
ACAD_DSTYLE_DIMEXT_LENGTH
 70
     0
  0
APPID
  2
ACAD_DSTYLE_DIMEXT_ENABLED
 70
     0
  0
APPID
  2
ACAD_DSTYLE_DIM_LINETYPE
 70
     0
  0
APPID
  2
ACAD_DSTYLE_DIM_EXT1_LINETYPE
 70
     0
  0
APPID
  2
ACAD_DSTYLE_DIM_EXT2_LINETYPE
 70
     0
  0
APPID
  2
ACAD_DSTYLE_DIMJOGGED_JOGA
 70
     0
  0
APPID
  2
ACAD_DSTYLE_DIMARC_LENGTH_
 70
     0
  0
APPID
  2
ACAD_PSEXT
 70
     0
  0
APPID
  2
ACAD_MLEADERVER
 70
     0
  0
APPID
  2
ACAD_NAV_VCDISPLAY
 70
     0
  0
APPID
  2
GENIUS_GENODEF_13
 70
     0
  0
APPID
  2
RC_PROFILE
 70
     0
  0
APPID
  2
ACAECLAYERSTANDARD
 70
     0
  0
APPID
  2
GENIUS_GENOBJ-N-FIL_13
 70
     0
  0
APPID
  2
GENIUS_GENREC_14
 70
     0
  0
APPID
  2
GENIUS_GENOBJ-N-REC_13
 70
     0
  0
APPID
  2
ACCMTRANSPARENCY
 70
     0
  0
APPID
  2
GRADIENTCOLOR1ACI
 70
     0
  0
APPID
  2
GRADIENTCOLOR2ACI
 70
     0
  0
APPID
  2
ACAD_EXEMPT_FROM_CAD_STANDARDS
 70
     0
  0
ENDTAB
  0
TABLE
  2
DIMSTYLE
 70
     2
  0
DIMSTYLE
  2
STANDARD
 70
     0
  3

  4

  5

  6

  7

 40
1.0
 41
0.18
 42
0.0625
 43
0.38
 44
0.18
 45
0.0
 46
0.0
 47
0.0
 48
0.0
140
0.18
141
0.09
142
0.0
143
25.399999999999999
144
1.0
145
0.0
146
1.0
147
0.09
 71
     0
 72
     0
 73
     1
 74
     1
 75
     0
 76
     0
 77
     0
 78
     0
170
     0
171
     2
172
     0
173
     0
174
     0
175
     0
176
     0
177
     0
178
     0
  0
DIMSTYLE
  2
MASKIN
 70
     0
  3

  4

  5

  6

  7

 40
0.0
 41
3.0
 42
1.5
 43
10.0
 44
1.5
 45
0.0
 46
0.0
 47
0.0
 48
0.0
140
3.0
141
-5.0
142
0.0
143
25.399999999999999
144
-1.0
145
0.0
146
1.0
147
1.0
 71
     0
 72
     0
 73
     0
 74
     0
 75
     0
 76
     0
 77
     1
 78
     8
170
     0
171
     0
172
     1
173
     0
174
     0
175
     0
176
   256
177
   256
178
     2
  0
ENDTAB
  0
ENDSEC
  0
SECTION
  2
BLOCKS
  0
BLOCK
  8
0
  2
$MODEL_SPACE
 70
     0
 10
0.0
 20
0.0
 30
0.0
  3
$MODEL_SPACE
  1

  0
ENDBLK
  5
37
  8
0
  0
BLOCK
 67
     1
  8
0
  2
$PAPER_SPACE
 70
     0
 10
0.0
 20
0.0
 30
0.0
  3
$PAPER_SPACE
  1

  0
ENDBLK
  5
35
 67
     1
  8
0
  0
BLOCK
  8
0
  2
*D8
 70
     1
 10
0.0
 20
0.0
 30
0.0
  3
*D8
  1

  0
LINE
  5
28EC
  8
SAPA_MATT
 10
106.5005553499691
 20
7.8239407894608632
 30
0.0
 11
106.5005553499691
 21
-43.000000071413091
 31
0.0
  0
LINE
  5
28ED
  8
SAPA_MATT
 10
15.00055534994681
 20
-1.200000143135213
 30
0.0
 11
15.000555349946801
 21
-43.000000071413091
 31
0.0
  0
LINE
  5
28EE
  8
SAPA_MATT
 10
103.5005553499691
 20
-41.500000071413098
 30
0.0
 11
18.000555349946811
 21
-41.500000071413098
 31
0.0
  0
SOLID
  5
28EF
  8
SAPA_MATT
 10
103.5005553499691
 20
-41.000000071413098
 30
0.0
 11
103.5005553499691
 21
-42.000000071413091
 31
0.0
 12
106.5005553499691
 22
-41.500000071413098
 32
0.0
 13
106.5005553499691
 23
-41.500000071413098
 33
0.0
  0
SOLID
  5
28F0
  8
SAPA_MATT
 10
18.000555349946811
 20
-41.000000071413098
 30
0.0
 11
18.000555349946811
 21
-42.000000071413091
 31
0.0
 12
15.000555349946801
 22
-41.500000071413098
 32
0.0
 13
15.000555349946801
 23
-41.500000071413098
 33
0.0
  0
INSERT
  5
28F1
  8
0
  2
*U20
 10
0.0
 20
0.0
 30
0.0
  0
POINT
  5
28F2
  8
DEFPOINTS
 62
     0
 10
106.5005553499691
 20
9.3239407894608632
 30
0.0
  0
POINT
  5
28F3
  8
DEFPOINTS
 62
     0
 10
15.00055534994681
 20
0.2999998568647868
 30
0.0
  0
POINT
  5
28F4
  8
DEFPOINTS
 62
     0
 10
15.000555349946801
 20
-41.500000071413098
 30
0.0
  0
ENDBLK
  5
2860
  8
0
  0
BLOCK
  8
0
  2
*D9
 70
     1
 10
0.0
 20
0.0
 30
0.0
  3
*D9
  1

  0
LINE
  5
28E3
  8
SAPA_MATT
 10
15.00055534994681
 20
-1.200000143135213
 30
0.0
 11
15.000555349946801
 21
-31.000000071413101
 31
0.0
  0
LINE
  5
28E4
  8
SAPA_MATT
 10
75.000555349944989
 20
0.4999998568596027
 30
0.0
 11
75.000555349944989
 21
-31.000000071413101
 31
0.0
  0
LINE
  5
28E5
  8
SAPA_MATT
 10
18.000555349946811
 20
-29.500000071413101
 30
0.0
 11
72.000555349944989
 21
-29.500000071413101
 31
0.0
  0
SOLID
  5
28E6
  8
SAPA_MATT
 10
18.000555349946811
 20
-29.000000071413101
 30
0.0
 11
18.000555349946811
 21
-30.000000071413101
 31
0.0
 12
15.000555349946801
 22
-29.500000071413101
 32
0.0
 13
15.000555349946801
 23
-29.500000071413101
 33
0.0
  0
SOLID
  5
28E7
  8
SAPA_MATT
 10
72.000555349944989
 20
-29.000000071413101
 30
0.0
 11
72.000555349944989
 21
-30.000000071413101
 31
0.0
 12
75.000555349944989
 22
-29.500000071413101
 32
0.0
 13
75.000555349944989
 23
-29.500000071413101
 33
0.0
  0
INSERT
  5
28E8
  8
0
  2
*U19
 10
0.0
 20
0.0
 30
0.0
  0
POINT
  5
28E9
  8
DEFPOINTS
 62
     0
 10
15.00055534994681
 20
0.2999998568647868
 30
0.0
  0
POINT
  5
28EA
  8
DEFPOINTS
 62
     0
 10
75.000555349944989
 20
1.999999856859602
 30
0.0
  0
POINT
  5
28EB
  8
DEFPOINTS
 62
     0
 10
75.000555349944989
 20
-29.500000071413101
 30
0.0
  0
ENDBLK
  5
286C
  8
0
  0
BLOCK
  8
0
  2
*D10
 70
     1
 10
0.0
 20
0.0
 30
0.0
  3
*D10
  1

  0
LINE
  5
2A0A
  8
SAPA_MATT
 10
75.000555349944989
 20
0.4999998568600575
 30
0.0
 11
75.000555349944989
 21
-31.00000014316041
 31
0.0
  0
LINE
  5
2A0B
  8
SAPA_MATT
 10
106.5005553499691
 20
7.8239407894608632
 30
0.0
 11
106.5005553499691
 21
-31.00000014316041
 31
0.0
  0
LINE
  5
2A0C
  8
SAPA_MATT
 10
78.000555349944975
 20
-29.50000014316041
 30
0.0
 11
103.5005553499691
 21
-29.50000014316041
 31
0.0
  0
SOLID
  5
2A0D
  8
SAPA_MATT
 10
78.000555349944975
 20
-29.00000014316041
 30
0.0
 11
78.000555349944975
 21
-30.00000014316041
 31
0.0
 12
75.000555349944989
 22
-29.50000014316041
 32
0.0
 13
75.000555349944989
 23
-29.50000014316041
 33
0.0
  0
SOLID
  5
2A0E
  8
SAPA_MATT
 10
103.5005553499691
 20
-29.00000014316041
 30
0.0
 11
103.5005553499691
 21
-30.00000014316041
 31
0.0
 12
106.5005553499691
 22
-29.50000014316041
 32
0.0
 13
106.5005553499691
 23
-29.50000014316041
 33
0.0
  0
TEXT
  8
SAPA_MATT
  40
3
  5
2A23
  62
2
  72
0
  71
0
 10
84.7506
 20
-32.3100
 30
0.000000
  1
31.5
  7
ISO
  0
POINT
  5
2A10
  8
DEFPOINTS
 62
     0
 10
75.000555349944989
 20
1.999999856860057
 30
0.0
  0
POINT
  5
2A11
  8
DEFPOINTS
 62
     0
 10
106.5005553499691
 20
9.3239407894608632
 30
0.0
  0
POINT
  5
2A12
  8
DEFPOINTS
 62
     0
 10
106.5005553499691
 20
-29.50000014316041
 30
0.0
  0
ENDBLK
  5
2878
  8
0
  0
BLOCK
  8
0
  2
*D11
 70
     1
 10
0.0
 20
0.0
 30
0.0
  3
*D11
  1

  0
LINE
  5
28D1
  8
SAPA_MATT
 10
74.500555349944534
 20
-0.000000143139943
 30
0.0
 11
147.50055534994451
 21
-0.0000001431399637
 31
0.0
  0
LINE
  5
28D2
  8
SAPA_MATT
 10
74.500555349944534
 20
226.99999985658999
 30
0.0
 11
147.50055534994459
 21
226.99999985658999
 31
0.0
  0
LINE
  5
28D3
  8
SAPA_MATT
 10
146.00055534994451
 20
2.9999998568600361
 30
0.0
 11
146.00055534994459
 21
223.99999985658991
 31
0.0
  0
SOLID
  5
28D4
  8
SAPA_MATT
 10
145.50055534994451
 20
2.9999998568600361
 30
0.0
 11
146.50055534994451
 21
2.9999998568600361
 31
0.0
 12
146.00055534994451
 22
-0.0000001431399632
 32
0.0
 13
146.00055534994451
 23
-0.0000001431399632
 33
0.0
  0
SOLID
  5
28D5
  8
SAPA_MATT
 10
145.50055534994459
 20
223.99999985658991
 30
0.0
 11
146.50055534994459
 21
223.99999985658991
 31
0.0
 12
146.00055534994459
 22
226.99999985658999
 32
0.0
 13
146.00055534994459
 23
226.99999985658999
 33
0.0
  0
INSERT
  5
28D6
  8
0
  2
*U18
 10
0.0
 20
0.0
 30
0.0
  0
POINT
  5
28D7
  8
DEFPOINTS
 62
     0
 10
73.000555349944534
 20
-0.0000001431399426
 30
0.0
  0
POINT
  5
28D8
  8
DEFPOINTS
 62
     0
 10
73.000555349944534
 20
226.99999985658999
 30
0.0
  0
POINT
  5
28D9
  8
DEFPOINTS
 62
     0
 10
146.00055534994459
 20
226.99999985658999
 30
0.0
  0
ENDBLK
  5
2884
  8
0
  0
BLOCK
  8
0
  2
*D12
 70
     1
 10
0.0
 20
0.0
 30
0.0
  3
*D12
  1

  0
LINE
  5
2A01
  8
SAPA_MATT
 10
75.832551887915074
 20
67.999999856521271
 30
0.0
 11
135.50055534994451
 21
67.999999856521256
 31
0.0
  0
LINE
  5
2A02
  8
SAPA_MATT
 10
74.500555349944534
 20
226.99999985658999
 30
0.0
 11
135.50055534994451
 21
226.99999985658999
 31
0.0
  0
LINE
  5
2A03
  8
SAPA_MATT
 10
134.00055534994451
 20
70.999999856521256
 30
0.0
 11
134.00055534994451
 21
223.99999985658991
 31
0.0
  0
TEXT
  8
SAPA_MATT
  40
3
  5
2A24
  62
2
  72
0
  71
0
 10
125.501
 20
142.190
 30
0.000000
  1
159
  7
ISO
  0
SOLID
  5
2A05
  8
SAPA_MATT
 10
133.50055534994451
 20
70.999999856521256
 30
0.0
 11
134.50055534994451
 21
70.999999856521256
 31
0.0
 12
134.00055534994451
 22
67.999999856521256
 32
0.0
 13
134.00055534994451
 23
67.999999856521256
 33
0.0
  0
SOLID
  5
2A06
  8
SAPA_MATT
 10
133.50055534994451
 20
223.99999985658991
 30
0.0
 11
134.50055534994451
 21
223.99999985658991
 31
0.0
 12
134.00055534994451
 22
226.99999985658999
 32
0.0
 13
134.00055534994451
 23
226.99999985658999
 33
0.0
  0
POINT
  5
2A07
  8
DEFPOINTS
 62
     0
 10
74.332551887915088
 20
67.999999856521271
 30
0.0
  0
POINT
  5
2A08
  8
DEFPOINTS
 62
     0
 10
73.000555349944534
 20
226.99999985658999
 30
0.0
  0
POINT
  5
2A09
  8
DEFPOINTS
 62
     0
 10
134.00055534994451
 20
226.99999985658999
 30
0.0
  0
ENDBLK
  5
2890
  8
0
  0
BLOCK
  8
0
  2
*D13
 70
     1
 10
0.0
 20
0.0
 30
0.0
  3
*D13
  1

  0
LINE
  5
29F8
  8
SAPA_MATT
 10
76.000555349946353
 20
4.9999998568600574
 30
0.0
 11
135.50055534994451
 21
4.9999998568600397
 31
0.0
  0
LINE
  5
29F9
  8
SAPA_MATT
 10
75.832551887945556
 20
67.999999856579024
 30
0.0
 11
135.50055534994451
 21
67.999999856579009
 31
0.0
  0
LINE
  5
29FA
  8
SAPA_MATT
 10
134.00055534994451
 20
7.9999998568600397
 30
0.0
 11
134.00055534994451
 21
64.999999856578995
 31
0.0
  0
SOLID
  5
29FB
  8
SAPA_MATT
 10
133.50055534994451
 20
7.9999998568600406
 30
0.0
 11
134.50055534994451
 21
7.9999998568600397
 31
0.0
 12
134.00055534994451
 22
4.9999998568600397
 32
0.0
 13
134.00055534994451
 23
4.9999998568600397
 33
0.0
  0
SOLID
  5
29FC
  8
SAPA_MATT
 10
133.50055534994451
 20
64.999999856578995
 30
0.0
 11
134.50055534994451
 21
64.999999856578995
 31
0.0
 12
134.00055534994451
 22
67.999999856579009
 32
0.0
 13
134.00055534994451
 23
67.999999856579009
 33
0.0
  0
TEXT
  8
SAPA_MATT
  40
3
  5
2A25
  62
2
  72
0
  71
0
 10
125.501
 20
31.1900
 30
0.000000
  1
63
  7
ISO
  0
POINT
  5
29FE
  8
DEFPOINTS
 62
     0
 10
74.500555349946353
 20
4.9999998568600574
 30
0.0
  0
POINT
  5
29FF
  8
DEFPOINTS
 62
     0
 10
74.332551887945556
 20
67.999999856579024
 30
0.0
  0
POINT
  5
2A00
  8
DEFPOINTS
 62
     0
 10
134.00055534994451
 20
67.999999856579009
 30
0.0
  0
ENDBLK
  5
289C
  8
0
  0
BLOCK
  8
0
  2
*D14
 70
     1
 10
0.0
 20
0.0
 30
0.0
  3
*D14
  1

  0
LINE
  5
28B4
  8
SAPA_MATT
 10
74.500555349944534
 20
-0.000000143139943
 30
0.0
 11
135.50055534994451
 21
-0.0000001431399603
 31
0.0
  0
LINE
  5
28B5
  8
SAPA_MATT
 10
76.000555349946353
 20
4.999999856873699
 30
0.0
 11
135.50055534994451
 21
4.9999998568736821
 31
0.0
  0
LINE
  5
28B6
  8
SAPA_MATT
 10
134.00055534994451
 20
-3.000000143139959
 30
0.0
 11
134.00055534994451
 21
-6.0000001431399603
 31
0.0
  0
LINE
  5
28B7
  8
SAPA_MATT
 10
134.00055534994451
 20
7.9999998568736821
 30
0.0
 11
134.00055534994451
 21
10.99999985687368
 31
0.0
  0
LINE
  5
28B8
  8
SAPA_MATT
 10
134.00055534994451
 20
-0.0000001431399598
 30
0.0
 11
134.00055534994451
 21
4.9999998568736821
 31
0.0
  0
SOLID
  5
28B9
  8
SAPA_MATT
 10
133.50055534994451
 20
-3.000000143139959
 30
0.0
 11
134.50055534994451
 21
-3.000000143139959
 31
0.0
 12
134.00055534994451
 22
-0.0000001431399598
 32
0.0
 13
134.00055534994451
 23
-0.0000001431399598
 33
0.0
  0
SOLID
  5
28BA
  8
SAPA_MATT
 10
133.50055534994451
 20
7.999999856873683
 30
0.0
 11
134.50055534994451
 21
7.9999998568736821
 31
0.0
 12
134.00055534994451
 22
4.9999998568736821
 32
0.0
 13
134.00055534994451
 23
4.9999998568736821
 33
0.0
  0
INSERT
  5
28BB
  8
0
  2
*U17
 10
0.0
 20
0.0
 30
0.0
  0
POINT
  5
28BC
  8
DEFPOINTS
 62
     0
 10
73.000555349944534
 20
-0.0000001431399426
 30
0.0
  0
POINT
  5
28BD
  8
DEFPOINTS
 62
     0
 10
74.500555349946353
 20
4.999999856873699
 30
0.0
  0
POINT
  5
28BE
  8
DEFPOINTS
 62
     0
 10
134.00055534994451
 20
4.9999998568736821
 30
0.0
  0
ENDBLK
  5
28A8
  8
0
  0
BLOCK
  8
0
  2
*X15
 70
     1
 10
0.0
 20
0.0
 30
0.0
  3
*X15
  1

  0
LINE
  5
294F
  8
0
 62
     0
 10
63.417626185639733
 20
227.0452201986717
 30
0.0
 11
63.462846594041437
 21
226.99999979027001
 31
0.0
  0
LINE
  5
2950
  8
0
 62
     0
 10
64.353891074305125
 20
227.23148732513999
 30
0.0
 11
64.585378601369598
 21
226.99999979807549
 31
0.0
  0
LINE
  5
2951
  8
0
 62
     0
 10
65.179158303186156
 20
227.52875211139261
 30
0.0
 11
65.707910608697787
 21
226.999999805881
 31
0.0
  0
LINE
  5
2952
  8
0
 62
     0
 10
65.911280932775213
 20
227.91916149693719
 30
0.0
 11
66.830442616025977
 21
226.9999998136864
 31
0.0
  0
LINE
  5
2953
  8
0
 62
     0
 10
66.558159871235802
 20
228.3948145736102
 30
0.0
 11
67.952974623354152
 21
226.99999982149191
 31
0.0
  0
LINE
  5
2954
  8
0
 62
     0
 10
67.12120297815774
 20
228.95430348182191
 30
0.0
 11
69.075506630682327
 21
226.99999982929731
 31
0.0
  0
LINE
  5
2955
  8
0
 62
     0
 10
67.595862886821223
 20
229.60217558829211
 30
0.0
 11
70.198038638010473
 21
226.99999983710279
 31
0.0
  0
LINE
  5
2956
  8
0
 62
     0
 10
67.969816222524685
 20
230.35075426772229
 30
0.0
 11
71.320570645338677
 21
226.9999998449083
 31
0.0
  0
LINE
  5
2957
  8
0
 62
     0
 10
68.216716930062162
 20
231.2263855753184
 30
0.0
 11
72.443102652666823
 21
226.99999985271381
 31
0.0
  0
LINE
  5
2958
  8
0
 62
     0
 10
68.274895235147483
 20
232.29073928536681
 30
0.0
 11
73.687199019156921
 21
226.87843550135739
 31
0.0
  0
LINE
  5
2959
  8
0
 62
     0
 10
63.565634735803023
 20
236.99999978471121
 30
0.0
 11
63.641998577536718
 21
236.9236359429776
 31
0.0
  0
LINE
  5
295A
  8
0
 62
     0
 10
67.922080112796294
 20
233.7660864228516
 30
0.0
 11
74.280595617574193
 21
227.4075709180737
 31
0.0
  0
LINE
  5
295B
  8
0
 62
     0
 10
64.688166750936659
 20
236.99999978471121
 30
0.0
 11
65.248176609034644
 21
236.43998992661321
 31
0.0
  0
LINE
  5
295C
  8
0
 62
     0
 10
65.810698766070303
 20
236.99999978471121
 30
0.0
 11
74.168755607021893
 21
228.64194294375969
 31
0.0
  0
LINE
  5
295D
  8
0
 62
     0
 10
66.933230781203946
 20
236.99999978471121
 30
0.0
 11
74.118171342962796
 21
229.81505922295241
 31
0.0
  0
LINE
  5
295E
  8
0
 62
     0
 10
68.055762796337589
 20
236.99999978471121
 30
0.0
 11
74.12023569490988
 21
230.935526886139
 31
0.0
  0
LINE
  5
295F
  8
0
 62
     0
 10
69.178294811471233
 20
236.99999978471121
 30
0.0
 11
74.168443504566653
 21
232.00985109161579
 31
0.0
  0
LINE
  5
2960
  8
0
 62
     0
 10
70.300826826604876
 20
236.99999978471121
 30
0.0
 11
74.257739824317227
 21
233.04308678699891
 31
0.0
  0
LINE
  5
2961
  8
0
 62
     0
 10
71.423358841738519
 20
236.99999978471121
 30
0.0
 11
74.384108412153523
 21
234.0392502142962
 31
0.0
  0
LINE
  5
2962
  8
0
 62
     0
 10
72.545890856872177
 20
236.99999978471121
 30
0.0
 11
74.544300273694745
 21
235.0015903678887
 31
0.0
  0
LINE
  5
2963
  8
0
 62
     0
 10
73.668422872005806
 20
236.99999978471121
 30
0.0
 11
74.735648025827317
 21
235.93277463088981
 31
0.0
  0
LINE
  5
2964
  8
0
 62
     0
 10
74.790954887139435
 20
236.99999978471121
 30
0.0
 11
74.95593507677161
 21
236.8350195950791
 31
0.0
  0
LINE
  5
2965
  8
0
 62
     0
 10
74.020568142303944
 20
226.72034107374
 30
0.0
 11
74.327300455715843
 21
227.027073387152
 31
0.0
  0
LINE
  5
2966
  8
0
 62
     0
 10
73.170464555944747
 20
226.99276950251451
 30
0.0
 11
74.215908527387896
 21
228.0382134739576
 31
0.0
  0
LINE
  5
2967
  8
0
 62
     0
 10
72.055162888312879
 20
226.9999998500162
 30
0.0
 11
74.143152004802232
 21
229.08798896650561
 31
0.0
  0
LINE
  5
2968
  8
0
 62
     0
 10
70.932630865373767
 20
226.9999998422108
 30
0.0
 11
74.113439493369626
 21
230.18080847020661
 31
0.0
  0
LINE
  5
2969
  8
0
 62
     0
 10
69.810098842434655
 20
226.99999983440529
 30
0.0
 11
74.132368021320502
 21
231.32226901329119
 31
0.0
  0
LINE
  5
296A
  8
0
 62
     0
 10
68.68756681949553
 20
226.9999998265998
 30
0.0
 11
74.20721831585206
 21
232.51965132295629
 31
0.0
  0
LINE
  5
296B
  8
0
 62
     0
 10
67.565034796556432
 20
226.99999981879441
 30
0.0
 11
74.347756027468137
 21
233.78272104970611
 31
0.0
  0
LINE
  5
296C
  8
0
 62
     0
 10
66.442502773617321
 20
226.9999998109889
 30
0.0
 11
74.567608378022229
 21
235.12510541539379
 31
0.0
  0
LINE
  5
296D
  8
0
 62
     0
 10
65.319970750678195
 20
226.99999980318341
 30
0.0
 11
74.886822083272563
 21
236.5668511357778
 31
0.0
  0
LINE
  5
296E
  8
0
 62
     0
 10
68.162728229420097
 20
230.965289297059
 30
0.0
 11
74.197438717072345
 21
236.99999978471121
 31
0.0
  0
LINE
  5
296F
  8
0
 62
     0
 10
64.197438727739126
 20
226.99999979537799
 30
0.0
 11
64.459606199031271
 21
227.2621672666701
 31
0.0
  0
LINE
  5
2970
  8
0
 62
     0
 10
68.279689699584594
 20
232.20478278235711
 30
0.0
 11
73.074906701938701
 21
236.99999978471121
 31
0.0
  0
LINE
  5
2971
  8
0
 62
     0
 10
63.074906704800007
 20
226.99999978757251
 30
0.0
 11
63.08928181972
 21
227.01437490249251
 31
0.0
  0
LINE
  5
2972
  8
0
 62
     0
 10
68.127072635741229
 20
233.17469773364741
 30
0.0
 11
71.952374686805058
 21
236.99999978471121
 31
0.0
  0
LINE
  5
2973
  8
0
 62
     0
 10
67.819965127786588
 20
233.99012224082639
 30
0.0
 11
70.829842671671415
 21
236.99999978471121
 31
0.0
  0
LINE
  5
2974
  8
0
 62
     0
 10
67.399801624599405
 20
234.69249075277281
 30
0.0
 11
69.707310656537771
 21
236.99999978471121
 31
0.0
  0
LINE
  5
2975
  8
0
 62
     0
 10
66.885521754958845
 20
235.30074289826601
 30
0.0
 11
68.584778641404114
 21
236.99999978471121
 31
0.0
  0
LINE
  5
2976
  8
0
 62
     0
 10
66.285633273880364
 20
235.82338643232109
 30
0.0
 11
67.462246626270485
 21
236.99999978471121
 31
0.0
  0
LINE
  5
2977
  8
0
 62
     0
 10
65.602007744094294
 20
236.2622929176687
 30
0.0
 11
66.339714611136841
 21
236.99999978471121
 31
0.0
  0
LINE
  5
2978
  8
0
 62
     0
 10
64.830598385969893
 20
236.6134155746779
 30
0.0
 11
65.217182596003184
 21
236.99999978471121
 31
0.0
  0
LINE
  5
2979
  8
0
 62
     0
 10
63.959836431743597
 20
236.86518563558531
 30
0.0
 11
64.094650580869555
 21
236.99999978471121
 31
0.0
  0
LINE
  5
297A
  8
0
 62
     0
 10
62.964917616005899
 20
236.99279883498119
 30
0.0
 11
62.97211856573589
 21
236.99999978471121
 31
0.0
  0
ENDBLK
  5
297C
  8
0
  0
BLOCK
  8
0
  2
*X16
 70
     1
 10
0.0
 20
0.0
 30
0.0
  3
*X16
  1

  0
LINE
  5
297E
  8
0
 62
     0
 10
67.930401645345725
 20
230.47810494224311
 30
0.0
 11
68.039881642189485
 21
230.54131324789171
 31
0.0
  0
LINE
  5
297F
  8
0
 62
     0
 10
65.868178652584049
 20
229.2874799422431
 30
0.0
 11
66.555586316837946
 21
229.68435494224309
 31
0.0
  0
LINE
  5
2980
  8
0
 62
     0
 10
63.805955659822352
 20
228.09685494224311
 30
0.0
 11
64.493363324076256
 21
228.49372994224311
 31
0.0
  0
LINE
  5
2981
  8
0
 62
     0
 10
61.971915255698761
 20
227.0379712212177
 30
0.0
 11
62.431140331314559
 21
227.3031049422431
 31
0.0
  0
LINE
  5
2982
  8
0
 62
     0
 10
67.242994145345719
 20
231.66872965774701
 30
0.0
 11
67.930401809599616
 21
232.065604657747
 31
0.0
  0
LINE
  5
2983
  8
0
 62
     0
 10
65.180771152584029
 20
230.478104657747
 30
0.0
 11
65.868178816837926
 21
230.87497965774699
 31
0.0
  0
LINE
  5
2984
  8
0
 62
     0
 10
63.118548159822339
 20
229.2874796577471
 30
0.0
 11
63.805955824076229
 21
229.68435465774709
 31
0.0
  0
LINE
  5
2985
  8
0
 62
     0
 10
61.056325167060649
 20
228.09685465774709
 30
0.0
 11
61.743732831314553
 21
228.49372965774711
 31
0.0
  0
LINE
  5
2986
  8
0
 62
     0
 10
66.555586645345741
 20
232.85935437325091
 30
0.0
 11
67.242994309599624
 21
233.2562293732509
 31
0.0
  0
LINE
  5
2987
  8
0
 62
     0
 10
64.493363652584051
 20
231.6687293732509
 30
0.0
 11
65.180771316837948
 21
232.06560437325089
 31
0.0
  0
LINE
  5
2988
  8
0
 62
     0
 10
62.431140659822347
 20
230.47810437325089
 30
0.0
 11
63.118548324076251
 21
230.87497937325091
 31
0.0
  0
LINE
  5
2989
  8
0
 62
     0
 10
60.368917667060657
 20
229.2874793732509
 30
0.0
 11
61.056325331314561
 21
229.6843543732509
 31
0.0
  0
LINE
  5
298A
  8
0
 62
     0
 10
58.790474005812278
 20
228.37616450052849
 30
0.0
 11
58.994102338552871
 21
228.493729373251
 31
0.0
  0
LINE
  5
298B
  8
0
 62
     0
 10
65.868179145345735
 20
234.04997908875481
 30
0.0
 11
66.555586809599632
 21
234.4468540887548
 31
0.0
  0
LINE
  5
298C
  8
0
 62
     0
 10
63.805956152584031
 20
232.85935408875491
 30
0.0
 11
64.493363816837942
 21
233.25622908875479
 31
0.0
  0
LINE
  5
298D
  8
0
 62
     0
 10
61.743733159822348
 20
231.6687290887549
 30
0.0
 11
62.431140824076238
 21
232.06560408875481
 31
0.0
  0
LINE
  5
298E
  8
0
 62
     0
 10
59.681510167060658
 20
230.47810408875489
 30
0.0
 11
60.368917831314548
 21
230.87497908875491
 31
0.0
  0
LINE
  5
298F
  8
0
 62
     0
 10
57.848528887605752
 20
229.41983185364199
 30
0.0
 11
58.306694838552858
 21
229.6843540887549
 31
0.0
  0
LINE
  5
2990
  8
0
 62
     0
 10
65.180771645345715
 20
235.24060380425871
 30
0.0
 11
65.868179309599611
 21
235.63747880425871
 31
0.0
  0
LINE
  5
2991
  8
0
 62
     0
 10
63.118548652584018
 20
234.0499788042587
 30
0.0
 11
63.805956316837907
 21
234.44685380425869
 31
0.0
  0
LINE
  5
2992
  8
0
 62
     0
 10
61.056325659822328
 20
232.85935380425869
 30
0.0
 11
61.743733324076217
 21
233.25622880425871
 31
0.0
  0
LINE
  5
2993
  8
0
 62
     0
 10
58.994102667060631
 20
231.66872880425871
 30
0.0
 11
59.681510331314527
 21
232.0656038042587
 31
0.0
  0
LINE
  5
2994
  8
0
 62
     0
 10
57.247765428860163
 20
230.6604805296879
 30
0.0
 11
57.619287338552851
 21
230.87497880425869
 31
0.0
  0
LINE
  5
2995
  8
0
 62
     0
 10
64.493364145345694
 20
236.43122851976261
 30
0.0
 11
64.817392765992111
 21
236.61830653111801
 31
0.0
  0
LINE
  5
2996
  8
0
 62
     0
 10
62.431141152584019
 20
235.24060351976269
 30
0.0
 11
63.118548816837922
 21
235.63747851976271
 31
0.0
  0
LINE
  5
2997
  8
0
 62
     0
 10
60.368918159822329
 20
234.0499785197627
 30
0.0
 11
61.056325824076218
 21
234.4468535197627
 31
0.0
  0
LINE
  5
2998
  8
0
 62
     0
 10
58.306695167060639
 20
232.85935351976269
 30
0.0
 11
58.994102831314528
 21
233.25622851976269
 31
0.0
  0
LINE
  5
2999
  8
0
 62
     0
 10
61.743733652584041
 20
236.43122823526659
 30
0.0
 11
62.43114131683793
 21
236.8281032352665
 31
0.0
  0
LINE
  5
299A
  8
0
 62
     0
 10
59.681510659822351
 20
235.2406032352666
 30
0.0
 11
60.368918324076247
 21
235.6374782352666
 31
0.0
  0
LINE
  5
299B
  8
0
 62
     0
 10
57.619287667060661
 20
234.04997823526659
 30
0.0
 11
58.30669533131455
 21
234.44685323526659
 31
0.0
  0
LINE
  5
299C
  8
0
 62
     0
 10
62.431111586882359
 20
227.30309498487989
 30
0.0
 11
62.945194537728952
 21
227.0062890548229
 31
0.0
  0
LINE
  5
299D
  8
0
 62
     0
 10
60.368888594120669
 20
228.4937199848799
 30
0.0
 11
61.056296258374573
 21
228.09684498487991
 31
0.0
  0
LINE
  5
299E
  8
0
 62
     0
 10
58.306665601358993
 20
229.68434498487991
 30
0.0
 11
58.994073265612883
 21
229.28746998487989
 31
0.0
  0
LINE
  5
299F
  8
0
 62
     0
 10
63.118519086882387
 20
228.49371970038379
 30
0.0
 11
63.80592675113629
 21
228.0968447003838
 31
0.0
  0
LINE
  5
29A0
  8
0
 62
     0
 10
61.05629609412069
 20
229.6843447003838
 30
0.0
 11
61.743703758374593
 21
229.28746970038381
 31
0.0
  0
LINE
  5
29A1
  8
0
 62
     0
 10
58.994073101359007
 20
230.87496970038379
 30
0.0
 11
59.681480765612903
 21
230.47809470038379
 31
0.0
  0
LINE
  5
29A2
  8
0
 62
     0
 10
57.04229172357941
 20
232.0018312042441
 30
0.0
 11
57.619257772851213
 21
231.6687197003838
 31
0.0
  0
LINE
  5
29A3
  8
0
 62
     0
 10
65.868149579644054
 20
228.4937194158878
 30
0.0
 11
66.342524516829073
 21
228.21983891820719
 31
0.0
  0
LINE
  5
29A4
  8
0
 62
     0
 10
63.805926586882379
 20
229.68434441588781
 30
0.0
 11
64.493334251136275
 21
229.28746941588781
 31
0.0
  0
LINE
  5
29A5
  8
0
 62
     0
 10
61.743703594120689
 20
230.8749694158877
 30
0.0
 11
62.431111258374578
 21
230.47809441588771
 31
0.0
  0
LINE
  5
29A6
  8
0
 62
     0
 10
59.681480601358999
 20
232.06559441588769
 30
0.0
 11
60.368888265612888
 21
231.66871941588769
 31
0.0
  0
LINE
  5
29A7
  8
0
 62
     0
 10
57.619257608597309
 20
233.2562194158877
 30
0.0
 11
58.306665272851212
 21
232.8593444158877
 31
0.0
  0
LINE
  5
29A8
  8
0
 62
     0
 10
66.555557079644046
 20
229.6843441313917
 30
0.0
 11
67.242964743897943
 21
229.2874691313917
 31
0.0
  0
LINE
  5
29A9
  8
0
 62
     0
 10
64.493334086882356
 20
230.87496913139159
 30
0.0
 11
65.180741751136253
 21
230.47809413139171
 31
0.0
  0
LINE
  5
29AA
  8
0
 62
     0
 10
62.431111094120659
 20
232.06559413139161
 30
0.0
 11
63.118518758374563
 21
231.6687191313917
 31
0.0
  0
LINE
  5
29AB
  8
0
 62
     0
 10
60.368888101358984
 20
233.25621913139159
 30
0.0
 11
61.05629576561288
 21
232.85934413139159
 31
0.0
  0
LINE
  5
29AC
  8
0
 62
     0
 10
58.306665108597279
 20
234.4468441313916
 30
0.0
 11
58.994072772851183
 21
234.04996913139161
 31
0.0
  0
LINE
  5
29AD
  8
0
 62
     0
 10
67.242964579644067
 20
230.8749688468956
 30
0.0
 11
67.930372243897963
 21
230.4780938468956
 31
0.0
  0
LINE
  5
29AE
  8
0
 62
     0
 10
65.180741586882377
 20
232.06559384689561
 30
0.0
 11
65.868149251136273
 21
231.66871884689559
 31
0.0
  0
LINE
  5
29AF
  8
0
 62
     0
 10
63.11851859412068
 20
233.25621884689559
 30
0.0
 11
63.805926258374583
 21
232.8593438468956
 31
0.0
  0
LINE
  5
29B0
  8
0
 62
     0
 10
61.056295601358983
 20
234.44684384689549
 30
0.0
 11
61.743703265612879
 21
234.0499688468955
 31
0.0
  0
LINE
  5
29B1
  8
0
 62
     0
 10
58.9940726085973
 20
235.6374688468955
 30
0.0
 11
59.681480272851203
 21
235.24059384689551
 31
0.0
  0
LINE
  5
29B2
  8
0
 62
     0
 10
67.930372079644059
 20
232.0655935623995
 30
0.0
 11
68.282277868011619
 21
231.8624206607561
 31
0.0
  0
LINE
  5
29B3
  8
0
 62
     0
 10
65.868149086882369
 20
233.25621856239951
 30
0.0
 11
66.555556751136265
 21
232.85934356239949
 31
0.0
  0
LINE
  5
29B4
  8
0
 62
     0
 10
63.805926094120672
 20
234.44684356239949
 30
0.0
 11
64.493333758374575
 21
234.0499685623995
 31
0.0
  0
LINE
  5
29B5
  8
0
 62
     0
 10
61.743703101358982
 20
235.6374685623995
 30
0.0
 11
62.431110765612871
 21
235.24059356239951
 31
0.0
  0
LINE
  5
29B6
  8
0
 62
     0
 10
60.234175940099149
 20
236.5089944753019
 30
0.0
 11
60.368887772851188
 21
236.43121856239941
 31
0.0
  0
LINE
  5
29B7
  8
0
 62
     0
 10
66.555556586882375
 20
234.4468432779033
 30
0.0
 11
67.242964251136272
 21
234.04996827790339
 31
0.0
  0
LINE
  5
29B8
  8
0
 62
     0
 10
64.493333594120685
 20
235.63746827790331
 30
0.0
 11
65.180741258374582
 21
235.2405932779034
 31
0.0
  0
LINE
  5
29B9
  8
0
 62
     0
 10
62.431110601358981
 20
236.82809327790329
 30
0.0
 11
63.118518265612877
 21
236.4312182779033
 31
0.0
  0
LINE
  5
29BA
  8
0
 62
     0
 10
67.242970000022751
 20
233.2562498569701
 30
0.0
 11
67.242970000022751
 21
234.04999985697009
 31
0.0
  0
LINE
  5
29BB
  8
0
 62
     0
 10
67.242970000022751
 20
230.87499985697011
 30
0.0
 11
67.242970000022751
 21
231.66874985697009
 31
0.0
  0
LINE
  5
29BC
  8
0
 62
     0
 10
67.242970000022751
 20
229.10076860436979
 30
0.0
 11
67.242970000022751
 21
229.2874998569701
 31
0.0
  0
LINE
  5
29BD
  8
0
 62
     0
 10
65.868155000022753
 20
235.63749985697009
 30
0.0
 11
65.868155000022753
 21
236.1077273220391
 31
0.0
  0
LINE
  5
29BE
  8
0
 62
     0
 10
65.868155000022753
 20
233.2562498569701
 30
0.0
 11
65.868155000022753
 21
234.04999985697009
 31
0.0
  0
LINE
  5
29BF
  8
0
 62
     0
 10
65.868155000022753
 20
230.87499985697011
 30
0.0
 11
65.868155000022753
 21
231.66874985697009
 31
0.0
  0
LINE
  5
29C0
  8
0
 62
     0
 10
65.868155000022753
 20
228.49374985697011
 30
0.0
 11
65.868155000022753
 21
229.2874998569701
 31
0.0
  0
LINE
  5
29C1
  8
0
 62
     0
 10
64.493340000022741
 20
235.63749985697009
 30
0.0
 11
64.493340000022741
 21
236.43124985697011
 31
0.0
  0
LINE
  5
29C2
  8
0
 62
     0
 10
64.493340000022741
 20
233.2562498569701
 30
0.0
 11
64.493340000022741
 21
234.04999985697009
 31
0.0
  0
LINE
  5
29C3
  8
0
 62
     0
 10
64.493340000022741
 20
230.87499985697011
 30
0.0
 11
64.493340000022741
 21
231.66874985697009
 31
0.0
  0
LINE
  5
29C4
  8
0
 62
     0
 10
64.493340000022741
 20
228.49374985697011
 30
0.0
 11
64.493340000022741
 21
229.2874998569701
 31
0.0
  0
LINE
  5
29C5
  8
0
 62
     0
 10
63.118525000022743
 20
235.63749985697009
 30
0.0
 11
63.118525000022743
 21
236.43124985697011
 31
0.0
  0
LINE
  5
29C6
  8
0
 62
     0
 10
63.118525000022743
 20
233.2562498569701
 30
0.0
 11
63.118525000022743
 21
234.04999985697009
 31
0.0
  0
LINE
  5
29C7
  8
0
 62
     0
 10
63.118525000022743
 20
230.87499985697011
 30
0.0
 11
63.118525000022743
 21
231.66874985697009
 31
0.0
  0
LINE
  5
29C8
  8
0
 62
     0
 10
63.118525000022743
 20
228.49374985697011
 30
0.0
 11
63.118525000022743
 21
229.2874998569701
 31
0.0
  0
LINE
  5
29C9
  8
0
 62
     0
 10
61.743710000022737
 20
235.63749985697009
 30
0.0
 11
61.743710000022737
 21
236.43124985697011
 31
0.0
  0
LINE
  5
29CA
  8
0
 62
     0
 10
61.743710000022737
 20
233.2562498569701
 30
0.0
 11
61.743710000022737
 21
234.04999985697009
 31
0.0
  0
LINE
  5
29CB
  8
0
 62
     0
 10
61.743710000022737
 20
230.87499985697011
 30
0.0
 11
61.743710000022737
 21
231.66874985697009
 31
0.0
  0
LINE
  5
29CC
  8
0
 62
     0
 10
61.743710000022737
 20
228.49374985697011
 30
0.0
 11
61.743710000022737
 21
229.2874998569701
 31
0.0
  0
LINE
  5
29CD
  8
0
 62
     0
 10
60.368895000022739
 20
235.63749985697009
 30
0.0
 11
60.368895000022739
 21
236.43124985697011
 31
0.0
  0
LINE
  5
29CE
  8
0
 62
     0
 10
60.368895000022739
 20
233.2562498569701
 30
0.0
 11
60.368895000022739
 21
234.04999985697009
 31
0.0
  0
LINE
  5
29CF
  8
0
 62
     0
 10
60.368895000022739
 20
230.87499985697011
 30
0.0
 11
60.368895000022739
 21
231.66874985697009
 31
0.0
  0
LINE
  5
29D0
  8
0
 62
     0
 10
60.368895000022739
 20
228.49374985697011
 30
0.0
 11
60.368895000022739
 21
229.2874998569701
 31
0.0
  0
LINE
  5
29D1
  8
0
 62
     0
 10
58.994080000022741
 20
235.63749985697009
 30
0.0
 11
58.994080000022741
 21
235.787772038714
 31
0.0
  0
LINE
  5
29D2
  8
0
 62
     0
 10
58.994080000022741
 20
233.2562498569701
 30
0.0
 11
58.994080000022741
 21
234.04999985697009
 31
0.0
  0
LINE
  5
29D3
  8
0
 62
     0
 10
58.994080000022741
 20
230.87499985697011
 30
0.0
 11
58.994080000022741
 21
231.66874985697009
 31
0.0
  0
LINE
  5
29D4
  8
0
 62
     0
 10
58.994080000022741
 20
228.49374985697011
 30
0.0
 11
58.994080000022741
 21
229.2874998569701
 31
0.0
  0
LINE
  5
29D5
  8
0
 62
     0
 10
57.61926500002275
 20
233.2562498569701
 30
0.0
 11
57.61926500002275
 21
234.04999985697009
 31
0.0
  0
LINE
  5
29D6
  8
0
 62
     0
 10
57.61926500002275
 20
230.87499985697011
 30
0.0
 11
57.61926500002275
 21
231.66874985697009
 31
0.0
  0
ENDBLK
  5
29D8
  8
0
  0
BLOCK
  8
0
  2
*U17
 70
     1
 10
0.0
 20
0.0
 30
0.0
  3
*U17
  1

  0
TEXT
  5
2A14
  8
SAPA_MATT
 62
     2
 10
133.00055534994451
 20
1.449999856866883
 30
0.0
 40
3.0
  1
5
 50
90.0
  7
ISO
  0
ENDBLK
  5
2A16
  8
0
  0
BLOCK
  8
0
  2
*U18
 70
     1
 10
0.0
 20
0.0
 30
0.0
  3
*U18
  1

  0
TEXT
  5
2A18
  8
SAPA_MATT
 62
     2
 10
145.00055534994451
 20
110.34999985672501
 30
0.0
 40
3.0
  1
227
 50
90.0
  7
ISO
  0
ENDBLK
  5
2A1A
  8
0
  0
BLOCK
  8
0
  2
*U19
 70
     1
 10
0.0
 20
0.0
 30
0.0
  3
*U19
  1

  0
TEXT
  5
2A1C
  8
SAPA_MATT
 62
     2
 10
42.900555349945897
 20
-28.500000071413101
 30
0.0
 40
3.0
  1
60
  7
ISO
  0
ENDBLK
  5
2A1E
  8
0
  0
BLOCK
  8
0
  2
*U20
 70
     1
 10
0.0
 20
0.0
 30
0.0
  3
*U20
  1

  0
TEXT
  5
2A20
  8
SAPA_MATT
 62
     2
 10
57.450555349957952
 20
-40.500000071413091
 30
0.0
 40
3.0
  1
91.5
  7
ISO
  0
ENDBLK
  5
2A22
  8
0
  0
ENDSEC
  0
SECTION
  2
ENTITIES
  0
POINT
  5
1EFE
  8
SAPA_PROFIL
 62
     4
 10
75.000579349961299
 20
67.999999856521271
 30
0.0
 50
90.000000000000014
  0
TEXT
  5
1FAF
  8
SAPA_ARTIKELNR
 10
35.453404769085871
 20
-5.3852333125314544
 30
0.0000000048844772
 40
3.5
  1
D9K035
  7
ISO
  0
LINE
  5
1FB0
  8
SAPA_ANSLUTNING
 10
0.0
 20
0.0
 30
0.0
 11
0.0
 21
236.99999978471121
 31
0.0
  0
LINE
  5
1FB1
  8
SAPA_ANSLUTNING
 10
75.000000000005457
 20
-0.0000001431399141
 30
0.0
 11
75.000000000005457
 21
-47.536845873416489
 31
0.0
  0
LINE
  5
1FB2
  8
SAPA_ANSLUTNING
 10
75.000000000005457
 20
0.0
 30
0.0
 11
0.0
 21
0.0
 31
0.0
  0
INSERT
  5
1FB6
  8
SAPA_ANSLUTNING
  6
CONTINUOUS
  2
*X15
 10
0.0
 20
0.0
 30
0.0
1001
ACAD
1000
HATCH
1002
{
1070
    19
1000
ANSI37
1040
0.25
1040
1.5707963267948959
1000
R14_HATCH_DATA
1000
1FB6
1011
1.0
1021
0.0
1031
0.0
1021
0.0
1031
0.0
1011
0.0
1021
0.0
1031
0.0
1021
1.0
1031
0.0
1011
0.0
1021
0.0
1031
0.0
1021
0.0
1031
1.0
1040
0.0
1010
0.0
1020
0.0
1030
1.0
1000
ANSI37
1070
     0
1070
     0
1071
        1
1071
        1
1071
        6
1070
     3
1040
62.663348763332117
1040
231.99999978471121
1040
-5.6210574168242138
1040
0.0000000000000003
1040
0.8895123513655372
1040
1.5707963267948959
1040
2.144309431217978
1070
     1
1070
     3
1040
62.663348763332117
1040
231.99999978471121
1040
-5.6210574168242138
1040
0.0000000000000003
1040
0.8895123513655372
1040
2.144309431217978
1040
4.7123889803846888
1070
     1
1070
     1
1040
62.663348763332579
1040
236.99999978471121
1040
75.000000000007731
1040
236.99999978471121
1070
     2
1040
99.648292119882626
1040
230.3282582087472
1040
25.535278343560961
1040
2.8772493289723999
1040
3.2954791963770571
1070
     1
1070
     2
1040
73.000555349944975
1040
224.99999985659039
1040
1.9999999999999349
1040
7.0685834705769937
1040
7.8539816339745956
1070
     1
1070
     1
1040
73.000555349944975
1040
226.99999985658999
1040
62.663348763332351
1040
226.99999978471081
1071
        0
1070
     0
1070
     1
1040
1.5707963267948959
1040
0.25
1070
     0
1070
     2
1040
0.7853981633974481
1040
15.00000000002273
1040
87.999999856970135
1040
0.5612660075668221
1040
-0.5612660075668221
1070
     0
1040
5.4977871437821371
1040
15.00000000002273
1040
87.999999856970135
1040
-0.5612660075668221
1040
-0.5612660075668221
1070
     0
1071
        1
1040
71.420364712948853
1040
230.9986762039598
1040
0.0
1002
}
  0
LINE
  5
1FB7
  8
SAPA_ANSLUTNING
 10
75.000000000007731
 20
236.99999978471121
 30
0.0
 11
75.000000000007731
 21
282.00325579136961
 31
0.0
  0
LINE
  5
1FB8
  8
SAPA_ANSLUTNING
 10
0.0000000000022737
 20
236.99999978471121
 30
0.0
 11
75.000000000007731
 21
236.99999978471121
 31
0.0
  0
INSERT
  5
1FB9
  8
SAPA_ANSLUTNING
  6
CONTINUOUS
  2
*X16
 10
0.0
 20
0.0
 30
0.0
1001
ACAD
1000
HATCH
1002
{
1070
    19
1000
HEX
1040
0.25
1040
1.5707963267948959
1000
ASC_BOUNDS
1070
     1
1070
     1
1070
     1
1005
1FBA
1000
ASC_SEEDPOINT
1011
62.78168645238884
1021
0.0
1031
0.0
1021
232.2421097947859
1031
0.0
1000
R14_HATCH_DATA
1000
1FB9
1011
1.0
1021
0.0
1031
0.0
1021
0.0
1031
0.0
1011
0.0
1021
0.0
1031
0.0
1021
1.0
1031
0.0
1011
0.0
1021
0.0
1031
0.0
1021
0.0
1031
1.0
1040
0.0
1010
0.0
1020
0.0
1030
1.0
1000
HEX
1070
     0
1070
     1
1071
        1
1071
        5
1071
        1
1070
     3
1040
62.663348763332117
1040
231.99999978471121
1040
-5.6210574168242138
1040
0.0000000000000003
1040
0.8895123513655372
1040
0.0
1040
6.2831853071795862
1070
     0
1071
        1
1005
1FBA
1070
     0
1070
     1
1040
1.5707963267948959
1040
0.25
1070
     0
1070
     3
1040
1.5707963267948959
1040
15.00000000002273
1040
87.999999856970135
1040
1.374814999999999
1040
-0.0000000000000001
1070
     2
1040
0.79375
1040
-1.587499999999999
1040
5.7595865315812871
1040
15.00000000002273
1040
87.999999856970135
1040
-0.6874074999999998
1040
-1.190624715503902
1070
     2
1040
0.7937499999999993
1040
-1.5874999999999979
1040
0.5235987755982992
1040
15.00000000002273
1040
88.793749856969967
1040
0.6874075
1040
-1.190624715503902
1070
     2
1040
0.79375
1040
-1.587499999999999
1040
0.0591690278051155
1071
        1
1040
62.78168645238884
1040
232.2421097947859
1040
0.0
1002
}
  0
POLYLINE
  5
1FBA
  8
SAPA_ANSLUTNING
 10
57.042291346507902
 20
231.99999978471121
 30
0.0
 66
     1
 70
     8
  0
VERTEX
  8
SAPA_ANSLUTNING
  5
2A26
 10
57.0423
 20
232.000
 30
0.000000
  70
    32
  0
VERTEX
  8
SAPA_ANSLUTNING
  5
2A27
 10
57.0491
 20
232.245
 30
0.000000
  70
    32
  0
VERTEX
  8
SAPA_ANSLUTNING
  5
2A28
 10
57.0694
 20
232.490
 30
0.000000
  70
    32
  0
VERTEX
  8
SAPA_ANSLUTNING
  5
2A29
 10
57.1031
 20
232.734
 30
0.000000
  70
    32
  0
VERTEX
  8
SAPA_ANSLUTNING
  5
2A2A
 10
57.1503
 20
232.975
 30
0.000000
  70
    32
  0
VERTEX
  8
SAPA_ANSLUTNING
  5
2A2B
 10
57.2107
 20
233.215
 30
0.000000
  70
    32
  0
VERTEX
  8
SAPA_ANSLUTNING
  5
2A2C
 10
57.2843
 20
233.451
 30
0.000000
  70
    32
  0
VERTEX
  8
SAPA_ANSLUTNING
  5
2A2D
 10
57.3709
 20
233.684
 30
0.000000
  70
    32
  0
VERTEX
  8
SAPA_ANSLUTNING
  5
2A2E
 10
57.4702
 20
233.913
 30
0.000000
  70
    32
  0
VERTEX
  8
SAPA_ANSLUTNING
  5
2A2F
 10
57.5820
 20
234.138
 30
0.000000
  70
    32
  0
VERTEX
  8
SAPA_ANSLUTNING
  5
2A30
 10
57.7060
 20
234.357
 30
0.000000
  70
    32
  0
VERTEX
  8
SAPA_ANSLUTNING
  5
2A31
 10
57.8420
 20
234.571
 30
0.000000
  70
    32
  0
VERTEX
  8
SAPA_ANSLUTNING
  5
2A32
 10
57.9896
 20
234.778
 30
0.000000
  70
    32
  0
VERTEX
  8
SAPA_ANSLUTNING
  5
2A33
 10
58.1485
 20
234.978
 30
0.000000
  70
    32
  0
VERTEX
  8
SAPA_ANSLUTNING
  5
2A34
 10
58.3182
 20
235.172
 30
0.000000
  70
    32
  0
VERTEX
  8
SAPA_ANSLUTNING
  5
2A35
 10
58.4984
 20
235.358
 30
0.000000
  70
    32
  0
VERTEX
  8
SAPA_ANSLUTNING
  5
2A36
 10
58.6887
 20
235.536
 30
0.000000
  70
    32
  0
VERTEX
  8
SAPA_ANSLUTNING
  5
2A37
 10
58.8885
 20
235.705
 30
0.000000
  70
    32
  0
VERTEX
  8
SAPA_ANSLUTNING
  5
2A38
 10
59.0974
 20
235.865
 30
0.000000
  70
    32
  0
VERTEX
  8
SAPA_ANSLUTNING
  5
2A39
 10
59.3149
 20
236.016
 30
0.000000
  70
    32
  0
VERTEX
  8
SAPA_ANSLUTNING
  5
2A3A
 10
59.5405
 20
236.157
 30
0.000000
  70
    32
  0
VERTEX
  8
SAPA_ANSLUTNING
  5
2A3B
 10
59.7735
 20
236.289
 30
0.000000
  70
    32
  0
VERTEX
  8
SAPA_ANSLUTNING
  5
2A3C
 10
60.0136
 20
236.410
 30
0.000000
  70
    32
  0
VERTEX
  8
SAPA_ANSLUTNING
  5
2A3D
 10
60.2600
 20
236.520
 30
0.000000
  70
    32
  0
VERTEX
  8
SAPA_ANSLUTNING
  5
2A3E
 10
60.5123
 20
236.619
 30
0.000000
  70
    32
  0
VERTEX
  8
SAPA_ANSLUTNING
  5
2A3F
 10
60.7697
 20
236.708
 30
0.000000
  70
    32
  0
VERTEX
  8
SAPA_ANSLUTNING
  5
2A40
 10
61.0316
 20
236.785
 30
0.000000
  70
    32
  0
VERTEX
  8
SAPA_ANSLUTNING
  5
2A41
 10
61.2975
 20
236.850
 30
0.000000
  70
    32
  0
VERTEX
  8
SAPA_ANSLUTNING
  5
2A42
 10
61.5667
 20
236.904
 30
0.000000
  70
    32
  0
VERTEX
  8
SAPA_ANSLUTNING
  5
2A43
 10
61.8386
 20
236.946
 30
0.000000
  70
    32
  0
VERTEX
  8
SAPA_ANSLUTNING
  5
2A44
 10
62.1124
 20
236.976
 30
0.000000
  70
    32
  0
VERTEX
  8
SAPA_ANSLUTNING
  5
2A45
 10
62.3875
 20
236.994
 30
0.000000
  70
    32
  0
VERTEX
  8
SAPA_ANSLUTNING
  5
2A46
 10
62.6633
 20
237.000
 30
0.000000
  70
    32
  0
VERTEX
  8
SAPA_ANSLUTNING
  5
2A47
 10
62.9392
 20
236.994
 30
0.000000
  70
    32
  0
VERTEX
  8
SAPA_ANSLUTNING
  5
2A48
 10
63.2143
 20
236.976
 30
0.000000
  70
    32
  0
VERTEX
  8
SAPA_ANSLUTNING
  5
2A49
 10
63.4881
 20
236.946
 30
0.000000
  70
    32
  0
VERTEX
  8
SAPA_ANSLUTNING
  5
2A4A
 10
63.7600
 20
236.904
 30
0.000000
  70
    32
  0
VERTEX
  8
SAPA_ANSLUTNING
  5
2A4B
 10
64.0292
 20
236.850
 30
0.000000
  70
    32
  0
VERTEX
  8
SAPA_ANSLUTNING
  5
2A4C
 10
64.2951
 20
236.785
 30
0.000000
  70
    32
  0
VERTEX
  8
SAPA_ANSLUTNING
  5
2A4D
 10
64.5570
 20
236.708
 30
0.000000
  70
    32
  0
VERTEX
  8
SAPA_ANSLUTNING
  5
2A4E
 10
64.8144
 20
236.619
 30
0.000000
  70
    32
  0
VERTEX
  8
SAPA_ANSLUTNING
  5
2A4F
 10
65.0667
 20
236.520
 30
0.000000
  70
    32
  0
VERTEX
  8
SAPA_ANSLUTNING
  5
2A50
 10
65.3131
 20
236.410
 30
0.000000
  70
    32
  0
VERTEX
  8
SAPA_ANSLUTNING
  5
2A51
 10
65.5531
 20
236.289
 30
0.000000
  70
    32
  0
VERTEX
  8
SAPA_ANSLUTNING
  5
2A52
 10
65.7862
 20
236.157
 30
0.000000
  70
    32
  0
VERTEX
  8
SAPA_ANSLUTNING
  5
2A53
 10
66.0118
 20
236.016
 30
0.000000
  70
    32
  0
VERTEX
  8
SAPA_ANSLUTNING
  5
2A54
 10
66.2293
 20
235.865
 30
0.000000
  70
    32
  0
VERTEX
  8
SAPA_ANSLUTNING
  5
2A55
 10
66.4382
 20
235.705
 30
0.000000
  70
    32
  0
VERTEX
  8
SAPA_ANSLUTNING
  5
2A56
 10
66.6380
 20
235.536
 30
0.000000
  70
    32
  0
VERTEX
  8
SAPA_ANSLUTNING
  5
2A57
 10
66.8283
 20
235.358
 30
0.000000
  70
    32
  0
VERTEX
  8
SAPA_ANSLUTNING
  5
2A58
 10
67.0085
 20
235.172
 30
0.000000
  70
    32
  0
VERTEX
  8
SAPA_ANSLUTNING
  5
2A59
 10
67.1782
 20
234.978
 30
0.000000
  70
    32
  0
VERTEX
  8
SAPA_ANSLUTNING
  5
2A5A
 10
67.3371
 20
234.778
 30
0.000000
  70
    32
  0
VERTEX
  8
SAPA_ANSLUTNING
  5
2A5B
 10
67.4847
 20
234.571
 30
0.000000
  70
    32
  0
VERTEX
  8
SAPA_ANSLUTNING
  5
2A5C
 10
67.6207
 20
234.357
 30
0.000000
  70
    32
  0
VERTEX
  8
SAPA_ANSLUTNING
  5
2A5D
 10
67.7447
 20
234.138
 30
0.000000
  70
    32
  0
VERTEX
  8
SAPA_ANSLUTNING
  5
2A5E
 10
67.8565
 20
233.913
 30
0.000000
  70
    32
  0
VERTEX
  8
SAPA_ANSLUTNING
  5
2A5F
 10
67.9558
 20
233.684
 30
0.000000
  70
    32
  0
VERTEX
  8
SAPA_ANSLUTNING
  5
2A60
 10
68.0424
 20
233.451
 30
0.000000
  70
    32
  0
VERTEX
  8
SAPA_ANSLUTNING
  5
2A61
 10
68.1160
 20
233.215
 30
0.000000
  70
    32
  0
VERTEX
  8
SAPA_ANSLUTNING
  5
2A62
 10
68.1764
 20
232.975
 30
0.000000
  70
    32
  0
VERTEX
  8
SAPA_ANSLUTNING
  5
2A63
 10
68.2236
 20
232.734
 30
0.000000
  70
    32
  0
VERTEX
  8
SAPA_ANSLUTNING
  5
2A64
 10
68.2573
 20
232.490
 30
0.000000
  70
    32
  0
VERTEX
  8
SAPA_ANSLUTNING
  5
2A65
 10
68.2776
 20
232.245
 30
0.000000
  70
    32
  0
VERTEX
  8
SAPA_ANSLUTNING
  5
2A66
 10
68.2844
 20
232.000
 30
0.000000
  70
    32
  0
VERTEX
  8
SAPA_ANSLUTNING
  5
2A67
 10
68.2776
 20
231.755
 30
0.000000
  70
    32
  0
VERTEX
  8
SAPA_ANSLUTNING
  5
2A68
 10
68.2573
 20
231.510
 30
0.000000
  70
    32
  0
VERTEX
  8
SAPA_ANSLUTNING
  5
2A69
 10
68.2236
 20
231.266
 30
0.000000
  70
    32
  0
VERTEX
  8
SAPA_ANSLUTNING
  5
2A6A
 10
68.1764
 20
231.025
 30
0.000000
  70
    32
  0
VERTEX
  8
SAPA_ANSLUTNING
  5
2A6B
 10
68.1160
 20
230.785
 30
0.000000
  70
    32
  0
VERTEX
  8
SAPA_ANSLUTNING
  5
2A6C
 10
68.0424
 20
230.549
 30
0.000000
  70
    32
  0
VERTEX
  8
SAPA_ANSLUTNING
  5
2A6D
 10
67.9558
 20
230.316
 30
0.000000
  70
    32
  0
VERTEX
  8
SAPA_ANSLUTNING
  5
2A6E
 10
67.8565
 20
230.087
 30
0.000000
  70
    32
  0
VERTEX
  8
SAPA_ANSLUTNING
  5
2A6F
 10
67.7447
 20
229.862
 30
0.000000
  70
    32
  0
VERTEX
  8
SAPA_ANSLUTNING
  5
2A70
 10
67.6207
 20
229.643
 30
0.000000
  70
    32
  0
VERTEX
  8
SAPA_ANSLUTNING
  5
2A71
 10
67.4847
 20
229.429
 30
0.000000
  70
    32
  0
VERTEX
  8
SAPA_ANSLUTNING
  5
2A72
 10
67.3371
 20
229.222
 30
0.000000
  70
    32
  0
VERTEX
  8
SAPA_ANSLUTNING
  5
2A73
 10
67.1782
 20
229.022
 30
0.000000
  70
    32
  0
VERTEX
  8
SAPA_ANSLUTNING
  5
2A74
 10
67.0085
 20
228.828
 30
0.000000
  70
    32
  0
VERTEX
  8
SAPA_ANSLUTNING
  5
2A75
 10
66.8283
 20
228.642
 30
0.000000
  70
    32
  0
VERTEX
  8
SAPA_ANSLUTNING
  5
2A76
 10
66.6380
 20
228.464
 30
0.000000
  70
    32
  0
VERTEX
  8
SAPA_ANSLUTNING
  5
2A77
 10
66.4382
 20
228.295
 30
0.000000
  70
    32
  0
VERTEX
  8
SAPA_ANSLUTNING
  5
2A78
 10
66.2293
 20
228.135
 30
0.000000
  70
    32
  0
VERTEX
  8
SAPA_ANSLUTNING
  5
2A79
 10
66.0118
 20
227.984
 30
0.000000
  70
    32
  0
VERTEX
  8
SAPA_ANSLUTNING
  5
2A7A
 10
65.7862
 20
227.843
 30
0.000000
  70
    32
  0
VERTEX
  8
SAPA_ANSLUTNING
  5
2A7B
 10
65.5531
 20
227.711
 30
0.000000
  70
    32
  0
VERTEX
  8
SAPA_ANSLUTNING
  5
2A7C
 10
65.3131
 20
227.590
 30
0.000000
  70
    32
  0
VERTEX
  8
SAPA_ANSLUTNING
  5
2A7D
 10
65.0667
 20
227.480
 30
0.000000
  70
    32
  0
VERTEX
  8
SAPA_ANSLUTNING
  5
2A7E
 10
64.8144
 20
227.381
 30
0.000000
  70
    32
  0
VERTEX
  8
SAPA_ANSLUTNING
  5
2A7F
 10
64.5570
 20
227.292
 30
0.000000
  70
    32
  0
VERTEX
  8
SAPA_ANSLUTNING
  5
2A80
 10
64.2951
 20
227.215
 30
0.000000
  70
    32
  0
VERTEX
  8
SAPA_ANSLUTNING
  5
2A81
 10
64.0292
 20
227.150
 30
0.000000
  70
    32
  0
VERTEX
  8
SAPA_ANSLUTNING
  5
2A82
 10
63.7600
 20
227.096
 30
0.000000
  70
    32
  0
VERTEX
  8
SAPA_ANSLUTNING
  5
2A83
 10
63.4881
 20
227.054
 30
0.000000
  70
    32
  0
VERTEX
  8
SAPA_ANSLUTNING
  5
2A84
 10
63.2143
 20
227.024
 30
0.000000
  70
    32
  0
VERTEX
  8
SAPA_ANSLUTNING
  5
2A85
 10
62.9392
 20
227.006
 30
0.000000
  70
    32
  0
VERTEX
  8
SAPA_ANSLUTNING
  5
2A86
 10
62.6633
 20
227.000
 30
0.000000
  70
    32
  0
VERTEX
  8
SAPA_ANSLUTNING
  5
2A87
 10
62.3875
 20
227.006
 30
0.000000
  70
    32
  0
VERTEX
  8
SAPA_ANSLUTNING
  5
2A88
 10
62.1124
 20
227.024
 30
0.000000
  70
    32
  0
VERTEX
  8
SAPA_ANSLUTNING
  5
2A89
 10
61.8386
 20
227.054
 30
0.000000
  70
    32
  0
VERTEX
  8
SAPA_ANSLUTNING
  5
2A8A
 10
61.5667
 20
227.096
 30
0.000000
  70
    32
  0
VERTEX
  8
SAPA_ANSLUTNING
  5
2A8B
 10
61.2975
 20
227.150
 30
0.000000
  70
    32
  0
VERTEX
  8
SAPA_ANSLUTNING
  5
2A8C
 10
61.0316
 20
227.215
 30
0.000000
  70
    32
  0
VERTEX
  8
SAPA_ANSLUTNING
  5
2A8D
 10
60.7697
 20
227.292
 30
0.000000
  70
    32
  0
VERTEX
  8
SAPA_ANSLUTNING
  5
2A8E
 10
60.5123
 20
227.381
 30
0.000000
  70
    32
  0
VERTEX
  8
SAPA_ANSLUTNING
  5
2A8F
 10
60.2600
 20
227.480
 30
0.000000
  70
    32
  0
VERTEX
  8
SAPA_ANSLUTNING
  5
2A90
 10
60.0136
 20
227.590
 30
0.000000
  70
    32
  0
VERTEX
  8
SAPA_ANSLUTNING
  5
2A91
 10
59.7735
 20
227.711
 30
0.000000
  70
    32
  0
VERTEX
  8
SAPA_ANSLUTNING
  5
2A92
 10
59.5405
 20
227.843
 30
0.000000
  70
    32
  0
VERTEX
  8
SAPA_ANSLUTNING
  5
2A93
 10
59.3149
 20
227.984
 30
0.000000
  70
    32
  0
VERTEX
  8
SAPA_ANSLUTNING
  5
2A94
 10
59.0974
 20
228.135
 30
0.000000
  70
    32
  0
VERTEX
  8
SAPA_ANSLUTNING
  5
2A95
 10
58.8885
 20
228.295
 30
0.000000
  70
    32
  0
VERTEX
  8
SAPA_ANSLUTNING
  5
2A96
 10
58.6887
 20
228.464
 30
0.000000
  70
    32
  0
VERTEX
  8
SAPA_ANSLUTNING
  5
2A97
 10
58.4984
 20
228.642
 30
0.000000
  70
    32
  0
VERTEX
  8
SAPA_ANSLUTNING
  5
2A98
 10
58.3182
 20
228.828
 30
0.000000
  70
    32
  0
VERTEX
  8
SAPA_ANSLUTNING
  5
2A99
 10
58.1485
 20
229.022
 30
0.000000
  70
    32
  0
VERTEX
  8
SAPA_ANSLUTNING
  5
2A9A
 10
57.9896
 20
229.222
 30
0.000000
  70
    32
  0
VERTEX
  8
SAPA_ANSLUTNING
  5
2A9B
 10
57.8420
 20
229.429
 30
0.000000
  70
    32
  0
VERTEX
  8
SAPA_ANSLUTNING
  5
2A9C
 10
57.7060
 20
229.643
 30
0.000000
  70
    32
  0
VERTEX
  8
SAPA_ANSLUTNING
  5
2A9D
 10
57.5820
 20
229.862
 30
0.000000
  70
    32
  0
VERTEX
  8
SAPA_ANSLUTNING
  5
2A9E
 10
57.4702
 20
230.087
 30
0.000000
  70
    32
  0
VERTEX
  8
SAPA_ANSLUTNING
  5
2A9F
 10
57.3709
 20
230.316
 30
0.000000
  70
    32
  0
VERTEX
  8
SAPA_ANSLUTNING
  5
2AA0
 10
57.2843
 20
230.549
 30
0.000000
  70
    32
  0
VERTEX
  8
SAPA_ANSLUTNING
  5
2AA1
 10
57.2107
 20
230.785
 30
0.000000
  70
    32
  0
VERTEX
  8
SAPA_ANSLUTNING
  5
2AA2
 10
57.1503
 20
231.025
 30
0.000000
  70
    32
  0
VERTEX
  8
SAPA_ANSLUTNING
  5
2AA3
 10
57.1031
 20
231.266
 30
0.000000
  70
    32
  0
VERTEX
  8
SAPA_ANSLUTNING
  5
2AA4
 10
57.0694
 20
231.510
 30
0.000000
  70
    32
  0
VERTEX
  8
SAPA_ANSLUTNING
  5
2AA5
 10
57.0491
 20
231.755
 30
0.000000
  70
    32
  0
VERTEX
  8
SAPA_ANSLUTNING
  5
2AA6
 10
57.0423
 20
232.000
 30
0.000000
  70
    32
  0
SEQEND
  8
SAPA_ANSLUTNING
  5
2AA7
  0
POLYLINE
  5
1FBB
  8
SAPA_ANSLUTNING
 66
     1
 10
0.0
 20
0.0
 30
0.0
  0
VERTEX
  5
29D9
  8
SAPA_ANSLUTNING
 10
58.647930409461431
 20
228.50107132805209
 30
0.0
 42
-0.8812634091771133
  0
VERTEX
  5
29DA
  8
SAPA_ANSLUTNING
 10
54.711162381241138
 20
228.99999978471121
 30
0.0
  0
VERTEX
  5
29DB
  8
SAPA_ANSLUTNING
 10
54.711162381241138
 20
234.99999978471121
 30
0.0
 42
0.9999999999999998
  0
VERTEX
  5
29DC
  8
SAPA_ANSLUTNING
 10
50.711162381241138
 20
234.99999978471121
 30
0.0
  0
VERTEX
  5
29DD
  8
SAPA_ANSLUTNING
 10
50.711162381241138
 20
228.99999978471121
 30
0.0
 42
-0.9999999999999998
  0
VERTEX
  5
29DE
  8
SAPA_ANSLUTNING
 10
46.711162381241131
 20
228.99999978471121
 30
0.0
  0
VERTEX
  5
29DF
  8
SAPA_ANSLUTNING
 10
46.711162381241131
 20
234.99999978471121
 30
0.0
 42
0.9999999999999998
  0
VERTEX
  5
29E0
  8
SAPA_ANSLUTNING
 10
42.711162381241138
 20
234.99999978471121
 30
0.0
  0
VERTEX
  5
29E1
  8
SAPA_ANSLUTNING
 10
42.711162381241138
 20
228.99999978471121
 30
0.0
 42
-0.9999999999999998
  0
VERTEX
  5
29E2
  8
SAPA_ANSLUTNING
 10
38.711162381241138
 20
228.99999978471121
 30
0.0
  0
VERTEX
  5
29E3
  8
SAPA_ANSLUTNING
 10
38.711162381241138
 20
234.99999978471121
 30
0.0
 42
0.9999999999999998
  0
VERTEX
  5
29E4
  8
SAPA_ANSLUTNING
 10
34.711162381241138
 20
234.99999978471121
 30
0.0
  0
VERTEX
  5
29E5
  8
SAPA_ANSLUTNING
 10
34.711162381241138
 20
228.99999978471121
 30
0.0
 42
-0.9999999999999998
  0
VERTEX
  5
29E6
  8
SAPA_ANSLUTNING
 10
30.711162381241142
 20
228.99999978471121
 30
0.0
  0
VERTEX
  5
29E7
  8
SAPA_ANSLUTNING
 10
30.711162381241142
 20
234.99999978471121
 30
0.0
 42
0.9999999999999998
  0
VERTEX
  5
29E8
  8
SAPA_ANSLUTNING
 10
26.711162381241142
 20
234.99999978471121
 30
0.0
  0
VERTEX
  5
29E9
  8
SAPA_ANSLUTNING
 10
26.711162381241142
 20
228.99999978471121
 30
0.0
 42
-0.9999999999999998
  0
VERTEX
  5
29EA
  8
SAPA_ANSLUTNING
 10
22.711162381241142
 20
228.99999978471121
 30
0.0
  0
VERTEX
  5
29EB
  8
SAPA_ANSLUTNING
 10
22.711162381241142
 20
234.99999978471121
 30
0.0
 42
0.9999999999999998
  0
VERTEX
  5
29EC
  8
SAPA_ANSLUTNING
 10
18.711162381241142
 20
234.99999978471121
 30
0.0
  0
VERTEX
  5
29ED
  8
SAPA_ANSLUTNING
 10
18.711162381241142
 20
228.99999978471121
 30
0.0
 42
-0.9999999999999998
  0
VERTEX
  5
29EE
  8
SAPA_ANSLUTNING
 10
14.71116238124114
 20
228.99999978471121
 30
0.0
  0
VERTEX
  5
29EF
  8
SAPA_ANSLUTNING
 10
14.71116238124114
 20
234.99999978471121
 30
0.0
 42
0.9999999999999998
  0
VERTEX
  5
29F0
  8
SAPA_ANSLUTNING
 10
10.71116238124114
 20
234.99999978471121
 30
0.0
  0
VERTEX
  5
29F1
  8
SAPA_ANSLUTNING
 10
10.71116238124114
 20
228.99999978471121
 30
0.0
 42
-0.9999999999999998
  0
VERTEX
  5
29F2
  8
SAPA_ANSLUTNING
 10
6.7111623812411381
 20
228.99999978471121
 30
0.0
  0
VERTEX
  5
29F3
  8
SAPA_ANSLUTNING
 10
6.7111623812411381
 20
234.99999978471121
 30
0.0
 42
0.9999999999999998
  0
VERTEX
  5
29F4
  8
SAPA_ANSLUTNING
 10
2.7111623812411381
 20
234.99999978471121
 30
0.0
  0
VERTEX
  5
29F5
  8
SAPA_ANSLUTNING
 10
2.7111623812411381
 20
228.99999978471121
 30
0.0
 42
-0.5251735434384823
  0
VERTEX
  5
29F6
  8
SAPA_ANSLUTNING
 10
0.0000000000022737
 20
227.13070899205471
 30
0.0
 42
-0.5251735434384823
  0
SEQEND
  5
29F7
  8
SAPA_ANSLUTNING
  0
ARC
  5
1FBC
  8
SAPA_ANSLUTNING
 10
99.648292119884005
 20
230.3282582087468
 30
0.0
 40
25.53527834356208
 50
164.85424315697659
 51
188.81704942556311
  0
LINE
  5
1FBD
  8
SAPA_ANSLUTNING
 10
2.0000000000077298
 20
0.4367680282202855
 30
0.0
 11
13.000000000007731
 21
0.4367680282202855
 31
0.0
  0
ARC
  5
1FBE
  8
SAPA_ANSLUTNING
 10
13.000000000007731
 20
2.436768028220285
 30
0.0
 40
2.0
 50
270.0
 51
90.0
  0
LINE
  5
1FBF
  8
SAPA_ANSLUTNING
 10
13.000000000007731
 20
4.4367680282202846
 30
0.0
 11
2.0000000000077298
 21
4.4367680282202846
 31
0.0
  0
ARC
  5
1FC0
  8
SAPA_ANSLUTNING
 10
2.0000000000077298
 20
6.4367680282202846
 30
0.0
 40
2.0
 50
90.0
 51
270.0
  0
LINE
  5
1FC1
  8
SAPA_ANSLUTNING
 10
2.0000000000077298
 20
8.4367680282202855
 30
0.0
 11
13.000000000007731
 21
8.4367680282202855
 31
0.0
  0
ARC
  5
1FC2
  8
SAPA_ANSLUTNING
 10
13.000000000007731
 20
10.43676802822028
 30
0.0
 40
2.0
 50
270.0
 51
90.0
  0
LINE
  5
1FC3
  8
SAPA_ANSLUTNING
 10
13.000000000007731
 20
12.43676802822028
 30
0.0
 11
2.0000000000077298
 21
12.43676802822028
 31
0.0
  0
ARC
  5
1FC4
  8
SAPA_ANSLUTNING
 10
2.0000000000077298
 20
14.43676802822028
 30
0.0
 40
2.0
 50
90.0
 51
270.0
  0
LINE
  5
1FC5
  8
SAPA_ANSLUTNING
 10
2.0000000000077298
 20
16.436768028220278
 30
0.0
 11
13.000000000007731
 21
16.436768028220278
 31
0.0
  0
ARC
  5
1FC6
  8
SAPA_ANSLUTNING
 10
13.000000000007731
 20
18.436768028220278
 30
0.0
 40
2.0
 50
270.0
 51
90.0
  0
LINE
  5
1FC7
  8
SAPA_ANSLUTNING
 10
13.000000000007731
 20
20.436768028220278
 30
0.0
 11
2.0000000000077298
 21
20.436768028220278
 31
0.0
  0
ARC
  5
1FC8
  8
SAPA_ANSLUTNING
 10
2.0000000000077298
 20
22.436768028220289
 30
0.0
 40
2.0
 50
90.0
 51
270.0
  0
LINE
  5
1FC9
  8
SAPA_ANSLUTNING
 10
2.0000000000077298
 20
24.436768028220289
 30
0.0
 11
13.000000000007731
 21
24.436768028220289
 31
0.0
  0
ARC
  5
1FCA
  8
SAPA_ANSLUTNING
 10
13.000000000007731
 20
26.436768028220278
 30
0.0
 40
2.0
 50
270.0
 51
90.0
  0
LINE
  5
1FCB
  8
SAPA_ANSLUTNING
 10
13.000000000007731
 20
28.436768028220289
 30
0.0
 11
2.0000000000077298
 21
28.436768028220289
 31
0.0
  0
ARC
  5
1FCC
  8
SAPA_ANSLUTNING
 10
2.0000000000077298
 20
30.436768028220289
 30
0.0
 40
2.0
 50
90.0
 51
270.0
  0
LINE
  5
1FCD
  8
SAPA_ANSLUTNING
 10
2.0000000000077298
 20
32.436768028220293
 30
0.0
 11
13.000000000007731
 21
32.436768028220293
 31
0.0
  0
ARC
  5
1FCE
  8
SAPA_ANSLUTNING
 10
13.000000000007731
 20
34.436768028220293
 30
0.0
 40
2.0
 50
270.0
 51
90.0
  0
LINE
  5
1FCF
  8
SAPA_ANSLUTNING
 10
13.000000000007731
 20
36.436768028220278
 30
0.0
 11
2.0000000000077298
 21
36.436768028220278
 31
0.0
  0
ARC
  5
1FD0
  8
SAPA_ANSLUTNING
 10
2.0000000000077298
 20
38.436768028220293
 30
0.0
 40
2.0
 50
90.0
 51
270.0
  0
LINE
  5
1FD1
  8
SAPA_ANSLUTNING
 10
2.0000000000077298
 20
40.436768028220278
 30
0.0
 11
13.000000000007731
 21
40.436768028220278
 31
0.0
  0
ARC
  5
1FD2
  8
SAPA_ANSLUTNING
 10
13.000000000007731
 20
42.436768028220293
 30
0.0
 40
2.0
 50
270.0
 51
90.0
  0
LINE
  5
1FD3
  8
SAPA_ANSLUTNING
 10
13.000000000007731
 20
44.436768028220278
 30
0.0
 11
2.0000000000077298
 21
44.436768028220278
 31
0.0
  0
ARC
  5
1FD4
  8
SAPA_ANSLUTNING
 10
2.0000000000077298
 20
46.436768028220278
 30
0.0
 40
2.0
 50
90.0
 51
270.0
  0
LINE
  5
1FD5
  8
SAPA_ANSLUTNING
 10
2.0000000000077298
 20
48.436768028220278
 30
0.0
 11
13.000000000007731
 21
48.436768028220278
 31
0.0
  0
ARC
  5
1FD6
  8
SAPA_ANSLUTNING
 10
13.000000000007731
 20
50.436768028220278
 30
0.0
 40
2.0
 50
270.0
 51
90.0
  0
LINE
  5
1FD7
  8
SAPA_ANSLUTNING
 10
13.000000000007731
 20
52.436768028220293
 30
0.0
 11
2.0000000000077298
 21
52.436768028220293
 31
0.0
  0
ARC
  5
1FD8
  8
SAPA_ANSLUTNING
 10
2.0000000000077298
 20
54.436768028220293
 30
0.0
 40
2.0
 50
90.0
 51
270.0
  0
LINE
  5
1FD9
  8
SAPA_ANSLUTNING
 10
2.0000000000077298
 20
56.436768028220278
 30
0.0
 11
13.000000000007731
 21
56.436768028220278
 31
0.0
  0
ARC
  5
1FDA
  8
SAPA_ANSLUTNING
 10
13.000000000007731
 20
58.436768028220278
 30
0.0
 40
2.0
 50
270.0
 51
90.0
  0
LINE
  5
1FDB
  8
SAPA_ANSLUTNING
 10
13.000000000007731
 20
60.436768028220278
 30
0.0
 11
2.0000000000077298
 21
60.436768028220278
 31
0.0
  0
ARC
  5
1FDC
  8
SAPA_ANSLUTNING
 10
2.0000000000077298
 20
62.436768028220293
 30
0.0
 40
2.0
 50
90.0
 51
270.0
  0
LINE
  5
1FDD
  8
SAPA_ANSLUTNING
 10
2.0000000000077298
 20
64.436768028220285
 30
0.0
 11
13.000000000007731
 21
64.436768028220285
 31
0.0
  0
ARC
  5
1FDE
  8
SAPA_ANSLUTNING
 10
13.000000000007731
 20
66.436768028220285
 30
0.0
 40
2.0
 50
270.0
 51
90.0
  0
LINE
  5
1FDF
  8
SAPA_ANSLUTNING
 10
13.000000000007731
 20
68.436768028220285
 30
0.0
 11
2.0000000000077298
 21
68.436768028220285
 31
0.0
  0
ARC
  5
1FE0
  8
SAPA_ANSLUTNING
 10
2.0000000000077298
 20
70.436768028220285
 30
0.0
 40
2.0
 50
90.0
 51
270.0
  0
LINE
  5
1FE1
  8
SAPA_ANSLUTNING
 10
2.0000000000077298
 20
72.436768028220285
 30
0.0
 11
13.000000000007731
 21
72.436768028220285
 31
0.0
  0
ARC
  5
1FE2
  8
SAPA_ANSLUTNING
 10
13.000000000007731
 20
74.436768028220285
 30
0.0
 40
2.0
 50
270.0
 51
90.0
  0
LINE
  5
1FE3
  8
SAPA_ANSLUTNING
 10
13.000000000007731
 20
76.436768028220285
 30
0.0
 11
2.0000000000077298
 21
76.436768028220285
 31
0.0
  0
ARC
  5
1FE4
  8
SAPA_ANSLUTNING
 10
2.0000000000077298
 20
78.436768028220285
 30
0.0
 40
2.0
 50
90.0
 51
270.0
  0
LINE
  5
1FE5
  8
SAPA_ANSLUTNING
 10
2.0000000000077298
 20
80.436768028220285
 30
0.0
 11
13.000000000007731
 21
80.436768028220285
 31
0.0
  0
ARC
  5
1FE6
  8
SAPA_ANSLUTNING
 10
13.000000000007731
 20
82.436768028220285
 30
0.0
 40
2.0
 50
270.0
 51
90.0
  0
LINE
  5
1FE7
  8
SAPA_ANSLUTNING
 10
13.000000000007731
 20
84.436768028220285
 30
0.0
 11
2.0000000000077298
 21
84.436768028220285
 31
0.0
  0
ARC
  5
1FE8
  8
SAPA_ANSLUTNING
 10
2.0000000000077298
 20
86.436768028220285
 30
0.0
 40
2.0
 50
90.0
 51
270.0
  0
LINE
  5
1FE9
  8
SAPA_ANSLUTNING
 10
2.0000000000077298
 20
88.436768028220285
 30
0.0
 11
13.000000000007731
 21
88.436768028220285
 31
0.0
  0
ARC
  5
1FEA
  8
SAPA_ANSLUTNING
 10
13.000000000007731
 20
90.436768028220285
 30
0.0
 40
2.0
 50
270.0
 51
90.0
  0
LINE
  5
1FEB
  8
SAPA_ANSLUTNING
 10
13.000000000007731
 20
92.436768028220285
 30
0.0
 11
2.0000000000077298
 21
92.436768028220285
 31
0.0
  0
ARC
  5
1FEC
  8
SAPA_ANSLUTNING
 10
2.0000000000077298
 20
94.436768028220285
 30
0.0
 40
2.0
 50
90.0
 51
270.0
  0
LINE
  5
1FED
  8
SAPA_ANSLUTNING
 10
2.0000000000077298
 20
96.436768028220285
 30
0.0
 11
13.000000000007731
 21
96.436768028220285
 31
0.0
  0
ARC
  5
1FEE
  8
SAPA_ANSLUTNING
 10
13.000000000007731
 20
98.436768028220285
 30
0.0
 40
2.0
 50
270.0
 51
90.0
  0
LINE
  5
1FEF
  8
SAPA_ANSLUTNING
 10
13.000000000007731
 20
100.4367680282203
 30
0.0
 11
2.0000000000077298
 21
100.4367680282203
 31
0.0
  0
ARC
  5
1FF0
  8
SAPA_ANSLUTNING
 10
2.0000000000077298
 20
102.4367680282203
 30
0.0
 40
2.0
 50
90.0
 51
270.0
  0
LINE
  5
1FF1
  8
SAPA_ANSLUTNING
 10
2.0000000000077298
 20
104.4367680282203
 30
0.0
 11
13.000000000007731
 21
104.4367680282203
 31
0.0
  0
ARC
  5
1FF2
  8
SAPA_ANSLUTNING
 10
13.000000000007731
 20
106.4367680282203
 30
0.0
 40
2.0
 50
270.0
 51
90.0
  0
LINE
  5
1FF3
  8
SAPA_ANSLUTNING
 10
13.000000000007731
 20
108.4367680282203
 30
0.0
 11
2.0000000000077298
 21
108.4367680282203
 31
0.0
  0
ARC
  5
1FF4
  8
SAPA_ANSLUTNING
 10
2.0000000000077298
 20
110.4367680282203
 30
0.0
 40
2.0
 50
90.0
 51
270.0
  0
LINE
  5
1FF5
  8
SAPA_ANSLUTNING
 10
2.0000000000077298
 20
112.4367680282203
 30
0.0
 11
13.000000000007731
 21
112.4367680282203
 31
0.0
  0
ARC
  5
1FF6
  8
SAPA_ANSLUTNING
 10
13.000000000007731
 20
114.4367680282203
 30
0.0
 40
2.0
 50
270.0
 51
90.0
  0
LINE
  5
1FF7
  8
SAPA_ANSLUTNING
 10
13.000000000007731
 20
116.4367680282203
 30
0.0
 11
2.0000000000077298
 21
116.4367680282203
 31
0.0
  0
ARC
  5
1FF8
  8
SAPA_ANSLUTNING
 10
2.0000000000077298
 20
118.4367680282203
 30
0.0
 40
2.0
 50
90.0
 51
270.0
  0
LINE
  5
1FF9
  8
SAPA_ANSLUTNING
 10
2.0000000000077298
 20
120.4367680282203
 30
0.0
 11
13.000000000007731
 21
120.4367680282203
 31
0.0
  0
ARC
  5
1FFA
  8
SAPA_ANSLUTNING
 10
13.000000000007731
 20
122.4367680282202
 30
0.0
 40
2.0
 50
270.0
 51
90.0
  0
LINE
  5
1FFB
  8
SAPA_ANSLUTNING
 10
13.000000000007731
 20
124.4367680282203
 30
0.0
 11
2.0000000000077298
 21
124.4367680282203
 31
0.0
  0
ARC
  5
1FFC
  8
SAPA_ANSLUTNING
 10
2.0000000000077298
 20
126.4367680282203
 30
0.0
 40
2.0
 50
90.0
 51
270.0
  0
LINE
  5
1FFD
  8
SAPA_ANSLUTNING
 10
2.0000000000077298
 20
128.43676802822031
 30
0.0
 11
13.000000000007731
 21
128.43676802822031
 31
0.0
  0
ARC
  5
1FFE
  8
SAPA_ANSLUTNING
 10
13.000000000007731
 20
130.43676802822031
 30
0.0
 40
2.0
 50
270.0
 51
90.0
  0
LINE
  5
1FFF
  8
SAPA_ANSLUTNING
 10
13.000000000007731
 20
132.43676802822031
 30
0.0
 11
2.0000000000077298
 21
132.43676802822031
 31
0.0
  0
ARC
  5
2000
  8
SAPA_ANSLUTNING
 10
2.0000000000077298
 20
134.43676802822031
 30
0.0
 40
2.0
 50
90.0
 51
270.0
  0
LINE
  5
2001
  8
SAPA_ANSLUTNING
 10
2.0000000000077298
 20
136.43676802822031
 30
0.0
 11
13.000000000007731
 21
136.43676802822031
 31
0.0
  0
ARC
  5
2002
  8
SAPA_ANSLUTNING
 10
13.000000000007731
 20
138.43676802822031
 30
0.0
 40
2.0
 50
270.0
 51
90.0
  0
LINE
  5
2003
  8
SAPA_ANSLUTNING
 10
13.000000000007731
 20
140.43676802822031
 30
0.0
 11
2.0000000000077298
 21
140.43676802822031
 31
0.0
  0
ARC
  5
2004
  8
SAPA_ANSLUTNING
 10
2.0000000000077298
 20
142.43676802822031
 30
0.0
 40
2.0
 50
90.0
 51
270.0
  0
LINE
  5
2005
  8
SAPA_ANSLUTNING
 10
2.0000000000077298
 20
144.43676802822031
 30
0.0
 11
13.000000000007731
 21
144.43676802822031
 31
0.0
  0
ARC
  5
2006
  8
SAPA_ANSLUTNING
 10
13.000000000007731
 20
146.43676802822031
 30
0.0
 40
2.0
 50
270.0
 51
90.0
  0
LINE
  5
2007
  8
SAPA_ANSLUTNING
 10
13.000000000007731
 20
148.4367680282202
 30
0.0
 11
2.0000000000077298
 21
148.4367680282202
 31
0.0
  0
ARC
  5
2008
  8
SAPA_ANSLUTNING
 10
2.0000000000077298
 20
150.43676802822031
 30
0.0
 40
2.0
 50
90.0
 51
270.0
  0
LINE
  5
2009
  8
SAPA_ANSLUTNING
 10
2.0000000000077298
 20
152.4367680282202
 30
0.0
 11
13.000000000007731
 21
152.4367680282202
 31
0.0
  0
ARC
  5
200A
  8
SAPA_ANSLUTNING
 10
13.000000000007731
 20
154.43676802822031
 30
0.0
 40
2.0
 50
270.0
 51
90.0
  0
LINE
  5
200B
  8
SAPA_ANSLUTNING
 10
13.000000000007731
 20
156.43676802822031
 30
0.0
 11
2.0000000000077298
 21
156.43676802822031
 31
0.0
  0
ARC
  5
200C
  8
SAPA_ANSLUTNING
 10
2.0000000000077298
 20
158.43676802822031
 30
0.0
 40
2.0
 50
90.0
 51
270.0
  0
LINE
  5
200D
  8
SAPA_ANSLUTNING
 10
2.0000000000077298
 20
160.43676802822031
 30
0.0
 11
13.000000000007731
 21
160.43676802822031
 31
0.0
  0
ARC
  5
200E
  8
SAPA_ANSLUTNING
 10
13.000000000007731
 20
162.43676802822031
 30
0.0
 40
2.0
 50
270.0
 51
90.0
  0
LINE
  5
200F
  8
SAPA_ANSLUTNING
 10
13.000000000007731
 20
164.43676802822031
 30
0.0
 11
2.0000000000077298
 21
164.43676802822031
 31
0.0
  0
ARC
  5
2010
  8
SAPA_ANSLUTNING
 10
2.0000000000077298
 20
166.43676802822031
 30
0.0
 40
2.0
 50
90.0
 51
270.0
  0
LINE
  5
2011
  8
SAPA_ANSLUTNING
 10
2.0000000000077298
 20
168.43676802822031
 30
0.0
 11
13.000000000007731
 21
168.43676802822031
 31
0.0
  0
ARC
  5
2012
  8
SAPA_ANSLUTNING
 10
13.000000000007731
 20
170.43676802822031
 30
0.0
 40
2.0
 50
270.0
 51
90.0
  0
LINE
  5
2013
  8
SAPA_ANSLUTNING
 10
13.000000000007731
 20
172.43676802822031
 30
0.0
 11
2.0000000000077298
 21
172.43676802822031
 31
0.0
  0
ARC
  5
2014
  8
SAPA_ANSLUTNING
 10
2.0000000000077298
 20
174.43676802822031
 30
0.0
 40
2.0
 50
90.0
 51
270.0
  0
LINE
  5
2015
  8
SAPA_ANSLUTNING
 10
2.0000000000077298
 20
176.43676802822031
 30
0.0
 11
13.000000000007731
 21
176.43676802822031
 31
0.0
  0
ARC
  5
2016
  8
SAPA_ANSLUTNING
 10
13.000000000007731
 20
178.43676802822031
 30
0.0
 40
2.0
 50
270.0
 51
90.0
  0
LINE
  5
2017
  8
SAPA_ANSLUTNING
 10
13.000000000007731
 20
180.43676802822031
 30
0.0
 11
2.0000000000077298
 21
180.43676802822031
 31
0.0
  0
ARC
  5
2018
  8
SAPA_ANSLUTNING
 10
2.0000000000077298
 20
182.4367680282202
 30
0.0
 40
2.0
 50
90.0
 51
270.0
  0
LINE
  5
2019
  8
SAPA_ANSLUTNING
 10
2.0000000000077298
 20
184.43676802822031
 30
0.0
 11
13.000000000007731
 21
184.43676802822031
 31
0.0
  0
ARC
  5
201A
  8
SAPA_ANSLUTNING
 10
13.000000000007731
 20
186.43676802822031
 30
0.0
 40
2.0
 50
270.0
 51
90.0
  0
LINE
  5
201B
  8
SAPA_ANSLUTNING
 10
13.000000000007731
 20
188.43676802822031
 30
0.0
 11
2.0000000000077298
 21
188.43676802822031
 31
0.0
  0
ARC
  5
201C
  8
SAPA_ANSLUTNING
 10
2.0000000000077298
 20
190.43676802822031
 30
0.0
 40
2.0
 50
90.0
 51
270.0
  0
LINE
  5
201D
  8
SAPA_ANSLUTNING
 10
2.0000000000077298
 20
192.43676802822031
 30
0.0
 11
13.000000000007731
 21
192.43676802822031
 31
0.0
  0
ARC
  5
201E
  8
SAPA_ANSLUTNING
 10
13.000000000007731
 20
194.43676802822031
 30
0.0
 40
2.0
 50
270.0
 51
90.0
  0
LINE
  5
201F
  8
SAPA_ANSLUTNING
 10
13.000000000007731
 20
196.43676802822031
 30
0.0
 11
2.0000000000077298
 21
196.43676802822031
 31
0.0
  0
ARC
  5
2020
  8
SAPA_ANSLUTNING
 10
2.0000000000077298
 20
198.43676802822031
 30
0.0
 40
2.0
 50
90.0
 51
270.0
  0
LINE
  5
2021
  8
SAPA_ANSLUTNING
 10
2.0000000000077298
 20
200.43676802822031
 30
0.0
 11
13.000000000007731
 21
200.43676802822031
 31
0.0
  0
ARC
  5
2022
  8
SAPA_ANSLUTNING
 10
13.000000000007731
 20
202.43676802822031
 30
0.0
 40
2.0
 50
270.0
 51
90.0
  0
LINE
  5
2023
  8
SAPA_ANSLUTNING
 10
13.000000000007731
 20
204.43676802822031
 30
0.0
 11
2.0000000000077298
 21
204.43676802822031
 31
0.0
  0
ARC
  5
2024
  8
SAPA_ANSLUTNING
 10
2.0000000000077298
 20
206.43676802822031
 30
0.0
 40
2.0
 50
90.0
 51
270.0
  0
LINE
  5
2025
  8
SAPA_ANSLUTNING
 10
2.0000000000077298
 20
208.43676802822031
 30
0.0
 11
13.000000000007731
 21
208.43676802822031
 31
0.0
  0
ARC
  5
2026
  8
SAPA_ANSLUTNING
 10
13.000000000007731
 20
210.43676802822031
 30
0.0
 40
2.0
 50
270.0
 51
90.0
  0
LINE
  5
2027
  8
SAPA_ANSLUTNING
 10
13.000000000007731
 20
212.43676802822031
 30
0.0
 11
2.0000000000077298
 21
212.43676802822031
 31
0.0
  0
ARC
  5
2028
  8
SAPA_ANSLUTNING
 10
2.0000000000077298
 20
214.43676802822031
 30
0.0
 40
2.0
 50
90.0
 51
270.0
  0
LINE
  5
2029
  8
SAPA_ANSLUTNING
 10
2.0000000000077298
 20
216.43676802822031
 30
0.0
 11
13.000000000007731
 21
216.43676802822031
 31
0.0
  0
ARC
  5
202A
  8
SAPA_ANSLUTNING
 10
13.000000000007731
 20
218.43676802822031
 30
0.0
 40
2.0
 50
270.0
 51
90.0
  0
LINE
  5
202B
  8
SAPA_ANSLUTNING
 10
13.000000000007731
 20
220.43676802822031
 30
0.0
 11
2.0000000000077298
 21
220.43676802822031
 31
0.0
  0
ARC
  5
202C
  8
SAPA_ANSLUTNING
 10
2.0000000000077298
 20
222.43676802822031
 30
0.0
 40
2.0
 50
90.0
 51
270.0
  0
LINE
  5
202D
  8
SAPA_ANSLUTNING
 10
2.0000000000077298
 20
224.43676802822031
 30
0.0
 11
13.000000000007731
 21
224.43676802822031
 31
0.0
  0
ARC
  5
202E
  8
SAPA_ANSLUTNING
 10
13.000000000007731
 20
226.43676802822031
 30
0.0
 40
2.0
 50
270.0
 51
90.0
  0
LINE
  5
2036
  8
SAPA_GLAS
 10
104.8758438523387
 20
9.7499998570094402
 30
0.0
 11
104.8758438523387
 21
10.49999985702263
 31
0.0
  0
LINE
  5
2037
  8
SAPA_GLAS
 10
92.07584385232758
 20
10.49999985702263
 30
0.0
 11
92.07584385232667
 21
9.7499998570235391
 31
0.0
  0
LINE
  5
2039
  8
SAPA_GLAS
 10
104.8758438523387
 20
63.249999857374149
 30
0.0
 11
104.8758438523387
 21
62.499999857360962
 31
0.0
  0
LINE
  5
203A
  8
SAPA_GLAS
 10
92.07584385232758
 20
62.499999857360962
 30
0.0
 11
92.07584385232667
 21
63.249999857360052
 31
0.0
  0
TEXT
  5
203C
  8
SAPA_ARTIKELNR
 10
88.581567554886973
 20
0.8111764159826009
 30
0.0000000048844772
 40
3.5
  1
D9V005
  7
ISO
  0
TEXT
  5
2051
  8
SAPA_ARTIKELNR
 10
79.044992350845405
 20
68.943204539670262
 30
0.0000000048844772
 40
3.5
  1
D9V007
  7
ISO
  0
LINE
  5
2054
  8
SAPA_FOGBAND
 10
61.421152396859718
 20
69.399567324969624
 30
0.0
 11
61.421152396857003
 21
64.403363996793331
 31
0.0
  0
LINE
  5
2055
  8
SAPA_FOGBAND
 10
61.27115239685827
 20
64.403363996793331
 30
0.0
 11
61.27115239685827
 21
69.399567324969624
 31
0.0
  0
LINE
  5
2059
  8
SAPA_FOGBAND
 10
69.921152396863803
 20
69.399567324969624
 30
0.0
 11
69.921152396861089
 21
64.403363996793331
 31
0.0
  0
LINE
  5
205A
  8
SAPA_FOGBAND
 10
69.771152396862362
 20
64.403363996793331
 30
0.0
 11
69.771152396862362
 21
69.399567324969624
 31
0.0
  0
LINE
  5
205E
  8
SAPA_FOGBAND
 10
61.421152396859718
 20
3.6004323887491121
 30
0.0
 11
61.421152396857003
 21
8.5966357169254195
 31
0.0
  0
LINE
  5
205F
  8
SAPA_FOGBAND
 10
61.27115239685827
 20
8.5966357169254195
 30
0.0
 11
61.27115239685827
 21
3.6004323887491121
 31
0.0
  0
LINE
  5
2063
  8
SAPA_FOGBAND
 10
69.921152396863803
 20
3.6004323887491121
 30
0.0
 11
69.921152396861089
 21
8.5966357169254195
 31
0.0
  0
LINE
  5
2064
  8
SAPA_FOGBAND
 10
69.771152396862362
 20
8.5966357169254195
 30
0.0
 11
69.771152396862362
 21
3.6004323887491121
 31
0.0
  0
POINT
  5
2067
  8
SAPA_FOGBAND
 10
70.000555349948172
 20
224.69999985659021
 30
0.0
 50
270.00000005963659
  0
POINT
  5
2068
  8
SAPA_FOGBAND
 10
70.000555349948172
 20
221.99999985659039
 30
0.0
 50
270.00000005963659
  0
POINT
  5
2069
  8
SAPA_FOGBAND
 10
70.000555349948172
 20
224.699999856587
 30
0.0
 50
270.0
  0
POINT
  5
206A
  8
SAPA_FOGBAND
 10
70.000555349948172
 20
221.99999985659039
 30
0.0
 50
270.0
  0
LINE
  5
206D
  8
SAPA_FOGBAND
 10
69.911954841166789
 20
223.3995673250401
 30
0.0
 11
69.911954841170413
 21
219.80099046718891
 31
0.0
  0
LINE
  5
206E
  8
SAPA_FOGBAND
 10
69.911954841170413
 20
219.80099046718891
 30
0.0
 11
70.061954841168244
 21
219.80099046718891
 31
0.0
  0
LINE
  5
206F
  8
SAPA_FOGBAND
 10
70.061954841168244
 20
219.80099046718891
 30
0.0
 11
70.061954841168244
 21
223.3995673250401
 31
0.0
  0
POINT
  5
2071
  8
SAPA_FOGBAND
 10
70.000555349948172
 20
147.69999985654559
 30
0.0
 50
270.00000005963659
  0
POINT
  5
2072
  8
SAPA_FOGBAND
 10
70.000555349948172
 20
144.9999998565458
 30
0.0
 50
270.00000005963659
  0
POINT
  5
2073
  8
SAPA_FOGBAND
 10
70.000555349948172
 20
147.69999985654249
 30
0.0
 50
270.0
  0
POINT
  5
2074
  8
SAPA_FOGBAND
 10
70.000555349948172
 20
144.9999998565458
 30
0.0
 50
270.0
  0
LINE
  5
2077
  8
SAPA_FOGBAND
 10
69.911954841166789
 20
146.3995673249955
 30
0.0
 11
69.911954841170413
 21
142.8009904671444
 31
0.0
  0
LINE
  5
2078
  8
SAPA_FOGBAND
 10
69.911954841170413
 20
142.8009904671444
 30
0.0
 11
70.061954841168244
 21
142.8009904671444
 31
0.0
  0
LINE
  5
2079
  8
SAPA_FOGBAND
 10
70.061954841168244
 20
142.8009904671444
 30
0.0
 11
70.061954841168244
 21
146.3995673249955
 31
0.0
  0
TEXT
  5
207C
  8
SAPA_ARTIKELNR
 10
81.819152140357815
 20
128.64441313736691
 30
0.0000000048844772
 40
3.5
  1
D9A050
 50
90.0
  7
ISO
  0
TEXT
  5
207D
  8
SAPA_ARTIKELNR
 10
81.819152140357815
 20
208.02251755281759
 30
0.0000000048844772
 40
3.5
  1
D9A051
 50
90.0
  7
ISO
  0
LINE
  5
22EF
  8
SAPA_FOGBAND
 10
36.597949306924882
 20
22.030021128903599
 30
0.0
 11
34.197949306956161
 21
21.15649256667572
 31
0.0
  0
ARC
  5
22F0
  8
SAPA_FOGBAND
 10
34.300555349953861
 20
20.874584780439701
 30
0.0
 40
0.3000000000002311
 50
109.9999999999837
 51
179.99999999998369
  0
LINE
  5
22F1
  8
SAPA_FOGBAND
 10
34.000555349953629
 20
20.87458478043979
 30
0.0
 11
34.000555349953629
 21
17.80965383281724
 31
0.0
  0
ARC
  5
22F2
  8
SAPA_FOGBAND
 10
34.300555349953171
 20
17.809653832816881
 30
0.0
 40
0.2999999999995424
 50
179.99999999993011
 51
254.99999999992869
  0
LINE
  5
22F3
  8
SAPA_FOGBAND
 10
34.222909636422173
 20
17.519876084930701
 30
0.0
 11
36.622909636391803
 21
16.876798023104101
 31
0.0
  0
ARC
  5
22F4
  8
SAPA_FOGBAND
 10
36.700555349922531
 20
17.16657577099102
 30
0.0
 40
0.300000000000185
 50
255.00000000001501
 51
0.0000000000156059
  0
LINE
  5
22F5
  8
SAPA_FOGBAND
 10
37.000555349922713
 20
17.166575770991098
 30
0.0
 11
37.000555349922713
 21
21.748113342667668
 31
0.0
  0
ARC
  5
22F6
  8
SAPA_FOGBAND
 10
36.700555349922588
 20
21.7481133426677
 30
0.0
 40
0.3000000000001179
 50
359.99999999999329
 51
109.9999999999941
  0
LINE
  5
22F9
  8
SAPA_PROFIL
 10
75.000563349939966
 20
148.99999978498019
 30
0.0
 11
75.000563349936328
 21
143.99999978498019
 31
0.0
  0
ARC
  5
22FA
  8
SAPA_PROFIL
 10
74.000563349936328
 20
143.99999978498019
 30
0.0
 40
1.0
 50
270.0
 51
0.0
  0
LINE
  5
22FB
  8
SAPA_PROFIL
 10
74.000563349936328
 20
142.99999978498019
 30
0.0
 11
64.000563349937238
 21
142.99999978498749
 31
0.0
  0
ARC
  5
22FC
  8
SAPA_PROFIL
 10
64.0005633499336
 20
143.9999997849838
 30
0.0
 40
0.999999999996362
 50
180.00000000020839
 51
270.00000000020839
  0
LINE
  5
22FD
  8
SAPA_PROFIL
 10
63.000563349937231
 20
143.99999978498019
 30
0.0
 11
63.000563349937231
 21
145.74999978501651
 31
0.0
  0
ARC
  5
22FE
  8
SAPA_PROFIL
 10
62.2505633499336
 20
145.74999978501651
 30
0.0
 40
0.750000000003638
 50
0.0
 51
180.0
  0
LINE
  5
22FF
  8
SAPA_PROFIL
 10
61.500563349929962
 20
145.74999978501651
 30
0.0
 11
61.500563349926317
 21
143.99999978498741
 31
0.0
  0
ARC
  5
2300
  8
SAPA_PROFIL
 10
64.000563349931781
 20
143.99999978498559
 30
0.0
 40
2.5000000000054561
 50
179.99999999995831
 51
269.99999999995828
  0
LINE
  5
2301
  8
SAPA_PROFIL
 10
64.000563349929962
 20
141.49999978498019
 30
0.0
 11
73.800563349935601
 21
141.49999978498019
 31
0.0
  0
ARC
  5
2302
  8
SAPA_PROFIL
 10
73.800563349935601
 20
140.49999978498019
 30
0.0
 40
1.0
 50
0.0
 51
90.0
  0
LINE
  5
2303
  8
SAPA_PROFIL
 10
74.800563349935601
 20
140.49999978498019
 30
0.0
 11
74.800563349935601
 21
84.249999785685958
 31
0.0
  0
ARC
  5
2304
  8
SAPA_PROFIL
 10
74.300563349935601
 20
84.249999785685958
 30
0.0
 40
0.5
 50
270.0
 51
0.0
  0
LINE
  5
2305
  8
SAPA_PROFIL
 10
74.300563349935601
 20
83.749999785685944
 30
0.0
 11
56.50056334993269
 21
83.749999785683244
 31
0.0
  0
ARC
  5
2306
  8
SAPA_PROFIL
 10
56.50056334993323
 20
83.449999785682536
 30
0.0
 40
0.3000000000006935
 50
90.000000000101778
 51
249.99999999995001
  0
LINE
  5
2307
  8
SAPA_PROFIL
 10
56.397957306935041
 20
83.168091999446204
 30
0.0
 11
62.697957306934313
 21
80.875079523561652
 31
0.0
  0
ARC
  5
2308
  8
SAPA_PROFIL
 10
62.800563349931359
 20
81.156987309797827
 30
0.0
 40
0.3000000000001544
 50
250.00000000014381
 51
350.00000000023539
  0
LINE
  5
2309
  8
SAPA_PROFIL
 10
63.096005675835379
 20
81.104892856498935
 30
0.0
 11
63.225064862331692
 21
81.836823874512646
 31
0.0
  0
ARC
  5
230A
  8
SAPA_PROFIL
 10
63.717468738837553
 20
81.749999785678867
 30
0.0
 40
0.4999999999998154
 50
90.000000000017906
 51
169.9999999999597
  0
LINE
  5
230B
  8
SAPA_PROFIL
 10
63.717468738837397
 20
82.249999785678682
 30
0.0
 11
74.500563349936314
 21
82.249999785685944
 31
0.0
  0
ARC
  5
230C
  8
SAPA_PROFIL
 10
74.500563349936314
 20
81.749999785685958
 30
0.0
 40
0.5
 50
0.0
 51
90.0
  0
LINE
  5
230D
  8
SAPA_PROFIL
 10
75.000563349936328
 20
81.749999785685958
 30
0.0
 11
75.000563349929052
 21
68.499999784994742
 31
0.0
  0
ARC
  5
230E
  8
SAPA_PROFIL
 10
75.500563349930871
 20
68.499999784996561
 30
0.0
 40
0.500000000001819
 50
180.00000000020839
 51
270.00000000020839
  0
ARC
  5
230F
  8
SAPA_PROFIL
 10
75.50056334993269
 20
68.999999784994742
 30
0.0
 40
1.0
 50
270.0
 51
0.0
  0
LINE
  5
2310
  8
SAPA_PROFIL
 10
76.50056334993269
 20
68.999999784994742
 30
0.0
 11
76.500563349936328
 21
148.49999978498019
 31
0.0
  0
ARC
  5
2311
  8
SAPA_PROFIL
 10
75.500563349936328
 20
148.49999978498019
 30
0.0
 40
1.0
 50
0.0
 51
90.0
  0
ARC
  5
2312
  8
SAPA_PROFIL
 10
75.500563349938147
 20
148.99999978498201
 30
0.0
 40
0.499999999998181
 50
90.000000000208431
 51
180.00000000020839
  0
LINE
  5
2313
  8
SAPA_FOGBAND
 10
70.136954841168972
 20
146.3995673249955
 30
0.0
 11
70.246952226350444
 21
143.05035980033421
 31
0.0
  0
LINE
  5
2314
  8
SAPA_FOGBAND
 10
70.246952226350444
 20
143.05035980033421
 30
0.0
 11
72.685045566773169
 21
143.0509362992083
 31
0.0
  0
LINE
  5
2315
  8
SAPA_FOGBAND
 10
72.685045566773169
 20
143.0509362992083
 30
0.0
 11
71.55964444430856
 21
146.3995673249955
 31
0.0
  0
LINE
  5
2316
  8
SAPA_FOGBAND
 10
68.414265238026474
 20
146.3995673249955
 30
0.0
 11
67.28881864071036
 21
143.05076658474121
 31
0.0
  0
LINE
  5
2317
  8
SAPA_FOGBAND
 10
67.28881864071036
 20
143.05076658474121
 30
0.0
 11
69.726956687259644
 21
143.05033044392121
 31
0.0
  0
LINE
  5
2318
  8
SAPA_FOGBAND
 10
69.726956687259644
 20
143.05033044392121
 30
0.0
 11
69.836954841166062
 21
146.3995673249955
 31
0.0
  0
LINE
  5
2319
  8
SAPA_FOGBAND
 10
73.136954841165334
 20
147.19956732499571
 30
0.0
 11
73.136954841165334
 21
146.3995673249955
 31
0.0
  0
LINE
  5
231A
  8
SAPA_FOGBAND
 10
73.136954841165334
 20
146.3995673249955
 30
0.0
 11
66.8369548411697
 21
146.3995673249955
 31
0.0
  0
LINE
  5
231B
  8
SAPA_FOGBAND
 10
66.8369548411697
 20
146.3995673249955
 30
0.0
 11
66.8369548411697
 21
147.19956732499571
 31
0.0
  0
LINE
  5
231C
  8
SAPA_FOGBAND
 10
66.8369548411697
 20
147.19956732499571
 30
0.0
 11
73.136954841165334
 21
147.19956732499571
 31
0.0
  0
LINE
  5
231D
  8
SAPA_FOGBAND
 10
70.136954841168972
 20
223.3995673250401
 30
0.0
 11
70.246952226350444
 21
220.0503598003788
 31
0.0
  0
LINE
  5
231E
  8
SAPA_FOGBAND
 10
70.246952226350444
 20
220.0503598003788
 30
0.0
 11
72.685045566773169
 21
220.0509362992529
 31
0.0
  0
LINE
  5
231F
  8
SAPA_FOGBAND
 10
72.685045566773169
 20
220.0509362992529
 30
0.0
 11
71.55964444430856
 21
223.3995673250401
 31
0.0
  0
LINE
  5
2320
  8
SAPA_FOGBAND
 10
68.414265238026474
 20
223.3995673250401
 30
0.0
 11
67.28881864071036
 21
220.0507665847858
 31
0.0
  0
LINE
  5
2321
  8
SAPA_FOGBAND
 10
67.28881864071036
 20
220.0507665847858
 30
0.0
 11
69.726956687259644
 21
220.05033044396569
 31
0.0
  0
LINE
  5
2322
  8
SAPA_FOGBAND
 10
69.726956687259644
 20
220.05033044396569
 30
0.0
 11
69.836954841166062
 21
223.3995673250401
 31
0.0
  0
LINE
  5
2323
  8
SAPA_FOGBAND
 10
73.136954841165334
 20
224.19956732504031
 30
0.0
 11
73.136954841165334
 21
223.3995673250401
 31
0.0
  0
LINE
  5
2324
  8
SAPA_FOGBAND
 10
73.136954841165334
 20
223.3995673250401
 30
0.0
 11
66.8369548411697
 21
223.3995673250401
 31
0.0
  0
LINE
  5
2325
  8
SAPA_FOGBAND
 10
66.8369548411697
 20
223.3995673250401
 30
0.0
 11
66.8369548411697
 21
224.19956732504031
 31
0.0
  0
LINE
  5
2326
  8
SAPA_FOGBAND
 10
66.8369548411697
 20
224.19956732504031
 30
0.0
 11
73.136954841165334
 21
224.19956732504031
 31
0.0
  0
ARC
  5
2327
  8
SAPA_PROFIL
 10
64.000555349937244
 20
221.49999985658991
 30
0.0
 40
2.5
 50
180.0
 51
270.0
  0
LINE
  5
2328
  8
SAPA_PROFIL
 10
61.500555349937251
 20
221.49999985658991
 30
0.0
 11
61.500555349940889
 21
223.24999985662629
 31
0.0
  0
ARC
  5
2329
  8
SAPA_PROFIL
 10
62.250555349942722
 20
223.24999985662629
 30
0.0
 40
0.750000000001819
 50
0.0
 51
180.0
  0
LINE
  5
232A
  8
SAPA_PROFIL
 10
63.000555349944527
 20
223.24999985662629
 30
0.0
 11
63.000555349940903
 21
221.49999985658991
 31
0.0
  0
ARC
  5
232B
  8
SAPA_PROFIL
 10
64.000555349942715
 20
221.49999985659181
 30
0.0
 40
1.0000000000018181
 50
180.00000000010419
 51
270.00000000010419
  0
LINE
  5
232C
  8
SAPA_PROFIL
 10
64.000555349944534
 20
220.49999985658991
 30
0.0
 11
74.000555349943852
 21
220.49999985658991
 31
0.0
  0
ARC
  5
232D
  8
SAPA_PROFIL
 10
74.000555349943852
 20
221.49999985658991
 30
0.0
 40
1.0
 50
270.0
 51
0.0
  0
LINE
  5
232E
  8
SAPA_PROFIL
 10
75.000555349943852
 20
221.49999985658991
 30
0.0
 11
75.00055534994749
 21
226.49999985658991
 31
0.0
  0
ARC
  5
232F
  8
SAPA_PROFIL
 10
75.50055534994749
 20
226.49999985658991
 30
0.0
 40
0.5
 50
90.0
 51
180.0
  0
ARC
  5
2330
  8
SAPA_PROFIL
 10
75.500555349945671
 20
225.99999985659181
 30
0.0
 40
0.999999999998181
 50
359.99999999989581
 51
89.999999999895778
  0
LINE
  5
2331
  8
SAPA_PROFIL
 10
76.500555349943852
 20
225.99999985658991
 30
0.0
 11
76.500555349940214
 21
150.49999985658991
 31
0.0
  0
ARC
  5
2332
  8
SAPA_PROFIL
 10
76.000555349940214
 20
150.49999985658991
 30
0.0
 40
0.5
 50
270.0
 51
0.0
  0
LINE
  5
2333
  8
SAPA_PROFIL
 10
76.000555349940214
 20
149.99999985658991
 30
0.0
 11
75.500555349934757
 21
149.99999985658991
 31
0.0
  0
ARC
  5
2334
  8
SAPA_PROFIL
 10
75.500555349936576
 20
150.49999985658991
 30
0.0
 40
0.5
 50
180.0
 51
269.99999999979161
  0
LINE
  5
2335
  8
SAPA_PROFIL
 10
75.000555349936576
 20
150.49999985658991
 30
0.0
 11
75.000555349943852
 21
158.74999985729571
 31
0.0
  0
ARC
  5
2336
  8
SAPA_PROFIL
 10
74.500555349943852
 20
158.74999985729571
 30
0.0
 40
0.5
 50
0.0
 51
90.0
  0
LINE
  5
2337
  8
SAPA_PROFIL
 10
74.500555349943852
 20
159.24999985729571
 30
0.0
 11
63.71746073884492
 21
159.2499998572884
 31
0.0
  0
ARC
  5
2338
  8
SAPA_PROFIL
 10
63.717460738847009
 20
158.7499998572865
 30
0.0
 40
0.5000000000019043
 50
90.000000000240178
 51
170.0000000001821
  0
LINE
  5
2339
  8
SAPA_PROFIL
 10
63.225056862338761
 20
158.8368239461187
 30
0.0
 11
63.095997675843478
 21
158.10489292810649
 31
0.0
  0
ARC
  5
233A
  8
SAPA_PROFIL
 10
62.800555349939728
 20
158.1569873814058
 30
0.0
 40
0.2999999999999563
 50
250.00000000005051
 51
350.0000000001433
  0
LINE
  5
233B
  8
SAPA_PROFIL
 10
62.697949306942292
 20
157.87507959517001
 30
0.0
 11
56.397949306941648
 21
160.16809207105729
 31
0.0
  0
ARC
  5
233C
  8
SAPA_PROFIL
 10
56.500555349940413
 20
160.44999985729419
 30
0.0
 40
0.3000000000014454
 50
90.000000000036621
 51
249.999999999887
  0
LINE
  5
233D
  8
SAPA_PROFIL
 10
56.500555349940207
 20
160.74999985729571
 30
0.0
 11
74.300555349943124
 21
160.74999985729571
 31
0.0
  0
ARC
  5
233E
  8
SAPA_PROFIL
 10
74.300555349943124
 20
161.24999985729571
 30
0.0
 40
0.5
 50
270.0
 51
0.0
  0
LINE
  5
233F
  8
SAPA_PROFIL
 10
74.800555349943124
 20
161.24999985729571
 30
0.0
 11
74.800555349943124
 21
217.99999985658991
 31
0.0
  0
ARC
  5
2340
  8
SAPA_PROFIL
 10
73.800555349943124
 20
217.99999985658991
 30
0.0
 40
1.0
 50
0.0
 51
90.0
  0
LINE
  5
2341
  8
SAPA_PROFIL
 10
73.800555349943124
 20
218.99999985658991
 30
0.0
 11
64.000555349937244
 21
218.99999985658991
 31
0.0
  0
LINE
  5
2342
  8
SAPA_FOGBAND
 10
69.696152396861635
 20
3.6004323887491121
 30
0.0
 11
69.586155011680148
 21
8.3472663837355583
 31
0.0
  0
LINE
  5
2343
  8
SAPA_FOGBAND
 10
69.586155011680148
 20
8.3472663837355583
 30
0.0
 11
67.148061671257423
 21
8.3466898848609787
 31
0.0
  0
LINE
  5
2344
  8
SAPA_FOGBAND
 10
67.148061671257423
 20
8.3466898848609787
 30
0.0
 11
68.273462793722047
 21
3.6004323887491121
 31
0.0
  0
LINE
  5
2345
  8
SAPA_FOGBAND
 10
71.418842000004133
 20
3.6004323887491121
 30
0.0
 11
72.544288597320246
 21
8.3468595993280985
 31
0.0
  0
LINE
  5
2346
  8
SAPA_FOGBAND
 10
72.544288597320246
 20
8.3468595993280985
 30
0.0
 11
70.106150550771872
 21
8.3472957401481551
 31
0.0
  0
LINE
  5
2347
  8
SAPA_FOGBAND
 10
70.106150550771872
 20
8.3472957401481551
 30
0.0
 11
69.996152396864545
 21
3.6004323887491121
 31
0.0
  0
LINE
  5
2348
  8
SAPA_FOGBAND
 10
66.696152396865273
 20
2.8004323887480211
 30
0.0
 11
66.696152396865273
 21
3.6004323887491121
 31
0.0
  0
LINE
  5
2349
  8
SAPA_FOGBAND
 10
66.696152396865273
 20
3.6004323887491121
 30
0.0
 11
72.996152396861817
 21
3.6004323887491121
 31
0.0
  0
LINE
  5
234A
  8
SAPA_FOGBAND
 10
72.996152396861817
 20
3.6004323887491121
 30
0.0
 11
72.996152396861817
 21
2.8004323887480211
 31
0.0
  0
LINE
  5
234B
  8
SAPA_FOGBAND
 10
72.996152396861817
 20
2.8004323887480211
 30
0.0
 11
66.696152396865273
 21
2.8004323887480211
 31
0.0
  0
LINE
  5
234C
  8
SAPA_FOGBAND
 10
61.196152396857542
 20
3.6004323887491121
 30
0.0
 11
61.086155011676048
 21
8.3472663837355583
 31
0.0
  0
LINE
  5
234D
  8
SAPA_FOGBAND
 10
61.086155011676048
 20
8.3472663837355583
 30
0.0
 11
58.648061671253338
 21
8.3466898848609787
 31
0.0
  0
LINE
  5
234E
  8
SAPA_FOGBAND
 10
58.648061671253338
 20
8.3466898848609787
 30
0.0
 11
59.773462793717947
 21
3.6004323887491121
 31
0.0
  0
LINE
  5
234F
  8
SAPA_FOGBAND
 10
62.918842000000041
 20
3.6004323887491121
 30
0.0
 11
64.044288597316154
 21
8.3468595993280985
 31
0.0
  0
LINE
  5
2350
  8
SAPA_FOGBAND
 10
64.044288597316154
 20
8.3468595993280985
 30
0.0
 11
61.606150550767779
 21
8.3472957401481551
 31
0.0
  0
LINE
  5
2351
  8
SAPA_FOGBAND
 10
61.606150550767779
 20
8.3472957401481551
 30
0.0
 11
61.496152396860452
 21
3.6004323887491121
 31
0.0
  0
LINE
  5
2352
  8
SAPA_FOGBAND
 10
58.19615239686118
 20
2.8004323887480211
 30
0.0
 11
58.19615239686118
 21
3.6004323887491121
 31
0.0
  0
LINE
  5
2353
  8
SAPA_FOGBAND
 10
58.19615239686118
 20
3.6004323887491121
 30
0.0
 11
64.496152396857724
 21
3.6004323887491121
 31
0.0
  0
LINE
  5
2354
  8
SAPA_FOGBAND
 10
64.496152396857724
 20
3.6004323887491121
 30
0.0
 11
64.496152396857724
 21
2.8004323887480211
 31
0.0
  0
LINE
  5
2355
  8
SAPA_FOGBAND
 10
64.496152396857724
 20
2.8004323887480211
 30
0.0
 11
58.19615239686118
 21
2.8004323887480211
 31
0.0
  0
LINE
  5
2356
  8
SAPA_FOGBAND
 10
69.696152396861635
 20
69.399567324969624
 30
0.0
 11
69.586155011680148
 21
64.652733329983192
 31
0.0
  0
LINE
  5
2357
  8
SAPA_FOGBAND
 10
69.586155011680148
 20
64.652733329983192
 30
0.0
 11
67.148061671257423
 21
64.653309828857772
 31
0.0
  0
LINE
  5
2358
  8
SAPA_FOGBAND
 10
67.148061671257423
 20
64.653309828857772
 30
0.0
 11
68.273462793722047
 21
69.399567324969624
 31
0.0
  0
LINE
  5
2359
  8
SAPA_FOGBAND
 10
71.418842000004133
 20
69.399567324969624
 30
0.0
 11
72.544288597320246
 21
64.653140114390652
 31
0.0
  0
LINE
  5
235A
  8
SAPA_FOGBAND
 10
72.544288597320246
 20
64.653140114390652
 30
0.0
 11
70.106150550771872
 21
64.652703973570596
 31
0.0
  0
LINE
  5
235B
  8
SAPA_FOGBAND
 10
70.106150550771872
 20
64.652703973570596
 30
0.0
 11
69.996152396864545
 21
69.399567324969624
 31
0.0
  0
LINE
  5
235C
  8
SAPA_FOGBAND
 10
66.696152396865273
 20
70.199567324970729
 30
0.0
 11
66.696152396865273
 21
69.399567324969624
 31
0.0
  0
LINE
  5
235D
  8
SAPA_FOGBAND
 10
66.696152396865273
 20
69.399567324969624
 30
0.0
 11
72.996152396861817
 21
69.399567324969624
 31
0.0
  0
LINE
  5
235E
  8
SAPA_FOGBAND
 10
72.996152396861817
 20
69.399567324969624
 30
0.0
 11
72.996152396861817
 21
70.199567324970729
 31
0.0
  0
LINE
  5
235F
  8
SAPA_FOGBAND
 10
72.996152396861817
 20
70.199567324970729
 30
0.0
 11
66.696152396865273
 21
70.199567324970729
 31
0.0
  0
LINE
  5
2360
  8
SAPA_FOGBAND
 10
61.196152396857542
 20
69.399567324969624
 30
0.0
 11
61.086155011676048
 21
64.652733329983192
 31
0.0
  0
LINE
  5
2361
  8
SAPA_FOGBAND
 10
61.086155011676048
 20
64.652733329983192
 30
0.0
 11
58.648061671253338
 21
64.653309828857772
 31
0.0
  0
LINE
  5
2362
  8
SAPA_FOGBAND
 10
58.648061671253338
 20
64.653309828857772
 30
0.0
 11
59.773462793717947
 21
69.399567324969624
 31
0.0
  0
LINE
  5
2363
  8
SAPA_FOGBAND
 10
62.918842000000041
 20
69.399567324969624
 30
0.0
 11
64.044288597316154
 21
64.653140114390652
 31
0.0
  0
LINE
  5
2364
  8
SAPA_FOGBAND
 10
64.044288597316154
 20
64.653140114390652
 30
0.0
 11
61.606150550767779
 21
64.652703973570596
 31
0.0
  0
LINE
  5
2365
  8
SAPA_FOGBAND
 10
61.606150550767779
 20
64.652703973570596
 30
0.0
 11
61.496152396860452
 21
69.399567324969624
 31
0.0
  0
LINE
  5
2366
  8
SAPA_FOGBAND
 10
58.19615239686118
 20
70.199567324970729
 30
0.0
 11
58.19615239686118
 21
69.399567324969624
 31
0.0
  0
LINE
  5
2367
  8
SAPA_FOGBAND
 10
58.19615239686118
 20
69.399567324969624
 30
0.0
 11
64.496152396857724
 21
69.399567324969624
 31
0.0
  0
LINE
  5
2368
  8
SAPA_FOGBAND
 10
64.496152396857724
 20
69.399567324969624
 30
0.0
 11
64.496152396857724
 21
70.199567324970729
 31
0.0
  0
LINE
  5
2369
  8
SAPA_FOGBAND
 10
64.496152396857724
 20
70.199567324970729
 30
0.0
 11
58.19615239686118
 21
70.199567324970729
 31
0.0
  0
LINE
  5
236A
  8
SAPA_GLAS
 10
124.0758438523267
 20
18.499999857039001
 30
0.0
 11
92.07584385232667
 21
18.499999857039001
 31
0.0
  0
LINE
  5
236B
  8
SAPA_GLAS
 10
92.07584385232667
 20
18.499999857039001
 30
0.0
 11
92.07584385232667
 21
10.499999857039001
 31
0.0
  0
LINE
  5
236C
  8
SAPA_GLAS
 10
92.07584385232667
 20
10.499999857039001
 30
0.0
 11
124.0758438523267
 21
10.499999857039001
 31
0.0
  0
LINE
  5
236D
  8
SAPA_GLAS
 10
102.0758438523266
 20
18.499999857039001
 30
0.0
 11
102.0758438523266
 21
33.499999857039001
 31
0.0
  0
LINE
  5
236E
  8
SAPA_GLAS
 10
102.0758438523266
 20
33.499999857039001
 30
0.0
 11
92.07584385232667
 21
33.499999857039001
 31
0.0
  0
LINE
  5
236F
  8
SAPA_GLAS
 10
92.07584385232667
 20
33.499999857039001
 30
0.0
 11
92.07584385232667
 21
18.499999857039001
 31
0.0
  0
LINE
  5
2370
  8
SAPA_GLAS
 10
92.07584385232667
 20
18.499999857039001
 30
0.0
 11
102.0758438523266
 21
18.499999857039001
 31
0.0
  0
LINE
  5
2371
  8
SAPA_GLAS
 10
124.0758438523267
 20
39.499999857039001
 30
0.0
 11
92.07584385232667
 21
39.499999857039001
 31
0.0
  0
LINE
  5
2372
  8
SAPA_GLAS
 10
92.07584385232667
 20
39.499999857039001
 30
0.0
 11
92.07584385232667
 21
33.499999857039001
 31
0.0
  0
LINE
  5
2373
  8
SAPA_GLAS
 10
92.07584385232667
 20
33.499999857039001
 30
0.0
 11
124.0758438523267
 21
33.499999857039001
 31
0.0
  0
LINE
  5
2374
  8
SAPA_GLAS
 10
102.0758438523266
 20
39.499999857199747
 30
0.0
 11
102.0758438523266
 21
54.499999857199747
 31
0.0
  0
LINE
  5
2375
  8
SAPA_GLAS
 10
102.0758438523266
 20
54.499999857199747
 30
0.0
 11
92.07584385232667
 21
54.499999857199747
 31
0.0
  0
LINE
  5
2376
  8
SAPA_GLAS
 10
92.07584385232667
 20
54.499999857199747
 30
0.0
 11
92.07584385232667
 21
39.499999857199747
 31
0.0
  0
LINE
  5
2377
  8
SAPA_GLAS
 10
92.07584385232667
 20
39.499999857199747
 30
0.0
 11
102.0758438523266
 21
39.499999857199747
 31
0.0
  0
LINE
  5
2378
  8
SAPA_GLAS
 10
124.0758438523267
 20
62.499999857199981
 30
0.0
 11
92.07584385232667
 21
62.499999857199981
 31
0.0
  0
LINE
  5
2379
  8
SAPA_GLAS
 10
92.07584385232667
 20
62.499999857199981
 30
0.0
 11
92.07584385232667
 21
54.499999857199981
 31
0.0
  0
LINE
  5
237A
  8
SAPA_GLAS
 10
92.07584385232667
 20
54.499999857199981
 30
0.0
 11
124.0758438523267
 21
54.499999857199981
 31
0.0
  0
LINE
  5
237B
  8
SAPA_PROFIL
 10
79.300555349939245
 20
15.49999985756628
 30
0.0
 11
81.700555349948004
 21
15.49999985754445
 31
0.0
  0
ARC
  5
237C
  8
SAPA_PROFIL
 10
81.700555349950534
 20
15.199999857545899
 30
0.0
 40
0.2999999999985459
 50
0.0000000019456513
 51
90.000000000485812
  0
LINE
  5
237D
  8
SAPA_PROFIL
 10
82.000555349949067
 20
15.19999985755609
 30
0.0
 11
82.000555349949067
 21
10.99999985754445
 31
0.0
  0
ARC
  5
237E
  8
SAPA_PROFIL
 10
85.000555349949082
 20
10.999999857555361
 30
0.0
 40
3.0
 50
180.00000000020839
 51
270.00000000020839
  0
LINE
  5
237F
  8
SAPA_PROFIL
 10
85.000555349959996
 20
7.9999998575553661
 30
0.0
 11
90.000555349949082
 21
7.9999998575553661
 31
0.0
  0
ARC
  5
2380
  8
SAPA_PROFIL
 10
90.000555349989355
 20
137.99999985756719
 30
0.0
 40
130.0000000000118
 50
269.99999999998221
 51
276.3992029854416
  0
ARC
  5
2381
  8
SAPA_PROFIL
 10
104.40055534921009
 20
9.6049843785963471
 30
0.0
 40
0.8000000006978916
 50
276.39920303342791
 51
356.84802947221658
  0
ARC
  5
2382
  8
SAPA_PROFIL
 10
105.3990425568975
 20
9.5499998582785715
 30
0.0
 40
0.1999999999971096
 50
89.999999999951143
 51
176.84802942485851
  0
LINE
  5
2383
  8
SAPA_PROFIL
 10
105.3990425568977
 20
9.7499998582756842
 30
0.0
 11
106.3005553499593
 21
9.7499998582793221
 31
0.0
  0
ARC
  5
2384
  8
SAPA_PROFIL
 10
106.3005553499593
 20
9.5499998582786034
 30
0.0
 40
0.2000000000007205
 50
359.9999999968714
 51
90.0
  0
LINE
  5
2385
  8
SAPA_PROFIL
 10
106.50055534996
 20
9.5499998582676824
 30
0.0
 11
106.5005553499672
 21
9.323940789796751
 31
0.0
  0
ARC
  5
2386
  8
SAPA_PROFIL
 10
104.5005553499674
 20
9.3239407898187352
 30
0.0
 40
1.999999999999829
 50
276.50450009400748
 51
359.99999999937017
  0
ARC
  5
2387
  8
SAPA_PROFIL
 10
90.000555349964571
 20
136.49999985757171
 30
0.0
 40
130.0000000000181
 50
264.11075825155928
 51
276.5045000940122
  0
ARC
  5
2388
  8
SAPA_PROFIL
 10
77.687863825978411
 20
17.133347782591681
 30
0.0
 40
9.9999999993756976
 50
253.29089246669531
 51
264.1107582507554
  0
ARC
  5
2389
  8
SAPA_PROFIL
 10
82.000555349986385
 20
31.499999857243541
 30
0.0
 40
24.999999999887329
 50
250.53704905358981
 51
253.29089246734139
  0
ARC
  5
238A
  8
SAPA_PROFIL
 10
70.338651560274826
 20
-1.5000001426403811
 30
0.0
 40
10.00000000001021
 50
70.537049053587566
 51
90.000000000042505
  0
LINE
  5
238B
  8
SAPA_PROFIL
 10
70.338651560267408
 20
8.4999998573698292
 30
0.0
 11
63.000555349938161
 21
8.4999998573698292
 31
0.0
  0
ARC
  5
238C
  8
SAPA_PROFIL
 10
63.000555349938161
 20
13.499999857369829
 30
0.0
 40
5.0
 50
180.0
 51
270.0
  0
LINE
  5
238D
  8
SAPA_PROFIL
 10
58.000555349938161
 20
13.499999857369829
 30
0.0
 11
58.000555349949082
 21
16.256130816269859
 31
0.0
  0
ARC
  5
238E
  8
SAPA_PROFIL
 10
58.300555349970182
 20
16.256130816269959
 30
0.0
 40
0.3000000000211074
 50
125.62006975991559
 51
180.00000000001901
  0
ARC
  5
238F
  8
SAPA_PROFIL
 10
57.95111069992722
 20
16.743868898194432
 30
0.0
 40
0.2999999999814031
 50
305.62006975131902
 51
359.99999999492331
  0
LINE
  5
2390
  8
SAPA_PROFIL
 10
58.251110699908622
 20
16.74386889816785
 30
0.0
 11
58.251110699908622
 21
17.699999857217762
 31
0.0
  0
ARC
  5
2391
  8
SAPA_PROFIL
 10
57.951110699909748
 20
17.699999857217279
 30
0.0
 40
0.2999999999988745
 50
0.0000000000909215
 51
70.533640999696289
  0
LINE
  5
2392
  8
SAPA_PROFIL
 10
58.051086699914322
 20
17.982851053824991
 30
0.0
 11
58.051086699914322
 21
20.285810294852549
 31
0.0
  0
ARC
  5
2393
  8
SAPA_PROFIL
 10
59.051086699914038
 20
20.28581029485164
 30
0.0
 40
0.9999999999997228
 50
44.99999999995206
 51
179.99999999994759
  0
LINE
  5
2394
  8
SAPA_PROFIL
 10
59.758193481100989
 20
20.992917076037401
 30
0.0
 11
61.063242734270261
 21
19.687867822868121
 31
0.0
  0
ARC
  5
2395
  8
SAPA_PROFIL
 10
60.851110699912091
 20
19.475735788512068
 30
0.0
 40
0.3000000000016247
 50
359.9999999996981
 51
44.999999999714532
  0
LINE
  5
2396
  8
SAPA_PROFIL
 10
61.151110699913708
 20
19.475735788510491
 30
0.0
 11
61.151110699913708
 21
18.889230341763749
 31
0.0
  0
ARC
  5
2397
  8
SAPA_PROFIL
 10
60.851110699910834
 20
18.889230341763572
 30
0.0
 40
0.300000000002882
 50
330.00000000003678
 51
0.0000000000346044
  0
LINE
  5
2398
  8
SAPA_PROFIL
 10
61.11091832104875
 20
18.739230341762291
 30
0.0
 11
60.25111069991226
 21
17.24999985722431
 31
0.0
  0
LINE
  5
2399
  8
SAPA_PROFIL
 10
60.25111069991226
 20
17.24999985722431
 30
0.0
 11
60.251098699913648
 21
16.799999857223579
 31
0.0
  0
ARC
  5
239A
  8
SAPA_PROFIL
 10
60.55109869991292
 20
16.799999857223579
 30
0.0
 40
0.2999999999992653
 50
179.99999999999929
 51
270.00000000000131
  0
LINE
  5
239B
  8
SAPA_PROFIL
 10
60.551098699912927
 20
16.49999985722431
 30
0.0
 11
64.151110699913716
 21
16.499999857220669
 31
0.0
  0
ARC
  5
239C
  8
SAPA_PROFIL
 10
64.151110699913716
 20
16.799999857219941
 30
0.0
 40
0.2999999999992724
 50
270.0
 51
0.0
  0
LINE
  5
239D
  8
SAPA_PROFIL
 10
64.451110699912974
 20
16.799999857219941
 30
0.0
 11
64.451110699912974
 21
17.249999857220669
 31
0.0
  0
LINE
  5
239E
  8
SAPA_PROFIL
 10
64.451110699912974
 20
17.249999857220669
 30
0.0
 11
63.5912859623445
 21
18.739259988295512
 31
0.0
  0
ARC
  5
239F
  8
SAPA_PROFIL
 10
63.851093583480861
 20
18.889259988296669
 30
0.0
 40
0.3000000000014712
 50
180.0036468675346
 51
210.00000000009371
  0
LINE
  5
23A0
  8
SAPA_PROFIL
 10
63.551093584087077
 20
18.889240893342929
 30
0.0
 11
63.551091212279509
 21
18.999999857227952
 31
0.0
  0
LINE
  5
23A1
  8
SAPA_PROFIL
 10
63.551091212279509
 20
18.999999857227952
 30
0.0
 11
68.450018925001586
 21
18.999999857213389
 31
0.0
  0
LINE
  5
23A2
  8
SAPA_PROFIL
 10
68.450018925001586
 20
18.999999857213389
 30
0.0
 11
68.450017115854735
 21
18.889240893339291
 31
0.0
  0
ARC
  5
23A3
  8
SAPA_PROFIL
 10
68.150017116460958
 20
18.889259988293041
 30
0.0
 40
0.3000000000014718
 50
329.99999999990632
 51
359.9963531324654
  0
LINE
  5
23A4
  8
SAPA_PROFIL
 10
68.409824737597319
 20
18.739259988291881
 30
0.0
 11
67.550000000028831
 21
17.249999857217031
 31
0.0
  0
LINE
  5
23A5
  8
SAPA_PROFIL
 10
67.550000000028831
 20
17.249999857217031
 30
0.0
 11
67.550000000028831
 21
16.79999985721631
 31
0.0
  0
ARC
  5
23A6
  8
SAPA_PROFIL
 10
67.850000000028103
 20
16.79999985721631
 30
0.0
 40
0.2999999999992724
 50
180.0
 51
270.0
  0
LINE
  5
23A7
  8
SAPA_PROFIL
 10
67.850000000028103
 20
16.499999857217031
 30
0.0
 11
71.450012000028892
 21
16.499999857217031
 31
0.0
  0
ARC
  5
23A8
  8
SAPA_PROFIL
 10
71.450012000028892
 20
16.799999857216299
 30
0.0
 40
0.2999999999992688
 50
270.0
 51
0.0000000000006785
  0
LINE
  5
23A9
  8
SAPA_PROFIL
 10
71.750012000028164
 20
16.79999985721631
 30
0.0
 11
71.750000000029559
 21
17.249999857217031
 31
0.0
  0
LINE
  5
23AA
  8
SAPA_PROFIL
 10
71.750000000029559
 20
17.249999857217031
 30
0.0
 11
70.890192378894881
 21
18.739230341758649
 31
0.0
  0
ARC
  5
23AB
  8
SAPA_PROFIL
 10
71.150000000026012
 20
18.889230341758111
 30
0.0
 40
0.2999999999960896
 50
180.0000000003127
 51
210.00000000031099
  0
LINE
  5
23AC
  8
SAPA_PROFIL
 10
70.850000000029922
 20
18.88923034175647
 30
0.0
 11
70.850000000029922
 21
19.475735788503211
 31
0.0
  0
ARC
  5
23AD
  8
SAPA_PROFIL
 10
71.15000000003154
 20
19.475735788504789
 30
0.0
 40
0.3000000000016172
 50
135.0000000002845
 51
180.0000000003019
  0
LINE
  5
23AE
  8
SAPA_PROFIL
 10
70.937867965673377
 20
19.687867822860849
 30
0.0
 11
72.242917218842649
 21
20.992917076030128
 31
0.0
  0
ARC
  5
23AF
  8
SAPA_PROFIL
 10
72.950024000028833
 20
20.285810294842548
 30
0.0
 40
1.0000000000004721
 50
359.9999999999481
 51
134.99999999994341
  0
LINE
  5
23B0
  8
SAPA_PROFIL
 10
73.950024000029316
 20
20.285810294841639
 30
0.0
 11
73.950024000029316
 21
17.98285105383226
 31
0.0
  0
ARC
  5
23B1
  8
SAPA_PROFIL
 10
74.050000000030764
 20
17.699999857219051
 30
0.0
 40
0.3000000000030255
 50
109.46635899939
 51
180.00000000024619
  0
LINE
  5
23B2
  8
SAPA_PROFIL
 10
73.75000000002774
 20
17.699999857217762
 30
0.0
 11
73.750000000029544
 21
16.74386889816785
 31
0.0
  0
ARC
  5
23B3
  8
SAPA_PROFIL
 10
74.050000000025136
 20
16.743868898175698
 30
0.0
 40
0.2999999999955776
 50
180.0000000014995
 51
234.3799302447257
  0
ARC
  5
23B4
  8
SAPA_PROFIL
 10
73.700555349988292
 20
16.25613081622528
 30
0.0
 40
0.3000000000244556
 50
0.0000000078178882
 51
54.379930247876068
  0
LINE
  5
23B5
  8
SAPA_PROFIL
 10
74.000555350012746
 20
16.256130816266221
 30
0.0
 11
74.000555349967271
 21
15.49999985754445
 31
0.0
  0
ARC
  5
23B6
  8
SAPA_PROFIL
 10
73.000555349963633
 20
15.49999985754809
 30
0.0
 40
1.0000000000036371
 50
270.00000000020839
 51
359.9999999997915
  0
LINE
  5
23B7
  8
SAPA_PROFIL
 10
73.000555349967271
 20
14.49999985754445
 30
0.0
 11
70.500555349810824
 21
14.499999857369829
 31
0.0
  0
ARC
  5
23B8
  8
SAPA_PROFIL
 10
70.500555349959996
 20
12.499999857369829
 30
0.0
 40
2.0
 50
90.000000004273033
 51
270.0
  0
LINE
  5
23B9
  8
SAPA_PROFIL
 10
70.500555349959996
 20
10.499999857369829
 30
0.0
 11
78.500555349959996
 21
10.499999857369829
 31
0.0
  0
ARC
  5
23BA
  8
SAPA_PROFIL
 10
78.500555349963633
 20
12.499999857366189
 30
0.0
 40
1.999999999996362
 50
269.99999999989581
 51
0.0000000003126612
  0
LINE
  5
23BB
  8
SAPA_PROFIL
 10
80.500555349959996
 20
12.4999998573771
 30
0.0
 11
80.500555349938153
 21
14.19999985755245
 31
0.0
  0
ARC
  5
23BC
  8
SAPA_PROFIL
 10
80.200555349939634
 20
14.19999985754591
 30
0.0
 40
0.2999999999985476
 50
0.00000000125017
 51
90.000000001875421
  0
LINE
  5
23BD
  8
SAPA_PROFIL
 10
80.2005553499298
 20
14.49999985754445
 30
0.0
 11
79.300555349939245
 21
14.499999857555361
 31
0.0
  0
ARC
  5
23BE
  8
SAPA_PROFIL
 10
79.300555349933802
 20
14.79999985756009
 30
0.0
 40
0.3000000000047294
 50
180.0000000010422
 51
270.00000000104222
  0
LINE
  5
23BF
  8
SAPA_PROFIL
 10
79.000555349929073
 20
14.79999985755464
 30
0.0
 11
79.000555349929073
 21
15.19999985755609
 31
0.0
  0
ARC
  5
23C0
  8
SAPA_PROFIL
 10
79.300555349939245
 20
15.19999985755609
 30
0.0
 40
0.3000000000101863
 50
90.0
 51
179.9999999999996
  0
LINE
  5
23C1
  8
SAPA_PROFIL
 10
79.300555349939245
 20
15.49999985756582
 30
0.0
 11
81.700555349948004
 21
15.499999857543999
 31
0.0
  0
ARC
  5
23C2
  8
SAPA_PROFIL
 10
81.700555349950534
 20
15.19999985754545
 30
0.0
 40
0.2999999999985459
 50
0.0000000019456513
 51
90.000000000485812
  0
LINE
  5
23C3
  8
SAPA_PROFIL
 10
82.000555349949067
 20
15.199999857555641
 30
0.0
 11
82.000555349949067
 21
10.999999857543999
 31
0.0
  0
ARC
  5
23C4
  8
SAPA_PROFIL
 10
85.000555349949082
 20
10.999999857554901
 30
0.0
 40
3.0
 50
180.00000000020839
 51
270.00000000020839
  0
LINE
  5
23C5
  8
SAPA_PROFIL
 10
85.000555349959996
 20
7.9999998575549114
 30
0.0
 11
90.000555349949082
 21
7.9999998575549114
 31
0.0
  0
ARC
  5
23C6
  8
SAPA_PROFIL
 10
90.000555349989355
 20
137.99999985756671
 30
0.0
 40
130.0000000000118
 50
269.99999999998221
 51
276.3992029854416
  0
ARC
  5
23C7
  8
SAPA_PROFIL
 10
104.40055534921009
 20
9.6049843785958942
 30
0.0
 40
0.8000000006978916
 50
276.39920303342791
 51
356.84802947221658
  0
ARC
  5
23C8
  8
SAPA_PROFIL
 10
105.3990425568975
 20
9.5499998582781167
 30
0.0
 40
0.1999999999971096
 50
89.999999999951143
 51
176.84802942485851
  0
LINE
  5
23C9
  8
SAPA_PROFIL
 10
105.3990425568977
 20
9.7499998582752312
 30
0.0
 11
106.3005553499593
 21
9.7499998582788692
 31
0.0
  0
ARC
  5
23CA
  8
SAPA_PROFIL
 10
106.3005553499593
 20
9.5499998582781487
 30
0.0
 40
0.2000000000007205
 50
359.9999999968714
 51
90.0
  0
LINE
  5
23CB
  8
SAPA_PROFIL
 10
106.50055534996
 20
9.5499998582672276
 30
0.0
 11
106.5005553499672
 21
9.3239407897962963
 31
0.0
  0
ARC
  5
23CC
  8
SAPA_PROFIL
 10
104.5005553499674
 20
9.3239407898182805
 30
0.0
 40
1.999999999999829
 50
276.50450009400748
 51
359.99999999937017
  0
ARC
  5
23CD
  8
SAPA_PROFIL
 10
90.000555349964571
 20
136.4999998575712
 30
0.0
 40
130.0000000000181
 50
264.11075825155928
 51
276.5045000940122
  0
ARC
  5
23CE
  8
SAPA_PROFIL
 10
77.687863825978411
 20
17.133347782591219
 30
0.0
 40
9.9999999993756976
 50
253.29089246669531
 51
264.1107582507554
  0
ARC
  5
23CF
  8
SAPA_PROFIL
 10
82.000555349986385
 20
31.49999985724309
 30
0.0
 40
24.999999999887329
 50
250.53704905358981
 51
253.29089246734139
  0
ARC
  5
23D0
  8
SAPA_PROFIL
 10
70.338651560274826
 20
-1.500000142640836
 30
0.0
 40
10.00000000001021
 50
70.537049053587566
 51
90.000000000042505
  0
LINE
  5
23D1
  8
SAPA_PROFIL
 10
70.338651560267408
 20
8.4999998573693745
 30
0.0
 11
63.000555349938161
 21
8.4999998573693745
 31
0.0
  0
ARC
  5
23D2
  8
SAPA_PROFIL
 10
63.000555349938161
 20
13.499999857369369
 30
0.0
 40
5.0
 50
180.0
 51
270.0
  0
LINE
  5
23D3
  8
SAPA_PROFIL
 10
58.000555349938161
 20
13.499999857369369
 30
0.0
 11
58.000555349949082
 21
16.256130816269401
 31
0.0
  0
ARC
  5
23D4
  8
SAPA_PROFIL
 10
58.300555349970182
 20
16.256130816269501
 30
0.0
 40
0.3000000000211074
 50
125.62006975991559
 51
180.00000000001901
  0
ARC
  5
23D5
  8
SAPA_PROFIL
 10
57.95111069992722
 20
16.74386889819397
 30
0.0
 40
0.2999999999814031
 50
305.62006975131902
 51
359.99999999492331
  0
LINE
  5
23D6
  8
SAPA_PROFIL
 10
58.251110699908622
 20
16.743868898167388
 30
0.0
 11
58.251110699908622
 21
17.699999857217311
 31
0.0
  0
ARC
  5
23D7
  8
SAPA_PROFIL
 10
57.951110699909748
 20
17.699999857216831
 30
0.0
 40
0.2999999999988745
 50
0.0000000000909215
 51
70.533640999696289
  0
LINE
  5
23D8
  8
SAPA_PROFIL
 10
58.051086699914322
 20
17.982851053824529
 30
0.0
 11
58.051086699914322
 21
20.285810294852102
 31
0.0
  0
ARC
  5
23D9
  8
SAPA_PROFIL
 10
59.051086699914038
 20
20.285810294851188
 30
0.0
 40
0.9999999999997228
 50
44.99999999995206
 51
179.99999999994759
  0
LINE
  5
23DA
  8
SAPA_PROFIL
 10
59.758193481100989
 20
20.992917076036949
 30
0.0
 11
61.063242734270261
 21
19.68786782286767
 31
0.0
  0
ARC
  5
23DB
  8
SAPA_PROFIL
 10
60.851110699912091
 20
19.475735788511621
 30
0.0
 40
0.3000000000016247
 50
359.9999999996981
 51
44.999999999714532
  0
LINE
  5
23DC
  8
SAPA_PROFIL
 10
61.151110699913708
 20
19.475735788510029
 30
0.0
 11
61.151110699913708
 21
18.889230341763291
 31
0.0
  0
ARC
  5
23DD
  8
SAPA_PROFIL
 10
60.851110699910834
 20
18.88923034176311
 30
0.0
 40
0.300000000002882
 50
330.00000000003678
 51
0.0000000000346044
  0
LINE
  5
23DE
  8
SAPA_PROFIL
 10
61.11091832104875
 20
18.739230341761839
 30
0.0
 11
60.25111069991226
 21
17.249999857223852
 31
0.0
  0
LINE
  5
23DF
  8
SAPA_PROFIL
 10
60.25111069991226
 20
17.249999857223852
 30
0.0
 11
60.251098699913648
 21
16.799999857223131
 31
0.0
  0
ARC
  5
23E0
  8
SAPA_PROFIL
 10
60.55109869991292
 20
16.799999857223121
 30
0.0
 40
0.2999999999992653
 50
179.99999999999929
 51
270.00000000000131
  0
LINE
  5
23E1
  8
SAPA_PROFIL
 10
60.551098699912927
 20
16.499999857223852
 30
0.0
 11
64.151110699913716
 21
16.499999857220221
 31
0.0
  0
ARC
  5
23E2
  8
SAPA_PROFIL
 10
64.151110699913716
 20
16.79999985721949
 30
0.0
 40
0.2999999999992724
 50
270.0
 51
0.0
  0
LINE
  5
23E3
  8
SAPA_PROFIL
 10
64.451110699912974
 20
16.79999985721949
 30
0.0
 11
64.451110699912974
 21
17.24999985722021
 31
0.0
  0
LINE
  5
23E4
  8
SAPA_PROFIL
 10
64.451110699912974
 20
17.24999985722021
 30
0.0
 11
63.5912859623445
 21
18.739259988295061
 31
0.0
  0
ARC
  5
23E5
  8
SAPA_PROFIL
 10
63.851093583480861
 20
18.889259988296221
 30
0.0
 40
0.3000000000014712
 50
180.0036468675346
 51
210.00000000009371
  0
LINE
  5
23E6
  8
SAPA_PROFIL
 10
63.551093584087077
 20
18.889240893342471
 30
0.0
 11
63.551091212279509
 21
18.99999985722749
 31
0.0
  0
LINE
  5
23E7
  8
SAPA_PROFIL
 10
63.551091212279509
 20
18.99999985722749
 30
0.0
 11
68.450018925001586
 21
18.999999857212941
 31
0.0
  0
LINE
  5
23E8
  8
SAPA_PROFIL
 10
68.450018925001586
 20
18.999999857212941
 30
0.0
 11
68.450017115854735
 21
18.88924089333883
 31
0.0
  0
ARC
  5
23E9
  8
SAPA_PROFIL
 10
68.150017116460958
 20
18.889259988292579
 30
0.0
 40
0.3000000000014718
 50
329.99999999990632
 51
359.9963531324654
  0
LINE
  5
23EA
  8
SAPA_PROFIL
 10
68.409824737597319
 20
18.739259988291419
 30
0.0
 11
67.550000000028831
 21
17.249999857216579
 31
0.0
  0
LINE
  5
23EB
  8
SAPA_PROFIL
 10
67.550000000028831
 20
17.249999857216579
 30
0.0
 11
67.550000000028831
 21
16.799999857215852
 31
0.0
  0
ARC
  5
23EC
  8
SAPA_PROFIL
 10
67.850000000028103
 20
16.799999857215852
 30
0.0
 40
0.2999999999992724
 50
180.0
 51
270.0
  0
LINE
  5
23ED
  8
SAPA_PROFIL
 10
67.850000000028103
 20
16.499999857216579
 30
0.0
 11
71.450012000028892
 21
16.499999857216579
 31
0.0
  0
ARC
  5
23EE
  8
SAPA_PROFIL
 10
71.450012000028892
 20
16.799999857215841
 30
0.0
 40
0.2999999999992688
 50
270.0
 51
0.0000000000006785
  0
LINE
  5
23EF
  8
SAPA_PROFIL
 10
71.750012000028164
 20
16.799999857215852
 30
0.0
 11
71.750000000029559
 21
17.249999857216579
 31
0.0
  0
LINE
  5
23F0
  8
SAPA_PROFIL
 10
71.750000000029559
 20
17.249999857216579
 30
0.0
 11
70.890192378894881
 21
18.739230341758201
 31
0.0
  0
ARC
  5
23F1
  8
SAPA_PROFIL
 10
71.150000000026012
 20
18.889230341757649
 30
0.0
 40
0.2999999999960896
 50
180.0000000003127
 51
210.00000000031099
  0
LINE
  5
23F2
  8
SAPA_PROFIL
 10
70.850000000029922
 20
18.889230341756019
 30
0.0
 11
70.850000000029922
 21
19.47573578850276
 31
0.0
  0
ARC
  5
23F3
  8
SAPA_PROFIL
 10
71.15000000003154
 20
19.475735788504341
 30
0.0
 40
0.3000000000016172
 50
135.0000000002845
 51
180.0000000003019
  0
LINE
  5
23F4
  8
SAPA_PROFIL
 10
70.937867965673377
 20
19.687867822860401
 30
0.0
 11
72.242917218842649
 21
20.99291707602967
 31
0.0
  0
ARC
  5
23F5
  8
SAPA_PROFIL
 10
72.950024000028833
 20
20.28581029484209
 30
0.0
 40
1.0000000000004721
 50
359.9999999999481
 51
134.99999999994341
  0
LINE
  5
23F6
  8
SAPA_PROFIL
 10
73.950024000029316
 20
20.285810294841191
 30
0.0
 11
73.950024000029316
 21
17.982851053831808
 31
0.0
  0
ARC
  5
23F7
  8
SAPA_PROFIL
 10
74.050000000030764
 20
17.6999998572186
 30
0.0
 40
0.3000000000030255
 50
109.46635899939
 51
180.00000000024619
  0
LINE
  5
23F8
  8
SAPA_PROFIL
 10
73.75000000002774
 20
17.699999857217311
 30
0.0
 11
73.750000000029544
 21
16.743868898167388
 31
0.0
  0
ARC
  5
23F9
  8
SAPA_PROFIL
 10
74.050000000025136
 20
16.74386889817524
 30
0.0
 40
0.2999999999955776
 50
180.0000000014995
 51
234.3799302447257
  0
ARC
  5
23FA
  8
SAPA_PROFIL
 10
73.700555349988292
 20
16.256130816224829
 30
0.0
 40
0.3000000000244556
 50
0.0000000078178882
 51
54.379930247876068
  0
LINE
  5
23FB
  8
SAPA_PROFIL
 10
74.000555350012746
 20
16.25613081626577
 30
0.0
 11
74.000555349967271
 21
15.499999857543999
 31
0.0
  0
ARC
  5
23FC
  8
SAPA_PROFIL
 10
73.000555349963633
 20
15.49999985754763
 30
0.0
 40
1.0000000000036371
 50
270.00000000020839
 51
359.9999999997915
  0
LINE
  5
23FD
  8
SAPA_PROFIL
 10
73.000555349967271
 20
14.499999857543999
 30
0.0
 11
70.500555349810824
 21
14.499999857369369
 31
0.0
  0
ARC
  5
23FE
  8
SAPA_PROFIL
 10
70.500555349959996
 20
12.499999857369369
 30
0.0
 40
2.0
 50
90.000000004273033
 51
270.0
  0
LINE
  5
23FF
  8
SAPA_PROFIL
 10
70.500555349959996
 20
10.499999857369369
 30
0.0
 11
78.500555349959996
 21
10.499999857369369
 31
0.0
  0
ARC
  5
2400
  8
SAPA_PROFIL
 10
78.500555349963633
 20
12.49999985736574
 30
0.0
 40
1.999999999996362
 50
269.99999999989581
 51
0.0000000003126612
  0
LINE
  5
2401
  8
SAPA_PROFIL
 10
80.500555349959996
 20
12.49999985737665
 30
0.0
 11
80.500555349938153
 21
14.199999857551999
 31
0.0
  0
ARC
  5
2402
  8
SAPA_PROFIL
 10
80.200555349939634
 20
14.19999985754545
 30
0.0
 40
0.2999999999985476
 50
0.00000000125017
 51
90.000000001875421
  0
LINE
  5
2403
  8
SAPA_PROFIL
 10
80.2005553499298
 20
14.499999857543999
 30
0.0
 11
79.300555349939245
 21
14.49999985755491
 31
0.0
  0
ARC
  5
2404
  8
SAPA_PROFIL
 10
79.300555349933802
 20
14.799999857559641
 30
0.0
 40
0.3000000000047294
 50
180.0000000010422
 51
270.00000000104222
  0
LINE
  5
2405
  8
SAPA_PROFIL
 10
79.000555349929073
 20
14.79999985755418
 30
0.0
 11
79.000555349929073
 21
15.199999857555641
 31
0.0
  0
ARC
  5
2406
  8
SAPA_PROFIL
 10
79.300555349939245
 20
15.19999985755563
 30
0.0
 40
0.3000000000101863
 50
90.0
 51
179.9999999999996
  0
ARC
  5
2407
  8
SAPA_PROFIL
 62
     4
 10
60.109602782563798
 20
19.586577340564791
 30
-0.2
 40
1.3416252492690111
 50
331.97558124347307
 51
359.20443003929381
  0
LINE
  5
2408
  8
SAPA_PROFIL
 62
     4
 10
61.293919022938553
 20
18.956217639869429
 30
-0.2
 11
60.301098699909289
 21
17.236602397595082
 31
-0.2
  0
LINE
  5
2409
  8
SAPA_PROFIL
 62
     4
 10
60.301098699909289
 20
17.236602397595082
 30
-0.2
 11
60.301098699909289
 21
16.799999857216761
 31
-0.2
  0
ARC
  5
240A
  8
SAPA_PROFIL
 62
     4
 10
60.551098699909282
 20
16.799999857216761
 30
-0.2
 40
0.25
 50
180.0
 51
270.0
  0
LINE
  5
240B
  8
SAPA_PROFIL
 62
     4
 10
60.551098699909282
 20
16.549999857216761
 30
-0.2
 11
64.151110699909168
 21
16.549999857216761
 31
-0.2
  0
ARC
  5
240C
  8
SAPA_PROFIL
 62
     4
 10
64.151110699909168
 20
16.799999857216761
 30
-0.2
 40
0.2499999999999964
 50
270.0
 51
0.0000000000008142
  0
LINE
  5
240D
  8
SAPA_PROFIL
 62
     4
 10
64.401110699909154
 20
16.799999857216761
 30
-0.2
 11
64.401099057173724
 21
17.23660177879535
 31
-0.2
  0
LINE
  5
240E
  8
SAPA_PROFIL
 62
     4
 10
64.401099057173724
 20
17.23660177879535
 30
-0.2
 11
63.408278376884027
 21
18.956217639862611
 31
-0.2
  0
ARC
  5
240F
  8
SAPA_PROFIL
 62
     4
 10
64.52850348137757
 20
19.570190390023232
 30
-0.2
 40
1.2774454284537411
 50
180.457069007115
 51
208.72625738196919
  0
LINE
  5
2410
  8
SAPA_PROFIL
 62
     4
 10
63.2510986999091
 20
19.55999985721698
 30
-0.2
 11
63.2510986999091
 21
53.439999857216627
 31
-0.2
  0
ARC
  5
2411
  8
SAPA_PROFIL
 62
     4
 10
64.528503481377555
 20
53.429809324410378
 30
-0.2
 40
1.2774454284537271
 50
151.27374261803041
 51
179.542930992885
  0
LINE
  5
2412
  8
SAPA_PROFIL
 62
     4
 10
63.408278376884027
 20
54.043782074570991
 30
-0.2
 11
64.401099057173724
 21
55.763397935638267
 31
-0.2
  0
LINE
  5
2413
  8
SAPA_PROFIL
 62
     4
 10
64.401099057173724
 20
55.763397935638267
 30
-0.2
 11
64.401110699909154
 21
56.199999857216852
 31
-0.2
  0
ARC
  5
2414
  8
SAPA_PROFIL
 62
     4
 10
64.151110699909168
 20
56.199999857216859
 30
-0.2
 40
0.25
 50
359.99999999999841
 51
90.0
  0
LINE
  5
2415
  8
SAPA_PROFIL
 62
     4
 10
64.151110699909168
 20
56.449999857216852
 30
-0.2
 11
60.551098699909282
 21
56.449999857216852
 31
-0.2
  0
ARC
  5
2416
  8
SAPA_PROFIL
 62
     4
 10
60.551098699909282
 20
56.199999857216852
 30
-0.2
 40
0.25
 50
90.0
 51
180.0
  0
LINE
  5
2417
  8
SAPA_PROFIL
 62
     4
 10
60.301098699909289
 20
56.199999857216852
 30
-0.2
 11
60.301098699909289
 21
55.763397316838528
 31
-0.2
  0
LINE
  5
2418
  8
SAPA_PROFIL
 62
     4
 10
60.301098699909289
 20
55.763397316838528
 30
-0.2
 11
61.293919022938553
 21
54.04378207456417
 31
-0.2
  0
ARC
  5
2419
  8
SAPA_PROFIL
 62
     4
 10
60.10960278256286
 20
53.413422373868592
 30
-0.2
 40
1.3416252492699461
 50
0.7955699606958867
 51
28.024418756516631
  0
LINE
  5
241A
  8
SAPA_PROFIL
 62
     4
 10
61.451098699908933
 20
53.432050664785457
 30
-0.2
 11
61.451098699908933
 21
19.567949049647691
 31
-0.2
  0
ARC
  5
241B
  8
SAPA_PROFIL
 62
     4
 10
67.408504082683521
 20
19.586577340564791
 30
-0.2
 40
1.3416252492690111
 50
331.97558124347307
 51
359.20443003929381
  0
LINE
  5
241C
  8
SAPA_PROFIL
 62
     4
 10
68.592820323058277
 20
18.956217639869429
 30
-0.2
 11
67.600000000029013
 21
17.236602397595082
 31
-0.2
  0
LINE
  5
241D
  8
SAPA_PROFIL
 62
     4
 10
67.600000000029013
 20
17.236602397595082
 30
-0.2
 11
67.600000000029013
 21
16.799999857216761
 31
-0.2
  0
ARC
  5
241E
  8
SAPA_PROFIL
 62
     4
 10
67.850000000029013
 20
16.799999857216761
 30
-0.2
 40
0.25
 50
180.0
 51
270.0
  0
LINE
  5
241F
  8
SAPA_PROFIL
 62
     4
 10
67.850000000029013
 20
16.549999857216761
 30
-0.2
 11
71.450012000028892
 21
16.549999857216761
 31
-0.2
  0
ARC
  5
2420
  8
SAPA_PROFIL
 62
     4
 10
71.450012000028892
 20
16.799999857216761
 30
-0.2
 40
0.2499999999999964
 50
270.0
 51
0.0000000000008142
  0
LINE
  5
2421
  8
SAPA_PROFIL
 62
     4
 10
71.700012000028892
 20
16.799999857216761
 30
-0.2
 11
71.700000357293433
 21
17.23660177879535
 31
-0.2
  0
LINE
  5
2422
  8
SAPA_PROFIL
 62
     4
 10
71.700000357293433
 20
17.23660177879535
 30
-0.2
 11
70.707179677003751
 21
18.956217639862611
 31
-0.2
  0
ARC
  5
2423
  8
SAPA_PROFIL
 62
     4
 10
71.827404781497293
 20
19.570190390023232
 30
-0.2
 40
1.2774454284537411
 50
180.457069007115
 51
208.72625738196919
  0
LINE
  5
2424
  8
SAPA_PROFIL
 62
     4
 10
70.550000000028831
 20
19.55999985721698
 30
-0.2
 11
70.550000000028831
 21
53.439999857216627
 31
-0.2
  0
ARC
  5
2425
  8
SAPA_PROFIL
 62
     4
 10
71.827404781497279
 20
53.429809324410378
 30
-0.2
 40
1.2774454284537271
 50
151.27374261803041
 51
179.542930992885
  0
LINE
  5
2426
  8
SAPA_PROFIL
 62
     4
 10
70.707179677003751
 20
54.043782074570991
 30
-0.2
 11
71.700000357293433
 21
55.763397935638267
 31
-0.2
  0
LINE
  5
2427
  8
SAPA_PROFIL
 62
     4
 10
71.700000357293433
 20
55.763397935638267
 30
-0.2
 11
71.700012000028892
 21
56.199999857216852
 31
-0.2
  0
ARC
  5
2428
  8
SAPA_PROFIL
 62
     4
 10
71.450012000028892
 20
56.199999857216859
 30
-0.2
 40
0.25
 50
359.99999999999841
 51
90.0
  0
LINE
  5
2429
  8
SAPA_PROFIL
 62
     4
 10
71.450012000028892
 20
56.449999857216852
 30
-0.2
 11
67.850000000029013
 21
56.449999857216852
 31
-0.2
  0
ARC
  5
242A
  8
SAPA_PROFIL
 62
     4
 10
67.850000000029013
 20
56.199999857216852
 30
-0.2
 40
0.25
 50
90.0
 51
180.0
  0
LINE
  5
242B
  8
SAPA_PROFIL
 62
     4
 10
67.600000000029013
 20
56.199999857216852
 30
-0.2
 11
67.600000000029013
 21
55.763397316838528
 31
-0.2
  0
LINE
  5
242C
  8
SAPA_PROFIL
 62
     4
 10
67.600000000029013
 20
55.763397316838528
 30
-0.2
 11
68.592820323058277
 21
54.04378207456417
 31
-0.2
  0
ARC
  5
242D
  8
SAPA_PROFIL
 62
     4
 10
67.408504082682583
 20
53.413422373868592
 30
-0.2
 40
1.3416252492699461
 50
0.7955699606958867
 51
28.024418756516631
  0
LINE
  5
242E
  8
SAPA_PROFIL
 62
     4
 10
68.750000000028649
 20
53.432050664785457
 30
-0.2
 11
68.750000000028649
 21
19.567949049647691
 31
-0.2
  0
LINE
  5
242F
  8
SAPA_PROFIL
 10
98.00055534996909
 20
93.999999856889616
 30
0.0
 11
98.00055534996909
 21
93.211460882278047
 31
0.0
  0
ARC
  5
2430
  8
SAPA_PROFIL
 10
108.0005553499974
 20
93.211460882187211
 30
0.0
 40
10.00000000002832
 50
179.9999999994796
 51
193.21020964705349
  0
ARC
  5
2431
  8
SAPA_PROFIL
 10
49.588263522549312
 20
79.499999856553984
 30
0.0
 40
49.999999999908503
 50
347.57420808933438
 51
13.2102096480073
  0
ARC
  5
2432
  8
SAPA_PROFIL
 10
95.487312749257967
 20
69.386776826127857
 30
0.0
 40
3.0000000001322711
 50
267.6356595500414
 51
347.57420808929322
  0
ARC
  5
2433
  8
SAPA_PROFIL
 10
90.000555349921314
 20
-63.500000142311222
 30
0.0
 40
129.99999999918671
 50
87.635659549935056
 51
95.889241748406974
  0
ARC
  5
2434
  8
SAPA_PROFIL
 10
77.687863826039219
 20
55.866651931245237
 30
0.0
 40
9.9999999999710454
 50
95.889241748561986
 51
106.7091075326227
  0
ARC
  5
2435
  8
SAPA_PROFIL
 10
82.000555349985589
 20
41.499999857089442
 30
0.0
 40
24.99999999998985
 50
106.70910753257751
 51
109.4629509463298
  0
ARC
  5
2436
  8
SAPA_PROFIL
 10
70.338651560264225
 20
74.49999985706927
 30
0.0
 40
10.000000000001391
 50
270.00000000002871
 51
289.46295094648372
  0
LINE
  5
2437
  8
SAPA_PROFIL
 10
70.338651560269227
 20
64.499999857067877
 30
0.0
 11
63.00055534993998
 21
64.499999857067877
 31
0.0
  0
ARC
  5
2438
  8
SAPA_PROFIL
 10
63.00055534993998
 20
59.499999857067877
 30
0.0
 40
5.0
 50
90.0
 51
180.0
  0
LINE
  5
2439
  8
SAPA_PROFIL
 10
58.00055534993998
 20
59.499999857067877
 30
0.0
 11
58.000555349950901
 21
56.74386889816784
 31
0.0
  0
ARC
  5
243A
  8
SAPA_PROFIL
 10
58.300555349970189
 20
56.743868898164209
 30
0.0
 40
0.3000000000192955
 50
179.9999999993052
 51
234.37993023940729
  0
ARC
  5
243B
  8
SAPA_PROFIL
 10
57.951110699921763
 20
56.25613081623694
 30
0.0
 40
0.2999999999886798
 50
0.0000000055937051
 51
54.379930248821907
  0
LINE
  5
243C
  8
SAPA_PROFIL
 10
58.251110699910441
 20
56.256130816266221
 30
0.0
 11
58.251110699910441
 21
55.299999857216299
 31
0.0
  0
ARC
  5
243D
  8
SAPA_PROFIL
 10
57.951110699909599
 20
55.299999857217109
 30
0.0
 40
0.3000000000008356
 50
289.46635899909433
 51
359.99999999984669
  0
LINE
  5
243E
  8
SAPA_PROFIL
 10
58.051086699908858
 20
55.017148660605443
 30
0.0
 11
58.051086699908858
 21
52.714189419592429
 31
0.0
  0
ARC
  5
243F
  8
SAPA_PROFIL
 10
59.051086699909341
 20
52.71418941959152
 30
0.0
 40
1.0000000000004761
 50
179.9999999999479
 51
314.9999999999439
  0
LINE
  5
2440
  8
SAPA_PROFIL
 10
59.758193481095532
 20
52.007082638403944
 30
0.0
 11
61.063242734264797
 21
53.312131891573209
 31
0.0
  0
ARC
  5
2441
  8
SAPA_PROFIL
 10
60.851110699906627
 20
53.524263925929269
 30
0.0
 40
0.3000000000016223
 50
315.00000000028592
 51
0.0000000003026192
  0
LINE
  5
2442
  8
SAPA_PROFIL
 10
61.151110699908259
 20
53.524263925930853
 30
0.0
 11
61.151110699908259
 21
54.110769372677588
 31
0.0
  0
ARC
  5
2443
  8
SAPA_PROFIL
 10
60.851110699912162
 20
54.110769372675954
 30
0.0
 40
0.2999999999960963
 50
0.0000000003134755
 51
30.000000000310909
  0
LINE
  5
2444
  8
SAPA_PROFIL
 10
61.1109183210433
 20
54.260769372675412
 30
0.0
 11
60.251110699908622
 21
55.749999857217027
 31
0.0
  0
LINE
  5
2445
  8
SAPA_PROFIL
 10
60.251110699908622
 20
55.749999857217027
 30
0.0
 11
60.251098699910017
 21
56.199999857217762
 31
0.0
  0
ARC
  5
2446
  8
SAPA_PROFIL
 10
60.551098699909282
 20
56.199999857217769
 30
0.0
 40
0.2999999999992653
 50
89.999999999998636
 51
180.00000000000131
  0
LINE
  5
2447
  8
SAPA_PROFIL
 10
60.551098699909282
 20
56.499999857217027
 30
0.0
 11
64.151110699910078
 21
56.499999857217027
 31
0.0
  0
ARC
  5
2448
  8
SAPA_PROFIL
 10
64.151110699910078
 20
56.199999857217762
 30
0.0
 40
0.2999999999992724
 50
0.0
 51
90.0
  0
LINE
  5
2449
  8
SAPA_PROFIL
 10
64.45111069990935
 20
56.199999857217762
 30
0.0
 11
64.45111069990935
 21
55.749999857217027
 31
0.0
  0
LINE
  5
244A
  8
SAPA_PROFIL
 10
64.45111069990935
 20
55.749999857217027
 30
0.0
 11
63.591285962340862
 21
54.260739726142191
 31
0.0
  0
ARC
  5
244B
  8
SAPA_PROFIL
 10
63.851093583477223
 20
54.110739726141027
 30
0.0
 40
0.3000000000014729
 50
149.9999999999057
 51
179.99635313246469
  0
LINE
  5
244C
  8
SAPA_PROFIL
 10
63.551093584083453
 20
54.110758821094777
 30
0.0
 11
63.551086699908872
 21
53.999999857209758
 31
0.0
  0
LINE
  5
244D
  8
SAPA_PROFIL
 10
63.551086699908872
 20
53.999999857209758
 30
0.0
 11
66.00055534996909
 21
53.999999857217027
 31
0.0
  0
LINE
  5
244E
  8
SAPA_PROFIL
 10
66.00055534996909
 20
53.999999857217027
 30
0.0
 11
68.450024000029316
 21
54.00260185721752
 31
0.0
  0
LINE
  5
244F
  8
SAPA_PROFIL
 10
68.450024000029316
 20
54.00260185721752
 30
0.0
 11
68.450017115854735
 21
54.110758821094777
 31
0.0
  0
ARC
  5
2450
  8
SAPA_PROFIL
 10
68.150017116460958
 20
54.110739726141027
 30
0.0
 40
0.3000000000014718
 50
0.0036468675353038
 51
30.00000000009425
  0
LINE
  5
2451
  8
SAPA_PROFIL
 10
68.409824737597319
 20
54.260739726142191
 30
0.0
 11
67.550000000028831
 21
55.749999857217027
 31
0.0
  0
LINE
  5
2452
  8
SAPA_PROFIL
 10
67.550000000028831
 20
55.749999857217027
 30
0.0
 11
67.550000000028831
 21
56.199999857217762
 31
0.0
  0
ARC
  5
2453
  8
SAPA_PROFIL
 10
67.850000000028103
 20
56.199999857217762
 30
0.0
 40
0.2999999999992724
 50
90.0
 51
180.0
  0
LINE
  5
2454
  8
SAPA_PROFIL
 10
67.850000000028103
 20
56.499999857217027
 30
0.0
 11
71.450012000028892
 21
56.499999857217027
 31
0.0
  0
ARC
  5
2455
  8
SAPA_PROFIL
 10
71.450012000028892
 20
56.199999857217769
 30
0.0
 40
0.2999999999992653
 50
359.99999999999858
 51
90.0
  0
LINE
  5
2456
  8
SAPA_PROFIL
 10
71.750012000028164
 20
56.199999857217762
 30
0.0
 11
71.750000000029559
 21
55.749999857217027
 31
0.0
  0
LINE
  5
2457
  8
SAPA_PROFIL
 10
71.750000000029559
 20
55.749999857217027
 30
0.0
 11
70.890192378894881
 21
54.260769372675412
 31
0.0
  0
ARC
  5
2458
  8
SAPA_PROFIL
 10
71.150000000026012
 20
54.110769372675954
 30
0.0
 40
0.2999999999960913
 50
149.99999999968841
 51
179.99999999968651
  0
LINE
  5
2459
  8
SAPA_PROFIL
 10
70.850000000029922
 20
54.110769372677588
 30
0.0
 11
70.850000000029922
 21
53.524263925930853
 31
0.0
  0
ARC
  5
245A
  8
SAPA_PROFIL
 10
71.15000000003154
 20
53.524263925929269
 30
0.0
 40
0.3000000000016172
 50
179.99999999969739
 51
224.99999999971499
  0
LINE
  5
245B
  8
SAPA_PROFIL
 10
70.937867965673377
 20
53.312131891573209
 30
0.0
 11
72.242917218842649
 21
52.007082638403944
 31
0.0
  0
ARC
  5
245C
  8
SAPA_PROFIL
 10
72.950024000028833
 20
52.71418941959152
 30
0.0
 40
1.0000000000004701
 50
225.00000000005639
 51
0.0000000000521102
  0
LINE
  5
245D
  8
SAPA_PROFIL
 10
73.950024000029316
 20
52.714189419592429
 30
0.0
 11
73.950024000029316
 21
55.017148660605443
 31
0.0
  0
ARC
  5
245E
  8
SAPA_PROFIL
 10
74.050000000029755
 20
55.299999857216008
 30
0.0
 40
0.3000000000001938
 50
179.99999999994299
 51
250.53364100062319
  0
LINE
  5
245F
  8
SAPA_PROFIL
 10
73.750000000029544
 20
55.299999857216299
 30
0.0
 11
73.750000000029544
 21
56.256130816266221
 31
0.0
  0
ARC
  5
2460
  8
SAPA_PROFIL
 10
74.050000000024113
 20
56.256130816257588
 30
0.0
 40
0.2999999999945544
 50
125.6200697547461
 51
179.9999999983512
  0
ARC
  5
2461
  8
SAPA_PROFIL
 10
73.700555349990111
 20
56.743868898208781
 30
0.0
 40
0.3000000000244556
 50
305.62006975212392
 51
359.9999999921821
  0
LINE
  5
2462
  8
SAPA_PROFIL
 10
74.000555350014565
 20
56.74386889816784
 30
0.0
 11
74.00055534996909
 21
57.499999856889623
 31
0.0
  0
ARC
  5
2463
  8
SAPA_PROFIL
 10
73.00055534996909
 20
57.499999856889623
 30
0.0
 40
1.0
 50
0.0
 51
89.999999995935383
  0
LINE
  5
2464
  8
SAPA_PROFIL
 10
73.000555350040031
 20
58.499999856889609
 30
0.0
 11
70.500555349810824
 21
58.49999985706787
 31
0.0
  0
ARC
  5
2465
  8
SAPA_PROFIL
 10
70.500555349959996
 20
60.49999985706787
 30
0.0
 40
2.0
 50
90.0
 51
269.99999999572702
  0
LINE
  5
2466
  8
SAPA_PROFIL
 10
70.500555349959996
 20
62.499999857067877
 30
0.0
 11
78.500555349959996
 21
62.499999857067877
 31
0.0
  0
ARC
  5
2467
  8
SAPA_PROFIL
 10
78.500555349961814
 20
60.499999857069689
 30
0.0
 40
1.999999999998181
 50
359.99999999963518
 51
90.000000000052125
  0
LINE
  5
2468
  8
SAPA_PROFIL
 10
80.500555349959996
 20
60.499999857056963
 30
0.0
 11
80.500555349941806
 21
58.799999856877967
 31
0.0
  0
ARC
  5
2469
  8
SAPA_PROFIL
 10
80.200555349940814
 20
58.799999856890608
 30
0.0
 40
0.3000000000009919
 50
269.99999999789662
 51
359.9999999975858
  0
LINE
  5
246A
  8
SAPA_PROFIL
 10
80.2005553499298
 20
58.499999856889609
 30
0.0
 11
79.300555349939245
 21
58.49999985688234
 31
0.0
  0
ARC
  5
246B
  8
SAPA_PROFIL
 10
79.300555349935621
 20
58.199999856875792
 30
0.0
 40
0.3000000000065484
 50
89.999999999305217
 51
179.9999999993052
  0
LINE
  5
246C
  8
SAPA_PROFIL
 10
79.000555349929073
 20
58.199999856879423
 30
0.0
 11
79.000555349929073
 21
57.799999856877982
 31
0.0
  0
ARC
  5
246D
  8
SAPA_PROFIL
 10
79.300555349939245
 20
57.799999856877982
 30
0.0
 40
0.3000000000101863
 50
180.0
 51
270.0
  0
LINE
  5
246E
  8
SAPA_PROFIL
 10
79.300555349939245
 20
57.499999856867788
 30
0.0
 11
81.700555349949809
 21
57.499999856885978
 31
0.0
  0
ARC
  5
246F
  8
SAPA_PROFIL
 10
81.7005553499489
 20
57.799999856887979
 30
0.0
 40
0.3000000000020009
 50
270.00000000017371
 51
359.99999999808932
  0
LINE
  5
2470
  8
SAPA_PROFIL
 10
82.000555349950901
 20
57.799999856877982
 30
0.0
 11
82.000555349950901
 21
61.999999856889609
 31
0.0
  0
ARC
  5
2471
  8
SAPA_PROFIL
 10
85.000555349949991
 20
61.999999856879612
 30
0.0
 40
2.9999999999990901
 50
89.999999999808935
 51
179.99999999980889
  0
LINE
  5
2472
  8
SAPA_PROFIL
 10
85.000555349959996
 20
64.999999856878702
 30
0.0
 11
90.000555349950886
 21
64.999999856878702
 31
0.0
  0
ARC
  5
2473
  8
SAPA_PROFIL
 10
90.000555349956755
 20
-65.000000143168421
 30
0.0
 40
130.00000000004709
 50
83.600797014544881
 51
90.000000000002586
  0
ARC
  5
2474
  8
SAPA_PROFIL
 10
104.40055534921321
 20
63.395015335837002
 30
0.0
 40
0.8000000006948486
 50
3.151970527846792
 51
83.600796966638725
  0
ARC
  5
2475
  8
SAPA_PROFIL
 10
105.3990425569004
 20
63.449999856154633
 30
0.0
 40
0.1999999999998857
 50
183.15197057484991
 51
269.99999999975978
  0
LINE
  5
2476
  8
SAPA_PROFIL
 10
105.3990425568995
 20
63.249999856154737
 30
0.0
 11
106.3005553499593
 21
63.249999856154737
 31
0.0
  0
ARC
  5
2477
  8
SAPA_PROFIL
 10
106.30055534995741
 20
63.449999856153639
 30
0.0
 40
0.1999999999989015
 50
270.00000000052108
 51
0.0000000036497501
  0
LINE
  5
2478
  8
SAPA_PROFIL
 10
106.5005553499563
 20
63.449999856166379
 30
0.0
 11
106.5005553499691
 21
63.676058924637317
 31
0.0
  0
ARC
  5
2479
  8
SAPA_PROFIL
 10
104.5005553499672
 20
63.676058924617138
 30
0.0
 40
2.0000000000018749
 50
0.0000000005778941
 51
83.495499905940108
  0
ARC
  5
247A
  8
SAPA_PROFIL
 10
90.000555350865227
 20
-63.500000138718768
 30
0.0
 40
129.99999999552941
 50
83.495499906160944
 51
83.819658504809709
  0
ARC
  5
247B
  8
SAPA_PROFIL
 10
104.10378617358749
 20
66.738622701120278
 30
0.0
 40
1.0000000001072931
 50
195.09595033281249
 51
263.81965849987961
  0
ARC
  5
247C
  8
SAPA_PROFIL
 10
151.41284717752279
 20
79.499999856890284
 30
0.0
 40
49.999999999963229
 50
166.78979035242469
 51
195.09595034005551
  0
ARC
  5
247D
  8
SAPA_PROFIL
 10
93.000555349969403
 20
93.211460882188945
 30
0.0
 40
9.9999999999996874
 50
346.78979035279059
 51
359.99999999994759
  0
LINE
  5
247E
  8
SAPA_PROFIL
 10
103.0005553499691
 20
93.211460882179807
 30
0.0
 11
103.0005553499691
 21
93.999999856889616
 31
0.0
  0
ARC
  5
247F
  8
SAPA_PROFIL
 10
102.0005553499691
 20
93.999999856889616
 30
0.0
 40
1.0
 50
0.0
 51
90.0
  0
LINE
  5
2480
  8
SAPA_PROFIL
 10
102.0005553499691
 20
94.999999856889616
 30
0.0
 11
99.00055534996909
 21
94.999999856889616
 31
0.0
  0
ARC
  5
2481
  8
SAPA_PROFIL
 10
99.00055534996909
 20
93.999999856889616
 30
0.0
 40
1.0
 50
90.0
 51
180.0
  0
LINE
  5
2482
  8
SAPA_FOGBAND
 10
53.575887756309839
 20
62.403595911756362
 30
0.0
 11
54.792381493686207
 21
62.744391271731239
 31
0.0
  0
ARC
  5
2483
  8
SAPA_FOGBAND
 10
55.197021383766561
 20
61.29999985686009
 30
0.0
 40
1.4999999999992391
 50
57.264561311857271
 51
105.6499815965995
  0
ARC
  5
2484
  8
SAPA_FOGBAND
 10
50.631635662214443
 20
57.465163055103538
 30
0.0
 40
7.4082647908884773
 50
353.43189468980597
 51
43.468965622016519
  0
ARC
  5
2485
  8
SAPA_FOGBAND
 10
57.700555349127981
 20
56.543741697473941
 30
0.0
 40
0.3000000008174772
 50
300.50000000002268
 51
14.286903372503261
  0
LINE
  5
2486
  8
SAPA_FOGBAND
 10
57.852816858431197
 20
56.285252948637179
 30
0.0
 11
57.065398538916732
 21
55.821428111688853
 31
0.0
  0
ARC
  5
2487
  8
SAPA_FOGBAND
 10
57.319167720396699
 20
55.390613531467757
 30
0.0
 40
0.500000000000083
 50
120.49999999994409
 51
169.99999999994191
  0
LINE
  5
2488
  8
SAPA_FOGBAND
 10
56.826763843890603
 20
55.477437620301743
 30
0.0
 11
58.000555349945451
 21
48.383341385680502
 31
0.0
  0
ARC
  5
2489
  8
SAPA_FOGBAND
 10
57.508151473439469
 20
48.470165474514033
 30
0.0
 40
0.4999999999998784
 50
288.49999999998892
 51
349.99999999998909
  0
LINE
  5
248A
  8
SAPA_FOGBAND
 10
57.66680380164189
 20
47.996003646911021
 30
0.0
 11
51.146711624829102
 21
46.797127832467112
 31
0.0
  0
ARC
  5
248B
  8
SAPA_FOGBAND
 10
51.400555349953187
 20
46.03846890830205
 30
0.0
 40
0.8000000000001024
 50
108.49999999999891
 51
179.99999999999901
  0
LINE
  5
248C
  8
SAPA_FOGBAND
 10
50.600555349953083
 20
46.038468908302058
 30
0.0
 11
50.600555349953083
 21
26.96153080541669
 31
0.0
  0
ARC
  5
248D
  8
SAPA_FOGBAND
 10
51.400555349953187
 20
26.9615308054167
 30
0.0
 40
0.8000000000001108
 50
180.00000000000131
 51
251.50000000000071
  0
LINE
  5
248E
  8
SAPA_FOGBAND
 10
51.146711624829102
 20
26.202871881251639
 30
0.0
 11
57.71845870639708
 21
25.00399606680773
 31
0.0
  0
ARC
  5
248F
  8
SAPA_FOGBAND
 10
57.559806378194679
 20
24.529834239204721
 30
0.0
 40
0.4999999999998699
 50
10.000000000010649
 51
71.500000000011767
  0
LINE
  5
2490
  8
SAPA_FOGBAND
 10
58.05221025470064
 20
24.616658328038259
 30
0.0
 11
56.826763843890603
 21
17.522562093417012
 31
0.0
  0
ARC
  5
2491
  8
SAPA_FOGBAND
 10
57.319167720396742
 20
17.609386182249771
 30
0.0
 40
0.4999999999999125
 50
189.9999999999205
 51
239.4999999999178
  0
LINE
  5
2492
  8
SAPA_FOGBAND
 10
57.065398538915808
 20
17.17857160202945
 30
0.0
 11
57.852816858431197
 21
16.714746765081109
 31
0.0
  0
ARC
  5
2493
  8
SAPA_FOGBAND
 10
57.700555349128308
 20
16.4562580162446
 30
0.0
 40
0.3000000008171052
 50
345.71309662752083
 51
59.50000000000766
  0
ARC
  5
2494
  8
SAPA_FOGBAND
 10
50.631635662214492
 20
15.53483665861518
 30
0.0
 40
7.4082647908884223
 50
316.53103437798319
 51
6.5681053101942144
  0
ARC
  5
2495
  8
SAPA_FOGBAND
 10
55.197021383766547
 20
11.699999856858669
 30
0.0
 40
1.499999999999261
 50
254.35001840340101
 51
302.73543868814249
  0
LINE
  5
2496
  8
SAPA_FOGBAND
 10
54.792381493686207
 20
10.2556084419875
 30
0.0
 11
53.575887756309839
 21
10.59640380196239
 31
0.0
  0
ARC
  5
2497
  8
SAPA_FOGBAND
 10
53.521935770966031
 20
10.40381827997952
 30
0.0
 40
0.19999999999989
 50
74.350018403468866
 51
197.35001840346931
  0
LINE
  5
2498
  8
SAPA_FOGBAND
 10
53.331035604631779
 20
10.34417662931898
 30
0.0
 11
54.182355682622529
 21
7.6192831581801954
 31
0.0
  0
ARC
  5
2499
  8
SAPA_FOGBAND
 10
53.800555349953541
 20
7.4999998568595752
 30
0.0
 40
0.4000000000001194
 50
211.3500184033864
 51
17.350018403385221
  0
LINE
  5
249A
  8
SAPA_FOGBAND
 10
53.458953361242948
 20
7.2918939191522147
 30
0.0
 11
50.22441732674406
 21
12.6013240782008
 31
0.0
  0
ARC
  5
249B
  8
SAPA_FOGBAND
 10
45.954392467863251
 20
9.9999998568593913
 30
0.0
 40
4.9999999999997584
 50
31.35001840339029
 51
89.999999999999758
  0
LINE
  5
249C
  8
SAPA_FOGBAND
 10
45.954392467863272
 20
14.99999985685915
 30
0.0
 11
41.57118366921577
 21
14.99999985685915
 31
0.0
  0
ARC
  5
249D
  8
SAPA_FOGBAND
 10
41.571183669215138
 20
9.9999998568588477
 30
0.0
 40
5.0000000000003002
 50
89.999999999992767
 51
143.00001840338339
  0
LINE
  5
249E
  8
SAPA_FOGBAND
 10
37.578005152464812
 20
13.00907369001194
 30
0.0
 11
33.199873201628641
 21
7.1990924735441411
 31
0.0
  0
ARC
  5
249F
  8
SAPA_FOGBAND
 10
32.800555349953342
 20
7.4999998568592261
 30
0.0
 40
0.5000000000001077
 50
146.50000000003379
 51
323.00001840342242
  0
LINE
  5
24A0
  8
SAPA_FOGBAND
 10
32.383612438919499
 20
7.7759683495150682
 30
0.0
 11
36.765756459306893
 21
14.396665759005799
 31
0.0
  0
ARC
  5
24A1
  8
SAPA_FOGBAND
 10
36.348813548273398
 20
14.67263425166183
 30
0.0
 40
0.4999999999999192
 50
326.49999999999392
 51
74.999999999992909
  0
LINE
  5
24A2
  8
SAPA_FOGBAND
 10
36.478223070824697
 20
15.15559716480626
 30
0.0
 11
32.671145827401688
 21
16.17570043770408
 31
0.0
  0
ARC
  5
24A3
  8
SAPA_FOGBAND
 10
32.80055534995293
 20
16.658663350848649
 30
0.0
 40
0.5000000000000285
 50
180.00000000000239
 51
255.0000000000031
  0
LINE
  5
24A4
  8
SAPA_FOGBAND
 10
32.300555349952901
 20
16.658663350848631
 30
0.0
 11
32.300555349952901
 21
21.92489608775438
 31
0.0
  0
ARC
  5
24A5
  8
SAPA_FOGBAND
 10
32.800555349952809
 20
21.924896087754231
 30
0.0
 40
0.4999999999999077
 50
109.99999999998219
 51
179.99999999998249
  0
LINE
  5
24A6
  8
SAPA_FOGBAND
 10
32.629545278290152
 20
22.394742398147152
 30
0.0
 11
36.671565421616378
 21
23.865917416622288
 31
0.0
  0
ARC
  5
24A7
  8
SAPA_FOGBAND
 10
36.500555349953402
 20
24.335763727015451
 30
0.0
 40
0.5000000000002333
 50
290.00000000000853
 51
0.0000000000085493
  0
LINE
  5
24A8
  8
SAPA_FOGBAND
 10
37.000555349953629
 20
24.335763727015522
 30
0.0
 11
37.000555349953629
 21
26.809359582565751
 31
0.0
  0
ARC
  5
24A9
  8
SAPA_FOGBAND
 10
37.500555349953572
 20
26.80935958256585
 30
0.0
 40
0.4999999999999432
 50
164.500000000011
 51
180.0000000000114
  0
LINE
  5
24AA
  8
SAPA_FOGBAND
 10
37.018740123349289
 20
26.942978770604871
 30
0.0
 11
37.289644485915687
 21
27.919828344035949
 31
0.0
  0
ARC
  5
24AB
  8
SAPA_FOGBAND
 10
37.000555349953402
 20
27.999999856859581
 30
0.0
 40
0.2999999999997502
 50
344.49999999995669
 51
89.999999999956557
  0
LINE
  5
24AC
  8
SAPA_FOGBAND
 10
37.000555349953629
 20
28.29999985685933
 30
0.0
 11
35.300555349953811
 21
28.29999985685933
 31
0.0
  0
ARC
  5
24AD
  8
SAPA_FOGBAND
 10
35.300555349953591
 20
28.09999985685883
 30
0.0
 40
0.2000000000005002
 50
89.999999999934857
 51
179.9999999999348
  0
LINE
  5
24AE
  8
SAPA_FOGBAND
 10
35.100555349953083
 20
28.099999856859061
 30
0.0
 11
35.100555349953083
 21
27.29999985685933
 31
0.0
  0
ARC
  5
24AF
  8
SAPA_FOGBAND
 10
34.900555349953031
 20
27.29999985685923
 30
0.0
 40
0.2000000000000526
 50
225.00000000002811
 51
0.00000000002748
  0
LINE
  5
24B0
  8
SAPA_FOGBAND
 10
34.75913399371575
 20
27.158578500621822
 30
0.0
 11
32.447001959359568
 21
29.470710534978
 31
0.0
  0
ARC
  5
24B1
  8
SAPA_FOGBAND
 10
32.800555349952937
 20
29.824263925571231
 30
0.0
 40
0.5000000000000368
 50
179.9999999999882
 51
224.9999999999888
  0
LINE
  5
24B2
  8
SAPA_FOGBAND
 10
32.300555349952901
 20
29.82426392557133
 30
0.0
 11
32.300555349952901
 21
43.175735788147421
 31
0.0
  0
ARC
  5
24B3
  8
SAPA_FOGBAND
 10
32.800555349952852
 20
43.175735788146191
 30
0.0
 40
0.4999999999999503
 50
134.99999999986011
 51
179.99999999985991
  0
LINE
  5
24B4
  8
SAPA_FOGBAND
 10
32.447001959360477
 20
43.529289178740299
 30
0.0
 11
34.75913399371575
 21
45.841421213096481
 31
0.0
  0
ARC
  5
24B5
  8
SAPA_FOGBAND
 10
34.900555349953123
 20
45.699999856859293
 30
0.0
 40
0.1999999999999594
 50
0.00000000003664
 51
135.0000000000374
  0
LINE
  5
24B6
  8
SAPA_FOGBAND
 10
35.100555349953083
 20
45.699999856859407
 30
0.0
 11
35.100555349953083
 21
44.899999856859687
 31
0.0
  0
ARC
  5
24B7
  8
SAPA_FOGBAND
 10
35.300555349953591
 20
44.899999856859921
 30
0.0
 40
0.2000000000005002
 50
180.00000000006511
 51
270.0000000000652
  0
LINE
  5
24B8
  8
SAPA_FOGBAND
 10
35.300555349953811
 20
44.699999856859421
 30
0.0
 11
37.000555349953629
 21
44.699999856859421
 31
0.0
  0
ARC
  5
24B9
  8
SAPA_FOGBAND
 10
37.000555349953402
 20
44.999999856859162
 30
0.0
 40
0.2999999999997485
 50
270.00000000004343
 51
15.50000000004397
  0
LINE
  5
24BA
  8
SAPA_FOGBAND
 10
37.289644485915687
 20
45.080171369682787
 30
0.0
 11
37.018740123349289
 21
46.057020943113884
 31
0.0
  0
ARC
  5
24BB
  8
SAPA_FOGBAND
 10
37.500555349953579
 20
46.190640131152897
 30
0.0
 40
0.4999999999999505
 50
179.9999999999886
 51
195.49999999998869
  0
LINE
  5
24BC
  8
SAPA_FOGBAND
 10
37.000555349953629
 20
46.190640131153003
 30
0.0
 11
37.000555349953629
 21
48.664235986703233
 31
0.0
  0
ARC
  5
24BD
  8
SAPA_FOGBAND
 10
36.500555349953721
 20
48.66423598670309
 30
0.0
 40
0.4999999999999077
 50
0.0000000000170987
 51
70.000000000017636
  0
LINE
  5
24BE
  8
SAPA_FOGBAND
 10
36.671565421616378
 20
49.134082297096001
 30
0.0
 11
32.629545278290152
 21
50.605257315571151
 31
0.0
  0
ARC
  5
24BF
  8
SAPA_FOGBAND
 10
32.800555349953591
 20
51.075103625963649
 30
0.0
 40
0.4999999999997846
 50
179.9999999999178
 51
249.99999999991729
  0
LINE
  5
24C0
  8
SAPA_FOGBAND
 10
32.300555349953811
 20
51.075103625964367
 30
0.0
 11
32.300555349952901
 21
56.341336362869669
 31
0.0
  0
ARC
  5
24C1
  8
SAPA_FOGBAND
 10
32.80055534995293
 20
56.34133636286964
 30
0.0
 40
0.5000000000000285
 50
104.9999999999969
 51
179.9999999999975
  0
LINE
  5
24C2
  8
SAPA_FOGBAND
 10
32.671145827401688
 20
56.824299276014223
 30
0.0
 11
36.478223070824697
 21
57.844402548912477
 31
0.0
  0
ARC
  5
24C3
  8
SAPA_FOGBAND
 10
36.348813548273398
 20
58.327365462056918
 30
0.0
 40
0.4999999999999197
 50
285.00000000000711
 51
33.500000000005898
  0
LINE
  5
24C4
  8
SAPA_FOGBAND
 10
36.765756459306893
 20
58.603333954712951
 30
0.0
 11
35.831126239617788
 21
60.015406183636031
 31
0.0
  0
ARC
  5
24C5
  8
SAPA_FOGBAND
 10
40.000555349954077
 20
62.775091110196463
 30
0.0
 40
5.0000000000004521
 50
179.99999999999841
 51
213.49999999999841
  0
LINE
  5
24C6
  8
SAPA_FOGBAND
 10
35.000555349953629
 20
62.775091110196598
 30
0.0
 11
35.000555349953629
 21
66.011641783385102
 31
0.0
  0
ARC
  5
24C7
  8
SAPA_FOGBAND
 10
35.500555349953473
 20
66.011641783385073
 30
0.0
 40
0.4999999999998366
 50
3.4999815966052572
 51
179.9999999999967
  0
LINE
  5
24C8
  8
SAPA_FOGBAND
 10
35.999622758968599
 20
66.042165892852125
 30
0.0
 11
36.204357870582037
 21
62.694758762188449
 31
0.0
  0
ARC
  5
24C9
  8
SAPA_FOGBAND
 10
41.19503196073488
 20
62.999999856858999
 30
0.0
 40
4.9999999999998508
 50
183.4999815966045
 51
269.99999999999528
  0
LINE
  5
24CA
  8
SAPA_FOGBAND
 10
41.195031960734468
 20
57.999999856859141
 30
0.0
 11
45.954392467863272
 21
57.999999856859141
 31
0.0
  0
ARC
  5
24CB
  8
SAPA_FOGBAND
 10
45.954392467862853
 20
62.999999856859127
 30
0.0
 40
4.9999999999999778
 50
270.00000000000477
 51
328.6499815966144
  0
LINE
  5
24CC
  8
SAPA_FOGBAND
 10
50.22441732674406
 20
60.398675635517939
 30
0.0
 11
53.458953361242948
 21
65.708105794566535
 31
0.0
  0
ARC
  5
24CD
  8
SAPA_FOGBAND
 10
53.800555349953548
 20
65.499999856859176
 30
0.0
 40
0.4000000000001202
 50
342.64998159661428
 51
148.6499815966142
  0
LINE
  5
24CE
  8
SAPA_FOGBAND
 10
54.182355682622529
 20
65.380716555538555
 30
0.0
 11
53.331035604631779
 21
62.655823084399309
 31
0.0
  0
ARC
  5
24CF
  8
SAPA_FOGBAND
 10
53.521935770965896
 20
62.596181433738998
 30
0.0
 40
0.1999999999997071
 50
162.6499815965831
 51
285.64998159658188
  0
LINE
  5
24D0
  8
SAPA_FOGBAND
 10
36.597949306924882
 20
50.969978584815152
 30
0.0
 11
34.197949306956161
 21
51.843507147043027
 31
0.0
  0
ARC
  5
24D1
  8
SAPA_FOGBAND
 10
34.300555349953861
 20
52.125414933279039
 30
0.0
 40
0.3000000000002311
 50
180.0000000000162
 51
250.00000000001631
  0
LINE
  5
24D2
  8
SAPA_FOGBAND
 10
34.000555349953629
 20
52.125414933278961
 30
0.0
 11
34.000555349953629
 21
55.190345880901504
 31
0.0
  0
ARC
  5
24D3
  8
SAPA_FOGBAND
 10
34.300555349953171
 20
55.190345880901859
 30
0.0
 40
0.2999999999995424
 50
105.0000000000711
 51
180.00000000006921
  0
LINE
  5
24D4
  8
SAPA_FOGBAND
 10
34.222909636422173
 20
55.48012362878805
 30
0.0
 11
36.622909636391803
 21
56.12320169061465
 31
0.0
  0
ARC
  5
24D5
  8
SAPA_FOGBAND
 10
36.700555349922531
 20
55.833423942727727
 30
0.0
 40
0.3000000000001815
 50
359.99999999998369
 51
104.99999999998511
  0
LINE
  5
24D6
  8
SAPA_FOGBAND
 10
37.000555349922713
 20
55.833423942727649
 30
0.0
 11
37.000555349922713
 21
51.251886371051079
 31
0.0
  0
ARC
  5
24D7
  8
SAPA_FOGBAND
 10
36.700555349922588
 20
51.25188637105105
 30
0.0
 40
0.3000000000001179
 50
250.00000000000591
 51
0.0000000000067852
  0
ARC
  5
24D8
  8
SAPA_FOGBAND
 10
34.100555349939441
 20
37.749999856843232
 30
0.0
 40
0.4999999999863576
 50
180.0
 51
270.0
  0
LINE
  5
24D9
  8
SAPA_FOGBAND
 10
33.600555349953083
 20
37.749999856843232
 30
0.0
 11
33.600555349953083
 21
42.499999856848227
 31
0.0
  0
ARC
  5
24DA
  8
SAPA_FOGBAND
 10
34.10055534996377
 20
42.499999856848007
 30
0.0
 40
0.5000000000106866
 50
89.999999999973952
 51
179.99999999997391
  0
LINE
  5
24DB
  8
SAPA_FOGBAND
 10
34.100555349963997
 20
42.999999856858693
 30
0.0
 11
36.800555349962004
 21
42.999999856858693
 31
0.0
  0
ARC
  5
24DC
  8
SAPA_FOGBAND
 10
36.800555349962004
 20
42.499999856861422
 30
0.0
 40
0.4999999999972716
 50
0.0
 51
90.0
  0
LINE
  5
24DD
  8
SAPA_FOGBAND
 10
37.300555349959268
 20
42.499999856861422
 30
0.0
 11
37.300555349959268
 21
37.749999856852327
 31
0.0
  0
ARC
  5
24DE
  8
SAPA_FOGBAND
 10
36.800555349963822
 20
37.749999856852327
 30
0.0
 40
0.4999999999954526
 50
270.0
 51
0.0
  0
LINE
  5
24DF
  8
SAPA_FOGBAND
 10
36.800555349963822
 20
37.249999856856881
 30
0.0
 11
34.100555349939441
 21
37.249999856856881
 31
0.0
  0
ARC
  5
24E0
  8
SAPA_FOGBAND
 10
34.100555349963088
 20
30.499999856870069
 30
0.0
 40
0.500000000010008
 50
180.0000000000004
 51
270.0
  0
LINE
  5
24E1
  8
SAPA_FOGBAND
 10
33.600555349953083
 20
30.499999856870058
 30
0.0
 11
33.600555349953083
 21
35.249999856875519
 31
0.0
  0
ARC
  5
24E2
  8
SAPA_FOGBAND
 10
34.100555349939441
 20
35.249999856875519
 30
0.0
 40
0.4999999999863576
 50
90.0
 51
180.0
  0
LINE
  5
24E3
  8
SAPA_FOGBAND
 10
34.100555349939441
 20
35.749999856861884
 30
0.0
 11
36.800555349963822
 21
35.749999856861884
 31
0.0
  0
ARC
  5
24E4
  8
SAPA_FOGBAND
 10
36.800555349963822
 20
35.249999856866431
 30
0.0
 40
0.4999999999954526
 50
0.0
 51
90.0
  0
LINE
  5
24E5
  8
SAPA_FOGBAND
 10
37.300555349959268
 20
35.249999856866431
 30
0.0
 11
37.300555349959268
 21
30.499999856857329
 31
0.0
  0
ARC
  5
24E6
  8
SAPA_FOGBAND
 10
36.800555349962004
 20
30.499999856857329
 30
0.0
 40
0.4999999999972716
 50
270.0
 51
0.0
  0
LINE
  5
24E7
  8
SAPA_FOGBAND
 10
36.800555349962004
 20
29.999999856860061
 30
0.0
 11
34.100555349963088
 21
29.999999856860061
 31
0.0
  0
LINE
  5
24E8
  8
SAPA_FOGBAND
 10
51.756989814993631
 20
24.093467359417868
 30
0.0
 11
57.169999003843706
 21
24.236130928570191
 31
0.0
  0
ARC
  5
24E9
  8
SAPA_FOGBAND
 10
57.13871211083557
 20
24.038593260450948
 30
0.0
 40
0.2000000000002262
 50
9.9999999999840785
 51
80.999999999984084
  0
LINE
  5
24EA
  8
SAPA_FOGBAND
 10
57.33567366143825
 20
24.073322895984319
 30
0.0
 11
56.038917641480559
 21
17.38364355128348
 31
0.0
  0
ARC
  5
24EB
  8
SAPA_FOGBAND
 10
57.319167720396578
 20
17.609386182250219
 30
0.0
 40
1.300000000000098
 50
189.9999999999869
 51
239.4999999999882
  0
LINE
  5
24EC
  8
SAPA_FOGBAND
 10
56.65936784854739
 20
16.489268273676291
 30
0.0
 11
56.965827916558283
 21
16.308749497883099
 31
0.0
  0
ARC
  5
24ED
  8
SAPA_FOGBAND
 10
56.864320243965977
 20
16.13642366579532
 30
0.0
 40
0.199999999999627
 50
342.17959874227972
 51
59.499999999882412
  0
ARC
  5
24EE
  8
SAPA_FOGBAND
 10
51.551635222476222
 20
15.2290886278732
 30
0.0
 40
5.5677574240903374
 50
317.67181654101211
 51
8.7410674266213597
  0
ARC
  5
24EF
  8
SAPA_FOGBAND
 10
55.465826024388768
 20
11.82511030215352
 30
0.0
 40
0.400000000000049
 50
244.3500184033976
 51
300.33998390760871
  0
LINE
  5
24F0
  8
SAPA_FOGBAND
 10
55.292677107599502
 20
11.464528199693151
 30
0.0
 11
54.340052037302932
 21
11.921971866206119
 31
0.0
  0
ARC
  5
24F1
  8
SAPA_FOGBAND
 10
54.772924329275341
 20
12.82342712235692
 30
0.0
 40
0.9999999999996742
 50
211.35001840343361
 51
244.35001840343349
  0
LINE
  5
24F2
  8
SAPA_FOGBAND
 10
53.91891935749981
 20
12.30316227808814
 30
0.0
 11
50.74655037817729
 21
17.510546383505211
 31
0.0
  0
ARC
  5
24F3
  8
SAPA_FOGBAND
 10
51.600555349953133
 20
18.030811227774208
 30
0.0
 40
1.0000000000000491
 50
180.00000000004309
 51
211.3500184034346
  0
LINE
  5
24F4
  8
SAPA_FOGBAND
 10
50.600555349953083
 20
18.030811227773452
 30
0.0
 11
50.600555349953083
 21
23.105779018822862
 31
0.0
  0
ARC
  5
24F5
  8
SAPA_FOGBAND
 10
51.600555349953183
 20
23.105779018822659
 30
0.0
 40
1.0000000000001059
 50
80.999999999988773
 51
179.9999999999886
  0
ARC
  5
24F6
  8
SAPA_FOGBAND
 10
41.000555349963633
 20
18.999999859825468
 30
0.0
 40
1.800000000000185
 50
180.00000000000011
 51
270.0
  0
LINE
  5
24F7
  8
SAPA_FOGBAND
 10
39.200555349963452
 20
18.999999859825461
 30
0.0
 11
39.200555349963452
 21
27.396471413456279
 31
0.0
  0
ARC
  5
24F8
  8
SAPA_FOGBAND
 10
39.700555349963828
 20
27.396471413456268
 30
0.0
 40
0.5000000000003766
 50
71.499999999997797
 51
179.99999999999841
  0
LINE
  5
24F9
  8
SAPA_FOGBAND
 10
39.859207678166513
 20
27.870633241059721
 30
0.0
 11
48.359207678155599
 21
25.02657302529585
 31
0.0
  0
ARC
  5
24FA
  8
SAPA_FOGBAND
 10
48.200555349953007
 20
24.552411197692301
 30
0.0
 40
0.5000000000004317
 50
0.0000000000118062
 51
71.500000000011838
  0
LINE
  5
24FB
  8
SAPA_FOGBAND
 10
48.70055534995344
 20
24.552411197692411
 30
0.0
 11
48.70055534995344
 21
18.999999859825461
 31
0.0
  0
ARC
  5
24FC
  8
SAPA_FOGBAND
 10
46.900555349953258
 20
18.999999859825461
 30
0.0
 40
1.800000000000181
 50
270.0
 51
0.0
  0
LINE
  5
24FD
  8
SAPA_FOGBAND
 10
46.900555349953258
 20
17.199999859825279
 30
0.0
 11
41.000555349963633
 21
17.199999859825279
 31
0.0
  0
LINE
  5
24FE
  8
SAPA_FOGBAND
 10
48.041903021750379
 20
27.241726307791371
 30
0.0
 11
39.54190302176039
 21
30.085786523555701
 31
0.0
  0
ARC
  5
24FF
  8
SAPA_FOGBAND
 10
39.700555349962798
 20
30.559948351158159
 30
0.0
 40
0.4999999999993478
 50
179.99999999999179
 51
251.4999999999917
  0
LINE
  5
2500
  8
SAPA_FOGBAND
 10
39.200555349963452
 20
30.55994835115823
 30
0.0
 11
39.200555349963452
 21
34.999999856861884
 31
0.0
  0
ARC
  5
2501
  8
SAPA_FOGBAND
 10
39.700555349963452
 20
34.999999856861884
 30
0.0
 40
0.5
 50
90.0
 51
180.0
  0
LINE
  5
2502
  8
SAPA_FOGBAND
 10
39.700555349963452
 20
35.499999856861884
 30
0.0
 11
48.20055534995344
 21
35.499999856861884
 31
0.0
  0
ARC
  5
2503
  8
SAPA_FOGBAND
 10
48.20055534995344
 20
34.999999856861884
 30
0.0
 40
0.5
 50
0.0
 51
90.0
  0
LINE
  5
2504
  8
SAPA_FOGBAND
 10
48.70055534995344
 20
34.999999856861884
 30
0.0
 11
48.70055534995344
 21
27.715888135394351
 31
0.0
  0
ARC
  5
2505
  8
SAPA_FOGBAND
 10
48.200555349953227
 20
27.715888135394589
 30
0.0
 40
0.5000000000002132
 50
251.49999999997181
 51
359.99999999997232
  0
ARC
  5
2506
  8
SAPA_FOGBAND
 10
39.700555349963452
 20
37.999999856856419
 30
0.0
 40
0.5
 50
180.0
 51
270.0
  0
LINE
  5
2507
  8
SAPA_FOGBAND
 10
39.200555349963452
 20
37.999999856856419
 30
0.0
 11
39.200555349963452
 21
42.440051362560517
 31
0.0
  0
ARC
  5
2508
  8
SAPA_FOGBAND
 10
39.700555349962478
 20
42.440051362560368
 30
0.0
 40
0.4999999999990266
 50
108.4999999999818
 51
179.99999999998209
  0
LINE
  5
2509
  8
SAPA_FOGBAND
 10
39.54190302176039
 20
42.914213190162599
 30
0.0
 11
48.041903021750379
 21
45.758273405926928
 31
0.0
  0
ARC
  5
250A
  8
SAPA_FOGBAND
 10
48.20055534995322
 20
45.284111578323703
 30
0.0
 40
0.5000000000002131
 50
0.0000000000276835
 51
108.5000000000274
  0
LINE
  5
250B
  8
SAPA_FOGBAND
 10
48.70055534995344
 20
45.284111578323937
 30
0.0
 11
48.70055534995344
 21
37.999999856856419
 31
0.0
  0
ARC
  5
250C
  8
SAPA_FOGBAND
 10
48.20055534995344
 20
37.999999856856419
 30
0.0
 40
0.5
 50
270.0
 51
0.0
  0
LINE
  5
250D
  8
SAPA_FOGBAND
 10
48.20055534995344
 20
37.499999856856419
 30
0.0
 11
39.700555349963452
 21
37.499999856856419
 31
0.0
  0
ARC
  5
250E
  8
SAPA_FOGBAND
 10
39.700555349963672
 20
45.603528300262248
 30
0.0
 40
0.5000000000002152
 50
180.00000000002771
 51
288.50000000002831
  0
LINE
  5
250F
  8
SAPA_FOGBAND
 10
39.200555349963452
 20
45.603528300262013
 30
0.0
 11
39.200555349963452
 21
53.999999853893279
 31
0.0
  0
ARC
  5
2510
  8
SAPA_FOGBAND
 10
41.000555349963633
 20
53.999999853893279
 30
0.0
 40
1.800000000000181
 50
90.0
 51
180.0
  0
LINE
  5
2511
  8
SAPA_FOGBAND
 10
41.000555349963633
 20
55.799999853893461
 30
0.0
 11
46.900555349953258
 21
55.799999853893461
 31
0.0
  0
ARC
  5
2512
  8
SAPA_FOGBAND
 10
46.900555349953258
 20
53.999999853893279
 30
0.0
 40
1.800000000000181
 50
0.0
 51
90.0
  0
LINE
  5
2513
  8
SAPA_FOGBAND
 10
48.70055534995344
 20
53.999999853893279
 30
0.0
 11
48.70055534995344
 21
48.447588516026343
 31
0.0
  0
ARC
  5
2514
  8
SAPA_FOGBAND
 10
48.200555349953021
 20
48.447588516026443
 30
0.0
 40
0.5000000000004264
 50
288.49999999998749
 51
359.99999999998857
  0
LINE
  5
2515
  8
SAPA_FOGBAND
 10
48.359207678155599
 20
47.973426688422897
 30
0.0
 11
39.859207678166513
 21
45.129366472659022
 31
0.0
  0
ARC
  5
2516
  8
SAPA_FOGBAND
 10
55.465826024388782
 20
61.17488941156526
 30
0.0
 40
0.4000000000000173
 50
59.660016092389647
 51
115.6499815966055
  0
ARC
  5
2517
  8
SAPA_FOGBAND
 10
51.551635222476648
 20
57.770911085844581
 30
0.0
 40
5.5677574240906766
 50
351.25893257338919
 51
42.328183458998147
  0
ARC
  5
2518
  8
SAPA_FOGBAND
 10
56.864320243966418
 20
56.863576047923999
 30
0.0
 40
0.19999999999989
 50
300.49999999992389
 51
17.82040125752378
  0
LINE
  5
2519
  8
SAPA_FOGBAND
 10
56.965827916558283
 20
56.691250215835652
 30
0.0
 11
56.65936784854739
 21
56.510731440042001
 31
0.0
  0
ARC
  5
251A
  8
SAPA_FOGBAND
 10
57.319167720396131
 20
55.390613531468269
 30
0.0
 40
1.2999999999996941
 50
120.49999999999891
 51
169.99999999999841
  0
LINE
  5
251B
  8
SAPA_FOGBAND
 10
56.038917641480559
 20
55.616356162435267
 30
0.0
 11
57.284018756683047
 21
48.926676817733977
 31
0.0
  0
ARC
  5
251C
  8
SAPA_FOGBAND
 10
57.087057206080686
 20
48.961406453267578
 30
0.0
 40
0.1999999999999571
 50
278.99999999993747
 51
349.9999999999352
  0
LINE
  5
251D
  8
SAPA_FOGBAND
 10
57.118344099088517
 20
48.76386878514856
 30
0.0
 11
51.756989814993631
 21
48.906532354300879
 31
0.0
  0
ARC
  5
251E
  8
SAPA_FOGBAND
 10
51.600555349953183
 20
49.894220694896092
 30
0.0
 40
1.000000000000107
 50
180.0000000000114
 51
279.0000000000112
  0
LINE
  5
251F
  8
SAPA_FOGBAND
 10
50.600555349953083
 20
49.894220694895893
 30
0.0
 11
50.600555349953083
 21
54.969188485945288
 31
0.0
  0
ARC
  5
2520
  8
SAPA_FOGBAND
 10
51.600555349953133
 20
54.969188485944542
 30
0.0
 40
1.0000000000000491
 50
148.6499815965654
 51
179.9999999999568
  0
LINE
  5
2521
  8
SAPA_FOGBAND
 10
50.74655037817729
 20
55.489453330213543
 30
0.0
 11
53.91891935749981
 21
60.696837435630151
 31
0.0
  0
ARC
  5
2522
  8
SAPA_FOGBAND
 10
54.772924329276101
 20
60.176572591361619
 30
0.0
 40
1.000000000000189
 50
115.6499815966001
 51
148.64998159660081
  0
LINE
  5
2523
  8
SAPA_FOGBAND
 10
54.340052037302932
 20
61.078027847512629
 30
0.0
 11
55.292677107599502
 21
61.535471514025602
 31
0.0
  0
LINE
  5
2524
  8
SAPA_GLAS
 10
92.075843852326656
 20
63.236227259652608
 30
0.0
 11
92.089616450373825
 21
63.249999857699791
 31
0.0
1001
ACAD
1010
0.0
1020
0.0
1030
0.0
  0
LINE
  5
2525
  8
SAPA_GLAS
 10
92.462148465168653
 20
62.499999857360947
 30
0.0
 11
93.212148465508662
 21
63.249999857700949
 31
0.0
1001
ACAD
1010
0.0
1020
0.0
1030
0.0
  0
LINE
  5
2526
  8
SAPA_GLAS
 10
93.584680480302325
 20
62.499999857360962
 30
0.0
 11
94.334680480643527
 21
63.249999857702193
 31
0.0
1001
ACAD
1010
0.0
1020
0.0
1030
0.0
  0
LINE
  5
2527
  8
SAPA_GLAS
 10
94.707212495435954
 20
62.499999857360962
 30
0.0
 11
95.457212495778435
 21
63.249999857703429
 31
0.0
1001
ACAD
1010
0.0
1020
0.0
1030
0.0
  0
LINE
  5
2528
  8
SAPA_GLAS
 10
95.829744510569583
 20
62.499999857360969
 30
0.0
 11
96.579744510913272
 21
63.249999857704637
 31
0.0
1001
ACAD
1010
0.0
1020
0.0
1030
0.0
  0
LINE
  5
2529
  8
SAPA_GLAS
 10
96.95227652570324
 20
62.499999857360962
 30
0.0
 11
97.702276526048109
 21
63.249999857705831
 31
0.0
1001
ACAD
1010
0.0
1020
0.0
1030
0.0
  0
LINE
  5
252A
  8
SAPA_GLAS
 10
98.074808540836898
 20
62.499999857360962
 30
0.0
 11
98.824808541183003
 21
63.24999985770706
 31
0.0
1001
ACAD
1010
0.0
1020
0.0
1030
0.0
  0
LINE
  5
252B
  8
SAPA_GLAS
 10
99.197340555970541
 20
62.499999857360962
 30
0.0
 11
99.947340556317855
 21
63.249999857708282
 31
0.0
1001
ACAD
1010
0.0
1020
0.0
1030
0.0
  0
LINE
  5
252C
  8
SAPA_GLAS
 10
100.3198725711041
 20
62.49999985736094
 30
0.0
 11
101.06987257145271
 21
63.249999857709469
 31
0.0
1001
ACAD
1010
0.0
1020
0.0
1030
0.0
  0
LINE
  5
252D
  8
SAPA_GLAS
 10
101.4424045862378
 20
62.499999857360962
 30
0.0
 11
102.1924045865876
 21
63.249999857710712
 31
0.0
1001
ACAD
1010
0.0
1020
0.0
1030
0.0
  0
LINE
  5
252E
  8
SAPA_GLAS
 10
102.5649366013714
 20
62.499999857360962
 30
0.0
 11
103.31493660172239
 21
63.24999985771192
 31
0.0
1001
ACAD
1010
0.0
1020
0.0
1030
0.0
  0
LINE
  5
252F
  8
SAPA_GLAS
 10
103.6874686165051
 20
62.499999857360969
 30
0.0
 11
104.4374686168572
 21
63.249999857713128
 31
0.0
1001
ACAD
1010
0.0
1020
0.0
1030
0.0
  0
LINE
  5
2530
  8
SAPA_GLAS
 10
104.8100006316387
 20
62.499999857360962
 30
0.0
 11
104.8758438523386
 21
62.565843078060851
 31
0.0
1001
ACAD
1010
0.0
1020
0.0
1030
0.0
  0
LINE
  5
2531
  8
SAPA_GLAS
 10
92.727863529275226
 20
62.499999857360962
 30
0.0
 11
92.075843852326784
 21
63.152019534309403
 31
0.0
1001
ACAD
1010
0.0
1020
0.0
1030
0.0
  0
LINE
  5
2532
  8
SAPA_GLAS
 10
93.850395544408855
 20
62.499999857360962
 30
0.0
 11
93.100395544069002
 21
63.249999857700857
 31
0.0
1001
ACAD
1010
0.0
1020
0.0
1030
0.0
  0
LINE
  5
2533
  8
SAPA_GLAS
 10
94.972927559542526
 20
62.499999857360962
 30
0.0
 11
94.222927559201395
 21
63.249999857702107
 31
0.0
1001
ACAD
1010
0.0
1020
0.0
1030
0.0
  0
LINE
  5
2534
  8
SAPA_GLAS
 10
96.095459574676156
 20
62.499999857360962
 30
0.0
 11
95.34545957433383
 21
63.249999857703301
 31
0.0
1001
ACAD
1010
0.0
1020
0.0
1030
0.0
  0
LINE
  5
2535
  8
SAPA_GLAS
 10
97.217991589809799
 20
62.499999857360962
 30
0.0
 11
96.467991589466237
 21
63.249999857704523
 31
0.0
1001
ACAD
1010
0.0
1020
0.0
1030
0.0
  0
LINE
  5
2536
  8
SAPA_GLAS
 10
98.340523604943456
 20
62.49999985736099
 30
0.0
 11
97.590523604598687
 21
63.249999857705738
 31
0.0
1001
ACAD
1010
0.0
1020
0.0
1030
0.0
  0
LINE
  5
2537
  8
SAPA_GLAS
 10
99.463055620077114
 20
62.499999857360962
 30
0.0
 11
98.713055619731136
 21
63.249999857706968
 31
0.0
1001
ACAD
1010
0.0
1020
0.0
1030
0.0
  0
LINE
  5
2538
  8
SAPA_GLAS
 10
100.5855876352107
 20
62.499999857360962
 30
0.0
 11
99.835587634863543
 21
63.249999857708161
 31
0.0
1001
ACAD
1010
0.0
1020
0.0
1030
0.0
  0
LINE
  5
2539
  8
SAPA_GLAS
 10
101.7081196503443
 20
62.499999857360962
 30
0.0
 11
100.95811964999589
 21
63.249999857709362
 31
0.0
1001
ACAD
1010
0.0
1020
0.0
1030
0.0
  0
LINE
  5
253A
  8
SAPA_GLAS
 10
102.830651665478
 20
62.49999985736099
 30
0.0
 11
102.0806516651284
 21
63.249999857710613
 31
0.0
1001
ACAD
1010
0.0
1020
0.0
1030
0.0
  0
LINE
  5
253B
  8
SAPA_GLAS
 10
103.9531836806117
 20
62.499999857360962
 30
0.0
 11
103.20318368026081
 21
63.249999857711799
 31
0.0
1001
ACAD
1010
0.0
1020
0.0
1030
0.0
  0
LINE
  5
253C
  8
SAPA_GLAS
 10
104.8758438523387
 20
62.699871700767602
 30
0.0
 11
104.3257156953932
 21
63.249999857713021
 31
0.0
1001
ACAD
1010
0.0
1020
0.0
1030
0.0
  0
LINE
  5
253D
  8
SAPA_GLAS
 10
92.075843852327523
 20
10.4772225483722
 30
0.0
 11
92.098621160977956
 21
10.49999985702264
 31
0.0
1001
ACAD
1010
0.0
1020
0.0
1030
0.0
  0
LINE
  5
253E
  8
SAPA_GLAS
 10
92.471153175772415
 20
9.7499998566834432
 30
0.0
 11
93.221153176111613
 21
10.499999857022649
 31
0.0
1001
ACAD
1010
0.0
1020
0.0
1030
0.0
  0
LINE
  5
253F
  8
SAPA_GLAS
 10
93.593685190904822
 20
9.7499998566821962
 30
0.0
 11
94.343685191245271
 21
10.49999985702264
 31
0.0
1001
ACAD
1010
0.0
1020
0.0
1030
0.0
  0
LINE
  5
2540
  8
SAPA_GLAS
 10
94.716217206037243
 20
9.7499998566809936
 30
0.0
 11
95.4662172063789
 21
10.49999985702264
 31
0.0
1001
ACAD
1010
0.0
1020
0.0
1030
0.0
  0
LINE
  5
2541
  8
SAPA_GLAS
 10
95.838749221169664
 20
9.7499998566797963
 30
0.0
 11
96.588749221512529
 21
10.49999985702264
 31
0.0
1001
ACAD
1010
0.0
1020
0.0
1030
0.0
  0
LINE
  5
2542
  8
SAPA_GLAS
 10
96.961281236302156
 20
9.749999856678599
 30
0.0
 11
97.711281236646187
 21
10.499999857022649
 31
0.0
1001
ACAD
1010
0.0
1020
0.0
1030
0.0
  0
LINE
  5
2543
  8
SAPA_GLAS
 10
98.083813251434535
 20
9.7499998566773343
 30
0.0
 11
98.833813251779844
 21
10.49999985702264
 31
0.0
1001
ACAD
1010
0.0
1020
0.0
1030
0.0
  0
LINE
  5
2544
  8
SAPA_GLAS
 10
99.206345266566956
 20
9.7499998566761192
 30
0.0
 11
99.956345266913473
 21
10.49999985702264
 31
0.0
1001
ACAD
1010
0.0
1020
0.0
1030
0.0
  0
LINE
  5
2545
  8
SAPA_GLAS
 10
100.32887728169941
 20
9.7499998566749202
 30
0.0
 11
101.0788772820471
 21
10.49999985702263
 31
0.0
1001
ACAD
1010
0.0
1020
0.0
1030
0.0
  0
LINE
  5
2546
  8
SAPA_GLAS
 10
101.4514092968318
 20
9.749999856673714
 30
0.0
 11
102.2014092971807
 21
10.499999857022649
 31
0.0
1001
ACAD
1010
0.0
1020
0.0
1030
0.0
  0
LINE
  5
2547
  8
SAPA_GLAS
 10
102.57394131196421
 20
9.7499998566724884
 30
0.0
 11
103.3239413123144
 21
10.49999985702264
 31
0.0
1001
ACAD
1010
0.0
1020
0.0
1030
0.0
  0
LINE
  5
2548
  8
SAPA_GLAS
 10
103.6964733270966
 20
9.749999856671252
 30
0.0
 11
104.446473327448
 21
10.49999985702263
 31
0.0
1001
ACAD
1010
0.0
1020
0.0
1030
0.0
  0
LINE
  5
2549
  8
SAPA_GLAS
 10
104.8190053422291
 20
9.7499998566700583
 30
0.0
 11
104.8758438523386
 21
9.8068383667795977
 31
0.0
1001
ACAD
1010
0.0
1020
0.0
1030
0.0
  0
LINE
  5
254A
  8
SAPA_GLAS
 10
92.718858818671777
 20
9.7499998566831607
 30
0.0
 11
92.075843852327466
 21
10.393014823027469
 31
0.0
1001
ACAD
1010
0.0
1020
0.0
1030
0.0
  0
LINE
  5
254B
  8
SAPA_GLAS
 10
93.841390833806628
 20
9.7499998566819386
 30
0.0
 11
93.091390833465937
 21
10.49999985702263
 31
0.0
1001
ACAD
1010
0.0
1020
0.0
1030
0.0
  0
LINE
  5
254C
  8
SAPA_GLAS
 10
94.963922848941507
 20
9.7499998566807164
 30
0.0
 11
94.213922848599566
 21
10.49999985702266
 31
0.0
1001
ACAD
1010
0.0
1020
0.0
1030
0.0
  0
LINE
  5
254D
  8
SAPA_GLAS
 10
96.086454864076345
 20
9.7499998566795227
 30
0.0
 11
95.336454863733223
 21
10.49999985702263
 31
0.0
1001
ACAD
1010
0.0
1020
0.0
1030
0.0
  0
LINE
  5
254E
  8
SAPA_GLAS
 10
97.208986879211238
 20
9.7499998566782722
 30
0.0
 11
96.458986878866881
 21
10.49999985702263
 31
0.0
1001
ACAD
1010
0.0
1020
0.0
1030
0.0
  0
LINE
  5
254F
  8
SAPA_GLAS
 10
98.331518894346061
 20
9.7499998566770785
 30
0.0
 11
97.581518894000524
 21
10.49999985702263
 31
0.0
1001
ACAD
1010
0.0
1020
0.0
1030
0.0
  0
LINE
  5
2550
  8
SAPA_GLAS
 10
99.454050909480941
 20
9.7499998566758261
 30
0.0
 11
98.704050909134153
 21
10.49999985702263
 31
0.0
1001
ACAD
1010
0.0
1020
0.0
1030
0.0
  0
LINE
  5
2551
  8
SAPA_GLAS
 10
100.57658292461571
 20
9.7499998566746626
 30
0.0
 11
99.826582924267782
 21
10.49999985702266
 31
0.0
1001
ACAD
1010
0.0
1020
0.0
1030
0.0
  0
LINE
  5
2552
  8
SAPA_GLAS
 10
101.6991149397506
 20
9.7499998566734405
 30
0.0
 11
100.9491149394014
 21
10.49999985702263
 31
0.0
1001
ACAD
1010
0.0
1020
0.0
1030
0.0
  0
LINE
  5
2553
  8
SAPA_GLAS
 10
102.82164695488549
 20
9.7499998566721882
 30
0.0
 11
102.0716469545351
 21
10.49999985702263
 31
0.0
1001
ACAD
1010
0.0
1020
0.0
1030
0.0
  0
LINE
  5
2554
  8
SAPA_GLAS
 10
103.9441789700204
 20
9.7499998566709678
 30
0.0
 11
103.1941789696687
 21
10.49999985702266
 31
0.0
1001
ACAD
1010
0.0
1020
0.0
1030
0.0
  0
LINE
  5
2555
  8
SAPA_GLAS
 10
104.8758438523387
 20
9.9408669894863237
 30
0.0
 11
104.3167109848024
 21
10.499999857022599
 31
0.0
1001
ACAD
1010
0.0
1020
0.0
1030
0.0
  0
ARC
  5
2556
  8
SAPA_PROFIL
 62
     4
 10
84.058504082683626
 20
19.586577340541659
 30
0.0
 40
1.341625249269492
 50
331.97558124339309
 51
359.20443003921378
  0
LINE
  5
2557
  8
SAPA_PROFIL
 62
     4
 10
85.242820323057913
 20
18.956217639844422
 30
0.0
 11
84.250000000029559
 21
17.236602397570071
 31
0.0
  0
LINE
  5
2558
  8
SAPA_PROFIL
 62
     4
 10
84.250000000029559
 20
17.236602397570071
 30
0.0
 11
84.250000000029559
 21
16.79999985719175
 31
0.0
  0
ARC
  5
2559
  8
SAPA_PROFIL
 62
     4
 10
84.500000000029559
 20
16.79999985719175
 30
0.0
 40
0.25
 50
180.0
 51
270.0
  0
LINE
  5
255A
  8
SAPA_PROFIL
 62
     4
 10
84.500000000029559
 20
16.54999985719175
 30
0.0
 11
88.100012000028528
 21
16.54999985719175
 31
0.0
  0
ARC
  5
255B
  8
SAPA_PROFIL
 62
     4
 10
88.100012000028528
 20
16.79999985719175
 30
0.0
 40
0.2499999999999964
 50
270.0
 51
0.0000000000008142
  0
LINE
  5
255C
  8
SAPA_PROFIL
 62
     4
 10
88.350012000028528
 20
16.79999985719175
 30
0.0
 11
88.350000357293979
 21
17.236601778770329
 31
0.0
  0
LINE
  5
255D
  8
SAPA_PROFIL
 62
     4
 10
88.350000357293979
 20
17.236601778770329
 30
0.0
 11
87.357179677003387
 21
18.9562176398376
 31
0.0
  0
ARC
  5
255E
  8
SAPA_PROFIL
 62
     4
 10
88.477404781496929
 20
19.570190389998221
 30
0.0
 40
1.2774454284537411
 50
180.457069007115
 51
208.72625738196919
  0
LINE
  5
255F
  8
SAPA_PROFIL
 62
     4
 10
87.200000000028453
 20
19.559999857191968
 30
0.0
 11
87.200000000028453
 21
53.439999857191623
 31
0.0
  0
ARC
  5
2560
  8
SAPA_PROFIL
 62
     4
 10
88.477404781496915
 20
53.42980932438536
 30
0.0
 40
1.2774454284537271
 50
151.27374261803041
 51
179.542930992885
  0
LINE
  5
2561
  8
SAPA_PROFIL
 62
     4
 10
87.357179677003387
 20
54.04378207454598
 30
0.0
 11
88.350000357293979
 21
55.763397935613249
 31
0.0
  0
LINE
  5
2562
  8
SAPA_PROFIL
 62
     4
 10
88.350000357293979
 20
55.763397935613249
 30
0.0
 11
88.350012000028528
 21
56.199999857191841
 31
0.0
  0
ARC
  5
2563
  8
SAPA_PROFIL
 62
     4
 10
88.100012000028528
 20
56.199999857191848
 30
0.0
 40
0.25
 50
359.99999999999841
 51
90.0
  0
LINE
  5
2564
  8
SAPA_PROFIL
 62
     4
 10
88.100012000028528
 20
56.449999857191841
 30
0.0
 11
84.500000000029559
 21
56.449999857191841
 31
0.0
  0
ARC
  5
2565
  8
SAPA_PROFIL
 62
     4
 10
84.500000000029559
 20
56.199999857191841
 30
0.0
 40
0.25
 50
90.0
 51
180.0
  0
LINE
  5
2566
  8
SAPA_PROFIL
 62
     4
 10
84.250000000029559
 20
56.199999857191841
 30
0.0
 11
84.250000000029559
 21
55.763397316813517
 31
0.0
  0
LINE
  5
2567
  8
SAPA_PROFIL
 62
     4
 10
84.250000000029559
 20
55.763397316813517
 30
0.0
 11
85.242820323057913
 21
54.043782074539159
 31
0.0
  0
ARC
  5
2568
  8
SAPA_PROFIL
 62
     4
 10
84.058504082682674
 20
53.413422373841712
 30
0.0
 40
1.3416252492704259
 50
0.7955699607757191
 51
28.024418756596472
  0
LINE
  5
2569
  8
SAPA_PROFIL
 62
     4
 10
85.400000000029195
 20
53.432050664760453
 30
0.0
 11
85.400000000029195
 21
19.56794904962268
 31
0.0
  0
ARC
  5
256A
  8
SAPA_PROFIL
 10
82.375843852338875
 20
16.256130816234961
 30
0.0
 40
0.2999999999994713
 50
125.6200697590746
 51
179.9999999999348
  0
ARC
  5
256B
  8
SAPA_PROFIL
 10
82.026399202279535
 20
16.743868898143219
 30
0.0
 40
0.2999999999993987
 50
305.62006975650411
 51
0.0000000001865925
  0
LINE
  5
256C
  8
SAPA_PROFIL
 10
82.326399202278935
 20
16.7438688981442
 30
0.0
 11
82.326399202278935
 21
17.699999857179559
 31
0.0
  0
ARC
  5
256D
  8
SAPA_PROFIL
 10
82.026399202274163
 20
17.699999857185549
 30
0.0
 40
0.300000000004772
 50
359.9999999988554
 51
62.871907506535997
  0
ARC
  5
256E
  8
SAPA_PROFIL
 10
82.299988000029273
 20
18.233993461780969
 30
0.0
 40
0.3000000000001409
 50
180.00000000004749
 51
242.8719075066866
  0
LINE
  5
256F
  8
SAPA_PROFIL
 10
81.999988000029134
 20
18.233993461780731
 30
0.0
 11
81.999988000029134
 21
20.41154181673798
 31
0.0
  0
ARC
  5
2570
  8
SAPA_PROFIL
 10
82.299988000029956
 20
20.411541816736818
 30
0.0
 40
0.3000000000008214
 50
160.0000000000162
 51
179.99999999977811
  0
LINE
  5
2571
  8
SAPA_PROFIL
 10
82.018080213793382
 20
20.51414785973472
 30
0.0
 11
82.5375942814685
 21
21.941501029779801
 31
0.0
  0
ARC
  5
2572
  8
SAPA_PROFIL
 10
82.819502067709081
 20
21.838894986775461
 30
0.0
 40
0.3000000000067911
 50
69.999999999762665
 51
159.99999999912129
  0
LINE
  5
2573
  8
SAPA_PROFIL
 10
82.922108110710269
 20
22.120802773017171
 30
0.0
 11
83.110046634860296
 21
22.05239874434616
 31
0.0
  0
ARC
  5
2574
  8
SAPA_PROFIL
 10
83.007440591869852
 20
21.770490958114749
 30
0.0
 40
0.2999999999934183
 50
340.00000000103722
 51
70.000000001020084
  0
LINE
  5
2575
  8
SAPA_PROFIL
 10
83.289348378101295
 20
21.6678849151244
 30
0.0
 11
82.913126220435956
 21
20.634223032255679
 31
0.0
  0
ARC
  5
2576
  8
SAPA_PROFIL
 10
83.195034006672714
 20
20.531616989262901
 30
0.0
 40
0.2999999999992425
 50
160.00000000094761
 51
250.00000000219299
  0
LINE
  5
2577
  8
SAPA_PROFIL
 10
83.092427963686063
 20
20.249709203023912
 30
0.0
 11
84.902618043025086
 21
19.590853895787831
 31
0.0
  0
ARC
  5
2578
  8
SAPA_PROFIL
 10
84.800012000028687
 20
19.308946109551741
 30
0.0
 40
0.2999999999998464
 50
0.0000000000284978
 51
70.000000000253863
  0
LINE
  5
2579
  8
SAPA_PROFIL
 10
85.100012000028514
 20
19.308946109551901
 30
0.0
 11
85.100012000028514
 21
18.889230341732372
 31
0.0
  0
ARC
  5
257A
  8
SAPA_PROFIL
 10
84.800012000029042
 20
18.8892303417331
 30
0.0
 40
0.2999999999994856
 50
329.99999999986289
 51
359.9999999998609
  0
LINE
  5
257B
  8
SAPA_PROFIL
 10
85.059819621163555
 20
18.739230341732728
 30
0.0
 11
84.200012000028892
 21
17.249999857191568
 31
0.0
  0
LINE
  5
257C
  8
SAPA_PROFIL
 10
84.200012000028892
 20
17.249999857191568
 30
0.0
 11
84.200000000028467
 21
16.79999985719175
 31
0.0
  0
ARC
  5
257D
  8
SAPA_PROFIL
 10
84.500000000029104
 20
16.799999857192201
 30
0.0
 40
0.3000000000006366
 50
180.0000000000862
 51
270.0000000000868
  0
LINE
  5
257E
  8
SAPA_PROFIL
 10
84.500000000029559
 20
16.499999857191568
 30
0.0
 11
88.100012000028528
 21
16.499999857191568
 31
0.0
  0
ARC
  5
257F
  8
SAPA_PROFIL
 10
88.100012000028997
 20
16.799999857192201
 30
0.0
 40
0.3000000000006366
 50
269.99999999991309
 51
359.99999999991309
  0
LINE
  5
2580
  8
SAPA_PROFIL
 10
88.400012000029619
 20
16.79999985719175
 30
0.0
 11
88.400012000029619
 21
17.249999857191568
 31
0.0
  0
LINE
  5
2581
  8
SAPA_PROFIL
 10
88.400012000029619
 20
17.249999857191568
 30
0.0
 11
87.540187262459312
 21
18.73925998826596
 31
0.0
  0
ARC
  5
2582
  8
SAPA_PROFIL
 10
87.79999488359573
 20
18.8892599882635
 30
0.0
 40
0.2999999999997103
 50
180.0036468669301
 51
209.99999999948949
  0
LINE
  5
2583
  8
SAPA_PROFIL
 10
87.499994884203716
 20
18.889240893312909
 30
0.0
 11
87.499987834411968
 21
18.999999857189749
 31
0.0
  0
LINE
  5
2584
  8
SAPA_PROFIL
 10
87.499987834411968
 20
18.999999857189749
 30
0.0
 11
89.575843852328475
 21
18.999999857189749
 31
0.0
  0
ARC
  5
2585
  8
SAPA_PROFIL
 10
89.575843852328475
 20
18.499999857189749
 30
0.0
 40
0.5
 50
0.0
 51
90.0
  0
LINE
  5
2586
  8
SAPA_PROFIL
 10
90.075843852328489
 20
18.499999857189749
 30
0.0
 11
90.075843852328489
 21
13.24999985752444
 31
0.0
  0
ARC
  5
2587
  8
SAPA_PROFIL
 10
89.575843852328475
 20
13.24999985752444
 30
0.0
 40
0.5
 50
270.0
 51
0.0
  0
LINE
  5
2588
  8
SAPA_PROFIL
 10
89.575843852328475
 20
12.74999985752444
 30
0.0
 11
89.075843848745095
 21
12.74999985752444
 31
0.0
  0
ARC
  5
2589
  8
SAPA_PROFIL
 10
89.075843848745095
 20
13.24999985752444
 30
0.0
 40
0.5
 50
180.0
 51
270.0
  0
LINE
  5
258A
  8
SAPA_PROFIL
 10
88.57584384874508
 20
13.24999985752444
 30
0.0
 11
88.575843848739623
 21
14.2499998579319
 31
0.0
  0
LINE
  5
258B
  8
SAPA_PROFIL
 10
88.575843848739623
 20
14.2499998579319
 30
0.0
 11
85.375843848285953
 21
14.24999985793599
 31
0.0
  0
LINE
  5
258C
  8
SAPA_PROFIL
 10
85.375843848285953
 20
14.24999985793599
 30
0.0
 11
85.375843848293243
 21
9.7499998570301312
 31
0.0
  0
LINE
  5
258D
  8
SAPA_PROFIL
 10
85.375843848293243
 20
9.7499998570301312
 30
0.0
 11
104.8758438523387
 21
9.7499998570087598
 31
0.0
  0
ARC
  5
258E
  8
SAPA_PROFIL
 10
104.8758438523389
 20
9.5499998570077818
 30
0.0
 40
0.2000000000009781
 50
344.39808325562308
 51
90.000000000077364
  0
ARC
  5
258F
  8
SAPA_PROFIL
 10
104.1053209963805
 20
9.7651614903095236
 30
0.0
 40
1.000000000000556
 50
276.24358845850611
 51
344.39808325546488
  0
ARC
  5
2590
  8
SAPA_PROFIL
 10
90.075843852152275
 20
137.99999986164411
 30
0.0
 40
130.00000000411961
 50
270.00000000008731
 51
276.24358845858899
  0
LINE
  5
2591
  8
SAPA_PROFIL
 10
90.075843852350317
 20
7.9999998575244433
 30
0.0
 11
85.075843852430353
 21
7.9999998573862001
 31
0.0
  0
ARC
  5
2592
  8
SAPA_PROFIL
 10
85.075843852339375
 20
10.999999857386189
 30
0.0
 40
2.9999999999999871
 50
179.9999999999998
 51
270.00000000173719
  0
LINE
  5
2593
  8
SAPA_PROFIL
 10
82.075843852339403
 20
10.9999998573862
 30
0.0
 11
82.075843852339403
 21
16.256130816235299
 31
0.0
  0
ARC
  5
2594
  8
SAPA_PROFIL
 10
82.375843852338875
 20
56.743868898148179
 30
0.0
 40
0.2999999999994713
 50
180.00000000006511
 51
234.3799302409254
  0
ARC
  5
2595
  8
SAPA_PROFIL
 10
82.026399202279535
 20
56.25613081623991
 30
0.0
 40
0.2999999999994016
 50
359.99999999981412
 51
54.37993024349629
  0
LINE
  5
2596
  8
SAPA_PROFIL
 10
82.326399202278935
 20
56.25613081623893
 30
0.0
 11
82.326399202278935
 21
55.299999857203566
 31
0.0
  0
ARC
  5
2597
  8
SAPA_PROFIL
 10
82.026399202274519
 20
55.299999857197797
 30
0.0
 40
0.3000000000044025
 50
297.12809249342132
 51
0.0000000011019138
  0
ARC
  5
2598
  8
SAPA_PROFIL
 10
82.299988000029273
 20
54.766006252602608
 30
0.0
 40
0.3000000000001409
 50
117.1280924933133
 51
179.99999999995251
  0
LINE
  5
2599
  8
SAPA_PROFIL
 10
81.999988000029134
 20
54.766006252602857
 30
0.0
 11
81.999988000029134
 21
52.588457897645611
 31
0.0
  0
ARC
  5
259A
  8
SAPA_PROFIL
 10
82.299988000028648
 20
52.58845789764699
 30
0.0
 40
0.2999999999995282
 50
180.00000000026461
 51
200.0000000000268
  0
LINE
  5
259B
  8
SAPA_PROFIL
 10
82.018080213793382
 20
52.485851854649319
 30
0.0
 11
82.5375942814685
 21
51.058498684603791
 31
0.0
  0
ARC
  5
259C
  8
SAPA_PROFIL
 10
82.819502067709081
 20
51.161104727608141
 30
0.0
 40
0.3000000000067923
 50
200.00000000087931
 51
290.00000000023709
  0
LINE
  5
259D
  8
SAPA_PROFIL
 10
82.922108110710269
 20
50.879196941366409
 30
0.0
 11
83.110046634860296
 21
50.947600970037421
 31
0.0
  0
ARC
  5
259E
  8
SAPA_PROFIL
 10
83.007440591870079
 20
51.229508756268622
 30
0.0
 40
0.2999999999931269
 50
289.99999999895402
 51
19.999999998936801
  0
LINE
  5
259F
  8
SAPA_PROFIL
 10
83.289348378101295
 20
51.332114799258733
 30
0.0
 11
82.913126220435956
 21
52.36577668212837
 31
0.0
  0
ARC
  5
25A0
  8
SAPA_PROFIL
 10
83.195034006672486
 20
52.468382725120932
 30
0.0
 40
0.2999999999989523
 50
109.9999999977812
 51
199.99999999902701
  0
LINE
  5
25A1
  8
SAPA_PROFIL
 10
83.092427963686063
 20
52.75029051135968
 30
0.0
 11
84.902618043025086
 21
53.409145818595299
 31
0.0
  0
ARC
  5
25A2
  8
SAPA_PROFIL
 10
84.800012000028374
 20
53.691053604831609
 30
0.0
 40
0.3000000000001719
 50
289.99999999979002
 51
0.0000000000149274
  0
LINE
  5
25A3
  8
SAPA_PROFIL
 10
85.100012000028514
 20
53.691053604831687
 30
0.0
 11
85.100012000028514
 21
54.110769372651212
 31
0.0
  0
ARC
  5
25A4
  8
SAPA_PROFIL
 10
84.800012000029042
 20
54.110769372650488
 30
0.0
 40
0.2999999999994856
 50
0.0000000001397748
 51
30.000000000137678
  0
LINE
  5
25A5
  8
SAPA_PROFIL
 10
85.059819621163555
 20
54.260769372650863
 30
0.0
 11
84.200012000028892
 21
55.749999857191568
 31
0.0
  0
LINE
  5
25A6
  8
SAPA_PROFIL
 10
84.200012000028892
 20
55.749999857191568
 30
0.0
 11
84.200000000028467
 21
56.199999857191841
 31
0.0
  0
ARC
  5
25A7
  8
SAPA_PROFIL
 10
84.500000000028876
 20
56.199999857191159
 30
0.0
 40
0.3000000000004093
 50
89.999999999869729
 51
179.99999999987111
  0
LINE
  5
25A8
  8
SAPA_PROFIL
 10
84.500000000029559
 20
56.499999857191568
 30
0.0
 11
88.100012000028528
 21
56.499999857191568
 31
0.0
  0
ARC
  5
25A9
  8
SAPA_PROFIL
 10
88.100012000029196
 20
56.199999857191159
 30
0.0
 40
0.3000000000004093
 50
0.0000000001302755
 51
90.000000000130271
  0
LINE
  5
25AA
  8
SAPA_PROFIL
 10
88.400012000029619
 20
56.199999857191841
 30
0.0
 11
88.400012000029619
 21
55.749999857191568
 31
0.0
  0
LINE
  5
25AB
  8
SAPA_PROFIL
 10
88.400012000029619
 20
55.749999857191568
 30
0.0
 11
87.540187262459312
 21
54.260739726117642
 31
0.0
  0
ARC
  5
25AC
  8
SAPA_PROFIL
 10
87.79999488359573
 20
54.110739726120087
 30
0.0
 40
0.2999999999997103
 50
150.00000000051051
 51
179.9963531330699
  0
LINE
  5
25AD
  8
SAPA_PROFIL
 10
87.499994884203716
 20
54.110758821070668
 30
0.0
 11
87.499987834411968
 21
53.999999857193387
 31
0.0
  0
LINE
  5
25AE
  8
SAPA_PROFIL
 10
87.499987834411968
 20
53.999999857193387
 30
0.0
 11
89.575843852328475
 21
53.999999857193387
 31
0.0
  0
ARC
  5
25AF
  8
SAPA_PROFIL
 10
89.575843852328475
 20
54.499999857193387
 30
0.0
 40
0.5
 50
270.0
 51
0.0
  0
LINE
  5
25B0
  8
SAPA_PROFIL
 10
90.075843852328489
 20
54.499999857193387
 30
0.0
 11
90.075843852328489
 21
59.749999856858693
 31
0.0
  0
ARC
  5
25B1
  8
SAPA_PROFIL
 10
89.575843852328475
 20
59.749999856858693
 30
0.0
 40
0.5
 50
0.0
 51
90.0
  0
LINE
  5
25B2
  8
SAPA_PROFIL
 10
89.575843852328475
 20
60.2499998568587
 30
0.0
 11
89.075843848745095
 21
60.2499998568587
 31
0.0
  0
ARC
  5
25B3
  8
SAPA_PROFIL
 10
89.075843848745095
 20
59.749999856858693
 30
0.0
 40
0.5
 50
90.0
 51
180.0
  0
LINE
  5
25B4
  8
SAPA_PROFIL
 10
88.57584384874508
 20
59.749999856858693
 30
0.0
 11
88.575843848739623
 21
58.749999856451687
 31
0.0
  0
LINE
  5
25B5
  8
SAPA_PROFIL
 10
88.575843848739623
 20
58.749999856451687
 30
0.0
 11
85.375843848285953
 21
58.749999856447602
 31
0.0
  0
LINE
  5
25B6
  8
SAPA_PROFIL
 10
85.375843848285953
 20
58.749999856447602
 30
0.0
 11
85.375843848293243
 21
63.249999857353451
 31
0.0
  0
LINE
  5
25B7
  8
SAPA_PROFIL
 10
85.375843848293243
 20
63.249999857353451
 30
0.0
 11
104.8758438523387
 21
63.249999857374831
 31
0.0
  0
ARC
  5
25B8
  8
SAPA_PROFIL
 10
104.8758438523389
 20
63.449999857375801
 30
0.0
 40
0.2000000000009763
 50
269.99999999992269
 51
15.601916744377419
  0
ARC
  5
25B9
  8
SAPA_PROFIL
 10
104.1053209963805
 20
63.234838224074068
 30
0.0
 40
1.000000000000556
 50
15.60191674453514
 51
83.756411541493932
  0
ARC
  5
25BA
  8
SAPA_PROFIL
 10
90.075843852152275
 20
-65.000000147260494
 30
0.0
 40
130.00000000411961
 50
83.756411541411026
 51
89.999999999912717
  0
LINE
  5
25BB
  8
SAPA_PROFIL
 10
90.075843852350317
 20
64.999999856859134
 30
0.0
 11
85.075843852430353
 21
64.999999856996936
 31
0.0
  0
ARC
  5
25BC
  8
SAPA_PROFIL
 10
85.075843852339375
 20
61.999999856996951
 30
0.0
 40
2.9999999999999849
 50
89.999999998262723
 51
180.00000000000031
  0
LINE
  5
25BD
  8
SAPA_PROFIL
 10
82.075843852339403
 20
61.999999856996943
 30
0.0
 11
82.075843852339403
 21
56.743868898147831
 31
0.0
  0
LINE
  5
25BE
  8
SAPA_PROFIL
 10
17.300555349944709
 20
191.99999985660489
 30
0.0
 11
29.500555349944531
 21
191.99999985660489
 31
0.0
  0
LINE
  5
25BF
  8
SAPA_PROFIL
 10
29.500555349944531
 20
191.99999985660489
 30
0.0
 11
29.500555349944531
 21
223.99999985660489
 31
0.0
  0
LINE
  5
25C0
  8
SAPA_PROFIL
 10
29.500555349944531
 20
223.99999985660489
 30
0.0
 11
17.300555349944709
 21
223.99999985660489
 31
0.0
  0
LINE
  5
25C1
  8
SAPA_PROFIL
 10
17.300555349944709
 20
223.99999985660489
 30
0.0
 11
17.300555349944709
 21
191.99999985660489
 31
0.0
  0
ARC
  5
25C2
  8
SAPA_PROFIL
 10
27.90055534994417
 20
188.99999985660489
 30
0.0
 40
1.0
 50
0.0
 51
90.0
  0
LINE
  5
25C3
  8
SAPA_PROFIL
 10
27.90055534994417
 20
189.99999985660489
 30
0.0
 11
18.90055534994417
 21
189.99999985660489
 31
0.0
  0
ARC
  5
25C4
  8
SAPA_PROFIL
 10
18.90055534994417
 20
188.99999985660489
 30
0.0
 40
1.0
 50
90.0
 51
180.0
  0
LINE
  5
25C5
  8
SAPA_PROFIL
 10
17.90055534994417
 20
188.99999985660489
 30
0.0
 11
17.90055534994417
 21
186.49999982120281
 31
0.0
  0
LINE
  5
25C6
  8
SAPA_PROFIL
 10
17.90055534994417
 20
186.49999982120281
 30
0.0
 11
17.300555349944709
 21
186.49999982120281
 31
0.0
  0
LINE
  5
25C7
  8
SAPA_PROFIL
 10
17.300555349944709
 20
186.49999982120281
 30
0.0
 11
17.300555349944709
 21
168.99999982120281
 31
0.0
  0
LINE
  5
25C8
  8
SAPA_PROFIL
 10
17.300555349944709
 20
168.99999982120281
 30
0.0
 11
29.500555349944531
 21
168.99999982120281
 31
0.0
  0
LINE
  5
25C9
  8
SAPA_PROFIL
 10
29.500555349944531
 20
168.99999982120281
 30
0.0
 11
29.500555349944531
 21
186.49999982120281
 31
0.0
  0
LINE
  5
25CA
  8
SAPA_PROFIL
 10
29.500555349944531
 20
186.49999982120281
 30
0.0
 11
28.90055534994417
 21
186.49999982120281
 31
0.0
  0
LINE
  5
25CB
  8
SAPA_PROFIL
 10
28.90055534994417
 20
186.49999982120281
 30
0.0
 11
28.90055534994417
 21
188.99999985660489
 31
0.0
  0
ARC
  5
25CC
  8
SAPA_PROFIL
 10
16.000531349947892
 20
162.21418941896351
 30
0.0
 40
1.0000000000001099
 50
180.00000000000159
 51
314.99999999999437
  0
LINE
  5
25CD
  8
SAPA_PROFIL
 10
16.707638131134441
 20
161.50708263777679
 30
0.0
 11
18.012687384303259
 21
162.81213189094569
 31
0.0
  0
ARC
  5
25CE
  8
SAPA_PROFIL
 10
17.800555349947171
 20
163.02426392530211
 30
0.0
 40
0.3000000000004441
 50
314.9999999999477
 51
359.99999999996197
  0
LINE
  5
25CF
  8
SAPA_PROFIL
 10
18.100555349947619
 20
163.02426392530191
 30
0.0
 11
18.100555349947619
 21
163.61076937204911
 31
0.0
  0
ARC
  5
25D0
  8
SAPA_PROFIL
 10
17.800555349947299
 20
163.61076937204859
 30
0.0
 40
0.300000000000324
 50
0.0000000000977066
 51
30.000000000096399
  0
LINE
  5
25D1
  8
SAPA_PROFIL
 10
18.060362971082672
 20
163.7607693720492
 30
0.0
 11
17.200555349947528
 21
165.24999985658991
 31
0.0
  0
LINE
  5
25D2
  8
SAPA_PROFIL
 10
17.200555349947528
 20
165.24999985658991
 30
0.0
 11
17.200543349947559
 21
165.69999985659021
 31
0.0
  0
ARC
  5
25D3
  8
SAPA_PROFIL
 10
17.50054334994752
 20
165.69999985659001
 30
0.0
 40
0.2999999999999545
 50
89.999999999956557
 51
179.99999999995649
  0
LINE
  5
25D4
  8
SAPA_PROFIL
 10
17.500543349947751
 20
165.99999985658991
 30
0.0
 11
21.10055534994763
 21
165.99999985658991
 31
0.0
  0
ARC
  5
25D5
  8
SAPA_PROFIL
 10
21.10055534994763
 20
165.6999998565897
 30
0.0
 40
0.3000000000001819
 50
0.0
 51
90.0
  0
LINE
  5
25D6
  8
SAPA_PROFIL
 10
21.400555349947808
 20
165.6999998565897
 30
0.0
 11
21.400555349947808
 21
165.24999985658991
 31
0.0
  0
LINE
  5
25D7
  8
SAPA_PROFIL
 10
21.400555349947808
 20
165.24999985658991
 30
0.0
 11
20.540730612378869
 21
163.760739725516
 31
0.0
  0
ARC
  5
25D8
  8
SAPA_PROFIL
 10
20.80053823351447
 20
163.61073972551591
 30
0.0
 40
0.3000000000002669
 50
150.0000000000156
 51
179.99635313258821
  0
LINE
  5
25D9
  8
SAPA_PROFIL
 10
20.500538234121908
 20
163.61075882046899
 30
0.0
 11
20.50053118433107
 21
163.49999985658991
 31
0.0
  0
LINE
  5
25DA
  8
SAPA_PROFIL
 10
20.50053118433107
 20
163.49999985658991
 30
0.0
 11
22.12224318643575
 21
163.49999985659079
 31
0.0
  0
ARC
  5
25DB
  8
SAPA_PROFIL
 10
22.122243186435579
 20
164.49999985659051
 30
0.0
 40
0.9999999999996589
 50
270.00000000000978
 51
330.00000000001148
  0
LINE
  5
25DC
  8
SAPA_PROFIL
 10
22.988268590219828
 20
163.99999985659079
 30
0.0
 11
23.85429399400391
 21
165.49999985658991
 31
0.0
  0
ARC
  5
25DD
  8
SAPA_PROFIL
 10
24.720319397788181
 20
164.99999985659019
 30
0.0
 40
0.9999999999996919
 50
90.000000000010601
 51
150.0000000000104
  0
LINE
  5
25DE
  8
SAPA_PROFIL
 10
24.720319397787989
 20
165.99999985658991
 30
0.0
 11
25.280791302104259
 21
165.99999985658991
 31
0.0
  0
ARC
  5
25DF
  8
SAPA_PROFIL
 10
25.280791302104308
 20
164.9999998565898
 30
0.0
 40
1.000000000000085
 50
30.000000000002739
 51
90.000000000002444
  0
LINE
  5
25E0
  8
SAPA_PROFIL
 10
26.146816705888799
 20
165.49999985658991
 30
0.0
 11
27.01284210967378
 21
163.99999985659079
 31
0.0
  0
ARC
  5
25E1
  8
SAPA_PROFIL
 10
27.87886751345885
 20
164.49999985659011
 30
0.0
 40
1.0000000000001741
 50
209.9999999999454
 51
269.99999999994338
  0
LINE
  5
25E2
  8
SAPA_PROFIL
 10
27.878867513457859
 20
163.49999985658991
 30
0.0
 11
29.500579515561181
 21
163.49999985658991
 31
0.0
  0
LINE
  5
25E3
  8
SAPA_PROFIL
 10
29.500579515561181
 20
163.49999985658991
 30
0.0
 11
29.500572465770802
 21
163.61075882046899
 31
0.0
  0
ARC
  5
25E4
  8
SAPA_PROFIL
 10
29.200572466378009
 20
163.61073972551509
 30
0.0
 40
0.3000000000004876
 50
0.0036468675692417
 51
30.000000000142389
  0
LINE
  5
25E5
  8
SAPA_PROFIL
 10
29.460380087513389
 20
163.760739725516
 30
0.0
 11
28.60055534994444
 21
165.24999985658991
 31
0.0
  0
LINE
  5
25E6
  8
SAPA_PROFIL
 10
28.60055534994444
 20
165.24999985658991
 30
0.0
 11
28.60055534994444
 21
165.6999998565897
 31
0.0
  0
ARC
  5
25E7
  8
SAPA_PROFIL
 10
28.900555349944401
 20
165.69999985659001
 30
0.0
 40
0.2999999999999545
 50
90.000000000043414
 51
180.0000000000434
  0
LINE
  5
25E8
  8
SAPA_PROFIL
 10
28.90055534994417
 20
165.99999985658991
 30
0.0
 11
32.500567349944497
 21
165.99999985659039
 31
0.0
  0
ARC
  5
25E9
  8
SAPA_PROFIL
 10
32.500567349944284
 20
165.69999985659041
 30
0.0
 40
0.2999999999999545
 50
359.99999999995657
 51
89.999999999956557
  0
LINE
  5
25EA
  8
SAPA_PROFIL
 10
32.800567349944231
 20
165.69999985659021
 30
0.0
 11
32.800555349944723
 21
165.24999985658991
 31
0.0
  0
LINE
  5
25EB
  8
SAPA_PROFIL
 10
32.800555349944723
 20
165.24999985658991
 30
0.0
 11
31.94074772880958
 21
163.7607693720492
 31
0.0
  0
ARC
  5
25EC
  8
SAPA_PROFIL
 10
32.200555349945184
 20
163.6107693720495
 30
0.0
 40
0.3000000000001014
 50
150.00000000006631
 51
180.00000000006511
  0
LINE
  5
25ED
  8
SAPA_PROFIL
 10
31.90055534994508
 20
163.61076937204911
 30
0.0
 11
31.900555349944629
 21
163.02426392530191
 31
0.0
  0
ARC
  5
25EE
  8
SAPA_PROFIL
 10
32.20055534994453
 20
163.02426392530231
 30
0.0
 40
0.2999999999998977
 50
180.0000000000814
 51
225.00000000009601
  0
LINE
  5
25EF
  8
SAPA_PROFIL
 10
31.988423315588989
 20
162.81213189094609
 30
0.0
 11
33.293472568757807
 21
161.50708263777679
 31
0.0
  0
ARC
  5
25F0
  8
SAPA_PROFIL
 10
34.000579349944367
 20
162.21418941896351
 30
0.0
 40
1.000000000000113
 50
225.00000000000551
 51
359.99999999999841
  0
LINE
  5
25F1
  8
SAPA_PROFIL
 10
35.000579349944481
 20
162.21418941896351
 30
0.0
 11
35.000555349944541
 21
165.799999856591
 31
0.0
  0
ARC
  5
25F2
  8
SAPA_PROFIL
 10
35.000555349944541
 20
165.99999985659059
 30
0.0
 40
0.1999999999995907
 50
90.0
 51
270.0
  0
LINE
  5
25F3
  8
SAPA_PROFIL
 10
35.000555349944541
 20
166.19999985659021
 30
0.0
 11
35.000555349944541
 21
167.4999998861399
 31
0.0
  0
ARC
  5
25F4
  8
SAPA_PROFIL
 10
34.000555350088291
 20
167.49999988599569
 30
0.0
 40
0.9999999998562429
 50
0.0000000082562111
 51
90.000000008445113
  0
LINE
  5
25F5
  8
SAPA_PROFIL
 10
34.000555349940903
 20
168.49999988585199
 30
0.0
 11
33.000555349944541
 21
168.49999988585199
 31
0.0
  0
ARC
  5
25F6
  8
SAPA_PROFIL
 10
33.000555349944541
 20
169.49999988585199
 30
0.0
 40
1.0
 50
180.0
 51
270.0
  0
LINE
  5
25F7
  8
SAPA_PROFIL
 10
32.000555349944527
 20
169.49999988585199
 30
0.0
 11
32.000555349944527
 21
175.612929595813
 31
0.0
  0
ARC
  5
25F8
  8
SAPA_PROFIL
 10
33.000555349944513
 20
175.612929595813
 30
0.0
 40
0.9999999999999715
 50
115.00000000026451
 51
179.9999999999967
  0
LINE
  5
25F9
  8
SAPA_PROFIL
 10
32.577937088199633
 20
176.51923738284759
 30
0.0
 11
36.423173611698992
 21
178.31230062119491
 31
0.0
  0
ARC
  5
25FA
  8
SAPA_PROFIL
 10
36.000555349953849
 20
179.21860840822919
 30
0.0
 40
0.999999999999778
 50
295.00000000028638
 51
0.0000000000162844
  0
LINE
  5
25FB
  8
SAPA_PROFIL
 10
37.000555349953629
 20
179.2186084082295
 30
0.0
 11
37.000555349954091
 21
182.26735388155791
 31
0.0
  0
ARC
  5
25FC
  8
SAPA_PROFIL
 10
36.800555349953662
 20
182.26735388155771
 30
0.0
 40
0.2000000000004292
 50
0.0000000000651378
 51
119.1099089404873
  0
ARC
  5
25FD
  8
SAPA_PROFIL
 10
35.000555349922351
 20
185.49999985659051
 30
0.0
 40
3.5000000000007891
 50
274.91710033604471
 51
299.1099089404189
  0
LINE
  5
25FE
  8
SAPA_PROFIL
 10
35.300555349953811
 20
182.01288070175991
 30
0.0
 11
35.300555349953811
 21
180.74999985658991
 31
0.0
  0
ARC
  5
25FF
  8
SAPA_PROFIL
 10
34.800555349953811
 20
180.74999985658991
 30
0.0
 40
0.5
 50
270.0
 51
0.0
  0
LINE
  5
2600
  8
SAPA_PROFIL
 10
34.800555349953811
 20
180.24999985658991
 30
0.0
 11
32.500555349944541
 21
180.24999985658991
 31
0.0
  0
ARC
  5
2601
  8
SAPA_PROFIL
 10
32.500555349944541
 20
180.74999985658991
 30
0.0
 40
0.5
 50
180.0
 51
270.0
  0
LINE
  5
2602
  8
SAPA_PROFIL
 10
32.000555349944527
 20
180.74999985658991
 30
0.0
 11
32.000555349944527
 21
183.69722421882119
 31
0.0
  0
ARC
  5
2603
  8
SAPA_PROFIL
 10
35.000555349922941
 20
185.49999985658991
 30
0.0
 40
3.5000000000004059
 50
148.99728086542859
 51
211.00271913457141
  0
LINE
  5
2604
  8
SAPA_PROFIL
 10
32.000555349944527
 20
187.3027754943586
 30
0.0
 11
32.000555349944527
 21
193.69722421882119
 31
0.0
  0
ARC
  5
2605
  8
SAPA_PROFIL
 10
35.000555349922941
 20
195.49999985658991
 30
0.0
 40
3.5000000000004059
 50
148.99728086542859
 51
211.00271913457141
  0
LINE
  5
2606
  8
SAPA_PROFIL
 10
32.000555349944527
 20
197.3027754943586
 30
0.0
 11
32.000555349944527
 21
200.24999985658991
 31
0.0
  0
ARC
  5
2607
  8
SAPA_PROFIL
 10
32.500555349944541
 20
200.24999985658991
 30
0.0
 40
0.5
 50
90.0
 51
180.0
  0
LINE
  5
2608
  8
SAPA_PROFIL
 10
32.500555349944541
 20
200.74999985658991
 30
0.0
 11
34.800555349953811
 21
200.74999985658991
 31
0.0
  0
ARC
  5
2609
  8
SAPA_PROFIL
 10
34.800555349953811
 20
200.24999985658991
 30
0.0
 40
0.5
 50
0.0
 51
90.0
  0
LINE
  5
260A
  8
SAPA_PROFIL
 10
35.300555349953811
 20
200.24999985658991
 30
0.0
 11
35.300555349953811
 21
198.98711901141991
 31
0.0
  0
ARC
  5
260B
  8
SAPA_PROFIL
 10
35.000555349921278
 20
195.49999985658911
 30
0.0
 40
3.5000000000011049
 50
60.89009105956417
 51
85.082899663938321
  0
ARC
  5
260C
  8
SAPA_PROFIL
 10
36.800555349953292
 20
198.7326458316218
 30
0.0
 40
0.2000000000003468
 50
240.890091059621
 51
0.0000000000325689
  0
LINE
  5
260D
  8
SAPA_PROFIL
 10
37.000555349953629
 20
198.73264583162199
 30
0.0
 11
37.000555349953629
 21
201.7813913049508
 31
0.0
  0
ARC
  5
260E
  8
SAPA_PROFIL
 10
36.000555349953849
 20
201.78139130495109
 30
0.0
 40
0.9999999999997797
 50
359.99999999998369
 51
64.999999999713609
  0
LINE
  5
260F
  8
SAPA_PROFIL
 10
36.423173611698992
 20
202.68769909198539
 30
0.0
 11
32.577937088199633
 21
204.4807623303322
 31
0.0
  0
ARC
  5
2610
  8
SAPA_PROFIL
 10
33.000555349944541
 20
205.3870701173669
 30
0.0
 40
1.000000000000016
 50
180.00000000000489
 51
244.9999999997344
  0
LINE
  5
2611
  8
SAPA_PROFIL
 10
32.000555349944527
 20
205.38707011736679
 30
0.0
 11
32.000555349944527
 21
221.69999985659021
 31
0.0
  0
LINE
  5
2612
  8
SAPA_PROFIL
 10
32.000555349944527
 20
221.69999985659021
 30
0.0
 11
33.500555349944527
 21
221.69999985659021
 31
0.0
  0
LINE
  5
2613
  8
SAPA_PROFIL
 10
33.500555349944527
 20
221.69999985659021
 30
0.0
 11
33.500555349944527
 21
222.49999985658991
 31
0.0
  0
LINE
  5
2614
  8
SAPA_PROFIL
 10
33.500555349944527
 20
222.49999985658991
 30
0.0
 11
32.000555349944527
 21
222.49999985658991
 31
0.0
  0
LINE
  5
2615
  8
SAPA_PROFIL
 10
32.000555349944527
 20
222.49999985658991
 30
0.0
 11
32.000555349944527
 21
224.19999985659021
 31
0.0
  0
LINE
  5
2616
  8
SAPA_PROFIL
 10
32.000555349944527
 20
224.19999985659021
 30
0.0
 11
56.60055534994445
 21
224.49999985658991
 31
0.0
  0
LINE
  5
2617
  8
SAPA_PROFIL
 10
56.60055534994445
 20
224.49999985658991
 30
0.0
 11
56.60055534994445
 21
222.79999985659009
 31
0.0
  0
LINE
  5
2618
  8
SAPA_PROFIL
 10
56.60055534994445
 20
222.79999985659009
 30
0.0
 11
54.600555349944443
 21
222.79999985659009
 31
0.0
  0
LINE
  5
2619
  8
SAPA_PROFIL
 10
54.600555349944443
 20
222.79999985659009
 30
0.0
 11
54.600555349944443
 21
221.99999985658991
 31
0.0
  0
LINE
  5
261A
  8
SAPA_PROFIL
 10
54.600555349944443
 20
221.99999985658991
 30
0.0
 11
58.750555349934977
 21
221.99999985658991
 31
0.0
  0
ARC
  5
261B
  8
SAPA_PROFIL
 10
58.750555349935013
 20
222.49999985658991
 30
0.0
 40
0.4999999999999716
 50
269.99999999999682
 51
0.0000000000032569
  0
LINE
  5
261C
  8
SAPA_PROFIL
 10
59.250555349934977
 20
222.49999985658991
 30
0.0
 11
59.250555349947263
 21
222.99999985657169
 31
0.0
  0
LINE
  5
261D
  8
SAPA_PROFIL
 10
59.250555349947263
 20
222.99999985657169
 30
0.0
 11
58.000555349972728
 21
222.9999998565936
 31
0.0
  0
LINE
  5
261E
  8
SAPA_PROFIL
 10
58.000555349972728
 20
222.9999998565936
 30
0.0
 11
58.000555349937258
 21
224.39999985657229
 31
0.0
  0
ARC
  5
261F
  8
SAPA_PROFIL
 10
58.300555349923151
 20
224.3999998565661
 30
0.0
 40
0.2999999999859
 50
89.999999997359211
 51
179.99999999881661
  0
LINE
  5
2620
  8
SAPA_PROFIL
 10
58.300555349936978
 20
224.69999985655201
 30
0.0
 11
64.700555349942078
 21
224.69999985657969
 31
0.0
  0
ARC
  5
2621
  8
SAPA_PROFIL
 10
64.700555349924372
 20
224.3999998565896
 30
0.0
 40
0.299999999990149
 50
359.99999999808381
 51
89.999999996618271
  0
LINE
  5
2622
  8
SAPA_PROFIL
 10
65.000555349914521
 20
224.3999998565796
 30
0.0
 11
65.00055534990679
 21
222.9999998565936
 31
0.0
  0
LINE
  5
2623
  8
SAPA_PROFIL
 10
65.00055534990679
 20
222.9999998565936
 30
0.0
 11
63.750555349932263
 21
222.99999985657169
 31
0.0
  0
LINE
  5
2624
  8
SAPA_PROFIL
 10
63.750555349932263
 20
222.99999985657169
 30
0.0
 11
63.750555349944527
 21
222.49999985658991
 31
0.0
  0
ARC
  5
2625
  8
SAPA_PROFIL
 10
64.25055534994452
 20
222.49999985658991
 30
0.0
 40
0.4999999999999858
 50
179.9999999999967
 51
270.00000000000171
  0
LINE
  5
2626
  8
SAPA_PROFIL
 10
64.250555349944534
 20
221.99999985658991
 30
0.0
 11
67.250555349944534
 21
221.99999985658991
 31
0.0
  0
ARC
  5
2627
  8
SAPA_PROFIL
 10
67.250555349951824
 20
222.49999985658991
 30
0.0
 40
0.5
 50
269.99999999916457
 51
0.0
  0
LINE
  5
2628
  8
SAPA_PROFIL
 10
67.75055534995181
 20
222.49999985658991
 30
0.0
 11
67.75055534995181
 21
222.99999985658999
 31
0.0
  0
LINE
  5
2629
  8
SAPA_PROFIL
 10
67.75055534995181
 20
222.99999985658999
 30
0.0
 11
66.30055534995472
 21
222.99999985658951
 31
0.0
  0
LINE
  5
262A
  8
SAPA_PROFIL
 10
66.30055534995472
 20
222.99999985658951
 30
0.0
 11
66.30055534995472
 21
224.84999985658209
 31
0.0
  0
ARC
  5
262B
  8
SAPA_PROFIL
 10
66.600555349941231
 20
224.8499998565658
 30
0.0
 40
0.299999999986511
 50
89.999999996867984
 51
179.99999999687881
  0
LINE
  5
262C
  8
SAPA_PROFIL
 10
66.600555349957631
 20
225.14999985655231
 30
0.0
 11
68.840747728814222
 21
225.14999985658139
 31
0.0
  0
LINE
  5
262D
  8
SAPA_PROFIL
 10
68.840747728814222
 20
225.14999985658139
 30
0.0
 11
69.100555349943079
 21
224.699999856587
 31
0.0
  0
LINE
  5
262E
  8
SAPA_PROFIL
 10
69.100555349943079
 20
224.699999856587
 30
0.0
 11
70.900555349953265
 21
224.699999856587
 31
0.0
  0
LINE
  5
262F
  8
SAPA_PROFIL
 10
70.900555349953265
 20
224.699999856587
 30
0.0
 11
71.160362971082122
 21
225.14999985658139
 31
0.0
  0
LINE
  5
2630
  8
SAPA_PROFIL
 10
71.160362971082122
 20
225.14999985658139
 30
0.0
 11
73.400555349938713
 21
225.14999985658139
 31
0.0
  0
ARC
  5
2631
  8
SAPA_PROFIL
 10
73.40055534992689
 20
224.84999985659579
 30
0.0
 40
0.29999999998563
 50
359.9999999970471
 51
89.999999997741895
  0
LINE
  5
2632
  8
SAPA_PROFIL
 10
73.700555349912506
 20
224.8499998565803
 30
0.0
 11
73.700555349941624
 21
222.99999985658951
 31
0.0
  0
LINE
  5
2633
  8
SAPA_PROFIL
 10
73.700555349941624
 20
222.99999985658951
 30
0.0
 11
72.250555349944534
 21
222.99999985658999
 31
0.0
  0
LINE
  5
2634
  8
SAPA_PROFIL
 10
72.250555349944534
 20
222.99999985658999
 30
0.0
 11
72.250555349944534
 21
222.49999985658991
 31
0.0
  0
ARC
  5
2635
  8
SAPA_PROFIL
 10
72.750555349944534
 20
222.49999985658991
 30
0.0
 40
0.5
 50
180.0
 51
270.0
  0
LINE
  5
2636
  8
SAPA_PROFIL
 10
72.750555349944534
 20
221.99999985658991
 30
0.0
 11
74.500555349944534
 21
221.99999985658991
 31
0.0
  0
ARC
  5
2637
  8
SAPA_PROFIL
 10
74.50055534994452
 20
222.49999985658999
 30
0.0
 40
0.5000000000000285
 50
270.00000000000171
 51
359.99999999999682
  0
LINE
  5
2638
  8
SAPA_PROFIL
 10
75.000555349944534
 20
222.49999985658991
 30
0.0
 11
75.000555349944534
 21
224.99999985658999
 31
0.0
  0
ARC
  5
2639
  8
SAPA_PROFIL
 10
73.000555349944534
 20
224.99999985658999
 30
0.0
 40
2.0
 50
0.0
 51
90.0
  0
LINE
  5
263A
  8
SAPA_PROFIL
 10
73.000555349944534
 20
226.99999985658999
 30
0.0
 11
15.30055534994381
 21
226.99999985658999
 31
0.0
  0
ARC
  5
263B
  8
SAPA_PROFIL
 10
15.300555349954299
 20
226.6999998565847
 30
0.0
 40
0.3000000000052125
 50
90.000000002003986
 51
179.99999999990769
  0
LINE
  5
263C
  8
SAPA_PROFIL
 10
15.00055534994908
 20
226.69999985658521
 30
0.0
 11
15.000555349944531
 21
166.19999985659061
 31
0.0
  0
ARC
  5
263D
  8
SAPA_PROFIL
 10
15.00055534994635
 20
165.99999985659079
 30
0.0
 40
0.1999999999998181
 50
270.00000000052108
 51
90.000000000521084
  0
LINE
  5
263E
  8
SAPA_PROFIL
 10
15.00055534994817
 20
165.799999856591
 30
0.0
 11
15.00053134994778
 21
162.21418941896351
 31
0.0
  0
LINE
  5
263F
  8
SAPA_PROFIL
 10
17.300555349944709
 20
34.999999856844603
 30
0.0
 11
29.500555349944531
 21
34.999999856844603
 31
0.0
  0
LINE
  5
2640
  8
SAPA_PROFIL
 10
29.500555349944531
 20
34.999999856844603
 30
0.0
 11
29.500555349944531
 21
2.999999856844596
 31
0.0
  0
LINE
  5
2641
  8
SAPA_PROFIL
 10
29.500555349944531
 20
2.999999856844596
 30
0.0
 11
17.300555349944709
 21
2.999999856844596
 31
0.0
  0
LINE
  5
2642
  8
SAPA_PROFIL
 10
17.300555349944709
 20
2.999999856844596
 30
0.0
 11
17.300555349944709
 21
34.999999856844603
 31
0.0
  0
ARC
  5
2643
  8
SAPA_PROFIL
 10
27.900555349944629
 20
37.999999856844603
 30
0.0
 40
1.0
 50
270.0
 51
0.0
  0
LINE
  5
2644
  8
SAPA_PROFIL
 10
27.900555349944629
 20
36.999999856844603
 30
0.0
 11
18.900555349944621
 21
36.999999856844603
 31
0.0
  0
ARC
  5
2645
  8
SAPA_PROFIL
 10
18.900555349944621
 20
37.999999856844603
 30
0.0
 40
1.0
 50
180.0
 51
270.0
  0
LINE
  5
2646
  8
SAPA_PROFIL
 10
17.900555349944621
 20
37.999999856844603
 30
0.0
 11
17.900555349944621
 21
40.499999892246677
 31
0.0
  0
LINE
  5
2647
  8
SAPA_PROFIL
 10
17.900555349944621
 20
40.499999892246677
 30
0.0
 11
17.300555349944709
 21
40.499999892246677
 31
0.0
  0
LINE
  5
2648
  8
SAPA_PROFIL
 10
17.300555349944709
 20
40.499999892246677
 30
0.0
 11
17.300555349944709
 21
57.999999892246677
 31
0.0
  0
LINE
  5
2649
  8
SAPA_PROFIL
 10
17.300555349944709
 20
57.999999892246677
 30
0.0
 11
29.500555349944531
 21
57.999999892246677
 31
0.0
  0
LINE
  5
264A
  8
SAPA_PROFIL
 10
29.500555349944531
 20
57.999999892246677
 30
0.0
 11
29.500555349944531
 21
40.499999892246677
 31
0.0
  0
LINE
  5
264B
  8
SAPA_PROFIL
 10
29.500555349944531
 20
40.499999892246677
 30
0.0
 11
28.900555349944629
 21
40.499999892246677
 31
0.0
  0
LINE
  5
264C
  8
SAPA_PROFIL
 10
28.900555349944629
 20
40.499999892246677
 30
0.0
 11
28.900555349944629
 21
37.999999856844603
 31
0.0
  0
LINE
  5
264D
  8
SAPA_PROFIL
 10
35.300555349954273
 20
26.749999856859599
 30
0.0
 11
35.300555349954273
 21
28.012880702029609
 31
0.0
  0
ARC
  5
264E
  8
SAPA_PROFIL
 10
35.000555349922692
 20
31.499999856858778
 30
0.0
 40
3.4999999999993561
 50
274.91710033604852
 51
299.10990894042538
  0
ARC
  5
264F
  8
SAPA_PROFIL
 10
36.800555349953662
 20
28.267353881827351
 30
0.0
 40
0.2000000000004304
 50
0.0000000000661555
 51
119.1099089404868
  0
LINE
  5
2650
  8
SAPA_PROFIL
 10
37.000555349954091
 20
28.267353881827582
 30
0.0
 11
37.000555349954091
 21
25.218608408498739
 31
0.0
  0
ARC
  5
2651
  8
SAPA_PROFIL
 10
36.000555349954112
 20
25.218608408498799
 30
0.0
 40
0.9999999999999786
 50
295.00000000026478
 51
359.99999999999682
  0
LINE
  5
2652
  8
SAPA_PROFIL
 10
36.423173611698992
 20
24.312300621464122
 30
0.0
 11
32.577937088199633
 21
22.519237383117311
 31
0.0
  0
ARC
  5
2653
  8
SAPA_PROFIL
 10
33.000555349944513
 20
21.61292959608264
 30
0.0
 40
0.999999999999979
 50
115.00000000026481
 51
179.9999999999967
  0
LINE
  5
2654
  8
SAPA_PROFIL
 10
32.000555349944527
 20
21.61292959608269
 30
0.0
 11
32.000555349944527
 21
5.299999856859329
 31
0.0
  0
LINE
  5
2655
  8
SAPA_PROFIL
 10
32.000555349944527
 20
5.299999856859329
 30
0.0
 11
33.500555349944527
 21
5.299999856859329
 31
0.0
  0
LINE
  5
2656
  8
SAPA_PROFIL
 10
33.500555349944527
 20
5.299999856859329
 30
0.0
 11
33.500555349944527
 21
4.4999998568596018
 31
0.0
  0
LINE
  5
2657
  8
SAPA_PROFIL
 10
33.500555349944527
 20
4.4999998568596018
 30
0.0
 11
32.000555349944527
 21
4.4999998568596018
 31
0.0
  0
LINE
  5
2658
  8
SAPA_PROFIL
 10
32.000555349944527
 20
4.4999998568596018
 30
0.0
 11
32.000555349944527
 21
2.799999856859329
 31
0.0
  0
LINE
  5
2659
  8
SAPA_PROFIL
 10
32.000555349944527
 20
2.799999856859329
 30
0.0
 11
56.60055534994445
 21
2.4999998568596018
 31
0.0
  0
LINE
  5
265A
  8
SAPA_PROFIL
 10
56.60055534994445
 20
2.4999998568596018
 30
0.0
 11
56.60055534994445
 21
4.1999998568594199
 31
0.0
  0
LINE
  5
265B
  8
SAPA_PROFIL
 10
56.60055534994445
 20
4.1999998568594199
 30
0.0
 11
54.600555349944443
 21
4.1999998568594199
 31
0.0
  0
LINE
  5
265C
  8
SAPA_PROFIL
 10
54.600555349944443
 20
4.1999998568594199
 30
0.0
 11
54.600555349944443
 21
4.9999998568596018
 31
0.0
  0
LINE
  5
265D
  8
SAPA_PROFIL
 10
54.600555349944443
 20
4.9999998568596018
 30
0.0
 11
58.750555349934977
 21
4.9999998568596018
 31
0.0
  0
ARC
  5
265E
  8
SAPA_PROFIL
 10
58.750555349935013
 20
4.4999998568596293
 30
0.0
 40
0.4999999999999734
 50
359.99999999999687
 51
90.000000000003254
  0
LINE
  5
265F
  8
SAPA_PROFIL
 10
59.250555349934977
 20
4.4999998568596018
 30
0.0
 11
59.250555349947263
 21
3.9999998568777921
 31
0.0
  0
LINE
  5
2660
  8
SAPA_PROFIL
 10
59.250555349947263
 20
3.9999998568777921
 30
0.0
 11
58.000555349973183
 21
3.9999998568559638
 31
0.0
  0
LINE
  5
2661
  8
SAPA_PROFIL
 10
58.000555349973183
 20
3.9999998568559638
 30
0.0
 11
58.000555349937258
 21
2.599999856877246
 31
0.0
  0
ARC
  5
2662
  8
SAPA_PROFIL
 10
58.300555349923393
 20
2.599999856883668
 30
0.0
 40
0.2999999999861416
 50
180.0000000012264
 51
270.00000000268147
  0
LINE
  5
2663
  8
SAPA_PROFIL
 10
58.30055534993744
 20
2.2999998568975282
 30
0.0
 11
64.700555349942533
 21
2.299999856869789
 31
0.0
  0
ARC
  5
2664
  8
SAPA_PROFIL
 10
64.700555349924613
 20
2.599999856859696
 30
0.0
 40
0.2999999999899074
 50
270.00000000342237
 51
0.000000001962275
  0
LINE
  5
2665
  8
SAPA_PROFIL
 10
65.000555349914521
 20
2.59999985686997
 30
0.0
 11
65.00055534990679
 21
3.9999998568559638
 31
0.0
  0
LINE
  5
2666
  8
SAPA_PROFIL
 10
65.00055534990679
 20
3.9999998568559638
 30
0.0
 11
63.750555349932711
 21
3.9999998568777921
 31
0.0
  0
LINE
  5
2667
  8
SAPA_PROFIL
 10
63.750555349932711
 20
3.9999998568777921
 30
0.0
 11
63.750555349944527
 21
4.4999998568596018
 31
0.0
  0
ARC
  5
2668
  8
SAPA_PROFIL
 10
64.250555349944534
 20
4.4999998568595991
 30
0.0
 40
0.5
 50
90.0
 51
179.9999999999996
  0
LINE
  5
2669
  8
SAPA_PROFIL
 10
64.250555349944534
 20
4.9999998568596018
 30
0.0
 11
67.250555349944534
 21
4.9999998568596018
 31
0.0
  0
ARC
  5
266A
  8
SAPA_PROFIL
 10
67.25055534995181
 20
4.4999998568596089
 30
0.0
 40
0.4999999999999929
 50
359.9999999999992
 51
90.000000000833779
  0
LINE
  5
266B
  8
SAPA_PROFIL
 10
67.75055534995181
 20
4.4999998568596018
 30
0.0
 11
67.75055534995181
 21
3.9999998568596018
 31
0.0
  0
LINE
  5
266C
  8
SAPA_PROFIL
 10
67.75055534995181
 20
3.9999998568596018
 30
0.0
 11
66.30055534995472
 21
3.9999998568605122
 31
0.0
  0
LINE
  5
266D
  8
SAPA_PROFIL
 10
66.30055534995472
 20
3.9999998568605122
 30
0.0
 11
66.30055534995472
 21
2.1499998568674239
 31
0.0
  0
ARC
  5
266E
  8
SAPA_PROFIL
 10
66.60055534994126
 20
2.1499998568838019
 30
0.0
 40
0.2999999999865395
 50
180.00000000312801
 51
270.00000000312662
  0
LINE
  5
266F
  8
SAPA_PROFIL
 10
66.600555349957631
 20
1.8499998568972551
 30
0.0
 11
68.840747728814222
 21
1.849999856868151
 31
0.0
  0
LINE
  5
2670
  8
SAPA_PROFIL
 10
68.840747728814222
 20
1.849999856868151
 30
0.0
 11
69.100555349943079
 21
2.2999998568625131
 31
0.0
  0
LINE
  5
2671
  8
SAPA_PROFIL
 10
69.100555349943079
 20
2.2999998568625131
 30
0.0
 11
70.900555349953265
 21
2.2999998568625131
 31
0.0
  0
LINE
  5
2672
  8
SAPA_PROFIL
 10
70.900555349953265
 20
2.2999998568625131
 30
0.0
 11
71.160362971082122
 21
1.849999856868151
 31
0.0
  0
LINE
  5
2673
  8
SAPA_PROFIL
 10
71.160362971082122
 20
1.849999856868151
 30
0.0
 11
73.400555349938713
 21
1.849999856868151
 31
0.0
  0
ARC
  5
2674
  8
SAPA_PROFIL
 10
73.400555349927103
 20
2.149999856854016
 30
0.0
 40
0.2999999999858644
 50
270.00000000221468
 51
0.0000000029081296
  0
LINE
  5
2675
  8
SAPA_PROFIL
 10
73.700555349912975
 20
2.1499998568692429
 30
0.0
 11
73.700555349941624
 21
3.9999998568605122
 31
0.0
  0
LINE
  5
2676
  8
SAPA_PROFIL
 10
73.700555349941624
 20
3.9999998568605122
 30
0.0
 11
72.250555349944534
 21
3.9999998568596018
 31
0.0
  0
LINE
  5
2677
  8
SAPA_PROFIL
 10
72.250555349944534
 20
3.9999998568596018
 30
0.0
 11
72.250555349944534
 21
4.4999998568596018
 31
0.0
  0
ARC
  5
2678
  8
SAPA_PROFIL
 10
72.75055534994452
 20
4.499999856859616
 30
0.0
 40
0.4999999999999858
 50
89.999999999998366
 51
180.00000000000159
  0
LINE
  5
2679
  8
SAPA_PROFIL
 10
72.750555349944534
 20
4.9999998568596018
 30
0.0
 11
74.500555349944534
 21
4.9999998568596018
 31
0.0
  0
ARC
  5
267A
  8
SAPA_PROFIL
 10
74.500555349944534
 20
4.4999998568595947
 30
0.0
 40
0.5000000000000071
 50
0.0000000000008142
 51
90.0
  0
LINE
  5
267B
  8
SAPA_PROFIL
 10
75.000555349944534
 20
4.4999998568596018
 30
0.0
 11
75.000555349944989
 21
1.999999856860057
 31
0.0
  0
ARC
  5
267C
  8
SAPA_PROFIL
 10
73.000555349944861
 20
1.9999998568597339
 30
0.0
 40
2.000000000000127
 50
270.00000000000369
 51
0.0000000000092618
  0
LINE
  5
267D
  8
SAPA_PROFIL
 10
73.000555349944975
 20
-0.0000001431403973
 30
0.0
 11
15.30055534994381
 21
-0.0000001431403973
 31
0.0
  0
ARC
  5
267E
  8
SAPA_PROFIL
 10
15.3005553499545
 20
0.2999998568645736
 30
0.0
 40
0.3000000000049709
 50
180.0000000000461
 51
269.99999999795631
  0
LINE
  5
267F
  8
SAPA_PROFIL
 10
15.000555349949529
 20
0.299999856864332
 30
0.0
 11
15.000555349944531
 21
60.799999856858868
 31
0.0
  0
ARC
  5
2680
  8
SAPA_PROFIL
 10
15.00055534994635
 20
60.999999856858693
 30
0.0
 40
0.1999999999998181
 50
269.99999999947988
 51
89.999999999477865
  0
LINE
  5
2681
  8
SAPA_PROFIL
 10
15.00055534994817
 20
61.199999856858511
 30
0.0
 11
15.00053134994778
 21
64.785810294486026
 31
0.0
  0
ARC
  5
2682
  8
SAPA_PROFIL
 10
16.00053134994787
 20
64.785810294486026
 30
0.0
 40
1.000000000000099
 50
45.000000000004043
 51
180.0
  0
LINE
  5
2683
  8
SAPA_PROFIL
 10
16.707638131134441
 20
65.492917075672693
 30
0.0
 11
18.012687384303259
 21
64.187867822503421
 31
0.0
  0
ARC
  5
2684
  8
SAPA_PROFIL
 10
17.800555349947739
 20
63.975735788147183
 30
0.0
 40
0.2999999999998813
 50
0.0000000000814222
 51
45.000000000098339
  0
LINE
  5
2685
  8
SAPA_PROFIL
 10
18.100555349947619
 20
63.975735788147603
 30
0.0
 11
18.100555349947619
 21
63.389230341400413
 31
0.0
  0
ARC
  5
2686
  8
SAPA_PROFIL
 10
17.800555349947292
 20
63.389230341400911
 30
0.0
 40
0.3000000000003382
 50
329.99999999990609
 51
359.99999999990359
  0
LINE
  5
2687
  8
SAPA_PROFIL
 10
18.060362971082672
 20
63.239230341400308
 30
0.0
 11
17.200555349947528
 21
61.749999856859603
 31
0.0
  0
LINE
  5
2688
  8
SAPA_PROFIL
 10
17.200555349947528
 20
61.749999856859603
 30
0.0
 11
17.200543349947559
 21
61.29999985685933
 31
0.0
  0
ARC
  5
2689
  8
SAPA_PROFIL
 10
17.50054334994751
 20
61.29999985685955
 30
0.0
 40
0.2999999999999474
 50
180.00000000004201
 51
270.00000000004479
  0
LINE
  5
268A
  8
SAPA_PROFIL
 10
17.500543349947751
 20
60.999999856859603
 30
0.0
 11
21.10055534994763
 21
60.999999856859603
 31
0.0
  0
ARC
  5
268B
  8
SAPA_PROFIL
 10
21.10055534994763
 20
61.299999856859777
 30
0.0
 40
0.3000000000001819
 50
270.0
 51
0.0
  0
LINE
  5
268C
  8
SAPA_PROFIL
 10
21.400555349947808
 20
61.299999856859777
 30
0.0
 11
21.400555349947808
 21
61.749999856859603
 31
0.0
  0
LINE
  5
268D
  8
SAPA_PROFIL
 10
21.400555349947808
 20
61.749999856859603
 30
0.0
 11
20.540730612378869
 21
63.239259987933529
 31
0.0
  0
ARC
  5
268E
  8
SAPA_PROFIL
 10
20.800538233514612
 20
63.38925998793362
 30
0.0
 40
0.3000000000003976
 50
180.00364686741591
 51
209.99999999997459
  0
LINE
  5
268F
  8
SAPA_PROFIL
 10
20.500538234121908
 20
63.389240892980503
 30
0.0
 11
20.50053118433107
 21
63.499999856859603
 31
0.0
  0
LINE
  5
2690
  8
SAPA_PROFIL
 10
20.50053118433107
 20
63.499999856859603
 30
0.0
 11
22.12224318643575
 21
63.499999856858693
 31
0.0
  0
ARC
  5
2691
  8
SAPA_PROFIL
 10
22.122243186435579
 20
62.499999856859027
 30
0.0
 40
0.999999999999666
 50
29.999999999988859
 51
89.999999999990223
  0
LINE
  5
2692
  8
SAPA_PROFIL
 10
22.988268590219828
 20
62.999999856858693
 30
0.0
 11
23.85429399400391
 21
61.499999856859603
 31
0.0
  0
ARC
  5
2693
  8
SAPA_PROFIL
 10
24.72031939778816
 20
61.999999856859283
 30
0.0
 40
0.9999999999996792
 50
209.9999999999894
 51
269.99999999999011
  0
LINE
  5
2694
  8
SAPA_PROFIL
 10
24.720319397787989
 20
60.999999856859603
 30
0.0
 11
25.280791302104259
 21
60.999999856859603
 31
0.0
  0
ARC
  5
2695
  8
SAPA_PROFIL
 10
25.280791302104319
 20
61.999999856859667
 30
0.0
 40
1.0000000000000711
 50
269.99999999999687
 51
329.99999999999761
  0
LINE
  5
2696
  8
SAPA_PROFIL
 10
26.146816705888799
 20
61.499999856859603
 30
0.0
 11
27.01284210967378
 21
62.999999856858693
 31
0.0
  0
ARC
  5
2697
  8
SAPA_PROFIL
 10
27.878867513458822
 20
62.499999856859489
 30
0.0
 40
1.0000000000001139
 50
90.000000000054555
 51
150.00000000005639
  0
LINE
  5
2698
  8
SAPA_PROFIL
 10
27.878867513457859
 20
63.499999856859603
 30
0.0
 11
29.500579515561181
 21
63.499999856859603
 31
0.0
  0
LINE
  5
2699
  8
SAPA_PROFIL
 10
29.500579515561181
 20
63.499999856859603
 30
0.0
 11
29.50057246577035
 21
63.389240892980503
 31
0.0
  0
ARC
  5
269A
  8
SAPA_PROFIL
 10
29.200572466378489
 20
63.389259987933848
 30
0.0
 40
0.2999999999995497
 50
329.99999999998192
 51
359.99635313254072
  0
LINE
  5
269B
  8
SAPA_PROFIL
 10
29.460380087513389
 20
63.239259987933991
 30
0.0
 11
28.60055534994444
 21
61.749999856859603
 31
0.0
  0
LINE
  5
269C
  8
SAPA_PROFIL
 10
28.60055534994444
 20
61.749999856859603
 30
0.0
 11
28.60055534994444
 21
61.299999856859777
 31
0.0
  0
ARC
  5
269D
  8
SAPA_PROFIL
 10
28.900555349944629
 20
61.299999856859777
 30
0.0
 40
0.3000000000001819
 50
180.0
 51
270.0
  0
LINE
  5
269E
  8
SAPA_PROFIL
 10
28.900555349944629
 20
60.999999856859603
 30
0.0
 11
32.500567349944497
 21
60.999999856859603
 31
0.0
  0
ARC
  5
269F
  8
SAPA_PROFIL
 10
32.500567349944511
 20
61.29999985685977
 30
0.0
 40
0.3000000000001748
 50
269.99999999999869
 51
0.000000000001357
  0
LINE
  5
26A0
  8
SAPA_PROFIL
 10
32.800567349944693
 20
61.299999856859777
 30
0.0
 11
32.800555349944723
 21
61.749999856859603
 31
0.0
  0
LINE
  5
26A1
  8
SAPA_PROFIL
 10
32.800555349944723
 20
61.749999856859603
 30
0.0
 11
31.94074772880958
 21
63.239230341400308
 31
0.0
  0
ARC
  5
26A2
  8
SAPA_PROFIL
 10
32.200555349945191
 20
63.389230341400051
 30
0.0
 40
0.3000000000001102
 50
179.99999999993349
 51
209.99999999993111
  0
LINE
  5
26A3
  8
SAPA_PROFIL
 10
31.90055534994508
 20
63.389230341400413
 30
0.0
 11
31.900555349944629
 21
63.975735788147603
 31
0.0
  0
ARC
  5
26A4
  8
SAPA_PROFIL
 10
32.200555349944509
 20
63.975735788147183
 30
0.0
 40
0.2999999999998835
 50
134.99999999990209
 51
179.9999999999186
  0
LINE
  5
26A5
  8
SAPA_PROFIL
 10
31.988423315588989
 20
64.187867822503421
 30
0.0
 11
33.293472568758261
 21
65.492917075672693
 31
0.0
  0
ARC
  5
26A6
  8
SAPA_PROFIL
 10
34.000579349944601
 20
64.785810294486126
 30
0.0
 40
0.9999999999998674
 50
359.99999999999432
 51
134.99999999999079
  0
LINE
  5
26A7
  8
SAPA_PROFIL
 10
35.000579349944481
 20
64.785810294486026
 30
0.0
 11
35.000555349944541
 21
61.199999856858511
 31
0.0
  0
ARC
  5
26A8
  8
SAPA_PROFIL
 10
35.000555349944541
 20
60.999999856858921
 30
0.0
 40
0.1999999999995907
 50
90.0
 51
270.0
  0
LINE
  5
26A9
  8
SAPA_PROFIL
 10
35.000555349944541
 20
60.79999985685933
 30
0.0
 11
35.000555349944541
 21
59.499999827309658
 31
0.0
  0
ARC
  5
26AA
  8
SAPA_PROFIL
 10
34.000555350088369
 20
59.499999827453678
 30
0.0
 40
0.9999999998561648
 50
269.9999999915504
 51
359.99999999174821
  0
LINE
  5
26AB
  8
SAPA_PROFIL
 10
34.000555349940903
 20
58.49999982759752
 30
0.0
 11
33.000555349944541
 21
58.49999982759752
 31
0.0
  0
ARC
  5
26AC
  8
SAPA_PROFIL
 10
33.000555349944541
 20
57.49999982759752
 30
0.0
 40
1.0
 50
90.0
 51
180.0
  0
LINE
  5
26AD
  8
SAPA_PROFIL
 10
32.000555349944527
 20
57.49999982759752
 30
0.0
 11
32.000555349944527
 21
51.387070117636512
 31
0.0
  0
ARC
  5
26AE
  8
SAPA_PROFIL
 10
33.000555349944513
 20
51.387070117636561
 30
0.0
 40
0.9999999999999786
 50
180.00000000000321
 51
244.99999999973519
  0
LINE
  5
26AF
  8
SAPA_PROFIL
 10
32.577937088199633
 20
50.480762330601891
 30
0.0
 11
36.423173611698992
 21
48.687699092255087
 31
0.0
  0
ARC
  5
26B0
  8
SAPA_PROFIL
 10
36.000555349953757
 20
47.78139130522019
 30
0.0
 40
1.0000000000003251
 50
359.99999999998983
 51
64.999999999722405
  0
LINE
  5
26B1
  8
SAPA_PROFIL
 10
37.000555349954091
 20
47.781391305220012
 30
0.0
 11
37.000555349954091
 21
44.732645831891631
 31
0.0
  0
ARC
  5
26B2
  8
SAPA_PROFIL
 10
36.800555349953527
 20
44.732645831891617
 30
0.0
 40
0.2000000000005571
 50
240.89009105957541
 51
0.0000000000020356
  0
ARC
  5
26B3
  8
SAPA_PROFIL
 10
35.000555349921633
 20
41.499999856860178
 30
0.0
 40
3.499999999999686
 50
60.890091059557633
 51
85.082899663934455
  0
LINE
  5
26B4
  8
SAPA_PROFIL
 10
35.300555349954273
 20
44.9871190116896
 30
0.0
 11
35.300555349954273
 21
46.249999856859603
 31
0.0
  0
ARC
  5
26B5
  8
SAPA_PROFIL
 10
34.800555349954273
 20
46.249999856859603
 30
0.0
 40
0.5
 50
0.0
 51
90.0
  0
LINE
  5
26B6
  8
SAPA_PROFIL
 10
34.800555349954273
 20
46.749999856859603
 30
0.0
 11
32.500555349944541
 21
46.749999856859603
 31
0.0
  0
ARC
  5
26B7
  8
SAPA_PROFIL
 10
32.500555349944541
 20
46.249999856859603
 30
0.0
 40
0.5
 50
90.0
 51
180.0
  0
LINE
  5
26B8
  8
SAPA_PROFIL
 10
32.000555349944527
 20
46.249999856859603
 30
0.0
 11
32.000555349944527
 21
43.302775494627859
 31
0.0
  0
ARC
  5
26B9
  8
SAPA_PROFIL
 10
35.000555349922571
 20
41.499999856859368
 30
0.0
 40
3.4999999999999729
 50
148.99728086542871
 51
211.00271913457129
  0
LINE
  5
26BA
  8
SAPA_PROFIL
 10
32.000555349944527
 20
39.697224219090877
 30
0.0
 11
32.000555349944527
 21
33.302775494627873
 31
0.0
  0
ARC
  5
26BB
  8
SAPA_PROFIL
 10
35.000555349922571
 20
31.499999856859372
 30
0.0
 40
3.4999999999999729
 50
148.99728086542871
 51
211.00271913457129
  0
LINE
  5
26BC
  8
SAPA_PROFIL
 10
32.000555349944527
 20
29.697224219090881
 30
0.0
 11
32.000555349944527
 21
26.749999856859599
 31
0.0
  0
ARC
  5
26BD
  8
SAPA_PROFIL
 10
32.500555349944541
 20
26.749999856859599
 30
0.0
 40
0.5
 50
180.0
 51
270.0
  0
LINE
  5
26BE
  8
SAPA_PROFIL
 10
32.500555349944541
 20
26.249999856859599
 30
0.0
 11
34.800555349954273
 21
26.249999856859599
 31
0.0
  0
ARC
  5
26BF
  8
SAPA_PROFIL
 10
34.800555349954273
 20
26.749999856859599
 30
0.0
 40
0.5
 50
270.0
 51
0.0
  0
ARC
  5
26C0
  8
SAPA_PROFIL
 62
     4
 10
17.850543382453299
 20
163.6241667041439
 30
0.0
 40
0.3000000000003347
 50
0.0000000000977066
 51
30.00000000009539
  0
LINE
  5
26C1
  8
SAPA_PROFIL
 62
     4
 10
18.110351003588669
 20
163.77416670414459
 30
0.0
 11
17.25054334994638
 21
165.26339724498979
 31
0.0
  0
LINE
  5
26C2
  8
SAPA_PROFIL
 62
     4
 10
17.25054334994638
 20
165.26339724498979
 30
0.0
 11
17.25054334994638
 21
165.69999978536811
 31
0.0
  0
ARC
  5
26C3
  8
SAPA_PROFIL
 62
     4
 10
17.50054334994638
 20
165.69999978536811
 30
0.0
 40
0.25
 50
90.0
 51
180.0
  0
LINE
  5
26C4
  8
SAPA_PROFIL
 62
     4
 10
17.50054334994638
 20
165.94999978536811
 30
0.0
 11
21.100555349946259
 21
165.94999978536811
 31
0.0
  0
ARC
  5
26C5
  8
SAPA_PROFIL
 62
     4
 10
21.100555349946269
 20
165.69999978536811
 30
0.0
 40
0.25
 50
0.0
 51
90.00000000000081
  0
LINE
  5
26C6
  8
SAPA_PROFIL
 62
     4
 10
21.350555349946259
 20
165.69999978536811
 30
0.0
 11
21.350543707210822
 21
165.26339786378949
 31
0.0
  0
LINE
  5
26C7
  8
SAPA_PROFIL
 62
     4
 10
21.350543707210822
 20
165.26339786378949
 30
0.0
 11
20.490735761317868
 21
163.7741668167518
 31
0.0
  0
ARC
  5
26C8
  8
SAPA_PROFIL
 62
     4
 10
20.75054338245253
 20
163.62416681675231
 30
0.0
 40
0.2999999999991736
 50
150.00000000002041
 51
180.00000000002709
  0
LINE
  5
26C9
  8
SAPA_PROFIL
 62
     4
 10
20.450543382453361
 20
163.62416681675219
 30
0.0
 11
20.450543382453361
 21
140.37583282550071
 31
0.0
  0
ARC
  5
26CA
  8
SAPA_PROFIL
 62
     4
 10
20.75054338245339
 20
140.37583282550031
 30
0.0
 40
0.300000000000022
 50
179.9999999999294
 51
209.99999999993611
  0
LINE
  5
26CB
  8
SAPA_PROFIL
 62
     4
 10
20.490735761317868
 20
140.22583282550059
 30
0.0
 11
21.350543707211269
 21
138.7366017784629
 31
0.0
  0
LINE
  5
26CC
  8
SAPA_PROFIL
 62
     4
 10
21.350543707211269
 20
138.7366017784629
 30
0.0
 11
21.350555349946259
 21
138.29999985688431
 31
0.0
  0
ARC
  5
26CD
  8
SAPA_PROFIL
 62
     4
 10
21.100555349946269
 20
138.29999985688431
 30
0.0
 40
0.2499999999999964
 50
269.9999999999992
 51
0.0
  0
LINE
  5
26CE
  8
SAPA_PROFIL
 62
     4
 10
21.100555349946259
 20
138.04999985688431
 30
0.0
 11
17.50054334994638
 21
138.0499998568848
 31
0.0
  0
ARC
  5
26CF
  8
SAPA_PROFIL
 62
     4
 10
17.50054334994638
 20
138.2999998568848
 30
0.0
 40
0.25
 50
180.0
 51
270.0
  0
LINE
  5
26D0
  8
SAPA_PROFIL
 62
     4
 10
17.25054334994638
 20
138.2999998568848
 30
0.0
 11
17.25054334994638
 21
138.73660239726311
 31
0.0
  0
LINE
  5
26D1
  8
SAPA_PROFIL
 62
     4
 10
17.25054334994638
 20
138.73660239726311
 30
0.0
 11
18.110351003588669
 21
140.22583293810831
 31
0.0
  0
ARC
  5
26D2
  8
SAPA_PROFIL
 62
     4
 10
17.850543382453921
 20
140.37583293810789
 30
0.0
 40
0.2999999999992616
 50
330.00000000002387
 51
0.0000000000217126
  0
LINE
  5
26D3
  8
SAPA_PROFIL
 62
     4
 10
18.150543382453179
 20
140.375832938108
 30
0.0
 11
18.15054338245363
 21
163.6241667041445
 31
0.0
  0
LINE
  5
26D4
  8
SAPA_PROFIL
 62
     4
 10
58.34829041756165
 20
149.49999978849331
 30
-0.2
 11
72.548290417563749
 21
149.49999978849331
 31
-0.2
1001
RC_PROFILE
1002
{
1000
Region
1002
}
  0
ARC
  5
26D5
  8
SAPA_PROFIL
 62
     4
 10
72.548290417563749
 20
149.99999978849331
 30
-0.2
 40
0.5
 50
270.0
 51
359.9999999997915
1001
RC_PROFILE
1002
{
1000
Region
1002
}
  0
LINE
  5
26D6
  8
SAPA_PROFIL
 62
     4
 10
73.048290417563749
 20
149.99999978849149
 30
-0.2
 11
73.048290417566463
 21
153.99999978911271
 31
-0.2
1001
RC_PROFILE
1002
{
1000
Region
1002
}
  0
ARC
  5
26D7
  8
SAPA_PROFIL
 62
     4
 10
72.548290417566463
 20
153.99999978911271
 30
-0.2
 40
0.5
 50
0.0
 51
90.0
1001
RC_PROFILE
1002
{
1000
Region
1002
}
  0
LINE
  5
26D8
  8
SAPA_PROFIL
 62
     4
 10
72.548290417566463
 20
154.49999978911271
 30
-0.2
 11
58.348290417563021
 21
154.49999978912001
 31
-0.2
1001
RC_PROFILE
1002
{
1000
Region
1002
}
  0
ARC
  5
26D9
  8
SAPA_PROFIL
 62
     4
 10
58.34829041756177
 20
153.99999978911981
 30
-0.2
 40
0.5000000000001137
 50
89.999999999856698
 51
179.99999999998701
1001
RC_PROFILE
1002
{
1000
Region
1002
}
  0
LINE
  5
26DA
  8
SAPA_PROFIL
 62
     4
 10
57.84829041756165
 20
153.9999997891199
 30
-0.2
 11
57.84829041756165
 21
149.99999978849331
 31
-0.2
1001
RC_PROFILE
1002
{
1000
Region
1002
}
  0
ARC
  5
26DB
  8
SAPA_PROFIL
 62
     4
 10
58.34829041756165
 20
149.99999978849331
 30
-0.2
 40
0.5
 50
180.0
 51
270.0
1001
RC_PROFILE
1002
{
1000
Region
1002
}
  0
ARC
  5
26DC
  8
SAPA_PROFIL
 62
     4
 10
32.78481686115321
 20
162.92273985851179
 30
0.0
 40
1.200000000000834
 50
149.9999999999871
 51
180.0000000000081
1001
GENIUS_GENOBJ-N-FIL_13
1002
{
1000
OWNER
1000
GEN
1002
}
1001
GENIUS_GENODEF_13
1002
{
1000
HIER
1070
     0
1002
}
1002
{
1000
MANEDIT
1070
     0
1002
}
1002
{
1000
NOSEL
1070
     0
1002
}
1002
{
1000
BEHIND
1070
     0
1002
}
1002
{
1000
OTHER
1070
     0
1002
}
1002
{
1000
REACTOR
1002
}
  0
LINE
  5
26DD
  8
SAPA_PROFIL
 62
     4
 10
31.7455863766113
 20
163.52273985851249
 30
0.0
 11
32.750555707209507
 21
165.2633977991558
 31
0.0
1001
GENIUS_GENOBJ-N-FIL_13
1002
{
1000
OWNER
1000
GEN
1002
}
1001
GENIUS_GENODEF_13
1002
{
1000
HIER
1070
     0
1002
}
1002
{
1000
MANEDIT
1070
     0
1002
}
1002
{
1000
NOSEL
1070
     0
1002
}
1002
{
1000
BEHIND
1070
     0
1002
}
1002
{
1000
OTHER
1070
     0
1002
}
1002
{
1000
REACTOR
1002
}
  0
LINE
  5
26DE
  8
SAPA_PROFIL
 62
     4
 10
32.750555707209507
 20
165.2633977991558
 30
0.0
 11
32.750567349944497
 21
165.69999972073441
 31
0.0
1001
GENIUS_GENOBJ-N-FIL_13
1002
{
1000
OWNER
1000
GEN
1002
}
1001
GENIUS_GENODEF_13
1002
{
1000
HIER
1070
     0
1002
}
1002
{
1000
MANEDIT
1070
     0
1002
}
1002
{
1000
NOSEL
1070
     0
1002
}
1002
{
1000
BEHIND
1070
     0
1002
}
1002
{
1000
OTHER
1070
     0
1002
}
1002
{
1000
REACTOR
1002
}
  0
ARC
  5
26DF
  8
SAPA_PROFIL
 62
     4
 10
32.500567349944511
 20
165.69999972073441
 30
0.0
 40
0.2499999999999929
 50
0.0
 51
90.000000000001606
1001
GENIUS_GENOBJ-N-FIL_13
1002
{
1000
OWNER
1000
GEN
1002
}
1001
GENIUS_GENODEF_13
1002
{
1000
HIER
1070
     0
1002
}
1002
{
1000
MANEDIT
1070
     0
1002
}
1002
{
1000
NOSEL
1070
     0
1002
}
1002
{
1000
BEHIND
1070
     0
1002
}
1002
{
1000
OTHER
1070
     0
1002
}
1002
{
1000
REACTOR
1002
}
  0
LINE
  5
26E0
  8
SAPA_PROFIL
 62
     4
 10
32.500567349944497
 20
165.94999972073441
 30
0.0
 11
28.900555349944629
 21
165.94999972073401
 31
0.0
1001
GENIUS_GENOBJ-N-FIL_13
1002
{
1000
OWNER
1000
GEN
1002
}
1001
GENIUS_GENODEF_13
1002
{
1000
HIER
1070
     0
1002
}
1002
{
1000
MANEDIT
1070
     0
1002
}
1002
{
1000
NOSEL
1070
     0
1002
}
1002
{
1000
BEHIND
1070
     0
1002
}
1002
{
1000
OTHER
1070
     0
1002
}
1002
{
1000
REACTOR
1002
}
  0
ARC
  5
26E1
  8
SAPA_PROFIL
 62
     4
 10
28.900555349944629
 20
165.69999972073401
 30
0.0
 40
0.25
 50
90.0
 51
180.0
1001
GENIUS_GENOBJ-N-FIL_13
1002
{
1000
OWNER
1000
GEN
1002
}
1001
GENIUS_GENODEF_13
1002
{
1000
HIER
1070
     0
1002
}
1002
{
1000
MANEDIT
1070
     0
1002
}
1002
{
1000
NOSEL
1070
     0
1002
}
1002
{
1000
BEHIND
1070
     0
1002
}
1002
{
1000
OTHER
1070
     0
1002
}
1002
{
1000
REACTOR
1002
}
  0
LINE
  5
26E2
  8
SAPA_PROFIL
 62
     4
 10
28.650555349944629
 20
165.69999972073401
 30
0.0
 11
28.650555349944629
 21
165.26339718035561
 31
0.0
1001
GENIUS_GENOBJ-N-FIL_13
1002
{
1000
OWNER
1000
GEN
1002
}
1001
GENIUS_GENODEF_13
1002
{
1000
HIER
1070
     0
1002
}
1002
{
1000
MANEDIT
1070
     0
1002
}
1002
{
1000
NOSEL
1070
     0
1002
}
1002
{
1000
BEHIND
1070
     0
1002
}
1002
{
1000
OTHER
1070
     0
1002
}
1002
{
1000
REACTOR
1002
}
  0
LINE
  5
26E3
  8
SAPA_PROFIL
 62
     4
 10
28.650555349944629
 20
165.26339718035561
 30
0.0
 11
29.624047345694638
 21
163.57725958295481
 31
0.0
1001
GENIUS_GENOBJ-N-FIL_13
1002
{
1000
OWNER
1000
GEN
1002
}
1001
GENIUS_GENODEF_13
1002
{
1000
HIER
1070
     0
1002
}
1002
{
1000
MANEDIT
1070
     0
1002
}
1002
{
1000
NOSEL
1070
     0
1002
}
1002
{
1000
BEHIND
1070
     0
1002
}
1002
{
1000
OTHER
1070
     0
1002
}
1002
{
1000
REACTOR
1002
}
  0
ARC
  5
26E4
  8
SAPA_PROFIL
 62
     4
 10
28.584816861153278
 20
162.97725958295521
 30
0.0
 40
1.1999999999998241
 50
359.99999999998511
 51
29.999999999982599
1001
GENIUS_GENOBJ-N-FIL_13
1002
{
1000
OWNER
1000
GEN
1002
}
1001
GENIUS_GENODEF_13
1002
{
1000
HIER
1070
     0
1002
}
1002
{
1000
MANEDIT
1070
     0
1002
}
1002
{
1000
NOSEL
1070
     0
1002
}
1002
{
1000
BEHIND
1070
     0
1002
}
1002
{
1000
OTHER
1070
     0
1002
}
1002
{
1000
REACTOR
1002
}
  0
LINE
  5
26E5
  8
SAPA_PROFIL
 62
     4
 10
29.784816861153111
 20
162.9772595829549
 30
0.0
 11
29.784816861153111
 21
141.02273999466379
 31
0.0
1001
GENIUS_GENOBJ-N-FIL_13
1002
{
1000
OWNER
1000
GEN
1002
}
1001
GENIUS_GENODEF_13
1002
{
1000
HIER
1070
     0
1002
}
1002
{
1000
MANEDIT
1070
     0
1002
}
1002
{
1000
NOSEL
1070
     0
1002
}
1002
{
1000
BEHIND
1070
     0
1002
}
1002
{
1000
OTHER
1070
     0
1002
}
1002
{
1000
REACTOR
1002
}
  0
ARC
  5
26E6
  8
SAPA_PROFIL
 62
     4
 10
28.584816861153278
 20
141.02273999466351
 30
0.0
 40
1.199999999999825
 50
330.00000000001739
 51
0.0000000000149274
1001
GENIUS_GENOBJ-N-FIL_13
1002
{
1000
OWNER
1000
GEN
1002
}
1001
GENIUS_GENODEF_13
1002
{
1000
HIER
1070
     0
1002
}
1002
{
1000
MANEDIT
1070
     0
1002
}
1002
{
1000
NOSEL
1070
     0
1002
}
1002
{
1000
BEHIND
1070
     0
1002
}
1002
{
1000
OTHER
1070
     0
1002
}
1002
{
1000
REACTOR
1002
}
  0
LINE
  5
26E7
  8
SAPA_PROFIL
 62
     4
 10
29.624047345694638
 20
140.42273999466391
 30
0.0
 11
28.650555349944629
 21
138.73660239726311
 31
0.0
1001
GENIUS_GENOBJ-N-FIL_13
1002
{
1000
OWNER
1000
GEN
1002
}
1001
GENIUS_GENODEF_13
1002
{
1000
HIER
1070
     0
1002
}
1002
{
1000
MANEDIT
1070
     0
1002
}
1002
{
1000
NOSEL
1070
     0
1002
}
1002
{
1000
BEHIND
1070
     0
1002
}
1002
{
1000
OTHER
1070
     0
1002
}
1002
{
1000
REACTOR
1002
}
  0
LINE
  5
26E8
  8
SAPA_PROFIL
 62
     4
 10
28.650555349944629
 20
138.73660239726311
 30
0.0
 11
28.650555349944629
 21
138.2999998568848
 31
0.0
1001
GENIUS_GENOBJ-N-FIL_13
1002
{
1000
OWNER
1000
GEN
1002
}
1001
GENIUS_GENODEF_13
1002
{
1000
HIER
1070
     0
1002
}
1002
{
1000
MANEDIT
1070
     0
1002
}
1002
{
1000
NOSEL
1070
     0
1002
}
1002
{
1000
BEHIND
1070
     0
1002
}
1002
{
1000
OTHER
1070
     0
1002
}
1002
{
1000
REACTOR
1002
}
  0
ARC
  5
26E9
  8
SAPA_PROFIL
 62
     4
 10
28.900555349944629
 20
138.2999998568848
 30
0.0
 40
0.25
 50
180.0
 51
270.0
1001
GENIUS_GENOBJ-N-FIL_13
1002
{
1000
OWNER
1000
GEN
1002
}
1001
GENIUS_GENODEF_13
1002
{
1000
HIER
1070
     0
1002
}
1002
{
1000
MANEDIT
1070
     0
1002
}
1002
{
1000
NOSEL
1070
     0
1002
}
1002
{
1000
BEHIND
1070
     0
1002
}
1002
{
1000
OTHER
1070
     0
1002
}
1002
{
1000
REACTOR
1002
}
  0
LINE
  5
26EA
  8
SAPA_PROFIL
 62
     4
 10
28.900555349944629
 20
138.0499998568848
 30
0.0
 11
32.500567349944497
 21
138.0499998568848
 31
0.0
1001
GENIUS_GENOBJ-N-FIL_13
1002
{
1000
OWNER
1000
GEN
1002
}
1001
GENIUS_GENODEF_13
1002
{
1000
HIER
1070
     0
1002
}
1002
{
1000
MANEDIT
1070
     0
1002
}
1002
{
1000
NOSEL
1070
     0
1002
}
1002
{
1000
BEHIND
1070
     0
1002
}
1002
{
1000
OTHER
1070
     0
1002
}
1002
{
1000
REACTOR
1002
}
  0
ARC
  5
26EB
  8
SAPA_PROFIL
 62
     4
 10
32.500567349944511
 20
138.2999998568848
 30
0.0
 40
0.25
 50
269.99999999999841
 51
0.0
1001
GENIUS_GENOBJ-N-FIL_13
1002
{
1000
OWNER
1000
GEN
1002
}
1001
GENIUS_GENODEF_13
1002
{
1000
HIER
1070
     0
1002
}
1002
{
1000
MANEDIT
1070
     0
1002
}
1002
{
1000
NOSEL
1070
     0
1002
}
1002
{
1000
BEHIND
1070
     0
1002
}
1002
{
1000
OTHER
1070
     0
1002
}
1002
{
1000
REACTOR
1002
}
  0
LINE
  5
26EC
  8
SAPA_PROFIL
 62
     4
 10
32.750567349944497
 20
138.2999998568848
 30
0.0
 11
32.750555707209507
 21
138.7366017784629
 31
0.0
1001
GENIUS_GENOBJ-N-FIL_13
1002
{
1000
OWNER
1000
GEN
1002
}
1001
GENIUS_GENODEF_13
1002
{
1000
HIER
1070
     0
1002
}
1002
{
1000
MANEDIT
1070
     0
1002
}
1002
{
1000
NOSEL
1070
     0
1002
}
1002
{
1000
BEHIND
1070
     0
1002
}
1002
{
1000
OTHER
1070
     0
1002
}
1002
{
1000
REACTOR
1002
}
  0
LINE
  5
26ED
  8
SAPA_PROFIL
 62
     4
 10
32.750555707209507
 20
138.7366017784629
 30
0.0
 11
31.7455863766113
 21
140.47725971910671
 31
0.0
1001
GENIUS_GENOBJ-N-FIL_13
1002
{
1000
OWNER
1000
GEN
1002
}
1001
GENIUS_GENODEF_13
1002
{
1000
HIER
1070
     0
1002
}
1002
{
1000
MANEDIT
1070
     0
1002
}
1002
{
1000
NOSEL
1070
     0
1002
}
1002
{
1000
BEHIND
1070
     0
1002
}
1002
{
1000
OTHER
1070
     0
1002
}
1002
{
1000
REACTOR
1002
}
  0
ARC
  5
26EE
  8
SAPA_PROFIL
 62
     4
 10
32.784816861152358
 20
141.0772597191071
 30
0.0
 40
1.1999999999999771
 50
180.0000000000027
 51
210.00000000002379
1001
GENIUS_GENOBJ-N-FIL_13
1002
{
1000
OWNER
1000
GEN
1002
}
1001
GENIUS_GENODEF_13
1002
{
1000
HIER
1070
     0
1002
}
1002
{
1000
MANEDIT
1070
     0
1002
}
1002
{
1000
NOSEL
1070
     0
1002
}
1002
{
1000
BEHIND
1070
     0
1002
}
1002
{
1000
OTHER
1070
     0
1002
}
1002
{
1000
REACTOR
1002
}
  0
LINE
  5
26EF
  8
SAPA_PROFIL
 62
     4
 10
31.58481686115238
 20
141.0772597191071
 30
0.0
 11
31.584816861153289
 21
143.79999985663559
 31
0.0
1001
GENIUS_GENOBJ-N-FIL_13
1002
{
1000
OWNER
1000
GEN
1002
}
1001
GENIUS_GENODEF_13
1002
{
1000
HIER
1070
     0
1002
}
1002
{
1000
MANEDIT
1070
     0
1002
}
1002
{
1000
NOSEL
1070
     0
1002
}
1002
{
1000
BEHIND
1070
     0
1002
}
1002
{
1000
OTHER
1070
     0
1002
}
1002
{
1000
REACTOR
1002
}
  0
ARC
  5
26F0
  8
SAPA_PROFIL
 62
     4
 10
32.784816861152883
 20
143.79999985663491
 30
0.0
 40
1.1999999999995901
 50
89.999999999772015
 51
179.9999999999674
1001
GENIUS_GENOBJ-N-FIL_13
1002
{
1000
OWNER
1000
GEN
1002
}
1001
GENIUS_GENODEF_13
1002
{
1000
HIER
1070
     0
1002
}
1002
{
1000
MANEDIT
1070
     0
1002
}
1002
{
1000
NOSEL
1070
     0
1002
}
1002
{
1000
BEHIND
1070
     0
1002
}
1002
{
1000
OTHER
1070
     0
1002
}
1002
{
1000
REACTOR
1002
}
  0
LINE
  5
26F1
  8
SAPA_PROFIL
 62
     4
 10
32.784816861157651
 20
144.9999998566345
 30
0.0
 11
58.582551888079252
 21
144.99999985654529
 31
0.0
1001
GENIUS_GENOBJ-N-FIL_13
1002
{
1000
OWNER
1000
GEN
1002
}
1001
GENIUS_GENODEF_13
1002
{
1000
HIER
1070
     0
1002
}
1002
{
1000
MANEDIT
1070
     0
1002
}
1002
{
1000
NOSEL
1070
     0
1002
}
1002
{
1000
BEHIND
1070
     0
1002
}
1002
{
1000
OTHER
1070
     0
1002
}
1002
{
1000
REACTOR
1002
}
  0
ARC
  5
26F2
  8
SAPA_PROFIL
 62
     4
 10
58.582551888079252
 20
145.4999998565454
 30
0.0
 40
0.5
 50
270.0
 51
0.0
1001
GENIUS_GENOBJ-N-FIL_13
1002
{
1000
OWNER
1000
GEN
1002
}
1001
GENIUS_GENODEF_13
1002
{
1000
HIER
1070
     0
1002
}
1002
{
1000
MANEDIT
1070
     0
1002
}
1002
{
1000
NOSEL
1070
     0
1002
}
1002
{
1000
BEHIND
1070
     0
1002
}
1002
{
1000
OTHER
1070
     0
1002
}
1002
{
1000
REACTOR
1002
}
  0
LINE
  5
26F3
  8
SAPA_PROFIL
 62
     4
 10
59.082551888079252
 20
145.4999998565454
 30
0.0
 11
59.082551888079699
 21
145.69999985654519
 31
0.0
1001
GENIUS_GENOBJ-N-FIL_13
1002
{
1000
OWNER
1000
GEN
1002
}
1001
GENIUS_GENODEF_13
1002
{
1000
HIER
1070
     0
1002
}
1002
{
1000
MANEDIT
1070
     0
1002
}
1002
{
1000
NOSEL
1070
     0
1002
}
1002
{
1000
BEHIND
1070
     0
1002
}
1002
{
1000
OTHER
1070
     0
1002
}
1002
{
1000
REACTOR
1002
}
  0
ARC
  5
26F4
  8
SAPA_PROFIL
 62
     4
 10
58.782551888079517
 20
145.69999985654519
 30
0.0
 40
0.3000000000001819
 50
0.0
 51
90.0
1001
GENIUS_GENOBJ-N-FIL_13
1002
{
1000
OWNER
1000
GEN
1002
}
1001
GENIUS_GENODEF_13
1002
{
1000
HIER
1070
     0
1002
}
1002
{
1000
MANEDIT
1070
     0
1002
}
1002
{
1000
NOSEL
1070
     0
1002
}
1002
{
1000
BEHIND
1070
     0
1002
}
1002
{
1000
OTHER
1070
     0
1002
}
1002
{
1000
REACTOR
1002
}
  0
LINE
  5
26F5
  8
SAPA_PROFIL
 62
     4
 10
58.782551888079517
 20
145.99999985654529
 30
0.0
 11
58.132551888077153
 21
145.99999985654529
 31
0.0
1001
GENIUS_GENOBJ-N-FIL_13
1002
{
1000
OWNER
1000
GEN
1002
}
1001
GENIUS_GENODEF_13
1002
{
1000
HIER
1070
     0
1002
}
1002
{
1000
MANEDIT
1070
     0
1002
}
1002
{
1000
NOSEL
1070
     0
1002
}
1002
{
1000
BEHIND
1070
     0
1002
}
1002
{
1000
OTHER
1070
     0
1002
}
1002
{
1000
REACTOR
1002
}
  0
ARC
  5
26F6
  8
SAPA_PROFIL
 62
     4
 10
58.132551888077842
 20
146.2999998565457
 30
0.0
 40
0.3000000000004093
 50
179.99999999986969
 51
269.99999999986971
1001
GENIUS_GENOBJ-N-FIL_13
1002
{
1000
OWNER
1000
GEN
1002
}
1001
GENIUS_GENODEF_13
1002
{
1000
HIER
1070
     0
1002
}
1002
{
1000
MANEDIT
1070
     0
1002
}
1002
{
1000
NOSEL
1070
     0
1002
}
1002
{
1000
BEHIND
1070
     0
1002
}
1002
{
1000
OTHER
1070
     0
1002
}
1002
{
1000
REACTOR
1002
}
  0
LINE
  5
26F7
  8
SAPA_PROFIL
 62
     4
 10
57.832551888077433
 20
146.29999985654641
 30
0.0
 11
57.832551888078342
 21
147.19999985654241
 31
0.0
1001
GENIUS_GENOBJ-N-FIL_13
1002
{
1000
OWNER
1000
GEN
1002
}
1001
GENIUS_GENODEF_13
1002
{
1000
HIER
1070
     0
1002
}
1002
{
1000
MANEDIT
1070
     0
1002
}
1002
{
1000
NOSEL
1070
     0
1002
}
1002
{
1000
BEHIND
1070
     0
1002
}
1002
{
1000
OTHER
1070
     0
1002
}
1002
{
1000
REACTOR
1002
}
  0
ARC
  5
26F8
  8
SAPA_PROFIL
 62
     4
 10
58.332551888077887
 20
147.19999985654289
 30
0.0
 40
0.4999999999995453
 50
90.000000000052125
 51
180.0000000000521
1001
GENIUS_GENOBJ-N-FIL_13
1002
{
1000
OWNER
1000
GEN
1002
}
1001
GENIUS_GENODEF_13
1002
{
1000
HIER
1070
     0
1002
}
1002
{
1000
MANEDIT
1070
     0
1002
}
1002
{
1000
NOSEL
1070
     0
1002
}
1002
{
1000
BEHIND
1070
     0
1002
}
1002
{
1000
OTHER
1070
     0
1002
}
1002
{
1000
REACTOR
1002
}
  0
LINE
  5
26F9
  8
SAPA_PROFIL
 62
     4
 10
58.332551888077433
 20
147.69999985654249
 30
0.0
 11
64.332551888079252
 21
147.69999985654249
 31
0.0
1001
GENIUS_GENOBJ-N-FIL_13
1002
{
1000
OWNER
1000
GEN
1002
}
1001
GENIUS_GENODEF_13
1002
{
1000
HIER
1070
     0
1002
}
1002
{
1000
MANEDIT
1070
     0
1002
}
1002
{
1000
NOSEL
1070
     0
1002
}
1002
{
1000
BEHIND
1070
     0
1002
}
1002
{
1000
OTHER
1070
     0
1002
}
1002
{
1000
REACTOR
1002
}
  0
ARC
  5
26FA
  8
SAPA_PROFIL
 62
     4
 10
64.332551888079252
 20
147.19999985654241
 30
0.0
 40
0.5
 50
0.0
 51
90.0
1001
GENIUS_GENOBJ-N-FIL_13
1002
{
1000
OWNER
1000
GEN
1002
}
1001
GENIUS_GENODEF_13
1002
{
1000
HIER
1070
     0
1002
}
1002
{
1000
MANEDIT
1070
     0
1002
}
1002
{
1000
NOSEL
1070
     0
1002
}
1002
{
1000
BEHIND
1070
     0
1002
}
1002
{
1000
OTHER
1070
     0
1002
}
1002
{
1000
REACTOR
1002
}
  0
LINE
  5
26FB
  8
SAPA_PROFIL
 62
     4
 10
64.832551888079252
 20
147.19999985654241
 30
0.0
 11
64.832551888079252
 21
146.29999985654371
 31
0.0
1001
GENIUS_GENOBJ-N-FIL_13
1002
{
1000
OWNER
1000
GEN
1002
}
1001
GENIUS_GENODEF_13
1002
{
1000
HIER
1070
     0
1002
}
1002
{
1000
MANEDIT
1070
     0
1002
}
1002
{
1000
NOSEL
1070
     0
1002
}
1002
{
1000
BEHIND
1070
     0
1002
}
1002
{
1000
OTHER
1070
     0
1002
}
1002
{
1000
REACTOR
1002
}
  0
ARC
  5
26FC
  8
SAPA_PROFIL
 62
     4
 10
64.532551888079638
 20
146.29999985654399
 30
0.0
 40
0.2999999999996135
 50
270.00000000032571
 51
359.99999999993491
1001
GENIUS_GENOBJ-N-FIL_13
1002
{
1000
OWNER
1000
GEN
1002
}
1001
GENIUS_GENODEF_13
1002
{
1000
HIER
1070
     0
1002
}
1002
{
1000
MANEDIT
1070
     0
1002
}
1002
{
1000
NOSEL
1070
     0
1002
}
1002
{
1000
BEHIND
1070
     0
1002
}
1002
{
1000
OTHER
1070
     0
1002
}
1002
{
1000
REACTOR
1002
}
  0
LINE
  5
26FD
  8
SAPA_PROFIL
 62
     4
 10
64.532551888081343
 20
145.99999985654441
 30
0.0
 11
63.882551888079433
 21
145.99999985653989
 31
0.0
1001
GENIUS_GENOBJ-N-FIL_13
1002
{
1000
OWNER
1000
GEN
1002
}
1001
GENIUS_GENODEF_13
1002
{
1000
HIER
1070
     0
1002
}
1002
{
1000
MANEDIT
1070
     0
1002
}
1002
{
1000
NOSEL
1070
     0
1002
}
1002
{
1000
BEHIND
1070
     0
1002
}
1002
{
1000
OTHER
1070
     0
1002
}
1002
{
1000
REACTOR
1002
}
  0
ARC
  5
26FE
  8
SAPA_PROFIL
 62
     4
 10
63.88255188808148
 20
145.6999998565399
 30
0.0
 40
0.2999999999999545
 50
90.000000000390827
 51
180.0000000003908
1001
GENIUS_GENOBJ-N-FIL_13
1002
{
1000
OWNER
1000
GEN
1002
}
1001
GENIUS_GENODEF_13
1002
{
1000
HIER
1070
     0
1002
}
1002
{
1000
MANEDIT
1070
     0
1002
}
1002
{
1000
NOSEL
1070
     0
1002
}
1002
{
1000
BEHIND
1070
     0
1002
}
1002
{
1000
OTHER
1070
     0
1002
}
1002
{
1000
REACTOR
1002
}
  0
LINE
  5
26FF
  8
SAPA_PROFIL
 62
     4
 10
63.582551888081518
 20
145.69999985653789
 30
0.0
 11
63.582551888082428
 21
145.4999998565454
 31
0.0
1001
GENIUS_GENOBJ-N-FIL_13
1002
{
1000
OWNER
1000
GEN
1002
}
1001
GENIUS_GENODEF_13
1002
{
1000
HIER
1070
     0
1002
}
1002
{
1000
MANEDIT
1070
     0
1002
}
1002
{
1000
NOSEL
1070
     0
1002
}
1002
{
1000
BEHIND
1070
     0
1002
}
1002
{
1000
OTHER
1070
     0
1002
}
1002
{
1000
REACTOR
1002
}
  0
ARC
  5
2700
  8
SAPA_PROFIL
 62
     4
 10
64.082551888082435
 20
145.4999998565454
 30
0.0
 40
0.5
 50
180.0
 51
270.0
1001
GENIUS_GENOBJ-N-FIL_13
1002
{
1000
OWNER
1000
GEN
1002
}
1001
GENIUS_GENODEF_13
1002
{
1000
HIER
1070
     0
1002
}
1002
{
1000
MANEDIT
1070
     0
1002
}
1002
{
1000
NOSEL
1070
     0
1002
}
1002
{
1000
BEHIND
1070
     0
1002
}
1002
{
1000
OTHER
1070
     0
1002
}
1002
{
1000
REACTOR
1002
}
  0
LINE
  5
2701
  8
SAPA_PROFIL
 62
     4
 10
64.082551888082435
 20
144.99999985654529
 30
0.0
 11
67.082551888082435
 21
144.99999985654529
 31
0.0
1001
GENIUS_GENOBJ-N-FIL_13
1002
{
1000
OWNER
1000
GEN
1002
}
1001
GENIUS_GENODEF_13
1002
{
1000
HIER
1070
     0
1002
}
1002
{
1000
MANEDIT
1070
     0
1002
}
1002
{
1000
NOSEL
1070
     0
1002
}
1002
{
1000
BEHIND
1070
     0
1002
}
1002
{
1000
OTHER
1070
     0
1002
}
1002
{
1000
REACTOR
1002
}
  0
ARC
  5
2702
  8
SAPA_PROFIL
 62
     4
 10
67.082551888082435
 20
145.4999998565454
 30
0.0
 40
0.5
 50
270.0
 51
0.0
1001
GENIUS_GENOBJ-N-FIL_13
1002
{
1000
OWNER
1000
GEN
1002
}
1001
GENIUS_GENODEF_13
1002
{
1000
HIER
1070
     0
1002
}
1002
{
1000
MANEDIT
1070
     0
1002
}
1002
{
1000
NOSEL
1070
     0
1002
}
1002
{
1000
BEHIND
1070
     0
1002
}
1002
{
1000
OTHER
1070
     0
1002
}
1002
{
1000
REACTOR
1002
}
  0
LINE
  5
2703
  8
SAPA_PROFIL
 62
     4
 10
67.582551888082435
 20
145.4999998565454
 30
0.0
 11
67.582551888082435
 21
145.69999985654519
 31
0.0
1001
GENIUS_GENOBJ-N-FIL_13
1002
{
1000
OWNER
1000
GEN
1002
}
1001
GENIUS_GENODEF_13
1002
{
1000
HIER
1070
     0
1002
}
1002
{
1000
MANEDIT
1070
     0
1002
}
1002
{
1000
NOSEL
1070
     0
1002
}
1002
{
1000
BEHIND
1070
     0
1002
}
1002
{
1000
OTHER
1070
     0
1002
}
1002
{
1000
REACTOR
1002
}
  0
ARC
  5
2704
  8
SAPA_PROFIL
 62
     4
 10
67.282551888082253
 20
145.69999985654519
 30
0.0
 40
0.3000000000001819
 50
0.0
 51
90.0
1001
GENIUS_GENOBJ-N-FIL_13
1002
{
1000
OWNER
1000
GEN
1002
}
1001
GENIUS_GENODEF_13
1002
{
1000
HIER
1070
     0
1002
}
1002
{
1000
MANEDIT
1070
     0
1002
}
1002
{
1000
NOSEL
1070
     0
1002
}
1002
{
1000
BEHIND
1070
     0
1002
}
1002
{
1000
OTHER
1070
     0
1002
}
1002
{
1000
REACTOR
1002
}
  0
LINE
  5
2705
  8
SAPA_PROFIL
 62
     4
 10
67.282551888082253
 20
145.99999985654529
 30
0.0
 11
66.632551888082617
 21
145.99999985654529
 31
0.0
1001
GENIUS_GENOBJ-N-FIL_13
1002
{
1000
OWNER
1000
GEN
1002
}
1001
GENIUS_GENODEF_13
1002
{
1000
HIER
1070
     0
1002
}
1002
{
1000
MANEDIT
1070
     0
1002
}
1002
{
1000
NOSEL
1070
     0
1002
}
1002
{
1000
BEHIND
1070
     0
1002
}
1002
{
1000
OTHER
1070
     0
1002
}
1002
{
1000
REACTOR
1002
}
  0
ARC
  5
2706
  8
SAPA_PROFIL
 62
     4
 10
66.632551888083071
 20
146.29999985654601
 30
0.0
 40
0.3000000000006366
 50
179.99999999991309
 51
269.99999999991309
1001
GENIUS_GENOBJ-N-FIL_13
1002
{
1000
OWNER
1000
GEN
1002
}
1001
GENIUS_GENODEF_13
1002
{
1000
HIER
1070
     0
1002
}
1002
{
1000
MANEDIT
1070
     0
1002
}
1002
{
1000
NOSEL
1070
     0
1002
}
1002
{
1000
BEHIND
1070
     0
1002
}
1002
{
1000
OTHER
1070
     0
1002
}
1002
{
1000
REACTOR
1002
}
  0
LINE
  5
2707
  8
SAPA_PROFIL
 62
     4
 10
66.332551888082435
 20
146.29999985654641
 30
0.0
 11
66.332551888082435
 21
147.19999985654241
 31
0.0
1001
GENIUS_GENOBJ-N-FIL_13
1002
{
1000
OWNER
1000
GEN
1002
}
1001
GENIUS_GENODEF_13
1002
{
1000
HIER
1070
     0
1002
}
1002
{
1000
MANEDIT
1070
     0
1002
}
1002
{
1000
NOSEL
1070
     0
1002
}
1002
{
1000
BEHIND
1070
     0
1002
}
1002
{
1000
OTHER
1070
     0
1002
}
1002
{
1000
REACTOR
1002
}
  0
ARC
  5
2708
  8
SAPA_PROFIL
 62
     4
 10
66.832551888082435
 20
147.19999985654241
 30
0.0
 40
0.5
 50
90.0
 51
180.0
1001
GENIUS_GENOBJ-N-FIL_13
1002
{
1000
OWNER
1000
GEN
1002
}
1001
GENIUS_GENODEF_13
1002
{
1000
HIER
1070
     0
1002
}
1002
{
1000
MANEDIT
1070
     0
1002
}
1002
{
1000
NOSEL
1070
     0
1002
}
1002
{
1000
BEHIND
1070
     0
1002
}
1002
{
1000
OTHER
1070
     0
1002
}
1002
{
1000
REACTOR
1002
}
  0
LINE
  5
2709
  8
SAPA_PROFIL
 62
     4
 10
66.832551888082435
 20
147.69999985654249
 30
0.0
 11
72.832551888082435
 21
147.69999985654249
 31
0.0
1001
GENIUS_GENOBJ-N-FIL_13
1002
{
1000
OWNER
1000
GEN
1002
}
1001
GENIUS_GENODEF_13
1002
{
1000
HIER
1070
     0
1002
}
1002
{
1000
MANEDIT
1070
     0
1002
}
1002
{
1000
NOSEL
1070
     0
1002
}
1002
{
1000
BEHIND
1070
     0
1002
}
1002
{
1000
OTHER
1070
     0
1002
}
1002
{
1000
REACTOR
1002
}
  0
ARC
  5
270A
  8
SAPA_PROFIL
 62
     4
 10
72.832551888082435
 20
147.19999985654241
 30
0.0
 40
0.5
 50
0.0
 51
90.0
1001
GENIUS_GENOBJ-N-FIL_13
1002
{
1000
OWNER
1000
GEN
1002
}
1001
GENIUS_GENODEF_13
1002
{
1000
HIER
1070
     0
1002
}
1002
{
1000
MANEDIT
1070
     0
1002
}
1002
{
1000
NOSEL
1070
     0
1002
}
1002
{
1000
BEHIND
1070
     0
1002
}
1002
{
1000
OTHER
1070
     0
1002
}
1002
{
1000
REACTOR
1002
}
  0
LINE
  5
270B
  8
SAPA_PROFIL
 62
     4
 10
73.332551888082435
 20
147.19999985654241
 30
0.0
 11
73.332551888082435
 21
146.29999985654641
 31
0.0
1001
GENIUS_GENOBJ-N-FIL_13
1002
{
1000
OWNER
1000
GEN
1002
}
1001
GENIUS_GENODEF_13
1002
{
1000
HIER
1070
     0
1002
}
1002
{
1000
MANEDIT
1070
     0
1002
}
1002
{
1000
NOSEL
1070
     0
1002
}
1002
{
1000
BEHIND
1070
     0
1002
}
1002
{
1000
OTHER
1070
     0
1002
}
1002
{
1000
REACTOR
1002
}
  0
ARC
  5
270C
  8
SAPA_PROFIL
 62
     4
 10
73.032551888081784
 20
146.29999985654601
 30
0.0
 40
0.3000000000006366
 50
270.0000000000868
 51
0.0000000000868503
1001
GENIUS_GENOBJ-N-FIL_13
1002
{
1000
OWNER
1000
GEN
1002
}
1001
GENIUS_GENODEF_13
1002
{
1000
HIER
1070
     0
1002
}
1002
{
1000
MANEDIT
1070
     0
1002
}
1002
{
1000
NOSEL
1070
     0
1002
}
1002
{
1000
BEHIND
1070
     0
1002
}
1002
{
1000
OTHER
1070
     0
1002
}
1002
{
1000
REACTOR
1002
}
  0
LINE
  5
270D
  8
SAPA_PROFIL
 62
     4
 10
73.032551888082253
 20
145.99999985654529
 30
0.0
 11
72.382551888082617
 21
145.99999985654529
 31
0.0
1001
GENIUS_GENOBJ-N-FIL_13
1002
{
1000
OWNER
1000
GEN
1002
}
1001
GENIUS_GENODEF_13
1002
{
1000
HIER
1070
     0
1002
}
1002
{
1000
MANEDIT
1070
     0
1002
}
1002
{
1000
NOSEL
1070
     0
1002
}
1002
{
1000
BEHIND
1070
     0
1002
}
1002
{
1000
OTHER
1070
     0
1002
}
1002
{
1000
REACTOR
1002
}
  0
ARC
  5
270E
  8
SAPA_PROFIL
 62
     4
 10
72.382551888082617
 20
145.69999985654519
 30
0.0
 40
0.3000000000001819
 50
90.0
 51
180.0
1001
GENIUS_GENOBJ-N-FIL_13
1002
{
1000
OWNER
1000
GEN
1002
}
1001
GENIUS_GENODEF_13
1002
{
1000
HIER
1070
     0
1002
}
1002
{
1000
MANEDIT
1070
     0
1002
}
1002
{
1000
NOSEL
1070
     0
1002
}
1002
{
1000
BEHIND
1070
     0
1002
}
1002
{
1000
OTHER
1070
     0
1002
}
1002
{
1000
REACTOR
1002
}
  0
LINE
  5
270F
  8
SAPA_PROFIL
 62
     4
 10
72.082551888082435
 20
145.69999985654519
 30
0.0
 11
72.082551888082435
 21
145.4999998565454
 31
0.0
1001
GENIUS_GENOBJ-N-FIL_13
1002
{
1000
OWNER
1000
GEN
1002
}
1001
GENIUS_GENODEF_13
1002
{
1000
HIER
1070
     0
1002
}
1002
{
1000
MANEDIT
1070
     0
1002
}
1002
{
1000
NOSEL
1070
     0
1002
}
1002
{
1000
BEHIND
1070
     0
1002
}
1002
{
1000
OTHER
1070
     0
1002
}
1002
{
1000
REACTOR
1002
}
  0
ARC
  5
2710
  8
SAPA_PROFIL
 62
     4
 10
72.582551888082435
 20
145.4999998565454
 30
0.0
 40
0.5
 50
180.0
 51
270.0
1001
GENIUS_GENOBJ-N-FIL_13
1002
{
1000
OWNER
1000
GEN
1002
}
1001
GENIUS_GENODEF_13
1002
{
1000
HIER
1070
     0
1002
}
1002
{
1000
MANEDIT
1070
     0
1002
}
1002
{
1000
NOSEL
1070
     0
1002
}
1002
{
1000
BEHIND
1070
     0
1002
}
1002
{
1000
OTHER
1070
     0
1002
}
1002
{
1000
REACTOR
1002
}
  0
LINE
  5
2711
  8
SAPA_PROFIL
 62
     4
 10
72.582551888082435
 20
144.99999985654529
 30
0.0
 11
74.332551888082435
 21
144.99999985654631
 31
0.0
1001
GENIUS_GENOBJ-N-FIL_13
1002
{
1000
OWNER
1000
GEN
1002
}
1001
GENIUS_GENODEF_13
1002
{
1000
HIER
1070
     0
1002
}
1002
{
1000
MANEDIT
1070
     0
1002
}
1002
{
1000
NOSEL
1070
     0
1002
}
1002
{
1000
BEHIND
1070
     0
1002
}
1002
{
1000
OTHER
1070
     0
1002
}
1002
{
1000
REACTOR
1002
}
  0
ARC
  5
2712
  8
SAPA_PROFIL
 62
     4
 10
74.332551887915201
 20
145.49999985671349
 30
0.0
 40
0.5000000001672335
 50
270.00000001916351
 51
0.0000000190853636
1001
GENIUS_GENOBJ-N-FIL_13
1002
{
1000
OWNER
1000
GEN
1002
}
1001
GENIUS_GENODEF_13
1002
{
1000
HIER
1070
     0
1002
}
1002
{
1000
MANEDIT
1070
     0
1002
}
1002
{
1000
NOSEL
1070
     0
1002
}
1002
{
1000
BEHIND
1070
     0
1002
}
1002
{
1000
OTHER
1070
     0
1002
}
1002
{
1000
REACTOR
1002
}
  0
LINE
  5
2713
  8
SAPA_PROFIL
 62
     4
 10
74.832551888082435
 20
145.49999985688001
 30
0.0
 11
74.832551888082435
 21
158.49999985688731
 31
0.0
1001
GENIUS_GENOBJ-N-FIL_13
1002
{
1000
OWNER
1000
GEN
1002
}
1001
GENIUS_GENODEF_13
1002
{
1000
HIER
1070
     0
1002
}
1002
{
1000
MANEDIT
1070
     0
1002
}
1002
{
1000
NOSEL
1070
     0
1002
}
1002
{
1000
BEHIND
1070
     0
1002
}
1002
{
1000
OTHER
1070
     0
1002
}
1002
{
1000
REACTOR
1002
}
  0
ARC
  5
2714
  8
SAPA_PROFIL
 62
     4
 10
74.332551887945215
 20
158.49999985702661
 30
0.0
 40
0.5000000001372201
 50
359.99999998404132
 51
89.999999984067301
1001
GENIUS_GENOBJ-N-FIL_13
1002
{
1000
OWNER
1000
GEN
1002
}
1001
GENIUS_GENODEF_13
1002
{
1000
HIER
1070
     0
1002
}
1002
{
1000
MANEDIT
1070
     0
1002
}
1002
{
1000
NOSEL
1070
     0
1002
}
1002
{
1000
BEHIND
1070
     0
1002
}
1002
{
1000
OTHER
1070
     0
1002
}
1002
{
1000
REACTOR
1002
}
  0
LINE
  5
2715
  8
SAPA_PROFIL
 62
     4
 10
74.332551888084254
 20
158.9999998571638
 30
0.0
 11
72.582551888084254
 21
158.9999998571638
 31
0.0
1001
GENIUS_GENOBJ-N-FIL_13
1002
{
1000
OWNER
1000
GEN
1002
}
1001
GENIUS_GENODEF_13
1002
{
1000
HIER
1070
     0
1002
}
1002
{
1000
MANEDIT
1070
     0
1002
}
1002
{
1000
NOSEL
1070
     0
1002
}
1002
{
1000
BEHIND
1070
     0
1002
}
1002
{
1000
OTHER
1070
     0
1002
}
1002
{
1000
REACTOR
1002
}
  0
ARC
  5
2716
  8
SAPA_PROFIL
 62
     4
 10
72.582551888084254
 20
158.4999998571638
 30
0.0
 40
0.5
 50
90.0
 51
180.0
1001
GENIUS_GENOBJ-N-FIL_13
1002
{
1000
OWNER
1000
GEN
1002
}
1001
GENIUS_GENODEF_13
1002
{
1000
HIER
1070
     0
1002
}
1002
{
1000
MANEDIT
1070
     0
1002
}
1002
{
1000
NOSEL
1070
     0
1002
}
1002
{
1000
BEHIND
1070
     0
1002
}
1002
{
1000
OTHER
1070
     0
1002
}
1002
{
1000
REACTOR
1002
}
  0
LINE
  5
2717
  8
SAPA_PROFIL
 62
     4
 10
72.082551888084254
 20
158.4999998571638
 30
0.0
 11
72.082551888084254
 21
158.29999985716401
 31
0.0
1001
GENIUS_GENOBJ-N-FIL_13
1002
{
1000
OWNER
1000
GEN
1002
}
1001
GENIUS_GENODEF_13
1002
{
1000
HIER
1070
     0
1002
}
1002
{
1000
MANEDIT
1070
     0
1002
}
1002
{
1000
NOSEL
1070
     0
1002
}
1002
{
1000
BEHIND
1070
     0
1002
}
1002
{
1000
OTHER
1070
     0
1002
}
1002
{
1000
REACTOR
1002
}
  0
ARC
  5
2718
  8
SAPA_PROFIL
 62
     4
 10
72.382551888084436
 20
158.29999985716401
 30
0.0
 40
0.3000000000001819
 50
180.0
 51
270.0
1001
GENIUS_GENOBJ-N-FIL_13
1002
{
1000
OWNER
1000
GEN
1002
}
1001
GENIUS_GENODEF_13
1002
{
1000
HIER
1070
     0
1002
}
1002
{
1000
MANEDIT
1070
     0
1002
}
1002
{
1000
NOSEL
1070
     0
1002
}
1002
{
1000
BEHIND
1070
     0
1002
}
1002
{
1000
OTHER
1070
     0
1002
}
1002
{
1000
REACTOR
1002
}
  0
LINE
  5
2719
  8
SAPA_PROFIL
 62
     4
 10
72.382551888084436
 20
157.9999998571638
 30
0.0
 11
73.032551888084072
 21
157.9999998571638
 31
0.0
1001
GENIUS_GENOBJ-N-FIL_13
1002
{
1000
OWNER
1000
GEN
1002
}
1001
GENIUS_GENODEF_13
1002
{
1000
HIER
1070
     0
1002
}
1002
{
1000
MANEDIT
1070
     0
1002
}
1002
{
1000
NOSEL
1070
     0
1002
}
1002
{
1000
BEHIND
1070
     0
1002
}
1002
{
1000
OTHER
1070
     0
1002
}
1002
{
1000
REACTOR
1002
}
  0
ARC
  5
271A
  8
SAPA_PROFIL
 62
     4
 10
73.032551888084527
 20
157.6999998571641
 30
0.0
 40
0.2999999999997271
 50
0.0000000000868503
 51
90.000000000086857
1001
GENIUS_GENOBJ-N-FIL_13
1002
{
1000
OWNER
1000
GEN
1002
}
1001
GENIUS_GENODEF_13
1002
{
1000
HIER
1070
     0
1002
}
1002
{
1000
MANEDIT
1070
     0
1002
}
1002
{
1000
NOSEL
1070
     0
1002
}
1002
{
1000
BEHIND
1070
     0
1002
}
1002
{
1000
OTHER
1070
     0
1002
}
1002
{
1000
REACTOR
1002
}
  0
LINE
  5
271B
  8
SAPA_PROFIL
 62
     4
 10
73.332551888084254
 20
157.6999998571645
 30
0.0
 11
73.332551888084254
 21
156.79999985716671
 31
0.0
1001
GENIUS_GENOBJ-N-FIL_13
1002
{
1000
OWNER
1000
GEN
1002
}
1001
GENIUS_GENODEF_13
1002
{
1000
HIER
1070
     0
1002
}
1002
{
1000
MANEDIT
1070
     0
1002
}
1002
{
1000
NOSEL
1070
     0
1002
}
1002
{
1000
BEHIND
1070
     0
1002
}
1002
{
1000
OTHER
1070
     0
1002
}
1002
{
1000
REACTOR
1002
}
  0
ARC
  5
271C
  8
SAPA_PROFIL
 62
     4
 10
72.832551888084254
 20
156.79999985716671
 30
0.0
 40
0.5
 50
270.0
 51
0.0
1001
GENIUS_GENOBJ-N-FIL_13
1002
{
1000
OWNER
1000
GEN
1002
}
1001
GENIUS_GENODEF_13
1002
{
1000
HIER
1070
     0
1002
}
1002
{
1000
MANEDIT
1070
     0
1002
}
1002
{
1000
NOSEL
1070
     0
1002
}
1002
{
1000
BEHIND
1070
     0
1002
}
1002
{
1000
OTHER
1070
     0
1002
}
1002
{
1000
REACTOR
1002
}
  0
LINE
  5
271D
  8
SAPA_PROFIL
 62
     4
 10
72.832551888084254
 20
156.29999985716671
 30
0.0
 11
66.832551888084254
 21
156.29999985716671
 31
0.0
1001
GENIUS_GENOBJ-N-FIL_13
1002
{
1000
OWNER
1000
GEN
1002
}
1001
GENIUS_GENODEF_13
1002
{
1000
HIER
1070
     0
1002
}
1002
{
1000
MANEDIT
1070
     0
1002
}
1002
{
1000
NOSEL
1070
     0
1002
}
1002
{
1000
BEHIND
1070
     0
1002
}
1002
{
1000
OTHER
1070
     0
1002
}
1002
{
1000
REACTOR
1002
}
  0
ARC
  5
271E
  8
SAPA_PROFIL
 62
     4
 10
66.832551888084254
 20
156.79999985716671
 30
0.0
 40
0.5
 50
180.0
 51
270.0
1001
GENIUS_GENOBJ-N-FIL_13
1002
{
1000
OWNER
1000
GEN
1002
}
1001
GENIUS_GENODEF_13
1002
{
1000
HIER
1070
     0
1002
}
1002
{
1000
MANEDIT
1070
     0
1002
}
1002
{
1000
NOSEL
1070
     0
1002
}
1002
{
1000
BEHIND
1070
     0
1002
}
1002
{
1000
OTHER
1070
     0
1002
}
1002
{
1000
REACTOR
1002
}
  0
LINE
  5
271F
  8
SAPA_PROFIL
 62
     4
 10
66.332551888084254
 20
156.79999985716671
 30
0.0
 11
66.332551888084254
 21
157.6999998571645
 31
0.0
1001
GENIUS_GENOBJ-N-FIL_13
1002
{
1000
OWNER
1000
GEN
1002
}
1001
GENIUS_GENODEF_13
1002
{
1000
HIER
1070
     0
1002
}
1002
{
1000
MANEDIT
1070
     0
1002
}
1002
{
1000
NOSEL
1070
     0
1002
}
1002
{
1000
BEHIND
1070
     0
1002
}
1002
{
1000
OTHER
1070
     0
1002
}
1002
{
1000
REACTOR
1002
}
  0
ARC
  5
2720
  8
SAPA_PROFIL
 62
     4
 10
66.632551888083981
 20
157.6999998571641
 30
0.0
 40
0.2999999999997271
 50
89.999999999913143
 51
179.99999999991309
1001
GENIUS_GENOBJ-N-FIL_13
1002
{
1000
OWNER
1000
GEN
1002
}
1001
GENIUS_GENODEF_13
1002
{
1000
HIER
1070
     0
1002
}
1002
{
1000
MANEDIT
1070
     0
1002
}
1002
{
1000
NOSEL
1070
     0
1002
}
1002
{
1000
BEHIND
1070
     0
1002
}
1002
{
1000
OTHER
1070
     0
1002
}
1002
{
1000
REACTOR
1002
}
  0
LINE
  5
2721
  8
SAPA_PROFIL
 62
     4
 10
66.632551888084436
 20
157.9999998571638
 30
0.0
 11
67.282551888084072
 21
157.9999998571638
 31
0.0
1001
GENIUS_GENOBJ-N-FIL_13
1002
{
1000
OWNER
1000
GEN
1002
}
1001
GENIUS_GENODEF_13
1002
{
1000
HIER
1070
     0
1002
}
1002
{
1000
MANEDIT
1070
     0
1002
}
1002
{
1000
NOSEL
1070
     0
1002
}
1002
{
1000
BEHIND
1070
     0
1002
}
1002
{
1000
OTHER
1070
     0
1002
}
1002
{
1000
REACTOR
1002
}
  0
ARC
  5
2722
  8
SAPA_PROFIL
 62
     4
 10
67.282551888084072
 20
158.29999985716401
 30
0.0
 40
0.3000000000001819
 50
270.0
 51
0.0
1001
GENIUS_GENOBJ-N-FIL_13
1002
{
1000
OWNER
1000
GEN
1002
}
1001
GENIUS_GENODEF_13
1002
{
1000
HIER
1070
     0
1002
}
1002
{
1000
MANEDIT
1070
     0
1002
}
1002
{
1000
NOSEL
1070
     0
1002
}
1002
{
1000
BEHIND
1070
     0
1002
}
1002
{
1000
OTHER
1070
     0
1002
}
1002
{
1000
REACTOR
1002
}
  0
LINE
  5
2723
  8
SAPA_PROFIL
 62
     4
 10
67.582551888084254
 20
158.29999985716401
 30
0.0
 11
67.582551888084254
 21
158.4999998571638
 31
0.0
1001
GENIUS_GENOBJ-N-FIL_13
1002
{
1000
OWNER
1000
GEN
1002
}
1001
GENIUS_GENODEF_13
1002
{
1000
HIER
1070
     0
1002
}
1002
{
1000
MANEDIT
1070
     0
1002
}
1002
{
1000
NOSEL
1070
     0
1002
}
1002
{
1000
BEHIND
1070
     0
1002
}
1002
{
1000
OTHER
1070
     0
1002
}
1002
{
1000
REACTOR
1002
}
  0
ARC
  5
2724
  8
SAPA_PROFIL
 62
     4
 10
67.082551888084254
 20
158.4999998571638
 30
0.0
 40
0.5
 50
0.0
 51
90.0
1001
GENIUS_GENOBJ-N-FIL_13
1002
{
1000
OWNER
1000
GEN
1002
}
1001
GENIUS_GENODEF_13
1002
{
1000
HIER
1070
     0
1002
}
1002
{
1000
MANEDIT
1070
     0
1002
}
1002
{
1000
NOSEL
1070
     0
1002
}
1002
{
1000
BEHIND
1070
     0
1002
}
1002
{
1000
OTHER
1070
     0
1002
}
1002
{
1000
REACTOR
1002
}
  0
LINE
  5
2725
  8
SAPA_PROFIL
 62
     4
 10
67.082551888084254
 20
158.9999998571638
 30
0.0
 11
64.082551888084254
 21
158.9999998571638
 31
0.0
1001
GENIUS_GENOBJ-N-FIL_13
1002
{
1000
OWNER
1000
GEN
1002
}
1001
GENIUS_GENODEF_13
1002
{
1000
HIER
1070
     0
1002
}
1002
{
1000
MANEDIT
1070
     0
1002
}
1002
{
1000
NOSEL
1070
     0
1002
}
1002
{
1000
BEHIND
1070
     0
1002
}
1002
{
1000
OTHER
1070
     0
1002
}
1002
{
1000
REACTOR
1002
}
  0
ARC
  5
2726
  8
SAPA_PROFIL
 62
     4
 10
64.082551888084254
 20
158.4999998571638
 30
0.0
 40
0.5
 50
90.0
 51
180.0
1001
GENIUS_GENOBJ-N-FIL_13
1002
{
1000
OWNER
1000
GEN
1002
}
1001
GENIUS_GENODEF_13
1002
{
1000
HIER
1070
     0
1002
}
1002
{
1000
MANEDIT
1070
     0
1002
}
1002
{
1000
NOSEL
1070
     0
1002
}
1002
{
1000
BEHIND
1070
     0
1002
}
1002
{
1000
OTHER
1070
     0
1002
}
1002
{
1000
REACTOR
1002
}
  0
LINE
  5
2727
  8
SAPA_PROFIL
 62
     4
 10
63.582551888084247
 20
158.4999998571638
 30
0.0
 11
63.582551888083337
 21
158.29999985717129
 31
0.0
1001
GENIUS_GENOBJ-N-FIL_13
1002
{
1000
OWNER
1000
GEN
1002
}
1001
GENIUS_GENODEF_13
1002
{
1000
HIER
1070
     0
1002
}
1002
{
1000
MANEDIT
1070
     0
1002
}
1002
{
1000
NOSEL
1070
     0
1002
}
1002
{
1000
BEHIND
1070
     0
1002
}
1002
{
1000
OTHER
1070
     0
1002
}
1002
{
1000
REACTOR
1002
}
  0
ARC
  5
2728
  8
SAPA_PROFIL
 62
     4
 10
63.882551888083412
 20
158.2999998571693
 30
0.0
 40
0.3000000000000682
 50
179.99999999963089
 51
269.99999999958749
1001
GENIUS_GENOBJ-N-FIL_13
1002
{
1000
OWNER
1000
GEN
1002
}
1001
GENIUS_GENODEF_13
1002
{
1000
HIER
1070
     0
1002
}
1002
{
1000
MANEDIT
1070
     0
1002
}
1002
{
1000
NOSEL
1070
     0
1002
}
1002
{
1000
BEHIND
1070
     0
1002
}
1002
{
1000
OTHER
1070
     0
1002
}
1002
{
1000
REACTOR
1002
}
  0
LINE
  5
2729
  8
SAPA_PROFIL
 62
     4
 10
63.882551888081252
 20
157.9999998571692
 30
0.0
 11
64.532551888082253
 21
157.9999998571665
 31
0.0
1001
GENIUS_GENOBJ-N-FIL_13
1002
{
1000
OWNER
1000
GEN
1002
}
1001
GENIUS_GENODEF_13
1002
{
1000
HIER
1070
     0
1002
}
1002
{
1000
MANEDIT
1070
     0
1002
}
1002
{
1000
NOSEL
1070
     0
1002
}
1002
{
1000
BEHIND
1070
     0
1002
}
1002
{
1000
OTHER
1070
     0
1002
}
1002
{
1000
REACTOR
1002
}
  0
ARC
  5
272A
  8
SAPA_PROFIL
 62
     4
 10
64.532551888080889
 20
157.69999985716589
 30
0.0
 40
0.3000000000006366
 50
359.99999999991309
 51
89.999999999739444
1001
GENIUS_GENOBJ-N-FIL_13
1002
{
1000
OWNER
1000
GEN
1002
}
1001
GENIUS_GENODEF_13
1002
{
1000
HIER
1070
     0
1002
}
1002
{
1000
MANEDIT
1070
     0
1002
}
1002
{
1000
NOSEL
1070
     0
1002
}
1002
{
1000
BEHIND
1070
     0
1002
}
1002
{
1000
OTHER
1070
     0
1002
}
1002
{
1000
REACTOR
1002
}
  0
LINE
  5
272B
  8
SAPA_PROFIL
 62
     4
 10
64.832551888081525
 20
157.69999985716541
 30
0.0
 11
64.832551888081525
 21
156.79999985716671
 31
0.0
1001
GENIUS_GENOBJ-N-FIL_13
1002
{
1000
OWNER
1000
GEN
1002
}
1001
GENIUS_GENODEF_13
1002
{
1000
HIER
1070
     0
1002
}
1002
{
1000
MANEDIT
1070
     0
1002
}
1002
{
1000
NOSEL
1070
     0
1002
}
1002
{
1000
BEHIND
1070
     0
1002
}
1002
{
1000
OTHER
1070
     0
1002
}
1002
{
1000
REACTOR
1002
}
  0
ARC
  5
272C
  8
SAPA_PROFIL
 62
     4
 10
64.332551888081525
 20
156.79999985716671
 30
0.0
 40
0.5
 50
270.0
 51
0.0
1001
GENIUS_GENOBJ-N-FIL_13
1002
{
1000
OWNER
1000
GEN
1002
}
1001
GENIUS_GENODEF_13
1002
{
1000
HIER
1070
     0
1002
}
1002
{
1000
MANEDIT
1070
     0
1002
}
1002
{
1000
NOSEL
1070
     0
1002
}
1002
{
1000
BEHIND
1070
     0
1002
}
1002
{
1000
OTHER
1070
     0
1002
}
1002
{
1000
REACTOR
1002
}
  0
LINE
  5
272D
  8
SAPA_PROFIL
 62
     4
 10
64.332551888081525
 20
156.29999985716671
 30
0.0
 11
58.332551888079252
 21
156.29999985717399
 31
0.0
1001
GENIUS_GENOBJ-N-FIL_13
1002
{
1000
OWNER
1000
GEN
1002
}
1001
GENIUS_GENODEF_13
1002
{
1000
HIER
1070
     0
1002
}
1002
{
1000
MANEDIT
1070
     0
1002
}
1002
{
1000
NOSEL
1070
     0
1002
}
1002
{
1000
BEHIND
1070
     0
1002
}
1002
{
1000
OTHER
1070
     0
1002
}
1002
{
1000
REACTOR
1002
}
  0
ARC
  5
272E
  8
SAPA_PROFIL
 62
     4
 10
58.332551888079252
 20
156.79999985717399
 30
0.0
 40
0.5
 50
180.0
 51
270.0
1001
GENIUS_GENOBJ-N-FIL_13
1002
{
1000
OWNER
1000
GEN
1002
}
1001
GENIUS_GENODEF_13
1002
{
1000
HIER
1070
     0
1002
}
1002
{
1000
MANEDIT
1070
     0
1002
}
1002
{
1000
NOSEL
1070
     0
1002
}
1002
{
1000
BEHIND
1070
     0
1002
}
1002
{
1000
OTHER
1070
     0
1002
}
1002
{
1000
REACTOR
1002
}
  0
LINE
  5
272F
  8
SAPA_PROFIL
 62
     4
 10
57.832551888079252
 20
156.79999985717399
 30
0.0
 11
57.832551888079252
 21
157.69999985717089
 31
0.0
1001
GENIUS_GENOBJ-N-FIL_13
1002
{
1000
OWNER
1000
GEN
1002
}
1001
GENIUS_GENODEF_13
1002
{
1000
HIER
1070
     0
1002
}
1002
{
1000
MANEDIT
1070
     0
1002
}
1002
{
1000
NOSEL
1070
     0
1002
}
1002
{
1000
BEHIND
1070
     0
1002
}
1002
{
1000
OTHER
1070
     0
1002
}
1002
{
1000
REACTOR
1002
}
  0
ARC
  5
2730
  8
SAPA_PROFIL
 62
     4
 10
58.132551888079433
 20
157.69999985717089
 30
0.0
 40
0.3000000000001819
 50
90.0
 51
180.0
1001
GENIUS_GENOBJ-N-FIL_13
1002
{
1000
OWNER
1000
GEN
1002
}
1001
GENIUS_GENODEF_13
1002
{
1000
HIER
1070
     0
1002
}
1002
{
1000
MANEDIT
1070
     0
1002
}
1002
{
1000
NOSEL
1070
     0
1002
}
1002
{
1000
BEHIND
1070
     0
1002
}
1002
{
1000
OTHER
1070
     0
1002
}
1002
{
1000
REACTOR
1002
}
  0
LINE
  5
2731
  8
SAPA_PROFIL
 62
     4
 10
58.132551888079433
 20
157.9999998571711
 30
0.0
 11
58.782551888081343
 21
157.9999998571711
 31
0.0
1001
GENIUS_GENOBJ-N-FIL_13
1002
{
1000
OWNER
1000
GEN
1002
}
1001
GENIUS_GENODEF_13
1002
{
1000
HIER
1070
     0
1002
}
1002
{
1000
MANEDIT
1070
     0
1002
}
1002
{
1000
NOSEL
1070
     0
1002
}
1002
{
1000
BEHIND
1070
     0
1002
}
1002
{
1000
OTHER
1070
     0
1002
}
1002
{
1000
REACTOR
1002
}
  0
ARC
  5
2732
  8
SAPA_PROFIL
 62
     4
 10
58.782551888081343
 20
158.29999985717129
 30
0.0
 40
0.3000000000001819
 50
270.0
 51
0.0
1001
GENIUS_GENOBJ-N-FIL_13
1002
{
1000
OWNER
1000
GEN
1002
}
1001
GENIUS_GENODEF_13
1002
{
1000
HIER
1070
     0
1002
}
1002
{
1000
MANEDIT
1070
     0
1002
}
1002
{
1000
NOSEL
1070
     0
1002
}
1002
{
1000
BEHIND
1070
     0
1002
}
1002
{
1000
OTHER
1070
     0
1002
}
1002
{
1000
REACTOR
1002
}
  0
LINE
  5
2733
  8
SAPA_PROFIL
 62
     4
 10
59.082551888081518
 20
158.29999985717129
 30
0.0
 11
59.082551888081518
 21
158.4999998571711
 31
0.0
1001
GENIUS_GENOBJ-N-FIL_13
1002
{
1000
OWNER
1000
GEN
1002
}
1001
GENIUS_GENODEF_13
1002
{
1000
HIER
1070
     0
1002
}
1002
{
1000
MANEDIT
1070
     0
1002
}
1002
{
1000
NOSEL
1070
     0
1002
}
1002
{
1000
BEHIND
1070
     0
1002
}
1002
{
1000
OTHER
1070
     0
1002
}
1002
{
1000
REACTOR
1002
}
  0
ARC
  5
2734
  8
SAPA_PROFIL
 62
     4
 10
58.582551888081518
 20
158.4999998571711
 30
0.0
 40
0.5
 50
0.0
 51
90.0
1001
GENIUS_GENOBJ-N-FIL_13
1002
{
1000
OWNER
1000
GEN
1002
}
1001
GENIUS_GENODEF_13
1002
{
1000
HIER
1070
     0
1002
}
1002
{
1000
MANEDIT
1070
     0
1002
}
1002
{
1000
NOSEL
1070
     0
1002
}
1002
{
1000
BEHIND
1070
     0
1002
}
1002
{
1000
OTHER
1070
     0
1002
}
1002
{
1000
REACTOR
1002
}
  0
LINE
  5
2735
  8
SAPA_PROFIL
 62
     4
 10
58.582551888081518
 20
158.9999998571711
 30
0.0
 11
32.784816861157651
 21
158.99999985708919
 31
0.0
1001
GENIUS_GENOBJ-N-FIL_13
1002
{
1000
OWNER
1000
GEN
1002
}
1001
GENIUS_GENODEF_13
1002
{
1000
HIER
1070
     0
1002
}
1002
{
1000
MANEDIT
1070
     0
1002
}
1002
{
1000
NOSEL
1070
     0
1002
}
1002
{
1000
BEHIND
1070
     0
1002
}
1002
{
1000
OTHER
1070
     0
1002
}
1002
{
1000
REACTOR
1002
}
  0
ARC
  5
2736
  8
SAPA_PROFIL
 62
     4
 10
32.784816861153331
 20
160.1999998570893
 30
0.0
 40
1.200000000000045
 50
180.0000000000108
 51
270.00000000020623
1001
GENIUS_GENOBJ-N-FIL_13
1002
{
1000
OWNER
1000
GEN
1002
}
1001
GENIUS_GENODEF_13
1002
{
1000
HIER
1070
     0
1002
}
1002
{
1000
MANEDIT
1070
     0
1002
}
1002
{
1000
NOSEL
1070
     0
1002
}
1002
{
1000
BEHIND
1070
     0
1002
}
1002
{
1000
OTHER
1070
     0
1002
}
1002
{
1000
REACTOR
1002
}
  0
LINE
  5
2737
  8
SAPA_PROFIL
 62
     4
 10
31.584816861153289
 20
160.1999998570891
 30
0.0
 11
31.584816861153289
 21
162.92848120716911
 31
0.0
1001
GENIUS_GENOBJ-N-FIL_13
1002
{
1000
OWNER
1000
GEN
1002
}
1001
GENIUS_GENODEF_13
1002
{
1000
HIER
1070
     0
1002
}
1002
{
1000
MANEDIT
1070
     0
1002
}
1002
{
1000
NOSEL
1070
     0
1002
}
1002
{
1000
BEHIND
1070
     0
1002
}
1002
{
1000
OTHER
1070
     0
1002
}
1002
{
1000
REACTOR
1002
}
  0
LINE
  5
2738
  8
SAPA_PROFIL
 62
     4
 10
56.548290417563749
 20
155.2999997891238
 30
0.0
 11
56.548290417559663
 21
147.79999978856529
 31
0.0
  0
ARC
  5
2739
  8
SAPA_PROFIL
 62
     4
 10
55.548290417559649
 20
147.79999978856529
 30
0.0
 40
1.0
 50
270.0
 51
0.0
  0
LINE
  5
273A
  8
SAPA_PROFIL
 62
     4
 10
55.548290417559649
 20
146.79999978856529
 30
0.0
 11
32.400555390635873
 21
146.79999978854991
 31
0.0
  0
ARC
  5
273B
  8
SAPA_PROFIL
 62
     4
 10
32.400555390635873
 20
147.59999978855009
 30
0.0
 40
0.8000000000001818
 50
180.0
 51
270.0
  0
LINE
  5
273C
  8
SAPA_PROFIL
 62
     4
 10
31.600555390635691
 20
147.59999978855009
 30
0.0
 11
31.600555390635691
 21
156.39999978906869
 31
0.0
  0
ARC
  5
273D
  8
SAPA_PROFIL
 62
     4
 10
32.400555390635873
 20
156.39999978906869
 30
0.0
 40
0.8000000000001818
 50
89.999999999934857
 51
180.0
  0
LINE
  5
273E
  8
SAPA_PROFIL
 62
     4
 10
32.400555390636782
 20
157.19999978906881
 30
0.0
 11
55.548290417563749
 21
157.19999978904519
 31
0.0
  0
ARC
  5
273F
  8
SAPA_PROFIL
 62
     4
 10
55.548290417562271
 20
156.19999978904551
 30
0.0
 40
0.9999999999996589
 50
0.0000000000325689
 51
89.999999999915318
  0
LINE
  5
2740
  8
SAPA_PROFIL
 62
     4
 10
56.54829041756193
 20
156.1999997890461
 30
0.0
 11
56.548290417563749
 21
155.2999997891238
 31
0.0
  0
LINE
  5
2741
  8
SAPA_PROFIL
 10
28.600563349939879
 20
88.699999785342655
 30
0.0
 11
28.600563349939879
 21
88.249999785342837
 31
0.0
  0
LINE
  5
2742
  8
SAPA_PROFIL
 10
28.600563349939879
 20
88.249999785342837
 30
0.0
 11
29.460388087509269
 21
86.760739654268917
 31
0.0
  0
ARC
  5
2743
  8
SAPA_PROFIL
 10
29.20058046637353
 20
86.610739654268826
 30
0.0
 40
0.3000000000004012
 50
0.0036468674172547
 51
29.99999999997582
  0
LINE
  5
2744
  8
SAPA_PROFIL
 10
29.500580465766241
 20
86.610758749221944
 30
0.0
 11
29.500587515557068
 21
86.499999785342851
 31
0.0
  0
LINE
  5
2745
  8
SAPA_PROFIL
 10
29.500587515557068
 20
86.499999785342851
 30
0.0
 11
27.878875513453298
 21
86.499999785342851
 31
0.0
  0
ARC
  5
2746
  8
SAPA_PROFIL
 10
27.878875513454251
 20
87.499999785342965
 30
0.0
 40
1.000000000000113
 50
209.9999999999435
 51
269.99999999994537
  0
LINE
  5
2747
  8
SAPA_PROFIL
 10
27.01285010966922
 20
86.999999785343775
 30
0.0
 11
26.146824705884232
 21
88.499999785342851
 31
0.0
  0
ARC
  5
2748
  8
SAPA_PROFIL
 10
25.280799302099751
 20
87.999999785342794
 30
0.0
 40
1.0000000000000711
 50
30.000000000002341
 51
90.000000000003055
  0
LINE
  5
2749
  8
SAPA_PROFIL
 10
25.280799302099691
 20
88.999999785342851
 30
0.0
 11
24.720327397783421
 21
88.999999785342851
 31
0.0
  0
ARC
  5
274A
  8
SAPA_PROFIL
 10
24.720327397783599
 20
87.999999785343164
 30
0.0
 40
0.9999999999996873
 50
90.000000000010175
 51
150.00000000001029
  0
LINE
  5
274B
  8
SAPA_PROFIL
 10
23.854301993999339
 20
88.499999785342851
 30
0.0
 11
22.988276590215261
 21
86.999999785343775
 31
0.0
  0
ARC
  5
274C
  8
SAPA_PROFIL
 10
22.122251186431019
 20
87.499999785343434
 30
0.0
 40
0.9999999999996694
 50
270.00000000000961
 51
330.00000000001069
  0
LINE
  5
274D
  8
SAPA_PROFIL
 10
22.122251186431178
 20
86.499999785343761
 30
0.0
 11
20.500539184326499
 21
86.499999785342851
 31
0.0
  0
LINE
  5
274E
  8
SAPA_PROFIL
 10
20.500539184326499
 20
86.499999785342851
 30
0.0
 11
20.500546234117341
 21
86.610758749221944
 31
0.0
  0
ARC
  5
274F
  8
SAPA_PROFIL
 10
20.800546233509191
 20
86.610739654268599
 30
0.0
 40
0.2999999999995497
 50
149.9999999999807
 51
179.9963531325393
  0
LINE
  5
2750
  8
SAPA_PROFIL
 10
20.540738612374302
 20
86.760739654268463
 30
0.0
 11
21.400563349943241
 21
88.249999785342837
 31
0.0
  0
LINE
  5
2751
  8
SAPA_PROFIL
 10
21.400563349943241
 20
88.249999785342837
 30
0.0
 11
21.400563349943241
 21
88.699999785342655
 31
0.0
  0
ARC
  5
2752
  8
SAPA_PROFIL
 10
21.10056334994329
 20
88.699999785342897
 30
0.0
 40
0.2999999999999545
 50
359.99999999995657
 51
89.999999999956557
  0
LINE
  5
2753
  8
SAPA_PROFIL
 10
21.10056334994351
 20
88.999999785342851
 30
0.0
 11
17.50055134994318
 21
88.999999785342851
 31
0.0
  0
ARC
  5
2754
  8
SAPA_PROFIL
 10
17.500551349943169
 20
88.699999785343138
 30
0.0
 40
0.2999999999997129
 50
89.999999999998636
 51
180.0000000000027
  0
LINE
  5
2755
  8
SAPA_PROFIL
 10
17.200551349943449
 20
88.699999785343124
 30
0.0
 11
17.200563349942961
 21
88.249999785342837
 31
0.0
  0
LINE
  5
2756
  8
SAPA_PROFIL
 10
17.200563349942961
 20
88.249999785342837
 30
0.0
 11
18.0603709710781
 21
86.760769300802124
 31
0.0
  0
ARC
  5
2757
  8
SAPA_PROFIL
 10
17.80056334994272
 20
86.610769300801536
 30
0.0
 40
0.300000000000336
 50
0.0000000000949926
 51
30.000000000092701
  0
LINE
  5
2758
  8
SAPA_PROFIL
 10
18.100563349943059
 20
86.610769300802033
 30
0.0
 11
18.100563349943059
 21
86.024263854054837
 31
0.0
  0
ARC
  5
2759
  8
SAPA_PROFIL
 10
17.800563349943179
 20
86.024263854055263
 30
0.0
 40
0.2999999999998799
 50
314.9999999999016
 51
359.9999999999186
  0
LINE
  5
275A
  8
SAPA_PROFIL
 10
18.012695384298691
 20
85.812131819699033
 30
0.0
 11
16.707646131129881
 21
84.50708256652976
 31
0.0
  0
ARC
  5
275B
  8
SAPA_PROFIL
 10
16.00053934994331
 20
85.214189347716427
 30
0.0
 40
1.0000000000000979
 50
180.0
 51
314.99999999999591
  0
LINE
  5
275C
  8
SAPA_PROFIL
 10
15.00053934994321
 20
85.214189347716427
 30
0.0
 11
15.000563349943601
 21
88.799999785343473
 31
0.0
  0
ARC
  5
275D
  8
SAPA_PROFIL
 10
15.00056334994178
 20
88.999999785343533
 30
0.0
 40
0.2000000000000455
 50
270.00000000052108
 51
90.000000000521084
  0
LINE
  5
275E
  8
SAPA_PROFIL
 10
15.000563349939959
 20
89.199999785343579
 30
0.0
 11
15.000563349939959
 21
137.7999997853307
 31
0.0
  0
ARC
  5
275F
  8
SAPA_PROFIL
 10
15.00056334994178
 20
137.99999978533049
 30
0.0
 40
0.1999999999998181
 50
269.99999999947892
 51
89.999999999478902
  0
LINE
  5
2760
  8
SAPA_PROFIL
 10
15.000563349943601
 20
138.19999978533039
 30
0.0
 11
15.00053934994321
 21
141.78581022295791
 31
0.0
  0
ARC
  5
2761
  8
SAPA_PROFIL
 10
16.00053934994331
 20
141.78581022295791
 30
0.0
 40
1.000000000000099
 50
45.000000000004043
 51
180.0
  0
LINE
  5
2762
  8
SAPA_PROFIL
 10
16.707646131129881
 20
142.49291700414449
 30
0.0
 11
18.012695384298691
 21
141.1878677509753
 31
0.0
  0
ARC
  5
2763
  8
SAPA_PROFIL
 10
17.800563349943179
 20
140.975735716619
 30
0.0
 40
0.2999999999998813
 50
0.0000000000814222
 51
45.000000000098339
  0
LINE
  5
2764
  8
SAPA_PROFIL
 10
18.100563349943059
 20
140.97573571661951
 30
0.0
 11
18.100563349943059
 21
140.38923026987229
 31
0.0
  0
ARC
  5
2765
  8
SAPA_PROFIL
 10
17.80056334994272
 20
140.3892302698728
 30
0.0
 40
0.3000000000003382
 50
329.9999999999049
 51
359.99999999990229
  0
LINE
  5
2766
  8
SAPA_PROFIL
 10
18.0603709710781
 20
140.23923026987219
 30
0.0
 11
17.200563349942961
 21
138.74999978533151
 31
0.0
  0
LINE
  5
2767
  8
SAPA_PROFIL
 10
17.200563349942961
 20
138.74999978533151
 30
0.0
 11
17.200551349943002
 21
138.29999978533121
 31
0.0
  0
ARC
  5
2768
  8
SAPA_PROFIL
 10
17.500551349942938
 20
138.29999978533141
 30
0.0
 40
0.2999999999999474
 50
180.0000000000434
 51
270.00000000004479
  0
LINE
  5
2769
  8
SAPA_PROFIL
 10
17.50055134994318
 20
137.99999978533151
 30
0.0
 11
21.100563349943059
 21
137.99999978533151
 31
0.0
  0
ARC
  5
276A
  8
SAPA_PROFIL
 10
21.100563349943059
 20
138.29999978533161
 30
0.0
 40
0.3000000000001819
 50
270.0
 51
0.0
  0
LINE
  5
276B
  8
SAPA_PROFIL
 10
21.400563349943241
 20
138.29999978533161
 30
0.0
 11
21.400563349943241
 21
138.74999978533151
 31
0.0
  0
LINE
  5
276C
  8
SAPA_PROFIL
 10
21.400563349943241
 20
138.74999978533151
 30
0.0
 11
20.540738612374302
 21
140.23925991640539
 31
0.0
  0
ARC
  5
276D
  8
SAPA_PROFIL
 10
20.80054623351004
 20
140.38925991640551
 30
0.0
 40
0.3000000000004012
 50
180.00364686741719
 51
209.99999999997581
  0
LINE
  5
276E
  8
SAPA_PROFIL
 10
20.500546234117341
 20
140.3892408214524
 30
0.0
 11
20.500539184326499
 21
140.4999997853314
 31
0.0
  0
LINE
  5
276F
  8
SAPA_PROFIL
 10
20.500539184326499
 20
140.4999997853314
 30
0.0
 11
22.122251186431178
 21
140.49999978533049
 31
0.0
  0
ARC
  5
2770
  8
SAPA_PROFIL
 10
22.122251186431019
 20
139.49999978533091
 30
0.0
 40
0.9999999999996589
 50
29.999999999988511
 51
89.999999999990223
  0
LINE
  5
2771
  8
SAPA_PROFIL
 10
22.988276590215261
 20
139.99999978533049
 30
0.0
 11
23.854301993999339
 21
138.49999978533151
 31
0.0
  0
ARC
  5
2772
  8
SAPA_PROFIL
 10
24.720327397783599
 20
138.99999978533111
 30
0.0
 40
0.9999999999996827
 50
209.9999999999898
 51
269.99999999999011
  0
LINE
  5
2773
  8
SAPA_PROFIL
 10
24.720327397783421
 20
137.99999978533151
 30
0.0
 11
25.280799302099691
 21
137.99999978533151
 31
0.0
  0
ARC
  5
2774
  8
SAPA_PROFIL
 10
25.280799302099751
 20
138.99999978533151
 30
0.0
 40
1.000000000000085
 50
269.99999999999687
 51
329.99999999999699
  0
LINE
  5
2775
  8
SAPA_PROFIL
 10
26.146824705884232
 20
138.49999978533151
 30
0.0
 11
27.01285010966922
 21
139.99999978533049
 31
0.0
  0
ARC
  5
2776
  8
SAPA_PROFIL
 10
27.878875513454251
 20
139.49999978533131
 30
0.0
 40
1.0000000000001139
 50
90.000000000054555
 51
150.00000000005639
  0
LINE
  5
2777
  8
SAPA_PROFIL
 10
27.878875513453298
 20
140.4999997853314
 30
0.0
 11
29.500587515556621
 21
140.4999997853314
 31
0.0
  0
LINE
  5
2778
  8
SAPA_PROFIL
 10
29.500587515556621
 20
140.4999997853314
 30
0.0
 11
29.500580465765779
 21
140.3892408214524
 31
0.0
  0
ARC
  5
2779
  8
SAPA_PROFIL
 10
29.200580466373928
 20
140.38925991640571
 30
0.0
 40
0.2999999999995497
 50
329.99999999998067
 51
359.9963531325393
  0
LINE
  5
277A
  8
SAPA_PROFIL
 10
29.460388087508822
 20
140.23925991640581
 30
0.0
 11
28.600563349939879
 21
138.74999978533151
 31
0.0
  0
LINE
  5
277B
  8
SAPA_PROFIL
 10
28.600563349939879
 20
138.74999978533151
 30
0.0
 11
28.600563349939879
 21
138.29999978533161
 31
0.0
  0
ARC
  5
277C
  8
SAPA_PROFIL
 10
28.90056334993983
 20
138.29999978533141
 30
0.0
 40
0.2999999999999545
 50
179.99999999995649
 51
269.99999999995657
  0
LINE
  5
277D
  8
SAPA_PROFIL
 10
28.900563349939599
 20
137.99999978533151
 30
0.0
 11
32.500575349939943
 21
137.99999978533151
 31
0.0
  0
ARC
  5
277E
  8
SAPA_PROFIL
 10
32.500575349939723
 20
138.29999978533141
 30
0.0
 40
0.2999999999999545
 50
270.00000000004201
 51
0.0000000000434252
  0
LINE
  5
277F
  8
SAPA_PROFIL
 10
32.80057534993967
 20
138.29999978533161
 30
0.0
 11
32.800563349940148
 21
138.74999978533151
 31
0.0
  0
LINE
  5
2780
  8
SAPA_PROFIL
 10
32.800563349940148
 20
138.74999978533151
 30
0.0
 11
31.940755728805019
 21
140.23923026987219
 31
0.0
  0
ARC
  5
2781
  8
SAPA_PROFIL
 10
32.200563349940623
 20
140.38923026987189
 30
0.0
 40
0.3000000000001137
 50
179.9999999999348
 51
209.9999999999323
  0
LINE
  5
2782
  8
SAPA_PROFIL
 10
31.900563349940509
 20
140.38923026987229
 30
0.0
 11
31.900563349940061
 21
140.97573571661951
 31
0.0
  0
ARC
  5
2783
  8
SAPA_PROFIL
 10
32.200563349939941
 20
140.975735716619
 30
0.0
 40
0.2999999999998835
 50
134.99999999990209
 51
179.9999999999186
  0
LINE
  5
2784
  8
SAPA_PROFIL
 10
31.988431315584421
 20
141.1878677509753
 30
0.0
 11
33.293480568753239
 21
142.49291700414449
 31
0.0
  0
ARC
  5
2785
  8
SAPA_PROFIL
 10
34.000587349939813
 20
141.78581022295791
 30
0.0
 40
1.0000000000000979
 50
0.0
 51
134.99999999999599
  0
LINE
  5
2786
  8
SAPA_PROFIL
 10
35.000587349939913
 20
141.78581022295791
 30
0.0
 11
35.000563349939974
 21
138.19999978533039
 31
0.0
  0
ARC
  5
2787
  8
SAPA_PROFIL
 10
35.000563349939974
 20
137.9999997853308
 30
0.0
 40
0.1999999999995907
 50
90.0
 51
270.0
  0
LINE
  5
2788
  8
SAPA_PROFIL
 10
35.000563349939974
 20
137.79999978533121
 30
0.0
 11
35.000563349939974
 21
136.49999975578149
 31
0.0
  0
ARC
  5
2789
  8
SAPA_PROFIL
 10
34.000563350083802
 20
136.4999997559255
 30
0.0
 40
0.9999999998561648
 50
269.9999999915504
 51
359.99999999174861
  0
LINE
  5
278A
  8
SAPA_PROFIL
 10
34.000563349936328
 20
135.4999997560694
 30
0.0
 11
33.000563349939974
 21
135.4999997560694
 31
0.0
  0
ARC
  5
278B
  8
SAPA_PROFIL
 10
33.000563349939974
 20
134.4999997560694
 30
0.0
 40
1.0
 50
90.0
 51
180.0
  0
LINE
  5
278C
  8
SAPA_PROFIL
 10
32.000563349939974
 20
134.4999997560694
 30
0.0
 11
32.000563349939974
 21
128.38707004610839
 31
0.0
  0
ARC
  5
278D
  8
SAPA_PROFIL
 10
33.000563349939952
 20
128.38707004610839
 30
0.0
 40
0.9999999999999786
 50
180.00000000000321
 51
244.99999999973519
  0
LINE
  5
278E
  8
SAPA_PROFIL
 10
32.577945088195072
 20
127.4807622590737
 30
0.0
 11
36.423181611694417
 21
125.6876990207269
 31
0.0
  0
ARC
  5
278F
  8
SAPA_PROFIL
 10
36.000563349949189
 20
124.78139123369201
 30
0.0
 40
1.000000000000332
 50
359.99999999999022
 51
64.999999999722576
  0
LINE
  5
2790
  8
SAPA_PROFIL
 10
37.000563349949523
 20
124.78139123369191
 30
0.0
 11
37.000563349949523
 21
121.7326457603635
 31
0.0
  0
ARC
  5
2791
  8
SAPA_PROFIL
 10
36.800563349948959
 20
121.7326457603635
 30
0.0
 40
0.2000000000005571
 50
240.89009105957641
 51
0.0
  0
ARC
  5
2792
  8
SAPA_PROFIL
 10
35.000563349916831
 20
118.499999785331
 30
0.0
 40
3.500000000000727
 50
60.890091059562863
 51
85.082899663939656
  0
LINE
  5
2793
  8
SAPA_PROFIL
 10
35.300563349949243
 20
121.98711894016139
 30
0.0
 11
35.300563349949243
 21
123.2499997853315
 31
0.0
  0
ARC
  5
2794
  8
SAPA_PROFIL
 10
34.800563349949243
 20
123.2499997853315
 30
0.0
 40
0.5
 50
0.0
 51
90.0
  0
LINE
  5
2795
  8
SAPA_PROFIL
 10
34.800563349949243
 20
123.7499997853314
 30
0.0
 11
32.500563349939974
 21
123.7499997853314
 31
0.0
  0
ARC
  5
2796
  8
SAPA_PROFIL
 10
32.500563349939974
 20
123.2499997853315
 30
0.0
 40
0.5
 50
90.0
 51
180.0
  0
LINE
  5
2797
  8
SAPA_PROFIL
 10
32.000563349939974
 20
123.2499997853315
 30
0.0
 11
32.000563349939974
 21
120.3027754230997
 31
0.0
  0
ARC
  5
2798
  8
SAPA_PROFIL
 10
35.000563349918011
 20
118.4999997853312
 30
0.0
 40
3.4999999999999791
 50
148.99728086542879
 51
211.00271913457121
  0
LINE
  5
2799
  8
SAPA_PROFIL
 10
32.000563349939974
 20
116.69722414756269
 30
0.0
 11
32.000563349939974
 21
110.3027754230997
 31
0.0
  0
ARC
  5
279A
  8
SAPA_PROFIL
 10
35.000563349917996
 20
108.4999997853312
 30
0.0
 40
3.4999999999999729
 50
148.99728086542871
 51
211.00271913457129
  0
LINE
  5
279B
  8
SAPA_PROFIL
 10
32.000563349939974
 20
106.69722414756269
 30
0.0
 11
32.000563349939974
 21
103.7499997853315
 31
0.0
  0
ARC
  5
279C
  8
SAPA_PROFIL
 10
32.500563349939974
 20
103.7499997853315
 30
0.0
 40
0.5
 50
180.0
 51
270.0
  0
LINE
  5
279D
  8
SAPA_PROFIL
 10
32.500563349939974
 20
103.2499997853315
 30
0.0
 11
34.800563349949243
 21
103.2499997853315
 31
0.0
  0
ARC
  5
279E
  8
SAPA_PROFIL
 10
34.800563349949243
 20
103.7499997853315
 30
0.0
 40
0.5
 50
270.0
 51
0.0
  0
LINE
  5
279F
  8
SAPA_PROFIL
 10
35.300563349949243
 20
103.7499997853315
 30
0.0
 11
35.300563349949243
 21
105.0128806305015
 31
0.0
  0
ARC
  5
27A0
  8
SAPA_PROFIL
 10
35.000563349917897
 20
108.4999997853317
 30
0.0
 40
3.500000000000381
 50
274.91710033604329
 51
299.10990894042033
  0
ARC
  5
27A1
  8
SAPA_PROFIL
 10
36.800563349949087
 20
105.2673538102992
 30
0.0
 40
0.2000000000004273
 50
0.0000000000651378
 51
119.1099089404873
  0
LINE
  5
27A2
  8
SAPA_PROFIL
 10
37.000563349949523
 20
105.2673538102994
 30
0.0
 11
37.000563349949523
 21
102.2186083369706
 31
0.0
  0
ARC
  5
27A3
  8
SAPA_PROFIL
 10
36.000563349949537
 20
102.2186083369706
 30
0.0
 40
0.9999999999999786
 50
295.00000000026478
 51
359.99999999999682
  0
LINE
  5
27A4
  8
SAPA_PROFIL
 10
36.423181611694417
 20
101.312300549936
 30
0.0
 11
32.577945088195072
 21
99.519237311589194
 31
0.0
  0
ARC
  5
27A5
  8
SAPA_PROFIL
 10
33.000563349939952
 20
98.612929524554517
 30
0.0
 40
0.999999999999979
 50
115.00000000026481
 51
179.9999999999967
  0
LINE
  5
27A6
  8
SAPA_PROFIL
 10
32.000563349939974
 20
98.612929524554573
 30
0.0
 11
32.000563349939974
 21
92.49999981459311
 31
0.0
  0
ARC
  5
27A7
  8
SAPA_PROFIL
 10
33.000563349939974
 20
92.49999981459311
 30
0.0
 40
1.0
 50
180.0
 51
270.0
  0
LINE
  5
27A8
  8
SAPA_PROFIL
 10
33.000563349939974
 20
91.49999981459311
 30
0.0
 11
34.000563349936783
 21
91.499999814593565
 31
0.0
  0
ARC
  5
27A9
  8
SAPA_PROFIL
 10
34.000563350084029
 20
90.499999814737635
 30
0.0
 40
0.9999999998559304
 50
0.0000000082382982
 51
90.000000008436544
  0
LINE
  5
27AA
  8
SAPA_PROFIL
 10
35.000563349939974
 20
90.499999814881406
 30
0.0
 11
35.000563349939974
 21
89.199999785343124
 31
0.0
  0
ARC
  5
27AB
  8
SAPA_PROFIL
 10
35.000563349939974
 20
88.999999785343533
 30
0.0
 40
0.1999999999995907
 50
90.0
 51
270.0
  0
LINE
  5
27AC
  8
SAPA_PROFIL
 10
35.000563349939974
 20
88.799999785343942
 30
0.0
 11
35.000587349939913
 21
85.214189347716427
 31
0.0
  0
ARC
  5
27AD
  8
SAPA_PROFIL
 10
34.000587349940027
 20
85.214189347716328
 30
0.0
 40
0.9999999999998721
 50
225.00000000000921
 51
0.0000000000056996
  0
LINE
  5
27AE
  8
SAPA_PROFIL
 10
33.293480568753701
 20
84.50708256652976
 30
0.0
 11
31.988431315584421
 21
85.812131819699033
 31
0.0
  0
ARC
  5
27AF
  8
SAPA_PROFIL
 10
32.200563349940168
 20
86.024263854054723
 30
0.0
 40
0.2999999999996527
 50
179.99999999997561
 51
224.9999999999923
  0
LINE
  5
27B0
  8
SAPA_PROFIL
 10
31.900563349940509
 20
86.024263854054837
 30
0.0
 11
31.900563349940509
 21
86.610769300802033
 31
0.0
  0
ARC
  5
27B1
  8
SAPA_PROFIL
 10
32.200563349940623
 20
86.610769300802389
 30
0.0
 40
0.3000000000001108
 50
150.0000000000677
 51
180.00000000006511
  0
LINE
  5
27B2
  8
SAPA_PROFIL
 10
31.940755728805019
 20
86.760769300802124
 30
0.0
 11
32.80056334994061
 21
88.249999785342837
 31
0.0
  0
LINE
  5
27B3
  8
SAPA_PROFIL
 10
32.80056334994061
 20
88.249999785342837
 30
0.0
 11
32.800575349940118
 21
88.699999785343124
 31
0.0
  0
ARC
  5
27B4
  8
SAPA_PROFIL
 10
32.500575349940171
 20
88.699999785342897
 30
0.0
 40
0.2999999999999474
 50
0.0000000000434252
 51
90.000000000044778
  0
LINE
  5
27B5
  8
SAPA_PROFIL
 10
32.500575349939943
 20
88.999999785342851
 30
0.0
 11
28.900563349940061
 21
88.999999785342851
 31
0.0
  0
ARC
  5
27B6
  8
SAPA_PROFIL
 10
28.900563349940061
 20
88.699999785342655
 30
0.0
 40
0.3000000000001819
 50
90.0
 51
180.0
  0
LINE
  5
27B7
  8
SAPA_PROFIL
 10
29.500563349929511
 20
135.24999978515319
 30
0.0
 11
17.300563349947421
 21
135.24999978515319
 31
0.0
  0
LINE
  5
27B8
  8
SAPA_PROFIL
 10
17.300563349947421
 20
135.24999978515319
 30
0.0
 11
17.300563349932869
 21
91.749999785509743
 31
0.0
  0
LINE
  5
27B9
  8
SAPA_PROFIL
 10
17.300563349932869
 20
91.749999785509743
 30
0.0
 11
29.50056334995179
 21
91.749999785521112
 31
0.0
  0
LINE
  5
27BA
  8
SAPA_PROFIL
 10
29.50056334995179
 20
91.749999785521112
 30
0.0
 11
29.500563349929511
 21
135.24999978515319
 31
0.0
  0
ARC
  5
27BB
  8
SAPA_PROFIL
 62
     4
 10
17.850543382453299
 20
86.624166704118963
 30
0.0
 40
0.3000000000003347
 50
0.0000000000949926
 51
30.000000000093038
  0
LINE
  5
27BC
  8
SAPA_PROFIL
 62
     4
 10
18.110351003588669
 20
86.774166704119565
 30
0.0
 11
17.25054334994638
 21
88.263397244964807
 31
0.0
  0
LINE
  5
27BD
  8
SAPA_PROFIL
 62
     4
 10
17.25054334994638
 20
88.263397244964807
 30
0.0
 11
17.25054334994638
 21
88.699999785343124
 31
0.0
  0
ARC
  5
27BE
  8
SAPA_PROFIL
 62
     4
 10
17.50054334994638
 20
88.699999785343124
 30
0.0
 40
0.25
 50
90.0
 51
180.0
  0
LINE
  5
27BF
  8
SAPA_PROFIL
 62
     4
 10
17.50054334994638
 20
88.949999785343124
 30
0.0
 11
21.100555349946259
 21
88.949999785343124
 31
0.0
  0
ARC
  5
27C0
  8
SAPA_PROFIL
 62
     4
 10
21.100555349946269
 20
88.699999785343124
 30
0.0
 40
0.25
 50
0.0
 51
90.00000000000081
  0
LINE
  5
27C1
  8
SAPA_PROFIL
 62
     4
 10
21.350555349946259
 20
88.699999785343124
 30
0.0
 11
21.350543707210822
 21
88.263397863764538
 31
0.0
  0
LINE
  5
27C2
  8
SAPA_PROFIL
 62
     4
 10
21.350543707210822
 20
88.263397863764538
 30
0.0
 11
20.490735761317868
 21
86.774166816726805
 31
0.0
  0
ARC
  5
27C3
  8
SAPA_PROFIL
 62
     4
 10
20.75054338245253
 20
86.624166816727325
 30
0.0
 40
0.2999999999991736
 50
150.00000000002041
 51
180.00000000002709
  0
LINE
  5
27C4
  8
SAPA_PROFIL
 62
     4
 10
20.450543382453361
 20
86.624166816727183
 30
0.0
 11
20.450543382453361
 21
63.375832825475733
 31
0.0
  0
ARC
  5
27C5
  8
SAPA_PROFIL
 62
     4
 10
20.75054338245339
 20
63.375832825475356
 30
0.0
 40
0.300000000000022
 50
179.9999999999294
 51
209.99999999993611
  0
LINE
  5
27C6
  8
SAPA_PROFIL
 62
     4
 10
20.490735761317868
 20
63.225832825475628
 30
0.0
 11
21.350543707211269
 21
61.736601778437922
 31
0.0
  0
LINE
  5
27C7
  8
SAPA_PROFIL
 62
     4
 10
21.350543707211269
 20
61.736601778437922
 30
0.0
 11
21.350555349946259
 21
61.29999985685933
 31
0.0
  0
ARC
  5
27C8
  8
SAPA_PROFIL
 62
     4
 10
21.100555349946269
 20
61.299999856859323
 30
0.0
 40
0.2499999999999964
 50
269.9999999999992
 51
0.0000000000016284
  0
LINE
  5
27C9
  8
SAPA_PROFIL
 62
     4
 10
21.100555349946259
 20
61.04999985685933
 30
0.0
 11
17.50054334994638
 21
61.049999856859777
 31
0.0
  0
ARC
  5
27CA
  8
SAPA_PROFIL
 62
     4
 10
17.50054334994638
 20
61.299999856859777
 30
0.0
 40
0.25
 50
180.0
 51
270.0
  0
LINE
  5
27CB
  8
SAPA_PROFIL
 62
     4
 10
17.25054334994638
 20
61.299999856859777
 30
0.0
 11
17.25054334994638
 21
61.736602397238102
 31
0.0
  0
LINE
  5
27CC
  8
SAPA_PROFIL
 62
     4
 10
17.25054334994638
 20
61.736602397238102
 30
0.0
 11
18.110351003588669
 21
63.22583293808335
 31
0.0
  0
ARC
  5
27CD
  8
SAPA_PROFIL
 62
     4
 10
17.850543382453921
 20
63.375832938082873
 30
0.0
 40
0.299999999999258
 50
330.00000000002512
 51
0.0000000000230696
  0
LINE
  5
27CE
  8
SAPA_PROFIL
 62
     4
 10
18.150543382453179
 20
63.375832938082993
 30
0.0
 11
18.15054338245363
 21
86.62416670411946
 31
0.0
  0
LINE
  5
27CF
  8
SAPA_PROFIL
 62
     4
 10
58.34829041756165
 20
72.49999978846833
 30
-0.2
 11
72.548290417563749
 21
72.49999978846833
 31
-0.2
1001
RC_PROFILE
1002
{
1000
Region
1002
}
  0
ARC
  5
27D0
  8
SAPA_PROFIL
 62
     4
 10
72.548290417563749
 20
72.99999978846833
 30
-0.2
 40
0.5
 50
270.0
 51
359.9999999997915
1001
RC_PROFILE
1002
{
1000
Region
1002
}
  0
LINE
  5
27D1
  8
SAPA_PROFIL
 62
     4
 10
73.048290417563749
 20
72.999999788466511
 30
-0.2
 11
73.048290417566932
 21
76.999999789087695
 31
-0.2
1001
RC_PROFILE
1002
{
1000
Region
1002
}
  0
ARC
  5
27D2
  8
SAPA_PROFIL
 62
     4
 10
72.548290417566932
 20
76.999999789087695
 30
-0.2
 40
0.5
 50
0.0
 51
90.0
1001
RC_PROFILE
1002
{
1000
Region
1002
}
  0
LINE
  5
27D3
  8
SAPA_PROFIL
 62
     4
 10
72.548290417566932
 20
77.499999789087695
 30
-0.2
 11
58.348290417563021
 21
77.499999789094971
 31
-0.2
1001
RC_PROFILE
1002
{
1000
Region
1002
}
  0
ARC
  5
27D4
  8
SAPA_PROFIL
 62
     4
 10
58.34829041756177
 20
76.999999789094844
 30
-0.2
 40
0.5000000000001137
 50
89.999999999856698
 51
179.99999999998701
1001
RC_PROFILE
1002
{
1000
Region
1002
}
  0
LINE
  5
27D5
  8
SAPA_PROFIL
 62
     4
 10
57.84829041756165
 20
76.999999789094971
 30
-0.2
 11
57.84829041756165
 21
72.99999978846833
 31
-0.2
1001
RC_PROFILE
1002
{
1000
Region
1002
}
  0
ARC
  5
27D6
  8
SAPA_PROFIL
 62
     4
 10
58.34829041756165
 20
72.99999978846833
 30
-0.2
 40
0.5
 50
180.0
 51
270.0
1001
RC_PROFILE
1002
{
1000
Region
1002
}
  0
ARC
  5
27D7
  8
SAPA_PROFIL
 62
     4
 10
32.784816861153438
 20
85.922739858487674
 30
0.0
 40
1.2000000000006059
 50
150.0000000000272
 51
180.0000000000482
1001
GENIUS_GENOBJ-N-FIL_13
1002
{
1000
OWNER
1000
GEN
1002
}
1001
GENIUS_GENODEF_13
1002
{
1000
HIER
1070
     0
1002
}
1002
{
1000
MANEDIT
1070
     0
1002
}
1002
{
1000
NOSEL
1070
     0
1002
}
1002
{
1000
BEHIND
1070
     0
1002
}
1002
{
1000
OTHER
1070
     0
1002
}
1002
{
1000
REACTOR
1002
}
  0
LINE
  5
27D8
  8
SAPA_PROFIL
 62
     4
 10
31.7455863766113
 20
86.522739858487483
 30
0.0
 11
32.750555707209507
 21
88.263397799130843
 31
0.0
1001
GENIUS_GENOBJ-N-FIL_13
1002
{
1000
OWNER
1000
GEN
1002
}
1001
GENIUS_GENODEF_13
1002
{
1000
HIER
1070
     0
1002
}
1002
{
1000
MANEDIT
1070
     0
1002
}
1002
{
1000
NOSEL
1070
     0
1002
}
1002
{
1000
BEHIND
1070
     0
1002
}
1002
{
1000
OTHER
1070
     0
1002
}
1002
{
1000
REACTOR
1002
}
  0
LINE
  5
27D9
  8
SAPA_PROFIL
 62
     4
 10
32.750555707209507
 20
88.263397799130843
 30
0.0
 11
32.750567349944497
 21
88.699999720709414
 31
0.0
1001
GENIUS_GENOBJ-N-FIL_13
1002
{
1000
OWNER
1000
GEN
1002
}
1001
GENIUS_GENODEF_13
1002
{
1000
HIER
1070
     0
1002
}
1002
{
1000
MANEDIT
1070
     0
1002
}
1002
{
1000
NOSEL
1070
     0
1002
}
1002
{
1000
BEHIND
1070
     0
1002
}
1002
{
1000
OTHER
1070
     0
1002
}
1002
{
1000
REACTOR
1002
}
  0
ARC
  5
27DA
  8
SAPA_PROFIL
 62
     4
 10
32.500567349944511
 20
88.699999720709414
 30
0.0
 40
0.2499999999999929
 50
0.0
 51
90.000000000001606
1001
GENIUS_GENOBJ-N-FIL_13
1002
{
1000
OWNER
1000
GEN
1002
}
1001
GENIUS_GENODEF_13
1002
{
1000
HIER
1070
     0
1002
}
1002
{
1000
MANEDIT
1070
     0
1002
}
1002
{
1000
NOSEL
1070
     0
1002
}
1002
{
1000
BEHIND
1070
     0
1002
}
1002
{
1000
OTHER
1070
     0
1002
}
1002
{
1000
REACTOR
1002
}
  0
LINE
  5
27DB
  8
SAPA_PROFIL
 62
     4
 10
32.500567349944497
 20
88.949999720709428
 30
0.0
 11
28.900555349944629
 21
88.949999720708959
 31
0.0
1001
GENIUS_GENOBJ-N-FIL_13
1002
{
1000
OWNER
1000
GEN
1002
}
1001
GENIUS_GENODEF_13
1002
{
1000
HIER
1070
     0
1002
}
1002
{
1000
MANEDIT
1070
     0
1002
}
1002
{
1000
NOSEL
1070
     0
1002
}
1002
{
1000
BEHIND
1070
     0
1002
}
1002
{
1000
OTHER
1070
     0
1002
}
1002
{
1000
REACTOR
1002
}
  0
ARC
  5
27DC
  8
SAPA_PROFIL
 62
     4
 10
28.900555349944629
 20
88.699999720708973
 30
0.0
 40
0.25
 50
90.0
 51
180.0
1001
GENIUS_GENOBJ-N-FIL_13
1002
{
1000
OWNER
1000
GEN
1002
}
1001
GENIUS_GENODEF_13
1002
{
1000
HIER
1070
     0
1002
}
1002
{
1000
MANEDIT
1070
     0
1002
}
1002
{
1000
NOSEL
1070
     0
1002
}
1002
{
1000
BEHIND
1070
     0
1002
}
1002
{
1000
OTHER
1070
     0
1002
}
1002
{
1000
REACTOR
1002
}
  0
LINE
  5
27DD
  8
SAPA_PROFIL
 62
     4
 10
28.650555349944629
 20
88.699999720708973
 30
0.0
 11
28.650555349944629
 21
88.263397180330657
 31
0.0
1001
GENIUS_GENOBJ-N-FIL_13
1002
{
1000
OWNER
1000
GEN
1002
}
1001
GENIUS_GENODEF_13
1002
{
1000
HIER
1070
     0
1002
}
1002
{
1000
MANEDIT
1070
     0
1002
}
1002
{
1000
NOSEL
1070
     0
1002
}
1002
{
1000
BEHIND
1070
     0
1002
}
1002
{
1000
OTHER
1070
     0
1002
}
1002
{
1000
REACTOR
1002
}
  0
LINE
  5
27DE
  8
SAPA_PROFIL
 62
     4
 10
28.650555349944629
 20
88.263397180330657
 30
0.0
 11
29.624047345694638
 21
86.577259582929827
 31
0.0
1001
GENIUS_GENOBJ-N-FIL_13
1002
{
1000
OWNER
1000
GEN
1002
}
1001
GENIUS_GENODEF_13
1002
{
1000
HIER
1070
     0
1002
}
1002
{
1000
MANEDIT
1070
     0
1002
}
1002
{
1000
NOSEL
1070
     0
1002
}
1002
{
1000
BEHIND
1070
     0
1002
}
1002
{
1000
OTHER
1070
     0
1002
}
1002
{
1000
REACTOR
1002
}
  0
ARC
  5
27DF
  8
SAPA_PROFIL
 62
     4
 10
28.584816861153499
 20
85.977259582929378
 30
0.0
 40
1.200000000000053
 50
0.0000000000257837
 51
30.000000000023292
1001
GENIUS_GENOBJ-N-FIL_13
1002
{
1000
OWNER
1000
GEN
1002
}
1001
GENIUS_GENODEF_13
1002
{
1000
HIER
1070
     0
1002
}
1002
{
1000
MANEDIT
1070
     0
1002
}
1002
{
1000
NOSEL
1070
     0
1002
}
1002
{
1000
BEHIND
1070
     0
1002
}
1002
{
1000
OTHER
1070
     0
1002
}
1002
{
1000
REACTOR
1002
}
  0
LINE
  5
27E0
  8
SAPA_PROFIL
 62
     4
 10
29.784816861153558
 20
85.977259582929918
 30
0.0
 11
29.784816861153558
 21
64.02273999463884
 31
0.0
1001
GENIUS_GENOBJ-N-FIL_13
1002
{
1000
OWNER
1000
GEN
1002
}
1001
GENIUS_GENODEF_13
1002
{
1000
HIER
1070
     0
1002
}
1002
{
1000
MANEDIT
1070
     0
1002
}
1002
{
1000
NOSEL
1070
     0
1002
}
1002
{
1000
BEHIND
1070
     0
1002
}
1002
{
1000
OTHER
1070
     0
1002
}
1002
{
1000
REACTOR
1002
}
  0
ARC
  5
27E1
  8
SAPA_PROFIL
 62
     4
 10
28.584816861153499
 20
64.02273999463938
 30
0.0
 40
1.2000000000000519
 50
329.99999999997681
 51
359.99999999997419
1001
GENIUS_GENOBJ-N-FIL_13
1002
{
1000
OWNER
1000
GEN
1002
}
1001
GENIUS_GENODEF_13
1002
{
1000
HIER
1070
     0
1002
}
1002
{
1000
MANEDIT
1070
     0
1002
}
1002
{
1000
NOSEL
1070
     0
1002
}
1002
{
1000
BEHIND
1070
     0
1002
}
1002
{
1000
OTHER
1070
     0
1002
}
1002
{
1000
REACTOR
1002
}
  0
LINE
  5
27E2
  8
SAPA_PROFIL
 62
     4
 10
29.624047345694638
 20
63.422739994638931
 30
0.0
 11
28.650555349944629
 21
61.736602397238102
 31
0.0
1001
GENIUS_GENOBJ-N-FIL_13
1002
{
1000
OWNER
1000
GEN
1002
}
1001
GENIUS_GENODEF_13
1002
{
1000
HIER
1070
     0
1002
}
1002
{
1000
MANEDIT
1070
     0
1002
}
1002
{
1000
NOSEL
1070
     0
1002
}
1002
{
1000
BEHIND
1070
     0
1002
}
1002
{
1000
OTHER
1070
     0
1002
}
1002
{
1000
REACTOR
1002
}
  0
LINE
  5
27E3
  8
SAPA_PROFIL
 62
     4
 10
28.650555349944629
 20
61.736602397238102
 30
0.0
 11
28.650555349944629
 21
61.299999856859777
 31
0.0
1001
GENIUS_GENOBJ-N-FIL_13
1002
{
1000
OWNER
1000
GEN
1002
}
1001
GENIUS_GENODEF_13
1002
{
1000
HIER
1070
     0
1002
}
1002
{
1000
MANEDIT
1070
     0
1002
}
1002
{
1000
NOSEL
1070
     0
1002
}
1002
{
1000
BEHIND
1070
     0
1002
}
1002
{
1000
OTHER
1070
     0
1002
}
1002
{
1000
REACTOR
1002
}
  0
ARC
  5
27E4
  8
SAPA_PROFIL
 62
     4
 10
28.900555349944629
 20
61.299999856859777
 30
0.0
 40
0.25
 50
180.0
 51
270.0
1001
GENIUS_GENOBJ-N-FIL_13
1002
{
1000
OWNER
1000
GEN
1002
}
1001
GENIUS_GENODEF_13
1002
{
1000
HIER
1070
     0
1002
}
1002
{
1000
MANEDIT
1070
     0
1002
}
1002
{
1000
NOSEL
1070
     0
1002
}
1002
{
1000
BEHIND
1070
     0
1002
}
1002
{
1000
OTHER
1070
     0
1002
}
1002
{
1000
REACTOR
1002
}
  0
LINE
  5
27E5
  8
SAPA_PROFIL
 62
     4
 10
28.900555349944629
 20
61.049999856859777
 30
0.0
 11
32.500567349944497
 21
61.049999856859777
 31
0.0
1001
GENIUS_GENOBJ-N-FIL_13
1002
{
1000
OWNER
1000
GEN
1002
}
1001
GENIUS_GENODEF_13
1002
{
1000
HIER
1070
     0
1002
}
1002
{
1000
MANEDIT
1070
     0
1002
}
1002
{
1000
NOSEL
1070
     0
1002
}
1002
{
1000
BEHIND
1070
     0
1002
}
1002
{
1000
OTHER
1070
     0
1002
}
1002
{
1000
REACTOR
1002
}
  0
ARC
  5
27E6
  8
SAPA_PROFIL
 62
     4
 10
32.500567349944511
 20
61.29999985685977
 30
0.0
 40
0.2499999999999929
 50
269.99999999999841
 51
0.0000000000016284
1001
GENIUS_GENOBJ-N-FIL_13
1002
{
1000
OWNER
1000
GEN
1002
}
1001
GENIUS_GENODEF_13
1002
{
1000
HIER
1070
     0
1002
}
1002
{
1000
MANEDIT
1070
     0
1002
}
1002
{
1000
NOSEL
1070
     0
1002
}
1002
{
1000
BEHIND
1070
     0
1002
}
1002
{
1000
OTHER
1070
     0
1002
}
1002
{
1000
REACTOR
1002
}
  0
LINE
  5
27E7
  8
SAPA_PROFIL
 62
     4
 10
32.750567349944497
 20
61.299999856859777
 30
0.0
 11
32.750555707209507
 21
61.736601778437922
 31
0.0
1001
GENIUS_GENOBJ-N-FIL_13
1002
{
1000
OWNER
1000
GEN
1002
}
1001
GENIUS_GENODEF_13
1002
{
1000
HIER
1070
     0
1002
}
1002
{
1000
MANEDIT
1070
     0
1002
}
1002
{
1000
NOSEL
1070
     0
1002
}
1002
{
1000
BEHIND
1070
     0
1002
}
1002
{
1000
OTHER
1070
     0
1002
}
1002
{
1000
REACTOR
1002
}
  0
LINE
  5
27E8
  8
SAPA_PROFIL
 62
     4
 10
32.750555707209507
 20
61.736601778437922
 30
0.0
 11
31.7455863766113
 21
63.477259719081729
 31
0.0
1001
GENIUS_GENOBJ-N-FIL_13
1002
{
1000
OWNER
1000
GEN
1002
}
1001
GENIUS_GENODEF_13
1002
{
1000
HIER
1070
     0
1002
}
1002
{
1000
MANEDIT
1070
     0
1002
}
1002
{
1000
NOSEL
1070
     0
1002
}
1002
{
1000
BEHIND
1070
     0
1002
}
1002
{
1000
OTHER
1070
     0
1002
}
1002
{
1000
REACTOR
1002
}
  0
ARC
  5
27E9
  8
SAPA_PROFIL
 62
     4
 10
32.784816861152592
 20
64.077259719081312
 30
0.0
 40
1.199999999999755
 50
179.9999999999626
 51
209.99999999998369
1001
GENIUS_GENOBJ-N-FIL_13
1002
{
1000
OWNER
1000
GEN
1002
}
1001
GENIUS_GENODEF_13
1002
{
1000
HIER
1070
     0
1002
}
1002
{
1000
MANEDIT
1070
     0
1002
}
1002
{
1000
NOSEL
1070
     0
1002
}
1002
{
1000
BEHIND
1070
     0
1002
}
1002
{
1000
OTHER
1070
     0
1002
}
1002
{
1000
REACTOR
1002
}
  0
LINE
  5
27EA
  8
SAPA_PROFIL
 62
     4
 10
31.584816861152831
 20
64.077259719082093
 30
0.0
 11
31.584816861153289
 21
66.799999856610583
 31
0.0
1001
GENIUS_GENOBJ-N-FIL_13
1002
{
1000
OWNER
1000
GEN
1002
}
1001
GENIUS_GENODEF_13
1002
{
1000
HIER
1070
     0
1002
}
1002
{
1000
MANEDIT
1070
     0
1002
}
1002
{
1000
NOSEL
1070
     0
1002
}
1002
{
1000
BEHIND
1070
     0
1002
}
1002
{
1000
OTHER
1070
     0
1002
}
1002
{
1000
REACTOR
1002
}
  0
ARC
  5
27EB
  8
SAPA_PROFIL
 62
     4
 10
32.784816861152883
 20
66.799999856609901
 30
0.0
 40
1.1999999999995901
 50
89.999999999772015
 51
179.9999999999674
1001
GENIUS_GENOBJ-N-FIL_13
1002
{
1000
OWNER
1000
GEN
1002
}
1001
GENIUS_GENODEF_13
1002
{
1000
HIER
1070
     0
1002
}
1002
{
1000
MANEDIT
1070
     0
1002
}
1002
{
1000
NOSEL
1070
     0
1002
}
1002
{
1000
BEHIND
1070
     0
1002
}
1002
{
1000
OTHER
1070
     0
1002
}
1002
{
1000
REACTOR
1002
}
  0
LINE
  5
27EC
  8
SAPA_PROFIL
 62
     4
 10
32.784816861157651
 20
67.999999856609492
 30
0.0
 11
58.582551888079252
 21
67.999999856520361
 31
0.0
1001
GENIUS_GENOBJ-N-FIL_13
1002
{
1000
OWNER
1000
GEN
1002
}
1001
GENIUS_GENODEF_13
1002
{
1000
HIER
1070
     0
1002
}
1002
{
1000
MANEDIT
1070
     0
1002
}
1002
{
1000
NOSEL
1070
     0
1002
}
1002
{
1000
BEHIND
1070
     0
1002
}
1002
{
1000
OTHER
1070
     0
1002
}
1002
{
1000
REACTOR
1002
}
  0
ARC
  5
27ED
  8
SAPA_PROFIL
 62
     4
 10
58.582551888079252
 20
68.499999856520361
 30
0.0
 40
0.5
 50
270.0
 51
0.0
1001
GENIUS_GENOBJ-N-FIL_13
1002
{
1000
OWNER
1000
GEN
1002
}
1001
GENIUS_GENODEF_13
1002
{
1000
HIER
1070
     0
1002
}
1002
{
1000
MANEDIT
1070
     0
1002
}
1002
{
1000
NOSEL
1070
     0
1002
}
1002
{
1000
BEHIND
1070
     0
1002
}
1002
{
1000
OTHER
1070
     0
1002
}
1002
{
1000
REACTOR
1002
}
  0
LINE
  5
27EE
  8
SAPA_PROFIL
 62
     4
 10
59.082551888079252
 20
68.499999856520361
 30
0.0
 11
59.082551888079699
 21
68.699999856520179
 31
0.0
1001
GENIUS_GENOBJ-N-FIL_13
1002
{
1000
OWNER
1000
GEN
1002
}
1001
GENIUS_GENODEF_13
1002
{
1000
HIER
1070
     0
1002
}
1002
{
1000
MANEDIT
1070
     0
1002
}
1002
{
1000
NOSEL
1070
     0
1002
}
1002
{
1000
BEHIND
1070
     0
1002
}
1002
{
1000
OTHER
1070
     0
1002
}
1002
{
1000
REACTOR
1002
}
  0
ARC
  5
27EF
  8
SAPA_PROFIL
 62
     4
 10
58.782551888079517
 20
68.699999856520179
 30
0.0
 40
0.3000000000001819
 50
0.0
 51
90.0
1001
GENIUS_GENOBJ-N-FIL_13
1002
{
1000
OWNER
1000
GEN
1002
}
1001
GENIUS_GENODEF_13
1002
{
1000
HIER
1070
     0
1002
}
1002
{
1000
MANEDIT
1070
     0
1002
}
1002
{
1000
NOSEL
1070
     0
1002
}
1002
{
1000
BEHIND
1070
     0
1002
}
1002
{
1000
OTHER
1070
     0
1002
}
1002
{
1000
REACTOR
1002
}
  0
LINE
  5
27F0
  8
SAPA_PROFIL
 62
     4
 10
58.782551888079517
 20
68.999999856520361
 30
0.0
 11
58.132551888077622
 21
68.999999856520361
 31
0.0
1001
GENIUS_GENOBJ-N-FIL_13
1002
{
1000
OWNER
1000
GEN
1002
}
1001
GENIUS_GENODEF_13
1002
{
1000
HIER
1070
     0
1002
}
1002
{
1000
MANEDIT
1070
     0
1002
}
1002
{
1000
NOSEL
1070
     0
1002
}
1002
{
1000
BEHIND
1070
     0
1002
}
1002
{
1000
OTHER
1070
     0
1002
}
1002
{
1000
REACTOR
1002
}
  0
ARC
  5
27F1
  8
SAPA_PROFIL
 62
     4
 10
58.132551888078069
 20
69.299999856520984
 30
0.0
 40
0.3000000000006366
 50
179.99999999991309
 51
269.99999999991309
1001
GENIUS_GENOBJ-N-FIL_13
1002
{
1000
OWNER
1000
GEN
1002
}
1001
GENIUS_GENODEF_13
1002
{
1000
HIER
1070
     0
1002
}
1002
{
1000
MANEDIT
1070
     0
1002
}
1002
{
1000
NOSEL
1070
     0
1002
}
1002
{
1000
BEHIND
1070
     0
1002
}
1002
{
1000
OTHER
1070
     0
1002
}
1002
{
1000
REACTOR
1002
}
  0
LINE
  5
27F2
  8
SAPA_PROFIL
 62
     4
 10
57.832551888077433
 20
69.299999856521453
 30
0.0
 11
57.832551888078342
 21
70.199999856517451
 31
0.0
1001
GENIUS_GENOBJ-N-FIL_13
1002
{
1000
OWNER
1000
GEN
1002
}
1001
GENIUS_GENODEF_13
1002
{
1000
HIER
1070
     0
1002
}
1002
{
1000
MANEDIT
1070
     0
1002
}
1002
{
1000
NOSEL
1070
     0
1002
}
1002
{
1000
BEHIND
1070
     0
1002
}
1002
{
1000
OTHER
1070
     0
1002
}
1002
{
1000
REACTOR
1002
}
  0
ARC
  5
27F3
  8
SAPA_PROFIL
 62
     4
 10
58.332551888077887
 20
70.199999856517906
 30
0.0
 40
0.4999999999995453
 50
90.000000000052125
 51
180.0000000000521
1001
GENIUS_GENOBJ-N-FIL_13
1002
{
1000
OWNER
1000
GEN
1002
}
1001
GENIUS_GENODEF_13
1002
{
1000
HIER
1070
     0
1002
}
1002
{
1000
MANEDIT
1070
     0
1002
}
1002
{
1000
NOSEL
1070
     0
1002
}
1002
{
1000
BEHIND
1070
     0
1002
}
1002
{
1000
OTHER
1070
     0
1002
}
1002
{
1000
REACTOR
1002
}
  0
LINE
  5
27F4
  8
SAPA_PROFIL
 62
     4
 10
58.332551888077433
 20
70.699999856517451
 30
0.0
 11
64.332551888079252
 21
70.699999856517451
 31
0.0
1001
GENIUS_GENOBJ-N-FIL_13
1002
{
1000
OWNER
1000
GEN
1002
}
1001
GENIUS_GENODEF_13
1002
{
1000
HIER
1070
     0
1002
}
1002
{
1000
MANEDIT
1070
     0
1002
}
1002
{
1000
NOSEL
1070
     0
1002
}
1002
{
1000
BEHIND
1070
     0
1002
}
1002
{
1000
OTHER
1070
     0
1002
}
1002
{
1000
REACTOR
1002
}
  0
ARC
  5
27F5
  8
SAPA_PROFIL
 62
     4
 10
64.332551888079252
 20
70.199999856517451
 30
0.0
 40
0.5
 50
0.0
 51
90.0
1001
GENIUS_GENOBJ-N-FIL_13
1002
{
1000
OWNER
1000
GEN
1002
}
1001
GENIUS_GENODEF_13
1002
{
1000
HIER
1070
     0
1002
}
1002
{
1000
MANEDIT
1070
     0
1002
}
1002
{
1000
NOSEL
1070
     0
1002
}
1002
{
1000
BEHIND
1070
     0
1002
}
1002
{
1000
OTHER
1070
     0
1002
}
1002
{
1000
REACTOR
1002
}
  0
LINE
  5
27F6
  8
SAPA_PROFIL
 62
     4
 10
64.832551888079252
 20
70.199999856517451
 30
0.0
 11
64.832551888079252
 21
69.299999856518724
 31
0.0
1001
GENIUS_GENOBJ-N-FIL_13
1002
{
1000
OWNER
1000
GEN
1002
}
1001
GENIUS_GENODEF_13
1002
{
1000
HIER
1070
     0
1002
}
1002
{
1000
MANEDIT
1070
     0
1002
}
1002
{
1000
NOSEL
1070
     0
1002
}
1002
{
1000
BEHIND
1070
     0
1002
}
1002
{
1000
OTHER
1070
     0
1002
}
1002
{
1000
REACTOR
1002
}
  0
ARC
  5
27F7
  8
SAPA_PROFIL
 62
     4
 10
64.532551888079638
 20
69.299999856519065
 30
0.0
 40
0.2999999999996135
 50
270.00000000032571
 51
359.99999999993491
1001
GENIUS_GENOBJ-N-FIL_13
1002
{
1000
OWNER
1000
GEN
1002
}
1001
GENIUS_GENODEF_13
1002
{
1000
HIER
1070
     0
1002
}
1002
{
1000
MANEDIT
1070
     0
1002
}
1002
{
1000
NOSEL
1070
     0
1002
}
1002
{
1000
BEHIND
1070
     0
1002
}
1002
{
1000
OTHER
1070
     0
1002
}
1002
{
1000
REACTOR
1002
}
  0
LINE
  5
27F8
  8
SAPA_PROFIL
 62
     4
 10
64.532551888081343
 20
68.999999856519452
 30
0.0
 11
63.882551888079433
 21
68.999999856514904
 31
0.0
1001
GENIUS_GENOBJ-N-FIL_13
1002
{
1000
OWNER
1000
GEN
1002
}
1001
GENIUS_GENODEF_13
1002
{
1000
HIER
1070
     0
1002
}
1002
{
1000
MANEDIT
1070
     0
1002
}
1002
{
1000
NOSEL
1070
     0
1002
}
1002
{
1000
BEHIND
1070
     0
1002
}
1002
{
1000
OTHER
1070
     0
1002
}
1002
{
1000
REACTOR
1002
}
  0
ARC
  5
27F9
  8
SAPA_PROFIL
 62
     4
 10
63.88255188808148
 20
68.69999985651495
 30
0.0
 40
0.2999999999999545
 50
90.000000000390827
 51
180.0000000003908
1001
GENIUS_GENOBJ-N-FIL_13
1002
{
1000
OWNER
1000
GEN
1002
}
1001
GENIUS_GENODEF_13
1002
{
1000
HIER
1070
     0
1002
}
1002
{
1000
MANEDIT
1070
     0
1002
}
1002
{
1000
NOSEL
1070
     0
1002
}
1002
{
1000
BEHIND
1070
     0
1002
}
1002
{
1000
OTHER
1070
     0
1002
}
1002
{
1000
REACTOR
1002
}
  0
LINE
  5
27FA
  8
SAPA_PROFIL
 62
     4
 10
63.582551888081518
 20
68.699999856512903
 30
0.0
 11
63.582551888082428
 21
68.499999856520361
 31
0.0
1001
GENIUS_GENOBJ-N-FIL_13
1002
{
1000
OWNER
1000
GEN
1002
}
1001
GENIUS_GENODEF_13
1002
{
1000
HIER
1070
     0
1002
}
1002
{
1000
MANEDIT
1070
     0
1002
}
1002
{
1000
NOSEL
1070
     0
1002
}
1002
{
1000
BEHIND
1070
     0
1002
}
1002
{
1000
OTHER
1070
     0
1002
}
1002
{
1000
REACTOR
1002
}
  0
ARC
  5
27FB
  8
SAPA_PROFIL
 62
     4
 10
64.082551888082435
 20
68.499999856520361
 30
0.0
 40
0.5
 50
180.0
 51
270.0
1001
GENIUS_GENOBJ-N-FIL_13
1002
{
1000
OWNER
1000
GEN
1002
}
1001
GENIUS_GENODEF_13
1002
{
1000
HIER
1070
     0
1002
}
1002
{
1000
MANEDIT
1070
     0
1002
}
1002
{
1000
NOSEL
1070
     0
1002
}
1002
{
1000
BEHIND
1070
     0
1002
}
1002
{
1000
OTHER
1070
     0
1002
}
1002
{
1000
REACTOR
1002
}
  0
LINE
  5
27FC
  8
SAPA_PROFIL
 62
     4
 10
64.082551888082435
 20
67.999999856520361
 30
0.0
 11
67.082551888082435
 21
67.999999856520361
 31
0.0
1001
GENIUS_GENOBJ-N-FIL_13
1002
{
1000
OWNER
1000
GEN
1002
}
1001
GENIUS_GENODEF_13
1002
{
1000
HIER
1070
     0
1002
}
1002
{
1000
MANEDIT
1070
     0
1002
}
1002
{
1000
NOSEL
1070
     0
1002
}
1002
{
1000
BEHIND
1070
     0
1002
}
1002
{
1000
OTHER
1070
     0
1002
}
1002
{
1000
REACTOR
1002
}
  0
ARC
  5
27FD
  8
SAPA_PROFIL
 62
     4
 10
67.082551888082435
 20
68.499999856520361
 30
0.0
 40
0.5
 50
270.0
 51
0.0
1001
GENIUS_GENOBJ-N-FIL_13
1002
{
1000
OWNER
1000
GEN
1002
}
1001
GENIUS_GENODEF_13
1002
{
1000
HIER
1070
     0
1002
}
1002
{
1000
MANEDIT
1070
     0
1002
}
1002
{
1000
NOSEL
1070
     0
1002
}
1002
{
1000
BEHIND
1070
     0
1002
}
1002
{
1000
OTHER
1070
     0
1002
}
1002
{
1000
REACTOR
1002
}
  0
LINE
  5
27FE
  8
SAPA_PROFIL
 62
     4
 10
67.582551888082435
 20
68.499999856520361
 30
0.0
 11
67.582551888082435
 21
68.699999856520179
 31
0.0
1001
GENIUS_GENOBJ-N-FIL_13
1002
{
1000
OWNER
1000
GEN
1002
}
1001
GENIUS_GENODEF_13
1002
{
1000
HIER
1070
     0
1002
}
1002
{
1000
MANEDIT
1070
     0
1002
}
1002
{
1000
NOSEL
1070
     0
1002
}
1002
{
1000
BEHIND
1070
     0
1002
}
1002
{
1000
OTHER
1070
     0
1002
}
1002
{
1000
REACTOR
1002
}
  0
ARC
  5
27FF
  8
SAPA_PROFIL
 62
     4
 10
67.282551888082253
 20
68.699999856520179
 30
0.0
 40
0.3000000000001819
 50
0.0
 51
90.0
1001
GENIUS_GENOBJ-N-FIL_13
1002
{
1000
OWNER
1000
GEN
1002
}
1001
GENIUS_GENODEF_13
1002
{
1000
HIER
1070
     0
1002
}
1002
{
1000
MANEDIT
1070
     0
1002
}
1002
{
1000
NOSEL
1070
     0
1002
}
1002
{
1000
BEHIND
1070
     0
1002
}
1002
{
1000
OTHER
1070
     0
1002
}
1002
{
1000
REACTOR
1002
}
  0
LINE
  5
2800
  8
SAPA_PROFIL
 62
     4
 10
67.282551888082253
 20
68.999999856520361
 30
0.0
 11
66.632551888082617
 21
68.999999856520361
 31
0.0
1001
GENIUS_GENOBJ-N-FIL_13
1002
{
1000
OWNER
1000
GEN
1002
}
1001
GENIUS_GENODEF_13
1002
{
1000
HIER
1070
     0
1002
}
1002
{
1000
MANEDIT
1070
     0
1002
}
1002
{
1000
NOSEL
1070
     0
1002
}
1002
{
1000
BEHIND
1070
     0
1002
}
1002
{
1000
OTHER
1070
     0
1002
}
1002
{
1000
REACTOR
1002
}
  0
ARC
  5
2801
  8
SAPA_PROFIL
 62
     4
 10
66.632551888083071
 20
69.299999856520984
 30
0.0
 40
0.3000000000006366
 50
179.99999999991309
 51
269.99999999991309
1001
GENIUS_GENOBJ-N-FIL_13
1002
{
1000
OWNER
1000
GEN
1002
}
1001
GENIUS_GENODEF_13
1002
{
1000
HIER
1070
     0
1002
}
1002
{
1000
MANEDIT
1070
     0
1002
}
1002
{
1000
NOSEL
1070
     0
1002
}
1002
{
1000
BEHIND
1070
     0
1002
}
1002
{
1000
OTHER
1070
     0
1002
}
1002
{
1000
REACTOR
1002
}
  0
LINE
  5
2802
  8
SAPA_PROFIL
 62
     4
 10
66.332551888082435
 20
69.299999856521453
 30
0.0
 11
66.332551888082435
 21
70.199999856517451
 31
0.0
1001
GENIUS_GENOBJ-N-FIL_13
1002
{
1000
OWNER
1000
GEN
1002
}
1001
GENIUS_GENODEF_13
1002
{
1000
HIER
1070
     0
1002
}
1002
{
1000
MANEDIT
1070
     0
1002
}
1002
{
1000
NOSEL
1070
     0
1002
}
1002
{
1000
BEHIND
1070
     0
1002
}
1002
{
1000
OTHER
1070
     0
1002
}
1002
{
1000
REACTOR
1002
}
  0
ARC
  5
2803
  8
SAPA_PROFIL
 62
     4
 10
66.832551888082435
 20
70.199999856517451
 30
0.0
 40
0.5
 50
90.0
 51
180.0
1001
GENIUS_GENOBJ-N-FIL_13
1002
{
1000
OWNER
1000
GEN
1002
}
1001
GENIUS_GENODEF_13
1002
{
1000
HIER
1070
     0
1002
}
1002
{
1000
MANEDIT
1070
     0
1002
}
1002
{
1000
NOSEL
1070
     0
1002
}
1002
{
1000
BEHIND
1070
     0
1002
}
1002
{
1000
OTHER
1070
     0
1002
}
1002
{
1000
REACTOR
1002
}
  0
LINE
  5
2804
  8
SAPA_PROFIL
 62
     4
 10
66.832551888082435
 20
70.699999856517451
 30
0.0
 11
72.832551888082435
 21
70.699999856517451
 31
0.0
1001
GENIUS_GENOBJ-N-FIL_13
1002
{
1000
OWNER
1000
GEN
1002
}
1001
GENIUS_GENODEF_13
1002
{
1000
HIER
1070
     0
1002
}
1002
{
1000
MANEDIT
1070
     0
1002
}
1002
{
1000
NOSEL
1070
     0
1002
}
1002
{
1000
BEHIND
1070
     0
1002
}
1002
{
1000
OTHER
1070
     0
1002
}
1002
{
1000
REACTOR
1002
}
  0
ARC
  5
2805
  8
SAPA_PROFIL
 62
     4
 10
72.832551888082435
 20
70.199999856517451
 30
0.0
 40
0.5
 50
0.0
 51
90.0
1001
GENIUS_GENOBJ-N-FIL_13
1002
{
1000
OWNER
1000
GEN
1002
}
1001
GENIUS_GENODEF_13
1002
{
1000
HIER
1070
     0
1002
}
1002
{
1000
MANEDIT
1070
     0
1002
}
1002
{
1000
NOSEL
1070
     0
1002
}
1002
{
1000
BEHIND
1070
     0
1002
}
1002
{
1000
OTHER
1070
     0
1002
}
1002
{
1000
REACTOR
1002
}
  0
LINE
  5
2806
  8
SAPA_PROFIL
 62
     4
 10
73.332551888082435
 20
70.199999856517451
 30
0.0
 11
73.332551888082435
 21
69.299999856521453
 31
0.0
1001
GENIUS_GENOBJ-N-FIL_13
1002
{
1000
OWNER
1000
GEN
1002
}
1001
GENIUS_GENODEF_13
1002
{
1000
HIER
1070
     0
1002
}
1002
{
1000
MANEDIT
1070
     0
1002
}
1002
{
1000
NOSEL
1070
     0
1002
}
1002
{
1000
BEHIND
1070
     0
1002
}
1002
{
1000
OTHER
1070
     0
1002
}
1002
{
1000
REACTOR
1002
}
  0
ARC
  5
2807
  8
SAPA_PROFIL
 62
     4
 10
73.032551888081784
 20
69.299999856520984
 30
0.0
 40
0.3000000000006366
 50
270.0000000000868
 51
0.0000000000868503
1001
GENIUS_GENOBJ-N-FIL_13
1002
{
1000
OWNER
1000
GEN
1002
}
1001
GENIUS_GENODEF_13
1002
{
1000
HIER
1070
     0
1002
}
1002
{
1000
MANEDIT
1070
     0
1002
}
1002
{
1000
NOSEL
1070
     0
1002
}
1002
{
1000
BEHIND
1070
     0
1002
}
1002
{
1000
OTHER
1070
     0
1002
}
1002
{
1000
REACTOR
1002
}
  0
LINE
  5
2808
  8
SAPA_PROFIL
 62
     4
 10
73.032551888082253
 20
68.999999856520361
 30
0.0
 11
72.382551888082617
 21
68.999999856520361
 31
0.0
1001
GENIUS_GENOBJ-N-FIL_13
1002
{
1000
OWNER
1000
GEN
1002
}
1001
GENIUS_GENODEF_13
1002
{
1000
HIER
1070
     0
1002
}
1002
{
1000
MANEDIT
1070
     0
1002
}
1002
{
1000
NOSEL
1070
     0
1002
}
1002
{
1000
BEHIND
1070
     0
1002
}
1002
{
1000
OTHER
1070
     0
1002
}
1002
{
1000
REACTOR
1002
}
  0
ARC
  5
2809
  8
SAPA_PROFIL
 62
     4
 10
72.382551888082617
 20
68.699999856520179
 30
0.0
 40
0.3000000000001819
 50
90.0
 51
180.0
1001
GENIUS_GENOBJ-N-FIL_13
1002
{
1000
OWNER
1000
GEN
1002
}
1001
GENIUS_GENODEF_13
1002
{
1000
HIER
1070
     0
1002
}
1002
{
1000
MANEDIT
1070
     0
1002
}
1002
{
1000
NOSEL
1070
     0
1002
}
1002
{
1000
BEHIND
1070
     0
1002
}
1002
{
1000
OTHER
1070
     0
1002
}
1002
{
1000
REACTOR
1002
}
  0
LINE
  5
280A
  8
SAPA_PROFIL
 62
     4
 10
72.082551888082435
 20
68.699999856520179
 30
0.0
 11
72.082551888082435
 21
68.499999856520361
 31
0.0
1001
GENIUS_GENOBJ-N-FIL_13
1002
{
1000
OWNER
1000
GEN
1002
}
1001
GENIUS_GENODEF_13
1002
{
1000
HIER
1070
     0
1002
}
1002
{
1000
MANEDIT
1070
     0
1002
}
1002
{
1000
NOSEL
1070
     0
1002
}
1002
{
1000
BEHIND
1070
     0
1002
}
1002
{
1000
OTHER
1070
     0
1002
}
1002
{
1000
REACTOR
1002
}
  0
ARC
  5
280B
  8
SAPA_PROFIL
 62
     4
 10
72.582551888082435
 20
68.499999856520361
 30
0.0
 40
0.5
 50
180.0
 51
270.0
1001
GENIUS_GENOBJ-N-FIL_13
1002
{
1000
OWNER
1000
GEN
1002
}
1001
GENIUS_GENODEF_13
1002
{
1000
HIER
1070
     0
1002
}
1002
{
1000
MANEDIT
1070
     0
1002
}
1002
{
1000
NOSEL
1070
     0
1002
}
1002
{
1000
BEHIND
1070
     0
1002
}
1002
{
1000
OTHER
1070
     0
1002
}
1002
{
1000
REACTOR
1002
}
  0
LINE
  5
280C
  8
SAPA_PROFIL
 62
     4
 10
72.582551888082435
 20
67.999999856520361
 30
0.0
 11
74.332551888082435
 21
67.999999856521271
 31
0.0
1001
GENIUS_GENOBJ-N-FIL_13
1002
{
1000
OWNER
1000
GEN
1002
}
1001
GENIUS_GENODEF_13
1002
{
1000
HIER
1070
     0
1002
}
1002
{
1000
MANEDIT
1070
     0
1002
}
1002
{
1000
NOSEL
1070
     0
1002
}
1002
{
1000
BEHIND
1070
     0
1002
}
1002
{
1000
OTHER
1070
     0
1002
}
1002
{
1000
REACTOR
1002
}
  0
ARC
  5
280D
  8
SAPA_PROFIL
 62
     4
 10
74.332551887915201
 20
68.499999856688504
 30
0.0
 40
0.5000000001672335
 50
270.00000001916351
 51
0.0000000190853636
1001
GENIUS_GENOBJ-N-FIL_13
1002
{
1000
OWNER
1000
GEN
1002
}
1001
GENIUS_GENODEF_13
1002
{
1000
HIER
1070
     0
1002
}
1002
{
1000
MANEDIT
1070
     0
1002
}
1002
{
1000
NOSEL
1070
     0
1002
}
1002
{
1000
BEHIND
1070
     0
1002
}
1002
{
1000
OTHER
1070
     0
1002
}
1002
{
1000
REACTOR
1002
}
  0
LINE
  5
280E
  8
SAPA_PROFIL
 62
     4
 10
74.832551888082435
 20
68.499999856855055
 30
0.0
 11
74.832551888082889
 21
81.499999856862345
 31
0.0
1001
GENIUS_GENOBJ-N-FIL_13
1002
{
1000
OWNER
1000
GEN
1002
}
1001
GENIUS_GENODEF_13
1002
{
1000
HIER
1070
     0
1002
}
1002
{
1000
MANEDIT
1070
     0
1002
}
1002
{
1000
NOSEL
1070
     0
1002
}
1002
{
1000
BEHIND
1070
     0
1002
}
1002
{
1000
OTHER
1070
     0
1002
}
1002
{
1000
REACTOR
1002
}
  0
ARC
  5
280F
  8
SAPA_PROFIL
 62
     4
 10
74.332551887945442
 20
81.49999985700137
 30
0.0
 40
0.5000000001374474
 50
359.9999999840673
 51
89.999999984093364
1001
GENIUS_GENOBJ-N-FIL_13
1002
{
1000
OWNER
1000
GEN
1002
}
1001
GENIUS_GENODEF_13
1002
{
1000
HIER
1070
     0
1002
}
1002
{
1000
MANEDIT
1070
     0
1002
}
1002
{
1000
NOSEL
1070
     0
1002
}
1002
{
1000
BEHIND
1070
     0
1002
}
1002
{
1000
OTHER
1070
     0
1002
}
1002
{
1000
REACTOR
1002
}
  0
LINE
  5
2810
  8
SAPA_PROFIL
 62
     4
 10
74.332551888084254
 20
81.999999857138818
 30
0.0
 11
72.582551888084254
 21
81.999999857138818
 31
0.0
1001
GENIUS_GENOBJ-N-FIL_13
1002
{
1000
OWNER
1000
GEN
1002
}
1001
GENIUS_GENODEF_13
1002
{
1000
HIER
1070
     0
1002
}
1002
{
1000
MANEDIT
1070
     0
1002
}
1002
{
1000
NOSEL
1070
     0
1002
}
1002
{
1000
BEHIND
1070
     0
1002
}
1002
{
1000
OTHER
1070
     0
1002
}
1002
{
1000
REACTOR
1002
}
  0
ARC
  5
2811
  8
SAPA_PROFIL
 62
     4
 10
72.582551888084254
 20
81.499999857138803
 30
0.0
 40
0.5
 50
90.0
 51
180.0
1001
GENIUS_GENOBJ-N-FIL_13
1002
{
1000
OWNER
1000
GEN
1002
}
1001
GENIUS_GENODEF_13
1002
{
1000
HIER
1070
     0
1002
}
1002
{
1000
MANEDIT
1070
     0
1002
}
1002
{
1000
NOSEL
1070
     0
1002
}
1002
{
1000
BEHIND
1070
     0
1002
}
1002
{
1000
OTHER
1070
     0
1002
}
1002
{
1000
REACTOR
1002
}
  0
LINE
  5
2812
  8
SAPA_PROFIL
 62
     4
 10
72.082551888084254
 20
81.499999857138803
 30
0.0
 11
72.082551888084254
 21
81.299999857138985
 31
0.0
1001
GENIUS_GENOBJ-N-FIL_13
1002
{
1000
OWNER
1000
GEN
1002
}
1001
GENIUS_GENODEF_13
1002
{
1000
HIER
1070
     0
1002
}
1002
{
1000
MANEDIT
1070
     0
1002
}
1002
{
1000
NOSEL
1070
     0
1002
}
1002
{
1000
BEHIND
1070
     0
1002
}
1002
{
1000
OTHER
1070
     0
1002
}
1002
{
1000
REACTOR
1002
}
  0
ARC
  5
2813
  8
SAPA_PROFIL
 62
     4
 10
72.382551888084436
 20
81.299999857138985
 30
0.0
 40
0.3000000000001819
 50
180.0
 51
270.0
1001
GENIUS_GENOBJ-N-FIL_13
1002
{
1000
OWNER
1000
GEN
1002
}
1001
GENIUS_GENODEF_13
1002
{
1000
HIER
1070
     0
1002
}
1002
{
1000
MANEDIT
1070
     0
1002
}
1002
{
1000
NOSEL
1070
     0
1002
}
1002
{
1000
BEHIND
1070
     0
1002
}
1002
{
1000
OTHER
1070
     0
1002
}
1002
{
1000
REACTOR
1002
}
  0
LINE
  5
2814
  8
SAPA_PROFIL
 62
     4
 10
72.382551888084436
 20
80.999999857138818
 30
0.0
 11
73.032551888084527
 21
80.999999857138818
 31
0.0
1001
GENIUS_GENOBJ-N-FIL_13
1002
{
1000
OWNER
1000
GEN
1002
}
1001
GENIUS_GENODEF_13
1002
{
1000
HIER
1070
     0
1002
}
1002
{
1000
MANEDIT
1070
     0
1002
}
1002
{
1000
NOSEL
1070
     0
1002
}
1002
{
1000
BEHIND
1070
     0
1002
}
1002
{
1000
OTHER
1070
     0
1002
}
1002
{
1000
REACTOR
1002
}
  0
ARC
  5
2815
  8
SAPA_PROFIL
 62
     4
 10
73.032551888084754
 20
80.699999857139318
 30
0.0
 40
0.2999999999994998
 50
0.0000000000434252
 51
90.000000000043414
1001
GENIUS_GENOBJ-N-FIL_13
1002
{
1000
OWNER
1000
GEN
1002
}
1001
GENIUS_GENODEF_13
1002
{
1000
HIER
1070
     0
1002
}
1002
{
1000
MANEDIT
1070
     0
1002
}
1002
{
1000
NOSEL
1070
     0
1002
}
1002
{
1000
BEHIND
1070
     0
1002
}
1002
{
1000
OTHER
1070
     0
1002
}
1002
{
1000
REACTOR
1002
}
  0
LINE
  5
2816
  8
SAPA_PROFIL
 62
     4
 10
73.332551888084254
 20
80.699999857139545
 30
0.0
 11
73.332551888084254
 21
79.799999857141714
 31
0.0
1001
GENIUS_GENOBJ-N-FIL_13
1002
{
1000
OWNER
1000
GEN
1002
}
1001
GENIUS_GENODEF_13
1002
{
1000
HIER
1070
     0
1002
}
1002
{
1000
MANEDIT
1070
     0
1002
}
1002
{
1000
NOSEL
1070
     0
1002
}
1002
{
1000
BEHIND
1070
     0
1002
}
1002
{
1000
OTHER
1070
     0
1002
}
1002
{
1000
REACTOR
1002
}
  0
ARC
  5
2817
  8
SAPA_PROFIL
 62
     4
 10
72.832551888084254
 20
79.799999857141714
 30
0.0
 40
0.5
 50
270.0
 51
0.0
1001
GENIUS_GENOBJ-N-FIL_13
1002
{
1000
OWNER
1000
GEN
1002
}
1001
GENIUS_GENODEF_13
1002
{
1000
HIER
1070
     0
1002
}
1002
{
1000
MANEDIT
1070
     0
1002
}
1002
{
1000
NOSEL
1070
     0
1002
}
1002
{
1000
BEHIND
1070
     0
1002
}
1002
{
1000
OTHER
1070
     0
1002
}
1002
{
1000
REACTOR
1002
}
  0
LINE
  5
2818
  8
SAPA_PROFIL
 62
     4
 10
72.832551888084254
 20
79.299999857141714
 30
0.0
 11
66.832551888084254
 21
79.299999857141714
 31
0.0
1001
GENIUS_GENOBJ-N-FIL_13
1002
{
1000
OWNER
1000
GEN
1002
}
1001
GENIUS_GENODEF_13
1002
{
1000
HIER
1070
     0
1002
}
1002
{
1000
MANEDIT
1070
     0
1002
}
1002
{
1000
NOSEL
1070
     0
1002
}
1002
{
1000
BEHIND
1070
     0
1002
}
1002
{
1000
OTHER
1070
     0
1002
}
1002
{
1000
REACTOR
1002
}
  0
ARC
  5
2819
  8
SAPA_PROFIL
 62
     4
 10
66.832551888084254
 20
79.799999857141714
 30
0.0
 40
0.5
 50
180.0
 51
270.0
1001
GENIUS_GENOBJ-N-FIL_13
1002
{
1000
OWNER
1000
GEN
1002
}
1001
GENIUS_GENODEF_13
1002
{
1000
HIER
1070
     0
1002
}
1002
{
1000
MANEDIT
1070
     0
1002
}
1002
{
1000
NOSEL
1070
     0
1002
}
1002
{
1000
BEHIND
1070
     0
1002
}
1002
{
1000
OTHER
1070
     0
1002
}
1002
{
1000
REACTOR
1002
}
  0
LINE
  5
281A
  8
SAPA_PROFIL
 62
     4
 10
66.332551888084254
 20
79.799999857141714
 30
0.0
 11
66.332551888084254
 21
80.699999857139545
 31
0.0
1001
GENIUS_GENOBJ-N-FIL_13
1002
{
1000
OWNER
1000
GEN
1002
}
1001
GENIUS_GENODEF_13
1002
{
1000
HIER
1070
     0
1002
}
1002
{
1000
MANEDIT
1070
     0
1002
}
1002
{
1000
NOSEL
1070
     0
1002
}
1002
{
1000
BEHIND
1070
     0
1002
}
1002
{
1000
OTHER
1070
     0
1002
}
1002
{
1000
REACTOR
1002
}
  0
ARC
  5
281B
  8
SAPA_PROFIL
 62
     4
 10
66.632551888083981
 20
80.69999985713909
 30
0.0
 40
0.2999999999997271
 50
89.999999999913143
 51
179.99999999991309
1001
GENIUS_GENOBJ-N-FIL_13
1002
{
1000
OWNER
1000
GEN
1002
}
1001
GENIUS_GENODEF_13
1002
{
1000
HIER
1070
     0
1002
}
1002
{
1000
MANEDIT
1070
     0
1002
}
1002
{
1000
NOSEL
1070
     0
1002
}
1002
{
1000
BEHIND
1070
     0
1002
}
1002
{
1000
OTHER
1070
     0
1002
}
1002
{
1000
REACTOR
1002
}
  0
LINE
  5
281C
  8
SAPA_PROFIL
 62
     4
 10
66.632551888084436
 20
80.999999857138818
 30
0.0
 11
67.282551888084527
 21
80.999999857138818
 31
0.0
1001
GENIUS_GENOBJ-N-FIL_13
1002
{
1000
OWNER
1000
GEN
1002
}
1001
GENIUS_GENODEF_13
1002
{
1000
HIER
1070
     0
1002
}
1002
{
1000
MANEDIT
1070
     0
1002
}
1002
{
1000
NOSEL
1070
     0
1002
}
1002
{
1000
BEHIND
1070
     0
1002
}
1002
{
1000
OTHER
1070
     0
1002
}
1002
{
1000
REACTOR
1002
}
  0
ARC
  5
281D
  8
SAPA_PROFIL
 62
     4
 10
67.282551888084299
 20
81.299999857138786
 30
0.0
 40
0.2999999999999545
 50
270.00000000004343
 51
0.0000000000434252
1001
GENIUS_GENOBJ-N-FIL_13
1002
{
1000
OWNER
1000
GEN
1002
}
1001
GENIUS_GENODEF_13
1002
{
1000
HIER
1070
     0
1002
}
1002
{
1000
MANEDIT
1070
     0
1002
}
1002
{
1000
NOSEL
1070
     0
1002
}
1002
{
1000
BEHIND
1070
     0
1002
}
1002
{
1000
OTHER
1070
     0
1002
}
1002
{
1000
REACTOR
1002
}
  0
LINE
  5
281E
  8
SAPA_PROFIL
 62
     4
 10
67.582551888084254
 20
81.299999857138985
 30
0.0
 11
67.582551888084254
 21
81.499999857138803
 31
0.0
1001
GENIUS_GENOBJ-N-FIL_13
1002
{
1000
OWNER
1000
GEN
1002
}
1001
GENIUS_GENODEF_13
1002
{
1000
HIER
1070
     0
1002
}
1002
{
1000
MANEDIT
1070
     0
1002
}
1002
{
1000
NOSEL
1070
     0
1002
}
1002
{
1000
BEHIND
1070
     0
1002
}
1002
{
1000
OTHER
1070
     0
1002
}
1002
{
1000
REACTOR
1002
}
  0
ARC
  5
281F
  8
SAPA_PROFIL
 62
     4
 10
67.082551888084254
 20
81.499999857138803
 30
0.0
 40
0.5
 50
0.0
 51
90.0
1001
GENIUS_GENOBJ-N-FIL_13
1002
{
1000
OWNER
1000
GEN
1002
}
1001
GENIUS_GENODEF_13
1002
{
1000
HIER
1070
     0
1002
}
1002
{
1000
MANEDIT
1070
     0
1002
}
1002
{
1000
NOSEL
1070
     0
1002
}
1002
{
1000
BEHIND
1070
     0
1002
}
1002
{
1000
OTHER
1070
     0
1002
}
1002
{
1000
REACTOR
1002
}
  0
LINE
  5
2820
  8
SAPA_PROFIL
 62
     4
 10
67.082551888084254
 20
81.999999857138818
 30
0.0
 11
64.082551888084254
 21
81.999999857138818
 31
0.0
1001
GENIUS_GENOBJ-N-FIL_13
1002
{
1000
OWNER
1000
GEN
1002
}
1001
GENIUS_GENODEF_13
1002
{
1000
HIER
1070
     0
1002
}
1002
{
1000
MANEDIT
1070
     0
1002
}
1002
{
1000
NOSEL
1070
     0
1002
}
1002
{
1000
BEHIND
1070
     0
1002
}
1002
{
1000
OTHER
1070
     0
1002
}
1002
{
1000
REACTOR
1002
}
  0
ARC
  5
2821
  8
SAPA_PROFIL
 62
     4
 10
64.082551888084254
 20
81.499999857138803
 30
0.0
 40
0.5
 50
90.0
 51
180.0
1001
GENIUS_GENOBJ-N-FIL_13
1002
{
1000
OWNER
1000
GEN
1002
}
1001
GENIUS_GENODEF_13
1002
{
1000
HIER
1070
     0
1002
}
1002
{
1000
MANEDIT
1070
     0
1002
}
1002
{
1000
NOSEL
1070
     0
1002
}
1002
{
1000
BEHIND
1070
     0
1002
}
1002
{
1000
OTHER
1070
     0
1002
}
1002
{
1000
REACTOR
1002
}
  0
LINE
  5
2822
  8
SAPA_PROFIL
 62
     4
 10
63.582551888084247
 20
81.499999857138803
 30
0.0
 11
63.582551888083337
 21
81.299999857146275
 31
0.0
1001
GENIUS_GENOBJ-N-FIL_13
1002
{
1000
OWNER
1000
GEN
1002
}
1001
GENIUS_GENODEF_13
1002
{
1000
HIER
1070
     0
1002
}
1002
{
1000
MANEDIT
1070
     0
1002
}
1002
{
1000
NOSEL
1070
     0
1002
}
1002
{
1000
BEHIND
1070
     0
1002
}
1002
{
1000
OTHER
1070
     0
1002
}
1002
{
1000
REACTOR
1002
}
  0
ARC
  5
2823
  8
SAPA_PROFIL
 62
     4
 10
63.882551888083412
 20
81.299999857144343
 30
0.0
 40
0.3000000000000682
 50
179.99999999963089
 51
269.99999999958749
1001
GENIUS_GENOBJ-N-FIL_13
1002
{
1000
OWNER
1000
GEN
1002
}
1001
GENIUS_GENODEF_13
1002
{
1000
HIER
1070
     0
1002
}
1002
{
1000
MANEDIT
1070
     0
1002
}
1002
{
1000
NOSEL
1070
     0
1002
}
1002
{
1000
BEHIND
1070
     0
1002
}
1002
{
1000
OTHER
1070
     0
1002
}
1002
{
1000
REACTOR
1002
}
  0
LINE
  5
2824
  8
SAPA_PROFIL
 62
     4
 10
63.882551888081252
 20
80.999999857144275
 30
0.0
 11
64.532551888082253
 21
80.999999857141546
 31
0.0
1001
GENIUS_GENOBJ-N-FIL_13
1002
{
1000
OWNER
1000
GEN
1002
}
1001
GENIUS_GENODEF_13
1002
{
1000
HIER
1070
     0
1002
}
1002
{
1000
MANEDIT
1070
     0
1002
}
1002
{
1000
NOSEL
1070
     0
1002
}
1002
{
1000
BEHIND
1070
     0
1002
}
1002
{
1000
OTHER
1070
     0
1002
}
1002
{
1000
REACTOR
1002
}
  0
ARC
  5
2825
  8
SAPA_PROFIL
 62
     4
 10
64.532551888080889
 20
80.699999857140895
 30
0.0
 40
0.3000000000006366
 50
359.99999999991309
 51
89.999999999739444
1001
GENIUS_GENOBJ-N-FIL_13
1002
{
1000
OWNER
1000
GEN
1002
}
1001
GENIUS_GENODEF_13
1002
{
1000
HIER
1070
     0
1002
}
1002
{
1000
MANEDIT
1070
     0
1002
}
1002
{
1000
NOSEL
1070
     0
1002
}
1002
{
1000
BEHIND
1070
     0
1002
}
1002
{
1000
OTHER
1070
     0
1002
}
1002
{
1000
REACTOR
1002
}
  0
LINE
  5
2826
  8
SAPA_PROFIL
 62
     4
 10
64.832551888081525
 20
80.699999857140455
 30
0.0
 11
64.832551888081525
 21
79.799999857141714
 31
0.0
1001
GENIUS_GENOBJ-N-FIL_13
1002
{
1000
OWNER
1000
GEN
1002
}
1001
GENIUS_GENODEF_13
1002
{
1000
HIER
1070
     0
1002
}
1002
{
1000
MANEDIT
1070
     0
1002
}
1002
{
1000
NOSEL
1070
     0
1002
}
1002
{
1000
BEHIND
1070
     0
1002
}
1002
{
1000
OTHER
1070
     0
1002
}
1002
{
1000
REACTOR
1002
}
  0
ARC
  5
2827
  8
SAPA_PROFIL
 62
     4
 10
64.332551888081525
 20
79.799999857141714
 30
0.0
 40
0.5
 50
270.0
 51
0.0
1001
GENIUS_GENOBJ-N-FIL_13
1002
{
1000
OWNER
1000
GEN
1002
}
1001
GENIUS_GENODEF_13
1002
{
1000
HIER
1070
     0
1002
}
1002
{
1000
MANEDIT
1070
     0
1002
}
1002
{
1000
NOSEL
1070
     0
1002
}
1002
{
1000
BEHIND
1070
     0
1002
}
1002
{
1000
OTHER
1070
     0
1002
}
1002
{
1000
REACTOR
1002
}
  0
LINE
  5
2828
  8
SAPA_PROFIL
 62
     4
 10
64.332551888081525
 20
79.299999857141714
 30
0.0
 11
58.332551888079252
 21
79.299999857149004
 31
0.0
1001
GENIUS_GENOBJ-N-FIL_13
1002
{
1000
OWNER
1000
GEN
1002
}
1001
GENIUS_GENODEF_13
1002
{
1000
HIER
1070
     0
1002
}
1002
{
1000
MANEDIT
1070
     0
1002
}
1002
{
1000
NOSEL
1070
     0
1002
}
1002
{
1000
BEHIND
1070
     0
1002
}
1002
{
1000
OTHER
1070
     0
1002
}
1002
{
1000
REACTOR
1002
}
  0
ARC
  5
2829
  8
SAPA_PROFIL
 62
     4
 10
58.332551888079252
 20
79.799999857149004
 30
0.0
 40
0.5
 50
180.0
 51
270.0
1001
GENIUS_GENOBJ-N-FIL_13
1002
{
1000
OWNER
1000
GEN
1002
}
1001
GENIUS_GENODEF_13
1002
{
1000
HIER
1070
     0
1002
}
1002
{
1000
MANEDIT
1070
     0
1002
}
1002
{
1000
NOSEL
1070
     0
1002
}
1002
{
1000
BEHIND
1070
     0
1002
}
1002
{
1000
OTHER
1070
     0
1002
}
1002
{
1000
REACTOR
1002
}
  0
LINE
  5
282A
  8
SAPA_PROFIL
 62
     4
 10
57.832551888079252
 20
79.799999857149004
 30
0.0
 11
57.832551888079252
 21
80.699999857145912
 31
0.0
1001
GENIUS_GENOBJ-N-FIL_13
1002
{
1000
OWNER
1000
GEN
1002
}
1001
GENIUS_GENODEF_13
1002
{
1000
HIER
1070
     0
1002
}
1002
{
1000
MANEDIT
1070
     0
1002
}
1002
{
1000
NOSEL
1070
     0
1002
}
1002
{
1000
BEHIND
1070
     0
1002
}
1002
{
1000
OTHER
1070
     0
1002
}
1002
{
1000
REACTOR
1002
}
  0
ARC
  5
282B
  8
SAPA_PROFIL
 62
     4
 10
58.132551888079433
 20
80.699999857145912
 30
0.0
 40
0.3000000000001819
 50
90.0
 51
180.0
1001
GENIUS_GENOBJ-N-FIL_13
1002
{
1000
OWNER
1000
GEN
1002
}
1001
GENIUS_GENODEF_13
1002
{
1000
HIER
1070
     0
1002
}
1002
{
1000
MANEDIT
1070
     0
1002
}
1002
{
1000
NOSEL
1070
     0
1002
}
1002
{
1000
BEHIND
1070
     0
1002
}
1002
{
1000
OTHER
1070
     0
1002
}
1002
{
1000
REACTOR
1002
}
  0
LINE
  5
282C
  8
SAPA_PROFIL
 62
     4
 10
58.132551888079433
 20
80.999999857146079
 30
0.0
 11
58.782551888081343
 21
80.999999857146079
 31
0.0
1001
GENIUS_GENOBJ-N-FIL_13
1002
{
1000
OWNER
1000
GEN
1002
}
1001
GENIUS_GENODEF_13
1002
{
1000
HIER
1070
     0
1002
}
1002
{
1000
MANEDIT
1070
     0
1002
}
1002
{
1000
NOSEL
1070
     0
1002
}
1002
{
1000
BEHIND
1070
     0
1002
}
1002
{
1000
OTHER
1070
     0
1002
}
1002
{
1000
REACTOR
1002
}
  0
ARC
  5
282D
  8
SAPA_PROFIL
 62
     4
 10
58.782551888081343
 20
81.299999857146275
 30
0.0
 40
0.3000000000001819
 50
270.0
 51
0.0
1001
GENIUS_GENOBJ-N-FIL_13
1002
{
1000
OWNER
1000
GEN
1002
}
1001
GENIUS_GENODEF_13
1002
{
1000
HIER
1070
     0
1002
}
1002
{
1000
MANEDIT
1070
     0
1002
}
1002
{
1000
NOSEL
1070
     0
1002
}
1002
{
1000
BEHIND
1070
     0
1002
}
1002
{
1000
OTHER
1070
     0
1002
}
1002
{
1000
REACTOR
1002
}
  0
LINE
  5
282E
  8
SAPA_PROFIL
 62
     4
 10
59.082551888081518
 20
81.299999857146275
 30
0.0
 11
59.082551888081518
 21
81.499999857146094
 31
0.0
1001
GENIUS_GENOBJ-N-FIL_13
1002
{
1000
OWNER
1000
GEN
1002
}
1001
GENIUS_GENODEF_13
1002
{
1000
HIER
1070
     0
1002
}
1002
{
1000
MANEDIT
1070
     0
1002
}
1002
{
1000
NOSEL
1070
     0
1002
}
1002
{
1000
BEHIND
1070
     0
1002
}
1002
{
1000
OTHER
1070
     0
1002
}
1002
{
1000
REACTOR
1002
}
  0
ARC
  5
282F
  8
SAPA_PROFIL
 62
     4
 10
58.582551888081518
 20
81.499999857146094
 30
0.0
 40
0.5
 50
0.0
 51
90.0
1001
GENIUS_GENOBJ-N-FIL_13
1002
{
1000
OWNER
1000
GEN
1002
}
1001
GENIUS_GENODEF_13
1002
{
1000
HIER
1070
     0
1002
}
1002
{
1000
MANEDIT
1070
     0
1002
}
1002
{
1000
NOSEL
1070
     0
1002
}
1002
{
1000
BEHIND
1070
     0
1002
}
1002
{
1000
OTHER
1070
     0
1002
}
1002
{
1000
REACTOR
1002
}
  0
LINE
  5
2830
  8
SAPA_PROFIL
 62
     4
 10
58.582551888081518
 20
81.999999857146094
 30
0.0
 11
32.784816861157651
 21
81.999999857064239
 31
0.0
1001
GENIUS_GENOBJ-N-FIL_13
1002
{
1000
OWNER
1000
GEN
1002
}
1001
GENIUS_GENODEF_13
1002
{
1000
HIER
1070
     0
1002
}
1002
{
1000
MANEDIT
1070
     0
1002
}
1002
{
1000
NOSEL
1070
     0
1002
}
1002
{
1000
BEHIND
1070
     0
1002
}
1002
{
1000
OTHER
1070
     0
1002
}
1002
{
1000
REACTOR
1002
}
  0
ARC
  5
2831
  8
SAPA_PROFIL
 62
     4
 10
32.784816861153558
 20
83.199999857064057
 30
0.0
 40
1.1999999999998181
 50
180.0
 51
270.00000000019543
1001
GENIUS_GENOBJ-N-FIL_13
1002
{
1000
OWNER
1000
GEN
1002
}
1001
GENIUS_GENODEF_13
1002
{
1000
HIER
1070
     0
1002
}
1002
{
1000
MANEDIT
1070
     0
1002
}
1002
{
1000
NOSEL
1070
     0
1002
}
1002
{
1000
BEHIND
1070
     0
1002
}
1002
{
1000
OTHER
1070
     0
1002
}
1002
{
1000
REACTOR
1002
}
  0
LINE
  5
2832
  8
SAPA_PROFIL
 62
     4
 10
31.58481686115374
 20
83.199999857064057
 30
0.0
 11
31.584816861153289
 21
85.928481207144117
 31
0.0
1001
GENIUS_GENOBJ-N-FIL_13
1002
{
1000
OWNER
1000
GEN
1002
}
1001
GENIUS_GENODEF_13
1002
{
1000
HIER
1070
     0
1002
}
1002
{
1000
MANEDIT
1070
     0
1002
}
1002
{
1000
NOSEL
1070
     0
1002
}
1002
{
1000
BEHIND
1070
     0
1002
}
1002
{
1000
OTHER
1070
     0
1002
}
1002
{
1000
REACTOR
1002
}
  0
LINE
  5
2833
  8
SAPA_PROFIL
 62
     4
 10
56.548290417563749
 20
78.299999789098791
 30
0.0
 11
56.548290417559663
 21
70.799999788540362
 31
0.0
  0
ARC
  5
2834
  8
SAPA_PROFIL
 62
     4
 10
55.548290417559649
 20
70.799999788540362
 30
0.0
 40
1.0
 50
270.0
 51
0.0
  0
LINE
  5
2835
  8
SAPA_PROFIL
 62
     4
 10
55.548290417559649
 20
69.799999788540362
 30
0.0
 11
32.400555390635873
 21
69.7999997885249
 31
0.0
  0
ARC
  5
2836
  8
SAPA_PROFIL
 62
     4
 10
32.400555390635873
 20
70.599999788525082
 30
0.0
 40
0.8000000000001818
 50
180.0
 51
270.0
  0
LINE
  5
2837
  8
SAPA_PROFIL
 62
     4
 10
31.600555390635691
 20
70.599999788525082
 30
0.0
 11
31.600555390635691
 21
79.399999789043676
 31
0.0
  0
ARC
  5
2838
  8
SAPA_PROFIL
 62
     4
 10
32.400555390635873
 20
79.399999789043676
 30
0.0
 40
0.8000000000001818
 50
89.999999999934857
 51
180.0
  0
LINE
  5
2839
  8
SAPA_PROFIL
 62
     4
 10
32.400555390636782
 20
80.199999789043844
 30
0.0
 11
55.548290417563749
 21
80.199999789020211
 31
0.0
  0
ARC
  5
283A
  8
SAPA_PROFIL
 62
     4
 10
55.548290417562271
 20
79.199999789020552
 30
0.0
 40
0.9999999999996589
 50
0.0000000000325689
 51
89.999999999915318
  0
LINE
  5
283B
  8
SAPA_PROFIL
 62
     4
 10
56.54829041756193
 20
79.19999978902112
 30
0.0
 11
56.548290417563749
 21
78.299999789098791
 31
0.0
  0
DIMENSION
  5
2857
  8
SAPA_MATT
  2
*D14
 10
134.00055534994451
 20
4.9999998568736821
 30
0.0
 11
134.00055534994451
 21
2.4999998568668831
 31
0.0
 70
   128
 13
73.000555349944534
 23
-0.0000001431399426
 33
0.0
 14
74.500555349946353
 24
4.999999856873699
 34
0.0
 50
90.000000000000028
1001
ACAD
1000
DSTYLE
1002
{
1070
    40
1040
1.0
1002
}
  0
DIMENSION
  5
2858
  8
SAPA_MATT
  2
*D13
 10
134.00055534994451
 20
67.999999856579009
 30
0.0
 11
131.50055534994451
 21
36.499999856719548
 31
0.0
 70
     0
 13
74.500555349946353
 23
4.9999998568600574
 33
0.0
 14
74.332551887945556
 24
67.999999856579024
 34
0.0
 50
90.000000000000028
1001
ACAD
1000
DSTYLE
1002
{
1070
   287
1070
     4
1070
    40
1040
1.0
1070
   279
1070
     1
1002
}
  0
DIMENSION
  5
2859
  8
SAPA_MATT
  2
*D12
 10
134.00055534994451
 20
226.99999985658999
 30
0.0
 11
134.00055534994451
 21
147.49999985655541
 31
0.0
 70
   128
 13
74.332551887915088
 23
67.999999856521271
 33
0.0
 14
73.000555349944534
 24
226.99999985658999
 34
0.0
 50
90.000000000000028
1001
ACAD
1000
DSTYLE
1002
{
1070
   287
1070
     4
1070
    40
1040
1.0
1070
   279
1070
     1
1002
}
  0
DIMENSION
  5
285A
  8
SAPA_MATT
  2
*D11
 10
146.00055534994459
 20
226.99999985658999
 30
0.0
 11
146.00055534994451
 21
113.499999856725
 31
0.0
 70
   128
 13
73.000555349944534
 23
-0.0000001431399426
 33
0.0
 14
73.000555349944534
 24
226.99999985658999
 34
0.0
 50
90.000000000000028
1001
ACAD
1000
DSTYLE
1002
{
1070
    40
1040
1.0
1002
}
  0
DIMENSION
  5
285B
  8
SAPA_MATT
  2
*D10
 10
106.5005553499691
 20
-29.50000014316041
 30
0.0
 11
90.750555349957025
 21
-27.00000014316041
 31
0.0
 70
     0
 13
75.000555349944989
 23
1.999999856860057
 33
0.0
 14
106.5005553499691
 24
9.3239407894608632
 34
0.0
1001
ACAD
1000
DSTYLE
1002
{
1070
   287
1070
     4
1070
    40
1040
1.0
1070
   279
1070
     1
1002
}
  0
DIMENSION
  5
285C
  8
SAPA_MATT
  2
*D9
 10
75.000555349944989
 20
-29.500000071413101
 30
0.0
 11
45.000555349945891
 21
-27.000000071413101
 31
0.0
 70
     0
 13
15.00055534994681
 23
0.2999998568647868
 33
0.0
 14
75.000555349944989
 24
1.999999856859602
 34
0.0
1001
ACAD
1000
DSTYLE
1002
{
1070
    40
1040
1.0
1002
}
  0
DIMENSION
  5
285D
  8
SAPA_MATT
  2
*D8
 10
15.000555349946801
 20
-41.500000071413098
 30
0.0
 11
60.750555349957949
 21
-39.000000071413098
 31
0.0
 70
     0
 13
106.5005553499691
 23
9.3239407894608632
 33
0.0
 14
15.00055534994681
 24
0.2999998568647868
 34
0.0
1001
ACAD
1000
DSTYLE
1002
{
1070
    40
1040
1.0
1002
}
  0
VIEWPORT
  5
C4
 67
     1
  8
0
 10
160.5543545598442
 20
116.00969601843509
 30
0.0
 40
404.96977709277462
 41
256.8421457311839
 68
     1
 69
     1
1001
ACAD
1000
MVIEW
1002
{
1070
    16
1010
0.0
1020
0.0
1030
0.0
1010
0.0
1020
0.0
1030
1.0
1040
0.0
1040
256.8421457311839
1040
160.5543545598442
1040
116.00969601843509
1040
50.0
1040
0.0
1040
0.0
1070
     0
1070
   100
1070
     1
1070
     1
1070
     0
1070
     0
1070
     0
1070
     0
1040
0.0
1040
0.0
1040
0.0
1040
10.0
1040
10.0
1040
10.0
1040
10.0
1070
     0
1002
{
1002
}
1002
}
  0
ENDSEC
  0
EOF
