  0
SECTION
  2
HEADER
  9
$ACADVER
  1
AC1009
  9
$INSBASE
 10
0.0
 20
0.0
 30
0.0
  9
$EXTMIN
 10
-87.547034266394576
 20
17.463154269972389
 30
-0.2
  9
$EXTMAX
 10
61.750000071155
 20
347.0032559347585
 30
0.0000000048844772
  9
$LIMMIN
 10
0.0
 20
0.0
  9
$LIMMAX
 10
790.0
 20
790.0
  9
$ORTHOMODE
 70
     0
  9
$REGENMODE
 70
     1
  9
$FILLMODE
 70
     1
  9
$QTEXTMODE
 70
     0
  9
$MIRRTEXT
 70
     1
  9
$DRAGMODE
 70
     2
  9
$LTSCALE
 40
4.0
  9
$OSMODE
 70
   167
  9
$ATTMODE
 70
     1
  9
$TEXTSIZE
 40
3.5
  9
$TRACEWID
 40
0.05
  9
$TEXTSTYLE
  7
ISO
  9
$CLAYER
  8
0
  9
$CELTYPE
  6
BYLAYER
  9
$CECOLOR
 62
   256
  9
$DIMSCALE
 40
0.0
  9
$DIMASZ
 40
3.0
  9
$DIMEXO
 40
1.5
  9
$DIMDLI
 40
10.0
  9
$DIMRND
 40
0.0
  9
$DIMDLE
 40
0.0
  9
$DIMEXE
 40
1.5
  9
$DIMTP
 40
0.0
  9
$DIMTM
 40
0.0
  9
$DIMTXT
 40
3.0
  9
$DIMCEN
 40
-5.0
  9
$DIMTSZ
 40
0.0
  9
$DIMTOL
 70
     0
  9
$DIMLIM
 70
     0
  9
$DIMTIH
 70
     0
  9
$DIMTOH
 70
     0
  9
$DIMSE1
 70
     0
  9
$DIMSE2
 70
     0
  9
$DIMTAD
 70
     1
  9
$DIMZIN
 70
     8
  9
$DIMBLK
  1

  9
$DIMASO
 70
     1
  9
$DIMSHO
 70
     1
  9
$DIMPOST
  1

  9
$DIMAPOST
  1

  9
$DIMALT
 70
     0
  9
$DIMALTD
 70
     0
  9
$DIMALTF
 40
25.399999999999999
  9
$DIMLFAC
 40
-1.0
  9
$DIMTOFL
 70
     1
  9
$DIMTVP
 40
0.0
  9
$DIMTIX
 70
     0
  9
$DIMSOXD
 70
     0
  9
$DIMSAH
 70
     0
  9
$DIMBLK1
  1

  9
$DIMBLK2
  1

  9
$DIMSTYLE
  2
MASKIN
  9
$DIMCLRD
 70
   256
  9
$DIMCLRE
 70
   256
  9
$DIMCLRT
 70
     2
  9
$DIMTFAC
 40
1.0
  9
$DIMGAP
 40
1.0
  9
$LUNITS
 70
     2
  9
$LUPREC
 70
     8
  9
$SKETCHINC
 40
0.1
  9
$FILLETRAD
 40
0.0
  9
$AUNITS
 70
     0
  9
$AUPREC
 70
     8
  9
$MENU
  1
ACAD
  9
$ELEVATION
 40
0.0
  9
$PELEVATION
 40
0.0
  9
$THICKNESS
 40
0.0
  9
$LIMCHECK
 70
     0
  9
$BLIPMODE
 70
     0
  9
$CHAMFERA
 40
0.0
  9
$CHAMFERB
 40
0.0
  9
$SKPOLY
 70
     0
  9
$TDCREATE
 40
2458299.4382186462
  9
$TDUPDATE
 40
2458303.4844811568
  9
$TDINDWG
 40
0.0866903241
  9
$TDUSRTIMER
 40
0.0866900926
  9
$USRTIMER
 70
     1
  9
$ANGBASE
 50
0.0
  9
$ANGDIR
 70
     0
  9
$PDMODE
 70
     0
  9
$PDSIZE
 40
0.0
  9
$PLINEWID
 40
0.0
  9
$COORDS
 70
     1
  9
$SPLFRAME
 70
     0
  9
$SPLINETYPE
 70
     6
  9
$SPLINESEGS
 70
     8
  9
$ATTDIA
 70
     1
  9
$ATTREQ
 70
     1
  9
$HANDLING
 70
     1
  9
$HANDSEED
  5
2A0F
  9
$SURFTAB1
 70
     6
  9
$SURFTAB2
 70
     6
  9
$SURFTYPE
 70
     6
  9
$SURFU
 70
     6
  9
$SURFV
 70
     6
  9
$UCSNAME
  2

  9
$UCSORG
 10
0.0
 20
0.0
 30
0.0
  9
$UCSXDIR
 10
1.0
 20
0.0
 30
0.0
  9
$UCSYDIR
 10
0.0
 20
1.0
 30
0.0
  9
$PUCSNAME
  2

  9
$PUCSORG
 10
0.0
 20
0.0
 30
0.0
  9
$PUCSXDIR
 10
1.0
 20
0.0
 30
0.0
  9
$PUCSYDIR
 10
0.0
 20
1.0
 30
0.0
  9
$USERI1
 70
     0
  9
$USERI2
 70
     0
  9
$USERI3
 70
     0
  9
$USERI4
 70
     0
  9
$USERI5
 70
     0
  9
$USERR1
 40
0.0
  9
$USERR2
 40
0.0
  9
$USERR3
 40
0.0
  9
$USERR4
 40
0.0
  9
$USERR5
 40
0.0
  9
$WORLDVIEW
 70
     1
  9
$SHADEDGE
 70
     3
  9
$SHADEDIF
 70
    70
  9
$TILEMODE
 70
     1
  9
$MAXACTVP
 70
    32
  9
$PLIMCHECK
 70
     0
  9
$PEXTMIN
 10
1.0000000000000000E+020
 20
1.0000000000000000E+020
 30
1.0000000000000000E+020
  9
$PEXTMAX
 10
-1.0000000000000000E+020
 20
-1.0000000000000000E+020
 30
-1.0000000000000000E+020
  9
$PLIMMIN
 10
-5.069427490234375
 20
-5.8737497329711914
  9
$PLIMMAX
 10
291.89889526367187
 20
204.0995779037475
  9
$UNITMODE
 70
     0
  9
$VISRETAIN
 70
     1
  9
$PLINEGEN
 70
     0
  9
$PSLTSCALE
 70
     1
  0
ENDSEC
  0
SECTION
  2
TABLES
  0
TABLE
  2
VPORT
 70
     1
  0
VPORT
  2
*ACTIVE
 70
     0
 10
0.0
 20
0.0
 11
1.0
 21
1.0
 12
-12.89870707090512
 22
353.48934283357869
 13
0.0
 23
0.0
 14
1.0
 24
1.0
 15
0.0
 25
0.0
 16
0.0
 26
0.0
 36
1.0
 17
0.0
 27
0.0
 37
0.0
 40
468.47582209086971
 41
1.7265193370165739
 42
50.0
 43
0.0
 44
0.0
 50
0.0
 51
0.0
 71
     0
 72
   100
 73
     1
 74
     1
 75
     0
 76
     0
 77
     0
 78
     0
  0
ENDTAB
  0
TABLE
  2
LTYPE
 70
     1
  0
LTYPE
  2
CONTINUOUS
 70
     0
  3
Solid line
 72
    65
 73
     0
 40
0.0
  0
ENDTAB
  0
TABLE
  2
LAYER
 70
    23
  0
LAYER
  2
0
 70
     0
 62
     7
  6
CONTINUOUS
  0
LAYER
  2
DEFPOINTS
 70
     0
 62
     7
  6
CONTINUOUS
  0
LAYER
  2
SAPA_ARTIKELNR
 70
     0
 62
     4
  6
CONTINUOUS
  0
LAYER
  2
SAPA_ANSLUTNING
 70
     0
 62
     6
  6
CONTINUOUS
  0
LAYER
  2
SAPA_GLAS
 70
     0
 62
     4
  6
CONTINUOUS
  0
LAYER
  2
SAPA_FOGBAND
 70
     0
 62
     2
  6
CONTINUOUS
  0
LAYER
  2
SAPA_PROFIL
 70
     0
 62
     7
  6
CONTINUOUS
  0
LAYER
  2
SAPA_MATT
 70
     0
 62
     1
  6
CONTINUOUS
  0
ENDTAB
  0
TABLE
  2
STYLE
 70
     2
  0
STYLE
  2
STANDARD
 70
     0
 40
0.0
 41
1.0
 50
0.0
 71
     0
 42
0.2
  3
txt
  4

  0
STYLE
  2
ISO
 70
     0
 40
0.0
 41
1.0
 50
0.0
 71
     0
 42
3.5
  3
txt
  4

  0
ENDTAB
  0
TABLE
  2
VIEW
 70
     0
  0
ENDTAB
  0
TABLE
  2
UCS
 70
     0
  0
ENDTAB
  0
TABLE
  2
APPID
 70
    22
  0
APPID
  2
ACAD
 70
     0
  0
APPID
  2
ACAD_DSTYLE_DIMTEXT_FILL
 70
     0
  0
APPID
  2
ACAD_DSTYLE_DIMEXT_LENGTH
 70
     0
  0
APPID
  2
ACAD_DSTYLE_DIMEXT_ENABLED
 70
     0
  0
APPID
  2
ACAD_DSTYLE_DIM_LINETYPE
 70
     0
  0
APPID
  2
ACAD_DSTYLE_DIM_EXT1_LINETYPE
 70
     0
  0
APPID
  2
ACAD_DSTYLE_DIM_EXT2_LINETYPE
 70
     0
  0
APPID
  2
ACAD_DSTYLE_DIMJOGGED_JOGA
 70
     0
  0
APPID
  2
ACAD_DSTYLE_DIMARC_LENGTH_
 70
     0
  0
APPID
  2
ACAD_PSEXT
 70
     0
  0
APPID
  2
ACAD_MLEADERVER
 70
     0
  0
APPID
  2
ACAD_NAV_VCDISPLAY
 70
     0
  0
APPID
  2
GENIUS_GENODEF_13
 70
     0
  0
APPID
  2
RC_PROFILE
 70
     0
  0
APPID
  2
ACAECLAYERSTANDARD
 70
     0
  0
APPID
  2
GENIUS_GENOBJ-N-FIL_13
 70
     0
  0
APPID
  2
GENIUS_GENREC_14
 70
     0
  0
APPID
  2
GENIUS_GENOBJ-N-REC_13
 70
     0
  0
APPID
  2
ACCMTRANSPARENCY
 70
     0
  0
APPID
  2
GRADIENTCOLOR1ACI
 70
     0
  0
APPID
  2
GRADIENTCOLOR2ACI
 70
     0
  0
APPID
  2
ACAD_EXEMPT_FROM_CAD_STANDARDS
 70
     0
  0
ENDTAB
  0
TABLE
  2
DIMSTYLE
 70
     2
  0
DIMSTYLE
  2
STANDARD
 70
     0
  3

  4

  5

  6

  7

 40
1.0
 41
0.18
 42
0.0625
 43
0.38
 44
0.18
 45
0.0
 46
0.0
 47
0.0
 48
0.0
140
0.18
141
0.09
142
0.0
143
25.399999999999999
144
1.0
145
0.0
146
1.0
147
0.09
 71
     0
 72
     0
 73
     1
 74
     1
 75
     0
 76
     0
 77
     0
 78
     0
170
     0
171
     2
172
     0
173
     0
174
     0
175
     0
176
     0
177
     0
178
     0
  0
DIMSTYLE
  2
MASKIN
 70
     0
  3

  4

  5

  6

  7

 40
0.0
 41
3.0
 42
1.5
 43
10.0
 44
1.5
 45
0.0
 46
0.0
 47
0.0
 48
0.0
140
3.0
141
-5.0
142
0.0
143
25.399999999999999
144
-1.0
145
0.0
146
1.0
147
1.0
 71
     0
 72
     0
 73
     0
 74
     0
 75
     0
 76
     0
 77
     1
 78
     8
170
     0
171
     0
172
     1
173
     0
174
     0
175
     0
176
   256
177
   256
178
     2
  0
ENDTAB
  0
ENDSEC
  0
SECTION
  2
BLOCKS
  0
BLOCK
  8
0
  2
$MODEL_SPACE
 70
     0
 10
0.0
 20
0.0
 30
0.0
  3
$MODEL_SPACE
  1

  0
ENDBLK
  5
37
  8
0
  0
BLOCK
 67
     1
  8
0
  2
$PAPER_SPACE
 70
     0
 10
0.0
 20
0.0
 30
0.0
  3
$PAPER_SPACE
  1

  0
ENDBLK
  5
35
 67
     1
  8
0
  0
BLOCK
  8
0
  2
*D8
 70
     1
 10
0.0
 20
0.0
 30
0.0
  3
*D8
  1

  0
LINE
  5
2853
  8
SAPA_MATT
 10
-12.75055527878953
 20
65.000000000248974
 30
0.0
 11
-83.547034266394576
 21
65.000000000248988
 31
0.0
  0
LINE
  5
2854
  8
SAPA_MATT
 10
-12.75055527878953
 20
291.9999999999788
 30
0.0
 11
-83.547034266394505
 21
291.9999999999788
 31
0.0
  0
LINE
  5
2855
  8
SAPA_MATT
 10
-82.047034266394576
 20
68.000000000248988
 30
0.0
 11
-82.047034266394519
 21
288.99999999997891
 31
0.0
  0
SOLID
  5
2856
  8
SAPA_MATT
 10
-82.547034266394576
 20
68.000000000248988
 30
0.0
 11
-81.547034266394576
 21
68.000000000248988
 31
0.0
 12
-82.047034266394576
 22
65.000000000248988
 32
0.0
 13
-82.047034266394576
 23
65.000000000248988
 33
0.0
  0
SOLID
  5
2857
  8
SAPA_MATT
 10
-82.547034266394505
 20
288.99999999997891
 30
0.0
 11
-81.547034266394519
 21
288.99999999997891
 31
0.0
 12
-82.047034266394519
 22
291.9999999999788
 32
0.0
 13
-82.047034266394519
 23
291.9999999999788
 33
0.0
  0
INSERT
  5
2858
  8
0
  2
*U20
 10
0.0
 20
0.0
 30
0.0
  0
POINT
  5
2859
  8
DEFPOINTS
 62
     0
 10
-11.25055527878953
 20
65.000000000248974
 30
0.0
  0
POINT
  5
285A
  8
DEFPOINTS
 62
     0
 10
-11.25055527878953
 20
291.9999999999788
 30
0.0
  0
POINT
  5
285B
  8
DEFPOINTS
 62
     0
 10
-82.047034266394519
 20
291.9999999999788
 30
0.0
  0
ENDBLK
  5
27C7
  8
0
  0
BLOCK
  8
0
  2
*D9
 70
     1
 10
0.0
 20
0.0
 30
0.0
  3
*D9
  1

  0
LINE
  5
2971
  8
SAPA_MATT
 10
-14.082551816760089
 20
223.99999985753021
 30
0.0
 11
-71.672260976040633
 21
223.99999985753021
 31
0.0
  0
LINE
  5
2972
  8
SAPA_MATT
 10
-12.75055527878953
 20
64.999999857461489
 30
0.0
 11
-71.672260976040661
 21
64.999999857461503
 31
0.0
  0
LINE
  5
2973
  8
SAPA_MATT
 10
-70.172260976040633
 20
220.99999985753021
 30
0.0
 11
-70.172260976040661
 21
67.999999857461503
 31
0.0
  0
TEXT
  8
SAPA_MATT
  40
3
  5
298A
  62
2
  72
0
  71
0
 10
-78.6723
 20
139.190
 30
0.000000
  1
159
  7
ISO
  0
SOLID
  5
2975
  8
SAPA_MATT
 10
-70.672260976040633
 20
220.99999985753021
 30
0.0
 11
-69.672260976040633
 21
220.99999985753021
 31
0.0
 12
-70.172260976040633
 22
223.99999985753021
 32
0.0
 13
-70.172260976040633
 23
223.99999985753021
 33
0.0
  0
SOLID
  5
2976
  8
SAPA_MATT
 10
-70.672260976040661
 20
67.999999857461503
 30
0.0
 11
-69.672260976040661
 21
67.999999857461503
 31
0.0
 12
-70.172260976040661
 22
64.999999857461503
 32
0.0
 13
-70.172260976040661
 23
64.999999857461503
 33
0.0
  0
POINT
  5
2977
  8
DEFPOINTS
 62
     0
 10
-12.582551816760089
 20
223.99999985753021
 30
0.0
  0
POINT
  5
2978
  8
DEFPOINTS
 62
     0
 10
-11.25055527878953
 20
64.999999857461489
 30
0.0
  0
POINT
  5
2979
  8
DEFPOINTS
 62
     0
 10
-70.172260976040661
 20
64.999999857461503
 30
0.0
  0
ENDBLK
  5
27D3
  8
0
  0
BLOCK
  8
0
  2
*D10
 70
     1
 10
0.0
 20
0.0
 30
0.0
  3
*D10
  1

  0
LINE
  5
2968
  8
SAPA_MATT
 10
-14.250555278791349
 20
286.99999985719143
 30
0.0
 11
-71.672260976040647
 21
286.99999985719143
 31
0.0
  0
LINE
  5
2969
  8
SAPA_MATT
 10
-14.08255181679055
 20
223.9999998574724
 30
0.0
 11
-71.672260976040661
 21
223.9999998574724
 31
0.0
  0
LINE
  5
296A
  8
SAPA_MATT
 10
-70.172260976040647
 20
283.99999985719143
 30
0.0
 11
-70.172260976040647
 21
226.99999985747249
 31
0.0
  0
SOLID
  5
296B
  8
SAPA_MATT
 10
-70.672260976040647
 20
283.99999985719143
 30
0.0
 11
-69.672260976040647
 21
283.99999985719143
 31
0.0
 12
-70.172260976040647
 22
286.99999985719143
 32
0.0
 13
-70.172260976040647
 23
286.99999985719143
 33
0.0
  0
SOLID
  5
296C
  8
SAPA_MATT
 10
-70.672260976040647
 20
226.99999985747249
 30
0.0
 11
-69.672260976040647
 21
226.99999985747249
 31
0.0
 12
-70.172260976040661
 22
223.9999998574724
 32
0.0
 13
-70.172260976040661
 23
223.9999998574724
 33
0.0
  0
TEXT
  8
SAPA_MATT
  40
3
  5
298B
  62
2
  72
0
  71
0
 10
-78.6723
 20
250.190
 30
0.000000
  1
63
  7
ISO
  0
POINT
  5
296E
  8
DEFPOINTS
 62
     0
 10
-12.750555278791349
 20
286.99999985719143
 30
0.0
  0
POINT
  5
296F
  8
DEFPOINTS
 62
     0
 10
-12.58255181679055
 20
223.9999998574724
 30
0.0
  0
POINT
  5
2970
  8
DEFPOINTS
 62
     0
 10
-70.172260976040661
 20
223.9999998574724
 30
0.0
  0
ENDBLK
  5
27DF
  8
0
  0
BLOCK
  8
0
  2
*D11
 70
     1
 10
0.0
 20
0.0
 30
0.0
  3
*D11
  1

  0
LINE
  5
2836
  8
SAPA_MATT
 10
-12.75055527878953
 20
291.99999985719143
 30
0.0
 11
-71.672260976040604
 21
291.99999985719143
 31
0.0
  0
LINE
  5
2837
  8
SAPA_MATT
 10
-14.250555278791349
 20
286.99999985717773
 30
0.0
 11
-71.672260976040619
 21
286.99999985717773
 31
0.0
  0
LINE
  5
2838
  8
SAPA_MATT
 10
-70.172260976040604
 20
294.99999985719143
 30
0.0
 11
-70.172260976040604
 21
297.99999985719143
 31
0.0
  0
LINE
  5
2839
  8
SAPA_MATT
 10
-70.172260976040619
 20
283.99999985717773
 30
0.0
 11
-70.172260976040619
 21
280.99999985717773
 31
0.0
  0
LINE
  5
283A
  8
SAPA_MATT
 10
-70.172260976040604
 20
291.99999985719143
 30
0.0
 11
-70.172260976040619
 21
286.99999985717773
 31
0.0
  0
SOLID
  5
283B
  8
SAPA_MATT
 10
-70.672260976040604
 20
294.99999985719143
 30
0.0
 11
-69.672260976040604
 21
294.99999985719143
 31
0.0
 12
-70.172260976040604
 22
291.99999985719143
 32
0.0
 13
-70.172260976040604
 23
291.99999985719143
 33
0.0
  0
SOLID
  5
283C
  8
SAPA_MATT
 10
-70.672260976040619
 20
283.99999985717773
 30
0.0
 11
-69.672260976040604
 21
283.99999985717773
 31
0.0
 12
-70.172260976040619
 22
286.99999985717773
 32
0.0
 13
-70.172260976040619
 23
286.99999985717773
 33
0.0
  0
INSERT
  5
283D
  8
0
  2
*U19
 10
0.0
 20
0.0
 30
0.0
  0
POINT
  5
283E
  8
DEFPOINTS
 62
     0
 10
-11.25055527878953
 20
291.99999985719143
 30
0.0
  0
POINT
  5
283F
  8
DEFPOINTS
 62
     0
 10
-12.750555278791349
 20
286.99999985717773
 30
0.0
  0
POINT
  5
2840
  8
DEFPOINTS
 62
     0
 10
-70.172260976040619
 20
286.99999985717773
 30
0.0
  0
ENDBLK
  5
27EB
  8
0
  0
BLOCK
  8
0
  2
*D12
 70
     1
 10
0.0
 20
0.0
 30
0.0
  3
*D12
  1

  0
LINE
  5
282D
  8
SAPA_MATT
 10
-44.75055527881409
 20
284.17605892459062
 30
0.0
 11
-44.75055527881409
 21
334.99999978546452
 31
0.0
  0
LINE
  5
282E
  8
SAPA_MATT
 10
46.749444721208192
 20
293.19999985718658
 30
0.0
 11
46.749444721208192
 21
334.99999978546452
 31
0.0
  0
LINE
  5
282F
  8
SAPA_MATT
 10
-41.75055527881409
 20
333.49999978546452
 30
0.0
 11
43.749444721208192
 21
333.49999978546452
 31
0.0
  0
SOLID
  5
2830
  8
SAPA_MATT
 10
-41.75055527881409
 20
333.99999978546452
 30
0.0
 11
-41.75055527881409
 21
332.99999978546452
 31
0.0
 12
-44.75055527881409
 22
333.49999978546452
 32
0.0
 13
-44.75055527881409
 23
333.49999978546452
 33
0.0
  0
SOLID
  5
2831
  8
SAPA_MATT
 10
43.749444721208192
 20
333.99999978546452
 30
0.0
 11
43.749444721208192
 21
332.99999978546452
 31
0.0
 12
46.749444721208192
 22
333.49999978546452
 32
0.0
 13
46.749444721208192
 23
333.49999978546452
 33
0.0
  0
INSERT
  5
2832
  8
0
  2
*U18
 10
0.0
 20
0.0
 30
0.0
  0
POINT
  5
2833
  8
DEFPOINTS
 62
     0
 10
-44.75055527881409
 20
282.67605892459051
 30
0.0
  0
POINT
  5
2834
  8
DEFPOINTS
 62
     0
 10
46.749444721208192
 20
291.6999998571867
 30
0.0
  0
POINT
  5
2835
  8
DEFPOINTS
 62
     0
 10
46.749444721208192
 20
333.49999978546452
 30
0.0
  0
ENDBLK
  5
27F9
  8
0
  0
BLOCK
  8
0
  2
*D13
 70
     1
 10
0.0
 20
0.0
 30
0.0
  3
*D13
  1

  0
LINE
  5
2824
  8
SAPA_MATT
 10
46.749444721208192
 20
293.19999985718658
 30
0.0
 11
46.749444721208192
 21
322.99999978546452
 31
0.0
  0
LINE
  5
2825
  8
SAPA_MATT
 10
-13.250555278789991
 20
291.49999985719182
 30
0.0
 11
-13.250555278789991
 21
322.99999978546452
 31
0.0
  0
LINE
  5
2826
  8
SAPA_MATT
 10
43.749444721208192
 20
321.49999978546452
 30
0.0
 11
-10.250555278789991
 21
321.49999978546452
 31
0.0
  0
SOLID
  5
2827
  8
SAPA_MATT
 10
43.749444721208192
 20
321.99999978546452
 30
0.0
 11
43.749444721208192
 21
320.99999978546452
 31
0.0
 12
46.749444721208192
 22
321.49999978546452
 32
0.0
 13
46.749444721208192
 23
321.49999978546452
 33
0.0
  0
SOLID
  5
2828
  8
SAPA_MATT
 10
-10.250555278789991
 20
321.99999978546452
 30
0.0
 11
-10.250555278789991
 21
320.99999978546452
 31
0.0
 12
-13.250555278789991
 22
321.49999978546452
 32
0.0
 13
-13.250555278789991
 23
321.49999978546452
 33
0.0
  0
INSERT
  5
2829
  8
0
  2
*U17
 10
0.0
 20
0.0
 30
0.0
  0
POINT
  5
282A
  8
DEFPOINTS
 62
     0
 10
46.749444721208192
 20
291.6999998571867
 30
0.0
  0
POINT
  5
282B
  8
DEFPOINTS
 62
     0
 10
-13.250555278789991
 20
289.99999985719182
 30
0.0
  0
POINT
  5
282C
  8
DEFPOINTS
 62
     0
 10
-13.250555278789991
 20
321.49999978546452
 30
0.0
  0
ENDBLK
  5
2805
  8
0
  0
BLOCK
  8
0
  2
*D14
 70
     1
 10
0.0
 20
0.0
 30
0.0
  3
*D14
  1

  0
LINE
  5
295F
  8
SAPA_MATT
 10
-13.250555278789991
 20
291.49999985719143
 30
0.0
 11
-13.250555278789991
 21
322.99999985721189
 31
0.0
  0
LINE
  5
2960
  8
SAPA_MATT
 10
-44.75055527881409
 20
284.17605892459062
 30
0.0
 11
-44.75055527881409
 21
322.99999985721189
 31
0.0
  0
LINE
  5
2961
  8
SAPA_MATT
 10
-16.250555278789989
 20
321.49999985721178
 30
0.0
 11
-41.75055527881409
 21
321.49999985721178
 31
0.0
  0
SOLID
  5
2962
  8
SAPA_MATT
 10
-16.250555278789989
 20
321.99999985721178
 30
0.0
 11
-16.250555278789989
 21
320.99999985721189
 31
0.0
 12
-13.250555278789991
 22
321.49999985721178
 32
0.0
 13
-13.250555278789991
 23
321.49999985721178
 33
0.0
  0
SOLID
  5
2963
  8
SAPA_MATT
 10
-41.75055527881409
 20
321.99999985721178
 30
0.0
 11
-41.75055527881409
 21
320.99999985721189
 31
0.0
 12
-44.75055527881409
 22
321.49999985721178
 32
0.0
 13
-44.75055527881409
 23
321.49999985721178
 33
0.0
  0
TEXT
  8
SAPA_MATT
  40
3
  5
298C
  62
2
  72
0
  71
0
 10
-35.0006
 20
318.690
 30
0.000000
  1
31.5
  7
ISO
  0
POINT
  5
2965
  8
DEFPOINTS
 62
     0
 10
-13.250555278789991
 20
289.99999985719143
 30
0.0
  0
POINT
  5
2966
  8
DEFPOINTS
 62
     0
 10
-44.75055527881409
 20
282.67605892459051
 30
0.0
  0
POINT
  5
2967
  8
DEFPOINTS
 62
     0
 10
-44.75055527881409
 20
321.49999985721178
 30
0.0
  0
ENDBLK
  5
2811
  8
0
  0
BLOCK
  8
0
  2
*X15
 70
     1
 10
0.0
 20
0.0
 30
0.0
  3
*X15
  1

  0
LINE
  5
28B6
  8
0
 62
     0
 10
-12.54287838779628
 20
292.30279340172109
 30
0.0
 11
-12.06620523222265
 21
291.82612024614741
 31
0.0
  0
LINE
  5
28B7
  8
0
 62
     0
 10
-12.441774667764189
 20
293.32422169682258
 30
0.0
 11
-11.11755296999563
 21
291.99999999905401
 31
0.0
  0
LINE
  5
28B8
  8
0
 62
     0
 10
-12.38042637712454
 20
294.38540542131659
 30
0.0
 11
-9.995020947056517
 21
291.9999999912485
 31
0.0
  0
LINE
  5
28B9
  8
0
 62
     0
 10
-12.36353258182025
 20
295.49104364114589
 30
0.0
 11
-8.8724889241174232
 21
291.9999999834431
 31
0.0
  0
LINE
  5
28BA
  8
0
 62
     0
 10
-12.397096128032061
 20
296.64713920249142
 30
0.0
 11
-7.7499569011783036
 21
291.99999997563759
 31
0.0
  0
LINE
  5
28BB
  8
0
 62
     0
 10
-12.48898636182847
 20
297.86156145142149
 30
0.0
 11
-6.6274248782392071
 21
291.99999996783208
 31
0.0
  0
LINE
  5
28BC
  8
0
 62
     0
 10
-12.64986341872196
 20
299.14497052344848
 30
0.0
 11
-5.5048928553001062
 21
291.99999996002668
 31
0.0
  0
LINE
  5
28BD
  8
0
 62
     0
 10
-12.89479759780007
 20
300.51243671766042
 30
0.0
 11
-4.3823608323609662
 21
291.99999995222117
 31
0.0
  0
LINE
  5
28BE
  8
0
 62
     0
 10
-4.2100533252797021
 20
292.9502244602736
 30
0.0
 11
-3.2598288094218719
 21
291.99999994441578
 31
0.0
  0
LINE
  5
28BF
  8
0
 62
     0
 10
-13.246357501978579
 20
301.98652863697248
 30
0.0
 11
-5.8193550260246196
 21
294.55952616101848
 31
0.0
  0
LINE
  5
28C0
  8
0
 62
     0
 10
-2.2894418978703359
 20
292.15214504799781
 30
0.0
 11
-2.1372967864827568
 21
291.99999993661032
 31
0.0
  0
LINE
  5
28C1
  8
0
 62
     0
 10
-12.137296777972569
 20
301.99999992810012
 30
0.0
 11
-6.4866035442872088
 21
296.34930669441468
 31
0.0
  0
LINE
  5
28C2
  8
0
 62
     0
 10
-1.015591960580803
 20
292.00082712584202
 30
0.0
 11
-1.014764763543663
 21
291.99999992880481
 31
0.0
  0
LINE
  5
28C3
  8
0
 62
     0
 10
-11.014764762838929
 20
301.99999992810012
 30
0.0
 11
-6.507090572430001
 21
297.49232573769109
 31
0.0
  0
LINE
  5
28C4
  8
0
 62
     0
 10
-9.892232747705286
 20
301.99999992810012
 30
0.0
 11
-6.3052680074280723
 21
298.41303518782291
 31
0.0
  0
LINE
  5
28C5
  8
0
 62
     0
 10
-8.7697007325716427
 20
301.99999992810012
 30
0.0
 11
-5.964116767003464
 21
299.19441596253188
 31
0.0
  0
LINE
  5
28C6
  8
0
 62
     0
 10
-7.647168717437995
 20
301.99999992810012
 30
0.0
 11
-5.5166164737187158
 21
299.86944768438087
 31
0.0
  0
LINE
  5
28C7
  8
0
 62
     0
 10
-6.5246367023043588
 20
301.99999992810012
 30
0.0
 11
-4.9781518530178843
 21
300.45351507881372
 31
0.0
  0
LINE
  5
28C8
  8
0
 62
     0
 10
-5.4021046871707092
 20
301.99999992810012
 30
0.0
 11
-4.355187356630271
 21
300.95308259755973
 31
0.0
  0
LINE
  5
28C9
  8
0
 62
     0
 10
-4.2795726720370686
 20
301.99999992810012
 30
0.0
 11
-3.6479813752778609
 21
301.36840863134091
 31
0.0
  0
LINE
  5
28CA
  8
0
 62
     0
 10
-3.1570406569034151
 20
301.99999992810012
 30
0.0
 11
-2.8506844423544591
 21
301.69364371355113
 31
0.0
  0
LINE
  5
28CB
  8
0
 62
     0
 10
-2.0345086417697749
 20
301.99999992810012
 30
0.0
 11
-1.9489232516524271
 21
301.91441453798279
 31
0.0
  0
LINE
  5
28CC
  8
0
 62
     0
 10
-1.402704657098198
 20
291.99999993150237
 30
0.0
 11
-1.385067184662631
 21
292.0176374039379
 31
0.0
  0
LINE
  5
28CD
  8
0
 62
     0
 10
-2.525236664426358
 20
291.99999993930783
 30
0.0
 11
-2.3574212200190621
 21
292.16781538371509
 31
0.0
  0
LINE
  5
28CE
  8
0
 62
     0
 10
-3.6477686717545481
 20
291.99999994711339
 30
0.0
 11
-3.2109879061170541
 21
292.43678071275082
 31
0.0
  0
LINE
  5
28CF
  8
0
 62
     0
 10
-4.7703006790826938
 20
291.99999995491879
 30
0.0
 11
-3.9677290869033608
 21
292.80257154709813
 31
0.0
  0
LINE
  5
28D0
  8
0
 62
     0
 10
-5.8928326864108982
 20
291.99999996272419
 30
0.0
 11
-4.637771053480491
 21
293.25506159565469
 31
0.0
  0
LINE
  5
28D1
  8
0
 62
     0
 10
-7.0153646937390874
 20
291.9999999705297
 30
0.0
 11
-5.2241668032631301
 21
293.79119786100568
 31
0.0
  0
LINE
  5
28D2
  8
0
 62
     0
 10
-8.1378967010672625
 20
291.9999999783351
 30
0.0
 11
-5.7240848086100149
 21
294.41381187079241
 31
0.0
  0
LINE
  5
28D3
  8
0
 62
     0
 10
-9.2604287083954642
 20
291.99999998614061
 30
0.0
 11
-6.1277101453525233
 21
295.13271854918361
 31
0.0
  0
LINE
  5
28D4
  8
0
 62
     0
 10
-10.382960715723639
 20
291.99999999394612
 30
0.0
 11
-6.4136762377508338
 21
295.96928447191891
 31
0.0
  0
LINE
  5
28D5
  8
0
 62
     0
 10
-1.5362920938999021
 20
301.96920063090352
 30
0.0
 11
-1.5054927967032219
 21
301.99999992810012
 31
0.0
  0
LINE
  5
28D6
  8
0
 62
     0
 10
-11.524317800225811
 20
291.98117492457749
 30
0.0
 11
-6.5343127324904202
 21
296.97117999231301
 31
0.0
  0
LINE
  5
28D7
  8
0
 62
     0
 10
-2.977268099402465
 20
301.65075664053461
 30
0.0
 11
-2.6280248118368799
 21
301.99999992810012
 31
0.0
  0
LINE
  5
28D8
  8
0
 62
     0
 10
-12.573771736150929
 20
292.05425300378607
 30
0.0
 11
-6.3466996361346304
 21
298.28132510380237
 31
0.0
  0
LINE
  5
28D9
  8
0
 62
     0
 10
-12.44310002665258
 20
293.307456728418
 30
0.0
 11
-3.750556826970509
 21
301.99999992810012
 31
0.0
  0
LINE
  5
28DA
  8
0
 62
     0
 10
-12.37656285097974
 20
294.49652591922461
 30
0.0
 11
-4.8730888421041518
 21
301.99999992810012
 31
0.0
  0
LINE
  5
28DB
  8
0
 62
     0
 10
-12.36480619570928
 20
295.63081458962859
 30
0.0
 11
-5.9956208572377809
 21
301.99999992810012
 31
0.0
  0
LINE
  5
28DC
  8
0
 62
     0
 10
-12.40082313568629
 20
296.71732966478532
 30
0.0
 11
-7.1181528723714393
 21
301.99999992810012
 31
0.0
  0
LINE
  5
28DD
  8
0
 62
     0
 10
-12.47920702852042
 20
297.7614777870848
 30
0.0
 11
-8.2406848875050969
 21
301.99999992810012
 31
0.0
  0
LINE
  5
28DE
  8
0
 62
     0
 10
-12.595686486329519
 20
298.76753034440941
 30
0.0
 11
-9.3632169026387402
 21
301.99999992810012
 31
0.0
  0
LINE
  5
28DF
  8
0
 62
     0
 10
-12.74682203535852
 20
299.73892681051399
 30
0.0
 11
-10.485748917772369
 21
301.99999992810012
 31
0.0
  0
LINE
  5
28E0
  8
0
 62
     0
 10
-12.92980059367062
 20
300.67848026733549
 30
0.0
 11
-11.608280932906
 21
301.99999992810012
 31
0.0
  0
LINE
  5
28E1
  8
0
 62
     0
 10
-13.142291761397979
 20
301.58852111474181
 30
0.0
 11
-12.73081294803967
 21
301.99999992810012
 31
0.0
  0
ENDBLK
  5
28E3
  8
0
  0
BLOCK
  8
0
  2
*X16
 70
     1
 10
0.0
 20
0.0
 30
0.0
  3
*X16
  1

  0
LINE
  5
28E5
  8
0
 62
     0
 10
2.6150395091087
 20
294.28748520656183
 30
0.0
 11
3.3024471733625971
 21
294.68436020656191
 31
0.0
  0
LINE
  5
28E6
  8
0
 62
     0
 10
0.5528165163470059
 20
293.09686020656181
 30
0.0
 11
1.2402241806009029
 21
293.49373520656189
 31
0.0
  0
LINE
  5
28E7
  8
0
 62
     0
 10
-1.323873932428709
 20
292.01335247077549
 30
0.0
 11
-0.8219988121607909
 21
292.30311020656183
 31
0.0
  0
LINE
  5
28E8
  8
0
 62
     0
 10
3.989855001870406
 20
296.66873492206571
 30
0.0
 11
4.677262666124304
 21
297.06560992206568
 31
0.0
  0
LINE
  5
28E9
  8
0
 62
     0
 10
1.927632009108712
 20
295.4781099220657
 30
0.0
 11
2.61503967336261
 21
295.87498492206572
 31
0.0
  0
LINE
  5
28EA
  8
0
 62
     0
 10
-0.1345909836529819
 20
294.28748492206569
 30
0.0
 11
0.5528166806009165
 21
294.68435992206571
 31
0.0
  0
LINE
  5
28EB
  8
0
 62
     0
 10
-2.1968139764146759
 20
293.09685992206568
 30
0.0
 11
-1.509406312160777
 21
293.4937349220657
 31
0.0
  0
LINE
  5
28EC
  8
0
 62
     0
 10
3.302447501870414
 20
297.85935963756958
 30
0.0
 11
3.9898551661243129
 21
298.25623463756972
 31
0.0
  0
LINE
  5
28ED
  8
0
 62
     0
 10
1.2402245091087201
 20
296.66873463756963
 30
0.0
 11
1.9276321733626189
 21
297.06560963756971
 31
0.0
  0
LINE
  5
28EE
  8
0
 62
     0
 10
-0.8219984836529735
 20
295.47810963756962
 30
0.0
 11
-0.1345908193990746
 21
295.87498463756958
 31
0.0
  0
LINE
  5
28EF
  8
0
 62
     0
 10
-2.884221476414667
 20
294.28748463756961
 30
0.0
 11
-2.1968138121607681
 21
294.68435963756963
 31
0.0
  0
LINE
  5
28F0
  8
0
 62
     0
 10
-4.6524093356780707
 20
293.26662090104611
 30
0.0
 11
-4.2590368049224621
 21
293.49373463756962
 31
0.0
  0
LINE
  5
28F1
  8
0
 62
     0
 10
2.6150400018703892
 20
299.04998435307363
 30
0.0
 11
3.3024476661242881
 21
299.44685935307359
 31
0.0
  0
LINE
  5
28F2
  8
0
 62
     0
 10
0.5528170091086953
 20
297.85935935307361
 30
0.0
 11
1.2402246733625939
 21
298.25623435307358
 31
0.0
  0
LINE
  5
28F3
  8
0
 62
     0
 10
-1.5094059836529989
 20
296.6687343530736
 30
0.0
 11
-0.8219983193991001
 21
297.06560935307363
 31
0.0
  0
LINE
  5
28F4
  8
0
 62
     0
 10
-3.5716289764146931
 20
295.47810935307348
 30
0.0
 11
-2.8842213121607938
 21
295.87498435307361
 31
0.0
  0
LINE
  5
28F5
  8
0
 62
     0
 10
-5.6338519691763871
 20
294.28748435307352
 30
0.0
 11
-4.9464443049224878
 21
294.68435935307349
 31
0.0
  0
LINE
  5
28F6
  8
0
 62
     0
 10
1.927632501870401
 20
300.2406090685775
 30
0.0
 11
2.6150401661242988
 21
300.63748406857752
 31
0.0
  0
LINE
  5
28F7
  8
0
 62
     0
 10
-0.1345904908912932
 20
299.04998406857749
 30
0.0
 11
0.5528171733626058
 21
299.4468590685774
 31
0.0
  0
LINE
  5
28F8
  8
0
 62
     0
 10
-2.1968134836529871
 20
297.85935906857742
 30
0.0
 11
-1.509405819399088
 21
298.25623406857738
 31
0.0
  0
LINE
  5
28F9
  8
0
 62
     0
 10
-4.2590364764146811
 20
296.66873406857741
 30
0.0
 11
-3.5716288121607831
 21
297.06560906857737
 31
0.0
  0
LINE
  5
28FA
  8
0
 62
     0
 10
-6.2768245201667403
 20
295.50376359834962
 30
0.0
 11
-5.6338518049224771
 21
295.87498406857742
 31
0.0
  0
LINE
  5
28FB
  8
0
 62
     0
 10
1.2402250018703931
 20
301.43123378408131
 30
0.0
 11
1.434047603226996
 21
301.54313731514958
 31
0.0
  0
LINE
  5
28FC
  8
0
 62
     0
 10
-0.8219979908913011
 20
300.2406087840813
 30
0.0
 11
-0.1345903266374022
 21
300.63748378408133
 31
0.0
  0
LINE
  5
28FD
  8
0
 62
     0
 10
-2.8842209836529951
 20
299.04998378408129
 30
0.0
 11
-2.1968133193990962
 21
299.44685878408131
 31
0.0
  0
LINE
  5
28FE
  8
0
 62
     0
 10
-4.946443976414689
 20
297.85935878408128
 30
0.0
 11
-4.2590363121607897
 21
298.2562337840813
 31
0.0
  0
LINE
  5
28FF
  8
0
 62
     0
 10
-6.5340377731057506
 20
296.94276107819792
 30
0.0
 11
-6.321259304922485
 21
297.06560878408129
 31
0.0
  0
LINE
  5
2900
  8
0
 62
     0
 10
-1.5094054908913239
 20
301.43123349958529
 30
0.0
 11
-0.8219978266374262
 21
301.82810849958531
 31
0.0
  0
LINE
  5
2901
  8
0
 62
     0
 10
-3.5716284836530181
 20
300.24060849958528
 30
0.0
 11
-2.8842208193991201
 21
300.6374834995853
 31
0.0
  0
LINE
  5
2902
  8
0
 62
     0
 10
-5.6338514764147121
 20
299.04998349958532
 30
0.0
 11
-4.9464438121608136
 21
299.44685849958529
 31
0.0
  0
LINE
  5
2903
  8
0
 62
     0
 10
-0.8220275565929862
 20
292.30309000733911
 30
0.0
 11
-0.3419251041738021
 21
292.0259027271963
 31
0.0
  0
LINE
  5
2904
  8
0
 62
     0
 10
-2.884250549354678
 20
293.49371500733912
 30
0.0
 11
-2.1968428851007809
 21
293.09684000733898
 31
0.0
  0
LINE
  5
2905
  8
0
 62
     0
 10
-4.9464735421163706
 20
294.68434000733907
 30
0.0
 11
-4.259065877862473
 21
294.28746500733899
 31
0.0
  0
LINE
  5
2906
  8
0
 62
     0
 10
-0.1346200565929827
 20
293.49371472284292
 30
0.0
 11
0.5527876076609144
 21
293.0968397228429
 31
0.0
  0
LINE
  5
2907
  8
0
 62
     0
 10
-2.1968430493546749
 20
294.68433972284299
 30
0.0
 11
-1.509435385100778
 21
294.28746472284291
 31
0.0
  0
LINE
  5
2908
  8
0
 62
     0
 10
-4.2590660421163671
 20
295.874964722843
 30
0.0
 11
-3.5716583778624709
 21
295.47808972284292
 31
0.0
  0
LINE
  5
2909
  8
0
 62
     0
 10
-6.3212890348780597
 20
297.06558972284301
 30
0.0
 11
-5.6338813706241631
 21
296.66871472284288
 31
0.0
  0
LINE
  5
290A
  8
0
 62
     0
 10
2.6150104361686939
 20
293.49371443834679
 30
0.0
 11
2.9018728581858859
 21
293.32809434177477
 31
0.0
  0
LINE
  5
290B
  8
0
 62
     0
 10
0.5527874434070017
 20
294.6843394383468
 30
0.0
 11
1.240195107660897
 21
294.28746443834677
 31
0.0
  0
LINE
  5
290C
  8
0
 62
     0
 10
-1.5094355493546909
 20
295.87496443834681
 30
0.0
 11
-0.8220278851007951
 21
295.47808943834679
 31
0.0
  0
LINE
  5
290D
  8
0
 62
     0
 10
-3.571658542116384
 20
297.06558943834682
 30
0.0
 11
-2.8842508778624878
 21
296.6687144383468
 31
0.0
  0
LINE
  5
290E
  8
0
 62
     0
 10
-5.6338815348780757
 20
298.25621443834677
 30
0.0
 11
-4.94647387062418
 21
297.85933943834681
 31
0.0
  0
LINE
  5
290F
  8
0
 62
     0
 10
3.3024179361686952
 20
294.68433915385077
 30
0.0
 11
3.8614199969980909
 21
294.36159916355342
 31
0.0
  0
LINE
  5
2910
  8
0
 62
     0
 10
1.2401949434070021
 20
295.87496415385078
 30
0.0
 11
1.927602607660897
 21
295.47808915385082
 31
0.0
  0
LINE
  5
2911
  8
0
 62
     0
 10
-0.8220280493546905
 20
297.06558915385079
 30
0.0
 11
-0.1346203851007952
 21
296.66871415385077
 31
0.0
  0
LINE
  5
2912
  8
0
 62
     0
 10
-2.8842510421163832
 20
298.25621415385081
 30
0.0
 11
-2.1968433778624878
 21
297.85933915385078
 31
0.0
  0
LINE
  5
2913
  8
0
 62
     0
 10
-4.9464740348780749
 20
299.44683915385082
 30
0.0
 11
-4.25906637062418
 21
299.04996415385079
 31
0.0
  0
LINE
  5
2914
  8
0
 62
     0
 10
3.9898254361686751
 20
295.8749638693547
 30
0.0
 11
4.4801868438272878
 21
295.59185357864283
 31
0.0
  0
LINE
  5
2915
  8
0
 62
     0
 10
1.9276024434069821
 20
297.06558886935471
 30
0.0
 11
2.6150101076608778
 21
296.66871386935469
 31
0.0
  0
LINE
  5
2916
  8
0
 62
     0
 10
-0.1346205493547101
 20
298.25621386935472
 30
0.0
 11
0.5527871148991861
 21
297.8593388693547
 31
0.0
  0
LINE
  5
2917
  8
0
 62
     0
 10
-2.1968435421164019
 20
299.44683886935468
 30
0.0
 11
-1.5094358778625061
 21
299.04996386935471
 31
0.0
  0
LINE
  5
2918
  8
0
 62
     0
 10
-4.2590665348780954
 20
300.63746386935469
 30
0.0
 11
-3.5716588706241992
 21
300.24058886935472
 31
0.0
  0
LINE
  5
2919
  8
0
 62
     0
 10
4.6772329361686813
 20
297.06558858485857
 30
0.0
 11
4.7074481449461159
 21
297.0481438259373
 31
0.0
  0
LINE
  5
291A
  8
0
 62
     0
 10
2.6150099434069878
 20
298.25621358485859
 30
0.0
 11
3.3024176076608849
 21
297.85933858485862
 31
0.0
  0
LINE
  5
291B
  8
0
 62
     0
 10
0.5527869506452959
 20
299.4468385848586
 30
0.0
 11
1.2401946148991929
 21
299.04996358485857
 31
0.0
  0
LINE
  5
291C
  8
0
 62
     0
 10
-1.509436042116397
 20
300.63746358485861
 30
0.0
 11
-0.8220283778624999
 21
300.24058858485859
 31
0.0
  0
LINE
  5
291D
  8
0
 62
     0
 10
-3.152582174485536
 20
301.58613444669982
 30
0.0
 11
-2.884251370624193
 21
301.4312135848586
 31
0.0
  0
LINE
  5
291E
  8
0
 62
     0
 10
3.3024174434070042
 20
299.44683830036251
 30
0.0
 11
3.9898251076609008
 21
299.04996330036238
 31
0.0
  0
LINE
  5
291F
  8
0
 62
     0
 10
1.2401944506453111
 20
300.63746330036253
 30
0.0
 11
1.927602114899208
 21
300.24058830036239
 31
0.0
  0
LINE
  5
2920
  8
0
 62
     0
 10
-0.8220285421163815
 20
301.82808830036248
 30
0.0
 11
-0.134620877862484
 21
301.4312133003624
 31
0.0
  0
LINE
  5
2921
  8
0
 62
     0
 10
3.9898219868368812
 20
298.25625000035899
 30
0.0
 11
3.9898219868368812
 21
299.05000000035898
 31
0.0
  0
LINE
  5
2922
  8
0
 62
     0
 10
3.9898219868368812
 20
295.87500000035902
 30
0.0
 11
3.9898219868368812
 21
296.66875000035901
 31
0.0
  0
LINE
  5
2923
  8
0
 62
     0
 10
2.615006986836883
 20
300.6375000003589
 30
0.0
 11
2.615006986836883
 21
300.89226374120858
 31
0.0
  0
LINE
  5
2924
  8
0
 62
     0
 10
2.615006986836883
 20
298.25625000035888
 30
0.0
 11
2.615006986836883
 21
299.05000000035892
 31
0.0
  0
LINE
  5
2925
  8
0
 62
     0
 10
2.615006986836883
 20
295.87500000035902
 30
0.0
 11
2.615006986836883
 21
296.6687500003589
 31
0.0
  0
LINE
  5
2926
  8
0
 62
     0
 10
2.615006986836883
 20
293.493750000359
 30
0.0
 11
2.615006986836883
 21
294.28750000035899
 31
0.0
  0
LINE
  5
2927
  8
0
 62
     0
 10
1.240191986836884
 20
300.6375000003589
 30
0.0
 11
1.240191986836884
 21
301.43125000035889
 31
0.0
  0
LINE
  5
2928
  8
0
 62
     0
 10
1.240191986836884
 20
298.25625000035888
 30
0.0
 11
1.240191986836884
 21
299.05000000035892
 31
0.0
  0
LINE
  5
2929
  8
0
 62
     0
 10
1.240191986836884
 20
295.87500000035902
 30
0.0
 11
1.240191986836884
 21
296.6687500003589
 31
0.0
  0
LINE
  5
292A
  8
0
 62
     0
 10
1.240191986836884
 20
293.493750000359
 30
0.0
 11
1.240191986836884
 21
294.28750000035899
 31
0.0
  0
LINE
  5
292B
  8
0
 62
     0
 10
-0.1346230131631125
 20
300.6375000003589
 30
0.0
 11
-0.1346230131631125
 21
301.43125000035889
 31
0.0
  0
LINE
  5
292C
  8
0
 62
     0
 10
-0.1346230131631126
 20
298.25625000035888
 30
0.0
 11
-0.1346230131631126
 21
299.05000000035892
 31
0.0
  0
LINE
  5
292D
  8
0
 62
     0
 10
-0.1346230131631128
 20
295.87500000035902
 30
0.0
 11
-0.1346230131631128
 21
296.6687500003589
 31
0.0
  0
LINE
  5
292E
  8
0
 62
     0
 10
-0.134623013163113
 20
293.493750000359
 30
0.0
 11
-0.134623013163113
 21
294.28750000035899
 31
0.0
  0
LINE
  5
292F
  8
0
 62
     0
 10
-1.5094380131631111
 20
300.6375000003589
 30
0.0
 11
-1.5094380131631111
 21
301.43125000035889
 31
0.0
  0
LINE
  5
2930
  8
0
 62
     0
 10
-1.5094380131631111
 20
298.25625000035888
 30
0.0
 11
-1.5094380131631111
 21
299.05000000035892
 31
0.0
  0
LINE
  5
2931
  8
0
 62
     0
 10
-1.5094380131631111
 20
295.87500000035902
 30
0.0
 11
-1.5094380131631111
 21
296.6687500003589
 31
0.0
  0
LINE
  5
2932
  8
0
 62
     0
 10
-1.5094380131631111
 20
293.493750000359
 30
0.0
 11
-1.5094380131631111
 21
294.28750000035899
 31
0.0
  0
LINE
  5
2933
  8
0
 62
     0
 10
-2.884253013163109
 20
300.6375000003589
 30
0.0
 11
-2.884253013163109
 21
301.43125000035889
 31
0.0
  0
LINE
  5
2934
  8
0
 62
     0
 10
-2.884253013163109
 20
298.25625000035888
 30
0.0
 11
-2.884253013163109
 21
299.05000000035892
 31
0.0
  0
LINE
  5
2935
  8
0
 62
     0
 10
-2.884253013163109
 20
295.87500000035902
 30
0.0
 11
-2.884253013163109
 21
296.6687500003589
 31
0.0
  0
LINE
  5
2936
  8
0
 62
     0
 10
-2.884253013163109
 20
293.493750000359
 30
0.0
 11
-2.884253013163109
 21
294.28750000035899
 31
0.0
  0
LINE
  5
2937
  8
0
 62
     0
 10
-4.2590680131631213
 20
300.6375000003589
 30
0.0
 11
-4.2590680131631213
 21
301.01784448095839
 31
0.0
  0
LINE
  5
2938
  8
0
 62
     0
 10
-4.2590680131631213
 20
298.25625000035888
 30
0.0
 11
-4.2590680131631213
 21
299.05000000035892
 31
0.0
  0
LINE
  5
2939
  8
0
 62
     0
 10
-4.2590680131631213
 20
295.87500000035902
 30
0.0
 11
-4.2590680131631213
 21
296.6687500003589
 31
0.0
  0
LINE
  5
293A
  8
0
 62
     0
 10
-4.2590680131631213
 20
293.493750000359
 30
0.0
 11
-4.2590680131631213
 21
294.28750000035899
 31
0.0
  0
LINE
  5
293B
  8
0
 62
     0
 10
-5.6338830131631186
 20
298.25625000035888
 30
0.0
 11
-5.6338830131631186
 21
299.05000000035892
 31
0.0
  0
LINE
  5
293C
  8
0
 62
     0
 10
-5.6338830131631186
 20
295.87500000035902
 30
0.0
 11
-5.6338830131631186
 21
296.6687500003589
 31
0.0
  0
LINE
  5
293D
  8
0
 62
     0
 10
-5.6338830131631186
 20
294.28547955710468
 30
0.0
 11
-5.6338830131631186
 21
294.28750000035899
 31
0.0
  0
ENDBLK
  5
293F
  8
0
  0
BLOCK
  8
0
  2
*U17
 70
     1
 10
0.0
 20
0.0
 30
0.0
  3
*U17
  1

  0
TEXT
  5
297B
  8
SAPA_MATT
 62
     2
 10
14.6494447212091
 20
322.49999978546452
 30
0.0
 40
3.0
  1
60
  7
ISO
  0
ENDBLK
  5
297D
  8
0
  0
BLOCK
  8
0
  2
*U18
 70
     1
 10
0.0
 20
0.0
 30
0.0
  3
*U18
  1

  0
TEXT
  5
297F
  8
SAPA_MATT
 62
     2
 10
-2.300555278802948
 20
334.49999978546452
 30
0.0
 40
3.0
  1
91.5
  7
ISO
  0
ENDBLK
  5
2981
  8
0
  0
BLOCK
  8
0
  2
*U19
 70
     1
 10
0.0
 20
0.0
 30
0.0
  3
*U19
  1

  0
TEXT
  5
2983
  8
SAPA_MATT
 62
     2
 10
-71.172260976040661
 20
288.44999985718448
 30
0.0
 40
3.0
  1
5
 50
90.0
  7
ISO
  0
ENDBLK
  5
2985
  8
0
  0
BLOCK
  8
0
  2
*U20
 70
     1
 10
0.0
 20
0.0
 30
0.0
  3
*U20
  1

  0
TEXT
  5
2987
  8
SAPA_MATT
 62
     2
 10
-83.047034266394576
 20
175.35000000011391
 30
0.0
 40
3.0
  1
227
 50
90.0
  7
ISO
  0
ENDBLK
  5
2989
  8
0
  0
ENDSEC
  0
SECTION
  2
ENTITIES
  0
POINT
  5
1F01
  8
SAPA_PROFIL
 62
     4
 10
-13.250579278806301
 20
223.99999985753021
 30
0.0
 50
270.0
  0
TEXT
  5
1FB2
  8
SAPA_ARTIKELNR
 10
12.898641584286221
 20
60.061442865749768
 30
0.0000000048844772
 40
3.5
  1
D9K035
  7
ISO
  0
LINE
  5
1FB3
  8
SAPA_ANSLUTNING
 10
61.750000071155
 20
65.000000143388888
 30
0.0
 11
61.750000071155
 21
301.99999992810012
 31
0.0
  0
LINE
  5
1FB4
  8
SAPA_ANSLUTNING
 10
-13.24999992885045
 20
65.000000000248974
 30
0.0
 11
-13.24999992885045
 21
17.463154269972389
 31
0.0
  0
LINE
  5
1FB5
  8
SAPA_ANSLUTNING
 10
-13.24999992885045
 20
65.000000143388888
 30
0.0
 11
61.750000071155
 21
65.000000143388888
 31
0.0
  0
INSERT
  5
1FB6
  8
SAPA_ANSLUTNING
  6
CONTINUOUS
  2
*X15
 10
0.0
 20
0.0
 30
0.0
1001
ACAD
1000
HATCH
1002
{
1070
    19
1000
ANSI37
1040
0.25
1040
1.5707963267948959
1000
R14_HATCH_DATA
1000
1FB6
1011
1.0
1021
0.0
1031
0.0
1021
0.0
1031
0.0
1011
0.0
1021
0.0
1031
0.0
1021
1.0
1031
0.0
1011
0.0
1021
0.0
1031
0.0
1021
0.0
1031
1.0
1040
0.0
1010
0.0
1020
0.0
1030
1.0
1000
ANSI37
1070
     0
1070
     0
1071
        1
1071
        1
1071
        6
1070
     3
1040
-0.9133486921771236
1040
296.99999992810012
1040
5.6210574168242138
1040
0.0000000000000003
1040
0.8895123513655372
1040
1.5707963267948959
1040
2.144309431217978
1070
     0
1070
     3
1040
-0.9133486921771236
1040
296.99999992810012
1040
5.6210574168242138
1040
0.0000000000000003
1040
0.8895123513655372
1040
2.144309431217978
1040
4.7123889803846888
1070
     0
1070
     1
1040
-0.9133486921775784
1040
301.99999992810012
1040
-13.249999928852731
1040
301.99999992810012
1070
     2
1040
-37.898292048727633
1040
295.32825835213612
1040
25.535278343560961
1040
-0.2643433246173932
1040
0.153886542787264
1070
     0
1070
     2
1040
-11.250555278789991
1040
289.99999999997931
1040
1.9999999999999349
1040
3.926990816987201
1040
4.7123889803848034
1070
     0
1070
     1
1040
-11.250555278789991
1040
291.9999999999788
1040
-0.9133486921771236
1040
291.99999992809973
1071
        0
1070
     0
1070
     1
1040
1.5707963267948959
1040
0.25
1070
     0
1070
     2
1040
0.7853981633974481
1040
-97.746488013163116
1040
153.00000000035899
1040
0.5612660075668221
1040
-0.5612660075668221
1070
     0
1040
5.4977871437821371
1040
-97.746488013163116
1040
153.00000000035899
1040
-0.5612660075668221
1040
-0.5612660075668221
1070
     0
1071
        1
1040
-9.6703646417938671
1040
295.99867634734869
1040
0.0
1002
}
  0
LINE
  5
1FB7
  8
SAPA_ANSLUTNING
 10
-13.249999928852731
 20
301.99999992810012
 30
0.0
 11
-13.249999928852731
 21
347.0032559347585
 31
0.0
  0
LINE
  5
1FB8
  8
SAPA_ANSLUTNING
 10
61.750000071152719
 20
301.99999992810012
 30
0.0
 11
-13.249999928852731
 21
301.99999992810012
 31
0.0
  0
INSERT
  5
1FB9
  8
SAPA_ANSLUTNING
  6
CONTINUOUS
  2
*X16
 10
0.0
 20
0.0
 30
0.0
1001
ACAD
1000
HATCH
1002
{
1070
    19
1000
HEX
1040
0.25
1040
1.5707963267948959
1000
ASC_BOUNDS
1070
     1
1070
     1
1070
     1
1005
1FBA
1000
ASC_SEEDPOINT
1011
-1.031686381233839
1021
0.0
1031
0.0
1021
297.24210993817468
1031
0.0
1000
R14_HATCH_DATA
1000
1FB9
1011
1.0
1021
0.0
1031
0.0
1021
0.0
1031
0.0
1011
0.0
1021
0.0
1031
0.0
1021
1.0
1031
0.0
1011
0.0
1021
0.0
1031
0.0
1021
0.0
1031
1.0
1040
0.0
1010
0.0
1020
0.0
1030
1.0
1000
HEX
1070
     0
1070
     1
1071
        1
1071
        5
1071
        1
1070
     3
1040
-0.9133486921771236
1040
296.99999992810012
1040
5.6210574168242138
1040
0.0000000000000003
1040
0.8895123513655372
1040
0.0
1040
6.2831853071795862
1070
     1
1071
        1
1005
1FBA
1070
     0
1070
     1
1040
1.5707963267948959
1040
0.25
1070
     0
1070
     3
1040
1.5707963267948959
1040
-97.746488013163116
1040
153.00000000035899
1040
1.374814999999999
1040
-0.0000000000000001
1070
     2
1040
0.79375
1040
-1.587499999999999
1040
5.7595865315812871
1040
-97.746488013163116
1040
153.00000000035899
1040
-0.6874074999999998
1040
-1.190624715503902
1070
     2
1040
0.7937499999999993
1040
-1.5874999999999979
1040
0.5235987755982992
1040
-97.746488013163116
1040
153.79375000035881
1040
0.6874075
1040
-1.190624715503902
1070
     2
1040
0.79375
1040
-1.587499999999999
1040
0.0591690278051155
1071
        1
1040
-1.031686381233839
1040
297.24210993817468
1040
0.0
1002
}
  0
POLYLINE
  5
1FBA
  8
SAPA_ANSLUTNING
 10
4.7077087246470901
 20
296.99999992810012
 30
0.0
 66
     1
 70
     8
  0
VERTEX
  8
SAPA_ANSLUTNING
  5
298D
 10
4.70771
 20
297.000
 30
0.000000
  70
    32
  0
VERTEX
  8
SAPA_ANSLUTNING
  5
298E
 10
4.70094
 20
297.245
 30
0.000000
  70
    32
  0
VERTEX
  8
SAPA_ANSLUTNING
  5
298F
 10
4.68064
 20
297.490
 30
0.000000
  70
    32
  0
VERTEX
  8
SAPA_ANSLUTNING
  5
2990
 10
4.64687
 20
297.734
 30
0.000000
  70
    32
  0
VERTEX
  8
SAPA_ANSLUTNING
  5
2991
 10
4.59970
 20
297.975
 30
0.000000
  70
    32
  0
VERTEX
  8
SAPA_ANSLUTNING
  5
2992
 10
4.53925
 20
298.215
 30
0.000000
  70
    32
  0
VERTEX
  8
SAPA_ANSLUTNING
  5
2993
 10
4.46567
 20
298.451
 30
0.000000
  70
    32
  0
VERTEX
  8
SAPA_ANSLUTNING
  5
2994
 10
4.37912
 20
298.684
 30
0.000000
  70
    32
  0
VERTEX
  8
SAPA_ANSLUTNING
  5
2995
 10
4.27983
 20
298.913
 30
0.000000
  70
    32
  0
VERTEX
  8
SAPA_ANSLUTNING
  5
2996
 10
4.16803
 20
299.138
 30
0.000000
  70
    32
  0
VERTEX
  8
SAPA_ANSLUTNING
  5
2997
 10
4.04398
 20
299.357
 30
0.000000
  70
    32
  0
VERTEX
  8
SAPA_ANSLUTNING
  5
2998
 10
3.90799
 20
299.571
 30
0.000000
  70
    32
  0
VERTEX
  8
SAPA_ANSLUTNING
  5
2999
 10
3.76039
 20
299.778
 30
0.000000
  70
    32
  0
VERTEX
  8
SAPA_ANSLUTNING
  5
299A
 10
3.60153
 20
299.978
 30
0.000000
  70
    32
  0
VERTEX
  8
SAPA_ANSLUTNING
  5
299B
 10
3.43179
 20
300.172
 30
0.000000
  70
    32
  0
VERTEX
  8
SAPA_ANSLUTNING
  5
299C
 10
3.25158
 20
300.358
 30
0.000000
  70
    32
  0
VERTEX
  8
SAPA_ANSLUTNING
  5
299D
 10
3.06134
 20
300.536
 30
0.000000
  70
    32
  0
VERTEX
  8
SAPA_ANSLUTNING
  5
299E
 10
2.86152
 20
300.705
 30
0.000000
  70
    32
  0
VERTEX
  8
SAPA_ANSLUTNING
  5
299F
 10
2.65261
 20
300.865
 30
0.000000
  70
    32
  0
VERTEX
  8
SAPA_ANSLUTNING
  5
29A0
 10
2.43511
 20
301.016
 30
0.000000
  70
    32
  0
VERTEX
  8
SAPA_ANSLUTNING
  5
29A1
 10
2.20954
 20
301.157
 30
0.000000
  70
    32
  0
VERTEX
  8
SAPA_ANSLUTNING
  5
29A2
 10
1.97645
 20
301.289
 30
0.000000
  70
    32
  0
VERTEX
  8
SAPA_ANSLUTNING
  5
29A3
 10
1.73640
 20
301.410
 30
0.000000
  70
    32
  0
VERTEX
  8
SAPA_ANSLUTNING
  5
29A4
 10
1.48996
 20
301.520
 30
0.000000
  70
    32
  0
VERTEX
  8
SAPA_ANSLUTNING
  5
29A5
 10
1.23774
 20
301.619
 30
0.000000
  70
    32
  0
VERTEX
  8
SAPA_ANSLUTNING
  5
29A6
 10
0.980329
 20
301.708
 30
0.000000
  70
    32
  0
VERTEX
  8
SAPA_ANSLUTNING
  5
29A7
 10
0.718358
 20
301.785
 30
0.000000
  70
    32
  0
VERTEX
  8
SAPA_ANSLUTNING
  5
29A8
 10
0.452457
 20
301.850
 30
0.000000
  70
    32
  0
VERTEX
  8
SAPA_ANSLUTNING
  5
29A9
 10
0.183265
 20
301.904
 30
0.000000
  70
    32
  0
VERTEX
  8
SAPA_ANSLUTNING
  5
29AA
 10
-0.0885683
 20
301.946
 30
0.000000
  70
    32
  0
VERTEX
  8
SAPA_ANSLUTNING
  5
29AB
 10
-0.362389
 20
301.976
 30
0.000000
  70
    32
  0
VERTEX
  8
SAPA_ANSLUTNING
  5
29AC
 10
-0.637536
 20
301.994
 30
0.000000
  70
    32
  0
VERTEX
  8
SAPA_ANSLUTNING
  5
29AD
 10
-0.913349
 20
302.000
 30
0.000000
  70
    32
  0
VERTEX
  8
SAPA_ANSLUTNING
  5
29AE
 10
-1.18916
 20
301.994
 30
0.000000
  70
    32
  0
VERTEX
  8
SAPA_ANSLUTNING
  5
29AF
 10
-1.46431
 20
301.976
 30
0.000000
  70
    32
  0
VERTEX
  8
SAPA_ANSLUTNING
  5
29B0
 10
-1.73813
 20
301.946
 30
0.000000
  70
    32
  0
VERTEX
  8
SAPA_ANSLUTNING
  5
29B1
 10
-2.00996
 20
301.904
 30
0.000000
  70
    32
  0
VERTEX
  8
SAPA_ANSLUTNING
  5
29B2
 10
-2.27915
 20
301.850
 30
0.000000
  70
    32
  0
VERTEX
  8
SAPA_ANSLUTNING
  5
29B3
 10
-2.54506
 20
301.785
 30
0.000000
  70
    32
  0
VERTEX
  8
SAPA_ANSLUTNING
  5
29B4
 10
-2.80703
 20
301.708
 30
0.000000
  70
    32
  0
VERTEX
  8
SAPA_ANSLUTNING
  5
29B5
 10
-3.06443
 20
301.619
 30
0.000000
  70
    32
  0
VERTEX
  8
SAPA_ANSLUTNING
  5
29B6
 10
-3.31666
 20
301.520
 30
0.000000
  70
    32
  0
VERTEX
  8
SAPA_ANSLUTNING
  5
29B7
 10
-3.56310
 20
301.410
 30
0.000000
  70
    32
  0
VERTEX
  8
SAPA_ANSLUTNING
  5
29B8
 10
-3.80315
 20
301.289
 30
0.000000
  70
    32
  0
VERTEX
  8
SAPA_ANSLUTNING
  5
29B9
 10
-4.03624
 20
301.157
 30
0.000000
  70
    32
  0
VERTEX
  8
SAPA_ANSLUTNING
  5
29BA
 10
-4.26181
 20
301.016
 30
0.000000
  70
    32
  0
VERTEX
  8
SAPA_ANSLUTNING
  5
29BB
 10
-4.47931
 20
300.865
 30
0.000000
  70
    32
  0
VERTEX
  8
SAPA_ANSLUTNING
  5
29BC
 10
-4.68822
 20
300.705
 30
0.000000
  70
    32
  0
VERTEX
  8
SAPA_ANSLUTNING
  5
29BD
 10
-4.88804
 20
300.536
 30
0.000000
  70
    32
  0
VERTEX
  8
SAPA_ANSLUTNING
  5
29BE
 10
-5.07828
 20
300.358
 30
0.000000
  70
    32
  0
VERTEX
  8
SAPA_ANSLUTNING
  5
29BF
 10
-5.25848
 20
300.172
 30
0.000000
  70
    32
  0
VERTEX
  8
SAPA_ANSLUTNING
  5
29C0
 10
-5.42822
 20
299.978
 30
0.000000
  70
    32
  0
VERTEX
  8
SAPA_ANSLUTNING
  5
29C1
 10
-5.58709
 20
299.778
 30
0.000000
  70
    32
  0
VERTEX
  8
SAPA_ANSLUTNING
  5
29C2
 10
-5.73469
 20
299.571
 30
0.000000
  70
    32
  0
VERTEX
  8
SAPA_ANSLUTNING
  5
29C3
 10
-5.87068
 20
299.357
 30
0.000000
  70
    32
  0
VERTEX
  8
SAPA_ANSLUTNING
  5
29C4
 10
-5.99472
 20
299.138
 30
0.000000
  70
    32
  0
VERTEX
  8
SAPA_ANSLUTNING
  5
29C5
 10
-6.10653
 20
298.913
 30
0.000000
  70
    32
  0
VERTEX
  8
SAPA_ANSLUTNING
  5
29C6
 10
-6.20582
 20
298.684
 30
0.000000
  70
    32
  0
VERTEX
  8
SAPA_ANSLUTNING
  5
29C7
 10
-6.29237
 20
298.451
 30
0.000000
  70
    32
  0
VERTEX
  8
SAPA_ANSLUTNING
  5
29C8
 10
-6.36595
 20
298.215
 30
0.000000
  70
    32
  0
VERTEX
  8
SAPA_ANSLUTNING
  5
29C9
 10
-6.42640
 20
297.975
 30
0.000000
  70
    32
  0
VERTEX
  8
SAPA_ANSLUTNING
  5
29CA
 10
-6.47357
 20
297.734
 30
0.000000
  70
    32
  0
VERTEX
  8
SAPA_ANSLUTNING
  5
29CB
 10
-6.50734
 20
297.490
 30
0.000000
  70
    32
  0
VERTEX
  8
SAPA_ANSLUTNING
  5
29CC
 10
-6.52764
 20
297.245
 30
0.000000
  70
    32
  0
VERTEX
  8
SAPA_ANSLUTNING
  5
29CD
 10
-6.53441
 20
297.000
 30
0.000000
  70
    32
  0
VERTEX
  8
SAPA_ANSLUTNING
  5
29CE
 10
-6.52764
 20
296.755
 30
0.000000
  70
    32
  0
VERTEX
  8
SAPA_ANSLUTNING
  5
29CF
 10
-6.50734
 20
296.510
 30
0.000000
  70
    32
  0
VERTEX
  8
SAPA_ANSLUTNING
  5
29D0
 10
-6.47357
 20
296.266
 30
0.000000
  70
    32
  0
VERTEX
  8
SAPA_ANSLUTNING
  5
29D1
 10
-6.42640
 20
296.025
 30
0.000000
  70
    32
  0
VERTEX
  8
SAPA_ANSLUTNING
  5
29D2
 10
-6.36595
 20
295.785
 30
0.000000
  70
    32
  0
VERTEX
  8
SAPA_ANSLUTNING
  5
29D3
 10
-6.29237
 20
295.549
 30
0.000000
  70
    32
  0
VERTEX
  8
SAPA_ANSLUTNING
  5
29D4
 10
-6.20582
 20
295.316
 30
0.000000
  70
    32
  0
VERTEX
  8
SAPA_ANSLUTNING
  5
29D5
 10
-6.10653
 20
295.087
 30
0.000000
  70
    32
  0
VERTEX
  8
SAPA_ANSLUTNING
  5
29D6
 10
-5.99472
 20
294.862
 30
0.000000
  70
    32
  0
VERTEX
  8
SAPA_ANSLUTNING
  5
29D7
 10
-5.87068
 20
294.643
 30
0.000000
  70
    32
  0
VERTEX
  8
SAPA_ANSLUTNING
  5
29D8
 10
-5.73469
 20
294.429
 30
0.000000
  70
    32
  0
VERTEX
  8
SAPA_ANSLUTNING
  5
29D9
 10
-5.58709
 20
294.222
 30
0.000000
  70
    32
  0
VERTEX
  8
SAPA_ANSLUTNING
  5
29DA
 10
-5.42822
 20
294.022
 30
0.000000
  70
    32
  0
VERTEX
  8
SAPA_ANSLUTNING
  5
29DB
 10
-5.25848
 20
293.828
 30
0.000000
  70
    32
  0
VERTEX
  8
SAPA_ANSLUTNING
  5
29DC
 10
-5.07828
 20
293.642
 30
0.000000
  70
    32
  0
VERTEX
  8
SAPA_ANSLUTNING
  5
29DD
 10
-4.88804
 20
293.464
 30
0.000000
  70
    32
  0
VERTEX
  8
SAPA_ANSLUTNING
  5
29DE
 10
-4.68822
 20
293.295
 30
0.000000
  70
    32
  0
VERTEX
  8
SAPA_ANSLUTNING
  5
29DF
 10
-4.47931
 20
293.135
 30
0.000000
  70
    32
  0
VERTEX
  8
SAPA_ANSLUTNING
  5
29E0
 10
-4.26181
 20
292.984
 30
0.000000
  70
    32
  0
VERTEX
  8
SAPA_ANSLUTNING
  5
29E1
 10
-4.03624
 20
292.843
 30
0.000000
  70
    32
  0
VERTEX
  8
SAPA_ANSLUTNING
  5
29E2
 10
-3.80315
 20
292.711
 30
0.000000
  70
    32
  0
VERTEX
  8
SAPA_ANSLUTNING
  5
29E3
 10
-3.56310
 20
292.590
 30
0.000000
  70
    32
  0
VERTEX
  8
SAPA_ANSLUTNING
  5
29E4
 10
-3.31666
 20
292.480
 30
0.000000
  70
    32
  0
VERTEX
  8
SAPA_ANSLUTNING
  5
29E5
 10
-3.06443
 20
292.381
 30
0.000000
  70
    32
  0
VERTEX
  8
SAPA_ANSLUTNING
  5
29E6
 10
-2.80703
 20
292.292
 30
0.000000
  70
    32
  0
VERTEX
  8
SAPA_ANSLUTNING
  5
29E7
 10
-2.54506
 20
292.215
 30
0.000000
  70
    32
  0
VERTEX
  8
SAPA_ANSLUTNING
  5
29E8
 10
-2.27915
 20
292.150
 30
0.000000
  70
    32
  0
VERTEX
  8
SAPA_ANSLUTNING
  5
29E9
 10
-2.00996
 20
292.096
 30
0.000000
  70
    32
  0
VERTEX
  8
SAPA_ANSLUTNING
  5
29EA
 10
-1.73813
 20
292.054
 30
0.000000
  70
    32
  0
VERTEX
  8
SAPA_ANSLUTNING
  5
29EB
 10
-1.46431
 20
292.024
 30
0.000000
  70
    32
  0
VERTEX
  8
SAPA_ANSLUTNING
  5
29EC
 10
-1.18916
 20
292.006
 30
0.000000
  70
    32
  0
VERTEX
  8
SAPA_ANSLUTNING
  5
29ED
 10
-0.913349
 20
292.000
 30
0.000000
  70
    32
  0
VERTEX
  8
SAPA_ANSLUTNING
  5
29EE
 10
-0.637536
 20
292.006
 30
0.000000
  70
    32
  0
VERTEX
  8
SAPA_ANSLUTNING
  5
29EF
 10
-0.362389
 20
292.024
 30
0.000000
  70
    32
  0
VERTEX
  8
SAPA_ANSLUTNING
  5
29F0
 10
-0.0885683
 20
292.054
 30
0.000000
  70
    32
  0
VERTEX
  8
SAPA_ANSLUTNING
  5
29F1
 10
0.183265
 20
292.096
 30
0.000000
  70
    32
  0
VERTEX
  8
SAPA_ANSLUTNING
  5
29F2
 10
0.452457
 20
292.150
 30
0.000000
  70
    32
  0
VERTEX
  8
SAPA_ANSLUTNING
  5
29F3
 10
0.718358
 20
292.215
 30
0.000000
  70
    32
  0
VERTEX
  8
SAPA_ANSLUTNING
  5
29F4
 10
0.980329
 20
292.292
 30
0.000000
  70
    32
  0
VERTEX
  8
SAPA_ANSLUTNING
  5
29F5
 10
1.23774
 20
292.381
 30
0.000000
  70
    32
  0
VERTEX
  8
SAPA_ANSLUTNING
  5
29F6
 10
1.48996
 20
292.480
 30
0.000000
  70
    32
  0
VERTEX
  8
SAPA_ANSLUTNING
  5
29F7
 10
1.73640
 20
292.590
 30
0.000000
  70
    32
  0
VERTEX
  8
SAPA_ANSLUTNING
  5
29F8
 10
1.97645
 20
292.711
 30
0.000000
  70
    32
  0
VERTEX
  8
SAPA_ANSLUTNING
  5
29F9
 10
2.20954
 20
292.843
 30
0.000000
  70
    32
  0
VERTEX
  8
SAPA_ANSLUTNING
  5
29FA
 10
2.43511
 20
292.984
 30
0.000000
  70
    32
  0
VERTEX
  8
SAPA_ANSLUTNING
  5
29FB
 10
2.65261
 20
293.135
 30
0.000000
  70
    32
  0
VERTEX
  8
SAPA_ANSLUTNING
  5
29FC
 10
2.86152
 20
293.295
 30
0.000000
  70
    32
  0
VERTEX
  8
SAPA_ANSLUTNING
  5
29FD
 10
3.06134
 20
293.464
 30
0.000000
  70
    32
  0
VERTEX
  8
SAPA_ANSLUTNING
  5
29FE
 10
3.25158
 20
293.642
 30
0.000000
  70
    32
  0
VERTEX
  8
SAPA_ANSLUTNING
  5
29FF
 10
3.43179
 20
293.828
 30
0.000000
  70
    32
  0
VERTEX
  8
SAPA_ANSLUTNING
  5
2A00
 10
3.60153
 20
294.022
 30
0.000000
  70
    32
  0
VERTEX
  8
SAPA_ANSLUTNING
  5
2A01
 10
3.76039
 20
294.222
 30
0.000000
  70
    32
  0
VERTEX
  8
SAPA_ANSLUTNING
  5
2A02
 10
3.90799
 20
294.429
 30
0.000000
  70
    32
  0
VERTEX
  8
SAPA_ANSLUTNING
  5
2A03
 10
4.04398
 20
294.643
 30
0.000000
  70
    32
  0
VERTEX
  8
SAPA_ANSLUTNING
  5
2A04
 10
4.16803
 20
294.862
 30
0.000000
  70
    32
  0
VERTEX
  8
SAPA_ANSLUTNING
  5
2A05
 10
4.27983
 20
295.087
 30
0.000000
  70
    32
  0
VERTEX
  8
SAPA_ANSLUTNING
  5
2A06
 10
4.37912
 20
295.316
 30
0.000000
  70
    32
  0
VERTEX
  8
SAPA_ANSLUTNING
  5
2A07
 10
4.46567
 20
295.549
 30
0.000000
  70
    32
  0
VERTEX
  8
SAPA_ANSLUTNING
  5
2A08
 10
4.53925
 20
295.785
 30
0.000000
  70
    32
  0
VERTEX
  8
SAPA_ANSLUTNING
  5
2A09
 10
4.59970
 20
296.025
 30
0.000000
  70
    32
  0
VERTEX
  8
SAPA_ANSLUTNING
  5
2A0A
 10
4.64687
 20
296.266
 30
0.000000
  70
    32
  0
VERTEX
  8
SAPA_ANSLUTNING
  5
2A0B
 10
4.68064
 20
296.510
 30
0.000000
  70
    32
  0
VERTEX
  8
SAPA_ANSLUTNING
  5
2A0C
 10
4.70094
 20
296.755
 30
0.000000
  70
    32
  0
VERTEX
  8
SAPA_ANSLUTNING
  5
2A0D
 10
4.70771
 20
297.000
 30
0.000000
  70
    32
  0
SEQEND
  8
SAPA_ANSLUTNING
  5
2A0E
  0
POLYLINE
  5
1FBB
  8
SAPA_ANSLUTNING
 66
     1
 10
0.0
 20
0.0
 30
0.0
  0
VERTEX
  5
2940
  8
SAPA_ANSLUTNING
 10
3.1020696616935761
 20
293.50107147144098
 30
0.0
 42
0.8812634091771133
  0
VERTEX
  5
2941
  8
SAPA_ANSLUTNING
 10
7.0388376899138621
 20
293.99999992810012
 30
0.0
  0
VERTEX
  5
2942
  8
SAPA_ANSLUTNING
 10
7.0388376899138621
 20
299.99999992810012
 30
0.0
 42
-0.9999999999999998
  0
VERTEX
  5
2943
  8
SAPA_ANSLUTNING
 10
11.03883768991386
 20
299.99999992810012
 30
0.0
  0
VERTEX
  5
2944
  8
SAPA_ANSLUTNING
 10
11.03883768991386
 20
293.99999992810012
 30
0.0
 42
0.9999999999999998
  0
VERTEX
  5
2945
  8
SAPA_ANSLUTNING
 10
15.03883768991386
 20
293.99999992810012
 30
0.0
  0
VERTEX
  5
2946
  8
SAPA_ANSLUTNING
 10
15.03883768991386
 20
299.99999992810012
 30
0.0
 42
-0.9999999999999998
  0
VERTEX
  5
2947
  8
SAPA_ANSLUTNING
 10
19.038837689913858
 20
299.99999992810012
 30
0.0
  0
VERTEX
  5
2948
  8
SAPA_ANSLUTNING
 10
19.038837689913858
 20
293.99999992810012
 30
0.0
 42
0.9999999999999998
  0
VERTEX
  5
2949
  8
SAPA_ANSLUTNING
 10
23.038837689913858
 20
293.99999992810012
 30
0.0
  0
VERTEX
  5
294A
  8
SAPA_ANSLUTNING
 10
23.038837689913858
 20
299.99999992810012
 30
0.0
 42
-0.9999999999999998
  0
VERTEX
  5
294B
  8
SAPA_ANSLUTNING
 10
27.038837689913858
 20
299.99999992810012
 30
0.0
  0
VERTEX
  5
294C
  8
SAPA_ANSLUTNING
 10
27.038837689913858
 20
293.99999992810012
 30
0.0
 42
0.9999999999999998
  0
VERTEX
  5
294D
  8
SAPA_ANSLUTNING
 10
31.038837689913858
 20
293.99999992810012
 30
0.0
  0
VERTEX
  5
294E
  8
SAPA_ANSLUTNING
 10
31.038837689913858
 20
299.99999992810012
 30
0.0
 42
-0.9999999999999998
  0
VERTEX
  5
294F
  8
SAPA_ANSLUTNING
 10
35.038837689913862
 20
299.99999992810012
 30
0.0
  0
VERTEX
  5
2950
  8
SAPA_ANSLUTNING
 10
35.038837689913862
 20
293.99999992810012
 30
0.0
 42
0.9999999999999998
  0
VERTEX
  5
2951
  8
SAPA_ANSLUTNING
 10
39.038837689913862
 20
293.99999992810012
 30
0.0
  0
VERTEX
  5
2952
  8
SAPA_ANSLUTNING
 10
39.038837689913862
 20
299.99999992810012
 30
0.0
 42
-0.9999999999999998
  0
VERTEX
  5
2953
  8
SAPA_ANSLUTNING
 10
43.038837689913862
 20
299.99999992810012
 30
0.0
  0
VERTEX
  5
2954
  8
SAPA_ANSLUTNING
 10
43.038837689913862
 20
293.99999992810012
 30
0.0
 42
0.9999999999999998
  0
VERTEX
  5
2955
  8
SAPA_ANSLUTNING
 10
47.038837689913862
 20
293.99999992810012
 30
0.0
  0
VERTEX
  5
2956
  8
SAPA_ANSLUTNING
 10
47.038837689913862
 20
299.99999992810012
 30
0.0
 42
-0.9999999999999998
  0
VERTEX
  5
2957
  8
SAPA_ANSLUTNING
 10
51.038837689913862
 20
299.99999992810012
 30
0.0
  0
VERTEX
  5
2958
  8
SAPA_ANSLUTNING
 10
51.038837689913862
 20
293.99999992810012
 30
0.0
 42
0.9999999999999998
  0
VERTEX
  5
2959
  8
SAPA_ANSLUTNING
 10
55.038837689913862
 20
293.99999992810012
 30
0.0
  0
VERTEX
  5
295A
  8
SAPA_ANSLUTNING
 10
55.038837689913862
 20
299.99999992810012
 30
0.0
 42
-0.9999999999999998
  0
VERTEX
  5
295B
  8
SAPA_ANSLUTNING
 10
59.038837689913862
 20
299.99999992810012
 30
0.0
  0
VERTEX
  5
295C
  8
SAPA_ANSLUTNING
 10
59.038837689913862
 20
293.99999992810012
 30
0.0
 42
0.5251735434384823
  0
VERTEX
  5
295D
  8
SAPA_ANSLUTNING
 10
61.750000071152719
 20
292.13070913544362
 30
0.0
 42
0.5251735434384823
  0
SEQEND
  5
295E
  8
SAPA_ANSLUTNING
  0
ARC
  5
1FBC
  8
SAPA_ANSLUTNING
 10
-37.89829204872899
 20
295.32825835213572
 30
0.0
 40
25.53527834356208
 50
351.18295057443731
 51
15.145756843022509
  0
LINE
  5
1FBD
  8
SAPA_ANSLUTNING
 10
59.750000071147269
 20
65.436768171609174
 30
0.0
 11
48.750000071147269
 21
65.436768171609174
 31
0.0
  0
ARC
  5
1FBE
  8
SAPA_ANSLUTNING
 10
48.750000071147269
 20
67.436768171609174
 30
0.0
 40
2.0
 50
90.0
 51
270.0
  0
LINE
  5
1FBF
  8
SAPA_ANSLUTNING
 10
48.750000071147269
 20
69.436768171609174
 30
0.0
 11
59.750000071147269
 21
69.436768171609174
 31
0.0
  0
ARC
  5
1FC0
  8
SAPA_ANSLUTNING
 10
59.750000071147269
 20
71.436768171609174
 30
0.0
 40
2.0
 50
270.0
 51
90.0
  0
LINE
  5
1FC1
  8
SAPA_ANSLUTNING
 10
59.750000071147269
 20
73.436768171609174
 30
0.0
 11
48.750000071147269
 21
73.436768171609174
 31
0.0
  0
ARC
  5
1FC2
  8
SAPA_ANSLUTNING
 10
48.750000071147269
 20
75.436768171609174
 30
0.0
 40
2.0
 50
90.0
 51
270.0
  0
LINE
  5
1FC3
  8
SAPA_ANSLUTNING
 10
48.750000071147269
 20
77.436768171609174
 30
0.0
 11
59.750000071147269
 21
77.436768171609174
 31
0.0
  0
ARC
  5
1FC4
  8
SAPA_ANSLUTNING
 10
59.750000071147269
 20
79.436768171609174
 30
0.0
 40
2.0
 50
270.0
 51
90.0
  0
LINE
  5
1FC5
  8
SAPA_ANSLUTNING
 10
59.750000071147269
 20
81.436768171609174
 30
0.0
 11
48.750000071147269
 21
81.436768171609174
 31
0.0
  0
ARC
  5
1FC6
  8
SAPA_ANSLUTNING
 10
48.750000071147269
 20
83.436768171609174
 30
0.0
 40
2.0
 50
90.0
 51
270.0
  0
LINE
  5
1FC7
  8
SAPA_ANSLUTNING
 10
48.750000071147269
 20
85.436768171609174
 30
0.0
 11
59.750000071147269
 21
85.436768171609174
 31
0.0
  0
ARC
  5
1FC8
  8
SAPA_ANSLUTNING
 10
59.750000071147269
 20
87.436768171609174
 30
0.0
 40
2.0
 50
270.0
 51
90.0
  0
LINE
  5
1FC9
  8
SAPA_ANSLUTNING
 10
59.750000071147269
 20
89.436768171609174
 30
0.0
 11
48.750000071147269
 21
89.436768171609174
 31
0.0
  0
ARC
  5
1FCA
  8
SAPA_ANSLUTNING
 10
48.750000071147269
 20
91.436768171609174
 30
0.0
 40
2.0
 50
90.0
 51
270.0
  0
LINE
  5
1FCB
  8
SAPA_ANSLUTNING
 10
48.750000071147269
 20
93.436768171609174
 30
0.0
 11
59.750000071147269
 21
93.436768171609174
 31
0.0
  0
ARC
  5
1FCC
  8
SAPA_ANSLUTNING
 10
59.750000071147269
 20
95.436768171609174
 30
0.0
 40
2.0
 50
270.0
 51
90.0
  0
LINE
  5
1FCD
  8
SAPA_ANSLUTNING
 10
59.750000071147269
 20
97.436768171609174
 30
0.0
 11
48.750000071147269
 21
97.436768171609174
 31
0.0
  0
ARC
  5
1FCE
  8
SAPA_ANSLUTNING
 10
48.750000071147269
 20
99.436768171609174
 30
0.0
 40
2.0
 50
90.0
 51
270.0
  0
LINE
  5
1FCF
  8
SAPA_ANSLUTNING
 10
48.750000071147269
 20
101.4367681716092
 30
0.0
 11
59.750000071147269
 21
101.4367681716092
 31
0.0
  0
ARC
  5
1FD0
  8
SAPA_ANSLUTNING
 10
59.750000071147269
 20
103.4367681716092
 30
0.0
 40
2.0
 50
270.0
 51
90.0
  0
LINE
  5
1FD1
  8
SAPA_ANSLUTNING
 10
59.750000071147269
 20
105.4367681716092
 30
0.0
 11
48.750000071147269
 21
105.4367681716092
 31
0.0
  0
ARC
  5
1FD2
  8
SAPA_ANSLUTNING
 10
48.750000071147269
 20
107.4367681716092
 30
0.0
 40
2.0
 50
90.0
 51
270.0
  0
LINE
  5
1FD3
  8
SAPA_ANSLUTNING
 10
48.750000071147269
 20
109.4367681716091
 30
0.0
 11
59.750000071147269
 21
109.4367681716091
 31
0.0
  0
ARC
  5
1FD4
  8
SAPA_ANSLUTNING
 10
59.750000071147269
 20
111.4367681716091
 30
0.0
 40
2.0
 50
270.0
 51
90.0
  0
LINE
  5
1FD5
  8
SAPA_ANSLUTNING
 10
59.750000071147269
 20
113.4367681716091
 30
0.0
 11
48.750000071147269
 21
113.4367681716091
 31
0.0
  0
ARC
  5
1FD6
  8
SAPA_ANSLUTNING
 10
48.750000071147269
 20
115.4367681716091
 30
0.0
 40
2.0
 50
90.0
 51
270.0
  0
LINE
  5
1FD7
  8
SAPA_ANSLUTNING
 10
48.750000071147269
 20
117.4367681716091
 30
0.0
 11
59.750000071147269
 21
117.4367681716091
 31
0.0
  0
ARC
  5
1FD8
  8
SAPA_ANSLUTNING
 10
59.750000071147269
 20
119.4367681716091
 30
0.0
 40
2.0
 50
270.0
 51
90.0
  0
LINE
  5
1FD9
  8
SAPA_ANSLUTNING
 10
59.750000071147269
 20
121.4367681716091
 30
0.0
 11
48.750000071147269
 21
121.4367681716091
 31
0.0
  0
ARC
  5
1FDA
  8
SAPA_ANSLUTNING
 10
48.750000071147269
 20
123.4367681716092
 30
0.0
 40
2.0
 50
90.0
 51
270.0
  0
LINE
  5
1FDB
  8
SAPA_ANSLUTNING
 10
48.750000071147269
 20
125.4367681716092
 30
0.0
 11
59.750000071147269
 21
125.4367681716092
 31
0.0
  0
ARC
  5
1FDC
  8
SAPA_ANSLUTNING
 10
59.750000071147269
 20
127.4367681716092
 30
0.0
 40
2.0
 50
270.0
 51
90.0
  0
LINE
  5
1FDD
  8
SAPA_ANSLUTNING
 10
59.750000071147269
 20
129.4367681716092
 30
0.0
 11
48.750000071147269
 21
129.4367681716092
 31
0.0
  0
ARC
  5
1FDE
  8
SAPA_ANSLUTNING
 10
48.750000071147269
 20
131.4367681716092
 30
0.0
 40
2.0
 50
90.0
 51
270.0
  0
LINE
  5
1FDF
  8
SAPA_ANSLUTNING
 10
48.750000071147269
 20
133.43676817160909
 30
0.0
 11
59.750000071147269
 21
133.43676817160909
 31
0.0
  0
ARC
  5
1FE0
  8
SAPA_ANSLUTNING
 10
59.750000071147269
 20
135.43676817160909
 30
0.0
 40
2.0
 50
270.0
 51
90.0
  0
LINE
  5
1FE1
  8
SAPA_ANSLUTNING
 10
59.750000071147269
 20
137.43676817160909
 30
0.0
 11
48.750000071147269
 21
137.43676817160909
 31
0.0
  0
ARC
  5
1FE2
  8
SAPA_ANSLUTNING
 10
48.750000071147269
 20
139.43676817160909
 30
0.0
 40
2.0
 50
90.0
 51
270.0
  0
LINE
  5
1FE3
  8
SAPA_ANSLUTNING
 10
48.750000071147269
 20
141.43676817160909
 30
0.0
 11
59.750000071147269
 21
141.43676817160909
 31
0.0
  0
ARC
  5
1FE4
  8
SAPA_ANSLUTNING
 10
59.750000071147269
 20
143.43676817160909
 30
0.0
 40
2.0
 50
270.0
 51
90.0
  0
LINE
  5
1FE5
  8
SAPA_ANSLUTNING
 10
59.750000071147269
 20
145.43676817160909
 30
0.0
 11
48.750000071147269
 21
145.43676817160909
 31
0.0
  0
ARC
  5
1FE6
  8
SAPA_ANSLUTNING
 10
48.750000071147269
 20
147.4367681716092
 30
0.0
 40
2.0
 50
90.0
 51
270.0
  0
LINE
  5
1FE7
  8
SAPA_ANSLUTNING
 10
48.750000071147269
 20
149.4367681716092
 30
0.0
 11
59.750000071147269
 21
149.4367681716092
 31
0.0
  0
ARC
  5
1FE8
  8
SAPA_ANSLUTNING
 10
59.750000071147269
 20
151.4367681716092
 30
0.0
 40
2.0
 50
270.0
 51
90.0
  0
LINE
  5
1FE9
  8
SAPA_ANSLUTNING
 10
59.750000071147269
 20
153.4367681716092
 30
0.0
 11
48.750000071147269
 21
153.4367681716092
 31
0.0
  0
ARC
  5
1FEA
  8
SAPA_ANSLUTNING
 10
48.750000071147269
 20
155.4367681716092
 30
0.0
 40
2.0
 50
90.0
 51
270.0
  0
LINE
  5
1FEB
  8
SAPA_ANSLUTNING
 10
48.750000071147269
 20
157.4367681716092
 30
0.0
 11
59.750000071147269
 21
157.4367681716092
 31
0.0
  0
ARC
  5
1FEC
  8
SAPA_ANSLUTNING
 10
59.750000071147269
 20
159.43676817160909
 30
0.0
 40
2.0
 50
270.0
 51
90.0
  0
LINE
  5
1FED
  8
SAPA_ANSLUTNING
 10
59.750000071147269
 20
161.43676817160909
 30
0.0
 11
48.750000071147269
 21
161.43676817160909
 31
0.0
  0
ARC
  5
1FEE
  8
SAPA_ANSLUTNING
 10
48.750000071147269
 20
163.43676817160909
 30
0.0
 40
2.0
 50
90.0
 51
270.0
  0
LINE
  5
1FEF
  8
SAPA_ANSLUTNING
 10
48.750000071147269
 20
165.43676817160909
 30
0.0
 11
59.750000071147269
 21
165.43676817160909
 31
0.0
  0
ARC
  5
1FF0
  8
SAPA_ANSLUTNING
 10
59.750000071147269
 20
167.43676817160909
 30
0.0
 40
2.0
 50
270.0
 51
90.0
  0
LINE
  5
1FF1
  8
SAPA_ANSLUTNING
 10
59.750000071147269
 20
169.4367681716092
 30
0.0
 11
48.750000071147269
 21
169.4367681716092
 31
0.0
  0
ARC
  5
1FF2
  8
SAPA_ANSLUTNING
 10
48.750000071147269
 20
171.43676817160909
 30
0.0
 40
2.0
 50
90.0
 51
270.0
  0
LINE
  5
1FF3
  8
SAPA_ANSLUTNING
 10
48.750000071147269
 20
173.4367681716092
 30
0.0
 11
59.750000071147269
 21
173.4367681716092
 31
0.0
  0
ARC
  5
1FF4
  8
SAPA_ANSLUTNING
 10
59.750000071147269
 20
175.43676817160909
 30
0.0
 40
2.0
 50
270.0
 51
90.0
  0
LINE
  5
1FF5
  8
SAPA_ANSLUTNING
 10
59.750000071147269
 20
177.4367681716092
 30
0.0
 11
48.750000071147269
 21
177.4367681716092
 31
0.0
  0
ARC
  5
1FF6
  8
SAPA_ANSLUTNING
 10
48.750000071147269
 20
179.4367681716092
 30
0.0
 40
2.0
 50
90.0
 51
270.0
  0
LINE
  5
1FF7
  8
SAPA_ANSLUTNING
 10
48.750000071147269
 20
181.4367681716092
 30
0.0
 11
59.750000071147269
 21
181.4367681716092
 31
0.0
  0
ARC
  5
1FF8
  8
SAPA_ANSLUTNING
 10
59.750000071147269
 20
183.4367681716092
 30
0.0
 40
2.0
 50
270.0
 51
90.0
  0
LINE
  5
1FF9
  8
SAPA_ANSLUTNING
 10
59.750000071147269
 20
185.43676817160909
 30
0.0
 11
48.750000071147269
 21
185.43676817160909
 31
0.0
  0
ARC
  5
1FFA
  8
SAPA_ANSLUTNING
 10
48.750000071147269
 20
187.43676817160909
 30
0.0
 40
2.0
 50
90.0
 51
270.0
  0
LINE
  5
1FFB
  8
SAPA_ANSLUTNING
 10
48.750000071147269
 20
189.4367681716092
 30
0.0
 11
59.750000071147269
 21
189.4367681716092
 31
0.0
  0
ARC
  5
1FFC
  8
SAPA_ANSLUTNING
 10
59.750000071147269
 20
191.43676817160909
 30
0.0
 40
2.0
 50
270.0
 51
90.0
  0
LINE
  5
1FFD
  8
SAPA_ANSLUTNING
 10
59.750000071147269
 20
193.43676817160909
 30
0.0
 11
48.750000071147269
 21
193.43676817160909
 31
0.0
  0
ARC
  5
1FFE
  8
SAPA_ANSLUTNING
 10
48.750000071147269
 20
195.43676817160909
 30
0.0
 40
2.0
 50
90.0
 51
270.0
  0
LINE
  5
1FFF
  8
SAPA_ANSLUTNING
 10
48.750000071147269
 20
197.4367681716092
 30
0.0
 11
59.750000071147269
 21
197.4367681716092
 31
0.0
  0
ARC
  5
2000
  8
SAPA_ANSLUTNING
 10
59.750000071147269
 20
199.4367681716092
 30
0.0
 40
2.0
 50
270.0
 51
90.0
  0
LINE
  5
2001
  8
SAPA_ANSLUTNING
 10
59.750000071147269
 20
201.4367681716092
 30
0.0
 11
48.750000071147269
 21
201.4367681716092
 31
0.0
  0
ARC
  5
2002
  8
SAPA_ANSLUTNING
 10
48.750000071147269
 20
203.4367681716092
 30
0.0
 40
2.0
 50
90.0
 51
270.0
  0
LINE
  5
2003
  8
SAPA_ANSLUTNING
 10
48.750000071147269
 20
205.4367681716092
 30
0.0
 11
59.750000071147269
 21
205.4367681716092
 31
0.0
  0
ARC
  5
2004
  8
SAPA_ANSLUTNING
 10
59.750000071147269
 20
207.4367681716092
 30
0.0
 40
2.0
 50
270.0
 51
90.0
  0
LINE
  5
2005
  8
SAPA_ANSLUTNING
 10
59.750000071147269
 20
209.4367681716092
 30
0.0
 11
48.750000071147269
 21
209.4367681716092
 31
0.0
  0
ARC
  5
2006
  8
SAPA_ANSLUTNING
 10
48.750000071147269
 20
211.4367681716092
 30
0.0
 40
2.0
 50
90.0
 51
270.0
  0
LINE
  5
2007
  8
SAPA_ANSLUTNING
 10
48.750000071147269
 20
213.4367681716092
 30
0.0
 11
59.750000071147269
 21
213.4367681716092
 31
0.0
  0
ARC
  5
2008
  8
SAPA_ANSLUTNING
 10
59.750000071147269
 20
215.4367681716092
 30
0.0
 40
2.0
 50
270.0
 51
90.0
  0
LINE
  5
2009
  8
SAPA_ANSLUTNING
 10
59.750000071147269
 20
217.4367681716092
 30
0.0
 11
48.750000071147269
 21
217.4367681716092
 31
0.0
  0
ARC
  5
200A
  8
SAPA_ANSLUTNING
 10
48.750000071147269
 20
219.4367681716092
 30
0.0
 40
2.0
 50
90.0
 51
270.0
  0
LINE
  5
200B
  8
SAPA_ANSLUTNING
 10
48.750000071147269
 20
221.4367681716092
 30
0.0
 11
59.750000071147269
 21
221.4367681716092
 31
0.0
  0
ARC
  5
200C
  8
SAPA_ANSLUTNING
 10
59.750000071147269
 20
223.4367681716092
 30
0.0
 40
2.0
 50
270.0
 51
90.0
  0
LINE
  5
200D
  8
SAPA_ANSLUTNING
 10
59.750000071147269
 20
225.4367681716092
 30
0.0
 11
48.750000071147269
 21
225.4367681716092
 31
0.0
  0
ARC
  5
200E
  8
SAPA_ANSLUTNING
 10
48.750000071147269
 20
227.4367681716092
 30
0.0
 40
2.0
 50
90.0
 51
270.0
  0
LINE
  5
200F
  8
SAPA_ANSLUTNING
 10
48.750000071147269
 20
229.4367681716092
 30
0.0
 11
59.750000071147269
 21
229.4367681716092
 31
0.0
  0
ARC
  5
2010
  8
SAPA_ANSLUTNING
 10
59.750000071147269
 20
231.4367681716092
 30
0.0
 40
2.0
 50
270.0
 51
90.0
  0
LINE
  5
2011
  8
SAPA_ANSLUTNING
 10
59.750000071147269
 20
233.4367681716092
 30
0.0
 11
48.750000071147269
 21
233.4367681716092
 31
0.0
  0
ARC
  5
2012
  8
SAPA_ANSLUTNING
 10
48.750000071147269
 20
235.4367681716092
 30
0.0
 40
2.0
 50
90.0
 51
270.0
  0
LINE
  5
2013
  8
SAPA_ANSLUTNING
 10
48.750000071147269
 20
237.4367681716092
 30
0.0
 11
59.750000071147269
 21
237.4367681716092
 31
0.0
  0
ARC
  5
2014
  8
SAPA_ANSLUTNING
 10
59.750000071147269
 20
239.4367681716092
 30
0.0
 40
2.0
 50
270.0
 51
90.0
  0
LINE
  5
2015
  8
SAPA_ANSLUTNING
 10
59.750000071147269
 20
241.4367681716092
 30
0.0
 11
48.750000071147269
 21
241.4367681716092
 31
0.0
  0
ARC
  5
2016
  8
SAPA_ANSLUTNING
 10
48.750000071147269
 20
243.4367681716092
 30
0.0
 40
2.0
 50
90.0
 51
270.0
  0
LINE
  5
2017
  8
SAPA_ANSLUTNING
 10
48.750000071147269
 20
245.4367681716092
 30
0.0
 11
59.750000071147269
 21
245.4367681716092
 31
0.0
  0
ARC
  5
2018
  8
SAPA_ANSLUTNING
 10
59.750000071147269
 20
247.4367681716092
 30
0.0
 40
2.0
 50
270.0
 51
90.0
  0
LINE
  5
2019
  8
SAPA_ANSLUTNING
 10
59.750000071147269
 20
249.4367681716092
 30
0.0
 11
48.750000071147269
 21
249.4367681716092
 31
0.0
  0
ARC
  5
201A
  8
SAPA_ANSLUTNING
 10
48.750000071147269
 20
251.4367681716092
 30
0.0
 40
2.0
 50
90.0
 51
270.0
  0
LINE
  5
201B
  8
SAPA_ANSLUTNING
 10
48.750000071147269
 20
253.4367681716092
 30
0.0
 11
59.750000071147269
 21
253.4367681716092
 31
0.0
  0
ARC
  5
201C
  8
SAPA_ANSLUTNING
 10
59.750000071147269
 20
255.4367681716092
 30
0.0
 40
2.0
 50
270.0
 51
90.0
  0
LINE
  5
201D
  8
SAPA_ANSLUTNING
 10
59.750000071147269
 20
257.43676817160917
 30
0.0
 11
48.750000071147269
 21
257.43676817160917
 31
0.0
  0
ARC
  5
201E
  8
SAPA_ANSLUTNING
 10
48.750000071147269
 20
259.43676817160917
 30
0.0
 40
2.0
 50
90.0
 51
270.0
  0
LINE
  5
201F
  8
SAPA_ANSLUTNING
 10
48.750000071147269
 20
261.43676817160917
 30
0.0
 11
59.750000071147269
 21
261.43676817160917
 31
0.0
  0
ARC
  5
2020
  8
SAPA_ANSLUTNING
 10
59.750000071147269
 20
263.43676817160917
 30
0.0
 40
2.0
 50
270.0
 51
90.0
  0
LINE
  5
2021
  8
SAPA_ANSLUTNING
 10
59.750000071147269
 20
265.43676817160917
 30
0.0
 11
48.750000071147269
 21
265.43676817160917
 31
0.0
  0
ARC
  5
2022
  8
SAPA_ANSLUTNING
 10
48.750000071147269
 20
267.43676817160917
 30
0.0
 40
2.0
 50
90.0
 51
270.0
  0
LINE
  5
2023
  8
SAPA_ANSLUTNING
 10
48.750000071147269
 20
269.43676817160917
 30
0.0
 11
59.750000071147269
 21
269.43676817160917
 31
0.0
  0
ARC
  5
2024
  8
SAPA_ANSLUTNING
 10
59.750000071147269
 20
271.43676817160917
 30
0.0
 40
2.0
 50
270.0
 51
90.0
  0
LINE
  5
2025
  8
SAPA_ANSLUTNING
 10
59.750000071147269
 20
273.43676817160917
 30
0.0
 11
48.750000071147269
 21
273.43676817160917
 31
0.0
  0
ARC
  5
2026
  8
SAPA_ANSLUTNING
 10
48.750000071147269
 20
275.43676817160917
 30
0.0
 40
2.0
 50
90.0
 51
270.0
  0
LINE
  5
2027
  8
SAPA_ANSLUTNING
 10
48.750000071147269
 20
277.43676817160917
 30
0.0
 11
59.750000071147269
 21
277.43676817160917
 31
0.0
  0
ARC
  5
2028
  8
SAPA_ANSLUTNING
 10
59.750000071147269
 20
279.43676817160917
 30
0.0
 40
2.0
 50
270.0
 51
90.0
  0
LINE
  5
2029
  8
SAPA_ANSLUTNING
 10
59.750000071147269
 20
281.43676817160917
 30
0.0
 11
48.750000071147269
 21
281.43676817160917
 31
0.0
  0
ARC
  5
202A
  8
SAPA_ANSLUTNING
 10
48.750000071147269
 20
283.43676817160917
 30
0.0
 40
2.0
 50
90.0
 51
270.0
  0
LINE
  5
202B
  8
SAPA_ANSLUTNING
 10
48.750000071147269
 20
285.43676817160917
 30
0.0
 11
59.750000071147269
 21
285.43676817160917
 31
0.0
  0
ARC
  5
202C
  8
SAPA_ANSLUTNING
 10
59.750000071147269
 20
287.43676817160917
 30
0.0
 40
2.0
 50
270.0
 51
90.0
  0
LINE
  5
202D
  8
SAPA_ANSLUTNING
 10
59.750000071147269
 20
289.43676817160917
 30
0.0
 11
48.750000071147269
 21
289.43676817160917
 31
0.0
  0
ARC
  5
202E
  8
SAPA_ANSLUTNING
 10
48.750000071147269
 20
291.43676817160917
 30
0.0
 40
2.0
 50
90.0
 51
270.0
  0
LINE
  5
2036
  8
SAPA_GLAS
 10
-43.125843781183669
 20
282.24999985704198
 30
0.0
 11
-43.125843781183669
 21
281.4999998570288
 31
0.0
  0
LINE
  5
2037
  8
SAPA_GLAS
 10
-30.32584378117258
 20
281.4999998570288
 30
0.0
 11
-30.32584378117167
 21
282.24999985702789
 31
0.0
  0
LINE
  5
2039
  8
SAPA_GLAS
 10
-43.125843781183669
 20
228.74999985667731
 30
0.0
 11
-43.125843781183669
 21
229.49999985669041
 31
0.0
  0
LINE
  5
203A
  8
SAPA_GLAS
 10
-30.32584378117258
 20
229.49999985669041
 30
0.0
 11
-30.32584378117167
 21
228.7499998566914
 31
0.0
  0
TEXT
  5
203C
  8
SAPA_ARTIKELNR
 10
-33.092407136408163
 20
287.67486193933502
 30
0.0000000048844772
 40
3.5
  1
D9V005
  7
ISO
  0
TEXT
  5
2050
  8
SAPA_ARTIKELNR
 10
-34.350034505765279
 20
218.9851534172183
 30
0.0000000048844772
 40
3.5
  1
D9V007
  7
ISO
  0
LINE
  5
2053
  8
SAPA_FOGBAND
 10
0.3288476742952753
 20
222.60043238908179
 30
0.0
 11
0.3288476742980038
 21
227.5966357172581
 31
0.0
  0
LINE
  5
2054
  8
SAPA_FOGBAND
 10
0.4788476742967305
 20
227.5966357172581
 30
0.0
 11
0.4788476742967305
 21
222.60043238908179
 31
0.0
  0
LINE
  5
2058
  8
SAPA_FOGBAND
 10
-8.1711523257088174
 20
222.60043238908179
 30
0.0
 11
-8.1711523257060872
 21
227.5966357172581
 31
0.0
  0
LINE
  5
2059
  8
SAPA_FOGBAND
 10
-8.0211523257073623
 20
227.5966357172581
 30
0.0
 11
-8.0211523257073623
 21
222.60043238908179
 31
0.0
  0
LINE
  5
205D
  8
SAPA_FOGBAND
 10
0.3288476742952753
 20
288.39956732530231
 30
0.0
 11
0.3288476742980038
 21
283.40336399712601
 31
0.0
  0
LINE
  5
205E
  8
SAPA_FOGBAND
 10
0.4788476742967305
 20
283.40336399712601
 30
0.0
 11
0.4788476742967305
 21
288.39956732530231
 31
0.0
  0
LINE
  5
2062
  8
SAPA_FOGBAND
 10
-8.1711523257088174
 20
288.39956732530231
 30
0.0
 11
-8.1711523257060872
 21
283.40336399712601
 31
0.0
  0
LINE
  5
2063
  8
SAPA_FOGBAND
 10
-8.0211523257073623
 20
283.40336399712601
 30
0.0
 11
-8.0211523257073623
 21
288.39956732530231
 31
0.0
  0
POINT
  5
2066
  8
SAPA_FOGBAND
 10
-8.2505552787931702
 20
67.299999857461216
 30
0.0
 50
90.000000059636577
  0
POINT
  5
2067
  8
SAPA_FOGBAND
 10
-8.2505552787931702
 20
69.999999857461034
 30
0.0
 50
90.000000059636577
  0
POINT
  5
2068
  8
SAPA_FOGBAND
 10
-8.2505552787931702
 20
67.2999998574644
 30
0.0
 50
90.000000000000014
  0
POINT
  5
2069
  8
SAPA_FOGBAND
 10
-8.2505552787931702
 20
69.999999857461034
 30
0.0
 50
90.000000000000014
  0
LINE
  5
206C
  8
SAPA_FOGBAND
 10
-8.1619547700117892
 20
68.600432389011303
 30
0.0
 11
-8.1619547700154271
 21
72.199009246862488
 31
0.0
  0
LINE
  5
206D
  8
SAPA_FOGBAND
 10
-8.1619547700154271
 20
72.199009246862488
 30
0.0
 11
-8.3119547700132443
 21
72.199009246862488
 31
0.0
  0
LINE
  5
206E
  8
SAPA_FOGBAND
 10
-8.3119547700132443
 20
72.199009246862488
 30
0.0
 11
-8.3119547700132443
 21
68.600432389011303
 31
0.0
  0
POINT
  5
2070
  8
SAPA_FOGBAND
 10
-8.2505552787931702
 20
144.29999985750581
 30
0.0
 50
90.000000059636577
  0
POINT
  5
2071
  8
SAPA_FOGBAND
 10
-8.2505552787931702
 20
146.9999998575056
 30
0.0
 50
90.000000059636577
  0
POINT
  5
2072
  8
SAPA_FOGBAND
 10
-8.2505552787931702
 20
144.29999985750891
 30
0.0
 50
90.000000000000014
  0
POINT
  5
2073
  8
SAPA_FOGBAND
 10
-8.2505552787931702
 20
146.9999998575056
 30
0.0
 50
90.000000000000014
  0
LINE
  5
2076
  8
SAPA_FOGBAND
 10
-8.1619547700117892
 20
145.60043238905581
 30
0.0
 11
-8.1619547700154271
 21
149.199009246907
 31
0.0
  0
LINE
  5
2077
  8
SAPA_FOGBAND
 10
-8.1619547700154271
 20
149.199009246907
 30
0.0
 11
-8.3119547700132443
 21
149.199009246907
 31
0.0
  0
LINE
  5
2078
  8
SAPA_FOGBAND
 10
-8.3119547700132443
 20
149.199009246907
 30
0.0
 11
-8.3119547700132443
 21
145.60043238905581
 31
0.0
  0
TEXT
  5
207B
  8
SAPA_ARTIKELNR
 10
-17.76117658281532
 20
147.11451225648099
 30
0.0000000048844772
 40
3.5
  1
D9V005
 50
90.0
  7
ISO
  0
TEXT
  5
207C
  8
SAPA_ARTIKELNR
 10
-16.93203567852856
 20
67.870524177541483
 30
0.0000000048844772
 40
3.5
  1
D9V001
 50
90.0
  7
ISO
  0
LINE
  5
229E
  8
SAPA_FOGBAND
 10
25.152050764230129
 20
269.96997887072138
 30
0.0
 11
27.552050764198839
 21
270.84350743294931
 31
0.0
  0
ARC
  5
229F
  8
SAPA_FOGBAND
 10
27.449444721201139
 20
271.1254152191853
 30
0.0
 40
0.3000000000002032
 50
289.99999999998488
 51
359.99999999998909
  0
LINE
  5
22A0
  8
SAPA_FOGBAND
 10
27.749444721201371
 20
271.12541521918519
 30
0.0
 11
27.749444721201371
 21
274.19034616680779
 31
0.0
  0
ARC
  5
22A1
  8
SAPA_FOGBAND
 10
27.449444721201829
 20
274.19034616680813
 30
0.0
 40
0.2999999999995424
 50
359.99999999993491
 51
74.999999999929898
  0
LINE
  5
22A2
  8
SAPA_FOGBAND
 10
27.52709043473283
 20
274.48012391469427
 30
0.0
 11
25.1270904347632
 21
275.12320197652087
 31
0.0
  0
ARC
  5
22A3
  8
SAPA_FOGBAND
 10
25.049444721232479
 20
274.83342422863399
 30
0.0
 40
0.300000000000209
 50
75.000000000016229
 51
180.0000000000108
  0
LINE
  5
22A4
  8
SAPA_FOGBAND
 10
24.749444721232301
 20
274.83342422863387
 30
0.0
 11
24.749444721232301
 21
270.25188665695742
 31
0.0
  0
ARC
  5
22A5
  8
SAPA_FOGBAND
 10
25.049444721232419
 20
270.25188665695731
 30
0.0
 40
0.3000000000001215
 50
179.99999999998909
 51
289.99999999999488
  0
LINE
  5
22A8
  8
SAPA_PROFIL
 10
-13.25056327878497
 20
142.99999992907121
 30
0.0
 11
-13.25056327878133
 21
147.99999992907121
 31
0.0
  0
ARC
  5
22A9
  8
SAPA_PROFIL
 10
-12.25056327878133
 20
147.99999992907121
 30
0.0
 40
1.0
 50
90.0
 51
180.0
  0
LINE
  5
22AA
  8
SAPA_PROFIL
 10
-12.25056327878133
 20
148.99999992907121
 30
0.0
 11
-2.2505632787822369
 21
148.9999999290639
 31
0.0
  0
ARC
  5
22AB
  8
SAPA_PROFIL
 10
-2.250563278778599
 20
147.9999999290676
 30
0.0
 40
0.999999999996362
 50
0.0000000002084408
 51
90.000000000208431
  0
LINE
  5
22AC
  8
SAPA_PROFIL
 10
-1.2505632787822369
 20
147.99999992907121
 30
0.0
 11
-1.2505632787822369
 21
146.2499999290348
 31
0.0
  0
ARC
  5
22AD
  8
SAPA_PROFIL
 10
-0.5005632787785999
 20
146.2499999290348
 30
0.0
 40
0.750000000003638
 50
180.0
 51
0.0
  0
LINE
  5
22AE
  8
SAPA_PROFIL
 10
0.2494367212250381
 20
146.2499999290348
 30
0.0
 11
0.2494367212286761
 21
147.9999999290639
 31
0.0
  0
ARC
  5
22AF
  8
SAPA_PROFIL
 10
-2.25056327877678
 20
147.99999992906581
 30
0.0
 40
2.5000000000054561
 50
359.99999999995828
 51
89.999999999958305
  0
LINE
  5
22B0
  8
SAPA_PROFIL
 10
-2.250563278774961
 20
150.49999992907121
 30
0.0
 11
-12.050563278780601
 21
150.49999992907121
 31
0.0
  0
ARC
  5
22B1
  8
SAPA_PROFIL
 10
-12.050563278780601
 20
151.49999992907121
 30
0.0
 40
1.0
 50
180.0
 51
270.0
  0
LINE
  5
22B2
  8
SAPA_PROFIL
 10
-13.050563278780601
 20
151.49999992907121
 30
0.0
 11
-13.050563278780601
 21
207.7499999283655
 31
0.0
  0
ARC
  5
22B3
  8
SAPA_PROFIL
 10
-12.550563278780601
 20
207.7499999283655
 30
0.0
 40
0.5
 50
90.0
 51
180.0
  0
LINE
  5
22B4
  8
SAPA_PROFIL
 10
-12.550563278780601
 20
208.2499999283655
 30
0.0
 11
5.2494367212223088
 21
208.2499999283682
 31
0.0
  0
ARC
  5
22B5
  8
SAPA_PROFIL
 10
5.2494367212217776
 20
208.54999992836889
 30
0.0
 40
0.3000000000006935
 50
270.00000000010141
 51
69.999999999950347
  0
LINE
  5
22B6
  8
SAPA_PROFIL
 10
5.3520427642199593
 20
208.83190771460519
 30
0.0
 11
-0.9479572357793131
 21
211.1249201904898
 31
0.0
  0
ARC
  5
22B7
  8
SAPA_PROFIL
 10
-1.050563278776359
 20
210.84301240425361
 30
0.0
 40
0.3000000000001413
 50
70.000000000142805
 51
170.000000000238
  0
LINE
  5
22B8
  8
SAPA_PROFIL
 10
-1.346005604680385
 20
210.89510685755249
 30
0.0
 11
-1.475064791176691
 21
210.16317583953881
 31
0.0
  0
ARC
  5
22B9
  8
SAPA_PROFIL
 10
-1.967468667682555
 20
210.2499999283726
 30
0.0
 40
0.4999999999998205
 50
270.00000000001819
 51
349.99999999995811
  0
LINE
  5
22BA
  8
SAPA_PROFIL
 10
-1.967468667682396
 20
209.74999992837269
 30
0.0
 11
-12.75056327878133
 21
209.7499999283655
 31
0.0
  0
ARC
  5
22BB
  8
SAPA_PROFIL
 10
-12.75056327878133
 20
210.2499999283655
 30
0.0
 40
0.5
 50
180.0
 51
270.0
  0
LINE
  5
22BC
  8
SAPA_PROFIL
 10
-13.25056327878133
 20
210.2499999283655
 30
0.0
 11
-13.250563278774051
 21
223.49999992905671
 31
0.0
  0
ARC
  5
22BD
  8
SAPA_PROFIL
 10
-13.75056327877587
 20
223.49999992905489
 30
0.0
 40
0.500000000001819
 50
0.0000000002084408
 51
90.000000000208431
  0
ARC
  5
22BE
  8
SAPA_PROFIL
 10
-13.75056327877769
 20
222.99999992905671
 30
0.0
 40
1.0
 50
90.0
 51
180.0
  0
LINE
  5
22BF
  8
SAPA_PROFIL
 10
-14.75056327877769
 20
222.99999992905671
 30
0.0
 11
-14.75056327878133
 21
143.49999992907121
 31
0.0
  0
ARC
  5
22C0
  8
SAPA_PROFIL
 10
-13.75056327878133
 20
143.49999992907121
 30
0.0
 40
1.0
 50
180.0
 51
270.0
  0
ARC
  5
22C1
  8
SAPA_PROFIL
 10
-13.75056327878314
 20
142.99999992906939
 30
0.0
 40
0.499999999998181
 50
270.00000000020839
 51
0.0000000002084408
  0
LINE
  5
22C2
  8
SAPA_FOGBAND
 10
-8.3869547700139702
 20
145.60043238905581
 30
0.0
 11
-8.4969521551954585
 21
148.94963991371719
 31
0.0
  0
LINE
  5
22C3
  8
SAPA_FOGBAND
 10
-8.4969521551954585
 20
148.94963991371719
 30
0.0
 11
-10.935045495618169
 21
148.94906341484301
 31
0.0
  0
LINE
  5
22C4
  8
SAPA_FOGBAND
 10
-10.935045495618169
 20
148.94906341484301
 30
0.0
 11
-9.8096443731535601
 21
145.60043238905581
 31
0.0
  0
LINE
  5
22C5
  8
SAPA_FOGBAND
 10
-6.6642651668714734
 20
145.60043238905581
 30
0.0
 11
-5.5388185695553602
 21
148.94923312931019
 31
0.0
  0
LINE
  5
22C6
  8
SAPA_FOGBAND
 10
-5.5388185695553602
 20
148.94923312931019
 30
0.0
 11
-7.9769566161046441
 21
148.94966927013019
 31
0.0
  0
LINE
  5
22C7
  8
SAPA_FOGBAND
 10
-7.9769566161046441
 20
148.94966927013019
 30
0.0
 11
-8.0869547700110616
 21
145.60043238905581
 31
0.0
  0
LINE
  5
22C8
  8
SAPA_FOGBAND
 10
-11.38695477001033
 20
144.80043238905569
 30
0.0
 11
-11.38695477001033
 21
145.60043238905581
 31
0.0
  0
LINE
  5
22C9
  8
SAPA_FOGBAND
 10
-11.38695477001033
 20
145.60043238905581
 30
0.0
 11
-5.0869547700146986
 21
145.60043238905581
 31
0.0
  0
LINE
  5
22CA
  8
SAPA_FOGBAND
 10
-5.0869547700146986
 20
145.60043238905581
 30
0.0
 11
-5.0869547700146986
 21
144.80043238905569
 31
0.0
  0
LINE
  5
22CB
  8
SAPA_FOGBAND
 10
-5.0869547700146986
 20
144.80043238905569
 30
0.0
 11
-11.38695477001033
 21
144.80043238905569
 31
0.0
  0
LINE
  5
22CC
  8
SAPA_FOGBAND
 10
-8.3869547700139702
 20
68.600432389011303
 30
0.0
 11
-8.4969521551954585
 21
71.949639913672627
 31
0.0
  0
LINE
  5
22CD
  8
SAPA_FOGBAND
 10
-8.4969521551954585
 20
71.949639913672627
 30
0.0
 11
-10.935045495618169
 21
71.949063414798502
 31
0.0
  0
LINE
  5
22CE
  8
SAPA_FOGBAND
 10
-10.935045495618169
 20
71.949063414798502
 30
0.0
 11
-9.8096443731535601
 21
68.600432389011303
 31
0.0
  0
LINE
  5
22CF
  8
SAPA_FOGBAND
 10
-6.6642651668714734
 20
68.600432389011303
 30
0.0
 11
-5.5388185695553602
 21
71.949233129265622
 31
0.0
  0
LINE
  5
22D0
  8
SAPA_FOGBAND
 10
-5.5388185695553602
 20
71.949233129265622
 30
0.0
 11
-7.9769566161046441
 21
71.949669270085678
 31
0.0
  0
LINE
  5
22D1
  8
SAPA_FOGBAND
 10
-7.9769566161046441
 20
71.949669270085678
 30
0.0
 11
-8.0869547700110616
 21
68.600432389011303
 31
0.0
  0
LINE
  5
22D2
  8
SAPA_FOGBAND
 10
-11.38695477001033
 20
67.800432389011121
 30
0.0
 11
-11.38695477001033
 21
68.600432389011303
 31
0.0
  0
LINE
  5
22D3
  8
SAPA_FOGBAND
 10
-11.38695477001033
 20
68.600432389011303
 30
0.0
 11
-5.0869547700146986
 21
68.600432389011303
 31
0.0
  0
LINE
  5
22D4
  8
SAPA_FOGBAND
 10
-5.0869547700146986
 20
68.600432389011303
 30
0.0
 11
-5.0869547700146986
 21
67.800432389011121
 31
0.0
  0
LINE
  5
22D5
  8
SAPA_FOGBAND
 10
-5.0869547700146986
 20
67.800432389011121
 30
0.0
 11
-11.38695477001033
 21
67.800432389011121
 31
0.0
  0
ARC
  5
22D6
  8
SAPA_PROFIL
 10
-2.250555278782258
 20
70.499999857461489
 30
0.0
 40
2.5
 50
0.0
 51
90.0
  0
LINE
  5
22D7
  8
SAPA_PROFIL
 10
0.249444721217742
 20
70.499999857461489
 30
0.0
 11
0.249444721214104
 21
68.749999857425109
 31
0.0
  0
ARC
  5
22D8
  8
SAPA_PROFIL
 10
-0.500555278787715
 20
68.749999857425109
 30
0.0
 40
0.750000000001819
 50
180.0
 51
0.0
  0
LINE
  5
22D9
  8
SAPA_PROFIL
 10
-1.2505552787895331
 20
68.749999857425109
 30
0.0
 11
-1.250555278785896
 21
70.499999857461489
 31
0.0
  0
ARC
  5
22DA
  8
SAPA_PROFIL
 10
-2.2505552787877141
 20
70.49999985745967
 30
0.0
 40
1.0000000000018181
 50
0.0000000001042204
 51
90.000000000104208
  0
LINE
  5
22DB
  8
SAPA_PROFIL
 10
-2.2505552787895331
 20
71.499999857461475
 30
0.0
 11
-12.250555278788619
 21
71.499999857461475
 31
0.0
  0
ARC
  5
22DC
  8
SAPA_PROFIL
 10
-12.250555278788619
 20
70.499999857461489
 30
0.0
 40
1.0
 50
90.0
 51
180.0
  0
LINE
  5
22DD
  8
SAPA_PROFIL
 10
-13.250555278788619
 20
70.499999857461489
 30
0.0
 11
-13.250555278792261
 21
65.499999857461489
 31
0.0
  0
ARC
  5
22DE
  8
SAPA_PROFIL
 10
-13.750555278792261
 20
65.499999857461489
 30
0.0
 40
0.5
 50
270.0
 51
0.0
  0
ARC
  5
22DF
  8
SAPA_PROFIL
 10
-13.75055527879044
 20
65.99999985745967
 30
0.0
 40
0.999999999998181
 50
179.99999999989569
 51
269.99999999989581
  0
LINE
  5
22E0
  8
SAPA_PROFIL
 10
-14.750555278788619
 20
65.999999857461489
 30
0.0
 11
-14.750555278784979
 21
141.49999985746149
 31
0.0
  0
ARC
  5
22E1
  8
SAPA_PROFIL
 10
-14.250555278784979
 20
141.49999985746149
 30
0.0
 40
0.5
 50
90.0
 51
180.0
  0
LINE
  5
22E2
  8
SAPA_PROFIL
 10
-14.250555278784979
 20
141.99999985746149
 30
0.0
 11
-13.75055527877953
 21
141.99999985746149
 31
0.0
  0
ARC
  5
22E3
  8
SAPA_PROFIL
 10
-13.75055527878135
 20
141.49999985746149
 30
0.0
 40
0.5
 50
0.0
 51
89.999999999791555
  0
LINE
  5
22E4
  8
SAPA_PROFIL
 10
-13.25055527878135
 20
141.49999985746149
 30
0.0
 11
-13.250555278788619
 21
133.24999985675569
 31
0.0
  0
ARC
  5
22E5
  8
SAPA_PROFIL
 10
-12.750555278788619
 20
133.24999985675569
 30
0.0
 40
0.5
 50
180.0
 51
270.0
  0
LINE
  5
22E6
  8
SAPA_PROFIL
 10
-12.750555278788619
 20
132.74999985675569
 30
0.0
 11
-1.967460667689692
 21
132.749999856763
 31
0.0
  0
ARC
  5
22E7
  8
SAPA_PROFIL
 10
-1.9674606676920181
 20
133.24999985676459
 30
0.0
 40
0.5000000000016485
 50
270.00000000026648
 51
350.00000000020651
  0
LINE
  5
22E8
  8
SAPA_PROFIL
 10
-1.475056791183988
 20
133.1631757679327
 30
0.0
 11
-1.3459976046885911
 21
133.8951067859449
 31
0.0
  0
ARC
  5
22E9
  8
SAPA_PROFIL
 10
-1.0505552787848991
 20
133.8430123326456
 30
0.0
 40
0.2999999999998894
 50
70.000000000056787
 51
170.000000000152
  0
LINE
  5
22EA
  8
SAPA_PROFIL
 10
-0.9479492357875187
 20
134.12492011888139
 30
0.0
 11
5.3520507642135717
 21
131.83190764299411
 31
0.0
  0
ARC
  5
22EB
  8
SAPA_PROFIL
 10
5.2494447212148181
 20
131.54999985675721
 30
0.0
 40
0.3000000000014466
 50
270.00000000003729
 51
69.999999999886356
  0
LINE
  5
22EC
  8
SAPA_PROFIL
 10
5.2494447212150126
 20
131.24999985675569
 30
0.0
 11
-12.5505552787879
 21
131.24999985675569
 31
0.0
  0
ARC
  5
22ED
  8
SAPA_PROFIL
 10
-12.5505552787879
 20
130.74999985675569
 30
0.0
 40
0.5
 50
90.0
 51
180.0
  0
LINE
  5
22EE
  8
SAPA_PROFIL
 10
-13.0505552787879
 20
130.74999985675569
 30
0.0
 11
-13.0505552787879
 21
73.999999857461475
 31
0.0
  0
ARC
  5
22EF
  8
SAPA_PROFIL
 10
-12.0505552787879
 20
73.999999857461475
 30
0.0
 40
1.0
 50
180.0
 51
270.0
  0
LINE
  5
22F0
  8
SAPA_PROFIL
 10
-12.0505552787879
 20
72.999999857461489
 30
0.0
 11
-2.250555278782258
 21
72.999999857461489
 31
0.0
  0
LINE
  5
22F1
  8
SAPA_FOGBAND
 10
-7.9461523257066338
 20
288.39956732530231
 30
0.0
 11
-7.836154940525148
 21
283.65273333031593
 31
0.0
  0
LINE
  5
22F2
  8
SAPA_FOGBAND
 10
-7.836154940525148
 20
283.65273333031593
 30
0.0
 11
-5.3980616001024373
 21
283.6533098291905
 31
0.0
  0
LINE
  5
22F3
  8
SAPA_FOGBAND
 10
-5.3980616001024373
 20
283.6533098291905
 30
0.0
 11
-6.5234627225670456
 21
288.39956732530231
 31
0.0
  0
LINE
  5
22F4
  8
SAPA_FOGBAND
 10
-9.6688419288491332
 20
288.39956732530231
 30
0.0
 11
-10.794288526165239
 21
283.65314011472333
 31
0.0
  0
LINE
  5
22F5
  8
SAPA_FOGBAND
 10
-10.794288526165239
 20
283.65314011472333
 30
0.0
 11
-8.3561504796168702
 21
283.65270397390327
 31
0.0
  0
LINE
  5
22F6
  8
SAPA_FOGBAND
 10
-8.3561504796168702
 20
283.65270397390327
 30
0.0
 11
-8.246152325709545
 21
288.39956732530231
 31
0.0
  0
LINE
  5
22F7
  8
SAPA_FOGBAND
 10
-4.9461523257102717
 20
289.19956732530341
 30
0.0
 11
-4.9461523257102717
 21
288.39956732530231
 31
0.0
  0
LINE
  5
22F8
  8
SAPA_FOGBAND
 10
-4.9461523257102717
 20
288.39956732530231
 30
0.0
 11
-11.246152325706809
 21
288.39956732530231
 31
0.0
  0
LINE
  5
22F9
  8
SAPA_FOGBAND
 10
-11.246152325706809
 20
288.39956732530231
 30
0.0
 11
-11.246152325706809
 21
289.19956732530341
 31
0.0
  0
LINE
  5
22FA
  8
SAPA_FOGBAND
 10
-11.246152325706809
 20
289.19956732530341
 30
0.0
 11
-4.9461523257102717
 21
289.19956732530341
 31
0.0
  0
LINE
  5
22FB
  8
SAPA_FOGBAND
 10
0.5538476742974581
 20
288.39956732530231
 30
0.0
 11
0.6638450594789447
 21
283.65273333031593
 31
0.0
  0
LINE
  5
22FC
  8
SAPA_FOGBAND
 10
0.6638450594789447
 20
283.65273333031593
 30
0.0
 11
3.101938399901655
 21
283.6533098291905
 31
0.0
  0
LINE
  5
22FD
  8
SAPA_FOGBAND
 10
3.101938399901655
 20
283.6533098291905
 30
0.0
 11
1.976537277437046
 21
288.39956732530231
 31
0.0
  0
LINE
  5
22FE
  8
SAPA_FOGBAND
 10
-1.16884192884504
 20
288.39956732530231
 30
0.0
 11
-2.2942885261611532
 21
283.65314011472333
 31
0.0
  0
LINE
  5
22FF
  8
SAPA_FOGBAND
 10
-2.2942885261611532
 20
283.65314011472333
 30
0.0
 11
0.1438495203872208
 21
283.65270397390327
 31
0.0
  0
LINE
  5
2300
  8
SAPA_FOGBAND
 10
0.1438495203872208
 20
283.65270397390327
 30
0.0
 11
0.2538476742945477
 21
288.39956732530231
 31
0.0
  0
LINE
  5
2301
  8
SAPA_FOGBAND
 10
3.5538476742938201
 20
289.19956732530341
 30
0.0
 11
3.5538476742938201
 21
288.39956732530231
 31
0.0
  0
LINE
  5
2302
  8
SAPA_FOGBAND
 10
3.5538476742938201
 20
288.39956732530231
 30
0.0
 11
-2.7461523257027229
 21
288.39956732530231
 31
0.0
  0
LINE
  5
2303
  8
SAPA_FOGBAND
 10
-2.7461523257027229
 20
288.39956732530231
 30
0.0
 11
-2.7461523257027229
 21
289.19956732530341
 31
0.0
  0
LINE
  5
2304
  8
SAPA_FOGBAND
 10
-2.7461523257027229
 20
289.19956732530341
 30
0.0
 11
3.5538476742938201
 21
289.19956732530341
 31
0.0
  0
LINE
  5
2305
  8
SAPA_FOGBAND
 10
-7.9461523257066338
 20
222.60043238908179
 30
0.0
 11
-7.836154940525148
 21
227.34726638406821
 31
0.0
  0
LINE
  5
2306
  8
SAPA_FOGBAND
 10
-7.836154940525148
 20
227.34726638406821
 30
0.0
 11
-5.3980616001024373
 21
227.3466898851936
 31
0.0
  0
LINE
  5
2307
  8
SAPA_FOGBAND
 10
-5.3980616001024373
 20
227.3466898851936
 30
0.0
 11
-6.5234627225670456
 21
222.60043238908179
 31
0.0
  0
LINE
  5
2308
  8
SAPA_FOGBAND
 10
-9.6688419288491332
 20
222.60043238908179
 30
0.0
 11
-10.794288526165239
 21
227.3468595996608
 31
0.0
  0
LINE
  5
2309
  8
SAPA_FOGBAND
 10
-10.794288526165239
 20
227.3468595996608
 30
0.0
 11
-8.3561504796168702
 21
227.3472957404808
 31
0.0
  0
LINE
  5
230A
  8
SAPA_FOGBAND
 10
-8.3561504796168702
 20
227.3472957404808
 30
0.0
 11
-8.246152325709545
 21
222.60043238908179
 31
0.0
  0
LINE
  5
230B
  8
SAPA_FOGBAND
 10
-4.9461523257102717
 20
221.8004323890807
 30
0.0
 11
-4.9461523257102717
 21
222.60043238908179
 31
0.0
  0
LINE
  5
230C
  8
SAPA_FOGBAND
 10
-4.9461523257102717
 20
222.60043238908179
 30
0.0
 11
-11.246152325706809
 21
222.60043238908179
 31
0.0
  0
LINE
  5
230D
  8
SAPA_FOGBAND
 10
-11.246152325706809
 20
222.60043238908179
 30
0.0
 11
-11.246152325706809
 21
221.8004323890807
 31
0.0
  0
LINE
  5
230E
  8
SAPA_FOGBAND
 10
-11.246152325706809
 20
221.8004323890807
 30
0.0
 11
-4.9461523257102717
 21
221.8004323890807
 31
0.0
  0
LINE
  5
230F
  8
SAPA_FOGBAND
 10
0.5538476742974581
 20
222.60043238908179
 30
0.0
 11
0.6638450594789447
 21
227.34726638406821
 31
0.0
  0
LINE
  5
2310
  8
SAPA_FOGBAND
 10
0.6638450594789447
 20
227.34726638406821
 30
0.0
 11
3.101938399901655
 21
227.3466898851936
 31
0.0
  0
LINE
  5
2311
  8
SAPA_FOGBAND
 10
3.101938399901655
 20
227.3466898851936
 30
0.0
 11
1.976537277437046
 21
222.60043238908179
 31
0.0
  0
LINE
  5
2312
  8
SAPA_FOGBAND
 10
-1.16884192884504
 20
222.60043238908179
 30
0.0
 11
-2.2942885261611532
 21
227.3468595996608
 31
0.0
  0
LINE
  5
2313
  8
SAPA_FOGBAND
 10
-2.2942885261611532
 20
227.3468595996608
 30
0.0
 11
0.1438495203872208
 21
227.3472957404808
 31
0.0
  0
LINE
  5
2314
  8
SAPA_FOGBAND
 10
0.1438495203872208
 20
227.3472957404808
 30
0.0
 11
0.2538476742945477
 21
222.60043238908179
 31
0.0
  0
LINE
  5
2315
  8
SAPA_FOGBAND
 10
3.5538476742938201
 20
221.8004323890807
 30
0.0
 11
3.5538476742938201
 21
222.60043238908179
 31
0.0
  0
LINE
  5
2316
  8
SAPA_FOGBAND
 10
3.5538476742938201
 20
222.60043238908179
 30
0.0
 11
-2.7461523257027229
 21
222.60043238908179
 31
0.0
  0
LINE
  5
2317
  8
SAPA_FOGBAND
 10
-2.7461523257027229
 20
222.60043238908179
 30
0.0
 11
-2.7461523257027229
 21
221.8004323890807
 31
0.0
  0
LINE
  5
2318
  8
SAPA_FOGBAND
 10
-2.7461523257027229
 20
221.8004323890807
 30
0.0
 11
3.5538476742938201
 21
221.8004323890807
 31
0.0
  0
LINE
  5
2319
  8
SAPA_GLAS
 10
-62.32584378117167
 20
273.49999985701243
 30
0.0
 11
-30.32584378117167
 21
273.49999985701243
 31
0.0
  0
LINE
  5
231A
  8
SAPA_GLAS
 10
-30.32584378117167
 20
273.49999985701243
 30
0.0
 11
-30.32584378117167
 21
281.49999985701243
 31
0.0
  0
LINE
  5
231B
  8
SAPA_GLAS
 10
-30.32584378117167
 20
281.49999985701243
 30
0.0
 11
-62.32584378117167
 21
281.49999985701243
 31
0.0
  0
LINE
  5
231C
  8
SAPA_GLAS
 10
-40.325843781171663
 20
273.49999985701243
 30
0.0
 11
-40.325843781171663
 21
258.49999985701243
 31
0.0
  0
LINE
  5
231D
  8
SAPA_GLAS
 10
-40.325843781171663
 20
258.49999985701243
 30
0.0
 11
-30.32584378117167
 21
258.49999985701243
 31
0.0
  0
LINE
  5
231E
  8
SAPA_GLAS
 10
-30.32584378117167
 20
258.49999985701243
 30
0.0
 11
-30.32584378117167
 21
273.49999985701243
 31
0.0
  0
LINE
  5
231F
  8
SAPA_GLAS
 10
-30.32584378117167
 20
273.49999985701243
 30
0.0
 11
-40.325843781171663
 21
273.49999985701243
 31
0.0
  0
LINE
  5
2320
  8
SAPA_GLAS
 10
-62.32584378117167
 20
252.4999998570124
 30
0.0
 11
-30.32584378117167
 21
252.4999998570124
 31
0.0
  0
LINE
  5
2321
  8
SAPA_GLAS
 10
-30.32584378117167
 20
252.4999998570124
 30
0.0
 11
-30.32584378117167
 21
258.49999985701243
 31
0.0
  0
LINE
  5
2322
  8
SAPA_GLAS
 10
-30.32584378117167
 20
258.49999985701243
 30
0.0
 11
-62.32584378117167
 21
258.49999985701243
 31
0.0
  0
LINE
  5
2323
  8
SAPA_GLAS
 10
-40.325843781171663
 20
252.4999998568517
 30
0.0
 11
-40.325843781171663
 21
237.4999998568517
 31
0.0
  0
LINE
  5
2324
  8
SAPA_GLAS
 10
-40.325843781171663
 20
237.4999998568517
 30
0.0
 11
-30.32584378117167
 21
237.4999998568517
 31
0.0
  0
LINE
  5
2325
  8
SAPA_GLAS
 10
-30.32584378117167
 20
237.4999998568517
 30
0.0
 11
-30.32584378117167
 21
252.4999998568517
 31
0.0
  0
LINE
  5
2326
  8
SAPA_GLAS
 10
-30.32584378117167
 20
252.4999998568517
 30
0.0
 11
-40.325843781171663
 21
252.4999998568517
 31
0.0
  0
LINE
  5
2327
  8
SAPA_GLAS
 10
-62.32584378117167
 20
229.49999985685139
 30
0.0
 11
-30.32584378117167
 21
229.49999985685139
 31
0.0
  0
LINE
  5
2328
  8
SAPA_GLAS
 10
-30.32584378117167
 20
229.49999985685139
 30
0.0
 11
-30.32584378117167
 21
237.49999985685139
 31
0.0
  0
LINE
  5
2329
  8
SAPA_GLAS
 10
-30.32584378117167
 20
237.49999985685139
 30
0.0
 11
-62.32584378117167
 21
237.49999985685139
 31
0.0
  0
LINE
  5
232A
  8
SAPA_PROFIL
 10
-17.550555278784259
 20
234.49999985718409
 30
0.0
 11
-19.95055527879299
 21
234.49999985716229
 31
0.0
  0
ARC
  5
232B
  8
SAPA_PROFIL
 10
-19.95055527879553
 20
234.1999998571637
 30
0.0
 40
0.2999999999985334
 50
89.999999999514174
 51
179.99999999805669
  0
LINE
  5
232C
  8
SAPA_PROFIL
 10
-20.250555278794081
 20
234.19999985717391
 30
0.0
 11
-20.250555278794081
 21
229.99999985716229
 31
0.0
  0
ARC
  5
232D
  8
SAPA_PROFIL
 10
-23.250555278794081
 20
229.99999985717321
 30
0.0
 40
2.999999999999996
 50
269.99999999979138
 51
359.9999999997915
  0
LINE
  5
232E
  8
SAPA_PROFIL
 10
-23.250555278804999
 20
226.99999985717321
 30
0.0
 11
-28.250555278794081
 21
226.99999985717321
 31
0.0
  0
ARC
  5
232F
  8
SAPA_PROFIL
 10
-28.250555278834351
 20
356.999999857185
 30
0.0
 40
130.0000000000118
 50
263.6007970145584
 51
270.00000000001768
  0
ARC
  5
2330
  8
SAPA_PROFIL
 10
-42.650555278055108
 20
228.6049843782142
 30
0.0
 40
0.8000000006978995
 50
183.15197052778379
 51
263.60079696657158
  0
ARC
  5
2331
  8
SAPA_PROFIL
 10
-43.649042485742541
 20
228.54999985789641
 30
0.0
 40
0.1999999999971168
 50
3.1519705751423222
 51
90.000000000046796
  0
LINE
  5
2332
  8
SAPA_PROFIL
 10
-43.649042485742712
 20
228.7499998578935
 30
0.0
 11
-44.550555278804268
 21
228.74999985789711
 31
0.0
  0
ARC
  5
2333
  8
SAPA_PROFIL
 10
-44.550555278804282
 20
228.54999985789641
 30
0.0
 40
0.2000000000007276
 50
89.999999999997968
 51
180.00000000312659
  0
LINE
  5
2334
  8
SAPA_PROFIL
 10
-44.750555278804988
 20
228.5499998578855
 30
0.0
 11
-44.750555278812257
 21
228.32394078941459
 31
0.0
  0
ARC
  5
2335
  8
SAPA_PROFIL
 10
-42.750555278812442
 20
228.32394078943659
 30
0.0
 40
1.999999999999829
 50
180.00000000063019
 51
263.49549990599252
  0
ARC
  5
2336
  8
SAPA_PROFIL
 10
-28.250555278809571
 20
355.49999985718949
 30
0.0
 40
130.0000000000181
 50
263.4954999059878
 51
275.88924174844072
  0
ARC
  5
2337
  8
SAPA_PROFIL
 10
-15.937863754823409
 20
236.13334778220951
 30
0.0
 40
9.9999999993756905
 50
275.8892417492446
 51
286.70910753330469
  0
ARC
  5
2338
  8
SAPA_PROFIL
 10
-20.250555278831371
 20
250.49999985686131
 30
0.0
 40
24.999999999887311
 50
286.70910753265861
 51
289.46295094641027
  0
ARC
  5
2339
  8
SAPA_PROFIL
 10
-8.5886514891198225
 20
217.49999985697741
 30
0.0
 40
10.0000000000102
 50
89.999999999957524
 51
109.46295094641241
  0
LINE
  5
233A
  8
SAPA_PROFIL
 10
-8.5886514891124062
 20
227.49999985698761
 30
0.0
 11
-1.2505552787831671
 21
227.49999985698761
 31
0.0
  0
ARC
  5
233B
  8
SAPA_PROFIL
 10
-1.2505552787831671
 20
232.4999998569877
 30
0.0
 40
5.0
 50
270.0
 51
0.0
  0
LINE
  5
233C
  8
SAPA_PROFIL
 10
3.749444721216832
 20
232.4999998569877
 30
0.0
 11
3.7494447212059181
 21
235.2561308158877
 31
0.0
  0
ARC
  5
233D
  8
SAPA_PROFIL
 10
3.4494447211848089
 20
235.25613081588779
 30
0.0
 40
0.3000000000211092
 50
359.99999999998369
 51
54.379930240085692
  0
ARC
  5
233E
  8
SAPA_PROFIL
 10
3.79888937122778
 20
235.74386889781221
 30
0.0
 40
0.2999999999813973
 50
180.00000000507529
 51
234.37993024868021
  0
LINE
  5
233F
  8
SAPA_PROFIL
 10
3.4988893712463769
 20
235.74386889778569
 30
0.0
 11
3.4988893712463769
 21
236.6999998568356
 31
0.0
  0
ARC
  5
2340
  8
SAPA_PROFIL
 10
3.7988893712452492
 20
236.69999985683509
 30
0.0
 40
0.2999999999988718
 50
109.4663590003027
 51
179.99999999990769
  0
LINE
  5
2341
  8
SAPA_PROFIL
 10
3.6989133712406779
 20
236.9828510534428
 30
0.0
 11
3.6989133712406779
 21
239.28581029447039
 31
0.0
  0
ARC
  5
2342
  8
SAPA_PROFIL
 10
2.6989133712409541
 20
239.2858102944694
 30
0.0
 40
0.9999999999997232
 50
0.0000000000521102
 51
135.000000000048
  0
LINE
  5
2343
  8
SAPA_PROFIL
 10
1.991806590054011
 20
239.99291707565521
 30
0.0
 11
0.6867573368847389
 21
238.687867822486
 31
0.0
  0
ARC
  5
2344
  8
SAPA_PROFIL
 10
0.8988893712429081
 20
238.4757357881299
 30
0.0
 40
0.3000000000016167
 50
135.0000000002868
 51
180.000000000304
  0
LINE
  5
2345
  8
SAPA_PROFIL
 10
0.5988893712412846
 20
238.4757357881283
 30
0.0
 11
0.5988893712412846
 21
237.88923034138159
 31
0.0
  0
ARC
  5
2346
  8
SAPA_PROFIL
 10
0.8988893712441676
 20
237.88923034138139
 30
0.0
 40
0.3000000000028831
 50
179.9999999999674
 51
209.99999999996481
  0
LINE
  5
2347
  8
SAPA_PROFIL
 10
0.6390817501062429
 20
237.73923034138011
 30
0.0
 11
1.4988893712427389
 21
236.24999985684209
 31
0.0
  0
LINE
  5
2348
  8
SAPA_PROFIL
 10
1.4988893712427389
 20
236.24999985684209
 30
0.0
 11
1.498901371241345
 21
235.7999998568414
 31
0.0
  0
ARC
  5
2349
  8
SAPA_PROFIL
 10
1.198901371242078
 20
235.7999998568414
 30
0.0
 40
0.2999999999992671
 50
269.99999999999898
 51
0.0
  0
LINE
  5
234A
  8
SAPA_PROFIL
 10
1.198901371242072
 20
235.49999985684209
 30
0.0
 11
-2.4011106287587149
 21
235.49999985683851
 31
0.0
  0
ARC
  5
234B
  8
SAPA_PROFIL
 10
-2.4011106287587149
 20
235.79999985683779
 30
0.0
 40
0.2999999999992724
 50
180.0
 51
270.0
  0
LINE
  5
234C
  8
SAPA_PROFIL
 10
-2.7011106287579869
 20
235.79999985683779
 30
0.0
 11
-2.7011106287579869
 21
236.24999985683851
 31
0.0
  0
LINE
  5
234D
  8
SAPA_PROFIL
 10
-2.7011106287579869
 20
236.24999985683851
 30
0.0
 11
-1.8412858911895
 21
237.7392599879133
 31
0.0
  0
ARC
  5
234E
  8
SAPA_PROFIL
 10
-2.1010935123258618
 20
237.8892599879145
 30
0.0
 40
0.300000000001478
 50
329.99999999990467
 51
359.9963531324633
  0
LINE
  5
234F
  8
SAPA_PROFIL
 10
-1.801093512932084
 20
237.88924089296069
 30
0.0
 11
-1.8010911411245161
 21
237.9999998568457
 31
0.0
  0
LINE
  5
2350
  8
SAPA_PROFIL
 10
-1.8010911411245161
 20
237.9999998568457
 30
0.0
 11
-6.7000188538465864
 21
237.99999985683121
 31
0.0
  0
LINE
  5
2351
  8
SAPA_PROFIL
 10
-6.7000188538465864
 20
237.99999985683121
 30
0.0
 11
-6.7000170446997336
 21
237.8892408929571
 31
0.0
  0
ARC
  5
2352
  8
SAPA_PROFIL
 10
-6.4000170453059564
 20
237.88925998791089
 30
0.0
 40
0.3000000000014735
 50
180.0036468675367
 51
210.0000000000953
  0
LINE
  5
2353
  8
SAPA_PROFIL
 10
-6.6598246664423177
 20
237.73925998790969
 30
0.0
 11
-5.79999992887383
 21
236.2499998568349
 31
0.0
  0
LINE
  5
2354
  8
SAPA_PROFIL
 10
-5.79999992887383
 20
236.2499998568349
 30
0.0
 11
-5.79999992887383
 21
235.79999985683409
 31
0.0
  0
ARC
  5
2355
  8
SAPA_PROFIL
 10
-6.0999999288731033
 20
235.79999985683409
 30
0.0
 40
0.2999999999992724
 50
270.0
 51
0.0
  0
LINE
  5
2356
  8
SAPA_PROFIL
 10
-6.0999999288731033
 20
235.4999998568349
 30
0.0
 11
-9.7000119288738915
 21
235.4999998568349
 31
0.0
  0
ARC
  5
2357
  8
SAPA_PROFIL
 10
-9.7000119288738968
 20
235.79999985683409
 30
0.0
 40
0.2999999999992724
 50
180.0
 51
270.00000000000102
  0
LINE
  5
2358
  8
SAPA_PROFIL
 10
-10.00001192887316
 20
235.79999985683409
 30
0.0
 11
-9.9999999288745585
 21
236.2499998568349
 31
0.0
  0
LINE
  5
2359
  8
SAPA_PROFIL
 10
-9.9999999288745585
 20
236.2499998568349
 30
0.0
 11
-9.1401923077398806
 21
237.7392303413765
 31
0.0
  0
ARC
  5
235A
  8
SAPA_PROFIL
 10
-9.3999999288710168
 20
237.88923034137591
 30
0.0
 40
0.2999999999960995
 50
329.9999999996877
 51
359.99999999968509
  0
LINE
  5
235B
  8
SAPA_PROFIL
 10
-9.0999999288749223
 20
237.88923034137429
 30
0.0
 11
-9.0999999288749223
 21
238.475735788121
 31
0.0
  0
ARC
  5
235C
  8
SAPA_PROFIL
 10
-9.3999999288765466
 20
238.47573578812259
 30
0.0
 40
0.3000000000016243
 50
359.99999999969612
 51
44.99999999971309
  0
LINE
  5
235D
  8
SAPA_PROFIL
 10
-9.1878678945183765
 20
238.68786782247869
 30
0.0
 11
-10.492917147687651
 21
239.99291707564791
 31
0.0
  0
ARC
  5
235E
  8
SAPA_PROFIL
 10
-11.20002392887384
 20
239.28581029446039
 30
0.0
 40
1.000000000000475
 50
45.00000000005614
 51
180.0000000000521
  0
LINE
  5
235F
  8
SAPA_PROFIL
 10
-12.200023928874311
 20
239.28581029445951
 30
0.0
 11
-12.200023928874311
 21
236.9828510534501
 31
0.0
  0
ARC
  5
2360
  8
SAPA_PROFIL
 10
-12.299999928875771
 20
236.69999985683691
 30
0.0
 40
0.3000000000030367
 50
359.9999999997558
 51
70.533641000610004
  0
LINE
  5
2361
  8
SAPA_PROFIL
 10
-11.999999928872739
 20
236.6999998568356
 30
0.0
 11
-11.99999992887456
 21
235.74386889778569
 31
0.0
  0
ARC
  5
2362
  8
SAPA_PROFIL
 10
-12.299999928870131
 20
235.7438688977935
 30
0.0
 40
0.299999999995574
 50
305.62006975527453
 51
359.99999999850178
  0
ARC
  5
2363
  8
SAPA_PROFIL
 10
-11.95055527883329
 20
235.25613081584311
 30
0.0
 40
0.3000000000244499
 50
125.62006975212471
 51
179.9999999921834
  0
LINE
  5
2364
  8
SAPA_PROFIL
 10
-12.250555278857741
 20
235.25613081588401
 30
0.0
 11
-12.25055527881227
 21
234.49999985716229
 31
0.0
  0
ARC
  5
2365
  8
SAPA_PROFIL
 10
-11.25055527880863
 20
234.4999998571659
 30
0.0
 40
1.0000000000036371
 50
180.00000000020839
 51
269.99999999979161
  0
LINE
  5
2366
  8
SAPA_PROFIL
 10
-11.25055527881227
 20
233.49999985716221
 30
0.0
 11
-8.7505552786558383
 21
233.49999985698761
 31
0.0
  0
ARC
  5
2367
  8
SAPA_PROFIL
 10
-8.7505552788049954
 20
231.49999985698761
 30
0.0
 40
2.0
 50
270.0
 51
89.999999995726967
  0
LINE
  5
2368
  8
SAPA_PROFIL
 10
-8.7505552788049954
 20
229.49999985698761
 30
0.0
 11
-16.750555278804988
 21
229.49999985698761
 31
0.0
  0
ARC
  5
2369
  8
SAPA_PROFIL
 10
-16.75055527880863
 20
231.499999856984
 30
0.0
 40
1.999999999996362
 50
179.9999999996873
 51
270.00000000010419
  0
LINE
  5
236A
  8
SAPA_PROFIL
 10
-18.750555278804988
 20
231.49999985699489
 30
0.0
 11
-18.75055527878316
 21
233.1999998571703
 31
0.0
  0
ARC
  5
236B
  8
SAPA_PROFIL
 10
-18.45055527878462
 20
233.1999998571637
 30
0.0
 40
0.2999999999985441
 50
89.999999998123911
 51
179.99999999875149
  0
LINE
  5
236C
  8
SAPA_PROFIL
 10
-18.4505552787748
 20
233.49999985716221
 30
0.0
 11
-17.550555278784259
 21
233.49999985717321
 31
0.0
  0
ARC
  5
236D
  8
SAPA_PROFIL
 10
-17.550555278778798
 20
233.79999985717791
 30
0.0
 40
0.3000000000047294
 50
269.99999999895778
 51
359.99999999895778
  0
LINE
  5
236E
  8
SAPA_PROFIL
 10
-17.250555278774069
 20
233.79999985717239
 30
0.0
 11
-17.250555278774069
 21
234.19999985717391
 31
0.0
  0
ARC
  5
236F
  8
SAPA_PROFIL
 10
-17.550555278784259
 20
234.19999985717391
 30
0.0
 40
0.3000000000101863
 50
0.0
 51
90.0
  0
ARC
  5
2370
  8
SAPA_PROFIL
 62
     4
 10
1.6403972885911999
 20
272.41342237348658
 30
-0.2
 40
1.3416252492690091
 50
151.9755812434733
 51
179.2044300392941
  0
LINE
  5
2371
  8
SAPA_PROFIL
 62
     4
 10
0.4560810482164471
 20
273.04378207418199
 30
-0.2
 11
1.4489013712457099
 21
274.76339731645641
 31
-0.2
  0
LINE
  5
2372
  8
SAPA_PROFIL
 62
     4
 10
1.4489013712457099
 20
274.76339731645641
 30
-0.2
 11
1.4489013712457099
 21
275.19999985683472
 31
-0.2
  0
ARC
  5
2373
  8
SAPA_PROFIL
 62
     4
 10
1.1989013712457099
 20
275.19999985683472
 30
-0.2
 40
0.25
 50
0.0
 51
90.0
  0
LINE
  5
2374
  8
SAPA_PROFIL
 62
     4
 10
1.1989013712457099
 20
275.44999985683472
 30
-0.2
 11
-2.401110628754167
 21
275.44999985683472
 31
-0.2
  0
ARC
  5
2375
  8
SAPA_PROFIL
 62
     4
 10
-2.401110628754171
 20
275.19999985683472
 30
-0.2
 40
0.25
 50
89.999999999999091
 51
180.0
  0
LINE
  5
2376
  8
SAPA_PROFIL
 62
     4
 10
-2.651110628754167
 20
275.19999985683472
 30
-0.2
 11
-2.6510989860187228
 21
274.76339793525608
 31
-0.2
  0
LINE
  5
2377
  8
SAPA_PROFIL
 62
     4
 10
-2.6510989860187228
 20
274.76339793525608
 30
-0.2
 11
-1.6582783057290269
 21
273.04378207418881
 31
-0.2
  0
ARC
  5
2378
  8
SAPA_PROFIL
 62
     4
 10
-2.778503410222565
 20
272.42980932402821
 30
-0.2
 40
1.277445428453728
 50
0.4570690071140316
 51
28.726257381968502
  0
LINE
  5
2379
  8
SAPA_PROFIL
 62
     4
 10
-1.501098628754107
 20
272.43999985683439
 30
-0.2
 11
-1.501098628754107
 21
238.55999985683479
 31
-0.2
  0
ARC
  5
237A
  8
SAPA_PROFIL
 62
     4
 10
-2.778503410222561
 20
238.57019038964111
 30
-0.2
 40
1.277445428453734
 50
331.27374261803033
 51
359.54293099288469
  0
LINE
  5
237B
  8
SAPA_PROFIL
 62
     4
 10
-1.6582783057290269
 20
237.9562176394804
 30
-0.2
 11
-2.6510989860187228
 21
236.23660177841319
 31
-0.2
  0
LINE
  5
237C
  8
SAPA_PROFIL
 62
     4
 10
-2.6510989860187228
 20
236.23660177841319
 30
-0.2
 11
-2.651110628754167
 21
235.7999998568346
 31
-0.2
  0
ARC
  5
237D
  8
SAPA_PROFIL
 62
     4
 10
-2.401110628754171
 20
235.7999998568346
 30
-0.2
 40
0.2499999999999964
 50
180.0
 51
270.0000000000008
  0
LINE
  5
237E
  8
SAPA_PROFIL
 62
     4
 10
-2.401110628754167
 20
235.5499998568346
 30
-0.2
 11
1.1989013712457099
 21
235.5499998568346
 31
-0.2
  0
ARC
  5
237F
  8
SAPA_PROFIL
 62
     4
 10
1.1989013712457111
 20
235.7999998568346
 30
-0.2
 40
0.25
 50
269.99999999999989
 51
0.0
  0
LINE
  5
2380
  8
SAPA_PROFIL
 62
     4
 10
1.4489013712457099
 20
235.7999998568346
 30
-0.2
 11
1.4489013712457099
 21
236.23660239721289
 31
-0.2
  0
LINE
  5
2381
  8
SAPA_PROFIL
 62
     4
 10
1.4489013712457099
 20
236.23660239721289
 30
-0.2
 11
0.4560810482164471
 21
237.95621763948719
 31
-0.2
  0
ARC
  5
2382
  8
SAPA_PROFIL
 62
     4
 10
1.640397288592139
 20
238.5865773401828
 30
-0.2
 40
1.341625249269941
 50
180.7955699606955
 51
208.02441875651641
  0
LINE
  5
2383
  8
SAPA_PROFIL
 62
     4
 10
0.2989013712460746
 20
238.56794904926591
 30
-0.2
 11
0.2989013712460746
 21
272.43205066440368
 31
-0.2
  0
ARC
  5
2384
  8
SAPA_PROFIL
 62
     4
 10
-5.6585040115285219
 20
272.41342237348658
 30
-0.2
 40
1.3416252492690099
 50
151.9755812434733
 51
179.2044300392941
  0
LINE
  5
2385
  8
SAPA_PROFIL
 62
     4
 10
-6.8428202519032757
 20
273.04378207418199
 30
-0.2
 11
-5.8499999288740119
 21
274.76339731645641
 31
-0.2
  0
LINE
  5
2386
  8
SAPA_PROFIL
 62
     4
 10
-5.8499999288740119
 20
274.76339731645641
 30
-0.2
 11
-5.8499999288740119
 21
275.19999985683472
 31
-0.2
  0
ARC
  5
2387
  8
SAPA_PROFIL
 62
     4
 10
-6.0999999288740119
 20
275.19999985683472
 30
-0.2
 40
0.25
 50
0.0
 51
90.0
  0
LINE
  5
2388
  8
SAPA_PROFIL
 62
     4
 10
-6.0999999288740119
 20
275.44999985683472
 30
-0.2
 11
-9.7000119288738915
 21
275.44999985683472
 31
-0.2
  0
ARC
  5
2389
  8
SAPA_PROFIL
 62
     4
 10
-9.7000119288738951
 20
275.19999985683472
 30
-0.2
 40
0.25
 50
89.999999999999204
 51
180.0
  0
LINE
  5
238A
  8
SAPA_PROFIL
 62
     4
 10
-9.9500119288738915
 20
275.19999985683472
 30
-0.2
 11
-9.9500002861384473
 21
274.76339793525608
 31
-0.2
  0
LINE
  5
238B
  8
SAPA_PROFIL
 62
     4
 10
-9.9500002861384473
 20
274.76339793525608
 30
-0.2
 11
-8.9571796058487507
 21
273.04378207418881
 31
-0.2
  0
ARC
  5
238C
  8
SAPA_PROFIL
 62
     4
 10
-10.077404710342289
 20
272.42980932402821
 30
-0.2
 40
1.277445428453728
 50
0.4570690071140316
 51
28.726257381968502
  0
LINE
  5
238D
  8
SAPA_PROFIL
 62
     4
 10
-8.7999999288738309
 20
272.43999985683439
 30
-0.2
 11
-8.7999999288738309
 21
238.55999985683479
 31
-0.2
  0
ARC
  5
238E
  8
SAPA_PROFIL
 62
     4
 10
-10.077404710342281
 20
238.57019038964111
 30
-0.2
 40
1.2774454284537351
 50
331.27374261803033
 51
359.54293099288469
  0
LINE
  5
238F
  8
SAPA_PROFIL
 62
     4
 10
-8.9571796058487507
 20
237.9562176394804
 30
-0.2
 11
-9.9500002861384473
 21
236.23660177841319
 31
-0.2
  0
LINE
  5
2390
  8
SAPA_PROFIL
 62
     4
 10
-9.9500002861384473
 20
236.23660177841319
 30
-0.2
 11
-9.9500119288738915
 21
235.7999998568346
 31
-0.2
  0
ARC
  5
2391
  8
SAPA_PROFIL
 62
     4
 10
-9.7000119288738951
 20
235.7999998568346
 30
-0.2
 40
0.2499999999999964
 50
180.0
 51
270.0000000000008
  0
LINE
  5
2392
  8
SAPA_PROFIL
 62
     4
 10
-9.7000119288738915
 20
235.5499998568346
 30
-0.2
 11
-6.0999999288740119
 21
235.5499998568346
 31
-0.2
  0
ARC
  5
2393
  8
SAPA_PROFIL
 62
     4
 10
-6.0999999288740119
 20
235.7999998568346
 30
-0.2
 40
0.25
 50
270.0
 51
0.0
  0
LINE
  5
2394
  8
SAPA_PROFIL
 62
     4
 10
-5.8499999288740119
 20
235.7999998568346
 30
-0.2
 11
-5.8499999288740119
 21
236.23660239721289
 31
-0.2
  0
LINE
  5
2395
  8
SAPA_PROFIL
 62
     4
 10
-5.8499999288740119
 20
236.23660239721289
 30
-0.2
 11
-6.8428202519032757
 21
237.95621763948719
 31
-0.2
  0
ARC
  5
2396
  8
SAPA_PROFIL
 62
     4
 10
-5.658504011527584
 20
238.5865773401828
 30
-0.2
 40
1.341625249269941
 50
180.7955699606955
 51
208.02441875651641
  0
LINE
  5
2397
  8
SAPA_PROFIL
 62
     4
 10
-6.9999999288736481
 20
238.56794904926591
 30
-0.2
 11
-6.9999999288736481
 21
272.43205066440368
 31
-0.2
  0
LINE
  5
2398
  8
SAPA_PROFIL
 10
-36.25055527881409
 20
312.99999985650737
 30
0.0
 11
-36.25055527881409
 21
312.2114608818959
 31
0.0
  0
ARC
  5
2399
  8
SAPA_PROFIL
 10
-46.250555278842413
 20
312.21146088180501
 30
0.0
 40
10.00000000002832
 50
346.78979035294651
 51
0.0000000005204507
  0
ARC
  5
239A
  8
SAPA_PROFIL
 10
12.16173654860569
 20
298.49999985617183
 30
0.0
 40
49.999999999908489
 50
166.78979035199271
 51
192.42579191066559
  0
ARC
  5
239B
  8
SAPA_PROFIL
 10
-33.737312678102967
 20
288.3867768257457
 30
0.0
 40
3.000000000132276
 50
192.42579191070729
 51
272.36434044995849
  0
ARC
  5
239C
  8
SAPA_PROFIL
 10
-28.25055527876631
 20
155.49999985730659
 30
0.0
 40
129.99999999918671
 50
84.11075825159304
 51
92.364340450064944
  0
ARC
  5
239D
  8
SAPA_PROFIL
 10
-15.937863754884219
 20
274.86665193086299
 30
0.0
 40
9.9999999999710525
 50
73.290892467377233
 51
84.110758251438
  0
ARC
  5
239E
  8
SAPA_PROFIL
 10
-20.2505552788306
 20
260.49999985670718
 30
0.0
 40
24.999999999989871
 50
70.537049053670231
 51
73.290892467422523
  0
ARC
  5
239F
  8
SAPA_PROFIL
 10
-8.5886514891092194
 20
293.49999985668711
 30
0.0
 40
10.000000000001419
 50
250.5370490535164
 51
269.99999999997129
  0
LINE
  5
23A0
  8
SAPA_PROFIL
 10
-8.5886514891142252
 20
283.49999985668569
 30
0.0
 11
-1.2505552787849861
 21
283.49999985668569
 31
0.0
  0
ARC
  5
23A1
  8
SAPA_PROFIL
 10
-1.2505552787849861
 20
278.49999985668569
 30
0.0
 40
5.0
 50
0.0
 51
90.0
  0
LINE
  5
23A2
  8
SAPA_PROFIL
 10
3.749444721215013
 20
278.49999985668569
 30
0.0
 11
3.7494447212040991
 21
275.74386889778572
 31
0.0
  0
ARC
  5
23A3
  8
SAPA_PROFIL
 10
3.4494447211848049
 20
275.74386889778202
 30
0.0
 40
0.3000000000192937
 50
305.6200697605924
 51
0.0000000006948028
  0
ARC
  5
23A4
  8
SAPA_PROFIL
 10
3.7988893712332379
 20
275.25613081585482
 30
0.0
 40
0.2999999999886691
 50
125.6200697511798
 51
179.999999994409
  0
LINE
  5
23A5
  8
SAPA_PROFIL
 10
3.4988893712445579
 20
275.25613081588398
 30
0.0
 11
3.4988893712445579
 21
274.29999985683412
 31
0.0
  0
ARC
  5
23A6
  8
SAPA_PROFIL
 10
3.7988893712453971
 20
274.29999985683492
 30
0.0
 40
0.3000000000008387
 50
180.000000000152
 51
250.53364100090459
  0
LINE
  5
23A7
  8
SAPA_PROFIL
 10
3.6989133712461348
 20
274.0171486602232
 30
0.0
 11
3.6989133712461348
 21
271.71418941921019
 31
0.0
  0
ARC
  5
23A8
  8
SAPA_PROFIL
 10
2.6989133712456579
 20
271.71418941920928
 30
0.0
 40
1.0000000000004761
 50
225.00000000005619
 51
0.0000000000521102
  0
LINE
  5
23A9
  8
SAPA_PROFIL
 10
1.9918065900594679
 20
271.00708263802181
 30
0.0
 11
0.6867573368901958
 21
272.31213189119109
 31
0.0
  0
ARC
  5
23AA
  8
SAPA_PROFIL
 10
0.8988893712483649
 20
272.52426392554707
 30
0.0
 40
0.3000000000016166
 50
179.999999999696
 51
224.9999999997132
  0
LINE
  5
23AB
  8
SAPA_PROFIL
 10
0.5988893712467416
 20
272.52426392554872
 30
0.0
 11
0.5988893712467416
 21
273.11076937229541
 31
0.0
  0
ARC
  5
23AC
  8
SAPA_PROFIL
 10
0.898889371242836
 20
273.1107693722937
 30
0.0
 40
0.2999999999960945
 50
149.9999999996877
 51
179.99999999968509
  0
LINE
  5
23AD
  8
SAPA_PROFIL
 10
0.6390817501116999
 20
273.26076937229323
 30
0.0
 11
1.4988893712463769
 21
274.74999985683479
 31
0.0
  0
LINE
  5
23AE
  8
SAPA_PROFIL
 10
1.4988893712463769
 20
274.74999985683479
 30
0.0
 11
1.498901371244983
 21
275.19999985683557
 31
0.0
  0
ARC
  5
23AF
  8
SAPA_PROFIL
 10
1.1989013712457159
 20
275.19999985683557
 30
0.0
 40
0.2999999999992671
 50
0.0
 51
90.000000000001023
  0
LINE
  5
23B0
  8
SAPA_PROFIL
 10
1.1989013712457099
 20
275.4999998568349
 30
0.0
 11
-2.401110628755077
 21
275.4999998568349
 31
0.0
  0
ARC
  5
23B1
  8
SAPA_PROFIL
 10
-2.401110628755077
 20
275.19999985683557
 30
0.0
 40
0.2999999999992724
 50
90.0
 51
180.0
  0
LINE
  5
23B2
  8
SAPA_PROFIL
 10
-2.7011106287543489
 20
275.19999985683557
 30
0.0
 11
-2.7011106287543489
 21
274.74999985683479
 31
0.0
  0
LINE
  5
23B3
  8
SAPA_PROFIL
 10
-2.7011106287543489
 20
274.74999985683479
 30
0.0
 11
-1.8412858911858621
 21
273.26073972576
 31
0.0
  0
ARC
  5
23B4
  8
SAPA_PROFIL
 10
-2.1010935123222239
 20
273.11073972575878
 30
0.0
 40
0.3000000000014784
 50
0.0036468675366608
 51
30.00000000009522
  0
LINE
  5
23B5
  8
SAPA_PROFIL
 10
-1.801093512928446
 20
273.11075882071259
 30
0.0
 11
-1.801086628753864
 21
272.99999985682763
 31
0.0
  0
LINE
  5
23B6
  8
SAPA_PROFIL
 10
-1.801086628753864
 20
272.99999985682763
 30
0.0
 11
-4.2505552788140903
 21
272.9999998568349
 31
0.0
  0
LINE
  5
23B7
  8
SAPA_PROFIL
 10
-4.2505552788140903
 20
272.9999998568349
 30
0.0
 11
-6.7000239288743151
 21
273.00260185683533
 31
0.0
  0
LINE
  5
23B8
  8
SAPA_PROFIL
 10
-6.7000239288743151
 20
273.00260185683533
 30
0.0
 11
-6.7000170446997336
 21
273.11075882071259
 31
0.0
  0
ARC
  5
23B9
  8
SAPA_PROFIL
 10
-6.4000170453059564
 20
273.11073972575878
 30
0.0
 40
0.3000000000014735
 50
149.9999999999047
 51
179.9963531324633
  0
LINE
  5
23BA
  8
SAPA_PROFIL
 10
-6.6598246664423177
 20
273.26073972576
 30
0.0
 11
-5.79999992887383
 21
274.74999985683479
 31
0.0
  0
LINE
  5
23BB
  8
SAPA_PROFIL
 10
-5.79999992887383
 20
274.74999985683479
 30
0.0
 11
-5.79999992887383
 21
275.19999985683557
 31
0.0
  0
ARC
  5
23BC
  8
SAPA_PROFIL
 10
-6.0999999288731033
 20
275.19999985683557
 30
0.0
 40
0.2999999999992724
 50
0.0
 51
90.0
  0
LINE
  5
23BD
  8
SAPA_PROFIL
 10
-6.0999999288731033
 20
275.4999998568349
 30
0.0
 11
-9.7000119288738915
 21
275.4999998568349
 31
0.0
  0
ARC
  5
23BE
  8
SAPA_PROFIL
 10
-9.7000119288738968
 20
275.19999985683557
 30
0.0
 40
0.2999999999992724
 50
89.999999999998977
 51
180.0
  0
LINE
  5
23BF
  8
SAPA_PROFIL
 10
-10.00001192887316
 20
275.19999985683557
 30
0.0
 11
-9.9999999288745585
 21
274.74999985683479
 31
0.0
  0
LINE
  5
23C0
  8
SAPA_PROFIL
 10
-9.9999999288745585
 20
274.74999985683479
 30
0.0
 11
-9.1401923077398806
 21
273.26076937229323
 31
0.0
  0
ARC
  5
23C1
  8
SAPA_PROFIL
 10
-9.3999999288710168
 20
273.1107693722937
 30
0.0
 40
0.2999999999960995
 50
0.0000000003148325
 51
30.000000000312252
  0
LINE
  5
23C2
  8
SAPA_PROFIL
 10
-9.0999999288749223
 20
273.11076937229541
 30
0.0
 11
-9.0999999288749223
 21
272.52426392554872
 31
0.0
  0
ARC
  5
23C3
  8
SAPA_PROFIL
 10
-9.3999999288765466
 20
272.52426392554707
 30
0.0
 40
0.3000000000016243
 50
315.00000000028689
 51
0.0000000003039762
  0
LINE
  5
23C4
  8
SAPA_PROFIL
 10
-9.1878678945183765
 20
272.31213189119109
 30
0.0
 11
-10.492917147687651
 21
271.00708263802181
 31
0.0
  0
ARC
  5
23C5
  8
SAPA_PROFIL
 10
-11.20002392887384
 20
271.71418941920928
 30
0.0
 40
1.000000000000475
 50
179.9999999999479
 51
314.9999999999439
  0
LINE
  5
23C6
  8
SAPA_PROFIL
 10
-12.200023928874311
 20
271.71418941921019
 30
0.0
 11
-12.200023928874311
 21
274.0171486602232
 31
0.0
  0
ARC
  5
23C7
  8
SAPA_PROFIL
 10
-12.299999928874749
 20
274.29999985683378
 30
0.0
 40
0.300000000000206
 50
289.4663589993753
 51
0.0000000000542815
  0
LINE
  5
23C8
  8
SAPA_PROFIL
 10
-11.99999992887456
 20
274.29999985683412
 30
0.0
 11
-11.99999992887456
 21
275.25613081588398
 31
0.0
  0
ARC
  5
23C9
  8
SAPA_PROFIL
 10
-12.299999928869109
 20
275.25613081587539
 30
0.0
 40
0.2999999999945544
 50
0.0000000016501566
 51
54.379930245254698
  0
ARC
  5
23CA
  8
SAPA_PROFIL
 10
-11.950555278835109
 20
275.74386889782659
 30
0.0
 40
0.3000000000244478
 50
180.00000000781651
 51
234.3799302478759
  0
LINE
  5
23CB
  8
SAPA_PROFIL
 10
-12.25055527885956
 20
275.74386889778572
 30
0.0
 11
-12.25055527881409
 21
276.49999985650737
 31
0.0
  0
ARC
  5
23CC
  8
SAPA_PROFIL
 10
-11.25055527881409
 20
276.49999985650737
 30
0.0
 40
1.0000000000000011
 50
90.000000004064688
 51
180.0
  0
LINE
  5
23CD
  8
SAPA_PROFIL
 10
-11.250555278885029
 20
277.49999985650737
 30
0.0
 11
-8.7505552786558383
 21
277.49999985668569
 31
0.0
  0
ARC
  5
23CE
  8
SAPA_PROFIL
 10
-8.7505552788049954
 20
279.49999985668569
 30
0.0
 40
2.0
 50
270.00000000427298
 51
90.0
  0
LINE
  5
23CF
  8
SAPA_PROFIL
 10
-8.7505552788049954
 20
281.49999985668569
 30
0.0
 11
-16.750555278804988
 21
281.49999985668569
 31
0.0
  0
ARC
  5
23D0
  8
SAPA_PROFIL
 10
-16.750555278806811
 20
279.49999985668751
 30
0.0
 40
1.999999999998181
 50
89.999999999947889
 51
180.00000000036479
  0
LINE
  5
23D1
  8
SAPA_PROFIL
 10
-18.750555278804988
 20
279.49999985667478
 30
0.0
 11
-18.750555278786798
 21
277.79999985649579
 31
0.0
  0
ARC
  5
23D2
  8
SAPA_PROFIL
 10
-18.45055527878581
 20
277.79999985650841
 30
0.0
 40
0.300000000000999
 50
180.0000000024101
 51
270.00000000210201
  0
LINE
  5
23D3
  8
SAPA_PROFIL
 10
-18.4505552787748
 20
277.49999985650737
 30
0.0
 11
-17.550555278784259
 21
277.49999985650021
 31
0.0
  0
ARC
  5
23D4
  8
SAPA_PROFIL
 10
-17.550555278780621
 20
277.1999998564936
 30
0.0
 40
0.3000000000065484
 50
0.0000000006948028
 51
90.000000000694115
  0
LINE
  5
23D5
  8
SAPA_PROFIL
 10
-17.250555278774069
 20
277.1999998564973
 30
0.0
 11
-17.250555278774069
 21
276.79999985649579
 31
0.0
  0
ARC
  5
23D6
  8
SAPA_PROFIL
 10
-17.550555278784259
 20
276.79999985649579
 30
0.0
 40
0.3000000000101863
 50
270.0
 51
0.0
  0
LINE
  5
23D7
  8
SAPA_PROFIL
 10
-17.550555278784259
 20
276.4999998564856
 30
0.0
 11
-19.950555278794809
 21
276.49999985650379
 31
0.0
  0
ARC
  5
23D8
  8
SAPA_PROFIL
 10
-19.9505552787939
 20
276.79999985650579
 30
0.0
 40
0.3000000000020009
 50
180.00000000191071
 51
269.99999999982629
  0
LINE
  5
23D9
  8
SAPA_PROFIL
 10
-20.2505552787959
 20
276.79999985649579
 30
0.0
 11
-20.2505552787959
 21
280.99999985650749
 31
0.0
  0
ARC
  5
23DA
  8
SAPA_PROFIL
 10
-23.250555278794991
 20
280.99999985649742
 30
0.0
 40
2.9999999999990901
 50
0.0000000001910708
 51
90.000000000191065
  0
LINE
  5
23DB
  8
SAPA_PROFIL
 10
-23.250555278804999
 20
283.99999985649652
 30
0.0
 11
-28.2505552787959
 21
283.99999985649652
 31
0.0
  0
ARC
  5
23DC
  8
SAPA_PROFIL
 10
-28.250555278801759
 20
153.99999985644939
 30
0.0
 40
130.00000000004709
 50
89.999999999997414
 51
96.399202985455105
  0
ARC
  5
23DD
  8
SAPA_PROFIL
 10
-42.650555278058199
 20
282.39501533545479
 30
0.0
 40
0.8000000006948767
 50
96.399203033361033
 51
176.8480294721511
  0
ARC
  5
23DE
  8
SAPA_PROFIL
 10
-43.649042485745369
 20
282.44999985577238
 30
0.0
 40
0.1999999999998849
 50
270.00000000024022
 51
356.8480294251541
  0
LINE
  5
23DF
  8
SAPA_PROFIL
 10
-43.64904248574453
 20
282.2499998557725
 30
0.0
 11
-44.550555278804268
 21
282.2499998557725
 31
0.0
  0
ARC
  5
23E0
  8
SAPA_PROFIL
 10
-44.550555278802449
 20
282.44999985577152
 30
0.0
 40
0.1999999999989086
 50
179.9999999963523
 51
269.99999999948091
  0
LINE
  5
23E1
  8
SAPA_PROFIL
 10
-44.750555278801357
 20
282.4499998557842
 30
0.0
 11
-44.75055527881409
 21
282.67605892425507
 31
0.0
  0
ARC
  5
23E2
  8
SAPA_PROFIL
 10
-42.750555278812222
 20
282.67605892423501
 30
0.0
 40
2.0000000000018678
 50
96.504500094059665
 51
179.9999999994219
  0
ARC
  5
23E3
  8
SAPA_PROFIL
 10
-28.250555279710241
 20
155.49999986089901
 30
0.0
 40
129.99999999552941
 50
96.180341495190291
 51
96.504500093839042
  0
ARC
  5
23E4
  8
SAPA_PROFIL
 10
-42.353786102432537
 20
285.73862270073812
 30
0.0
 40
1.0000000001073219
 50
276.18034150012028
 51
344.90404966718592
  0
ARC
  5
23E5
  8
SAPA_PROFIL
 10
-89.662847106367835
 20
298.49999985650811
 30
0.0
 40
49.999999999963222
 50
344.90404965994452
 51
13.21020964757531
  0
ARC
  5
23E6
  8
SAPA_PROFIL
 10
-31.250555278814399
 20
312.21146088180677
 30
0.0
 40
9.9999999999996945
 50
180.00000000005241
 51
193.21020964720941
  0
LINE
  5
23E7
  8
SAPA_PROFIL
 10
-41.25055527881409
 20
312.21146088179762
 30
0.0
 11
-41.25055527881409
 21
312.99999985650737
 31
0.0
  0
ARC
  5
23E8
  8
SAPA_PROFIL
 10
-40.250555278814083
 20
312.99999985650737
 30
0.0
 40
1.0
 50
90.0
 51
180.0
  0
LINE
  5
23E9
  8
SAPA_PROFIL
 10
-40.250555278814083
 20
313.99999985650737
 30
0.0
 11
-37.25055527881409
 21
313.99999985650737
 31
0.0
  0
ARC
  5
23EA
  8
SAPA_PROFIL
 10
-37.25055527881409
 20
312.99999985650737
 30
0.0
 40
1.0
 50
0.0
 51
90.0
  0
LINE
  5
23EB
  8
SAPA_FOGBAND
 10
8.1741123148451607
 20
229.59640408786871
 30
0.0
 11
6.957618577468792
 21
229.25560872789379
 31
0.0
  0
ARC
  5
23EC
  8
SAPA_FOGBAND
 10
6.552978687388439
 20
230.70000014276491
 30
0.0
 40
1.4999999999992391
 50
237.26456131185731
 51
285.6499815965995
  0
ARC
  5
23ED
  8
SAPA_FOGBAND
 10
11.118364408940559
 20
234.53483694452149
 30
0.0
 40
7.4082647908884773
 50
173.43189468980589
 51
223.4689656220165
  0
ARC
  5
23EE
  8
SAPA_FOGBAND
 10
4.0494447220270189
 20
235.4562583021511
 30
0.0
 40
0.3000000008174798
 50
120.5000000000235
 51
194.2869033725045
  0
LINE
  5
23EF
  8
SAPA_FOGBAND
 10
3.8971832127238031
 20
235.7147470509878
 30
0.0
 11
4.6846015322382746
 21
236.17857188793619
 31
0.0
  0
ARC
  5
23F0
  8
SAPA_FOGBAND
 10
4.4308323507582994
 20
236.60938646815731
 30
0.0
 40
0.5000000000000716
 50
300.4999999999452
 51
349.99999999994361
  0
LINE
  5
23F1
  8
SAPA_FOGBAND
 10
4.9232362272643959
 20
236.52256237932329
 30
0.0
 11
3.7494447212095561
 21
243.61665861394451
 31
0.0
  0
ARC
  5
23F2
  8
SAPA_FOGBAND
 10
4.2418485977155216
 20
243.529834525111
 30
0.0
 40
0.4999999999998767
 50
108.4999999999887
 51
169.999999999989
  0
LINE
  5
23F3
  8
SAPA_FOGBAND
 10
4.0831962695131088
 20
244.00399635271401
 30
0.0
 11
10.6032884463259
 21
245.20287216715789
 31
0.0
  0
ARC
  5
23F4
  8
SAPA_FOGBAND
 10
10.349444721201809
 20
245.961531091323
 30
0.0
 40
0.800000000000116
 50
288.49999999999858
 51
359.99999999999801
  0
LINE
  5
23F5
  8
SAPA_FOGBAND
 10
11.14944472120191
 20
245.961531091323
 30
0.0
 11
11.14944472120191
 21
265.03846919420829
 31
0.0
  0
ARC
  5
23F6
  8
SAPA_FOGBAND
 10
10.349444721201809
 20
265.03846919420829
 30
0.0
 40
0.800000000000109
 50
0.0
 51
71.500000000000384
  0
LINE
  5
23F7
  8
SAPA_FOGBAND
 10
10.6032884463259
 20
265.79712811837339
 30
0.0
 11
4.0315413647579126
 21
266.9960039328173
 31
0.0
  0
ARC
  5
23F8
  8
SAPA_FOGBAND
 10
4.1901936929603201
 20
267.47016576042029
 30
0.0
 40
0.499999999999846
 50
190.00000000000779
 51
251.50000000001091
  0
LINE
  5
23F9
  8
SAPA_FOGBAND
 10
3.6977898164543599
 20
267.38334167158678
 30
0.0
 11
4.9232362272643959
 21
274.47743790620802
 31
0.0
  0
ARC
  5
23FA
  8
SAPA_FOGBAND
 10
4.430832350758255
 20
274.3906138173752
 30
0.0
 40
0.4999999999999158
 50
9.9999999999208704
 51
59.499999999917762
  0
LINE
  5
23FB
  8
SAPA_FOGBAND
 10
4.6846015322391841
 20
274.82142839759558
 30
0.0
 11
3.8971832127238031
 21
275.28525323454392
 31
0.0
  0
ARC
  5
23FC
  8
SAPA_FOGBAND
 10
4.0494447220266903
 20
275.54374198338041
 30
0.0
 40
0.3000000008170859
 50
165.71309662751671
 51
239.50000000000591
  0
ARC
  5
23FD
  8
SAPA_FOGBAND
 10
11.11836440894051
 20
276.46516334100983
 30
0.0
 40
7.4082647908884232
 50
136.53103437798319
 51
186.568105310194
  0
ARC
  5
23FE
  8
SAPA_FOGBAND
 10
6.5529786873884417
 20
280.30000014276641
 30
0.0
 40
1.499999999999265
 50
74.350018403400938
 51
122.7354386881422
  0
LINE
  5
23FF
  8
SAPA_FOGBAND
 10
6.957618577468792
 20
281.74439155763758
 30
0.0
 11
8.1741123148451607
 21
281.40359619766258
 31
0.0
  0
ARC
  5
2400
  8
SAPA_FOGBAND
 10
8.2280643001889757
 20
281.59618171964547
 30
0.0
 40
0.1999999999999053
 50
254.35001840347019
 51
17.35001840346488
  0
LINE
  5
2401
  8
SAPA_FOGBAND
 10
8.4189644665232208
 20
281.65582337030611
 30
0.0
 11
7.5676443885324707
 21
284.38071684144478
 31
0.0
  0
ARC
  5
2402
  8
SAPA_FOGBAND
 10
7.9494447212014556
 20
284.50000014276537
 30
0.0
 40
0.4000000000001087
 50
31.35001840338958
 51
197.3500184033816
  0
LINE
  5
2403
  8
SAPA_FOGBAND
 10
8.2910467099120524
 20
284.70810608047282
 30
0.0
 11
11.52558274441094
 21
279.39867592142423
 31
0.0
  0
ARC
  5
2404
  8
SAPA_FOGBAND
 10
15.795607603291749
 20
282.0000001427656
 30
0.0
 40
4.9999999999997646
 50
211.35001840339049
 51
269.99999999999977
  0
LINE
  5
2405
  8
SAPA_FOGBAND
 10
15.795607603291719
 20
277.00000014276588
 30
0.0
 11
20.17881640193923
 21
277.00000014276588
 31
0.0
  0
ARC
  5
2406
  8
SAPA_FOGBAND
 10
20.178816401939859
 20
282.00000014276623
 30
0.0
 40
5.0000000000002842
 50
269.99999999999278
 51
323.00001840338359
  0
LINE
  5
2407
  8
SAPA_FOGBAND
 10
24.171994918690189
 20
278.99092630961309
 30
0.0
 11
28.55012686952637
 21
284.80090752608089
 31
0.0
  0
ARC
  5
2408
  8
SAPA_FOGBAND
 10
28.949444721201669
 20
284.50000014276583
 30
0.0
 40
0.5000000000000949
 50
326.50000000003178
 51
143.00001840342429
  0
LINE
  5
2409
  8
SAPA_FOGBAND
 10
29.366387632235501
 20
284.22403165011002
 30
0.0
 11
24.984243611848122
 21
277.60333424061918
 31
0.0
  0
ARC
  5
240A
  8
SAPA_FOGBAND
 10
25.401186522881599
 20
277.3273657479632
 30
0.0
 40
0.4999999999999191
 50
146.49999999999321
 51
254.99999999999309
  0
LINE
  5
240B
  8
SAPA_FOGBAND
 10
25.27177700033031
 20
276.84440283481882
 30
0.0
 11
29.078854243753309
 21
275.8242995619209
 31
0.0
  0
ARC
  5
240C
  8
SAPA_FOGBAND
 10
28.949444721202081
 20
275.34133664877641
 30
0.0
 40
0.5000000000000071
 50
0.0
 51
75.0000000000028
  0
LINE
  5
240D
  8
SAPA_FOGBAND
 10
29.449444721202099
 20
275.34133664877641
 30
0.0
 11
29.449444721202099
 21
270.0751039118706
 31
0.0
  0
ARC
  5
240E
  8
SAPA_FOGBAND
 10
28.949444721202191
 20
270.07510391187083
 30
0.0
 40
0.4999999999999112
 50
289.99999999998192
 51
359.9999999999805
  0
LINE
  5
240F
  8
SAPA_FOGBAND
 10
29.120454792864852
 20
269.60525760147789
 30
0.0
 11
25.078434649538622
 21
268.13408258300268
 31
0.0
  0
ARC
  5
2410
  8
SAPA_FOGBAND
 10
25.249444721201609
 20
267.66423627260963
 30
0.0
 40
0.5000000000002501
 50
110.0000000000078
 51
180.00000000000651
  0
LINE
  5
2411
  8
SAPA_FOGBAND
 10
24.749444721201371
 20
267.66423627260951
 30
0.0
 11
24.749444721201371
 21
265.19064041705929
 31
0.0
  0
ARC
  5
2412
  8
SAPA_FOGBAND
 10
24.249444721201431
 20
265.19064041705923
 30
0.0
 40
0.4999999999999432
 50
344.50000000001262
 51
0.0000000000130276
  0
LINE
  5
2413
  8
SAPA_FOGBAND
 10
24.731259947805711
 20
265.05702122902011
 30
0.0
 11
24.460355585239309
 21
264.08017165558908
 31
0.0
  0
ARC
  5
2414
  8
SAPA_FOGBAND
 10
24.749444721201598
 20
264.00000014276549
 30
0.0
 40
0.2999999999997603
 50
164.49999999995231
 51
269.99999999995589
  0
LINE
  5
2415
  8
SAPA_FOGBAND
 10
24.749444721201371
 20
263.7000001427657
 30
0.0
 11
26.449444721201189
 21
263.7000001427657
 31
0.0
  0
ARC
  5
2416
  8
SAPA_FOGBAND
 10
26.44944472120142
 20
263.9000001427662
 30
0.0
 40
0.2000000000005002
 50
269.99999999993491
 51
359.99999999993491
  0
LINE
  5
2417
  8
SAPA_FOGBAND
 10
26.64944472120192
 20
263.90000014276598
 30
0.0
 11
26.64944472120192
 21
264.7000001427657
 31
0.0
  0
ARC
  5
2418
  8
SAPA_FOGBAND
 10
26.849444721201969
 20
264.70000014276582
 30
0.0
 40
0.2000000000000561
 50
45.000000000025182
 51
180.00000000003249
  0
LINE
  5
2419
  8
SAPA_FOGBAND
 10
26.99086607743925
 20
264.84142149900322
 30
0.0
 11
29.302998111795429
 21
262.52928946464698
 31
0.0
  0
ARC
  5
241A
  8
SAPA_FOGBAND
 10
28.94944472120206
 20
262.17573607405382
 30
0.0
 40
0.5000000000000318
 50
359.99999999998698
 51
44.999999999987622
  0
LINE
  5
241B
  8
SAPA_FOGBAND
 10
29.449444721202099
 20
262.1757360740537
 30
0.0
 11
29.449444721202099
 21
248.82426421147761
 31
0.0
  0
ARC
  5
241C
  8
SAPA_FOGBAND
 10
28.949444721202148
 20
248.82426421147881
 30
0.0
 40
0.4999999999999467
 50
314.99999999985982
 51
359.99999999985988
  0
LINE
  5
241D
  8
SAPA_FOGBAND
 10
29.302998111794519
 20
248.4707108208847
 30
0.0
 11
26.99086607743925
 21
246.15857878652849
 31
0.0
  0
ARC
  5
241E
  8
SAPA_FOGBAND
 10
26.849444721201881
 20
246.3000001427657
 30
0.0
 40
0.1999999999999493
 50
180.00000000003249
 51
315.0000000000403
  0
LINE
  5
241F
  8
SAPA_FOGBAND
 10
26.64944472120192
 20
246.30000014276561
 30
0.0
 11
26.64944472120192
 21
247.1000001427654
 31
0.0
  0
ARC
  5
2420
  8
SAPA_FOGBAND
 10
26.44944472120142
 20
247.10000014276511
 30
0.0
 40
0.2000000000005002
 50
0.0000000000651378
 51
90.000000000065128
  0
LINE
  5
2421
  8
SAPA_FOGBAND
 10
26.449444721201189
 20
247.30000014276561
 30
0.0
 11
24.749444721201371
 21
247.30000014276561
 31
0.0
  0
ARC
  5
2422
  8
SAPA_FOGBAND
 10
24.749444721201598
 20
247.00000014276591
 30
0.0
 40
0.2999999999997556
 50
90.000000000043414
 51
195.5000000000426
  0
LINE
  5
2423
  8
SAPA_FOGBAND
 10
24.460355585239309
 20
246.9198286299422
 30
0.0
 11
24.731259947805711
 21
245.94297905651121
 31
0.0
  0
ARC
  5
2424
  8
SAPA_FOGBAND
 10
24.249444721201421
 20
245.8093598684722
 30
0.0
 40
0.4999999999999501
 50
359.99999999998698
 51
15.499999999987031
  0
LINE
  5
2425
  8
SAPA_FOGBAND
 10
24.749444721201371
 20
245.809359868472
 30
0.0
 11
24.749444721201371
 21
243.3357640129218
 31
0.0
  0
ARC
  5
2426
  8
SAPA_FOGBAND
 10
25.249444721201279
 20
243.33576401292191
 30
0.0
 40
0.4999999999999077
 50
180.0000000000162
 51
250.00000000001739
  0
LINE
  5
2427
  8
SAPA_FOGBAND
 10
25.078434649538622
 20
242.865917702529
 30
0.0
 11
29.120454792864852
 21
241.39474268405391
 31
0.0
  0
ARC
  5
2428
  8
SAPA_FOGBAND
 10
28.949444721201409
 20
240.9248963736614
 30
0.0
 40
0.4999999999997926
 50
359.9999999999186
 51
69.999999999917222
  0
LINE
  5
2429
  8
SAPA_FOGBAND
 10
29.449444721201189
 20
240.92489637366069
 30
0.0
 11
29.449444721202099
 21
235.65866363675539
 31
0.0
  0
ARC
  5
242A
  8
SAPA_FOGBAND
 10
28.949444721202081
 20
235.65866363675539
 30
0.0
 40
0.5000000000000249
 50
284.99999999999642
 51
359.99999999999682
  0
LINE
  5
242B
  8
SAPA_FOGBAND
 10
29.078854243753309
 20
235.17570072361079
 30
0.0
 11
25.27177700033031
 21
234.15559745071261
 31
0.0
  0
ARC
  5
242C
  8
SAPA_FOGBAND
 10
25.401186522881599
 20
233.67263453756809
 30
0.0
 40
0.4999999999999119
 50
105.00000000000681
 51
213.50000000000679
  0
LINE
  5
242D
  8
SAPA_FOGBAND
 10
24.984243611848122
 20
233.39666604491211
 30
0.0
 11
25.918873831537208
 21
231.984593815989
 31
0.0
  0
ARC
  5
242E
  8
SAPA_FOGBAND
 10
21.74944472120092
 20
229.2249088894286
 30
0.0
 40
5.0000000000004503
 50
359.99999999999841
 51
33.499999999998423
  0
LINE
  5
242F
  8
SAPA_FOGBAND
 10
26.749444721201371
 20
229.22490888942841
 30
0.0
 11
26.749444721201371
 21
225.9883582162399
 31
0.0
  0
ARC
  5
2430
  8
SAPA_FOGBAND
 10
26.249444721201542
 20
225.9883582162399
 30
0.0
 40
0.4999999999998366
 50
183.49998159660521
 51
359.99999999999682
  0
LINE
  5
2431
  8
SAPA_FOGBAND
 10
25.750377312186401
 20
225.95783410677291
 30
0.0
 11
25.54564220057296
 21
229.3052412374366
 31
0.0
  0
ARC
  5
2432
  8
SAPA_FOGBAND
 10
20.554968110420109
 20
229.000000142766
 30
0.0
 40
4.9999999999998552
 50
3.4999815966045258
 51
89.999999999995225
  0
LINE
  5
2433
  8
SAPA_FOGBAND
 10
20.554968110420528
 20
234.00000014276591
 30
0.0
 11
15.795607603291719
 21
234.00000014276591
 31
0.0
  0
ARC
  5
2434
  8
SAPA_FOGBAND
 10
15.79560760329214
 20
229.00000014276591
 30
0.0
 40
4.9999999999999707
 50
90.000000000004789
 51
148.6499815966144
  0
LINE
  5
2435
  8
SAPA_FOGBAND
 10
11.52558274441094
 20
231.60132436410711
 30
0.0
 11
8.2910467099120524
 21
226.2918942050585
 31
0.0
  0
ARC
  5
2436
  8
SAPA_FOGBAND
 10
7.9494447212014538
 20
226.50000014276591
 30
0.0
 40
0.400000000000118
 50
162.6499815966144
 51
328.649981596614
  0
LINE
  5
2437
  8
SAPA_FOGBAND
 10
7.5676443885324707
 20
226.61928344408651
 30
0.0
 11
8.4189644665232208
 21
229.34417691522569
 31
0.0
  0
ARC
  5
2438
  8
SAPA_FOGBAND
 10
8.2280643001890983
 20
229.40381856588601
 30
0.0
 40
0.1999999999997097
 50
342.6499815965791
 51
105.6499815965835
  0
LINE
  5
2439
  8
SAPA_FOGBAND
 10
25.152050764230129
 20
241.03002141480991
 30
0.0
 11
27.552050764198839
 21
240.15649285258201
 31
0.0
  0
ARC
  5
243A
  8
SAPA_FOGBAND
 10
27.449444721201139
 20
239.87458506634599
 30
0.0
 40
0.3000000000002299
 50
0.0000000000162844
 51
70.000000000016954
  0
LINE
  5
243B
  8
SAPA_FOGBAND
 10
27.749444721201371
 20
239.8745850663461
 30
0.0
 11
27.749444721201371
 21
236.8096541187235
 31
0.0
  0
ARC
  5
243C
  8
SAPA_FOGBAND
 10
27.449444721201829
 20
236.8096541187231
 30
0.0
 40
0.2999999999995424
 50
285.00000000007151
 51
0.0000000000705659
  0
LINE
  5
243D
  8
SAPA_FOGBAND
 10
27.52709043473283
 20
236.51987637083701
 30
0.0
 11
25.1270904347632
 21
235.87679830901041
 31
0.0
  0
ARC
  5
243E
  8
SAPA_FOGBAND
 10
25.049444721232479
 20
236.1665760568973
 30
0.0
 40
0.3000000000001815
 50
179.99999999998369
 51
284.99999999998522
  0
LINE
  5
243F
  8
SAPA_FOGBAND
 10
24.749444721232301
 20
236.16657605689741
 30
0.0
 11
24.749444721232301
 21
240.74811362857389
 31
0.0
  0
ARC
  5
2440
  8
SAPA_FOGBAND
 10
25.049444721232419
 20
240.748113628574
 30
0.0
 40
0.3000000000001215
 50
70.000000000006978
 51
180.0000000000054
  0
ARC
  5
2441
  8
SAPA_FOGBAND
 10
27.649444721215559
 20
254.2500001427818
 30
0.0
 40
0.4999999999863576
 50
0.0
 51
90.0
  0
LINE
  5
2442
  8
SAPA_FOGBAND
 10
28.14944472120192
 20
254.2500001427818
 30
0.0
 11
28.14944472120192
 21
249.5000001427768
 31
0.0
  0
ARC
  5
2443
  8
SAPA_FOGBAND
 10
27.64944472119123
 20
249.500000142777
 30
0.0
 40
0.5000000000106866
 50
269.99999999997391
 51
359.99999999997402
  0
LINE
  5
2444
  8
SAPA_FOGBAND
 10
27.649444721190999
 20
249.00000014276631
 30
0.0
 11
24.949444721193
 21
249.00000014276631
 31
0.0
  0
ARC
  5
2445
  8
SAPA_FOGBAND
 10
24.949444721193
 20
249.50000014276361
 30
0.0
 40
0.4999999999972716
 50
180.0
 51
270.0
  0
LINE
  5
2446
  8
SAPA_FOGBAND
 10
24.449444721195729
 20
249.50000014276361
 30
0.0
 11
24.449444721195729
 21
254.25000014277271
 31
0.0
  0
ARC
  5
2447
  8
SAPA_FOGBAND
 10
24.949444721191188
 20
254.25000014277271
 30
0.0
 40
0.4999999999954526
 50
90.0
 51
180.0
  0
LINE
  5
2448
  8
SAPA_FOGBAND
 10
24.949444721191188
 20
254.75000014276819
 30
0.0
 11
27.649444721215559
 21
254.75000014276819
 31
0.0
  0
ARC
  5
2449
  8
SAPA_FOGBAND
 10
27.649444721191909
 20
261.50000014275503
 30
0.0
 40
0.5000000000100046
 50
0.0
 51
89.999999999999588
  0
LINE
  5
244A
  8
SAPA_FOGBAND
 10
28.14944472120192
 20
261.50000014275503
 30
0.0
 11
28.14944472120192
 21
256.75000014274951
 31
0.0
  0
ARC
  5
244B
  8
SAPA_FOGBAND
 10
27.649444721215559
 20
256.75000014274951
 30
0.0
 40
0.4999999999863576
 50
270.0
 51
0.0
  0
LINE
  5
244C
  8
SAPA_FOGBAND
 10
27.649444721215559
 20
256.25000014276321
 30
0.0
 11
24.949444721191188
 21
256.25000014276321
 31
0.0
  0
ARC
  5
244D
  8
SAPA_FOGBAND
 10
24.949444721191188
 20
256.75000014275861
 30
0.0
 40
0.4999999999954526
 50
180.0
 51
270.0
  0
LINE
  5
244E
  8
SAPA_FOGBAND
 10
24.449444721195729
 20
256.75000014275861
 30
0.0
 11
24.449444721195729
 21
261.5000001427677
 31
0.0
  0
ARC
  5
244F
  8
SAPA_FOGBAND
 10
24.949444721193
 20
261.5000001427677
 30
0.0
 40
0.4999999999972716
 50
90.0
 51
180.0
  0
LINE
  5
2450
  8
SAPA_FOGBAND
 10
24.949444721193
 20
262.00000014276497
 30
0.0
 11
27.649444721191919
 21
262.00000014276497
 31
0.0
  0
LINE
  5
2451
  8
SAPA_FOGBAND
 10
9.9930102561613694
 20
267.90653264020722
 30
0.0
 11
4.5800010673112856
 21
267.76386907105478
 31
0.0
  0
ARC
  5
2452
  8
SAPA_FOGBAND
 10
4.6112879603194239
 20
267.96140673917409
 30
0.0
 40
0.200000000000237
 50
189.9999999999869
 51
260.99999999998408
  0
LINE
  5
2453
  8
SAPA_FOGBAND
 10
4.4143264097167503
 20
267.92667710364071
 30
0.0
 11
5.711082429674434
 21
274.61635644834161
 31
0.0
  0
ARC
  5
2454
  8
SAPA_FOGBAND
 10
4.4308323507584157
 20
274.3906138173748
 30
0.0
 40
1.3000000000000991
 50
9.9999999999875886
 51
59.499999999988603
  0
LINE
  5
2455
  8
SAPA_FOGBAND
 10
5.0906322226076091
 20
275.51073172594869
 30
0.0
 11
4.7841721545967166
 21
275.69125050174188
 31
0.0
  0
ARC
  5
2456
  8
SAPA_FOGBAND
 10
4.8856798271890209
 20
275.86357633382971
 30
0.0
 40
0.1999999999996296
 50
162.1795987422806
 51
239.4999999998831
  0
ARC
  5
2457
  8
SAPA_FOGBAND
 10
10.19836484867877
 20
276.77091137175182
 30
0.0
 40
5.5677574240903356
 50
137.67181654101199
 51
188.7410674266213
  0
ARC
  5
2458
  8
SAPA_FOGBAND
 10
6.2841740467662293
 20
280.17488969747149
 30
0.0
 40
0.4000000000000231
 50
64.350018403395453
 51
120.3399839076104
  0
LINE
  5
2459
  8
SAPA_FOGBAND
 10
6.4573229635554981
 20
280.53547179993188
 30
0.0
 11
7.4099480338520598
 21
280.07802813341891
 31
0.0
  0
ARC
  5
245A
  8
SAPA_FOGBAND
 10
6.9770757418796494
 20
279.17657287726809
 30
0.0
 40
0.9999999999996994
 50
31.35001840343477
 51
64.350018403434035
  0
LINE
  5
245B
  8
SAPA_FOGBAND
 10
7.8310807136551821
 20
279.69683772153689
 30
0.0
 11
11.003449692977711
 21
274.48945361611982
 31
0.0
  0
ARC
  5
245C
  8
SAPA_FOGBAND
 10
10.14944472120186
 20
273.9691887718509
 30
0.0
 40
1.0000000000000431
 50
0.0000000000423395
 51
31.350018403433818
  0
LINE
  5
245D
  8
SAPA_FOGBAND
 10
11.14944472120191
 20
273.96918877185158
 30
0.0
 11
11.14944472120191
 21
268.89422098080217
 31
0.0
  0
ARC
  5
245E
  8
SAPA_FOGBAND
 10
10.14944472120181
 20
268.89422098080229
 30
0.0
 40
1.0000000000001059
 50
260.99999999998857
 51
359.99999999999022
  0
ARC
  5
245F
  8
SAPA_FOGBAND
 10
20.74944472119137
 20
273.00000013979962
 30
0.0
 40
1.800000000000181
 50
0.0
 51
89.999999999999886
  0
LINE
  5
2460
  8
SAPA_FOGBAND
 10
22.549444721191549
 20
273.00000013979962
 30
0.0
 11
22.549444721191549
 21
264.60352858616881
 31
0.0
  0
ARC
  5
2461
  8
SAPA_FOGBAND
 10
22.049444721191168
 20
264.60352858616881
 30
0.0
 40
0.5000000000003803
 50
251.4999999999977
 51
0.0
  0
LINE
  5
2462
  8
SAPA_FOGBAND
 10
21.890792392988491
 20
264.12936675856531
 30
0.0
 11
13.390792392999399
 21
266.97342697432919
 31
0.0
  0
ARC
  5
2463
  8
SAPA_FOGBAND
 10
13.549444721201979
 20
267.4475888019328
 30
0.0
 40
0.5000000000004418
 50
180.00000000001299
 51
251.50000000001231
  0
LINE
  5
2464
  8
SAPA_FOGBAND
 10
13.049444721201549
 20
267.44758880193262
 30
0.0
 11
13.049444721201549
 21
273.00000013979962
 31
0.0
  0
ARC
  5
2465
  8
SAPA_FOGBAND
 10
14.84944472120173
 20
273.00000013979962
 30
0.0
 40
1.800000000000181
 50
90.0
 51
180.0
  0
LINE
  5
2466
  8
SAPA_FOGBAND
 10
14.84944472120173
 20
274.80000013979969
 30
0.0
 11
20.74944472119137
 21
274.80000013979969
 31
0.0
  0
LINE
  5
2467
  8
SAPA_FOGBAND
 10
13.708097049404611
 20
264.75827369183372
 30
0.0
 11
22.20809704939461
 21
261.91421347606928
 31
0.0
  0
ARC
  5
2468
  8
SAPA_FOGBAND
 10
22.049444721192199
 20
261.44005164846692
 30
0.0
 40
0.4999999999993613
 50
359.99999999999352
 51
71.499999999992255
  0
LINE
  5
2469
  8
SAPA_FOGBAND
 10
22.549444721191549
 20
261.44005164846681
 30
0.0
 11
22.549444721191549
 21
257.00000014276321
 31
0.0
  0
ARC
  5
246A
  8
SAPA_FOGBAND
 10
22.049444721191549
 20
257.00000014276321
 30
0.0
 40
0.5
 50
270.0
 51
0.0
  0
LINE
  5
246B
  8
SAPA_FOGBAND
 10
22.049444721191549
 20
256.50000014276321
 30
0.0
 11
13.549444721201549
 21
256.50000014276321
 31
0.0
  0
ARC
  5
246C
  8
SAPA_FOGBAND
 10
13.54944472120156
 20
257.00000014276321
 30
0.0
 40
0.5
 50
180.0
 51
269.9999999999996
  0
LINE
  5
246D
  8
SAPA_FOGBAND
 10
13.049444721201549
 20
257.00000014276321
 30
0.0
 11
13.049444721201549
 21
264.28411186423068
 31
0.0
  0
ARC
  5
246E
  8
SAPA_FOGBAND
 10
13.54944472120177
 20
264.28411186423051
 30
0.0
 40
0.5000000000002151
 50
71.49999999997145
 51
179.99999999997391
  0
ARC
  5
246F
  8
SAPA_FOGBAND
 10
22.049444721191549
 20
254.00000014276861
 30
0.0
 40
0.5
 50
0.0
 51
90.0
  0
LINE
  5
2470
  8
SAPA_FOGBAND
 10
22.549444721191549
 20
254.00000014276861
 30
0.0
 11
22.549444721191549
 21
249.55994863706451
 31
0.0
  0
ARC
  5
2471
  8
SAPA_FOGBAND
 10
22.049444721192518
 20
249.55994863706471
 30
0.0
 40
0.4999999999990266
 50
288.49999999998232
 51
359.99999999998369
  0
LINE
  5
2472
  8
SAPA_FOGBAND
 10
22.20809704939461
 20
249.08578680946241
 30
0.0
 11
13.708097049404611
 21
246.2417265936981
 31
0.0
  0
ARC
  5
2473
  8
SAPA_FOGBAND
 10
13.54944472120177
 20
246.71588842130129
 30
0.0
 40
0.5000000000002276
 50
180.00000000002919
 51
288.50000000002728
  0
LINE
  5
2474
  8
SAPA_FOGBAND
 10
13.049444721201549
 20
246.71588842130109
 30
0.0
 11
13.049444721201549
 21
254.00000014276861
 31
0.0
  0
ARC
  5
2475
  8
SAPA_FOGBAND
 10
13.549444721201549
 20
254.00000014276861
 30
0.0
 40
0.5
 50
90.0
 51
180.0
  0
LINE
  5
2476
  8
SAPA_FOGBAND
 10
13.549444721201549
 20
254.50000014276861
 30
0.0
 11
22.049444721191549
 21
254.50000014276861
 31
0.0
  0
ARC
  5
2477
  8
SAPA_FOGBAND
 10
22.049444721191328
 20
246.39647169936279
 30
0.0
 40
0.5000000000002276
 50
0.000000000029312
 51
108.5000000000273
  0
LINE
  5
2478
  8
SAPA_FOGBAND
 10
22.549444721191549
 20
246.39647169936299
 30
0.0
 11
22.549444721191549
 21
238.0000001457318
 31
0.0
  0
ARC
  5
2479
  8
SAPA_FOGBAND
 10
20.74944472119137
 20
238.0000001457318
 30
0.0
 40
1.8000000000001779
 50
269.99999999999989
 51
0.0
  0
LINE
  5
247A
  8
SAPA_FOGBAND
 10
20.74944472119137
 20
236.20000014573159
 30
0.0
 11
14.84944472120173
 21
236.20000014573159
 31
0.0
  0
ARC
  5
247B
  8
SAPA_FOGBAND
 10
14.84944472120173
 20
238.0000001457318
 30
0.0
 40
1.800000000000181
 50
180.0
 51
270.0
  0
LINE
  5
247C
  8
SAPA_FOGBAND
 10
13.049444721201549
 20
238.0000001457318
 30
0.0
 11
13.049444721201549
 21
243.55241148359869
 31
0.0
  0
ARC
  5
247D
  8
SAPA_FOGBAND
 10
13.549444721201979
 20
243.5524114835986
 30
0.0
 40
0.5000000000004281
 50
108.4999999999872
 51
179.99999999998701
  0
LINE
  5
247E
  8
SAPA_FOGBAND
 10
13.390792392999399
 20
244.0265733112021
 30
0.0
 11
21.890792392988491
 21
246.870633526966
 31
0.0
  0
ARC
  5
247F
  8
SAPA_FOGBAND
 10
6.2841740467662266
 20
230.8251105880598
 30
0.0
 40
0.4000000000000225
 50
239.66001609238981
 51
295.64998159660479
  0
ARC
  5
2480
  8
SAPA_FOGBAND
 10
10.19836484867835
 20
234.2290889137804
 30
0.0
 40
5.5677574240906793
 50
171.2589325733893
 51
222.32818345899821
  0
ARC
  5
2481
  8
SAPA_FOGBAND
 10
4.8856798271885751
 20
235.136423951701
 30
0.0
 40
0.1999999999998909
 50
120.4999999999241
 51
197.82040125752371
  0
LINE
  5
2482
  8
SAPA_FOGBAND
 10
4.7841721545967166
 20
235.30874978378941
 30
0.0
 11
5.0906322226076091
 21
235.489268559583
 31
0.0
  0
ARC
  5
2483
  8
SAPA_FOGBAND
 10
4.4308323507588661
 20
236.6093864681568
 30
0.0
 40
1.2999999999997081
 50
300.49999999999881
 51
349.9999999999979
  0
LINE
  5
2484
  8
SAPA_FOGBAND
 10
5.711082429674434
 20
236.38364383718971
 30
0.0
 11
4.4659813144719456
 21
243.07332318189111
 31
0.0
  0
ARC
  5
2485
  8
SAPA_FOGBAND
 10
4.6629428650743048
 20
243.03859354635739
 30
0.0
 40
0.1999999999999575
 50
98.999999999936918
 51
169.99999999993321
  0
LINE
  5
2486
  8
SAPA_FOGBAND
 10
4.6316559720664818
 20
243.2361312144765
 30
0.0
 11
9.9930102561613694
 21
243.09346764532421
 31
0.0
  0
ARC
  5
2487
  8
SAPA_FOGBAND
 10
10.14944472120181
 20
242.10577930472891
 30
0.0
 40
1.000000000000107
 50
0.0000000000113991
 51
99.000000000011212
  0
LINE
  5
2488
  8
SAPA_FOGBAND
 10
11.14944472120191
 20
242.1057793047292
 30
0.0
 11
11.14944472120191
 21
237.03081151367971
 31
0.0
  0
ARC
  5
2489
  8
SAPA_FOGBAND
 10
10.149444721201871
 20
237.0308115136805
 30
0.0
 40
1.0000000000000491
 50
328.64998159656608
 51
359.99999999995759
  0
LINE
  5
248A
  8
SAPA_FOGBAND
 10
11.003449692977711
 20
236.5105466694115
 30
0.0
 11
7.8310807136551821
 21
231.3031625639949
 31
0.0
  0
ARC
  5
248B
  8
SAPA_FOGBAND
 10
6.9770757418788962
 20
231.8234274082634
 30
0.0
 40
1.0000000000001841
 50
295.64998159660058
 51
328.64998159660161
  0
LINE
  5
248C
  8
SAPA_FOGBAND
 10
7.4099480338520598
 20
230.9219721521124
 30
0.0
 11
6.4573229635554981
 21
230.4645284855994
 31
0.0
  0
LINE
  5
248D
  8
SAPA_GLAS
 10
-43.12584378118369
 20
229.25954944741781
 30
0.0
 11
-42.885393371911022
 21
229.49999985669049
 31
0.0
1001
ACAD
1010
0.0
1020
0.0
1030
0.0
  0
LINE
  5
248E
  8
SAPA_GLAS
 10
-42.512861357129403
 20
228.74999985633849
 30
0.0
 11
-41.7628613567774
 21
229.49999985669041
 31
0.0
1001
ACAD
1010
0.0
1020
0.0
1030
0.0
  0
LINE
  5
248F
  8
SAPA_GLAS
 10
-41.39032934199453
 20
228.74999985633971
 30
0.0
 11
-40.640329341643749
 21
229.49999985669041
 31
0.0
1001
ACAD
1010
0.0
1020
0.0
1030
0.0
  0
LINE
  5
2490
  8
SAPA_GLAS
 10
-40.26779732685965
 20
228.74999985634091
 30
0.0
 11
-39.51779732651012
 21
229.49999985669041
 31
0.0
1001
ACAD
1010
0.0
1020
0.0
1030
0.0
  0
LINE
  5
2491
  8
SAPA_GLAS
 10
-39.145265311724792
 20
228.7499998563421
 30
0.0
 11
-38.395265311376463
 21
229.49999985669041
 31
0.0
1001
ACAD
1010
0.0
1020
0.0
1030
0.0
  0
LINE
  5
2492
  8
SAPA_GLAS
 10
-38.022733296589948
 20
228.74999985634341
 30
0.0
 11
-37.272733296242819
 21
229.49999985669041
 31
0.0
1001
ACAD
1010
0.0
1020
0.0
1030
0.0
  0
LINE
  5
2493
  8
SAPA_GLAS
 10
-36.900201281455082
 20
228.7499998563446
 30
0.0
 11
-36.150201281109183
 21
229.49999985669041
 31
0.0
1001
ACAD
1010
0.0
1020
0.0
1030
0.0
  0
LINE
  5
2494
  8
SAPA_GLAS
 10
-35.777669266320231
 20
228.7499998563458
 30
0.0
 11
-35.027669265975547
 21
229.49999985669041
 31
0.0
1001
ACAD
1010
0.0
1020
0.0
1030
0.0
  0
LINE
  5
2495
  8
SAPA_GLAS
 10
-34.655137251185373
 20
228.74999985634699
 30
0.0
 11
-33.905137250841889
 21
229.49999985669041
 31
0.0
1001
ACAD
1010
0.0
1020
0.0
1030
0.0
  0
LINE
  5
2496
  8
SAPA_GLAS
 10
-33.5326052360505
 20
228.74999985634821
 30
0.0
 11
-32.782605235708253
 21
229.49999985669041
 31
0.0
1001
ACAD
1010
0.0
1020
0.0
1030
0.0
  0
LINE
  5
2497
  8
SAPA_GLAS
 10
-32.410073220915621
 20
228.7499998563494
 30
0.0
 11
-31.660073220574599
 21
229.49999985669041
 31
0.0
1001
ACAD
1010
0.0
1020
0.0
1030
0.0
  0
LINE
  5
2498
  8
SAPA_GLAS
 10
-31.28754120578078
 20
228.7499998563506
 30
0.0
 11
-30.537541205440949
 21
229.49999985669041
 31
0.0
1001
ACAD
1010
0.0
1020
0.0
1030
0.0
  0
LINE
  5
2499
  8
SAPA_GLAS
 10
-42.691383280143938
 20
228.74999985633829
 30
0.0
 11
-43.125843781183669
 21
229.18446035737799
 31
0.0
1001
ACAD
1010
0.0
1020
0.0
1030
0.0
  0
LINE
  5
249A
  8
SAPA_GLAS
 10
-41.56885126501151
 20
228.74999985633951
 30
0.0
 11
-42.318851265362497
 21
229.49999985669041
 31
0.0
1001
ACAD
1010
0.0
1020
0.0
1030
0.0
  0
LINE
  5
249B
  8
SAPA_GLAS
 10
-40.446319249879082
 20
228.74999985634071
 30
0.0
 11
-41.196319250228861
 21
229.49999985669041
 31
0.0
1001
ACAD
1010
0.0
1020
0.0
1030
0.0
  0
LINE
  5
249C
  8
SAPA_GLAS
 10
-39.323787234746661
 20
228.7499998563419
 30
0.0
 11
-40.073787235095189
 21
229.49999985669041
 31
0.0
1001
ACAD
1010
0.0
1020
0.0
1030
0.0
  0
LINE
  5
249D
  8
SAPA_GLAS
 10
-38.201255219614211
 20
228.74999985634309
 30
0.0
 11
-38.951255219961539
 21
229.49999985669041
 31
0.0
1001
ACAD
1010
0.0
1020
0.0
1030
0.0
  0
LINE
  5
249E
  8
SAPA_GLAS
 10
-37.078723204481818
 20
228.74999985634429
 30
0.0
 11
-37.828723204827909
 21
229.49999985669041
 31
0.0
1001
ACAD
1010
0.0
1020
0.0
1030
0.0
  0
LINE
  5
249F
  8
SAPA_GLAS
 10
-35.95619118934934
 20
228.7499998563456
 30
0.0
 11
-36.706191189694252
 21
229.49999985669049
 31
0.0
1001
ACAD
1010
0.0
1020
0.0
1030
0.0
  0
LINE
  5
24A0
  8
SAPA_GLAS
 10
-34.833659174216933
 20
228.74999985634679
 30
0.0
 11
-35.583659174560609
 21
229.49999985669041
 31
0.0
1001
ACAD
1010
0.0
1020
0.0
1030
0.0
  0
LINE
  5
24A1
  8
SAPA_GLAS
 10
-33.711127159084512
 20
228.74999985634801
 30
0.0
 11
-34.461127159426951
 21
229.49999985669041
 31
0.0
1001
ACAD
1010
0.0
1020
0.0
1030
0.0
  0
LINE
  5
24A2
  8
SAPA_GLAS
 10
-32.588595143952112
 20
228.74999985634921
 30
0.0
 11
-33.338595144293322
 21
229.49999985669041
 31
0.0
1001
ACAD
1010
0.0
1020
0.0
1030
0.0
  0
LINE
  5
24A3
  8
SAPA_GLAS
 10
-31.466063128819691
 20
228.7499998563504
 30
0.0
 11
-32.216063129159693
 21
229.49999985669041
 31
0.0
1001
ACAD
1010
0.0
1020
0.0
1030
0.0
  0
LINE
  5
24A4
  8
SAPA_GLAS
 10
-30.34353111368722
 20
228.74999985635159
 30
0.0
 11
-31.09353111402605
 21
229.49999985669041
 31
0.0
1001
ACAD
1010
0.0
1020
0.0
1030
0.0
  0
LINE
  5
24A5
  8
SAPA_GLAS
 10
-43.125843781183683
 20
282.01855415869909
 30
0.0
 11
-42.894398082501553
 21
282.24999985738123
 31
0.0
1001
ACAD
1010
0.0
1020
0.0
1030
0.0
  0
LINE
  5
24A6
  8
SAPA_GLAS
 10
-42.521866067720318
 20
281.4999998570288
 30
0.0
 11
-41.771866067369118
 21
282.24999985737998
 31
0.0
1001
ACAD
1010
0.0
1020
0.0
1030
0.0
  0
LINE
  5
24A7
  8
SAPA_GLAS
 10
-41.399334052586681
 20
281.4999998570288
 30
0.0
 11
-40.649334052236689
 21
282.2499998573789
 31
0.0
1001
ACAD
1010
0.0
1020
0.0
1030
0.0
  0
LINE
  5
24A8
  8
SAPA_GLAS
 10
-40.276802037453038
 20
281.4999998570288
 30
0.0
 11
-39.526802037104289
 21
282.24999985737747
 31
0.0
1001
ACAD
1010
0.0
1020
0.0
1030
0.0
  0
LINE
  5
24A9
  8
SAPA_GLAS
 10
-39.154270022319409
 20
281.4999998570288
 30
0.0
 11
-38.404270021971861
 21
282.24999985737628
 31
0.0
1001
ACAD
1010
0.0
1020
0.0
1030
0.0
  0
LINE
  5
24AA
  8
SAPA_GLAS
 10
-38.031738007185751
 20
281.4999998570288
 30
0.0
 11
-37.28173800683939
 21
282.24999985737509
 31
0.0
1001
ACAD
1010
0.0
1020
0.0
1030
0.0
  0
LINE
  5
24AB
  8
SAPA_GLAS
 10
-36.909205992052108
 20
281.4999998570288
 30
0.0
 11
-36.159205991706997
 21
282.24999985737389
 31
0.0
1001
ACAD
1010
0.0
1020
0.0
1030
0.0
  0
LINE
  5
24AC
  8
SAPA_GLAS
 10
-35.786673976918472
 20
281.4999998570288
 30
0.0
 11
-35.036673976574548
 21
282.2499998573727
 31
0.0
1001
ACAD
1010
0.0
1020
0.0
1030
0.0
  0
LINE
  5
24AD
  8
SAPA_GLAS
 10
-34.664141961784821
 20
281.4999998570288
 30
0.0
 11
-33.914141961442162
 21
282.24999985737139
 31
0.0
1001
ACAD
1010
0.0
1020
0.0
1030
0.0
  0
LINE
  5
24AE
  8
SAPA_GLAS
 10
-33.541609946651178
 20
281.4999998570288
 30
0.0
 11
-32.791609946309698
 21
282.24999985737031
 31
0.0
1001
ACAD
1010
0.0
1020
0.0
1030
0.0
  0
LINE
  5
24AF
  8
SAPA_GLAS
 10
-32.419077931517521
 20
281.4999998570288
 30
0.0
 11
-31.669077931177242
 21
282.249999857369
 31
0.0
1001
ACAD
1010
0.0
1020
0.0
1030
0.0
  0
LINE
  5
24B0
  8
SAPA_GLAS
 10
-31.296545916383891
 20
281.4999998570288
 30
0.0
 11
-30.546545916044849
 21
282.24999985736781
 31
0.0
1001
ACAD
1010
0.0
1020
0.0
1030
0.0
  0
LINE
  5
24B1
  8
SAPA_GLAS
 10
-42.68237856955318
 20
281.4999998570288
 30
0.0
 11
-43.125843781183683
 21
281.94346506865929
 31
0.0
1001
ACAD
1010
0.0
1020
0.0
1030
0.0
  0
LINE
  5
24B2
  8
SAPA_GLAS
 10
-41.559846554419501
 20
281.4999998570288
 30
0.0
 11
-42.309846554771291
 21
282.24999985738049
 31
0.0
1001
ACAD
1010
0.0
1020
0.0
1030
0.0
  0
LINE
  5
24B3
  8
SAPA_GLAS
 10
-40.437314539285858
 20
281.4999998570288
 30
0.0
 11
-41.187314539636432
 21
282.24999985737929
 31
0.0
1001
ACAD
1010
0.0
1020
0.0
1030
0.0
  0
LINE
  5
24B4
  8
SAPA_GLAS
 10
-39.314782524152243
 20
281.4999998570288
 30
0.0
 11
-40.064782524501581
 21
282.2499998573781
 31
0.0
1001
ACAD
1010
0.0
1020
0.0
1030
0.0
  0
LINE
  5
24B5
  8
SAPA_GLAS
 10
-38.192250509018592
 20
281.4999998570288
 30
0.0
 11
-38.942250509366723
 21
282.24999985737691
 31
0.0
1001
ACAD
1010
0.0
1020
0.0
1030
0.0
  0
LINE
  5
24B6
  8
SAPA_GLAS
 10
-37.069718493884942
 20
281.4999998570288
 30
0.0
 11
-37.819718494231857
 21
282.24999985737571
 31
0.0
1001
ACAD
1010
0.0
1020
0.0
1030
0.0
  0
LINE
  5
24B7
  8
SAPA_GLAS
 10
-35.947186478751291
 20
281.4999998570288
 30
0.0
 11
-36.697186479096992
 21
282.24999985737452
 31
0.0
1001
ACAD
1010
0.0
1020
0.0
1030
0.0
  0
LINE
  5
24B8
  8
SAPA_GLAS
 10
-34.824654463617676
 20
281.4999998570288
 30
0.0
 11
-35.574654463962148
 21
282.24999985737333
 31
0.0
1001
ACAD
1010
0.0
1020
0.0
1030
0.0
  0
LINE
  5
24B9
  8
SAPA_GLAS
 10
-33.702122448484019
 20
281.4999998570288
 30
0.0
 11
-34.452122448827282
 21
282.24999985737202
 31
0.0
1001
ACAD
1010
0.0
1020
0.0
1030
0.0
  0
LINE
  5
24BA
  8
SAPA_GLAS
 10
-32.579590433350361
 20
281.4999998570288
 30
0.0
 11
-33.329590433692417
 21
282.24999985737082
 31
0.0
1001
ACAD
1010
0.0
1020
0.0
1030
0.0
  0
LINE
  5
24BB
  8
SAPA_GLAS
 10
-31.457058418216722
 20
281.4999998570288
 30
0.0
 11
-32.207058418557573
 21
282.24999985736957
 31
0.0
1001
ACAD
1010
0.0
1020
0.0
1030
0.0
  0
LINE
  5
24BC
  8
SAPA_GLAS
 10
-30.334526403083089
 20
281.4999998570288
 30
0.0
 11
-31.084526403422689
 21
282.24999985736838
 31
0.0
1001
ACAD
1010
0.0
1020
0.0
1030
0.0
  0
ARC
  5
24BD
  8
SAPA_PROFIL
 62
     4
 10
-22.308504011528619
 20
272.41342237350977
 30
0.0
 40
1.3416252492694889
 50
151.97558124339349
 51
179.20443003921429
  0
LINE
  5
24BE
  8
SAPA_PROFIL
 62
     4
 10
-23.492820251902909
 20
273.043782074207
 30
0.0
 11
-22.499999928874558
 21
274.76339731648142
 31
0.0
  0
LINE
  5
24BF
  8
SAPA_PROFIL
 62
     4
 10
-22.499999928874558
 20
274.76339731648142
 30
0.0
 11
-22.499999928874558
 21
275.19999985685968
 31
0.0
  0
ARC
  5
24C0
  8
SAPA_PROFIL
 62
     4
 10
-22.749999928874558
 20
275.19999985685968
 30
0.0
 40
0.25
 50
0.0
 51
90.0
  0
LINE
  5
24C1
  8
SAPA_PROFIL
 62
     4
 10
-22.749999928874558
 20
275.44999985685968
 30
0.0
 11
-26.350011928873531
 21
275.44999985685968
 31
0.0
  0
ARC
  5
24C2
  8
SAPA_PROFIL
 62
     4
 10
-26.350011928873531
 20
275.19999985685968
 30
0.0
 40
0.25
 50
89.999999999999204
 51
180.0
  0
LINE
  5
24C3
  8
SAPA_PROFIL
 62
     4
 10
-26.600011928873531
 20
275.19999985685968
 30
0.0
 11
-26.600000286138989
 21
274.76339793528109
 31
0.0
  0
LINE
  5
24C4
  8
SAPA_PROFIL
 62
     4
 10
-26.600000286138989
 20
274.76339793528109
 30
0.0
 11
-25.60717960584839
 21
273.04378207421382
 31
0.0
  0
ARC
  5
24C5
  8
SAPA_PROFIL
 62
     4
 10
-26.727404710341929
 20
272.42980932405322
 30
0.0
 40
1.277445428453728
 50
0.4570690071140316
 51
28.726257381968502
  0
LINE
  5
24C6
  8
SAPA_PROFIL
 62
     4
 10
-25.449999928873471
 20
272.4399998568594
 30
0.0
 11
-25.449999928873471
 21
238.5599998568598
 31
0.0
  0
ARC
  5
24C7
  8
SAPA_PROFIL
 62
     4
 10
-26.727404710341919
 20
238.5701903896661
 30
0.0
 40
1.2774454284537351
 50
331.27374261803033
 51
359.54293099288469
  0
LINE
  5
24C8
  8
SAPA_PROFIL
 62
     4
 10
-25.60717960584839
 20
237.95621763950541
 30
0.0
 11
-26.600000286138989
 21
236.2366017784382
 31
0.0
  0
LINE
  5
24C9
  8
SAPA_PROFIL
 62
     4
 10
-26.600000286138989
 20
236.2366017784382
 30
0.0
 11
-26.600011928873531
 21
235.79999985685961
 31
0.0
  0
ARC
  5
24CA
  8
SAPA_PROFIL
 62
     4
 10
-26.350011928873531
 20
235.79999985685961
 30
0.0
 40
0.2499999999999964
 50
180.0
 51
270.0000000000008
  0
LINE
  5
24CB
  8
SAPA_PROFIL
 62
     4
 10
-26.350011928873531
 20
235.54999985685961
 30
0.0
 11
-22.749999928874558
 21
235.54999985685961
 31
0.0
  0
ARC
  5
24CC
  8
SAPA_PROFIL
 62
     4
 10
-22.749999928874558
 20
235.79999985685961
 30
0.0
 40
0.25
 50
270.0
 51
0.0
  0
LINE
  5
24CD
  8
SAPA_PROFIL
 62
     4
 10
-22.499999928874558
 20
235.79999985685961
 30
0.0
 11
-22.499999928874558
 21
236.2366023972379
 31
0.0
  0
LINE
  5
24CE
  8
SAPA_PROFIL
 62
     4
 10
-22.499999928874558
 20
236.2366023972379
 30
0.0
 11
-23.492820251902909
 21
237.9562176395122
 31
0.0
  0
ARC
  5
24CF
  8
SAPA_PROFIL
 62
     4
 10
-22.308504011527681
 20
238.58657734020969
 30
0.0
 40
1.3416252492704219
 50
180.79556996077531
 51
208.02441875659619
  0
LINE
  5
24D0
  8
SAPA_PROFIL
 62
     4
 10
-23.649999928874191
 20
238.567949049291
 30
0.0
 11
-23.649999928874191
 21
272.43205066442869
 31
0.0
  0
ARC
  5
24D1
  8
SAPA_PROFIL
 10
-20.625843781183882
 20
235.256130816564
 30
0.0
 40
0.2999999999994784
 50
0.0000000000651378
 51
54.379930240924317
  0
ARC
  5
24D2
  8
SAPA_PROFIL
 10
-20.276399131124531
 20
235.7438688984723
 30
0.0
 40
0.2999999999994074
 50
179.9999999998154
 51
234.37993024349711
  0
LINE
  5
24D3
  8
SAPA_PROFIL
 10
-20.576399131123939
 20
235.74386889847321
 30
0.0
 11
-20.576399131123939
 21
236.6999998575086
 31
0.0
  0
ARC
  5
24D4
  8
SAPA_PROFIL
 10
-20.27639913111916
 20
236.6999998575146
 30
0.0
 40
0.300000000004772
 50
117.12809249346429
 51
180.00000000114531
  0
ARC
  5
24D5
  8
SAPA_PROFIL
 10
-20.54998792887428
 20
237.23399346210999
 30
0.0
 40
0.3000000000001489
 50
297.12809249331337
 51
359.99999999995123
  0
LINE
  5
24D6
  8
SAPA_PROFIL
 10
-20.249987928874141
 20
237.23399346210979
 30
0.0
 11
-20.249987928874141
 21
239.41154181706699
 31
0.0
  0
ARC
  5
24D7
  8
SAPA_PROFIL
 10
-20.549987928874948
 20
239.41154181706591
 30
0.0
 40
0.3000000000008143
 50
0.000000000222554
 51
19.999999999984919
  0
LINE
  5
24D8
  8
SAPA_PROFIL
 10
-20.268080142638379
 20
239.5141478600637
 30
0.0
 11
-20.7875942103135
 21
240.94150103010881
 31
0.0
  0
ARC
  5
24D9
  8
SAPA_PROFIL
 10
-21.069501996554081
 20
240.83889498710451
 30
0.0
 40
0.3000000000067881
 50
20.00000000088103
 51
110.0000000002379
  0
LINE
  5
24DA
  8
SAPA_PROFIL
 10
-21.172108039555269
 20
241.12080277334621
 30
0.0
 11
-21.360046563705279
 21
241.0523987446752
 31
0.0
  0
ARC
  5
24DB
  8
SAPA_PROFIL
 10
-21.257440520714852
 20
240.77049095844379
 30
0.0
 40
0.2999999999934195
 50
109.9999999989805
 51
199.99999999896249
  0
LINE
  5
24DC
  8
SAPA_PROFIL
 10
-21.539348306946291
 20
240.6678849154535
 30
0.0
 11
-21.16312614928097
 21
239.63422303258471
 31
0.0
  0
ARC
  5
24DD
  8
SAPA_PROFIL
 10
-21.445033935517721
 20
239.5316169895919
 30
0.0
 40
0.2999999999992395
 50
289.99999999780641
 51
19.999999999054719
  0
LINE
  5
24DE
  8
SAPA_PROFIL
 10
-21.342427892531081
 20
239.24970920335289
 30
0.0
 11
-23.15261797187009
 21
238.5908538961169
 31
0.0
  0
ARC
  5
24DF
  8
SAPA_PROFIL
 10
-23.05001192887368
 20
238.30894610988079
 30
0.0
 40
0.2999999999998422
 50
109.9999999997478
 51
179.9999999999728
  0
LINE
  5
24E0
  8
SAPA_PROFIL
 10
-23.350011928873531
 20
238.30894610988091
 30
0.0
 11
-23.350011928873531
 21
237.88923034206141
 31
0.0
  0
ARC
  5
24E1
  8
SAPA_PROFIL
 10
-23.050011928874039
 20
237.88923034206209
 30
0.0
 40
0.2999999999994891
 50
180.00000000014111
 51
210.0000000001385
  0
LINE
  5
24E2
  8
SAPA_PROFIL
 10
-23.309819550008569
 20
237.7392303420618
 30
0.0
 11
-22.450011928873892
 21
236.24999985752061
 31
0.0
  0
LINE
  5
24E3
  8
SAPA_PROFIL
 10
-22.450011928873892
 20
236.24999985752061
 30
0.0
 11
-22.449999928873471
 21
235.79999985752079
 31
0.0
  0
ARC
  5
24E4
  8
SAPA_PROFIL
 10
-22.7499999288741
 20
235.7999998575213
 30
0.0
 40
0.3000000000006331
 50
269.99999999991252
 51
359.99999999991309
  0
LINE
  5
24E5
  8
SAPA_PROFIL
 10
-22.749999928874558
 20
235.49999985752061
 30
0.0
 11
-26.350011928873531
 21
235.49999985752061
 31
0.0
  0
ARC
  5
24E6
  8
SAPA_PROFIL
 10
-26.350011928873979
 20
235.7999998575213
 30
0.0
 40
0.3000000000006366
 50
180.0000000000868
 51
270.0000000000868
  0
LINE
  5
24E7
  8
SAPA_PROFIL
 10
-26.650011928874619
 20
235.79999985752079
 30
0.0
 11
-26.650011928874619
 21
236.24999985752061
 31
0.0
  0
LINE
  5
24E8
  8
SAPA_PROFIL
 10
-26.650011928874619
 20
236.24999985752061
 30
0.0
 11
-25.790187191304309
 21
237.73925998859499
 31
0.0
  0
ARC
  5
24E9
  8
SAPA_PROFIL
 10
-26.04999481244074
 20
237.8892599885925
 30
0.0
 40
0.2999999999997129
 50
330.00000000051239
 51
359.9963531330713
  0
LINE
  5
24EA
  8
SAPA_PROFIL
 10
-25.749994813048708
 20
237.8892408936419
 30
0.0
 11
-25.749987763256971
 21
237.99999985751879
 31
0.0
  0
LINE
  5
24EB
  8
SAPA_PROFIL
 10
-25.749987763256971
 20
237.99999985751879
 30
0.0
 11
-27.825843781173489
 21
237.99999985751879
 31
0.0
  0
ARC
  5
24EC
  8
SAPA_PROFIL
 10
-27.825843781173489
 20
237.49999985751879
 30
0.0
 40
0.5
 50
90.0
 51
180.0
  0
LINE
  5
24ED
  8
SAPA_PROFIL
 10
-28.325843781173489
 20
237.49999985751879
 30
0.0
 11
-28.325843781173489
 21
232.24999985785351
 31
0.0
  0
ARC
  5
24EE
  8
SAPA_PROFIL
 10
-27.825843781173489
 20
232.24999985785351
 30
0.0
 40
0.5
 50
180.0
 51
270.0
  0
LINE
  5
24EF
  8
SAPA_PROFIL
 10
-27.825843781173489
 20
231.74999985785351
 30
0.0
 11
-27.32584377759008
 21
231.74999985785351
 31
0.0
  0
ARC
  5
24F0
  8
SAPA_PROFIL
 10
-27.32584377759008
 20
232.24999985785351
 30
0.0
 40
0.5
 50
270.0
 51
0.0
  0
LINE
  5
24F1
  8
SAPA_PROFIL
 10
-26.82584377759008
 20
232.24999985785351
 30
0.0
 11
-26.82584377758463
 21
233.24999985826091
 31
0.0
  0
LINE
  5
24F2
  8
SAPA_PROFIL
 10
-26.82584377758463
 20
233.24999985826091
 30
0.0
 11
-23.625843777130971
 21
233.249999858265
 31
0.0
  0
LINE
  5
24F3
  8
SAPA_PROFIL
 10
-23.625843777130971
 20
233.249999858265
 30
0.0
 11
-23.62584377713824
 21
228.7499998573592
 31
0.0
  0
LINE
  5
24F4
  8
SAPA_PROFIL
 10
-23.62584377713824
 20
228.7499998573592
 30
0.0
 11
-43.125843781183669
 21
228.7499998573378
 31
0.0
  0
ARC
  5
24F5
  8
SAPA_PROFIL
 10
-43.125843781183939
 20
228.54999985733679
 30
0.0
 40
0.2000000000009834
 50
89.99999999992265
 51
195.60191674437539
  0
ARC
  5
24F6
  8
SAPA_PROFIL
 10
-42.355320925225563
 20
228.7651614906386
 30
0.0
 40
1.0000000000005671
 50
195.6019167445358
 51
263.75641154149361
  0
ARC
  5
24F7
  8
SAPA_PROFIL
 10
-28.325843780997278
 20
356.99999986197309
 30
0.0
 40
130.00000000411961
 50
263.75641154141101
 51
269.99999999991269
  0
LINE
  5
24F8
  8
SAPA_PROFIL
 10
-28.325843781195321
 20
226.99999985785351
 30
0.0
 11
-23.325843781275349
 21
226.99999985771521
 31
0.0
  0
ARC
  5
24F9
  8
SAPA_PROFIL
 10
-23.325843781184389
 20
229.9999998577153
 30
0.0
 40
3.0
 50
269.99999999826281
 51
0.0
  0
LINE
  5
24FA
  8
SAPA_PROFIL
 10
-20.3258437811844
 20
229.9999998577153
 30
0.0
 11
-20.3258437811844
 21
235.25613081656431
 31
0.0
  0
ARC
  5
24FB
  8
SAPA_PROFIL
 10
-20.625843781183882
 20
275.74386889847722
 30
0.0
 40
0.2999999999994784
 50
305.6200697590757
 51
359.99999999993491
  0
ARC
  5
24FC
  8
SAPA_PROFIL
 10
-20.276399131124531
 20
275.25613081656888
 30
0.0
 40
0.2999999999994074
 50
125.6200697565029
 51
180.00000000018451
  0
LINE
  5
24FD
  8
SAPA_PROFIL
 10
-20.576399131123939
 20
275.25613081656797
 30
0.0
 11
-20.576399131123939
 21
274.29999985753261
 31
0.0
  0
ARC
  5
24FE
  8
SAPA_PROFIL
 10
-20.27639913111954
 20
274.29999985752693
 30
0.0
 40
0.300000000004399
 50
179.99999999890349
 51
242.87190750658181
  0
ARC
  5
24FF
  8
SAPA_PROFIL
 10
-20.54998792887428
 20
273.76600625293167
 30
0.0
 40
0.3000000000001235
 50
0.0000000000434252
 51
62.87190750668416
  0
LINE
  5
2500
  8
SAPA_PROFIL
 10
-20.249987928874141
 20
273.7660062529319
 30
0.0
 11
-20.249987928874141
 21
271.58845789797459
 31
0.0
  0
ARC
  5
2501
  8
SAPA_PROFIL
 10
-20.549987928873659
 20
271.58845789797601
 30
0.0
 40
0.2999999999995246
 50
339.99999999997669
 51
359.99999999973937
  0
LINE
  5
2502
  8
SAPA_PROFIL
 10
-20.268080142638379
 20
271.48585185497831
 30
0.0
 11
-20.7875942103135
 21
270.05849868493277
 31
0.0
  0
ARC
  5
2503
  8
SAPA_PROFIL
 10
-21.069501996554081
 20
270.16110472793719
 30
0.0
 40
0.3000000000067881
 50
249.99999999976211
 51
339.99999999911898
  0
LINE
  5
2504
  8
SAPA_PROFIL
 10
-21.172108039555269
 20
269.87919694169551
 30
0.0
 11
-21.360046563705279
 21
269.94760097036652
 31
0.0
  0
ARC
  5
2505
  8
SAPA_PROFIL
 10
-21.257440520715079
 20
270.22950875659768
 30
0.0
 40
0.2999999999931548
 50
160.00000000106851
 51
250.0000000010472
  0
LINE
  5
2506
  8
SAPA_PROFIL
 10
-21.539348306946291
 20
270.33211479958783
 30
0.0
 11
-21.16312614928097
 21
271.36577668245741
 31
0.0
  0
ARC
  5
2507
  8
SAPA_PROFIL
 10
-21.44503393551749
 20
271.46838272544989
 30
0.0
 40
0.2999999999989384
 50
340.0000000009764
 51
70.000000002221412
  0
LINE
  5
2508
  8
SAPA_PROFIL
 10
-21.342427892531081
 20
271.75029051168872
 30
0.0
 11
-23.15261797187009
 21
272.40914581892429
 31
0.0
  0
ARC
  5
2509
  8
SAPA_PROFIL
 10
-23.05001192887336
 20
272.69105360516068
 30
0.0
 40
0.3000000000001931
 50
179.99999999998909
 51
250.0000000002108
  0
LINE
  5
250A
  8
SAPA_PROFIL
 10
-23.350011928873531
 20
272.69105360516068
 30
0.0
 11
-23.350011928873531
 21
273.11076937298031
 31
0.0
  0
ARC
  5
250B
  8
SAPA_PROFIL
 10
-23.050011928874039
 20
273.11076937297952
 30
0.0
 40
0.2999999999994891
 50
149.99999999986139
 51
179.9999999998588
  0
LINE
  5
250C
  8
SAPA_PROFIL
 10
-23.309819550008569
 20
273.26076937297989
 30
0.0
 11
-22.450011928873892
 21
274.74999985752061
 31
0.0
  0
LINE
  5
250D
  8
SAPA_PROFIL
 10
-22.450011928873892
 20
274.74999985752061
 30
0.0
 11
-22.449999928873471
 21
275.19999985752088
 31
0.0
  0
ARC
  5
250E
  8
SAPA_PROFIL
 10
-22.749999928873869
 20
275.1999998575202
 30
0.0
 40
0.3000000000004057
 50
0.0000000001302755
 51
90.000000000130953
  0
LINE
  5
250F
  8
SAPA_PROFIL
 10
-22.749999928874558
 20
275.49999985752061
 30
0.0
 11
-26.350011928873531
 21
275.49999985752061
 31
0.0
  0
ARC
  5
2510
  8
SAPA_PROFIL
 10
-26.35001192887421
 20
275.1999998575202
 30
0.0
 40
0.3000000000004093
 50
89.999999999869729
 51
179.99999999986969
  0
LINE
  5
2511
  8
SAPA_PROFIL
 10
-26.650011928874619
 20
275.19999985752088
 30
0.0
 11
-26.650011928874619
 21
274.74999985752061
 31
0.0
  0
LINE
  5
2512
  8
SAPA_PROFIL
 10
-26.650011928874619
 20
274.74999985752061
 30
0.0
 11
-25.790187191304309
 21
273.26073972644667
 31
0.0
  0
ARC
  5
2513
  8
SAPA_PROFIL
 10
-26.04999481244074
 20
273.11073972644908
 30
0.0
 40
0.2999999999997129
 50
0.0036468669287298
 51
29.999999999487599
  0
LINE
  5
2514
  8
SAPA_PROFIL
 10
-25.749994813048708
 20
273.11075882139971
 30
0.0
 11
-25.749987763256971
 21
272.99999985752243
 31
0.0
  0
LINE
  5
2515
  8
SAPA_PROFIL
 10
-25.749987763256971
 20
272.99999985752243
 30
0.0
 11
-27.825843781173489
 21
272.99999985752243
 31
0.0
  0
ARC
  5
2516
  8
SAPA_PROFIL
 10
-27.825843781173489
 20
273.49999985752243
 30
0.0
 40
0.5
 50
180.0
 51
270.0
  0
LINE
  5
2517
  8
SAPA_PROFIL
 10
-28.325843781173489
 20
273.49999985752243
 30
0.0
 11
-28.325843781173489
 21
278.74999985718779
 31
0.0
  0
ARC
  5
2518
  8
SAPA_PROFIL
 10
-27.825843781173489
 20
278.74999985718779
 30
0.0
 40
0.5
 50
90.0
 51
180.0
  0
LINE
  5
2519
  8
SAPA_PROFIL
 10
-27.825843781173489
 20
279.24999985718767
 30
0.0
 11
-27.32584377759008
 21
279.24999985718767
 31
0.0
  0
ARC
  5
251A
  8
SAPA_PROFIL
 10
-27.32584377759008
 20
278.74999985718779
 30
0.0
 40
0.5
 50
0.0
 51
90.0
  0
LINE
  5
251B
  8
SAPA_PROFIL
 10
-26.82584377759008
 20
278.74999985718779
 30
0.0
 11
-26.82584377758463
 21
277.74999985678068
 31
0.0
  0
LINE
  5
251C
  8
SAPA_PROFIL
 10
-26.82584377758463
 20
277.74999985678068
 30
0.0
 11
-23.625843777130971
 21
277.74999985677658
 31
0.0
  0
LINE
  5
251D
  8
SAPA_PROFIL
 10
-23.625843777130971
 20
277.74999985677658
 30
0.0
 11
-23.62584377713824
 21
282.2499998576825
 31
0.0
  0
LINE
  5
251E
  8
SAPA_PROFIL
 10
-23.62584377713824
 20
282.2499998576825
 30
0.0
 11
-43.125843781183669
 21
282.24999985770393
 31
0.0
  0
ARC
  5
251F
  8
SAPA_PROFIL
 10
-43.125843781183939
 20
282.44999985770482
 30
0.0
 40
0.200000000000955
 50
164.39808325561671
 51
270.00000000007742
  0
ARC
  5
2520
  8
SAPA_PROFIL
 10
-42.355320925225563
 20
282.23483822440312
 30
0.0
 40
1.0000000000005591
 50
96.243588458506537
 51
164.39808325546571
  0
ARC
  5
2521
  8
SAPA_PROFIL
 10
-28.325843780997278
 20
153.99999985306849
 30
0.0
 40
130.00000000411961
 50
90.000000000087283
 51
96.243588458588974
  0
LINE
  5
2522
  8
SAPA_PROFIL
 10
-28.325843781195321
 20
283.99999985718819
 30
0.0
 11
-23.325843781275349
 21
283.99999985732597
 31
0.0
  0
ARC
  5
2523
  8
SAPA_PROFIL
 10
-23.325843781184389
 20
280.99999985732597
 30
0.0
 40
3.0
 50
0.0
 51
90.000000001737206
  0
LINE
  5
2524
  8
SAPA_PROFIL
 10
-20.3258437811844
 20
280.99999985732597
 30
0.0
 11
-20.3258437811844
 21
275.74386889847688
 31
0.0
  0
LINE
  5
2525
  8
SAPA_PROFIL
 10
44.449444721210277
 20
256.9999999999938
 30
0.0
 11
32.249444721210473
 21
256.9999999999938
 31
0.0
  0
LINE
  5
2526
  8
SAPA_PROFIL
 10
32.249444721210473
 20
256.9999999999938
 30
0.0
 11
32.249444721210473
 21
288.99999999999392
 31
0.0
  0
LINE
  5
2527
  8
SAPA_PROFIL
 10
32.249444721210473
 20
288.99999999999392
 30
0.0
 11
44.449444721210277
 21
288.99999999999392
 31
0.0
  0
LINE
  5
2528
  8
SAPA_PROFIL
 10
44.449444721210277
 20
288.99999999999392
 30
0.0
 11
44.449444721210277
 21
256.9999999999938
 31
0.0
  0
ARC
  5
2529
  8
SAPA_PROFIL
 10
33.84944472121083
 20
253.99999999999389
 30
0.0
 40
1.0
 50
90.0
 51
180.0
  0
LINE
  5
252A
  8
SAPA_PROFIL
 10
33.84944472121083
 20
254.9999999999938
 30
0.0
 11
42.849444721210823
 21
254.9999999999938
 31
0.0
  0
ARC
  5
252B
  8
SAPA_PROFIL
 10
42.849444721210823
 20
253.99999999999389
 30
0.0
 40
1.0
 50
0.0
 51
90.0
  0
LINE
  5
252C
  8
SAPA_PROFIL
 10
43.84944472121083
 20
253.99999999999389
 30
0.0
 11
43.84944472121083
 21
251.49999996459181
 31
0.0
  0
LINE
  5
252D
  8
SAPA_PROFIL
 10
43.84944472121083
 20
251.49999996459181
 30
0.0
 11
44.449444721210277
 21
251.49999996459181
 31
0.0
  0
LINE
  5
252E
  8
SAPA_PROFIL
 10
44.449444721210277
 20
251.49999996459181
 30
0.0
 11
44.449444721210277
 21
233.99999996459181
 31
0.0
  0
LINE
  5
252F
  8
SAPA_PROFIL
 10
44.449444721210277
 20
233.99999996459181
 30
0.0
 11
32.249444721210473
 21
233.99999996459181
 31
0.0
  0
LINE
  5
2530
  8
SAPA_PROFIL
 10
32.249444721210473
 20
233.99999996459181
 30
0.0
 11
32.249444721210473
 21
251.49999996459181
 31
0.0
  0
LINE
  5
2531
  8
SAPA_PROFIL
 10
32.249444721210473
 20
251.49999996459181
 30
0.0
 11
32.84944472121083
 21
251.49999996459181
 31
0.0
  0
LINE
  5
2532
  8
SAPA_PROFIL
 10
32.84944472121083
 20
251.49999996459181
 30
0.0
 11
32.84944472121083
 21
253.99999999999389
 31
0.0
  0
ARC
  5
2533
  8
SAPA_PROFIL
 10
45.749468721207109
 20
227.21418956235249
 30
0.0
 40
1.0000000000001059
 50
225.00000000000551
 51
359.99999999999841
  0
LINE
  5
2534
  8
SAPA_PROFIL
 10
45.042361940020548
 20
226.50708278116579
 30
0.0
 11
43.73731268685173
 21
227.81213203433461
 31
0.0
  0
ARC
  5
2535
  8
SAPA_PROFIL
 10
43.949444721207833
 20
228.024264068691
 30
0.0
 40
0.3000000000004466
 50
180.00000000003789
 51
225.00000000005181
  0
LINE
  5
2536
  8
SAPA_PROFIL
 10
43.649444721207367
 20
228.02426406869091
 30
0.0
 11
43.649444721207367
 21
228.61076951543811
 31
0.0
  0
ARC
  5
2537
  8
SAPA_PROFIL
 10
43.949444721207691
 20
228.61076951543751
 30
0.0
 40
0.300000000000324
 50
149.99999999990359
 51
179.99999999990229
  0
LINE
  5
2538
  8
SAPA_PROFIL
 10
43.689637100072332
 20
228.7607695154382
 30
0.0
 11
44.549444721207458
 21
230.2499999999788
 31
0.0
  0
LINE
  5
2539
  8
SAPA_PROFIL
 10
44.549444721207458
 20
230.2499999999788
 30
0.0
 11
44.549456721207427
 21
230.6999999999791
 31
0.0
  0
ARC
  5
253A
  8
SAPA_PROFIL
 10
44.24945672120748
 20
230.6999999999789
 30
0.0
 40
0.2999999999999545
 50
0.0000000000434252
 51
90.000000000043414
  0
LINE
  5
253B
  8
SAPA_PROFIL
 10
44.249456721207252
 20
230.99999999997891
 30
0.0
 11
40.649444721207367
 21
230.99999999997891
 31
0.0
  0
ARC
  5
253C
  8
SAPA_PROFIL
 10
40.649444721207367
 20
230.6999999999787
 30
0.0
 40
0.3000000000001819
 50
90.0
 51
180.0
  0
LINE
  5
253D
  8
SAPA_PROFIL
 10
40.349444721207192
 20
230.6999999999787
 30
0.0
 11
40.349444721207192
 21
230.2499999999788
 31
0.0
  0
LINE
  5
253E
  8
SAPA_PROFIL
 10
40.349444721207192
 20
230.2499999999788
 30
0.0
 11
41.209269458776127
 21
228.76073986890489
 31
0.0
  0
ARC
  5
253F
  8
SAPA_PROFIL
 10
40.949461837640527
 20
228.61073986890489
 30
0.0
 40
0.3000000000002639
 50
0.0036468674118283
 51
29.999999999984691
  0
LINE
  5
2540
  8
SAPA_PROFIL
 10
41.249461837033088
 20
228.61075896385799
 30
0.0
 11
41.249468886823927
 21
228.49999999997891
 31
0.0
  0
LINE
  5
2541
  8
SAPA_PROFIL
 10
41.249468886823927
 20
228.49999999997891
 30
0.0
 11
39.627756884719247
 21
228.49999999997979
 31
0.0
  0
ARC
  5
2542
  8
SAPA_PROFIL
 10
39.627756884719417
 20
229.49999999997939
 30
0.0
 40
0.9999999999996589
 50
209.99999999998849
 51
269.99999999999022
  0
LINE
  5
2543
  8
SAPA_PROFIL
 10
38.761731480935168
 20
228.99999999997971
 30
0.0
 11
37.89570607715109
 21
230.49999999997891
 31
0.0
  0
ARC
  5
2544
  8
SAPA_PROFIL
 10
37.029680673366833
 20
229.99999999997911
 30
0.0
 40
0.9999999999996919
 50
29.999999999989509
 51
89.999999999989413
  0
LINE
  5
2545
  8
SAPA_PROFIL
 10
37.029680673367011
 20
230.99999999997891
 30
0.0
 11
36.469208769050738
 21
230.99999999997891
 31
0.0
  0
ARC
  5
2546
  8
SAPA_PROFIL
 10
36.469208769050702
 20
229.99999999997871
 30
0.0
 40
1.000000000000085
 50
89.999999999997556
 51
149.99999999999719
  0
LINE
  5
2547
  8
SAPA_PROFIL
 10
35.603183365266197
 20
230.49999999997891
 30
0.0
 11
34.737157961481223
 21
228.99999999997971
 31
0.0
  0
ARC
  5
2548
  8
SAPA_PROFIL
 10
33.87113255769615
 20
229.499999999979
 30
0.0
 40
1.0000000000001741
 50
270.0000000000565
 51
330.00000000005463
  0
LINE
  5
2549
  8
SAPA_PROFIL
 10
33.871132557697138
 20
228.49999999997891
 30
0.0
 11
32.249420555593808
 21
228.49999999997891
 31
0.0
  0
LINE
  5
254A
  8
SAPA_PROFIL
 10
32.249420555593808
 20
228.49999999997891
 30
0.0
 11
32.249427605384199
 21
228.61075896385799
 31
0.0
  0
ARC
  5
254B
  8
SAPA_PROFIL
 10
32.549427604776987
 20
228.61073986890401
 30
0.0
 40
0.3000000000004841
 50
149.99999999985721
 51
179.9963531324307
  0
LINE
  5
254C
  8
SAPA_PROFIL
 10
32.289619983641607
 20
228.76073986890489
 30
0.0
 11
33.149444721210557
 21
230.2499999999788
 31
0.0
  0
LINE
  5
254D
  8
SAPA_PROFIL
 10
33.149444721210557
 20
230.2499999999788
 30
0.0
 11
33.149444721210557
 21
230.6999999999787
 31
0.0
  0
ARC
  5
254E
  8
SAPA_PROFIL
 10
32.849444721210602
 20
230.6999999999789
 30
0.0
 40
0.2999999999999545
 50
359.99999999995657
 51
89.999999999956557
  0
LINE
  5
254F
  8
SAPA_PROFIL
 10
32.84944472121083
 20
230.99999999997891
 30
0.0
 11
29.2494327212105
 21
230.99999999997931
 31
0.0
  0
ARC
  5
2550
  8
SAPA_PROFIL
 10
29.249432721210731
 20
230.6999999999793
 30
0.0
 40
0.2999999999999545
 50
90.000000000043414
 51
180.0000000000434
  0
LINE
  5
2551
  8
SAPA_PROFIL
 10
28.949432721210769
 20
230.6999999999791
 30
0.0
 11
28.949444721210291
 21
230.2499999999788
 31
0.0
  0
LINE
  5
2552
  8
SAPA_PROFIL
 10
28.949444721210291
 20
230.2499999999788
 30
0.0
 11
29.80925234234542
 21
228.7607695154382
 31
0.0
  0
ARC
  5
2553
  8
SAPA_PROFIL
 10
29.549444721209831
 20
228.61076951543839
 30
0.0
 40
0.3000000000001014
 50
359.99999999993491
 51
29.999999999933671
  0
LINE
  5
2554
  8
SAPA_PROFIL
 10
29.84944472120992
 20
228.61076951543811
 30
0.0
 11
29.849444721210379
 21
228.02426406869091
 31
0.0
  0
ARC
  5
2555
  8
SAPA_PROFIL
 10
29.54944472121047
 20
228.02426406869131
 30
0.0
 40
0.2999999999999012
 50
314.9999999999045
 51
359.9999999999186
  0
LINE
  5
2556
  8
SAPA_PROFIL
 10
29.761576755566011
 20
227.81213203433509
 30
0.0
 11
28.456527502397201
 21
226.50708278116579
 31
0.0
  0
ARC
  5
2557
  8
SAPA_PROFIL
 10
27.74942072121064
 20
227.21418956235249
 30
0.0
 40
1.000000000000111
 50
180.00000000000159
 51
314.99999999999437
  0
LINE
  5
2558
  8
SAPA_PROFIL
 10
26.74942072121053
 20
227.2141895623524
 30
0.0
 11
26.74944472121047
 21
230.79999999997989
 31
0.0
  0
ARC
  5
2559
  8
SAPA_PROFIL
 10
26.74944472121047
 20
230.99999999997951
 30
0.0
 40
0.1999999999995907
 50
270.0
 51
90.0
  0
LINE
  5
255A
  8
SAPA_PROFIL
 10
26.74944472121047
 20
231.1999999999791
 30
0.0
 11
26.74944472121047
 21
232.50000002952879
 31
0.0
  0
ARC
  5
255B
  8
SAPA_PROFIL
 10
27.749444721066709
 20
232.50000002938469
 30
0.0
 40
0.9999999998562429
 50
89.999999991554887
 51
179.99999999174381
  0
LINE
  5
255C
  8
SAPA_PROFIL
 10
27.7494447212141
 20
233.50000002924099
 30
0.0
 11
28.74944472121047
 21
233.50000002924099
 31
0.0
  0
ARC
  5
255D
  8
SAPA_PROFIL
 10
28.74944472121047
 20
234.50000002924091
 30
0.0
 40
1.0
 50
270.0
 51
0.0
  0
LINE
  5
255E
  8
SAPA_PROFIL
 10
29.74944472121047
 20
234.50000002924091
 30
0.0
 11
29.74944472121047
 21
240.61292973920189
 31
0.0
  0
ARC
  5
255F
  8
SAPA_PROFIL
 10
28.749444721210502
 20
240.61292973920189
 30
0.0
 40
0.999999999999968
 50
0.0000000000032569
 51
64.999999999735707
  0
LINE
  5
2560
  8
SAPA_PROFIL
 10
29.172062982955371
 20
241.51923752623659
 30
0.0
 11
25.326826459456019
 21
243.3123007645838
 31
0.0
  0
ARC
  5
2561
  8
SAPA_PROFIL
 10
25.749444721201151
 20
244.21860855161819
 30
0.0
 40
0.999999999999778
 50
179.99999999998369
 51
244.99999999971359
  0
LINE
  5
2562
  8
SAPA_PROFIL
 10
24.749444721201371
 20
244.21860855161839
 30
0.0
 11
24.74944472120092
 21
247.2673540249468
 31
0.0
  0
ARC
  5
2563
  8
SAPA_PROFIL
 10
24.949444721201349
 20
247.2673540249466
 30
0.0
 40
0.2000000000004292
 50
60.890091059512677
 51
179.9999999999348
  0
ARC
  5
2564
  8
SAPA_PROFIL
 10
26.74944472123266
 20
250.49999999997951
 30
0.0
 40
3.5000000000007891
 50
240.8900910595811
 51
265.08289966395529
  0
LINE
  5
2565
  8
SAPA_PROFIL
 10
26.449444721201189
 20
247.01288084514891
 30
0.0
 11
26.449444721201189
 21
245.74999999997891
 31
0.0
  0
ARC
  5
2566
  8
SAPA_PROFIL
 10
26.949444721201189
 20
245.74999999997891
 30
0.0
 40
0.5
 50
180.0
 51
270.0
  0
LINE
  5
2567
  8
SAPA_PROFIL
 10
26.949444721201189
 20
245.24999999997891
 30
0.0
 11
29.24944472121047
 21
245.24999999997891
 31
0.0
  0
ARC
  5
2568
  8
SAPA_PROFIL
 10
29.24944472121047
 20
245.74999999997891
 30
0.0
 40
0.5
 50
270.0
 51
0.0
  0
LINE
  5
2569
  8
SAPA_PROFIL
 10
29.74944472121047
 20
245.74999999997891
 30
0.0
 11
29.74944472121047
 21
248.69722436221011
 31
0.0
  0
ARC
  5
256A
  8
SAPA_PROFIL
 10
26.749444721232059
 20
250.4999999999788
 30
0.0
 40
3.500000000000409
 50
328.99728086542871
 51
31.002719134571329
  0
LINE
  5
256B
  8
SAPA_PROFIL
 10
29.74944472121047
 20
252.3027756377476
 30
0.0
 11
29.74944472121047
 21
258.69722436221008
 31
0.0
  0
ARC
  5
256C
  8
SAPA_PROFIL
 10
26.749444721232059
 20
260.49999999997891
 30
0.0
 40
3.500000000000409
 50
328.99728086542871
 51
31.002719134571329
  0
LINE
  5
256D
  8
SAPA_PROFIL
 10
29.74944472121047
 20
262.30277563774757
 30
0.0
 11
29.74944472121047
 21
265.2499999999788
 31
0.0
  0
ARC
  5
256E
  8
SAPA_PROFIL
 10
29.24944472121047
 20
265.2499999999788
 30
0.0
 40
0.5
 50
0.0
 51
90.0
  0
LINE
  5
256F
  8
SAPA_PROFIL
 10
29.24944472121047
 20
265.74999999997891
 30
0.0
 11
26.949444721201189
 21
265.74999999997891
 31
0.0
  0
ARC
  5
2570
  8
SAPA_PROFIL
 10
26.949444721201189
 20
265.2499999999788
 30
0.0
 40
0.5
 50
90.0
 51
180.0
  0
LINE
  5
2571
  8
SAPA_PROFIL
 10
26.449444721201189
 20
265.2499999999788
 30
0.0
 11
26.449444721201189
 21
263.98711915480879
 31
0.0
  0
ARC
  5
2572
  8
SAPA_PROFIL
 10
26.749444721233711
 20
260.499999999978
 30
0.0
 40
3.5000000000011049
 50
94.917100336061665
 51
119.1099089404358
  0
ARC
  5
2573
  8
SAPA_PROFIL
 10
24.949444721201711
 20
263.73264597501083
 30
0.0
 40
0.2000000000003486
 50
179.9999999999674
 51
299.10990894037991
  0
LINE
  5
2574
  8
SAPA_PROFIL
 10
24.749444721201371
 20
263.73264597501088
 30
0.0
 11
24.749444721201371
 21
266.78139144833972
 31
0.0
  0
ARC
  5
2575
  8
SAPA_PROFIL
 10
25.749444721201151
 20
266.78139144834
 30
0.0
 40
0.9999999999997797
 50
115.00000000028641
 51
180.0000000000162
  0
LINE
  5
2576
  8
SAPA_PROFIL
 10
25.326826459456019
 20
267.6876992353744
 30
0.0
 11
29.172062982955371
 21
269.4807624737212
 31
0.0
  0
ARC
  5
2577
  8
SAPA_PROFIL
 10
28.749444721210459
 20
270.38707026075582
 30
0.0
 40
0.9999999999999909
 50
295.00000000026631
 51
359.99999999999682
  0
LINE
  5
2578
  8
SAPA_PROFIL
 10
29.74944472121047
 20
270.38707026075582
 30
0.0
 11
29.74944472121047
 21
286.69999999997913
 31
0.0
  0
LINE
  5
2579
  8
SAPA_PROFIL
 10
29.74944472121047
 20
286.69999999997913
 30
0.0
 11
28.249444721210459
 21
286.69999999997913
 31
0.0
  0
LINE
  5
257A
  8
SAPA_PROFIL
 10
28.249444721210459
 20
286.69999999997913
 30
0.0
 11
28.249444721210459
 21
287.4999999999788
 31
0.0
  0
LINE
  5
257B
  8
SAPA_PROFIL
 10
28.249444721210459
 20
287.4999999999788
 30
0.0
 11
29.74944472121047
 21
287.4999999999788
 31
0.0
  0
LINE
  5
257C
  8
SAPA_PROFIL
 10
29.74944472121047
 20
287.4999999999788
 30
0.0
 11
29.74944472121047
 21
289.19999999997913
 31
0.0
  0
LINE
  5
257D
  8
SAPA_PROFIL
 10
29.74944472121047
 20
289.19999999997913
 30
0.0
 11
5.1494447212105561
 21
289.49999999997891
 31
0.0
  0
LINE
  5
257E
  8
SAPA_PROFIL
 10
5.1494447212105561
 20
289.49999999997891
 30
0.0
 11
5.1494447212105561
 21
287.79999999997898
 31
0.0
  0
LINE
  5
257F
  8
SAPA_PROFIL
 10
5.1494447212105561
 20
287.79999999997898
 30
0.0
 11
7.1494447212105561
 21
287.79999999997898
 31
0.0
  0
LINE
  5
2580
  8
SAPA_PROFIL
 10
7.1494447212105561
 20
287.79999999997898
 30
0.0
 11
7.1494447212105561
 21
286.99999999997891
 31
0.0
  0
LINE
  5
2581
  8
SAPA_PROFIL
 10
7.1494447212105561
 20
286.99999999997891
 30
0.0
 11
2.9994447212200148
 21
286.99999999997891
 31
0.0
  0
ARC
  5
2582
  8
SAPA_PROFIL
 10
2.9994447212199868
 20
287.4999999999788
 30
0.0
 40
0.5
 50
180.0
 51
270.0000000000033
  0
LINE
  5
2583
  8
SAPA_PROFIL
 10
2.4994447212200148
 20
287.4999999999788
 30
0.0
 11
2.4994447212077371
 21
287.99999999996072
 31
0.0
  0
LINE
  5
2584
  8
SAPA_PROFIL
 10
2.4994447212077371
 20
287.99999999996072
 30
0.0
 11
3.7494447211822708
 21
287.99999999998249
 31
0.0
  0
LINE
  5
2585
  8
SAPA_PROFIL
 10
3.7494447211822708
 20
287.99999999998249
 30
0.0
 11
3.7494447212177411
 21
289.39999999996121
 31
0.0
  0
ARC
  5
2586
  8
SAPA_PROFIL
 10
3.4494447212318389
 20
289.39999999995501
 30
0.0
 40
0.2999999999859026
 50
0.000000001183336
 51
90.000000002640277
  0
LINE
  5
2587
  8
SAPA_PROFIL
 10
3.4494447212180139
 20
289.69999999994093
 30
0.0
 11
-2.9505552787870779
 21
289.69999999996872
 31
0.0
  0
ARC
  5
2588
  8
SAPA_PROFIL
 10
-2.9505552787693712
 20
289.39999999997849
 30
0.0
 40
0.2999999999901774
 50
90.000000003381729
 51
180.00000000191071
  0
LINE
  5
2589
  8
SAPA_PROFIL
 10
-3.2505552787595202
 20
289.39999999996849
 30
0.0
 11
-3.2505552787517891
 21
287.99999999998249
 31
0.0
  0
LINE
  5
258A
  8
SAPA_PROFIL
 10
-3.2505552787517891
 20
287.99999999998249
 30
0.0
 11
-2.0005552787772549
 21
287.99999999996072
 31
0.0
  0
LINE
  5
258B
  8
SAPA_PROFIL
 10
-2.0005552787772549
 20
287.99999999996072
 30
0.0
 11
-2.0005552787895331
 21
287.4999999999788
 31
0.0
  0
ARC
  5
258C
  8
SAPA_PROFIL
 10
-2.5005552787895189
 20
287.4999999999788
 30
0.0
 40
0.4999999999999858
 50
269.99999999999841
 51
0.0
  0
LINE
  5
258D
  8
SAPA_PROFIL
 10
-2.5005552787895331
 20
286.99999999997891
 30
0.0
 11
-5.5005552787895331
 21
286.99999999997891
 31
0.0
  0
ARC
  5
258E
  8
SAPA_PROFIL
 10
-5.5005552787968242
 20
287.4999999999788
 30
0.0
 40
0.5
 50
180.0
 51
270.00000000083543
  0
LINE
  5
258F
  8
SAPA_PROFIL
 10
-6.0005552787968091
 20
287.4999999999788
 30
0.0
 11
-6.0005552787968091
 21
287.99999999997891
 31
0.0
  0
LINE
  5
2590
  8
SAPA_PROFIL
 10
-6.0005552787968091
 20
287.99999999997891
 30
0.0
 11
-4.5505552787997203
 21
287.9999999999784
 31
0.0
  0
LINE
  5
2591
  8
SAPA_PROFIL
 10
-4.5505552787997203
 20
287.9999999999784
 30
0.0
 11
-4.5505552787997203
 21
289.84999999997098
 31
0.0
  0
ARC
  5
2592
  8
SAPA_PROFIL
 10
-4.850555278786234
 20
289.84999999995472
 30
0.0
 40
0.2999999999865137
 50
0.0000000031266125
 51
90.000000003131504
  0
LINE
  5
2593
  8
SAPA_PROFIL
 10
-4.8505552788026298
 20
290.1499999999412
 30
0.0
 11
-7.0907476576592208
 21
290.1499999999703
 31
0.0
  0
LINE
  5
2594
  8
SAPA_PROFIL
 10
-7.0907476576592208
 20
290.1499999999703
 30
0.0
 11
-7.3505552787880779
 21
289.699999999976
 31
0.0
  0
LINE
  5
2595
  8
SAPA_PROFIL
 10
-7.3505552787880779
 20
289.699999999976
 30
0.0
 11
-9.1505552787982651
 21
289.699999999976
 31
0.0
  0
LINE
  5
2596
  8
SAPA_PROFIL
 10
-9.1505552787982651
 20
289.699999999976
 30
0.0
 11
-9.4103628999271223
 21
290.1499999999703
 31
0.0
  0
LINE
  5
2597
  8
SAPA_PROFIL
 10
-9.4103628999271223
 20
290.1499999999703
 30
0.0
 11
-11.65055527878371
 21
290.1499999999703
 31
0.0
  0
ARC
  5
2598
  8
SAPA_PROFIL
 10
-11.65055527877189
 20
289.84999999998468
 30
0.0
 40
0.29999999998563
 50
90.000000002257096
 51
180.0000000029529
  0
LINE
  5
2599
  8
SAPA_PROFIL
 10
-11.95055527875752
 20
289.84999999996921
 30
0.0
 11
-11.95055527878662
 21
287.9999999999784
 31
0.0
  0
LINE
  5
259A
  8
SAPA_PROFIL
 10
-11.95055527878662
 20
287.9999999999784
 30
0.0
 11
-10.50055527878953
 21
287.99999999997891
 31
0.0
  0
LINE
  5
259B
  8
SAPA_PROFIL
 10
-10.50055527878953
 20
287.99999999997891
 30
0.0
 11
-10.50055527878953
 21
287.4999999999788
 31
0.0
  0
ARC
  5
259C
  8
SAPA_PROFIL
 10
-11.00055527878953
 20
287.4999999999788
 30
0.0
 40
0.5
 50
270.0
 51
0.0
  0
LINE
  5
259D
  8
SAPA_PROFIL
 10
-11.00055527878953
 20
286.99999999997891
 30
0.0
 11
-12.75055527878953
 21
286.99999999997891
 31
0.0
  0
ARC
  5
259E
  8
SAPA_PROFIL
 10
-12.75055527878952
 20
287.4999999999788
 30
0.0
 40
0.5
 50
180.0
 51
269.99999999999841
  0
LINE
  5
259F
  8
SAPA_PROFIL
 10
-13.25055527878953
 20
287.4999999999788
 30
0.0
 11
-13.25055527878953
 21
289.9999999999788
 31
0.0
  0
ARC
  5
25A0
  8
SAPA_PROFIL
 10
-11.25055527878953
 20
289.9999999999788
 30
0.0
 40
2.0
 50
90.0
 51
180.0
  0
LINE
  5
25A1
  8
SAPA_PROFIL
 10
-11.25055527878953
 20
291.9999999999788
 30
0.0
 11
46.449444721211187
 21
291.9999999999788
 31
0.0
  0
ARC
  5
25A2
  8
SAPA_PROFIL
 10
46.449444721200692
 20
291.69999999997361
 30
0.0
 40
0.300000000005241
 50
0.0000000000977066
 51
89.999999997995658
  0
LINE
  5
25A3
  8
SAPA_PROFIL
 10
46.749444721205919
 20
291.69999999997412
 30
0.0
 11
46.749444721210473
 21
231.19999999997961
 31
0.0
  0
ARC
  5
25A4
  8
SAPA_PROFIL
 10
46.749444721208647
 20
230.99999999997971
 30
0.0
 40
0.1999999999998181
 50
89.999999999478902
 51
269.99999999947892
  0
LINE
  5
25A5
  8
SAPA_PROFIL
 10
46.749444721206821
 20
230.79999999997989
 30
0.0
 11
46.749468721207222
 21
227.2141895623524
 31
0.0
  0
LINE
  5
25A6
  8
SAPA_PROFIL
 10
44.449444721210277
 20
100.0000000002335
 30
0.0
 11
32.249444721210473
 21
100.0000000002335
 31
0.0
  0
LINE
  5
25A7
  8
SAPA_PROFIL
 10
32.249444721210473
 20
100.0000000002335
 30
0.0
 11
32.249444721210473
 21
68.000000000233513
 31
0.0
  0
LINE
  5
25A8
  8
SAPA_PROFIL
 10
32.249444721210473
 20
68.000000000233513
 30
0.0
 11
44.449444721210277
 21
68.000000000233513
 31
0.0
  0
LINE
  5
25A9
  8
SAPA_PROFIL
 10
44.449444721210277
 20
68.000000000233513
 30
0.0
 11
44.449444721210277
 21
100.0000000002335
 31
0.0
  0
ARC
  5
25AA
  8
SAPA_PROFIL
 10
33.849444721210382
 20
103.0000000002335
 30
0.0
 40
1.0
 50
180.0
 51
270.0
  0
LINE
  5
25AB
  8
SAPA_PROFIL
 10
33.849444721210382
 20
102.0000000002335
 30
0.0
 11
42.849444721210368
 21
102.0000000002335
 31
0.0
  0
ARC
  5
25AC
  8
SAPA_PROFIL
 10
42.849444721210368
 20
103.0000000002335
 30
0.0
 40
1.0
 50
270.0
 51
0.0
  0
LINE
  5
25AD
  8
SAPA_PROFIL
 10
43.849444721210368
 20
103.0000000002335
 30
0.0
 11
43.849444721210368
 21
105.50000003563559
 31
0.0
  0
LINE
  5
25AE
  8
SAPA_PROFIL
 10
43.849444721210368
 20
105.50000003563559
 30
0.0
 11
44.449444721210277
 21
105.50000003563559
 31
0.0
  0
LINE
  5
25AF
  8
SAPA_PROFIL
 10
44.449444721210277
 20
105.50000003563559
 30
0.0
 11
44.449444721210277
 21
123.00000003563559
 31
0.0
  0
LINE
  5
25B0
  8
SAPA_PROFIL
 10
44.449444721210277
 20
123.00000003563559
 30
0.0
 11
32.249444721210473
 21
123.00000003563559
 31
0.0
  0
LINE
  5
25B1
  8
SAPA_PROFIL
 10
32.249444721210473
 20
123.00000003563559
 30
0.0
 11
32.249444721210473
 21
105.50000003563559
 31
0.0
  0
LINE
  5
25B2
  8
SAPA_PROFIL
 10
32.249444721210473
 20
105.50000003563559
 30
0.0
 11
32.849444721210382
 21
105.50000003563559
 31
0.0
  0
LINE
  5
25B3
  8
SAPA_PROFIL
 10
32.849444721210382
 20
105.50000003563559
 30
0.0
 11
32.849444721210382
 21
103.0000000002335
 31
0.0
  0
LINE
  5
25B4
  8
SAPA_PROFIL
 10
26.449444721200731
 20
91.750000000248505
 30
0.0
 11
26.449444721200731
 21
93.012880845418522
 31
0.0
  0
ARC
  5
25B5
  8
SAPA_PROFIL
 10
26.749444721232312
 20
96.500000000247695
 30
0.0
 40
3.499999999999353
 50
240.89009105957459
 51
265.08289966395148
  0
ARC
  5
25B6
  8
SAPA_PROFIL
 10
24.949444721201349
 20
93.267354025216264
 30
0.0
 40
0.2000000000004273
 50
60.890091059512677
 51
179.9999999999348
  0
LINE
  5
25B7
  8
SAPA_PROFIL
 10
24.74944472120092
 20
93.267354025216491
 30
0.0
 11
24.74944472120092
 21
90.218608551887655
 31
0.0
  0
ARC
  5
25B8
  8
SAPA_PROFIL
 10
25.749444721200899
 20
90.218608551887712
 30
0.0
 40
0.9999999999999786
 50
180.00000000000321
 51
244.99999999973519
  0
LINE
  5
25B9
  8
SAPA_PROFIL
 10
25.326826459456019
 20
89.312300764853035
 30
0.0
 11
29.172062982955371
 21
87.519237526506245
 31
0.0
  0
ARC
  5
25BA
  8
SAPA_PROFIL
 10
28.749444721210491
 20
86.612929739471554
 30
0.0
 40
0.999999999999979
 50
0.0000000000032569
 51
64.999999999735152
  0
LINE
  5
25BB
  8
SAPA_PROFIL
 10
29.74944472121047
 20
86.612929739471596
 30
0.0
 11
29.74944472121047
 21
70.300000000248247
 31
0.0
  0
LINE
  5
25BC
  8
SAPA_PROFIL
 10
29.74944472121047
 20
70.300000000248247
 30
0.0
 11
28.249444721210459
 21
70.300000000248247
 31
0.0
  0
LINE
  5
25BD
  8
SAPA_PROFIL
 10
28.249444721210459
 20
70.300000000248247
 30
0.0
 11
28.249444721210459
 21
69.500000000248519
 31
0.0
  0
LINE
  5
25BE
  8
SAPA_PROFIL
 10
28.249444721210459
 20
69.500000000248519
 30
0.0
 11
29.74944472121047
 21
69.500000000248519
 31
0.0
  0
LINE
  5
25BF
  8
SAPA_PROFIL
 10
29.74944472121047
 20
69.500000000248519
 30
0.0
 11
29.74944472121047
 21
67.800000000248247
 31
0.0
  0
LINE
  5
25C0
  8
SAPA_PROFIL
 10
29.74944472121047
 20
67.800000000248247
 30
0.0
 11
5.1494447212105561
 21
67.500000000248519
 31
0.0
  0
LINE
  5
25C1
  8
SAPA_PROFIL
 10
5.1494447212105561
 20
67.500000000248519
 30
0.0
 11
5.1494447212105561
 21
69.200000000248338
 31
0.0
  0
LINE
  5
25C2
  8
SAPA_PROFIL
 10
5.1494447212105561
 20
69.200000000248338
 30
0.0
 11
7.1494447212105561
 21
69.200000000248338
 31
0.0
  0
LINE
  5
25C3
  8
SAPA_PROFIL
 10
7.1494447212105561
 20
69.200000000248338
 30
0.0
 11
7.1494447212105561
 21
70.000000000248519
 31
0.0
  0
LINE
  5
25C4
  8
SAPA_PROFIL
 10
7.1494447212105561
 20
70.000000000248519
 30
0.0
 11
2.9994447212200148
 21
70.000000000248519
 31
0.0
  0
ARC
  5
25C5
  8
SAPA_PROFIL
 10
2.9994447212199891
 20
69.500000000248534
 30
0.0
 40
0.4999999999999716
 50
89.999999999996945
 51
180.00000000000321
  0
LINE
  5
25C6
  8
SAPA_PROFIL
 10
2.4994447212200148
 20
69.500000000248519
 30
0.0
 11
2.4994447212077371
 21
69.000000000266709
 31
0.0
  0
LINE
  5
25C7
  8
SAPA_PROFIL
 10
2.4994447212077371
 20
69.000000000266709
 30
0.0
 11
3.749444721181816
 21
69.000000000244881
 31
0.0
  0
LINE
  5
25C8
  8
SAPA_PROFIL
 10
3.749444721181816
 20
69.000000000244881
 30
0.0
 11
3.7494447212177411
 21
67.600000000266164
 31
0.0
  0
ARC
  5
25C9
  8
SAPA_PROFIL
 10
3.4494447212316022
 20
67.600000000272587
 30
0.0
 40
0.2999999999861398
 50
269.99999999731813
 51
359.99999999877321
  0
LINE
  5
25CA
  8
SAPA_PROFIL
 10
3.4494447212175601
 20
67.300000000286445
 30
0.0
 11
-2.9505552787875331
 21
67.300000000258706
 31
0.0
  0
ARC
  5
25CB
  8
SAPA_PROFIL
 10
-2.9505552787696132
 20
67.600000000248613
 30
0.0
 40
0.2999999999899074
 50
179.99999999803771
 51
269.99999999657751
  0
LINE
  5
25CC
  8
SAPA_PROFIL
 10
-3.2505552787595202
 20
67.600000000258888
 30
0.0
 11
-3.2505552787517891
 21
69.000000000244881
 31
0.0
  0
LINE
  5
25CD
  8
SAPA_PROFIL
 10
-3.2505552787517891
 20
69.000000000244881
 30
0.0
 11
-2.0005552787777101
 21
69.000000000266709
 31
0.0
  0
LINE
  5
25CE
  8
SAPA_PROFIL
 10
-2.0005552787777101
 20
69.000000000266709
 30
0.0
 11
-2.0005552787895331
 21
69.500000000248519
 31
0.0
  0
ARC
  5
25CF
  8
SAPA_PROFIL
 10
-2.5005552787895371
 20
69.500000000248519
 30
0.0
 40
0.5000000000000036
 50
0.0
 51
89.999999999999588
  0
LINE
  5
25D0
  8
SAPA_PROFIL
 10
-2.5005552787895331
 20
70.000000000248519
 30
0.0
 11
-5.5005552787895331
 21
70.000000000248519
 31
0.0
  0
ARC
  5
25D1
  8
SAPA_PROFIL
 10
-5.500555278796817
 20
69.500000000248519
 30
0.0
 40
0.5
 50
89.999999999165425
 51
180.0
  0
LINE
  5
25D2
  8
SAPA_PROFIL
 10
-6.0005552787968091
 20
69.500000000248519
 30
0.0
 11
-6.0005552787968091
 21
69.000000000248519
 31
0.0
  0
LINE
  5
25D3
  8
SAPA_PROFIL
 10
-6.0005552787968091
 20
69.000000000248519
 30
0.0
 11
-4.5505552787997203
 21
69.000000000249429
 31
0.0
  0
LINE
  5
25D4
  8
SAPA_PROFIL
 10
-4.5505552787997203
 20
69.000000000249429
 30
0.0
 11
-4.5505552787997203
 21
67.150000000256341
 31
0.0
  0
ARC
  5
25D5
  8
SAPA_PROFIL
 10
-4.850555278786266
 20
67.150000000272712
 30
0.0
 40
0.2999999999865466
 50
269.99999999687469
 51
359.99999999687338
  0
LINE
  5
25D6
  8
SAPA_PROFIL
 10
-4.8505552788026298
 20
66.850000000286173
 30
0.0
 11
-7.0907476576592208
 21
66.850000000257069
 31
0.0
  0
LINE
  5
25D7
  8
SAPA_PROFIL
 10
-7.0907476576592208
 20
66.850000000257069
 30
0.0
 11
-7.3505552787880779
 21
67.300000000251416
 31
0.0
  0
LINE
  5
25D8
  8
SAPA_PROFIL
 10
-7.3505552787880779
 20
67.300000000251416
 30
0.0
 11
-9.1505552787982651
 21
67.300000000251416
 31
0.0
  0
LINE
  5
25D9
  8
SAPA_PROFIL
 10
-9.1505552787982651
 20
67.300000000251416
 30
0.0
 11
-9.4103628999271223
 21
66.850000000257069
 31
0.0
  0
LINE
  5
25DA
  8
SAPA_PROFIL
 10
-9.4103628999271223
 20
66.850000000257069
 30
0.0
 11
-11.65055527878371
 21
66.850000000257069
 31
0.0
  0
ARC
  5
25DB
  8
SAPA_PROFIL
 10
-11.65055527877211
 20
67.150000000242926
 30
0.0
 40
0.2999999999858573
 50
179.9999999970905
 51
269.99999999778402
  0
LINE
  5
25DC
  8
SAPA_PROFIL
 10
-11.950555278757969
 20
67.15000000025816
 30
0.0
 11
-11.95055527878662
 21
69.000000000249429
 31
0.0
  0
LINE
  5
25DD
  8
SAPA_PROFIL
 10
-11.95055527878662
 20
69.000000000249429
 30
0.0
 11
-10.50055527878953
 21
69.000000000248519
 31
0.0
  0
LINE
  5
25DE
  8
SAPA_PROFIL
 10
-10.50055527878953
 20
69.000000000248519
 30
0.0
 11
-10.50055527878953
 21
69.500000000248519
 31
0.0
  0
ARC
  5
25DF
  8
SAPA_PROFIL
 10
-11.00055527878952
 20
69.500000000248534
 30
0.0
 40
0.4999999999999858
 50
359.99999999999841
 51
90.000000000001606
  0
LINE
  5
25E0
  8
SAPA_PROFIL
 10
-11.00055527878953
 20
70.000000000248519
 30
0.0
 11
-12.75055527878953
 21
70.000000000248519
 31
0.0
  0
ARC
  5
25E1
  8
SAPA_PROFIL
 10
-12.75055527878953
 20
69.500000000248519
 30
0.0
 40
0.5
 50
90.00000000000081
 51
180.0
  0
LINE
  5
25E2
  8
SAPA_PROFIL
 10
-13.25055527878953
 20
69.500000000248519
 30
0.0
 11
-13.250555278789991
 21
67.000000000248974
 31
0.0
  0
ARC
  5
25E3
  8
SAPA_PROFIL
 10
-11.25055527878985
 20
67.000000000248633
 30
0.0
 40
2.000000000000131
 50
179.99999999999059
 51
269.99999999999619
  0
LINE
  5
25E4
  8
SAPA_PROFIL
 10
-11.250555278789991
 20
65.000000000248519
 30
0.0
 11
46.449444721211187
 21
65.000000000248519
 31
0.0
  0
ARC
  5
25E5
  8
SAPA_PROFIL
 10
46.449444721200493
 20
65.30000000025349
 30
0.0
 40
0.300000000004971
 50
270.00000000204369
 51
359.9999999999539
  0
LINE
  5
25E6
  8
SAPA_PROFIL
 10
46.749444721205457
 20
65.300000000253235
 30
0.0
 11
46.749444721210473
 21
125.80000000024781
 31
0.0
  0
ARC
  5
25E7
  8
SAPA_PROFIL
 10
46.749444721208647
 20
126.0000000002476
 30
0.0
 40
0.1999999999998181
 50
90.000000000523144
 51
270.00000000051898
  0
LINE
  5
25E8
  8
SAPA_PROFIL
 10
46.749444721206821
 20
126.2000000002474
 30
0.0
 11
46.749468721207222
 21
129.78581043787489
 31
0.0
  0
ARC
  5
25E9
  8
SAPA_PROFIL
 10
45.749468721207123
 20
129.78581043787489
 30
0.0
 40
1.000000000000099
 50
0.0
 51
134.99999999999599
  0
LINE
  5
25EA
  8
SAPA_PROFIL
 10
45.042361940020548
 20
130.49291721906161
 30
0.0
 11
43.73731268685173
 21
129.18786796589231
 31
0.0
  0
ARC
  5
25EB
  8
SAPA_PROFIL
 10
43.949444721207257
 20
128.97573593153609
 30
0.0
 40
0.2999999999998839
 50
134.99999999990209
 51
179.9999999999186
  0
LINE
  5
25EC
  8
SAPA_PROFIL
 10
43.649444721207367
 20
128.97573593153649
 30
0.0
 11
43.649444721207367
 21
128.38923048478929
 31
0.0
  0
ARC
  5
25ED
  8
SAPA_PROFIL
 10
43.949444721207712
 20
128.38923048478981
 30
0.0
 40
0.3000000000003382
 50
180.00000000009771
 51
210.00000000009501
  0
LINE
  5
25EE
  8
SAPA_PROFIL
 10
43.689637100072332
 20
128.2392304847892
 30
0.0
 11
44.549444721207458
 21
126.75000000024851
 31
0.0
  0
LINE
  5
25EF
  8
SAPA_PROFIL
 10
44.549444721207458
 20
126.75000000024851
 30
0.0
 11
44.549456721207427
 21
126.3000000002482
 31
0.0
  0
ARC
  5
25F0
  8
SAPA_PROFIL
 10
44.24945672120748
 20
126.3000000002484
 30
0.0
 40
0.2999999999999474
 50
269.99999999995521
 51
359.9999999999593
  0
LINE
  5
25F1
  8
SAPA_PROFIL
 10
44.249456721207252
 20
126.00000000024851
 30
0.0
 11
40.649444721207367
 21
126.00000000024851
 31
0.0
  0
ARC
  5
25F2
  8
SAPA_PROFIL
 10
40.649444721207367
 20
126.3000000002487
 30
0.0
 40
0.3000000000001819
 50
180.0
 51
270.0
  0
LINE
  5
25F3
  8
SAPA_PROFIL
 10
40.349444721207192
 20
126.3000000002487
 30
0.0
 11
40.349444721207192
 21
126.75000000024851
 31
0.0
  0
LINE
  5
25F4
  8
SAPA_PROFIL
 10
40.349444721207192
 20
126.75000000024851
 30
0.0
 11
41.209269458776127
 21
128.2392601313224
 31
0.0
  0
ARC
  5
25F5
  8
SAPA_PROFIL
 10
40.949461837640392
 20
128.38926013132249
 30
0.0
 40
0.3000000000004012
 50
330.00000000002422
 51
359.99635313258273
  0
LINE
  5
25F6
  8
SAPA_PROFIL
 10
41.249461837033088
 20
128.38924103636941
 30
0.0
 11
41.249468886823927
 21
128.50000000024849
 31
0.0
  0
LINE
  5
25F7
  8
SAPA_PROFIL
 10
41.249468886823927
 20
128.50000000024849
 30
0.0
 11
39.627756884719247
 21
128.50000000024761
 31
0.0
  0
ARC
  5
25F8
  8
SAPA_PROFIL
 10
39.627756884719417
 20
127.50000000024789
 30
0.0
 40
0.9999999999996732
 50
90.000000000009777
 51
150.0000000000108
  0
LINE
  5
25F9
  8
SAPA_PROFIL
 10
38.761731480935168
 20
128.00000000024761
 30
0.0
 11
37.89570607715109
 21
126.50000000024851
 31
0.0
  0
ARC
  5
25FA
  8
SAPA_PROFIL
 10
37.02968067336684
 20
127.00000000024821
 30
0.0
 40
0.9999999999996786
 50
270.00000000001017
 51
330.00000000001103
  0
LINE
  5
25FB
  8
SAPA_PROFIL
 10
37.029680673367011
 20
126.00000000024851
 30
0.0
 11
36.469208769050738
 21
126.00000000024851
 31
0.0
  0
ARC
  5
25FC
  8
SAPA_PROFIL
 10
36.469208769050688
 20
127.0000000002486
 30
0.0
 40
1.0000000000000711
 50
210.00000000000219
 51
270.0000000000029
  0
LINE
  5
25FD
  8
SAPA_PROFIL
 10
35.603183365266197
 20
126.50000000024851
 30
0.0
 11
34.737157961481223
 21
128.00000000024761
 31
0.0
  0
ARC
  5
25FE
  8
SAPA_PROFIL
 10
33.871132557696193
 20
127.50000000024841
 30
0.0
 40
1.0000000000001139
 50
29.999999999943551
 51
89.999999999945445
  0
LINE
  5
25FF
  8
SAPA_PROFIL
 10
33.871132557697138
 20
128.50000000024849
 30
0.0
 11
32.249420555593808
 21
128.50000000024849
 31
0.0
  0
LINE
  5
2600
  8
SAPA_PROFIL
 10
32.249420555593808
 20
128.50000000024849
 30
0.0
 11
32.249427605384653
 21
128.38924103636941
 31
0.0
  0
ARC
  5
2601
  8
SAPA_PROFIL
 10
32.549427604776511
 20
128.38926013132269
 30
0.0
 40
0.2999999999995532
 50
180.0036468674607
 51
210.00000000001901
  0
LINE
  5
2602
  8
SAPA_PROFIL
 10
32.289619983641607
 20
128.23926013132291
 30
0.0
 11
33.149444721210557
 21
126.75000000024851
 31
0.0
  0
LINE
  5
2603
  8
SAPA_PROFIL
 10
33.149444721210557
 20
126.75000000024851
 30
0.0
 11
33.149444721210557
 21
126.3000000002487
 31
0.0
  0
ARC
  5
2604
  8
SAPA_PROFIL
 10
32.849444721210382
 20
126.3000000002487
 30
0.0
 40
0.3000000000001819
 50
270.0
 51
0.0
  0
LINE
  5
2605
  8
SAPA_PROFIL
 10
32.849444721210382
 20
126.00000000024851
 30
0.0
 11
29.2494327212105
 21
126.00000000024851
 31
0.0
  0
ARC
  5
2606
  8
SAPA_PROFIL
 10
29.249432721210489
 20
126.3000000002487
 30
0.0
 40
0.3000000000001677
 50
179.99999999999719
 51
270.00000000000131
  0
LINE
  5
2607
  8
SAPA_PROFIL
 10
28.949432721210311
 20
126.3000000002487
 30
0.0
 11
28.949444721210291
 21
126.75000000024851
 31
0.0
  0
LINE
  5
2608
  8
SAPA_PROFIL
 10
28.949444721210291
 20
126.75000000024851
 30
0.0
 11
29.80925234234542
 21
128.2392304847892
 31
0.0
  0
ARC
  5
2609
  8
SAPA_PROFIL
 10
29.549444721209809
 20
128.38923048478901
 30
0.0
 40
0.3000000000001137
 50
330.0000000000677
 51
0.0000000000651378
  0
LINE
  5
260A
  8
SAPA_PROFIL
 10
29.84944472120992
 20
128.38923048478929
 30
0.0
 11
29.849444721210379
 21
128.97573593153649
 31
0.0
  0
ARC
  5
260B
  8
SAPA_PROFIL
 10
29.549444721210499
 20
128.97573593153609
 30
0.0
 40
0.2999999999998799
 50
0.0000000000814222
 51
45.000000000098339
  0
LINE
  5
260C
  8
SAPA_PROFIL
 10
29.761576755566011
 20
129.18786796589231
 30
0.0
 11
28.456527502396739
 21
130.49291721906161
 31
0.0
  0
ARC
  5
260D
  8
SAPA_PROFIL
 10
27.749420721210399
 20
129.785810437875
 30
0.0
 40
0.9999999999998774
 50
45.000000000009791
 51
180.00000000000489
  0
LINE
  5
260E
  8
SAPA_PROFIL
 10
26.74942072121053
 20
129.78581043787489
 30
0.0
 11
26.74944472121047
 21
126.2000000002474
 31
0.0
  0
ARC
  5
260F
  8
SAPA_PROFIL
 10
26.74944472121047
 20
126.00000000024779
 30
0.0
 40
0.1999999999995907
 50
270.0
 51
90.0
  0
LINE
  5
2610
  8
SAPA_PROFIL
 10
26.74944472121047
 20
125.8000000002482
 30
0.0
 11
26.74944472121047
 21
124.4999999706986
 31
0.0
  0
ARC
  5
2611
  8
SAPA_PROFIL
 10
27.749444721066631
 20
124.49999997084259
 30
0.0
 40
0.9999999998561612
 50
180.00000000825131
 51
270.00000000844977
  0
LINE
  5
2612
  8
SAPA_PROFIL
 10
27.7494447212141
 20
123.49999997098639
 30
0.0
 11
28.74944472121047
 21
123.49999997098639
 31
0.0
  0
ARC
  5
2613
  8
SAPA_PROFIL
 10
28.74944472121047
 20
122.49999997098639
 30
0.0
 40
1.0
 50
0.0
 51
90.0
  0
LINE
  5
2614
  8
SAPA_PROFIL
 10
29.74944472121047
 20
122.49999997098639
 30
0.0
 11
29.74944472121047
 21
116.3870702610254
 31
0.0
  0
ARC
  5
2615
  8
SAPA_PROFIL
 10
28.749444721210491
 20
116.3870702610255
 30
0.0
 40
0.9999999999999786
 50
295.00000000026478
 51
359.99999999999682
  0
LINE
  5
2616
  8
SAPA_PROFIL
 10
29.172062982955371
 20
115.48076247399079
 30
0.0
 11
25.326826459456019
 21
113.687699235644
 31
0.0
  0
ARC
  5
2617
  8
SAPA_PROFIL
 10
25.74944472120125
 20
112.7813914486091
 30
0.0
 40
1.000000000000332
 50
115.0000000002774
 51
180.00000000000969
  0
LINE
  5
2618
  8
SAPA_PROFIL
 10
24.74944472120092
 20
112.7813914486089
 30
0.0
 11
24.74944472120092
 21
109.73264597528051
 31
0.0
  0
ARC
  5
2619
  8
SAPA_PROFIL
 10
24.94944472120148
 20
109.73264597528051
 30
0.0
 40
0.2000000000005571
 50
180.0
 51
299.10990894042362
  0
ARC
  5
261A
  8
SAPA_PROFIL
 10
26.749444721233381
 20
106.5000000002491
 30
0.0
 40
3.499999999999686
 50
94.917100336065559
 51
119.1099089404423
  0
LINE
  5
261B
  8
SAPA_PROFIL
 10
26.449444721200731
 20
109.9871191550785
 30
0.0
 11
26.449444721200731
 21
111.25000000024851
 31
0.0
  0
ARC
  5
261C
  8
SAPA_PROFIL
 10
26.949444721200742
 20
111.25000000024851
 30
0.0
 40
0.5
 50
90.0
 51
180.0
  0
LINE
  5
261D
  8
SAPA_PROFIL
 10
26.949444721200742
 20
111.75000000024851
 30
0.0
 11
29.24944472121047
 21
111.75000000024851
 31
0.0
  0
ARC
  5
261E
  8
SAPA_PROFIL
 10
29.249444721210459
 20
111.25000000024851
 30
0.0
 40
0.5
 50
0.0
 51
89.999999999999588
  0
LINE
  5
261F
  8
SAPA_PROFIL
 10
29.74944472121047
 20
111.25000000024851
 30
0.0
 11
29.74944472121047
 21
108.3027756380168
 31
0.0
  0
ARC
  5
2620
  8
SAPA_PROFIL
 10
26.749444721232429
 20
106.50000000024831
 30
0.0
 40
3.4999999999999729
 50
328.99728086542871
 51
31.002719134571279
  0
LINE
  5
2621
  8
SAPA_PROFIL
 10
29.74944472121047
 20
104.6972243624798
 30
0.0
 11
29.74944472121047
 21
98.302775638016783
 31
0.0
  0
ARC
  5
2622
  8
SAPA_PROFIL
 10
26.749444721232429
 20
96.500000000248306
 30
0.0
 40
3.4999999999999729
 50
328.99728086542871
 51
31.002719134571279
  0
LINE
  5
2623
  8
SAPA_PROFIL
 10
29.74944472121047
 20
94.697224362479801
 30
0.0
 11
29.74944472121047
 21
91.750000000248505
 31
0.0
  0
ARC
  5
2624
  8
SAPA_PROFIL
 10
29.24944472121047
 20
91.750000000248505
 30
0.0
 40
0.5
 50
270.0
 51
0.0
  0
LINE
  5
2625
  8
SAPA_PROFIL
 10
29.24944472121047
 20
91.250000000248534
 30
0.0
 11
26.949444721200742
 21
91.250000000248534
 31
0.0
  0
ARC
  5
2626
  8
SAPA_PROFIL
 10
26.949444721200742
 20
91.750000000248505
 30
0.0
 40
0.5
 50
180.0
 51
270.0
  0
ARC
  5
2627
  8
SAPA_PROFIL
 62
     4
 10
43.89945668870169
 20
228.6241668475329
 30
0.0
 40
0.3000000000003311
 50
149.99999999990419
 51
179.99999999990229
  0
LINE
  5
2628
  8
SAPA_PROFIL
 62
     4
 10
43.639649067566317
 20
228.77416684753351
 30
0.0
 11
44.49945672120861
 21
230.26339738837871
 31
0.0
  0
LINE
  5
2629
  8
SAPA_PROFIL
 62
     4
 10
44.49945672120861
 20
230.26339738837871
 30
0.0
 11
44.49945672120861
 21
230.69999992875711
 31
0.0
  0
ARC
  5
262A
  8
SAPA_PROFIL
 62
     4
 10
44.249456721208617
 20
230.69999992875711
 30
0.0
 40
0.25
 50
0.0
 51
90.0
  0
LINE
  5
262B
  8
SAPA_PROFIL
 62
     4
 10
44.249456721208617
 20
230.94999992875711
 30
0.0
 11
40.649444721208731
 21
230.94999992875711
 31
0.0
  0
ARC
  5
262C
  8
SAPA_PROFIL
 62
     4
 10
40.649444721208731
 20
230.69999992875711
 30
0.0
 40
0.25
 50
89.999999999998366
 51
180.0
  0
LINE
  5
262D
  8
SAPA_PROFIL
 62
     4
 10
40.399444721208738
 20
230.69999992875711
 30
0.0
 11
40.399456363944182
 21
230.26339800717849
 31
0.0
  0
LINE
  5
262E
  8
SAPA_PROFIL
 62
     4
 10
40.399456363944182
 20
230.26339800717849
 30
0.0
 11
41.259264309837128
 21
228.7741669601408
 31
0.0
  0
ARC
  5
262F
  8
SAPA_PROFIL
 62
     4
 10
40.999456688702473
 20
228.6241669601412
 30
0.0
 40
0.2999999999991736
 50
359.99999999997289
 51
29.999999999979561
  0
LINE
  5
2630
  8
SAPA_PROFIL
 62
     4
 10
41.299456688701632
 20
228.62416696014111
 30
0.0
 11
41.299456688701632
 21
205.3758329688896
 31
0.0
  0
ARC
  5
2631
  8
SAPA_PROFIL
 62
     4
 10
40.999456688701613
 20
205.37583296888931
 30
0.0
 40
0.3000000000000256
 50
330.00000000006418
 51
0.0000000000705659
  0
LINE
  5
2632
  8
SAPA_PROFIL
 62
     4
 10
41.259264309837128
 20
205.22583296888959
 30
0.0
 11
40.399456363943727
 21
203.73660192185179
 31
0.0
  0
LINE
  5
2633
  8
SAPA_PROFIL
 62
     4
 10
40.399456363943727
 20
203.73660192185179
 30
0.0
 11
40.399444721208738
 21
203.3000000002732
 31
0.0
  0
ARC
  5
2634
  8
SAPA_PROFIL
 62
     4
 10
40.649444721208731
 20
203.3000000002732
 30
0.0
 40
0.2499999999999929
 50
180.0
 51
270.00000000000171
  0
LINE
  5
2635
  8
SAPA_PROFIL
 62
     4
 10
40.649444721208731
 20
203.0500000002732
 30
0.0
 11
44.249456721208617
 21
203.05000000027371
 31
0.0
  0
ARC
  5
2636
  8
SAPA_PROFIL
 62
     4
 10
44.249456721208617
 20
203.30000000027371
 30
0.0
 40
0.25
 50
270.0
 51
0.0
  0
LINE
  5
2637
  8
SAPA_PROFIL
 62
     4
 10
44.49945672120861
 20
203.30000000027371
 30
0.0
 11
44.49945672120861
 21
203.736602540652
 31
0.0
  0
LINE
  5
2638
  8
SAPA_PROFIL
 62
     4
 10
44.49945672120861
 20
203.736602540652
 30
0.0
 11
43.639649067566317
 21
205.22583308149731
 31
0.0
  0
ARC
  5
2639
  8
SAPA_PROFIL
 62
     4
 10
43.899456688701072
 20
205.37583308149681
 30
0.0
 40
0.2999999999992616
 50
179.99999999997829
 51
209.9999999999761
  0
LINE
  5
263A
  8
SAPA_PROFIL
 62
     4
 10
43.599456688701821
 20
205.37583308149689
 30
0.0
 11
43.599456688701359
 21
228.62416684753339
 31
0.0
  0
LINE
  5
263B
  8
SAPA_PROFIL
 62
     4
 10
3.4017096535933429
 20
214.49999993188229
 30
-0.2
 11
-10.79829034640875
 21
214.49999993188229
 31
-0.2
1001
RC_PROFILE
1002
{
1000
Region
1002
}
  0
ARC
  5
263C
  8
SAPA_PROFIL
 62
     4
 10
-10.79829034640875
 20
214.99999993188229
 30
-0.2
 40
0.5
 50
180.00000000020839
 51
270.0
1001
RC_PROFILE
1002
{
1000
Region
1002
}
  0
LINE
  5
263D
  8
SAPA_PROFIL
 62
     4
 10
-11.29829034640875
 20
214.99999993188041
 30
-0.2
 11
-11.29829034641147
 21
218.99999993250159
 31
-0.2
1001
RC_PROFILE
1002
{
1000
Region
1002
}
  0
ARC
  5
263E
  8
SAPA_PROFIL
 62
     4
 10
-10.79829034641147
 20
218.99999993250159
 30
-0.2
 40
0.5
 50
90.0
 51
180.0
1001
RC_PROFILE
1002
{
1000
Region
1002
}
  0
LINE
  5
263F
  8
SAPA_PROFIL
 62
     4
 10
-10.79829034641147
 20
219.49999993250159
 30
-0.2
 11
3.4017096535919791
 21
219.4999999325089
 31
-0.2
1001
RC_PROFILE
1002
{
1000
Region
1002
}
  0
ARC
  5
2640
  8
SAPA_PROFIL
 62
     4
 10
3.4017096535932292
 20
218.99999993250881
 30
-0.2
 40
0.5000000000001137
 50
0.0000000000130276
 51
90.000000000143288
1001
RC_PROFILE
1002
{
1000
Region
1002
}
  0
LINE
  5
2641
  8
SAPA_PROFIL
 62
     4
 10
3.9017096535933429
 20
218.9999999325089
 30
-0.2
 11
3.9017096535933429
 21
214.99999993188229
 31
-0.2
1001
RC_PROFILE
1002
{
1000
Region
1002
}
  0
ARC
  5
2642
  8
SAPA_PROFIL
 62
     4
 10
3.4017096535933429
 20
214.99999993188229
 30
-0.2
 40
0.5
 50
270.0
 51
0.0
1001
RC_PROFILE
1002
{
1000
Region
1002
}
  0
ARC
  5
2643
  8
SAPA_PROFIL
 62
     4
 10
28.96518321000179
 20
227.92274000190079
 30
0.0
 40
1.200000000000834
 50
359.99999999999193
 51
30.000000000012861
1001
GENIUS_GENOBJ-N-FIL_13
1002
{
1000
OWNER
1000
GEN
1002
}
1001
GENIUS_GENODEF_13
1002
{
1000
HIER
1070
     0
1002
}
1002
{
1000
MANEDIT
1070
     0
1002
}
1002
{
1000
NOSEL
1070
     0
1002
}
1002
{
1000
BEHIND
1070
     0
1002
}
1002
{
1000
OTHER
1070
     0
1002
}
1002
{
1000
REACTOR
1002
}
  0
LINE
  5
2644
  8
SAPA_PROFIL
 62
     4
 10
30.0044136945437
 20
228.52274000190141
 30
0.0
 11
28.999444363945479
 21
230.2633979425448
 31
0.0
1001
GENIUS_GENOBJ-N-FIL_13
1002
{
1000
OWNER
1000
GEN
1002
}
1001
GENIUS_GENODEF_13
1002
{
1000
HIER
1070
     0
1002
}
1002
{
1000
MANEDIT
1070
     0
1002
}
1002
{
1000
NOSEL
1070
     0
1002
}
1002
{
1000
BEHIND
1070
     0
1002
}
1002
{
1000
OTHER
1070
     0
1002
}
1002
{
1000
REACTOR
1002
}
  0
LINE
  5
2645
  8
SAPA_PROFIL
 62
     4
 10
28.999444363945479
 20
230.2633979425448
 30
0.0
 11
28.999432721210489
 21
230.6999998641233
 31
0.0
1001
GENIUS_GENOBJ-N-FIL_13
1002
{
1000
OWNER
1000
GEN
1002
}
1001
GENIUS_GENODEF_13
1002
{
1000
HIER
1070
     0
1002
}
1002
{
1000
MANEDIT
1070
     0
1002
}
1002
{
1000
NOSEL
1070
     0
1002
}
1002
{
1000
BEHIND
1070
     0
1002
}
1002
{
1000
OTHER
1070
     0
1002
}
1002
{
1000
REACTOR
1002
}
  0
ARC
  5
2646
  8
SAPA_PROFIL
 62
     4
 10
29.249432721210489
 20
230.6999998641233
 30
0.0
 40
0.2499999999999964
 50
89.999999999999204
 51
180.0
1001
GENIUS_GENOBJ-N-FIL_13
1002
{
1000
OWNER
1000
GEN
1002
}
1001
GENIUS_GENODEF_13
1002
{
1000
HIER
1070
     0
1002
}
1002
{
1000
MANEDIT
1070
     0
1002
}
1002
{
1000
NOSEL
1070
     0
1002
}
1002
{
1000
BEHIND
1070
     0
1002
}
1002
{
1000
OTHER
1070
     0
1002
}
1002
{
1000
REACTOR
1002
}
  0
LINE
  5
2647
  8
SAPA_PROFIL
 62
     4
 10
29.2494327212105
 20
230.9499998641233
 30
0.0
 11
32.849444721210382
 21
230.9499998641229
 31
0.0
1001
GENIUS_GENOBJ-N-FIL_13
1002
{
1000
OWNER
1000
GEN
1002
}
1001
GENIUS_GENODEF_13
1002
{
1000
HIER
1070
     0
1002
}
1002
{
1000
MANEDIT
1070
     0
1002
}
1002
{
1000
NOSEL
1070
     0
1002
}
1002
{
1000
BEHIND
1070
     0
1002
}
1002
{
1000
OTHER
1070
     0
1002
}
1002
{
1000
REACTOR
1002
}
  0
ARC
  5
2648
  8
SAPA_PROFIL
 62
     4
 10
32.849444721210382
 20
230.6999998641229
 30
0.0
 40
0.25
 50
0.0
 51
90.0
1001
GENIUS_GENOBJ-N-FIL_13
1002
{
1000
OWNER
1000
GEN
1002
}
1001
GENIUS_GENODEF_13
1002
{
1000
HIER
1070
     0
1002
}
1002
{
1000
MANEDIT
1070
     0
1002
}
1002
{
1000
NOSEL
1070
     0
1002
}
1002
{
1000
BEHIND
1070
     0
1002
}
1002
{
1000
OTHER
1070
     0
1002
}
1002
{
1000
REACTOR
1002
}
  0
LINE
  5
2649
  8
SAPA_PROFIL
 62
     4
 10
33.099444721210382
 20
230.6999998641229
 30
0.0
 11
33.099444721210382
 21
230.26339732374461
 31
0.0
1001
GENIUS_GENOBJ-N-FIL_13
1002
{
1000
OWNER
1000
GEN
1002
}
1001
GENIUS_GENODEF_13
1002
{
1000
HIER
1070
     0
1002
}
1002
{
1000
MANEDIT
1070
     0
1002
}
1002
{
1000
NOSEL
1070
     0
1002
}
1002
{
1000
BEHIND
1070
     0
1002
}
1002
{
1000
OTHER
1070
     0
1002
}
1002
{
1000
REACTOR
1002
}
  0
LINE
  5
264A
  8
SAPA_PROFIL
 62
     4
 10
33.099444721210382
 20
230.26339732374461
 30
0.0
 11
32.125952725460373
 21
228.5772597263437
 31
0.0
1001
GENIUS_GENOBJ-N-FIL_13
1002
{
1000
OWNER
1000
GEN
1002
}
1001
GENIUS_GENODEF_13
1002
{
1000
HIER
1070
     0
1002
}
1002
{
1000
MANEDIT
1070
     0
1002
}
1002
{
1000
NOSEL
1070
     0
1002
}
1002
{
1000
BEHIND
1070
     0
1002
}
1002
{
1000
OTHER
1070
     0
1002
}
1002
{
1000
REACTOR
1002
}
  0
ARC
  5
264B
  8
SAPA_PROFIL
 62
     4
 10
33.165183210001722
 20
227.97725972634419
 30
0.0
 40
1.1999999999998241
 50
150.00000000001739
 51
180.00000000001489
1001
GENIUS_GENOBJ-N-FIL_13
1002
{
1000
OWNER
1000
GEN
1002
}
1001
GENIUS_GENODEF_13
1002
{
1000
HIER
1070
     0
1002
}
1002
{
1000
MANEDIT
1070
     0
1002
}
1002
{
1000
NOSEL
1070
     0
1002
}
1002
{
1000
BEHIND
1070
     0
1002
}
1002
{
1000
OTHER
1070
     0
1002
}
1002
{
1000
REACTOR
1002
}
  0
LINE
  5
264C
  8
SAPA_PROFIL
 62
     4
 10
31.9651832100019
 20
227.9772597263439
 30
0.0
 11
31.9651832100019
 21
206.0227401380528
 31
0.0
1001
GENIUS_GENOBJ-N-FIL_13
1002
{
1000
OWNER
1000
GEN
1002
}
1001
GENIUS_GENODEF_13
1002
{
1000
HIER
1070
     0
1002
}
1002
{
1000
MANEDIT
1070
     0
1002
}
1002
{
1000
NOSEL
1070
     0
1002
}
1002
{
1000
BEHIND
1070
     0
1002
}
1002
{
1000
OTHER
1070
     0
1002
}
1002
{
1000
REACTOR
1002
}
  0
ARC
  5
264D
  8
SAPA_PROFIL
 62
     4
 10
33.165183210001722
 20
206.02274013805251
 30
0.0
 40
1.199999999999825
 50
179.99999999998499
 51
209.99999999998261
1001
GENIUS_GENOBJ-N-FIL_13
1002
{
1000
OWNER
1000
GEN
1002
}
1001
GENIUS_GENODEF_13
1002
{
1000
HIER
1070
     0
1002
}
1002
{
1000
MANEDIT
1070
     0
1002
}
1002
{
1000
NOSEL
1070
     0
1002
}
1002
{
1000
BEHIND
1070
     0
1002
}
1002
{
1000
OTHER
1070
     0
1002
}
1002
{
1000
REACTOR
1002
}
  0
LINE
  5
264E
  8
SAPA_PROFIL
 62
     4
 10
32.125952725460373
 20
205.42274013805289
 30
0.0
 11
33.099444721210382
 21
203.736602540652
 31
0.0
1001
GENIUS_GENOBJ-N-FIL_13
1002
{
1000
OWNER
1000
GEN
1002
}
1001
GENIUS_GENODEF_13
1002
{
1000
HIER
1070
     0
1002
}
1002
{
1000
MANEDIT
1070
     0
1002
}
1002
{
1000
NOSEL
1070
     0
1002
}
1002
{
1000
BEHIND
1070
     0
1002
}
1002
{
1000
OTHER
1070
     0
1002
}
1002
{
1000
REACTOR
1002
}
  0
LINE
  5
264F
  8
SAPA_PROFIL
 62
     4
 10
33.099444721210382
 20
203.736602540652
 30
0.0
 11
33.099444721210382
 21
203.30000000027371
 31
0.0
1001
GENIUS_GENOBJ-N-FIL_13
1002
{
1000
OWNER
1000
GEN
1002
}
1001
GENIUS_GENODEF_13
1002
{
1000
HIER
1070
     0
1002
}
1002
{
1000
MANEDIT
1070
     0
1002
}
1002
{
1000
NOSEL
1070
     0
1002
}
1002
{
1000
BEHIND
1070
     0
1002
}
1002
{
1000
OTHER
1070
     0
1002
}
1002
{
1000
REACTOR
1002
}
  0
ARC
  5
2650
  8
SAPA_PROFIL
 62
     4
 10
32.849444721210382
 20
203.30000000027371
 30
0.0
 40
0.25
 50
270.0
 51
0.0
1001
GENIUS_GENOBJ-N-FIL_13
1002
{
1000
OWNER
1000
GEN
1002
}
1001
GENIUS_GENODEF_13
1002
{
1000
HIER
1070
     0
1002
}
1002
{
1000
MANEDIT
1070
     0
1002
}
1002
{
1000
NOSEL
1070
     0
1002
}
1002
{
1000
BEHIND
1070
     0
1002
}
1002
{
1000
OTHER
1070
     0
1002
}
1002
{
1000
REACTOR
1002
}
  0
LINE
  5
2651
  8
SAPA_PROFIL
 62
     4
 10
32.849444721210382
 20
203.05000000027371
 30
0.0
 11
29.2494327212105
 21
203.05000000027371
 31
0.0
1001
GENIUS_GENOBJ-N-FIL_13
1002
{
1000
OWNER
1000
GEN
1002
}
1001
GENIUS_GENODEF_13
1002
{
1000
HIER
1070
     0
1002
}
1002
{
1000
MANEDIT
1070
     0
1002
}
1002
{
1000
NOSEL
1070
     0
1002
}
1002
{
1000
BEHIND
1070
     0
1002
}
1002
{
1000
OTHER
1070
     0
1002
}
1002
{
1000
REACTOR
1002
}
  0
ARC
  5
2652
  8
SAPA_PROFIL
 62
     4
 10
29.249432721210489
 20
203.30000000027371
 30
0.0
 40
0.25
 50
180.0
 51
270.0000000000008
1001
GENIUS_GENOBJ-N-FIL_13
1002
{
1000
OWNER
1000
GEN
1002
}
1001
GENIUS_GENODEF_13
1002
{
1000
HIER
1070
     0
1002
}
1002
{
1000
MANEDIT
1070
     0
1002
}
1002
{
1000
NOSEL
1070
     0
1002
}
1002
{
1000
BEHIND
1070
     0
1002
}
1002
{
1000
OTHER
1070
     0
1002
}
1002
{
1000
REACTOR
1002
}
  0
LINE
  5
2653
  8
SAPA_PROFIL
 62
     4
 10
28.999432721210489
 20
203.30000000027371
 30
0.0
 11
28.999444363945479
 21
203.73660192185179
 31
0.0
1001
GENIUS_GENOBJ-N-FIL_13
1002
{
1000
OWNER
1000
GEN
1002
}
1001
GENIUS_GENODEF_13
1002
{
1000
HIER
1070
     0
1002
}
1002
{
1000
MANEDIT
1070
     0
1002
}
1002
{
1000
NOSEL
1070
     0
1002
}
1002
{
1000
BEHIND
1070
     0
1002
}
1002
{
1000
OTHER
1070
     0
1002
}
1002
{
1000
REACTOR
1002
}
  0
LINE
  5
2654
  8
SAPA_PROFIL
 62
     4
 10
28.999444363945479
 20
203.73660192185179
 30
0.0
 11
30.0044136945437
 21
205.4772598624956
 31
0.0
1001
GENIUS_GENOBJ-N-FIL_13
1002
{
1000
OWNER
1000
GEN
1002
}
1001
GENIUS_GENODEF_13
1002
{
1000
HIER
1070
     0
1002
}
1002
{
1000
MANEDIT
1070
     0
1002
}
1002
{
1000
NOSEL
1070
     0
1002
}
1002
{
1000
BEHIND
1070
     0
1002
}
1002
{
1000
OTHER
1070
     0
1002
}
1002
{
1000
REACTOR
1002
}
  0
ARC
  5
2655
  8
SAPA_PROFIL
 62
     4
 10
28.965183210002639
 20
206.07725986249611
 30
0.0
 40
1.1999999999999771
 50
329.9999999999763
 51
359.99999999999733
1001
GENIUS_GENOBJ-N-FIL_13
1002
{
1000
OWNER
1000
GEN
1002
}
1001
GENIUS_GENODEF_13
1002
{
1000
HIER
1070
     0
1002
}
1002
{
1000
MANEDIT
1070
     0
1002
}
1002
{
1000
NOSEL
1070
     0
1002
}
1002
{
1000
BEHIND
1070
     0
1002
}
1002
{
1000
OTHER
1070
     0
1002
}
1002
{
1000
REACTOR
1002
}
  0
LINE
  5
2656
  8
SAPA_PROFIL
 62
     4
 10
30.16518321000262
 20
206.07725986249599
 30
0.0
 11
30.165183210001722
 21
208.80000000002451
 31
0.0
1001
GENIUS_GENOBJ-N-FIL_13
1002
{
1000
OWNER
1000
GEN
1002
}
1001
GENIUS_GENODEF_13
1002
{
1000
HIER
1070
     0
1002
}
1002
{
1000
MANEDIT
1070
     0
1002
}
1002
{
1000
NOSEL
1070
     0
1002
}
1002
{
1000
BEHIND
1070
     0
1002
}
1002
{
1000
OTHER
1070
     0
1002
}
1002
{
1000
REACTOR
1002
}
  0
ARC
  5
2657
  8
SAPA_PROFIL
 62
     4
 10
28.965183210002131
 20
208.8000000000238
 30
0.0
 40
1.1999999999995901
 50
0.0000000000325689
 51
90.000000000227985
1001
GENIUS_GENOBJ-N-FIL_13
1002
{
1000
OWNER
1000
GEN
1002
}
1001
GENIUS_GENODEF_13
1002
{
1000
HIER
1070
     0
1002
}
1002
{
1000
MANEDIT
1070
     0
1002
}
1002
{
1000
NOSEL
1070
     0
1002
}
1002
{
1000
BEHIND
1070
     0
1002
}
1002
{
1000
OTHER
1070
     0
1002
}
1002
{
1000
REACTOR
1002
}
  0
LINE
  5
2658
  8
SAPA_PROFIL
 62
     4
 10
28.965183209997349
 20
210.00000000002339
 30
0.0
 11
3.1674481830757482
 21
209.99999999993429
 31
0.0
1001
GENIUS_GENOBJ-N-FIL_13
1002
{
1000
OWNER
1000
GEN
1002
}
1001
GENIUS_GENODEF_13
1002
{
1000
HIER
1070
     0
1002
}
1002
{
1000
MANEDIT
1070
     0
1002
}
1002
{
1000
NOSEL
1070
     0
1002
}
1002
{
1000
BEHIND
1070
     0
1002
}
1002
{
1000
OTHER
1070
     0
1002
}
1002
{
1000
REACTOR
1002
}
  0
ARC
  5
2659
  8
SAPA_PROFIL
 62
     4
 10
3.1674481830757482
 20
210.49999999993429
 30
0.0
 40
0.5
 50
180.0
 51
270.0
1001
GENIUS_GENOBJ-N-FIL_13
1002
{
1000
OWNER
1000
GEN
1002
}
1001
GENIUS_GENODEF_13
1002
{
1000
HIER
1070
     0
1002
}
1002
{
1000
MANEDIT
1070
     0
1002
}
1002
{
1000
NOSEL
1070
     0
1002
}
1002
{
1000
BEHIND
1070
     0
1002
}
1002
{
1000
OTHER
1070
     0
1002
}
1002
{
1000
REACTOR
1002
}
  0
LINE
  5
265A
  8
SAPA_PROFIL
 62
     4
 10
2.6674481830757482
 20
210.49999999993429
 30
0.0
 11
2.667448183075293
 21
210.69999999993411
 31
0.0
1001
GENIUS_GENOBJ-N-FIL_13
1002
{
1000
OWNER
1000
GEN
1002
}
1001
GENIUS_GENODEF_13
1002
{
1000
HIER
1070
     0
1002
}
1002
{
1000
MANEDIT
1070
     0
1002
}
1002
{
1000
NOSEL
1070
     0
1002
}
1002
{
1000
BEHIND
1070
     0
1002
}
1002
{
1000
OTHER
1070
     0
1002
}
1002
{
1000
REACTOR
1002
}
  0
ARC
  5
265B
  8
SAPA_PROFIL
 62
     4
 10
2.9674481830754749
 20
210.69999999993411
 30
0.0
 40
0.3000000000001819
 50
90.0
 51
180.0
1001
GENIUS_GENOBJ-N-FIL_13
1002
{
1000
OWNER
1000
GEN
1002
}
1001
GENIUS_GENODEF_13
1002
{
1000
HIER
1070
     0
1002
}
1002
{
1000
MANEDIT
1070
     0
1002
}
1002
{
1000
NOSEL
1070
     0
1002
}
1002
{
1000
BEHIND
1070
     0
1002
}
1002
{
1000
OTHER
1070
     0
1002
}
1002
{
1000
REACTOR
1002
}
  0
LINE
  5
265C
  8
SAPA_PROFIL
 62
     4
 10
2.9674481830754749
 20
210.99999999993429
 30
0.0
 11
3.61744818307784
 21
210.99999999993429
 31
0.0
1001
GENIUS_GENOBJ-N-FIL_13
1002
{
1000
OWNER
1000
GEN
1002
}
1001
GENIUS_GENODEF_13
1002
{
1000
HIER
1070
     0
1002
}
1002
{
1000
MANEDIT
1070
     0
1002
}
1002
{
1000
NOSEL
1070
     0
1002
}
1002
{
1000
BEHIND
1070
     0
1002
}
1002
{
1000
OTHER
1070
     0
1002
}
1002
{
1000
REACTOR
1002
}
  0
ARC
  5
265D
  8
SAPA_PROFIL
 62
     4
 10
3.6174481830771579
 20
211.2999999999347
 30
0.0
 40
0.3000000000004093
 50
270.00000000013029
 51
0.0000000001302755
1001
GENIUS_GENOBJ-N-FIL_13
1002
{
1000
OWNER
1000
GEN
1002
}
1001
GENIUS_GENODEF_13
1002
{
1000
HIER
1070
     0
1002
}
1002
{
1000
MANEDIT
1070
     0
1002
}
1002
{
1000
NOSEL
1070
     0
1002
}
1002
{
1000
BEHIND
1070
     0
1002
}
1002
{
1000
OTHER
1070
     0
1002
}
1002
{
1000
REACTOR
1002
}
  0
LINE
  5
265E
  8
SAPA_PROFIL
 62
     4
 10
3.9174481830775671
 20
211.29999999993541
 30
0.0
 11
3.9174481830766581
 21
212.19999999993141
 31
0.0
1001
GENIUS_GENOBJ-N-FIL_13
1002
{
1000
OWNER
1000
GEN
1002
}
1001
GENIUS_GENODEF_13
1002
{
1000
HIER
1070
     0
1002
}
1002
{
1000
MANEDIT
1070
     0
1002
}
1002
{
1000
NOSEL
1070
     0
1002
}
1002
{
1000
BEHIND
1070
     0
1002
}
1002
{
1000
OTHER
1070
     0
1002
}
1002
{
1000
REACTOR
1002
}
  0
ARC
  5
265F
  8
SAPA_PROFIL
 62
     4
 10
3.417448183077112
 20
212.1999999999318
 30
0.0
 40
0.4999999999995453
 50
359.99999999994787
 51
89.999999999947889
1001
GENIUS_GENOBJ-N-FIL_13
1002
{
1000
OWNER
1000
GEN
1002
}
1001
GENIUS_GENODEF_13
1002
{
1000
HIER
1070
     0
1002
}
1002
{
1000
MANEDIT
1070
     0
1002
}
1002
{
1000
NOSEL
1070
     0
1002
}
1002
{
1000
BEHIND
1070
     0
1002
}
1002
{
1000
OTHER
1070
     0
1002
}
1002
{
1000
REACTOR
1002
}
  0
LINE
  5
2660
  8
SAPA_PROFIL
 62
     4
 10
3.4174481830775671
 20
212.69999999993141
 30
0.0
 11
-2.582551816924251
 21
212.69999999993141
 31
0.0
1001
GENIUS_GENOBJ-N-FIL_13
1002
{
1000
OWNER
1000
GEN
1002
}
1001
GENIUS_GENODEF_13
1002
{
1000
HIER
1070
     0
1002
}
1002
{
1000
MANEDIT
1070
     0
1002
}
1002
{
1000
NOSEL
1070
     0
1002
}
1002
{
1000
BEHIND
1070
     0
1002
}
1002
{
1000
OTHER
1070
     0
1002
}
1002
{
1000
REACTOR
1002
}
  0
ARC
  5
2661
  8
SAPA_PROFIL
 62
     4
 10
-2.582551816924251
 20
212.19999999993141
 30
0.0
 40
0.5
 50
90.0
 51
180.0
1001
GENIUS_GENOBJ-N-FIL_13
1002
{
1000
OWNER
1000
GEN
1002
}
1001
GENIUS_GENODEF_13
1002
{
1000
HIER
1070
     0
1002
}
1002
{
1000
MANEDIT
1070
     0
1002
}
1002
{
1000
NOSEL
1070
     0
1002
}
1002
{
1000
BEHIND
1070
     0
1002
}
1002
{
1000
OTHER
1070
     0
1002
}
1002
{
1000
REACTOR
1002
}
  0
LINE
  5
2662
  8
SAPA_PROFIL
 62
     4
 10
-3.082551816924251
 20
212.19999999993141
 30
0.0
 11
-3.082551816924251
 21
211.29999999993271
 31
0.0
1001
GENIUS_GENOBJ-N-FIL_13
1002
{
1000
OWNER
1000
GEN
1002
}
1001
GENIUS_GENODEF_13
1002
{
1000
HIER
1070
     0
1002
}
1002
{
1000
MANEDIT
1070
     0
1002
}
1002
{
1000
NOSEL
1070
     0
1002
}
1002
{
1000
BEHIND
1070
     0
1002
}
1002
{
1000
OTHER
1070
     0
1002
}
1002
{
1000
REACTOR
1002
}
  0
ARC
  5
2663
  8
SAPA_PROFIL
 62
     4
 10
-2.782551816924637
 20
211.29999999993299
 30
0.0
 40
0.2999999999996135
 50
180.00000000006511
 51
269.99999999967429
1001
GENIUS_GENOBJ-N-FIL_13
1002
{
1000
OWNER
1000
GEN
1002
}
1001
GENIUS_GENODEF_13
1002
{
1000
HIER
1070
     0
1002
}
1002
{
1000
MANEDIT
1070
     0
1002
}
1002
{
1000
NOSEL
1070
     0
1002
}
1002
{
1000
BEHIND
1070
     0
1002
}
1002
{
1000
OTHER
1070
     0
1002
}
1002
{
1000
REACTOR
1002
}
  0
LINE
  5
2664
  8
SAPA_PROFIL
 62
     4
 10
-2.7825518169263428
 20
210.99999999993341
 30
0.0
 11
-2.1325518169244329
 21
210.9999999999288
 31
0.0
1001
GENIUS_GENOBJ-N-FIL_13
1002
{
1000
OWNER
1000
GEN
1002
}
1001
GENIUS_GENODEF_13
1002
{
1000
HIER
1070
     0
1002
}
1002
{
1000
MANEDIT
1070
     0
1002
}
1002
{
1000
NOSEL
1070
     0
1002
}
1002
{
1000
BEHIND
1070
     0
1002
}
1002
{
1000
OTHER
1070
     0
1002
}
1002
{
1000
REACTOR
1002
}
  0
ARC
  5
2665
  8
SAPA_PROFIL
 62
     4
 10
-2.1325518169264792
 20
210.69999999992891
 30
0.0
 40
0.2999999999999545
 50
359.9999999996092
 51
89.999999999609173
1001
GENIUS_GENOBJ-N-FIL_13
1002
{
1000
OWNER
1000
GEN
1002
}
1001
GENIUS_GENODEF_13
1002
{
1000
HIER
1070
     0
1002
}
1002
{
1000
MANEDIT
1070
     0
1002
}
1002
{
1000
NOSEL
1070
     0
1002
}
1002
{
1000
BEHIND
1070
     0
1002
}
1002
{
1000
OTHER
1070
     0
1002
}
1002
{
1000
REACTOR
1002
}
  0
LINE
  5
2666
  8
SAPA_PROFIL
 62
     4
 10
-1.8325518169265249
 20
210.6999999999268
 30
0.0
 11
-1.832551816927434
 21
210.49999999993429
 31
0.0
1001
GENIUS_GENOBJ-N-FIL_13
1002
{
1000
OWNER
1000
GEN
1002
}
1001
GENIUS_GENODEF_13
1002
{
1000
HIER
1070
     0
1002
}
1002
{
1000
MANEDIT
1070
     0
1002
}
1002
{
1000
NOSEL
1070
     0
1002
}
1002
{
1000
BEHIND
1070
     0
1002
}
1002
{
1000
OTHER
1070
     0
1002
}
1002
{
1000
REACTOR
1002
}
  0
ARC
  5
2667
  8
SAPA_PROFIL
 62
     4
 10
-2.3325518169274342
 20
210.49999999993429
 30
0.0
 40
0.5
 50
270.0
 51
0.0
1001
GENIUS_GENOBJ-N-FIL_13
1002
{
1000
OWNER
1000
GEN
1002
}
1001
GENIUS_GENODEF_13
1002
{
1000
HIER
1070
     0
1002
}
1002
{
1000
MANEDIT
1070
     0
1002
}
1002
{
1000
NOSEL
1070
     0
1002
}
1002
{
1000
BEHIND
1070
     0
1002
}
1002
{
1000
OTHER
1070
     0
1002
}
1002
{
1000
REACTOR
1002
}
  0
LINE
  5
2668
  8
SAPA_PROFIL
 62
     4
 10
-2.3325518169274342
 20
209.99999999993429
 30
0.0
 11
-5.3325518169274337
 21
209.99999999993429
 31
0.0
1001
GENIUS_GENOBJ-N-FIL_13
1002
{
1000
OWNER
1000
GEN
1002
}
1001
GENIUS_GENODEF_13
1002
{
1000
HIER
1070
     0
1002
}
1002
{
1000
MANEDIT
1070
     0
1002
}
1002
{
1000
NOSEL
1070
     0
1002
}
1002
{
1000
BEHIND
1070
     0
1002
}
1002
{
1000
OTHER
1070
     0
1002
}
1002
{
1000
REACTOR
1002
}
  0
ARC
  5
2669
  8
SAPA_PROFIL
 62
     4
 10
-5.3325518169274337
 20
210.49999999993429
 30
0.0
 40
0.5
 50
180.0
 51
270.0
1001
GENIUS_GENOBJ-N-FIL_13
1002
{
1000
OWNER
1000
GEN
1002
}
1001
GENIUS_GENODEF_13
1002
{
1000
HIER
1070
     0
1002
}
1002
{
1000
MANEDIT
1070
     0
1002
}
1002
{
1000
NOSEL
1070
     0
1002
}
1002
{
1000
BEHIND
1070
     0
1002
}
1002
{
1000
OTHER
1070
     0
1002
}
1002
{
1000
REACTOR
1002
}
  0
LINE
  5
266A
  8
SAPA_PROFIL
 62
     4
 10
-5.8325518169274337
 20
210.49999999993429
 30
0.0
 11
-5.8325518169274337
 21
210.69999999993411
 31
0.0
1001
GENIUS_GENOBJ-N-FIL_13
1002
{
1000
OWNER
1000
GEN
1002
}
1001
GENIUS_GENODEF_13
1002
{
1000
HIER
1070
     0
1002
}
1002
{
1000
MANEDIT
1070
     0
1002
}
1002
{
1000
NOSEL
1070
     0
1002
}
1002
{
1000
BEHIND
1070
     0
1002
}
1002
{
1000
OTHER
1070
     0
1002
}
1002
{
1000
REACTOR
1002
}
  0
ARC
  5
266B
  8
SAPA_PROFIL
 62
     4
 10
-5.5325518169272518
 20
210.69999999993411
 30
0.0
 40
0.3000000000001819
 50
90.0
 51
180.0
1001
GENIUS_GENOBJ-N-FIL_13
1002
{
1000
OWNER
1000
GEN
1002
}
1001
GENIUS_GENODEF_13
1002
{
1000
HIER
1070
     0
1002
}
1002
{
1000
MANEDIT
1070
     0
1002
}
1002
{
1000
NOSEL
1070
     0
1002
}
1002
{
1000
BEHIND
1070
     0
1002
}
1002
{
1000
OTHER
1070
     0
1002
}
1002
{
1000
REACTOR
1002
}
  0
LINE
  5
266C
  8
SAPA_PROFIL
 62
     4
 10
-5.5325518169272518
 20
210.99999999993429
 30
0.0
 11
-4.8825518169276156
 21
210.99999999993429
 31
0.0
1001
GENIUS_GENOBJ-N-FIL_13
1002
{
1000
OWNER
1000
GEN
1002
}
1001
GENIUS_GENODEF_13
1002
{
1000
HIER
1070
     0
1002
}
1002
{
1000
MANEDIT
1070
     0
1002
}
1002
{
1000
NOSEL
1070
     0
1002
}
1002
{
1000
BEHIND
1070
     0
1002
}
1002
{
1000
OTHER
1070
     0
1002
}
1002
{
1000
REACTOR
1002
}
  0
ARC
  5
266D
  8
SAPA_PROFIL
 62
     4
 10
-4.8825518169280713
 20
211.2999999999349
 30
0.0
 40
0.3000000000006366
 50
270.0000000000868
 51
0.0000000000868503
1001
GENIUS_GENOBJ-N-FIL_13
1002
{
1000
OWNER
1000
GEN
1002
}
1001
GENIUS_GENODEF_13
1002
{
1000
HIER
1070
     0
1002
}
1002
{
1000
MANEDIT
1070
     0
1002
}
1002
{
1000
NOSEL
1070
     0
1002
}
1002
{
1000
BEHIND
1070
     0
1002
}
1002
{
1000
OTHER
1070
     0
1002
}
1002
{
1000
REACTOR
1002
}
  0
LINE
  5
266E
  8
SAPA_PROFIL
 62
     4
 10
-4.5825518169274337
 20
211.29999999993541
 30
0.0
 11
-4.5825518169274337
 21
212.19999999993141
 31
0.0
1001
GENIUS_GENOBJ-N-FIL_13
1002
{
1000
OWNER
1000
GEN
1002
}
1001
GENIUS_GENODEF_13
1002
{
1000
HIER
1070
     0
1002
}
1002
{
1000
MANEDIT
1070
     0
1002
}
1002
{
1000
NOSEL
1070
     0
1002
}
1002
{
1000
BEHIND
1070
     0
1002
}
1002
{
1000
OTHER
1070
     0
1002
}
1002
{
1000
REACTOR
1002
}
  0
ARC
  5
266F
  8
SAPA_PROFIL
 62
     4
 10
-5.0825518169274337
 20
212.19999999993141
 30
0.0
 40
0.5
 50
0.0
 51
90.0
1001
GENIUS_GENOBJ-N-FIL_13
1002
{
1000
OWNER
1000
GEN
1002
}
1001
GENIUS_GENODEF_13
1002
{
1000
HIER
1070
     0
1002
}
1002
{
1000
MANEDIT
1070
     0
1002
}
1002
{
1000
NOSEL
1070
     0
1002
}
1002
{
1000
BEHIND
1070
     0
1002
}
1002
{
1000
OTHER
1070
     0
1002
}
1002
{
1000
REACTOR
1002
}
  0
LINE
  5
2670
  8
SAPA_PROFIL
 62
     4
 10
-5.0825518169274337
 20
212.69999999993141
 30
0.0
 11
-11.082551816927429
 21
212.69999999993141
 31
0.0
1001
GENIUS_GENOBJ-N-FIL_13
1002
{
1000
OWNER
1000
GEN
1002
}
1001
GENIUS_GENODEF_13
1002
{
1000
HIER
1070
     0
1002
}
1002
{
1000
MANEDIT
1070
     0
1002
}
1002
{
1000
NOSEL
1070
     0
1002
}
1002
{
1000
BEHIND
1070
     0
1002
}
1002
{
1000
OTHER
1070
     0
1002
}
1002
{
1000
REACTOR
1002
}
  0
ARC
  5
2671
  8
SAPA_PROFIL
 62
     4
 10
-11.082551816927429
 20
212.19999999993141
 30
0.0
 40
0.5
 50
90.0
 51
180.0
1001
GENIUS_GENOBJ-N-FIL_13
1002
{
1000
OWNER
1000
GEN
1002
}
1001
GENIUS_GENODEF_13
1002
{
1000
HIER
1070
     0
1002
}
1002
{
1000
MANEDIT
1070
     0
1002
}
1002
{
1000
NOSEL
1070
     0
1002
}
1002
{
1000
BEHIND
1070
     0
1002
}
1002
{
1000
OTHER
1070
     0
1002
}
1002
{
1000
REACTOR
1002
}
  0
LINE
  5
2672
  8
SAPA_PROFIL
 62
     4
 10
-11.582551816927429
 20
212.19999999993141
 30
0.0
 11
-11.582551816927429
 21
211.29999999993541
 31
0.0
1001
GENIUS_GENOBJ-N-FIL_13
1002
{
1000
OWNER
1000
GEN
1002
}
1001
GENIUS_GENODEF_13
1002
{
1000
HIER
1070
     0
1002
}
1002
{
1000
MANEDIT
1070
     0
1002
}
1002
{
1000
NOSEL
1070
     0
1002
}
1002
{
1000
BEHIND
1070
     0
1002
}
1002
{
1000
OTHER
1070
     0
1002
}
1002
{
1000
REACTOR
1002
}
  0
ARC
  5
2673
  8
SAPA_PROFIL
 62
     4
 10
-11.2825518169268
 20
211.2999999999349
 30
0.0
 40
0.3000000000006366
 50
179.99999999991309
 51
269.99999999991309
1001
GENIUS_GENOBJ-N-FIL_13
1002
{
1000
OWNER
1000
GEN
1002
}
1001
GENIUS_GENODEF_13
1002
{
1000
HIER
1070
     0
1002
}
1002
{
1000
MANEDIT
1070
     0
1002
}
1002
{
1000
NOSEL
1070
     0
1002
}
1002
{
1000
BEHIND
1070
     0
1002
}
1002
{
1000
OTHER
1070
     0
1002
}
1002
{
1000
REACTOR
1002
}
  0
LINE
  5
2674
  8
SAPA_PROFIL
 62
     4
 10
-11.282551816927249
 20
210.99999999993429
 30
0.0
 11
-10.63255181692762
 21
210.99999999993429
 31
0.0
1001
GENIUS_GENOBJ-N-FIL_13
1002
{
1000
OWNER
1000
GEN
1002
}
1001
GENIUS_GENODEF_13
1002
{
1000
HIER
1070
     0
1002
}
1002
{
1000
MANEDIT
1070
     0
1002
}
1002
{
1000
NOSEL
1070
     0
1002
}
1002
{
1000
BEHIND
1070
     0
1002
}
1002
{
1000
OTHER
1070
     0
1002
}
1002
{
1000
REACTOR
1002
}
  0
ARC
  5
2675
  8
SAPA_PROFIL
 62
     4
 10
-10.63255181692762
 20
210.69999999993411
 30
0.0
 40
0.3000000000001819
 50
0.0
 51
90.0
1001
GENIUS_GENOBJ-N-FIL_13
1002
{
1000
OWNER
1000
GEN
1002
}
1001
GENIUS_GENODEF_13
1002
{
1000
HIER
1070
     0
1002
}
1002
{
1000
MANEDIT
1070
     0
1002
}
1002
{
1000
NOSEL
1070
     0
1002
}
1002
{
1000
BEHIND
1070
     0
1002
}
1002
{
1000
OTHER
1070
     0
1002
}
1002
{
1000
REACTOR
1002
}
  0
LINE
  5
2676
  8
SAPA_PROFIL
 62
     4
 10
-10.332551816927429
 20
210.69999999993411
 30
0.0
 11
-10.332551816927429
 21
210.49999999993429
 31
0.0
1001
GENIUS_GENOBJ-N-FIL_13
1002
{
1000
OWNER
1000
GEN
1002
}
1001
GENIUS_GENODEF_13
1002
{
1000
HIER
1070
     0
1002
}
1002
{
1000
MANEDIT
1070
     0
1002
}
1002
{
1000
NOSEL
1070
     0
1002
}
1002
{
1000
BEHIND
1070
     0
1002
}
1002
{
1000
OTHER
1070
     0
1002
}
1002
{
1000
REACTOR
1002
}
  0
ARC
  5
2677
  8
SAPA_PROFIL
 62
     4
 10
-10.832551816927429
 20
210.49999999993429
 30
0.0
 40
0.5
 50
270.0
 51
0.0
1001
GENIUS_GENOBJ-N-FIL_13
1002
{
1000
OWNER
1000
GEN
1002
}
1001
GENIUS_GENODEF_13
1002
{
1000
HIER
1070
     0
1002
}
1002
{
1000
MANEDIT
1070
     0
1002
}
1002
{
1000
NOSEL
1070
     0
1002
}
1002
{
1000
BEHIND
1070
     0
1002
}
1002
{
1000
OTHER
1070
     0
1002
}
1002
{
1000
REACTOR
1002
}
  0
LINE
  5
2678
  8
SAPA_PROFIL
 62
     4
 10
-10.832551816927429
 20
209.99999999993429
 30
0.0
 11
-12.582551816927429
 21
209.9999999999352
 31
0.0
1001
GENIUS_GENOBJ-N-FIL_13
1002
{
1000
OWNER
1000
GEN
1002
}
1001
GENIUS_GENODEF_13
1002
{
1000
HIER
1070
     0
1002
}
1002
{
1000
MANEDIT
1070
     0
1002
}
1002
{
1000
NOSEL
1070
     0
1002
}
1002
{
1000
BEHIND
1070
     0
1002
}
1002
{
1000
OTHER
1070
     0
1002
}
1002
{
1000
REACTOR
1002
}
  0
ARC
  5
2679
  8
SAPA_PROFIL
 62
     4
 10
-12.5825518167602
 20
210.5000000001024
 30
0.0
 40
0.5000000001672335
 50
179.99999998091459
 51
269.99999998083649
1001
GENIUS_GENOBJ-N-FIL_13
1002
{
1000
OWNER
1000
GEN
1002
}
1001
GENIUS_GENODEF_13
1002
{
1000
HIER
1070
     0
1002
}
1002
{
1000
MANEDIT
1070
     0
1002
}
1002
{
1000
NOSEL
1070
     0
1002
}
1002
{
1000
BEHIND
1070
     0
1002
}
1002
{
1000
OTHER
1070
     0
1002
}
1002
{
1000
REACTOR
1002
}
  0
LINE
  5
267A
  8
SAPA_PROFIL
 62
     4
 10
-13.082551816927429
 20
210.50000000026901
 30
0.0
 11
-13.082551816927429
 21
223.5000000002762
 31
0.0
1001
GENIUS_GENOBJ-N-FIL_13
1002
{
1000
OWNER
1000
GEN
1002
}
1001
GENIUS_GENODEF_13
1002
{
1000
HIER
1070
     0
1002
}
1002
{
1000
MANEDIT
1070
     0
1002
}
1002
{
1000
NOSEL
1070
     0
1002
}
1002
{
1000
BEHIND
1070
     0
1002
}
1002
{
1000
OTHER
1070
     0
1002
}
1002
{
1000
REACTOR
1002
}
  0
ARC
  5
267B
  8
SAPA_PROFIL
 62
     4
 10
-12.582551816790209
 20
223.5000000004155
 30
0.0
 40
0.5000000001372201
 50
90.000000015932685
 51
180.0000000159587
1001
GENIUS_GENOBJ-N-FIL_13
1002
{
1000
OWNER
1000
GEN
1002
}
1001
GENIUS_GENODEF_13
1002
{
1000
HIER
1070
     0
1002
}
1002
{
1000
MANEDIT
1070
     0
1002
}
1002
{
1000
NOSEL
1070
     0
1002
}
1002
{
1000
BEHIND
1070
     0
1002
}
1002
{
1000
OTHER
1070
     0
1002
}
1002
{
1000
REACTOR
1002
}
  0
LINE
  5
267C
  8
SAPA_PROFIL
 62
     4
 10
-12.58255181692925
 20
224.00000000055269
 30
0.0
 11
-10.83255181692925
 21
224.00000000055269
 31
0.0
1001
GENIUS_GENOBJ-N-FIL_13
1002
{
1000
OWNER
1000
GEN
1002
}
1001
GENIUS_GENODEF_13
1002
{
1000
HIER
1070
     0
1002
}
1002
{
1000
MANEDIT
1070
     0
1002
}
1002
{
1000
NOSEL
1070
     0
1002
}
1002
{
1000
BEHIND
1070
     0
1002
}
1002
{
1000
OTHER
1070
     0
1002
}
1002
{
1000
REACTOR
1002
}
  0
ARC
  5
267D
  8
SAPA_PROFIL
 62
     4
 10
-10.83255181692925
 20
223.50000000055269
 30
0.0
 40
0.5
 50
0.0
 51
90.0
1001
GENIUS_GENOBJ-N-FIL_13
1002
{
1000
OWNER
1000
GEN
1002
}
1001
GENIUS_GENODEF_13
1002
{
1000
HIER
1070
     0
1002
}
1002
{
1000
MANEDIT
1070
     0
1002
}
1002
{
1000
NOSEL
1070
     0
1002
}
1002
{
1000
BEHIND
1070
     0
1002
}
1002
{
1000
OTHER
1070
     0
1002
}
1002
{
1000
REACTOR
1002
}
  0
LINE
  5
267E
  8
SAPA_PROFIL
 62
     4
 10
-10.33255181692925
 20
223.50000000055269
 30
0.0
 11
-10.33255181692925
 21
223.3000000005529
 31
0.0
1001
GENIUS_GENOBJ-N-FIL_13
1002
{
1000
OWNER
1000
GEN
1002
}
1001
GENIUS_GENODEF_13
1002
{
1000
HIER
1070
     0
1002
}
1002
{
1000
MANEDIT
1070
     0
1002
}
1002
{
1000
NOSEL
1070
     0
1002
}
1002
{
1000
BEHIND
1070
     0
1002
}
1002
{
1000
OTHER
1070
     0
1002
}
1002
{
1000
REACTOR
1002
}
  0
ARC
  5
267F
  8
SAPA_PROFIL
 62
     4
 10
-10.63255181692943
 20
223.3000000005529
 30
0.0
 40
0.3000000000001819
 50
270.0
 51
0.0
1001
GENIUS_GENOBJ-N-FIL_13
1002
{
1000
OWNER
1000
GEN
1002
}
1001
GENIUS_GENODEF_13
1002
{
1000
HIER
1070
     0
1002
}
1002
{
1000
MANEDIT
1070
     0
1002
}
1002
{
1000
NOSEL
1070
     0
1002
}
1002
{
1000
BEHIND
1070
     0
1002
}
1002
{
1000
OTHER
1070
     0
1002
}
1002
{
1000
REACTOR
1002
}
  0
LINE
  5
2680
  8
SAPA_PROFIL
 62
     4
 10
-10.63255181692943
 20
223.0000000005528
 30
0.0
 11
-11.28255181692907
 21
223.0000000005528
 31
0.0
1001
GENIUS_GENOBJ-N-FIL_13
1002
{
1000
OWNER
1000
GEN
1002
}
1001
GENIUS_GENODEF_13
1002
{
1000
HIER
1070
     0
1002
}
1002
{
1000
MANEDIT
1070
     0
1002
}
1002
{
1000
NOSEL
1070
     0
1002
}
1002
{
1000
BEHIND
1070
     0
1002
}
1002
{
1000
OTHER
1070
     0
1002
}
1002
{
1000
REACTOR
1002
}
  0
ARC
  5
2681
  8
SAPA_PROFIL
 62
     4
 10
-11.282551816929519
 20
222.70000000055299
 30
0.0
 40
0.2999999999997271
 50
89.999999999913143
 51
179.99999999991309
1001
GENIUS_GENOBJ-N-FIL_13
1002
{
1000
OWNER
1000
GEN
1002
}
1001
GENIUS_GENODEF_13
1002
{
1000
HIER
1070
     0
1002
}
1002
{
1000
MANEDIT
1070
     0
1002
}
1002
{
1000
NOSEL
1070
     0
1002
}
1002
{
1000
BEHIND
1070
     0
1002
}
1002
{
1000
OTHER
1070
     0
1002
}
1002
{
1000
REACTOR
1002
}
  0
LINE
  5
2682
  8
SAPA_PROFIL
 62
     4
 10
-11.58255181692925
 20
222.7000000005535
 30
0.0
 11
-11.58255181692925
 21
221.8000000005556
 31
0.0
1001
GENIUS_GENOBJ-N-FIL_13
1002
{
1000
OWNER
1000
GEN
1002
}
1001
GENIUS_GENODEF_13
1002
{
1000
HIER
1070
     0
1002
}
1002
{
1000
MANEDIT
1070
     0
1002
}
1002
{
1000
NOSEL
1070
     0
1002
}
1002
{
1000
BEHIND
1070
     0
1002
}
1002
{
1000
OTHER
1070
     0
1002
}
1002
{
1000
REACTOR
1002
}
  0
ARC
  5
2683
  8
SAPA_PROFIL
 62
     4
 10
-11.08255181692925
 20
221.8000000005556
 30
0.0
 40
0.5
 50
180.0
 51
270.0
1001
GENIUS_GENOBJ-N-FIL_13
1002
{
1000
OWNER
1000
GEN
1002
}
1001
GENIUS_GENODEF_13
1002
{
1000
HIER
1070
     0
1002
}
1002
{
1000
MANEDIT
1070
     0
1002
}
1002
{
1000
NOSEL
1070
     0
1002
}
1002
{
1000
BEHIND
1070
     0
1002
}
1002
{
1000
OTHER
1070
     0
1002
}
1002
{
1000
REACTOR
1002
}
  0
LINE
  5
2684
  8
SAPA_PROFIL
 62
     4
 10
-11.08255181692925
 20
221.3000000005556
 30
0.0
 11
-5.0825518169292527
 21
221.3000000005556
 31
0.0
1001
GENIUS_GENOBJ-N-FIL_13
1002
{
1000
OWNER
1000
GEN
1002
}
1001
GENIUS_GENODEF_13
1002
{
1000
HIER
1070
     0
1002
}
1002
{
1000
MANEDIT
1070
     0
1002
}
1002
{
1000
NOSEL
1070
     0
1002
}
1002
{
1000
BEHIND
1070
     0
1002
}
1002
{
1000
OTHER
1070
     0
1002
}
1002
{
1000
REACTOR
1002
}
  0
ARC
  5
2685
  8
SAPA_PROFIL
 62
     4
 10
-5.0825518169292527
 20
221.8000000005556
 30
0.0
 40
0.5
 50
270.0
 51
0.0
1001
GENIUS_GENOBJ-N-FIL_13
1002
{
1000
OWNER
1000
GEN
1002
}
1001
GENIUS_GENODEF_13
1002
{
1000
HIER
1070
     0
1002
}
1002
{
1000
MANEDIT
1070
     0
1002
}
1002
{
1000
NOSEL
1070
     0
1002
}
1002
{
1000
BEHIND
1070
     0
1002
}
1002
{
1000
OTHER
1070
     0
1002
}
1002
{
1000
REACTOR
1002
}
  0
LINE
  5
2686
  8
SAPA_PROFIL
 62
     4
 10
-4.5825518169292527
 20
221.8000000005556
 30
0.0
 11
-4.5825518169292527
 21
222.7000000005535
 31
0.0
1001
GENIUS_GENOBJ-N-FIL_13
1002
{
1000
OWNER
1000
GEN
1002
}
1001
GENIUS_GENODEF_13
1002
{
1000
HIER
1070
     0
1002
}
1002
{
1000
MANEDIT
1070
     0
1002
}
1002
{
1000
NOSEL
1070
     0
1002
}
1002
{
1000
BEHIND
1070
     0
1002
}
1002
{
1000
OTHER
1070
     0
1002
}
1002
{
1000
REACTOR
1002
}
  0
ARC
  5
2687
  8
SAPA_PROFIL
 62
     4
 10
-4.8825518169289799
 20
222.70000000055299
 30
0.0
 40
0.2999999999997271
 50
0.0000000000868503
 51
90.000000000086857
1001
GENIUS_GENOBJ-N-FIL_13
1002
{
1000
OWNER
1000
GEN
1002
}
1001
GENIUS_GENODEF_13
1002
{
1000
HIER
1070
     0
1002
}
1002
{
1000
MANEDIT
1070
     0
1002
}
1002
{
1000
NOSEL
1070
     0
1002
}
1002
{
1000
BEHIND
1070
     0
1002
}
1002
{
1000
OTHER
1070
     0
1002
}
1002
{
1000
REACTOR
1002
}
  0
LINE
  5
2688
  8
SAPA_PROFIL
 62
     4
 10
-4.8825518169294346
 20
223.0000000005528
 30
0.0
 11
-5.5325518169290708
 21
223.0000000005528
 31
0.0
1001
GENIUS_GENOBJ-N-FIL_13
1002
{
1000
OWNER
1000
GEN
1002
}
1001
GENIUS_GENODEF_13
1002
{
1000
HIER
1070
     0
1002
}
1002
{
1000
MANEDIT
1070
     0
1002
}
1002
{
1000
NOSEL
1070
     0
1002
}
1002
{
1000
BEHIND
1070
     0
1002
}
1002
{
1000
OTHER
1070
     0
1002
}
1002
{
1000
REACTOR
1002
}
  0
ARC
  5
2689
  8
SAPA_PROFIL
 62
     4
 10
-5.5325518169290708
 20
223.3000000005529
 30
0.0
 40
0.3000000000001819
 50
180.0
 51
270.0
1001
GENIUS_GENOBJ-N-FIL_13
1002
{
1000
OWNER
1000
GEN
1002
}
1001
GENIUS_GENODEF_13
1002
{
1000
HIER
1070
     0
1002
}
1002
{
1000
MANEDIT
1070
     0
1002
}
1002
{
1000
NOSEL
1070
     0
1002
}
1002
{
1000
BEHIND
1070
     0
1002
}
1002
{
1000
OTHER
1070
     0
1002
}
1002
{
1000
REACTOR
1002
}
  0
LINE
  5
268A
  8
SAPA_PROFIL
 62
     4
 10
-5.8325518169292527
 20
223.3000000005529
 30
0.0
 11
-5.8325518169292527
 21
223.50000000055269
 31
0.0
1001
GENIUS_GENOBJ-N-FIL_13
1002
{
1000
OWNER
1000
GEN
1002
}
1001
GENIUS_GENODEF_13
1002
{
1000
HIER
1070
     0
1002
}
1002
{
1000
MANEDIT
1070
     0
1002
}
1002
{
1000
NOSEL
1070
     0
1002
}
1002
{
1000
BEHIND
1070
     0
1002
}
1002
{
1000
OTHER
1070
     0
1002
}
1002
{
1000
REACTOR
1002
}
  0
ARC
  5
268B
  8
SAPA_PROFIL
 62
     4
 10
-5.3325518169292527
 20
223.50000000055269
 30
0.0
 40
0.5
 50
90.0
 51
180.0
1001
GENIUS_GENOBJ-N-FIL_13
1002
{
1000
OWNER
1000
GEN
1002
}
1001
GENIUS_GENODEF_13
1002
{
1000
HIER
1070
     0
1002
}
1002
{
1000
MANEDIT
1070
     0
1002
}
1002
{
1000
NOSEL
1070
     0
1002
}
1002
{
1000
BEHIND
1070
     0
1002
}
1002
{
1000
OTHER
1070
     0
1002
}
1002
{
1000
REACTOR
1002
}
  0
LINE
  5
268C
  8
SAPA_PROFIL
 62
     4
 10
-5.3325518169292527
 20
224.00000000055269
 30
0.0
 11
-2.3325518169292532
 21
224.00000000055269
 31
0.0
1001
GENIUS_GENOBJ-N-FIL_13
1002
{
1000
OWNER
1000
GEN
1002
}
1001
GENIUS_GENODEF_13
1002
{
1000
HIER
1070
     0
1002
}
1002
{
1000
MANEDIT
1070
     0
1002
}
1002
{
1000
NOSEL
1070
     0
1002
}
1002
{
1000
BEHIND
1070
     0
1002
}
1002
{
1000
OTHER
1070
     0
1002
}
1002
{
1000
REACTOR
1002
}
  0
ARC
  5
268D
  8
SAPA_PROFIL
 62
     4
 10
-2.3325518169292532
 20
223.50000000055269
 30
0.0
 40
0.5
 50
0.0
 51
90.0
1001
GENIUS_GENOBJ-N-FIL_13
1002
{
1000
OWNER
1000
GEN
1002
}
1001
GENIUS_GENODEF_13
1002
{
1000
HIER
1070
     0
1002
}
1002
{
1000
MANEDIT
1070
     0
1002
}
1002
{
1000
NOSEL
1070
     0
1002
}
1002
{
1000
BEHIND
1070
     0
1002
}
1002
{
1000
OTHER
1070
     0
1002
}
1002
{
1000
REACTOR
1002
}
  0
LINE
  5
268E
  8
SAPA_PROFIL
 62
     4
 10
-1.832551816929253
 20
223.50000000055269
 30
0.0
 11
-1.8325518169283439
 21
223.3000000005602
 31
0.0
1001
GENIUS_GENOBJ-N-FIL_13
1002
{
1000
OWNER
1000
GEN
1002
}
1001
GENIUS_GENODEF_13
1002
{
1000
HIER
1070
     0
1002
}
1002
{
1000
MANEDIT
1070
     0
1002
}
1002
{
1000
NOSEL
1070
     0
1002
}
1002
{
1000
BEHIND
1070
     0
1002
}
1002
{
1000
OTHER
1070
     0
1002
}
1002
{
1000
REACTOR
1002
}
  0
ARC
  5
268F
  8
SAPA_PROFIL
 62
     4
 10
-2.1325518169284119
 20
223.3000000005583
 30
0.0
 40
0.3000000000000682
 50
270.00000000041251
 51
0.000000000369114
1001
GENIUS_GENOBJ-N-FIL_13
1002
{
1000
OWNER
1000
GEN
1002
}
1001
GENIUS_GENODEF_13
1002
{
1000
HIER
1070
     0
1002
}
1002
{
1000
MANEDIT
1070
     0
1002
}
1002
{
1000
NOSEL
1070
     0
1002
}
1002
{
1000
BEHIND
1070
     0
1002
}
1002
{
1000
OTHER
1070
     0
1002
}
1002
{
1000
REACTOR
1002
}
  0
LINE
  5
2690
  8
SAPA_PROFIL
 62
     4
 10
-2.1325518169262518
 20
223.0000000005582
 30
0.0
 11
-2.7825518169272518
 21
223.0000000005555
 31
0.0
1001
GENIUS_GENOBJ-N-FIL_13
1002
{
1000
OWNER
1000
GEN
1002
}
1001
GENIUS_GENODEF_13
1002
{
1000
HIER
1070
     0
1002
}
1002
{
1000
MANEDIT
1070
     0
1002
}
1002
{
1000
NOSEL
1070
     0
1002
}
1002
{
1000
BEHIND
1070
     0
1002
}
1002
{
1000
OTHER
1070
     0
1002
}
1002
{
1000
REACTOR
1002
}
  0
ARC
  5
2691
  8
SAPA_PROFIL
 62
     4
 10
-2.782551816925888
 20
222.70000000055481
 30
0.0
 40
0.3000000000006366
 50
90.000000000260556
 51
180.0000000000868
1001
GENIUS_GENOBJ-N-FIL_13
1002
{
1000
OWNER
1000
GEN
1002
}
1001
GENIUS_GENODEF_13
1002
{
1000
HIER
1070
     0
1002
}
1002
{
1000
MANEDIT
1070
     0
1002
}
1002
{
1000
NOSEL
1070
     0
1002
}
1002
{
1000
BEHIND
1070
     0
1002
}
1002
{
1000
OTHER
1070
     0
1002
}
1002
{
1000
REACTOR
1002
}
  0
LINE
  5
2692
  8
SAPA_PROFIL
 62
     4
 10
-3.0825518169265251
 20
222.70000000055441
 30
0.0
 11
-3.0825518169265251
 21
221.8000000005556
 31
0.0
1001
GENIUS_GENOBJ-N-FIL_13
1002
{
1000
OWNER
1000
GEN
1002
}
1001
GENIUS_GENODEF_13
1002
{
1000
HIER
1070
     0
1002
}
1002
{
1000
MANEDIT
1070
     0
1002
}
1002
{
1000
NOSEL
1070
     0
1002
}
1002
{
1000
BEHIND
1070
     0
1002
}
1002
{
1000
OTHER
1070
     0
1002
}
1002
{
1000
REACTOR
1002
}
  0
ARC
  5
2693
  8
SAPA_PROFIL
 62
     4
 10
-2.5825518169265251
 20
221.8000000005556
 30
0.0
 40
0.5
 50
180.0
 51
270.0
1001
GENIUS_GENOBJ-N-FIL_13
1002
{
1000
OWNER
1000
GEN
1002
}
1001
GENIUS_GENODEF_13
1002
{
1000
HIER
1070
     0
1002
}
1002
{
1000
MANEDIT
1070
     0
1002
}
1002
{
1000
NOSEL
1070
     0
1002
}
1002
{
1000
BEHIND
1070
     0
1002
}
1002
{
1000
OTHER
1070
     0
1002
}
1002
{
1000
REACTOR
1002
}
  0
LINE
  5
2694
  8
SAPA_PROFIL
 62
     4
 10
-2.5825518169265251
 20
221.3000000005556
 30
0.0
 11
3.4174481830757482
 21
221.3000000005629
 31
0.0
1001
GENIUS_GENOBJ-N-FIL_13
1002
{
1000
OWNER
1000
GEN
1002
}
1001
GENIUS_GENODEF_13
1002
{
1000
HIER
1070
     0
1002
}
1002
{
1000
MANEDIT
1070
     0
1002
}
1002
{
1000
NOSEL
1070
     0
1002
}
1002
{
1000
BEHIND
1070
     0
1002
}
1002
{
1000
OTHER
1070
     0
1002
}
1002
{
1000
REACTOR
1002
}
  0
ARC
  5
2695
  8
SAPA_PROFIL
 62
     4
 10
3.4174481830757482
 20
221.8000000005629
 30
0.0
 40
0.5
 50
270.0
 51
0.0
1001
GENIUS_GENOBJ-N-FIL_13
1002
{
1000
OWNER
1000
GEN
1002
}
1001
GENIUS_GENODEF_13
1002
{
1000
HIER
1070
     0
1002
}
1002
{
1000
MANEDIT
1070
     0
1002
}
1002
{
1000
NOSEL
1070
     0
1002
}
1002
{
1000
BEHIND
1070
     0
1002
}
1002
{
1000
OTHER
1070
     0
1002
}
1002
{
1000
REACTOR
1002
}
  0
LINE
  5
2696
  8
SAPA_PROFIL
 62
     4
 10
3.9174481830757482
 20
221.8000000005629
 30
0.0
 11
3.9174481830757482
 21
222.70000000055981
 31
0.0
1001
GENIUS_GENOBJ-N-FIL_13
1002
{
1000
OWNER
1000
GEN
1002
}
1001
GENIUS_GENODEF_13
1002
{
1000
HIER
1070
     0
1002
}
1002
{
1000
MANEDIT
1070
     0
1002
}
1002
{
1000
NOSEL
1070
     0
1002
}
1002
{
1000
BEHIND
1070
     0
1002
}
1002
{
1000
OTHER
1070
     0
1002
}
1002
{
1000
REACTOR
1002
}
  0
ARC
  5
2697
  8
SAPA_PROFIL
 62
     4
 10
3.6174481830755658
 20
222.70000000055981
 30
0.0
 40
0.3000000000001819
 50
0.0
 51
90.0
1001
GENIUS_GENOBJ-N-FIL_13
1002
{
1000
OWNER
1000
GEN
1002
}
1001
GENIUS_GENODEF_13
1002
{
1000
HIER
1070
     0
1002
}
1002
{
1000
MANEDIT
1070
     0
1002
}
1002
{
1000
NOSEL
1070
     0
1002
}
1002
{
1000
BEHIND
1070
     0
1002
}
1002
{
1000
OTHER
1070
     0
1002
}
1002
{
1000
REACTOR
1002
}
  0
LINE
  5
2698
  8
SAPA_PROFIL
 62
     4
 10
3.6174481830755658
 20
223.00000000055999
 30
0.0
 11
2.9674481830736559
 21
223.00000000055999
 31
0.0
1001
GENIUS_GENOBJ-N-FIL_13
1002
{
1000
OWNER
1000
GEN
1002
}
1001
GENIUS_GENODEF_13
1002
{
1000
HIER
1070
     0
1002
}
1002
{
1000
MANEDIT
1070
     0
1002
}
1002
{
1000
NOSEL
1070
     0
1002
}
1002
{
1000
BEHIND
1070
     0
1002
}
1002
{
1000
OTHER
1070
     0
1002
}
1002
{
1000
REACTOR
1002
}
  0
ARC
  5
2699
  8
SAPA_PROFIL
 62
     4
 10
2.9674481830736559
 20
223.3000000005602
 30
0.0
 40
0.3000000000001819
 50
180.0
 51
270.0
1001
GENIUS_GENOBJ-N-FIL_13
1002
{
1000
OWNER
1000
GEN
1002
}
1001
GENIUS_GENODEF_13
1002
{
1000
HIER
1070
     0
1002
}
1002
{
1000
MANEDIT
1070
     0
1002
}
1002
{
1000
NOSEL
1070
     0
1002
}
1002
{
1000
BEHIND
1070
     0
1002
}
1002
{
1000
OTHER
1070
     0
1002
}
1002
{
1000
REACTOR
1002
}
  0
LINE
  5
269A
  8
SAPA_PROFIL
 62
     4
 10
2.667448183073474
 20
223.3000000005602
 30
0.0
 11
2.667448183073474
 21
223.50000000055999
 31
0.0
1001
GENIUS_GENOBJ-N-FIL_13
1002
{
1000
OWNER
1000
GEN
1002
}
1001
GENIUS_GENODEF_13
1002
{
1000
HIER
1070
     0
1002
}
1002
{
1000
MANEDIT
1070
     0
1002
}
1002
{
1000
NOSEL
1070
     0
1002
}
1002
{
1000
BEHIND
1070
     0
1002
}
1002
{
1000
OTHER
1070
     0
1002
}
1002
{
1000
REACTOR
1002
}
  0
ARC
  5
269B
  8
SAPA_PROFIL
 62
     4
 10
3.167448183073474
 20
223.50000000055999
 30
0.0
 40
0.5
 50
90.0
 51
180.0
1001
GENIUS_GENOBJ-N-FIL_13
1002
{
1000
OWNER
1000
GEN
1002
}
1001
GENIUS_GENODEF_13
1002
{
1000
HIER
1070
     0
1002
}
1002
{
1000
MANEDIT
1070
     0
1002
}
1002
{
1000
NOSEL
1070
     0
1002
}
1002
{
1000
BEHIND
1070
     0
1002
}
1002
{
1000
OTHER
1070
     0
1002
}
1002
{
1000
REACTOR
1002
}
  0
LINE
  5
269C
  8
SAPA_PROFIL
 62
     4
 10
3.167448183073474
 20
224.00000000055999
 30
0.0
 11
28.965183209997349
 21
224.0000000004782
 31
0.0
1001
GENIUS_GENOBJ-N-FIL_13
1002
{
1000
OWNER
1000
GEN
1002
}
1001
GENIUS_GENODEF_13
1002
{
1000
HIER
1070
     0
1002
}
1002
{
1000
MANEDIT
1070
     0
1002
}
1002
{
1000
NOSEL
1070
     0
1002
}
1002
{
1000
BEHIND
1070
     0
1002
}
1002
{
1000
OTHER
1070
     0
1002
}
1002
{
1000
REACTOR
1002
}
  0
ARC
  5
269D
  8
SAPA_PROFIL
 62
     4
 10
28.965183210001669
 20
225.20000000047821
 30
0.0
 40
1.200000000000045
 50
269.99999999979372
 51
359.99999999998909
1001
GENIUS_GENOBJ-N-FIL_13
1002
{
1000
OWNER
1000
GEN
1002
}
1001
GENIUS_GENODEF_13
1002
{
1000
HIER
1070
     0
1002
}
1002
{
1000
MANEDIT
1070
     0
1002
}
1002
{
1000
NOSEL
1070
     0
1002
}
1002
{
1000
BEHIND
1070
     0
1002
}
1002
{
1000
OTHER
1070
     0
1002
}
1002
{
1000
REACTOR
1002
}
  0
LINE
  5
269E
  8
SAPA_PROFIL
 62
     4
 10
30.165183210001722
 20
225.20000000047801
 30
0.0
 11
30.165183210001722
 21
227.92848135055809
 31
0.0
1001
GENIUS_GENOBJ-N-FIL_13
1002
{
1000
OWNER
1000
GEN
1002
}
1001
GENIUS_GENODEF_13
1002
{
1000
HIER
1070
     0
1002
}
1002
{
1000
MANEDIT
1070
     0
1002
}
1002
{
1000
NOSEL
1070
     0
1002
}
1002
{
1000
BEHIND
1070
     0
1002
}
1002
{
1000
OTHER
1070
     0
1002
}
1002
{
1000
REACTOR
1002
}
  0
LINE
  5
269F
  8
SAPA_PROFIL
 62
     4
 10
5.2017096535912506
 20
220.29999993251269
 30
0.0
 11
5.2017096535953442
 21
212.79999993195429
 31
0.0
  0
ARC
  5
26A0
  8
SAPA_PROFIL
 62
     4
 10
6.2017096535953442
 20
212.79999993195429
 30
0.0
 40
1.0
 50
180.0
 51
270.0
  0
LINE
  5
26A1
  8
SAPA_PROFIL
 62
     4
 10
6.2017096535953442
 20
211.79999993195429
 30
0.0
 11
29.349444680519131
 21
211.7999999319388
 31
0.0
  0
ARC
  5
26A2
  8
SAPA_PROFIL
 62
     4
 10
29.349444680519131
 20
212.59999993193901
 30
0.0
 40
0.8000000000001818
 50
270.0
 51
0.0
  0
LINE
  5
26A3
  8
SAPA_PROFIL
 62
     4
 10
30.149444680519309
 20
212.59999993193901
 30
0.0
 11
30.149444680519309
 21
221.3999999324576
 31
0.0
  0
ARC
  5
26A4
  8
SAPA_PROFIL
 62
     4
 10
29.349444680519131
 20
221.3999999324576
 30
0.0
 40
0.8000000000001818
 50
0.0
 51
90.000000000065128
  0
LINE
  5
26A5
  8
SAPA_PROFIL
 62
     4
 10
29.349444680518221
 20
222.19999993245781
 30
0.0
 11
6.2017096535912506
 21
222.19999993243411
 31
0.0
  0
ARC
  5
26A6
  8
SAPA_PROFIL
 62
     4
 10
6.2017096535927294
 20
221.19999993243451
 30
0.0
 40
0.9999999999996589
 50
90.000000000084668
 51
179.9999999999674
  0
LINE
  5
26A7
  8
SAPA_PROFIL
 62
     4
 10
5.2017096535930696
 20
221.19999993243499
 30
0.0
 11
5.2017096535912506
 21
220.29999993251269
 31
0.0
  0
LINE
  5
26A8
  8
SAPA_PROFIL
 10
33.149436721215132
 20
153.6999999287315
 30
0.0
 11
33.149436721215132
 21
153.24999992873171
 31
0.0
  0
LINE
  5
26A9
  8
SAPA_PROFIL
 10
33.149436721215132
 20
153.24999992873171
 30
0.0
 11
32.289611983645727
 21
151.76073979765781
 31
0.0
  0
ARC
  5
26AA
  8
SAPA_PROFIL
 10
32.54941960478147
 20
151.61073979765769
 30
0.0
 40
0.3000000000004012
 50
150.00000000002419
 51
179.9963531325827
  0
LINE
  5
26AB
  8
SAPA_PROFIL
 10
32.249419605388773
 20
151.6107588926109
 30
0.0
 11
32.249412555597928
 21
151.4999999287318
 31
0.0
  0
LINE
  5
26AC
  8
SAPA_PROFIL
 10
32.249412555597928
 20
151.4999999287318
 30
0.0
 11
33.871124557701712
 21
151.4999999287318
 31
0.0
  0
ARC
  5
26AD
  8
SAPA_PROFIL
 10
33.87112455770076
 20
152.49999992873191
 30
0.0
 40
1.000000000000113
 50
270.00000000005463
 51
330.0000000000565
  0
LINE
  5
26AE
  8
SAPA_PROFIL
 10
34.737149961485777
 20
151.99999992873259
 30
0.0
 11
35.603175365270772
 21
153.49999992873171
 31
0.0
  0
ARC
  5
26AF
  8
SAPA_PROFIL
 10
36.469200769055263
 20
152.99999992873171
 30
0.0
 40
1.000000000000081
 50
89.999999999997144
 51
149.99999999999699
  0
LINE
  5
26B0
  8
SAPA_PROFIL
 10
36.469200769055298
 20
153.99999992873171
 30
0.0
 11
37.029672673371579
 21
153.99999992873171
 31
0.0
  0
ARC
  5
26B1
  8
SAPA_PROFIL
 10
37.029672673371401
 20
152.999999928732
 30
0.0
 40
0.9999999999996873
 50
29.999999999989711
 51
89.999999999989825
  0
LINE
  5
26B2
  8
SAPA_PROFIL
 10
37.895698077155657
 20
153.49999992873171
 30
0.0
 11
38.761723480939729
 21
151.99999992873259
 31
0.0
  0
ARC
  5
26B3
  8
SAPA_PROFIL
 10
39.627748884723992
 20
152.49999992873231
 30
0.0
 40
0.9999999999996653
 50
209.99999999998849
 51
269.99999999999022
  0
LINE
  5
26B4
  8
SAPA_PROFIL
 10
39.627748884723808
 20
151.49999992873271
 30
0.0
 11
41.249460886828487
 21
151.4999999287318
 31
0.0
  0
LINE
  5
26B5
  8
SAPA_PROFIL
 10
41.249460886828487
 20
151.4999999287318
 30
0.0
 11
41.249453837037663
 21
151.6107588926109
 31
0.0
  0
ARC
  5
26B6
  8
SAPA_PROFIL
 10
40.949453837645812
 20
151.61073979765749
 30
0.0
 40
0.2999999999995532
 50
0.0036468674606901
 51
30.000000000018961
  0
LINE
  5
26B7
  8
SAPA_PROFIL
 10
41.209261458780702
 20
151.76073979765741
 30
0.0
 11
40.349436721211752
 21
153.24999992873171
 31
0.0
  0
LINE
  5
26B8
  8
SAPA_PROFIL
 10
40.349436721211752
 20
153.24999992873171
 30
0.0
 11
40.349436721211752
 21
153.6999999287315
 31
0.0
  0
ARC
  5
26B9
  8
SAPA_PROFIL
 10
40.649436721211707
 20
153.69999992873181
 30
0.0
 40
0.2999999999999545
 50
90.000000000043414
 51
180.0000000000434
  0
LINE
  5
26BA
  8
SAPA_PROFIL
 10
40.64943672121148
 20
153.99999992873171
 30
0.0
 11
44.24944872121182
 21
153.99999992873171
 31
0.0
  0
ARC
  5
26BB
  8
SAPA_PROFIL
 10
44.249448721211827
 20
153.69999992873201
 30
0.0
 40
0.2999999999997271
 50
0.0
 51
90.000000000001336
  0
LINE
  5
26BC
  8
SAPA_PROFIL
 10
44.549448721211547
 20
153.69999992873201
 30
0.0
 11
44.549436721212032
 21
153.24999992873171
 31
0.0
  0
LINE
  5
26BD
  8
SAPA_PROFIL
 10
44.549436721212032
 20
153.24999992873171
 30
0.0
 11
43.6896291000769
 21
151.760769444191
 31
0.0
  0
ARC
  5
26BE
  8
SAPA_PROFIL
 10
43.94943672121228
 20
151.6107694441904
 30
0.0
 40
0.3000000000003431
 50
149.9999999999049
 51
179.99999999990229
  0
LINE
  5
26BF
  8
SAPA_PROFIL
 10
43.649436721211941
 20
151.61076944419091
 30
0.0
 11
43.649436721211941
 21
151.02426399744371
 31
0.0
  0
ARC
  5
26C0
  8
SAPA_PROFIL
 10
43.949436721211818
 20
151.02426399744419
 30
0.0
 40
0.2999999999998835
 50
180.0000000000814
 51
225.00000000009791
  0
LINE
  5
26C1
  8
SAPA_PROFIL
 10
43.737304686856298
 20
150.81213196308789
 30
0.0
 11
45.042353940025123
 21
149.50708270991871
 31
0.0
  0
ARC
  5
26C2
  8
SAPA_PROFIL
 10
45.74946072121169
 20
150.21418949110529
 30
0.0
 40
1.0000000000000979
 50
225.00000000000401
 51
0.0
  0
LINE
  5
26C3
  8
SAPA_PROFIL
 10
46.74946072121179
 20
150.21418949110529
 30
0.0
 11
46.749436721211389
 21
153.7999999287324
 31
0.0
  0
ARC
  5
26C4
  8
SAPA_PROFIL
 10
46.749436721213222
 20
153.99999992873239
 30
0.0
 40
0.2000000000000455
 50
89.999999999478902
 51
269.99999999947892
  0
LINE
  5
26C5
  8
SAPA_PROFIL
 10
46.749436721215027
 20
154.1999999287325
 30
0.0
 11
46.749436721215027
 21
202.7999999287197
 31
0.0
  0
ARC
  5
26C6
  8
SAPA_PROFIL
 10
46.749436721213222
 20
202.99999992871949
 30
0.0
 40
0.1999999999998181
 50
90.000000000521084
 51
270.00000000052108
  0
LINE
  5
26C7
  8
SAPA_PROFIL
 10
46.749436721211389
 20
203.19999992871931
 30
0.0
 11
46.74946072121179
 21
206.78581036634679
 31
0.0
  0
ARC
  5
26C8
  8
SAPA_PROFIL
 10
45.74946072121169
 20
206.78581036634679
 30
0.0
 40
1.000000000000099
 50
0.0
 51
134.99999999999599
  0
LINE
  5
26C9
  8
SAPA_PROFIL
 10
45.042353940025123
 20
207.49291714753349
 30
0.0
 11
43.737304686856298
 21
206.18786789436419
 31
0.0
  0
ARC
  5
26CA
  8
SAPA_PROFIL
 10
43.949436721211818
 20
205.975735860008
 30
0.0
 40
0.2999999999998839
 50
134.99999999990209
 51
179.9999999999186
  0
LINE
  5
26CB
  8
SAPA_PROFIL
 10
43.649436721211941
 20
205.9757358600084
 30
0.0
 11
43.649436721211941
 21
205.3892304132612
 31
0.0
  0
ARC
  5
26CC
  8
SAPA_PROFIL
 10
43.94943672121228
 20
205.38923041326171
 30
0.0
 40
0.3000000000003382
 50
180.00000000009771
 51
210.00000000009501
  0
LINE
  5
26CD
  8
SAPA_PROFIL
 10
43.6896291000769
 20
205.23923041326111
 30
0.0
 11
44.549436721212032
 21
203.7499999287204
 31
0.0
  0
LINE
  5
26CE
  8
SAPA_PROFIL
 10
44.549436721212032
 20
203.7499999287204
 30
0.0
 11
44.549448721212002
 21
203.2999999287201
 31
0.0
  0
ARC
  5
26CF
  8
SAPA_PROFIL
 10
44.249448721212048
 20
203.2999999287203
 30
0.0
 40
0.2999999999999474
 50
269.99999999995521
 51
359.99999999995657
  0
LINE
  5
26D0
  8
SAPA_PROFIL
 10
44.24944872121182
 20
202.9999999287204
 30
0.0
 11
40.649436721211941
 21
202.9999999287204
 31
0.0
  0
ARC
  5
26D1
  8
SAPA_PROFIL
 10
40.649436721211941
 20
203.29999992872061
 30
0.0
 40
0.3000000000001819
 50
180.0
 51
270.0
  0
LINE
  5
26D2
  8
SAPA_PROFIL
 10
40.349436721211752
 20
203.29999992872061
 30
0.0
 11
40.349436721211752
 21
203.7499999287204
 31
0.0
  0
LINE
  5
26D3
  8
SAPA_PROFIL
 10
40.349436721211752
 20
203.7499999287204
 30
0.0
 11
41.209261458780702
 21
205.2392600597943
 31
0.0
  0
ARC
  5
26D4
  8
SAPA_PROFIL
 10
40.949453837644953
 20
205.3892600597944
 30
0.0
 40
0.3000000000004012
 50
330.00000000002422
 51
359.99635313258273
  0
LINE
  5
26D5
  8
SAPA_PROFIL
 10
41.249453837037663
 20
205.38924096484129
 30
0.0
 11
41.249460886828487
 21
205.4999999287204
 31
0.0
  0
LINE
  5
26D6
  8
SAPA_PROFIL
 10
41.249460886828487
 20
205.4999999287204
 30
0.0
 11
39.627748884723808
 21
205.49999992871949
 31
0.0
  0
ARC
  5
26D7
  8
SAPA_PROFIL
 10
39.627748884723992
 20
204.4999999287198
 30
0.0
 40
0.9999999999996589
 50
90.000000000009777
 51
150.00000000001151
  0
LINE
  5
26D8
  8
SAPA_PROFIL
 10
38.761723480939729
 20
204.99999992871949
 30
0.0
 11
37.895698077155657
 21
203.4999999287204
 31
0.0
  0
ARC
  5
26D9
  8
SAPA_PROFIL
 10
37.029672673371401
 20
203.99999992872009
 30
0.0
 40
0.9999999999996857
 50
270.00000000001017
 51
330.00000000001029
  0
LINE
  5
26DA
  8
SAPA_PROFIL
 10
37.029672673371579
 20
202.9999999287204
 30
0.0
 11
36.469200769055298
 21
202.9999999287204
 31
0.0
  0
ARC
  5
26DB
  8
SAPA_PROFIL
 10
36.469200769055263
 20
203.99999992872051
 30
0.0
 40
1.000000000000085
 50
210.0000000000029
 51
270.0000000000029
  0
LINE
  5
26DC
  8
SAPA_PROFIL
 10
35.603175365270772
 20
203.4999999287204
 30
0.0
 11
34.737149961485777
 21
204.99999992871949
 31
0.0
  0
ARC
  5
26DD
  8
SAPA_PROFIL
 10
33.87112455770076
 20
204.49999992872031
 30
0.0
 40
1.0000000000001139
 50
29.999999999943551
 51
89.999999999945445
  0
LINE
  5
26DE
  8
SAPA_PROFIL
 10
33.871124557701712
 20
205.4999999287204
 30
0.0
 11
32.249412555598383
 21
205.4999999287204
 31
0.0
  0
LINE
  5
26DF
  8
SAPA_PROFIL
 10
32.249412555598383
 20
205.4999999287204
 30
0.0
 11
32.249419605389221
 21
205.38924096484129
 31
0.0
  0
ARC
  5
26E0
  8
SAPA_PROFIL
 10
32.549419604781079
 20
205.38926005979471
 30
0.0
 40
0.2999999999995532
 50
180.0036468674607
 51
210.00000000001901
  0
LINE
  5
26E1
  8
SAPA_PROFIL
 10
32.289611983646182
 20
205.23926005979479
 30
0.0
 11
33.149436721215132
 21
203.7499999287204
 31
0.0
  0
LINE
  5
26E2
  8
SAPA_PROFIL
 10
33.149436721215132
 20
203.7499999287204
 30
0.0
 11
33.149436721215132
 21
203.29999992872061
 31
0.0
  0
ARC
  5
26E3
  8
SAPA_PROFIL
 10
32.84943672121517
 20
203.2999999287203
 30
0.0
 40
0.2999999999999545
 50
270.00000000004343
 51
0.0000000000434252
  0
LINE
  5
26E4
  8
SAPA_PROFIL
 10
32.849436721215397
 20
202.9999999287204
 30
0.0
 11
29.24942472121506
 21
202.9999999287204
 31
0.0
  0
ARC
  5
26E5
  8
SAPA_PROFIL
 10
29.249424721215291
 20
203.2999999287203
 30
0.0
 40
0.2999999999999545
 50
179.99999999995649
 51
269.99999999995799
  0
LINE
  5
26E6
  8
SAPA_PROFIL
 10
28.94942472121534
 20
203.29999992872061
 30
0.0
 11
28.949436721214848
 21
203.7499999287204
 31
0.0
  0
LINE
  5
26E7
  8
SAPA_PROFIL
 10
28.949436721214848
 20
203.7499999287204
 30
0.0
 11
29.809244342349981
 21
205.23923041326111
 31
0.0
  0
ARC
  5
26E8
  8
SAPA_PROFIL
 10
29.549436721214381
 20
205.38923041326089
 30
0.0
 40
0.3000000000001137
 50
330.0000000000677
 51
0.0000000000651378
  0
LINE
  5
26E9
  8
SAPA_PROFIL
 10
29.849436721214492
 20
205.3892304132612
 30
0.0
 11
29.849436721214939
 21
205.9757358600084
 31
0.0
  0
ARC
  5
26EA
  8
SAPA_PROFIL
 10
29.549436721215059
 20
205.975735860008
 30
0.0
 40
0.2999999999998799
 50
0.0000000000814222
 51
45.000000000098339
  0
LINE
  5
26EB
  8
SAPA_PROFIL
 10
29.761568755570579
 20
206.18786789436419
 30
0.0
 11
28.456519502401761
 21
207.49291714753349
 31
0.0
  0
ARC
  5
26EC
  8
SAPA_PROFIL
 10
27.749412721215201
 20
206.78581036634679
 30
0.0
 40
1.0000000000000979
 50
45.000000000004043
 51
180.0
  0
LINE
  5
26ED
  8
SAPA_PROFIL
 10
26.749412721215101
 20
206.78581036634679
 30
0.0
 11
26.749436721215041
 21
203.19999992871931
 31
0.0
  0
ARC
  5
26EE
  8
SAPA_PROFIL
 10
26.749436721215041
 20
202.99999992871969
 30
0.0
 40
0.1999999999995907
 50
270.0
 51
90.0
  0
LINE
  5
26EF
  8
SAPA_PROFIL
 10
26.749436721215041
 20
202.7999999287201
 30
0.0
 11
26.749436721215041
 21
201.4999998991704
 31
0.0
  0
ARC
  5
26F0
  8
SAPA_PROFIL
 10
27.749436721071199
 20
201.4999998993145
 30
0.0
 40
0.9999999998561648
 50
180.00000000825131
 51
270.0000000084496
  0
LINE
  5
26F1
  8
SAPA_PROFIL
 10
27.749436721218672
 20
200.49999989945829
 30
0.0
 11
28.74943672121503
 21
200.49999989945829
 31
0.0
  0
ARC
  5
26F2
  8
SAPA_PROFIL
 10
28.74943672121503
 20
199.49999989945829
 30
0.0
 40
1.0
 50
0.0
 51
90.0
  0
LINE
  5
26F3
  8
SAPA_PROFIL
 10
29.74943672121503
 20
199.49999989945829
 30
0.0
 11
29.74943672121503
 21
193.38707018949731
 31
0.0
  0
ARC
  5
26F4
  8
SAPA_PROFIL
 10
28.749436721215059
 20
193.38707018949731
 30
0.0
 40
0.9999999999999751
 50
295.00000000026461
 51
359.99999999999682
  0
LINE
  5
26F5
  8
SAPA_PROFIL
 10
29.172054982959938
 20
192.48076240246269
 30
0.0
 11
25.326818459460579
 21
190.68769916411591
 31
0.0
  0
ARC
  5
26F6
  8
SAPA_PROFIL
 10
25.749436721205811
 20
189.78139137708101
 30
0.0
 40
1.000000000000332
 50
115.0000000002774
 51
180.00000000000969
  0
LINE
  5
26F7
  8
SAPA_PROFIL
 10
24.749436721205491
 20
189.78139137708081
 30
0.0
 11
24.749436721205491
 21
186.7326459037524
 31
0.0
  0
ARC
  5
26F8
  8
SAPA_PROFIL
 10
24.949436721206041
 20
186.7326459037524
 30
0.0
 40
0.2000000000005571
 50
180.0
 51
299.10990894042362
  0
ARC
  5
26F9
  8
SAPA_PROFIL
 10
26.749436721238169
 20
183.49999992871989
 30
0.0
 40
3.500000000000727
 50
94.917100336060344
 51
119.10990894043709
  0
LINE
  5
26FA
  8
SAPA_PROFIL
 10
26.44943672120576
 20
186.9871190835504
 30
0.0
 11
26.44943672120576
 21
188.2499999287204
 31
0.0
  0
ARC
  5
26FB
  8
SAPA_PROFIL
 10
26.94943672120576
 20
188.2499999287204
 30
0.0
 40
0.5
 50
90.0
 51
180.0
  0
LINE
  5
26FC
  8
SAPA_PROFIL
 10
26.94943672120576
 20
188.7499999287204
 30
0.0
 11
29.249436721215041
 21
188.7499999287204
 31
0.0
  0
ARC
  5
26FD
  8
SAPA_PROFIL
 10
29.249436721215041
 20
188.2499999287204
 30
0.0
 40
0.5
 50
0.0
 51
90.0
  0
LINE
  5
26FE
  8
SAPA_PROFIL
 10
29.74943672121503
 20
188.2499999287204
 30
0.0
 11
29.74943672121503
 21
185.30277556648861
 31
0.0
  0
ARC
  5
26FF
  8
SAPA_PROFIL
 10
26.749436721237
 20
183.49999992872009
 30
0.0
 40
3.499999999999976
 50
328.99728086542882
 51
31.002719134571262
  0
LINE
  5
2700
  8
SAPA_PROFIL
 10
29.74943672121503
 20
181.69722429095171
 30
0.0
 11
29.74943672121503
 21
175.30277556648861
 31
0.0
  0
ARC
  5
2701
  8
SAPA_PROFIL
 10
26.749436721237
 20
173.4999999287202
 30
0.0
 40
3.4999999999999729
 50
328.99728086542871
 51
31.002719134571279
  0
LINE
  5
2702
  8
SAPA_PROFIL
 10
29.74943672121503
 20
171.69722429095171
 30
0.0
 11
29.74943672121503
 21
168.7499999287204
 31
0.0
  0
ARC
  5
2703
  8
SAPA_PROFIL
 10
29.249436721215041
 20
168.7499999287204
 30
0.0
 40
0.5
 50
270.0
 51
0.0
  0
LINE
  5
2704
  8
SAPA_PROFIL
 10
29.249436721215041
 20
168.2499999287204
 30
0.0
 11
26.94943672120576
 21
168.2499999287204
 31
0.0
  0
ARC
  5
2705
  8
SAPA_PROFIL
 10
26.94943672120576
 20
168.7499999287204
 30
0.0
 40
0.5
 50
180.0
 51
270.0
  0
LINE
  5
2706
  8
SAPA_PROFIL
 10
26.44943672120576
 20
168.7499999287204
 30
0.0
 11
26.44943672120576
 21
170.0128807738904
 31
0.0
  0
ARC
  5
2707
  8
SAPA_PROFIL
 10
26.7494367212371
 20
173.4999999287206
 30
0.0
 40
3.500000000000381
 50
240.8900910595797
 51
265.08289966395671
  0
ARC
  5
2708
  8
SAPA_PROFIL
 10
24.94943672120591
 20
170.26735395368809
 30
0.0
 40
0.2000000000004273
 50
60.890091059512677
 51
179.9999999999348
  0
LINE
  5
2709
  8
SAPA_PROFIL
 10
24.749436721205491
 20
170.26735395368831
 30
0.0
 11
24.749436721205491
 21
167.21860848035951
 31
0.0
  0
ARC
  5
270A
  8
SAPA_PROFIL
 10
25.74943672120547
 20
167.21860848035959
 30
0.0
 40
0.9999999999999822
 50
180.00000000000321
 51
244.999999999735
  0
LINE
  5
270B
  8
SAPA_PROFIL
 10
25.326818459460579
 20
166.31230069332489
 30
0.0
 11
29.172054982959938
 21
164.51923745497811
 31
0.0
  0
ARC
  5
270C
  8
SAPA_PROFIL
 10
28.749436721215059
 20
163.6129296679434
 30
0.0
 40
0.999999999999979
 50
0.0000000000032569
 51
64.999999999735152
  0
LINE
  5
270D
  8
SAPA_PROFIL
 10
29.74943672121503
 20
163.61292966794349
 30
0.0
 11
29.74943672121503
 21
157.499999957982
 31
0.0
  0
ARC
  5
270E
  8
SAPA_PROFIL
 10
28.74943672121503
 20
157.499999957982
 30
0.0
 40
1.0
 50
270.0
 51
0.0
  0
LINE
  5
270F
  8
SAPA_PROFIL
 10
28.74943672121503
 20
156.499999957982
 30
0.0
 11
27.74943672121822
 21
156.49999995798251
 31
0.0
  0
ARC
  5
2710
  8
SAPA_PROFIL
 10
27.749436721070971
 20
155.49999995812649
 30
0.0
 40
0.9999999998559304
 50
89.999999991563215
 51
179.99999999176171
  0
LINE
  5
2711
  8
SAPA_PROFIL
 10
26.749436721215041
 20
155.49999995827031
 30
0.0
 11
26.749436721215041
 21
154.19999992873201
 31
0.0
  0
ARC
  5
2712
  8
SAPA_PROFIL
 10
26.749436721215041
 20
153.99999992873239
 30
0.0
 40
0.1999999999995907
 50
270.0
 51
90.0
  0
LINE
  5
2713
  8
SAPA_PROFIL
 10
26.749436721215041
 20
153.7999999287328
 30
0.0
 11
26.749412721215101
 21
150.21418949110529
 31
0.0
  0
ARC
  5
2714
  8
SAPA_PROFIL
 10
27.74941272121497
 20
150.2141894911052
 30
0.0
 40
0.9999999999998721
 50
179.99999999999511
 51
314.99999999999022
  0
LINE
  5
2715
  8
SAPA_PROFIL
 10
28.45651950240131
 20
149.50708270991871
 30
0.0
 11
29.761568755570579
 21
150.81213196308789
 31
0.0
  0
ARC
  5
2716
  8
SAPA_PROFIL
 10
29.549436721214839
 20
151.0242639974436
 30
0.0
 40
0.2999999999996603
 50
315.00000000000529
 51
0.0000000000217126
  0
LINE
  5
2717
  8
SAPA_PROFIL
 10
29.849436721214492
 20
151.02426399744371
 30
0.0
 11
29.849436721214492
 21
151.61076944419091
 31
0.0
  0
ARC
  5
2718
  8
SAPA_PROFIL
 10
29.549436721214381
 20
151.61076944419131
 30
0.0
 40
0.3000000000001144
 50
359.99999999993491
 51
29.999999999931958
  0
LINE
  5
2719
  8
SAPA_PROFIL
 10
29.809244342349981
 20
151.760769444191
 30
0.0
 11
28.949436721214401
 21
153.24999992873171
 31
0.0
  0
LINE
  5
271A
  8
SAPA_PROFIL
 10
28.949436721214401
 20
153.24999992873171
 30
0.0
 11
28.949424721214879
 21
153.69999992873201
 31
0.0
  0
ARC
  5
271B
  8
SAPA_PROFIL
 10
29.24942472121483
 20
153.69999992873181
 30
0.0
 40
0.2999999999999474
 50
89.999999999955207
 51
179.99999999995649
  0
LINE
  5
271C
  8
SAPA_PROFIL
 10
29.24942472121506
 20
153.99999992873171
 30
0.0
 11
32.84943672121495
 21
153.99999992873171
 31
0.0
  0
ARC
  5
271D
  8
SAPA_PROFIL
 10
32.84943672121495
 20
153.6999999287315
 30
0.0
 40
0.3000000000001819
 50
0.0
 51
90.0
  0
LINE
  5
271E
  8
SAPA_PROFIL
 10
32.249436721225493
 20
200.24999992854211
 30
0.0
 11
44.449436721207569
 21
200.24999992854211
 31
0.0
  0
LINE
  5
271F
  8
SAPA_PROFIL
 10
44.449436721207569
 20
200.24999992854211
 30
0.0
 11
44.449436721222128
 21
156.7499999288986
 31
0.0
  0
LINE
  5
2720
  8
SAPA_PROFIL
 10
44.449436721222128
 20
156.7499999288986
 30
0.0
 11
32.24943672120321
 21
156.74999992891
 31
0.0
  0
LINE
  5
2721
  8
SAPA_PROFIL
 10
32.24943672120321
 20
156.74999992891
 30
0.0
 11
32.249436721225493
 21
200.24999992854211
 31
0.0
  0
ARC
  5
2722
  8
SAPA_PROFIL
 62
     4
 10
43.89945668870169
 20
151.62416684750781
 30
0.0
 40
0.3000000000003311
 50
149.99999999990419
 51
179.99999999990229
  0
LINE
  5
2723
  8
SAPA_PROFIL
 62
     4
 10
43.639649067566317
 20
151.77416684750841
 30
0.0
 11
44.49945672120861
 21
153.2633973883537
 31
0.0
  0
LINE
  5
2724
  8
SAPA_PROFIL
 62
     4
 10
44.49945672120861
 20
153.2633973883537
 30
0.0
 11
44.49945672120861
 21
153.69999992873201
 31
0.0
  0
ARC
  5
2725
  8
SAPA_PROFIL
 62
     4
 10
44.249456721208617
 20
153.69999992873201
 30
0.0
 40
0.25
 50
0.0
 51
90.0
  0
LINE
  5
2726
  8
SAPA_PROFIL
 62
     4
 10
44.249456721208617
 20
153.94999992873201
 30
0.0
 11
40.649444721208731
 21
153.94999992873201
 31
0.0
  0
ARC
  5
2727
  8
SAPA_PROFIL
 62
     4
 10
40.649444721208731
 20
153.69999992873201
 30
0.0
 40
0.25
 50
89.999999999998366
 51
180.0
  0
LINE
  5
2728
  8
SAPA_PROFIL
 62
     4
 10
40.399444721208738
 20
153.69999992873201
 30
0.0
 11
40.399456363944182
 21
153.2633980071534
 31
0.0
  0
LINE
  5
2729
  8
SAPA_PROFIL
 62
     4
 10
40.399456363944182
 20
153.2633980071534
 30
0.0
 11
41.259264309837128
 21
151.77416696011571
 31
0.0
  0
ARC
  5
272A
  8
SAPA_PROFIL
 62
     4
 10
40.999456688702473
 20
151.62416696011621
 30
0.0
 40
0.2999999999991736
 50
359.99999999997289
 51
29.999999999979561
  0
LINE
  5
272B
  8
SAPA_PROFIL
 62
     4
 10
41.299456688701632
 20
151.6241669601161
 30
0.0
 11
41.299456688701632
 21
128.37583296886459
 31
0.0
  0
ARC
  5
272C
  8
SAPA_PROFIL
 62
     4
 10
40.999456688701613
 20
128.3758329688643
 30
0.0
 40
0.3000000000000256
 50
330.00000000006418
 51
0.0000000000705659
  0
LINE
  5
272D
  8
SAPA_PROFIL
 62
     4
 10
41.259264309837128
 20
128.22583296886449
 30
0.0
 11
40.399456363943727
 21
126.7366019218268
 31
0.0
  0
LINE
  5
272E
  8
SAPA_PROFIL
 62
     4
 10
40.399456363943727
 20
126.7366019218268
 30
0.0
 11
40.399444721208738
 21
126.3000000002482
 31
0.0
  0
ARC
  5
272F
  8
SAPA_PROFIL
 62
     4
 10
40.649444721208731
 20
126.3000000002482
 30
0.0
 40
0.2499999999999929
 50
180.0
 51
270.00000000000171
  0
LINE
  5
2730
  8
SAPA_PROFIL
 62
     4
 10
40.649444721208731
 20
126.0500000002482
 30
0.0
 11
44.249456721208617
 21
126.0500000002487
 31
0.0
  0
ARC
  5
2731
  8
SAPA_PROFIL
 62
     4
 10
44.249456721208617
 20
126.3000000002487
 30
0.0
 40
0.25
 50
270.0
 51
0.0
  0
LINE
  5
2732
  8
SAPA_PROFIL
 62
     4
 10
44.49945672120861
 20
126.3000000002487
 30
0.0
 11
44.49945672120861
 21
126.736602540627
 31
0.0
  0
LINE
  5
2733
  8
SAPA_PROFIL
 62
     4
 10
44.49945672120861
 20
126.736602540627
 30
0.0
 11
43.639649067566317
 21
128.2258330814723
 31
0.0
  0
ARC
  5
2734
  8
SAPA_PROFIL
 62
     4
 10
43.899456688701072
 20
128.3758330814718
 30
0.0
 40
0.2999999999992616
 50
179.99999999997829
 51
209.9999999999761
  0
LINE
  5
2735
  8
SAPA_PROFIL
 62
     4
 10
43.599456688701821
 20
128.37583308147191
 30
0.0
 11
43.599456688701359
 21
151.62416684750841
 31
0.0
  0
LINE
  5
2736
  8
SAPA_PROFIL
 62
     4
 10
3.4017096535933429
 20
137.49999993185719
 30
-0.2
 11
-10.79829034640875
 21
137.49999993185719
 31
-0.2
1001
RC_PROFILE
1002
{
1000
Region
1002
}
  0
ARC
  5
2737
  8
SAPA_PROFIL
 62
     4
 10
-10.79829034640875
 20
137.99999993185719
 30
-0.2
 40
0.5
 50
180.00000000020839
 51
270.0
1001
RC_PROFILE
1002
{
1000
Region
1002
}
  0
LINE
  5
2738
  8
SAPA_PROFIL
 62
     4
 10
-11.29829034640875
 20
137.9999999318554
 30
-0.2
 11
-11.29829034641193
 21
141.99999993247661
 31
-0.2
1001
RC_PROFILE
1002
{
1000
Region
1002
}
  0
ARC
  5
2739
  8
SAPA_PROFIL
 62
     4
 10
-10.79829034641193
 20
141.99999993247661
 30
-0.2
 40
0.5
 50
90.0
 51
180.0
1001
RC_PROFILE
1002
{
1000
Region
1002
}
  0
LINE
  5
273A
  8
SAPA_PROFIL
 62
     4
 10
-10.79829034641193
 20
142.49999993247661
 30
-0.2
 11
3.4017096535919791
 21
142.49999993248389
 31
-0.2
1001
RC_PROFILE
1002
{
1000
Region
1002
}
  0
ARC
  5
273B
  8
SAPA_PROFIL
 62
     4
 10
3.4017096535932292
 20
141.99999993248369
 30
-0.2
 40
0.5000000000001137
 50
0.0000000000130276
 51
90.000000000143288
1001
RC_PROFILE
1002
{
1000
Region
1002
}
  0
LINE
  5
273C
  8
SAPA_PROFIL
 62
     4
 10
3.9017096535933429
 20
141.99999993248389
 30
-0.2
 11
3.9017096535933429
 21
137.99999993185719
 31
-0.2
1001
RC_PROFILE
1002
{
1000
Region
1002
}
  0
ARC
  5
273D
  8
SAPA_PROFIL
 62
     4
 10
3.4017096535933429
 20
137.99999993185719
 30
-0.2
 40
0.5
 50
270.0
 51
0.0
1001
RC_PROFILE
1002
{
1000
Region
1002
}
  0
ARC
  5
273E
  8
SAPA_PROFIL
 62
     4
 10
28.965183210001559
 20
150.9227400018766
 30
0.0
 40
1.2000000000006059
 50
359.99999999995123
 51
29.999999999972172
1001
GENIUS_GENOBJ-N-FIL_13
1002
{
1000
OWNER
1000
GEN
1002
}
1001
GENIUS_GENODEF_13
1002
{
1000
HIER
1070
     0
1002
}
1002
{
1000
MANEDIT
1070
     0
1002
}
1002
{
1000
NOSEL
1070
     0
1002
}
1002
{
1000
BEHIND
1070
     0
1002
}
1002
{
1000
OTHER
1070
     0
1002
}
1002
{
1000
REACTOR
1002
}
  0
LINE
  5
273F
  8
SAPA_PROFIL
 62
     4
 10
30.0044136945437
 20
151.5227400018764
 30
0.0
 11
28.999444363945479
 21
153.2633979425197
 31
0.0
1001
GENIUS_GENOBJ-N-FIL_13
1002
{
1000
OWNER
1000
GEN
1002
}
1001
GENIUS_GENODEF_13
1002
{
1000
HIER
1070
     0
1002
}
1002
{
1000
MANEDIT
1070
     0
1002
}
1002
{
1000
NOSEL
1070
     0
1002
}
1002
{
1000
BEHIND
1070
     0
1002
}
1002
{
1000
OTHER
1070
     0
1002
}
1002
{
1000
REACTOR
1002
}
  0
LINE
  5
2740
  8
SAPA_PROFIL
 62
     4
 10
28.999444363945479
 20
153.2633979425197
 30
0.0
 11
28.999432721210489
 21
153.69999986409829
 31
0.0
1001
GENIUS_GENOBJ-N-FIL_13
1002
{
1000
OWNER
1000
GEN
1002
}
1001
GENIUS_GENODEF_13
1002
{
1000
HIER
1070
     0
1002
}
1002
{
1000
MANEDIT
1070
     0
1002
}
1002
{
1000
NOSEL
1070
     0
1002
}
1002
{
1000
BEHIND
1070
     0
1002
}
1002
{
1000
OTHER
1070
     0
1002
}
1002
{
1000
REACTOR
1002
}
  0
ARC
  5
2741
  8
SAPA_PROFIL
 62
     4
 10
29.249432721210489
 20
153.69999986409829
 30
0.0
 40
0.2499999999999964
 50
89.999999999999204
 51
180.0
1001
GENIUS_GENOBJ-N-FIL_13
1002
{
1000
OWNER
1000
GEN
1002
}
1001
GENIUS_GENODEF_13
1002
{
1000
HIER
1070
     0
1002
}
1002
{
1000
MANEDIT
1070
     0
1002
}
1002
{
1000
NOSEL
1070
     0
1002
}
1002
{
1000
BEHIND
1070
     0
1002
}
1002
{
1000
OTHER
1070
     0
1002
}
1002
{
1000
REACTOR
1002
}
  0
LINE
  5
2742
  8
SAPA_PROFIL
 62
     4
 10
29.2494327212105
 20
153.94999986409829
 30
0.0
 11
32.849444721210382
 21
153.94999986409789
 31
0.0
1001
GENIUS_GENOBJ-N-FIL_13
1002
{
1000
OWNER
1000
GEN
1002
}
1001
GENIUS_GENODEF_13
1002
{
1000
HIER
1070
     0
1002
}
1002
{
1000
MANEDIT
1070
     0
1002
}
1002
{
1000
NOSEL
1070
     0
1002
}
1002
{
1000
BEHIND
1070
     0
1002
}
1002
{
1000
OTHER
1070
     0
1002
}
1002
{
1000
REACTOR
1002
}
  0
ARC
  5
2743
  8
SAPA_PROFIL
 62
     4
 10
32.849444721210382
 20
153.69999986409789
 30
0.0
 40
0.25
 50
0.0
 51
90.0
1001
GENIUS_GENOBJ-N-FIL_13
1002
{
1000
OWNER
1000
GEN
1002
}
1001
GENIUS_GENODEF_13
1002
{
1000
HIER
1070
     0
1002
}
1002
{
1000
MANEDIT
1070
     0
1002
}
1002
{
1000
NOSEL
1070
     0
1002
}
1002
{
1000
BEHIND
1070
     0
1002
}
1002
{
1000
OTHER
1070
     0
1002
}
1002
{
1000
REACTOR
1002
}
  0
LINE
  5
2744
  8
SAPA_PROFIL
 62
     4
 10
33.099444721210382
 20
153.69999986409789
 30
0.0
 11
33.099444721210382
 21
153.2633973237196
 31
0.0
1001
GENIUS_GENOBJ-N-FIL_13
1002
{
1000
OWNER
1000
GEN
1002
}
1001
GENIUS_GENODEF_13
1002
{
1000
HIER
1070
     0
1002
}
1002
{
1000
MANEDIT
1070
     0
1002
}
1002
{
1000
NOSEL
1070
     0
1002
}
1002
{
1000
BEHIND
1070
     0
1002
}
1002
{
1000
OTHER
1070
     0
1002
}
1002
{
1000
REACTOR
1002
}
  0
LINE
  5
2745
  8
SAPA_PROFIL
 62
     4
 10
33.099444721210382
 20
153.2633973237196
 30
0.0
 11
32.125952725460373
 21
151.57725972631869
 31
0.0
1001
GENIUS_GENOBJ-N-FIL_13
1002
{
1000
OWNER
1000
GEN
1002
}
1001
GENIUS_GENODEF_13
1002
{
1000
HIER
1070
     0
1002
}
1002
{
1000
MANEDIT
1070
     0
1002
}
1002
{
1000
NOSEL
1070
     0
1002
}
1002
{
1000
BEHIND
1070
     0
1002
}
1002
{
1000
OTHER
1070
     0
1002
}
1002
{
1000
REACTOR
1002
}
  0
ARC
  5
2746
  8
SAPA_PROFIL
 62
     4
 10
33.165183210001487
 20
150.97725972631829
 30
0.0
 40
1.200000000000053
 50
149.99999999997669
 51
179.99999999997419
1001
GENIUS_GENOBJ-N-FIL_13
1002
{
1000
OWNER
1000
GEN
1002
}
1001
GENIUS_GENODEF_13
1002
{
1000
HIER
1070
     0
1002
}
1002
{
1000
MANEDIT
1070
     0
1002
}
1002
{
1000
NOSEL
1070
     0
1002
}
1002
{
1000
BEHIND
1070
     0
1002
}
1002
{
1000
OTHER
1070
     0
1002
}
1002
{
1000
REACTOR
1002
}
  0
LINE
  5
2747
  8
SAPA_PROFIL
 62
     4
 10
31.965183210001442
 20
150.97725972631881
 30
0.0
 11
31.965183210001442
 21
129.0227401380277
 31
0.0
1001
GENIUS_GENOBJ-N-FIL_13
1002
{
1000
OWNER
1000
GEN
1002
}
1001
GENIUS_GENODEF_13
1002
{
1000
HIER
1070
     0
1002
}
1002
{
1000
MANEDIT
1070
     0
1002
}
1002
{
1000
NOSEL
1070
     0
1002
}
1002
{
1000
BEHIND
1070
     0
1002
}
1002
{
1000
OTHER
1070
     0
1002
}
1002
{
1000
REACTOR
1002
}
  0
ARC
  5
2748
  8
SAPA_PROFIL
 62
     4
 10
33.165183210001487
 20
129.0227401380283
 30
0.0
 40
1.2000000000000519
 50
180.00000000002581
 51
210.00000000002331
1001
GENIUS_GENOBJ-N-FIL_13
1002
{
1000
OWNER
1000
GEN
1002
}
1001
GENIUS_GENODEF_13
1002
{
1000
HIER
1070
     0
1002
}
1002
{
1000
MANEDIT
1070
     0
1002
}
1002
{
1000
NOSEL
1070
     0
1002
}
1002
{
1000
BEHIND
1070
     0
1002
}
1002
{
1000
OTHER
1070
     0
1002
}
1002
{
1000
REACTOR
1002
}
  0
LINE
  5
2749
  8
SAPA_PROFIL
 62
     4
 10
32.125952725460373
 20
128.42274013802779
 30
0.0
 11
33.099444721210382
 21
126.736602540627
 31
0.0
1001
GENIUS_GENOBJ-N-FIL_13
1002
{
1000
OWNER
1000
GEN
1002
}
1001
GENIUS_GENODEF_13
1002
{
1000
HIER
1070
     0
1002
}
1002
{
1000
MANEDIT
1070
     0
1002
}
1002
{
1000
NOSEL
1070
     0
1002
}
1002
{
1000
BEHIND
1070
     0
1002
}
1002
{
1000
OTHER
1070
     0
1002
}
1002
{
1000
REACTOR
1002
}
  0
LINE
  5
274A
  8
SAPA_PROFIL
 62
     4
 10
33.099444721210382
 20
126.736602540627
 30
0.0
 11
33.099444721210382
 21
126.3000000002487
 31
0.0
1001
GENIUS_GENOBJ-N-FIL_13
1002
{
1000
OWNER
1000
GEN
1002
}
1001
GENIUS_GENODEF_13
1002
{
1000
HIER
1070
     0
1002
}
1002
{
1000
MANEDIT
1070
     0
1002
}
1002
{
1000
NOSEL
1070
     0
1002
}
1002
{
1000
BEHIND
1070
     0
1002
}
1002
{
1000
OTHER
1070
     0
1002
}
1002
{
1000
REACTOR
1002
}
  0
ARC
  5
274B
  8
SAPA_PROFIL
 62
     4
 10
32.849444721210382
 20
126.3000000002487
 30
0.0
 40
0.25
 50
270.0
 51
0.0
1001
GENIUS_GENOBJ-N-FIL_13
1002
{
1000
OWNER
1000
GEN
1002
}
1001
GENIUS_GENODEF_13
1002
{
1000
HIER
1070
     0
1002
}
1002
{
1000
MANEDIT
1070
     0
1002
}
1002
{
1000
NOSEL
1070
     0
1002
}
1002
{
1000
BEHIND
1070
     0
1002
}
1002
{
1000
OTHER
1070
     0
1002
}
1002
{
1000
REACTOR
1002
}
  0
LINE
  5
274C
  8
SAPA_PROFIL
 62
     4
 10
32.849444721210382
 20
126.0500000002487
 30
0.0
 11
29.2494327212105
 21
126.0500000002487
 31
0.0
1001
GENIUS_GENOBJ-N-FIL_13
1002
{
1000
OWNER
1000
GEN
1002
}
1001
GENIUS_GENODEF_13
1002
{
1000
HIER
1070
     0
1002
}
1002
{
1000
MANEDIT
1070
     0
1002
}
1002
{
1000
NOSEL
1070
     0
1002
}
1002
{
1000
BEHIND
1070
     0
1002
}
1002
{
1000
OTHER
1070
     0
1002
}
1002
{
1000
REACTOR
1002
}
  0
ARC
  5
274D
  8
SAPA_PROFIL
 62
     4
 10
29.249432721210489
 20
126.3000000002487
 30
0.0
 40
0.25
 50
180.0
 51
270.0000000000008
1001
GENIUS_GENOBJ-N-FIL_13
1002
{
1000
OWNER
1000
GEN
1002
}
1001
GENIUS_GENODEF_13
1002
{
1000
HIER
1070
     0
1002
}
1002
{
1000
MANEDIT
1070
     0
1002
}
1002
{
1000
NOSEL
1070
     0
1002
}
1002
{
1000
BEHIND
1070
     0
1002
}
1002
{
1000
OTHER
1070
     0
1002
}
1002
{
1000
REACTOR
1002
}
  0
LINE
  5
274E
  8
SAPA_PROFIL
 62
     4
 10
28.999432721210489
 20
126.3000000002487
 30
0.0
 11
28.999444363945479
 21
126.7366019218268
 31
0.0
1001
GENIUS_GENOBJ-N-FIL_13
1002
{
1000
OWNER
1000
GEN
1002
}
1001
GENIUS_GENODEF_13
1002
{
1000
HIER
1070
     0
1002
}
1002
{
1000
MANEDIT
1070
     0
1002
}
1002
{
1000
NOSEL
1070
     0
1002
}
1002
{
1000
BEHIND
1070
     0
1002
}
1002
{
1000
OTHER
1070
     0
1002
}
1002
{
1000
REACTOR
1002
}
  0
LINE
  5
274F
  8
SAPA_PROFIL
 62
     4
 10
28.999444363945479
 20
126.7366019218268
 30
0.0
 11
30.0044136945437
 21
128.47725986247059
 31
0.0
1001
GENIUS_GENOBJ-N-FIL_13
1002
{
1000
OWNER
1000
GEN
1002
}
1001
GENIUS_GENODEF_13
1002
{
1000
HIER
1070
     0
1002
}
1002
{
1000
MANEDIT
1070
     0
1002
}
1002
{
1000
NOSEL
1070
     0
1002
}
1002
{
1000
BEHIND
1070
     0
1002
}
1002
{
1000
OTHER
1070
     0
1002
}
1002
{
1000
REACTOR
1002
}
  0
ARC
  5
2750
  8
SAPA_PROFIL
 62
     4
 10
28.965183210002419
 20
129.07725986247021
 30
0.0
 40
1.1999999999997479
 50
330.00000000001688
 51
0.000000000037997
1001
GENIUS_GENOBJ-N-FIL_13
1002
{
1000
OWNER
1000
GEN
1002
}
1001
GENIUS_GENODEF_13
1002
{
1000
HIER
1070
     0
1002
}
1002
{
1000
MANEDIT
1070
     0
1002
}
1002
{
1000
NOSEL
1070
     0
1002
}
1002
{
1000
BEHIND
1070
     0
1002
}
1002
{
1000
OTHER
1070
     0
1002
}
1002
{
1000
REACTOR
1002
}
  0
LINE
  5
2751
  8
SAPA_PROFIL
 62
     4
 10
30.165183210002169
 20
129.07725986247101
 30
0.0
 11
30.165183210001722
 21
131.7999999999995
 31
0.0
1001
GENIUS_GENOBJ-N-FIL_13
1002
{
1000
OWNER
1000
GEN
1002
}
1001
GENIUS_GENODEF_13
1002
{
1000
HIER
1070
     0
1002
}
1002
{
1000
MANEDIT
1070
     0
1002
}
1002
{
1000
NOSEL
1070
     0
1002
}
1002
{
1000
BEHIND
1070
     0
1002
}
1002
{
1000
OTHER
1070
     0
1002
}
1002
{
1000
REACTOR
1002
}
  0
ARC
  5
2752
  8
SAPA_PROFIL
 62
     4
 10
28.965183210002131
 20
131.79999999999879
 30
0.0
 40
1.1999999999995901
 50
0.0000000000325689
 51
90.000000000227985
1001
GENIUS_GENOBJ-N-FIL_13
1002
{
1000
OWNER
1000
GEN
1002
}
1001
GENIUS_GENODEF_13
1002
{
1000
HIER
1070
     0
1002
}
1002
{
1000
MANEDIT
1070
     0
1002
}
1002
{
1000
NOSEL
1070
     0
1002
}
1002
{
1000
BEHIND
1070
     0
1002
}
1002
{
1000
OTHER
1070
     0
1002
}
1002
{
1000
REACTOR
1002
}
  0
LINE
  5
2753
  8
SAPA_PROFIL
 62
     4
 10
28.965183209997349
 20
132.99999999999841
 30
0.0
 11
3.1674481830757482
 21
132.99999999990931
 31
0.0
1001
GENIUS_GENOBJ-N-FIL_13
1002
{
1000
OWNER
1000
GEN
1002
}
1001
GENIUS_GENODEF_13
1002
{
1000
HIER
1070
     0
1002
}
1002
{
1000
MANEDIT
1070
     0
1002
}
1002
{
1000
NOSEL
1070
     0
1002
}
1002
{
1000
BEHIND
1070
     0
1002
}
1002
{
1000
OTHER
1070
     0
1002
}
1002
{
1000
REACTOR
1002
}
  0
ARC
  5
2754
  8
SAPA_PROFIL
 62
     4
 10
3.1674481830757482
 20
133.49999999990931
 30
0.0
 40
0.5
 50
180.0
 51
270.0
1001
GENIUS_GENOBJ-N-FIL_13
1002
{
1000
OWNER
1000
GEN
1002
}
1001
GENIUS_GENODEF_13
1002
{
1000
HIER
1070
     0
1002
}
1002
{
1000
MANEDIT
1070
     0
1002
}
1002
{
1000
NOSEL
1070
     0
1002
}
1002
{
1000
BEHIND
1070
     0
1002
}
1002
{
1000
OTHER
1070
     0
1002
}
1002
{
1000
REACTOR
1002
}
  0
LINE
  5
2755
  8
SAPA_PROFIL
 62
     4
 10
2.6674481830757482
 20
133.49999999990931
 30
0.0
 11
2.667448183075293
 21
133.6999999999091
 31
0.0
1001
GENIUS_GENOBJ-N-FIL_13
1002
{
1000
OWNER
1000
GEN
1002
}
1001
GENIUS_GENODEF_13
1002
{
1000
HIER
1070
     0
1002
}
1002
{
1000
MANEDIT
1070
     0
1002
}
1002
{
1000
NOSEL
1070
     0
1002
}
1002
{
1000
BEHIND
1070
     0
1002
}
1002
{
1000
OTHER
1070
     0
1002
}
1002
{
1000
REACTOR
1002
}
  0
ARC
  5
2756
  8
SAPA_PROFIL
 62
     4
 10
2.9674481830754749
 20
133.6999999999091
 30
0.0
 40
0.3000000000001819
 50
90.0
 51
180.0
1001
GENIUS_GENOBJ-N-FIL_13
1002
{
1000
OWNER
1000
GEN
1002
}
1001
GENIUS_GENODEF_13
1002
{
1000
HIER
1070
     0
1002
}
1002
{
1000
MANEDIT
1070
     0
1002
}
1002
{
1000
NOSEL
1070
     0
1002
}
1002
{
1000
BEHIND
1070
     0
1002
}
1002
{
1000
OTHER
1070
     0
1002
}
1002
{
1000
REACTOR
1002
}
  0
LINE
  5
2757
  8
SAPA_PROFIL
 62
     4
 10
2.9674481830754749
 20
133.99999999990931
 30
0.0
 11
3.6174481830773848
 21
133.99999999990931
 31
0.0
1001
GENIUS_GENOBJ-N-FIL_13
1002
{
1000
OWNER
1000
GEN
1002
}
1001
GENIUS_GENODEF_13
1002
{
1000
HIER
1070
     0
1002
}
1002
{
1000
MANEDIT
1070
     0
1002
}
1002
{
1000
NOSEL
1070
     0
1002
}
1002
{
1000
BEHIND
1070
     0
1002
}
1002
{
1000
OTHER
1070
     0
1002
}
1002
{
1000
REACTOR
1002
}
  0
ARC
  5
2758
  8
SAPA_PROFIL
 62
     4
 10
3.6174481830769301
 20
134.29999999990989
 30
0.0
 40
0.3000000000006366
 50
270.0000000000868
 51
0.0000000000868503
1001
GENIUS_GENOBJ-N-FIL_13
1002
{
1000
OWNER
1000
GEN
1002
}
1001
GENIUS_GENODEF_13
1002
{
1000
HIER
1070
     0
1002
}
1002
{
1000
MANEDIT
1070
     0
1002
}
1002
{
1000
NOSEL
1070
     0
1002
}
1002
{
1000
BEHIND
1070
     0
1002
}
1002
{
1000
OTHER
1070
     0
1002
}
1002
{
1000
REACTOR
1002
}
  0
LINE
  5
2759
  8
SAPA_PROFIL
 62
     4
 10
3.9174481830775671
 20
134.2999999999104
 30
0.0
 11
3.9174481830766581
 21
135.19999999990631
 31
0.0
1001
GENIUS_GENOBJ-N-FIL_13
1002
{
1000
OWNER
1000
GEN
1002
}
1001
GENIUS_GENODEF_13
1002
{
1000
HIER
1070
     0
1002
}
1002
{
1000
MANEDIT
1070
     0
1002
}
1002
{
1000
NOSEL
1070
     0
1002
}
1002
{
1000
BEHIND
1070
     0
1002
}
1002
{
1000
OTHER
1070
     0
1002
}
1002
{
1000
REACTOR
1002
}
  0
ARC
  5
275A
  8
SAPA_PROFIL
 62
     4
 10
3.417448183077112
 20
135.19999999990679
 30
0.0
 40
0.4999999999995453
 50
359.99999999994787
 51
89.999999999947889
1001
GENIUS_GENOBJ-N-FIL_13
1002
{
1000
OWNER
1000
GEN
1002
}
1001
GENIUS_GENODEF_13
1002
{
1000
HIER
1070
     0
1002
}
1002
{
1000
MANEDIT
1070
     0
1002
}
1002
{
1000
NOSEL
1070
     0
1002
}
1002
{
1000
BEHIND
1070
     0
1002
}
1002
{
1000
OTHER
1070
     0
1002
}
1002
{
1000
REACTOR
1002
}
  0
LINE
  5
275B
  8
SAPA_PROFIL
 62
     4
 10
3.4174481830775671
 20
135.69999999990631
 30
0.0
 11
-2.582551816924251
 21
135.69999999990631
 31
0.0
1001
GENIUS_GENOBJ-N-FIL_13
1002
{
1000
OWNER
1000
GEN
1002
}
1001
GENIUS_GENODEF_13
1002
{
1000
HIER
1070
     0
1002
}
1002
{
1000
MANEDIT
1070
     0
1002
}
1002
{
1000
NOSEL
1070
     0
1002
}
1002
{
1000
BEHIND
1070
     0
1002
}
1002
{
1000
OTHER
1070
     0
1002
}
1002
{
1000
REACTOR
1002
}
  0
ARC
  5
275C
  8
SAPA_PROFIL
 62
     4
 10
-2.582551816924251
 20
135.19999999990631
 30
0.0
 40
0.5
 50
90.0
 51
180.0
1001
GENIUS_GENOBJ-N-FIL_13
1002
{
1000
OWNER
1000
GEN
1002
}
1001
GENIUS_GENODEF_13
1002
{
1000
HIER
1070
     0
1002
}
1002
{
1000
MANEDIT
1070
     0
1002
}
1002
{
1000
NOSEL
1070
     0
1002
}
1002
{
1000
BEHIND
1070
     0
1002
}
1002
{
1000
OTHER
1070
     0
1002
}
1002
{
1000
REACTOR
1002
}
  0
LINE
  5
275D
  8
SAPA_PROFIL
 62
     4
 10
-3.082551816924251
 20
135.19999999990631
 30
0.0
 11
-3.082551816924251
 21
134.29999999990761
 31
0.0
1001
GENIUS_GENOBJ-N-FIL_13
1002
{
1000
OWNER
1000
GEN
1002
}
1001
GENIUS_GENODEF_13
1002
{
1000
HIER
1070
     0
1002
}
1002
{
1000
MANEDIT
1070
     0
1002
}
1002
{
1000
NOSEL
1070
     0
1002
}
1002
{
1000
BEHIND
1070
     0
1002
}
1002
{
1000
OTHER
1070
     0
1002
}
1002
{
1000
REACTOR
1002
}
  0
ARC
  5
275E
  8
SAPA_PROFIL
 62
     4
 10
-2.782551816924637
 20
134.29999999990801
 30
0.0
 40
0.2999999999996135
 50
180.00000000006511
 51
269.99999999967429
1001
GENIUS_GENOBJ-N-FIL_13
1002
{
1000
OWNER
1000
GEN
1002
}
1001
GENIUS_GENODEF_13
1002
{
1000
HIER
1070
     0
1002
}
1002
{
1000
MANEDIT
1070
     0
1002
}
1002
{
1000
NOSEL
1070
     0
1002
}
1002
{
1000
BEHIND
1070
     0
1002
}
1002
{
1000
OTHER
1070
     0
1002
}
1002
{
1000
REACTOR
1002
}
  0
LINE
  5
275F
  8
SAPA_PROFIL
 62
     4
 10
-2.7825518169263428
 20
133.99999999990831
 30
0.0
 11
-2.1325518169244329
 21
133.99999999990379
 31
0.0
1001
GENIUS_GENOBJ-N-FIL_13
1002
{
1000
OWNER
1000
GEN
1002
}
1001
GENIUS_GENODEF_13
1002
{
1000
HIER
1070
     0
1002
}
1002
{
1000
MANEDIT
1070
     0
1002
}
1002
{
1000
NOSEL
1070
     0
1002
}
1002
{
1000
BEHIND
1070
     0
1002
}
1002
{
1000
OTHER
1070
     0
1002
}
1002
{
1000
REACTOR
1002
}
  0
ARC
  5
2760
  8
SAPA_PROFIL
 62
     4
 10
-2.1325518169264792
 20
133.69999999990381
 30
0.0
 40
0.2999999999999545
 50
359.9999999996092
 51
89.999999999609173
1001
GENIUS_GENOBJ-N-FIL_13
1002
{
1000
OWNER
1000
GEN
1002
}
1001
GENIUS_GENODEF_13
1002
{
1000
HIER
1070
     0
1002
}
1002
{
1000
MANEDIT
1070
     0
1002
}
1002
{
1000
NOSEL
1070
     0
1002
}
1002
{
1000
BEHIND
1070
     0
1002
}
1002
{
1000
OTHER
1070
     0
1002
}
1002
{
1000
REACTOR
1002
}
  0
LINE
  5
2761
  8
SAPA_PROFIL
 62
     4
 10
-1.8325518169265249
 20
133.69999999990179
 30
0.0
 11
-1.832551816927434
 21
133.49999999990931
 31
0.0
1001
GENIUS_GENOBJ-N-FIL_13
1002
{
1000
OWNER
1000
GEN
1002
}
1001
GENIUS_GENODEF_13
1002
{
1000
HIER
1070
     0
1002
}
1002
{
1000
MANEDIT
1070
     0
1002
}
1002
{
1000
NOSEL
1070
     0
1002
}
1002
{
1000
BEHIND
1070
     0
1002
}
1002
{
1000
OTHER
1070
     0
1002
}
1002
{
1000
REACTOR
1002
}
  0
ARC
  5
2762
  8
SAPA_PROFIL
 62
     4
 10
-2.3325518169274342
 20
133.49999999990931
 30
0.0
 40
0.5
 50
270.0
 51
0.0
1001
GENIUS_GENOBJ-N-FIL_13
1002
{
1000
OWNER
1000
GEN
1002
}
1001
GENIUS_GENODEF_13
1002
{
1000
HIER
1070
     0
1002
}
1002
{
1000
MANEDIT
1070
     0
1002
}
1002
{
1000
NOSEL
1070
     0
1002
}
1002
{
1000
BEHIND
1070
     0
1002
}
1002
{
1000
OTHER
1070
     0
1002
}
1002
{
1000
REACTOR
1002
}
  0
LINE
  5
2763
  8
SAPA_PROFIL
 62
     4
 10
-2.3325518169274342
 20
132.99999999990931
 30
0.0
 11
-5.3325518169274337
 21
132.99999999990931
 31
0.0
1001
GENIUS_GENOBJ-N-FIL_13
1002
{
1000
OWNER
1000
GEN
1002
}
1001
GENIUS_GENODEF_13
1002
{
1000
HIER
1070
     0
1002
}
1002
{
1000
MANEDIT
1070
     0
1002
}
1002
{
1000
NOSEL
1070
     0
1002
}
1002
{
1000
BEHIND
1070
     0
1002
}
1002
{
1000
OTHER
1070
     0
1002
}
1002
{
1000
REACTOR
1002
}
  0
ARC
  5
2764
  8
SAPA_PROFIL
 62
     4
 10
-5.3325518169274337
 20
133.49999999990931
 30
0.0
 40
0.5
 50
180.0
 51
270.0
1001
GENIUS_GENOBJ-N-FIL_13
1002
{
1000
OWNER
1000
GEN
1002
}
1001
GENIUS_GENODEF_13
1002
{
1000
HIER
1070
     0
1002
}
1002
{
1000
MANEDIT
1070
     0
1002
}
1002
{
1000
NOSEL
1070
     0
1002
}
1002
{
1000
BEHIND
1070
     0
1002
}
1002
{
1000
OTHER
1070
     0
1002
}
1002
{
1000
REACTOR
1002
}
  0
LINE
  5
2765
  8
SAPA_PROFIL
 62
     4
 10
-5.8325518169274337
 20
133.49999999990931
 30
0.0
 11
-5.8325518169274337
 21
133.6999999999091
 31
0.0
1001
GENIUS_GENOBJ-N-FIL_13
1002
{
1000
OWNER
1000
GEN
1002
}
1001
GENIUS_GENODEF_13
1002
{
1000
HIER
1070
     0
1002
}
1002
{
1000
MANEDIT
1070
     0
1002
}
1002
{
1000
NOSEL
1070
     0
1002
}
1002
{
1000
BEHIND
1070
     0
1002
}
1002
{
1000
OTHER
1070
     0
1002
}
1002
{
1000
REACTOR
1002
}
  0
ARC
  5
2766
  8
SAPA_PROFIL
 62
     4
 10
-5.5325518169272518
 20
133.6999999999091
 30
0.0
 40
0.3000000000001819
 50
90.0
 51
180.0
1001
GENIUS_GENOBJ-N-FIL_13
1002
{
1000
OWNER
1000
GEN
1002
}
1001
GENIUS_GENODEF_13
1002
{
1000
HIER
1070
     0
1002
}
1002
{
1000
MANEDIT
1070
     0
1002
}
1002
{
1000
NOSEL
1070
     0
1002
}
1002
{
1000
BEHIND
1070
     0
1002
}
1002
{
1000
OTHER
1070
     0
1002
}
1002
{
1000
REACTOR
1002
}
  0
LINE
  5
2767
  8
SAPA_PROFIL
 62
     4
 10
-5.5325518169272518
 20
133.99999999990931
 30
0.0
 11
-4.8825518169276156
 21
133.99999999990931
 31
0.0
1001
GENIUS_GENOBJ-N-FIL_13
1002
{
1000
OWNER
1000
GEN
1002
}
1001
GENIUS_GENODEF_13
1002
{
1000
HIER
1070
     0
1002
}
1002
{
1000
MANEDIT
1070
     0
1002
}
1002
{
1000
NOSEL
1070
     0
1002
}
1002
{
1000
BEHIND
1070
     0
1002
}
1002
{
1000
OTHER
1070
     0
1002
}
1002
{
1000
REACTOR
1002
}
  0
ARC
  5
2768
  8
SAPA_PROFIL
 62
     4
 10
-4.8825518169280713
 20
134.29999999990989
 30
0.0
 40
0.3000000000006366
 50
270.0000000000868
 51
0.0000000000868503
1001
GENIUS_GENOBJ-N-FIL_13
1002
{
1000
OWNER
1000
GEN
1002
}
1001
GENIUS_GENODEF_13
1002
{
1000
HIER
1070
     0
1002
}
1002
{
1000
MANEDIT
1070
     0
1002
}
1002
{
1000
NOSEL
1070
     0
1002
}
1002
{
1000
BEHIND
1070
     0
1002
}
1002
{
1000
OTHER
1070
     0
1002
}
1002
{
1000
REACTOR
1002
}
  0
LINE
  5
2769
  8
SAPA_PROFIL
 62
     4
 10
-4.5825518169274337
 20
134.2999999999104
 30
0.0
 11
-4.5825518169274337
 21
135.19999999990631
 31
0.0
1001
GENIUS_GENOBJ-N-FIL_13
1002
{
1000
OWNER
1000
GEN
1002
}
1001
GENIUS_GENODEF_13
1002
{
1000
HIER
1070
     0
1002
}
1002
{
1000
MANEDIT
1070
     0
1002
}
1002
{
1000
NOSEL
1070
     0
1002
}
1002
{
1000
BEHIND
1070
     0
1002
}
1002
{
1000
OTHER
1070
     0
1002
}
1002
{
1000
REACTOR
1002
}
  0
ARC
  5
276A
  8
SAPA_PROFIL
 62
     4
 10
-5.0825518169274337
 20
135.19999999990631
 30
0.0
 40
0.5
 50
0.0
 51
90.0
1001
GENIUS_GENOBJ-N-FIL_13
1002
{
1000
OWNER
1000
GEN
1002
}
1001
GENIUS_GENODEF_13
1002
{
1000
HIER
1070
     0
1002
}
1002
{
1000
MANEDIT
1070
     0
1002
}
1002
{
1000
NOSEL
1070
     0
1002
}
1002
{
1000
BEHIND
1070
     0
1002
}
1002
{
1000
OTHER
1070
     0
1002
}
1002
{
1000
REACTOR
1002
}
  0
LINE
  5
276B
  8
SAPA_PROFIL
 62
     4
 10
-5.0825518169274337
 20
135.69999999990631
 30
0.0
 11
-11.082551816927429
 21
135.69999999990631
 31
0.0
1001
GENIUS_GENOBJ-N-FIL_13
1002
{
1000
OWNER
1000
GEN
1002
}
1001
GENIUS_GENODEF_13
1002
{
1000
HIER
1070
     0
1002
}
1002
{
1000
MANEDIT
1070
     0
1002
}
1002
{
1000
NOSEL
1070
     0
1002
}
1002
{
1000
BEHIND
1070
     0
1002
}
1002
{
1000
OTHER
1070
     0
1002
}
1002
{
1000
REACTOR
1002
}
  0
ARC
  5
276C
  8
SAPA_PROFIL
 62
     4
 10
-11.082551816927429
 20
135.19999999990631
 30
0.0
 40
0.5
 50
90.0
 51
180.0
1001
GENIUS_GENOBJ-N-FIL_13
1002
{
1000
OWNER
1000
GEN
1002
}
1001
GENIUS_GENODEF_13
1002
{
1000
HIER
1070
     0
1002
}
1002
{
1000
MANEDIT
1070
     0
1002
}
1002
{
1000
NOSEL
1070
     0
1002
}
1002
{
1000
BEHIND
1070
     0
1002
}
1002
{
1000
OTHER
1070
     0
1002
}
1002
{
1000
REACTOR
1002
}
  0
LINE
  5
276D
  8
SAPA_PROFIL
 62
     4
 10
-11.582551816927429
 20
135.19999999990631
 30
0.0
 11
-11.582551816927429
 21
134.2999999999104
 31
0.0
1001
GENIUS_GENOBJ-N-FIL_13
1002
{
1000
OWNER
1000
GEN
1002
}
1001
GENIUS_GENODEF_13
1002
{
1000
HIER
1070
     0
1002
}
1002
{
1000
MANEDIT
1070
     0
1002
}
1002
{
1000
NOSEL
1070
     0
1002
}
1002
{
1000
BEHIND
1070
     0
1002
}
1002
{
1000
OTHER
1070
     0
1002
}
1002
{
1000
REACTOR
1002
}
  0
ARC
  5
276E
  8
SAPA_PROFIL
 62
     4
 10
-11.2825518169268
 20
134.29999999990989
 30
0.0
 40
0.3000000000006366
 50
179.99999999991309
 51
269.99999999991309
1001
GENIUS_GENOBJ-N-FIL_13
1002
{
1000
OWNER
1000
GEN
1002
}
1001
GENIUS_GENODEF_13
1002
{
1000
HIER
1070
     0
1002
}
1002
{
1000
MANEDIT
1070
     0
1002
}
1002
{
1000
NOSEL
1070
     0
1002
}
1002
{
1000
BEHIND
1070
     0
1002
}
1002
{
1000
OTHER
1070
     0
1002
}
1002
{
1000
REACTOR
1002
}
  0
LINE
  5
276F
  8
SAPA_PROFIL
 62
     4
 10
-11.282551816927249
 20
133.99999999990931
 30
0.0
 11
-10.63255181692762
 21
133.99999999990931
 31
0.0
1001
GENIUS_GENOBJ-N-FIL_13
1002
{
1000
OWNER
1000
GEN
1002
}
1001
GENIUS_GENODEF_13
1002
{
1000
HIER
1070
     0
1002
}
1002
{
1000
MANEDIT
1070
     0
1002
}
1002
{
1000
NOSEL
1070
     0
1002
}
1002
{
1000
BEHIND
1070
     0
1002
}
1002
{
1000
OTHER
1070
     0
1002
}
1002
{
1000
REACTOR
1002
}
  0
ARC
  5
2770
  8
SAPA_PROFIL
 62
     4
 10
-10.63255181692762
 20
133.6999999999091
 30
0.0
 40
0.3000000000001819
 50
0.0
 51
90.0
1001
GENIUS_GENOBJ-N-FIL_13
1002
{
1000
OWNER
1000
GEN
1002
}
1001
GENIUS_GENODEF_13
1002
{
1000
HIER
1070
     0
1002
}
1002
{
1000
MANEDIT
1070
     0
1002
}
1002
{
1000
NOSEL
1070
     0
1002
}
1002
{
1000
BEHIND
1070
     0
1002
}
1002
{
1000
OTHER
1070
     0
1002
}
1002
{
1000
REACTOR
1002
}
  0
LINE
  5
2771
  8
SAPA_PROFIL
 62
     4
 10
-10.332551816927429
 20
133.6999999999091
 30
0.0
 11
-10.332551816927429
 21
133.49999999990931
 31
0.0
1001
GENIUS_GENOBJ-N-FIL_13
1002
{
1000
OWNER
1000
GEN
1002
}
1001
GENIUS_GENODEF_13
1002
{
1000
HIER
1070
     0
1002
}
1002
{
1000
MANEDIT
1070
     0
1002
}
1002
{
1000
NOSEL
1070
     0
1002
}
1002
{
1000
BEHIND
1070
     0
1002
}
1002
{
1000
OTHER
1070
     0
1002
}
1002
{
1000
REACTOR
1002
}
  0
ARC
  5
2772
  8
SAPA_PROFIL
 62
     4
 10
-10.832551816927429
 20
133.49999999990931
 30
0.0
 40
0.5
 50
270.0
 51
0.0
1001
GENIUS_GENOBJ-N-FIL_13
1002
{
1000
OWNER
1000
GEN
1002
}
1001
GENIUS_GENODEF_13
1002
{
1000
HIER
1070
     0
1002
}
1002
{
1000
MANEDIT
1070
     0
1002
}
1002
{
1000
NOSEL
1070
     0
1002
}
1002
{
1000
BEHIND
1070
     0
1002
}
1002
{
1000
OTHER
1070
     0
1002
}
1002
{
1000
REACTOR
1002
}
  0
LINE
  5
2773
  8
SAPA_PROFIL
 62
     4
 10
-10.832551816927429
 20
132.99999999990931
 30
0.0
 11
-12.582551816927429
 21
132.99999999991019
 31
0.0
1001
GENIUS_GENOBJ-N-FIL_13
1002
{
1000
OWNER
1000
GEN
1002
}
1001
GENIUS_GENODEF_13
1002
{
1000
HIER
1070
     0
1002
}
1002
{
1000
MANEDIT
1070
     0
1002
}
1002
{
1000
NOSEL
1070
     0
1002
}
1002
{
1000
BEHIND
1070
     0
1002
}
1002
{
1000
OTHER
1070
     0
1002
}
1002
{
1000
REACTOR
1002
}
  0
ARC
  5
2774
  8
SAPA_PROFIL
 62
     4
 10
-12.5825518167602
 20
133.50000000007739
 30
0.0
 40
0.5000000001672335
 50
179.99999998091459
 51
269.99999998083649
1001
GENIUS_GENOBJ-N-FIL_13
1002
{
1000
OWNER
1000
GEN
1002
}
1001
GENIUS_GENODEF_13
1002
{
1000
HIER
1070
     0
1002
}
1002
{
1000
MANEDIT
1070
     0
1002
}
1002
{
1000
NOSEL
1070
     0
1002
}
1002
{
1000
BEHIND
1070
     0
1002
}
1002
{
1000
OTHER
1070
     0
1002
}
1002
{
1000
REACTOR
1002
}
  0
LINE
  5
2775
  8
SAPA_PROFIL
 62
     4
 10
-13.082551816927429
 20
133.500000000244
 30
0.0
 11
-13.082551816927889
 21
146.50000000025119
 31
0.0
1001
GENIUS_GENOBJ-N-FIL_13
1002
{
1000
OWNER
1000
GEN
1002
}
1001
GENIUS_GENODEF_13
1002
{
1000
HIER
1070
     0
1002
}
1002
{
1000
MANEDIT
1070
     0
1002
}
1002
{
1000
NOSEL
1070
     0
1002
}
1002
{
1000
BEHIND
1070
     0
1002
}
1002
{
1000
OTHER
1070
     0
1002
}
1002
{
1000
REACTOR
1002
}
  0
ARC
  5
2776
  8
SAPA_PROFIL
 62
     4
 10
-12.58255181679044
 20
146.50000000039029
 30
0.0
 40
0.5000000001374474
 50
90.000000015906636
 51
180.0000000159327
1001
GENIUS_GENOBJ-N-FIL_13
1002
{
1000
OWNER
1000
GEN
1002
}
1001
GENIUS_GENODEF_13
1002
{
1000
HIER
1070
     0
1002
}
1002
{
1000
MANEDIT
1070
     0
1002
}
1002
{
1000
NOSEL
1070
     0
1002
}
1002
{
1000
BEHIND
1070
     0
1002
}
1002
{
1000
OTHER
1070
     0
1002
}
1002
{
1000
REACTOR
1002
}
  0
LINE
  5
2777
  8
SAPA_PROFIL
 62
     4
 10
-12.58255181692925
 20
147.00000000052771
 30
0.0
 11
-10.83255181692925
 21
147.00000000052771
 31
0.0
1001
GENIUS_GENOBJ-N-FIL_13
1002
{
1000
OWNER
1000
GEN
1002
}
1001
GENIUS_GENODEF_13
1002
{
1000
HIER
1070
     0
1002
}
1002
{
1000
MANEDIT
1070
     0
1002
}
1002
{
1000
NOSEL
1070
     0
1002
}
1002
{
1000
BEHIND
1070
     0
1002
}
1002
{
1000
OTHER
1070
     0
1002
}
1002
{
1000
REACTOR
1002
}
  0
ARC
  5
2778
  8
SAPA_PROFIL
 62
     4
 10
-10.83255181692925
 20
146.50000000052771
 30
0.0
 40
0.5
 50
0.0
 51
90.0
1001
GENIUS_GENOBJ-N-FIL_13
1002
{
1000
OWNER
1000
GEN
1002
}
1001
GENIUS_GENODEF_13
1002
{
1000
HIER
1070
     0
1002
}
1002
{
1000
MANEDIT
1070
     0
1002
}
1002
{
1000
NOSEL
1070
     0
1002
}
1002
{
1000
BEHIND
1070
     0
1002
}
1002
{
1000
OTHER
1070
     0
1002
}
1002
{
1000
REACTOR
1002
}
  0
LINE
  5
2779
  8
SAPA_PROFIL
 62
     4
 10
-10.33255181692925
 20
146.50000000052771
 30
0.0
 11
-10.33255181692925
 21
146.30000000052789
 31
0.0
1001
GENIUS_GENOBJ-N-FIL_13
1002
{
1000
OWNER
1000
GEN
1002
}
1001
GENIUS_GENODEF_13
1002
{
1000
HIER
1070
     0
1002
}
1002
{
1000
MANEDIT
1070
     0
1002
}
1002
{
1000
NOSEL
1070
     0
1002
}
1002
{
1000
BEHIND
1070
     0
1002
}
1002
{
1000
OTHER
1070
     0
1002
}
1002
{
1000
REACTOR
1002
}
  0
ARC
  5
277A
  8
SAPA_PROFIL
 62
     4
 10
-10.63255181692943
 20
146.30000000052789
 30
0.0
 40
0.3000000000001819
 50
270.0
 51
0.0
1001
GENIUS_GENOBJ-N-FIL_13
1002
{
1000
OWNER
1000
GEN
1002
}
1001
GENIUS_GENODEF_13
1002
{
1000
HIER
1070
     0
1002
}
1002
{
1000
MANEDIT
1070
     0
1002
}
1002
{
1000
NOSEL
1070
     0
1002
}
1002
{
1000
BEHIND
1070
     0
1002
}
1002
{
1000
OTHER
1070
     0
1002
}
1002
{
1000
REACTOR
1002
}
  0
LINE
  5
277B
  8
SAPA_PROFIL
 62
     4
 10
-10.63255181692943
 20
146.00000000052771
 30
0.0
 11
-11.282551816929519
 21
146.00000000052771
 31
0.0
1001
GENIUS_GENOBJ-N-FIL_13
1002
{
1000
OWNER
1000
GEN
1002
}
1001
GENIUS_GENODEF_13
1002
{
1000
HIER
1070
     0
1002
}
1002
{
1000
MANEDIT
1070
     0
1002
}
1002
{
1000
NOSEL
1070
     0
1002
}
1002
{
1000
BEHIND
1070
     0
1002
}
1002
{
1000
OTHER
1070
     0
1002
}
1002
{
1000
REACTOR
1002
}
  0
ARC
  5
277C
  8
SAPA_PROFIL
 62
     4
 10
-11.28255181692975
 20
145.70000000052821
 30
0.0
 40
0.2999999999994998
 50
89.999999999956557
 51
179.99999999995649
1001
GENIUS_GENOBJ-N-FIL_13
1002
{
1000
OWNER
1000
GEN
1002
}
1001
GENIUS_GENODEF_13
1002
{
1000
HIER
1070
     0
1002
}
1002
{
1000
MANEDIT
1070
     0
1002
}
1002
{
1000
NOSEL
1070
     0
1002
}
1002
{
1000
BEHIND
1070
     0
1002
}
1002
{
1000
OTHER
1070
     0
1002
}
1002
{
1000
REACTOR
1002
}
  0
LINE
  5
277D
  8
SAPA_PROFIL
 62
     4
 10
-11.58255181692925
 20
145.70000000052841
 30
0.0
 11
-11.58255181692925
 21
144.80000000053059
 31
0.0
1001
GENIUS_GENOBJ-N-FIL_13
1002
{
1000
OWNER
1000
GEN
1002
}
1001
GENIUS_GENODEF_13
1002
{
1000
HIER
1070
     0
1002
}
1002
{
1000
MANEDIT
1070
     0
1002
}
1002
{
1000
NOSEL
1070
     0
1002
}
1002
{
1000
BEHIND
1070
     0
1002
}
1002
{
1000
OTHER
1070
     0
1002
}
1002
{
1000
REACTOR
1002
}
  0
ARC
  5
277E
  8
SAPA_PROFIL
 62
     4
 10
-11.08255181692925
 20
144.80000000053059
 30
0.0
 40
0.5
 50
180.0
 51
270.0
1001
GENIUS_GENOBJ-N-FIL_13
1002
{
1000
OWNER
1000
GEN
1002
}
1001
GENIUS_GENODEF_13
1002
{
1000
HIER
1070
     0
1002
}
1002
{
1000
MANEDIT
1070
     0
1002
}
1002
{
1000
NOSEL
1070
     0
1002
}
1002
{
1000
BEHIND
1070
     0
1002
}
1002
{
1000
OTHER
1070
     0
1002
}
1002
{
1000
REACTOR
1002
}
  0
LINE
  5
277F
  8
SAPA_PROFIL
 62
     4
 10
-11.08255181692925
 20
144.30000000053059
 30
0.0
 11
-5.0825518169292527
 21
144.30000000053059
 31
0.0
1001
GENIUS_GENOBJ-N-FIL_13
1002
{
1000
OWNER
1000
GEN
1002
}
1001
GENIUS_GENODEF_13
1002
{
1000
HIER
1070
     0
1002
}
1002
{
1000
MANEDIT
1070
     0
1002
}
1002
{
1000
NOSEL
1070
     0
1002
}
1002
{
1000
BEHIND
1070
     0
1002
}
1002
{
1000
OTHER
1070
     0
1002
}
1002
{
1000
REACTOR
1002
}
  0
ARC
  5
2780
  8
SAPA_PROFIL
 62
     4
 10
-5.0825518169292527
 20
144.80000000053059
 30
0.0
 40
0.5
 50
270.0
 51
0.0
1001
GENIUS_GENOBJ-N-FIL_13
1002
{
1000
OWNER
1000
GEN
1002
}
1001
GENIUS_GENODEF_13
1002
{
1000
HIER
1070
     0
1002
}
1002
{
1000
MANEDIT
1070
     0
1002
}
1002
{
1000
NOSEL
1070
     0
1002
}
1002
{
1000
BEHIND
1070
     0
1002
}
1002
{
1000
OTHER
1070
     0
1002
}
1002
{
1000
REACTOR
1002
}
  0
LINE
  5
2781
  8
SAPA_PROFIL
 62
     4
 10
-4.5825518169292527
 20
144.80000000053059
 30
0.0
 11
-4.5825518169292527
 21
145.70000000052841
 31
0.0
1001
GENIUS_GENOBJ-N-FIL_13
1002
{
1000
OWNER
1000
GEN
1002
}
1001
GENIUS_GENODEF_13
1002
{
1000
HIER
1070
     0
1002
}
1002
{
1000
MANEDIT
1070
     0
1002
}
1002
{
1000
NOSEL
1070
     0
1002
}
1002
{
1000
BEHIND
1070
     0
1002
}
1002
{
1000
OTHER
1070
     0
1002
}
1002
{
1000
REACTOR
1002
}
  0
ARC
  5
2782
  8
SAPA_PROFIL
 62
     4
 10
-4.8825518169289799
 20
145.70000000052801
 30
0.0
 40
0.2999999999997271
 50
0.0000000000868503
 51
90.000000000086857
1001
GENIUS_GENOBJ-N-FIL_13
1002
{
1000
OWNER
1000
GEN
1002
}
1001
GENIUS_GENODEF_13
1002
{
1000
HIER
1070
     0
1002
}
1002
{
1000
MANEDIT
1070
     0
1002
}
1002
{
1000
NOSEL
1070
     0
1002
}
1002
{
1000
BEHIND
1070
     0
1002
}
1002
{
1000
OTHER
1070
     0
1002
}
1002
{
1000
REACTOR
1002
}
  0
LINE
  5
2783
  8
SAPA_PROFIL
 62
     4
 10
-4.8825518169294346
 20
146.00000000052771
 30
0.0
 11
-5.5325518169295256
 21
146.00000000052771
 31
0.0
1001
GENIUS_GENOBJ-N-FIL_13
1002
{
1000
OWNER
1000
GEN
1002
}
1001
GENIUS_GENODEF_13
1002
{
1000
HIER
1070
     0
1002
}
1002
{
1000
MANEDIT
1070
     0
1002
}
1002
{
1000
NOSEL
1070
     0
1002
}
1002
{
1000
BEHIND
1070
     0
1002
}
1002
{
1000
OTHER
1070
     0
1002
}
1002
{
1000
REACTOR
1002
}
  0
ARC
  5
2784
  8
SAPA_PROFIL
 62
     4
 10
-5.5325518169292991
 20
146.30000000052769
 30
0.0
 40
0.2999999999999545
 50
179.99999999995649
 51
269.99999999995657
1001
GENIUS_GENOBJ-N-FIL_13
1002
{
1000
OWNER
1000
GEN
1002
}
1001
GENIUS_GENODEF_13
1002
{
1000
HIER
1070
     0
1002
}
1002
{
1000
MANEDIT
1070
     0
1002
}
1002
{
1000
NOSEL
1070
     0
1002
}
1002
{
1000
BEHIND
1070
     0
1002
}
1002
{
1000
OTHER
1070
     0
1002
}
1002
{
1000
REACTOR
1002
}
  0
LINE
  5
2785
  8
SAPA_PROFIL
 62
     4
 10
-5.8325518169292527
 20
146.30000000052789
 30
0.0
 11
-5.8325518169292527
 21
146.50000000052771
 31
0.0
1001
GENIUS_GENOBJ-N-FIL_13
1002
{
1000
OWNER
1000
GEN
1002
}
1001
GENIUS_GENODEF_13
1002
{
1000
HIER
1070
     0
1002
}
1002
{
1000
MANEDIT
1070
     0
1002
}
1002
{
1000
NOSEL
1070
     0
1002
}
1002
{
1000
BEHIND
1070
     0
1002
}
1002
{
1000
OTHER
1070
     0
1002
}
1002
{
1000
REACTOR
1002
}
  0
ARC
  5
2786
  8
SAPA_PROFIL
 62
     4
 10
-5.3325518169292527
 20
146.50000000052771
 30
0.0
 40
0.5
 50
90.0
 51
180.0
1001
GENIUS_GENOBJ-N-FIL_13
1002
{
1000
OWNER
1000
GEN
1002
}
1001
GENIUS_GENODEF_13
1002
{
1000
HIER
1070
     0
1002
}
1002
{
1000
MANEDIT
1070
     0
1002
}
1002
{
1000
NOSEL
1070
     0
1002
}
1002
{
1000
BEHIND
1070
     0
1002
}
1002
{
1000
OTHER
1070
     0
1002
}
1002
{
1000
REACTOR
1002
}
  0
LINE
  5
2787
  8
SAPA_PROFIL
 62
     4
 10
-5.3325518169292527
 20
147.00000000052771
 30
0.0
 11
-2.3325518169292532
 21
147.00000000052771
 31
0.0
1001
GENIUS_GENOBJ-N-FIL_13
1002
{
1000
OWNER
1000
GEN
1002
}
1001
GENIUS_GENODEF_13
1002
{
1000
HIER
1070
     0
1002
}
1002
{
1000
MANEDIT
1070
     0
1002
}
1002
{
1000
NOSEL
1070
     0
1002
}
1002
{
1000
BEHIND
1070
     0
1002
}
1002
{
1000
OTHER
1070
     0
1002
}
1002
{
1000
REACTOR
1002
}
  0
ARC
  5
2788
  8
SAPA_PROFIL
 62
     4
 10
-2.3325518169292532
 20
146.50000000052771
 30
0.0
 40
0.5
 50
0.0
 51
90.0
1001
GENIUS_GENOBJ-N-FIL_13
1002
{
1000
OWNER
1000
GEN
1002
}
1001
GENIUS_GENODEF_13
1002
{
1000
HIER
1070
     0
1002
}
1002
{
1000
MANEDIT
1070
     0
1002
}
1002
{
1000
NOSEL
1070
     0
1002
}
1002
{
1000
BEHIND
1070
     0
1002
}
1002
{
1000
OTHER
1070
     0
1002
}
1002
{
1000
REACTOR
1002
}
  0
LINE
  5
2789
  8
SAPA_PROFIL
 62
     4
 10
-1.832551816929253
 20
146.50000000052771
 30
0.0
 11
-1.8325518169283439
 21
146.30000000053519
 31
0.0
1001
GENIUS_GENOBJ-N-FIL_13
1002
{
1000
OWNER
1000
GEN
1002
}
1001
GENIUS_GENODEF_13
1002
{
1000
HIER
1070
     0
1002
}
1002
{
1000
MANEDIT
1070
     0
1002
}
1002
{
1000
NOSEL
1070
     0
1002
}
1002
{
1000
BEHIND
1070
     0
1002
}
1002
{
1000
OTHER
1070
     0
1002
}
1002
{
1000
REACTOR
1002
}
  0
ARC
  5
278A
  8
SAPA_PROFIL
 62
     4
 10
-2.1325518169284119
 20
146.3000000005332
 30
0.0
 40
0.3000000000000682
 50
270.00000000041251
 51
0.000000000369114
1001
GENIUS_GENOBJ-N-FIL_13
1002
{
1000
OWNER
1000
GEN
1002
}
1001
GENIUS_GENODEF_13
1002
{
1000
HIER
1070
     0
1002
}
1002
{
1000
MANEDIT
1070
     0
1002
}
1002
{
1000
NOSEL
1070
     0
1002
}
1002
{
1000
BEHIND
1070
     0
1002
}
1002
{
1000
OTHER
1070
     0
1002
}
1002
{
1000
REACTOR
1002
}
  0
LINE
  5
278B
  8
SAPA_PROFIL
 62
     4
 10
-2.1325518169262518
 20
146.00000000053319
 30
0.0
 11
-2.7825518169272518
 21
146.00000000053041
 31
0.0
1001
GENIUS_GENOBJ-N-FIL_13
1002
{
1000
OWNER
1000
GEN
1002
}
1001
GENIUS_GENODEF_13
1002
{
1000
HIER
1070
     0
1002
}
1002
{
1000
MANEDIT
1070
     0
1002
}
1002
{
1000
NOSEL
1070
     0
1002
}
1002
{
1000
BEHIND
1070
     0
1002
}
1002
{
1000
OTHER
1070
     0
1002
}
1002
{
1000
REACTOR
1002
}
  0
ARC
  5
278C
  8
SAPA_PROFIL
 62
     4
 10
-2.782551816925888
 20
145.7000000005298
 30
0.0
 40
0.3000000000006366
 50
90.000000000260556
 51
180.0000000000868
1001
GENIUS_GENOBJ-N-FIL_13
1002
{
1000
OWNER
1000
GEN
1002
}
1001
GENIUS_GENODEF_13
1002
{
1000
HIER
1070
     0
1002
}
1002
{
1000
MANEDIT
1070
     0
1002
}
1002
{
1000
NOSEL
1070
     0
1002
}
1002
{
1000
BEHIND
1070
     0
1002
}
1002
{
1000
OTHER
1070
     0
1002
}
1002
{
1000
REACTOR
1002
}
  0
LINE
  5
278D
  8
SAPA_PROFIL
 62
     4
 10
-3.0825518169265251
 20
145.7000000005294
 30
0.0
 11
-3.0825518169265251
 21
144.80000000053059
 31
0.0
1001
GENIUS_GENOBJ-N-FIL_13
1002
{
1000
OWNER
1000
GEN
1002
}
1001
GENIUS_GENODEF_13
1002
{
1000
HIER
1070
     0
1002
}
1002
{
1000
MANEDIT
1070
     0
1002
}
1002
{
1000
NOSEL
1070
     0
1002
}
1002
{
1000
BEHIND
1070
     0
1002
}
1002
{
1000
OTHER
1070
     0
1002
}
1002
{
1000
REACTOR
1002
}
  0
ARC
  5
278E
  8
SAPA_PROFIL
 62
     4
 10
-2.5825518169265251
 20
144.80000000053059
 30
0.0
 40
0.5
 50
180.0
 51
270.0
1001
GENIUS_GENOBJ-N-FIL_13
1002
{
1000
OWNER
1000
GEN
1002
}
1001
GENIUS_GENODEF_13
1002
{
1000
HIER
1070
     0
1002
}
1002
{
1000
MANEDIT
1070
     0
1002
}
1002
{
1000
NOSEL
1070
     0
1002
}
1002
{
1000
BEHIND
1070
     0
1002
}
1002
{
1000
OTHER
1070
     0
1002
}
1002
{
1000
REACTOR
1002
}
  0
LINE
  5
278F
  8
SAPA_PROFIL
 62
     4
 10
-2.5825518169265251
 20
144.30000000053059
 30
0.0
 11
3.4174481830757482
 21
144.30000000053789
 31
0.0
1001
GENIUS_GENOBJ-N-FIL_13
1002
{
1000
OWNER
1000
GEN
1002
}
1001
GENIUS_GENODEF_13
1002
{
1000
HIER
1070
     0
1002
}
1002
{
1000
MANEDIT
1070
     0
1002
}
1002
{
1000
NOSEL
1070
     0
1002
}
1002
{
1000
BEHIND
1070
     0
1002
}
1002
{
1000
OTHER
1070
     0
1002
}
1002
{
1000
REACTOR
1002
}
  0
ARC
  5
2790
  8
SAPA_PROFIL
 62
     4
 10
3.4174481830757482
 20
144.80000000053789
 30
0.0
 40
0.5
 50
270.0
 51
0.0
1001
GENIUS_GENOBJ-N-FIL_13
1002
{
1000
OWNER
1000
GEN
1002
}
1001
GENIUS_GENODEF_13
1002
{
1000
HIER
1070
     0
1002
}
1002
{
1000
MANEDIT
1070
     0
1002
}
1002
{
1000
NOSEL
1070
     0
1002
}
1002
{
1000
BEHIND
1070
     0
1002
}
1002
{
1000
OTHER
1070
     0
1002
}
1002
{
1000
REACTOR
1002
}
  0
LINE
  5
2791
  8
SAPA_PROFIL
 62
     4
 10
3.9174481830757482
 20
144.80000000053789
 30
0.0
 11
3.9174481830757482
 21
145.7000000005348
 31
0.0
1001
GENIUS_GENOBJ-N-FIL_13
1002
{
1000
OWNER
1000
GEN
1002
}
1001
GENIUS_GENODEF_13
1002
{
1000
HIER
1070
     0
1002
}
1002
{
1000
MANEDIT
1070
     0
1002
}
1002
{
1000
NOSEL
1070
     0
1002
}
1002
{
1000
BEHIND
1070
     0
1002
}
1002
{
1000
OTHER
1070
     0
1002
}
1002
{
1000
REACTOR
1002
}
  0
ARC
  5
2792
  8
SAPA_PROFIL
 62
     4
 10
3.6174481830755658
 20
145.7000000005348
 30
0.0
 40
0.3000000000001819
 50
0.0
 51
90.0
1001
GENIUS_GENOBJ-N-FIL_13
1002
{
1000
OWNER
1000
GEN
1002
}
1001
GENIUS_GENODEF_13
1002
{
1000
HIER
1070
     0
1002
}
1002
{
1000
MANEDIT
1070
     0
1002
}
1002
{
1000
NOSEL
1070
     0
1002
}
1002
{
1000
BEHIND
1070
     0
1002
}
1002
{
1000
OTHER
1070
     0
1002
}
1002
{
1000
REACTOR
1002
}
  0
LINE
  5
2793
  8
SAPA_PROFIL
 62
     4
 10
3.6174481830755658
 20
146.00000000053501
 30
0.0
 11
2.9674481830736559
 21
146.00000000053501
 31
0.0
1001
GENIUS_GENOBJ-N-FIL_13
1002
{
1000
OWNER
1000
GEN
1002
}
1001
GENIUS_GENODEF_13
1002
{
1000
HIER
1070
     0
1002
}
1002
{
1000
MANEDIT
1070
     0
1002
}
1002
{
1000
NOSEL
1070
     0
1002
}
1002
{
1000
BEHIND
1070
     0
1002
}
1002
{
1000
OTHER
1070
     0
1002
}
1002
{
1000
REACTOR
1002
}
  0
ARC
  5
2794
  8
SAPA_PROFIL
 62
     4
 10
2.9674481830736559
 20
146.30000000053519
 30
0.0
 40
0.3000000000001819
 50
180.0
 51
270.0
1001
GENIUS_GENOBJ-N-FIL_13
1002
{
1000
OWNER
1000
GEN
1002
}
1001
GENIUS_GENODEF_13
1002
{
1000
HIER
1070
     0
1002
}
1002
{
1000
MANEDIT
1070
     0
1002
}
1002
{
1000
NOSEL
1070
     0
1002
}
1002
{
1000
BEHIND
1070
     0
1002
}
1002
{
1000
OTHER
1070
     0
1002
}
1002
{
1000
REACTOR
1002
}
  0
LINE
  5
2795
  8
SAPA_PROFIL
 62
     4
 10
2.667448183073474
 20
146.30000000053519
 30
0.0
 11
2.667448183073474
 21
146.50000000053501
 31
0.0
1001
GENIUS_GENOBJ-N-FIL_13
1002
{
1000
OWNER
1000
GEN
1002
}
1001
GENIUS_GENODEF_13
1002
{
1000
HIER
1070
     0
1002
}
1002
{
1000
MANEDIT
1070
     0
1002
}
1002
{
1000
NOSEL
1070
     0
1002
}
1002
{
1000
BEHIND
1070
     0
1002
}
1002
{
1000
OTHER
1070
     0
1002
}
1002
{
1000
REACTOR
1002
}
  0
ARC
  5
2796
  8
SAPA_PROFIL
 62
     4
 10
3.167448183073474
 20
146.50000000053501
 30
0.0
 40
0.5
 50
90.0
 51
180.0
1001
GENIUS_GENOBJ-N-FIL_13
1002
{
1000
OWNER
1000
GEN
1002
}
1001
GENIUS_GENODEF_13
1002
{
1000
HIER
1070
     0
1002
}
1002
{
1000
MANEDIT
1070
     0
1002
}
1002
{
1000
NOSEL
1070
     0
1002
}
1002
{
1000
BEHIND
1070
     0
1002
}
1002
{
1000
OTHER
1070
     0
1002
}
1002
{
1000
REACTOR
1002
}
  0
LINE
  5
2797
  8
SAPA_PROFIL
 62
     4
 10
3.167448183073474
 20
147.00000000053501
 30
0.0
 11
28.965183209997349
 21
147.0000000004531
 31
0.0
1001
GENIUS_GENOBJ-N-FIL_13
1002
{
1000
OWNER
1000
GEN
1002
}
1001
GENIUS_GENODEF_13
1002
{
1000
HIER
1070
     0
1002
}
1002
{
1000
MANEDIT
1070
     0
1002
}
1002
{
1000
NOSEL
1070
     0
1002
}
1002
{
1000
BEHIND
1070
     0
1002
}
1002
{
1000
OTHER
1070
     0
1002
}
1002
{
1000
REACTOR
1002
}
  0
ARC
  5
2798
  8
SAPA_PROFIL
 62
     4
 10
28.965183210001442
 20
148.20000000045289
 30
0.0
 40
1.1999999999998181
 50
269.99999999980457
 51
0.0
1001
GENIUS_GENOBJ-N-FIL_13
1002
{
1000
OWNER
1000
GEN
1002
}
1001
GENIUS_GENODEF_13
1002
{
1000
HIER
1070
     0
1002
}
1002
{
1000
MANEDIT
1070
     0
1002
}
1002
{
1000
NOSEL
1070
     0
1002
}
1002
{
1000
BEHIND
1070
     0
1002
}
1002
{
1000
OTHER
1070
     0
1002
}
1002
{
1000
REACTOR
1002
}
  0
LINE
  5
2799
  8
SAPA_PROFIL
 62
     4
 10
30.16518321000126
 20
148.20000000045289
 30
0.0
 11
30.165183210001722
 21
150.92848135053299
 31
0.0
1001
GENIUS_GENOBJ-N-FIL_13
1002
{
1000
OWNER
1000
GEN
1002
}
1001
GENIUS_GENODEF_13
1002
{
1000
HIER
1070
     0
1002
}
1002
{
1000
MANEDIT
1070
     0
1002
}
1002
{
1000
NOSEL
1070
     0
1002
}
1002
{
1000
BEHIND
1070
     0
1002
}
1002
{
1000
OTHER
1070
     0
1002
}
1002
{
1000
REACTOR
1002
}
  0
LINE
  5
279A
  8
SAPA_PROFIL
 62
     4
 10
5.2017096535912506
 20
143.29999993248771
 30
0.0
 11
5.2017096535953442
 21
135.79999993192931
 31
0.0
  0
ARC
  5
279B
  8
SAPA_PROFIL
 62
     4
 10
6.2017096535953442
 20
135.79999993192931
 30
0.0
 40
1.0
 50
180.0
 51
270.0
  0
LINE
  5
279C
  8
SAPA_PROFIL
 62
     4
 10
6.2017096535953442
 20
134.79999993192931
 30
0.0
 11
29.349444680519131
 21
134.79999993191379
 31
0.0
  0
ARC
  5
279D
  8
SAPA_PROFIL
 62
     4
 10
29.349444680519131
 20
135.599999931914
 30
0.0
 40
0.8000000000001818
 50
270.0
 51
0.0
  0
LINE
  5
279E
  8
SAPA_PROFIL
 62
     4
 10
30.149444680519309
 20
135.599999931914
 30
0.0
 11
30.149444680519309
 21
144.39999993243259
 31
0.0
  0
ARC
  5
279F
  8
SAPA_PROFIL
 62
     4
 10
29.349444680519131
 20
144.39999993243259
 30
0.0
 40
0.8000000000001818
 50
0.0
 51
90.000000000065128
  0
LINE
  5
27A0
  8
SAPA_PROFIL
 62
     4
 10
29.349444680518221
 20
145.19999993243269
 30
0.0
 11
6.2017096535912506
 21
145.1999999324091
 31
0.0
  0
ARC
  5
27A1
  8
SAPA_PROFIL
 62
     4
 10
6.2017096535927294
 20
144.19999993240941
 30
0.0
 40
0.9999999999996589
 50
90.000000000084668
 51
179.9999999999674
  0
LINE
  5
27A2
  8
SAPA_PROFIL
 62
     4
 10
5.2017096535930696
 20
144.19999993241001
 30
0.0
 11
5.2017096535912506
 21
143.29999993248771
 31
0.0
  0
DIMENSION
  5
27BE
  8
SAPA_MATT
  2
*D14
 10
-44.75055527881409
 20
321.49999985721178
 30
0.0
 11
-29.00055527880204
 21
323.99999985721178
 31
0.0
 70
     0
 13
-13.250555278789991
 23
289.99999985719143
 33
0.0
 14
-44.75055527881409
 24
282.67605892459051
 34
0.0
 50
180.0
1001
ACAD
1000
DSTYLE
1002
{
1070
   287
1070
     4
1070
    40
1040
1.0
1070
   279
1070
     1
1002
}
  0
DIMENSION
  5
27BF
  8
SAPA_MATT
  2
*D13
 10
-13.250555278789991
 20
321.49999978546452
 30
0.0
 11
16.749444721209102
 21
323.99999978546452
 31
0.0
 70
     0
 13
46.749444721208192
 23
291.6999998571867
 33
0.0
 14
-13.250555278789991
 24
289.99999985719182
 34
0.0
 50
180.0
1001
ACAD
1000
DSTYLE
1002
{
1070
    40
1040
1.0
1002
}
  0
DIMENSION
  5
27C0
  8
SAPA_MATT
  2
*D12
 10
46.749444721208192
 20
333.49999978546452
 30
0.0
 11
0.9994447211970511
 21
335.99999978546452
 31
0.0
 70
     0
 13
-44.75055527881409
 23
282.67605892459051
 33
0.0
 14
46.749444721208192
 24
291.6999998571867
 34
0.0
 50
180.0
1001
ACAD
1000
DSTYLE
1002
{
1070
    40
1040
1.0
1002
}
  0
DIMENSION
  5
27C1
  8
SAPA_MATT
  2
*D11
 10
-70.172260976040619
 20
286.99999985717773
 30
0.0
 11
-70.172260976040661
 21
289.49999985718449
 31
0.0
 70
   128
 13
-11.25055527878953
 23
291.99999985719143
 33
0.0
 14
-12.750555278791349
 24
286.99999985717773
 34
0.0
 50
270.0
1001
ACAD
1000
DSTYLE
1002
{
1070
    40
1040
1.0
1002
}
  0
DIMENSION
  5
27C2
  8
SAPA_MATT
  2
*D10
 10
-70.172260976040661
 20
223.9999998574724
 30
0.0
 11
-72.67226097604069
 21
255.49999985733189
 31
0.0
 70
     0
 13
-12.750555278791349
 23
286.99999985719143
 33
0.0
 14
-12.58255181679055
 24
223.9999998574724
 34
0.0
 50
270.0
1001
ACAD
1000
DSTYLE
1002
{
1070
   287
1070
     4
1070
    40
1040
1.0
1070
   279
1070
     1
1002
}
  0
DIMENSION
  5
27C3
  8
SAPA_MATT
  2
*D9
 10
-70.172260976040661
 20
64.999999857461503
 30
0.0
 11
-70.172260976040661
 21
144.49999985749579
 31
0.0
 70
   128
 13
-12.582551816760089
 23
223.99999985753021
 33
0.0
 14
-11.25055527878953
 24
64.999999857461489
 34
0.0
 50
270.0
1001
ACAD
1000
DSTYLE
1002
{
1070
   287
1070
     4
1070
    40
1040
1.0
1070
   279
1070
     1
1002
}
  0
DIMENSION
  5
27C4
  8
SAPA_MATT
  2
*D8
 10
-82.047034266394519
 20
291.9999999999788
 30
0.0
 11
-82.047034266394576
 21
178.50000000011389
 31
0.0
 70
   128
 13
-11.25055527878953
 23
65.000000000248974
 33
0.0
 14
-11.25055527878953
 24
291.9999999999788
 34
0.0
 50
90.000000000000028
1001
ACAD
1000
DSTYLE
1002
{
1070
    40
1040
1.0
1002
}
  0
VIEWPORT
  5
C4
 67
     1
  8
0
 10
160.5543545598442
 20
116.00969601843509
 30
0.0
 40
404.96977709277462
 41
256.8421457311839
 68
     1
 69
     1
1001
ACAD
1000
MVIEW
1002
{
1070
    16
1010
0.0
1020
0.0
1030
0.0
1010
0.0
1020
0.0
1030
1.0
1040
0.0
1040
256.8421457311839
1040
160.5543545598442
1040
116.00969601843509
1040
50.0
1040
0.0
1040
0.0
1070
     0
1070
   100
1070
     1
1070
     1
1070
     0
1070
     0
1070
     0
1070
     0
1040
0.0
1040
0.0
1040
0.0
1040
10.0
1040
10.0
1040
10.0
1040
10.0
1070
     0
1002
{
1002
}
1002
}
  0
ENDSEC
  0
EOF
