  0
SECTION
  2
HEADER
  9
$ACADVER
  1
AC1021
  9
$ACADMAINTVER
 70
    50
  9
$DWGCODEPAGE
  3
ANSI_1252
  9
$INSBASE
 10
0.0
 20
0.0
 30
0.0
  9
$EXTMIN
 10
-7558.904657558265
 20
-5389.80097127525
 30
0.0
  9
$EXTMAX
 10
452.5578848270056
 20
5065.106328510816
 30
0.0
  9
$LIMMIN
 10
0.0
 20
0.0
  9
$LIMMAX
 10
790.0
 20
790.0
  9
$ORTHOMODE
 70
     0
  9
$REGENMODE
 70
     1
  9
$FILLMODE
 70
     1
  9
$QTEXTMODE
 70
     0
  9
$MIRRTEXT
 70
     1
  9
$LTSCALE
 40
4.0
  9
$ATTMODE
 70
     1
  9
$TEXTSIZE
 40
3.5
  9
$TRACEWID
 40
0.05
  9
$TEXTSTYLE
  7
ISO
  9
$CLAYER
  8
sapa_elevation
  9
$CELTYPE
  6
BYLAYER
  9
$CECOLOR
 62
   256
  9
$CELTSCALE
 40
1.0
  9
$DISPSILH
 70
     1
  9
$DIMSCALE
 40
0.0
  9
$DIMASZ
 40
3.0
  9
$DIMEXO
 40
1.5
  9
$DIMDLI
 40
10.0
  9
$DIMRND
 40
0.0
  9
$DIMDLE
 40
0.0
  9
$DIMEXE
 40
1.5
  9
$DIMTP
 40
0.0
  9
$DIMTM
 40
0.0
  9
$DIMTXT
 40
3.0
  9
$DIMCEN
 40
-5.0
  9
$DIMTSZ
 40
0.0
  9
$DIMTOL
 70
     0
  9
$DIMLIM
 70
     0
  9
$DIMTIH
 70
     0
  9
$DIMTOH
 70
     0
  9
$DIMSE1
 70
     0
  9
$DIMSE2
 70
     0
  9
$DIMTAD
 70
     1
  9
$DIMZIN
 70
     8
  9
$DIMBLK
  1

  9
$DIMASO
 70
     1
  9
$DIMSHO
 70
     1
  9
$DIMPOST
  1

  9
$DIMAPOST
  1

  9
$DIMALT
 70
     0
  9
$DIMALTD
 70
     0
  9
$DIMALTF
 40
25.4
  9
$DIMLFAC
 40
-1.0
  9
$DIMTOFL
 70
     1
  9
$DIMTVP
 40
0.0
  9
$DIMTIX
 70
     0
  9
$DIMSOXD
 70
     0
  9
$DIMSAH
 70
     0
  9
$DIMBLK1
  1

  9
$DIMBLK2
  1

  9
$DIMSTYLE
  2
MASKIN
  9
$DIMCLRD
 70
   256
  9
$DIMCLRE
 70
   256
  9
$DIMCLRT
 70
   256
  9
$DIMTFAC
 40
1.0
  9
$DIMGAP
 40
1.0
  9
$DIMJUST
 70
     0
  9
$DIMSD1
 70
     0
  9
$DIMSD2
 70
     0
  9
$DIMTOLJ
 70
     1
  9
$DIMTZIN
 70
     8
  9
$DIMALTZ
 70
     8
  9
$DIMALTTZ
 70
     8
  9
$DIMUPT
 70
     0
  9
$DIMDEC
 70
     8
  9
$DIMTDEC
 70
     8
  9
$DIMALTU
 70
     2
  9
$DIMALTTD
 70
     0
  9
$DIMTXSTY
  7
ISO
  9
$DIMAUNIT
 70
     0
  9
$DIMADEC
 70
     0
  9
$DIMALTRND
 40
0.0
  9
$DIMAZIN
 70
     0
  9
$DIMDSEP
 70
    46
  9
$DIMATFIT
 70
     3
  9
$DIMFRAC
 70
     0
  9
$DIMLDRBLK
  1

  9
$DIMLUNIT
 70
     2
  9
$DIMLWD
 70
    -2
  9
$DIMLWE
 70
    -2
  9
$DIMTMOVE
 70
     2
  9
$DIMFXL
 40
1.0
  9
$DIMFXLON
 70
     0
  9
$DIMJOGANG
 40
0.7853981633974483
  9
$DIMTFILL
 70
     0
  9
$DIMTFILLCLR
 70
     0
  9
$DIMARCSYM
 70
     0
  9
$DIMLTYPE
  6

  9
$DIMLTEX1
  6

  9
$DIMLTEX2
  6

  9
$LUNITS
 70
     2
  9
$LUPREC
 70
     8
  9
$SKETCHINC
 40
0.1
  9
$FILLETRAD
 40
0.0
  9
$AUNITS
 70
     0
  9
$AUPREC
 70
     8
  9
$MENU
  1
ACAD
  9
$ELEVATION
 40
0.0
  9
$PELEVATION
 40
0.0
  9
$THICKNESS
 40
0.0
  9
$LIMCHECK
 70
     0
  9
$CHAMFERA
 40
0.0
  9
$CHAMFERB
 40
0.0
  9
$CHAMFERC
 40
0.0
  9
$CHAMFERD
 40
0.0
  9
$SKPOLY
 70
     0
  9
$TDCREATE
 40
2451935.427219387
  9
$TDUCREATE
 40
2451935.343886054
  9
$TDUPDATE
 40
2457606.400709178
  9
$TDUUPDATE
 40
2457606.317375845
  9
$TDINDWG
 40
0.2025446065
  9
$TDUSRTIMER
 40
0.2025446065
  9
$USRTIMER
 70
     1
  9
$ANGBASE
 50
0.0
  9
$ANGDIR
 70
     0
  9
$PDMODE
 70
     0
  9
$PDSIZE
 40
0.0
  9
$PLINEWID
 40
0.0
  9
$SPLFRAME
 70
     0
  9
$SPLINETYPE
 70
     6
  9
$SPLINESEGS
 70
     8
  9
$HANDSEED
  5
194
  9
$SURFTAB1
 70
     6
  9
$SURFTAB2
 70
     6
  9
$SURFTYPE
 70
     6
  9
$SURFU
 70
     6
  9
$SURFV
 70
     6
  9
$UCSBASE
  2

  9
$UCSNAME
  2

  9
$UCSORG
 10
0.0
 20
0.0
 30
0.0
  9
$UCSXDIR
 10
1.0
 20
0.0
 30
0.0
  9
$UCSYDIR
 10
0.0
 20
1.0
 30
0.0
  9
$UCSORTHOREF
  2

  9
$UCSORTHOVIEW
 70
     0
  9
$UCSORGTOP
 10
0.0
 20
0.0
 30
0.0
  9
$UCSORGBOTTOM
 10
0.0
 20
0.0
 30
0.0
  9
$UCSORGLEFT
 10
0.0
 20
0.0
 30
0.0
  9
$UCSORGRIGHT
 10
0.0
 20
0.0
 30
0.0
  9
$UCSORGFRONT
 10
0.0
 20
0.0
 30
0.0
  9
$UCSORGBACK
 10
0.0
 20
0.0
 30
0.0
  9
$PUCSBASE
  2

  9
$PUCSNAME
  2

  9
$PUCSORG
 10
0.0
 20
0.0
 30
0.0
  9
$PUCSXDIR
 10
1.0
 20
0.0
 30
0.0
  9
$PUCSYDIR
 10
0.0
 20
1.0
 30
0.0
  9
$PUCSORTHOREF
  2

  9
$PUCSORTHOVIEW
 70
     0
  9
$PUCSORGTOP
 10
0.0
 20
0.0
 30
0.0
  9
$PUCSORGBOTTOM
 10
0.0
 20
0.0
 30
0.0
  9
$PUCSORGLEFT
 10
0.0
 20
0.0
 30
0.0
  9
$PUCSORGRIGHT
 10
0.0
 20
0.0
 30
0.0
  9
$PUCSORGFRONT
 10
0.0
 20
0.0
 30
0.0
  9
$PUCSORGBACK
 10
0.0
 20
0.0
 30
0.0
  9
$USERI1
 70
     0
  9
$USERI2
 70
     0
  9
$USERI3
 70
     0
  9
$USERI4
 70
     0
  9
$USERI5
 70
     0
  9
$USERR1
 40
0.0
  9
$USERR2
 40
0.0
  9
$USERR3
 40
0.0
  9
$USERR4
 40
0.0
  9
$USERR5
 40
0.0
  9
$WORLDVIEW
 70
     1
  9
$SHADEDGE
 70
     3
  9
$SHADEDIF
 70
    70
  9
$TILEMODE
 70
     1
  9
$MAXACTVP
 70
    16
  9
$PINSBASE
 10
0.0
 20
0.0
 30
0.0
  9
$PLIMCHECK
 70
     0
  9
$PEXTMIN
 10
5.869999703752308
 20
-0.0000001723469722
 30
0.0
  9
$PEXTMAX
 10
185.8683605469043
 20
282.999999827653
 30
0.0
  9
$PLIMMIN
 10
-14.40651499994891
 20
-4.253669647431024
  9
$PLIMMAX
 10
195.5668126367698
 20
292.6723252256159
  9
$UNITMODE
 70
     0
  9
$VISRETAIN
 70
     1
  9
$PLINEGEN
 70
     0
  9
$PSLTSCALE
 70
     1
  9
$TREEDEPTH
 70
  3020
  9
$CMLSTYLE
  2
STANDARD
  9
$CMLJUST
 70
     0
  9
$CMLSCALE
 40
1.0
  9
$PROXYGRAPHICS
 70
     1
  9
$MEASUREMENT
 70
     1
  9
$CELWEIGHT
370
    -1
  9
$ENDCAPS
280
     0
  9
$JOINSTYLE
280
     0
  9
$LWDISPLAY
290
     0
  9
$INSUNITS
 70
     0
  9
$HYPERLINKBASE
  1

  9
$STYLESHEET
  1

  9
$XEDIT
290
     1
  9
$CEPSNTYPE
380
     0
  9
$PSTYLEMODE
290
     1
  9
$FINGERPRINTGUID
  2
{FAA9575C-F260-4CC4-A4CC-58E84F347433}
  9
$VERSIONGUID
  2
{95313A93-21BA-4B3E-921A-19A29F6F8898}
  9
$EXTNAMES
290
     1
  9
$PSVPSCALE
 40
0.0
  9
$OLESTARTUP
290
     0
  9
$SORTENTS
280
   127
  9
$INDEXCTL
280
     0
  9
$HIDETEXT
280
     1
  9
$XCLIPFRAME
290
     0
  9
$HALOGAP
280
     0
  9
$OBSCOLOR
 70
   257
  9
$OBSLTYPE
280
     0
  9
$INTERSECTIONDISPLAY
280
     0
  9
$INTERSECTIONCOLOR
 70
   257
  9
$DIMASSOC
280
     1
  9
$PROJECTNAME
  1

  9
$CAMERADISPLAY
290
     0
  9
$LENSLENGTH
 40
50.0
  9
$CAMERAHEIGHT
 40
0.0
  9
$STEPSPERSEC
 40
2.0
  9
$STEPSIZE
 40
6.0
  9
$3DDWFPREC
 40
2.0
  9
$PSOLWIDTH
 40
0.25
  9
$PSOLHEIGHT
 40
4.0
  9
$LOFTANG1
 40
1.570796326794896
  9
$LOFTANG2
 40
1.570796326794896
  9
$LOFTMAG1
 40
0.0
  9
$LOFTMAG2
 40
0.0
  9
$LOFTPARAM
 70
     7
  9
$LOFTNORMALS
280
     1
  9
$LATITUDE
 40
37.795
  9
$LONGITUDE
 40
-122.394
  9
$NORTHDIRECTION
 40
0.0
  9
$TIMEZONE
 70
 -8000
  9
$LIGHTGLYPHDISPLAY
280
     1
  9
$TILEMODELIGHTSYNCH
280
     1
  9
$CMATERIAL
347
32
  9
$SOLIDHIST
280
     1
  9
$SHOWHIST
280
     1
  9
$DWFFRAME
280
     2
  9
$DGNFRAME
280
     0
  9
$REALWORLDSCALE
290
     1
  9
$INTERFERECOLOR
 62
     1
  9
$INTERFEREOBJVS
345
3F
  9
$INTERFEREVPVS
346
40
  9
$CSHADOW
280
     0
  9
$SHADOWPLANELOCATION
 40
0.0
  0
ENDSEC
  0
SECTION
  2
CLASSES
  0
CLASS
  1
DICTIONARYVAR
  2
AcDbDictionaryVar
  3
ObjectDBX Classes
 90
        0
 91
        9
280
     0
281
     0
  0
CLASS
  1
ACDBDICTIONARYWDFLT
  2
AcDbDictionaryWithDefault
  3
ObjectDBX Classes
 90
        0
 91
        1
280
     0
281
     0
  0
CLASS
  1
PLOTSETTINGS
  2
AcDbPlotSettings
  3
ObjectDBX Classes
 90
        0
 91
        0
280
     0
281
     0
  0
CLASS
  1
IMAGEDEF
  2
AcDbRasterImageDef
  3
ISM
 90
        0
 91
        0
280
     0
281
     0
  0
CLASS
  1
IMAGE
  2
AcDbRasterImage
  3
ISM
 90
     2175
 91
        0
280
     0
281
     1
  0
CLASS
  1
IMAGEDEF_REACTOR
  2
AcDbRasterImageDefReactor
  3
ISM
 90
        1
 91
        0
280
     0
281
     0
  0
CLASS
  1
RASTERVARIABLES
  2
AcDbRasterVariables
  3
ISM
 90
        0
 91
        0
280
     0
281
     0
  0
CLASS
  1
TABLESTYLE
  2
AcDbTableStyle
  3
ObjectDBX Classes
 90
     4095
 91
        1
280
     0
281
     0
  0
CLASS
  1
MATERIAL
  2
AcDbMaterial
  3
ObjectDBX Classes
 90
     1153
 91
        3
280
     0
281
     0
  0
CLASS
  1
VISUALSTYLE
  2
AcDbVisualStyle
  3
ObjectDBX Classes
 90
     4095
 91
        3
280
     0
281
     0
  0
CLASS
  1
SCALE
  2
AcDbScale
  3
ObjectDBX Classes
 90
     1153
 91
       33
280
     0
281
     0
  0
CLASS
  1
MLEADERSTYLE
  2
AcDbMLeaderStyle
  3
ACDB_MLEADERSTYLE_CLASS
 90
     4095
 91
        0
280
     0
281
     0
  0
CLASS
  1
EXACTERMXREFMAP
  2
ExAcTermXrefMap
  3
EXAC_SERVICE
 90
     1025
 91
        0
280
     0
281
     0
  0
CLASS
  1
NPOCOLLECTION
  2
AcDbImpNonPersistentObjectsCollection
  3
ObjectDBX Classes
 90
     1153
 91
        0
280
     0
281
     0
  0
CLASS
  1
EXACXREFPANELOBJECT
  2
ExAcXREFPanelObject
  3
EXAC_ESW
 90
     1025
 91
        0
280
     0
281
     0
  0
CLASS
  1
AEC_NOTIFICATION_TRACKER
  2
AecDbNotificationTracker
  3
AecBase70|Product Desc: Autodesk Architectural Desktop 2007 |Company: Autodesk,Inc. |WEB Address: www.autodesk.com
 90
      129
 91
        0
280
     1
281
     0
  0
CLASS
  1
AEC_REFEDIT_STATUS_TRACKER
  2
AecDbRefEditStatusTracker
  3
AecArchBase70|Product Desc: Autodesk Architectural Desktop 2007 |Company: Autodesk,Inc. |WEB Address: www.autodesk.com
 90
      129
 91
        0
280
     1
281
     0
  0
CLASS
  1
CELLSTYLEMAP
  2
AcDbCellStyleMap
  3
ObjectDBX Classes
 90
     1152
 91
        1
280
     0
281
     0
  0
CLASS
  1
SORTENTSTABLE
  2
AcDbSortentsTable
  3
ObjectDBX Classes
 90
        0
 91
        2
280
     0
281
     0
  0
CLASS
  1
ACDBSECTIONVIEWSTYLE
  2
AcDbSectionViewStyle
  3
ObjectDBX Classes
 90
     1025
 91
        0
280
     0
281
     0
  0
CLASS
  1
ACDBDETAILVIEWSTYLE
  2
AcDbDetailViewStyle
  3
ObjectDBX Classes
 90
     1025
 91
        0
280
     0
281
     0
  0
ENDSEC
  0
SECTION
  2
TABLES
  0
TABLE
  2
VPORT
  5
23
102
{ACAD_XDICTIONARY
360
28
102
}
330
0
100
AcDbSymbolTable
 70
     1
  0
VPORT
  5
24
330
23
100
AcDbSymbolTableRecord
100
AcDbViewportTableRecord
  2
*Active
 70
     0
 10
0.0
 20
0.0
 11
1.0
 21
1.0
 12
842.1598494443459
 22
5273.924323896
 13
0.0
 23
0.0
 14
1.0
 24
1.0
 15
0.0
 25
0.0
 16
0.0
 26
0.0
 36
1.0
 17
0.0
 27
0.0
 37
0.0
 40
14715.97600417733
 41
1.607076350093109
 42
50.0
 43
0.0
 44
0.0
 50
0.0
 51
0.0
 71
     0
 72
   100
 73
     1
 74
     1
 75
     0
 76
     0
 77
     0
 78
     0
281
     0
 65
     1
110
0.0
120
0.0
130
0.0
111
1.0
121
0.0
131
0.0
112
0.0
122
1.0
132
0.0
 79
     0
146
0.0
348
25
 60
     3
 61
     5
292
     1
282
     1
141
0.0
142
0.0
 63
   250
421
  3355443
1001
ACAD_NAV_VCDISPLAY
1070
     3
  0
ENDTAB
  0
TABLE
  2
LTYPE
  5
1E
330
0
100
AcDbSymbolTable
 70
     1
  0
LTYPE
  5
1F
330
1E
100
AcDbSymbolTableRecord
100
AcDbLinetypeTableRecord
  2
BYBLOCK
 70
     0
  3

 72
    65
 73
     0
 40
0.0
  0
LTYPE
  5
20
330
1E
100
AcDbSymbolTableRecord
100
AcDbLinetypeTableRecord
  2
BYLAYER
 70
     0
  3

 72
    65
 73
     0
 40
0.0
  0
LTYPE
  5
E
330
1E
100
AcDbSymbolTableRecord
100
AcDbLinetypeTableRecord
  2
CONTINUOUS
 70
     0
  3
Solid line
 72
    65
 73
     0
 40
0.0
  0
ENDTAB
  0
TABLE
  2
LAYER
  5
18
102
{ACAD_XDICTIONARY
360
19
102
}
330
0
100
AcDbSymbolTable
 70
     3
  0
LAYER
  5
6
102
{ACAD_XDICTIONARY
360
7
102
}
330
18
100
AcDbSymbolTableRecord
100
AcDbLayerTableRecord
  2
0
 70
     1
 62
    -7
  6
CONTINUOUS
370
    -3
390
9
347
C
  0
LAYER
  5
38
102
{ACAD_XDICTIONARY
360
39
102
}
330
18
100
AcDbSymbolTableRecord
100
AcDbLayerTableRecord
  2
sapa_elevation
 70
     0
 62
     7
  6
CONTINUOUS
370
    -3
390
9
347
C
1001
AcAecLayerStandard
1000

1000

  0
LAYER
  5
7C
330
18
100
AcDbSymbolTableRecord
100
AcDbLayerTableRecord
  2
Defpoints
 70
     1
 62
    -7
  6
CONTINUOUS
290
     0
370
    -3
390
9
347
C
  0
ENDTAB
  0
TABLE
  2
STYLE
  5
1B
330
0
100
AcDbSymbolTable
 70
     2
  0
STYLE
  5
1C
330
1B
100
AcDbSymbolTableRecord
100
AcDbTextStyleTableRecord
  2
STANDARD
 70
     0
 40
0.0
 41
1.0
 50
0.0
 71
     0
 42
0.2
  3
txt
  4

  0
STYLE
  5
2D
330
1B
100
AcDbSymbolTableRecord
100
AcDbTextStyleTableRecord
  2
ISO
 70
     0
 40
0.0
 41
1.0
 50
0.0
 71
     0
 42
3.5
  3
isocp3.shx
  4

  0
ENDTAB
  0
TABLE
  2
VIEW
  5
21
330
0
100
AcDbSymbolTable
 70
     0
  0
ENDTAB
  0
TABLE
  2
UCS
  5
22
330
0
100
AcDbSymbolTable
 70
     0
  0
ENDTAB
  0
TABLE
  2
APPID
  5
29
330
0
100
AcDbSymbolTable
 70
     4
  0
APPID
  5
2A
330
29
100
AcDbSymbolTableRecord
100
AcDbRegAppTableRecord
  2
ACAD
 70
     0
  0
APPID
  5
12
330
29
100
AcDbSymbolTableRecord
100
AcDbRegAppTableRecord
  2
ACAD_PSEXT
 70
     0
  0
APPID
  5
3B
330
29
100
AcDbSymbolTableRecord
100
AcDbRegAppTableRecord
  2
AcAecLayerStandard
 70
     0
  0
APPID
  5
27
330
29
100
AcDbSymbolTableRecord
100
AcDbRegAppTableRecord
  2
ACAD_NAV_VCDISPLAY
 70
     0
  0
ENDTAB
  0
TABLE
  2
DIMSTYLE
  5
2B
330
0
100
AcDbSymbolTable
 70
     1
100
AcDbDimStyleTable
 71
     1
340
2C
  0
DIMSTYLE
105
2C
102
{ACAD_REACTORS
330
72
102
}
330
2B
100
AcDbSymbolTableRecord
100
AcDbDimStyleTableRecord
  2
MASKIN
 70
     0
 40
0.0
 41
3.0
 42
1.5
 43
10.0
 44
1.5
 73
     0
 74
     0
 77
     1
 78
     8
140
3.0
141
-5.0
144
-1.0
147
1.0
171
     0
172
     1
176
   256
177
   256
178
   256
271
     8
272
     8
274
     0
279
     2
284
     8
285
     8
286
     8
340
2D
  0
ENDTAB
  0
TABLE
  2
BLOCK_RECORD
  5
1
330
0
100
AcDbSymbolTable
 70
     9
  0
BLOCK_RECORD
  5
2
102
{ACAD_XDICTIONARY
360
3
102
}
330
1
100
AcDbSymbolTableRecord
100
AcDbBlockTableRecord
  2
*MODEL_SPACE
340
10
 70
     0
280
     1
281
     0
  0
BLOCK_RECORD
  5
13
330
1
100
AcDbSymbolTableRecord
100
AcDbBlockTableRecord
  2
*Paper_Space
340
16
 70
     0
280
     1
281
     0
  0
BLOCK_RECORD
  5
CB
330
1
100
AcDbSymbolTableRecord
100
AcDbBlockTableRecord
  2
*X0
340
0
102
{BLKREFS
331
CA
102
}
 70
     0
280
     1
281
     0
  0
BLOCK_RECORD
  5
10A
330
1
100
AcDbSymbolTableRecord
100
AcDbBlockTableRecord
  2
*X1
340
0
102
{BLKREFS
331
109
102
}
 70
     0
280
     1
281
     0
  0
BLOCK_RECORD
  5
92
330
1
100
AcDbSymbolTableRecord
100
AcDbBlockTableRecord
  2
*X2
340
0
102
{BLKREFS
331
91
102
}
 70
     0
280
     1
281
     0
  0
BLOCK_RECORD
  5
DD
330
1
100
AcDbSymbolTableRecord
100
AcDbBlockTableRecord
  2
*X3
340
0
102
{BLKREFS
331
DC
102
}
 70
     0
280
     1
281
     0
  0
BLOCK_RECORD
  5
F0
330
1
100
AcDbSymbolTableRecord
100
AcDbBlockTableRecord
  2
*X4
340
0
102
{BLKREFS
331
EF
102
}
 70
     0
280
     1
281
     0
  0
BLOCK_RECORD
  5
73
330
1
100
AcDbSymbolTableRecord
100
AcDbBlockTableRecord
  2
*D5
340
0
 70
     0
280
     1
281
     0
  0
BLOCK_RECORD
  5
6B
330
1
100
AcDbSymbolTableRecord
100
AcDbBlockTableRecord
  2
BYGG-023997
340
0
102
{BLKREFS
331
6A
102
}
 70
     0
280
     1
281
     0
  0
BLOCK_RECORD
  5
67
330
1
100
AcDbSymbolTableRecord
100
AcDbBlockTableRecord
  2
BYGG-024000
340
0
102
{BLKREFS
331
66
102
}
 70
     0
280
     1
281
     0
  0
BLOCK_RECORD
  5
63
330
1
100
AcDbSymbolTableRecord
100
AcDbBlockTableRecord
  2
BYGG-024007
340
0
102
{BLKREFS
331
62
102
}
 70
     0
280
     1
281
     0
  0
ENDTAB
  0
ENDSEC
  0
SECTION
  2
BLOCKS
  0
BLOCK
  5
5
330
2
100
AcDbEntity
  8
0
100
AcDbBlockBegin
  2
*MODEL_SPACE
 70
     0
 10
0.0
 20
0.0
 30
0.0
  3
*MODEL_SPACE
  1

  0
ENDBLK
  5
F
330
2
100
AcDbEntity
  8
0
100
AcDbBlockEnd
  0
BLOCK
  5
14
330
13
100
AcDbEntity
 67
     1
  8
0
100
AcDbBlockBegin
  2
*Paper_Space
 70
     0
 10
0.0
 20
0.0
 30
0.0
  3
*Paper_Space
  1

  0
ENDBLK
  5
15
330
13
100
AcDbEntity
 67
     1
  8
0
100
AcDbBlockEnd
  0
BLOCK
  5
CC
330
CB
100
AcDbEntity
  8
0
100
AcDbBlockBegin
  2
*X0
 70
     1
 10
0.0
 20
0.0
 30
0.0
  3
*X0
  1

  0
LINE
  5
CD
330
CB
100
AcDbEntity
  8
0
 62
     0
100
AcDbLine
 10
167.4864067320394
 20
165.718639779073
 30
0.0
 11
174.1471237649603
 21
172.379356811994
 31
0.0
  0
LINE
  5
CE
330
CB
100
AcDbEntity
  8
0
 62
     0
100
AcDbLine
 10
165.7186397790731
 20
165.718639779073
 30
0.0
 11
172.379356811994
 21
172.379356811994
 31
0.0
  0
LINE
  5
CF
330
CB
100
AcDbEntity
  8
0
 62
     0
100
AcDbLine
 10
163.9508728261067
 20
165.718639779073
 30
0.0
 11
170.6115898590276
 21
172.379356811994
 31
0.0
  0
LINE
  5
D0
330
CB
100
AcDbEntity
  8
0
 62
     0
100
AcDbLine
 10
162.1831058731403
 20
165.718639779073
 30
0.0
 11
168.8438229060613
 21
172.379356811994
 31
0.0
  0
LINE
  5
D1
330
CB
100
AcDbEntity
  8
0
 62
     0
100
AcDbLine
 10
161.7814159329464
 20
167.0847167918455
 30
0.0
 11
167.0760559530949
 21
172.379356811994
 31
0.0
  0
LINE
  5
D2
330
CB
100
AcDbEntity
  8
0
 62
     0
100
AcDbLine
 10
161.7814159329464
 20
168.8524837448119
 30
0.0
 11
165.3082890001285
 21
172.379356811994
 31
0.0
  0
LINE
  5
D3
330
CB
100
AcDbEntity
  8
0
 62
     0
100
AcDbLine
 10
161.7814159329464
 20
170.6202506977782
 30
0.0
 11
163.5405220471622
 21
172.379356811994
 31
0.0
  0
LINE
  5
D4
330
CB
100
AcDbEntity
  8
0
 62
     0
100
AcDbLine
 10
169.2541736850058
 20
165.718639779073
 30
0.0
 11
175.9148907179267
 21
172.379356811994
 31
0.0
  0
LINE
  5
D5
330
CB
100
AcDbEntity
  8
0
 62
     0
100
AcDbLine
 10
171.0219406379722
 20
165.718639779073
 30
0.0
 11
177.6826576708931
 21
172.3793568119939
 31
0.0
  0
LINE
  5
D6
330
CB
100
AcDbEntity
  8
0
 62
     0
100
AcDbLine
 10
172.7897075909385
 20
165.718639779073
 30
0.0
 11
179.4504246238594
 21
172.3793568119939
 31
0.0
  0
LINE
  5
D7
330
CB
100
AcDbEntity
  8
0
 62
     0
100
AcDbLine
 10
174.5574745439049
 20
165.718639779073
 30
0.0
 11
180.7960429475318
 21
171.9572081827
 31
0.0
  0
LINE
  5
D8
330
CB
100
AcDbEntity
  8
0
 62
     0
100
AcDbLine
 10
176.3252414968713
 20
165.718639779073
 30
0.0
 11
180.8344726639007
 21
170.2278709461024
 31
0.0
  0
LINE
  5
D9
330
CB
100
AcDbEntity
  8
0
 62
     0
100
AcDbLine
 10
178.0930084498376
 20
165.718639779073
 30
0.0
 11
180.8729023802695
 21
168.4985337095049
 31
0.0
  0
LINE
  5
DA
330
CB
100
AcDbEntity
  8
0
 62
     0
100
AcDbLine
 10
179.860775402804
 20
165.718639779073
 30
0.0
 11
180.9113320966384
 21
166.7691964729074
 31
0.0
  0
ENDBLK
  5
DB
330
CB
100
AcDbEntity
  8
0
100
AcDbBlockEnd
  0
BLOCK
  5
10B
330
10A
100
AcDbEntity
  8
0
100
AcDbBlockBegin
  2
*X1
 70
     1
 10
0.0
 20
0.0
 30
0.0
  3
*X1
  1

  0
LINE
  5
10C
330
10A
100
AcDbEntity
  8
0
 62
     0
100
AcDbLine
 10
169.130230247127
 20
101.9550860344049
 30
0.0
 11
172.5920924537508
 21
105.4169482410288
 31
0.0
  0
LINE
  5
10D
330
10A
100
AcDbEntity
  8
0
 62
     0
100
AcDbLine
 10
166.391066602184
 20
100.9836893424284
 30
0.0
 11
170.8243255007844
 21
105.4169482410288
 31
0.0
  0
LINE
  5
10E
330
10A
100
AcDbEntity
  8
0
 62
     0
100
AcDbLine
 10
163.6519029572411
 20
100.0122926504518
 30
0.0
 11
169.056558547818
 21
105.4169482410288
 31
0.0
  0
LINE
  5
10F
330
10A
100
AcDbEntity
  8
0
 62
     0
100
AcDbLine
 10
160.9127393122982
 20
99.04089595847525
 30
0.0
 11
167.2887915948517
 21
105.4169482410288
 31
0.0
  0
LINE
  5
110
330
10A
100
AcDbEntity
  8
0
 62
     0
100
AcDbLine
 10
160.3604629659233
 20
100.2563865650667
 30
0.0
 11
165.5210246418853
 21
105.4169482410288
 31
0.0
  0
LINE
  5
111
330
10A
100
AcDbEntity
  8
0
 62
     0
100
AcDbLine
 10
160.3604629659233
 20
102.0241535180331
 30
0.0
 11
163.7532576889189
 21
105.4169482410288
 31
0.0
  0
LINE
  5
112
330
10A
100
AcDbEntity
  8
0
 62
     0
100
AcDbLine
 10
160.3604629659233
 20
103.7919204709995
 30
0.0
 11
161.9854907359526
 21
105.4169482410288
 31
0.0
  0
LINE
  5
113
330
10A
100
AcDbEntity
  8
0
 62
     0
100
AcDbLine
 10
171.8693938920699
 20
102.9264827263815
 30
0.0
 11
174.3598594067172
 21
105.4169482410288
 31
0.0
  0
LINE
  5
114
330
10A
100
AcDbEntity
  8
0
 62
     0
100
AcDbLine
 10
174.6085575370129
 20
103.8978794183581
 30
0.0
 11
176.1276263596835
 21
105.4169482410288
 31
0.0
  0
LINE
  5
115
330
10A
100
AcDbEntity
  8
0
 62
     0
100
AcDbLine
 10
177.3477211819558
 20
104.8692761103346
 30
0.0
 11
177.8953933126499
 21
105.4169482410288
 31
0.0
  0
ENDBLK
  5
116
330
10A
100
AcDbEntity
  8
0
100
AcDbBlockEnd
  0
BLOCK
  5
93
330
92
100
AcDbEntity
  8
0
100
AcDbBlockBegin
  2
*X2
 70
     1
 10
0.0
 20
0.0
 30
0.0
  3
*X2
  1

  0
LINE
  5
94
330
92
100
AcDbEntity
  8
0
 62
     0
100
AcDbLine
 10
166.3896693223304
 20
238.8681143939515
 30
0.0
 11
168.8421837551016
 21
241.3206288267227
 31
0.0
  0
LINE
  5
95
330
92
100
AcDbEntity
  8
0
 62
     0
100
AcDbLine
 10
164.621902369364
 20
238.8681143939515
 30
0.0
 11
167.5653218696496
 21
241.8115338942371
 31
0.0
  0
LINE
  5
96
330
92
100
AcDbEntity
  8
0
 62
     0
100
AcDbLine
 10
162.8541354163976
 20
238.8681143939515
 30
0.0
 11
166.2884599841977
 21
242.3024389617515
 31
0.0
  0
LINE
  5
97
330
92
100
AcDbEntity
  8
0
 62
     0
100
AcDbLine
 10
161.0863684634313
 20
238.8681143939515
 30
0.0
 11
165.0115980987457
 21
242.7933440292659
 31
0.0
  0
LINE
  5
98
330
92
100
AcDbEntity
  8
0
 62
     0
100
AcDbLine
 10
160.3604629659233
 20
239.9099758494099
 30
0.0
 11
163.7347362132937
 21
243.2842490967803
 31
0.0
  0
LINE
  5
99
330
92
100
AcDbEntity
  8
0
 62
     0
100
AcDbLine
 10
160.3604629659233
 20
241.6777428023763
 30
0.0
 11
162.4578743278418
 21
243.7751541642947
 31
0.0
  0
LINE
  5
9A
330
92
100
AcDbEntity
  8
0
 62
     0
100
AcDbLine
 10
160.3604629659233
 20
243.4455097553426
 30
0.0
 11
161.1810124423898
 21
244.2660592318091
 31
0.0
  0
LINE
  5
9B
330
92
100
AcDbEntity
  8
0
 62
     0
100
AcDbLine
 10
168.1574362752968
 20
238.8681143939515
 30
0.0
 11
170.1190456405536
 21
240.8297237592083
 31
0.0
  0
LINE
  5
9C
330
92
100
AcDbEntity
  8
0
 62
     0
100
AcDbLine
 10
169.9252032282631
 20
238.8681143939515
 30
0.0
 11
171.3959075260055
 21
240.3388186916939
 31
0.0
  0
LINE
  5
9D
330
92
100
AcDbEntity
  8
0
 62
     0
100
AcDbLine
 10
171.6929701812295
 20
238.8681143939515
 30
0.0
 11
172.6727694114575
 21
239.8479136241795
 31
0.0
  0
LINE
  5
9E
330
92
100
AcDbEntity
  8
0
 62
     0
100
AcDbLine
 10
173.4607371341958
 20
238.8681143939515
 30
0.0
 11
173.9496312969095
 21
239.3570085566651
 31
0.0
  0
ENDBLK
  5
9F
330
92
100
AcDbEntity
  8
0
100
AcDbBlockEnd
  0
BLOCK
  5
DE
330
DD
100
AcDbEntity
  8
0
100
AcDbBlockBegin
  2
*X3
 70
     1
 10
0.0
 20
0.0
 30
0.0
  3
*X3
  1

  0
LINE
  5
DF
330
DD
100
AcDbEntity
  8
0
 62
     0
100
AcDbLine
 10
400.9011574148082
 20
395.5978565559091
 30
0.0
 11
408.4011574148082
 21
403.097856555909
 31
0.0
  0
LINE
  5
E0
330
DD
100
AcDbEntity
  8
0
 62
     0
100
AcDbLine
 10
400.9011574148082
 20
398.2495069853587
 30
0.0
 11
408.4011574148082
 21
405.7495069853586
 31
0.0
  0
LINE
  5
E1
330
DD
100
AcDbEntity
  8
0
 62
     0
100
AcDbLine
 10
400.9011574148082
 20
400.9011574148082
 30
0.0
 11
408.4011574148082
 21
408.4011574148081
 31
0.0
  0
LINE
  5
E2
330
DD
100
AcDbEntity
  8
0
 62
     0
100
AcDbLine
 10
400.9011574148082
 20
403.5528078442577
 30
0.0
 11
406.2555435741955
 21
408.907194003645
 31
0.0
  0
LINE
  5
E3
330
DD
100
AcDbEntity
  8
0
 62
     0
100
AcDbLine
 10
400.9011574148082
 20
406.2044582737073
 30
0.0
 11
403.6038931447459
 21
408.907194003645
 31
0.0
  0
LINE
  5
E4
330
DD
100
AcDbEntity
  8
0
 62
     0
100
AcDbLine
 10
400.9011574148082
 20
408.8561087031568
 30
0.0
 11
400.9522427152963
 21
408.907194003645
 31
0.0
  0
LINE
  5
E5
330
DD
100
AcDbEntity
  8
0
 62
     0
100
AcDbLine
 10
400.9011574148082
 20
392.9462061264596
 30
0.0
 11
408.4011574148082
 21
400.4462061264595
 31
0.0
  0
LINE
  5
E6
330
DD
100
AcDbEntity
  8
0
 62
     0
100
AcDbLine
 10
400.9011574148082
 20
390.29455569701
 30
0.0
 11
408.4011574148082
 21
397.79455569701
 31
0.0
  0
LINE
  5
E7
330
DD
100
AcDbEntity
  8
0
 62
     0
100
AcDbLine
 10
400.9331174553053
 20
387.6748653080575
 30
0.0
 11
408.4011574148082
 21
395.1429052675604
 31
0.0
  0
LINE
  5
E8
330
DD
100
AcDbEntity
  8
0
 62
     0
100
AcDbLine
 10
403.5847678847549
 20
387.6748653080575
 30
0.0
 11
408.4011574148082
 21
392.4912548381109
 31
0.0
  0
LINE
  5
E9
330
DD
100
AcDbEntity
  8
0
 62
     0
100
AcDbLine
 10
406.2364183142044
 20
387.6748653080575
 30
0.0
 11
408.4011574148082
 21
389.8396044086613
 31
0.0
  0
ENDBLK
  5
EA
330
DD
100
AcDbEntity
  8
0
100
AcDbBlockEnd
  0
BLOCK
  5
F1
330
F0
100
AcDbEntity
  8
0
100
AcDbBlockBegin
  2
*X4
 70
     1
 10
0.0
 20
0.0
 30
0.0
  3
*X4
  1

  0
LINE
  5
F2
330
F0
100
AcDbEntity
  8
0
 62
     0
100
AcDbLine
 10
400.9011574148082
 20
445.9792147154506
 30
0.0
 11
408.4011574148082
 21
453.4792147154505
 31
0.0
  0
LINE
  5
F3
330
F0
100
AcDbEntity
  8
0
 62
     0
100
AcDbLine
 10
400.9011574148082
 20
448.6308651449001
 30
0.0
 11
408.4011574148082
 21
456.1308651449
 31
0.0
  0
LINE
  5
F4
330
F0
100
AcDbEntity
  8
0
 62
     0
100
AcDbLine
 10
400.9011574148082
 20
451.2825155743497
 30
0.0
 11
408.4011574148082
 21
458.7825155743496
 31
0.0
  0
LINE
  5
F5
330
F0
100
AcDbEntity
  8
0
 62
     0
100
AcDbLine
 10
400.9011574148082
 20
453.9341660037992
 30
0.0
 11
408.4011574148082
 21
461.4341660037992
 31
0.0
  0
LINE
  5
F6
330
F0
100
AcDbEntity
  8
0
 62
     0
100
AcDbLine
 10
400.9011574148082
 20
456.5858164332488
 30
0.0
 11
408.4011574148082
 21
464.0858164332487
 31
0.0
  0
LINE
  5
F7
330
F0
100
AcDbEntity
  8
0
 62
     0
100
AcDbLine
 10
400.9011574148082
 20
459.2374668626984
 30
0.0
 11
408.0797111299089
 21
466.416020577799
 31
0.0
  0
LINE
  5
F8
330
F0
100
AcDbEntity
  8
0
 62
     0
100
AcDbLine
 10
400.9011574148082
 20
461.8891172921479
 30
0.0
 11
405.4280607004594
 21
466.416020577799
 31
0.0
  0
LINE
  5
F9
330
F0
100
AcDbEntity
  8
0
 62
     0
100
AcDbLine
 10
400.9011574148082
 20
464.5407677215975
 30
0.0
 11
402.7764102710098
 21
466.416020577799
 31
0.0
  0
LINE
  5
FA
330
F0
100
AcDbEntity
  8
0
 62
     0
100
AcDbLine
 10
400.9011574148082
 20
443.327564286001
 30
0.0
 11
408.4011574148082
 21
450.8275642860009
 31
0.0
  0
LINE
  5
FB
330
F0
100
AcDbEntity
  8
0
 62
     0
100
AcDbLine
 10
400.9011574148082
 20
440.6759138565515
 30
0.0
 11
408.4011574148082
 21
448.1759138565514
 31
0.0
  0
LINE
  5
FC
330
F0
100
AcDbEntity
  8
0
 62
     0
100
AcDbLine
 10
400.9011574148082
 20
438.0242634271019
 30
0.0
 11
408.4011574148082
 21
445.5242634271018
 31
0.0
  0
LINE
  5
FD
330
F0
100
AcDbEntity
  8
0
 62
     0
100
AcDbLine
 10
400.9011574148082
 20
435.3726129976524
 30
0.0
 11
408.4011574148082
 21
442.8726129976523
 31
0.0
  0
LINE
  5
FE
330
F0
100
AcDbEntity
  8
0
 62
     0
100
AcDbLine
 10
400.9011574148082
 20
432.7209625682028
 30
0.0
 11
408.4011574148082
 21
440.2209625682028
 31
0.0
  0
LINE
  5
FF
330
F0
100
AcDbEntity
  8
0
 62
     0
100
AcDbLine
 10
402.2390392796995
 20
431.4071940036446
 30
0.0
 11
408.4011574148082
 21
437.5693121387532
 31
0.0
  0
LINE
  5
100
330
F0
100
AcDbEntity
  8
0
 62
     0
100
AcDbLine
 10
404.8906897091491
 20
431.4071940036446
 30
0.0
 11
408.4011574148082
 21
434.9176617093037
 31
0.0
  0
LINE
  5
101
330
F0
100
AcDbEntity
  8
0
 62
     0
100
AcDbLine
 10
407.5423401385986
 20
431.4071940036446
 30
0.0
 11
408.4011574148082
 21
432.2660112798541
 31
0.0
  0
ENDBLK
  5
102
330
F0
100
AcDbEntity
  8
0
100
AcDbBlockEnd
  0
BLOCK
  5
74
330
73
100
AcDbEntity
  8
0
100
AcDbBlockBegin
  2
*D5
 70
     1
 10
0.0
 20
0.0
 30
0.0
  3
*D5
  1

  0
LINE
  5
75
330
73
100
AcDbEntity
  8
sapa_elevation
440
 16777216
370
    -2
100
AcDbLine
 10
-2659.201890065315
 20
689.5832845702605
 30
0.0
 11
-2659.201890065315
 21
-29.89067415895659
 31
0.0
  0
LINE
  5
76
330
73
100
AcDbEntity
  8
sapa_elevation
440
 16777216
370
    -2
100
AcDbLine
 10
-2609.201890083215
 20
689.5832845702605
 30
0.0
 11
-2609.201890083215
 21
-29.89067415895659
 31
0.0
  0
LINE
  5
77
330
73
100
AcDbEntity
  8
sapa_elevation
440
 16777216
370
    -2
100
AcDbLine
 10
-2656.201890065315
 20
-28.39067415895654
 30
0.0
 11
-2612.201890083215
 21
-28.39067415895654
 31
0.0
  0
SOLID
  5
78
330
73
100
AcDbEntity
  8
sapa_elevation
440
 16777216
100
AcDbTrace
 10
-2656.201890065315
 20
-27.89067415895654
 30
0.0
 11
-2656.201890065315
 21
-28.89067415895654
 31
0.0
 12
-2659.201890065315
 22
-28.39067415895654
 32
0.0
 13
-2659.201890065315
 23
-28.39067415895654
 33
0.0
  0
SOLID
  5
79
330
73
100
AcDbEntity
  8
sapa_elevation
440
 16777216
100
AcDbTrace
 10
-2612.201890083215
 20
-27.89067415895654
 30
0.0
 11
-2612.201890083215
 21
-28.89067415895654
 31
0.0
 12
-2609.201890083215
 22
-28.39067415895654
 32
0.0
 13
-2609.201890083215
 23
-28.39067415895654
 33
0.0
  0
MTEXT
  5
7A
330
73
100
AcDbEntity
  8
sapa_elevation
440
 16777216
100
AcDbMText
 10
-2634.201890074264
 20
-25.89067415895654
 30
0.0
 40
3.0
 41
0.0
 46
0.0
 71
     5
 72
     1
  1
\A1;49.99999998
  7
ISO
 73
     1
 44
1.0
  0
POINT
  5
7B
330
73
100
AcDbEntity
  8
Defpoints
 62
     0
440
 16777216
100
AcDbPoint
 10
-2659.201890065315
 20
691.0832845702604
 30
0.0
  0
POINT
  5
7D
330
73
100
AcDbEntity
  8
Defpoints
 62
     0
440
 16777216
100
AcDbPoint
 10
-2609.201890083215
 20
691.0832845702604
 30
0.0
  0
POINT
  5
7E
330
73
100
AcDbEntity
  8
Defpoints
 62
     0
440
 16777216
100
AcDbPoint
 10
-2609.201890083215
 20
-28.39067415895654
 30
0.0
  0
ENDBLK
  5
7F
330
73
100
AcDbEntity
  8
0
100
AcDbBlockEnd
  0
BLOCK
  5
6C
330
6B
100
AcDbEntity
  8
0
100
AcDbBlockBegin
  2
BYGG-023997
 70
     4
 10
339.7723319792718
 20
232.3505797206594
 30
0.0
  3
BYGG-023997
  1
\\vtl00-ms029\pspdata$\2009\06\0\BYGG-023997.dwg
  0
ENDBLK
  5
6D
330
6B
100
AcDbEntity
  8
0
100
AcDbBlockEnd
  0
BLOCK
  5
68
330
67
100
AcDbEntity
  8
0
100
AcDbBlockBegin
  2
BYGG-024000
 70
     4
 10
339.7723319792718
 20
232.3505797206594
 30
0.0
  3
BYGG-024000
  1
\\vtl00-ms029\pspdata$\2009\06\0\BYGG-024000.dwg
  0
ENDBLK
  5
69
330
67
100
AcDbEntity
  8
0
100
AcDbBlockEnd
  0
BLOCK
  5
64
330
63
100
AcDbEntity
  8
0
100
AcDbBlockBegin
  2
BYGG-024007
 70
     4
 10
339.7723319792718
 20
232.3505797206594
 30
0.0
  3
BYGG-024007
  1
\\vtl00-ms029\pspdata$\2009\06\0\BYGG-024007.dwg
  0
ENDBLK
  5
65
330
63
100
AcDbEntity
  8
0
100
AcDbBlockEnd
  0
ENDSEC
  0
SECTION
  2
ENTITIES
  0
INSERT
  5
62
330
2
100
AcDbEntity
  8
sapa_elevation
100
AcDbBlockReference
  2
BYGG-024007
 10
-5538.776336756757
 20
-5155.643103861475
 30
0.0
  0
INSERT
  5
66
330
2
100
AcDbEntity
  8
sapa_elevation
100
AcDbBlockReference
  2
BYGG-024000
 10
-6611.927652761143
 20
-4732.785374450456
 30
0.0
  0
INSERT
  5
6A
330
2
100
AcDbEntity
  8
sapa_elevation
100
AcDbBlockReference
  2
BYGG-023997
 10
-6598.50045828152
 20
-4180.73335985847
 30
0.0
  0
HATCH
  5
6E
330
2
100
AcDbEntity
  8
sapa_elevation
100
AcDbHatch
 10
0.0
 20
0.0
 30
0.0
210
0.0
220
0.0
230
1.0
  2
JIS_LC_8
 70
     0
 71
     1
 91
       22
 92
        7
 72
     0
 73
     1
 93
        4
 10
-7209.201888436426
 20
1791.25981565947
 10
-7209.201888436426
 20
1091.083284427048
 10
-6109.201888830215
 20
1091.083284427048
 10
-6109.201888830213
 20
1791.259815659482
 97
        4
330
152
330
153
330
157
330
154
 92
        7
 72
     0
 73
     1
 93
        4
 10
-6059.201888848115
 20
1791.259815659482
 10
-6059.201888848114
 20
1091.083284427048
 10
-4959.201889241928
 20
1091.083284427048
 10
-4959.201889241928
 20
1791.259815659482
 97
        4
330
13E
330
145
330
157
330
6F
 92
        7
 72
     0
 73
     1
 93
        4
 10
-4909.201889259827
 20
1791.259815659482
 10
-4909.201889259827
 20
1091.083284427048
 10
-3809.201889653627
 20
1091.083284427048
 10
-3809.201889653627
 20
1791.259815659482
 97
        4
330
144
330
149
330
172
330
147
 92
        7
 72
     0
 73
     1
 93
        4
 10
-3759.201889671527
 20
1791.259815659481
 10
-3759.201889671527
 20
1091.083284427048
 10
-2659.201890065315
 20
1091.083284427048
 10
-2659.201890065315
 20
1791.259815659469
 97
        4
330
177
330
146
330
172
330
12B
 92
        7
 72
     0
 73
     1
 93
        4
 10
-1509.201890477014
 20
1091.083284427049
 10
-1509.201890477015
 20
1791.25981565947
 10
-2609.201890083214
 20
1791.259815659469
 10
-2609.201890083214
 20
1091.083284427048
 97
        4
330
129
330
12C
330
172
330
12D
 92
        7
 72
     0
 73
     1
 93
        4
 10
-2609.201890083215
 20
1041.08328444496
 10
-2609.201890083215
 20
691.0832845702604
 10
-1509.201890477014
 20
691.0832845702604
 10
-1509.201890477014
 20
1041.08328444496
 97
        4
330
173
330
125
330
174
330
122
 92
        7
 72
     0
 73
     1
 93
        6
 10
-3249.902463169918
 20
1041.08328444496
 10
-3759.201889671528
 20
1041.08328444496
 10
-3759.201889671527
 20
691.0832845702604
 10
-2659.201890065315
 20
691.0832845702606
 10
-2659.201890065315
 20
1041.08328444496
 10
-3068.728990368845
 20
1041.08328444496
 97
        6
330
173
330
8B
330
15A
330
136
330
174
330
124
 92
        7
 72
     0
 73
     1
 93
        4
 10
-3809.201889653627
 20
691.0832845702606
 10
-3809.201889653626
 20
1041.08328444496
 10
-4909.201889259827
 20
1041.08328444496
 10
-4909.201889259827
 20
691.0832845702604
 97
        4
330
15A
330
139
330
174
330
135
 92
        7
 72
     0
 73
     1
 93
        4
 10
-5478.636022308059
 20
1041.08328444496
 10
-5478.636022308059
 20
691.0832845702604
 10
-4959.201889241928
 20
691.0832845702606
 10
-4959.20188924193
 20
1041.08328444496
 97
        4
330
70
330
0
330
159
330
165
 92
        7
 72
     0
 73
     1
 93
        4
 10
-6059.201888848127
 20
1041.08328444496
 10
-6059.201888848128
 20
691.0832845702604
 10
-5478.636022308059
 20
691.0832845702606
 10
-5478.636022308059
 20
1041.08328444496
 97
        4
330
70
330
13A
330
159
330
0
 92
        7
 72
     0
 73
     1
 93
        4
 10
-7209.201888436426
 20
1041.08328444496
 10
-7209.201888436426
 20
691.0832845702604
 10
-6109.201888830225
 20
691.0832845702606
 10
-6109.201888830226
 20
1041.08328444496
 97
        4
330
70
330
14D
330
159
330
14C
 92
        7
 72
     0
 73
     1
 93
        4
 10
-7209.201888436426
 20
641.0832845881604
 10
-7209.201888436425
 20
216.4367108284337
 10
-6109.201888830216
 20
216.4367108284338
 10
-6109.201888830215
 20
641.0832845881606
 97
        4
330
158
330
167
330
150
330
169
 92
        7
 72
     0
 73
     1
 93
        4
 10
-4959.201889241927
 20
216.4367108284338
 10
-4959.201889241928
 20
641.0832845881607
 10
-6059.201888848114
 20
641.0832845881606
 10
-6059.201888848114
 20
216.4367108284338
 97
        4
330
158
330
168
330
13C
330
165
 92
        7
 72
     0
 73
     1
 93
        4
 10
-3809.201889653625
 20
216.4367108284338
 10
-3809.201889653627
 20
641.0832845881606
 10
-4909.201889259827
 20
641.0832845881606
 10
-4909.201889259826
 20
216.4367108284338
 97
        4
330
175
330
166
330
140
330
16B
 92
        7
 72
     0
 73
     1
 93
        4
 10
-3759.201889671528
 20
641.0832845881607
 10
-3759.201889671525
 20
216.4367108284338
 10
-2659.201890065315
 20
216.4367108284338
 10
-2659.201890065315
 20
641.0832845881606
 97
        4
330
175
330
16A
330
171
330
133
 92
        7
 72
     0
 73
     1
 93
        4
 10
-2609.201890083215
 20
641.0832845881606
 10
-2609.201890083215
 20
216.4367108284337
 10
-1509.201890477014
 20
216.4367108284338
 10
-1509.201890477014
 20
641.0832845881607
 97
        4
330
175
330
132
330
127
330
131
 92
        7
 72
     0
 73
     1
 93
        4
 10
-2609.201890083215
 20
-1433.563288580866
 10
-2609.201890083215
 20
-2133.563288330266
 10
-1509.201890477014
 20
-2133.563288330266
 10
-1509.201890477014
 20
-1433.563288580866
 97
        4
330
12E
330
132
330
130
330
131
 92
        7
 72
     0
 73
     1
 93
        4
 10
-3759.201889671518
 20
-1433.563288580878
 10
-3759.201889671516
 20
-2133.563288330266
 10
-2659.201890065315
 20
-2133.563288330266
 10
-2659.201890065315
 20
-1433.563288580878
 97
        4
330
11F
330
16A
330
15E
330
133
 92
        7
 72
     0
 73
     1
 93
        4
 10
-4909.201889259816
 20
-1433.563288580866
 10
-4909.201889259815
 20
-2133.563288330266
 10
-3809.201889653614
 20
-2133.563288330266
 10
-3809.201889653618
 20
-1433.563288580866
 97
        4
330
15F
330
166
330
71
330
16B
 92
        7
 72
     0
 73
     1
 93
        4
 10
-6059.201888848114
 20
-1433.563288580866
 10
-6059.201888848114
 20
-2133.563288330266
 10
-4959.201889241913
 20
-2133.563288330266
 10
-4959.201889241916
 20
-1433.563288580866
 97
        4
330
15C
330
168
330
163
330
165
 92
        7
 72
     0
 73
     1
 93
        4
 10
-6109.201888830215
 20
-1433.563288580866
 10
-7209.201888436425
 20
-1433.563288580866
 10
-7209.201888436426
 20
-2133.563288330265
 10
-6109.201888830215
 20
-2133.563288330266
 97
        4
330
161
330
167
330
163
330
169
 92
        9
 93
        4
 72
     1
 10
-5485.15530236733
 20
1067.365276812898
 11
-5052.728895496137
 21
1067.365276812898
 72
     1
 10
-5052.728895496137
 20
1067.365276812898
 11
-5052.728895496137
 21
617.3652768128981
 72
     1
 10
-5052.728895496137
 20
617.3652768128981
 11
-5485.15530236733
 21
617.3652768128981
 72
     1
 10
-5485.15530236733
 20
617.3652768128981
 11
-5485.15530236733
 21
1067.365276812898
 97
        1
330
0
 75
     0
 76
     1
 52
0.0
 41
10.0
 77
     0
 78
     2
 53
45.0
 43
0.0
 44
0.0
 45
-55.1543289325507
 46
55.15432893255071
 79
     0
 53
45.0
 43
4.0
 44
0.0
 45
-55.1543289325507
 46
55.15432893255071
 79
     0
 47
17.12621657263029
 98
       21
 10
-6509.507202767142
 20
1485.638835157384
 10
-5549.9978884413
 20
1468.512636051775
 10
-4453.415736769501
 20
1468.512636051775
 10
-3082.688047179749
 20
1468.512636051775
 10
-2106.044576895423
 20
1434.260194056558
 10
-2071.776333365429
 20
886.2212534850696
 10
-3219.760816138718
 20
903.3474525906786
 10
-4145.001955321568
 20
800.5901703890268
 10
-5138.779581564377
 20
886.2212534850696
 10
-5721.338832543275
 20
886.2212534850696
 10
-6715.116390399096
 20
869.0950543794606
 10
-6646.579971726111
 20
440.9396388992318
 10
-5841.277513930748
 20
423.8133960096238
 10
-4607.62259329998
 20
406.6871969040148
 10
-3305.431253996212
 20
440.9396388992318
 10
-2414.458289956368
 20
509.4444791056739
 10
-2106.044576895423
 20
-1699.83743850189
 10
-3168.358485037243
 20
-1734.089880497107
 10
-4402.01340566801
 20
-1734.089880497107
 10
-5481.461469768328
 20
-1716.963681391499
 10
-6372.434433808172
 20
-1699.83743850189
1001
ACAD
1010
0.0
1020
0.0
1030
0.0
  0
LINE
  5
6F
102
{ACAD_REACTORS
330
6E
102
}
330
2
100
AcDbEntity
  8
sapa_elevation
100
AcDbLine
 10
-4959.201889241928
 20
1091.083284427048
 30
0.0
 11
-4959.201889241927
 21
4241.107975600571
 31
0.0
  0
LINE
  5
70
102
{ACAD_REACTORS
330
6E
102
}
330
2
100
AcDbEntity
  8
sapa_elevation
100
AcDbLine
 10
-4959.201889241927
 20
1041.08328444496
 30
0.0
 11
-7259.201888418527
 21
1041.08328444496
 31
0.0
  0
LINE
  5
71
102
{ACAD_REACTORS
330
6E
102
}
330
2
100
AcDbEntity
  8
sapa_elevation
100
AcDbLine
 10
-3809.201889653616
 20
-2133.563288330266
 30
0.0
 11
-4909.201889259815
 21
-2133.563288330266
 31
0.0
  0
DIMENSION
  5
72
330
2
100
AcDbEntity
  8
sapa_elevation
100
AcDbDimension
  2
*D5
 10
-2609.201890083215
 20
-28.39067415895654
 30
0.0
 11
-2634.201890074264
 21
-25.89067415895654
 31
0.0
 71
     5
 42
49.99999998209978
 73
     0
 74
     0
 75
     0
  3
MASKIN
100
AcDbAlignedDimension
 13
-2659.201890065315
 23
691.0832845702604
 33
0.0
 14
-2609.201890083215
 24
691.0832845702604
 34
0.0
100
AcDbRotatedDimension
1001
ACAD
1000
DSTYLE
1002
{
1070
    40
1040
1.0
1002
}
  0
LINE
  5
80
330
2
100
AcDbEntity
  8
sapa_elevation
100
AcDbLine
 10
-538.1544230252464
 20
4280.804251901912
 30
0.0
 11
-520.9780775072042
 21
4297.980597419956
 31
0.0
  0
LINE
  5
81
330
2
100
AcDbEntity
  8
sapa_elevation
100
AcDbLine
 10
-591.1874315952515
 20
4280.804251901912
 30
0.0
 11
-520.9780775072042
 21
4351.013605989965
 31
0.0
  0
LINE
  5
82
330
2
100
AcDbEntity
  8
sapa_elevation
100
AcDbLine
 10
-644.2204401652566
 20
4280.804251901912
 30
0.0
 11
-520.9780775072042
 21
4404.046614559965
 31
0.0
  0
LINE
  5
83
330
2
100
AcDbEntity
  8
sapa_elevation
100
AcDbLine
 10
-670.9780774535011
 20
4307.079623183676
 30
0.0
 11
-520.9780775072042
 21
4457.079623129977
 31
0.0
  0
LINE
  5
84
330
2
100
AcDbEntity
  8
sapa_elevation
100
AcDbLine
 10
-670.9780774535011
 20
4360.112631753675
 30
0.0
 11
-520.9780775072042
 21
4510.112631699975
 31
0.0
  0
LINE
  5
85
330
2
100
AcDbEntity
  8
sapa_elevation
100
AcDbLine
 10
-670.9780774535011
 20
4413.145640323686
 30
0.0
 11
-520.9780775072042
 21
4563.145640269986
 31
0.0
  0
LINE
  5
86
330
2
100
AcDbEntity
  8
sapa_elevation
100
AcDbLine
 10
-670.9780774535011
 20
4466.178648893684
 30
0.0
 11
-553.5320472466626
 21
4583.624679100542
 31
0.0
  0
LINE
  5
87
330
2
100
AcDbEntity
  8
sapa_elevation
100
AcDbLine
 10
-670.9780774535011
 20
4519.211657463697
 30
0.0
 11
-606.5650558166646
 21
4583.624679100542
 31
0.0
  0
LINE
  5
88
330
2
100
AcDbEntity
  8
sapa_elevation
100
AcDbLine
 10
-670.9780774535011
 20
4572.244666033696
 30
0.0
 11
-659.5980643866637
 21
4583.624679100542
 31
0.0
  0
LINE
  5
89
330
2
100
AcDbEntity
  8
sapa_elevation
100
AcDbLine
 10
-670.9780774535072
 20
4583.624679100542
 30
0.0
 11
-670.9780774535072
 21
4280.804251901912
 31
0.0
  0
LINE
  5
8A
330
2
100
AcDbEntity
  8
sapa_elevation
100
AcDbLine
 10
-520.9780775072072
 20
4583.62467910053
 30
0.0
 11
-520.9780775072072
 21
4280.804251901912
 31
0.0
  0
LINE
  5
8B
102
{ACAD_REACTORS
330
6E
102
}
330
2
100
AcDbEntity
  8
sapa_elevation
100
AcDbLine
 10
-3249.902463169918
 20
1041.08328444496
 30
0.0
 11
-3068.728990368845
 21
1041.08328444496
 31
0.0
  0
HATCH
  5
8C
330
2
100
AcDbEntity
  8
sapa_elevation
100
AcDbHatch
 10
0.0
 20
0.0
 30
0.0
210
0.0
220
0.0
230
1.0
  2
ANSI31
 70
     0
 71
     1
 91
        1
 92
        7
 72
     0
 73
     1
 93
        4
 10
-520.9780775072072
 20
1080.77956074629
 10
-670.9780774535072
 20
1080.77956074629
 10
-670.9780774535072
 20
730.7795608715905
 10
-520.9780775072072
 20
730.7795608715905
 97
        4
330
B0
330
C0
330
B8
330
BF
 75
     0
 76
     1
 52
0.0
 41
11.999999995704
 77
     0
 78
     1
 53
45.0
 43
-91751.04864747085
 44
-73405.30073918928
 45
-26.94076835356266
 46
26.94076835356267
 79
     0
 47
0.0397810685102828
 98
        1
 10
-577.4758988762685
 20
911.0112844274251
  0
LINE
  5
8D
330
2
100
AcDbEntity
  8
sapa_elevation
100
AcDbLine
 10
-520.9780775072072
 20
4230.804251919813
 30
0.0
 11
-520.9780775072072
 21
4280.804251901912
 31
0.0
  0
LINE
  5
8E
330
2
100
AcDbEntity
  8
sapa_elevation
100
AcDbLine
 10
-512.3692311705378
 20
4581.712151862916
 30
0.0
 11
-512.3692311705378
 21
4296.041399219905
 31
0.0
  0
LINE
  5
8F
330
2
100
AcDbEntity
  8
sapa_elevation
100
AcDbLine
 10
-670.9780774535072
 20
4280.804251901912
 30
0.0
 11
-670.9780774535072
 21
4230.804251919813
 31
0.0
  0
LINE
  5
90
330
2
100
AcDbEntity
  8
sapa_elevation
100
AcDbLine
 10
-512.3692311705378
 20
4296.041399219905
 30
0.0
 11
230.6707575693008
 21
4296.041399219905
 31
0.0
  0
INSERT
  5
91
330
2
100
AcDbEntity
  8
sapa_elevation
100
AcDbBlockReference
  2
*X2
 10
-8525.943810199454
 20
-7647.725860467386
 30
0.0
 41
49.99999998210069
 42
49.99999998210069
 43
49.99999998210069
  0
LINE
  5
A0
330
2
100
AcDbEntity
  8
sapa_elevation
100
AcDbLine
 10
-520.9780775072072
 20
4280.804251901912
 30
0.0
 11
-670.9780774535072
 21
4280.804251901912
 31
0.0
  0
LINE
  5
A1
330
2
100
AcDbEntity
  8
sapa_elevation
100
AcDbLine
 10
-520.9780775072072
 20
4230.804251919813
 30
0.0
 11
-670.9780774535072
 21
4230.804251919813
 31
0.0
  0
LINE
  5
A2
330
2
100
AcDbEntity
  8
sapa_elevation
100
AcDbLine
 10
-520.9780775072072
 20
3530.956091352212
 30
0.0
 11
-520.9780775072072
 21
3480.956091370112
 31
0.0
  0
LINE
  5
A3
330
2
100
AcDbEntity
  8
sapa_elevation
100
AcDbLine
 10
-520.9780775072072
 20
1830.956091960812
 30
0.0
 11
-520.9780775072072
 21
1130.77956072839
 31
0.0
  0
LINE
  5
A4
330
2
100
AcDbEntity
  8
sapa_elevation
100
AcDbLine
 10
-520.9780775072072
 20
1130.77956072839
 30
0.0
 11
-520.9780775072072
 21
1080.77956074629
 31
0.0
  0
LINE
  5
A5
330
2
100
AcDbEntity
  8
sapa_elevation
100
AcDbLine
 10
-520.9780775072072
 20
1880.956091942912
 30
0.0
 11
-520.9780775072072
 21
1830.956091960812
 31
0.0
  0
LINE
  5
A6
330
2
100
AcDbEntity
  8
sapa_elevation
100
AcDbLine
 10
-520.9780775072072
 20
3480.956091370112
 30
0.0
 11
-520.9780775072072
 21
1880.956091942912
 31
0.0
  0
LINE
  5
A7
330
2
100
AcDbEntity
  8
sapa_elevation
100
AcDbLine
 10
-520.9780775072072
 20
680.7795608894905
 30
0.0
 11
-520.9780775072072
 21
256.1329871297759
 31
0.0
  0
LINE
  5
A8
330
2
100
AcDbEntity
  8
sapa_elevation
100
AcDbLine
 10
-520.9780775072072
 20
206.1329871476759
 30
0.0
 11
-520.9780775072072
 21
256.1329871297759
 31
0.0
  0
LINE
  5
A9
330
2
100
AcDbEntity
  8
sapa_elevation
100
AcDbLine
 10
-520.9780775072072
 20
730.7795608715905
 30
0.0
 11
-520.9780775072072
 21
680.7795608894905
 31
0.0
  0
LINE
  5
AA
102
{ACAD_REACTORS
330
C2
102
}
330
2
100
AcDbEntity
  8
sapa_elevation
100
AcDbLine
 10
-520.9780775072072
 20
-2093.867012028924
 30
0.0
 11
-520.9780775072072
 21
-1393.867012279524
 31
0.0
  0
LINE
  5
AB
330
2
100
AcDbEntity
  8
sapa_elevation
100
AcDbLine
 10
-520.9780775072072
 20
-2143.867012011024
 30
0.0
 11
-520.9780775072072
 21
-2093.867012028924
 31
0.0
  0
LINE
  5
AC
330
2
100
AcDbEntity
  8
sapa_elevation
100
AcDbLine
 10
-520.9780775072072
 20
-1393.867012279524
 30
0.0
 11
-520.9780775072072
 21
-1343.867012297424
 31
0.0
  0
LINE
  5
AD
330
2
100
AcDbEntity
  8
sapa_elevation
100
AcDbLine
 10
-520.9780775072072
 20
-1343.867012297424
 30
0.0
 11
-520.9780775072072
 21
206.1329871476759
 31
0.0
  0
LINE
  5
AE
330
2
100
AcDbEntity
  8
sapa_elevation
100
AcDbLine
 10
-670.9780774535072
 20
3530.956091352212
 30
0.0
 11
-670.9780774535072
 21
3480.956091370112
 31
0.0
  0
LINE
  5
AF
330
2
100
AcDbEntity
  8
sapa_elevation
100
AcDbLine
 10
-670.9780774535072
 20
1880.956091942912
 30
0.0
 11
-670.9780774535072
 21
1130.77956072839
 31
0.0
  0
LINE
  5
B0
102
{ACAD_REACTORS
330
8C
102
}
330
2
100
AcDbEntity
  8
sapa_elevation
100
AcDbLine
 10
-670.9780774535072
 20
1080.77956074629
 30
0.0
 11
-520.9780775072072
 21
1080.77956074629
 31
0.0
  0
LINE
  5
B1
330
2
100
AcDbEntity
  8
sapa_elevation
100
AcDbLine
 10
-670.9780774535072
 20
1130.77956072839
 30
0.0
 11
-670.9780774535072
 21
1080.77956074629
 31
0.0
  0
LINE
  5
B2
330
2
100
AcDbEntity
  8
sapa_elevation
100
AcDbLine
 10
-636.2518631806224
 20
3480.956091370112
 30
0.0
 11
-636.2518631806224
 21
1885.396569963268
 31
0.0
  0
LINE
  5
B3
330
2
100
AcDbEntity
  8
sapa_elevation
100
AcDbLine
 10
-613.2518631888517
 20
3480.956091370112
 30
0.0
 11
-613.2518631888517
 21
1885.396569963268
 31
0.0
  0
LINE
  5
B4
330
2
100
AcDbEntity
  8
sapa_elevation
100
AcDbLine
 10
-670.9780774535072
 20
3480.956091370112
 30
0.0
 11
-670.9780774535072
 21
1880.956091942912
 31
0.0
  0
LINE
  5
B5
330
2
100
AcDbEntity
  8
sapa_elevation
100
AcDbLine
 10
-670.9780774535072
 20
680.7795608894905
 30
0.0
 11
-670.9780774535072
 21
256.1329871297759
 31
0.0
  0
LINE
  5
B6
330
2
100
AcDbEntity
  8
sapa_elevation
100
AcDbLine
 10
-670.9780774535072
 20
256.1329871297759
 30
0.0
 11
-670.9780774535072
 21
206.1329871476759
 31
0.0
  0
LINE
  5
B7
330
2
100
AcDbEntity
  8
sapa_elevation
100
AcDbLine
 10
-670.9780774535072
 20
730.7795608715905
 30
0.0
 11
-670.9780774535072
 21
680.7795608894905
 31
0.0
  0
LINE
  5
B8
102
{ACAD_REACTORS
330
8C
102
}
330
2
100
AcDbEntity
  8
sapa_elevation
100
AcDbLine
 10
-670.9780774535072
 20
730.7795608715905
 30
0.0
 11
-520.9780775072072
 21
730.7795608715905
 31
0.0
  0
LINE
  5
B9
102
{ACAD_REACTORS
330
C2
102
}
330
2
100
AcDbEntity
  8
sapa_elevation
100
AcDbLine
 10
-670.9780774535072
 20
-1393.867012279524
 30
0.0
 11
-670.9780774535072
 21
-2093.867012028924
 31
0.0
  0
LINE
  5
BA
330
2
100
AcDbEntity
  8
sapa_elevation
100
AcDbLine
 10
-670.9780774535072
 20
-2093.867012028924
 30
0.0
 11
-670.9780774535072
 21
-2143.867012011024
 31
0.0
  0
LINE
  5
BB
330
2
100
AcDbEntity
  8
sapa_elevation
100
AcDbLine
 10
-670.9780774535072
 20
-1343.867012297424
 30
0.0
 11
-670.9780774535072
 21
-1393.867012279524
 31
0.0
  0
LINE
  5
BC
330
2
100
AcDbEntity
  8
sapa_elevation
100
AcDbLine
 10
-613.2518631888638
 20
210.5734651680321
 30
0.0
 11
-613.2518631888638
 21
-1339.426534277068
 31
0.0
  0
LINE
  5
BD
330
2
100
AcDbEntity
  8
sapa_elevation
100
AcDbLine
 10
-636.2518631806224
 20
210.5734651680321
 30
0.0
 11
-636.2518631806224
 21
-1339.426534277068
 31
0.0
  0
LINE
  5
BE
330
2
100
AcDbEntity
  8
sapa_elevation
100
AcDbLine
 10
-670.9780774535072
 20
206.1329871476759
 30
0.0
 11
-670.9780774535072
 21
-1343.867012297424
 31
0.0
  0
LINE
  5
BF
102
{ACAD_REACTORS
330
8C
102
}
330
2
100
AcDbEntity
  8
sapa_elevation
100
AcDbLine
 10
-520.9780775072072
 20
1080.77956074629
 30
0.0
 11
-520.9780775072072
 21
730.7795608715905
 31
0.0
  0
LINE
  5
C0
102
{ACAD_REACTORS
330
8C
102
}
330
2
100
AcDbEntity
  8
sapa_elevation
100
AcDbLine
 10
-670.9780774535072
 20
1080.77956074629
 30
0.0
 11
-670.9780774535072
 21
730.7795608715905
 31
0.0
  0
LINE
  5
C1
330
2
100
AcDbEntity
  8
sapa_elevation
100
AcDbLine
 10
-505.1052082301205
 20
1071.603521276383
 30
0.0
 11
-505.1052082301205
 21
738.5676697495553
 31
0.0
  0
HATCH
  5
C2
330
2
100
AcDbEntity
  8
sapa_elevation
100
AcDbHatch
 10
0.0
 20
0.0
 30
0.0
210
0.0
220
0.0
230
1.0
  2
ANSI31
 70
     0
 71
     1
 91
        1
 92
        7
 72
     0
 73
     1
 93
        4
 10
-670.9780774535071
 20
-2093.867012028924
 10
-520.9780775072072
 20
-2093.867012028924
 10
-520.9780775072072
 20
-1393.867012279524
 10
-670.9780774535072
 20
-1393.867012279524
 97
        4
330
C6
330
B9
330
C4
330
AA
 75
     0
 76
     1
 52
0.0
 41
13.33333332856
 77
     0
 78
     1
 53
45.0
 43
-19934.78533667131
 44
-20635.43719581534
 45
-29.93418705951407
 46
29.93418705951408
 79
     0
 47
0.3819175446323139
 98
        1
 10
-608.7749684287348
 20
-1869.563877975333
  0
LINE
  5
C3
330
2
100
AcDbEntity
  8
sapa_elevation
100
AcDbLine
 10
-670.9780774535072
 20
-2176.516906109057
 30
0.0
 11
255.601669461113
 21
-2176.516906109057
 31
0.0
  0
LINE
  5
C4
102
{ACAD_REACTORS
330
C2
102
}
330
2
100
AcDbEntity
  8
sapa_elevation
100
AcDbLine
 10
-670.9780774535072
 20
-2093.867012028924
 30
0.0
 11
-520.9780775072072
 21
-2093.867012028924
 31
0.0
  0
LINE
  5
C5
330
2
100
AcDbEntity
  8
sapa_elevation
100
AcDbLine
 10
-670.9780774535072
 20
-2143.867012011024
 30
0.0
 11
-520.9780775072072
 21
-2143.867012011024
 31
0.0
  0
LINE
  5
C6
102
{ACAD_REACTORS
330
C2
102
}
330
2
100
AcDbEntity
  8
sapa_elevation
100
AcDbLine
 10
-670.9780774535072
 20
-1393.867012279524
 30
0.0
 11
-520.9780775072072
 21
-1393.867012279524
 31
0.0
  0
LINE
  5
C7
330
2
100
AcDbEntity
  8
sapa_elevation
100
AcDbLine
 10
-670.9780774535072
 20
-1343.867012297424
 30
0.0
 11
-520.9780775072072
 21
-1343.867012297424
 31
0.0
  0
LINE
  5
C8
330
2
100
AcDbEntity
  8
sapa_elevation
100
AcDbLine
 10
-505.1052082301205
 20
1071.603521276383
 30
0.0
 11
445.1570881264196
 21
1071.603521276383
 31
0.0
  0
LINE
  5
C9
330
2
100
AcDbEntity
  8
sapa_elevation
100
AcDbLine
 10
-505.1052082301205
 20
738.5676697495553
 30
0.0
 11
452.5578848270056
 21
738.5676697495553
 31
0.0
  0
INSERT
  5
CA
330
2
100
AcDbEntity
  8
sapa_elevation
100
AcDbBlockReference
  2
*X0
 10
-8595.955428540275
 20
-7547.188259899765
 30
0.0
 41
49.99999998210069
 42
49.99999998210069
 43
49.99999998210069
  0
INSERT
  5
DC
330
2
100
AcDbEntity
  8
sapa_elevation
100
AcDbBlockReference
  2
*X3
 10
-8689.001222879214
 20
-7497.364316255624
 30
0.0
 41
19.99999999284
 42
19.99999999284
 43
19.99999999284
  0
LINE
  5
EB
330
2
100
AcDbEntity
  8
sapa_elevation
100
AcDbLine
 10
-670.9780774535072
 20
206.1329871476759
 30
0.0
 11
-520.9780775072072
 21
206.1329871476759
 31
0.0
  0
LINE
  5
EC
330
2
100
AcDbEntity
  8
sapa_elevation
100
AcDbLine
 10
-670.9780774535072
 20
256.1329871297759
 30
0.0
 11
-520.9780775072072
 21
256.1329871297759
 31
0.0
  0
LINE
  5
ED
330
2
100
AcDbEntity
  8
sapa_elevation
100
AcDbLine
 10
-520.9780775072072
 20
730.7795608715905
 30
0.0
 11
-520.9780775072072
 21
730.7795608715905
 31
0.0
  0
LINE
  5
EE
330
2
100
AcDbEntity
  8
sapa_elevation
100
AcDbLine
 10
-670.9780774535072
 20
680.7795608894905
 30
0.0
 11
-520.9780775072072
 21
680.7795608894905
 31
0.0
  0
INSERT
  5
EF
330
2
100
AcDbEntity
  8
sapa_elevation
100
AcDbBlockReference
  2
*X4
 10
-8689.001222879214
 20
-7497.364316255624
 30
0.0
 41
19.99999999284
 42
19.99999999284
 43
19.99999999284
  0
LINE
  5
103
330
2
100
AcDbEntity
  8
sapa_elevation
100
AcDbLine
 10
-520.9780775072072
 20
1080.77956074629
 30
0.0
 11
-520.9780775072072
 21
1080.77956074629
 31
0.0
  0
LINE
  5
104
330
2
100
AcDbEntity
  8
sapa_elevation
100
AcDbLine
 10
-670.9780774535072
 20
1130.77956072839
 30
0.0
 11
-520.9780775072072
 21
1130.77956072839
 31
0.0
  0
LINE
  5
105
330
2
100
AcDbEntity
  8
sapa_elevation
100
AcDbLine
 10
-670.9780774535072
 20
1830.956091960812
 30
0.0
 11
-520.9780775072072
 21
1830.956091960812
 31
0.0
  0
LINE
  5
106
330
2
100
AcDbEntity
  8
sapa_elevation
100
AcDbLine
 10
-670.9780774535072
 20
1880.956091942912
 30
0.0
 11
-520.9780775072072
 21
1880.956091942912
 31
0.0
  0
LINE
  5
107
330
2
100
AcDbEntity
  8
sapa_elevation
100
AcDbLine
 10
-670.9780774535072
 20
3480.956091370112
 30
0.0
 11
-520.9780775072072
 21
3480.956091370112
 31
0.0
  0
LINE
  5
108
330
2
100
AcDbEntity
  8
sapa_elevation
100
AcDbLine
 10
-670.9780774535072
 20
3530.956091352212
 30
0.0
 11
-520.9780775072072
 21
3530.956091352212
 31
0.0
  0
INSERT
  5
109
330
2
100
AcDbEntity
  8
sapa_elevation
100
AcDbBlockReference
  2
*X1
 10
-8687.221796320507
 20
-7447.540372611498
 30
0.0
 41
49.99999998210069
 42
49.99999998210069
 43
49.99999998210069
  0
LINE
  5
117
330
2
100
AcDbEntity
  8
sapa_elevation
100
AcDbLine
 10
-670.9780774535072
 20
-2176.516906109057
 30
0.0
 11
-670.9780774535072
 21
-2505.112279615516
 31
0.0
  0
LINE
  5
118
330
2
100
AcDbEntity
  8
sapa_elevation
100
AcDbLine
 10
-670.9780774535072
 20
4230.804251919813
 30
0.0
 11
-670.9780774535072
 21
3530.956091352212
 31
0.0
  0
LINE
  5
119
330
2
100
AcDbEntity
  8
sapa_elevation
100
AcDbLine
 10
-520.9780775072072
 20
3530.956091352212
 30
0.0
 11
-520.9780775072072
 21
4230.804251919813
 31
0.0
  0
LINE
  5
11A
330
2
100
AcDbEntity
  8
sapa_elevation
100
AcDbLine
 10
-636.2518631806224
 20
4230.956091101611
 30
0.0
 11
-636.2518631806224
 21
3530.956091352212
 31
0.0
  0
LINE
  5
11B
330
2
100
AcDbEntity
  8
sapa_elevation
100
AcDbLine
 10
-613.2518631888638
 20
4230.956091101611
 30
0.0
 11
-613.2518631888638
 21
3530.956091352212
 31
0.0
  0
LINE
  5
11C
330
2
100
AcDbEntity
  8
sapa_elevation
100
AcDbLine
 10
-2659.201890065303
 20
3441.259815068782
 30
0.0
 11
-3759.201889671515
 21
3441.259815068769
 31
0.0
  0
LINE
  5
11D
330
2
100
AcDbEntity
  8
sapa_elevation
100
AcDbLine
 10
-2659.201890065303
 20
3491.259815050882
 30
0.0
 11
-3759.201889671515
 21
3491.259815050882
 31
0.0
  0
LINE
  5
11E
330
2
100
AcDbEntity
  8
sapa_elevation
100
AcDbLine
 10
-2659.201890065339
 20
-1383.563288598778
 30
0.0
 11
-3759.201889671539
 21
-1383.563288598778
 31
0.0
  0
LINE
  5
11F
102
{ACAD_REACTORS
330
6E
102
}
330
2
100
AcDbEntity
  8
sapa_elevation
100
AcDbLine
 10
-2659.201890065339
 20
-1433.563288580878
 30
0.0
 11
-3759.201889671539
 21
-1433.563288580878
 31
0.0
  0
LINE
  5
120
330
2
100
AcDbEntity
  8
sapa_elevation
100
AcDbLine
 10
-1509.201890477014
 20
3441.259815068782
 30
0.0
 11
-2609.201890083215
 21
3441.259815068782
 31
0.0
  0
LINE
  5
121
330
2
100
AcDbEntity
  8
sapa_elevation
100
AcDbLine
 10
-1509.201890477014
 20
3491.259815050882
 30
0.0
 11
-2609.201890083215
 21
3491.259815050882
 31
0.0
  0
LINE
  5
122
102
{ACAD_REACTORS
330
6E
102
}
330
2
100
AcDbEntity
  8
sapa_elevation
100
AcDbLine
 10
-1509.201890477014
 20
1041.08328444496
 30
0.0
 11
-1509.201890477014
 21
691.0832845702604
 31
0.0
  0
LINE
  5
123
330
2
100
AcDbEntity
  8
sapa_elevation
100
AcDbLine
 10
-1459.201890494914
 20
1041.08328444496
 30
0.0
 11
-1459.201890494914
 21
691.0832845702604
 31
0.0
  0
LINE
  5
124
102
{ACAD_REACTORS
330
6E
102
}
330
2
100
AcDbEntity
  8
sapa_elevation
100
AcDbLine
 10
-2659.201890065315
 20
1041.08328444496
 30
0.0
 11
-2659.201890065315
 21
691.0832845702604
 31
0.0
  0
LINE
  5
125
102
{ACAD_REACTORS
330
6E
102
}
330
2
100
AcDbEntity
  8
sapa_elevation
100
AcDbLine
 10
-2609.201890083215
 20
1041.08328444496
 30
0.0
 11
-2609.201890083215
 21
691.0832845702604
 31
0.0
  0
LINE
  5
126
330
2
100
AcDbEntity
  8
sapa_elevation
100
AcDbLine
 10
-1509.201890477014
 20
166.4367108463337
 30
0.0
 11
-2609.201890083215
 21
166.4367108463337
 31
0.0
  0
LINE
  5
127
102
{ACAD_REACTORS
330
6E
102
}
330
2
100
AcDbEntity
  8
sapa_elevation
100
AcDbLine
 10
-1509.201890477014
 20
216.4367108284338
 30
0.0
 11
-2609.201890083215
 21
216.4367108284338
 31
0.0
  0
LINE
  5
128
330
2
100
AcDbEntity
  8
sapa_elevation
100
AcDbLine
 10
-1509.201890477014
 20
1841.25981564157
 30
0.0
 11
-2609.201890083215
 21
1841.25981564157
 31
0.0
  0
LINE
  5
129
102
{ACAD_REACTORS
330
6E
102
}
330
2
100
AcDbEntity
  8
sapa_elevation
100
AcDbLine
 10
-1509.201890477014
 20
1791.25981565947
 30
0.0
 11
-2609.201890083215
 21
1791.25981565947
 31
0.0
  0
LINE
  5
12A
330
2
100
AcDbEntity
  8
sapa_elevation
100
AcDbLine
 10
-1459.201890494914
 20
4241.107975600571
 30
0.0
 11
-1459.201890494914
 21
1041.08328444496
 31
0.0
  0
LINE
  5
12B
102
{ACAD_REACTORS
330
6E
102
}
330
2
100
AcDbEntity
  8
sapa_elevation
100
AcDbLine
 10
-2659.201890065315
 20
4191.107975618471
 30
0.0
 11
-2659.201890065315
 21
1091.083284427048
 31
0.0
  0
LINE
  5
12C
102
{ACAD_REACTORS
330
6E
102
}
330
2
100
AcDbEntity
  8
sapa_elevation
100
AcDbLine
 10
-2609.201890083215
 20
4191.107975618471
 30
0.0
 11
-2609.201890083215
 21
1091.083284427048
 31
0.0
  0
LINE
  5
12D
102
{ACAD_REACTORS
330
6E
102
}
330
2
100
AcDbEntity
  8
sapa_elevation
100
AcDbLine
 10
-1509.201890477014
 20
4241.107975600571
 30
0.0
 11
-1509.201890477014
 21
1041.08328444496
 31
0.0
  0
LINE
  5
12E
102
{ACAD_REACTORS
330
6E
102
}
330
2
100
AcDbEntity
  8
sapa_elevation
100
AcDbLine
 10
-1509.201890477014
 20
-1433.563288580866
 30
0.0
 11
-2609.201890083215
 21
-1433.563288580866
 31
0.0
  0
LINE
  5
12F
330
2
100
AcDbEntity
  8
sapa_elevation
100
AcDbLine
 10
-1509.201890477014
 20
-1383.563288598766
 30
0.0
 11
-2609.201890083215
 21
-1383.563288598766
 31
0.0
  0
LINE
  5
130
102
{ACAD_REACTORS
330
6E
102
}
330
2
100
AcDbEntity
  8
sapa_elevation
100
AcDbLine
 10
-1459.201890494914
 20
-2133.563288330266
 30
0.0
 11
-2609.201890083215
 21
-2133.563288330266
 31
0.0
  0
LINE
  5
131
102
{ACAD_REACTORS
330
6E
102
}
330
2
100
AcDbEntity
  8
sapa_elevation
100
AcDbLine
 10
-1509.201890477014
 20
691.0832845702604
 30
0.0
 11
-1509.201890477014
 21
-2133.563288330266
 31
0.0
  0
LINE
  5
132
102
{ACAD_REACTORS
330
6E
102
}
330
2
100
AcDbEntity
  8
sapa_elevation
100
AcDbLine
 10
-2609.201890083215
 20
641.0832845881606
 30
0.0
 11
-2609.201890083215
 21
-2183.563288312366
 31
0.0
  0
LINE
  5
133
102
{ACAD_REACTORS
330
6E
102
}
330
2
100
AcDbEntity
  8
sapa_elevation
100
AcDbLine
 10
-2659.201890065315
 20
641.0832845881606
 30
0.0
 11
-2659.201890065315
 21
-2183.563288312366
 31
0.0
  0
LINE
  5
134
330
2
100
AcDbEntity
  8
sapa_elevation
100
AcDbLine
 10
-1459.201890494914
 20
691.0832845702604
 30
0.0
 11
-1459.201890494914
 21
-2183.563288312366
 31
0.0
  0
LINE
  5
135
102
{ACAD_REACTORS
330
6E
102
}
330
2
100
AcDbEntity
  8
sapa_elevation
100
AcDbLine
 10
-3809.201889653627
 20
1041.08328444496
 30
0.0
 11
-3809.201889653627
 21
691.0832845702604
 31
0.0
  0
LINE
  5
136
102
{ACAD_REACTORS
330
6E
102
}
330
2
100
AcDbEntity
  8
sapa_elevation
100
AcDbLine
 10
-3759.201889671527
 20
1041.08328444496
 30
0.0
 11
-3759.201889671527
 21
691.0832845702604
 31
0.0
  0
LINE
  5
137
330
2
100
AcDbEntity
  8
sapa_elevation
100
AcDbLine
 10
-4959.201889241927
 20
3491.259815050882
 30
0.0
 11
-6059.201888848114
 21
3491.259815050882
 31
0.0
  0
LINE
  5
138
330
2
100
AcDbEntity
  8
sapa_elevation
100
AcDbLine
 10
-4959.201889241927
 20
3441.259815068782
 30
0.0
 11
-6059.201888848114
 21
3441.259815068782
 31
0.0
  0
LINE
  5
139
102
{ACAD_REACTORS
330
6E
102
}
330
2
100
AcDbEntity
  8
sapa_elevation
100
AcDbLine
 10
-4909.201889259827
 20
691.0832845702604
 30
0.0
 11
-4909.201889259827
 21
1041.08328444496
 31
0.0
  0
LINE
  5
13A
102
{ACAD_REACTORS
330
6E
102
}
330
2
100
AcDbEntity
  8
sapa_elevation
100
AcDbLine
 10
-6059.201888848127
 20
1041.08328444496
 30
0.0
 11
-6059.201888848127
 21
691.0832845702604
 31
0.0
  0
LINE
  5
13B
330
2
100
AcDbEntity
  8
sapa_elevation
100
AcDbLine
 10
-4959.201889241927
 20
166.4367108463337
 30
0.0
 11
-6059.201888848114
 21
166.4367108463337
 31
0.0
  0
LINE
  5
13C
102
{ACAD_REACTORS
330
6E
102
}
330
2
100
AcDbEntity
  8
sapa_elevation
100
AcDbLine
 10
-4959.201889241927
 20
216.4367108284338
 30
0.0
 11
-6059.201888848114
 21
216.4367108284338
 31
0.0
  0
LINE
  5
13D
330
2
100
AcDbEntity
  8
sapa_elevation
100
AcDbLine
 10
-4959.201889241927
 20
1841.259815641581
 30
0.0
 11
-6059.201888848114
 21
1841.259815641581
 31
0.0
  0
LINE
  5
13E
102
{ACAD_REACTORS
330
6E
102
}
330
2
100
AcDbEntity
  8
sapa_elevation
100
AcDbLine
 10
-4959.201889241927
 20
1791.259815659482
 30
0.0
 11
-6059.201888848114
 21
1791.259815659482
 31
0.0
  0
LINE
  5
13F
330
2
100
AcDbEntity
  8
sapa_elevation
100
AcDbLine
 10
-3809.201889653614
 20
166.4367108463337
 30
0.0
 11
-4909.201889259827
 21
166.4367108463337
 31
0.0
  0
LINE
  5
140
102
{ACAD_REACTORS
330
6E
102
}
330
2
100
AcDbEntity
  8
sapa_elevation
100
AcDbLine
 10
-3809.201889653614
 20
216.4367108284338
 30
0.0
 11
-4909.201889259827
 21
216.4367108284338
 31
0.0
  0
LINE
  5
141
330
2
100
AcDbEntity
  8
sapa_elevation
100
AcDbLine
 10
-3809.201889653614
 20
3491.259815050882
 30
0.0
 11
-4909.201889259827
 21
3491.259815050882
 31
0.0
  0
LINE
  5
142
330
2
100
AcDbEntity
  8
sapa_elevation
100
AcDbLine
 10
-3809.201889653614
 20
3441.259815068782
 30
0.0
 11
-4909.201889259827
 21
3441.259815068769
 31
0.0
  0
LINE
  5
143
330
2
100
AcDbEntity
  8
sapa_elevation
100
AcDbLine
 10
-3809.201889653627
 20
1841.259815641581
 30
0.0
 11
-4909.201889259827
 21
1841.259815641581
 31
0.0
  0
LINE
  5
144
102
{ACAD_REACTORS
330
6E
102
}
330
2
100
AcDbEntity
  8
sapa_elevation
100
AcDbLine
 10
-3809.201889653627
 20
1791.259815659482
 30
0.0
 11
-4909.201889259827
 21
1791.259815659482
 31
0.0
  0
LINE
  5
145
102
{ACAD_REACTORS
330
6E
102
}
330
2
100
AcDbEntity
  8
sapa_elevation
100
AcDbLine
 10
-6059.201888848114
 20
4191.107975618471
 30
0.0
 11
-6059.201888848114
 21
1091.083284427048
 31
0.0
  0
LINE
  5
146
102
{ACAD_REACTORS
330
6E
102
}
330
2
100
AcDbEntity
  8
sapa_elevation
100
AcDbLine
 10
-3759.201889671527
 20
4191.107975618471
 30
0.0
 11
-3759.201889671527
 21
1091.083284427048
 31
0.0
  0
LINE
  5
147
102
{ACAD_REACTORS
330
6E
102
}
330
2
100
AcDbEntity
  8
sapa_elevation
100
AcDbLine
 10
-3809.201889653627
 20
4191.107975618471
 30
0.0
 11
-3809.201889653627
 21
1091.083284427048
 31
0.0
  0
LINE
  5
148
330
2
100
AcDbEntity
  8
sapa_elevation
100
AcDbLine
 10
-4959.201889241927
 20
1041.054008062839
 30
0.0
 11
-4959.201889241927
 21
1041.08328444496
 31
0.0
  0
LINE
  5
149
102
{ACAD_REACTORS
330
6E
102
}
330
2
100
AcDbEntity
  8
sapa_elevation
100
AcDbLine
 10
-4909.201889259827
 20
1041.08328444496
 30
0.0
 11
-4909.201889259827
 21
4241.107975600571
 31
0.0
  0
LINE
  5
14A
330
2
100
AcDbEntity
  8
sapa_elevation
100
AcDbLine
 10
-6109.201888830215
 20
3491.259815050882
 30
0.0
 11
-7209.201888436426
 21
3491.259815050882
 31
0.0
  0
LINE
  5
14B
330
2
100
AcDbEntity
  8
sapa_elevation
100
AcDbLine
 10
-6109.201888830215
 20
3441.259815068782
 30
0.0
 11
-7209.201888436426
 21
3441.259815068782
 31
0.0
  0
LINE
  5
14C
102
{ACAD_REACTORS
330
6E
102
}
330
2
100
AcDbEntity
  8
sapa_elevation
100
AcDbLine
 10
-6109.201888830226
 20
1041.08328444496
 30
0.0
 11
-6109.201888830226
 21
691.0832845702604
 31
0.0
  0
LINE
  5
14D
102
{ACAD_REACTORS
330
6E
102
}
330
2
100
AcDbEntity
  8
sapa_elevation
100
AcDbLine
 10
-7209.201888436426
 20
1041.08328444496
 30
0.0
 11
-7209.201888436426
 21
691.0832845702604
 31
0.0
  0
LINE
  5
14E
330
2
100
AcDbEntity
  8
sapa_elevation
100
AcDbLine
 10
-7259.201888418527
 20
1041.08328444496
 30
0.0
 11
-7259.201888418527
 21
691.0832845702604
 31
0.0
  0
LINE
  5
14F
330
2
100
AcDbEntity
  8
sapa_elevation
100
AcDbLine
 10
-6109.201888830215
 20
166.4367108463337
 30
0.0
 11
-7209.201888436426
 21
166.4367108463337
 31
0.0
  0
LINE
  5
150
102
{ACAD_REACTORS
330
6E
102
}
330
2
100
AcDbEntity
  8
sapa_elevation
100
AcDbLine
 10
-6109.201888830215
 20
216.4367108284338
 30
0.0
 11
-7209.201888436426
 21
216.4367108284338
 31
0.0
  0
LINE
  5
151
330
2
100
AcDbEntity
  8
sapa_elevation
100
AcDbLine
 10
-6109.201888830215
 20
1841.259815641581
 30
0.0
 11
-7209.201888436426
 21
1841.25981564157
 31
0.0
  0
LINE
  5
152
102
{ACAD_REACTORS
330
6E
102
}
330
2
100
AcDbEntity
  8
sapa_elevation
100
AcDbLine
 10
-6109.201888830215
 20
1791.259815659482
 30
0.0
 11
-7209.201888436426
 21
1791.25981565947
 31
0.0
  0
LINE
  5
153
102
{ACAD_REACTORS
330
6E
102
}
330
2
100
AcDbEntity
  8
sapa_elevation
100
AcDbLine
 10
-7209.201888436426
 20
4241.107975600571
 30
0.0
 11
-7209.201888436426
 21
691.0832845702604
 31
0.0
  0
LINE
  5
154
102
{ACAD_REACTORS
330
6E
102
}
330
2
100
AcDbEntity
  8
sapa_elevation
100
AcDbLine
 10
-6109.201888830215
 20
4191.107975618471
 30
0.0
 11
-6109.201888830215
 21
1091.083284427048
 31
0.0
  0
LINE
  5
155
330
2
100
AcDbEntity
  8
sapa_elevation
100
AcDbLine
 10
-7259.201888418527
 20
4241.107975600571
 30
0.0
 11
-7259.201888418527
 21
1041.08328444496
 31
0.0
  0
LINE
  5
156
330
2
100
AcDbEntity
  8
sapa_elevation
100
AcDbLine
 10
-7209.201888436426
 20
4191.107975618471
 30
0.0
 11
-4959.201889241927
 21
4191.107975618471
 31
0.0
  0
LINE
  5
157
102
{ACAD_REACTORS
330
6E
102
}
330
2
100
AcDbEntity
  8
sapa_elevation
100
AcDbLine
 10
-4959.201889241927
 20
1091.083284427048
 30
0.0
 11
-7209.201888436426
 21
1091.083284427048
 31
0.0
  0
LINE
  5
158
102
{ACAD_REACTORS
330
6E
102
}
330
2
100
AcDbEntity
  8
sapa_elevation
100
AcDbLine
 10
-4959.201889241927
 20
641.0832845881606
 30
0.0
 11
-7209.201888436426
 21
641.0832845881606
 31
0.0
  0
LINE
  5
159
102
{ACAD_REACTORS
330
6E
102
}
330
2
100
AcDbEntity
  8
sapa_elevation
100
AcDbLine
 10
-4959.201889241928
 20
691.0832845702606
 30
0.0
 11
-7259.201888418527
 21
691.0832845702604
 31
0.0
  0
LINE
  5
15A
102
{ACAD_REACTORS
330
6E
102
}
330
2
100
AcDbEntity
  8
sapa_elevation
100
AcDbLine
 10
-3249.902463169918
 20
1041.08328444496
 30
0.0
 11
-4909.201889259827
 21
1041.08328444496
 31
0.0
  0
LINE
  5
15B
330
2
100
AcDbEntity
  8
sapa_elevation
100
AcDbLine
 10
-4909.201889259827
 20
-1431.0756888861
 30
0.0
 11
-4903.732948621339
 21
-1425.606748247612
 31
0.0
  0
LINE
  5
15C
102
{ACAD_REACTORS
330
6E
102
}
330
2
100
AcDbEntity
  8
sapa_elevation
100
AcDbLine
 10
-4959.201889241927
 20
-1433.563288580866
 30
0.0
 11
-6059.201888848114
 21
-1433.563288580866
 31
0.0
  0
LINE
  5
15D
330
2
100
AcDbEntity
  8
sapa_elevation
100
AcDbLine
 10
-4959.201889241927
 20
-1383.563288598766
 30
0.0
 11
-6059.201888848114
 21
-1383.563288598766
 31
0.0
  0
LINE
  5
15E
102
{ACAD_REACTORS
330
6E
102
}
330
2
100
AcDbEntity
  8
sapa_elevation
100
AcDbLine
 10
-2659.201890065315
 20
-2133.563288330266
 30
0.0
 11
-3759.201889671515
 21
-2133.563288330266
 31
0.0
  0
LINE
  5
15F
102
{ACAD_REACTORS
330
6E
102
}
330
2
100
AcDbEntity
  8
sapa_elevation
100
AcDbLine
 10
-3809.201889653614
 20
-1433.563288580866
 30
0.0
 11
-4909.201889259827
 21
-1433.563288580866
 31
0.0
  0
LINE
  5
160
330
2
100
AcDbEntity
  8
sapa_elevation
100
AcDbLine
 10
-3809.201889653614
 20
-1383.563288598766
 30
0.0
 11
-4909.201889259827
 21
-1383.563288598766
 31
0.0
  0
LINE
  5
161
102
{ACAD_REACTORS
330
6E
102
}
330
2
100
AcDbEntity
  8
sapa_elevation
100
AcDbLine
 10
-6109.201888830215
 20
-1433.563288580866
 30
0.0
 11
-7209.201888436426
 21
-1433.563288580866
 31
0.0
  0
LINE
  5
162
330
2
100
AcDbEntity
  8
sapa_elevation
100
AcDbLine
 10
-6109.201888830215
 20
-1383.563288598766
 30
0.0
 11
-7209.201888436426
 21
-1383.563288598766
 31
0.0
  0
LINE
  5
163
102
{ACAD_REACTORS
330
6E
102
}
330
2
100
AcDbEntity
  8
sapa_elevation
100
AcDbLine
 10
-4959.201889241914
 20
-2133.563288330266
 30
0.0
 11
-7209.201888436426
 21
-2133.563288330266
 31
0.0
  0
LINE
  5
164
330
2
100
AcDbEntity
  8
sapa_elevation
100
AcDbLine
 10
-4909.201889259815
 20
-2183.563288312366
 30
0.0
 11
-7259.201888418527
 21
-2183.563288312366
 31
0.0
  0
LINE
  5
165
102
{ACAD_REACTORS
330
6E
102
}
330
2
100
AcDbEntity
  8
sapa_elevation
100
AcDbLine
 10
-4959.201889241914
 20
-2183.563288312366
 30
0.0
 11
-4959.20188924193
 21
1041.08328444496
 31
0.0
  0
LINE
  5
166
102
{ACAD_REACTORS
330
6E
102
}
330
2
100
AcDbEntity
  8
sapa_elevation
100
AcDbLine
 10
-4909.201889259815
 20
-2183.563288312366
 30
0.0
 11
-4909.201889259827
 21
691.0832845702604
 31
0.0
  0
LINE
  5
167
102
{ACAD_REACTORS
330
6E
102
}
330
2
100
AcDbEntity
  8
sapa_elevation
100
AcDbLine
 10
-7209.201888436426
 20
691.0832845702604
 30
0.0
 11
-7209.201888436426
 21
-2183.563288312366
 31
0.0
  0
LINE
  5
168
102
{ACAD_REACTORS
330
6E
102
}
330
2
100
AcDbEntity
  8
sapa_elevation
100
AcDbLine
 10
-6059.201888848114
 20
641.0832845881606
 30
0.0
 11
-6059.201888848114
 21
-2133.563288330266
 31
0.0
  0
LINE
  5
169
102
{ACAD_REACTORS
330
6E
102
}
330
2
100
AcDbEntity
  8
sapa_elevation
100
AcDbLine
 10
-6109.201888830215
 20
641.0832845881606
 30
0.0
 11
-6109.201888830215
 21
-2133.563288330266
 31
0.0
  0
LINE
  5
16A
102
{ACAD_REACTORS
330
6E
102
}
330
2
100
AcDbEntity
  8
sapa_elevation
100
AcDbLine
 10
-3759.201889671527
 20
641.0832845881606
 30
0.0
 11
-3759.201889671515
 21
-2183.563288312366
 31
0.0
  0
LINE
  5
16B
102
{ACAD_REACTORS
330
6E
102
}
330
2
100
AcDbEntity
  8
sapa_elevation
100
AcDbLine
 10
-3809.201889653627
 20
641.0832845881606
 30
0.0
 11
-3809.201889653614
 21
-2183.563288312366
 31
0.0
  0
LINE
  5
16C
330
2
100
AcDbEntity
  8
sapa_elevation
100
AcDbLine
 10
-7259.201888418527
 20
691.0832845702604
 30
0.0
 11
-7259.201888418527
 21
-2183.563288312366
 31
0.0
  0
LINE
  5
16D
330
2
100
AcDbEntity
  8
sapa_elevation
100
AcDbLine
 10
-1459.201890494914
 20
-2183.563288312366
 30
0.0
 11
-4909.201889259815
 21
-2183.563288312366
 31
0.0
  0
LINE
  5
16E
330
2
100
AcDbEntity
  8
sapa_elevation
100
AcDbLine
 10
-7259.201888418527
 20
4241.107975600571
 30
0.0
 11
-1459.201890494914
 21
4241.107975600571
 31
0.0
  0
LINE
  5
16F
330
2
100
AcDbEntity
  8
sapa_elevation
100
AcDbLine
 10
-4909.201889259827
 20
4191.107975618471
 30
0.0
 11
-1509.201890477014
 21
4191.107975618471
 31
0.0
  0
LINE
  5
170
330
2
100
AcDbEntity
  8
sapa_elevation
100
AcDbLine
 10
-2659.201890065315
 20
166.4367108463337
 30
0.0
 11
-3759.201889671515
 21
166.4367108463337
 31
0.0
  0
LINE
  5
171
102
{ACAD_REACTORS
330
6E
102
}
330
2
100
AcDbEntity
  8
sapa_elevation
100
AcDbLine
 10
-2659.201890065315
 20
216.4367108284338
 30
0.0
 11
-3759.201889671515
 21
216.4367108284338
 31
0.0
  0
LINE
  5
172
102
{ACAD_REACTORS
330
6E
102
}
330
2
100
AcDbEntity
  8
sapa_elevation
100
AcDbLine
 10
-1509.201890477027
 20
1091.083284427048
 30
0.0
 11
-4909.201889259827
 21
1091.083284427048
 31
0.0
  0
LINE
  5
173
102
{ACAD_REACTORS
330
6E
102
}
330
2
100
AcDbEntity
  8
sapa_elevation
100
AcDbLine
 10
-1459.201890494914
 20
1041.08328444496
 30
0.0
 11
-3068.728990368845
 21
1041.08328444496
 31
0.0
  0
LINE
  5
174
102
{ACAD_REACTORS
330
6E
102
}
330
2
100
AcDbEntity
  8
sapa_elevation
100
AcDbLine
 10
-1459.201890494914
 20
691.0832845702604
 30
0.0
 11
-4909.201889259827
 21
691.0832845702604
 31
0.0
  0
LINE
  5
175
102
{ACAD_REACTORS
330
6E
102
}
330
2
100
AcDbEntity
  8
sapa_elevation
100
AcDbLine
 10
-1509.201890477014
 20
641.0832845881606
 30
0.0
 11
-4909.201889259827
 21
641.0832845881606
 31
0.0
  0
LINE
  5
176
330
2
100
AcDbEntity
  8
sapa_elevation
100
AcDbLine
 10
-2659.201890065315
 20
1841.25981564157
 30
0.0
 11
-3759.201889671527
 21
1841.259815641581
 31
0.0
  0
LINE
  5
177
102
{ACAD_REACTORS
330
6E
102
}
330
2
100
AcDbEntity
  8
sapa_elevation
100
AcDbLine
 10
-2659.201890065315
 20
1791.25981565947
 30
0.0
 11
-3759.201889671527
 21
1791.259815659482
 31
0.0
  0
ENDSEC
  0
SECTION
  2
OBJECTS
  0
DICTIONARY
  5
B
330
0
100
AcDbDictionary
281
     1
  3
ACAD_COLOR
350
34
  3
ACAD_GROUP
350
2F
  3
ACAD_LAYOUT
350
11
  3
ACAD_MATERIAL
350
D
  3
ACAD_MLEADERSTYLE
350
37
  3
ACAD_MLINESTYLE
350
30
  3
ACAD_PLOTSETTINGS
350
31
  3
ACAD_PLOTSTYLENAME
350
A
  3
ACAD_SCALELIST
350
35
  3
ACAD_TABLESTYLE
350
36
  3
ACAD_VISUALSTYLE
350
26
  3
ACDB_RECOMPOSE_DATA
350
185
  3
AcDbVariableDictionary
350
179
  3
AcDsDecomposeData
350
18B
  0
DICTIONARY
  5
28
330
23
100
AcDbDictionary
280
     1
281
     1
  0
DICTIONARY
  5
19
330
18
100
AcDbDictionary
280
     1
281
     1
  3
ACAD_LAYERSTATES
360
1A
  0
DICTIONARY
  5
7
330
6
100
AcDbDictionary
280
     1
281
     1
  3
ADSK_XREC_LAYER_RECONCILED
360
8
  0
DICTIONARY
  5
39
330
38
100
AcDbDictionary
280
     1
281
     1
  3
ADSK_XREC_LAYER_RECONCILED
360
3A
  0
DICTIONARY
  5
3
330
2
100
AcDbDictionary
280
     1
281
     1
  3
ACAD_SORTENTS
360
178
  0
DICTIONARY
  5
34
102
{ACAD_REACTORS
330
B
102
}
330
B
100
AcDbDictionary
281
     1
  0
DICTIONARY
  5
2F
102
{ACAD_REACTORS
330
B
102
}
330
B
100
AcDbDictionary
281
     1
  0
DICTIONARY
  5
11
102
{ACAD_REACTORS
330
B
102
}
330
B
100
AcDbDictionary
281
     1
  3
Model
350
10
  3
Web
350
16
  0
DICTIONARY
  5
D
102
{ACAD_REACTORS
330
B
102
}
330
B
100
AcDbDictionary
281
     1
  3
ByBlock
350
33
  3
ByLayer
350
32
  3
Global
350
C
  0
DICTIONARY
  5
37
102
{ACAD_REACTORS
330
B
102
}
330
B
100
AcDbDictionary
281
     1
  0
DICTIONARY
  5
30
102
{ACAD_REACTORS
330
B
102
}
330
B
100
AcDbDictionary
281
     1
  3
STANDARD
350
3C
  0
DICTIONARY
  5
31
102
{ACAD_REACTORS
330
B
102
}
330
B
100
AcDbDictionary
281
     1
  0
ACDBDICTIONARYWDFLT
  5
A
102
{ACAD_REACTORS
330
B
102
}
330
B
100
AcDbDictionary
281
     1
  3
Normal
350
9
100
AcDbDictionaryWithDefault
340
9
  0
DICTIONARY
  5
35
102
{ACAD_REACTORS
330
B
102
}
330
B
100
AcDbDictionary
281
     1
  3
*A1
350
41
  3
*A10
350
42
  3
*A11
350
43
  3
*A12
350
44
  3
*A13
350
45
  3
*A14
350
46
  3
*A15
350
47
  3
*A16
350
48
  3
*A2
350
49
  3
*A3
350
4A
  3
*A4
350
4B
  3
*A5
350
4C
  3
*A6
350
4D
  3
*A7
350
4E
  3
*A8
350
4F
  3
*A9
350
50
  3
A0
350
51
  3
A1
350
52
  3
A2
350
53
  3
A3
350
54
  3
A4
350
55
  3
A5
350
56
  3
A6
350
57
  3
A7
350
58
  3
A8
350
59
  3
A9
350
5A
  3
B0
350
5B
  3
B1
350
5C
  3
B2
350
5D
  3
B3
350
5E
  3
B4
350
5F
  3
B5
350
60
  3
B6
350
61
  0
DICTIONARY
  5
36
102
{ACAD_REACTORS
330
B
102
}
330
B
100
AcDbDictionary
281
     1
  3
Standard
350
3D
  0
DICTIONARY
  5
26
102
{ACAD_REACTORS
330
B
102
}
330
B
100
AcDbDictionary
281
     1
  3
2dWireframe
350
25
  3
3dWireframe
350
40
  3
Realistic
350
3F
  0
XRECORD
  5
185
102
{ACAD_REACTORS
330
B
102
}
330
B
100
AcDbXrecord
280
     1
 90
        1
330
3D
  0
DICTIONARY
  5
179
102
{ACAD_REACTORS
330
B
102
}
330
B
100
AcDbDictionary
281
     1
  3
CANNOSCALE
350
17F
  3
CMLEADERSTYLE
350
17B
  3
CTABLESTYLE
350
17A
  3
CVIEWDETAILSTYLE
350
17C
  3
CVIEWSECTIONSTYLE
350
17D
  3
LAYEREVAL
350
181
  3
LAYERNOTIFY
350
182
  3
LIGHTINGUNITS
350
180
  3
MSLTSCALE
350
17E
  0
DICTIONARY
  5
18B
102
{ACAD_REACTORS
330
B
102
}
330
B
100
AcDbDictionary
281
     1
  3
AcDsRecords
350
18D
  3
AcDsSchemas
350
18C
1001
ACAD
1070
     2
  0
DICTIONARY
  5
1A
102
{ACAD_REACTORS
330
19
102
}
330
19
100
AcDbDictionary
281
     1
  0
XRECORD
  5
8
102
{ACAD_REACTORS
330
7
102
}
330
7
100
AcDbXrecord
280
     1
290
     1
  0
XRECORD
  5
3A
102
{ACAD_REACTORS
330
39
102
}
330
39
100
AcDbXrecord
280
     1
290
     1
  0
SORTENTSTABLE
  5
178
102
{ACAD_REACTORS
330
3
102
}
330
3
100
AcDbSortentsTable
330
2
331
12C
  5
107
331
B6
  5
14B
331
71
  5
A1
331
16B
  5
85
331
BE
  5
143
331
134
  5
EC
331
173
  5
70
331
C6
  5
13B
331
87
  5
16C
331
13C
  5
C5
331
144
  5
BD
331
8F
  5
164
331
105
  5
12E
331
14C
  5
B4
331
154
  5
AC
331
11D
  5
123
331
A7
  5
15A
331
15C
  5
A3
331
164
  5
8C
331
AF
  5
152
331
EE
  5
132
331
125
  5
11B
331
12D
  5
106
331
B7
  5
14A
331
62
  5
177
331
6A
  5
175
331
72
  5
174
331
135
  5
EB
331
80
  5
173
331
BF
  5
142
331
16C
  5
84
331
13D
  5
C4
331
88
  5
16B
331
C7
  5
13A
331
174
  5
6F
331
106
  5
12D
331
90
  5
163
331
145
  5
BC
331
14D
  5
B3
331
A0
  5
161
331
155
  5
AB
331
11E
  5
122
331
A8
  5
159
331
15D
  5
A2
331
126
  5
11A
331
165
  5
8B
331
B0
  5
151
331
EF
  5
131
331
12E
  5
105
331
B8
  5
149
331
16D
  5
83
331
C0
  5
141
331
81
  5
172
331
136
  5
DC
331
13E
  5
C3
331
C8
  5
139
331
175
  5
6E
331
89
  5
16A
331
146
  5
BB
331
91
  5
162
331
107
  5
12C
331
14E
  5
B2
331
117
  5
129
331
A1
  5
160
331
156
  5
AA
331
11F
  5
121
331
A9
  5
158
331
15E
  5
A0
331
166
  5
8A
331
B1
  5
150
331
127
  5
119
331
12F
  5
104
331
B9
  5
148
331
137
  5
CA
331
82
  5
171
331
C1
  5
140
331
16E
  5
82
331
13F
  5
C2
331
8A
  5
169
331
C9
  5
138
331
176
  5
6A
331
108
  5
12B
331
147
  5
BA
331
14F
  5
B1
331
157
  5
A9
331
A2
  5
15F
331
118
  5
128
331
AA
  5
157
331
15F
  5
91
331
128
  5
118
331
B2
  5
14F
331
167
  5
89
331
130
  5
103
331
BA
  5
147
331
16F
  5
81
331
C2
  5
13F
331
83
  5
170
331
138
  5
C9
331
140
  5
C1
331
8B
  5
168
331
CA
  5
137
331
177
  5
66
331
148
  5
B8
331
109
  5
12A
331
150
  5
B0
331
119
  5
127
331
A3
  5
15E
331
158
  5
A8
331
160
  5
90
331
121
  5
11F
331
AB
  5
156
331
B3
  5
14E
331
129
  5
117
331
66
  5
176
331
6E
  5
62
331
131
  5
EF
331
BB
  5
146
331
168
  5
88
331
139
  5
C8
331
84
  5
16F
331
C3
  5
13E
331
170
  5
80
331
8C
  5
167
331
141
  5
C0
331
149
  5
B7
331
151
  5
AF
331
159
  5
A7
331
A4
  5
15D
331
11A
  5
126
331
122
  5
11E
331
161
  5
8F
331
AC
  5
155
331
EB
  5
135
331
12A
  5
109
331
B4
  5
14D
331
6F
  5
B9
331
169
  5
87
331
132
  5
EE
331
BC
  5
145
331
171
  5
72
331
C4
  5
13D
331
85
  5
16E
331
13A
  5
C7
331
142
  5
BF
331
8D
  5
166
331
103
  5
130
331
14A
  5
B6
331
152
  5
AE
331
DC
  5
136
331
11B
  5
125
331
A5
  5
15C
331
15A
  5
A5
331
162
  5
8E
331
AD
  5
154
331
EC
  5
134
331
123
  5
11D
331
B5
  5
14C
331
12B
  5
108
331
70
  5
A6
331
133
  5
ED
331
BD
  5
144
331
16A
  5
86
331
13B
  5
C6
331
86
  5
16D
331
C5
  5
13C
331
172
  5
71
331
104
  5
12F
331
8E
  5
165
331
143
  5
BE
331
14B
  5
B5
331
153
  5
AD
331
11C
  5
124
331
A6
  5
15B
331
15B
  5
A4
331
124
  5
11C
331
163
  5
8D
331
AE
  5
153
331
ED
  5
133
  0
LAYOUT
  5
10
102
{ACAD_REACTORS
330
11
102
}
330
11
100
AcDbPlotSettings
  1

  2
none_device
  4
ISO_A4_(210.00_x_297.00_MM)
  6

 40
7.5
 41
20.0
 42
7.5
 43
20.0
 44
210.0
 45
297.0
 46
0.0
 47
0.0
 48
0.0
 49
0.0
140
0.0
141
0.0
142
1.0
143
103.2583531191693
 70
 11952
 72
     1
 73
     1
 74
     0
  7
sapa1.ctb
 75
     0
147
0.0096844465342761
 76
     0
 77
     2
 78
   300
148
16691.4774296741
149
4696.823409379648
100
AcDbLayout
  1
Model
 70
     1
 71
     0
 10
0.0
 20
0.0
 11
12.0
 21
9.0
 12
0.0
 22
0.0
 32
0.0
 14
0.0
 24
0.0
 34
0.0
 15
0.0
 25
0.0
 35
0.0
146
0.0
 13
0.0
 23
0.0
 33
0.0
 16
1.0
 26
0.0
 36
0.0
 17
0.0
 27
1.0
 37
0.0
 76
     0
330
2
331
24
1001
ACAD_PSEXT
1000
None
1000
None
1000
Not applicable
1000
The layout will not be plotted unless a new plotter configuration name is selected.
1070
     0
  0
LAYOUT
  5
16
102
{ACAD_XDICTIONARY
360
17
102
}
102
{ACAD_REACTORS
330
11
102
}
330
11
100
AcDbPlotSettings
  1

  2
frontp04.pc3
  4
A4
  6

 40
4.233333110809326
 41
4.233341693878173
 42
4.233322143554687
 43
4.23333740234375
 44
209.9733276367187
 45
296.9259948730469
 46
12.0
 47
0.0
 48
0.0
 49
0.0
140
0.0
141
0.0
142
1.0
143
1.0
 70
   688
 72
     1
 73
     0
 74
     1
  7
sapa2.ctb
 75
    16
147
1.0
 76
     1
 77
     2
 78
   300
148
-1.826818110860415
149
0.0203279535528509
100
AcDbLayout
  1
Web
 70
     1
 71
     1
 10
-14.40651499994891
 20
-4.253669647431024
 11
195.5668126367698
 21
292.6723252256159
 12
0.0
 22
0.0
 32
0.0
 14
5.869999703752308
 24
-0.0000001723469722
 34
0.0
 15
185.8683605469043
 25
282.999999827653
 35
0.0
146
0.0
 13
0.0
 23
0.0
 33
0.0
 16
1.0
 26
0.0
 36
0.0
 17
0.0
 27
1.0
 37
0.0
 76
     0
330
13
1001
ACAD_PSEXT
1000
frontp04.pc3
1000
HP LaserJet 4200 PCL6
1000
Sapa Building System
1000
HP Laserjet 4200n, pcl 6
1070
     0
  0
MATERIAL
  5
33
102
{ACAD_REACTORS
330
D
102
}
330
D
100
AcDbMaterial
  1
ByBlock
 73
     1
 78
     1
172
     1
176
     1
270
     1
274
     1
 94
       63
  0
MATERIAL
  5
32
102
{ACAD_REACTORS
330
D
102
}
330
D
100
AcDbMaterial
  1
ByLayer
 73
     1
 78
     1
172
     1
176
     1
270
     1
274
     1
 94
       63
  0
MATERIAL
  5
C
102
{ACAD_REACTORS
330
D
102
}
330
D
100
AcDbMaterial
  1
Global
 73
     1
 78
     1
172
     1
176
     1
270
     1
274
     1
 94
       63
  0
MLINESTYLE
  5
3C
102
{ACAD_REACTORS
330
30
102
}
330
30
100
AcDbMlineStyle
  2
STANDARD
 70
     0
  3

 62
   256
 51
90.0
 52
90.0
 71
     2
 49
0.5
 62
   256
  6
BYLAYER
 49
-0.5
 62
   256
  6
BYLAYER
  0
ACDBPLACEHOLDER
  5
9
102
{ACAD_REACTORS
330
A
102
}
330
A
  0
SCALE
  5
41
102
{ACAD_REACTORS
330
35
102
}
330
35
100
AcDbScale
 70
     0
300
1/128" = 1'-0"_XREF
140
0.0078125
141
12.0
290
     0
  0
SCALE
  5
42
102
{ACAD_REACTORS
330
35
102
}
330
35
100
AcDbScale
 70
     0
300
3/4" = 1'-0"_XREF
140
0.75
141
12.0
290
     0
  0
SCALE
  5
43
102
{ACAD_REACTORS
330
35
102
}
330
35
100
AcDbScale
 70
     0
300
1" = 1'-0"_XREF
140
1.0
141
12.0
290
     0
  0
SCALE
  5
44
102
{ACAD_REACTORS
330
35
102
}
330
35
100
AcDbScale
 70
     0
300
1-1/2" = 1'-0"_XREF
140
1.5
141
12.0
290
     0
  0
SCALE
  5
45
102
{ACAD_REACTORS
330
35
102
}
330
35
100
AcDbScale
 70
     0
300
3" = 1'-0"_XREF
140
3.0
141
12.0
290
     0
  0
SCALE
  5
46
102
{ACAD_REACTORS
330
35
102
}
330
35
100
AcDbScale
 70
     0
300
6" = 1'-0"_XREF
140
6.0
141
12.0
290
     0
  0
SCALE
  5
47
102
{ACAD_REACTORS
330
35
102
}
330
35
100
AcDbScale
 70
     0
300
1'-0" = 1'-0"_XREF
140
12.0
141
12.0
290
     0
  0
SCALE
  5
48
102
{ACAD_REACTORS
330
35
102
}
330
35
100
AcDbScale
 70
     0
300
1/64" = 1'-0"_XREF
140
0.015625
141
12.0
290
     0
  0
SCALE
  5
49
102
{ACAD_REACTORS
330
35
102
}
330
35
100
AcDbScale
 70
     0
300
1/32" = 1'-0"_XREF
140
0.03125
141
12.0
290
     0
  0
SCALE
  5
4A
102
{ACAD_REACTORS
330
35
102
}
330
35
100
AcDbScale
 70
     0
300
1/16" = 1'-0"_XREF
140
0.0625
141
12.0
290
     0
  0
SCALE
  5
4B
102
{ACAD_REACTORS
330
35
102
}
330
35
100
AcDbScale
 70
     0
300
3/32" = 1'-0"_XREF
140
0.09375
141
12.0
290
     0
  0
SCALE
  5
4C
102
{ACAD_REACTORS
330
35
102
}
330
35
100
AcDbScale
 70
     0
300
1/8" = 1'-0"_XREF
140
0.125
141
12.0
290
     0
  0
SCALE
  5
4D
102
{ACAD_REACTORS
330
35
102
}
330
35
100
AcDbScale
 70
     0
300
3/16" = 1'-0"_XREF
140
0.1875
141
12.0
290
     0
  0
SCALE
  5
4E
102
{ACAD_REACTORS
330
35
102
}
330
35
100
AcDbScale
 70
     0
300
1/4" = 1'-0"_XREF
140
0.25
141
12.0
290
     0
  0
SCALE
  5
4F
102
{ACAD_REACTORS
330
35
102
}
330
35
100
AcDbScale
 70
     0
300
3/8" = 1'-0"_XREF
140
0.375
141
12.0
290
     0
  0
SCALE
  5
50
102
{ACAD_REACTORS
330
35
102
}
330
35
100
AcDbScale
 70
     0
300
1/2" = 1'-0"_XREF
140
0.5
141
12.0
290
     0
  0
SCALE
  5
51
102
{ACAD_REACTORS
330
35
102
}
330
35
100
AcDbScale
 70
     0
300
1:1
140
1.0
141
1.0
290
     1
  0
SCALE
  5
52
102
{ACAD_REACTORS
330
35
102
}
330
35
100
AcDbScale
 70
     0
300
1:2
140
1.0
141
2.0
290
     0
  0
SCALE
  5
53
102
{ACAD_REACTORS
330
35
102
}
330
35
100
AcDbScale
 70
     0
300
1:4
140
1.0
141
4.0
290
     0
  0
SCALE
  5
54
102
{ACAD_REACTORS
330
35
102
}
330
35
100
AcDbScale
 70
     0
300
1:5
140
1.0
141
5.0
290
     0
  0
SCALE
  5
55
102
{ACAD_REACTORS
330
35
102
}
330
35
100
AcDbScale
 70
     0
300
1:8
140
1.0
141
8.0
290
     0
  0
SCALE
  5
56
102
{ACAD_REACTORS
330
35
102
}
330
35
100
AcDbScale
 70
     0
300
1:10
140
1.0
141
10.0
290
     0
  0
SCALE
  5
57
102
{ACAD_REACTORS
330
35
102
}
330
35
100
AcDbScale
 70
     0
300
1:16
140
1.0
141
16.0
290
     0
  0
SCALE
  5
58
102
{ACAD_REACTORS
330
35
102
}
330
35
100
AcDbScale
 70
     0
300
1:20
140
1.0
141
20.0
290
     0
  0
SCALE
  5
59
102
{ACAD_REACTORS
330
35
102
}
330
35
100
AcDbScale
 70
     0
300
1:30
140
1.0
141
30.0
290
     0
  0
SCALE
  5
5A
102
{ACAD_REACTORS
330
35
102
}
330
35
100
AcDbScale
 70
     0
300
1:40
140
1.0
141
40.0
290
     0
  0
SCALE
  5
5B
102
{ACAD_REACTORS
330
35
102
}
330
35
100
AcDbScale
 70
     0
300
1:50
140
1.0
141
50.0
290
     0
  0
SCALE
  5
5C
102
{ACAD_REACTORS
330
35
102
}
330
35
100
AcDbScale
 70
     0
300
1:100
140
1.0
141
100.0
290
     0
  0
SCALE
  5
5D
102
{ACAD_REACTORS
330
35
102
}
330
35
100
AcDbScale
 70
     0
300
2:1
140
2.0
141
1.0
290
     0
  0
SCALE
  5
5E
102
{ACAD_REACTORS
330
35
102
}
330
35
100
AcDbScale
 70
     0
300
4:1
140
4.0
141
1.0
290
     0
  0
SCALE
  5
5F
102
{ACAD_REACTORS
330
35
102
}
330
35
100
AcDbScale
 70
     0
300
8:1
140
8.0
141
1.0
290
     0
  0
SCALE
  5
60
102
{ACAD_REACTORS
330
35
102
}
330
35
100
AcDbScale
 70
     0
300
10:1
140
10.0
141
1.0
290
     0
  0
SCALE
  5
61
102
{ACAD_REACTORS
330
35
102
}
330
35
100
AcDbScale
 70
     0
300
100:1
140
100.0
141
1.0
290
     0
  0
TABLESTYLE
  5
3D
102
{ACAD_XDICTIONARY
360
3E
102
}
102
{ACAD_REACTORS
330
36
102
}
330
36
100
AcDbTableStyle
  3
Standard
 70
     0
 71
     0
 40
1.5
 41
1.5
280
     0
281
     0
  7
STANDARD
140
4.5
170
     2
 62
     0
 63
     7
283
     0
 90
        4
 91
        0
  1

274
    -2
284
     1
 64
     0
275
    -2
285
     1
 65
     0
276
    -2
286
     1
 66
     0
277
    -2
287
     1
 67
     0
278
    -2
288
     1
 68
     0
279
    -2
289
     1
 69
     0
  7
STANDARD
140
6.0
170
     5
 62
     0
 63
     7
283
     0
 90
        4
 91
        0
  1

274
    -2
284
     1
 64
     0
275
    -2
285
     1
 65
     0
276
    -2
286
     1
 66
     0
277
    -2
287
     1
 67
     0
278
    -2
288
     1
 68
     0
279
    -2
289
     1
 69
     0
  7
STANDARD
140
4.5
170
     5
 62
     0
 63
     7
283
     0
 90
        4
 91
        0
  1

274
    -2
284
     1
 64
     0
275
    -2
285
     1
 65
     0
276
    -2
286
     1
 66
     0
277
    -2
287
     1
 67
     0
278
    -2
288
     1
 68
     0
279
    -2
289
     1
 69
     0
  0
VISUALSTYLE
  5
25
102
{ACAD_XDICTIONARY
360
18E
102
}
102
{ACAD_REACTORS
330
26
102
}
330
26
100
AcDbVisualStyle
  2
2dWireframe
 70
     4
 71
     0
 72
     2
 73
     0
 90
        0
 40
-0.6
 41
-30.0
 62
     5
 63
     7
421
 16777215
 74
     1
 91
        4
 64
     7
 65
   257
 75
     1
175
     1
 42
1.0
 92
        0
 66
   257
 43
1.0
 76
     1
 77
     6
 78
     2
 67
     7
 79
     5
170
     0
171
     0
290
     0
174
     0
 93
        1
 44
0.0
173
     0
291
     0
 45
0.0
1001
ACAD
1000
AcDbSavedByObjectVersion
1070
     0
  0
VISUALSTYLE
  5
40
102
{ACAD_XDICTIONARY
360
192
102
}
102
{ACAD_REACTORS
330
26
102
}
330
26
100
AcDbVisualStyle
  2
3dWireframe
 70
     5
 71
     0
 72
     2
 73
     0
 90
        0
 40
-0.6
 41
-30.0
 62
     5
 63
     7
421
 16777215
 74
     1
 91
        4
 64
     7
 65
   257
 75
     1
175
     1
 42
1.0
 92
        0
 66
   257
 43
1.0
 76
     1
 77
     6
 78
     2
 67
     7
 79
     5
170
     0
171
     0
290
     0
174
     0
 93
        1
 44
0.0
173
     0
291
     0
 45
0.0
1001
ACAD
1000
AcDbSavedByObjectVersion
1070
     0
  0
VISUALSTYLE
  5
3F
102
{ACAD_XDICTIONARY
360
190
102
}
102
{ACAD_REACTORS
330
26
102
}
330
26
100
AcDbVisualStyle
  2
Realistic
 70
     8
 71
     2
 72
     2
 73
     0
 90
        0
 40
-0.6
 41
-30.0
 62
     5
 63
     7
421
 16777215
 74
     1
 91
        0
 64
     7
 65
   257
 75
     1
175
     1
 42
1.0
 92
        8
 66
     8
424
  7895160
 43
1.0
 76
     1
 77
     6
 78
     2
 67
     7
 79
     5
170
     0
171
     0
290
     0
174
     0
 93
       13
 44
0.0
173
     0
291
     0
 45
0.0
1001
ACAD
1000
AcDbSavedByObjectVersion
1070
     0
  0
DICTIONARYVAR
  5
17F
102
{ACAD_REACTORS
330
179
102
}
330
179
100
DictionaryVariables
280
     0
  1
1:1
  0
DICTIONARYVAR
  5
17B
102
{ACAD_REACTORS
330
179
102
}
330
179
100
DictionaryVariables
280
     0
  1
STANDARD
  0
DICTIONARYVAR
  5
17A
102
{ACAD_REACTORS
330
179
102
}
330
179
100
DictionaryVariables
280
     0
  1
STANDARD
  0
DICTIONARYVAR
  5
17C
102
{ACAD_REACTORS
330
179
102
}
330
179
100
DictionaryVariables
280
     0
  1

  0
DICTIONARYVAR
  5
17D
102
{ACAD_REACTORS
330
179
102
}
330
179
100
DictionaryVariables
280
     0
  1

  0
DICTIONARYVAR
  5
181
102
{ACAD_REACTORS
330
179
102
}
330
179
100
DictionaryVariables
280
     0
  1
1
  0
DICTIONARYVAR
  5
182
102
{ACAD_REACTORS
330
179
102
}
330
179
100
DictionaryVariables
280
     0
  1
15
  0
DICTIONARYVAR
  5
180
102
{ACAD_REACTORS
330
179
102
}
330
179
100
DictionaryVariables
280
     0
  1
0
  0
DICTIONARYVAR
  5
17E
102
{ACAD_REACTORS
330
179
102
}
330
179
100
DictionaryVariables
280
     0
  1
0
  0
DICTIONARY
  5
18D
102
{ACAD_REACTORS
330
18B
102
}
330
18B
100
AcDbDictionary
281
     1
  0
DICTIONARY
  5
18C
102
{ACAD_REACTORS
330
18B
102
}
330
18B
100
AcDbDictionary
281
     1
  3
2130184432
350
186
  3
2130184440
350
187
  3
2130184448
350
188
  3
2130184456
350
189
  3
2130184464
350
18A
  0
DICTIONARY
  5
17
330
16
100
AcDbDictionary
280
     1
281
     1
  0
DICTIONARY
  5
3E
330
3D
100
AcDbDictionary
280
     1
281
     1
  3
ACAD_ROUNDTRIP_2008_TABLESTYLE_CELLSTYLEMAP
360
183
  0
DICTIONARY
  5
18E
330
25
100
AcDbDictionary
280
     1
281
     1
  3
ACAD_XREC_ROUNDTRIP
360
18F
  0
DICTIONARY
  5
192
330
40
100
AcDbDictionary
280
     1
281
     1
  3
ACAD_XREC_ROUNDTRIP
360
193
  0
DICTIONARY
  5
190
330
3F
100
AcDbDictionary
280
     1
281
     1
  3
ACAD_XREC_ROUNDTRIP
360
191
  0
XRECORD
  5
186
102
{ACAD_REACTORS
330
18C
102
}
330
18C
100
AcDbXrecord
280
     1
  1
AcDb_Thumbnail_Schema
102
{ATTRRECORD
341
187
  2
AcDbDs::TreatedAsObjectData
280
     1
291
     1
102
ATTRRECORD}
102
{ATTRRECORD
341
188
  2
AcDbDs::Legacy
280
     1
291
     1
102
ATTRRECORD}
  2
AcDbDs::ID
280
    10
 91
        8
102
{ATTRRECORD
341
189
  2
AcDs:Indexable
280
     1
291
     1
102
ATTRRECORD}
102
{ATTRRECORD
341
18A
  2
AcDbDs::HandleAttribute
280
     7
282
     1
102
ATTRRECORD}
  2
Thumbnail_Data
280
    15
 91
        0
  0
XRECORD
  5
187
102
{ACAD_REACTORS
330
18C
102
}
330
18C
100
AcDbXrecord
280
     1
  1
AcDbDs::TreatedAsObjectDataSchema
  2
AcDbDs::TreatedAsObjectData
280
     1
 91
        0
  0
XRECORD
  5
188
102
{ACAD_REACTORS
330
18C
102
}
330
18C
100
AcDbXrecord
280
     1
  1
AcDbDs::LegacySchema
  2
AcDbDs::Legacy
280
     1
 91
        0
  0
XRECORD
  5
189
102
{ACAD_REACTORS
330
18C
102
}
330
18C
100
AcDbXrecord
280
     1
  1
AcDbDs::IndexedPropertySchema
  2
AcDs:Indexable
280
     1
 91
        0
  0
XRECORD
  5
18A
102
{ACAD_REACTORS
330
18C
102
}
330
18C
100
AcDbXrecord
280
     1
  1
AcDbDs::HandleAttributeSchema
  2
AcDbDs::HandleAttribute
280
     7
 91
        1
284
     1
  0
CELLSTYLEMAP
  5
183
102
{ACAD_REACTORS
330
3E
102
}
330
3E
100
AcDbCellStyleMap
 90
        3
300
CELLSTYLE
  1
TABLEFORMAT_BEGIN
 90
        5
170
     1
 91
        0
 92
    32768
 62
   257
 93
        1
300
CONTENTFORMAT
  1
CONTENTFORMAT_BEGIN
 90
        0
 91
        0
 92
        4
 93
        0
300

 40
0.0
140
1.0
 94
        5
 62
     0
340
1C
144
6.0
309
CONTENTFORMAT_END
171
     1
301
MARGIN
  1
CELLMARGIN_BEGIN
 40
1.5
 40
1.5
 40
1.5
 40
1.5
 40
0.18
 40
0.18
309
CELLMARGIN_END
 94
        6
 95
        1
302
GRIDFORMAT
  1
GRIDFORMAT_BEGIN
 90
        0
 91
        1
 62
     0
 92
       -2
340
0
 93
        0
 40
0.045
309
GRIDFORMAT_END
 95
        2
302
GRIDFORMAT
  1
GRIDFORMAT_BEGIN
 90
        0
 91
        1
 62
     0
 92
       -2
340
0
 93
        0
 40
0.045
309
GRIDFORMAT_END
 95
        4
302
GRIDFORMAT
  1
GRIDFORMAT_BEGIN
 90
        0
 91
        1
 62
     0
 92
       -2
340
0
 93
        0
 40
0.045
309
GRIDFORMAT_END
 95
        8
302
GRIDFORMAT
  1
GRIDFORMAT_BEGIN
 90
        0
 91
        1
 62
     0
 92
       -2
340
0
 93
        0
 40
0.045
309
GRIDFORMAT_END
 95
       16
302
GRIDFORMAT
  1
GRIDFORMAT_BEGIN
 90
        0
 91
        1
 62
     0
 92
       -2
340
0
 93
        0
 40
0.045
309
GRIDFORMAT_END
 95
       32
302
GRIDFORMAT
  1
GRIDFORMAT_BEGIN
 90
        0
 91
        1
 62
     0
 92
       -2
340
0
 93
        0
 40
0.045
309
GRIDFORMAT_END
309
TABLEFORMAT_END
  1
CELLSTYLE_BEGIN
 90
        1
 91
        1
300
_TITLE
309
CELLSTYLE_END
300
CELLSTYLE
  1
TABLEFORMAT_BEGIN
 90
        5
170
     1
 91
        0
 92
        0
 62
   257
 93
        1
300
CONTENTFORMAT
  1
CONTENTFORMAT_BEGIN
 90
        0
 91
        0
 92
        4
 93
        0
300

 40
0.0
140
1.0
 94
        5
 62
     0
340
1C
144
4.5
309
CONTENTFORMAT_END
171
     1
301
MARGIN
  1
CELLMARGIN_BEGIN
 40
1.5
 40
1.5
 40
1.5
 40
1.5
 40
0.18
 40
0.18
309
CELLMARGIN_END
 94
        6
 95
        1
302
GRIDFORMAT
  1
GRIDFORMAT_BEGIN
 90
        0
 91
        1
 62
     0
 92
       -2
340
0
 93
        0
 40
0.045
309
GRIDFORMAT_END
 95
        2
302
GRIDFORMAT
  1
GRIDFORMAT_BEGIN
 90
        0
 91
        1
 62
     0
 92
       -2
340
0
 93
        0
 40
0.045
309
GRIDFORMAT_END
 95
        4
302
GRIDFORMAT
  1
GRIDFORMAT_BEGIN
 90
        0
 91
        1
 62
     0
 92
       -2
340
0
 93
        0
 40
0.045
309
GRIDFORMAT_END
 95
        8
302
GRIDFORMAT
  1
GRIDFORMAT_BEGIN
 90
        0
 91
        1
 62
     0
 92
       -2
340
0
 93
        0
 40
0.045
309
GRIDFORMAT_END
 95
       16
302
GRIDFORMAT
  1
GRIDFORMAT_BEGIN
 90
        0
 91
        1
 62
     0
 92
       -2
340
0
 93
        0
 40
0.045
309
GRIDFORMAT_END
 95
       32
302
GRIDFORMAT
  1
GRIDFORMAT_BEGIN
 90
        0
 91
        1
 62
     0
 92
       -2
340
0
 93
        0
 40
0.045
309
GRIDFORMAT_END
309
TABLEFORMAT_END
  1
CELLSTYLE_BEGIN
 90
        2
 91
        1
300
_HEADER
309
CELLSTYLE_END
300
CELLSTYLE
  1
TABLEFORMAT_BEGIN
 90
        5
170
     1
 91
        0
 92
        0
 62
   257
 93
        1
300
CONTENTFORMAT
  1
CONTENTFORMAT_BEGIN
 90
        0
 91
        0
 92
        4
 93
        0
300

 40
0.0
140
1.0
 94
        2
 62
     0
340
1C
144
4.5
309
CONTENTFORMAT_END
171
     1
301
MARGIN
  1
CELLMARGIN_BEGIN
 40
1.5
 40
1.5
 40
1.5
 40
1.5
 40
0.18
 40
0.18
309
CELLMARGIN_END
 94
        6
 95
        1
302
GRIDFORMAT
  1
GRIDFORMAT_BEGIN
 90
        0
 91
        1
 62
     0
 92
       -2
340
0
 93
        0
 40
0.045
309
GRIDFORMAT_END
 95
        2
302
GRIDFORMAT
  1
GRIDFORMAT_BEGIN
 90
        0
 91
        1
 62
     0
 92
       -2
340
0
 93
        0
 40
0.045
309
GRIDFORMAT_END
 95
        4
302
GRIDFORMAT
  1
GRIDFORMAT_BEGIN
 90
        0
 91
        1
 62
     0
 92
       -2
340
0
 93
        0
 40
0.045
309
GRIDFORMAT_END
 95
        8
302
GRIDFORMAT
  1
GRIDFORMAT_BEGIN
 90
        0
 91
        1
 62
     0
 92
       -2
340
0
 93
        0
 40
0.045
309
GRIDFORMAT_END
 95
       16
302
GRIDFORMAT
  1
GRIDFORMAT_BEGIN
 90
        0
 91
        1
 62
     0
 92
       -2
340
0
 93
        0
 40
0.045
309
GRIDFORMAT_END
 95
       32
302
GRIDFORMAT
  1
GRIDFORMAT_BEGIN
 90
        0
 91
        1
 62
     0
 92
       -2
340
0
 93
        0
 40
0.045
309
GRIDFORMAT_END
309
TABLEFORMAT_END
  1
CELLSTYLE_BEGIN
 90
        3
 91
        2
300
_DATA
309
CELLSTYLE_END
  0
XRECORD
  5
18F
102
{ACAD_REACTORS
330
18E
102
}
330
18E
100
AcDbXrecord
280
     1
102
RTVSPost2010Prop28
280
     1
102
RTVSPost2010PropOp28
 70
     1
102
RTVSPost2010Prop29
280
     1
102
RTVSPost2010PropOp29
 70
     1
102
RTVSPost2010Prop30
280
     0
102
RTVSPost2010PropOp30
 70
     1
102
RTVSPost2010Prop31
280
     0
102
RTVSPost2010PropOp31
 70
     1
102
RTVSPost2010Prop32
280
     0
102
RTVSPost2010PropOp32
 70
     1
102
RTVSPost2010Prop33
280
     0
102
RTVSPost2010PropOp33
 70
     1
102
RTVSPost2010Prop34
280
     0
102
RTVSPost2010PropOp34
 70
     1
102
RTVSPost2010Prop35
280
     0
102
RTVSPost2010PropOp35
 70
     1
102
RTVSPost2010Prop36
280
     0
102
RTVSPost2010PropOp36
 70
     1
102
RTVSPost2010Prop37
 90
       50
102
RTVSPost2010PropOp37
 70
     1
102
RTVSPost2010Prop38
140
0.0
102
RTVSPost2010PropOp38
 70
     1
102
RTVSPost2010Prop39
140
1.0
102
RTVSPost2010PropOp39
 70
     1
102
RTVSPost2010Prop40
 90
        0
102
RTVSPost2010PropOp40
 70
     1
102
RTVSPost2010Prop41ColorIndex
 90
       18
102
RTVSPost2010Prop41ColorRGB
 90
        0
102
RTVSPost2010PropOp41
 70
     1
102
RTVSPost2010Prop42
 90
       50
102
RTVSPost2010PropOp42
 70
     1
102
RTVSPost2010Prop43
 90
        3
102
RTVSPost2010PropOp43
 70
     1
102
RTVSPost2010Prop44ColorIndex
 90
        5
102
RTVSPost2010Prop44ColorRGB
 90
      255
102
RTVSPost2010PropOp44
 70
     1
102
RTVSPost2010Prop45
280
     0
102
RTVSPost2010PropOp45
 70
     1
102
RTVSPost2010Prop46
 90
       50
102
RTVSPost2010PropOp46
 70
     1
102
RTVSPost2010Prop47
 90
       50
102
RTVSPost2010PropOp47
 70
     1
102
RTVSPost2010Prop48
 90
       50
102
RTVSPost2010PropOp48
 70
     1
102
RTVSPost2010Prop49
280
     0
102
RTVSPost2010PropOp49
 70
     1
102
RTVSPost2010Prop50
 90
       50
102
RTVSPost2010PropOp50
 70
     1
102
RTVSPost2010Prop51ColorIndex
 90
      256
102
RTVSPost2010Prop51ColorRGB
 90
-16777216
102
RTVSPost2010PropOp51
 70
     0
102
RTVSPost2010Prop52
140
1.0
102
RTVSPost2010PropOp52
 70
     0
102
RTVSPost2010Prop53
 90
        2
102
RTVSPost2010PropOp53
 70
     1
102
RTVSPost2010Prop54
  1
strokes_ogs.tif
102
RTVSPost2010PropOp54
 70
     1
102
RTVSPost2010Prop55
280
     0
102
RTVSPost2010PropOp55
 70
     1
102
RTVSPost2010Prop56
140
1.0
102
RTVSPost2010PropOp56
 70
     1
102
RTVSPost2010Prop57
140
1.0
102
RTVSPost2010PropOp57
 70
     1
102
RTVSPropertyOp0
 70
     1
102
RTVSPropertyOp1
 70
     1
102
RTVSPropertyOp2
 70
     1
102
RTVSPropertyOp3
 70
     1
102
RTVSPropertyOp4
 70
     1
102
RTVSPropertyOp5
 70
     1
102
RTVSPropertyOp6
 70
     1
102
RTVSPropertyOp7
 70
     1
102
RTVSPropertyOp8
 70
     1
102
RTVSPropertyOp9
 70
     1
102
RTVSPropertyOp10
 70
     1
102
RTVSPropertyOp11
 70
     1
102
RTVSPropertyOp12
 70
     1
102
RTVSPropertyOp13
 70
     1
102
RTVSPropertyOp14
 70
     1
102
RTVSPropertyOp15
 70
     1
102
RTVSPropertyOp16
 70
     1
102
RTVSPropertyOp17
 70
     1
102
RTVSPropertyOp18
 70
     1
102
RTVSPropertyOp19
 70
     1
102
RTVSPropertyOp20
 70
     1
102
RTVSPropertyOp21
 70
     1
102
RTVSPropertyOp22
 70
     1
102
RTVSPropertyOp23
 70
     1
102
RTVSPropertyOp24
 70
     1
102
RTVSPropertyOp25
 70
     1
102
RTVSPropertyOp26
 70
     1
102
RTVSPropertyOp27
 70
     1
102
RTVSPropertyOp28
 70
     1
102
RTVSPropertyOp29
 70
     1
102
RTVSPropertyOp30
 70
     1
102
RTVSPropertyOp31
 70
     1
102
RTVSPropertyOp32
 70
     1
102
RTVSPropertyOp33
 70
     1
102
RTVSPropertyOp34
 70
     1
102
RTVSPropertyOp35
 70
     1
102
RTVSPropertyOp36
 70
     1
102
RTVSPropertyOp37
 70
     1
102
RTVSPropertyOp38
 70
     1
102
RTVSPropertyOp39
 70
     1
102
RTVSPropertyOp40
 70
     1
102
RTVSPropertyOp41
 70
     1
102
RTVSPropertyOp42
 70
     1
102
RTVSPropertyOp43
 70
     1
102
RTVSPropertyOp44
 70
     1
102
RTVSPropertyOp45
 70
     1
102
RTVSPropertyOp46
 70
     1
102
RTVSPropertyOp47
 70
     1
102
RTVSPropertyOp48
 70
     1
102
RTVSPropertyOp49
 70
     1
102
RTVSPropertyOp50
 70
     1
102
RTVSPropertyOp51
 70
     0
102
RTVSPropertyOp52
 70
     0
102
RTVSPropertyOp53
 70
     1
102
RTVSPropertyOp54
 70
     1
102
RTVSPropertyOp55
 70
     1
102
RTVSPropertyOp56
 70
     1
102
RTVSPropertyOp57
 70
     1
102
RTVSPropertyOp58
 70
     1
102
RTVSPropertyOp59
 70
     1
102
RTVSPropertyOp60
 70
     1
102
RTVSPropertyOp61
 70
     1
102
RTVSPropertyOp62
 70
     1
  0
XRECORD
  5
193
102
{ACAD_REACTORS
330
192
102
}
330
192
100
AcDbXrecord
280
     1
102
RTVSPost2010Prop28
280
     0
102
RTVSPost2010PropOp28
 70
     1
102
RTVSPost2010Prop29
280
     1
102
RTVSPost2010PropOp29
 70
     1
102
RTVSPost2010Prop30
280
     1
102
RTVSPost2010PropOp30
 70
     1
102
RTVSPost2010Prop31
280
     0
102
RTVSPost2010PropOp31
 70
     1
102
RTVSPost2010Prop32
280
     0
102
RTVSPost2010PropOp32
 70
     1
102
RTVSPost2010Prop33
280
     0
102
RTVSPost2010PropOp33
 70
     1
102
RTVSPost2010Prop34
280
     0
102
RTVSPost2010PropOp34
 70
     1
102
RTVSPost2010Prop35
280
     0
102
RTVSPost2010PropOp35
 70
     1
102
RTVSPost2010Prop36
280
     0
102
RTVSPost2010PropOp36
 70
     1
102
RTVSPost2010Prop37
 90
       50
102
RTVSPost2010PropOp37
 70
     1
102
RTVSPost2010Prop38
140
0.0
102
RTVSPost2010PropOp38
 70
     1
102
RTVSPost2010Prop39
140
1.0
102
RTVSPost2010PropOp39
 70
     1
102
RTVSPost2010Prop40
 90
        0
102
RTVSPost2010PropOp40
 70
     1
102
RTVSPost2010Prop41ColorIndex
 90
       18
102
RTVSPost2010Prop41ColorRGB
 90
        0
102
RTVSPost2010PropOp41
 70
     1
102
RTVSPost2010Prop42
 90
       50
102
RTVSPost2010PropOp42
 70
     1
102
RTVSPost2010Prop43
 90
        3
102
RTVSPost2010PropOp43
 70
     1
102
RTVSPost2010Prop44ColorIndex
 90
        5
102
RTVSPost2010Prop44ColorRGB
 90
      255
102
RTVSPost2010PropOp44
 70
     1
102
RTVSPost2010Prop45
280
     0
102
RTVSPost2010PropOp45
 70
     1
102
RTVSPost2010Prop46
 90
       50
102
RTVSPost2010PropOp46
 70
     1
102
RTVSPost2010Prop47
 90
       50
102
RTVSPost2010PropOp47
 70
     1
102
RTVSPost2010Prop48
 90
       50
102
RTVSPost2010PropOp48
 70
     1
102
RTVSPost2010Prop49
280
     0
102
RTVSPost2010PropOp49
 70
     1
102
RTVSPost2010Prop50
 90
       50
102
RTVSPost2010PropOp50
 70
     1
102
RTVSPost2010Prop51ColorIndex
 90
      256
102
RTVSPost2010Prop51ColorRGB
 90
-16777216
102
RTVSPost2010PropOp51
 70
     0
102
RTVSPost2010Prop52
140
1.0
102
RTVSPost2010PropOp52
 70
     0
102
RTVSPost2010Prop53
 90
        2
102
RTVSPost2010PropOp53
 70
     1
102
RTVSPost2010Prop54
  1
strokes_ogs.tif
102
RTVSPost2010PropOp54
 70
     1
102
RTVSPost2010Prop55
280
     0
102
RTVSPost2010PropOp55
 70
     1
102
RTVSPost2010Prop56
140
1.0
102
RTVSPost2010PropOp56
 70
     1
102
RTVSPost2010Prop57
140
1.0
102
RTVSPost2010PropOp57
 70
     1
102
RTVSPropertyOp0
 70
     1
102
RTVSPropertyOp1
 70
     1
102
RTVSPropertyOp2
 70
     1
102
RTVSPropertyOp3
 70
     1
102
RTVSPropertyOp4
 70
     1
102
RTVSPropertyOp5
 70
     1
102
RTVSPropertyOp6
 70
     1
102
RTVSPropertyOp7
 70
     1
102
RTVSPropertyOp8
 70
     1
102
RTVSPropertyOp9
 70
     1
102
RTVSPropertyOp10
 70
     1
102
RTVSPropertyOp11
 70
     1
102
RTVSPropertyOp12
 70
     1
102
RTVSPropertyOp13
 70
     1
102
RTVSPropertyOp14
 70
     1
102
RTVSPropertyOp15
 70
     1
102
RTVSPropertyOp16
 70
     1
102
RTVSPropertyOp17
 70
     1
102
RTVSPropertyOp18
 70
     1
102
RTVSPropertyOp19
 70
     1
102
RTVSPropertyOp20
 70
     1
102
RTVSPropertyOp21
 70
     1
102
RTVSPropertyOp22
 70
     1
102
RTVSPropertyOp23
 70
     1
102
RTVSPropertyOp24
 70
     1
102
RTVSPropertyOp25
 70
     1
102
RTVSPropertyOp26
 70
     1
102
RTVSPropertyOp27
 70
     1
102
RTVSPropertyOp28
 70
     1
102
RTVSPropertyOp29
 70
     1
102
RTVSPropertyOp30
 70
     1
102
RTVSPropertyOp31
 70
     1
102
RTVSPropertyOp32
 70
     1
102
RTVSPropertyOp33
 70
     1
102
RTVSPropertyOp34
 70
     1
102
RTVSPropertyOp35
 70
     1
102
RTVSPropertyOp36
 70
     1
102
RTVSPropertyOp37
 70
     1
102
RTVSPropertyOp38
 70
     1
102
RTVSPropertyOp39
 70
     1
102
RTVSPropertyOp40
 70
     1
102
RTVSPropertyOp41
 70
     1
102
RTVSPropertyOp42
 70
     1
102
RTVSPropertyOp43
 70
     1
102
RTVSPropertyOp44
 70
     1
102
RTVSPropertyOp45
 70
     1
102
RTVSPropertyOp46
 70
     1
102
RTVSPropertyOp47
 70
     1
102
RTVSPropertyOp48
 70
     1
102
RTVSPropertyOp49
 70
     1
102
RTVSPropertyOp50
 70
     1
102
RTVSPropertyOp51
 70
     0
102
RTVSPropertyOp52
 70
     0
102
RTVSPropertyOp53
 70
     1
102
RTVSPropertyOp54
 70
     1
102
RTVSPropertyOp55
 70
     1
102
RTVSPropertyOp56
 70
     1
102
RTVSPropertyOp57
 70
     1
102
RTVSPropertyOp58
 70
     1
102
RTVSPropertyOp59
 70
     1
102
RTVSPropertyOp60
 70
     1
102
RTVSPropertyOp61
 70
     1
102
RTVSPropertyOp62
 70
     1
  0
XRECORD
  5
191
102
{ACAD_REACTORS
330
190
102
}
330
190
100
AcDbXrecord
280
     1
102
RTVSPost2010Prop28
280
     0
102
RTVSPost2010PropOp28
 70
     1
102
RTVSPost2010Prop29
280
     1
102
RTVSPost2010PropOp29
 70
     1
102
RTVSPost2010Prop30
280
     1
102
RTVSPost2010PropOp30
 70
     1
102
RTVSPost2010Prop31
280
     0
102
RTVSPost2010PropOp31
 70
     1
102
RTVSPost2010Prop32
280
     0
102
RTVSPost2010PropOp32
 70
     1
102
RTVSPost2010Prop33
280
     0
102
RTVSPost2010PropOp33
 70
     1
102
RTVSPost2010Prop34
280
     0
102
RTVSPost2010PropOp34
 70
     1
102
RTVSPost2010Prop35
280
     0
102
RTVSPost2010PropOp35
 70
     1
102
RTVSPost2010Prop36
280
     0
102
RTVSPost2010PropOp36
 70
     1
102
RTVSPost2010Prop37
 90
       50
102
RTVSPost2010PropOp37
 70
     1
102
RTVSPost2010Prop38
140
0.0
102
RTVSPost2010PropOp38
 70
     1
102
RTVSPost2010Prop39
140
1.0
102
RTVSPost2010PropOp39
 70
     1
102
RTVSPost2010Prop40
 90
        0
102
RTVSPost2010PropOp40
 70
     1
102
RTVSPost2010Prop41ColorIndex
 90
       18
102
RTVSPost2010Prop41ColorRGB
 90
        0
102
RTVSPost2010PropOp41
 70
     1
102
RTVSPost2010Prop42
 90
       50
102
RTVSPost2010PropOp42
 70
     1
102
RTVSPost2010Prop43
 90
        3
102
RTVSPost2010PropOp43
 70
     1
102
RTVSPost2010Prop44ColorIndex
 90
        5
102
RTVSPost2010Prop44ColorRGB
 90
      255
102
RTVSPost2010PropOp44
 70
     1
102
RTVSPost2010Prop45
280
     0
102
RTVSPost2010PropOp45
 70
     1
102
RTVSPost2010Prop46
 90
       50
102
RTVSPost2010PropOp46
 70
     1
102
RTVSPost2010Prop47
 90
       50
102
RTVSPost2010PropOp47
 70
     1
102
RTVSPost2010Prop48
 90
       50
102
RTVSPost2010PropOp48
 70
     1
102
RTVSPost2010Prop49
280
     0
102
RTVSPost2010PropOp49
 70
     1
102
RTVSPost2010Prop50
 90
       50
102
RTVSPost2010PropOp50
 70
     1
102
RTVSPost2010Prop51ColorIndex
 90
      256
102
RTVSPost2010Prop51ColorRGB
 90
-16777216
102
RTVSPost2010PropOp51
 70
     0
102
RTVSPost2010Prop52
140
1.0
102
RTVSPost2010PropOp52
 70
     0
102
RTVSPost2010Prop53
 90
        2
102
RTVSPost2010PropOp53
 70
     1
102
RTVSPost2010Prop54
  1
strokes_ogs.tif
102
RTVSPost2010PropOp54
 70
     1
102
RTVSPost2010Prop55
280
     0
102
RTVSPost2010PropOp55
 70
     1
102
RTVSPost2010Prop56
140
1.0
102
RTVSPost2010PropOp56
 70
     1
102
RTVSPost2010Prop57
140
1.0
102
RTVSPost2010PropOp57
 70
     1
102
RTVSPropertyOp0
 70
     1
102
RTVSPropertyOp1
 70
     1
102
RTVSPropertyOp2
 70
     1
102
RTVSPropertyOp3
 70
     1
102
RTVSPropertyOp4
 70
     1
102
RTVSPropertyOp5
 70
     1
102
RTVSPropertyOp6
 70
     1
102
RTVSPropertyOp7
 70
     1
102
RTVSPropertyOp8
 70
     1
102
RTVSPropertyOp9
 70
     1
102
RTVSPropertyOp10
 70
     1
102
RTVSPropertyOp11
 70
     1
102
RTVSPropertyOp12
 70
     1
102
RTVSPropertyOp13
 70
     1
102
RTVSPropertyOp14
 70
     1
102
RTVSPropertyOp15
 70
     1
102
RTVSPropertyOp16
 70
     1
102
RTVSPropertyOp17
 70
     1
102
RTVSPropertyOp18
 70
     1
102
RTVSPropertyOp19
 70
     1
102
RTVSPropertyOp20
 70
     1
102
RTVSPropertyOp21
 70
     1
102
RTVSPropertyOp22
 70
     1
102
RTVSPropertyOp23
 70
     1
102
RTVSPropertyOp24
 70
     1
102
RTVSPropertyOp25
 70
     1
102
RTVSPropertyOp26
 70
     1
102
RTVSPropertyOp27
 70
     1
102
RTVSPropertyOp28
 70
     1
102
RTVSPropertyOp29
 70
     1
102
RTVSPropertyOp30
 70
     1
102
RTVSPropertyOp31
 70
     1
102
RTVSPropertyOp32
 70
     1
102
RTVSPropertyOp33
 70
     1
102
RTVSPropertyOp34
 70
     1
102
RTVSPropertyOp35
 70
     1
102
RTVSPropertyOp36
 70
     1
102
RTVSPropertyOp37
 70
     1
102
RTVSPropertyOp38
 70
     1
102
RTVSPropertyOp39
 70
     1
102
RTVSPropertyOp40
 70
     1
102
RTVSPropertyOp41
 70
     1
102
RTVSPropertyOp42
 70
     1
102
RTVSPropertyOp43
 70
     1
102
RTVSPropertyOp44
 70
     1
102
RTVSPropertyOp45
 70
     1
102
RTVSPropertyOp46
 70
     1
102
RTVSPropertyOp47
 70
     1
102
RTVSPropertyOp48
 70
     1
102
RTVSPropertyOp49
 70
     1
102
RTVSPropertyOp50
 70
     1
102
RTVSPropertyOp51
 70
     0
102
RTVSPropertyOp52
 70
     0
102
RTVSPropertyOp53
 70
     1
102
RTVSPropertyOp54
 70
     1
102
RTVSPropertyOp55
 70
     1
102
RTVSPropertyOp56
 70
     1
102
RTVSPropertyOp57
 70
     1
102
RTVSPropertyOp58
 70
     1
102
RTVSPropertyOp59
 70
     1
102
RTVSPropertyOp60
 70
     1
102
RTVSPropertyOp61
 70
     1
102
RTVSPropertyOp62
 70
     1
  0
ENDSEC
  0
EOF
