  0
SECTION
  2
HEADER
  9
$ACADVER
  1
AC1009
  9
$INSBASE
 10
0.0
 20
0.0
 30
0.0
  9
$EXTMIN
 10
-48.114456713577063
 20
-117.05729482823369
 30
-0.1
  9
$EXTMAX
 10
210.17986165673031
 20
86.711765638890114
 30
0.0000000195376815
  9
$LIMMIN
 10
0.0
 20
0.0
  9
$LIMMAX
 10
790.0
 20
790.0
  9
$ORTHOMODE
 70
     0
  9
$REGENMODE
 70
     1
  9
$FILLMODE
 70
     1
  9
$QTEXTMODE
 70
     0
  9
$MIRRTEXT
 70
     1
  9
$DRAGMODE
 70
     2
  9
$LTSCALE
 40
4.0
  9
$OSMODE
 70
   167
  9
$ATTMODE
 70
     1
  9
$TEXTSIZE
 40
3.5
  9
$TRACEWID
 40
0.05
  9
$TEXTSTYLE
  7
ISO
  9
$CLAYER
  8
0
  9
$CELTYPE
  6
BYLAYER
  9
$CECOLOR
 62
   256
  9
$DIMSCALE
 40
0.0
  9
$DIMASZ
 40
3.0
  9
$DIMEXO
 40
1.5
  9
$DIMDLI
 40
10.0
  9
$DIMRND
 40
0.0
  9
$DIMDLE
 40
0.0
  9
$DIMEXE
 40
1.5
  9
$DIMTP
 40
0.0
  9
$DIMTM
 40
0.0
  9
$DIMTXT
 40
3.0
  9
$DIMCEN
 40
-5.0
  9
$DIMTSZ
 40
0.0
  9
$DIMTOL
 70
     0
  9
$DIMLIM
 70
     0
  9
$DIMTIH
 70
     0
  9
$DIMTOH
 70
     0
  9
$DIMSE1
 70
     0
  9
$DIMSE2
 70
     0
  9
$DIMTAD
 70
     1
  9
$DIMZIN
 70
     8
  9
$DIMBLK
  1

  9
$DIMASO
 70
     1
  9
$DIMSHO
 70
     1
  9
$DIMPOST
  1

  9
$DIMAPOST
  1

  9
$DIMALT
 70
     0
  9
$DIMALTD
 70
     0
  9
$DIMALTF
 40
25.399999999999999
  9
$DIMLFAC
 40
-1.0
  9
$DIMTOFL
 70
     1
  9
$DIMTVP
 40
0.0
  9
$DIMTIX
 70
     0
  9
$DIMSOXD
 70
     0
  9
$DIMSAH
 70
     0
  9
$DIMBLK1
  1

  9
$DIMBLK2
  1

  9
$DIMSTYLE
  2
MASKIN
  9
$DIMCLRD
 70
   256
  9
$DIMCLRE
 70
   256
  9
$DIMCLRT
 70
     2
  9
$DIMTFAC
 40
1.0
  9
$DIMGAP
 40
1.0
  9
$LUNITS
 70
     2
  9
$LUPREC
 70
     8
  9
$SKETCHINC
 40
0.1
  9
$FILLETRAD
 40
0.0
  9
$AUNITS
 70
     0
  9
$AUPREC
 70
     8
  9
$MENU
  1
ACAD
  9
$ELEVATION
 40
0.0
  9
$PELEVATION
 40
0.0
  9
$THICKNESS
 40
0.0
  9
$LIMCHECK
 70
     0
  9
$BLIPMODE
 70
     0
  9
$CHAMFERA
 40
0.0
  9
$CHAMFERB
 40
0.0
  9
$SKPOLY
 70
     0
  9
$TDCREATE
 40
2454868.598613102
  9
$TDUPDATE
 40
2458453.4473829051
  9
$TDINDWG
 40
0.1535634606
  9
$TDUSRTIMER
 40
0.1535634606
  9
$USRTIMER
 70
     1
  9
$ANGBASE
 50
0.0
  9
$ANGDIR
 70
     0
  9
$PDMODE
 70
     0
  9
$PDSIZE
 40
0.0
  9
$PLINEWID
 40
0.0
  9
$COORDS
 70
     1
  9
$SPLFRAME
 70
     0
  9
$SPLINETYPE
 70
     6
  9
$SPLINESEGS
 70
     8
  9
$ATTDIA
 70
     1
  9
$ATTREQ
 70
     1
  9
$HANDLING
 70
     1
  9
$HANDSEED
  5
2D6C
  9
$SURFTAB1
 70
     6
  9
$SURFTAB2
 70
     6
  9
$SURFTYPE
 70
     6
  9
$SURFU
 70
     6
  9
$SURFV
 70
     6
  9
$UCSNAME
  2

  9
$UCSORG
 10
0.0
 20
0.0
 30
0.0
  9
$UCSXDIR
 10
1.0
 20
0.0
 30
0.0
  9
$UCSYDIR
 10
0.0
 20
1.0
 30
0.0
  9
$PUCSNAME
  2

  9
$PUCSORG
 10
0.0
 20
0.0
 30
0.0
  9
$PUCSXDIR
 10
1.0
 20
0.0
 30
0.0
  9
$PUCSYDIR
 10
0.0
 20
1.0
 30
0.0
  9
$USERI1
 70
     0
  9
$USERI2
 70
     0
  9
$USERI3
 70
     0
  9
$USERI4
 70
     0
  9
$USERI5
 70
     0
  9
$USERR1
 40
0.0
  9
$USERR2
 40
0.0
  9
$USERR3
 40
0.0
  9
$USERR4
 40
0.0
  9
$USERR5
 40
0.0
  9
$WORLDVIEW
 70
     1
  9
$SHADEDGE
 70
     3
  9
$SHADEDIF
 70
    70
  9
$TILEMODE
 70
     1
  9
$MAXACTVP
 70
    16
  9
$PLIMCHECK
 70
     0
  9
$PEXTMIN
 10
1.0000000000000000E+020
 20
1.0000000000000000E+020
 30
1.0000000000000000E+020
  9
$PEXTMAX
 10
-1.0000000000000000E+020
 20
-1.0000000000000000E+020
 30
-1.0000000000000000E+020
  9
$PLIMMIN
 10
-5.069427490234375
 20
-5.8737497329711914
  9
$PLIMMAX
 10
291.89889526367187
 20
204.0995779037475
  9
$UNITMODE
 70
     0
  9
$VISRETAIN
 70
     1
  9
$PLINEGEN
 70
     0
  9
$PSLTSCALE
 70
     1
  0
ENDSEC
  0
SECTION
  2
TABLES
  0
TABLE
  2
VPORT
 70
     1
  0
VPORT
  2
*ACTIVE
 70
     0
 10
0.0
 20
0.0
 11
1.0
 21
1.0
 12
162.1260853531943
 22
90.098387344569517
 13
0.0
 23
0.0
 14
1.0
 24
1.0
 15
0.0
 25
0.0
 16
0.0
 26
0.0
 36
1.0
 17
0.0
 27
0.0
 37
0.0
 40
320.08726838520931
 41
1.7265193370165739
 42
50.0
 43
0.0
 44
0.0
 50
0.0
 51
0.0
 71
     0
 72
   100
 73
     1
 74
     1
 75
     0
 76
     0
 77
     0
 78
     0
  0
ENDTAB
  0
TABLE
  2
LTYPE
 70
    51
  0
LTYPE
  2
CONTINUOUS
 70
     0
  3
Solid line
 72
    65
 73
     0
 40
0.0
  0
LTYPE
  2
BYGG-01482201$0$NEWDOT
 70
     0
  3
____ . ____ . ____ . ____ . ____ . ____ . ____
 72
    65
 73
     4
 40
2.0
 49
1.0
 49
-0.5
 49
0.0
 49
-0.5
  0
LTYPE
  2
BYGG-014357$0$NEWDOT
 70
     0
  3
____ . ____ . ____ . ____ . ____ . ____ . ____
 72
    65
 73
     4
 40
2.0
 49
1.0
 49
-0.5
 49
0.0
 49
-0.5
  0
LTYPE
  2
BYGG-014357$0$DASHDOT
 70
     0
  3
__ . __ . __ . __ . __ . __ . __ . __ . __ . __
 72
    65
 73
     4
 40
1.0
 49
0.5
 49
-0.25
 49
0.0
 49
-0.25
  0
LTYPE
  2
BYGG-014357$0$DASHED
 70
     0
  3
__ __ __ __ __ __ __ __ __ __ __ __ __ __ __
 72
    65
 73
     2
 40
0.75
 49
0.5
 49
-0.25
  0
LTYPE
  2
BYGG-014279$0$NEWDOT
 70
     0
  3
____ . ____ . ____ . ____ . ____ . ____ . ____
 72
    65
 73
     4
 40
2.0
 49
1.0
 49
-0.5
 49
0.0
 49
-0.5
  0
LTYPE
  2
BYGG-01482201$0$ZIGZAG
 70
     0
  3
Zig zag /\/\/\/\/\/\/\/\/\/\/\/\/\/\/\/\/\/\/\/\/\/\/\/
 72
    65
 73
     4
 40
20.32254
 49
0.00254
 49
-5.0800000000000001
 49
-10.16
 49
-5.0800000000000001
  0
LTYPE
  2
BYGG-014279$0$ZIGZAG
 70
     0
  3
Zig zag /\/\/\/\/\/\/\/\/\/\/\/\/\/\/\/\/\/\/\/\/\/\/\/
 72
    65
 73
     4
 40
20.32254
 49
0.00254
 49
-5.0800000000000001
 49
-10.16
 49
-5.0800000000000001
  0
LTYPE
  2
BYGG-025060$0$NEWDOT
 70
     0
  3
____ . ____ . ____ . ____ . ____ . ____ . ____
 72
    65
 73
     4
 40
2.0
 49
1.0
 49
-0.5
 49
0.0
 49
-0.5
  0
LTYPE
  2
BYGG-012216$0$DASHDOT
 70
     0
  3
__ . __ . __ . __ . __ . __ . __ . __ . __ . __
 72
    65
 73
     4
 40
1.0
 49
0.5
 49
-0.25
 49
0.0
 49
-0.25
  0
LTYPE
  2
BYGG-020805$0$NEWDOT
 70
     0
  3
____ . ____ . ____ . ____ . ____ . ____ . ____
 72
    65
 73
     4
 40
2.0
 49
1.0
 49
-0.5
 49
0.0
 49
-0.5
  0
LTYPE
  2
BYGG-020805$0$DASHDOT
 70
     0
  3
__ . __ . __ . __ . __ . __ . __ . __ . __ . __
 72
    65
 73
     4
 40
1.0
 49
0.5
 49
-0.25
 49
0.0
 49
-0.25
  0
LTYPE
  2
BYGG-020805$0$DASHED
 70
     0
  3
__ __ __ __ __ __ __ __ __ __ __ __ __ __ __
 72
    65
 73
     2
 40
0.75
 49
0.5
 49
-0.25
  0
LTYPE
  2
BYGG-020805$0$PHANTOM
 70
     0
  3
Phantom ______  __  __  ______  __  __  ______
 72
    65
 73
     6
 40
63.5
 49
31.75
 49
-6.3499999999999988
 49
6.3499999999999988
 49
-6.3499999999999988
 49
6.3499999999999988
 49
-6.3499999999999988
  0
LTYPE
  2
BYGG-024800$0$NEWDOT
 70
     0
  3
____ . ____ . ____ . ____ . ____ . ____ . ____
 72
    65
 73
     4
 40
2.0
 49
1.0
 49
-0.5
 49
0.0
 49
-0.5
  0
LTYPE
  2
BYGG-024807$0$NEWDOT
 70
     0
  3
____ . ____ . ____ . ____ . ____ . ____ . ____
 72
    65
 73
     4
 40
2.0
 49
1.0
 49
-0.5
 49
0.0
 49
-0.5
  0
LTYPE
  2
BYGG-024807$0$DASHDOT
 70
     0
  3
__ . __ . __ . __ . __ . __ . __ . __ . __ . __
 72
    65
 73
     4
 40
1.0
 49
0.5
 49
-0.25
 49
0.0
 49
-0.25
  0
LTYPE
  2
BYGG-033168$0$NEWDOT
 70
     0
  3
____ . ____ . ____ . ____ . ____ . ____ . ____
 72
    65
 73
     4
 40
2.0
 49
1.0
 49
-0.5
 49
0.0
 49
-0.5
  0
LTYPE
  2
BYGG-033168$0$DASHDOT
 70
     0
  3
__ . __ . __ . __ . __ . __ . __ . __ . __ . __
 72
    65
 73
     4
 40
1.0
 49
0.5
 49
-0.25
 49
0.0
 49
-0.25
  0
LTYPE
  2
BYGG-033168$0$DASHED
 70
     0
  3
__ __ __ __ __ __ __ __ __ __ __ __ __ __ __
 72
    65
 73
     2
 40
0.75
 49
0.5
 49
-0.25
  0
LTYPE
  2
BYGG-033168$0$PHANTOM
 70
     0
  3
Phantom ______  __  __  ______  __  __  ______
 72
    65
 73
     6
 40
63.5
 49
31.75
 49
-6.3499999999999988
 49
6.3499999999999988
 49
-6.3499999999999988
 49
6.3499999999999988
 49
-6.3499999999999988
  0
LTYPE
  2
BYGG-027036$0$NEWDOT
 70
     0
  3
____ . ____ . ____ . ____ . ____ . ____ . ____
 72
    65
 73
     4
 40
2.0
 49
1.0
 49
-0.5
 49
0.0
 49
-0.5
  0
LTYPE
  2
BYGG-027036$0$DASHDOT
 70
     0
  3
__ . __ . __ . __ . __ . __ . __ . __ . __ . __
 72
    65
 73
     4
 40
1.0
 49
0.5
 49
-0.25
 49
0.0
 49
-0.25
  0
LTYPE
  2
BYGG-027036$0$DASHED
 70
     0
  3
__ __ __ __ __ __ __ __ __ __ __ __ __ __ __
 72
    65
 73
     2
 40
0.75
 49
0.5
 49
-0.25
  0
LTYPE
  2
BYGG-027036$0$PHANTOM
 70
     0
  3
Phantom ______  __  __  ______  __  __  ______
 72
    65
 73
     6
 40
63.5
 49
31.75
 49
-6.3499999999999988
 49
6.3499999999999988
 49
-6.3499999999999988
 49
6.3499999999999988
 49
-6.3499999999999988
  0
LTYPE
  2
BYGG-027036$0$HIDDEN
 70
     0
  3
_ _ _ _ _ _ _ _ _ _ _ _ _ _ _ _ _ _ _ _ _ _ _
 72
    65
 73
     2
 40
0.375
 49
0.25
 49
-0.125
  0
LTYPE
  2
BYGG-027036$0$DOT
 70
     0
  3
...............................................
 72
    65
 73
     2
 40
0.25
 49
0.0
 49
-0.25
  0
LTYPE
  2
BYGG-027036$0$CENTER
 70
     0
  3
____ _ ____ _ ____ _ ____ _ ____ _ ____ _ ____
 72
    65
 73
     4
 40
0.6
 49
0.375
 49
-0.075
 49
0.075
 49
-0.075
  0
LTYPE
  2
BYGG-033225$0$NEWDOT
 70
     0
  3
____ . ____ . ____ . ____ . ____ . ____ . ____
 72
    65
 73
     4
 40
2.0
 49
1.0
 49
-0.5
 49
0.0
 49
-0.5
  0
LTYPE
  2
BYGG-033225$0$DASHDOT
 70
     0
  3
__ . __ . __ . __ . __ . __ . __ . __ . __ . __
 72
    65
 73
     4
 40
1.0
 49
0.5
 49
-0.25
 49
0.0
 49
-0.25
  0
LTYPE
  2
BYGG-033225$0$DASHED
 70
     0
  3
__ __ __ __ __ __ __ __ __ __ __ __ __ __ __
 72
    65
 73
     2
 40
0.75
 49
0.5
 49
-0.25
  0
LTYPE
  2
BYGG-033225$0$PHANTOM
 70
     0
  3
Phantom ______  __  __  ______  __  __  ______
 72
    65
 73
     6
 40
63.5
 49
31.75
 49
-6.3499999999999988
 49
6.3499999999999988
 49
-6.3499999999999988
 49
6.3499999999999988
 49
-6.3499999999999988
  0
LTYPE
  2
BYGG-029021$0$NEWDOT
 70
     0
  3
____ . ____ . ____ . ____ . ____ . ____ . ____
 72
    65
 73
     4
 40
2.0
 49
1.0
 49
-0.5
 49
0.0
 49
-0.5
  0
LTYPE
  2
BYGG-029021$0$DASHDOT
 70
     0
  3
__ . __ . __ . __ . __ . __ . __ . __ . __ . __
 72
    65
 73
     4
 40
1.0
 49
0.5
 49
-0.25
 49
0.0
 49
-0.25
  0
LTYPE
  2
BYGG-029021$0$DASHED
 70
     0
  3
__ __ __ __ __ __ __ __ __ __ __ __ __ __ __
 72
    65
 73
     2
 40
0.75
 49
0.5
 49
-0.25
  0
LTYPE
  2
BYGG-029021$0$PHANTOM
 70
     0
  3
Phantom ______  __  __  ______  __  __  ______
 72
    65
 73
     6
 40
63.5
 49
31.75
 49
-6.3499999999999988
 49
6.3499999999999988
 49
-6.3499999999999988
 49
6.3499999999999988
 49
-6.3499999999999988
  0
LTYPE
  2
BYGG-029021$0$DASHED2
 70
     0
  3
_ _ _ _ _ _ _ _ _ _ _ _ _ _ _ _ _ _ _ _ _ _ _ _ _ _ _ _ _ _ _
 72
    65
 73
     2
 40
0.375
 49
0.25
 49
-0.125
  0
LTYPE
  2
BYGG-01409101$0$DASHDOT
 70
     0
  3
__ . __ . __ . __ . __ . __ . __ . __ . __ . __
 72
    65
 73
     4
 40
1.0
 49
0.5
 49
-0.25
 49
0.0
 49
-0.25
  0
LTYPE
  2
BYGG-01409101$0$HIDDEN
 70
     0
  3
_ _ _ _ _ _ _ _ _ _ _ _ _ _ _ _ _ _ _ _ _ _ _
 72
    65
 73
     2
 40
0.375
 49
0.25
 49
-0.125
  0
LTYPE
  2
BYGG-030601$0$NEWDOT
 70
     0
  3
____ . ____ . ____ . ____ . ____ . ____ . ____
 72
    65
 73
     4
 40
2.0
 49
1.0
 49
-0.5
 49
0.0
 49
-0.5
  0
LTYPE
  2
BYGG-030601$0$ZIGZAG
 70
     0
  3
Zig zag /\/\/\/\/\/\/\/\/\/\/\/\/\/\/\/\/\/\/\/\/\/\/\/
 72
    65
 73
     4
 40
20.32254
 49
0.00254
 49
-5.0800000000000001
 49
-10.16
 49
-5.0800000000000001
  0
LTYPE
  2
BYGG-033225$0$PHANTOM2
 70
     0
  3
Phantom (.5x) ___ _ _ ___ _ _ ___ _ _ ___ _ _
 72
    65
 73
     6
 40
1.25
 49
0.625
 49
-0.125
 49
0.125
 49
-0.125
 49
0.125
 49
-0.125
  0
LTYPE
  2
BYGG-025060$0$DASHDOT
 70
     0
  3
__ . __ . __ . __ . __ . __ . __ . __ . __ . __
 72
    65
 73
     4
 40
1.0
 49
0.5
 49
-0.25
 49
0.0
 49
-0.25
  0
LTYPE
  2
BYGG-027036$0$ALF
 70
     0
  3
*alf,- - - - - - - - - - - - -
 72
    65
 73
     2
 40
0.3
 49
0.1
 49
-0.2
  0
LTYPE
  2
BYGG-027036$0$CENTRE2
 70
     0
  3
___ _ ___ _ ___ _ ___ _ ___ _ ___ _ ___ _ ___ _
 72
    65
 73
     4
 40
28.574999999999999
 49
19.050000000000001
 49
-3.1749999999999989
 49
3.1749999999999989
 49
-3.1749999999999989
  0
LTYPE
  2
BYGG-029021$0$PHANTOM2
 70
     0
  3
Phantom (.5x) ___ _ _ ___ _ _ ___ _ _ ___ _ _
 72
    65
 73
     6
 40
1.25
 49
0.625
 49
-0.125
 49
0.125
 49
-0.125
 49
0.125
 49
-0.125
  0
LTYPE
  2
BYGG-024800$0$DASHDOT
 70
     0
  3
__ . __ . __ . __ . __ . __ . __ . __ . __ . __
 72
    65
 73
     4
 40
1.0
 49
0.5
 49
-0.25
 49
0.0
 49
-0.25
  0
LTYPE
  2
BYGG-01409101$0$PHANTOM2
 70
     0
  3
Phantom (.5x) ___ _ _ ___ _ _ ___ _ _ ___ _ _
 72
    65
 73
     6
 40
1.25
 49
0.625
 49
-0.125
 49
0.125
 49
-0.125
 49
0.125
 49
-0.125
  0
LTYPE
  2
BYGG-030601$0$PHANTOM2
 70
     0
  3
Phantom (.5x) ___ _ _ ___ _ _ ___ _ _ ___ _ _
 72
    65
 73
     6
 40
1.25
 49
0.625
 49
-0.125
 49
0.125
 49
-0.125
 49
0.125
 49
-0.125
  0
LTYPE
  2
BYGG-014090$0$PHANTOM2
 70
     0
  3
Phantom (.5x) ___ _ _ ___ _ _ ___ _ _ ___ _ _
 72
    65
 73
     6
 40
1.25
 49
0.625
 49
-0.125
 49
0.125
 49
-0.125
 49
0.125
 49
-0.125
  0
LTYPE
  2
BYGG-01409301$0$PHANTOM2
 70
     0
  3
Phantom (.5x) ___ _ _ ___ _ _ ___ _ _ ___ _ _
 72
    65
 73
     6
 40
1.25
 49
0.625
 49
-0.125
 49
0.125
 49
-0.125
 49
0.125
 49
-0.125
  0
ENDTAB
  0
TABLE
  2
LAYER
 70
   276
  0
LAYER
  2
0
 70
     0
 62
     7
  6
CONTINUOUS
  0
LAYER
  2
DEFPOINTS
 70
     0
 62
     7
  6
CONTINUOUS
  0
LAYER
  2
SAPA_LIGHT
 70
     1
 62
     1
  6
CONTINUOUS
  0
LAYER
  2
SAPA_ARTIKELNR
 70
     0
 62
     4
  6
CONTINUOUS
  0
LAYER
  2
BYGG-027036$0$DIM
 70
     4
 62
     5
  6
CONTINUOUS
  0
LAYER
  2
BYGG-027036$0$KON
 70
     4
 62
     7
  6
CONTINUOUS
  0
LAYER
  2
SAPA_ISOLATOR
 70
     0
 62
     4
  6
CONTINUOUS
  0
LAYER
  2
SAPA_MATT
 70
     0
 62
     1
  6
CONTINUOUS
  0
LAYER
  2
SAPA_GLAS
 70
     0
 62
     4
  6
CONTINUOUS
  0
LAYER
  2
SAPA_FOGBAND
 70
     0
 62
     2
  6
CONTINUOUS
  0
LAYER
  2
SAPA_PROFIL
 70
     0
 62
     7
  6
CONTINUOUS
  0
ENDTAB
  0
TABLE
  2
STYLE
 70
    65
  0
STYLE
  2
STANDARD
 70
     0
 40
0.0
 41
1.0
 50
0.0
 71
     0
 42
0.2
  3
txt
  4

  0
STYLE
  2
ISO
 70
     0
 40
0.0
 41
1.0
 50
0.0
 71
     0
 42
3.5
  3
txt
  4

  0
STYLE
  2

 70
     1
 40
0.0
 41
1.0
 50
0.0
 71
     0
 42
0.2
  3
ltypeshp.shx
  4

  0
STYLE
  2
BYGG-021589$0$STANDARD
 70
     0
 40
0.0
 41
1.0
 50
0.0
 71
     0
 42
0.2
  3
txt
  4

  0
STYLE
  2
BYGG-021589$0$ISO
 70
     0
 40
0.0
 41
1.0
 50
0.0
 71
     0
 42
3.5
  3
isocp3.shx
  4

  0
STYLE
  2
BYGG-01482201$0$STANDARD
 70
     0
 40
0.0
 41
1.0
 50
0.0
 71
     0
 42
0.2
  3
txt
  4

  0
STYLE
  2
BYGG-01482201$0$ISO
 70
     0
 40
0.0
 41
1.0
 50
0.0
 71
     0
 42
3.5
  3
isocp3.shx
  4

  0
STYLE
  2
BYGG-021610$0$STANDARD
 70
     0
 40
0.0
 41
1.0
 50
0.0
 71
     0
 42
0.2
  3
txt
  4

  0
STYLE
  2
BYGG-021610$0$ISO
 70
     0
 40
0.0
 41
1.0
 50
0.0
 71
     0
 42
3.5
  3
isocp3.shx
  4

  0
STYLE
  2
BYGG-014357$0$STANDARD
 70
     0
 40
0.0
 41
1.0
 50
0.0
 71
     0
 42
0.2
  3
txt
  4

  0
STYLE
  2
BYGG-014357$0$ISO
 70
     0
 40
0.0
 41
1.0
 50
0.0
 71
     0
 42
3.5
  3
isocp3.shx
  4

  0
STYLE
  2
BYGG-014062$0$STANDARD
 70
     0
 40
0.0
 41
1.0
 50
0.0
 71
     0
 42
0.2
  3
txt
  4

  0
STYLE
  2
BYGG-014062$0$ISO
 70
     0
 40
0.0
 41
1.0
 50
0.0
 71
     0
 42
3.5
  3
isocp3.shx
  4

  0
STYLE
  2
BYGG-014062$0$ROMANS
 70
     0
 40
0.0
 41
1.0
 50
0.0
 71
     0
 42
3.5
  3
romans.shx
  4

  0
STYLE
  2
BYGG-021806$0$STANDARD
 70
     0
 40
0.0
 41
1.0
 50
0.0
 71
     0
 42
0.2
  3
txt
  4

  0
STYLE
  2
BYGG-021806$0$ISO
 70
     0
 40
0.0
 41
1.0
 50
0.0
 71
     0
 42
3.5
  3
txt
  4

  0
STYLE
  2
BYGG-021582$0$STANDARD
 70
     0
 40
0.0
 41
1.0
 50
0.0
 71
     0
 42
0.2
  3
txt
  4

  0
STYLE
  2
BYGG-021582$0$ISO
 70
     0
 40
0.0
 41
1.0
 50
0.0
 71
     0
 42
3.5
  3
isocp3.shx
  4

  0
STYLE
  2
BYGG-014279$0$STANDARD
 70
     0
 40
0.0
 41
1.0
 50
0.0
 71
     0
 42
0.2
  3
TXT.shx
  4

  0
STYLE
  2
BYGG-014279$0$ISO
 70
     0
 40
0.0
 41
1.0
 50
0.0
 71
     0
 42
3.5
  3
iso
  4

  0
STYLE
  2
BYGG-033225$0$STANDARD
 70
     0
 40
0.0
 41
1.0
 50
0.0
 71
     0
 42
0.2
  3
txt
  4

  0
STYLE
  2
BYGG-033225$0$ISO
 70
     0
 40
0.0
 41
1.0
 50
0.0
 71
     0
 42
3.5
  3
txt
  4

  0
STYLE
  2
BYGG-033225$0$ANNOTATIVE
 70
     0
 40
0.0
 41
1.0
 50
0.0
 71
     0
 42
0.2
  3
txt
  4

  0
STYLE
  2
BYGG-025060$0$STANDARD
 70
     0
 40
0.0
 41
1.0
 50
0.0
 71
     0
 42
0.2
  3
txt
  4

  0
STYLE
  2
BYGG-025060$0$ISO
 70
     0
 40
0.0
 41
1.0
 50
0.0
 71
     0
 42
3.5
  3
txt
  4

  0
STYLE
  2
BYGG-012216$0$STANDARD
 70
     0
 40
0.0
 41
1.0
 50
0.0
 71
     0
 42
0.2
  3
txt
  4

  0
STYLE
  2
BYGG-012216$0$ISO
 70
     0
 40
0.0
 41
1.0
 50
0.0
 71
     0
 42
3.5
  3
txt
  4

  0
STYLE
  2
BYGG-028980$0$STANDARD
 70
     0
 40
0.0
 41
1.0
 50
0.0
 71
     0
 42
0.2
  3
txt
  4

  0
STYLE
  2
BYGG-028980$0$ISO
 70
     0
 40
0.0
 41
1.0
 50
0.0
 71
     0
 42
3.5
  3
txt
  4

  0
STYLE
  2
BYGG-020805$0$STANDARD
 70
     0
 40
0.0
 41
1.0
 50
0.0
 71
     0
 42
0.2
  3
txt
  4

  0
STYLE
  2
BYGG-020805$0$ISO
 70
     0
 40
0.0
 41
1.0
 50
0.0
 71
     0
 42
3.5
  3
txt
  4

  0
STYLE
  2
BYGG-033168$0$STANDARD
 70
     0
 40
0.0
 41
1.0
 50
0.0
 71
     0
 42
0.2
  3
txt
  4

  0
STYLE
  2
BYGG-033168$0$ISO
 70
     0
 40
0.0
 41
1.0
 50
0.0
 71
     0
 42
3.5
  3
txt
  4

  0
STYLE
  2
BYGG-027036$0$STANDARD
 70
     0
 40
0.0
 41
1.0
 50
0.0
 71
     0
 42
0.2
  3
txt
  4

  0
STYLE
  2
BYGG-027036$0$ISO
 70
     0
 40
0.0
 41
1.0
 50
0.0
 71
     0
 42
3.5
  3
txt
  4

  0
STYLE
  2
BYGG-027036$0$SIMPLEX
 70
     0
 40
0.0
 41
1.0
 50
0.0
 71
     0
 42
0.4
  3
simplex
  4

  0
STYLE
  2
BYGG-027036$0$ITALIC
 70
     0
 40
0.0
 41
1.0
 50
0.0
 71
     0
 42
0.4
  3
ITALIC
  4

  0
STYLE
  2
BYGG-027036$0$SYMBOL1
 70
     0
 40
0.0
 41
1.0
 50
0.0
 71
     0
 42
0.2
  3
SIMPLEX.SHX
  4

  0
STYLE
  2
BYGG-027036$0$MONOTXT
 70
     0
 40
0.2
 41
1.0
 50
0.0
 71
     0
 42
0.2
  3
MONOTXT
  4

  0
STYLE
  2
BYGG-027036$0$TIMES
 70
     0
 40
0.0
 41
1.0
 50
0.0
 71
     0
 42
100.0
  3
txt
  4

  0
STYLE
  2
BYGG-027036$0$ROMANS
 70
     0
 40
0.0
 41
1.0
 50
0.0
 71
     0
 42
5.0
  3
romans
  4

  0
STYLE
  2
BYGG-027036$0$SEACAD_ARIAL
 70
     0
 40
0.0
 41
1.0
 50
0.0
 71
     0
 42
0.2
  3
txt
  4

  0
STYLE
  2
BYGG-027036$0$ANNOTATIVE
 70
     0
 40
0.0
 41
1.0
 50
0.0
 71
     0
 42
0.2
  3
txt
  4

  0
STYLE
  2
BYGG-019610$0$STANDARD
 70
     0
 40
0.0
 41
1.0
 50
0.0
 71
     0
 42
0.2
  3
txt
  4

  0
STYLE
  2
BYGG-019610$0$ISO
 70
     0
 40
0.0
 41
1.0
 50
0.0
 71
     0
 42
3.5
  3
txt
  4

  0
STYLE
  2
BYGG-029021$0$STANDARD
 70
     0
 40
0.0
 41
1.0
 50
0.0
 71
     0
 42
0.2
  3
txt
  4

  0
STYLE
  2
BYGG-029021$0$ISO
 70
     0
 40
0.0
 41
1.0
 50
0.0
 71
     0
 42
3.5
  3
txt
  4

  0
STYLE
  2
BYGG-029021$0$ANNOTATION
 70
     0
 40
0.0
 41
1.0
 50
0.0
 71
     0
 42
0.2
  3
txt
  4

  0
STYLE
  2
BYGG-029021$0$COTATION
 70
     0
 40
0.0
 41
1.0
 50
0.0
 71
     0
 42
0.2
  3
txt
  4

  0
STYLE
  2
BYGG-029021$0$ANNOTATIVE
 70
     0
 40
0.0
 41
1.0
 50
0.0
 71
     0
 42
0.2
  3
txt
  4

  0
STYLE
  2
BYGG-024800$0$STANDARD
 70
     0
 40
0.0
 41
1.0
 50
0.0
 71
     0
 42
0.2
  3
txt
  4

  0
STYLE
  2
BYGG-024800$0$ISO
 70
     0
 40
0.0
 41
1.0
 50
0.0
 71
     0
 42
3.5
  3
txt
  4

  0
STYLE
  2
BYGG-024807$0$STANDARD
 70
     0
 40
0.0
 41
1.0
 50
0.0
 71
     0
 42
0.2
  3
txt
  4

  0
STYLE
  2
BYGG-024807$0$ISO
 70
     0
 40
0.0
 41
1.0
 50
0.0
 71
     0
 42
3.5
  3
txt
  4

  0
STYLE
  2
BYGG-024807$0$ANNOTATIVE
 70
     0
 40
0.0
 41
1.0
 50
0.0
 71
     0
 42
0.2
  3
txt
  4

  0
STYLE
  2
BYGG-01409101$0$STANDARD
 70
     0
 40
0.0
 41
1.0
 50
0.0
 71
     0
 42
0.4
  3
txt
  4

  0
STYLE
  2
BYGG-01409101$0$SIMPLEX
 70
     0
 40
0.0
 41
1.0
 50
0.0
 71
     0
 42
0.2
  3
simplex
  4

  0
STYLE
  2
BYGG-036634$0$STANDARD
 70
     0
 40
0.0
 41
1.0
 50
0.0
 71
     0
 42
0.2
  3
txt
  4

  0
STYLE
  2
BYGG-036634$0$ISO
 70
     0
 40
0.0
 41
1.0
 50
0.0
 71
     0
 42
3.5
  3
txt
  4

  0
STYLE
  2
BYGG-030601$0$STANDARD
 70
     0
 40
0.0
 41
1.0
 50
0.0
 71
     0
 42
0.2
  3
txt
  4

  0
STYLE
  2
BYGG-030601$0$ISO
 70
     0
 40
0.0
 41
1.0
 50
0.0
 71
     0
 42
3.5
  3
txt
  4

  0
STYLE
  2
BYGG-014090$0$STANDARD
 70
     0
 40
0.0
 41
1.0
 50
0.0
 71
     0
 42
0.2
  3
txt
  4

  0
STYLE
  2
BYGG-014090$0$SIMPLEX
 70
     0
 40
0.0
 41
1.0
 50
0.0
 71
     0
 42
0.2
  3
simplex
  4

  0
STYLE
  2
BYGG-01409301$0$STANDARD
 70
     0
 40
0.0
 41
1.0
 50
0.0
 71
     0
 42
0.4
  3
txt
  4

  0
STYLE
  2
BYGG-01409301$0$ANNOTATIVE
 70
     0
 40
0.0
 41
1.0
 50
0.0
 71
     0
 42
0.4
  3
txt
  4

  0
ENDTAB
  0
TABLE
  2
VIEW
 70
     0
  0
ENDTAB
  0
TABLE
  2
UCS
 70
     0
  0
ENDTAB
  0
TABLE
  2
APPID
 70
    51
  0
APPID
  2
ACAD
 70
     0
  0
APPID
  2
ACAD_DSTYLE_DIMTEXT_FILL
 70
     0
  0
APPID
  2
ACAD_DSTYLE_DIMEXT_LENGTH
 70
     0
  0
APPID
  2
ACAD_DSTYLE_DIMEXT_ENABLED
 70
     0
  0
APPID
  2
ACAD_DSTYLE_DIM_LINETYPE
 70
     0
  0
APPID
  2
ACAD_DSTYLE_DIM_EXT1_LINETYPE
 70
     0
  0
APPID
  2
ACAD_DSTYLE_DIM_EXT2_LINETYPE
 70
     0
  0
APPID
  2
ACAD_DSTYLE_DIMJOGGED_JOGA
 70
     0
  0
APPID
  2
ACAD_DSTYLE_DIMARC_LENGTH_
 70
     0
  0
APPID
  2
ACAD_PSEXT
 70
     0
  0
APPID
  2
ACAD_MLEADERVER
 70
     0
  0
APPID
  2
AMG_ARCHIVE11
 70
     0
  0
APPID
  2
ACAD_EXEMPT_FROM_CAD_STANDARDS
 70
     0
  0
APPID
  2
ACADANNOTATIVE
 70
     0
  0
APPID
  2
ACAECLAYERSTANDARD
 70
     0
  0
APPID
  2
ACDBDYNAMICBLOCKGUID
 70
     0
  0
APPID
  2
ACDBBLOCKREPETAG
 70
     0
  0
APPID
  2
DCO15
 70
     0
  0
APPID
  2
ACAD_DSTYLE_DIMJAG
 70
     0
  0
APPID
  2
ACAD_DSTYLE_DIMTALN
 70
     0
  0
APPID
  2
RC_PROFILE
 70
     0
  0
APPID
  2
ACAD_NAV_VCDISPLAY
 70
     0
  0
APPID
  2
GRADIENTCOLOR1ACI
 70
     0
  0
APPID
  2
GRADIENTCOLOR2ACI
 70
     0
  0
APPID
  2
ACCMTRANSPARENCY
 70
     0
  0
APPID
  2
ACAUTHENVIRON
 70
     0
  0
APPID
  2
ACDBDYNAMICBLOCKTRUENAME
 70
     0
  0
APPID
  2
AME_SOL
 70
     0
  0
APPID
  2
PE_URL
 70
     0
  0
APPID
  2
ACDBBLOCKREPBTAG
 70
     0
  0
APPID
  2
ACAD_DSTYLE_DIMRADIAL_EXTENSION
 70
     0
  0
APPID
  2
ACLAYERTOOLS
 70
     0
  0
APPID
  2
ACAD_OBJECT_CHANGE_GUID
 70
     0
  0
APPID
  2
AVE_RENDER
 70
     0
  0
APPID
  2
AVE_ENTITY_MATERIAL
 70
     0
  0
APPID
  2
AVE_FINISH
 70
     0
  0
APPID
  2
AVE_MATERIAL
 70
     0
  0
APPID
  2
AVE_GLOBAL
 70
     0
  0
APPID
  2
4M_RENDER
 70
     0
  0
APPID
  2
LIBMAN
 70
     0
  0
APPID
  2
AUTOBUILD
 70
     0
  0
APPID
  2
GENIUS_GENREC_14
 70
     0
  0
APPID
  2
GENIUS_GENOBJ-N-REC_13
 70
     0
  0
APPID
  2
GENIUS_GENODEF_13
 70
     0
  0
APPID
  2
GENIUS_GENTRA_14
 70
     0
  0
APPID
  2
GENIUS_GENOREF_13
 70
     0
  0
APPID
  2
GENIUS_GENSCREG_15
 70
     0
  0
APPID
  2
GENIUS_GENOBJ-N-SDF_13
 70
     0
  0
APPID
  2
ACADANNOPO
 70
     0
  0
APPID
  2
ACADBPTGRAPHNODEID
 70
     0
  0
APPID
  2
ACDBATTR
 70
     0
  0
ENDTAB
  0
TABLE
  2
DIMSTYLE
 70
    63
  0
DIMSTYLE
  2
STANDARD
 70
     0
  3

  4

  5

  6

  7

 40
1.0
 41
0.18
 42
0.0625
 43
0.38
 44
0.18
 45
0.0
 46
0.0
 47
0.0
 48
0.0
140
0.18
141
0.09
142
0.0
143
25.399999999999999
144
1.0
145
0.0
146
1.0
147
0.09
 71
     0
 72
     0
 73
     1
 74
     1
 75
     0
 76
     0
 77
     0
 78
     0
170
     0
171
     2
172
     0
173
     0
174
     0
175
     0
176
     0
177
     0
178
     0
  0
DIMSTYLE
  2
MASKIN
 70
     0
  3

  4

  5

  6

  7

 40
0.0
 41
3.0
 42
1.5
 43
10.0
 44
1.5
 45
0.0
 46
0.0
 47
0.0
 48
0.0
140
3.0
141
-5.0
142
0.0
143
25.399999999999999
144
-1.0
145
0.0
146
1.0
147
1.0
 71
     0
 72
     0
 73
     0
 74
     0
 75
     0
 76
     0
 77
     1
 78
     8
170
     0
171
     0
172
     1
173
     0
174
     0
175
     0
176
   256
177
   256
178
     2
  0
DIMSTYLE
  2
BYGG-021589$0$MASKIN
 70
     0
  3

  4

  5

  6

  7

 40
0.0
 41
3.0
 42
1.5
 43
10.0
 44
1.5
 45
0.0
 46
0.0
 47
0.0
 48
0.0
140
3.0
141
-5.0
142
0.0
143
25.399999999999999
144
-1.0
145
0.0
146
1.0
147
1.0
 71
     0
 72
     0
 73
     0
 74
     0
 75
     0
 76
     0
 77
     1
 78
     8
170
     0
171
     0
172
     1
173
     0
174
     0
175
     0
176
   256
177
   256
178
   256
  0
DIMSTYLE
  2
BYGG-01482201$0$STANDARD
 70
     0
  3

  4

  5

  6

  7

 40
1.0
 41
0.18
 42
0.0625
 43
0.38
 44
0.18
 45
0.0
 46
0.0
 47
0.0
 48
0.0
140
0.18
141
0.09
142
0.0
143
25.399999999999999
144
1.0
145
0.0
146
1.0
147
0.09
 71
     0
 72
     0
 73
     1
 74
     1
 75
     0
 76
     0
 77
     0
 78
     0
170
     0
171
     2
172
     0
173
     0
174
     0
175
     0
176
     0
177
     0
178
     0
  0
DIMSTYLE
  2
BYGG-01482201$0$MASKIN
 70
     0
  3

  4

  5

  6

  7

 40
0.0
 41
3.0
 42
1.5
 43
10.0
 44
1.5
 45
0.0
 46
0.0
 47
0.0
 48
0.0
140
3.0
141
-5.0
142
0.0
143
25.399999999999999
144
-1.0
145
0.0
146
1.0
147
1.0
 71
     0
 72
     0
 73
     0
 74
     1
 75
     0
 76
     0
 77
     1
 78
     8
170
     0
171
     0
172
     1
173
     0
174
     0
175
     0
176
   256
177
   256
178
     2
  0
DIMSTYLE
  2
BYGG-021610$0$MASKIN
 70
     0
  3

  4

  5

  6

  7

 40
0.0
 41
3.0
 42
1.5
 43
10.0
 44
1.5
 45
0.0
 46
0.0
 47
0.0
 48
0.0
140
3.0
141
-5.0
142
0.0
143
25.399999999999999
144
-1.0
145
0.0
146
1.0
147
1.0
 71
     0
 72
     0
 73
     0
 74
     0
 75
     0
 76
     0
 77
     1
 78
     8
170
     0
171
     0
172
     1
173
     0
174
     0
175
     0
176
   256
177
   256
178
   256
  0
DIMSTYLE
  2
BYGG-014357$0$MASKIN
 70
     0
  3

  4

  5

  6

  7

 40
0.0
 41
3.0
 42
1.5
 43
10.0
 44
1.5
 45
0.0
 46
0.0
 47
0.0
 48
0.0
140
3.0
141
-5.0
142
0.0
143
25.399999999999999
144
-1.0
145
0.0
146
1.0
147
1.0
 71
     0
 72
     0
 73
     0
 74
     0
 75
     0
 76
     0
 77
     1
 78
     8
170
     0
171
     0
172
     1
173
     0
174
     0
175
     0
176
   256
177
   256
178
   256
  0
DIMSTYLE
  2
BYGG-014357$0$MASKIN1
 70
     0
  3

  4

  5

  6

  7

 40
1.0
 41
3.0
 42
1.5
 43
10.0
 44
1.5
 45
0.0
 46
0.0
 47
0.0
 48
0.0
140
3.0
141
-5.0
142
0.0
143
25.399999999999999
144
1.0
145
0.0
146
1.0
147
0.9
 71
     0
 72
     0
 73
     0
 74
     0
 75
     0
 76
     0
 77
     1
 78
     8
170
     0
171
     0
172
     1
173
     0
174
     0
175
     0
176
   256
177
   256
178
   256
  0
DIMSTYLE
  2
BYGG-014357$0$MASKIN2
 70
     0
  3

  4

  5

  6

  7

 40
1.0
 41
3.0
 42
1.5
 43
10.0
 44
1.5
 45
0.0
 46
0.0
 47
0.0
 48
0.0
140
3.0
141
-5.0
142
0.0
143
25.399999999999999
144
1.0
145
0.0
146
1.0
147
0.9
 71
     0
 72
     0
 73
     0
 74
     0
 75
     0
 76
     0
 77
     1
 78
     8
170
     0
171
     0
172
     1
173
     0
174
     0
175
     0
176
   256
177
   256
178
   256
  0
DIMSTYLE
  2
BYGG-014357$0$MASKIN3
 70
     0
  3

  4

  5

  6

  7

 40
1.0
 41
3.0
 42
1.5
 43
10.0
 44
1.5
 45
0.0
 46
0.0
 47
0.0
 48
0.0
140
3.0
141
-5.0
142
0.0
143
25.399999999999999
144
1.0
145
0.0
146
1.0
147
0.9
 71
     0
 72
     0
 73
     0
 74
     0
 75
     0
 76
     0
 77
     1
 78
     8
170
     0
171
     0
172
     1
173
     0
174
     0
175
     0
176
   256
177
   256
178
   256
  0
DIMSTYLE
  2
BYGG-014357$0$DMST_1
 70
     0
  3

  4

  5

  6

  7

 40
1.0
 41
0.7000000000000002
 42
0.0
 43
7.0
 44
0.4
 45
0.0
 46
0.0
 47
0.15
 48
0.15
140
0.7000000000000002
141
0.0
142
0.0
143
25.399999999999999
144
1.0
145
0.0
146
0.7
147
0.09
 71
     1
 72
     0
 73
     0
 74
     0
 75
     0
 76
     0
 77
     1
 78
     9
170
     0
171
     2
172
     0
173
     0
174
     0
175
     0
176
     1
177
     1
178
     2
  0
DIMSTYLE
  2
BYGG-014062$0$MASKIN
 70
     0
  3

  4

  5

  6

  7

 40
0.0
 41
3.0
 42
1.5
 43
10.0
 44
1.5
 45
0.0
 46
0.0
 47
0.0
 48
0.0
140
3.0
141
-5.0
142
0.0
143
25.399999999999999
144
-1.0
145
0.0
146
1.0
147
1.0
 71
     0
 72
     0
 73
     0
 74
     0
 75
     0
 76
     0
 77
     1
 78
     8
170
     0
171
     0
172
     1
173
     0
174
     0
175
     0
176
   256
177
   256
178
   256
  0
DIMSTYLE
  2
BYGG-014062$0$STANDARD
 70
     0
  3

  4

  5

  6

  7

 40
1.0
 41
0.18
 42
0.0625
 43
0.38
 44
0.18
 45
0.0
 46
0.0
 47
0.0
 48
0.0
140
0.18
141
0.09
142
0.0
143
25.399999999999999
144
1.0
145
0.0
146
1.0
147
0.09
 71
     0
 72
     0
 73
     1
 74
     1
 75
     0
 76
     0
 77
     0
 78
     0
170
     0
171
     2
172
     0
173
     0
174
     0
175
     0
176
     0
177
     0
178
     0
  0
DIMSTYLE
  2
BYGG-014062$0$PRIMO_1-1
 70
     0
  3

  4

  5

  6

  7

 40
1.0
 41
3.0
 42
1.0
 43
5.0
 44
1.0
 45
0.0
 46
0.0
 47
0.0
 48
0.0
140
3.0
141
3.0
142
0.0
143
25.399999999999999
144
1.0
145
0.0
146
1.0
147
1.0
 71
     0
 72
     0
 73
     0
 74
     0
 75
     0
 76
     0
 77
     1
 78
     8
170
     0
171
     2
172
     0
173
     0
174
     0
175
     0
176
   256
177
   256
178
     6
  0
DIMSTYLE
  2
BYGG-014062$0$PRIMO_2-1
 70
     0
  3

  4

  5

  6

  7

 40
0.5
 41
3.0
 42
1.0
 43
5.0
 44
1.0
 45
0.0
 46
0.0
 47
0.0
 48
0.0
140
3.0
141
3.0
142
0.0
143
25.399999999999999
144
1.0
145
0.0
146
1.0
147
1.0
 71
     0
 72
     0
 73
     0
 74
     0
 75
     0
 76
     0
 77
     1
 78
     8
170
     0
171
     2
172
     0
173
     0
174
     0
175
     0
176
   256
177
   256
178
     6
  0
DIMSTYLE
  2
BYGG-014062$0$PRIMO_2_5-1
 70
     0
  3

  4

  5

  6

  7

 40
0.4
 41
3.0
 42
1.0
 43
5.0
 44
1.0
 45
0.0
 46
0.0
 47
0.0
 48
0.0
140
3.0
141
3.0
142
0.0
143
25.399999999999999
144
1.0
145
0.0
146
1.0
147
1.0
 71
     0
 72
     0
 73
     0
 74
     0
 75
     0
 76
     0
 77
     1
 78
     8
170
     0
171
     2
172
     0
173
     0
174
     0
175
     0
176
   256
177
   256
178
     6
  0
DIMSTYLE
  2
BYGG-014062$0$PRIMO_1-10
 70
     0
  3

  4

  5

  6

  7

 40
10.0
 41
3.0
 42
1.0
 43
5.0
 44
1.0
 45
0.0
 46
0.0
 47
0.0
 48
0.0
140
3.0
141
3.0
142
0.0
143
25.399999999999999
144
1.0
145
0.0
146
1.0
147
1.0
 71
     0
 72
     0
 73
     0
 74
     0
 75
     0
 76
     0
 77
     1
 78
     8
170
     0
171
     2
172
     0
173
     0
174
     0
175
     0
176
   256
177
   256
178
     6
  0
DIMSTYLE
  2
BYGG-014062$0$PRIMO_1-5
 70
     0
  3

  4

  5

  6

  7

 40
5.0
 41
3.0
 42
1.0
 43
5.0
 44
1.0
 45
0.0
 46
0.0
 47
0.0
 48
0.0
140
3.0
141
3.0
142
0.0
143
25.399999999999999
144
1.0
145
0.0
146
1.0
147
1.0
 71
     0
 72
     0
 73
     0
 74
     0
 75
     0
 76
     0
 77
     1
 78
     8
170
     0
171
     2
172
     0
173
     0
174
     0
175
     0
176
   256
177
   256
178
     6
  0
DIMSTYLE
  2
BYGG-014062$0$PRIMO_1-2
 70
     0
  3

  4

  5

  6

  7

 40
2.0
 41
3.0
 42
1.0
 43
5.0
 44
1.0
 45
0.0
 46
0.0
 47
0.0
 48
0.0
140
3.0
141
3.0
142
0.0
143
25.399999999999999
144
1.0
145
0.0
146
1.0
147
1.0
 71
     0
 72
     0
 73
     0
 74
     0
 75
     0
 76
     0
 77
     1
 78
     8
170
     0
171
     2
172
     0
173
     0
174
     0
175
     0
176
   256
177
   256
178
     6
  0
DIMSTYLE
  2
BYGG-021806$0$STANDARD
 70
     0
  3

  4

  5

  6

  7

 40
1.0
 41
0.18
 42
0.0625
 43
0.38
 44
0.18
 45
0.0
 46
0.0
 47
0.0
 48
0.0
140
0.18
141
0.09
142
0.0
143
25.399999999999999
144
1.0
145
0.0
146
1.0
147
0.09
 71
     0
 72
     0
 73
     1
 74
     1
 75
     0
 76
     0
 77
     0
 78
     0
170
     0
171
     2
172
     0
173
     0
174
     0
175
     0
176
     0
177
     0
178
     0
  0
DIMSTYLE
  2
BYGG-021806$0$MASKIN
 70
     0
  3

  4

  5

  6

  7

 40
0.0
 41
3.0
 42
1.5
 43
10.0
 44
1.5
 45
0.0
 46
0.0
 47
0.0
 48
0.0
140
3.0
141
-5.0
142
0.0
143
25.399999999999999
144
-1.0
145
0.0
146
1.0
147
1.0
 71
     0
 72
     0
 73
     0
 74
     0
 75
     0
 76
     0
 77
     1
 78
     8
170
     0
171
     0
172
     1
173
     0
174
     0
175
     0
176
   256
177
   256
178
     2
  0
DIMSTYLE
  2
BYGG-021582$0$MASKIN
 70
     0
  3

  4

  5

  6

  7

 40
0.0
 41
3.0
 42
1.5
 43
10.0
 44
1.5
 45
0.0
 46
0.0
 47
0.0
 48
0.0
140
3.0
141
-5.0
142
0.0
143
25.399999999999999
144
-1.0
145
0.0
146
1.0
147
1.0
 71
     0
 72
     0
 73
     0
 74
     0
 75
     0
 76
     0
 77
     1
 78
     8
170
     0
171
     0
172
     1
173
     0
174
     0
175
     0
176
   256
177
   256
178
   256
  0
DIMSTYLE
  2
BYGG-014279$0$STANDARD
 70
     0
  3

  4

  5

  6

  7

 40
1.0
 41
0.18
 42
0.0625
 43
0.38
 44
0.18
 45
0.0
 46
0.0
 47
0.0
 48
0.0
140
0.18
141
0.09
142
0.0
143
25.399999999999999
144
1.0
145
0.0
146
1.0
147
0.09
 71
     0
 72
     0
 73
     1
 74
     1
 75
     0
 76
     0
 77
     0
 78
     0
170
     0
171
     2
172
     0
173
     0
174
     0
175
     0
176
     0
177
     0
178
     0
  0
DIMSTYLE
  2
BYGG-014279$0$MASKIN
 70
     0
  3

  4

  5

  6

  7

 40
0.0
 41
3.0
 42
1.5
 43
10.0
 44
1.5
 45
0.0
 46
0.0
 47
0.0
 48
0.0
140
3.0
141
-5.0
142
0.0
143
25.399999999999999
144
-1.0
145
0.0
146
1.0
147
1.0
 71
     0
 72
     0
 73
     0
 74
     1
 75
     0
 76
     0
 77
     1
 78
     8
170
     0
171
     0
172
     1
173
     0
174
     0
175
     0
176
   256
177
   256
178
     2
  0
DIMSTYLE
  2
BYGG-033225$0$STANDARD
 70
     0
  3

  4

  5

  6

  7

 40
1.0
 41
0.18
 42
0.0625
 43
0.38
 44
0.18
 45
0.0
 46
0.0
 47
0.0
 48
0.0
140
0.18
141
0.09
142
0.0
143
25.399999999999999
144
1.0
145
0.0
146
1.0
147
0.09
 71
     0
 72
     0
 73
     1
 74
     1
 75
     0
 76
     0
 77
     0
 78
     0
170
     0
171
     2
172
     0
173
     0
174
     0
175
     0
176
     0
177
     0
178
     0
  0
DIMSTYLE
  2
BYGG-033225$0$MASKIN
 70
     0
  3

  4

  5

  6

  7

 40
0.0
 41
3.0
 42
1.5
 43
10.0
 44
1.5
 45
0.0
 46
0.0
 47
0.0
 48
0.0
140
3.0
141
-5.0
142
0.0
143
25.399999999999999
144
-1.0
145
0.0
146
1.0
147
1.0
 71
     0
 72
     0
 73
     0
 74
     0
 75
     0
 76
     0
 77
     1
 78
     8
170
     0
171
     0
172
     1
173
     0
174
     0
175
     0
176
   256
177
   256
178
     2
  0
DIMSTYLE
  2
BYGG-033225$0$ANNOTATIVE
 70
     0
  3

  4

  5

  6

  7

 40
1.0
 41
0.18
 42
0.0625
 43
0.38
 44
0.18
 45
0.0
 46
0.0
 47
0.0
 48
0.0
140
0.18
141
0.09
142
0.0
143
25.399999999999999
144
1.0
145
0.0
146
1.0
147
0.09
 71
     0
 72
     0
 73
     1
 74
     1
 75
     0
 76
     0
 77
     0
 78
     0
170
     0
171
     2
172
     0
173
     0
174
     0
175
     0
176
     0
177
     0
178
     0
  0
DIMSTYLE
  2
BYGG-025060$0$MASKIN
 70
     0
  3

  4

  5

  6

  7

 40
0.0
 41
3.0
 42
1.5
 43
10.0
 44
1.5
 45
0.0
 46
0.0
 47
0.0
 48
0.0
140
3.0
141
-5.0
142
0.0
143
25.399999999999999
144
-1.0
145
0.0
146
1.0
147
1.0
 71
     0
 72
     0
 73
     0
 74
     0
 75
     0
 76
     0
 77
     1
 78
     8
170
     0
171
     0
172
     1
173
     0
174
     0
175
     0
176
   256
177
   256
178
     2
  0
DIMSTYLE
  2
BYGG-025060$0$STANDARD
 70
     0
  3

  4

  5

  6

  7

 40
1.0
 41
0.18
 42
0.0625
 43
0.38
 44
0.18
 45
0.0
 46
0.0
 47
0.0
 48
0.0
140
0.18
141
0.09
142
0.0
143
25.399999999999999
144
1.0
145
0.0
146
1.0
147
0.09
 71
     0
 72
     0
 73
     1
 74
     1
 75
     0
 76
     0
 77
     0
 78
     0
170
     0
171
     2
172
     0
173
     0
174
     0
175
     0
176
     0
177
     0
178
     0
  0
DIMSTYLE
  2
BYGG-012216$0$MASKIN
 70
     0
  3

  4

  5

  6

  7

 40
0.0
 41
3.0
 42
1.5
 43
10.0
 44
1.5
 45
0.0
 46
0.0
 47
0.0
 48
0.0
140
3.0
141
-5.0
142
0.0
143
25.399999999999999
144
-1.0
145
0.0
146
1.0
147
1.0
 71
     0
 72
     0
 73
     0
 74
     0
 75
     0
 76
     0
 77
     1
 78
     8
170
     0
171
     0
172
     1
173
     0
174
     0
175
     0
176
   256
177
   256
178
     2
  0
DIMSTYLE
  2
BYGG-012216$0$STANDARD
 70
     0
  3

  4

  5

  6

  7

 40
1.0
 41
0.18
 42
0.0625
 43
0.38
 44
0.18
 45
0.0
 46
0.0
 47
0.0
 48
0.0
140
0.18
141
0.09
142
0.0
143
25.399999999999999
144
1.0
145
0.0
146
1.0
147
0.09
 71
     0
 72
     0
 73
     1
 74
     1
 75
     0
 76
     0
 77
     0
 78
     0
170
     0
171
     2
172
     0
173
     0
174
     0
175
     0
176
     0
177
     0
178
     0
  0
DIMSTYLE
  2
BYGG-028980$0$STANDARD
 70
     0
  3

  4

  5

  6

  7

 40
1.0
 41
0.18
 42
0.0625
 43
0.38
 44
0.18
 45
0.0
 46
0.0
 47
0.0
 48
0.0
140
0.18
141
0.09
142
0.0
143
25.399999999999999
144
1.0
145
0.0
146
1.0
147
0.09
 71
     0
 72
     0
 73
     1
 74
     1
 75
     0
 76
     0
 77
     0
 78
     0
170
     0
171
     2
172
     0
173
     0
174
     0
175
     0
176
     0
177
     0
178
     0
  0
DIMSTYLE
  2
BYGG-028980$0$MASKIN
 70
     0
  3

  4

  5

  6

  7

 40
0.0
 41
3.0
 42
1.5
 43
10.0
 44
1.5
 45
0.0
 46
0.0
 47
0.0
 48
0.0
140
3.0
141
-5.0
142
0.0
143
25.399999999999999
144
-1.0
145
0.0
146
1.0
147
1.0
 71
     0
 72
     0
 73
     0
 74
     0
 75
     0
 76
     0
 77
     1
 78
     8
170
     0
171
     0
172
     1
173
     0
174
     0
175
     0
176
   256
177
   256
178
     2
  0
DIMSTYLE
  2
BYGG-020805$0$STANDARD
 70
     0
  3

  4

  5

  6

  7

 40
1.0
 41
0.18
 42
0.0625
 43
0.38
 44
0.18
 45
0.0
 46
0.0
 47
0.0
 48
0.0
140
0.18
141
0.09
142
0.0
143
25.399999999999999
144
1.0
145
0.0
146
1.0
147
0.09
 71
     0
 72
     0
 73
     1
 74
     1
 75
     0
 76
     0
 77
     0
 78
     0
170
     0
171
     2
172
     0
173
     0
174
     0
175
     0
176
     0
177
     0
178
     0
  0
DIMSTYLE
  2
BYGG-020805$0$MASKIN
 70
     0
  3

  4

  5

  6

  7

 40
0.0
 41
3.0
 42
1.5
 43
10.0
 44
1.5
 45
0.0
 46
0.0
 47
0.0
 48
0.0
140
3.0
141
-5.0
142
0.0
143
25.399999999999999
144
-1.0
145
0.0
146
1.0
147
1.0
 71
     0
 72
     0
 73
     0
 74
     0
 75
     0
 76
     0
 77
     1
 78
     8
170
     0
171
     0
172
     1
173
     0
174
     0
175
     0
176
   256
177
   256
178
     2
  0
DIMSTYLE
  2
BYGG-033168$0$STANDARD
 70
     0
  3

  4

  5

  6

  7

 40
1.0
 41
0.18
 42
0.0625
 43
0.38
 44
0.18
 45
0.0
 46
0.0
 47
0.0
 48
0.0
140
0.18
141
0.09
142
0.0
143
25.399999999999999
144
1.0
145
0.0
146
1.0
147
0.09
 71
     0
 72
     0
 73
     1
 74
     1
 75
     0
 76
     0
 77
     0
 78
     0
170
     0
171
     2
172
     0
173
     0
174
     0
175
     0
176
     0
177
     0
178
     0
  0
DIMSTYLE
  2
BYGG-033168$0$MASKIN
 70
     0
  3

  4

  5

  6

  7

 40
0.0
 41
3.0
 42
1.5
 43
10.0
 44
1.5
 45
0.0
 46
0.0
 47
0.0
 48
0.0
140
3.0
141
-5.0
142
0.0
143
25.399999999999999
144
-1.0
145
0.0
146
1.0
147
1.0
 71
     0
 72
     0
 73
     0
 74
     0
 75
     0
 76
     0
 77
     1
 78
     8
170
     0
171
     0
172
     1
173
     0
174
     0
175
     0
176
   256
177
   256
178
     2
  0
DIMSTYLE
  2
BYGG-027036$0$STANDARD
 70
     0
  3

  4

  5

  6

  7

 40
1.0
 41
0.18
 42
0.0625
 43
0.38
 44
0.18
 45
0.0
 46
0.0
 47
0.0
 48
0.0
140
0.18
141
0.09
142
0.0
143
25.399999999999999
144
1.0
145
0.0
146
1.0
147
0.09
 71
     0
 72
     0
 73
     1
 74
     1
 75
     0
 76
     0
 77
     0
 78
     0
170
     0
171
     2
172
     0
173
     0
174
     0
175
     0
176
     0
177
     0
178
     0
  0
DIMSTYLE
  2
BYGG-027036$0$MASKIN
 70
     0
  3

  4

  5

  6

  7

 40
0.0
 41
3.0
 42
1.5
 43
10.0
 44
1.5
 45
0.0
 46
0.0
 47
0.0
 48
0.0
140
3.0
141
-5.0
142
0.0
143
25.399999999999999
144
-1.0
145
0.0
146
1.0
147
1.0
 71
     0
 72
     0
 73
     0
 74
     0
 75
     0
 76
     0
 77
     1
 78
     8
170
     0
171
     0
172
     1
173
     0
174
     0
175
     0
176
   256
177
   256
178
     2
  0
DIMSTYLE
  2
BYGG-027036$0$STANDARD$4
 70
     0
  3

  4

  5

  6

  7

 40
1.0
 41
2.5
 42
2.0
 43
3.75
 44
1.0
 45
0.0
 46
0.0
 47
0.0
 48
0.0
140
5.0
141
3.0
142
0.0
143
0.0394
144
1.0
145
1.0
146
1.0
147
1.0
 71
     0
 72
     0
 73
     1
 74
     0
 75
     0
 76
     0
 77
     1
 78
     8
170
     0
171
     2
172
     1
173
     0
174
     0
175
     0
176
     5
177
     5
178
     5
  0
DIMSTYLE
  2
BYGG-027036$0$STANDARD$2
 70
     0
  3

  4

  5

  6

  7

 40
1.0
 41
2.5
 42
2.0
 43
3.75
 44
1.0
 45
0.0
 46
0.0
 47
0.0
 48
0.0
140
5.0
141
3.0
142
0.0
143
0.0394
144
1.0
145
1.0
146
1.0
147
1.0
 71
     0
 72
     0
 73
     1
 74
     0
 75
     0
 76
     0
 77
     1
 78
     8
170
     0
171
     2
172
     1
173
     0
174
     0
175
     0
176
     5
177
     5
178
     5
  0
DIMSTYLE
  2
BYGG-027036$0$DMST_1
 70
     0
  3

  4

  5

  6

  7

 40
1.0
 41
0.3500000000000001
 42
0.0
 43
7.0
 44
0.2
 45
0.0
 46
0.0
 47
0.0
 48
0.0
140
0.3500000000000001
141
0.0
142
0.0
143
25.399999999999999
144
1.0
145
0.0
146
1.0
147
0.09
 71
     0
 72
     0
 73
     0
 74
     0
 75
     0
 76
     0
 77
     1
 78
     9
170
     0
171
     2
172
     0
173
     0
174
     0
175
     0
176
     1
177
     1
178
     2
  0
DIMSTYLE
  2
BYGG-027036$0$ANNOTATIVE
 70
     0
  3

  4

  5

  6

  7

 40
1.0
 41
0.18
 42
0.0625
 43
0.38
 44
0.18
 45
0.0
 46
0.0
 47
0.0
 48
0.0
140
0.18
141
0.09
142
0.0
143
25.399999999999999
144
1.0
145
0.0
146
1.0
147
0.09
 71
     0
 72
     0
 73
     1
 74
     1
 75
     0
 76
     0
 77
     0
 78
     0
170
     0
171
     2
172
     0
173
     0
174
     0
175
     0
176
     0
177
     0
178
     0
  0
DIMSTYLE
  2
BYGG-019610$0$STANDARD
 70
     0
  3

  4

  5

  6

  7

 40
1.0
 41
0.18
 42
0.0625
 43
0.38
 44
0.18
 45
0.0
 46
0.0
 47
0.0
 48
0.0
140
0.18
141
0.09
142
0.0
143
25.399999999999999
144
1.0
145
0.0
146
1.0
147
0.09
 71
     0
 72
     0
 73
     1
 74
     1
 75
     0
 76
     0
 77
     0
 78
     0
170
     0
171
     2
172
     0
173
     0
174
     0
175
     0
176
     0
177
     0
178
     0
  0
DIMSTYLE
  2
BYGG-019610$0$MASKIN
 70
     0
  3

  4

  5

  6

  7

 40
0.0
 41
3.0
 42
1.5
 43
10.0
 44
1.5
 45
0.0
 46
0.0
 47
0.0
 48
0.0
140
3.0
141
-5.0
142
0.0
143
25.399999999999999
144
-1.0
145
0.0
146
1.0
147
1.0
 71
     0
 72
     0
 73
     0
 74
     0
 75
     0
 76
     0
 77
     1
 78
     8
170
     0
171
     0
172
     1
173
     0
174
     0
175
     0
176
   256
177
   256
178
     2
  0
DIMSTYLE
  2
BYGG-029021$0$STANDARD
 70
     0
  3

  4

  5

  6

  7

 40
1.0
 41
0.18
 42
0.0625
 43
0.38
 44
0.18
 45
0.0
 46
0.0
 47
0.0
 48
0.0
140
0.18
141
0.09
142
0.0
143
25.399999999999999
144
1.0
145
0.0
146
1.0
147
0.09
 71
     0
 72
     0
 73
     1
 74
     1
 75
     0
 76
     0
 77
     0
 78
     0
170
     0
171
     2
172
     0
173
     0
174
     0
175
     0
176
     0
177
     0
178
     0
  0
DIMSTYLE
  2
BYGG-029021$0$MASKIN
 70
     0
  3

  4

  5

  6

  7

 40
0.0
 41
3.0
 42
1.5
 43
10.0
 44
1.5
 45
0.0
 46
0.0
 47
0.0
 48
0.0
140
3.0
141
-5.0
142
0.0
143
25.399999999999999
144
-1.0
145
0.0
146
1.0
147
1.0
 71
     0
 72
     0
 73
     0
 74
     0
 75
     0
 76
     0
 77
     1
 78
     8
170
     0
171
     0
172
     1
173
     0
174
     0
175
     0
176
   256
177
   256
178
     2
  0
DIMSTYLE
  2
BYGG-029021$0$MASKIN1
 70
     0
  3

  4

  5

  6

  7

 40
0.0
 41
3.0
 42
1.5
 43
10.0
 44
1.5
 45
0.0
 46
0.0
 47
0.0
 48
0.0
140
3.0
141
-5.0
142
0.0
143
25.399999999999999
144
-1.0
145
0.0
146
1.0
147
1.0
 71
     0
 72
     0
 73
     0
 74
     0
 75
     0
 76
     0
 77
     1
 78
     8
170
     0
171
     0
172
     1
173
     0
174
     0
175
     0
176
   256
177
   256
178
   256
  0
DIMSTYLE
  2
BYGG-029021$0$COTATION_HUT
 70
     0
  3

  4

  5

  6

  7

 40
1.0
 41
0.25
 42
0.1
 43
3.75
 44
0.18
 45
0.0
 46
0.0
 47
0.0
 48
0.0
140
0.25
141
2.5
142
0.0
143
25.399999999999999
144
1.0
145
0.05
146
0.7000000000000002
147
0.09
 71
     1
 72
     0
 73
     0
 74
     0
 75
     0
 76
     0
 77
     1
 78
     0
170
     0
171
     2
172
     1
173
     0
174
     0
175
     0
176
     0
177
     0
178
     0
  0
DIMSTYLE
  2
BYGG-029021$0$ANNOTATIVE
 70
     0
  3

  4

  5

  6

  7

 40
1.0
 41
0.18
 42
0.0625
 43
0.38
 44
0.18
 45
0.0
 46
0.0
 47
0.0
 48
0.0
140
0.18
141
0.09
142
0.0
143
25.399999999999999
144
1.0
145
0.0
146
1.0
147
0.09
 71
     0
 72
     0
 73
     1
 74
     1
 75
     0
 76
     0
 77
     0
 78
     0
170
     0
171
     2
172
     0
173
     0
174
     0
175
     0
176
     0
177
     0
178
     0
  0
DIMSTYLE
  2
BYGG-024800$0$MASKIN
 70
     0
  3

  4

  5

  6

  7

 40
0.0
 41
3.0
 42
1.5
 43
10.0
 44
1.5
 45
0.0
 46
0.0
 47
0.0
 48
0.0
140
3.0
141
-5.0
142
0.0
143
25.399999999999999
144
-1.0
145
0.0
146
1.0
147
1.0
 71
     0
 72
     0
 73
     0
 74
     0
 75
     0
 76
     0
 77
     1
 78
     8
170
     0
171
     0
172
     1
173
     0
174
     0
175
     0
176
   256
177
   256
178
     2
  0
DIMSTYLE
  2
BYGG-024800$0$STANDARD
 70
     0
  3

  4

  5

  6

  7

 40
1.0
 41
0.18
 42
0.0625
 43
0.38
 44
0.18
 45
0.0
 46
0.0
 47
0.0
 48
0.0
140
0.18
141
0.09
142
0.0
143
25.399999999999999
144
1.0
145
0.0
146
1.0
147
0.09
 71
     0
 72
     0
 73
     1
 74
     1
 75
     0
 76
     0
 77
     0
 78
     0
170
     0
171
     2
172
     0
173
     0
174
     0
175
     0
176
     0
177
     0
178
     0
  0
DIMSTYLE
  2
BYGG-024807$0$MASKIN
 70
     0
  3

  4

  5

  6

  7

 40
0.0
 41
3.0
 42
1.5
 43
10.0
 44
1.5
 45
0.0
 46
0.0
 47
0.0
 48
0.0
140
3.0
141
-5.0
142
0.0
143
25.399999999999999
144
-1.0
145
0.0
146
1.0
147
1.0
 71
     0
 72
     0
 73
     0
 74
     0
 75
     0
 76
     0
 77
     1
 78
     8
170
     0
171
     0
172
     1
173
     0
174
     0
175
     0
176
   256
177
   256
178
     2
  0
DIMSTYLE
  2
BYGG-024807$0$STANDARD
 70
     0
  3

  4

  5

  6

  7

 40
1.0
 41
0.18
 42
0.0625
 43
0.38
 44
0.18
 45
0.0
 46
0.0
 47
0.0
 48
0.0
140
0.18
141
0.09
142
0.0
143
25.399999999999999
144
1.0
145
0.0
146
1.0
147
0.09
 71
     0
 72
     0
 73
     1
 74
     1
 75
     0
 76
     0
 77
     0
 78
     0
170
     0
171
     2
172
     0
173
     0
174
     0
175
     0
176
     0
177
     0
178
     0
  0
DIMSTYLE
  2
BYGG-024807$0$ANNOTATIVE
 70
     0
  3

  4

  5

  6

  7

 40
1.0
 41
0.18
 42
0.0625
 43
0.38
 44
0.18
 45
0.0
 46
0.0
 47
0.0
 48
0.0
140
0.18
141
0.09
142
0.0
143
25.399999999999999
144
1.0
145
0.0
146
1.0
147
0.09
 71
     0
 72
     0
 73
     1
 74
     1
 75
     0
 76
     0
 77
     0
 78
     0
170
     0
171
     2
172
     0
173
     0
174
     0
175
     0
176
     0
177
     0
178
     0
  0
DIMSTYLE
  2
BYGG-01409101$0$STANDARD
 70
     0
  3

  4

  5

  6

  7

 40
1.0
 41
0.18
 42
0.0625
 43
0.38
 44
0.18
 45
0.0
 46
0.0
 47
0.0
 48
0.0
140
0.18
141
0.09
142
0.0
143
25.399999999999999
144
1.0
145
0.0
146
1.0
147
0.09
 71
     0
 72
     0
 73
     1
 74
     1
 75
     0
 76
     0
 77
     0
 78
     0
170
     0
171
     2
172
     0
173
     0
174
     0
175
     0
176
     0
177
     0
178
     0
  0
DIMSTYLE
  2
BYGG-036634$0$STANDARD
 70
     0
  3

  4

  5

  6

  7

 40
1.0
 41
0.18
 42
0.0625
 43
0.38
 44
0.18
 45
0.0
 46
0.0
 47
0.0
 48
0.0
140
0.18
141
0.09
142
0.0
143
25.399999999999999
144
1.0
145
0.0
146
1.0
147
0.09
 71
     0
 72
     0
 73
     1
 74
     1
 75
     0
 76
     0
 77
     0
 78
     0
170
     0
171
     2
172
     0
173
     0
174
     0
175
     0
176
     0
177
     0
178
     0
  0
DIMSTYLE
  2
BYGG-036634$0$MASKIN
 70
     0
  3

  4

  5

  6

  7

 40
0.0
 41
3.0
 42
1.5
 43
10.0
 44
1.5
 45
0.0
 46
0.0
 47
0.0
 48
0.0
140
3.0
141
-5.0
142
0.0
143
25.399999999999999
144
-1.0
145
0.0
146
1.0
147
1.0
 71
     0
 72
     0
 73
     0
 74
     0
 75
     0
 76
     0
 77
     1
 78
     8
170
     0
171
     0
172
     1
173
     0
174
     0
175
     0
176
   256
177
   256
178
     2
  0
DIMSTYLE
  2
BYGG-030601$0$STANDARD
 70
     0
  3

  4

  5

  6

  7

 40
1.0
 41
0.18
 42
0.0625
 43
0.38
 44
0.18
 45
0.0
 46
0.0
 47
0.0
 48
0.0
140
0.18
141
0.09
142
0.0
143
25.399999999999999
144
1.0
145
0.0
146
1.0
147
0.09
 71
     0
 72
     0
 73
     1
 74
     1
 75
     0
 76
     0
 77
     0
 78
     0
170
     0
171
     2
172
     0
173
     0
174
     0
175
     0
176
     0
177
     0
178
     0
  0
DIMSTYLE
  2
BYGG-030601$0$MASKIN
 70
     0
  3

  4

  5

  6

  7

 40
0.0
 41
3.0
 42
1.5
 43
10.0
 44
1.5
 45
0.0
 46
0.0
 47
0.0
 48
0.0
140
3.0
141
-5.0
142
0.0
143
25.399999999999999
144
-1.0
145
0.0
146
1.0
147
1.0
 71
     0
 72
     0
 73
     0
 74
     0
 75
     0
 76
     0
 77
     1
 78
     8
170
     0
171
     0
172
     1
173
     0
174
     0
175
     0
176
   256
177
   256
178
     2
  0
DIMSTYLE
  2
BYGG-014090$0$STANDARD
 70
     0
  3

  4

  5

  6

  7

 40
1.0
 41
0.18
 42
0.0625
 43
0.38
 44
0.18
 45
0.0
 46
0.0
 47
0.0
 48
0.0
140
0.18
141
0.09
142
0.0
143
25.399999999999999
144
1.0
145
0.0
146
1.0
147
0.09
 71
     0
 72
     0
 73
     1
 74
     1
 75
     0
 76
     0
 77
     0
 78
     0
170
     0
171
     2
172
     0
173
     0
174
     0
175
     0
176
     0
177
     0
178
     0
  0
DIMSTYLE
  2
BYGG-01409301$0$STANDARD
 70
     0
  3

  4

  5

  6

  7

 40
1.0
 41
0.18
 42
0.0625
 43
0.38
 44
0.18
 45
0.0
 46
0.0
 47
0.0
 48
0.0
140
0.18
141
0.09
142
0.0
143
25.399999999999999
144
1.0
145
0.0
146
1.0
147
0.09
 71
     0
 72
     0
 73
     1
 74
     1
 75
     0
 76
     0
 77
     0
 78
     0
170
     0
171
     2
172
     0
173
     0
174
     0
175
     0
176
     0
177
     0
178
     0
  0
DIMSTYLE
  2
BYGG-01409301$0$ANNOTATIVE
 70
     0
  3

  4

  5

  6

  7

 40
1.0
 41
0.18
 42
0.0625
 43
0.38
 44
0.18
 45
0.0
 46
0.0
 47
0.0
 48
0.0
140
0.18
141
0.09
142
0.0
143
25.399999999999999
144
1.0
145
0.0
146
1.0
147
0.09
 71
     0
 72
     0
 73
     1
 74
     1
 75
     0
 76
     0
 77
     0
 78
     0
170
     0
171
     2
172
     0
173
     0
174
     0
175
     0
176
     0
177
     0
178
     0
  0
ENDTAB
  0
ENDSEC
  0
SECTION
  2
BLOCKS
  0
BLOCK
  8
0
  2
$MODEL_SPACE
 70
     0
 10
0.0
 20
0.0
 30
0.0
  3
$MODEL_SPACE
  1

  0
ENDBLK
  5
37
  8
0
  0
BLOCK
 67
     1
  8
0
  2
$PAPER_SPACE
 70
     0
 10
0.0
 20
0.0
 30
0.0
  3
$PAPER_SPACE
  1

  0
ENDBLK
  5
35
 67
     1
  8
0
  0
BLOCK
  8
0
  2
BYGG-027036$0$RH
 70
     2
 10
0.0
 20
0.0
 30
0.0
  3
BYGG-027036$0$RH
  1

  0
ATTDEF
  5
13B2
  8
BYGG-027036$0$KON
 10
11.0
 20
2.2999999999999989
 30
0.0
 40
0.4400000000000001
  1

  7
BYGG-027036$0$SIMPLEX
 72
     4
 11
11.0
 21
2.2999999999999989
 31
0.0
  3
Benämning
  2
BENÄMNING
 70
     0
  0
ATTDEF
  5
13B4
  8
BYGG-027036$0$KON
 10
11.0
 20
1.5
 30
0.0
 40
0.4400000000000001
  1

  7
BYGG-027036$0$SIMPLEX
 72
     4
 11
11.0
 21
1.5
 31
0.0
  3
Gummi-hårdhet-färg
  2
GUMMI-HÅRDHET-FÄRG
 70
     0
  0
ATTDEF
  5
13B5
  8
BYGG-027036$0$KON
 10
11.0
 20
0.7
 30
0.0
 40
0.4400000000000001
  1

  7
BYGG-027036$0$SIMPLEX
 72
     4
 11
11.0
 21
0.7
 31
0.0
  3
Kund
  2
KUND
 70
     0
  0
ATTDEF
  5
13B6
  8
BYGG-027036$0$KON
 10
18.399999999999999
 20
0.8
 30
0.0
 40
0.4
  1

  7
BYGG-027036$0$SIMPLEX
 72
     4
 11
18.399999999999999
 21
0.8
 31
0.0
  3
Rit.Nr:
  2
RIT.NR:
 70
     0
  0
ATTDEF
  5
13B7
  8
BYGG-027036$0$KON
 10
18.399999999999999
 20
3.2000000000000002
 30
0.0
 40
0.4
  1

  7
BYGG-027036$0$SIMPLEX
 72
     4
 11
18.399999999999999
 21
3.2000000000000002
 31
0.0
  3
Det.Nr:
  2
DET.NR:
 70
     0
  0
ATTDEF
  5
13B8
  8
BYGG-027036$0$KON
 10
18.800000000000001
 20
2.0
 30
0.0
 40
0.4
  1

  7
BYGG-027036$0$SIMPLEX
 72
     4
 11
18.800000000000001
 21
2.0
 31
0.0
  3
Skala:
  2
SKALA:
 70
     1
  0
ATTDEF
  5
13B9
  8
BYGG-027036$0$KON
 10
3.6000000000000001
 20
1.8999999999999999
 30
0.0
 40
0.3
  1

  7
BYGG-027036$0$SIMPLEX
 72
     4
 11
3.6000000000000001
 21
1.8999999999999999
 31
0.0
  3
Datum
  2
DATUM
 70
     0
  0
ATTDEF
  5
13BA
  8
BYGG-027036$0$KON
 10
3.399999999999999
 20
0.9
 30
0.0
 40
0.4
  1

  7
BYGG-027036$0$SIMPLEX
 72
     4
 11
3.399999999999999
 21
0.9
 31
0.0
  3
Ritad av:
  2
RITAD:
 70
     1
  0
ATTDEF
  5
13BB
  8
BYGG-027036$0$KON
 10
3.1999999999999988
 20
5.2999999999999989
 30
0.0
 40
0.4
  1

  7
BYGG-027036$0$SIMPLEX
  3
Säljare:
  2
SÄLJARE
 70
     1
  0
ENDBLK
  5
13BC
  8
0
  0
BLOCK
  8
0
  2
*D125
 70
     1
 10
0.0
 20
0.0
 30
0.0
  3
*D125
  1

  0
LINE
  5
1BA8
  8
SAPA_MATT
 10
-24.999999999999659
 20
-97.499999999010484
 30
0.0
 11
-24.999999999999659
 21
-117.05729482823369
 31
0.0
  0
LINE
  5
1BA9
  8
SAPA_MATT
 10
25.000000000000341
 20
-97.499999999010484
 30
0.0
 11
25.000000000000341
 21
-117.05729482823369
 31
0.0
  0
LINE
  5
1BAA
  8
SAPA_MATT
 10
-21.999999999999659
 20
-115.55729482823369
 30
0.0
 11
22.000000000000341
 21
-115.55729482823369
 31
0.0
  0
SOLID
  5
1BAB
  8
SAPA_MATT
 10
-21.999999999999659
 20
-115.05729482823369
 30
0.0
 11
-21.999999999999659
 21
-116.05729482823369
 31
0.0
 12
-24.999999999999659
 22
-115.55729482823369
 32
0.0
 13
-24.999999999999659
 23
-115.55729482823369
 33
0.0
  0
SOLID
  5
1BAC
  8
SAPA_MATT
 10
22.000000000000341
 20
-115.05729482823369
 30
0.0
 11
22.000000000000341
 21
-116.05729482823369
 31
0.0
 12
25.000000000000341
 22
-115.55729482823369
 32
0.0
 13
25.000000000000341
 23
-115.55729482823369
 33
0.0
  0
INSERT
  5
1BAD
  8
0
  2
*U140
 10
0.0
 20
0.0
 30
0.0
  0
POINT
  5
1BAE
  8
DEFPOINTS
 62
     0
 10
-24.999999999999659
 20
-95.99999999901047
 30
0.0
  0
POINT
  5
1BAF
  8
DEFPOINTS
 62
     0
 10
25.000000000000341
 20
-95.99999999901047
 30
0.0
  0
POINT
  5
1BB0
  8
DEFPOINTS
 62
     0
 10
25.000000000000341
 20
-115.55729482823369
 30
0.0
  0
ENDBLK
  5
1B6D
  8
0
  0
BLOCK
  8
0
  2
*D126
 70
     1
 10
0.0
 20
0.0
 30
0.0
  3
*D126
  1

  0
LINE
  5
2BCB
  8
SAPA_MATT
 10
76.000000000000057
 20
-73.000001525593859
 30
0.0
 11
76.000000000000057
 21
-117.05729482823369
 31
0.0
  0
LINE
  5
2BCC
  8
SAPA_MATT
 10
81.000000000000057
 20
-72.149999996255033
 30
0.0
 11
81.000000000000057
 21
-117.05729482823369
 31
0.0
  0
LINE
  5
2BCD
  8
SAPA_MATT
 10
73.000000000000057
 20
-115.55729482823369
 30
0.0
 11
70.000000000000057
 21
-115.55729482823369
 31
0.0
  0
LINE
  5
2BCE
  8
SAPA_MATT
 10
84.000000000000057
 20
-115.55729482823369
 30
0.0
 11
87.000000000000057
 21
-115.55729482823369
 31
0.0
  0
LINE
  5
2BCF
  8
SAPA_MATT
 10
76.000000000000057
 20
-115.55729482823369
 30
0.0
 11
81.000000000000057
 21
-115.55729482823369
 31
0.0
  0
SOLID
  5
2BD0
  8
SAPA_MATT
 10
73.000000000000057
 20
-115.05729482823369
 30
0.0
 11
73.000000000000057
 21
-116.05729482823369
 31
0.0
 12
76.000000000000057
 22
-115.55729482823369
 32
0.0
 13
76.000000000000057
 23
-115.55729482823369
 33
0.0
  0
SOLID
  5
2BD1
  8
SAPA_MATT
 10
84.000000000000057
 20
-115.05729482823369
 30
0.0
 11
84.000000000000057
 21
-116.05729482823369
 31
0.0
 12
81.000000000000057
 22
-115.55729482823369
 32
0.0
 13
81.000000000000057
 23
-115.55729482823369
 33
0.0
  0
TEXT
  8
SAPA_MATT
  40
3
  5
2BE3
  62
2
  72
0
  71
0
 10
72.5000
 20
-118.367
 30
0.000000
  1
5
  7
ISO
  0
POINT
  5
2BD3
  8
DEFPOINTS
 62
     0
 10
76.000000000000057
 20
-71.500001525593845
 30
0.0
  0
POINT
  5
2BD4
  8
DEFPOINTS
 62
     0
 10
81.000000000000057
 20
-70.649999996255048
 30
0.0
  0
POINT
  5
2BD5
  8
DEFPOINTS
 62
     0
 10
81.000000000000057
 20
-115.55729482823369
 30
0.0
  0
ENDBLK
  5
1B79
  8
0
  0
BLOCK
  8
0
  2
*D127
 70
     1
 10
0.0
 20
0.0
 30
0.0
  3
*D127
  1

  0
LINE
  5
2BC2
  8
SAPA_MATT
 10
80.999976179970474
 20
-72.149999996255033
 30
0.0
 11
80.999976179970474
 21
-117.05729482823369
 31
0.0
  0
LINE
  5
2BC3
  8
SAPA_MATT
 10
169.9999761840896
 20
-70.80000002874732
 30
0.0
 11
169.9999761840896
 21
-117.05729482823369
 31
0.0
  0
LINE
  5
2BC4
  8
SAPA_MATT
 10
83.999976179970474
 20
-115.55729482823369
 30
0.0
 11
166.99997618408949
 21
-115.55729482823369
 31
0.0
  0
SOLID
  5
2BC5
  8
SAPA_MATT
 10
83.999976179970474
 20
-115.05729482823369
 30
0.0
 11
83.999976179970474
 21
-116.05729482823369
 31
0.0
 12
80.999976179970474
 22
-115.55729482823369
 32
0.0
 13
80.999976179970474
 23
-115.55729482823369
 33
0.0
  0
SOLID
  5
2BC6
  8
SAPA_MATT
 10
166.99997618408949
 20
-115.05729482823369
 30
0.0
 11
166.99997618408949
 21
-116.05729482823369
 31
0.0
 12
169.9999761840896
 22
-115.55729482823369
 32
0.0
 13
169.9999761840896
 23
-115.55729482823369
 33
0.0
  0
TEXT
  8
SAPA_MATT
  40
3
  5
2BE4
  62
2
  72
0
  71
0
 10
119.500
 20
-118.367
 30
0.000000
  1
89
  7
ISO
  0
POINT
  5
2BC8
  8
DEFPOINTS
 62
     0
 10
80.999976179970474
 20
-70.649999996255048
 30
0.0
  0
POINT
  5
2BC9
  8
DEFPOINTS
 62
     0
 10
169.9999761840896
 20
-69.30000002874732
 30
0.0
  0
POINT
  5
2BCA
  8
DEFPOINTS
 62
     0
 10
169.9999761840896
 20
-115.55729482823369
 30
0.0
  0
ENDBLK
  5
1B87
  8
0
  0
BLOCK
  8
0
  2
*D128
 70
     1
 10
0.0
 20
0.0
 30
0.0
  3
*D128
  1

  0
LINE
  5
2BD6
  8
SAPA_MATT
 10
25.000000000000341
 20
-97.499999999010484
 30
0.0
 11
25.000000000000341
 21
-117.05729482823369
 31
0.0
  0
LINE
  5
2BD7
  8
SAPA_MATT
 10
76.000000000000057
 20
-73.000001525593859
 30
0.0
 11
76.000000000000057
 21
-117.05729482823369
 31
0.0
  0
LINE
  5
2BD8
  8
SAPA_MATT
 10
28.000000000000341
 20
-115.55729482823369
 30
0.0
 11
73.000000000000057
 21
-115.55729482823369
 31
0.0
  0
SOLID
  5
2BD9
  8
SAPA_MATT
 10
28.000000000000341
 20
-115.05729482823369
 30
0.0
 11
28.000000000000341
 21
-116.05729482823369
 31
0.0
 12
25.000000000000341
 22
-115.55729482823369
 32
0.0
 13
25.000000000000341
 23
-115.55729482823369
 33
0.0
  0
SOLID
  5
2BDA
  8
SAPA_MATT
 10
73.000000000000057
 20
-115.05729482823369
 30
0.0
 11
73.000000000000057
 21
-116.05729482823369
 31
0.0
 12
76.000000000000057
 22
-115.55729482823369
 32
0.0
 13
76.000000000000057
 23
-115.55729482823369
 33
0.0
  0
TEXT
  8
SAPA_MATT
  40
3
  5
2BE5
  62
2
  72
0
  71
0
 10
44.5000
 20
-118.367
 30
0.000000
  1
51
  7
ISO
  0
POINT
  5
2BDC
  8
DEFPOINTS
 62
     0
 10
25.000000000000341
 20
-95.99999999901047
 30
0.0
  0
POINT
  5
2BDD
  8
DEFPOINTS
 62
     0
 10
76.000000000000057
 20
-71.500001525593845
 30
0.0
  0
POINT
  5
2BDE
  8
DEFPOINTS
 62
     0
 10
76.000000000000057
 20
-115.55729482823369
 30
0.0
  0
ENDBLK
  5
1B9E
  8
0
  0
BLOCK
  8
0
  2
*U129
 70
     1
 10
0.0
 20
0.0
 30
0.0
  3
*U129
  1

  0
TEXT
  5
1C45
  8
SAPA_ARTIKELNR
 10
-6.4303857324235638
 20
66.451161059970659
 30
0.0
 40
3.5
  1
68654
  7
ISO
  0
ENDBLK
  5
1C47
  8
0
  0
BLOCK
  8
0
  2
*U130
 70
     1
 10
0.0
 20
0.0
 30
0.0
  3
*U130
  1

  0
TEXT
  5
1C49
  8
SAPA_ARTIKELNR
 10
-6.4303857324235638
 20
-92.829388404107021
 30
0.0
 40
3.5
  1
42657
  7
ISO
  0
ENDBLK
  5
1C4B
  8
0
  0
BLOCK
  8
0
  2
*U131
 70
     1
 10
0.0
 20
0.0
 30
0.0
  3
*U131
  1

  0
TEXT
  5
1C4D
  8
SAPA_ARTIKELNR
 10
-6.4303857324235638
 20
-101.8951902723834
 30
0.0
 40
3.5
  1
42227
  7
ISO
  0
ENDBLK
  5
1C4F
  8
0
  0
BLOCK
  8
0
  2
*U132
 70
     1
 10
0.0
 20
0.0
 30
0.0
  3
*U132
  1

  0
TEXT
  5
1C51
  8
SAPA_ARTIKELNR
 10
44.10667302603192
 20
17.882129680632939
 30
0.0
 40
3.5
  1
86423
  7
ISO
  0
ENDBLK
  5
1C53
  8
0
  0
BLOCK
  8
0
  2
*U133
 70
     1
 10
0.0
 20
0.0
 30
0.0
  3
*U133
  1

  0
TEXT
  5
1C55
  8
SAPA_ARTIKELNR
 10
113.6198886343511
 20
17.86854027755987
 30
0.0
 40
3.5
  1
86424
  7
ISO
  0
ENDBLK
  5
1C57
  8
0
  0
BLOCK
  8
0
  2
*U134
 70
     1
 10
0.0
 20
0.0
 30
0.0
  3
*U134
  1

  0
SOLID
  5
1EDF
  8
SAPA_PROFIL
  6
CONTINUOUS
 62
     2
 10
86.831483681313486
 20
-67.067340031675485
 30
0.0
 11
86.654706986016848
 21
-67.140563336378847
 31
0.0
 12
87.008260376610124
 22
-67.140563336378847
 32
0.0
 13
87.008260376610124
 23
-67.140563336378847
 33
0.0
210
0.0
220
0.0
230
1.0
  0
SOLID
  5
1EE0
  8
SAPA_PROFIL
  6
CONTINUOUS
 62
     2
 10
86.654706986016848
 20
-67.140563336378847
 30
0.0
 11
86.581483681313486
 21
-67.317340031675485
 31
0.0
 12
87.081483681313486
 22
-67.317340031675485
 32
0.0
 13
87.081483681313486
 23
-67.317340031675485
 33
0.0
210
0.0
220
0.0
230
1.0
  0
SOLID
  5
1EE1
  8
SAPA_PROFIL
  6
CONTINUOUS
 62
     2
 10
-86.654706986016848
 20
-67.140563336378847
 30
0.0
 11
-87.008260376610124
 21
-67.140563336378847
 31
0.0
 12
-87.081483681313486
 22
-67.317340031675485
 32
0.0
 13
-87.081483681313486
 23
-67.317340031675485
 33
0.0
210
0.0
220
0.0
230
-1.0
  0
SOLID
  5
1EE2
  8
SAPA_PROFIL
  6
CONTINUOUS
 62
     2
 10
-86.654706986016848
 20
-67.494116726972123
 30
0.0
 11
-87.008260376610124
 21
-67.494116726972123
 31
0.0
 12
-86.831483681313486
 22
-67.567340031675485
 32
0.0
 13
-86.831483681313486
 23
-67.567340031675485
 33
0.0
210
0.0
220
0.0
230
-1.0
  0
SOLID
  5
1EE3
  8
SAPA_PROFIL
  6
CONTINUOUS
 62
     2
 10
86.581483681313486
 20
-67.317340031675485
 30
0.0
 11
86.654706986016848
 21
-67.494116726972123
 31
0.0
 12
87.008260376610124
 22
-67.494116726972123
 32
0.0
 13
87.008260376610124
 23
-67.494116726972123
 33
0.0
210
0.0
220
0.0
230
1.0
  0
SOLID
  5
1EE4
  8
SAPA_PROFIL
  6
CONTINUOUS
 62
     2
 10
-86.581483681313486
 20
-67.317340031675485
 30
0.0
 11
-87.081483681313486
 21
-67.317340031675485
 31
0.0
 12
-87.008260376610124
 22
-67.494116726972123
 32
0.0
 13
-87.008260376610124
 23
-67.494116726972123
 33
0.0
210
0.0
220
0.0
230
-1.0
  0
LINE
  5
1EE5
  8
SAPA_PROFIL
  6
CONTINUOUS
 62
     2
 10
86.831483681313486
 20
-67.067340031675485
 30
0.0
 11
86.654706986016848
 21
-67.140563336378847
 31
0.0
  0
LINE
  5
1EE6
  8
SAPA_PROFIL
  6
CONTINUOUS
 62
     2
 10
87.008260376610124
 20
-67.140563336378847
 30
0.0
 11
86.831483681313486
 21
-67.067340031675485
 31
0.0
  0
LINE
  5
1EE7
  8
SAPA_PROFIL
  6
CONTINUOUS
 62
     2
 10
86.654706986016848
 20
-67.140563336378847
 30
0.0
 11
86.581483681313486
 21
-67.317340031675485
 31
0.0
  0
LINE
  5
1EE8
  8
SAPA_PROFIL
  6
CONTINUOUS
 62
     2
 10
87.008260376610124
 20
-67.140563336378847
 30
0.0
 11
87.081483681313486
 21
-67.317340031675485
 31
0.0
  0
LINE
  5
1EE9
  8
SAPA_PROFIL
  6
CONTINUOUS
 62
     2
 10
87.008260376610124
 20
-67.494116726972123
 30
0.0
 11
86.831483681313486
 21
-67.567340031675485
 31
0.0
  0
LINE
  5
1EEA
  8
SAPA_PROFIL
  6
CONTINUOUS
 62
     2
 10
86.831483681313486
 20
-67.567340031675485
 30
0.0
 11
86.654706986016848
 21
-67.494116726972123
 31
0.0
  0
LINE
  5
1EEB
  8
SAPA_PROFIL
  6
CONTINUOUS
 62
     2
 10
86.581483681313486
 20
-67.317340031675485
 30
0.0
 11
86.654706986016848
 21
-67.494116726972123
 31
0.0
  0
LINE
  5
1EEC
  8
SAPA_PROFIL
  6
CONTINUOUS
 62
     2
 10
87.081483681313486
 20
-67.317340031675485
 30
0.0
 11
87.008260376610124
 21
-67.494116726972123
 31
0.0
  0
ENDBLK
  5
1EEE
  8
0
  0
BLOCK
  8
0
  2
*U135
 70
     1
 10
0.0
 20
0.0
 30
0.0
  3
*U135
  1

  0
SOLID
  5
24E4
  8
SAPA_PROFIL
  6
CONTINUOUS
 62
     2
 10
86.831483681313486
 20
-67.067340031675485
 30
0.0
 11
86.654706986016848
 21
-67.140563336378847
 31
0.0
 12
87.008260376610124
 22
-67.140563336378847
 32
0.0
 13
87.008260376610124
 23
-67.140563336378847
 33
0.0
210
0.0
220
0.0
230
1.0
  0
SOLID
  5
24E5
  8
SAPA_PROFIL
  6
CONTINUOUS
 62
     2
 10
86.654706986016848
 20
-67.140563336378847
 30
0.0
 11
86.581483681313486
 21
-67.317340031675485
 31
0.0
 12
87.081483681313486
 22
-67.317340031675485
 32
0.0
 13
87.081483681313486
 23
-67.317340031675485
 33
0.0
210
0.0
220
0.0
230
1.0
  0
SOLID
  5
24E6
  8
SAPA_PROFIL
  6
CONTINUOUS
 62
     2
 10
-86.654706986016848
 20
-67.140563336378847
 30
0.0
 11
-87.008260376610124
 21
-67.140563336378847
 31
0.0
 12
-87.081483681313486
 22
-67.317340031675485
 32
0.0
 13
-87.081483681313486
 23
-67.317340031675485
 33
0.0
210
0.0
220
0.0
230
-1.0
  0
SOLID
  5
24E7
  8
SAPA_PROFIL
  6
CONTINUOUS
 62
     2
 10
-86.654706986016848
 20
-67.494116726972123
 30
0.0
 11
-87.008260376610124
 21
-67.494116726972123
 31
0.0
 12
-86.831483681313486
 22
-67.567340031675485
 32
0.0
 13
-86.831483681313486
 23
-67.567340031675485
 33
0.0
210
0.0
220
0.0
230
-1.0
  0
SOLID
  5
24E8
  8
SAPA_PROFIL
  6
CONTINUOUS
 62
     2
 10
86.581483681313486
 20
-67.317340031675485
 30
0.0
 11
86.654706986016848
 21
-67.494116726972123
 31
0.0
 12
87.008260376610124
 22
-67.494116726972123
 32
0.0
 13
87.008260376610124
 23
-67.494116726972123
 33
0.0
210
0.0
220
0.0
230
1.0
  0
SOLID
  5
24E9
  8
SAPA_PROFIL
  6
CONTINUOUS
 62
     2
 10
-86.581483681313486
 20
-67.317340031675485
 30
0.0
 11
-87.081483681313486
 21
-67.317340031675485
 31
0.0
 12
-87.008260376610124
 22
-67.494116726972123
 32
0.0
 13
-87.008260376610124
 23
-67.494116726972123
 33
0.0
210
0.0
220
0.0
230
-1.0
  0
LINE
  5
24EA
  8
SAPA_PROFIL
  6
CONTINUOUS
 62
     2
 10
86.831483681313486
 20
-67.067340031675485
 30
0.0
 11
86.654706986016848
 21
-67.140563336378847
 31
0.0
  0
LINE
  5
24EB
  8
SAPA_PROFIL
  6
CONTINUOUS
 62
     2
 10
87.008260376610124
 20
-67.140563336378847
 30
0.0
 11
86.831483681313486
 21
-67.067340031675485
 31
0.0
  0
LINE
  5
24EC
  8
SAPA_PROFIL
  6
CONTINUOUS
 62
     2
 10
86.654706986016848
 20
-67.140563336378847
 30
0.0
 11
86.581483681313486
 21
-67.317340031675485
 31
0.0
  0
LINE
  5
24ED
  8
SAPA_PROFIL
  6
CONTINUOUS
 62
     2
 10
87.008260376610124
 20
-67.140563336378847
 30
0.0
 11
87.081483681313486
 21
-67.317340031675485
 31
0.0
  0
LINE
  5
24EE
  8
SAPA_PROFIL
  6
CONTINUOUS
 62
     2
 10
87.008260376610124
 20
-67.494116726972123
 30
0.0
 11
86.831483681313486
 21
-67.567340031675485
 31
0.0
  0
LINE
  5
24EF
  8
SAPA_PROFIL
  6
CONTINUOUS
 62
     2
 10
86.831483681313486
 20
-67.567340031675485
 30
0.0
 11
86.654706986016848
 21
-67.494116726972123
 31
0.0
  0
LINE
  5
24F0
  8
SAPA_PROFIL
  6
CONTINUOUS
 62
     2
 10
86.581483681313486
 20
-67.317340031675485
 30
0.0
 11
86.654706986016848
 21
-67.494116726972123
 31
0.0
  0
LINE
  5
24F1
  8
SAPA_PROFIL
  6
CONTINUOUS
 62
     2
 10
87.081483681313486
 20
-67.317340031675485
 30
0.0
 11
87.008260376610124
 21
-67.494116726972123
 31
0.0
  0
ENDBLK
  5
24F3
  8
0
  0
BLOCK
  8
0
  2
*U136
 70
     1
 10
0.0
 20
0.0
 30
0.0
  3
*U136
  1

  0
SOLID
  5
294D
  8
SAPA_FOGBAND
  6
CONTINUOUS
 10
18.616845196720529
 20
-74.382617202080866
 30
0.0
 11
18.43656763294733
 21
-74.457290613987297
 31
0.0
 12
18.797122760493728
 22
-74.457290613987297
 32
0.0
 13
18.797122760493728
 23
-74.457290613987297
 33
0.0
210
0.0
220
0.0
230
1.0
  0
SOLID
  5
294E
  8
SAPA_FOGBAND
  6
CONTINUOUS
 10
18.43656763294733
 20
-74.457290613987297
 30
0.0
 11
18.361894221040892
 21
-74.6375681777605
 31
0.0
 12
18.87179617240017
 22
-74.6375681777605
 32
0.0
 13
18.87179617240017
 23
-74.6375681777605
 33
0.0
210
0.0
220
0.0
230
1.0
  0
SOLID
  5
294F
  8
SAPA_FOGBAND
  6
CONTINUOUS
 10
-18.43656763294733
 20
-74.457290613987297
 30
0.0
 11
-18.797122760493728
 21
-74.457290613987297
 31
0.0
 12
-18.87179617240017
 22
-74.6375681777605
 32
0.0
 13
-18.87179617240017
 23
-74.6375681777605
 33
0.0
210
0.0
220
0.0
230
-1.0
  0
SOLID
  5
2950
  8
SAPA_FOGBAND
  6
CONTINUOUS
 10
-18.43656763294733
 20
-74.817845741533702
 30
0.0
 11
-18.797122760493728
 21
-74.817845741533702
 31
0.0
 12
-18.616845196720529
 22
-74.892519153440134
 32
0.0
 13
-18.616845196720529
 23
-74.892519153440134
 33
0.0
210
0.0
220
0.0
230
-1.0
  0
SOLID
  5
2951
  8
SAPA_FOGBAND
  6
CONTINUOUS
 10
18.361894221040892
 20
-74.6375681777605
 30
0.0
 11
18.43656763294733
 21
-74.817845741533702
 31
0.0
 12
18.797122760493728
 22
-74.817845741533702
 32
0.0
 13
18.797122760493728
 23
-74.817845741533702
 33
0.0
210
0.0
220
0.0
230
1.0
  0
SOLID
  5
2952
  8
SAPA_FOGBAND
  6
CONTINUOUS
 10
-18.361894221040892
 20
-74.6375681777605
 30
0.0
 11
-18.87179617240017
 21
-74.6375681777605
 31
0.0
 12
-18.797122760493728
 22
-74.817845741533702
 32
0.0
 13
-18.797122760493728
 23
-74.817845741533702
 33
0.0
210
0.0
220
0.0
230
-1.0
  0
LINE
  5
2953
  8
SAPA_FOGBAND
  6
CONTINUOUS
 10
18.616845196720529
 20
-74.382617202080866
 30
0.0
 11
18.43656763294733
 21
-74.457290613987297
 31
0.0
  0
LINE
  5
2954
  8
SAPA_FOGBAND
  6
CONTINUOUS
 10
18.797122760493728
 20
-74.457290613987297
 30
0.0
 11
18.616845196720529
 21
-74.382617202080866
 31
0.0
  0
LINE
  5
2955
  8
SAPA_FOGBAND
  6
CONTINUOUS
 10
18.43656763294733
 20
-74.457290613987297
 30
0.0
 11
18.361894221040892
 21
-74.6375681777605
 31
0.0
  0
LINE
  5
2956
  8
SAPA_FOGBAND
  6
CONTINUOUS
 10
18.797122760493728
 20
-74.457290613987297
 30
0.0
 11
18.87179617240017
 21
-74.6375681777605
 31
0.0
  0
LINE
  5
2957
  8
SAPA_FOGBAND
  6
CONTINUOUS
 10
18.797122760493728
 20
-74.817845741533702
 30
0.0
 11
18.616845196720529
 21
-74.892519153440134
 31
0.0
  0
LINE
  5
2958
  8
SAPA_FOGBAND
  6
CONTINUOUS
 10
18.616845196720529
 20
-74.892519153440134
 30
0.0
 11
18.43656763294733
 21
-74.817845741533702
 31
0.0
  0
LINE
  5
2959
  8
SAPA_FOGBAND
  6
CONTINUOUS
 10
18.361894221040892
 20
-74.6375681777605
 30
0.0
 11
18.43656763294733
 21
-74.817845741533702
 31
0.0
  0
LINE
  5
295A
  8
SAPA_FOGBAND
  6
CONTINUOUS
 10
18.87179617240017
 20
-74.6375681777605
 30
0.0
 11
18.797122760493728
 21
-74.817845741533702
 31
0.0
  0
ENDBLK
  5
295C
  8
0
  0
BLOCK
  8
0
  2
*U137
 70
     1
 10
0.0
 20
0.0
 30
0.0
  3
*U137
  1

  0
SOLID
  5
29F3
  8
SAPA_FOGBAND
  6
CONTINUOUS
 10
-18.629356795612811
 20
-74.773515879680446
 30
0.0
 11
-18.809634359385999
 21
-74.848189291586877
 31
0.0
 12
-18.449079231839612
 22
-74.848189291586877
 32
0.0
 13
-18.449079231839612
 23
-74.848189291586877
 33
0.0
210
0.0
220
0.0
230
1.0
  0
SOLID
  5
29F4
  8
SAPA_FOGBAND
  6
CONTINUOUS
 10
-18.809634359385999
 20
-74.848189291586877
 30
0.0
 11
-18.884307771292448
 21
-75.02846685536008
 31
0.0
 12
-18.374405819933159
 22
-75.02846685536008
 32
0.0
 13
-18.374405819933159
 23
-75.02846685536008
 33
0.0
210
0.0
220
0.0
230
1.0
  0
SOLID
  5
29F5
  8
SAPA_FOGBAND
  6
CONTINUOUS
 10
18.809634359385999
 20
-74.848189291586877
 30
0.0
 11
18.449079231839612
 21
-74.848189291586877
 31
0.0
 12
18.374405819933159
 22
-75.02846685536008
 32
0.0
 13
18.374405819933159
 23
-75.02846685536008
 33
0.0
210
0.0
220
0.0
230
-1.0
  0
SOLID
  5
29F6
  8
SAPA_FOGBAND
  6
CONTINUOUS
 10
18.809634359385999
 20
-75.208744419133282
 30
0.0
 11
18.449079231839612
 21
-75.208744419133282
 31
0.0
 12
18.629356795612811
 22
-75.283417831039714
 32
0.0
 13
18.629356795612811
 23
-75.283417831039714
 33
0.0
210
0.0
220
0.0
230
-1.0
  0
SOLID
  5
29F7
  8
SAPA_FOGBAND
  6
CONTINUOUS
 10
-18.884307771292448
 20
-75.02846685536008
 30
0.0
 11
-18.809634359385999
 21
-75.208744419133282
 31
0.0
 12
-18.449079231839612
 22
-75.208744419133282
 32
0.0
 13
-18.449079231839612
 23
-75.208744419133282
 33
0.0
210
0.0
220
0.0
230
1.0
  0
SOLID
  5
29F8
  8
SAPA_FOGBAND
  6
CONTINUOUS
 10
18.884307771292448
 20
-75.02846685536008
 30
0.0
 11
18.374405819933159
 21
-75.02846685536008
 31
0.0
 12
18.449079231839612
 22
-75.208744419133282
 32
0.0
 13
18.449079231839612
 23
-75.208744419133282
 33
0.0
210
0.0
220
0.0
230
-1.0
  0
LINE
  5
29F9
  8
SAPA_FOGBAND
  6
CONTINUOUS
 10
-18.629356795612811
 20
-74.773515879680446
 30
0.0
 11
-18.809634359385999
 21
-74.848189291586877
 31
0.0
  0
LINE
  5
29FA
  8
SAPA_FOGBAND
  6
CONTINUOUS
 10
-18.449079231839612
 20
-74.848189291586877
 30
0.0
 11
-18.629356795612811
 21
-74.773515879680446
 31
0.0
  0
LINE
  5
29FB
  8
SAPA_FOGBAND
  6
CONTINUOUS
 10
-18.809634359385999
 20
-74.848189291586877
 30
0.0
 11
-18.884307771292448
 21
-75.02846685536008
 31
0.0
  0
LINE
  5
29FC
  8
SAPA_FOGBAND
  6
CONTINUOUS
 10
-18.449079231839612
 20
-74.848189291586877
 30
0.0
 11
-18.374405819933159
 21
-75.02846685536008
 31
0.0
  0
LINE
  5
29FD
  8
SAPA_FOGBAND
  6
CONTINUOUS
 10
-18.449079231839612
 20
-75.208744419133282
 30
0.0
 11
-18.629356795612811
 21
-75.283417831039714
 31
0.0
  0
LINE
  5
29FE
  8
SAPA_FOGBAND
  6
CONTINUOUS
 10
-18.629356795612811
 20
-75.283417831039714
 30
0.0
 11
-18.809634359385999
 21
-75.208744419133282
 31
0.0
  0
LINE
  5
29FF
  8
SAPA_FOGBAND
  6
CONTINUOUS
 10
-18.884307771292448
 20
-75.02846685536008
 30
0.0
 11
-18.809634359385999
 21
-75.208744419133282
 31
0.0
  0
LINE
  5
2A00
  8
SAPA_FOGBAND
  6
CONTINUOUS
 10
-18.374405819933159
 20
-75.02846685536008
 30
0.0
 11
-18.449079231839612
 21
-75.208744419133282
 31
0.0
  0
ENDBLK
  5
2A02
  8
0
  0
BLOCK
  8
0
  2
*U138
 70
     1
 10
0.0
 20
0.0
 30
0.0
  3
*U138
  1

  0
SOLID
  5
2A88
  8
SAPA_FOGBAND
  6
CONTINUOUS
 10
18.616845196720529
 20
-74.382617202080866
 30
0.0
 11
18.43656763294733
 21
-74.457290613987297
 31
0.0
 12
18.797122760493728
 22
-74.457290613987297
 32
0.0
 13
18.797122760493728
 23
-74.457290613987297
 33
0.0
210
0.0
220
0.0
230
1.0
  0
SOLID
  5
2A89
  8
SAPA_FOGBAND
  6
CONTINUOUS
 10
18.43656763294733
 20
-74.457290613987297
 30
0.0
 11
18.361894221040892
 21
-74.6375681777605
 31
0.0
 12
18.87179617240017
 22
-74.6375681777605
 32
0.0
 13
18.87179617240017
 23
-74.6375681777605
 33
0.0
210
0.0
220
0.0
230
1.0
  0
SOLID
  5
2A8A
  8
SAPA_FOGBAND
  6
CONTINUOUS
 10
-18.43656763294733
 20
-74.457290613987297
 30
0.0
 11
-18.797122760493728
 21
-74.457290613987297
 31
0.0
 12
-18.87179617240017
 22
-74.6375681777605
 32
0.0
 13
-18.87179617240017
 23
-74.6375681777605
 33
0.0
210
0.0
220
0.0
230
-1.0
  0
SOLID
  5
2A8B
  8
SAPA_FOGBAND
  6
CONTINUOUS
 10
-18.43656763294733
 20
-74.817845741533702
 30
0.0
 11
-18.797122760493728
 21
-74.817845741533702
 31
0.0
 12
-18.616845196720529
 22
-74.892519153440134
 32
0.0
 13
-18.616845196720529
 23
-74.892519153440134
 33
0.0
210
0.0
220
0.0
230
-1.0
  0
SOLID
  5
2A8C
  8
SAPA_FOGBAND
  6
CONTINUOUS
 10
18.361894221040892
 20
-74.6375681777605
 30
0.0
 11
18.43656763294733
 21
-74.817845741533702
 31
0.0
 12
18.797122760493728
 22
-74.817845741533702
 32
0.0
 13
18.797122760493728
 23
-74.817845741533702
 33
0.0
210
0.0
220
0.0
230
1.0
  0
SOLID
  5
2A8D
  8
SAPA_FOGBAND
  6
CONTINUOUS
 10
-18.361894221040892
 20
-74.6375681777605
 30
0.0
 11
-18.87179617240017
 21
-74.6375681777605
 31
0.0
 12
-18.797122760493728
 22
-74.817845741533702
 32
0.0
 13
-18.797122760493728
 23
-74.817845741533702
 33
0.0
210
0.0
220
0.0
230
-1.0
  0
LINE
  5
2A8E
  8
SAPA_FOGBAND
  6
CONTINUOUS
 10
18.616845196720529
 20
-74.382617202080866
 30
0.0
 11
18.43656763294733
 21
-74.457290613987297
 31
0.0
  0
LINE
  5
2A8F
  8
SAPA_FOGBAND
  6
CONTINUOUS
 10
18.797122760493728
 20
-74.457290613987297
 30
0.0
 11
18.616845196720529
 21
-74.382617202080866
 31
0.0
  0
LINE
  5
2A90
  8
SAPA_FOGBAND
  6
CONTINUOUS
 10
18.43656763294733
 20
-74.457290613987297
 30
0.0
 11
18.361894221040892
 21
-74.6375681777605
 31
0.0
  0
LINE
  5
2A91
  8
SAPA_FOGBAND
  6
CONTINUOUS
 10
18.797122760493728
 20
-74.457290613987297
 30
0.0
 11
18.87179617240017
 21
-74.6375681777605
 31
0.0
  0
LINE
  5
2A92
  8
SAPA_FOGBAND
  6
CONTINUOUS
 10
18.797122760493728
 20
-74.817845741533702
 30
0.0
 11
18.616845196720529
 21
-74.892519153440134
 31
0.0
  0
LINE
  5
2A93
  8
SAPA_FOGBAND
  6
CONTINUOUS
 10
18.616845196720529
 20
-74.892519153440134
 30
0.0
 11
18.43656763294733
 21
-74.817845741533702
 31
0.0
  0
LINE
  5
2A94
  8
SAPA_FOGBAND
  6
CONTINUOUS
 10
18.361894221040892
 20
-74.6375681777605
 30
0.0
 11
18.43656763294733
 21
-74.817845741533702
 31
0.0
  0
LINE
  5
2A95
  8
SAPA_FOGBAND
  6
CONTINUOUS
 10
18.87179617240017
 20
-74.6375681777605
 30
0.0
 11
18.797122760493728
 21
-74.817845741533702
 31
0.0
  0
ENDBLK
  5
2A97
  8
0
  0
BLOCK
  8
0
  2
*U139
 70
     1
 10
0.0
 20
0.0
 30
0.0
  3
*U139
  1

  0
SOLID
  5
2B2E
  8
SAPA_FOGBAND
  6
CONTINUOUS
 10
-18.629356795612811
 20
-74.773515879680446
 30
0.0
 11
-18.809634359385999
 21
-74.848189291586877
 31
0.0
 12
-18.449079231839612
 22
-74.848189291586877
 32
0.0
 13
-18.449079231839612
 23
-74.848189291586877
 33
0.0
210
0.0
220
0.0
230
1.0
  0
SOLID
  5
2B2F
  8
SAPA_FOGBAND
  6
CONTINUOUS
 10
-18.809634359385999
 20
-74.848189291586877
 30
0.0
 11
-18.884307771292448
 21
-75.02846685536008
 31
0.0
 12
-18.374405819933159
 22
-75.02846685536008
 32
0.0
 13
-18.374405819933159
 23
-75.02846685536008
 33
0.0
210
0.0
220
0.0
230
1.0
  0
SOLID
  5
2B30
  8
SAPA_FOGBAND
  6
CONTINUOUS
 10
18.809634359385999
 20
-74.848189291586877
 30
0.0
 11
18.449079231839612
 21
-74.848189291586877
 31
0.0
 12
18.374405819933159
 22
-75.02846685536008
 32
0.0
 13
18.374405819933159
 23
-75.02846685536008
 33
0.0
210
0.0
220
0.0
230
-1.0
  0
SOLID
  5
2B31
  8
SAPA_FOGBAND
  6
CONTINUOUS
 10
18.809634359385999
 20
-75.208744419133282
 30
0.0
 11
18.449079231839612
 21
-75.208744419133282
 31
0.0
 12
18.629356795612811
 22
-75.283417831039714
 32
0.0
 13
18.629356795612811
 23
-75.283417831039714
 33
0.0
210
0.0
220
0.0
230
-1.0
  0
SOLID
  5
2B32
  8
SAPA_FOGBAND
  6
CONTINUOUS
 10
-18.884307771292448
 20
-75.02846685536008
 30
0.0
 11
-18.809634359385999
 21
-75.208744419133282
 31
0.0
 12
-18.449079231839612
 22
-75.208744419133282
 32
0.0
 13
-18.449079231839612
 23
-75.208744419133282
 33
0.0
210
0.0
220
0.0
230
1.0
  0
SOLID
  5
2B33
  8
SAPA_FOGBAND
  6
CONTINUOUS
 10
18.884307771292448
 20
-75.02846685536008
 30
0.0
 11
18.374405819933159
 21
-75.02846685536008
 31
0.0
 12
18.449079231839612
 22
-75.208744419133282
 32
0.0
 13
18.449079231839612
 23
-75.208744419133282
 33
0.0
210
0.0
220
0.0
230
-1.0
  0
LINE
  5
2B34
  8
SAPA_FOGBAND
  6
CONTINUOUS
 10
-18.629356795612811
 20
-74.773515879680446
 30
0.0
 11
-18.809634359385999
 21
-74.848189291586877
 31
0.0
  0
LINE
  5
2B35
  8
SAPA_FOGBAND
  6
CONTINUOUS
 10
-18.449079231839612
 20
-74.848189291586877
 30
0.0
 11
-18.629356795612811
 21
-74.773515879680446
 31
0.0
  0
LINE
  5
2B36
  8
SAPA_FOGBAND
  6
CONTINUOUS
 10
-18.809634359385999
 20
-74.848189291586877
 30
0.0
 11
-18.884307771292448
 21
-75.02846685536008
 31
0.0
  0
LINE
  5
2B37
  8
SAPA_FOGBAND
  6
CONTINUOUS
 10
-18.449079231839612
 20
-74.848189291586877
 30
0.0
 11
-18.374405819933159
 21
-75.02846685536008
 31
0.0
  0
LINE
  5
2B38
  8
SAPA_FOGBAND
  6
CONTINUOUS
 10
-18.449079231839612
 20
-75.208744419133282
 30
0.0
 11
-18.629356795612811
 21
-75.283417831039714
 31
0.0
  0
LINE
  5
2B39
  8
SAPA_FOGBAND
  6
CONTINUOUS
 10
-18.629356795612811
 20
-75.283417831039714
 30
0.0
 11
-18.809634359385999
 21
-75.208744419133282
 31
0.0
  0
LINE
  5
2B3A
  8
SAPA_FOGBAND
  6
CONTINUOUS
 10
-18.884307771292448
 20
-75.02846685536008
 30
0.0
 11
-18.809634359385999
 21
-75.208744419133282
 31
0.0
  0
LINE
  5
2B3B
  8
SAPA_FOGBAND
  6
CONTINUOUS
 10
-18.374405819933159
 20
-75.02846685536008
 30
0.0
 11
-18.449079231839612
 21
-75.208744419133282
 31
0.0
  0
ENDBLK
  5
2B3D
  8
0
  0
BLOCK
  8
0
  2
*U140
 70
     1
 10
0.0
 20
0.0
 30
0.0
  3
*U140
  1

  0
TEXT
  5
2BE0
  8
SAPA_MATT
 62
     2
 10
-2.0999999999996581
 20
-114.55729482823369
 30
0.0
 40
3.0
  1
50
  7
ISO
  0
ENDBLK
  5
2BE2
  8
0
  0
ENDSEC
  0
SECTION
  2
ENTITIES
  0
POLYLINE
  5
8AB
  8
SAPA_LIGHT
 66
     1
 10
0.0
 20
0.0
 30
0.0
 70
     1
  0
VERTEX
  5
1C1D
  8
SAPA_LIGHT
 10
-24.999999999999829
 20
-45.499999999010299
 30
0.0
  0
VERTEX
  5
1C1E
  8
SAPA_LIGHT
 10
-25.000000000000231
 20
64.499999999998863
 30
0.0
  0
VERTEX
  5
1C1F
  8
SAPA_LIGHT
 10
24.999999999999769
 20
64.499999999998863
 30
0.0
  0
VERTEX
  5
1C20
  8
SAPA_LIGHT
 10
24.999999999999769
 20
-49.000000031211577
 30
0.0
  0
VERTEX
  5
1C21
  8
SAPA_LIGHT
 10
4.99999999999977
 20
-49.000000031211577
 30
0.0
  0
VERTEX
  5
1C22
  8
SAPA_LIGHT
 10
4.9999999999995541
 20
-73.500000115261173
 30
0.0
  0
VERTEX
  5
1C23
  8
SAPA_LIGHT
 10
25.000000000000341
 20
-73.500000095118935
 30
0.0
  0
VERTEX
  5
1C24
  8
SAPA_LIGHT
 10
25.000000000000341
 20
-96.499999999010583
 30
0.0
  0
VERTEX
  5
1C25
  8
SAPA_LIGHT
 10
-24.999999999999659
 20
-96.499999999010583
 30
0.0
  0
VERTEX
  5
1C26
  8
SAPA_LIGHT
 10
-24.999999999999751
 20
-72.499999999011948
 30
0.0
  0
VERTEX
  5
1C27
  8
SAPA_LIGHT
 10
-5.0000000000001981
 20
-72.499999999011948
 30
0.0
  0
VERTEX
  5
1C28
  8
SAPA_LIGHT
 10
-5.0000000000002274
 20
-45.499999999010299
 30
0.0
  0
SEQEND
  5
1C29
  8
SAPA_LIGHT
  0
POLYLINE
  5
8AC
  8
SAPA_LIGHT
 66
     1
 10
0.0
 20
0.0
 30
0.0
  0
VERTEX
  5
1C2A
  8
SAPA_LIGHT
 10
-41.000000747072242
 20
-72.499999999011891
 30
0.0
  0
VERTEX
  5
1C2B
  8
SAPA_LIGHT
 10
-11.000000747072249
 20
-72.499999999011891
 30
0.0
  0
VERTEX
  5
1C2C
  8
SAPA_LIGHT
 10
-11.000000747072249
 20
-45.499999999010299
 30
0.0
  0
VERTEX
  5
1C2D
  8
SAPA_LIGHT
 10
-41.000000747072242
 20
-45.499999999010299
 30
0.0
  0
SEQEND
  5
1C2E
  8
SAPA_LIGHT
  0
POLYLINE
  5
8B5
  8
SAPA_LIGHT
 66
     1
 10
0.0
 20
0.0
 30
0.0
  0
VERTEX
  5
1C2F
  8
SAPA_LIGHT
 10
183.0
 20
-64.550000065849062
 30
0.0
  0
VERTEX
  5
1C30
  8
SAPA_LIGHT
 10
153.0
 20
-64.550000065849062
 30
0.0
  0
VERTEX
  5
1C31
  8
SAPA_LIGHT
 10
153.0
 20
-37.550000065847492
 30
0.0
  0
VERTEX
  5
1C32
  8
SAPA_LIGHT
 10
183.0
 20
-37.550000065847492
 30
0.0
  0
SEQEND
  5
1C33
  8
SAPA_LIGHT
  0
POLYLINE
  5
8B9
  8
SAPA_LIGHT
 66
     1
 10
0.0
 20
0.0
 30
0.0
  0
VERTEX
  5
1C34
  8
SAPA_LIGHT
 10
89.500000000000014
 20
-73.499999988812419
 30
0.0
  0
VERTEX
  5
1C35
  8
SAPA_LIGHT
 10
8.9999999998945555
 20
-73.499999988812419
 30
0.0
  0
VERTEX
  5
1C36
  8
SAPA_LIGHT
 10
8.9999999998945555
 20
-49.000000031211577
 30
0.0
  0
VERTEX
  5
1C37
  8
SAPA_LIGHT
 10
24.999999999999769
 20
-49.000000031211577
 30
0.0
  0
VERTEX
  5
1C38
  8
SAPA_LIGHT
 10
24.99999999999978
 20
0.5000000104934657
 30
0.0
  0
VERTEX
  5
1C39
  8
SAPA_LIGHT
 10
89.500000197971303
 20
0.4999998379373665
 30
0.0
  0
SEQEND
  5
1C3A
  8
SAPA_LIGHT
  0
POLYLINE
  5
8C4
  8
SAPA_LIGHT
 66
     1
 10
0.0
 20
0.0
 30
0.0
 70
     1
  0
VERTEX
  5
1C3B
  8
SAPA_LIGHT
 10
153.00000000000011
 20
-64.550000065849076
 30
0.0
  0
VERTEX
  5
1C3C
  8
SAPA_LIGHT
 10
169.99997618387781
 20
-64.550000065847485
 30
0.0
  0
VERTEX
  5
1C3D
  8
SAPA_LIGHT
 10
169.99997618387781
 20
-73.499999987268154
 30
0.0
  0
VERTEX
  5
1C3E
  8
SAPA_LIGHT
 10
89.500000000000014
 20
-73.499999988812419
 30
0.0
  0
VERTEX
  5
1C3F
  8
SAPA_LIGHT
 10
89.500000197971303
 20
0.4999999922746384
 30
0.0
  0
VERTEX
  5
1C40
  8
SAPA_LIGHT
 10
169.99997618387781
 20
0.5000000089044648
 30
0.0
  0
VERTEX
  5
1C41
  8
SAPA_LIGHT
 10
169.99997618387781
 20
-37.550000065847492
 30
0.0
  0
VERTEX
  5
1C42
  8
SAPA_LIGHT
 10
153.0
 20
-37.550000065847492
 30
0.0
  0
SEQEND
  5
1C43
  8
SAPA_LIGHT
  0
INSERT
  5
8E1
  8
0
  2
*U129
 10
0.0
 20
0.0
 30
0.0
  0
INSERT
  5
8E2
  8
0
  2
*U130
 10
0.0
 20
0.0
 30
0.0
  0
INSERT
  5
8E3
  8
0
  2
*U131
 10
0.0
 20
0.0
 30
0.0
  0
INSERT
  5
8E4
  8
0
  2
*U132
 10
0.0
 20
0.0
 30
0.0
  0
INSERT
  5
8E6
  8
0
  2
*U133
 10
0.0
 20
0.0
 30
0.0
  0
INSERT
  5
184E
  8
BYGG-027036$0$KON
 66
     1
  2
BYGG-027036$0$RH
 10
-559.98359049517853
 20
-386.93657317286142
 30
0.0
 43
-1.0
 50
180.0
210
0.0
220
0.0
230
-1.0
  0
ATTRIB
  5
184F
  8
BYGG-027036$0$KON
 10
563.18359049517858
 20
-392.23657317286143
 30
0.0
 40
0.3999999999999772
  1
GGFJ
  7
BYGG-027036$0$SIMPLEX
 71
     4
  2
SÄLJARE
 70
     1
  0
ATTRIB
  5
1850
  8
BYGG-027036$0$KON
 10
563.58359049517856
 20
-388.83657317286128
 30
0.0
 40
0.3000000000000114
  1

  7
BYGG-027036$0$SIMPLEX
 71
     4
 72
     4
 11
563.58359049517856
 21
-388.83657317286128
 31
0.0
  2
DATUM
 70
     0
  0
ATTRIB
  5
1851
  8
BYGG-027036$0$KON
 10
563.3835904951784
 20
-387.83657317286128
 30
0.0
 40
0.3999999999999772
  1

  7
BYGG-027036$0$SIMPLEX
 71
     4
 72
     4
 11
563.3835904951784
 21
-387.83657317286128
 31
0.0
  2
RITAD:
 70
     1
  0
ATTRIB
  5
1852
  8
BYGG-027036$0$KON
 10
570.98359049517853
 20
-389.23657317286143
 30
0.0
 40
0.4399999999999978
  1

  7
BYGG-027036$0$SIMPLEX
 71
     4
 72
     4
 11
570.98359049517853
 21
-389.23657317286143
 31
0.0
  2
BENÄMNING
 70
     0
  0
ATTRIB
  5
1853
  8
BYGG-027036$0$KON
 10
570.98359049517853
 20
-388.43657317286142
 30
0.0
 40
0.4399999999999978
  1

  7
BYGG-027036$0$SIMPLEX
 71
     4
 72
     4
 11
570.98359049517853
 21
-388.43657317286142
 31
0.0
  2
GUMMI-HÅRDHET-FÄRG
 70
     0
  0
ATTRIB
  5
1854
  8
BYGG-027036$0$KON
 10
570.98359049517853
 20
-387.63657317286129
 30
0.0
 40
0.4399999999999978
  1

  7
BYGG-027036$0$SIMPLEX
 71
     4
 72
     4
 11
570.98359049517853
 21
-387.63657317286129
 31
0.0
  2
KUND
 70
     0
  0
ATTRIB
  5
1855
  8
BYGG-027036$0$KON
 10
578.78359049517837
 20
-388.93657317286142
 30
0.0
 40
0.3999999999999772
  1

  7
BYGG-027036$0$SIMPLEX
 71
     4
 72
     4
 11
578.78359049517837
 21
-388.93657317286142
 31
0.0
  2
SKALA:
 70
     1
  0
ATTRIB
  5
1856
  8
BYGG-027036$0$KON
 10
578.38359049517851
 20
-387.73657317286143
 30
0.0
 40
0.3999999999999772
  1

  7
BYGG-027036$0$SIMPLEX
 71
     4
 72
     4
 11
578.38359049517851
 21
-387.73657317286143
 31
0.0
  2
RIT.NR:
 70
     0
  0
ATTRIB
  5
1857
  8
BYGG-027036$0$KON
 10
578.38359049517851
 20
-390.13657317286129
 30
0.0
 40
0.3999999999999772
  1

  7
BYGG-027036$0$SIMPLEX
 71
     4
 72
     4
 11
578.38359049517851
 21
-390.13657317286129
 31
0.0
  2
DET.NR:
 70
     0
  0
SEQEND
  5
1871
  8
BYGG-027036$0$KON
  0
INSERT
  5
1858
  8
BYGG-027036$0$KON
 66
     1
  2
BYGG-027036$0$RH
 10
-559.98359049517853
 20
-386.93657317286142
 30
0.0
 43
-1.0
 50
180.0
210
0.0
220
0.0
230
-1.0
  0
ATTRIB
  5
1859
  8
BYGG-027036$0$KON
 10
570.98359049517853
 20
-389.23657317286143
 30
0.0
 40
0.4399999999999978
  1

  7
BYGG-027036$0$SIMPLEX
 71
     4
 72
     4
 11
570.98359049517853
 21
-389.23657317286143
 31
0.0
  2
BENÄMNING
 70
     0
  0
ATTRIB
  5
185A
  8
BYGG-027036$0$KON
 10
570.98359049517853
 20
-388.43657317286142
 30
0.0
 40
0.4399999999999978
  1

  7
BYGG-027036$0$SIMPLEX
 71
     4
 72
     4
 11
570.98359049517853
 21
-388.43657317286142
 31
0.0
  2
GUMMI-HÅRDHET-FÄRG
 70
     0
  0
ATTRIB
  5
185B
  8
BYGG-027036$0$KON
 10
570.98359049517853
 20
-387.63657317286129
 30
0.0
 40
0.4399999999999978
  1

  7
BYGG-027036$0$SIMPLEX
 71
     4
 72
     4
 11
570.98359049517853
 21
-387.63657317286129
 31
0.0
  2
KUND
 70
     0
  0
ATTRIB
  5
185C
  8
BYGG-027036$0$KON
 10
578.38359049517851
 20
-387.73657317286143
 30
0.0
 40
0.3999999999999772
  1

  7
BYGG-027036$0$SIMPLEX
 71
     4
 72
     4
 11
578.38359049517851
 21
-387.73657317286143
 31
0.0
  2
RIT.NR:
 70
     0
  0
ATTRIB
  5
185D
  8
BYGG-027036$0$KON
 10
578.38359049517851
 20
-390.13657317286129
 30
0.0
 40
0.3999999999999772
  1

  7
BYGG-027036$0$SIMPLEX
 71
     4
 72
     4
 11
578.38359049517851
 21
-390.13657317286129
 31
0.0
  2
DET.NR:
 70
     0
  0
ATTRIB
  5
185E
  8
BYGG-027036$0$KON
 10
578.78359049517837
 20
-388.93657317286142
 30
0.0
 40
0.3999999999999772
  1

  7
BYGG-027036$0$SIMPLEX
 71
     4
 72
     4
 11
578.78359049517837
 21
-388.93657317286142
 31
0.0
  2
SKALA:
 70
     1
  0
ATTRIB
  5
185F
  8
BYGG-027036$0$KON
 10
563.58359049517856
 20
-388.83657317286128
 30
0.0
 40
0.3000000000000114
  1

  7
BYGG-027036$0$SIMPLEX
 71
     4
 72
     4
 11
563.58359049517856
 21
-388.83657317286128
 31
0.0
  2
DATUM
 70
     0
  0
ATTRIB
  5
1860
  8
BYGG-027036$0$KON
 10
563.3835904951784
 20
-387.83657317286128
 30
0.0
 40
0.3999999999999772
  1

  7
BYGG-027036$0$SIMPLEX
 71
     4
 72
     4
 11
563.3835904951784
 21
-387.83657317286128
 31
0.0
  2
RITAD:
 70
     1
  0
ATTRIB
  5
1861
  8
BYGG-027036$0$KON
 10
563.18359049517858
 20
-392.23657317286143
 30
0.0
 40
0.3999999999999772
  1

  7
BYGG-027036$0$SIMPLEX
 71
     4
  2
SÄLJARE
 70
     1
  0
SEQEND
  5
1872
  8
BYGG-027036$0$KON
  0
INSERT
  5
1862
  8
BYGG-027036$0$DIM
 66
     1
  2
BYGG-027036$0$RH
 10
-559.98359049517853
 20
-386.93657317286142
 30
0.0
 43
-1.0
 50
180.0
210
0.0
220
0.0
230
-1.0
  0
ATTRIB
  5
1863
  8
BYGG-027036$0$KON
 10
570.98359049517853
 20
-389.23657317286143
 30
0.0
 40
0.4399999999999978
  1

  7
BYGG-027036$0$SIMPLEX
 71
     4
 72
     4
 11
570.98359049517853
 21
-389.23657317286143
 31
0.0
  2
BENÄMNING
 70
     0
  0
ATTRIB
  5
1864
  8
BYGG-027036$0$KON
 10
570.98359049517853
 20
-388.43657317286142
 30
0.0
 40
0.4399999999999978
  1

  7
BYGG-027036$0$SIMPLEX
 71
     4
 72
     4
 11
570.98359049517853
 21
-388.43657317286142
 31
0.0
  2
GUMMI-HÅRDHET-FÄRG
 70
     0
  0
ATTRIB
  5
1865
  8
BYGG-027036$0$KON
 10
570.98359049517853
 20
-387.63657317286129
 30
0.0
 40
0.4399999999999978
  1

  7
BYGG-027036$0$SIMPLEX
 71
     4
 72
     4
 11
570.98359049517853
 21
-387.63657317286129
 31
0.0
  2
KUND
 70
     0
  0
ATTRIB
  5
1866
  8
BYGG-027036$0$KON
 10
578.38359049517851
 20
-387.73657317286143
 30
0.0
 40
0.3999999999999772
  1

  7
BYGG-027036$0$SIMPLEX
 71
     4
 72
     4
 11
578.38359049517851
 21
-387.73657317286143
 31
0.0
  2
RIT.NR:
 70
     0
  0
ATTRIB
  5
1867
  8
BYGG-027036$0$KON
 10
578.38359049517851
 20
-390.13657317286129
 30
0.0
 40
0.3999999999999772
  1

  7
BYGG-027036$0$SIMPLEX
 71
     4
 72
     4
 11
578.38359049517851
 21
-390.13657317286129
 31
0.0
  2
DET.NR:
 70
     0
  0
ATTRIB
  5
1868
  8
BYGG-027036$0$KON
 10
578.78359049517837
 20
-388.93657317286142
 30
0.0
 40
0.3999999999999772
  1

  7
BYGG-027036$0$SIMPLEX
 71
     4
 72
     4
 11
578.78359049517837
 21
-388.93657317286142
 31
0.0
  2
SKALA:
 70
     1
  0
ATTRIB
  5
1869
  8
BYGG-027036$0$KON
 10
563.58359049517856
 20
-388.83657317286128
 30
0.0
 40
0.3000000000000114
  1

  7
BYGG-027036$0$SIMPLEX
 71
     4
 72
     4
 11
563.58359049517856
 21
-388.83657317286128
 31
0.0
  2
DATUM
 70
     0
  0
ATTRIB
  5
186A
  8
BYGG-027036$0$KON
 10
563.3835904951784
 20
-387.83657317286128
 30
0.0
 40
0.3999999999999772
  1

  7
BYGG-027036$0$SIMPLEX
 71
     4
 72
     4
 11
563.3835904951784
 21
-387.83657317286128
 31
0.0
  2
RITAD:
 70
     1
  0
ATTRIB
  5
186B
  8
BYGG-027036$0$KON
 10
563.18359049517858
 20
-392.23657317286143
 30
0.0
 40
0.3999999999999772
  1

  7
BYGG-027036$0$SIMPLEX
 71
     4
  2
SÄLJARE
 70
     1
  0
SEQEND
  5
1873
  8
BYGG-027036$0$DIM
  0
CIRCLE
  5
1A37
  8
SAPA_PROFIL
 62
     2
 10
166.66794099762939
 20
-69.358006491540323
 30
-0.1
 40
0.8999999999999985
  0
POLYLINE
  5
1A38
  8
SAPA_PROFIL
 62
     2
 66
     1
 10
0.0
 20
0.0
 30
-0.1
  0
VERTEX
  5
22BB
  8
SAPA_PROFIL
 62
     2
 10
168.06794099762939
 20
-68.050000079967276
 30
-0.1
  0
VERTEX
  5
22BC
  8
SAPA_PROFIL
 62
     2
 10
167.875582577637
 20
-69.14091889012002
 30
-0.1
  0
VERTEX
  5
22BD
  8
SAPA_PROFIL
 62
     2
 10
168.30737913753859
 20
-69.256618429639957
 30
-0.1
 42
-0.4430158954262519
  0
VERTEX
  5
22BE
  8
SAPA_PROFIL
 62
     2
 10
168.44285618508269
 20
-69.520094857746926
 30
-0.1
  0
VERTEX
  5
22BF
  8
SAPA_PROFIL
 62
     2
 10
167.96590799186379
 20
-70.790582605665122
 30
-0.1
 42
-0.3125358528825162
  0
VERTEX
  5
22C0
  8
SAPA_PROFIL
 62
     2
 10
167.59142627873439
 20
-71.050000079966821
 30
-0.1
  0
VERTEX
  5
22C1
  8
SAPA_PROFIL
 62
     2
 10
165.72127096282401
 20
-71.050000079967276
 30
-0.1
 42
-0.3125358528825104
  0
VERTEX
  5
22C2
  8
SAPA_PROFIL
 62
     2
 10
165.34678924969461
 20
-70.790582605665122
 30
-0.1
  0
VERTEX
  5
22C3
  8
SAPA_PROFIL
 62
     2
 10
164.86984105647551
 20
-69.520094857746926
 30
-0.1
 42
-0.4430158954262519
  0
VERTEX
  5
22C4
  8
SAPA_PROFIL
 62
     2
 10
165.00531810401961
 20
-69.256618429640071
 30
-0.1
  0
VERTEX
  5
22C5
  8
SAPA_PROFIL
 62
     2
 10
165.43711466392139
 20
-69.14091889012002
 30
-0.1
  0
VERTEX
  5
22C6
  8
SAPA_PROFIL
 62
     2
 10
165.24484862077921
 20
-68.050000079967276
 30
-0.1
  0
SEQEND
  5
22C7
  8
SAPA_PROFIL
 62
     2
  0
POLYLINE
  5
1A39
  8
SAPA_PROFIL
 62
     2
 66
     1
 10
0.0
 20
0.0
 30
-0.1
 70
     1
  0
VERTEX
  5
22C8
  8
SAPA_PROFIL
 62
     2
 10
168.05634862077909
 20
-68.050000079967276
 30
-0.1
 42
0.285714285714282
  0
VERTEX
  5
22C9
  8
SAPA_PROFIL
 62
     2
 10
165.25634862077911
 20
-68.050000079967276
 30
-0.1
  0
VERTEX
  5
22CA
  8
SAPA_PROFIL
 62
     2
 10
163.18256845139129
 20
-68.050000079966821
 30
-0.1
 42
-0.3882600129940275
  0
VERTEX
  5
22CB
  8
SAPA_PROFIL
 62
     2
 10
162.8837669540498
 20
-67.776789353687263
 30
-0.1
  0
VERTEX
  5
22CC
  8
SAPA_PROFIL
 62
     2
 10
162.41755703012331
 20
-63.876789353687172
 30
-0.1
 42
-0.4406523138893894
  0
VERTEX
  5
22CD
  8
SAPA_PROFIL
 62
     2
 10
162.71635852746519
 20
-63.550000079967283
 30
-0.1
  0
VERTEX
  5
22CE
  8
SAPA_PROFIL
 62
     2
 10
164.42615052438549
 20
-63.550000079967283
 30
-0.1
 42
-0.3394542588634375
  0
VERTEX
  5
22CF
  8
SAPA_PROFIL
 62
     2
 10
164.71592827227209
 20
-63.772354366436268
 30
-0.1
  0
VERTEX
  5
22D0
  8
SAPA_PROFIL
 62
     2
 10
164.9183080002035
 20
-63.989940148603857
 30
-0.1
 42
0.3394542588633663
  0
VERTEX
  5
22D1
  8
SAPA_PROFIL
 62
     2
 10
165.2080857480903
 20
-64.212294435072863
 30
-0.1
  0
VERTEX
  5
22D2
  8
SAPA_PROFIL
 62
     2
 10
168.1046114934681
 20
-64.212294435072863
 30
-0.1
 42
0.3394542588634373
  0
VERTEX
  5
22D3
  8
SAPA_PROFIL
 62
     2
 10
168.3943892413547
 20
-63.989940148603857
 30
-0.1
  0
VERTEX
  5
22D4
  8
SAPA_PROFIL
 62
     2
 10
168.5967689692861
 20
-63.772354366436268
 30
-0.1
 42
-0.3394542588633662
  0
VERTEX
  5
22D5
  8
SAPA_PROFIL
 62
     2
 10
168.88654671717291
 20
-63.550000079967283
 30
-0.1
  0
VERTEX
  5
22D6
  8
SAPA_PROFIL
 62
     2
 10
170.59633871409301
 20
-63.550000079967283
 30
-0.1
 42
-0.4406523138893994
  0
VERTEX
  5
22D7
  8
SAPA_PROFIL
 62
     2
 10
170.89514021143461
 20
-63.876789353687172
 30
-0.1
  0
VERTEX
  5
22D8
  8
SAPA_PROFIL
 62
     2
 10
170.42893028750831
 20
-67.776789353687263
 30
-0.1
 42
-0.3882600129940462
  0
VERTEX
  5
22D9
  8
SAPA_PROFIL
 62
     2
 10
170.13012879016691
 20
-68.050000079967276
 30
-0.1
  0
VERTEX
  5
22DA
  8
SAPA_PROFIL
 62
     2
 10
168.06794099762939
 20
-68.050000079967276
 30
-0.1
  0
SEQEND
  5
22DB
  8
SAPA_PROFIL
 62
     2
  0
POLYLINE
  5
1A3A
  8
SAPA_PROFIL
  6
CONTINUOUS
 66
     1
 10
0.0
 20
0.0
 30
-0.1
 70
     1
  0
VERTEX
  5
22DC
  8
SAPA_PROFIL
  6
CONTINUOUS
 10
165.58308906748979
 20
10.10779702221916
 30
-0.1
  0
VERTEX
  5
22DD
  8
SAPA_PROFIL
  6
CONTINUOUS
 10
150.44455361088271
 20
10.52736051161116
 30
-0.1
 42
0.2061234514950211
  0
VERTEX
  5
22DE
  8
SAPA_PROFIL
  6
CONTINUOUS
 10
150.07714807302131
 20
10.381105821021411
 30
-0.1
  0
VERTEX
  5
22DF
  8
SAPA_PROFIL
  6
CONTINUOUS
 10
148.14642279328851
 20
8.4503805412882826
 30
-0.1
 42
-0.1989123673797024
  0
VERTEX
  5
22E0
  8
SAPA_PROFIL
  6
CONTINUOUS
 10
147.7928694026952
 20
8.3039339318814598
 30
-0.1
  0
VERTEX
  5
22E1
  8
SAPA_PROFIL
  6
CONTINUOUS
 10
143.61209136283031
 20
8.3039339318814598
 30
-0.1
 42
-0.6681786379193032
  0
VERTEX
  5
22E2
  8
SAPA_PROFIL
  6
CONTINUOUS
 10
143.43531466753359
 20
8.7307106271780981
 30
-0.1
  0
VERTEX
  5
22E3
  8
SAPA_PROFIL
  6
CONTINUOUS
 10
144.4225137067553
 20
9.7179096663997768
 30
-0.1
 42
-0.4584832902918763
  0
VERTEX
  5
22E4
  8
SAPA_PROFIL
  6
CONTINUOUS
 10
145.9337125214702
 20
9.6053077225514016
 30
-0.1
 42
0.2378770156285958
  0
VERTEX
  5
22E5
  8
SAPA_PROFIL
  6
CONTINUOUS
 10
146.1347355298528
 20
9.5039339318842053
 30
-0.1
  0
VERTEX
  5
22E6
  8
SAPA_PROFIL
  6
CONTINUOUS
 10
147.295813127847
 20
9.5039339318819742
 30
-0.1
 42
0.1989123673801665
  0
VERTEX
  5
22E7
  8
SAPA_PROFIL
  6
CONTINUOUS
 10
147.64936651844121
 20
9.6503805412886834
 30
-0.1
  0
VERTEX
  5
22E8
  8
SAPA_PROFIL
  6
CONTINUOUS
 10
147.99997618388181
 20
10.00099020672914
 30
-0.1
  0
VERTEX
  5
22E9
  8
SAPA_PROFIL
  6
CONTINUOUS
 10
148.42678377642781
 20
10.427947034321081
 30
-0.1
 42
0.1988669396406054
  0
VERTEX
  5
22EA
  8
SAPA_PROFIL
  6
CONTINUOUS
 10
148.49997618388181
 20
10.604692826967179
 30
-0.1
  0
VERTEX
  5
22EB
  8
SAPA_PROFIL
  6
CONTINUOUS
 10
148.49997618388181
 20
10.751166033804139
 30
-0.1
 42
0.4142135623733282
  0
VERTEX
  5
22EC
  8
SAPA_PROFIL
  6
CONTINUOUS
 10
148.24997718388161
 20
11.00116503380414
 30
-0.1
  0
VERTEX
  5
22ED
  8
SAPA_PROFIL
  6
CONTINUOUS
 10
148.24997618388201
 20
11.00116503380414
 30
-0.1
 42
-0.4142135623732616
  0
VERTEX
  5
22EE
  8
SAPA_PROFIL
  6
CONTINUOUS
 10
147.99997618388181
 20
11.25116503380408
 30
-0.1
  0
VERTEX
  5
22EF
  8
SAPA_PROFIL
  6
CONTINUOUS
 10
147.99997618388181
 20
11.75006484023802
 30
-0.1
 42
-0.4209003450991805
  0
VERTEX
  5
22F0
  8
SAPA_PROFIL
  6
CONTINUOUS
 10
148.25566969460161
 20
11.99999999970094
 30
-0.1
 42
0.0067990255081984
  0
VERTEX
  5
22F1
  8
SAPA_PROFIL
  6
CONTINUOUS
 10
169.49776635558911
 20
11.805030940292371
 30
-0.1
 42
-0.4155086472897409
  0
VERTEX
  5
22F2
  8
SAPA_PROFIL
  6
CONTINUOUS
 10
169.9999761838952
 20
11.30503582365723
 30
-0.1
  0
VERTEX
  5
22F3
  8
SAPA_PROFIL
  6
CONTINUOUS
 10
169.99997618388181
 20
-26.39462140432942
 30
-0.1
 42
-0.4142135623716549
  0
VERTEX
  5
22F4
  8
SAPA_PROFIL
  6
CONTINUOUS
 10
169.6999761838818
 20
-26.694621404330739
 30
-0.1
  0
VERTEX
  5
22F5
  8
SAPA_PROFIL
  6
CONTINUOUS
 10
168.49997618389639
 20
-26.694621404330508
 30
-0.1
 42
-0.4142135623732907
  0
VERTEX
  5
22F6
  8
SAPA_PROFIL
  6
CONTINUOUS
 10
168.19997618389641
 20
-26.39462140433033
 30
-0.1
  0
VERTEX
  5
22F7
  8
SAPA_PROFIL
  6
CONTINUOUS
 10
168.19997618389729
 20
-25.19462140433091
 30
-0.1
 42
0.4142135623732116
  0
VERTEX
  5
22F8
  8
SAPA_PROFIL
  6
CONTINUOUS
 10
167.69997618389729
 20
-24.694621404330711
 30
-0.1
  0
VERTEX
  5
22F9
  8
SAPA_PROFIL
  6
CONTINUOUS
 10
158.7999761838831
 20
-24.694621404330711
 30
-0.1
 42
-0.4142135623733198
  0
VERTEX
  5
22FA
  8
SAPA_PROFIL
  6
CONTINUOUS
 10
158.49997618388321
 20
-24.394621404330529
 30
-0.1
  0
VERTEX
  5
22FB
  8
SAPA_PROFIL
  6
CONTINUOUS
 10
158.4999761838834
 20
-23.694621404330519
 30
-0.1
 42
-0.4142135623728995
  0
VERTEX
  5
22FC
  8
SAPA_PROFIL
  6
CONTINUOUS
 10
158.79997618388339
 20
-23.394621404330699
 30
-0.1
  0
VERTEX
  5
22FD
  8
SAPA_PROFIL
  6
CONTINUOUS
 10
167.9999761838867
 20
-23.39462140433081
 30
-0.1
 42
0.4142135623716508
  0
VERTEX
  5
22FE
  8
SAPA_PROFIL
  6
CONTINUOUS
 10
168.49997618388181
 20
-22.894621404330799
 30
-0.1
  0
VERTEX
  5
22FF
  8
SAPA_PROFIL
  6
CONTINUOUS
 10
168.49997618388181
 20
-5.4960660681159288
 30
-0.1
 42
0.41421356237163
  0
VERTEX
  5
2300
  8
SAPA_PROFIL
  6
CONTINUOUS
 10
167.99997618388181
 20
-4.9960660681184299
 30
-0.1
  0
VERTEX
  5
2301
  8
SAPA_PROFIL
  6
CONTINUOUS
 10
146.0858032645173
 20
-4.996066068118437
 30
-0.1
 42
0.4663076581592616
  0
VERTEX
  5
2302
  8
SAPA_PROFIL
  6
CONTINUOUS
 10
145.7903609386137
 20
-5.3481605214184347
 30
-0.1
  0
VERTEX
  5
2303
  8
SAPA_PROFIL
  6
CONTINUOUS
 10
145.89541850978529
 20
-5.9439716148171149
 30
-0.1
 42
-0.7332303362587812
  0
VERTEX
  5
2304
  8
SAPA_PROFIL
  6
CONTINUOUS
 10
145.3878441495259
 20
-6.2081981024745536
 30
-0.1
  0
VERTEX
  5
2305
  8
SAPA_PROFIL
  6
CONTINUOUS
 10
143.38784414952841
 20
-4.2081981024770414
 30
-0.1
 42
-0.6681786379237062
  0
VERTEX
  5
2306
  8
SAPA_PROFIL
  6
CONTINUOUS
 10
143.59997618388189
 20
-3.696066068118554
 30
-0.1
  0
VERTEX
  5
2307
  8
SAPA_PROFIL
  6
CONTINUOUS
 10
167.99997618388181
 20
-3.6960660681185331
 30
-0.1
 42
0.4142135623716217
  0
VERTEX
  5
2308
  8
SAPA_PROFIL
  6
CONTINUOUS
 10
168.49997618388181
 20
-3.1960660681160311
 30
-0.1
  0
VERTEX
  5
2309
  8
SAPA_PROFIL
  6
CONTINUOUS
 10
168.49997618388181
 20
7.1089485351197723
 30
-0.1
 42
0.40612121347231
  0
SEQEND
  5
230A
  8
SAPA_PROFIL
  6
CONTINUOUS
  0
POLYLINE
  5
1A3B
  8
SAPA_PROFIL
 62
     2
 10
165.8999761838968
 20
-30.344621417642859
 30
-0.1
 66
     1
 70
     8
  0
VERTEX
  8
SAPA_PROFIL
  5
2BE6
 10
165.900
 20
-30.3446
 30
-0.100000
  70
    32
  0
VERTEX
  8
SAPA_PROFIL
  5
2BE7
 10
165.896
 20
-30.4428
 30
-0.100000
  70
    32
  0
VERTEX
  8
SAPA_PROFIL
  5
2BE8
 10
165.883
 20
-30.5407
 30
-0.100000
  70
    32
  0
VERTEX
  8
SAPA_PROFIL
  5
2BE9
 10
165.862
 20
-30.6381
 30
-0.100000
  70
    32
  0
VERTEX
  8
SAPA_PROFIL
  5
2BEA
 10
165.833
 20
-30.7348
 30
-0.100000
  70
    32
  0
VERTEX
  8
SAPA_PROFIL
  5
2BEB
 10
165.795
 20
-30.8306
 30
-0.100000
  70
    32
  0
VERTEX
  8
SAPA_PROFIL
  5
2BEC
 10
165.749
 20
-30.9252
 30
-0.100000
  70
    32
  0
VERTEX
  8
SAPA_PROFIL
  5
2BED
 10
165.695
 20
-31.0184
 30
-0.100000
  70
    32
  0
VERTEX
  8
SAPA_PROFIL
  5
2BEE
 10
165.634
 20
-31.1100
 30
-0.100000
  70
    32
  0
VERTEX
  8
SAPA_PROFIL
  5
2BEF
 10
165.564
 20
-31.1997
 30
-0.100000
  70
    32
  0
VERTEX
  8
SAPA_PROFIL
  5
2BF0
 10
165.487
 20
-31.2874
 30
-0.100000
  70
    32
  0
VERTEX
  8
SAPA_PROFIL
  5
2BF1
 10
165.402
 20
-31.3728
 30
-0.100000
  70
    32
  0
VERTEX
  8
SAPA_PROFIL
  5
2BF2
 10
165.310
 20
-31.4558
 30
-0.100000
  70
    32
  0
VERTEX
  8
SAPA_PROFIL
  5
2BF3
 10
165.211
 20
-31.5360
 30
-0.100000
  70
    32
  0
VERTEX
  8
SAPA_PROFIL
  5
2BF4
 10
165.106
 20
-31.6134
 30
-0.100000
  70
    32
  0
VERTEX
  8
SAPA_PROFIL
  5
2BF5
 10
164.993
 20
-31.6877
 30
-0.100000
  70
    32
  0
VERTEX
  8
SAPA_PROFIL
  5
2BF6
 10
164.875
 20
-31.7588
 30
-0.100000
  70
    32
  0
VERTEX
  8
SAPA_PROFIL
  5
2BF7
 10
164.750
 20
-31.8265
 30
-0.100000
  70
    32
  0
VERTEX
  8
SAPA_PROFIL
  5
2BF8
 10
164.620
 20
-31.8906
 30
-0.100000
  70
    32
  0
VERTEX
  8
SAPA_PROFIL
  5
2BF9
 10
164.485
 20
-31.9510
 30
-0.100000
  70
    32
  0
VERTEX
  8
SAPA_PROFIL
  5
2BFA
 10
164.344
 20
-32.0076
 30
-0.100000
  70
    32
  0
VERTEX
  8
SAPA_PROFIL
  5
2BFB
 10
164.199
 20
-32.0601
 30
-0.100000
  70
    32
  0
VERTEX
  8
SAPA_PROFIL
  5
2BFC
 10
164.050
 20
-32.1085
 30
-0.100000
  70
    32
  0
VERTEX
  8
SAPA_PROFIL
  5
2BFD
 10
163.896
 20
-32.1526
 30
-0.100000
  70
    32
  0
VERTEX
  8
SAPA_PROFIL
  5
2BFE
 10
163.739
 20
-32.1924
 30
-0.100000
  70
    32
  0
VERTEX
  8
SAPA_PROFIL
  5
2BFF
 10
163.579
 20
-32.2277
 30
-0.100000
  70
    32
  0
VERTEX
  8
SAPA_PROFIL
  5
2C00
 10
163.416
 20
-32.2585
 30
-0.100000
  70
    32
  0
VERTEX
  8
SAPA_PROFIL
  5
2C01
 10
163.250
 20
-32.2847
 30
-0.100000
  70
    32
  0
VERTEX
  8
SAPA_PROFIL
  5
2C02
 10
163.083
 20
-32.3062
 30
-0.100000
  70
    32
  0
VERTEX
  8
SAPA_PROFIL
  5
2C03
 10
162.914
 20
-32.3230
 30
-0.100000
  70
    32
  0
VERTEX
  8
SAPA_PROFIL
  5
2C04
 10
162.743
 20
-32.3350
 30
-0.100000
  70
    32
  0
VERTEX
  8
SAPA_PROFIL
  5
2C05
 10
162.572
 20
-32.3422
 30
-0.100000
  70
    32
  0
VERTEX
  8
SAPA_PROFIL
  5
2C06
 10
162.400
 20
-32.3446
 30
-0.100000
  70
    32
  0
VERTEX
  8
SAPA_PROFIL
  5
2C07
 10
162.228
 20
-32.3422
 30
-0.100000
  70
    32
  0
VERTEX
  8
SAPA_PROFIL
  5
2C08
 10
162.057
 20
-32.3350
 30
-0.100000
  70
    32
  0
VERTEX
  8
SAPA_PROFIL
  5
2C09
 10
161.886
 20
-32.3230
 30
-0.100000
  70
    32
  0
VERTEX
  8
SAPA_PROFIL
  5
2C0A
 10
161.717
 20
-32.3062
 30
-0.100000
  70
    32
  0
VERTEX
  8
SAPA_PROFIL
  5
2C0B
 10
161.550
 20
-32.2847
 30
-0.100000
  70
    32
  0
VERTEX
  8
SAPA_PROFIL
  5
2C0C
 10
161.384
 20
-32.2585
 30
-0.100000
  70
    32
  0
VERTEX
  8
SAPA_PROFIL
  5
2C0D
 10
161.221
 20
-32.2277
 30
-0.100000
  70
    32
  0
VERTEX
  8
SAPA_PROFIL
  5
2C0E
 10
161.061
 20
-32.1924
 30
-0.100000
  70
    32
  0
VERTEX
  8
SAPA_PROFIL
  5
2C0F
 10
160.904
 20
-32.1526
 30
-0.100000
  70
    32
  0
VERTEX
  8
SAPA_PROFIL
  5
2C10
 10
160.750
 20
-32.1085
 30
-0.100000
  70
    32
  0
VERTEX
  8
SAPA_PROFIL
  5
2C11
 10
160.601
 20
-32.0601
 30
-0.100000
  70
    32
  0
VERTEX
  8
SAPA_PROFIL
  5
2C12
 10
160.455
 20
-32.0076
 30
-0.100000
  70
    32
  0
VERTEX
  8
SAPA_PROFIL
  5
2C13
 10
160.315
 20
-31.9510
 30
-0.100000
  70
    32
  0
VERTEX
  8
SAPA_PROFIL
  5
2C14
 10
160.180
 20
-31.8906
 30
-0.100000
  70
    32
  0
VERTEX
  8
SAPA_PROFIL
  5
2C15
 10
160.050
 20
-31.8265
 30
-0.100000
  70
    32
  0
VERTEX
  8
SAPA_PROFIL
  5
2C16
 10
159.925
 20
-31.7588
 30
-0.100000
  70
    32
  0
VERTEX
  8
SAPA_PROFIL
  5
2C17
 10
159.807
 20
-31.6877
 30
-0.100000
  70
    32
  0
VERTEX
  8
SAPA_PROFIL
  5
2C18
 10
159.694
 20
-31.6134
 30
-0.100000
  70
    32
  0
VERTEX
  8
SAPA_PROFIL
  5
2C19
 10
159.589
 20
-31.5360
 30
-0.100000
  70
    32
  0
VERTEX
  8
SAPA_PROFIL
  5
2C1A
 10
159.490
 20
-31.4558
 30
-0.100000
  70
    32
  0
VERTEX
  8
SAPA_PROFIL
  5
2C1B
 10
159.398
 20
-31.3728
 30
-0.100000
  70
    32
  0
VERTEX
  8
SAPA_PROFIL
  5
2C1C
 10
159.313
 20
-31.2874
 30
-0.100000
  70
    32
  0
VERTEX
  8
SAPA_PROFIL
  5
2C1D
 10
159.236
 20
-31.1997
 30
-0.100000
  70
    32
  0
VERTEX
  8
SAPA_PROFIL
  5
2C1E
 10
159.166
 20
-31.1100
 30
-0.100000
  70
    32
  0
VERTEX
  8
SAPA_PROFIL
  5
2C1F
 10
159.105
 20
-31.0184
 30
-0.100000
  70
    32
  0
VERTEX
  8
SAPA_PROFIL
  5
2C20
 10
159.051
 20
-30.9252
 30
-0.100000
  70
    32
  0
VERTEX
  8
SAPA_PROFIL
  5
2C21
 10
159.005
 20
-30.8306
 30
-0.100000
  70
    32
  0
VERTEX
  8
SAPA_PROFIL
  5
2C22
 10
158.967
 20
-30.7348
 30
-0.100000
  70
    32
  0
VERTEX
  8
SAPA_PROFIL
  5
2C23
 10
158.938
 20
-30.6381
 30
-0.100000
  70
    32
  0
VERTEX
  8
SAPA_PROFIL
  5
2C24
 10
158.917
 20
-30.5407
 30
-0.100000
  70
    32
  0
VERTEX
  8
SAPA_PROFIL
  5
2C25
 10
158.904
 20
-30.4428
 30
-0.100000
  70
    32
  0
VERTEX
  8
SAPA_PROFIL
  5
2C26
 10
158.900
 20
-30.3446
 30
-0.100000
  70
    32
  0
VERTEX
  8
SAPA_PROFIL
  5
2C27
 10
158.904
 20
-30.2465
 30
-0.100000
  70
    32
  0
VERTEX
  8
SAPA_PROFIL
  5
2C28
 10
158.917
 20
-30.1486
 30
-0.100000
  70
    32
  0
VERTEX
  8
SAPA_PROFIL
  5
2C29
 10
158.938
 20
-30.0512
 30
-0.100000
  70
    32
  0
VERTEX
  8
SAPA_PROFIL
  5
2C2A
 10
158.967
 20
-29.9544
 30
-0.100000
  70
    32
  0
VERTEX
  8
SAPA_PROFIL
  5
2C2B
 10
159.005
 20
-29.8587
 30
-0.100000
  70
    32
  0
VERTEX
  8
SAPA_PROFIL
  5
2C2C
 10
159.051
 20
-29.7641
 30
-0.100000
  70
    32
  0
VERTEX
  8
SAPA_PROFIL
  5
2C2D
 10
159.105
 20
-29.6708
 30
-0.100000
  70
    32
  0
VERTEX
  8
SAPA_PROFIL
  5
2C2E
 10
159.166
 20
-29.5793
 30
-0.100000
  70
    32
  0
VERTEX
  8
SAPA_PROFIL
  5
2C2F
 10
159.236
 20
-29.4895
 30
-0.100000
  70
    32
  0
VERTEX
  8
SAPA_PROFIL
  5
2C30
 10
159.313
 20
-29.4018
 30
-0.100000
  70
    32
  0
VERTEX
  8
SAPA_PROFIL
  5
2C31
 10
159.398
 20
-29.3164
 30
-0.100000
  70
    32
  0
VERTEX
  8
SAPA_PROFIL
  5
2C32
 10
159.490
 20
-29.2335
 30
-0.100000
  70
    32
  0
VERTEX
  8
SAPA_PROFIL
  5
2C33
 10
159.589
 20
-29.1532
 30
-0.100000
  70
    32
  0
VERTEX
  8
SAPA_PROFIL
  5
2C34
 10
159.694
 20
-29.0758
 30
-0.100000
  70
    32
  0
VERTEX
  8
SAPA_PROFIL
  5
2C35
 10
159.807
 20
-29.0015
 30
-0.100000
  70
    32
  0
VERTEX
  8
SAPA_PROFIL
  5
2C36
 10
159.925
 20
-28.9304
 30
-0.100000
  70
    32
  0
VERTEX
  8
SAPA_PROFIL
  5
2C37
 10
160.050
 20
-28.8627
 30
-0.100000
  70
    32
  0
VERTEX
  8
SAPA_PROFIL
  5
2C38
 10
160.180
 20
-28.7986
 30
-0.100000
  70
    32
  0
VERTEX
  8
SAPA_PROFIL
  5
2C39
 10
160.315
 20
-28.7382
 30
-0.100000
  70
    32
  0
VERTEX
  8
SAPA_PROFIL
  5
2C3A
 10
160.455
 20
-28.6817
 30
-0.100000
  70
    32
  0
VERTEX
  8
SAPA_PROFIL
  5
2C3B
 10
160.601
 20
-28.6292
 30
-0.100000
  70
    32
  0
VERTEX
  8
SAPA_PROFIL
  5
2C3C
 10
160.750
 20
-28.5808
 30
-0.100000
  70
    32
  0
VERTEX
  8
SAPA_PROFIL
  5
2C3D
 10
160.904
 20
-28.5366
 30
-0.100000
  70
    32
  0
VERTEX
  8
SAPA_PROFIL
  5
2C3E
 10
161.061
 20
-28.4969
 30
-0.100000
  70
    32
  0
VERTEX
  8
SAPA_PROFIL
  5
2C3F
 10
161.221
 20
-28.4615
 30
-0.100000
  70
    32
  0
VERTEX
  8
SAPA_PROFIL
  5
2C40
 10
161.384
 20
-28.4307
 30
-0.100000
  70
    32
  0
VERTEX
  8
SAPA_PROFIL
  5
2C41
 10
161.550
 20
-28.4046
 30
-0.100000
  70
    32
  0
VERTEX
  8
SAPA_PROFIL
  5
2C42
 10
161.717
 20
-28.3831
 30
-0.100000
  70
    32
  0
VERTEX
  8
SAPA_PROFIL
  5
2C43
 10
161.886
 20
-28.3663
 30
-0.100000
  70
    32
  0
VERTEX
  8
SAPA_PROFIL
  5
2C44
 10
162.057
 20
-28.3543
 30
-0.100000
  70
    32
  0
VERTEX
  8
SAPA_PROFIL
  5
2C45
 10
162.228
 20
-28.3470
 30
-0.100000
  70
    32
  0
VERTEX
  8
SAPA_PROFIL
  5
2C46
 10
162.400
 20
-28.3446
 30
-0.100000
  70
    32
  0
VERTEX
  8
SAPA_PROFIL
  5
2C47
 10
162.572
 20
-28.3470
 30
-0.100000
  70
    32
  0
VERTEX
  8
SAPA_PROFIL
  5
2C48
 10
162.743
 20
-28.3543
 30
-0.100000
  70
    32
  0
VERTEX
  8
SAPA_PROFIL
  5
2C49
 10
162.914
 20
-28.3663
 30
-0.100000
  70
    32
  0
VERTEX
  8
SAPA_PROFIL
  5
2C4A
 10
163.083
 20
-28.3831
 30
-0.100000
  70
    32
  0
VERTEX
  8
SAPA_PROFIL
  5
2C4B
 10
163.250
 20
-28.4046
 30
-0.100000
  70
    32
  0
VERTEX
  8
SAPA_PROFIL
  5
2C4C
 10
163.416
 20
-28.4307
 30
-0.100000
  70
    32
  0
VERTEX
  8
SAPA_PROFIL
  5
2C4D
 10
163.579
 20
-28.4615
 30
-0.100000
  70
    32
  0
VERTEX
  8
SAPA_PROFIL
  5
2C4E
 10
163.739
 20
-28.4969
 30
-0.100000
  70
    32
  0
VERTEX
  8
SAPA_PROFIL
  5
2C4F
 10
163.896
 20
-28.5366
 30
-0.100000
  70
    32
  0
VERTEX
  8
SAPA_PROFIL
  5
2C50
 10
164.050
 20
-28.5808
 30
-0.100000
  70
    32
  0
VERTEX
  8
SAPA_PROFIL
  5
2C51
 10
164.199
 20
-28.6292
 30
-0.100000
  70
    32
  0
VERTEX
  8
SAPA_PROFIL
  5
2C52
 10
164.344
 20
-28.6817
 30
-0.100000
  70
    32
  0
VERTEX
  8
SAPA_PROFIL
  5
2C53
 10
164.485
 20
-28.7382
 30
-0.100000
  70
    32
  0
VERTEX
  8
SAPA_PROFIL
  5
2C54
 10
164.620
 20
-28.7986
 30
-0.100000
  70
    32
  0
VERTEX
  8
SAPA_PROFIL
  5
2C55
 10
164.750
 20
-28.8627
 30
-0.100000
  70
    32
  0
VERTEX
  8
SAPA_PROFIL
  5
2C56
 10
164.875
 20
-28.9304
 30
-0.100000
  70
    32
  0
VERTEX
  8
SAPA_PROFIL
  5
2C57
 10
164.993
 20
-29.0015
 30
-0.100000
  70
    32
  0
VERTEX
  8
SAPA_PROFIL
  5
2C58
 10
165.106
 20
-29.0758
 30
-0.100000
  70
    32
  0
VERTEX
  8
SAPA_PROFIL
  5
2C59
 10
165.211
 20
-29.1532
 30
-0.100000
  70
    32
  0
VERTEX
  8
SAPA_PROFIL
  5
2C5A
 10
165.310
 20
-29.2335
 30
-0.100000
  70
    32
  0
VERTEX
  8
SAPA_PROFIL
  5
2C5B
 10
165.402
 20
-29.3164
 30
-0.100000
  70
    32
  0
VERTEX
  8
SAPA_PROFIL
  5
2C5C
 10
165.487
 20
-29.4018
 30
-0.100000
  70
    32
  0
VERTEX
  8
SAPA_PROFIL
  5
2C5D
 10
165.564
 20
-29.4895
 30
-0.100000
  70
    32
  0
VERTEX
  8
SAPA_PROFIL
  5
2C5E
 10
165.634
 20
-29.5793
 30
-0.100000
  70
    32
  0
VERTEX
  8
SAPA_PROFIL
  5
2C5F
 10
165.695
 20
-29.6708
 30
-0.100000
  70
    32
  0
VERTEX
  8
SAPA_PROFIL
  5
2C60
 10
165.749
 20
-29.7641
 30
-0.100000
  70
    32
  0
VERTEX
  8
SAPA_PROFIL
  5
2C61
 10
165.795
 20
-29.8587
 30
-0.100000
  70
    32
  0
VERTEX
  8
SAPA_PROFIL
  5
2C62
 10
165.833
 20
-29.9544
 30
-0.100000
  70
    32
  0
VERTEX
  8
SAPA_PROFIL
  5
2C63
 10
165.862
 20
-30.0512
 30
-0.100000
  70
    32
  0
VERTEX
  8
SAPA_PROFIL
  5
2C64
 10
165.883
 20
-30.1486
 30
-0.100000
  70
    32
  0
VERTEX
  8
SAPA_PROFIL
  5
2C65
 10
165.896
 20
-30.2465
 30
-0.100000
  70
    32
  0
VERTEX
  8
SAPA_PROFIL
  5
2C66
 10
165.900
 20
-30.3446
 30
-0.100000
  70
    32
  0
SEQEND
  8
SAPA_PROFIL
  5
2C67
  0
POLYLINE
  5
1A3C
  8
SAPA_PROFIL
 62
     2
 66
     1
 10
0.0
 20
0.0
 30
-0.1
 70
     1
  0
VERTEX
  5
230B
  8
SAPA_PROFIL
 62
     2
 10
157.5811954202708
 20
-24.694621404330348
 30
-0.1
  0
VERTEX
  5
230C
  8
SAPA_PROFIL
 62
     2
 10
167.89997618389671
 20
-24.694621404330348
 30
-0.1
 42
-0.4142135623730951
  0
VERTEX
  5
230D
  8
SAPA_PROFIL
 62
     2
 10
168.19997618389669
 20
-24.994621404330349
 30
-0.1
  0
VERTEX
  5
230E
  8
SAPA_PROFIL
 62
     2
 10
168.19997618389669
 20
-26.694621404330348
 30
-0.1
  0
VERTEX
  5
230F
  8
SAPA_PROFIL
 62
     2
 10
170.01367627581709
 20
-26.694621404330348
 30
-0.1
 42
-0.4005932428724212
  0
VERTEX
  5
2310
  8
SAPA_PROFIL
 62
     2
 10
170.31334884353711
 20
-26.9806088329711
 30
-0.1
  0
VERTEX
  5
2311
  8
SAPA_PROFIL
 62
     2
 10
170.7996487516167
 20
-36.180608832971103
 30
-0.1
 42
-0.427966335106886
  0
VERTEX
  5
2312
  8
SAPA_PROFIL
 62
     2
 10
170.49997618389671
 20
-36.49462140433036
 30
-0.1
  0
VERTEX
  5
2313
  8
SAPA_PROFIL
 62
     2
 10
156.81951153459801
 20
-36.49462140433036
 30
-0.1
 42
-0.0195279011117891
  0
VERTEX
  5
2314
  8
SAPA_PROFIL
 62
     2
 10
156.78050038448481
 20
-36.493097211332902
 30
-0.1
  0
VERTEX
  5
2315
  8
SAPA_PROFIL
 62
     2
 10
148.77195388367019
 20
-35.666776180834368
 30
-0.1
 42
-0.3915187749346392
  0
VERTEX
  5
2316
  8
SAPA_PROFIL
 62
     2
 10
147.8499761838967
 20
-34.669824566829277
 30
-0.1
  0
VERTEX
  5
2317
  8
SAPA_PROFIL
 62
     2
 10
147.8499761838967
 20
-32.375127949666073
 30
-0.1
 42
-0.2613472755167645
  0
VERTEX
  5
2318
  8
SAPA_PROFIL
 62
     2
 10
148.08936702937251
 20
-31.948416257093459
 30
-0.1
  0
VERTEX
  5
2319
  8
SAPA_PROFIL
 62
     2
 10
157.05997711122239
 20
-24.841198019185139
 30
-0.1
 42
-0.1379343940649207
  0
SEQEND
  5
231A
  8
SAPA_PROFIL
 62
     2
  0
POLYLINE
  5
1A3D
  8
SAPA_PROFIL
 66
     1
 10
0.0
 20
0.0
 30
-0.1
 70
     1
  0
VERTEX
  5
231B
  8
SAPA_PROFIL
 10
97.544985430812034
 20
-8.4999999990927186
 30
-0.1
  0
VERTEX
  5
231C
  8
SAPA_PROFIL
 10
101.3977718353122
 20
-8.4999999990927186
 30
-0.1
 42
-0.4142135623731784
  0
VERTEX
  5
231D
  8
SAPA_PROFIL
 10
101.69777183531239
 20
-8.7999999990927869
 30
-0.1
  0
VERTEX
  5
231E
  8
SAPA_PROFIL
 10
101.6977718353122
 20
-9.0999999990931393
 30
-0.1
  0
VERTEX
  5
231F
  8
SAPA_PROFIL
 10
100.7740114046088
 20
-10.699999999092761
 30
-0.1
 42
0.5773502691887984
  0
VERTEX
  5
2320
  8
SAPA_PROFIL
 10
100.9472164853658
 20
-10.99999999909272
 30
-0.1
  0
VERTEX
  5
2321
  8
SAPA_PROFIL
 10
102.33285713142079
 20
-10.99999999909272
 30
-0.1
 42
0.2679491924311038
  0
VERTEX
  5
2322
  8
SAPA_PROFIL
 10
103.1988825352052
 20
-10.499999999092889
 30
-0.1
  0
VERTEX
  5
2323
  8
SAPA_PROFIL
 10
104.20924550477839
 20
-8.7500000017059243
 30
-0.1
 42
-0.2679491932396976
  0
VERTEX
  5
2324
  8
SAPA_PROFIL
 10
104.6422582081796
 20
-8.5000000017058959
 30
-0.1
  0
VERTEX
  5
2325
  8
SAPA_PROFIL
 10
137.28036094161061
 20
-8.5000000017058603
 30
-0.1
  0
VERTEX
  5
2326
  8
SAPA_PROFIL
 10
137.79997618388131
 20
-8.2000000017058632
 30
-0.1
  0
VERTEX
  5
2327
  8
SAPA_PROFIL
 10
138.31959142615199
 20
-8.5000000017058603
 30
-0.1
  0
VERTEX
  5
2328
  8
SAPA_PROFIL
 10
138.65769415958329
 20
-8.5000000017058603
 30
-0.1
 42
-0.2679491916226445
  0
VERTEX
  5
2329
  8
SAPA_PROFIL
 10
139.09070686147561
 20
-8.7499999990927684
 30
-0.1
  0
VERTEX
  5
232A
  8
SAPA_PROFIL
 10
140.1010698325575
 20
-10.49999999909277
 30
-0.1
 42
0.2679491924311319
  0
VERTEX
  5
232B
  8
SAPA_PROFIL
 10
140.96709523634189
 20
-10.99999999909271
 30
-0.1
  0
VERTEX
  5
232C
  8
SAPA_PROFIL
 10
142.35273588239701
 20
-10.99999999909271
 30
-0.1
 42
0.5773502691893683
  0
VERTEX
  5
232D
  8
SAPA_PROFIL
 10
142.525940963154
 20
-10.69999999909275
 30
-0.1
  0
VERTEX
  5
232E
  8
SAPA_PROFIL
 10
141.60218053245049
 20
-9.0999999990927201
 30
-0.1
  0
VERTEX
  5
232F
  8
SAPA_PROFIL
 10
141.60218053245049
 20
-8.7999999990927797
 30
-0.1
 42
-0.4142135623732059
  0
VERTEX
  5
2330
  8
SAPA_PROFIL
 10
141.9021805324507
 20
-8.4999999990927115
 30
-0.1
  0
VERTEX
  5
2331
  8
SAPA_PROFIL
 10
145.75496693695081
 20
-8.4999999990927115
 30
-0.1
 42
0.2134217652834387
  0
VERTEX
  5
2332
  8
SAPA_PROFIL
 10
145.97857373470089
 20
-8.3999999990925893
 30
-0.1
 42
-0.7625858545243238
  0
VERTEX
  5
2333
  8
SAPA_PROFIL
 10
146.30889981571789
 20
-8.5845792012900723
 30
-0.1
  0
VERTEX
  5
2334
  8
SAPA_PROFIL
 10
146.25082617872889
 20
-8.775962201283793
 30
-0.1
  0
VERTEX
  5
2335
  8
SAPA_PROFIL
 10
145.16626173175709
 20
-10.66180589314485
 30
-0.1
  0
VERTEX
  5
2336
  8
SAPA_PROFIL
 10
144.84450400353879
 20
-10.651244526917869
 30
-0.1
 42
0.5773502691897466
  0
VERTEX
  5
2337
  8
SAPA_PROFIL
 10
144.66155026342869
 20
-10.94540082717271
 30
-0.1
  0
VERTEX
  5
2338
  8
SAPA_PROFIL
 10
144.8136841745374
 20
-11.230083110404349
 30
-0.1
 42
0.221694662643019
  0
VERTEX
  5
2339
  8
SAPA_PROFIL
 10
145.35456400601419
 20
-11.63589201555914
 30
-0.1
  0
VERTEX
  5
233A
  8
SAPA_PROFIL
 10
147.1677944766725
 20
-12.017338611686849
 30
-0.1
 42
0.476975532698164
  0
VERTEX
  5
233B
  8
SAPA_PROFIL
 10
147.5394513516184
 20
-11.71508578718039
 30
-0.1
  0
VERTEX
  5
233C
  8
SAPA_PROFIL
 10
147.53936774373469
 20
-10.211984706418381
 30
-0.1
  0
VERTEX
  5
233D
  8
SAPA_PROFIL
 10
147.4915219937362
 20
-10.19746629717128
 30
-0.1
 42
-0.4142135623730951
  0
VERTEX
  5
233E
  8
SAPA_PROFIL
 10
147.2915579492288
 20
-9.8232813416954663
 30
-0.1
  0
VERTEX
  5
233F
  8
SAPA_PROFIL
 10
147.7999761838814
 20
-8.5078676218500853
 30
-0.1
  0
VERTEX
  5
2340
  8
SAPA_PROFIL
 10
147.79997618388131
 20
-5.5097167606765431
 30
-0.1
 42
0.2562769736732418
  0
VERTEX
  5
2341
  8
SAPA_PROFIL
 10
147.7074451855658
 20
-5.3410442564651994
 30
-0.1
  0
VERTEX
  5
2342
  8
SAPA_PROFIL
 10
146.46117968640809
 20
-4.5469912502885883
 30
-0.1
 42
0.5920056181180006
  0
VERTEX
  5
2343
  8
SAPA_PROFIL
 10
145.99997618388139
 20
-4.8000000066056598
 30
-0.1
  0
VERTEX
  5
2344
  8
SAPA_PROFIL
 10
145.99997618388139
 20
-6.2000000066056371
 30
-0.1
 42
-0.4142135623731505
  0
VERTEX
  5
2345
  8
SAPA_PROFIL
 10
145.6999761838814
 20
-6.5000000066056769
 30
-0.1
  0
VERTEX
  5
2346
  8
SAPA_PROFIL
 10
143.29997618388151
 20
-6.5000000066055348
 30
-0.1
 42
-0.4142135623729841
  0
VERTEX
  5
2347
  8
SAPA_PROFIL
 10
142.9999761838815
 20
-6.2000000066056371
 30
-0.1
  0
VERTEX
  5
2348
  8
SAPA_PROFIL
 10
142.9999761838815
 20
11.199999993394419
 30
-0.1
 42
-0.4142135623730882
  0
VERTEX
  5
2349
  8
SAPA_PROFIL
 10
143.29997618388151
 20
11.499999993394431
 30
-0.1
  0
VERTEX
  5
234A
  8
SAPA_PROFIL
 10
145.6999761838816
 20
11.499999993394409
 30
-0.1
 42
-0.4142135623730118
  0
VERTEX
  5
234B
  8
SAPA_PROFIL
 10
145.99997618388139
 20
11.199999993394339
 30
-0.1
  0
VERTEX
  5
234C
  8
SAPA_PROFIL
 10
145.99997618388139
 20
9.7999999933943336
 30
-0.1
 42
0.5877032589249656
  0
VERTEX
  5
234D
  8
SAPA_PROFIL
 10
146.45793639100901
 20
9.544953776084224
 30
-0.1
  0
VERTEX
  5
234E
  8
SAPA_PROFIL
 10
147.9052829886333
 20
10.44135275332642
 30
-0.1
 42
0.2596812337301635
  0
VERTEX
  5
234F
  8
SAPA_PROFIL
 10
147.9999761838815
 20
10.61138356486652
 30
-0.1
  0
VERTEX
  5
2350
  8
SAPA_PROFIL
 10
147.9999761838815
 20
13.299999998225941
 30
-0.1
 42
0.4142135623732095
  0
VERTEX
  5
2351
  8
SAPA_PROFIL
 10
147.79997618388151
 20
13.499999998225929
 30
-0.1
  0
VERTEX
  5
2352
  8
SAPA_PROFIL
 10
104.9999746897313
 20
13.499999998225929
 30
-0.1
 42
0.4142135623730067
  0
VERTEX
  5
2353
  8
SAPA_PROFIL
 10
102.9999761838813
 20
11.50000149237643
 30
-0.1
  0
VERTEX
  5
2354
  8
SAPA_PROFIL
 10
102.9999761838813
 20
5.7999992511510108
 30
-0.1
 42
-0.4142135623729993
  0
VERTEX
  5
2355
  8
SAPA_PROFIL
 10
101.99997693095629
 20
4.7999999982259194
 30
-0.1
  0
VERTEX
  5
2356
  8
SAPA_PROFIL
 10
94.498957183881245
 20
4.7999999982260171
 30
-0.1
 42
0.4142135623730951
  0
VERTEX
  5
2357
  8
SAPA_PROFIL
 10
93.49895718388133
 20
3.799999998226002
 30
-0.1
  0
VERTEX
  5
2358
  8
SAPA_PROFIL
 10
93.49895718388133
 20
3.3022248488110248
 30
-0.1
 42
0.4142135623729598
  0
VERTEX
  5
2359
  8
SAPA_PROFIL
 10
93.698957034466346
 20
3.1022249982259238
 30
-0.1
  0
VERTEX
  5
235A
  8
SAPA_PROFIL
 10
95.296807747059987
 20
3.1022249982260091
 30
-0.1
 42
-0.414645992438811
  0
VERTEX
  5
235B
  8
SAPA_PROFIL
 10
95.496807529148469
 20
2.901929761765476
 30
-0.1
  0
VERTEX
  5
235C
  8
SAPA_PROFIL
 10
95.498364036090337
 20
-8.5036965650748577
 30
-0.1
  0
VERTEX
  5
235D
  8
SAPA_PROFIL
 10
96.008394418533655
 20
-9.8232813416954592
 30
-0.1
 42
-0.4142135623730951
  0
VERTEX
  5
235E
  8
SAPA_PROFIL
 10
95.808430374026244
 20
-10.197466297171269
 30
-0.1
  0
VERTEX
  5
235F
  8
SAPA_PROFIL
 10
95.760584624027743
 20
-10.21198470641837
 30
-0.1
  0
VERTEX
  5
2360
  8
SAPA_PROFIL
 10
95.760501016144104
 20
-11.71508578718038
 30
-0.1
 42
0.4769755326981641
  0
VERTEX
  5
2361
  8
SAPA_PROFIL
 10
96.132157891089975
 20
-12.017338611686849
 30
-0.1
  0
VERTEX
  5
2362
  8
SAPA_PROFIL
 10
97.945388361748215
 20
-11.635892015559129
 30
-0.1
 42
0.2216946626430191
  0
VERTEX
  5
2363
  8
SAPA_PROFIL
 10
98.486268193225015
 20
-11.23008311040433
 30
-0.1
  0
VERTEX
  5
2364
  8
SAPA_PROFIL
 10
98.638402104333807
 20
-10.94540082717268
 30
-0.1
 42
0.5773502691897466
  0
VERTEX
  5
2365
  8
SAPA_PROFIL
 10
98.455448364223614
 20
-10.651244526917869
 30
-0.1
  0
VERTEX
  5
2366
  8
SAPA_PROFIL
 10
98.133690636005355
 20
-10.661805893144839
 30
-0.1
  0
VERTEX
  5
2367
  8
SAPA_PROFIL
 10
97.049126189033615
 20
-8.7759622012837841
 30
-0.1
  0
VERTEX
  5
2368
  8
SAPA_PROFIL
 10
96.991052552044536
 20
-8.5845792012900652
 30
-0.1
 42
-0.7625858545243257
  0
VERTEX
  5
2369
  8
SAPA_PROFIL
 10
97.321378633061528
 20
-8.3999999990925822
 30
-0.1
 42
0.2134217652834391
  0
SEQEND
  5
236A
  8
SAPA_PROFIL
  0
POLYLINE
  5
1A3E
  8
SAPA_PROFIL
 66
     1
 10
0.0
 20
0.0
 30
-0.1
 70
     1
  0
VERTEX
  5
236B
  8
SAPA_PROFIL
 10
104.9999761838813
 20
11.500000001444119
 30
-0.1
  0
VERTEX
  5
236C
  8
SAPA_PROFIL
 10
106.9999761838813
 20
11.500000001444119
 30
-0.1
  0
VERTEX
  5
236D
  8
SAPA_PROFIL
 10
106.9999761838812
 20
11.40000000144421
 30
-0.1
 42
0.4142135623732199
  0
VERTEX
  5
236E
  8
SAPA_PROFIL
 10
107.1999761838812
 20
11.200000001444129
 30
-0.1
  0
VERTEX
  5
236F
  8
SAPA_PROFIL
 10
108.7999761838812
 20
11.200000001444019
 30
-0.1
 42
0.4142135623727933
  0
VERTEX
  5
2370
  8
SAPA_PROFIL
 10
108.9999761838813
 20
11.400000001443919
 30
-0.1
  0
VERTEX
  5
2371
  8
SAPA_PROFIL
 10
108.9999761838813
 20
11.500000001444119
 30
-0.1
  0
VERTEX
  5
2372
  8
SAPA_PROFIL
 10
137.29997618388131
 20
11.500000001444119
 30
-0.1
  0
VERTEX
  5
2373
  8
SAPA_PROFIL
 10
137.29997618388151
 20
11.400000001444131
 30
-0.1
 42
0.4142135623730847
  0
VERTEX
  5
2374
  8
SAPA_PROFIL
 10
137.4999761838815
 20
11.200000001444129
 30
-0.1
  0
VERTEX
  5
2375
  8
SAPA_PROFIL
 10
139.09997618388149
 20
11.20000000144425
 30
-0.1
 42
0.4142135623730847
  0
VERTEX
  5
2376
  8
SAPA_PROFIL
 10
139.2999761838814
 20
11.400000001444131
 30
-0.1
  0
VERTEX
  5
2377
  8
SAPA_PROFIL
 10
139.2999761838814
 20
11.500000001444119
 30
-0.1
  0
VERTEX
  5
2378
  8
SAPA_PROFIL
 10
140.9999761838815
 20
11.500000001444119
 30
-0.1
 42
-0.4142135623730675
  0
VERTEX
  5
2379
  8
SAPA_PROFIL
 10
141.29997618388131
 20
11.200000001444129
 30
-0.1
  0
VERTEX
  5
237A
  8
SAPA_PROFIL
 10
141.29997618388131
 20
-6.3999999985558587
 30
-0.1
 42
-0.4142135623730673
  0
VERTEX
  5
237B
  8
SAPA_PROFIL
 10
140.9999761838815
 20
-6.6999999985558141
 30
-0.1
  0
VERTEX
  5
237C
  8
SAPA_PROFIL
 10
139.2999761838812
 20
-6.6999999985558141
 30
-0.1
  0
VERTEX
  5
237D
  8
SAPA_PROFIL
 10
139.29997618388151
 20
-6.3999999985558018
 30
-0.1
 42
0.4142135623731367
  0
VERTEX
  5
237E
  8
SAPA_PROFIL
 10
139.0999761838813
 20
-6.1999999985558141
 30
-0.1
  0
VERTEX
  5
237F
  8
SAPA_PROFIL
 10
137.4999761838815
 20
-6.1999999985557572
 30
-0.1
 42
0.4142135623732407
  0
VERTEX
  5
2380
  8
SAPA_PROFIL
 10
137.2999761838814
 20
-6.3999999985559732
 30
-0.1
  0
VERTEX
  5
2381
  8
SAPA_PROFIL
 10
137.29997618388151
 20
-6.69999999855587
 30
-0.1
  0
VERTEX
  5
2382
  8
SAPA_PROFIL
 10
108.9999761838811
 20
-6.6999999985558736
 30
-0.1
  0
VERTEX
  5
2383
  8
SAPA_PROFIL
 10
108.9999761838813
 20
-6.3999999985558063
 30
-0.1
 42
0.4142135623732199
  0
VERTEX
  5
2384
  8
SAPA_PROFIL
 10
108.7999761838812
 20
-6.1999999985558167
 30
-0.1
  0
VERTEX
  5
2385
  8
SAPA_PROFIL
 10
107.1999761838812
 20
-6.1999999985559056
 30
-0.1
 42
0.4142135623733448
  0
VERTEX
  5
2386
  8
SAPA_PROFIL
 10
106.9999761838813
 20
-6.3999999985559803
 30
-0.1
  0
VERTEX
  5
2387
  8
SAPA_PROFIL
 10
106.9999761838813
 20
-6.6999999985558212
 30
-0.1
  0
VERTEX
  5
2388
  8
SAPA_PROFIL
 10
97.499976183881543
 20
-6.6999999985558212
 30
-0.1
 42
-0.4142135623732061
  0
VERTEX
  5
2389
  8
SAPA_PROFIL
 10
97.199976183881446
 20
-6.3999999985558089
 30
-0.1
  0
VERTEX
  5
238A
  8
SAPA_PROFIL
 10
97.199976183881446
 20
2.7999999982260171
 30
-0.1
 42
-0.4142135623732059
  0
VERTEX
  5
238B
  8
SAPA_PROFIL
 10
97.499976183881543
 20
3.099999998226
 30
-0.1
  0
VERTEX
  5
238C
  8
SAPA_PROFIL
 10
101.99997693095619
 20
3.0999999982260009
 30
-0.1
 42
0.414213562373052
  0
VERTEX
  5
238D
  8
SAPA_PROFIL
 10
104.6999761838812
 20
5.799999251150842
 30
-0.1
  0
VERTEX
  5
238E
  8
SAPA_PROFIL
 10
104.6999761838812
 20
11.200000001444129
 30
-0.1
 42
-0.4142135623732891
  0
SEQEND
  5
238F
  8
SAPA_PROFIL
  0
POLYLINE
  5
1A3F
  8
SAPA_PROFIL
 66
     1
 10
0.0
 20
0.0
 30
0.0
 70
     1
  0
VERTEX
  5
2390
  8
SAPA_PROFIL
 10
103.200358715205
 20
-48.499999999010292
 30
0.0
 42
0.2679491924311119
  0
VERTEX
  5
2391
  8
SAPA_PROFIL
 10
102.33433331142071
 20
-47.999999999010392
 30
0.0
  0
VERTEX
  5
2392
  8
SAPA_PROFIL
 10
100.9486926653656
 20
-47.999999999010512
 30
0.0
 42
0.5773502691897603
  0
VERTEX
  5
2393
  8
SAPA_PROFIL
 10
100.7754875846088
 20
-48.299999999010467
 30
0.0
  0
VERTEX
  5
2394
  8
SAPA_PROFIL
 10
101.69924801531209
 20
-49.899999999010149
 30
0.0
  0
VERTEX
  5
2395
  8
SAPA_PROFIL
 10
101.69924801531209
 20
-50.19999999901033
 30
0.0
 42
-0.4142135623728995
  0
VERTEX
  5
2396
  8
SAPA_PROFIL
 10
101.3992480153122
 20
-50.499999999010392
 30
0.0
  0
VERTEX
  5
2397
  8
SAPA_PROFIL
 10
97.546461610812145
 20
-50.499999999010342
 30
0.0
 42
0.2134217652834313
  0
VERTEX
  5
2398
  8
SAPA_PROFIL
 10
97.322854813062065
 20
-50.599999999010457
 30
0.0
 42
-0.7625858545243313
  0
VERTEX
  5
2399
  8
SAPA_PROFIL
 10
96.992528732045031
 20
-50.415420796812988
 30
0.0
  0
VERTEX
  5
239A
  8
SAPA_PROFIL
 10
97.050602369034124
 20
-50.224037796819267
 30
0.0
  0
VERTEX
  5
239B
  8
SAPA_PROFIL
 10
98.135166816005864
 20
-48.33819410495822
 30
0.0
  0
VERTEX
  5
239C
  8
SAPA_PROFIL
 10
98.456924544224137
 20
-48.348755471185207
 30
0.0
 42
0.5773502691897454
  0
VERTEX
  5
239D
  8
SAPA_PROFIL
 10
98.639878284334301
 20
-48.054599170930359
 30
0.0
  0
VERTEX
  5
239E
  8
SAPA_PROFIL
 10
98.487744373225553
 20
-47.769916887698713
 30
0.0
 42
0.2216946626430149
  0
VERTEX
  5
239F
  8
SAPA_PROFIL
 10
97.946864541748738
 20
-47.364107982543921
 30
0.0
  0
VERTEX
  5
23A0
  8
SAPA_PROFIL
 10
96.133634071090512
 20
-46.982661386416211
 30
0.0
 42
0.476975532698164
  0
VERTEX
  5
23A1
  8
SAPA_PROFIL
 10
95.761977196144599
 20
-47.284914210922672
 30
0.0
  0
VERTEX
  5
23A2
  8
SAPA_PROFIL
 10
95.762060804028266
 20
-48.788015291684687
 30
0.0
  0
VERTEX
  5
23A3
  8
SAPA_PROFIL
 10
95.809906554026753
 20
-48.802533700931782
 30
0.0
 42
-0.4142135623730875
  0
VERTEX
  5
23A4
  8
SAPA_PROFIL
 10
96.009870598534164
 20
-49.176718656407601
 30
0.0
  0
VERTEX
  5
23A5
  8
SAPA_PROFIL
 10
95.499976179970403
 20
-50.495951658169631
 30
0.0
  0
VERTEX
  5
23A6
  8
SAPA_PROFIL
 10
95.499976179970403
 20
-70.231478395666471
 30
0.0
 42
-0.3821712090170728
  0
VERTEX
  5
23A7
  8
SAPA_PROFIL
 10
95.23309596406466
 20
-70.529644590768385
 30
0.0
  0
VERTEX
  5
23A8
  8
SAPA_PROFIL
 10
88.655125179970454
 20
-71.055484125733386
 30
0.0
 42
-0.4469990000000183
  0
VERTEX
  5
23A9
  8
SAPA_PROFIL
 10
88.099925179970455
 20
-70.558540125733387
 30
0.0
  0
VERTEX
  5
23AA
  8
SAPA_PROFIL
 10
88.099925179970427
 20
-68.799999999010382
 30
0.0
 42
0.414213999999998
  0
VERTEX
  5
23AB
  8
SAPA_PROFIL
 10
87.099925179970455
 20
-67.799999999010353
 30
0.0
  0
VERTEX
  5
23AC
  8
SAPA_PROFIL
 10
86.83238117997044
 20
-67.799999999010396
 30
0.0
 42
0.2896899999999924
  0
VERTEX
  5
23AD
  8
SAPA_PROFIL
 10
85.928873179970395
 20
-68.371427999010393
 30
0.0
 42
0.5507599999999715
  0
VERTEX
  5
23AE
  8
SAPA_PROFIL
 10
86.199925179970421
 20
-68.799999999010382
 30
0.0
  0
VERTEX
  5
23AF
  8
SAPA_PROFIL
 10
86.499925179970404
 20
-68.799999999010367
 30
0.0
 42
-0.4142140000001125
  0
VERTEX
  5
23B0
  8
SAPA_PROFIL
 10
86.699925179970435
 20
-68.999999999010384
 30
0.0
  0
VERTEX
  5
23B1
  8
SAPA_PROFIL
 10
86.699925179970435
 20
-70.099999999010393
 30
0.0
 42
-0.4142139999999939
  0
VERTEX
  5
23B2
  8
SAPA_PROFIL
 10
85.699925179970407
 20
-71.099999999010407
 30
0.0
  0
VERTEX
  5
23B3
  8
SAPA_PROFIL
 10
83.399976179970452
 20
-71.099999999010407
 30
0.0
 42
-0.4142139999999918
  0
VERTEX
  5
23B4
  8
SAPA_PROFIL
 10
82.399976179970466
 20
-70.099999999010393
 30
0.0
  0
VERTEX
  5
23B5
  8
SAPA_PROFIL
 10
82.399976179970423
 20
-68.999999999010384
 30
0.0
 42
-0.4142139999999378
  0
VERTEX
  5
23B6
  8
SAPA_PROFIL
 10
82.59997617997044
 20
-68.799999999010382
 30
0.0
  0
VERTEX
  5
23B7
  8
SAPA_PROFIL
 10
82.899925179970396
 20
-68.799999999010353
 30
0.0
 42
0.5507599999999796
  0
VERTEX
  5
23B8
  8
SAPA_PROFIL
 10
83.170978179970419
 20
-68.371427999010407
 30
0.0
 42
0.2896900000000027
  0
VERTEX
  5
23B9
  8
SAPA_PROFIL
 10
82.267470179970417
 20
-67.799999999010353
 30
0.0
  0
VERTEX
  5
23BA
  8
SAPA_PROFIL
 10
81.999976179970403
 20
-67.799999999010396
 30
0.0
 42
0.4142140000000064
  0
VERTEX
  5
23BB
  8
SAPA_PROFIL
 10
80.999976179970417
 20
-68.799999999010382
 30
0.0
  0
VERTEX
  5
23BC
  8
SAPA_PROFIL
 10
80.999976179970474
 20
-70.499999999010384
 30
0.0
 42
0.4142139999999918
  0
VERTEX
  5
23BD
  8
SAPA_PROFIL
 10
82.999976179970403
 20
-72.499999999010384
 30
0.0
  0
VERTEX
  5
23BE
  8
SAPA_PROFIL
 10
169.49997617997039
 20
-72.499999999010313
 30
0.0
 42
0.414213999999996
  0
VERTEX
  5
23BF
  8
SAPA_PROFIL
 10
169.99997617997039
 20
-71.999999999010356
 30
0.0
  0
VERTEX
  5
23C0
  8
SAPA_PROFIL
 10
169.9999761799703
 20
-68.299999999010367
 30
0.0
 42
0.4142139999999107
  0
VERTEX
  5
23C1
  8
SAPA_PROFIL
 10
169.69997617997041
 20
-67.999999999010384
 30
0.0
  0
VERTEX
  5
23C2
  8
SAPA_PROFIL
 10
168.93243117997039
 20
-67.999999999010384
 30
0.0
 42
0.2896899999999864
  0
VERTEX
  5
23C3
  8
SAPA_PROFIL
 10
168.02892317997041
 20
-68.571427999010353
 30
0.0
 42
0.5507600000000558
  0
VERTEX
  5
23C4
  8
SAPA_PROFIL
 10
168.2999761799704
 20
-68.999999999010384
 30
0.0
  0
VERTEX
  5
23C5
  8
SAPA_PROFIL
 10
168.49997617997039
 20
-68.999999999010384
 30
0.0
 42
-0.414214000000073
  0
VERTEX
  5
23C6
  8
SAPA_PROFIL
 10
168.7999761799704
 20
-69.299999999010367
 30
0.0
  0
VERTEX
  5
23C7
  8
SAPA_PROFIL
 10
168.7999761799704
 20
-70.799999999010367
 30
0.0
 42
-0.414213999999996
  0
VERTEX
  5
23C8
  8
SAPA_PROFIL
 10
168.2999761799704
 20
-71.299999999010367
 30
0.0
  0
VERTEX
  5
23C9
  8
SAPA_PROFIL
 10
164.9999761799703
 20
-71.299999999010367
 30
0.0
 42
-0.4142140000000002
  0
VERTEX
  5
23CA
  8
SAPA_PROFIL
 10
164.4999761799703
 20
-70.799999999010367
 30
0.0
  0
VERTEX
  5
23CB
  8
SAPA_PROFIL
 10
164.4999761799703
 20
-69.299999999010367
 30
0.0
 42
-0.4142140000000209
  0
VERTEX
  5
23CC
  8
SAPA_PROFIL
 10
164.7999761799704
 20
-68.999999999010384
 30
0.0
  0
VERTEX
  5
23CD
  8
SAPA_PROFIL
 10
164.9999761799703
 20
-68.999999999010441
 30
0.0
 42
0.5507600000000054
  0
VERTEX
  5
23CE
  8
SAPA_PROFIL
 10
165.27102817997039
 20
-68.571427999010353
 30
0.0
 42
0.2896899999999876
  0
VERTEX
  5
23CF
  8
SAPA_PROFIL
 10
164.3675201799704
 20
-67.999999999010384
 30
0.0
  0
VERTEX
  5
23D0
  8
SAPA_PROFIL
 10
163.37004917997041
 20
-67.999999999010384
 30
0.0
 42
0.0436609999999812
  0
VERTEX
  5
23D1
  8
SAPA_PROFIL
 10
163.2832241799704
 20
-68.007595999010391
 30
0.0
  0
VERTEX
  5
23D2
  8
SAPA_PROFIL
 10
161.71315217997039
 20
-68.284441999010383
 30
0.0
 42
0.839099999999979
  0
VERTEX
  5
23D3
  8
SAPA_PROFIL
 10
161.71315217997039
 20
-69.269249999010384
 30
0.0
  0
VERTEX
  5
23D4
  8
SAPA_PROFIL
 10
162.88680017997041
 20
-69.476194999010374
 30
0.0
 42
-0.363970000000042
  0
VERTEX
  5
23D5
  8
SAPA_PROFIL
 10
163.2999761799704
 20
-69.968598999010396
 30
0.0
  0
VERTEX
  5
23D6
  8
SAPA_PROFIL
 10
163.2999761799704
 20
-70.779999999010343
 30
0.0
 42
-0.4373279999999794
  0
VERTEX
  5
23D7
  8
SAPA_PROFIL
 10
162.7608811799704
 20
-71.278468999010386
 30
0.0
  0
VERTEX
  5
23D8
  8
SAPA_PROFIL
 10
148.287822906554
 20
-70.711670512614504
 30
0.0
 42
-0.4023941355298093
  0
VERTEX
  5
23D9
  8
SAPA_PROFIL
 10
147.9999761799703
 20
-70.4119167837882
 30
0.0
  0
VERTEX
  5
23DA
  8
SAPA_PROFIL
 10
147.9999761799703
 20
-69.611382999010374
 30
0.0
 42
0.2596810000001062
  0
VERTEX
  5
23DB
  8
SAPA_PROFIL
 10
147.9052831799703
 20
-69.441351999010379
 30
0.0
  0
VERTEX
  5
23DC
  8
SAPA_PROFIL
 10
146.45793617997049
 20
-68.544952999010292
 30
0.0
 42
0.5877030000000574
  0
VERTEX
  5
23DD
  8
SAPA_PROFIL
 10
145.9999761799703
 20
-68.799999999010424
 30
0.0
  0
VERTEX
  5
23DE
  8
SAPA_PROFIL
 10
145.9999761799703
 20
-70.199999999010373
 30
0.0
 42
-0.4142139999999773
  0
VERTEX
  5
23DF
  8
SAPA_PROFIL
 10
145.69997617997041
 20
-70.499999999010384
 30
0.0
  0
VERTEX
  5
23E0
  8
SAPA_PROFIL
 10
143.2999761799704
 20
-70.499999999010384
 30
0.0
 42
-0.4142140000000855
  0
VERTEX
  5
23E1
  8
SAPA_PROFIL
 10
142.9999761799703
 20
-70.199999999010373
 30
0.0
  0
VERTEX
  5
23E2
  8
SAPA_PROFIL
 10
142.9999761799703
 20
-52.799999999010403
 30
0.0
 42
-0.4142140000001167
  0
VERTEX
  5
23E3
  8
SAPA_PROFIL
 10
143.2999761799704
 20
-52.499999999010392
 30
0.0
  0
VERTEX
  5
23E4
  8
SAPA_PROFIL
 10
145.69997617997041
 20
-52.499999999010392
 30
0.0
 42
-0.4142140000000127
  0
VERTEX
  5
23E5
  8
SAPA_PROFIL
 10
145.9999761799703
 20
-52.799999999010403
 30
0.0
  0
VERTEX
  5
23E6
  8
SAPA_PROFIL
 10
145.9999761799703
 20
-54.199999999010387
 30
0.0
 42
0.5920054160710117
  0
VERTEX
  5
23E7
  8
SAPA_PROFIL
 10
146.4611795180852
 20
-54.453008511768161
 30
0.0
  0
VERTEX
  5
23E8
  8
SAPA_PROFIL
 10
147.70744517429819
 20
-53.658955481946499
 30
0.0
 42
0.2562769852931595
  0
VERTEX
  5
23E9
  8
SAPA_PROFIL
 10
147.79997617997029
 20
-53.490282973047869
 30
0.0
  0
VERTEX
  5
23EA
  8
SAPA_PROFIL
 10
147.79997617997029
 20
-50.495951658169353
 30
0.0
  0
VERTEX
  5
23EB
  8
SAPA_PROFIL
 10
147.2900817614067
 20
-49.176718656407658
 30
0.0
 42
-0.4142135623730875
  0
VERTEX
  5
23EC
  8
SAPA_PROFIL
 10
147.49004580591409
 20
-48.802533700931853
 30
0.0
  0
VERTEX
  5
23ED
  8
SAPA_PROFIL
 10
147.53789155591261
 20
-48.788015291684736
 30
0.0
  0
VERTEX
  5
23EE
  8
SAPA_PROFIL
 10
147.5379751637962
 20
-47.284914210922729
 30
0.0
 42
0.4769755326981641
  0
VERTEX
  5
23EF
  8
SAPA_PROFIL
 10
147.16631828885039
 20
-46.982661386416268
 30
0.0
  0
VERTEX
  5
23F0
  8
SAPA_PROFIL
 10
145.35308781819211
 20
-47.364107982543963
 30
0.0
 42
0.2216946626430149
  0
VERTEX
  5
23F1
  8
SAPA_PROFIL
 10
144.81220798671529
 20
-47.769916887698777
 30
0.0
  0
VERTEX
  5
23F2
  8
SAPA_PROFIL
 10
144.66007407560659
 20
-48.054599170930423
 30
0.0
 42
0.5773502691897454
  0
VERTEX
  5
23F3
  8
SAPA_PROFIL
 10
144.84302781571671
 20
-48.348755471185243
 30
0.0
  0
VERTEX
  5
23F4
  8
SAPA_PROFIL
 10
145.16478554393501
 20
-48.338194104958269
 30
0.0
  0
VERTEX
  5
23F5
  8
SAPA_PROFIL
 10
146.24934999090669
 20
-50.224037796819303
 30
0.0
  0
VERTEX
  5
23F6
  8
SAPA_PROFIL
 10
146.30742362789579
 20
-50.415420796813031
 30
0.0
 42
-0.7625858545243333
  0
VERTEX
  5
23F7
  8
SAPA_PROFIL
 10
145.97709754687881
 20
-50.599999999010507
 30
0.0
 42
0.2134217652834462
  0
VERTEX
  5
23F8
  8
SAPA_PROFIL
 10
145.7534907491287
 20
-50.499999999010392
 30
0.0
  0
VERTEX
  5
23F9
  8
SAPA_PROFIL
 10
141.90070434462859
 20
-50.499999999010392
 30
0.0
 42
-0.4142135623729119
  0
VERTEX
  5
23FA
  8
SAPA_PROFIL
 10
141.6007043446287
 20
-50.19999999901033
 30
0.0
  0
VERTEX
  5
23FB
  8
SAPA_PROFIL
 10
141.6007043446287
 20
-49.899999999010149
 30
0.0
  0
VERTEX
  5
23FC
  8
SAPA_PROFIL
 10
142.52446477533209
 20
-48.299999999010517
 30
0.0
 42
0.5773502691897497
  0
VERTEX
  5
23FD
  8
SAPA_PROFIL
 10
142.35125969457519
 20
-47.999999999010392
 30
0.0
  0
VERTEX
  5
23FE
  8
SAPA_PROFIL
 10
140.9656190485201
 20
-47.999999999010221
 30
0.0
 42
0.2679491924311136
  0
VERTEX
  5
23FF
  8
SAPA_PROFIL
 10
140.09959364473559
 20
-48.499999999010221
 30
0.0
  0
VERTEX
  5
2400
  8
SAPA_PROFIL
 10
139.0892306736535
 20
-50.249999999010427
 30
0.0
 42
-0.2679491924310958
  0
VERTEX
  5
2401
  8
SAPA_PROFIL
 10
138.65621797176129
 20
-50.499999999010392
 30
0.0
  0
VERTEX
  5
2402
  8
SAPA_PROFIL
 10
138.31959142224099
 20
-50.499999999010392
 30
0.0
  0
VERTEX
  5
2403
  8
SAPA_PROFIL
 10
137.79997617997029
 20
-50.799999999010382
 30
0.0
  0
VERTEX
  5
2404
  8
SAPA_PROFIL
 10
137.28036093769961
 20
-50.499999999010392
 30
0.0
  0
VERTEX
  5
2405
  8
SAPA_PROFIL
 10
104.6437343881795
 20
-50.499999999010392
 30
0.0
 42
-0.2679491924311033
  0
VERTEX
  5
2406
  8
SAPA_PROFIL
 10
104.2107216862873
 20
-50.249999999010427
 30
0.0
  0
SEQEND
  5
2407
  8
SAPA_PROFIL
  0
POLYLINE
  5
1A40
  8
SAPA_PROFIL
 66
     1
 10
0.0
 20
0.0
 30
0.0
 70
     1
  0
VERTEX
  5
2408
  8
SAPA_PROFIL
 10
139.09997617997041
 20
-52.799999999010403
 30
0.0
  0
VERTEX
  5
2409
  8
SAPA_PROFIL
 10
137.49997617997039
 20
-52.799999999010403
 30
0.0
 42
-0.4142135623730951
  0
VERTEX
  5
240A
  8
SAPA_PROFIL
 10
137.2999761799704
 20
-52.599999999010379
 30
0.0
  0
VERTEX
  5
240B
  8
SAPA_PROFIL
 10
137.2999761799704
 20
-52.299999915137057
 30
0.0
  0
VERTEX
  5
240C
  8
SAPA_PROFIL
 10
101.19997617997041
 20
-52.299999915137057
 30
0.0
  0
VERTEX
  5
240D
  8
SAPA_PROFIL
 10
101.19997617997041
 20
-52.599999999010379
 30
0.0
 42
-0.4142135623730951
  0
VERTEX
  5
240E
  8
SAPA_PROFIL
 10
100.9999761799704
 20
-52.799999999010403
 30
0.0
  0
VERTEX
  5
240F
  8
SAPA_PROFIL
 10
99.399976179970395
 20
-52.799999999010403
 30
0.0
 42
-0.4142135623730951
  0
VERTEX
  5
2410
  8
SAPA_PROFIL
 10
99.199976179970406
 20
-52.599999999010379
 30
0.0
  0
VERTEX
  5
2411
  8
SAPA_PROFIL
 10
99.199976179970406
 20
-52.299999915137057
 30
0.0
  0
VERTEX
  5
2412
  8
SAPA_PROFIL
 10
97.499976179970417
 20
-52.29999991513705
 30
0.0
 42
0.4142135623730951
  0
VERTEX
  5
2413
  8
SAPA_PROFIL
 10
97.199976179970406
 20
-52.599999915137062
 30
0.0
  0
VERTEX
  5
2414
  8
SAPA_PROFIL
 10
97.199976179970406
 20
-70.199999999010373
 30
0.0
 42
0.4142135623730951
  0
VERTEX
  5
2415
  8
SAPA_PROFIL
 10
97.499976179970417
 20
-70.499999999010384
 30
0.0
  0
VERTEX
  5
2416
  8
SAPA_PROFIL
 10
99.199976179970406
 20
-70.499999999010384
 30
0.0
  0
VERTEX
  5
2417
  8
SAPA_PROFIL
 10
99.199976179970406
 20
-70.399999999010362
 30
0.0
 42
-0.4142135623730951
  0
VERTEX
  5
2418
  8
SAPA_PROFIL
 10
99.399976179970395
 20
-70.199999999010373
 30
0.0
  0
VERTEX
  5
2419
  8
SAPA_PROFIL
 10
100.9999761799704
 20
-70.199999999010373
 30
0.0
 42
-0.4142135623730951
  0
VERTEX
  5
241A
  8
SAPA_PROFIL
 10
101.19997617997041
 20
-70.399999999010362
 30
0.0
  0
VERTEX
  5
241B
  8
SAPA_PROFIL
 10
101.19997617997041
 20
-70.499999999010384
 30
0.0
  0
VERTEX
  5
241C
  8
SAPA_PROFIL
 10
137.2999761799704
 20
-70.499999999010384
 30
0.0
  0
VERTEX
  5
241D
  8
SAPA_PROFIL
 10
137.2999761799704
 20
-70.399999999010362
 30
0.0
 42
-0.4142135623730951
  0
VERTEX
  5
241E
  8
SAPA_PROFIL
 10
137.49997617997039
 20
-70.199999999010373
 30
0.0
  0
VERTEX
  5
241F
  8
SAPA_PROFIL
 10
139.09997617997041
 20
-70.199999999010373
 30
0.0
 42
-0.4142135623730951
  0
VERTEX
  5
2420
  8
SAPA_PROFIL
 10
139.2999761799704
 20
-70.399999999010362
 30
0.0
  0
VERTEX
  5
2421
  8
SAPA_PROFIL
 10
139.2999761799704
 20
-70.499999999010384
 30
0.0
  0
VERTEX
  5
2422
  8
SAPA_PROFIL
 10
140.99997617997039
 20
-70.499999999010384
 30
0.0
 42
0.4142135623730951
  0
VERTEX
  5
2423
  8
SAPA_PROFIL
 10
141.2999761799704
 20
-70.199999999010373
 30
0.0
  0
VERTEX
  5
2424
  8
SAPA_PROFIL
 10
141.2999761799704
 20
-52.599999915137062
 30
0.0
 42
0.4142135623730951
  0
VERTEX
  5
2425
  8
SAPA_PROFIL
 10
140.99997617997039
 20
-52.299999915137057
 30
0.0
  0
VERTEX
  5
2426
  8
SAPA_PROFIL
 10
139.2999761799704
 20
-52.299999915137057
 30
0.0
  0
VERTEX
  5
2427
  8
SAPA_PROFIL
 10
139.2999761799704
 20
-52.599999999010379
 30
0.0
 42
-0.4142135623730951
  0
SEQEND
  5
2428
  8
SAPA_PROFIL
  0
POLYLINE
  5
1A41
  8
SAPA_PROFIL
 62
     4
 66
     1
 10
0.0
 20
0.0
 30
-0.1
  0
VERTEX
  5
2429
  8
SAPA_PROFIL
 62
     4
 10
145.09660907058901
 20
-20.450670876738322
 30
-0.1
 42
0.5571646428658034
  0
VERTEX
  5
242A
  8
SAPA_PROFIL
 62
     4
 10
144.22889015643341
 20
-20.98763138087514
 30
-0.1
  0
VERTEX
  5
242B
  8
SAPA_PROFIL
 62
     4
 10
144.22889015643389
 20
-38.012368617396341
 30
-0.1
 42
0.5571645048035741
  0
VERTEX
  5
242C
  8
SAPA_PROFIL
 62
     4
 10
145.09660884430011
 20
-38.549329234357401
 30
-0.1
  0
VERTEX
  5
242D
  8
SAPA_PROFIL
 62
     4
 10
146.7627495003681
 20
-37.718622146810702
 30
-0.1
 42
0.284385813979063
  0
VERTEX
  5
242E
  8
SAPA_PROFIL
 62
     4
 10
146.9288901564355
 20
-37.450141838330353
 30
-0.1
  0
VERTEX
  5
242F
  8
SAPA_PROFIL
 62
     4
 10
146.9288901564355
 20
-21.549858159941039
 30
-0.1
 42
0.2843858139786238
  0
VERTEX
  5
2430
  8
SAPA_PROFIL
 62
     4
 10
146.76274950036861
 20
-21.28137785146075
 30
-0.1
  0
VERTEX
  5
2431
  8
SAPA_PROFIL
 62
     4
 10
145.09660884429931
 20
-20.450670763913589
 30
-0.1
  0
SEQEND
  5
2432
  8
SAPA_PROFIL
 62
     4
  0
POLYLINE
  5
1A42
  8
SAPA_PROFIL
 62
     4
 66
     1
 10
0.0
 20
0.0
 30
-0.1
 70
     1
  0
VERTEX
  5
2433
  8
SAPA_PROFIL
 62
     4
 10
147.2857216709331
 20
-43.91761118380299
 30
-0.1
  0
VERTEX
  5
2434
  8
SAPA_PROFIL
 62
     4
 10
147.69228186693721
 20
-44.181634462178998
 30
-0.1
 42
-0.2539676464751066
  0
VERTEX
  5
2435
  8
SAPA_PROFIL
 62
     4
 10
147.82889015643329
 20
-44.433235632563701
 30
-0.1
  0
VERTEX
  5
2436
  8
SAPA_PROFIL
 62
     4
 10
147.82889015643329
 20
-45.814735217769062
 30
-0.1
 42
-0.3152987888790479
  0
VERTEX
  5
2437
  8
SAPA_PROFIL
 62
     4
 10
147.49990022809521
 20
-46.284581528161361
 30
-0.1
  0
VERTEX
  5
2438
  8
SAPA_PROFIL
 62
     4
 10
145.03907003764391
 20
-47.180250469069968
 30
-0.1
 42
0.2694959974287434
  0
VERTEX
  5
2439
  8
SAPA_PROFIL
 62
     4
 10
144.8459380633
 20
-47.41176951547132
 30
-0.1
 42
0.0612686379508233
  0
VERTEX
  5
243A
  8
SAPA_PROFIL
 62
     4
 10
144.8323546926695
 20
-47.7044449483246
 30
-0.1
  0
VERTEX
  5
243B
  8
SAPA_PROFIL
 62
     4
 10
144.6306180139407
 20
-48.053863125632873
 30
-0.1
 42
0.5773502691891679
  0
VERTEX
  5
243C
  8
SAPA_PROFIL
 62
     4
 10
144.81248334873521
 20
-48.368863125632458
 30
-0.1
  0
VERTEX
  5
243D
  8
SAPA_PROFIL
 62
     4
 10
145.0795978768615
 20
-48.3688631256327
 30
-0.1
  0
VERTEX
  5
243E
  8
SAPA_PROFIL
 62
     4
 10
145.88828133816989
 20
-49.767390826266947
 30
-0.1
 42
-0.1318219888653519
  0
VERTEX
  5
243F
  8
SAPA_PROFIL
 62
     4
 10
145.9285737347073
 20
-49.917563928739298
 30
-0.1
  0
VERTEX
  5
2440
  8
SAPA_PROFIL
 62
     4
 10
145.9285737347009
 20
-50.09999999917607
 30
-0.1
 42
-0.4142135623724291
  0
VERTEX
  5
2441
  8
SAPA_PROFIL
 62
     4
 10
145.5285737347013
 20
-50.49999999917663
 30
-0.1
  0
VERTEX
  5
2442
  8
SAPA_PROFIL
 62
     4
 10
142.1285737347003
 20
-50.499999999175259
 30
-0.1
 42
-0.4142135623744271
  0
VERTEX
  5
2443
  8
SAPA_PROFIL
 62
     4
 10
141.7285737346993
 20
-50.09999999917607
 30
-0.1
  0
VERTEX
  5
2444
  8
SAPA_PROFIL
 62
     4
 10
141.72857373469861
 20
-49.920384756904781
 30
-0.1
 42
-0.1316524975874005
  0
VERTEX
  5
2445
  8
SAPA_PROFIL
 62
     4
 10
141.7687661135642
 20
-49.770384756907958
 30
-0.1
  0
VERTEX
  5
2446
  8
SAPA_PROFIL
 62
     4
 10
142.6949155602168
 20
-48.166246859905712
 30
-0.1
 42
0.1316524975875904
  0
VERTEX
  5
2447
  8
SAPA_PROFIL
 62
     4
 10
142.8288901564315
 20
-47.666246859903993
 30
-0.1
  0
VERTEX
  5
2448
  8
SAPA_PROFIL
 62
     4
 10
142.8288901564315
 20
-47.249999999176623
 30
-0.1
 42
0.4142135623730951
  0
VERTEX
  5
2449
  8
SAPA_PROFIL
 62
     4
 10
141.8288901564315
 20
-46.249999999176623
 30
-0.1
  0
VERTEX
  5
244A
  8
SAPA_PROFIL
 62
     4
 10
138.82889015643431
 20
-46.249999999176623
 30
-0.1
 42
-0.9999996830128083
  0
VERTEX
  5
244B
  8
SAPA_PROFIL
 62
     4
 10
138.82889015643241
 20
-45.249999999176623
 30
-0.1
  0
VERTEX
  5
244C
  8
SAPA_PROFIL
 62
     4
 10
141.82889015643241
 20
-45.249999999176623
 30
-0.1
 42
0.4142135623730951
  0
VERTEX
  5
244D
  8
SAPA_PROFIL
 62
     4
 10
142.82889015643241
 20
-44.249999999176623
 30
-0.1
  0
VERTEX
  5
244E
  8
SAPA_PROFIL
 62
     4
 10
142.82889015643241
 20
-14.74999999909204
 30
-0.1
 42
0.4142135623730951
  0
VERTEX
  5
244F
  8
SAPA_PROFIL
 62
     4
 10
141.82889015643241
 20
-13.74999999909204
 30
-0.1
  0
VERTEX
  5
2450
  8
SAPA_PROFIL
 62
     4
 10
138.82889015643431
 20
-13.74999999909204
 30
-0.1
 42
-0.9999999999999998
  0
VERTEX
  5
2451
  8
SAPA_PROFIL
 62
     4
 10
138.82889015643431
 20
-12.74999999909204
 30
-0.1
  0
VERTEX
  5
2452
  8
SAPA_PROFIL
 62
     4
 10
141.82889015643241
 20
-12.74999999909204
 30
-0.1
 42
0.4142135623736278
  0
VERTEX
  5
2453
  8
SAPA_PROFIL
 62
     4
 10
142.82889015643241
 20
-11.74999999909204
 30
-0.1
  0
VERTEX
  5
2454
  8
SAPA_PROFIL
 62
     4
 10
142.82889015643241
 20
-11.33375313836558
 30
-0.1
 42
0.1316524975874375
  0
VERTEX
  5
2455
  8
SAPA_PROFIL
 62
     4
 10
142.6949155602164
 20
-10.833753138365379
 30
-0.1
  0
VERTEX
  5
2456
  8
SAPA_PROFIL
 62
     4
 10
141.7687661135642
 20
-9.2296152413634331
 30
-0.1
 42
-0.1316524975874
  0
VERTEX
  5
2457
  8
SAPA_PROFIL
 62
     4
 10
141.72857373469861
 20
-9.0796152413638893
 30
-0.1
  0
VERTEX
  5
2458
  8
SAPA_PROFIL
 62
     4
 10
141.7285737346993
 20
-8.8999999990925858
 30
-0.1
 42
-0.4142135623744271
  0
VERTEX
  5
2459
  8
SAPA_PROFIL
 62
     4
 10
142.1285737347003
 20
-8.4999999990934043
 30
-0.1
  0
VERTEX
  5
245A
  8
SAPA_PROFIL
 62
     4
 10
145.5285737347013
 20
-8.4999999990920401
 30
-0.1
 42
-0.4142135623724291
  0
VERTEX
  5
245B
  8
SAPA_PROFIL
 62
     4
 10
145.9285737347009
 20
-8.8999999990925858
 30
-0.1
  0
VERTEX
  5
245C
  8
SAPA_PROFIL
 62
     4
 10
145.9285737347073
 20
-9.0824360695293649
 30
-0.1
 42
-0.1318219888653524
  0
VERTEX
  5
245D
  8
SAPA_PROFIL
 62
     4
 10
145.88828133816989
 20
-9.2326091720017072
 30
-0.1
  0
VERTEX
  5
245E
  8
SAPA_PROFIL
 62
     4
 10
145.07959787694551
 20
-10.63113687248136
 30
-0.1
  0
VERTEX
  5
245F
  8
SAPA_PROFIL
 62
     4
 10
144.81248334873251
 20
-10.63113687248136
 30
-0.1
 42
0.577350269189159
  0
VERTEX
  5
2460
  8
SAPA_PROFIL
 62
     4
 10
144.63061801393789
 20
-10.94613687248096
 30
-0.1
  0
VERTEX
  5
2461
  8
SAPA_PROFIL
 62
     4
 10
144.83235469261501
 20
-11.295555049699621
 30
-0.1
 42
0.0612687673629489
  0
VERTEX
  5
2462
  8
SAPA_PROFIL
 62
     4
 10
144.8459380633013
 20
-11.58823048279983
 30
-0.1
 42
0.2694959974285039
  0
VERTEX
  5
2463
  8
SAPA_PROFIL
 62
     4
 10
145.03907003764519
 20
-11.81974952920036
 30
-0.1
  0
VERTEX
  5
2464
  8
SAPA_PROFIL
 62
     4
 10
147.4999002280984
 20
-12.71541847011002
 30
-0.1
 42
-0.3152987888784035
  0
VERTEX
  5
2465
  8
SAPA_PROFIL
 62
     4
 10
147.82889015643491
 20
-13.185264780503241
 30
-0.1
  0
VERTEX
  5
2466
  8
SAPA_PROFIL
 62
     4
 10
147.82889015643329
 20
-14.56676436570768
 30
-0.1
 42
-0.2539676464741841
  0
VERTEX
  5
2467
  8
SAPA_PROFIL
 62
     4
 10
147.69228186693809
 20
-14.818365536091759
 30
-0.1
  0
VERTEX
  5
2468
  8
SAPA_PROFIL
 62
     4
 10
147.2857216709331
 20
-15.0823888144684
 30
-0.1
 42
-0.5862177598324623
  0
VERTEX
  5
2469
  8
SAPA_PROFIL
 62
     4
 10
146.82889015643659
 20
-14.82664699923005
 30
-0.1
  0
VERTEX
  5
246A
  8
SAPA_PROFIL
 62
     4
 10
146.82889015644429
 20
-13.88547231872024
 30
-0.1
 42
0.3152987888813165
  0
VERTEX
  5
246B
  8
SAPA_PROFIL
 62
     4
 10
146.49990022810749
 20
-13.415626008322491
 30
-0.1
  0
VERTEX
  5
246C
  8
SAPA_PROFIL
 62
     4
 10
145.29990022809631
 20
-12.978861727198529
 30
-0.1
 42
0.5205670505515651
  0
VERTEX
  5
246D
  8
SAPA_PROFIL
 62
     4
 10
144.6288901564335
 20
-13.448708037591761
 30
-0.1
  0
VERTEX
  5
246E
  8
SAPA_PROFIL
 62
     4
 10
144.6288901564335
 20
-18.465148978260611
 30
-0.1
 42
0.3702522326300203
  0
VERTEX
  5
246F
  8
SAPA_PROFIL
 62
     4
 10
144.88335010909921
 20
-18.761672340053941
 30
-0.1
 42
0.0982365330332397
  0
VERTEX
  5
2470
  8
SAPA_PROFIL
 62
     4
 10
146.57103688409421
 20
-18.852125098264871
 30
-0.1
 42
0.3735060174783164
  0
VERTEX
  5
2471
  8
SAPA_PROFIL
 62
     4
 10
146.8288901564342
 20
-18.555100430353889
 30
-0.1
  0
VERTEX
  5
2472
  8
SAPA_PROFIL
 62
     4
 10
146.82889015643519
 20
-18.126646999231241
 30
-0.1
 42
-0.5920056181162531
  0
VERTEX
  5
2473
  8
SAPA_PROFIL
 62
     4
 10
147.29009365896309
 20
-17.873638242913842
 30
-0.1
  0
VERTEX
  5
2474
  8
SAPA_PROFIL
 62
     4
 10
147.69228186694141
 20
-18.134822319069539
 30
-0.1
 42
-0.2539676464746725
  0
VERTEX
  5
2475
  8
SAPA_PROFIL
 62
     4
 10
147.82889015643681
 20
-18.386423489453311
 30
-0.1
  0
VERTEX
  5
2476
  8
SAPA_PROFIL
 62
     4
 10
147.82889015643519
 20
-40.613576508818987
 30
-0.1
 42
-0.2539676464741819
  0
VERTEX
  5
2477
  8
SAPA_PROFIL
 62
     4
 10
147.69228186694141
 20
-40.865177679201842
 30
-0.1
  0
VERTEX
  5
2478
  8
SAPA_PROFIL
 62
     4
 10
147.29009365896309
 20
-41.126361755355653
 30
-0.1
 42
-0.5920055144124249
  0
VERTEX
  5
2479
  8
SAPA_PROFIL
 62
     4
 10
146.82889015643519
 20
-40.873352999040137
 30
-0.1
  0
VERTEX
  5
247A
  8
SAPA_PROFIL
 62
     4
 10
146.82889018171019
 20
-40.444899521749932
 30
-0.1
 42
0.3735060174775405
  0
VERTEX
  5
247B
  8
SAPA_PROFIL
 62
     4
 10
146.57103690937009
 20
-40.147874853840243
 30
-0.1
 42
0.0355900683670349
  0
VERTEX
  5
247C
  8
SAPA_PROFIL
 62
     4
 10
145.95516332257029
 20
-40.103981289807983
 30
-0.1
 42
0.0624282003873116
  0
VERTEX
  5
247D
  8
SAPA_PROFIL
 62
     4
 10
144.88335013437521
 20
-40.238327612050931
 30
-0.1
 42
0.3702522326309292
  0
VERTEX
  5
247E
  8
SAPA_PROFIL
 62
     4
 10
144.62889018170941
 20
-40.5348509738443
 30
-0.1
  0
VERTEX
  5
247F
  8
SAPA_PROFIL
 62
     4
 10
144.6288901564333
 20
-45.551291960677808
 30
-0.1
 42
0.5205670505515692
  0
VERTEX
  5
2480
  8
SAPA_PROFIL
 62
     4
 10
145.29990022809631
 20
-46.021138271071031
 30
-0.1
  0
VERTEX
  5
2481
  8
SAPA_PROFIL
 62
     4
 10
146.4999002281057
 20
-45.58437398994608
 30
-0.1
 42
0.3152987888807539
  0
VERTEX
  5
2482
  8
SAPA_PROFIL
 62
     4
 10
146.82889015644341
 20
-45.114527679550228
 30
-0.1
  0
VERTEX
  5
2483
  8
SAPA_PROFIL
 62
     4
 10
146.8288901564365
 20
-44.17335299904115
 30
-0.1
 42
-0.5862175119221242
  0
VERTEX
  5
2484
  8
SAPA_PROFIL
 62
     4
 10
147.28572148219169
 20
-43.917611068059188
 30
-0.1
 42
0.0000002084758573
  0
SEQEND
  5
2485
  8
SAPA_PROFIL
 62
     4
  0
POLYLINE
  5
1A43
  8
SAPA_PROFIL
 62
     4
 66
     1
 10
0.0
 20
0.0
 30
-0.1
  0
VERTEX
  5
2486
  8
SAPA_PROFIL
 62
     4
 10
98.203343297173916
 20
-20.450670876738322
 30
-0.1
 42
-0.5571646428658034
  0
VERTEX
  5
2487
  8
SAPA_PROFIL
 62
     4
 10
99.071062211329476
 20
-20.98763138087514
 30
-0.1
  0
VERTEX
  5
2488
  8
SAPA_PROFIL
 62
     4
 10
99.071062211329007
 20
-38.012368617396341
 30
-0.1
 42
-0.5571645048035741
  0
VERTEX
  5
2489
  8
SAPA_PROFIL
 62
     4
 10
98.203343523462834
 20
-38.549329234357401
 30
-0.1
  0
VERTEX
  5
248A
  8
SAPA_PROFIL
 62
     4
 10
96.537202867394811
 20
-37.718622146810702
 30
-0.1
 42
-0.284385813979063
  0
VERTEX
  5
248B
  8
SAPA_PROFIL
 62
     4
 10
96.371062211327384
 20
-37.450141838330353
 30
-0.1
  0
VERTEX
  5
248C
  8
SAPA_PROFIL
 62
     4
 10
96.371062211327384
 20
-21.549858159941039
 30
-0.1
 42
-0.2843858139786238
  0
VERTEX
  5
248D
  8
SAPA_PROFIL
 62
     4
 10
96.537202867394299
 20
-21.28137785146075
 30
-0.1
  0
VERTEX
  5
248E
  8
SAPA_PROFIL
 62
     4
 10
98.203343523463644
 20
-20.450670763913589
 30
-0.1
  0
SEQEND
  5
248F
  8
SAPA_PROFIL
 62
     4
  0
POLYLINE
  5
1A44
  8
SAPA_PROFIL
 62
     4
 66
     1
 10
0.0
 20
0.0
 30
-0.1
 70
     1
  0
VERTEX
  5
2490
  8
SAPA_PROFIL
 62
     4
 10
96.014230696829785
 20
-43.91761118380299
 30
-0.1
  0
VERTEX
  5
2491
  8
SAPA_PROFIL
 62
     4
 10
95.607670500825648
 20
-44.181634462178998
 30
-0.1
 42
0.2539676464751066
  0
VERTEX
  5
2492
  8
SAPA_PROFIL
 62
     4
 10
95.471062211329539
 20
-44.433235632563701
 30
-0.1
  0
VERTEX
  5
2493
  8
SAPA_PROFIL
 62
     4
 10
95.471062211329539
 20
-45.814735217769062
 30
-0.1
 42
0.3152987888790479
  0
VERTEX
  5
2494
  8
SAPA_PROFIL
 62
     4
 10
95.800052139667713
 20
-46.284581528161361
 30
-0.1
  0
VERTEX
  5
2495
  8
SAPA_PROFIL
 62
     4
 10
98.260882330118989
 20
-47.180250469069968
 30
-0.1
 42
-0.2694959974287434
  0
VERTEX
  5
2496
  8
SAPA_PROFIL
 62
     4
 10
98.454014304462888
 20
-47.41176951547132
 30
-0.1
 42
-0.0612686379508233
  0
VERTEX
  5
2497
  8
SAPA_PROFIL
 62
     4
 10
98.467597675093401
 20
-47.7044449483246
 30
-0.1
  0
VERTEX
  5
2498
  8
SAPA_PROFIL
 62
     4
 10
98.669334353822222
 20
-48.053863125632873
 30
-0.1
 42
-0.5773502691891679
  0
VERTEX
  5
2499
  8
SAPA_PROFIL
 62
     4
 10
98.487469019027657
 20
-48.368863125632458
 30
-0.1
  0
VERTEX
  5
249A
  8
SAPA_PROFIL
 62
     4
 10
98.220354490901343
 20
-48.3688631256327
 30
-0.1
  0
VERTEX
  5
249B
  8
SAPA_PROFIL
 62
     4
 10
97.411671029593023
 20
-49.767390826266947
 30
-0.1
 42
0.1318219888653519
  0
VERTEX
  5
249C
  8
SAPA_PROFIL
 62
     4
 10
97.371378633055613
 20
-49.917563928739298
 30
-0.1
  0
VERTEX
  5
249D
  8
SAPA_PROFIL
 62
     4
 10
97.371378633061994
 20
-50.09999999917607
 30
-0.1
 42
0.4142135623724291
  0
VERTEX
  5
249E
  8
SAPA_PROFIL
 62
     4
 10
97.771378633061644
 20
-50.49999999917663
 30
-0.1
  0
VERTEX
  5
249F
  8
SAPA_PROFIL
 62
     4
 10
101.1713786330626
 20
-50.499999999175259
 30
-0.1
 42
0.4142135623744271
  0
VERTEX
  5
24A0
  8
SAPA_PROFIL
 62
     4
 10
101.5713786330636
 20
-50.09999999917607
 30
-0.1
  0
VERTEX
  5
24A1
  8
SAPA_PROFIL
 62
     4
 10
101.5713786330642
 20
-49.920384756904781
 30
-0.1
 42
0.1316524975874005
  0
VERTEX
  5
24A2
  8
SAPA_PROFIL
 62
     4
 10
101.5311862541987
 20
-49.770384756907958
 30
-0.1
  0
VERTEX
  5
24A3
  8
SAPA_PROFIL
 62
     4
 10
100.6050368075461
 20
-48.166246859905712
 30
-0.1
 42
-0.1316524975875904
  0
VERTEX
  5
24A4
  8
SAPA_PROFIL
 62
     4
 10
100.4710622113313
 20
-47.666246859903993
 30
-0.1
  0
VERTEX
  5
24A5
  8
SAPA_PROFIL
 62
     4
 10
100.4710622113313
 20
-47.249999999176623
 30
-0.1
 42
-0.4142135623730951
  0
VERTEX
  5
24A6
  8
SAPA_PROFIL
 62
     4
 10
101.4710622113313
 20
-46.249999999176623
 30
-0.1
  0
VERTEX
  5
24A7
  8
SAPA_PROFIL
 62
     4
 10
104.4710622113286
 20
-46.249999999176623
 30
-0.1
 42
0.9999996830128083
  0
VERTEX
  5
24A8
  8
SAPA_PROFIL
 62
     4
 10
104.47106221133041
 20
-45.249999999176623
 30
-0.1
  0
VERTEX
  5
24A9
  8
SAPA_PROFIL
 62
     4
 10
101.47106221133041
 20
-45.249999999176623
 30
-0.1
 42
-0.4142135623730951
  0
VERTEX
  5
24AA
  8
SAPA_PROFIL
 62
     4
 10
100.47106221133041
 20
-44.249999999176623
 30
-0.1
  0
VERTEX
  5
24AB
  8
SAPA_PROFIL
 62
     4
 10
100.47106221133041
 20
-14.74999999909204
 30
-0.1
 42
-0.4142135623730951
  0
VERTEX
  5
24AC
  8
SAPA_PROFIL
 62
     4
 10
101.47106221133041
 20
-13.74999999909204
 30
-0.1
  0
VERTEX
  5
24AD
  8
SAPA_PROFIL
 62
     4
 10
104.4710622113286
 20
-13.74999999909204
 30
-0.1
 42
0.9999999999999998
  0
VERTEX
  5
24AE
  8
SAPA_PROFIL
 62
     4
 10
104.4710622113286
 20
-12.74999999909204
 30
-0.1
  0
VERTEX
  5
24AF
  8
SAPA_PROFIL
 62
     4
 10
101.47106221133041
 20
-12.74999999909204
 30
-0.1
 42
-0.4142135623736278
  0
VERTEX
  5
24B0
  8
SAPA_PROFIL
 62
     4
 10
100.47106221133041
 20
-11.74999999909204
 30
-0.1
  0
VERTEX
  5
24B1
  8
SAPA_PROFIL
 62
     4
 10
100.47106221133041
 20
-11.33375313836558
 30
-0.1
 42
-0.1316524975874375
  0
VERTEX
  5
24B2
  8
SAPA_PROFIL
 62
     4
 10
100.6050368075465
 20
-10.833753138365379
 30
-0.1
  0
VERTEX
  5
24B3
  8
SAPA_PROFIL
 62
     4
 10
101.5311862541987
 20
-9.2296152413634331
 30
-0.1
 42
0.1316524975874
  0
VERTEX
  5
24B4
  8
SAPA_PROFIL
 62
     4
 10
101.5713786330642
 20
-9.0796152413638893
 30
-0.1
  0
VERTEX
  5
24B5
  8
SAPA_PROFIL
 62
     4
 10
101.5713786330636
 20
-8.8999999990925858
 30
-0.1
 42
0.4142135623744271
  0
VERTEX
  5
24B6
  8
SAPA_PROFIL
 62
     4
 10
101.1713786330626
 20
-8.4999999990934043
 30
-0.1
  0
VERTEX
  5
24B7
  8
SAPA_PROFIL
 62
     4
 10
97.771378633061644
 20
-8.4999999990920401
 30
-0.1
 42
0.4142135623724291
  0
VERTEX
  5
24B8
  8
SAPA_PROFIL
 62
     4
 10
97.371378633061994
 20
-8.8999999990925858
 30
-0.1
  0
VERTEX
  5
24B9
  8
SAPA_PROFIL
 62
     4
 10
97.371378633055613
 20
-9.0824360695293649
 30
-0.1
 42
0.1318219888653524
  0
VERTEX
  5
24BA
  8
SAPA_PROFIL
 62
     4
 10
97.411671029593023
 20
-9.2326091720017072
 30
-0.1
  0
VERTEX
  5
24BB
  8
SAPA_PROFIL
 62
     4
 10
98.220354490817357
 20
-10.63113687248136
 30
-0.1
  0
VERTEX
  5
24BC
  8
SAPA_PROFIL
 62
     4
 10
98.487469019030385
 20
-10.63113687248136
 30
-0.1
 42
-0.577350269189159
  0
VERTEX
  5
24BD
  8
SAPA_PROFIL
 62
     4
 10
98.669334353824965
 20
-10.94613687248096
 30
-0.1
  0
VERTEX
  5
24BE
  8
SAPA_PROFIL
 62
     4
 10
98.467597675147857
 20
-11.295555049699621
 30
-0.1
 42
-0.0612687673629489
  0
VERTEX
  5
24BF
  8
SAPA_PROFIL
 62
     4
 10
98.454014304461666
 20
-11.58823048279983
 30
-0.1
 42
-0.2694959974285039
  0
VERTEX
  5
24C0
  8
SAPA_PROFIL
 62
     4
 10
98.260882330117695
 20
-11.81974952920036
 30
-0.1
  0
VERTEX
  5
24C1
  8
SAPA_PROFIL
 62
     4
 10
95.80005213966453
 20
-12.71541847011002
 30
-0.1
 42
0.3152987888784035
  0
VERTEX
  5
24C2
  8
SAPA_PROFIL
 62
     4
 10
95.471062211327961
 20
-13.185264780503241
 30
-0.1
  0
VERTEX
  5
24C3
  8
SAPA_PROFIL
 62
     4
 10
95.471062211329539
 20
-14.56676436570768
 30
-0.1
 42
0.2539676464741841
  0
VERTEX
  5
24C4
  8
SAPA_PROFIL
 62
     4
 10
95.607670500824824
 20
-14.818365536091759
 30
-0.1
  0
VERTEX
  5
24C5
  8
SAPA_PROFIL
 62
     4
 10
96.014230696829785
 20
-15.0823888144684
 30
-0.1
 42
0.5862177598324623
  0
VERTEX
  5
24C6
  8
SAPA_PROFIL
 62
     4
 10
96.471062211326313
 20
-14.82664699923005
 30
-0.1
  0
VERTEX
  5
24C7
  8
SAPA_PROFIL
 62
     4
 10
96.471062211318625
 20
-13.88547231872024
 30
-0.1
 42
-0.3152987888813165
  0
VERTEX
  5
24C8
  8
SAPA_PROFIL
 62
     4
 10
96.800052139655392
 20
-13.415626008322491
 30
-0.1
  0
VERTEX
  5
24C9
  8
SAPA_PROFIL
 62
     4
 10
98.000052139666636
 20
-12.978861727198529
 30
-0.1
 42
-0.5205670505515651
  0
VERTEX
  5
24CA
  8
SAPA_PROFIL
 62
     4
 10
98.671062211329371
 20
-13.448708037591761
 30
-0.1
  0
VERTEX
  5
24CB
  8
SAPA_PROFIL
 62
     4
 10
98.671062211329414
 20
-18.465148978260611
 30
-0.1
 42
-0.3702522326300203
  0
VERTEX
  5
24CC
  8
SAPA_PROFIL
 62
     4
 10
98.416602258663701
 20
-18.761672340053941
 30
-0.1
 42
-0.0982365330332397
  0
VERTEX
  5
24CD
  8
SAPA_PROFIL
 62
     4
 10
96.7289154836687
 20
-18.852125098264871
 30
-0.1
 42
-0.3735060174783164
  0
VERTEX
  5
24CE
  8
SAPA_PROFIL
 62
     4
 10
96.471062211328643
 20
-18.555100430353889
 30
-0.1
  0
VERTEX
  5
24CF
  8
SAPA_PROFIL
 62
     4
 10
96.471062211327734
 20
-18.126646999231241
 30
-0.1
 42
0.5920056181162531
  0
VERTEX
  5
24D0
  8
SAPA_PROFIL
 62
     4
 10
96.009858708799811
 20
-17.873638242913842
 30
-0.1
  0
VERTEX
  5
24D1
  8
SAPA_PROFIL
 62
     4
 10
95.607670500821513
 20
-18.134822319069539
 30
-0.1
 42
0.2539676464746725
  0
VERTEX
  5
24D2
  8
SAPA_PROFIL
 62
     4
 10
95.471062211326156
 20
-18.386423489453311
 30
-0.1
  0
VERTEX
  5
24D3
  8
SAPA_PROFIL
 62
     4
 10
95.471062211327734
 20
-40.613576508818987
 30
-0.1
 42
0.2539676464741819
  0
VERTEX
  5
24D4
  8
SAPA_PROFIL
 62
     4
 10
95.607670500821513
 20
-40.865177679201842
 30
-0.1
  0
VERTEX
  5
24D5
  8
SAPA_PROFIL
 62
     4
 10
96.009858708799854
 20
-41.126361755355653
 30
-0.1
 42
0.5920055144124249
  0
VERTEX
  5
24D6
  8
SAPA_PROFIL
 62
     4
 10
96.471062211327734
 20
-40.873352999040137
 30
-0.1
  0
VERTEX
  5
24D7
  8
SAPA_PROFIL
 62
     4
 10
96.471062186052734
 20
-40.444899521749932
 30
-0.1
 42
-0.3735060174775405
  0
VERTEX
  5
24D8
  8
SAPA_PROFIL
 62
     4
 10
96.728915458392834
 20
-40.147874853840243
 30
-0.1
 42
-0.0355900683670349
  0
VERTEX
  5
24D9
  8
SAPA_PROFIL
 62
     4
 10
97.344789045192599
 20
-40.103981289807983
 30
-0.1
 42
-0.0624282003873116
  0
VERTEX
  5
24DA
  8
SAPA_PROFIL
 62
     4
 10
98.416602233387735
 20
-40.238327612050931
 30
-0.1
 42
-0.3702522326309292
  0
VERTEX
  5
24DB
  8
SAPA_PROFIL
 62
     4
 10
98.671062186053462
 20
-40.5348509738443
 30
-0.1
  0
VERTEX
  5
24DC
  8
SAPA_PROFIL
 62
     4
 10
98.671062211329598
 20
-45.551291960677808
 30
-0.1
 42
-0.5205670505515692
  0
VERTEX
  5
24DD
  8
SAPA_PROFIL
 62
     4
 10
98.000052139666636
 20
-46.021138271071031
 30
-0.1
  0
VERTEX
  5
24DE
  8
SAPA_PROFIL
 62
     4
 10
96.800052139657197
 20
-45.58437398994608
 30
-0.1
 42
-0.3152987888807539
  0
VERTEX
  5
24DF
  8
SAPA_PROFIL
 62
     4
 10
96.471062211319563
 20
-45.114527679550228
 30
-0.1
  0
VERTEX
  5
24E0
  8
SAPA_PROFIL
 62
     4
 10
96.471062211326384
 20
-44.17335299904115
 30
-0.1
 42
0.5862175119221242
  0
VERTEX
  5
24E1
  8
SAPA_PROFIL
 62
     4
 10
96.014230885571237
 20
-43.917611068059188
 30
-0.1
 42
-0.0000002084758573
  0
SEQEND
  5
24E2
  8
SAPA_PROFIL
 62
     4
  0
CIRCLE
  5
1A45
  8
SAPA_PROFIL
 62
     2
 10
86.831483681313486
 20
-67.317340031675485
 30
0.0
 40
0.25
  0
INSERT
  5
1A46
  8
SAPA_PROFIL
  6
CONTINUOUS
 62
     2
  2
*U135
 10
0.0
 20
0.0
 30
0.0
1001
ACAD
1002
{
1000
R14_HATCH_DATA
1000
1A46
1011
1.0
1021
0.0
1031
0.0
1021
0.0
1031
0.0
1011
0.0
1021
0.0
1031
0.0
1021
1.0
1031
0.0
1011
0.0
1021
0.0
1031
0.0
1021
0.0
1031
1.0
1040
0.0
1010
0.0
1020
0.0
1030
1.0
1000
SOLID
1070
     1
1070
     1
1071
        1
1071
        7
1070
     1
1070
     1
1071
        2
1040
86.831483681313486
1040
-67.067340031675485
1040
1.0
1040
86.831483681313486
1040
-67.567340031675485
1040
1.0
1071
        1
1005
1A45
1070
     0
1070
     1
1040
0.0095408196840103
1071
        1
1040
86.831483681313486
1040
-67.217340031675477
1040
0.0
1002
}
  0
POLYLINE
  5
1A47
  8
SAPA_PROFIL
 62
     2
 66
     1
 10
0.0
 20
0.0
 30
0.0
 70
     1
  0
VERTEX
  5
24F4
  8
SAPA_PROFIL
 62
     2
 10
84.499950679970453
 20
-69.991719270541367
 30
0.0
  0
VERTEX
  5
24F5
  8
SAPA_PROFIL
 62
     2
 10
84.399950679970445
 20
-69.991719270541367
 30
0.0
 42
-0.4142135623730959
  0
VERTEX
  5
24F6
  8
SAPA_PROFIL
 62
     2
 10
83.699950679970456
 20
-69.291719270541364
 30
0.0
  0
VERTEX
  5
24F7
  8
SAPA_PROFIL
 62
     2
 10
83.699950679970456
 20
-68.19171927054137
 30
0.0
 42
-0.4142135623730961
  0
VERTEX
  5
24F8
  8
SAPA_PROFIL
 62
     2
 10
83.899950679970459
 20
-67.991719270541367
 30
0.0
  0
VERTEX
  5
24F9
  8
SAPA_PROFIL
 62
     2
 10
84.999950679970453
 20
-67.991719270541367
 30
0.0
 42
-0.4142135623730956
  0
VERTEX
  5
24FA
  8
SAPA_PROFIL
 62
     2
 10
85.199950679970456
 20
-68.19171927054137
 30
0.0
  0
VERTEX
  5
24FB
  8
SAPA_PROFIL
 62
     2
 10
85.199950679970456
 20
-69.291719270541364
 30
0.0
 42
-0.4142135623730946
  0
SEQEND
  5
24FC
  8
SAPA_PROFIL
 62
     2
  0
POLYLINE
  5
1A48
  8
SAPA_PROFIL
 62
     2
 66
     1
 10
0.0
 20
0.0
 30
0.0
  0
VERTEX
  5
24FD
  8
SAPA_PROFIL
 62
     2
 10
85.999950679970453
 20
-68.69171927054137
 30
0.0
  0
VERTEX
  5
24FE
  8
SAPA_PROFIL
 62
     2
 10
85.999950679970453
 20
-68.043953705268279
 30
0.0
 42
-0.4416942457848117
  0
VERTEX
  5
24FF
  8
SAPA_PROFIL
 62
     2
 10
86.218505039598369
 20
-67.844816225775347
 30
0.0
  0
VERTEX
  5
2500
  8
SAPA_PROFIL
 62
     2
 10
87.181396320342543
 20
-67.934532291033378
 30
0.0
 42
0.4416942457848106
  0
VERTEX
  5
2501
  8
SAPA_PROFIL
 62
     2
 10
87.399950679970459
 20
-67.735394811540445
 30
0.0
  0
VERTEX
  5
2502
  8
SAPA_PROFIL
 62
     2
 10
87.399950679970459
 20
-67.185412471948908
 30
0.0
 42
0.5445962197109637
  0
VERTEX
  5
2503
  8
SAPA_PROFIL
 62
     2
 10
86.694271634565368
 20
-66.729675562887024
 30
0.0
  0
VERTEX
  5
2504
  8
SAPA_PROFIL
 62
     2
 10
86.335220481280118
 20
-66.891719270541358
 30
0.0
  0
VERTEX
  5
2505
  8
SAPA_PROFIL
 62
     2
 10
84.862261242532227
 20
-66.891719270541358
 30
0.0
 42
0.336437923496554
  0
VERTEX
  5
2506
  8
SAPA_PROFIL
 62
     2
 10
83.790517512917376
 20
-67.079226088383095
 30
0.0
  0
VERTEX
  5
2507
  8
SAPA_PROFIL
 62
     2
 10
83.228653877093663
 20
-67.079226088383095
 30
0.0
 42
-0.1919812372740513
  0
VERTEX
  5
2508
  8
SAPA_PROFIL
 62
     2
 10
82.884666829493639
 20
-66.942093710365839
 30
0.0
  0
VERTEX
  5
2509
  8
SAPA_PROFIL
 62
     2
 10
82.492799899090315
 20
-66.5706162340758
 30
0.0
 42
-0.9249153594910841
  0
VERTEX
  5
250A
  8
SAPA_PROFIL
 62
     2
 10
84.158577827612547
 20
-64.336921418996496
 30
0.0
  0
VERTEX
  5
250B
  8
SAPA_PROFIL
 62
     2
 10
85.243122767281321
 20
-64.870469474248125
 30
0.0
 42
0.4184584792862776
  0
VERTEX
  5
250C
  8
SAPA_PROFIL
 62
     2
 10
85.829825083852754
 20
-64.466717353828415
 30
0.0
 42
0.3891337693453737
  0
VERTEX
  5
250D
  8
SAPA_PROFIL
 62
     2
 10
85.684658192312256
 20
-64.238628045885804
 30
0.0
  0
VERTEX
  5
250E
  8
SAPA_PROFIL
 62
     2
 10
84.598762101747255
 20
-63.675722993397919
 30
0.0
 42
0.8864286961344978
  0
VERTEX
  5
250F
  8
SAPA_PROFIL
 62
     2
 10
81.926982199810723
 20
-67.034921748918649
 30
0.0
  0
VERTEX
  5
2510
  8
SAPA_PROFIL
 62
     2
 10
81.496423061929463
 20
-67.150289722207759
 30
0.0
 42
0.9163311740174273
  0
VERTEX
  5
2511
  8
SAPA_PROFIL
 62
     2
 10
81.634812977069529
 20
-67.935137931960099
 30
0.0
  0
VERTEX
  5
2512
  8
SAPA_PROFIL
 62
     2
 10
82.682519531420922
 20
-67.843475485752535
 30
0.0
 42
-0.4400105308918339
  0
VERTEX
  5
2513
  8
SAPA_PROFIL
 62
     2
 10
82.899950679970445
 20
-68.042714425370889
 30
0.0
  0
VERTEX
  5
2514
  8
SAPA_PROFIL
 62
     2
 10
82.899950679970445
 20
-68.891719270541344
 30
0.0
  0
VERTEX
  5
2515
  8
SAPA_PROFIL
 62
     2
 10
82.499950679970453
 20
-68.891719270541344
 30
0.0
 42
0.569380983920789
  0
VERTEX
  5
2516
  8
SAPA_PROFIL
 62
     2
 10
82.324396634406867
 20
-69.187535642244015
 30
0.0
  0
VERTEX
  5
2517
  8
SAPA_PROFIL
 62
     2
 10
83.029362234305935
 20
-70.479168385649317
 30
0.0
 42
0.274387813087548
  0
VERTEX
  5
2518
  8
SAPA_PROFIL
 62
     2
 10
83.556024370996667
 20
-70.791719270541364
 30
0.0
  0
VERTEX
  5
2519
  8
SAPA_PROFIL
 62
     2
 10
85.343876988944231
 20
-70.791719270541364
 30
0.0
 42
0.274387813087548
  0
VERTEX
  5
251A
  8
SAPA_PROFIL
 62
     2
 10
85.870539125634977
 20
-70.479168385649317
 30
0.0
  0
VERTEX
  5
251B
  8
SAPA_PROFIL
 62
     2
 10
86.575504725534046
 20
-69.187535642244015
 30
0.0
 42
0.5693809839207892
  0
VERTEX
  5
251C
  8
SAPA_PROFIL
 62
     2
 10
86.399950679970459
 20
-68.891719270541344
 30
0.0
  0
VERTEX
  5
251D
  8
SAPA_PROFIL
 62
     2
 10
85.999950679970468
 20
-68.891719270541344
 30
0.0
  0
VERTEX
  5
251E
  8
SAPA_PROFIL
 62
     2
 10
85.999950679970468
 20
-68.042714425370889
 30
0.0
  0
SEQEND
  5
251F
  8
SAPA_PROFIL
 62
     2
  0
POLYLINE
  5
1A49
  8
SAPA_PROFIL
 66
     1
 10
0.0
 20
0.0
 30
0.0
 70
     1
  0
VERTEX
  5
2520
  8
SAPA_PROFIL
 10
81.453514563814394
 20
-8.49999999901042
 30
0.0
 42
0.2134217652834387
  0
VERTEX
  5
2521
  8
SAPA_PROFIL
 10
81.677121361564488
 20
-8.399999999010312
 30
0.0
 42
-0.7625858545243219
  0
VERTEX
  5
2522
  8
SAPA_PROFIL
 10
82.007447442581494
 20
-8.5845792012077862
 30
0.0
  0
VERTEX
  5
2523
  8
SAPA_PROFIL
 10
81.949373805592415
 20
-8.7759622012015086
 30
0.0
  0
VERTEX
  5
2524
  8
SAPA_PROFIL
 10
80.864809358620676
 20
-10.66180589306256
 30
0.0
  0
VERTEX
  5
2525
  8
SAPA_PROFIL
 10
80.543051630402417
 20
-10.65124452683558
 30
0.0
 42
0.5773502691897439
  0
VERTEX
  5
2526
  8
SAPA_PROFIL
 10
80.360097890292252
 20
-10.94540082709042
 30
0.0
  0
VERTEX
  5
2527
  8
SAPA_PROFIL
 10
80.512231801401001
 20
-11.230083110322051
 30
0.0
 42
0.2216946626430187
  0
VERTEX
  5
2528
  8
SAPA_PROFIL
 10
81.053111632877801
 20
-11.63589201547685
 30
0.0
  0
VERTEX
  5
2529
  8
SAPA_PROFIL
 10
82.866342103536041
 20
-12.01733861160457
 30
0.0
 42
0.4769755326981641
  0
VERTEX
  5
252A
  8
SAPA_PROFIL
 10
83.237998978481926
 20
-11.715085787098101
 30
0.0
  0
VERTEX
  5
252B
  8
SAPA_PROFIL
 10
83.237915370598273
 20
-10.211984706336089
 30
0.0
  0
VERTEX
  5
252C
  8
SAPA_PROFIL
 10
83.190069620599786
 20
-10.19746629708899
 30
0.0
 42
-0.4142135623730944
  0
VERTEX
  5
252D
  8
SAPA_PROFIL
 10
82.99010557609239
 20
-9.8232813416131801
 30
0.0
  0
VERTEX
  5
252E
  8
SAPA_PROFIL
 10
83.49999999465588
 20
-8.5040483398517708
 30
0.0
  0
VERTEX
  5
252F
  8
SAPA_PROFIL
 10
83.499999994655951
 20
11.231478397645731
 30
0.0
 42
-0.38217120901707
  0
VERTEX
  5
2530
  8
SAPA_PROFIL
 10
83.766880210561681
 20
11.529644592747649
 30
0.0
  0
VERTEX
  5
2531
  8
SAPA_PROFIL
 10
90.344850994655886
 20
12.055484127712649
 30
0.0
 42
-0.4469990000000265
  0
VERTEX
  5
2532
  8
SAPA_PROFIL
 10
90.900050994656027
 20
11.5585401277126
 30
0.0
  0
VERTEX
  5
2533
  8
SAPA_PROFIL
 10
90.900050994655899
 20
9.8000000009896002
 30
0.0
 42
0.4142139999999868
  0
VERTEX
  5
2534
  8
SAPA_PROFIL
 10
91.900050994655857
 20
8.8000000009896286
 30
0.0
  0
VERTEX
  5
2535
  8
SAPA_PROFIL
 10
92.167594994655957
 20
8.800000000989586
 30
0.0
 42
0.2896899999999956
  0
VERTEX
  5
2536
  8
SAPA_PROFIL
 10
93.071102994655945
 20
9.3714280009896616
 30
0.0
 42
0.5507599999999603
  0
VERTEX
  5
2537
  8
SAPA_PROFIL
 10
92.800050994655876
 20
9.8000000009896002
 30
0.0
  0
VERTEX
  5
2538
  8
SAPA_PROFIL
 10
92.500050994655936
 20
9.8000000009895967
 30
0.0
 42
-0.4142140000001095
  0
VERTEX
  5
2539
  8
SAPA_PROFIL
 10
92.300050994655862
 20
10.00000000098964
 30
0.0
  0
VERTEX
  5
253A
  8
SAPA_PROFIL
 10
92.300050994655905
 20
11.10000000098961
 30
0.0
 42
-0.4142139999999826
  0
VERTEX
  5
253B
  8
SAPA_PROFIL
 10
93.300050994655891
 20
12.100000000989549
 30
0.0
  0
VERTEX
  5
253C
  8
SAPA_PROFIL
 10
95.599999994655974
 20
12.100000000989599
 30
0.0
 42
-0.4142139999999877
  0
VERTEX
  5
253D
  8
SAPA_PROFIL
 10
96.599999994655946
 20
11.10000000098966
 30
0.0
  0
VERTEX
  5
253E
  8
SAPA_PROFIL
 10
96.599999994655974
 20
10.000000000989591
 30
0.0
 42
-0.4142139999999481
  0
VERTEX
  5
253F
  8
SAPA_PROFIL
 10
96.399999994655872
 20
9.8000000009896358
 30
0.0
  0
VERTEX
  5
2540
  8
SAPA_PROFIL
 10
96.100050994655945
 20
9.8000000009895931
 30
0.0
 42
0.5507600000000124
  0
VERTEX
  5
2541
  8
SAPA_PROFIL
 10
95.828997994655907
 20
9.3714280009895941
 30
0.0
 42
0.2896899999999978
  0
VERTEX
  5
2542
  8
SAPA_PROFIL
 10
96.732505994655838
 20
8.8000000009895718
 30
0.0
  0
VERTEX
  5
2543
  8
SAPA_PROFIL
 10
96.999999994655965
 20
8.8000000009895967
 30
0.0
 42
0.4142140000000002
  0
VERTEX
  5
2544
  8
SAPA_PROFIL
 10
97.999999994655965
 20
9.8000000009896109
 30
0.0
  0
VERTEX
  5
2545
  8
SAPA_PROFIL
 10
97.999999994655965
 20
11.500000000989591
 30
0.0
 42
0.4142139999999887
  0
VERTEX
  5
2546
  8
SAPA_PROFIL
 10
95.999999994655937
 20
13.50000000098964
 30
0.0
  0
VERTEX
  5
2547
  8
SAPA_PROFIL
 10
31.199999994656
 20
13.500000000989591
 30
0.0
 42
0.4142135623730847
  0
VERTEX
  5
2548
  8
SAPA_PROFIL
 10
30.999999994656001
 20
13.30000000098959
 30
0.0
  0
VERTEX
  5
2549
  8
SAPA_PROFIL
 10
30.999999994656012
 20
10.61138300098963
 30
0.0
 42
0.2596810000000924
  0
VERTEX
  5
254A
  8
SAPA_PROFIL
 10
31.094692994656011
 20
10.4413520009896
 30
0.0
  0
VERTEX
  5
254B
  8
SAPA_PROFIL
 10
32.542039994655937
 20
9.5449530009895955
 30
0.0
 42
0.5877030000000333
  0
VERTEX
  5
254C
  8
SAPA_PROFIL
 10
32.999999994656022
 20
9.8000000009896571
 30
0.0
  0
VERTEX
  5
254D
  8
SAPA_PROFIL
 10
32.999999994656008
 20
11.20000000098962
 30
0.0
 42
-0.4142139999999517
  0
VERTEX
  5
254E
  8
SAPA_PROFIL
 10
33.299999994655941
 20
11.50000000098961
 30
0.0
  0
VERTEX
  5
254F
  8
SAPA_PROFIL
 10
35.69999999465594
 20
11.50000000098958
 30
0.0
 42
-0.4142140000000525
  0
VERTEX
  5
2550
  8
SAPA_PROFIL
 10
35.999999994655951
 20
11.200000000989631
 30
0.0
  0
VERTEX
  5
2551
  8
SAPA_PROFIL
 10
35.999999994656008
 20
-6.19999999901035
 30
0.0
 42
-0.4142140000001183
  0
VERTEX
  5
2552
  8
SAPA_PROFIL
 10
35.699999994655911
 20
-6.499999999010531
 30
0.0
  0
VERTEX
  5
2553
  8
SAPA_PROFIL
 10
33.299999994655913
 20
-6.4999999990104254
 30
0.0
 42
-0.4142140000000144
  0
VERTEX
  5
2554
  8
SAPA_PROFIL
 10
32.999999994656072
 20
-6.199999999010406
 30
0.0
  0
VERTEX
  5
2555
  8
SAPA_PROFIL
 10
32.999999994656008
 20
-4.7999999990103719
 30
0.0
 42
0.5920054160710128
  0
VERTEX
  5
2556
  8
SAPA_PROFIL
 10
32.538796656541109
 20
-4.546991486252641
 30
0.0
  0
VERTEX
  5
2557
  8
SAPA_PROFIL
 10
31.292531000328118
 20
-5.3410445160742537
 30
0.0
 42
0.2562769852931535
  0
VERTEX
  5
2558
  8
SAPA_PROFIL
 10
31.199999994656029
 20
-5.5097170249728782
 30
0.0
  0
VERTEX
  5
2559
  8
SAPA_PROFIL
 10
31.199999994656011
 20
-8.5040483398512574
 30
0.0
  0
VERTEX
  5
255A
  8
SAPA_PROFIL
 10
31.70989441321969
 20
-9.8232813416131588
 30
0.0
 42
-0.4142135623730948
  0
VERTEX
  5
255B
  8
SAPA_PROFIL
 10
31.50993036871229
 20
-10.197466297088971
 30
0.0
  0
VERTEX
  5
255C
  8
SAPA_PROFIL
 10
31.462084618713799
 20
-10.21198470633607
 30
0.0
  0
VERTEX
  5
255D
  8
SAPA_PROFIL
 10
31.462001010830161
 20
-11.715085787098079
 30
0.0
 42
0.4769755326981646
  0
VERTEX
  5
255E
  8
SAPA_PROFIL
 10
31.83365788577602
 20
-12.017338611604551
 30
0.0
  0
VERTEX
  5
255F
  8
SAPA_PROFIL
 10
33.646888356434268
 20
-11.63589201547682
 30
0.0
 42
0.2216946626430189
  0
VERTEX
  5
2560
  8
SAPA_PROFIL
 10
34.187768187911061
 20
-11.230083110322029
 30
0.0
  0
VERTEX
  5
2561
  8
SAPA_PROFIL
 10
34.339902099019838
 20
-10.94540082709039
 30
0.0
 42
0.5773502691897443
  0
VERTEX
  5
2562
  8
SAPA_PROFIL
 10
34.156948358909652
 20
-10.651244526835571
 30
0.0
  0
VERTEX
  5
2563
  8
SAPA_PROFIL
 10
33.8351906306914
 20
-10.661805893062541
 30
0.0
  0
VERTEX
  5
2564
  8
SAPA_PROFIL
 10
32.75062618371966
 20
-8.7759622012014855
 30
0.0
  0
VERTEX
  5
2565
  8
SAPA_PROFIL
 10
32.692552546730582
 20
-8.5845792012077702
 30
0.0
 42
-0.7625858545243274
  0
VERTEX
  5
2566
  8
SAPA_PROFIL
 10
33.022878627747581
 20
-8.3999999990102676
 30
0.0
 42
0.2134217652834391
  0
VERTEX
  5
2567
  8
SAPA_PROFIL
 10
33.246485425497703
 20
-8.4999999990103898
 30
0.0
  0
VERTEX
  5
2568
  8
SAPA_PROFIL
 10
37.099271829997718
 20
-8.4999999990104111
 30
0.0
 42
-0.4142135623729077
  0
VERTEX
  5
2569
  8
SAPA_PROFIL
 10
37.399271829997623
 20
-8.7999999990104865
 30
0.0
  0
VERTEX
  5
256A
  8
SAPA_PROFIL
 10
37.39927182999768
 20
-9.0999999990106684
 30
0.0
  0
VERTEX
  5
256B
  8
SAPA_PROFIL
 10
36.47551139929439
 20
-10.69999999901029
 30
0.0
 42
0.5773502691897674
  0
VERTEX
  5
256C
  8
SAPA_PROFIL
 10
36.648716480051149
 20
-10.99999999901042
 30
0.0
  0
VERTEX
  5
256D
  8
SAPA_PROFIL
 10
38.0343571261063
 20
-10.99999999901042
 30
0.0
 42
0.2679491924311062
  0
VERTEX
  5
256E
  8
SAPA_PROFIL
 10
38.900382529890742
 20
-10.499999999010599
 30
0.0
  0
VERTEX
  5
256F
  8
SAPA_PROFIL
 10
39.910745500972808
 20
-8.7499999990103614
 30
0.0
 42
-0.267949192431108
  0
VERTEX
  5
2570
  8
SAPA_PROFIL
 10
40.343758202865011
 20
-8.4999999990104111
 30
0.0
  0
VERTEX
  5
2571
  8
SAPA_PROFIL
 10
74.356241786446873
 20
-8.4999999990104058
 30
0.0
 42
-0.2679491924311069
  0
VERTEX
  5
2572
  8
SAPA_PROFIL
 10
74.789254488339083
 20
-8.7499999990103845
 30
0.0
  0
VERTEX
  5
2573
  8
SAPA_PROFIL
 10
75.799617459421171
 20
-10.49999999901052
 30
0.0
 42
0.2679491924311082
  0
VERTEX
  5
2574
  8
SAPA_PROFIL
 10
76.665642863205591
 20
-10.9999999990104
 30
0.0
  0
VERTEX
  5
2575
  8
SAPA_PROFIL
 10
78.051283509260685
 20
-10.999999999010409
 30
0.0
 42
0.5773502691897738
  0
VERTEX
  5
2576
  8
SAPA_PROFIL
 10
78.224488590017472
 20
-10.699999999010339
 30
0.0
  0
VERTEX
  5
2577
  8
SAPA_PROFIL
 10
77.300728159314204
 20
-9.099999999010663
 30
0.0
  0
VERTEX
  5
2578
  8
SAPA_PROFIL
 10
77.300728159314204
 20
-8.7999999990104811
 30
0.0
 42
-0.4142135623729009
  0
VERTEX
  5
2579
  8
SAPA_PROFIL
 10
77.600728159314073
 20
-8.4999999990103472
 30
0.0
  0
SEQEND
  5
257A
  8
SAPA_PROFIL
  0
POLYLINE
  5
1A4A
  8
SAPA_PROFIL
 66
     1
 10
0.0
 20
0.0
 30
0.0
 70
     1
  0
VERTEX
  5
257B
  8
SAPA_PROFIL
 10
79.799999994655991
 20
-6.3999999990103902
 30
0.0
 42
0.4142135623730951
  0
VERTEX
  5
257C
  8
SAPA_PROFIL
 10
79.599999994655974
 20
-6.1999999990103438
 30
0.0
  0
VERTEX
  5
257D
  8
SAPA_PROFIL
 10
77.999999994655951
 20
-6.1999999990104007
 30
0.0
 42
0.4142135623730951
  0
VERTEX
  5
257E
  8
SAPA_PROFIL
 10
77.799999994655906
 20
-6.3999999990103902
 30
0.0
  0
VERTEX
  5
257F
  8
SAPA_PROFIL
 10
77.799999994655906
 20
-6.7000000828837178
 30
0.0
  0
VERTEX
  5
2580
  8
SAPA_PROFIL
 10
41.69999999465594
 20
-6.7000000828837232
 30
0.0
  0
VERTEX
  5
2581
  8
SAPA_PROFIL
 10
41.699999994655968
 20
-6.3999999990103937
 30
0.0
 42
0.4142135623730951
  0
VERTEX
  5
2582
  8
SAPA_PROFIL
 10
41.499999994655937
 20
-6.1999999990103491
 30
0.0
  0
VERTEX
  5
2583
  8
SAPA_PROFIL
 10
39.899999994655929
 20
-6.1999999990104051
 30
0.0
 42
0.4142135623730951
  0
VERTEX
  5
2584
  8
SAPA_PROFIL
 10
39.69999999465594
 20
-6.3999999990103937
 30
0.0
  0
VERTEX
  5
2585
  8
SAPA_PROFIL
 10
39.69999999465594
 20
-6.7000000828837232
 30
0.0
  0
VERTEX
  5
2586
  8
SAPA_PROFIL
 10
37.999999994655951
 20
-6.7000000828836743
 30
0.0
 42
-0.4142135623730951
  0
VERTEX
  5
2587
  8
SAPA_PROFIL
 10
37.69999999465594
 20
-6.4000000828837118
 30
0.0
  0
VERTEX
  5
2588
  8
SAPA_PROFIL
 10
37.699999994655968
 20
11.20000000098962
 30
0.0
 42
-0.414213562373095
  0
VERTEX
  5
2589
  8
SAPA_PROFIL
 10
37.999999994655951
 20
11.50000000098958
 30
0.0
  0
VERTEX
  5
258A
  8
SAPA_PROFIL
 10
39.69999999465594
 20
11.50000000098958
 30
0.0
  0
VERTEX
  5
258B
  8
SAPA_PROFIL
 10
39.69999999465594
 20
11.400000000989561
 30
0.0
 42
0.4142135623730951
  0
VERTEX
  5
258C
  8
SAPA_PROFIL
 10
39.899999994655929
 20
11.20000000098962
 30
0.0
  0
VERTEX
  5
258D
  8
SAPA_PROFIL
 10
41.499999994655937
 20
11.20000000098956
 30
0.0
 42
0.4142135623730951
  0
VERTEX
  5
258E
  8
SAPA_PROFIL
 10
41.69999999465594
 20
11.400000000989561
 30
0.0
  0
VERTEX
  5
258F
  8
SAPA_PROFIL
 10
41.69999999465594
 20
11.50000000098958
 30
0.0
  0
VERTEX
  5
2590
  8
SAPA_PROFIL
 10
77.799999994655906
 20
11.50000000098958
 30
0.0
  0
VERTEX
  5
2591
  8
SAPA_PROFIL
 10
77.799999994655963
 20
11.400000000989561
 30
0.0
 42
0.4142135623730951
  0
VERTEX
  5
2592
  8
SAPA_PROFIL
 10
77.999999994655951
 20
11.200000000989631
 30
0.0
  0
VERTEX
  5
2593
  8
SAPA_PROFIL
 10
79.599999994655974
 20
11.200000000989579
 30
0.0
 42
0.4142135623730898
  0
VERTEX
  5
2594
  8
SAPA_PROFIL
 10
79.799999994655906
 20
11.400000000989561
 30
0.0
  0
VERTEX
  5
2595
  8
SAPA_PROFIL
 10
79.799999994655906
 20
11.50000000098958
 30
0.0
  0
VERTEX
  5
2596
  8
SAPA_PROFIL
 10
81.499999994655951
 20
11.50000000098964
 30
0.0
 42
-0.4142135623730953
  0
VERTEX
  5
2597
  8
SAPA_PROFIL
 10
81.799999994655906
 20
11.200000000989631
 30
0.0
  0
VERTEX
  5
2598
  8
SAPA_PROFIL
 10
81.799999994655963
 20
-6.4000000828837074
 30
0.0
 42
-0.4142135623730951
  0
VERTEX
  5
2599
  8
SAPA_PROFIL
 10
81.499999994655951
 20
-6.7000000828837178
 30
0.0
  0
VERTEX
  5
259A
  8
SAPA_PROFIL
 10
79.799999994655906
 20
-6.7000000828837178
 30
0.0
  0
SEQEND
  5
259B
  8
SAPA_PROFIL
  0
POLYLINE
  5
1A4B
  8
SAPA_PROFIL
 66
     1
 10
0.0
 20
0.0
 30
0.0
 70
     1
  0
VERTEX
  5
259C
  8
SAPA_PROFIL
 10
33.246485425497703
 20
-50.499999999010377
 30
0.0
  0
VERTEX
  5
259D
  8
SAPA_PROFIL
 10
37.099271829997747
 20
-50.499999999010377
 30
0.0
 42
0.414213562372901
  0
VERTEX
  5
259E
  8
SAPA_PROFIL
 10
37.399271829997623
 20
-50.199999999010309
 30
0.0
  0
VERTEX
  5
259F
  8
SAPA_PROFIL
 10
37.39927182999768
 20
-49.899999999010127
 30
0.0
  0
VERTEX
  5
25A0
  8
SAPA_PROFIL
 10
36.47551139929439
 20
-48.299999999010467
 30
0.0
 42
-0.5773502691897976
  0
VERTEX
  5
25A1
  8
SAPA_PROFIL
 10
36.648716480051149
 20
-47.999999999010377
 30
0.0
  0
VERTEX
  5
25A2
  8
SAPA_PROFIL
 10
38.0343571261063
 20
-47.999999999010377
 30
0.0
 42
-0.2679491924311222
  0
VERTEX
  5
25A3
  8
SAPA_PROFIL
 10
38.90038252989072
 20
-48.499999999010242
 30
0.0
  0
VERTEX
  5
25A4
  8
SAPA_PROFIL
 10
39.910745500972808
 20
-50.249999999010413
 30
0.0
 42
0.2679491924310994
  0
VERTEX
  5
25A5
  8
SAPA_PROFIL
 10
40.343758202865011
 20
-50.499999999010413
 30
0.0
  0
VERTEX
  5
25A6
  8
SAPA_PROFIL
 10
74.356241786446915
 20
-50.499999999010377
 30
0.0
 42
0.2679491924311005
  0
VERTEX
  5
25A7
  8
SAPA_PROFIL
 10
74.789254488339125
 20
-50.249999999010413
 30
0.0
  0
VERTEX
  5
25A8
  8
SAPA_PROFIL
 10
75.799617459421185
 20
-48.499999999010207
 30
0.0
 42
-0.2679491924311199
  0
VERTEX
  5
25A9
  8
SAPA_PROFIL
 10
76.665642863205633
 20
-47.999999999010377
 30
0.0
  0
VERTEX
  5
25AA
  8
SAPA_PROFIL
 10
78.051283509260756
 20
-47.99999999901037
 30
0.0
 42
-0.5773502691897738
  0
VERTEX
  5
25AB
  8
SAPA_PROFIL
 10
78.224488590017543
 20
-48.299999999010453
 30
0.0
  0
VERTEX
  5
25AC
  8
SAPA_PROFIL
 10
77.300728159314232
 20
-49.899999999010127
 30
0.0
  0
VERTEX
  5
25AD
  8
SAPA_PROFIL
 10
77.300728159314232
 20
-50.199999999010309
 30
0.0
 42
0.414213562372901
  0
VERTEX
  5
25AE
  8
SAPA_PROFIL
 10
77.600728159314144
 20
-50.499999999010441
 30
0.0
  0
VERTEX
  5
25AF
  8
SAPA_PROFIL
 10
81.453514563814238
 20
-50.499999999010377
 30
0.0
 42
-0.2134217652834299
  0
VERTEX
  5
25B0
  8
SAPA_PROFIL
 10
81.677121361564303
 20
-50.599999999010507
 30
0.0
 42
0.7625858545243327
  0
VERTEX
  5
25B1
  8
SAPA_PROFIL
 10
82.007447442581366
 20
-50.415420796813031
 30
0.0
  0
VERTEX
  5
25B2
  8
SAPA_PROFIL
 10
81.949373805592259
 20
-50.224037796819317
 30
0.0
  0
VERTEX
  5
25B3
  8
SAPA_PROFIL
 10
80.864809358620519
 20
-48.338194104958262
 30
0.0
  0
VERTEX
  5
25B4
  8
SAPA_PROFIL
 10
80.543051630402246
 20
-48.348755471185243
 30
0.0
 42
-0.5773502691897466
  0
VERTEX
  5
25B5
  8
SAPA_PROFIL
 10
80.360097890292096
 20
-48.054599170930402
 30
0.0
  0
VERTEX
  5
25B6
  8
SAPA_PROFIL
 10
80.512231801400816
 20
-47.769916887698749
 30
0.0
 42
-0.221694662643014
  0
VERTEX
  5
25B7
  8
SAPA_PROFIL
 10
81.053111632877645
 20
-47.36410798254397
 30
0.0
  0
VERTEX
  5
25B8
  8
SAPA_PROFIL
 10
82.866342103535885
 20
-46.982661386416247
 30
0.0
 42
-0.4769755326981641
  0
VERTEX
  5
25B9
  8
SAPA_PROFIL
 10
83.23799897848177
 20
-47.284914210922722
 30
0.0
  0
VERTEX
  5
25BA
  8
SAPA_PROFIL
 10
83.237915370598117
 20
-48.788015291684729
 30
0.0
  0
VERTEX
  5
25BB
  8
SAPA_PROFIL
 10
83.190069620599644
 20
-48.802533700931832
 30
0.0
 42
0.4142135623730878
  0
VERTEX
  5
25BC
  8
SAPA_PROFIL
 10
82.990105576092233
 20
-49.176718656407637
 30
0.0
  0
VERTEX
  5
25BD
  8
SAPA_PROFIL
 10
83.499999994655909
 20
-50.49595165816946
 30
0.0
  0
VERTEX
  5
25BE
  8
SAPA_PROFIL
 10
83.499999994655937
 20
-61.899999915162823
 30
0.0
 42
0.4142135623730847
  0
VERTEX
  5
25BF
  8
SAPA_PROFIL
 10
83.699999994655954
 20
-62.099999915162833
 30
0.0
  0
VERTEX
  5
25C0
  8
SAPA_PROFIL
 10
85.299999992586521
 20
-62.099999915162812
 30
0.0
 42
-0.4142135623730951
  0
VERTEX
  5
25C1
  8
SAPA_PROFIL
 10
85.499999992586538
 20
-62.299999915162829
 30
0.0
  0
VERTEX
  5
25C2
  8
SAPA_PROFIL
 10
85.499999992586538
 20
-62.799999915163312
 30
0.0
 42
-0.4142135623730951
  0
VERTEX
  5
25C3
  8
SAPA_PROFIL
 10
84.499999992586908
 20
-63.799999915162893
 30
0.0
  0
VERTEX
  5
25C4
  8
SAPA_PROFIL
 10
76.9999992455122
 20
-63.799999915162893
 30
0.0
 42
0.4142135623730951
  0
VERTEX
  5
25C5
  8
SAPA_PROFIL
 10
75.999999992586609
 20
-64.799999168088476
 30
0.0
  0
VERTEX
  5
25C6
  8
SAPA_PROFIL
 10
75.999999992586467
 20
-70.499999999010384
 30
0.0
 42
-0.4142135623730951
  0
VERTEX
  5
25C7
  8
SAPA_PROFIL
 10
73.999999992586467
 20
-72.499999999010384
 30
0.0
  0
VERTEX
  5
25C8
  8
SAPA_PROFIL
 10
9.4999999946559974
 20
-72.499999999010384
 30
0.0
 42
-0.4142139999999795
  0
VERTEX
  5
25C9
  8
SAPA_PROFIL
 10
8.9999999946559974
 20
-71.999999999010384
 30
0.0
  0
VERTEX
  5
25CA
  8
SAPA_PROFIL
 10
8.9999999946560116
 20
-68.299999999010367
 30
0.0
 42
-0.414213999999917
  0
VERTEX
  5
25CB
  8
SAPA_PROFIL
 10
9.2999999946559377
 20
-67.999999999010384
 30
0.0
  0
VERTEX
  5
25CC
  8
SAPA_PROFIL
 10
10.067544994655981
 20
-67.999999999010384
 30
0.0
 42
-0.2896899999999867
  0
VERTEX
  5
25CD
  8
SAPA_PROFIL
 10
10.97105299465594
 20
-68.571427999010382
 30
0.0
 42
-0.5507600000000635
  0
VERTEX
  5
25CE
  8
SAPA_PROFIL
 10
10.699999994655981
 20
-68.999999999010384
 30
0.0
  0
VERTEX
  5
25CF
  8
SAPA_PROFIL
 10
10.49999999465599
 20
-68.999999999010384
 30
0.0
 42
0.4142140000000558
  0
VERTEX
  5
25D0
  8
SAPA_PROFIL
 10
10.199999994655929
 20
-69.299999999010353
 30
0.0
  0
VERTEX
  5
25D1
  8
SAPA_PROFIL
 10
10.19999999465597
 20
-70.799999999010367
 30
0.0
 42
0.4142139999999795
  0
VERTEX
  5
25D2
  8
SAPA_PROFIL
 10
10.699999994655981
 20
-71.299999999010353
 30
0.0
  0
VERTEX
  5
25D3
  8
SAPA_PROFIL
 10
13.999999994656021
 20
-71.299999999010367
 30
0.0
 42
0.4142140000000003
  0
VERTEX
  5
25D4
  8
SAPA_PROFIL
 10
14.49999999465607
 20
-70.799999999010367
 30
0.0
  0
VERTEX
  5
25D5
  8
SAPA_PROFIL
 10
14.499999994656021
 20
-69.299999999010367
 30
0.0
 42
0.4142140000000143
  0
VERTEX
  5
25D6
  8
SAPA_PROFIL
 10
14.199999994655959
 20
-68.999999999010342
 30
0.0
  0
VERTEX
  5
25D7
  8
SAPA_PROFIL
 10
13.999999994656021
 20
-68.999999999010384
 30
0.0
 42
-0.5507599999999967
  0
VERTEX
  5
25D8
  8
SAPA_PROFIL
 10
13.72894799465603
 20
-68.571427999010368
 30
0.0
 42
-0.2896899999999865
  0
VERTEX
  5
25D9
  8
SAPA_PROFIL
 10
14.63245599465594
 20
-67.999999999010384
 30
0.0
  0
VERTEX
  5
25DA
  8
SAPA_PROFIL
 10
15.62992699465593
 20
-67.999999999010384
 30
0.0
 42
-0.0436609999999814
  0
VERTEX
  5
25DB
  8
SAPA_PROFIL
 10
15.71675199465591
 20
-68.007595999010391
 30
0.0
  0
VERTEX
  5
25DC
  8
SAPA_PROFIL
 10
17.286823994655929
 20
-68.28444199901034
 30
0.0
 42
-0.839099999999982
  0
VERTEX
  5
25DD
  8
SAPA_PROFIL
 10
17.286823994655929
 20
-69.269249999010384
 30
0.0
  0
VERTEX
  5
25DE
  8
SAPA_PROFIL
 10
16.113175994655929
 20
-69.476194999010374
 30
0.0
 42
0.3639700000000465
  0
VERTEX
  5
25DF
  8
SAPA_PROFIL
 10
15.69999999465594
 20
-69.96859899901041
 30
0.0
  0
VERTEX
  5
25E0
  8
SAPA_PROFIL
 10
15.69999999465594
 20
-70.779999999010343
 30
0.0
 42
0.4373279999999983
  0
VERTEX
  5
25E1
  8
SAPA_PROFIL
 10
16.23909499465594
 20
-71.278468999010414
 30
0.0
  0
VERTEX
  5
25E2
  8
SAPA_PROFIL
 10
30.712153268072338
 20
-70.711670512614532
 30
0.0
 42
0.4023941355297885
  0
VERTEX
  5
25E3
  8
SAPA_PROFIL
 10
30.999999994656068
 20
-70.4119167837882
 30
0.0
  0
VERTEX
  5
25E4
  8
SAPA_PROFIL
 10
30.99999999465604
 20
-69.611382999010374
 30
0.0
 42
-0.2596810000001162
  0
VERTEX
  5
25E5
  8
SAPA_PROFIL
 10
31.09469299465605
 20
-69.441351999010379
 30
0.0
  0
VERTEX
  5
25E6
  8
SAPA_PROFIL
 10
32.542039994655937
 20
-68.544952999010377
 30
0.0
 42
-0.5877030000000189
  0
VERTEX
  5
25E7
  8
SAPA_PROFIL
 10
32.999999994656037
 20
-68.799999999010396
 30
0.0
  0
VERTEX
  5
25E8
  8
SAPA_PROFIL
 10
32.999999994656037
 20
-70.199999999010373
 30
0.0
 42
0.4142139999999518
  0
VERTEX
  5
25E9
  8
SAPA_PROFIL
 10
33.299999994655941
 20
-70.499999999010356
 30
0.0
  0
VERTEX
  5
25EA
  8
SAPA_PROFIL
 10
35.69999999465594
 20
-70.499999999010384
 30
0.0
 42
0.4142140000000629
  0
VERTEX
  5
25EB
  8
SAPA_PROFIL
 10
35.99999999465598
 20
-70.199999999010373
 30
0.0
  0
VERTEX
  5
25EC
  8
SAPA_PROFIL
 10
35.999999994656008
 20
-52.799999999010403
 30
0.0
 42
0.4142140000001044
  0
VERTEX
  5
25ED
  8
SAPA_PROFIL
 10
35.69999999465594
 20
-52.499999999010299
 30
0.0
  0
VERTEX
  5
25EE
  8
SAPA_PROFIL
 10
33.299999994655941
 20
-52.499999999010392
 30
0.0
 42
0.4142140000000074
  0
VERTEX
  5
25EF
  8
SAPA_PROFIL
 10
32.999999994656072
 20
-52.799999999010403
 30
0.0
  0
VERTEX
  5
25F0
  8
SAPA_PROFIL
 10
32.999999994656072
 20
-54.199999999010373
 30
0.0
 42
-0.5920054160709848
  0
VERTEX
  5
25F1
  8
SAPA_PROFIL
 10
32.538796656541109
 20
-54.453008511768132
 30
0.0
  0
VERTEX
  5
25F2
  8
SAPA_PROFIL
 10
31.292531000328161
 20
-53.658955481946471
 30
0.0
 42
-0.2562769852931301
  0
VERTEX
  5
25F3
  8
SAPA_PROFIL
 10
31.199999994656029
 20
-53.490282973047869
 30
0.0
  0
VERTEX
  5
25F4
  8
SAPA_PROFIL
 10
31.199999994656029
 20
-50.495951658168863
 30
0.0
  0
VERTEX
  5
25F5
  8
SAPA_PROFIL
 10
31.709894413219448
 20
-49.176718656407637
 30
0.0
 42
0.4142135623730872
  0
VERTEX
  5
25F6
  8
SAPA_PROFIL
 10
31.509930368712052
 20
-48.802533700931832
 30
0.0
  0
VERTEX
  5
25F7
  8
SAPA_PROFIL
 10
31.462084618713561
 20
-48.788015291684729
 30
0.0
  0
VERTEX
  5
25F8
  8
SAPA_PROFIL
 10
31.46200101082994
 20
-47.284914210922722
 30
0.0
 42
-0.4769755326981643
  0
VERTEX
  5
25F9
  8
SAPA_PROFIL
 10
31.833657885775779
 20
-46.982661386416247
 30
0.0
  0
VERTEX
  5
25FA
  8
SAPA_PROFIL
 10
33.646888356434062
 20
-47.364107982543963
 30
0.0
 42
-0.221694662643016
  0
VERTEX
  5
25FB
  8
SAPA_PROFIL
 10
34.18776818791082
 20
-47.76991688769877
 30
0.0
  0
VERTEX
  5
25FC
  8
SAPA_PROFIL
 10
34.339902099019589
 20
-48.054599170930423
 30
0.0
 42
-0.5773502691897466
  0
VERTEX
  5
25FD
  8
SAPA_PROFIL
 10
34.156948358909411
 20
-48.348755471185228
 30
0.0
  0
VERTEX
  5
25FE
  8
SAPA_PROFIL
 10
33.835190630691159
 20
-48.338194104958262
 30
0.0
  0
VERTEX
  5
25FF
  8
SAPA_PROFIL
 10
32.750626183719419
 20
-50.224037796819317
 30
0.0
  0
VERTEX
  5
2600
  8
SAPA_PROFIL
 10
32.692552546730333
 20
-50.415420796813031
 30
0.0
 42
0.7625858545243331
  0
VERTEX
  5
2601
  8
SAPA_PROFIL
 10
33.022878627747332
 20
-50.599999999010507
 30
0.0
 42
-0.2134217652834442
  0
SEQEND
  5
2602
  8
SAPA_PROFIL
  0
POLYLINE
  5
1A4C
  8
SAPA_PROFIL
 66
     1
 10
0.0
 20
0.0
 30
0.0
 70
     1
  0
VERTEX
  5
2603
  8
SAPA_PROFIL
 10
71.999999952586521
 20
-52.599999999010379
 30
0.0
 42
-0.4142135623730951
  0
VERTEX
  5
2604
  8
SAPA_PROFIL
 10
71.799999952586504
 20
-52.799999999010403
 30
0.0
  0
VERTEX
  5
2605
  8
SAPA_PROFIL
 10
70.199999952586452
 20
-52.79999999901036
 30
0.0
 42
-0.4142135623730951
  0
VERTEX
  5
2606
  8
SAPA_PROFIL
 10
69.999999952586464
 20
-52.599999999010379
 30
0.0
  0
VERTEX
  5
2607
  8
SAPA_PROFIL
 10
69.999999952586464
 20
-52.299999915137072
 30
0.0
  0
VERTEX
  5
2608
  8
SAPA_PROFIL
 10
41.69999999465594
 20
-52.299999915137072
 30
0.0
  0
VERTEX
  5
2609
  8
SAPA_PROFIL
 10
41.69999999465594
 20
-52.599999999010379
 30
0.0
 42
-0.4142135623730951
  0
VERTEX
  5
260A
  8
SAPA_PROFIL
 10
41.499999994655937
 20
-52.799999999010403
 30
0.0
  0
VERTEX
  5
260B
  8
SAPA_PROFIL
 10
39.899999994655929
 20
-52.79999999901036
 30
0.0
 42
-0.4142135623730951
  0
VERTEX
  5
260C
  8
SAPA_PROFIL
 10
39.69999999465594
 20
-52.599999999010379
 30
0.0
  0
VERTEX
  5
260D
  8
SAPA_PROFIL
 10
39.69999999465594
 20
-52.299999915137072
 30
0.0
  0
VERTEX
  5
260E
  8
SAPA_PROFIL
 10
37.999999994655951
 20
-52.299999915137072
 30
0.0
 42
0.4142135623730951
  0
VERTEX
  5
260F
  8
SAPA_PROFIL
 10
37.69999999465594
 20
-52.599999915137033
 30
0.0
  0
VERTEX
  5
2610
  8
SAPA_PROFIL
 10
37.69999999465594
 20
-70.199999999010373
 30
0.0
 42
0.4142135623730951
  0
VERTEX
  5
2611
  8
SAPA_PROFIL
 10
37.999999994655951
 20
-70.499999999010384
 30
0.0
  0
VERTEX
  5
2612
  8
SAPA_PROFIL
 10
39.69999999465594
 20
-70.499999999010384
 30
0.0
  0
VERTEX
  5
2613
  8
SAPA_PROFIL
 10
39.69999999465594
 20
-70.399999999010362
 30
0.0
 42
-0.4142135623730951
  0
VERTEX
  5
2614
  8
SAPA_PROFIL
 10
39.899999994655929
 20
-70.199999999010373
 30
0.0
  0
VERTEX
  5
2615
  8
SAPA_PROFIL
 10
41.499999994655937
 20
-70.199999999010373
 30
0.0
 42
-0.4142135623730951
  0
VERTEX
  5
2616
  8
SAPA_PROFIL
 10
41.69999999465594
 20
-70.399999999010362
 30
0.0
  0
VERTEX
  5
2617
  8
SAPA_PROFIL
 10
41.69999999465594
 20
-70.499999999010384
 30
0.0
  0
VERTEX
  5
2618
  8
SAPA_PROFIL
 10
69.999999952586464
 20
-70.499999999010384
 30
0.0
  0
VERTEX
  5
2619
  8
SAPA_PROFIL
 10
69.999999952586464
 20
-70.399999999010362
 30
0.0
 42
-0.4142135623730951
  0
VERTEX
  5
261A
  8
SAPA_PROFIL
 10
70.199999952586452
 20
-70.199999999010373
 30
0.0
  0
VERTEX
  5
261B
  8
SAPA_PROFIL
 10
71.799999952586504
 20
-70.199999999010373
 30
0.0
 42
-0.4142135623730951
  0
VERTEX
  5
261C
  8
SAPA_PROFIL
 10
71.999999952586464
 20
-70.399999999010362
 30
0.0
  0
VERTEX
  5
261D
  8
SAPA_PROFIL
 10
71.999999952586464
 20
-70.499999999010384
 30
0.0
  0
VERTEX
  5
261E
  8
SAPA_PROFIL
 10
73.999999992586496
 20
-70.499999999010384
 30
0.0
 42
0.4142135623732158
  0
VERTEX
  5
261F
  8
SAPA_PROFIL
 10
74.299999992586592
 20
-70.199999999010402
 30
0.0
  0
VERTEX
  5
2620
  8
SAPA_PROFIL
 10
74.299999992586535
 20
-64.799999168088476
 30
0.0
 42
-0.4142135623730951
  0
VERTEX
  5
2621
  8
SAPA_PROFIL
 10
76.9999992455122
 20
-62.099999915162812
 30
0.0
  0
VERTEX
  5
2622
  8
SAPA_PROFIL
 10
81.499999994655965
 20
-62.099999915162812
 30
0.0
 42
0.4142135623730951
  0
VERTEX
  5
2623
  8
SAPA_PROFIL
 10
81.799999994655948
 20
-61.799999915162822
 30
0.0
  0
VERTEX
  5
2624
  8
SAPA_PROFIL
 10
81.799999994655948
 20
-52.599999915137033
 30
0.0
 42
0.4142135623730951
  0
VERTEX
  5
2625
  8
SAPA_PROFIL
 10
81.499999994655937
 20
-52.299999915137072
 30
0.0
  0
VERTEX
  5
2626
  8
SAPA_PROFIL
 10
71.999999952586464
 20
-52.299999915137072
 30
0.0
  0
SEQEND
  5
2627
  8
SAPA_PROFIL
  0
POLYLINE
  5
1A4D
  8
SAPA_PROFIL
 62
     4
 66
     1
 10
0.0
 20
0.0
 30
0.0
  0
VERTEX
  5
2628
  8
SAPA_PROFIL
 62
     4
 10
33.932281080502953
 20
-38.549329121450057
 30
0.0
 42
0.5571646428658034
  0
VERTEX
  5
2629
  8
SAPA_PROFIL
 62
     4
 10
34.799999994658499
 20
-38.012368617313243
 30
0.0
  0
VERTEX
  5
262A
  8
SAPA_PROFIL
 62
     4
 10
34.799999994658037
 20
-20.987631380792038
 30
0.0
 42
0.5571645048035741
  0
VERTEX
  5
262B
  8
SAPA_PROFIL
 62
     4
 10
33.932281306791872
 20
-20.450670763830981
 30
0.0
  0
VERTEX
  5
262C
  8
SAPA_PROFIL
 62
     4
 10
32.266140650723841
 20
-21.28137785137768
 30
0.0
 42
0.284385813979063
  0
VERTEX
  5
262D
  8
SAPA_PROFIL
 62
     4
 10
32.0999999946564
 20
-21.549858159858029
 30
0.0
  0
VERTEX
  5
262E
  8
SAPA_PROFIL
 62
     4
 10
32.099999994656407
 20
-37.45014183824734
 30
0.0
 42
0.2843858139786238
  0
VERTEX
  5
262F
  8
SAPA_PROFIL
 62
     4
 10
32.266140650723337
 20
-37.718622146727633
 30
0.0
  0
VERTEX
  5
2630
  8
SAPA_PROFIL
 62
     4
 10
33.932281306792682
 20
-38.549329234274794
 30
0.0
  0
SEQEND
  5
2631
  8
SAPA_PROFIL
 62
     4
  0
POLYLINE
  5
1A4E
  8
SAPA_PROFIL
 62
     4
 66
     1
 10
0.0
 20
0.0
 30
0.0
 70
     1
  0
VERTEX
  5
2632
  8
SAPA_PROFIL
 62
     4
 10
31.743168480158829
 20
-15.082388814385389
 30
0.0
  0
VERTEX
  5
2633
  8
SAPA_PROFIL
 62
     4
 10
31.336608284154689
 20
-14.818365536009379
 30
0.0
 42
-0.2539676464751066
  0
VERTEX
  5
2634
  8
SAPA_PROFIL
 62
     4
 10
31.19999999465858
 20
-14.566764365624669
 30
0.0
  0
VERTEX
  5
2635
  8
SAPA_PROFIL
 62
     4
 10
31.19999999465858
 20
-13.18526478041932
 30
0.0
 42
-0.3152987888790479
  0
VERTEX
  5
2636
  8
SAPA_PROFIL
 62
     4
 10
31.52898992299674
 20
-12.715418470027011
 30
0.0
  0
VERTEX
  5
2637
  8
SAPA_PROFIL
 62
     4
 10
33.989820113448019
 20
-11.8197495291184
 30
0.0
 42
0.2694959974287434
  0
VERTEX
  5
2638
  8
SAPA_PROFIL
 62
     4
 10
34.182952087791911
 20
-11.58823048271705
 30
0.0
 42
0.0612686379508233
  0
VERTEX
  5
2639
  8
SAPA_PROFIL
 62
     4
 10
34.196535458422431
 20
-11.29555504986377
 30
0.0
  0
VERTEX
  5
263A
  8
SAPA_PROFIL
 62
     4
 10
34.398272137151253
 20
-10.946136872555501
 30
0.0
 42
0.5773502691891679
  0
VERTEX
  5
263B
  8
SAPA_PROFIL
 62
     4
 10
34.216406802356687
 20
-10.631136872555921
 30
0.0
  0
VERTEX
  5
263C
  8
SAPA_PROFIL
 62
     4
 10
33.949292274230373
 20
-10.631136872555681
 30
0.0
  0
VERTEX
  5
263D
  8
SAPA_PROFIL
 62
     4
 10
33.140608812922054
 20
-9.2326091719214247
 30
0.0
 42
-0.1318219888653519
  0
VERTEX
  5
263E
  8
SAPA_PROFIL
 62
     4
 10
33.100316416384658
 20
-9.0824360694490807
 30
0.0
  0
VERTEX
  5
263F
  8
SAPA_PROFIL
 62
     4
 10
33.100316416391031
 20
-8.8999999990123015
 30
0.0
 42
-0.4142135623724291
  0
VERTEX
  5
2640
  8
SAPA_PROFIL
 62
     4
 10
33.50031641639066
 20
-8.4999999990117558
 30
0.0
  0
VERTEX
  5
2641
  8
SAPA_PROFIL
 62
     4
 10
36.900316416391661
 20
-8.4999999990131201
 30
0.0
 42
-0.4142135623744271
  0
VERTEX
  5
2642
  8
SAPA_PROFIL
 62
     4
 10
37.300316416392661
 20
-8.8999999990123015
 30
0.0
  0
VERTEX
  5
2643
  8
SAPA_PROFIL
 62
     4
 10
37.300316416393301
 20
-9.0796152412836051
 30
0.0
 42
-0.1316524975874005
  0
VERTEX
  5
2644
  8
SAPA_PROFIL
 62
     4
 10
37.26012403752771
 20
-9.2296152412804204
 30
0.0
  0
VERTEX
  5
2645
  8
SAPA_PROFIL
 62
     4
 10
36.333974590875172
 20
-10.83375313828267
 30
0.0
 42
0.1316524975875904
  0
VERTEX
  5
2646
  8
SAPA_PROFIL
 62
     4
 10
36.199999994660409
 20
-11.333753138284379
 30
0.0
  0
VERTEX
  5
2647
  8
SAPA_PROFIL
 62
     4
 10
36.199999994660409
 20
-11.749999999011751
 30
0.0
 42
0.4142135623730951
  0
VERTEX
  5
2648
  8
SAPA_PROFIL
 62
     4
 10
37.199999994660402
 20
-12.749999999011751
 30
0.0
  0
VERTEX
  5
2649
  8
SAPA_PROFIL
 62
     4
 10
40.199999994657666
 20
-12.749999999011751
 30
0.0
 42
-0.9999996830128083
  0
VERTEX
  5
264A
  8
SAPA_PROFIL
 62
     4
 10
40.199999994659493
 20
-13.749999999011751
 30
0.0
  0
VERTEX
  5
264B
  8
SAPA_PROFIL
 62
     4
 10
37.1999999946595
 20
-13.749999999011751
 30
0.0
 42
0.4142135623730951
  0
VERTEX
  5
264C
  8
SAPA_PROFIL
 62
     4
 10
36.199999994659493
 20
-14.749999999011751
 30
0.0
  0
VERTEX
  5
264D
  8
SAPA_PROFIL
 62
     4
 10
36.1999999946595
 20
-44.249999999096332
 30
0.0
 42
0.4142135623730951
  0
VERTEX
  5
264E
  8
SAPA_PROFIL
 62
     4
 10
37.1999999946595
 20
-45.249999999096339
 30
0.0
  0
VERTEX
  5
264F
  8
SAPA_PROFIL
 62
     4
 10
40.199999994657681
 20
-45.249999999096339
 30
0.0
 42
-0.9999999999999998
  0
VERTEX
  5
2650
  8
SAPA_PROFIL
 62
     4
 10
40.199999994657681
 20
-46.249999999096339
 30
0.0
  0
VERTEX
  5
2651
  8
SAPA_PROFIL
 62
     4
 10
37.1999999946595
 20
-46.249999999096339
 30
0.0
 42
0.4142135623736278
  0
VERTEX
  5
2652
  8
SAPA_PROFIL
 62
     4
 10
36.1999999946595
 20
-47.249999999096332
 30
0.0
  0
VERTEX
  5
2653
  8
SAPA_PROFIL
 62
     4
 10
36.1999999946595
 20
-47.666246859822799
 30
0.0
 42
0.1316524975874375
  0
VERTEX
  5
2654
  8
SAPA_PROFIL
 62
     4
 10
36.333974590875542
 20
-48.166246859822998
 30
0.0
  0
VERTEX
  5
2655
  8
SAPA_PROFIL
 62
     4
 10
37.26012403752771
 20
-49.770384756824939
 30
0.0
 42
-0.1316524975874
  0
VERTEX
  5
2656
  8
SAPA_PROFIL
 62
     4
 10
37.300316416393301
 20
-49.920384756824483
 30
0.0
  0
VERTEX
  5
2657
  8
SAPA_PROFIL
 62
     4
 10
37.300316416392668
 20
-50.099999999095793
 30
0.0
 42
-0.4142135623744271
  0
VERTEX
  5
2658
  8
SAPA_PROFIL
 62
     4
 10
36.900316416391668
 20
-50.499999999094968
 30
0.0
  0
VERTEX
  5
2659
  8
SAPA_PROFIL
 62
     4
 10
33.500316416390667
 20
-50.499999999096332
 30
0.0
 42
-0.4142135623724291
  0
VERTEX
  5
265A
  8
SAPA_PROFIL
 62
     4
 10
33.100316416391031
 20
-50.099999999095793
 30
0.0
  0
VERTEX
  5
265B
  8
SAPA_PROFIL
 62
     4
 10
33.100316416384672
 20
-49.917563928659021
 30
0.0
 42
-0.1318219888653524
  0
VERTEX
  5
265C
  8
SAPA_PROFIL
 62
     4
 10
33.140608812922054
 20
-49.76739082618667
 30
0.0
  0
VERTEX
  5
265D
  8
SAPA_PROFIL
 62
     4
 10
33.949292274146387
 20
-48.368863125707009
 30
0.0
  0
VERTEX
  5
265E
  8
SAPA_PROFIL
 62
     4
 10
34.21640680235943
 20
-48.368863125707009
 30
0.0
 42
0.577350269189159
  0
VERTEX
  5
265F
  8
SAPA_PROFIL
 62
     4
 10
34.398272137154002
 20
-48.053863125707423
 30
0.0
  0
VERTEX
  5
2660
  8
SAPA_PROFIL
 62
     4
 10
34.196535458476887
 20
-47.704444948488756
 30
0.0
 42
0.0612687673629489
  0
VERTEX
  5
2661
  8
SAPA_PROFIL
 62
     4
 10
34.182952087790682
 20
-47.411769515388542
 30
0.0
 42
0.2694959974285039
  0
VERTEX
  5
2662
  8
SAPA_PROFIL
 62
     4
 10
33.989820113446733
 20
-47.180250468988021
 30
0.0
  0
VERTEX
  5
2663
  8
SAPA_PROFIL
 62
     4
 10
31.528989922993571
 20
-46.284581528078348
 30
0.0
 42
-0.3152987888784035
  0
VERTEX
  5
2664
  8
SAPA_PROFIL
 62
     4
 10
31.199999994656991
 20
-45.814735217685133
 30
0.0
  0
VERTEX
  5
2665
  8
SAPA_PROFIL
 62
     4
 10
31.19999999465859
 20
-44.433235632480688
 30
0.0
 42
-0.2539676464741841
  0
VERTEX
  5
2666
  8
SAPA_PROFIL
 62
     4
 10
31.336608284153861
 20
-44.181634462096611
 30
0.0
  0
VERTEX
  5
2667
  8
SAPA_PROFIL
 62
     4
 10
31.74316848015884
 20
-43.917611183719977
 30
0.0
 42
-0.5862177598324623
  0
VERTEX
  5
2668
  8
SAPA_PROFIL
 62
     4
 10
32.199999994655343
 20
-44.173352998958322
 30
0.0
  0
VERTEX
  5
2669
  8
SAPA_PROFIL
 62
     4
 10
32.199999994647683
 20
-45.114527679468132
 30
0.0
 42
0.3152987888813165
  0
VERTEX
  5
266A
  8
SAPA_PROFIL
 62
     4
 10
32.528989922984429
 20
-45.584373989865888
 30
0.0
  0
VERTEX
  5
266B
  8
SAPA_PROFIL
 62
     4
 10
33.728989922995659
 20
-46.021138270989837
 30
0.0
 42
0.5205670505515651
  0
VERTEX
  5
266C
  8
SAPA_PROFIL
 62
     4
 10
34.399999994658408
 20
-45.551291960596622
 30
0.0
  0
VERTEX
  5
266D
  8
SAPA_PROFIL
 62
     4
 10
34.399999994658437
 20
-40.534851019927771
 30
0.0
 42
0.3702522326300203
  0
VERTEX
  5
266E
  8
SAPA_PROFIL
 62
     4
 10
34.145540041992732
 20
-40.238327658134438
 30
0.0
 42
0.0982365330332397
  0
VERTEX
  5
266F
  8
SAPA_PROFIL
 62
     4
 10
32.457853266997731
 20
-40.147874899923487
 30
0.0
 42
0.3735060174783164
  0
VERTEX
  5
2670
  8
SAPA_PROFIL
 62
     4
 10
32.199999994657688
 20
-40.444899567834483
 30
0.0
  0
VERTEX
  5
2671
  8
SAPA_PROFIL
 62
     4
 10
32.199999994656771
 20
-40.873352998957131
 30
0.0
 42
-0.5920056181162531
  0
VERTEX
  5
2672
  8
SAPA_PROFIL
 62
     4
 10
31.738796492128849
 20
-41.126361755274537
 30
0.0
  0
VERTEX
  5
2673
  8
SAPA_PROFIL
 62
     4
 10
31.33660828415055
 20
-40.865177679118837
 30
0.0
 42
-0.2539676464746725
  0
VERTEX
  5
2674
  8
SAPA_PROFIL
 62
     4
 10
31.19999999465519
 20
-40.613576508735072
 30
0.0
  0
VERTEX
  5
2675
  8
SAPA_PROFIL
 62
     4
 10
31.199999994656761
 20
-18.386423489369381
 30
0.0
 42
-0.2539676464741819
  0
VERTEX
  5
2676
  8
SAPA_PROFIL
 62
     4
 10
31.33660828415055
 20
-18.134822318986529
 30
0.0
  0
VERTEX
  5
2677
  8
SAPA_PROFIL
 62
     4
 10
31.738796492128881
 20
-17.873638242832719
 30
0.0
 42
-0.5920055144124249
  0
VERTEX
  5
2678
  8
SAPA_PROFIL
 62
     4
 10
32.199999994656757
 20
-18.126646999148221
 30
0.0
  0
VERTEX
  5
2679
  8
SAPA_PROFIL
 62
     4
 10
32.199999969381757
 20
-18.555100476438451
 30
0.0
 42
0.3735060174775405
  0
VERTEX
  5
267A
  8
SAPA_PROFIL
 62
     4
 10
32.45785324172185
 20
-18.852125144348129
 30
0.0
 42
0.0355900683670349
  0
VERTEX
  5
267B
  8
SAPA_PROFIL
 62
     4
 10
33.073726828521643
 20
-18.896018708380389
 30
0.0
 42
0.0624282003873116
  0
VERTEX
  5
267C
  8
SAPA_PROFIL
 62
     4
 10
34.145540016716772
 20
-18.761672386137452
 30
0.0
 42
0.3702522326309292
  0
VERTEX
  5
267D
  8
SAPA_PROFIL
 62
     4
 10
34.399999969382492
 20
-18.465149024344068
 30
0.0
  0
VERTEX
  5
267E
  8
SAPA_PROFIL
 62
     4
 10
34.399999994658621
 20
-13.44870803751056
 30
0.0
 42
0.5205670505515692
  0
VERTEX
  5
267F
  8
SAPA_PROFIL
 62
     4
 10
33.728989922995652
 20
-12.978861727117341
 30
0.0
  0
VERTEX
  5
2680
  8
SAPA_PROFIL
 62
     4
 10
32.528989922986213
 20
-13.41562600824229
 30
0.0
 42
0.3152987888807539
  0
VERTEX
  5
2681
  8
SAPA_PROFIL
 62
     4
 10
32.199999994648579
 20
-13.88547231863814
 30
0.0
  0
VERTEX
  5
2682
  8
SAPA_PROFIL
 62
     4
 10
32.1999999946554
 20
-14.826646999147229
 30
0.0
 42
-0.5862175119221242
  0
VERTEX
  5
2683
  8
SAPA_PROFIL
 62
     4
 10
31.743168668900271
 20
-15.082388930129181
 30
0.0
 42
0.0000002084758573
  0
SEQEND
  5
2684
  8
SAPA_PROFIL
 62
     4
  0
POLYLINE
  5
1A4F
  8
SAPA_PROFIL
 62
     4
 66
     1
 10
0.0
 20
0.0
 30
0.0
  0
VERTEX
  5
2685
  8
SAPA_PROFIL
 62
     4
 10
80.767718908808973
 20
-38.549329121450057
 30
0.0
 42
-0.5571646428658034
  0
VERTEX
  5
2686
  8
SAPA_PROFIL
 62
     4
 10
79.899999994653427
 20
-38.012368617313228
 30
0.0
  0
VERTEX
  5
2687
  8
SAPA_PROFIL
 62
     4
 10
79.899999994653896
 20
-20.987631380792031
 30
0.0
 42
-0.5571645048035741
  0
VERTEX
  5
2688
  8
SAPA_PROFIL
 62
     4
 10
80.767718682520069
 20
-20.450670763830981
 30
0.0
  0
VERTEX
  5
2689
  8
SAPA_PROFIL
 62
     4
 10
82.433859338588078
 20
-21.28137785137767
 30
0.0
 42
-0.284385813979063
  0
VERTEX
  5
268A
  8
SAPA_PROFIL
 62
     4
 10
82.599999994655533
 20
-21.549858159858019
 30
0.0
  0
VERTEX
  5
268B
  8
SAPA_PROFIL
 62
     4
 10
82.599999994655533
 20
-37.450141838247333
 30
0.0
 42
-0.2843858139786238
  0
VERTEX
  5
268C
  8
SAPA_PROFIL
 62
     4
 10
82.433859338588604
 20
-37.718622146727618
 30
0.0
  0
VERTEX
  5
268D
  8
SAPA_PROFIL
 62
     4
 10
80.767718682519259
 20
-38.549329234274779
 30
0.0
  0
SEQEND
  5
268E
  8
SAPA_PROFIL
 62
     4
  0
POLYLINE
  5
1A50
  8
SAPA_PROFIL
 62
     4
 66
     1
 10
0.0
 20
0.0
 30
0.0
 70
     1
  0
VERTEX
  5
268F
  8
SAPA_PROFIL
 62
     4
 10
82.956831509153105
 20
-15.08238881438538
 30
0.0
  0
VERTEX
  5
2690
  8
SAPA_PROFIL
 62
     4
 10
83.363391705157241
 20
-14.81836553600937
 30
0.0
 42
0.2539676464751066
  0
VERTEX
  5
2691
  8
SAPA_PROFIL
 62
     4
 10
83.499999994653351
 20
-14.56676436562466
 30
0.0
  0
VERTEX
  5
2692
  8
SAPA_PROFIL
 62
     4
 10
83.499999994653351
 20
-13.18526478041931
 30
0.0
 42
0.3152987888790479
  0
VERTEX
  5
2693
  8
SAPA_PROFIL
 62
     4
 10
83.171010066315191
 20
-12.715418470027
 30
0.0
  0
VERTEX
  5
2694
  8
SAPA_PROFIL
 62
     4
 10
80.710179875863915
 20
-11.8197495291184
 30
0.0
 42
-0.2694959974287434
  0
VERTEX
  5
2695
  8
SAPA_PROFIL
 62
     4
 10
80.517047901520016
 20
-11.588230482717041
 30
0.0
 42
-0.0612686379508233
  0
VERTEX
  5
2696
  8
SAPA_PROFIL
 62
     4
 10
80.503464530889502
 20
-11.29555504986376
 30
0.0
  0
VERTEX
  5
2697
  8
SAPA_PROFIL
 62
     4
 10
80.301727852160681
 20
-10.946136872555501
 30
0.0
 42
-0.5773502691891679
  0
VERTEX
  5
2698
  8
SAPA_PROFIL
 62
     4
 10
80.483593186955247
 20
-10.63113687255591
 30
0.0
  0
VERTEX
  5
2699
  8
SAPA_PROFIL
 62
     4
 10
80.750707715081575
 20
-10.63113687255567
 30
0.0
  0
VERTEX
  5
269A
  8
SAPA_PROFIL
 62
     4
 10
81.55939117638988
 20
-9.2326091719214176
 30
0.0
 42
0.1318219888653519
  0
VERTEX
  5
269B
  8
SAPA_PROFIL
 62
     4
 10
81.599683572927276
 20
-9.0824360694490736
 30
0.0
  0
VERTEX
  5
269C
  8
SAPA_PROFIL
 62
     4
 10
81.599683572920924
 20
-8.8999999990122944
 30
0.0
 42
0.4142135623724291
  0
VERTEX
  5
269D
  8
SAPA_PROFIL
 62
     4
 10
81.199683572921273
 20
-8.4999999990117487
 30
0.0
  0
VERTEX
  5
269E
  8
SAPA_PROFIL
 62
     4
 10
77.799683572920273
 20
-8.4999999990131112
 30
0.0
 42
0.4142135623744271
  0
VERTEX
  5
269F
  8
SAPA_PROFIL
 62
     4
 10
77.399683572919272
 20
-8.8999999990122944
 30
0.0
  0
VERTEX
  5
26A0
  8
SAPA_PROFIL
 62
     4
 10
77.399683572918633
 20
-9.0796152412835962
 30
0.0
 42
0.1316524975874005
  0
VERTEX
  5
26A1
  8
SAPA_PROFIL
 62
     4
 10
77.439875951784231
 20
-9.2296152412804133
 30
0.0
  0
VERTEX
  5
26A2
  8
SAPA_PROFIL
 62
     4
 10
78.366025398436761
 20
-10.83375313828267
 30
0.0
 42
-0.1316524975875904
  0
VERTEX
  5
26A3
  8
SAPA_PROFIL
 62
     4
 10
78.499999994651532
 20
-11.333753138284379
 30
0.0
  0
VERTEX
  5
26A4
  8
SAPA_PROFIL
 62
     4
 10
78.499999994651532
 20
-11.749999999011751
 30
0.0
 42
-0.4142135623730951
  0
VERTEX
  5
26A5
  8
SAPA_PROFIL
 62
     4
 10
77.499999994651532
 20
-12.749999999011751
 30
0.0
  0
VERTEX
  5
26A6
  8
SAPA_PROFIL
 62
     4
 10
74.49999999465426
 20
-12.749999999011751
 30
0.0
 42
0.9999996830128083
  0
VERTEX
  5
26A7
  8
SAPA_PROFIL
 62
     4
 10
74.499999994652441
 20
-13.749999999011751
 30
0.0
  0
VERTEX
  5
26A8
  8
SAPA_PROFIL
 62
     4
 10
77.499999994652441
 20
-13.749999999011751
 30
0.0
 42
-0.4142135623730951
  0
VERTEX
  5
26A9
  8
SAPA_PROFIL
 62
     4
 10
78.499999994652441
 20
-14.749999999011751
 30
0.0
  0
VERTEX
  5
26AA
  8
SAPA_PROFIL
 62
     4
 10
78.499999994652441
 20
-44.249999999096318
 30
0.0
 42
-0.4142135623730951
  0
VERTEX
  5
26AB
  8
SAPA_PROFIL
 62
     4
 10
77.499999994652441
 20
-45.249999999096332
 30
0.0
  0
VERTEX
  5
26AC
  8
SAPA_PROFIL
 62
     4
 10
74.499999994654246
 20
-45.249999999096332
 30
0.0
 42
0.9999999999999998
  0
VERTEX
  5
26AD
  8
SAPA_PROFIL
 62
     4
 10
74.499999994654246
 20
-46.249999999096332
 30
0.0
  0
VERTEX
  5
26AE
  8
SAPA_PROFIL
 62
     4
 10
77.499999994652441
 20
-46.249999999096332
 30
0.0
 42
-0.4142135623736278
  0
VERTEX
  5
26AF
  8
SAPA_PROFIL
 62
     4
 10
78.499999994652441
 20
-47.249999999096332
 30
0.0
  0
VERTEX
  5
26B0
  8
SAPA_PROFIL
 62
     4
 10
78.499999994652427
 20
-47.666246859822792
 30
0.0
 42
-0.1316524975874375
  0
VERTEX
  5
26B1
  8
SAPA_PROFIL
 62
     4
 10
78.366025398436392
 20
-48.166246859822991
 30
0.0
  0
VERTEX
  5
26B2
  8
SAPA_PROFIL
 62
     4
 10
77.439875951784217
 20
-49.770384756824939
 30
0.0
 42
0.1316524975874
  0
VERTEX
  5
26B3
  8
SAPA_PROFIL
 62
     4
 10
77.399683572918633
 20
-49.920384756824483
 30
0.0
  0
VERTEX
  5
26B4
  8
SAPA_PROFIL
 62
     4
 10
77.399683572919258
 20
-50.099999999095779
 30
0.0
 42
0.4142135623744271
  0
VERTEX
  5
26B5
  8
SAPA_PROFIL
 62
     4
 10
77.799683572920259
 20
-50.499999999094968
 30
0.0
  0
VERTEX
  5
26B6
  8
SAPA_PROFIL
 62
     4
 10
81.199683572921259
 20
-50.499999999096332
 30
0.0
 42
0.4142135623724291
  0
VERTEX
  5
26B7
  8
SAPA_PROFIL
 62
     4
 10
81.599683572920895
 20
-50.099999999095779
 30
0.0
  0
VERTEX
  5
26B8
  8
SAPA_PROFIL
 62
     4
 10
81.599683572927262
 20
-49.917563928659007
 30
0.0
 42
0.1318219888653524
  0
VERTEX
  5
26B9
  8
SAPA_PROFIL
 62
     4
 10
81.55939117638988
 20
-49.767390826186663
 30
0.0
  0
VERTEX
  5
26BA
  8
SAPA_PROFIL
 62
     4
 10
80.750707715165547
 20
-48.368863125707009
 30
0.0
  0
VERTEX
  5
26BB
  8
SAPA_PROFIL
 62
     4
 10
80.483593186952504
 20
-48.368863125707009
 30
0.0
 42
-0.577350269189159
  0
VERTEX
  5
26BC
  8
SAPA_PROFIL
 62
     4
 10
80.301727852157939
 20
-48.053863125707409
 30
0.0
  0
VERTEX
  5
26BD
  8
SAPA_PROFIL
 62
     4
 10
80.503464530835046
 20
-47.704444948488749
 30
0.0
 42
-0.0612687673629489
  0
VERTEX
  5
26BE
  8
SAPA_PROFIL
 62
     4
 10
80.517047901521252
 20
-47.411769515388528
 30
0.0
 42
-0.2694959974285039
  0
VERTEX
  5
26BF
  8
SAPA_PROFIL
 62
     4
 10
80.710179875865194
 20
-47.180250468988007
 30
0.0
  0
VERTEX
  5
26C0
  8
SAPA_PROFIL
 62
     4
 10
83.171010066318374
 20
-46.284581528078348
 30
0.0
 42
0.3152987888784035
  0
VERTEX
  5
26C1
  8
SAPA_PROFIL
 62
     4
 10
83.499999994654928
 20
-45.814735217685119
 30
0.0
  0
VERTEX
  5
26C2
  8
SAPA_PROFIL
 62
     4
 10
83.499999994653351
 20
-44.433235632480681
 30
0.0
 42
0.2539676464741841
  0
VERTEX
  5
26C3
  8
SAPA_PROFIL
 62
     4
 10
83.36339170515808
 20
-44.181634462096611
 30
0.0
  0
VERTEX
  5
26C4
  8
SAPA_PROFIL
 62
     4
 10
82.956831509153105
 20
-43.91761118371997
 30
0.0
 42
0.5862177598324623
  0
VERTEX
  5
26C5
  8
SAPA_PROFIL
 62
     4
 10
82.499999994656591
 20
-44.173352998958308
 30
0.0
  0
VERTEX
  5
26C6
  8
SAPA_PROFIL
 62
     4
 10
82.499999994664265
 20
-45.114527679468132
 30
0.0
 42
-0.3152987888813165
  0
VERTEX
  5
26C7
  8
SAPA_PROFIL
 62
     4
 10
82.171010066327497
 20
-45.584373989865881
 30
0.0
  0
VERTEX
  5
26C8
  8
SAPA_PROFIL
 62
     4
 10
80.971010066316282
 20
-46.021138270989837
 30
0.0
 42
-0.5205670505515651
  0
VERTEX
  5
26C9
  8
SAPA_PROFIL
 62
     4
 10
80.299999994653533
 20
-45.551291960596608
 30
0.0
  0
VERTEX
  5
26CA
  8
SAPA_PROFIL
 62
     4
 10
80.299999994653504
 20
-40.534851019927757
 30
0.0
 42
-0.3702522326300203
  0
VERTEX
  5
26CB
  8
SAPA_PROFIL
 62
     4
 10
80.554459947319202
 20
-40.238327658134438
 30
0.0
 42
-0.0982365330332397
  0
VERTEX
  5
26CC
  8
SAPA_PROFIL
 62
     4
 10
82.242146722314217
 20
-40.147874899923487
 30
0.0
 42
-0.3735060174783164
  0
VERTEX
  5
26CD
  8
SAPA_PROFIL
 62
     4
 10
82.499999994654246
 20
-40.444899567834469
 30
0.0
  0
VERTEX
  5
26CE
  8
SAPA_PROFIL
 62
     4
 10
82.49999999465517
 20
-40.873352998957131
 30
0.0
 42
0.5920056181162531
  0
VERTEX
  5
26CF
  8
SAPA_PROFIL
 62
     4
 10
82.961203497183092
 20
-41.12636175527453
 30
0.0
  0
VERTEX
  5
26D0
  8
SAPA_PROFIL
 62
     4
 10
83.363391705161376
 20
-40.86517767911883
 30
0.0
 42
0.2539676464746725
  0
VERTEX
  5
26D1
  8
SAPA_PROFIL
 62
     4
 10
83.499999994656747
 20
-40.613576508735058
 30
0.0
  0
VERTEX
  5
26D2
  8
SAPA_PROFIL
 62
     4
 10
83.499999994655155
 20
-18.386423489369381
 30
0.0
 42
0.2539676464741819
  0
VERTEX
  5
26D3
  8
SAPA_PROFIL
 62
     4
 10
83.363391705161376
 20
-18.134822318986519
 30
0.0
  0
VERTEX
  5
26D4
  8
SAPA_PROFIL
 62
     4
 10
82.961203497183064
 20
-17.873638242832708
 30
0.0
 42
0.5920055144124249
  0
VERTEX
  5
26D5
  8
SAPA_PROFIL
 62
     4
 10
82.49999999465517
 20
-18.126646999148221
 30
0.0
  0
VERTEX
  5
26D6
  8
SAPA_PROFIL
 62
     4
 10
82.50000001993017
 20
-18.55510047643844
 30
0.0
 42
-0.3735060174775405
  0
VERTEX
  5
26D7
  8
SAPA_PROFIL
 62
     4
 10
82.242146747590084
 20
-18.852125144348129
 30
0.0
 42
-0.0355900683670349
  0
VERTEX
  5
26D8
  8
SAPA_PROFIL
 62
     4
 10
81.626273160790305
 20
-18.896018708380382
 30
0.0
 42
-0.0624282003873116
  0
VERTEX
  5
26D9
  8
SAPA_PROFIL
 62
     4
 10
80.554459972595154
 20
-18.761672386137441
 30
0.0
 42
-0.3702522326309292
  0
VERTEX
  5
26DA
  8
SAPA_PROFIL
 62
     4
 10
80.300000019929428
 20
-18.465149024344061
 30
0.0
  0
VERTEX
  5
26DB
  8
SAPA_PROFIL
 62
     4
 10
80.299999994653305
 20
-13.448708037510549
 30
0.0
 42
-0.5205670505515692
  0
VERTEX
  5
26DC
  8
SAPA_PROFIL
 62
     4
 10
80.971010066316282
 20
-12.97886172711733
 30
0.0
  0
VERTEX
  5
26DD
  8
SAPA_PROFIL
 62
     4
 10
82.171010066325735
 20
-13.415626008242279
 30
0.0
 42
-0.3152987888807539
  0
VERTEX
  5
26DE
  8
SAPA_PROFIL
 62
     4
 10
82.499999994663355
 20
-13.885472318638129
 30
0.0
  0
VERTEX
  5
26DF
  8
SAPA_PROFIL
 62
     4
 10
82.499999994656534
 20
-14.82664699914722
 30
0.0
 42
0.5862175119221242
  0
VERTEX
  5
26E0
  8
SAPA_PROFIL
 62
     4
 10
82.956831320411666
 20
-15.082388930129181
 30
0.0
 42
-0.0000002084758573
  0
SEQEND
  5
26E1
  8
SAPA_PROFIL
 62
     4
  0
POLYLINE
  5
1A51
  8
SAPA_PROFIL
 62
     4
 66
     1
 10
0.0
 20
0.0
 30
0.0
 70
     1
  0
VERTEX
  5
26E2
  8
SAPA_PROFIL
 62
     4
 10
14.899999995558121
 20
-58.70294355321181
 30
0.0
  0
VERTEX
  5
26E3
  8
SAPA_PROFIL
 62
     4
 10
14.8999999955563
 20
-62.897056102908721
 30
0.0
 42
-0.1989123673786592
  0
VERTEX
  5
26E4
  8
SAPA_PROFIL
 62
     4
 10
14.81213202991284
 20
-63.109188137264539
 30
0.0
  0
VERTEX
  5
26E5
  8
SAPA_PROFIL
 62
     4
 10
12.58786796120193
 20
-65.333452205975448
 30
0.0
 42
0.1989123673785438
  0
VERTEX
  5
26E6
  8
SAPA_PROFIL
 62
     4
 10
12.499999995558481
 20
-65.545584240331266
 30
0.0
  0
VERTEX
  5
26E7
  8
SAPA_PROFIL
 62
     4
 10
12.4999999955603
 20
-65.999999828059629
 30
0.0
 42
0.4142135623730951
  0
VERTEX
  5
26E8
  8
SAPA_PROFIL
 62
     4
 10
12.79999999555957
 20
-66.299999828059811
 30
0.0
  0
VERTEX
  5
26E9
  8
SAPA_PROFIL
 62
     4
 10
24.699999995555761
 20
-66.299999828059811
 30
0.0
 42
-0.4142135623730951
  0
VERTEX
  5
26EA
  8
SAPA_PROFIL
 62
     4
 10
25.19999999555575
 20
-66.799999828059811
 30
0.0
  0
VERTEX
  5
26EB
  8
SAPA_PROFIL
 62
     4
 10
25.19999999555575
 20
-68.499999828059629
 30
0.0
 42
0.4142135623739832
  0
VERTEX
  5
26EC
  8
SAPA_PROFIL
 62
     4
 10
25.499999995555029
 20
-68.799999828059811
 30
0.0
  0
VERTEX
  5
26ED
  8
SAPA_PROFIL
 62
     4
 10
29.199999995557391
 20
-68.799999828059811
 30
0.0
 42
0.414213562375759
  0
VERTEX
  5
26EE
  8
SAPA_PROFIL
 62
     4
 10
29.499999995558479
 20
-68.499999828059629
 30
0.0
  0
VERTEX
  5
26EF
  8
SAPA_PROFIL
 62
     4
 10
29.499999995556671
 20
-52.006576697656612
 30
0.0
 42
0.4142135623735391
  0
VERTEX
  5
26F0
  8
SAPA_PROFIL
 62
     4
 10
29.199999995557391
 20
-51.706576697656878
 30
0.0
  0
VERTEX
  5
26F1
  8
SAPA_PROFIL
 62
     4
 10
12.79999999555957
 20
-51.706576697656878
 30
0.0
 42
0.4142135623726511
  0
VERTEX
  5
26F2
  8
SAPA_PROFIL
 62
     4
 10
12.499999995558481
 20
-52.006576697656612
 30
0.0
  0
VERTEX
  5
26F3
  8
SAPA_PROFIL
 62
     4
 10
12.499999995558481
 20
-56.054415415787453
 30
0.0
 42
0.1989123673785438
  0
VERTEX
  5
26F4
  8
SAPA_PROFIL
 62
     4
 10
12.58786796120193
 20
-56.266547450143257
 30
0.0
  0
VERTEX
  5
26F5
  8
SAPA_PROFIL
 62
     4
 10
14.812132029914659
 20
-58.490811518855992
 30
0.0
 42
-0.1989123673798886
  0
SEQEND
  5
26F6
  8
SAPA_PROFIL
 62
     4
  0
POLYLINE
  5
1A52
  8
SAPA_PROFIL
 62
     4
 66
     1
 10
0.0
 20
0.0
 30
0.0
 70
     1
  0
VERTEX
  5
26F7
  8
SAPA_PROFIL
 62
     4
 10
29.499999995558479
 20
-45.299999828060031
 30
0.0
  0
VERTEX
  5
26F8
  8
SAPA_PROFIL
 62
     4
 10
29.499999995556671
 20
-50.106576697656521
 30
0.0
 42
-0.4142135623732061
  0
VERTEX
  5
26F9
  8
SAPA_PROFIL
 62
     4
 10
29.199999995557391
 20
-50.406576697656703
 30
0.0
  0
VERTEX
  5
26FA
  8
SAPA_PROFIL
 62
     4
 10
12.79999999555957
 20
-50.406576697656703
 30
0.0
 42
-0.4142135623730951
  0
VERTEX
  5
26FB
  8
SAPA_PROFIL
 62
     4
 10
12.499999995558481
 20
-50.106576697656521
 30
0.0
  0
VERTEX
  5
26FC
  8
SAPA_PROFIL
 62
     4
 10
12.4999999955603
 20
-45.299999828060031
 30
0.0
 42
-0.4142135623731173
  0
VERTEX
  5
26FD
  8
SAPA_PROFIL
 62
     4
 10
12.799999995561389
 20
-44.999999828059849
 30
0.0
  0
VERTEX
  5
26FE
  8
SAPA_PROFIL
 62
     4
 10
29.19999999555921
 20
-44.999999828059849
 30
0.0
 42
-0.4142135623730951
  0
SEQEND
  5
26FF
  8
SAPA_PROFIL
 62
     4
  0
POLYLINE
  5
1A53
  8
SAPA_PROFIL
 62
     4
 66
     1
 10
0.0
 20
0.0
 30
0.0
 70
     1
  0
VERTEX
  5
2700
  8
SAPA_PROFIL
 62
     4
 10
10.999999995558481
 20
-56.675735759347447
 30
0.0
 42
0.1989123673799838
  0
VERTEX
  5
2701
  8
SAPA_PROFIL
 62
     4
 10
11.087867961203751
 20
-56.887867793704167
 30
0.0
  0
VERTEX
  5
2702
  8
SAPA_PROFIL
 62
     4
 10
13.312132029914659
 20
-59.112131862415083
 30
0.0
 42
-0.1989123673811189
  0
VERTEX
  5
2703
  8
SAPA_PROFIL
 62
     4
 10
13.399999995558121
 20
-59.324263896770901
 30
0.0
  0
VERTEX
  5
2704
  8
SAPA_PROFIL
 62
     4
 10
13.3999999955563
 20
-62.27573575934872
 30
0.0
 42
-0.1989123673785447
  0
VERTEX
  5
2705
  8
SAPA_PROFIL
 62
     4
 10
13.31213202991284
 20
-62.487867793704538
 30
0.0
  0
VERTEX
  5
2706
  8
SAPA_PROFIL
 62
     4
 10
11.08786796120194
 20
-64.712131862416356
 30
0.0
 42
0.1989123673785445
  0
VERTEX
  5
2707
  8
SAPA_PROFIL
 62
     4
 10
10.999999995558481
 20
-64.924263896772175
 30
0.0
  0
VERTEX
  5
2708
  8
SAPA_PROFIL
 62
     4
 10
10.9999999955603
 20
-67.299999828059811
 30
0.0
 42
0.4142135623730951
  0
VERTEX
  5
2709
  8
SAPA_PROFIL
 62
     4
 10
11.4999999955603
 20
-67.799999828059811
 30
0.0
  0
VERTEX
  5
270A
  8
SAPA_PROFIL
 62
     4
 10
23.399999995556481
 20
-67.799999828059811
 30
0.0
 42
-0.4142135623737615
  0
VERTEX
  5
270B
  8
SAPA_PROFIL
 62
     4
 10
23.699999995555761
 20
-68.099999828059993
 30
0.0
  0
VERTEX
  5
270C
  8
SAPA_PROFIL
 62
     4
 10
23.699999995555761
 20
-69.799999828059811
 30
0.0
 42
0.4142135623730951
  0
VERTEX
  5
270D
  8
SAPA_PROFIL
 62
     4
 10
24.19999999555575
 20
-70.299999828059811
 30
0.0
  0
VERTEX
  5
270E
  8
SAPA_PROFIL
 62
     4
 10
30.499999995558479
 20
-70.299999828059811
 30
0.0
 42
0.4142135623730951
  0
VERTEX
  5
270F
  8
SAPA_PROFIL
 62
     4
 10
30.999999995558479
 20
-69.799999828059811
 30
0.0
  0
VERTEX
  5
2710
  8
SAPA_PROFIL
 62
     4
 10
30.999999995554841
 20
-68.799999828059441
 30
0.0
 42
-0.4142135623735387
  0
VERTEX
  5
2711
  8
SAPA_PROFIL
 62
     4
 10
31.299999995554121
 20
-68.499999828059487
 30
0.0
  0
VERTEX
  5
2712
  8
SAPA_PROFIL
 62
     4
 10
32.8999999955563
 20
-68.499999828059941
 30
0.0
 42
-0.4142135623735394
  0
VERTEX
  5
2713
  8
SAPA_PROFIL
 62
     4
 10
33.199999995555579
 20
-68.799999828059669
 30
0.0
  0
VERTEX
  5
2714
  8
SAPA_PROFIL
 62
     4
 10
33.199999995553753
 20
-69.09999982805931
 30
0.0
 42
0.5923377296036106
  0
VERTEX
  5
2715
  8
SAPA_PROFIL
 62
     4
 10
33.661452266295328
 20
-69.352849910663565
 30
0.0
  0
VERTEX
  5
2716
  8
SAPA_PROFIL
 62
     4
 10
35.361452266296062
 20
-68.075790642366712
 30
0.0
 42
0.2560149538738703
  0
VERTEX
  5
2717
  8
SAPA_PROFIL
 62
     4
 10
35.499999995556657
 20
-67.822940559761548
 30
0.0
  0
VERTEX
  5
2718
  8
SAPA_PROFIL
 62
     4
 10
35.499999995556657
 20
-67.599999828058941
 30
0.0
 42
0.4142135623733172
  0
VERTEX
  5
2719
  8
SAPA_PROFIL
 62
     4
 10
35.199999995557391
 20
-67.299999828059669
 30
0.0
  0
VERTEX
  5
271A
  8
SAPA_PROFIL
 62
     4
 10
31.299999995554121
 20
-67.299999828059669
 30
0.0
 42
-0.4142135623735389
  0
VERTEX
  5
271B
  8
SAPA_PROFIL
 62
     4
 10
30.999999995554841
 20
-66.999999828059714
 30
0.0
  0
VERTEX
  5
271C
  8
SAPA_PROFIL
 62
     4
 10
30.999999995556671
 20
-55.999999828059543
 30
0.0
 42
-0.4142135623735387
  0
VERTEX
  5
271D
  8
SAPA_PROFIL
 62
     4
 10
31.29999999555594
 20
-55.699999828059582
 30
0.0
  0
VERTEX
  5
271E
  8
SAPA_PROFIL
 62
     4
 10
35.199999995557391
 20
-55.699999828059582
 30
0.0
 42
0.4142135623730951
  0
VERTEX
  5
271F
  8
SAPA_PROFIL
 62
     4
 10
35.499999995556657
 20
-55.399999828060309
 30
0.0
  0
VERTEX
  5
2720
  8
SAPA_PROFIL
 62
     4
 10
35.499999995556657
 20
-55.177059096357709
 30
0.0
 42
0.2560149538738701
  0
VERTEX
  5
2721
  8
SAPA_PROFIL
 62
     4
 10
35.361452266296062
 20
-54.924209013752538
 30
0.0
  0
VERTEX
  5
2722
  8
SAPA_PROFIL
 62
     4
 10
33.661452266295328
 20
-53.647149745455692
 30
0.0
 42
0.5923377296036115
  0
VERTEX
  5
2723
  8
SAPA_PROFIL
 62
     4
 10
33.199999995553753
 20
-53.899999828059947
 30
0.0
  0
VERTEX
  5
2724
  8
SAPA_PROFIL
 62
     4
 10
33.199999995555579
 20
-54.199999828059582
 30
0.0
 42
-0.4142135623735394
  0
VERTEX
  5
2725
  8
SAPA_PROFIL
 62
     4
 10
32.8999999955563
 20
-54.499999828059302
 30
0.0
  0
VERTEX
  5
2726
  8
SAPA_PROFIL
 62
     4
 10
31.29999999555594
 20
-54.499999828059771
 30
0.0
 42
-0.4142135623735389
  0
VERTEX
  5
2727
  8
SAPA_PROFIL
 62
     4
 10
30.999999995556671
 20
-54.199999828059809
 30
0.0
  0
VERTEX
  5
2728
  8
SAPA_PROFIL
 62
     4
 10
30.999999995562121
 20
-43.999999828059863
 30
0.0
 42
0.4142135623731242
  0
VERTEX
  5
2729
  8
SAPA_PROFIL
 62
     4
 10
30.499999995562121
 20
-43.499999828059849
 30
0.0
  0
VERTEX
  5
272A
  8
SAPA_PROFIL
 62
     4
 10
11.4999999955603
 20
-43.499999828059849
 30
0.0
 42
0.4142135623730951
  0
VERTEX
  5
272B
  8
SAPA_PROFIL
 62
     4
 10
10.9999999955603
 20
-43.999999828059863
 30
0.0
  0
SEQEND
  5
272C
  8
SAPA_PROFIL
 62
     4
  0
POLYLINE
  5
1A54
  8
SAPA_PROFIL
 66
     1
 10
0.0
 20
0.0
 30
0.0
 70
     1
  0
VERTEX
  5
272D
  8
SAPA_PROFIL
 10
22.800000000000178
 20
-81.098475071207986
 30
0.0
  0
VERTEX
  5
272E
  8
SAPA_PROFIL
 10
23.800000000000178
 20
-81.098475071207986
 30
0.0
  0
VERTEX
  5
272F
  8
SAPA_PROFIL
 10
23.800000000000178
 20
-78.498475071207821
 30
0.0
 42
-0.4142135623730951
  0
VERTEX
  5
2730
  8
SAPA_PROFIL
 10
24.300000000000178
 20
-77.998475071207821
 30
0.0
  0
VERTEX
  5
2731
  8
SAPA_PROFIL
 10
24.700000000000269
 20
-77.998475071207821
 30
0.0
 42
-0.4142135623730951
  0
VERTEX
  5
2732
  8
SAPA_PROFIL
 10
25.000000000000231
 20
-78.298475071207775
 30
0.0
  0
VERTEX
  5
2733
  8
SAPA_PROFIL
 10
25.000000000000231
 20
-95.99999999901047
 30
0.0
 42
-0.4142135623730951
  0
VERTEX
  5
2734
  8
SAPA_PROFIL
 10
24.500000000000231
 20
-96.499999999010484
 30
0.0
  0
VERTEX
  5
2735
  8
SAPA_PROFIL
 10
-24.499999999999769
 20
-96.499999999010484
 30
0.0
 42
-0.4142135623730951
  0
VERTEX
  5
2736
  8
SAPA_PROFIL
 10
-24.999999999999769
 20
-95.99999999901047
 30
0.0
  0
VERTEX
  5
2737
  8
SAPA_PROFIL
 10
-24.999999999999769
 20
-78.298475071207775
 30
0.0
 42
-0.4142135623730951
  0
VERTEX
  5
2738
  8
SAPA_PROFIL
 10
-24.699999999999822
 20
-77.998475071207821
 30
0.0
  0
VERTEX
  5
2739
  8
SAPA_PROFIL
 10
-24.299999999999731
 20
-77.998475071207821
 30
0.0
 42
-0.4142135623730951
  0
VERTEX
  5
273A
  8
SAPA_PROFIL
 10
-23.799999999999731
 20
-78.498475071207821
 30
0.0
  0
VERTEX
  5
273B
  8
SAPA_PROFIL
 10
-23.799999999999731
 20
-81.098475071207986
 30
0.0
  0
VERTEX
  5
273C
  8
SAPA_PROFIL
 10
-22.799999999999731
 20
-81.098475071207986
 30
0.0
  0
VERTEX
  5
273D
  8
SAPA_PROFIL
 10
-22.22033922157857
 20
-82.102507830840963
 30
0.0
 42
-0.4155392929676362
  0
VERTEX
  5
273E
  8
SAPA_PROFIL
 10
-22.51631264788443
 20
-83.197126802632965
 30
0.0
  0
VERTEX
  5
273F
  8
SAPA_PROFIL
 10
-23.799999999999731
 20
-83.938264040931927
 30
0.0
  0
VERTEX
  5
2740
  8
SAPA_PROFIL
 10
-23.799999999999731
 20
-94.099999999010606
 30
0.0
 42
0.4142135623730951
  0
VERTEX
  5
2741
  8
SAPA_PROFIL
 10
-22.799999999999731
 20
-95.099999999010606
 30
0.0
  0
VERTEX
  5
2742
  8
SAPA_PROFIL
 10
22.800000000000178
 20
-95.099999999010606
 30
0.0
 42
0.4142135623730951
  0
VERTEX
  5
2743
  8
SAPA_PROFIL
 10
23.800000000000178
 20
-94.099999999010606
 30
0.0
  0
VERTEX
  5
2744
  8
SAPA_PROFIL
 10
23.800000000000178
 20
-83.938264040931927
 30
0.0
  0
VERTEX
  5
2745
  8
SAPA_PROFIL
 10
22.516312647884892
 20
-83.197126802632965
 30
0.0
 42
-0.4155392929676362
  0
VERTEX
  5
2746
  8
SAPA_PROFIL
 10
22.220339221579032
 20
-82.102507830840963
 30
0.0
  0
SEQEND
  5
2747
  8
SAPA_PROFIL
  0
LINE
  5
1A55
  8
SAPA_PROFIL
 10
-23.300000000000072
 20
-76.49999999901047
 30
0.0
 11
-20.85000000000025
 21
-76.49999999901047
 31
0.0
  0
ARC
  5
1A56
  8
SAPA_PROFIL
 10
-23.300000000000072
 20
-76.99999999901047
 30
0.0
 40
0.5
 50
90.0
 51
180.0
  0
LINE
  5
1A57
  8
SAPA_PROFIL
 10
-23.800000000000519
 20
-80.699999999010274
 30
0.0
 11
-23.800000000000072
 21
-76.99999999901047
 31
0.0
  0
ARC
  5
1A58
  8
SAPA_PROFIL
 10
-23.500000000000341
 20
-80.699999999010274
 30
0.0
 40
0.3000000000001819
 50
180.0
 51
270.0
  0
LINE
  5
1A59
  8
SAPA_PROFIL
 10
-22.473205080757339
 20
-80.99999999901047
 30
0.0
 11
-23.500000000000341
 21
-80.99999999901047
 31
0.0
  0
ARC
  5
1A5A
  8
SAPA_PROFIL
 10
-22.473205080757449
 20
-81.299999999010396
 30
0.0
 40
0.2999999999999225
 50
29.9999999999722
 51
89.999999999978314
  0
LINE
  5
1A5B
  8
SAPA_PROFIL
 10
-21.325961894323768
 20
-82.687083486550804
 30
0.0
 11
-22.213397459622112
 21
-81.149999999010575
 31
0.0
  0
ARC
  5
1A5C
  8
SAPA_PROFIL
 10
-21.585769515458949
 20
-82.837083486550924
 30
0.0
 40
0.2999999999999183
 50
300.00000000001972
 51
30.000000000031779
  0
LINE
  5
1A5D
  8
SAPA_PROFIL
 10
-21.967911113762401
 20
-83.404123202713436
 30
0.0
 11
-21.435769515458901
 21
-83.096891107686133
 31
0.0
  0
ARC
  5
1A5E
  8
SAPA_PROFIL
 10
-21.46791111376243
 20
-84.270148606497614
 30
0.0
 40
0.9999999999997509
 50
120.00000000000639
 51
220.0000000000266
  0
LINE
  5
1A5F
  8
SAPA_PROFIL
 10
-18.115270605417091
 20
-89.821393803853425
 30
0.0
 11
-22.233955556880911
 21
-84.912936216184335
 31
0.0
  0
ARC
  5
1A60
  8
SAPA_PROFIL
 10
-17.732248383857339
 20
-89.499999999010456
 30
0.0
 40
0.5000000000000142
 50
219.99999999995401
 51
269.99999999994299
  0
LINE
  5
1A61
  8
SAPA_PROFIL
 10
-9.7002075382096091
 20
-89.999999999010484
 30
0.0
 11
-17.732248383857829
 21
-89.999999999010484
 31
0.0
  0
ARC
  5
1A62
  8
SAPA_PROFIL
 10
-9.7002075382096837
 20
-88.999999999010342
 30
0.0
 40
1.000000000000131
 50
270.00000000000409
 51
340.00000000000529
  0
LINE
  5
1A63
  8
SAPA_PROFIL
 10
-7.4196339112453407
 20
-85.657979855684516
 30
0.0
 11
-8.7605149174236203
 21
-89.342020142335954
 31
0.0
  0
ARC
  5
1A64
  8
SAPA_PROFIL
 10
-6.4799412904592639
 20
-85.999999999010171
 30
0.0
 40
1.0000000000001561
 50
90.000000000004917
 51
160.00000000000401
  0
LINE
  5
1A65
  8
SAPA_PROFIL
 10
6.4799412904591227
 20
-84.999999999010015
 30
0.0
 11
-6.4799412904593501
 21
-84.999999999010015
 31
0.0
  0
ARC
  5
1A66
  8
SAPA_PROFIL
 10
6.4799412904590374
 20
-85.999999999010171
 30
0.0
 40
1.000000000000153
 50
19.999999999995971
 51
89.999999999995069
  0
LINE
  5
1A67
  8
SAPA_PROFIL
 10
8.7605149174238477
 20
-89.342020142335954
 30
0.0
 11
7.4196339112451142
 21
-85.657979855684516
 31
0.0
  0
ARC
  5
1A68
  8
SAPA_PROFIL
 10
9.7002075382099111
 20
-88.999999999010342
 30
0.0
 40
1.000000000000127
 50
199.99999999999471
 51
269.99999999999579
  0
LINE
  5
1A69
  8
SAPA_PROFIL
 10
17.732248383857609
 20
-89.999999999010484
 30
0.0
 11
9.7002075382098383
 21
-89.999999999010484
 31
0.0
  0
ARC
  5
1A6A
  8
SAPA_PROFIL
 10
17.732248383857339
 20
-89.499999999009972
 30
0.0
 40
0.5000000000004964
 50
270.00000000003092
 51
320.00000000002029
  0
LINE
  5
1A6B
  8
SAPA_PROFIL
 10
22.233955556881138
 20
-84.912936216184335
 30
0.0
 11
18.115270605417319
 21
-89.821393803853425
 31
0.0
  0
ARC
  5
1A6C
  8
SAPA_PROFIL
 10
21.46791111376243
 20
-84.270148606497798
 30
0.0
 40
0.9999999999998065
 50
319.99999999999051
 51
60.00000000001053
  0
LINE
  5
1A6D
  8
SAPA_PROFIL
 10
21.435769515459128
 20
-83.096891107686133
 30
0.0
 11
21.96791111376217
 21
-83.404123202713436
 31
0.0
  0
ARC
  5
1A6E
  8
SAPA_PROFIL
 10
21.585769515458939
 20
-82.837083486550696
 30
0.0
 40
0.2999999999999961
 50
150.00000000002649
 51
240.00000000004141
  0
LINE
  5
1A6F
  8
SAPA_PROFIL
 10
22.213397459621891
 20
-81.149999999010575
 30
0.0
 11
21.325961894323541
 21
-82.687083486550804
 31
0.0
  0
ARC
  5
1A70
  8
SAPA_PROFIL
 10
22.473205080757229
 20
-81.299999999010396
 30
0.0
 40
0.2999999999999261
 50
90.000000000023064
 51
150.00000000002851
  0
LINE
  5
1A71
  8
SAPA_PROFIL
 10
23.500000000000568
 20
-80.99999999901047
 30
0.0
 11
22.473205080757111
 21
-80.99999999901047
 31
0.0
  0
ARC
  5
1A72
  8
SAPA_PROFIL
 10
23.500000000000341
 20
-80.699999999010515
 30
0.0
 40
0.2999999999999545
 50
270.00000000004343
 51
0.0000000000434252
  0
LINE
  5
1A73
  8
SAPA_PROFIL
 10
23.800000000000299
 20
-76.99999999901047
 30
0.0
 11
23.800000000000299
 21
-80.699999999010274
 31
0.0
  0
ARC
  5
1A74
  8
SAPA_PROFIL
 10
23.300000000000299
 20
-76.99999999901047
 30
0.0
 40
0.5
 50
0.0
 51
90.0
  0
LINE
  5
1A75
  8
SAPA_PROFIL
 10
20.850000000000019
 20
-76.49999999901047
 30
0.0
 11
23.300000000000299
 21
-76.49999999901047
 31
0.0
  0
ARC
  5
1A76
  8
SAPA_PROFIL
 10
20.849999999999909
 20
-76.799999999010154
 30
0.0
 40
0.2999999999996828
 50
89.999999999978314
 51
134.99999999999039
  0
LINE
  5
1A77
  8
SAPA_PROFIL
 10
20.237867965644121
 20
-76.98786796465447
 30
0.0
 11
20.637867965644201
 21
-76.587867964654379
 31
0.0
  0
ARC
  5
1A78
  8
SAPA_PROFIL
 10
20.450000000000291
 20
-77.199999999010373
 30
0.0
 40
0.3000000000000966
 50
135.00000000003641
 51
270.00000000001899
  0
LINE
  5
1A79
  8
SAPA_PROFIL
 10
21.300000000000299
 20
-77.49999999901047
 30
0.0
 11
20.45000000000039
 21
-77.49999999901047
 31
0.0
  0
ARC
  5
1A7A
  8
SAPA_PROFIL
 10
21.300000000000239
 20
-77.999999999010527
 30
0.0
 40
0.500000000000057
 50
0.0000000000065138
 51
89.999999999993491
  0
LINE
  5
1A7B
  8
SAPA_PROFIL
 10
21.799999999999841
 20
-78.390808928730621
 30
0.0
 11
21.800000000000288
 21
-77.999999999010456
 31
0.0
  0
ARC
  5
1A7C
  8
SAPA_PROFIL
 10
21.500000000000099
 20
-78.390808928730578
 30
0.0
 40
0.2999999999997442
 50
319.99999999999528
 51
359.99999999999193
  0
LINE
  5
1A7D
  8
SAPA_PROFIL
 10
20.211721773134862
 20
-80.392836281916061
 30
0.0
 11
21.729813332935581
 21
-78.583645211636394
 31
0.0
  0
ARC
  5
1A7E
  8
SAPA_PROFIL
 10
19.981908440199369
 20
-80.199999999010288
 30
0.0
 40
0.2999999999997129
 50
270.00000000000409
 51
320.00000000000409
  0
LINE
  5
1A7F
  8
SAPA_PROFIL
 10
16.450000000000379
 20
-80.499999999010456
 30
0.0
 11
19.98190844019939
 21
-80.499999999010015
 31
0.0
  0
ARC
  5
1A80
  8
SAPA_PROFIL
 10
16.450000000000379
 20
-80.199999999010288
 30
0.0
 40
0.3000000000001819
 50
180.0
 51
270.0
  0
LINE
  5
1A81
  8
SAPA_PROFIL
 10
16.150000000000201
 20
-77.799999999010197
 30
0.0
 11
16.150000000000201
 21
-80.199999999010288
 31
0.0
  0
ARC
  5
1A82
  8
SAPA_PROFIL
 10
16.450000000000159
 20
-77.799999999010424
 30
0.0
 40
0.2999999999999545
 50
89.999999999956557
 51
179.99999999995649
  0
LINE
  5
1A83
  8
SAPA_PROFIL
 10
16.850000000000019
 20
-77.49999999901047
 30
0.0
 11
16.450000000000379
 21
-77.49999999901047
 31
0.0
  0
ARC
  5
1A84
  8
SAPA_PROFIL
 10
16.850000000000179
 20
-77.199999999010373
 30
0.0
 40
0.3000000000000748
 50
269.9999999999701
 51
44.999999999973127
  0
LINE
  5
1A85
  8
SAPA_PROFIL
 10
16.662132034356201
 20
-76.587867964654379
 30
0.0
 11
17.062132034356289
 21
-76.98786796465447
 31
0.0
  0
ARC
  5
1A86
  8
SAPA_PROFIL
 10
16.450000000000468
 20
-76.799999999010225
 30
0.0
 40
0.2999999999997556
 50
45.000000000014857
 51
90.000000000015575
  0
LINE
  5
1A87
  8
SAPA_PROFIL
 10
14.650000000000199
 20
-76.499999999010015
 30
0.0
 11
16.450000000000379
 21
-76.49999999901047
 31
0.0
  0
ARC
  5
1A88
  8
SAPA_PROFIL
 10
14.650000000000171
 20
-76.999999999009987
 30
0.0
 40
0.4999999999999716
 50
89.999999999996746
 51
180.00000000000321
  0
LINE
  5
1A89
  8
SAPA_PROFIL
 10
14.150000000000199
 20
-81.499999999010925
 30
0.0
 11
14.150000000000199
 21
-76.999999999010015
 31
0.0
  0
ARC
  5
1A8A
  8
SAPA_PROFIL
 10
14.650000000000199
 20
-81.499999999010925
 30
0.0
 40
0.5
 50
180.0
 51
270.0
  0
LINE
  5
1A8B
  8
SAPA_PROFIL
 10
18.650000000000201
 20
-81.999999999010015
 30
0.0
 11
14.650000000000199
 21
-81.999999999010925
 31
0.0
  0
ARC
  5
1A8C
  8
SAPA_PROFIL
 10
18.650000000000091
 20
-82.499999999010114
 30
0.0
 40
0.5000000000001137
 50
0.0000000000130276
 51
89.999999999986969
  0
LINE
  5
1A8D
  8
SAPA_PROFIL
 10
19.150000000000201
 20
-84.516956646213657
 30
0.0
 11
19.150000000000201
 21
-82.499999999010015
 31
0.0
  0
ARC
  5
1A8E
  8
SAPA_PROFIL
 10
18.649999999999981
 20
-84.516956646213444
 30
0.0
 40
0.5000000000002222
 50
319.9999999999684
 51
359.99999999997561
  0
LINE
  5
1A8F
  8
SAPA_PROFIL
 10
16.949501460029861
 20
-87.321393803853425
 30
0.0
 11
19.03302222155946
 21
-84.838350451057053
 31
0.0
  0
ARC
  5
1A90
  8
SAPA_PROFIL
 10
16.566479238470581
 20
-86.9999999990102
 30
0.0
 40
0.4999999999998153
 50
270.0000000000029
 51
319.99999999998869
  0
LINE
  5
1A91
  8
SAPA_PROFIL
 10
10.568533728391341
 20
-87.499999999010484
 30
0.0
 11
16.566479238470599
 21
-87.499999999010015
 31
0.0
  0
ARC
  5
1A92
  8
SAPA_PROFIL
 10
10.568533728391261
 20
-86.999999999010242
 30
0.0
 40
0.5000000000002258
 50
200.0000000000079
 51
270.00000000000921
  0
LINE
  5
1A93
  8
SAPA_PROFIL
 10
8.6380638705314823
 20
-83.157979855684516
 30
0.0
 11
10.09868741799812
 21
-87.171010070673219
 31
0.0
  0
ARC
  5
1A94
  8
SAPA_PROFIL
 10
7.6983712497453922
 20
-83.499999999010186
 30
0.0
 40
1.0000000000001701
 50
19.999999999996469
 51
89.999999999994287
  0
LINE
  5
1A95
  8
SAPA_PROFIL
 10
6.6500000000002037
 20
-82.499999999010015
 30
0.0
 11
7.6983712497454908
 21
-82.499999999010015
 31
0.0
  0
ARC
  5
1A96
  8
SAPA_PROFIL
 10
6.6499999999998911
 20
-82.199999999010146
 30
0.0
 40
0.2999999999998692
 50
180.00000000002709
 51
270.00000000005969
  0
LINE
  5
1A97
  8
SAPA_PROFIL
 10
6.3500000000000218
 20
-81.799999999010197
 30
0.0
 11
6.3500000000000218
 21
-82.199999999010288
 31
0.0
  0
ARC
  5
1A98
  8
SAPA_PROFIL
 10
6.0499999999998693
 20
-81.799999999010168
 30
0.0
 40
0.3000000000001535
 50
359.99999999999449
 51
90.000000000005414
  0
LINE
  5
1A99
  8
SAPA_PROFIL
 10
5.6500000000002037
 20
-81.499999999010015
 30
0.0
 11
6.04999999999984
 21
-81.499999999010015
 31
0.0
  0
ARC
  5
1A9A
  8
SAPA_PROFIL
 10
5.6500000000001762
 20
-81.799999999010168
 30
0.0
 40
0.3000000000001535
 50
89.999999999994586
 51
180.0000000000054
  0
LINE
  5
1A9B
  8
SAPA_PROFIL
 10
5.3500000000000218
 20
-82.199999999010288
 30
0.0
 11
5.3500000000000218
 21
-81.799999999010197
 31
0.0
  0
ARC
  5
1A9C
  8
SAPA_PROFIL
 10
5.0500000000001251
 20
-82.199999999010103
 30
0.0
 40
0.2999999999998977
 50
269.99999999994583
 51
359.99999999996749
  0
LINE
  5
1A9D
  8
SAPA_PROFIL
 10
0.6242640687120229
 20
-82.499999999010015
 30
0.0
 11
5.04999999999984
 21
-82.499999999010015
 31
0.0
  0
ARC
  5
1A9E
  8
SAPA_PROFIL
 10
0.6242640687125385
 20
-82.799999999010112
 30
0.0
 40
0.3000000000000977
 50
90.000000000098439
 51
135.00000000008109
  0
LINE
  5
1A9F
  8
SAPA_PROFIL
 10
0.0000000000001137
 20
-82.999999999010015
 30
0.0
 11
0.4121320343562048
 21
-82.587867964654379
 31
0.0
  0
LINE
  5
1AA0
  8
SAPA_PROFIL
 10
-0.4121320343559774
 20
-82.587867964654379
 30
0.0
 11
0.0000000000001137
 21
-82.999999999010015
 31
0.0
  0
ARC
  5
1AA1
  8
SAPA_PROFIL
 10
-0.6242640687123112
 20
-82.799999999010112
 30
0.0
 40
0.3000000000000966
 50
44.999999999918842
 51
89.999999999901505
  0
LINE
  5
1AA2
  8
SAPA_PROFIL
 10
-5.0500000000000682
 20
-82.499999999010015
 30
0.0
 11
-0.6242640687117956
 21
-82.499999999010015
 31
0.0
  0
ARC
  5
1AA3
  8
SAPA_PROFIL
 10
-5.0500000000001251
 20
-82.199999999010345
 30
0.0
 40
0.2999999999996703
 50
179.99999999998909
 51
270.0000000000108
  0
LINE
  5
1AA4
  8
SAPA_PROFIL
 10
-5.3499999999997954
 20
-81.799999999010197
 30
0.0
 11
-5.3499999999997954
 21
-82.199999999010288
 31
0.0
  0
ARC
  5
1AA5
  8
SAPA_PROFIL
 10
-5.649999999999948
 20
-81.799999999010168
 30
0.0
 40
0.3000000000001535
 50
359.99999999999449
 51
90.000000000005414
  0
LINE
  5
1AA6
  8
SAPA_PROFIL
 10
-6.0500000000000682
 20
-81.499999999010015
 30
0.0
 11
-5.6499999999999773
 21
-81.499999999010015
 31
0.0
  0
ARC
  5
1AA7
  8
SAPA_PROFIL
 10
-6.0499999999998693
 20
-81.799999999009941
 30
0.0
 40
0.2999999999999261
 50
90.000000000037971
 51
180.0000000000488
  0
LINE
  5
1AA8
  8
SAPA_PROFIL
 10
-6.3499999999997954
 20
-82.199999999010288
 30
0.0
 11
-6.3499999999997954
 21
-81.799999999010197
 31
0.0
  0
ARC
  5
1AA9
  8
SAPA_PROFIL
 10
-6.6499999999996637
 20
-82.199999999010146
 30
0.0
 40
0.2999999999998692
 50
269.9999999999402
 51
359.99999999997289
  0
LINE
  5
1AAA
  8
SAPA_PROFIL
 10
-7.6983712497457191
 20
-82.499999999010015
 30
0.0
 11
-6.6499999999999773
 21
-82.499999999010015
 31
0.0
  0
ARC
  5
1AAB
  8
SAPA_PROFIL
 10
-7.6983712497456187
 20
-83.499999999010186
 30
0.0
 40
1.0000000000001701
 50
90.000000000005699
 51
160.0000000000035
  0
LINE
  5
1AAC
  8
SAPA_PROFIL
 10
-10.098687417998351
 20
-87.171010070673219
 30
0.0
 11
-8.6380638705317097
 21
-83.157979855684516
 31
0.0
  0
ARC
  5
1AAD
  8
SAPA_PROFIL
 10
-10.568533728391261
 20
-86.999999999010569
 30
0.0
 40
0.4999999999999006
 50
270.00000000001688
 51
340.00000000001842
  0
LINE
  5
1AAE
  8
SAPA_PROFIL
 10
-16.56647923847083
 20
-87.499999999010015
 30
0.0
 11
-10.56853372839111
 21
-87.499999999010484
 31
0.0
  0
ARC
  5
1AAF
  8
SAPA_PROFIL
 10
-16.566479238470809
 20
-86.9999999990102
 30
0.0
 40
0.4999999999998141
 50
220.00000000001131
 51
269.99999999999721
  0
LINE
  5
1AB0
  8
SAPA_PROFIL
 10
-19.033022221559229
 20
-84.838350451057053
 30
0.0
 11
-16.949501460030088
 21
-87.321393803853425
 31
0.0
  0
ARC
  5
1AB1
  8
SAPA_PROFIL
 10
-18.64999999999975
 20
-84.516956646213444
 30
0.0
 40
0.5000000000002239
 50
180.00000000002439
 51
220.00000000003149
  0
LINE
  5
1AB2
  8
SAPA_PROFIL
 10
-19.149999999999981
 20
-82.499999999010015
 30
0.0
 11
-19.149999999999981
 21
-84.516956646213657
 31
0.0
  0
ARC
  5
1AB3
  8
SAPA_PROFIL
 10
-18.64999999999986
 20
-82.499999999010114
 30
0.0
 40
0.5000000000001137
 50
90.000000000013017
 51
179.99999999998701
  0
LINE
  5
1AB4
  8
SAPA_PROFIL
 10
-14.649999999999981
 20
-81.999999999010925
 30
0.0
 11
-18.649999999999981
 21
-81.999999999010015
 31
0.0
  0
ARC
  5
1AB5
  8
SAPA_PROFIL
 10
-14.649999999999981
 20
-81.499999999010925
 30
0.0
 40
0.5
 50
270.0
 51
0.0
  0
LINE
  5
1AB6
  8
SAPA_PROFIL
 10
-14.15000000000043
 20
-76.999999999010015
 30
0.0
 11
-14.149999999999981
 21
-81.499999999010925
 31
0.0
  0
ARC
  5
1AB7
  8
SAPA_PROFIL
 10
-14.6500000000004
 20
-76.999999999009987
 30
0.0
 40
0.4999999999999716
 50
359.99999999999682
 51
90.000000000003226
  0
LINE
  5
1AB8
  8
SAPA_PROFIL
 10
-16.450000000000159
 20
-76.49999999901047
 30
0.0
 11
-14.65000000000043
 21
-76.499999999010015
 31
0.0
  0
ARC
  5
1AB9
  8
SAPA_PROFIL
 10
-16.450000000000241
 20
-76.799999999010225
 30
0.0
 40
0.2999999999997557
 50
89.999999999984396
 51
134.99999999998511
  0
LINE
  5
1ABA
  8
SAPA_PROFIL
 10
-17.062132034356068
 20
-76.98786796465447
 30
0.0
 11
-16.662132034355981
 21
-76.587867964654379
 31
0.0
  0
ARC
  5
1ABB
  8
SAPA_PROFIL
 10
-16.850000000000179
 20
-77.199999999010487
 30
0.0
 40
0.2999999999999829
 50
134.99999999998269
 51
269.99999999998641
  0
LINE
  5
1ABC
  8
SAPA_PROFIL
 10
-16.450000000000159
 20
-77.49999999901047
 30
0.0
 11
-16.85000000000025
 21
-77.49999999901047
 31
0.0
  0
ARC
  5
1ABD
  8
SAPA_PROFIL
 10
-16.450000000000159
 20
-77.799999999010197
 30
0.0
 40
0.2999999999997271
 50
0.0
 51
90.0
  0
LINE
  5
1ABE
  8
SAPA_PROFIL
 10
-16.14999999999997
 20
-80.199999999010288
 30
0.0
 11
-16.150000000000428
 21
-77.799999999010197
 31
0.0
  0
ARC
  5
1ABF
  8
SAPA_PROFIL
 10
-16.450000000000159
 20
-80.199999999010288
 30
0.0
 40
0.3000000000001819
 50
270.0
 51
0.0
  0
LINE
  5
1AC0
  8
SAPA_PROFIL
 10
-19.98190844019916
 20
-80.499999999010015
 30
0.0
 11
-16.450000000000159
 21
-80.499999999010456
 31
0.0
  0
ARC
  5
1AC1
  8
SAPA_PROFIL
 10
-19.981908440199369
 20
-80.199999999009805
 30
0.0
 40
0.3000000000001951
 50
220.0000000000386
 51
270.00000000003928
  0
LINE
  5
1AC2
  8
SAPA_PROFIL
 10
-21.729813332935809
 20
-78.583645211636394
 30
0.0
 11
-20.211721773135078
 21
-80.392836281916061
 31
0.0
  0
ARC
  5
1AC3
  8
SAPA_PROFIL
 10
-21.50000000000032
 20
-78.390808928730578
 30
0.0
 40
0.2999999999997449
 50
180.0000000000081
 51
220.00000000000469
  0
LINE
  5
1AC4
  8
SAPA_PROFIL
 10
-21.800000000000072
 20
-77.999999999010456
 30
0.0
 11
-21.800000000000072
 21
-78.390808928730621
 31
0.0
  0
ARC
  5
1AC5
  8
SAPA_PROFIL
 10
-21.300000000000011
 20
-77.999999999010527
 30
0.0
 40
0.500000000000057
 50
90.000000000006494
 51
179.99999999999349
  0
LINE
  5
1AC6
  8
SAPA_PROFIL
 10
-20.450000000000159
 20
-77.49999999901047
 30
0.0
 11
-21.300000000000072
 21
-77.49999999901047
 31
0.0
  0
ARC
  5
1AC7
  8
SAPA_PROFIL
 10
-20.450000000000291
 20
-77.199999999010458
 30
0.0
 40
0.3000000000000044
 50
270.00000000002439
 51
45.000000000005748
  0
LINE
  5
1AC8
  8
SAPA_PROFIL
 10
-20.637867965643981
 20
-76.587867964654379
 30
0.0
 11
-20.237867965644341
 21
-76.98786796465447
 31
0.0
  0
ARC
  5
1AC9
  8
SAPA_PROFIL
 10
-20.849999999999909
 20
-76.799999999010694
 30
0.0
 40
0.3000000000002245
 50
45.000000000051813
 51
90.000000000065114
  0
POLYLINE
  5
1ACA
  8
SAPA_PROFIL
 66
     1
 10
0.0
 20
0.0
 30
0.0
 70
     1
  0
VERTEX
  5
2748
  8
SAPA_PROFIL
 10
-20.85000000000025
 20
-76.49999999901047
 30
0.0
 42
-0.1989123673797145
  0
VERTEX
  5
2749
  8
SAPA_PROFIL
 10
-20.637867965643981
 20
-76.587867964654379
 30
0.0
  0
VERTEX
  5
274A
  8
SAPA_PROFIL
 10
-20.237867965644341
 20
-76.98786796465447
 30
0.0
 42
-0.668178637919182
  0
VERTEX
  5
274B
  8
SAPA_PROFIL
 10
-20.450000000000159
 20
-77.49999999901047
 30
0.0
  0
VERTEX
  5
274C
  8
SAPA_PROFIL
 10
-21.300000000000072
 20
-77.49999999901047
 30
0.0
 42
0.4142135623730284
  0
VERTEX
  5
274D
  8
SAPA_PROFIL
 10
-21.800000000000072
 20
-77.999999999010456
 30
0.0
  0
VERTEX
  5
274E
  8
SAPA_PROFIL
 10
-21.800000000000072
 20
-78.390808928730621
 30
0.0
 42
0.17632698070845
  0
VERTEX
  5
274F
  8
SAPA_PROFIL
 10
-21.729813332935809
 20
-78.583645211636394
 30
0.0
  0
VERTEX
  5
2750
  8
SAPA_PROFIL
 10
-20.211721773135078
 20
-80.392836281916061
 30
0.0
 42
0.2216946626429421
  0
VERTEX
  5
2751
  8
SAPA_PROFIL
 10
-19.98190844019916
 20
-80.499999999010015
 30
0.0
  0
VERTEX
  5
2752
  8
SAPA_PROFIL
 10
-16.450000000000159
 20
-80.499999999010456
 30
0.0
 42
0.4142135623730951
  0
VERTEX
  5
2753
  8
SAPA_PROFIL
 10
-16.14999999999997
 20
-80.199999999010288
 30
0.0
  0
VERTEX
  5
2754
  8
SAPA_PROFIL
 10
-16.150000000000428
 20
-77.799999999010197
 30
0.0
 42
0.4142135623730951
  0
VERTEX
  5
2755
  8
SAPA_PROFIL
 10
-16.450000000000159
 20
-77.49999999901047
 30
0.0
  0
VERTEX
  5
2756
  8
SAPA_PROFIL
 10
-16.85000000000025
 20
-77.49999999901047
 30
0.0
 42
-0.6681786379193188
  0
VERTEX
  5
2757
  8
SAPA_PROFIL
 10
-17.062132034356068
 20
-76.98786796465447
 30
0.0
  0
VERTEX
  5
2758
  8
SAPA_PROFIL
 10
-16.662132034355981
 20
-76.587867964654379
 30
0.0
 42
-0.198912367379658
  0
VERTEX
  5
2759
  8
SAPA_PROFIL
 10
-16.450000000000159
 20
-76.49999999901047
 30
0.0
  0
VERTEX
  5
275A
  8
SAPA_PROFIL
 10
-14.65000000000043
 20
-76.499999999010015
 30
0.0
 42
-0.4142135623731284
  0
VERTEX
  5
275B
  8
SAPA_PROFIL
 10
-14.15000000000043
 20
-76.999999999010015
 30
0.0
  0
VERTEX
  5
275C
  8
SAPA_PROFIL
 10
-14.149999999999981
 20
-81.499999999010925
 30
0.0
 42
-0.4142135623730951
  0
VERTEX
  5
275D
  8
SAPA_PROFIL
 10
-14.649999999999981
 20
-81.999999999010925
 30
0.0
  0
VERTEX
  5
275E
  8
SAPA_PROFIL
 10
-18.649999999999981
 20
-81.999999999010015
 30
0.0
 42
0.4142135623729619
  0
VERTEX
  5
275F
  8
SAPA_PROFIL
 10
-19.149999999999981
 20
-82.499999999010015
 30
0.0
  0
VERTEX
  5
2760
  8
SAPA_PROFIL
 10
-19.149999999999981
 20
-84.516956646213657
 30
0.0
 42
0.1763269807084973
  0
VERTEX
  5
2761
  8
SAPA_PROFIL
 10
-19.033022221559229
 20
-84.838350451057053
 30
0.0
  0
VERTEX
  5
2762
  8
SAPA_PROFIL
 10
-16.949501460030088
 20
-87.321393803853425
 30
0.0
 42
0.2216946626428772
  0
VERTEX
  5
2763
  8
SAPA_PROFIL
 10
-16.56647923847083
 20
-87.499999999010015
 30
0.0
  0
VERTEX
  5
2764
  8
SAPA_PROFIL
 10
-10.56853372839111
 20
-87.499999999010484
 30
0.0
 42
0.315298788878991
  0
VERTEX
  5
2765
  8
SAPA_PROFIL
 10
-10.098687417998351
 20
-87.171010070673219
 30
0.0
  0
VERTEX
  5
2766
  8
SAPA_PROFIL
 10
-8.6380638705317097
 20
-83.157979855684516
 30
0.0
 42
-0.3152987888789731
  0
VERTEX
  5
2767
  8
SAPA_PROFIL
 10
-7.6983712497457191
 20
-82.499999999010015
 30
0.0
  0
VERTEX
  5
2768
  8
SAPA_PROFIL
 10
-6.6499999999999773
 20
-82.499999999010015
 30
0.0
 42
0.4142135623732616
  0
VERTEX
  5
2769
  8
SAPA_PROFIL
 10
-6.3499999999997954
 20
-82.199999999010288
 30
0.0
  0
VERTEX
  5
276A
  8
SAPA_PROFIL
 10
-6.3499999999997954
 20
-81.799999999010197
 30
0.0
 42
-0.4142135623731506
  0
VERTEX
  5
276B
  8
SAPA_PROFIL
 10
-6.0500000000000682
 20
-81.499999999010015
 30
0.0
  0
VERTEX
  5
276C
  8
SAPA_PROFIL
 10
-5.6499999999999773
 20
-81.499999999010015
 30
0.0
 42
-0.4142135623731505
  0
VERTEX
  5
276D
  8
SAPA_PROFIL
 10
-5.3499999999997954
 20
-81.799999999010197
 30
0.0
  0
VERTEX
  5
276E
  8
SAPA_PROFIL
 10
-5.3499999999997954
 20
-82.199999999010288
 30
0.0
 42
0.4142135623732061
  0
VERTEX
  5
276F
  8
SAPA_PROFIL
 10
-5.0500000000000682
 20
-82.499999999010015
 30
0.0
  0
VERTEX
  5
2770
  8
SAPA_PROFIL
 10
-0.6242640687117956
 20
-82.499999999010015
 30
0.0
 42
-0.198912367379577
  0
VERTEX
  5
2771
  8
SAPA_PROFIL
 10
-0.4121320343559774
 20
-82.587867964654379
 30
0.0
  0
VERTEX
  5
2772
  8
SAPA_PROFIL
 10
0.0000000000001137
 20
-82.999999999010015
 30
0.0
  0
VERTEX
  5
2773
  8
SAPA_PROFIL
 10
0.4121320343562048
 20
-82.587867964654379
 30
0.0
 42
-0.1989123673795771
  0
VERTEX
  5
2774
  8
SAPA_PROFIL
 10
0.6242640687120229
 20
-82.499999999010015
 30
0.0
  0
VERTEX
  5
2775
  8
SAPA_PROFIL
 10
5.04999999999984
 20
-82.499999999010015
 30
0.0
 42
0.4142135623732059
  0
VERTEX
  5
2776
  8
SAPA_PROFIL
 10
5.3500000000000218
 20
-82.199999999010288
 30
0.0
  0
VERTEX
  5
2777
  8
SAPA_PROFIL
 10
5.3500000000000218
 20
-81.799999999010197
 30
0.0
 42
-0.4142135623731506
  0
VERTEX
  5
2778
  8
SAPA_PROFIL
 10
5.6500000000002037
 20
-81.499999999010015
 30
0.0
  0
VERTEX
  5
2779
  8
SAPA_PROFIL
 10
6.04999999999984
 20
-81.499999999010015
 30
0.0
 42
-0.4142135623731505
  0
VERTEX
  5
277A
  8
SAPA_PROFIL
 10
6.3500000000000218
 20
-81.799999999010197
 30
0.0
  0
VERTEX
  5
277B
  8
SAPA_PROFIL
 10
6.3500000000000218
 20
-82.199999999010288
 30
0.0
 42
0.4142135623732615
  0
VERTEX
  5
277C
  8
SAPA_PROFIL
 10
6.6500000000002037
 20
-82.499999999010015
 30
0.0
  0
VERTEX
  5
277D
  8
SAPA_PROFIL
 10
7.6983712497454908
 20
-82.499999999010015
 30
0.0
 42
-0.3152987888789731
  0
VERTEX
  5
277E
  8
SAPA_PROFIL
 10
8.6380638705314823
 20
-83.157979855684516
 30
0.0
  0
VERTEX
  5
277F
  8
SAPA_PROFIL
 10
10.09868741799812
 20
-87.171010070673219
 30
0.0
 42
0.315298788878991
  0
VERTEX
  5
2780
  8
SAPA_PROFIL
 10
10.568533728391341
 20
-87.499999999010484
 30
0.0
  0
VERTEX
  5
2781
  8
SAPA_PROFIL
 10
16.566479238470599
 20
-87.499999999010015
 30
0.0
 42
0.2216946626428772
  0
VERTEX
  5
2782
  8
SAPA_PROFIL
 10
16.949501460029861
 20
-87.321393803853425
 30
0.0
  0
VERTEX
  5
2783
  8
SAPA_PROFIL
 10
19.03302222155946
 20
-84.838350451057053
 30
0.0
 42
0.1763269807084973
  0
VERTEX
  5
2784
  8
SAPA_PROFIL
 10
19.150000000000201
 20
-84.516956646213657
 30
0.0
  0
VERTEX
  5
2785
  8
SAPA_PROFIL
 10
19.150000000000201
 20
-82.499999999010015
 30
0.0
 42
0.4142135623729619
  0
VERTEX
  5
2786
  8
SAPA_PROFIL
 10
18.650000000000201
 20
-81.999999999010015
 30
0.0
  0
VERTEX
  5
2787
  8
SAPA_PROFIL
 10
14.650000000000199
 20
-81.999999999010925
 30
0.0
 42
-0.4142135623730951
  0
VERTEX
  5
2788
  8
SAPA_PROFIL
 10
14.150000000000199
 20
-81.499999999010925
 30
0.0
  0
VERTEX
  5
2789
  8
SAPA_PROFIL
 10
14.150000000000199
 20
-76.999999999010015
 30
0.0
 42
-0.4142135623731285
  0
VERTEX
  5
278A
  8
SAPA_PROFIL
 10
14.650000000000199
 20
-76.499999999010015
 30
0.0
  0
VERTEX
  5
278B
  8
SAPA_PROFIL
 10
16.450000000000379
 20
-76.49999999901047
 30
0.0
 42
-0.198912367379658
  0
VERTEX
  5
278C
  8
SAPA_PROFIL
 10
16.662132034356201
 20
-76.587867964654379
 30
0.0
  0
VERTEX
  5
278D
  8
SAPA_PROFIL
 10
17.062132034356289
 20
-76.98786796465447
 30
0.0
 42
-0.6681786379193188
  0
VERTEX
  5
278E
  8
SAPA_PROFIL
 10
16.850000000000019
 20
-77.49999999901047
 30
0.0
  0
VERTEX
  5
278F
  8
SAPA_PROFIL
 10
16.450000000000379
 20
-77.49999999901047
 30
0.0
 42
0.4142135623730951
  0
VERTEX
  5
2790
  8
SAPA_PROFIL
 10
16.150000000000201
 20
-77.799999999010197
 30
0.0
  0
VERTEX
  5
2791
  8
SAPA_PROFIL
 10
16.150000000000201
 20
-80.199999999010288
 30
0.0
 42
0.4142135623730951
  0
VERTEX
  5
2792
  8
SAPA_PROFIL
 10
16.450000000000379
 20
-80.499999999010456
 30
0.0
  0
VERTEX
  5
2793
  8
SAPA_PROFIL
 10
19.98190844019939
 20
-80.499999999010015
 30
0.0
 42
0.221694662642942
  0
VERTEX
  5
2794
  8
SAPA_PROFIL
 10
20.211721773134862
 20
-80.392836281916061
 30
0.0
  0
VERTEX
  5
2795
  8
SAPA_PROFIL
 10
21.729813332935581
 20
-78.583645211636394
 30
0.0
 42
0.1763269807084499
  0
VERTEX
  5
2796
  8
SAPA_PROFIL
 10
21.799999999999841
 20
-78.390808928730621
 30
0.0
  0
VERTEX
  5
2797
  8
SAPA_PROFIL
 10
21.800000000000288
 20
-77.999999999010456
 30
0.0
 42
0.4142135623730284
  0
VERTEX
  5
2798
  8
SAPA_PROFIL
 10
21.300000000000299
 20
-77.49999999901047
 30
0.0
  0
VERTEX
  5
2799
  8
SAPA_PROFIL
 10
20.45000000000039
 20
-77.49999999901047
 30
0.0
 42
-0.668178637919182
  0
VERTEX
  5
279A
  8
SAPA_PROFIL
 10
20.237867965644121
 20
-76.98786796465447
 30
0.0
  0
VERTEX
  5
279B
  8
SAPA_PROFIL
 10
20.637867965644201
 20
-76.587867964654379
 30
0.0
 42
-0.1989123673797144
  0
VERTEX
  5
279C
  8
SAPA_PROFIL
 10
20.850000000000019
 20
-76.49999999901047
 30
0.0
  0
VERTEX
  5
279D
  8
SAPA_PROFIL
 10
23.300000000000299
 20
-76.49999999901047
 30
0.0
 42
-0.4142135623730951
  0
VERTEX
  5
279E
  8
SAPA_PROFIL
 10
23.800000000000299
 20
-76.99999999901047
 30
0.0
  0
VERTEX
  5
279F
  8
SAPA_PROFIL
 10
23.800000000000299
 20
-80.699999999010274
 30
0.0
 42
-0.4142135623730951
  0
VERTEX
  5
27A0
  8
SAPA_PROFIL
 10
23.500000000000568
 20
-80.99999999901047
 30
0.0
  0
VERTEX
  5
27A1
  8
SAPA_PROFIL
 10
22.473205080757111
 20
-80.99999999901047
 30
0.0
 42
0.2679491924311428
  0
VERTEX
  5
27A2
  8
SAPA_PROFIL
 10
22.213397459621891
 20
-81.149999999010575
 30
0.0
  0
VERTEX
  5
27A3
  8
SAPA_PROFIL
 10
21.325961894323541
 20
-82.687083486550804
 30
0.0
 42
0.4142135623731709
  0
VERTEX
  5
27A4
  8
SAPA_PROFIL
 10
21.435769515459128
 20
-83.096891107686133
 30
0.0
  0
VERTEX
  5
27A5
  8
SAPA_PROFIL
 10
21.96791111376217
 20
-83.404123202713436
 30
0.0
 42
-0.4663076581551056
  0
VERTEX
  5
27A6
  8
SAPA_PROFIL
 10
22.233955556881138
 20
-84.912936216184335
 30
0.0
  0
VERTEX
  5
27A7
  8
SAPA_PROFIL
 10
18.115270605417319
 20
-89.821393803853425
 30
0.0
 42
-0.2216946626428921
  0
VERTEX
  5
27A8
  8
SAPA_PROFIL
 10
17.732248383857609
 20
-89.999999999010484
 30
0.0
  0
VERTEX
  5
27A9
  8
SAPA_PROFIL
 10
9.7002075382098383
 20
-89.999999999010484
 30
0.0
 42
-0.3152987888789878
  0
VERTEX
  5
27AA
  8
SAPA_PROFIL
 10
8.7605149174238477
 20
-89.342020142335954
 30
0.0
  0
VERTEX
  5
27AB
  8
SAPA_PROFIL
 10
7.4196339112451142
 20
-85.657979855684516
 30
0.0
 42
0.3152987888789804
  0
VERTEX
  5
27AC
  8
SAPA_PROFIL
 10
6.4799412904591227
 20
-84.999999999010015
 30
0.0
  0
VERTEX
  5
27AD
  8
SAPA_PROFIL
 10
-6.4799412904593501
 20
-84.999999999010015
 30
0.0
 42
0.3152987888789804
  0
VERTEX
  5
27AE
  8
SAPA_PROFIL
 10
-7.4196339112453407
 20
-85.657979855684516
 30
0.0
  0
VERTEX
  5
27AF
  8
SAPA_PROFIL
 10
-8.7605149174236203
 20
-89.342020142335954
 30
0.0
 42
-0.3152987888789877
  0
VERTEX
  5
27B0
  8
SAPA_PROFIL
 10
-9.7002075382096091
 20
-89.999999999010484
 30
0.0
  0
VERTEX
  5
27B1
  8
SAPA_PROFIL
 10
-17.732248383857829
 20
-89.999999999010484
 30
0.0
 42
-0.2216946626428921
  0
VERTEX
  5
27B2
  8
SAPA_PROFIL
 10
-18.115270605417091
 20
-89.821393803853425
 30
0.0
  0
VERTEX
  5
27B3
  8
SAPA_PROFIL
 10
-22.233955556880911
 20
-84.912936216184335
 30
0.0
 42
-0.4663076581551056
  0
VERTEX
  5
27B4
  8
SAPA_PROFIL
 10
-21.967911113762401
 20
-83.404123202713436
 30
0.0
  0
VERTEX
  5
27B5
  8
SAPA_PROFIL
 10
-21.435769515458901
 20
-83.096891107686133
 30
0.0
 42
0.414213562373157
  0
VERTEX
  5
27B6
  8
SAPA_PROFIL
 10
-21.325961894323768
 20
-82.687083486550804
 30
0.0
  0
VERTEX
  5
27B7
  8
SAPA_PROFIL
 10
-22.213397459622112
 20
-81.149999999010575
 30
0.0
 42
0.2679491924311554
  0
VERTEX
  5
27B8
  8
SAPA_PROFIL
 10
-22.473205080757339
 20
-80.99999999901047
 30
0.0
  0
VERTEX
  5
27B9
  8
SAPA_PROFIL
 10
-23.500000000000341
 20
-80.99999999901047
 30
0.0
 42
-0.4142135623730951
  0
VERTEX
  5
27BA
  8
SAPA_PROFIL
 10
-23.800000000000519
 20
-80.699999999010274
 30
0.0
  0
VERTEX
  5
27BB
  8
SAPA_PROFIL
 10
-23.800000000000072
 20
-76.99999999901047
 30
0.0
 42
-0.4142135623730951
  0
VERTEX
  5
27BC
  8
SAPA_PROFIL
 10
-23.300000000000072
 20
-76.49999999901047
 30
0.0
  0
SEQEND
  5
27BD
  8
SAPA_PROFIL
  0
POLYLINE
  5
1ACB
  8
SAPA_PROFIL
 66
     1
 10
0.0
 20
0.0
 30
0.0
 70
     1
  0
VERTEX
  5
27BE
  8
SAPA_PROFIL
 10
-2.700000000000272
 20
-33.050000000001091
 30
0.0
  0
VERTEX
  5
27BF
  8
SAPA_PROFIL
 10
-2.0767196966983188
 20
-31.67376540642476
 30
0.0
 42
0.5450207798987328
  0
VERTEX
  5
27C0
  8
SAPA_PROFIL
 10
-2.350000000000136
 20
-31.25000000000114
 30
0.0
  0
VERTEX
  5
27C1
  8
SAPA_PROFIL
 10
-2.700000000000272
 20
-31.25000000000114
 30
0.0
  0
VERTEX
  5
27C2
  8
SAPA_PROFIL
 10
-2.700000000000272
 20
-31.00000000000114
 30
0.0
 42
-0.4142135623730951
  0
VERTEX
  5
27C3
  8
SAPA_PROFIL
 10
-1.700000000000272
 20
-30.00000000000114
 30
0.0
  0
VERTEX
  5
27C4
  8
SAPA_PROFIL
 10
1.6999999999998181
 20
-30.00000000000114
 30
0.0
 42
-0.4142135623730951
  0
VERTEX
  5
27C5
  8
SAPA_PROFIL
 10
2.6999999999998181
 20
-31.00000000000114
 30
0.0
  0
VERTEX
  5
27C6
  8
SAPA_PROFIL
 10
2.6999999999998181
 20
-32.150000000001
 30
0.0
  0
VERTEX
  5
27C7
  8
SAPA_PROFIL
 10
2.3499999999996808
 20
-32.150000000001
 30
0.0
 42
0.5450200690651551
  0
VERTEX
  5
27C8
  8
SAPA_PROFIL
 10
2.0767189999999109
 20
-32.573765000001011
 30
0.0
  0
VERTEX
  5
27C9
  8
SAPA_PROFIL
 10
2.6999999999998181
 20
-33.950000000000948
 30
0.0
  0
VERTEX
  5
27CA
  8
SAPA_PROFIL
 10
2.3499999999996808
 20
-33.950000000000948
 30
0.0
 42
0.5450200690651692
  0
VERTEX
  5
27CB
  8
SAPA_PROFIL
 10
2.0767189999999109
 20
-34.373765000000958
 30
0.0
  0
VERTEX
  5
27CC
  8
SAPA_PROFIL
 10
2.6999999999998181
 20
-35.750000000001137
 30
0.0
  0
VERTEX
  5
27CD
  8
SAPA_PROFIL
 10
2.3499999999996808
 20
-35.750000000001137
 30
0.0
 42
0.5450200690651619
  0
VERTEX
  5
27CE
  8
SAPA_PROFIL
 10
2.0767189999999109
 20
-36.17376500000114
 30
0.0
  0
VERTEX
  5
27CF
  8
SAPA_PROFIL
 10
2.6999999999998181
 20
-37.550000000001091
 30
0.0
  0
VERTEX
  5
27D0
  8
SAPA_PROFIL
 10
2.3499999999996808
 20
-37.550000000001091
 30
0.0
 42
0.5450200690651619
  0
VERTEX
  5
27D1
  8
SAPA_PROFIL
 10
2.0767189999999109
 20
-37.973765000001102
 30
0.0
  0
VERTEX
  5
27D2
  8
SAPA_PROFIL
 10
2.6999999999998181
 20
-39.350000000001053
 30
0.0
  0
VERTEX
  5
27D3
  8
SAPA_PROFIL
 10
2.3499999999996808
 20
-39.350000000001053
 30
0.0
 42
0.5450200690651692
  0
VERTEX
  5
27D4
  8
SAPA_PROFIL
 10
2.0767189999999109
 20
-39.773765000001049
 30
0.0
  0
VERTEX
  5
27D5
  8
SAPA_PROFIL
 10
2.6999999999998181
 20
-41.150000000001
 30
0.0
  0
VERTEX
  5
27D6
  8
SAPA_PROFIL
 10
2.6999999999998181
 20
-41.450000000000948
 30
0.0
  0
VERTEX
  5
27D7
  8
SAPA_PROFIL
 10
-2.42826763351104
 20
-41.450000000000948
 30
0.0
  0
VERTEX
  5
27D8
  8
SAPA_PROFIL
 10
-2.0767196966983188
 20
-40.673765406424756
 30
0.0
 42
0.5450207798987328
  0
VERTEX
  5
27D9
  8
SAPA_PROFIL
 10
-2.350000000000136
 20
-40.250000000001137
 30
0.0
  0
VERTEX
  5
27DA
  8
SAPA_PROFIL
 10
-2.700000000000272
 20
-40.250000000001137
 30
0.0
  0
VERTEX
  5
27DB
  8
SAPA_PROFIL
 10
-2.0767200000002499
 20
-38.873765000000958
 30
0.0
 42
0.5450205149791638
  0
VERTEX
  5
27DC
  8
SAPA_PROFIL
 10
-2.350000000000136
 20
-38.450000000000962
 30
0.0
  0
VERTEX
  5
27DD
  8
SAPA_PROFIL
 10
-2.700000000000272
 20
-38.450000000000962
 30
0.0
  0
VERTEX
  5
27DE
  8
SAPA_PROFIL
 10
-2.0767196966983188
 20
-37.073765406424627
 30
0.0
 42
0.545020779898768
  0
VERTEX
  5
27DF
  8
SAPA_PROFIL
 10
-2.350000000000136
 20
-36.650000000001
 30
0.0
  0
VERTEX
  5
27E0
  8
SAPA_PROFIL
 10
-2.700000000000272
 20
-36.650000000001
 30
0.0
  0
VERTEX
  5
27E1
  8
SAPA_PROFIL
 10
-2.0767196966983188
 20
-35.273765406424673
 30
0.0
 42
0.54502077989874
  0
VERTEX
  5
27E2
  8
SAPA_PROFIL
 10
-2.350000000000136
 20
-34.850000000001053
 30
0.0
  0
VERTEX
  5
27E3
  8
SAPA_PROFIL
 10
-2.700000000000272
 20
-34.850000000001053
 30
0.0
  0
VERTEX
  5
27E4
  8
SAPA_PROFIL
 10
-2.0767196966983188
 20
-33.473765406424718
 30
0.0
 42
0.545020779898761
  0
VERTEX
  5
27E5
  8
SAPA_PROFIL
 10
-2.350000000000136
 20
-33.050000000001091
 30
0.0
  0
SEQEND
  5
27E6
  8
SAPA_PROFIL
  0
POLYLINE
  5
1ACC
  8
SAPA_PROFIL
 66
     1
 10
0.0
 20
0.0
 30
0.0
 70
     1
  0
VERTEX
  5
27E7
  8
SAPA_PROFIL
 10
-23.000000000000231
 20
58.024264068710863
 30
0.0
 42
0.1989123673796753
  0
VERTEX
  5
27E8
  8
SAPA_PROFIL
 10
-22.912132034356091
 20
57.812132034355052
 30
0.0
  0
VERTEX
  5
27E9
  8
SAPA_PROFIL
 10
-21.187867965644269
 20
56.087867965642999
 30
0.0
 42
-0.1989123673796753
  0
VERTEX
  5
27EA
  8
SAPA_PROFIL
 10
-21.10000000000014
 20
55.875735931286947
 30
0.0
  0
VERTEX
  5
27EB
  8
SAPA_PROFIL
 10
-21.10000000000014
 20
55.299999999999052
 30
0.0
 42
-0.4142135623730951
  0
VERTEX
  5
27EC
  8
SAPA_PROFIL
 10
-21.400000000000318
 20
54.999999999998863
 30
0.0
  0
VERTEX
  5
27ED
  8
SAPA_PROFIL
 10
-22.700000000000269
 20
54.999999999998863
 30
0.0
 42
0.4142135623730951
  0
VERTEX
  5
27EE
  8
SAPA_PROFIL
 10
-23.000000000000231
 20
54.699999999998909
 30
0.0
  0
VERTEX
  5
27EF
  8
SAPA_PROFIL
 10
-23.000000000000231
 20
29.99999999999886
 30
0.0
 42
0.4142135623730951
  0
VERTEX
  5
27F0
  8
SAPA_PROFIL
 10
-22.000000000000231
 20
28.99999999999887
 30
0.0
  0
VERTEX
  5
27F1
  8
SAPA_PROFIL
 10
-17.600000000000129
 20
28.99999999999887
 30
0.0
 42
-0.4142135623730951
  0
VERTEX
  5
27F2
  8
SAPA_PROFIL
 10
-17.300000000000178
 20
28.699999999998909
 30
0.0
  0
VERTEX
  5
27F3
  8
SAPA_PROFIL
 10
-17.300000000000178
 20
26.399999999998961
 30
0.0
 42
-0.4142135623730951
  0
VERTEX
  5
27F4
  8
SAPA_PROFIL
 10
-17.600000000000129
 20
26.099999999999
 30
0.0
  0
VERTEX
  5
27F5
  8
SAPA_PROFIL
 10
-18.100000000000129
 20
26.099999999999
 30
0.0
 42
-0.4142135623730951
  0
VERTEX
  5
27F6
  8
SAPA_PROFIL
 10
-18.400000000000318
 20
26.399999999998961
 30
0.0
  0
VERTEX
  5
27F7
  8
SAPA_PROFIL
 10
-18.400000000000318
 20
26.736626924633359
 30
0.0
 42
0.5535245743249297
  0
VERTEX
  5
27F8
  8
SAPA_PROFIL
 10
-22.71055421153164
 20
24.96410760212348
 30
0.0
  0
VERTEX
  5
27F9
  8
SAPA_PROFIL
 10
-22.42322330470347
 20
24.67677669529553
 30
0.0
 42
-0.4142135623729421
  0
VERTEX
  5
27FA
  8
SAPA_PROFIL
 10
-22.42322330470347
 20
24.32322330470242
 30
0.0
  0
VERTEX
  5
27FB
  8
SAPA_PROFIL
 10
-22.71055421153164
 20
24.035892397874481
 30
0.0
 42
0.5535245743249292
  0
VERTEX
  5
27FC
  8
SAPA_PROFIL
 10
-18.400000000000318
 20
22.26337307536437
 30
0.0
  0
VERTEX
  5
27FD
  8
SAPA_PROFIL
 10
-18.400000000000318
 20
22.599999999999
 30
0.0
 42
-0.4142135623730951
  0
VERTEX
  5
27FE
  8
SAPA_PROFIL
 10
-18.100000000000129
 20
22.899999999998961
 30
0.0
  0
VERTEX
  5
27FF
  8
SAPA_PROFIL
 10
-17.600000000000129
 20
22.899999999998961
 30
0.0
 42
-0.4142135623730951
  0
VERTEX
  5
2800
  8
SAPA_PROFIL
 10
-17.300000000000178
 20
22.599999999999
 30
0.0
  0
VERTEX
  5
2801
  8
SAPA_PROFIL
 10
-17.300000000000178
 20
21.49999999999886
 30
0.0
 42
-0.4142135623730951
  0
VERTEX
  5
2802
  8
SAPA_PROFIL
 10
-18.800000000000178
 20
19.99999999999886
 30
0.0
  0
VERTEX
  5
2803
  8
SAPA_PROFIL
 10
-21.63397459621569
 20
19.99999999999886
 30
0.0
 42
-0.267949192431143
  0
VERTEX
  5
2804
  8
SAPA_PROFIL
 10
-22.066987298107961
 20
20.24999999999886
 30
0.0
 42
0.767326987978956
  0
VERTEX
  5
2805
  8
SAPA_PROFIL
 10
-23.000000000000231
 20
19.99999999999886
 30
0.0
  0
VERTEX
  5
2806
  8
SAPA_PROFIL
 10
-23.000000000000231
 20
-15.00000000000113
 30
0.0
 42
0.4142135623730951
  0
VERTEX
  5
2807
  8
SAPA_PROFIL
 10
-22.000000000000231
 20
-16.00000000000114
 30
0.0
  0
VERTEX
  5
2808
  8
SAPA_PROFIL
 10
-17.600000000000129
 20
-16.00000000000114
 30
0.0
 42
-0.4142135623730951
  0
VERTEX
  5
2809
  8
SAPA_PROFIL
 10
-17.300000000000178
 20
-16.300000000001091
 30
0.0
  0
VERTEX
  5
280A
  8
SAPA_PROFIL
 10
-17.300000000000178
 20
-18.600000000001039
 30
0.0
 42
-0.4142135623730951
  0
VERTEX
  5
280B
  8
SAPA_PROFIL
 10
-17.600000000000129
 20
-18.900000000001
 30
0.0
  0
VERTEX
  5
280C
  8
SAPA_PROFIL
 10
-18.100000000000129
 20
-18.900000000001
 30
0.0
 42
-0.4142135623730951
  0
VERTEX
  5
280D
  8
SAPA_PROFIL
 10
-18.400000000000318
 20
-18.600000000001039
 30
0.0
  0
VERTEX
  5
280E
  8
SAPA_PROFIL
 10
-18.400000000000318
 20
-18.263373075366641
 30
0.0
 42
0.5535245743249297
  0
VERTEX
  5
280F
  8
SAPA_PROFIL
 10
-22.71055421153164
 20
-20.03589239787652
 30
0.0
  0
VERTEX
  5
2810
  8
SAPA_PROFIL
 10
-22.42322330470347
 20
-20.32322330470447
 30
0.0
 42
-0.4142135623730243
  0
VERTEX
  5
2811
  8
SAPA_PROFIL
 10
-22.423223304703701
 20
-20.67677669529758
 30
0.0
  0
VERTEX
  5
2812
  8
SAPA_PROFIL
 10
-22.71055421153164
 20
-20.96410760212553
 30
0.0
 42
0.5535245743249292
  0
VERTEX
  5
2813
  8
SAPA_PROFIL
 10
-18.400000000000318
 20
-22.73662692463563
 30
0.0
  0
VERTEX
  5
2814
  8
SAPA_PROFIL
 10
-18.400000000000318
 20
-22.400000000001
 30
0.0
 42
-0.4142135623730951
  0
VERTEX
  5
2815
  8
SAPA_PROFIL
 10
-18.100000000000129
 20
-22.100000000001049
 30
0.0
  0
VERTEX
  5
2816
  8
SAPA_PROFIL
 10
-17.600000000000129
 20
-22.100000000001049
 30
0.0
 42
-0.4142135623730951
  0
VERTEX
  5
2817
  8
SAPA_PROFIL
 10
-17.300000000000178
 20
-22.400000000001
 30
0.0
  0
VERTEX
  5
2818
  8
SAPA_PROFIL
 10
-17.300000000000178
 20
-23.50000000000114
 30
0.0
 42
-0.4142135623730951
  0
VERTEX
  5
2819
  8
SAPA_PROFIL
 10
-18.800000000000178
 20
-25.00000000000114
 30
0.0
  0
VERTEX
  5
281A
  8
SAPA_PROFIL
 10
-21.780384757729511
 20
-25.00000000000114
 30
0.0
 42
-0.2679491924311188
  0
VERTEX
  5
281B
  8
SAPA_PROFIL
 10
-22.040192378864958
 20
-24.850000000001049
 30
0.0
 42
0.7673269879789557
  0
VERTEX
  5
281C
  8
SAPA_PROFIL
 10
-22.600000000000129
 20
-25.00000000000114
 30
0.0
  0
VERTEX
  5
281D
  8
SAPA_PROFIL
 10
-22.599999999999909
 20
-27.00000000000114
 30
0.0
 42
0.4142137811865366
  0
VERTEX
  5
281E
  8
SAPA_PROFIL
 10
-21.600000747075459
 20
-28.00000000000114
 30
0.0
  0
VERTEX
  5
281F
  8
SAPA_PROFIL
 10
21.599999999999682
 20
-28.00000000000114
 30
0.0
 42
0.4142140000000124
  0
VERTEX
  5
2820
  8
SAPA_PROFIL
 10
22.599999999999682
 20
-27.00000000000114
 30
0.0
  0
VERTEX
  5
2821
  8
SAPA_PROFIL
 10
22.599999999999682
 20
-25.00000000000114
 30
0.0
 42
0.7673269879789457
  0
VERTEX
  5
2822
  8
SAPA_PROFIL
 10
22.0401923788645
 20
-24.850000000001049
 30
0.0
 42
-0.2679491924311191
  0
VERTEX
  5
2823
  8
SAPA_PROFIL
 10
21.780384757729049
 20
-25.00000000000114
 30
0.0
  0
VERTEX
  5
2824
  8
SAPA_PROFIL
 10
18.799999999999731
 20
-25.00000000000114
 30
0.0
 42
-0.4142135623730951
  0
VERTEX
  5
2825
  8
SAPA_PROFIL
 10
17.299999999999731
 20
-23.50000000000114
 30
0.0
  0
VERTEX
  5
2826
  8
SAPA_PROFIL
 10
17.299999999999731
 20
-22.400000000001
 30
0.0
 42
-0.4142135623730951
  0
VERTEX
  5
2827
  8
SAPA_PROFIL
 10
17.599999999999682
 20
-22.100000000001049
 30
0.0
  0
VERTEX
  5
2828
  8
SAPA_PROFIL
 10
18.099999999999682
 20
-22.100000000001049
 30
0.0
 42
-0.4142135623730951
  0
VERTEX
  5
2829
  8
SAPA_PROFIL
 10
18.39999999999986
 20
-22.400000000001
 30
0.0
  0
VERTEX
  5
282A
  8
SAPA_PROFIL
 10
18.39999999999986
 20
-22.73662692463563
 30
0.0
 42
0.5535245743249307
  0
VERTEX
  5
282B
  8
SAPA_PROFIL
 10
22.710554211531189
 20
-20.96410760212553
 30
0.0
  0
VERTEX
  5
282C
  8
SAPA_PROFIL
 10
22.423223304703239
 20
-20.67677669529758
 30
0.0
 42
-0.4142135623730951
  0
VERTEX
  5
282D
  8
SAPA_PROFIL
 10
22.423223304703239
 20
-20.32322330470447
 30
0.0
  0
VERTEX
  5
282E
  8
SAPA_PROFIL
 10
22.710554211531189
 20
-20.03589239787652
 30
0.0
 42
0.553524574324932
  0
VERTEX
  5
282F
  8
SAPA_PROFIL
 10
18.39999999999986
 20
-18.263373075366641
 30
0.0
  0
VERTEX
  5
2830
  8
SAPA_PROFIL
 10
18.39999999999986
 20
-18.600000000001039
 30
0.0
 42
-0.4142135623730951
  0
VERTEX
  5
2831
  8
SAPA_PROFIL
 10
18.099999999999682
 20
-18.900000000001
 30
0.0
  0
VERTEX
  5
2832
  8
SAPA_PROFIL
 10
17.599999999999682
 20
-18.900000000001
 30
0.0
 42
-0.4142135623730951
  0
VERTEX
  5
2833
  8
SAPA_PROFIL
 10
17.299999999999731
 20
-18.600000000001039
 30
0.0
  0
VERTEX
  5
2834
  8
SAPA_PROFIL
 10
17.299999999999731
 20
-16.300000000001091
 30
0.0
 42
-0.4142135623730951
  0
VERTEX
  5
2835
  8
SAPA_PROFIL
 10
17.599999999999682
 20
-16.00000000000114
 30
0.0
  0
VERTEX
  5
2836
  8
SAPA_PROFIL
 10
21.999999999999769
 20
-16.00000000000114
 30
0.0
 42
0.4142135623730951
  0
VERTEX
  5
2837
  8
SAPA_PROFIL
 10
22.999999999999769
 20
-15.00000000000113
 30
0.0
  0
VERTEX
  5
2838
  8
SAPA_PROFIL
 10
22.999999999999769
 20
19.99999999999886
 30
0.0
 42
0.7673269879789569
  0
VERTEX
  5
2839
  8
SAPA_PROFIL
 10
22.066987298107509
 20
20.24999999999886
 30
0.0
 42
-0.2679491924311163
  0
VERTEX
  5
283A
  8
SAPA_PROFIL
 10
21.633974596215239
 20
19.99999999999886
 30
0.0
  0
VERTEX
  5
283B
  8
SAPA_PROFIL
 10
18.799999999999731
 20
19.99999999999886
 30
0.0
 42
-0.4142135623730951
  0
VERTEX
  5
283C
  8
SAPA_PROFIL
 10
17.299999999999731
 20
21.49999999999886
 30
0.0
  0
VERTEX
  5
283D
  8
SAPA_PROFIL
 10
17.299999999999731
 20
22.599999999999
 30
0.0
 42
-0.4142135623730951
  0
VERTEX
  5
283E
  8
SAPA_PROFIL
 10
17.599999999999682
 20
22.899999999998961
 30
0.0
  0
VERTEX
  5
283F
  8
SAPA_PROFIL
 10
18.099999999999682
 20
22.899999999998961
 30
0.0
 42
-0.4142135623730951
  0
VERTEX
  5
2840
  8
SAPA_PROFIL
 10
18.39999999999986
 20
22.599999999999
 30
0.0
  0
VERTEX
  5
2841
  8
SAPA_PROFIL
 10
18.39999999999986
 20
22.26337307536437
 30
0.0
 42
0.5535245743249307
  0
VERTEX
  5
2842
  8
SAPA_PROFIL
 10
22.710554211531189
 20
24.035892397874481
 30
0.0
  0
VERTEX
  5
2843
  8
SAPA_PROFIL
 10
22.423223304703239
 20
24.32322330470242
 30
0.0
 42
-0.4142135623731068
  0
VERTEX
  5
2844
  8
SAPA_PROFIL
 10
22.423223304703011
 20
24.67677669529553
 30
0.0
  0
VERTEX
  5
2845
  8
SAPA_PROFIL
 10
22.710554211531189
 20
24.96410760212348
 30
0.0
 42
0.553524574324932
  0
VERTEX
  5
2846
  8
SAPA_PROFIL
 10
18.39999999999986
 20
26.736626924633359
 30
0.0
  0
VERTEX
  5
2847
  8
SAPA_PROFIL
 10
18.39999999999986
 20
26.399999999998961
 30
0.0
 42
-0.4142135623730951
  0
VERTEX
  5
2848
  8
SAPA_PROFIL
 10
18.099999999999682
 20
26.099999999999
 30
0.0
  0
VERTEX
  5
2849
  8
SAPA_PROFIL
 10
17.599999999999682
 20
26.099999999999
 30
0.0
 42
-0.4142135623730951
  0
VERTEX
  5
284A
  8
SAPA_PROFIL
 10
17.299999999999731
 20
26.399999999998961
 30
0.0
  0
VERTEX
  5
284B
  8
SAPA_PROFIL
 10
17.299999999999731
 20
28.699999999998909
 30
0.0
 42
-0.4142135623730951
  0
VERTEX
  5
284C
  8
SAPA_PROFIL
 10
17.599999999999682
 20
28.99999999999887
 30
0.0
  0
VERTEX
  5
284D
  8
SAPA_PROFIL
 10
21.999999999999769
 20
28.99999999999887
 30
0.0
 42
0.4142135623730951
  0
VERTEX
  5
284E
  8
SAPA_PROFIL
 10
22.999999999999769
 20
29.99999999999886
 30
0.0
  0
VERTEX
  5
284F
  8
SAPA_PROFIL
 10
22.999999999999769
 20
54.699999999998909
 30
0.0
 42
0.4142135623730951
  0
VERTEX
  5
2850
  8
SAPA_PROFIL
 10
22.699999999999822
 20
54.999999999998863
 30
0.0
  0
VERTEX
  5
2851
  8
SAPA_PROFIL
 10
21.39999999999986
 20
54.999999999998863
 30
0.0
 42
-0.4142135623730951
  0
VERTEX
  5
2852
  8
SAPA_PROFIL
 10
21.099999999999682
 20
55.299999999999052
 30
0.0
  0
VERTEX
  5
2853
  8
SAPA_PROFIL
 10
21.099999999999682
 20
55.875735931286947
 30
0.0
 42
-0.1989123673796752
  0
VERTEX
  5
2854
  8
SAPA_PROFIL
 10
21.187867965643822
 20
56.087867965642999
 30
0.0
  0
VERTEX
  5
2855
  8
SAPA_PROFIL
 10
22.91213203435586
 20
57.812132034355052
 30
0.0
 42
0.1989123673796057
  0
VERTEX
  5
2856
  8
SAPA_PROFIL
 10
22.999999999999769
 20
58.024264068710863
 30
0.0
  0
VERTEX
  5
2857
  8
SAPA_PROFIL
 10
22.999999999999769
 20
61.499999999998863
 30
0.0
 42
0.4142135623730951
  0
VERTEX
  5
2858
  8
SAPA_PROFIL
 10
21.999999999999769
 20
62.499999999998863
 30
0.0
  0
VERTEX
  5
2859
  8
SAPA_PROFIL
 10
-22.000000000000231
 20
62.499999999998863
 30
0.0
 42
0.4142135623730951
  0
VERTEX
  5
285A
  8
SAPA_PROFIL
 10
-23.000000000000231
 20
61.499999999998863
 30
0.0
  0
SEQEND
  5
285B
  8
SAPA_PROFIL
  0
POLYLINE
  5
1ACD
  8
SAPA_PROFIL
 66
     1
 10
0.0
 20
0.0
 30
0.0
 70
     1
  0
VERTEX
  5
285C
  8
SAPA_PROFIL
 10
-6.0000000000002274
 20
-30.00000000000114
 30
0.0
 42
-0.4142135623730951
  0
VERTEX
  5
285D
  8
SAPA_PROFIL
 10
-5.0000000000002274
 20
-31.00000000000114
 30
0.0
  0
VERTEX
  5
285E
  8
SAPA_PROFIL
 10
-5.0000000000002274
 20
-52.200000000000948
 30
0.0
 42
0.4142135623730951
  0
VERTEX
  5
285F
  8
SAPA_PROFIL
 10
-4.700000000000272
 20
-52.50000000000113
 30
0.0
  0
VERTEX
  5
2860
  8
SAPA_PROFIL
 10
-3.0757360000002332
 20
-52.50000000000113
 30
0.0
  0
VERTEX
  5
2861
  8
SAPA_PROFIL
 10
-2.2378679656442269
 20
-51.562132034356871
 30
0.0
 42
0.668178637919305
  0
VERTEX
  5
2862
  8
SAPA_PROFIL
 10
-2.450000000000272
 20
-51.050000000001091
 30
0.0
  0
VERTEX
  5
2863
  8
SAPA_PROFIL
 10
-2.700000000000272
 20
-51.050000000001091
 30
0.0
  0
VERTEX
  5
2864
  8
SAPA_PROFIL
 10
-2.1767196966982278
 20
-49.673765406424756
 30
0.0
 42
0.5450207798987201
  0
VERTEX
  5
2865
  8
SAPA_PROFIL
 10
-2.450000000000272
 20
-49.250000000001137
 30
0.0
  0
VERTEX
  5
2866
  8
SAPA_PROFIL
 10
-2.700000000000272
 20
-49.250000000001137
 30
0.0
  0
VERTEX
  5
2867
  8
SAPA_PROFIL
 10
-2.1767196966982278
 20
-47.873765406424567
 30
0.0
 42
0.5450207798987201
  0
VERTEX
  5
2868
  8
SAPA_PROFIL
 10
-2.450000000000272
 20
-47.450000000000962
 30
0.0
  0
VERTEX
  5
2869
  8
SAPA_PROFIL
 10
-2.700000000000272
 20
-47.450000000000962
 30
0.0
  0
VERTEX
  5
286A
  8
SAPA_PROFIL
 10
-2.1767196966982278
 20
-46.07376540642462
 30
0.0
 42
0.5450207798987342
  0
VERTEX
  5
286B
  8
SAPA_PROFIL
 10
-2.450000000000272
 20
-45.650000000000993
 30
0.0
  0
VERTEX
  5
286C
  8
SAPA_PROFIL
 10
-2.700000000000272
 20
-45.650000000000993
 30
0.0
  0
VERTEX
  5
286D
  8
SAPA_PROFIL
 10
-2.1767196966982278
 20
-44.273765406424673
 30
0.0
 42
0.5450207798987201
  0
VERTEX
  5
286E
  8
SAPA_PROFIL
 10
-2.450000000000272
 20
-43.850000000001039
 30
0.0
  0
VERTEX
  5
286F
  8
SAPA_PROFIL
 10
-2.700000000000272
 20
-43.850000000001039
 30
0.0
  0
VERTEX
  5
2870
  8
SAPA_PROFIL
 10
-2.4722372826161059
 20
-43.126282705194853
 30
0.0
 42
-0.2945484962563026
  0
VERTEX
  5
2871
  8
SAPA_PROFIL
 10
-2.1988824689378812
 20
-42.950048040246656
 30
0.0
  0
VERTEX
  5
2872
  8
SAPA_PROFIL
 10
-1.2642999377483191
 20
-42.950255222213173
 30
0.0
 42
0.3475954753796591
  0
VERTEX
  5
2873
  8
SAPA_PROFIL
 10
-0.9723265106783856
 20
-42.719501178044077
 30
0.0
 42
-0.790522909611319
  0
VERTEX
  5
2874
  8
SAPA_PROFIL
 10
0.973664089865224
 20
-42.71949097360357
 30
0.0
 42
0.3476065658631364
  0
VERTEX
  5
2875
  8
SAPA_PROFIL
 10
1.2656518108867649
 20
-42.950241952335773
 30
0.0
  0
VERTEX
  5
2876
  8
SAPA_PROFIL
 10
1.8499926620931999
 20
-42.950095231626847
 30
0.0
 42
-0.4102317530969976
  0
VERTEX
  5
2877
  8
SAPA_PROFIL
 10
2.1500282985855388
 20
-43.245946879780369
 30
0.0
 42
0.0712587206050384
  0
VERTEX
  5
2878
  8
SAPA_PROFIL
 10
2.1632556124550311
 20
-43.329990804708579
 30
0.0
  0
VERTEX
  5
2879
  8
SAPA_PROFIL
 10
2.6999999999998181
 20
-44.750000000001137
 30
0.0
  0
VERTEX
  5
287A
  8
SAPA_PROFIL
 10
2.4499999999998181
 20
-44.750000000001137
 30
0.0
 42
0.5450200690651619
  0
VERTEX
  5
287B
  8
SAPA_PROFIL
 10
2.17671899999982
 20
-45.173765000001133
 30
0.0
  0
VERTEX
  5
287C
  8
SAPA_PROFIL
 10
2.6999999999998181
 20
-46.550000000001091
 30
0.0
  0
VERTEX
  5
287D
  8
SAPA_PROFIL
 10
2.4499999999998181
 20
-46.550000000000857
 30
0.0
 42
0.545020069065176
  0
VERTEX
  5
287E
  8
SAPA_PROFIL
 10
2.17671899999982
 20
-46.973765000001087
 30
0.0
  0
VERTEX
  5
287F
  8
SAPA_PROFIL
 10
2.6999999999998181
 20
-48.350000000001039
 30
0.0
  0
VERTEX
  5
2880
  8
SAPA_PROFIL
 10
2.4499999999998181
 20
-48.350000000001039
 30
0.0
 42
0.5450200690651692
  0
VERTEX
  5
2881
  8
SAPA_PROFIL
 10
2.17671899999982
 20
-48.773765000001049
 30
0.0
  0
VERTEX
  5
2882
  8
SAPA_PROFIL
 10
2.6999999999998181
 20
-50.150000000001
 30
0.0
  0
VERTEX
  5
2883
  8
SAPA_PROFIL
 10
2.1499999999998631
 20
-50.150000000001
 30
0.0
  0
VERTEX
  5
2884
  8
SAPA_PROFIL
 10
2.1499999999998631
 20
-51.350000000001039
 30
0.0
 42
0.1989123673797004
  0
VERTEX
  5
2885
  8
SAPA_PROFIL
 10
2.2378679999997071
 20
-51.562132000001156
 30
0.0
  0
VERTEX
  5
2886
  8
SAPA_PROFIL
 10
3.075735999999778
 20
-52.50000000000113
 30
0.0
  0
VERTEX
  5
2887
  8
SAPA_PROFIL
 10
4.6999999999998181
 20
-52.50000000000113
 30
0.0
 42
0.4142135623730951
  0
VERTEX
  5
2888
  8
SAPA_PROFIL
 10
4.9999999999997717
 20
-52.200000000000948
 30
0.0
  0
VERTEX
  5
2889
  8
SAPA_PROFIL
 10
4.9999999999997717
 20
-31.00000000000114
 30
0.0
 42
-0.4142135623730951
  0
VERTEX
  5
288A
  8
SAPA_PROFIL
 10
5.9999999999997717
 20
-30.00000000000114
 30
0.0
  0
VERTEX
  5
288B
  8
SAPA_PROFIL
 10
14.19999999999982
 20
-30.00000000000114
 30
0.0
 42
-0.4142135623730951
  0
VERTEX
  5
288C
  8
SAPA_PROFIL
 10
14.69999999999982
 20
-30.50000000000114
 30
0.0
  0
VERTEX
  5
288D
  8
SAPA_PROFIL
 10
14.69999999999982
 20
-33.700000000000962
 30
0.0
 42
-0.4142135623730951
  0
VERTEX
  5
288E
  8
SAPA_PROFIL
 10
14.19999999999982
 20
-34.200000000000962
 30
0.0
  0
VERTEX
  5
288F
  8
SAPA_PROFIL
 10
11.299999999999731
 20
-34.200000000000962
 30
0.0
 42
0.4142135623730951
  0
VERTEX
  5
2890
  8
SAPA_PROFIL
 10
10.999999999999771
 20
-34.500000000001137
 30
0.0
  0
VERTEX
  5
2891
  8
SAPA_PROFIL
 10
10.999999999999771
 20
-35.200000000000948
 30
0.0
 42
0.4142135623730951
  0
VERTEX
  5
2892
  8
SAPA_PROFIL
 10
11.299999999999731
 20
-35.500000000001137
 30
0.0
  0
VERTEX
  5
2893
  8
SAPA_PROFIL
 10
17.999999999999769
 20
-35.500000000001137
 30
0.0
  0
VERTEX
  5
2894
  8
SAPA_PROFIL
 10
18.586384015500471
 20
-35.035076580641999
 30
0.0
 42
0.7105995019814511
  0
VERTEX
  5
2895
  8
SAPA_PROFIL
 10
18.39999999999986
 20
-34.500000000001137
 30
0.0
  0
VERTEX
  5
2896
  8
SAPA_PROFIL
 10
16.499999999999769
 20
-34.500000000001137
 30
0.0
 42
-0.4142135623730951
  0
VERTEX
  5
2897
  8
SAPA_PROFIL
 10
16.199999999999822
 20
-34.200000000000962
 30
0.0
  0
VERTEX
  5
2898
  8
SAPA_PROFIL
 10
16.199999999999822
 20
-30.300000000001091
 30
0.0
 42
-0.4142135623730951
  0
VERTEX
  5
2899
  8
SAPA_PROFIL
 10
16.499999999999769
 20
-30.00000000000114
 30
0.0
  0
VERTEX
  5
289A
  8
SAPA_PROFIL
 10
23.199999999999822
 20
-30.00000000000114
 30
0.0
 42
-0.4142135623730951
  0
VERTEX
  5
289B
  8
SAPA_PROFIL
 10
23.499999999999769
 20
-30.300000000001091
 30
0.0
  0
VERTEX
  5
289C
  8
SAPA_PROFIL
 10
23.499999999999769
 20
-34.200000000000962
 30
0.0
 42
-0.4142135623730951
  0
VERTEX
  5
289D
  8
SAPA_PROFIL
 10
23.199999999999822
 20
-34.500000000001137
 30
0.0
  0
VERTEX
  5
289E
  8
SAPA_PROFIL
 10
21.999999999999769
 20
-34.500000000001137
 30
0.0
 42
0.7105990647993611
  0
VERTEX
  5
289F
  8
SAPA_PROFIL
 10
21.81361599999968
 20
-35.035076000001027
 30
0.0
  0
VERTEX
  5
28A0
  8
SAPA_PROFIL
 10
22.39999999999986
 20
-35.500000000001137
 30
0.0
  0
VERTEX
  5
28A1
  8
SAPA_PROFIL
 10
24.699999999999822
 20
-35.500000000001137
 30
0.0
 42
0.4142135623730951
  0
VERTEX
  5
28A2
  8
SAPA_PROFIL
 10
24.999999999999769
 20
-35.200000000000948
 30
0.0
  0
VERTEX
  5
28A3
  8
SAPA_PROFIL
 10
24.999999999999769
 20
63.999999999998863
 30
0.0
 42
0.4142135623730951
  0
VERTEX
  5
28A4
  8
SAPA_PROFIL
 10
24.499999999999769
 20
64.499999999998863
 30
0.0
  0
VERTEX
  5
28A5
  8
SAPA_PROFIL
 10
-24.500000000000231
 20
64.499999999998863
 30
0.0
 42
0.4142135623730951
  0
VERTEX
  5
28A6
  8
SAPA_PROFIL
 10
-25.000000000000231
 20
63.999999999998863
 30
0.0
  0
VERTEX
  5
28A7
  8
SAPA_PROFIL
 10
-25.000000000000231
 20
-35.200000000000948
 30
0.0
 42
0.4142135623730951
  0
VERTEX
  5
28A8
  8
SAPA_PROFIL
 10
-24.700000000000269
 20
-35.500000000001137
 30
0.0
  0
VERTEX
  5
28A9
  8
SAPA_PROFIL
 10
-22.400000000000318
 20
-35.500000000001137
 30
0.0
  0
VERTEX
  5
28AA
  8
SAPA_PROFIL
 10
-21.81361598449962
 20
-35.035076580641999
 30
0.0
 42
0.7105995019814511
  0
VERTEX
  5
28AB
  8
SAPA_PROFIL
 10
-22.000000000000231
 20
-34.500000000001137
 30
0.0
  0
VERTEX
  5
28AC
  8
SAPA_PROFIL
 10
-23.200000000000269
 20
-34.500000000001137
 30
0.0
 42
-0.4142135623730951
  0
VERTEX
  5
28AD
  8
SAPA_PROFIL
 10
-23.500000000000231
 20
-34.200000000000962
 30
0.0
  0
VERTEX
  5
28AE
  8
SAPA_PROFIL
 10
-23.500000000000231
 20
-30.300000000001091
 30
0.0
 42
-0.4142135623730951
  0
VERTEX
  5
28AF
  8
SAPA_PROFIL
 10
-23.200000000000269
 20
-30.00000000000114
 30
0.0
  0
VERTEX
  5
28B0
  8
SAPA_PROFIL
 10
-16.500000000000231
 20
-30.00000000000114
 30
0.0
 42
-0.4142135623730951
  0
VERTEX
  5
28B1
  8
SAPA_PROFIL
 10
-16.200000000000269
 20
-30.300000000001091
 30
0.0
  0
VERTEX
  5
28B2
  8
SAPA_PROFIL
 10
-16.200000000000269
 20
-34.200000000000962
 30
0.0
 42
-0.4142135623730951
  0
VERTEX
  5
28B3
  8
SAPA_PROFIL
 10
-16.500000000000231
 20
-34.500000000001137
 30
0.0
  0
VERTEX
  5
28B4
  8
SAPA_PROFIL
 10
-18.400000000000318
 20
-34.500000000001137
 30
0.0
 42
0.7105995019814511
  0
VERTEX
  5
28B5
  8
SAPA_PROFIL
 10
-18.586384015500919
 20
-35.035076580641999
 30
0.0
  0
VERTEX
  5
28B6
  8
SAPA_PROFIL
 10
-18.000000000000231
 20
-35.500000000001137
 30
0.0
  0
VERTEX
  5
28B7
  8
SAPA_PROFIL
 10
-11.30000000000018
 20
-35.500000000001137
 30
0.0
 42
0.4142135623730951
  0
VERTEX
  5
28B8
  8
SAPA_PROFIL
 10
-11.00000000000022
 20
-35.200000000000948
 30
0.0
  0
VERTEX
  5
28B9
  8
SAPA_PROFIL
 10
-11.00000000000022
 20
-34.500000000001137
 30
0.0
 42
0.4142135623730951
  0
VERTEX
  5
28BA
  8
SAPA_PROFIL
 10
-11.30000000000018
 20
-34.200000000000962
 30
0.0
  0
VERTEX
  5
28BB
  8
SAPA_PROFIL
 10
-14.200000000000269
 20
-34.200000000000962
 30
0.0
 42
-0.4142135623730951
  0
VERTEX
  5
28BC
  8
SAPA_PROFIL
 10
-14.700000000000269
 20
-33.700000000000962
 30
0.0
  0
VERTEX
  5
28BD
  8
SAPA_PROFIL
 10
-14.700000000000269
 20
-30.50000000000114
 30
0.0
 42
-0.4142135623730951
  0
VERTEX
  5
28BE
  8
SAPA_PROFIL
 10
-14.200000000000269
 20
-30.00000000000114
 30
0.0
  0
SEQEND
  5
28BF
  8
SAPA_PROFIL
  0
TEXT
  5
1B00
  8
SAPA_ARTIKELNR
 62
     4
 10
210.17986165673031
 20
20.051192308576908
 30
-0.1
 40
3.0
  1
42762
 50
180.0
  7
BYGG-036634$0$STANDARD
 71
     4
 72
     4
 11
203.17986165673031
 21
21.551192308576908
 31
-0.1
  0
POLYLINE
  5
1B0C
  8
SAPA_GLAS
 66
     1
 10
0.0
 20
0.0
 30
0.0
  0
VERTEX
  5
28D5
  8
SAPA_GLAS
 10
-40.999999999995111
 20
-51.499999999010242
 30
0.0
  0
VERTEX
  5
28D6
  8
SAPA_GLAS
 10
-10.99999999999511
 20
-51.499999999010242
 30
0.0
  0
VERTEX
  5
28D7
  8
SAPA_GLAS
 10
-10.99999999999511
 20
-45.499999999010242
 30
0.0
  0
VERTEX
  5
28D8
  8
SAPA_GLAS
 10
-40.999999999995111
 20
-45.499999999010242
 30
0.0
  0
SEQEND
  5
28D9
  8
SAPA_GLAS
  0
POLYLINE
  5
1B0D
  8
SAPA_GLAS
 66
     1
 10
0.0
 20
0.0
 30
0.0
  0
VERTEX
  5
28DA
  8
SAPA_GLAS
 10
-20.99999999999466
 20
-66.499999999011834
 30
0.0
  0
VERTEX
  5
28DB
  8
SAPA_GLAS
 10
-20.99999999999466
 20
-51.499999999010242
 30
0.0
  0
VERTEX
  5
28DC
  8
SAPA_GLAS
 10
-10.99999999999511
 20
-51.499999999010242
 30
0.0
  0
VERTEX
  5
28DD
  8
SAPA_GLAS
 10
-10.99999999999511
 20
-66.499999999011834
 30
0.0
  0
VERTEX
  5
28DE
  8
SAPA_GLAS
 10
-20.99999999999466
 20
-66.499999999011834
 30
0.0
  0
SEQEND
  5
28DF
  8
SAPA_GLAS
  0
POLYLINE
  5
1B0E
  8
SAPA_GLAS
 66
     1
 10
0.0
 20
0.0
 30
0.0
  0
VERTEX
  5
28E0
  8
SAPA_GLAS
 10
-40.999999999995111
 20
-72.499999999011834
 30
0.0
  0
VERTEX
  5
28E1
  8
SAPA_GLAS
 10
-10.99999999999511
 20
-72.499999999011891
 30
0.0
  0
VERTEX
  5
28E2
  8
SAPA_GLAS
 10
-10.99999999999511
 20
-66.499999999011834
 30
0.0
  0
VERTEX
  5
28E3
  8
SAPA_GLAS
 10
-40.999999999995111
 20
-66.499999999011834
 30
0.0
  0
SEQEND
  5
28E4
  8
SAPA_GLAS
  0
LINE
  5
1B0F
  8
SAPA_GLAS
 10
162.99997618388181
 20
-57.550000079969259
 30
-0.1
 11
162.99997618388181
 21
-42.550000079969259
 31
-0.1
  0
POLYLINE
  5
1B10
  8
SAPA_GLAS
 66
     1
 10
0.0
 20
0.0
 30
-0.1
  0
VERTEX
  5
28E5
  8
SAPA_GLAS
 10
182.99997618388181
 20
-36.550000079969273
 30
-0.1
  0
VERTEX
  5
28E6
  8
SAPA_GLAS
 10
152.99997618388181
 20
-36.550000079969273
 30
-0.1
  0
VERTEX
  5
28E7
  8
SAPA_GLAS
 10
152.99997618388181
 20
-63.550000079969273
 30
-0.1
  0
VERTEX
  5
28E8
  8
SAPA_GLAS
 10
182.99997618388181
 20
-63.550000079969273
 30
-0.1
  0
SEQEND
  5
28E9
  8
SAPA_GLAS
  0
LINE
  5
1B11
  8
SAPA_GLAS
 10
182.99997618388181
 20
-42.550000079969259
 30
-0.1
 11
152.99997618388181
 21
-42.550000079969259
 31
-0.1
  0
LINE
  5
1B12
  8
SAPA_GLAS
 10
182.99997618388181
 20
-57.550000079969259
 30
-0.1
 11
152.99997618388181
 21
-57.550000079969259
 31
-0.1
  0
LINE
  5
1B20
  8
SAPA_ISOLATOR
 10
25.000017830782181
 20
-7.3369832384363169
 30
0.0
 11
31.194641597965131
 21
-7.3369832384363169
 31
0.0
  0
LINE
  5
1B21
  8
SAPA_ISOLATOR
 10
25.000017830782181
 20
-42.578680595395241
 30
0.0
 11
25.000017830782181
 21
-7.3369832384363169
 31
0.0
  0
LINE
  5
1B22
  8
SAPA_ISOLATOR
 10
31.19464159796695
 20
-42.578680595395241
 30
0.0
 11
25.000017830782181
 21
-42.578680595395241
 31
0.0
  0
LINE
  5
1B23
  8
SAPA_ISOLATOR
 10
31.200017830782201
 20
-7.3369832384363169
 30
0.0
 11
31.19464159796695
 21
-42.578680595395241
 31
0.0
  0
POLYLINE
  5
1B24
  8
SAPA_ISOLATOR
 66
     1
 10
0.0
 20
0.0
 30
0.0
 70
     1
  0
VERTEX
  5
291B
  8
SAPA_ISOLATOR
 10
1.055634910785954
 20
-78.358578641879717
 30
0.0
 42
0.1989123671061458
  0
VERTEX
  5
291C
  8
SAPA_ISOLATOR
 10
0.2071067742551236
 20
-78.00710678019658
 30
0.0
  0
VERTEX
  5
291D
  8
SAPA_ISOLATOR
 10
-0.2071067742560331
 20
-78.00710678019658
 30
0.0
 42
0.1989123671061505
  0
VERTEX
  5
291E
  8
SAPA_ISOLATOR
 10
-1.0556349107868639
 20
-78.358578641879717
 30
0.0
  0
VERTEX
  5
291F
  8
SAPA_ISOLATOR
 10
-3.2878679658677461
 20
-80.590811692262079
 30
0.0
 42
-0.6681786375387371
  0
VERTEX
  5
2920
  8
SAPA_ISOLATOR
 10
-3.8000000000004661
 20
-80.378679657682881
 30
0.0
  0
VERTEX
  5
2921
  8
SAPA_ISOLATOR
 10
-3.8000000000004088
 20
-67.999999999010015
 30
0.0
 42
-0.4142135623731103
  0
VERTEX
  5
2922
  8
SAPA_ISOLATOR
 10
-3.500000000000397
 20
-67.699999999010004
 30
0.0
  0
VERTEX
  5
2923
  8
SAPA_ISOLATOR
 10
3.499999999999488
 20
-67.699999999010004
 30
0.0
 42
-0.4142135623731173
  0
VERTEX
  5
2924
  8
SAPA_ISOLATOR
 10
3.7999999999995562
 20
-67.999999999010015
 30
0.0
  0
VERTEX
  5
2925
  8
SAPA_ISOLATOR
 10
3.7999999999995562
 20
-80.378679657682881
 30
0.0
 42
-0.6681786375387019
  0
VERTEX
  5
2926
  8
SAPA_ISOLATOR
 10
3.2878679658668371
 20
-80.590811692262079
 30
0.0
  0
SEQEND
  5
2927
  8
SAPA_ISOLATOR
  0
POLYLINE
  5
1B25
  8
SAPA_ISOLATOR
 66
     1
 10
0.0
 20
0.0
 30
0.0
 70
     1
  0
VERTEX
  5
2928
  8
SAPA_ISOLATOR
 10
1.0999999999995671
 20
-52.147056273857743
 30
0.0
  0
VERTEX
  5
2929
  8
SAPA_ISOLATOR
 10
2.652943725151828
 20
-53.69999999901006
 30
0.0
  0
VERTEX
  5
292A
  8
SAPA_ISOLATOR
 10
3.4999999999996021
 20
-53.699999999010011
 30
0.0
 42
-0.4142135623731173
  0
VERTEX
  5
292B
  8
SAPA_ISOLATOR
 10
3.7999999999995562
 20
-53.999999999010022
 30
0.0
  0
VERTEX
  5
292C
  8
SAPA_ISOLATOR
 10
3.7999999999995562
 20
-65.999999999010015
 30
0.0
 42
-0.4142135623731103
  0
VERTEX
  5
292D
  8
SAPA_ISOLATOR
 10
3.4999999999996021
 20
-66.299999999010026
 30
0.0
  0
VERTEX
  5
292E
  8
SAPA_ISOLATOR
 10
-3.5000000000005111
 20
-66.299999999010026
 30
0.0
 42
-0.4142135623731173
  0
VERTEX
  5
292F
  8
SAPA_ISOLATOR
 10
-3.8000000000004661
 20
-65.999999999010015
 30
0.0
  0
VERTEX
  5
2930
  8
SAPA_ISOLATOR
 10
-3.8000000000004661
 20
-53.999999999010022
 30
0.0
 42
-0.4142135623731103
  0
VERTEX
  5
2931
  8
SAPA_ISOLATOR
 10
-3.5000000000005111
 20
-53.699999999010011
 30
0.0
  0
VERTEX
  5
2932
  8
SAPA_ISOLATOR
 10
-2.6529437251526811
 20
-53.69999999901006
 30
0.0
  0
VERTEX
  5
2933
  8
SAPA_ISOLATOR
 10
-1.10000000000042
 20
-52.147056273857629
 30
0.0
  0
VERTEX
  5
2934
  8
SAPA_ISOLATOR
 10
-1.100000000000477
 20
-46.615727369978629
 30
0.0
 42
-0.0633388351918984
  0
VERTEX
  5
2935
  8
SAPA_ISOLATOR
 10
-0.3024121700678393
 20
-45.403112852077129
 30
0.0
 42
-0.305556580149261
  0
VERTEX
  5
2936
  8
SAPA_ISOLATOR
 10
0.1515893836760824
 20
-45.342204651895429
 30
0.0
 42
-0.0648283553387436
  0
VERTEX
  5
2937
  8
SAPA_ISOLATOR
 10
1.0999999999995109
 20
-46.621347326266338
 30
0.0
  0
SEQEND
  5
2938
  8
SAPA_ISOLATOR
  0
POLYLINE
  5
1B26
  8
SAPA_ISOLATOR
 66
     1
 10
0.0
 20
0.0
 30
0.0
 70
     1
  0
VERTEX
  5
2939
  8
SAPA_ISOLATOR
 10
3.1499999999995221
 20
-52.499999999010008
 30
0.0
  0
VERTEX
  5
293A
  8
SAPA_ISOLATOR
 10
4.4999999999995453
 20
-52.499999999010008
 30
0.0
 42
-0.4142135623730951
  0
VERTEX
  5
293B
  8
SAPA_ISOLATOR
 10
4.9999999999995453
 20
-52.999999999010008
 30
0.0
  0
VERTEX
  5
293C
  8
SAPA_ISOLATOR
 10
4.9999999999995453
 20
-82.499999999010015
 30
0.0
  0
VERTEX
  5
293D
  8
SAPA_ISOLATOR
 10
3.4999999999995448
 20
-82.499999999010015
 30
0.0
  0
VERTEX
  5
293E
  8
SAPA_ISOLATOR
 10
0.3535533839701088
 20
-79.353553389603292
 30
0.0
 42
0.4142135623730951
  0
VERTEX
  5
293F
  8
SAPA_ISOLATOR
 10
-0.3535533972164444
 20
-79.353553389603292
 30
0.0
  0
VERTEX
  5
2940
  8
SAPA_ISOLATOR
 10
-3.5000000000004539
 20
-82.499999999010015
 30
0.0
  0
VERTEX
  5
2941
  8
SAPA_ISOLATOR
 10
-5.0000000000004539
 20
-82.499999999010015
 30
0.0
  0
VERTEX
  5
2942
  8
SAPA_ISOLATOR
 10
-5.0000000000004539
 20
-52.999999999010008
 30
0.0
 42
-0.4142135623730951
  0
VERTEX
  5
2943
  8
SAPA_ISOLATOR
 10
-4.5000000000004539
 20
-52.499999999010008
 30
0.0
  0
VERTEX
  5
2944
  8
SAPA_ISOLATOR
 10
-3.150000000000432
 20
-52.499999999010008
 30
0.0
  0
VERTEX
  5
2945
  8
SAPA_ISOLATOR
 10
-2.3000000000004661
 20
-51.649999999010049
 30
0.0
  0
VERTEX
  5
2946
  8
SAPA_ISOLATOR
 10
-2.3000000000004661
 20
-47.094967040794693
 30
0.0
 42
-0.0912836897734203
  0
VERTEX
  5
2947
  8
SAPA_ISOLATOR
 10
-1.081358332190518
 20
-44.975410007192693
 30
0.0
 42
-0.4396415083054684
  0
VERTEX
  5
2948
  8
SAPA_ISOLATOR
 10
1.081358332189722
 20
-44.97541000719275
 30
0.0
 42
-0.0912836897734202
  0
VERTEX
  5
2949
  8
SAPA_ISOLATOR
 10
2.2999999999995562
 20
-47.094967040794693
 30
0.0
  0
VERTEX
  5
294A
  8
SAPA_ISOLATOR
 10
2.2999999999995562
 20
-51.649999999010049
 30
0.0
  0
SEQEND
  5
294B
  8
SAPA_ISOLATOR
  0
LINE
  5
1B27
  8
SAPA_ISOLATOR
 10
31.19464159796695
 20
-42.578680595395241
 30
0.0
 11
25.000017830782181
 21
-7.3369832384363169
 31
0.0
  0
LINE
  5
1B28
  8
SAPA_ISOLATOR
 10
31.21660513366766
 20
-7.3369832384363169
 30
0.0
 11
25.011228900852391
 21
-42.578680595395241
 31
0.0
  0
CIRCLE
  5
1B42
  8
SAPA_FOGBAND
 10
18.616845196720529
 20
-74.6375681777605
 30
0.0
 40
0.2549509756796394
  0
INSERT
  5
1B43
  8
SAPA_FOGBAND
  6
CONTINUOUS
  2
*U138
 10
0.0
 20
0.0
 30
0.0
1001
ACAD
1002
{
1000
R14_HATCH_DATA
1000
1B43
1011
1.0
1021
0.0
1031
0.0
1021
0.0
1031
0.0
1011
0.0
1021
0.0
1031
0.0
1021
1.0
1031
0.0
1011
0.0
1021
0.0
1031
0.0
1021
0.0
1031
1.0
1040
0.0
1010
0.0
1020
0.0
1030
1.0
1000
SOLID
1070
     1
1070
     1
1071
        1
1071
        1
1071
        1
1070
     2
1040
18.616845196720529
1040
-74.6375681777605
1040
0.2549509756796394
1040
-3.1415926535897931
1040
3.1415926535897931
1070
     0
1071
        1
1005
1B42
1070
     0
1070
     1
1071
        1
1040
18.853584098290639
1040
-74.555716680431601
1040
0.0
1002
}
  0
POLYLINE
  5
1B44
  8
SAPA_FOGBAND
 66
     1
 10
0.0
 20
0.0
 30
0.0
 70
     1
  0
VERTEX
  5
2A98
  8
SAPA_FOGBAND
 10
17.716845196720548
 20
-77.599999957005025
 30
0.0
 42
-0.9999999999999998
  0
VERTEX
  5
2A99
  8
SAPA_FOGBAND
 10
19.51684519672051
 20
-77.599999957005025
 30
0.0
  0
VERTEX
  5
2A9A
  8
SAPA_FOGBAND
 10
19.51684519672051
 20
-78.199999957005048
 30
0.0
 42
-0.9999999999999998
  0
VERTEX
  5
2A9B
  8
SAPA_FOGBAND
 10
17.716845196720548
 20
-78.199999957005048
 30
0.0
  0
SEQEND
  5
2A9C
  8
SAPA_FOGBAND
  0
POLYLINE
  5
1B45
  8
SAPA_FOGBAND
 66
     1
 10
0.0
 20
0.0
 30
0.0
 70
     1
  0
VERTEX
  5
2A9D
  8
SAPA_FOGBAND
 10
27.244721504893729
 20
-72.499999957005002
 30
0.0
 42
-0.0775891054856093
  0
VERTEX
  5
2A9E
  8
SAPA_FOGBAND
 10
23.777939774471179
 20
-72.816635941066352
 30
0.0
  0
VERTEX
  5
2A9F
  8
SAPA_FOGBAND
 10
23.54005028164238
 20
-72.599999957004954
 30
0.0
 42
0.5773502691896298
  0
VERTEX
  5
2AA0
  8
SAPA_FOGBAND
 10
23.193640120128521
 20
-72.599999957004954
 30
0.0
  0
VERTEX
  5
2AA1
  8
SAPA_FOGBAND
 10
22.955592503397721
 20
-72.816909811228015
 30
0.0
  0
VERTEX
  5
2AA2
  8
SAPA_FOGBAND
 10
22.178097893481091
 20
-72.816909811228015
 30
0.0
  0
VERTEX
  5
2AA3
  8
SAPA_FOGBAND
 10
21.94005028164236
 20
-72.599999957004954
 30
0.0
 42
0.577350269189699
  0
VERTEX
  5
2AA4
  8
SAPA_FOGBAND
 10
21.593640120128612
 20
-72.599999957004954
 30
0.0
  0
VERTEX
  5
2AA5
  8
SAPA_FOGBAND
 10
21.355592503397819
 20
-72.816909811228015
 30
0.0
  0
VERTEX
  5
2AA6
  8
SAPA_FOGBAND
 10
20.578097893481068
 20
-72.816909811228015
 30
0.0
  0
VERTEX
  5
2AA7
  8
SAPA_FOGBAND
 10
20.340050281642341
 20
-72.599999957004954
 30
0.0
 42
0.577350269189699
  0
VERTEX
  5
2AA8
  8
SAPA_FOGBAND
 10
19.993640120128589
 20
-72.599999957004954
 30
0.0
  0
VERTEX
  5
2AA9
  8
SAPA_FOGBAND
 10
19.755592503397789
 20
-72.816909811228015
 30
0.0
  0
VERTEX
  5
2AAA
  8
SAPA_FOGBAND
 10
18.978097893481049
 20
-72.816909811228015
 30
0.0
  0
VERTEX
  5
2AAB
  8
SAPA_FOGBAND
 10
18.740050281642421
 20
-72.599999957004954
 30
0.0
 42
0.5773502691896298
  0
VERTEX
  5
2AAC
  8
SAPA_FOGBAND
 10
18.393640120128559
 20
-72.599999957004954
 30
0.0
  0
VERTEX
  5
2AAD
  8
SAPA_FOGBAND
 10
18.15559250339777
 20
-72.816909811228015
 30
0.0
  0
VERTEX
  5
2AAE
  8
SAPA_FOGBAND
 10
17.378097893481019
 20
-72.816909811228015
 30
0.0
  0
VERTEX
  5
2AAF
  8
SAPA_FOGBAND
 10
17.140050281642399
 20
-72.599999957004954
 30
0.0
 42
0.5773502691896298
  0
VERTEX
  5
2AB0
  8
SAPA_FOGBAND
 10
16.79364012012854
 20
-72.599999957004954
 30
0.0
  0
VERTEX
  5
2AB1
  8
SAPA_FOGBAND
 10
16.555592503397751
 20
-72.816909811228015
 30
0.0
  0
VERTEX
  5
2AB2
  8
SAPA_FOGBAND
 10
15.778097889316079
 20
-72.816909811228015
 30
0.0
  0
VERTEX
  5
2AB3
  8
SAPA_FOGBAND
 10
15.54005027747735
 20
-72.599999957004954
 30
0.0
 42
0.577350269189699
  0
VERTEX
  5
2AB4
  8
SAPA_FOGBAND
 10
15.1936401159636
 20
-72.599999957004954
 30
0.0
  0
VERTEX
  5
2AB5
  8
SAPA_FOGBAND
 10
14.3936401164085
 20
-73.673330025489463
 30
0.0
 42
0.1316524987190269
  0
VERTEX
  5
2AB6
  8
SAPA_FOGBAND
 10
14.366845196720529
 20
-73.773330026260155
 30
0.0
  0
VERTEX
  5
2AB7
  8
SAPA_FOGBAND
 10
14.366845196720419
 20
-76.299999957004957
 30
0.0
 42
0.4142135623730951
  0
VERTEX
  5
2AB8
  8
SAPA_FOGBAND
 10
14.566845196720459
 20
-76.499999957005002
 30
0.0
  0
VERTEX
  5
2AB9
  8
SAPA_FOGBAND
 10
16.616845196720529
 20
-76.499999957005002
 30
0.0
 42
-0.4142135623730951
  0
VERTEX
  5
2ABA
  8
SAPA_FOGBAND
 10
17.116845196720529
 20
-76.999999957005002
 30
0.0
  0
VERTEX
  5
2ABB
  8
SAPA_FOGBAND
 10
17.116845196720529
 20
-77.726794876248164
 30
0.0
  0
VERTEX
  5
2ABC
  8
SAPA_FOGBAND
 10
16.865081387699998
 20
-77.794254785558564
 30
0.0
 42
0.4740571810232869
  0
VERTEX
  5
2ABD
  8
SAPA_FOGBAND
 10
16.73778752533644
 20
-78.076537371197205
 30
0.0
  0
VERTEX
  5
2ABE
  8
SAPA_FOGBAND
 10
17.357888028094969
 20
-79.522743507956989
 30
0.0
 42
0.2846003776495916
  0
VERTEX
  5
2ABF
  8
SAPA_FOGBAND
 10
17.805532206555199
 20
-79.799999957004957
 30
0.0
  0
VERTEX
  5
2AC0
  8
SAPA_FOGBAND
 10
19.428158186885749
 20
-79.799999957004957
 30
0.0
 42
0.2846003776495917
  0
VERTEX
  5
2AC1
  8
SAPA_FOGBAND
 10
19.875802365345969
 20
-79.522743507956989
 30
0.0
  0
VERTEX
  5
2AC2
  8
SAPA_FOGBAND
 10
20.495902868104508
 20
-78.076537371197205
 30
0.0
 42
0.4740571810232869
  0
VERTEX
  5
2AC3
  8
SAPA_FOGBAND
 10
20.36860900574095
 20
-77.794254785558564
 30
0.0
  0
VERTEX
  5
2AC4
  8
SAPA_FOGBAND
 10
20.116845196720529
 20
-77.726794876248164
 30
0.0
  0
VERTEX
  5
2AC5
  8
SAPA_FOGBAND
 10
20.116845196720529
 20
-76.999999957005002
 30
0.0
 42
-0.4142135623730951
  0
VERTEX
  5
2AC6
  8
SAPA_FOGBAND
 10
20.616845196720529
 20
-76.499999957005002
 30
0.0
  0
VERTEX
  5
2AC7
  8
SAPA_FOGBAND
 10
23.666845196720491
 20
-76.499999957005002
 30
0.0
 42
-0.4142135623730951
  0
VERTEX
  5
2AC8
  8
SAPA_FOGBAND
 10
23.866845196720529
 20
-76.699999957005033
 30
0.0
  0
VERTEX
  5
2AC9
  8
SAPA_FOGBAND
 10
23.866845196720419
 20
-77.599999957005025
 30
0.0
 42
0.4142135623731784
  0
VERTEX
  5
2ACA
  8
SAPA_FOGBAND
 10
24.066845196720461
 20
-77.799999957004957
 30
0.0
  0
VERTEX
  5
2ACB
  8
SAPA_FOGBAND
 10
24.76684519672051
 20
-77.79999995700507
 30
0.0
 42
0.4142135623730398
  0
VERTEX
  5
2ACC
  8
SAPA_FOGBAND
 10
25.066845196720472
 20
-77.499999957005002
 30
0.0
  0
VERTEX
  5
2ACD
  8
SAPA_FOGBAND
 10
25.066845196720472
 20
-76.689488180353464
 30
0.0
 42
-0.1316524975873973
  0
VERTEX
  5
2ACE
  8
SAPA_FOGBAND
 10
25.334794389151629
 20
-75.689488180353464
 30
0.0
  0
VERTEX
  5
2ACF
  8
SAPA_FOGBAND
 10
30.497639539192051
 20
-73.099920188261535
 30
0.0
 42
0.7057658529986604
  0
VERTEX
  5
2AD0
  8
SAPA_FOGBAND
 10
30.230046363833711
 20
-72.499999957005002
 30
0.0
  0
SEQEND
  5
2AD1
  8
SAPA_FOGBAND
  0
POLYLINE
  5
1B46
  8
SAPA_FOGBAND
 66
     1
 10
0.0
 20
0.0
 30
0.0
 70
     1
  0
VERTEX
  5
2AD2
  8
SAPA_FOGBAND
 10
16.003393549382931
 20
-36.300000000001091
 30
0.0
  0
VERTEX
  5
2AD3
  8
SAPA_FOGBAND
 10
23.303393549382889
 20
-36.300000000001091
 30
0.0
 42
0.4142135623730951
  0
VERTEX
  5
2AD4
  8
SAPA_FOGBAND
 10
23.803393549382889
 20
-35.800000000001091
 30
0.0
  0
VERTEX
  5
2AD5
  8
SAPA_FOGBAND
 10
23.803393549382889
 20
-35.500000000001137
 30
0.0
  0
VERTEX
  5
2AD6
  8
SAPA_FOGBAND
 10
22.20339354938287
 20
-35.500000000001137
 30
0.0
 42
-0.4142135623730951
  0
VERTEX
  5
2AD7
  8
SAPA_FOGBAND
 10
21.70339354938287
 20
-35.000000000001137
 30
0.0
  0
VERTEX
  5
2AD8
  8
SAPA_FOGBAND
 10
21.70339354938287
 20
-34.058574583119253
 30
0.0
  0
VERTEX
  5
2AD9
  8
SAPA_FOGBAND
 10
21.955157358403401
 20
-33.991114673808852
 30
0.0
 42
0.4740571810232243
  0
VERTEX
  5
2ADA
  8
SAPA_FOGBAND
 10
22.082451220766959
 20
-33.708832088170197
 30
0.0
  0
VERTEX
  5
2ADB
  8
SAPA_FOGBAND
 10
21.46235071800831
 20
-32.262625951410321
 30
0.0
 42
0.2846003776496037
  0
VERTEX
  5
2ADC
  8
SAPA_FOGBAND
 10
21.0147065395482
 20
-31.985369502362349
 30
0.0
  0
VERTEX
  5
2ADD
  8
SAPA_FOGBAND
 10
19.392080559217639
 20
-31.985369502362349
 30
0.0
 42
0.2846003776496048
  0
VERTEX
  5
2ADE
  8
SAPA_FOGBAND
 10
18.94443638075742
 20
-32.262625951410321
 30
0.0
  0
VERTEX
  5
2ADF
  8
SAPA_FOGBAND
 10
18.324335877998781
 20
-33.708832088170197
 30
0.0
 42
0.4740571810232242
  0
VERTEX
  5
2AE0
  8
SAPA_FOGBAND
 10
18.451629740362449
 20
-33.991114673808852
 30
0.0
  0
VERTEX
  5
2AE1
  8
SAPA_FOGBAND
 10
18.70339354938287
 20
-34.058574583119253
 30
0.0
  0
VERTEX
  5
2AE2
  8
SAPA_FOGBAND
 10
18.70339354938287
 20
-35.000000000001137
 30
0.0
 42
-0.4142135623730951
  0
VERTEX
  5
2AE3
  8
SAPA_FOGBAND
 10
18.20339354938287
 20
-35.500000000001137
 30
0.0
  0
VERTEX
  5
2AE4
  8
SAPA_FOGBAND
 10
15.50339354938305
 20
-35.500000000001137
 30
0.0
  0
VERTEX
  5
2AE5
  8
SAPA_FOGBAND
 10
15.503393549382929
 20
-35.800000000001091
 30
0.0
 42
0.4142135623730951
  0
SEQEND
  5
2AE6
  8
SAPA_FOGBAND
  0
POLYLINE
  5
1B47
  8
SAPA_FOGBAND
 66
     1
 10
0.0
 20
0.0
 30
0.0
 70
     1
  0
VERTEX
  5
2AE7
  8
SAPA_FOGBAND
 10
19.303393549382889
 20
-34.185369502362391
 30
0.0
  0
VERTEX
  5
2AE8
  8
SAPA_FOGBAND
 10
19.303393549382889
 20
-33.585369502362369
 30
0.0
 42
-0.9999999999999998
  0
VERTEX
  5
2AE9
  8
SAPA_FOGBAND
 10
21.10339354938284
 20
-33.585369502362369
 30
0.0
  0
VERTEX
  5
2AEA
  8
SAPA_FOGBAND
 10
21.10339354938284
 20
-34.185369502362391
 30
0.0
 42
-0.9999999999999998
  0
SEQEND
  5
2AEB
  8
SAPA_FOGBAND
  0
POLYLINE
  5
1B48
  8
SAPA_FOGBAND
 66
     1
 10
0.0
 20
0.0
 30
0.0
  0
VERTEX
  5
2AEC
  8
SAPA_FOGBAND
 10
23.803393549382889
 20
-35.800000000001091
 30
0.0
  0
VERTEX
  5
2AED
  8
SAPA_FOGBAND
 10
23.803393549382889
 20
-35.500000000001137
 30
0.0
  0
VERTEX
  5
2AEE
  8
SAPA_FOGBAND
 10
24.715553712764262
 20
-35.500000000001137
 30
0.0
 42
-0.4027293761437522
  0
VERTEX
  5
2AEF
  8
SAPA_FOGBAND
 10
25.015321266362299
 20
-35.788192637470267
 30
0.0
  0
VERTEX
  5
2AF0
  8
SAPA_FOGBAND
 10
25.63547260484345
 20
-42.423995511554381
 30
0.0
 42
-0.4366759199119207
  0
VERTEX
  5
2AF1
  8
SAPA_FOGBAND
 10
24.638365129324448
 20
-43.500000000001712
 30
0.0
  0
VERTEX
  5
2AF2
  8
SAPA_FOGBAND
 10
12.76316551333545
 20
-43.500000000001712
 30
0.0
 42
-0.1134871727417796
  0
VERTEX
  5
2AF3
  8
SAPA_FOGBAND
 10
12.32638667772332
 20
-43.399568923854297
 30
0.0
  0
VERTEX
  5
2AF4
  8
SAPA_FOGBAND
 10
5.2213249109457323
 20
-40.440889661177501
 30
0.0
 42
-0.2866770623134215
  0
VERTEX
  5
2AF5
  8
SAPA_FOGBAND
 10
5.0020663648643398
 20
-40.090931572825809
 30
0.0
  0
VERTEX
  5
2AF6
  8
SAPA_FOGBAND
 10
5.0020663648643398
 20
-39.098088390161926
 30
0.0
 42
-0.3386584782462731
  0
VERTEX
  5
2AF7
  8
SAPA_FOGBAND
 10
5.5928058607416409
 20
-38.325942004160993
 30
0.0
  0
VERTEX
  5
2AF8
  8
SAPA_FOGBAND
 10
15.050210681903961
 20
-35.546144059771677
 30
0.0
 42
-0.0644539213931785
  0
VERTEX
  5
2AF9
  8
SAPA_FOGBAND
 10
15.40668521550398
 20
-35.500000000001137
 30
0.0
  0
VERTEX
  5
2AFA
  8
SAPA_FOGBAND
 10
15.50339354938305
 20
-35.500000000001137
 30
0.0
  0
SEQEND
  5
2AFB
  8
SAPA_FOGBAND
  0
POLYLINE
  5
1B49
  8
SAPA_FOGBAND
 66
     1
 10
0.0
 20
0.0
 30
0.0
 70
     1
  0
VERTEX
  5
2AFC
  8
SAPA_FOGBAND
 10
11.8802972077892
 20
-37.605164153427438
 30
0.0
  0
VERTEX
  5
2AFD
  8
SAPA_FOGBAND
 10
7.6042179959096714
 20
-39.020702744133082
 30
0.0
 42
0.444186966527488
  0
VERTEX
  5
2AFE
  8
SAPA_FOGBAND
 10
7.569848157950112
 20
-39.495522529297837
 30
0.0
  0
VERTEX
  5
2AFF
  8
SAPA_FOGBAND
 10
11.7622613064361
 20
-41.890424100317382
 30
0.0
 42
0.5537304554466119
  0
VERTEX
  5
2B00
  8
SAPA_FOGBAND
 10
12.69329399191267
 20
-41.307503437660898
 30
0.0
  0
VERTEX
  5
2B01
  8
SAPA_FOGBAND
 10
12.69329399191267
 20
-38.231806045762262
 30
0.0
 42
0.4917973357877383
  0
SEQEND
  5
2B02
  8
SAPA_FOGBAND
  0
POLYLINE
  5
1B4A
  8
SAPA_FOGBAND
 10
21.926001336390009
 20
-40.020122589264574
 30
0.0
 66
     1
 70
     8
  0
VERTEX
  8
SAPA_FOGBAND
  5
2C68
 10
21.9260
 20
-40.0201
 30
0.000000
  70
    32
  0
VERTEX
  8
SAPA_FOGBAND
  5
2C69
 10
21.9213
 20
-40.1350
 30
0.000000
  70
    32
  0
VERTEX
  8
SAPA_FOGBAND
  5
2C6A
 10
21.9094
 20
-40.2495
 30
0.000000
  70
    32
  0
VERTEX
  8
SAPA_FOGBAND
  5
2C6B
 10
21.8905
 20
-40.3634
 30
0.000000
  70
    32
  0
VERTEX
  8
SAPA_FOGBAND
  5
2C6C
 10
21.8644
 20
-40.4765
 30
0.000000
  70
    32
  0
VERTEX
  8
SAPA_FOGBAND
  5
2C6D
 10
21.8314
 20
-40.5883
 30
0.000000
  70
    32
  0
VERTEX
  8
SAPA_FOGBAND
  5
2C6E
 10
21.7914
 20
-40.6987
 30
0.000000
  70
    32
  0
VERTEX
  8
SAPA_FOGBAND
  5
2C6F
 10
21.7446
 20
-40.8074
 30
0.000000
  70
    32
  0
VERTEX
  8
SAPA_FOGBAND
  5
2C70
 10
21.6911
 20
-40.9141
 30
0.000000
  70
    32
  0
VERTEX
  8
SAPA_FOGBAND
  5
2C71
 10
21.6310
 20
-41.0186
 30
0.000000
  70
    32
  0
VERTEX
  8
SAPA_FOGBAND
  5
2C72
 10
21.5645
 20
-41.1206
 30
0.000000
  70
    32
  0
VERTEX
  8
SAPA_FOGBAND
  5
2C73
 10
21.4917
 20
-41.2199
 30
0.000000
  70
    32
  0
VERTEX
  8
SAPA_FOGBAND
  5
2C74
 10
21.4128
 20
-41.3163
 30
0.000000
  70
    32
  0
VERTEX
  8
SAPA_FOGBAND
  5
2C75
 10
21.3279
 20
-41.4094
 30
0.000000
  70
    32
  0
VERTEX
  8
SAPA_FOGBAND
  5
2C76
 10
21.2374
 20
-41.4992
 30
0.000000
  70
    32
  0
VERTEX
  8
SAPA_FOGBAND
  5
2C77
 10
21.1414
 20
-41.5852
 30
0.000000
  70
    32
  0
VERTEX
  8
SAPA_FOGBAND
  5
2C78
 10
21.0401
 20
-41.6675
 30
0.000000
  70
    32
  0
VERTEX
  8
SAPA_FOGBAND
  5
2C79
 10
20.9338
 20
-41.7457
 30
0.000000
  70
    32
  0
VERTEX
  8
SAPA_FOGBAND
  5
2C7A
 10
20.8227
 20
-41.8197
 30
0.000000
  70
    32
  0
VERTEX
  8
SAPA_FOGBAND
  5
2C7B
 10
20.7071
 20
-41.8893
 30
0.000000
  70
    32
  0
VERTEX
  8
SAPA_FOGBAND
  5
2C7C
 10
20.5874
 20
-41.9543
 30
0.000000
  70
    32
  0
VERTEX
  8
SAPA_FOGBAND
  5
2C7D
 10
20.4636
 20
-42.0146
 30
0.000000
  70
    32
  0
VERTEX
  8
SAPA_FOGBAND
  5
2C7E
 10
20.3363
 20
-42.0699
 30
0.000000
  70
    32
  0
VERTEX
  8
SAPA_FOGBAND
  5
2C7F
 10
20.2057
 20
-42.1203
 30
0.000000
  70
    32
  0
VERTEX
  8
SAPA_FOGBAND
  5
2C80
 10
20.0720
 20
-42.1656
 30
0.000000
  70
    32
  0
VERTEX
  8
SAPA_FOGBAND
  5
2C81
 10
19.9356
 20
-42.2056
 30
0.000000
  70
    32
  0
VERTEX
  8
SAPA_FOGBAND
  5
2C82
 10
19.7969
 20
-42.2403
 30
0.000000
  70
    32
  0
VERTEX
  8
SAPA_FOGBAND
  5
2C83
 10
19.6562
 20
-42.2696
 30
0.000000
  70
    32
  0
VERTEX
  8
SAPA_FOGBAND
  5
2C84
 10
19.5138
 20
-42.2933
 30
0.000000
  70
    32
  0
VERTEX
  8
SAPA_FOGBAND
  5
2C85
 10
19.3701
 20
-42.3115
 30
0.000000
  70
    32
  0
VERTEX
  8
SAPA_FOGBAND
  5
2C86
 10
19.2253
 20
-42.3242
 30
0.000000
  70
    32
  0
VERTEX
  8
SAPA_FOGBAND
  5
2C87
 10
19.0799
 20
-42.3312
 30
0.000000
  70
    32
  0
VERTEX
  8
SAPA_FOGBAND
  5
2C88
 10
18.9342
 20
-42.3326
 30
0.000000
  70
    32
  0
VERTEX
  8
SAPA_FOGBAND
  5
2C89
 10
18.7886
 20
-42.3283
 30
0.000000
  70
    32
  0
VERTEX
  8
SAPA_FOGBAND
  5
2C8A
 10
18.6434
 20
-42.3184
 30
0.000000
  70
    32
  0
VERTEX
  8
SAPA_FOGBAND
  5
2C8B
 10
18.4989
 20
-42.3029
 30
0.000000
  70
    32
  0
VERTEX
  8
SAPA_FOGBAND
  5
2C8C
 10
18.3556
 20
-42.2818
 30
0.000000
  70
    32
  0
VERTEX
  8
SAPA_FOGBAND
  5
2C8D
 10
18.2137
 20
-42.2552
 30
0.000000
  70
    32
  0
VERTEX
  8
SAPA_FOGBAND
  5
2C8E
 10
18.0736
 20
-42.2231
 30
0.000000
  70
    32
  0
VERTEX
  8
SAPA_FOGBAND
  5
2C8F
 10
17.9356
 20
-42.1857
 30
0.000000
  70
    32
  0
VERTEX
  8
SAPA_FOGBAND
  5
2C90
 10
17.8001
 20
-42.1430
 30
0.000000
  70
    32
  0
VERTEX
  8
SAPA_FOGBAND
  5
2C91
 10
17.6673
 20
-42.0951
 30
0.000000
  70
    32
  0
VERTEX
  8
SAPA_FOGBAND
  5
2C92
 10
17.5377
 20
-42.0421
 30
0.000000
  70
    32
  0
VERTEX
  8
SAPA_FOGBAND
  5
2C93
 10
17.4115
 20
-41.9842
 30
0.000000
  70
    32
  0
VERTEX
  8
SAPA_FOGBAND
  5
2C94
 10
17.2890
 20
-41.9214
 30
0.000000
  70
    32
  0
VERTEX
  8
SAPA_FOGBAND
  5
2C95
 10
17.1705
 20
-41.8541
 30
0.000000
  70
    32
  0
VERTEX
  8
SAPA_FOGBAND
  5
2C96
 10
17.0564
 20
-41.7822
 30
0.000000
  70
    32
  0
VERTEX
  8
SAPA_FOGBAND
  5
2C97
 10
16.9468
 20
-41.7060
 30
0.000000
  70
    32
  0
VERTEX
  8
SAPA_FOGBAND
  5
2C98
 10
16.8421
 20
-41.6257
 30
0.000000
  70
    32
  0
VERTEX
  8
SAPA_FOGBAND
  5
2C99
 10
16.7424
 20
-41.5415
 30
0.000000
  70
    32
  0
VERTEX
  8
SAPA_FOGBAND
  5
2C9A
 10
16.6481
 20
-41.4535
 30
0.000000
  70
    32
  0
VERTEX
  8
SAPA_FOGBAND
  5
2C9B
 10
16.5594
 20
-41.3620
 30
0.000000
  70
    32
  0
VERTEX
  8
SAPA_FOGBAND
  5
2C9C
 10
16.4764
 20
-41.2671
 30
0.000000
  70
    32
  0
VERTEX
  8
SAPA_FOGBAND
  5
2C9D
 10
16.3995
 20
-41.1693
 30
0.000000
  70
    32
  0
VERTEX
  8
SAPA_FOGBAND
  5
2C9E
 10
16.3286
 20
-41.0685
 30
0.000000
  70
    32
  0
VERTEX
  8
SAPA_FOGBAND
  5
2C9F
 10
16.2642
 20
-40.9652
 30
0.000000
  70
    32
  0
VERTEX
  8
SAPA_FOGBAND
  5
2CA0
 10
16.2062
 20
-40.8595
 30
0.000000
  70
    32
  0
VERTEX
  8
SAPA_FOGBAND
  5
2CA1
 10
16.1548
 20
-40.7517
 30
0.000000
  70
    32
  0
VERTEX
  8
SAPA_FOGBAND
  5
2CA2
 10
16.1102
 20
-40.6421
 30
0.000000
  70
    32
  0
VERTEX
  8
SAPA_FOGBAND
  5
2CA3
 10
16.0724
 20
-40.5310
 30
0.000000
  70
    32
  0
VERTEX
  8
SAPA_FOGBAND
  5
2CA4
 10
16.0416
 20
-40.4185
 30
0.000000
  70
    32
  0
VERTEX
  8
SAPA_FOGBAND
  5
2CA5
 10
16.0178
 20
-40.3050
 30
0.000000
  70
    32
  0
VERTEX
  8
SAPA_FOGBAND
  5
2CA6
 10
16.0011
 20
-40.1907
 30
0.000000
  70
    32
  0
VERTEX
  8
SAPA_FOGBAND
  5
2CA7
 10
15.9916
 20
-40.0760
 30
0.000000
  70
    32
  0
VERTEX
  8
SAPA_FOGBAND
  5
2CA8
 10
15.9891
 20
-39.9610
 30
0.000000
  70
    32
  0
VERTEX
  8
SAPA_FOGBAND
  5
2CA9
 10
15.9938
 20
-39.8462
 30
0.000000
  70
    32
  0
VERTEX
  8
SAPA_FOGBAND
  5
2CAA
 10
16.0057
 20
-39.7316
 30
0.000000
  70
    32
  0
VERTEX
  8
SAPA_FOGBAND
  5
2CAB
 10
16.0247
 20
-39.6177
 30
0.000000
  70
    32
  0
VERTEX
  8
SAPA_FOGBAND
  5
2CAC
 10
16.0507
 20
-39.5047
 30
0.000000
  70
    32
  0
VERTEX
  8
SAPA_FOGBAND
  5
2CAD
 10
16.0837
 20
-39.3929
 30
0.000000
  70
    32
  0
VERTEX
  8
SAPA_FOGBAND
  5
2CAE
 10
16.1237
 20
-39.2825
 30
0.000000
  70
    32
  0
VERTEX
  8
SAPA_FOGBAND
  5
2CAF
 10
16.1705
 20
-39.1738
 30
0.000000
  70
    32
  0
VERTEX
  8
SAPA_FOGBAND
  5
2CB0
 10
16.2240
 20
-39.0670
 30
0.000000
  70
    32
  0
VERTEX
  8
SAPA_FOGBAND
  5
2CB1
 10
16.2841
 20
-38.9625
 30
0.000000
  70
    32
  0
VERTEX
  8
SAPA_FOGBAND
  5
2CB2
 10
16.3506
 20
-38.8605
 30
0.000000
  70
    32
  0
VERTEX
  8
SAPA_FOGBAND
  5
2CB3
 10
16.4234
 20
-38.7612
 30
0.000000
  70
    32
  0
VERTEX
  8
SAPA_FOGBAND
  5
2CB4
 10
16.5023
 20
-38.6649
 30
0.000000
  70
    32
  0
VERTEX
  8
SAPA_FOGBAND
  5
2CB5
 10
16.5872
 20
-38.5717
 30
0.000000
  70
    32
  0
VERTEX
  8
SAPA_FOGBAND
  5
2CB6
 10
16.6777
 20
-38.4820
 30
0.000000
  70
    32
  0
VERTEX
  8
SAPA_FOGBAND
  5
2CB7
 10
16.7737
 20
-38.3959
 30
0.000000
  70
    32
  0
VERTEX
  8
SAPA_FOGBAND
  5
2CB8
 10
16.8750
 20
-38.3137
 30
0.000000
  70
    32
  0
VERTEX
  8
SAPA_FOGBAND
  5
2CB9
 10
16.9813
 20
-38.2354
 30
0.000000
  70
    32
  0
VERTEX
  8
SAPA_FOGBAND
  5
2CBA
 10
17.0924
 20
-38.1615
 30
0.000000
  70
    32
  0
VERTEX
  8
SAPA_FOGBAND
  5
2CBB
 10
17.2080
 20
-38.0919
 30
0.000000
  70
    32
  0
VERTEX
  8
SAPA_FOGBAND
  5
2CBC
 10
17.3278
 20
-38.0269
 30
0.000000
  70
    32
  0
VERTEX
  8
SAPA_FOGBAND
  5
2CBD
 10
17.4515
 20
-37.9666
 30
0.000000
  70
    32
  0
VERTEX
  8
SAPA_FOGBAND
  5
2CBE
 10
17.5788
 20
-37.9112
 30
0.000000
  70
    32
  0
VERTEX
  8
SAPA_FOGBAND
  5
2CBF
 10
17.7095
 20
-37.8608
 30
0.000000
  70
    32
  0
VERTEX
  8
SAPA_FOGBAND
  5
2CC0
 10
17.8431
 20
-37.8156
 30
0.000000
  70
    32
  0
VERTEX
  8
SAPA_FOGBAND
  5
2CC1
 10
17.9795
 20
-37.7755
 30
0.000000
  70
    32
  0
VERTEX
  8
SAPA_FOGBAND
  5
2CC2
 10
18.1182
 20
-37.7409
 30
0.000000
  70
    32
  0
VERTEX
  8
SAPA_FOGBAND
  5
2CC3
 10
18.2589
 20
-37.7116
 30
0.000000
  70
    32
  0
VERTEX
  8
SAPA_FOGBAND
  5
2CC4
 10
18.4013
 20
-37.6878
 30
0.000000
  70
    32
  0
VERTEX
  8
SAPA_FOGBAND
  5
2CC5
 10
18.5451
 20
-37.6696
 30
0.000000
  70
    32
  0
VERTEX
  8
SAPA_FOGBAND
  5
2CC6
 10
18.6898
 20
-37.6570
 30
0.000000
  70
    32
  0
VERTEX
  8
SAPA_FOGBAND
  5
2CC7
 10
18.8352
 20
-37.6500
 30
0.000000
  70
    32
  0
VERTEX
  8
SAPA_FOGBAND
  5
2CC8
 10
18.9809
 20
-37.6486
 30
0.000000
  70
    32
  0
VERTEX
  8
SAPA_FOGBAND
  5
2CC9
 10
19.1265
 20
-37.6529
 30
0.000000
  70
    32
  0
VERTEX
  8
SAPA_FOGBAND
  5
2CCA
 10
19.2717
 20
-37.6628
 30
0.000000
  70
    32
  0
VERTEX
  8
SAPA_FOGBAND
  5
2CCB
 10
19.4162
 20
-37.6783
 30
0.000000
  70
    32
  0
VERTEX
  8
SAPA_FOGBAND
  5
2CCC
 10
19.5595
 20
-37.6994
 30
0.000000
  70
    32
  0
VERTEX
  8
SAPA_FOGBAND
  5
2CCD
 10
19.7014
 20
-37.7260
 30
0.000000
  70
    32
  0
VERTEX
  8
SAPA_FOGBAND
  5
2CCE
 10
19.8416
 20
-37.7580
 30
0.000000
  70
    32
  0
VERTEX
  8
SAPA_FOGBAND
  5
2CCF
 10
19.9795
 20
-37.7955
 30
0.000000
  70
    32
  0
VERTEX
  8
SAPA_FOGBAND
  5
2CD0
 10
20.1151
 20
-37.8382
 30
0.000000
  70
    32
  0
VERTEX
  8
SAPA_FOGBAND
  5
2CD1
 10
20.2478
 20
-37.8861
 30
0.000000
  70
    32
  0
VERTEX
  8
SAPA_FOGBAND
  5
2CD2
 10
20.3774
 20
-37.9391
 30
0.000000
  70
    32
  0
VERTEX
  8
SAPA_FOGBAND
  5
2CD3
 10
20.5036
 20
-37.9970
 30
0.000000
  70
    32
  0
VERTEX
  8
SAPA_FOGBAND
  5
2CD4
 10
20.6261
 20
-38.0597
 30
0.000000
  70
    32
  0
VERTEX
  8
SAPA_FOGBAND
  5
2CD5
 10
20.7446
 20
-38.1271
 30
0.000000
  70
    32
  0
VERTEX
  8
SAPA_FOGBAND
  5
2CD6
 10
20.8587
 20
-38.1989
 30
0.000000
  70
    32
  0
VERTEX
  8
SAPA_FOGBAND
  5
2CD7
 10
20.9683
 20
-38.2751
 30
0.000000
  70
    32
  0
VERTEX
  8
SAPA_FOGBAND
  5
2CD8
 10
21.0730
 20
-38.3554
 30
0.000000
  70
    32
  0
VERTEX
  8
SAPA_FOGBAND
  5
2CD9
 10
21.1727
 20
-38.4397
 30
0.000000
  70
    32
  0
VERTEX
  8
SAPA_FOGBAND
  5
2CDA
 10
21.2670
 20
-38.5277
 30
0.000000
  70
    32
  0
VERTEX
  8
SAPA_FOGBAND
  5
2CDB
 10
21.3557
 20
-38.6192
 30
0.000000
  70
    32
  0
VERTEX
  8
SAPA_FOGBAND
  5
2CDC
 10
21.4387
 20
-38.7140
 30
0.000000
  70
    32
  0
VERTEX
  8
SAPA_FOGBAND
  5
2CDD
 10
21.5157
 20
-38.8119
 30
0.000000
  70
    32
  0
VERTEX
  8
SAPA_FOGBAND
  5
2CDE
 10
21.5865
 20
-38.9126
 30
0.000000
  70
    32
  0
VERTEX
  8
SAPA_FOGBAND
  5
2CDF
 10
21.6510
 20
-39.0160
 30
0.000000
  70
    32
  0
VERTEX
  8
SAPA_FOGBAND
  5
2CE0
 10
21.7090
 20
-39.1216
 30
0.000000
  70
    32
  0
VERTEX
  8
SAPA_FOGBAND
  5
2CE1
 10
21.7603
 20
-39.2294
 30
0.000000
  70
    32
  0
VERTEX
  8
SAPA_FOGBAND
  5
2CE2
 10
21.8049
 20
-39.3390
 30
0.000000
  70
    32
  0
VERTEX
  8
SAPA_FOGBAND
  5
2CE3
 10
21.8427
 20
-39.4502
 30
0.000000
  70
    32
  0
VERTEX
  8
SAPA_FOGBAND
  5
2CE4
 10
21.8735
 20
-39.5627
 30
0.000000
  70
    32
  0
VERTEX
  8
SAPA_FOGBAND
  5
2CE5
 10
21.8973
 20
-39.6762
 30
0.000000
  70
    32
  0
VERTEX
  8
SAPA_FOGBAND
  5
2CE6
 10
21.9140
 20
-39.7904
 30
0.000000
  70
    32
  0
VERTEX
  8
SAPA_FOGBAND
  5
2CE7
 10
21.9236
 20
-39.9052
 30
0.000000
  70
    32
  0
VERTEX
  8
SAPA_FOGBAND
  5
2CE8
 10
21.9260
 20
-40.0201
 30
0.000000
  70
    32
  0
SEQEND
  8
SAPA_FOGBAND
  5
2CE9
  0
POLYLINE
  5
1B4B
  8
SAPA_FOGBAND
 62
     2
 66
     1
 10
0.0
 20
0.0
 30
0.0000000195376815
 70
     1
  0
VERTEX
  5
2B03
  8
SAPA_FOGBAND
 62
     2
 10
94.529055667497246
 20
10.85170574645832
 30
0.0000000195376815
  0
VERTEX
  5
2B04
  8
SAPA_FOGBAND
 62
     2
 10
94.629055667497227
 20
10.85170574645832
 30
0.0000000195376815
 42
-0.4142135623730959
  0
VERTEX
  5
2B05
  8
SAPA_FOGBAND
 62
     2
 10
95.329055667497244
 20
10.15170574645833
 30
0.0000000195376815
  0
VERTEX
  5
2B06
  8
SAPA_FOGBAND
 62
     2
 10
95.329055667497244
 20
9.0517057464583388
 30
0.0000000195376815
 42
-0.4142135623730961
  0
VERTEX
  5
2B07
  8
SAPA_FOGBAND
 62
     2
 10
95.129055667497241
 20
8.8517057464583218
 30
0.0000000195376815
  0
VERTEX
  5
2B08
  8
SAPA_FOGBAND
 62
     2
 10
94.029055667497246
 20
8.8517057464583218
 30
0.0000000195376815
 42
-0.4142135623730956
  0
VERTEX
  5
2B09
  8
SAPA_FOGBAND
 62
     2
 10
93.829055667497229
 20
9.0517057464583388
 30
0.0000000195376815
  0
VERTEX
  5
2B0A
  8
SAPA_FOGBAND
 62
     2
 10
93.829055667497244
 20
10.15170574645833
 30
0.0000000195376815
 42
-0.4142135623730946
  0
SEQEND
  5
2B0B
  8
SAPA_FOGBAND
 62
     2
  0
POLYLINE
  5
1B4C
  8
SAPA_FOGBAND
 62
     2
 66
     1
 10
0.0
 20
0.0
 30
0.0000000195376815
 70
     1
  0
VERTEX
  5
2B0C
  8
SAPA_FOGBAND
 62
     2
 10
93.029055667497246
 20
9.5517057464583388
 30
0.0000000195376815
  0
VERTEX
  5
2B0D
  8
SAPA_FOGBAND
 62
     2
 10
93.029055667497246
 20
8.9039401811852485
 30
0.0000000195376815
 42
-0.4416942457848321
  0
VERTEX
  5
2B0E
  8
SAPA_FOGBAND
 62
     2
 10
92.81050130786933
 20
8.7048027016923015
 30
0.0000000195376815
  0
VERTEX
  5
2B0F
  8
SAPA_FOGBAND
 62
     2
 10
91.847610027125157
 20
8.7945187669503468
 30
0.0000000195376815
 42
0.441694245784789
  0
VERTEX
  5
2B10
  8
SAPA_FOGBAND
 62
     2
 10
91.629055667497241
 20
8.5953812874574282
 30
0.0000000195376815
  0
VERTEX
  5
2B11
  8
SAPA_FOGBAND
 62
     2
 10
91.629055667497241
 20
8.0453989478658627
 30
0.0000000195376815
 42
0.5445962197109614
  0
VERTEX
  5
2B12
  8
SAPA_FOGBAND
 62
     2
 10
92.334734712902303
 20
7.5896620388040219
 30
0.0000000195376815
  0
VERTEX
  5
2B13
  8
SAPA_FOGBAND
 62
     2
 10
92.693785866187582
 20
7.7517057464583274
 30
0.0000000195376815
  0
VERTEX
  5
2B14
  8
SAPA_FOGBAND
 62
     2
 10
94.166745104935487
 20
7.7517057464583301
 30
0.0000000195376815
 42
0.3364379234965429
  0
VERTEX
  5
2B15
  8
SAPA_FOGBAND
 62
     2
 10
95.238488834550324
 20
7.9392125643000782
 30
0.0000000195376815
  0
VERTEX
  5
2B16
  8
SAPA_FOGBAND
 62
     2
 10
95.800352470374023
 20
7.9392125643000782
 30
0.0000000195376815
 42
-0.1919812372740509
  0
VERTEX
  5
2B17
  8
SAPA_FOGBAND
 62
     2
 10
96.144339517974075
 20
7.8020801862828071
 30
0.0000000195376815
  0
VERTEX
  5
2B18
  8
SAPA_FOGBAND
 62
     2
 10
96.53620644837747
 20
7.4306027099927263
 30
0.0000000195376815
 42
-0.7523758382293955
  0
VERTEX
  5
2B19
  8
SAPA_FOGBAND
 62
     2
 10
92.295776637274955
 20
6.4420315365646168
 30
0.0000000195376815
 42
-0.020738253891463
  0
VERTEX
  5
2B1A
  8
SAPA_FOGBAND
 62
     2
 10
92.050057419324503
 20
6.945262665635223
 30
0.0000000195376815
 42
0.910188045100355
  0
VERTEX
  5
2B1B
  8
SAPA_FOGBAND
 62
     2
 10
91.592757852643146
 20
6.5935158186215048
 30
0.0000000195376815
 42
0.8808478876171385
  0
VERTEX
  5
2B1C
  8
SAPA_FOGBAND
 62
     2
 10
97.102024147656991
 20
7.8949082248356026
 30
0.0000000195376815
  0
VERTEX
  5
2B1D
  8
SAPA_FOGBAND
 62
     2
 10
97.532583285538266
 20
8.0102761981247284
 30
0.0000000195376815
 42
0.9163311740173993
  0
VERTEX
  5
2B1E
  8
SAPA_FOGBAND
 62
     2
 10
97.394193370398156
 20
8.7951244078770685
 30
0.0000000195376815
  0
VERTEX
  5
2B1F
  8
SAPA_FOGBAND
 62
     2
 10
96.346486816046777
 20
8.7034619616695181
 30
0.0000000195376815
 42
-0.4400105308918154
  0
VERTEX
  5
2B20
  8
SAPA_FOGBAND
 62
     2
 10
96.129055667497241
 20
8.9027009012878562
 30
0.0000000195376815
  0
VERTEX
  5
2B21
  8
SAPA_FOGBAND
 62
     2
 10
96.129055667497241
 20
9.7517057464583274
 30
0.0000000195376815
  0
VERTEX
  5
2B22
  8
SAPA_FOGBAND
 62
     2
 10
96.529055667497246
 20
9.7517057464583274
 30
0.0000000195376815
 42
0.5693809839207589
  0
VERTEX
  5
2B23
  8
SAPA_FOGBAND
 62
     2
 10
96.704609713060833
 20
10.047522118161
 30
0.0000000195376815
  0
VERTEX
  5
2B24
  8
SAPA_FOGBAND
 62
     2
 10
95.99964411316175
 20
11.33915486156627
 30
0.0000000195376815
 42
0.2743878130875473
  0
VERTEX
  5
2B25
  8
SAPA_FOGBAND
 62
     2
 10
95.472981976471004
 20
11.65170574645834
 30
0.0000000195376815
  0
VERTEX
  5
2B26
  8
SAPA_FOGBAND
 62
     2
 10
93.685129358523469
 20
11.65170574645833
 30
0.0000000195376815
 42
0.2743878130875473
  0
VERTEX
  5
2B27
  8
SAPA_FOGBAND
 62
     2
 10
93.158467221832751
 20
11.339154861566261
 30
0.0000000195376815
  0
VERTEX
  5
2B28
  8
SAPA_FOGBAND
 62
     2
 10
92.453501621933654
 20
10.047522118161
 30
0.0000000195376815
 42
0.5693809839208268
  0
VERTEX
  5
2B29
  8
SAPA_FOGBAND
 62
     2
 10
92.629055667497241
 20
9.7517057464582955
 30
0.0000000195376815
  0
VERTEX
  5
2B2A
  8
SAPA_FOGBAND
 62
     2
 10
93.029055667497246
 20
9.7517057464583274
 30
0.0000000195376815
  0
VERTEX
  5
2B2B
  8
SAPA_FOGBAND
 62
     2
 10
93.029055667497246
 20
8.9027009012878562
 30
0.0000000195376815
  0
SEQEND
  5
2B2C
  8
SAPA_FOGBAND
 62
     2
  0
CIRCLE
  5
1B4D
  8
SAPA_FOGBAND
 10
-18.629356795612811
 20
-75.02846685536008
 30
0.0
 40
0.2549509756796394
  0
INSERT
  5
1B4E
  8
SAPA_FOGBAND
  6
CONTINUOUS
  2
*U139
 10
0.0
 20
0.0
 30
0.0
1001
ACAD
1002
{
1000
R14_HATCH_DATA
1000
1B4E
1011
1.0
1021
0.0
1031
0.0
1021
0.0
1031
0.0
1011
0.0
1021
0.0
1031
0.0
1021
1.0
1031
0.0
1011
0.0
1021
0.0
1031
0.0
1021
0.0
1031
1.0
1040
0.0
1010
0.0
1020
0.0
1030
1.0
1000
SOLID
1070
     1
1070
     1
1071
        1
1071
        1
1071
        1
1070
     2
1040
-18.629356795612811
1040
-75.02846685536008
1040
0.2549509756796394
1040
0.0
1040
6.2831853071795862
1070
     1
1071
        1
1005
1B4D
1070
     0
1070
     1
1071
        1
1040
-18.86609569718291
1040
-74.946615358031181
1040
0.0
1002
}
  0
POLYLINE
  5
1B4F
  8
SAPA_FOGBAND
 66
     1
 10
0.0
 20
0.0
 30
0.0
 70
     1
  0
VERTEX
  5
2B3E
  8
SAPA_FOGBAND
 10
-17.729356795612709
 20
-77.599999999010933
 30
0.0
 42
0.9999999999999998
  0
VERTEX
  5
2B3F
  8
SAPA_FOGBAND
 10
-19.529356795612671
 20
-77.599999999010933
 30
0.0
  0
VERTEX
  5
2B40
  8
SAPA_FOGBAND
 10
-19.529356795612671
 20
-78.19999999901097
 30
0.0
 42
0.9999999999999998
  0
VERTEX
  5
2B41
  8
SAPA_FOGBAND
 10
-17.729356795612709
 20
-78.19999999901097
 30
0.0
  0
SEQEND
  5
2B42
  8
SAPA_FOGBAND
  0
POLYLINE
  5
1B50
  8
SAPA_FOGBAND
 66
     1
 10
0.0
 20
0.0
 30
0.0
 70
     1
  0
VERTEX
  5
2B43
  8
SAPA_FOGBAND
 10
-14.3793567956128
 20
-74.164228703859749
 30
0.0
  0
VERTEX
  5
2B44
  8
SAPA_FOGBAND
 10
-14.37935679561258
 20
-76.299999999010865
 30
0.0
 42
-0.4142135623730951
  0
VERTEX
  5
2B45
  8
SAPA_FOGBAND
 10
-14.57935679561262
 20
-76.499999999010925
 30
0.0
  0
VERTEX
  5
2B46
  8
SAPA_FOGBAND
 10
-16.629356795612811
 20
-76.499999999010925
 30
0.0
 42
0.4142135623730951
  0
VERTEX
  5
2B47
  8
SAPA_FOGBAND
 10
-17.129356795612811
 20
-76.999999999010925
 30
0.0
  0
VERTEX
  5
2B48
  8
SAPA_FOGBAND
 10
-17.129356795612811
 20
-77.726794918254086
 30
0.0
  0
VERTEX
  5
2B49
  8
SAPA_FOGBAND
 10
-16.877592986592269
 20
-77.794254827564487
 30
0.0
 42
-0.4740571810232154
  0
VERTEX
  5
2B4A
  8
SAPA_FOGBAND
 10
-16.750299124228711
 20
-78.076537413203141
 30
0.0
  0
VERTEX
  5
2B4B
  8
SAPA_FOGBAND
 10
-17.37039962698725
 20
-79.522743549962911
 30
0.0
 42
-0.2846003776496056
  0
VERTEX
  5
2B4C
  8
SAPA_FOGBAND
 10
-17.81804380544747
 20
-79.799999999010879
 30
0.0
  0
VERTEX
  5
2B4D
  8
SAPA_FOGBAND
 10
-19.44066978577791
 20
-79.799999999010879
 30
0.0
 42
-0.2846003776496054
  0
VERTEX
  5
2B4E
  8
SAPA_FOGBAND
 10
-19.88831396423814
 20
-79.522743549962911
 30
0.0
  0
VERTEX
  5
2B4F
  8
SAPA_FOGBAND
 10
-20.508414466996669
 20
-78.076537413203141
 30
0.0
 42
-0.4740571810232154
  0
VERTEX
  5
2B50
  8
SAPA_FOGBAND
 10
-20.381120604633111
 20
-77.794254827564487
 30
0.0
  0
VERTEX
  5
2B51
  8
SAPA_FOGBAND
 10
-20.129356795612811
 20
-77.726794918254086
 30
0.0
  0
VERTEX
  5
2B52
  8
SAPA_FOGBAND
 10
-20.129356795612811
 20
-76.999999999010925
 30
0.0
 42
0.4142135623730951
  0
VERTEX
  5
2B53
  8
SAPA_FOGBAND
 10
-20.629356795612811
 20
-76.499999999010925
 30
0.0
  0
VERTEX
  5
2B54
  8
SAPA_FOGBAND
 10
-23.679356795612762
 20
-76.499999999010925
 30
0.0
 42
0.4142135623730951
  0
VERTEX
  5
2B55
  8
SAPA_FOGBAND
 10
-23.879356795612811
 20
-76.69999999901097
 30
0.0
  0
VERTEX
  5
2B56
  8
SAPA_FOGBAND
 10
-23.87935679561258
 20
-77.599999999010933
 30
0.0
 42
-0.4142135623730951
  0
VERTEX
  5
2B57
  8
SAPA_FOGBAND
 10
-24.079356795612622
 20
-77.799999999010879
 30
0.0
  0
VERTEX
  5
2B58
  8
SAPA_FOGBAND
 10
-24.779356795612671
 20
-77.799999999010993
 30
0.0
 42
-0.4142135623730951
  0
VERTEX
  5
2B59
  8
SAPA_FOGBAND
 10
-25.079356795612629
 20
-77.499999999010925
 30
0.0
  0
VERTEX
  5
2B5A
  8
SAPA_FOGBAND
 10
-25.079356795612629
 20
-76.689488222359387
 30
0.0
 42
0.1316524975873982
  0
VERTEX
  5
2B5B
  8
SAPA_FOGBAND
 10
-25.347305988043789
 20
-75.689488222359387
 30
0.0
  0
VERTEX
  5
2B5C
  8
SAPA_FOGBAND
 10
-29.318018525145931
 20
-73.054121304015212
 30
0.0
 42
-0.876976462992761
  0
VERTEX
  5
2B5D
  8
SAPA_FOGBAND
 10
-29.215112935235648
 20
-72.536779967898724
 30
0.0
  0
VERTEX
  5
2B5E
  8
SAPA_FOGBAND
 10
-23.79045137336345
 20
-73.090624764442964
 30
0.0
 42
0.1353185728426623
  0
VERTEX
  5
2B5F
  8
SAPA_FOGBAND
 10
-23.79045137336345
 20
-73.090624764442964
 30
0.0
  0
VERTEX
  5
2B60
  8
SAPA_FOGBAND
 10
-23.55256188053465
 20
-72.678588072042771
 30
0.0
 42
-0.5773502691896196
  0
VERTEX
  5
2B61
  8
SAPA_FOGBAND
 10
-23.206151719020799
 20
-72.678588072042771
 30
0.0
  0
VERTEX
  5
2B62
  8
SAPA_FOGBAND
 10
-22.968104102289889
 20
-73.090898634604628
 30
0.0
  0
VERTEX
  5
2B63
  8
SAPA_FOGBAND
 10
-22.190609492373252
 20
-73.090898634604628
 30
0.0
  0
VERTEX
  5
2B64
  8
SAPA_FOGBAND
 10
-21.952561880534521
 20
-72.678588072042771
 30
0.0
 42
-0.5773502691896196
  0
VERTEX
  5
2B65
  8
SAPA_FOGBAND
 10
-21.606151719020879
 20
-72.678588072042771
 30
0.0
  0
VERTEX
  5
2B66
  8
SAPA_FOGBAND
 10
-21.368104102289969
 20
-73.090898634604628
 30
0.0
  0
VERTEX
  5
2B67
  8
SAPA_FOGBAND
 10
-20.59060949237335
 20
-73.090898634604628
 30
0.0
  0
VERTEX
  5
2B68
  8
SAPA_FOGBAND
 10
-20.352561880534608
 20
-72.678588072042771
 30
0.0
 42
-0.5773502691896196
  0
VERTEX
  5
2B69
  8
SAPA_FOGBAND
 10
-20.00615171902075
 20
-72.678588072042771
 30
0.0
  0
VERTEX
  5
2B6A
  8
SAPA_FOGBAND
 10
-19.76810410229006
 20
-73.090898634604628
 30
0.0
  0
VERTEX
  5
2B6B
  8
SAPA_FOGBAND
 10
-18.99060949237321
 20
-73.090898634604628
 30
0.0
  0
VERTEX
  5
2B6C
  8
SAPA_FOGBAND
 10
-18.752561880534699
 20
-72.678588072042771
 30
0.0
 42
-0.5773502691896196
  0
VERTEX
  5
2B6D
  8
SAPA_FOGBAND
 10
-18.406151719020841
 20
-72.678588072042771
 30
0.0
  0
VERTEX
  5
2B6E
  8
SAPA_FOGBAND
 10
-18.168104102289931
 20
-73.090898634604628
 30
0.0
  0
VERTEX
  5
2B6F
  8
SAPA_FOGBAND
 10
-17.390609492373301
 20
-73.090898634604628
 30
0.0
  0
VERTEX
  5
2B70
  8
SAPA_FOGBAND
 10
-17.152561880534559
 20
-72.678588072042771
 30
0.0
 42
-0.5773502691896196
  0
VERTEX
  5
2B71
  8
SAPA_FOGBAND
 10
-16.806151719020701
 20
-72.678588072042771
 30
0.0
  0
VERTEX
  5
2B72
  8
SAPA_FOGBAND
 10
-16.568104102290022
 20
-73.090898634604628
 30
0.0
  0
VERTEX
  5
2B73
  8
SAPA_FOGBAND
 10
-15.790609488208361
 20
-73.090898634604628
 30
0.0
  0
VERTEX
  5
2B74
  8
SAPA_FOGBAND
 10
-15.552561876369619
 20
-72.678588072042771
 30
0.0
 42
-0.5773502691896196
  0
VERTEX
  5
2B75
  8
SAPA_FOGBAND
 10
-15.206151714855761
 20
-72.678588072042771
 30
0.0
  0
VERTEX
  5
2B76
  8
SAPA_FOGBAND
 10
-14.40615171530078
 20
-74.064228703089043
 30
0.0
 42
-0.1316524987190407
  0
SEQEND
  5
2B77
  8
SAPA_FOGBAND
  0
POLYLINE
  5
1B51
  8
SAPA_FOGBAND
 66
     1
 10
0.0
 20
0.0
 30
0.0
 70
     1
  0
VERTEX
  5
2B78
  8
SAPA_FOGBAND
 10
-19.301327184514889
 20
-33.585369501371133
 30
0.0
  0
VERTEX
  5
2B79
  8
SAPA_FOGBAND
 10
-19.301327184514889
 20
-34.185369501371049
 30
0.0
 42
-0.9999999999999998
  0
VERTEX
  5
2B7A
  8
SAPA_FOGBAND
 10
-21.101327184515071
 20
-34.185369501371049
 30
0.0
  0
VERTEX
  5
2B7B
  8
SAPA_FOGBAND
 10
-21.101327184515071
 20
-33.585369501371133
 30
0.0
 42
-0.9999999999999998
  0
SEQEND
  5
2B7C
  8
SAPA_FOGBAND
  0
POLYLINE
  5
1B52
  8
SAPA_FOGBAND
 66
     1
 10
0.0
 20
0.0
 30
0.0
  0
VERTEX
  5
2B7D
  8
SAPA_FOGBAND
 10
-23.801327184514889
 20
-35.499999999009788
 30
0.0
  0
VERTEX
  5
2B7E
  8
SAPA_FOGBAND
 10
-23.801327184514889
 20
-35.799999999009742
 30
0.0
 42
0.4142135623730951
  0
VERTEX
  5
2B7F
  8
SAPA_FOGBAND
 10
-23.301327184514889
 20
-36.299999999009742
 30
0.0
  0
VERTEX
  5
2B80
  8
SAPA_FOGBAND
 10
-16.001327184514711
 20
-36.299999999009742
 30
0.0
 42
0.4142135623730951
  0
VERTEX
  5
2B81
  8
SAPA_FOGBAND
 10
-15.501327184514709
 20
-35.799999999009742
 30
0.0
  0
VERTEX
  5
2B82
  8
SAPA_FOGBAND
 10
-15.50132718451516
 20
-35.499999999009788
 30
0.0
  0
SEQEND
  5
2B83
  8
SAPA_FOGBAND
  0
POLYLINE
  5
1B53
  8
SAPA_FOGBAND
 10
-22.264574318352189
 20
-40.561832548750424
 30
0.0
 66
     1
 70
     8
  0
VERTEX
  8
SAPA_FOGBAND
  5
2CEA
 10
-22.2646
 20
-40.5618
 30
0.000000
  70
    32
  0
VERTEX
  8
SAPA_FOGBAND
  5
2CEB
 10
-22.2598
 20
-40.6446
 30
0.000000
  70
    32
  0
VERTEX
  8
SAPA_FOGBAND
  5
2CEC
 10
-22.2470
 20
-40.7271
 30
0.000000
  70
    32
  0
VERTEX
  8
SAPA_FOGBAND
  5
2CED
 10
-22.2264
 20
-40.8091
 30
0.000000
  70
    32
  0
VERTEX
  8
SAPA_FOGBAND
  5
2CEE
 10
-22.1979
 20
-40.8904
 30
0.000000
  70
    32
  0
VERTEX
  8
SAPA_FOGBAND
  5
2CEF
 10
-22.1616
 20
-40.9709
 30
0.000000
  70
    32
  0
VERTEX
  8
SAPA_FOGBAND
  5
2CF0
 10
-22.1177
 20
-41.0503
 30
0.000000
  70
    32
  0
VERTEX
  8
SAPA_FOGBAND
  5
2CF1
 10
-22.0661
 20
-41.1285
 30
0.000000
  70
    32
  0
VERTEX
  8
SAPA_FOGBAND
  5
2CF2
 10
-22.0071
 20
-41.2052
 30
0.000000
  70
    32
  0
VERTEX
  8
SAPA_FOGBAND
  5
2CF3
 10
-21.9407
 20
-41.2802
 30
0.000000
  70
    32
  0
VERTEX
  8
SAPA_FOGBAND
  5
2CF4
 10
-21.8672
 20
-41.3535
 30
0.000000
  70
    32
  0
VERTEX
  8
SAPA_FOGBAND
  5
2CF5
 10
-21.7867
 20
-41.4248
 30
0.000000
  70
    32
  0
VERTEX
  8
SAPA_FOGBAND
  5
2CF6
 10
-21.6994
 20
-41.4939
 30
0.000000
  70
    32
  0
VERTEX
  8
SAPA_FOGBAND
  5
2CF7
 10
-21.6055
 20
-41.5607
 30
0.000000
  70
    32
  0
VERTEX
  8
SAPA_FOGBAND
  5
2CF8
 10
-21.5052
 20
-41.6250
 30
0.000000
  70
    32
  0
VERTEX
  8
SAPA_FOGBAND
  5
2CF9
 10
-21.3989
 20
-41.6867
 30
0.000000
  70
    32
  0
VERTEX
  8
SAPA_FOGBAND
  5
2CFA
 10
-21.2867
 20
-41.7455
 30
0.000000
  70
    32
  0
VERTEX
  8
SAPA_FOGBAND
  5
2CFB
 10
-21.1688
 20
-41.8015
 30
0.000000
  70
    32
  0
VERTEX
  8
SAPA_FOGBAND
  5
2CFC
 10
-21.0457
 20
-41.8544
 30
0.000000
  70
    32
  0
VERTEX
  8
SAPA_FOGBAND
  5
2CFD
 10
-20.9176
 20
-41.9041
 30
0.000000
  70
    32
  0
VERTEX
  8
SAPA_FOGBAND
  5
2CFE
 10
-20.7848
 20
-41.9504
 30
0.000000
  70
    32
  0
VERTEX
  8
SAPA_FOGBAND
  5
2CFF
 10
-20.6475
 20
-41.9934
 30
0.000000
  70
    32
  0
VERTEX
  8
SAPA_FOGBAND
  5
2D00
 10
-20.5063
 20
-42.0328
 30
0.000000
  70
    32
  0
VERTEX
  8
SAPA_FOGBAND
  5
2D01
 10
-20.3613
 20
-42.0686
 30
0.000000
  70
    32
  0
VERTEX
  8
SAPA_FOGBAND
  5
2D02
 10
-20.2130
 20
-42.1007
 30
0.000000
  70
    32
  0
VERTEX
  8
SAPA_FOGBAND
  5
2D03
 10
-20.0616
 20
-42.1290
 30
0.000000
  70
    32
  0
VERTEX
  8
SAPA_FOGBAND
  5
2D04
 10
-19.9077
 20
-42.1535
 30
0.000000
  70
    32
  0
VERTEX
  8
SAPA_FOGBAND
  5
2D05
 10
-19.7514
 20
-42.1740
 30
0.000000
  70
    32
  0
VERTEX
  8
SAPA_FOGBAND
  5
2D06
 10
-19.5933
 20
-42.1906
 30
0.000000
  70
    32
  0
VERTEX
  8
SAPA_FOGBAND
  5
2D07
 10
-19.4336
 20
-42.2032
 30
0.000000
  70
    32
  0
VERTEX
  8
SAPA_FOGBAND
  5
2D08
 10
-19.2729
 20
-42.2117
 30
0.000000
  70
    32
  0
VERTEX
  8
SAPA_FOGBAND
  5
2D09
 10
-19.1114
 20
-42.2162
 30
0.000000
  70
    32
  0
VERTEX
  8
SAPA_FOGBAND
  5
2D0A
 10
-18.9495
 20
-42.2166
 30
0.000000
  70
    32
  0
VERTEX
  8
SAPA_FOGBAND
  5
2D0B
 10
-18.7877
 20
-42.2130
 30
0.000000
  70
    32
  0
VERTEX
  8
SAPA_FOGBAND
  5
2D0C
 10
-18.6263
 20
-42.2053
 30
0.000000
  70
    32
  0
VERTEX
  8
SAPA_FOGBAND
  5
2D0D
 10
-18.4657
 20
-42.1935
 30
0.000000
  70
    32
  0
VERTEX
  8
SAPA_FOGBAND
  5
2D0E
 10
-18.3064
 20
-42.1778
 30
0.000000
  70
    32
  0
VERTEX
  8
SAPA_FOGBAND
  5
2D0F
 10
-18.1486
 20
-42.1581
 30
0.000000
  70
    32
  0
VERTEX
  8
SAPA_FOGBAND
  5
2D10
 10
-17.9928
 20
-42.1344
 30
0.000000
  70
    32
  0
VERTEX
  8
SAPA_FOGBAND
  5
2D11
 10
-17.8393
 20
-42.1069
 30
0.000000
  70
    32
  0
VERTEX
  8
SAPA_FOGBAND
  5
2D12
 10
-17.6886
 20
-42.0756
 30
0.000000
  70
    32
  0
VERTEX
  8
SAPA_FOGBAND
  5
2D13
 10
-17.5409
 20
-42.0406
 30
0.000000
  70
    32
  0
VERTEX
  8
SAPA_FOGBAND
  5
2D14
 10
-17.3967
 20
-42.0019
 30
0.000000
  70
    32
  0
VERTEX
  8
SAPA_FOGBAND
  5
2D15
 10
-17.2562
 20
-41.9596
 30
0.000000
  70
    32
  0
VERTEX
  8
SAPA_FOGBAND
  5
2D16
 10
-17.1199
 20
-41.9140
 30
0.000000
  70
    32
  0
VERTEX
  8
SAPA_FOGBAND
  5
2D17
 10
-16.9880
 20
-41.8650
 30
0.000000
  70
    32
  0
VERTEX
  8
SAPA_FOGBAND
  5
2D18
 10
-16.8609
 20
-41.8127
 30
0.000000
  70
    32
  0
VERTEX
  8
SAPA_FOGBAND
  5
2D19
 10
-16.7389
 20
-41.7574
 30
0.000000
  70
    32
  0
VERTEX
  8
SAPA_FOGBAND
  5
2D1A
 10
-16.6222
 20
-41.6991
 30
0.000000
  70
    32
  0
VERTEX
  8
SAPA_FOGBAND
  5
2D1B
 10
-16.5112
 20
-41.6380
 30
0.000000
  70
    32
  0
VERTEX
  8
SAPA_FOGBAND
  5
2D1C
 10
-16.4061
 20
-41.5742
 30
0.000000
  70
    32
  0
VERTEX
  8
SAPA_FOGBAND
  5
2D1D
 10
-16.3071
 20
-41.5079
 30
0.000000
  70
    32
  0
VERTEX
  8
SAPA_FOGBAND
  5
2D1E
 10
-16.2146
 20
-41.4393
 30
0.000000
  70
    32
  0
VERTEX
  8
SAPA_FOGBAND
  5
2D1F
 10
-16.1287
 20
-41.3685
 30
0.000000
  70
    32
  0
VERTEX
  8
SAPA_FOGBAND
  5
2D20
 10
-16.0496
 20
-41.2956
 30
0.000000
  70
    32
  0
VERTEX
  8
SAPA_FOGBAND
  5
2D21
 10
-15.9775
 20
-41.2209
 30
0.000000
  70
    32
  0
VERTEX
  8
SAPA_FOGBAND
  5
2D22
 10
-15.9127
 20
-41.1445
 30
0.000000
  70
    32
  0
VERTEX
  8
SAPA_FOGBAND
  5
2D23
 10
-15.8552
 20
-41.0666
 30
0.000000
  70
    32
  0
VERTEX
  8
SAPA_FOGBAND
  5
2D24
 10
-15.8052
 20
-40.9875
 30
0.000000
  70
    32
  0
VERTEX
  8
SAPA_FOGBAND
  5
2D25
 10
-15.7628
 20
-40.9072
 30
0.000000
  70
    32
  0
VERTEX
  8
SAPA_FOGBAND
  5
2D26
 10
-15.7281
 20
-40.8260
 30
0.000000
  70
    32
  0
VERTEX
  8
SAPA_FOGBAND
  5
2D27
 10
-15.7013
 20
-40.7442
 30
0.000000
  70
    32
  0
VERTEX
  8
SAPA_FOGBAND
  5
2D28
 10
-15.6823
 20
-40.6617
 30
0.000000
  70
    32
  0
VERTEX
  8
SAPA_FOGBAND
  5
2D29
 10
-15.6712
 20
-40.5790
 30
0.000000
  70
    32
  0
VERTEX
  8
SAPA_FOGBAND
  5
2D2A
 10
-15.6680
 20
-40.4962
 30
0.000000
  70
    32
  0
VERTEX
  8
SAPA_FOGBAND
  5
2D2B
 10
-15.6728
 20
-40.4134
 30
0.000000
  70
    32
  0
VERTEX
  8
SAPA_FOGBAND
  5
2D2C
 10
-15.6856
 20
-40.3309
 30
0.000000
  70
    32
  0
VERTEX
  8
SAPA_FOGBAND
  5
2D2D
 10
-15.7062
 20
-40.2489
 30
0.000000
  70
    32
  0
VERTEX
  8
SAPA_FOGBAND
  5
2D2E
 10
-15.7347
 20
-40.1676
 30
0.000000
  70
    32
  0
VERTEX
  8
SAPA_FOGBAND
  5
2D2F
 10
-15.7710
 20
-40.0871
 30
0.000000
  70
    32
  0
VERTEX
  8
SAPA_FOGBAND
  5
2D30
 10
-15.8149
 20
-40.0077
 30
0.000000
  70
    32
  0
VERTEX
  8
SAPA_FOGBAND
  5
2D31
 10
-15.8665
 20
-39.9296
 30
0.000000
  70
    32
  0
VERTEX
  8
SAPA_FOGBAND
  5
2D32
 10
-15.9255
 20
-39.8529
 30
0.000000
  70
    32
  0
VERTEX
  8
SAPA_FOGBAND
  5
2D33
 10
-15.9919
 20
-39.7778
 30
0.000000
  70
    32
  0
VERTEX
  8
SAPA_FOGBAND
  5
2D34
 10
-16.0654
 20
-39.7045
 30
0.000000
  70
    32
  0
VERTEX
  8
SAPA_FOGBAND
  5
2D35
 10
-16.1459
 20
-39.6332
 30
0.000000
  70
    32
  0
VERTEX
  8
SAPA_FOGBAND
  5
2D36
 10
-16.2332
 20
-39.5641
 30
0.000000
  70
    32
  0
VERTEX
  8
SAPA_FOGBAND
  5
2D37
 10
-16.3271
 20
-39.4973
 30
0.000000
  70
    32
  0
VERTEX
  8
SAPA_FOGBAND
  5
2D38
 10
-16.4274
 20
-39.4330
 30
0.000000
  70
    32
  0
VERTEX
  8
SAPA_FOGBAND
  5
2D39
 10
-16.5337
 20
-39.3713
 30
0.000000
  70
    32
  0
VERTEX
  8
SAPA_FOGBAND
  5
2D3A
 10
-16.6460
 20
-39.3125
 30
0.000000
  70
    32
  0
VERTEX
  8
SAPA_FOGBAND
  5
2D3B
 10
-16.7638
 20
-39.2565
 30
0.000000
  70
    32
  0
VERTEX
  8
SAPA_FOGBAND
  5
2D3C
 10
-16.8869
 20
-39.2036
 30
0.000000
  70
    32
  0
VERTEX
  8
SAPA_FOGBAND
  5
2D3D
 10
-17.0150
 20
-39.1539
 30
0.000000
  70
    32
  0
VERTEX
  8
SAPA_FOGBAND
  5
2D3E
 10
-17.1479
 20
-39.1076
 30
0.000000
  70
    32
  0
VERTEX
  8
SAPA_FOGBAND
  5
2D3F
 10
-17.2851
 20
-39.0646
 30
0.000000
  70
    32
  0
VERTEX
  8
SAPA_FOGBAND
  5
2D40
 10
-17.4263
 20
-39.0252
 30
0.000000
  70
    32
  0
VERTEX
  8
SAPA_FOGBAND
  5
2D41
 10
-17.5713
 20
-38.9894
 30
0.000000
  70
    32
  0
VERTEX
  8
SAPA_FOGBAND
  5
2D42
 10
-17.7196
 20
-38.9573
 30
0.000000
  70
    32
  0
VERTEX
  8
SAPA_FOGBAND
  5
2D43
 10
-17.8710
 20
-38.9290
 30
0.000000
  70
    32
  0
VERTEX
  8
SAPA_FOGBAND
  5
2D44
 10
-18.0249
 20
-38.9045
 30
0.000000
  70
    32
  0
VERTEX
  8
SAPA_FOGBAND
  5
2D45
 10
-18.1812
 20
-38.8840
 30
0.000000
  70
    32
  0
VERTEX
  8
SAPA_FOGBAND
  5
2D46
 10
-18.3393
 20
-38.8674
 30
0.000000
  70
    32
  0
VERTEX
  8
SAPA_FOGBAND
  5
2D47
 10
-18.4990
 20
-38.8548
 30
0.000000
  70
    32
  0
VERTEX
  8
SAPA_FOGBAND
  5
2D48
 10
-18.6597
 20
-38.8463
 30
0.000000
  70
    32
  0
VERTEX
  8
SAPA_FOGBAND
  5
2D49
 10
-18.8212
 20
-38.8418
 30
0.000000
  70
    32
  0
VERTEX
  8
SAPA_FOGBAND
  5
2D4A
 10
-18.9831
 20
-38.8414
 30
0.000000
  70
    32
  0
VERTEX
  8
SAPA_FOGBAND
  5
2D4B
 10
-19.1449
 20
-38.8450
 30
0.000000
  70
    32
  0
VERTEX
  8
SAPA_FOGBAND
  5
2D4C
 10
-19.3063
 20
-38.8527
 30
0.000000
  70
    32
  0
VERTEX
  8
SAPA_FOGBAND
  5
2D4D
 10
-19.4669
 20
-38.8645
 30
0.000000
  70
    32
  0
VERTEX
  8
SAPA_FOGBAND
  5
2D4E
 10
-19.6262
 20
-38.8802
 30
0.000000
  70
    32
  0
VERTEX
  8
SAPA_FOGBAND
  5
2D4F
 10
-19.7840
 20
-38.8999
 30
0.000000
  70
    32
  0
VERTEX
  8
SAPA_FOGBAND
  5
2D50
 10
-19.9398
 20
-38.9236
 30
0.000000
  70
    32
  0
VERTEX
  8
SAPA_FOGBAND
  5
2D51
 10
-20.0933
 20
-38.9511
 30
0.000000
  70
    32
  0
VERTEX
  8
SAPA_FOGBAND
  5
2D52
 10
-20.2440
 20
-38.9824
 30
0.000000
  70
    32
  0
VERTEX
  8
SAPA_FOGBAND
  5
2D53
 10
-20.3917
 20
-39.0175
 30
0.000000
  70
    32
  0
VERTEX
  8
SAPA_FOGBAND
  5
2D54
 10
-20.5359
 20
-39.0561
 30
0.000000
  70
    32
  0
VERTEX
  8
SAPA_FOGBAND
  5
2D55
 10
-20.6764
 20
-39.0984
 30
0.000000
  70
    32
  0
VERTEX
  8
SAPA_FOGBAND
  5
2D56
 10
-20.8127
 20
-39.1440
 30
0.000000
  70
    32
  0
VERTEX
  8
SAPA_FOGBAND
  5
2D57
 10
-20.9446
 20
-39.1931
 30
0.000000
  70
    32
  0
VERTEX
  8
SAPA_FOGBAND
  5
2D58
 10
-21.0717
 20
-39.2453
 30
0.000000
  70
    32
  0
VERTEX
  8
SAPA_FOGBAND
  5
2D59
 10
-21.1937
 20
-39.3006
 30
0.000000
  70
    32
  0
VERTEX
  8
SAPA_FOGBAND
  5
2D5A
 10
-21.3104
 20
-39.3589
 30
0.000000
  70
    32
  0
VERTEX
  8
SAPA_FOGBAND
  5
2D5B
 10
-21.4214
 20
-39.4200
 30
0.000000
  70
    32
  0
VERTEX
  8
SAPA_FOGBAND
  5
2D5C
 10
-21.5266
 20
-39.4838
 30
0.000000
  70
    32
  0
VERTEX
  8
SAPA_FOGBAND
  5
2D5D
 10
-21.6255
 20
-39.5501
 30
0.000000
  70
    32
  0
VERTEX
  8
SAPA_FOGBAND
  5
2D5E
 10
-21.7180
 20
-39.6187
 30
0.000000
  70
    32
  0
VERTEX
  8
SAPA_FOGBAND
  5
2D5F
 10
-21.8040
 20
-39.6896
 30
0.000000
  70
    32
  0
VERTEX
  8
SAPA_FOGBAND
  5
2D60
 10
-21.8830
 20
-39.7624
 30
0.000000
  70
    32
  0
VERTEX
  8
SAPA_FOGBAND
  5
2D61
 10
-21.9551
 20
-39.8371
 30
0.000000
  70
    32
  0
VERTEX
  8
SAPA_FOGBAND
  5
2D62
 10
-22.0199
 20
-39.9135
 30
0.000000
  70
    32
  0
VERTEX
  8
SAPA_FOGBAND
  5
2D63
 10
-22.0774
 20
-39.9914
 30
0.000000
  70
    32
  0
VERTEX
  8
SAPA_FOGBAND
  5
2D64
 10
-22.1274
 20
-40.0705
 30
0.000000
  70
    32
  0
VERTEX
  8
SAPA_FOGBAND
  5
2D65
 10
-22.1698
 20
-40.1508
 30
0.000000
  70
    32
  0
VERTEX
  8
SAPA_FOGBAND
  5
2D66
 10
-22.2045
 20
-40.2320
 30
0.000000
  70
    32
  0
VERTEX
  8
SAPA_FOGBAND
  5
2D67
 10
-22.2313
 20
-40.3139
 30
0.000000
  70
    32
  0
VERTEX
  8
SAPA_FOGBAND
  5
2D68
 10
-22.2503
 20
-40.3963
 30
0.000000
  70
    32
  0
VERTEX
  8
SAPA_FOGBAND
  5
2D69
 10
-22.2614
 20
-40.4790
 30
0.000000
  70
    32
  0
VERTEX
  8
SAPA_FOGBAND
  5
2D6A
 10
-22.2646
 20
-40.5618
 30
0.000000
  70
    32
  0
SEQEND
  8
SAPA_FOGBAND
  5
2D6B
  0
POLYLINE
  5
1B54
  8
SAPA_FOGBAND
 66
     1
 10
0.0
 20
0.0
 30
0.0
 70
     1
  0
VERTEX
  5
2B84
  8
SAPA_FOGBAND
 10
-8.8913247649944651
 20
-43.953324864972728
 30
0.0
  0
VERTEX
  5
2B85
  8
SAPA_FOGBAND
 10
-11.892651927563859
 20
-44.445277204862798
 30
0.0
 42
-0.4464785874932524
  0
VERTEX
  5
2B86
  8
SAPA_FOGBAND
 10
-13.00132718451516
 20
-43.45119989975683
 30
0.0
  0
VERTEX
  5
2B87
  8
SAPA_FOGBAND
 10
-13.00132718451516
 20
-39.85014774559977
 30
0.0
 42
-0.622676997742357
  0
VERTEX
  5
2B88
  8
SAPA_FOGBAND
 10
-11.390652697901141
 20
-39.058266017436381
 30
0.0
  0
VERTEX
  5
2B89
  8
SAPA_FOGBAND
 10
-8.3893255353319773
 20
-41.533301339953368
 30
0.0
 42
-0.232531183213058
  0
VERTEX
  5
2B8A
  8
SAPA_FOGBAND
 10
-8.0000000219455387
 20
-42.325183068116978
 30
0.0
  0
VERTEX
  5
2B8B
  8
SAPA_FOGBAND
 10
-8.0000000219457661
 20
-42.959247559866981
 30
0.0
 42
-0.3826682380870913
  0
SEQEND
  5
2B8C
  8
SAPA_FOGBAND
  0
POLYLINE
  5
1B55
  8
SAPA_FOGBAND
 66
     1
 10
0.0
 20
0.0
 30
0.0
 70
     1
  0
VERTEX
  5
2B8D
  8
SAPA_FOGBAND
 10
-21.95309099353528
 20
-33.99111467281751
 30
0.0
 42
-0.4740571810231764
  0
VERTEX
  5
2B8E
  8
SAPA_FOGBAND
 10
-22.080384855899069
 20
-33.708832087178962
 30
0.0
  0
VERTEX
  5
2B8F
  8
SAPA_FOGBAND
 10
-21.46028435314031
 20
-32.262625950418851
 30
0.0
 42
-0.2846003776496257
  0
VERTEX
  5
2B90
  8
SAPA_FOGBAND
 10
-21.01264017468031
 20
-31.985369501371
 30
0.0
  0
VERTEX
  5
2B91
  8
SAPA_FOGBAND
 10
-19.39001419434965
 20
-31.985369501371
 30
0.0
 42
-0.2846003776496159
  0
VERTEX
  5
2B92
  8
SAPA_FOGBAND
 10
-18.942370015889651
 20
-32.262625950419078
 30
0.0
  0
VERTEX
  5
2B93
  8
SAPA_FOGBAND
 10
-18.322269513130891
 20
-33.708832087178962
 30
0.0
 42
-0.4740571810232354
  0
VERTEX
  5
2B94
  8
SAPA_FOGBAND
 10
-18.449563375494218
 20
-33.99111467281751
 30
0.0
  0
VERTEX
  5
2B95
  8
SAPA_FOGBAND
 10
-18.70132718451498
 20
-34.058574582127903
 30
0.0
  0
VERTEX
  5
2B96
  8
SAPA_FOGBAND
 10
-18.70132718451498
 20
-34.999999999010022
 30
0.0
 42
0.4142135623730951
  0
VERTEX
  5
2B97
  8
SAPA_FOGBAND
 10
-18.20132718451498
 20
-35.499999999010022
 30
0.0
  0
VERTEX
  5
2B98
  8
SAPA_FOGBAND
 10
-15.17322763378035
 20
-35.499999999009788
 30
0.0
 42
-0.1657205760184635
  0
VERTEX
  5
2B99
  8
SAPA_FOGBAND
 10
-14.562553147166559
 20
-35.708118270846398
 30
0.0
  0
VERTEX
  5
2B9A
  8
SAPA_FOGBAND
 10
-5.1946627566895813
 20
-41.102703355702261
 30
0.0
 42
-0.2325311832130358
  0
VERTEX
  5
2B9B
  8
SAPA_FOGBAND
 10
-4.9999999999964748
 20
-41.498644219784182
 30
0.0
  0
VERTEX
  5
2B9C
  8
SAPA_FOGBAND
 10
-4.9999999999964748
 20
-43.729387776221749
 30
0.0
 42
-0.3826682380870913
  0
VERTEX
  5
2B9D
  8
SAPA_FOGBAND
 10
-5.8913247430456286
 20
-44.723465081327497
 30
0.0
  0
VERTEX
  5
2B9E
  8
SAPA_FOGBAND
 10
-11.49579350334227
 20
-45.499999999010242
 30
0.0
  0
VERTEX
  5
2B9F
  8
SAPA_FOGBAND
 10
-25.20132716256569
 20
-45.499999999010242
 30
0.0
 42
-0.4257917699693507
  0
VERTEX
  5
2BA0
  8
SAPA_FOGBAND
 10
-25.50109471616372
 20
-45.188192636479471
 30
0.0
  0
VERTEX
  5
2BA1
  8
SAPA_FOGBAND
 10
-25.01325490149441
 20
-35.788192636478932
 30
0.0
 42
-0.4027293761437475
  0
VERTEX
  5
2BA2
  8
SAPA_FOGBAND
 10
-24.713487347896379
 20
-35.499999999009788
 30
0.0
  0
VERTEX
  5
2BA3
  8
SAPA_FOGBAND
 10
-22.20132718451498
 20
-35.499999999010022
 30
0.0
 42
0.4142135623730951
  0
VERTEX
  5
2BA4
  8
SAPA_FOGBAND
 10
-21.701327184514749
 20
-34.999999999010022
 30
0.0
  0
VERTEX
  5
2BA5
  8
SAPA_FOGBAND
 10
-21.701327184514749
 20
-34.058574582127903
 30
0.0
  0
SEQEND
  5
2BA6
  8
SAPA_FOGBAND
  0
POLYLINE
  5
1B56
  8
SAPA_FOGBAND
 66
     1
 10
0.0
 20
0.0
 30
0.0
 70
     1
  0
VERTEX
  5
2BA7
  8
SAPA_FOGBAND
 10
28.499999995341511
 20
13.06077394688643
 30
0.0
  0
VERTEX
  5
2BA8
  8
SAPA_FOGBAND
 10
28.499999995341511
 20
10.227454982466689
 30
0.0
 42
-0.577350269189628
  0
VERTEX
  5
2BA9
  8
SAPA_FOGBAND
 10
28.049999995341459
 20
9.9676473613312453
 30
0.0
  0
VERTEX
  5
2BAA
  8
SAPA_FOGBAND
 10
25.39365049849749
 20
12.10936157181621
 30
0.0
 42
0.8769764629927237
  0
VERTEX
  5
2BAB
  8
SAPA_FOGBAND
 10
25.031518464141591
 20
11.637421916324939
 30
0.0
  0
VERTEX
  5
2BAC
  8
SAPA_FOGBAND
 10
28.207106776527951
 20
7.6676084073469317
 30
0.0
 42
-0.1989123673796493
  0
VERTEX
  5
2BAD
  8
SAPA_FOGBAND
 10
28.499999995341511
 20
6.9605016261604931
 30
0.0
  0
VERTEX
  5
2BAE
  8
SAPA_FOGBAND
 10
28.499999995341511
 20
5.2095454967259514
 30
0.0
 42
-0.577350269189628
  0
VERTEX
  5
2BAF
  8
SAPA_FOGBAND
 10
28.049999995341459
 20
4.9497378755907269
 30
0.0
  0
VERTEX
  5
2BB0
  8
SAPA_FOGBAND
 10
25.394519251677881
 20
7.0307859270707516
 30
0.0
 42
0.8769764629928424
  0
VERTEX
  5
2BB1
  8
SAPA_FOGBAND
 10
25.032387217321968
 20
6.5588462715794833
 30
0.0
  0
VERTEX
  5
2BB2
  8
SAPA_FOGBAND
 10
29.282961423841869
 20
2.0928932198032442
 30
0.0
 42
0.1989123673796579
  0
VERTEX
  5
2BB3
  8
SAPA_FOGBAND
 10
29.990068205028312
 20
1.8000000009899111
 30
0.0
  0
VERTEX
  5
2BB4
  8
SAPA_FOGBAND
 10
29.999999995341511
 20
1.8000000009899111
 30
0.0
 42
0.4142135623730951
  0
VERTEX
  5
2BB5
  8
SAPA_FOGBAND
 10
30.999999995341511
 20
2.8000000009899111
 30
0.0
  0
VERTEX
  5
2BB6
  8
SAPA_FOGBAND
 10
32.16408459446501
 20
10.034992501757159
 30
0.0
 42
0.6261632875160376
  0
VERTEX
  5
2BB7
  8
SAPA_FOGBAND
 10
31.72211779103867
 20
10.34484943027584
 30
0.0
  0
VERTEX
  5
2BB8
  8
SAPA_FOGBAND
 10
31.445776145052552
 20
10.19121143548702
 30
0.0
 42
-0.5719685712689121
  0
VERTEX
  5
2BB9
  8
SAPA_FOGBAND
 10
30.999999995341621
 20
10.453412339710409
 30
0.0
  0
VERTEX
  5
2BBA
  8
SAPA_FOGBAND
 10
30.999999995341511
 20
13.200000000989769
 30
0.0
 42
-0.4142135623730118
  0
VERTEX
  5
2BBB
  8
SAPA_FOGBAND
 10
31.299999995341469
 20
13.50000000098996
 30
0.0
  0
VERTEX
  5
2BBC
  8
SAPA_FOGBAND
 10
32.699999995341557
 20
13.500000000989729
 30
0.0
 42
0.7754026414785753
  0
VERTEX
  5
2BBD
  8
SAPA_FOGBAND
 10
32.84470786364745
 20
14.06279199639763
 30
0.0
  0
VERTEX
  5
2BBE
  8
SAPA_FOGBAND
 10
25.384550964556471
 20
18.216425669061461
 30
0.0
 42
0.8680589103333867
  0
VERTEX
  5
2BBF
  8
SAPA_FOGBAND
 10
25.027711061894539
 20
17.741501639297692
 30
0.0
  0
VERTEX
  5
2BC0
  8
SAPA_FOGBAND
 10
28.207106776527951
 20
13.767880728072861
 30
0.0
 42
-0.1989123673796493
  0
SEQEND
  5
2BC1
  8
SAPA_FOGBAND
  0
DIMENSION
  5
1B63
  8
SAPA_MATT
  2
*D127
 10
169.9999761840896
 20
-115.55729482823369
 30
0.0
 11
125.49997618203
 21
-113.05729482823369
 31
0.0
 70
     0
 13
80.999976179970474
 23
-70.649999996255048
 33
0.0
 14
169.9999761840896
 24
-69.30000002874732
 34
0.0
1001
ACAD
1000
DSTYLE
1002
{
1070
   287
1070
     4
1070
    40
1040
1.0
1070
   279
1070
     1
1002
}
  0
DIMENSION
  5
1B66
  8
SAPA_MATT
  2
*D126
 10
81.000000000000057
 20
-115.55729482823369
 30
0.0
 11
78.500000000000057
 21
-113.05729482823369
 31
0.0
 70
     0
 13
76.000000000000057
 23
-71.500001525593845
 33
0.0
 14
81.000000000000057
 24
-70.649999996255048
 34
0.0
1001
ACAD
1000
DSTYLE
1002
{
1070
   287
1070
     4
1070
    40
1040
1.0
1070
   279
1070
     1
1002
}
  0
DIMENSION
  5
1B67
  8
SAPA_MATT
  2
*D128
 10
76.000000000000057
 20
-115.55729482823369
 30
0.0
 11
50.500000000000199
 21
-113.05729482823369
 31
0.0
 70
     0
 13
25.000000000000341
 23
-95.99999999901047
 33
0.0
 14
76.000000000000057
 24
-71.500001525593845
 34
0.0
1001
ACAD
1000
DSTYLE
1002
{
1070
   287
1070
     4
1070
   271
1070
     0
1070
    40
1040
1.0
1070
   279
1070
     1
1002
}
  0
DIMENSION
  5
1B6A
  8
SAPA_MATT
  2
*D125
 10
25.000000000000341
 20
-115.55729482823369
 30
0.0
 11
0.0000000000003412
 21
-113.05729482823369
 31
0.0
 70
     0
 13
-24.999999999999659
 23
-95.99999999901047
 33
0.0
 14
25.000000000000341
 24
-95.99999999901047
 34
0.0
1001
ACAD
1000
DSTYLE
1002
{
1070
   271
1070
     0
1070
    40
1040
1.0
1002
}
  0
VIEWPORT
  5
C4
 67
     1
  8
0
 10
143.06236603067589
 20
116.00969601843509
 30
0.0
 40
369.98580003443811
 41
256.8421457311839
 68
     1
 69
     1
1001
ACAD
1000
MVIEW
1002
{
1070
    16
1010
0.0
1020
0.0
1030
0.0
1010
0.0
1020
0.0
1030
1.0
1040
0.0
1040
256.8421457311839
1040
99.112914085388169
1040
143.07606935501099
1040
50.0
1040
0.0
1040
0.0
1070
     0
1070
     0
1070
     1
1070
     1
1070
     0
1070
     0
1070
     0
1070
     0
1040
0.0
1040
0.0
1040
0.0
1040
10.0
1040
10.0
1040
10.0
1040
10.0
1070
     0
1002
{
1002
}
1002
}
  0
ENDSEC
  0
EOF
