  0
SECTION
  2
HEADER
  9
$ACADVER
  1
AC1009
  9
$INSBASE
 10
0.0
 20
0.0
 30
0.0
  9
$EXTMIN
 10
-48.114456713577063
 20
-135.99999999901041
 30
0.0
  9
$EXTMAX
 10
141.1250339561839
 20
86.711765638890114
 30
0.0000000195376815
  9
$LIMMIN
 10
0.0
 20
0.0
  9
$LIMMAX
 10
790.0
 20
790.0
  9
$ORTHOMODE
 70
     1
  9
$REGENMODE
 70
     1
  9
$FILLMODE
 70
     1
  9
$QTEXTMODE
 70
     0
  9
$MIRRTEXT
 70
     1
  9
$DRAGMODE
 70
     2
  9
$LTSCALE
 40
4.0
  9
$OSMODE
 70
   167
  9
$ATTMODE
 70
     1
  9
$TEXTSIZE
 40
3.5
  9
$TRACEWID
 40
0.05
  9
$TEXTSTYLE
  7
ISO
  9
$CLAYER
  8
0
  9
$CELTYPE
  6
BYLAYER
  9
$CECOLOR
 62
   256
  9
$DIMSCALE
 40
0.0
  9
$DIMASZ
 40
3.0
  9
$DIMEXO
 40
1.5
  9
$DIMDLI
 40
10.0
  9
$DIMRND
 40
0.0
  9
$DIMDLE
 40
0.0
  9
$DIMEXE
 40
1.5
  9
$DIMTP
 40
0.0
  9
$DIMTM
 40
0.0
  9
$DIMTXT
 40
3.5
  9
$DIMCEN
 40
-5.0
  9
$DIMTSZ
 40
0.0
  9
$DIMTOL
 70
     0
  9
$DIMLIM
 70
     0
  9
$DIMTIH
 70
     0
  9
$DIMTOH
 70
     0
  9
$DIMSE1
 70
     0
  9
$DIMSE2
 70
     0
  9
$DIMTAD
 70
     1
  9
$DIMZIN
 70
     8
  9
$DIMBLK
  1

  9
$DIMASO
 70
     1
  9
$DIMSHO
 70
     1
  9
$DIMPOST
  1

  9
$DIMAPOST
  1

  9
$DIMALT
 70
     0
  9
$DIMALTD
 70
     0
  9
$DIMALTF
 40
25.399999999999999
  9
$DIMLFAC
 40
-1.0
  9
$DIMTOFL
 70
     1
  9
$DIMTVP
 40
0.0
  9
$DIMTIX
 70
     0
  9
$DIMSOXD
 70
     0
  9
$DIMSAH
 70
     0
  9
$DIMBLK1
  1

  9
$DIMBLK2
  1

  9
$DIMSTYLE
  2
MASKIN
  9
$DIMCLRD
 70
   256
  9
$DIMCLRE
 70
   256
  9
$DIMCLRT
 70
     2
  9
$DIMTFAC
 40
1.0
  9
$DIMGAP
 40
1.0
  9
$LUNITS
 70
     2
  9
$LUPREC
 70
     8
  9
$SKETCHINC
 40
0.1
  9
$FILLETRAD
 40
0.0
  9
$AUNITS
 70
     0
  9
$AUPREC
 70
     8
  9
$MENU
  1
ACAD
  9
$ELEVATION
 40
0.0
  9
$PELEVATION
 40
0.0
  9
$THICKNESS
 40
0.0
  9
$LIMCHECK
 70
     0
  9
$BLIPMODE
 70
     0
  9
$CHAMFERA
 40
0.0
  9
$CHAMFERB
 40
0.0
  9
$SKPOLY
 70
     0
  9
$TDCREATE
 40
2454981.3237536349
  9
$TDUPDATE
 40
2457105.5443017362
  9
$TDINDWG
 40
0.0713771644
  9
$TDUSRTIMER
 40
0.0713769792
  9
$USRTIMER
 70
     1
  9
$ANGBASE
 50
0.0
  9
$ANGDIR
 70
     0
  9
$PDMODE
 70
     0
  9
$PDSIZE
 40
0.0
  9
$PLINEWID
 40
0.0
  9
$COORDS
 70
     1
  9
$SPLFRAME
 70
     0
  9
$SPLINETYPE
 70
     6
  9
$SPLINESEGS
 70
     8
  9
$ATTDIA
 70
     0
  9
$ATTREQ
 70
     1
  9
$HANDLING
 70
     1
  9
$HANDSEED
  5
277E
  9
$SURFTAB1
 70
     6
  9
$SURFTAB2
 70
     6
  9
$SURFTYPE
 70
     6
  9
$SURFU
 70
     6
  9
$SURFV
 70
     6
  9
$UCSNAME
  2

  9
$UCSORG
 10
0.0
 20
0.0
 30
0.0
  9
$UCSXDIR
 10
1.0
 20
0.0
 30
0.0
  9
$UCSYDIR
 10
0.0
 20
1.0
 30
0.0
  9
$PUCSNAME
  2

  9
$PUCSORG
 10
0.0
 20
0.0
 30
0.0
  9
$PUCSXDIR
 10
1.0
 20
0.0
 30
0.0
  9
$PUCSYDIR
 10
0.0
 20
1.0
 30
0.0
  9
$USERI1
 70
     0
  9
$USERI2
 70
     0
  9
$USERI3
 70
     0
  9
$USERI4
 70
     0
  9
$USERI5
 70
     0
  9
$USERR1
 40
0.0
  9
$USERR2
 40
0.0
  9
$USERR3
 40
0.0
  9
$USERR4
 40
0.0
  9
$USERR5
 40
0.0
  9
$WORLDVIEW
 70
     1
  9
$SHADEDGE
 70
     3
  9
$SHADEDIF
 70
    70
  9
$TILEMODE
 70
     1
  9
$MAXACTVP
 70
    16
  9
$PLIMCHECK
 70
     0
  9
$PEXTMIN
 10
1.0000000000000000E+020
 20
1.0000000000000000E+020
 30
1.0000000000000000E+020
  9
$PEXTMAX
 10
-1.0000000000000000E+020
 20
-1.0000000000000000E+020
 30
-1.0000000000000000E+020
  9
$PLIMMIN
 10
-5.069427490234375
 20
-5.8737497329711914
  9
$PLIMMAX
 10
291.89889526367187
 20
204.0995779037475
  9
$UNITMODE
 70
     0
  9
$VISRETAIN
 70
     1
  9
$PLINEGEN
 70
     0
  9
$PSLTSCALE
 70
     1
  0
ENDSEC
  0
SECTION
  2
TABLES
  0
TABLE
  2
VPORT
 70
     1
  0
VPORT
  2
*ACTIVE
 70
     0
 10
0.0
 20
0.0
 11
1.0
 21
1.0
 12
124.9258241145815
 22
100.9979083449345
 13
0.0
 23
0.0
 14
1.0
 24
1.0
 15
0.0
 25
0.0
 16
0.0
 26
0.0
 36
1.0
 17
0.0
 27
0.0
 37
0.0
 40
361.84724383290052
 41
1.7436619718309849
 42
50.0
 43
0.0
 44
0.0
 50
0.0
 51
0.0
 71
     0
 72
   100
 73
     1
 74
     1
 75
     0
 76
     0
 77
     0
 78
     0
  0
ENDTAB
  0
TABLE
  2
LTYPE
 70
    44
  0
LTYPE
  2
CONTINUOUS
 70
     0
  3
Solid line
 72
    65
 73
     0
 40
0.0
  0
LTYPE
  2
BYGG-01482201$0$NEWDOT
 70
     0
  3
____ . ____ . ____ . ____ . ____ . ____ . ____
 72
    65
 73
     4
 40
2.0
 49
1.0
 49
-0.5
 49
0.0
 49
-0.5
  0
LTYPE
  2
BYGG-023714$0$NEWDOT
 70
     0
  3
____ . ____ . ____ . ____ . ____ . ____ . ____
 72
    65
 73
     4
 40
2.0
 49
1.0
 49
-0.5
 49
0.0
 49
-0.5
  0
LTYPE
  2
BYGG-023714$0$DASHDOT
 70
     0
  3
__ . __ . __ . __ . __ . __ . __ . __ . __ . __
 72
    65
 73
     4
 40
1.0
 49
0.5
 49
-0.25
 49
0.0
 49
-0.25
  0
LTYPE
  2
BYGG-023714$0$DASHED
 70
     0
  3
__ __ __ __ __ __ __ __ __ __ __ __ __ __ __
 72
    65
 73
     2
 40
0.75
 49
0.5
 49
-0.25
  0
LTYPE
  2
BYGG-023714$0$PHANTOM
 70
     0
  3
Phantom ______  __  __  ______  __  __  ______
 72
    65
 73
     6
 40
63.5
 49
31.75
 49
-6.3499999999999988
 49
6.3499999999999988
 49
-6.3499999999999988
 49
6.3499999999999988
 49
-6.3499999999999988
  0
LTYPE
  2
BYGG-014279$0$NEWDOT
 70
     0
  3
____ . ____ . ____ . ____ . ____ . ____ . ____
 72
    65
 73
     4
 40
2.0
 49
1.0
 49
-0.5
 49
0.0
 49
-0.5
  0
LTYPE
  2
BYGG-01482201$0$ZIGZAG
 70
     0
  3
Zig zag /\/\/\/\/\/\/\/\/\/\/\/\/\/\/\/\/\/\/\/\/\/\/\/
 72
    65
 73
     4
 40
20.32254
 49
0.00254
 49
-5.0800000000000001
 49
-10.16
 49
-5.0800000000000001
  0
LTYPE
  2
BYGG-023714$0$ZIGZAG
 70
     0
  3
Zig zag /\/\/\/\/\/\/\/\/\/\/\/\/\/\/\/\/\/\/\/\/\/\/\/
 72
    65
 73
     4
 40
20.32254
 49
0.00254
 49
-5.0800000000000001
 49
-10.16
 49
-5.0800000000000001
  0
LTYPE
  2
BYGG-014279$0$ZIGZAG
 70
     0
  3
Zig zag /\/\/\/\/\/\/\/\/\/\/\/\/\/\/\/\/\/\/\/\/\/\/\/
 72
    65
 73
     4
 40
20.32254
 49
0.00254
 49
-5.0800000000000001
 49
-10.16
 49
-5.0800000000000001
  0
LTYPE
  2
BYGG-033246$0$NEWDOT
 70
     0
  3
____ . ____ . ____ . ____ . ____ . ____ . ____
 72
    65
 73
     4
 40
2.0
 49
1.0
 49
-0.5
 49
0.0
 49
-0.5
  0
LTYPE
  2
BYGG-033246$0$DASHDOT
 70
     0
  3
__ . __ . __ . __ . __ . __ . __ . __ . __ . __
 72
    65
 73
     4
 40
1.0
 49
0.5
 49
-0.25
 49
0.0
 49
-0.25
  0
LTYPE
  2
BYGG-033246$0$DASHED
 70
     0
  3
__ __ __ __ __ __ __ __ __ __ __ __ __ __ __
 72
    65
 73
     2
 40
0.75
 49
0.5
 49
-0.25
  0
LTYPE
  2
BYGG-033246$0$PHANTOM
 70
     0
  3
Phantom ______  __  __  ______  __  __  ______
 72
    65
 73
     6
 40
63.5
 49
31.75
 49
-6.3499999999999988
 49
6.3499999999999988
 49
-6.3499999999999988
 49
6.3499999999999988
 49
-6.3499999999999988
  0
LTYPE
  2
BYGG-024943$0$NEWDOT
 70
     0
  3
____ . ____ . ____ . ____ . ____ . ____ . ____
 72
    65
 73
     4
 40
2.0
 49
1.0
 49
-0.5
 49
0.0
 49
-0.5
  0
LTYPE
  2
BYGG-024943$0$DASHDOT
 70
     0
  3
__ . __ . __ . __ . __ . __ . __ . __ . __ . __
 72
    65
 73
     4
 40
1.0
 49
0.5
 49
-0.25
 49
0.0
 49
-0.25
  0
LTYPE
  2
BYGG-020132$0$NEWDOT
 70
     0
  3
____ . ____ . ____ . ____ . ____ . ____ . ____
 72
    65
 73
     4
 40
2.0
 49
1.0
 49
-0.5
 49
0.0
 49
-0.5
  0
LTYPE
  2
BYGG-020132$0$DASHDOT
 70
     0
  3
__ . __ . __ . __ . __ . __ . __ . __ . __ . __
 72
    65
 73
     4
 40
1.0
 49
0.5
 49
-0.25
 49
0.0
 49
-0.25
  0
LTYPE
  2
BYGG-020805$0$NEWDOT
 70
     0
  3
____ . ____ . ____ . ____ . ____ . ____ . ____
 72
    65
 73
     4
 40
2.0
 49
1.0
 49
-0.5
 49
0.0
 49
-0.5
  0
LTYPE
  2
BYGG-020805$0$DASHDOT
 70
     0
  3
__ . __ . __ . __ . __ . __ . __ . __ . __ . __
 72
    65
 73
     4
 40
1.0
 49
0.5
 49
-0.25
 49
0.0
 49
-0.25
  0
LTYPE
  2
BYGG-020805$0$DASHED
 70
     0
  3
__ __ __ __ __ __ __ __ __ __ __ __ __ __ __
 72
    65
 73
     2
 40
0.75
 49
0.5
 49
-0.25
  0
LTYPE
  2
BYGG-020805$0$PHANTOM
 70
     0
  3
Phantom ______  __  __  ______  __  __  ______
 72
    65
 73
     6
 40
63.5
 49
31.75
 49
-6.3499999999999988
 49
6.3499999999999988
 49
-6.3499999999999988
 49
6.3499999999999988
 49
-6.3499999999999988
  0
LTYPE
  2
BYGG-026410$0$NEWDOT
 70
     0
  3
____ . ____ . ____ . ____ . ____ . ____ . ____
 72
    65
 73
     4
 40
2.0
 49
1.0
 49
-0.5
 49
0.0
 49
-0.5
  0
LTYPE
  2
BYGG-026410$0$DASHDOT
 70
     0
  3
__ . __ . __ . __ . __ . __ . __ . __ . __ . __
 72
    65
 73
     4
 40
1.0
 49
0.5
 49
-0.25
 49
0.0
 49
-0.25
  0
LTYPE
  2
BYGG-026410$0$DASHED
 70
     0
  3
__ __ __ __ __ __ __ __ __ __ __ __ __ __ __
 72
    65
 73
     2
 40
0.75
 49
0.5
 49
-0.25
  0
LTYPE
  2
BYGG-026410$0$PHANTOM
 70
     0
  3
Phantom ______  __  __  ______  __  __  ______
 72
    65
 73
     6
 40
63.5
 49
31.75
 49
-6.3499999999999988
 49
6.3499999999999988
 49
-6.3499999999999988
 49
6.3499999999999988
 49
-6.3499999999999988
  0
LTYPE
  2
BYGG-033169$0$NEWDOT
 70
     0
  3
____ . ____ . ____ . ____ . ____ . ____ . ____
 72
    65
 73
     4
 40
2.0
 49
1.0
 49
-0.5
 49
0.0
 49
-0.5
  0
LTYPE
  2
BYGG-033169$0$DASHDOT
 70
     0
  3
__ . __ . __ . __ . __ . __ . __ . __ . __ . __
 72
    65
 73
     4
 40
1.0
 49
0.5
 49
-0.25
 49
0.0
 49
-0.25
  0
LTYPE
  2
BYGG-033169$0$DASHED
 70
     0
  3
__ __ __ __ __ __ __ __ __ __ __ __ __ __ __
 72
    65
 73
     2
 40
0.75
 49
0.5
 49
-0.25
  0
LTYPE
  2
BYGG-033169$0$PHANTOM
 70
     0
  3
Phantom ______  __  __  ______  __  __  ______
 72
    65
 73
     6
 40
63.5
 49
31.75
 49
-6.3499999999999988
 49
6.3499999999999988
 49
-6.3499999999999988
 49
6.3499999999999988
 49
-6.3499999999999988
  0
LTYPE
  2
BYGG-024798$0$NEWDOT
 70
     0
  3
____ . ____ . ____ . ____ . ____ . ____ . ____
 72
    65
 73
     4
 40
2.0
 49
1.0
 49
-0.5
 49
0.0
 49
-0.5
  0
LTYPE
  2
BYGG-024799$0$NEWDOT
 70
     0
  3
____ . ____ . ____ . ____ . ____ . ____ . ____
 72
    65
 73
     4
 40
2.0
 49
1.0
 49
-0.5
 49
0.0
 49
-0.5
  0
LTYPE
  2
BYGG-024799$0$DASHDOT
 70
     0
  3
__ . __ . __ . __ . __ . __ . __ . __ . __ . __
 72
    65
 73
     4
 40
1.0
 49
0.5
 49
-0.25
 49
0.0
 49
-0.25
  0
LTYPE
  2
BYGG-025652$0$NEWDOT
 70
     0
  3
____ . ____ . ____ . ____ . ____ . ____ . ____
 72
    65
 73
     4
 40
2.0
 49
1.0
 49
-0.5
 49
0.0
 49
-0.5
  0
LTYPE
  2
BYGG-025652$0$DASHDOT
 70
     0
  3
__ . __ . __ . __ . __ . __ . __ . __ . __ . __
 72
    65
 73
     4
 40
1.0
 49
0.5
 49
-0.25
 49
0.0
 49
-0.25
  0
LTYPE
  2
BYGG-025652$0$DASHED
 70
     0
  3
__ __ __ __ __ __ __ __ __ __ __ __ __ __ __
 72
    65
 73
     2
 40
0.75
 49
0.5
 49
-0.25
  0
LTYPE
  2
BYGG-025652$0$PHANTOM
 70
     0
  3
Phantom ______  __  __  ______  __  __  ______
 72
    65
 73
     6
 40
63.5
 49
31.75
 49
-6.3499999999999988
 49
6.3499999999999988
 49
-6.3499999999999988
 49
6.3499999999999988
 49
-6.3499999999999988
  0
LTYPE
  2
BYGG-014411$0$NEWDOT
 70
     0
  3
____ . ____ . ____ . ____ . ____ . ____ . ____
 72
    65
 73
     4
 40
2.0
 49
1.0
 49
-0.5
 49
0.0
 49
-0.5
  0
LTYPE
  2
BYGG-014411$0$ZIGZAG
 70
     0
  3
Zig zag /\/\/\/\/\/\/\/\/\/\/\/\/\/\/\/\/\/\/\/\/\/\/\/
 72
    65
 73
     4
 40
20.32254
 49
0.00254
 49
-5.0800000000000001
 49
-10.16
 49
-5.0800000000000001
  0
LTYPE
  2
BYGG-030185$0$PHANTOM2
 70
     0
  3
Phantom (.5x) ___ _ _ ___ _ _ ___ _ _ ___ _ _
 72
    65
 73
     6
 40
1.25
 49
0.625
 49
-0.125
 49
0.125
 49
-0.125
 49
0.125
 49
-0.125
  0
LTYPE
  2
BYGG-024798$0$DASHDOT
 70
     0
  3
__ . __ . __ . __ . __ . __ . __ . __ . __ . __
 72
    65
 73
     4
 40
1.0
 49
0.5
 49
-0.25
 49
0.0
 49
-0.25
  0
LTYPE
  2
BYGG-014089$0$PHANTOM2
 70
     0
  3
Phantom (.5x) ___ _ _ ___ _ _ ___ _ _ ___ _ _
 72
    65
 73
     6
 40
1.25
 49
0.625
 49
-0.125
 49
0.125
 49
-0.125
 49
0.125
 49
-0.125
  0
LTYPE
  2
BYGG-014108$0$PHANTOM2
 70
     0
  3
Phantom (.5x) ___ _ _ ___ _ _ ___ _ _ ___ _ _
 72
    65
 73
     6
 40
1.25
 49
0.625
 49
-0.125
 49
0.125
 49
-0.125
 49
0.125
 49
-0.125
  0
LTYPE
  2
BYGG-014411$0$PHANTOM2
 70
     0
  3
Phantom (.5x) ___ _ _ ___ _ _ ___ _ _ ___ _ _
 72
    65
 73
     6
 40
1.25
 49
0.625
 49
-0.125
 49
0.125
 49
-0.125
 49
0.125
 49
-0.125
  0
ENDTAB
  0
TABLE
  2
LAYER
 70
   254
  0
LAYER
  2
0
 70
     0
 62
     7
  6
CONTINUOUS
  0
LAYER
  2
DEFPOINTS
 70
     0
 62
     7
  6
CONTINUOUS
  0
LAYER
  2
SAPA_LIGHT
 70
     1
 62
     1
  6
CONTINUOUS
  0
LAYER
  2
SAPA_ARTIKELNR
 70
     0
 62
     4
  6
CONTINUOUS
  0
LAYER
  2
SAPA_ISOLATOR
 70
     0
 62
     4
  6
CONTINUOUS
  0
LAYER
  2
SAPA_MATT
 70
     0
 62
     1
  6
CONTINUOUS
  0
LAYER
  2
SAPA_GLAS
 70
     0
 62
     4
  6
CONTINUOUS
  0
LAYER
  2
SAPA_FOGBAND
 70
     0
 62
     2
  6
CONTINUOUS
  0
LAYER
  2
SAPA_PROFIL
 70
     0
 62
     7
  6
CONTINUOUS
  0
ENDTAB
  0
TABLE
  2
STYLE
 70
    49
  0
STYLE
  2
STANDARD
 70
     0
 40
0.0
 41
1.0
 50
0.0
 71
     0
 42
0.2
  3
txt
  4

  0
STYLE
  2
ISO
 70
     0
 40
0.0
 41
1.0
 50
0.0
 71
     0
 42
3.5
  3
txt
  4

  0
STYLE
  2

 70
     1
 40
0.0
 41
1.0
 50
0.0
 71
     0
 42
0.2
  3
ltypeshp.shx
  4

  0
STYLE
  2
BYGG-021589$0$STANDARD
 70
     0
 40
0.0
 41
1.0
 50
0.0
 71
     0
 42
0.2
  3
txt
  4

  0
STYLE
  2
BYGG-021589$0$ISO
 70
     0
 40
0.0
 41
1.0
 50
0.0
 71
     0
 42
3.5
  3
isocp3.shx
  4

  0
STYLE
  2
BYGG-01482201$0$STANDARD
 70
     0
 40
0.0
 41
1.0
 50
0.0
 71
     0
 42
0.2
  3
txt
  4

  0
STYLE
  2
BYGG-01482201$0$ISO
 70
     0
 40
0.0
 41
1.0
 50
0.0
 71
     0
 42
3.5
  3
isocp3.shx
  4

  0
STYLE
  2
BYGG-023717$0$STANDARD
 70
     0
 40
0.0
 41
1.0
 50
0.0
 71
     0
 42
0.2
  3
txt
  4

  0
STYLE
  2
BYGG-023717$0$ISO
 70
     0
 40
0.0
 41
1.0
 50
0.0
 71
     0
 42
3.5
  3
txt
  4

  0
STYLE
  2
BYGG-023714$0$STANDARD
 70
     0
 40
0.0
 41
1.0
 50
0.0
 71
     0
 42
0.2
  3
txt
  4

  0
STYLE
  2
BYGG-023714$0$ISO
 70
     0
 40
0.0
 41
1.0
 50
0.0
 71
     0
 42
3.5
  3
txt
  4

  0
STYLE
  2
BYGG-019338$0$STANDARD
 70
     0
 40
0.0
 41
1.0
 50
0.0
 71
     0
 42
0.2
  3
txt
  4

  0
STYLE
  2
BYGG-019338$0$ISO
 70
     0
 40
0.0
 41
1.0
 50
0.0
 71
     0
 42
3.5
  3
txt
  4

  0
STYLE
  2
BYGG-023917$0$STANDARD
 70
     0
 40
0.0
 41
1.0
 50
0.0
 71
     0
 42
0.2
  3
txt
  4

  0
STYLE
  2
BYGG-023917$0$ISO
 70
     0
 40
0.0
 41
1.0
 50
0.0
 71
     0
 42
3.5
  3
txt
  4

  0
STYLE
  2
BYGG-021582$0$STANDARD
 70
     0
 40
0.0
 41
1.0
 50
0.0
 71
     0
 42
0.2
  3
txt
  4

  0
STYLE
  2
BYGG-021582$0$ISO
 70
     0
 40
0.0
 41
1.0
 50
0.0
 71
     0
 42
3.5
  3
isocp3.shx
  4

  0
STYLE
  2
BYGG-014279$0$STANDARD
 70
     0
 40
0.0
 41
1.0
 50
0.0
 71
     0
 42
0.2
  3
TXT.shx
  4

  0
STYLE
  2
BYGG-014279$0$ISO
 70
     0
 40
0.0
 41
1.0
 50
0.0
 71
     0
 42
3.5
  3
iso
  4

  0
STYLE
  2
BYGG-033246$0$STANDARD
 70
     0
 40
0.0
 41
1.0
 50
0.0
 71
     0
 42
0.2
  3
txt
  4

  0
STYLE
  2
BYGG-033246$0$ISO
 70
     0
 40
0.0
 41
1.0
 50
0.0
 71
     0
 42
3.5
  3
txt
  4

  0
STYLE
  2
BYGG-024943$0$STANDARD
 70
     0
 40
0.0
 41
1.0
 50
0.0
 71
     0
 42
0.2
  3
txt
  4

  0
STYLE
  2
BYGG-024943$0$ISO
 70
     0
 40
0.0
 41
1.0
 50
0.0
 71
     0
 42
3.5
  3
txt
  4

  0
STYLE
  2
BYGG-020132$0$STANDARD
 70
     0
 40
0.0
 41
1.0
 50
0.0
 71
     0
 42
0.2
  3
txt
  4

  0
STYLE
  2
BYGG-020132$0$ISO
 70
     0
 40
0.0
 41
1.0
 50
0.0
 71
     0
 42
3.5
  3
txt
  4

  0
STYLE
  2
BYGG-028980$0$STANDARD
 70
     0
 40
0.0
 41
1.0
 50
0.0
 71
     0
 42
0.2
  3
txt
  4

  0
STYLE
  2
BYGG-028980$0$ISO
 70
     0
 40
0.0
 41
1.0
 50
0.0
 71
     0
 42
3.5
  3
txt
  4

  0
STYLE
  2
BYGG-020805$0$STANDARD
 70
     0
 40
0.0
 41
1.0
 50
0.0
 71
     0
 42
0.2
  3
txt
  4

  0
STYLE
  2
BYGG-020805$0$ISO
 70
     0
 40
0.0
 41
1.0
 50
0.0
 71
     0
 42
3.5
  3
txt
  4

  0
STYLE
  2
BYGG-026410$0$STANDARD
 70
     0
 40
0.0
 41
1.0
 50
0.0
 71
     0
 42
0.2
  3
txt
  4

  0
STYLE
  2
BYGG-026410$0$ISO
 70
     0
 40
0.0
 41
1.0
 50
0.0
 71
     0
 42
3.5
  3
txt
  4

  0
STYLE
  2
BYGG-033169$0$STANDARD
 70
     0
 40
0.0
 41
1.0
 50
0.0
 71
     0
 42
0.2
  3
txt
  4

  0
STYLE
  2
BYGG-033169$0$ISO
 70
     0
 40
0.0
 41
1.0
 50
0.0
 71
     0
 42
3.5
  3
txt
  4

  0
STYLE
  2
BYGG-030185$0$STANDARD
 70
     0
 40
0.0
 41
1.0
 50
0.0
 71
     0
 42
0.2
  3
txt
  4

  0
STYLE
  2
BYGG-030185$0$ISO
 70
     0
 40
0.0
 41
1.0
 50
0.0
 71
     0
 42
7.0
  3
ISO
  4

  0
STYLE
  2
BYGG-024798$0$STANDARD
 70
     0
 40
0.0
 41
1.0
 50
0.0
 71
     0
 42
0.2
  3
txt
  4

  0
STYLE
  2
BYGG-024798$0$ISO
 70
     0
 40
0.0
 41
1.0
 50
0.0
 71
     0
 42
3.5
  3
txt
  4

  0
STYLE
  2
BYGG-024799$0$STANDARD
 70
     0
 40
0.0
 41
1.0
 50
0.0
 71
     0
 42
0.2
  3
txt
  4

  0
STYLE
  2
BYGG-024799$0$ISO
 70
     0
 40
0.0
 41
1.0
 50
0.0
 71
     0
 42
3.5
  3
txt
  4

  0
STYLE
  2
BYGG-014089$0$STANDARD
 70
     0
 40
0.0
 41
1.0
 50
0.0
 71
     0
 42
0.2
  3
txt
  4

  0
STYLE
  2
BYGG-014089$0$ANNOTATIVE
 70
     0
 40
0.0
 41
1.0
 50
0.0
 71
     0
 42
3.5
  3
txt
  4

  0
STYLE
  2
BYGG-014108$0$STANDARD
 70
     0
 40
0.0
 41
1.0
 50
0.0
 71
     0
 42
0.4
  3
txt
  4

  0
STYLE
  2
BYGG-014108$0$SIMPLEX
 70
     0
 40
0.0
 41
1.0
 50
0.0
 71
     0
 42
0.2
  3
simplex
  4

  0
STYLE
  2
BYGG-019611$0$STANDARD
 70
     0
 40
0.0
 41
1.0
 50
0.0
 71
     0
 42
0.2
  3
txt
  4

  0
STYLE
  2
BYGG-019611$0$ISO
 70
     0
 40
0.0
 41
1.0
 50
0.0
 71
     0
 42
3.5
  3
txt
  4

  0
STYLE
  2
BYGG-025652$0$STANDARD
 70
     0
 40
0.0
 41
1.0
 50
0.0
 71
     0
 42
0.2
  3
txt
  4

  0
STYLE
  2
BYGG-025652$0$ISO
 70
     0
 40
0.0
 41
1.0
 50
0.0
 71
     0
 42
3.5
  3
txt
  4

  0
STYLE
  2
BYGG-014411$0$STANDARD
 70
     0
 40
0.0
 41
1.0
 50
0.0
 71
     0
 42
0.2
  3
txt
  4

  0
STYLE
  2
BYGG-014411$0$ISO
 70
     0
 40
0.0
 41
1.0
 50
0.0
 71
     0
 42
3.5
  3
isocp3.shx
  4

  0
ENDTAB
  0
TABLE
  2
VIEW
 70
     0
  0
ENDTAB
  0
TABLE
  2
UCS
 70
     0
  0
ENDTAB
  0
TABLE
  2
APPID
 70
    34
  0
APPID
  2
ACAD
 70
     0
  0
APPID
  2
ACAD_DSTYLE_DIMTEXT_FILL
 70
     0
  0
APPID
  2
ACAD_DSTYLE_DIMEXT_LENGTH
 70
     0
  0
APPID
  2
ACAD_DSTYLE_DIMEXT_ENABLED
 70
     0
  0
APPID
  2
ACAD_DSTYLE_DIM_LINETYPE
 70
     0
  0
APPID
  2
ACAD_DSTYLE_DIM_EXT1_LINETYPE
 70
     0
  0
APPID
  2
ACAD_DSTYLE_DIM_EXT2_LINETYPE
 70
     0
  0
APPID
  2
ACAD_DSTYLE_DIMJOGGED_JOGA
 70
     0
  0
APPID
  2
ACAD_DSTYLE_DIMARC_LENGTH_
 70
     0
  0
APPID
  2
ACAD_PSEXT
 70
     0
  0
APPID
  2
ACAD_MLEADERVER
 70
     0
  0
APPID
  2
AMG_ARCHIVE11
 70
     0
  0
APPID
  2
ACADANNOTATIVE
 70
     0
  0
APPID
  2
ACAECLAYERSTANDARD
 70
     0
  0
APPID
  2
ACAD_EXEMPT_FROM_CAD_STANDARDS
 70
     0
  0
APPID
  2
ACDBDYNAMICBLOCKGUID
 70
     0
  0
APPID
  2
ACDBBLOCKREPETAG
 70
     0
  0
APPID
  2
ACAUTHENVIRON
 70
     0
  0
APPID
  2
ACAD_DSTYLE_DIMJAG
 70
     0
  0
APPID
  2
ACAD_DSTYLE_DIMTALN
 70
     0
  0
APPID
  2
ACAD_NAV_VCDISPLAY
 70
     0
  0
APPID
  2
ACAD_DSTYLE_DIMRADIAL_EXTENSION
 70
     0
  0
APPID
  2
ACAD_OBJECT_CHANGE_GUID
 70
     0
  0
APPID
  2
ACCMTRANSPARENCY
 70
     0
  0
APPID
  2
AVE_RENDER
 70
     0
  0
APPID
  2
AVE_ENTITY_MATERIAL
 70
     0
  0
APPID
  2
AVE_FINISH
 70
     0
  0
APPID
  2
AVE_MATERIAL
 70
     0
  0
APPID
  2
AVE_GLOBAL
 70
     0
  0
APPID
  2
4M_RENDER
 70
     0
  0
APPID
  2
LIBMAN
 70
     0
  0
APPID
  2
AUTOBUILD
 70
     0
  0
APPID
  2
ACDBDYNAMICBLOCKTRUENAME
 70
     0
  0
APPID
  2
AEC_XDATA_BOUND_SPACE
 70
     0
  0
ENDTAB
  0
TABLE
  2
DIMSTYLE
 70
    44
  0
DIMSTYLE
  2
MASKIN
 70
     0
  3

  4

  5

  6

  7

 40
0.0
 41
3.0
 42
1.5
 43
10.0
 44
1.5
 45
0.0
 46
0.0
 47
0.0
 48
0.0
140
3.5
141
-5.0
142
0.0
143
25.399999999999999
144
-1.0
145
0.0
146
1.0
147
1.0
 71
     0
 72
     0
 73
     0
 74
     0
 75
     0
 76
     0
 77
     1
 78
     8
170
     0
171
     0
172
     1
173
     0
174
     0
175
     0
176
   256
177
   256
178
     2
  0
DIMSTYLE
  2
STANDARD
 70
     0
  3

  4

  5

  6

  7

 40
1.0
 41
0.18
 42
0.0625
 43
0.38
 44
0.18
 45
0.0
 46
0.0
 47
0.0
 48
0.0
140
0.18
141
0.09
142
0.0
143
25.399999999999999
144
1.0
145
0.0
146
1.0
147
0.09
 71
     0
 72
     0
 73
     1
 74
     1
 75
     0
 76
     0
 77
     0
 78
     0
170
     0
171
     2
172
     0
173
     0
174
     0
175
     0
176
     0
177
     0
178
     0
  0
DIMSTYLE
  2
BYGG-021589$0$MASKIN
 70
     0
  3

  4

  5

  6

  7

 40
0.0
 41
3.0
 42
1.5
 43
10.0
 44
1.5
 45
0.0
 46
0.0
 47
0.0
 48
0.0
140
3.0
141
-5.0
142
0.0
143
25.399999999999999
144
-1.0
145
0.0
146
1.0
147
1.0
 71
     0
 72
     0
 73
     0
 74
     0
 75
     0
 76
     0
 77
     1
 78
     8
170
     0
171
     0
172
     1
173
     0
174
     0
175
     0
176
   256
177
   256
178
   256
  0
DIMSTYLE
  2
BYGG-01482201$0$STANDARD
 70
     0
  3

  4

  5

  6

  7

 40
1.0
 41
0.18
 42
0.0625
 43
0.38
 44
0.18
 45
0.0
 46
0.0
 47
0.0
 48
0.0
140
0.18
141
0.09
142
0.0
143
25.399999999999999
144
1.0
145
0.0
146
1.0
147
0.09
 71
     0
 72
     0
 73
     1
 74
     1
 75
     0
 76
     0
 77
     0
 78
     0
170
     0
171
     2
172
     0
173
     0
174
     0
175
     0
176
     0
177
     0
178
     0
  0
DIMSTYLE
  2
BYGG-01482201$0$MASKIN
 70
     0
  3

  4

  5

  6

  7

 40
0.0
 41
3.0
 42
1.5
 43
10.0
 44
1.5
 45
0.0
 46
0.0
 47
0.0
 48
0.0
140
3.0
141
-5.0
142
0.0
143
25.399999999999999
144
-1.0
145
0.0
146
1.0
147
1.0
 71
     0
 72
     0
 73
     0
 74
     1
 75
     0
 76
     0
 77
     1
 78
     8
170
     0
171
     0
172
     1
173
     0
174
     0
175
     0
176
   256
177
   256
178
     2
  0
DIMSTYLE
  2
BYGG-023717$0$STANDARD
 70
     0
  3

  4

  5

  6

  7

 40
1.0
 41
0.18
 42
0.0625
 43
0.38
 44
0.18
 45
0.0
 46
0.0
 47
0.0
 48
0.0
140
0.18
141
0.09
142
0.0
143
25.399999999999999
144
1.0
145
0.0
146
1.0
147
0.09
 71
     0
 72
     0
 73
     1
 74
     1
 75
     0
 76
     0
 77
     0
 78
     0
170
     0
171
     2
172
     0
173
     0
174
     0
175
     0
176
     0
177
     0
178
     0
  0
DIMSTYLE
  2
BYGG-023717$0$MASKIN
 70
     0
  3

  4

  5

  6

  7

 40
0.0
 41
3.0
 42
1.5
 43
10.0
 44
1.5
 45
0.0
 46
0.0
 47
0.0
 48
0.0
140
3.0
141
-5.0
142
0.0
143
25.399999999999999
144
-1.0
145
0.0
146
1.0
147
1.0
 71
     0
 72
     0
 73
     0
 74
     0
 75
     0
 76
     0
 77
     1
 78
     8
170
     0
171
     0
172
     1
173
     0
174
     0
175
     0
176
   256
177
   256
178
     2
  0
DIMSTYLE
  2
BYGG-023714$0$STANDARD
 70
     0
  3

  4

  5

  6

  7

 40
1.0
 41
0.18
 42
0.0625
 43
0.38
 44
0.18
 45
0.0
 46
0.0
 47
0.0
 48
0.0
140
0.18
141
0.09
142
0.0
143
25.399999999999999
144
1.0
145
0.0
146
1.0
147
0.09
 71
     0
 72
     0
 73
     1
 74
     1
 75
     0
 76
     0
 77
     0
 78
     0
170
     0
171
     2
172
     0
173
     0
174
     0
175
     0
176
     0
177
     0
178
     0
  0
DIMSTYLE
  2
BYGG-023714$0$MASKIN
 70
     0
  3

  4

  5

  6

  7

 40
0.0
 41
3.0
 42
1.5
 43
10.0
 44
1.5
 45
0.0
 46
0.0
 47
0.0
 48
0.0
140
3.0
141
-5.0
142
0.0
143
25.399999999999999
144
-1.0
145
0.0
146
1.0
147
1.0
 71
     0
 72
     0
 73
     0
 74
     0
 75
     0
 76
     0
 77
     1
 78
     8
170
     0
171
     0
172
     1
173
     0
174
     0
175
     0
176
   256
177
   256
178
     2
  0
DIMSTYLE
  2
BYGG-019338$0$STANDARD
 70
     0
  3

  4

  5

  6

  7

 40
1.0
 41
0.18
 42
0.0625
 43
0.38
 44
0.18
 45
0.0
 46
0.0
 47
0.0
 48
0.0
140
0.18
141
0.09
142
0.0
143
25.399999999999999
144
1.0
145
0.0
146
1.0
147
0.09
 71
     0
 72
     0
 73
     1
 74
     1
 75
     0
 76
     0
 77
     0
 78
     0
170
     0
171
     2
172
     0
173
     0
174
     0
175
     0
176
     0
177
     0
178
     0
  0
DIMSTYLE
  2
BYGG-019338$0$MASKIN
 70
     0
  3

  4

  5

  6

  7

 40
0.0
 41
3.0
 42
1.5
 43
10.0
 44
1.5
 45
0.0
 46
0.0
 47
0.0
 48
0.0
140
3.0
141
-5.0
142
0.0
143
25.399999999999999
144
-1.0
145
0.0
146
1.0
147
1.0
 71
     0
 72
     0
 73
     0
 74
     0
 75
     0
 76
     0
 77
     1
 78
     8
170
     0
171
     0
172
     1
173
     0
174
     0
175
     0
176
   256
177
   256
178
     2
  0
DIMSTYLE
  2
BYGG-023917$0$STANDARD
 70
     0
  3

  4

  5

  6

  7

 40
1.0
 41
0.18
 42
0.0625
 43
0.38
 44
0.18
 45
0.0
 46
0.0
 47
0.0
 48
0.0
140
0.18
141
0.09
142
0.0
143
25.399999999999999
144
1.0
145
0.0
146
1.0
147
0.09
 71
     0
 72
     0
 73
     1
 74
     1
 75
     0
 76
     0
 77
     0
 78
     0
170
     0
171
     2
172
     0
173
     0
174
     0
175
     0
176
     0
177
     0
178
     0
  0
DIMSTYLE
  2
BYGG-023917$0$MASKIN
 70
     0
  3

  4

  5

  6

  7

 40
0.0
 41
3.0
 42
1.5
 43
10.0
 44
1.5
 45
0.0
 46
0.0
 47
0.0
 48
0.0
140
3.0
141
-5.0
142
0.0
143
25.399999999999999
144
-1.0
145
0.0
146
1.0
147
1.0
 71
     0
 72
     0
 73
     0
 74
     0
 75
     0
 76
     0
 77
     1
 78
     8
170
     0
171
     0
172
     1
173
     0
174
     0
175
     0
176
   256
177
   256
178
     2
  0
DIMSTYLE
  2
BYGG-021582$0$MASKIN
 70
     0
  3

  4

  5

  6

  7

 40
0.0
 41
3.0
 42
1.5
 43
10.0
 44
1.5
 45
0.0
 46
0.0
 47
0.0
 48
0.0
140
3.0
141
-5.0
142
0.0
143
25.399999999999999
144
-1.0
145
0.0
146
1.0
147
1.0
 71
     0
 72
     0
 73
     0
 74
     0
 75
     0
 76
     0
 77
     1
 78
     8
170
     0
171
     0
172
     1
173
     0
174
     0
175
     0
176
   256
177
   256
178
   256
  0
DIMSTYLE
  2
BYGG-014279$0$STANDARD
 70
     0
  3

  4

  5

  6

  7

 40
1.0
 41
0.18
 42
0.0625
 43
0.38
 44
0.18
 45
0.0
 46
0.0
 47
0.0
 48
0.0
140
0.18
141
0.09
142
0.0
143
25.399999999999999
144
1.0
145
0.0
146
1.0
147
0.09
 71
     0
 72
     0
 73
     1
 74
     1
 75
     0
 76
     0
 77
     0
 78
     0
170
     0
171
     2
172
     0
173
     0
174
     0
175
     0
176
     0
177
     0
178
     0
  0
DIMSTYLE
  2
BYGG-014279$0$MASKIN
 70
     0
  3

  4

  5

  6

  7

 40
0.0
 41
3.0
 42
1.5
 43
10.0
 44
1.5
 45
0.0
 46
0.0
 47
0.0
 48
0.0
140
3.0
141
-5.0
142
0.0
143
25.399999999999999
144
-1.0
145
0.0
146
1.0
147
1.0
 71
     0
 72
     0
 73
     0
 74
     1
 75
     0
 76
     0
 77
     1
 78
     8
170
     0
171
     0
172
     1
173
     0
174
     0
175
     0
176
   256
177
   256
178
     2
  0
DIMSTYLE
  2
BYGG-033246$0$STANDARD
 70
     0
  3

  4

  5

  6

  7

 40
1.0
 41
0.18
 42
0.0625
 43
0.38
 44
0.18
 45
0.0
 46
0.0
 47
0.0
 48
0.0
140
0.18
141
0.09
142
0.0
143
25.399999999999999
144
1.0
145
0.0
146
1.0
147
0.09
 71
     0
 72
     0
 73
     1
 74
     1
 75
     0
 76
     0
 77
     0
 78
     0
170
     0
171
     2
172
     0
173
     0
174
     0
175
     0
176
     0
177
     0
178
     0
  0
DIMSTYLE
  2
BYGG-033246$0$MASKIN
 70
     0
  3

  4

  5

  6

  7

 40
0.0
 41
3.0
 42
1.5
 43
10.0
 44
1.5
 45
0.0
 46
0.0
 47
0.0
 48
0.0
140
3.0
141
-5.0
142
0.0
143
25.399999999999999
144
-1.0
145
0.0
146
1.0
147
1.0
 71
     0
 72
     0
 73
     0
 74
     0
 75
     0
 76
     0
 77
     1
 78
     8
170
     0
171
     0
172
     1
173
     0
174
     0
175
     0
176
   256
177
   256
178
     2
  0
DIMSTYLE
  2
BYGG-024943$0$STANDARD
 70
     0
  3

  4

  5

  6

  7

 40
1.0
 41
0.18
 42
0.0625
 43
0.38
 44
0.18
 45
0.0
 46
0.0
 47
0.0
 48
0.0
140
0.18
141
0.09
142
0.0
143
25.399999999999999
144
1.0
145
0.0
146
1.0
147
0.09
 71
     0
 72
     0
 73
     1
 74
     1
 75
     0
 76
     0
 77
     0
 78
     0
170
     0
171
     2
172
     0
173
     0
174
     0
175
     0
176
     0
177
     0
178
     0
  0
DIMSTYLE
  2
BYGG-024943$0$MASKIN
 70
     0
  3

  4

  5

  6

  7

 40
0.0
 41
3.0
 42
1.5
 43
10.0
 44
1.5
 45
0.0
 46
0.0
 47
0.0
 48
0.0
140
3.0
141
-5.0
142
0.0
143
25.399999999999999
144
-1.0
145
0.0
146
1.0
147
1.0
 71
     0
 72
     0
 73
     0
 74
     0
 75
     0
 76
     0
 77
     1
 78
     8
170
     0
171
     0
172
     1
173
     0
174
     0
175
     0
176
   256
177
   256
178
     2
  0
DIMSTYLE
  2
BYGG-020132$0$MASKIN
 70
     0
  3

  4

  5

  6

  7

 40
0.0
 41
3.0
 42
1.5
 43
10.0
 44
1.5
 45
0.0
 46
0.0
 47
0.0
 48
0.0
140
3.0
141
-5.0
142
0.0
143
25.399999999999999
144
-1.0
145
0.0
146
1.0
147
1.0
 71
     0
 72
     0
 73
     0
 74
     0
 75
     0
 76
     0
 77
     1
 78
     8
170
     0
171
     0
172
     1
173
     0
174
     0
175
     0
176
   256
177
   256
178
     2
  0
DIMSTYLE
  2
BYGG-020132$0$STANDARD
 70
     0
  3

  4

  5

  6

  7

 40
1.0
 41
0.18
 42
0.0625
 43
0.38
 44
0.18
 45
0.0
 46
0.0
 47
0.0
 48
0.0
140
0.18
141
0.09
142
0.0
143
25.399999999999999
144
1.0
145
0.0
146
1.0
147
0.09
 71
     0
 72
     0
 73
     1
 74
     1
 75
     0
 76
     0
 77
     0
 78
     0
170
     0
171
     2
172
     0
173
     0
174
     0
175
     0
176
     0
177
     0
178
     0
  0
DIMSTYLE
  2
BYGG-028980$0$STANDARD
 70
     0
  3

  4

  5

  6

  7

 40
1.0
 41
0.18
 42
0.0625
 43
0.38
 44
0.18
 45
0.0
 46
0.0
 47
0.0
 48
0.0
140
0.18
141
0.09
142
0.0
143
25.399999999999999
144
1.0
145
0.0
146
1.0
147
0.09
 71
     0
 72
     0
 73
     1
 74
     1
 75
     0
 76
     0
 77
     0
 78
     0
170
     0
171
     2
172
     0
173
     0
174
     0
175
     0
176
     0
177
     0
178
     0
  0
DIMSTYLE
  2
BYGG-028980$0$MASKIN
 70
     0
  3

  4

  5

  6

  7

 40
0.0
 41
3.0
 42
1.5
 43
10.0
 44
1.5
 45
0.0
 46
0.0
 47
0.0
 48
0.0
140
3.0
141
-5.0
142
0.0
143
25.399999999999999
144
-1.0
145
0.0
146
1.0
147
1.0
 71
     0
 72
     0
 73
     0
 74
     0
 75
     0
 76
     0
 77
     1
 78
     8
170
     0
171
     0
172
     1
173
     0
174
     0
175
     0
176
   256
177
   256
178
     2
  0
DIMSTYLE
  2
BYGG-020805$0$STANDARD
 70
     0
  3

  4

  5

  6

  7

 40
1.0
 41
0.18
 42
0.0625
 43
0.38
 44
0.18
 45
0.0
 46
0.0
 47
0.0
 48
0.0
140
0.18
141
0.09
142
0.0
143
25.399999999999999
144
1.0
145
0.0
146
1.0
147
0.09
 71
     0
 72
     0
 73
     1
 74
     1
 75
     0
 76
     0
 77
     0
 78
     0
170
     0
171
     2
172
     0
173
     0
174
     0
175
     0
176
     0
177
     0
178
     0
  0
DIMSTYLE
  2
BYGG-020805$0$MASKIN
 70
     0
  3

  4

  5

  6

  7

 40
0.0
 41
3.0
 42
1.5
 43
10.0
 44
1.5
 45
0.0
 46
0.0
 47
0.0
 48
0.0
140
3.0
141
-5.0
142
0.0
143
25.399999999999999
144
-1.0
145
0.0
146
1.0
147
1.0
 71
     0
 72
     0
 73
     0
 74
     0
 75
     0
 76
     0
 77
     1
 78
     8
170
     0
171
     0
172
     1
173
     0
174
     0
175
     0
176
   256
177
   256
178
     2
  0
DIMSTYLE
  2
BYGG-026410$0$STANDARD
 70
     0
  3

  4

  5

  6

  7

 40
1.0
 41
0.18
 42
0.0625
 43
0.38
 44
0.18
 45
0.0
 46
0.0
 47
0.0
 48
0.0
140
0.18
141
0.09
142
0.0
143
25.399999999999999
144
1.0
145
0.0
146
1.0
147
0.09
 71
     0
 72
     0
 73
     1
 74
     1
 75
     0
 76
     0
 77
     0
 78
     0
170
     0
171
     2
172
     0
173
     0
174
     0
175
     0
176
     0
177
     0
178
     0
  0
DIMSTYLE
  2
BYGG-026410$0$MASKIN
 70
     0
  3

  4

  5

  6

  7

 40
0.0
 41
3.0
 42
1.5
 43
10.0
 44
1.5
 45
0.0
 46
0.0
 47
0.0
 48
0.0
140
3.0
141
-5.0
142
0.0
143
25.399999999999999
144
-1.0
145
0.0
146
1.0
147
1.0
 71
     0
 72
     0
 73
     0
 74
     0
 75
     0
 76
     0
 77
     1
 78
     8
170
     0
171
     0
172
     1
173
     0
174
     0
175
     0
176
   256
177
   256
178
     2
  0
DIMSTYLE
  2
BYGG-033169$0$STANDARD
 70
     0
  3

  4

  5

  6

  7

 40
1.0
 41
0.18
 42
0.0625
 43
0.38
 44
0.18
 45
0.0
 46
0.0
 47
0.0
 48
0.0
140
0.18
141
0.09
142
0.0
143
25.399999999999999
144
1.0
145
0.0
146
1.0
147
0.09
 71
     0
 72
     0
 73
     1
 74
     1
 75
     0
 76
     0
 77
     0
 78
     0
170
     0
171
     2
172
     0
173
     0
174
     0
175
     0
176
     0
177
     0
178
     0
  0
DIMSTYLE
  2
BYGG-033169$0$MASKIN
 70
     0
  3

  4

  5

  6

  7

 40
0.0
 41
3.0
 42
1.5
 43
10.0
 44
1.5
 45
0.0
 46
0.0
 47
0.0
 48
0.0
140
3.0
141
-5.0
142
0.0
143
25.399999999999999
144
-1.0
145
0.0
146
1.0
147
1.0
 71
     0
 72
     0
 73
     0
 74
     0
 75
     0
 76
     0
 77
     1
 78
     8
170
     0
171
     0
172
     1
173
     0
174
     0
175
     0
176
   256
177
   256
178
     2
  0
DIMSTYLE
  2
BYGG-030185$0$STANDARD
 70
     0
  3

  4

  5

  6

  7

 40
1.0
 41
0.18
 42
0.0625
 43
0.38
 44
0.18
 45
0.0
 46
0.0
 47
0.0
 48
0.0
140
0.18
141
0.09
142
0.0
143
25.399999999999999
144
1.0
145
0.0
146
1.0
147
0.09
 71
     0
 72
     0
 73
     1
 74
     1
 75
     0
 76
     0
 77
     0
 78
     0
170
     0
171
     2
172
     0
173
     0
174
     0
175
     0
176
     0
177
     0
178
     0
  0
DIMSTYLE
  2
BYGG-030185$0$MASKIN
 70
     0
  3

  4

  5

  6

  7

 40
0.0
 41
3.0
 42
1.5
 43
10.0
 44
1.5
 45
0.0
 46
0.0
 47
0.0
 48
0.0
140
3.0
141
-5.0
142
0.0
143
25.399999999999999
144
-1.0
145
0.0
146
1.0
147
1.0
 71
     0
 72
     0
 73
     0
 74
     1
 75
     0
 76
     0
 77
     1
 78
     8
170
     0
171
     0
172
     1
173
     0
174
     0
175
     0
176
   256
177
   256
178
     2
  0
DIMSTYLE
  2
BYGG-024798$0$MASKIN
 70
     0
  3

  4

  5

  6

  7

 40
0.0
 41
3.0
 42
1.5
 43
10.0
 44
1.5
 45
0.0
 46
0.0
 47
0.0
 48
0.0
140
3.0
141
-5.0
142
0.0
143
25.399999999999999
144
-1.0
145
0.0
146
1.0
147
1.0
 71
     0
 72
     0
 73
     0
 74
     0
 75
     0
 76
     0
 77
     1
 78
     8
170
     0
171
     0
172
     1
173
     0
174
     0
175
     0
176
   256
177
   256
178
     2
  0
DIMSTYLE
  2
BYGG-024798$0$STANDARD
 70
     0
  3

  4

  5

  6

  7

 40
1.0
 41
0.18
 42
0.0625
 43
0.38
 44
0.18
 45
0.0
 46
0.0
 47
0.0
 48
0.0
140
0.18
141
0.09
142
0.0
143
25.399999999999999
144
1.0
145
0.0
146
1.0
147
0.09
 71
     0
 72
     0
 73
     1
 74
     1
 75
     0
 76
     0
 77
     0
 78
     0
170
     0
171
     2
172
     0
173
     0
174
     0
175
     0
176
     0
177
     0
178
     0
  0
DIMSTYLE
  2
BYGG-024799$0$MASKIN
 70
     0
  3

  4

  5

  6

  7

 40
0.0
 41
3.0
 42
1.5
 43
10.0
 44
1.5
 45
0.0
 46
0.0
 47
0.0
 48
0.0
140
3.0
141
-5.0
142
0.0
143
25.399999999999999
144
-1.0
145
0.0
146
1.0
147
1.0
 71
     0
 72
     0
 73
     0
 74
     0
 75
     0
 76
     0
 77
     1
 78
     8
170
     0
171
     0
172
     1
173
     0
174
     0
175
     0
176
   256
177
   256
178
     2
  0
DIMSTYLE
  2
BYGG-024799$0$STANDARD
 70
     0
  3

  4

  5

  6

  7

 40
1.0
 41
0.18
 42
0.0625
 43
0.38
 44
0.18
 45
0.0
 46
0.0
 47
0.0
 48
0.0
140
0.18
141
0.09
142
0.0
143
25.399999999999999
144
1.0
145
0.0
146
1.0
147
0.09
 71
     0
 72
     0
 73
     1
 74
     1
 75
     0
 76
     0
 77
     0
 78
     0
170
     0
171
     2
172
     0
173
     0
174
     0
175
     0
176
     0
177
     0
178
     0
  0
DIMSTYLE
  2
BYGG-014089$0$STANDARD
 70
     0
  3

  4

  5

  6

  7

 40
1.0
 41
0.18
 42
0.0625
 43
0.38
 44
0.18
 45
0.0
 46
0.0
 47
0.0
 48
0.0
140
0.18
141
0.09
142
0.0
143
25.399999999999999
144
1.0
145
0.0
146
1.0
147
0.09
 71
     0
 72
     0
 73
     1
 74
     1
 75
     0
 76
     0
 77
     0
 78
     0
170
     0
171
     2
172
     0
173
     0
174
     0
175
     0
176
     0
177
     0
178
     0
  0
DIMSTYLE
  2
BYGG-014108$0$STANDARD
 70
     0
  3

  4

  5

  6

  7

 40
1.0
 41
0.18
 42
0.0625
 43
0.38
 44
0.18
 45
0.0
 46
0.0
 47
0.0
 48
0.0
140
0.18
141
0.09
142
0.0
143
25.399999999999999
144
1.0
145
0.0
146
1.0
147
0.09
 71
     0
 72
     0
 73
     1
 74
     1
 75
     0
 76
     0
 77
     0
 78
     0
170
     0
171
     2
172
     0
173
     0
174
     0
175
     0
176
     0
177
     0
178
     0
  0
DIMSTYLE
  2
BYGG-019611$0$STANDARD
 70
     0
  3

  4

  5

  6

  7

 40
1.0
 41
0.18
 42
0.0625
 43
0.38
 44
0.18
 45
0.0
 46
0.0
 47
0.0
 48
0.0
140
0.18
141
0.09
142
0.0
143
25.399999999999999
144
1.0
145
0.0
146
1.0
147
0.09
 71
     0
 72
     0
 73
     1
 74
     1
 75
     0
 76
     0
 77
     0
 78
     0
170
     0
171
     2
172
     0
173
     0
174
     0
175
     0
176
     0
177
     0
178
     0
  0
DIMSTYLE
  2
BYGG-019611$0$MASKIN
 70
     0
  3

  4

  5

  6

  7

 40
0.0
 41
3.0
 42
1.5
 43
10.0
 44
1.5
 45
0.0
 46
0.0
 47
0.0
 48
0.0
140
3.0
141
-5.0
142
0.0
143
25.399999999999999
144
-1.0
145
0.0
146
1.0
147
1.0
 71
     0
 72
     0
 73
     0
 74
     0
 75
     0
 76
     0
 77
     1
 78
     8
170
     0
171
     0
172
     1
173
     0
174
     0
175
     0
176
   256
177
   256
178
     2
  0
DIMSTYLE
  2
BYGG-025652$0$STANDARD
 70
     0
  3

  4

  5

  6

  7

 40
1.0
 41
0.18
 42
0.0625
 43
0.38
 44
0.18
 45
0.0
 46
0.0
 47
0.0
 48
0.0
140
0.18
141
0.09
142
0.0
143
25.399999999999999
144
1.0
145
0.0
146
1.0
147
0.09
 71
     0
 72
     0
 73
     1
 74
     1
 75
     0
 76
     0
 77
     0
 78
     0
170
     0
171
     2
172
     0
173
     0
174
     0
175
     0
176
     0
177
     0
178
     0
  0
DIMSTYLE
  2
BYGG-025652$0$MASKIN
 70
     0
  3

  4

  5

  6

  7

 40
0.0
 41
3.0
 42
1.5
 43
10.0
 44
1.5
 45
0.0
 46
0.0
 47
0.0
 48
0.0
140
3.0
141
-5.0
142
0.0
143
25.399999999999999
144
-1.0
145
0.0
146
1.0
147
1.0
 71
     0
 72
     0
 73
     0
 74
     0
 75
     0
 76
     0
 77
     1
 78
     8
170
     0
171
     0
172
     1
173
     0
174
     0
175
     0
176
   256
177
   256
178
     2
  0
DIMSTYLE
  2
BYGG-014411$0$MASKIN
 70
     0
  3

  4

  5

  6

  7

 40
0.0
 41
3.0
 42
1.5
 43
10.0
 44
1.5
 45
0.0
 46
0.0
 47
0.0
 48
0.0
140
3.0
141
-5.0
142
0.0
143
25.399999999999999
144
-1.0
145
0.0
146
1.0
147
1.0
 71
     0
 72
     0
 73
     0
 74
     0
 75
     0
 76
     0
 77
     1
 78
     8
170
     0
171
     0
172
     1
173
     0
174
     0
175
     0
176
   256
177
   256
178
   256
  0
DIMSTYLE
  2
BYGG-014411$0$STANDARD
 70
     0
  3

  4

  5

  6

  7

 40
1.0
 41
0.18
 42
0.0625
 43
0.38
 44
0.18
 45
0.0
 46
0.0
 47
0.0
 48
0.0
140
0.18
141
0.09
142
0.0
143
25.399999999999999
144
1.0
145
0.0
146
1.0
147
0.09
 71
     0
 72
     0
 73
     1
 74
     1
 75
     0
 76
     0
 77
     0
 78
     0
170
     0
171
     2
172
     0
173
     0
174
     0
175
     0
176
     0
177
     0
178
     0
  0
ENDTAB
  0
ENDSEC
  0
SECTION
  2
BLOCKS
  0
BLOCK
  8
0
  2
$MODEL_SPACE
 70
     0
 10
0.0
 20
0.0
 30
0.0
  3
$MODEL_SPACE
  1

  0
ENDBLK
  5
37
  8
0
  0
BLOCK
 67
     1
  8
0
  2
$PAPER_SPACE
 70
     0
 10
0.0
 20
0.0
 30
0.0
  3
$PAPER_SPACE
  1

  0
ENDBLK
  5
35
 67
     1
  8
0
  0
BLOCK
  8
0
  2
*D81
 70
     1
 10
0.0
 20
0.0
 30
0.0
  3
*D81
  1

  0
LINE
  5
14E7
  8
SAPA_MATT
 10
-25.000000000000909
 20
-115.4999999990105
 30
0.0
 11
-25.000000000000909
 21
-135.99999999901041
 31
0.0
  0
LINE
  5
14E8
  8
SAPA_MATT
 10
24.999999999999091
 20
-115.4999999990105
 30
0.0
 11
24.999999999999091
 21
-135.99999999901041
 31
0.0
  0
LINE
  5
14E9
  8
SAPA_MATT
 10
-22.000000000000909
 20
-134.49999999901041
 30
0.0
 11
21.999999999999091
 21
-134.49999999901041
 31
0.0
  0
SOLID
  5
14EA
  8
SAPA_MATT
 10
-22.000000000000909
 20
-133.99999999901041
 30
0.0
 11
-22.000000000000909
 21
-134.99999999901041
 31
0.0
 12
-25.000000000000909
 22
-134.49999999901041
 32
0.0
 13
-25.000000000000909
 23
-134.49999999901041
 33
0.0
  0
SOLID
  5
14EB
  8
SAPA_MATT
 10
21.999999999999091
 20
-133.99999999901041
 30
0.0
 11
21.999999999999091
 21
-134.99999999901041
 31
0.0
 12
24.999999999999091
 22
-134.49999999901041
 32
0.0
 13
24.999999999999091
 23
-134.49999999901041
 33
0.0
  0
INSERT
  5
14EC
  8
0
  2
*U98
 10
0.0
 20
0.0
 30
0.0
  0
POINT
  5
14ED
  8
DEFPOINTS
 62
     0
 10
-25.000000000000909
 20
-113.9999999990104
 30
0.0
  0
POINT
  5
14EE
  8
DEFPOINTS
 62
     0
 10
24.999999999999091
 20
-113.9999999990104
 30
0.0
  0
POINT
  5
14EF
  8
DEFPOINTS
 62
     0
 10
24.999999999999091
 20
-134.49999999901041
 30
0.0
  0
ENDBLK
  5
149A
  8
0
  0
BLOCK
  8
0
  2
*D82
 70
     1
 10
0.0
 20
0.0
 30
0.0
  3
*D82
  1

  0
LINE
  5
14DE
  8
SAPA_MATT
 10
82.999999999844533
 20
-91.498715170683127
 30
0.0
 11
82.999999999844533
 21
-135.99999999901041
 31
0.0
  0
LINE
  5
14DF
  8
SAPA_MATT
 10
24.999999999999091
 20
-115.4999999990105
 30
0.0
 11
24.999999999999091
 21
-135.99999999901041
 31
0.0
  0
LINE
  5
14E0
  8
SAPA_MATT
 10
79.999999999844533
 20
-134.49999999901041
 30
0.0
 11
27.999999999999091
 21
-134.49999999901041
 31
0.0
  0
SOLID
  5
14E1
  8
SAPA_MATT
 10
79.999999999844533
 20
-133.99999999901041
 30
0.0
 11
79.999999999844533
 21
-134.99999999901041
 31
0.0
 12
82.999999999844533
 22
-134.49999999901041
 32
0.0
 13
82.999999999844533
 23
-134.49999999901041
 33
0.0
  0
SOLID
  5
14E2
  8
SAPA_MATT
 10
27.999999999999091
 20
-133.99999999901041
 30
0.0
 11
27.999999999999091
 21
-134.99999999901041
 31
0.0
 12
24.999999999999091
 22
-134.49999999901041
 32
0.0
 13
24.999999999999091
 23
-134.49999999901041
 33
0.0
  0
INSERT
  5
14E3
  8
0
  2
*U97
 10
0.0
 20
0.0
 30
0.0
  0
POINT
  5
14E4
  8
DEFPOINTS
 62
     0
 10
82.999999999844533
 20
-89.998715170683127
 30
0.0
  0
POINT
  5
14E5
  8
DEFPOINTS
 62
     0
 10
24.999999999999091
 20
-113.9999999990104
 30
0.0
  0
POINT
  5
14E6
  8
DEFPOINTS
 62
     0
 10
24.999999999999091
 20
-134.49999999901041
 30
0.0
  0
ENDBLK
  5
14A6
  8
0
  0
BLOCK
  8
0
  2
*D83
 70
     1
 10
0.0
 20
0.0
 30
0.0
  3
*D83
  1

  0
LINE
  5
14D3
  8
SAPA_MATT
 10
82.999999999844533
 20
-91.498715170683127
 30
0.0
 11
82.999999999844533
 21
-135.99999999901041
 31
0.0
  0
LINE
  5
14D4
  8
SAPA_MATT
 10
87.999999702079407
 20
-91.498715301570073
 30
0.0
 11
87.999999702079407
 21
-135.99999999901041
 31
0.0
  0
LINE
  5
14D5
  8
SAPA_MATT
 10
79.999999999844533
 20
-134.49999999901041
 30
0.0
 11
76.999999999844533
 21
-134.49999999901041
 31
0.0
  0
LINE
  5
14D6
  8
SAPA_MATT
 10
90.999999702079407
 20
-134.49999999901041
 30
0.0
 11
93.999999702079407
 21
-134.49999999901041
 31
0.0
  0
LINE
  5
14D7
  8
SAPA_MATT
 10
82.999999999844533
 20
-134.49999999901041
 30
0.0
 11
87.999999702079407
 21
-134.49999999901041
 31
0.0
  0
SOLID
  5
14D8
  8
SAPA_MATT
 10
79.999999999844533
 20
-133.99999999901041
 30
0.0
 11
79.999999999844533
 21
-134.99999999901041
 31
0.0
 12
82.999999999844533
 22
-134.49999999901041
 32
0.0
 13
82.999999999844533
 23
-134.49999999901041
 33
0.0
  0
SOLID
  5
14D9
  8
SAPA_MATT
 10
90.999999702079407
 20
-133.99999999901041
 30
0.0
 11
90.999999702079407
 21
-134.99999999901041
 31
0.0
 12
87.999999702079407
 22
-134.49999999901041
 32
0.0
 13
87.999999702079407
 23
-134.49999999901041
 33
0.0
  0
INSERT
  5
14DA
  8
0
  2
*U96
 10
0.0
 20
0.0
 30
0.0
  0
POINT
  5
14DB
  8
DEFPOINTS
 62
     0
 10
82.999999999844533
 20
-89.998715170683127
 30
0.0
  0
POINT
  5
14DC
  8
DEFPOINTS
 62
     0
 10
87.999999702079407
 20
-89.998715301570059
 30
0.0
  0
POINT
  5
14DD
  8
DEFPOINTS
 62
     0
 10
87.999999702079407
 20
-134.49999999901041
 30
0.0
  0
ENDBLK
  5
14B2
  8
0
  0
BLOCK
  8
0
  2
*D84
 70
     1
 10
0.0
 20
0.0
 30
0.0
  3
*D84
  1

  0
LINE
  5
14CA
  8
SAPA_MATT
 10
87.999999702079407
 20
-90.998715301570087
 30
0.0
 11
87.999999702079407
 21
-135.99999999901041
 31
0.0
  0
LINE
  5
14CB
  8
SAPA_MATT
 10
125.49999970207941
 20
-89.000000006768289
 30
0.0
 11
125.49999970207941
 21
-135.99999999901041
 31
0.0
  0
LINE
  5
14CC
  8
SAPA_MATT
 10
90.999999702079407
 20
-134.49999999901041
 30
0.0
 11
122.49999970207941
 21
-134.49999999901041
 31
0.0
  0
SOLID
  5
14CD
  8
SAPA_MATT
 10
90.999999702079407
 20
-133.99999999901041
 30
0.0
 11
90.999999702079407
 21
-134.99999999901041
 31
0.0
 12
87.999999702079407
 22
-134.49999999901041
 32
0.0
 13
87.999999702079407
 23
-134.49999999901041
 33
0.0
  0
SOLID
  5
14CE
  8
SAPA_MATT
 10
122.49999970207941
 20
-133.99999999901041
 30
0.0
 11
122.49999970207941
 21
-134.99999999901041
 31
0.0
 12
125.49999970207941
 22
-134.49999999901041
 32
0.0
 13
125.49999970207941
 23
-134.49999999901041
 33
0.0
  0
INSERT
  5
14CF
  8
0
  2
*U95
 10
0.0
 20
0.0
 30
0.0
  0
POINT
  5
14D0
  8
DEFPOINTS
 62
     0
 10
87.999999702079407
 20
-89.498715301570073
 30
0.0
  0
POINT
  5
14D1
  8
DEFPOINTS
 62
     0
 10
125.49999970207941
 20
-87.500000006768289
 30
0.0
  0
POINT
  5
14D2
  8
DEFPOINTS
 62
     0
 10
125.49999970207941
 20
-134.49999999901041
 30
0.0
  0
ENDBLK
  5
14C0
  8
0
  0
BLOCK
  8
0
  2
*U85
 70
     1
 10
0.0
 20
0.0
 30
0.0
  3
*U85
  1

  0
TEXT
  5
155A
  8
SAPA_ARTIKELNR
 10
-6.4303857324235638
 20
66.451161059970673
 30
0.0
 40
3.5
  1
68654
  7
ISO
  0
ENDBLK
  5
155C
  8
0
  0
BLOCK
  8
0
  2
*U86
 70
     1
 10
0.0
 20
0.0
 30
0.0
  3
*U86
  1

  0
TEXT
  5
155E
  8
SAPA_ARTIKELNR
 10
-6.4303857324235638
 20
-103.9796957953224
 30
0.0
 40
3.5
  1
42848
  7
ISO
  0
ENDBLK
  5
1560
  8
0
  0
BLOCK
  8
0
  2
*U87
 70
     1
 10
0.0
 20
0.0
 30
0.0
  3
*U87
  1

  0
TEXT
  5
1562
  8
SAPA_ARTIKELNR
 10
-6.4303857324235638
 20
-119.65976634969449
 30
0.0
 40
3.5
  1
42227
  7
ISO
  0
ENDBLK
  5
1564
  8
0
  0
BLOCK
  8
0
  2
*U88
 70
     1
 10
0.0
 20
0.0
 30
0.0
  3
*U88
  1

  0
TEXT
  5
1566
  8
SAPA_ARTIKELNR
 10
31.718109852082449
 20
-2.5684306489659998
 30
0.0
 40
3.5
  1
86201
  7
ISO
  0
ENDBLK
  5
1568
  8
0
  0
BLOCK
  8
0
  2
*U89
 70
     1
 10
0.0
 20
0.0
 30
0.0
  3
*U89
  1

  0
TEXT
  5
156A
  8
SAPA_ARTIKELNR
 10
67.661931768525989
 20
7.1845537462843359
 30
0.0
 40
3.5
  1
86302
  7
ISO
  0
ENDBLK
  5
156C
  8
0
  0
BLOCK
  8
0
  2
*U90
 70
     1
 10
0.0
 20
0.0
 30
0.0
  3
*U90
  1

  0
TEXT
  5
156E
  8
SAPA_ARTIKELNR
 10
103.2179211700351
 20
-4.375293113251927
 30
0.0
 40
3.5
  1
42726
  7
ISO
  0
ENDBLK
  5
1570
  8
0
  0
BLOCK
  8
0
  2
*U91
 70
     1
 10
0.0
 20
0.0
 30
0.0
  3
*U91
  1

  0
SOLID
  5
2364
  8
SAPA_FOGBAND
  6
CONTINUOUS
 10
18.614660706571041
 20
-92.382617247040926
 30
0.0
 11
18.434383142797842
 21
-92.457290658947372
 31
0.0
 12
18.79493827034424
 22
-92.457290658947372
 32
0.0
 13
18.79493827034424
 23
-92.457290658947372
 33
0.0
210
0.0
220
0.0
230
1.0
  0
SOLID
  5
2365
  8
SAPA_FOGBAND
  6
CONTINUOUS
 10
18.434383142797842
 20
-92.457290658947372
 30
0.0
 11
18.359709730891399
 21
-92.637568222720574
 31
0.0
 12
18.869611682250682
 22
-92.637568222720574
 32
0.0
 13
18.869611682250682
 23
-92.637568222720574
 33
0.0
210
0.0
220
0.0
230
1.0
  0
SOLID
  5
2366
  8
SAPA_FOGBAND
  6
CONTINUOUS
 10
-18.434383142797842
 20
-92.457290658947372
 30
0.0
 11
-18.79493827034424
 21
-92.457290658947372
 31
0.0
 12
-18.869611682250682
 22
-92.637568222720574
 32
0.0
 13
-18.869611682250682
 23
-92.637568222720574
 33
0.0
210
0.0
220
0.0
230
-1.0
  0
SOLID
  5
2367
  8
SAPA_FOGBAND
  6
CONTINUOUS
 10
-18.434383142797842
 20
-92.817845786493777
 30
0.0
 11
-18.79493827034424
 21
-92.817845786493777
 31
0.0
 12
-18.614660706571041
 22
-92.892519198400208
 32
0.0
 13
-18.614660706571041
 23
-92.892519198400208
 33
0.0
210
0.0
220
0.0
230
-1.0
  0
SOLID
  5
2368
  8
SAPA_FOGBAND
  6
CONTINUOUS
 10
18.359709730891399
 20
-92.637568222720574
 30
0.0
 11
18.434383142797842
 21
-92.817845786493777
 31
0.0
 12
18.79493827034424
 22
-92.817845786493777
 32
0.0
 13
18.79493827034424
 23
-92.817845786493777
 33
0.0
210
0.0
220
0.0
230
1.0
  0
SOLID
  5
2369
  8
SAPA_FOGBAND
  6
CONTINUOUS
 10
-18.359709730891399
 20
-92.637568222720574
 30
0.0
 11
-18.869611682250682
 21
-92.637568222720574
 31
0.0
 12
-18.79493827034424
 22
-92.817845786493777
 32
0.0
 13
-18.79493827034424
 23
-92.817845786493777
 33
0.0
210
0.0
220
0.0
230
-1.0
  0
LINE
  5
236A
  8
SAPA_FOGBAND
  6
CONTINUOUS
 10
18.614660706571041
 20
-92.382617247040926
 30
0.0
 11
18.434383142797842
 21
-92.457290658947372
 31
0.0
  0
LINE
  5
236B
  8
SAPA_FOGBAND
  6
CONTINUOUS
 10
18.79493827034424
 20
-92.457290658947372
 30
0.0
 11
18.614660706571041
 21
-92.382617247040926
 31
0.0
  0
LINE
  5
236C
  8
SAPA_FOGBAND
  6
CONTINUOUS
 10
18.434383142797842
 20
-92.457290658947372
 30
0.0
 11
18.359709730891399
 21
-92.637568222720574
 31
0.0
  0
LINE
  5
236D
  8
SAPA_FOGBAND
  6
CONTINUOUS
 10
18.79493827034424
 20
-92.457290658947372
 30
0.0
 11
18.869611682250682
 21
-92.637568222720574
 31
0.0
  0
LINE
  5
236E
  8
SAPA_FOGBAND
  6
CONTINUOUS
 10
18.79493827034424
 20
-92.817845786493777
 30
0.0
 11
18.614660706571041
 21
-92.892519198400208
 31
0.0
  0
LINE
  5
236F
  8
SAPA_FOGBAND
  6
CONTINUOUS
 10
18.614660706571041
 20
-92.892519198400208
 30
0.0
 11
18.434383142797842
 21
-92.817845786493777
 31
0.0
  0
LINE
  5
2370
  8
SAPA_FOGBAND
  6
CONTINUOUS
 10
18.359709730891399
 20
-92.637568222720574
 30
0.0
 11
18.434383142797842
 21
-92.817845786493777
 31
0.0
  0
LINE
  5
2371
  8
SAPA_FOGBAND
  6
CONTINUOUS
 10
18.869611682250682
 20
-92.637568222720574
 30
0.0
 11
18.79493827034424
 21
-92.817845786493777
 31
0.0
  0
ENDBLK
  5
2373
  8
0
  0
BLOCK
  8
0
  2
*U92
 70
     1
 10
0.0
 20
0.0
 30
0.0
  3
*U92
  1

  0
SOLID
  5
241C
  8
SAPA_FOGBAND
  6
CONTINUOUS
 10
-18.629356795614282
 20
-92.773515879680275
 30
0.0
 11
-18.809634359387481
 21
-92.848189291586706
 31
0.0
 12
-18.449079231841079
 22
-92.848189291586706
 32
0.0
 13
-18.449079231841079
 23
-92.848189291586706
 33
0.0
210
0.0
220
0.0
230
1.0
  0
SOLID
  5
241D
  8
SAPA_FOGBAND
  6
CONTINUOUS
 10
-18.809634359387481
 20
-92.848189291586706
 30
0.0
 11
-18.884307771293919
 21
-93.028466855359909
 31
0.0
 12
-18.374405819934641
 22
-93.028466855359909
 32
0.0
 13
-18.374405819934641
 23
-93.028466855359909
 33
0.0
210
0.0
220
0.0
230
1.0
  0
SOLID
  5
241E
  8
SAPA_FOGBAND
  6
CONTINUOUS
 10
18.809634359387481
 20
-92.848189291586706
 30
0.0
 11
18.449079231841079
 21
-92.848189291586706
 31
0.0
 12
18.374405819934641
 22
-93.028466855359909
 32
0.0
 13
18.374405819934641
 23
-93.028466855359909
 33
0.0
210
0.0
220
0.0
230
-1.0
  0
SOLID
  5
241F
  8
SAPA_FOGBAND
  6
CONTINUOUS
 10
18.809634359387481
 20
-93.208744419133112
 30
0.0
 11
18.449079231841079
 21
-93.208744419133112
 31
0.0
 12
18.629356795614282
 22
-93.283417831039543
 32
0.0
 13
18.629356795614282
 23
-93.283417831039543
 33
0.0
210
0.0
220
0.0
230
-1.0
  0
SOLID
  5
2420
  8
SAPA_FOGBAND
  6
CONTINUOUS
 10
-18.884307771293919
 20
-93.028466855359909
 30
0.0
 11
-18.809634359387481
 21
-93.208744419133112
 31
0.0
 12
-18.449079231841079
 22
-93.208744419133112
 32
0.0
 13
-18.449079231841079
 23
-93.208744419133112
 33
0.0
210
0.0
220
0.0
230
1.0
  0
SOLID
  5
2421
  8
SAPA_FOGBAND
  6
CONTINUOUS
 10
18.884307771293919
 20
-93.028466855359909
 30
0.0
 11
18.374405819934641
 21
-93.028466855359909
 31
0.0
 12
18.449079231841079
 22
-93.208744419133112
 32
0.0
 13
18.449079231841079
 23
-93.208744419133112
 33
0.0
210
0.0
220
0.0
230
-1.0
  0
LINE
  5
2422
  8
SAPA_FOGBAND
  6
CONTINUOUS
 10
-18.629356795614282
 20
-92.773515879680275
 30
0.0
 11
-18.809634359387481
 21
-92.848189291586706
 31
0.0
  0
LINE
  5
2423
  8
SAPA_FOGBAND
  6
CONTINUOUS
 10
-18.449079231841079
 20
-92.848189291586706
 30
0.0
 11
-18.629356795614282
 21
-92.773515879680275
 31
0.0
  0
LINE
  5
2424
  8
SAPA_FOGBAND
  6
CONTINUOUS
 10
-18.809634359387481
 20
-92.848189291586706
 30
0.0
 11
-18.884307771293919
 21
-93.028466855359909
 31
0.0
  0
LINE
  5
2425
  8
SAPA_FOGBAND
  6
CONTINUOUS
 10
-18.449079231841079
 20
-92.848189291586706
 30
0.0
 11
-18.374405819934641
 21
-93.028466855359909
 31
0.0
  0
LINE
  5
2426
  8
SAPA_FOGBAND
  6
CONTINUOUS
 10
-18.449079231841079
 20
-93.208744419133112
 30
0.0
 11
-18.629356795614282
 21
-93.283417831039543
 31
0.0
  0
LINE
  5
2427
  8
SAPA_FOGBAND
  6
CONTINUOUS
 10
-18.629356795614282
 20
-93.283417831039543
 30
0.0
 11
-18.809634359387481
 21
-93.208744419133112
 31
0.0
  0
LINE
  5
2428
  8
SAPA_FOGBAND
  6
CONTINUOUS
 10
-18.884307771293919
 20
-93.028466855359909
 30
0.0
 11
-18.809634359387481
 21
-93.208744419133112
 31
0.0
  0
LINE
  5
2429
  8
SAPA_FOGBAND
  6
CONTINUOUS
 10
-18.374405819934641
 20
-93.028466855359909
 30
0.0
 11
-18.449079231841079
 21
-93.208744419133112
 31
0.0
  0
ENDBLK
  5
242B
  8
0
  0
BLOCK
  8
0
  2
*U93
 70
     1
 10
0.0
 20
0.0
 30
0.0
  3
*U93
  1

  0
SOLID
  5
2565
  8
SAPA_FOGBAND
  6
CONTINUOUS
 10
18.614660706571041
 20
-92.382617247040926
 30
0.0
 11
18.434383142797842
 21
-92.457290658947372
 31
0.0
 12
18.79493827034424
 22
-92.457290658947372
 32
0.0
 13
18.79493827034424
 23
-92.457290658947372
 33
0.0
210
0.0
220
0.0
230
1.0
  0
SOLID
  5
2566
  8
SAPA_FOGBAND
  6
CONTINUOUS
 10
18.434383142797842
 20
-92.457290658947372
 30
0.0
 11
18.359709730891399
 21
-92.637568222720574
 31
0.0
 12
18.869611682250682
 22
-92.637568222720574
 32
0.0
 13
18.869611682250682
 23
-92.637568222720574
 33
0.0
210
0.0
220
0.0
230
1.0
  0
SOLID
  5
2567
  8
SAPA_FOGBAND
  6
CONTINUOUS
 10
-18.434383142797842
 20
-92.457290658947372
 30
0.0
 11
-18.79493827034424
 21
-92.457290658947372
 31
0.0
 12
-18.869611682250682
 22
-92.637568222720574
 32
0.0
 13
-18.869611682250682
 23
-92.637568222720574
 33
0.0
210
0.0
220
0.0
230
-1.0
  0
SOLID
  5
2568
  8
SAPA_FOGBAND
  6
CONTINUOUS
 10
-18.434383142797842
 20
-92.817845786493777
 30
0.0
 11
-18.79493827034424
 21
-92.817845786493777
 31
0.0
 12
-18.614660706571041
 22
-92.892519198400208
 32
0.0
 13
-18.614660706571041
 23
-92.892519198400208
 33
0.0
210
0.0
220
0.0
230
-1.0
  0
SOLID
  5
2569
  8
SAPA_FOGBAND
  6
CONTINUOUS
 10
18.359709730891399
 20
-92.637568222720574
 30
0.0
 11
18.434383142797842
 21
-92.817845786493777
 31
0.0
 12
18.79493827034424
 22
-92.817845786493777
 32
0.0
 13
18.79493827034424
 23
-92.817845786493777
 33
0.0
210
0.0
220
0.0
230
1.0
  0
SOLID
  5
256A
  8
SAPA_FOGBAND
  6
CONTINUOUS
 10
-18.359709730891399
 20
-92.637568222720574
 30
0.0
 11
-18.869611682250682
 21
-92.637568222720574
 31
0.0
 12
-18.79493827034424
 22
-92.817845786493777
 32
0.0
 13
-18.79493827034424
 23
-92.817845786493777
 33
0.0
210
0.0
220
0.0
230
-1.0
  0
LINE
  5
256B
  8
SAPA_FOGBAND
  6
CONTINUOUS
 10
18.614660706571041
 20
-92.382617247040926
 30
0.0
 11
18.434383142797842
 21
-92.457290658947372
 31
0.0
  0
LINE
  5
256C
  8
SAPA_FOGBAND
  6
CONTINUOUS
 10
18.79493827034424
 20
-92.457290658947372
 30
0.0
 11
18.614660706571041
 21
-92.382617247040926
 31
0.0
  0
LINE
  5
256D
  8
SAPA_FOGBAND
  6
CONTINUOUS
 10
18.434383142797842
 20
-92.457290658947372
 30
0.0
 11
18.359709730891399
 21
-92.637568222720574
 31
0.0
  0
LINE
  5
256E
  8
SAPA_FOGBAND
  6
CONTINUOUS
 10
18.79493827034424
 20
-92.457290658947372
 30
0.0
 11
18.869611682250682
 21
-92.637568222720574
 31
0.0
  0
LINE
  5
256F
  8
SAPA_FOGBAND
  6
CONTINUOUS
 10
18.79493827034424
 20
-92.817845786493777
 30
0.0
 11
18.614660706571041
 21
-92.892519198400208
 31
0.0
  0
LINE
  5
2570
  8
SAPA_FOGBAND
  6
CONTINUOUS
 10
18.614660706571041
 20
-92.892519198400208
 30
0.0
 11
18.434383142797842
 21
-92.817845786493777
 31
0.0
  0
LINE
  5
2571
  8
SAPA_FOGBAND
  6
CONTINUOUS
 10
18.359709730891399
 20
-92.637568222720574
 30
0.0
 11
18.434383142797842
 21
-92.817845786493777
 31
0.0
  0
LINE
  5
2572
  8
SAPA_FOGBAND
  6
CONTINUOUS
 10
18.869611682250682
 20
-92.637568222720574
 30
0.0
 11
18.79493827034424
 21
-92.817845786493777
 31
0.0
  0
ENDBLK
  5
2574
  8
0
  0
BLOCK
  8
0
  2
*U94
 70
     1
 10
0.0
 20
0.0
 30
0.0
  3
*U94
  1

  0
SOLID
  5
261D
  8
SAPA_FOGBAND
  6
CONTINUOUS
 10
-18.629356795614282
 20
-92.773515879680275
 30
0.0
 11
-18.809634359387481
 21
-92.848189291586706
 31
0.0
 12
-18.449079231841079
 22
-92.848189291586706
 32
0.0
 13
-18.449079231841079
 23
-92.848189291586706
 33
0.0
210
0.0
220
0.0
230
1.0
  0
SOLID
  5
261E
  8
SAPA_FOGBAND
  6
CONTINUOUS
 10
-18.809634359387481
 20
-92.848189291586706
 30
0.0
 11
-18.884307771293919
 21
-93.028466855359909
 31
0.0
 12
-18.374405819934641
 22
-93.028466855359909
 32
0.0
 13
-18.374405819934641
 23
-93.028466855359909
 33
0.0
210
0.0
220
0.0
230
1.0
  0
SOLID
  5
261F
  8
SAPA_FOGBAND
  6
CONTINUOUS
 10
18.809634359387481
 20
-92.848189291586706
 30
0.0
 11
18.449079231841079
 21
-92.848189291586706
 31
0.0
 12
18.374405819934641
 22
-93.028466855359909
 32
0.0
 13
18.374405819934641
 23
-93.028466855359909
 33
0.0
210
0.0
220
0.0
230
-1.0
  0
SOLID
  5
2620
  8
SAPA_FOGBAND
  6
CONTINUOUS
 10
18.809634359387481
 20
-93.208744419133112
 30
0.0
 11
18.449079231841079
 21
-93.208744419133112
 31
0.0
 12
18.629356795614282
 22
-93.283417831039543
 32
0.0
 13
18.629356795614282
 23
-93.283417831039543
 33
0.0
210
0.0
220
0.0
230
-1.0
  0
SOLID
  5
2621
  8
SAPA_FOGBAND
  6
CONTINUOUS
 10
-18.884307771293919
 20
-93.028466855359909
 30
0.0
 11
-18.809634359387481
 21
-93.208744419133112
 31
0.0
 12
-18.449079231841079
 22
-93.208744419133112
 32
0.0
 13
-18.449079231841079
 23
-93.208744419133112
 33
0.0
210
0.0
220
0.0
230
1.0
  0
SOLID
  5
2622
  8
SAPA_FOGBAND
  6
CONTINUOUS
 10
18.884307771293919
 20
-93.028466855359909
 30
0.0
 11
18.374405819934641
 21
-93.028466855359909
 31
0.0
 12
18.449079231841079
 22
-93.208744419133112
 32
0.0
 13
18.449079231841079
 23
-93.208744419133112
 33
0.0
210
0.0
220
0.0
230
-1.0
  0
LINE
  5
2623
  8
SAPA_FOGBAND
  6
CONTINUOUS
 10
-18.629356795614282
 20
-92.773515879680275
 30
0.0
 11
-18.809634359387481
 21
-92.848189291586706
 31
0.0
  0
LINE
  5
2624
  8
SAPA_FOGBAND
  6
CONTINUOUS
 10
-18.449079231841079
 20
-92.848189291586706
 30
0.0
 11
-18.629356795614282
 21
-92.773515879680275
 31
0.0
  0
LINE
  5
2625
  8
SAPA_FOGBAND
  6
CONTINUOUS
 10
-18.809634359387481
 20
-92.848189291586706
 30
0.0
 11
-18.884307771293919
 21
-93.028466855359909
 31
0.0
  0
LINE
  5
2626
  8
SAPA_FOGBAND
  6
CONTINUOUS
 10
-18.449079231841079
 20
-92.848189291586706
 30
0.0
 11
-18.374405819934641
 21
-93.028466855359909
 31
0.0
  0
LINE
  5
2627
  8
SAPA_FOGBAND
  6
CONTINUOUS
 10
-18.449079231841079
 20
-93.208744419133112
 30
0.0
 11
-18.629356795614282
 21
-93.283417831039543
 31
0.0
  0
LINE
  5
2628
  8
SAPA_FOGBAND
  6
CONTINUOUS
 10
-18.629356795614282
 20
-93.283417831039543
 30
0.0
 11
-18.809634359387481
 21
-93.208744419133112
 31
0.0
  0
LINE
  5
2629
  8
SAPA_FOGBAND
  6
CONTINUOUS
 10
-18.884307771293919
 20
-93.028466855359909
 30
0.0
 11
-18.809634359387481
 21
-93.208744419133112
 31
0.0
  0
LINE
  5
262A
  8
SAPA_FOGBAND
  6
CONTINUOUS
 10
-18.374405819934641
 20
-93.028466855359909
 30
0.0
 11
-18.449079231841079
 21
-93.208744419133112
 31
0.0
  0
ENDBLK
  5
262C
  8
0
  0
BLOCK
  8
0
  2
*U95
 70
     1
 10
0.0
 20
0.0
 30
0.0
  3
*U95
  1

  0
TEXT
  5
26ED
  8
SAPA_MATT
 62
     2
 10
102.5499997020794
 20
-133.49999999901041
 30
0.0
 40
3.5
  1
37.5
  7
ISO
  0
ENDBLK
  5
26EF
  8
0
  0
BLOCK
  8
0
  2
*U96
 70
     1
 10
0.0
 20
0.0
 30
0.0
  3
*U96
  1

  0
TEXT
  5
26F1
  8
SAPA_MATT
 62
     2
 10
84.274999850961976
 20
-133.49999999901041
 30
0.0
 40
3.5
  1
5
  7
ISO
  0
ENDBLK
  5
26F3
  8
0
  0
BLOCK
  8
0
  2
*U97
 70
     1
 10
0.0
 20
0.0
 30
0.0
  3
*U97
  1

  0
TEXT
  5
26F5
  8
SAPA_MATT
 62
     2
 10
51.549999999921809
 20
-133.49999999901041
 30
0.0
 40
3.5
  1
58
  7
ISO
  0
ENDBLK
  5
26F7
  8
0
  0
BLOCK
  8
0
  2
*U98
 70
     1
 10
0.0
 20
0.0
 30
0.0
  3
*U98
  1

  0
TEXT
  5
26F9
  8
SAPA_MATT
 62
     2
 10
-2.4500000000009101
 20
-133.49999999901041
 30
0.0
 40
3.5
  1
50
  7
ISO
  0
ENDBLK
  5
26FB
  8
0
  0
ENDSEC
  0
SECTION
  2
ENTITIES
  0
POLYLINE
  5
7C4
  8
SAPA_LIGHT
 66
     1
 10
0.0
 20
0.0
 30
0.0
  0
VERTEX
  5
1521
  8
SAPA_LIGHT
 10
-40.999999999996128
 20
-48.499999999010129
 30
0.0
  0
VERTEX
  5
1522
  8
SAPA_LIGHT
 10
-10.999999999996129
 20
-48.499999999010129
 30
0.0
  0
VERTEX
  5
1523
  8
SAPA_LIGHT
 10
-10.999999999995911
 20
-90.499999999011735
 30
0.0
  0
VERTEX
  5
1524
  8
SAPA_LIGHT
 10
-40.999999999995907
 20
-90.499999999011735
 30
0.0
  0
SEQEND
  5
1525
  8
SAPA_LIGHT
  0
POLYLINE
  5
7C5
  8
SAPA_LIGHT
 66
     1
 10
0.0
 20
0.0
 30
0.0
 70
     1
  0
VERTEX
  5
1526
  8
SAPA_LIGHT
 10
-24.999999999999829
 20
-48.499999999010129
 30
0.0
  0
VERTEX
  5
1527
  8
SAPA_LIGHT
 10
-25.000000000000231
 20
64.499999999998863
 30
0.0
  0
VERTEX
  5
1528
  8
SAPA_LIGHT
 10
24.999999999999769
 20
64.499999999998863
 30
0.0
  0
VERTEX
  5
1529
  8
SAPA_LIGHT
 10
24.999999999999201
 20
-48.4999999990182
 30
0.0
  0
VERTEX
  5
152A
  8
SAPA_LIGHT
 10
4.9999999999997717
 20
-48.499999999002277
 30
0.0
  0
VERTEX
  5
152B
  8
SAPA_LIGHT
 10
4.9999999999996021
 20
-90.499999999011777
 30
0.0
  0
VERTEX
  5
152C
  8
SAPA_LIGHT
 10
24.999999999836749
 20
-90.499999999208171
 30
0.0
  0
VERTEX
  5
152D
  8
SAPA_LIGHT
 10
24.999999999999091
 20
-114.4999999990105
 30
0.0
  0
VERTEX
  5
152E
  8
SAPA_LIGHT
 10
-25.000000000000909
 20
-114.4999999990105
 30
0.0
  0
VERTEX
  5
152F
  8
SAPA_LIGHT
 10
-25.0
 20
-90.499999999011735
 30
0.0
  0
VERTEX
  5
1530
  8
SAPA_LIGHT
 10
-5.0000000000004539
 20
-90.499999999011735
 30
0.0
  0
VERTEX
  5
1531
  8
SAPA_LIGHT
 10
-5.0000000000002274
 20
-48.499999999010129
 30
0.0
  0
SEQEND
  5
1532
  8
SAPA_LIGHT
  0
POLYLINE
  5
7C6
  8
SAPA_LIGHT
 66
     1
 10
0.0
 20
0.0
 30
0.0
  0
VERTEX
  5
1533
  8
SAPA_LIGHT
 10
74.499999999966576
 20
-90.500000003728076
 30
0.0
  0
VERTEX
  5
1534
  8
SAPA_LIGHT
 10
11.862517060944009
 20
-90.500000002721535
 30
0.0
  0
VERTEX
  5
1535
  8
SAPA_LIGHT
 10
11.862517060944009
 20
-48.494512004128808
 30
0.0
  0
VERTEX
  5
1536
  8
SAPA_LIGHT
 10
30.199999999999591
 20
-48.505487993891677
 30
0.0
  0
VERTEX
  5
1537
  8
SAPA_LIGHT
 10
29.99999999999898
 20
-19.388616438581089
 30
0.0
  0
VERTEX
  5
1538
  8
SAPA_LIGHT
 10
29.968745704598629
 20
-16.500000006903122
 30
0.0
  0
VERTEX
  5
1539
  8
SAPA_LIGHT
 10
52.499999999998863
 20
-16.500000006903122
 30
0.0
  0
VERTEX
  5
153A
  8
SAPA_LIGHT
 10
52.499999999998749
 20
-85.050000007505105
 30
0.0
  0
VERTEX
  5
153B
  8
SAPA_LIGHT
 10
74.500000000177579
 20
-85.050000007505105
 30
0.0
  0
VERTEX
  5
153C
  8
SAPA_LIGHT
 10
74.500000000103896
 20
-90.500000003728076
 30
0.0
  0
SEQEND
  5
153D
  8
SAPA_LIGHT
  0
POLYLINE
  5
7C8
  8
SAPA_LIGHT
 66
     1
 10
0.0
 20
0.0
 30
0.0
  0
VERTEX
  5
153E
  8
SAPA_LIGHT
 10
135.5000000030644
 20
-39.550000085492456
 30
0.0
  0
VERTEX
  5
153F
  8
SAPA_LIGHT
 10
105.5000000030644
 20
-39.550000085492456
 30
0.0
  0
VERTEX
  5
1540
  8
SAPA_LIGHT
 10
105.5000000030639
 20
-81.550000085463935
 30
0.0
  0
VERTEX
  5
1541
  8
SAPA_LIGHT
 10
135.50000000306389
 20
-81.550000085463935
 30
0.0
  0
SEQEND
  5
1542
  8
SAPA_LIGHT
  0
POLYLINE
  5
7E8
  8
SAPA_LIGHT
 66
     1
 10
0.0
 20
0.0
 30
0.0
 70
     1
  0
VERTEX
  5
1543
  8
SAPA_LIGHT
 10
100.5000000030642
 20
-16.767949203567749
 30
0.0
  0
VERTEX
  5
1544
  8
SAPA_LIGHT
 10
100.5000000030642
 20
-18.000000005793421
 30
0.0
  0
VERTEX
  5
1545
  8
SAPA_LIGHT
 10
122.5000000030779
 20
-18.000000005793421
 30
0.0
  0
VERTEX
  5
1546
  8
SAPA_LIGHT
 10
122.5000000030779
 20
-39.550000085494617
 30
0.0
  0
VERTEX
  5
1547
  8
SAPA_LIGHT
 10
100.1948776362608
 20
-39.550000085494617
 30
0.0
  0
VERTEX
  5
1548
  8
SAPA_LIGHT
 10
100.1948776362608
 20
-81.550000085463935
 30
0.0
  0
VERTEX
  5
1549
  8
SAPA_LIGHT
 10
122.5000000032433
 20
-81.550000085463978
 30
0.0
  0
VERTEX
  5
154A
  8
SAPA_LIGHT
 10
122.5000000030314
 20
-90.500000007534254
 30
0.0
  0
VERTEX
  5
154B
  8
SAPA_LIGHT
 10
79.499999999967372
 20
-90.500000007521635
 30
0.0
  0
VERTEX
  5
154C
  8
SAPA_LIGHT
 10
79.499999999967372
 20
-85.050000007505034
 30
0.0
  0
VERTEX
  5
154D
  8
SAPA_LIGHT
 10
72.500000000041723
 20
-85.050000007505105
 30
0.0
  0
VERTEX
  5
154E
  8
SAPA_LIGHT
 10
72.500000000041723
 20
-71.853716961445798
 30
0.0
  0
VERTEX
  5
154F
  8
SAPA_LIGHT
 10
66.500000000041496
 20
-71.853716961445855
 30
0.0
  0
VERTEX
  5
1550
  8
SAPA_LIGHT
 10
66.50000000004195
 20
-38.500000010612503
 30
0.0
  0
VERTEX
  5
1551
  8
SAPA_LIGHT
 10
64.000000000042405
 20
-38.500000010612503
 30
0.0
  0
VERTEX
  5
1552
  8
SAPA_LIGHT
 10
64.000000000042405
 20
-16.500000006903122
 30
0.0
  0
VERTEX
  5
1553
  8
SAPA_LIGHT
 10
46.50000000004195
 20
-16.500000006903122
 30
0.0
  0
VERTEX
  5
1554
  8
SAPA_LIGHT
 10
46.50000000004195
 20
-7.0000000024177211
 30
0.0
  0
VERTEX
  5
1555
  8
SAPA_LIGHT
 10
89.241941785629706
 20
-7.0000000071514128
 30
0.0
  0
VERTEX
  5
1556
  8
SAPA_LIGHT
 10
97.901828296234044
 20
-11.999834608119039
 30
0.0
  0
VERTEX
  5
1557
  8
SAPA_LIGHT
 10
100.36602540684849
 20
-16.267949203567468
 30
0.0
  0
SEQEND
  5
1558
  8
SAPA_LIGHT
  0
INSERT
  5
7F5
  8
0
  2
*U85
 10
0.0
 20
0.0
 30
0.0
  0
INSERT
  5
7F6
  8
0
  2
*U86
 10
0.0
 20
0.0
 30
0.0
  0
INSERT
  5
7F7
  8
0
  2
*U87
 10
0.0
 20
0.0
 30
0.0
  0
INSERT
  5
7F8
  8
0
  2
*U88
 10
0.0
 20
0.0
 30
0.0
  0
INSERT
  5
7F9
  8
0
  2
*U89
 10
0.0
 20
0.0
 30
0.0
  0
INSERT
  5
7FA
  8
0
  2
*U90
 10
0.0
 20
0.0
 30
0.0
  0
POLYLINE
  5
13B9
  8
SAPA_PROFIL
 66
     1
 10
0.0
 20
0.0
 30
0.0
 70
     1
  0
VERTEX
  5
1B8D
  8
SAPA_PROFIL
 10
103.99537581350469
 20
-7.3939031363878476
 30
0.0
  0
VERTEX
  5
1B8E
  8
SAPA_PROFIL
 10
103.99537581350469
 20
-7.6364470742349786
 30
0.0
 42
-0.2011813370902256
  0
VERTEX
  5
1B8F
  8
SAPA_PROFIL
 10
103.9355576663646
 20
-7.7790971640655471
 30
0.0
  0
VERTEX
  5
1B90
  8
SAPA_PROFIL
 10
103.008810307635
 20
-8.6898092570894505
 30
0.0
  0
VERTEX
  5
1B91
  8
SAPA_PROFIL
 10
101.4953758135029
 20
-8.6766017143462477
 30
0.0
 42
0.4931454260356012
  0
VERTEX
  5
1B92
  8
SAPA_PROFIL
 10
99.924110853265077
 20
-8.4557748252985903
 30
0.0
  0
VERTEX
  5
1B93
  8
SAPA_PROFIL
 10
98.856461016440733
 20
-9.5049513979113822
 30
0.0
 42
0.6681786379164681
  0
VERTEX
  5
1B94
  8
SAPA_PROFIL
 10
98.997829896894416
 20
-9.8548516553963168
 30
0.0
  0
VERTEX
  5
1B95
  8
SAPA_PROFIL
 10
103.49537581350469
 20
-9.8941011439936233
 30
0.0
  0
VERTEX
  5
1B96
  8
SAPA_PROFIL
 10
105.6094686650944
 20
-7.8165878847638623
 30
0.0
 42
-0.2038501166358263
  0
VERTEX
  5
1B97
  8
SAPA_PROFIL
 10
105.9737754445122
 20
-7.6734050281578439
 30
0.0
  0
VERTEX
  5
1B98
  8
SAPA_PROFIL
 10
121.07848869710659
 20
-8.0920311374467246
 30
0.0
 42
-0.4061212134736873
  0
VERTEX
  5
1B99
  8
SAPA_PROFIL
 10
123.9953758134982
 20
-11.09087962454617
 30
0.0
  0
VERTEX
  5
1B9A
  8
SAPA_PROFIL
 10
123.9953758134982
 20
-22.875070868014241
 30
0.0
 42
-0.4142135623730951
  0
VERTEX
  5
1B9B
  8
SAPA_PROFIL
 10
123.4953758134982
 20
-23.37507086801423
 30
0.0
  0
VERTEX
  5
1B9C
  8
SAPA_PROFIL
 10
111.9095893758731
 20
-23.37507086801423
 30
0.0
 42
-0.198912367379658
  0
VERTEX
  5
1B9D
  8
SAPA_PROFIL
 10
111.2024825946866
 20
-23.082177649200791
 30
0.0
  0
VERTEX
  5
1B9E
  8
SAPA_PROFIL
 10
110.821883821296
 20
-22.701578875810299
 30
0.0
 42
0.1830252782112529
  0
VERTEX
  5
1B9F
  8
SAPA_PROFIL
 10
109.53021601256469
 20
-22.119550334062691
 30
0.0
  0
VERTEX
  5
1BA0
  8
SAPA_PROFIL
 10
99.097143983758954
 20
-21.396485606732139
 30
0.0
 42
0.668178637923616
  0
VERTEX
  5
1BA1
  8
SAPA_PROFIL
 10
98.883761664225347
 20
-21.911636096521139
 30
0.0
  0
VERTEX
  5
1BA2
  8
SAPA_PROFIL
 10
100.8832437791479
 20
-23.911118211443689
 30
0.0
 42
0.7332303362588345
  0
VERTEX
  5
1BA3
  8
SAPA_PROFIL
 10
101.3908181394076
 20
-23.646891723786499
 30
0.0
  0
VERTEX
  5
1BA4
  8
SAPA_PROFIL
 10
101.2822340286215
 20
-23.03108063038809
 30
0.0
 42
-0.4663076581593561
  0
VERTEX
  5
1BA5
  8
SAPA_PROFIL
 10
101.5776763545249
 20
-22.678986177087889
 30
0.0
  0
VERTEX
  5
1BA6
  8
SAPA_PROFIL
 10
109.3371534798772
 20
-23.410145798968362
 30
0.0
 42
-0.183025278211264
  0
VERTEX
  5
1BA7
  8
SAPA_PROFIL
 10
109.9829873842429
 20
-23.70116006984216
 30
0.0
  0
VERTEX
  5
1BA8
  8
SAPA_PROFIL
 10
110.3711117447879
 20
-24.089284430387181
 30
0.0
 42
0.1989123673796518
  0
VERTEX
  5
1BA9
  8
SAPA_PROFIL
 10
111.785325307161
 20
-24.675070868014078
 30
0.0
  0
VERTEX
  5
1BAA
  8
SAPA_PROFIL
 10
123.19537581351371
 20
-24.675070868014188
 30
0.0
 42
-0.4142135623732283
  0
VERTEX
  5
1BAB
  8
SAPA_PROFIL
 10
123.69537581351371
 20
-25.175070868014419
 30
0.0
  0
VERTEX
  5
1BAC
  8
SAPA_PROFIL
 10
123.6953758135127
 20
-26.375070868013779
 30
0.0
 42
0.4142135623732062
  0
VERTEX
  5
1BAD
  8
SAPA_PROFIL
 10
123.99537581351279
 20
-26.675070868013851
 30
0.0
  0
VERTEX
  5
1BAE
  8
SAPA_PROFIL
 10
125.1953758134983
 20
-26.675070868014188
 30
0.0
 42
0.4142135623716247
  0
VERTEX
  5
1BAF
  8
SAPA_PROFIL
 10
125.4953758134983
 20
-26.37507086801287
 30
0.0
  0
VERTEX
  5
1BB0
  8
SAPA_PROFIL
 10
125.4953758135118
 20
-6.3986631256908586
 30
0.0
 42
0.4142135623732938
  0
VERTEX
  5
1BB1
  8
SAPA_PROFIL
 10
125.2953758135118
 20
-6.198663125690814
 30
0.0
  0
VERTEX
  5
1BB2
  8
SAPA_PROFIL
 10
103.69999969982599
 20
-6.198663125690814
 30
0.0
 42
0.4210020197690384
  0
VERTEX
  5
1BB3
  8
SAPA_PROFIL
 10
103.49537581350469
 20
-6.3986096677348314
 30
0.0
  0
VERTEX
  5
1BB4
  8
SAPA_PROFIL
 10
103.4953758134982
 20
-6.9865928309303618
 30
0.0
  0
VERTEX
  5
1BB5
  8
SAPA_PROFIL
 10
103.7953758134982
 20
-6.9865928309303618
 30
0.0
 42
-0.41421356237322
  0
VERTEX
  5
1BB6
  8
SAPA_PROFIL
 10
103.9953758134981
 20
-7.1865928309304081
 30
0.0
  0
VERTEX
  5
1BB7
  8
SAPA_PROFIL
 10
103.9953758134982
 20
-7.4037705964000224
 30
0.0
  0
SEQEND
  5
1BB8
  8
SAPA_PROFIL
  0
POLYLINE
  5
13BA
  8
SAPA_PROFIL
 66
     1
 10
0.0
 20
0.0
 30
0.0
 70
     1
  0
VERTEX
  5
1BB9
  8
SAPA_PROFIL
 10
77.988496464490623
 20
-29.228798412881599
 30
0.0
  0
VERTEX
  5
1BBA
  8
SAPA_PROFIL
 10
78.1406303755994
 20
-28.944116129649959
 30
0.0
 42
0.5773502691897463
  0
VERTEX
  5
1BBB
  8
SAPA_PROFIL
 10
77.957676635489207
 20
-28.649959829395151
 30
0.0
  0
VERTEX
  5
1BBC
  8
SAPA_PROFIL
 10
77.635918907270963
 20
-28.66052119562211
 30
0.0
  0
VERTEX
  5
1BBD
  8
SAPA_PROFIL
 10
76.551354460299223
 20
-26.774677503761051
 30
0.0
  0
VERTEX
  5
1BBE
  8
SAPA_PROFIL
 10
76.493280823310144
 20
-26.58329450376733
 30
0.0
 42
-0.7625858545243257
  0
VERTEX
  5
1BBF
  8
SAPA_PROFIL
 10
76.823606904327136
 20
-26.398715301569862
 30
0.0
 42
0.2134217652834389
  0
VERTEX
  5
1BC0
  8
SAPA_PROFIL
 10
77.047213702077244
 20
-26.49871530156998
 30
0.0
  0
VERTEX
  5
1BC1
  8
SAPA_PROFIL
 10
80.899999702077238
 20
-26.49871530156998
 30
0.0
 42
-0.4142139999998963
  0
VERTEX
  5
1BC2
  8
SAPA_PROFIL
 10
81.19999970207725
 20
-26.798715301570031
 30
0.0
  0
VERTEX
  5
1BC3
  8
SAPA_PROFIL
 10
81.19999970207725
 20
-27.098715301569982
 30
0.0
  0
VERTEX
  5
1BC4
  8
SAPA_PROFIL
 10
80.276239702077206
 20
-28.698715301569958
 30
0.0
 42
0.5773500000002674
  0
VERTEX
  5
1BC5
  8
SAPA_PROFIL
 10
80.449444702077287
 20
-28.998715301570019
 30
0.0
  0
VERTEX
  5
1BC6
  8
SAPA_PROFIL
 10
81.835085702077265
 20
-28.998715301570019
 30
0.0
 42
0.267949000000023
  0
VERTEX
  5
1BC7
  8
SAPA_PROFIL
 10
82.701110702077287
 20
-28.498715301570019
 30
0.0
  0
VERTEX
  5
1BC8
  8
SAPA_PROFIL
 10
83.711473702077285
 20
-26.748715301569991
 30
0.0
 42
-0.2679489999999919
  0
VERTEX
  5
1BC9
  8
SAPA_PROFIL
 10
84.144486702077288
 20
-26.49871530156998
 30
0.0
  0
VERTEX
  5
1BCA
  8
SAPA_PROFIL
 10
94.155513702077258
 20
-26.49871530156998
 30
0.0
 42
-0.2679490000000193
  0
VERTEX
  5
1BCB
  8
SAPA_PROFIL
 10
94.588526702077274
 20
-26.748715301569991
 30
0.0
  0
VERTEX
  5
1BCC
  8
SAPA_PROFIL
 10
95.598889702077258
 20
-28.498715301569991
 30
0.0
 42
0.2679490000000211
  0
VERTEX
  5
1BCD
  8
SAPA_PROFIL
 10
96.464914702077294
 20
-28.998715301570009
 30
0.0
  0
VERTEX
  5
1BCE
  8
SAPA_PROFIL
 10
97.850555702077259
 20
-28.998715301570009
 30
0.0
 42
0.5773499999999721
  0
VERTEX
  5
1BCF
  8
SAPA_PROFIL
 10
98.023760702077254
 20
-28.698715301570001
 30
0.0
  0
VERTEX
  5
1BD0
  8
SAPA_PROFIL
 10
97.099999702077298
 20
-27.098715301569971
 30
0.0
  0
VERTEX
  5
1BD1
  8
SAPA_PROFIL
 10
97.099999702077298
 20
-26.798715301570031
 30
0.0
 42
-0.4142139999999657
  0
VERTEX
  5
1BD2
  8
SAPA_PROFIL
 10
97.399999702077267
 20
-26.49871530156998
 30
0.0
  0
VERTEX
  5
1BD3
  8
SAPA_PROFIL
 10
101.2527867020773
 20
-26.49871530157009
 30
0.0
 42
0.2134217652834387
  0
VERTEX
  5
1BD4
  8
SAPA_PROFIL
 10
101.4763934998274
 20
-26.398715301569961
 30
0.0
 42
-0.7625858545243244
  0
VERTEX
  5
1BD5
  8
SAPA_PROFIL
 10
101.8067195808444
 20
-26.583294503767441
 30
0.0
  0
VERTEX
  5
1BD6
  8
SAPA_PROFIL
 10
101.74864594385529
 20
-26.774677503761161
 30
0.0
  0
VERTEX
  5
1BD7
  8
SAPA_PROFIL
 10
100.6640814968835
 20
-28.66052119562222
 30
0.0
  0
VERTEX
  5
1BD8
  8
SAPA_PROFIL
 10
100.3423237686653
 20
-28.64995982939524
 30
0.0
 42
0.5773502691897466
  0
VERTEX
  5
1BD9
  8
SAPA_PROFIL
 10
100.1593700285551
 20
-28.94411612965008
 30
0.0
  0
VERTEX
  5
1BDA
  8
SAPA_PROFIL
 10
100.31150393966389
 20
-29.228798412881741
 30
0.0
 42
0.2216946626430191
  0
VERTEX
  5
1BDB
  8
SAPA_PROFIL
 10
100.85238377114069
 20
-29.634607318036512
 30
0.0
  0
VERTEX
  5
1BDC
  8
SAPA_PROFIL
 10
102.66561424179891
 20
-30.016053914164221
 30
0.0
 42
0.4769755326981641
  0
VERTEX
  5
1BDD
  8
SAPA_PROFIL
 10
103.0372711167448
 20
-29.71380108965776
 30
0.0
  0
VERTEX
  5
1BDE
  8
SAPA_PROFIL
 10
103.03718750886109
 20
-28.210700008895749
 30
0.0
  0
VERTEX
  5
1BDF
  8
SAPA_PROFIL
 10
102.98934175886259
 20
-28.19618159964865
 30
0.0
 42
-0.4142135623730953
  0
VERTEX
  5
1BE0
  8
SAPA_PROFIL
 10
102.7893777143553
 20
-27.821996644172842
 30
0.0
  0
VERTEX
  5
1BE1
  8
SAPA_PROFIL
 10
103.2999997020773
 20
-26.50088122673866
 30
0.0
  0
VERTEX
  5
1BE2
  8
SAPA_PROFIL
 10
103.2999997020773
 20
-26.49871530156998
 30
0.0
  0
VERTEX
  5
1BE3
  8
SAPA_PROFIL
 10
103.2999997020773
 20
-23.506230301569978
 30
0.0
 42
0.2596809999999277
  0
VERTEX
  5
1BE4
  8
SAPA_PROFIL
 10
103.20530670207719
 20
-23.336199301570002
 30
0.0
  0
VERTEX
  5
1BE5
  8
SAPA_PROFIL
 10
101.9579607020772
 20
-22.543668301569991
 30
0.0
 42
0.5877030000000004
  0
VERTEX
  5
1BE6
  8
SAPA_PROFIL
 10
101.4999997020772
 20
-22.79871530157002
 30
0.0
  0
VERTEX
  5
1BE7
  8
SAPA_PROFIL
 10
101.4999997020773
 20
-24.198715301570001
 30
0.0
 42
-0.4142135623731089
  0
VERTEX
  5
1BE8
  8
SAPA_PROFIL
 10
101.19999970207721
 20
-24.49871530156998
 30
0.0
  0
VERTEX
  5
1BE9
  8
SAPA_PROFIL
 10
98.799999702077287
 20
-24.49871530156998
 30
0.0
 42
-0.4142135623731088
  0
VERTEX
  5
1BEA
  8
SAPA_PROFIL
 10
98.499999702077275
 20
-24.198715301570001
 30
0.0
  0
VERTEX
  5
1BEB
  8
SAPA_PROFIL
 10
98.499999702077261
 20
-18.398715301570039
 30
0.0
  0
VERTEX
  5
1BEC
  8
SAPA_PROFIL
 10
98.499999702077261
 20
-16.398715301570039
 30
0.0
  0
VERTEX
  5
1BED
  8
SAPA_PROFIL
 10
98.499999702077261
 20
-6.7987153015700139
 30
0.0
 42
-0.4142139999999172
  0
VERTEX
  5
1BEE
  8
SAPA_PROFIL
 10
98.799999702077272
 20
-6.4987153015700168
 30
0.0
  0
VERTEX
  5
1BEF
  8
SAPA_PROFIL
 10
101.19999970207721
 20
-6.4987153015700168
 30
0.0
 42
-0.4142139999999103
  0
VERTEX
  5
1BF0
  8
SAPA_PROFIL
 10
101.4999997020772
 20
-6.7987153015700139
 30
0.0
  0
VERTEX
  5
1BF1
  8
SAPA_PROFIL
 10
101.4999997020772
 20
-8.1987153015699992
 30
0.0
 42
0.5877030000000132
  0
VERTEX
  5
1BF2
  8
SAPA_PROFIL
 10
101.9579607020772
 20
-8.4537613015699993
 30
0.0
  0
VERTEX
  5
1BF3
  8
SAPA_PROFIL
 10
103.4053067020772
 20
-7.5573623015699889
 30
0.0
 42
0.259681000000005
  0
VERTEX
  5
1BF4
  8
SAPA_PROFIL
 10
103.4999997020772
 20
-7.3873313015700299
 30
0.0
  0
VERTEX
  5
1BF5
  8
SAPA_PROFIL
 10
103.4999997020772
 20
-4.7666643015699828
 30
0.0
 42
0.1316520000000017
  0
VERTEX
  5
1BF6
  8
SAPA_PROFIL
 10
103.3660257020772
 20
-4.2666643015699757
 30
0.0
  0
VERTEX
  5
1BF7
  8
SAPA_PROFIL
 10
98.881197702077245
 20
3.5012846984300241
 30
0.0
 42
0.267948999999994
  0
VERTEX
  5
1BF8
  8
SAPA_PROFIL
 10
96.283121702077267
 20
5.0012846984300099
 30
0.0
  0
VERTEX
  5
1BF9
  8
SAPA_PROFIL
 10
57.999999702077247
 20
5.0012846984299841
 30
0.0
 42
0.4142140000000114
  0
VERTEX
  5
1BFA
  8
SAPA_PROFIL
 10
54.99999970207724
 20
2.001284698430005
 30
0.0
  0
VERTEX
  5
1BFB
  8
SAPA_PROFIL
 10
54.999999702077162
 20
1.501284698430005
 30
0.0
 42
0.4241420000000259
  0
VERTEX
  5
1BFC
  8
SAPA_PROFIL
 10
56.033772702077258
 20
0.5018556984300348
 30
0.0
 42
0.2988660000000032
  0
VERTEX
  5
1BFD
  8
SAPA_PROFIL
 10
56.971052702077202
 20
1.072713698430029
 30
0.0
 42
0.55075999999996
  0
VERTEX
  5
1BFE
  8
SAPA_PROFIL
 10
56.69999970207725
 20
1.501284698430005
 30
0.0
  0
VERTEX
  5
1BFF
  8
SAPA_PROFIL
 10
56.399999702077238
 20
1.501284698430005
 30
0.0
 42
-0.4142139999998339
  0
VERTEX
  5
1C00
  8
SAPA_PROFIL
 10
56.19999970207725
 20
1.701284698429979
 30
0.0
  0
VERTEX
  5
1C01
  8
SAPA_PROFIL
 10
56.19999970207725
 20
2.0012846984300121
 30
0.0
 42
-0.4142139999999946
  0
VERTEX
  5
1C02
  8
SAPA_PROFIL
 10
57.999999702077247
 20
3.8012846984300168
 30
0.0
  0
VERTEX
  5
1C03
  8
SAPA_PROFIL
 10
58.69999970207725
 20
3.8012846984300168
 30
0.0
 42
-0.4142139999999852
  0
VERTEX
  5
1C04
  8
SAPA_PROFIL
 10
60.499999702077247
 20
2.0012846984300059
 30
0.0
  0
VERTEX
  5
1C05
  8
SAPA_PROFIL
 10
60.499999702077247
 20
1.7012846984299801
 30
0.0
 42
-0.4142139999998025
  0
VERTEX
  5
1C06
  8
SAPA_PROFIL
 10
60.299999702077251
 20
1.501284698430005
 30
0.0
  0
VERTEX
  5
1C07
  8
SAPA_PROFIL
 10
59.99999970207724
 20
1.501284698429991
 30
0.0
 42
0.5507599999999105
  0
VERTEX
  5
1C08
  8
SAPA_PROFIL
 10
59.728947702077193
 20
1.072713698429979
 30
0.0
 42
0.2988660000000063
  0
VERTEX
  5
1C09
  8
SAPA_PROFIL
 10
60.666227702077236
 20
0.5018556984299503
 30
0.0
 42
0.4241419999999882
  0
VERTEX
  5
1C0A
  8
SAPA_PROFIL
 10
61.69999970207725
 20
1.5012846984300059
 30
0.0
  0
VERTEX
  5
1C0B
  8
SAPA_PROFIL
 10
61.69999970207725
 20
2.8012846984300102
 30
0.0
 42
-0.4142140000000128
  0
VERTEX
  5
1C0C
  8
SAPA_PROFIL
 10
62.69999970207725
 20
3.8012846984300168
 30
0.0
  0
VERTEX
  5
1C0D
  8
SAPA_PROFIL
 10
76.52792870207729
 20
3.0276946984299919
 30
0.0
 42
-0.3979379999999925
  0
VERTEX
  5
1C0E
  8
SAPA_PROFIL
 10
76.999999702077261
 20
2.5284756984300101
 30
0.0
  0
VERTEX
  5
1C0F
  8
SAPA_PROFIL
 10
76.999999702077261
 20
-1.998715301569991
 30
0.0
 42
-0.4142140000000251
  0
VERTEX
  5
1C10
  8
SAPA_PROFIL
 10
76.499999702077261
 20
-2.498715301569991
 30
0.0
  0
VERTEX
  5
1C11
  8
SAPA_PROFIL
 10
72.999999702077261
 20
-2.4987153015699919
 30
0.0
 42
0.4142140000000128
  0
VERTEX
  5
1C12
  8
SAPA_PROFIL
 10
72.499999702077261
 20
-2.9987153015699919
 30
0.0
  0
VERTEX
  5
1C13
  8
SAPA_PROFIL
 10
72.499999702077247
 20
-6.6987153015700089
 30
0.0
 42
0.4142139999999104
  0
VERTEX
  5
1C14
  8
SAPA_PROFIL
 10
72.799999702077272
 20
-6.9987153015700141
 30
0.0
  0
VERTEX
  5
1C15
  8
SAPA_PROFIL
 10
73.69999970207725
 20
-6.9987153015700141
 30
0.0
 42
0.4142139999999101
  0
VERTEX
  5
1C16
  8
SAPA_PROFIL
 10
73.999999702077261
 20
-6.6987153015700089
 30
0.0
  0
VERTEX
  5
1C17
  8
SAPA_PROFIL
 10
73.999999702077261
 20
-4.6987153015699814
 30
0.0
 42
-0.4142139999999691
  0
VERTEX
  5
1C18
  8
SAPA_PROFIL
 10
74.19999970207725
 20
-4.4987153015699919
 30
0.0
  0
VERTEX
  5
1C19
  8
SAPA_PROFIL
 10
76.999999702077261
 20
-4.4987153015699901
 30
0.0
 42
-0.577350269189605
  0
VERTEX
  5
1C1A
  8
SAPA_PROFIL
 10
77.173204782834134
 20
-4.7987153015699953
 30
0.0
  0
VERTEX
  5
1C1B
  8
SAPA_PROFIL
 10
76.999999702077261
 20
-5.0987153015699986
 30
0.0
  0
VERTEX
  5
1C1C
  8
SAPA_PROFIL
 10
76.999999702077204
 20
-8.8937153015700225
 30
0.0
 42
0.414213999999992
  0
VERTEX
  5
1C1D
  8
SAPA_PROFIL
 10
77.499999702077261
 20
-9.3937153015700225
 30
0.0
  0
VERTEX
  5
1C1E
  8
SAPA_PROFIL
 10
78.199999702077235
 20
-9.3937153015700225
 30
0.0
 42
-0.4142139999998548
  0
VERTEX
  5
1C1F
  8
SAPA_PROFIL
 10
78.499999702077261
 20
-9.6937153015699682
 30
0.0
  0
VERTEX
  5
1C20
  8
SAPA_PROFIL
 10
78.499999702077261
 20
-14.874099301569981
 30
0.0
  0
VERTEX
  5
1C21
  8
SAPA_PROFIL
 10
78.799999702077272
 20
-15.393715301570021
 30
0.0
  0
VERTEX
  5
1C22
  8
SAPA_PROFIL
 10
78.499999702077261
 20
-15.913330301569991
 30
0.0
  0
VERTEX
  5
1C23
  8
SAPA_PROFIL
 10
78.499999702077261
 20
-21.093715301570011
 30
0.0
 42
-0.4142140000000351
  0
VERTEX
  5
1C24
  8
SAPA_PROFIL
 10
78.199999702077235
 20
-21.393715301570019
 30
0.0
  0
VERTEX
  5
1C25
  8
SAPA_PROFIL
 10
77.499999702077261
 20
-21.393715301569969
 30
0.0
 42
0.4142140000000461
  0
VERTEX
  5
1C26
  8
SAPA_PROFIL
 10
76.999999702077261
 20
-21.893715301570019
 30
0.0
  0
VERTEX
  5
1C27
  8
SAPA_PROFIL
 10
76.999999702077261
 20
-23.898715301570022
 30
0.0
  0
VERTEX
  5
1C28
  8
SAPA_PROFIL
 10
77.173204782834134
 20
-24.198715301570001
 30
0.0
 42
-0.5773502691896303
  0
VERTEX
  5
1C29
  8
SAPA_PROFIL
 10
76.999999702077261
 20
-24.498715301569991
 30
0.0
  0
VERTEX
  5
1C2A
  8
SAPA_PROFIL
 10
74.19999970207725
 20
-24.498715301569991
 30
0.0
 42
-0.414213999999813
  0
VERTEX
  5
1C2B
  8
SAPA_PROFIL
 10
73.999999702077261
 20
-24.298715301570031
 30
0.0
  0
VERTEX
  5
1C2C
  8
SAPA_PROFIL
 10
73.999999702077289
 20
-22.29871530157002
 30
0.0
 42
0.4142139999998962
  0
VERTEX
  5
1C2D
  8
SAPA_PROFIL
 10
73.69999970207725
 20
-21.998715301569991
 30
0.0
  0
VERTEX
  5
1C2E
  8
SAPA_PROFIL
 10
72.799999702077272
 20
-21.99871530157003
 30
0.0
 42
0.4142139999999103
  0
VERTEX
  5
1C2F
  8
SAPA_PROFIL
 10
72.499999702077261
 20
-22.29871530157002
 30
0.0
  0
VERTEX
  5
1C30
  8
SAPA_PROFIL
 10
72.499999702077275
 20
-25.998715301569991
 30
0.0
 42
0.414214000000021
  0
VERTEX
  5
1C31
  8
SAPA_PROFIL
 10
72.999999702077261
 20
-26.49871530156998
 30
0.0
  0
VERTEX
  5
1C32
  8
SAPA_PROFIL
 10
74.69999970207725
 20
-26.49871530156998
 30
0.0
 42
-0.4142135623730951
  0
VERTEX
  5
1C33
  8
SAPA_PROFIL
 10
74.999999702077261
 20
-26.798715301569992
 30
0.0
  0
VERTEX
  5
1C34
  8
SAPA_PROFIL
 10
75.510622689799249
 20
-27.821996644172732
 30
0.0
 42
-0.4142135623730953
  0
VERTEX
  5
1C35
  8
SAPA_PROFIL
 10
75.310658645291852
 20
-28.19618159964854
 30
0.0
  0
VERTEX
  5
1C36
  8
SAPA_PROFIL
 10
75.262812895293365
 20
-28.210700008895639
 30
0.0
  0
VERTEX
  5
1C37
  8
SAPA_PROFIL
 10
75.262729287409726
 20
-29.71380108965765
 30
0.0
 42
0.4769755326981643
  0
VERTEX
  5
1C38
  8
SAPA_PROFIL
 10
75.634386162355582
 20
-30.016053914164122
 30
0.0
  0
VERTEX
  5
1C39
  8
SAPA_PROFIL
 10
77.447616633013837
 20
-29.634607318036419
 30
0.0
 42
0.2216946626430193
  0
SEQEND
  5
1C3A
  8
SAPA_PROFIL
  0
POLYLINE
  5
13BB
  8
SAPA_PROFIL
 66
     1
 10
0.0
 20
0.0
 30
0.0
 70
     1
  0
VERTEX
  5
1C3B
  8
SAPA_PROFIL
 10
94.899999702077238
 20
-6.1987153015700063
 30
0.0
  0
VERTEX
  5
1C3C
  8
SAPA_PROFIL
 10
96.499999702077261
 20
-6.1987153015700063
 30
0.0
 42
-0.414214000000042
  0
VERTEX
  5
1C3D
  8
SAPA_PROFIL
 10
96.799999702077272
 20
-6.4987153015700168
 30
0.0
  0
VERTEX
  5
1C3E
  8
SAPA_PROFIL
 10
96.799999702077287
 20
-24.498715301569991
 30
0.0
 42
-0.4142140000001599
  0
VERTEX
  5
1C3F
  8
SAPA_PROFIL
 10
96.499999702077275
 20
-24.79871530157002
 30
0.0
  0
VERTEX
  5
1C40
  8
SAPA_PROFIL
 10
94.899999702077238
 20
-24.79871530157002
 30
0.0
 42
-0.4142140000000628
  0
VERTEX
  5
1C41
  8
SAPA_PROFIL
 10
94.699999702077264
 20
-24.598715301569989
 30
0.0
  0
VERTEX
  5
1C42
  8
SAPA_PROFIL
 10
94.699999702077264
 20
-24.498715301569991
 30
0.0
 42
0.4142139999998963
  0
VERTEX
  5
1C43
  8
SAPA_PROFIL
 10
94.399999702077253
 20
-24.198715301570001
 30
0.0
  0
VERTEX
  5
1C44
  8
SAPA_PROFIL
 10
92.999999702077275
 20
-24.198715301570061
 30
0.0
 42
0.4142139999999518
  0
VERTEX
  5
1C45
  8
SAPA_PROFIL
 10
92.699999702077264
 20
-24.498715301569991
 30
0.0
  0
VERTEX
  5
1C46
  8
SAPA_PROFIL
 10
92.699999702077264
 20
-24.598715301569989
 30
0.0
 42
-0.4142139999999794
  0
VERTEX
  5
1C47
  8
SAPA_PROFIL
 10
92.499999702077275
 20
-24.79871530157002
 30
0.0
  0
VERTEX
  5
1C48
  8
SAPA_PROFIL
 10
79.499999702077261
 20
-24.79871530157002
 30
0.0
 42
-0.4142139999999962
  0
VERTEX
  5
1C49
  8
SAPA_PROFIL
 10
78.999999702077261
 20
-24.298715301570031
 30
0.0
  0
VERTEX
  5
1C4A
  8
SAPA_PROFIL
 10
78.999999702077261
 20
-23.593715301570011
 30
0.0
 42
-0.4142140000000128
  0
VERTEX
  5
1C4B
  8
SAPA_PROFIL
 10
79.499999702077261
 20
-23.093715301570011
 30
0.0
  0
VERTEX
  5
1C4C
  8
SAPA_PROFIL
 10
79.69999970207725
 20
-23.093715301570011
 30
0.0
 42
0.4142140000000127
  0
VERTEX
  5
1C4D
  8
SAPA_PROFIL
 10
80.199999702077264
 20
-22.593715301570011
 30
0.0
  0
VERTEX
  5
1C4E
  8
SAPA_PROFIL
 10
80.199999702077307
 20
-8.1937153015699771
 30
0.0
 42
0.4142139999999795
  0
VERTEX
  5
1C4F
  8
SAPA_PROFIL
 10
79.69999970207725
 20
-7.6937153015699691
 30
0.0
  0
VERTEX
  5
1C50
  8
SAPA_PROFIL
 10
78.999999702077261
 20
-7.6937153015699691
 30
0.0
 42
-0.4142140000000462
  0
VERTEX
  5
1C51
  8
SAPA_PROFIL
 10
78.499999702077261
 20
-7.1937153015699691
 30
0.0
  0
VERTEX
  5
1C52
  8
SAPA_PROFIL
 10
78.499999702077261
 20
2.5012846984300081
 30
0.0
 42
-0.4142140000000128
  0
VERTEX
  5
1C53
  8
SAPA_PROFIL
 10
78.999999702077261
 20
3.0012846984300081
 30
0.0
  0
VERTEX
  5
1C54
  8
SAPA_PROFIL
 10
96.283121702077267
 20
3.0012846984300099
 30
0.0
 42
-0.2679490000000162
  0
VERTEX
  5
1C55
  8
SAPA_PROFIL
 10
97.149146702077289
 20
2.5012846984300099
 30
0.0
  0
VERTEX
  5
1C56
  8
SAPA_PROFIL
 10
101.0462617020772
 20
-4.2487153015699892
 30
0.0
 42
-0.5773500000000551
  0
VERTEX
  5
1C57
  8
SAPA_PROFIL
 10
100.7864537020772
 20
-4.698715301569977
 30
0.0
  0
VERTEX
  5
1C58
  8
SAPA_PROFIL
 10
94.199999702077235
 20
-4.6987153015699992
 30
0.0
 42
0.4142140000000155
  0
VERTEX
  5
1C59
  8
SAPA_PROFIL
 10
92.699999702077264
 20
-6.1987153015700063
 30
0.0
  0
VERTEX
  5
1C5A
  8
SAPA_PROFIL
 10
92.699999702077264
 20
-6.3987153015700367
 30
0.0
  0
VERTEX
  5
1C5B
  8
SAPA_PROFIL
 10
92.699999702077307
 20
-6.4987153015700168
 30
0.0
 42
0.4142140000000836
  0
VERTEX
  5
1C5C
  8
SAPA_PROFIL
 10
92.999999702077275
 20
-6.7987153015700139
 30
0.0
  0
VERTEX
  5
1C5D
  8
SAPA_PROFIL
 10
94.399999702077238
 20
-6.7987153015701489
 30
0.0
 42
0.4142140000000351
  0
VERTEX
  5
1C5E
  8
SAPA_PROFIL
 10
94.69999970207725
 20
-6.4987153015700168
 30
0.0
  0
VERTEX
  5
1C5F
  8
SAPA_PROFIL
 10
94.69999970207725
 20
-6.3987153015700367
 30
0.0
 42
-0.4142139999998962
  0
SEQEND
  5
1C60
  8
SAPA_PROFIL
  0
POLYLINE
  5
13BC
  8
SAPA_PROFIL
 66
     1
 10
0.0
 20
0.0
 30
0.0
 70
     1
  0
VERTEX
  5
1C61
  8
SAPA_PROFIL
 10
101.47639370207931
 20
-68.598715301570095
 30
0.0
 42
0.2134220000000103
  0
VERTEX
  5
1C62
  8
SAPA_PROFIL
 10
101.2527867020794
 20
-68.498715301570073
 30
0.0
  0
VERTEX
  5
1C63
  8
SAPA_PROFIL
 10
97.399999702079384
 20
-68.498715301570073
 30
0.0
 42
-0.414213999999924
  0
VERTEX
  5
1C64
  8
SAPA_PROFIL
 10
97.099999702079316
 20
-68.198715301570118
 30
0.0
  0
VERTEX
  5
1C65
  8
SAPA_PROFIL
 10
97.099999702079387
 20
-67.898715301570107
 30
0.0
  0
VERTEX
  5
1C66
  8
SAPA_PROFIL
 10
98.023760702079386
 20
-66.298715301570084
 30
0.0
 42
0.5773500000001196
  0
VERTEX
  5
1C67
  8
SAPA_PROFIL
 10
97.85055570207939
 20
-65.998715301570073
 30
0.0
  0
VERTEX
  5
1C68
  8
SAPA_PROFIL
 10
96.464914702079369
 20
-65.998715301570073
 30
0.0
 42
0.2679489999999719
  0
VERTEX
  5
1C69
  8
SAPA_PROFIL
 10
95.59888970207939
 20
-66.498715301570073
 30
0.0
  0
VERTEX
  5
1C6A
  8
SAPA_PROFIL
 10
94.588526702079406
 20
-68.248715301570073
 30
0.0
 42
-0.267949000000012
  0
VERTEX
  5
1C6B
  8
SAPA_PROFIL
 10
94.155513702079389
 20
-68.498715301570201
 30
0.0
  0
VERTEX
  5
1C6C
  8
SAPA_PROFIL
 10
84.144486702079377
 20
-68.498715301570087
 30
0.0
 42
-0.2679490000000104
  0
VERTEX
  5
1C6D
  8
SAPA_PROFIL
 10
83.711473702079445
 20
-68.248715301570059
 30
0.0
  0
VERTEX
  5
1C6E
  8
SAPA_PROFIL
 10
82.701110702079376
 20
-66.498715301570073
 30
0.0
 42
0.2679489999999809
  0
VERTEX
  5
1C6F
  8
SAPA_PROFIL
 10
81.835085702079397
 20
-65.998715301570073
 30
0.0
  0
VERTEX
  5
1C70
  8
SAPA_PROFIL
 10
80.449444702079376
 20
-65.998715301570073
 30
0.0
 42
0.5773500000001198
  0
VERTEX
  5
1C71
  8
SAPA_PROFIL
 10
80.276239702079394
 20
-66.298715301570084
 30
0.0
  0
VERTEX
  5
1C72
  8
SAPA_PROFIL
 10
81.199999702079396
 20
-67.898715301570107
 30
0.0
  0
VERTEX
  5
1C73
  8
SAPA_PROFIL
 10
81.199999702079396
 20
-68.198715301570118
 30
0.0
 42
-0.4142139999999795
  0
VERTEX
  5
1C74
  8
SAPA_PROFIL
 10
80.899999702079384
 20
-68.498715301569945
 30
0.0
  0
VERTEX
  5
1C75
  8
SAPA_PROFIL
 10
77.047213702079404
 20
-68.498715301570087
 30
0.0
 42
0.2134217652834391
  0
VERTEX
  5
1C76
  8
SAPA_PROFIL
 10
76.823606904329296
 20
-68.598715301570195
 30
0.0
 42
-0.7625858545243247
  0
VERTEX
  5
1C77
  8
SAPA_PROFIL
 10
76.49328082331229
 20
-68.414136099372726
 30
0.0
  0
VERTEX
  5
1C78
  8
SAPA_PROFIL
 10
76.551354460301383
 20
-68.222753099379005
 30
0.0
  0
VERTEX
  5
1C79
  8
SAPA_PROFIL
 10
77.635918907273123
 20
-66.33690940751795
 30
0.0
  0
VERTEX
  5
1C7A
  8
SAPA_PROFIL
 10
77.957676635491367
 20
-66.347470773744931
 30
0.0
 42
0.5773502691897466
  0
VERTEX
  5
1C7B
  8
SAPA_PROFIL
 10
78.140630375601546
 20
-66.05331447349009
 30
0.0
  0
VERTEX
  5
1C7C
  8
SAPA_PROFIL
 10
77.988496464492783
 20
-65.768632190258444
 30
0.0
 42
0.2216946626430194
  0
VERTEX
  5
1C7D
  8
SAPA_PROFIL
 10
77.447616633015997
 20
-65.362823285103659
 30
0.0
  0
VERTEX
  5
1C7E
  8
SAPA_PROFIL
 10
75.634386162357742
 20
-64.981376688975942
 30
0.0
 42
0.4769755326981641
  0
VERTEX
  5
1C7F
  8
SAPA_PROFIL
 10
75.262729287411872
 20
-65.28362951348241
 30
0.0
  0
VERTEX
  5
1C80
  8
SAPA_PROFIL
 10
75.262812895295525
 20
-66.786730594244418
 30
0.0
  0
VERTEX
  5
1C81
  8
SAPA_PROFIL
 10
75.310658645294012
 20
-66.80124900349152
 30
0.0
 42
-0.4142135623730951
  0
VERTEX
  5
1C82
  8
SAPA_PROFIL
 10
75.510622689801409
 20
-67.175433958967332
 30
0.0
  0
VERTEX
  5
1C83
  8
SAPA_PROFIL
 10
74.999999702079464
 20
-68.496551963668338
 30
0.0
  0
VERTEX
  5
1C84
  8
SAPA_PROFIL
 10
74.999999702079407
 20
-69.736611301570107
 30
0.0
 42
0.2914730000000021
  0
VERTEX
  5
1C85
  8
SAPA_PROFIL
 10
75.577381702079407
 20
-70.642919301570075
 30
0.0
  0
VERTEX
  5
1C86
  8
SAPA_PROFIL
 10
78.069521702079413
 20
-71.805023301570074
 30
0.0
 42
0.3888789999999682
  0
VERTEX
  5
1C87
  8
SAPA_PROFIL
 10
79.35816570207939
 20
-71.398715301570107
 30
0.0
  0
VERTEX
  5
1C88
  8
SAPA_PROFIL
 10
79.444768702079415
 20
-71.248715301570073
 30
0.0
 42
-0.2679490000000116
  0
VERTEX
  5
1C89
  8
SAPA_PROFIL
 10
79.877780702079363
 20
-70.99871530157003
 30
0.0
  0
VERTEX
  5
1C8A
  8
SAPA_PROFIL
 10
87.999999702079407
 20
-70.998715301570073
 30
0.0
 42
-0.4142139999999962
  0
VERTEX
  5
1C8B
  8
SAPA_PROFIL
 10
88.999999702079464
 20
-71.998715301570073
 30
0.0
  0
VERTEX
  5
1C8C
  8
SAPA_PROFIL
 10
88.999999702079407
 20
-73.348715301570095
 30
0.0
 42
-0.4142140000000128
  0
VERTEX
  5
1C8D
  8
SAPA_PROFIL
 10
88.499999702079407
 20
-73.848715301570095
 30
0.0
  0
VERTEX
  5
1C8E
  8
SAPA_PROFIL
 10
85.367767483265965
 20
-73.848715301570095
 30
0.0
 42
0.198912367379658
  0
VERTEX
  5
1C8F
  8
SAPA_PROFIL
 10
83.953553920892844
 20
-74.434501739197003
 30
0.0
  0
VERTEX
  5
1C90
  8
SAPA_PROFIL
 10
81.220260305848313
 20
-77.167795354241562
 30
0.0
 42
1.000556671980007
  0
VERTEX
  5
1C91
  8
SAPA_PROFIL
 10
82.280330702079397
 20
-78.22904530157011
 30
0.0
  0
VERTEX
  5
1C92
  8
SAPA_PROFIL
 10
84.914213702079437
 20
-75.595162301570085
 30
0.0
 42
-0.1989120000000246
  0
VERTEX
  5
1C93
  8
SAPA_PROFIL
 10
85.267766702079399
 20
-75.448715301570076
 30
0.0
  0
VERTEX
  5
1C94
  8
SAPA_PROFIL
 10
88.499999702079407
 20
-75.448715301570118
 30
0.0
 42
-0.4142140000000129
  0
VERTEX
  5
1C95
  8
SAPA_PROFIL
 10
88.999999702079407
 20
-75.948715301570104
 30
0.0
  0
VERTEX
  5
1C96
  8
SAPA_PROFIL
 10
88.999999702079407
 20
-82.948715301570118
 30
0.0
 42
-0.4142140000000128
  0
VERTEX
  5
1C97
  8
SAPA_PROFIL
 10
88.499999702079407
 20
-83.448715301570118
 30
0.0
  0
VERTEX
  5
1C98
  8
SAPA_PROFIL
 10
81.299999702079418
 20
-83.448715301570047
 30
0.0
 42
0.4142140000000351
  0
VERTEX
  5
1C99
  8
SAPA_PROFIL
 10
80.999999702079407
 20
-83.748715301570059
 30
0.0
  0
VERTEX
  5
1C9A
  8
SAPA_PROFIL
 10
80.999999702079407
 20
-83.91093830157007
 30
0.0
 42
0.3482370000000729
  0
VERTEX
  5
1C9B
  8
SAPA_PROFIL
 10
81.231494702079388
 20
-84.203012301570055
 30
0.0
  0
VERTEX
  5
1C9C
  8
SAPA_PROFIL
 10
84.837169702079407
 20
-85.048715301570013
 30
0.0
  0
VERTEX
  5
1C9D
  8
SAPA_PROFIL
 10
88.499999702079407
 20
-85.048715301570013
 30
0.0
 42
-0.4142139999999796
  0
VERTEX
  5
1C9E
  8
SAPA_PROFIL
 10
88.999999702079464
 20
-85.548715301570027
 30
0.0
  0
VERTEX
  5
1C9F
  8
SAPA_PROFIL
 10
88.999999702079407
 20
-87.998715301570073
 30
0.0
 42
-0.414214000000017
  0
VERTEX
  5
1CA0
  8
SAPA_PROFIL
 10
88.499999702079407
 20
-88.498715301570087
 30
0.0
 42
0.4142140000000127
  0
VERTEX
  5
1CA1
  8
SAPA_PROFIL
 10
87.999999702079407
 20
-88.998715301570073
 30
0.0
  0
VERTEX
  5
1CA2
  8
SAPA_PROFIL
 10
87.999999702079407
 20
-89.998715301570059
 30
0.0
 42
0.414214000000017
  0
VERTEX
  5
1CA3
  8
SAPA_PROFIL
 10
88.499999702079407
 20
-90.498715301570073
 30
0.0
  0
VERTEX
  5
1CA4
  8
SAPA_PROFIL
 10
124.99999970207941
 20
-90.498715301570073
 30
0.0
  0
VERTEX
  5
1CA5
  8
SAPA_PROFIL
 10
125.49999970207941
 20
-89.998715301570059
 30
0.0
  0
VERTEX
  5
1CA6
  8
SAPA_PROFIL
 10
125.49999970207941
 20
-86.298715301570013
 30
0.0
 42
0.4142139999999863
  0
VERTEX
  5
1CA7
  8
SAPA_PROFIL
 10
125.1999997020794
 20
-85.998715301570087
 30
0.0
  0
VERTEX
  5
1CA8
  8
SAPA_PROFIL
 10
124.43245570207939
 20
-85.998715301570087
 30
0.0
 42
0.2896899999999678
  0
VERTEX
  5
1CA9
  8
SAPA_PROFIL
 10
123.52894770207941
 20
-86.570144301570025
 30
0.0
 42
0.5507599999999711
  0
VERTEX
  5
1CAA
  8
SAPA_PROFIL
 10
123.7999997020794
 20
-86.998715301570073
 30
0.0
  0
VERTEX
  5
1CAB
  8
SAPA_PROFIL
 10
123.99999970207941
 20
-86.998715301570073
 30
0.0
 42
-0.4142139999998755
  0
VERTEX
  5
1CAC
  8
SAPA_PROFIL
 10
124.2999997020794
 20
-87.298715301570027
 30
0.0
  0
VERTEX
  5
1CAD
  8
SAPA_PROFIL
 10
124.2999997020794
 20
-88.798715301570013
 30
0.0
 42
-0.4142140000000503
  0
VERTEX
  5
1CAE
  8
SAPA_PROFIL
 10
123.7999997020794
 20
-89.298715301570056
 30
0.0
  0
VERTEX
  5
1CAF
  8
SAPA_PROFIL
 10
120.49999970207941
 20
-89.298715301570027
 30
0.0
 42
-0.4142140000000419
  0
VERTEX
  5
1CB0
  8
SAPA_PROFIL
 10
119.99999970207941
 20
-88.798715301570013
 30
0.0
  0
VERTEX
  5
1CB1
  8
SAPA_PROFIL
 10
119.99999970207941
 20
-87.298715301570027
 30
0.0
 42
-0.4142139999999794
  0
VERTEX
  5
1CB2
  8
SAPA_PROFIL
 10
120.2999997020794
 20
-86.998715301570186
 30
0.0
  0
VERTEX
  5
1CB3
  8
SAPA_PROFIL
 10
120.49999970207941
 20
-86.998715301570073
 30
0.0
 42
0.5507599999999436
  0
VERTEX
  5
1CB4
  8
SAPA_PROFIL
 10
120.7710527020794
 20
-86.570144301570025
 30
0.0
 42
0.2896899999999595
  0
VERTEX
  5
1CB5
  8
SAPA_PROFIL
 10
119.8675447020794
 20
-85.998715301570087
 30
0.0
  0
VERTEX
  5
1CB6
  8
SAPA_PROFIL
 10
118.8700727020794
 20
-85.998715301570087
 30
0.0
 42
0.0436610000000022
  0
VERTEX
  5
1CB7
  8
SAPA_PROFIL
 10
118.7832487020794
 20
-86.006311301570094
 30
0.0
  0
VERTEX
  5
1CB8
  8
SAPA_PROFIL
 10
117.2131757020794
 20
-86.283158301570083
 30
0.0
 42
0.8391000000000101
  0
VERTEX
  5
1CB9
  8
SAPA_PROFIL
 10
117.2131757020794
 20
-87.267965301570086
 30
0.0
  0
VERTEX
  5
1CBA
  8
SAPA_PROFIL
 10
118.38682470207939
 20
-87.474911301570032
 30
0.0
 42
-0.3639700000000376
  0
VERTEX
  5
1CBB
  8
SAPA_PROFIL
 10
118.7999997020794
 20
-87.96731530157011
 30
0.0
  0
VERTEX
  5
1CBC
  8
SAPA_PROFIL
 10
118.7999997020794
 20
-88.798715301570013
 30
0.0
 42
-0.437328000000032
  0
VERTEX
  5
1CBD
  8
SAPA_PROFIL
 10
118.2609057020794
 20
-89.29718530157011
 30
0.0
  0
VERTEX
  5
1CBE
  8
SAPA_PROFIL
 10
103.78784670207941
 20
-88.710386301570097
 30
0.0
 42
-0.4023939999998692
  0
VERTEX
  5
1CBF
  8
SAPA_PROFIL
 10
103.49999970207929
 20
-88.410632301570104
 30
0.0
  0
VERTEX
  5
1CC0
  8
SAPA_PROFIL
 10
103.49999970207941
 20
-87.610099301570074
 30
0.0
 42
0.259680999999983
  0
VERTEX
  5
1CC1
  8
SAPA_PROFIL
 10
103.4053067020794
 20
-87.440068301570079
 30
0.0
  0
VERTEX
  5
1CC2
  8
SAPA_PROFIL
 10
101.9579607020794
 20
-86.543669301570006
 30
0.0
 42
0.5877029999999889
  0
VERTEX
  5
1CC3
  8
SAPA_PROFIL
 10
101.49999970207941
 20
-86.798715301570027
 30
0.0
  0
VERTEX
  5
1CC4
  8
SAPA_PROFIL
 10
101.49999970207941
 20
-88.198715301570076
 30
0.0
 42
-0.4142140000000349
  0
VERTEX
  5
1CC5
  8
SAPA_PROFIL
 10
101.1999997020794
 20
-88.498715301569945
 30
0.0
  0
VERTEX
  5
1CC6
  8
SAPA_PROFIL
 10
98.799999702079418
 20
-88.498715301570087
 30
0.0
 42
-0.4142140000000349
  0
VERTEX
  5
1CC7
  8
SAPA_PROFIL
 10
98.499999702079293
 20
-88.198715301570076
 30
0.0
  0
VERTEX
  5
1CC8
  8
SAPA_PROFIL
 10
98.499999702079407
 20
-80.018331301570115
 30
0.0
  0
VERTEX
  5
1CC9
  8
SAPA_PROFIL
 10
98.199999702079396
 20
-79.498715301570059
 30
0.0
  0
VERTEX
  5
1CCA
  8
SAPA_PROFIL
 10
98.499999702079407
 20
-78.979100301570085
 30
0.0
  0
VERTEX
  5
1CCB
  8
SAPA_PROFIL
 10
98.499999702079407
 20
-70.798715301570056
 30
0.0
 42
-0.4142135623730882
  0
VERTEX
  5
1CCC
  8
SAPA_PROFIL
 10
98.799999702079404
 20
-70.498715301570073
 30
0.0
  0
VERTEX
  5
1CCD
  8
SAPA_PROFIL
 10
101.1999997020794
 20
-70.498715301570044
 30
0.0
 42
-0.4142135623730882
  0
VERTEX
  5
1CCE
  8
SAPA_PROFIL
 10
101.49999970207941
 20
-70.798715301570056
 30
0.0
  0
VERTEX
  5
1CCF
  8
SAPA_PROFIL
 10
101.49999970207941
 20
-72.198715301570104
 30
0.0
 42
0.5877029999999041
  0
VERTEX
  5
1CD0
  8
SAPA_PROFIL
 10
101.9579607020794
 20
-72.453762301570109
 30
0.0
  0
VERTEX
  5
1CD1
  8
SAPA_PROFIL
 10
103.2053067020794
 20
-71.6612303015701
 30
0.0
 42
0.2596809999999552
  0
VERTEX
  5
1CD2
  8
SAPA_PROFIL
 10
103.2999997020794
 20
-71.491200301570103
 30
0.0
  0
VERTEX
  5
1CD3
  8
SAPA_PROFIL
 10
103.2999997020794
 20
-68.496549376401504
 30
0.0
  0
VERTEX
  5
1CD4
  8
SAPA_PROFIL
 10
102.7893777143574
 20
-67.175433958967332
 30
0.0
 42
-0.4142135623730953
  0
VERTEX
  5
1CD5
  8
SAPA_PROFIL
 10
102.9893417588648
 20
-66.80124900349152
 30
0.0
  0
VERTEX
  5
1CD6
  8
SAPA_PROFIL
 10
103.0371875088633
 20
-66.786730594244418
 30
0.0
  0
VERTEX
  5
1CD7
  8
SAPA_PROFIL
 10
103.03727111674689
 20
-65.28362951348241
 30
0.0
 42
0.4769755326981643
  0
VERTEX
  5
1CD8
  8
SAPA_PROFIL
 10
102.66561424180109
 20
-64.981376688975942
 30
0.0
  0
VERTEX
  5
1CD9
  8
SAPA_PROFIL
 10
100.8523837711428
 20
-65.362823285103659
 30
0.0
 42
0.2216946626430194
  0
VERTEX
  5
1CDA
  8
SAPA_PROFIL
 10
100.3115039396661
 20
-65.768632190258444
 30
0.0
  0
VERTEX
  5
1CDB
  8
SAPA_PROFIL
 10
100.1593700285573
 20
-66.053314473490104
 30
0.0
 42
0.5773502691897466
  0
VERTEX
  5
1CDC
  8
SAPA_PROFIL
 10
100.3423237686675
 20
-66.347470773744917
 30
0.0
  0
VERTEX
  5
1CDD
  8
SAPA_PROFIL
 10
100.6640814968857
 20
-66.33690940751795
 30
0.0
  0
VERTEX
  5
1CDE
  8
SAPA_PROFIL
 10
101.7486459438574
 20
-68.222753099379005
 30
0.0
  0
VERTEX
  5
1CDF
  8
SAPA_PROFIL
 10
101.8067195808465
 20
-68.414136099372712
 30
0.0
 42
-0.7625858545243257
  0
VERTEX
  5
1CE0
  8
SAPA_PROFIL
 10
101.4763934998295
 20
-68.598715301570195
 30
0.0
  0
SEQEND
  5
1CE1
  8
SAPA_PROFIL
  0
POLYLINE
  5
13BD
  8
SAPA_PROFIL
 66
     1
 10
0.0
 20
0.0
 30
0.0
 70
     1
  0
VERTEX
  5
1CE2
  8
SAPA_PROFIL
 10
90.999999702079407
 20
-70.198715301570104
 30
0.0
  0
VERTEX
  5
1CE3
  8
SAPA_PROFIL
 10
96.499999702079407
 20
-70.198715301570104
 30
0.0
 42
-0.4142139999999252
  0
VERTEX
  5
1CE4
  8
SAPA_PROFIL
 10
96.799999702079418
 20
-70.498715301570073
 30
0.0
  0
VERTEX
  5
1CE5
  8
SAPA_PROFIL
 10
96.799999702079418
 20
-88.498715301570087
 30
0.0
 42
-0.4142139999998691
  0
VERTEX
  5
1CE6
  8
SAPA_PROFIL
 10
96.499999702079407
 20
-88.798715301570013
 30
0.0
  0
VERTEX
  5
1CE7
  8
SAPA_PROFIL
 10
90.999999702079407
 20
-88.798715301570013
 30
0.0
 42
-0.4142135623730951
  0
VERTEX
  5
1CE8
  8
SAPA_PROFIL
 10
90.699999702079396
 20
-88.498715301570087
 30
0.0
  0
VERTEX
  5
1CE9
  8
SAPA_PROFIL
 10
90.699999702079396
 20
-70.498715301570073
 30
0.0
 42
-0.4142139999999803
  0
SEQEND
  5
1CEA
  8
SAPA_PROFIL
  0
POLYLINE
  5
13BE
  8
SAPA_PROFIL
 62
     4
 66
     1
 10
0.0
 20
0.0
 30
0.0
  0
VERTEX
  5
1CEB
  8
SAPA_PROFIL
 62
     4
 10
100.5944285379655
 20
-38.449386179215637
 30
0.0
 42
0.5571646428658034
  0
VERTEX
  5
1CEC
  8
SAPA_PROFIL
 62
     4
 10
99.726709623809953
 20
-38.986346683352473
 30
0.0
  0
VERTEX
  5
1CED
  8
SAPA_PROFIL
 62
     4
 10
99.726709623810393
 20
-56.011083919873663
 30
0.0
 42
0.5571645048035741
  0
VERTEX
  5
1CEE
  8
SAPA_PROFIL
 62
     4
 10
100.5944283116765
 20
-56.548044536834723
 30
0.0
  0
VERTEX
  5
1CEF
  8
SAPA_PROFIL
 62
     4
 10
102.2605689677446
 20
-55.717337449288031
 30
0.0
 42
0.284385813979063
  0
VERTEX
  5
1CF0
  8
SAPA_PROFIL
 62
     4
 10
102.426709623812
 20
-55.448857140807668
 30
0.0
  0
VERTEX
  5
1CF1
  8
SAPA_PROFIL
 62
     4
 10
102.426709623812
 20
-39.548573462418361
 30
0.0
 42
0.2843858139786238
  0
VERTEX
  5
1CF2
  8
SAPA_PROFIL
 62
     4
 10
102.2605689677451
 20
-39.280093153938083
 30
0.0
  0
VERTEX
  5
1CF3
  8
SAPA_PROFIL
 62
     4
 10
100.5944283116757
 20
-38.449386066390922
 30
0.0
  0
SEQEND
  5
1CF4
  8
SAPA_PROFIL
 62
     4
  0
POLYLINE
  5
13BF
  8
SAPA_PROFIL
 62
     4
 66
     1
 10
0.0
 20
0.0
 30
0.0
 70
     1
  0
VERTEX
  5
1CF5
  8
SAPA_PROFIL
 62
     4
 10
102.7835411383096
 20
-61.916326486280312
 30
0.0
  0
VERTEX
  5
1CF6
  8
SAPA_PROFIL
 62
     4
 10
103.1901013343137
 20
-62.180349764656327
 30
0.0
 42
-0.2539676464751066
  0
VERTEX
  5
1CF7
  8
SAPA_PROFIL
 62
     4
 10
103.3267096238098
 20
-62.43195093504103
 30
0.0
  0
VERTEX
  5
1CF8
  8
SAPA_PROFIL
 62
     4
 10
103.3267096238098
 20
-63.813450520246377
 30
0.0
 42
-0.3152987888790479
  0
VERTEX
  5
1CF9
  8
SAPA_PROFIL
 62
     4
 10
102.9977196954717
 20
-64.28329683063869
 30
0.0
  0
VERTEX
  5
1CFA
  8
SAPA_PROFIL
 62
     4
 10
100.5368895050204
 20
-65.178965771547297
 30
0.0
 42
0.2694959974287434
  0
VERTEX
  5
1CFB
  8
SAPA_PROFIL
 62
     4
 10
100.3437575306765
 20
-65.410484817948657
 30
0.0
 42
0.0612686379508233
  0
VERTEX
  5
1CFC
  8
SAPA_PROFIL
 62
     4
 10
100.330174160046
 20
-65.703160250801929
 30
0.0
  0
VERTEX
  5
1CFD
  8
SAPA_PROFIL
 62
     4
 10
100.12843748131721
 20
-66.052578428110195
 30
0.0
 42
0.5773502691891679
  0
VERTEX
  5
1CFE
  8
SAPA_PROFIL
 62
     4
 10
100.3103028161117
 20
-66.36757842810978
 30
0.0
  0
VERTEX
  5
1CFF
  8
SAPA_PROFIL
 62
     4
 10
100.577417344238
 20
-66.367578428110022
 30
0.0
  0
VERTEX
  5
1D00
  8
SAPA_PROFIL
 62
     4
 10
101.38610080554631
 20
-67.766106128744269
 30
0.0
 42
-0.1318219888653519
  0
VERTEX
  5
1D01
  8
SAPA_PROFIL
 62
     4
 10
101.4263932020837
 20
-67.91627923121662
 30
0.0
  0
VERTEX
  5
1D02
  8
SAPA_PROFIL
 62
     4
 10
101.42639320207741
 20
-68.098715301653399
 30
0.0
 42
-0.4142135623724291
  0
VERTEX
  5
1D03
  8
SAPA_PROFIL
 62
     4
 10
101.0263932020778
 20
-68.498715301653945
 30
0.0
  0
VERTEX
  5
1D04
  8
SAPA_PROFIL
 62
     4
 10
97.62639320207677
 20
-68.498715301652581
 30
0.0
 42
-0.4142135623744271
  0
VERTEX
  5
1D05
  8
SAPA_PROFIL
 62
     4
 10
97.226393202075755
 20
-68.098715301653399
 30
0.0
  0
VERTEX
  5
1D06
  8
SAPA_PROFIL
 62
     4
 10
97.226393202075116
 20
-67.919100059382103
 30
0.0
 42
-0.1316524975874005
  0
VERTEX
  5
1D07
  8
SAPA_PROFIL
 62
     4
 10
97.266585580940713
 20
-67.769100059385281
 30
0.0
  0
VERTEX
  5
1D08
  8
SAPA_PROFIL
 62
     4
 10
98.192735027593258
 20
-66.16496216238302
 30
0.0
 42
0.1316524975875904
  0
VERTEX
  5
1D09
  8
SAPA_PROFIL
 62
     4
 10
98.326709623808014
 20
-65.664962162381315
 30
0.0
  0
VERTEX
  5
1D0A
  8
SAPA_PROFIL
 62
     4
 10
98.326709623808014
 20
-65.248715301653945
 30
0.0
 42
0.4142135623730951
  0
VERTEX
  5
1D0B
  8
SAPA_PROFIL
 62
     4
 10
97.326709623808028
 20
-64.248715301653945
 30
0.0
  0
VERTEX
  5
1D0C
  8
SAPA_PROFIL
 62
     4
 10
94.326709623810757
 20
-64.248715301653945
 30
0.0
 42
-0.9999996830128083
  0
VERTEX
  5
1D0D
  8
SAPA_PROFIL
 62
     4
 10
94.326709623808938
 20
-63.248715301653952
 30
0.0
  0
VERTEX
  5
1D0E
  8
SAPA_PROFIL
 62
     4
 10
97.326709623808924
 20
-63.248715301653952
 30
0.0
 42
0.4142135623730951
  0
VERTEX
  5
1D0F
  8
SAPA_PROFIL
 62
     4
 10
98.326709623808952
 20
-62.248715301653938
 30
0.0
  0
VERTEX
  5
1D10
  8
SAPA_PROFIL
 62
     4
 10
98.326709623808952
 20
-32.748715301569362
 30
0.0
 42
0.4142135623730951
  0
VERTEX
  5
1D11
  8
SAPA_PROFIL
 62
     4
 10
97.326709623808924
 20
-31.748715301569369
 30
0.0
  0
VERTEX
  5
1D12
  8
SAPA_PROFIL
 62
     4
 10
94.326709623810757
 20
-31.748715301569369
 30
0.0
 42
-0.9999999999999998
  0
VERTEX
  5
1D13
  8
SAPA_PROFIL
 62
     4
 10
94.326709623810757
 20
-30.748715301569359
 30
0.0
  0
VERTEX
  5
1D14
  8
SAPA_PROFIL
 62
     4
 10
97.326709623808924
 20
-30.748715301569359
 30
0.0
 42
0.4142135623736278
  0
VERTEX
  5
1D15
  8
SAPA_PROFIL
 62
     4
 10
98.326709623808952
 20
-29.748715301569359
 30
0.0
  0
VERTEX
  5
1D16
  8
SAPA_PROFIL
 62
     4
 10
98.326709623808952
 20
-29.332468440842899
 30
0.0
 42
0.1316524975874375
  0
VERTEX
  5
1D17
  8
SAPA_PROFIL
 62
     4
 10
98.192735027592903
 20
-28.83246844084271
 30
0.0
  0
VERTEX
  5
1D18
  8
SAPA_PROFIL
 62
     4
 10
97.266585580940713
 20
-27.228330543840752
 30
0.0
 42
-0.1316524975874
  0
VERTEX
  5
1D19
  8
SAPA_PROFIL
 62
     4
 10
97.226393202075116
 20
-27.078330543841211
 30
0.0
  0
VERTEX
  5
1D1A
  8
SAPA_PROFIL
 62
     4
 10
97.226393202075755
 20
-26.898715301569911
 30
0.0
 42
-0.4142135623744271
  0
VERTEX
  5
1D1B
  8
SAPA_PROFIL
 62
     4
 10
97.62639320207677
 20
-26.49871530157073
 30
0.0
  0
VERTEX
  5
1D1C
  8
SAPA_PROFIL
 62
     4
 10
101.0263932020778
 20
-26.498715301569359
 30
0.0
 42
-0.4142135623724291
  0
VERTEX
  5
1D1D
  8
SAPA_PROFIL
 62
     4
 10
101.42639320207741
 20
-26.898715301569911
 30
0.0
  0
VERTEX
  5
1D1E
  8
SAPA_PROFIL
 62
     4
 10
101.4263932020837
 20
-27.081151372006691
 30
0.0
 42
-0.1318219888653524
  0
VERTEX
  5
1D1F
  8
SAPA_PROFIL
 62
     4
 10
101.38610080554631
 20
-27.231324474479031
 30
0.0
  0
VERTEX
  5
1D20
  8
SAPA_PROFIL
 62
     4
 10
100.577417344322
 20
-28.629852174958678
 30
0.0
  0
VERTEX
  5
1D21
  8
SAPA_PROFIL
 62
     4
 10
100.310302816109
 20
-28.629852174958678
 30
0.0
 42
0.577350269189159
  0
VERTEX
  5
1D22
  8
SAPA_PROFIL
 62
     4
 10
100.12843748131441
 20
-28.944852174958289
 30
0.0
  0
VERTEX
  5
1D23
  8
SAPA_PROFIL
 62
     4
 10
100.3301741599915
 20
-29.294270352176941
 30
0.0
 42
0.0612687673629489
  0
VERTEX
  5
1D24
  8
SAPA_PROFIL
 62
     4
 10
100.34375753067771
 20
-29.586945785277159
 30
0.0
 42
0.2694959974285039
  0
VERTEX
  5
1D25
  8
SAPA_PROFIL
 62
     4
 10
100.5368895050217
 20
-29.81846483167768
 30
0.0
  0
VERTEX
  5
1D26
  8
SAPA_PROFIL
 62
     4
 10
102.9977196954748
 20
-30.714133772587349
 30
0.0
 42
-0.3152987888784035
  0
VERTEX
  5
1D27
  8
SAPA_PROFIL
 62
     4
 10
103.3267096238114
 20
-31.183980082980568
 30
0.0
  0
VERTEX
  5
1D28
  8
SAPA_PROFIL
 62
     4
 10
103.3267096238098
 20
-32.565479668185013
 30
0.0
 42
-0.2539676464741841
  0
VERTEX
  5
1D29
  8
SAPA_PROFIL
 62
     4
 10
103.1901013343146
 20
-32.81708083856909
 30
0.0
  0
VERTEX
  5
1D2A
  8
SAPA_PROFIL
 62
     4
 10
102.7835411383096
 20
-33.081104116945731
 30
0.0
 42
-0.5862177598324623
  0
VERTEX
  5
1D2B
  8
SAPA_PROFIL
 62
     4
 10
102.3267096238131
 20
-32.825362301707379
 30
0.0
  0
VERTEX
  5
1D2C
  8
SAPA_PROFIL
 62
     4
 10
102.3267096238207
 20
-31.884187621197569
 30
0.0
 42
0.3152987888813165
  0
VERTEX
  5
1D2D
  8
SAPA_PROFIL
 62
     4
 10
101.99771969548399
 20
-31.414341310799809
 30
0.0
  0
VERTEX
  5
1D2E
  8
SAPA_PROFIL
 62
     4
 10
100.79771969547269
 20
-30.97757702967586
 30
0.0
 42
0.5205670505515651
  0
VERTEX
  5
1D2F
  8
SAPA_PROFIL
 62
     4
 10
100.12670962381
 20
-31.447423340069079
 30
0.0
  0
VERTEX
  5
1D30
  8
SAPA_PROFIL
 62
     4
 10
100.12670962381
 20
-36.46386428073793
 30
0.0
 42
0.3702522326300203
  0
VERTEX
  5
1D31
  8
SAPA_PROFIL
 62
     4
 10
100.3811695764757
 20
-36.760387642531263
 30
0.0
 42
0.0982365330332397
  0
VERTEX
  5
1D32
  8
SAPA_PROFIL
 62
     4
 10
102.0688563514707
 20
-36.8508404007422
 30
0.0
 42
0.3735060174783164
  0
VERTEX
  5
1D33
  8
SAPA_PROFIL
 62
     4
 10
102.3267096238107
 20
-36.553815732831218
 30
0.0
  0
VERTEX
  5
1D34
  8
SAPA_PROFIL
 62
     4
 10
102.3267096238116
 20
-36.12536230170857
 30
0.0
 42
-0.5920056181162531
  0
VERTEX
  5
1D35
  8
SAPA_PROFIL
 62
     4
 10
102.7879131263396
 20
-35.872353545391157
 30
0.0
  0
VERTEX
  5
1D36
  8
SAPA_PROFIL
 62
     4
 10
103.1901013343179
 20
-36.133537621546857
 30
0.0
 42
-0.2539676464746725
  0
VERTEX
  5
1D37
  8
SAPA_PROFIL
 62
     4
 10
103.3267096238132
 20
-36.385138791930629
 30
0.0
  0
VERTEX
  5
1D38
  8
SAPA_PROFIL
 62
     4
 10
103.3267096238116
 20
-58.612291811296309
 30
0.0
 42
-0.2539676464741819
  0
VERTEX
  5
1D39
  8
SAPA_PROFIL
 62
     4
 10
103.1901013343179
 20
-58.863892981679172
 30
0.0
  0
VERTEX
  5
1D3A
  8
SAPA_PROFIL
 62
     4
 10
102.7879131263395
 20
-59.125077057832982
 30
0.0
 42
-0.5920055144124249
  0
VERTEX
  5
1D3B
  8
SAPA_PROFIL
 62
     4
 10
102.3267096238116
 20
-58.872068301517473
 30
0.0
  0
VERTEX
  5
1D3C
  8
SAPA_PROFIL
 62
     4
 10
102.32670964908669
 20
-58.443614824227247
 30
0.0
 42
0.3735060174775405
  0
VERTEX
  5
1D3D
  8
SAPA_PROFIL
 62
     4
 10
102.0688563767466
 20
-58.146590156317572
 30
0.0
 42
0.0355900683670349
  0
VERTEX
  5
1D3E
  8
SAPA_PROFIL
 62
     4
 10
101.4529827899468
 20
-58.102696592285312
 30
0.0
 42
0.0624282003873116
  0
VERTEX
  5
1D3F
  8
SAPA_PROFIL
 62
     4
 10
100.38116960175159
 20
-58.237042914528253
 30
0.0
 42
0.3702522326309292
  0
VERTEX
  5
1D40
  8
SAPA_PROFIL
 62
     4
 10
100.1267096490859
 20
-58.533566276321622
 30
0.0
  0
VERTEX
  5
1D41
  8
SAPA_PROFIL
 62
     4
 10
100.1267096238098
 20
-63.55000726315513
 30
0.0
 42
0.5205670505515692
  0
VERTEX
  5
1D42
  8
SAPA_PROFIL
 62
     4
 10
100.79771969547269
 20
-64.01985357354836
 30
0.0
  0
VERTEX
  5
1D43
  8
SAPA_PROFIL
 62
     4
 10
101.9977196954822
 20
-63.583089292423402
 30
0.0
 42
0.3152987888807539
  0
VERTEX
  5
1D44
  8
SAPA_PROFIL
 62
     4
 10
102.3267096238198
 20
-63.11324298202755
 30
0.0
  0
VERTEX
  5
1D45
  8
SAPA_PROFIL
 62
     4
 10
102.326709623813
 20
-62.172068301518472
 30
0.0
 42
-0.5862175119221242
  0
VERTEX
  5
1D46
  8
SAPA_PROFIL
 62
     4
 10
102.78354094956811
 20
-61.91632637053651
 30
0.0
 42
0.0000002084758573
  0
SEQEND
  5
1D47
  8
SAPA_PROFIL
 62
     4
  0
POLYLINE
  5
13C0
  8
SAPA_PROFIL
 62
     4
 66
     1
 10
0.0
 20
0.0
 30
0.0
  0
VERTEX
  5
1D48
  8
SAPA_PROFIL
 62
     4
 10
77.705571461769011
 20
-56.548044424009753
 30
0.0
 42
0.5571646428658034
  0
VERTEX
  5
1D49
  8
SAPA_PROFIL
 62
     4
 10
78.573290375924557
 20
-56.011083919872902
 30
0.0
  0
VERTEX
  5
1D4A
  8
SAPA_PROFIL
 62
     4
 10
78.573290375923634
 20
-38.986346683351698
 30
0.0
 42
0.5571645048035741
  0
VERTEX
  5
1D4B
  8
SAPA_PROFIL
 62
     4
 10
77.705571688057461
 20
-38.449386066390673
 30
0.0
  0
VERTEX
  5
1D4C
  8
SAPA_PROFIL
 62
     4
 10
76.039431031989452
 20
-39.280093153937408
 30
0.0
 42
0.284385813979063
  0
VERTEX
  5
1D4D
  8
SAPA_PROFIL
 62
     4
 10
75.873290375922025
 20
-39.548573462417771
 30
0.0
  0
VERTEX
  5
1D4E
  8
SAPA_PROFIL
 62
     4
 10
75.873290375922451
 20
-55.448857140807078
 30
0.0
 42
0.2843858139786238
  0
VERTEX
  5
1D4F
  8
SAPA_PROFIL
 62
     4
 10
76.03943103198938
 20
-55.717337449287349
 30
0.0
  0
VERTEX
  5
1D50
  8
SAPA_PROFIL
 62
     4
 10
77.705571688058754
 20
-56.548044536834468
 30
0.0
  0
SEQEND
  5
1D51
  8
SAPA_PROFIL
 62
     4
  0
POLYLINE
  5
13C1
  8
SAPA_PROFIL
 62
     4
 66
     1
 10
0.0
 20
0.0
 30
0.0
 70
     1
  0
VERTEX
  5
1D52
  8
SAPA_PROFIL
 62
     4
 10
75.516458861424269
 20
-33.081104116945141
 30
0.0
  0
VERTEX
  5
1D53
  8
SAPA_PROFIL
 62
     4
 10
75.109898665420104
 20
-32.817080838569133
 30
0.0
 42
-0.2539676464751066
  0
VERTEX
  5
1D54
  8
SAPA_PROFIL
 62
     4
 10
74.973290375923995
 20
-32.56547966818443
 30
0.0
  0
VERTEX
  5
1D55
  8
SAPA_PROFIL
 62
     4
 10
74.97329037592398
 20
-31.18398008297909
 30
0.0
 42
-0.3152987888790479
  0
VERTEX
  5
1D56
  8
SAPA_PROFIL
 62
     4
 10
75.302280304262126
 20
-30.714133772586759
 30
0.0
  0
VERTEX
  5
1D57
  8
SAPA_PROFIL
 62
     4
 10
77.763110494713374
 20
-29.818464831678089
 30
0.0
 42
0.2694959974287434
  0
VERTEX
  5
1D58
  8
SAPA_PROFIL
 62
     4
 10
77.956242469057258
 20
-29.586945785276729
 30
0.0
 42
0.0612686379508233
  0
VERTEX
  5
1D59
  8
SAPA_PROFIL
 62
     4
 10
77.969825839687772
 20
-29.29427035242346
 30
0.0
  0
VERTEX
  5
1D5A
  8
SAPA_PROFIL
 62
     4
 10
78.171562518416593
 20
-28.94485217511518
 30
0.0
 42
0.5773502691891679
  0
VERTEX
  5
1D5B
  8
SAPA_PROFIL
 62
     4
 10
77.989697183622013
 20
-28.629852175115602
 30
0.0
  0
VERTEX
  5
1D5C
  8
SAPA_PROFIL
 62
     4
 10
77.7225826554957
 20
-28.62985217511536
 30
0.0
  0
VERTEX
  5
1D5D
  8
SAPA_PROFIL
 62
     4
 10
76.913899194187337
 20
-27.231324474481141
 30
0.0
 42
-0.1318219888653519
  0
VERTEX
  5
1D5E
  8
SAPA_PROFIL
 62
     4
 10
76.873606797649941
 20
-27.08115137200879
 30
0.0
  0
VERTEX
  5
1D5F
  8
SAPA_PROFIL
 62
     4
 10
76.873606797656308
 20
-26.898715301572011
 30
0.0
 42
-0.4142135623724291
  0
VERTEX
  5
1D60
  8
SAPA_PROFIL
 62
     4
 10
77.27360679765593
 20
-26.498715301571458
 30
0.0
  0
VERTEX
  5
1D61
  8
SAPA_PROFIL
 62
     4
 10
80.67360679765693
 20
-26.49871530157273
 30
0.0
 42
-0.4142135623744271
  0
VERTEX
  5
1D62
  8
SAPA_PROFIL
 62
     4
 10
81.073606797657945
 20
-26.898715301571901
 30
0.0
  0
VERTEX
  5
1D63
  8
SAPA_PROFIL
 62
     4
 10
81.073606797658584
 20
-27.078330543843201
 30
0.0
 42
-0.1316524975874005
  0
VERTEX
  5
1D64
  8
SAPA_PROFIL
 62
     4
 10
81.033414418792987
 20
-27.22833054384002
 30
0.0
  0
VERTEX
  5
1D65
  8
SAPA_PROFIL
 62
     4
 10
80.107264972140484
 20
-28.832468440842302
 30
0.0
 42
0.1316524975875904
  0
VERTEX
  5
1D66
  8
SAPA_PROFIL
 62
     4
 10
79.973290375925743
 20
-29.332468440844011
 30
0.0
  0
VERTEX
  5
1D67
  8
SAPA_PROFIL
 62
     4
 10
79.973290375925757
 20
-29.74871530157138
 30
0.0
 42
0.4142135623730951
  0
VERTEX
  5
1D68
  8
SAPA_PROFIL
 62
     4
 10
80.973290375925785
 20
-30.748715301571359
 30
0.0
  0
VERTEX
  5
1D69
  8
SAPA_PROFIL
 62
     4
 10
83.973290375923057
 20
-30.74871530157127
 30
0.0
 42
-0.9999996830128083
  0
VERTEX
  5
1D6A
  8
SAPA_PROFIL
 62
     4
 10
83.973290375924904
 20
-31.74871530157127
 30
0.0
  0
VERTEX
  5
1D6B
  8
SAPA_PROFIL
 62
     4
 10
80.973290375924904
 20
-31.748715301571352
 30
0.0
 42
0.4142135623730951
  0
VERTEX
  5
1D6C
  8
SAPA_PROFIL
 62
     4
 10
79.973290375924933
 20
-32.74871530157138
 30
0.0
  0
VERTEX
  5
1D6D
  8
SAPA_PROFIL
 62
     4
 10
79.973290375925714
 20
-62.24871530165597
 30
0.0
 42
0.4142135623730951
  0
VERTEX
  5
1D6E
  8
SAPA_PROFIL
 62
     4
 10
80.973290375925743
 20
-63.248715301655942
 30
0.0
  0
VERTEX
  5
1D6F
  8
SAPA_PROFIL
 62
     4
 10
83.973290375923924
 20
-63.248715301655857
 30
0.0
 42
-0.9999999999999998
  0
VERTEX
  5
1D70
  8
SAPA_PROFIL
 62
     4
 10
83.973290375923952
 20
-64.248715301655864
 30
0.0
  0
VERTEX
  5
1D71
  8
SAPA_PROFIL
 62
     4
 10
80.973290375925785
 20
-64.248715301655935
 30
0.0
 42
0.4142135623736278
  0
VERTEX
  5
1D72
  8
SAPA_PROFIL
 62
     4
 10
79.973290375925799
 20
-65.248715301655963
 30
0.0
  0
VERTEX
  5
1D73
  8
SAPA_PROFIL
 62
     4
 10
79.973290375925814
 20
-65.664962162382423
 30
0.0
 42
0.1316524975874375
  0
VERTEX
  5
1D74
  8
SAPA_PROFIL
 62
     4
 10
80.107264972141863
 20
-66.164962162382622
 30
0.0
  0
VERTEX
  5
1D75
  8
SAPA_PROFIL
 62
     4
 10
81.033414418794081
 20
-67.769100059384542
 30
0.0
 42
-0.1316524975874
  0
VERTEX
  5
1D76
  8
SAPA_PROFIL
 62
     4
 10
81.073606797659664
 20
-67.919100059384078
 30
0.0
  0
VERTEX
  5
1D77
  8
SAPA_PROFIL
 62
     4
 10
81.073606797659053
 20
-68.098715301655389
 30
0.0
 42
-0.4142135623744271
  0
VERTEX
  5
1D78
  8
SAPA_PROFIL
 62
     4
 10
80.673606797658053
 20
-68.498715301654585
 30
0.0
  0
VERTEX
  5
1D79
  8
SAPA_PROFIL
 62
     4
 10
77.273606797657052
 20
-68.498715301656034
 30
0.0
 42
-0.4142135623724291
  0
VERTEX
  5
1D7A
  8
SAPA_PROFIL
 62
     4
 10
76.873606797657416
 20
-68.098715301655503
 30
0.0
  0
VERTEX
  5
1D7B
  8
SAPA_PROFIL
 62
     4
 10
76.873606797651036
 20
-67.916279231218724
 30
0.0
 42
-0.1318219888653524
  0
VERTEX
  5
1D7C
  8
SAPA_PROFIL
 62
     4
 10
76.913899194188417
 20
-67.766106128746372
 30
0.0
  0
VERTEX
  5
1D7D
  8
SAPA_PROFIL
 62
     4
 10
77.722582655412722
 20
-66.367578428266711
 30
0.0
  0
VERTEX
  5
1D7E
  8
SAPA_PROFIL
 62
     4
 10
77.989697183625765
 20
-66.367578428266697
 30
0.0
 42
0.577350269189159
  0
VERTEX
  5
1D7F
  8
SAPA_PROFIL
 62
     4
 10
78.171562518420316
 20
-66.052578428267083
 30
0.0
  0
VERTEX
  5
1D80
  8
SAPA_PROFIL
 62
     4
 10
77.969825839743208
 20
-65.703160251048445
 30
0.0
 42
0.0612687673629489
  0
VERTEX
  5
1D81
  8
SAPA_PROFIL
 62
     4
 10
77.956242469056988
 20
-65.41048481794823
 30
0.0
 42
0.2694959974285039
  0
VERTEX
  5
1D82
  8
SAPA_PROFIL
 62
     4
 10
77.763110494713032
 20
-65.178965771547709
 30
0.0
  0
VERTEX
  5
1D83
  8
SAPA_PROFIL
 62
     4
 10
75.302280304259838
 20
-64.283296830638108
 30
0.0
 42
-0.3152987888784035
  0
VERTEX
  5
1D84
  8
SAPA_PROFIL
 62
     4
 10
74.973290375923256
 20
-63.813450520244892
 30
0.0
  0
VERTEX
  5
1D85
  8
SAPA_PROFIL
 62
     4
 10
74.973290375924819
 20
-62.431950935040447
 30
0.0
 42
-0.2539676464741841
  0
VERTEX
  5
1D86
  8
SAPA_PROFIL
 62
     4
 10
75.109898665420076
 20
-62.180349764656377
 30
0.0
  0
VERTEX
  5
1D87
  8
SAPA_PROFIL
 62
     4
 10
75.51645886142505
 20
-61.916326486279722
 30
0.0
 42
-0.5862177598324623
  0
VERTEX
  5
1D88
  8
SAPA_PROFIL
 62
     4
 10
75.973290375921565
 20
-62.172068301518053
 30
0.0
  0
VERTEX
  5
1D89
  8
SAPA_PROFIL
 62
     4
 10
75.973290375913919
 20
-63.113242982027863
 30
0.0
 42
0.3152987888813165
  0
VERTEX
  5
1D8A
  8
SAPA_PROFIL
 62
     4
 10
76.302280304250687
 20
-63.583089292425612
 30
0.0
  0
VERTEX
  5
1D8B
  8
SAPA_PROFIL
 62
     4
 10
77.50228030426193
 20
-64.01985357354954
 30
0.0
 42
0.5205670505515651
  0
VERTEX
  5
1D8C
  8
SAPA_PROFIL
 62
     4
 10
78.173290375924665
 20
-63.550007263156303
 30
0.0
  0
VERTEX
  5
1D8D
  8
SAPA_PROFIL
 62
     4
 10
78.173290375924552
 20
-58.533566322487438
 30
0.0
 42
0.3702522326300203
  0
VERTEX
  5
1D8E
  8
SAPA_PROFIL
 62
     4
 10
77.918830423258839
 20
-58.237042960694119
 30
0.0
 42
0.0982365330332397
  0
VERTEX
  5
1D8F
  8
SAPA_PROFIL
 62
     4
 10
76.231143648263838
 20
-58.146590202483218
 30
0.0
 42
0.3735060174783164
  0
VERTEX
  5
1D90
  8
SAPA_PROFIL
 62
     4
 10
75.973290375923796
 20
-58.443614870394207
 30
0.0
  0
VERTEX
  5
1D91
  8
SAPA_PROFIL
 62
     4
 10
75.9732903759229
 20
-58.872068301516862
 30
0.0
 42
-0.5920056181162531
  0
VERTEX
  5
1D92
  8
SAPA_PROFIL
 62
     4
 10
75.512086873394992
 20
-59.125077057834282
 30
0.0
  0
VERTEX
  5
1D93
  8
SAPA_PROFIL
 62
     4
 10
75.109898665416679
 20
-58.863892981678589
 30
0.0
 42
-0.2539676464746725
  0
VERTEX
  5
1D94
  8
SAPA_PROFIL
 62
     4
 10
74.973290375921295
 20
-58.612291811294831
 30
0.0
  0
VERTEX
  5
1D95
  8
SAPA_PROFIL
 62
     4
 10
74.973290375922303
 20
-36.385138791929151
 30
0.0
 42
-0.2539676464741819
  0
VERTEX
  5
1D96
  8
SAPA_PROFIL
 62
     4
 10
75.109898665416054
 20
-36.133537621546282
 30
0.0
  0
VERTEX
  5
1D97
  8
SAPA_PROFIL
 62
     4
 10
75.512086873394395
 20
-35.872353545392471
 30
0.0
 42
-0.5920055144124249
  0
VERTEX
  5
1D98
  8
SAPA_PROFIL
 62
     4
 10
75.973290375922289
 20
-36.125362301707959
 30
0.0
  0
VERTEX
  5
1D99
  8
SAPA_PROFIL
 62
     4
 10
75.973290350647289
 20
-36.553815778998192
 30
0.0
 42
0.3735060174775405
  0
VERTEX
  5
1D9A
  8
SAPA_PROFIL
 62
     4
 10
76.231143622987389
 20
-36.85084044690786
 30
0.0
 42
0.0355900683670349
  0
VERTEX
  5
1D9B
  8
SAPA_PROFIL
 62
     4
 10
76.847017209787182
 20
-36.894734010940098
 30
0.0
 42
0.0624282003873116
  0
VERTEX
  5
1D9C
  8
SAPA_PROFIL
 62
     4
 10
77.918830397982305
 20
-36.760387688697129
 30
0.0
 42
0.3702522326309292
  0
VERTEX
  5
1D9D
  8
SAPA_PROFIL
 62
     4
 10
78.173290350648017
 20
-36.463864326903753
 30
0.0
  0
VERTEX
  5
1D9E
  8
SAPA_PROFIL
 62
     4
 10
78.173290375924026
 20
-31.447423340070241
 30
0.0
 42
0.5205670505515692
  0
VERTEX
  5
1D9F
  8
SAPA_PROFIL
 62
     4
 10
77.502280304261035
 20
-30.977577029677029
 30
0.0
  0
VERTEX
  5
1DA0
  8
SAPA_PROFIL
 62
     4
 10
76.30228030425161
 20
-31.414341310802019
 30
0.0
 42
0.3152987888807539
  0
VERTEX
  5
1DA1
  8
SAPA_PROFIL
 62
     4
 10
75.97329037591399
 20
-31.884187621197881
 30
0.0
  0
VERTEX
  5
1DA2
  8
SAPA_PROFIL
 62
     4
 10
75.97329037592084
 20
-32.82536230170696
 30
0.0
 42
-0.5862175119221242
  0
VERTEX
  5
1DA3
  8
SAPA_PROFIL
 62
     4
 10
75.516459050165693
 20
-33.081104232688929
 30
0.0
 42
0.0000002084758573
  0
SEQEND
  5
1DA4
  8
SAPA_PROFIL
 62
     4
  0
POLYLINE
  5
13C2
  8
SAPA_PROFIL
 66
     1
 10
0.0
 20
0.0
 30
0.0
 70
     1
  0
VERTEX
  5
1DA5
  8
SAPA_PROFIL
 10
10.699999999791849
 20
-87.001284576350542
 30
0.0
 42
0.5507604245874563
  0
VERTEX
  5
1DA6
  8
SAPA_PROFIL
 10
10.971052370634821
 20
-86.572713147767317
 30
0.0
 42
0.2896898632860104
  0
VERTEX
  5
1DA7
  8
SAPA_PROFIL
 10
10.067544467756131
 20
-86.001284576394625
 30
0.0
  0
VERTEX
  5
1DA8
  8
SAPA_PROFIL
 10
9.2999999997456921
 20
-86.001284576394625
 30
0.0
 42
0.4142135623901312
  0
VERTEX
  5
1DA9
  8
SAPA_PROFIL
 10
8.9999999997456825
 20
-86.301284576412115
 30
0.0
  0
VERTEX
  5
1DAA
  8
SAPA_PROFIL
 10
8.9999999999574811
 20
-89.998715427517496
 30
0.0
 42
0.4142342928453111
  0
VERTEX
  5
1DAB
  8
SAPA_PROFIL
 10
9.5000353888569293
 20
-90.498715426235975
 30
0.0
  0
VERTEX
  5
1DAC
  8
SAPA_PROFIL
 10
82.499964610945085
 20
-90.498715169402104
 30
0.0
 42
0.4142342928453111
  0
VERTEX
  5
1DAD
  8
SAPA_PROFIL
 10
82.999999999844533
 20
-89.998715170683624
 30
0.0
  0
VERTEX
  5
1DAE
  8
SAPA_PROFIL
 10
83.000000000056374
 20
-86.301284319578244
 30
0.0
 42
0.4142135623901312
  0
VERTEX
  5
1DAF
  8
SAPA_PROFIL
 10
82.70000000005632
 20
-86.001284319560725
 30
0.0
  0
VERTEX
  5
1DB0
  8
SAPA_PROFIL
 10
81.932455532045878
 20
-86.001284319560767
 30
0.0
 42
0.2896898632860027
  0
VERTEX
  5
1DB1
  8
SAPA_PROFIL
 10
81.028947629168584
 20
-86.572712890934127
 30
0.0
 42
0.5507604245874563
  0
VERTEX
  5
1DB2
  8
SAPA_PROFIL
 10
81.300000000010158
 20
-87.001284319515136
 30
0.0
  0
VERTEX
  5
1DB3
  8
SAPA_PROFIL
 10
81.500000000020464
 20
-87.001284319531806
 30
0.0
 42
-0.4142135623681295
  0
VERTEX
  5
1DB4
  8
SAPA_PROFIL
 10
81.800000000002953
 20
-87.301284319544195
 30
0.0
  0
VERTEX
  5
1DB5
  8
SAPA_PROFIL
 10
81.799999999943338
 20
-88.798715170555255
 30
0.0
 42
-0.4142135623609412
  0
VERTEX
  5
1DB6
  8
SAPA_PROFIL
 10
81.299999999943338
 20
-89.298715170555241
 30
0.0
  0
VERTEX
  5
1DB7
  8
SAPA_PROFIL
 10
77.999999999942403
 20
-89.298715170555241
 30
0.0
 42
-0.4142135623852489
  0
VERTEX
  5
1DB8
  8
SAPA_PROFIL
 10
77.499999999942403
 20
-88.798715170534507
 30
0.0
  0
VERTEX
  5
1DB9
  8
SAPA_PROFIL
 10
77.50000000000216
 20
-87.301284319577675
 30
0.0
 42
-0.4142135623780607
  0
VERTEX
  5
1DBA
  8
SAPA_PROFIL
 10
77.800000000019622
 20
-87.001284319590056
 30
0.0
  0
VERTEX
  5
1DBB
  8
SAPA_PROFIL
 10
78.000000000009635
 20
-87.001284319601126
 30
0.0
 42
0.5507604245840011
  0
VERTEX
  5
1DBC
  8
SAPA_PROFIL
 10
78.271052370906716
 20
-86.572712891048099
 30
0.0
 42
0.2896898633203997
  0
VERTEX
  5
1DBD
  8
SAPA_PROFIL
 10
77.367544467973602
 20
-86.001284319560767
 30
0.0
  0
VERTEX
  5
1DBE
  8
SAPA_PROFIL
 10
76.326328322581361
 20
-86.001284319560767
 30
0.0
  0
VERTEX
  5
1DBF
  8
SAPA_PROFIL
 10
74.713175911079617
 20
-86.285726613703432
 30
0.0
 42
0.8390996311772029
  0
VERTEX
  5
1DC0
  8
SAPA_PROFIL
 10
74.713175911079617
 20
-87.270534366715637
 30
0.0
  0
VERTEX
  5
1DC1
  8
SAPA_PROFIL
 10
75.886824088746636
 20
-87.47748020629767
 30
0.0
 42
-0.363970234266201
  0
VERTEX
  5
1DC2
  8
SAPA_PROFIL
 10
76.299999999913126
 20
-87.969884082803773
 30
0.0
  0
VERTEX
  5
1DC3
  8
SAPA_PROFIL
 10
76.299999999913126
 20
-88.798358715293006
 30
0.0
 42
-0.426132608942994
  0
VERTEX
  5
1DC4
  8
SAPA_PROFIL
 10
75.779744535452522
 20
-89.297948262981421
 30
0.0
  0
VERTEX
  5
1DC5
  8
SAPA_PROFIL
 10
61.287846721009601
 20
-88.710385687852252
 30
0.0
 42
-0.4023941304324702
  0
VERTEX
  5
1DC6
  8
SAPA_PROFIL
 10
60.99999999968599
 20
-88.410631959239197
 30
0.0
  0
VERTEX
  5
1DC7
  8
SAPA_PROFIL
 10
60.999999999685912
 20
-87.610098740874363
 30
0.0
 42
0.259681233730068
  0
VERTEX
  5
1DC8
  8
SAPA_PROFIL
 10
60.905306804437771
 20
-87.44006792933429
 30
0.0
  0
VERTEX
  5
1DC9
  8
SAPA_PROFIL
 10
59.457960206813681
 20
-86.543668952092091
 30
0.0
 42
0.5877032589250129
  0
VERTEX
  5
1DCA
  8
SAPA_PROFIL
 10
58.99999999968599
 20
-86.798715169402143
 30
0.0
  0
VERTEX
  5
1DCB
  8
SAPA_PROFIL
 10
58.999999999685969
 20
-88.198715169402121
 30
0.0
 42
-0.4142135623731242
  0
VERTEX
  5
1DCC
  8
SAPA_PROFIL
 10
58.699999999685872
 20
-88.498715169402175
 30
0.0
  0
VERTEX
  5
1DCD
  8
SAPA_PROFIL
 10
56.29999999968598
 20
-88.498715169402175
 30
0.0
 42
-0.4142135623730951
  0
VERTEX
  5
1DCE
  8
SAPA_PROFIL
 10
55.99999999968599
 20
-88.198715169402149
 30
0.0
  0
VERTEX
  5
1DCF
  8
SAPA_PROFIL
 10
55.99999999968599
 20
-78.598715169402155
 30
0.0
 42
-0.4142135623731409
  0
VERTEX
  5
1DD0
  8
SAPA_PROFIL
 10
56.299999999686072
 20
-78.298715169402143
 30
0.0
  0
VERTEX
  5
1DD1
  8
SAPA_PROFIL
 10
60.699999999685978
 20
-78.298715169402016
 30
0.0
 42
0.414213562373195
  0
VERTEX
  5
1DD2
  8
SAPA_PROFIL
 10
60.999999999686082
 20
-77.998715169402018
 30
0.0
  0
VERTEX
  5
1DD3
  8
SAPA_PROFIL
 10
60.99999999968599
 20
-76.514627104048813
 30
0.0
 42
0.2596812337301437
  0
VERTEX
  5
1DD4
  8
SAPA_PROFIL
 10
60.905306804437771
 20
-76.34459629250874
 30
0.0
  0
VERTEX
  5
1DD5
  8
SAPA_PROFIL
 10
60.257960206813692
 20
-75.943668947956951
 30
0.0
 42
0.587703258924989
  0
VERTEX
  5
1DD6
  8
SAPA_PROFIL
 10
59.799999999685973
 20
-76.198715165267046
 30
0.0
  0
VERTEX
  5
1DD7
  8
SAPA_PROFIL
 10
59.799999999685973
 20
-76.598715169402155
 30
0.0
 42
-0.4142135623731492
  0
VERTEX
  5
1DD8
  8
SAPA_PROFIL
 10
59.499999999686082
 20
-76.898715169402166
 30
0.0
  0
VERTEX
  5
1DD9
  8
SAPA_PROFIL
 10
56.29999999968598
 20
-76.898715169402109
 30
0.0
 42
-0.414213562373195
  0
VERTEX
  5
1DDA
  8
SAPA_PROFIL
 10
55.99999999968599
 20
-76.598715169402155
 30
0.0
  0
VERTEX
  5
1DDB
  8
SAPA_PROFIL
 10
55.99999999968599
 20
-70.798715169402143
 30
0.0
 42
-0.4142135623731242
  0
VERTEX
  5
1DDC
  8
SAPA_PROFIL
 10
56.29999999968598
 20
-70.498715169402175
 30
0.0
  0
VERTEX
  5
1DDD
  8
SAPA_PROFIL
 10
58.699999999685872
 20
-70.498715169402104
 30
0.0
 42
-0.4142135623730659
  0
VERTEX
  5
1DDE
  8
SAPA_PROFIL
 10
58.99999999968599
 20
-70.798715169402115
 30
0.0
  0
VERTEX
  5
1DDF
  8
SAPA_PROFIL
 10
58.99999999968599
 20
-72.198715169402121
 30
0.0
 42
0.5920056181179502
  0
VERTEX
  5
1DE0
  8
SAPA_PROFIL
 10
59.461203502212783
 20
-72.451723925719122
 30
0.0
  0
VERTEX
  5
1DE1
  8
SAPA_PROFIL
 10
60.707469001370413
 20
-71.657670919542539
 30
0.0
 42
0.2562769736732326
  0
VERTEX
  5
1DE2
  8
SAPA_PROFIL
 10
60.799999999685859
 20
-71.488998415331181
 30
0.0
  0
VERTEX
  5
1DE3
  8
SAPA_PROFIL
 10
60.799999999685951
 20
-68.492731505716051
 30
0.0
  0
VERTEX
  5
1DE4
  8
SAPA_PROFIL
 10
60.29085360037481
 20
-67.175433829480326
 30
0.0
 42
-0.4142135623730958
  0
VERTEX
  5
1DE5
  8
SAPA_PROFIL
 10
60.490817644882213
 20
-66.801248874004514
 30
0.0
  0
VERTEX
  5
1DE6
  8
SAPA_PROFIL
 10
60.5386633948807
 20
-66.786730464757412
 30
0.0
  0
VERTEX
  5
1DE7
  8
SAPA_PROFIL
 10
60.538747002764318
 20
-65.283629383995404
 30
0.0
 42
0.4769755326981641
  0
VERTEX
  5
1DE8
  8
SAPA_PROFIL
 10
60.167090127818483
 20
-64.981376559488936
 30
0.0
  0
VERTEX
  5
1DE9
  8
SAPA_PROFIL
 10
58.353859657160228
 20
-65.362823155616667
 30
0.0
 42
0.2216946626430181
  0
VERTEX
  5
1DEA
  8
SAPA_PROFIL
 10
57.812979825683442
 20
-65.768632060771452
 30
0.0
  0
VERTEX
  5
1DEB
  8
SAPA_PROFIL
 10
57.660845914574679
 20
-66.053314344003098
 30
0.0
 42
0.5773502691897454
  0
VERTEX
  5
1DEC
  8
SAPA_PROFIL
 10
57.843799654684851
 20
-66.347470644257911
 30
0.0
  0
VERTEX
  5
1DED
  8
SAPA_PROFIL
 10
58.165557382903103
 20
-66.336909278030944
 30
0.0
  0
VERTEX
  5
1DEE
  8
SAPA_PROFIL
 10
59.250121829874843
 20
-68.222752969891999
 30
0.0
  0
VERTEX
  5
1DEF
  8
SAPA_PROFIL
 10
59.308195466863928
 20
-68.414135969885706
 30
0.0
 42
-0.7625858545243255
  0
VERTEX
  5
1DF0
  8
SAPA_PROFIL
 10
58.97786938584693
 20
-68.598715172083217
 30
0.0
 42
0.2134217652834359
  0
VERTEX
  5
1DF1
  8
SAPA_PROFIL
 10
58.754262588096793
 20
-68.498715172083095
 30
0.0
  0
VERTEX
  5
1DF2
  8
SAPA_PROFIL
 10
54.901476183596799
 20
-68.498715172083152
 30
0.0
 42
-0.4142135623730035
  0
VERTEX
  5
1DF3
  8
SAPA_PROFIL
 10
54.601476183596787
 20
-68.198715172083141
 30
0.0
  0
VERTEX
  5
1DF4
  8
SAPA_PROFIL
 10
54.601476183596787
 20
-67.898715172083101
 30
0.0
  0
VERTEX
  5
1DF5
  8
SAPA_PROFIL
 10
55.525236614300148
 20
-66.298715172083178
 30
0.0
 42
0.5773502691897307
  0
VERTEX
  5
1DF6
  8
SAPA_PROFIL
 10
55.352031533543283
 20
-65.998715172083095
 30
0.0
  0
VERTEX
  5
1DF7
  8
SAPA_PROFIL
 10
53.966390887488188
 20
-65.998715172083124
 30
0.0
 42
0.2679491924311169
  0
VERTEX
  5
1DF8
  8
SAPA_PROFIL
 10
53.100365483703797
 20
-66.498715172083095
 30
0.0
  0
VERTEX
  5
1DF9
  8
SAPA_PROFIL
 10
52.09000251413039
 20
-68.248715169470273
 30
0.0
 42
-0.2679491924311239
  0
VERTEX
  5
1DFA
  8
SAPA_PROFIL
 10
51.65698981223818
 20
-68.498715169470273
 30
0.0
  0
VERTEX
  5
1DFB
  8
SAPA_PROFIL
 10
40.343010188015157
 20
-68.498715169470273
 30
0.0
 42
-0.2679491924311547
  0
VERTEX
  5
1DFC
  8
SAPA_PROFIL
 10
39.909997486122911
 20
-68.248715169470231
 30
0.0
  0
VERTEX
  5
1DFD
  8
SAPA_PROFIL
 10
38.899634516549668
 20
-66.498715172083095
 30
0.0
 42
0.2679491924311272
  0
VERTEX
  5
1DFE
  8
SAPA_PROFIL
 10
38.03360911276522
 20
-65.998715172083095
 30
0.0
  0
VERTEX
  5
1DFF
  8
SAPA_PROFIL
 10
36.647968466710239
 20
-65.998715172083052
 30
0.0
 42
0.5773502691897177
  0
VERTEX
  5
1E00
  8
SAPA_PROFIL
 10
36.474763385953338
 20
-66.298715172083192
 30
0.0
  0
VERTEX
  5
1E01
  8
SAPA_PROFIL
 10
37.398523816656621
 20
-67.898715172083101
 30
0.0
  0
VERTEX
  5
1E02
  8
SAPA_PROFIL
 10
37.398523816656621
 20
-68.198715172083141
 30
0.0
 42
-0.4142135623730951
  0
VERTEX
  5
1E03
  8
SAPA_PROFIL
 10
37.098523816656638
 20
-68.498715172083152
 30
0.0
  0
VERTEX
  5
1E04
  8
SAPA_PROFIL
 10
33.245737412156728
 20
-68.498715172083081
 30
0.0
 42
0.2134217652834361
  0
VERTEX
  5
1E05
  8
SAPA_PROFIL
 10
33.022130614406649
 20
-68.598715172083175
 30
0.0
 42
-0.7625858545243255
  0
VERTEX
  5
1E06
  8
SAPA_PROFIL
 10
32.691804533389607
 20
-68.41413596988572
 30
0.0
  0
VERTEX
  5
1E07
  8
SAPA_PROFIL
 10
32.749878170378707
 20
-68.222752969891999
 30
0.0
  0
VERTEX
  5
1E08
  8
SAPA_PROFIL
 10
33.834442617350447
 20
-66.336909278030944
 30
0.0
  0
VERTEX
  5
1E09
  8
SAPA_PROFIL
 10
34.15620034556872
 20
-66.347470644257925
 30
0.0
 42
0.5773502691897453
  0
VERTEX
  5
1E0A
  8
SAPA_PROFIL
 10
34.339154085678871
 20
-66.053314344003084
 30
0.0
  0
VERTEX
  5
1E0B
  8
SAPA_PROFIL
 10
34.187020174570108
 20
-65.768632060771452
 30
0.0
 42
0.2216946626430179
  0
VERTEX
  5
1E0C
  8
SAPA_PROFIL
 10
33.646140343093322
 20
-65.362823155616653
 30
0.0
  0
VERTEX
  5
1E0D
  8
SAPA_PROFIL
 10
31.832909872435099
 20
-64.981376559488936
 30
0.0
 42
0.4769755326981641
  0
VERTEX
  5
1E0E
  8
SAPA_PROFIL
 10
31.461252997489201
 20
-65.283629383995404
 30
0.0
  0
VERTEX
  5
1E0F
  8
SAPA_PROFIL
 10
31.46133660537285
 20
-66.786730464757412
 30
0.0
  0
VERTEX
  5
1E10
  8
SAPA_PROFIL
 10
31.50918235537134
 20
-66.801248874004514
 30
0.0
 42
-0.4142135623730953
  0
VERTEX
  5
1E11
  8
SAPA_PROFIL
 10
31.70914639987874
 20
-67.175433829480326
 30
0.0
  0
VERTEX
  5
1E12
  8
SAPA_PROFIL
 10
31.200000000567542
 20
-68.492731505716179
 30
0.0
  0
VERTEX
  5
1E13
  8
SAPA_PROFIL
 10
31.200000000567542
 20
-71.488998415331096
 30
0.0
 42
0.2562769736732409
  0
VERTEX
  5
1E14
  8
SAPA_PROFIL
 10
31.292530998882999
 20
-71.657670919542426
 30
0.0
  0
VERTEX
  5
1E15
  8
SAPA_PROFIL
 10
32.538796498040711
 20
-72.451723925719165
 30
0.0
 42
0.592005618117916
  0
VERTEX
  5
1E16
  8
SAPA_PROFIL
 10
33.000000000567532
 20
-72.198715169402121
 30
0.0
  0
VERTEX
  5
1E17
  8
SAPA_PROFIL
 10
33.000000000567532
 20
-70.798715169402115
 30
0.0
 42
-0.4142135623730951
  0
VERTEX
  5
1E18
  8
SAPA_PROFIL
 10
33.300000000567621
 20
-70.498715169402104
 30
0.0
  0
VERTEX
  5
1E19
  8
SAPA_PROFIL
 10
35.700000000567513
 20
-70.498715169402175
 30
0.0
 42
-0.4142135623731242
  0
VERTEX
  5
1E1A
  8
SAPA_PROFIL
 10
36.000000000567518
 20
-70.798715169402143
 30
0.0
  0
VERTEX
  5
1E1B
  8
SAPA_PROFIL
 10
36.00000000056756
 20
-76.598715169402155
 30
0.0
 42
-0.4142135623731866
  0
VERTEX
  5
1E1C
  8
SAPA_PROFIL
 10
35.700000000567513
 20
-76.898715169402109
 30
0.0
  0
VERTEX
  5
1E1D
  8
SAPA_PROFIL
 10
32.500000000567411
 20
-76.898715169402166
 30
0.0
 42
-0.4142135623731492
  0
VERTEX
  5
1E1E
  8
SAPA_PROFIL
 10
32.20000000056752
 20
-76.598715169402155
 30
0.0
  0
VERTEX
  5
1E1F
  8
SAPA_PROFIL
 10
32.200000000567492
 20
-76.198715165267046
 30
0.0
 42
0.5877032589250028
  0
VERTEX
  5
1E20
  8
SAPA_PROFIL
 10
31.742039793439801
 20
-75.943668947956994
 30
0.0
  0
VERTEX
  5
1E21
  8
SAPA_PROFIL
 10
31.094693195815751
 20
-76.344596292508754
 30
0.0
 42
0.259681233730169
  0
VERTEX
  5
1E22
  8
SAPA_PROFIL
 10
31.000000000567521
 20
-76.514627104048813
 30
0.0
  0
VERTEX
  5
1E23
  8
SAPA_PROFIL
 10
31.000000000567471
 20
-77.998715169402018
 30
0.0
 42
0.4142135623730951
  0
VERTEX
  5
1E24
  8
SAPA_PROFIL
 10
31.300000000567419
 20
-78.298715169401973
 30
0.0
  0
VERTEX
  5
1E25
  8
SAPA_PROFIL
 10
35.7000000005674
 20
-78.298715169402143
 30
0.0
 42
-0.414213562373041
  0
VERTEX
  5
1E26
  8
SAPA_PROFIL
 10
36.000000000567518
 20
-78.598715169402155
 30
0.0
  0
VERTEX
  5
1E27
  8
SAPA_PROFIL
 10
36.000000000567518
 20
-88.198715169402149
 30
0.0
 42
-0.4142135623730951
  0
VERTEX
  5
1E28
  8
SAPA_PROFIL
 10
35.700000000567513
 20
-88.498715169402175
 30
0.0
  0
VERTEX
  5
1E29
  8
SAPA_PROFIL
 10
33.300000000567621
 20
-88.498715169402175
 30
0.0
 42
-0.4142135623730951
  0
VERTEX
  5
1E2A
  8
SAPA_PROFIL
 10
33.000000000567532
 20
-88.198715169402149
 30
0.0
  0
VERTEX
  5
1E2B
  8
SAPA_PROFIL
 10
33.000000000567503
 20
-86.798715169402143
 30
0.0
 42
0.5877032589250129
  0
VERTEX
  5
1E2C
  8
SAPA_PROFIL
 10
32.542039793439812
 20
-86.543668952092091
 30
0.0
  0
VERTEX
  5
1E2D
  8
SAPA_PROFIL
 10
31.09469319581569
 20
-87.440067929334234
 30
0.0
 42
0.2596812337301122
  0
VERTEX
  5
1E2E
  8
SAPA_PROFIL
 10
31.000000000567521
 20
-87.610098740874363
 30
0.0
  0
VERTEX
  5
1E2F
  8
SAPA_PROFIL
 10
31.000000000567521
 20
-88.41063195923924
 30
0.0
 42
-0.4023941304324539
  0
VERTEX
  5
1E30
  8
SAPA_PROFIL
 10
30.712153279243921
 20
-88.710385687852295
 30
0.0
  0
VERTEX
  5
1E31
  8
SAPA_PROFIL
 10
16.2390944572129
 20
-89.297184707692864
 30
0.0
 42
-0.4373282586284287
  0
VERTEX
  5
1E32
  8
SAPA_PROFIL
 10
15.69999999988889
 20
-88.798715427389084
 30
0.0
  0
VERTEX
  5
1E33
  8
SAPA_PROFIL
 10
15.69999999988889
 20
-87.96988433963763
 30
0.0
 42
-0.363970234266201
  0
VERTEX
  5
1E34
  8
SAPA_PROFIL
 10
16.113175911055379
 20
-87.477480463131528
 30
0.0
  0
VERTEX
  5
1E35
  8
SAPA_PROFIL
 10
17.286824088722401
 20
-87.270534623549494
 30
0.0
 42
0.8390996311772029
  0
VERTEX
  5
1E36
  8
SAPA_PROFIL
 10
17.286824088722401
 20
-86.285726870537289
 30
0.0
  0
VERTEX
  5
1E37
  8
SAPA_PROFIL
 10
15.67367167722065
 20
-86.001284576394625
 30
0.0
  0
VERTEX
  5
1E38
  8
SAPA_PROFIL
 10
14.632455531828439
 20
-86.001284576394795
 30
0.0
 42
0.2896898633203997
  0
VERTEX
  5
1E39
  8
SAPA_PROFIL
 10
13.728947628894931
 20
-86.572713147881785
 30
0.0
 42
0.5507604245840011
  0
VERTEX
  5
1E3A
  8
SAPA_PROFIL
 10
13.999999999792379
 20
-87.001284576435566
 30
0.0
  0
VERTEX
  5
1E3B
  8
SAPA_PROFIL
 10
14.19999999978239
 20
-87.001284576423899
 30
0.0
 42
-0.4142135623780607
  0
VERTEX
  5
1E3C
  8
SAPA_PROFIL
 10
14.499999999799851
 20
-87.301284576411533
 30
0.0
  0
VERTEX
  5
1E3D
  8
SAPA_PROFIL
 10
14.4999999998596
 20
-88.798715427368336
 30
0.0
 42
-0.4142135623852489
  0
VERTEX
  5
1E3E
  8
SAPA_PROFIL
 10
13.9999999998596
 20
-89.298715427389098
 30
0.0
  0
VERTEX
  5
1E3F
  8
SAPA_PROFIL
 10
10.699999999858671
 20
-89.298715427389098
 30
0.0
 42
-0.4142135623609412
  0
VERTEX
  5
1E40
  8
SAPA_PROFIL
 10
10.199999999858671
 20
-88.798715427389084
 30
0.0
  0
VERTEX
  5
1E41
  8
SAPA_PROFIL
 10
10.19999999979904
 20
-87.301284576378052
 30
0.0
 42
-0.4142135623681295
  0
VERTEX
  5
1E42
  8
SAPA_PROFIL
 10
10.499999999781551
 20
-87.001284576365634
 30
0.0
  0
SEQEND
  5
1E43
  8
SAPA_PROFIL
  0
POLYLINE
  5
13C3
  8
SAPA_PROFIL
 66
     1
 10
0.0
 20
0.0
 30
0.0
 70
     1
  0
VERTEX
  5
1E44
  8
SAPA_PROFIL
 10
50.099999999744
 20
-88.798715167492517
 30
0.0
  0
VERTEX
  5
1E45
  8
SAPA_PROFIL
 10
41.900000000625766
 20
-88.798715174175598
 30
0.0
 42
-0.4142135624581968
  0
VERTEX
  5
1E46
  8
SAPA_PROFIL
 10
41.70000000056762
 20
-88.598715174175567
 30
0.0
  0
VERTEX
  5
1E47
  8
SAPA_PROFIL
 10
41.70000000056762
 20
-88.498715172699747
 30
0.0
 42
0.4142135624945166
  0
VERTEX
  5
1E48
  8
SAPA_PROFIL
 10
41.400000000443242
 20
-88.19871517269975
 30
0.0
  0
VERTEX
  5
1E49
  8
SAPA_PROFIL
 10
40.000000000443229
 20
-88.198715173280135
 30
0.0
 42
0.4142135622516735
  0
VERTEX
  5
1E4A
  8
SAPA_PROFIL
 10
39.700000000567627
 20
-88.498715173280104
 30
0.0
  0
VERTEX
  5
1E4B
  8
SAPA_PROFIL
 10
39.700000000567627
 20
-88.59871517348283
 30
0.0
 42
-0.4142135622584164
  0
VERTEX
  5
1E4C
  8
SAPA_PROFIL
 10
39.50000000064594
 20
-88.798715173482805
 30
0.0
  0
VERTEX
  5
1E4D
  8
SAPA_PROFIL
 10
38.000000000685077
 20
-88.798715174109333
 30
0.0
 42
-0.4142135624877821
  0
VERTEX
  5
1E4E
  8
SAPA_PROFIL
 10
37.700000000567627
 20
-88.498715174109336
 30
0.0
  0
VERTEX
  5
1E4F
  8
SAPA_PROFIL
 10
37.700000000567599
 20
-70.49871516366764
 30
0.0
 42
-0.4142135623730784
  0
VERTEX
  5
1E50
  8
SAPA_PROFIL
 10
38.00000000056761
 20
-70.198715163667643
 30
0.0
  0
VERTEX
  5
1E51
  8
SAPA_PROFIL
 10
39.500000000567638
 20
-70.198715163667615
 30
0.0
 42
-0.4142135623730951
  0
VERTEX
  5
1E52
  8
SAPA_PROFIL
 10
39.700000000567627
 20
-70.398715163667632
 30
0.0
  0
VERTEX
  5
1E53
  8
SAPA_PROFIL
 10
39.700000000567627
 20
-70.498715163667612
 30
0.0
 42
0.4142135623730951
  0
VERTEX
  5
1E54
  8
SAPA_PROFIL
 10
40.000000000567603
 20
-70.798715163667609
 30
0.0
  0
VERTEX
  5
1E55
  8
SAPA_PROFIL
 10
41.400000000567609
 20
-70.798715163667623
 30
0.0
 42
0.4142135623730951
  0
VERTEX
  5
1E56
  8
SAPA_PROFIL
 10
41.70000000056762
 20
-70.498715163667612
 30
0.0
  0
VERTEX
  5
1E57
  8
SAPA_PROFIL
 10
41.70000000056762
 20
-70.39871516366766
 30
0.0
 42
-0.4142135623730701
  0
VERTEX
  5
1E58
  8
SAPA_PROFIL
 10
41.900000000567623
 20
-70.198715163667643
 30
0.0
  0
VERTEX
  5
1E59
  8
SAPA_PROFIL
 10
50.099999999685913
 20
-70.198715163667643
 30
0.0
 42
-0.4142135623730951
  0
VERTEX
  5
1E5A
  8
SAPA_PROFIL
 10
50.299999999685888
 20
-70.39871516366766
 30
0.0
  0
VERTEX
  5
1E5B
  8
SAPA_PROFIL
 10
50.299999999685888
 20
-70.498715163667612
 30
0.0
 42
0.4142135623730951
  0
VERTEX
  5
1E5C
  8
SAPA_PROFIL
 10
50.599999999685899
 20
-70.798715163667609
 30
0.0
  0
VERTEX
  5
1E5D
  8
SAPA_PROFIL
 10
51.999999999685912
 20
-70.798715163667623
 30
0.0
 42
0.4142135623730576
  0
VERTEX
  5
1E5E
  8
SAPA_PROFIL
 10
52.299999999685951
 20
-70.498715163667669
 30
0.0
  0
VERTEX
  5
1E5F
  8
SAPA_PROFIL
 10
52.299999999685951
 20
-70.398715163667575
 30
0.0
 42
-0.4142135623730326
  0
VERTEX
  5
1E60
  8
SAPA_PROFIL
 10
52.49999999968594
 20
-70.198715163667615
 30
0.0
  0
VERTEX
  5
1E61
  8
SAPA_PROFIL
 10
53.99999999968589
 20
-70.198715163667643
 30
0.0
 42
-0.4142135623730951
  0
VERTEX
  5
1E62
  8
SAPA_PROFIL
 10
54.299999999685859
 20
-70.49871516366764
 30
0.0
  0
VERTEX
  5
1E63
  8
SAPA_PROFIL
 10
54.299999999685902
 20
-88.498715174109336
 30
0.0
 42
-0.4142135624877821
  0
VERTEX
  5
1E64
  8
SAPA_PROFIL
 10
53.999999999568409
 20
-88.798715174109333
 30
0.0
  0
VERTEX
  5
1E65
  8
SAPA_PROFIL
 10
52.499999999607581
 20
-88.798715173482819
 30
0.0
 42
-0.4142135622584081
  0
VERTEX
  5
1E66
  8
SAPA_PROFIL
 10
52.299999999685888
 20
-88.59871517348283
 30
0.0
  0
VERTEX
  5
1E67
  8
SAPA_PROFIL
 10
52.299999999685888
 20
-88.498715173280104
 30
0.0
 42
0.4142135622516652
  0
VERTEX
  5
1E68
  8
SAPA_PROFIL
 10
51.999999999810257
 20
-88.198715173280121
 30
0.0
  0
VERTEX
  5
1E69
  8
SAPA_PROFIL
 10
50.599999999810279
 20
-88.19871517269975
 30
0.0
 42
0.4142135624945249
  0
VERTEX
  5
1E6A
  8
SAPA_PROFIL
 10
50.299999999685888
 20
-88.498715172699747
 30
0.0
  0
VERTEX
  5
1E6B
  8
SAPA_PROFIL
 10
50.299999999685888
 20
-88.598715167492529
 30
0.0
 42
-0.4142135622879767
  0
SEQEND
  5
1E6C
  8
SAPA_PROFIL
  0
POLYLINE
  5
13C4
  8
SAPA_PROFIL
 66
     1
 10
0.0
 20
0.0
 30
0.0
 70
     1
  0
VERTEX
  5
1E6D
  8
SAPA_PROFIL
 10
51.655513627033692
 20
-26.498715297776219
 30
0.0
 42
-0.267949192431007
  0
VERTEX
  5
1E6E
  8
SAPA_PROFIL
 10
52.088526328925731
 20
-26.748715297776219
 30
0.0
  0
VERTEX
  5
1E6F
  8
SAPA_PROFIL
 10
53.098889300007762
 20
-28.49871529777668
 30
0.0
 42
0.2679491924311281
  0
VERTEX
  5
1E70
  8
SAPA_PROFIL
 10
53.964914703792289
 20
-28.99871529777668
 30
0.0
  0
VERTEX
  5
1E71
  8
SAPA_PROFIL
 10
55.350555349847284
 20
-28.99871529777645
 30
0.0
 42
0.57735026918954
  0
VERTEX
  5
1E72
  8
SAPA_PROFIL
 10
55.523760430604092
 20
-28.698715297776499
 30
0.0
  0
VERTEX
  5
1E73
  8
SAPA_PROFIL
 10
54.599999999900923
 20
-27.09871529777681
 30
0.0
  0
VERTEX
  5
1E74
  8
SAPA_PROFIL
 10
54.599999999900923
 20
-26.798715297776631
 30
0.0
 42
-0.41421356237306
  0
VERTEX
  5
1E75
  8
SAPA_PROFIL
 10
54.899999999901112
 20
-26.49871529777645
 30
0.0
  0
VERTEX
  5
1E76
  8
SAPA_PROFIL
 10
58.752786404400609
 20
-26.498715297776439
 30
0.0
 42
0.2036002236709541
  0
VERTEX
  5
1E77
  8
SAPA_PROFIL
 10
58.968706713221003
 20
-26.40699016481264
 30
0.0
 42
-0.8292414158604859
  0
VERTEX
  5
1E78
  8
SAPA_PROFIL
 10
59.300702346240691
 20
-26.603123453344072
 30
0.0
  0
VERTEX
  5
1E79
  8
SAPA_PROFIL
 10
59.248645646178979
 20
-26.774677499967972
 30
0.0
  0
VERTEX
  5
1E7A
  8
SAPA_PROFIL
 10
58.164081199207118
 20
-28.660521191828799
 30
0.0
  0
VERTEX
  5
1E7B
  8
SAPA_PROFIL
 10
57.842323470989101
 20
-28.64995982560206
 30
0.0
 42
0.5773502691894565
  0
VERTEX
  5
1E7C
  8
SAPA_PROFIL
 10
57.659369730878701
 20
-28.944116125856659
 30
0.0
  0
VERTEX
  5
1E7D
  8
SAPA_PROFIL
 10
57.811503641986903
 20
-29.22879840908784
 30
0.0
 42
0.2216946626431577
  0
VERTEX
  5
1E7E
  8
SAPA_PROFIL
 10
58.352383473464357
 20
-29.634607314243091
 30
0.0
  0
VERTEX
  5
1E7F
  8
SAPA_PROFIL
 10
60.165613944122157
 20
-30.0160539103708
 30
0.0
 42
0.4757248385987928
  0
VERTEX
  5
1E80
  8
SAPA_PROFIL
 10
60.537270888972358
 20
-29.715057819912971
 30
0.0
  0
VERTEX
  5
1E81
  8
SAPA_PROFIL
 10
60.537187211184722
 20
-28.210700005102321
 30
0.0
  0
VERTEX
  5
1E82
  8
SAPA_PROFIL
 10
60.489341461186228
 20
-28.196181595854998
 30
0.0
 42
-0.4580511809928869
  0
VERTEX
  5
1E83
  8
SAPA_PROFIL
 10
60.305273745533363
 20
-27.780801213305921
 30
0.0
  0
VERTEX
  5
1E84
  8
SAPA_PROFIL
 10
60.799999999900741
 20
-26.49871529777667
 30
0.0
  0
VERTEX
  5
1E85
  8
SAPA_PROFIL
 10
60.799999999900741
 20
-23.486230964268291
 30
0.0
 42
0.2596812337301257
  0
VERTEX
  5
1E86
  8
SAPA_PROFIL
 10
60.705306804652679
 20
-23.316200152728221
 30
0.0
  0
VERTEX
  5
1E87
  8
SAPA_PROFIL
 10
59.457960207028613
 20
-22.543669083658621
 30
0.0
 42
0.5877032589249617
  0
VERTEX
  5
1E88
  8
SAPA_PROFIL
 10
58.999999999901007
 20
-22.79871530096873
 30
0.0
  0
VERTEX
  5
1E89
  8
SAPA_PROFIL
 10
58.999999999901007
 20
-24.232894087359199
 30
0.0
 42
-0.4683749459842228
  0
VERTEX
  5
1E8A
  8
SAPA_PROFIL
 10
58.699999999900832
 20
-24.498715300968769
 30
0.0
  0
VERTEX
  5
1E8B
  8
SAPA_PROFIL
 10
56.299999999901189
 20
-24.498715300968549
 30
0.0
 42
-0.4683749459847173
  0
VERTEX
  5
1E8C
  8
SAPA_PROFIL
 10
55.999999999901007
 20
-24.232894087358979
 30
0.0
  0
VERTEX
  5
1E8D
  8
SAPA_PROFIL
 10
55.999999999901007
 20
-18.398715300968629
 30
0.0
  0
VERTEX
  5
1E8E
  8
SAPA_PROFIL
 10
55.999999999901007
 20
-16.398715300968629
 30
0.0
  0
VERTEX
  5
1E8F
  8
SAPA_PROFIL
 10
55.999999999901
 20
-6.7987153009687331
 30
0.0
 42
-0.4142135623730951
  0
VERTEX
  5
1E90
  8
SAPA_PROFIL
 10
56.299999999900727
 20
-6.4987153009687786
 30
0.0
  0
VERTEX
  5
1E91
  8
SAPA_PROFIL
 10
58.699999999900818
 20
-6.4987153009687786
 30
0.0
 42
-0.4142135623730951
  0
VERTEX
  5
1E92
  8
SAPA_PROFIL
 10
58.999999999901
 20
-6.7987153009687331
 30
0.0
  0
VERTEX
  5
1E93
  8
SAPA_PROFIL
 10
58.999999999901007
 20
-8.1987153009688232
 30
0.0
 42
0.5877032589248625
  0
VERTEX
  5
1E94
  8
SAPA_PROFIL
 10
59.457960207028613
 20
-8.4537615182787071
 30
0.0
  0
VERTEX
  5
1E95
  8
SAPA_PROFIL
 10
60.905306804652497
 20
-7.5573625410365644
 30
0.0
 42
0.2596812337300832
  0
VERTEX
  5
1E96
  8
SAPA_PROFIL
 10
60.999999999901007
 20
-7.3873317294964913
 30
0.0
  0
VERTEX
  5
1E97
  8
SAPA_PROFIL
 10
60.999999999901
 20
-4.6987152978190174
 30
0.0
 42
0.4142135623731107
  0
VERTEX
  5
1E98
  8
SAPA_PROFIL
 10
60.799999999900727
 20
-4.4987152978189711
 30
0.0
  0
VERTEX
  5
1E99
  8
SAPA_PROFIL
 10
31.199999999900829
 20
-4.4987152978189773
 30
0.0
 42
0.4142135623730273
  0
VERTEX
  5
1E9A
  8
SAPA_PROFIL
 10
30.999999999901011
 20
-4.6987152978190219
 30
0.0
  0
VERTEX
  5
1E9B
  8
SAPA_PROFIL
 10
30.999999999901011
 20
-7.3873317294967249
 30
0.0
 42
0.2596812337302099
  0
VERTEX
  5
1E9C
  8
SAPA_PROFIL
 10
31.094693195149059
 20
-7.5573625410367979
 30
0.0
  0
VERTEX
  5
1E9D
  8
SAPA_PROFIL
 10
32.542039792772961
 20
-8.4537615182789416
 30
0.0
 42
0.5877032589250762
  0
VERTEX
  5
1E9E
  8
SAPA_PROFIL
 10
32.999999999901007
 20
-8.1987153009688321
 30
0.0
  0
VERTEX
  5
1E9F
  8
SAPA_PROFIL
 10
32.999999999901007
 20
-6.7987153009687393
 30
0.0
 42
-0.4142135623730951
  0
VERTEX
  5
1EA0
  8
SAPA_PROFIL
 10
33.299999999900741
 20
-6.4987153009687839
 30
0.0
  0
VERTEX
  5
1EA1
  8
SAPA_PROFIL
 10
35.699999999900832
 20
-6.4987153009687839
 30
0.0
 42
-0.4142135623730951
  0
VERTEX
  5
1EA2
  8
SAPA_PROFIL
 10
35.999999999901007
 20
-6.7987153009687393
 30
0.0
  0
VERTEX
  5
1EA3
  8
SAPA_PROFIL
 10
35.999999999901007
 20
-16.39871530096886
 30
0.0
  0
VERTEX
  5
1EA4
  8
SAPA_PROFIL
 10
35.999999999901007
 20
-18.39871530096887
 30
0.0
  0
VERTEX
  5
1EA5
  8
SAPA_PROFIL
 10
35.999999999901021
 20
-24.232894087358531
 30
0.0
 42
-0.4683749459843959
  0
VERTEX
  5
1EA6
  8
SAPA_PROFIL
 10
35.699999999901287
 20
-24.498715300968779
 30
0.0
  0
VERTEX
  5
1EA7
  8
SAPA_PROFIL
 10
33.299999999900749
 20
-24.498715300968779
 30
0.0
 42
-0.4683749459842226
  0
VERTEX
  5
1EA8
  8
SAPA_PROFIL
 10
32.999999999901021
 20
-24.23289408735921
 30
0.0
  0
VERTEX
  5
1EA9
  8
SAPA_PROFIL
 10
32.999999999901007
 20
-22.798715300968961
 30
0.0
 42
0.5877032589249771
  0
VERTEX
  5
1EAA
  8
SAPA_PROFIL
 10
32.542039792772961
 20
-22.543669083658848
 30
0.0
  0
VERTEX
  5
1EAB
  8
SAPA_PROFIL
 10
31.29469319514935
 20
-23.316200152728221
 30
0.0
 42
0.2596812337301256
  0
VERTEX
  5
1EAC
  8
SAPA_PROFIL
 10
31.199999999900839
 20
-23.486230964268291
 30
0.0
  0
VERTEX
  5
1EAD
  8
SAPA_PROFIL
 10
31.199999999900839
 20
-26.49871529777668
 30
0.0
  0
VERTEX
  5
1EAE
  8
SAPA_PROFIL
 10
31.694726254268222
 20
-27.780801213305701
 30
0.0
 42
-0.4580511809929225
  0
VERTEX
  5
1EAF
  8
SAPA_PROFIL
 10
31.510658538615349
 20
-28.196181595854551
 30
0.0
  0
VERTEX
  5
1EB0
  8
SAPA_PROFIL
 10
31.462812788616858
 20
-28.210700005102112
 30
0.0
  0
VERTEX
  5
1EB1
  8
SAPA_PROFIL
 10
31.462729110829219
 20
-29.715057819918211
 30
0.0
 42
0.4757248385933691
  0
VERTEX
  5
1EB2
  8
SAPA_PROFIL
 10
31.834386055678959
 20
-30.016053910370349
 30
0.0
  0
VERTEX
  5
1EB3
  8
SAPA_PROFIL
 10
33.647616526337217
 20
-29.63460731424286
 30
0.0
 42
0.2350054070140314
  0
VERTEX
  5
1EB4
  8
SAPA_PROFIL
 10
34.206665443220281
 20
-29.192626521520399
 30
0.0
 42
-0.0011882050611145
  0
VERTEX
  5
1EB5
  8
SAPA_PROFIL
 10
34.20710103476101
 20
-29.193984199202969
 30
0.0
  0
VERTEX
  5
1EB6
  8
SAPA_PROFIL
 10
34.34063026892288
 20
-28.944116125856429
 30
0.0
 42
0.5773502691894562
  0
VERTEX
  5
1EB7
  8
SAPA_PROFIL
 10
34.157676528812928
 20
-28.64995982560183
 30
0.0
  0
VERTEX
  5
1EB8
  8
SAPA_PROFIL
 10
33.835918800594463
 20
-28.660521191828568
 30
0.0
  0
VERTEX
  5
1EB9
  8
SAPA_PROFIL
 10
32.751354353622609
 20
-26.774677499967289
 30
0.0
  0
VERTEX
  5
1EBA
  8
SAPA_PROFIL
 10
32.69929765356089
 20
-26.603123453343851
 30
0.0
 42
-0.8292414158590609
  0
VERTEX
  5
1EBB
  8
SAPA_PROFIL
 10
33.031293286579668
 20
-26.406990164811958
 30
0.0
 42
0.2036002236714843
  0
VERTEX
  5
1EBC
  8
SAPA_PROFIL
 10
33.24721359540051
 20
-26.498715297776219
 30
0.0
  0
VERTEX
  5
1EBD
  8
SAPA_PROFIL
 10
37.099999999900483
 20
-26.498715297776219
 30
0.0
 42
-0.4142135623731708
  0
VERTEX
  5
1EBE
  8
SAPA_PROFIL
 10
37.399999999900658
 20
-26.798715297776411
 30
0.0
  0
VERTEX
  5
1EBF
  8
SAPA_PROFIL
 10
37.399999999900658
 20
-27.098715297776589
 30
0.0
  0
VERTEX
  5
1EC0
  8
SAPA_PROFIL
 10
36.476239569197041
 20
-28.69871529777604
 30
0.0
 42
0.5773502691897499
  0
VERTEX
  5
1EC1
  8
SAPA_PROFIL
 10
36.64944464995385
 20
-28.998715297776219
 30
0.0
  0
VERTEX
  5
1EC2
  8
SAPA_PROFIL
 10
38.035085296009292
 20
-28.99871529777645
 30
0.0
 42
0.2679491924311548
  0
VERTEX
  5
1EC3
  8
SAPA_PROFIL
 10
38.901110699793819
 20
-28.49871529777645
 30
0.0
  0
VERTEX
  5
1EC4
  8
SAPA_PROFIL
 10
39.91147367087585
 20
-26.748715297776219
 30
0.0
 42
-0.2679491924310984
  0
VERTEX
  5
1EC5
  8
SAPA_PROFIL
 10
40.344486372768337
 20
-26.498715297776219
 30
0.0
  0
SEQEND
  5
1EC6
  8
SAPA_PROFIL
  0
POLYLINE
  5
13C5
  8
SAPA_PROFIL
 66
     1
 10
0.0
 20
0.0
 30
0.0
 70
     1
  0
VERTEX
  5
1EC7
  8
SAPA_PROFIL
 10
54.299999999739128
 20
-24.498715294376652
 30
0.0
 42
-0.4142135623730951
  0
VERTEX
  5
1EC8
  8
SAPA_PROFIL
 10
53.999999999739117
 20
-24.79871529437666
 30
0.0
  0
VERTEX
  5
1EC9
  8
SAPA_PROFIL
 10
52.499999999739117
 20
-24.79871529437666
 30
0.0
 42
-0.414213562372978
  0
VERTEX
  5
1ECA
  8
SAPA_PROFIL
 10
52.299999999739128
 20
-24.598715294376781
 30
0.0
  0
VERTEX
  5
1ECB
  8
SAPA_PROFIL
 10
52.299999999739128
 20
-24.49871529533031
 30
0.0
 42
0.4142135624945221
  0
VERTEX
  5
1ECC
  8
SAPA_PROFIL
 10
51.999999999614751
 20
-24.198715295330292
 30
0.0
  0
VERTEX
  5
1ECD
  8
SAPA_PROFIL
 10
50.599999999614717
 20
-24.19871529591072
 30
0.0
 42
0.4142135622516715
  0
VERTEX
  5
1ECE
  8
SAPA_PROFIL
 10
50.299999999739128
 20
-24.498715295910738
 30
0.0
  0
VERTEX
  5
1ECF
  8
SAPA_PROFIL
 10
50.299999999739128
 20
-24.598715294538671
 30
0.0
 42
-0.4142135621360125
  0
VERTEX
  5
1ED0
  8
SAPA_PROFIL
 10
50.09999999990103
 20
-24.79871529453866
 30
0.0
  0
VERTEX
  5
1ED1
  8
SAPA_PROFIL
 10
41.899999999900992
 20
-24.798715301014148
 30
0.0
 42
-0.4142135626101776
  0
VERTEX
  5
1ED2
  8
SAPA_PROFIL
 10
41.69999999973912
 20
-24.59871530101416
 30
0.0
  0
VERTEX
  5
1ED3
  8
SAPA_PROFIL
 10
41.69999999973912
 20
-24.498715299642051
 30
0.0
 42
0.4142135624945291
  0
VERTEX
  5
1ED4
  8
SAPA_PROFIL
 10
41.399999999614742
 20
-24.198715299642039
 30
0.0
  0
VERTEX
  5
1ED5
  8
SAPA_PROFIL
 10
39.999999999614758
 20
-24.198715300222521
 30
0.0
 42
0.4142135622516611
  0
VERTEX
  5
1ED6
  8
SAPA_PROFIL
 10
39.69999999973912
 20
-24.498715300222528
 30
0.0
  0
VERTEX
  5
1ED7
  8
SAPA_PROFIL
 10
39.69999999973912
 20
-24.598715300425152
 30
0.0
 42
-0.4142135622584299
  0
VERTEX
  5
1ED8
  8
SAPA_PROFIL
 10
39.499999999817412
 20
-24.79871530042519
 30
0.0
  0
VERTEX
  5
1ED9
  8
SAPA_PROFIL
 10
37.999999999863903
 20
-24.798715301049171
 30
0.0
 42
-0.4142135624949384
  0
VERTEX
  5
1EDA
  8
SAPA_PROFIL
 10
37.69999999973912
 20
-24.498715301049149
 30
0.0
  0
VERTEX
  5
1EDB
  8
SAPA_PROFIL
 10
37.699999999739113
 20
-6.4987152906099812
 30
0.0
 42
-0.4142135623730743
  0
VERTEX
  5
1EDC
  8
SAPA_PROFIL
 10
37.99999999973906
 20
-6.198715290609969
 30
0.0
  0
VERTEX
  5
1EDD
  8
SAPA_PROFIL
 10
39.499999999739117
 20
-6.1987152906098544
 30
0.0
 42
-0.4142135623730951
  0
VERTEX
  5
1EDE
  8
SAPA_PROFIL
 10
39.699999999739113
 20
-6.398715290609843
 30
0.0
  0
VERTEX
  5
1EDF
  8
SAPA_PROFIL
 10
39.699999999739113
 20
-6.4987152906099794
 30
0.0
 42
0.4142135623731125
  0
VERTEX
  5
1EE0
  8
SAPA_PROFIL
 10
39.999999999739117
 20
-6.7987152906099899
 30
0.0
  0
VERTEX
  5
1EE1
  8
SAPA_PROFIL
 10
41.399999999739087
 20
-6.7987152906099899
 30
0.0
 42
0.4142135623730951
  0
VERTEX
  5
1EE2
  8
SAPA_PROFIL
 10
41.699999999739099
 20
-6.4987152906099794
 30
0.0
  0
VERTEX
  5
1EE3
  8
SAPA_PROFIL
 10
41.699999999739099
 20
-6.3987152906099558
 30
0.0
 42
-0.4142135623730951
  0
VERTEX
  5
1EE4
  8
SAPA_PROFIL
 10
41.899999999739087
 20
-6.1987152906099681
 30
0.0
  0
VERTEX
  5
1EE5
  8
SAPA_PROFIL
 10
50.099999999739133
 20
-6.1987152906099663
 30
0.0
 42
-0.4142135623730951
  0
VERTEX
  5
1EE6
  8
SAPA_PROFIL
 10
50.299999999739128
 20
-6.398715290609954
 30
0.0
  0
VERTEX
  5
1EE7
  8
SAPA_PROFIL
 10
50.299999999739128
 20
-6.4987152906099768
 30
0.0
 42
0.4142135623730951
  0
VERTEX
  5
1EE8
  8
SAPA_PROFIL
 10
50.599999999739083
 20
-6.798715290609989
 30
0.0
  0
VERTEX
  5
1EE9
  8
SAPA_PROFIL
 10
51.99999999973911
 20
-6.798715290609989
 30
0.0
 42
0.4142135623730951
  0
VERTEX
  5
1EEA
  8
SAPA_PROFIL
 10
52.299999999739121
 20
-6.4987152906099768
 30
0.0
  0
VERTEX
  5
1EEB
  8
SAPA_PROFIL
 10
52.299999999739121
 20
-6.398715290609954
 30
0.0
 42
-0.4142135623730951
  0
VERTEX
  5
1EEC
  8
SAPA_PROFIL
 10
52.499999999739117
 20
-6.1987152906099663
 30
0.0
  0
VERTEX
  5
1EED
  8
SAPA_PROFIL
 10
53.99999999973911
 20
-6.1987152906098517
 30
0.0
 42
-0.4142135623731159
  0
VERTEX
  5
1EEE
  8
SAPA_PROFIL
 10
54.299999999739128
 20
-6.4987152906098622
 30
0.0
  0
SEQEND
  5
1EEF
  8
SAPA_PROFIL
  0
POLYLINE
  5
13C6
  8
SAPA_PROFIL
 62
     4
 66
     1
 10
0.0
 20
0.0
 30
0.0
  0
VERTEX
  5
1EF0
  8
SAPA_PROFIL
 62
     4
 10
58.067718914054041
 20
-38.449386111227199
 30
0.0
 42
0.5571646428658034
  0
VERTEX
  5
1EF1
  8
SAPA_PROFIL
 62
     4
 10
57.199999999898488
 20
-38.986346615364027
 30
0.0
  0
VERTEX
  5
1EF2
  8
SAPA_PROFIL
 62
     4
 10
57.199999999898942
 20
-56.011083851885218
 30
0.0
 42
0.5571645048035741
  0
VERTEX
  5
1EF3
  8
SAPA_PROFIL
 62
     4
 10
58.067718687765108
 20
-56.548044468846292
 30
0.0
  0
VERTEX
  5
1EF4
  8
SAPA_PROFIL
 62
     4
 10
59.733859343833153
 20
-55.717337381299579
 30
0.0
 42
0.284385813979063
  0
VERTEX
  5
1EF5
  8
SAPA_PROFIL
 62
     4
 10
59.899999999900579
 20
-55.448857072819237
 30
0.0
  0
VERTEX
  5
1EF6
  8
SAPA_PROFIL
 62
     4
 10
59.899999999900579
 20
-39.548573394429923
 30
0.0
 42
0.2843858139786238
  0
VERTEX
  5
1EF7
  8
SAPA_PROFIL
 62
     4
 10
59.73385934383365
 20
-39.280093085949638
 30
0.0
  0
VERTEX
  5
1EF8
  8
SAPA_PROFIL
 62
     4
 10
58.067718687764312
 20
-38.449385998402477
 30
0.0
  0
SEQEND
  5
1EF9
  8
SAPA_PROFIL
 62
     4
  0
POLYLINE
  5
13C7
  8
SAPA_PROFIL
 62
     4
 66
     1
 10
0.0
 20
0.0
 30
0.0
 70
     1
  0
VERTEX
  5
1EFA
  8
SAPA_PROFIL
 62
     4
 10
60.256831514398158
 20
-61.916326418291867
 30
0.0
  0
VERTEX
  5
1EFB
  8
SAPA_PROFIL
 62
     4
 10
60.663391710402301
 20
-62.180349696667882
 30
0.0
 42
-0.2539676464751066
  0
VERTEX
  5
1EFC
  8
SAPA_PROFIL
 62
     4
 10
60.799999999898411
 20
-62.431950867052592
 30
0.0
  0
VERTEX
  5
1EFD
  8
SAPA_PROFIL
 62
     4
 10
60.799999999898411
 20
-63.813450452257939
 30
0.0
 42
-0.3152987888790479
  0
VERTEX
  5
1EFE
  8
SAPA_PROFIL
 62
     4
 10
60.471010071560237
 20
-64.283296762650252
 30
0.0
  0
VERTEX
  5
1EFF
  8
SAPA_PROFIL
 62
     4
 10
58.010179881108961
 20
-65.178965703558859
 30
0.0
 42
0.2694959974287434
  0
VERTEX
  5
1F00
  8
SAPA_PROFIL
 62
     4
 10
57.817047906765069
 20
-65.410484749960219
 30
0.0
 42
0.0612686379508233
  0
VERTEX
  5
1F01
  8
SAPA_PROFIL
 62
     4
 10
57.803464536134548
 20
-65.703160182813491
 30
0.0
  0
VERTEX
  5
1F02
  8
SAPA_PROFIL
 62
     4
 10
57.601727857405727
 20
-66.052578360121757
 30
0.0
 42
0.5773502691891679
  0
VERTEX
  5
1F03
  8
SAPA_PROFIL
 62
     4
 10
57.783593192200293
 20
-66.367578360121342
 30
0.0
  0
VERTEX
  5
1F04
  8
SAPA_PROFIL
 62
     4
 10
58.050707720326621
 20
-66.367578360121584
 30
0.0
  0
VERTEX
  5
1F05
  8
SAPA_PROFIL
 62
     4
 10
58.859391181634933
 20
-67.766106060755831
 30
0.0
 42
-0.1318219888653519
  0
VERTEX
  5
1F06
  8
SAPA_PROFIL
 62
     4
 10
58.899683578172329
 20
-67.916279163228182
 30
0.0
  0
VERTEX
  5
1F07
  8
SAPA_PROFIL
 62
     4
 10
58.899683578165963
 20
-68.098715233664961
 30
0.0
 42
-0.4142135623724291
  0
VERTEX
  5
1F08
  8
SAPA_PROFIL
 62
     4
 10
58.499683578166319
 20
-68.498715233665507
 30
0.0
  0
VERTEX
  5
1F09
  8
SAPA_PROFIL
 62
     4
 10
55.099683578165319
 20
-68.498715233664143
 30
0.0
 42
-0.4142135623744271
  0
VERTEX
  5
1F0A
  8
SAPA_PROFIL
 62
     4
 10
54.699683578164333
 20
-68.098715233664961
 30
0.0
  0
VERTEX
  5
1F0B
  8
SAPA_PROFIL
 62
     4
 10
54.699683578163693
 20
-67.919099991393665
 30
0.0
 42
-0.1316524975874005
  0
VERTEX
  5
1F0C
  8
SAPA_PROFIL
 62
     4
 10
54.739875957029277
 20
-67.769099991396843
 30
0.0
  0
VERTEX
  5
1F0D
  8
SAPA_PROFIL
 62
     4
 10
55.666025403681822
 20
-66.164962094394582
 30
0.0
 42
0.1316524975875904
  0
VERTEX
  5
1F0E
  8
SAPA_PROFIL
 62
     4
 10
55.799999999896592
 20
-65.664962094392877
 30
0.0
  0
VERTEX
  5
1F0F
  8
SAPA_PROFIL
 62
     4
 10
55.799999999896592
 20
-65.248715233665507
 30
0.0
 42
0.4142135623730951
  0
VERTEX
  5
1F10
  8
SAPA_PROFIL
 62
     4
 10
54.799999999896578
 20
-64.248715233665507
 30
0.0
  0
VERTEX
  5
1F11
  8
SAPA_PROFIL
 62
     4
 10
51.799999999899313
 20
-64.248715233665507
 30
0.0
 42
-0.9999996830128083
  0
VERTEX
  5
1F12
  8
SAPA_PROFIL
 62
     4
 10
51.799999999897501
 20
-63.2487152336655
 30
0.0
  0
VERTEX
  5
1F13
  8
SAPA_PROFIL
 62
     4
 10
54.799999999897487
 20
-63.2487152336655
 30
0.0
 42
0.4142135623730951
  0
VERTEX
  5
1F14
  8
SAPA_PROFIL
 62
     4
 10
55.799999999897487
 20
-62.248715233665507
 30
0.0
  0
VERTEX
  5
1F15
  8
SAPA_PROFIL
 62
     4
 10
55.799999999897487
 20
-32.748715233580917
 30
0.0
 42
0.4142135623730951
  0
VERTEX
  5
1F16
  8
SAPA_PROFIL
 62
     4
 10
54.799999999897487
 20
-31.748715233580921
 30
0.0
  0
VERTEX
  5
1F17
  8
SAPA_PROFIL
 62
     4
 10
51.799999999899313
 20
-31.748715233580921
 30
0.0
 42
-0.9999999999999998
  0
VERTEX
  5
1F18
  8
SAPA_PROFIL
 62
     4
 10
51.799999999899313
 20
-30.748715233580931
 30
0.0
  0
VERTEX
  5
1F19
  8
SAPA_PROFIL
 62
     4
 10
54.799999999897487
 20
-30.748715233580931
 30
0.0
 42
0.4142135623736278
  0
VERTEX
  5
1F1A
  8
SAPA_PROFIL
 62
     4
 10
55.799999999897487
 20
-29.748715233580931
 30
0.0
  0
VERTEX
  5
1F1B
  8
SAPA_PROFIL
 62
     4
 10
55.799999999897487
 20
-29.332468372854471
 30
0.0
 42
0.1316524975874375
  0
VERTEX
  5
1F1C
  8
SAPA_PROFIL
 62
     4
 10
55.666025403681459
 20
-28.832468372854262
 30
0.0
  0
VERTEX
  5
1F1D
  8
SAPA_PROFIL
 62
     4
 10
54.739875957029277
 20
-27.228330475852321
 30
0.0
 42
-0.1316524975874
  0
VERTEX
  5
1F1E
  8
SAPA_PROFIL
 62
     4
 10
54.6996835781637
 20
-27.07833047585277
 30
0.0
  0
VERTEX
  5
1F1F
  8
SAPA_PROFIL
 62
     4
 10
54.699683578164333
 20
-26.89871523358147
 30
0.0
 42
-0.4142135623744271
  0
VERTEX
  5
1F20
  8
SAPA_PROFIL
 62
     4
 10
55.099683578165319
 20
-26.498715233582288
 30
0.0
  0
VERTEX
  5
1F21
  8
SAPA_PROFIL
 62
     4
 10
58.499683578166319
 20
-26.498715233580921
 30
0.0
 42
-0.4142135623724291
  0
VERTEX
  5
1F22
  8
SAPA_PROFIL
 62
     4
 10
58.899683578165963
 20
-26.89871523358147
 30
0.0
  0
VERTEX
  5
1F23
  8
SAPA_PROFIL
 62
     4
 10
58.899683578172329
 20
-27.081151304018249
 30
0.0
 42
-0.1318219888653524
  0
VERTEX
  5
1F24
  8
SAPA_PROFIL
 62
     4
 10
58.859391181634933
 20
-27.2313244064906
 30
0.0
  0
VERTEX
  5
1F25
  8
SAPA_PROFIL
 62
     4
 10
58.0507077204106
 20
-28.629852106970251
 30
0.0
  0
VERTEX
  5
1F26
  8
SAPA_PROFIL
 62
     4
 10
57.783593192197557
 20
-28.629852106970251
 30
0.0
 42
0.577350269189159
  0
VERTEX
  5
1F27
  8
SAPA_PROFIL
 62
     4
 10
57.601727857402999
 20
-28.944852106969851
 30
0.0
  0
VERTEX
  5
1F28
  8
SAPA_PROFIL
 62
     4
 10
57.803464536080106
 20
-29.29427028418851
 30
0.0
 42
0.0612687673629489
  0
VERTEX
  5
1F29
  8
SAPA_PROFIL
 62
     4
 10
57.817047906766312
 20
-29.586945717288721
 30
0.0
 42
0.2694959974285039
  0
VERTEX
  5
1F2A
  8
SAPA_PROFIL
 62
     4
 10
58.010179881110261
 20
-29.818464763689239
 30
0.0
  0
VERTEX
  5
1F2B
  8
SAPA_PROFIL
 62
     4
 10
60.47101007156342
 20
-30.714133704598911
 30
0.0
 42
-0.3152987888784035
  0
VERTEX
  5
1F2C
  8
SAPA_PROFIL
 62
     4
 10
60.799999999900002
 20
-31.18398001499213
 30
0.0
  0
VERTEX
  5
1F2D
  8
SAPA_PROFIL
 62
     4
 10
60.799999999898411
 20
-32.565479600196568
 30
0.0
 42
-0.2539676464741841
  0
VERTEX
  5
1F2E
  8
SAPA_PROFIL
 62
     4
 10
60.663391710403133
 20
-32.817080770580652
 30
0.0
  0
VERTEX
  5
1F2F
  8
SAPA_PROFIL
 62
     4
 10
60.256831514398158
 20
-33.081104048957293
 30
0.0
 42
-0.5862177598324623
  0
VERTEX
  5
1F30
  8
SAPA_PROFIL
 62
     4
 10
59.799999999901651
 20
-32.825362233718941
 30
0.0
  0
VERTEX
  5
1F31
  8
SAPA_PROFIL
 62
     4
 10
59.799999999909318
 20
-31.884187553209131
 30
0.0
 42
0.3152987888813165
  0
VERTEX
  5
1F32
  8
SAPA_PROFIL
 62
     4
 10
59.471010071572557
 20
-31.414341242811378
 30
0.0
  0
VERTEX
  5
1F33
  8
SAPA_PROFIL
 62
     4
 10
58.271010071561342
 20
-30.977576961687419
 30
0.0
 42
0.5205670505515651
  0
VERTEX
  5
1F34
  8
SAPA_PROFIL
 62
     4
 10
57.599999999898579
 20
-31.447423272080641
 30
0.0
  0
VERTEX
  5
1F35
  8
SAPA_PROFIL
 62
     4
 10
57.59999999989855
 20
-36.463864212749492
 30
0.0
 42
0.3702522326300203
  0
VERTEX
  5
1F36
  8
SAPA_PROFIL
 62
     4
 10
57.854459952564262
 20
-36.760387574542818
 30
0.0
 42
0.0982365330332397
  0
VERTEX
  5
1F37
  8
SAPA_PROFIL
 62
     4
 10
59.54214672755927
 20
-36.850840332753762
 30
0.0
 42
0.3735060174783164
  0
VERTEX
  5
1F38
  8
SAPA_PROFIL
 62
     4
 10
59.799999999899313
 20
-36.55381566484278
 30
0.0
  0
VERTEX
  5
1F39
  8
SAPA_PROFIL
 62
     4
 10
59.799999999900223
 20
-36.125362233720132
 30
0.0
 42
-0.5920056181162531
  0
VERTEX
  5
1F3A
  8
SAPA_PROFIL
 62
     4
 10
60.261203502428138
 20
-35.872353477402733
 30
0.0
  0
VERTEX
  5
1F3B
  8
SAPA_PROFIL
 62
     4
 10
60.663391710406437
 20
-36.133537553558433
 30
0.0
 42
-0.2539676464746725
  0
VERTEX
  5
1F3C
  8
SAPA_PROFIL
 62
     4
 10
60.7999999999018
 20
-36.385138723942191
 30
0.0
  0
VERTEX
  5
1F3D
  8
SAPA_PROFIL
 62
     4
 10
60.799999999900223
 20
-58.612291743307871
 30
0.0
 42
-0.2539676464741819
  0
VERTEX
  5
1F3E
  8
SAPA_PROFIL
 62
     4
 10
60.663391710406437
 20
-58.863892913690741
 30
0.0
  0
VERTEX
  5
1F3F
  8
SAPA_PROFIL
 62
     4
 10
60.26120350242811
 20
-59.125076989844537
 30
0.0
 42
-0.5920055144124249
  0
VERTEX
  5
1F40
  8
SAPA_PROFIL
 62
     4
 10
59.799999999900223
 20
-58.872068233529042
 30
0.0
  0
VERTEX
  5
1F41
  8
SAPA_PROFIL
 62
     4
 10
59.80000002517523
 20
-58.443614756238809
 30
0.0
 42
0.3735060174775405
  0
VERTEX
  5
1F42
  8
SAPA_PROFIL
 62
     4
 10
59.54214675283513
 20
-58.14659008832912
 30
0.0
 42
0.0355900683670349
  0
VERTEX
  5
1F43
  8
SAPA_PROFIL
 62
     4
 10
58.926273166035351
 20
-58.102696524296867
 30
0.0
 42
0.0624282003873116
  0
VERTEX
  5
1F44
  8
SAPA_PROFIL
 62
     4
 10
57.854459977840222
 20
-58.237042846539808
 30
0.0
 42
0.3702522326309292
  0
VERTEX
  5
1F45
  8
SAPA_PROFIL
 62
     4
 10
57.600000025174502
 20
-58.533566208333191
 30
0.0
  0
VERTEX
  5
1F46
  8
SAPA_PROFIL
 62
     4
 10
57.599999999898372
 20
-63.5500071951667
 30
0.0
 42
0.5205670505515692
  0
VERTEX
  5
1F47
  8
SAPA_PROFIL
 62
     4
 10
58.271010071561342
 20
-64.019853505559922
 30
0.0
  0
VERTEX
  5
1F48
  8
SAPA_PROFIL
 62
     4
 10
59.471010071570781
 20
-63.583089224434971
 30
0.0
 42
0.3152987888807539
  0
VERTEX
  5
1F49
  8
SAPA_PROFIL
 62
     4
 10
59.799999999908408
 20
-63.11324291403912
 30
0.0
  0
VERTEX
  5
1F4A
  8
SAPA_PROFIL
 62
     4
 10
59.799999999901587
 20
-62.172068233530027
 30
0.0
 42
-0.5862175119221242
  0
VERTEX
  5
1F4B
  8
SAPA_PROFIL
 62
     4
 10
60.256831325656727
 20
-61.916326302548079
 30
0.0
 42
0.0000002084758573
  0
SEQEND
  5
1F4C
  8
SAPA_PROFIL
 62
     4
  0
POLYLINE
  5
13C8
  8
SAPA_PROFIL
 62
     4
 66
     1
 10
0.0
 20
0.0
 30
0.0
  0
VERTEX
  5
1F4D
  8
SAPA_PROFIL
 62
     4
 10
33.932281085747981
 20
-38.449386111227199
 30
0.0
 42
-0.5571646428658034
  0
VERTEX
  5
1F4E
  8
SAPA_PROFIL
 62
     4
 10
34.799999999903527
 20
-38.986346615364027
 30
0.0
  0
VERTEX
  5
1F4F
  8
SAPA_PROFIL
 62
     4
 10
34.799999999903072
 20
-56.011083851885218
 30
0.0
 42
-0.5571645048035741
  0
VERTEX
  5
1F50
  8
SAPA_PROFIL
 62
     4
 10
33.932281312036913
 20
-56.548044468846292
 30
0.0
  0
VERTEX
  5
1F51
  8
SAPA_PROFIL
 62
     4
 10
32.266140655968883
 20
-55.717337381299579
 30
0.0
 42
-0.284385813979063
  0
VERTEX
  5
1F52
  8
SAPA_PROFIL
 62
     4
 10
32.099999999901442
 20
-55.448857072819237
 30
0.0
  0
VERTEX
  5
1F53
  8
SAPA_PROFIL
 62
     4
 10
32.099999999901442
 20
-39.548573394429923
 30
0.0
 42
-0.2843858139786238
  0
VERTEX
  5
1F54
  8
SAPA_PROFIL
 62
     4
 10
32.266140655968357
 20
-39.280093085949638
 30
0.0
  0
VERTEX
  5
1F55
  8
SAPA_PROFIL
 62
     4
 10
33.932281312037709
 20
-38.449385998402477
 30
0.0
  0
SEQEND
  5
1F56
  8
SAPA_PROFIL
 62
     4
  0
POLYLINE
  5
13C9
  8
SAPA_PROFIL
 62
     4
 66
     1
 10
0.0
 20
0.0
 30
0.0
 70
     1
  0
VERTEX
  5
1F57
  8
SAPA_PROFIL
 62
     4
 10
31.74316848540386
 20
-61.916326418291867
 30
0.0
  0
VERTEX
  5
1F58
  8
SAPA_PROFIL
 62
     4
 10
31.33660828939972
 20
-62.180349696667882
 30
0.0
 42
0.2539676464751066
  0
VERTEX
  5
1F59
  8
SAPA_PROFIL
 62
     4
 10
31.199999999903621
 20
-62.431950867052592
 30
0.0
  0
VERTEX
  5
1F5A
  8
SAPA_PROFIL
 62
     4
 10
31.199999999903621
 20
-63.813450452257939
 30
0.0
 42
0.3152987888790479
  0
VERTEX
  5
1F5B
  8
SAPA_PROFIL
 62
     4
 10
31.528989928241781
 20
-64.283296762650252
 30
0.0
  0
VERTEX
  5
1F5C
  8
SAPA_PROFIL
 62
     4
 10
33.989820118693061
 20
-65.178965703558859
 30
0.0
 42
-0.2694959974287434
  0
VERTEX
  5
1F5D
  8
SAPA_PROFIL
 62
     4
 10
34.182952093036953
 20
-65.410484749960219
 30
0.0
 42
-0.0612686379508233
  0
VERTEX
  5
1F5E
  8
SAPA_PROFIL
 62
     4
 10
34.196535463667473
 20
-65.703160182813491
 30
0.0
  0
VERTEX
  5
1F5F
  8
SAPA_PROFIL
 62
     4
 10
34.398272142396287
 20
-66.052578360121757
 30
0.0
 42
-0.5773502691891679
  0
VERTEX
  5
1F60
  8
SAPA_PROFIL
 62
     4
 10
34.216406807601722
 20
-66.367578360121342
 30
0.0
  0
VERTEX
  5
1F61
  8
SAPA_PROFIL
 62
     4
 10
33.949292279475401
 20
-66.367578360121584
 30
0.0
  0
VERTEX
  5
1F62
  8
SAPA_PROFIL
 62
     4
 10
33.140608818167088
 20
-67.766106060755831
 30
0.0
 42
0.1318219888653519
  0
VERTEX
  5
1F63
  8
SAPA_PROFIL
 62
     4
 10
33.100316421629699
 20
-67.916279163228182
 30
0.0
  0
VERTEX
  5
1F64
  8
SAPA_PROFIL
 62
     4
 10
33.100316421636073
 20
-68.098715233664961
 30
0.0
 42
0.4142135623724291
  0
VERTEX
  5
1F65
  8
SAPA_PROFIL
 62
     4
 10
33.500316421635702
 20
-68.498715233665507
 30
0.0
  0
VERTEX
  5
1F66
  8
SAPA_PROFIL
 62
     4
 10
36.900316421636703
 20
-68.498715233664143
 30
0.0
 42
0.4142135623744271
  0
VERTEX
  5
1F67
  8
SAPA_PROFIL
 62
     4
 10
37.300316421637703
 20
-68.098715233664961
 30
0.0
  0
VERTEX
  5
1F68
  8
SAPA_PROFIL
 62
     4
 10
37.300316421638328
 20
-67.919099991393665
 30
0.0
 42
0.1316524975874005
  0
VERTEX
  5
1F69
  8
SAPA_PROFIL
 62
     4
 10
37.260124042772738
 20
-67.769099991396843
 30
0.0
  0
VERTEX
  5
1F6A
  8
SAPA_PROFIL
 62
     4
 10
36.3339745961202
 20
-66.164962094394582
 30
0.0
 42
-0.1316524975875904
  0
VERTEX
  5
1F6B
  8
SAPA_PROFIL
 62
     4
 10
36.199999999905437
 20
-65.664962094392877
 30
0.0
  0
VERTEX
  5
1F6C
  8
SAPA_PROFIL
 62
     4
 10
36.199999999905437
 20
-65.248715233665507
 30
0.0
 42
-0.4142135623730951
  0
VERTEX
  5
1F6D
  8
SAPA_PROFIL
 62
     4
 10
37.199999999905437
 20
-64.248715233665507
 30
0.0
  0
VERTEX
  5
1F6E
  8
SAPA_PROFIL
 62
     4
 10
40.199999999902708
 20
-64.248715233665507
 30
0.0
 42
0.9999996830128083
  0
VERTEX
  5
1F6F
  8
SAPA_PROFIL
 62
     4
 10
40.19999999990452
 20
-63.2487152336655
 30
0.0
  0
VERTEX
  5
1F70
  8
SAPA_PROFIL
 62
     4
 10
37.199999999904527
 20
-63.2487152336655
 30
0.0
 42
-0.4142135623730951
  0
VERTEX
  5
1F71
  8
SAPA_PROFIL
 62
     4
 10
36.199999999904527
 20
-62.248715233665507
 30
0.0
  0
VERTEX
  5
1F72
  8
SAPA_PROFIL
 62
     4
 10
36.199999999904527
 20
-32.748715233580917
 30
0.0
 42
-0.4142135623730951
  0
VERTEX
  5
1F73
  8
SAPA_PROFIL
 62
     4
 10
37.199999999904527
 20
-31.748715233580921
 30
0.0
  0
VERTEX
  5
1F74
  8
SAPA_PROFIL
 62
     4
 10
40.199999999902708
 20
-31.748715233580921
 30
0.0
 42
0.9999999999999998
  0
VERTEX
  5
1F75
  8
SAPA_PROFIL
 62
     4
 10
40.199999999902708
 20
-30.748715233580931
 30
0.0
  0
VERTEX
  5
1F76
  8
SAPA_PROFIL
 62
     4
 10
37.199999999904527
 20
-30.748715233580931
 30
0.0
 42
-0.4142135623736278
  0
VERTEX
  5
1F77
  8
SAPA_PROFIL
 62
     4
 10
36.199999999904527
 20
-29.748715233580931
 30
0.0
  0
VERTEX
  5
1F78
  8
SAPA_PROFIL
 62
     4
 10
36.199999999904527
 20
-29.332468372854471
 30
0.0
 42
-0.1316524975874375
  0
VERTEX
  5
1F79
  8
SAPA_PROFIL
 62
     4
 10
36.333974596120562
 20
-28.832468372854262
 30
0.0
  0
VERTEX
  5
1F7A
  8
SAPA_PROFIL
 62
     4
 10
37.260124042772738
 20
-27.228330475852321
 30
0.0
 42
0.1316524975874
  0
VERTEX
  5
1F7B
  8
SAPA_PROFIL
 62
     4
 10
37.300316421638328
 20
-27.07833047585277
 30
0.0
  0
VERTEX
  5
1F7C
  8
SAPA_PROFIL
 62
     4
 10
37.300316421637703
 20
-26.89871523358147
 30
0.0
 42
0.4142135623744271
  0
VERTEX
  5
1F7D
  8
SAPA_PROFIL
 62
     4
 10
36.900316421636703
 20
-26.498715233582288
 30
0.0
  0
VERTEX
  5
1F7E
  8
SAPA_PROFIL
 62
     4
 10
33.500316421635702
 20
-26.498715233580921
 30
0.0
 42
0.4142135623724291
  0
VERTEX
  5
1F7F
  8
SAPA_PROFIL
 62
     4
 10
33.100316421636059
 20
-26.89871523358147
 30
0.0
  0
VERTEX
  5
1F80
  8
SAPA_PROFIL
 62
     4
 10
33.100316421629692
 20
-27.081151304018249
 30
0.0
 42
0.1318219888653524
  0
VERTEX
  5
1F81
  8
SAPA_PROFIL
 62
     4
 10
33.140608818167081
 20
-27.2313244064906
 30
0.0
  0
VERTEX
  5
1F82
  8
SAPA_PROFIL
 62
     4
 10
33.949292279391422
 20
-28.629852106970251
 30
0.0
  0
VERTEX
  5
1F83
  8
SAPA_PROFIL
 62
     4
 10
34.216406807604457
 20
-28.629852106970251
 30
0.0
 42
-0.577350269189159
  0
VERTEX
  5
1F84
  8
SAPA_PROFIL
 62
     4
 10
34.398272142399023
 20
-28.944852106969851
 30
0.0
  0
VERTEX
  5
1F85
  8
SAPA_PROFIL
 62
     4
 10
34.196535463721922
 20
-29.29427028418851
 30
0.0
 42
-0.0612687673629489
  0
VERTEX
  5
1F86
  8
SAPA_PROFIL
 62
     4
 10
34.182952093035709
 20
-29.586945717288721
 30
0.0
 42
-0.2694959974285039
  0
VERTEX
  5
1F87
  8
SAPA_PROFIL
 62
     4
 10
33.98982011869176
 20
-29.818464763689239
 30
0.0
  0
VERTEX
  5
1F88
  8
SAPA_PROFIL
 62
     4
 10
31.528989928238602
 20
-30.714133704598911
 30
0.0
 42
0.3152987888784035
  0
VERTEX
  5
1F89
  8
SAPA_PROFIL
 62
     4
 10
31.19999999990203
 20
-31.18398001499213
 30
0.0
  0
VERTEX
  5
1F8A
  8
SAPA_PROFIL
 62
     4
 10
31.199999999903621
 20
-32.565479600196568
 30
0.0
 42
0.2539676464741841
  0
VERTEX
  5
1F8B
  8
SAPA_PROFIL
 62
     4
 10
31.336608289398889
 20
-32.817080770580652
 30
0.0
  0
VERTEX
  5
1F8C
  8
SAPA_PROFIL
 62
     4
 10
31.743168485403871
 20
-33.081104048957293
 30
0.0
 42
0.5862177598324623
  0
VERTEX
  5
1F8D
  8
SAPA_PROFIL
 62
     4
 10
32.199999999900371
 20
-32.825362233718941
 30
0.0
  0
VERTEX
  5
1F8E
  8
SAPA_PROFIL
 62
     4
 10
32.199999999892711
 20
-31.884187553209131
 30
0.0
 42
-0.3152987888813165
  0
VERTEX
  5
1F8F
  8
SAPA_PROFIL
 62
     4
 10
32.528989928229457
 20
-31.414341242811378
 30
0.0
  0
VERTEX
  5
1F90
  8
SAPA_PROFIL
 62
     4
 10
33.728989928240694
 20
-30.977576961687419
 30
0.0
 42
-0.5205670505515651
  0
VERTEX
  5
1F91
  8
SAPA_PROFIL
 62
     4
 10
34.399999999903443
 20
-31.447423272080641
 30
0.0
  0
VERTEX
  5
1F92
  8
SAPA_PROFIL
 62
     4
 10
34.399999999903471
 20
-36.463864212749492
 30
0.0
 42
-0.3702522326300203
  0
VERTEX
  5
1F93
  8
SAPA_PROFIL
 62
     4
 10
34.145540047237759
 20
-36.760387574542818
 30
0.0
 42
-0.0982365330332397
  0
VERTEX
  5
1F94
  8
SAPA_PROFIL
 62
     4
 10
32.457853272242751
 20
-36.850840332753762
 30
0.0
 42
-0.3735060174783164
  0
VERTEX
  5
1F95
  8
SAPA_PROFIL
 62
     4
 10
32.199999999902708
 20
-36.55381566484278
 30
0.0
  0
VERTEX
  5
1F96
  8
SAPA_PROFIL
 62
     4
 10
32.199999999901799
 20
-36.125362233720132
 30
0.0
 42
0.5920056181162531
  0
VERTEX
  5
1F97
  8
SAPA_PROFIL
 62
     4
 10
31.73879649737388
 20
-35.872353477402733
 30
0.0
  0
VERTEX
  5
1F98
  8
SAPA_PROFIL
 62
     4
 10
31.336608289395581
 20
-36.133537553558433
 30
0.0
 42
0.2539676464746725
  0
VERTEX
  5
1F99
  8
SAPA_PROFIL
 62
     4
 10
31.199999999900221
 20
-36.385138723942191
 30
0.0
  0
VERTEX
  5
1F9A
  8
SAPA_PROFIL
 62
     4
 10
31.199999999901799
 20
-58.612291743307871
 30
0.0
 42
0.2539676464741819
  0
VERTEX
  5
1F9B
  8
SAPA_PROFIL
 62
     4
 10
31.336608289395581
 20
-58.863892913690741
 30
0.0
  0
VERTEX
  5
1F9C
  8
SAPA_PROFIL
 62
     4
 10
31.738796497373912
 20
-59.125076989844537
 30
0.0
 42
0.5920055144124249
  0
VERTEX
  5
1F9D
  8
SAPA_PROFIL
 62
     4
 10
32.199999999901799
 20
-58.872068233529042
 30
0.0
  0
VERTEX
  5
1F9E
  8
SAPA_PROFIL
 62
     4
 10
32.199999974626792
 20
-58.443614756238809
 30
0.0
 42
-0.3735060174775405
  0
VERTEX
  5
1F9F
  8
SAPA_PROFIL
 62
     4
 10
32.457853246966891
 20
-58.14659008832912
 30
0.0
 42
-0.0355900683670349
  0
VERTEX
  5
1FA0
  8
SAPA_PROFIL
 62
     4
 10
33.073726833766671
 20
-58.102696524296867
 30
0.0
 42
-0.0624282003873116
  0
VERTEX
  5
1FA1
  8
SAPA_PROFIL
 62
     4
 10
34.1455400219618
 20
-58.237042846539808
 30
0.0
 42
-0.3702522326309292
  0
VERTEX
  5
1FA2
  8
SAPA_PROFIL
 62
     4
 10
34.399999974627519
 20
-58.533566208333191
 30
0.0
  0
VERTEX
  5
1FA3
  8
SAPA_PROFIL
 62
     4
 10
34.399999999903663
 20
-63.5500071951667
 30
0.0
 42
-0.5205670505515692
  0
VERTEX
  5
1FA4
  8
SAPA_PROFIL
 62
     4
 10
33.728989928240694
 20
-64.019853505559922
 30
0.0
  0
VERTEX
  5
1FA5
  8
SAPA_PROFIL
 62
     4
 10
32.52898992823124
 20
-63.583089224434971
 30
0.0
 42
-0.3152987888807539
  0
VERTEX
  5
1FA6
  8
SAPA_PROFIL
 62
     4
 10
32.19999999989362
 20
-63.11324291403912
 30
0.0
  0
VERTEX
  5
1FA7
  8
SAPA_PROFIL
 62
     4
 10
32.199999999900442
 20
-62.172068233530027
 30
0.0
 42
0.5862175119221242
  0
VERTEX
  5
1FA8
  8
SAPA_PROFIL
 62
     4
 10
31.743168674145299
 20
-61.916326302548079
 30
0.0
 42
-0.0000002084758573
  0
SEQEND
  5
1FA9
  8
SAPA_PROFIL
 62
     4
  0
POLYLINE
  5
13CA
  8
SAPA_PROFIL
 62
     4
 66
     1
 10
0.0
 20
0.0
 30
0.0
 70
     1
  0
VERTEX
  5
1FAA
  8
SAPA_PROFIL
 62
     4
 10
14.90000000006556
 20
-76.702943556166389
 30
0.0
  0
VERTEX
  5
1FAB
  8
SAPA_PROFIL
 62
     4
 10
14.90000000006375
 20
-80.8970561058633
 30
0.0
 42
-0.1989123673786592
  0
VERTEX
  5
1FAC
  8
SAPA_PROFIL
 62
     4
 10
14.812132034420291
 20
-81.109188140219118
 30
0.0
  0
VERTEX
  5
1FAD
  8
SAPA_PROFIL
 62
     4
 10
12.58786796570938
 20
-83.333452208930026
 30
0.0
 42
0.1989123673785438
  0
VERTEX
  5
1FAE
  8
SAPA_PROFIL
 62
     4
 10
12.500000000065929
 20
-83.545584243285845
 30
0.0
  0
VERTEX
  5
1FAF
  8
SAPA_PROFIL
 62
     4
 10
12.50000000006775
 20
-83.999999831014208
 30
0.0
 42
0.4142135623730951
  0
VERTEX
  5
1FB0
  8
SAPA_PROFIL
 62
     4
 10
12.800000000067021
 20
-84.299999831014375
 30
0.0
  0
VERTEX
  5
1FB1
  8
SAPA_PROFIL
 62
     4
 10
24.700000000064112
 20
-84.299999831014375
 30
0.0
 42
-0.4142135623730951
  0
VERTEX
  5
1FB2
  8
SAPA_PROFIL
 62
     4
 10
25.200000000064112
 20
-84.799999831014389
 30
0.0
  0
VERTEX
  5
1FB3
  8
SAPA_PROFIL
 62
     4
 10
25.200000000064112
 20
-86.499999831014208
 30
0.0
 42
0.4142135623739832
  0
VERTEX
  5
1FB4
  8
SAPA_PROFIL
 62
     4
 10
25.500000000063391
 20
-86.799999831014375
 30
0.0
  0
VERTEX
  5
1FB5
  8
SAPA_PROFIL
 62
     4
 10
29.20000000006484
 20
-86.799999831014375
 30
0.0
 42
0.414213562375759
  0
VERTEX
  5
1FB6
  8
SAPA_PROFIL
 62
     4
 10
29.500000000065931
 20
-86.499999831014208
 30
0.0
  0
VERTEX
  5
1FB7
  8
SAPA_PROFIL
 62
     4
 10
29.500000000064109
 20
-70.006576700611191
 30
0.0
 42
0.4142135623735391
  0
VERTEX
  5
1FB8
  8
SAPA_PROFIL
 62
     4
 10
29.20000000006484
 20
-69.706576700611464
 30
0.0
  0
VERTEX
  5
1FB9
  8
SAPA_PROFIL
 62
     4
 10
12.800000000067021
 20
-69.706576700611464
 30
0.0
 42
0.4142135623726511
  0
VERTEX
  5
1FBA
  8
SAPA_PROFIL
 62
     4
 10
12.500000000065929
 20
-70.006576700611191
 30
0.0
  0
VERTEX
  5
1FBB
  8
SAPA_PROFIL
 62
     4
 10
12.500000000065929
 20
-74.054415418742025
 30
0.0
 42
0.1989123673785438
  0
VERTEX
  5
1FBC
  8
SAPA_PROFIL
 62
     4
 10
12.58786796570938
 20
-74.266547453097843
 30
0.0
  0
VERTEX
  5
1FBD
  8
SAPA_PROFIL
 62
     4
 10
14.81213203442211
 20
-76.490811521810571
 30
0.0
 42
-0.1989123673798886
  0
SEQEND
  5
1FBE
  8
SAPA_PROFIL
 62
     4
  0
POLYLINE
  5
13CB
  8
SAPA_PROFIL
 62
     4
 66
     1
 10
0.0
 20
0.0
 30
0.0
 70
     1
  0
VERTEX
  5
1FBF
  8
SAPA_PROFIL
 62
     4
 10
29.500000000064109
 20
-57.181576700611373
 30
0.0
  0
VERTEX
  5
1FC0
  8
SAPA_PROFIL
 62
     4
 10
29.500000000064109
 20
-68.1065767006111
 30
0.0
 42
-0.4142135623732061
  0
VERTEX
  5
1FC1
  8
SAPA_PROFIL
 62
     4
 10
29.20000000006484
 20
-68.406576700611282
 30
0.0
  0
VERTEX
  5
1FC2
  8
SAPA_PROFIL
 62
     4
 10
12.800000000067021
 20
-68.406576700611282
 30
0.0
 42
-0.4142135623730951
  0
VERTEX
  5
1FC3
  8
SAPA_PROFIL
 62
     4
 10
12.500000000065929
 20
-68.1065767006111
 30
0.0
  0
VERTEX
  5
1FC4
  8
SAPA_PROFIL
 62
     4
 10
12.500000000065929
 20
-57.181576700611373
 30
0.0
 42
-0.4142135623731173
  0
VERTEX
  5
1FC5
  8
SAPA_PROFIL
 62
     4
 10
12.800000000067021
 20
-56.881576700611191
 30
0.0
  0
VERTEX
  5
1FC6
  8
SAPA_PROFIL
 62
     4
 10
29.20000000006484
 20
-56.881576700611191
 30
0.0
 42
-0.4142135623730951
  0
SEQEND
  5
1FC7
  8
SAPA_PROFIL
 62
     4
  0
POLYLINE
  5
13CC
  8
SAPA_PROFIL
 62
     4
 66
     1
 10
0.0
 20
0.0
 30
0.0
  0
VERTEX
  5
1FC8
  8
SAPA_PROFIL
 62
     4
 10
12.800000000067021
 20
-55.581576700611457
 30
0.0
 42
-0.4142135623731173
  0
VERTEX
  5
1FC9
  8
SAPA_PROFIL
 62
     4
 10
12.500000000065929
 20
-55.281576700611282
 30
0.0
  0
VERTEX
  5
1FCA
  8
SAPA_PROFIL
 62
     4
 10
12.50000000006775
 20
-47.499999831014428
 30
0.0
 42
-0.4142135623730951
  0
VERTEX
  5
1FCB
  8
SAPA_PROFIL
 62
     4
 10
13.00000000006775
 20
-46.999999831014428
 30
0.0
  0
VERTEX
  5
1FCC
  8
SAPA_PROFIL
 62
     4
 10
29.000000000065931
 20
-46.999999831014428
 30
0.0
 42
-0.4142135623730951
  0
VERTEX
  5
1FCD
  8
SAPA_PROFIL
 62
     4
 10
29.500000000065931
 20
-47.499999831014428
 30
0.0
  0
VERTEX
  5
1FCE
  8
SAPA_PROFIL
 62
     4
 10
29.500000000064109
 20
-55.281576700611282
 30
0.0
 42
-0.4142135623730951
  0
VERTEX
  5
1FCF
  8
SAPA_PROFIL
 62
     4
 10
29.20000000006484
 20
-55.581576700611457
 30
0.0
  0
VERTEX
  5
1FD0
  8
SAPA_PROFIL
 62
     4
 10
12.800000000067021
 20
-55.581576700611457
 30
0.0
  0
SEQEND
  5
1FD1
  8
SAPA_PROFIL
 62
     4
  0
POLYLINE
  5
13CD
  8
SAPA_PROFIL
 62
     4
 66
     1
 10
0.0
 20
0.0
 30
0.0
 70
     1
  0
VERTEX
  5
1FD2
  8
SAPA_PROFIL
 62
     4
 10
11.00000000006775
 20
-45.999999831014428
 30
0.0
  0
VERTEX
  5
1FD3
  8
SAPA_PROFIL
 62
     4
 10
11.000000000065929
 20
-74.675735762302025
 30
0.0
 42
0.1989123673799843
  0
VERTEX
  5
1FD4
  8
SAPA_PROFIL
 62
     4
 10
11.087867965711199
 20
-74.887867796658753
 30
0.0
  0
VERTEX
  5
1FD5
  8
SAPA_PROFIL
 62
     4
 10
13.31213203442211
 20
-77.112131865369662
 30
0.0
 42
-0.1989123673811184
  0
VERTEX
  5
1FD6
  8
SAPA_PROFIL
 62
     4
 10
13.400000000065569
 20
-77.32426389972548
 30
0.0
  0
VERTEX
  5
1FD7
  8
SAPA_PROFIL
 62
     4
 10
13.40000000006375
 20
-80.275735762303285
 30
0.0
 42
-0.1989123673785438
  0
VERTEX
  5
1FD8
  8
SAPA_PROFIL
 62
     4
 10
13.312132034420291
 20
-80.487867796659117
 30
0.0
  0
VERTEX
  5
1FD9
  8
SAPA_PROFIL
 62
     4
 10
11.08786796570938
 20
-82.712131865370935
 30
0.0
 42
0.1989123673785438
  0
VERTEX
  5
1FDA
  8
SAPA_PROFIL
 62
     4
 10
11.000000000065929
 20
-82.924263899726753
 30
0.0
  0
VERTEX
  5
1FDB
  8
SAPA_PROFIL
 62
     4
 10
11.00000000006775
 20
-85.299999831014375
 30
0.0
 42
0.4142135623730951
  0
VERTEX
  5
1FDC
  8
SAPA_PROFIL
 62
     4
 10
11.50000000006775
 20
-85.799999831014389
 30
0.0
  0
VERTEX
  5
1FDD
  8
SAPA_PROFIL
 62
     4
 10
23.400000000064839
 20
-85.799999831014389
 30
0.0
 42
-0.414213562373761
  0
VERTEX
  5
1FDE
  8
SAPA_PROFIL
 62
     4
 10
23.700000000064112
 20
-86.099999831014586
 30
0.0
  0
VERTEX
  5
1FDF
  8
SAPA_PROFIL
 62
     4
 10
23.700000000064112
 20
-87.799999831014375
 30
0.0
 42
0.4142135623730951
  0
VERTEX
  5
1FE0
  8
SAPA_PROFIL
 62
     4
 10
24.200000000064112
 20
-88.299999831014389
 30
0.0
  0
VERTEX
  5
1FE1
  8
SAPA_PROFIL
 62
     4
 10
30.500000000065931
 20
-88.299999831014389
 30
0.0
 42
0.4142135623730951
  0
VERTEX
  5
1FE2
  8
SAPA_PROFIL
 62
     4
 10
31.000000000065931
 20
-87.799999831014375
 30
0.0
  0
VERTEX
  5
1FE3
  8
SAPA_PROFIL
 62
     4
 10
31.000000000064109
 20
-86.799999831014006
 30
0.0
 42
-0.414213562373539
  0
VERTEX
  5
1FE4
  8
SAPA_PROFIL
 62
     4
 10
31.300000000063388
 20
-86.499999831014065
 30
0.0
  0
VERTEX
  5
1FE5
  8
SAPA_PROFIL
 62
     4
 10
32.900000000065567
 20
-86.49999983101452
 30
0.0
 42
-0.4142135623735391
  0
VERTEX
  5
1FE6
  8
SAPA_PROFIL
 62
     4
 10
33.20000000006484
 20
-86.799999831014233
 30
0.0
  0
VERTEX
  5
1FE7
  8
SAPA_PROFIL
 62
     4
 10
33.200000000063021
 20
-87.099999831013875
 30
0.0
 42
0.592337729603611
  0
VERTEX
  5
1FE8
  8
SAPA_PROFIL
 62
     4
 10
33.661452270804602
 20
-87.352849913618144
 30
0.0
  0
VERTEX
  5
1FE9
  8
SAPA_PROFIL
 62
     4
 10
35.361452270805323
 20
-86.075790645321305
 30
0.0
 42
0.2560149538738706
  0
VERTEX
  5
1FEA
  8
SAPA_PROFIL
 62
     4
 10
35.500000000065931
 20
-85.822940562716127
 30
0.0
  0
VERTEX
  5
1FEB
  8
SAPA_PROFIL
 62
     4
 10
35.500000000065931
 20
-85.59999983101352
 30
0.0
 42
0.4142135623733169
  0
VERTEX
  5
1FEC
  8
SAPA_PROFIL
 62
     4
 10
35.200000000066659
 20
-85.299999831014233
 30
0.0
  0
VERTEX
  5
1FED
  8
SAPA_PROFIL
 62
     4
 10
31.300000000063388
 20
-85.299999831014233
 30
0.0
 42
-0.414213562373539
  0
VERTEX
  5
1FEE
  8
SAPA_PROFIL
 62
     4
 10
31.000000000064109
 20
-84.999999831014307
 30
0.0
  0
VERTEX
  5
1FEF
  8
SAPA_PROFIL
 62
     4
 10
31.000000000065931
 20
-73.999999831014122
 30
0.0
 42
-0.414213562373539
  0
VERTEX
  5
1FF0
  8
SAPA_PROFIL
 62
     4
 10
31.3000000000652
 20
-73.699999831014168
 30
0.0
  0
VERTEX
  5
1FF1
  8
SAPA_PROFIL
 62
     4
 10
35.200000000066659
 20
-73.699999831014168
 30
0.0
 42
0.4142135623730951
  0
VERTEX
  5
1FF2
  8
SAPA_PROFIL
 62
     4
 10
35.500000000065931
 20
-73.399999831014895
 30
0.0
  0
VERTEX
  5
1FF3
  8
SAPA_PROFIL
 62
     4
 10
35.500000000065931
 20
-73.177059099312288
 30
0.0
 42
0.2560149538738705
  0
VERTEX
  5
1FF4
  8
SAPA_PROFIL
 62
     4
 10
35.361452270805323
 20
-72.924209016707124
 30
0.0
  0
VERTEX
  5
1FF5
  8
SAPA_PROFIL
 62
     4
 10
33.661452270804602
 20
-71.647149748410271
 30
0.0
 42
0.592337729603611
  0
VERTEX
  5
1FF6
  8
SAPA_PROFIL
 62
     4
 10
33.200000000063021
 20
-71.899999831014526
 30
0.0
  0
VERTEX
  5
1FF7
  8
SAPA_PROFIL
 62
     4
 10
33.20000000006484
 20
-72.199999831014154
 30
0.0
 42
-0.4142135623735391
  0
VERTEX
  5
1FF8
  8
SAPA_PROFIL
 62
     4
 10
32.900000000065567
 20
-72.499999831013895
 30
0.0
  0
VERTEX
  5
1FF9
  8
SAPA_PROFIL
 62
     4
 10
31.3000000000652
 20
-72.49999983101435
 30
0.0
 42
-0.414213562373539
  0
VERTEX
  5
1FFA
  8
SAPA_PROFIL
 62
     4
 10
31.000000000065931
 20
-72.199999831014395
 30
0.0
  0
VERTEX
  5
1FFB
  8
SAPA_PROFIL
 62
     4
 10
31.000000000069569
 20
-45.999999831014428
 30
0.0
 42
0.414213562373126
  0
VERTEX
  5
1FFC
  8
SAPA_PROFIL
 62
     4
 10
30.500000000069569
 20
-45.499999831014428
 30
0.0
  0
VERTEX
  5
1FFD
  8
SAPA_PROFIL
 62
     4
 10
11.50000000006775
 20
-45.499999831014428
 30
0.0
 42
0.4142135623730951
  0
SEQEND
  5
1FFE
  8
SAPA_PROFIL
 62
     4
  0
POLYLINE
  5
13CE
  8
SAPA_PROFIL
 66
     1
 10
0.0
 20
0.0
 30
0.0
 70
     1
  0
VERTEX
  5
1FFF
  8
SAPA_PROFIL
 10
22.799999999999049
 20
-99.098475071207986
 30
0.0
  0
VERTEX
  5
2000
  8
SAPA_PROFIL
 10
23.799999999999041
 20
-99.098475071207986
 30
0.0
  0
VERTEX
  5
2001
  8
SAPA_PROFIL
 10
23.799999999999041
 20
-96.498475071207821
 30
0.0
 42
-0.4142135623730951
  0
VERTEX
  5
2002
  8
SAPA_PROFIL
 10
24.299999999999049
 20
-95.998475071207835
 30
0.0
  0
VERTEX
  5
2003
  8
SAPA_PROFIL
 10
24.69999999999914
 20
-95.998475071207835
 30
0.0
 42
-0.4142135623730951
  0
VERTEX
  5
2004
  8
SAPA_PROFIL
 10
24.999999999999091
 20
-96.298475071207775
 30
0.0
  0
VERTEX
  5
2005
  8
SAPA_PROFIL
 10
24.999999999999091
 20
-113.9999999990104
 30
0.0
 42
-0.4142135623730951
  0
VERTEX
  5
2006
  8
SAPA_PROFIL
 10
24.499999999999091
 20
-114.4999999990105
 30
0.0
  0
VERTEX
  5
2007
  8
SAPA_PROFIL
 10
-24.500000000000909
 20
-114.4999999990105
 30
0.0
 42
-0.4142135623730951
  0
VERTEX
  5
2008
  8
SAPA_PROFIL
 10
-25.000000000000909
 20
-113.9999999990104
 30
0.0
  0
VERTEX
  5
2009
  8
SAPA_PROFIL
 10
-25.000000000000909
 20
-96.298475071207775
 30
0.0
 42
-0.4142135623730951
  0
VERTEX
  5
200A
  8
SAPA_PROFIL
 10
-24.700000000000959
 20
-95.998475071207835
 30
0.0
  0
VERTEX
  5
200B
  8
SAPA_PROFIL
 10
-24.300000000000871
 20
-95.998475071207835
 30
0.0
 42
-0.4142135623730951
  0
VERTEX
  5
200C
  8
SAPA_PROFIL
 10
-23.80000000000086
 20
-96.498475071207821
 30
0.0
  0
VERTEX
  5
200D
  8
SAPA_PROFIL
 10
-23.80000000000086
 20
-99.098475071207986
 30
0.0
  0
VERTEX
  5
200E
  8
SAPA_PROFIL
 10
-22.80000000000086
 20
-99.098475071207986
 30
0.0
  0
VERTEX
  5
200F
  8
SAPA_PROFIL
 10
-22.22033922157971
 20
-100.10250783084101
 30
0.0
 42
-0.4155392929676362
  0
VERTEX
  5
2010
  8
SAPA_PROFIL
 10
-22.51631264788557
 20
-101.19712680263289
 30
0.0
  0
VERTEX
  5
2011
  8
SAPA_PROFIL
 10
-23.80000000000086
 20
-101.9382640409319
 30
0.0
  0
VERTEX
  5
2012
  8
SAPA_PROFIL
 10
-23.80000000000086
 20
-112.09999999901061
 30
0.0
 42
0.4142135623730951
  0
VERTEX
  5
2013
  8
SAPA_PROFIL
 10
-22.80000000000086
 20
-113.09999999901061
 30
0.0
  0
VERTEX
  5
2014
  8
SAPA_PROFIL
 10
22.799999999999049
 20
-113.09999999901061
 30
0.0
 42
0.4142135623730951
  0
VERTEX
  5
2015
  8
SAPA_PROFIL
 10
23.799999999999041
 20
-112.09999999901061
 30
0.0
  0
VERTEX
  5
2016
  8
SAPA_PROFIL
 10
23.799999999999041
 20
-101.9382640409319
 30
0.0
  0
VERTEX
  5
2017
  8
SAPA_PROFIL
 10
22.516312647883751
 20
-101.19712680263289
 30
0.0
 42
-0.4155392929676362
  0
VERTEX
  5
2018
  8
SAPA_PROFIL
 10
22.220339221577891
 20
-100.10250783084101
 30
0.0
  0
SEQEND
  5
2019
  8
SAPA_PROFIL
  0
POLYLINE
  5
13CF
  8
SAPA_PROFIL
 66
     1
 10
0.0
 20
0.0
 30
0.0
 70
     1
  0
VERTEX
  5
201A
  8
SAPA_PROFIL
 10
11.938375275004541
 20
-92.499999999011834
 30
0.0
 42
-0.2216946626428728
  0
VERTEX
  5
201B
  8
SAPA_PROFIL
 10
12.70441971812317
 20
-92.857212389325355
 30
0.0
  0
VERTEX
  5
201C
  8
SAPA_PROFIL
 10
13.783145410548061
 20
-94.142787608696494
 30
0.0
 42
0.2216946626428911
  0
VERTEX
  5
201D
  8
SAPA_PROFIL
 10
14.5491898536668
 20
-94.499999999009944
 30
0.0
  0
VERTEX
  5
201E
  8
SAPA_PROFIL
 10
16.32573593128836
 20
-94.49999999901047
 30
0.0
 42
-0.1989123673796749
  0
VERTEX
  5
201F
  8
SAPA_PROFIL
 10
16.537867965644629
 20
-94.587867964654365
 30
0.0
  0
VERTEX
  5
2020
  8
SAPA_PROFIL
 10
17.108578643762939
 20
-95.158578642773136
 30
0.0
 42
-0.6681786379193591
  0
VERTEX
  5
2021
  8
SAPA_PROFIL
 10
16.967157287525421
 20
-95.499999999010456
 30
0.0
  0
VERTEX
  5
2022
  8
SAPA_PROFIL
 10
16.00000000000022
 20
-95.499999999010228
 30
0.0
 42
0.4142135623730951
  0
VERTEX
  5
2023
  8
SAPA_PROFIL
 10
15.500000000000229
 20
-95.999999999010015
 30
0.0
  0
VERTEX
  5
2024
  8
SAPA_PROFIL
 10
15.500000000000229
 20
-96.390808928730621
 30
0.0
 42
0.1763269807084316
  0
VERTEX
  5
2025
  8
SAPA_PROFIL
 10
15.57018666706449
 20
-96.583645211636394
 30
0.0
  0
VERTEX
  5
2026
  8
SAPA_PROFIL
 10
17.02833086987243
 20
-98.321393803853212
 30
0.0
 42
0.2216946626429586
  0
VERTEX
  5
2027
  8
SAPA_PROFIL
 10
17.41135309143192
 20
-98.499999999009958
 30
0.0
  0
VERTEX
  5
2028
  8
SAPA_PROFIL
 10
19.98190844019928
 20
-98.499999999010015
 30
0.0
 42
0.2216946626429592
  0
VERTEX
  5
2029
  8
SAPA_PROFIL
 10
20.211721773135199
 20
-98.392836281916075
 30
0.0
  0
VERTEX
  5
202A
  8
SAPA_PROFIL
 10
21.729813332935919
 20
-96.583645211636394
 30
0.0
 42
0.1763269807084563
  0
VERTEX
  5
202B
  8
SAPA_PROFIL
 10
21.800000000000178
 20
-96.390808928730621
 30
0.0
  0
VERTEX
  5
202C
  8
SAPA_PROFIL
 10
21.800000000000178
 20
-95.999999999010015
 30
0.0
 42
0.4142135623730951
  0
VERTEX
  5
202D
  8
SAPA_PROFIL
 10
21.300000000000178
 20
-95.499999999010456
 30
0.0
  0
VERTEX
  5
202E
  8
SAPA_PROFIL
 10
20.332842712474761
 20
-95.499999999010456
 30
0.0
 42
-0.6681786379193841
  0
VERTEX
  5
202F
  8
SAPA_PROFIL
 10
20.191421356237701
 20
-95.158578642773136
 30
0.0
  0
VERTEX
  5
2030
  8
SAPA_PROFIL
 10
20.762132034356458
 20
-94.587867964654365
 30
0.0
 42
-0.1989123673796471
  0
VERTEX
  5
2031
  8
SAPA_PROFIL
 10
20.974264068712269
 20
-94.499999999010015
 30
0.0
  0
VERTEX
  5
2032
  8
SAPA_PROFIL
 10
23.300000000000178
 20
-94.49999999901047
 30
0.0
 42
-0.4142135623730951
  0
VERTEX
  5
2033
  8
SAPA_PROFIL
 10
23.800000000000178
 20
-94.999999999010484
 30
0.0
  0
VERTEX
  5
2034
  8
SAPA_PROFIL
 10
23.80000000000075
 20
-98.699999999010345
 30
0.0
 42
-0.4142135623729843
  0
VERTEX
  5
2035
  8
SAPA_PROFIL
 10
23.500000000000679
 20
-98.999999999010527
 30
0.0
  0
VERTEX
  5
2036
  8
SAPA_PROFIL
 10
22.473205080758358
 20
-98.999999999010413
 30
0.0
 42
0.26794919243117
  0
VERTEX
  5
2037
  8
SAPA_PROFIL
 10
22.21339745962268
 20
-99.149999999010504
 30
0.0
  0
VERTEX
  5
2038
  8
SAPA_PROFIL
 10
21.342708718851441
 20
-100.6580771356048
 30
0.0
 42
0.4142135623734465
  0
VERTEX
  5
2039
  8
SAPA_PROFIL
 10
21.45251633998669
 20
-101.06788475674
 30
0.0
  0
VERTEX
  5
203A
  8
SAPA_PROFIL
 10
22.000000000000568
 20
-101.38397459522599
 30
0.0
 42
-0.4663076581550835
  0
VERTEX
  5
203B
  8
SAPA_PROFIL
 10
22.26604444311954
 20
-102.89278760869691
 30
0.0
  0
VERTEX
  5
203C
  8
SAPA_PROFIL
 10
19.32915489231732
 20
-106.3928362819163
 30
0.0
 42
-0.2216946626429129
  0
VERTEX
  5
203D
  8
SAPA_PROFIL
 10
19.099341559381632
 20
-106.4999999990103
 30
0.0
  0
VERTEX
  5
203E
  8
SAPA_PROFIL
 10
17.950000000000038
 20
-106.4999999990103
 30
0.0
 42
-0.4142135623732061
  0
VERTEX
  5
203F
  8
SAPA_PROFIL
 10
17.650000000000091
 20
-106.1999999990102
 30
0.0
  0
VERTEX
  5
2040
  8
SAPA_PROFIL
 10
17.650000000000659
 20
-102.6932604937618
 30
0.0
 42
0.1763269807085094
  0
VERTEX
  5
2041
  8
SAPA_PROFIL
 10
17.416044443119631
 20
-102.05047288407511
 30
0.0
  0
VERTEX
  5
2042
  8
SAPA_PROFIL
 10
15.11413473206983
 20
-99.307163716104085
 30
0.0
 42
0.2216946626429509
  0
VERTEX
  5
2043
  8
SAPA_PROFIL
 10
14.88432139913413
 20
-99.199999999010004
 30
0.0
  0
VERTEX
  5
2044
  8
SAPA_PROFIL
 10
14.024213696580659
 20
-99.199999999010004
 30
0.0
 42
-0.4142135623731506
  0
VERTEX
  5
2045
  8
SAPA_PROFIL
 10
13.7242136965807
 20
-98.899999999010006
 30
0.0
  0
VERTEX
  5
2046
  8
SAPA_PROFIL
 10
13.7242136965807
 20
-97.759911398917041
 30
0.0
 42
0.1763269807084654
  0
VERTEX
  5
2047
  8
SAPA_PROFIL
 10
13.65402702951644
 20
-97.567075116011097
 30
0.0
  0
VERTEX
  5
2048
  8
SAPA_PROFIL
 10
11.96755195683579
 20
-95.557212389323354
 30
0.0
 42
0.2216946626429509
  0
VERTEX
  5
2049
  8
SAPA_PROFIL
 10
11.20150751371682
 20
-95.199999999009876
 30
0.0
  0
VERTEX
  5
204A
  8
SAPA_PROFIL
 10
-11.20150751371682
 20
-95.199999999010004
 30
0.0
 42
0.2216946626429508
  0
VERTEX
  5
204B
  8
SAPA_PROFIL
 10
-11.96755195683579
 20
-95.557212389323468
 30
0.0
  0
VERTEX
  5
204C
  8
SAPA_PROFIL
 10
-13.65402702951644
 20
-97.56707511601121
 30
0.0
 42
0.1763269807084657
  0
VERTEX
  5
204D
  8
SAPA_PROFIL
 10
-13.7242136965807
 20
-97.759911398917154
 30
0.0
  0
VERTEX
  5
204E
  8
SAPA_PROFIL
 10
-13.7242136965807
 20
-98.899999999010006
 30
0.0
 42
-0.4142135623730951
  0
VERTEX
  5
204F
  8
SAPA_PROFIL
 10
-14.024213696580659
 20
-99.199999999009947
 30
0.0
  0
VERTEX
  5
2050
  8
SAPA_PROFIL
 10
-14.88432139913413
 20
-99.199999999009947
 30
0.0
 42
0.2216946626429889
  0
VERTEX
  5
2051
  8
SAPA_PROFIL
 10
-15.11413473206983
 20
-99.307163716104014
 30
0.0
  0
VERTEX
  5
2052
  8
SAPA_PROFIL
 10
-17.416044443119631
 20
-102.05047288407521
 30
0.0
 42
0.1763269807085052
  0
VERTEX
  5
2053
  8
SAPA_PROFIL
 10
-17.650000000000659
 20
-102.693260493762
 30
0.0
  0
VERTEX
  5
2054
  8
SAPA_PROFIL
 10
-17.649999999999981
 20
-106.1999999990102
 30
0.0
 42
-0.4142135623732062
  0
VERTEX
  5
2055
  8
SAPA_PROFIL
 10
-17.949999999999928
 20
-106.4999999990103
 30
0.0
  0
VERTEX
  5
2056
  8
SAPA_PROFIL
 10
-19.099341559381511
 20
-106.4999999990103
 30
0.0
 42
-0.2216946626429129
  0
VERTEX
  5
2057
  8
SAPA_PROFIL
 10
-19.329154892317199
 20
-106.3928362819163
 30
0.0
  0
VERTEX
  5
2058
  8
SAPA_PROFIL
 10
-22.26604444311954
 20
-102.89278760869691
 30
0.0
 42
-0.4663076581550919
  0
VERTEX
  5
2059
  8
SAPA_PROFIL
 10
-22.000000000000568
 20
-101.38397459522599
 30
0.0
  0
VERTEX
  5
205A
  8
SAPA_PROFIL
 10
-21.45251633998669
 20
-101.0678847567401
 30
0.0
 42
0.4142135623731708
  0
VERTEX
  5
205B
  8
SAPA_PROFIL
 10
-21.342708718851441
 20
-100.6580771356048
 30
0.0
  0
VERTEX
  5
205C
  8
SAPA_PROFIL
 10
-22.21339745962268
 20
-99.149999999010504
 30
0.0
 42
0.26794919243117
  0
VERTEX
  5
205D
  8
SAPA_PROFIL
 10
-22.473205080758358
 20
-98.999999999010413
 30
0.0
  0
VERTEX
  5
205E
  8
SAPA_PROFIL
 10
-23.500000000000679
 20
-98.999999999010413
 30
0.0
 42
-0.4142135623729287
  0
VERTEX
  5
205F
  8
SAPA_PROFIL
 10
-23.80000000000075
 20
-98.699999999010345
 30
0.0
  0
VERTEX
  5
2060
  8
SAPA_PROFIL
 10
-23.800000000000178
 20
-94.999999999010484
 30
0.0
 42
-0.4142135623730951
  0
VERTEX
  5
2061
  8
SAPA_PROFIL
 10
-23.300000000000178
 20
-94.49999999901047
 30
0.0
  0
VERTEX
  5
2062
  8
SAPA_PROFIL
 10
-20.974264068712269
 20
-94.499999999010015
 30
0.0
 42
-0.1989123673796819
  0
VERTEX
  5
2063
  8
SAPA_PROFIL
 10
-20.762132034356458
 20
-94.587867964654365
 30
0.0
  0
VERTEX
  5
2064
  8
SAPA_PROFIL
 10
-20.191421356237701
 20
-95.158578642773136
 30
0.0
 42
-0.6681786379193841
  0
VERTEX
  5
2065
  8
SAPA_PROFIL
 10
-20.332842712474761
 20
-95.499999999010456
 30
0.0
  0
VERTEX
  5
2066
  8
SAPA_PROFIL
 10
-21.300000000000178
 20
-95.499999999010456
 30
0.0
 42
0.4142135623730951
  0
VERTEX
  5
2067
  8
SAPA_PROFIL
 10
-21.800000000000178
 20
-95.999999999010015
 30
0.0
  0
VERTEX
  5
2068
  8
SAPA_PROFIL
 10
-21.800000000000178
 20
-96.390808928730621
 30
0.0
 42
0.1763269807084561
  0
VERTEX
  5
2069
  8
SAPA_PROFIL
 10
-21.729813332935919
 20
-96.583645211636394
 30
0.0
  0
VERTEX
  5
206A
  8
SAPA_PROFIL
 10
-20.211721773135199
 20
-98.392836281916075
 30
0.0
 42
0.2216946626429592
  0
VERTEX
  5
206B
  8
SAPA_PROFIL
 10
-19.98190844019928
 20
-98.499999999010015
 30
0.0
  0
VERTEX
  5
206C
  8
SAPA_PROFIL
 10
-17.41135309143192
 20
-98.499999999009958
 30
0.0
 42
0.2216946626429736
  0
VERTEX
  5
206D
  8
SAPA_PROFIL
 10
-17.02833086987243
 20
-98.321393803853212
 30
0.0
  0
VERTEX
  5
206E
  8
SAPA_PROFIL
 10
-15.57018666706449
 20
-96.583645211636394
 30
0.0
 42
0.1763269807084407
  0
VERTEX
  5
206F
  8
SAPA_PROFIL
 10
-15.500000000000229
 20
-96.390808928730621
 30
0.0
  0
VERTEX
  5
2070
  8
SAPA_PROFIL
 10
-15.500000000000229
 20
-95.999999999010015
 30
0.0
 42
0.4142135623730951
  0
VERTEX
  5
2071
  8
SAPA_PROFIL
 10
-16.00000000000022
 20
-95.499999999010456
 30
0.0
  0
VERTEX
  5
2072
  8
SAPA_PROFIL
 10
-16.967157287525421
 20
-95.499999999010456
 30
0.0
 42
-0.6681786379193591
  0
VERTEX
  5
2073
  8
SAPA_PROFIL
 10
-17.108578643762939
 20
-95.158578642773136
 30
0.0
  0
VERTEX
  5
2074
  8
SAPA_PROFIL
 10
-16.537867965644629
 20
-94.587867964654365
 30
0.0
 42
-0.1989123673796749
  0
VERTEX
  5
2075
  8
SAPA_PROFIL
 10
-16.32573593128836
 20
-94.49999999901047
 30
0.0
  0
VERTEX
  5
2076
  8
SAPA_PROFIL
 10
-14.54918985366691
 20
-94.499999999009944
 30
0.0
 42
0.2216946626428804
  0
VERTEX
  5
2077
  8
SAPA_PROFIL
 10
-13.783145410548171
 20
-94.142787608696437
 30
0.0
  0
VERTEX
  5
2078
  8
SAPA_PROFIL
 10
-12.70441971812317
 20
-92.857212389325284
 30
0.0
 42
-0.2216946626428499
  0
VERTEX
  5
2079
  8
SAPA_PROFIL
 10
-11.938375275004541
 20
-92.499999999011834
 30
0.0
  0
VERTEX
  5
207A
  8
SAPA_PROFIL
 10
-6.6500000000000901
 20
-92.499999999010015
 30
0.0
 42
0.4142135623730951
  0
VERTEX
  5
207B
  8
SAPA_PROFIL
 10
-6.3499999999999091
 20
-92.199999999010288
 30
0.0
  0
VERTEX
  5
207C
  8
SAPA_PROFIL
 10
-6.3499999999999091
 20
-91.799999999010197
 30
0.0
 42
-0.4142135623730951
  0
VERTEX
  5
207D
  8
SAPA_PROFIL
 10
-6.050000000000181
 20
-91.499999999010015
 30
0.0
  0
VERTEX
  5
207E
  8
SAPA_PROFIL
 10
-5.6500000000000901
 20
-91.499999999010015
 30
0.0
 42
-0.4142135623730951
  0
VERTEX
  5
207F
  8
SAPA_PROFIL
 10
-5.3499999999999091
 20
-91.799999999010197
 30
0.0
  0
VERTEX
  5
2080
  8
SAPA_PROFIL
 10
-5.3499999999999091
 20
-92.199999999010288
 30
0.0
 42
0.4142135623730951
  0
VERTEX
  5
2081
  8
SAPA_PROFIL
 10
-5.050000000000181
 20
-92.499999999010015
 30
0.0
  0
VERTEX
  5
2082
  8
SAPA_PROFIL
 10
-0.6242640687119092
 20
-92.499999999010015
 30
0.0
 42
-0.1989123673795535
  0
VERTEX
  5
2083
  8
SAPA_PROFIL
 10
-0.4121320343560911
 20
-92.587867964653924
 30
0.0
  0
VERTEX
  5
2084
  8
SAPA_PROFIL
 10
0.0
 20
-92.999999999010015
 30
0.0
  0
VERTEX
  5
2085
  8
SAPA_PROFIL
 10
0.4121320343560911
 20
-92.587867964653924
 30
0.0
 42
-0.1989123673795536
  0
VERTEX
  5
2086
  8
SAPA_PROFIL
 10
0.6242640687119092
 20
-92.499999999010015
 30
0.0
  0
VERTEX
  5
2087
  8
SAPA_PROFIL
 10
5.0499999999997272
 20
-92.499999999010015
 30
0.0
 42
0.4142135623730951
  0
VERTEX
  5
2088
  8
SAPA_PROFIL
 10
5.3499999999999091
 20
-92.199999999010288
 30
0.0
  0
VERTEX
  5
2089
  8
SAPA_PROFIL
 10
5.3499999999999091
 20
-91.799999999010197
 30
0.0
 42
-0.4142135623730951
  0
VERTEX
  5
208A
  8
SAPA_PROFIL
 10
5.6500000000000901
 20
-91.499999999010015
 30
0.0
  0
VERTEX
  5
208B
  8
SAPA_PROFIL
 10
6.050000000000181
 20
-91.499999999010015
 30
0.0
 42
-0.4142135623730951
  0
VERTEX
  5
208C
  8
SAPA_PROFIL
 10
6.3499999999999091
 20
-91.799999999010197
 30
0.0
  0
VERTEX
  5
208D
  8
SAPA_PROFIL
 10
6.3499999999999091
 20
-92.199999999010288
 30
0.0
 42
0.414213562373095
  0
VERTEX
  5
208E
  8
SAPA_PROFIL
 10
6.6500000000000901
 20
-92.499999999010015
 30
0.0
  0
SEQEND
  5
208F
  8
SAPA_PROFIL
  0
POLYLINE
  5
13D0
  8
SAPA_PROFIL
 66
     1
 10
0.0
 20
0.0
 30
0.0
 70
     1
  0
VERTEX
  5
2090
  8
SAPA_PROFIL
 10
-2.700000000000272
 20
-33.050000000001091
 30
0.0
  0
VERTEX
  5
2091
  8
SAPA_PROFIL
 10
-2.0767196966983188
 20
-31.67376540642476
 30
0.0
 42
0.5450207798987328
  0
VERTEX
  5
2092
  8
SAPA_PROFIL
 10
-2.350000000000136
 20
-31.25000000000114
 30
0.0
  0
VERTEX
  5
2093
  8
SAPA_PROFIL
 10
-2.700000000000272
 20
-31.25000000000114
 30
0.0
  0
VERTEX
  5
2094
  8
SAPA_PROFIL
 10
-2.700000000000272
 20
-31.00000000000114
 30
0.0
 42
-0.4142135623730951
  0
VERTEX
  5
2095
  8
SAPA_PROFIL
 10
-1.700000000000272
 20
-30.00000000000114
 30
0.0
  0
VERTEX
  5
2096
  8
SAPA_PROFIL
 10
1.6999999999998181
 20
-30.00000000000114
 30
0.0
 42
-0.4142135623730951
  0
VERTEX
  5
2097
  8
SAPA_PROFIL
 10
2.6999999999998181
 20
-31.00000000000114
 30
0.0
  0
VERTEX
  5
2098
  8
SAPA_PROFIL
 10
2.6999999999998181
 20
-32.150000000001
 30
0.0
  0
VERTEX
  5
2099
  8
SAPA_PROFIL
 10
2.3499999999996808
 20
-32.150000000001
 30
0.0
 42
0.5450200690651551
  0
VERTEX
  5
209A
  8
SAPA_PROFIL
 10
2.0767189999999109
 20
-32.573765000001011
 30
0.0
  0
VERTEX
  5
209B
  8
SAPA_PROFIL
 10
2.6999999999998181
 20
-33.950000000000948
 30
0.0
  0
VERTEX
  5
209C
  8
SAPA_PROFIL
 10
2.3499999999996808
 20
-33.950000000000948
 30
0.0
 42
0.5450200690651692
  0
VERTEX
  5
209D
  8
SAPA_PROFIL
 10
2.0767189999999109
 20
-34.373765000000958
 30
0.0
  0
VERTEX
  5
209E
  8
SAPA_PROFIL
 10
2.6999999999998181
 20
-35.750000000001137
 30
0.0
  0
VERTEX
  5
209F
  8
SAPA_PROFIL
 10
2.3499999999996808
 20
-35.750000000001137
 30
0.0
 42
0.5450200690651619
  0
VERTEX
  5
20A0
  8
SAPA_PROFIL
 10
2.0767189999999109
 20
-36.17376500000114
 30
0.0
  0
VERTEX
  5
20A1
  8
SAPA_PROFIL
 10
2.6999999999998181
 20
-37.550000000001091
 30
0.0
  0
VERTEX
  5
20A2
  8
SAPA_PROFIL
 10
2.3499999999996808
 20
-37.550000000001091
 30
0.0
 42
0.5450200690651619
  0
VERTEX
  5
20A3
  8
SAPA_PROFIL
 10
2.0767189999999109
 20
-37.973765000001102
 30
0.0
  0
VERTEX
  5
20A4
  8
SAPA_PROFIL
 10
2.6999999999998181
 20
-39.350000000001053
 30
0.0
  0
VERTEX
  5
20A5
  8
SAPA_PROFIL
 10
2.3499999999996808
 20
-39.350000000001053
 30
0.0
 42
0.5450200690651692
  0
VERTEX
  5
20A6
  8
SAPA_PROFIL
 10
2.0767189999999109
 20
-39.773765000001049
 30
0.0
  0
VERTEX
  5
20A7
  8
SAPA_PROFIL
 10
2.6999999999998181
 20
-41.150000000001
 30
0.0
  0
VERTEX
  5
20A8
  8
SAPA_PROFIL
 10
2.6999999999998181
 20
-41.450000000000948
 30
0.0
  0
VERTEX
  5
20A9
  8
SAPA_PROFIL
 10
-2.42826763351104
 20
-41.450000000000948
 30
0.0
  0
VERTEX
  5
20AA
  8
SAPA_PROFIL
 10
-2.0767196966983188
 20
-40.673765406424756
 30
0.0
 42
0.5450207798987328
  0
VERTEX
  5
20AB
  8
SAPA_PROFIL
 10
-2.350000000000136
 20
-40.250000000001137
 30
0.0
  0
VERTEX
  5
20AC
  8
SAPA_PROFIL
 10
-2.700000000000272
 20
-40.250000000001137
 30
0.0
  0
VERTEX
  5
20AD
  8
SAPA_PROFIL
 10
-2.0767200000002499
 20
-38.873765000000958
 30
0.0
 42
0.5450205149791638
  0
VERTEX
  5
20AE
  8
SAPA_PROFIL
 10
-2.350000000000136
 20
-38.450000000000962
 30
0.0
  0
VERTEX
  5
20AF
  8
SAPA_PROFIL
 10
-2.700000000000272
 20
-38.450000000000962
 30
0.0
  0
VERTEX
  5
20B0
  8
SAPA_PROFIL
 10
-2.0767196966983188
 20
-37.073765406424627
 30
0.0
 42
0.545020779898768
  0
VERTEX
  5
20B1
  8
SAPA_PROFIL
 10
-2.350000000000136
 20
-36.650000000001
 30
0.0
  0
VERTEX
  5
20B2
  8
SAPA_PROFIL
 10
-2.700000000000272
 20
-36.650000000001
 30
0.0
  0
VERTEX
  5
20B3
  8
SAPA_PROFIL
 10
-2.0767196966983188
 20
-35.273765406424673
 30
0.0
 42
0.54502077989874
  0
VERTEX
  5
20B4
  8
SAPA_PROFIL
 10
-2.350000000000136
 20
-34.850000000001053
 30
0.0
  0
VERTEX
  5
20B5
  8
SAPA_PROFIL
 10
-2.700000000000272
 20
-34.850000000001053
 30
0.0
  0
VERTEX
  5
20B6
  8
SAPA_PROFIL
 10
-2.0767196966983188
 20
-33.473765406424718
 30
0.0
 42
0.545020779898761
  0
VERTEX
  5
20B7
  8
SAPA_PROFIL
 10
-2.350000000000136
 20
-33.050000000001091
 30
0.0
  0
SEQEND
  5
20B8
  8
SAPA_PROFIL
  0
POLYLINE
  5
13D1
  8
SAPA_PROFIL
 66
     1
 10
0.0
 20
0.0
 30
0.0
 70
     1
  0
VERTEX
  5
20B9
  8
SAPA_PROFIL
 10
-23.000000000000231
 20
58.024264068710863
 30
0.0
 42
0.1989123673796753
  0
VERTEX
  5
20BA
  8
SAPA_PROFIL
 10
-22.912132034356091
 20
57.812132034355052
 30
0.0
  0
VERTEX
  5
20BB
  8
SAPA_PROFIL
 10
-21.187867965644269
 20
56.087867965642999
 30
0.0
 42
-0.1989123673796753
  0
VERTEX
  5
20BC
  8
SAPA_PROFIL
 10
-21.10000000000014
 20
55.875735931286947
 30
0.0
  0
VERTEX
  5
20BD
  8
SAPA_PROFIL
 10
-21.10000000000014
 20
55.299999999999052
 30
0.0
 42
-0.4142135623730951
  0
VERTEX
  5
20BE
  8
SAPA_PROFIL
 10
-21.400000000000318
 20
54.999999999998863
 30
0.0
  0
VERTEX
  5
20BF
  8
SAPA_PROFIL
 10
-22.700000000000269
 20
54.999999999998863
 30
0.0
 42
0.4142135623730951
  0
VERTEX
  5
20C0
  8
SAPA_PROFIL
 10
-23.000000000000231
 20
54.699999999998909
 30
0.0
  0
VERTEX
  5
20C1
  8
SAPA_PROFIL
 10
-23.000000000000231
 20
29.99999999999886
 30
0.0
 42
0.4142135623730951
  0
VERTEX
  5
20C2
  8
SAPA_PROFIL
 10
-22.000000000000231
 20
28.99999999999887
 30
0.0
  0
VERTEX
  5
20C3
  8
SAPA_PROFIL
 10
-17.600000000000129
 20
28.99999999999887
 30
0.0
 42
-0.4142135623730951
  0
VERTEX
  5
20C4
  8
SAPA_PROFIL
 10
-17.300000000000178
 20
28.699999999998909
 30
0.0
  0
VERTEX
  5
20C5
  8
SAPA_PROFIL
 10
-17.300000000000178
 20
26.399999999998961
 30
0.0
 42
-0.4142135623730951
  0
VERTEX
  5
20C6
  8
SAPA_PROFIL
 10
-17.600000000000129
 20
26.099999999999
 30
0.0
  0
VERTEX
  5
20C7
  8
SAPA_PROFIL
 10
-18.100000000000129
 20
26.099999999999
 30
0.0
 42
-0.4142135623730951
  0
VERTEX
  5
20C8
  8
SAPA_PROFIL
 10
-18.400000000000318
 20
26.399999999998961
 30
0.0
  0
VERTEX
  5
20C9
  8
SAPA_PROFIL
 10
-18.400000000000318
 20
26.736626924633359
 30
0.0
 42
0.5535245743249297
  0
VERTEX
  5
20CA
  8
SAPA_PROFIL
 10
-22.71055421153164
 20
24.96410760212348
 30
0.0
  0
VERTEX
  5
20CB
  8
SAPA_PROFIL
 10
-22.42322330470347
 20
24.67677669529553
 30
0.0
 42
-0.4142135623729421
  0
VERTEX
  5
20CC
  8
SAPA_PROFIL
 10
-22.42322330470347
 20
24.32322330470242
 30
0.0
  0
VERTEX
  5
20CD
  8
SAPA_PROFIL
 10
-22.71055421153164
 20
24.035892397874481
 30
0.0
 42
0.5535245743249292
  0
VERTEX
  5
20CE
  8
SAPA_PROFIL
 10
-18.400000000000318
 20
22.26337307536437
 30
0.0
  0
VERTEX
  5
20CF
  8
SAPA_PROFIL
 10
-18.400000000000318
 20
22.599999999999
 30
0.0
 42
-0.4142135623730951
  0
VERTEX
  5
20D0
  8
SAPA_PROFIL
 10
-18.100000000000129
 20
22.899999999998961
 30
0.0
  0
VERTEX
  5
20D1
  8
SAPA_PROFIL
 10
-17.600000000000129
 20
22.899999999998961
 30
0.0
 42
-0.4142135623730951
  0
VERTEX
  5
20D2
  8
SAPA_PROFIL
 10
-17.300000000000178
 20
22.599999999999
 30
0.0
  0
VERTEX
  5
20D3
  8
SAPA_PROFIL
 10
-17.300000000000178
 20
21.49999999999886
 30
0.0
 42
-0.4142135623730951
  0
VERTEX
  5
20D4
  8
SAPA_PROFIL
 10
-18.800000000000178
 20
19.99999999999886
 30
0.0
  0
VERTEX
  5
20D5
  8
SAPA_PROFIL
 10
-21.63397459621569
 20
19.99999999999886
 30
0.0
 42
-0.267949192431143
  0
VERTEX
  5
20D6
  8
SAPA_PROFIL
 10
-22.066987298107961
 20
20.24999999999886
 30
0.0
 42
0.767326987978956
  0
VERTEX
  5
20D7
  8
SAPA_PROFIL
 10
-23.000000000000231
 20
19.99999999999886
 30
0.0
  0
VERTEX
  5
20D8
  8
SAPA_PROFIL
 10
-23.000000000000231
 20
-15.00000000000113
 30
0.0
 42
0.4142135623730951
  0
VERTEX
  5
20D9
  8
SAPA_PROFIL
 10
-22.000000000000231
 20
-16.00000000000114
 30
0.0
  0
VERTEX
  5
20DA
  8
SAPA_PROFIL
 10
-17.600000000000129
 20
-16.00000000000114
 30
0.0
 42
-0.4142135623730951
  0
VERTEX
  5
20DB
  8
SAPA_PROFIL
 10
-17.300000000000178
 20
-16.300000000001091
 30
0.0
  0
VERTEX
  5
20DC
  8
SAPA_PROFIL
 10
-17.300000000000178
 20
-18.600000000001039
 30
0.0
 42
-0.4142135623730951
  0
VERTEX
  5
20DD
  8
SAPA_PROFIL
 10
-17.600000000000129
 20
-18.900000000001
 30
0.0
  0
VERTEX
  5
20DE
  8
SAPA_PROFIL
 10
-18.100000000000129
 20
-18.900000000001
 30
0.0
 42
-0.4142135623730951
  0
VERTEX
  5
20DF
  8
SAPA_PROFIL
 10
-18.400000000000318
 20
-18.600000000001039
 30
0.0
  0
VERTEX
  5
20E0
  8
SAPA_PROFIL
 10
-18.400000000000318
 20
-18.263373075366641
 30
0.0
 42
0.5535245743249297
  0
VERTEX
  5
20E1
  8
SAPA_PROFIL
 10
-22.71055421153164
 20
-20.03589239787652
 30
0.0
  0
VERTEX
  5
20E2
  8
SAPA_PROFIL
 10
-22.42322330470347
 20
-20.32322330470447
 30
0.0
 42
-0.4142135623730243
  0
VERTEX
  5
20E3
  8
SAPA_PROFIL
 10
-22.423223304703701
 20
-20.67677669529758
 30
0.0
  0
VERTEX
  5
20E4
  8
SAPA_PROFIL
 10
-22.71055421153164
 20
-20.96410760212553
 30
0.0
 42
0.5535245743249292
  0
VERTEX
  5
20E5
  8
SAPA_PROFIL
 10
-18.400000000000318
 20
-22.73662692463563
 30
0.0
  0
VERTEX
  5
20E6
  8
SAPA_PROFIL
 10
-18.400000000000318
 20
-22.400000000001
 30
0.0
 42
-0.4142135623730951
  0
VERTEX
  5
20E7
  8
SAPA_PROFIL
 10
-18.100000000000129
 20
-22.100000000001049
 30
0.0
  0
VERTEX
  5
20E8
  8
SAPA_PROFIL
 10
-17.600000000000129
 20
-22.100000000001049
 30
0.0
 42
-0.4142135623730951
  0
VERTEX
  5
20E9
  8
SAPA_PROFIL
 10
-17.300000000000178
 20
-22.400000000001
 30
0.0
  0
VERTEX
  5
20EA
  8
SAPA_PROFIL
 10
-17.300000000000178
 20
-23.50000000000114
 30
0.0
 42
-0.4142135623730951
  0
VERTEX
  5
20EB
  8
SAPA_PROFIL
 10
-18.800000000000178
 20
-25.00000000000114
 30
0.0
  0
VERTEX
  5
20EC
  8
SAPA_PROFIL
 10
-21.780384757729511
 20
-25.00000000000114
 30
0.0
 42
-0.2679491924311188
  0
VERTEX
  5
20ED
  8
SAPA_PROFIL
 10
-22.040192378864958
 20
-24.850000000001049
 30
0.0
 42
0.7673269879789557
  0
VERTEX
  5
20EE
  8
SAPA_PROFIL
 10
-22.600000000000129
 20
-25.00000000000114
 30
0.0
  0
VERTEX
  5
20EF
  8
SAPA_PROFIL
 10
-22.599999999999909
 20
-27.00000000000114
 30
0.0
 42
0.4142137811865366
  0
VERTEX
  5
20F0
  8
SAPA_PROFIL
 10
-21.600000747075459
 20
-28.00000000000114
 30
0.0
  0
VERTEX
  5
20F1
  8
SAPA_PROFIL
 10
21.599999999999682
 20
-28.00000000000114
 30
0.0
 42
0.4142140000000124
  0
VERTEX
  5
20F2
  8
SAPA_PROFIL
 10
22.599999999999682
 20
-27.00000000000114
 30
0.0
  0
VERTEX
  5
20F3
  8
SAPA_PROFIL
 10
22.599999999999682
 20
-25.00000000000114
 30
0.0
 42
0.7673269879789457
  0
VERTEX
  5
20F4
  8
SAPA_PROFIL
 10
22.0401923788645
 20
-24.850000000001049
 30
0.0
 42
-0.2679491924311191
  0
VERTEX
  5
20F5
  8
SAPA_PROFIL
 10
21.780384757729049
 20
-25.00000000000114
 30
0.0
  0
VERTEX
  5
20F6
  8
SAPA_PROFIL
 10
18.799999999999731
 20
-25.00000000000114
 30
0.0
 42
-0.4142135623730951
  0
VERTEX
  5
20F7
  8
SAPA_PROFIL
 10
17.299999999999731
 20
-23.50000000000114
 30
0.0
  0
VERTEX
  5
20F8
  8
SAPA_PROFIL
 10
17.299999999999731
 20
-22.400000000001
 30
0.0
 42
-0.4142135623730951
  0
VERTEX
  5
20F9
  8
SAPA_PROFIL
 10
17.599999999999682
 20
-22.100000000001049
 30
0.0
  0
VERTEX
  5
20FA
  8
SAPA_PROFIL
 10
18.099999999999682
 20
-22.100000000001049
 30
0.0
 42
-0.4142135623730951
  0
VERTEX
  5
20FB
  8
SAPA_PROFIL
 10
18.39999999999986
 20
-22.400000000001
 30
0.0
  0
VERTEX
  5
20FC
  8
SAPA_PROFIL
 10
18.39999999999986
 20
-22.73662692463563
 30
0.0
 42
0.5535245743249307
  0
VERTEX
  5
20FD
  8
SAPA_PROFIL
 10
22.710554211531189
 20
-20.96410760212553
 30
0.0
  0
VERTEX
  5
20FE
  8
SAPA_PROFIL
 10
22.423223304703239
 20
-20.67677669529758
 30
0.0
 42
-0.4142135623730951
  0
VERTEX
  5
20FF
  8
SAPA_PROFIL
 10
22.423223304703239
 20
-20.32322330470447
 30
0.0
  0
VERTEX
  5
2100
  8
SAPA_PROFIL
 10
22.710554211531189
 20
-20.03589239787652
 30
0.0
 42
0.553524574324932
  0
VERTEX
  5
2101
  8
SAPA_PROFIL
 10
18.39999999999986
 20
-18.263373075366641
 30
0.0
  0
VERTEX
  5
2102
  8
SAPA_PROFIL
 10
18.39999999999986
 20
-18.600000000001039
 30
0.0
 42
-0.4142135623730951
  0
VERTEX
  5
2103
  8
SAPA_PROFIL
 10
18.099999999999682
 20
-18.900000000001
 30
0.0
  0
VERTEX
  5
2104
  8
SAPA_PROFIL
 10
17.599999999999682
 20
-18.900000000001
 30
0.0
 42
-0.4142135623730951
  0
VERTEX
  5
2105
  8
SAPA_PROFIL
 10
17.299999999999731
 20
-18.600000000001039
 30
0.0
  0
VERTEX
  5
2106
  8
SAPA_PROFIL
 10
17.299999999999731
 20
-16.300000000001091
 30
0.0
 42
-0.4142135623730951
  0
VERTEX
  5
2107
  8
SAPA_PROFIL
 10
17.599999999999682
 20
-16.00000000000114
 30
0.0
  0
VERTEX
  5
2108
  8
SAPA_PROFIL
 10
21.999999999999769
 20
-16.00000000000114
 30
0.0
 42
0.4142135623730951
  0
VERTEX
  5
2109
  8
SAPA_PROFIL
 10
22.999999999999769
 20
-15.00000000000113
 30
0.0
  0
VERTEX
  5
210A
  8
SAPA_PROFIL
 10
22.999999999999769
 20
19.99999999999886
 30
0.0
 42
0.7673269879789569
  0
VERTEX
  5
210B
  8
SAPA_PROFIL
 10
22.066987298107509
 20
20.24999999999886
 30
0.0
 42
-0.2679491924311163
  0
VERTEX
  5
210C
  8
SAPA_PROFIL
 10
21.633974596215239
 20
19.99999999999886
 30
0.0
  0
VERTEX
  5
210D
  8
SAPA_PROFIL
 10
18.799999999999731
 20
19.99999999999886
 30
0.0
 42
-0.4142135623730951
  0
VERTEX
  5
210E
  8
SAPA_PROFIL
 10
17.299999999999731
 20
21.49999999999886
 30
0.0
  0
VERTEX
  5
210F
  8
SAPA_PROFIL
 10
17.299999999999731
 20
22.599999999999
 30
0.0
 42
-0.4142135623730951
  0
VERTEX
  5
2110
  8
SAPA_PROFIL
 10
17.599999999999682
 20
22.899999999998961
 30
0.0
  0
VERTEX
  5
2111
  8
SAPA_PROFIL
 10
18.099999999999682
 20
22.899999999998961
 30
0.0
 42
-0.4142135623730951
  0
VERTEX
  5
2112
  8
SAPA_PROFIL
 10
18.39999999999986
 20
22.599999999999
 30
0.0
  0
VERTEX
  5
2113
  8
SAPA_PROFIL
 10
18.39999999999986
 20
22.26337307536437
 30
0.0
 42
0.5535245743249307
  0
VERTEX
  5
2114
  8
SAPA_PROFIL
 10
22.710554211531189
 20
24.035892397874481
 30
0.0
  0
VERTEX
  5
2115
  8
SAPA_PROFIL
 10
22.423223304703239
 20
24.32322330470242
 30
0.0
 42
-0.4142135623731068
  0
VERTEX
  5
2116
  8
SAPA_PROFIL
 10
22.423223304703011
 20
24.67677669529553
 30
0.0
  0
VERTEX
  5
2117
  8
SAPA_PROFIL
 10
22.710554211531189
 20
24.96410760212348
 30
0.0
 42
0.553524574324932
  0
VERTEX
  5
2118
  8
SAPA_PROFIL
 10
18.39999999999986
 20
26.736626924633359
 30
0.0
  0
VERTEX
  5
2119
  8
SAPA_PROFIL
 10
18.39999999999986
 20
26.399999999998961
 30
0.0
 42
-0.4142135623730951
  0
VERTEX
  5
211A
  8
SAPA_PROFIL
 10
18.099999999999682
 20
26.099999999999
 30
0.0
  0
VERTEX
  5
211B
  8
SAPA_PROFIL
 10
17.599999999999682
 20
26.099999999999
 30
0.0
 42
-0.4142135623730951
  0
VERTEX
  5
211C
  8
SAPA_PROFIL
 10
17.299999999999731
 20
26.399999999998961
 30
0.0
  0
VERTEX
  5
211D
  8
SAPA_PROFIL
 10
17.299999999999731
 20
28.699999999998909
 30
0.0
 42
-0.4142135623730951
  0
VERTEX
  5
211E
  8
SAPA_PROFIL
 10
17.599999999999682
 20
28.99999999999887
 30
0.0
  0
VERTEX
  5
211F
  8
SAPA_PROFIL
 10
21.999999999999769
 20
28.99999999999887
 30
0.0
 42
0.4142135623730951
  0
VERTEX
  5
2120
  8
SAPA_PROFIL
 10
22.999999999999769
 20
29.99999999999886
 30
0.0
  0
VERTEX
  5
2121
  8
SAPA_PROFIL
 10
22.999999999999769
 20
54.699999999998909
 30
0.0
 42
0.4142135623730951
  0
VERTEX
  5
2122
  8
SAPA_PROFIL
 10
22.699999999999822
 20
54.999999999998863
 30
0.0
  0
VERTEX
  5
2123
  8
SAPA_PROFIL
 10
21.39999999999986
 20
54.999999999998863
 30
0.0
 42
-0.4142135623730951
  0
VERTEX
  5
2124
  8
SAPA_PROFIL
 10
21.099999999999682
 20
55.299999999999052
 30
0.0
  0
VERTEX
  5
2125
  8
SAPA_PROFIL
 10
21.099999999999682
 20
55.875735931286947
 30
0.0
 42
-0.1989123673796752
  0
VERTEX
  5
2126
  8
SAPA_PROFIL
 10
21.187867965643822
 20
56.087867965642999
 30
0.0
  0
VERTEX
  5
2127
  8
SAPA_PROFIL
 10
22.91213203435586
 20
57.812132034355052
 30
0.0
 42
0.1989123673796057
  0
VERTEX
  5
2128
  8
SAPA_PROFIL
 10
22.999999999999769
 20
58.024264068710863
 30
0.0
  0
VERTEX
  5
2129
  8
SAPA_PROFIL
 10
22.999999999999769
 20
61.499999999998863
 30
0.0
 42
0.4142135623730951
  0
VERTEX
  5
212A
  8
SAPA_PROFIL
 10
21.999999999999769
 20
62.499999999998863
 30
0.0
  0
VERTEX
  5
212B
  8
SAPA_PROFIL
 10
-22.000000000000231
 20
62.499999999998863
 30
0.0
 42
0.4142135623730951
  0
VERTEX
  5
212C
  8
SAPA_PROFIL
 10
-23.000000000000231
 20
61.499999999998863
 30
0.0
  0
SEQEND
  5
212D
  8
SAPA_PROFIL
  0
POLYLINE
  5
13D2
  8
SAPA_PROFIL
 66
     1
 10
0.0
 20
0.0
 30
0.0
 70
     1
  0
VERTEX
  5
212E
  8
SAPA_PROFIL
 10
-6.0000000000002274
 20
-30.00000000000114
 30
0.0
 42
-0.4142135623730951
  0
VERTEX
  5
212F
  8
SAPA_PROFIL
 10
-5.0000000000002274
 20
-31.00000000000114
 30
0.0
  0
VERTEX
  5
2130
  8
SAPA_PROFIL
 10
-5.0000000000002274
 20
-52.200000000000948
 30
0.0
 42
0.4142135623730951
  0
VERTEX
  5
2131
  8
SAPA_PROFIL
 10
-4.700000000000272
 20
-52.50000000000113
 30
0.0
  0
VERTEX
  5
2132
  8
SAPA_PROFIL
 10
-3.0757360000002332
 20
-52.50000000000113
 30
0.0
  0
VERTEX
  5
2133
  8
SAPA_PROFIL
 10
-2.2378679656442269
 20
-51.562132034356871
 30
0.0
 42
0.668178637919305
  0
VERTEX
  5
2134
  8
SAPA_PROFIL
 10
-2.450000000000272
 20
-51.050000000001091
 30
0.0
  0
VERTEX
  5
2135
  8
SAPA_PROFIL
 10
-2.700000000000272
 20
-51.050000000001091
 30
0.0
  0
VERTEX
  5
2136
  8
SAPA_PROFIL
 10
-2.1767196966982278
 20
-49.673765406424756
 30
0.0
 42
0.5450207798987201
  0
VERTEX
  5
2137
  8
SAPA_PROFIL
 10
-2.450000000000272
 20
-49.250000000001137
 30
0.0
  0
VERTEX
  5
2138
  8
SAPA_PROFIL
 10
-2.700000000000272
 20
-49.250000000001137
 30
0.0
  0
VERTEX
  5
2139
  8
SAPA_PROFIL
 10
-2.1767196966982278
 20
-47.873765406424567
 30
0.0
 42
0.5450207798987201
  0
VERTEX
  5
213A
  8
SAPA_PROFIL
 10
-2.450000000000272
 20
-47.450000000000962
 30
0.0
  0
VERTEX
  5
213B
  8
SAPA_PROFIL
 10
-2.700000000000272
 20
-47.450000000000962
 30
0.0
  0
VERTEX
  5
213C
  8
SAPA_PROFIL
 10
-2.1767196966982278
 20
-46.07376540642462
 30
0.0
 42
0.5450207798987342
  0
VERTEX
  5
213D
  8
SAPA_PROFIL
 10
-2.450000000000272
 20
-45.650000000000993
 30
0.0
  0
VERTEX
  5
213E
  8
SAPA_PROFIL
 10
-2.700000000000272
 20
-45.650000000000993
 30
0.0
  0
VERTEX
  5
213F
  8
SAPA_PROFIL
 10
-2.1767196966982278
 20
-44.273765406424673
 30
0.0
 42
0.5450207798987201
  0
VERTEX
  5
2140
  8
SAPA_PROFIL
 10
-2.450000000000272
 20
-43.850000000001039
 30
0.0
  0
VERTEX
  5
2141
  8
SAPA_PROFIL
 10
-2.700000000000272
 20
-43.850000000001039
 30
0.0
  0
VERTEX
  5
2142
  8
SAPA_PROFIL
 10
-2.4722372826161059
 20
-43.126282705194853
 30
0.0
 42
-0.2945484962563026
  0
VERTEX
  5
2143
  8
SAPA_PROFIL
 10
-2.1988824689378812
 20
-42.950048040246656
 30
0.0
  0
VERTEX
  5
2144
  8
SAPA_PROFIL
 10
-1.2642999377483191
 20
-42.950255222213173
 30
0.0
 42
0.3475954753796591
  0
VERTEX
  5
2145
  8
SAPA_PROFIL
 10
-0.9723265106783856
 20
-42.719501178044077
 30
0.0
 42
-0.790522909611319
  0
VERTEX
  5
2146
  8
SAPA_PROFIL
 10
0.973664089865224
 20
-42.71949097360357
 30
0.0
 42
0.3476065658631364
  0
VERTEX
  5
2147
  8
SAPA_PROFIL
 10
1.2656518108867649
 20
-42.950241952335773
 30
0.0
  0
VERTEX
  5
2148
  8
SAPA_PROFIL
 10
1.8499926620931999
 20
-42.950095231626847
 30
0.0
 42
-0.4102317530969976
  0
VERTEX
  5
2149
  8
SAPA_PROFIL
 10
2.1500282985855388
 20
-43.245946879780369
 30
0.0
 42
0.0712587206050384
  0
VERTEX
  5
214A
  8
SAPA_PROFIL
 10
2.1632556124550311
 20
-43.329990804708579
 30
0.0
  0
VERTEX
  5
214B
  8
SAPA_PROFIL
 10
2.6999999999998181
 20
-44.750000000001137
 30
0.0
  0
VERTEX
  5
214C
  8
SAPA_PROFIL
 10
2.4499999999998181
 20
-44.750000000001137
 30
0.0
 42
0.5450200690651619
  0
VERTEX
  5
214D
  8
SAPA_PROFIL
 10
2.17671899999982
 20
-45.173765000001133
 30
0.0
  0
VERTEX
  5
214E
  8
SAPA_PROFIL
 10
2.6999999999998181
 20
-46.550000000001091
 30
0.0
  0
VERTEX
  5
214F
  8
SAPA_PROFIL
 10
2.4499999999998181
 20
-46.550000000000857
 30
0.0
 42
0.545020069065176
  0
VERTEX
  5
2150
  8
SAPA_PROFIL
 10
2.17671899999982
 20
-46.973765000001087
 30
0.0
  0
VERTEX
  5
2151
  8
SAPA_PROFIL
 10
2.6999999999998181
 20
-48.350000000001039
 30
0.0
  0
VERTEX
  5
2152
  8
SAPA_PROFIL
 10
2.4499999999998181
 20
-48.350000000001039
 30
0.0
 42
0.5450200690651692
  0
VERTEX
  5
2153
  8
SAPA_PROFIL
 10
2.17671899999982
 20
-48.773765000001049
 30
0.0
  0
VERTEX
  5
2154
  8
SAPA_PROFIL
 10
2.6999999999998181
 20
-50.150000000001
 30
0.0
  0
VERTEX
  5
2155
  8
SAPA_PROFIL
 10
2.1499999999998631
 20
-50.150000000001
 30
0.0
  0
VERTEX
  5
2156
  8
SAPA_PROFIL
 10
2.1499999999998631
 20
-51.350000000001039
 30
0.0
 42
0.1989123673797004
  0
VERTEX
  5
2157
  8
SAPA_PROFIL
 10
2.2378679999997071
 20
-51.562132000001156
 30
0.0
  0
VERTEX
  5
2158
  8
SAPA_PROFIL
 10
3.075735999999778
 20
-52.50000000000113
 30
0.0
  0
VERTEX
  5
2159
  8
SAPA_PROFIL
 10
4.6999999999998181
 20
-52.50000000000113
 30
0.0
 42
0.4142135623730951
  0
VERTEX
  5
215A
  8
SAPA_PROFIL
 10
4.9999999999997717
 20
-52.200000000000948
 30
0.0
  0
VERTEX
  5
215B
  8
SAPA_PROFIL
 10
4.9999999999997717
 20
-31.00000000000114
 30
0.0
 42
-0.4142135623730951
  0
VERTEX
  5
215C
  8
SAPA_PROFIL
 10
5.9999999999997717
 20
-30.00000000000114
 30
0.0
  0
VERTEX
  5
215D
  8
SAPA_PROFIL
 10
14.19999999999982
 20
-30.00000000000114
 30
0.0
 42
-0.4142135623730951
  0
VERTEX
  5
215E
  8
SAPA_PROFIL
 10
14.69999999999982
 20
-30.50000000000114
 30
0.0
  0
VERTEX
  5
215F
  8
SAPA_PROFIL
 10
14.69999999999982
 20
-33.700000000000962
 30
0.0
 42
-0.4142135623730951
  0
VERTEX
  5
2160
  8
SAPA_PROFIL
 10
14.19999999999982
 20
-34.200000000000962
 30
0.0
  0
VERTEX
  5
2161
  8
SAPA_PROFIL
 10
11.299999999999731
 20
-34.200000000000962
 30
0.0
 42
0.4142135623730951
  0
VERTEX
  5
2162
  8
SAPA_PROFIL
 10
10.999999999999771
 20
-34.500000000001137
 30
0.0
  0
VERTEX
  5
2163
  8
SAPA_PROFIL
 10
10.999999999999771
 20
-35.200000000000948
 30
0.0
 42
0.4142135623730951
  0
VERTEX
  5
2164
  8
SAPA_PROFIL
 10
11.299999999999731
 20
-35.500000000001137
 30
0.0
  0
VERTEX
  5
2165
  8
SAPA_PROFIL
 10
17.999999999999769
 20
-35.500000000001137
 30
0.0
  0
VERTEX
  5
2166
  8
SAPA_PROFIL
 10
18.586384015500471
 20
-35.035076580641999
 30
0.0
 42
0.7105995019814511
  0
VERTEX
  5
2167
  8
SAPA_PROFIL
 10
18.39999999999986
 20
-34.500000000001137
 30
0.0
  0
VERTEX
  5
2168
  8
SAPA_PROFIL
 10
16.499999999999769
 20
-34.500000000001137
 30
0.0
 42
-0.4142135623730951
  0
VERTEX
  5
2169
  8
SAPA_PROFIL
 10
16.199999999999822
 20
-34.200000000000962
 30
0.0
  0
VERTEX
  5
216A
  8
SAPA_PROFIL
 10
16.199999999999822
 20
-30.300000000001091
 30
0.0
 42
-0.4142135623730951
  0
VERTEX
  5
216B
  8
SAPA_PROFIL
 10
16.499999999999769
 20
-30.00000000000114
 30
0.0
  0
VERTEX
  5
216C
  8
SAPA_PROFIL
 10
23.199999999999822
 20
-30.00000000000114
 30
0.0
 42
-0.4142135623730951
  0
VERTEX
  5
216D
  8
SAPA_PROFIL
 10
23.499999999999769
 20
-30.300000000001091
 30
0.0
  0
VERTEX
  5
216E
  8
SAPA_PROFIL
 10
23.499999999999769
 20
-34.200000000000962
 30
0.0
 42
-0.4142135623730951
  0
VERTEX
  5
216F
  8
SAPA_PROFIL
 10
23.199999999999822
 20
-34.500000000001137
 30
0.0
  0
VERTEX
  5
2170
  8
SAPA_PROFIL
 10
21.999999999999769
 20
-34.500000000001137
 30
0.0
 42
0.7105990647993611
  0
VERTEX
  5
2171
  8
SAPA_PROFIL
 10
21.81361599999968
 20
-35.035076000001027
 30
0.0
  0
VERTEX
  5
2172
  8
SAPA_PROFIL
 10
22.39999999999986
 20
-35.500000000001137
 30
0.0
  0
VERTEX
  5
2173
  8
SAPA_PROFIL
 10
24.699999999999822
 20
-35.500000000001137
 30
0.0
 42
0.4142135623730951
  0
VERTEX
  5
2174
  8
SAPA_PROFIL
 10
24.999999999999769
 20
-35.200000000000948
 30
0.0
  0
VERTEX
  5
2175
  8
SAPA_PROFIL
 10
24.999999999999769
 20
63.999999999998863
 30
0.0
 42
0.4142135623730951
  0
VERTEX
  5
2176
  8
SAPA_PROFIL
 10
24.499999999999769
 20
64.499999999998863
 30
0.0
  0
VERTEX
  5
2177
  8
SAPA_PROFIL
 10
-24.500000000000231
 20
64.499999999998863
 30
0.0
 42
0.4142135623730951
  0
VERTEX
  5
2178
  8
SAPA_PROFIL
 10
-25.000000000000231
 20
63.999999999998863
 30
0.0
  0
VERTEX
  5
2179
  8
SAPA_PROFIL
 10
-25.000000000000231
 20
-35.200000000000948
 30
0.0
 42
0.4142135623730951
  0
VERTEX
  5
217A
  8
SAPA_PROFIL
 10
-24.700000000000269
 20
-35.500000000001137
 30
0.0
  0
VERTEX
  5
217B
  8
SAPA_PROFIL
 10
-22.400000000000318
 20
-35.500000000001137
 30
0.0
  0
VERTEX
  5
217C
  8
SAPA_PROFIL
 10
-21.81361598449962
 20
-35.035076580641999
 30
0.0
 42
0.7105995019814511
  0
VERTEX
  5
217D
  8
SAPA_PROFIL
 10
-22.000000000000231
 20
-34.500000000001137
 30
0.0
  0
VERTEX
  5
217E
  8
SAPA_PROFIL
 10
-23.200000000000269
 20
-34.500000000001137
 30
0.0
 42
-0.4142135623730951
  0
VERTEX
  5
217F
  8
SAPA_PROFIL
 10
-23.500000000000231
 20
-34.200000000000962
 30
0.0
  0
VERTEX
  5
2180
  8
SAPA_PROFIL
 10
-23.500000000000231
 20
-30.300000000001091
 30
0.0
 42
-0.4142135623730951
  0
VERTEX
  5
2181
  8
SAPA_PROFIL
 10
-23.200000000000269
 20
-30.00000000000114
 30
0.0
  0
VERTEX
  5
2182
  8
SAPA_PROFIL
 10
-16.500000000000231
 20
-30.00000000000114
 30
0.0
 42
-0.4142135623730951
  0
VERTEX
  5
2183
  8
SAPA_PROFIL
 10
-16.200000000000269
 20
-30.300000000001091
 30
0.0
  0
VERTEX
  5
2184
  8
SAPA_PROFIL
 10
-16.200000000000269
 20
-34.200000000000962
 30
0.0
 42
-0.4142135623730951
  0
VERTEX
  5
2185
  8
SAPA_PROFIL
 10
-16.500000000000231
 20
-34.500000000001137
 30
0.0
  0
VERTEX
  5
2186
  8
SAPA_PROFIL
 10
-18.400000000000318
 20
-34.500000000001137
 30
0.0
 42
0.7105995019814511
  0
VERTEX
  5
2187
  8
SAPA_PROFIL
 10
-18.586384015500919
 20
-35.035076580641999
 30
0.0
  0
VERTEX
  5
2188
  8
SAPA_PROFIL
 10
-18.000000000000231
 20
-35.500000000001137
 30
0.0
  0
VERTEX
  5
2189
  8
SAPA_PROFIL
 10
-11.30000000000018
 20
-35.500000000001137
 30
0.0
 42
0.4142135623730951
  0
VERTEX
  5
218A
  8
SAPA_PROFIL
 10
-11.00000000000022
 20
-35.200000000000948
 30
0.0
  0
VERTEX
  5
218B
  8
SAPA_PROFIL
 10
-11.00000000000022
 20
-34.500000000001137
 30
0.0
 42
0.4142135623730951
  0
VERTEX
  5
218C
  8
SAPA_PROFIL
 10
-11.30000000000018
 20
-34.200000000000962
 30
0.0
  0
VERTEX
  5
218D
  8
SAPA_PROFIL
 10
-14.200000000000269
 20
-34.200000000000962
 30
0.0
 42
-0.4142135623730951
  0
VERTEX
  5
218E
  8
SAPA_PROFIL
 10
-14.700000000000269
 20
-33.700000000000962
 30
0.0
  0
VERTEX
  5
218F
  8
SAPA_PROFIL
 10
-14.700000000000269
 20
-30.50000000000114
 30
0.0
 42
-0.4142135623730951
  0
VERTEX
  5
2190
  8
SAPA_PROFIL
 10
-14.200000000000269
 20
-30.00000000000114
 30
0.0
  0
SEQEND
  5
2191
  8
SAPA_PROFIL
  0
LINE
  5
13D3
  8
SAPA_PROFIL
 10
-40.999999999995907
 20
-54.499999999010129
 30
0.0
 11
-10.999999999995911
 21
-54.499999999010129
 31
0.0
  0
POLYLINE
  5
1418
  8
SAPA_GLAS
 66
     1
 10
0.0
 20
0.0
 30
0.0
  0
VERTEX
  5
21C6
  8
SAPA_GLAS
 10
-40.999999999995907
 20
-72.49999999901172
 30
0.0
  0
VERTEX
  5
21C7
  8
SAPA_GLAS
 10
-10.999999999995911
 20
-72.49999999901172
 30
0.0
  0
VERTEX
  5
21C8
  8
SAPA_GLAS
 10
-10.999999999995911
 20
-66.49999999901172
 30
0.0
  0
VERTEX
  5
21C9
  8
SAPA_GLAS
 10
-40.999999999995907
 20
-66.49999999901172
 30
0.0
  0
SEQEND
  5
21CA
  8
SAPA_GLAS
  0
POLYLINE
  5
1419
  8
SAPA_GLAS
 66
     1
 10
0.0
 20
0.0
 30
0.0
  0
VERTEX
  5
21CB
  8
SAPA_GLAS
 10
-40.999999999995907
 20
-90.499999999011735
 30
0.0
  0
VERTEX
  5
21CC
  8
SAPA_GLAS
 10
-10.999999999995911
 20
-90.499999999011735
 30
0.0
  0
VERTEX
  5
21CD
  8
SAPA_GLAS
 10
-10.999999999995911
 20
-84.499999999011706
 30
0.0
  0
VERTEX
  5
21CE
  8
SAPA_GLAS
 10
-40.999999999995907
 20
-84.499999999011706
 30
0.0
  0
SEQEND
  5
21CF
  8
SAPA_GLAS
  0
POLYLINE
  5
141A
  8
SAPA_GLAS
 66
     1
 10
0.0
 20
0.0
 30
0.0
  0
VERTEX
  5
21D0
  8
SAPA_GLAS
 10
-40.99999999999681
 20
-54.499999999010129
 30
0.0
  0
VERTEX
  5
21D1
  8
SAPA_GLAS
 10
-10.99999999999681
 20
-54.499999999010129
 30
0.0
  0
VERTEX
  5
21D2
  8
SAPA_GLAS
 10
-10.99999999999681
 20
-48.499999999010129
 30
0.0
  0
VERTEX
  5
21D3
  8
SAPA_GLAS
 10
-40.99999999999681
 20
-48.499999999010129
 30
0.0
  0
SEQEND
  5
21D4
  8
SAPA_GLAS
  0
POLYLINE
  5
141B
  8
SAPA_GLAS
 66
     1
 10
0.0
 20
0.0
 30
0.0
  0
VERTEX
  5
21D5
  8
SAPA_GLAS
 10
-20.999999999995911
 20
-84.499999999010129
 30
0.0
  0
VERTEX
  5
21D6
  8
SAPA_GLAS
 10
-20.999999999995911
 20
-72.499999999010129
 30
0.0
  0
VERTEX
  5
21D7
  8
SAPA_GLAS
 10
-10.99999999999681
 20
-72.499999999010129
 30
0.0
  0
VERTEX
  5
21D8
  8
SAPA_GLAS
 10
-10.99999999999681
 20
-84.499999999010129
 30
0.0
  0
VERTEX
  5
21D9
  8
SAPA_GLAS
 10
-20.999999999995911
 20
-84.499999999010129
 30
0.0
  0
SEQEND
  5
21DA
  8
SAPA_GLAS
  0
POLYLINE
  5
141C
  8
SAPA_GLAS
 66
     1
 10
0.0
 20
0.0
 30
0.0
  0
VERTEX
  5
21DB
  8
SAPA_GLAS
 10
-20.999999999995911
 20
-66.499999999010114
 30
0.0
  0
VERTEX
  5
21DC
  8
SAPA_GLAS
 10
-20.999999999995911
 20
-54.499999999010129
 30
0.0
  0
VERTEX
  5
21DD
  8
SAPA_GLAS
 10
-10.99999999999681
 20
-54.499999999010129
 30
0.0
  0
VERTEX
  5
21DE
  8
SAPA_GLAS
 10
-10.99999999999681
 20
-66.499999999010114
 30
0.0
  0
VERTEX
  5
21DF
  8
SAPA_GLAS
 10
-20.999999999995911
 20
-66.499999999010114
 30
0.0
  0
SEQEND
  5
21E0
  8
SAPA_GLAS
  0
POLYLINE
  5
141D
  8
SAPA_GLAS
 66
     1
 10
0.0
 20
0.0
 30
0.0
 70
     1
  0
VERTEX
  5
21E1
  8
SAPA_GLAS
 10
118.495375813498
 20
-74.663511128413077
 30
0.0
  0
VERTEX
  5
21E2
  8
SAPA_GLAS
 10
118.495375813498
 20
-59.663511128413077
 30
0.0
  0
VERTEX
  5
21E3
  8
SAPA_GLAS
 10
108.495375813498
 20
-59.663511128413077
 30
0.0
  0
VERTEX
  5
21E4
  8
SAPA_GLAS
 10
108.495375813498
 20
-74.663511128413077
 30
0.0
  0
SEQEND
  5
21E5
  8
SAPA_GLAS
  0
POLYLINE
  5
141E
  8
SAPA_GLAS
 66
     1
 10
0.0
 20
0.0
 30
0.0
 70
     1
  0
VERTEX
  5
21E6
  8
SAPA_GLAS
 10
118.495375813498
 20
-55.66351112841307
 30
0.0
  0
VERTEX
  5
21E7
  8
SAPA_GLAS
 10
118.495375813498
 20
-40.66351112841307
 30
0.0
  0
VERTEX
  5
21E8
  8
SAPA_GLAS
 10
108.495375813498
 20
-40.66351112841307
 30
0.0
  0
VERTEX
  5
21E9
  8
SAPA_GLAS
 10
108.495375813498
 20
-55.66351112841307
 30
0.0
  0
SEQEND
  5
21EA
  8
SAPA_GLAS
  0
POLYLINE
  5
141F
  8
SAPA_GLAS
 66
     1
 10
0.0
 20
0.0
 30
0.0
  0
VERTEX
  5
21EB
  8
SAPA_GLAS
 10
138.4953758134979
 20
-55.66351112841307
 30
0.0
  0
VERTEX
  5
21EC
  8
SAPA_GLAS
 10
108.4953758134979
 20
-55.66351112841307
 30
0.0
  0
VERTEX
  5
21ED
  8
SAPA_GLAS
 10
108.4953758134979
 20
-59.663511128413077
 30
0.0
  0
VERTEX
  5
21EE
  8
SAPA_GLAS
 10
138.4953758134979
 20
-59.663511128413091
 30
0.0
  0
SEQEND
  5
21EF
  8
SAPA_GLAS
  0
POLYLINE
  5
1420
  8
SAPA_GLAS
 66
     1
 10
0.0
 20
0.0
 30
0.0
  0
VERTEX
  5
21F0
  8
SAPA_GLAS
 10
138.4953758134977
 20
-34.663511128413077
 30
0.0
  0
VERTEX
  5
21F1
  8
SAPA_GLAS
 10
108.4953758134977
 20
-34.663511128413077
 30
0.0
  0
VERTEX
  5
21F2
  8
SAPA_GLAS
 10
108.4953758134977
 20
-40.66351112841307
 30
0.0
  0
VERTEX
  5
21F3
  8
SAPA_GLAS
 10
138.4953758134977
 20
-40.663511128413091
 30
0.0
  0
SEQEND
  5
21F4
  8
SAPA_GLAS
  0
POLYLINE
  5
1421
  8
SAPA_GLAS
 66
     1
 10
0.0
 20
0.0
 30
0.0
  0
VERTEX
  5
21F5
  8
SAPA_GLAS
 10
138.4953758134977
 20
-80.663511128413077
 30
0.0
  0
VERTEX
  5
21F6
  8
SAPA_GLAS
 10
108.4953758134977
 20
-80.663511128413077
 30
0.0
  0
VERTEX
  5
21F7
  8
SAPA_GLAS
 10
108.4953758134977
 20
-74.663511128413077
 30
0.0
  0
VERTEX
  5
21F8
  8
SAPA_GLAS
 10
138.4953758134977
 20
-74.663511128413063
 30
0.0
  0
SEQEND
  5
21F9
  8
SAPA_GLAS
  0
LINE
  5
1436
  8
SAPA_ISOLATOR
 10
24.999999630938419
 20
-16.89242387984859
 30
0.0
 11
30.994623398121352
 21
-16.89242387984859
 31
0.0
  0
LINE
  5
1437
  8
SAPA_ISOLATOR
 10
24.999999630938419
 20
-45.038028273472598
 30
0.0
 11
24.999999630938419
 21
-16.89242387984859
 31
0.0
  0
LINE
  5
1438
  8
SAPA_ISOLATOR
 10
30.994623398123171
 20
-45.038028273472598
 30
0.0
 11
24.999999630938419
 21
-45.038028273472598
 31
0.0
  0
LINE
  5
1439
  8
SAPA_ISOLATOR
 10
30.999999630938419
 20
-16.89242387984859
 30
0.0
 11
30.994623398123171
 21
-45.038028273472598
 31
0.0
  0
POLYLINE
  5
143A
  8
SAPA_ISOLATOR
 66
     1
 10
0.0
 20
0.0
 30
0.0
 70
     1
  0
VERTEX
  5
2272
  8
SAPA_ISOLATOR
 10
8.8339473861456081
 20
-55.235078053681598
 30
0.0
 42
0.2133140774071598
  0
VERTEX
  5
2273
  8
SAPA_ISOLATOR
 10
9.5000000000001137
 20
-53.744915521943653
 30
0.0
  0
VERTEX
  5
2274
  8
SAPA_ISOLATOR
 10
9.5000000000001137
 20
-53.573058613284729
 30
0.0
 42
-0.9999999999999998
  0
VERTEX
  5
2275
  8
SAPA_ISOLATOR
 10
10.00000000000011
 20
-53.573058613284729
 30
0.0
  0
VERTEX
  5
2276
  8
SAPA_ISOLATOR
 10
10.00000000000011
 20
-54.532183152571292
 30
0.0
 42
-0.2072397715914422
  0
VERTEX
  5
2277
  8
SAPA_ISOLATOR
 10
9.2103209337028602
 20
-56.355587195491701
 30
0.0
 42
-0.1421101772925093
  0
VERTEX
  5
2278
  8
SAPA_ISOLATOR
 10
5.0000000000001128
 20
-58.499999999010129
 30
0.0
  0
VERTEX
  5
2279
  8
SAPA_ISOLATOR
 10
5.0000000000001128
 20
-56.687834754465143
 30
0.0
 42
0.1860725815673001
  0
SEQEND
  5
227A
  8
SAPA_ISOLATOR
  0
POLYLINE
  5
143B
  8
SAPA_ISOLATOR
 66
     1
 10
0.0
 20
0.0
 30
0.0
 70
     1
  0
VERTEX
  5
227B
  8
SAPA_ISOLATOR
 10
-8.8339473861456081
 20
-55.235078053681598
 30
0.0
 42
-0.2133140774071598
  0
VERTEX
  5
227C
  8
SAPA_ISOLATOR
 10
-9.5
 20
-53.744915521943653
 30
0.0
  0
VERTEX
  5
227D
  8
SAPA_ISOLATOR
 10
-9.5
 20
-53.573058613284729
 30
0.0
 42
0.9999999999999998
  0
VERTEX
  5
227E
  8
SAPA_ISOLATOR
 10
-10.0
 20
-53.573058613284729
 30
0.0
  0
VERTEX
  5
227F
  8
SAPA_ISOLATOR
 10
-10.0
 20
-54.532183152571292
 30
0.0
 42
0.2072397715914422
  0
VERTEX
  5
2280
  8
SAPA_ISOLATOR
 10
-9.2103209337027465
 20
-56.355587195491701
 30
0.0
 42
0.1421101772925093
  0
VERTEX
  5
2281
  8
SAPA_ISOLATOR
 10
-5.0
 20
-58.499999999010129
 30
0.0
  0
VERTEX
  5
2282
  8
SAPA_ISOLATOR
 10
-5.0
 20
-56.687834754465143
 30
0.0
 42
-0.1860725815673001
  0
SEQEND
  5
2283
  8
SAPA_ISOLATOR
  0
POLYLINE
  5
143C
  8
SAPA_ISOLATOR
 66
     1
 10
0.0
 20
0.0
 30
0.0
 70
     1
  0
VERTEX
  5
2284
  8
SAPA_ISOLATOR
 10
-8.8339473861456081
 20
-70.235078053681605
 30
0.0
 42
-0.2133140774071598
  0
VERTEX
  5
2285
  8
SAPA_ISOLATOR
 10
-9.5
 20
-68.744915521943653
 30
0.0
  0
VERTEX
  5
2286
  8
SAPA_ISOLATOR
 10
-9.5
 20
-68.573058613284729
 30
0.0
 42
0.9999999999999998
  0
VERTEX
  5
2287
  8
SAPA_ISOLATOR
 10
-10.0
 20
-68.573058613284729
 30
0.0
  0
VERTEX
  5
2288
  8
SAPA_ISOLATOR
 10
-10.0
 20
-69.532183152571292
 30
0.0
 42
0.2072397715914422
  0
VERTEX
  5
2289
  8
SAPA_ISOLATOR
 10
-9.2103209337027465
 20
-71.355587195491694
 30
0.0
 42
0.1421101772925093
  0
VERTEX
  5
228A
  8
SAPA_ISOLATOR
 10
-5.0
 20
-73.499999999010129
 30
0.0
  0
VERTEX
  5
228B
  8
SAPA_ISOLATOR
 10
-5.0
 20
-71.687834754465143
 30
0.0
 42
-0.1860725815673001
  0
SEQEND
  5
228C
  8
SAPA_ISOLATOR
  0
POLYLINE
  5
143D
  8
SAPA_ISOLATOR
 66
     1
 10
0.0
 20
0.0
 30
0.0
 70
     1
  0
VERTEX
  5
228D
  8
SAPA_ISOLATOR
 10
-8.8339473861454962
 20
-84.235078053681164
 30
0.0
 42
-0.2133140774071598
  0
VERTEX
  5
228E
  8
SAPA_ISOLATOR
 10
-9.5
 20
-82.744915521943184
 30
0.0
  0
VERTEX
  5
228F
  8
SAPA_ISOLATOR
 10
-9.5
 20
-82.573058613284275
 30
0.0
 42
0.9999999999999998
  0
VERTEX
  5
2290
  8
SAPA_ISOLATOR
 10
-10.0
 20
-82.573058613284275
 30
0.0
  0
VERTEX
  5
2291
  8
SAPA_ISOLATOR
 10
-10.0
 20
-83.532183152570838
 30
0.0
 42
0.2072397715914422
  0
VERTEX
  5
2292
  8
SAPA_ISOLATOR
 10
-9.2103209337027465
 20
-85.355587195491239
 30
0.0
 42
0.1421101772925093
  0
VERTEX
  5
2293
  8
SAPA_ISOLATOR
 10
-5.0
 20
-87.499999999009674
 30
0.0
  0
VERTEX
  5
2294
  8
SAPA_ISOLATOR
 10
-5.0
 20
-85.687834754464689
 30
0.0
 42
-0.1860725815673001
  0
SEQEND
  5
2295
  8
SAPA_ISOLATOR
  0
POLYLINE
  5
143E
  8
SAPA_ISOLATOR
 66
     1
 10
0.0
 20
0.0
 30
0.0
 70
     1
  0
VERTEX
  5
2296
  8
SAPA_ISOLATOR
 10
8.8339473861456081
 20
-70.235078053681605
 30
0.0
 42
0.2133140774071598
  0
VERTEX
  5
2297
  8
SAPA_ISOLATOR
 10
9.5000000000001137
 20
-68.744915521943653
 30
0.0
  0
VERTEX
  5
2298
  8
SAPA_ISOLATOR
 10
9.5000000000001137
 20
-68.573058613284729
 30
0.0
 42
-0.9999999999999998
  0
VERTEX
  5
2299
  8
SAPA_ISOLATOR
 10
10.00000000000011
 20
-68.573058613284729
 30
0.0
  0
VERTEX
  5
229A
  8
SAPA_ISOLATOR
 10
10.00000000000011
 20
-69.532183152571292
 30
0.0
 42
-0.2072397715914422
  0
VERTEX
  5
229B
  8
SAPA_ISOLATOR
 10
9.2103209337028602
 20
-71.355587195491694
 30
0.0
 42
-0.1421101772925093
  0
VERTEX
  5
229C
  8
SAPA_ISOLATOR
 10
5.0000000000001128
 20
-73.499999999010129
 30
0.0
  0
VERTEX
  5
229D
  8
SAPA_ISOLATOR
 10
5.0000000000001128
 20
-71.687834754465143
 30
0.0
 42
0.1860725815673001
  0
SEQEND
  5
229E
  8
SAPA_ISOLATOR
  0
POLYLINE
  5
143F
  8
SAPA_ISOLATOR
 66
     1
 10
0.0
 20
0.0
 30
0.0
 70
     1
  0
VERTEX
  5
229F
  8
SAPA_ISOLATOR
 10
8.8339473861456081
 20
-84.235078053681164
 30
0.0
 42
0.2133140774071598
  0
VERTEX
  5
22A0
  8
SAPA_ISOLATOR
 10
9.5
 20
-82.744915521943184
 30
0.0
  0
VERTEX
  5
22A1
  8
SAPA_ISOLATOR
 10
9.5
 20
-82.573058613284275
 30
0.0
 42
-0.9999999999999998
  0
VERTEX
  5
22A2
  8
SAPA_ISOLATOR
 10
10.0
 20
-82.573058613284275
 30
0.0
  0
VERTEX
  5
22A3
  8
SAPA_ISOLATOR
 10
10.0
 20
-83.532183152570838
 30
0.0
 42
-0.2072397715914422
  0
VERTEX
  5
22A4
  8
SAPA_ISOLATOR
 10
9.2103209337027465
 20
-85.355587195491239
 30
0.0
 42
-0.1421101772925093
  0
VERTEX
  5
22A5
  8
SAPA_ISOLATOR
 10
5.0
 20
-87.499999999009674
 30
0.0
  0
VERTEX
  5
22A6
  8
SAPA_ISOLATOR
 10
5.0
 20
-85.687834754464689
 30
0.0
 42
0.1860725815673001
  0
SEQEND
  5
22A7
  8
SAPA_ISOLATOR
  0
POLYLINE
  5
1440
  8
SAPA_ISOLATOR
 66
     1
 10
0.0
 20
0.0
 30
0.0
 70
     1
  0
VERTEX
  5
22A8
  8
SAPA_ISOLATOR
 10
-5.0
 20
-52.999999999010008
 30
0.0
 42
-0.4142135623730951
  0
VERTEX
  5
22A9
  8
SAPA_ISOLATOR
 10
-4.4999999999998863
 20
-52.499999999010129
 30
0.0
  0
VERTEX
  5
22AA
  8
SAPA_ISOLATOR
 10
-3.274264068711886
 20
-52.499999999010008
 30
0.0
 42
0.1989123673796232
  0
VERTEX
  5
22AB
  8
SAPA_ISOLATOR
 10
-3.0621320343559542
 20
-52.412132033365992
 30
0.0
  0
VERTEX
  5
22AC
  8
SAPA_ISOLATOR
 10
-2.38786796564409
 20
-51.737867964654129
 30
0.0
 42
0.198912367379658
  0
VERTEX
  5
22AD
  8
SAPA_ISOLATOR
 10
-2.3000000000000682
 20
-51.525735930298083
 30
0.0
  0
VERTEX
  5
22AE
  8
SAPA_ISOLATOR
 10
-2.3000000000000682
 20
-47.094967040794693
 30
0.0
 42
-0.0912836897734216
  0
VERTEX
  5
22AF
  8
SAPA_ISOLATOR
 10
-1.0813583321901199
 20
-44.97541000719275
 30
0.0
 42
-0.4396415083054796
  0
VERTEX
  5
22B0
  8
SAPA_ISOLATOR
 10
1.081358332190006
 20
-44.975410007192629
 30
0.0
 42
-0.0912836897734207
  0
VERTEX
  5
22B1
  8
SAPA_ISOLATOR
 10
2.2999999999999541
 20
-47.094967040794693
 30
0.0
  0
VERTEX
  5
22B2
  8
SAPA_ISOLATOR
 10
2.2999999999999541
 20
-51.525735930298083
 30
0.0
 42
0.198912367379658
  0
VERTEX
  5
22B3
  8
SAPA_ISOLATOR
 10
2.38786796564409
 20
-51.737867964654129
 30
0.0
  0
VERTEX
  5
22B4
  8
SAPA_ISOLATOR
 10
3.0621320343559542
 20
-52.412132033365992
 30
0.0
 42
0.1989123673796375
  0
VERTEX
  5
22B5
  8
SAPA_ISOLATOR
 10
3.274264068711886
 20
-52.499999999010008
 30
0.0
  0
VERTEX
  5
22B6
  8
SAPA_ISOLATOR
 10
4.5
 20
-52.499999999010008
 30
0.0
 42
-0.4142135623730951
  0
VERTEX
  5
22B7
  8
SAPA_ISOLATOR
 10
5.0
 20
-52.999999999010008
 30
0.0
  0
VERTEX
  5
22B8
  8
SAPA_ISOLATOR
 10
5.0
 20
-92.499999999010015
 30
0.0
  0
VERTEX
  5
22B9
  8
SAPA_ISOLATOR
 10
3.6242640688968768
 20
-92.499999999010015
 30
0.0
 42
-0.1989123676531388
  0
VERTEX
  5
22BA
  8
SAPA_ISOLATOR
 10
3.412132034317664
 20
-92.412132033142726
 30
0.0
  0
VERTEX
  5
22BB
  8
SAPA_ISOLATOR
 10
0.3535533972160465
 20
-89.353553389603235
 30
0.0
 42
0.4142135623730478
  0
VERTEX
  5
22BC
  8
SAPA_ISOLATOR
 10
-0.3535533839705067
 20
-89.353553389603235
 30
0.0
  0
VERTEX
  5
22BD
  8
SAPA_ISOLATOR
 10
-3.4121320343942889
 20
-92.412132033589273
 30
0.0
 42
-0.1989123671061486
  0
VERTEX
  5
22BE
  8
SAPA_ISOLATOR
 10
-3.6242640685269398
 20
-92.499999999010015
 30
0.0
  0
VERTEX
  5
22BF
  8
SAPA_ISOLATOR
 10
-5.0
 20
-92.499999999009916
 30
0.0
  0
SEQEND
  5
22C0
  8
SAPA_ISOLATOR
  0
POLYLINE
  5
1441
  8
SAPA_ISOLATOR
 66
     1
 10
0.0
 20
0.0
 30
0.0
 70
     1
  0
VERTEX
  5
22C1
  8
SAPA_ISOLATOR
 10
-1.200000000000045
 20
-51.981370848908568
 30
0.0
 42
-0.1989123673796566
  0
VERTEX
  5
22C2
  8
SAPA_ISOLATOR
 10
-1.2878679656440679
 20
-52.193502883264379
 30
0.0
  0
VERTEX
  5
22C3
  8
SAPA_ISOLATOR
 10
-2.6064971157455821
 20
-53.512132033366022
 30
0.0
 42
-0.198912367379654
  0
VERTEX
  5
22C4
  8
SAPA_ISOLATOR
 10
-2.8186291501015139
 20
-53.599999999010031
 30
0.0
  0
VERTEX
  5
22C5
  8
SAPA_ISOLATOR
 10
-3.6000000000000218
 20
-53.599999999010031
 30
0.0
 42
0.4142135623730389
  0
VERTEX
  5
22C6
  8
SAPA_ISOLATOR
 10
-3.8999999999999768
 20
-53.899999999009992
 30
0.0
  0
VERTEX
  5
22C7
  8
SAPA_ISOLATOR
 10
-3.8999999999999768
 20
-64.546767147075457
 30
0.0
 42
0.4142135623730946
  0
VERTEX
  5
22C8
  8
SAPA_ISOLATOR
 10
-3.6000000000000218
 20
-64.846767147075411
 30
0.0
  0
VERTEX
  5
22C9
  8
SAPA_ISOLATOR
 10
3.6000000000000218
 20
-64.846767147075411
 30
0.0
 42
0.4142135623730956
  0
VERTEX
  5
22CA
  8
SAPA_ISOLATOR
 10
3.8999999999999768
 20
-64.546767147075457
 30
0.0
  0
VERTEX
  5
22CB
  8
SAPA_ISOLATOR
 10
3.8999999999999768
 20
-53.899999999009992
 30
0.0
 42
0.4142135623730514
  0
VERTEX
  5
22CC
  8
SAPA_ISOLATOR
 10
3.6000000000000218
 20
-53.599999999010031
 30
0.0
  0
VERTEX
  5
22CD
  8
SAPA_ISOLATOR
 10
2.8186291501015139
 20
-53.599999999010031
 30
0.0
 42
-0.198912367379658
  0
VERTEX
  5
22CE
  8
SAPA_ISOLATOR
 10
2.6064971157455821
 20
-53.512132033365901
 30
0.0
  0
VERTEX
  5
22CF
  8
SAPA_ISOLATOR
 10
1.2878679656440679
 20
-52.1935028832645
 30
0.0
 42
-0.1989123673796573
  0
VERTEX
  5
22D0
  8
SAPA_ISOLATOR
 10
1.200000000000045
 20
-51.981370848908568
 30
0.0
  0
VERTEX
  5
22D1
  8
SAPA_ISOLATOR
 10
1.200000000000045
 20
-46.992292378098227
 30
0.0
 42
0.082016165771189
  0
VERTEX
  5
22D2
  8
SAPA_ISOLATOR
 10
0.2604570137376641
 20
-45.408225173596627
 30
0.0
 42
0.4155202927268181
  0
VERTEX
  5
22D3
  8
SAPA_ISOLATOR
 10
-0.2604570137476685
 20
-45.408225173608457
 30
0.0
 42
0.0820161657705025
  0
VERTEX
  5
22D4
  8
SAPA_ISOLATOR
 10
-1.200000000000045
 20
-46.992292378098227
 30
0.0
  0
SEQEND
  5
22D5
  8
SAPA_ISOLATOR
  0
POLYLINE
  5
1442
  8
SAPA_ISOLATOR
 66
     1
 10
0.0
 20
0.0
 30
0.0
 70
     1
  0
VERTEX
  5
22D6
  8
SAPA_ISOLATOR
 10
-3.6000000000000218
 20
-65.846767147075411
 30
0.0
 42
0.4142135623731076
  0
VERTEX
  5
22D7
  8
SAPA_ISOLATOR
 10
-3.8999999999999768
 20
-66.146767147075479
 30
0.0
  0
VERTEX
  5
22D8
  8
SAPA_ISOLATOR
 10
-3.8999999999999768
 20
-79.021661667209059
 30
0.0
 42
0.4142135623730659
  0
VERTEX
  5
22D9
  8
SAPA_ISOLATOR
 10
-3.6000000000000218
 20
-79.321661667209014
 30
0.0
  0
VERTEX
  5
22DA
  8
SAPA_ISOLATOR
 10
3.6000000000000218
 20
-79.321661667209128
 30
0.0
 42
0.414213562373041
  0
VERTEX
  5
22DB
  8
SAPA_ISOLATOR
 10
3.8999999999999768
 20
-79.021661667209059
 30
0.0
  0
VERTEX
  5
22DC
  8
SAPA_ISOLATOR
 10
3.8999999999999768
 20
-66.146767147075479
 30
0.0
 42
0.4142135623730784
  0
VERTEX
  5
22DD
  8
SAPA_ISOLATOR
 10
3.6000000000000218
 20
-65.846767147075525
 30
0.0
  0
SEQEND
  5
22DE
  8
SAPA_ISOLATOR
  0
POLYLINE
  5
1443
  8
SAPA_ISOLATOR
 66
     1
 10
0.0
 20
0.0
 30
0.0
 70
     1
  0
VERTEX
  5
22DF
  8
SAPA_ISOLATOR
 10
-3.6000000000000218
 20
-80.321661667209113
 30
0.0
 42
0.4142135623730659
  0
VERTEX
  5
22E0
  8
SAPA_ISOLATOR
 10
-3.8999999999999768
 20
-80.621661667209082
 30
0.0
  0
VERTEX
  5
22E1
  8
SAPA_ISOLATOR
 10
-3.8999999999999768
 20
-90.378679657682937
 30
0.0
 42
0.6681786375386655
  0
VERTEX
  5
22E2
  8
SAPA_ISOLATOR
 10
-3.2171572878230559
 20
-90.661522370455145
 30
0.0
  0
VERTEX
  5
22E3
  8
SAPA_ISOLATOR
 10
-1.131370842457158
 20
-88.575735929479478
 30
0.0
 42
-0.4142135623730892
  0
VERTEX
  5
22E4
  8
SAPA_ISOLATOR
 10
1.131370856521243
 20
-88.575735930298023
 30
0.0
  0
VERTEX
  5
22E5
  8
SAPA_ISOLATOR
 10
3.2171572872276779
 20
-90.661522365394831
 30
0.0
 42
0.6681786382998773
  0
VERTEX
  5
22E6
  8
SAPA_ISOLATOR
 10
3.8999999999999768
 20
-90.378679653217887
 30
0.0
  0
VERTEX
  5
22E7
  8
SAPA_ISOLATOR
 10
3.8999999999999768
 20
-80.621661667209196
 30
0.0
 42
0.4142135623730951
  0
VERTEX
  5
22E8
  8
SAPA_ISOLATOR
 10
3.6000000000000218
 20
-80.321661667209113
 30
0.0
  0
SEQEND
  5
22E9
  8
SAPA_ISOLATOR
  0
LINE
  5
1444
  8
SAPA_ISOLATOR
 10
30.994623398123171
 20
-45.038028273472598
 30
0.0
 11
24.999999630938419
 21
-16.89242387984859
 31
0.0
  0
LINE
  5
1445
  8
SAPA_ISOLATOR
 10
31.01658693382387
 20
-16.89242387984859
 30
0.0
 11
25.011210701008618
 21
-45.038028273472598
 31
0.0
  0
POLYLINE
  5
146B
  8
SAPA_FOGBAND
 66
     1
 10
0.0
 20
0.0
 30
0.0
 70
     1
  0
VERTEX
  5
24EB
  8
SAPA_FOGBAND
 10
72.305446141379775
 20
-71.364139622992724
 30
0.0
 42
-0.1579553886371987
  0
VERTEX
  5
24EC
  8
SAPA_FOGBAND
 10
75.569274185495829
 20
-71.511199129457083
 30
0.0
 42
-1.0
  0
VERTEX
  5
24ED
  8
SAPA_FOGBAND
 10
74.306651196556572
 20
-74.882516852218203
 30
0.0
 42
-0.1276248526686838
  0
VERTEX
  5
24EE
  8
SAPA_FOGBAND
 10
72.538998688079005
 20
-73.641204430532611
 30
0.0
  0
VERTEX
  5
24EF
  8
SAPA_FOGBAND
 10
71.629652164510276
 20
-72.571815757960195
 30
0.0
 42
-0.5691506674918112
  0
VERTEX
  5
24F0
  8
SAPA_FOGBAND
 10
72.019887920228371
 20
-71.433124563323105
 30
0.0
 42
0.0156300267407041
  0
SEQEND
  5
24F1
  8
SAPA_FOGBAND
  0
POLYLINE
  5
146C
  8
SAPA_FOGBAND
 66
     1
 10
0.0
 20
0.0
 30
0.0
 70
     1
  0
VERTEX
  5
24F2
  8
SAPA_FOGBAND
 10
61.002594700826542
 20
-78.573627998605303
 30
0.0
 42
0.3888787318529789
  0
VERTEX
  5
24F3
  8
SAPA_FOGBAND
 10
62.288950895738139
 20
-77.586572174095323
 30
0.0
  0
VERTEX
  5
24F4
  8
SAPA_FOGBAND
 10
62.41546583052866
 20
-76.869070324508954
 30
0.0
 42
1.0
  0
VERTEX
  5
24F5
  8
SAPA_FOGBAND
 10
62.519654737129137
 20
-76.278185672701653
 30
0.0
  0
VERTEX
  5
24F6
  8
SAPA_FOGBAND
 10
62.627058207378809
 20
-75.669070324508681
 30
0.0
 42
0.9999999999999067
  0
VERTEX
  5
24F7
  8
SAPA_FOGBAND
 10
62.731247113978831
 20
-75.07818567270138
 30
0.0
  0
VERTEX
  5
24F8
  8
SAPA_FOGBAND
 10
62.792031720640239
 20
-74.733459038032521
 30
0.0
 42
-0.3345953195020691
  0
VERTEX
  5
24F9
  8
SAPA_FOGBAND
 10
64.992729945001315
 20
-72.681274743779014
 30
0.0
  0
VERTEX
  5
24FA
  8
SAPA_FOGBAND
 10
69.006537350013218
 20
-72.328166970861872
 30
0.0
 42
-0.2564696513213821
  0
VERTEX
  5
24FB
  8
SAPA_FOGBAND
 10
71.461031548720143
 20
-73.454099136803876
 30
0.0
  0
VERTEX
  5
24FC
  8
SAPA_FOGBAND
 10
72.005731277350947
 20
-74.094664317022449
 30
0.0
 42
0.1276248526686853
  0
VERTEX
  5
24FD
  8
SAPA_FOGBAND
 10
74.06114117093
 20
-75.538050853866167
 30
0.0
 42
1.0
  0
VERTEX
  5
24FE
  8
SAPA_FOGBAND
 10
75.814784211122856
 20
-70.855665127809203
 30
0.0
 42
0.1579553886371977
  0
VERTEX
  5
24FF
  8
SAPA_FOGBAND
 10
72.119884538538258
 20
-70.689182667660731
 30
0.0
 42
-0.0604483959424258
  0
VERTEX
  5
2500
  8
SAPA_FOGBAND
 10
68.729772477552956
 20
-70.790275202113804
 30
0.0
  0
VERTEX
  5
2501
  8
SAPA_FOGBAND
 10
63.572205721185469
 20
-70.578194360895083
 30
0.0
 42
-0.3286126757704555
  0
VERTEX
  5
2502
  8
SAPA_FOGBAND
 10
62.139561614715937
 20
-69.522638805339426
 30
0.0
 42
0.2704382184496639
  0
VERTEX
  5
2503
  8
SAPA_FOGBAND
 10
61.021053089579588
 20
-68.60896253019942
 30
0.0
  0
VERTEX
  5
2504
  8
SAPA_FOGBAND
 10
61.220916854707298
 20
-72.478194360895174
 30
0.0
  0
VERTEX
  5
2505
  8
SAPA_FOGBAND
 10
60.02091685470748
 20
-72.478194360895174
 30
0.0
  0
VERTEX
  5
2506
  8
SAPA_FOGBAND
 10
58.959852449157893
 20
-72.532666123934547
 30
0.0
  0
VERTEX
  5
2507
  8
SAPA_FOGBAND
 10
58.960821459015619
 20
-71.982820215129465
 30
0.0
 42
0.6068148963145658
  0
VERTEX
  5
2508
  8
SAPA_FOGBAND
 10
58.441230378193147
 20
-71.86762964575442
 30
0.0
  0
VERTEX
  5
2509
  8
SAPA_FOGBAND
 10
57.064904692303003
 20
-73.683042455774881
 30
0.0
 42
0.4400105308918406
  0
VERTEX
  5
250A
  8
SAPA_FOGBAND
 10
57.265625946389598
 20
-75.207671747013279
 30
0.0
  0
VERTEX
  5
250B
  8
SAPA_FOGBAND
 10
59.282588870612358
 20
-76.730873128428954
 30
0.0
 42
0.5205670505516999
  0
VERTEX
  5
250C
  8
SAPA_FOGBAND
 10
59.744439549404319
 20
-76.56277322867291
 30
0.0
  0
VERTEX
  5
250D
  8
SAPA_FOGBAND
 10
59.771035180439299
 20
-75.817934117240299
 30
0.0
  0
VERTEX
  5
250E
  8
SAPA_FOGBAND
 10
61.060947989287691
 20
-76.017445060694314
 30
0.0
  0
SEQEND
  5
250F
  8
SAPA_FOGBAND
  0
CIRCLE
  5
146D
  8
SAPA_FOGBAND
 10
62.616112303381101
 20
-71.997051924880594
 30
0.0
 40
0.3
  0
POLYLINE
  5
146E
  8
SAPA_FOGBAND
 66
     1
 10
0.0
 20
0.0
 30
0.0
 70
     1
  0
VERTEX
  5
2510
  8
SAPA_FOGBAND
 10
58.807464585985478
 20
-75.178194360894992
 30
0.0
  0
VERTEX
  5
2511
  8
SAPA_FOGBAND
 10
60.720916854707298
 20
-75.178194360894992
 30
0.0
 42
0.4142135623730951
  0
VERTEX
  5
2512
  8
SAPA_FOGBAND
 10
61.220916854707298
 20
-74.678194360894992
 30
0.0
  0
VERTEX
  5
2513
  8
SAPA_FOGBAND
 10
61.220916854707298
 20
-73.878194360895264
 30
0.0
 42
0.4142135623730951
  0
VERTEX
  5
2514
  8
SAPA_FOGBAND
 10
60.720916854707298
 20
-73.378194360895264
 30
0.0
  0
VERTEX
  5
2515
  8
SAPA_FOGBAND
 10
58.644813042640969
 20
-73.378194360895264
 30
0.0
 42
0.2216946626429447
  0
VERTEX
  5
2516
  8
SAPA_FOGBAND
 10
58.185186376769138
 20
-73.592521795083172
 30
0.0
  0
VERTEX
  5
2517
  8
SAPA_FOGBAND
 10
57.825049329476663
 20
-74.021716415020052
 30
0.0
 42
0.4400105308918337
  0
VERTEX
  5
2518
  8
SAPA_FOGBAND
 10
57.912214012418069
 20
-74.683797913953782
 30
0.0
  0
VERTEX
  5
2519
  8
SAPA_FOGBAND
 10
58.463318724174648
 20
-75.069685587468626
 30
0.0
 42
0.153914721059829
  0
SEQEND
  5
251A
  8
SAPA_FOGBAND
  0
POLYLINE
  5
146F
  8
SAPA_FOGBAND
 66
     1
 10
0.0
 20
0.0
 30
0.0
 70
     1
  0
VERTEX
  5
251B
  8
SAPA_FOGBAND
 10
80.261691287342543
 20
-86.598715294411988
 30
0.0
  0
VERTEX
  5
251C
  8
SAPA_FOGBAND
 10
80.261691287342543
 20
-87.598715294411974
 30
0.0
 42
-0.9999999999999998
  0
VERTEX
  5
251D
  8
SAPA_FOGBAND
 10
79.057531829463315
 20
-87.598715294411974
 30
0.0
  0
VERTEX
  5
251E
  8
SAPA_FOGBAND
 10
79.057531829463315
 20
-86.598715294411988
 30
0.0
 42
-0.9999999999999998
  0
SEQEND
  5
251F
  8
SAPA_FOGBAND
  0
POLYLINE
  5
1470
  8
SAPA_FOGBAND
 66
     1
 10
0.0
 20
0.0
 30
0.0
 70
     1
  0
VERTEX
  5
2520
  8
SAPA_FOGBAND
 10
77.69232728221769
 20
-87.522567591768293
 30
0.0
  0
VERTEX
  5
2521
  8
SAPA_FOGBAND
 10
78.55038599252714
 20
-88.908332678713833
 30
0.0
 42
0.2528723899644565
  0
VERTEX
  5
2522
  8
SAPA_FOGBAND
 10
78.717670268712382
 20
-88.998715294411966
 30
0.0
  0
VERTEX
  5
2523
  8
SAPA_FOGBAND
 10
80.601552848093448
 20
-88.998715294411966
 30
0.0
 42
0.2528723899644564
  0
VERTEX
  5
2524
  8
SAPA_FOGBAND
 10
80.768837124278704
 20
-88.908332678713833
 30
0.0
  0
VERTEX
  5
2525
  8
SAPA_FOGBAND
 10
81.626895834588169
 20
-87.522567591768293
 30
0.0
 42
0.5108224790788402
  0
VERTEX
  5
2526
  8
SAPA_FOGBAND
 10
81.511375367423426
 20
-87.219765042208635
 30
0.0
  0
VERTEX
  5
2527
  8
SAPA_FOGBAND
 10
81.109611558402932
 20
-87.098715294411988
 30
0.0
  0
VERTEX
  5
2528
  8
SAPA_FOGBAND
 10
81.109611558402932
 20
-85.99871529441198
 30
0.0
  0
VERTEX
  5
2529
  8
SAPA_FOGBAND
 10
82.974346162261185
 20
-85.99871529441198
 30
0.0
 42
0.0874886635259237
  0
VERTEX
  5
252A
  8
SAPA_FOGBAND
 10
83.042750190926327
 20
-85.986653818569167
 30
0.0
  0
VERTEX
  5
252B
  8
SAPA_FOGBAND
 10
86.575494336966443
 20
-85.430840104132386
 30
0.0
 42
0.9391885369168745
  0
VERTEX
  5
252C
  8
SAPA_FOGBAND
 10
86.462728367234945
 20
-85.047883585459786
 30
0.0
  0
VERTEX
  5
252D
  8
SAPA_FOGBAND
 10
82.59053456199797
 20
-85.198715294411983
 30
0.0
  0
VERTEX
  5
252E
  8
SAPA_FOGBAND
 10
81.760359595149325
 20
-85.003999513837343
 30
0.0
 42
0.0576596372120268
  0
VERTEX
  5
252F
  8
SAPA_FOGBAND
 10
81.714689421127218
 20
-84.998715294411994
 30
0.0
  0
VERTEX
  5
2530
  8
SAPA_FOGBAND
 10
77.309611558402921
 20
-84.998715294411994
 30
0.0
 42
0.4142135623730951
  0
VERTEX
  5
2531
  8
SAPA_FOGBAND
 10
76.709611558402926
 20
-85.598715294411988
 30
0.0
  0
VERTEX
  5
2532
  8
SAPA_FOGBAND
 10
76.709611558402926
 20
-85.798715294411977
 30
0.0
 42
0.4142135623730951
  0
VERTEX
  5
2533
  8
SAPA_FOGBAND
 10
76.909611558402929
 20
-85.99871529441198
 30
0.0
  0
VERTEX
  5
2534
  8
SAPA_FOGBAND
 10
78.209611558402926
 20
-85.99871529441198
 30
0.0
  0
VERTEX
  5
2535
  8
SAPA_FOGBAND
 10
78.209611558402926
 20
-87.098715294411988
 30
0.0
  0
VERTEX
  5
2536
  8
SAPA_FOGBAND
 10
77.807847749382418
 20
-87.219765042208635
 30
0.0
 42
0.51082247907884
  0
SEQEND
  5
2537
  8
SAPA_FOGBAND
  0
POLYLINE
  5
1471
  8
SAPA_FOGBAND
 66
     1
 10
0.0
 20
0.0
 30
0.0000000195376815
 70
     1
  0
VERTEX
  5
2538
  8
SAPA_FOGBAND
 10
58.387868248667907
 20
2.5513651484895652
 30
0.0000000195376815
  0
VERTEX
  5
2539
  8
SAPA_FOGBAND
 10
58.28786824866792
 20
2.5513651484895652
 30
0.0000000195376815
 42
0.4142135623730959
  0
VERTEX
  5
253A
  8
SAPA_FOGBAND
 10
57.587868248667931
 20
1.851365148489577
 30
0.0000000195376815
  0
VERTEX
  5
253B
  8
SAPA_FOGBAND
 10
57.587868248667903
 20
0.7513651484895827
 30
0.0000000195376815
 42
0.4142135623730961
  0
VERTEX
  5
253C
  8
SAPA_FOGBAND
 10
57.787868248667912
 20
0.5513651484895658
 30
0.0000000195376815
  0
VERTEX
  5
253D
  8
SAPA_FOGBAND
 10
58.887868248667907
 20
0.5513651484895658
 30
0.0000000195376815
 42
0.4142135623730956
  0
VERTEX
  5
253E
  8
SAPA_FOGBAND
 10
59.087868248667931
 20
0.7513651484895827
 30
0.0000000195376815
  0
VERTEX
  5
253F
  8
SAPA_FOGBAND
 10
59.087868248667903
 20
1.851365148489577
 30
0.0000000195376815
 42
0.4142135623730946
  0
SEQEND
  5
2540
  8
SAPA_FOGBAND
  0
POLYLINE
  5
1472
  8
SAPA_FOGBAND
 66
     1
 10
0.0
 20
0.0
 30
0.0000000195376815
 70
     1
  0
VERTEX
  5
2541
  8
SAPA_FOGBAND
 10
59.887868248667907
 20
1.251365148489582
 30
0.0000000195376815
  0
VERTEX
  5
2542
  8
SAPA_FOGBAND
 10
59.887868248667907
 20
0.6035995832164925
 30
0.0000000195376815
 42
0.4416942457848324
  0
VERTEX
  5
2543
  8
SAPA_FOGBAND
 10
60.10642260829583
 20
0.4044621037235454
 30
0.0000000195376815
  0
VERTEX
  5
2544
  8
SAPA_FOGBAND
 10
61.069313889040011
 20
0.4941781689815917
 30
0.0000000195376815
 42
-0.4416942457847888
  0
VERTEX
  5
2545
  8
SAPA_FOGBAND
 10
61.28786824866792
 20
0.295040689488673
 30
0.0000000195376815
  0
VERTEX
  5
2546
  8
SAPA_FOGBAND
 10
61.28786824866792
 20
-0.2549416501028938
 30
0.0000000195376815
 42
-0.5445962197109612
  0
VERTEX
  5
2547
  8
SAPA_FOGBAND
 10
60.582189203262843
 20
-0.7106785591647347
 30
0.0000000195376815
  0
VERTEX
  5
2548
  8
SAPA_FOGBAND
 10
60.223138049977578
 20
-0.5486348515104292
 30
0.0000000195376815
  0
VERTEX
  5
2549
  8
SAPA_FOGBAND
 10
58.750178811229681
 20
-0.5486348515104265
 30
0.0000000195376815
 42
-0.3364379234965429
  0
VERTEX
  5
254A
  8
SAPA_FOGBAND
 10
57.678435081614843
 20
-0.3611280336686784
 30
0.0000000195376815
  0
VERTEX
  5
254B
  8
SAPA_FOGBAND
 10
57.116571445791138
 20
-0.3611280336686784
 30
0.0000000195376815
 42
0.1919812372740509
  0
VERTEX
  5
254C
  8
SAPA_FOGBAND
 10
56.772584398191093
 20
-0.4982604116859486
 30
0.0000000195376815
  0
VERTEX
  5
254D
  8
SAPA_FOGBAND
 10
56.380717467787832
 20
-0.869737887976032
 30
0.0000000195376815
 42
0.7712067734688043
  0
VERTEX
  5
254E
  8
SAPA_FOGBAND
 10
58.953149167661948
 20
-3.6793718836566929
 30
0.0000000195376815
 42
0.152544453744271
  0
VERTEX
  5
254F
  8
SAPA_FOGBAND
 10
59.822574917502109
 20
-2.7874966149029139
 30
0.0000000195376815
 42
-0.6229515670381967
  0
VERTEX
  5
2550
  8
SAPA_FOGBAND
 10
60.297515102277863
 20
-2.8873788987254452
 30
0.0000000195376815
 42
-0.2412896305485237
  0
VERTEX
  5
2551
  8
SAPA_FOGBAND
 10
60.260763830979748
 20
-3.2908437130675781
 30
0.0000000195376815
 42
-0.0924947384438033
  0
VERTEX
  5
2552
  8
SAPA_FOGBAND
 10
59.638770922249464
 20
-3.9813441251089938
 30
0.0000000195376815
 42
-0.8622191196043894
  0
VERTEX
  5
2553
  8
SAPA_FOGBAND
 10
55.81489976850817
 20
-0.4054323731331531
 30
0.0000000195376815
  0
VERTEX
  5
2554
  8
SAPA_FOGBAND
 10
55.384340630626909
 20
-0.2900643998440273
 30
0.0000000195376815
 42
-0.9163311740173991
  0
VERTEX
  5
2555
  8
SAPA_FOGBAND
 10
55.522730545766997
 20
0.4947838099083115
 30
0.0000000195376815
  0
VERTEX
  5
2556
  8
SAPA_FOGBAND
 10
56.57043710011839
 20
0.4031213637007616
 30
0.0000000195376815
 42
0.4400105308918151
  0
VERTEX
  5
2557
  8
SAPA_FOGBAND
 10
56.78786824866792
 20
0.602360303319102
 30
0.0000000195376815
  0
VERTEX
  5
2558
  8
SAPA_FOGBAND
 10
56.78786824866792
 20
1.4513651484895711
 30
0.0000000195376815
  0
VERTEX
  5
2559
  8
SAPA_FOGBAND
 10
56.387868248667907
 20
1.45136514848957
 30
0.0000000195376815
 42
-0.5693809839207585
  0
VERTEX
  5
255A
  8
SAPA_FOGBAND
 10
56.212314203104377
 20
1.747181520192213
 30
0.0000000195376815
  0
VERTEX
  5
255B
  8
SAPA_FOGBAND
 10
56.91727980300341
 20
3.0388142635975139
 30
0.0000000195376815
 42
-0.2743878130875472
  0
VERTEX
  5
255C
  8
SAPA_FOGBAND
 10
57.443941939694142
 20
3.3513651484895899
 30
0.0000000195376815
  0
VERTEX
  5
255D
  8
SAPA_FOGBAND
 10
59.231794557641692
 20
3.3513651484895761
 30
0.0000000195376815
 42
-0.2743878130875473
  0
VERTEX
  5
255E
  8
SAPA_FOGBAND
 10
59.758456694332409
 20
3.0388142635975051
 30
0.0000000195376815
  0
VERTEX
  5
255F
  8
SAPA_FOGBAND
 10
60.463422294231499
 20
1.747181520192242
 30
0.0000000195376815
 42
-0.5693809839208271
  0
VERTEX
  5
2560
  8
SAPA_FOGBAND
 10
60.287868248667912
 20
1.4513651484895389
 30
0.0000000195376815
  0
VERTEX
  5
2561
  8
SAPA_FOGBAND
 10
59.887868248667907
 20
1.4513651484895711
 30
0.0000000195376815
  0
VERTEX
  5
2562
  8
SAPA_FOGBAND
 10
59.887868248667907
 20
0.602360303319102
 30
0.0000000195376815
  0
SEQEND
  5
2563
  8
SAPA_FOGBAND
  0
CIRCLE
  5
1473
  8
SAPA_FOGBAND
 10
18.614660706571041
 20
-92.637568222720574
 30
0.0
 40
0.2549509756796394
  0
INSERT
  5
1474
  8
SAPA_FOGBAND
  6
CONTINUOUS
  2
*U93
 10
0.0
 20
0.0
 30
0.0
1001
ACAD
1002
{
1000
R14_HATCH_DATA
1000
1474
1011
1.0
1021
0.0
1031
0.0
1021
0.0
1031
0.0
1011
0.0
1021
0.0
1031
0.0
1021
1.0
1031
0.0
1011
0.0
1021
0.0
1031
0.0
1021
0.0
1031
1.0
1040
0.0
1010
0.0
1020
0.0
1030
1.0
1000
SOLID
1070
     1
1070
     1
1071
        1
1071
        1
1071
        1
1070
     2
1040
18.614660706571041
1040
-92.637568222720574
1040
0.2549509756796394
1040
-3.1415926535897931
1040
3.1415926535897931
1070
     0
1071
        1
1005
1473
1070
     0
1070
     1
1071
        1
1040
18.851399608141151
1040
-92.555716725391676
1040
0.0
1002
}
  0
POLYLINE
  5
1475
  8
SAPA_FOGBAND
 66
     1
 10
0.0
 20
0.0
 30
0.0
 70
     1
  0
VERTEX
  5
2575
  8
SAPA_FOGBAND
 10
17.71466070657107
 20
-95.600000001965086
 30
0.0
 42
-0.9999999999999998
  0
VERTEX
  5
2576
  8
SAPA_FOGBAND
 10
19.514660706571021
 20
-95.600000001965086
 30
0.0
  0
VERTEX
  5
2577
  8
SAPA_FOGBAND
 10
19.514660706571021
 20
-96.200000001965122
 30
0.0
 42
-0.9999999999999998
  0
VERTEX
  5
2578
  8
SAPA_FOGBAND
 10
17.71466070657107
 20
-96.200000001965122
 30
0.0
  0
SEQEND
  5
2579
  8
SAPA_FOGBAND
  0
POLYLINE
  5
1476
  8
SAPA_FOGBAND
 66
     1
 10
0.0
 20
0.0
 30
0.0
 70
     1
  0
VERTEX
  5
257A
  8
SAPA_FOGBAND
 10
27.24253701474424
 20
-90.500000001965077
 30
0.0
 42
-0.0775891054856093
  0
VERTEX
  5
257B
  8
SAPA_FOGBAND
 10
23.77575528432169
 20
-90.816635986026427
 30
0.0
  0
VERTEX
  5
257C
  8
SAPA_FOGBAND
 10
23.537865791492891
 20
-90.600000001965043
 30
0.0
 42
0.5773502691896298
  0
VERTEX
  5
257D
  8
SAPA_FOGBAND
 10
23.191455629979028
 20
-90.600000001965043
 30
0.0
  0
VERTEX
  5
257E
  8
SAPA_FOGBAND
 10
22.953408013248239
 20
-90.81690985618809
 30
0.0
  0
VERTEX
  5
257F
  8
SAPA_FOGBAND
 10
22.175913403331609
 20
-90.81690985618809
 30
0.0
  0
VERTEX
  5
2580
  8
SAPA_FOGBAND
 10
21.937865791492872
 20
-90.600000001965043
 30
0.0
 42
0.577350269189699
  0
VERTEX
  5
2581
  8
SAPA_FOGBAND
 10
21.591455629979119
 20
-90.600000001965043
 30
0.0
  0
VERTEX
  5
2582
  8
SAPA_FOGBAND
 10
21.35340801324833
 20
-90.81690985618809
 30
0.0
  0
VERTEX
  5
2583
  8
SAPA_FOGBAND
 10
20.57591340333158
 20
-90.81690985618809
 30
0.0
  0
VERTEX
  5
2584
  8
SAPA_FOGBAND
 10
20.337865791492849
 20
-90.600000001965043
 30
0.0
 42
0.577350269189699
  0
VERTEX
  5
2585
  8
SAPA_FOGBAND
 10
19.9914556299791
 20
-90.600000001965043
 30
0.0
  0
VERTEX
  5
2586
  8
SAPA_FOGBAND
 10
19.753408013248301
 20
-90.81690985618809
 30
0.0
  0
VERTEX
  5
2587
  8
SAPA_FOGBAND
 10
18.97591340333156
 20
-90.81690985618809
 30
0.0
  0
VERTEX
  5
2588
  8
SAPA_FOGBAND
 10
18.737865791492929
 20
-90.600000001965043
 30
0.0
 42
0.5773502691896298
  0
VERTEX
  5
2589
  8
SAPA_FOGBAND
 10
18.391455629979081
 20
-90.600000001965043
 30
0.0
  0
VERTEX
  5
258A
  8
SAPA_FOGBAND
 10
18.153408013248281
 20
-90.81690985618809
 30
0.0
  0
VERTEX
  5
258B
  8
SAPA_FOGBAND
 10
17.375913403331531
 20
-90.81690985618809
 30
0.0
  0
VERTEX
  5
258C
  8
SAPA_FOGBAND
 10
17.13786579149291
 20
-90.600000001965043
 30
0.0
 42
0.5773502691896298
  0
VERTEX
  5
258D
  8
SAPA_FOGBAND
 10
16.791455629979051
 20
-90.600000001965043
 30
0.0
  0
VERTEX
  5
258E
  8
SAPA_FOGBAND
 10
16.553408013248259
 20
-90.81690985618809
 30
0.0
  0
VERTEX
  5
258F
  8
SAPA_FOGBAND
 10
15.775913399166599
 20
-90.81690985618809
 30
0.0
  0
VERTEX
  5
2590
  8
SAPA_FOGBAND
 10
15.53786578732786
 20
-90.600000001965043
 30
0.0
 42
0.577350269189699
  0
VERTEX
  5
2591
  8
SAPA_FOGBAND
 10
15.191455625814109
 20
-90.600000001965043
 30
0.0
  0
VERTEX
  5
2592
  8
SAPA_FOGBAND
 10
14.39145562625902
 20
-91.673330070449538
 30
0.0
 42
0.1316524987190269
  0
VERTEX
  5
2593
  8
SAPA_FOGBAND
 10
14.364660706571041
 20
-91.773330071220244
 30
0.0
  0
VERTEX
  5
2594
  8
SAPA_FOGBAND
 10
14.36466070657093
 20
-94.300000001965032
 30
0.0
 42
0.4142135623730951
  0
VERTEX
  5
2595
  8
SAPA_FOGBAND
 10
14.564660706570971
 20
-94.500000001965077
 30
0.0
  0
VERTEX
  5
2596
  8
SAPA_FOGBAND
 10
16.614660706571041
 20
-94.500000001965077
 30
0.0
 42
-0.4142135623730951
  0
VERTEX
  5
2597
  8
SAPA_FOGBAND
 10
17.114660706571041
 20
-95.000000001965077
 30
0.0
  0
VERTEX
  5
2598
  8
SAPA_FOGBAND
 10
17.114660706571041
 20
-95.726794921208239
 30
0.0
  0
VERTEX
  5
2599
  8
SAPA_FOGBAND
 10
16.86289689755051
 20
-95.794254830518625
 30
0.0
 42
0.4740571810232869
  0
VERTEX
  5
259A
  8
SAPA_FOGBAND
 10
16.735603035186951
 20
-96.076537416157294
 30
0.0
  0
VERTEX
  5
259B
  8
SAPA_FOGBAND
 10
17.355703537945491
 20
-97.522743552917063
 30
0.0
 42
0.2846003776495916
  0
VERTEX
  5
259C
  8
SAPA_FOGBAND
 10
17.80334771640571
 20
-97.800000001965032
 30
0.0
  0
VERTEX
  5
259D
  8
SAPA_FOGBAND
 10
19.425973696736261
 20
-97.800000001965032
 30
0.0
 42
0.2846003776495917
  0
VERTEX
  5
259E
  8
SAPA_FOGBAND
 10
19.873617875196491
 20
-97.522743552917063
 30
0.0
  0
VERTEX
  5
259F
  8
SAPA_FOGBAND
 10
20.49371837795502
 20
-96.076537416157294
 30
0.0
 42
0.4740571810232869
  0
VERTEX
  5
25A0
  8
SAPA_FOGBAND
 10
20.366424515591461
 20
-95.794254830518625
 30
0.0
  0
VERTEX
  5
25A1
  8
SAPA_FOGBAND
 10
20.114660706571051
 20
-95.726794921208239
 30
0.0
  0
VERTEX
  5
25A2
  8
SAPA_FOGBAND
 10
20.114660706571051
 20
-95.000000001965077
 30
0.0
 42
-0.4142135623730951
  0
VERTEX
  5
25A3
  8
SAPA_FOGBAND
 10
20.614660706571041
 20
-94.500000001965077
 30
0.0
  0
VERTEX
  5
25A4
  8
SAPA_FOGBAND
 10
23.664660706570999
 20
-94.500000001965077
 30
0.0
 42
-0.4142135623730951
  0
VERTEX
  5
25A5
  8
SAPA_FOGBAND
 10
23.864660706571051
 20
-94.700000001965108
 30
0.0
  0
VERTEX
  5
25A6
  8
SAPA_FOGBAND
 10
23.86466070657093
 20
-95.600000001965086
 30
0.0
 42
0.4142135623731784
  0
VERTEX
  5
25A7
  8
SAPA_FOGBAND
 10
24.064660706570979
 20
-95.800000001965046
 30
0.0
  0
VERTEX
  5
25A8
  8
SAPA_FOGBAND
 10
24.764660706571021
 20
-95.800000001965145
 30
0.0
 42
0.4142135623730398
  0
VERTEX
  5
25A9
  8
SAPA_FOGBAND
 10
25.064660706570979
 20
-95.500000001965077
 30
0.0
  0
VERTEX
  5
25AA
  8
SAPA_FOGBAND
 10
25.064660706570979
 20
-94.689488225313539
 30
0.0
 42
-0.1316524975873973
  0
VERTEX
  5
25AB
  8
SAPA_FOGBAND
 10
25.33260989900214
 20
-93.689488225313539
 30
0.0
  0
VERTEX
  5
25AC
  8
SAPA_FOGBAND
 10
30.495455049042562
 20
-91.099920233221624
 30
0.0
 42
0.7057658529986604
  0
VERTEX
  5
25AD
  8
SAPA_FOGBAND
 10
30.227861873684219
 20
-90.500000001965077
 30
0.0
  0
SEQEND
  5
25AE
  8
SAPA_FOGBAND
  0
POLYLINE
  5
1477
  8
SAPA_FOGBAND
 66
     1
 10
0.0
 20
0.0
 30
0.0
 70
     1
  0
VERTEX
  5
25AF
  8
SAPA_FOGBAND
 10
19.297542939648881
 20
-34.185369502362391
 30
0.0
 42
0.9999999999999998
  0
VERTEX
  5
25B0
  8
SAPA_FOGBAND
 10
21.097542939648889
 20
-34.185369502362391
 30
0.0
  0
VERTEX
  5
25B1
  8
SAPA_FOGBAND
 10
21.097542939648889
 20
-33.585369502362362
 30
0.0
 42
0.9999999999999998
  0
VERTEX
  5
25B2
  8
SAPA_FOGBAND
 10
19.297542939648881
 20
-33.585369502362362
 30
0.0
  0
SEQEND
  5
25B3
  8
SAPA_FOGBAND
  0
POLYLINE
  5
1478
  8
SAPA_FOGBAND
 66
     1
 10
0.0
 20
0.0
 30
0.0
  0
VERTEX
  5
25B4
  8
SAPA_FOGBAND
 10
23.797542939648881
 20
-35.800000000001198
 30
0.0
  0
VERTEX
  5
25B5
  8
SAPA_FOGBAND
 10
23.797542939648881
 20
-35.50000000000113
 30
0.0
  0
VERTEX
  5
25B6
  8
SAPA_FOGBAND
 10
23.797542939648881
 20
-35.800000000001198
 30
0.0
 42
-0.4142135623730951
  0
VERTEX
  5
25B7
  8
SAPA_FOGBAND
 10
23.297542939648881
 20
-36.300000000001198
 30
0.0
  0
VERTEX
  5
25B8
  8
SAPA_FOGBAND
 10
15.99754293964892
 20
-36.300000000001198
 30
0.0
 42
-0.4142135623730951
  0
VERTEX
  5
25B9
  8
SAPA_FOGBAND
 10
15.49754293964892
 20
-35.800000000001198
 30
0.0
  0
VERTEX
  5
25BA
  8
SAPA_FOGBAND
 10
15.49754293964892
 20
-35.50000000000113
 30
0.0
  0
SEQEND
  5
25BB
  8
SAPA_FOGBAND
  0
POLYLINE
  5
1479
  8
SAPA_FOGBAND
 66
     1
 10
0.0
 20
0.0
 30
0.0
 70
     1
  0
VERTEX
  5
25BC
  8
SAPA_FOGBAND
 10
17.145827829945219
 20
-40.100000000001131
 30
0.0
  0
VERTEX
  5
25BD
  8
SAPA_FOGBAND
 10
20.24047193927106
 20
-40.100000000001131
 30
0.0
 42
-1.024758115298622
  0
VERTEX
  5
25BE
  8
SAPA_FOGBAND
 10
20.24047193927106
 20
-43.281531792786623
 30
0.0
  0
VERTEX
  5
25BF
  8
SAPA_FOGBAND
 10
17.145827829945219
 20
-43.281531792786623
 30
0.0
 42
-0.9558128803175696
  0
SEQEND
  5
25C0
  8
SAPA_FOGBAND
  0
POLYLINE
  5
147A
  8
SAPA_FOGBAND
 66
     1
 10
0.0
 20
0.0
 30
0.0
 70
     1
  0
VERTEX
  5
25C1
  8
SAPA_FOGBAND
 10
7.9144974908259327
 20
-41.936054126746782
 30
0.0
 42
0.6274939020253784
  0
VERTEX
  5
25C2
  8
SAPA_FOGBAND
 10
7.925422313259074
 20
-43.494698620708519
 30
0.0
  0
VERTEX
  5
25C3
  8
SAPA_FOGBAND
 10
11.901282306623729
 20
-44.05844162463125
 30
0.0
 42
0.4459602482749359
  0
VERTEX
  5
25C4
  8
SAPA_FOGBAND
 10
12.89754293964892
 20
-43.163604270398899
 30
0.0
  0
VERTEX
  5
25C5
  8
SAPA_FOGBAND
 10
12.89754293964892
 20
-40.440292945534189
 30
0.0
 42
0.6245270939358744
  0
VERTEX
  5
25C6
  8
SAPA_FOGBAND
 10
11.44414626713372
 20
-39.730537971723493
 30
0.0
  0
SEQEND
  5
25C7
  8
SAPA_FOGBAND
  0
POLYLINE
  5
147B
  8
SAPA_FOGBAND
 66
     1
 10
0.0
 20
0.0
 30
0.0
 70
     1
  0
VERTEX
  5
25C8
  8
SAPA_FOGBAND
 10
18.697542939648908
 20
-34.058574583119238
 30
0.0
  0
VERTEX
  5
25C9
  8
SAPA_FOGBAND
 10
18.445779130628441
 20
-33.991114673808852
 30
0.0
 42
-0.4740571810232144
  0
VERTEX
  5
25CA
  8
SAPA_FOGBAND
 10
18.318485268264819
 20
-33.70883208817019
 30
0.0
  0
VERTEX
  5
25CB
  8
SAPA_FOGBAND
 10
18.938585771023408
 20
-32.262625951410307
 30
0.0
 42
-0.2846003776496053
  0
VERTEX
  5
25CC
  8
SAPA_FOGBAND
 10
19.386229949483582
 20
-31.985369502362339
 30
0.0
  0
VERTEX
  5
25CD
  8
SAPA_FOGBAND
 10
21.008855929814189
 20
-31.985369502362339
 30
0.0
 42
-0.2846003776496027
  0
VERTEX
  5
25CE
  8
SAPA_FOGBAND
 10
21.456500108274358
 20
-32.262625951410307
 30
0.0
  0
VERTEX
  5
25CF
  8
SAPA_FOGBAND
 10
22.076600611032951
 20
-33.708832088170247
 30
0.0
 42
-0.4740571810232332
  0
VERTEX
  5
25D0
  8
SAPA_FOGBAND
 10
21.94930674866939
 20
-33.991114673808852
 30
0.0
  0
VERTEX
  5
25D1
  8
SAPA_FOGBAND
 10
21.697542939648908
 20
-34.058574583119238
 30
0.0
  0
VERTEX
  5
25D2
  8
SAPA_FOGBAND
 10
21.697542939648908
 20
-35.00000000000113
 30
0.0
 42
0.4142135623730951
  0
VERTEX
  5
25D3
  8
SAPA_FOGBAND
 10
22.197542939648908
 20
-35.50000000000113
 30
0.0
  0
VERTEX
  5
25D4
  8
SAPA_FOGBAND
 10
24.70970310303036
 20
-35.500000000001187
 30
0.0
 42
-0.4027293761437467
  0
VERTEX
  5
25D5
  8
SAPA_FOGBAND
 10
25.009470656628231
 20
-35.788192637470502
 30
0.0
  0
VERTEX
  5
25D6
  8
SAPA_FOGBAND
 10
25.497310471297649
 20
-45.188192637470529
 30
0.0
 42
-0.4257917699693538
  0
VERTEX
  5
25D7
  8
SAPA_FOGBAND
 10
25.197542917699799
 20
-45.50000000000118
 30
0.0
  0
VERTEX
  5
25D8
  8
SAPA_FOGBAND
 10
11.492009258475919
 20
-45.50000000000118
 30
0.0
  0
VERTEX
  5
25D9
  8
SAPA_FOGBAND
 10
5.8888676607490442
 20
-44.723465082318562
 30
0.0
 42
-0.322530093016903
  0
VERTEX
  5
25DA
  8
SAPA_FOGBAND
 10
5.1975429176997761
 20
-43.72938777721258
 30
0.0
  0
VERTEX
  5
25DB
  8
SAPA_FOGBAND
 10
5.1975429176997761
 20
-42.498644220775013
 30
0.0
 42
-0.2325311832130604
  0
VERTEX
  5
25DC
  8
SAPA_FOGBAND
 10
5.3922056743929954
 20
-42.102703356693198
 30
0.0
  0
VERTEX
  5
25DD
  8
SAPA_FOGBAND
 10
14.5587689023005
 20
-35.708118271837677
 30
0.0
 42
-0.1657205760184606
  0
VERTEX
  5
25DE
  8
SAPA_FOGBAND
 10
15.16944338891412
 20
-35.50000000000113
 30
0.0
  0
VERTEX
  5
25DF
  8
SAPA_FOGBAND
 10
18.197542939648908
 20
-35.50000000000113
 30
0.0
 42
0.4142135623730951
  0
VERTEX
  5
25E0
  8
SAPA_FOGBAND
 10
18.697542939648908
 20
-35.00000000000113
 30
0.0
  0
SEQEND
  5
25E1
  8
SAPA_FOGBAND
  0
CIRCLE
  5
147C
  8
SAPA_FOGBAND
 10
-18.629356795614282
 20
-93.028466855359909
 30
0.0
 40
0.2549509756796394
  0
POLYLINE
  5
147D
  8
SAPA_FOGBAND
 66
     1
 10
0.0
 20
0.0
 30
0.0
 70
     1
  0
VERTEX
  5
25E2
  8
SAPA_FOGBAND
 10
-17.729356795614191
 20
-95.599999999010777
 30
0.0
 42
0.9999999999999998
  0
VERTEX
  5
25E3
  8
SAPA_FOGBAND
 10
-19.529356795614149
 20
-95.599999999010777
 30
0.0
  0
VERTEX
  5
25E4
  8
SAPA_FOGBAND
 10
-19.529356795614149
 20
-96.199999999010814
 30
0.0
 42
0.9999999999999998
  0
VERTEX
  5
25E5
  8
SAPA_FOGBAND
 10
-17.729356795614191
 20
-96.199999999010814
 30
0.0
  0
SEQEND
  5
25E6
  8
SAPA_FOGBAND
  0
POLYLINE
  5
147E
  8
SAPA_FOGBAND
 66
     1
 10
0.0
 20
0.0
 30
0.0
 70
     1
  0
VERTEX
  5
25E7
  8
SAPA_FOGBAND
 10
-14.37935679561428
 20
-92.164228703859578
 30
0.0
  0
VERTEX
  5
25E8
  8
SAPA_FOGBAND
 10
-14.379356795614051
 20
-94.299999999010694
 30
0.0
 42
-0.4142135623730951
  0
VERTEX
  5
25E9
  8
SAPA_FOGBAND
 10
-14.5793567956141
 20
-94.499999999010754
 30
0.0
  0
VERTEX
  5
25EA
  8
SAPA_FOGBAND
 10
-16.629356795614282
 20
-94.499999999010754
 30
0.0
 42
0.4142135623730951
  0
VERTEX
  5
25EB
  8
SAPA_FOGBAND
 10
-17.129356795614282
 20
-94.999999999010754
 30
0.0
  0
VERTEX
  5
25EC
  8
SAPA_FOGBAND
 10
-17.129356795614282
 20
-95.726794918253916
 30
0.0
  0
VERTEX
  5
25ED
  8
SAPA_FOGBAND
 10
-16.877592986593751
 20
-95.794254827564316
 30
0.0
 42
-0.4740571810232154
  0
VERTEX
  5
25EE
  8
SAPA_FOGBAND
 10
-16.750299124230189
 20
-96.076537413202985
 30
0.0
  0
VERTEX
  5
25EF
  8
SAPA_FOGBAND
 10
-17.370399626988728
 20
-97.52274354996274
 30
0.0
 42
-0.2846003776496056
  0
VERTEX
  5
25F0
  8
SAPA_FOGBAND
 10
-17.818043805448951
 20
-97.799999999010723
 30
0.0
  0
VERTEX
  5
25F1
  8
SAPA_FOGBAND
 10
-19.440669785779392
 20
-97.799999999010723
 30
0.0
 42
-0.2846003776496054
  0
VERTEX
  5
25F2
  8
SAPA_FOGBAND
 10
-19.888313964239611
 20
-97.52274354996274
 30
0.0
  0
VERTEX
  5
25F3
  8
SAPA_FOGBAND
 10
-20.508414466998151
 20
-96.076537413202985
 30
0.0
 42
-0.4740571810232154
  0
VERTEX
  5
25F4
  8
SAPA_FOGBAND
 10
-20.381120604634589
 20
-95.794254827564316
 30
0.0
  0
VERTEX
  5
25F5
  8
SAPA_FOGBAND
 10
-20.129356795614289
 20
-95.726794918253916
 30
0.0
  0
VERTEX
  5
25F6
  8
SAPA_FOGBAND
 10
-20.129356795614289
 20
-94.999999999010754
 30
0.0
 42
0.4142135623730951
  0
VERTEX
  5
25F7
  8
SAPA_FOGBAND
 10
-20.629356795614282
 20
-94.499999999010754
 30
0.0
  0
VERTEX
  5
25F8
  8
SAPA_FOGBAND
 10
-23.67935679561424
 20
-94.499999999010754
 30
0.0
 42
0.4142135623730951
  0
VERTEX
  5
25F9
  8
SAPA_FOGBAND
 10
-23.879356795614289
 20
-94.699999999010799
 30
0.0
  0
VERTEX
  5
25FA
  8
SAPA_FOGBAND
 10
-23.879356795614061
 20
-95.599999999010777
 30
0.0
 42
-0.4142135623730951
  0
VERTEX
  5
25FB
  8
SAPA_FOGBAND
 10
-24.0793567956141
 20
-95.799999999010709
 30
0.0
  0
VERTEX
  5
25FC
  8
SAPA_FOGBAND
 10
-24.779356795614149
 20
-95.799999999010808
 30
0.0
 42
-0.4142135623730951
  0
VERTEX
  5
25FD
  8
SAPA_FOGBAND
 10
-25.0793567956141
 20
-95.499999999010754
 30
0.0
  0
VERTEX
  5
25FE
  8
SAPA_FOGBAND
 10
-25.0793567956141
 20
-94.689488222359216
 30
0.0
 42
0.1316524975873982
  0
VERTEX
  5
25FF
  8
SAPA_FOGBAND
 10
-25.347305988045271
 20
-93.689488222359216
 30
0.0
  0
VERTEX
  5
2600
  8
SAPA_FOGBAND
 10
-29.318018525147409
 20
-91.054121304015041
 30
0.0
 42
-0.876976462992761
  0
VERTEX
  5
2601
  8
SAPA_FOGBAND
 10
-29.21511293523713
 20
-90.536779967898553
 30
0.0
  0
VERTEX
  5
2602
  8
SAPA_FOGBAND
 10
-23.790451373364931
 20
-91.090624764442794
 30
0.0
 42
0.1353185728426623
  0
VERTEX
  5
2603
  8
SAPA_FOGBAND
 10
-23.790451373364931
 20
-91.090624764442794
 30
0.0
  0
VERTEX
  5
2604
  8
SAPA_FOGBAND
 10
-23.552561880536128
 20
-90.678588072042601
 30
0.0
 42
-0.5773502691896196
  0
VERTEX
  5
2605
  8
SAPA_FOGBAND
 10
-23.206151719022269
 20
-90.678588072042601
 30
0.0
  0
VERTEX
  5
2606
  8
SAPA_FOGBAND
 10
-22.96810410229136
 20
-91.090898634604443
 30
0.0
  0
VERTEX
  5
2607
  8
SAPA_FOGBAND
 10
-22.19060949237473
 20
-91.090898634604443
 30
0.0
  0
VERTEX
  5
2608
  8
SAPA_FOGBAND
 10
-21.952561880535988
 20
-90.678588072042601
 30
0.0
 42
-0.5773502691896196
  0
VERTEX
  5
2609
  8
SAPA_FOGBAND
 10
-21.60615171902236
 20
-90.678588072042601
 30
0.0
  0
VERTEX
  5
260A
  8
SAPA_FOGBAND
 10
-21.368104102291451
 20
-91.090898634604443
 30
0.0
  0
VERTEX
  5
260B
  8
SAPA_FOGBAND
 10
-20.590609492374821
 20
-91.090898634604443
 30
0.0
  0
VERTEX
  5
260C
  8
SAPA_FOGBAND
 10
-20.35256188053609
 20
-90.678588072042601
 30
0.0
 42
-0.5773502691896196
  0
VERTEX
  5
260D
  8
SAPA_FOGBAND
 10
-20.006151719022231
 20
-90.678588072042601
 30
0.0
  0
VERTEX
  5
260E
  8
SAPA_FOGBAND
 10
-19.768104102291542
 20
-91.090898634604443
 30
0.0
  0
VERTEX
  5
260F
  8
SAPA_FOGBAND
 10
-18.990609492374691
 20
-91.090898634604443
 30
0.0
  0
VERTEX
  5
2610
  8
SAPA_FOGBAND
 10
-18.752561880536181
 20
-90.678588072042601
 30
0.0
 42
-0.5773502691896196
  0
VERTEX
  5
2611
  8
SAPA_FOGBAND
 10
-18.406151719022319
 20
-90.678588072042601
 30
0.0
  0
VERTEX
  5
2612
  8
SAPA_FOGBAND
 10
-18.168104102291409
 20
-91.090898634604443
 30
0.0
  0
VERTEX
  5
2613
  8
SAPA_FOGBAND
 10
-17.390609492374779
 20
-91.090898634604443
 30
0.0
  0
VERTEX
  5
2614
  8
SAPA_FOGBAND
 10
-17.152561880536041
 20
-90.678588072042601
 30
0.0
 42
-0.5773502691896196
  0
VERTEX
  5
2615
  8
SAPA_FOGBAND
 10
-16.806151719022179
 20
-90.678588072042601
 30
0.0
  0
VERTEX
  5
2616
  8
SAPA_FOGBAND
 10
-16.5681041022915
 20
-91.090898634604443
 30
0.0
  0
VERTEX
  5
2617
  8
SAPA_FOGBAND
 10
-15.79060948820984
 20
-91.090898634604443
 30
0.0
  0
VERTEX
  5
2618
  8
SAPA_FOGBAND
 10
-15.552561876371101
 20
-90.678588072042601
 30
0.0
 42
-0.5773502691896196
  0
VERTEX
  5
2619
  8
SAPA_FOGBAND
 10
-15.20615171485724
 20
-90.678588072042601
 30
0.0
  0
VERTEX
  5
261A
  8
SAPA_FOGBAND
 10
-14.406151715302251
 20
-92.064228703088872
 30
0.0
 42
-0.1316524987190407
  0
SEQEND
  5
261B
  8
SAPA_FOGBAND
  0
INSERT
  5
147F
  8
SAPA_FOGBAND
  6
CONTINUOUS
  2
*U94
 10
0.0
 20
0.0
 30
0.0
1001
ACAD
1002
{
1000
R14_HATCH_DATA
1000
147F
1011
1.0
1021
0.0
1031
0.0
1021
0.0
1031
0.0
1011
0.0
1021
0.0
1031
0.0
1021
1.0
1031
0.0
1011
0.0
1021
0.0
1031
0.0
1021
0.0
1031
1.0
1040
0.0
1010
0.0
1020
0.0
1030
1.0
1000
SOLID
1070
     1
1070
     1
1071
        1
1071
        1
1071
        1
1070
     2
1040
-18.629356795614282
1040
-93.028466855359909
1040
0.2549509756796394
1040
0.0
1040
6.2831853071795862
1070
     1
1071
        1
1005
147C
1070
     0
1070
     1
1071
        1
1040
-18.866095697184392
1040
-92.946615358031011
1040
0.0
1002
}
  0
POLYLINE
  5
1480
  8
SAPA_FOGBAND
 66
     1
 10
0.0
 20
0.0
 30
0.0
 70
     1
  0
VERTEX
  5
262D
  8
SAPA_FOGBAND
 10
-21.953090993536541
 20
-33.991114672817389
 30
0.0
 42
-0.4740571810231764
  0
VERTEX
  5
262E
  8
SAPA_FOGBAND
 10
-22.080384855899869
 20
-33.708832087178848
 30
0.0
  0
VERTEX
  5
262F
  8
SAPA_FOGBAND
 10
-21.46028435314156
 20
-32.262625950418737
 30
0.0
 42
-0.2846003776496257
  0
VERTEX
  5
2630
  8
SAPA_FOGBAND
 10
-21.012640174681341
 20
-31.985369501370879
 30
0.0
  0
VERTEX
  5
2631
  8
SAPA_FOGBAND
 10
-19.39001419435067
 20
-31.985369501370879
 30
0.0
 42
-0.2846003776496159
  0
VERTEX
  5
2632
  8
SAPA_FOGBAND
 10
-18.94237001589045
 20
-32.262625950418972
 30
0.0
  0
VERTEX
  5
2633
  8
SAPA_FOGBAND
 10
-18.322269513132142
 20
-33.708832087178848
 30
0.0
 42
-0.4740571810232354
  0
VERTEX
  5
2634
  8
SAPA_FOGBAND
 10
-18.449563375495469
 20
-33.991114672817389
 30
0.0
  0
VERTEX
  5
2635
  8
SAPA_FOGBAND
 10
-18.701327184515769
 20
-34.05857458212779
 30
0.0
  0
VERTEX
  5
2636
  8
SAPA_FOGBAND
 10
-18.701327184515769
 20
-34.999999999009901
 30
0.0
 42
0.4142135623730951
  0
VERTEX
  5
2637
  8
SAPA_FOGBAND
 10
-18.201327184515769
 20
-35.499999999009901
 30
0.0
  0
VERTEX
  5
2638
  8
SAPA_FOGBAND
 10
-15.173227633781149
 20
-35.499999999009667
 30
0.0
 42
-0.1657205760184635
  0
VERTEX
  5
2639
  8
SAPA_FOGBAND
 10
-14.56255314716782
 20
-35.708118270846292
 30
0.0
  0
VERTEX
  5
263A
  8
SAPA_FOGBAND
 10
-5.194662756690831
 20
-41.102703355702147
 30
0.0
 42
-0.2325311832130358
  0
VERTEX
  5
263B
  8
SAPA_FOGBAND
 10
-4.9999999999972706
 20
-41.498644219784062
 30
0.0
  0
VERTEX
  5
263C
  8
SAPA_FOGBAND
 10
-4.9999999999977263
 20
-46.729387776221643
 30
0.0
 42
-0.3826682380870913
  0
VERTEX
  5
263D
  8
SAPA_FOGBAND
 10
-5.89132474304688
 20
-47.72346508132739
 30
0.0
  0
VERTEX
  5
263E
  8
SAPA_FOGBAND
 10
-11.495793503343521
 20
-48.499999999010129
 30
0.0
  0
VERTEX
  5
263F
  8
SAPA_FOGBAND
 10
-25.20132716256694
 20
-48.499999999010129
 30
0.0
 42
-0.4257917699693507
  0
VERTEX
  5
2640
  8
SAPA_FOGBAND
 10
-25.501094716164751
 20
-48.18819263647935
 30
0.0
  0
VERTEX
  5
2641
  8
SAPA_FOGBAND
 10
-25.013254901495429
 20
-35.788192636478811
 30
0.0
 42
-0.4027293761437475
  0
VERTEX
  5
2642
  8
SAPA_FOGBAND
 10
-24.71348734789763
 20
-35.499999999009667
 30
0.0
  0
VERTEX
  5
2643
  8
SAPA_FOGBAND
 10
-22.20132718451578
 20
-35.499999999009901
 30
0.0
 42
0.4142135623730951
  0
VERTEX
  5
2644
  8
SAPA_FOGBAND
 10
-21.701327184515769
 20
-34.999999999009901
 30
0.0
  0
VERTEX
  5
2645
  8
SAPA_FOGBAND
 10
-21.701327184515769
 20
-34.05857458212779
 30
0.0
  0
SEQEND
  5
2646
  8
SAPA_FOGBAND
  0
POLYLINE
  5
1481
  8
SAPA_FOGBAND
 66
     1
 10
0.0
 20
0.0
 30
0.0
 70
     1
  0
VERTEX
  5
2647
  8
SAPA_FOGBAND
 10
-19.301327184515909
 20
-33.585369501371019
 30
0.0
  0
VERTEX
  5
2648
  8
SAPA_FOGBAND
 10
-19.30132718451614
 20
-34.185369501370928
 30
0.0
 42
-0.9999999999999998
  0
VERTEX
  5
2649
  8
SAPA_FOGBAND
 10
-21.101327184516091
 20
-34.185369501370928
 30
0.0
  0
VERTEX
  5
264A
  8
SAPA_FOGBAND
 10
-21.101327184516091
 20
-33.585369501371019
 30
0.0
 42
-0.9999999999999998
  0
SEQEND
  5
264B
  8
SAPA_FOGBAND
  0
POLYLINE
  5
1482
  8
SAPA_FOGBAND
 66
     1
 10
0.0
 20
0.0
 30
0.0
 70
     1
  0
VERTEX
  5
264C
  8
SAPA_FOGBAND
 10
-8.8913247649957157
 20
-46.953324864972608
 30
0.0
  0
VERTEX
  5
264D
  8
SAPA_FOGBAND
 10
-11.89265192756511
 20
-47.445277204862691
 30
0.0
 42
-0.4464785874932524
  0
VERTEX
  5
264E
  8
SAPA_FOGBAND
 10
-13.00132718451596
 20
-46.451199899756709
 30
0.0
  0
VERTEX
  5
264F
  8
SAPA_FOGBAND
 10
-13.00132718451596
 20
-39.850147745599664
 30
0.0
 42
-0.622676997742357
  0
VERTEX
  5
2650
  8
SAPA_FOGBAND
 10
-11.390652697902169
 20
-39.058266017436267
 30
0.0
  0
VERTEX
  5
2651
  8
SAPA_FOGBAND
 10
-8.3893255353327731
 20
-41.533301339953248
 30
0.0
 42
-0.232531183213058
  0
VERTEX
  5
2652
  8
SAPA_FOGBAND
 10
-8.0000000219465601
 20
-42.325183068116857
 30
0.0
  0
VERTEX
  5
2653
  8
SAPA_FOGBAND
 10
-8.0000000219465601
 20
-45.95924755986686
 30
0.0
 42
-0.3826682380870913
  0
SEQEND
  5
2654
  8
SAPA_FOGBAND
  0
POLYLINE
  5
1483
  8
SAPA_FOGBAND
 10
-22.264574318352981
 20
-42.113213331626852
 30
0.0
 66
     1
 70
     8
  0
VERTEX
  8
SAPA_FOGBAND
  5
26FC
 10
-22.2646
 20
-42.1132
 30
0.000000
  70
    32
  0
VERTEX
  8
SAPA_FOGBAND
  5
26FD
 10
-22.2594
 20
-42.2294
 30
0.000000
  70
    32
  0
VERTEX
  8
SAPA_FOGBAND
  5
26FE
 10
-22.2464
 20
-42.3452
 30
0.000000
  70
    32
  0
VERTEX
  8
SAPA_FOGBAND
  5
26FF
 10
-22.2254
 20
-42.4604
 30
0.000000
  70
    32
  0
VERTEX
  8
SAPA_FOGBAND
  5
2700
 10
-22.1966
 20
-42.5746
 30
0.000000
  70
    32
  0
VERTEX
  8
SAPA_FOGBAND
  5
2701
 10
-22.1600
 20
-42.6877
 30
0.000000
  70
    32
  0
VERTEX
  8
SAPA_FOGBAND
  5
2702
 10
-22.1157
 20
-42.7993
 30
0.000000
  70
    32
  0
VERTEX
  8
SAPA_FOGBAND
  5
2703
 10
-22.0638
 20
-42.9092
 30
0.000000
  70
    32
  0
VERTEX
  8
SAPA_FOGBAND
  5
2704
 10
-22.0045
 20
-43.0170
 30
0.000000
  70
    32
  0
VERTEX
  8
SAPA_FOGBAND
  5
2705
 10
-21.9378
 20
-43.1226
 30
0.000000
  70
    32
  0
VERTEX
  8
SAPA_FOGBAND
  5
2706
 10
-21.8640
 20
-43.2258
 30
0.000000
  70
    32
  0
VERTEX
  8
SAPA_FOGBAND
  5
2707
 10
-21.7832
 20
-43.3261
 30
0.000000
  70
    32
  0
VERTEX
  8
SAPA_FOGBAND
  5
2708
 10
-21.6956
 20
-43.4234
 30
0.000000
  70
    32
  0
VERTEX
  8
SAPA_FOGBAND
  5
2709
 10
-21.6015
 20
-43.5176
 30
0.000000
  70
    32
  0
VERTEX
  8
SAPA_FOGBAND
  5
270A
 10
-21.5009
 20
-43.6082
 30
0.000000
  70
    32
  0
VERTEX
  8
SAPA_FOGBAND
  5
270B
 10
-21.3943
 20
-43.6952
 30
0.000000
  70
    32
  0
VERTEX
  8
SAPA_FOGBAND
  5
270C
 10
-21.2819
 20
-43.7783
 30
0.000000
  70
    32
  0
VERTEX
  8
SAPA_FOGBAND
  5
270D
 10
-21.1638
 20
-43.8572
 30
0.000000
  70
    32
  0
VERTEX
  8
SAPA_FOGBAND
  5
270E
 10
-21.0405
 20
-43.9319
 30
0.000000
  70
    32
  0
VERTEX
  8
SAPA_FOGBAND
  5
270F
 10
-20.9121
 20
-44.0022
 30
0.000000
  70
    32
  0
VERTEX
  8
SAPA_FOGBAND
  5
2710
 10
-20.7791
 20
-44.0678
 30
0.000000
  70
    32
  0
VERTEX
  8
SAPA_FOGBAND
  5
2711
 10
-20.6417
 20
-44.1286
 30
0.000000
  70
    32
  0
VERTEX
  8
SAPA_FOGBAND
  5
2712
 10
-20.5003
 20
-44.1845
 30
0.000000
  70
    32
  0
VERTEX
  8
SAPA_FOGBAND
  5
2713
 10
-20.3552
 20
-44.2354
 30
0.000000
  70
    32
  0
VERTEX
  8
SAPA_FOGBAND
  5
2714
 10
-20.2067
 20
-44.2810
 30
0.000000
  70
    32
  0
VERTEX
  8
SAPA_FOGBAND
  5
2715
 10
-20.0553
 20
-44.3213
 30
0.000000
  70
    32
  0
VERTEX
  8
SAPA_FOGBAND
  5
2716
 10
-19.9012
 20
-44.3563
 30
0.000000
  70
    32
  0
VERTEX
  8
SAPA_FOGBAND
  5
2717
 10
-19.7449
 20
-44.3857
 30
0.000000
  70
    32
  0
VERTEX
  8
SAPA_FOGBAND
  5
2718
 10
-19.5866
 20
-44.4096
 30
0.000000
  70
    32
  0
VERTEX
  8
SAPA_FOGBAND
  5
2719
 10
-19.4269
 20
-44.4279
 30
0.000000
  70
    32
  0
VERTEX
  8
SAPA_FOGBAND
  5
271A
 10
-19.2661
 20
-44.4405
 30
0.000000
  70
    32
  0
VERTEX
  8
SAPA_FOGBAND
  5
271B
 10
-19.1046
 20
-44.4475
 30
0.000000
  70
    32
  0
VERTEX
  8
SAPA_FOGBAND
  5
271C
 10
-18.9427
 20
-44.4487
 30
0.000000
  70
    32
  0
VERTEX
  8
SAPA_FOGBAND
  5
271D
 10
-18.7809
 20
-44.4442
 30
0.000000
  70
    32
  0
VERTEX
  8
SAPA_FOGBAND
  5
271E
 10
-18.6196
 20
-44.4341
 30
0.000000
  70
    32
  0
VERTEX
  8
SAPA_FOGBAND
  5
271F
 10
-18.4590
 20
-44.4183
 30
0.000000
  70
    32
  0
VERTEX
  8
SAPA_FOGBAND
  5
2720
 10
-18.2997
 20
-44.3968
 30
0.000000
  70
    32
  0
VERTEX
  8
SAPA_FOGBAND
  5
2721
 10
-18.1420
 20
-44.3698
 30
0.000000
  70
    32
  0
VERTEX
  8
SAPA_FOGBAND
  5
2722
 10
-17.9863
 20
-44.3372
 30
0.000000
  70
    32
  0
VERTEX
  8
SAPA_FOGBAND
  5
2723
 10
-17.8330
 20
-44.2992
 30
0.000000
  70
    32
  0
VERTEX
  8
SAPA_FOGBAND
  5
2724
 10
-17.6823
 20
-44.2559
 30
0.000000
  70
    32
  0
VERTEX
  8
SAPA_FOGBAND
  5
2725
 10
-17.5348
 20
-44.2073
 30
0.000000
  70
    32
  0
VERTEX
  8
SAPA_FOGBAND
  5
2726
 10
-17.3907
 20
-44.1536
 30
0.000000
  70
    32
  0
VERTEX
  8
SAPA_FOGBAND
  5
2727
 10
-17.2504
 20
-44.0949
 30
0.000000
  70
    32
  0
VERTEX
  8
SAPA_FOGBAND
  5
2728
 10
-17.1143
 20
-44.0313
 30
0.000000
  70
    32
  0
VERTEX
  8
SAPA_FOGBAND
  5
2729
 10
-16.9826
 20
-43.9631
 30
0.000000
  70
    32
  0
VERTEX
  8
SAPA_FOGBAND
  5
272A
 10
-16.8557
 20
-43.8903
 30
0.000000
  70
    32
  0
VERTEX
  8
SAPA_FOGBAND
  5
272B
 10
-16.7339
 20
-43.8131
 30
0.000000
  70
    32
  0
VERTEX
  8
SAPA_FOGBAND
  5
272C
 10
-16.6174
 20
-43.7318
 30
0.000000
  70
    32
  0
VERTEX
  8
SAPA_FOGBAND
  5
272D
 10
-16.5066
 20
-43.6465
 30
0.000000
  70
    32
  0
VERTEX
  8
SAPA_FOGBAND
  5
272E
 10
-16.4018
 20
-43.5575
 30
0.000000
  70
    32
  0
VERTEX
  8
SAPA_FOGBAND
  5
272F
 10
-16.3031
 20
-43.4648
 30
0.000000
  70
    32
  0
VERTEX
  8
SAPA_FOGBAND
  5
2730
 10
-16.2108
 20
-43.3689
 30
0.000000
  70
    32
  0
VERTEX
  8
SAPA_FOGBAND
  5
2731
 10
-16.1252
 20
-43.2698
 30
0.000000
  70
    32
  0
VERTEX
  8
SAPA_FOGBAND
  5
2732
 10
-16.0464
 20
-43.1679
 30
0.000000
  70
    32
  0
VERTEX
  8
SAPA_FOGBAND
  5
2733
 10
-15.9746
 20
-43.0633
 30
0.000000
  70
    32
  0
VERTEX
  8
SAPA_FOGBAND
  5
2734
 10
-15.9101
 20
-42.9564
 30
0.000000
  70
    32
  0
VERTEX
  8
SAPA_FOGBAND
  5
2735
 10
-15.8529
 20
-42.8473
 30
0.000000
  70
    32
  0
VERTEX
  8
SAPA_FOGBAND
  5
2736
 10
-15.8032
 20
-42.7365
 30
0.000000
  70
    32
  0
VERTEX
  8
SAPA_FOGBAND
  5
2737
 10
-15.7612
 20
-42.6240
 30
0.000000
  70
    32
  0
VERTEX
  8
SAPA_FOGBAND
  5
2738
 10
-15.7268
 20
-42.5102
 30
0.000000
  70
    32
  0
VERTEX
  8
SAPA_FOGBAND
  5
2739
 10
-15.7003
 20
-42.3954
 30
0.000000
  70
    32
  0
VERTEX
  8
SAPA_FOGBAND
  5
273A
 10
-15.6816
 20
-42.2799
 30
0.000000
  70
    32
  0
VERTEX
  8
SAPA_FOGBAND
  5
273B
 10
-15.6709
 20
-42.1638
 30
0.000000
  70
    32
  0
VERTEX
  8
SAPA_FOGBAND
  5
273C
 10
-15.6680
 20
-42.0476
 30
0.000000
  70
    32
  0
VERTEX
  8
SAPA_FOGBAND
  5
273D
 10
-15.6732
 20
-41.9314
 30
0.000000
  70
    32
  0
VERTEX
  8
SAPA_FOGBAND
  5
273E
 10
-15.6862
 20
-41.8156
 30
0.000000
  70
    32
  0
VERTEX
  8
SAPA_FOGBAND
  5
273F
 10
-15.7072
 20
-41.7004
 30
0.000000
  70
    32
  0
VERTEX
  8
SAPA_FOGBAND
  5
2740
 10
-15.7360
 20
-41.5861
 30
0.000000
  70
    32
  0
VERTEX
  8
SAPA_FOGBAND
  5
2741
 10
-15.7726
 20
-41.4731
 30
0.000000
  70
    32
  0
VERTEX
  8
SAPA_FOGBAND
  5
2742
 10
-15.8169
 20
-41.3615
 30
0.000000
  70
    32
  0
VERTEX
  8
SAPA_FOGBAND
  5
2743
 10
-15.8688
 20
-41.2516
 30
0.000000
  70
    32
  0
VERTEX
  8
SAPA_FOGBAND
  5
2744
 10
-15.9281
 20
-41.1437
 30
0.000000
  70
    32
  0
VERTEX
  8
SAPA_FOGBAND
  5
2745
 10
-15.9948
 20
-41.0381
 30
0.000000
  70
    32
  0
VERTEX
  8
SAPA_FOGBAND
  5
2746
 10
-16.0686
 20
-40.9350
 30
0.000000
  70
    32
  0
VERTEX
  8
SAPA_FOGBAND
  5
2747
 10
-16.1494
 20
-40.8347
 30
0.000000
  70
    32
  0
VERTEX
  8
SAPA_FOGBAND
  5
2748
 10
-16.2370
 20
-40.7373
 30
0.000000
  70
    32
  0
VERTEX
  8
SAPA_FOGBAND
  5
2749
 10
-16.3312
 20
-40.6432
 30
0.000000
  70
    32
  0
VERTEX
  8
SAPA_FOGBAND
  5
274A
 10
-16.4317
 20
-40.5526
 30
0.000000
  70
    32
  0
VERTEX
  8
SAPA_FOGBAND
  5
274B
 10
-16.5383
 20
-40.4656
 30
0.000000
  70
    32
  0
VERTEX
  8
SAPA_FOGBAND
  5
274C
 10
-16.6507
 20
-40.3825
 30
0.000000
  70
    32
  0
VERTEX
  8
SAPA_FOGBAND
  5
274D
 10
-16.7688
 20
-40.3035
 30
0.000000
  70
    32
  0
VERTEX
  8
SAPA_FOGBAND
  5
274E
 10
-16.8921
 20
-40.2288
 30
0.000000
  70
    32
  0
VERTEX
  8
SAPA_FOGBAND
  5
274F
 10
-17.0205
 20
-40.1586
 30
0.000000
  70
    32
  0
VERTEX
  8
SAPA_FOGBAND
  5
2750
 10
-17.1535
 20
-40.0930
 30
0.000000
  70
    32
  0
VERTEX
  8
SAPA_FOGBAND
  5
2751
 10
-17.2909
 20
-40.0321
 30
0.000000
  70
    32
  0
VERTEX
  8
SAPA_FOGBAND
  5
2752
 10
-17.4323
 20
-39.9762
 30
0.000000
  70
    32
  0
VERTEX
  8
SAPA_FOGBAND
  5
2753
 10
-17.5774
 20
-39.9254
 30
0.000000
  70
    32
  0
VERTEX
  8
SAPA_FOGBAND
  5
2754
 10
-17.7259
 20
-39.8798
 30
0.000000
  70
    32
  0
VERTEX
  8
SAPA_FOGBAND
  5
2755
 10
-17.8773
 20
-39.8394
 30
0.000000
  70
    32
  0
VERTEX
  8
SAPA_FOGBAND
  5
2756
 10
-18.0314
 20
-39.8045
 30
0.000000
  70
    32
  0
VERTEX
  8
SAPA_FOGBAND
  5
2757
 10
-18.1878
 20
-39.7751
 30
0.000000
  70
    32
  0
VERTEX
  8
SAPA_FOGBAND
  5
2758
 10
-18.3460
 20
-39.7512
 30
0.000000
  70
    32
  0
VERTEX
  8
SAPA_FOGBAND
  5
2759
 10
-18.5057
 20
-39.7329
 30
0.000000
  70
    32
  0
VERTEX
  8
SAPA_FOGBAND
  5
275A
 10
-18.6665
 20
-39.7202
 30
0.000000
  70
    32
  0
VERTEX
  8
SAPA_FOGBAND
  5
275B
 10
-18.8280
 20
-39.7133
 30
0.000000
  70
    32
  0
VERTEX
  8
SAPA_FOGBAND
  5
275C
 10
-18.9899
 20
-39.7121
 30
0.000000
  70
    32
  0
VERTEX
  8
SAPA_FOGBAND
  5
275D
 10
-19.1517
 20
-39.7165
 30
0.000000
  70
    32
  0
VERTEX
  8
SAPA_FOGBAND
  5
275E
 10
-19.3131
 20
-39.7267
 30
0.000000
  70
    32
  0
VERTEX
  8
SAPA_FOGBAND
  5
275F
 10
-19.4736
 20
-39.7425
 30
0.000000
  70
    32
  0
VERTEX
  8
SAPA_FOGBAND
  5
2760
 10
-19.6329
 20
-39.7640
 30
0.000000
  70
    32
  0
VERTEX
  8
SAPA_FOGBAND
  5
2761
 10
-19.7906
 20
-39.7910
 30
0.000000
  70
    32
  0
VERTEX
  8
SAPA_FOGBAND
  5
2762
 10
-19.9463
 20
-39.8236
 30
0.000000
  70
    32
  0
VERTEX
  8
SAPA_FOGBAND
  5
2763
 10
-20.0997
 20
-39.8616
 30
0.000000
  70
    32
  0
VERTEX
  8
SAPA_FOGBAND
  5
2764
 10
-20.2503
 20
-39.9049
 30
0.000000
  70
    32
  0
VERTEX
  8
SAPA_FOGBAND
  5
2765
 10
-20.3978
 20
-39.9535
 30
0.000000
  70
    32
  0
VERTEX
  8
SAPA_FOGBAND
  5
2766
 10
-20.5419
 20
-40.0072
 30
0.000000
  70
    32
  0
VERTEX
  8
SAPA_FOGBAND
  5
2767
 10
-20.6822
 20
-40.0659
 30
0.000000
  70
    32
  0
VERTEX
  8
SAPA_FOGBAND
  5
2768
 10
-20.8183
 20
-40.1294
 30
0.000000
  70
    32
  0
VERTEX
  8
SAPA_FOGBAND
  5
2769
 10
-20.9500
 20
-40.1977
 30
0.000000
  70
    32
  0
VERTEX
  8
SAPA_FOGBAND
  5
276A
 10
-21.0769
 20
-40.2705
 30
0.000000
  70
    32
  0
VERTEX
  8
SAPA_FOGBAND
  5
276B
 10
-21.1988
 20
-40.3476
 30
0.000000
  70
    32
  0
VERTEX
  8
SAPA_FOGBAND
  5
276C
 10
-21.3152
 20
-40.4289
 30
0.000000
  70
    32
  0
VERTEX
  8
SAPA_FOGBAND
  5
276D
 10
-21.4260
 20
-40.5142
 30
0.000000
  70
    32
  0
VERTEX
  8
SAPA_FOGBAND
  5
276E
 10
-21.5309
 20
-40.6033
 30
0.000000
  70
    32
  0
VERTEX
  8
SAPA_FOGBAND
  5
276F
 10
-21.6295
 20
-40.6959
 30
0.000000
  70
    32
  0
VERTEX
  8
SAPA_FOGBAND
  5
2770
 10
-21.7218
 20
-40.7919
 30
0.000000
  70
    32
  0
VERTEX
  8
SAPA_FOGBAND
  5
2771
 10
-21.8074
 20
-40.8910
 30
0.000000
  70
    32
  0
VERTEX
  8
SAPA_FOGBAND
  5
2772
 10
-21.8862
 20
-40.9929
 30
0.000000
  70
    32
  0
VERTEX
  8
SAPA_FOGBAND
  5
2773
 10
-21.9580
 20
-41.0975
 30
0.000000
  70
    32
  0
VERTEX
  8
SAPA_FOGBAND
  5
2774
 10
-22.0225
 20
-41.2044
 30
0.000000
  70
    32
  0
VERTEX
  8
SAPA_FOGBAND
  5
2775
 10
-22.0797
 20
-41.3134
 30
0.000000
  70
    32
  0
VERTEX
  8
SAPA_FOGBAND
  5
2776
 10
-22.1294
 20
-41.4243
 30
0.000000
  70
    32
  0
VERTEX
  8
SAPA_FOGBAND
  5
2777
 10
-22.1715
 20
-41.5368
 30
0.000000
  70
    32
  0
VERTEX
  8
SAPA_FOGBAND
  5
2778
 10
-22.2058
 20
-41.6505
 30
0.000000
  70
    32
  0
VERTEX
  8
SAPA_FOGBAND
  5
2779
 10
-22.2323
 20
-41.7654
 30
0.000000
  70
    32
  0
VERTEX
  8
SAPA_FOGBAND
  5
277A
 10
-22.2510
 20
-41.8809
 30
0.000000
  70
    32
  0
VERTEX
  8
SAPA_FOGBAND
  5
277B
 10
-22.2618
 20
-41.9970
 30
0.000000
  70
    32
  0
VERTEX
  8
SAPA_FOGBAND
  5
277C
 10
-22.2646
 20
-42.1132
 30
0.000000
  70
    32
  0
SEQEND
  8
SAPA_FOGBAND
  5
277D
  0
POLYLINE
  5
1484
  8
SAPA_FOGBAND
 66
     1
 10
0.0
 20
0.0
 30
0.0
  0
VERTEX
  5
2655
  8
SAPA_FOGBAND
 10
-23.801327184515689
 20
-35.499999999009667
 30
0.0
  0
VERTEX
  5
2656
  8
SAPA_FOGBAND
 10
-23.80132718451614
 20
-35.799999999009628
 30
0.0
 42
0.4142135623730951
  0
VERTEX
  5
2657
  8
SAPA_FOGBAND
 10
-23.30132718451614
 20
-36.299999999009628
 30
0.0
  0
VERTEX
  5
2658
  8
SAPA_FOGBAND
 10
-16.001327184515961
 20
-36.299999999009628
 30
0.0
 42
0.4142135623730951
  0
VERTEX
  5
2659
  8
SAPA_FOGBAND
 10
-15.50132718451596
 20
-35.799999999009628
 30
0.0
  0
VERTEX
  5
265A
  8
SAPA_FOGBAND
 10
-15.50132718451596
 20
-35.499999999009667
 30
0.0
  0
SEQEND
  5
265B
  8
SAPA_FOGBAND
  0
POLYLINE
  5
1485
  8
SAPA_FOGBAND
 66
     1
 10
0.0
 20
0.0
 30
0.0
 70
     1
  0
VERTEX
  5
265C
  8
SAPA_FOGBAND
 10
28.499999999851411
 20
-4.9392260560683781
 30
0.0
  0
VERTEX
  5
265D
  8
SAPA_FOGBAND
 10
28.499999999851411
 20
-7.772545020488109
 30
0.0
 42
-0.577350269189628
  0
VERTEX
  5
265E
  8
SAPA_FOGBAND
 10
28.049999999851369
 20
-8.0323526416235609
 30
0.0
  0
VERTEX
  5
265F
  8
SAPA_FOGBAND
 10
25.510201086617709
 20
-6.3333872998713332
 30
0.0
 42
0.8769764629927237
  0
VERTEX
  5
2660
  8
SAPA_FOGBAND
 10
25.1480690522618
 20
-6.8053269553626023
 30
0.0
  0
VERTEX
  5
2661
  8
SAPA_FOGBAND
 10
28.207106781037851
 20
-10.33239159560787
 30
0.0
 42
-0.1989123673796493
  0
VERTEX
  5
2662
  8
SAPA_FOGBAND
 10
28.499999999851411
 20
-11.03949837679431
 30
0.0
  0
VERTEX
  5
2663
  8
SAPA_FOGBAND
 10
28.499999999851411
 20
-12.955488910142661
 30
0.0
 42
-0.577350269189628
  0
VERTEX
  5
2664
  8
SAPA_FOGBAND
 10
28.049999999851369
 20
-13.215296531277881
 30
0.0
  0
VERTEX
  5
2665
  8
SAPA_FOGBAND
 10
25.5110698397981
 20
-11.83311659328171
 30
0.0
 42
0.8769764629928424
  0
VERTEX
  5
2666
  8
SAPA_FOGBAND
 10
25.148937805442191
 20
-12.30505624877298
 30
0.0
  0
VERTEX
  5
2667
  8
SAPA_FOGBAND
 10
29.282961428351769
 20
-15.90710678315156
 30
0.0
 42
0.1989123673796579
  0
VERTEX
  5
2668
  8
SAPA_FOGBAND
 10
29.990068209538212
 20
-16.200000001964892
 30
0.0
  0
VERTEX
  5
2669
  8
SAPA_FOGBAND
 10
29.999999999851411
 20
-16.200000001964892
 30
0.0
 42
0.4142135623730951
  0
VERTEX
  5
266A
  8
SAPA_FOGBAND
 10
30.999999999851411
 20
-15.20000000196489
 30
0.0
  0
VERTEX
  5
266B
  8
SAPA_FOGBAND
 10
32.16408459897491
 20
-7.965007501197646
 30
0.0
 42
0.6261632875160376
  0
VERTEX
  5
266C
  8
SAPA_FOGBAND
 10
31.72211779554857
 20
-7.6551505726789619
 30
0.0
  0
VERTEX
  5
266D
  8
SAPA_FOGBAND
 10
31.445776149562452
 20
-7.8087885674677864
 30
0.0
 42
-0.5719685712689121
  0
VERTEX
  5
266E
  8
SAPA_FOGBAND
 10
30.999999999851639
 20
-7.5465876632443951
 30
0.0
  0
VERTEX
  5
266F
  8
SAPA_FOGBAND
 10
30.999999999851411
 20
-4.8000000019650306
 30
0.0
 42
-0.4142135623730118
  0
VERTEX
  5
2670
  8
SAPA_FOGBAND
 10
31.299999999851369
 20
-4.5000000019648487
 30
0.0
  0
VERTEX
  5
2671
  8
SAPA_FOGBAND
 10
32.699999999851457
 20
-4.5000000019650761
 30
0.0
 42
0.7754026414785753
  0
VERTEX
  5
2672
  8
SAPA_FOGBAND
 10
32.84470786815735
 20
-3.93720800655717
 30
0.0
  0
VERTEX
  5
2673
  8
SAPA_FOGBAND
 10
25.50110155267669
 20
-0.2263232026260766
 30
0.0
 42
0.8680589103333867
  0
VERTEX
  5
2674
  8
SAPA_FOGBAND
 10
25.144261650014759
 20
-0.7012472323898465
 30
0.0
  0
VERTEX
  5
2675
  8
SAPA_FOGBAND
 10
28.207106781037851
 20
-4.2321192748819376
 30
0.0
 42
-0.1989123673796493
  0
SEQEND
  5
2676
  8
SAPA_FOGBAND
  0
LINE
  5
1486
  8
SAPA_FOGBAND
 10
55.999999957790237
 20
0.5012846324048468
 30
0.0
 11
55.999999957790237
 21
0.5012846324048468
 31
0.0
  0
POLYLINE
  5
1487
  8
SAPA_FOGBAND
 66
     1
 10
0.0
 20
0.0
 30
0.0
 70
   129
  0
VERTEX
  5
2677
  8
SAPA_FOGBAND
 10
109.261602309274
 20
-31.981572811425089
 30
0.0
  0
VERTEX
  5
2678
  8
SAPA_FOGBAND
 10
109.29536730956831
 20
-31.823436706292849
 30
0.0
  0
VERTEX
  5
2679
  8
SAPA_FOGBAND
 10
109.40929304769909
 20
-31.649919873871841
 30
0.0
  0
VERTEX
  5
267A
  8
SAPA_FOGBAND
 10
109.6168935363026
 20
-31.469831982135702
 30
0.0
  0
VERTEX
  5
267B
  8
SAPA_FOGBAND
 10
109.91531394844139
 20
-31.300126755311279
 30
0.0
  0
VERTEX
  5
267C
  8
SAPA_FOGBAND
 10
110.292213609817
 20
-31.154073317337939
 30
0.0
  0
VERTEX
  5
267D
  8
SAPA_FOGBAND
 10
110.7314540120184
 20
-31.040661933157651
 30
0.0
  0
VERTEX
  5
267E
  8
SAPA_FOGBAND
 10
111.21496898892519
 20
-30.96582245500413
 30
0.0
  0
VERTEX
  5
267F
  8
SAPA_FOGBAND
 10
111.7234782719672
 20
-30.933125507535589
 30
0.0
  0
VERTEX
  5
2680
  8
SAPA_FOGBAND
 10
112.2370209473933
 20
-30.94406571728824
 30
0.0
  0
VERTEX
  5
2681
  8
SAPA_FOGBAND
 10
112.7354980922248
 20
-30.998146920575032
 30
0.0
  0
VERTEX
  5
2682
  8
SAPA_FOGBAND
 10
113.19922272385369
 20
-31.09285600162104
 30
0.0
  0
VERTEX
  5
2683
  8
SAPA_FOGBAND
 10
113.609452650329
 20
-31.223497561339592
 30
0.0
  0
VERTEX
  5
2684
  8
SAPA_FOGBAND
 10
113.9489638093344
 20
-31.382736484058121
 30
0.0
  0
VERTEX
  5
2685
  8
SAPA_FOGBAND
 10
114.2031253001857
 20
-31.559601858181441
 30
0.0
  0
VERTEX
  5
2686
  8
SAPA_FOGBAND
 10
114.3632796093944
 20
-31.738507923878579
 30
0.0
  0
VERTEX
  5
2687
  8
SAPA_FOGBAND
 10
114.43460768234431
 20
-31.904015050030949
 30
0.0
  0
VERTEX
  5
2688
  8
SAPA_FOGBAND
 10
114.43460768234431
 20
-32.059130572819448
 30
0.0
  0
VERTEX
  5
2689
  8
SAPA_FOGBAND
 10
114.3632796093943
 20
-32.224637698972039
 30
0.0
  0
VERTEX
  5
268A
  8
SAPA_FOGBAND
 10
114.2031253001857
 20
-32.403543764669152
 30
0.0
  0
VERTEX
  5
268B
  8
SAPA_FOGBAND
 10
113.9489638093344
 20
-32.58040913879244
 30
0.0
  0
VERTEX
  5
268C
  8
SAPA_FOGBAND
 10
113.6094526503291
 20
-32.739648061510742
 30
0.0
  0
VERTEX
  5
268D
  8
SAPA_FOGBAND
 10
113.19922272385359
 20
-32.870289621229112
 30
0.0
  0
VERTEX
  5
268E
  8
SAPA_FOGBAND
 10
112.7354980922248
 20
-32.964998702275551
 30
0.0
  0
VERTEX
  5
268F
  8
SAPA_FOGBAND
 10
112.23702094739321
 20
-33.01907990556213
 30
0.0
  0
VERTEX
  5
2690
  8
SAPA_FOGBAND
 10
111.7234782719671
 20
-33.030020115314997
 30
0.0
  0
VERTEX
  5
2691
  8
SAPA_FOGBAND
 10
111.21496898892519
 20
-32.997323167846467
 30
0.0
  0
VERTEX
  5
2692
  8
SAPA_FOGBAND
 10
110.7314540120185
 20
-32.922483689692953
 30
0.0
  0
VERTEX
  5
2693
  8
SAPA_FOGBAND
 10
110.2922136098172
 20
-32.809072305512252
 30
0.0
  0
VERTEX
  5
2694
  8
SAPA_FOGBAND
 10
109.91531394844139
 20
-32.66301886753886
 30
0.0
  0
VERTEX
  5
2695
  8
SAPA_FOGBAND
 10
109.6168935363026
 20
-32.493313640714412
 30
0.0
  0
VERTEX
  5
2696
  8
SAPA_FOGBAND
 10
109.40929304769909
 20
-32.313225748978482
 30
0.0
  0
VERTEX
  5
2697
  8
SAPA_FOGBAND
 10
109.29536730956831
 20
-32.139708916557538
 30
0.0
  0
SEQEND
  5
2698
  8
SAPA_FOGBAND
  0
POLYLINE
  5
1488
  8
SAPA_FOGBAND
 66
     1
 10
0.0
 20
0.0
 30
0.0
  0
VERTEX
  5
2699
  8
SAPA_FOGBAND
 10
123.5517482503903
 20
-86.163511128413063
 30
0.0
 42
0.285714285714282
  0
VERTEX
  5
269A
  8
SAPA_FOGBAND
 10
120.75174825039009
 20
-86.163511128413063
 30
0.0
  0
VERTEX
  5
269B
  8
SAPA_FOGBAND
 10
118.6779680810025
 20
-86.163511128412637
 30
0.0
 42
-0.3882600129940275
  0
VERTEX
  5
269C
  8
SAPA_FOGBAND
 10
118.3791665836608
 20
-85.890300402133064
 30
0.0
  0
VERTEX
  5
269D
  8
SAPA_FOGBAND
 10
117.9129566597346
 20
-80.990300402132974
 30
0.0
 42
-0.4406523138893894
  0
VERTEX
  5
269E
  8
SAPA_FOGBAND
 10
118.2117581570766
 20
-80.663511128413077
 30
0.0
  0
VERTEX
  5
269F
  8
SAPA_FOGBAND
 10
119.92155015399671
 20
-80.663511128413077
 30
0.0
 42
-0.3394542588634375
  0
VERTEX
  5
26A0
  8
SAPA_FOGBAND
 10
120.21132790188329
 20
-80.885865414882076
 30
0.0
  0
VERTEX
  5
26A1
  8
SAPA_FOGBAND
 10
120.41370762981499
 20
-81.103451197049665
 30
0.0
 42
0.3394542588633663
  0
VERTEX
  5
26A2
  8
SAPA_FOGBAND
 10
120.7034853777015
 20
-81.325805483518664
 30
0.0
  0
VERTEX
  5
26A3
  8
SAPA_FOGBAND
 10
123.6000111230794
 20
-81.325805483518664
 30
0.0
 42
0.3394542588634373
  0
VERTEX
  5
26A4
  8
SAPA_FOGBAND
 10
123.8897888709659
 20
-81.103451197049665
 30
0.0
  0
VERTEX
  5
26A5
  8
SAPA_FOGBAND
 10
124.0921685988971
 20
-80.885865414882076
 30
0.0
 42
-0.3394542588633662
  0
VERTEX
  5
26A6
  8
SAPA_FOGBAND
 10
124.3819463467841
 20
-80.663511128413077
 30
0.0
  0
VERTEX
  5
26A7
  8
SAPA_FOGBAND
 10
126.09173834370419
 20
-80.663511128413077
 30
0.0
 42
-0.4406523138893994
  0
VERTEX
  5
26A8
  8
SAPA_FOGBAND
 10
126.39053984104579
 20
-80.990300402132974
 30
0.0
  0
VERTEX
  5
26A9
  8
SAPA_FOGBAND
 10
125.92432991711961
 20
-85.890300402133064
 30
0.0
 42
-0.3882600129940462
  0
VERTEX
  5
26AA
  8
SAPA_FOGBAND
 10
125.62552841977789
 20
-86.163511128413063
 30
0.0
  0
VERTEX
  5
26AB
  8
SAPA_FOGBAND
 10
123.56334062724061
 20
-86.163511128413063
 30
0.0
  0
SEQEND
  5
26AC
  8
SAPA_FOGBAND
  0
POLYLINE
  5
1489
  8
SAPA_FOGBAND
 66
     1
 10
0.0
 20
0.0
 30
0.0
 70
   129
  0
VERTEX
  5
26AD
  8
SAPA_FOGBAND
 10
116.9862618260466
 20
-30.817244727838879
 30
0.0
  0
VERTEX
  5
26AE
  8
SAPA_FOGBAND
 10
117.0200268263408
 20
-30.659108622706629
 30
0.0
  0
VERTEX
  5
26AF
  8
SAPA_FOGBAND
 10
117.1339525644717
 20
-30.485591790285628
 30
0.0
  0
VERTEX
  5
26B0
  8
SAPA_FOGBAND
 10
117.3415530530752
 20
-30.305503898549489
 30
0.0
  0
VERTEX
  5
26B1
  8
SAPA_FOGBAND
 10
117.639973465214
 20
-30.135798671725059
 30
0.0
  0
VERTEX
  5
26B2
  8
SAPA_FOGBAND
 10
118.0168731265896
 20
-29.989745233751719
 30
0.0
  0
VERTEX
  5
26B3
  8
SAPA_FOGBAND
 10
118.45611352879099
 20
-29.876333849571441
 30
0.0
  0
VERTEX
  5
26B4
  8
SAPA_FOGBAND
 10
118.9396285056977
 20
-29.80149437141791
 30
0.0
  0
VERTEX
  5
26B5
  8
SAPA_FOGBAND
 10
119.4481377887398
 20
-29.768797423949369
 30
0.0
  0
VERTEX
  5
26B6
  8
SAPA_FOGBAND
 10
119.96168046416589
 20
-29.77973763370202
 30
0.0
  0
VERTEX
  5
26B7
  8
SAPA_FOGBAND
 10
120.46015760899741
 20
-29.833818836988819
 30
0.0
  0
VERTEX
  5
26B8
  8
SAPA_FOGBAND
 10
120.9238822406263
 20
-29.92852791803482
 30
0.0
  0
VERTEX
  5
26B9
  8
SAPA_FOGBAND
 10
121.33411216710169
 20
-30.059169477753368
 30
0.0
  0
VERTEX
  5
26BA
  8
SAPA_FOGBAND
 10
121.67362332610701
 20
-30.218408400471908
 30
0.0
  0
VERTEX
  5
26BB
  8
SAPA_FOGBAND
 10
121.92778481695829
 20
-30.395273774595228
 30
0.0
  0
VERTEX
  5
26BC
  8
SAPA_FOGBAND
 10
122.087939126167
 20
-30.574179840292381
 30
0.0
  0
VERTEX
  5
26BD
  8
SAPA_FOGBAND
 10
122.159267199117
 20
-30.739686966444729
 30
0.0
  0
VERTEX
  5
26BE
  8
SAPA_FOGBAND
 10
122.159267199117
 20
-30.89480248923325
 30
0.0
  0
VERTEX
  5
26BF
  8
SAPA_FOGBAND
 10
122.087939126167
 20
-31.060309615385819
 30
0.0
  0
VERTEX
  5
26C0
  8
SAPA_FOGBAND
 10
121.92778481695829
 20
-31.239215681082939
 30
0.0
  0
VERTEX
  5
26C1
  8
SAPA_FOGBAND
 10
121.6736233261071
 20
-31.416081055206231
 30
0.0
  0
VERTEX
  5
26C2
  8
SAPA_FOGBAND
 10
121.33411216710169
 20
-31.575319977924529
 30
0.0
  0
VERTEX
  5
26C3
  8
SAPA_FOGBAND
 10
120.9238822406263
 20
-31.705961537642899
 30
0.0
  0
VERTEX
  5
26C4
  8
SAPA_FOGBAND
 10
120.46015760899741
 20
-31.800670618689342
 30
0.0
  0
VERTEX
  5
26C5
  8
SAPA_FOGBAND
 10
119.96168046416589
 20
-31.85475182197592
 30
0.0
  0
VERTEX
  5
26C6
  8
SAPA_FOGBAND
 10
119.4481377887397
 20
-31.865692031728781
 30
0.0
  0
VERTEX
  5
26C7
  8
SAPA_FOGBAND
 10
118.9396285056977
 20
-31.832995084260261
 30
0.0
  0
VERTEX
  5
26C8
  8
SAPA_FOGBAND
 10
118.45611352879109
 20
-31.75815560610673
 30
0.0
  0
VERTEX
  5
26C9
  8
SAPA_FOGBAND
 10
118.0168731265897
 20
-31.644744221926029
 30
0.0
  0
VERTEX
  5
26CA
  8
SAPA_FOGBAND
 10
117.639973465214
 20
-31.49869078395265
 30
0.0
  0
VERTEX
  5
26CB
  8
SAPA_FOGBAND
 10
117.3415530530752
 20
-31.328985557128199
 30
0.0
  0
VERTEX
  5
26CC
  8
SAPA_FOGBAND
 10
117.1339525644716
 20
-31.148897665392269
 30
0.0
  0
VERTEX
  5
26CD
  8
SAPA_FOGBAND
 10
117.0200268263409
 20
-30.975380832971329
 30
0.0
  0
SEQEND
  5
26CE
  8
SAPA_FOGBAND
  0
POLYLINE
  5
148A
  8
SAPA_FOGBAND
 66
     1
 10
0.0
 20
0.0
 30
0.0
 70
     1
  0
VERTEX
  5
26CF
  8
SAPA_FOGBAND
 10
103.2953758134982
 20
-32.838714290911831
 30
0.0
 42
0.3915187749346351
  0
VERTEX
  5
26D0
  8
SAPA_FOGBAND
 10
104.2173535132716
 20
-33.835665904917242
 30
0.0
  0
VERTEX
  5
26D1
  8
SAPA_FOGBAND
 10
112.27590001408601
 20
-34.661986935415783
 30
0.0
 42
0.0195279011117888
  0
VERTEX
  5
26D2
  8
SAPA_FOGBAND
 10
112.3149111641993
 20
-34.663511128413077
 30
0.0
  0
VERTEX
  5
26D3
  8
SAPA_FOGBAND
 10
125.9953758134981
 20
-34.663511128413077
 30
0.0
 42
0.4279663351069072
  0
VERTEX
  5
26D4
  8
SAPA_FOGBAND
 10
126.295048381218
 20
-34.349498557053678
 30
0.0
  0
VERTEX
  5
26D5
  8
SAPA_FOGBAND
 10
125.80874847313829
 20
-26.961058296655171
 30
0.0
 42
0.4005932428724028
  0
VERTEX
  5
26D6
  8
SAPA_FOGBAND
 10
125.5090759054184
 20
-26.675070868014199
 30
0.0
  0
VERTEX
  5
26D7
  8
SAPA_FOGBAND
 10
123.6953758134979
 20
-26.675070868014199
 30
0.0
  0
VERTEX
  5
26D8
  8
SAPA_FOGBAND
 10
123.6953758134979
 20
-24.975070868014392
 30
0.0
 42
0.4142135623730951
  0
VERTEX
  5
26D9
  8
SAPA_FOGBAND
 10
123.39537581349769
 20
-24.67507086801421
 30
0.0
  0
VERTEX
  5
26DA
  8
SAPA_FOGBAND
 10
115.9765950498723
 20
-24.67507086801421
 30
0.0
 42
0.1379343940649189
  0
VERTEX
  5
26DB
  8
SAPA_FOGBAND
 10
115.4553767408234
 20
-24.8216474828691
 30
0.0
  0
VERTEX
  5
26DC
  8
SAPA_FOGBAND
 10
103.53476665897379
 20
-31.62886572077737
 30
0.0
 42
0.2613472755167633
  0
VERTEX
  5
26DD
  8
SAPA_FOGBAND
 10
103.2953758134982
 20
-32.055577413349923
 30
0.0
  0
SEQEND
  5
26DE
  8
SAPA_FOGBAND
  0
POLYLINE
  5
148B
  8
SAPA_FOGBAND
 66
     1
 10
0.0
 20
0.0
 30
0.0
  0
VERTEX
  5
26DF
  8
SAPA_FOGBAND
 10
123.56334062724061
 20
-86.163511128413063
 30
0.0
  0
VERTEX
  5
26E0
  8
SAPA_FOGBAND
 10
123.37098220724801
 20
-87.254429938565821
 30
0.0
  0
VERTEX
  5
26E1
  8
SAPA_FOGBAND
 10
123.8027787671501
 20
-87.370129478085758
 30
0.0
 42
-0.4430158954262519
  0
VERTEX
  5
26E2
  8
SAPA_FOGBAND
 10
123.9382558146937
 20
-87.633605906192727
 30
0.0
  0
VERTEX
  5
26E3
  8
SAPA_FOGBAND
 10
123.4613076214748
 20
-88.904093654110923
 30
0.0
 42
-0.3125358528825162
  0
VERTEX
  5
26E4
  8
SAPA_FOGBAND
 10
123.0868259083456
 20
-89.163511128412622
 30
0.0
  0
VERTEX
  5
26E5
  8
SAPA_FOGBAND
 10
121.21667059243531
 20
-89.163511128413077
 30
0.0
 42
-0.3125358528825104
  0
VERTEX
  5
26E6
  8
SAPA_FOGBAND
 10
120.8421888793056
 20
-88.904093654110923
 30
0.0
  0
VERTEX
  5
26E7
  8
SAPA_FOGBAND
 10
120.36524068608669
 20
-87.633605906192727
 30
0.0
 42
-0.4430158954262519
  0
VERTEX
  5
26E8
  8
SAPA_FOGBAND
 10
120.50071773363079
 20
-87.370129478085758
 30
0.0
  0
VERTEX
  5
26E9
  8
SAPA_FOGBAND
 10
120.93251429353241
 20
-87.254429938565821
 30
0.0
  0
VERTEX
  5
26EA
  8
SAPA_FOGBAND
 10
120.7433704371899
 20
-86.181741824798294
 30
0.0
  0
SEQEND
  5
26EB
  8
SAPA_FOGBAND
  0
DIMENSION
  5
1494
  8
SAPA_MATT
  2
*D84
 10
125.49999970207941
 20
-134.49999999901041
 30
0.0
 11
106.74999970207941
 21
-131.74999999901041
 31
0.0
 70
     0
 13
87.999999702079407
 23
-89.498715301570073
 33
0.0
 14
125.49999970207941
 24
-87.500000006768289
 34
0.0
1001
ACAD
1000
DSTYLE
1002
{
1070
    40
1040
1.0
1002
}
  0
DIMENSION
  5
1495
  8
SAPA_MATT
  2
*D83
 10
87.999999702079407
 20
-134.49999999901041
 30
0.0
 11
85.499999850961984
 21
-134.49999999901041
 31
0.0
 70
   128
  1
5
 13
82.999999999844533
 23
-89.998715170683127
 33
0.0
 14
87.999999702079407
 24
-89.998715301570059
 34
0.0
1001
ACAD
1000
DSTYLE
1002
{
1070
    40
1040
1.0
1070
   271
1070
     0
1002
}
  0
DIMENSION
  5
1496
  8
SAPA_MATT
  2
*D82
 10
24.999999999999091
 20
-134.49999999901041
 30
0.0
 11
53.999999999921812
 21
-131.74999999901041
 31
0.0
 70
     0
 13
82.999999999844533
 23
-89.998715170683127
 33
0.0
 14
24.999999999999091
 24
-113.9999999990104
 34
0.0
1001
ACAD
1000
DSTYLE
1002
{
1070
    40
1040
1.0
1002
}
  0
DIMENSION
  5
1497
  8
SAPA_MATT
  2
*D81
 10
24.999999999999091
 20
-134.49999999901041
 30
0.0
 11
-0.0000000000009093
 21
-131.74999999901041
 31
0.0
 70
     0
 13
-25.000000000000909
 23
-113.9999999990104
 33
0.0
 14
24.999999999999091
 24
-113.9999999990104
 34
0.0
1001
ACAD
1000
DSTYLE
1002
{
1070
    40
1040
1.0
1002
}
  0
VIEWPORT
  5
C4
 67
     1
  8
0
 10
143.06236603067589
 20
116.00969601843509
 30
0.0
 40
369.98580003443811
 41
256.8421457311839
 68
     1
 69
     1
1001
ACAD
1000
MVIEW
1002
{
1070
    16
1010
0.0
1020
0.0
1030
0.0
1010
0.0
1020
0.0
1030
1.0
1040
0.0
1040
256.8421457311839
1040
99.112914085388169
1040
143.07606935501099
1040
50.0
1040
0.0
1040
0.0
1070
     0
1070
     0
1070
     1
1070
     1
1070
     0
1070
     0
1070
     0
1070
     0
1040
0.0
1040
0.0
1040
0.0
1040
10.0
1040
10.0
1040
10.0
1040
10.0
1070
     0
1002
{
1002
}
1002
}
  0
ENDSEC
  0
EOF
