  0
SECTION
  2
HEADER
  9
$ACADVER
  1
AC1009
  9
$INSBASE
 10
0.0
 20
0.0
 30
0.0
  9
$EXTMIN
 10
-75.585729413463582
 20
-135.99999999901041
 30
0.0
  9
$EXTMAX
 10
141.12503395628269
 20
86.711765638890114
 30
0.0000000195376815
  9
$LIMMIN
 10
0.0
 20
0.0
  9
$LIMMAX
 10
790.0
 20
790.0
  9
$ORTHOMODE
 70
     1
  9
$REGENMODE
 70
     1
  9
$FILLMODE
 70
     1
  9
$QTEXTMODE
 70
     0
  9
$MIRRTEXT
 70
     1
  9
$DRAGMODE
 70
     2
  9
$LTSCALE
 40
4.0
  9
$OSMODE
 70
   167
  9
$ATTMODE
 70
     1
  9
$TEXTSIZE
 40
3.5
  9
$TRACEWID
 40
0.05
  9
$TEXTSTYLE
  7
ISO
  9
$CLAYER
  8
0
  9
$CELTYPE
  6
BYLAYER
  9
$CECOLOR
 62
   256
  9
$DIMSCALE
 40
0.0
  9
$DIMASZ
 40
3.0
  9
$DIMEXO
 40
1.5
  9
$DIMDLI
 40
10.0
  9
$DIMRND
 40
0.0
  9
$DIMDLE
 40
0.0
  9
$DIMEXE
 40
1.5
  9
$DIMTP
 40
0.0
  9
$DIMTM
 40
0.0
  9
$DIMTXT
 40
3.5
  9
$DIMCEN
 40
-5.0
  9
$DIMTSZ
 40
0.0
  9
$DIMTOL
 70
     0
  9
$DIMLIM
 70
     0
  9
$DIMTIH
 70
     0
  9
$DIMTOH
 70
     0
  9
$DIMSE1
 70
     0
  9
$DIMSE2
 70
     0
  9
$DIMTAD
 70
     1
  9
$DIMZIN
 70
     8
  9
$DIMBLK
  1

  9
$DIMASO
 70
     1
  9
$DIMSHO
 70
     1
  9
$DIMPOST
  1

  9
$DIMAPOST
  1

  9
$DIMALT
 70
     0
  9
$DIMALTD
 70
     0
  9
$DIMALTF
 40
25.399999999999999
  9
$DIMLFAC
 40
-1.0
  9
$DIMTOFL
 70
     1
  9
$DIMTVP
 40
0.0
  9
$DIMTIX
 70
     0
  9
$DIMSOXD
 70
     0
  9
$DIMSAH
 70
     0
  9
$DIMBLK1
  1

  9
$DIMBLK2
  1

  9
$DIMSTYLE
  2
MASKIN
  9
$DIMCLRD
 70
   256
  9
$DIMCLRE
 70
   256
  9
$DIMCLRT
 70
     2
  9
$DIMTFAC
 40
1.0
  9
$DIMGAP
 40
1.0
  9
$LUNITS
 70
     2
  9
$LUPREC
 70
     8
  9
$SKETCHINC
 40
0.1
  9
$FILLETRAD
 40
0.0
  9
$AUNITS
 70
     0
  9
$AUPREC
 70
     8
  9
$MENU
  1
ACAD
  9
$ELEVATION
 40
0.0
  9
$PELEVATION
 40
0.0
  9
$THICKNESS
 40
0.0
  9
$LIMCHECK
 70
     0
  9
$BLIPMODE
 70
     0
  9
$CHAMFERA
 40
0.0
  9
$CHAMFERB
 40
0.0
  9
$SKPOLY
 70
     0
  9
$TDCREATE
 40
2454981.3237536349
  9
$TDUPDATE
 40
2457105.5481132991
  9
$TDINDWG
 40
0.0829267014
  9
$TDUSRTIMER
 40
0.0829265162
  9
$USRTIMER
 70
     1
  9
$ANGBASE
 50
0.0
  9
$ANGDIR
 70
     0
  9
$PDMODE
 70
     0
  9
$PDSIZE
 40
0.0
  9
$PLINEWID
 40
0.0
  9
$COORDS
 70
     1
  9
$SPLFRAME
 70
     0
  9
$SPLINETYPE
 70
     6
  9
$SPLINESEGS
 70
     8
  9
$ATTDIA
 70
     0
  9
$ATTREQ
 70
     1
  9
$HANDLING
 70
     1
  9
$HANDSEED
  5
2911
  9
$SURFTAB1
 70
     6
  9
$SURFTAB2
 70
     6
  9
$SURFTYPE
 70
     6
  9
$SURFU
 70
     6
  9
$SURFV
 70
     6
  9
$UCSNAME
  2

  9
$UCSORG
 10
0.0
 20
0.0
 30
0.0
  9
$UCSXDIR
 10
1.0
 20
0.0
 30
0.0
  9
$UCSYDIR
 10
0.0
 20
1.0
 30
0.0
  9
$PUCSNAME
  2

  9
$PUCSORG
 10
0.0
 20
0.0
 30
0.0
  9
$PUCSXDIR
 10
1.0
 20
0.0
 30
0.0
  9
$PUCSYDIR
 10
0.0
 20
1.0
 30
0.0
  9
$USERI1
 70
     0
  9
$USERI2
 70
     0
  9
$USERI3
 70
     0
  9
$USERI4
 70
     0
  9
$USERI5
 70
     0
  9
$USERR1
 40
0.0
  9
$USERR2
 40
0.0
  9
$USERR3
 40
0.0
  9
$USERR4
 40
0.0
  9
$USERR5
 40
0.0
  9
$WORLDVIEW
 70
     1
  9
$SHADEDGE
 70
     3
  9
$SHADEDIF
 70
    70
  9
$TILEMODE
 70
     1
  9
$MAXACTVP
 70
    16
  9
$PLIMCHECK
 70
     0
  9
$PEXTMIN
 10
1.0000000000000000E+020
 20
1.0000000000000000E+020
 30
1.0000000000000000E+020
  9
$PEXTMAX
 10
-1.0000000000000000E+020
 20
-1.0000000000000000E+020
 30
-1.0000000000000000E+020
  9
$PLIMMIN
 10
-5.069427490234375
 20
-5.8737497329711914
  9
$PLIMMAX
 10
291.89889526367187
 20
204.0995779037475
  9
$UNITMODE
 70
     0
  9
$VISRETAIN
 70
     1
  9
$PLINEGEN
 70
     0
  9
$PSLTSCALE
 70
     1
  0
ENDSEC
  0
SECTION
  2
TABLES
  0
TABLE
  2
VPORT
 70
     1
  0
VPORT
  2
*ACTIVE
 70
     0
 10
0.0
 20
0.0
 11
1.0
 21
1.0
 12
33.253066219376372
 22
96.033571261376068
 13
0.0
 23
0.0
 14
1.0
 24
1.0
 15
0.0
 25
0.0
 16
0.0
 26
0.0
 36
1.0
 17
0.0
 27
0.0
 37
0.0
 40
303.76802960885863
 41
1.7436619718309849
 42
50.0
 43
0.0
 44
0.0
 50
0.0
 51
0.0
 71
     0
 72
   100
 73
     1
 74
     1
 75
     0
 76
     0
 77
     0
 78
     0
  0
ENDTAB
  0
TABLE
  2
LTYPE
 70
    44
  0
LTYPE
  2
CONTINUOUS
 70
     0
  3
Solid line
 72
    65
 73
     0
 40
0.0
  0
LTYPE
  2
BYGG-01482201$0$NEWDOT
 70
     0
  3
____ . ____ . ____ . ____ . ____ . ____ . ____
 72
    65
 73
     4
 40
2.0
 49
1.0
 49
-0.5
 49
0.0
 49
-0.5
  0
LTYPE
  2
BYGG-014279$0$NEWDOT
 70
     0
  3
____ . ____ . ____ . ____ . ____ . ____ . ____
 72
    65
 73
     4
 40
2.0
 49
1.0
 49
-0.5
 49
0.0
 49
-0.5
  0
LTYPE
  2
BYGG-023714$0$NEWDOT
 70
     0
  3
____ . ____ . ____ . ____ . ____ . ____ . ____
 72
    65
 73
     4
 40
2.0
 49
1.0
 49
-0.5
 49
0.0
 49
-0.5
  0
LTYPE
  2
BYGG-023714$0$DASHDOT
 70
     0
  3
__ . __ . __ . __ . __ . __ . __ . __ . __ . __
 72
    65
 73
     4
 40
1.0
 49
0.5
 49
-0.25
 49
0.0
 49
-0.25
  0
LTYPE
  2
BYGG-023714$0$DASHED
 70
     0
  3
__ __ __ __ __ __ __ __ __ __ __ __ __ __ __
 72
    65
 73
     2
 40
0.75
 49
0.5
 49
-0.25
  0
LTYPE
  2
BYGG-023714$0$PHANTOM
 70
     0
  3
Phantom ______  __  __  ______  __  __  ______
 72
    65
 73
     6
 40
63.5
 49
31.75
 49
-6.3499999999999988
 49
6.3499999999999988
 49
-6.3499999999999988
 49
6.3499999999999988
 49
-6.3499999999999988
  0
LTYPE
  2
BYGG-01482201$0$ZIGZAG
 70
     0
  3
Zig zag /\/\/\/\/\/\/\/\/\/\/\/\/\/\/\/\/\/\/\/\/\/\/\/
 72
    65
 73
     4
 40
20.32254
 49
0.00254
 49
-5.0800000000000001
 49
-10.16
 49
-5.0800000000000001
  0
LTYPE
  2
BYGG-014279$0$ZIGZAG
 70
     0
  3
Zig zag /\/\/\/\/\/\/\/\/\/\/\/\/\/\/\/\/\/\/\/\/\/\/\/
 72
    65
 73
     4
 40
20.32254
 49
0.00254
 49
-5.0800000000000001
 49
-10.16
 49
-5.0800000000000001
  0
LTYPE
  2
BYGG-020805$0$NEWDOT
 70
     0
  3
____ . ____ . ____ . ____ . ____ . ____ . ____
 72
    65
 73
     4
 40
2.0
 49
1.0
 49
-0.5
 49
0.0
 49
-0.5
  0
LTYPE
  2
BYGG-020805$0$DASHDOT
 70
     0
  3
__ . __ . __ . __ . __ . __ . __ . __ . __ . __
 72
    65
 73
     4
 40
1.0
 49
0.5
 49
-0.25
 49
0.0
 49
-0.25
  0
LTYPE
  2
BYGG-020805$0$DASHED
 70
     0
  3
__ __ __ __ __ __ __ __ __ __ __ __ __ __ __
 72
    65
 73
     2
 40
0.75
 49
0.5
 49
-0.25
  0
LTYPE
  2
BYGG-020805$0$PHANTOM
 70
     0
  3
Phantom ______  __  __  ______  __  __  ______
 72
    65
 73
     6
 40
63.5
 49
31.75
 49
-6.3499999999999988
 49
6.3499999999999988
 49
-6.3499999999999988
 49
6.3499999999999988
 49
-6.3499999999999988
  0
LTYPE
  2
BYGG-023714$0$ZIGZAG
 70
     0
  3
Zig zag /\/\/\/\/\/\/\/\/\/\/\/\/\/\/\/\/\/\/\/\/\/\/\/
 72
    65
 73
     4
 40
20.32254
 49
0.00254
 49
-5.0800000000000001
 49
-10.16
 49
-5.0800000000000001
  0
LTYPE
  2
BYGG-033246$0$NEWDOT
 70
     0
  3
____ . ____ . ____ . ____ . ____ . ____ . ____
 72
    65
 73
     4
 40
2.0
 49
1.0
 49
-0.5
 49
0.0
 49
-0.5
  0
LTYPE
  2
BYGG-033246$0$DASHDOT
 70
     0
  3
__ . __ . __ . __ . __ . __ . __ . __ . __ . __
 72
    65
 73
     4
 40
1.0
 49
0.5
 49
-0.25
 49
0.0
 49
-0.25
  0
LTYPE
  2
BYGG-033246$0$DASHED
 70
     0
  3
__ __ __ __ __ __ __ __ __ __ __ __ __ __ __
 72
    65
 73
     2
 40
0.75
 49
0.5
 49
-0.25
  0
LTYPE
  2
BYGG-033246$0$PHANTOM
 70
     0
  3
Phantom ______  __  __  ______  __  __  ______
 72
    65
 73
     6
 40
63.5
 49
31.75
 49
-6.3499999999999988
 49
6.3499999999999988
 49
-6.3499999999999988
 49
6.3499999999999988
 49
-6.3499999999999988
  0
LTYPE
  2
BYGG-024943$0$NEWDOT
 70
     0
  3
____ . ____ . ____ . ____ . ____ . ____ . ____
 72
    65
 73
     4
 40
2.0
 49
1.0
 49
-0.5
 49
0.0
 49
-0.5
  0
LTYPE
  2
BYGG-024943$0$DASHDOT
 70
     0
  3
__ . __ . __ . __ . __ . __ . __ . __ . __ . __
 72
    65
 73
     4
 40
1.0
 49
0.5
 49
-0.25
 49
0.0
 49
-0.25
  0
LTYPE
  2
BYGG-020132$0$NEWDOT
 70
     0
  3
____ . ____ . ____ . ____ . ____ . ____ . ____
 72
    65
 73
     4
 40
2.0
 49
1.0
 49
-0.5
 49
0.0
 49
-0.5
  0
LTYPE
  2
BYGG-020132$0$DASHDOT
 70
     0
  3
__ . __ . __ . __ . __ . __ . __ . __ . __ . __
 72
    65
 73
     4
 40
1.0
 49
0.5
 49
-0.25
 49
0.0
 49
-0.25
  0
LTYPE
  2
BYGG-026410$0$NEWDOT
 70
     0
  3
____ . ____ . ____ . ____ . ____ . ____ . ____
 72
    65
 73
     4
 40
2.0
 49
1.0
 49
-0.5
 49
0.0
 49
-0.5
  0
LTYPE
  2
BYGG-026410$0$DASHDOT
 70
     0
  3
__ . __ . __ . __ . __ . __ . __ . __ . __ . __
 72
    65
 73
     4
 40
1.0
 49
0.5
 49
-0.25
 49
0.0
 49
-0.25
  0
LTYPE
  2
BYGG-026410$0$DASHED
 70
     0
  3
__ __ __ __ __ __ __ __ __ __ __ __ __ __ __
 72
    65
 73
     2
 40
0.75
 49
0.5
 49
-0.25
  0
LTYPE
  2
BYGG-026410$0$PHANTOM
 70
     0
  3
Phantom ______  __  __  ______  __  __  ______
 72
    65
 73
     6
 40
63.5
 49
31.75
 49
-6.3499999999999988
 49
6.3499999999999988
 49
-6.3499999999999988
 49
6.3499999999999988
 49
-6.3499999999999988
  0
LTYPE
  2
BYGG-033169$0$NEWDOT
 70
     0
  3
____ . ____ . ____ . ____ . ____ . ____ . ____
 72
    65
 73
     4
 40
2.0
 49
1.0
 49
-0.5
 49
0.0
 49
-0.5
  0
LTYPE
  2
BYGG-033169$0$DASHDOT
 70
     0
  3
__ . __ . __ . __ . __ . __ . __ . __ . __ . __
 72
    65
 73
     4
 40
1.0
 49
0.5
 49
-0.25
 49
0.0
 49
-0.25
  0
LTYPE
  2
BYGG-033169$0$DASHED
 70
     0
  3
__ __ __ __ __ __ __ __ __ __ __ __ __ __ __
 72
    65
 73
     2
 40
0.75
 49
0.5
 49
-0.25
  0
LTYPE
  2
BYGG-033169$0$PHANTOM
 70
     0
  3
Phantom ______  __  __  ______  __  __  ______
 72
    65
 73
     6
 40
63.5
 49
31.75
 49
-6.3499999999999988
 49
6.3499999999999988
 49
-6.3499999999999988
 49
6.3499999999999988
 49
-6.3499999999999988
  0
LTYPE
  2
BYGG-024798$0$NEWDOT
 70
     0
  3
____ . ____ . ____ . ____ . ____ . ____ . ____
 72
    65
 73
     4
 40
2.0
 49
1.0
 49
-0.5
 49
0.0
 49
-0.5
  0
LTYPE
  2
BYGG-024799$0$NEWDOT
 70
     0
  3
____ . ____ . ____ . ____ . ____ . ____ . ____
 72
    65
 73
     4
 40
2.0
 49
1.0
 49
-0.5
 49
0.0
 49
-0.5
  0
LTYPE
  2
BYGG-024799$0$DASHDOT
 70
     0
  3
__ . __ . __ . __ . __ . __ . __ . __ . __ . __
 72
    65
 73
     4
 40
1.0
 49
0.5
 49
-0.25
 49
0.0
 49
-0.25
  0
LTYPE
  2
BYGG-025652$0$NEWDOT
 70
     0
  3
____ . ____ . ____ . ____ . ____ . ____ . ____
 72
    65
 73
     4
 40
2.0
 49
1.0
 49
-0.5
 49
0.0
 49
-0.5
  0
LTYPE
  2
BYGG-025652$0$DASHDOT
 70
     0
  3
__ . __ . __ . __ . __ . __ . __ . __ . __ . __
 72
    65
 73
     4
 40
1.0
 49
0.5
 49
-0.25
 49
0.0
 49
-0.25
  0
LTYPE
  2
BYGG-025652$0$DASHED
 70
     0
  3
__ __ __ __ __ __ __ __ __ __ __ __ __ __ __
 72
    65
 73
     2
 40
0.75
 49
0.5
 49
-0.25
  0
LTYPE
  2
BYGG-025652$0$PHANTOM
 70
     0
  3
Phantom ______  __  __  ______  __  __  ______
 72
    65
 73
     6
 40
63.5
 49
31.75
 49
-6.3499999999999988
 49
6.3499999999999988
 49
-6.3499999999999988
 49
6.3499999999999988
 49
-6.3499999999999988
  0
LTYPE
  2
BYGG-014411$0$NEWDOT
 70
     0
  3
____ . ____ . ____ . ____ . ____ . ____ . ____
 72
    65
 73
     4
 40
2.0
 49
1.0
 49
-0.5
 49
0.0
 49
-0.5
  0
LTYPE
  2
BYGG-014411$0$ZIGZAG
 70
     0
  3
Zig zag /\/\/\/\/\/\/\/\/\/\/\/\/\/\/\/\/\/\/\/\/\/\/\/
 72
    65
 73
     4
 40
20.32254
 49
0.00254
 49
-5.0800000000000001
 49
-10.16
 49
-5.0800000000000001
  0
LTYPE
  2
BYGG-030185$0$PHANTOM2
 70
     0
  3
Phantom (.5x) ___ _ _ ___ _ _ ___ _ _ ___ _ _
 72
    65
 73
     6
 40
1.25
 49
0.625
 49
-0.125
 49
0.125
 49
-0.125
 49
0.125
 49
-0.125
  0
LTYPE
  2
BYGG-024798$0$DASHDOT
 70
     0
  3
__ . __ . __ . __ . __ . __ . __ . __ . __ . __
 72
    65
 73
     4
 40
1.0
 49
0.5
 49
-0.25
 49
0.0
 49
-0.25
  0
LTYPE
  2
BYGG-014089$0$PHANTOM2
 70
     0
  3
Phantom (.5x) ___ _ _ ___ _ _ ___ _ _ ___ _ _
 72
    65
 73
     6
 40
1.25
 49
0.625
 49
-0.125
 49
0.125
 49
-0.125
 49
0.125
 49
-0.125
  0
LTYPE
  2
BYGG-014108$0$PHANTOM2
 70
     0
  3
Phantom (.5x) ___ _ _ ___ _ _ ___ _ _ ___ _ _
 72
    65
 73
     6
 40
1.25
 49
0.625
 49
-0.125
 49
0.125
 49
-0.125
 49
0.125
 49
-0.125
  0
LTYPE
  2
BYGG-014411$0$PHANTOM2
 70
     0
  3
Phantom (.5x) ___ _ _ ___ _ _ ___ _ _ ___ _ _
 72
    65
 73
     6
 40
1.25
 49
0.625
 49
-0.125
 49
0.125
 49
-0.125
 49
0.125
 49
-0.125
  0
ENDTAB
  0
TABLE
  2
LAYER
 70
   258
  0
LAYER
  2
0
 70
     0
 62
     7
  6
CONTINUOUS
  0
LAYER
  2
DEFPOINTS
 70
     0
 62
     7
  6
CONTINUOUS
  0
LAYER
  2
SAPA_LIGHT
 70
     1
 62
     1
  6
CONTINUOUS
  0
LAYER
  2
SAPA_ARTIKELNR
 70
     0
 62
     4
  6
CONTINUOUS
  0
LAYER
  2
SAPA_FYLLNING
 70
     0
 62
     4
  6
CONTINUOUS
  0
LAYER
  2
SAPA_ISOLATOR
 70
     0
 62
     4
  6
CONTINUOUS
  0
LAYER
  2
SAPA_MATT
 70
     0
 62
     1
  6
CONTINUOUS
  0
LAYER
  2
SAPA_GLAS
 70
     0
 62
     4
  6
CONTINUOUS
  0
LAYER
  2
SAPA_FOGBAND
 70
     0
 62
     2
  6
CONTINUOUS
  0
LAYER
  2
SAPA_PROFIL
 70
     0
 62
     7
  6
CONTINUOUS
  0
ENDTAB
  0
TABLE
  2
STYLE
 70
    56
  0
STYLE
  2
STANDARD
 70
     0
 40
0.0
 41
1.0
 50
0.0
 71
     0
 42
0.2
  3
txt
  4

  0
STYLE
  2
ISO
 70
     0
 40
0.0
 41
1.0
 50
0.0
 71
     0
 42
3.5
  3
txt
  4

  0
STYLE
  2

 70
     1
 40
0.0
 41
1.0
 50
0.0
 71
     0
 42
0.2
  3
ltypeshp.shx
  4

  0
STYLE
  2
BYGG-021589$0$STANDARD
 70
     0
 40
0.0
 41
1.0
 50
0.0
 71
     0
 42
0.2
  3
txt
  4

  0
STYLE
  2
BYGG-021589$0$ISO
 70
     0
 40
0.0
 41
1.0
 50
0.0
 71
     0
 42
3.5
  3
isocp3.shx
  4

  0
STYLE
  2
BYGG-01482201$0$STANDARD
 70
     0
 40
0.0
 41
1.0
 50
0.0
 71
     0
 42
0.2
  3
txt
  4

  0
STYLE
  2
BYGG-01482201$0$ISO
 70
     0
 40
0.0
 41
1.0
 50
0.0
 71
     0
 42
3.5
  3
isocp3.shx
  4

  0
STYLE
  2
BYGG-021582$0$STANDARD
 70
     0
 40
0.0
 41
1.0
 50
0.0
 71
     0
 42
0.2
  3
txt
  4

  0
STYLE
  2
BYGG-021582$0$ISO
 70
     0
 40
0.0
 41
1.0
 50
0.0
 71
     0
 42
3.5
  3
isocp3.shx
  4

  0
STYLE
  2
BYGG-014279$0$STANDARD
 70
     0
 40
0.0
 41
1.0
 50
0.0
 71
     0
 42
0.2
  3
TXT.shx
  4

  0
STYLE
  2
BYGG-014279$0$ISO
 70
     0
 40
0.0
 41
1.0
 50
0.0
 71
     0
 42
3.5
  3
iso
  4

  0
STYLE
  2
BYGG-023940$0$STANDARD
 70
     0
 40
0.0
 41
1.0
 50
0.0
 71
     0
 42
0.2
  3
txt
  4

  0
STYLE
  2
BYGG-023940$0$ISO
 70
     0
 40
0.0
 41
1.0
 50
0.0
 71
     0
 42
3.5
  3
txt
  4

  0
STYLE
  2
BYGG-025110$0$STANDARD
 70
     0
 40
0.0
 41
1.0
 50
0.0
 71
     0
 42
0.2
  3
txt
  4

  0
STYLE
  2
BYGG-025110$0$ISO
 70
     0
 40
0.0
 41
1.0
 50
0.0
 71
     0
 42
3.5
  3
txt
  4

  0
STYLE
  2
BYGG-020805$0$STANDARD
 70
     0
 40
0.0
 41
1.0
 50
0.0
 71
     0
 42
0.2
  3
txt
  4

  0
STYLE
  2
BYGG-020805$0$ISO
 70
     0
 40
0.0
 41
1.0
 50
0.0
 71
     0
 42
3.5
  3
txt
  4

  0
STYLE
  2
BYGG-014117$0$STANDARD
 70
     0
 40
0.0
 41
1.0
 50
0.0
 71
     0
 42
0.2
  3
txt
  4

  0
STYLE
  2
BYGG-014117$0$ISO
 70
     0
 40
0.0
 41
1.0
 50
0.0
 71
     0
 42
3.5
  3
isocp3.shx
  4

  0
STYLE
  2
BYGG-022681$0$STANDARD
 70
     0
 40
0.0
 41
1.0
 50
0.0
 71
     0
 42
0.2
  3
txt
  4

  0
STYLE
  2
BYGG-022681$0$ISO
 70
     0
 40
0.0
 41
1.0
 50
0.0
 71
     0
 42
3.5
  3
txt
  4

  0
STYLE
  2
BYGG-014306$0$STANDARD
 70
     0
 40
0.0
 41
1.0
 50
0.0
 71
     0
 42
0.2
  3
txt
  4

  0
STYLE
  2
BYGG-023717$0$STANDARD
 70
     0
 40
0.0
 41
1.0
 50
0.0
 71
     0
 42
0.2
  3
txt
  4

  0
STYLE
  2
BYGG-023717$0$ISO
 70
     0
 40
0.0
 41
1.0
 50
0.0
 71
     0
 42
3.5
  3
txt
  4

  0
STYLE
  2
BYGG-023714$0$STANDARD
 70
     0
 40
0.0
 41
1.0
 50
0.0
 71
     0
 42
0.2
  3
txt
  4

  0
STYLE
  2
BYGG-023714$0$ISO
 70
     0
 40
0.0
 41
1.0
 50
0.0
 71
     0
 42
3.5
  3
txt
  4

  0
STYLE
  2
BYGG-019338$0$STANDARD
 70
     0
 40
0.0
 41
1.0
 50
0.0
 71
     0
 42
0.2
  3
txt
  4

  0
STYLE
  2
BYGG-019338$0$ISO
 70
     0
 40
0.0
 41
1.0
 50
0.0
 71
     0
 42
3.5
  3
txt
  4

  0
STYLE
  2
BYGG-033246$0$STANDARD
 70
     0
 40
0.0
 41
1.0
 50
0.0
 71
     0
 42
0.2
  3
txt
  4

  0
STYLE
  2
BYGG-033246$0$ISO
 70
     0
 40
0.0
 41
1.0
 50
0.0
 71
     0
 42
3.5
  3
txt
  4

  0
STYLE
  2
BYGG-024943$0$STANDARD
 70
     0
 40
0.0
 41
1.0
 50
0.0
 71
     0
 42
0.2
  3
txt
  4

  0
STYLE
  2
BYGG-024943$0$ISO
 70
     0
 40
0.0
 41
1.0
 50
0.0
 71
     0
 42
3.5
  3
txt
  4

  0
STYLE
  2
BYGG-020132$0$STANDARD
 70
     0
 40
0.0
 41
1.0
 50
0.0
 71
     0
 42
0.2
  3
txt
  4

  0
STYLE
  2
BYGG-020132$0$ISO
 70
     0
 40
0.0
 41
1.0
 50
0.0
 71
     0
 42
3.5
  3
txt
  4

  0
STYLE
  2
BYGG-028980$0$STANDARD
 70
     0
 40
0.0
 41
1.0
 50
0.0
 71
     0
 42
0.2
  3
txt
  4

  0
STYLE
  2
BYGG-028980$0$ISO
 70
     0
 40
0.0
 41
1.0
 50
0.0
 71
     0
 42
3.5
  3
txt
  4

  0
STYLE
  2
BYGG-026410$0$STANDARD
 70
     0
 40
0.0
 41
1.0
 50
0.0
 71
     0
 42
0.2
  3
txt
  4

  0
STYLE
  2
BYGG-026410$0$ISO
 70
     0
 40
0.0
 41
1.0
 50
0.0
 71
     0
 42
3.5
  3
txt
  4

  0
STYLE
  2
BYGG-033169$0$STANDARD
 70
     0
 40
0.0
 41
1.0
 50
0.0
 71
     0
 42
0.2
  3
txt
  4

  0
STYLE
  2
BYGG-033169$0$ISO
 70
     0
 40
0.0
 41
1.0
 50
0.0
 71
     0
 42
3.5
  3
txt
  4

  0
STYLE
  2
BYGG-030185$0$STANDARD
 70
     0
 40
0.0
 41
1.0
 50
0.0
 71
     0
 42
0.2
  3
txt
  4

  0
STYLE
  2
BYGG-030185$0$ISO
 70
     0
 40
0.0
 41
1.0
 50
0.0
 71
     0
 42
7.0
  3
ISO
  4

  0
STYLE
  2
BYGG-024798$0$STANDARD
 70
     0
 40
0.0
 41
1.0
 50
0.0
 71
     0
 42
0.2
  3
txt
  4

  0
STYLE
  2
BYGG-024798$0$ISO
 70
     0
 40
0.0
 41
1.0
 50
0.0
 71
     0
 42
3.5
  3
txt
  4

  0
STYLE
  2
BYGG-024799$0$STANDARD
 70
     0
 40
0.0
 41
1.0
 50
0.0
 71
     0
 42
0.2
  3
txt
  4

  0
STYLE
  2
BYGG-024799$0$ISO
 70
     0
 40
0.0
 41
1.0
 50
0.0
 71
     0
 42
3.5
  3
txt
  4

  0
STYLE
  2
BYGG-014089$0$STANDARD
 70
     0
 40
0.0
 41
1.0
 50
0.0
 71
     0
 42
0.2
  3
txt
  4

  0
STYLE
  2
BYGG-014089$0$ANNOTATIVE
 70
     0
 40
0.0
 41
1.0
 50
0.0
 71
     0
 42
3.5
  3
txt
  4

  0
STYLE
  2
BYGG-014108$0$STANDARD
 70
     0
 40
0.0
 41
1.0
 50
0.0
 71
     0
 42
0.4
  3
txt
  4

  0
STYLE
  2
BYGG-014108$0$SIMPLEX
 70
     0
 40
0.0
 41
1.0
 50
0.0
 71
     0
 42
0.2
  3
simplex
  4

  0
STYLE
  2
BYGG-019611$0$STANDARD
 70
     0
 40
0.0
 41
1.0
 50
0.0
 71
     0
 42
0.2
  3
txt
  4

  0
STYLE
  2
BYGG-019611$0$ISO
 70
     0
 40
0.0
 41
1.0
 50
0.0
 71
     0
 42
3.5
  3
txt
  4

  0
STYLE
  2
BYGG-025652$0$STANDARD
 70
     0
 40
0.0
 41
1.0
 50
0.0
 71
     0
 42
0.2
  3
txt
  4

  0
STYLE
  2
BYGG-025652$0$ISO
 70
     0
 40
0.0
 41
1.0
 50
0.0
 71
     0
 42
3.5
  3
txt
  4

  0
STYLE
  2
BYGG-014411$0$STANDARD
 70
     0
 40
0.0
 41
1.0
 50
0.0
 71
     0
 42
0.2
  3
txt
  4

  0
STYLE
  2
BYGG-014411$0$ISO
 70
     0
 40
0.0
 41
1.0
 50
0.0
 71
     0
 42
3.5
  3
isocp3.shx
  4

  0
ENDTAB
  0
TABLE
  2
VIEW
 70
     0
  0
ENDTAB
  0
TABLE
  2
UCS
 70
     0
  0
ENDTAB
  0
TABLE
  2
APPID
 70
    35
  0
APPID
  2
ACAD
 70
     0
  0
APPID
  2
ACAD_DSTYLE_DIMTEXT_FILL
 70
     0
  0
APPID
  2
ACAD_DSTYLE_DIMEXT_LENGTH
 70
     0
  0
APPID
  2
ACAD_DSTYLE_DIMEXT_ENABLED
 70
     0
  0
APPID
  2
ACAD_DSTYLE_DIM_LINETYPE
 70
     0
  0
APPID
  2
ACAD_DSTYLE_DIM_EXT1_LINETYPE
 70
     0
  0
APPID
  2
ACAD_DSTYLE_DIM_EXT2_LINETYPE
 70
     0
  0
APPID
  2
ACAD_DSTYLE_DIMJOGGED_JOGA
 70
     0
  0
APPID
  2
ACAD_DSTYLE_DIMARC_LENGTH_
 70
     0
  0
APPID
  2
ACAD_PSEXT
 70
     0
  0
APPID
  2
ACAD_MLEADERVER
 70
     0
  0
APPID
  2
AMG_ARCHIVE11
 70
     0
  0
APPID
  2
ACADANNOTATIVE
 70
     0
  0
APPID
  2
ACAECLAYERSTANDARD
 70
     0
  0
APPID
  2
ACAD_EXEMPT_FROM_CAD_STANDARDS
 70
     0
  0
APPID
  2
ACDBDYNAMICBLOCKGUID
 70
     0
  0
APPID
  2
ACDBBLOCKREPETAG
 70
     0
  0
APPID
  2
ACAUTHENVIRON
 70
     0
  0
APPID
  2
ACAD_DSTYLE_DIMJAG
 70
     0
  0
APPID
  2
ACAD_DSTYLE_DIMTALN
 70
     0
  0
APPID
  2
AME_SOL
 70
     0
  0
APPID
  2
ACAD_NAV_VCDISPLAY
 70
     0
  0
APPID
  2
ACAD_DSTYLE_DIMRADIAL_EXTENSION
 70
     0
  0
APPID
  2
ACAD_OBJECT_CHANGE_GUID
 70
     0
  0
APPID
  2
ACCMTRANSPARENCY
 70
     0
  0
APPID
  2
AVE_RENDER
 70
     0
  0
APPID
  2
AVE_ENTITY_MATERIAL
 70
     0
  0
APPID
  2
AVE_FINISH
 70
     0
  0
APPID
  2
AVE_MATERIAL
 70
     0
  0
APPID
  2
AVE_GLOBAL
 70
     0
  0
APPID
  2
4M_RENDER
 70
     0
  0
APPID
  2
LIBMAN
 70
     0
  0
APPID
  2
AUTOBUILD
 70
     0
  0
APPID
  2
ACDBDYNAMICBLOCKTRUENAME
 70
     0
  0
APPID
  2
AEC_XDATA_BOUND_SPACE
 70
     0
  0
ENDTAB
  0
TABLE
  2
DIMSTYLE
 70
    49
  0
DIMSTYLE
  2
MASKIN
 70
     0
  3

  4

  5

  6

  7

 40
0.0
 41
3.0
 42
1.5
 43
10.0
 44
1.5
 45
0.0
 46
0.0
 47
0.0
 48
0.0
140
3.5
141
-5.0
142
0.0
143
25.399999999999999
144
-1.0
145
0.0
146
1.0
147
1.0
 71
     0
 72
     0
 73
     0
 74
     0
 75
     0
 76
     0
 77
     1
 78
     8
170
     0
171
     0
172
     1
173
     0
174
     0
175
     0
176
   256
177
   256
178
     2
  0
DIMSTYLE
  2
BYGG-021589$0$MASKIN
 70
     0
  3

  4

  5

  6

  7

 40
0.0
 41
3.0
 42
1.5
 43
10.0
 44
1.5
 45
0.0
 46
0.0
 47
0.0
 48
0.0
140
3.0
141
-5.0
142
0.0
143
25.399999999999999
144
-1.0
145
0.0
146
1.0
147
1.0
 71
     0
 72
     0
 73
     0
 74
     0
 75
     0
 76
     0
 77
     1
 78
     8
170
     0
171
     0
172
     1
173
     0
174
     0
175
     0
176
   256
177
   256
178
   256
  0
DIMSTYLE
  2
BYGG-01482201$0$STANDARD
 70
     0
  3

  4

  5

  6

  7

 40
1.0
 41
0.18
 42
0.0625
 43
0.38
 44
0.18
 45
0.0
 46
0.0
 47
0.0
 48
0.0
140
0.18
141
0.09
142
0.0
143
25.399999999999999
144
1.0
145
0.0
146
1.0
147
0.09
 71
     0
 72
     0
 73
     1
 74
     1
 75
     0
 76
     0
 77
     0
 78
     0
170
     0
171
     2
172
     0
173
     0
174
     0
175
     0
176
     0
177
     0
178
     0
  0
DIMSTYLE
  2
BYGG-01482201$0$MASKIN
 70
     0
  3

  4

  5

  6

  7

 40
0.0
 41
3.0
 42
1.5
 43
10.0
 44
1.5
 45
0.0
 46
0.0
 47
0.0
 48
0.0
140
3.0
141
-5.0
142
0.0
143
25.399999999999999
144
-1.0
145
0.0
146
1.0
147
1.0
 71
     0
 72
     0
 73
     0
 74
     1
 75
     0
 76
     0
 77
     1
 78
     8
170
     0
171
     0
172
     1
173
     0
174
     0
175
     0
176
   256
177
   256
178
     2
  0
DIMSTYLE
  2
BYGG-021582$0$MASKIN
 70
     0
  3

  4

  5

  6

  7

 40
0.0
 41
3.0
 42
1.5
 43
10.0
 44
1.5
 45
0.0
 46
0.0
 47
0.0
 48
0.0
140
3.0
141
-5.0
142
0.0
143
25.399999999999999
144
-1.0
145
0.0
146
1.0
147
1.0
 71
     0
 72
     0
 73
     0
 74
     0
 75
     0
 76
     0
 77
     1
 78
     8
170
     0
171
     0
172
     1
173
     0
174
     0
175
     0
176
   256
177
   256
178
   256
  0
DIMSTYLE
  2
BYGG-014279$0$STANDARD
 70
     0
  3

  4

  5

  6

  7

 40
1.0
 41
0.18
 42
0.0625
 43
0.38
 44
0.18
 45
0.0
 46
0.0
 47
0.0
 48
0.0
140
0.18
141
0.09
142
0.0
143
25.399999999999999
144
1.0
145
0.0
146
1.0
147
0.09
 71
     0
 72
     0
 73
     1
 74
     1
 75
     0
 76
     0
 77
     0
 78
     0
170
     0
171
     2
172
     0
173
     0
174
     0
175
     0
176
     0
177
     0
178
     0
  0
DIMSTYLE
  2
BYGG-014279$0$MASKIN
 70
     0
  3

  4

  5

  6

  7

 40
0.0
 41
3.0
 42
1.5
 43
10.0
 44
1.5
 45
0.0
 46
0.0
 47
0.0
 48
0.0
140
3.0
141
-5.0
142
0.0
143
25.399999999999999
144
-1.0
145
0.0
146
1.0
147
1.0
 71
     0
 72
     0
 73
     0
 74
     1
 75
     0
 76
     0
 77
     1
 78
     8
170
     0
171
     0
172
     1
173
     0
174
     0
175
     0
176
   256
177
   256
178
     2
  0
DIMSTYLE
  2
BYGG-023940$0$STANDARD
 70
     0
  3

  4

  5

  6

  7

 40
1.0
 41
0.18
 42
0.0625
 43
0.38
 44
0.18
 45
0.0
 46
0.0
 47
0.0
 48
0.0
140
0.18
141
0.09
142
0.0
143
25.399999999999999
144
1.0
145
0.0
146
1.0
147
0.09
 71
     0
 72
     0
 73
     1
 74
     1
 75
     0
 76
     0
 77
     0
 78
     0
170
     0
171
     2
172
     0
173
     0
174
     0
175
     0
176
     0
177
     0
178
     0
  0
DIMSTYLE
  2
BYGG-023940$0$MASKIN
 70
     0
  3

  4

  5

  6

  7

 40
0.0
 41
3.0
 42
1.5
 43
10.0
 44
1.5
 45
0.0
 46
0.0
 47
0.0
 48
0.0
140
3.0
141
-5.0
142
0.0
143
25.399999999999999
144
-1.0
145
0.0
146
1.0
147
1.0
 71
     0
 72
     0
 73
     0
 74
     0
 75
     0
 76
     0
 77
     1
 78
     8
170
     0
171
     0
172
     1
173
     0
174
     0
175
     0
176
   256
177
   256
178
     2
  0
DIMSTYLE
  2
BYGG-025110$0$STANDARD
 70
     0
  3

  4

  5

  6

  7

 40
1.0
 41
0.18
 42
0.0625
 43
0.38
 44
0.18
 45
0.0
 46
0.0
 47
0.0
 48
0.0
140
0.18
141
0.09
142
0.0
143
25.399999999999999
144
1.0
145
0.0
146
1.0
147
0.09
 71
     0
 72
     0
 73
     1
 74
     1
 75
     0
 76
     0
 77
     0
 78
     0
170
     0
171
     2
172
     0
173
     0
174
     0
175
     0
176
     0
177
     0
178
     0
  0
DIMSTYLE
  2
BYGG-025110$0$MASKIN
 70
     0
  3

  4

  5

  6

  7

 40
0.0
 41
3.0
 42
1.5
 43
10.0
 44
1.5
 45
0.0
 46
0.0
 47
0.0
 48
0.0
140
3.0
141
-5.0
142
0.0
143
25.399999999999999
144
-1.0
145
0.0
146
1.0
147
1.0
 71
     0
 72
     0
 73
     0
 74
     0
 75
     0
 76
     0
 77
     1
 78
     8
170
     0
171
     0
172
     1
173
     0
174
     0
175
     0
176
   256
177
   256
178
     2
  0
DIMSTYLE
  2
BYGG-020805$0$STANDARD
 70
     0
  3

  4

  5

  6

  7

 40
1.0
 41
0.18
 42
0.0625
 43
0.38
 44
0.18
 45
0.0
 46
0.0
 47
0.0
 48
0.0
140
0.18
141
0.09
142
0.0
143
25.399999999999999
144
1.0
145
0.0
146
1.0
147
0.09
 71
     0
 72
     0
 73
     1
 74
     1
 75
     0
 76
     0
 77
     0
 78
     0
170
     0
171
     2
172
     0
173
     0
174
     0
175
     0
176
     0
177
     0
178
     0
  0
DIMSTYLE
  2
BYGG-020805$0$MASKIN
 70
     0
  3

  4

  5

  6

  7

 40
0.0
 41
3.0
 42
1.5
 43
10.0
 44
1.5
 45
0.0
 46
0.0
 47
0.0
 48
0.0
140
3.0
141
-5.0
142
0.0
143
25.399999999999999
144
-1.0
145
0.0
146
1.0
147
1.0
 71
     0
 72
     0
 73
     0
 74
     0
 75
     0
 76
     0
 77
     1
 78
     8
170
     0
171
     0
172
     1
173
     0
174
     0
175
     0
176
   256
177
   256
178
     2
  0
DIMSTYLE
  2
BYGG-014117$0$MASKIN
 70
     0
  3

  4

  5

  6

  7

 40
0.0
 41
3.0
 42
1.5
 43
10.0
 44
1.5
 45
0.0
 46
0.0
 47
0.0
 48
0.0
140
3.0
141
-5.0
142
0.0
143
25.399999999999999
144
-1.0
145
0.0
146
1.0
147
1.0
 71
     0
 72
     0
 73
     0
 74
     0
 75
     0
 76
     0
 77
     1
 78
     8
170
     0
171
     0
172
     1
173
     0
174
     0
175
     0
176
   256
177
   256
178
   256
  0
DIMSTYLE
  2
BYGG-022681$0$STANDARD
 70
     0
  3

  4

  5

  6

  7

 40
1.0
 41
0.18
 42
0.0625
 43
0.38
 44
0.18
 45
0.0
 46
0.0
 47
0.0
 48
0.0
140
0.18
141
0.09
142
0.0
143
25.399999999999999
144
1.0
145
0.0
146
1.0
147
0.09
 71
     0
 72
     0
 73
     1
 74
     1
 75
     0
 76
     0
 77
     0
 78
     0
170
     0
171
     2
172
     0
173
     0
174
     0
175
     0
176
     0
177
     0
178
     0
  0
DIMSTYLE
  2
BYGG-022681$0$MASKIN
 70
     0
  3

  4

  5

  6

  7

 40
0.0
 41
3.0
 42
1.5
 43
10.0
 44
1.5
 45
0.0
 46
0.0
 47
0.0
 48
0.0
140
3.0
141
-5.0
142
0.0
143
25.399999999999999
144
-1.0
145
0.0
146
1.0
147
1.0
 71
     0
 72
     0
 73
     0
 74
     0
 75
     0
 76
     0
 77
     1
 78
     8
170
     0
171
     0
172
     1
173
     0
174
     0
175
     0
176
   256
177
   256
178
     2
  0
DIMSTYLE
  2
BYGG-014306$0$STANDARD
 70
     0
  3

  4

  5

  6

  7

 40
1.0
 41
0.18
 42
0.0625
 43
0.38
 44
0.18
 45
0.0
 46
0.0
 47
0.0
 48
0.0
140
0.18
141
0.09
142
0.0
143
25.399999999999999
144
1.0
145
0.0
146
1.0
147
0.09
 71
     0
 72
     0
 73
     1
 74
     1
 75
     0
 76
     0
 77
     0
 78
     0
170
     0
171
     2
172
     0
173
     0
174
     0
175
     0
176
     0
177
     0
178
     0
  0
DIMSTYLE
  2
BYGG-023717$0$STANDARD
 70
     0
  3

  4

  5

  6

  7

 40
1.0
 41
0.18
 42
0.0625
 43
0.38
 44
0.18
 45
0.0
 46
0.0
 47
0.0
 48
0.0
140
0.18
141
0.09
142
0.0
143
25.399999999999999
144
1.0
145
0.0
146
1.0
147
0.09
 71
     0
 72
     0
 73
     1
 74
     1
 75
     0
 76
     0
 77
     0
 78
     0
170
     0
171
     2
172
     0
173
     0
174
     0
175
     0
176
     0
177
     0
178
     0
  0
DIMSTYLE
  2
BYGG-023717$0$MASKIN
 70
     0
  3

  4

  5

  6

  7

 40
0.0
 41
3.0
 42
1.5
 43
10.0
 44
1.5
 45
0.0
 46
0.0
 47
0.0
 48
0.0
140
3.0
141
-5.0
142
0.0
143
25.399999999999999
144
-1.0
145
0.0
146
1.0
147
1.0
 71
     0
 72
     0
 73
     0
 74
     0
 75
     0
 76
     0
 77
     1
 78
     8
170
     0
171
     0
172
     1
173
     0
174
     0
175
     0
176
   256
177
   256
178
     2
  0
DIMSTYLE
  2
BYGG-023714$0$STANDARD
 70
     0
  3

  4

  5

  6

  7

 40
1.0
 41
0.18
 42
0.0625
 43
0.38
 44
0.18
 45
0.0
 46
0.0
 47
0.0
 48
0.0
140
0.18
141
0.09
142
0.0
143
25.399999999999999
144
1.0
145
0.0
146
1.0
147
0.09
 71
     0
 72
     0
 73
     1
 74
     1
 75
     0
 76
     0
 77
     0
 78
     0
170
     0
171
     2
172
     0
173
     0
174
     0
175
     0
176
     0
177
     0
178
     0
  0
DIMSTYLE
  2
BYGG-023714$0$MASKIN
 70
     0
  3

  4

  5

  6

  7

 40
0.0
 41
3.0
 42
1.5
 43
10.0
 44
1.5
 45
0.0
 46
0.0
 47
0.0
 48
0.0
140
3.0
141
-5.0
142
0.0
143
25.399999999999999
144
-1.0
145
0.0
146
1.0
147
1.0
 71
     0
 72
     0
 73
     0
 74
     0
 75
     0
 76
     0
 77
     1
 78
     8
170
     0
171
     0
172
     1
173
     0
174
     0
175
     0
176
   256
177
   256
178
     2
  0
DIMSTYLE
  2
BYGG-019338$0$STANDARD
 70
     0
  3

  4

  5

  6

  7

 40
1.0
 41
0.18
 42
0.0625
 43
0.38
 44
0.18
 45
0.0
 46
0.0
 47
0.0
 48
0.0
140
0.18
141
0.09
142
0.0
143
25.399999999999999
144
1.0
145
0.0
146
1.0
147
0.09
 71
     0
 72
     0
 73
     1
 74
     1
 75
     0
 76
     0
 77
     0
 78
     0
170
     0
171
     2
172
     0
173
     0
174
     0
175
     0
176
     0
177
     0
178
     0
  0
DIMSTYLE
  2
BYGG-019338$0$MASKIN
 70
     0
  3

  4

  5

  6

  7

 40
0.0
 41
3.0
 42
1.5
 43
10.0
 44
1.5
 45
0.0
 46
0.0
 47
0.0
 48
0.0
140
3.0
141
-5.0
142
0.0
143
25.399999999999999
144
-1.0
145
0.0
146
1.0
147
1.0
 71
     0
 72
     0
 73
     0
 74
     0
 75
     0
 76
     0
 77
     1
 78
     8
170
     0
171
     0
172
     1
173
     0
174
     0
175
     0
176
   256
177
   256
178
     2
  0
DIMSTYLE
  2
BYGG-033246$0$STANDARD
 70
     0
  3

  4

  5

  6

  7

 40
1.0
 41
0.18
 42
0.0625
 43
0.38
 44
0.18
 45
0.0
 46
0.0
 47
0.0
 48
0.0
140
0.18
141
0.09
142
0.0
143
25.399999999999999
144
1.0
145
0.0
146
1.0
147
0.09
 71
     0
 72
     0
 73
     1
 74
     1
 75
     0
 76
     0
 77
     0
 78
     0
170
     0
171
     2
172
     0
173
     0
174
     0
175
     0
176
     0
177
     0
178
     0
  0
DIMSTYLE
  2
BYGG-033246$0$MASKIN
 70
     0
  3

  4

  5

  6

  7

 40
0.0
 41
3.0
 42
1.5
 43
10.0
 44
1.5
 45
0.0
 46
0.0
 47
0.0
 48
0.0
140
3.0
141
-5.0
142
0.0
143
25.399999999999999
144
-1.0
145
0.0
146
1.0
147
1.0
 71
     0
 72
     0
 73
     0
 74
     0
 75
     0
 76
     0
 77
     1
 78
     8
170
     0
171
     0
172
     1
173
     0
174
     0
175
     0
176
   256
177
   256
178
     2
  0
DIMSTYLE
  2
BYGG-024943$0$STANDARD
 70
     0
  3

  4

  5

  6

  7

 40
1.0
 41
0.18
 42
0.0625
 43
0.38
 44
0.18
 45
0.0
 46
0.0
 47
0.0
 48
0.0
140
0.18
141
0.09
142
0.0
143
25.399999999999999
144
1.0
145
0.0
146
1.0
147
0.09
 71
     0
 72
     0
 73
     1
 74
     1
 75
     0
 76
     0
 77
     0
 78
     0
170
     0
171
     2
172
     0
173
     0
174
     0
175
     0
176
     0
177
     0
178
     0
  0
DIMSTYLE
  2
BYGG-024943$0$MASKIN
 70
     0
  3

  4

  5

  6

  7

 40
0.0
 41
3.0
 42
1.5
 43
10.0
 44
1.5
 45
0.0
 46
0.0
 47
0.0
 48
0.0
140
3.0
141
-5.0
142
0.0
143
25.399999999999999
144
-1.0
145
0.0
146
1.0
147
1.0
 71
     0
 72
     0
 73
     0
 74
     0
 75
     0
 76
     0
 77
     1
 78
     8
170
     0
171
     0
172
     1
173
     0
174
     0
175
     0
176
   256
177
   256
178
     2
  0
DIMSTYLE
  2
BYGG-020132$0$MASKIN
 70
     0
  3

  4

  5

  6

  7

 40
0.0
 41
3.0
 42
1.5
 43
10.0
 44
1.5
 45
0.0
 46
0.0
 47
0.0
 48
0.0
140
3.0
141
-5.0
142
0.0
143
25.399999999999999
144
-1.0
145
0.0
146
1.0
147
1.0
 71
     0
 72
     0
 73
     0
 74
     0
 75
     0
 76
     0
 77
     1
 78
     8
170
     0
171
     0
172
     1
173
     0
174
     0
175
     0
176
   256
177
   256
178
     2
  0
DIMSTYLE
  2
BYGG-020132$0$STANDARD
 70
     0
  3

  4

  5

  6

  7

 40
1.0
 41
0.18
 42
0.0625
 43
0.38
 44
0.18
 45
0.0
 46
0.0
 47
0.0
 48
0.0
140
0.18
141
0.09
142
0.0
143
25.399999999999999
144
1.0
145
0.0
146
1.0
147
0.09
 71
     0
 72
     0
 73
     1
 74
     1
 75
     0
 76
     0
 77
     0
 78
     0
170
     0
171
     2
172
     0
173
     0
174
     0
175
     0
176
     0
177
     0
178
     0
  0
DIMSTYLE
  2
BYGG-028980$0$STANDARD
 70
     0
  3

  4

  5

  6

  7

 40
1.0
 41
0.18
 42
0.0625
 43
0.38
 44
0.18
 45
0.0
 46
0.0
 47
0.0
 48
0.0
140
0.18
141
0.09
142
0.0
143
25.399999999999999
144
1.0
145
0.0
146
1.0
147
0.09
 71
     0
 72
     0
 73
     1
 74
     1
 75
     0
 76
     0
 77
     0
 78
     0
170
     0
171
     2
172
     0
173
     0
174
     0
175
     0
176
     0
177
     0
178
     0
  0
DIMSTYLE
  2
BYGG-028980$0$MASKIN
 70
     0
  3

  4

  5

  6

  7

 40
0.0
 41
3.0
 42
1.5
 43
10.0
 44
1.5
 45
0.0
 46
0.0
 47
0.0
 48
0.0
140
3.0
141
-5.0
142
0.0
143
25.399999999999999
144
-1.0
145
0.0
146
1.0
147
1.0
 71
     0
 72
     0
 73
     0
 74
     0
 75
     0
 76
     0
 77
     1
 78
     8
170
     0
171
     0
172
     1
173
     0
174
     0
175
     0
176
   256
177
   256
178
     2
  0
DIMSTYLE
  2
BYGG-026410$0$STANDARD
 70
     0
  3

  4

  5

  6

  7

 40
1.0
 41
0.18
 42
0.0625
 43
0.38
 44
0.18
 45
0.0
 46
0.0
 47
0.0
 48
0.0
140
0.18
141
0.09
142
0.0
143
25.399999999999999
144
1.0
145
0.0
146
1.0
147
0.09
 71
     0
 72
     0
 73
     1
 74
     1
 75
     0
 76
     0
 77
     0
 78
     0
170
     0
171
     2
172
     0
173
     0
174
     0
175
     0
176
     0
177
     0
178
     0
  0
DIMSTYLE
  2
BYGG-026410$0$MASKIN
 70
     0
  3

  4

  5

  6

  7

 40
0.0
 41
3.0
 42
1.5
 43
10.0
 44
1.5
 45
0.0
 46
0.0
 47
0.0
 48
0.0
140
3.0
141
-5.0
142
0.0
143
25.399999999999999
144
-1.0
145
0.0
146
1.0
147
1.0
 71
     0
 72
     0
 73
     0
 74
     0
 75
     0
 76
     0
 77
     1
 78
     8
170
     0
171
     0
172
     1
173
     0
174
     0
175
     0
176
   256
177
   256
178
     2
  0
DIMSTYLE
  2
BYGG-033169$0$STANDARD
 70
     0
  3

  4

  5

  6

  7

 40
1.0
 41
0.18
 42
0.0625
 43
0.38
 44
0.18
 45
0.0
 46
0.0
 47
0.0
 48
0.0
140
0.18
141
0.09
142
0.0
143
25.399999999999999
144
1.0
145
0.0
146
1.0
147
0.09
 71
     0
 72
     0
 73
     1
 74
     1
 75
     0
 76
     0
 77
     0
 78
     0
170
     0
171
     2
172
     0
173
     0
174
     0
175
     0
176
     0
177
     0
178
     0
  0
DIMSTYLE
  2
BYGG-033169$0$MASKIN
 70
     0
  3

  4

  5

  6

  7

 40
0.0
 41
3.0
 42
1.5
 43
10.0
 44
1.5
 45
0.0
 46
0.0
 47
0.0
 48
0.0
140
3.0
141
-5.0
142
0.0
143
25.399999999999999
144
-1.0
145
0.0
146
1.0
147
1.0
 71
     0
 72
     0
 73
     0
 74
     0
 75
     0
 76
     0
 77
     1
 78
     8
170
     0
171
     0
172
     1
173
     0
174
     0
175
     0
176
   256
177
   256
178
     2
  0
DIMSTYLE
  2
BYGG-030185$0$STANDARD
 70
     0
  3

  4

  5

  6

  7

 40
1.0
 41
0.18
 42
0.0625
 43
0.38
 44
0.18
 45
0.0
 46
0.0
 47
0.0
 48
0.0
140
0.18
141
0.09
142
0.0
143
25.399999999999999
144
1.0
145
0.0
146
1.0
147
0.09
 71
     0
 72
     0
 73
     1
 74
     1
 75
     0
 76
     0
 77
     0
 78
     0
170
     0
171
     2
172
     0
173
     0
174
     0
175
     0
176
     0
177
     0
178
     0
  0
DIMSTYLE
  2
BYGG-030185$0$MASKIN
 70
     0
  3

  4

  5

  6

  7

 40
0.0
 41
3.0
 42
1.5
 43
10.0
 44
1.5
 45
0.0
 46
0.0
 47
0.0
 48
0.0
140
3.0
141
-5.0
142
0.0
143
25.399999999999999
144
-1.0
145
0.0
146
1.0
147
1.0
 71
     0
 72
     0
 73
     0
 74
     1
 75
     0
 76
     0
 77
     1
 78
     8
170
     0
171
     0
172
     1
173
     0
174
     0
175
     0
176
   256
177
   256
178
     2
  0
DIMSTYLE
  2
BYGG-024798$0$MASKIN
 70
     0
  3

  4

  5

  6

  7

 40
0.0
 41
3.0
 42
1.5
 43
10.0
 44
1.5
 45
0.0
 46
0.0
 47
0.0
 48
0.0
140
3.0
141
-5.0
142
0.0
143
25.399999999999999
144
-1.0
145
0.0
146
1.0
147
1.0
 71
     0
 72
     0
 73
     0
 74
     0
 75
     0
 76
     0
 77
     1
 78
     8
170
     0
171
     0
172
     1
173
     0
174
     0
175
     0
176
   256
177
   256
178
     2
  0
DIMSTYLE
  2
BYGG-024798$0$STANDARD
 70
     0
  3

  4

  5

  6

  7

 40
1.0
 41
0.18
 42
0.0625
 43
0.38
 44
0.18
 45
0.0
 46
0.0
 47
0.0
 48
0.0
140
0.18
141
0.09
142
0.0
143
25.399999999999999
144
1.0
145
0.0
146
1.0
147
0.09
 71
     0
 72
     0
 73
     1
 74
     1
 75
     0
 76
     0
 77
     0
 78
     0
170
     0
171
     2
172
     0
173
     0
174
     0
175
     0
176
     0
177
     0
178
     0
  0
DIMSTYLE
  2
BYGG-024799$0$MASKIN
 70
     0
  3

  4

  5

  6

  7

 40
0.0
 41
3.0
 42
1.5
 43
10.0
 44
1.5
 45
0.0
 46
0.0
 47
0.0
 48
0.0
140
3.0
141
-5.0
142
0.0
143
25.399999999999999
144
-1.0
145
0.0
146
1.0
147
1.0
 71
     0
 72
     0
 73
     0
 74
     0
 75
     0
 76
     0
 77
     1
 78
     8
170
     0
171
     0
172
     1
173
     0
174
     0
175
     0
176
   256
177
   256
178
     2
  0
DIMSTYLE
  2
BYGG-024799$0$STANDARD
 70
     0
  3

  4

  5

  6

  7

 40
1.0
 41
0.18
 42
0.0625
 43
0.38
 44
0.18
 45
0.0
 46
0.0
 47
0.0
 48
0.0
140
0.18
141
0.09
142
0.0
143
25.399999999999999
144
1.0
145
0.0
146
1.0
147
0.09
 71
     0
 72
     0
 73
     1
 74
     1
 75
     0
 76
     0
 77
     0
 78
     0
170
     0
171
     2
172
     0
173
     0
174
     0
175
     0
176
     0
177
     0
178
     0
  0
DIMSTYLE
  2
BYGG-014089$0$STANDARD
 70
     0
  3

  4

  5

  6

  7

 40
1.0
 41
0.18
 42
0.0625
 43
0.38
 44
0.18
 45
0.0
 46
0.0
 47
0.0
 48
0.0
140
0.18
141
0.09
142
0.0
143
25.399999999999999
144
1.0
145
0.0
146
1.0
147
0.09
 71
     0
 72
     0
 73
     1
 74
     1
 75
     0
 76
     0
 77
     0
 78
     0
170
     0
171
     2
172
     0
173
     0
174
     0
175
     0
176
     0
177
     0
178
     0
  0
DIMSTYLE
  2
BYGG-014108$0$STANDARD
 70
     0
  3

  4

  5

  6

  7

 40
1.0
 41
0.18
 42
0.0625
 43
0.38
 44
0.18
 45
0.0
 46
0.0
 47
0.0
 48
0.0
140
0.18
141
0.09
142
0.0
143
25.399999999999999
144
1.0
145
0.0
146
1.0
147
0.09
 71
     0
 72
     0
 73
     1
 74
     1
 75
     0
 76
     0
 77
     0
 78
     0
170
     0
171
     2
172
     0
173
     0
174
     0
175
     0
176
     0
177
     0
178
     0
  0
DIMSTYLE
  2
BYGG-019611$0$STANDARD
 70
     0
  3

  4

  5

  6

  7

 40
1.0
 41
0.18
 42
0.0625
 43
0.38
 44
0.18
 45
0.0
 46
0.0
 47
0.0
 48
0.0
140
0.18
141
0.09
142
0.0
143
25.399999999999999
144
1.0
145
0.0
146
1.0
147
0.09
 71
     0
 72
     0
 73
     1
 74
     1
 75
     0
 76
     0
 77
     0
 78
     0
170
     0
171
     2
172
     0
173
     0
174
     0
175
     0
176
     0
177
     0
178
     0
  0
DIMSTYLE
  2
BYGG-019611$0$MASKIN
 70
     0
  3

  4

  5

  6

  7

 40
0.0
 41
3.0
 42
1.5
 43
10.0
 44
1.5
 45
0.0
 46
0.0
 47
0.0
 48
0.0
140
3.0
141
-5.0
142
0.0
143
25.399999999999999
144
-1.0
145
0.0
146
1.0
147
1.0
 71
     0
 72
     0
 73
     0
 74
     0
 75
     0
 76
     0
 77
     1
 78
     8
170
     0
171
     0
172
     1
173
     0
174
     0
175
     0
176
   256
177
   256
178
     2
  0
DIMSTYLE
  2
BYGG-025652$0$STANDARD
 70
     0
  3

  4

  5

  6

  7

 40
1.0
 41
0.18
 42
0.0625
 43
0.38
 44
0.18
 45
0.0
 46
0.0
 47
0.0
 48
0.0
140
0.18
141
0.09
142
0.0
143
25.399999999999999
144
1.0
145
0.0
146
1.0
147
0.09
 71
     0
 72
     0
 73
     1
 74
     1
 75
     0
 76
     0
 77
     0
 78
     0
170
     0
171
     2
172
     0
173
     0
174
     0
175
     0
176
     0
177
     0
178
     0
  0
DIMSTYLE
  2
BYGG-025652$0$MASKIN
 70
     0
  3

  4

  5

  6

  7

 40
0.0
 41
3.0
 42
1.5
 43
10.0
 44
1.5
 45
0.0
 46
0.0
 47
0.0
 48
0.0
140
3.0
141
-5.0
142
0.0
143
25.399999999999999
144
-1.0
145
0.0
146
1.0
147
1.0
 71
     0
 72
     0
 73
     0
 74
     0
 75
     0
 76
     0
 77
     1
 78
     8
170
     0
171
     0
172
     1
173
     0
174
     0
175
     0
176
   256
177
   256
178
     2
  0
DIMSTYLE
  2
BYGG-014411$0$MASKIN
 70
     0
  3

  4

  5

  6

  7

 40
0.0
 41
3.0
 42
1.5
 43
10.0
 44
1.5
 45
0.0
 46
0.0
 47
0.0
 48
0.0
140
3.0
141
-5.0
142
0.0
143
25.399999999999999
144
-1.0
145
0.0
146
1.0
147
1.0
 71
     0
 72
     0
 73
     0
 74
     0
 75
     0
 76
     0
 77
     1
 78
     8
170
     0
171
     0
172
     1
173
     0
174
     0
175
     0
176
   256
177
   256
178
   256
  0
DIMSTYLE
  2
BYGG-014411$0$STANDARD
 70
     0
  3

  4

  5

  6

  7

 40
1.0
 41
0.18
 42
0.0625
 43
0.38
 44
0.18
 45
0.0
 46
0.0
 47
0.0
 48
0.0
140
0.18
141
0.09
142
0.0
143
25.399999999999999
144
1.0
145
0.0
146
1.0
147
0.09
 71
     0
 72
     0
 73
     1
 74
     1
 75
     0
 76
     0
 77
     0
 78
     0
170
     0
171
     2
172
     0
173
     0
174
     0
175
     0
176
     0
177
     0
178
     0
  0
ENDTAB
  0
ENDSEC
  0
SECTION
  2
BLOCKS
  0
BLOCK
  8
0
  2
$MODEL_SPACE
 70
     0
 10
0.0
 20
0.0
 30
0.0
  3
$MODEL_SPACE
  1

  0
ENDBLK
  5
37
  8
0
  0
BLOCK
 67
     1
  8
0
  2
$PAPER_SPACE
 70
     0
 10
0.0
 20
0.0
 30
0.0
  3
$PAPER_SPACE
  1

  0
ENDBLK
  5
35
 67
     1
  8
0
  0
BLOCK
  8
0
  2
*D86
 70
     1
 10
0.0
 20
0.0
 30
0.0
  3
*D86
  1

  0
LINE
  5
1645
  8
SAPA_MATT
 10
82.999999999943299
 20
-91.498715170683099
 30
0.0
 11
82.999999999943299
 21
-135.99999999901041
 31
0.0
  0
LINE
  5
1646
  8
SAPA_MATT
 10
25.000000000097859
 20
-115.4999999990104
 30
0.0
 11
25.000000000097859
 21
-135.99999999901041
 31
0.0
  0
LINE
  5
1647
  8
SAPA_MATT
 10
79.999999999943284
 20
-134.49999999901041
 30
0.0
 11
28.000000000097859
 21
-134.49999999901041
 31
0.0
  0
SOLID
  5
1648
  8
SAPA_MATT
 10
79.999999999943284
 20
-133.99999999901041
 30
0.0
 11
79.999999999943284
 21
-134.99999999901041
 31
0.0
 12
82.999999999943299
 22
-134.49999999901041
 32
0.0
 13
82.999999999943299
 23
-134.49999999901041
 33
0.0
  0
SOLID
  5
1649
  8
SAPA_MATT
 10
28.000000000097859
 20
-133.99999999901041
 30
0.0
 11
28.000000000097859
 21
-134.99999999901041
 31
0.0
 12
25.000000000097859
 22
-134.49999999901041
 32
0.0
 13
25.000000000097859
 23
-134.49999999901041
 33
0.0
  0
INSERT
  5
164A
  8
0
  2
*U102
 10
0.0
 20
0.0
 30
0.0
  0
POINT
  5
164B
  8
DEFPOINTS
 62
     0
 10
82.999999999943299
 20
-89.998715170683127
 30
0.0
  0
POINT
  5
164C
  8
DEFPOINTS
 62
     0
 10
25.000000000097859
 20
-113.9999999990104
 30
0.0
  0
POINT
  5
164D
  8
DEFPOINTS
 62
     0
 10
25.000000000097859
 20
-134.49999999901041
 30
0.0
  0
ENDBLK
  5
1601
  8
0
  0
BLOCK
  8
0
  2
*D87
 70
     1
 10
0.0
 20
0.0
 30
0.0
  3
*D87
  1

  0
LINE
  5
163A
  8
SAPA_MATT
 10
82.999999999943299
 20
-91.498715170683099
 30
0.0
 11
82.999999999943299
 21
-135.99999999901041
 31
0.0
  0
LINE
  5
163B
  8
SAPA_MATT
 10
87.999999702178201
 20
-91.498715301570044
 30
0.0
 11
87.999999702178201
 21
-135.99999999901041
 31
0.0
  0
LINE
  5
163C
  8
SAPA_MATT
 10
79.999999999943284
 20
-134.49999999901041
 30
0.0
 11
76.999999999943299
 21
-134.49999999901041
 31
0.0
  0
LINE
  5
163D
  8
SAPA_MATT
 10
90.999999702178215
 20
-134.49999999901041
 30
0.0
 11
93.999999702178201
 21
-134.49999999901041
 31
0.0
  0
LINE
  5
163E
  8
SAPA_MATT
 10
82.999999999943299
 20
-134.49999999901041
 30
0.0
 11
87.999999702178201
 21
-134.49999999901041
 31
0.0
  0
SOLID
  5
163F
  8
SAPA_MATT
 10
79.999999999943284
 20
-133.99999999901041
 30
0.0
 11
79.999999999943284
 21
-134.99999999901041
 31
0.0
 12
82.999999999943299
 22
-134.49999999901041
 32
0.0
 13
82.999999999943299
 23
-134.49999999901041
 33
0.0
  0
SOLID
  5
1640
  8
SAPA_MATT
 10
90.999999702178215
 20
-133.99999999901041
 30
0.0
 11
90.999999702178215
 21
-134.99999999901041
 31
0.0
 12
87.999999702178201
 22
-134.49999999901041
 32
0.0
 13
87.999999702178201
 23
-134.49999999901041
 33
0.0
  0
INSERT
  5
1641
  8
0
  2
*U101
 10
0.0
 20
0.0
 30
0.0
  0
POINT
  5
1642
  8
DEFPOINTS
 62
     0
 10
82.999999999943299
 20
-89.998715170683127
 30
0.0
  0
POINT
  5
1643
  8
DEFPOINTS
 62
     0
 10
87.999999702178201
 20
-89.998715301570059
 30
0.0
  0
POINT
  5
1644
  8
DEFPOINTS
 62
     0
 10
87.999999702178201
 20
-134.49999999901041
 30
0.0
  0
ENDBLK
  5
160D
  8
0
  0
BLOCK
  8
0
  2
*D88
 70
     1
 10
0.0
 20
0.0
 30
0.0
  3
*D88
  1

  0
LINE
  5
1631
  8
SAPA_MATT
 10
87.999999702178201
 20
-90.998715301570059
 30
0.0
 11
87.999999702178201
 21
-135.99999999901041
 31
0.0
  0
LINE
  5
1632
  8
SAPA_MATT
 10
125.4999997021782
 20
-89.000000006768261
 30
0.0
 11
125.4999997021782
 21
-135.99999999901041
 31
0.0
  0
LINE
  5
1633
  8
SAPA_MATT
 10
90.999999702178215
 20
-134.49999999901041
 30
0.0
 11
122.4999997021782
 21
-134.49999999901041
 31
0.0
  0
SOLID
  5
1634
  8
SAPA_MATT
 10
90.999999702178215
 20
-133.99999999901041
 30
0.0
 11
90.999999702178215
 21
-134.99999999901041
 31
0.0
 12
87.999999702178201
 22
-134.49999999901041
 32
0.0
 13
87.999999702178201
 23
-134.49999999901041
 33
0.0
  0
SOLID
  5
1635
  8
SAPA_MATT
 10
122.4999997021782
 20
-133.99999999901041
 30
0.0
 11
122.4999997021782
 21
-134.99999999901041
 31
0.0
 12
125.4999997021782
 22
-134.49999999901041
 32
0.0
 13
125.4999997021782
 23
-134.49999999901041
 33
0.0
  0
INSERT
  5
1636
  8
0
  2
*U100
 10
0.0
 20
0.0
 30
0.0
  0
POINT
  5
1637
  8
DEFPOINTS
 62
     0
 10
87.999999702178201
 20
-89.498715301570059
 30
0.0
  0
POINT
  5
1638
  8
DEFPOINTS
 62
     0
 10
125.4999997021782
 20
-87.500000006768246
 30
0.0
  0
POINT
  5
1639
  8
DEFPOINTS
 62
     0
 10
125.4999997021782
 20
-134.49999999901041
 30
0.0
  0
ENDBLK
  5
161B
  8
0
  0
BLOCK
  8
0
  2
*D89
 70
     1
 10
0.0
 20
0.0
 30
0.0
  3
*D89
  1

  0
LINE
  5
164E
  8
SAPA_MATT
 10
-25.000000000000909
 20
-115.4999999990105
 30
0.0
 11
-25.000000000000909
 21
-135.99999999901041
 31
0.0
  0
LINE
  5
164F
  8
SAPA_MATT
 10
24.999999999999091
 20
-115.4999999990105
 30
0.0
 11
24.999999999999091
 21
-135.99999999901041
 31
0.0
  0
LINE
  5
1650
  8
SAPA_MATT
 10
-22.000000000000909
 20
-134.49999999901041
 30
0.0
 11
21.999999999999091
 21
-134.49999999901041
 31
0.0
  0
SOLID
  5
1651
  8
SAPA_MATT
 10
-22.000000000000909
 20
-133.99999999901041
 30
0.0
 11
-22.000000000000909
 21
-134.99999999901041
 31
0.0
 12
-25.000000000000909
 22
-134.49999999901041
 32
0.0
 13
-25.000000000000909
 23
-134.49999999901041
 33
0.0
  0
SOLID
  5
1652
  8
SAPA_MATT
 10
21.999999999999091
 20
-133.99999999901041
 30
0.0
 11
21.999999999999091
 21
-134.99999999901041
 31
0.0
 12
24.999999999999091
 22
-134.49999999901041
 32
0.0
 13
24.999999999999091
 23
-134.49999999901041
 33
0.0
  0
INSERT
  5
1653
  8
0
  2
*U103
 10
0.0
 20
0.0
 30
0.0
  0
POINT
  5
1654
  8
DEFPOINTS
 62
     0
 10
-25.000000000000909
 20
-113.9999999990104
 30
0.0
  0
POINT
  5
1655
  8
DEFPOINTS
 62
     0
 10
24.999999999999091
 20
-113.9999999990104
 30
0.0
  0
POINT
  5
1656
  8
DEFPOINTS
 62
     0
 10
24.999999999999091
 20
-134.49999999901041
 30
0.0
  0
ENDBLK
  5
1627
  8
0
  0
BLOCK
  8
0
  2
*U90
 70
     1
 10
0.0
 20
0.0
 30
0.0
  3
*U90
  1

  0
TEXT
  5
16C0
  8
SAPA_ARTIKELNR
 10
-6.4303857324235638
 20
66.451161059970673
 30
0.0
 40
3.5
  1
68654
  7
ISO
  0
ENDBLK
  5
16C2
  8
0
  0
BLOCK
  8
0
  2
*U91
 70
     1
 10
0.0
 20
0.0
 30
0.0
  3
*U91
  1

  0
TEXT
  5
16C4
  8
SAPA_ARTIKELNR
 10
-6.4303857324235638
 20
-101.5960903078487
 30
0.0
 40
3.5
  1
42848
  7
ISO
  0
ENDBLK
  5
16C6
  8
0
  0
BLOCK
  8
0
  2
*U92
 70
     1
 10
0.0
 20
0.0
 30
0.0
  3
*U92
  1

  0
TEXT
  5
16C8
  8
SAPA_ARTIKELNR
 10
-6.4303857324235638
 20
-119.65976634969449
 30
0.0
 40
3.5
  1
42227
  7
ISO
  0
ENDBLK
  5
16CA
  8
0
  0
BLOCK
  8
0
  2
*U93
 70
     1
 10
0.0
 20
0.0
 30
0.0
  3
*U93
  1

  0
TEXT
  5
16DB
  8
SAPA_ARTIKELNR
 10
35.859468140429271
 20
-2.5684306489659781
 30
0.0
 40
3.5
  1
86201
  7
ISO
  0
ENDBLK
  5
16DD
  8
0
  0
BLOCK
  8
0
  2
*U94
 70
     1
 10
0.0
 20
0.0
 30
0.0
  3
*U94
  1

  0
TEXT
  5
16DF
  8
SAPA_ARTIKELNR
 10
67.661931768624754
 20
7.1845537462843581
 30
0.0
 40
3.5
  1
86302
  7
ISO
  0
ENDBLK
  5
16E1
  8
0
  0
BLOCK
  8
0
  2
*U95
 70
     1
 10
0.0
 20
0.0
 30
0.0
  3
*U95
  1

  0
TEXT
  5
16E3
  8
SAPA_ARTIKELNR
 10
108.797673407302
 20
-4.3752931132519057
 30
0.0
 40
3.5
  1
42726
  7
ISO
  0
ENDBLK
  5
16E5
  8
0
  0
BLOCK
  8
0
  2
*U96
 70
     1
 10
0.0
 20
0.0
 30
0.0
  3
*U96
  1

  0
SOLID
  5
256D
  8
SAPA_FOGBAND
  6
CONTINUOUS
 10
18.614660706669842
 20
-92.382617247040926
 30
0.0
 11
18.434383142896639
 21
-92.457290658947372
 31
0.0
 12
18.794938270443041
 22
-92.457290658947372
 32
0.0
 13
18.794938270443041
 23
-92.457290658947372
 33
0.0
210
0.0
220
0.0
230
1.0
  0
SOLID
  5
256E
  8
SAPA_FOGBAND
  6
CONTINUOUS
 10
18.434383142896639
 20
-92.457290658947372
 30
0.0
 11
18.35970973099019
 21
-92.637568222720574
 31
0.0
 12
18.869611682349479
 22
-92.637568222720574
 32
0.0
 13
18.869611682349479
 23
-92.637568222720574
 33
0.0
210
0.0
220
0.0
230
1.0
  0
SOLID
  5
256F
  8
SAPA_FOGBAND
  6
CONTINUOUS
 10
-18.434383142896639
 20
-92.457290658947372
 30
0.0
 11
-18.794938270443041
 21
-92.457290658947372
 31
0.0
 12
-18.869611682349479
 22
-92.637568222720574
 32
0.0
 13
-18.869611682349479
 23
-92.637568222720574
 33
0.0
210
0.0
220
0.0
230
-1.0
  0
SOLID
  5
2570
  8
SAPA_FOGBAND
  6
CONTINUOUS
 10
-18.434383142896639
 20
-92.817845786493777
 30
0.0
 11
-18.794938270443041
 21
-92.817845786493777
 31
0.0
 12
-18.614660706669842
 22
-92.892519198400208
 32
0.0
 13
-18.614660706669842
 23
-92.892519198400208
 33
0.0
210
0.0
220
0.0
230
-1.0
  0
SOLID
  5
2571
  8
SAPA_FOGBAND
  6
CONTINUOUS
 10
18.35970973099019
 20
-92.637568222720574
 30
0.0
 11
18.434383142896639
 21
-92.817845786493777
 31
0.0
 12
18.794938270443041
 22
-92.817845786493777
 32
0.0
 13
18.794938270443041
 23
-92.817845786493777
 33
0.0
210
0.0
220
0.0
230
1.0
  0
SOLID
  5
2572
  8
SAPA_FOGBAND
  6
CONTINUOUS
 10
-18.35970973099019
 20
-92.637568222720574
 30
0.0
 11
-18.869611682349479
 21
-92.637568222720574
 31
0.0
 12
-18.794938270443041
 22
-92.817845786493777
 32
0.0
 13
-18.794938270443041
 23
-92.817845786493777
 33
0.0
210
0.0
220
0.0
230
-1.0
  0
LINE
  5
2573
  8
SAPA_FOGBAND
  6
CONTINUOUS
 10
18.614660706669842
 20
-92.382617247040926
 30
0.0
 11
18.434383142896639
 21
-92.457290658947372
 31
0.0
  0
LINE
  5
2574
  8
SAPA_FOGBAND
  6
CONTINUOUS
 10
18.794938270443041
 20
-92.457290658947372
 30
0.0
 11
18.614660706669842
 21
-92.382617247040926
 31
0.0
  0
LINE
  5
2575
  8
SAPA_FOGBAND
  6
CONTINUOUS
 10
18.434383142896639
 20
-92.457290658947372
 30
0.0
 11
18.35970973099019
 21
-92.637568222720574
 31
0.0
  0
LINE
  5
2576
  8
SAPA_FOGBAND
  6
CONTINUOUS
 10
18.794938270443041
 20
-92.457290658947372
 30
0.0
 11
18.869611682349479
 21
-92.637568222720574
 31
0.0
  0
LINE
  5
2577
  8
SAPA_FOGBAND
  6
CONTINUOUS
 10
18.794938270443041
 20
-92.817845786493777
 30
0.0
 11
18.614660706669842
 21
-92.892519198400208
 31
0.0
  0
LINE
  5
2578
  8
SAPA_FOGBAND
  6
CONTINUOUS
 10
18.614660706669842
 20
-92.892519198400208
 30
0.0
 11
18.434383142896639
 21
-92.817845786493777
 31
0.0
  0
LINE
  5
2579
  8
SAPA_FOGBAND
  6
CONTINUOUS
 10
18.35970973099019
 20
-92.637568222720574
 30
0.0
 11
18.434383142896639
 21
-92.817845786493777
 31
0.0
  0
LINE
  5
257A
  8
SAPA_FOGBAND
  6
CONTINUOUS
 10
18.869611682349479
 20
-92.637568222720574
 30
0.0
 11
18.794938270443041
 21
-92.817845786493777
 31
0.0
  0
ENDBLK
  5
257C
  8
0
  0
BLOCK
  8
0
  2
*U97
 70
     1
 10
0.0
 20
0.0
 30
0.0
  3
*U97
  1

  0
SOLID
  5
25EB
  8
SAPA_FOGBAND
  6
CONTINUOUS
 10
-18.640952594486858
 20
-92.382617244086163
 30
0.0
 11
-18.821230158260061
 21
-92.457290655992594
 31
0.0
 12
-18.460675030713659
 22
-92.457290655992594
 32
0.0
 13
-18.460675030713659
 23
-92.457290655992594
 33
0.0
210
0.0
220
0.0
230
1.0
  0
SOLID
  5
25EC
  8
SAPA_FOGBAND
  6
CONTINUOUS
 10
-18.821230158260061
 20
-92.457290655992594
 30
0.0
 11
-18.895903570166499
 21
-92.637568219765797
 31
0.0
 12
-18.386001618807221
 22
-92.637568219765797
 32
0.0
 13
-18.386001618807221
 23
-92.637568219765797
 33
0.0
210
0.0
220
0.0
230
1.0
  0
SOLID
  5
25ED
  8
SAPA_FOGBAND
  6
CONTINUOUS
 10
18.821230158260061
 20
-92.457290655992594
 30
0.0
 11
18.460675030713659
 21
-92.457290655992594
 31
0.0
 12
18.386001618807221
 22
-92.637568219765797
 32
0.0
 13
18.386001618807221
 23
-92.637568219765797
 33
0.0
210
0.0
220
0.0
230
-1.0
  0
SOLID
  5
25EE
  8
SAPA_FOGBAND
  6
CONTINUOUS
 10
18.821230158260061
 20
-92.817845783538985
 30
0.0
 11
18.460675030713659
 21
-92.817845783538985
 31
0.0
 12
18.640952594486858
 22
-92.892519195445431
 32
0.0
 13
18.640952594486858
 23
-92.892519195445431
 33
0.0
210
0.0
220
0.0
230
-1.0
  0
SOLID
  5
25EF
  8
SAPA_FOGBAND
  6
CONTINUOUS
 10
-18.895903570166499
 20
-92.637568219765797
 30
0.0
 11
-18.821230158260061
 21
-92.817845783538985
 31
0.0
 12
-18.460675030713659
 22
-92.817845783538985
 32
0.0
 13
-18.460675030713659
 23
-92.817845783538985
 33
0.0
210
0.0
220
0.0
230
1.0
  0
SOLID
  5
25F0
  8
SAPA_FOGBAND
  6
CONTINUOUS
 10
18.895903570166499
 20
-92.637568219765797
 30
0.0
 11
18.386001618807221
 21
-92.637568219765797
 31
0.0
 12
18.460675030713659
 22
-92.817845783538985
 32
0.0
 13
18.460675030713659
 23
-92.817845783538985
 33
0.0
210
0.0
220
0.0
230
-1.0
  0
LINE
  5
25F1
  8
SAPA_FOGBAND
  6
CONTINUOUS
 10
-18.640952594486858
 20
-92.382617244086163
 30
0.0
 11
-18.821230158260061
 21
-92.457290655992594
 31
0.0
  0
LINE
  5
25F2
  8
SAPA_FOGBAND
  6
CONTINUOUS
 10
-18.460675030713659
 20
-92.457290655992594
 30
0.0
 11
-18.640952594486858
 21
-92.382617244086163
 31
0.0
  0
LINE
  5
25F3
  8
SAPA_FOGBAND
  6
CONTINUOUS
 10
-18.821230158260061
 20
-92.457290655992594
 30
0.0
 11
-18.895903570166499
 21
-92.637568219765797
 31
0.0
  0
LINE
  5
25F4
  8
SAPA_FOGBAND
  6
CONTINUOUS
 10
-18.460675030713659
 20
-92.457290655992594
 30
0.0
 11
-18.386001618807221
 21
-92.637568219765797
 31
0.0
  0
LINE
  5
25F5
  8
SAPA_FOGBAND
  6
CONTINUOUS
 10
-18.460675030713659
 20
-92.817845783538985
 30
0.0
 11
-18.640952594486858
 21
-92.892519195445431
 31
0.0
  0
LINE
  5
25F6
  8
SAPA_FOGBAND
  6
CONTINUOUS
 10
-18.640952594486858
 20
-92.892519195445431
 30
0.0
 11
-18.821230158260061
 21
-92.817845783538985
 31
0.0
  0
LINE
  5
25F7
  8
SAPA_FOGBAND
  6
CONTINUOUS
 10
-18.895903570166499
 20
-92.637568219765797
 30
0.0
 11
-18.821230158260061
 21
-92.817845783538985
 31
0.0
  0
LINE
  5
25F8
  8
SAPA_FOGBAND
  6
CONTINUOUS
 10
-18.386001618807221
 20
-92.637568219765797
 30
0.0
 11
-18.460675030713659
 21
-92.817845783538985
 31
0.0
  0
ENDBLK
  5
25FA
  8
0
  0
BLOCK
  8
0
  2
*U98
 70
     1
 10
0.0
 20
0.0
 30
0.0
  3
*U98
  1

  0
SOLID
  5
2774
  8
SAPA_FOGBAND
  6
CONTINUOUS
 10
18.614660706669842
 20
-92.382617247040926
 30
0.0
 11
18.434383142896639
 21
-92.457290658947372
 31
0.0
 12
18.794938270443041
 22
-92.457290658947372
 32
0.0
 13
18.794938270443041
 23
-92.457290658947372
 33
0.0
210
0.0
220
0.0
230
1.0
  0
SOLID
  5
2775
  8
SAPA_FOGBAND
  6
CONTINUOUS
 10
18.434383142896639
 20
-92.457290658947372
 30
0.0
 11
18.35970973099019
 21
-92.637568222720574
 31
0.0
 12
18.869611682349479
 22
-92.637568222720574
 32
0.0
 13
18.869611682349479
 23
-92.637568222720574
 33
0.0
210
0.0
220
0.0
230
1.0
  0
SOLID
  5
2776
  8
SAPA_FOGBAND
  6
CONTINUOUS
 10
-18.434383142896639
 20
-92.457290658947372
 30
0.0
 11
-18.794938270443041
 21
-92.457290658947372
 31
0.0
 12
-18.869611682349479
 22
-92.637568222720574
 32
0.0
 13
-18.869611682349479
 23
-92.637568222720574
 33
0.0
210
0.0
220
0.0
230
-1.0
  0
SOLID
  5
2777
  8
SAPA_FOGBAND
  6
CONTINUOUS
 10
-18.434383142896639
 20
-92.817845786493777
 30
0.0
 11
-18.794938270443041
 21
-92.817845786493777
 31
0.0
 12
-18.614660706669842
 22
-92.892519198400208
 32
0.0
 13
-18.614660706669842
 23
-92.892519198400208
 33
0.0
210
0.0
220
0.0
230
-1.0
  0
SOLID
  5
2778
  8
SAPA_FOGBAND
  6
CONTINUOUS
 10
18.35970973099019
 20
-92.637568222720574
 30
0.0
 11
18.434383142896639
 21
-92.817845786493777
 31
0.0
 12
18.794938270443041
 22
-92.817845786493777
 32
0.0
 13
18.794938270443041
 23
-92.817845786493777
 33
0.0
210
0.0
220
0.0
230
1.0
  0
SOLID
  5
2779
  8
SAPA_FOGBAND
  6
CONTINUOUS
 10
-18.35970973099019
 20
-92.637568222720574
 30
0.0
 11
-18.869611682349479
 21
-92.637568222720574
 31
0.0
 12
-18.794938270443041
 22
-92.817845786493777
 32
0.0
 13
-18.794938270443041
 23
-92.817845786493777
 33
0.0
210
0.0
220
0.0
230
-1.0
  0
LINE
  5
277A
  8
SAPA_FOGBAND
  6
CONTINUOUS
 10
18.614660706669842
 20
-92.382617247040926
 30
0.0
 11
18.434383142896639
 21
-92.457290658947372
 31
0.0
  0
LINE
  5
277B
  8
SAPA_FOGBAND
  6
CONTINUOUS
 10
18.794938270443041
 20
-92.457290658947372
 30
0.0
 11
18.614660706669842
 21
-92.382617247040926
 31
0.0
  0
LINE
  5
277C
  8
SAPA_FOGBAND
  6
CONTINUOUS
 10
18.434383142896639
 20
-92.457290658947372
 30
0.0
 11
18.35970973099019
 21
-92.637568222720574
 31
0.0
  0
LINE
  5
277D
  8
SAPA_FOGBAND
  6
CONTINUOUS
 10
18.794938270443041
 20
-92.457290658947372
 30
0.0
 11
18.869611682349479
 21
-92.637568222720574
 31
0.0
  0
LINE
  5
277E
  8
SAPA_FOGBAND
  6
CONTINUOUS
 10
18.794938270443041
 20
-92.817845786493777
 30
0.0
 11
18.614660706669842
 21
-92.892519198400208
 31
0.0
  0
LINE
  5
277F
  8
SAPA_FOGBAND
  6
CONTINUOUS
 10
18.614660706669842
 20
-92.892519198400208
 30
0.0
 11
18.434383142896639
 21
-92.817845786493777
 31
0.0
  0
LINE
  5
2780
  8
SAPA_FOGBAND
  6
CONTINUOUS
 10
18.35970973099019
 20
-92.637568222720574
 30
0.0
 11
18.434383142896639
 21
-92.817845786493777
 31
0.0
  0
LINE
  5
2781
  8
SAPA_FOGBAND
  6
CONTINUOUS
 10
18.869611682349479
 20
-92.637568222720574
 30
0.0
 11
18.794938270443041
 21
-92.817845786493777
 31
0.0
  0
ENDBLK
  5
2783
  8
0
  0
BLOCK
  8
0
  2
*U99
 70
     1
 10
0.0
 20
0.0
 30
0.0
  3
*U99
  1

  0
SOLID
  5
27F2
  8
SAPA_FOGBAND
  6
CONTINUOUS
 10
-18.640952594486858
 20
-92.382617244086163
 30
0.0
 11
-18.821230158260061
 21
-92.457290655992594
 31
0.0
 12
-18.460675030713659
 22
-92.457290655992594
 32
0.0
 13
-18.460675030713659
 23
-92.457290655992594
 33
0.0
210
0.0
220
0.0
230
1.0
  0
SOLID
  5
27F3
  8
SAPA_FOGBAND
  6
CONTINUOUS
 10
-18.821230158260061
 20
-92.457290655992594
 30
0.0
 11
-18.895903570166499
 21
-92.637568219765797
 31
0.0
 12
-18.386001618807221
 22
-92.637568219765797
 32
0.0
 13
-18.386001618807221
 23
-92.637568219765797
 33
0.0
210
0.0
220
0.0
230
1.0
  0
SOLID
  5
27F4
  8
SAPA_FOGBAND
  6
CONTINUOUS
 10
18.821230158260061
 20
-92.457290655992594
 30
0.0
 11
18.460675030713659
 21
-92.457290655992594
 31
0.0
 12
18.386001618807221
 22
-92.637568219765797
 32
0.0
 13
18.386001618807221
 23
-92.637568219765797
 33
0.0
210
0.0
220
0.0
230
-1.0
  0
SOLID
  5
27F5
  8
SAPA_FOGBAND
  6
CONTINUOUS
 10
18.821230158260061
 20
-92.817845783538985
 30
0.0
 11
18.460675030713659
 21
-92.817845783538985
 31
0.0
 12
18.640952594486858
 22
-92.892519195445431
 32
0.0
 13
18.640952594486858
 23
-92.892519195445431
 33
0.0
210
0.0
220
0.0
230
-1.0
  0
SOLID
  5
27F6
  8
SAPA_FOGBAND
  6
CONTINUOUS
 10
-18.895903570166499
 20
-92.637568219765797
 30
0.0
 11
-18.821230158260061
 21
-92.817845783538985
 31
0.0
 12
-18.460675030713659
 22
-92.817845783538985
 32
0.0
 13
-18.460675030713659
 23
-92.817845783538985
 33
0.0
210
0.0
220
0.0
230
1.0
  0
SOLID
  5
27F7
  8
SAPA_FOGBAND
  6
CONTINUOUS
 10
18.895903570166499
 20
-92.637568219765797
 30
0.0
 11
18.386001618807221
 21
-92.637568219765797
 31
0.0
 12
18.460675030713659
 22
-92.817845783538985
 32
0.0
 13
18.460675030713659
 23
-92.817845783538985
 33
0.0
210
0.0
220
0.0
230
-1.0
  0
LINE
  5
27F8
  8
SAPA_FOGBAND
  6
CONTINUOUS
 10
-18.640952594486858
 20
-92.382617244086163
 30
0.0
 11
-18.821230158260061
 21
-92.457290655992594
 31
0.0
  0
LINE
  5
27F9
  8
SAPA_FOGBAND
  6
CONTINUOUS
 10
-18.460675030713659
 20
-92.457290655992594
 30
0.0
 11
-18.640952594486858
 21
-92.382617244086163
 31
0.0
  0
LINE
  5
27FA
  8
SAPA_FOGBAND
  6
CONTINUOUS
 10
-18.821230158260061
 20
-92.457290655992594
 30
0.0
 11
-18.895903570166499
 21
-92.637568219765797
 31
0.0
  0
LINE
  5
27FB
  8
SAPA_FOGBAND
  6
CONTINUOUS
 10
-18.460675030713659
 20
-92.457290655992594
 30
0.0
 11
-18.386001618807221
 21
-92.637568219765797
 31
0.0
  0
LINE
  5
27FC
  8
SAPA_FOGBAND
  6
CONTINUOUS
 10
-18.460675030713659
 20
-92.817845783538985
 30
0.0
 11
-18.640952594486858
 21
-92.892519195445431
 31
0.0
  0
LINE
  5
27FD
  8
SAPA_FOGBAND
  6
CONTINUOUS
 10
-18.640952594486858
 20
-92.892519195445431
 30
0.0
 11
-18.821230158260061
 21
-92.817845783538985
 31
0.0
  0
LINE
  5
27FE
  8
SAPA_FOGBAND
  6
CONTINUOUS
 10
-18.895903570166499
 20
-92.637568219765797
 30
0.0
 11
-18.821230158260061
 21
-92.817845783538985
 31
0.0
  0
LINE
  5
27FF
  8
SAPA_FOGBAND
  6
CONTINUOUS
 10
-18.386001618807221
 20
-92.637568219765797
 30
0.0
 11
-18.460675030713659
 21
-92.817845783538985
 31
0.0
  0
ENDBLK
  5
2801
  8
0
  0
BLOCK
  8
0
  2
*U100
 70
     1
 10
0.0
 20
0.0
 30
0.0
  3
*U100
  1

  0
TEXT
  5
2902
  8
SAPA_MATT
 62
     2
 10
102.5499997021782
 20
-133.49999999901041
 30
0.0
 40
3.5
  1
37.5
  7
ISO
  0
ENDBLK
  5
2904
  8
0
  0
BLOCK
  8
0
  2
*U101
 70
     1
 10
0.0
 20
0.0
 30
0.0
  3
*U101
  1

  0
TEXT
  5
2906
  8
SAPA_MATT
 62
     2
 10
84.274999851060755
 20
-133.49999999901041
 30
0.0
 40
3.5
  1
5
  7
ISO
  0
ENDBLK
  5
2908
  8
0
  0
BLOCK
  8
0
  2
*U102
 70
     1
 10
0.0
 20
0.0
 30
0.0
  3
*U102
  1

  0
TEXT
  5
290A
  8
SAPA_MATT
 62
     2
 10
51.550000000020582
 20
-133.49999999901041
 30
0.0
 40
3.5
  1
58
  7
ISO
  0
ENDBLK
  5
290C
  8
0
  0
BLOCK
  8
0
  2
*U103
 70
     1
 10
0.0
 20
0.0
 30
0.0
  3
*U103
  1

  0
TEXT
  5
290E
  8
SAPA_MATT
 62
     2
 10
-2.4500000000009101
 20
-133.49999999901041
 30
0.0
 40
3.5
  1
50
  7
ISO
  0
ENDBLK
  5
2910
  8
0
  0
ENDSEC
  0
SECTION
  2
ENTITIES
  0
POLYLINE
  5
7C5
  8
SAPA_LIGHT
 66
     1
 10
0.0
 20
0.0
 30
0.0
 70
     1
  0
VERTEX
  5
168C
  8
SAPA_LIGHT
 10
-24.999999999999829
 20
-35.500000000001137
 30
0.0
  0
VERTEX
  5
168D
  8
SAPA_LIGHT
 10
-25.000000000000231
 20
64.499999999998863
 30
0.0
  0
VERTEX
  5
168E
  8
SAPA_LIGHT
 10
24.999999999999769
 20
64.499999999998863
 30
0.0
  0
VERTEX
  5
168F
  8
SAPA_LIGHT
 10
24.999999999999201
 20
-48.4999999990182
 30
0.0
  0
VERTEX
  5
1690
  8
SAPA_LIGHT
 10
4.9999999999997717
 20
-48.499999999002277
 30
0.0
  0
VERTEX
  5
1691
  8
SAPA_LIGHT
 10
4.9999999999996021
 20
-90.499999999011777
 30
0.0
  0
VERTEX
  5
1692
  8
SAPA_LIGHT
 10
24.999999999836749
 20
-90.499999999208171
 30
0.0
  0
VERTEX
  5
1693
  8
SAPA_LIGHT
 10
24.999999999999091
 20
-114.4999999990105
 30
0.0
  0
VERTEX
  5
1694
  8
SAPA_LIGHT
 10
-25.000000000000909
 20
-114.4999999990105
 30
0.0
  0
VERTEX
  5
1695
  8
SAPA_LIGHT
 10
-25.0
 20
-87.499999999010072
 30
0.0
  0
VERTEX
  5
1696
  8
SAPA_LIGHT
 10
-5.0000000000004539
 20
-87.499999999010072
 30
0.0
  0
VERTEX
  5
1697
  8
SAPA_LIGHT
 10
-5.0000000000002274
 20
-35.500000000001137
 30
0.0
  0
SEQEND
  5
1698
  8
SAPA_LIGHT
  0
POLYLINE
  5
7C6
  8
SAPA_LIGHT
 66
     1
 10
0.0
 20
0.0
 30
0.0
  0
VERTEX
  5
1699
  8
SAPA_LIGHT
 10
74.499999999966576
 20
-90.500000003728076
 30
0.0
  0
VERTEX
  5
169A
  8
SAPA_LIGHT
 10
11.862517060944009
 20
-90.500000002721535
 30
0.0
  0
VERTEX
  5
169B
  8
SAPA_LIGHT
 10
11.862517060944009
 20
-48.494512004128808
 30
0.0
  0
VERTEX
  5
169C
  8
SAPA_LIGHT
 10
30.199999999999591
 20
-48.505487993891677
 30
0.0
  0
VERTEX
  5
169D
  8
SAPA_LIGHT
 10
29.99999999999898
 20
-19.388616438581089
 30
0.0
  0
VERTEX
  5
169E
  8
SAPA_LIGHT
 10
29.968745704598629
 20
-16.500000006903122
 30
0.0
  0
VERTEX
  5
169F
  8
SAPA_LIGHT
 10
52.499999999998863
 20
-16.500000006903122
 30
0.0
  0
VERTEX
  5
16A0
  8
SAPA_LIGHT
 10
52.499999999998749
 20
-85.050000007505105
 30
0.0
  0
VERTEX
  5
16A1
  8
SAPA_LIGHT
 10
74.500000000177579
 20
-85.050000007505105
 30
0.0
  0
VERTEX
  5
16A2
  8
SAPA_LIGHT
 10
74.500000000103896
 20
-90.500000003728076
 30
0.0
  0
SEQEND
  5
16A3
  8
SAPA_LIGHT
  0
POLYLINE
  5
7C8
  8
SAPA_LIGHT
 66
     1
 10
0.0
 20
0.0
 30
0.0
  0
VERTEX
  5
16A4
  8
SAPA_LIGHT
 10
135.5000000030644
 20
-39.550000085492456
 30
0.0
  0
VERTEX
  5
16A5
  8
SAPA_LIGHT
 10
105.5000000030644
 20
-39.550000085492456
 30
0.0
  0
VERTEX
  5
16A6
  8
SAPA_LIGHT
 10
105.5000000030639
 20
-81.550000085463935
 30
0.0
  0
VERTEX
  5
16A7
  8
SAPA_LIGHT
 10
135.50000000306389
 20
-81.550000085463935
 30
0.0
  0
SEQEND
  5
16A8
  8
SAPA_LIGHT
  0
POLYLINE
  5
7E8
  8
SAPA_LIGHT
 66
     1
 10
0.0
 20
0.0
 30
0.0
 70
     1
  0
VERTEX
  5
16A9
  8
SAPA_LIGHT
 10
100.5000000030642
 20
-16.767949203567749
 30
0.0
  0
VERTEX
  5
16AA
  8
SAPA_LIGHT
 10
100.5000000030642
 20
-18.000000005793421
 30
0.0
  0
VERTEX
  5
16AB
  8
SAPA_LIGHT
 10
122.5000000030779
 20
-18.000000005793421
 30
0.0
  0
VERTEX
  5
16AC
  8
SAPA_LIGHT
 10
122.5000000030779
 20
-39.550000085494617
 30
0.0
  0
VERTEX
  5
16AD
  8
SAPA_LIGHT
 10
100.1948776362608
 20
-39.550000085494617
 30
0.0
  0
VERTEX
  5
16AE
  8
SAPA_LIGHT
 10
100.1948776362608
 20
-81.550000085463935
 30
0.0
  0
VERTEX
  5
16AF
  8
SAPA_LIGHT
 10
122.5000000032433
 20
-81.550000085463978
 30
0.0
  0
VERTEX
  5
16B0
  8
SAPA_LIGHT
 10
122.5000000030314
 20
-90.500000007534254
 30
0.0
  0
VERTEX
  5
16B1
  8
SAPA_LIGHT
 10
79.499999999967372
 20
-90.500000007521635
 30
0.0
  0
VERTEX
  5
16B2
  8
SAPA_LIGHT
 10
79.499999999967372
 20
-85.050000007505034
 30
0.0
  0
VERTEX
  5
16B3
  8
SAPA_LIGHT
 10
72.500000000041723
 20
-85.050000007505105
 30
0.0
  0
VERTEX
  5
16B4
  8
SAPA_LIGHT
 10
72.500000000041723
 20
-71.853716961445798
 30
0.0
  0
VERTEX
  5
16B5
  8
SAPA_LIGHT
 10
66.500000000041496
 20
-71.853716961445855
 30
0.0
  0
VERTEX
  5
16B6
  8
SAPA_LIGHT
 10
66.50000000004195
 20
-38.500000010612503
 30
0.0
  0
VERTEX
  5
16B7
  8
SAPA_LIGHT
 10
64.000000000042405
 20
-38.500000010612503
 30
0.0
  0
VERTEX
  5
16B8
  8
SAPA_LIGHT
 10
64.000000000042405
 20
-16.500000006903122
 30
0.0
  0
VERTEX
  5
16B9
  8
SAPA_LIGHT
 10
46.50000000004195
 20
-16.500000006903122
 30
0.0
  0
VERTEX
  5
16BA
  8
SAPA_LIGHT
 10
46.50000000004195
 20
-7.0000000024177211
 30
0.0
  0
VERTEX
  5
16BB
  8
SAPA_LIGHT
 10
89.241941785629706
 20
-7.0000000071514128
 30
0.0
  0
VERTEX
  5
16BC
  8
SAPA_LIGHT
 10
97.901828296234044
 20
-11.999834608119039
 30
0.0
  0
VERTEX
  5
16BD
  8
SAPA_LIGHT
 10
100.36602540684849
 20
-16.267949203567468
 30
0.0
  0
SEQEND
  5
16BE
  8
SAPA_LIGHT
  0
INSERT
  5
7F5
  8
0
  2
*U90
 10
0.0
 20
0.0
 30
0.0
  0
INSERT
  5
7F6
  8
0
  2
*U91
 10
0.0
 20
0.0
 30
0.0
  0
INSERT
  5
7F7
  8
0
  2
*U92
 10
0.0
 20
0.0
 30
0.0
  0
POLYLINE
  5
980
  8
SAPA_LIGHT
 66
     1
 10
0.0
 20
0.0
 30
0.0
  0
VERTEX
  5
16CB
  8
SAPA_LIGHT
 10
-75.000000000000284
 20
62.499999999998749
 30
0.0
  0
VERTEX
  5
16CC
  8
SAPA_LIGHT
 10
-26.000000000000281
 20
62.499999999998749
 30
0.0
  0
VERTEX
  5
16CD
  8
SAPA_LIGHT
 10
-26.000000000000281
 20
50.999999999998629
 30
0.0
  0
VERTEX
  5
16CE
  8
SAPA_LIGHT
 10
-75.000000000000284
 20
50.999999999998629
 30
0.0
  0
SEQEND
  5
16CF
  8
SAPA_LIGHT
  0
POLYLINE
  5
981
  8
SAPA_LIGHT
 66
     1
 10
0.0
 20
0.0
 30
0.0
  0
VERTEX
  5
16D0
  8
SAPA_LIGHT
 10
-75.522593981593843
 20
-35.500000000001137
 30
0.0
  0
VERTEX
  5
16D1
  8
SAPA_LIGHT
 10
-14.03511389911244
 20
-35.506403657189203
 30
0.0
  0
VERTEX
  5
16D2
  8
SAPA_LIGHT
 10
-14.035113899112501
 20
-43.500000000001137
 30
0.0
  0
VERTEX
  5
16D3
  8
SAPA_LIGHT
 10
-75.5225939815939
 20
-43.500000000001137
 30
0.0
  0
SEQEND
  5
16D4
  8
SAPA_LIGHT
  0
POLYLINE
  5
982
  8
SAPA_LIGHT
 66
     1
 10
0.0
 20
0.0
 30
0.0
  0
VERTEX
  5
16D5
  8
SAPA_LIGHT
 10
-75.522593981594866
 20
-79.499999999009617
 30
0.0
  0
VERTEX
  5
16D6
  8
SAPA_LIGHT
 10
-11.000000000000281
 20
-79.499999999010072
 30
0.0
  0
VERTEX
  5
16D7
  8
SAPA_LIGHT
 10
-11.00000000000022
 20
-87.499999999010072
 30
0.0
  0
VERTEX
  5
16D8
  8
SAPA_LIGHT
 10
-75.52259398159481
 20
-87.499999999010072
 30
0.0
  0
SEQEND
  5
16D9
  8
SAPA_LIGHT
  0
INSERT
  5
D3F
  8
0
  2
*U93
 10
0.0
 20
0.0
 30
0.0
  0
INSERT
  5
D40
  8
0
  2
*U94
 10
0.0
 20
0.0
 30
0.0
  0
INSERT
  5
D41
  8
0
  2
*U95
 10
0.0
 20
0.0
 30
0.0
  0
LINE
  5
134B
  8
SAPA_FYLLNING
 10
-31.34846748578315
 20
-29.50000000000205
 30
0.0
 11
-31.34846748578321
 21
42.799999999999152
 31
0.0
  0
ARC
  5
134C
  8
SAPA_FYLLNING
 10
-37.348467485783203
 20
42.799999999999152
 30
0.0
 40
6.0
 50
0.0
 51
180.0
  0
LINE
  5
134D
  8
SAPA_FYLLNING
 10
-43.348467485783203
 20
42.799999999999152
 30
0.0
 11
-43.348467485784958
 21
-29.50000000000205
 31
0.0
  0
ARC
  5
134E
  8
SAPA_FYLLNING
 10
-49.348467485783942
 20
-29.500000000002132
 30
0.0
 40
5.9999999999989759
 50
180.0000000000008
 51
0.0000000000008142
  0
LINE
  5
134F
  8
SAPA_FYLLNING
 10
-55.348467485782919
 20
-29.50000000000222
 30
0.0
 11
-55.348467485785022
 21
44.999999999998067
 31
0.0
  0
ARC
  5
1350
  8
SAPA_FYLLNING
 10
-61.348467485784113
 20
44.999999999998067
 30
0.0
 40
5.9999999999990896
 50
0.0
 51
180.0
  0
LINE
  5
1351
  8
SAPA_FYLLNING
 10
-67.348467485783203
 20
44.999999999998067
 30
0.0
 11
-67.348467485783146
 21
-29.50000000000205
 31
0.0
  0
POLYLINE
  5
151C
  8
SAPA_PROFIL
 66
     1
 10
0.0
 20
0.0
 30
0.0
 70
     1
  0
VERTEX
  5
1D5A
  8
SAPA_PROFIL
 10
103.9953758136035
 20
-7.3939031363878476
 30
0.0
  0
VERTEX
  5
1D5B
  8
SAPA_PROFIL
 10
103.9953758136035
 20
-7.6364470742349786
 30
0.0
 42
-0.2011813370902256
  0
VERTEX
  5
1D5C
  8
SAPA_PROFIL
 10
103.9355576664634
 20
-7.7790971640655471
 30
0.0
  0
VERTEX
  5
1D5D
  8
SAPA_PROFIL
 10
103.0088103077337
 20
-8.6898092570894505
 30
0.0
  0
VERTEX
  5
1D5E
  8
SAPA_PROFIL
 10
101.4953758136017
 20
-8.6766017143462477
 30
0.0
 42
0.4931454260356012
  0
VERTEX
  5
1D5F
  8
SAPA_PROFIL
 10
99.924110853363857
 20
-8.4557748252985903
 30
0.0
  0
VERTEX
  5
1D60
  8
SAPA_PROFIL
 10
98.856461016539541
 20
-9.5049513979113822
 30
0.0
 42
0.6681786379164681
  0
VERTEX
  5
1D61
  8
SAPA_PROFIL
 10
98.99782989699321
 20
-9.8548516553963168
 30
0.0
  0
VERTEX
  5
1D62
  8
SAPA_PROFIL
 10
103.4953758136035
 20
-9.8941011439936233
 30
0.0
  0
VERTEX
  5
1D63
  8
SAPA_PROFIL
 10
105.60946866519321
 20
-7.8165878847638623
 30
0.0
 42
-0.2038501166358263
  0
VERTEX
  5
1D64
  8
SAPA_PROFIL
 10
105.97377544461099
 20
-7.6734050281578439
 30
0.0
  0
VERTEX
  5
1D65
  8
SAPA_PROFIL
 10
121.0784886972054
 20
-8.0920311374467246
 30
0.0
 42
-0.4061212134736873
  0
VERTEX
  5
1D66
  8
SAPA_PROFIL
 10
123.99537581359699
 20
-11.09087962454617
 30
0.0
  0
VERTEX
  5
1D67
  8
SAPA_PROFIL
 10
123.99537581359699
 20
-22.875070868014241
 30
0.0
 42
-0.4142135623730951
  0
VERTEX
  5
1D68
  8
SAPA_PROFIL
 10
123.49537581359699
 20
-23.37507086801423
 30
0.0
  0
VERTEX
  5
1D69
  8
SAPA_PROFIL
 10
111.9095893759719
 20
-23.37507086801423
 30
0.0
 42
-0.198912367379658
  0
VERTEX
  5
1D6A
  8
SAPA_PROFIL
 10
111.20248259478539
 20
-23.082177649200791
 30
0.0
  0
VERTEX
  5
1D6B
  8
SAPA_PROFIL
 10
110.82188382139481
 20
-22.701578875810299
 30
0.0
 42
0.1830252782112529
  0
VERTEX
  5
1D6C
  8
SAPA_PROFIL
 10
109.5302160126635
 20
-22.119550334062691
 30
0.0
  0
VERTEX
  5
1D6D
  8
SAPA_PROFIL
 10
99.097143983857734
 20
-21.396485606732139
 30
0.0
 42
0.668178637923616
  0
VERTEX
  5
1D6E
  8
SAPA_PROFIL
 10
98.883761664324155
 20
-21.911636096521139
 30
0.0
  0
VERTEX
  5
1D6F
  8
SAPA_PROFIL
 10
100.8832437792467
 20
-23.911118211443689
 30
0.0
 42
0.7332303362588345
  0
VERTEX
  5
1D70
  8
SAPA_PROFIL
 10
101.39081813950639
 20
-23.646891723786499
 30
0.0
  0
VERTEX
  5
1D71
  8
SAPA_PROFIL
 10
101.2822340287203
 20
-23.03108063038809
 30
0.0
 42
-0.4663076581593561
  0
VERTEX
  5
1D72
  8
SAPA_PROFIL
 10
101.5776763546237
 20
-22.678986177087889
 30
0.0
  0
VERTEX
  5
1D73
  8
SAPA_PROFIL
 10
109.337153479976
 20
-23.410145798968362
 30
0.0
 42
-0.183025278211264
  0
VERTEX
  5
1D74
  8
SAPA_PROFIL
 10
109.9829873843417
 20
-23.70116006984216
 30
0.0
  0
VERTEX
  5
1D75
  8
SAPA_PROFIL
 10
110.3711117448867
 20
-24.089284430387181
 30
0.0
 42
0.1989123673796518
  0
VERTEX
  5
1D76
  8
SAPA_PROFIL
 10
111.7853253072597
 20
-24.675070868014078
 30
0.0
  0
VERTEX
  5
1D77
  8
SAPA_PROFIL
 10
123.1953758136125
 20
-24.675070868014188
 30
0.0
 42
-0.4142135623732283
  0
VERTEX
  5
1D78
  8
SAPA_PROFIL
 10
123.6953758136125
 20
-25.175070868014419
 30
0.0
  0
VERTEX
  5
1D79
  8
SAPA_PROFIL
 10
123.69537581361161
 20
-26.375070868013779
 30
0.0
 42
0.4142135623732062
  0
VERTEX
  5
1D7A
  8
SAPA_PROFIL
 10
123.9953758136116
 20
-26.675070868013851
 30
0.0
  0
VERTEX
  5
1D7B
  8
SAPA_PROFIL
 10
125.195375813597
 20
-26.675070868014188
 30
0.0
 42
0.4142135623716247
  0
VERTEX
  5
1D7C
  8
SAPA_PROFIL
 10
125.49537581359709
 20
-26.37507086801287
 30
0.0
  0
VERTEX
  5
1D7D
  8
SAPA_PROFIL
 10
125.49537581361059
 20
-6.3986631256908586
 30
0.0
 42
0.4142135623732938
  0
VERTEX
  5
1D7E
  8
SAPA_PROFIL
 10
125.2953758136106
 20
-6.198663125690814
 30
0.0
  0
VERTEX
  5
1D7F
  8
SAPA_PROFIL
 10
103.6999996999248
 20
-6.198663125690814
 30
0.0
 42
0.4210020197690384
  0
VERTEX
  5
1D80
  8
SAPA_PROFIL
 10
103.4953758136035
 20
-6.3986096677348314
 30
0.0
  0
VERTEX
  5
1D81
  8
SAPA_PROFIL
 10
103.49537581359699
 20
-6.9865928309303618
 30
0.0
  0
VERTEX
  5
1D82
  8
SAPA_PROFIL
 10
103.795375813597
 20
-6.9865928309303618
 30
0.0
 42
-0.41421356237322
  0
VERTEX
  5
1D83
  8
SAPA_PROFIL
 10
103.99537581359689
 20
-7.1865928309304081
 30
0.0
  0
VERTEX
  5
1D84
  8
SAPA_PROFIL
 10
103.99537581359699
 20
-7.4037705964000224
 30
0.0
  0
SEQEND
  5
1D85
  8
SAPA_PROFIL
  0
POLYLINE
  5
151D
  8
SAPA_PROFIL
 66
     1
 10
0.0
 20
0.0
 30
0.0
 70
     1
  0
VERTEX
  5
1D86
  8
SAPA_PROFIL
 10
77.988496464589389
 20
-29.22879841288157
 30
0.0
  0
VERTEX
  5
1D87
  8
SAPA_PROFIL
 10
78.140630375698166
 20
-28.94411612964992
 30
0.0
 42
0.5773502691897463
  0
VERTEX
  5
1D88
  8
SAPA_PROFIL
 10
77.957676635587973
 20
-28.649959829395112
 30
0.0
  0
VERTEX
  5
1D89
  8
SAPA_PROFIL
 10
77.635918907369714
 20
-28.660521195622071
 30
0.0
  0
VERTEX
  5
1D8A
  8
SAPA_PROFIL
 10
76.551354460397988
 20
-26.774677503761019
 30
0.0
  0
VERTEX
  5
1D8B
  8
SAPA_PROFIL
 10
76.493280823408909
 20
-26.583294503767299
 30
0.0
 42
-0.7625858545243257
  0
VERTEX
  5
1D8C
  8
SAPA_PROFIL
 10
76.823606904425901
 20
-26.39871530156983
 30
0.0
 42
0.2134217652834389
  0
VERTEX
  5
1D8D
  8
SAPA_PROFIL
 10
77.047213702176023
 20
-26.498715301569948
 30
0.0
  0
VERTEX
  5
1D8E
  8
SAPA_PROFIL
 10
80.899999702176004
 20
-26.498715301569948
 30
0.0
 42
-0.4142139999998963
  0
VERTEX
  5
1D8F
  8
SAPA_PROFIL
 10
81.199999702176015
 20
-26.798715301569992
 30
0.0
  0
VERTEX
  5
1D90
  8
SAPA_PROFIL
 10
81.199999702176015
 20
-27.09871530156995
 30
0.0
  0
VERTEX
  5
1D91
  8
SAPA_PROFIL
 10
80.276239702175971
 20
-28.69871530156993
 30
0.0
 42
0.5773500000002674
  0
VERTEX
  5
1D92
  8
SAPA_PROFIL
 10
80.449444702176066
 20
-28.99871530156998
 30
0.0
  0
VERTEX
  5
1D93
  8
SAPA_PROFIL
 10
81.835085702176016
 20
-28.99871530156998
 30
0.0
 42
0.267949000000023
  0
VERTEX
  5
1D94
  8
SAPA_PROFIL
 10
82.701110702176052
 20
-28.49871530156998
 30
0.0
  0
VERTEX
  5
1D95
  8
SAPA_PROFIL
 10
83.711473702176036
 20
-26.748715301569948
 30
0.0
 42
-0.2679489999999919
  0
VERTEX
  5
1D96
  8
SAPA_PROFIL
 10
84.144486702176053
 20
-26.498715301569948
 30
0.0
  0
VERTEX
  5
1D97
  8
SAPA_PROFIL
 10
94.155513702176023
 20
-26.498715301569948
 30
0.0
 42
-0.2679490000000193
  0
VERTEX
  5
1D98
  8
SAPA_PROFIL
 10
94.58852670217604
 20
-26.748715301569948
 30
0.0
  0
VERTEX
  5
1D99
  8
SAPA_PROFIL
 10
95.598889702176024
 20
-28.498715301569959
 30
0.0
 42
0.2679490000000211
  0
VERTEX
  5
1D9A
  8
SAPA_PROFIL
 10
96.46491470217606
 20
-28.99871530156998
 30
0.0
  0
VERTEX
  5
1D9B
  8
SAPA_PROFIL
 10
97.850555702176024
 20
-28.99871530156998
 30
0.0
 42
0.5773499999999721
  0
VERTEX
  5
1D9C
  8
SAPA_PROFIL
 10
98.023760702176034
 20
-28.698715301569958
 30
0.0
  0
VERTEX
  5
1D9D
  8
SAPA_PROFIL
 10
97.099999702176063
 20
-27.098715301569939
 30
0.0
  0
VERTEX
  5
1D9E
  8
SAPA_PROFIL
 10
97.099999702176063
 20
-26.798715301569992
 30
0.0
 42
-0.4142139999999657
  0
VERTEX
  5
1D9F
  8
SAPA_PROFIL
 10
97.399999702176032
 20
-26.498715301569948
 30
0.0
  0
VERTEX
  5
1DA0
  8
SAPA_PROFIL
 10
101.252786702176
 20
-26.498715301570059
 30
0.0
 42
0.2134217652834387
  0
VERTEX
  5
1DA1
  8
SAPA_PROFIL
 10
101.4763934999262
 20
-26.398715301569919
 30
0.0
 42
-0.7625858545243244
  0
VERTEX
  5
1DA2
  8
SAPA_PROFIL
 10
101.8067195809431
 20
-26.583294503767402
 30
0.0
  0
VERTEX
  5
1DA3
  8
SAPA_PROFIL
 10
101.748645943954
 20
-26.774677503761129
 30
0.0
  0
VERTEX
  5
1DA4
  8
SAPA_PROFIL
 10
100.66408149698231
 20
-28.660521195622181
 30
0.0
  0
VERTEX
  5
1DA5
  8
SAPA_PROFIL
 10
100.342323768764
 20
-28.6499598293952
 30
0.0
 42
0.5773502691897466
  0
VERTEX
  5
1DA6
  8
SAPA_PROFIL
 10
100.1593700286539
 20
-28.944116129650041
 30
0.0
  0
VERTEX
  5
1DA7
  8
SAPA_PROFIL
 10
100.3115039397626
 20
-29.228798412881702
 30
0.0
 42
0.2216946626430191
  0
VERTEX
  5
1DA8
  8
SAPA_PROFIL
 10
100.8523837712394
 20
-29.634607318036469
 30
0.0
  0
VERTEX
  5
1DA9
  8
SAPA_PROFIL
 10
102.6656142418977
 20
-30.016053914164189
 30
0.0
 42
0.4769755326981641
  0
VERTEX
  5
1DAA
  8
SAPA_PROFIL
 10
103.0372711168435
 20
-29.713801089657721
 30
0.0
  0
VERTEX
  5
1DAB
  8
SAPA_PROFIL
 10
103.0371875089599
 20
-28.210700008895721
 30
0.0
  0
VERTEX
  5
1DAC
  8
SAPA_PROFIL
 10
102.9893417589614
 20
-28.196181599648611
 30
0.0
 42
-0.4142135623730953
  0
VERTEX
  5
1DAD
  8
SAPA_PROFIL
 10
102.78937771445401
 20
-27.821996644172799
 30
0.0
  0
VERTEX
  5
1DAE
  8
SAPA_PROFIL
 10
103.299999702176
 20
-26.500881226738631
 30
0.0
  0
VERTEX
  5
1DAF
  8
SAPA_PROFIL
 10
103.299999702176
 20
-26.498715301569948
 30
0.0
  0
VERTEX
  5
1DB0
  8
SAPA_PROFIL
 10
103.299999702176
 20
-23.506230301569939
 30
0.0
 42
0.2596809999999277
  0
VERTEX
  5
1DB1
  8
SAPA_PROFIL
 10
103.205306702176
 20
-23.336199301569959
 30
0.0
  0
VERTEX
  5
1DB2
  8
SAPA_PROFIL
 10
101.957960702176
 20
-22.543668301569951
 30
0.0
 42
0.5877030000000004
  0
VERTEX
  5
1DB3
  8
SAPA_PROFIL
 10
101.499999702176
 20
-22.798715301569992
 30
0.0
  0
VERTEX
  5
1DB4
  8
SAPA_PROFIL
 10
101.499999702176
 20
-24.198715301569958
 30
0.0
 42
-0.4142135623731089
  0
VERTEX
  5
1DB5
  8
SAPA_PROFIL
 10
101.199999702176
 20
-24.498715301569948
 30
0.0
  0
VERTEX
  5
1DB6
  8
SAPA_PROFIL
 10
98.799999702176052
 20
-24.498715301569948
 30
0.0
 42
-0.4142135623731088
  0
VERTEX
  5
1DB7
  8
SAPA_PROFIL
 10
98.499999702176041
 20
-24.198715301569969
 30
0.0
  0
VERTEX
  5
1DB8
  8
SAPA_PROFIL
 10
98.499999702176027
 20
-18.398715301570011
 30
0.0
  0
VERTEX
  5
1DB9
  8
SAPA_PROFIL
 10
98.499999702176027
 20
-16.398715301570011
 30
0.0
  0
VERTEX
  5
1DBA
  8
SAPA_PROFIL
 10
98.499999702176027
 20
-6.7987153015699793
 30
0.0
 42
-0.4142139999999172
  0
VERTEX
  5
1DBB
  8
SAPA_PROFIL
 10
98.799999702176024
 20
-6.4987153015699821
 30
0.0
  0
VERTEX
  5
1DBC
  8
SAPA_PROFIL
 10
101.199999702176
 20
-6.4987153015699821
 30
0.0
 42
-0.4142139999999103
  0
VERTEX
  5
1DBD
  8
SAPA_PROFIL
 10
101.499999702176
 20
-6.7987153015699793
 30
0.0
  0
VERTEX
  5
1DBE
  8
SAPA_PROFIL
 10
101.499999702176
 20
-8.1987153015699636
 30
0.0
 42
0.5877030000000132
  0
VERTEX
  5
1DBF
  8
SAPA_PROFIL
 10
101.957960702176
 20
-8.4537613015699637
 30
0.0
  0
VERTEX
  5
1DC0
  8
SAPA_PROFIL
 10
103.40530670217601
 20
-7.5573623015699543
 30
0.0
 42
0.259681000000005
  0
VERTEX
  5
1DC1
  8
SAPA_PROFIL
 10
103.499999702176
 20
-7.3873313015699953
 30
0.0
  0
VERTEX
  5
1DC2
  8
SAPA_PROFIL
 10
103.499999702176
 20
-4.7666643015699481
 30
0.0
 42
0.1316520000000017
  0
VERTEX
  5
1DC3
  8
SAPA_PROFIL
 10
103.366025702176
 20
-4.266664301569941
 30
0.0
  0
VERTEX
  5
1DC4
  8
SAPA_PROFIL
 10
98.88119770217601
 20
3.5012846984300601
 30
0.0
 42
0.267948999999994
  0
VERTEX
  5
1DC5
  8
SAPA_PROFIL
 10
96.283121702176018
 20
5.0012846984300463
 30
0.0
  0
VERTEX
  5
1DC6
  8
SAPA_PROFIL
 10
57.999999702176012
 20
5.0012846984300188
 30
0.0
 42
0.4142140000000114
  0
VERTEX
  5
1DC7
  8
SAPA_PROFIL
 10
54.999999702176012
 20
2.0012846984300401
 30
0.0
  0
VERTEX
  5
1DC8
  8
SAPA_PROFIL
 10
54.999999702175927
 20
1.5012846984300401
 30
0.0
 42
0.4241420000000259
  0
VERTEX
  5
1DC9
  8
SAPA_PROFIL
 10
56.03377270217603
 20
0.5018556984300702
 30
0.0
 42
0.2988660000000032
  0
VERTEX
  5
1DCA
  8
SAPA_PROFIL
 10
56.971052702175967
 20
1.072713698430064
 30
0.0
 42
0.55075999999996
  0
VERTEX
  5
1DCB
  8
SAPA_PROFIL
 10
56.699999702176022
 20
1.5012846984300401
 30
0.0
  0
VERTEX
  5
1DCC
  8
SAPA_PROFIL
 10
56.399999702175997
 20
1.5012846984300401
 30
0.0
 42
-0.4142139999998339
  0
VERTEX
  5
1DCD
  8
SAPA_PROFIL
 10
56.199999702176022
 20
1.701284698430015
 30
0.0
  0
VERTEX
  5
1DCE
  8
SAPA_PROFIL
 10
56.199999702176022
 20
2.0012846984300481
 30
0.0
 42
-0.4142139999999946
  0
VERTEX
  5
1DCF
  8
SAPA_PROFIL
 10
57.999999702176012
 20
3.8012846984300519
 30
0.0
  0
VERTEX
  5
1DD0
  8
SAPA_PROFIL
 10
58.699999702176022
 20
3.8012846984300519
 30
0.0
 42
-0.4142139999999852
  0
VERTEX
  5
1DD1
  8
SAPA_PROFIL
 10
60.499999702176012
 20
2.001284698430041
 30
0.0
  0
VERTEX
  5
1DD2
  8
SAPA_PROFIL
 10
60.499999702176012
 20
1.7012846984300161
 30
0.0
 42
-0.4142139999998025
  0
VERTEX
  5
1DD3
  8
SAPA_PROFIL
 10
60.299999702176017
 20
1.501284698430041
 30
0.0
  0
VERTEX
  5
1DD4
  8
SAPA_PROFIL
 10
59.999999702176012
 20
1.501284698430027
 30
0.0
 42
0.5507599999999105
  0
VERTEX
  5
1DD5
  8
SAPA_PROFIL
 10
59.728947702175958
 20
1.0727136984300141
 30
0.0
 42
0.2988660000000063
  0
VERTEX
  5
1DD6
  8
SAPA_PROFIL
 10
60.666227702176002
 20
0.5018556984299858
 30
0.0
 42
0.4241419999999882
  0
VERTEX
  5
1DD7
  8
SAPA_PROFIL
 10
61.699999702176022
 20
1.501284698430041
 30
0.0
  0
VERTEX
  5
1DD8
  8
SAPA_PROFIL
 10
61.699999702176022
 20
2.8012846984300461
 30
0.0
 42
-0.4142140000000128
  0
VERTEX
  5
1DD9
  8
SAPA_PROFIL
 10
62.699999702176008
 20
3.8012846984300528
 30
0.0
  0
VERTEX
  5
1DDA
  8
SAPA_PROFIL
 10
76.527928702176055
 20
3.027694698430027
 30
0.0
 42
-0.3979379999999925
  0
VERTEX
  5
1DDB
  8
SAPA_PROFIL
 10
76.999999702176027
 20
2.5284756984300452
 30
0.0
  0
VERTEX
  5
1DDC
  8
SAPA_PROFIL
 10
76.999999702176027
 20
-1.9987153015699559
 30
0.0
 42
-0.4142140000000251
  0
VERTEX
  5
1DDD
  8
SAPA_PROFIL
 10
76.499999702176027
 20
-2.4987153015699559
 30
0.0
  0
VERTEX
  5
1DDE
  8
SAPA_PROFIL
 10
72.999999702176027
 20
-2.4987153015699568
 30
0.0
 42
0.4142140000000128
  0
VERTEX
  5
1DDF
  8
SAPA_PROFIL
 10
72.499999702176027
 20
-2.9987153015699568
 30
0.0
  0
VERTEX
  5
1DE0
  8
SAPA_PROFIL
 10
72.499999702176012
 20
-6.6987153015699743
 30
0.0
 42
0.4142139999999104
  0
VERTEX
  5
1DE1
  8
SAPA_PROFIL
 10
72.799999702176038
 20
-6.9987153015699777
 30
0.0
  0
VERTEX
  5
1DE2
  8
SAPA_PROFIL
 10
73.699999702176015
 20
-6.9987153015699777
 30
0.0
 42
0.4142139999999101
  0
VERTEX
  5
1DE3
  8
SAPA_PROFIL
 10
73.999999702176027
 20
-6.6987153015699743
 30
0.0
  0
VERTEX
  5
1DE4
  8
SAPA_PROFIL
 10
73.999999702176027
 20
-4.698715301569945
 30
0.0
 42
-0.4142139999999691
  0
VERTEX
  5
1DE5
  8
SAPA_PROFIL
 10
74.199999702176015
 20
-4.4987153015699572
 30
0.0
  0
VERTEX
  5
1DE6
  8
SAPA_PROFIL
 10
76.999999702176027
 20
-4.4987153015699546
 30
0.0
 42
-0.577350269189605
  0
VERTEX
  5
1DE7
  8
SAPA_PROFIL
 10
77.173204782932899
 20
-4.7987153015699588
 30
0.0
  0
VERTEX
  5
1DE8
  8
SAPA_PROFIL
 10
76.999999702176027
 20
-5.0987153015699631
 30
0.0
  0
VERTEX
  5
1DE9
  8
SAPA_PROFIL
 10
76.999999702175955
 20
-8.893715301569987
 30
0.0
 42
0.414213999999992
  0
VERTEX
  5
1DEA
  8
SAPA_PROFIL
 10
77.499999702176027
 20
-9.393715301569987
 30
0.0
  0
VERTEX
  5
1DEB
  8
SAPA_PROFIL
 10
78.199999702176015
 20
-9.393715301569987
 30
0.0
 42
-0.4142139999998548
  0
VERTEX
  5
1DEC
  8
SAPA_PROFIL
 10
78.499999702176027
 20
-9.6937153015699344
 30
0.0
  0
VERTEX
  5
1DED
  8
SAPA_PROFIL
 10
78.499999702176027
 20
-14.87409930156994
 30
0.0
  0
VERTEX
  5
1DEE
  8
SAPA_PROFIL
 10
78.799999702176024
 20
-15.393715301569991
 30
0.0
  0
VERTEX
  5
1DEF
  8
SAPA_PROFIL
 10
78.499999702176027
 20
-15.91333030156996
 30
0.0
  0
VERTEX
  5
1DF0
  8
SAPA_PROFIL
 10
78.499999702176027
 20
-21.093715301569979
 30
0.0
 42
-0.4142140000000351
  0
VERTEX
  5
1DF1
  8
SAPA_PROFIL
 10
78.199999702176015
 20
-21.393715301569991
 30
0.0
  0
VERTEX
  5
1DF2
  8
SAPA_PROFIL
 10
77.499999702176027
 20
-21.39371530156993
 30
0.0
 42
0.4142140000000461
  0
VERTEX
  5
1DF3
  8
SAPA_PROFIL
 10
76.999999702176027
 20
-21.893715301569991
 30
0.0
  0
VERTEX
  5
1DF4
  8
SAPA_PROFIL
 10
76.999999702176027
 20
-23.898715301569979
 30
0.0
  0
VERTEX
  5
1DF5
  8
SAPA_PROFIL
 10
77.173204782932899
 20
-24.198715301569969
 30
0.0
 42
-0.5773502691896303
  0
VERTEX
  5
1DF6
  8
SAPA_PROFIL
 10
76.999999702176027
 20
-24.498715301569948
 30
0.0
  0
VERTEX
  5
1DF7
  8
SAPA_PROFIL
 10
74.199999702176015
 20
-24.498715301569948
 30
0.0
 42
-0.414213999999813
  0
VERTEX
  5
1DF8
  8
SAPA_PROFIL
 10
73.999999702176027
 20
-24.298715301569992
 30
0.0
  0
VERTEX
  5
1DF9
  8
SAPA_PROFIL
 10
73.999999702176055
 20
-22.298715301569992
 30
0.0
 42
0.4142139999998962
  0
VERTEX
  5
1DFA
  8
SAPA_PROFIL
 10
73.699999702176015
 20
-21.998715301569948
 30
0.0
  0
VERTEX
  5
1DFB
  8
SAPA_PROFIL
 10
72.799999702176038
 20
-21.998715301569991
 30
0.0
 42
0.4142139999999103
  0
VERTEX
  5
1DFC
  8
SAPA_PROFIL
 10
72.499999702176027
 20
-22.298715301569992
 30
0.0
  0
VERTEX
  5
1DFD
  8
SAPA_PROFIL
 10
72.499999702176041
 20
-25.998715301569948
 30
0.0
 42
0.414214000000021
  0
VERTEX
  5
1DFE
  8
SAPA_PROFIL
 10
72.999999702176027
 20
-26.498715301569948
 30
0.0
  0
VERTEX
  5
1DFF
  8
SAPA_PROFIL
 10
74.699999702176015
 20
-26.498715301569948
 30
0.0
 42
-0.4142135623730951
  0
VERTEX
  5
1E00
  8
SAPA_PROFIL
 10
74.999999702176027
 20
-26.79871530156996
 30
0.0
  0
VERTEX
  5
1E01
  8
SAPA_PROFIL
 10
75.510622689898014
 20
-27.821996644172689
 30
0.0
 42
-0.4142135623730953
  0
VERTEX
  5
1E02
  8
SAPA_PROFIL
 10
75.310658645390617
 20
-28.196181599648501
 30
0.0
  0
VERTEX
  5
1E03
  8
SAPA_PROFIL
 10
75.26281289539213
 20
-28.210700008895611
 30
0.0
  0
VERTEX
  5
1E04
  8
SAPA_PROFIL
 10
75.262729287508492
 20
-29.713801089657618
 30
0.0
 42
0.4769755326981643
  0
VERTEX
  5
1E05
  8
SAPA_PROFIL
 10
75.634386162454334
 20
-30.016053914164079
 30
0.0
  0
VERTEX
  5
1E06
  8
SAPA_PROFIL
 10
77.447616633112602
 20
-29.63460731803638
 30
0.0
 42
0.2216946626430193
  0
SEQEND
  5
1E07
  8
SAPA_PROFIL
  0
POLYLINE
  5
151E
  8
SAPA_PROFIL
 66
     1
 10
0.0
 20
0.0
 30
0.0
 70
     1
  0
VERTEX
  5
1E08
  8
SAPA_PROFIL
 10
94.899999702176004
 20
-6.1987153015699699
 30
0.0
  0
VERTEX
  5
1E09
  8
SAPA_PROFIL
 10
96.499999702176027
 20
-6.1987153015699699
 30
0.0
 42
-0.414214000000042
  0
VERTEX
  5
1E0A
  8
SAPA_PROFIL
 10
96.799999702176038
 20
-6.4987153015699821
 30
0.0
  0
VERTEX
  5
1E0B
  8
SAPA_PROFIL
 10
96.799999702176066
 20
-24.498715301569948
 30
0.0
 42
-0.4142140000001599
  0
VERTEX
  5
1E0C
  8
SAPA_PROFIL
 10
96.499999702176055
 20
-24.798715301569992
 30
0.0
  0
VERTEX
  5
1E0D
  8
SAPA_PROFIL
 10
94.899999702176004
 20
-24.798715301569992
 30
0.0
 42
-0.4142140000000628
  0
VERTEX
  5
1E0E
  8
SAPA_PROFIL
 10
94.699999702176029
 20
-24.59871530156996
 30
0.0
  0
VERTEX
  5
1E0F
  8
SAPA_PROFIL
 10
94.699999702176029
 20
-24.498715301569948
 30
0.0
 42
0.4142139999998963
  0
VERTEX
  5
1E10
  8
SAPA_PROFIL
 10
94.399999702176018
 20
-24.198715301569969
 30
0.0
  0
VERTEX
  5
1E11
  8
SAPA_PROFIL
 10
92.999999702176027
 20
-24.198715301570019
 30
0.0
 42
0.4142139999999518
  0
VERTEX
  5
1E12
  8
SAPA_PROFIL
 10
92.699999702176015
 20
-24.498715301569948
 30
0.0
  0
VERTEX
  5
1E13
  8
SAPA_PROFIL
 10
92.699999702176015
 20
-24.59871530156996
 30
0.0
 42
-0.4142139999999794
  0
VERTEX
  5
1E14
  8
SAPA_PROFIL
 10
92.499999702176041
 20
-24.798715301569992
 30
0.0
  0
VERTEX
  5
1E15
  8
SAPA_PROFIL
 10
79.499999702176027
 20
-24.798715301569992
 30
0.0
 42
-0.4142139999999962
  0
VERTEX
  5
1E16
  8
SAPA_PROFIL
 10
78.999999702176027
 20
-24.298715301569992
 30
0.0
  0
VERTEX
  5
1E17
  8
SAPA_PROFIL
 10
78.999999702176027
 20
-23.593715301569979
 30
0.0
 42
-0.4142140000000128
  0
VERTEX
  5
1E18
  8
SAPA_PROFIL
 10
79.499999702176027
 20
-23.093715301569969
 30
0.0
  0
VERTEX
  5
1E19
  8
SAPA_PROFIL
 10
79.699999702176015
 20
-23.093715301569969
 30
0.0
 42
0.4142140000000127
  0
VERTEX
  5
1E1A
  8
SAPA_PROFIL
 10
80.199999702176015
 20
-22.593715301569979
 30
0.0
  0
VERTEX
  5
1E1B
  8
SAPA_PROFIL
 10
80.199999702176072
 20
-8.1937153015699415
 30
0.0
 42
0.4142139999999795
  0
VERTEX
  5
1E1C
  8
SAPA_PROFIL
 10
79.699999702176015
 20
-7.6937153015699344
 30
0.0
  0
VERTEX
  5
1E1D
  8
SAPA_PROFIL
 10
78.999999702176027
 20
-7.6937153015699344
 30
0.0
 42
-0.4142140000000462
  0
VERTEX
  5
1E1E
  8
SAPA_PROFIL
 10
78.499999702176027
 20
-7.1937153015699344
 30
0.0
  0
VERTEX
  5
1E1F
  8
SAPA_PROFIL
 10
78.499999702176027
 20
2.5012846984300432
 30
0.0
 42
-0.4142140000000128
  0
VERTEX
  5
1E20
  8
SAPA_PROFIL
 10
78.999999702176027
 20
3.0012846984300432
 30
0.0
  0
VERTEX
  5
1E21
  8
SAPA_PROFIL
 10
96.283121702176018
 20
3.0012846984300459
 30
0.0
 42
-0.2679490000000162
  0
VERTEX
  5
1E22
  8
SAPA_PROFIL
 10
97.149146702176054
 20
2.5012846984300459
 30
0.0
  0
VERTEX
  5
1E23
  8
SAPA_PROFIL
 10
101.046261702176
 20
-4.2487153015699528
 30
0.0
 42
-0.5773500000000551
  0
VERTEX
  5
1E24
  8
SAPA_PROFIL
 10
100.786453702176
 20
-4.6987153015699423
 30
0.0
  0
VERTEX
  5
1E25
  8
SAPA_PROFIL
 10
94.199999702176015
 20
-4.6987153015699628
 30
0.0
 42
0.4142140000000155
  0
VERTEX
  5
1E26
  8
SAPA_PROFIL
 10
92.699999702176015
 20
-6.1987153015699699
 30
0.0
  0
VERTEX
  5
1E27
  8
SAPA_PROFIL
 10
92.699999702176015
 20
-6.398715301570002
 30
0.0
  0
VERTEX
  5
1E28
  8
SAPA_PROFIL
 10
92.699999702176072
 20
-6.4987153015699821
 30
0.0
 42
0.4142140000000836
  0
VERTEX
  5
1E29
  8
SAPA_PROFIL
 10
92.999999702176027
 20
-6.7987153015699793
 30
0.0
  0
VERTEX
  5
1E2A
  8
SAPA_PROFIL
 10
94.399999702176004
 20
-6.7987153015701143
 30
0.0
 42
0.4142140000000351
  0
VERTEX
  5
1E2B
  8
SAPA_PROFIL
 10
94.699999702176015
 20
-6.4987153015699821
 30
0.0
  0
VERTEX
  5
1E2C
  8
SAPA_PROFIL
 10
94.699999702176015
 20
-6.398715301570002
 30
0.0
 42
-0.4142139999998962
  0
SEQEND
  5
1E2D
  8
SAPA_PROFIL
  0
POLYLINE
  5
151F
  8
SAPA_PROFIL
 66
     1
 10
0.0
 20
0.0
 30
0.0
 70
     1
  0
VERTEX
  5
1E2E
  8
SAPA_PROFIL
 10
101.4763937021781
 20
-68.598715301570067
 30
0.0
 42
0.2134220000000103
  0
VERTEX
  5
1E2F
  8
SAPA_PROFIL
 10
101.2527867021782
 20
-68.498715301570044
 30
0.0
  0
VERTEX
  5
1E30
  8
SAPA_PROFIL
 10
97.399999702178164
 20
-68.498715301570044
 30
0.0
 42
-0.414213999999924
  0
VERTEX
  5
1E31
  8
SAPA_PROFIL
 10
97.099999702178081
 20
-68.198715301570076
 30
0.0
  0
VERTEX
  5
1E32
  8
SAPA_PROFIL
 10
97.099999702178152
 20
-67.898715301570064
 30
0.0
  0
VERTEX
  5
1E33
  8
SAPA_PROFIL
 10
98.023760702178166
 20
-66.298715301570056
 30
0.0
 42
0.5773500000001196
  0
VERTEX
  5
1E34
  8
SAPA_PROFIL
 10
97.850555702178156
 20
-65.998715301570044
 30
0.0
  0
VERTEX
  5
1E35
  8
SAPA_PROFIL
 10
96.464914702178135
 20
-65.998715301570044
 30
0.0
 42
0.2679489999999719
  0
VERTEX
  5
1E36
  8
SAPA_PROFIL
 10
95.598889702178155
 20
-66.498715301570044
 30
0.0
  0
VERTEX
  5
1E37
  8
SAPA_PROFIL
 10
94.588526702178171
 20
-68.248715301570044
 30
0.0
 42
-0.267949000000012
  0
VERTEX
  5
1E38
  8
SAPA_PROFIL
 10
94.155513702178155
 20
-68.498715301570172
 30
0.0
  0
VERTEX
  5
1E39
  8
SAPA_PROFIL
 10
84.144486702178128
 20
-68.498715301570059
 30
0.0
 42
-0.2679490000000104
  0
VERTEX
  5
1E3A
  8
SAPA_PROFIL
 10
83.71147370217821
 20
-68.24871530157003
 30
0.0
  0
VERTEX
  5
1E3B
  8
SAPA_PROFIL
 10
82.701110702178127
 20
-66.498715301570044
 30
0.0
 42
0.2679489999999809
  0
VERTEX
  5
1E3C
  8
SAPA_PROFIL
 10
81.835085702178148
 20
-65.998715301570044
 30
0.0
  0
VERTEX
  5
1E3D
  8
SAPA_PROFIL
 10
80.449444702178141
 20
-65.998715301570044
 30
0.0
 42
0.5773500000001198
  0
VERTEX
  5
1E3E
  8
SAPA_PROFIL
 10
80.276239702178145
 20
-66.298715301570056
 30
0.0
  0
VERTEX
  5
1E3F
  8
SAPA_PROFIL
 10
81.199999702178175
 20
-67.898715301570064
 30
0.0
  0
VERTEX
  5
1E40
  8
SAPA_PROFIL
 10
81.199999702178175
 20
-68.198715301570076
 30
0.0
 42
-0.4142139999999795
  0
VERTEX
  5
1E41
  8
SAPA_PROFIL
 10
80.899999702178164
 20
-68.498715301569931
 30
0.0
  0
VERTEX
  5
1E42
  8
SAPA_PROFIL
 10
77.047213702178169
 20
-68.498715301570059
 30
0.0
 42
0.2134217652834391
  0
VERTEX
  5
1E43
  8
SAPA_PROFIL
 10
76.823606904428061
 20
-68.598715301570167
 30
0.0
 42
-0.7625858545243247
  0
VERTEX
  5
1E44
  8
SAPA_PROFIL
 10
76.493280823411055
 20
-68.414136099372683
 30
0.0
  0
VERTEX
  5
1E45
  8
SAPA_PROFIL
 10
76.551354460400148
 20
-68.222753099378977
 30
0.0
  0
VERTEX
  5
1E46
  8
SAPA_PROFIL
 10
77.635918907371874
 20
-66.336909407517922
 30
0.0
  0
VERTEX
  5
1E47
  8
SAPA_PROFIL
 10
77.957676635590133
 20
-66.347470773744902
 30
0.0
 42
0.5773502691897466
  0
VERTEX
  5
1E48
  8
SAPA_PROFIL
 10
78.140630375700312
 20
-66.053314473490062
 30
0.0
  0
VERTEX
  5
1E49
  8
SAPA_PROFIL
 10
77.988496464591549
 20
-65.768632190258415
 30
0.0
 42
0.2216946626430194
  0
VERTEX
  5
1E4A
  8
SAPA_PROFIL
 10
77.447616633114762
 20
-65.36282328510363
 30
0.0
  0
VERTEX
  5
1E4B
  8
SAPA_PROFIL
 10
75.634386162456508
 20
-64.981376688975914
 30
0.0
 42
0.4769755326981641
  0
VERTEX
  5
1E4C
  8
SAPA_PROFIL
 10
75.262729287510638
 20
-65.283629513482381
 30
0.0
  0
VERTEX
  5
1E4D
  8
SAPA_PROFIL
 10
75.262812895394291
 20
-66.786730594244389
 30
0.0
  0
VERTEX
  5
1E4E
  8
SAPA_PROFIL
 10
75.310658645392778
 20
-66.801249003491492
 30
0.0
 42
-0.4142135623730951
  0
VERTEX
  5
1E4F
  8
SAPA_PROFIL
 10
75.510622689900174
 20
-67.175433958967304
 30
0.0
  0
VERTEX
  5
1E50
  8
SAPA_PROFIL
 10
74.999999702178229
 20
-68.49655196366831
 30
0.0
  0
VERTEX
  5
1E51
  8
SAPA_PROFIL
 10
74.999999702178172
 20
-69.736611301570079
 30
0.0
 42
0.2914730000000021
  0
VERTEX
  5
1E52
  8
SAPA_PROFIL
 10
75.577381702178172
 20
-70.642919301570046
 30
0.0
  0
VERTEX
  5
1E53
  8
SAPA_PROFIL
 10
78.069521702178179
 20
-71.805023301570046
 30
0.0
 42
0.3888789999999682
  0
VERTEX
  5
1E54
  8
SAPA_PROFIL
 10
79.358165702178155
 20
-71.398715301570078
 30
0.0
  0
VERTEX
  5
1E55
  8
SAPA_PROFIL
 10
79.44476870217818
 20
-71.248715301570044
 30
0.0
 42
-0.2679490000000116
  0
VERTEX
  5
1E56
  8
SAPA_PROFIL
 10
79.877780702178143
 20
-70.998715301570002
 30
0.0
  0
VERTEX
  5
1E57
  8
SAPA_PROFIL
 10
87.999999702178158
 20
-70.998715301570044
 30
0.0
 42
-0.4142139999999962
  0
VERTEX
  5
1E58
  8
SAPA_PROFIL
 10
88.999999702178229
 20
-71.998715301570044
 30
0.0
  0
VERTEX
  5
1E59
  8
SAPA_PROFIL
 10
88.999999702178187
 20
-73.348715301570067
 30
0.0
 42
-0.4142140000000128
  0
VERTEX
  5
1E5A
  8
SAPA_PROFIL
 10
88.499999702178172
 20
-73.848715301570067
 30
0.0
  0
VERTEX
  5
1E5B
  8
SAPA_PROFIL
 10
85.36776748336473
 20
-73.848715301570067
 30
0.0
 42
0.198912367379658
  0
VERTEX
  5
1E5C
  8
SAPA_PROFIL
 10
83.953553920991624
 20
-74.434501739196975
 30
0.0
  0
VERTEX
  5
1E5D
  8
SAPA_PROFIL
 10
81.220260305947079
 20
-77.167795354241534
 30
0.0
 42
1.000556671980007
  0
VERTEX
  5
1E5E
  8
SAPA_PROFIL
 10
82.280330702178176
 20
-78.229045301570082
 30
0.0
  0
VERTEX
  5
1E5F
  8
SAPA_PROFIL
 10
84.914213702178188
 20
-75.595162301570056
 30
0.0
 42
-0.1989120000000246
  0
VERTEX
  5
1E60
  8
SAPA_PROFIL
 10
85.267766702178164
 20
-75.448715301570047
 30
0.0
  0
VERTEX
  5
1E61
  8
SAPA_PROFIL
 10
88.499999702178172
 20
-75.44871530157009
 30
0.0
 42
-0.4142140000000129
  0
VERTEX
  5
1E62
  8
SAPA_PROFIL
 10
88.999999702178187
 20
-75.94871530157009
 30
0.0
  0
VERTEX
  5
1E63
  8
SAPA_PROFIL
 10
88.999999702178187
 20
-82.948715301570076
 30
0.0
 42
-0.4142140000000128
  0
VERTEX
  5
1E64
  8
SAPA_PROFIL
 10
88.499999702178172
 20
-83.44871530157009
 30
0.0
  0
VERTEX
  5
1E65
  8
SAPA_PROFIL
 10
81.299999702178184
 20
-83.448715301570033
 30
0.0
 42
0.4142140000000351
  0
VERTEX
  5
1E66
  8
SAPA_PROFIL
 10
80.999999702178172
 20
-83.748715301570044
 30
0.0
  0
VERTEX
  5
1E67
  8
SAPA_PROFIL
 10
80.999999702178172
 20
-83.910938301570042
 30
0.0
 42
0.3482370000000729
  0
VERTEX
  5
1E68
  8
SAPA_PROFIL
 10
81.231494702178153
 20
-84.203012301570041
 30
0.0
  0
VERTEX
  5
1E69
  8
SAPA_PROFIL
 10
84.837169702178187
 20
-85.048715301569999
 30
0.0
  0
VERTEX
  5
1E6A
  8
SAPA_PROFIL
 10
88.499999702178172
 20
-85.048715301569999
 30
0.0
 42
-0.4142139999999796
  0
VERTEX
  5
1E6B
  8
SAPA_PROFIL
 10
88.999999702178229
 20
-85.548715301569985
 30
0.0
  0
VERTEX
  5
1E6C
  8
SAPA_PROFIL
 10
88.999999702178187
 20
-87.998715301570044
 30
0.0
 42
-0.414214000000017
  0
VERTEX
  5
1E6D
  8
SAPA_PROFIL
 10
88.499999702178172
 20
-88.498715301570044
 30
0.0
 42
0.4142140000000127
  0
VERTEX
  5
1E6E
  8
SAPA_PROFIL
 10
87.999999702178158
 20
-88.998715301570044
 30
0.0
  0
VERTEX
  5
1E6F
  8
SAPA_PROFIL
 10
87.999999702178158
 20
-89.998715301570044
 30
0.0
 42
0.414214000000017
  0
VERTEX
  5
1E70
  8
SAPA_PROFIL
 10
88.499999702178172
 20
-90.498715301570044
 30
0.0
  0
VERTEX
  5
1E71
  8
SAPA_PROFIL
 10
124.9999997021781
 20
-90.498715301570044
 30
0.0
  0
VERTEX
  5
1E72
  8
SAPA_PROFIL
 10
125.4999997021781
 20
-89.998715301570044
 30
0.0
  0
VERTEX
  5
1E73
  8
SAPA_PROFIL
 10
125.4999997021781
 20
-86.298715301569999
 30
0.0
 42
0.4142139999999863
  0
VERTEX
  5
1E74
  8
SAPA_PROFIL
 10
125.1999997021781
 20
-85.998715301570044
 30
0.0
  0
VERTEX
  5
1E75
  8
SAPA_PROFIL
 10
124.4324557021782
 20
-85.998715301570044
 30
0.0
 42
0.2896899999999678
  0
VERTEX
  5
1E76
  8
SAPA_PROFIL
 10
123.5289477021782
 20
-86.570144301570011
 30
0.0
 42
0.5507599999999711
  0
VERTEX
  5
1E77
  8
SAPA_PROFIL
 10
123.7999997021782
 20
-86.998715301570044
 30
0.0
  0
VERTEX
  5
1E78
  8
SAPA_PROFIL
 10
123.9999997021781
 20
-86.998715301570044
 30
0.0
 42
-0.4142139999998755
  0
VERTEX
  5
1E79
  8
SAPA_PROFIL
 10
124.2999997021781
 20
-87.298715301569999
 30
0.0
  0
VERTEX
  5
1E7A
  8
SAPA_PROFIL
 10
124.2999997021781
 20
-88.798715301569999
 30
0.0
 42
-0.4142140000000503
  0
VERTEX
  5
1E7B
  8
SAPA_PROFIL
 10
123.7999997021782
 20
-89.298715301570041
 30
0.0
  0
VERTEX
  5
1E7C
  8
SAPA_PROFIL
 10
120.4999997021781
 20
-89.298715301569985
 30
0.0
 42
-0.4142140000000419
  0
VERTEX
  5
1E7D
  8
SAPA_PROFIL
 10
119.9999997021782
 20
-88.798715301569999
 30
0.0
  0
VERTEX
  5
1E7E
  8
SAPA_PROFIL
 10
119.9999997021782
 20
-87.298715301569999
 30
0.0
 42
-0.4142139999999794
  0
VERTEX
  5
1E7F
  8
SAPA_PROFIL
 10
120.2999997021782
 20
-86.998715301570158
 30
0.0
  0
VERTEX
  5
1E80
  8
SAPA_PROFIL
 10
120.4999997021781
 20
-86.998715301570044
 30
0.0
 42
0.5507599999999436
  0
VERTEX
  5
1E81
  8
SAPA_PROFIL
 10
120.7710527021781
 20
-86.570144301570011
 30
0.0
 42
0.2896899999999595
  0
VERTEX
  5
1E82
  8
SAPA_PROFIL
 10
119.86754470217809
 20
-85.998715301570044
 30
0.0
  0
VERTEX
  5
1E83
  8
SAPA_PROFIL
 10
118.87007270217811
 20
-85.998715301570044
 30
0.0
 42
0.0436610000000022
  0
VERTEX
  5
1E84
  8
SAPA_PROFIL
 10
118.7832487021782
 20
-86.006311301570079
 30
0.0
  0
VERTEX
  5
1E85
  8
SAPA_PROFIL
 10
117.21317570217811
 20
-86.283158301570055
 30
0.0
 42
0.8391000000000101
  0
VERTEX
  5
1E86
  8
SAPA_PROFIL
 10
117.21317570217811
 20
-87.267965301570044
 30
0.0
  0
VERTEX
  5
1E87
  8
SAPA_PROFIL
 10
118.3868247021781
 20
-87.474911301569989
 30
0.0
 42
-0.3639700000000376
  0
VERTEX
  5
1E88
  8
SAPA_PROFIL
 10
118.7999997021782
 20
-87.967315301570096
 30
0.0
  0
VERTEX
  5
1E89
  8
SAPA_PROFIL
 10
118.7999997021782
 20
-88.798715301569999
 30
0.0
 42
-0.437328000000032
  0
VERTEX
  5
1E8A
  8
SAPA_PROFIL
 10
118.26090570217811
 20
-89.297185301570096
 30
0.0
  0
VERTEX
  5
1E8B
  8
SAPA_PROFIL
 10
103.7878467021781
 20
-88.710386301570068
 30
0.0
 42
-0.4023939999998692
  0
VERTEX
  5
1E8C
  8
SAPA_PROFIL
 10
103.499999702178
 20
-88.410632301570061
 30
0.0
  0
VERTEX
  5
1E8D
  8
SAPA_PROFIL
 10
103.4999997021782
 20
-87.610099301570031
 30
0.0
 42
0.259680999999983
  0
VERTEX
  5
1E8E
  8
SAPA_PROFIL
 10
103.40530670217809
 20
-87.440068301570051
 30
0.0
  0
VERTEX
  5
1E8F
  8
SAPA_PROFIL
 10
101.9579607021782
 20
-86.543669301569992
 30
0.0
 42
0.5877029999999889
  0
VERTEX
  5
1E90
  8
SAPA_PROFIL
 10
101.4999997021782
 20
-86.798715301569985
 30
0.0
  0
VERTEX
  5
1E91
  8
SAPA_PROFIL
 10
101.4999997021782
 20
-88.198715301570033
 30
0.0
 42
-0.4142140000000349
  0
VERTEX
  5
1E92
  8
SAPA_PROFIL
 10
101.1999997021781
 20
-88.498715301569945
 30
0.0
  0
VERTEX
  5
1E93
  8
SAPA_PROFIL
 10
98.799999702178184
 20
-88.498715301570044
 30
0.0
 42
-0.4142140000000349
  0
VERTEX
  5
1E94
  8
SAPA_PROFIL
 10
98.499999702178059
 20
-88.198715301570033
 30
0.0
  0
VERTEX
  5
1E95
  8
SAPA_PROFIL
 10
98.499999702178172
 20
-80.018331301570086
 30
0.0
  0
VERTEX
  5
1E96
  8
SAPA_PROFIL
 10
98.199999702178161
 20
-79.49871530157003
 30
0.0
  0
VERTEX
  5
1E97
  8
SAPA_PROFIL
 10
98.499999702178172
 20
-78.979100301570057
 30
0.0
  0
VERTEX
  5
1E98
  8
SAPA_PROFIL
 10
98.499999702178172
 20
-70.798715301570041
 30
0.0
 42
-0.4142135623730882
  0
VERTEX
  5
1E99
  8
SAPA_PROFIL
 10
98.799999702178155
 20
-70.498715301570044
 30
0.0
  0
VERTEX
  5
1E9A
  8
SAPA_PROFIL
 10
101.1999997021781
 20
-70.49871530157003
 30
0.0
 42
-0.4142135623730882
  0
VERTEX
  5
1E9B
  8
SAPA_PROFIL
 10
101.4999997021782
 20
-70.798715301570041
 30
0.0
  0
VERTEX
  5
1E9C
  8
SAPA_PROFIL
 10
101.4999997021782
 20
-72.19871530157009
 30
0.0
 42
0.5877029999999041
  0
VERTEX
  5
1E9D
  8
SAPA_PROFIL
 10
101.9579607021782
 20
-72.45376230157008
 30
0.0
  0
VERTEX
  5
1E9E
  8
SAPA_PROFIL
 10
103.20530670217821
 20
-71.661230301570072
 30
0.0
 42
0.2596809999999552
  0
VERTEX
  5
1E9F
  8
SAPA_PROFIL
 10
103.2999997021782
 20
-71.491200301570075
 30
0.0
  0
VERTEX
  5
1EA0
  8
SAPA_PROFIL
 10
103.2999997021782
 20
-68.496549376401475
 30
0.0
  0
VERTEX
  5
1EA1
  8
SAPA_PROFIL
 10
102.78937771445619
 20
-67.175433958967304
 30
0.0
 42
-0.4142135623730953
  0
VERTEX
  5
1EA2
  8
SAPA_PROFIL
 10
102.9893417589636
 20
-66.801249003491492
 30
0.0
  0
VERTEX
  5
1EA3
  8
SAPA_PROFIL
 10
103.03718750896211
 20
-66.786730594244389
 30
0.0
  0
VERTEX
  5
1EA4
  8
SAPA_PROFIL
 10
103.0372711168457
 20
-65.283629513482381
 30
0.0
 42
0.4769755326981643
  0
VERTEX
  5
1EA5
  8
SAPA_PROFIL
 10
102.6656142418999
 20
-64.981376688975914
 30
0.0
  0
VERTEX
  5
1EA6
  8
SAPA_PROFIL
 10
100.85238377124161
 20
-65.36282328510363
 30
0.0
 42
0.2216946626430194
  0
VERTEX
  5
1EA7
  8
SAPA_PROFIL
 10
100.3115039397648
 20
-65.76863219025843
 30
0.0
  0
VERTEX
  5
1EA8
  8
SAPA_PROFIL
 10
100.159370028656
 20
-66.053314473490076
 30
0.0
 42
0.5773502691897466
  0
VERTEX
  5
1EA9
  8
SAPA_PROFIL
 10
100.34232376876621
 20
-66.347470773744874
 30
0.0
  0
VERTEX
  5
1EAA
  8
SAPA_PROFIL
 10
100.66408149698449
 20
-66.336909407517922
 30
0.0
  0
VERTEX
  5
1EAB
  8
SAPA_PROFIL
 10
101.74864594395621
 20
-68.222753099378977
 30
0.0
  0
VERTEX
  5
1EAC
  8
SAPA_PROFIL
 10
101.8067195809453
 20
-68.414136099372683
 30
0.0
 42
-0.7625858545243257
  0
VERTEX
  5
1EAD
  8
SAPA_PROFIL
 10
101.47639349992831
 20
-68.598715301570167
 30
0.0
  0
SEQEND
  5
1EAE
  8
SAPA_PROFIL
  0
POLYLINE
  5
1520
  8
SAPA_PROFIL
 66
     1
 10
0.0
 20
0.0
 30
0.0
 70
     1
  0
VERTEX
  5
1EAF
  8
SAPA_PROFIL
 10
90.999999702178172
 20
-70.19871530157009
 30
0.0
  0
VERTEX
  5
1EB0
  8
SAPA_PROFIL
 10
96.499999702178187
 20
-70.19871530157009
 30
0.0
 42
-0.4142139999999252
  0
VERTEX
  5
1EB1
  8
SAPA_PROFIL
 10
96.799999702178184
 20
-70.498715301570044
 30
0.0
  0
VERTEX
  5
1EB2
  8
SAPA_PROFIL
 10
96.799999702178184
 20
-88.498715301570044
 30
0.0
 42
-0.4142139999998691
  0
VERTEX
  5
1EB3
  8
SAPA_PROFIL
 10
96.499999702178187
 20
-88.798715301569999
 30
0.0
  0
VERTEX
  5
1EB4
  8
SAPA_PROFIL
 10
90.999999702178172
 20
-88.798715301569999
 30
0.0
 42
-0.4142135623730951
  0
VERTEX
  5
1EB5
  8
SAPA_PROFIL
 10
90.699999702178161
 20
-88.498715301570044
 30
0.0
  0
VERTEX
  5
1EB6
  8
SAPA_PROFIL
 10
90.699999702178161
 20
-70.498715301570044
 30
0.0
 42
-0.4142139999999803
  0
SEQEND
  5
1EB7
  8
SAPA_PROFIL
  0
POLYLINE
  5
1521
  8
SAPA_PROFIL
 62
     4
 66
     1
 10
0.0
 20
0.0
 30
0.0
  0
VERTEX
  5
1EB8
  8
SAPA_PROFIL
 62
     4
 10
100.59442853806419
 20
-38.449386179215601
 30
0.0
 42
0.5571646428658034
  0
VERTEX
  5
1EB9
  8
SAPA_PROFIL
 62
     4
 10
99.726709623908704
 20
-38.986346683352423
 30
0.0
  0
VERTEX
  5
1EBA
  8
SAPA_PROFIL
 62
     4
 10
99.726709623909159
 20
-56.01108391987362
 30
0.0
 42
0.5571645048035741
  0
VERTEX
  5
1EBB
  8
SAPA_PROFIL
 62
     4
 10
100.5944283117753
 20
-56.548044536834681
 30
0.0
  0
VERTEX
  5
1EBC
  8
SAPA_PROFIL
 62
     4
 10
102.2605689678433
 20
-55.717337449287982
 30
0.0
 42
0.284385813979063
  0
VERTEX
  5
1EBD
  8
SAPA_PROFIL
 62
     4
 10
102.4267096239108
 20
-55.448857140807633
 30
0.0
  0
VERTEX
  5
1EBE
  8
SAPA_PROFIL
 62
     4
 10
102.4267096239108
 20
-39.548573462418318
 30
0.0
 42
0.2843858139786238
  0
VERTEX
  5
1EBF
  8
SAPA_PROFIL
 62
     4
 10
102.26056896784389
 20
-39.280093153938033
 30
0.0
  0
VERTEX
  5
1EC0
  8
SAPA_PROFIL
 62
     4
 10
100.59442831177449
 20
-38.449386066390872
 30
0.0
  0
SEQEND
  5
1EC1
  8
SAPA_PROFIL
 62
     4
  0
POLYLINE
  5
1522
  8
SAPA_PROFIL
 62
     4
 66
     1
 10
0.0
 20
0.0
 30
0.0
 70
     1
  0
VERTEX
  5
1EC2
  8
SAPA_PROFIL
 62
     4
 10
102.7835411384083
 20
-61.916326486280269
 30
0.0
  0
VERTEX
  5
1EC3
  8
SAPA_PROFIL
 62
     4
 10
103.1901013344125
 20
-62.180349764656278
 30
0.0
 42
-0.2539676464751066
  0
VERTEX
  5
1EC4
  8
SAPA_PROFIL
 62
     4
 10
103.3267096239086
 20
-62.43195093504098
 30
0.0
  0
VERTEX
  5
1EC5
  8
SAPA_PROFIL
 62
     4
 10
103.3267096239086
 20
-63.813450520246327
 30
0.0
 42
-0.3152987888790479
  0
VERTEX
  5
1EC6
  8
SAPA_PROFIL
 62
     4
 10
102.9977196955704
 20
-64.283296830638633
 30
0.0
  0
VERTEX
  5
1EC7
  8
SAPA_PROFIL
 62
     4
 10
100.53688950511921
 20
-65.178965771547254
 30
0.0
 42
0.2694959974287434
  0
VERTEX
  5
1EC8
  8
SAPA_PROFIL
 62
     4
 10
100.34375753077531
 20
-65.410484817948614
 30
0.0
 42
0.0612686379508233
  0
VERTEX
  5
1EC9
  8
SAPA_PROFIL
 62
     4
 10
100.33017416014469
 20
-65.703160250801886
 30
0.0
  0
VERTEX
  5
1ECA
  8
SAPA_PROFIL
 62
     4
 10
100.1284374814159
 20
-66.052578428110152
 30
0.0
 42
0.5773502691891679
  0
VERTEX
  5
1ECB
  8
SAPA_PROFIL
 62
     4
 10
100.31030281621049
 20
-66.367578428109738
 30
0.0
  0
VERTEX
  5
1ECC
  8
SAPA_PROFIL
 62
     4
 10
100.57741734433679
 20
-66.367578428109979
 30
0.0
  0
VERTEX
  5
1ECD
  8
SAPA_PROFIL
 62
     4
 10
101.3861008056451
 20
-67.766106128744227
 30
0.0
 42
-0.1318219888653519
  0
VERTEX
  5
1ECE
  8
SAPA_PROFIL
 62
     4
 10
101.4263932021825
 20
-67.916279231216578
 30
0.0
  0
VERTEX
  5
1ECF
  8
SAPA_PROFIL
 62
     4
 10
101.4263932021761
 20
-68.098715301653357
 30
0.0
 42
-0.4142135623724291
  0
VERTEX
  5
1ED0
  8
SAPA_PROFIL
 62
     4
 10
101.02639320217649
 20
-68.498715301653903
 30
0.0
  0
VERTEX
  5
1ED1
  8
SAPA_PROFIL
 62
     4
 10
97.626393202175535
 20
-68.498715301652538
 30
0.0
 42
-0.4142135623744271
  0
VERTEX
  5
1ED2
  8
SAPA_PROFIL
 62
     4
 10
97.226393202174535
 20
-68.098715301653357
 30
0.0
  0
VERTEX
  5
1ED3
  8
SAPA_PROFIL
 62
     4
 10
97.226393202173895
 20
-67.91910005938206
 30
0.0
 42
-0.1316524975874005
  0
VERTEX
  5
1ED4
  8
SAPA_PROFIL
 62
     4
 10
97.266585581039493
 20
-67.769100059385238
 30
0.0
  0
VERTEX
  5
1ED5
  8
SAPA_PROFIL
 62
     4
 10
98.192735027692024
 20
-66.164962162382977
 30
0.0
 42
0.1316524975875904
  0
VERTEX
  5
1ED6
  8
SAPA_PROFIL
 62
     4
 10
98.326709623906794
 20
-65.664962162381272
 30
0.0
  0
VERTEX
  5
1ED7
  8
SAPA_PROFIL
 62
     4
 10
98.326709623906794
 20
-65.248715301653903
 30
0.0
 42
0.4142135623730951
  0
VERTEX
  5
1ED8
  8
SAPA_PROFIL
 62
     4
 10
97.326709623906794
 20
-64.248715301653903
 30
0.0
  0
VERTEX
  5
1ED9
  8
SAPA_PROFIL
 62
     4
 10
94.326709623909522
 20
-64.248715301653903
 30
0.0
 42
-0.9999996830128083
  0
VERTEX
  5
1EDA
  8
SAPA_PROFIL
 62
     4
 10
94.326709623907703
 20
-63.248715301653903
 30
0.0
  0
VERTEX
  5
1EDB
  8
SAPA_PROFIL
 62
     4
 10
97.326709623907703
 20
-63.248715301653903
 30
0.0
 42
0.4142135623730951
  0
VERTEX
  5
1EDC
  8
SAPA_PROFIL
 62
     4
 10
98.326709623907703
 20
-62.248715301653903
 30
0.0
  0
VERTEX
  5
1EDD
  8
SAPA_PROFIL
 62
     4
 10
98.326709623907703
 20
-32.74871530156932
 30
0.0
 42
0.4142135623730951
  0
VERTEX
  5
1EDE
  8
SAPA_PROFIL
 62
     4
 10
97.326709623907703
 20
-31.74871530156932
 30
0.0
  0
VERTEX
  5
1EDF
  8
SAPA_PROFIL
 62
     4
 10
94.326709623909522
 20
-31.74871530156932
 30
0.0
 42
-0.9999999999999998
  0
VERTEX
  5
1EE0
  8
SAPA_PROFIL
 62
     4
 10
94.326709623909522
 20
-30.74871530156932
 30
0.0
  0
VERTEX
  5
1EE1
  8
SAPA_PROFIL
 62
     4
 10
97.326709623907703
 20
-30.74871530156932
 30
0.0
 42
0.4142135623736278
  0
VERTEX
  5
1EE2
  8
SAPA_PROFIL
 62
     4
 10
98.326709623907703
 20
-29.74871530156932
 30
0.0
  0
VERTEX
  5
1EE3
  8
SAPA_PROFIL
 62
     4
 10
98.326709623907703
 20
-29.33246844084286
 30
0.0
 42
0.1316524975874375
  0
VERTEX
  5
1EE4
  8
SAPA_PROFIL
 62
     4
 10
98.192735027691668
 20
-28.832468440842661
 30
0.0
  0
VERTEX
  5
1EE5
  8
SAPA_PROFIL
 62
     4
 10
97.266585581039493
 20
-27.228330543840709
 30
0.0
 42
-0.1316524975874
  0
VERTEX
  5
1EE6
  8
SAPA_PROFIL
 62
     4
 10
97.226393202173895
 20
-27.078330543841169
 30
0.0
  0
VERTEX
  5
1EE7
  8
SAPA_PROFIL
 62
     4
 10
97.226393202174535
 20
-26.898715301569869
 30
0.0
 42
-0.4142135623744271
  0
VERTEX
  5
1EE8
  8
SAPA_PROFIL
 62
     4
 10
97.626393202175535
 20
-26.49871530157068
 30
0.0
  0
VERTEX
  5
1EE9
  8
SAPA_PROFIL
 62
     4
 10
101.02639320217649
 20
-26.49871530156932
 30
0.0
 42
-0.4142135623724291
  0
VERTEX
  5
1EEA
  8
SAPA_PROFIL
 62
     4
 10
101.4263932021761
 20
-26.898715301569869
 30
0.0
  0
VERTEX
  5
1EEB
  8
SAPA_PROFIL
 62
     4
 10
101.4263932021825
 20
-27.081151372006641
 30
0.0
 42
-0.1318219888653524
  0
VERTEX
  5
1EEC
  8
SAPA_PROFIL
 62
     4
 10
101.3861008056451
 20
-27.231324474478988
 30
0.0
  0
VERTEX
  5
1EED
  8
SAPA_PROFIL
 62
     4
 10
100.57741734442079
 20
-28.629852174958639
 30
0.0
  0
VERTEX
  5
1EEE
  8
SAPA_PROFIL
 62
     4
 10
100.31030281620779
 20
-28.629852174958639
 30
0.0
 42
0.577350269189159
  0
VERTEX
  5
1EEF
  8
SAPA_PROFIL
 62
     4
 10
100.1284374814132
 20
-28.944852174958239
 30
0.0
  0
VERTEX
  5
1EF0
  8
SAPA_PROFIL
 62
     4
 10
100.33017416009029
 20
-29.294270352176898
 30
0.0
 42
0.0612687673629489
  0
VERTEX
  5
1EF1
  8
SAPA_PROFIL
 62
     4
 10
100.3437575307765
 20
-29.58694578527712
 30
0.0
 42
0.2694959974285039
  0
VERTEX
  5
1EF2
  8
SAPA_PROFIL
 62
     4
 10
100.5368895051204
 20
-29.818464831677641
 30
0.0
  0
VERTEX
  5
1EF3
  8
SAPA_PROFIL
 62
     4
 10
102.99771969557359
 20
-30.71413377258731
 30
0.0
 42
-0.3152987888784035
  0
VERTEX
  5
1EF4
  8
SAPA_PROFIL
 62
     4
 10
103.3267096239102
 20
-31.183980082980529
 30
0.0
  0
VERTEX
  5
1EF5
  8
SAPA_PROFIL
 62
     4
 10
103.3267096239086
 20
-32.56547966818497
 30
0.0
 42
-0.2539676464741841
  0
VERTEX
  5
1EF6
  8
SAPA_PROFIL
 62
     4
 10
103.1901013344133
 20
-32.817080838569041
 30
0.0
  0
VERTEX
  5
1EF7
  8
SAPA_PROFIL
 62
     4
 10
102.7835411384083
 20
-33.081104116945681
 30
0.0
 42
-0.5862177598324623
  0
VERTEX
  5
1EF8
  8
SAPA_PROFIL
 62
     4
 10
102.3267096239118
 20
-32.825362301707337
 30
0.0
  0
VERTEX
  5
1EF9
  8
SAPA_PROFIL
 62
     4
 10
102.3267096239195
 20
-31.88418762119753
 30
0.0
 42
0.3152987888813165
  0
VERTEX
  5
1EFA
  8
SAPA_PROFIL
 62
     4
 10
101.9977196955828
 20
-31.41434131079977
 30
0.0
  0
VERTEX
  5
1EFB
  8
SAPA_PROFIL
 62
     4
 10
100.7977196955715
 20
-30.977577029675821
 30
0.0
 42
0.5205670505515651
  0
VERTEX
  5
1EFC
  8
SAPA_PROFIL
 62
     4
 10
100.12670962390879
 20
-31.44742334006904
 30
0.0
  0
VERTEX
  5
1EFD
  8
SAPA_PROFIL
 62
     4
 10
100.1267096239087
 20
-36.463864280737887
 30
0.0
 42
0.3702522326300203
  0
VERTEX
  5
1EFE
  8
SAPA_PROFIL
 62
     4
 10
100.38116957657449
 20
-36.760387642531207
 30
0.0
 42
0.0982365330332397
  0
VERTEX
  5
1EFF
  8
SAPA_PROFIL
 62
     4
 10
102.06885635156949
 20
-36.850840400742157
 30
0.0
 42
0.3735060174783164
  0
VERTEX
  5
1F00
  8
SAPA_PROFIL
 62
     4
 10
102.32670962390949
 20
-36.553815732831183
 30
0.0
  0
VERTEX
  5
1F01
  8
SAPA_PROFIL
 62
     4
 10
102.3267096239104
 20
-36.12536230170852
 30
0.0
 42
-0.5920056181162531
  0
VERTEX
  5
1F02
  8
SAPA_PROFIL
 62
     4
 10
102.7879131264383
 20
-35.872353545391121
 30
0.0
  0
VERTEX
  5
1F03
  8
SAPA_PROFIL
 62
     4
 10
103.1901013344166
 20
-36.133537621546822
 30
0.0
 42
-0.2539676464746725
  0
VERTEX
  5
1F04
  8
SAPA_PROFIL
 62
     4
 10
103.326709623912
 20
-36.385138791930594
 30
0.0
  0
VERTEX
  5
1F05
  8
SAPA_PROFIL
 62
     4
 10
103.3267096239104
 20
-58.612291811296267
 30
0.0
 42
-0.2539676464741819
  0
VERTEX
  5
1F06
  8
SAPA_PROFIL
 62
     4
 10
103.1901013344166
 20
-58.863892981679122
 30
0.0
  0
VERTEX
  5
1F07
  8
SAPA_PROFIL
 62
     4
 10
102.7879131264383
 20
-59.125077057832939
 30
0.0
 42
-0.5920055144124249
  0
VERTEX
  5
1F08
  8
SAPA_PROFIL
 62
     4
 10
102.3267096239104
 20
-58.87206830151743
 30
0.0
  0
VERTEX
  5
1F09
  8
SAPA_PROFIL
 62
     4
 10
102.3267096491854
 20
-58.443614824227211
 30
0.0
 42
0.3735060174775405
  0
VERTEX
  5
1F0A
  8
SAPA_PROFIL
 62
     4
 10
102.0688563768453
 20
-58.146590156317522
 30
0.0
 42
0.0355900683670349
  0
VERTEX
  5
1F0B
  8
SAPA_PROFIL
 62
     4
 10
101.4529827900455
 20
-58.10269659228527
 30
0.0
 42
0.0624282003873116
  0
VERTEX
  5
1F0C
  8
SAPA_PROFIL
 62
     4
 10
100.3811696018504
 20
-58.23704291452821
 30
0.0
 42
0.3702522326309292
  0
VERTEX
  5
1F0D
  8
SAPA_PROFIL
 62
     4
 10
100.1267096491847
 20
-58.533566276321586
 30
0.0
  0
VERTEX
  5
1F0E
  8
SAPA_PROFIL
 62
     4
 10
100.1267096239085
 20
-63.550007263155088
 30
0.0
 42
0.5205670505515692
  0
VERTEX
  5
1F0F
  8
SAPA_PROFIL
 62
     4
 10
100.7977196955715
 20
-64.019853573548303
 30
0.0
  0
VERTEX
  5
1F10
  8
SAPA_PROFIL
 62
     4
 10
101.997719695581
 20
-63.583089292423367
 30
0.0
 42
0.3152987888807539
  0
VERTEX
  5
1F11
  8
SAPA_PROFIL
 62
     4
 10
102.3267096239186
 20
-63.113242982027522
 30
0.0
  0
VERTEX
  5
1F12
  8
SAPA_PROFIL
 62
     4
 10
102.3267096239118
 20
-62.172068301518429
 30
0.0
 42
-0.5862175119221242
  0
VERTEX
  5
1F13
  8
SAPA_PROFIL
 62
     4
 10
102.7835409496669
 20
-61.916326370536467
 30
0.0
 42
0.0000002084758573
  0
SEQEND
  5
1F14
  8
SAPA_PROFIL
 62
     4
  0
POLYLINE
  5
1523
  8
SAPA_PROFIL
 62
     4
 66
     1
 10
0.0
 20
0.0
 30
0.0
  0
VERTEX
  5
1F15
  8
SAPA_PROFIL
 62
     4
 10
77.705571461867777
 20
-56.548044424009717
 30
0.0
 42
0.5571646428658034
  0
VERTEX
  5
1F16
  8
SAPA_PROFIL
 62
     4
 10
78.573290376023323
 20
-56.01108391987286
 30
0.0
  0
VERTEX
  5
1F17
  8
SAPA_PROFIL
 62
     4
 10
78.573290376022413
 20
-38.986346683351663
 30
0.0
 42
0.5571645048035741
  0
VERTEX
  5
1F18
  8
SAPA_PROFIL
 62
     4
 10
77.705571688156226
 20
-38.44938606639063
 30
0.0
  0
VERTEX
  5
1F19
  8
SAPA_PROFIL
 62
     4
 10
76.039431032088217
 20
-39.280093153937372
 30
0.0
 42
0.284385813979063
  0
VERTEX
  5
1F1A
  8
SAPA_PROFIL
 62
     4
 10
75.87329037602079
 20
-39.548573462417728
 30
0.0
  0
VERTEX
  5
1F1B
  8
SAPA_PROFIL
 62
     4
 10
75.873290376021217
 20
-55.448857140807029
 30
0.0
 42
0.2843858139786238
  0
VERTEX
  5
1F1C
  8
SAPA_PROFIL
 62
     4
 10
76.039431032088146
 20
-55.717337449287321
 30
0.0
  0
VERTEX
  5
1F1D
  8
SAPA_PROFIL
 62
     4
 10
77.705571688157519
 20
-56.548044536834439
 30
0.0
  0
SEQEND
  5
1F1E
  8
SAPA_PROFIL
 62
     4
  0
POLYLINE
  5
1524
  8
SAPA_PROFIL
 62
     4
 66
     1
 10
0.0
 20
0.0
 30
0.0
 70
     1
  0
VERTEX
  5
1F1F
  8
SAPA_PROFIL
 62
     4
 10
75.516458861523034
 20
-33.081104116945099
 30
0.0
  0
VERTEX
  5
1F20
  8
SAPA_PROFIL
 62
     4
 10
75.109898665518884
 20
-32.817080838569098
 30
0.0
 42
-0.2539676464751066
  0
VERTEX
  5
1F21
  8
SAPA_PROFIL
 62
     4
 10
74.973290376022774
 20
-32.565479668184402
 30
0.0
  0
VERTEX
  5
1F22
  8
SAPA_PROFIL
 62
     4
 10
74.973290376022746
 20
-31.183980082979051
 30
0.0
 42
-0.3152987888790479
  0
VERTEX
  5
1F23
  8
SAPA_PROFIL
 62
     4
 10
75.302280304360892
 20
-30.714133772586731
 30
0.0
  0
VERTEX
  5
1F24
  8
SAPA_PROFIL
 62
     4
 10
77.763110494812139
 20
-29.81846483167806
 30
0.0
 42
0.2694959974287434
  0
VERTEX
  5
1F25
  8
SAPA_PROFIL
 62
     4
 10
77.956242469156024
 20
-29.586945785276701
 30
0.0
 42
0.0612686379508233
  0
VERTEX
  5
1F26
  8
SAPA_PROFIL
 62
     4
 10
77.969825839786523
 20
-29.294270352423421
 30
0.0
  0
VERTEX
  5
1F27
  8
SAPA_PROFIL
 62
     4
 10
78.171562518515344
 20
-28.944852175115141
 30
0.0
 42
0.5773502691891679
  0
VERTEX
  5
1F28
  8
SAPA_PROFIL
 62
     4
 10
77.989697183720764
 20
-28.629852175115559
 30
0.0
  0
VERTEX
  5
1F29
  8
SAPA_PROFIL
 62
     4
 10
77.722582655594465
 20
-28.629852175115332
 30
0.0
  0
VERTEX
  5
1F2A
  8
SAPA_PROFIL
 62
     4
 10
76.913899194286103
 20
-27.231324474481099
 30
0.0
 42
-0.1318219888653519
  0
VERTEX
  5
1F2B
  8
SAPA_PROFIL
 62
     4
 10
76.873606797748707
 20
-27.081151372008762
 30
0.0
  0
VERTEX
  5
1F2C
  8
SAPA_PROFIL
 62
     4
 10
76.873606797755073
 20
-26.898715301571979
 30
0.0
 42
-0.4142135623724291
  0
VERTEX
  5
1F2D
  8
SAPA_PROFIL
 62
     4
 10
77.273606797754695
 20
-26.498715301571419
 30
0.0
  0
VERTEX
  5
1F2E
  8
SAPA_PROFIL
 62
     4
 10
80.673606797755696
 20
-26.498715301572691
 30
0.0
 42
-0.4142135623744271
  0
VERTEX
  5
1F2F
  8
SAPA_PROFIL
 62
     4
 10
81.073606797756725
 20
-26.898715301571858
 30
0.0
  0
VERTEX
  5
1F30
  8
SAPA_PROFIL
 62
     4
 10
81.073606797757364
 20
-27.078330543843158
 30
0.0
 42
-0.1316524975874005
  0
VERTEX
  5
1F31
  8
SAPA_PROFIL
 62
     4
 10
81.033414418891766
 20
-27.228330543839981
 30
0.0
  0
VERTEX
  5
1F32
  8
SAPA_PROFIL
 62
     4
 10
80.107264972239264
 20
-28.832468440842259
 30
0.0
 42
0.1316524975875904
  0
VERTEX
  5
1F33
  8
SAPA_PROFIL
 62
     4
 10
79.973290376024508
 20
-29.332468440843972
 30
0.0
  0
VERTEX
  5
1F34
  8
SAPA_PROFIL
 62
     4
 10
79.973290376024522
 20
-29.748715301571341
 30
0.0
 42
0.4142135623730951
  0
VERTEX
  5
1F35
  8
SAPA_PROFIL
 62
     4
 10
80.973290376024536
 20
-30.74871530157132
 30
0.0
  0
VERTEX
  5
1F36
  8
SAPA_PROFIL
 62
     4
 10
83.973290376021808
 20
-30.748715301571242
 30
0.0
 42
-0.9999996830128083
  0
VERTEX
  5
1F37
  8
SAPA_PROFIL
 62
     4
 10
83.973290376023655
 20
-31.748715301571242
 30
0.0
  0
VERTEX
  5
1F38
  8
SAPA_PROFIL
 62
     4
 10
80.97329037602367
 20
-31.74871530157132
 30
0.0
 42
0.4142135623730951
  0
VERTEX
  5
1F39
  8
SAPA_PROFIL
 62
     4
 10
79.973290376023684
 20
-32.748715301571352
 30
0.0
  0
VERTEX
  5
1F3A
  8
SAPA_PROFIL
 62
     4
 10
79.973290376024465
 20
-62.248715301655928
 30
0.0
 42
0.4142135623730951
  0
VERTEX
  5
1F3B
  8
SAPA_PROFIL
 62
     4
 10
80.973290376024508
 20
-63.248715301655899
 30
0.0
  0
VERTEX
  5
1F3C
  8
SAPA_PROFIL
 62
     4
 10
83.973290376022675
 20
-63.248715301655821
 30
0.0
 42
-0.9999999999999998
  0
VERTEX
  5
1F3D
  8
SAPA_PROFIL
 62
     4
 10
83.973290376022717
 20
-64.248715301655821
 30
0.0
  0
VERTEX
  5
1F3E
  8
SAPA_PROFIL
 62
     4
 10
80.973290376024536
 20
-64.248715301655892
 30
0.0
 42
0.4142135623736278
  0
VERTEX
  5
1F3F
  8
SAPA_PROFIL
 62
     4
 10
79.973290376024565
 20
-65.24871530165592
 30
0.0
  0
VERTEX
  5
1F40
  8
SAPA_PROFIL
 62
     4
 10
79.973290376024579
 20
-65.66496216238238
 30
0.0
 42
0.1316524975874375
  0
VERTEX
  5
1F41
  8
SAPA_PROFIL
 62
     4
 10
80.107264972240614
 20
-66.164962162382579
 30
0.0
  0
VERTEX
  5
1F42
  8
SAPA_PROFIL
 62
     4
 10
81.033414418892846
 20
-67.769100059384499
 30
0.0
 42
-0.1316524975874
  0
VERTEX
  5
1F43
  8
SAPA_PROFIL
 62
     4
 10
81.073606797758444
 20
-67.919100059384036
 30
0.0
  0
VERTEX
  5
1F44
  8
SAPA_PROFIL
 62
     4
 10
81.073606797757819
 20
-68.098715301655346
 30
0.0
 42
-0.4142135623744271
  0
VERTEX
  5
1F45
  8
SAPA_PROFIL
 62
     4
 10
80.673606797756804
 20
-68.498715301654556
 30
0.0
  0
VERTEX
  5
1F46
  8
SAPA_PROFIL
 62
     4
 10
77.273606797755818
 20
-68.498715301656006
 30
0.0
 42
-0.4142135623724291
  0
VERTEX
  5
1F47
  8
SAPA_PROFIL
 62
     4
 10
76.873606797756182
 20
-68.09871530165546
 30
0.0
  0
VERTEX
  5
1F48
  8
SAPA_PROFIL
 62
     4
 10
76.873606797749801
 20
-67.916279231218681
 30
0.0
 42
-0.1318219888653524
  0
VERTEX
  5
1F49
  8
SAPA_PROFIL
 62
     4
 10
76.913899194287183
 20
-67.766106128746344
 30
0.0
  0
VERTEX
  5
1F4A
  8
SAPA_PROFIL
 62
     4
 10
77.722582655511474
 20
-66.367578428266668
 30
0.0
  0
VERTEX
  5
1F4B
  8
SAPA_PROFIL
 62
     4
 10
77.98969718372453
 20
-66.367578428266654
 30
0.0
 42
0.577350269189159
  0
VERTEX
  5
1F4C
  8
SAPA_PROFIL
 62
     4
 10
78.171562518519082
 20
-66.052578428267054
 30
0.0
  0
VERTEX
  5
1F4D
  8
SAPA_PROFIL
 62
     4
 10
77.969825839841974
 20
-65.703160251048402
 30
0.0
 42
0.0612687673629489
  0
VERTEX
  5
1F4E
  8
SAPA_PROFIL
 62
     4
 10
77.956242469155754
 20
-65.410484817948188
 30
0.0
 42
0.2694959974285039
  0
VERTEX
  5
1F4F
  8
SAPA_PROFIL
 62
     4
 10
77.763110494811784
 20
-65.178965771547666
 30
0.0
  0
VERTEX
  5
1F50
  8
SAPA_PROFIL
 62
     4
 10
75.302280304358604
 20
-64.283296830638065
 30
0.0
 42
-0.3152987888784035
  0
VERTEX
  5
1F51
  8
SAPA_PROFIL
 62
     4
 10
74.973290376022021
 20
-63.813450520244849
 30
0.0
  0
VERTEX
  5
1F52
  8
SAPA_PROFIL
 62
     4
 10
74.973290376023584
 20
-62.431950935040412
 30
0.0
 42
-0.2539676464741841
  0
VERTEX
  5
1F53
  8
SAPA_PROFIL
 62
     4
 10
75.109898665518841
 20
-62.180349764656341
 30
0.0
  0
VERTEX
  5
1F54
  8
SAPA_PROFIL
 62
     4
 10
75.516458861523816
 20
-61.916326486279686
 30
0.0
 42
-0.5862177598324623
  0
VERTEX
  5
1F55
  8
SAPA_PROFIL
 62
     4
 10
75.97329037602033
 20
-62.172068301518017
 30
0.0
  0
VERTEX
  5
1F56
  8
SAPA_PROFIL
 62
     4
 10
75.973290376012685
 20
-63.113242982027828
 30
0.0
 42
0.3152987888813165
  0
VERTEX
  5
1F57
  8
SAPA_PROFIL
 62
     4
 10
76.302280304349452
 20
-63.583089292425569
 30
0.0
  0
VERTEX
  5
1F58
  8
SAPA_PROFIL
 62
     4
 10
77.502280304360696
 20
-64.019853573549511
 30
0.0
 42
0.5205670505515651
  0
VERTEX
  5
1F59
  8
SAPA_PROFIL
 62
     4
 10
78.173290376023431
 20
-63.55000726315626
 30
0.0
  0
VERTEX
  5
1F5A
  8
SAPA_PROFIL
 62
     4
 10
78.173290376023317
 20
-58.53356632248741
 30
0.0
 42
0.3702522326300203
  0
VERTEX
  5
1F5B
  8
SAPA_PROFIL
 62
     4
 10
77.918830423357605
 20
-58.237042960694083
 30
0.0
 42
0.0982365330332397
  0
VERTEX
  5
1F5C
  8
SAPA_PROFIL
 62
     4
 10
76.231143648362604
 20
-58.146590202483203
 30
0.0
 42
0.3735060174783164
  0
VERTEX
  5
1F5D
  8
SAPA_PROFIL
 62
     4
 10
75.973290376022575
 20
-58.443614870394178
 30
0.0
  0
VERTEX
  5
1F5E
  8
SAPA_PROFIL
 62
     4
 10
75.973290376021666
 20
-58.872068301516833
 30
0.0
 42
-0.5920056181162531
  0
VERTEX
  5
1F5F
  8
SAPA_PROFIL
 62
     4
 10
75.512086873493757
 20
-59.125077057834247
 30
0.0
  0
VERTEX
  5
1F60
  8
SAPA_PROFIL
 62
     4
 10
75.109898665515445
 20
-58.863892981678561
 30
0.0
 42
-0.2539676464746725
  0
VERTEX
  5
1F61
  8
SAPA_PROFIL
 62
     4
 10
74.973290376020074
 20
-58.612291811294803
 30
0.0
  0
VERTEX
  5
1F62
  8
SAPA_PROFIL
 62
     4
 10
74.973290376021055
 20
-36.385138791929108
 30
0.0
 42
-0.2539676464741819
  0
VERTEX
  5
1F63
  8
SAPA_PROFIL
 62
     4
 10
75.109898665514834
 20
-36.13353762154626
 30
0.0
  0
VERTEX
  5
1F64
  8
SAPA_PROFIL
 62
     4
 10
75.512086873493161
 20
-35.872353545392428
 30
0.0
 42
-0.5920055144124249
  0
VERTEX
  5
1F65
  8
SAPA_PROFIL
 62
     4
 10
75.973290376021055
 20
-36.125362301707931
 30
0.0
  0
VERTEX
  5
1F66
  8
SAPA_PROFIL
 62
     4
 10
75.973290350746055
 20
-36.553815778998143
 30
0.0
 42
0.3735060174775405
  0
VERTEX
  5
1F67
  8
SAPA_PROFIL
 62
     4
 10
76.231143623086155
 20
-36.850840446907817
 30
0.0
 42
0.0355900683670349
  0
VERTEX
  5
1F68
  8
SAPA_PROFIL
 62
     4
 10
76.847017209885948
 20
-36.894734010940063
 30
0.0
 42
0.0624282003873116
  0
VERTEX
  5
1F69
  8
SAPA_PROFIL
 62
     4
 10
77.91883039808107
 20
-36.760387688697087
 30
0.0
 42
0.3702522326309292
  0
VERTEX
  5
1F6A
  8
SAPA_PROFIL
 62
     4
 10
78.173290350746782
 20
-36.46386432690371
 30
0.0
  0
VERTEX
  5
1F6B
  8
SAPA_PROFIL
 62
     4
 10
78.173290376022791
 20
-31.447423340070198
 30
0.0
 42
0.5205670505515692
  0
VERTEX
  5
1F6C
  8
SAPA_PROFIL
 62
     4
 10
77.5022803043598
 20
-30.977577029677001
 30
0.0
  0
VERTEX
  5
1F6D
  8
SAPA_PROFIL
 62
     4
 10
76.302280304350376
 20
-31.41434131080198
 30
0.0
 42
0.3152987888807539
  0
VERTEX
  5
1F6E
  8
SAPA_PROFIL
 62
     4
 10
75.973290376012756
 20
-31.884187621197839
 30
0.0
  0
VERTEX
  5
1F6F
  8
SAPA_PROFIL
 62
     4
 10
75.973290376019605
 20
-32.825362301706932
 30
0.0
 42
-0.5862175119221242
  0
VERTEX
  5
1F70
  8
SAPA_PROFIL
 62
     4
 10
75.516459050264473
 20
-33.081104232688887
 30
0.0
 42
0.0000002084758573
  0
SEQEND
  5
1F71
  8
SAPA_PROFIL
 62
     4
  0
POLYLINE
  5
1525
  8
SAPA_PROFIL
 66
     1
 10
0.0
 20
0.0
 30
0.0
 70
     1
  0
VERTEX
  5
1F72
  8
SAPA_PROFIL
 10
10.69999999989062
 20
-87.001284576350514
 30
0.0
 42
0.5507604245874563
  0
VERTEX
  5
1F73
  8
SAPA_PROFIL
 10
10.97105237073359
 20
-86.572713147767274
 30
0.0
 42
0.2896898632860104
  0
VERTEX
  5
1F74
  8
SAPA_PROFIL
 10
10.0675444678549
 20
-86.001284576394625
 30
0.0
  0
VERTEX
  5
1F75
  8
SAPA_PROFIL
 10
9.2999999998444594
 20
-86.001284576394625
 30
0.0
 42
0.4142135623901312
  0
VERTEX
  5
1F76
  8
SAPA_PROFIL
 10
8.9999999998444462
 20
-86.301284576412073
 30
0.0
  0
VERTEX
  5
1F77
  8
SAPA_PROFIL
 10
9.0000000000562466
 20
-89.998715427517453
 30
0.0
 42
0.4142342928453111
  0
VERTEX
  5
1F78
  8
SAPA_PROFIL
 10
9.5000353889556948
 20
-90.498715426235933
 30
0.0
  0
VERTEX
  5
1F79
  8
SAPA_PROFIL
 10
82.499964611043865
 20
-90.498715169402075
 30
0.0
 42
0.4142342928453111
  0
VERTEX
  5
1F7A
  8
SAPA_PROFIL
 10
82.999999999943299
 20
-89.998715170683624
 30
0.0
  0
VERTEX
  5
1F7B
  8
SAPA_PROFIL
 10
83.000000000155154
 20
-86.301284319578215
 30
0.0
 42
0.4142135623901312
  0
VERTEX
  5
1F7C
  8
SAPA_PROFIL
 10
82.700000000155086
 20
-86.001284319560696
 30
0.0
  0
VERTEX
  5
1F7D
  8
SAPA_PROFIL
 10
81.932455532144644
 20
-86.001284319560739
 30
0.0
 42
0.2896898632860027
  0
VERTEX
  5
1F7E
  8
SAPA_PROFIL
 10
81.028947629267364
 20
-86.572712890934099
 30
0.0
 42
0.5507604245874563
  0
VERTEX
  5
1F7F
  8
SAPA_PROFIL
 10
81.300000000108923
 20
-87.001284319515094
 30
0.0
  0
VERTEX
  5
1F80
  8
SAPA_PROFIL
 10
81.500000000119229
 20
-87.001284319531763
 30
0.0
 42
-0.4142135623681295
  0
VERTEX
  5
1F81
  8
SAPA_PROFIL
 10
81.800000000101718
 20
-87.301284319544166
 30
0.0
  0
VERTEX
  5
1F82
  8
SAPA_PROFIL
 10
81.800000000042104
 20
-88.798715170555212
 30
0.0
 42
-0.4142135623609412
  0
VERTEX
  5
1F83
  8
SAPA_PROFIL
 10
81.300000000042104
 20
-89.298715170555226
 30
0.0
  0
VERTEX
  5
1F84
  8
SAPA_PROFIL
 10
78.000000000041183
 20
-89.298715170555226
 30
0.0
 42
-0.4142135623852489
  0
VERTEX
  5
1F85
  8
SAPA_PROFIL
 10
77.500000000041183
 20
-88.798715170534464
 30
0.0
  0
VERTEX
  5
1F86
  8
SAPA_PROFIL
 10
77.500000000100925
 20
-87.301284319577647
 30
0.0
 42
-0.4142135623780607
  0
VERTEX
  5
1F87
  8
SAPA_PROFIL
 10
77.800000000118374
 20
-87.001284319590027
 30
0.0
  0
VERTEX
  5
1F88
  8
SAPA_PROFIL
 10
78.0000000001084
 20
-87.001284319601083
 30
0.0
 42
0.5507604245840011
  0
VERTEX
  5
1F89
  8
SAPA_PROFIL
 10
78.271052371005482
 20
-86.57271289104807
 30
0.0
 42
0.2896898633203997
  0
VERTEX
  5
1F8A
  8
SAPA_PROFIL
 10
77.367544468072353
 20
-86.001284319560753
 30
0.0
  0
VERTEX
  5
1F8B
  8
SAPA_PROFIL
 10
76.326328322680126
 20
-86.001284319560753
 30
0.0
  0
VERTEX
  5
1F8C
  8
SAPA_PROFIL
 10
74.713175911178382
 20
-86.285726613703389
 30
0.0
 42
0.8390996311772029
  0
VERTEX
  5
1F8D
  8
SAPA_PROFIL
 10
74.713175911178382
 20
-87.270534366715594
 30
0.0
  0
VERTEX
  5
1F8E
  8
SAPA_PROFIL
 10
75.886824088845401
 20
-87.477480206297642
 30
0.0
 42
-0.363970234266201
  0
VERTEX
  5
1F8F
  8
SAPA_PROFIL
 10
76.300000000011892
 20
-87.969884082803745
 30
0.0
  0
VERTEX
  5
1F90
  8
SAPA_PROFIL
 10
76.300000000011892
 20
-88.798358715293006
 30
0.0
 42
-0.426132608942994
  0
VERTEX
  5
1F91
  8
SAPA_PROFIL
 10
75.779744535551274
 20
-89.297948262981393
 30
0.0
  0
VERTEX
  5
1F92
  8
SAPA_PROFIL
 10
61.287846721108359
 20
-88.710385687852224
 30
0.0
 42
-0.4023941304324702
  0
VERTEX
  5
1F93
  8
SAPA_PROFIL
 10
60.999999999784762
 20
-88.410631959239183
 30
0.0
  0
VERTEX
  5
1F94
  8
SAPA_PROFIL
 10
60.999999999784677
 20
-87.610098740874335
 30
0.0
 42
0.259681233730068
  0
VERTEX
  5
1F95
  8
SAPA_PROFIL
 10
60.905306804536529
 20
-87.440067929334262
 30
0.0
  0
VERTEX
  5
1F96
  8
SAPA_PROFIL
 10
59.457960206912439
 20
-86.543668952092048
 30
0.0
 42
0.5877032589250129
  0
VERTEX
  5
1F97
  8
SAPA_PROFIL
 10
58.999999999784762
 20
-86.798715169402115
 30
0.0
  0
VERTEX
  5
1F98
  8
SAPA_PROFIL
 10
58.999999999784727
 20
-88.198715169402078
 30
0.0
 42
-0.4142135623731242
  0
VERTEX
  5
1F99
  8
SAPA_PROFIL
 10
58.699999999784637
 20
-88.498715169402132
 30
0.0
  0
VERTEX
  5
1F9A
  8
SAPA_PROFIL
 10
56.299999999784738
 20
-88.498715169402132
 30
0.0
 42
-0.4142135623730951
  0
VERTEX
  5
1F9B
  8
SAPA_PROFIL
 10
55.999999999784762
 20
-88.198715169402121
 30
0.0
  0
VERTEX
  5
1F9C
  8
SAPA_PROFIL
 10
55.999999999784762
 20
-78.598715169402126
 30
0.0
 42
-0.4142135623731409
  0
VERTEX
  5
1F9D
  8
SAPA_PROFIL
 10
56.299999999784831
 20
-78.298715169402115
 30
0.0
  0
VERTEX
  5
1F9E
  8
SAPA_PROFIL
 10
60.699999999784751
 20
-78.298715169401973
 30
0.0
 42
0.414213562373195
  0
VERTEX
  5
1F9F
  8
SAPA_PROFIL
 10
60.999999999784848
 20
-77.99871516940199
 30
0.0
  0
VERTEX
  5
1FA0
  8
SAPA_PROFIL
 10
60.999999999784762
 20
-76.514627104048785
 30
0.0
 42
0.2596812337301437
  0
VERTEX
  5
1FA1
  8
SAPA_PROFIL
 10
60.905306804536529
 20
-76.344596292508712
 30
0.0
  0
VERTEX
  5
1FA2
  8
SAPA_PROFIL
 10
60.25796020691245
 20
-75.943668947956922
 30
0.0
 42
0.587703258924989
  0
VERTEX
  5
1FA3
  8
SAPA_PROFIL
 10
59.799999999784738
 20
-76.198715165267018
 30
0.0
  0
VERTEX
  5
1FA4
  8
SAPA_PROFIL
 10
59.799999999784738
 20
-76.598715169402126
 30
0.0
 42
-0.4142135623731492
  0
VERTEX
  5
1FA5
  8
SAPA_PROFIL
 10
59.499999999784841
 20
-76.898715169402138
 30
0.0
  0
VERTEX
  5
1FA6
  8
SAPA_PROFIL
 10
56.299999999784738
 20
-76.898715169402081
 30
0.0
 42
-0.414213562373195
  0
VERTEX
  5
1FA7
  8
SAPA_PROFIL
 10
55.999999999784762
 20
-76.598715169402126
 30
0.0
  0
VERTEX
  5
1FA8
  8
SAPA_PROFIL
 10
55.999999999784762
 20
-70.798715169402115
 30
0.0
 42
-0.4142135623731242
  0
VERTEX
  5
1FA9
  8
SAPA_PROFIL
 10
56.299999999784738
 20
-70.498715169402146
 30
0.0
  0
VERTEX
  5
1FAA
  8
SAPA_PROFIL
 10
58.699999999784637
 20
-70.498715169402075
 30
0.0
 42
-0.4142135623730659
  0
VERTEX
  5
1FAB
  8
SAPA_PROFIL
 10
58.999999999784762
 20
-70.798715169402087
 30
0.0
  0
VERTEX
  5
1FAC
  8
SAPA_PROFIL
 10
58.999999999784762
 20
-72.198715169402092
 30
0.0
 42
0.5920056181179502
  0
VERTEX
  5
1FAD
  8
SAPA_PROFIL
 10
59.461203502311541
 20
-72.451723925719094
 30
0.0
  0
VERTEX
  5
1FAE
  8
SAPA_PROFIL
 10
60.707469001469178
 20
-71.657670919542511
 30
0.0
 42
0.2562769736732326
  0
VERTEX
  5
1FAF
  8
SAPA_PROFIL
 10
60.799999999784632
 20
-71.488998415331153
 30
0.0
  0
VERTEX
  5
1FB0
  8
SAPA_PROFIL
 10
60.799999999784717
 20
-68.492731505716023
 30
0.0
  0
VERTEX
  5
1FB1
  8
SAPA_PROFIL
 10
60.290853600473582
 20
-67.175433829480284
 30
0.0
 42
-0.4142135623730958
  0
VERTEX
  5
1FB2
  8
SAPA_PROFIL
 10
60.490817644980972
 20
-66.801248874004486
 30
0.0
  0
VERTEX
  5
1FB3
  8
SAPA_PROFIL
 10
60.538663394979473
 20
-66.786730464757383
 30
0.0
  0
VERTEX
  5
1FB4
  8
SAPA_PROFIL
 10
60.53874700286309
 20
-65.283629383995375
 30
0.0
 42
0.4769755326981641
  0
VERTEX
  5
1FB5
  8
SAPA_PROFIL
 10
60.167090127917248
 20
-64.981376559488908
 30
0.0
  0
VERTEX
  5
1FB6
  8
SAPA_PROFIL
 10
58.353859657258987
 20
-65.362823155616624
 30
0.0
 42
0.2216946626430181
  0
VERTEX
  5
1FB7
  8
SAPA_PROFIL
 10
57.8129798257822
 20
-65.768632060771424
 30
0.0
  0
VERTEX
  5
1FB8
  8
SAPA_PROFIL
 10
57.660845914673438
 20
-66.05331434400307
 30
0.0
 42
0.5773502691897454
  0
VERTEX
  5
1FB9
  8
SAPA_PROFIL
 10
57.843799654783624
 20
-66.347470644257882
 30
0.0
  0
VERTEX
  5
1FBA
  8
SAPA_PROFIL
 10
58.165557383001868
 20
-66.336909278030916
 30
0.0
  0
VERTEX
  5
1FBB
  8
SAPA_PROFIL
 10
59.250121829973601
 20
-68.222752969891971
 30
0.0
  0
VERTEX
  5
1FBC
  8
SAPA_PROFIL
 10
59.308195466962701
 20
-68.414135969885677
 30
0.0
 42
-0.7625858545243255
  0
VERTEX
  5
1FBD
  8
SAPA_PROFIL
 10
58.977869385945702
 20
-68.598715172083175
 30
0.0
 42
0.2134217652834359
  0
VERTEX
  5
1FBE
  8
SAPA_PROFIL
 10
58.754262588195559
 20
-68.498715172083067
 30
0.0
  0
VERTEX
  5
1FBF
  8
SAPA_PROFIL
 10
54.901476183695557
 20
-68.498715172083124
 30
0.0
 42
-0.4142135623730035
  0
VERTEX
  5
1FC0
  8
SAPA_PROFIL
 10
54.601476183695553
 20
-68.198715172083112
 30
0.0
  0
VERTEX
  5
1FC1
  8
SAPA_PROFIL
 10
54.601476183695553
 20
-67.898715172083072
 30
0.0
  0
VERTEX
  5
1FC2
  8
SAPA_PROFIL
 10
55.525236614398921
 20
-66.298715172083135
 30
0.0
 42
0.5773502691897307
  0
VERTEX
  5
1FC3
  8
SAPA_PROFIL
 10
55.352031533642041
 20
-65.998715172083067
 30
0.0
  0
VERTEX
  5
1FC4
  8
SAPA_PROFIL
 10
53.966390887586947
 20
-65.998715172083095
 30
0.0
 42
0.2679491924311169
  0
VERTEX
  5
1FC5
  8
SAPA_PROFIL
 10
53.100365483802562
 20
-66.498715172083067
 30
0.0
  0
VERTEX
  5
1FC6
  8
SAPA_PROFIL
 10
52.090002514229148
 20
-68.248715169470245
 30
0.0
 42
-0.2679491924311239
  0
VERTEX
  5
1FC7
  8
SAPA_PROFIL
 10
51.656989812336953
 20
-68.498715169470245
 30
0.0
  0
VERTEX
  5
1FC8
  8
SAPA_PROFIL
 10
40.343010188113929
 20
-68.498715169470245
 30
0.0
 42
-0.2679491924311547
  0
VERTEX
  5
1FC9
  8
SAPA_PROFIL
 10
39.90999748622167
 20
-68.248715169470202
 30
0.0
  0
VERTEX
  5
1FCA
  8
SAPA_PROFIL
 10
38.89963451664844
 20
-66.498715172083081
 30
0.0
 42
0.2679491924311272
  0
VERTEX
  5
1FCB
  8
SAPA_PROFIL
 10
38.033609112863992
 20
-65.998715172083067
 30
0.0
  0
VERTEX
  5
1FCC
  8
SAPA_PROFIL
 10
36.647968466808997
 20
-65.998715172083024
 30
0.0
 42
0.5773502691897177
  0
VERTEX
  5
1FCD
  8
SAPA_PROFIL
 10
36.474763386052111
 20
-66.298715172083163
 30
0.0
  0
VERTEX
  5
1FCE
  8
SAPA_PROFIL
 10
37.398523816755393
 20
-67.898715172083072
 30
0.0
  0
VERTEX
  5
1FCF
  8
SAPA_PROFIL
 10
37.398523816755393
 20
-68.198715172083112
 30
0.0
 42
-0.4142135623730951
  0
VERTEX
  5
1FD0
  8
SAPA_PROFIL
 10
37.09852381675541
 20
-68.498715172083124
 30
0.0
  0
VERTEX
  5
1FD1
  8
SAPA_PROFIL
 10
33.245737412255487
 20
-68.498715172083052
 30
0.0
 42
0.2134217652834361
  0
VERTEX
  5
1FD2
  8
SAPA_PROFIL
 10
33.022130614505421
 20
-68.59871517208316
 30
0.0
 42
-0.7625858545243255
  0
VERTEX
  5
1FD3
  8
SAPA_PROFIL
 10
32.69180453348838
 20
-68.414135969885692
 30
0.0
  0
VERTEX
  5
1FD4
  8
SAPA_PROFIL
 10
32.749878170477473
 20
-68.222752969891971
 30
0.0
  0
VERTEX
  5
1FD5
  8
SAPA_PROFIL
 10
33.83444261744922
 20
-66.336909278030916
 30
0.0
  0
VERTEX
  5
1FD6
  8
SAPA_PROFIL
 10
34.156200345667493
 20
-66.347470644257896
 30
0.0
 42
0.5773502691897453
  0
VERTEX
  5
1FD7
  8
SAPA_PROFIL
 10
34.339154085777643
 20
-66.053314344003056
 30
0.0
  0
VERTEX
  5
1FD8
  8
SAPA_PROFIL
 10
34.187020174668881
 20
-65.768632060771424
 30
0.0
 42
0.2216946626430179
  0
VERTEX
  5
1FD9
  8
SAPA_PROFIL
 10
33.646140343192087
 20
-65.362823155616624
 30
0.0
  0
VERTEX
  5
1FDA
  8
SAPA_PROFIL
 10
31.832909872533861
 20
-64.981376559488908
 30
0.0
 42
0.4769755326981641
  0
VERTEX
  5
1FDB
  8
SAPA_PROFIL
 10
31.461252997587959
 20
-65.283629383995375
 30
0.0
  0
VERTEX
  5
1FDC
  8
SAPA_PROFIL
 10
31.461336605471619
 20
-66.786730464757383
 30
0.0
  0
VERTEX
  5
1FDD
  8
SAPA_PROFIL
 10
31.509182355470099
 20
-66.801248874004486
 30
0.0
 42
-0.4142135623730953
  0
VERTEX
  5
1FDE
  8
SAPA_PROFIL
 10
31.709146399977499
 20
-67.175433829480284
 30
0.0
  0
VERTEX
  5
1FDF
  8
SAPA_PROFIL
 10
31.200000000666311
 20
-68.492731505716151
 30
0.0
  0
VERTEX
  5
1FE0
  8
SAPA_PROFIL
 10
31.200000000666311
 20
-71.488998415331068
 30
0.0
 42
0.2562769736732409
  0
VERTEX
  5
1FE1
  8
SAPA_PROFIL
 10
31.292530998981761
 20
-71.657670919542412
 30
0.0
  0
VERTEX
  5
1FE2
  8
SAPA_PROFIL
 10
32.538796498139483
 20
-72.451723925719136
 30
0.0
 42
0.592005618117916
  0
VERTEX
  5
1FE3
  8
SAPA_PROFIL
 10
33.00000000066629
 20
-72.198715169402092
 30
0.0
  0
VERTEX
  5
1FE4
  8
SAPA_PROFIL
 10
33.00000000066629
 20
-70.798715169402087
 30
0.0
 42
-0.4142135623730951
  0
VERTEX
  5
1FE5
  8
SAPA_PROFIL
 10
33.300000000666387
 20
-70.498715169402075
 30
0.0
  0
VERTEX
  5
1FE6
  8
SAPA_PROFIL
 10
35.700000000666279
 20
-70.498715169402146
 30
0.0
 42
-0.4142135623731242
  0
VERTEX
  5
1FE7
  8
SAPA_PROFIL
 10
36.00000000066629
 20
-70.798715169402115
 30
0.0
  0
VERTEX
  5
1FE8
  8
SAPA_PROFIL
 10
36.000000000666319
 20
-76.598715169402126
 30
0.0
 42
-0.4142135623731866
  0
VERTEX
  5
1FE9
  8
SAPA_PROFIL
 10
35.700000000666279
 20
-76.898715169402081
 30
0.0
  0
VERTEX
  5
1FEA
  8
SAPA_PROFIL
 10
32.500000000666176
 20
-76.898715169402138
 30
0.0
 42
-0.4142135623731492
  0
VERTEX
  5
1FEB
  8
SAPA_PROFIL
 10
32.200000000666279
 20
-76.598715169402126
 30
0.0
  0
VERTEX
  5
1FEC
  8
SAPA_PROFIL
 10
32.20000000066625
 20
-76.198715165267018
 30
0.0
 42
0.5877032589250028
  0
VERTEX
  5
1FED
  8
SAPA_PROFIL
 10
31.74203979353857
 20
-75.943668947956965
 30
0.0
  0
VERTEX
  5
1FEE
  8
SAPA_PROFIL
 10
31.09469319591452
 20
-76.34459629250874
 30
0.0
 42
0.259681233730169
  0
VERTEX
  5
1FEF
  8
SAPA_PROFIL
 10
31.00000000066629
 20
-76.514627104048785
 30
0.0
  0
VERTEX
  5
1FF0
  8
SAPA_PROFIL
 10
31.00000000066624
 20
-77.99871516940199
 30
0.0
 42
0.4142135623730951
  0
VERTEX
  5
1FF1
  8
SAPA_PROFIL
 10
31.300000000666191
 20
-78.298715169401945
 30
0.0
  0
VERTEX
  5
1FF2
  8
SAPA_PROFIL
 10
35.700000000666172
 20
-78.298715169402115
 30
0.0
 42
-0.414213562373041
  0
VERTEX
  5
1FF3
  8
SAPA_PROFIL
 10
36.00000000066629
 20
-78.598715169402126
 30
0.0
  0
VERTEX
  5
1FF4
  8
SAPA_PROFIL
 10
36.00000000066629
 20
-88.198715169402121
 30
0.0
 42
-0.4142135623730951
  0
VERTEX
  5
1FF5
  8
SAPA_PROFIL
 10
35.700000000666279
 20
-88.498715169402132
 30
0.0
  0
VERTEX
  5
1FF6
  8
SAPA_PROFIL
 10
33.300000000666387
 20
-88.498715169402132
 30
0.0
 42
-0.4142135623730951
  0
VERTEX
  5
1FF7
  8
SAPA_PROFIL
 10
33.00000000066629
 20
-88.198715169402121
 30
0.0
  0
VERTEX
  5
1FF8
  8
SAPA_PROFIL
 10
33.000000000666262
 20
-86.798715169402115
 30
0.0
 42
0.5877032589250129
  0
VERTEX
  5
1FF9
  8
SAPA_PROFIL
 10
32.542039793538578
 20
-86.543668952092048
 30
0.0
  0
VERTEX
  5
1FFA
  8
SAPA_PROFIL
 10
31.094693195914459
 20
-87.440067929334219
 30
0.0
 42
0.2596812337301122
  0
VERTEX
  5
1FFB
  8
SAPA_PROFIL
 10
31.00000000066629
 20
-87.610098740874335
 30
0.0
  0
VERTEX
  5
1FFC
  8
SAPA_PROFIL
 10
31.00000000066629
 20
-88.410631959239197
 30
0.0
 42
-0.4023941304324539
  0
VERTEX
  5
1FFD
  8
SAPA_PROFIL
 10
30.71215327934269
 20
-88.710385687852252
 30
0.0
  0
VERTEX
  5
1FFE
  8
SAPA_PROFIL
 10
16.239094457311658
 20
-89.297184707692836
 30
0.0
 42
-0.4373282586284287
  0
VERTEX
  5
1FFF
  8
SAPA_PROFIL
 10
15.69999999998765
 20
-88.79871542738907
 30
0.0
  0
VERTEX
  5
2000
  8
SAPA_PROFIL
 10
15.69999999998765
 20
-87.969884339637588
 30
0.0
 42
-0.363970234266201
  0
VERTEX
  5
2001
  8
SAPA_PROFIL
 10
16.113175911154141
 20
-87.477480463131499
 30
0.0
  0
VERTEX
  5
2002
  8
SAPA_PROFIL
 10
17.28682408882116
 20
-87.270534623549466
 30
0.0
 42
0.8390996311772029
  0
VERTEX
  5
2003
  8
SAPA_PROFIL
 10
17.28682408882116
 20
-86.28572687053726
 30
0.0
  0
VERTEX
  5
2004
  8
SAPA_PROFIL
 10
15.673671677319421
 20
-86.001284576394625
 30
0.0
  0
VERTEX
  5
2005
  8
SAPA_PROFIL
 10
14.632455531927199
 20
-86.001284576394767
 30
0.0
 42
0.2896898633203997
  0
VERTEX
  5
2006
  8
SAPA_PROFIL
 10
13.728947628993691
 20
-86.572713147881757
 30
0.0
 42
0.5507604245840011
  0
VERTEX
  5
2007
  8
SAPA_PROFIL
 10
13.99999999989114
 20
-87.001284576435538
 30
0.0
  0
VERTEX
  5
2008
  8
SAPA_PROFIL
 10
14.199999999881159
 20
-87.001284576423885
 30
0.0
 42
-0.4142135623780607
  0
VERTEX
  5
2009
  8
SAPA_PROFIL
 10
14.49999999989862
 20
-87.301284576411504
 30
0.0
  0
VERTEX
  5
200A
  8
SAPA_PROFIL
 10
14.49999999995836
 20
-88.798715427368322
 30
0.0
 42
-0.4142135623852489
  0
VERTEX
  5
200B
  8
SAPA_PROFIL
 10
13.99999999995836
 20
-89.298715427389055
 30
0.0
  0
VERTEX
  5
200C
  8
SAPA_PROFIL
 10
10.69999999995744
 20
-89.298715427389055
 30
0.0
 42
-0.4142135623609412
  0
VERTEX
  5
200D
  8
SAPA_PROFIL
 10
10.19999999995744
 20
-88.79871542738907
 30
0.0
  0
VERTEX
  5
200E
  8
SAPA_PROFIL
 10
10.199999999897811
 20
-87.301284576378009
 30
0.0
 42
-0.4142135623681295
  0
VERTEX
  5
200F
  8
SAPA_PROFIL
 10
10.499999999880311
 20
-87.00128457636562
 30
0.0
  0
SEQEND
  5
2010
  8
SAPA_PROFIL
  0
POLYLINE
  5
1526
  8
SAPA_PROFIL
 66
     1
 10
0.0
 20
0.0
 30
0.0
 70
     1
  0
VERTEX
  5
2011
  8
SAPA_PROFIL
 10
50.099999999842773
 20
-88.798715167492489
 30
0.0
  0
VERTEX
  5
2012
  8
SAPA_PROFIL
 10
41.900000000724532
 20
-88.79871517417557
 30
0.0
 42
-0.4142135624581968
  0
VERTEX
  5
2013
  8
SAPA_PROFIL
 10
41.700000000666392
 20
-88.598715174175553
 30
0.0
  0
VERTEX
  5
2014
  8
SAPA_PROFIL
 10
41.700000000666392
 20
-88.498715172699718
 30
0.0
 42
0.4142135624945166
  0
VERTEX
  5
2015
  8
SAPA_PROFIL
 10
41.400000000542001
 20
-88.198715172699707
 30
0.0
  0
VERTEX
  5
2016
  8
SAPA_PROFIL
 10
40.000000000542002
 20
-88.198715173280107
 30
0.0
 42
0.4142135622516735
  0
VERTEX
  5
2017
  8
SAPA_PROFIL
 10
39.700000000666392
 20
-88.498715173280104
 30
0.0
  0
VERTEX
  5
2018
  8
SAPA_PROFIL
 10
39.700000000666392
 20
-88.598715173482788
 30
0.0
 42
-0.4142135622584164
  0
VERTEX
  5
2019
  8
SAPA_PROFIL
 10
39.500000000744713
 20
-88.798715173482776
 30
0.0
  0
VERTEX
  5
201A
  8
SAPA_PROFIL
 10
38.000000000783842
 20
-88.798715174109304
 30
0.0
 42
-0.4142135624877821
  0
VERTEX
  5
201B
  8
SAPA_PROFIL
 10
37.7000000006664
 20
-88.498715174109293
 30
0.0
  0
VERTEX
  5
201C
  8
SAPA_PROFIL
 10
37.700000000666357
 20
-70.498715163667612
 30
0.0
 42
-0.4142135623730784
  0
VERTEX
  5
201D
  8
SAPA_PROFIL
 10
38.000000000666383
 20
-70.198715163667615
 30
0.0
  0
VERTEX
  5
201E
  8
SAPA_PROFIL
 10
39.500000000666411
 20
-70.198715163667586
 30
0.0
 42
-0.4142135623730951
  0
VERTEX
  5
201F
  8
SAPA_PROFIL
 10
39.700000000666392
 20
-70.398715163667603
 30
0.0
  0
VERTEX
  5
2020
  8
SAPA_PROFIL
 10
39.700000000666392
 20
-70.498715163667583
 30
0.0
 42
0.4142135623730951
  0
VERTEX
  5
2021
  8
SAPA_PROFIL
 10
40.000000000666368
 20
-70.79871516366758
 30
0.0
  0
VERTEX
  5
2022
  8
SAPA_PROFIL
 10
41.400000000666367
 20
-70.798715163667595
 30
0.0
 42
0.4142135623730951
  0
VERTEX
  5
2023
  8
SAPA_PROFIL
 10
41.700000000666392
 20
-70.498715163667583
 30
0.0
  0
VERTEX
  5
2024
  8
SAPA_PROFIL
 10
41.700000000666392
 20
-70.398715163667632
 30
0.0
 42
-0.4142135623730701
  0
VERTEX
  5
2025
  8
SAPA_PROFIL
 10
41.900000000666381
 20
-70.198715163667615
 30
0.0
  0
VERTEX
  5
2026
  8
SAPA_PROFIL
 10
50.099999999784671
 20
-70.198715163667615
 30
0.0
 42
-0.4142135623730951
  0
VERTEX
  5
2027
  8
SAPA_PROFIL
 10
50.29999999978466
 20
-70.398715163667632
 30
0.0
  0
VERTEX
  5
2028
  8
SAPA_PROFIL
 10
50.29999999978466
 20
-70.498715163667583
 30
0.0
 42
0.4142135623730951
  0
VERTEX
  5
2029
  8
SAPA_PROFIL
 10
50.599999999784671
 20
-70.79871516366758
 30
0.0
  0
VERTEX
  5
202A
  8
SAPA_PROFIL
 10
51.999999999784677
 20
-70.798715163667595
 30
0.0
 42
0.4142135623730576
  0
VERTEX
  5
202B
  8
SAPA_PROFIL
 10
52.29999999978471
 20
-70.49871516366764
 30
0.0
  0
VERTEX
  5
202C
  8
SAPA_PROFIL
 10
52.29999999978471
 20
-70.398715163667561
 30
0.0
 42
-0.4142135623730326
  0
VERTEX
  5
202D
  8
SAPA_PROFIL
 10
52.499999999784698
 20
-70.198715163667586
 30
0.0
  0
VERTEX
  5
202E
  8
SAPA_PROFIL
 10
53.999999999784649
 20
-70.198715163667615
 30
0.0
 42
-0.4142135623730951
  0
VERTEX
  5
202F
  8
SAPA_PROFIL
 10
54.299999999784632
 20
-70.498715163667612
 30
0.0
  0
VERTEX
  5
2030
  8
SAPA_PROFIL
 10
54.29999999978466
 20
-88.498715174109293
 30
0.0
 42
-0.4142135624877821
  0
VERTEX
  5
2031
  8
SAPA_PROFIL
 10
53.999999999667182
 20
-88.798715174109304
 30
0.0
  0
VERTEX
  5
2032
  8
SAPA_PROFIL
 10
52.499999999706347
 20
-88.79871517348279
 30
0.0
 42
-0.4142135622584081
  0
VERTEX
  5
2033
  8
SAPA_PROFIL
 10
52.29999999978466
 20
-88.598715173482788
 30
0.0
  0
VERTEX
  5
2034
  8
SAPA_PROFIL
 10
52.29999999978466
 20
-88.498715173280104
 30
0.0
 42
0.4142135622516652
  0
VERTEX
  5
2035
  8
SAPA_PROFIL
 10
51.999999999909022
 20
-88.198715173280078
 30
0.0
  0
VERTEX
  5
2036
  8
SAPA_PROFIL
 10
50.599999999909038
 20
-88.198715172699707
 30
0.0
 42
0.4142135624945249
  0
VERTEX
  5
2037
  8
SAPA_PROFIL
 10
50.29999999978466
 20
-88.498715172699718
 30
0.0
  0
VERTEX
  5
2038
  8
SAPA_PROFIL
 10
50.29999999978466
 20
-88.598715167492486
 30
0.0
 42
-0.4142135622879767
  0
SEQEND
  5
2039
  8
SAPA_PROFIL
  0
POLYLINE
  5
1527
  8
SAPA_PROFIL
 66
     1
 10
0.0
 20
0.0
 30
0.0
 70
     1
  0
VERTEX
  5
203A
  8
SAPA_PROFIL
 10
51.65551362713245
 20
-26.498715297776201
 30
0.0
 42
-0.267949192431007
  0
VERTEX
  5
203B
  8
SAPA_PROFIL
 10
52.088526329024489
 20
-26.748715297776201
 30
0.0
  0
VERTEX
  5
203C
  8
SAPA_PROFIL
 10
53.098889300106528
 20
-28.498715297776648
 30
0.0
 42
0.2679491924311281
  0
VERTEX
  5
203D
  8
SAPA_PROFIL
 10
53.964914703891061
 20
-28.998715297776659
 30
0.0
  0
VERTEX
  5
203E
  8
SAPA_PROFIL
 10
55.350555349946042
 20
-28.998715297776432
 30
0.0
 42
0.57735026918954
  0
VERTEX
  5
203F
  8
SAPA_PROFIL
 10
55.52376043070285
 20
-28.69871529777647
 30
0.0
  0
VERTEX
  5
2040
  8
SAPA_PROFIL
 10
54.599999999999682
 20
-27.098715297776788
 30
0.0
  0
VERTEX
  5
2041
  8
SAPA_PROFIL
 10
54.599999999999682
 20
-26.79871529777661
 30
0.0
 42
-0.41421356237306
  0
VERTEX
  5
2042
  8
SAPA_PROFIL
 10
54.899999999999871
 20
-26.498715297776432
 30
0.0
  0
VERTEX
  5
2043
  8
SAPA_PROFIL
 10
58.752786404499382
 20
-26.498715297776421
 30
0.0
 42
0.2036002236709541
  0
VERTEX
  5
2044
  8
SAPA_PROFIL
 10
58.968706713319769
 20
-26.406990164812619
 30
0.0
 42
-0.8292414158604859
  0
VERTEX
  5
2045
  8
SAPA_PROFIL
 10
59.300702346339449
 20
-26.60312345334405
 30
0.0
  0
VERTEX
  5
2046
  8
SAPA_PROFIL
 10
59.248645646277751
 20
-26.77467749996794
 30
0.0
  0
VERTEX
  5
2047
  8
SAPA_PROFIL
 10
58.16408119930589
 20
-28.660521191828781
 30
0.0
  0
VERTEX
  5
2048
  8
SAPA_PROFIL
 10
57.842323471087873
 20
-28.649959825602039
 30
0.0
 42
0.5773502691894565
  0
VERTEX
  5
2049
  8
SAPA_PROFIL
 10
57.659369730977467
 20
-28.944116125856642
 30
0.0
  0
VERTEX
  5
204A
  8
SAPA_PROFIL
 10
57.811503642085661
 20
-29.228798409087819
 30
0.0
 42
0.2216946626431577
  0
VERTEX
  5
204B
  8
SAPA_PROFIL
 10
58.352383473563123
 20
-29.634607314243059
 30
0.0
  0
VERTEX
  5
204C
  8
SAPA_PROFIL
 10
60.165613944220929
 20
-30.016053910370779
 30
0.0
 42
0.4757248385987928
  0
VERTEX
  5
204D
  8
SAPA_PROFIL
 10
60.537270889071131
 20
-29.71505781991295
 30
0.0
  0
VERTEX
  5
204E
  8
SAPA_PROFIL
 10
60.537187211283481
 20
-28.210700005102311
 30
0.0
  0
VERTEX
  5
204F
  8
SAPA_PROFIL
 10
60.489341461285001
 20
-28.19618159585497
 30
0.0
 42
-0.4580511809928869
  0
VERTEX
  5
2050
  8
SAPA_PROFIL
 10
60.305273745632128
 20
-27.780801213305899
 30
0.0
  0
VERTEX
  5
2051
  8
SAPA_PROFIL
 10
60.799999999999507
 20
-26.498715297776648
 30
0.0
  0
VERTEX
  5
2052
  8
SAPA_PROFIL
 10
60.799999999999507
 20
-23.48623096426827
 30
0.0
 42
0.2596812337301257
  0
VERTEX
  5
2053
  8
SAPA_PROFIL
 10
60.705306804751451
 20
-23.316200152728189
 30
0.0
  0
VERTEX
  5
2054
  8
SAPA_PROFIL
 10
59.457960207127371
 20
-22.543669083658589
 30
0.0
 42
0.5877032589249617
  0
VERTEX
  5
2055
  8
SAPA_PROFIL
 10
58.99999999999978
 20
-22.798715300968709
 30
0.0
  0
VERTEX
  5
2056
  8
SAPA_PROFIL
 10
58.99999999999978
 20
-24.232894087359181
 30
0.0
 42
-0.4683749459842228
  0
VERTEX
  5
2057
  8
SAPA_PROFIL
 10
58.699999999999598
 20
-24.498715300968751
 30
0.0
  0
VERTEX
  5
2058
  8
SAPA_PROFIL
 10
56.299999999999962
 20
-24.498715300968531
 30
0.0
 42
-0.4683749459847173
  0
VERTEX
  5
2059
  8
SAPA_PROFIL
 10
55.99999999999978
 20
-24.232894087358961
 30
0.0
  0
VERTEX
  5
205A
  8
SAPA_PROFIL
 10
55.99999999999978
 20
-18.398715300968611
 30
0.0
  0
VERTEX
  5
205B
  8
SAPA_PROFIL
 10
55.99999999999978
 20
-16.398715300968611
 30
0.0
  0
VERTEX
  5
205C
  8
SAPA_PROFIL
 10
55.999999999999773
 20
-6.7987153009687118
 30
0.0
 42
-0.4142135623730951
  0
VERTEX
  5
205D
  8
SAPA_PROFIL
 10
56.2999999999995
 20
-6.4987153009687582
 30
0.0
  0
VERTEX
  5
205E
  8
SAPA_PROFIL
 10
58.699999999999591
 20
-6.4987153009687582
 30
0.0
 42
-0.4142135623730951
  0
VERTEX
  5
205F
  8
SAPA_PROFIL
 10
58.999999999999773
 20
-6.7987153009687118
 30
0.0
  0
VERTEX
  5
2060
  8
SAPA_PROFIL
 10
58.99999999999978
 20
-8.1987153009688036
 30
0.0
 42
0.5877032589248625
  0
VERTEX
  5
2061
  8
SAPA_PROFIL
 10
59.457960207127371
 20
-8.4537615182786858
 30
0.0
  0
VERTEX
  5
2062
  8
SAPA_PROFIL
 10
60.90530680475127
 20
-7.557362541036543
 30
0.0
 42
0.2596812337300832
  0
VERTEX
  5
2063
  8
SAPA_PROFIL
 10
60.99999999999978
 20
-7.3873317294964691
 30
0.0
  0
VERTEX
  5
2064
  8
SAPA_PROFIL
 10
60.999999999999773
 20
-4.6987152978189961
 30
0.0
 42
0.4142135623731107
  0
VERTEX
  5
2065
  8
SAPA_PROFIL
 10
60.7999999999995
 20
-4.4987152978189497
 30
0.0
  0
VERTEX
  5
2066
  8
SAPA_PROFIL
 10
31.199999999999591
 20
-4.4987152978189551
 30
0.0
 42
0.4142135623730273
  0
VERTEX
  5
2067
  8
SAPA_PROFIL
 10
30.999999999999769
 20
-4.6987152978190014
 30
0.0
  0
VERTEX
  5
2068
  8
SAPA_PROFIL
 10
30.999999999999769
 20
-7.3873317294967036
 30
0.0
 42
0.2596812337302099
  0
VERTEX
  5
2069
  8
SAPA_PROFIL
 10
31.094693195247832
 20
-7.5573625410367766
 30
0.0
  0
VERTEX
  5
206A
  8
SAPA_PROFIL
 10
32.542039792871719
 20
-8.4537615182789203
 30
0.0
 42
0.5877032589250762
  0
VERTEX
  5
206B
  8
SAPA_PROFIL
 10
32.99999999999978
 20
-8.1987153009688107
 30
0.0
  0
VERTEX
  5
206C
  8
SAPA_PROFIL
 10
32.99999999999978
 20
-6.798715300968718
 30
0.0
 42
-0.4142135623730951
  0
VERTEX
  5
206D
  8
SAPA_PROFIL
 10
33.2999999999995
 20
-6.4987153009687626
 30
0.0
  0
VERTEX
  5
206E
  8
SAPA_PROFIL
 10
35.699999999999591
 20
-6.4987153009687626
 30
0.0
 42
-0.4142135623730951
  0
VERTEX
  5
206F
  8
SAPA_PROFIL
 10
35.999999999999773
 20
-6.798715300968718
 30
0.0
  0
VERTEX
  5
2070
  8
SAPA_PROFIL
 10
35.999999999999773
 20
-16.398715300968838
 30
0.0
  0
VERTEX
  5
2071
  8
SAPA_PROFIL
 10
35.999999999999773
 20
-18.398715300968838
 30
0.0
  0
VERTEX
  5
2072
  8
SAPA_PROFIL
 10
35.999999999999787
 20
-24.232894087358499
 30
0.0
 42
-0.4683749459843959
  0
VERTEX
  5
2073
  8
SAPA_PROFIL
 10
35.70000000000006
 20
-24.498715300968762
 30
0.0
  0
VERTEX
  5
2074
  8
SAPA_PROFIL
 10
33.299999999999521
 20
-24.498715300968762
 30
0.0
 42
-0.4683749459842226
  0
VERTEX
  5
2075
  8
SAPA_PROFIL
 10
32.999999999999787
 20
-24.232894087359181
 30
0.0
  0
VERTEX
  5
2076
  8
SAPA_PROFIL
 10
32.99999999999978
 20
-22.79871530096894
 30
0.0
 42
0.5877032589249771
  0
VERTEX
  5
2077
  8
SAPA_PROFIL
 10
32.542039792871719
 20
-22.54366908365883
 30
0.0
  0
VERTEX
  5
2078
  8
SAPA_PROFIL
 10
31.294693195248119
 20
-23.3162001527282
 30
0.0
 42
0.2596812337301256
  0
VERTEX
  5
2079
  8
SAPA_PROFIL
 10
31.199999999999608
 20
-23.48623096426827
 30
0.0
  0
VERTEX
  5
207A
  8
SAPA_PROFIL
 10
31.199999999999608
 20
-26.498715297776659
 30
0.0
  0
VERTEX
  5
207B
  8
SAPA_PROFIL
 10
31.694726254366991
 20
-27.780801213305679
 30
0.0
 42
-0.4580511809929225
  0
VERTEX
  5
207C
  8
SAPA_PROFIL
 10
31.510658538714111
 20
-28.196181595854519
 30
0.0
  0
VERTEX
  5
207D
  8
SAPA_PROFIL
 10
31.46281278871562
 20
-28.21070000510209
 30
0.0
  0
VERTEX
  5
207E
  8
SAPA_PROFIL
 10
31.462729110927981
 20
-29.71505781991819
 30
0.0
 42
0.4757248385933691
  0
VERTEX
  5
207F
  8
SAPA_PROFIL
 10
31.834386055777731
 20
-30.016053910370331
 30
0.0
  0
VERTEX
  5
2080
  8
SAPA_PROFIL
 10
33.647616526435982
 20
-29.634607314242839
 30
0.0
 42
0.2350054070140314
  0
VERTEX
  5
2081
  8
SAPA_PROFIL
 10
34.206665443319039
 20
-29.192626521520381
 30
0.0
 42
-0.0011882050611145
  0
VERTEX
  5
2082
  8
SAPA_PROFIL
 10
34.207101034859782
 20
-29.193984199202951
 30
0.0
  0
VERTEX
  5
2083
  8
SAPA_PROFIL
 10
34.340630269021652
 20
-28.944116125856411
 30
0.0
 42
0.5773502691894562
  0
VERTEX
  5
2084
  8
SAPA_PROFIL
 10
34.157676528911693
 20
-28.649959825601812
 30
0.0
  0
VERTEX
  5
2085
  8
SAPA_PROFIL
 10
33.835918800693221
 20
-28.660521191828551
 30
0.0
  0
VERTEX
  5
2086
  8
SAPA_PROFIL
 10
32.751354353721368
 20
-26.774677499967272
 30
0.0
  0
VERTEX
  5
2087
  8
SAPA_PROFIL
 10
32.699297653659663
 20
-26.60312345334383
 30
0.0
 42
-0.8292414158590609
  0
VERTEX
  5
2088
  8
SAPA_PROFIL
 10
33.031293286678427
 20
-26.406990164811951
 30
0.0
 42
0.2036002236714843
  0
VERTEX
  5
2089
  8
SAPA_PROFIL
 10
33.247213595499282
 20
-26.498715297776201
 30
0.0
  0
VERTEX
  5
208A
  8
SAPA_PROFIL
 10
37.099999999999241
 20
-26.498715297776201
 30
0.0
 42
-0.4142135623731708
  0
VERTEX
  5
208B
  8
SAPA_PROFIL
 10
37.399999999999423
 20
-26.798715297776379
 30
0.0
  0
VERTEX
  5
208C
  8
SAPA_PROFIL
 10
37.399999999999423
 20
-27.098715297776561
 30
0.0
  0
VERTEX
  5
208D
  8
SAPA_PROFIL
 10
36.476239569295799
 20
-28.698715297776019
 30
0.0
 42
0.5773502691897499
  0
VERTEX
  5
208E
  8
SAPA_PROFIL
 10
36.649444650052622
 20
-28.998715297776201
 30
0.0
  0
VERTEX
  5
208F
  8
SAPA_PROFIL
 10
38.035085296108051
 20
-28.998715297776432
 30
0.0
 42
0.2679491924311548
  0
VERTEX
  5
2090
  8
SAPA_PROFIL
 10
38.901110699892577
 20
-28.498715297776432
 30
0.0
  0
VERTEX
  5
2091
  8
SAPA_PROFIL
 10
39.911473670974608
 20
-26.748715297776201
 30
0.0
 42
-0.2679491924310984
  0
VERTEX
  5
2092
  8
SAPA_PROFIL
 10
40.344486372867102
 20
-26.498715297776201
 30
0.0
  0
SEQEND
  5
2093
  8
SAPA_PROFIL
  0
POLYLINE
  5
1528
  8
SAPA_PROFIL
 66
     1
 10
0.0
 20
0.0
 30
0.0
 70
     1
  0
VERTEX
  5
2094
  8
SAPA_PROFIL
 10
54.299999999837901
 20
-24.49871529437662
 30
0.0
 42
-0.4142135623730951
  0
VERTEX
  5
2095
  8
SAPA_PROFIL
 10
53.99999999983789
 20
-24.798715294376638
 30
0.0
  0
VERTEX
  5
2096
  8
SAPA_PROFIL
 10
52.499999999837883
 20
-24.798715294376638
 30
0.0
 42
-0.414213562372978
  0
VERTEX
  5
2097
  8
SAPA_PROFIL
 10
52.299999999837901
 20
-24.59871529437676
 30
0.0
  0
VERTEX
  5
2098
  8
SAPA_PROFIL
 10
52.299999999837901
 20
-24.498715295330289
 30
0.0
 42
0.4142135624945221
  0
VERTEX
  5
2099
  8
SAPA_PROFIL
 10
51.999999999713509
 20
-24.198715295330281
 30
0.0
  0
VERTEX
  5
209A
  8
SAPA_PROFIL
 10
50.599999999713482
 20
-24.198715295910699
 30
0.0
 42
0.4142135622516715
  0
VERTEX
  5
209B
  8
SAPA_PROFIL
 10
50.299999999837901
 20
-24.49871529591071
 30
0.0
  0
VERTEX
  5
209C
  8
SAPA_PROFIL
 10
50.299999999837901
 20
-24.59871529453865
 30
0.0
 42
-0.4142135621360125
  0
VERTEX
  5
209D
  8
SAPA_PROFIL
 10
50.099999999999802
 20
-24.798715294538638
 30
0.0
  0
VERTEX
  5
209E
  8
SAPA_PROFIL
 10
41.899999999999757
 20
-24.798715301014131
 30
0.0
 42
-0.4142135626101776
  0
VERTEX
  5
209F
  8
SAPA_PROFIL
 10
41.699999999837878
 20
-24.598715301014138
 30
0.0
  0
VERTEX
  5
20A0
  8
SAPA_PROFIL
 10
41.699999999837878
 20
-24.498715299642029
 30
0.0
 42
0.4142135624945291
  0
VERTEX
  5
20A1
  8
SAPA_PROFIL
 10
41.399999999713501
 20
-24.198715299642021
 30
0.0
  0
VERTEX
  5
20A2
  8
SAPA_PROFIL
 10
39.99999999971353
 20
-24.19871530022251
 30
0.0
 42
0.4142135622516611
  0
VERTEX
  5
20A3
  8
SAPA_PROFIL
 10
39.699999999837893
 20
-24.498715300222521
 30
0.0
  0
VERTEX
  5
20A4
  8
SAPA_PROFIL
 10
39.699999999837893
 20
-24.59871530042513
 30
0.0
 42
-0.4142135622584299
  0
VERTEX
  5
20A5
  8
SAPA_PROFIL
 10
39.49999999991617
 20
-24.798715300425179
 30
0.0
  0
VERTEX
  5
20A6
  8
SAPA_PROFIL
 10
37.999999999962668
 20
-24.798715301049139
 30
0.0
 42
-0.4142135624949384
  0
VERTEX
  5
20A7
  8
SAPA_PROFIL
 10
37.699999999837878
 20
-24.498715301049131
 30
0.0
  0
VERTEX
  5
20A8
  8
SAPA_PROFIL
 10
37.699999999837871
 20
-6.498715290609959
 30
0.0
 42
-0.4142135623730743
  0
VERTEX
  5
20A9
  8
SAPA_PROFIL
 10
37.999999999837833
 20
-6.1987152906099476
 30
0.0
  0
VERTEX
  5
20AA
  8
SAPA_PROFIL
 10
39.499999999837883
 20
-6.1987152906098331
 30
0.0
 42
-0.4142135623730951
  0
VERTEX
  5
20AB
  8
SAPA_PROFIL
 10
39.699999999837871
 20
-6.3987152906098208
 30
0.0
  0
VERTEX
  5
20AC
  8
SAPA_PROFIL
 10
39.699999999837871
 20
-6.4987152906099581
 30
0.0
 42
0.4142135623731125
  0
VERTEX
  5
20AD
  8
SAPA_PROFIL
 10
39.999999999837883
 20
-6.7987152906099686
 30
0.0
  0
VERTEX
  5
20AE
  8
SAPA_PROFIL
 10
41.399999999837853
 20
-6.7987152906099686
 30
0.0
 42
0.4142135623730951
  0
VERTEX
  5
20AF
  8
SAPA_PROFIL
 10
41.699999999837871
 20
-6.4987152906099581
 30
0.0
  0
VERTEX
  5
20B0
  8
SAPA_PROFIL
 10
41.699999999837871
 20
-6.3987152906099354
 30
0.0
 42
-0.4142135623730951
  0
VERTEX
  5
20B1
  8
SAPA_PROFIL
 10
41.899999999837853
 20
-6.1987152906099459
 30
0.0
  0
VERTEX
  5
20B2
  8
SAPA_PROFIL
 10
50.099999999837898
 20
-6.1987152906099441
 30
0.0
 42
-0.4142135623730951
  0
VERTEX
  5
20B3
  8
SAPA_PROFIL
 10
50.299999999837901
 20
-6.3987152906099327
 30
0.0
  0
VERTEX
  5
20B4
  8
SAPA_PROFIL
 10
50.299999999837901
 20
-6.4987152906099563
 30
0.0
 42
0.4142135623730951
  0
VERTEX
  5
20B5
  8
SAPA_PROFIL
 10
50.599999999837848
 20
-6.7987152906099668
 30
0.0
  0
VERTEX
  5
20B6
  8
SAPA_PROFIL
 10
51.999999999837883
 20
-6.7987152906099668
 30
0.0
 42
0.4142135623730951
  0
VERTEX
  5
20B7
  8
SAPA_PROFIL
 10
52.299999999837887
 20
-6.4987152906099563
 30
0.0
  0
VERTEX
  5
20B8
  8
SAPA_PROFIL
 10
52.299999999837887
 20
-6.3987152906099327
 30
0.0
 42
-0.4142135623730951
  0
VERTEX
  5
20B9
  8
SAPA_PROFIL
 10
52.499999999837883
 20
-6.1987152906099441
 30
0.0
  0
VERTEX
  5
20BA
  8
SAPA_PROFIL
 10
53.999999999837883
 20
-6.1987152906098313
 30
0.0
 42
-0.4142135623731159
  0
VERTEX
  5
20BB
  8
SAPA_PROFIL
 10
54.299999999837887
 20
-6.49871529060984
 30
0.0
  0
SEQEND
  5
20BC
  8
SAPA_PROFIL
  0
POLYLINE
  5
1529
  8
SAPA_PROFIL
 62
     4
 66
     1
 10
0.0
 20
0.0
 30
0.0
  0
VERTEX
  5
20BD
  8
SAPA_PROFIL
 62
     4
 10
58.067718914152799
 20
-38.44938611122717
 30
0.0
 42
0.5571646428658034
  0
VERTEX
  5
20BE
  8
SAPA_PROFIL
 62
     4
 10
57.19999999999726
 20
-38.986346615363999
 30
0.0
  0
VERTEX
  5
20BF
  8
SAPA_PROFIL
 62
     4
 10
57.199999999997708
 20
-56.011083851885203
 30
0.0
 42
0.5571645048035741
  0
VERTEX
  5
20C0
  8
SAPA_PROFIL
 62
     4
 10
58.067718687863881
 20
-56.54804446884625
 30
0.0
  0
VERTEX
  5
20C1
  8
SAPA_PROFIL
 62
     4
 10
59.733859343931911
 20
-55.717337381299558
 30
0.0
 42
0.284385813979063
  0
VERTEX
  5
20C2
  8
SAPA_PROFIL
 62
     4
 10
59.899999999999352
 20
-55.448857072819202
 30
0.0
  0
VERTEX
  5
20C3
  8
SAPA_PROFIL
 62
     4
 10
59.899999999999352
 20
-39.548573394429901
 30
0.0
 42
0.2843858139786238
  0
VERTEX
  5
20C4
  8
SAPA_PROFIL
 62
     4
 10
59.733859343932423
 20
-39.280093085949609
 30
0.0
  0
VERTEX
  5
20C5
  8
SAPA_PROFIL
 62
     4
 10
58.067718687863078
 20
-38.449385998402448
 30
0.0
  0
SEQEND
  5
20C6
  8
SAPA_PROFIL
 62
     4
  0
POLYLINE
  5
152A
  8
SAPA_PROFIL
 62
     4
 66
     1
 10
0.0
 20
0.0
 30
0.0
 70
     1
  0
VERTEX
  5
20C7
  8
SAPA_PROFIL
 62
     4
 10
60.256831514496923
 20
-61.916326418291838
 30
0.0
  0
VERTEX
  5
20C8
  8
SAPA_PROFIL
 62
     4
 10
60.66339171050106
 20
-62.180349696667861
 30
0.0
 42
-0.2539676464751066
  0
VERTEX
  5
20C9
  8
SAPA_PROFIL
 62
     4
 10
60.799999999997169
 20
-62.431950867052556
 30
0.0
  0
VERTEX
  5
20CA
  8
SAPA_PROFIL
 62
     4
 10
60.799999999997169
 20
-63.813450452257911
 30
0.0
 42
-0.3152987888790479
  0
VERTEX
  5
20CB
  8
SAPA_PROFIL
 62
     4
 10
60.471010071659009
 20
-64.283296762650224
 30
0.0
  0
VERTEX
  5
20CC
  8
SAPA_PROFIL
 62
     4
 10
58.010179881207733
 20
-65.178965703558831
 30
0.0
 42
0.2694959974287434
  0
VERTEX
  5
20CD
  8
SAPA_PROFIL
 62
     4
 10
57.817047906863841
 20
-65.41048474996019
 30
0.0
 42
0.0612686379508233
  0
VERTEX
  5
20CE
  8
SAPA_PROFIL
 62
     4
 10
57.803464536233321
 20
-65.703160182813463
 30
0.0
  0
VERTEX
  5
20CF
  8
SAPA_PROFIL
 62
     4
 10
57.6017278575045
 20
-66.052578360121728
 30
0.0
 42
0.5773502691891679
  0
VERTEX
  5
20D0
  8
SAPA_PROFIL
 62
     4
 10
57.783593192299058
 20
-66.367578360121314
 30
0.0
  0
VERTEX
  5
20D1
  8
SAPA_PROFIL
 62
     4
 10
58.050707720425379
 20
-66.367578360121556
 30
0.0
  0
VERTEX
  5
20D2
  8
SAPA_PROFIL
 62
     4
 10
58.859391181733699
 20
-67.766106060755803
 30
0.0
 42
-0.1318219888653519
  0
VERTEX
  5
20D3
  8
SAPA_PROFIL
 62
     4
 10
58.899683578271087
 20
-67.916279163228154
 30
0.0
  0
VERTEX
  5
20D4
  8
SAPA_PROFIL
 62
     4
 10
58.899683578264721
 20
-68.098715233664933
 30
0.0
 42
-0.4142135623724291
  0
VERTEX
  5
20D5
  8
SAPA_PROFIL
 62
     4
 10
58.499683578265092
 20
-68.498715233665479
 30
0.0
  0
VERTEX
  5
20D6
  8
SAPA_PROFIL
 62
     4
 10
55.099683578264091
 20
-68.498715233664115
 30
0.0
 42
-0.4142135623744271
  0
VERTEX
  5
20D7
  8
SAPA_PROFIL
 62
     4
 10
54.699683578263091
 20
-68.098715233664933
 30
0.0
  0
VERTEX
  5
20D8
  8
SAPA_PROFIL
 62
     4
 10
54.699683578262452
 20
-67.919099991393637
 30
0.0
 42
-0.1316524975874005
  0
VERTEX
  5
20D9
  8
SAPA_PROFIL
 62
     4
 10
54.739875957128049
 20
-67.769099991396814
 30
0.0
  0
VERTEX
  5
20DA
  8
SAPA_PROFIL
 62
     4
 10
55.666025403780587
 20
-66.164962094394554
 30
0.0
 42
0.1316524975875904
  0
VERTEX
  5
20DB
  8
SAPA_PROFIL
 62
     4
 10
55.79999999999535
 20
-65.664962094392848
 30
0.0
  0
VERTEX
  5
20DC
  8
SAPA_PROFIL
 62
     4
 10
55.79999999999535
 20
-65.248715233665479
 30
0.0
 42
0.4142135623730951
  0
VERTEX
  5
20DD
  8
SAPA_PROFIL
 62
     4
 10
54.79999999999535
 20
-64.248715233665465
 30
0.0
  0
VERTEX
  5
20DE
  8
SAPA_PROFIL
 62
     4
 10
51.799999999998072
 20
-64.248715233665465
 30
0.0
 42
-0.9999996830128083
  0
VERTEX
  5
20DF
  8
SAPA_PROFIL
 62
     4
 10
51.79999999999626
 20
-63.248715233665479
 30
0.0
  0
VERTEX
  5
20E0
  8
SAPA_PROFIL
 62
     4
 10
54.79999999999626
 20
-63.248715233665479
 30
0.0
 42
0.4142135623730951
  0
VERTEX
  5
20E1
  8
SAPA_PROFIL
 62
     4
 10
55.79999999999626
 20
-62.248715233665479
 30
0.0
  0
VERTEX
  5
20E2
  8
SAPA_PROFIL
 62
     4
 10
55.79999999999626
 20
-32.748715233580903
 30
0.0
 42
0.4142135623730951
  0
VERTEX
  5
20E3
  8
SAPA_PROFIL
 62
     4
 10
54.79999999999626
 20
-31.748715233580899
 30
0.0
  0
VERTEX
  5
20E4
  8
SAPA_PROFIL
 62
     4
 10
51.799999999998072
 20
-31.748715233580899
 30
0.0
 42
-0.9999999999999998
  0
VERTEX
  5
20E5
  8
SAPA_PROFIL
 62
     4
 10
51.799999999998072
 20
-30.748715233580899
 30
0.0
  0
VERTEX
  5
20E6
  8
SAPA_PROFIL
 62
     4
 10
54.79999999999626
 20
-30.748715233580899
 30
0.0
 42
0.4142135623736278
  0
VERTEX
  5
20E7
  8
SAPA_PROFIL
 62
     4
 10
55.79999999999626
 20
-29.748715233580889
 30
0.0
  0
VERTEX
  5
20E8
  8
SAPA_PROFIL
 62
     4
 10
55.79999999999626
 20
-29.332468372854439
 30
0.0
 42
0.1316524975874375
  0
VERTEX
  5
20E9
  8
SAPA_PROFIL
 62
     4
 10
55.666025403780218
 20
-28.83246837285424
 30
0.0
  0
VERTEX
  5
20EA
  8
SAPA_PROFIL
 62
     4
 10
54.739875957128049
 20
-27.228330475852289
 30
0.0
 42
-0.1316524975874
  0
VERTEX
  5
20EB
  8
SAPA_PROFIL
 62
     4
 10
54.699683578262459
 20
-27.078330475852749
 30
0.0
  0
VERTEX
  5
20EC
  8
SAPA_PROFIL
 62
     4
 10
54.699683578263091
 20
-26.898715233581441
 30
0.0
 42
-0.4142135623744271
  0
VERTEX
  5
20ED
  8
SAPA_PROFIL
 62
     4
 10
55.099683578264091
 20
-26.49871523358226
 30
0.0
  0
VERTEX
  5
20EE
  8
SAPA_PROFIL
 62
     4
 10
58.499683578265092
 20
-26.498715233580899
 30
0.0
 42
-0.4142135623724291
  0
VERTEX
  5
20EF
  8
SAPA_PROFIL
 62
     4
 10
58.899683578264721
 20
-26.898715233581441
 30
0.0
  0
VERTEX
  5
20F0
  8
SAPA_PROFIL
 62
     4
 10
58.899683578271087
 20
-27.081151304018221
 30
0.0
 42
-0.1318219888653524
  0
VERTEX
  5
20F1
  8
SAPA_PROFIL
 62
     4
 10
58.859391181733699
 20
-27.231324406490561
 30
0.0
  0
VERTEX
  5
20F2
  8
SAPA_PROFIL
 62
     4
 10
58.050707720509358
 20
-28.629852106970219
 30
0.0
  0
VERTEX
  5
20F3
  8
SAPA_PROFIL
 62
     4
 10
57.783593192296323
 20
-28.629852106970219
 30
0.0
 42
0.577350269189159
  0
VERTEX
  5
20F4
  8
SAPA_PROFIL
 62
     4
 10
57.601727857501757
 20
-28.944852106969819
 30
0.0
  0
VERTEX
  5
20F5
  8
SAPA_PROFIL
 62
     4
 10
57.803464536178872
 20
-29.294270284188482
 30
0.0
 42
0.0612687673629489
  0
VERTEX
  5
20F6
  8
SAPA_PROFIL
 62
     4
 10
57.817047906865071
 20
-29.586945717288689
 30
0.0
 42
0.2694959974285039
  0
VERTEX
  5
20F7
  8
SAPA_PROFIL
 62
     4
 10
58.010179881209027
 20
-29.818464763689221
 30
0.0
  0
VERTEX
  5
20F8
  8
SAPA_PROFIL
 62
     4
 10
60.471010071662192
 20
-30.714133704598879
 30
0.0
 42
-0.3152987888784035
  0
VERTEX
  5
20F9
  8
SAPA_PROFIL
 62
     4
 10
60.799999999998768
 20
-31.183980014992098
 30
0.0
  0
VERTEX
  5
20FA
  8
SAPA_PROFIL
 62
     4
 10
60.799999999997169
 20
-32.565479600196539
 30
0.0
 42
-0.2539676464741841
  0
VERTEX
  5
20FB
  8
SAPA_PROFIL
 62
     4
 10
60.663391710501898
 20
-32.817080770580617
 30
0.0
  0
VERTEX
  5
20FC
  8
SAPA_PROFIL
 62
     4
 10
60.256831514496923
 20
-33.081104048957258
 30
0.0
 42
-0.5862177598324623
  0
VERTEX
  5
20FD
  8
SAPA_PROFIL
 62
     4
 10
59.800000000000423
 20
-32.825362233718913
 30
0.0
  0
VERTEX
  5
20FE
  8
SAPA_PROFIL
 62
     4
 10
59.800000000008083
 20
-31.884187553209099
 30
0.0
 42
0.3152987888813165
  0
VERTEX
  5
20FF
  8
SAPA_PROFIL
 62
     4
 10
59.47101007167133
 20
-31.41434124281135
 30
0.0
  0
VERTEX
  5
2100
  8
SAPA_PROFIL
 62
     4
 10
58.2710100716601
 20
-30.97757696168739
 30
0.0
 42
0.5205670505515651
  0
VERTEX
  5
2101
  8
SAPA_PROFIL
 62
     4
 10
57.599999999997351
 20
-31.447423272080609
 30
0.0
  0
VERTEX
  5
2102
  8
SAPA_PROFIL
 62
     4
 10
57.599999999997323
 20
-36.463864212749471
 30
0.0
 42
0.3702522326300203
  0
VERTEX
  5
2103
  8
SAPA_PROFIL
 62
     4
 10
57.854459952663028
 20
-36.76038757454279
 30
0.0
 42
0.0982365330332397
  0
VERTEX
  5
2104
  8
SAPA_PROFIL
 62
     4
 10
59.542146727658043
 20
-36.850840332753727
 30
0.0
 42
0.3735060174783164
  0
VERTEX
  5
2105
  8
SAPA_PROFIL
 62
     4
 10
59.799999999998072
 20
-36.553815664842752
 30
0.0
  0
VERTEX
  5
2106
  8
SAPA_PROFIL
 62
     4
 10
59.799999999998988
 20
-36.125362233720097
 30
0.0
 42
-0.5920056181162531
  0
VERTEX
  5
2107
  8
SAPA_PROFIL
 62
     4
 10
60.261203502526911
 20
-35.872353477402697
 30
0.0
  0
VERTEX
  5
2108
  8
SAPA_PROFIL
 62
     4
 10
60.663391710505209
 20
-36.133537553558398
 30
0.0
 42
-0.2539676464746725
  0
VERTEX
  5
2109
  8
SAPA_PROFIL
 62
     4
 10
60.800000000000558
 20
-36.385138723942163
 30
0.0
  0
VERTEX
  5
210A
  8
SAPA_PROFIL
 62
     4
 10
60.799999999998981
 20
-58.61229174330785
 30
0.0
 42
-0.2539676464741819
  0
VERTEX
  5
210B
  8
SAPA_PROFIL
 62
     4
 10
60.663391710505209
 20
-58.863892913690698
 30
0.0
  0
VERTEX
  5
210C
  8
SAPA_PROFIL
 62
     4
 10
60.261203502526868
 20
-59.125076989844523
 30
0.0
 42
-0.5920055144124249
  0
VERTEX
  5
210D
  8
SAPA_PROFIL
 62
     4
 10
59.799999999998988
 20
-58.872068233529014
 30
0.0
  0
VERTEX
  5
210E
  8
SAPA_PROFIL
 62
     4
 10
59.800000025274002
 20
-58.443614756238787
 30
0.0
 42
0.3735060174775405
  0
VERTEX
  5
210F
  8
SAPA_PROFIL
 62
     4
 10
59.542146752933903
 20
-58.146590088329098
 30
0.0
 42
0.0355900683670349
  0
VERTEX
  5
2110
  8
SAPA_PROFIL
 62
     4
 10
58.926273166134109
 20
-58.102696524296853
 30
0.0
 42
0.0624282003873116
  0
VERTEX
  5
2111
  8
SAPA_PROFIL
 62
     4
 10
57.854459977938987
 20
-58.237042846539779
 30
0.0
 42
0.3702522326309292
  0
VERTEX
  5
2112
  8
SAPA_PROFIL
 62
     4
 10
57.600000025273268
 20
-58.533566208333163
 30
0.0
  0
VERTEX
  5
2113
  8
SAPA_PROFIL
 62
     4
 10
57.599999999997131
 20
-63.550007195166671
 30
0.0
 42
0.5205670505515692
  0
VERTEX
  5
2114
  8
SAPA_PROFIL
 62
     4
 10
58.2710100716601
 20
-64.019853505559894
 30
0.0
  0
VERTEX
  5
2115
  8
SAPA_PROFIL
 62
     4
 10
59.471010071669546
 20
-63.583089224434943
 30
0.0
 42
0.3152987888807539
  0
VERTEX
  5
2116
  8
SAPA_PROFIL
 62
     4
 10
59.800000000007181
 20
-63.113242914039091
 30
0.0
  0
VERTEX
  5
2117
  8
SAPA_PROFIL
 62
     4
 10
59.800000000000352
 20
-62.172068233529998
 30
0.0
 42
-0.5862175119221242
  0
VERTEX
  5
2118
  8
SAPA_PROFIL
 62
     4
 10
60.256831325755492
 20
-61.91632630254805
 30
0.0
 42
0.0000002084758573
  0
SEQEND
  5
2119
  8
SAPA_PROFIL
 62
     4
  0
POLYLINE
  5
152B
  8
SAPA_PROFIL
 62
     4
 66
     1
 10
0.0
 20
0.0
 30
0.0
  0
VERTEX
  5
211A
  8
SAPA_PROFIL
 62
     4
 10
33.932281085846753
 20
-38.44938611122717
 30
0.0
 42
-0.5571646428658034
  0
VERTEX
  5
211B
  8
SAPA_PROFIL
 62
     4
 10
34.800000000002299
 20
-38.986346615363999
 30
0.0
  0
VERTEX
  5
211C
  8
SAPA_PROFIL
 62
     4
 10
34.800000000001837
 20
-56.011083851885203
 30
0.0
 42
-0.5571645048035741
  0
VERTEX
  5
211D
  8
SAPA_PROFIL
 62
     4
 10
33.932281312135672
 20
-56.54804446884625
 30
0.0
  0
VERTEX
  5
211E
  8
SAPA_PROFIL
 62
     4
 10
32.266140656067641
 20
-55.717337381299558
 30
0.0
 42
-0.284385813979063
  0
VERTEX
  5
211F
  8
SAPA_PROFIL
 62
     4
 10
32.1000000000002
 20
-55.448857072819202
 30
0.0
  0
VERTEX
  5
2120
  8
SAPA_PROFIL
 62
     4
 10
32.1000000000002
 20
-39.548573394429901
 30
0.0
 42
-0.2843858139786238
  0
VERTEX
  5
2121
  8
SAPA_PROFIL
 62
     4
 10
32.26614065606713
 20
-39.280093085949609
 30
0.0
  0
VERTEX
  5
2122
  8
SAPA_PROFIL
 62
     4
 10
33.932281312136482
 20
-38.449385998402448
 30
0.0
  0
SEQEND
  5
2123
  8
SAPA_PROFIL
 62
     4
  0
POLYLINE
  5
152C
  8
SAPA_PROFIL
 62
     4
 66
     1
 10
0.0
 20
0.0
 30
0.0
 70
     1
  0
VERTEX
  5
2124
  8
SAPA_PROFIL
 62
     4
 10
31.743168485502629
 20
-61.916326418291838
 30
0.0
  0
VERTEX
  5
2125
  8
SAPA_PROFIL
 62
     4
 10
31.336608289498489
 20
-62.180349696667861
 30
0.0
 42
0.2539676464751066
  0
VERTEX
  5
2126
  8
SAPA_PROFIL
 62
     4
 10
31.20000000000239
 20
-62.431950867052556
 30
0.0
  0
VERTEX
  5
2127
  8
SAPA_PROFIL
 62
     4
 10
31.20000000000239
 20
-63.813450452257911
 30
0.0
 42
0.3152987888790479
  0
VERTEX
  5
2128
  8
SAPA_PROFIL
 62
     4
 10
31.52898992834054
 20
-64.283296762650224
 30
0.0
  0
VERTEX
  5
2129
  8
SAPA_PROFIL
 62
     4
 10
33.989820118791819
 20
-65.178965703558831
 30
0.0
 42
-0.2694959974287434
  0
VERTEX
  5
212A
  8
SAPA_PROFIL
 62
     4
 10
34.182952093135711
 20
-65.41048474996019
 30
0.0
 42
-0.0612686379508233
  0
VERTEX
  5
212B
  8
SAPA_PROFIL
 62
     4
 10
34.196535463766232
 20
-65.703160182813463
 30
0.0
  0
VERTEX
  5
212C
  8
SAPA_PROFIL
 62
     4
 10
34.398272142495053
 20
-66.052578360121728
 30
0.0
 42
-0.5773502691891679
  0
VERTEX
  5
212D
  8
SAPA_PROFIL
 62
     4
 10
34.216406807700487
 20
-66.367578360121314
 30
0.0
  0
VERTEX
  5
212E
  8
SAPA_PROFIL
 62
     4
 10
33.949292279574173
 20
-66.367578360121556
 30
0.0
  0
VERTEX
  5
212F
  8
SAPA_PROFIL
 62
     4
 10
33.140608818265846
 20
-67.766106060755803
 30
0.0
 42
0.1318219888653519
  0
VERTEX
  5
2130
  8
SAPA_PROFIL
 62
     4
 10
33.100316421728472
 20
-67.916279163228154
 30
0.0
  0
VERTEX
  5
2131
  8
SAPA_PROFIL
 62
     4
 10
33.100316421734831
 20
-68.098715233664933
 30
0.0
 42
0.4142135623724291
  0
VERTEX
  5
2132
  8
SAPA_PROFIL
 62
     4
 10
33.500316421734468
 20
-68.498715233665479
 30
0.0
  0
VERTEX
  5
2133
  8
SAPA_PROFIL
 62
     4
 10
36.900316421735468
 20
-68.498715233664115
 30
0.0
 42
0.4142135623744271
  0
VERTEX
  5
2134
  8
SAPA_PROFIL
 62
     4
 10
37.300316421736468
 20
-68.098715233664933
 30
0.0
  0
VERTEX
  5
2135
  8
SAPA_PROFIL
 62
     4
 10
37.300316421737101
 20
-67.919099991393637
 30
0.0
 42
0.1316524975874005
  0
VERTEX
  5
2136
  8
SAPA_PROFIL
 62
     4
 10
37.260124042871503
 20
-67.769099991396814
 30
0.0
  0
VERTEX
  5
2137
  8
SAPA_PROFIL
 62
     4
 10
36.333974596218958
 20
-66.164962094394554
 30
0.0
 42
-0.1316524975875904
  0
VERTEX
  5
2138
  8
SAPA_PROFIL
 62
     4
 10
36.200000000004202
 20
-65.664962094392848
 30
0.0
  0
VERTEX
  5
2139
  8
SAPA_PROFIL
 62
     4
 10
36.200000000004202
 20
-65.248715233665479
 30
0.0
 42
-0.4142135623730951
  0
VERTEX
  5
213A
  8
SAPA_PROFIL
 62
     4
 10
37.200000000004202
 20
-64.248715233665465
 30
0.0
  0
VERTEX
  5
213B
  8
SAPA_PROFIL
 62
     4
 10
40.200000000001467
 20
-64.248715233665465
 30
0.0
 42
0.9999996830128083
  0
VERTEX
  5
213C
  8
SAPA_PROFIL
 62
     4
 10
40.200000000003293
 20
-63.248715233665479
 30
0.0
  0
VERTEX
  5
213D
  8
SAPA_PROFIL
 62
     4
 10
37.200000000003293
 20
-63.248715233665479
 30
0.0
 42
-0.4142135623730951
  0
VERTEX
  5
213E
  8
SAPA_PROFIL
 62
     4
 10
36.2000000000033
 20
-62.248715233665479
 30
0.0
  0
VERTEX
  5
213F
  8
SAPA_PROFIL
 62
     4
 10
36.2000000000033
 20
-32.748715233580903
 30
0.0
 42
-0.4142135623730951
  0
VERTEX
  5
2140
  8
SAPA_PROFIL
 62
     4
 10
37.200000000003293
 20
-31.748715233580899
 30
0.0
  0
VERTEX
  5
2141
  8
SAPA_PROFIL
 62
     4
 10
40.200000000001467
 20
-31.748715233580899
 30
0.0
 42
0.9999999999999998
  0
VERTEX
  5
2142
  8
SAPA_PROFIL
 62
     4
 10
40.200000000001467
 20
-30.748715233580899
 30
0.0
  0
VERTEX
  5
2143
  8
SAPA_PROFIL
 62
     4
 10
37.200000000003293
 20
-30.748715233580899
 30
0.0
 42
-0.4142135623736278
  0
VERTEX
  5
2144
  8
SAPA_PROFIL
 62
     4
 10
36.2000000000033
 20
-29.748715233580889
 30
0.0
  0
VERTEX
  5
2145
  8
SAPA_PROFIL
 62
     4
 10
36.2000000000033
 20
-29.332468372854439
 30
0.0
 42
-0.1316524975874375
  0
VERTEX
  5
2146
  8
SAPA_PROFIL
 62
     4
 10
36.333974596219328
 20
-28.83246837285424
 30
0.0
  0
VERTEX
  5
2147
  8
SAPA_PROFIL
 62
     4
 10
37.260124042871503
 20
-27.228330475852289
 30
0.0
 42
0.1316524975874
  0
VERTEX
  5
2148
  8
SAPA_PROFIL
 62
     4
 10
37.300316421737101
 20
-27.078330475852749
 30
0.0
  0
VERTEX
  5
2149
  8
SAPA_PROFIL
 62
     4
 10
37.300316421736461
 20
-26.898715233581441
 30
0.0
 42
0.4142135623744271
  0
VERTEX
  5
214A
  8
SAPA_PROFIL
 62
     4
 10
36.900316421735461
 20
-26.49871523358226
 30
0.0
  0
VERTEX
  5
214B
  8
SAPA_PROFIL
 62
     4
 10
33.50031642173446
 20
-26.498715233580899
 30
0.0
 42
0.4142135623724291
  0
VERTEX
  5
214C
  8
SAPA_PROFIL
 62
     4
 10
33.100316421734831
 20
-26.898715233581441
 30
0.0
  0
VERTEX
  5
214D
  8
SAPA_PROFIL
 62
     4
 10
33.100316421728458
 20
-27.081151304018221
 30
0.0
 42
0.1318219888653524
  0
VERTEX
  5
214E
  8
SAPA_PROFIL
 62
     4
 10
33.140608818265846
 20
-27.231324406490561
 30
0.0
  0
VERTEX
  5
214F
  8
SAPA_PROFIL
 62
     4
 10
33.949292279490187
 20
-28.629852106970219
 30
0.0
  0
VERTEX
  5
2150
  8
SAPA_PROFIL
 62
     4
 10
34.216406807703223
 20
-28.629852106970219
 30
0.0
 42
-0.577350269189159
  0
VERTEX
  5
2151
  8
SAPA_PROFIL
 62
     4
 10
34.398272142497788
 20
-28.944852106969819
 30
0.0
  0
VERTEX
  5
2152
  8
SAPA_PROFIL
 62
     4
 10
34.19653546382068
 20
-29.294270284188482
 30
0.0
 42
-0.0612687673629489
  0
VERTEX
  5
2153
  8
SAPA_PROFIL
 62
     4
 10
34.182952093134467
 20
-29.586945717288689
 30
0.0
 42
-0.2694959974285039
  0
VERTEX
  5
2154
  8
SAPA_PROFIL
 62
     4
 10
33.989820118790533
 20
-29.818464763689221
 30
0.0
  0
VERTEX
  5
2155
  8
SAPA_PROFIL
 62
     4
 10
31.52898992833736
 20
-30.714133704598879
 30
0.0
 42
0.3152987888784035
  0
VERTEX
  5
2156
  8
SAPA_PROFIL
 62
     4
 10
31.200000000000792
 20
-31.183980014992098
 30
0.0
  0
VERTEX
  5
2157
  8
SAPA_PROFIL
 62
     4
 10
31.20000000000239
 20
-32.565479600196539
 30
0.0
 42
0.2539676464741841
  0
VERTEX
  5
2158
  8
SAPA_PROFIL
 62
     4
 10
31.336608289497661
 20
-32.817080770580617
 30
0.0
  0
VERTEX
  5
2159
  8
SAPA_PROFIL
 62
     4
 10
31.743168485502629
 20
-33.081104048957258
 30
0.0
 42
0.5862177598324623
  0
VERTEX
  5
215A
  8
SAPA_PROFIL
 62
     4
 10
32.199999999999143
 20
-32.825362233718913
 30
0.0
  0
VERTEX
  5
215B
  8
SAPA_PROFIL
 62
     4
 10
32.199999999991469
 20
-31.884187553209099
 30
0.0
 42
-0.3152987888813165
  0
VERTEX
  5
215C
  8
SAPA_PROFIL
 62
     4
 10
32.528989928328222
 20
-31.41434124281135
 30
0.0
  0
VERTEX
  5
215D
  8
SAPA_PROFIL
 62
     4
 10
33.728989928339452
 20
-30.97757696168739
 30
0.0
 42
-0.5205670505515651
  0
VERTEX
  5
215E
  8
SAPA_PROFIL
 62
     4
 10
34.400000000002201
 20
-31.447423272080609
 30
0.0
  0
VERTEX
  5
215F
  8
SAPA_PROFIL
 62
     4
 10
34.40000000000223
 20
-36.463864212749471
 30
0.0
 42
-0.3702522326300203
  0
VERTEX
  5
2160
  8
SAPA_PROFIL
 62
     4
 10
34.145540047336517
 20
-36.76038757454279
 30
0.0
 42
-0.0982365330332397
  0
VERTEX
  5
2161
  8
SAPA_PROFIL
 62
     4
 10
32.457853272341517
 20
-36.850840332753727
 30
0.0
 42
-0.3735060174783164
  0
VERTEX
  5
2162
  8
SAPA_PROFIL
 62
     4
 10
32.200000000001481
 20
-36.553815664842752
 30
0.0
  0
VERTEX
  5
2163
  8
SAPA_PROFIL
 62
     4
 10
32.200000000000571
 20
-36.125362233720097
 30
0.0
 42
0.5920056181162531
  0
VERTEX
  5
2164
  8
SAPA_PROFIL
 62
     4
 10
31.738796497472642
 20
-35.872353477402697
 30
0.0
  0
VERTEX
  5
2165
  8
SAPA_PROFIL
 62
     4
 10
31.33660828949434
 20
-36.133537553558398
 30
0.0
 42
0.2539676464746725
  0
VERTEX
  5
2166
  8
SAPA_PROFIL
 62
     4
 10
31.19999999999898
 20
-36.385138723942163
 30
0.0
  0
VERTEX
  5
2167
  8
SAPA_PROFIL
 62
     4
 10
31.200000000000561
 20
-58.61229174330785
 30
0.0
 42
0.2539676464741819
  0
VERTEX
  5
2168
  8
SAPA_PROFIL
 62
     4
 10
31.33660828949434
 20
-58.863892913690698
 30
0.0
  0
VERTEX
  5
2169
  8
SAPA_PROFIL
 62
     4
 10
31.738796497472681
 20
-59.125076989844523
 30
0.0
 42
0.5920055144124249
  0
VERTEX
  5
216A
  8
SAPA_PROFIL
 62
     4
 10
32.200000000000571
 20
-58.872068233529014
 30
0.0
  0
VERTEX
  5
216B
  8
SAPA_PROFIL
 62
     4
 10
32.199999974725557
 20
-58.443614756238787
 30
0.0
 42
-0.3735060174775405
  0
VERTEX
  5
216C
  8
SAPA_PROFIL
 62
     4
 10
32.45785324706565
 20
-58.146590088329098
 30
0.0
 42
-0.0355900683670349
  0
VERTEX
  5
216D
  8
SAPA_PROFIL
 62
     4
 10
33.073726833865443
 20
-58.102696524296853
 30
0.0
 42
-0.0624282003873116
  0
VERTEX
  5
216E
  8
SAPA_PROFIL
 62
     4
 10
34.145540022060558
 20
-58.237042846539779
 30
0.0
 42
-0.3702522326309292
  0
VERTEX
  5
216F
  8
SAPA_PROFIL
 62
     4
 10
34.399999974726292
 20
-58.533566208333163
 30
0.0
  0
VERTEX
  5
2170
  8
SAPA_PROFIL
 62
     4
 10
34.400000000002422
 20
-63.550007195166671
 30
0.0
 42
-0.5205670505515692
  0
VERTEX
  5
2171
  8
SAPA_PROFIL
 62
     4
 10
33.728989928339452
 20
-64.019853505559894
 30
0.0
  0
VERTEX
  5
2172
  8
SAPA_PROFIL
 62
     4
 10
32.528989928330013
 20
-63.583089224434943
 30
0.0
 42
-0.3152987888807539
  0
VERTEX
  5
2173
  8
SAPA_PROFIL
 62
     4
 10
32.199999999992379
 20
-63.113242914039091
 30
0.0
  0
VERTEX
  5
2174
  8
SAPA_PROFIL
 62
     4
 10
32.1999999999992
 20
-62.172068233529998
 30
0.0
 42
0.5862175119221242
  0
VERTEX
  5
2175
  8
SAPA_PROFIL
 62
     4
 10
31.743168674244071
 20
-61.91632630254805
 30
0.0
 42
-0.0000002084758573
  0
SEQEND
  5
2176
  8
SAPA_PROFIL
 62
     4
  0
POLYLINE
  5
152D
  8
SAPA_PROFIL
 62
     4
 66
     1
 10
0.0
 20
0.0
 30
0.0
 70
     1
  0
VERTEX
  5
2177
  8
SAPA_PROFIL
 62
     4
 10
14.900000000164329
 20
-76.70294355616636
 30
0.0
  0
VERTEX
  5
2178
  8
SAPA_PROFIL
 62
     4
 10
14.90000000016251
 20
-80.897056105863257
 30
0.0
 42
-0.1989123673786592
  0
VERTEX
  5
2179
  8
SAPA_PROFIL
 62
     4
 10
14.81213203451906
 20
-81.109188140219089
 30
0.0
  0
VERTEX
  5
217A
  8
SAPA_PROFIL
 62
     4
 10
12.587867965808149
 20
-83.333452208929984
 30
0.0
 42
0.1989123673785438
  0
VERTEX
  5
217B
  8
SAPA_PROFIL
 62
     4
 10
12.50000000016469
 20
-83.545584243285816
 30
0.0
  0
VERTEX
  5
217C
  8
SAPA_PROFIL
 62
     4
 10
12.50000000016651
 20
-83.999999831014179
 30
0.0
 42
0.4142135623730951
  0
VERTEX
  5
217D
  8
SAPA_PROFIL
 62
     4
 10
12.80000000016579
 20
-84.299999831014375
 30
0.0
  0
VERTEX
  5
217E
  8
SAPA_PROFIL
 62
     4
 10
24.700000000162881
 20
-84.299999831014375
 30
0.0
 42
-0.4142135623730951
  0
VERTEX
  5
217F
  8
SAPA_PROFIL
 62
     4
 10
25.200000000162881
 20
-84.799999831014361
 30
0.0
  0
VERTEX
  5
2180
  8
SAPA_PROFIL
 62
     4
 10
25.200000000162881
 20
-86.499999831014179
 30
0.0
 42
0.4142135623739832
  0
VERTEX
  5
2181
  8
SAPA_PROFIL
 62
     4
 10
25.500000000162149
 20
-86.799999831014375
 30
0.0
  0
VERTEX
  5
2182
  8
SAPA_PROFIL
 62
     4
 10
29.200000000163609
 20
-86.799999831014375
 30
0.0
 42
0.414213562375759
  0
VERTEX
  5
2183
  8
SAPA_PROFIL
 62
     4
 10
29.5000000001647
 20
-86.499999831014179
 30
0.0
  0
VERTEX
  5
2184
  8
SAPA_PROFIL
 62
     4
 10
29.500000000162881
 20
-70.006576700611163
 30
0.0
 42
0.4142135623735391
  0
VERTEX
  5
2185
  8
SAPA_PROFIL
 62
     4
 10
29.200000000163609
 20
-69.706576700611436
 30
0.0
  0
VERTEX
  5
2186
  8
SAPA_PROFIL
 62
     4
 10
12.80000000016579
 20
-69.706576700611436
 30
0.0
 42
0.4142135623726511
  0
VERTEX
  5
2187
  8
SAPA_PROFIL
 62
     4
 10
12.50000000016469
 20
-70.006576700611163
 30
0.0
  0
VERTEX
  5
2188
  8
SAPA_PROFIL
 62
     4
 10
12.50000000016469
 20
-74.054415418741996
 30
0.0
 42
0.1989123673785438
  0
VERTEX
  5
2189
  8
SAPA_PROFIL
 62
     4
 10
12.587867965808149
 20
-74.266547453097814
 30
0.0
  0
VERTEX
  5
218A
  8
SAPA_PROFIL
 62
     4
 10
14.81213203452088
 20
-76.490811521810542
 30
0.0
 42
-0.1989123673798886
  0
SEQEND
  5
218B
  8
SAPA_PROFIL
 62
     4
  0
POLYLINE
  5
152E
  8
SAPA_PROFIL
 62
     4
 66
     1
 10
0.0
 20
0.0
 30
0.0
 70
     1
  0
VERTEX
  5
218C
  8
SAPA_PROFIL
 62
     4
 10
29.500000000162881
 20
-57.181576700611352
 30
0.0
  0
VERTEX
  5
218D
  8
SAPA_PROFIL
 62
     4
 10
29.500000000162881
 20
-68.106576700611072
 30
0.0
 42
-0.4142135623732061
  0
VERTEX
  5
218E
  8
SAPA_PROFIL
 62
     4
 10
29.200000000163609
 20
-68.406576700611254
 30
0.0
  0
VERTEX
  5
218F
  8
SAPA_PROFIL
 62
     4
 10
12.80000000016579
 20
-68.406576700611254
 30
0.0
 42
-0.4142135623730951
  0
VERTEX
  5
2190
  8
SAPA_PROFIL
 62
     4
 10
12.50000000016469
 20
-68.106576700611072
 30
0.0
  0
VERTEX
  5
2191
  8
SAPA_PROFIL
 62
     4
 10
12.50000000016469
 20
-57.181576700611352
 30
0.0
 42
-0.4142135623731173
  0
VERTEX
  5
2192
  8
SAPA_PROFIL
 62
     4
 10
12.80000000016579
 20
-56.881576700611163
 30
0.0
  0
VERTEX
  5
2193
  8
SAPA_PROFIL
 62
     4
 10
29.200000000163609
 20
-56.881576700611163
 30
0.0
 42
-0.4142135623730951
  0
SEQEND
  5
2194
  8
SAPA_PROFIL
 62
     4
  0
POLYLINE
  5
152F
  8
SAPA_PROFIL
 62
     4
 66
     1
 10
0.0
 20
0.0
 30
0.0
  0
VERTEX
  5
2195
  8
SAPA_PROFIL
 62
     4
 10
12.80000000016579
 20
-55.581576700611429
 30
0.0
 42
-0.4142135623731173
  0
VERTEX
  5
2196
  8
SAPA_PROFIL
 62
     4
 10
12.50000000016469
 20
-55.281576700611247
 30
0.0
  0
VERTEX
  5
2197
  8
SAPA_PROFIL
 62
     4
 10
12.50000000016651
 20
-47.499999831014406
 30
0.0
 42
-0.4142135623730951
  0
VERTEX
  5
2198
  8
SAPA_PROFIL
 62
     4
 10
13.00000000016651
 20
-46.999999831014406
 30
0.0
  0
VERTEX
  5
2199
  8
SAPA_PROFIL
 62
     4
 10
29.0000000001647
 20
-46.999999831014406
 30
0.0
 42
-0.4142135623730951
  0
VERTEX
  5
219A
  8
SAPA_PROFIL
 62
     4
 10
29.5000000001647
 20
-47.499999831014406
 30
0.0
  0
VERTEX
  5
219B
  8
SAPA_PROFIL
 62
     4
 10
29.500000000162881
 20
-55.281576700611247
 30
0.0
 42
-0.4142135623730951
  0
VERTEX
  5
219C
  8
SAPA_PROFIL
 62
     4
 10
29.200000000163609
 20
-55.581576700611429
 30
0.0
  0
VERTEX
  5
219D
  8
SAPA_PROFIL
 62
     4
 10
12.80000000016579
 20
-55.581576700611429
 30
0.0
  0
SEQEND
  5
219E
  8
SAPA_PROFIL
 62
     4
  0
POLYLINE
  5
1530
  8
SAPA_PROFIL
 62
     4
 66
     1
 10
0.0
 20
0.0
 30
0.0
 70
     1
  0
VERTEX
  5
219F
  8
SAPA_PROFIL
 62
     4
 10
11.00000000016651
 20
-45.999999831014399
 30
0.0
  0
VERTEX
  5
21A0
  8
SAPA_PROFIL
 62
     4
 10
11.0000000001647
 20
-74.675735762301997
 30
0.0
 42
0.1989123673799843
  0
VERTEX
  5
21A1
  8
SAPA_PROFIL
 62
     4
 10
11.08786796580997
 20
-74.887867796658725
 30
0.0
  0
VERTEX
  5
21A2
  8
SAPA_PROFIL
 62
     4
 10
13.31213203452088
 20
-77.112131865369633
 30
0.0
 42
-0.1989123673811184
  0
VERTEX
  5
21A3
  8
SAPA_PROFIL
 62
     4
 10
13.400000000164329
 20
-77.324263899725452
 30
0.0
  0
VERTEX
  5
21A4
  8
SAPA_PROFIL
 62
     4
 10
13.40000000016251
 20
-80.27573576230327
 30
0.0
 42
-0.1989123673785438
  0
VERTEX
  5
21A5
  8
SAPA_PROFIL
 62
     4
 10
13.31213203451906
 20
-80.487867796659074
 30
0.0
  0
VERTEX
  5
21A6
  8
SAPA_PROFIL
 62
     4
 10
11.087867965808149
 20
-82.712131865370907
 30
0.0
 42
0.1989123673785438
  0
VERTEX
  5
21A7
  8
SAPA_PROFIL
 62
     4
 10
11.0000000001647
 20
-82.924263899726725
 30
0.0
  0
VERTEX
  5
21A8
  8
SAPA_PROFIL
 62
     4
 10
11.00000000016651
 20
-85.299999831014361
 30
0.0
 42
0.4142135623730951
  0
VERTEX
  5
21A9
  8
SAPA_PROFIL
 62
     4
 10
11.50000000016651
 20
-85.799999831014347
 30
0.0
  0
VERTEX
  5
21AA
  8
SAPA_PROFIL
 62
     4
 10
23.400000000163601
 20
-85.799999831014347
 30
0.0
 42
-0.414213562373761
  0
VERTEX
  5
21AB
  8
SAPA_PROFIL
 62
     4
 10
23.700000000162881
 20
-86.099999831014543
 30
0.0
  0
VERTEX
  5
21AC
  8
SAPA_PROFIL
 62
     4
 10
23.700000000162881
 20
-87.799999831014361
 30
0.0
 42
0.4142135623730951
  0
VERTEX
  5
21AD
  8
SAPA_PROFIL
 62
     4
 10
24.200000000162881
 20
-88.299999831014347
 30
0.0
  0
VERTEX
  5
21AE
  8
SAPA_PROFIL
 62
     4
 10
30.5000000001647
 20
-88.299999831014347
 30
0.0
 42
0.4142135623730951
  0
VERTEX
  5
21AF
  8
SAPA_PROFIL
 62
     4
 10
31.0000000001647
 20
-87.799999831014361
 30
0.0
  0
VERTEX
  5
21B0
  8
SAPA_PROFIL
 62
     4
 10
31.000000000162881
 20
-86.799999831013992
 30
0.0
 42
-0.414213562373539
  0
VERTEX
  5
21B1
  8
SAPA_PROFIL
 62
     4
 10
31.30000000016215
 20
-86.499999831014037
 30
0.0
  0
VERTEX
  5
21B2
  8
SAPA_PROFIL
 62
     4
 10
32.90000000016434
 20
-86.499999831014506
 30
0.0
 42
-0.4142135623735391
  0
VERTEX
  5
21B3
  8
SAPA_PROFIL
 62
     4
 10
33.200000000163598
 20
-86.799999831014219
 30
0.0
  0
VERTEX
  5
21B4
  8
SAPA_PROFIL
 62
     4
 10
33.200000000161793
 20
-87.099999831013861
 30
0.0
 42
0.592337729603611
  0
VERTEX
  5
21B5
  8
SAPA_PROFIL
 62
     4
 10
33.661452270903361
 20
-87.352849913618115
 30
0.0
  0
VERTEX
  5
21B6
  8
SAPA_PROFIL
 62
     4
 10
35.361452270904088
 20
-86.075790645321263
 30
0.0
 42
0.2560149538738706
  0
VERTEX
  5
21B7
  8
SAPA_PROFIL
 62
     4
 10
35.500000000164697
 20
-85.822940562716099
 30
0.0
  0
VERTEX
  5
21B8
  8
SAPA_PROFIL
 62
     4
 10
35.500000000164697
 20
-85.599999831013491
 30
0.0
 42
0.4142135623733169
  0
VERTEX
  5
21B9
  8
SAPA_PROFIL
 62
     4
 10
35.200000000165431
 20
-85.299999831014219
 30
0.0
  0
VERTEX
  5
21BA
  8
SAPA_PROFIL
 62
     4
 10
31.30000000016215
 20
-85.299999831014219
 30
0.0
 42
-0.414213562373539
  0
VERTEX
  5
21BB
  8
SAPA_PROFIL
 62
     4
 10
31.000000000162881
 20
-84.999999831014264
 30
0.0
  0
VERTEX
  5
21BC
  8
SAPA_PROFIL
 62
     4
 10
31.0000000001647
 20
-73.999999831014094
 30
0.0
 42
-0.414213562373539
  0
VERTEX
  5
21BD
  8
SAPA_PROFIL
 62
     4
 10
31.300000000163969
 20
-73.699999831014139
 30
0.0
  0
VERTEX
  5
21BE
  8
SAPA_PROFIL
 62
     4
 10
35.200000000165431
 20
-73.699999831014139
 30
0.0
 42
0.4142135623730951
  0
VERTEX
  5
21BF
  8
SAPA_PROFIL
 62
     4
 10
35.500000000164697
 20
-73.399999831014867
 30
0.0
  0
VERTEX
  5
21C0
  8
SAPA_PROFIL
 62
     4
 10
35.500000000164697
 20
-73.17705909931226
 30
0.0
 42
0.2560149538738705
  0
VERTEX
  5
21C1
  8
SAPA_PROFIL
 62
     4
 10
35.361452270904088
 20
-72.924209016707096
 30
0.0
  0
VERTEX
  5
21C2
  8
SAPA_PROFIL
 62
     4
 10
33.661452270903361
 20
-71.647149748410243
 30
0.0
 42
0.592337729603611
  0
VERTEX
  5
21C3
  8
SAPA_PROFIL
 62
     4
 10
33.200000000161793
 20
-71.899999831014497
 30
0.0
  0
VERTEX
  5
21C4
  8
SAPA_PROFIL
 62
     4
 10
33.200000000163598
 20
-72.199999831014139
 30
0.0
 42
-0.4142135623735391
  0
VERTEX
  5
21C5
  8
SAPA_PROFIL
 62
     4
 10
32.90000000016434
 20
-72.499999831013866
 30
0.0
  0
VERTEX
  5
21C6
  8
SAPA_PROFIL
 62
     4
 10
31.300000000163969
 20
-72.499999831014321
 30
0.0
 42
-0.414213562373539
  0
VERTEX
  5
21C7
  8
SAPA_PROFIL
 62
     4
 10
31.0000000001647
 20
-72.199999831014367
 30
0.0
  0
VERTEX
  5
21C8
  8
SAPA_PROFIL
 62
     4
 10
31.000000000168338
 20
-45.999999831014399
 30
0.0
 42
0.414213562373126
  0
VERTEX
  5
21C9
  8
SAPA_PROFIL
 62
     4
 10
30.500000000168331
 20
-45.499999831014399
 30
0.0
  0
VERTEX
  5
21CA
  8
SAPA_PROFIL
 62
     4
 10
11.50000000016651
 20
-45.499999831014399
 30
0.0
 42
0.4142135623730951
  0
SEQEND
  5
21CB
  8
SAPA_PROFIL
 62
     4
  0
POLYLINE
  5
1531
  8
SAPA_PROFIL
 66
     1
 10
0.0
 20
0.0
 30
0.0
 70
     1
  0
VERTEX
  5
21CC
  8
SAPA_PROFIL
 10
11.938375275004541
 20
-92.499999999011834
 30
0.0
 42
-0.2216946626428728
  0
VERTEX
  5
21CD
  8
SAPA_PROFIL
 10
12.70441971812317
 20
-92.857212389325355
 30
0.0
  0
VERTEX
  5
21CE
  8
SAPA_PROFIL
 10
13.783145410548061
 20
-94.142787608696494
 30
0.0
 42
0.2216946626428911
  0
VERTEX
  5
21CF
  8
SAPA_PROFIL
 10
14.5491898536668
 20
-94.499999999009944
 30
0.0
  0
VERTEX
  5
21D0
  8
SAPA_PROFIL
 10
16.32573593128836
 20
-94.49999999901047
 30
0.0
 42
-0.1989123673796749
  0
VERTEX
  5
21D1
  8
SAPA_PROFIL
 10
16.537867965644629
 20
-94.587867964654365
 30
0.0
  0
VERTEX
  5
21D2
  8
SAPA_PROFIL
 10
17.108578643762939
 20
-95.158578642773136
 30
0.0
 42
-0.6681786379193591
  0
VERTEX
  5
21D3
  8
SAPA_PROFIL
 10
16.967157287525421
 20
-95.499999999010456
 30
0.0
  0
VERTEX
  5
21D4
  8
SAPA_PROFIL
 10
16.00000000000022
 20
-95.499999999010228
 30
0.0
 42
0.4142135623730951
  0
VERTEX
  5
21D5
  8
SAPA_PROFIL
 10
15.500000000000229
 20
-95.999999999010015
 30
0.0
  0
VERTEX
  5
21D6
  8
SAPA_PROFIL
 10
15.500000000000229
 20
-96.390808928730621
 30
0.0
 42
0.1763269807084316
  0
VERTEX
  5
21D7
  8
SAPA_PROFIL
 10
15.57018666706449
 20
-96.583645211636394
 30
0.0
  0
VERTEX
  5
21D8
  8
SAPA_PROFIL
 10
17.02833086987243
 20
-98.321393803853212
 30
0.0
 42
0.2216946626429586
  0
VERTEX
  5
21D9
  8
SAPA_PROFIL
 10
17.41135309143192
 20
-98.499999999009958
 30
0.0
  0
VERTEX
  5
21DA
  8
SAPA_PROFIL
 10
19.98190844019928
 20
-98.499999999010015
 30
0.0
 42
0.2216946626429592
  0
VERTEX
  5
21DB
  8
SAPA_PROFIL
 10
20.211721773135199
 20
-98.392836281916075
 30
0.0
  0
VERTEX
  5
21DC
  8
SAPA_PROFIL
 10
21.729813332935919
 20
-96.583645211636394
 30
0.0
 42
0.1763269807084563
  0
VERTEX
  5
21DD
  8
SAPA_PROFIL
 10
21.800000000000178
 20
-96.390808928730621
 30
0.0
  0
VERTEX
  5
21DE
  8
SAPA_PROFIL
 10
21.800000000000178
 20
-95.999999999010015
 30
0.0
 42
0.4142135623730951
  0
VERTEX
  5
21DF
  8
SAPA_PROFIL
 10
21.300000000000178
 20
-95.499999999010456
 30
0.0
  0
VERTEX
  5
21E0
  8
SAPA_PROFIL
 10
20.332842712474761
 20
-95.499999999010456
 30
0.0
 42
-0.6681786379193841
  0
VERTEX
  5
21E1
  8
SAPA_PROFIL
 10
20.191421356237701
 20
-95.158578642773136
 30
0.0
  0
VERTEX
  5
21E2
  8
SAPA_PROFIL
 10
20.762132034356458
 20
-94.587867964654365
 30
0.0
 42
-0.1989123673796471
  0
VERTEX
  5
21E3
  8
SAPA_PROFIL
 10
20.974264068712269
 20
-94.499999999010015
 30
0.0
  0
VERTEX
  5
21E4
  8
SAPA_PROFIL
 10
23.300000000000178
 20
-94.49999999901047
 30
0.0
 42
-0.4142135623730951
  0
VERTEX
  5
21E5
  8
SAPA_PROFIL
 10
23.800000000000178
 20
-94.999999999010484
 30
0.0
  0
VERTEX
  5
21E6
  8
SAPA_PROFIL
 10
23.80000000000075
 20
-98.699999999010345
 30
0.0
 42
-0.4142135623729843
  0
VERTEX
  5
21E7
  8
SAPA_PROFIL
 10
23.500000000000679
 20
-98.999999999010527
 30
0.0
  0
VERTEX
  5
21E8
  8
SAPA_PROFIL
 10
22.473205080758358
 20
-98.999999999010413
 30
0.0
 42
0.26794919243117
  0
VERTEX
  5
21E9
  8
SAPA_PROFIL
 10
22.21339745962268
 20
-99.149999999010504
 30
0.0
  0
VERTEX
  5
21EA
  8
SAPA_PROFIL
 10
21.342708718851441
 20
-100.6580771356048
 30
0.0
 42
0.4142135623734465
  0
VERTEX
  5
21EB
  8
SAPA_PROFIL
 10
21.45251633998669
 20
-101.06788475674
 30
0.0
  0
VERTEX
  5
21EC
  8
SAPA_PROFIL
 10
22.000000000000568
 20
-101.38397459522599
 30
0.0
 42
-0.4663076581550835
  0
VERTEX
  5
21ED
  8
SAPA_PROFIL
 10
22.26604444311954
 20
-102.89278760869691
 30
0.0
  0
VERTEX
  5
21EE
  8
SAPA_PROFIL
 10
19.32915489231732
 20
-106.3928362819163
 30
0.0
 42
-0.2216946626429129
  0
VERTEX
  5
21EF
  8
SAPA_PROFIL
 10
19.099341559381632
 20
-106.4999999990103
 30
0.0
  0
VERTEX
  5
21F0
  8
SAPA_PROFIL
 10
17.950000000000038
 20
-106.4999999990103
 30
0.0
 42
-0.4142135623732061
  0
VERTEX
  5
21F1
  8
SAPA_PROFIL
 10
17.650000000000091
 20
-106.1999999990102
 30
0.0
  0
VERTEX
  5
21F2
  8
SAPA_PROFIL
 10
17.650000000000659
 20
-102.6932604937618
 30
0.0
 42
0.1763269807085094
  0
VERTEX
  5
21F3
  8
SAPA_PROFIL
 10
17.416044443119631
 20
-102.05047288407511
 30
0.0
  0
VERTEX
  5
21F4
  8
SAPA_PROFIL
 10
15.11413473206983
 20
-99.307163716104085
 30
0.0
 42
0.2216946626429509
  0
VERTEX
  5
21F5
  8
SAPA_PROFIL
 10
14.88432139913413
 20
-99.199999999010004
 30
0.0
  0
VERTEX
  5
21F6
  8
SAPA_PROFIL
 10
14.024213696580659
 20
-99.199999999010004
 30
0.0
 42
-0.4142135623731506
  0
VERTEX
  5
21F7
  8
SAPA_PROFIL
 10
13.7242136965807
 20
-98.899999999010006
 30
0.0
  0
VERTEX
  5
21F8
  8
SAPA_PROFIL
 10
13.7242136965807
 20
-97.759911398917041
 30
0.0
 42
0.1763269807084654
  0
VERTEX
  5
21F9
  8
SAPA_PROFIL
 10
13.65402702951644
 20
-97.567075116011097
 30
0.0
  0
VERTEX
  5
21FA
  8
SAPA_PROFIL
 10
11.96755195683579
 20
-95.557212389323354
 30
0.0
 42
0.2216946626429509
  0
VERTEX
  5
21FB
  8
SAPA_PROFIL
 10
11.20150751371682
 20
-95.199999999009876
 30
0.0
  0
VERTEX
  5
21FC
  8
SAPA_PROFIL
 10
-11.20150751371682
 20
-95.199999999010004
 30
0.0
 42
0.2216946626429508
  0
VERTEX
  5
21FD
  8
SAPA_PROFIL
 10
-11.96755195683579
 20
-95.557212389323468
 30
0.0
  0
VERTEX
  5
21FE
  8
SAPA_PROFIL
 10
-13.65402702951644
 20
-97.56707511601121
 30
0.0
 42
0.1763269807084657
  0
VERTEX
  5
21FF
  8
SAPA_PROFIL
 10
-13.7242136965807
 20
-97.759911398917154
 30
0.0
  0
VERTEX
  5
2200
  8
SAPA_PROFIL
 10
-13.7242136965807
 20
-98.899999999010006
 30
0.0
 42
-0.4142135623730951
  0
VERTEX
  5
2201
  8
SAPA_PROFIL
 10
-14.024213696580659
 20
-99.199999999009947
 30
0.0
  0
VERTEX
  5
2202
  8
SAPA_PROFIL
 10
-14.88432139913413
 20
-99.199999999009947
 30
0.0
 42
0.2216946626429889
  0
VERTEX
  5
2203
  8
SAPA_PROFIL
 10
-15.11413473206983
 20
-99.307163716104014
 30
0.0
  0
VERTEX
  5
2204
  8
SAPA_PROFIL
 10
-17.416044443119631
 20
-102.05047288407521
 30
0.0
 42
0.1763269807085052
  0
VERTEX
  5
2205
  8
SAPA_PROFIL
 10
-17.650000000000659
 20
-102.693260493762
 30
0.0
  0
VERTEX
  5
2206
  8
SAPA_PROFIL
 10
-17.649999999999981
 20
-106.1999999990102
 30
0.0
 42
-0.4142135623732062
  0
VERTEX
  5
2207
  8
SAPA_PROFIL
 10
-17.949999999999928
 20
-106.4999999990103
 30
0.0
  0
VERTEX
  5
2208
  8
SAPA_PROFIL
 10
-19.099341559381511
 20
-106.4999999990103
 30
0.0
 42
-0.2216946626429129
  0
VERTEX
  5
2209
  8
SAPA_PROFIL
 10
-19.329154892317199
 20
-106.3928362819163
 30
0.0
  0
VERTEX
  5
220A
  8
SAPA_PROFIL
 10
-22.26604444311954
 20
-102.89278760869691
 30
0.0
 42
-0.4663076581550919
  0
VERTEX
  5
220B
  8
SAPA_PROFIL
 10
-22.000000000000568
 20
-101.38397459522599
 30
0.0
  0
VERTEX
  5
220C
  8
SAPA_PROFIL
 10
-21.45251633998669
 20
-101.0678847567401
 30
0.0
 42
0.4142135623731708
  0
VERTEX
  5
220D
  8
SAPA_PROFIL
 10
-21.342708718851441
 20
-100.6580771356048
 30
0.0
  0
VERTEX
  5
220E
  8
SAPA_PROFIL
 10
-22.21339745962268
 20
-99.149999999010504
 30
0.0
 42
0.26794919243117
  0
VERTEX
  5
220F
  8
SAPA_PROFIL
 10
-22.473205080758358
 20
-98.999999999010413
 30
0.0
  0
VERTEX
  5
2210
  8
SAPA_PROFIL
 10
-23.500000000000679
 20
-98.999999999010413
 30
0.0
 42
-0.4142135623729287
  0
VERTEX
  5
2211
  8
SAPA_PROFIL
 10
-23.80000000000075
 20
-98.699999999010345
 30
0.0
  0
VERTEX
  5
2212
  8
SAPA_PROFIL
 10
-23.800000000000178
 20
-94.999999999010484
 30
0.0
 42
-0.4142135623730951
  0
VERTEX
  5
2213
  8
SAPA_PROFIL
 10
-23.300000000000178
 20
-94.49999999901047
 30
0.0
  0
VERTEX
  5
2214
  8
SAPA_PROFIL
 10
-20.974264068712269
 20
-94.499999999010015
 30
0.0
 42
-0.1989123673796819
  0
VERTEX
  5
2215
  8
SAPA_PROFIL
 10
-20.762132034356458
 20
-94.587867964654365
 30
0.0
  0
VERTEX
  5
2216
  8
SAPA_PROFIL
 10
-20.191421356237701
 20
-95.158578642773136
 30
0.0
 42
-0.6681786379193841
  0
VERTEX
  5
2217
  8
SAPA_PROFIL
 10
-20.332842712474761
 20
-95.499999999010456
 30
0.0
  0
VERTEX
  5
2218
  8
SAPA_PROFIL
 10
-21.300000000000178
 20
-95.499999999010456
 30
0.0
 42
0.4142135623730951
  0
VERTEX
  5
2219
  8
SAPA_PROFIL
 10
-21.800000000000178
 20
-95.999999999010015
 30
0.0
  0
VERTEX
  5
221A
  8
SAPA_PROFIL
 10
-21.800000000000178
 20
-96.390808928730621
 30
0.0
 42
0.1763269807084561
  0
VERTEX
  5
221B
  8
SAPA_PROFIL
 10
-21.729813332935919
 20
-96.583645211636394
 30
0.0
  0
VERTEX
  5
221C
  8
SAPA_PROFIL
 10
-20.211721773135199
 20
-98.392836281916075
 30
0.0
 42
0.2216946626429592
  0
VERTEX
  5
221D
  8
SAPA_PROFIL
 10
-19.98190844019928
 20
-98.499999999010015
 30
0.0
  0
VERTEX
  5
221E
  8
SAPA_PROFIL
 10
-17.41135309143192
 20
-98.499999999009958
 30
0.0
 42
0.2216946626429736
  0
VERTEX
  5
221F
  8
SAPA_PROFIL
 10
-17.02833086987243
 20
-98.321393803853212
 30
0.0
  0
VERTEX
  5
2220
  8
SAPA_PROFIL
 10
-15.57018666706449
 20
-96.583645211636394
 30
0.0
 42
0.1763269807084407
  0
VERTEX
  5
2221
  8
SAPA_PROFIL
 10
-15.500000000000229
 20
-96.390808928730621
 30
0.0
  0
VERTEX
  5
2222
  8
SAPA_PROFIL
 10
-15.500000000000229
 20
-95.999999999010015
 30
0.0
 42
0.4142135623730951
  0
VERTEX
  5
2223
  8
SAPA_PROFIL
 10
-16.00000000000022
 20
-95.499999999010456
 30
0.0
  0
VERTEX
  5
2224
  8
SAPA_PROFIL
 10
-16.967157287525421
 20
-95.499999999010456
 30
0.0
 42
-0.6681786379193591
  0
VERTEX
  5
2225
  8
SAPA_PROFIL
 10
-17.108578643762939
 20
-95.158578642773136
 30
0.0
  0
VERTEX
  5
2226
  8
SAPA_PROFIL
 10
-16.537867965644629
 20
-94.587867964654365
 30
0.0
 42
-0.1989123673796749
  0
VERTEX
  5
2227
  8
SAPA_PROFIL
 10
-16.32573593128836
 20
-94.49999999901047
 30
0.0
  0
VERTEX
  5
2228
  8
SAPA_PROFIL
 10
-14.54918985366691
 20
-94.499999999009944
 30
0.0
 42
0.2216946626428804
  0
VERTEX
  5
2229
  8
SAPA_PROFIL
 10
-13.783145410548171
 20
-94.142787608696437
 30
0.0
  0
VERTEX
  5
222A
  8
SAPA_PROFIL
 10
-12.70441971812317
 20
-92.857212389325284
 30
0.0
 42
-0.2216946626428499
  0
VERTEX
  5
222B
  8
SAPA_PROFIL
 10
-11.938375275004541
 20
-92.499999999011834
 30
0.0
  0
VERTEX
  5
222C
  8
SAPA_PROFIL
 10
-6.6500000000000901
 20
-92.499999999010015
 30
0.0
 42
0.4142135623730951
  0
VERTEX
  5
222D
  8
SAPA_PROFIL
 10
-6.3499999999999091
 20
-92.199999999010288
 30
0.0
  0
VERTEX
  5
222E
  8
SAPA_PROFIL
 10
-6.3499999999999091
 20
-91.799999999010197
 30
0.0
 42
-0.4142135623730951
  0
VERTEX
  5
222F
  8
SAPA_PROFIL
 10
-6.050000000000181
 20
-91.499999999010015
 30
0.0
  0
VERTEX
  5
2230
  8
SAPA_PROFIL
 10
-5.6500000000000901
 20
-91.499999999010015
 30
0.0
 42
-0.4142135623730951
  0
VERTEX
  5
2231
  8
SAPA_PROFIL
 10
-5.3499999999999091
 20
-91.799999999010197
 30
0.0
  0
VERTEX
  5
2232
  8
SAPA_PROFIL
 10
-5.3499999999999091
 20
-92.199999999010288
 30
0.0
 42
0.4142135623730951
  0
VERTEX
  5
2233
  8
SAPA_PROFIL
 10
-5.050000000000181
 20
-92.499999999010015
 30
0.0
  0
VERTEX
  5
2234
  8
SAPA_PROFIL
 10
-0.6242640687119092
 20
-92.499999999010015
 30
0.0
 42
-0.1989123673795535
  0
VERTEX
  5
2235
  8
SAPA_PROFIL
 10
-0.4121320343560911
 20
-92.587867964653924
 30
0.0
  0
VERTEX
  5
2236
  8
SAPA_PROFIL
 10
0.0
 20
-92.999999999010015
 30
0.0
  0
VERTEX
  5
2237
  8
SAPA_PROFIL
 10
0.4121320343560911
 20
-92.587867964653924
 30
0.0
 42
-0.1989123673795536
  0
VERTEX
  5
2238
  8
SAPA_PROFIL
 10
0.6242640687119092
 20
-92.499999999010015
 30
0.0
  0
VERTEX
  5
2239
  8
SAPA_PROFIL
 10
5.0499999999997272
 20
-92.499999999010015
 30
0.0
 42
0.4142135623730951
  0
VERTEX
  5
223A
  8
SAPA_PROFIL
 10
5.3499999999999091
 20
-92.199999999010288
 30
0.0
  0
VERTEX
  5
223B
  8
SAPA_PROFIL
 10
5.3499999999999091
 20
-91.799999999010197
 30
0.0
 42
-0.4142135623730951
  0
VERTEX
  5
223C
  8
SAPA_PROFIL
 10
5.6500000000000901
 20
-91.499999999010015
 30
0.0
  0
VERTEX
  5
223D
  8
SAPA_PROFIL
 10
6.050000000000181
 20
-91.499999999010015
 30
0.0
 42
-0.4142135623730951
  0
VERTEX
  5
223E
  8
SAPA_PROFIL
 10
6.3499999999999091
 20
-91.799999999010197
 30
0.0
  0
VERTEX
  5
223F
  8
SAPA_PROFIL
 10
6.3499999999999091
 20
-92.199999999010288
 30
0.0
 42
0.414213562373095
  0
VERTEX
  5
2240
  8
SAPA_PROFIL
 10
6.6500000000000901
 20
-92.499999999010015
 30
0.0
  0
SEQEND
  5
2241
  8
SAPA_PROFIL
  0
POLYLINE
  5
1532
  8
SAPA_PROFIL
 66
     1
 10
0.0
 20
0.0
 30
0.0
 70
     1
  0
VERTEX
  5
2242
  8
SAPA_PROFIL
 10
-45.000000000000341
 20
48.799999999999038
 30
0.0
  0
VERTEX
  5
2243
  8
SAPA_PROFIL
 10
-45.000000000000341
 20
50.799999999999052
 30
0.0
  0
VERTEX
  5
2244
  8
SAPA_PROFIL
 10
-30.65685424949277
 20
50.799999999999052
 30
0.0
  0
VERTEX
  5
2245
  8
SAPA_PROFIL
 10
-25.000000000000341
 20
45.143145750506612
 30
0.0
  0
VERTEX
  5
2246
  8
SAPA_PROFIL
 10
-25.000000000000341
 20
25.799999999999049
 30
0.0
  0
VERTEX
  5
2247
  8
SAPA_PROFIL
 10
-27.000000000000341
 20
25.799999999999049
 30
0.0
  0
VERTEX
  5
2248
  8
SAPA_PROFIL
 10
-27.000000000000341
 20
31.107179676971551
 30
0.0
  0
VERTEX
  5
2249
  8
SAPA_PROFIL
 10
-26.600000000000481
 20
31.799999999999049
 30
0.0
  0
VERTEX
  5
224A
  8
SAPA_PROFIL
 10
-27.000000000000341
 20
32.492820323026763
 30
0.0
  0
VERTEX
  5
224B
  8
SAPA_PROFIL
 10
-27.000000000000341
 20
43.486291501014421
 30
0.0
 42
0.1989123673796584
  0
VERTEX
  5
224C
  8
SAPA_PROFIL
 10
-27.585786437627231
 20
44.900505063387527
 30
0.0
  0
VERTEX
  5
224D
  8
SAPA_PROFIL
 10
-30.89949493661209
 20
48.214213562372152
 30
0.0
 42
0.1989123673796572
  0
VERTEX
  5
224E
  8
SAPA_PROFIL
 10
-32.3137084989852
 20
48.799999999999038
 30
0.0
  0
VERTEX
  5
224F
  8
SAPA_PROFIL
 10
-38.307179676972851
 20
48.799999999999038
 30
0.0
  0
VERTEX
  5
2250
  8
SAPA_PROFIL
 10
-39.000000000000341
 20
49.199999999999129
 30
0.0
  0
VERTEX
  5
2251
  8
SAPA_PROFIL
 10
-39.692820323028059
 20
48.799999999999038
 30
0.0
  0
SEQEND
  5
2252
  8
SAPA_PROFIL
  0
POLYLINE
  5
1533
  8
SAPA_PROFIL
 66
     1
 10
0.0
 20
0.0
 30
0.0
 70
     1
  0
VERTEX
  5
2253
  8
SAPA_PROFIL
 10
-15.699999999999701
 20
-64.200000000001239
 30
0.0
 42
-0.4142135623730951
  0
VERTEX
  5
2254
  8
SAPA_PROFIL
 10
-15.199999999999701
 20
-64.700000000001239
 30
0.0
  0
VERTEX
  5
2255
  8
SAPA_PROFIL
 10
-15.19999999999993
 20
-69.500000000001421
 30
0.0
 42
0.4142135623730951
  0
VERTEX
  5
2256
  8
SAPA_PROFIL
 10
-14.69999999999993
 20
-70.000000000001421
 30
0.0
  0
VERTEX
  5
2257
  8
SAPA_PROFIL
 10
-12.00000000000114
 20
-70.000000000001421
 30
0.0
 42
0.4142135623731617
  0
VERTEX
  5
2258
  8
SAPA_PROFIL
 10
-11.50000000000114
 20
-69.500000000001421
 30
0.0
  0
VERTEX
  5
2259
  8
SAPA_PROFIL
 10
-11.50000000000227
 20
-52.200000000001751
 30
0.0
 42
0.4142135623730617
  0
VERTEX
  5
225A
  8
SAPA_PROFIL
 10
-12.00000000000227
 20
-51.700000000001751
 30
0.0
  0
VERTEX
  5
225B
  8
SAPA_PROFIL
 10
-15.699999999999131
 20
-51.700000000001751
 30
0.0
 42
-0.4142135623730951
  0
VERTEX
  5
225C
  8
SAPA_PROFIL
 10
-16.199999999999129
 20
-51.200000000001751
 30
0.0
  0
VERTEX
  5
225D
  8
SAPA_PROFIL
 10
-16.199999999999129
 20
-46.100000000000932
 30
0.0
 42
0.4142135623730847
  0
VERTEX
  5
225E
  8
SAPA_PROFIL
 10
-16.699999999999129
 20
-45.600000000000932
 30
0.0
  0
VERTEX
  5
225F
  8
SAPA_PROFIL
 10
-22.799999999999049
 20
-45.600000000000698
 30
0.0
 42
0.4142135623731054
  0
VERTEX
  5
2260
  8
SAPA_PROFIL
 10
-23.299999999999049
 20
-46.100000000000698
 30
0.0
  0
VERTEX
  5
2261
  8
SAPA_PROFIL
 10
-23.299999999999049
 20
-63.700000000001012
 30
0.0
 42
0.4142135623730951
  0
VERTEX
  5
2262
  8
SAPA_PROFIL
 10
-22.799999999999049
 20
-64.200000000001012
 30
0.0
  0
SEQEND
  5
2263
  8
SAPA_PROFIL
  0
POLYLINE
  5
1534
  8
SAPA_PROFIL
 66
     1
 10
0.0
 20
0.0
 30
0.0
 70
     1
  0
VERTEX
  5
2264
  8
SAPA_PROFIL
 10
-16.69999999999925
 20
-70.000000000001194
 30
0.0
  0
VERTEX
  5
2265
  8
SAPA_PROFIL
 10
-16.69999999999925
 20
-66.200000000001467
 30
0.0
 42
0.4142135623730951
  0
VERTEX
  5
2266
  8
SAPA_PROFIL
 10
-17.19999999999925
 20
-65.700000000001467
 30
0.0
  0
VERTEX
  5
2267
  8
SAPA_PROFIL
 10
-22.799999999999159
 20
-65.700000000001012
 30
0.0
 42
0.4142135623730951
  0
VERTEX
  5
2268
  8
SAPA_PROFIL
 10
-23.299999999999049
 20
-66.200000000001012
 30
0.0
  0
VERTEX
  5
2269
  8
SAPA_PROFIL
 10
-23.299999999999159
 20
-70.000000000001194
 30
0.0
 42
0.4142135623730477
  0
VERTEX
  5
226A
  8
SAPA_PROFIL
 10
-22.799999999999269
 20
-70.500000000001194
 30
0.0
  0
VERTEX
  5
226B
  8
SAPA_PROFIL
 10
-21.799999999999159
 20
-70.500000000001421
 30
0.0
 42
-0.7105995015650752
  0
VERTEX
  5
226C
  8
SAPA_PROFIL
 10
-21.613615984238439
 20
-71.035076580436055
 30
0.0
  0
VERTEX
  5
226D
  8
SAPA_PROFIL
 10
-22.19999999999925
 20
-71.500000000001421
 30
0.0
  0
VERTEX
  5
226E
  8
SAPA_PROFIL
 10
-24.299999999999269
 20
-71.500000000001421
 30
0.0
 42
-0.4142135623730977
  0
VERTEX
  5
226F
  8
SAPA_PROFIL
 10
-24.79999999999928
 20
-71.000000000001421
 30
0.0
  0
VERTEX
  5
2270
  8
SAPA_PROFIL
 10
-24.799999999999041
 20
-44.100000000000698
 30
0.0
 42
-0.4142135623730927
  0
VERTEX
  5
2271
  8
SAPA_PROFIL
 10
-24.299999999999049
 20
-43.600000000000698
 30
0.0
  0
VERTEX
  5
2272
  8
SAPA_PROFIL
 10
-22.69999999999914
 20
-43.600000000000477
 30
0.0
  0
VERTEX
  5
2273
  8
SAPA_PROFIL
 10
-22.69999999999914
 20
-43.600000000000477
 30
0.0
 42
0.4142135623730951
  0
VERTEX
  5
2274
  8
SAPA_PROFIL
 10
-22.19999999999914
 20
-44.100000000000477
 30
0.0
  0
VERTEX
  5
2275
  8
SAPA_PROFIL
 10
-15.199999999999131
 20
-44.100000000000477
 30
0.0
 42
-0.4142135623730951
  0
VERTEX
  5
2276
  8
SAPA_PROFIL
 10
-14.699999999999131
 20
-44.60000000000047
 30
0.0
  0
VERTEX
  5
2277
  8
SAPA_PROFIL
 10
-14.699999999999131
 20
-49.700000000001069
 30
0.0
 42
0.4142135623730951
  0
VERTEX
  5
2278
  8
SAPA_PROFIL
 10
-14.199999999999131
 20
-50.200000000001069
 30
0.0
  0
VERTEX
  5
2279
  8
SAPA_PROFIL
 10
-11.199999999999131
 20
-50.200000000001303
 30
0.0
 42
0.4142135623730951
  0
VERTEX
  5
227A
  8
SAPA_PROFIL
 10
-10.699999999999131
 20
-49.700000000001303
 30
0.0
  0
VERTEX
  5
227B
  8
SAPA_PROFIL
 10
-10.70000000000004
 20
-33.80000000000075
 30
0.0
 42
0.4142135623730951
  0
VERTEX
  5
227C
  8
SAPA_PROFIL
 10
-11.0
 20
-33.500000000000803
 30
0.0
  0
VERTEX
  5
227D
  8
SAPA_PROFIL
 10
-12.288210879707769
 20
-33.500000000000803
 30
0.0
 42
-0.6681786379192989
  0
VERTEX
  5
227E
  8
SAPA_PROFIL
 10
-12.50034291406371
 20
-32.98786796564503
 30
0.0
  0
VERTEX
  5
227F
  8
SAPA_PROFIL
 10
-10.300342914063769
 20
-30.787867965644981
 30
0.0
 42
-0.1989123673796284
  0
VERTEX
  5
2280
  8
SAPA_PROFIL
 10
-10.088210879707839
 20
-30.700000000000841
 30
0.0
  0
VERTEX
  5
2281
  8
SAPA_PROFIL
 10
-9.4999999999998863
 20
-30.700000000000841
 30
0.0
 42
-0.4142135623730951
  0
VERTEX
  5
2282
  8
SAPA_PROFIL
 10
-9.2000000000000455
 20
-31.000000000000799
 30
0.0
  0
VERTEX
  5
2283
  8
SAPA_PROFIL
 10
-9.2000000000000455
 20
-49.700000000001523
 30
0.0
 42
0.4142135623730951
  0
VERTEX
  5
2284
  8
SAPA_PROFIL
 10
-8.7000000000000455
 20
-50.200000000001523
 30
0.0
  0
VERTEX
  5
2285
  8
SAPA_PROFIL
 10
-7.0000000000002274
 20
-50.200000000001523
 30
0.0
 42
0.4142135623730951
  0
VERTEX
  5
2286
  8
SAPA_PROFIL
 10
-6.5000000000002274
 20
-49.700000000001523
 30
0.0
  0
VERTEX
  5
2287
  8
SAPA_PROFIL
 10
-6.5000000000004539
 20
-38.200000000001751
 30
0.0
 42
-0.4142135623731008
  0
VERTEX
  5
2288
  8
SAPA_PROFIL
 10
-6.0000000000004539
 20
-37.700000000001751
 30
0.0
  0
VERTEX
  5
2289
  8
SAPA_PROFIL
 10
-5.5000000000002274
 20
-37.700000000001751
 30
0.0
 42
-0.4142135623731177
  0
VERTEX
  5
228A
  8
SAPA_PROFIL
 10
-5.0000000000002274
 20
-38.200000000001751
 30
0.0
  0
VERTEX
  5
228B
  8
SAPA_PROFIL
 10
-5.0000000000012497
 20
-51.200000000001751
 30
0.0
 42
-0.4142135623730951
  0
VERTEX
  5
228C
  8
SAPA_PROFIL
 10
-5.5000000000012497
 20
-51.700000000001751
 30
0.0
  0
VERTEX
  5
228D
  8
SAPA_PROFIL
 10
-9.5000000000022737
 20
-51.700000000001971
 30
0.0
 42
0.4142135623731284
  0
VERTEX
  5
228E
  8
SAPA_PROFIL
 10
-10.00000000000227
 20
-52.200000000001971
 30
0.0
  0
VERTEX
  5
228F
  8
SAPA_PROFIL
 10
-10.00000000000102
 20
-71.000000000001634
 30
0.0
 42
-0.4142135623730951
  0
VERTEX
  5
2290
  8
SAPA_PROFIL
 10
-10.50000000000102
 20
-71.500000000001648
 30
0.0
  0
VERTEX
  5
2291
  8
SAPA_PROFIL
 10
-17.799999999999159
 20
-71.500000000001421
 30
0.0
  0
VERTEX
  5
2292
  8
SAPA_PROFIL
 10
-18.386384015759969
 20
-71.035076580436055
 30
0.0
 42
-0.7105995015651617
  0
VERTEX
  5
2293
  8
SAPA_PROFIL
 10
-18.19999999999925
 20
-70.500000000001194
 30
0.0
  0
VERTEX
  5
2294
  8
SAPA_PROFIL
 10
-17.19999999999936
 20
-70.500000000001194
 30
0.0
 42
0.4142135623731507
  0
SEQEND
  5
2295
  8
SAPA_PROFIL
  0
POLYLINE
  5
1535
  8
SAPA_PROFIL
 66
     1
 10
0.0
 20
0.0
 30
0.0
 70
     1
  0
VERTEX
  5
2296
  8
SAPA_PROFIL
 10
22.799999999999049
 20
-99.098475071207986
 30
0.0
  0
VERTEX
  5
2297
  8
SAPA_PROFIL
 10
23.799999999999041
 20
-99.098475071207986
 30
0.0
  0
VERTEX
  5
2298
  8
SAPA_PROFIL
 10
23.799999999999041
 20
-96.498475071207821
 30
0.0
 42
-0.4142135623730951
  0
VERTEX
  5
2299
  8
SAPA_PROFIL
 10
24.299999999999049
 20
-95.998475071207835
 30
0.0
  0
VERTEX
  5
229A
  8
SAPA_PROFIL
 10
24.69999999999914
 20
-95.998475071207835
 30
0.0
 42
-0.4142135623730951
  0
VERTEX
  5
229B
  8
SAPA_PROFIL
 10
24.999999999999091
 20
-96.298475071207775
 30
0.0
  0
VERTEX
  5
229C
  8
SAPA_PROFIL
 10
24.999999999999091
 20
-113.9999999990104
 30
0.0
 42
-0.4142135623730951
  0
VERTEX
  5
229D
  8
SAPA_PROFIL
 10
24.499999999999091
 20
-114.4999999990105
 30
0.0
  0
VERTEX
  5
229E
  8
SAPA_PROFIL
 10
-24.500000000000909
 20
-114.4999999990105
 30
0.0
 42
-0.4142135623730951
  0
VERTEX
  5
229F
  8
SAPA_PROFIL
 10
-25.000000000000909
 20
-113.9999999990104
 30
0.0
  0
VERTEX
  5
22A0
  8
SAPA_PROFIL
 10
-25.000000000000909
 20
-96.298475071207775
 30
0.0
 42
-0.4142135623730951
  0
VERTEX
  5
22A1
  8
SAPA_PROFIL
 10
-24.700000000000959
 20
-95.998475071207835
 30
0.0
  0
VERTEX
  5
22A2
  8
SAPA_PROFIL
 10
-24.300000000000871
 20
-95.998475071207835
 30
0.0
 42
-0.4142135623730951
  0
VERTEX
  5
22A3
  8
SAPA_PROFIL
 10
-23.80000000000086
 20
-96.498475071207821
 30
0.0
  0
VERTEX
  5
22A4
  8
SAPA_PROFIL
 10
-23.80000000000086
 20
-99.098475071207986
 30
0.0
  0
VERTEX
  5
22A5
  8
SAPA_PROFIL
 10
-22.80000000000086
 20
-99.098475071207986
 30
0.0
  0
VERTEX
  5
22A6
  8
SAPA_PROFIL
 10
-22.22033922157971
 20
-100.10250783084101
 30
0.0
 42
-0.4155392929676362
  0
VERTEX
  5
22A7
  8
SAPA_PROFIL
 10
-22.51631264788557
 20
-101.19712680263289
 30
0.0
  0
VERTEX
  5
22A8
  8
SAPA_PROFIL
 10
-23.80000000000086
 20
-101.9382640409319
 30
0.0
  0
VERTEX
  5
22A9
  8
SAPA_PROFIL
 10
-23.80000000000086
 20
-112.09999999901061
 30
0.0
 42
0.4142135623730951
  0
VERTEX
  5
22AA
  8
SAPA_PROFIL
 10
-22.80000000000086
 20
-113.09999999901061
 30
0.0
  0
VERTEX
  5
22AB
  8
SAPA_PROFIL
 10
22.799999999999049
 20
-113.09999999901061
 30
0.0
 42
0.4142135623730951
  0
VERTEX
  5
22AC
  8
SAPA_PROFIL
 10
23.799999999999041
 20
-112.09999999901061
 30
0.0
  0
VERTEX
  5
22AD
  8
SAPA_PROFIL
 10
23.799999999999041
 20
-101.9382640409319
 30
0.0
  0
VERTEX
  5
22AE
  8
SAPA_PROFIL
 10
22.516312647883751
 20
-101.19712680263289
 30
0.0
 42
-0.4155392929676362
  0
VERTEX
  5
22AF
  8
SAPA_PROFIL
 10
22.220339221577891
 20
-100.10250783084101
 30
0.0
  0
SEQEND
  5
22B0
  8
SAPA_PROFIL
  0
POLYLINE
  5
1536
  8
SAPA_PROFIL
 66
     1
 10
0.0
 20
0.0
 30
0.0
 70
     1
  0
VERTEX
  5
22B1
  8
SAPA_PROFIL
 10
-2.700000000000272
 20
-33.050000000001091
 30
0.0
  0
VERTEX
  5
22B2
  8
SAPA_PROFIL
 10
-2.0767196966983188
 20
-31.67376540642476
 30
0.0
 42
0.5450207798987328
  0
VERTEX
  5
22B3
  8
SAPA_PROFIL
 10
-2.350000000000136
 20
-31.25000000000114
 30
0.0
  0
VERTEX
  5
22B4
  8
SAPA_PROFIL
 10
-2.700000000000272
 20
-31.25000000000114
 30
0.0
  0
VERTEX
  5
22B5
  8
SAPA_PROFIL
 10
-2.700000000000272
 20
-31.00000000000114
 30
0.0
 42
-0.4142135623730951
  0
VERTEX
  5
22B6
  8
SAPA_PROFIL
 10
-1.700000000000272
 20
-30.00000000000114
 30
0.0
  0
VERTEX
  5
22B7
  8
SAPA_PROFIL
 10
1.6999999999998181
 20
-30.00000000000114
 30
0.0
 42
-0.4142135623730951
  0
VERTEX
  5
22B8
  8
SAPA_PROFIL
 10
2.6999999999998181
 20
-31.00000000000114
 30
0.0
  0
VERTEX
  5
22B9
  8
SAPA_PROFIL
 10
2.6999999999998181
 20
-32.150000000001
 30
0.0
  0
VERTEX
  5
22BA
  8
SAPA_PROFIL
 10
2.3499999999996808
 20
-32.150000000001
 30
0.0
 42
0.5450200690651551
  0
VERTEX
  5
22BB
  8
SAPA_PROFIL
 10
2.0767189999999109
 20
-32.573765000001011
 30
0.0
  0
VERTEX
  5
22BC
  8
SAPA_PROFIL
 10
2.6999999999998181
 20
-33.950000000000948
 30
0.0
  0
VERTEX
  5
22BD
  8
SAPA_PROFIL
 10
2.3499999999996808
 20
-33.950000000000948
 30
0.0
 42
0.5450200690651692
  0
VERTEX
  5
22BE
  8
SAPA_PROFIL
 10
2.0767189999999109
 20
-34.373765000000958
 30
0.0
  0
VERTEX
  5
22BF
  8
SAPA_PROFIL
 10
2.6999999999998181
 20
-35.750000000001137
 30
0.0
  0
VERTEX
  5
22C0
  8
SAPA_PROFIL
 10
2.3499999999996808
 20
-35.750000000001137
 30
0.0
 42
0.5450200690651619
  0
VERTEX
  5
22C1
  8
SAPA_PROFIL
 10
2.0767189999999109
 20
-36.17376500000114
 30
0.0
  0
VERTEX
  5
22C2
  8
SAPA_PROFIL
 10
2.6999999999998181
 20
-37.550000000001091
 30
0.0
  0
VERTEX
  5
22C3
  8
SAPA_PROFIL
 10
2.3499999999996808
 20
-37.550000000001091
 30
0.0
 42
0.5450200690651619
  0
VERTEX
  5
22C4
  8
SAPA_PROFIL
 10
2.0767189999999109
 20
-37.973765000001102
 30
0.0
  0
VERTEX
  5
22C5
  8
SAPA_PROFIL
 10
2.6999999999998181
 20
-39.350000000001053
 30
0.0
  0
VERTEX
  5
22C6
  8
SAPA_PROFIL
 10
2.3499999999996808
 20
-39.350000000001053
 30
0.0
 42
0.5450200690651692
  0
VERTEX
  5
22C7
  8
SAPA_PROFIL
 10
2.0767189999999109
 20
-39.773765000001049
 30
0.0
  0
VERTEX
  5
22C8
  8
SAPA_PROFIL
 10
2.6999999999998181
 20
-41.150000000001
 30
0.0
  0
VERTEX
  5
22C9
  8
SAPA_PROFIL
 10
2.6999999999998181
 20
-41.450000000000948
 30
0.0
  0
VERTEX
  5
22CA
  8
SAPA_PROFIL
 10
-2.42826763351104
 20
-41.450000000000948
 30
0.0
  0
VERTEX
  5
22CB
  8
SAPA_PROFIL
 10
-2.0767196966983188
 20
-40.673765406424756
 30
0.0
 42
0.5450207798987328
  0
VERTEX
  5
22CC
  8
SAPA_PROFIL
 10
-2.350000000000136
 20
-40.250000000001137
 30
0.0
  0
VERTEX
  5
22CD
  8
SAPA_PROFIL
 10
-2.700000000000272
 20
-40.250000000001137
 30
0.0
  0
VERTEX
  5
22CE
  8
SAPA_PROFIL
 10
-2.0767200000002499
 20
-38.873765000000958
 30
0.0
 42
0.5450205149791638
  0
VERTEX
  5
22CF
  8
SAPA_PROFIL
 10
-2.350000000000136
 20
-38.450000000000962
 30
0.0
  0
VERTEX
  5
22D0
  8
SAPA_PROFIL
 10
-2.700000000000272
 20
-38.450000000000962
 30
0.0
  0
VERTEX
  5
22D1
  8
SAPA_PROFIL
 10
-2.0767196966983188
 20
-37.073765406424627
 30
0.0
 42
0.545020779898768
  0
VERTEX
  5
22D2
  8
SAPA_PROFIL
 10
-2.350000000000136
 20
-36.650000000001
 30
0.0
  0
VERTEX
  5
22D3
  8
SAPA_PROFIL
 10
-2.700000000000272
 20
-36.650000000001
 30
0.0
  0
VERTEX
  5
22D4
  8
SAPA_PROFIL
 10
-2.0767196966983188
 20
-35.273765406424673
 30
0.0
 42
0.54502077989874
  0
VERTEX
  5
22D5
  8
SAPA_PROFIL
 10
-2.350000000000136
 20
-34.850000000001053
 30
0.0
  0
VERTEX
  5
22D6
  8
SAPA_PROFIL
 10
-2.700000000000272
 20
-34.850000000001053
 30
0.0
  0
VERTEX
  5
22D7
  8
SAPA_PROFIL
 10
-2.0767196966983188
 20
-33.473765406424718
 30
0.0
 42
0.545020779898761
  0
VERTEX
  5
22D8
  8
SAPA_PROFIL
 10
-2.350000000000136
 20
-33.050000000001091
 30
0.0
  0
SEQEND
  5
22D9
  8
SAPA_PROFIL
  0
POLYLINE
  5
1537
  8
SAPA_PROFIL
 66
     1
 10
0.0
 20
0.0
 30
0.0
 70
     1
  0
VERTEX
  5
22DA
  8
SAPA_PROFIL
 10
-23.000000000000231
 20
58.024264068710863
 30
0.0
 42
0.1989123673796753
  0
VERTEX
  5
22DB
  8
SAPA_PROFIL
 10
-22.912132034356091
 20
57.812132034355052
 30
0.0
  0
VERTEX
  5
22DC
  8
SAPA_PROFIL
 10
-21.187867965644269
 20
56.087867965642999
 30
0.0
 42
-0.1989123673796753
  0
VERTEX
  5
22DD
  8
SAPA_PROFIL
 10
-21.10000000000014
 20
55.875735931286947
 30
0.0
  0
VERTEX
  5
22DE
  8
SAPA_PROFIL
 10
-21.10000000000014
 20
55.299999999999052
 30
0.0
 42
-0.4142135623730951
  0
VERTEX
  5
22DF
  8
SAPA_PROFIL
 10
-21.400000000000318
 20
54.999999999998863
 30
0.0
  0
VERTEX
  5
22E0
  8
SAPA_PROFIL
 10
-22.700000000000269
 20
54.999999999998863
 30
0.0
 42
0.4142135623730951
  0
VERTEX
  5
22E1
  8
SAPA_PROFIL
 10
-23.000000000000231
 20
54.699999999998909
 30
0.0
  0
VERTEX
  5
22E2
  8
SAPA_PROFIL
 10
-23.000000000000231
 20
29.99999999999886
 30
0.0
 42
0.4142135623730951
  0
VERTEX
  5
22E3
  8
SAPA_PROFIL
 10
-22.000000000000231
 20
28.99999999999887
 30
0.0
  0
VERTEX
  5
22E4
  8
SAPA_PROFIL
 10
-17.600000000000129
 20
28.99999999999887
 30
0.0
 42
-0.4142135623730951
  0
VERTEX
  5
22E5
  8
SAPA_PROFIL
 10
-17.300000000000178
 20
28.699999999998909
 30
0.0
  0
VERTEX
  5
22E6
  8
SAPA_PROFIL
 10
-17.300000000000178
 20
26.399999999998961
 30
0.0
 42
-0.4142135623730951
  0
VERTEX
  5
22E7
  8
SAPA_PROFIL
 10
-17.600000000000129
 20
26.099999999999
 30
0.0
  0
VERTEX
  5
22E8
  8
SAPA_PROFIL
 10
-18.100000000000129
 20
26.099999999999
 30
0.0
 42
-0.4142135623730951
  0
VERTEX
  5
22E9
  8
SAPA_PROFIL
 10
-18.400000000000318
 20
26.399999999998961
 30
0.0
  0
VERTEX
  5
22EA
  8
SAPA_PROFIL
 10
-18.400000000000318
 20
26.736626924633359
 30
0.0
 42
0.5535245743249297
  0
VERTEX
  5
22EB
  8
SAPA_PROFIL
 10
-22.71055421153164
 20
24.96410760212348
 30
0.0
  0
VERTEX
  5
22EC
  8
SAPA_PROFIL
 10
-22.42322330470347
 20
24.67677669529553
 30
0.0
 42
-0.4142135623729421
  0
VERTEX
  5
22ED
  8
SAPA_PROFIL
 10
-22.42322330470347
 20
24.32322330470242
 30
0.0
  0
VERTEX
  5
22EE
  8
SAPA_PROFIL
 10
-22.71055421153164
 20
24.035892397874481
 30
0.0
 42
0.5535245743249292
  0
VERTEX
  5
22EF
  8
SAPA_PROFIL
 10
-18.400000000000318
 20
22.26337307536437
 30
0.0
  0
VERTEX
  5
22F0
  8
SAPA_PROFIL
 10
-18.400000000000318
 20
22.599999999999
 30
0.0
 42
-0.4142135623730951
  0
VERTEX
  5
22F1
  8
SAPA_PROFIL
 10
-18.100000000000129
 20
22.899999999998961
 30
0.0
  0
VERTEX
  5
22F2
  8
SAPA_PROFIL
 10
-17.600000000000129
 20
22.899999999998961
 30
0.0
 42
-0.4142135623730951
  0
VERTEX
  5
22F3
  8
SAPA_PROFIL
 10
-17.300000000000178
 20
22.599999999999
 30
0.0
  0
VERTEX
  5
22F4
  8
SAPA_PROFIL
 10
-17.300000000000178
 20
21.49999999999886
 30
0.0
 42
-0.4142135623730951
  0
VERTEX
  5
22F5
  8
SAPA_PROFIL
 10
-18.800000000000178
 20
19.99999999999886
 30
0.0
  0
VERTEX
  5
22F6
  8
SAPA_PROFIL
 10
-21.63397459621569
 20
19.99999999999886
 30
0.0
 42
-0.267949192431143
  0
VERTEX
  5
22F7
  8
SAPA_PROFIL
 10
-22.066987298107961
 20
20.24999999999886
 30
0.0
 42
0.767326987978956
  0
VERTEX
  5
22F8
  8
SAPA_PROFIL
 10
-23.000000000000231
 20
19.99999999999886
 30
0.0
  0
VERTEX
  5
22F9
  8
SAPA_PROFIL
 10
-23.000000000000231
 20
-15.00000000000113
 30
0.0
 42
0.4142135623730951
  0
VERTEX
  5
22FA
  8
SAPA_PROFIL
 10
-22.000000000000231
 20
-16.00000000000114
 30
0.0
  0
VERTEX
  5
22FB
  8
SAPA_PROFIL
 10
-17.600000000000129
 20
-16.00000000000114
 30
0.0
 42
-0.4142135623730951
  0
VERTEX
  5
22FC
  8
SAPA_PROFIL
 10
-17.300000000000178
 20
-16.300000000001091
 30
0.0
  0
VERTEX
  5
22FD
  8
SAPA_PROFIL
 10
-17.300000000000178
 20
-18.600000000001039
 30
0.0
 42
-0.4142135623730951
  0
VERTEX
  5
22FE
  8
SAPA_PROFIL
 10
-17.600000000000129
 20
-18.900000000001
 30
0.0
  0
VERTEX
  5
22FF
  8
SAPA_PROFIL
 10
-18.100000000000129
 20
-18.900000000001
 30
0.0
 42
-0.4142135623730951
  0
VERTEX
  5
2300
  8
SAPA_PROFIL
 10
-18.400000000000318
 20
-18.600000000001039
 30
0.0
  0
VERTEX
  5
2301
  8
SAPA_PROFIL
 10
-18.400000000000318
 20
-18.263373075366641
 30
0.0
 42
0.5535245743249297
  0
VERTEX
  5
2302
  8
SAPA_PROFIL
 10
-22.71055421153164
 20
-20.03589239787652
 30
0.0
  0
VERTEX
  5
2303
  8
SAPA_PROFIL
 10
-22.42322330470347
 20
-20.32322330470447
 30
0.0
 42
-0.4142135623730243
  0
VERTEX
  5
2304
  8
SAPA_PROFIL
 10
-22.423223304703701
 20
-20.67677669529758
 30
0.0
  0
VERTEX
  5
2305
  8
SAPA_PROFIL
 10
-22.71055421153164
 20
-20.96410760212553
 30
0.0
 42
0.5535245743249292
  0
VERTEX
  5
2306
  8
SAPA_PROFIL
 10
-18.400000000000318
 20
-22.73662692463563
 30
0.0
  0
VERTEX
  5
2307
  8
SAPA_PROFIL
 10
-18.400000000000318
 20
-22.400000000001
 30
0.0
 42
-0.4142135623730951
  0
VERTEX
  5
2308
  8
SAPA_PROFIL
 10
-18.100000000000129
 20
-22.100000000001049
 30
0.0
  0
VERTEX
  5
2309
  8
SAPA_PROFIL
 10
-17.600000000000129
 20
-22.100000000001049
 30
0.0
 42
-0.4142135623730951
  0
VERTEX
  5
230A
  8
SAPA_PROFIL
 10
-17.300000000000178
 20
-22.400000000001
 30
0.0
  0
VERTEX
  5
230B
  8
SAPA_PROFIL
 10
-17.300000000000178
 20
-23.50000000000114
 30
0.0
 42
-0.4142135623730951
  0
VERTEX
  5
230C
  8
SAPA_PROFIL
 10
-18.800000000000178
 20
-25.00000000000114
 30
0.0
  0
VERTEX
  5
230D
  8
SAPA_PROFIL
 10
-21.780384757729511
 20
-25.00000000000114
 30
0.0
 42
-0.2679491924311188
  0
VERTEX
  5
230E
  8
SAPA_PROFIL
 10
-22.040192378864958
 20
-24.850000000001049
 30
0.0
 42
0.7673269879789557
  0
VERTEX
  5
230F
  8
SAPA_PROFIL
 10
-22.600000000000129
 20
-25.00000000000114
 30
0.0
  0
VERTEX
  5
2310
  8
SAPA_PROFIL
 10
-22.599999999999909
 20
-27.00000000000114
 30
0.0
 42
0.4142137811865366
  0
VERTEX
  5
2311
  8
SAPA_PROFIL
 10
-21.600000747075459
 20
-28.00000000000114
 30
0.0
  0
VERTEX
  5
2312
  8
SAPA_PROFIL
 10
21.599999999999682
 20
-28.00000000000114
 30
0.0
 42
0.4142140000000124
  0
VERTEX
  5
2313
  8
SAPA_PROFIL
 10
22.599999999999682
 20
-27.00000000000114
 30
0.0
  0
VERTEX
  5
2314
  8
SAPA_PROFIL
 10
22.599999999999682
 20
-25.00000000000114
 30
0.0
 42
0.7673269879789457
  0
VERTEX
  5
2315
  8
SAPA_PROFIL
 10
22.0401923788645
 20
-24.850000000001049
 30
0.0
 42
-0.2679491924311191
  0
VERTEX
  5
2316
  8
SAPA_PROFIL
 10
21.780384757729049
 20
-25.00000000000114
 30
0.0
  0
VERTEX
  5
2317
  8
SAPA_PROFIL
 10
18.799999999999731
 20
-25.00000000000114
 30
0.0
 42
-0.4142135623730951
  0
VERTEX
  5
2318
  8
SAPA_PROFIL
 10
17.299999999999731
 20
-23.50000000000114
 30
0.0
  0
VERTEX
  5
2319
  8
SAPA_PROFIL
 10
17.299999999999731
 20
-22.400000000001
 30
0.0
 42
-0.4142135623730951
  0
VERTEX
  5
231A
  8
SAPA_PROFIL
 10
17.599999999999682
 20
-22.100000000001049
 30
0.0
  0
VERTEX
  5
231B
  8
SAPA_PROFIL
 10
18.099999999999682
 20
-22.100000000001049
 30
0.0
 42
-0.4142135623730951
  0
VERTEX
  5
231C
  8
SAPA_PROFIL
 10
18.39999999999986
 20
-22.400000000001
 30
0.0
  0
VERTEX
  5
231D
  8
SAPA_PROFIL
 10
18.39999999999986
 20
-22.73662692463563
 30
0.0
 42
0.5535245743249307
  0
VERTEX
  5
231E
  8
SAPA_PROFIL
 10
22.710554211531189
 20
-20.96410760212553
 30
0.0
  0
VERTEX
  5
231F
  8
SAPA_PROFIL
 10
22.423223304703239
 20
-20.67677669529758
 30
0.0
 42
-0.4142135623730951
  0
VERTEX
  5
2320
  8
SAPA_PROFIL
 10
22.423223304703239
 20
-20.32322330470447
 30
0.0
  0
VERTEX
  5
2321
  8
SAPA_PROFIL
 10
22.710554211531189
 20
-20.03589239787652
 30
0.0
 42
0.553524574324932
  0
VERTEX
  5
2322
  8
SAPA_PROFIL
 10
18.39999999999986
 20
-18.263373075366641
 30
0.0
  0
VERTEX
  5
2323
  8
SAPA_PROFIL
 10
18.39999999999986
 20
-18.600000000001039
 30
0.0
 42
-0.4142135623730951
  0
VERTEX
  5
2324
  8
SAPA_PROFIL
 10
18.099999999999682
 20
-18.900000000001
 30
0.0
  0
VERTEX
  5
2325
  8
SAPA_PROFIL
 10
17.599999999999682
 20
-18.900000000001
 30
0.0
 42
-0.4142135623730951
  0
VERTEX
  5
2326
  8
SAPA_PROFIL
 10
17.299999999999731
 20
-18.600000000001039
 30
0.0
  0
VERTEX
  5
2327
  8
SAPA_PROFIL
 10
17.299999999999731
 20
-16.300000000001091
 30
0.0
 42
-0.4142135623730951
  0
VERTEX
  5
2328
  8
SAPA_PROFIL
 10
17.599999999999682
 20
-16.00000000000114
 30
0.0
  0
VERTEX
  5
2329
  8
SAPA_PROFIL
 10
21.999999999999769
 20
-16.00000000000114
 30
0.0
 42
0.4142135623730951
  0
VERTEX
  5
232A
  8
SAPA_PROFIL
 10
22.999999999999769
 20
-15.00000000000113
 30
0.0
  0
VERTEX
  5
232B
  8
SAPA_PROFIL
 10
22.999999999999769
 20
19.99999999999886
 30
0.0
 42
0.7673269879789569
  0
VERTEX
  5
232C
  8
SAPA_PROFIL
 10
22.066987298107509
 20
20.24999999999886
 30
0.0
 42
-0.2679491924311163
  0
VERTEX
  5
232D
  8
SAPA_PROFIL
 10
21.633974596215239
 20
19.99999999999886
 30
0.0
  0
VERTEX
  5
232E
  8
SAPA_PROFIL
 10
18.799999999999731
 20
19.99999999999886
 30
0.0
 42
-0.4142135623730951
  0
VERTEX
  5
232F
  8
SAPA_PROFIL
 10
17.299999999999731
 20
21.49999999999886
 30
0.0
  0
VERTEX
  5
2330
  8
SAPA_PROFIL
 10
17.299999999999731
 20
22.599999999999
 30
0.0
 42
-0.4142135623730951
  0
VERTEX
  5
2331
  8
SAPA_PROFIL
 10
17.599999999999682
 20
22.899999999998961
 30
0.0
  0
VERTEX
  5
2332
  8
SAPA_PROFIL
 10
18.099999999999682
 20
22.899999999998961
 30
0.0
 42
-0.4142135623730951
  0
VERTEX
  5
2333
  8
SAPA_PROFIL
 10
18.39999999999986
 20
22.599999999999
 30
0.0
  0
VERTEX
  5
2334
  8
SAPA_PROFIL
 10
18.39999999999986
 20
22.26337307536437
 30
0.0
 42
0.5535245743249307
  0
VERTEX
  5
2335
  8
SAPA_PROFIL
 10
22.710554211531189
 20
24.035892397874481
 30
0.0
  0
VERTEX
  5
2336
  8
SAPA_PROFIL
 10
22.423223304703239
 20
24.32322330470242
 30
0.0
 42
-0.4142135623731068
  0
VERTEX
  5
2337
  8
SAPA_PROFIL
 10
22.423223304703011
 20
24.67677669529553
 30
0.0
  0
VERTEX
  5
2338
  8
SAPA_PROFIL
 10
22.710554211531189
 20
24.96410760212348
 30
0.0
 42
0.553524574324932
  0
VERTEX
  5
2339
  8
SAPA_PROFIL
 10
18.39999999999986
 20
26.736626924633359
 30
0.0
  0
VERTEX
  5
233A
  8
SAPA_PROFIL
 10
18.39999999999986
 20
26.399999999998961
 30
0.0
 42
-0.4142135623730951
  0
VERTEX
  5
233B
  8
SAPA_PROFIL
 10
18.099999999999682
 20
26.099999999999
 30
0.0
  0
VERTEX
  5
233C
  8
SAPA_PROFIL
 10
17.599999999999682
 20
26.099999999999
 30
0.0
 42
-0.4142135623730951
  0
VERTEX
  5
233D
  8
SAPA_PROFIL
 10
17.299999999999731
 20
26.399999999998961
 30
0.0
  0
VERTEX
  5
233E
  8
SAPA_PROFIL
 10
17.299999999999731
 20
28.699999999998909
 30
0.0
 42
-0.4142135623730951
  0
VERTEX
  5
233F
  8
SAPA_PROFIL
 10
17.599999999999682
 20
28.99999999999887
 30
0.0
  0
VERTEX
  5
2340
  8
SAPA_PROFIL
 10
21.999999999999769
 20
28.99999999999887
 30
0.0
 42
0.4142135623730951
  0
VERTEX
  5
2341
  8
SAPA_PROFIL
 10
22.999999999999769
 20
29.99999999999886
 30
0.0
  0
VERTEX
  5
2342
  8
SAPA_PROFIL
 10
22.999999999999769
 20
54.699999999998909
 30
0.0
 42
0.4142135623730951
  0
VERTEX
  5
2343
  8
SAPA_PROFIL
 10
22.699999999999822
 20
54.999999999998863
 30
0.0
  0
VERTEX
  5
2344
  8
SAPA_PROFIL
 10
21.39999999999986
 20
54.999999999998863
 30
0.0
 42
-0.4142135623730951
  0
VERTEX
  5
2345
  8
SAPA_PROFIL
 10
21.099999999999682
 20
55.299999999999052
 30
0.0
  0
VERTEX
  5
2346
  8
SAPA_PROFIL
 10
21.099999999999682
 20
55.875735931286947
 30
0.0
 42
-0.1989123673796752
  0
VERTEX
  5
2347
  8
SAPA_PROFIL
 10
21.187867965643822
 20
56.087867965642999
 30
0.0
  0
VERTEX
  5
2348
  8
SAPA_PROFIL
 10
22.91213203435586
 20
57.812132034355052
 30
0.0
 42
0.1989123673796057
  0
VERTEX
  5
2349
  8
SAPA_PROFIL
 10
22.999999999999769
 20
58.024264068710863
 30
0.0
  0
VERTEX
  5
234A
  8
SAPA_PROFIL
 10
22.999999999999769
 20
61.499999999998863
 30
0.0
 42
0.4142135623730951
  0
VERTEX
  5
234B
  8
SAPA_PROFIL
 10
21.999999999999769
 20
62.499999999998863
 30
0.0
  0
VERTEX
  5
234C
  8
SAPA_PROFIL
 10
-22.000000000000231
 20
62.499999999998863
 30
0.0
 42
0.4142135623730951
  0
VERTEX
  5
234D
  8
SAPA_PROFIL
 10
-23.000000000000231
 20
61.499999999998863
 30
0.0
  0
SEQEND
  5
234E
  8
SAPA_PROFIL
  0
POLYLINE
  5
1538
  8
SAPA_PROFIL
 66
     1
 10
0.0
 20
0.0
 30
0.0
 70
     1
  0
VERTEX
  5
234F
  8
SAPA_PROFIL
 10
-6.0000000000002274
 20
-30.00000000000114
 30
0.0
 42
-0.4142135623730951
  0
VERTEX
  5
2350
  8
SAPA_PROFIL
 10
-5.0000000000002274
 20
-31.00000000000114
 30
0.0
  0
VERTEX
  5
2351
  8
SAPA_PROFIL
 10
-5.0000000000002274
 20
-52.200000000000948
 30
0.0
 42
0.4142135623730951
  0
VERTEX
  5
2352
  8
SAPA_PROFIL
 10
-4.700000000000272
 20
-52.50000000000113
 30
0.0
  0
VERTEX
  5
2353
  8
SAPA_PROFIL
 10
-3.0757360000002332
 20
-52.50000000000113
 30
0.0
  0
VERTEX
  5
2354
  8
SAPA_PROFIL
 10
-2.2378679656442269
 20
-51.562132034356871
 30
0.0
 42
0.668178637919305
  0
VERTEX
  5
2355
  8
SAPA_PROFIL
 10
-2.450000000000272
 20
-51.050000000001091
 30
0.0
  0
VERTEX
  5
2356
  8
SAPA_PROFIL
 10
-2.700000000000272
 20
-51.050000000001091
 30
0.0
  0
VERTEX
  5
2357
  8
SAPA_PROFIL
 10
-2.1767196966982278
 20
-49.673765406424756
 30
0.0
 42
0.5450207798987201
  0
VERTEX
  5
2358
  8
SAPA_PROFIL
 10
-2.450000000000272
 20
-49.250000000001137
 30
0.0
  0
VERTEX
  5
2359
  8
SAPA_PROFIL
 10
-2.700000000000272
 20
-49.250000000001137
 30
0.0
  0
VERTEX
  5
235A
  8
SAPA_PROFIL
 10
-2.1767196966982278
 20
-47.873765406424567
 30
0.0
 42
0.5450207798987201
  0
VERTEX
  5
235B
  8
SAPA_PROFIL
 10
-2.450000000000272
 20
-47.450000000000962
 30
0.0
  0
VERTEX
  5
235C
  8
SAPA_PROFIL
 10
-2.700000000000272
 20
-47.450000000000962
 30
0.0
  0
VERTEX
  5
235D
  8
SAPA_PROFIL
 10
-2.1767196966982278
 20
-46.07376540642462
 30
0.0
 42
0.5450207798987342
  0
VERTEX
  5
235E
  8
SAPA_PROFIL
 10
-2.450000000000272
 20
-45.650000000000993
 30
0.0
  0
VERTEX
  5
235F
  8
SAPA_PROFIL
 10
-2.700000000000272
 20
-45.650000000000993
 30
0.0
  0
VERTEX
  5
2360
  8
SAPA_PROFIL
 10
-2.1767196966982278
 20
-44.273765406424673
 30
0.0
 42
0.5450207798987201
  0
VERTEX
  5
2361
  8
SAPA_PROFIL
 10
-2.450000000000272
 20
-43.850000000001039
 30
0.0
  0
VERTEX
  5
2362
  8
SAPA_PROFIL
 10
-2.700000000000272
 20
-43.850000000001039
 30
0.0
  0
VERTEX
  5
2363
  8
SAPA_PROFIL
 10
-2.4722372826161059
 20
-43.126282705194853
 30
0.0
 42
-0.2945484962563026
  0
VERTEX
  5
2364
  8
SAPA_PROFIL
 10
-2.1988824689378812
 20
-42.950048040246656
 30
0.0
  0
VERTEX
  5
2365
  8
SAPA_PROFIL
 10
-1.2642999377483191
 20
-42.950255222213173
 30
0.0
 42
0.3475954753796591
  0
VERTEX
  5
2366
  8
SAPA_PROFIL
 10
-0.9723265106783856
 20
-42.719501178044077
 30
0.0
 42
-0.790522909611319
  0
VERTEX
  5
2367
  8
SAPA_PROFIL
 10
0.973664089865224
 20
-42.71949097360357
 30
0.0
 42
0.3476065658631364
  0
VERTEX
  5
2368
  8
SAPA_PROFIL
 10
1.2656518108867649
 20
-42.950241952335773
 30
0.0
  0
VERTEX
  5
2369
  8
SAPA_PROFIL
 10
1.8499926620931999
 20
-42.950095231626847
 30
0.0
 42
-0.4102317530969976
  0
VERTEX
  5
236A
  8
SAPA_PROFIL
 10
2.1500282985855388
 20
-43.245946879780369
 30
0.0
 42
0.0712587206050384
  0
VERTEX
  5
236B
  8
SAPA_PROFIL
 10
2.1632556124550311
 20
-43.329990804708579
 30
0.0
  0
VERTEX
  5
236C
  8
SAPA_PROFIL
 10
2.6999999999998181
 20
-44.750000000001137
 30
0.0
  0
VERTEX
  5
236D
  8
SAPA_PROFIL
 10
2.4499999999998181
 20
-44.750000000001137
 30
0.0
 42
0.5450200690651619
  0
VERTEX
  5
236E
  8
SAPA_PROFIL
 10
2.17671899999982
 20
-45.173765000001133
 30
0.0
  0
VERTEX
  5
236F
  8
SAPA_PROFIL
 10
2.6999999999998181
 20
-46.550000000001091
 30
0.0
  0
VERTEX
  5
2370
  8
SAPA_PROFIL
 10
2.4499999999998181
 20
-46.550000000000857
 30
0.0
 42
0.545020069065176
  0
VERTEX
  5
2371
  8
SAPA_PROFIL
 10
2.17671899999982
 20
-46.973765000001087
 30
0.0
  0
VERTEX
  5
2372
  8
SAPA_PROFIL
 10
2.6999999999998181
 20
-48.350000000001039
 30
0.0
  0
VERTEX
  5
2373
  8
SAPA_PROFIL
 10
2.4499999999998181
 20
-48.350000000001039
 30
0.0
 42
0.5450200690651692
  0
VERTEX
  5
2374
  8
SAPA_PROFIL
 10
2.17671899999982
 20
-48.773765000001049
 30
0.0
  0
VERTEX
  5
2375
  8
SAPA_PROFIL
 10
2.6999999999998181
 20
-50.150000000001
 30
0.0
  0
VERTEX
  5
2376
  8
SAPA_PROFIL
 10
2.1499999999998631
 20
-50.150000000001
 30
0.0
  0
VERTEX
  5
2377
  8
SAPA_PROFIL
 10
2.1499999999998631
 20
-51.350000000001039
 30
0.0
 42
0.1989123673797004
  0
VERTEX
  5
2378
  8
SAPA_PROFIL
 10
2.2378679999997071
 20
-51.562132000001156
 30
0.0
  0
VERTEX
  5
2379
  8
SAPA_PROFIL
 10
3.075735999999778
 20
-52.50000000000113
 30
0.0
  0
VERTEX
  5
237A
  8
SAPA_PROFIL
 10
4.6999999999998181
 20
-52.50000000000113
 30
0.0
 42
0.4142135623730951
  0
VERTEX
  5
237B
  8
SAPA_PROFIL
 10
4.9999999999997717
 20
-52.200000000000948
 30
0.0
  0
VERTEX
  5
237C
  8
SAPA_PROFIL
 10
4.9999999999997717
 20
-31.00000000000114
 30
0.0
 42
-0.4142135623730951
  0
VERTEX
  5
237D
  8
SAPA_PROFIL
 10
5.9999999999997717
 20
-30.00000000000114
 30
0.0
  0
VERTEX
  5
237E
  8
SAPA_PROFIL
 10
14.19999999999982
 20
-30.00000000000114
 30
0.0
 42
-0.4142135623730951
  0
VERTEX
  5
237F
  8
SAPA_PROFIL
 10
14.69999999999982
 20
-30.50000000000114
 30
0.0
  0
VERTEX
  5
2380
  8
SAPA_PROFIL
 10
14.69999999999982
 20
-33.700000000000962
 30
0.0
 42
-0.4142135623730951
  0
VERTEX
  5
2381
  8
SAPA_PROFIL
 10
14.19999999999982
 20
-34.200000000000962
 30
0.0
  0
VERTEX
  5
2382
  8
SAPA_PROFIL
 10
11.299999999999731
 20
-34.200000000000962
 30
0.0
 42
0.4142135623730951
  0
VERTEX
  5
2383
  8
SAPA_PROFIL
 10
10.999999999999771
 20
-34.500000000001137
 30
0.0
  0
VERTEX
  5
2384
  8
SAPA_PROFIL
 10
10.999999999999771
 20
-35.200000000000948
 30
0.0
 42
0.4142135623730951
  0
VERTEX
  5
2385
  8
SAPA_PROFIL
 10
11.299999999999731
 20
-35.500000000001137
 30
0.0
  0
VERTEX
  5
2386
  8
SAPA_PROFIL
 10
17.999999999999769
 20
-35.500000000001137
 30
0.0
  0
VERTEX
  5
2387
  8
SAPA_PROFIL
 10
18.586384015500471
 20
-35.035076580641999
 30
0.0
 42
0.7105995019814511
  0
VERTEX
  5
2388
  8
SAPA_PROFIL
 10
18.39999999999986
 20
-34.500000000001137
 30
0.0
  0
VERTEX
  5
2389
  8
SAPA_PROFIL
 10
16.499999999999769
 20
-34.500000000001137
 30
0.0
 42
-0.4142135623730951
  0
VERTEX
  5
238A
  8
SAPA_PROFIL
 10
16.199999999999822
 20
-34.200000000000962
 30
0.0
  0
VERTEX
  5
238B
  8
SAPA_PROFIL
 10
16.199999999999822
 20
-30.300000000001091
 30
0.0
 42
-0.4142135623730951
  0
VERTEX
  5
238C
  8
SAPA_PROFIL
 10
16.499999999999769
 20
-30.00000000000114
 30
0.0
  0
VERTEX
  5
238D
  8
SAPA_PROFIL
 10
23.199999999999822
 20
-30.00000000000114
 30
0.0
 42
-0.4142135623730951
  0
VERTEX
  5
238E
  8
SAPA_PROFIL
 10
23.499999999999769
 20
-30.300000000001091
 30
0.0
  0
VERTEX
  5
238F
  8
SAPA_PROFIL
 10
23.499999999999769
 20
-34.200000000000962
 30
0.0
 42
-0.4142135623730951
  0
VERTEX
  5
2390
  8
SAPA_PROFIL
 10
23.199999999999822
 20
-34.500000000001137
 30
0.0
  0
VERTEX
  5
2391
  8
SAPA_PROFIL
 10
21.999999999999769
 20
-34.500000000001137
 30
0.0
 42
0.7105990647993611
  0
VERTEX
  5
2392
  8
SAPA_PROFIL
 10
21.81361599999968
 20
-35.035076000001027
 30
0.0
  0
VERTEX
  5
2393
  8
SAPA_PROFIL
 10
22.39999999999986
 20
-35.500000000001137
 30
0.0
  0
VERTEX
  5
2394
  8
SAPA_PROFIL
 10
24.699999999999822
 20
-35.500000000001137
 30
0.0
 42
0.4142135623730951
  0
VERTEX
  5
2395
  8
SAPA_PROFIL
 10
24.999999999999769
 20
-35.200000000000948
 30
0.0
  0
VERTEX
  5
2396
  8
SAPA_PROFIL
 10
24.999999999999769
 20
63.999999999998863
 30
0.0
 42
0.4142135623730951
  0
VERTEX
  5
2397
  8
SAPA_PROFIL
 10
24.499999999999769
 20
64.499999999998863
 30
0.0
  0
VERTEX
  5
2398
  8
SAPA_PROFIL
 10
-24.500000000000231
 20
64.499999999998863
 30
0.0
 42
0.4142135623730951
  0
VERTEX
  5
2399
  8
SAPA_PROFIL
 10
-25.000000000000231
 20
63.999999999998863
 30
0.0
  0
VERTEX
  5
239A
  8
SAPA_PROFIL
 10
-25.000000000000231
 20
-35.200000000000948
 30
0.0
 42
0.4142135623730951
  0
VERTEX
  5
239B
  8
SAPA_PROFIL
 10
-24.700000000000269
 20
-35.500000000001137
 30
0.0
  0
VERTEX
  5
239C
  8
SAPA_PROFIL
 10
-22.400000000000318
 20
-35.500000000001137
 30
0.0
  0
VERTEX
  5
239D
  8
SAPA_PROFIL
 10
-21.81361598449962
 20
-35.035076580641999
 30
0.0
 42
0.7105995019814511
  0
VERTEX
  5
239E
  8
SAPA_PROFIL
 10
-22.000000000000231
 20
-34.500000000001137
 30
0.0
  0
VERTEX
  5
239F
  8
SAPA_PROFIL
 10
-23.200000000000269
 20
-34.500000000001137
 30
0.0
 42
-0.4142135623730951
  0
VERTEX
  5
23A0
  8
SAPA_PROFIL
 10
-23.500000000000231
 20
-34.200000000000962
 30
0.0
  0
VERTEX
  5
23A1
  8
SAPA_PROFIL
 10
-23.500000000000231
 20
-30.300000000001091
 30
0.0
 42
-0.4142135623730951
  0
VERTEX
  5
23A2
  8
SAPA_PROFIL
 10
-23.200000000000269
 20
-30.00000000000114
 30
0.0
  0
VERTEX
  5
23A3
  8
SAPA_PROFIL
 10
-16.500000000000231
 20
-30.00000000000114
 30
0.0
 42
-0.4142135623730951
  0
VERTEX
  5
23A4
  8
SAPA_PROFIL
 10
-16.200000000000269
 20
-30.300000000001091
 30
0.0
  0
VERTEX
  5
23A5
  8
SAPA_PROFIL
 10
-16.200000000000269
 20
-34.200000000000962
 30
0.0
 42
-0.4142135623730951
  0
VERTEX
  5
23A6
  8
SAPA_PROFIL
 10
-16.500000000000231
 20
-34.500000000001137
 30
0.0
  0
VERTEX
  5
23A7
  8
SAPA_PROFIL
 10
-18.400000000000318
 20
-34.500000000001137
 30
0.0
 42
0.7105995019814511
  0
VERTEX
  5
23A8
  8
SAPA_PROFIL
 10
-18.586384015500919
 20
-35.035076580641999
 30
0.0
  0
VERTEX
  5
23A9
  8
SAPA_PROFIL
 10
-18.000000000000231
 20
-35.500000000001137
 30
0.0
  0
VERTEX
  5
23AA
  8
SAPA_PROFIL
 10
-11.30000000000018
 20
-35.500000000001137
 30
0.0
 42
0.4142135623730951
  0
VERTEX
  5
23AB
  8
SAPA_PROFIL
 10
-11.00000000000022
 20
-35.200000000000948
 30
0.0
  0
VERTEX
  5
23AC
  8
SAPA_PROFIL
 10
-11.00000000000022
 20
-34.500000000001137
 30
0.0
 42
0.4142135623730951
  0
VERTEX
  5
23AD
  8
SAPA_PROFIL
 10
-11.30000000000018
 20
-34.200000000000962
 30
0.0
  0
VERTEX
  5
23AE
  8
SAPA_PROFIL
 10
-14.200000000000269
 20
-34.200000000000962
 30
0.0
 42
-0.4142135623730951
  0
VERTEX
  5
23AF
  8
SAPA_PROFIL
 10
-14.700000000000269
 20
-33.700000000000962
 30
0.0
  0
VERTEX
  5
23B0
  8
SAPA_PROFIL
 10
-14.700000000000269
 20
-30.50000000000114
 30
0.0
 42
-0.4142135623730951
  0
VERTEX
  5
23B1
  8
SAPA_PROFIL
 10
-14.200000000000269
 20
-30.00000000000114
 30
0.0
  0
SEQEND
  5
23B2
  8
SAPA_PROFIL
  0
POLYLINE
  5
1579
  8
SAPA_GLAS
 66
     1
 10
0.0
 20
0.0
 30
0.0
  0
VERTEX
  5
23D1
  8
SAPA_GLAS
 10
-75.585729413463582
 20
-82.500000000001151
 30
0.0
  0
VERTEX
  5
23D2
  8
SAPA_GLAS
 10
-11.064103078362329
 20
-82.500000000001606
 30
0.0
  0
VERTEX
  5
23D3
  8
SAPA_GLAS
 10
-11.064103078362329
 20
-90.500000000001606
 30
0.0
  0
VERTEX
  5
23D4
  8
SAPA_GLAS
 10
-75.585729413463582
 20
-90.500000000001606
 30
0.0
  0
SEQEND
  5
23D5
  8
SAPA_GLAS
  0
POLYLINE
  5
157A
  8
SAPA_GLAS
 66
     1
 10
0.0
 20
0.0
 30
0.0
 70
     1
  0
VERTEX
  5
23D6
  8
SAPA_GLAS
 10
118.49537581359679
 20
-74.663511128413035
 30
0.0
  0
VERTEX
  5
23D7
  8
SAPA_GLAS
 10
118.49537581359679
 20
-59.663511128413042
 30
0.0
  0
VERTEX
  5
23D8
  8
SAPA_GLAS
 10
108.49537581359679
 20
-59.663511128413042
 30
0.0
  0
VERTEX
  5
23D9
  8
SAPA_GLAS
 10
108.49537581359679
 20
-74.663511128413035
 30
0.0
  0
SEQEND
  5
23DA
  8
SAPA_GLAS
  0
POLYLINE
  5
157B
  8
SAPA_GLAS
 66
     1
 10
0.0
 20
0.0
 30
0.0
 70
     1
  0
VERTEX
  5
23DB
  8
SAPA_GLAS
 10
118.4953758135967
 20
-55.663511128413042
 30
0.0
  0
VERTEX
  5
23DC
  8
SAPA_GLAS
 10
118.4953758135967
 20
-40.663511128413042
 30
0.0
  0
VERTEX
  5
23DD
  8
SAPA_GLAS
 10
108.4953758135967
 20
-40.663511128413042
 30
0.0
  0
VERTEX
  5
23DE
  8
SAPA_GLAS
 10
108.49537581359679
 20
-55.663511128413042
 30
0.0
  0
SEQEND
  5
23DF
  8
SAPA_GLAS
  0
POLYLINE
  5
157C
  8
SAPA_GLAS
 66
     1
 10
0.0
 20
0.0
 30
0.0
  0
VERTEX
  5
23E0
  8
SAPA_GLAS
 10
138.49537581359661
 20
-55.663511128413042
 30
0.0
  0
VERTEX
  5
23E1
  8
SAPA_GLAS
 10
108.4953758135966
 20
-55.663511128413042
 30
0.0
  0
VERTEX
  5
23E2
  8
SAPA_GLAS
 10
108.4953758135966
 20
-59.663511128413042
 30
0.0
  0
VERTEX
  5
23E3
  8
SAPA_GLAS
 10
138.49537581359661
 20
-59.663511128413049
 30
0.0
  0
SEQEND
  5
23E4
  8
SAPA_GLAS
  0
POLYLINE
  5
157D
  8
SAPA_GLAS
 66
     1
 10
0.0
 20
0.0
 30
0.0
  0
VERTEX
  5
23E5
  8
SAPA_GLAS
 10
138.4953758135965
 20
-34.663511128413042
 30
0.0
  0
VERTEX
  5
23E6
  8
SAPA_GLAS
 10
108.4953758135965
 20
-34.663511128413042
 30
0.0
  0
VERTEX
  5
23E7
  8
SAPA_GLAS
 10
108.4953758135965
 20
-40.663511128413042
 30
0.0
  0
VERTEX
  5
23E8
  8
SAPA_GLAS
 10
138.4953758135965
 20
-40.663511128413063
 30
0.0
  0
SEQEND
  5
23E9
  8
SAPA_GLAS
  0
POLYLINE
  5
157E
  8
SAPA_GLAS
 66
     1
 10
0.0
 20
0.0
 30
0.0
  0
VERTEX
  5
23EA
  8
SAPA_GLAS
 10
138.4953758135965
 20
-80.663511128413035
 30
0.0
  0
VERTEX
  5
23EB
  8
SAPA_GLAS
 10
108.4953758135965
 20
-80.663511128413035
 30
0.0
  0
VERTEX
  5
23EC
  8
SAPA_GLAS
 10
108.4953758135965
 20
-74.663511128413035
 30
0.0
  0
VERTEX
  5
23ED
  8
SAPA_GLAS
 10
138.4953758135965
 20
-74.663511128413035
 30
0.0
  0
SEQEND
  5
23EE
  8
SAPA_GLAS
  0
POLYLINE
  5
1586
  8
SAPA_FYLLNING
 66
     1
 10
0.0
 20
0.0
 30
0.0
  0
VERTEX
  5
23F9
  8
SAPA_FYLLNING
 10
-75.522594355138153
 20
-35.500000000001137
 30
0.0
  0
VERTEX
  5
23FA
  8
SAPA_FYLLNING
 10
-14.035114272656751
 20
-35.500000000001137
 30
0.0
  0
VERTEX
  5
23FB
  8
SAPA_FYLLNING
 10
-14.035114272656751
 20
-43.500000000001137
 30
0.0
  0
VERTEX
  5
23FC
  8
SAPA_FYLLNING
 10
-75.522594355138153
 20
-43.500000000001137
 30
0.0
  0
SEQEND
  5
23FD
  8
SAPA_FYLLNING
  0
LINE
  5
1587
  8
SAPA_FYLLNING
 10
-26.0
 20
52.499999999998749
 30
0.0
 11
-75.0
 21
52.499999999998693
 31
0.0
  0
POLYLINE
  5
1588
  8
SAPA_FYLLNING
 66
     1
 10
0.0
 20
0.0
 30
0.0
  0
VERTEX
  5
23FE
  8
SAPA_FYLLNING
 10
-75.0
 20
50.999999999998693
 30
0.0
  0
VERTEX
  5
23FF
  8
SAPA_FYLLNING
 10
-26.0
 20
50.999999999998693
 30
0.0
  0
VERTEX
  5
2400
  8
SAPA_FYLLNING
 10
-26.000000000000011
 20
62.499999999998749
 30
0.0
  0
VERTEX
  5
2401
  8
SAPA_FYLLNING
 10
-75.0
 20
62.499999999998749
 30
0.0
  0
SEQEND
  5
2402
  8
SAPA_FYLLNING
  0
LINE
  5
159D
  8
SAPA_ISOLATOR
 10
24.999999631037181
 20
-16.892423879848572
 30
0.0
 11
30.99462339822011
 21
-16.892423879848572
 31
0.0
  0
LINE
  5
159E
  8
SAPA_ISOLATOR
 10
24.999999631037181
 20
-45.03802827347257
 30
0.0
 11
24.999999631037181
 21
-16.892423879848572
 31
0.0
  0
LINE
  5
159F
  8
SAPA_ISOLATOR
 10
30.994623398221929
 20
-45.03802827347257
 30
0.0
 11
24.999999631037181
 21
-45.03802827347257
 31
0.0
  0
LINE
  5
15A0
  8
SAPA_ISOLATOR
 10
30.999999631037181
 20
-16.892423879848572
 30
0.0
 11
30.994623398221929
 21
-45.03802827347257
 31
0.0
  0
POLYLINE
  5
15A1
  8
SAPA_ISOLATOR
 66
     1
 10
0.0
 20
0.0
 30
0.0
 70
     1
  0
VERTEX
  5
247B
  8
SAPA_ISOLATOR
 10
8.8339473861456081
 20
-55.235078053681598
 30
0.0
 42
0.2133140774071598
  0
VERTEX
  5
247C
  8
SAPA_ISOLATOR
 10
9.5000000000001137
 20
-53.744915521943653
 30
0.0
  0
VERTEX
  5
247D
  8
SAPA_ISOLATOR
 10
9.5000000000001137
 20
-53.573058613284729
 30
0.0
 42
-0.9999999999999998
  0
VERTEX
  5
247E
  8
SAPA_ISOLATOR
 10
10.00000000000011
 20
-53.573058613284729
 30
0.0
  0
VERTEX
  5
247F
  8
SAPA_ISOLATOR
 10
10.00000000000011
 20
-54.532183152571292
 30
0.0
 42
-0.2072397715914422
  0
VERTEX
  5
2480
  8
SAPA_ISOLATOR
 10
9.2103209337028602
 20
-56.355587195491701
 30
0.0
 42
-0.1421101772925093
  0
VERTEX
  5
2481
  8
SAPA_ISOLATOR
 10
5.0000000000001128
 20
-58.499999999010129
 30
0.0
  0
VERTEX
  5
2482
  8
SAPA_ISOLATOR
 10
5.0000000000001128
 20
-56.687834754465143
 30
0.0
 42
0.1860725815673001
  0
SEQEND
  5
2483
  8
SAPA_ISOLATOR
  0
POLYLINE
  5
15A2
  8
SAPA_ISOLATOR
 66
     1
 10
0.0
 20
0.0
 30
0.0
 70
     1
  0
VERTEX
  5
2484
  8
SAPA_ISOLATOR
 10
-8.8339473861456081
 20
-55.235078053681598
 30
0.0
 42
-0.2133140774071598
  0
VERTEX
  5
2485
  8
SAPA_ISOLATOR
 10
-9.5
 20
-53.744915521943653
 30
0.0
  0
VERTEX
  5
2486
  8
SAPA_ISOLATOR
 10
-9.5
 20
-53.573058613284729
 30
0.0
 42
0.9999999999999998
  0
VERTEX
  5
2487
  8
SAPA_ISOLATOR
 10
-10.0
 20
-53.573058613284729
 30
0.0
  0
VERTEX
  5
2488
  8
SAPA_ISOLATOR
 10
-10.0
 20
-54.532183152571292
 30
0.0
 42
0.2072397715914422
  0
VERTEX
  5
2489
  8
SAPA_ISOLATOR
 10
-9.2103209337027465
 20
-56.355587195491701
 30
0.0
 42
0.1421101772925093
  0
VERTEX
  5
248A
  8
SAPA_ISOLATOR
 10
-5.0
 20
-58.499999999010129
 30
0.0
  0
VERTEX
  5
248B
  8
SAPA_ISOLATOR
 10
-5.0
 20
-56.687834754465143
 30
0.0
 42
-0.1860725815673001
  0
SEQEND
  5
248C
  8
SAPA_ISOLATOR
  0
POLYLINE
  5
15A3
  8
SAPA_ISOLATOR
 66
     1
 10
0.0
 20
0.0
 30
0.0
 70
     1
  0
VERTEX
  5
248D
  8
SAPA_ISOLATOR
 10
-8.8339473861456081
 20
-70.235078053681605
 30
0.0
 42
-0.2133140774071598
  0
VERTEX
  5
248E
  8
SAPA_ISOLATOR
 10
-9.5
 20
-68.744915521943653
 30
0.0
  0
VERTEX
  5
248F
  8
SAPA_ISOLATOR
 10
-9.5
 20
-68.573058613284729
 30
0.0
 42
0.9999999999999998
  0
VERTEX
  5
2490
  8
SAPA_ISOLATOR
 10
-10.0
 20
-68.573058613284729
 30
0.0
  0
VERTEX
  5
2491
  8
SAPA_ISOLATOR
 10
-10.0
 20
-69.532183152571292
 30
0.0
 42
0.2072397715914422
  0
VERTEX
  5
2492
  8
SAPA_ISOLATOR
 10
-9.2103209337027465
 20
-71.355587195491694
 30
0.0
 42
0.1421101772925093
  0
VERTEX
  5
2493
  8
SAPA_ISOLATOR
 10
-5.0
 20
-73.499999999010129
 30
0.0
  0
VERTEX
  5
2494
  8
SAPA_ISOLATOR
 10
-5.0
 20
-71.687834754465143
 30
0.0
 42
-0.1860725815673001
  0
SEQEND
  5
2495
  8
SAPA_ISOLATOR
  0
POLYLINE
  5
15A4
  8
SAPA_ISOLATOR
 66
     1
 10
0.0
 20
0.0
 30
0.0
 70
     1
  0
VERTEX
  5
2496
  8
SAPA_ISOLATOR
 10
-8.8339473861454962
 20
-84.235078053681164
 30
0.0
 42
-0.2133140774071598
  0
VERTEX
  5
2497
  8
SAPA_ISOLATOR
 10
-9.5
 20
-82.744915521943184
 30
0.0
  0
VERTEX
  5
2498
  8
SAPA_ISOLATOR
 10
-9.5
 20
-82.573058613284275
 30
0.0
 42
0.9999999999999998
  0
VERTEX
  5
2499
  8
SAPA_ISOLATOR
 10
-10.0
 20
-82.573058613284275
 30
0.0
  0
VERTEX
  5
249A
  8
SAPA_ISOLATOR
 10
-10.0
 20
-83.532183152570838
 30
0.0
 42
0.2072397715914422
  0
VERTEX
  5
249B
  8
SAPA_ISOLATOR
 10
-9.2103209337027465
 20
-85.355587195491239
 30
0.0
 42
0.1421101772925093
  0
VERTEX
  5
249C
  8
SAPA_ISOLATOR
 10
-5.0
 20
-87.499999999009674
 30
0.0
  0
VERTEX
  5
249D
  8
SAPA_ISOLATOR
 10
-5.0
 20
-85.687834754464689
 30
0.0
 42
-0.1860725815673001
  0
SEQEND
  5
249E
  8
SAPA_ISOLATOR
  0
POLYLINE
  5
15A5
  8
SAPA_ISOLATOR
 66
     1
 10
0.0
 20
0.0
 30
0.0
 70
     1
  0
VERTEX
  5
249F
  8
SAPA_ISOLATOR
 10
8.8339473861456081
 20
-70.235078053681605
 30
0.0
 42
0.2133140774071598
  0
VERTEX
  5
24A0
  8
SAPA_ISOLATOR
 10
9.5000000000001137
 20
-68.744915521943653
 30
0.0
  0
VERTEX
  5
24A1
  8
SAPA_ISOLATOR
 10
9.5000000000001137
 20
-68.573058613284729
 30
0.0
 42
-0.9999999999999998
  0
VERTEX
  5
24A2
  8
SAPA_ISOLATOR
 10
10.00000000000011
 20
-68.573058613284729
 30
0.0
  0
VERTEX
  5
24A3
  8
SAPA_ISOLATOR
 10
10.00000000000011
 20
-69.532183152571292
 30
0.0
 42
-0.2072397715914422
  0
VERTEX
  5
24A4
  8
SAPA_ISOLATOR
 10
9.2103209337028602
 20
-71.355587195491694
 30
0.0
 42
-0.1421101772925093
  0
VERTEX
  5
24A5
  8
SAPA_ISOLATOR
 10
5.0000000000001128
 20
-73.499999999010129
 30
0.0
  0
VERTEX
  5
24A6
  8
SAPA_ISOLATOR
 10
5.0000000000001128
 20
-71.687834754465143
 30
0.0
 42
0.1860725815673001
  0
SEQEND
  5
24A7
  8
SAPA_ISOLATOR
  0
POLYLINE
  5
15A6
  8
SAPA_ISOLATOR
 66
     1
 10
0.0
 20
0.0
 30
0.0
 70
     1
  0
VERTEX
  5
24A8
  8
SAPA_ISOLATOR
 10
8.8339473861456081
 20
-84.235078053681164
 30
0.0
 42
0.2133140774071598
  0
VERTEX
  5
24A9
  8
SAPA_ISOLATOR
 10
9.5
 20
-82.744915521943184
 30
0.0
  0
VERTEX
  5
24AA
  8
SAPA_ISOLATOR
 10
9.5
 20
-82.573058613284275
 30
0.0
 42
-0.9999999999999998
  0
VERTEX
  5
24AB
  8
SAPA_ISOLATOR
 10
10.0
 20
-82.573058613284275
 30
0.0
  0
VERTEX
  5
24AC
  8
SAPA_ISOLATOR
 10
10.0
 20
-83.532183152570838
 30
0.0
 42
-0.2072397715914422
  0
VERTEX
  5
24AD
  8
SAPA_ISOLATOR
 10
9.2103209337027465
 20
-85.355587195491239
 30
0.0
 42
-0.1421101772925093
  0
VERTEX
  5
24AE
  8
SAPA_ISOLATOR
 10
5.0
 20
-87.499999999009674
 30
0.0
  0
VERTEX
  5
24AF
  8
SAPA_ISOLATOR
 10
5.0
 20
-85.687834754464689
 30
0.0
 42
0.1860725815673001
  0
SEQEND
  5
24B0
  8
SAPA_ISOLATOR
  0
POLYLINE
  5
15A7
  8
SAPA_ISOLATOR
 66
     1
 10
0.0
 20
0.0
 30
0.0
 70
     1
  0
VERTEX
  5
24B1
  8
SAPA_ISOLATOR
 10
-5.0
 20
-52.999999999010008
 30
0.0
 42
-0.4142135623730951
  0
VERTEX
  5
24B2
  8
SAPA_ISOLATOR
 10
-4.4999999999998863
 20
-52.499999999010129
 30
0.0
  0
VERTEX
  5
24B3
  8
SAPA_ISOLATOR
 10
-3.274264068711886
 20
-52.499999999010008
 30
0.0
 42
0.1989123673796232
  0
VERTEX
  5
24B4
  8
SAPA_ISOLATOR
 10
-3.0621320343559542
 20
-52.412132033365992
 30
0.0
  0
VERTEX
  5
24B5
  8
SAPA_ISOLATOR
 10
-2.38786796564409
 20
-51.737867964654129
 30
0.0
 42
0.198912367379658
  0
VERTEX
  5
24B6
  8
SAPA_ISOLATOR
 10
-2.3000000000000682
 20
-51.525735930298083
 30
0.0
  0
VERTEX
  5
24B7
  8
SAPA_ISOLATOR
 10
-2.3000000000000682
 20
-47.094967040794693
 30
0.0
 42
-0.0912836897734216
  0
VERTEX
  5
24B8
  8
SAPA_ISOLATOR
 10
-1.0813583321901199
 20
-44.97541000719275
 30
0.0
 42
-0.4396415083054796
  0
VERTEX
  5
24B9
  8
SAPA_ISOLATOR
 10
1.081358332190006
 20
-44.975410007192629
 30
0.0
 42
-0.0912836897734207
  0
VERTEX
  5
24BA
  8
SAPA_ISOLATOR
 10
2.2999999999999541
 20
-47.094967040794693
 30
0.0
  0
VERTEX
  5
24BB
  8
SAPA_ISOLATOR
 10
2.2999999999999541
 20
-51.525735930298083
 30
0.0
 42
0.198912367379658
  0
VERTEX
  5
24BC
  8
SAPA_ISOLATOR
 10
2.38786796564409
 20
-51.737867964654129
 30
0.0
  0
VERTEX
  5
24BD
  8
SAPA_ISOLATOR
 10
3.0621320343559542
 20
-52.412132033365992
 30
0.0
 42
0.1989123673796375
  0
VERTEX
  5
24BE
  8
SAPA_ISOLATOR
 10
3.274264068711886
 20
-52.499999999010008
 30
0.0
  0
VERTEX
  5
24BF
  8
SAPA_ISOLATOR
 10
4.5
 20
-52.499999999010008
 30
0.0
 42
-0.4142135623730951
  0
VERTEX
  5
24C0
  8
SAPA_ISOLATOR
 10
5.0
 20
-52.999999999010008
 30
0.0
  0
VERTEX
  5
24C1
  8
SAPA_ISOLATOR
 10
5.0
 20
-92.499999999010015
 30
0.0
  0
VERTEX
  5
24C2
  8
SAPA_ISOLATOR
 10
3.6242640688968768
 20
-92.499999999010015
 30
0.0
 42
-0.1989123676531388
  0
VERTEX
  5
24C3
  8
SAPA_ISOLATOR
 10
3.412132034317664
 20
-92.412132033142726
 30
0.0
  0
VERTEX
  5
24C4
  8
SAPA_ISOLATOR
 10
0.3535533972160465
 20
-89.353553389603235
 30
0.0
 42
0.4142135623730478
  0
VERTEX
  5
24C5
  8
SAPA_ISOLATOR
 10
-0.3535533839705067
 20
-89.353553389603235
 30
0.0
  0
VERTEX
  5
24C6
  8
SAPA_ISOLATOR
 10
-3.4121320343942889
 20
-92.412132033589273
 30
0.0
 42
-0.1989123671061486
  0
VERTEX
  5
24C7
  8
SAPA_ISOLATOR
 10
-3.6242640685269398
 20
-92.499999999010015
 30
0.0
  0
VERTEX
  5
24C8
  8
SAPA_ISOLATOR
 10
-5.0
 20
-92.499999999009916
 30
0.0
  0
SEQEND
  5
24C9
  8
SAPA_ISOLATOR
  0
POLYLINE
  5
15A8
  8
SAPA_ISOLATOR
 66
     1
 10
0.0
 20
0.0
 30
0.0
 70
     1
  0
VERTEX
  5
24CA
  8
SAPA_ISOLATOR
 10
-1.200000000000045
 20
-51.981370848908568
 30
0.0
 42
-0.1989123673796566
  0
VERTEX
  5
24CB
  8
SAPA_ISOLATOR
 10
-1.2878679656440679
 20
-52.193502883264379
 30
0.0
  0
VERTEX
  5
24CC
  8
SAPA_ISOLATOR
 10
-2.6064971157455821
 20
-53.512132033366022
 30
0.0
 42
-0.198912367379654
  0
VERTEX
  5
24CD
  8
SAPA_ISOLATOR
 10
-2.8186291501015139
 20
-53.599999999010031
 30
0.0
  0
VERTEX
  5
24CE
  8
SAPA_ISOLATOR
 10
-3.6000000000000218
 20
-53.599999999010031
 30
0.0
 42
0.4142135623730389
  0
VERTEX
  5
24CF
  8
SAPA_ISOLATOR
 10
-3.8999999999999768
 20
-53.899999999009992
 30
0.0
  0
VERTEX
  5
24D0
  8
SAPA_ISOLATOR
 10
-3.8999999999999768
 20
-64.546767147075457
 30
0.0
 42
0.4142135623730946
  0
VERTEX
  5
24D1
  8
SAPA_ISOLATOR
 10
-3.6000000000000218
 20
-64.846767147075411
 30
0.0
  0
VERTEX
  5
24D2
  8
SAPA_ISOLATOR
 10
3.6000000000000218
 20
-64.846767147075411
 30
0.0
 42
0.4142135623730956
  0
VERTEX
  5
24D3
  8
SAPA_ISOLATOR
 10
3.8999999999999768
 20
-64.546767147075457
 30
0.0
  0
VERTEX
  5
24D4
  8
SAPA_ISOLATOR
 10
3.8999999999999768
 20
-53.899999999009992
 30
0.0
 42
0.4142135623730514
  0
VERTEX
  5
24D5
  8
SAPA_ISOLATOR
 10
3.6000000000000218
 20
-53.599999999010031
 30
0.0
  0
VERTEX
  5
24D6
  8
SAPA_ISOLATOR
 10
2.8186291501015139
 20
-53.599999999010031
 30
0.0
 42
-0.198912367379658
  0
VERTEX
  5
24D7
  8
SAPA_ISOLATOR
 10
2.6064971157455821
 20
-53.512132033365901
 30
0.0
  0
VERTEX
  5
24D8
  8
SAPA_ISOLATOR
 10
1.2878679656440679
 20
-52.1935028832645
 30
0.0
 42
-0.1989123673796573
  0
VERTEX
  5
24D9
  8
SAPA_ISOLATOR
 10
1.200000000000045
 20
-51.981370848908568
 30
0.0
  0
VERTEX
  5
24DA
  8
SAPA_ISOLATOR
 10
1.200000000000045
 20
-46.992292378098227
 30
0.0
 42
0.082016165771189
  0
VERTEX
  5
24DB
  8
SAPA_ISOLATOR
 10
0.2604570137376641
 20
-45.408225173596627
 30
0.0
 42
0.4155202927268181
  0
VERTEX
  5
24DC
  8
SAPA_ISOLATOR
 10
-0.2604570137476685
 20
-45.408225173608457
 30
0.0
 42
0.0820161657705025
  0
VERTEX
  5
24DD
  8
SAPA_ISOLATOR
 10
-1.200000000000045
 20
-46.992292378098227
 30
0.0
  0
SEQEND
  5
24DE
  8
SAPA_ISOLATOR
  0
POLYLINE
  5
15A9
  8
SAPA_ISOLATOR
 66
     1
 10
0.0
 20
0.0
 30
0.0
 70
     1
  0
VERTEX
  5
24DF
  8
SAPA_ISOLATOR
 10
-3.6000000000000218
 20
-65.846767147075411
 30
0.0
 42
0.4142135623731076
  0
VERTEX
  5
24E0
  8
SAPA_ISOLATOR
 10
-3.8999999999999768
 20
-66.146767147075479
 30
0.0
  0
VERTEX
  5
24E1
  8
SAPA_ISOLATOR
 10
-3.8999999999999768
 20
-79.021661667209059
 30
0.0
 42
0.4142135623730659
  0
VERTEX
  5
24E2
  8
SAPA_ISOLATOR
 10
-3.6000000000000218
 20
-79.321661667209014
 30
0.0
  0
VERTEX
  5
24E3
  8
SAPA_ISOLATOR
 10
3.6000000000000218
 20
-79.321661667209128
 30
0.0
 42
0.414213562373041
  0
VERTEX
  5
24E4
  8
SAPA_ISOLATOR
 10
3.8999999999999768
 20
-79.021661667209059
 30
0.0
  0
VERTEX
  5
24E5
  8
SAPA_ISOLATOR
 10
3.8999999999999768
 20
-66.146767147075479
 30
0.0
 42
0.4142135623730784
  0
VERTEX
  5
24E6
  8
SAPA_ISOLATOR
 10
3.6000000000000218
 20
-65.846767147075525
 30
0.0
  0
SEQEND
  5
24E7
  8
SAPA_ISOLATOR
  0
POLYLINE
  5
15AA
  8
SAPA_ISOLATOR
 66
     1
 10
0.0
 20
0.0
 30
0.0
 70
     1
  0
VERTEX
  5
24E8
  8
SAPA_ISOLATOR
 10
-3.6000000000000218
 20
-80.321661667209113
 30
0.0
 42
0.4142135623730659
  0
VERTEX
  5
24E9
  8
SAPA_ISOLATOR
 10
-3.8999999999999768
 20
-80.621661667209082
 30
0.0
  0
VERTEX
  5
24EA
  8
SAPA_ISOLATOR
 10
-3.8999999999999768
 20
-90.378679657682937
 30
0.0
 42
0.6681786375386655
  0
VERTEX
  5
24EB
  8
SAPA_ISOLATOR
 10
-3.2171572878230559
 20
-90.661522370455145
 30
0.0
  0
VERTEX
  5
24EC
  8
SAPA_ISOLATOR
 10
-1.131370842457158
 20
-88.575735929479478
 30
0.0
 42
-0.4142135623730892
  0
VERTEX
  5
24ED
  8
SAPA_ISOLATOR
 10
1.131370856521243
 20
-88.575735930298023
 30
0.0
  0
VERTEX
  5
24EE
  8
SAPA_ISOLATOR
 10
3.2171572872276779
 20
-90.661522365394831
 30
0.0
 42
0.6681786382998773
  0
VERTEX
  5
24EF
  8
SAPA_ISOLATOR
 10
3.8999999999999768
 20
-90.378679653217887
 30
0.0
  0
VERTEX
  5
24F0
  8
SAPA_ISOLATOR
 10
3.8999999999999768
 20
-80.621661667209196
 30
0.0
 42
0.4142135623730951
  0
VERTEX
  5
24F1
  8
SAPA_ISOLATOR
 10
3.6000000000000218
 20
-80.321661667209113
 30
0.0
  0
SEQEND
  5
24F2
  8
SAPA_ISOLATOR
  0
LINE
  5
15AB
  8
SAPA_ISOLATOR
 10
30.994623398221929
 20
-45.03802827347257
 30
0.0
 11
24.999999631037181
 21
-16.892423879848572
 31
0.0
  0
LINE
  5
15AC
  8
SAPA_ISOLATOR
 10
31.016586933922639
 20
-16.892423879848572
 30
0.0
 11
25.011210701107391
 21
-45.03802827347257
 31
0.0
  0
POLYLINE
  5
15D2
  8
SAPA_FOGBAND
 66
     1
 10
0.0
 20
0.0
 30
0.0
 70
     1
  0
VERTEX
  5
26FA
  8
SAPA_FOGBAND
 10
72.305446141478541
 20
-71.364139622992724
 30
0.0
 42
-0.1579553886371987
  0
VERTEX
  5
26FB
  8
SAPA_FOGBAND
 10
75.569274185594594
 20
-71.511199129457083
 30
0.0
 42
-1.0
  0
VERTEX
  5
26FC
  8
SAPA_FOGBAND
 10
74.306651196655324
 20
-74.882516852218203
 30
0.0
 42
-0.1276248526686838
  0
VERTEX
  5
26FD
  8
SAPA_FOGBAND
 10
72.53899868817777
 20
-73.641204430532611
 30
0.0
  0
VERTEX
  5
26FE
  8
SAPA_FOGBAND
 10
71.629652164609041
 20
-72.571815757960195
 30
0.0
 42
-0.5691506674918112
  0
VERTEX
  5
26FF
  8
SAPA_FOGBAND
 10
72.019887920327136
 20
-71.433124563323105
 30
0.0
 42
0.0156300267407041
  0
SEQEND
  5
2700
  8
SAPA_FOGBAND
  0
POLYLINE
  5
15D3
  8
SAPA_FOGBAND
 66
     1
 10
0.0
 20
0.0
 30
0.0
 70
     1
  0
VERTEX
  5
2701
  8
SAPA_FOGBAND
 10
61.0025947009253
 20
-78.573627998605303
 30
0.0
 42
0.3888787318529789
  0
VERTEX
  5
2702
  8
SAPA_FOGBAND
 10
62.288950895836912
 20
-77.586572174095323
 30
0.0
  0
VERTEX
  5
2703
  8
SAPA_FOGBAND
 10
62.415465830627419
 20
-76.869070324508954
 30
0.0
 42
1.0
  0
VERTEX
  5
2704
  8
SAPA_FOGBAND
 10
62.519654737227903
 20
-76.278185672701653
 30
0.0
  0
VERTEX
  5
2705
  8
SAPA_FOGBAND
 10
62.627058207477582
 20
-75.669070324508681
 30
0.0
 42
0.9999999999999067
  0
VERTEX
  5
2706
  8
SAPA_FOGBAND
 10
62.731247114077597
 20
-75.07818567270138
 30
0.0
  0
VERTEX
  5
2707
  8
SAPA_FOGBAND
 10
62.792031720738997
 20
-74.733459038032521
 30
0.0
 42
-0.3345953195020691
  0
VERTEX
  5
2708
  8
SAPA_FOGBAND
 10
64.992729945100081
 20
-72.681274743779014
 30
0.0
  0
VERTEX
  5
2709
  8
SAPA_FOGBAND
 10
69.006537350111984
 20
-72.328166970861872
 30
0.0
 42
-0.2564696513213821
  0
VERTEX
  5
270A
  8
SAPA_FOGBAND
 10
71.461031548818909
 20
-73.454099136803876
 30
0.0
  0
VERTEX
  5
270B
  8
SAPA_FOGBAND
 10
72.005731277449712
 20
-74.094664317022449
 30
0.0
 42
0.1276248526686853
  0
VERTEX
  5
270C
  8
SAPA_FOGBAND
 10
74.061141171028765
 20
-75.538050853866167
 30
0.0
 42
1.0
  0
VERTEX
  5
270D
  8
SAPA_FOGBAND
 10
75.814784211221621
 20
-70.855665127809203
 30
0.0
 42
0.1579553886371977
  0
VERTEX
  5
270E
  8
SAPA_FOGBAND
 10
72.119884538637024
 20
-70.689182667660731
 30
0.0
 42
-0.0604483959424258
  0
VERTEX
  5
270F
  8
SAPA_FOGBAND
 10
68.729772477651721
 20
-70.790275202113804
 30
0.0
  0
VERTEX
  5
2710
  8
SAPA_FOGBAND
 10
63.572205721284227
 20
-70.578194360895083
 30
0.0
 42
-0.3286126757704555
  0
VERTEX
  5
2711
  8
SAPA_FOGBAND
 10
62.13956161481471
 20
-69.522638805339426
 30
0.0
 42
0.2704382184496639
  0
VERTEX
  5
2712
  8
SAPA_FOGBAND
 10
61.021053089678361
 20
-68.60896253019942
 30
0.0
  0
VERTEX
  5
2713
  8
SAPA_FOGBAND
 10
61.220916854806063
 20
-72.478194360895174
 30
0.0
  0
VERTEX
  5
2714
  8
SAPA_FOGBAND
 10
60.020916854806252
 20
-72.478194360895174
 30
0.0
  0
VERTEX
  5
2715
  8
SAPA_FOGBAND
 10
58.959852449256658
 20
-72.532666123934547
 30
0.0
  0
VERTEX
  5
2716
  8
SAPA_FOGBAND
 10
58.960821459114392
 20
-71.982820215129465
 30
0.0
 42
0.6068148963145658
  0
VERTEX
  5
2717
  8
SAPA_FOGBAND
 10
58.441230378291912
 20
-71.86762964575442
 30
0.0
  0
VERTEX
  5
2718
  8
SAPA_FOGBAND
 10
57.064904692401761
 20
-73.683042455774881
 30
0.0
 42
0.4400105308918406
  0
VERTEX
  5
2719
  8
SAPA_FOGBAND
 10
57.26562594648837
 20
-75.207671747013279
 30
0.0
  0
VERTEX
  5
271A
  8
SAPA_FOGBAND
 10
59.28258887071113
 20
-76.730873128428954
 30
0.0
 42
0.5205670505516999
  0
VERTEX
  5
271B
  8
SAPA_FOGBAND
 10
59.744439549503078
 20
-76.56277322867291
 30
0.0
  0
VERTEX
  5
271C
  8
SAPA_FOGBAND
 10
59.771035180538057
 20
-75.817934117240299
 30
0.0
  0
VERTEX
  5
271D
  8
SAPA_FOGBAND
 10
61.060947989386449
 20
-76.017445060694314
 30
0.0
  0
SEQEND
  5
271E
  8
SAPA_FOGBAND
  0
CIRCLE
  5
15D4
  8
SAPA_FOGBAND
 10
62.616112303479873
 20
-71.997051924880594
 30
0.0
 40
0.3
  0
POLYLINE
  5
15D5
  8
SAPA_FOGBAND
 66
     1
 10
0.0
 20
0.0
 30
0.0
 70
     1
  0
VERTEX
  5
271F
  8
SAPA_FOGBAND
 10
58.807464586084251
 20
-75.178194360894992
 30
0.0
  0
VERTEX
  5
2720
  8
SAPA_FOGBAND
 10
60.720916854806063
 20
-75.178194360894992
 30
0.0
 42
0.4142135623730951
  0
VERTEX
  5
2721
  8
SAPA_FOGBAND
 10
61.220916854806063
 20
-74.678194360894992
 30
0.0
  0
VERTEX
  5
2722
  8
SAPA_FOGBAND
 10
61.220916854806063
 20
-73.878194360895264
 30
0.0
 42
0.4142135623730951
  0
VERTEX
  5
2723
  8
SAPA_FOGBAND
 10
60.720916854806063
 20
-73.378194360895264
 30
0.0
  0
VERTEX
  5
2724
  8
SAPA_FOGBAND
 10
58.644813042739742
 20
-73.378194360895264
 30
0.0
 42
0.2216946626429447
  0
VERTEX
  5
2725
  8
SAPA_FOGBAND
 10
58.185186376867897
 20
-73.592521795083172
 30
0.0
  0
VERTEX
  5
2726
  8
SAPA_FOGBAND
 10
57.825049329575421
 20
-74.021716415020052
 30
0.0
 42
0.4400105308918337
  0
VERTEX
  5
2727
  8
SAPA_FOGBAND
 10
57.912214012516841
 20
-74.683797913953782
 30
0.0
  0
VERTEX
  5
2728
  8
SAPA_FOGBAND
 10
58.463318724273421
 20
-75.069685587468626
 30
0.0
 42
0.153914721059829
  0
SEQEND
  5
2729
  8
SAPA_FOGBAND
  0
POLYLINE
  5
15D6
  8
SAPA_FOGBAND
 66
     1
 10
0.0
 20
0.0
 30
0.0
 70
     1
  0
VERTEX
  5
272A
  8
SAPA_FOGBAND
 10
80.261691287441309
 20
-86.598715294411932
 30
0.0
  0
VERTEX
  5
272B
  8
SAPA_FOGBAND
 10
80.261691287441309
 20
-87.598715294411932
 30
0.0
 42
-0.9999999999999998
  0
VERTEX
  5
272C
  8
SAPA_FOGBAND
 10
79.05753182956208
 20
-87.598715294411932
 30
0.0
  0
VERTEX
  5
272D
  8
SAPA_FOGBAND
 10
79.05753182956208
 20
-86.598715294411932
 30
0.0
 42
-0.9999999999999998
  0
SEQEND
  5
272E
  8
SAPA_FOGBAND
  0
POLYLINE
  5
15D7
  8
SAPA_FOGBAND
 66
     1
 10
0.0
 20
0.0
 30
0.0
 70
     1
  0
VERTEX
  5
272F
  8
SAPA_FOGBAND
 10
77.692327282316455
 20
-87.522567591768265
 30
0.0
  0
VERTEX
  5
2730
  8
SAPA_FOGBAND
 10
78.550385992625905
 20
-88.908332678713805
 30
0.0
 42
0.2528723899644565
  0
VERTEX
  5
2731
  8
SAPA_FOGBAND
 10
78.717670268811148
 20
-88.998715294411937
 30
0.0
  0
VERTEX
  5
2732
  8
SAPA_FOGBAND
 10
80.601552848192213
 20
-88.998715294411937
 30
0.0
 42
0.2528723899644564
  0
VERTEX
  5
2733
  8
SAPA_FOGBAND
 10
80.768837124377455
 20
-88.908332678713805
 30
0.0
  0
VERTEX
  5
2734
  8
SAPA_FOGBAND
 10
81.626895834686934
 20
-87.522567591768265
 30
0.0
 42
0.5108224790788402
  0
VERTEX
  5
2735
  8
SAPA_FOGBAND
 10
81.511375367522191
 20
-87.219765042208607
 30
0.0
  0
VERTEX
  5
2736
  8
SAPA_FOGBAND
 10
81.109611558501683
 20
-87.098715294411917
 30
0.0
  0
VERTEX
  5
2737
  8
SAPA_FOGBAND
 10
81.109611558501683
 20
-85.998715294411923
 30
0.0
  0
VERTEX
  5
2738
  8
SAPA_FOGBAND
 10
82.974346162359964
 20
-85.998715294411923
 30
0.0
 42
0.0874886635259237
  0
VERTEX
  5
2739
  8
SAPA_FOGBAND
 10
83.042750191025107
 20
-85.986653818569124
 30
0.0
  0
VERTEX
  5
273A
  8
SAPA_FOGBAND
 10
86.575494337065194
 20
-85.430840104132344
 30
0.0
 42
0.9391885369168745
  0
VERTEX
  5
273B
  8
SAPA_FOGBAND
 10
86.462728367333725
 20
-85.047883585459715
 30
0.0
  0
VERTEX
  5
273C
  8
SAPA_FOGBAND
 10
82.590534562096735
 20
-85.198715294411954
 30
0.0
  0
VERTEX
  5
273D
  8
SAPA_FOGBAND
 10
81.760359595248104
 20
-85.0039995138373
 30
0.0
 42
0.0576596372120268
  0
VERTEX
  5
273E
  8
SAPA_FOGBAND
 10
81.714689421225984
 20
-84.998715294411923
 30
0.0
  0
VERTEX
  5
273F
  8
SAPA_FOGBAND
 10
77.309611558501686
 20
-84.998715294411923
 30
0.0
 42
0.4142135623730951
  0
VERTEX
  5
2740
  8
SAPA_FOGBAND
 10
76.709611558501692
 20
-85.598715294411946
 30
0.0
  0
VERTEX
  5
2741
  8
SAPA_FOGBAND
 10
76.709611558501692
 20
-85.798715294411934
 30
0.0
 42
0.4142135623730951
  0
VERTEX
  5
2742
  8
SAPA_FOGBAND
 10
76.909611558501695
 20
-85.998715294411923
 30
0.0
  0
VERTEX
  5
2743
  8
SAPA_FOGBAND
 10
78.209611558501692
 20
-85.998715294411923
 30
0.0
  0
VERTEX
  5
2744
  8
SAPA_FOGBAND
 10
78.209611558501692
 20
-87.098715294411917
 30
0.0
  0
VERTEX
  5
2745
  8
SAPA_FOGBAND
 10
77.807847749481184
 20
-87.219765042208607
 30
0.0
 42
0.51082247907884
  0
SEQEND
  5
2746
  8
SAPA_FOGBAND
  0
POLYLINE
  5
15D8
  8
SAPA_FOGBAND
 66
     1
 10
0.0
 20
0.0
 30
0.0000000195376815
 70
     1
  0
VERTEX
  5
2747
  8
SAPA_FOGBAND
 10
58.387868248766679
 20
2.5513651484896012
 30
0.0000000195376815
  0
VERTEX
  5
2748
  8
SAPA_FOGBAND
 10
58.287868248766692
 20
2.5513651484896012
 30
0.0000000195376815
 42
0.4142135623730959
  0
VERTEX
  5
2749
  8
SAPA_FOGBAND
 10
57.587868248766689
 20
1.8513651484896121
 30
0.0000000195376815
  0
VERTEX
  5
274A
  8
SAPA_FOGBAND
 10
57.587868248766668
 20
0.7513651484896183
 30
0.0000000195376815
 42
0.4142135623730961
  0
VERTEX
  5
274B
  8
SAPA_FOGBAND
 10
57.787868248766678
 20
0.5513651484896012
 30
0.0000000195376815
  0
VERTEX
  5
274C
  8
SAPA_FOGBAND
 10
58.887868248766672
 20
0.5513651484896012
 30
0.0000000195376815
 42
0.4142135623730956
  0
VERTEX
  5
274D
  8
SAPA_FOGBAND
 10
59.087868248766704
 20
0.7513651484896183
 30
0.0000000195376815
  0
VERTEX
  5
274E
  8
SAPA_FOGBAND
 10
59.087868248766668
 20
1.8513651484896121
 30
0.0000000195376815
 42
0.4142135623730946
  0
SEQEND
  5
274F
  8
SAPA_FOGBAND
  0
POLYLINE
  5
15D9
  8
SAPA_FOGBAND
 66
     1
 10
0.0
 20
0.0
 30
0.0000000195376815
 70
     1
  0
VERTEX
  5
2750
  8
SAPA_FOGBAND
 10
59.887868248766679
 20
1.251365148489618
 30
0.0000000195376815
  0
VERTEX
  5
2751
  8
SAPA_FOGBAND
 10
59.887868248766679
 20
0.603599583216528
 30
0.0000000195376815
 42
0.4416942457848324
  0
VERTEX
  5
2752
  8
SAPA_FOGBAND
 10
60.106422608394602
 20
0.404462103723581
 30
0.0000000195376815
  0
VERTEX
  5
2753
  8
SAPA_FOGBAND
 10
61.069313889138783
 20
0.4941781689816272
 30
0.0000000195376815
 42
-0.4416942457847888
  0
VERTEX
  5
2754
  8
SAPA_FOGBAND
 10
61.287868248766692
 20
0.2950406894887085
 30
0.0000000195376815
  0
VERTEX
  5
2755
  8
SAPA_FOGBAND
 10
61.287868248766692
 20
-0.2549416501028583
 30
0.0000000195376815
 42
-0.5445962197109612
  0
VERTEX
  5
2756
  8
SAPA_FOGBAND
 10
60.582189203361608
 20
-0.7106785591646992
 30
0.0000000195376815
  0
VERTEX
  5
2757
  8
SAPA_FOGBAND
 10
60.223138050076351
 20
-0.5486348515103936
 30
0.0000000195376815
  0
VERTEX
  5
2758
  8
SAPA_FOGBAND
 10
58.750178811328439
 20
-0.548634851510391
 30
0.0000000195376815
 42
-0.3364379234965429
  0
VERTEX
  5
2759
  8
SAPA_FOGBAND
 10
57.678435081713609
 20
-0.3611280336686429
 30
0.0000000195376815
  0
VERTEX
  5
275A
  8
SAPA_FOGBAND
 10
57.11657144588991
 20
-0.3611280336686429
 30
0.0000000195376815
 42
0.1919812372740509
  0
VERTEX
  5
275B
  8
SAPA_FOGBAND
 10
56.772584398289851
 20
-0.4982604116859131
 30
0.0000000195376815
  0
VERTEX
  5
275C
  8
SAPA_FOGBAND
 10
56.380717467886598
 20
-0.8697378879759964
 30
0.0000000195376815
 42
0.7712067734688043
  0
VERTEX
  5
275D
  8
SAPA_FOGBAND
 10
58.953149167760706
 20
-3.6793718836566569
 30
0.0000000195376815
 42
0.152544453744271
  0
VERTEX
  5
275E
  8
SAPA_FOGBAND
 10
59.822574917600882
 20
-2.7874966149028779
 30
0.0000000195376815
 42
-0.6229515670381967
  0
VERTEX
  5
275F
  8
SAPA_FOGBAND
 10
60.297515102376622
 20
-2.8873788987254092
 30
0.0000000195376815
 42
-0.2412896305485237
  0
VERTEX
  5
2760
  8
SAPA_FOGBAND
 10
60.260763831078513
 20
-3.2908437130675421
 30
0.0000000195376815
 42
-0.0924947384438033
  0
VERTEX
  5
2761
  8
SAPA_FOGBAND
 10
59.638770922348229
 20
-3.9813441251089579
 30
0.0000000195376815
 42
-0.8622191196043894
  0
VERTEX
  5
2762
  8
SAPA_FOGBAND
 10
55.814899768606942
 20
-0.4054323731331176
 30
0.0000000195376815
  0
VERTEX
  5
2763
  8
SAPA_FOGBAND
 10
55.384340630725681
 20
-0.2900643998439918
 30
0.0000000195376815
 42
-0.9163311740173991
  0
VERTEX
  5
2764
  8
SAPA_FOGBAND
 10
55.52273054586577
 20
0.4947838099083471
 30
0.0000000195376815
  0
VERTEX
  5
2765
  8
SAPA_FOGBAND
 10
56.570437100217148
 20
0.4031213637007971
 30
0.0000000195376815
 42
0.4400105308918151
  0
VERTEX
  5
2766
  8
SAPA_FOGBAND
 10
56.787868248766678
 20
0.6023603033191374
 30
0.0000000195376815
  0
VERTEX
  5
2767
  8
SAPA_FOGBAND
 10
56.787868248766678
 20
1.451365148489606
 30
0.0000000195376815
  0
VERTEX
  5
2768
  8
SAPA_FOGBAND
 10
56.387868248766672
 20
1.451365148489606
 30
0.0000000195376815
 42
-0.5693809839207585
  0
VERTEX
  5
2769
  8
SAPA_FOGBAND
 10
56.21231420320315
 20
1.747181520192248
 30
0.0000000195376815
  0
VERTEX
  5
276A
  8
SAPA_FOGBAND
 10
56.917279803102183
 20
3.0388142635975499
 30
0.0000000195376815
 42
-0.2743878130875472
  0
VERTEX
  5
276B
  8
SAPA_FOGBAND
 10
57.443941939792907
 20
3.3513651484896259
 30
0.0000000195376815
  0
VERTEX
  5
276C
  8
SAPA_FOGBAND
 10
59.231794557740457
 20
3.3513651484896121
 30
0.0000000195376815
 42
-0.2743878130875473
  0
VERTEX
  5
276D
  8
SAPA_FOGBAND
 10
59.758456694431182
 20
3.0388142635975401
 30
0.0000000195376815
  0
VERTEX
  5
276E
  8
SAPA_FOGBAND
 10
60.463422294330272
 20
1.747181520192278
 30
0.0000000195376815
 42
-0.5693809839208271
  0
VERTEX
  5
276F
  8
SAPA_FOGBAND
 10
60.287868248766678
 20
1.451365148489574
 30
0.0000000195376815
  0
VERTEX
  5
2770
  8
SAPA_FOGBAND
 10
59.887868248766679
 20
1.451365148489606
 30
0.0000000195376815
  0
VERTEX
  5
2771
  8
SAPA_FOGBAND
 10
59.887868248766679
 20
0.6023603033191374
 30
0.0000000195376815
  0
SEQEND
  5
2772
  8
SAPA_FOGBAND
  0
CIRCLE
  5
15DA
  8
SAPA_FOGBAND
 10
18.614660706669842
 20
-92.637568222720574
 30
0.0
 40
0.2549509756796394
  0
INSERT
  5
15DB
  8
SAPA_FOGBAND
  6
CONTINUOUS
  2
*U98
 10
0.0
 20
0.0
 30
0.0
1001
ACAD
1002
{
1000
R14_HATCH_DATA
1000
15DB
1011
1.0
1021
0.0
1031
0.0
1021
0.0
1031
0.0
1011
0.0
1021
0.0
1031
0.0
1021
1.0
1031
0.0
1011
0.0
1021
0.0
1031
0.0
1021
0.0
1031
1.0
1040
0.0
1010
0.0
1020
0.0
1030
1.0
1000
SOLID
1070
     1
1070
     1
1071
        1
1071
        1
1071
        1
1070
     2
1040
18.614660706669842
1040
-92.637568222720574
1040
0.2549509756796394
1040
-3.1415926535897931
1040
3.1415926535897931
1070
     0
1071
        1
1005
15DA
1070
     0
1070
     1
1071
        1
1040
18.851399608239941
1040
-92.555716725391676
1040
0.0
1002
}
  0
POLYLINE
  5
15DC
  8
SAPA_FOGBAND
 66
     1
 10
0.0
 20
0.0
 30
0.0
 70
     1
  0
VERTEX
  5
2784
  8
SAPA_FOGBAND
 10
17.714660706669861
 20
-95.600000001965086
 30
0.0
 42
-0.9999999999999998
  0
VERTEX
  5
2785
  8
SAPA_FOGBAND
 10
19.514660706669812
 20
-95.600000001965086
 30
0.0
  0
VERTEX
  5
2786
  8
SAPA_FOGBAND
 10
19.514660706669812
 20
-96.200000001965122
 30
0.0
 42
-0.9999999999999998
  0
VERTEX
  5
2787
  8
SAPA_FOGBAND
 10
17.714660706669861
 20
-96.200000001965122
 30
0.0
  0
SEQEND
  5
2788
  8
SAPA_FOGBAND
  0
POLYLINE
  5
15DD
  8
SAPA_FOGBAND
 66
     1
 10
0.0
 20
0.0
 30
0.0
 70
     1
  0
VERTEX
  5
2789
  8
SAPA_FOGBAND
 10
27.242537014843041
 20
-90.500000001965077
 30
0.0
 42
-0.0775891054856093
  0
VERTEX
  5
278A
  8
SAPA_FOGBAND
 10
23.775755284420491
 20
-90.816635986026427
 30
0.0
  0
VERTEX
  5
278B
  8
SAPA_FOGBAND
 10
23.537865791591688
 20
-90.600000001965043
 30
0.0
 42
0.5773502691896298
  0
VERTEX
  5
278C
  8
SAPA_FOGBAND
 10
23.191455630077829
 20
-90.600000001965043
 30
0.0
  0
VERTEX
  5
278D
  8
SAPA_FOGBAND
 10
22.95340801334703
 20
-90.81690985618809
 30
0.0
  0
VERTEX
  5
278E
  8
SAPA_FOGBAND
 10
22.1759134034304
 20
-90.81690985618809
 30
0.0
  0
VERTEX
  5
278F
  8
SAPA_FOGBAND
 10
21.937865791591658
 20
-90.600000001965043
 30
0.0
 42
0.577350269189699
  0
VERTEX
  5
2790
  8
SAPA_FOGBAND
 10
21.59145563007792
 20
-90.600000001965043
 30
0.0
  0
VERTEX
  5
2791
  8
SAPA_FOGBAND
 10
21.353408013347121
 20
-90.81690985618809
 30
0.0
  0
VERTEX
  5
2792
  8
SAPA_FOGBAND
 10
20.575913403430381
 20
-90.81690985618809
 30
0.0
  0
VERTEX
  5
2793
  8
SAPA_FOGBAND
 10
20.337865791591639
 20
-90.600000001965043
 30
0.0
 42
0.577350269189699
  0
VERTEX
  5
2794
  8
SAPA_FOGBAND
 10
19.991455630077891
 20
-90.600000001965043
 30
0.0
  0
VERTEX
  5
2795
  8
SAPA_FOGBAND
 10
19.753408013347091
 20
-90.81690985618809
 30
0.0
  0
VERTEX
  5
2796
  8
SAPA_FOGBAND
 10
18.975913403430351
 20
-90.81690985618809
 30
0.0
  0
VERTEX
  5
2797
  8
SAPA_FOGBAND
 10
18.73786579159173
 20
-90.600000001965043
 30
0.0
 42
0.5773502691896298
  0
VERTEX
  5
2798
  8
SAPA_FOGBAND
 10
18.391455630077871
 20
-90.600000001965043
 30
0.0
  0
VERTEX
  5
2799
  8
SAPA_FOGBAND
 10
18.153408013347072
 20
-90.81690985618809
 30
0.0
  0
VERTEX
  5
279A
  8
SAPA_FOGBAND
 10
17.375913403430332
 20
-90.81690985618809
 30
0.0
  0
VERTEX
  5
279B
  8
SAPA_FOGBAND
 10
17.137865791591711
 20
-90.600000001965043
 30
0.0
 42
0.5773502691896298
  0
VERTEX
  5
279C
  8
SAPA_FOGBAND
 10
16.791455630077849
 20
-90.600000001965043
 30
0.0
  0
VERTEX
  5
279D
  8
SAPA_FOGBAND
 10
16.553408013347049
 20
-90.81690985618809
 30
0.0
  0
VERTEX
  5
279E
  8
SAPA_FOGBAND
 10
15.77591339926539
 20
-90.81690985618809
 30
0.0
  0
VERTEX
  5
279F
  8
SAPA_FOGBAND
 10
15.53786578742665
 20
-90.600000001965043
 30
0.0
 42
0.577350269189699
  0
VERTEX
  5
27A0
  8
SAPA_FOGBAND
 10
15.19145562591291
 20
-90.600000001965043
 30
0.0
  0
VERTEX
  5
27A1
  8
SAPA_FOGBAND
 10
14.391455626357811
 20
-91.673330070449538
 30
0.0
 42
0.1316524987190269
  0
VERTEX
  5
27A2
  8
SAPA_FOGBAND
 10
14.36466070666984
 20
-91.773330071220244
 30
0.0
  0
VERTEX
  5
27A3
  8
SAPA_FOGBAND
 10
14.364660706669721
 20
-94.300000001965032
 30
0.0
 42
0.4142135623730951
  0
VERTEX
  5
27A4
  8
SAPA_FOGBAND
 10
14.56466070666977
 20
-94.500000001965077
 30
0.0
  0
VERTEX
  5
27A5
  8
SAPA_FOGBAND
 10
16.614660706669842
 20
-94.500000001965077
 30
0.0
 42
-0.4142135623730951
  0
VERTEX
  5
27A6
  8
SAPA_FOGBAND
 10
17.114660706669842
 20
-95.000000001965077
 30
0.0
  0
VERTEX
  5
27A7
  8
SAPA_FOGBAND
 10
17.114660706669842
 20
-95.726794921208239
 30
0.0
  0
VERTEX
  5
27A8
  8
SAPA_FOGBAND
 10
16.862896897649311
 20
-95.794254830518625
 30
0.0
 42
0.4740571810232869
  0
VERTEX
  5
27A9
  8
SAPA_FOGBAND
 10
16.735603035285749
 20
-96.076537416157294
 30
0.0
  0
VERTEX
  5
27AA
  8
SAPA_FOGBAND
 10
17.355703538044281
 20
-97.522743552917063
 30
0.0
 42
0.2846003776495916
  0
VERTEX
  5
27AB
  8
SAPA_FOGBAND
 10
17.803347716504501
 20
-97.800000001965032
 30
0.0
  0
VERTEX
  5
27AC
  8
SAPA_FOGBAND
 10
19.425973696835062
 20
-97.800000001965032
 30
0.0
 42
0.2846003776495917
  0
VERTEX
  5
27AD
  8
SAPA_FOGBAND
 10
19.873617875295281
 20
-97.522743552917063
 30
0.0
  0
VERTEX
  5
27AE
  8
SAPA_FOGBAND
 10
20.49371837805381
 20
-96.076537416157294
 30
0.0
 42
0.4740571810232869
  0
VERTEX
  5
27AF
  8
SAPA_FOGBAND
 10
20.366424515690259
 20
-95.794254830518625
 30
0.0
  0
VERTEX
  5
27B0
  8
SAPA_FOGBAND
 10
20.114660706669842
 20
-95.726794921208239
 30
0.0
  0
VERTEX
  5
27B1
  8
SAPA_FOGBAND
 10
20.114660706669842
 20
-95.000000001965077
 30
0.0
 42
-0.4142135623730951
  0
VERTEX
  5
27B2
  8
SAPA_FOGBAND
 10
20.614660706669842
 20
-94.500000001965077
 30
0.0
  0
VERTEX
  5
27B3
  8
SAPA_FOGBAND
 10
23.664660706669789
 20
-94.500000001965077
 30
0.0
 42
-0.4142135623730951
  0
VERTEX
  5
27B4
  8
SAPA_FOGBAND
 10
23.864660706669842
 20
-94.700000001965108
 30
0.0
  0
VERTEX
  5
27B5
  8
SAPA_FOGBAND
 10
23.864660706669731
 20
-95.600000001965086
 30
0.0
 42
0.4142135623731784
  0
VERTEX
  5
27B6
  8
SAPA_FOGBAND
 10
24.06466070666977
 20
-95.800000001965046
 30
0.0
  0
VERTEX
  5
27B7
  8
SAPA_FOGBAND
 10
24.764660706669819
 20
-95.800000001965145
 30
0.0
 42
0.4142135623730398
  0
VERTEX
  5
27B8
  8
SAPA_FOGBAND
 10
25.06466070666977
 20
-95.500000001965077
 30
0.0
  0
VERTEX
  5
27B9
  8
SAPA_FOGBAND
 10
25.06466070666977
 20
-94.689488225313539
 30
0.0
 42
-0.1316524975873973
  0
VERTEX
  5
27BA
  8
SAPA_FOGBAND
 10
25.33260989910093
 20
-93.689488225313539
 30
0.0
  0
VERTEX
  5
27BB
  8
SAPA_FOGBAND
 10
30.495455049141359
 20
-91.099920233221624
 30
0.0
 42
0.7057658529986604
  0
VERTEX
  5
27BC
  8
SAPA_FOGBAND
 10
30.227861873783009
 20
-90.500000001965077
 30
0.0
  0
SEQEND
  5
27BD
  8
SAPA_FOGBAND
  0
POLYLINE
  5
15DE
  8
SAPA_FOGBAND
 66
     1
 10
0.0
 20
0.0
 30
0.0
 70
     1
  0
VERTEX
  5
27BE
  8
SAPA_FOGBAND
 10
19.29754293974764
 20
-34.185369502362363
 30
0.0
 42
0.9999999999999998
  0
VERTEX
  5
27BF
  8
SAPA_FOGBAND
 10
21.097542939747651
 20
-34.185369502362363
 30
0.0
  0
VERTEX
  5
27C0
  8
SAPA_FOGBAND
 10
21.097542939747651
 20
-33.58536950236234
 30
0.0
 42
0.9999999999999998
  0
VERTEX
  5
27C1
  8
SAPA_FOGBAND
 10
19.29754293974764
 20
-33.58536950236234
 30
0.0
  0
SEQEND
  5
27C2
  8
SAPA_FOGBAND
  0
POLYLINE
  5
15DF
  8
SAPA_FOGBAND
 66
     1
 10
0.0
 20
0.0
 30
0.0
  0
VERTEX
  5
27C3
  8
SAPA_FOGBAND
 10
23.79754293974764
 20
-35.800000000001177
 30
0.0
  0
VERTEX
  5
27C4
  8
SAPA_FOGBAND
 10
23.79754293974764
 20
-35.500000000001108
 30
0.0
  0
VERTEX
  5
27C5
  8
SAPA_FOGBAND
 10
23.79754293974764
 20
-35.800000000001177
 30
0.0
 42
-0.4142135623730951
  0
VERTEX
  5
27C6
  8
SAPA_FOGBAND
 10
23.29754293974764
 20
-36.300000000001177
 30
0.0
  0
VERTEX
  5
27C7
  8
SAPA_FOGBAND
 10
15.99754293974769
 20
-36.300000000001177
 30
0.0
 42
-0.4142135623730951
  0
VERTEX
  5
27C8
  8
SAPA_FOGBAND
 10
15.49754293974769
 20
-35.800000000001177
 30
0.0
  0
VERTEX
  5
27C9
  8
SAPA_FOGBAND
 10
15.49754293974769
 20
-35.500000000001108
 30
0.0
  0
SEQEND
  5
27CA
  8
SAPA_FOGBAND
  0
POLYLINE
  5
15E0
  8
SAPA_FOGBAND
 66
     1
 10
0.0
 20
0.0
 30
0.0
 70
     1
  0
VERTEX
  5
27CB
  8
SAPA_FOGBAND
 10
17.145827830043991
 20
-40.100000000001103
 30
0.0
  0
VERTEX
  5
27CC
  8
SAPA_FOGBAND
 10
20.240471939369829
 20
-40.100000000001103
 30
0.0
 42
-1.024758115298622
  0
VERTEX
  5
27CD
  8
SAPA_FOGBAND
 10
20.240471939369829
 20
-43.281531792786602
 30
0.0
  0
VERTEX
  5
27CE
  8
SAPA_FOGBAND
 10
17.145827830043991
 20
-43.281531792786602
 30
0.0
 42
-0.9558128803175696
  0
SEQEND
  5
27CF
  8
SAPA_FOGBAND
  0
POLYLINE
  5
15E1
  8
SAPA_FOGBAND
 66
     1
 10
0.0
 20
0.0
 30
0.0
 70
     1
  0
VERTEX
  5
27D0
  8
SAPA_FOGBAND
 10
7.914497490924699
 20
-41.936054126746761
 30
0.0
 42
0.6274939020253784
  0
VERTEX
  5
27D1
  8
SAPA_FOGBAND
 10
7.9254223133578403
 20
-43.49469862070849
 30
0.0
  0
VERTEX
  5
27D2
  8
SAPA_FOGBAND
 10
11.901282306722489
 20
-44.058441624631243
 30
0.0
 42
0.4459602482749359
  0
VERTEX
  5
27D3
  8
SAPA_FOGBAND
 10
12.897542939747691
 20
-43.163604270398878
 30
0.0
  0
VERTEX
  5
27D4
  8
SAPA_FOGBAND
 10
12.897542939747691
 20
-40.440292945534168
 30
0.0
 42
0.6245270939358744
  0
VERTEX
  5
27D5
  8
SAPA_FOGBAND
 10
11.44414626723248
 20
-39.730537971723471
 30
0.0
  0
SEQEND
  5
27D6
  8
SAPA_FOGBAND
  0
POLYLINE
  5
15E2
  8
SAPA_FOGBAND
 66
     1
 10
0.0
 20
0.0
 30
0.0
 70
     1
  0
VERTEX
  5
27D7
  8
SAPA_FOGBAND
 10
18.697542939747681
 20
-34.058574583119231
 30
0.0
  0
VERTEX
  5
27D8
  8
SAPA_FOGBAND
 10
18.4457791307272
 20
-33.991114673808823
 30
0.0
 42
-0.4740571810232144
  0
VERTEX
  5
27D9
  8
SAPA_FOGBAND
 10
18.318485268363592
 20
-33.708832088170169
 30
0.0
  0
VERTEX
  5
27DA
  8
SAPA_FOGBAND
 10
18.938585771122181
 20
-32.262625951410293
 30
0.0
 42
-0.2846003776496053
  0
VERTEX
  5
27DB
  8
SAPA_FOGBAND
 10
19.38622994958234
 20
-31.985369502362321
 30
0.0
  0
VERTEX
  5
27DC
  8
SAPA_FOGBAND
 10
21.008855929912951
 20
-31.985369502362321
 30
0.0
 42
-0.2846003776496027
  0
VERTEX
  5
27DD
  8
SAPA_FOGBAND
 10
21.45650010837312
 20
-32.262625951410293
 30
0.0
  0
VERTEX
  5
27DE
  8
SAPA_FOGBAND
 10
22.07660061113171
 20
-33.708832088170233
 30
0.0
 42
-0.4740571810232332
  0
VERTEX
  5
27DF
  8
SAPA_FOGBAND
 10
21.949306748768151
 20
-33.991114673808823
 30
0.0
  0
VERTEX
  5
27E0
  8
SAPA_FOGBAND
 10
21.697542939747681
 20
-34.058574583119231
 30
0.0
  0
VERTEX
  5
27E1
  8
SAPA_FOGBAND
 10
21.697542939747681
 20
-35.000000000001108
 30
0.0
 42
0.4142135623730951
  0
VERTEX
  5
27E2
  8
SAPA_FOGBAND
 10
22.197542939747681
 20
-35.500000000001108
 30
0.0
  0
VERTEX
  5
27E3
  8
SAPA_FOGBAND
 10
24.709703103129129
 20
-35.500000000001172
 30
0.0
 42
-0.4027293761437467
  0
VERTEX
  5
27E4
  8
SAPA_FOGBAND
 10
25.00947065672699
 20
-35.788192637470473
 30
0.0
  0
VERTEX
  5
27E5
  8
SAPA_FOGBAND
 10
25.497310471396421
 20
-45.1881926374705
 30
0.0
 42
-0.4257917699693538
  0
VERTEX
  5
27E6
  8
SAPA_FOGBAND
 10
25.197542917798561
 20
-45.500000000001172
 30
0.0
  0
VERTEX
  5
27E7
  8
SAPA_FOGBAND
 10
11.492009258574679
 20
-45.500000000001172
 30
0.0
  0
VERTEX
  5
27E8
  8
SAPA_FOGBAND
 10
5.8888676608478088
 20
-44.723465082318533
 30
0.0
 42
-0.322530093016903
  0
VERTEX
  5
27E9
  8
SAPA_FOGBAND
 10
5.1975429177985406
 20
-43.729387777212558
 30
0.0
  0
VERTEX
  5
27EA
  8
SAPA_FOGBAND
 10
5.1975429177985406
 20
-42.498644220774992
 30
0.0
 42
-0.2325311832130604
  0
VERTEX
  5
27EB
  8
SAPA_FOGBAND
 10
5.3922056744917599
 20
-42.102703356693183
 30
0.0
  0
VERTEX
  5
27EC
  8
SAPA_FOGBAND
 10
14.55876890239926
 20
-35.708118271837662
 30
0.0
 42
-0.1657205760184606
  0
VERTEX
  5
27ED
  8
SAPA_FOGBAND
 10
15.16944338901288
 20
-35.500000000001108
 30
0.0
  0
VERTEX
  5
27EE
  8
SAPA_FOGBAND
 10
18.19754293974767
 20
-35.500000000001108
 30
0.0
 42
0.4142135623730951
  0
VERTEX
  5
27EF
  8
SAPA_FOGBAND
 10
18.697542939747681
 20
-35.000000000001108
 30
0.0
  0
SEQEND
  5
27F0
  8
SAPA_FOGBAND
  0
CIRCLE
  5
15E3
  8
SAPA_FOGBAND
 10
-18.640952594486858
 20
-92.637568219765797
 30
0.0
 40
0.2549509756796394
  0
INSERT
  5
15E4
  8
SAPA_FOGBAND
  6
CONTINUOUS
  2
*U99
 10
0.0
 20
0.0
 30
0.0
1001
ACAD
1002
{
1000
R14_HATCH_DATA
1000
15E4
1011
1.0
1021
0.0
1031
0.0
1021
0.0
1031
0.0
1011
0.0
1021
0.0
1031
0.0
1021
1.0
1031
0.0
1011
0.0
1021
0.0
1031
0.0
1021
0.0
1031
1.0
1040
0.0
1010
0.0
1020
0.0
1030
1.0
1000
SOLID
1070
     1
1070
     1
1071
        1
1071
        1
1071
        1
1070
     2
1040
-18.640952594486858
1040
-92.637568219765797
1040
0.2549509756796394
1040
0.0
1040
6.2831853071795862
1070
     1
1071
        1
1005
15E3
1070
     0
1070
     1
1071
        1
1040
-18.877691496056968
1040
-92.555716722436884
1040
0.0
1002
}
  0
POLYLINE
  5
15E5
  8
SAPA_FOGBAND
 66
     1
 10
0.0
 20
0.0
 30
0.0
 70
     1
  0
VERTEX
  5
2802
  8
SAPA_FOGBAND
 10
-17.740952594486881
 20
-95.599999999010322
 30
0.0
 42
0.9999999999999998
  0
VERTEX
  5
2803
  8
SAPA_FOGBAND
 10
-19.540952594486839
 20
-95.599999999010322
 30
0.0
  0
VERTEX
  5
2804
  8
SAPA_FOGBAND
 10
-19.540952594486839
 20
-96.199999999010345
 30
0.0
 42
0.9999999999999998
  0
VERTEX
  5
2805
  8
SAPA_FOGBAND
 10
-17.740952594486881
 20
-96.199999999010345
 30
0.0
  0
SEQEND
  5
2806
  8
SAPA_FOGBAND
  0
POLYLINE
  5
15E6
  8
SAPA_FOGBAND
 66
     1
 10
0.0
 20
0.0
 30
0.0
 70
     1
  0
VERTEX
  5
2807
  8
SAPA_FOGBAND
 10
-27.268828902660061
 20
-90.499999999010299
 30
0.0
 42
0.0775891054856093
  0
VERTEX
  5
2808
  8
SAPA_FOGBAND
 10
-23.802047172237511
 20
-90.816635983071635
 30
0.0
  0
VERTEX
  5
2809
  8
SAPA_FOGBAND
 10
-23.564157679408709
 20
-90.599999999010265
 30
0.0
 42
-0.5773502691896298
  0
VERTEX
  5
280A
  8
SAPA_FOGBAND
 10
-23.21774751789485
 20
-90.599999999010265
 30
0.0
  0
VERTEX
  5
280B
  8
SAPA_FOGBAND
 10
-22.97969990116405
 20
-90.816909853233327
 30
0.0
  0
VERTEX
  5
280C
  8
SAPA_FOGBAND
 10
-22.20220529124742
 20
-90.816909853233327
 30
0.0
  0
VERTEX
  5
280D
  8
SAPA_FOGBAND
 10
-21.964157679408689
 20
-90.599999999010265
 30
0.0
 42
-0.577350269189699
  0
VERTEX
  5
280E
  8
SAPA_FOGBAND
 10
-21.617747517894941
 20
-90.599999999010265
 30
0.0
  0
VERTEX
  5
280F
  8
SAPA_FOGBAND
 10
-21.379699901164152
 20
-90.816909853233327
 30
0.0
  0
VERTEX
  5
2810
  8
SAPA_FOGBAND
 10
-20.602205291247401
 20
-90.816909853233327
 30
0.0
  0
VERTEX
  5
2811
  8
SAPA_FOGBAND
 10
-20.36415767940866
 20
-90.599999999010265
 30
0.0
 42
-0.577350269189699
  0
VERTEX
  5
2812
  8
SAPA_FOGBAND
 10
-20.017747517894922
 20
-90.599999999010265
 30
0.0
  0
VERTEX
  5
2813
  8
SAPA_FOGBAND
 10
-19.779699901164118
 20
-90.816909853233327
 30
0.0
  0
VERTEX
  5
2814
  8
SAPA_FOGBAND
 10
-19.002205291247378
 20
-90.816909853233327
 30
0.0
  0
VERTEX
  5
2815
  8
SAPA_FOGBAND
 10
-18.764157679408751
 20
-90.599999999010265
 30
0.0
 42
-0.5773502691896298
  0
VERTEX
  5
2816
  8
SAPA_FOGBAND
 10
-18.417747517894892
 20
-90.599999999010265
 30
0.0
  0
VERTEX
  5
2817
  8
SAPA_FOGBAND
 10
-18.179699901164099
 20
-90.816909853233327
 30
0.0
  0
VERTEX
  5
2818
  8
SAPA_FOGBAND
 10
-17.402205291247348
 20
-90.816909853233327
 30
0.0
  0
VERTEX
  5
2819
  8
SAPA_FOGBAND
 10
-17.164157679408731
 20
-90.599999999010265
 30
0.0
 42
-0.5773502691896298
  0
VERTEX
  5
281A
  8
SAPA_FOGBAND
 10
-16.817747517894869
 20
-90.599999999010265
 30
0.0
  0
VERTEX
  5
281B
  8
SAPA_FOGBAND
 10
-16.579699901164069
 20
-90.816909853233327
 30
0.0
  0
VERTEX
  5
281C
  8
SAPA_FOGBAND
 10
-15.80220528708241
 20
-90.816909853233327
 30
0.0
  0
VERTEX
  5
281D
  8
SAPA_FOGBAND
 10
-15.564157675243679
 20
-90.599999999010265
 30
0.0
 42
-0.577350269189699
  0
VERTEX
  5
281E
  8
SAPA_FOGBAND
 10
-15.217747513729931
 20
-90.599999999010265
 30
0.0
  0
VERTEX
  5
281F
  8
SAPA_FOGBAND
 10
-14.417747514174829
 20
-91.67333006749476
 30
0.0
 42
-0.1316524987190269
  0
VERTEX
  5
2820
  8
SAPA_FOGBAND
 10
-14.39095259448686
 20
-91.773330068265466
 30
0.0
  0
VERTEX
  5
2821
  8
SAPA_FOGBAND
 10
-14.39095259448675
 20
-94.299999999010254
 30
0.0
 42
-0.4142135623730951
  0
VERTEX
  5
2822
  8
SAPA_FOGBAND
 10
-14.59095259448679
 20
-94.499999999010285
 30
0.0
  0
VERTEX
  5
2823
  8
SAPA_FOGBAND
 10
-16.640952594486858
 20
-94.499999999010285
 30
0.0
 42
0.4142135623730951
  0
VERTEX
  5
2824
  8
SAPA_FOGBAND
 10
-17.140952594486858
 20
-94.999999999010299
 30
0.0
  0
VERTEX
  5
2825
  8
SAPA_FOGBAND
 10
-17.140952594486858
 20
-95.726794918253447
 30
0.0
  0
VERTEX
  5
2826
  8
SAPA_FOGBAND
 10
-16.889188785466331
 20
-95.794254827563861
 30
0.0
 42
-0.4740571810232869
  0
VERTEX
  5
2827
  8
SAPA_FOGBAND
 10
-16.761894923102769
 20
-96.076537413202516
 30
0.0
  0
VERTEX
  5
2828
  8
SAPA_FOGBAND
 10
-17.381995425861302
 20
-97.522743549962286
 30
0.0
 42
-0.2846003776495916
  0
VERTEX
  5
2829
  8
SAPA_FOGBAND
 10
-17.829639604321532
 20
-97.799999999010254
 30
0.0
  0
VERTEX
  5
282A
  8
SAPA_FOGBAND
 10
-19.452265584652078
 20
-97.799999999010254
 30
0.0
 42
-0.2846003776495917
  0
VERTEX
  5
282B
  8
SAPA_FOGBAND
 10
-19.899909763112301
 20
-97.522743549962286
 30
0.0
  0
VERTEX
  5
282C
  8
SAPA_FOGBAND
 10
-20.520010265870841
 20
-96.076537413202516
 30
0.0
 42
-0.4740571810232869
  0
VERTEX
  5
282D
  8
SAPA_FOGBAND
 10
-20.392716403507279
 20
-95.794254827563861
 30
0.0
  0
VERTEX
  5
282E
  8
SAPA_FOGBAND
 10
-20.140952594486858
 20
-95.726794918253447
 30
0.0
  0
VERTEX
  5
282F
  8
SAPA_FOGBAND
 10
-20.140952594486858
 20
-94.999999999010299
 30
0.0
 42
0.4142135623730951
  0
VERTEX
  5
2830
  8
SAPA_FOGBAND
 10
-20.640952594486858
 20
-94.499999999010285
 30
0.0
  0
VERTEX
  5
2831
  8
SAPA_FOGBAND
 10
-23.69095259448682
 20
-94.499999999010285
 30
0.0
 42
0.4142135623730951
  0
VERTEX
  5
2832
  8
SAPA_FOGBAND
 10
-23.890952594486858
 20
-94.699999999010345
 30
0.0
  0
VERTEX
  5
2833
  8
SAPA_FOGBAND
 10
-23.890952594486748
 20
-95.599999999010322
 30
0.0
 42
-0.4142135623731784
  0
VERTEX
  5
2834
  8
SAPA_FOGBAND
 10
-24.090952594486801
 20
-95.799999999010254
 30
0.0
  0
VERTEX
  5
2835
  8
SAPA_FOGBAND
 10
-24.790952594486839
 20
-95.799999999010367
 30
0.0
 42
-0.4142135623730398
  0
VERTEX
  5
2836
  8
SAPA_FOGBAND
 10
-25.090952594486801
 20
-95.499999999010299
 30
0.0
  0
VERTEX
  5
2837
  8
SAPA_FOGBAND
 10
-25.090952594486801
 20
-94.689488222358762
 30
0.0
 42
0.1316524975873973
  0
VERTEX
  5
2838
  8
SAPA_FOGBAND
 10
-25.358901786917961
 20
-93.689488222358776
 30
0.0
  0
VERTEX
  5
2839
  8
SAPA_FOGBAND
 10
-30.52174693695838
 20
-91.099920230266818
 30
0.0
 42
-0.7057658529986604
  0
VERTEX
  5
283A
  8
SAPA_FOGBAND
 10
-30.25415376160004
 20
-90.499999999010299
 30
0.0
  0
SEQEND
  5
283B
  8
SAPA_FOGBAND
  0
POLYLINE
  5
15E7
  8
SAPA_FOGBAND
 66
     1
 10
0.0
 20
0.0
 30
0.0
 70
     1
  0
VERTEX
  5
283C
  8
SAPA_FOGBAND
 10
-19.30265078761656
 20
-70.185369502362676
 30
0.0
 42
-0.9999999999999998
  0
VERTEX
  5
283D
  8
SAPA_FOGBAND
 10
-21.102650787616572
 20
-70.185369502362676
 30
0.0
  0
VERTEX
  5
283E
  8
SAPA_FOGBAND
 10
-21.102650787616572
 20
-69.585369502362653
 30
0.0
 42
-0.9999999999999998
  0
VERTEX
  5
283F
  8
SAPA_FOGBAND
 10
-19.30265078761656
 20
-69.585369502362653
 30
0.0
  0
SEQEND
  5
2840
  8
SAPA_FOGBAND
  0
POLYLINE
  5
15E8
  8
SAPA_FOGBAND
 66
     1
 10
0.0
 20
0.0
 30
0.0
  0
VERTEX
  5
2841
  8
SAPA_FOGBAND
 10
-23.80265078761656
 20
-71.800000000001475
 30
0.0
  0
VERTEX
  5
2842
  8
SAPA_FOGBAND
 10
-23.80265078761656
 20
-71.500000000001421
 30
0.0
  0
VERTEX
  5
2843
  8
SAPA_FOGBAND
 10
-23.80265078761656
 20
-71.800000000001475
 30
0.0
 42
0.4142135623730951
  0
VERTEX
  5
2844
  8
SAPA_FOGBAND
 10
-23.30265078761656
 20
-72.300000000001489
 30
0.0
  0
VERTEX
  5
2845
  8
SAPA_FOGBAND
 10
-16.002650787616599
 20
-72.300000000001489
 30
0.0
 42
0.4142135623730951
  0
VERTEX
  5
2846
  8
SAPA_FOGBAND
 10
-15.5026507876166
 20
-71.800000000001475
 30
0.0
  0
VERTEX
  5
2847
  8
SAPA_FOGBAND
 10
-15.5026507876166
 20
-71.500000000001421
 30
0.0
  0
SEQEND
  5
2848
  8
SAPA_FOGBAND
  0
POLYLINE
  5
15E9
  8
SAPA_FOGBAND
 66
     1
 10
0.0
 20
0.0
 30
0.0
 70
     1
  0
VERTEX
  5
2849
  8
SAPA_FOGBAND
 10
-17.153582288121271
 20
-76.000000000001421
 30
0.0
  0
VERTEX
  5
284A
  8
SAPA_FOGBAND
 10
-20.239515824897332
 20
-76.000000000001421
 30
0.0
 42
0.9695372397405709
  0
VERTEX
  5
284B
  8
SAPA_FOGBAND
 10
-20.239515824897332
 20
-79.581531792786919
 30
0.0
  0
VERTEX
  5
284C
  8
SAPA_FOGBAND
 10
-17.153582288121271
 20
-79.581531792786919
 30
0.0
 42
0.9063837695480113
  0
SEQEND
  5
284D
  8
SAPA_FOGBAND
  0
POLYLINE
  5
15EA
  8
SAPA_FOGBAND
 66
     1
 10
0.0
 20
0.0
 30
0.0
 70
     1
  0
VERTEX
  5
284E
  8
SAPA_FOGBAND
 10
-7.87156158668492
 20
-78.511597533885592
 30
0.0
  0
VERTEX
  5
284F
  8
SAPA_FOGBAND
 10
-7.87156158668492
 20
-78.511597533885592
 30
0.0
 42
-0.611149385816862
  0
VERTEX
  5
2850
  8
SAPA_FOGBAND
 10
-7.9033127537496473
 20
-80.391839663250664
 30
0.0
  0
VERTEX
  5
2851
  8
SAPA_FOGBAND
 10
-11.893975530665809
 20
-80.95768157550512
 30
0.0
 42
-0.4464785874932439
  0
VERTEX
  5
2852
  8
SAPA_FOGBAND
 10
-13.0026507876166
 20
-79.963604270399202
 30
0.0
  0
VERTEX
  5
2853
  8
SAPA_FOGBAND
 10
-13.0026507876166
 20
-76.940292945534495
 30
0.0
 42
-0.622676997742357
  0
VERTEX
  5
2854
  8
SAPA_FOGBAND
 10
-11.39197630100298
 20
-76.148411217371049
 30
0.0
  0
VERTEX
  5
2855
  8
SAPA_FOGBAND
 10
-7.8715615866849191
 20
-78.511597533885592
 30
0.0
 42
-0.232531183213058
  0
SEQEND
  5
2856
  8
SAPA_FOGBAND
  0
POLYLINE
  5
15EB
  8
SAPA_FOGBAND
 66
     1
 10
0.0
 20
0.0
 30
0.0
 70
     1
  0
VERTEX
  5
2857
  8
SAPA_FOGBAND
 10
-18.702650787616591
 20
-70.058574583119537
 30
0.0
  0
VERTEX
  5
2858
  8
SAPA_FOGBAND
 10
-18.45088697859612
 20
-69.991114673809136
 30
0.0
 42
0.4740571810232144
  0
VERTEX
  5
2859
  8
SAPA_FOGBAND
 10
-18.323593116232502
 20
-69.708832088170482
 30
0.0
  0
VERTEX
  5
285A
  8
SAPA_FOGBAND
 10
-18.943693618991091
 20
-68.262625951410584
 30
0.0
 42
0.2846003776496053
  0
VERTEX
  5
285B
  8
SAPA_FOGBAND
 10
-19.391337797451261
 20
-67.98536950236263
 30
0.0
  0
VERTEX
  5
285C
  8
SAPA_FOGBAND
 10
-21.013963777781871
 20
-67.98536950236263
 30
0.0
 42
0.2846003776496027
  0
VERTEX
  5
285D
  8
SAPA_FOGBAND
 10
-21.46160795624203
 20
-68.262625951410584
 30
0.0
  0
VERTEX
  5
285E
  8
SAPA_FOGBAND
 10
-22.08170845900062
 20
-69.708832088170539
 30
0.0
 42
0.4740571810232332
  0
VERTEX
  5
285F
  8
SAPA_FOGBAND
 10
-21.954414596637061
 20
-69.991114673809136
 30
0.0
  0
VERTEX
  5
2860
  8
SAPA_FOGBAND
 10
-21.702650787616591
 20
-70.058574583119537
 30
0.0
  0
VERTEX
  5
2861
  8
SAPA_FOGBAND
 10
-21.702650787616591
 20
-71.000000000001421
 30
0.0
 42
-0.4142135623730951
  0
VERTEX
  5
2862
  8
SAPA_FOGBAND
 10
-22.202650787616591
 20
-71.500000000001421
 30
0.0
  0
VERTEX
  5
2863
  8
SAPA_FOGBAND
 10
-24.714810950998039
 20
-71.500000000001464
 30
0.0
 42
0.4027293761437467
  0
VERTEX
  5
2864
  8
SAPA_FOGBAND
 10
-25.01457850459591
 20
-71.788192637470786
 30
0.0
  0
VERTEX
  5
2865
  8
SAPA_FOGBAND
 10
-25.502418319265331
 20
-82.18819263747082
 30
0.0
 42
0.4257917699693538
  0
VERTEX
  5
2866
  8
SAPA_FOGBAND
 10
-25.202650765667471
 20
-82.500000000001464
 30
0.0
  0
VERTEX
  5
2867
  8
SAPA_FOGBAND
 10
-11.4971171064436
 20
-82.500000000001464
 30
0.0
  0
VERTEX
  5
2868
  8
SAPA_FOGBAND
 10
-5.8939755087167232
 20
-81.723465082318853
 30
0.0
 42
0.322530093016903
  0
VERTEX
  5
2869
  8
SAPA_FOGBAND
 10
-5.2026507656674541
 20
-80.729387777212878
 30
0.0
  0
VERTEX
  5
286A
  8
SAPA_FOGBAND
 10
-5.2026507656674541
 20
-78.498644220775304
 30
0.0
 42
0.2325311832130604
  0
VERTEX
  5
286B
  8
SAPA_FOGBAND
 10
-5.3973135223606743
 20
-78.102703356693496
 30
0.0
  0
VERTEX
  5
286C
  8
SAPA_FOGBAND
 10
-14.563876750268181
 20
-71.708118271837975
 30
0.0
 42
0.1657205760184606
  0
VERTEX
  5
286D
  8
SAPA_FOGBAND
 10
-15.17455123688179
 20
-71.500000000001421
 30
0.0
  0
VERTEX
  5
286E
  8
SAPA_FOGBAND
 10
-18.202650787616591
 20
-71.500000000001421
 30
0.0
 42
-0.4142135623730951
  0
VERTEX
  5
286F
  8
SAPA_FOGBAND
 10
-18.702650787616591
 20
-71.000000000001421
 30
0.0
  0
SEQEND
  5
2870
  8
SAPA_FOGBAND
  0
POLYLINE
  5
15EC
  8
SAPA_FOGBAND
 66
     1
 10
0.0
 20
0.0
 30
0.0
 70
     1
  0
VERTEX
  5
2871
  8
SAPA_FOGBAND
 10
28.49999999995018
 20
-4.9392260560683559
 30
0.0
  0
VERTEX
  5
2872
  8
SAPA_FOGBAND
 10
28.49999999995018
 20
-7.7725450204880877
 30
0.0
 42
-0.577350269189628
  0
VERTEX
  5
2873
  8
SAPA_FOGBAND
 10
28.049999999950131
 20
-8.0323526416235396
 30
0.0
  0
VERTEX
  5
2874
  8
SAPA_FOGBAND
 10
25.510201086716481
 20
-6.333387299871311
 30
0.0
 42
0.8769764629927237
  0
VERTEX
  5
2875
  8
SAPA_FOGBAND
 10
25.148069052360569
 20
-6.805326955362581
 30
0.0
  0
VERTEX
  5
2876
  8
SAPA_FOGBAND
 10
28.20710678113662
 20
-10.33239159560785
 30
0.0
 42
-0.1989123673796493
  0
VERTEX
  5
2877
  8
SAPA_FOGBAND
 10
28.49999999995018
 20
-11.03949837679429
 30
0.0
  0
VERTEX
  5
2878
  8
SAPA_FOGBAND
 10
28.49999999995018
 20
-12.955488910142639
 30
0.0
 42
-0.577350269189628
  0
VERTEX
  5
2879
  8
SAPA_FOGBAND
 10
28.049999999950131
 20
-13.215296531277859
 30
0.0
  0
VERTEX
  5
287A
  8
SAPA_FOGBAND
 10
25.511069839896859
 20
-11.833116593281691
 30
0.0
 42
0.8769764629928424
  0
VERTEX
  5
287B
  8
SAPA_FOGBAND
 10
25.14893780554095
 20
-12.30505624877296
 30
0.0
  0
VERTEX
  5
287C
  8
SAPA_FOGBAND
 10
29.282961428450541
 20
-15.907106783151541
 30
0.0
 42
0.1989123673796579
  0
VERTEX
  5
287D
  8
SAPA_FOGBAND
 10
29.990068209636981
 20
-16.20000000196487
 30
0.0
  0
VERTEX
  5
287E
  8
SAPA_FOGBAND
 10
29.99999999995018
 20
-16.20000000196487
 30
0.0
 42
0.4142135623730951
  0
VERTEX
  5
287F
  8
SAPA_FOGBAND
 10
30.99999999995018
 20
-15.20000000196487
 30
0.0
  0
VERTEX
  5
2880
  8
SAPA_FOGBAND
 10
32.164084599073682
 20
-7.9650075011976247
 30
0.0
 42
0.6261632875160376
  0
VERTEX
  5
2881
  8
SAPA_FOGBAND
 10
31.722117795647328
 20
-7.6551505726789406
 30
0.0
  0
VERTEX
  5
2882
  8
SAPA_FOGBAND
 10
31.44577614966121
 20
-7.8087885674677651
 30
0.0
 42
-0.5719685712689121
  0
VERTEX
  5
2883
  8
SAPA_FOGBAND
 10
30.999999999950401
 20
-7.5465876632443729
 30
0.0
  0
VERTEX
  5
2884
  8
SAPA_FOGBAND
 10
30.99999999995018
 20
-4.8000000019650102
 30
0.0
 42
-0.4142135623730118
  0
VERTEX
  5
2885
  8
SAPA_FOGBAND
 10
31.299999999950131
 20
-4.5000000019648283
 30
0.0
  0
VERTEX
  5
2886
  8
SAPA_FOGBAND
 10
32.699999999950222
 20
-4.5000000019650548
 30
0.0
 42
0.7754026414785753
  0
VERTEX
  5
2887
  8
SAPA_FOGBAND
 10
32.844707868256108
 20
-3.9372080065571491
 30
0.0
  0
VERTEX
  5
2888
  8
SAPA_FOGBAND
 10
25.501101552775459
 20
-0.2263232026260553
 30
0.0
 42
0.8680589103333867
  0
VERTEX
  5
2889
  8
SAPA_FOGBAND
 10
25.144261650113521
 20
-0.7012472323898252
 30
0.0
  0
VERTEX
  5
288A
  8
SAPA_FOGBAND
 10
28.20710678113662
 20
-4.2321192748819172
 30
0.0
 42
-0.1989123673796493
  0
SEQEND
  5
288B
  8
SAPA_FOGBAND
  0
LINE
  5
15ED
  8
SAPA_FOGBAND
 10
55.999999957889003
 20
0.5012846324048823
 30
0.0
 11
55.999999957889003
 21
0.5012846324048823
 31
0.0
  0
POLYLINE
  5
15EE
  8
SAPA_FOGBAND
 66
     1
 10
0.0
 20
0.0
 30
0.0
 70
   129
  0
VERTEX
  5
288C
  8
SAPA_FOGBAND
 10
109.2616023093728
 20
-31.98157281142505
 30
0.0
  0
VERTEX
  5
288D
  8
SAPA_FOGBAND
 10
109.295367309667
 20
-31.82343670629281
 30
0.0
  0
VERTEX
  5
288E
  8
SAPA_FOGBAND
 10
109.4092930477979
 20
-31.649919873871809
 30
0.0
  0
VERTEX
  5
288F
  8
SAPA_FOGBAND
 10
109.61689353640141
 20
-31.469831982135659
 30
0.0
  0
VERTEX
  5
2890
  8
SAPA_FOGBAND
 10
109.9153139485401
 20
-31.30012675531124
 30
0.0
  0
VERTEX
  5
2891
  8
SAPA_FOGBAND
 10
110.29221360991581
 20
-31.1540733173379
 30
0.0
  0
VERTEX
  5
2892
  8
SAPA_FOGBAND
 10
110.7314540121172
 20
-31.040661933157619
 30
0.0
  0
VERTEX
  5
2893
  8
SAPA_FOGBAND
 10
111.2149689890239
 20
-30.965822455004091
 30
0.0
  0
VERTEX
  5
2894
  8
SAPA_FOGBAND
 10
111.7234782720659
 20
-30.93312550753555
 30
0.0
  0
VERTEX
  5
2895
  8
SAPA_FOGBAND
 10
112.237020947492
 20
-30.944065717288201
 30
0.0
  0
VERTEX
  5
2896
  8
SAPA_FOGBAND
 10
112.7354980923235
 20
-30.998146920575
 30
0.0
  0
VERTEX
  5
2897
  8
SAPA_FOGBAND
 10
113.1992227239524
 20
-31.092856001621001
 30
0.0
  0
VERTEX
  5
2898
  8
SAPA_FOGBAND
 10
113.6094526504278
 20
-31.223497561339549
 30
0.0
  0
VERTEX
  5
2899
  8
SAPA_FOGBAND
 10
113.9489638094332
 20
-31.382736484058089
 30
0.0
  0
VERTEX
  5
289A
  8
SAPA_FOGBAND
 10
114.2031253002845
 20
-31.559601858181399
 30
0.0
  0
VERTEX
  5
289B
  8
SAPA_FOGBAND
 10
114.36327960949311
 20
-31.738507923878551
 30
0.0
  0
VERTEX
  5
289C
  8
SAPA_FOGBAND
 10
114.4346076824431
 20
-31.90401505003091
 30
0.0
  0
VERTEX
  5
289D
  8
SAPA_FOGBAND
 10
114.4346076824431
 20
-32.05913057281942
 30
0.0
  0
VERTEX
  5
289E
  8
SAPA_FOGBAND
 10
114.36327960949311
 20
-32.224637698972003
 30
0.0
  0
VERTEX
  5
289F
  8
SAPA_FOGBAND
 10
114.2031253002845
 20
-32.403543764669116
 30
0.0
  0
VERTEX
  5
28A0
  8
SAPA_FOGBAND
 10
113.9489638094332
 20
-32.580409138792398
 30
0.0
  0
VERTEX
  5
28A1
  8
SAPA_FOGBAND
 10
113.6094526504279
 20
-32.739648061510707
 30
0.0
  0
VERTEX
  5
28A2
  8
SAPA_FOGBAND
 10
113.1992227239524
 20
-32.870289621229077
 30
0.0
  0
VERTEX
  5
28A3
  8
SAPA_FOGBAND
 10
112.7354980923235
 20
-32.964998702275523
 30
0.0
  0
VERTEX
  5
28A4
  8
SAPA_FOGBAND
 10
112.237020947492
 20
-33.019079905562087
 30
0.0
  0
VERTEX
  5
28A5
  8
SAPA_FOGBAND
 10
111.7234782720659
 20
-33.030020115314962
 30
0.0
  0
VERTEX
  5
28A6
  8
SAPA_FOGBAND
 10
111.2149689890239
 20
-32.997323167846432
 30
0.0
  0
VERTEX
  5
28A7
  8
SAPA_FOGBAND
 10
110.7314540121173
 20
-32.922483689692911
 30
0.0
  0
VERTEX
  5
28A8
  8
SAPA_FOGBAND
 10
110.2922136099159
 20
-32.80907230551221
 30
0.0
  0
VERTEX
  5
28A9
  8
SAPA_FOGBAND
 10
109.9153139485401
 20
-32.663018867538831
 30
0.0
  0
VERTEX
  5
28AA
  8
SAPA_FOGBAND
 10
109.61689353640131
 20
-32.493313640714383
 30
0.0
  0
VERTEX
  5
28AB
  8
SAPA_FOGBAND
 10
109.4092930477978
 20
-32.313225748978439
 30
0.0
  0
VERTEX
  5
28AC
  8
SAPA_FOGBAND
 10
109.295367309667
 20
-32.139708916557503
 30
0.0
  0
SEQEND
  5
28AD
  8
SAPA_FOGBAND
  0
POLYLINE
  5
15EF
  8
SAPA_FOGBAND
 66
     1
 10
0.0
 20
0.0
 30
0.0
  0
VERTEX
  5
28AE
  8
SAPA_FOGBAND
 10
123.5517482504891
 20
-86.163511128413035
 30
0.0
 42
0.285714285714282
  0
VERTEX
  5
28AF
  8
SAPA_FOGBAND
 10
120.7517482504889
 20
-86.163511128413035
 30
0.0
  0
VERTEX
  5
28B0
  8
SAPA_FOGBAND
 10
118.6779680811012
 20
-86.163511128412566
 30
0.0
 42
-0.3882600129940275
  0
VERTEX
  5
28B1
  8
SAPA_FOGBAND
 10
118.3791665837596
 20
-85.890300402133022
 30
0.0
  0
VERTEX
  5
28B2
  8
SAPA_FOGBAND
 10
117.9129566598333
 20
-80.990300402132931
 30
0.0
 42
-0.4406523138893894
  0
VERTEX
  5
28B3
  8
SAPA_FOGBAND
 10
118.2117581571754
 20
-80.663511128413035
 30
0.0
  0
VERTEX
  5
28B4
  8
SAPA_FOGBAND
 10
119.9215501540955
 20
-80.663511128413035
 30
0.0
 42
-0.3394542588634375
  0
VERTEX
  5
28B5
  8
SAPA_FOGBAND
 10
120.2113279019821
 20
-80.885865414882019
 30
0.0
  0
VERTEX
  5
28B6
  8
SAPA_FOGBAND
 10
120.4137076299137
 20
-81.103451197049623
 30
0.0
 42
0.3394542588633663
  0
VERTEX
  5
28B7
  8
SAPA_FOGBAND
 10
120.70348537780031
 20
-81.325805483518621
 30
0.0
  0
VERTEX
  5
28B8
  8
SAPA_FOGBAND
 10
123.60001112317811
 20
-81.325805483518621
 30
0.0
 42
0.3394542588634373
  0
VERTEX
  5
28B9
  8
SAPA_FOGBAND
 10
123.8897888710647
 20
-81.103451197049623
 30
0.0
  0
VERTEX
  5
28BA
  8
SAPA_FOGBAND
 10
124.0921685989959
 20
-80.885865414882019
 30
0.0
 42
-0.3394542588633662
  0
VERTEX
  5
28BB
  8
SAPA_FOGBAND
 10
124.3819463468829
 20
-80.663511128413035
 30
0.0
  0
VERTEX
  5
28BC
  8
SAPA_FOGBAND
 10
126.091738343803
 20
-80.663511128413035
 30
0.0
 42
-0.4406523138893994
  0
VERTEX
  5
28BD
  8
SAPA_FOGBAND
 10
126.3905398411446
 20
-80.990300402132931
 30
0.0
  0
VERTEX
  5
28BE
  8
SAPA_FOGBAND
 10
125.9243299172183
 20
-85.890300402133022
 30
0.0
 42
-0.3882600129940462
  0
VERTEX
  5
28BF
  8
SAPA_FOGBAND
 10
125.6255284198767
 20
-86.163511128413035
 30
0.0
  0
VERTEX
  5
28C0
  8
SAPA_FOGBAND
 10
123.5633406273394
 20
-86.163511128413035
 30
0.0
  0
SEQEND
  5
28C1
  8
SAPA_FOGBAND
  0
POLYLINE
  5
15F0
  8
SAPA_FOGBAND
 66
     1
 10
0.0
 20
0.0
 30
0.0
 70
   129
  0
VERTEX
  5
28C2
  8
SAPA_FOGBAND
 10
116.9862618261453
 20
-30.81724472783884
 30
0.0
  0
VERTEX
  5
28C3
  8
SAPA_FOGBAND
 10
117.0200268264396
 20
-30.659108622706601
 30
0.0
  0
VERTEX
  5
28C4
  8
SAPA_FOGBAND
 10
117.13395256457051
 20
-30.485591790285589
 30
0.0
  0
VERTEX
  5
28C5
  8
SAPA_FOGBAND
 10
117.3415530531739
 20
-30.30550389854945
 30
0.0
  0
VERTEX
  5
28C6
  8
SAPA_FOGBAND
 10
117.63997346531281
 20
-30.135798671725031
 30
0.0
  0
VERTEX
  5
28C7
  8
SAPA_FOGBAND
 10
118.0168731266884
 20
-29.989745233751691
 30
0.0
  0
VERTEX
  5
28C8
  8
SAPA_FOGBAND
 10
118.4561135288898
 20
-29.876333849571399
 30
0.0
  0
VERTEX
  5
28C9
  8
SAPA_FOGBAND
 10
118.93962850579651
 20
-29.801494371417881
 30
0.0
  0
VERTEX
  5
28CA
  8
SAPA_FOGBAND
 10
119.44813778883859
 20
-29.768797423949341
 30
0.0
  0
VERTEX
  5
28CB
  8
SAPA_FOGBAND
 10
119.9616804642647
 20
-29.779737633701991
 30
0.0
  0
VERTEX
  5
28CC
  8
SAPA_FOGBAND
 10
120.4601576090962
 20
-29.83381883698879
 30
0.0
  0
VERTEX
  5
28CD
  8
SAPA_FOGBAND
 10
120.92388224072511
 20
-29.928527918034789
 30
0.0
  0
VERTEX
  5
28CE
  8
SAPA_FOGBAND
 10
121.3341121672004
 20
-30.05916947775334
 30
0.0
  0
VERTEX
  5
28CF
  8
SAPA_FOGBAND
 10
121.6736233262058
 20
-30.218408400471869
 30
0.0
  0
VERTEX
  5
28D0
  8
SAPA_FOGBAND
 10
121.9277848170571
 20
-30.395273774595189
 30
0.0
  0
VERTEX
  5
28D1
  8
SAPA_FOGBAND
 10
122.08793912626579
 20
-30.574179840292341
 30
0.0
  0
VERTEX
  5
28D2
  8
SAPA_FOGBAND
 10
122.15926719921571
 20
-30.73968696644469
 30
0.0
  0
VERTEX
  5
28D3
  8
SAPA_FOGBAND
 10
122.15926719921571
 20
-30.894802489233211
 30
0.0
  0
VERTEX
  5
28D4
  8
SAPA_FOGBAND
 10
122.08793912626579
 20
-31.06030961538579
 30
0.0
  0
VERTEX
  5
28D5
  8
SAPA_FOGBAND
 10
121.9277848170571
 20
-31.2392156810829
 30
0.0
  0
VERTEX
  5
28D6
  8
SAPA_FOGBAND
 10
121.6736233262058
 20
-31.416081055206192
 30
0.0
  0
VERTEX
  5
28D7
  8
SAPA_FOGBAND
 10
121.3341121672005
 20
-31.575319977924501
 30
0.0
  0
VERTEX
  5
28D8
  8
SAPA_FOGBAND
 10
120.92388224072511
 20
-31.70596153764286
 30
0.0
  0
VERTEX
  5
28D9
  8
SAPA_FOGBAND
 10
120.4601576090962
 20
-31.80067061868931
 30
0.0
  0
VERTEX
  5
28DA
  8
SAPA_FOGBAND
 10
119.9616804642646
 20
-31.854751821975881
 30
0.0
  0
VERTEX
  5
28DB
  8
SAPA_FOGBAND
 10
119.44813778883849
 20
-31.865692031728749
 30
0.0
  0
VERTEX
  5
28DC
  8
SAPA_FOGBAND
 10
118.93962850579651
 20
-31.832995084260219
 30
0.0
  0
VERTEX
  5
28DD
  8
SAPA_FOGBAND
 10
118.4561135288898
 20
-31.758155606106701
 30
0.0
  0
VERTEX
  5
28DE
  8
SAPA_FOGBAND
 10
118.01687312668849
 20
-31.644744221926
 30
0.0
  0
VERTEX
  5
28DF
  8
SAPA_FOGBAND
 10
117.63997346531281
 20
-31.498690783952611
 30
0.0
  0
VERTEX
  5
28E0
  8
SAPA_FOGBAND
 10
117.3415530531739
 20
-31.328985557128171
 30
0.0
  0
VERTEX
  5
28E1
  8
SAPA_FOGBAND
 10
117.13395256457039
 20
-31.14889766539223
 30
0.0
  0
VERTEX
  5
28E2
  8
SAPA_FOGBAND
 10
117.0200268264396
 20
-30.97538083297129
 30
0.0
  0
SEQEND
  5
28E3
  8
SAPA_FOGBAND
  0
POLYLINE
  5
15F1
  8
SAPA_FOGBAND
 66
     1
 10
0.0
 20
0.0
 30
0.0
 70
     1
  0
VERTEX
  5
28E4
  8
SAPA_FOGBAND
 10
103.295375813597
 20
-32.838714290911788
 30
0.0
 42
0.3915187749346351
  0
VERTEX
  5
28E5
  8
SAPA_FOGBAND
 10
104.2173535133704
 20
-33.835665904917199
 30
0.0
  0
VERTEX
  5
28E6
  8
SAPA_FOGBAND
 10
112.2759000141847
 20
-34.661986935415747
 30
0.0
 42
0.0195279011117888
  0
VERTEX
  5
28E7
  8
SAPA_FOGBAND
 10
112.314911164298
 20
-34.663511128413042
 30
0.0
  0
VERTEX
  5
28E8
  8
SAPA_FOGBAND
 10
125.99537581359679
 20
-34.663511128413042
 30
0.0
 42
0.4279663351069072
  0
VERTEX
  5
28E9
  8
SAPA_FOGBAND
 10
126.2950483813167
 20
-34.349498557053643
 30
0.0
  0
VERTEX
  5
28EA
  8
SAPA_FOGBAND
 10
125.8087484732371
 20
-26.961058296655128
 30
0.0
 42
0.4005932428724028
  0
VERTEX
  5
28EB
  8
SAPA_FOGBAND
 10
125.50907590551719
 20
-26.675070868014171
 30
0.0
  0
VERTEX
  5
28EC
  8
SAPA_FOGBAND
 10
123.6953758135967
 20
-26.675070868014171
 30
0.0
  0
VERTEX
  5
28ED
  8
SAPA_FOGBAND
 10
123.6953758135967
 20
-24.975070868014349
 30
0.0
 42
0.4142135623730951
  0
VERTEX
  5
28EE
  8
SAPA_FOGBAND
 10
123.3953758135965
 20
-24.675070868014171
 30
0.0
  0
VERTEX
  5
28EF
  8
SAPA_FOGBAND
 10
115.9765950499711
 20
-24.675070868014171
 30
0.0
 42
0.1379343940649189
  0
VERTEX
  5
28F0
  8
SAPA_FOGBAND
 10
115.4553767409222
 20
-24.821647482869061
 30
0.0
  0
VERTEX
  5
28F1
  8
SAPA_FOGBAND
 10
103.5347666590725
 20
-31.62886572077733
 30
0.0
 42
0.2613472755167633
  0
VERTEX
  5
28F2
  8
SAPA_FOGBAND
 10
103.295375813597
 20
-32.055577413349887
 30
0.0
  0
SEQEND
  5
28F3
  8
SAPA_FOGBAND
  0
POLYLINE
  5
15F2
  8
SAPA_FOGBAND
 66
     1
 10
0.0
 20
0.0
 30
0.0
  0
VERTEX
  5
28F4
  8
SAPA_FOGBAND
 10
123.5633406273394
 20
-86.163511128413035
 30
0.0
  0
VERTEX
  5
28F5
  8
SAPA_FOGBAND
 10
123.3709822073468
 20
-87.254429938565778
 30
0.0
  0
VERTEX
  5
28F6
  8
SAPA_FOGBAND
 10
123.8027787672488
 20
-87.370129478085715
 30
0.0
 42
-0.4430158954262519
  0
VERTEX
  5
28F7
  8
SAPA_FOGBAND
 10
123.9382558147925
 20
-87.633605906192685
 30
0.0
  0
VERTEX
  5
28F8
  8
SAPA_FOGBAND
 10
123.4613076215735
 20
-88.904093654110881
 30
0.0
 42
-0.3125358528825162
  0
VERTEX
  5
28F9
  8
SAPA_FOGBAND
 10
123.0868259084443
 20
-89.16351112841258
 30
0.0
  0
VERTEX
  5
28FA
  8
SAPA_FOGBAND
 10
121.216670592534
 20
-89.163511128413035
 30
0.0
 42
-0.3125358528825104
  0
VERTEX
  5
28FB
  8
SAPA_FOGBAND
 10
120.8421888794044
 20
-88.904093654110881
 30
0.0
  0
VERTEX
  5
28FC
  8
SAPA_FOGBAND
 10
120.3652406861855
 20
-87.633605906192685
 30
0.0
 42
-0.4430158954262519
  0
VERTEX
  5
28FD
  8
SAPA_FOGBAND
 10
120.5007177337295
 20
-87.370129478085715
 30
0.0
  0
VERTEX
  5
28FE
  8
SAPA_FOGBAND
 10
120.9325142936312
 20
-87.254429938565778
 30
0.0
  0
VERTEX
  5
28FF
  8
SAPA_FOGBAND
 10
120.7433704372886
 20
-86.181741824798237
 30
0.0
  0
SEQEND
  5
2900
  8
SAPA_FOGBAND
  0
DIMENSION
  5
15FB
  8
SAPA_MATT
  2
*D88
 10
125.4999997021782
 20
-134.49999999901041
 30
0.0
 11
106.7499997021782
 21
-131.74999999901041
 31
0.0
 70
     0
 13
87.999999702178201
 23
-89.498715301570059
 33
0.0
 14
125.4999997021782
 24
-87.500000006768246
 34
0.0
1001
ACAD
1000
DSTYLE
1002
{
1070
    40
1040
1.0
1002
}
  0
DIMENSION
  5
15FC
  8
SAPA_MATT
  2
*D87
 10
87.999999702178201
 20
-134.49999999901041
 30
0.0
 11
85.499999851060736
 21
-134.49999999901041
 31
0.0
 70
   128
  1
5
 13
82.999999999943299
 23
-89.998715170683127
 33
0.0
 14
87.999999702178201
 24
-89.998715301570059
 34
0.0
1001
ACAD
1000
DSTYLE
1002
{
1070
    40
1040
1.0
1070
   271
1070
     6
1002
}
  0
DIMENSION
  5
15FD
  8
SAPA_MATT
  2
*D86
 10
25.000000000097859
 20
-134.49999999901041
 30
0.0
 11
54.000000000020577
 21
-131.74999999901041
 31
0.0
 70
     0
 13
82.999999999943299
 23
-89.998715170683127
 33
0.0
 14
25.000000000097859
 24
-113.9999999990104
 34
0.0
1001
ACAD
1000
DSTYLE
1002
{
1070
    40
1040
1.0
1002
}
  0
DIMENSION
  5
15FE
  8
SAPA_MATT
  2
*D89
 10
24.999999999999091
 20
-134.49999999901041
 30
0.0
 11
-0.0000000000009093
 21
-131.74999999901041
 31
0.0
 70
     0
 13
-25.000000000000909
 23
-113.9999999990104
 33
0.0
 14
24.999999999999091
 24
-113.9999999990104
 34
0.0
1001
ACAD
1000
DSTYLE
1002
{
1070
    40
1040
1.0
1002
}
  0
VIEWPORT
  5
C4
 67
     1
  8
0
 10
143.06236603067589
 20
116.00969601843509
 30
0.0
 40
369.98580003443811
 41
256.8421457311839
 68
     1
 69
     1
1001
ACAD
1000
MVIEW
1002
{
1070
    16
1010
0.0
1020
0.0
1030
0.0
1010
0.0
1020
0.0
1030
1.0
1040
0.0
1040
256.8421457311839
1040
99.112914085388169
1040
143.07606935501099
1040
50.0
1040
0.0
1040
0.0
1070
     0
1070
     0
1070
     1
1070
     1
1070
     0
1070
     0
1070
     0
1070
     0
1040
0.0
1040
0.0
1040
0.0
1040
10.0
1040
10.0
1040
10.0
1040
10.0
1070
     0
1002
{
1002
}
1002
}
  0
ENDSEC
  0
EOF
