  0
SECTION
  2
HEADER
  9
$ACADVER
  1
AC1009
  9
$INSBASE
 10
0.0
 20
0.0
 30
0.0
  9
$EXTMIN
 10
-131.35577945947051
 20
-184.26544877857509
 30
0.0
  9
$EXTMAX
 10
82.009403434165677
 20
75.551914392872391
 30
0.1
  9
$LIMMIN
 10
0.0
 20
0.0
  9
$LIMMAX
 10
790.0
 20
790.0
  9
$ORTHOMODE
 70
     0
  9
$REGENMODE
 70
     1
  9
$FILLMODE
 70
     1
  9
$QTEXTMODE
 70
     0
  9
$MIRRTEXT
 70
     1
  9
$DRAGMODE
 70
     2
  9
$LTSCALE
 40
4.0
  9
$OSMODE
 70
   167
  9
$ATTMODE
 70
     1
  9
$TEXTSIZE
 40
3.5
  9
$TRACEWID
 40
0.05
  9
$TEXTSTYLE
  7
ISO
  9
$CLAYER
  8
0
  9
$CELTYPE
  6
BYLAYER
  9
$CECOLOR
 62
   256
  9
$DIMSCALE
 40
0.0
  9
$DIMASZ
 40
3.0
  9
$DIMEXO
 40
1.5
  9
$DIMDLI
 40
10.0
  9
$DIMRND
 40
0.0
  9
$DIMDLE
 40
0.0
  9
$DIMEXE
 40
1.5
  9
$DIMTP
 40
0.0
  9
$DIMTM
 40
0.0
  9
$DIMTXT
 40
3.0
  9
$DIMCEN
 40
-5.0
  9
$DIMTSZ
 40
0.0
  9
$DIMTOL
 70
     0
  9
$DIMLIM
 70
     0
  9
$DIMTIH
 70
     0
  9
$DIMTOH
 70
     0
  9
$DIMSE1
 70
     0
  9
$DIMSE2
 70
     0
  9
$DIMTAD
 70
     1
  9
$DIMZIN
 70
     8
  9
$DIMBLK
  1

  9
$DIMASO
 70
     1
  9
$DIMSHO
 70
     1
  9
$DIMPOST
  1

  9
$DIMAPOST
  1

  9
$DIMALT
 70
     0
  9
$DIMALTD
 70
     0
  9
$DIMALTF
 40
25.399999999999999
  9
$DIMLFAC
 40
-1.0
  9
$DIMTOFL
 70
     1
  9
$DIMTVP
 40
0.0
  9
$DIMTIX
 70
     0
  9
$DIMSOXD
 70
     0
  9
$DIMSAH
 70
     0
  9
$DIMBLK1
  1

  9
$DIMBLK2
  1

  9
$DIMSTYLE
  2
MASKIN
  9
$DIMCLRD
 70
   256
  9
$DIMCLRE
 70
   256
  9
$DIMCLRT
 70
     2
  9
$DIMTFAC
 40
1.0
  9
$DIMGAP
 40
1.0
  9
$LUNITS
 70
     2
  9
$LUPREC
 70
     8
  9
$SKETCHINC
 40
0.1
  9
$FILLETRAD
 40
0.0
  9
$AUNITS
 70
     0
  9
$AUPREC
 70
     8
  9
$MENU
  1
ACAD
  9
$ELEVATION
 40
0.0
  9
$PELEVATION
 40
0.0
  9
$THICKNESS
 40
0.0
  9
$LIMCHECK
 70
     0
  9
$BLIPMODE
 70
     0
  9
$CHAMFERA
 40
0.0
  9
$CHAMFERB
 40
0.0
  9
$SKPOLY
 70
     0
  9
$TDCREATE
 40
2454868.6239902088
  9
$TDUPDATE
 40
2458453.4513286338
  9
$TDINDWG
 40
0.0214135185
  9
$TDUSRTIMER
 40
0.0214133333
  9
$USRTIMER
 70
     1
  9
$ANGBASE
 50
0.0
  9
$ANGDIR
 70
     0
  9
$PDMODE
 70
     0
  9
$PDSIZE
 40
0.0
  9
$PLINEWID
 40
0.0
  9
$COORDS
 70
     1
  9
$SPLFRAME
 70
     0
  9
$SPLINETYPE
 70
     6
  9
$SPLINESEGS
 70
     8
  9
$ATTDIA
 70
     1
  9
$ATTREQ
 70
     1
  9
$HANDLING
 70
     1
  9
$HANDSEED
  5
2C88
  9
$SURFTAB1
 70
     6
  9
$SURFTAB2
 70
     6
  9
$SURFTYPE
 70
     6
  9
$SURFU
 70
     6
  9
$SURFV
 70
     6
  9
$UCSNAME
  2

  9
$UCSORG
 10
0.0
 20
0.0
 30
0.0
  9
$UCSXDIR
 10
1.0
 20
0.0
 30
0.0
  9
$UCSYDIR
 10
0.0
 20
1.0
 30
0.0
  9
$PUCSNAME
  2

  9
$PUCSORG
 10
0.0
 20
0.0
 30
0.0
  9
$PUCSXDIR
 10
1.0
 20
0.0
 30
0.0
  9
$PUCSYDIR
 10
0.0
 20
1.0
 30
0.0
  9
$USERI1
 70
     0
  9
$USERI2
 70
     0
  9
$USERI3
 70
     0
  9
$USERI4
 70
     0
  9
$USERI5
 70
     0
  9
$USERR1
 40
0.0
  9
$USERR2
 40
0.0
  9
$USERR3
 40
0.0
  9
$USERR4
 40
0.0
  9
$USERR5
 40
0.0
  9
$WORLDVIEW
 70
     1
  9
$SHADEDGE
 70
     3
  9
$SHADEDIF
 70
    70
  9
$TILEMODE
 70
     1
  9
$MAXACTVP
 70
    16
  9
$PLIMCHECK
 70
     0
  9
$PEXTMIN
 10
1.0000000000000000E+020
 20
1.0000000000000000E+020
 30
1.0000000000000000E+020
  9
$PEXTMAX
 10
-1.0000000000000000E+020
 20
-1.0000000000000000E+020
 30
-1.0000000000000000E+020
  9
$PLIMMIN
 10
-5.069427490234375
 20
-5.8737497329711914
  9
$PLIMMAX
 10
291.89889526367187
 20
204.0995779037475
  9
$UNITMODE
 70
     0
  9
$VISRETAIN
 70
     1
  9
$PLINEGEN
 70
     0
  9
$PSLTSCALE
 70
     1
  0
ENDSEC
  0
SECTION
  2
TABLES
  0
TABLE
  2
VPORT
 70
     1
  0
VPORT
  2
*ACTIVE
 70
     0
 10
0.0
 20
0.0
 11
1.0
 21
1.0
 12
118.7550934138761
 22
159.9245276976626
 13
0.0
 23
0.0
 14
1.0
 24
1.0
 15
0.0
 25
0.0
 16
0.0
 26
0.0
 36
1.0
 17
0.0
 27
0.0
 37
0.0
 40
598.89563058439273
 41
1.7265193370165739
 42
50.0
 43
0.0
 44
0.0
 50
0.0
 51
0.0
 71
     0
 72
   100
 73
     1
 74
     1
 75
     0
 76
     0
 77
     0
 78
     0
  0
ENDTAB
  0
TABLE
  2
LTYPE
 70
    53
  0
LTYPE
  2
CONTINUOUS
 70
     0
  3
Solid line
 72
    65
 73
     0
 40
0.0
  0
LTYPE
  2
BYGG-01482201$0$NEWDOT
 70
     0
  3
____ . ____ . ____ . ____ . ____ . ____ . ____
 72
    65
 73
     4
 40
2.0
 49
1.0
 49
-0.5
 49
0.0
 49
-0.5
  0
LTYPE
  2
BYGG-014357$0$NEWDOT
 70
     0
  3
____ . ____ . ____ . ____ . ____ . ____ . ____
 72
    65
 73
     4
 40
2.0
 49
1.0
 49
-0.5
 49
0.0
 49
-0.5
  0
LTYPE
  2
BYGG-014357$0$DASHDOT
 70
     0
  3
__ . __ . __ . __ . __ . __ . __ . __ . __ . __
 72
    65
 73
     4
 40
1.0
 49
0.5
 49
-0.25
 49
0.0
 49
-0.25
  0
LTYPE
  2
BYGG-014357$0$DASHED
 70
     0
  3
__ __ __ __ __ __ __ __ __ __ __ __ __ __ __
 72
    65
 73
     2
 40
0.75
 49
0.5
 49
-0.25
  0
LTYPE
  2
BYGG-014279$0$NEWDOT
 70
     0
  3
____ . ____ . ____ . ____ . ____ . ____ . ____
 72
    65
 73
     4
 40
2.0
 49
1.0
 49
-0.5
 49
0.0
 49
-0.5
  0
LTYPE
  2
BYGG-01482201$0$ZIGZAG
 70
     0
  3
Zig zag /\/\/\/\/\/\/\/\/\/\/\/\/\/\/\/\/\/\/\/\/\/\/\/
 72
    65
 73
     4
 40
20.32254
 49
0.00254
 49
-5.0800000000000001
 49
-10.16
 49
-5.0800000000000001
  0
LTYPE
  2
BYGG-025060$0$NEWDOT
 70
     0
  3
____ . ____ . ____ . ____ . ____ . ____ . ____
 72
    65
 73
     4
 40
2.0
 49
1.0
 49
-0.5
 49
0.0
 49
-0.5
  0
LTYPE
  2
BYGG-012216$0$DASHDOT
 70
     0
  3
__ . __ . __ . __ . __ . __ . __ . __ . __ . __
 72
    65
 73
     4
 40
1.0
 49
0.5
 49
-0.25
 49
0.0
 49
-0.25
  0
LTYPE
  2
BYGG-024800$0$NEWDOT
 70
     0
  3
____ . ____ . ____ . ____ . ____ . ____ . ____
 72
    65
 73
     4
 40
2.0
 49
1.0
 49
-0.5
 49
0.0
 49
-0.5
  0
LTYPE
  2
BYGG-024807$0$NEWDOT
 70
     0
  3
____ . ____ . ____ . ____ . ____ . ____ . ____
 72
    65
 73
     4
 40
2.0
 49
1.0
 49
-0.5
 49
0.0
 49
-0.5
  0
LTYPE
  2
BYGG-024807$0$DASHDOT
 70
     0
  3
__ . __ . __ . __ . __ . __ . __ . __ . __ . __
 72
    65
 73
     4
 40
1.0
 49
0.5
 49
-0.25
 49
0.0
 49
-0.25
  0
LTYPE
  2
BYGG-014279$0$ZIGZAG
 70
     0
  3
Zig zag /\/\/\/\/\/\/\/\/\/\/\/\/\/\/\/\/\/\/\/\/\/\/\/
 72
    65
 73
     4
 40
20.32254
 49
0.00254
 49
-5.0800000000000001
 49
-10.16
 49
-5.0800000000000001
  0
LTYPE
  2
BYGG-020805$0$NEWDOT
 70
     0
  3
____ . ____ . ____ . ____ . ____ . ____ . ____
 72
    65
 73
     4
 40
2.0
 49
1.0
 49
-0.5
 49
0.0
 49
-0.5
  0
LTYPE
  2
BYGG-020805$0$DASHDOT
 70
     0
  3
__ . __ . __ . __ . __ . __ . __ . __ . __ . __
 72
    65
 73
     4
 40
1.0
 49
0.5
 49
-0.25
 49
0.0
 49
-0.25
  0
LTYPE
  2
BYGG-020805$0$DASHED
 70
     0
  3
__ __ __ __ __ __ __ __ __ __ __ __ __ __ __
 72
    65
 73
     2
 40
0.75
 49
0.5
 49
-0.25
  0
LTYPE
  2
BYGG-020805$0$PHANTOM
 70
     0
  3
Phantom ______  __  __  ______  __  __  ______
 72
    65
 73
     6
 40
63.5
 49
31.75
 49
-6.3499999999999988
 49
6.3499999999999988
 49
-6.3499999999999988
 49
6.3499999999999988
 49
-6.3499999999999988
  0
LTYPE
  2
BYGG-033167$0$NEWDOT
 70
     0
  3
____ . ____ . ____ . ____ . ____ . ____ . ____
 72
    65
 73
     4
 40
2.0
 49
1.0
 49
-0.5
 49
0.0
 49
-0.5
  0
LTYPE
  2
BYGG-033167$0$DASHDOT
 70
     0
  3
__ . __ . __ . __ . __ . __ . __ . __ . __ . __
 72
    65
 73
     4
 40
1.0
 49
0.5
 49
-0.25
 49
0.0
 49
-0.25
  0
LTYPE
  2
BYGG-033167$0$DASHED
 70
     0
  3
__ __ __ __ __ __ __ __ __ __ __ __ __ __ __
 72
    65
 73
     2
 40
0.75
 49
0.5
 49
-0.25
  0
LTYPE
  2
BYGG-033167$0$PHANTOM
 70
     0
  3
Phantom ______  __  __  ______  __  __  ______
 72
    65
 73
     6
 40
63.5
 49
31.75
 49
-6.3499999999999988
 49
6.3499999999999988
 49
-6.3499999999999988
 49
6.3499999999999988
 49
-6.3499999999999988
  0
LTYPE
  2
BYGG-033167$0$BYGG-020132$
 70
     0
  3
____ . ____ . ____ . ____ . ____ . ____ . ____
 72
    65
 73
     4
 40
2.0
 49
1.0
 49
-0.5
 49
0.0
 49
-0.5
  0
LTYPE
  2
BYGG-033167$0$BYGG-024943$
 70
     0
  3
____ . ____ . ____ . ____ . ____ . ____ . ____
 72
    65
 73
     4
 40
2.0
 49
1.0
 49
-0.5
 49
0.0
 49
-0.5
  0
LTYPE
  2
BYGG-026410$0$NEWDOT
 70
     0
  3
____ . ____ . ____ . ____ . ____ . ____ . ____
 72
    65
 73
     4
 40
2.0
 49
1.0
 49
-0.5
 49
0.0
 49
-0.5
  0
LTYPE
  2
BYGG-026410$0$DASHDOT
 70
     0
  3
__ . __ . __ . __ . __ . __ . __ . __ . __ . __
 72
    65
 73
     4
 40
1.0
 49
0.5
 49
-0.25
 49
0.0
 49
-0.25
  0
LTYPE
  2
BYGG-026410$0$DASHED
 70
     0
  3
__ __ __ __ __ __ __ __ __ __ __ __ __ __ __
 72
    65
 73
     2
 40
0.75
 49
0.5
 49
-0.25
  0
LTYPE
  2
BYGG-026410$0$PHANTOM
 70
     0
  3
Phantom ______  __  __  ______  __  __  ______
 72
    65
 73
     6
 40
63.5
 49
31.75
 49
-6.3499999999999988
 49
6.3499999999999988
 49
-6.3499999999999988
 49
6.3499999999999988
 49
-6.3499999999999988
  0
LTYPE
  2
BYGG-033227$0$NEWDOT
 70
     0
  3
____ . ____ . ____ . ____ . ____ . ____ . ____
 72
    65
 73
     4
 40
2.0
 49
1.0
 49
-0.5
 49
0.0
 49
-0.5
  0
LTYPE
  2
BYGG-033227$0$DASHDOT
 70
     0
  3
__ . __ . __ . __ . __ . __ . __ . __ . __ . __
 72
    65
 73
     4
 40
1.0
 49
0.5
 49
-0.25
 49
0.0
 49
-0.25
  0
LTYPE
  2
BYGG-033227$0$DASHED
 70
     0
  3
__ __ __ __ __ __ __ __ __ __ __ __ __ __ __
 72
    65
 73
     2
 40
0.75
 49
0.5
 49
-0.25
  0
LTYPE
  2
BYGG-033227$0$PHANTOM
 70
     0
  3
Phantom ______  __  __  ______  __  __  ______
 72
    65
 73
     6
 40
63.5
 49
31.75
 49
-6.3499999999999988
 49
6.3499999999999988
 49
-6.3499999999999988
 49
6.3499999999999988
 49
-6.3499999999999988
  0
LTYPE
  2
BYGG-029021$0$NEWDOT
 70
     0
  3
____ . ____ . ____ . ____ . ____ . ____ . ____
 72
    65
 73
     4
 40
2.0
 49
1.0
 49
-0.5
 49
0.0
 49
-0.5
  0
LTYPE
  2
BYGG-029021$0$DASHDOT
 70
     0
  3
__ . __ . __ . __ . __ . __ . __ . __ . __ . __
 72
    65
 73
     4
 40
1.0
 49
0.5
 49
-0.25
 49
0.0
 49
-0.25
  0
LTYPE
  2
BYGG-029021$0$DASHED
 70
     0
  3
__ __ __ __ __ __ __ __ __ __ __ __ __ __ __
 72
    65
 73
     2
 40
0.75
 49
0.5
 49
-0.25
  0
LTYPE
  2
BYGG-029021$0$PHANTOM
 70
     0
  3
Phantom ______  __  __  ______  __  __  ______
 72
    65
 73
     6
 40
63.5
 49
31.75
 49
-6.3499999999999988
 49
6.3499999999999988
 49
-6.3499999999999988
 49
6.3499999999999988
 49
-6.3499999999999988
  0
LTYPE
  2
BYGG-029021$0$DASHED2
 70
     0
  3
_ _ _ _ _ _ _ _ _ _ _ _ _ _ _ _ _ _ _ _ _ _ _ _ _ _ _ _ _ _ _
 72
    65
 73
     2
 40
0.375
 49
0.25
 49
-0.125
  0
LTYPE
  2
BYGG-01409101$0$DASHDOT
 70
     0
  3
__ . __ . __ . __ . __ . __ . __ . __ . __ . __
 72
    65
 73
     4
 40
1.0
 49
0.5
 49
-0.25
 49
0.0
 49
-0.25
  0
LTYPE
  2
BYGG-01409101$0$HIDDEN
 70
     0
  3
_ _ _ _ _ _ _ _ _ _ _ _ _ _ _ _ _ _ _ _ _ _ _
 72
    65
 73
     2
 40
0.375
 49
0.25
 49
-0.125
  0
LTYPE
  2
BYGG-025652$0$NEWDOT
 70
     0
  3
____ . ____ . ____ . ____ . ____ . ____ . ____
 72
    65
 73
     4
 40
2.0
 49
1.0
 49
-0.5
 49
0.0
 49
-0.5
  0
LTYPE
  2
BYGG-025652$0$DASHDOT
 70
     0
  3
__ . __ . __ . __ . __ . __ . __ . __ . __ . __
 72
    65
 73
     4
 40
1.0
 49
0.5
 49
-0.25
 49
0.0
 49
-0.25
  0
LTYPE
  2
BYGG-025652$0$DASHED
 70
     0
  3
__ __ __ __ __ __ __ __ __ __ __ __ __ __ __
 72
    65
 73
     2
 40
0.75
 49
0.5
 49
-0.25
  0
LTYPE
  2
BYGG-025652$0$PHANTOM
 70
     0
  3
Phantom ______  __  __  ______  __  __  ______
 72
    65
 73
     6
 40
63.5
 49
31.75
 49
-6.3499999999999988
 49
6.3499999999999988
 49
-6.3499999999999988
 49
6.3499999999999988
 49
-6.3499999999999988
  0
LTYPE
  2
BYGG-014411$0$NEWDOT
 70
     0
  3
____ . ____ . ____ . ____ . ____ . ____ . ____
 72
    65
 73
     4
 40
2.0
 49
1.0
 49
-0.5
 49
0.0
 49
-0.5
  0
LTYPE
  2
BYGG-014411$0$ZIGZAG
 70
     0
  3
Zig zag /\/\/\/\/\/\/\/\/\/\/\/\/\/\/\/\/\/\/\/\/\/\/\/
 72
    65
 73
     4
 40
20.32254
 49
0.00254
 49
-5.0800000000000001
 49
-10.16
 49
-5.0800000000000001
  0
LTYPE
  2
BYGG-033227$0$PHANTOM2
 70
     0
  3
Phantom (.5x) ___ _ _ ___ _ _ ___ _ _ ___ _ _
 72
    65
 73
     6
 40
1.25
 49
0.625
 49
-0.125
 49
0.125
 49
-0.125
 49
0.125
 49
-0.125
  0
LTYPE
  2
BYGG-025060$0$DASHDOT
 70
     0
  3
__ . __ . __ . __ . __ . __ . __ . __ . __ . __
 72
    65
 73
     4
 40
1.0
 49
0.5
 49
-0.25
 49
0.0
 49
-0.25
  0
LTYPE
  2
BYGG-01409101$0$PHANTOM2
 70
     0
  3
Phantom (.5x) ___ _ _ ___ _ _ ___ _ _ ___ _ _
 72
    65
 73
     6
 40
1.25
 49
0.625
 49
-0.125
 49
0.125
 49
-0.125
 49
0.125
 49
-0.125
  0
LTYPE
  2
BYGG-029021$0$PHANTOM2
 70
     0
  3
Phantom (.5x) ___ _ _ ___ _ _ ___ _ _ ___ _ _
 72
    65
 73
     6
 40
1.25
 49
0.625
 49
-0.125
 49
0.125
 49
-0.125
 49
0.125
 49
-0.125
  0
LTYPE
  2
BYGG-024800$0$DASHDOT
 70
     0
  3
__ . __ . __ . __ . __ . __ . __ . __ . __ . __
 72
    65
 73
     4
 40
1.0
 49
0.5
 49
-0.25
 49
0.0
 49
-0.25
  0
LTYPE
  2
BYGG-025652$0$PHANTOM2
 70
     0
  3
Phantom (.5x) ___ _ _ ___ _ _ ___ _ _ ___ _ _
 72
    65
 73
     6
 40
1.25
 49
0.625
 49
-0.125
 49
0.125
 49
-0.125
 49
0.125
 49
-0.125
  0
LTYPE
  2
BYGG-014411$0$PHANTOM2
 70
     0
  3
Phantom (.5x) ___ _ _ ___ _ _ ___ _ _ ___ _ _
 72
    65
 73
     6
 40
1.25
 49
0.625
 49
-0.125
 49
0.125
 49
-0.125
 49
0.125
 49
-0.125
  0
LTYPE
  2
BYGG-014090$0$PHANTOM2
 70
     0
  3
Phantom (.5x) ___ _ _ ___ _ _ ___ _ _ ___ _ _
 72
    65
 73
     6
 40
1.25
 49
0.625
 49
-0.125
 49
0.125
 49
-0.125
 49
0.125
 49
-0.125
  0
LTYPE
  2
BYGG-014088$0$PHANTOM2
 70
     0
  3
Phantom (.5x) ___ _ _ ___ _ _ ___ _ _ ___ _ _
 72
    65
 73
     6
 40
1.25
 49
0.625
 49
-0.125
 49
0.125
 49
-0.125
 49
0.125
 49
-0.125
  0
ENDTAB
  0
TABLE
  2
LAYER
 70
   315
  0
LAYER
  2
0
 70
     0
 62
     7
  6
CONTINUOUS
  0
LAYER
  2
DEFPOINTS
 70
     0
 62
     7
  6
CONTINUOUS
  0
LAYER
  2
SAPA_ARTIKELNR
 70
     0
 62
     4
  6
CONTINUOUS
  0
LAYER
  2
SAPA_LIGHT
 70
     1
 62
     1
  6
CONTINUOUS
  0
LAYER
  2
SAPA_FYLLNING
 70
     0
 62
     4
  6
CONTINUOUS
  0
LAYER
  2
SAPA_ISOLATOR
 70
     0
 62
     4
  6
CONTINUOUS
  0
LAYER
  2
SAPA_MATT
 70
     0
 62
     1
  6
CONTINUOUS
  0
LAYER
  2
SAPA_GLAS
 70
     0
 62
     4
  6
CONTINUOUS
  0
LAYER
  2
SAPA_FOGBAND
 70
     0
 62
     2
  6
CONTINUOUS
  0
LAYER
  2
SAPA_PROFIL
 70
     0
 62
     7
  6
CONTINUOUS
  0
ENDTAB
  0
TABLE
  2
STYLE
 70
    63
  0
STYLE
  2
STANDARD
 70
     0
 40
0.0
 41
1.0
 50
0.0
 71
     0
 42
0.2
  3
txt
  4

  0
STYLE
  2
ISO
 70
     0
 40
0.0
 41
1.0
 50
0.0
 71
     0
 42
3.5
  3
txt
  4

  0
STYLE
  2

 70
     1
 40
0.0
 41
1.0
 50
0.0
 71
     0
 42
0.2
  3
ltypeshp.shx
  4

  0
STYLE
  2
BYGG-021589$0$STANDARD
 70
     0
 40
0.0
 41
1.0
 50
0.0
 71
     0
 42
0.2
  3
txt
  4

  0
STYLE
  2
BYGG-021589$0$ISO
 70
     0
 40
0.0
 41
1.0
 50
0.0
 71
     0
 42
3.5
  3
isocp3.shx
  4

  0
STYLE
  2
BYGG-01482201$0$STANDARD
 70
     0
 40
0.0
 41
1.0
 50
0.0
 71
     0
 42
0.2
  3
txt
  4

  0
STYLE
  2
BYGG-01482201$0$ISO
 70
     0
 40
0.0
 41
1.0
 50
0.0
 71
     0
 42
3.5
  3
isocp3.shx
  4

  0
STYLE
  2
BYGG-021802$0$STANDARD
 70
     0
 40
0.0
 41
1.0
 50
0.0
 71
     0
 42
0.2
  3
txt
  4

  0
STYLE
  2
BYGG-021802$0$ISO
 70
     0
 40
0.0
 41
1.0
 50
0.0
 71
     0
 42
3.5
  3
isocp3.shx
  4

  0
STYLE
  2
BYGG-014357$0$STANDARD
 70
     0
 40
0.0
 41
1.0
 50
0.0
 71
     0
 42
0.2
  3
txt
  4

  0
STYLE
  2
BYGG-014357$0$ISO
 70
     0
 40
0.0
 41
1.0
 50
0.0
 71
     0
 42
3.5
  3
isocp3.shx
  4

  0
STYLE
  2
BYGG-014063$0$STANDARD
 70
     0
 40
0.0
 41
1.0
 50
0.0
 71
     0
 42
0.2
  3
txt
  4

  0
STYLE
  2
BYGG-014063$0$ISO
 70
     0
 40
0.0
 41
1.0
 50
0.0
 71
     0
 42
3.5
  3
isocp3.shx
  4

  0
STYLE
  2
BYGG-021582$0$STANDARD
 70
     0
 40
0.0
 41
1.0
 50
0.0
 71
     0
 42
0.2
  3
txt
  4

  0
STYLE
  2
BYGG-021582$0$ISO
 70
     0
 40
0.0
 41
1.0
 50
0.0
 71
     0
 42
3.5
  3
isocp3.shx
  4

  0
STYLE
  2
BYGG-014279$0$STANDARD
 70
     0
 40
0.0
 41
1.0
 50
0.0
 71
     0
 42
0.2
  3
TXT.shx
  4

  0
STYLE
  2
BYGG-014279$0$ISO
 70
     0
 40
0.0
 41
1.0
 50
0.0
 71
     0
 42
3.5
  3
iso
  4

  0
STYLE
  2
BYGG-022681$0$STANDARD
 70
     0
 40
0.0
 41
1.0
 50
0.0
 71
     0
 42
0.2
  3
txt
  4

  0
STYLE
  2
BYGG-022681$0$ISO
 70
     0
 40
0.0
 41
1.0
 50
0.0
 71
     0
 42
3.5
  3
txt
  4

  0
STYLE
  2
BYGG-014306$0$STANDARD
 70
     0
 40
0.0
 41
1.0
 50
0.0
 71
     0
 42
0.2
  3
txt
  4

  0
STYLE
  2
BYGG-022676$0$STANDARD
 70
     0
 40
0.0
 41
1.0
 50
0.0
 71
     0
 42
0.2
  3
txt
  4

  0
STYLE
  2
BYGG-022676$0$ISO
 70
     0
 40
0.0
 41
1.0
 50
0.0
 71
     0
 42
3.5
  3
txt
  4

  0
STYLE
  2
BYGG-022676$0$ANNOTATIVE
 70
     0
 40
0.0
 41
1.0
 50
0.0
 71
     0
 42
0.2
  3
txt
  4

  0
STYLE
  2
BYGG-025109$0$STANDARD
 70
     0
 40
0.0
 41
1.0
 50
0.0
 71
     0
 42
0.2
  3
txt
  4

  0
STYLE
  2
BYGG-025109$0$ISO
 70
     0
 40
0.0
 41
1.0
 50
0.0
 71
     0
 42
3.5
  3
txt
  4

  0
STYLE
  2
BYGG-020805$0$STANDARD
 70
     0
 40
0.0
 41
1.0
 50
0.0
 71
     0
 42
0.2
  3
txt
  4

  0
STYLE
  2
BYGG-020805$0$ISO
 70
     0
 40
0.0
 41
1.0
 50
0.0
 71
     0
 42
3.5
  3
txt
  4

  0
STYLE
  2
BYGG-026395$0$STANDARD
 70
     0
 40
0.0
 41
1.0
 50
0.0
 71
     0
 42
0.2
  3
txt
  4

  0
STYLE
  2
BYGG-026395$0$ISO
 70
     0
 40
0.0
 41
1.0
 50
0.0
 71
     0
 42
3.5
  3
isocp3.shx
  4

  0
STYLE
  2
BYGG-033227$0$STANDARD
 70
     0
 40
0.0
 41
1.0
 50
0.0
 71
     0
 42
0.2
  3
txt
  4

  0
STYLE
  2
BYGG-033227$0$ISO
 70
     0
 40
0.0
 41
1.0
 50
0.0
 71
     0
 42
3.5
  3
txt
  4

  0
STYLE
  2
BYGG-025060$0$STANDARD
 70
     0
 40
0.0
 41
1.0
 50
0.0
 71
     0
 42
0.2
  3
txt
  4

  0
STYLE
  2
BYGG-025060$0$ISO
 70
     0
 40
0.0
 41
1.0
 50
0.0
 71
     0
 42
3.5
  3
txt
  4

  0
STYLE
  2
BYGG-012216$0$STANDARD
 70
     0
 40
0.0
 41
1.0
 50
0.0
 71
     0
 42
0.2
  3
txt
  4

  0
STYLE
  2
BYGG-012216$0$ISO
 70
     0
 40
0.0
 41
1.0
 50
0.0
 71
     0
 42
3.5
  3
txt
  4

  0
STYLE
  2
BYGG-028980$0$STANDARD
 70
     0
 40
0.0
 41
1.0
 50
0.0
 71
     0
 42
0.2
  3
txt
  4

  0
STYLE
  2
BYGG-028980$0$ISO
 70
     0
 40
0.0
 41
1.0
 50
0.0
 71
     0
 42
3.5
  3
txt
  4

  0
STYLE
  2
BYGG-033167$0$STANDARD
 70
     0
 40
0.0
 41
1.0
 50
0.0
 71
     0
 42
0.2
  3
txt
  4

  0
STYLE
  2
BYGG-033167$0$ISO
 70
     0
 40
0.0
 41
1.0
 50
0.0
 71
     0
 42
3.5
  3
txt
  4

  0
STYLE
  2
BYGG-033167$0$BYGG-020132$
 70
     0
 40
0.0
 41
1.0
 50
0.0
 71
     0
 42
3.5
  3
txt
  4

  0
STYLE
  2
BYGG-033167$0$BYGG-024943$
 70
     0
 40
0.0
 41
1.0
 50
0.0
 71
     0
 42
3.5
  3
txt
  4

  0
STYLE
  2
BYGG-026410$0$STANDARD
 70
     0
 40
0.0
 41
1.0
 50
0.0
 71
     0
 42
0.2
  3
txt
  4

  0
STYLE
  2
BYGG-026410$0$ISO
 70
     0
 40
0.0
 41
1.0
 50
0.0
 71
     0
 42
3.5
  3
txt
  4

  0
STYLE
  2
BYGG-01409101$0$STANDARD
 70
     0
 40
0.0
 41
1.0
 50
0.0
 71
     0
 42
0.4
  3
txt
  4

  0
STYLE
  2
BYGG-01409101$0$SIMPLEX
 70
     0
 40
0.0
 41
1.0
 50
0.0
 71
     0
 42
0.2
  3
simplex
  4

  0
STYLE
  2
BYGG-029021$0$STANDARD
 70
     0
 40
0.0
 41
1.0
 50
0.0
 71
     0
 42
0.2
  3
txt
  4

  0
STYLE
  2
BYGG-029021$0$ISO
 70
     0
 40
0.0
 41
1.0
 50
0.0
 71
     0
 42
3.5
  3
txt
  4

  0
STYLE
  2
BYGG-029021$0$ANNOTATION
 70
     0
 40
0.0
 41
1.0
 50
0.0
 71
     0
 42
0.2
  3
txt
  4

  0
STYLE
  2
BYGG-029021$0$COTATION
 70
     0
 40
0.0
 41
1.0
 50
0.0
 71
     0
 42
0.2
  3
txt
  4

  0
STYLE
  2
BYGG-029021$0$ANNOTATIVE
 70
     0
 40
0.0
 41
1.0
 50
0.0
 71
     0
 42
0.2
  3
txt
  4

  0
STYLE
  2
BYGG-024800$0$STANDARD
 70
     0
 40
0.0
 41
1.0
 50
0.0
 71
     0
 42
0.2
  3
txt
  4

  0
STYLE
  2
BYGG-024800$0$ISO
 70
     0
 40
0.0
 41
1.0
 50
0.0
 71
     0
 42
3.5
  3
txt
  4

  0
STYLE
  2
BYGG-024807$0$STANDARD
 70
     0
 40
0.0
 41
1.0
 50
0.0
 71
     0
 42
0.2
  3
txt
  4

  0
STYLE
  2
BYGG-024807$0$ISO
 70
     0
 40
0.0
 41
1.0
 50
0.0
 71
     0
 42
3.5
  3
txt
  4

  0
STYLE
  2
BYGG-024807$0$ANNOTATIVE
 70
     0
 40
0.0
 41
1.0
 50
0.0
 71
     0
 42
0.2
  3
txt
  4

  0
STYLE
  2
BYGG-025652$0$STANDARD
 70
     0
 40
0.0
 41
1.0
 50
0.0
 71
     0
 42
0.2
  3
txt
  4

  0
STYLE
  2
BYGG-025652$0$ISO
 70
     0
 40
0.0
 41
1.0
 50
0.0
 71
     0
 42
3.5
  3
txt
  4

  0
STYLE
  2
BYGG-025652$0$ANNOTATIVE
 70
     0
 40
0.0
 41
1.0
 50
0.0
 71
     0
 42
0.2
  3
txt
  4

  0
STYLE
  2
BYGG-014411$0$STANDARD
 70
     0
 40
0.0
 41
1.0
 50
0.0
 71
     0
 42
0.2
  3
txt
  4

  0
STYLE
  2
BYGG-014411$0$ISO
 70
     0
 40
0.0
 41
1.0
 50
0.0
 71
     0
 42
3.5
  3
isocp3.shx
  4

  0
STYLE
  2
BYGG-014090$0$STANDARD
 70
     0
 40
0.0
 41
1.0
 50
0.0
 71
     0
 42
0.2
  3
txt
  4

  0
STYLE
  2
BYGG-014090$0$SIMPLEX
 70
     0
 40
0.0
 41
1.0
 50
0.0
 71
     0
 42
0.2
  3
simplex
  4

  0
STYLE
  2
BYGG-014088$0$STANDARD
 70
     0
 40
0.0
 41
1.0
 50
0.0
 71
     0
 42
0.4
  3
txt
  4

  0
ENDTAB
  0
TABLE
  2
VIEW
 70
     0
  0
ENDTAB
  0
TABLE
  2
UCS
 70
     0
  0
ENDTAB
  0
TABLE
  2
APPID
 70
    52
  0
APPID
  2
ACAD
 70
     0
  0
APPID
  2
ACAD_DSTYLE_DIMTEXT_FILL
 70
     0
  0
APPID
  2
ACAD_DSTYLE_DIMEXT_LENGTH
 70
     0
  0
APPID
  2
ACAD_DSTYLE_DIMEXT_ENABLED
 70
     0
  0
APPID
  2
ACAD_DSTYLE_DIM_LINETYPE
 70
     0
  0
APPID
  2
ACAD_DSTYLE_DIM_EXT1_LINETYPE
 70
     0
  0
APPID
  2
ACAD_DSTYLE_DIM_EXT2_LINETYPE
 70
     0
  0
APPID
  2
ACAD_DSTYLE_DIMJOGGED_JOGA
 70
     0
  0
APPID
  2
ACAD_DSTYLE_DIMARC_LENGTH_
 70
     0
  0
APPID
  2
ACAD_PSEXT
 70
     0
  0
APPID
  2
ACAD_MLEADERVER
 70
     0
  0
APPID
  2
AMG_ARCHIVE11
 70
     0
  0
APPID
  2
ACAD_EXEMPT_FROM_CAD_STANDARDS
 70
     0
  0
APPID
  2
ACADANNOTATIVE
 70
     0
  0
APPID
  2
ACAECLAYERSTANDARD
 70
     0
  0
APPID
  2
ACDBDYNAMICBLOCKGUID
 70
     0
  0
APPID
  2
ACDBBLOCKREPETAG
 70
     0
  0
APPID
  2
DCO15
 70
     0
  0
APPID
  2
ACAD_DSTYLE_DIMJAG
 70
     0
  0
APPID
  2
ACAD_DSTYLE_DIMTALN
 70
     0
  0
APPID
  2
RC_PROFILE
 70
     0
  0
APPID
  2
GENIUS_GENODEF_13
 70
     0
  0
APPID
  2
GENIUS_GENTRA_14
 70
     0
  0
APPID
  2
GENIUS_GENOLIS_13
 70
     0
  0
APPID
  2
GENIUS_GENOENT_13
 70
     0
  0
APPID
  2
GENIUS_GENOBJ-N-TIT_13
 70
     0
  0
APPID
  2
GENIUS_GENTITLE_13
 70
     0
  0
APPID
  2
GENIUS_GENOREF_13
 70
     0
  0
APPID
  2
GENIUS_GENSCREG_15
 70
     0
  0
APPID
  2
GENIUS_GENOBJ-N-SDF_13
 70
     0
  0
APPID
  2
GENIUS_GENOBJ-N-CRS_13
 70
     0
  0
APPID
  2
ACAUTHENVIRON
 70
     0
  0
APPID
  2
ACDBDYNAMICBLOCKTRUENAME
 70
     0
  0
APPID
  2
AME_SOL
 70
     0
  0
APPID
  2
ACAD_NAV_VCDISPLAY
 70
     0
  0
APPID
  2
ACCMTRANSPARENCY
 70
     0
  0
APPID
  2
GRADIENTCOLOR1ACI
 70
     0
  0
APPID
  2
GRADIENTCOLOR2ACI
 70
     0
  0
APPID
  2
PE_URL
 70
     0
  0
APPID
  2
ACDBBLOCKREPBTAG
 70
     0
  0
APPID
  2
ACAD_DSTYLE_DIMRADIAL_EXTENSION
 70
     0
  0
APPID
  2
ACLAYERTOOLS
 70
     0
  0
APPID
  2
ACAD_OBJECT_CHANGE_GUID
 70
     0
  0
APPID
  2
AVE_RENDER
 70
     0
  0
APPID
  2
AVE_ENTITY_MATERIAL
 70
     0
  0
APPID
  2
AVE_FINISH
 70
     0
  0
APPID
  2
AVE_MATERIAL
 70
     0
  0
APPID
  2
AVE_GLOBAL
 70
     0
  0
APPID
  2
4M_RENDER
 70
     0
  0
APPID
  2
LIBMAN
 70
     0
  0
APPID
  2
AUTOBUILD
 70
     0
  0
APPID
  2
AEC_XDATA_BOUND_SPACE
 70
     0
  0
ENDTAB
  0
TABLE
  2
DIMSTYLE
 70
    59
  0
DIMSTYLE
  2
STANDARD
 70
     0
  3

  4

  5

  6

  7

 40
1.0
 41
0.18
 42
0.0625
 43
0.38
 44
0.18
 45
0.0
 46
0.0
 47
0.0
 48
0.0
140
0.18
141
0.09
142
0.0
143
25.399999999999999
144
1.0
145
0.0
146
1.0
147
0.09
 71
     0
 72
     0
 73
     1
 74
     1
 75
     0
 76
     0
 77
     0
 78
     0
170
     0
171
     2
172
     0
173
     0
174
     0
175
     0
176
     0
177
     0
178
     0
  0
DIMSTYLE
  2
MASKIN
 70
     0
  3

  4

  5

  6

  7

 40
0.0
 41
3.0
 42
1.5
 43
10.0
 44
1.5
 45
0.0
 46
0.0
 47
0.0
 48
0.0
140
3.0
141
-5.0
142
0.0
143
25.399999999999999
144
-1.0
145
0.0
146
1.0
147
1.0
 71
     0
 72
     0
 73
     0
 74
     0
 75
     0
 76
     0
 77
     1
 78
     8
170
     0
171
     0
172
     1
173
     0
174
     0
175
     0
176
   256
177
   256
178
     2
  0
DIMSTYLE
  2
BYGG-021589$0$MASKIN
 70
     0
  3

  4

  5

  6

  7

 40
0.0
 41
3.0
 42
1.5
 43
10.0
 44
1.5
 45
0.0
 46
0.0
 47
0.0
 48
0.0
140
3.0
141
-5.0
142
0.0
143
25.399999999999999
144
-1.0
145
0.0
146
1.0
147
1.0
 71
     0
 72
     0
 73
     0
 74
     0
 75
     0
 76
     0
 77
     1
 78
     8
170
     0
171
     0
172
     1
173
     0
174
     0
175
     0
176
   256
177
   256
178
   256
  0
DIMSTYLE
  2
BYGG-01482201$0$STANDARD
 70
     0
  3

  4

  5

  6

  7

 40
1.0
 41
0.18
 42
0.0625
 43
0.38
 44
0.18
 45
0.0
 46
0.0
 47
0.0
 48
0.0
140
0.18
141
0.09
142
0.0
143
25.399999999999999
144
1.0
145
0.0
146
1.0
147
0.09
 71
     0
 72
     0
 73
     1
 74
     1
 75
     0
 76
     0
 77
     0
 78
     0
170
     0
171
     2
172
     0
173
     0
174
     0
175
     0
176
     0
177
     0
178
     0
  0
DIMSTYLE
  2
BYGG-01482201$0$MASKIN
 70
     0
  3

  4

  5

  6

  7

 40
0.0
 41
3.0
 42
1.5
 43
10.0
 44
1.5
 45
0.0
 46
0.0
 47
0.0
 48
0.0
140
3.0
141
-5.0
142
0.0
143
25.399999999999999
144
-1.0
145
0.0
146
1.0
147
1.0
 71
     0
 72
     0
 73
     0
 74
     1
 75
     0
 76
     0
 77
     1
 78
     8
170
     0
171
     0
172
     1
173
     0
174
     0
175
     0
176
   256
177
   256
178
     2
  0
DIMSTYLE
  2
BYGG-021802$0$MASKIN
 70
     0
  3

  4

  5

  6

  7

 40
0.0
 41
3.0
 42
1.5
 43
10.0
 44
1.5
 45
0.0
 46
0.0
 47
0.0
 48
0.0
140
3.0
141
-5.0
142
0.0
143
25.399999999999999
144
-1.0
145
0.0
146
1.0
147
1.0
 71
     0
 72
     0
 73
     0
 74
     0
 75
     0
 76
     0
 77
     1
 78
     8
170
     0
171
     0
172
     1
173
     0
174
     0
175
     0
176
   256
177
   256
178
   256
  0
DIMSTYLE
  2
BYGG-014357$0$MASKIN
 70
     0
  3

  4

  5

  6

  7

 40
0.0
 41
3.0
 42
1.5
 43
10.0
 44
1.5
 45
0.0
 46
0.0
 47
0.0
 48
0.0
140
3.0
141
-5.0
142
0.0
143
25.399999999999999
144
-1.0
145
0.0
146
1.0
147
1.0
 71
     0
 72
     0
 73
     0
 74
     0
 75
     0
 76
     0
 77
     1
 78
     8
170
     0
171
     0
172
     1
173
     0
174
     0
175
     0
176
   256
177
   256
178
   256
  0
DIMSTYLE
  2
BYGG-014357$0$MASKIN1
 70
     0
  3

  4

  5

  6

  7

 40
1.0
 41
3.0
 42
1.5
 43
10.0
 44
1.5
 45
0.0
 46
0.0
 47
0.0
 48
0.0
140
3.0
141
-5.0
142
0.0
143
25.399999999999999
144
1.0
145
0.0
146
1.0
147
0.9
 71
     0
 72
     0
 73
     0
 74
     0
 75
     0
 76
     0
 77
     1
 78
     8
170
     0
171
     0
172
     1
173
     0
174
     0
175
     0
176
   256
177
   256
178
   256
  0
DIMSTYLE
  2
BYGG-014357$0$MASKIN2
 70
     0
  3

  4

  5

  6

  7

 40
1.0
 41
3.0
 42
1.5
 43
10.0
 44
1.5
 45
0.0
 46
0.0
 47
0.0
 48
0.0
140
3.0
141
-5.0
142
0.0
143
25.399999999999999
144
1.0
145
0.0
146
1.0
147
0.9
 71
     0
 72
     0
 73
     0
 74
     0
 75
     0
 76
     0
 77
     1
 78
     8
170
     0
171
     0
172
     1
173
     0
174
     0
175
     0
176
   256
177
   256
178
   256
  0
DIMSTYLE
  2
BYGG-014357$0$MASKIN3
 70
     0
  3

  4

  5

  6

  7

 40
1.0
 41
3.0
 42
1.5
 43
10.0
 44
1.5
 45
0.0
 46
0.0
 47
0.0
 48
0.0
140
3.0
141
-5.0
142
0.0
143
25.399999999999999
144
1.0
145
0.0
146
1.0
147
0.9
 71
     0
 72
     0
 73
     0
 74
     0
 75
     0
 76
     0
 77
     1
 78
     8
170
     0
171
     0
172
     1
173
     0
174
     0
175
     0
176
   256
177
   256
178
   256
  0
DIMSTYLE
  2
BYGG-014357$0$DMST_1
 70
     0
  3

  4

  5

  6

  7

 40
1.0
 41
0.7000000000000002
 42
0.0
 43
7.0
 44
0.4
 45
0.0
 46
0.0
 47
0.15
 48
0.15
140
0.7000000000000002
141
0.0
142
0.0
143
25.399999999999999
144
1.0
145
0.0
146
0.7
147
0.09
 71
     1
 72
     0
 73
     0
 74
     0
 75
     0
 76
     0
 77
     1
 78
     9
170
     0
171
     2
172
     0
173
     0
174
     0
175
     0
176
     1
177
     1
178
     2
  0
DIMSTYLE
  2
BYGG-014063$0$MASKIN
 70
     0
  3

  4

  5

  6

  7

 40
0.0
 41
3.0
 42
1.5
 43
10.0
 44
1.5
 45
0.0
 46
0.0
 47
0.0
 48
0.0
140
3.0
141
-5.0
142
0.0
143
25.399999999999999
144
-1.0
145
0.0
146
1.0
147
1.0
 71
     0
 72
     0
 73
     0
 74
     0
 75
     0
 76
     0
 77
     1
 78
     8
170
     0
171
     0
172
     1
173
     0
174
     0
175
     0
176
   256
177
   256
178
   256
  0
DIMSTYLE
  2
BYGG-014063$0$STANDARD
 70
     0
  3

  4

  5

  6

  7

 40
1.0
 41
0.18
 42
0.0625
 43
0.38
 44
0.18
 45
0.0
 46
0.0
 47
0.0
 48
0.0
140
0.18
141
0.09
142
0.0
143
25.399999999999999
144
1.0
145
0.0
146
1.0
147
0.09
 71
     0
 72
     0
 73
     1
 74
     1
 75
     0
 76
     0
 77
     0
 78
     0
170
     0
171
     2
172
     0
173
     0
174
     0
175
     0
176
     0
177
     0
178
     0
  0
DIMSTYLE
  2
BYGG-021582$0$MASKIN
 70
     0
  3

  4

  5

  6

  7

 40
0.0
 41
3.0
 42
1.5
 43
10.0
 44
1.5
 45
0.0
 46
0.0
 47
0.0
 48
0.0
140
3.0
141
-5.0
142
0.0
143
25.399999999999999
144
-1.0
145
0.0
146
1.0
147
1.0
 71
     0
 72
     0
 73
     0
 74
     0
 75
     0
 76
     0
 77
     1
 78
     8
170
     0
171
     0
172
     1
173
     0
174
     0
175
     0
176
   256
177
   256
178
   256
  0
DIMSTYLE
  2
BYGG-014279$0$STANDARD
 70
     0
  3

  4

  5

  6

  7

 40
1.0
 41
0.18
 42
0.0625
 43
0.38
 44
0.18
 45
0.0
 46
0.0
 47
0.0
 48
0.0
140
0.18
141
0.09
142
0.0
143
25.399999999999999
144
1.0
145
0.0
146
1.0
147
0.09
 71
     0
 72
     0
 73
     1
 74
     1
 75
     0
 76
     0
 77
     0
 78
     0
170
     0
171
     2
172
     0
173
     0
174
     0
175
     0
176
     0
177
     0
178
     0
  0
DIMSTYLE
  2
BYGG-014279$0$MASKIN
 70
     0
  3

  4

  5

  6

  7

 40
0.0
 41
3.0
 42
1.5
 43
10.0
 44
1.5
 45
0.0
 46
0.0
 47
0.0
 48
0.0
140
3.0
141
-5.0
142
0.0
143
25.399999999999999
144
-1.0
145
0.0
146
1.0
147
1.0
 71
     0
 72
     0
 73
     0
 74
     1
 75
     0
 76
     0
 77
     1
 78
     8
170
     0
171
     0
172
     1
173
     0
174
     0
175
     0
176
   256
177
   256
178
     2
  0
DIMSTYLE
  2
BYGG-022681$0$STANDARD
 70
     0
  3

  4

  5

  6

  7

 40
1.0
 41
0.18
 42
0.0625
 43
0.38
 44
0.18
 45
0.0
 46
0.0
 47
0.0
 48
0.0
140
0.18
141
0.09
142
0.0
143
25.399999999999999
144
1.0
145
0.0
146
1.0
147
0.09
 71
     0
 72
     0
 73
     1
 74
     1
 75
     0
 76
     0
 77
     0
 78
     0
170
     0
171
     2
172
     0
173
     0
174
     0
175
     0
176
     0
177
     0
178
     0
  0
DIMSTYLE
  2
BYGG-022681$0$MASKIN
 70
     0
  3

  4

  5

  6

  7

 40
0.0
 41
3.0
 42
1.5
 43
10.0
 44
1.5
 45
0.0
 46
0.0
 47
0.0
 48
0.0
140
3.0
141
-5.0
142
0.0
143
25.399999999999999
144
-1.0
145
0.0
146
1.0
147
1.0
 71
     0
 72
     0
 73
     0
 74
     0
 75
     0
 76
     0
 77
     1
 78
     8
170
     0
171
     0
172
     1
173
     0
174
     0
175
     0
176
   256
177
   256
178
     2
  0
DIMSTYLE
  2
BYGG-014306$0$STANDARD
 70
     0
  3

  4

  5

  6

  7

 40
1.0
 41
0.18
 42
0.0625
 43
0.38
 44
0.18
 45
0.0
 46
0.0
 47
0.0
 48
0.0
140
0.18
141
0.09
142
0.0
143
25.399999999999999
144
1.0
145
0.0
146
1.0
147
0.09
 71
     0
 72
     0
 73
     1
 74
     1
 75
     0
 76
     0
 77
     0
 78
     0
170
     0
171
     2
172
     0
173
     0
174
     0
175
     0
176
     0
177
     0
178
     0
  0
DIMSTYLE
  2
BYGG-022676$0$STANDARD
 70
     0
  3

  4

  5

  6

  7

 40
1.0
 41
0.18
 42
0.0625
 43
0.38
 44
0.18
 45
0.0
 46
0.0
 47
0.0
 48
0.0
140
0.18
141
0.09
142
0.0
143
25.399999999999999
144
1.0
145
0.0
146
1.0
147
0.09
 71
     0
 72
     0
 73
     1
 74
     1
 75
     0
 76
     0
 77
     0
 78
     0
170
     0
171
     2
172
     0
173
     0
174
     0
175
     0
176
     0
177
     0
178
     0
  0
DIMSTYLE
  2
BYGG-022676$0$MASKIN
 70
     0
  3

  4

  5

  6

  7

 40
0.0
 41
3.0
 42
1.5
 43
10.0
 44
1.5
 45
0.0
 46
0.0
 47
0.0
 48
0.0
140
3.0
141
-5.0
142
0.0
143
25.399999999999999
144
-1.0
145
0.0
146
1.0
147
1.0
 71
     0
 72
     0
 73
     0
 74
     0
 75
     0
 76
     0
 77
     1
 78
     8
170
     0
171
     0
172
     1
173
     0
174
     0
175
     0
176
   256
177
   256
178
     2
  0
DIMSTYLE
  2
BYGG-022676$0$ANNOTATIVE
 70
     0
  3

  4

  5

  6

  7

 40
1.0
 41
0.18
 42
0.0625
 43
0.38
 44
0.18
 45
0.0
 46
0.0
 47
0.0
 48
0.0
140
0.18
141
0.09
142
0.0
143
25.399999999999999
144
1.0
145
0.0
146
1.0
147
0.09
 71
     0
 72
     0
 73
     1
 74
     1
 75
     0
 76
     0
 77
     0
 78
     0
170
     0
171
     2
172
     0
173
     0
174
     0
175
     0
176
     0
177
     0
178
     0
  0
DIMSTYLE
  2
BYGG-025109$0$STANDARD
 70
     0
  3

  4

  5

  6

  7

 40
1.0
 41
0.18
 42
0.0625
 43
0.38
 44
0.18
 45
0.0
 46
0.0
 47
0.0
 48
0.0
140
0.18
141
0.09
142
0.0
143
25.399999999999999
144
1.0
145
0.0
146
1.0
147
0.09
 71
     0
 72
     0
 73
     1
 74
     1
 75
     0
 76
     0
 77
     0
 78
     0
170
     0
171
     2
172
     0
173
     0
174
     0
175
     0
176
     0
177
     0
178
     0
  0
DIMSTYLE
  2
BYGG-025109$0$MASKIN
 70
     0
  3

  4

  5

  6

  7

 40
0.0
 41
3.0
 42
1.5
 43
10.0
 44
1.5
 45
0.0
 46
0.0
 47
0.0
 48
0.0
140
3.0
141
-5.0
142
0.0
143
25.399999999999999
144
-1.0
145
0.0
146
1.0
147
1.0
 71
     0
 72
     0
 73
     0
 74
     0
 75
     0
 76
     0
 77
     1
 78
     8
170
     0
171
     0
172
     1
173
     0
174
     0
175
     0
176
   256
177
   256
178
     2
  0
DIMSTYLE
  2
BYGG-020805$0$STANDARD
 70
     0
  3

  4

  5

  6

  7

 40
1.0
 41
0.18
 42
0.0625
 43
0.38
 44
0.18
 45
0.0
 46
0.0
 47
0.0
 48
0.0
140
0.18
141
0.09
142
0.0
143
25.399999999999999
144
1.0
145
0.0
146
1.0
147
0.09
 71
     0
 72
     0
 73
     1
 74
     1
 75
     0
 76
     0
 77
     0
 78
     0
170
     0
171
     2
172
     0
173
     0
174
     0
175
     0
176
     0
177
     0
178
     0
  0
DIMSTYLE
  2
BYGG-020805$0$MASKIN
 70
     0
  3

  4

  5

  6

  7

 40
0.0
 41
3.0
 42
1.5
 43
10.0
 44
1.5
 45
0.0
 46
0.0
 47
0.0
 48
0.0
140
3.0
141
-5.0
142
0.0
143
25.399999999999999
144
-1.0
145
0.0
146
1.0
147
1.0
 71
     0
 72
     0
 73
     0
 74
     0
 75
     0
 76
     0
 77
     1
 78
     8
170
     0
171
     0
172
     1
173
     0
174
     0
175
     0
176
   256
177
   256
178
     2
  0
DIMSTYLE
  2
BYGG-026395$0$MASKIN
 70
     0
  3

  4

  5

  6

  7

 40
0.0
 41
3.0
 42
1.5
 43
10.0
 44
1.5
 45
0.0
 46
0.0
 47
0.0
 48
0.0
140
3.0
141
-5.0
142
0.0
143
25.399999999999999
144
-1.0
145
0.0
146
1.0
147
1.0
 71
     0
 72
     0
 73
     0
 74
     0
 75
     0
 76
     0
 77
     1
 78
     8
170
     0
171
     0
172
     1
173
     0
174
     0
175
     0
176
   256
177
   256
178
   256
  0
DIMSTYLE
  2
BYGG-033227$0$STANDARD
 70
     0
  3

  4

  5

  6

  7

 40
1.0
 41
0.18
 42
0.0625
 43
0.38
 44
0.18
 45
0.0
 46
0.0
 47
0.0
 48
0.0
140
0.18
141
0.09
142
0.0
143
25.399999999999999
144
1.0
145
0.0
146
1.0
147
0.09
 71
     0
 72
     0
 73
     1
 74
     1
 75
     0
 76
     0
 77
     0
 78
     0
170
     0
171
     2
172
     0
173
     0
174
     0
175
     0
176
     0
177
     0
178
     0
  0
DIMSTYLE
  2
BYGG-033227$0$MASKIN
 70
     0
  3

  4

  5

  6

  7

 40
0.0
 41
3.0
 42
1.5
 43
10.0
 44
1.5
 45
0.0
 46
0.0
 47
0.0
 48
0.0
140
3.0
141
-5.0
142
0.0
143
25.399999999999999
144
-1.0
145
0.0
146
1.0
147
1.0
 71
     0
 72
     0
 73
     0
 74
     0
 75
     0
 76
     0
 77
     1
 78
     8
170
     0
171
     0
172
     1
173
     0
174
     0
175
     0
176
   256
177
   256
178
     2
  0
DIMSTYLE
  2
BYGG-025060$0$MASKIN
 70
     0
  3

  4

  5

  6

  7

 40
0.0
 41
3.0
 42
1.5
 43
10.0
 44
1.5
 45
0.0
 46
0.0
 47
0.0
 48
0.0
140
3.0
141
-5.0
142
0.0
143
25.399999999999999
144
-1.0
145
0.0
146
1.0
147
1.0
 71
     0
 72
     0
 73
     0
 74
     0
 75
     0
 76
     0
 77
     1
 78
     8
170
     0
171
     0
172
     1
173
     0
174
     0
175
     0
176
   256
177
   256
178
     2
  0
DIMSTYLE
  2
BYGG-025060$0$STANDARD
 70
     0
  3

  4

  5

  6

  7

 40
1.0
 41
0.18
 42
0.0625
 43
0.38
 44
0.18
 45
0.0
 46
0.0
 47
0.0
 48
0.0
140
0.18
141
0.09
142
0.0
143
25.399999999999999
144
1.0
145
0.0
146
1.0
147
0.09
 71
     0
 72
     0
 73
     1
 74
     1
 75
     0
 76
     0
 77
     0
 78
     0
170
     0
171
     2
172
     0
173
     0
174
     0
175
     0
176
     0
177
     0
178
     0
  0
DIMSTYLE
  2
BYGG-012216$0$MASKIN
 70
     0
  3

  4

  5

  6

  7

 40
0.0
 41
3.0
 42
1.5
 43
10.0
 44
1.5
 45
0.0
 46
0.0
 47
0.0
 48
0.0
140
3.0
141
-5.0
142
0.0
143
25.399999999999999
144
-1.0
145
0.0
146
1.0
147
1.0
 71
     0
 72
     0
 73
     0
 74
     0
 75
     0
 76
     0
 77
     1
 78
     8
170
     0
171
     0
172
     1
173
     0
174
     0
175
     0
176
   256
177
   256
178
     2
  0
DIMSTYLE
  2
BYGG-012216$0$STANDARD
 70
     0
  3

  4

  5

  6

  7

 40
1.0
 41
0.18
 42
0.0625
 43
0.38
 44
0.18
 45
0.0
 46
0.0
 47
0.0
 48
0.0
140
0.18
141
0.09
142
0.0
143
25.399999999999999
144
1.0
145
0.0
146
1.0
147
0.09
 71
     0
 72
     0
 73
     1
 74
     1
 75
     0
 76
     0
 77
     0
 78
     0
170
     0
171
     2
172
     0
173
     0
174
     0
175
     0
176
     0
177
     0
178
     0
  0
DIMSTYLE
  2
BYGG-028980$0$STANDARD
 70
     0
  3

  4

  5

  6

  7

 40
1.0
 41
0.18
 42
0.0625
 43
0.38
 44
0.18
 45
0.0
 46
0.0
 47
0.0
 48
0.0
140
0.18
141
0.09
142
0.0
143
25.399999999999999
144
1.0
145
0.0
146
1.0
147
0.09
 71
     0
 72
     0
 73
     1
 74
     1
 75
     0
 76
     0
 77
     0
 78
     0
170
     0
171
     2
172
     0
173
     0
174
     0
175
     0
176
     0
177
     0
178
     0
  0
DIMSTYLE
  2
BYGG-028980$0$MASKIN
 70
     0
  3

  4

  5

  6

  7

 40
0.0
 41
3.0
 42
1.5
 43
10.0
 44
1.5
 45
0.0
 46
0.0
 47
0.0
 48
0.0
140
3.0
141
-5.0
142
0.0
143
25.399999999999999
144
-1.0
145
0.0
146
1.0
147
1.0
 71
     0
 72
     0
 73
     0
 74
     0
 75
     0
 76
     0
 77
     1
 78
     8
170
     0
171
     0
172
     1
173
     0
174
     0
175
     0
176
   256
177
   256
178
     2
  0
DIMSTYLE
  2
BYGG-033167$0$STANDARD
 70
     0
  3

  4

  5

  6

  7

 40
1.0
 41
0.18
 42
0.0625
 43
0.38
 44
0.18
 45
0.0
 46
0.0
 47
0.0
 48
0.0
140
0.18
141
0.09
142
0.0
143
25.399999999999999
144
1.0
145
0.0
146
1.0
147
0.09
 71
     0
 72
     0
 73
     1
 74
     1
 75
     0
 76
     0
 77
     0
 78
     0
170
     0
171
     2
172
     0
173
     0
174
     0
175
     0
176
     0
177
     0
178
     0
  0
DIMSTYLE
  2
BYGG-033167$0$MASKIN
 70
     0
  3

  4

  5

  6

  7

 40
0.0
 41
3.0
 42
1.5
 43
10.0
 44
1.5
 45
0.0
 46
0.0
 47
0.0
 48
0.0
140
3.0
141
-5.0
142
0.0
143
25.399999999999999
144
-1.0
145
0.0
146
1.0
147
1.0
 71
     0
 72
     0
 73
     0
 74
     0
 75
     0
 76
     0
 77
     1
 78
     8
170
     0
171
     0
172
     1
173
     0
174
     0
175
     0
176
   256
177
   256
178
     2
  0
DIMSTYLE
  2
BYGG-033167$0$BYGG-020132$
 70
     0
  3

  4

  5

  6

  7

 40
0.0
 41
3.0
 42
1.5
 43
10.0
 44
1.5
 45
0.0
 46
0.0
 47
0.0
 48
0.0
140
3.0
141
-5.0
142
0.0
143
25.399999999999999
144
-1.0
145
0.0
146
1.0
147
1.0
 71
     0
 72
     0
 73
     0
 74
     0
 75
     0
 76
     0
 77
     1
 78
     8
170
     0
171
     0
172
     1
173
     0
174
     0
175
     0
176
   256
177
   256
178
     2
  0
DIMSTYLE
  2
BYGG-033167$0$BYGG-024943$
 70
     0
  3

  4

  5

  6

  7

 40
0.0
 41
3.0
 42
1.5
 43
10.0
 44
1.5
 45
0.0
 46
0.0
 47
0.0
 48
0.0
140
3.0
141
-5.0
142
0.0
143
25.399999999999999
144
-1.0
145
0.0
146
1.0
147
1.0
 71
     0
 72
     0
 73
     0
 74
     0
 75
     0
 76
     0
 77
     1
 78
     8
170
     0
171
     0
172
     1
173
     0
174
     0
175
     0
176
   256
177
   256
178
     2
  0
DIMSTYLE
  2
BYGG-026410$0$STANDARD
 70
     0
  3

  4

  5

  6

  7

 40
1.0
 41
0.18
 42
0.0625
 43
0.38
 44
0.18
 45
0.0
 46
0.0
 47
0.0
 48
0.0
140
0.18
141
0.09
142
0.0
143
25.399999999999999
144
1.0
145
0.0
146
1.0
147
0.09
 71
     0
 72
     0
 73
     1
 74
     1
 75
     0
 76
     0
 77
     0
 78
     0
170
     0
171
     2
172
     0
173
     0
174
     0
175
     0
176
     0
177
     0
178
     0
  0
DIMSTYLE
  2
BYGG-026410$0$MASKIN
 70
     0
  3

  4

  5

  6

  7

 40
0.0
 41
3.0
 42
1.5
 43
10.0
 44
1.5
 45
0.0
 46
0.0
 47
0.0
 48
0.0
140
3.0
141
-5.0
142
0.0
143
25.399999999999999
144
-1.0
145
0.0
146
1.0
147
1.0
 71
     0
 72
     0
 73
     0
 74
     0
 75
     0
 76
     0
 77
     1
 78
     8
170
     0
171
     0
172
     1
173
     0
174
     0
175
     0
176
   256
177
   256
178
     2
  0
DIMSTYLE
  2
BYGG-01409101$0$STANDARD
 70
     0
  3

  4

  5

  6

  7

 40
1.0
 41
0.18
 42
0.0625
 43
0.38
 44
0.18
 45
0.0
 46
0.0
 47
0.0
 48
0.0
140
0.18
141
0.09
142
0.0
143
25.399999999999999
144
1.0
145
0.0
146
1.0
147
0.09
 71
     0
 72
     0
 73
     1
 74
     1
 75
     0
 76
     0
 77
     0
 78
     0
170
     0
171
     2
172
     0
173
     0
174
     0
175
     0
176
     0
177
     0
178
     0
  0
DIMSTYLE
  2
BYGG-029021$0$STANDARD
 70
     0
  3

  4

  5

  6

  7

 40
1.0
 41
0.18
 42
0.0625
 43
0.38
 44
0.18
 45
0.0
 46
0.0
 47
0.0
 48
0.0
140
0.18
141
0.09
142
0.0
143
25.399999999999999
144
1.0
145
0.0
146
1.0
147
0.09
 71
     0
 72
     0
 73
     1
 74
     1
 75
     0
 76
     0
 77
     0
 78
     0
170
     0
171
     2
172
     0
173
     0
174
     0
175
     0
176
     0
177
     0
178
     0
  0
DIMSTYLE
  2
BYGG-029021$0$MASKIN
 70
     0
  3

  4

  5

  6

  7

 40
0.0
 41
3.0
 42
1.5
 43
10.0
 44
1.5
 45
0.0
 46
0.0
 47
0.0
 48
0.0
140
3.0
141
-5.0
142
0.0
143
25.399999999999999
144
-1.0
145
0.0
146
1.0
147
1.0
 71
     0
 72
     0
 73
     0
 74
     0
 75
     0
 76
     0
 77
     1
 78
     8
170
     0
171
     0
172
     1
173
     0
174
     0
175
     0
176
   256
177
   256
178
     2
  0
DIMSTYLE
  2
BYGG-029021$0$MASKIN1
 70
     0
  3

  4

  5

  6

  7

 40
0.0
 41
3.0
 42
1.5
 43
10.0
 44
1.5
 45
0.0
 46
0.0
 47
0.0
 48
0.0
140
3.0
141
-5.0
142
0.0
143
25.399999999999999
144
-1.0
145
0.0
146
1.0
147
1.0
 71
     0
 72
     0
 73
     0
 74
     0
 75
     0
 76
     0
 77
     1
 78
     8
170
     0
171
     0
172
     1
173
     0
174
     0
175
     0
176
   256
177
   256
178
   256
  0
DIMSTYLE
  2
BYGG-029021$0$COTATION_HUT
 70
     0
  3

  4

  5

  6

  7

 40
1.0
 41
0.25
 42
0.1
 43
3.75
 44
0.18
 45
0.0
 46
0.0
 47
0.0
 48
0.0
140
0.25
141
2.5
142
0.0
143
25.399999999999999
144
1.0
145
0.05
146
0.7000000000000002
147
0.09
 71
     1
 72
     0
 73
     0
 74
     0
 75
     0
 76
     0
 77
     1
 78
     0
170
     0
171
     2
172
     1
173
     0
174
     0
175
     0
176
     0
177
     0
178
     0
  0
DIMSTYLE
  2
BYGG-029021$0$ANNOTATIVE
 70
     0
  3

  4

  5

  6

  7

 40
1.0
 41
0.18
 42
0.0625
 43
0.38
 44
0.18
 45
0.0
 46
0.0
 47
0.0
 48
0.0
140
0.18
141
0.09
142
0.0
143
25.399999999999999
144
1.0
145
0.0
146
1.0
147
0.09
 71
     0
 72
     0
 73
     1
 74
     1
 75
     0
 76
     0
 77
     0
 78
     0
170
     0
171
     2
172
     0
173
     0
174
     0
175
     0
176
     0
177
     0
178
     0
  0
DIMSTYLE
  2
BYGG-024800$0$MASKIN
 70
     0
  3

  4

  5

  6

  7

 40
0.0
 41
3.0
 42
1.5
 43
10.0
 44
1.5
 45
0.0
 46
0.0
 47
0.0
 48
0.0
140
3.0
141
-5.0
142
0.0
143
25.399999999999999
144
-1.0
145
0.0
146
1.0
147
1.0
 71
     0
 72
     0
 73
     0
 74
     0
 75
     0
 76
     0
 77
     1
 78
     8
170
     0
171
     0
172
     1
173
     0
174
     0
175
     0
176
   256
177
   256
178
     2
  0
DIMSTYLE
  2
BYGG-024800$0$STANDARD
 70
     0
  3

  4

  5

  6

  7

 40
1.0
 41
0.18
 42
0.0625
 43
0.38
 44
0.18
 45
0.0
 46
0.0
 47
0.0
 48
0.0
140
0.18
141
0.09
142
0.0
143
25.399999999999999
144
1.0
145
0.0
146
1.0
147
0.09
 71
     0
 72
     0
 73
     1
 74
     1
 75
     0
 76
     0
 77
     0
 78
     0
170
     0
171
     2
172
     0
173
     0
174
     0
175
     0
176
     0
177
     0
178
     0
  0
DIMSTYLE
  2
BYGG-024807$0$MASKIN
 70
     0
  3

  4

  5

  6

  7

 40
0.0
 41
3.0
 42
1.5
 43
10.0
 44
1.5
 45
0.0
 46
0.0
 47
0.0
 48
0.0
140
3.0
141
-5.0
142
0.0
143
25.399999999999999
144
-1.0
145
0.0
146
1.0
147
1.0
 71
     0
 72
     0
 73
     0
 74
     0
 75
     0
 76
     0
 77
     1
 78
     8
170
     0
171
     0
172
     1
173
     0
174
     0
175
     0
176
   256
177
   256
178
     2
  0
DIMSTYLE
  2
BYGG-024807$0$STANDARD
 70
     0
  3

  4

  5

  6

  7

 40
1.0
 41
0.18
 42
0.0625
 43
0.38
 44
0.18
 45
0.0
 46
0.0
 47
0.0
 48
0.0
140
0.18
141
0.09
142
0.0
143
25.399999999999999
144
1.0
145
0.0
146
1.0
147
0.09
 71
     0
 72
     0
 73
     1
 74
     1
 75
     0
 76
     0
 77
     0
 78
     0
170
     0
171
     2
172
     0
173
     0
174
     0
175
     0
176
     0
177
     0
178
     0
  0
DIMSTYLE
  2
BYGG-024807$0$ANNOTATIVE
 70
     0
  3

  4

  5

  6

  7

 40
1.0
 41
0.18
 42
0.0625
 43
0.38
 44
0.18
 45
0.0
 46
0.0
 47
0.0
 48
0.0
140
0.18
141
0.09
142
0.0
143
25.399999999999999
144
1.0
145
0.0
146
1.0
147
0.09
 71
     0
 72
     0
 73
     1
 74
     1
 75
     0
 76
     0
 77
     0
 78
     0
170
     0
171
     2
172
     0
173
     0
174
     0
175
     0
176
     0
177
     0
178
     0
  0
DIMSTYLE
  2
BYGG-025652$0$STANDARD
 70
     0
  3

  4

  5

  6

  7

 40
1.0
 41
0.18
 42
0.0625
 43
0.38
 44
0.18
 45
0.0
 46
0.0
 47
0.0
 48
0.0
140
0.18
141
0.09
142
0.0
143
25.399999999999999
144
1.0
145
0.0
146
1.0
147
0.09
 71
     0
 72
     0
 73
     1
 74
     1
 75
     0
 76
     0
 77
     0
 78
     0
170
     0
171
     2
172
     0
173
     0
174
     0
175
     0
176
     0
177
     0
178
     0
  0
DIMSTYLE
  2
BYGG-025652$0$MASKIN
 70
     0
  3

  4

  5

  6

  7

 40
0.0
 41
3.0
 42
1.5
 43
10.0
 44
1.5
 45
0.0
 46
0.0
 47
0.0
 48
0.0
140
3.0
141
-5.0
142
0.0
143
25.399999999999999
144
-1.0
145
0.0
146
1.0
147
1.0
 71
     0
 72
     0
 73
     0
 74
     0
 75
     0
 76
     0
 77
     1
 78
     8
170
     0
171
     0
172
     1
173
     0
174
     0
175
     0
176
   256
177
   256
178
     2
  0
DIMSTYLE
  2
BYGG-025652$0$ANNOTATIVE
 70
     0
  3

  4

  5

  6

  7

 40
1.0
 41
0.18
 42
0.0625
 43
0.38
 44
0.18
 45
0.0
 46
0.0
 47
0.0
 48
0.0
140
0.18
141
0.09
142
0.0
143
25.399999999999999
144
1.0
145
0.0
146
1.0
147
0.09
 71
     0
 72
     0
 73
     1
 74
     1
 75
     0
 76
     0
 77
     0
 78
     0
170
     0
171
     2
172
     0
173
     0
174
     0
175
     0
176
     0
177
     0
178
     0
  0
DIMSTYLE
  2
BYGG-014411$0$MASKIN
 70
     0
  3

  4

  5

  6

  7

 40
0.0
 41
3.0
 42
1.5
 43
10.0
 44
1.5
 45
0.0
 46
0.0
 47
0.0
 48
0.0
140
3.0
141
-5.0
142
0.0
143
25.399999999999999
144
-1.0
145
0.0
146
1.0
147
1.0
 71
     0
 72
     0
 73
     0
 74
     0
 75
     0
 76
     0
 77
     1
 78
     8
170
     0
171
     0
172
     1
173
     0
174
     0
175
     0
176
   256
177
   256
178
   256
  0
DIMSTYLE
  2
BYGG-014411$0$STANDARD
 70
     0
  3

  4

  5

  6

  7

 40
1.0
 41
0.18
 42
0.0625
 43
0.38
 44
0.18
 45
0.0
 46
0.0
 47
0.0
 48
0.0
140
0.18
141
0.09
142
0.0
143
25.399999999999999
144
1.0
145
0.0
146
1.0
147
0.09
 71
     0
 72
     0
 73
     1
 74
     1
 75
     0
 76
     0
 77
     0
 78
     0
170
     0
171
     2
172
     0
173
     0
174
     0
175
     0
176
     0
177
     0
178
     0
  0
DIMSTYLE
  2
BYGG-014090$0$STANDARD
 70
     0
  3

  4

  5

  6

  7

 40
1.0
 41
0.18
 42
0.0625
 43
0.38
 44
0.18
 45
0.0
 46
0.0
 47
0.0
 48
0.0
140
0.18
141
0.09
142
0.0
143
25.399999999999999
144
1.0
145
0.0
146
1.0
147
0.09
 71
     0
 72
     0
 73
     1
 74
     1
 75
     0
 76
     0
 77
     0
 78
     0
170
     0
171
     2
172
     0
173
     0
174
     0
175
     0
176
     0
177
     0
178
     0
  0
DIMSTYLE
  2
BYGG-014088$0$STANDARD
 70
     0
  3

  4

  5

  6

  7

 40
1.0
 41
0.18
 42
0.0625
 43
0.38
 44
0.18
 45
0.0
 46
0.0
 47
0.0
 48
0.0
140
0.18
141
0.09
142
0.0
143
25.399999999999999
144
1.0
145
0.0
146
1.0
147
0.09
 71
     0
 72
     0
 73
     1
 74
     1
 75
     0
 76
     0
 77
     0
 78
     0
170
     0
171
     2
172
     0
173
     0
174
     0
175
     0
176
     0
177
     0
178
     0
  0
ENDTAB
  0
ENDSEC
  0
SECTION
  2
BLOCKS
  0
BLOCK
  8
0
  2
$MODEL_SPACE
 70
     0
 10
0.0
 20
0.0
 30
0.0
  3
$MODEL_SPACE
  1

  0
ENDBLK
  5
37
  8
0
  0
BLOCK
 67
     1
  8
0
  2
$PAPER_SPACE
 70
     0
 10
0.0
 20
0.0
 30
0.0
  3
$PAPER_SPACE
  1

  0
ENDBLK
  5
35
 67
     1
  8
0
  0
BLOCK
  8
0
  2
*D147
 70
     1
 10
0.0
 20
0.0
 30
0.0
  3
*D147
  1

  0
LINE
  5
19BF
  8
SAPA_MATT
 10
-107.4999999990104
 20
24.99999999999979
 30
0.0
 11
-127.3557794594702
 21
24.999999999999801
 31
0.0
  0
LINE
  5
19C0
  8
SAPA_MATT
 10
-107.4999999990104
 20
-25.00000000000021
 30
0.0
 11
-127.3557794594702
 21
-25.00000000000021
 31
0.0
  0
LINE
  5
19C1
  8
SAPA_MATT
 10
-125.8557794594702
 20
21.99999999999979
 30
0.0
 11
-125.8557794594702
 21
-22.00000000000021
 31
0.0
  0
SOLID
  5
19C2
  8
SAPA_MATT
 10
-126.3557794594702
 20
21.99999999999979
 30
0.0
 11
-125.3557794594702
 21
21.99999999999979
 31
0.0
 12
-125.8557794594702
 22
24.999999999999801
 32
0.0
 13
-125.8557794594702
 23
24.999999999999801
 33
0.0
  0
SOLID
  5
19C3
  8
SAPA_MATT
 10
-126.3557794594702
 20
-22.00000000000021
 30
0.0
 11
-125.3557794594702
 21
-22.00000000000021
 31
0.0
 12
-125.8557794594702
 22
-25.00000000000021
 32
0.0
 13
-125.8557794594702
 23
-25.00000000000021
 33
0.0
  0
INSERT
  5
19C4
  8
0
  2
*U165
 10
0.0
 20
0.0
 30
0.0
  0
POINT
  5
19C5
  8
DEFPOINTS
 62
     0
 10
-105.9999999990104
 20
24.99999999999979
 30
0.0
  0
POINT
  5
19C6
  8
DEFPOINTS
 62
     0
 10
-105.9999999990104
 20
-25.00000000000021
 30
0.0
  0
POINT
  5
19C7
  8
DEFPOINTS
 62
     0
 10
-125.8557794594702
 20
-25.00000000000021
 30
0.0
  0
ENDBLK
  5
1972
  8
0
  0
BLOCK
  8
0
  2
*D148
 70
     1
 10
0.0
 20
0.0
 30
0.0
  3
*D148
  1

  0
LINE
  5
2AF2
  8
SAPA_MATT
 10
-107.4999999990107
 20
-25.00000000000021
 30
0.0
 11
-127.3557794594704
 21
-25.00000000000021
 31
0.0
  0
LINE
  5
2AF3
  8
SAPA_MATT
 10
-76.299999251909824
 20
-76.000000000000043
 30
0.0
 11
-127.3557794594705
 21
-76.000000000000028
 31
0.0
  0
LINE
  5
2AF4
  8
SAPA_MATT
 10
-125.8557794594705
 20
-28.00000000000021
 30
0.0
 11
-125.8557794594705
 21
-73.000000000000028
 31
0.0
  0
SOLID
  5
2AF5
  8
SAPA_MATT
 10
-126.3557794594705
 20
-28.00000000000021
 30
0.0
 11
-125.3557794594705
 21
-28.00000000000021
 31
0.0
 12
-125.8557794594705
 22
-25.00000000000021
 32
0.0
 13
-125.8557794594705
 23
-25.00000000000021
 33
0.0
  0
SOLID
  5
2AF6
  8
SAPA_MATT
 10
-126.3557794594705
 20
-73.000000000000028
 30
0.0
 11
-125.3557794594705
 21
-73.000000000000028
 31
0.0
 12
-125.8557794594705
 22
-76.000000000000028
 32
0.0
 13
-125.8557794594705
 23
-76.000000000000028
 33
0.0
  0
TEXT
  8
SAPA_MATT
  40
3
  5
2AFF
  62
2
  72
0
  71
0
 10
-134.356
 20
-55.8100
 30
0.000000
  1
51
  7
ISO
  0
POINT
  5
2AF8
  8
DEFPOINTS
 62
     0
 10
-105.9999999990107
 20
-25.00000000000021
 30
0.0
  0
POINT
  5
2AF9
  8
DEFPOINTS
 62
     0
 10
-74.799999251909824
 20
-76.000000000000043
 30
0.0
  0
POINT
  5
2AFA
  8
DEFPOINTS
 62
     0
 10
-125.8557794594705
 20
-76.000000000000028
 30
0.0
  0
ENDBLK
  5
197E
  8
0
  0
BLOCK
  8
0
  2
*D149
 70
     1
 10
0.0
 20
0.0
 30
0.0
  3
*D149
  1

  0
LINE
  5
2AE7
  8
SAPA_MATT
 10
-76.299999251909824
 20
-76.000000000000043
 30
0.0
 11
-127.3557794594705
 21
-76.000000000000028
 31
0.0
  0
LINE
  5
2AE8
  8
SAPA_MATT
 10
-81.723359969942308
 20
-81.000000000000043
 30
0.0
 11
-127.3557794594705
 21
-81.000000000000028
 31
0.0
  0
LINE
  5
2AE9
  8
SAPA_MATT
 10
-125.8557794594705
 20
-73.000000000000028
 30
0.0
 11
-125.8557794594705
 21
-70.000000000000028
 31
0.0
  0
LINE
  5
2AEA
  8
SAPA_MATT
 10
-125.8557794594705
 20
-84.000000000000028
 30
0.0
 11
-125.8557794594705
 21
-87.000000000000014
 31
0.0
  0
LINE
  5
2AEB
  8
SAPA_MATT
 10
-125.8557794594705
 20
-76.000000000000028
 30
0.0
 11
-125.8557794594705
 21
-81.000000000000028
 31
0.0
  0
SOLID
  5
2AEC
  8
SAPA_MATT
 10
-126.3557794594705
 20
-73.000000000000028
 30
0.0
 11
-125.3557794594705
 21
-73.000000000000028
 31
0.0
 12
-125.8557794594705
 22
-76.000000000000028
 32
0.0
 13
-125.8557794594705
 23
-76.000000000000028
 33
0.0
  0
SOLID
  5
2AED
  8
SAPA_MATT
 10
-126.3557794594705
 20
-84.000000000000028
 30
0.0
 11
-125.3557794594705
 21
-84.000000000000028
 31
0.0
 12
-125.8557794594705
 22
-81.000000000000028
 32
0.0
 13
-125.8557794594705
 23
-81.000000000000028
 33
0.0
  0
TEXT
  8
SAPA_MATT
  40
3
  5
2B00
  62
2
  72
0
  71
0
 10
-134.356
 20
-83.8100
 30
0.000000
  1
5
  7
ISO
  0
POINT
  5
2AEF
  8
DEFPOINTS
 62
     0
 10
-74.799999251909824
 20
-76.000000000000043
 30
0.0
  0
POINT
  5
2AF0
  8
DEFPOINTS
 62
     0
 10
-80.223359969942308
 20
-81.000000000000043
 30
0.0
  0
POINT
  5
2AF1
  8
DEFPOINTS
 62
     0
 10
-125.8557794594705
 20
-81.000000000000028
 30
0.0
  0
ENDBLK
  5
198A
  8
0
  0
BLOCK
  8
0
  2
*D150
 70
     1
 10
0.0
 20
0.0
 30
0.0
  3
*D150
  1

  0
LINE
  5
2ADE
  8
SAPA_MATT
 10
-81.99999996379627
 20
-80.999976179970446
 30
0.0
 11
-127.3557794594704
 21
-80.999976179970446
 31
0.0
  0
LINE
  5
2ADF
  8
SAPA_MATT
 10
-83.499999996299906
 20
-169.99997618387761
 30
0.0
 11
-127.3557794594705
 21
-169.99997618387761
 31
0.0
  0
LINE
  5
2AE0
  8
SAPA_MATT
 10
-125.8557794594705
 20
-83.999976179970446
 30
0.0
 11
-125.8557794594705
 21
-166.99997618387761
 31
0.0
  0
SOLID
  5
2AE1
  8
SAPA_MATT
 10
-126.3557794594705
 20
-83.999976179970446
 30
0.0
 11
-125.3557794594705
 21
-83.999976179970446
 31
0.0
 12
-125.8557794594705
 22
-80.999976179970446
 32
0.0
 13
-125.8557794594705
 23
-80.999976179970446
 33
0.0
  0
SOLID
  5
2AE2
  8
SAPA_MATT
 10
-126.3557794594705
 20
-166.99997618387761
 30
0.0
 11
-125.3557794594705
 21
-166.99997618387761
 31
0.0
 12
-125.8557794594705
 22
-169.99997618387761
 32
0.0
 13
-125.8557794594705
 23
-169.99997618387761
 33
0.0
  0
TEXT
  8
SAPA_MATT
  40
3
  5
2B01
  62
2
  72
0
  71
0
 10
-134.356
 20
-130.810
 30
0.000000
  1
89
  7
ISO
  0
POINT
  5
2AE4
  8
DEFPOINTS
 62
     0
 10
-80.49999996379627
 20
-80.999976179970446
 30
0.0
  0
POINT
  5
2AE5
  8
DEFPOINTS
 62
     0
 10
-81.999999996299934
 20
-169.99997618387761
 30
0.0
  0
POINT
  5
2AE6
  8
DEFPOINTS
 62
     0
 10
-125.8557794594705
 20
-169.99997618387761
 30
0.0
  0
ENDBLK
  5
1998
  8
0
  0
BLOCK
  8
0
  2
*U151
 70
     1
 10
0.0
 20
0.0
 30
0.0
  3
*U151
  1

  0
TEXT
  5
1A26
  8
SAPA_ARTIKELNR
 10
-5.7581104724817891
 20
-4.4228584218004539
 30
0.0
 40
3.5
  1
68654
 50
360.0
  7
ISO
  0
ENDBLK
  5
1A28
  8
0
  0
BLOCK
  8
0
  2
*U152
 70
     1
 10
0.0
 20
0.0
 30
0.0
  3
*U152
  1

  0
TEXT
  5
1A2A
  8
SAPA_ARTIKELNR
 10
-98.644952453787056
 20
-5.8723574498566853
 30
0.0
 40
3.5
  1
42657
 50
89.999999999999986
  7
ISO
  0
ENDBLK
  5
1A2C
  8
0
  0
BLOCK
  8
0
  2
*U153
 70
     1
 10
0.0
 20
0.0
 30
0.0
  3
*U153
  1

  0
TEXT
  5
1A2E
  8
SAPA_ARTIKELNR
 10
-108.4101109548389
 20
-6.1337751367639477
 30
0.0
 40
3.5
  1
42227
 50
89.999999999999986
  7
ISO
  0
ENDBLK
  5
1A30
  8
0
  0
BLOCK
  8
0
  2
*U154
 70
     1
 10
0.0
 20
0.0
 30
0.0
  3
*U154
  1

  0
TEXT
  5
1A76
  8
SAPA_ARTIKELNR
 10
11.675187301860589
 20
-62.139348054729091
 30
0.0
 40
3.5
  1
86423
 50
89.999999999999986
  7
ISO
  0
ENDBLK
  5
1A78
  8
0
  0
BLOCK
  8
0
  2
*U155
 70
     1
 10
0.0
 20
0.0
 30
0.0
  3
*U155
  1

  0
TEXT
  5
1A7A
  8
SAPA_ARTIKELNR
 10
12.41170340400134
 20
-122.80611658935619
 30
0.0
 40
3.5
  1
86424
 50
89.999999999999986
  7
ISO
  0
ENDBLK
  5
1A7C
  8
0
  0
BLOCK
  8
0
  2
*U156
 70
     1
 10
0.0
 20
0.0
 30
0.0
  3
*U156
  1

  0
TEXT
  5
1A7E
  8
SAPA_ARTIKELNR
 10
10.9230919979488
 20
-164.94803123671051
 30
0.0
 40
3.5
  1
42728
 50
89.999999999999957
  7
ISO
  0
ENDBLK
  5
1A80
  8
0
  0
BLOCK
  8
0
  2
*U157
 70
     1
 10
0.0
 20
0.0
 30
0.0
  3
*U157
  1

  0
SOLID
  5
1CF2
  8
SAPA_PROFIL
  6
CONTINUOUS
 62
     2
 10
-77.31733998509489
 20
-86.581483681342405
 30
0.1
 11
-77.494116680391528
 21
-86.654706986045767
 31
0.1
 12
-77.140563289798251
 22
-86.654706986045767
 32
0.1
 13
-77.140563289798251
 23
-86.654706986045767
 33
0.1
210
0.0
220
0.0
230
1.0
  0
SOLID
  5
1CF3
  8
SAPA_PROFIL
  6
CONTINUOUS
 62
     2
 10
-77.494116680391528
 20
-86.654706986045767
 30
0.1
 11
-77.567339985094875
 21
-86.831483681342419
 31
0.1
 12
-77.06733998509489
 22
-86.831483681342419
 32
0.1
 13
-77.06733998509489
 23
-86.831483681342419
 33
0.1
210
0.0
220
0.0
230
1.0
  0
SOLID
  5
1CF4
  8
SAPA_PROFIL
  6
CONTINUOUS
 62
     2
 10
77.494116680391528
 20
-86.654706986045767
 30
-0.1
 11
77.140563289798251
 21
-86.654706986045767
 31
-0.1
 12
77.06733998509489
 22
-86.831483681342419
 32
-0.1
 13
77.06733998509489
 23
-86.831483681342419
 33
-0.1
210
0.0
220
0.0
230
-1.0
  0
SOLID
  5
1CF5
  8
SAPA_PROFIL
  6
CONTINUOUS
 62
     2
 10
77.494116680391528
 20
-87.008260376639058
 30
-0.1
 11
77.140563289798251
 21
-87.008260376639058
 31
-0.1
 12
77.31733998509489
 22
-87.081483681342419
 32
-0.1
 13
77.31733998509489
 23
-87.081483681342419
 33
-0.1
210
0.0
220
0.0
230
-1.0
  0
SOLID
  5
1CF6
  8
SAPA_PROFIL
  6
CONTINUOUS
 62
     2
 10
-77.567339985094875
 20
-86.831483681342419
 30
0.1
 11
-77.494116680391528
 21
-87.008260376639058
 31
0.1
 12
-77.140563289798251
 22
-87.008260376639058
 32
0.1
 13
-77.140563289798251
 23
-87.008260376639058
 33
0.1
210
0.0
220
0.0
230
1.0
  0
SOLID
  5
1CF7
  8
SAPA_PROFIL
  6
CONTINUOUS
 62
     2
 10
77.567339985094875
 20
-86.831483681342419
 30
-0.1
 11
77.06733998509489
 21
-86.831483681342419
 31
-0.1
 12
77.140563289798251
 22
-87.008260376639058
 32
-0.1
 13
77.140563289798251
 23
-87.008260376639058
 33
-0.1
210
0.0
220
0.0
230
-1.0
  0
LINE
  5
1CF8
  8
SAPA_PROFIL
  6
CONTINUOUS
 62
     2
 10
-77.31733998509489
 20
-86.581483681342405
 30
0.1
 11
-77.494116680391528
 21
-86.654706986045767
 31
0.1
  0
LINE
  5
1CF9
  8
SAPA_PROFIL
  6
CONTINUOUS
 62
     2
 10
-77.140563289798251
 20
-86.654706986045767
 30
0.1
 11
-77.31733998509489
 21
-86.581483681342405
 31
0.1
  0
LINE
  5
1CFA
  8
SAPA_PROFIL
  6
CONTINUOUS
 62
     2
 10
-77.494116680391528
 20
-86.654706986045767
 30
0.1
 11
-77.567339985094875
 21
-86.831483681342419
 31
0.1
  0
LINE
  5
1CFB
  8
SAPA_PROFIL
  6
CONTINUOUS
 62
     2
 10
-77.140563289798251
 20
-86.654706986045767
 30
0.1
 11
-77.06733998509489
 21
-86.831483681342419
 31
0.1
  0
LINE
  5
1CFC
  8
SAPA_PROFIL
  6
CONTINUOUS
 62
     2
 10
-77.140563289798251
 20
-87.008260376639058
 30
0.1
 11
-77.31733998509489
 21
-87.081483681342419
 31
0.1
  0
LINE
  5
1CFD
  8
SAPA_PROFIL
  6
CONTINUOUS
 62
     2
 10
-77.31733998509489
 20
-87.081483681342419
 30
0.1
 11
-77.494116680391528
 21
-87.008260376639058
 31
0.1
  0
LINE
  5
1CFE
  8
SAPA_PROFIL
  6
CONTINUOUS
 62
     2
 10
-77.567339985094875
 20
-86.831483681342419
 30
0.1
 11
-77.494116680391528
 21
-87.008260376639058
 31
0.1
  0
LINE
  5
1CFF
  8
SAPA_PROFIL
  6
CONTINUOUS
 62
     2
 10
-77.06733998509489
 20
-86.831483681342419
 30
0.1
 11
-77.140563289798251
 21
-87.008260376639058
 31
0.1
  0
ENDBLK
  5
1D01
  8
0
  0
BLOCK
  8
0
  2
*U158
 70
     1
 10
0.0
 20
0.0
 30
0.0
  3
*U158
  1

  0
SOLID
  5
1F3C
  8
SAPA_PROFIL
  6
CONTINUOUS
 62
     2
 10
-1.753158469717901
 20
-91.744202787261329
 30
0.0
 11
-1.9299351650145371
 21
-91.817426091964691
 31
0.0
 12
-1.576381774421264
 22
-91.817426091964691
 32
0.0
 13
-1.576381774421264
 23
-91.817426091964691
 33
0.0
210
0.0
220
0.0
230
1.0
  0
SOLID
  5
1F3D
  8
SAPA_PROFIL
  6
CONTINUOUS
 62
     2
 10
-1.9299351650145371
 20
-91.817426091964691
 30
0.0
 11
-2.003158469717901
 21
-91.994202787261329
 31
0.0
 12
-1.503158469717901
 22
-91.994202787261329
 32
0.0
 13
-1.503158469717901
 23
-91.994202787261329
 33
0.0
210
0.0
220
0.0
230
1.0
  0
SOLID
  5
1F3E
  8
SAPA_PROFIL
  6
CONTINUOUS
 62
     2
 10
1.9299351650145371
 20
-91.817426091964691
 30
0.0
 11
1.576381774421264
 21
-91.817426091964691
 31
0.0
 12
1.503158469717901
 22
-91.994202787261329
 32
0.0
 13
1.503158469717901
 23
-91.994202787261329
 33
0.0
210
0.0
220
0.0
230
-1.0
  0
SOLID
  5
1F3F
  8
SAPA_PROFIL
  6
CONTINUOUS
 62
     2
 10
1.9299351650145371
 20
-92.170979482557954
 30
0.0
 11
1.576381774421264
 21
-92.170979482557954
 31
0.0
 12
1.753158469717901
 22
-92.244202787261344
 32
0.0
 13
1.753158469717901
 23
-92.244202787261344
 33
0.0
210
0.0
220
0.0
230
-1.0
  0
SOLID
  5
1F40
  8
SAPA_PROFIL
  6
CONTINUOUS
 62
     2
 10
-2.003158469717901
 20
-91.994202787261329
 30
0.0
 11
-1.9299351650145371
 21
-92.170979482557954
 31
0.0
 12
-1.576381774421264
 22
-92.170979482557954
 32
0.0
 13
-1.576381774421264
 23
-92.170979482557954
 33
0.0
210
0.0
220
0.0
230
1.0
  0
SOLID
  5
1F41
  8
SAPA_PROFIL
  6
CONTINUOUS
 62
     2
 10
2.003158469717901
 20
-91.994202787261329
 30
0.0
 11
1.503158469717901
 21
-91.994202787261329
 31
0.0
 12
1.576381774421264
 22
-92.170979482557954
 32
0.0
 13
1.576381774421264
 23
-92.170979482557954
 33
0.0
210
0.0
220
0.0
230
-1.0
  0
LINE
  5
1F42
  8
SAPA_PROFIL
  6
CONTINUOUS
 62
     2
 10
-1.753158469717901
 20
-91.744202787261329
 30
0.0
 11
-1.9299351650145371
 21
-91.817426091964691
 31
0.0
  0
LINE
  5
1F43
  8
SAPA_PROFIL
  6
CONTINUOUS
 62
     2
 10
-1.576381774421264
 20
-91.817426091964691
 30
0.0
 11
-1.753158469717901
 21
-91.744202787261329
 31
0.0
  0
LINE
  5
1F44
  8
SAPA_PROFIL
  6
CONTINUOUS
 62
     2
 10
-1.9299351650145371
 20
-91.817426091964691
 30
0.0
 11
-2.003158469717901
 21
-91.994202787261329
 31
0.0
  0
LINE
  5
1F45
  8
SAPA_PROFIL
  6
CONTINUOUS
 62
     2
 10
-1.576381774421264
 20
-91.817426091964691
 30
0.0
 11
-1.503158469717901
 21
-91.994202787261329
 31
0.0
  0
LINE
  5
1F46
  8
SAPA_PROFIL
  6
CONTINUOUS
 62
     2
 10
-1.576381774421264
 20
-92.170979482557954
 30
0.0
 11
-1.753158469717901
 21
-92.244202787261344
 31
0.0
  0
LINE
  5
1F47
  8
SAPA_PROFIL
  6
CONTINUOUS
 62
     2
 10
-1.753158469717901
 20
-92.244202787261344
 30
0.0
 11
-1.9299351650145371
 21
-92.170979482557954
 31
0.0
  0
LINE
  5
1F48
  8
SAPA_PROFIL
  6
CONTINUOUS
 62
     2
 10
-2.003158469717901
 20
-91.994202787261329
 30
0.0
 11
-1.9299351650145371
 21
-92.170979482557954
 31
0.0
  0
LINE
  5
1F49
  8
SAPA_PROFIL
  6
CONTINUOUS
 62
     2
 10
-1.503158469717901
 20
-91.994202787261329
 30
0.0
 11
-1.576381774421264
 21
-92.170979482557954
 31
0.0
  0
ENDBLK
  5
1F4B
  8
0
  0
BLOCK
  8
0
  2
*U159
 70
     1
 10
0.0
 20
0.0
 30
0.0
  3
*U159
  1

  0
SOLID
  5
23A6
  8
SAPA_PROFIL
  6
CONTINUOUS
 62
     2
 10
-77.31733998509489
 20
-86.581483681342405
 30
0.1
 11
-77.494116680391528
 21
-86.654706986045767
 31
0.1
 12
-77.140563289798251
 22
-86.654706986045767
 32
0.1
 13
-77.140563289798251
 23
-86.654706986045767
 33
0.1
210
0.0
220
0.0
230
1.0
  0
SOLID
  5
23A7
  8
SAPA_PROFIL
  6
CONTINUOUS
 62
     2
 10
-77.494116680391528
 20
-86.654706986045767
 30
0.1
 11
-77.567339985094875
 21
-86.831483681342419
 31
0.1
 12
-77.06733998509489
 22
-86.831483681342419
 32
0.1
 13
-77.06733998509489
 23
-86.831483681342419
 33
0.1
210
0.0
220
0.0
230
1.0
  0
SOLID
  5
23A8
  8
SAPA_PROFIL
  6
CONTINUOUS
 62
     2
 10
77.494116680391528
 20
-86.654706986045767
 30
-0.1
 11
77.140563289798251
 21
-86.654706986045767
 31
-0.1
 12
77.06733998509489
 22
-86.831483681342419
 32
-0.1
 13
77.06733998509489
 23
-86.831483681342419
 33
-0.1
210
0.0
220
0.0
230
-1.0
  0
SOLID
  5
23A9
  8
SAPA_PROFIL
  6
CONTINUOUS
 62
     2
 10
77.494116680391528
 20
-87.008260376639058
 30
-0.1
 11
77.140563289798251
 21
-87.008260376639058
 31
-0.1
 12
77.31733998509489
 22
-87.081483681342419
 32
-0.1
 13
77.31733998509489
 23
-87.081483681342419
 33
-0.1
210
0.0
220
0.0
230
-1.0
  0
SOLID
  5
23AA
  8
SAPA_PROFIL
  6
CONTINUOUS
 62
     2
 10
-77.567339985094875
 20
-86.831483681342419
 30
0.1
 11
-77.494116680391528
 21
-87.008260376639058
 31
0.1
 12
-77.140563289798251
 22
-87.008260376639058
 32
0.1
 13
-77.140563289798251
 23
-87.008260376639058
 33
0.1
210
0.0
220
0.0
230
1.0
  0
SOLID
  5
23AB
  8
SAPA_PROFIL
  6
CONTINUOUS
 62
     2
 10
77.567339985094875
 20
-86.831483681342419
 30
-0.1
 11
77.06733998509489
 21
-86.831483681342419
 31
-0.1
 12
77.140563289798251
 22
-87.008260376639058
 32
-0.1
 13
77.140563289798251
 23
-87.008260376639058
 33
-0.1
210
0.0
220
0.0
230
-1.0
  0
LINE
  5
23AC
  8
SAPA_PROFIL
  6
CONTINUOUS
 62
     2
 10
-77.31733998509489
 20
-86.581483681342405
 30
0.1
 11
-77.494116680391528
 21
-86.654706986045767
 31
0.1
  0
LINE
  5
23AD
  8
SAPA_PROFIL
  6
CONTINUOUS
 62
     2
 10
-77.140563289798251
 20
-86.654706986045767
 30
0.1
 11
-77.31733998509489
 21
-86.581483681342405
 31
0.1
  0
LINE
  5
23AE
  8
SAPA_PROFIL
  6
CONTINUOUS
 62
     2
 10
-77.494116680391528
 20
-86.654706986045767
 30
0.1
 11
-77.567339985094875
 21
-86.831483681342419
 31
0.1
  0
LINE
  5
23AF
  8
SAPA_PROFIL
  6
CONTINUOUS
 62
     2
 10
-77.140563289798251
 20
-86.654706986045767
 30
0.1
 11
-77.06733998509489
 21
-86.831483681342419
 31
0.1
  0
LINE
  5
23B0
  8
SAPA_PROFIL
  6
CONTINUOUS
 62
     2
 10
-77.140563289798251
 20
-87.008260376639058
 30
0.1
 11
-77.31733998509489
 21
-87.081483681342419
 31
0.1
  0
LINE
  5
23B1
  8
SAPA_PROFIL
  6
CONTINUOUS
 62
     2
 10
-77.31733998509489
 20
-87.081483681342419
 30
0.1
 11
-77.494116680391528
 21
-87.008260376639058
 31
0.1
  0
LINE
  5
23B2
  8
SAPA_PROFIL
  6
CONTINUOUS
 62
     2
 10
-77.567339985094875
 20
-86.831483681342419
 30
0.1
 11
-77.494116680391528
 21
-87.008260376639058
 31
0.1
  0
LINE
  5
23B3
  8
SAPA_PROFIL
  6
CONTINUOUS
 62
     2
 10
-77.06733998509489
 20
-86.831483681342419
 30
0.1
 11
-77.140563289798251
 21
-87.008260376639058
 31
0.1
  0
ENDBLK
  5
23B5
  8
0
  0
BLOCK
  8
0
  2
*U160
 70
     1
 10
0.0
 20
0.0
 30
0.0
  3
*U160
  1

  0
SOLID
  5
25F0
  8
SAPA_PROFIL
  6
CONTINUOUS
 62
     2
 10
-1.753158469717901
 20
-91.744202787261329
 30
0.0
 11
-1.9299351650145371
 21
-91.817426091964691
 31
0.0
 12
-1.576381774421264
 22
-91.817426091964691
 32
0.0
 13
-1.576381774421264
 23
-91.817426091964691
 33
0.0
210
0.0
220
0.0
230
1.0
  0
SOLID
  5
25F1
  8
SAPA_PROFIL
  6
CONTINUOUS
 62
     2
 10
-1.9299351650145371
 20
-91.817426091964691
 30
0.0
 11
-2.003158469717901
 21
-91.994202787261329
 31
0.0
 12
-1.503158469717901
 22
-91.994202787261329
 32
0.0
 13
-1.503158469717901
 23
-91.994202787261329
 33
0.0
210
0.0
220
0.0
230
1.0
  0
SOLID
  5
25F2
  8
SAPA_PROFIL
  6
CONTINUOUS
 62
     2
 10
1.9299351650145371
 20
-91.817426091964691
 30
0.0
 11
1.576381774421264
 21
-91.817426091964691
 31
0.0
 12
1.503158469717901
 22
-91.994202787261329
 32
0.0
 13
1.503158469717901
 23
-91.994202787261329
 33
0.0
210
0.0
220
0.0
230
-1.0
  0
SOLID
  5
25F3
  8
SAPA_PROFIL
  6
CONTINUOUS
 62
     2
 10
1.9299351650145371
 20
-92.170979482557954
 30
0.0
 11
1.576381774421264
 21
-92.170979482557954
 31
0.0
 12
1.753158469717901
 22
-92.244202787261344
 32
0.0
 13
1.753158469717901
 23
-92.244202787261344
 33
0.0
210
0.0
220
0.0
230
-1.0
  0
SOLID
  5
25F4
  8
SAPA_PROFIL
  6
CONTINUOUS
 62
     2
 10
-2.003158469717901
 20
-91.994202787261329
 30
0.0
 11
-1.9299351650145371
 21
-92.170979482557954
 31
0.0
 12
-1.576381774421264
 22
-92.170979482557954
 32
0.0
 13
-1.576381774421264
 23
-92.170979482557954
 33
0.0
210
0.0
220
0.0
230
1.0
  0
SOLID
  5
25F5
  8
SAPA_PROFIL
  6
CONTINUOUS
 62
     2
 10
2.003158469717901
 20
-91.994202787261329
 30
0.0
 11
1.503158469717901
 21
-91.994202787261329
 31
0.0
 12
1.576381774421264
 22
-92.170979482557954
 32
0.0
 13
1.576381774421264
 23
-92.170979482557954
 33
0.0
210
0.0
220
0.0
230
-1.0
  0
LINE
  5
25F6
  8
SAPA_PROFIL
  6
CONTINUOUS
 62
     2
 10
-1.753158469717901
 20
-91.744202787261329
 30
0.0
 11
-1.9299351650145371
 21
-91.817426091964691
 31
0.0
  0
LINE
  5
25F7
  8
SAPA_PROFIL
  6
CONTINUOUS
 62
     2
 10
-1.576381774421264
 20
-91.817426091964691
 30
0.0
 11
-1.753158469717901
 21
-91.744202787261329
 31
0.0
  0
LINE
  5
25F8
  8
SAPA_PROFIL
  6
CONTINUOUS
 62
     2
 10
-1.9299351650145371
 20
-91.817426091964691
 30
0.0
 11
-2.003158469717901
 21
-91.994202787261329
 31
0.0
  0
LINE
  5
25F9
  8
SAPA_PROFIL
  6
CONTINUOUS
 62
     2
 10
-1.576381774421264
 20
-91.817426091964691
 30
0.0
 11
-1.503158469717901
 21
-91.994202787261329
 31
0.0
  0
LINE
  5
25FA
  8
SAPA_PROFIL
  6
CONTINUOUS
 62
     2
 10
-1.576381774421264
 20
-92.170979482557954
 30
0.0
 11
-1.753158469717901
 21
-92.244202787261344
 31
0.0
  0
LINE
  5
25FB
  8
SAPA_PROFIL
  6
CONTINUOUS
 62
     2
 10
-1.753158469717901
 20
-92.244202787261344
 30
0.0
 11
-1.9299351650145371
 21
-92.170979482557954
 31
0.0
  0
LINE
  5
25FC
  8
SAPA_PROFIL
  6
CONTINUOUS
 62
     2
 10
-2.003158469717901
 20
-91.994202787261329
 30
0.0
 11
-1.9299351650145371
 21
-92.170979482557954
 31
0.0
  0
LINE
  5
25FD
  8
SAPA_PROFIL
  6
CONTINUOUS
 62
     2
 10
-1.503158469717901
 20
-91.994202787261329
 30
0.0
 11
-1.576381774421264
 21
-92.170979482557954
 31
0.0
  0
ENDBLK
  5
25FF
  8
0
  0
BLOCK
  8
0
  2
*U161
 70
     1
 10
0.0
 20
0.0
 30
0.0
  3
*U161
  1

  0
SOLID
  5
28A5
  8
SAPA_FOGBAND
  6
CONTINUOUS
 10
-84.637568177760954
 20
-18.361894221040661
 30
0.0
 11
-84.817845741534157
 21
-18.436567632947099
 31
0.0
 12
-84.457290613987752
 22
-18.436567632947099
 32
0.0
 13
-84.457290613987752
 23
-18.436567632947099
 33
0.0
210
0.0
220
0.0
230
1.0
  0
SOLID
  5
28A6
  8
SAPA_FOGBAND
  6
CONTINUOUS
 10
-84.817845741534157
 20
-18.436567632947099
 30
0.0
 11
-84.892519153440588
 21
-18.616845196720298
 31
0.0
 12
-84.38261720208132
 22
-18.616845196720298
 32
0.0
 13
-84.38261720208132
 23
-18.616845196720298
 33
0.0
210
0.0
220
0.0
230
1.0
  0
SOLID
  5
28A7
  8
SAPA_FOGBAND
  6
CONTINUOUS
 10
84.817845741534157
 20
-18.436567632947099
 30
0.0
 11
84.457290613987752
 21
-18.436567632947099
 31
0.0
 12
84.38261720208132
 22
-18.616845196720298
 32
0.0
 13
84.38261720208132
 23
-18.616845196720298
 33
0.0
210
0.0
220
0.0
230
-1.0
  0
SOLID
  5
28A8
  8
SAPA_FOGBAND
  6
CONTINUOUS
 10
84.817845741534157
 20
-18.797122760493501
 30
0.0
 11
84.457290613987752
 21
-18.797122760493501
 31
0.0
 12
84.637568177760954
 22
-18.87179617239995
 32
0.0
 13
84.637568177760954
 23
-18.87179617239995
 33
0.0
210
0.0
220
0.0
230
-1.0
  0
SOLID
  5
28A9
  8
SAPA_FOGBAND
  6
CONTINUOUS
 10
-84.892519153440588
 20
-18.616845196720298
 30
0.0
 11
-84.817845741534157
 21
-18.797122760493501
 31
0.0
 12
-84.457290613987752
 22
-18.797122760493501
 32
0.0
 13
-84.457290613987752
 23
-18.797122760493501
 33
0.0
210
0.0
220
0.0
230
1.0
  0
SOLID
  5
28AA
  8
SAPA_FOGBAND
  6
CONTINUOUS
 10
84.892519153440588
 20
-18.616845196720298
 30
0.0
 11
84.38261720208132
 21
-18.616845196720298
 31
0.0
 12
84.457290613987752
 22
-18.797122760493501
 32
0.0
 13
84.457290613987752
 23
-18.797122760493501
 33
0.0
210
0.0
220
0.0
230
-1.0
  0
LINE
  5
28AB
  8
SAPA_FOGBAND
  6
CONTINUOUS
 10
-84.637568177760954
 20
-18.361894221040661
 30
0.0
 11
-84.817845741534157
 21
-18.436567632947099
 31
0.0
  0
LINE
  5
28AC
  8
SAPA_FOGBAND
  6
CONTINUOUS
 10
-84.457290613987752
 20
-18.436567632947099
 30
0.0
 11
-84.637568177760954
 21
-18.361894221040661
 31
0.0
  0
LINE
  5
28AD
  8
SAPA_FOGBAND
  6
CONTINUOUS
 10
-84.817845741534157
 20
-18.436567632947099
 30
0.0
 11
-84.892519153440588
 21
-18.616845196720298
 31
0.0
  0
LINE
  5
28AE
  8
SAPA_FOGBAND
  6
CONTINUOUS
 10
-84.457290613987752
 20
-18.436567632947099
 30
0.0
 11
-84.38261720208132
 21
-18.616845196720298
 31
0.0
  0
LINE
  5
28AF
  8
SAPA_FOGBAND
  6
CONTINUOUS
 10
-84.457290613987752
 20
-18.797122760493501
 30
0.0
 11
-84.637568177760954
 21
-18.87179617239995
 31
0.0
  0
LINE
  5
28B0
  8
SAPA_FOGBAND
  6
CONTINUOUS
 10
-84.637568177760954
 20
-18.87179617239995
 30
0.0
 11
-84.817845741534157
 21
-18.797122760493501
 31
0.0
  0
LINE
  5
28B1
  8
SAPA_FOGBAND
  6
CONTINUOUS
 10
-84.892519153440588
 20
-18.616845196720298
 30
0.0
 11
-84.817845741534157
 21
-18.797122760493501
 31
0.0
  0
LINE
  5
28B2
  8
SAPA_FOGBAND
  6
CONTINUOUS
 10
-84.38261720208132
 20
-18.616845196720298
 30
0.0
 11
-84.457290613987752
 21
-18.797122760493501
 31
0.0
  0
ENDBLK
  5
28B4
  8
0
  0
BLOCK
  8
0
  2
*U162
 70
     1
 10
0.0
 20
0.0
 30
0.0
  3
*U162
  1

  0
SOLID
  5
2923
  8
SAPA_FOGBAND
  6
CONTINUOUS
 10
-84.641571726353106
 20
18.93430777127978
 30
0.0
 11
-84.821849290126295
 21
18.859634359373342
 31
0.0
 12
-84.461294162579904
 22
18.859634359373342
 32
0.0
 13
-84.461294162579904
 23
18.859634359373342
 33
0.0
210
0.0
220
0.0
230
1.0
  0
SOLID
  5
2924
  8
SAPA_FOGBAND
  6
CONTINUOUS
 10
-84.821849290126295
 20
18.859634359373342
 30
0.0
 11
-84.89652270203274
 21
18.679356795600139
 31
0.0
 12
-84.386620750673458
 22
18.679356795600139
 32
0.0
 13
-84.386620750673458
 23
18.679356795600139
 33
0.0
210
0.0
220
0.0
230
1.0
  0
SOLID
  5
2925
  8
SAPA_FOGBAND
  6
CONTINUOUS
 10
84.821849290126295
 20
18.859634359373342
 30
0.0
 11
84.461294162579904
 21
18.859634359373342
 31
0.0
 12
84.386620750673458
 22
18.679356795600139
 32
0.0
 13
84.386620750673458
 23
18.679356795600139
 33
0.0
210
0.0
220
0.0
230
-1.0
  0
SOLID
  5
2926
  8
SAPA_FOGBAND
  6
CONTINUOUS
 10
84.821849290126295
 20
18.49907923182694
 30
0.0
 11
84.461294162579904
 21
18.49907923182694
 31
0.0
 12
84.641571726353106
 22
18.424405819920501
 32
0.0
 13
84.641571726353106
 23
18.424405819920501
 33
0.0
210
0.0
220
0.0
230
-1.0
  0
SOLID
  5
2927
  8
SAPA_FOGBAND
  6
CONTINUOUS
 10
-84.89652270203274
 20
18.679356795600139
 30
0.0
 11
-84.821849290126295
 21
18.49907923182694
 31
0.0
 12
-84.461294162579904
 22
18.49907923182694
 32
0.0
 13
-84.461294162579904
 23
18.49907923182694
 33
0.0
210
0.0
220
0.0
230
1.0
  0
SOLID
  5
2928
  8
SAPA_FOGBAND
  6
CONTINUOUS
 10
84.89652270203274
 20
18.679356795600139
 30
0.0
 11
84.386620750673458
 21
18.679356795600139
 31
0.0
 12
84.461294162579904
 22
18.49907923182694
 32
0.0
 13
84.461294162579904
 23
18.49907923182694
 33
0.0
210
0.0
220
0.0
230
-1.0
  0
LINE
  5
2929
  8
SAPA_FOGBAND
  6
CONTINUOUS
 10
-84.641571726353106
 20
18.93430777127978
 30
0.0
 11
-84.821849290126295
 21
18.859634359373342
 31
0.0
  0
LINE
  5
292A
  8
SAPA_FOGBAND
  6
CONTINUOUS
 10
-84.461294162579904
 20
18.859634359373342
 30
0.0
 11
-84.641571726353106
 21
18.93430777127978
 31
0.0
  0
LINE
  5
292B
  8
SAPA_FOGBAND
  6
CONTINUOUS
 10
-84.821849290126295
 20
18.859634359373342
 30
0.0
 11
-84.89652270203274
 21
18.679356795600139
 31
0.0
  0
LINE
  5
292C
  8
SAPA_FOGBAND
  6
CONTINUOUS
 10
-84.461294162579904
 20
18.859634359373342
 30
0.0
 11
-84.386620750673458
 21
18.679356795600139
 31
0.0
  0
LINE
  5
292D
  8
SAPA_FOGBAND
  6
CONTINUOUS
 10
-84.461294162579904
 20
18.49907923182694
 30
0.0
 11
-84.641571726353106
 21
18.424405819920501
 31
0.0
  0
LINE
  5
292E
  8
SAPA_FOGBAND
  6
CONTINUOUS
 10
-84.641571726353106
 20
18.424405819920501
 30
0.0
 11
-84.821849290126295
 21
18.49907923182694
 31
0.0
  0
LINE
  5
292F
  8
SAPA_FOGBAND
  6
CONTINUOUS
 10
-84.89652270203274
 20
18.679356795600139
 30
0.0
 11
-84.821849290126295
 21
18.49907923182694
 31
0.0
  0
LINE
  5
2930
  8
SAPA_FOGBAND
  6
CONTINUOUS
 10
-84.386620750673458
 20
18.679356795600139
 30
0.0
 11
-84.461294162579904
 21
18.49907923182694
 31
0.0
  0
ENDBLK
  5
2932
  8
0
  0
BLOCK
  8
0
  2
*U163
 70
     1
 10
0.0
 20
0.0
 30
0.0
  3
*U163
  1

  0
SOLID
  5
29CA
  8
SAPA_FOGBAND
  6
CONTINUOUS
 10
-84.637568177760954
 20
-18.361894221040661
 30
0.0
 11
-84.817845741534157
 21
-18.436567632947099
 31
0.0
 12
-84.457290613987752
 22
-18.436567632947099
 32
0.0
 13
-84.457290613987752
 23
-18.436567632947099
 33
0.0
210
0.0
220
0.0
230
1.0
  0
SOLID
  5
29CB
  8
SAPA_FOGBAND
  6
CONTINUOUS
 10
-84.817845741534157
 20
-18.436567632947099
 30
0.0
 11
-84.892519153440588
 21
-18.616845196720298
 31
0.0
 12
-84.38261720208132
 22
-18.616845196720298
 32
0.0
 13
-84.38261720208132
 23
-18.616845196720298
 33
0.0
210
0.0
220
0.0
230
1.0
  0
SOLID
  5
29CC
  8
SAPA_FOGBAND
  6
CONTINUOUS
 10
84.817845741534157
 20
-18.436567632947099
 30
0.0
 11
84.457290613987752
 21
-18.436567632947099
 31
0.0
 12
84.38261720208132
 22
-18.616845196720298
 32
0.0
 13
84.38261720208132
 23
-18.616845196720298
 33
0.0
210
0.0
220
0.0
230
-1.0
  0
SOLID
  5
29CD
  8
SAPA_FOGBAND
  6
CONTINUOUS
 10
84.817845741534157
 20
-18.797122760493501
 30
0.0
 11
84.457290613987752
 21
-18.797122760493501
 31
0.0
 12
84.637568177760954
 22
-18.87179617239995
 32
0.0
 13
84.637568177760954
 23
-18.87179617239995
 33
0.0
210
0.0
220
0.0
230
-1.0
  0
SOLID
  5
29CE
  8
SAPA_FOGBAND
  6
CONTINUOUS
 10
-84.892519153440588
 20
-18.616845196720298
 30
0.0
 11
-84.817845741534157
 21
-18.797122760493501
 31
0.0
 12
-84.457290613987752
 22
-18.797122760493501
 32
0.0
 13
-84.457290613987752
 23
-18.797122760493501
 33
0.0
210
0.0
220
0.0
230
1.0
  0
SOLID
  5
29CF
  8
SAPA_FOGBAND
  6
CONTINUOUS
 10
84.892519153440588
 20
-18.616845196720298
 30
0.0
 11
84.38261720208132
 21
-18.616845196720298
 31
0.0
 12
84.457290613987752
 22
-18.797122760493501
 32
0.0
 13
84.457290613987752
 23
-18.797122760493501
 33
0.0
210
0.0
220
0.0
230
-1.0
  0
LINE
  5
29D0
  8
SAPA_FOGBAND
  6
CONTINUOUS
 10
-84.637568177760954
 20
-18.361894221040661
 30
0.0
 11
-84.817845741534157
 21
-18.436567632947099
 31
0.0
  0
LINE
  5
29D1
  8
SAPA_FOGBAND
  6
CONTINUOUS
 10
-84.457290613987752
 20
-18.436567632947099
 30
0.0
 11
-84.637568177760954
 21
-18.361894221040661
 31
0.0
  0
LINE
  5
29D2
  8
SAPA_FOGBAND
  6
CONTINUOUS
 10
-84.817845741534157
 20
-18.436567632947099
 30
0.0
 11
-84.892519153440588
 21
-18.616845196720298
 31
0.0
  0
LINE
  5
29D3
  8
SAPA_FOGBAND
  6
CONTINUOUS
 10
-84.457290613987752
 20
-18.436567632947099
 30
0.0
 11
-84.38261720208132
 21
-18.616845196720298
 31
0.0
  0
LINE
  5
29D4
  8
SAPA_FOGBAND
  6
CONTINUOUS
 10
-84.457290613987752
 20
-18.797122760493501
 30
0.0
 11
-84.637568177760954
 21
-18.87179617239995
 31
0.0
  0
LINE
  5
29D5
  8
SAPA_FOGBAND
  6
CONTINUOUS
 10
-84.637568177760954
 20
-18.87179617239995
 30
0.0
 11
-84.817845741534157
 21
-18.797122760493501
 31
0.0
  0
LINE
  5
29D6
  8
SAPA_FOGBAND
  6
CONTINUOUS
 10
-84.892519153440588
 20
-18.616845196720298
 30
0.0
 11
-84.817845741534157
 21
-18.797122760493501
 31
0.0
  0
LINE
  5
29D7
  8
SAPA_FOGBAND
  6
CONTINUOUS
 10
-84.38261720208132
 20
-18.616845196720298
 30
0.0
 11
-84.457290613987752
 21
-18.797122760493501
 31
0.0
  0
ENDBLK
  5
29D9
  8
0
  0
BLOCK
  8
0
  2
*U164
 70
     1
 10
0.0
 20
0.0
 30
0.0
  3
*U164
  1

  0
SOLID
  5
2A48
  8
SAPA_FOGBAND
  6
CONTINUOUS
 10
-84.641571726353106
 20
18.93430777127978
 30
0.0
 11
-84.821849290126295
 21
18.859634359373342
 31
0.0
 12
-84.461294162579904
 22
18.859634359373342
 32
0.0
 13
-84.461294162579904
 23
18.859634359373342
 33
0.0
210
0.0
220
0.0
230
1.0
  0
SOLID
  5
2A49
  8
SAPA_FOGBAND
  6
CONTINUOUS
 10
-84.821849290126295
 20
18.859634359373342
 30
0.0
 11
-84.89652270203274
 21
18.679356795600139
 31
0.0
 12
-84.386620750673458
 22
18.679356795600139
 32
0.0
 13
-84.386620750673458
 23
18.679356795600139
 33
0.0
210
0.0
220
0.0
230
1.0
  0
SOLID
  5
2A4A
  8
SAPA_FOGBAND
  6
CONTINUOUS
 10
84.821849290126295
 20
18.859634359373342
 30
0.0
 11
84.461294162579904
 21
18.859634359373342
 31
0.0
 12
84.386620750673458
 22
18.679356795600139
 32
0.0
 13
84.386620750673458
 23
18.679356795600139
 33
0.0
210
0.0
220
0.0
230
-1.0
  0
SOLID
  5
2A4B
  8
SAPA_FOGBAND
  6
CONTINUOUS
 10
84.821849290126295
 20
18.49907923182694
 30
0.0
 11
84.461294162579904
 21
18.49907923182694
 31
0.0
 12
84.641571726353106
 22
18.424405819920501
 32
0.0
 13
84.641571726353106
 23
18.424405819920501
 33
0.0
210
0.0
220
0.0
230
-1.0
  0
SOLID
  5
2A4C
  8
SAPA_FOGBAND
  6
CONTINUOUS
 10
-84.89652270203274
 20
18.679356795600139
 30
0.0
 11
-84.821849290126295
 21
18.49907923182694
 31
0.0
 12
-84.461294162579904
 22
18.49907923182694
 32
0.0
 13
-84.461294162579904
 23
18.49907923182694
 33
0.0
210
0.0
220
0.0
230
1.0
  0
SOLID
  5
2A4D
  8
SAPA_FOGBAND
  6
CONTINUOUS
 10
84.89652270203274
 20
18.679356795600139
 30
0.0
 11
84.386620750673458
 21
18.679356795600139
 31
0.0
 12
84.461294162579904
 22
18.49907923182694
 32
0.0
 13
84.461294162579904
 23
18.49907923182694
 33
0.0
210
0.0
220
0.0
230
-1.0
  0
LINE
  5
2A4E
  8
SAPA_FOGBAND
  6
CONTINUOUS
 10
-84.641571726353106
 20
18.93430777127978
 30
0.0
 11
-84.821849290126295
 21
18.859634359373342
 31
0.0
  0
LINE
  5
2A4F
  8
SAPA_FOGBAND
  6
CONTINUOUS
 10
-84.461294162579904
 20
18.859634359373342
 30
0.0
 11
-84.641571726353106
 21
18.93430777127978
 31
0.0
  0
LINE
  5
2A50
  8
SAPA_FOGBAND
  6
CONTINUOUS
 10
-84.821849290126295
 20
18.859634359373342
 30
0.0
 11
-84.89652270203274
 21
18.679356795600139
 31
0.0
  0
LINE
  5
2A51
  8
SAPA_FOGBAND
  6
CONTINUOUS
 10
-84.461294162579904
 20
18.859634359373342
 30
0.0
 11
-84.386620750673458
 21
18.679356795600139
 31
0.0
  0
LINE
  5
2A52
  8
SAPA_FOGBAND
  6
CONTINUOUS
 10
-84.461294162579904
 20
18.49907923182694
 30
0.0
 11
-84.641571726353106
 21
18.424405819920501
 31
0.0
  0
LINE
  5
2A53
  8
SAPA_FOGBAND
  6
CONTINUOUS
 10
-84.641571726353106
 20
18.424405819920501
 30
0.0
 11
-84.821849290126295
 21
18.49907923182694
 31
0.0
  0
LINE
  5
2A54
  8
SAPA_FOGBAND
  6
CONTINUOUS
 10
-84.89652270203274
 20
18.679356795600139
 30
0.0
 11
-84.821849290126295
 21
18.49907923182694
 31
0.0
  0
LINE
  5
2A55
  8
SAPA_FOGBAND
  6
CONTINUOUS
 10
-84.386620750673458
 20
18.679356795600139
 30
0.0
 11
-84.461294162579904
 21
18.49907923182694
 31
0.0
  0
ENDBLK
  5
2A57
  8
0
  0
BLOCK
  8
0
  2
*U165
 70
     1
 10
0.0
 20
0.0
 30
0.0
  3
*U165
  1

  0
TEXT
  5
2AFC
  8
SAPA_MATT
 62
     2
 10
-126.8557794594702
 20
-2.1000000000002279
 30
0.0
 40
3.0
  1
50
 50
90.0
  7
ISO
  0
ENDBLK
  5
2AFE
  8
0
  0
ENDSEC
  0
SECTION
  2
ENTITIES
  0
INSERT
  5
72A
  8
0
  2
*U151
 10
0.0
 20
0.0
 30
0.0
  0
INSERT
  5
72B
  8
0
  2
*U152
 10
0.0
 20
0.0
 30
0.0
  0
INSERT
  5
72C
  8
0
  2
*U153
 10
0.0
 20
0.0
 30
0.0
  0
POLYLINE
  5
73A
  8
SAPA_LIGHT
 66
     1
 10
0.0
 20
0.0
 30
0.0
  0
VERTEX
  5
1A31
  8
SAPA_LIGHT
 10
-74.499999999011067
 20
75.522593981594596
 30
0.0
  0
VERTEX
  5
1A32
  8
SAPA_LIGHT
 10
-74.499999999011536
 20
10.99999999999584
 30
0.0
  0
VERTEX
  5
1A33
  8
SAPA_LIGHT
 10
-80.499999999010853
 20
10.999999999995881
 30
0.0
  0
VERTEX
  5
1A34
  8
SAPA_LIGHT
 10
-80.499999999010839
 20
75.522593981594596
 30
0.0
  0
SEQEND
  5
1A35
  8
SAPA_LIGHT
  0
POLYLINE
  5
73D
  8
SAPA_LIGHT
 66
     1
 10
0.0
 20
0.0
 30
0.0
  0
VERTEX
  5
1A36
  8
SAPA_LIGHT
 10
-8.4999999752664461
 20
-89.500000000000014
 30
0.0
  0
VERTEX
  5
1A37
  8
SAPA_LIGHT
 10
-8.4999999752664586
 20
-170.00000000001381
 30
0.0
  0
VERTEX
  5
1A38
  8
SAPA_LIGHT
 10
-46.550000033388443
 20
-170.00000000001381
 30
0.0
  0
VERTEX
  5
1A39
  8
SAPA_LIGHT
 10
-46.550000033388443
 20
-147.6948538171072
 30
0.0
  0
VERTEX
  5
1A3A
  8
SAPA_LIGHT
 10
-73.550000033388457
 20
-147.6948538171072
 30
0.0
  0
VERTEX
  5
1A3B
  8
SAPA_LIGHT
 10
-73.5500000333884
 20
-169.99997618408969
 30
0.0
  0
VERTEX
  5
1A3C
  8
SAPA_LIGHT
 10
-82.499999954809127
 20
-169.9999761840896
 30
0.0
  0
VERTEX
  5
1A3D
  8
SAPA_LIGHT
 10
-82.499999956353506
 20
-89.499999999999986
 30
0.0
  0
VERTEX
  5
1A3E
  8
SAPA_LIGHT
 10
-8.4999999752664497
 20
-89.500000197971303
 30
0.0
  0
SEQEND
  5
1A3F
  8
SAPA_LIGHT
  0
POLYLINE
  5
73E
  8
SAPA_LIGHT
 66
     1
 10
0.0
 20
0.0
 30
0.0
  0
VERTEX
  5
1A40
  8
SAPA_LIGHT
 10
-82.499999956353506
 20
-89.499999999999986
 30
0.0
  0
VERTEX
  5
1A41
  8
SAPA_LIGHT
 10
-82.49999995635342
 20
-9.0000000001055422
 30
0.0
  0
VERTEX
  5
1A42
  8
SAPA_LIGHT
 10
-35.500000000001137
 20
-9.0000000001055547
 30
0.0
  0
VERTEX
  5
1A43
  8
SAPA_LIGHT
 10
-35.500000000001187
 20
-24.99999999999989
 30
0.0
  0
VERTEX
  5
1A44
  8
SAPA_LIGHT
 10
-8.4999999570476117
 20
-24.99999999999989
 30
0.0
  0
VERTEX
  5
1A45
  8
SAPA_LIGHT
 10
-8.4999999586364954
 20
-89.500000197971303
 30
0.0
  0
SEQEND
  5
1A46
  8
SAPA_LIGHT
  0
POLYLINE
  5
754
  8
SAPA_LIGHT
 66
     1
 10
0.0
 20
0.0
 30
0.0
  0
VERTEX
  5
1A47
  8
SAPA_LIGHT
 10
-82.499999999011905
 20
-4.999999999999984
 30
0.0
  0
VERTEX
  5
1A48
  8
SAPA_LIGHT
 10
-35.500000000001137
 20
-4.9999999999997087
 30
0.0
  0
VERTEX
  5
1A49
  8
SAPA_LIGHT
 10
-35.500000000001137
 20
-24.999999999999432
 30
0.0
  0
VERTEX
  5
1A4A
  8
SAPA_LIGHT
 10
64.499999999998863
 20
-24.99999999999979
 30
0.0
  0
VERTEX
  5
1A4B
  8
SAPA_LIGHT
 10
64.499999999998863
 20
25.00000000000022
 30
0.0
  0
VERTEX
  5
1A4C
  8
SAPA_LIGHT
 10
-45.506403657189793
 20
25.00000000000022
 30
0.0
  0
VERTEX
  5
1A4D
  8
SAPA_LIGHT
 10
-45.5064036571898
 20
5.0000000000002354
 30
0.0
  0
VERTEX
  5
1A4E
  8
SAPA_LIGHT
 10
-80.499999999010853
 20
5.0000000000000151
 30
0.0
  0
VERTEX
  5
1A4F
  8
SAPA_LIGHT
 10
-80.499999999010853
 20
25.00000000000081
 30
0.0
  0
VERTEX
  5
1A50
  8
SAPA_LIGHT
 10
-106.4999999990104
 20
25.000000000000821
 30
0.0
  0
VERTEX
  5
1A51
  8
SAPA_LIGHT
 10
-106.4999999990104
 20
-24.999999999999179
 30
0.0
  0
VERTEX
  5
1A52
  8
SAPA_LIGHT
 10
-82.499999956353435
 20
-24.99999999999925
 30
0.0
  0
VERTEX
  5
1A53
  8
SAPA_LIGHT
 10
-82.499999956353435
 20
-4.9999999999999281
 30
0.0
  0
SEQEND
  5
1A54
  8
SAPA_LIGHT
  0
POLYLINE
  5
86E
  8
SAPA_LIGHT
 66
     1
 10
0.0
 20
0.0
 30
0.0
  0
VERTEX
  5
1A55
  8
SAPA_LIGHT
 10
-54.50182542442591
 20
75.522593981593687
 30
0.0
  0
VERTEX
  5
1A56
  8
SAPA_LIGHT
 10
-54.501825424425917
 20
14.035113899112289
 30
0.0
  0
VERTEX
  5
1A57
  8
SAPA_LIGHT
 10
-45.5064036571898
 20
14.03511389911227
 30
0.0
  0
VERTEX
  5
1A58
  8
SAPA_LIGHT
 10
-45.500000000001727
 20
75.522593981593687
 30
0.0
  0
SEQEND
  5
1A59
  8
SAPA_LIGHT
  0
POLYLINE
  5
86F
  8
SAPA_LIGHT
 66
     1
 10
0.0
 20
0.0
 30
0.0
  0
VERTEX
  5
1A5A
  8
SAPA_LIGHT
 10
50.999999999998842
 20
75.522593981593786
 30
0.0
  0
VERTEX
  5
1A5B
  8
SAPA_LIGHT
 10
50.999999999998877
 20
26.000000000000259
 30
0.0
  0
VERTEX
  5
1A5C
  8
SAPA_LIGHT
 10
62.499999999998877
 20
26.000000000000259
 30
0.0
  0
VERTEX
  5
1A5D
  8
SAPA_LIGHT
 10
62.499999999998892
 20
75.000000000000256
 30
0.0
  0
SEQEND
  5
1A5E
  8
SAPA_LIGHT
  0
INSERT
  5
FE7
  8
0
  2
*U154
 10
0.0
 20
0.0
 30
0.0
  0
INSERT
  5
FE8
  8
0
  2
*U155
 10
0.0
 20
0.0
 30
0.0
  0
INSERT
  5
FE9
  8
0
  2
*U156
 10
0.0
 20
0.0
 30
0.0
  0
LINE
  5
16B1
  8
SAPA_FYLLNING
 10
-29.909688981049609
 20
31.348467485783139
 30
0.0
 11
42.799999999999272
 21
31.348467485783161
 31
0.0
  0
ARC
  5
16B2
  8
SAPA_FYLLNING
 10
42.799999999999272
 20
37.348467485783146
 30
0.0
 40
5.9999999999999956
 50
270.0
 51
90.000000000000057
  0
LINE
  5
16B3
  8
SAPA_FYLLNING
 10
42.799999999999258
 20
43.348467485783146
 30
0.0
 11
-29.909688981049619
 21
43.348467485784951
 31
0.0
  0
ARC
  5
16B4
  8
SAPA_FYLLNING
 10
-29.90968898104969
 20
49.348467485783928
 30
0.0
 40
5.9999999999989688
 50
90.000000000000668
 51
270.00000000000068
  0
LINE
  5
16B5
  8
SAPA_FYLLNING
 10
-29.909688981049761
 20
55.348467485782891
 30
0.0
 11
44.999999999998167
 21
55.348467485784973
 31
0.0
  0
ARC
  5
16B6
  8
SAPA_FYLLNING
 10
44.999999999998167
 20
61.34846748578407
 30
0.0
 40
5.9999999999990967
 50
270.0
 51
90.0
  0
LINE
  5
16B7
  8
SAPA_FYLLNING
 10
44.999999999998167
 20
67.348467485783175
 30
0.0
 11
-29.909688981049619
 21
67.348467485783161
 31
0.0
  0
POLYLINE
  5
18B3
  8
SAPA_PROFIL
 66
     1
 10
0.0
 20
0.0
 30
0.0
 70
     1
  0
VERTEX
  5
2190
  8
SAPA_PROFIL
 10
0.6047600307529139
 20
-148.49997618391021
 30
0.0
  0
VERTEX
  5
2191
  8
SAPA_PROFIL
 10
0.3622160929057827
 20
-148.49997618391021
 30
0.0
 42
-0.2011813370902256
  0
VERTEX
  5
2192
  8
SAPA_PROFIL
 10
0.2195660030752151
 20
-148.44015803677021
 30
0.0
  0
VERTEX
  5
2193
  8
SAPA_PROFIL
 10
-0.6911460899486884
 20
-147.51341067804049
 30
0.0
  0
VERTEX
  5
2194
  8
SAPA_PROFIL
 10
-0.6779385472054856
 20
-145.99997618390839
 30
0.0
 42
0.4931454260356012
  0
VERTEX
  5
2195
  8
SAPA_PROFIL
 10
-0.4571116581578281
 20
-144.4287112236706
 30
0.0
  0
VERTEX
  5
2196
  8
SAPA_PROFIL
 10
-1.5062882307706209
 20
-143.36106138684619
 30
0.0
 42
0.6681786379164681
  0
VERTEX
  5
2197
  8
SAPA_PROFIL
 10
-1.8561884882555539
 20
-143.5024302672999
 30
0.0
  0
VERTEX
  5
2198
  8
SAPA_PROFIL
 10
-1.8954379768528611
 20
-147.99997618391021
 30
0.0
  0
VERTEX
  5
2199
  8
SAPA_PROFIL
 10
0.1820752823768998
 20
-150.11406903549991
 30
0.0
 42
-0.2038501166358263
  0
VERTEX
  5
219A
  8
SAPA_PROFIL
 10
0.3252581389829174
 20
-150.47837581491771
 30
0.0
  0
VERTEX
  5
219B
  8
SAPA_PROFIL
 10
-0.0933679703059625
 20
-165.58308906751211
 30
0.0
 42
-0.4061212134736873
  0
VERTEX
  5
219C
  8
SAPA_PROFIL
 10
-3.0922164574054132
 20
-168.4999761839037
 30
0.0
  0
VERTEX
  5
219D
  8
SAPA_PROFIL
 10
-14.87640770087347
 20
-168.4999761839037
 30
0.0
 42
-0.4142135623730951
  0
VERTEX
  5
219E
  8
SAPA_PROFIL
 10
-15.37640770087347
 20
-167.9999761839037
 30
0.0
  0
VERTEX
  5
219F
  8
SAPA_PROFIL
 10
-15.37640770087347
 20
-156.41418974627859
 30
0.0
 42
-0.198912367379658
  0
VERTEX
  5
21A0
  8
SAPA_PROFIL
 10
-15.08351448206002
 20
-155.7070829650921
 30
0.0
  0
VERTEX
  5
21A1
  8
SAPA_PROFIL
 10
-14.702915708669529
 20
-155.32648419170161
 30
0.0
 42
0.1830252782112529
  0
VERTEX
  5
21A2
  8
SAPA_PROFIL
 10
-14.12088716692193
 20
-154.03481638297021
 30
0.0
  0
VERTEX
  5
21A3
  8
SAPA_PROFIL
 10
-13.39782243959138
 20
-143.6017443541644
 30
0.0
 42
0.668178637923616
  0
VERTEX
  5
21A4
  8
SAPA_PROFIL
 10
-13.91297292938037
 20
-143.3883620346308
 30
0.0
  0
VERTEX
  5
21A5
  8
SAPA_PROFIL
 10
-15.912455044302931
 20
-145.38784414955339
 30
0.0
 42
0.7332303362588345
  0
VERTEX
  5
21A6
  8
SAPA_PROFIL
 10
-15.64822855664573
 20
-145.89541850981311
 30
0.0
  0
VERTEX
  5
21A7
  8
SAPA_PROFIL
 10
-15.03241746324732
 20
-145.78683439902699
 30
0.0
 42
-0.4663076581593561
  0
VERTEX
  5
21A8
  8
SAPA_PROFIL
 10
-14.680323009947131
 20
-146.08227672493041
 30
0.0
  0
VERTEX
  5
21A9
  8
SAPA_PROFIL
 10
-15.411482631827591
 20
-153.8417538502828
 30
0.0
 42
-0.183025278211264
  0
VERTEX
  5
21AA
  8
SAPA_PROFIL
 10
-15.7024969027014
 20
-154.4875877546485
 30
0.0
  0
VERTEX
  5
21AB
  8
SAPA_PROFIL
 10
-16.090621263246419
 20
-154.87571211519341
 30
0.0
 42
0.1989123673796518
  0
VERTEX
  5
21AC
  8
SAPA_PROFIL
 10
-16.676407700873309
 20
-156.28992567756649
 30
0.0
  0
VERTEX
  5
21AD
  8
SAPA_PROFIL
 10
-16.676407700873419
 20
-167.6999761839192
 30
0.0
 42
-0.4142135623732283
  0
VERTEX
  5
21AE
  8
SAPA_PROFIL
 10
-17.17640770087365
 20
-168.1999761839192
 30
0.0
  0
VERTEX
  5
21AF
  8
SAPA_PROFIL
 10
-18.37640770087302
 20
-168.1999761839183
 30
0.0
 42
0.4142135623732062
  0
VERTEX
  5
21B0
  8
SAPA_PROFIL
 10
-18.676407700873082
 20
-168.49997618391831
 30
0.0
  0
VERTEX
  5
21B1
  8
SAPA_PROFIL
 10
-18.676407700873419
 20
-169.6999761839038
 30
0.0
 42
0.4142135623716247
  0
VERTEX
  5
21B2
  8
SAPA_PROFIL
 10
-18.376407700872111
 20
-169.99997618390381
 30
0.0
  0
VERTEX
  5
21B3
  8
SAPA_PROFIL
 10
1.600000041449902
 20
-169.99997618391731
 30
0.0
 42
0.4142135623732938
  0
VERTEX
  5
21B4
  8
SAPA_PROFIL
 10
1.800000041449948
 20
-169.79997618391729
 30
0.0
  0
VERTEX
  5
21B5
  8
SAPA_PROFIL
 10
1.800000041449948
 20
-148.20460007023149
 30
0.0
 42
0.4210020197690384
  0
VERTEX
  5
21B6
  8
SAPA_PROFIL
 10
1.6000534994059299
 20
-147.99997618391021
 30
0.0
  0
VERTEX
  5
21B7
  8
SAPA_PROFIL
 10
1.0120703362103991
 20
-147.9999761839037
 30
0.0
  0
VERTEX
  5
21B8
  8
SAPA_PROFIL
 10
1.0120703362103991
 20
-148.29997618390371
 30
0.0
 42
-0.41421356237322
  0
VERTEX
  5
21B9
  8
SAPA_PROFIL
 10
0.812070336210354
 20
-148.49997618390361
 30
0.0
  0
VERTEX
  5
21BA
  8
SAPA_PROFIL
 10
0.5948925707407398
 20
-148.4999761839037
 30
0.0
  0
SEQEND
  5
21BB
  8
SAPA_PROFIL
  0
CIRCLE
  5
18B4
  8
SAPA_PROFIL
 62
     2
 10
-79.310575506966018
 20
-166.66331711132409
 30
0.0
 40
0.8999999999999985
  0
POLYLINE
  5
18B5
  8
SAPA_PROFIL
 62
     2
 66
     1
 10
0.0
 20
0.0
 30
0.0
  0
VERTEX
  5
21BC
  8
SAPA_PROFIL
 62
     2
 10
-78.002569095392971
 20
-168.0633171113241
 30
0.0
  0
VERTEX
  5
21BD
  8
SAPA_PROFIL
 62
     2
 10
-79.093487905545715
 20
-167.87095869133171
 30
0.0
  0
VERTEX
  5
21BE
  8
SAPA_PROFIL
 62
     2
 10
-79.209187445065652
 20
-168.30275525123329
 30
0.0
 42
-0.4430158954262519
  0
VERTEX
  5
21BF
  8
SAPA_PROFIL
 62
     2
 10
-79.472663873172621
 20
-168.43823229877739
 30
0.0
  0
VERTEX
  5
21C0
  8
SAPA_PROFIL
 62
     2
 10
-80.743151621090817
 20
-167.96128410555849
 30
0.0
 42
-0.3125358528825162
  0
VERTEX
  5
21C1
  8
SAPA_PROFIL
 62
     2
 10
-81.002569095392516
 20
-167.58680239242909
 30
0.0
  0
VERTEX
  5
21C2
  8
SAPA_PROFIL
 62
     2
 10
-81.002569095392971
 20
-165.71664707651871
 30
0.0
 42
-0.3125358528825104
  0
VERTEX
  5
21C3
  8
SAPA_PROFIL
 62
     2
 10
-80.743151621090817
 20
-165.34216536338931
 30
0.0
  0
VERTEX
  5
21C4
  8
SAPA_PROFIL
 62
     2
 10
-79.472663873172621
 20
-164.86521717017021
 30
0.0
 42
-0.4430158954262519
  0
VERTEX
  5
21C5
  8
SAPA_PROFIL
 62
     2
 10
-79.209187445065766
 20
-165.00069421771431
 30
0.0
  0
VERTEX
  5
21C6
  8
SAPA_PROFIL
 62
     2
 10
-79.093487905545715
 20
-165.4324907776161
 30
0.0
  0
VERTEX
  5
21C7
  8
SAPA_PROFIL
 62
     2
 10
-78.002569095392971
 20
-165.24022473447391
 30
0.0
  0
SEQEND
  5
21C8
  8
SAPA_PROFIL
 62
     2
  0
POLYLINE
  5
18B6
  8
SAPA_PROFIL
 62
     2
 66
     1
 10
0.0
 20
0.0
 30
0.0
 70
     1
  0
VERTEX
  5
21C9
  8
SAPA_PROFIL
 62
     2
 10
-78.002569095392971
 20
-168.05172473447379
 30
0.0
 42
0.285714285714282
  0
VERTEX
  5
21CA
  8
SAPA_PROFIL
 62
     2
 10
-78.002569095392971
 20
-165.25172473447381
 30
0.0
  0
VERTEX
  5
21CB
  8
SAPA_PROFIL
 62
     2
 10
-78.002569095392516
 20
-163.17794456508591
 30
0.0
 42
-0.3882600129940275
  0
VERTEX
  5
21CC
  8
SAPA_PROFIL
 62
     2
 10
-77.729358369112958
 20
-162.87914306774451
 30
0.0
  0
VERTEX
  5
21CD
  8
SAPA_PROFIL
 62
     2
 10
-73.829358369112853
 20
-162.41293314381801
 30
0.0
 42
-0.4406523138893894
  0
VERTEX
  5
21CE
  8
SAPA_PROFIL
 62
     2
 10
-73.502569095392971
 20
-162.71173464115989
 30
0.0
  0
VERTEX
  5
21CF
  8
SAPA_PROFIL
 62
     2
 10
-73.502569095392971
 20
-164.42152663808019
 30
0.0
 42
-0.3394542588634375
  0
VERTEX
  5
21D0
  8
SAPA_PROFIL
 62
     2
 10
-73.72492338186197
 20
-164.7113043859668
 30
0.0
  0
VERTEX
  5
21D1
  8
SAPA_PROFIL
 62
     2
 10
-73.942509164029559
 20
-164.9136841138982
 30
0.0
 42
0.3394542588633663
  0
VERTEX
  5
21D2
  8
SAPA_PROFIL
 62
     2
 10
-74.164863450498558
 20
-165.203461861785
 30
0.0
  0
VERTEX
  5
21D3
  8
SAPA_PROFIL
 62
     2
 10
-74.164863450498558
 20
-168.0999876071628
 30
0.0
 42
0.3394542588634373
  0
VERTEX
  5
21D4
  8
SAPA_PROFIL
 62
     2
 10
-73.942509164029559
 20
-168.38976535504941
 30
0.0
  0
VERTEX
  5
21D5
  8
SAPA_PROFIL
 62
     2
 10
-73.72492338186197
 20
-168.59214508298081
 30
0.0
 42
-0.3394542588633662
  0
VERTEX
  5
21D6
  8
SAPA_PROFIL
 62
     2
 10
-73.502569095392971
 20
-168.88192283086761
 30
0.0
  0
VERTEX
  5
21D7
  8
SAPA_PROFIL
 62
     2
 10
-73.502569095392971
 20
-170.59171482778771
 30
0.0
 42
-0.4406523138893994
  0
VERTEX
  5
21D8
  8
SAPA_PROFIL
 62
     2
 10
-73.829358369112853
 20
-170.89051632512931
 30
0.0
  0
VERTEX
  5
21D9
  8
SAPA_PROFIL
 62
     2
 10
-77.729358369112958
 20
-170.4243064012031
 30
0.0
 42
-0.3882600129940462
  0
VERTEX
  5
21DA
  8
SAPA_PROFIL
 62
     2
 10
-78.002569095392971
 20
-170.12550490386161
 30
0.0
  0
VERTEX
  5
21DB
  8
SAPA_PROFIL
 62
     2
 10
-78.002569095392971
 20
-168.0633171113241
 30
0.0
  0
SEQEND
  5
21DC
  8
SAPA_PROFIL
 62
     2
  0
POLYLINE
  5
18B7
  8
SAPA_PROFIL
 66
     1
 10
0.0
 20
0.0
 30
0.0
 70
     1
  0
VERTEX
  5
21DD
  8
SAPA_PROFIL
 10
-18.499999952512141
 20
-97.544985430840981
 30
0.0
  0
VERTEX
  5
21DE
  8
SAPA_PROFIL
 10
-18.499999952512141
 20
-101.3977718353412
 30
0.0
 42
-0.4142135623731784
  0
VERTEX
  5
21DF
  8
SAPA_PROFIL
 10
-18.799999952512199
 20
-101.6977718353413
 30
0.0
  0
VERTEX
  5
21E0
  8
SAPA_PROFIL
 10
-19.099999952512562
 20
-101.6977718353412
 30
0.0
  0
VERTEX
  5
21E1
  8
SAPA_PROFIL
 10
-20.69999995251219
 20
-100.7740114046378
 30
0.0
 42
0.5773502691887984
  0
VERTEX
  5
21E2
  8
SAPA_PROFIL
 10
-20.999999952512141
 20
-100.9472164853948
 30
0.0
  0
VERTEX
  5
21E3
  8
SAPA_PROFIL
 10
-20.999999952512141
 20
-102.3328571314498
 30
0.0
 42
0.2679491924311038
  0
VERTEX
  5
21E4
  8
SAPA_PROFIL
 10
-20.499999952512312
 20
-103.1988825352342
 30
0.0
  0
VERTEX
  5
21E5
  8
SAPA_PROFIL
 10
-18.74999995512534
 20
-104.2092455048074
 30
0.0
 42
-0.2679491932396976
  0
VERTEX
  5
21E6
  8
SAPA_PROFIL
 10
-18.499999955125311
 20
-104.6422582082086
 30
0.0
  0
VERTEX
  5
21E7
  8
SAPA_PROFIL
 10
-18.499999955125279
 20
-137.2803609416396
 30
0.0
  0
VERTEX
  5
21E8
  8
SAPA_PROFIL
 10
-18.199999955125278
 20
-137.79997618391019
 30
0.0
  0
VERTEX
  5
21E9
  8
SAPA_PROFIL
 10
-18.499999955125279
 20
-138.31959142618089
 30
0.0
  0
VERTEX
  5
21EA
  8
SAPA_PROFIL
 10
-18.499999955125279
 20
-138.6576941596123
 30
0.0
 42
-0.2679491916226445
  0
VERTEX
  5
21EB
  8
SAPA_PROFIL
 10
-18.749999952512191
 20
-139.09070686150449
 30
0.0
  0
VERTEX
  5
21EC
  8
SAPA_PROFIL
 10
-20.499999952512191
 20
-140.10106983258649
 30
0.0
 42
0.2679491924311319
  0
VERTEX
  5
21ED
  8
SAPA_PROFIL
 10
-20.99999995251213
 20
-140.9670952363708
 30
0.0
  0
VERTEX
  5
21EE
  8
SAPA_PROFIL
 10
-20.99999995251213
 20
-142.352735882426
 30
0.0
 42
0.5773502691893683
  0
VERTEX
  5
21EF
  8
SAPA_PROFIL
 10
-20.699999952512179
 20
-142.52594096318299
 30
0.0
  0
VERTEX
  5
21F0
  8
SAPA_PROFIL
 10
-19.099999952512139
 20
-141.60218053247951
 30
0.0
  0
VERTEX
  5
21F1
  8
SAPA_PROFIL
 10
-18.799999952512199
 20
-141.60218053247951
 30
0.0
 42
-0.4142135623732059
  0
VERTEX
  5
21F2
  8
SAPA_PROFIL
 10
-18.49999995251213
 20
-141.90218053247969
 30
0.0
  0
VERTEX
  5
21F3
  8
SAPA_PROFIL
 10
-18.49999995251213
 20
-145.7549669369798
 30
0.0
 42
0.2134217652834387
  0
VERTEX
  5
21F4
  8
SAPA_PROFIL
 10
-18.399999952512012
 20
-145.97857373472991
 30
0.0
 42
-0.7625858545243238
  0
VERTEX
  5
21F5
  8
SAPA_PROFIL
 10
-18.584579154709491
 20
-146.30889981574691
 30
0.0
  0
VERTEX
  5
21F6
  8
SAPA_PROFIL
 10
-18.775962154703208
 20
-146.25082617875779
 30
0.0
  0
VERTEX
  5
21F7
  8
SAPA_PROFIL
 10
-20.66180584656427
 20
-145.16626173178611
 30
0.0
  0
VERTEX
  5
21F8
  8
SAPA_PROFIL
 10
-20.65124448033729
 20
-144.84450400356789
 30
0.0
 42
0.5773502691897466
  0
VERTEX
  5
21F9
  8
SAPA_PROFIL
 10
-20.945400780592131
 20
-144.66155026345771
 30
0.0
  0
VERTEX
  5
21FA
  8
SAPA_PROFIL
 10
-21.23008306382377
 20
-144.81368417456639
 30
0.0
 42
0.221694662643019
  0
VERTEX
  5
21FB
  8
SAPA_PROFIL
 10
-21.635891968978559
 20
-145.3545640060432
 30
0.0
  0
VERTEX
  5
21FC
  8
SAPA_PROFIL
 10
-22.017338565106279
 20
-147.16779447670149
 30
0.0
 42
0.476975532698164
  0
VERTEX
  5
21FD
  8
SAPA_PROFIL
 10
-21.715085740599811
 20
-147.5394513516473
 30
0.0
  0
VERTEX
  5
21FE
  8
SAPA_PROFIL
 10
-20.2119846598378
 20
-147.53936774376371
 30
0.0
  0
VERTEX
  5
21FF
  8
SAPA_PROFIL
 10
-20.197466250590701
 20
-147.49152199376519
 30
0.0
 42
-0.4142135623730951
  0
VERTEX
  5
2200
  8
SAPA_PROFIL
 10
-19.823281295114882
 20
-147.29155794925779
 30
0.0
  0
VERTEX
  5
2201
  8
SAPA_PROFIL
 10
-18.507867575269501
 20
-147.79997618391039
 30
0.0
  0
VERTEX
  5
2202
  8
SAPA_PROFIL
 10
-15.50971671409596
 20
-147.79997618391019
 30
0.0
 42
0.2562769736732418
  0
VERTEX
  5
2203
  8
SAPA_PROFIL
 10
-15.34104420988462
 20
-147.70744518559479
 30
0.0
  0
VERTEX
  5
2204
  8
SAPA_PROFIL
 10
-14.546991203708011
 20
-146.46117968643711
 30
0.0
 42
0.5920056181180006
  0
VERTEX
  5
2205
  8
SAPA_PROFIL
 10
-14.79999996002508
 20
-145.99997618391041
 30
0.0
  0
VERTEX
  5
2206
  8
SAPA_PROFIL
 10
-16.19999996002506
 20
-145.99997618391041
 30
0.0
 42
-0.4142135623731505
  0
VERTEX
  5
2207
  8
SAPA_PROFIL
 10
-16.4999999600251
 20
-145.69997618391039
 30
0.0
  0
VERTEX
  5
2208
  8
SAPA_PROFIL
 10
-16.499999960024951
 20
-143.2999761839105
 30
0.0
 42
-0.4142135623729841
  0
VERTEX
  5
2209
  8
SAPA_PROFIL
 10
-16.19999996002506
 20
-142.99997618391041
 30
0.0
  0
VERTEX
  5
220A
  8
SAPA_PROFIL
 10
1.2000000399750059
 20
-142.99997618391049
 30
0.0
 42
-0.4142135623730882
  0
VERTEX
  5
220B
  8
SAPA_PROFIL
 10
1.5000000399750171
 20
-143.2999761839105
 30
0.0
  0
VERTEX
  5
220C
  8
SAPA_PROFIL
 10
1.500000039974996
 20
-145.69997618391059
 30
0.0
 42
-0.4142135623730118
  0
VERTEX
  5
220D
  8
SAPA_PROFIL
 10
1.200000039974928
 20
-145.99997618391041
 30
0.0
  0
VERTEX
  5
220E
  8
SAPA_PROFIL
 10
-0.1999999600250843
 20
-145.99997618391041
 30
0.0
 42
0.5877032589249656
  0
VERTEX
  5
220F
  8
SAPA_PROFIL
 10
-0.455046177335194
 20
-146.45793639103789
 30
0.0
  0
VERTEX
  5
2210
  8
SAPA_PROFIL
 10
0.4413527999070062
 20
-147.90528298866229
 30
0.0
 42
0.2596812337301635
  0
VERTEX
  5
2211
  8
SAPA_PROFIL
 10
0.6113836114471077
 20
-147.99997618391041
 30
0.0
  0
VERTEX
  5
2212
  8
SAPA_PROFIL
 10
3.3000000448065281
 20
-147.99997618391041
 30
0.0
 42
0.4142135623732095
  0
VERTEX
  5
2213
  8
SAPA_PROFIL
 10
3.5000000448065172
 20
-147.7999761839105
 30
0.0
  0
VERTEX
  5
2214
  8
SAPA_PROFIL
 10
3.5000000448065069
 20
-104.99997468976029
 30
0.0
 42
0.4142135623730067
  0
VERTEX
  5
2215
  8
SAPA_PROFIL
 10
1.50000153895701
 20
-102.99997618391031
 30
0.0
  0
VERTEX
  5
2216
  8
SAPA_PROFIL
 10
-4.2000007022684089
 20
-102.99997618391031
 30
0.0
 42
-0.4142135623729993
  0
VERTEX
  5
2217
  8
SAPA_PROFIL
 10
-5.1999999551935021
 20
-101.9999769309853
 30
0.0
  0
VERTEX
  5
2218
  8
SAPA_PROFIL
 10
-5.1999999551934053
 20
-94.498957183910207
 30
0.0
 42
0.4142135623730951
  0
VERTEX
  5
2219
  8
SAPA_PROFIL
 10
-6.1999999551934186
 20
-93.498957183910306
 30
0.0
  0
VERTEX
  5
221A
  8
SAPA_PROFIL
 10
-6.6977751046083958
 20
-93.498957183910306
 30
0.0
 42
0.4142135623729598
  0
VERTEX
  5
221B
  8
SAPA_PROFIL
 10
-6.8977749551934968
 20
-93.698957034495308
 30
0.0
  0
VERTEX
  5
221C
  8
SAPA_PROFIL
 10
-6.8977749551934124
 20
-95.296807747088963
 30
0.0
 42
-0.414645992438811
  0
VERTEX
  5
221D
  8
SAPA_PROFIL
 10
-7.098070191653945
 20
-95.496807529177417
 30
0.0
  0
VERTEX
  5
221E
  8
SAPA_PROFIL
 10
-18.50369651849428
 20
-95.498364036119298
 30
0.0
  0
VERTEX
  5
221F
  8
SAPA_PROFIL
 10
-19.823281295114882
 20
-96.008394418562602
 30
0.0
 42
-0.4142135623730951
  0
VERTEX
  5
2220
  8
SAPA_PROFIL
 10
-20.19746625059069
 20
-95.808430374055206
 30
0.0
  0
VERTEX
  5
2221
  8
SAPA_PROFIL
 10
-20.2119846598378
 20
-95.760584624056719
 30
0.0
  0
VERTEX
  5
2222
  8
SAPA_PROFIL
 10
-21.715085740599811
 20
-95.76050101617308
 30
0.0
 42
0.4769755326981641
  0
VERTEX
  5
2223
  8
SAPA_PROFIL
 10
-22.017338565106272
 20
-96.132157891118936
 30
0.0
  0
VERTEX
  5
2224
  8
SAPA_PROFIL
 10
-21.635891968978559
 20
-97.945388361777205
 30
0.0
 42
0.2216946626430191
  0
VERTEX
  5
2225
  8
SAPA_PROFIL
 10
-21.230083063823749
 20
-98.486268193253977
 30
0.0
  0
VERTEX
  5
2226
  8
SAPA_PROFIL
 10
-20.945400780592109
 20
-98.638402104362754
 30
0.0
 42
0.5773502691897466
  0
VERTEX
  5
2227
  8
SAPA_PROFIL
 10
-20.651244480337301
 20
-98.455448364252561
 30
0.0
  0
VERTEX
  5
2228
  8
SAPA_PROFIL
 10
-20.66180584656426
 20
-98.133690636034316
 30
0.0
  0
VERTEX
  5
2229
  8
SAPA_PROFIL
 10
-18.775962154703208
 20
-97.049126189062576
 30
0.0
  0
VERTEX
  5
222A
  8
SAPA_PROFIL
 10
-18.584579154709491
 20
-96.991052552073484
 30
0.0
 42
-0.7625858545243257
  0
VERTEX
  5
222B
  8
SAPA_PROFIL
 10
-18.399999952512001
 20
-97.321378633090475
 30
0.0
 42
0.2134217652834391
  0
SEQEND
  5
222C
  8
SAPA_PROFIL
  0
POLYLINE
  5
18B8
  8
SAPA_PROFIL
 66
     1
 10
0.0
 20
0.0
 30
0.0
 70
     1
  0
VERTEX
  5
222D
  8
SAPA_PROFIL
 10
1.5000000480246971
 20
-104.99997618391031
 30
0.0
  0
VERTEX
  5
222E
  8
SAPA_PROFIL
 10
1.500000048024698
 20
-106.99997618391031
 30
0.0
  0
VERTEX
  5
222F
  8
SAPA_PROFIL
 10
1.4000000480247889
 20
-106.99997618391021
 30
0.0
 42
0.4142135623732199
  0
VERTEX
  5
2230
  8
SAPA_PROFIL
 10
1.2000000480247079
 20
-107.1999761839102
 30
0.0
  0
VERTEX
  5
2231
  8
SAPA_PROFIL
 10
1.200000048024602
 20
-108.7999761839102
 30
0.0
 42
0.4142135623727933
  0
VERTEX
  5
2232
  8
SAPA_PROFIL
 10
1.4000000480244981
 20
-108.99997618391031
 30
0.0
  0
VERTEX
  5
2233
  8
SAPA_PROFIL
 10
1.500000048024698
 20
-108.99997618391031
 30
0.0
  0
VERTEX
  5
2234
  8
SAPA_PROFIL
 10
1.5000000480247051
 20
-137.29997618391019
 30
0.0
  0
VERTEX
  5
2235
  8
SAPA_PROFIL
 10
1.4000000480247099
 20
-137.2999761839105
 30
0.0
 42
0.4142135623730847
  0
VERTEX
  5
2236
  8
SAPA_PROFIL
 10
1.200000048024715
 20
-137.49997618391049
 30
0.0
  0
VERTEX
  5
2237
  8
SAPA_PROFIL
 10
1.200000048024829
 20
-139.09997618391051
 30
0.0
 42
0.4142135623730847
  0
VERTEX
  5
2238
  8
SAPA_PROFIL
 10
1.400000048024711
 20
-139.2999761839103
 30
0.0
  0
VERTEX
  5
2239
  8
SAPA_PROFIL
 10
1.5000000480247051
 20
-139.2999761839103
 30
0.0
  0
VERTEX
  5
223A
  8
SAPA_PROFIL
 10
1.5000000480247051
 20
-140.99997618391041
 30
0.0
 42
-0.4142135623730675
  0
VERTEX
  5
223B
  8
SAPA_PROFIL
 10
1.200000048024715
 20
-141.2999761839103
 30
0.0
  0
VERTEX
  5
223C
  8
SAPA_PROFIL
 10
-16.399999951975278
 20
-141.2999761839103
 30
0.0
 42
-0.4142135623730673
  0
VERTEX
  5
223D
  8
SAPA_PROFIL
 10
-16.699999951975229
 20
-140.99997618391041
 30
0.0
  0
VERTEX
  5
223E
  8
SAPA_PROFIL
 10
-16.699999951975229
 20
-139.29997618391019
 30
0.0
  0
VERTEX
  5
223F
  8
SAPA_PROFIL
 10
-16.399999951975222
 20
-139.29997618391039
 30
0.0
 42
0.4142135623731367
  0
VERTEX
  5
2240
  8
SAPA_PROFIL
 10
-16.199999951975229
 20
-139.09997618391029
 30
0.0
  0
VERTEX
  5
2241
  8
SAPA_PROFIL
 10
-16.199999951975169
 20
-137.49997618391049
 30
0.0
 42
0.4142135623732407
  0
VERTEX
  5
2242
  8
SAPA_PROFIL
 10
-16.399999951975389
 20
-137.29997618391039
 30
0.0
  0
VERTEX
  5
2243
  8
SAPA_PROFIL
 10
-16.69999995197529
 20
-137.29997618391039
 30
0.0
  0
VERTEX
  5
2244
  8
SAPA_PROFIL
 10
-16.69999995197529
 20
-108.99997618391011
 30
0.0
  0
VERTEX
  5
2245
  8
SAPA_PROFIL
 10
-16.399999951975229
 20
-108.99997618391031
 30
0.0
 42
0.4142135623732199
  0
VERTEX
  5
2246
  8
SAPA_PROFIL
 10
-16.19999995197524
 20
-108.7999761839102
 30
0.0
  0
VERTEX
  5
2247
  8
SAPA_PROFIL
 10
-16.199999951975322
 20
-107.1999761839102
 30
0.0
 42
0.4142135623733448
  0
VERTEX
  5
2248
  8
SAPA_PROFIL
 10
-16.399999951975399
 20
-106.99997618391031
 30
0.0
  0
VERTEX
  5
2249
  8
SAPA_PROFIL
 10
-16.69999995197524
 20
-106.99997618391031
 30
0.0
  0
VERTEX
  5
224A
  8
SAPA_PROFIL
 10
-16.69999995197524
 20
-97.499976183910505
 30
0.0
 42
-0.4142135623732061
  0
VERTEX
  5
224B
  8
SAPA_PROFIL
 10
-16.399999951975229
 20
-97.199976183910394
 30
0.0
  0
VERTEX
  5
224C
  8
SAPA_PROFIL
 10
-7.1999999551934053
 20
-97.199976183910394
 30
0.0
 42
-0.4142135623732059
  0
VERTEX
  5
224D
  8
SAPA_PROFIL
 10
-6.8999999551934197
 20
-97.499976183910505
 30
0.0
  0
VERTEX
  5
224E
  8
SAPA_PROFIL
 10
-6.8999999551934197
 20
-101.9999769309852
 30
0.0
 42
0.414213562373052
  0
VERTEX
  5
224F
  8
SAPA_PROFIL
 10
-4.2000007022685786
 20
-104.6999761839102
 30
0.0
  0
VERTEX
  5
2250
  8
SAPA_PROFIL
 10
1.2000000480247071
 20
-104.6999761839102
 30
0.0
 42
-0.4142135623732891
  0
SEQEND
  5
2251
  8
SAPA_PROFIL
  0
POLYLINE
  5
18B9
  8
SAPA_PROFIL
 66
     1
 10
0.0
 20
0.0
 30
0.1
 70
     1
  0
VERTEX
  5
2252
  8
SAPA_PROFIL
 10
-58.499999952429739
 20
-103.200358715234
 30
0.1
 42
0.2679491924311119
  0
VERTEX
  5
2253
  8
SAPA_PROFIL
 10
-57.999999952429839
 20
-102.3343333114496
 30
0.1
  0
VERTEX
  5
2254
  8
SAPA_PROFIL
 10
-57.99999995242996
 20
-100.9486926653945
 30
0.1
 42
0.5773502691897603
  0
VERTEX
  5
2255
  8
SAPA_PROFIL
 10
-58.299999952429907
 20
-100.7754875846377
 30
0.1
  0
VERTEX
  5
2256
  8
SAPA_PROFIL
 10
-59.899999952429603
 20
-101.6992480153411
 30
0.1
  0
VERTEX
  5
2257
  8
SAPA_PROFIL
 10
-60.199999952429778
 20
-101.6992480153411
 30
0.1
 42
-0.4142135623728995
  0
VERTEX
  5
2258
  8
SAPA_PROFIL
 10
-60.499999952429839
 20
-101.3992480153411
 30
0.1
  0
VERTEX
  5
2259
  8
SAPA_PROFIL
 10
-60.499999952429789
 20
-97.546461610841078
 30
0.1
 42
0.2134217652834313
  0
VERTEX
  5
225A
  8
SAPA_PROFIL
 10
-60.599999952429911
 20
-97.322854813090999
 30
0.1
 42
-0.7625858545243313
  0
VERTEX
  5
225B
  8
SAPA_PROFIL
 10
-60.415420750232443
 20
-96.992528732073964
 30
0.1
  0
VERTEX
  5
225C
  8
SAPA_PROFIL
 10
-60.224037750238722
 20
-97.050602369063057
 30
0.1
  0
VERTEX
  5
225D
  8
SAPA_PROFIL
 10
-58.338194058377667
 20
-98.135166816034811
 30
0.1
  0
VERTEX
  5
225E
  8
SAPA_PROFIL
 10
-58.348755424604661
 20
-98.45692454425307
 30
0.1
 42
0.5773502691897454
  0
VERTEX
  5
225F
  8
SAPA_PROFIL
 10
-58.054599124349799
 20
-98.63987828436322
 30
0.1
  0
VERTEX
  5
2260
  8
SAPA_PROFIL
 10
-57.76991684111816
 20
-98.487744373254486
 30
0.1
 42
0.2216946626430149
  0
VERTEX
  5
2261
  8
SAPA_PROFIL
 10
-57.364107935963382
 20
-97.946864541777671
 30
0.1
  0
VERTEX
  5
2262
  8
SAPA_PROFIL
 10
-56.982661339835651
 20
-96.133634071119445
 30
0.1
 42
0.476975532698164
  0
VERTEX
  5
2263
  8
SAPA_PROFIL
 10
-57.284914164342133
 20
-95.761977196173547
 30
0.1
  0
VERTEX
  5
2264
  8
SAPA_PROFIL
 10
-58.788015245104127
 20
-95.762060804057199
 30
0.1
  0
VERTEX
  5
2265
  8
SAPA_PROFIL
 10
-58.80253365435123
 20
-95.809906554055686
 30
0.1
 42
-0.4142135623730875
  0
VERTEX
  5
2266
  8
SAPA_PROFIL
 10
-59.176718609827049
 20
-96.009870598563083
 30
0.1
  0
VERTEX
  5
2267
  8
SAPA_PROFIL
 10
-60.495951611589078
 20
-95.499976179999351
 30
0.1
  0
VERTEX
  5
2268
  8
SAPA_PROFIL
 10
-80.231478349085904
 20
-95.499976179999351
 30
0.1
 42
-0.3821712090170728
  0
VERTEX
  5
2269
  8
SAPA_PROFIL
 10
-80.529644544187846
 20
-95.233095964093593
 30
0.1
  0
VERTEX
  5
226A
  8
SAPA_PROFIL
 10
-81.055484079152833
 20
-88.655125179999374
 30
0.1
 42
-0.4469990000000183
  0
VERTEX
  5
226B
  8
SAPA_PROFIL
 10
-80.558540079152834
 20
-88.099925179999389
 30
0.1
  0
VERTEX
  5
226C
  8
SAPA_PROFIL
 10
-78.799999952429815
 20
-88.099925179999346
 30
0.1
 42
0.414213999999998
  0
VERTEX
  5
226D
  8
SAPA_PROFIL
 10
-77.799999952429829
 20
-87.099925179999389
 30
0.1
  0
VERTEX
  5
226E
  8
SAPA_PROFIL
 10
-77.799999952429843
 20
-86.832381179999373
 30
0.1
 42
0.2896899999999924
  0
VERTEX
  5
226F
  8
SAPA_PROFIL
 10
-78.371427952429841
 20
-85.928873179999329
 30
0.1
 42
0.5507599999999715
  0
VERTEX
  5
2270
  8
SAPA_PROFIL
 10
-78.799999952429815
 20
-86.199925179999354
 30
0.1
  0
VERTEX
  5
2271
  8
SAPA_PROFIL
 10
-78.799999952429815
 20
-86.499925179999323
 30
0.1
 42
-0.4142140000001125
  0
VERTEX
  5
2272
  8
SAPA_PROFIL
 10
-78.999999952429846
 20
-86.699925179999354
 30
0.1
  0
VERTEX
  5
2273
  8
SAPA_PROFIL
 10
-80.099999952429869
 20
-86.699925179999354
 30
0.1
 42
-0.4142139999999939
  0
VERTEX
  5
2274
  8
SAPA_PROFIL
 10
-81.099999952429854
 20
-85.699925179999354
 30
0.1
  0
VERTEX
  5
2275
  8
SAPA_PROFIL
 10
-81.099999952429854
 20
-83.399976179999385
 30
0.1
 42
-0.4142139999999918
  0
VERTEX
  5
2276
  8
SAPA_PROFIL
 10
-80.099999952429869
 20
-82.399976179999385
 30
0.1
  0
VERTEX
  5
2277
  8
SAPA_PROFIL
 10
-78.999999952429846
 20
-82.399976179999356
 30
0.1
 42
-0.4142139999999378
  0
VERTEX
  5
2278
  8
SAPA_PROFIL
 10
-78.799999952429815
 20
-82.599976179999373
 30
0.1
  0
VERTEX
  5
2279
  8
SAPA_PROFIL
 10
-78.7999999524298
 20
-82.899925179999343
 30
0.1
 42
0.5507599999999796
  0
VERTEX
  5
227A
  8
SAPA_PROFIL
 10
-78.371427952429855
 20
-83.170978179999366
 30
0.1
 42
0.2896900000000027
  0
VERTEX
  5
227B
  8
SAPA_PROFIL
 10
-77.799999952429829
 20
-82.26747017999935
 30
0.1
  0
VERTEX
  5
227C
  8
SAPA_PROFIL
 10
-77.799999952429843
 20
-81.999976179999351
 30
0.1
 42
0.4142140000000064
  0
VERTEX
  5
227D
  8
SAPA_PROFIL
 10
-78.799999952429815
 20
-80.999976179999351
 30
0.1
  0
VERTEX
  5
227E
  8
SAPA_PROFIL
 10
-80.499999952429818
 20
-80.999976179999408
 30
0.1
 42
0.4142139999999918
  0
VERTEX
  5
227F
  8
SAPA_PROFIL
 10
-82.499999952429846
 20
-82.999976179999351
 30
0.1
  0
VERTEX
  5
2280
  8
SAPA_PROFIL
 10
-82.499999952429775
 20
-169.49997617999929
 30
0.1
 42
0.414213999999996
  0
VERTEX
  5
2281
  8
SAPA_PROFIL
 10
-81.999999952429789
 20
-169.99997617999929
 30
0.1
  0
VERTEX
  5
2282
  8
SAPA_PROFIL
 10
-78.2999999524298
 20
-169.99997617999921
 30
0.1
 42
0.4142139999999107
  0
VERTEX
  5
2283
  8
SAPA_PROFIL
 10
-77.999999952429803
 20
-169.69997617999931
 30
0.1
  0
VERTEX
  5
2284
  8
SAPA_PROFIL
 10
-77.999999952429803
 20
-168.9324311799993
 30
0.1
 42
0.2896899999999864
  0
VERTEX
  5
2285
  8
SAPA_PROFIL
 10
-78.571427952429801
 20
-168.02892317999931
 30
0.1
 42
0.5507600000000558
  0
VERTEX
  5
2286
  8
SAPA_PROFIL
 10
-78.999999952429832
 20
-168.29997617999931
 30
0.1
  0
VERTEX
  5
2287
  8
SAPA_PROFIL
 10
-78.999999952429832
 20
-168.49997617999929
 30
0.1
 42
-0.414214000000073
  0
VERTEX
  5
2288
  8
SAPA_PROFIL
 10
-79.299999952429815
 20
-168.79997617999931
 30
0.1
  0
VERTEX
  5
2289
  8
SAPA_PROFIL
 10
-80.799999952429815
 20
-168.79997617999931
 30
0.1
 42
-0.414213999999996
  0
VERTEX
  5
228A
  8
SAPA_PROFIL
 10
-81.299999952429815
 20
-168.29997617999931
 30
0.1
  0
VERTEX
  5
228B
  8
SAPA_PROFIL
 10
-81.299999952429815
 20
-164.99997617999929
 30
0.1
 42
-0.4142140000000002
  0
VERTEX
  5
228C
  8
SAPA_PROFIL
 10
-80.799999952429815
 20
-164.49997617999929
 30
0.1
  0
VERTEX
  5
228D
  8
SAPA_PROFIL
 10
-79.299999952429815
 20
-164.49997617999929
 30
0.1
 42
-0.4142140000000209
  0
VERTEX
  5
228E
  8
SAPA_PROFIL
 10
-78.999999952429832
 20
-164.79997617999939
 30
0.1
  0
VERTEX
  5
228F
  8
SAPA_PROFIL
 10
-78.999999952429889
 20
-164.99997617999921
 30
0.1
 42
0.5507600000000054
  0
VERTEX
  5
2290
  8
SAPA_PROFIL
 10
-78.571427952429787
 20
-165.27102817999929
 30
0.1
 42
0.2896899999999876
  0
VERTEX
  5
2291
  8
SAPA_PROFIL
 10
-77.999999952429803
 20
-164.3675201799993
 30
0.1
  0
VERTEX
  5
2292
  8
SAPA_PROFIL
 10
-77.999999952429832
 20
-163.37004917999931
 30
0.1
 42
0.0436609999999812
  0
VERTEX
  5
2293
  8
SAPA_PROFIL
 10
-78.007595952429824
 20
-163.28322417999931
 30
0.1
  0
VERTEX
  5
2294
  8
SAPA_PROFIL
 10
-78.284441952429844
 20
-161.71315217999941
 30
0.1
 42
0.839099999999979
  0
VERTEX
  5
2295
  8
SAPA_PROFIL
 10
-79.269249952429831
 20
-161.71315217999941
 30
0.1
  0
VERTEX
  5
2296
  8
SAPA_PROFIL
 10
-79.476194952429822
 20
-162.88680017999931
 30
0.1
 42
-0.363970000000042
  0
VERTEX
  5
2297
  8
SAPA_PROFIL
 10
-79.968598952429844
 20
-163.29997617999931
 30
0.1
  0
VERTEX
  5
2298
  8
SAPA_PROFIL
 10
-80.779999952429804
 20
-163.29997617999931
 30
0.1
 42
-0.4373279999999794
  0
VERTEX
  5
2299
  8
SAPA_PROFIL
 10
-81.278468952429833
 20
-162.7608811799993
 30
0.1
  0
VERTEX
  5
229A
  8
SAPA_PROFIL
 10
-80.711670466033965
 20
-148.28782290658299
 30
0.1
 42
-0.4023941355298093
  0
VERTEX
  5
229B
  8
SAPA_PROFIL
 10
-80.411916737207648
 20
-147.99997617999921
 30
0.1
  0
VERTEX
  5
229C
  8
SAPA_PROFIL
 10
-79.611382952429821
 20
-147.99997617999929
 30
0.1
 42
0.2596810000001062
  0
VERTEX
  5
229D
  8
SAPA_PROFIL
 10
-79.441351952429827
 20
-147.9052831799992
 30
0.1
  0
VERTEX
  5
229E
  8
SAPA_PROFIL
 10
-78.544952952429739
 20
-146.45793617999939
 30
0.1
 42
0.5877030000000574
  0
VERTEX
  5
229F
  8
SAPA_PROFIL
 10
-78.799999952429872
 20
-145.99997617999921
 30
0.1
  0
VERTEX
  5
22A0
  8
SAPA_PROFIL
 10
-80.199999952429806
 20
-145.99997617999921
 30
0.1
 42
-0.4142139999999773
  0
VERTEX
  5
22A1
  8
SAPA_PROFIL
 10
-80.499999952429818
 20
-145.69997617999931
 30
0.1
  0
VERTEX
  5
22A2
  8
SAPA_PROFIL
 10
-80.499999952429818
 20
-143.29997617999931
 30
0.1
 42
-0.4142140000000855
  0
VERTEX
  5
22A3
  8
SAPA_PROFIL
 10
-80.199999952429806
 20
-142.99997617999921
 30
0.1
  0
VERTEX
  5
22A4
  8
SAPA_PROFIL
 10
-62.79999995242985
 20
-142.99997617999921
 30
0.1
 42
-0.4142140000001167
  0
VERTEX
  5
22A5
  8
SAPA_PROFIL
 10
-62.499999952429832
 20
-143.29997617999931
 30
0.1
  0
VERTEX
  5
22A6
  8
SAPA_PROFIL
 10
-62.499999952429832
 20
-145.69997617999931
 30
0.1
 42
-0.4142140000000127
  0
VERTEX
  5
22A7
  8
SAPA_PROFIL
 10
-62.79999995242985
 20
-145.99997617999921
 30
0.1
  0
VERTEX
  5
22A8
  8
SAPA_PROFIL
 10
-64.19999995242982
 20
-145.99997617999921
 30
0.1
 42
0.5920054160710117
  0
VERTEX
  5
22A9
  8
SAPA_PROFIL
 10
-64.453008465187594
 20
-146.46117951811411
 30
0.1
  0
VERTEX
  5
22AA
  8
SAPA_PROFIL
 10
-63.658955435365939
 20
-147.70744517432709
 30
0.1
 42
0.2562769852931595
  0
VERTEX
  5
22AB
  8
SAPA_PROFIL
 10
-63.490282926467323
 20
-147.79997617999919
 30
0.1
  0
VERTEX
  5
22AC
  8
SAPA_PROFIL
 10
-60.495951611588779
 20
-147.79997617999919
 30
0.1
  0
VERTEX
  5
22AD
  8
SAPA_PROFIL
 10
-59.176718609827091
 20
-147.2900817614356
 30
0.1
 42
-0.4142135623730875
  0
VERTEX
  5
22AE
  8
SAPA_PROFIL
 10
-58.802533654351279
 20
-147.490045805943
 30
0.1
  0
VERTEX
  5
22AF
  8
SAPA_PROFIL
 10
-58.788015245104177
 20
-147.53789155594151
 30
0.1
  0
VERTEX
  5
22B0
  8
SAPA_PROFIL
 10
-57.284914164342162
 20
-147.53797516382511
 30
0.1
 42
0.4769755326981641
  0
VERTEX
  5
22B1
  8
SAPA_PROFIL
 10
-56.982661339835701
 20
-147.1663182888793
 30
0.1
  0
VERTEX
  5
22B2
  8
SAPA_PROFIL
 10
-57.364107935963389
 20
-145.35308781822101
 30
0.1
 42
0.2216946626430149
  0
VERTEX
  5
22B3
  8
SAPA_PROFIL
 10
-57.769916841118217
 20
-144.81220798674431
 30
0.1
  0
VERTEX
  5
22B4
  8
SAPA_PROFIL
 10
-58.054599124349863
 20
-144.66007407563549
 30
0.1
 42
0.5773502691897454
  0
VERTEX
  5
22B5
  8
SAPA_PROFIL
 10
-58.348755424604683
 20
-144.8430278157457
 30
0.1
  0
VERTEX
  5
22B6
  8
SAPA_PROFIL
 10
-58.338194058377717
 20
-145.16478554396389
 30
0.1
  0
VERTEX
  5
22B7
  8
SAPA_PROFIL
 10
-60.224037750238743
 20
-146.24934999093571
 30
0.1
  0
VERTEX
  5
22B8
  8
SAPA_PROFIL
 10
-60.415420750232457
 20
-146.30742362792469
 30
0.1
 42
-0.7625858545243333
  0
VERTEX
  5
22B9
  8
SAPA_PROFIL
 10
-60.599999952429947
 20
-145.97709754690769
 30
0.1
 42
0.2134217652834462
  0
VERTEX
  5
22BA
  8
SAPA_PROFIL
 10
-60.499999952429839
 20
-145.75349074915761
 30
0.1
  0
VERTEX
  5
22BB
  8
SAPA_PROFIL
 10
-60.499999952429839
 20
-141.9007043446575
 30
0.1
 42
-0.4142135623729119
  0
VERTEX
  5
22BC
  8
SAPA_PROFIL
 10
-60.199999952429771
 20
-141.6007043446576
 30
0.1
  0
VERTEX
  5
22BD
  8
SAPA_PROFIL
 10
-59.899999952429589
 20
-141.6007043446576
 30
0.1
  0
VERTEX
  5
22BE
  8
SAPA_PROFIL
 10
-58.299999952429957
 20
-142.524464775361
 30
0.1
 42
0.5773502691897497
  0
VERTEX
  5
22BF
  8
SAPA_PROFIL
 10
-57.999999952429839
 20
-142.3512596946041
 30
0.1
  0
VERTEX
  5
22C0
  8
SAPA_PROFIL
 10
-57.999999952429661
 20
-140.965619048549
 30
0.1
 42
0.2679491924311136
  0
VERTEX
  5
22C1
  8
SAPA_PROFIL
 10
-58.499999952429668
 20
-140.09959364476461
 30
0.1
  0
VERTEX
  5
22C2
  8
SAPA_PROFIL
 10
-60.24999995242986
 20
-139.08923067368249
 30
0.1
 42
-0.2679491924310958
  0
VERTEX
  5
22C3
  8
SAPA_PROFIL
 10
-60.499999952429839
 20
-138.65621797179031
 30
0.1
  0
VERTEX
  5
22C4
  8
SAPA_PROFIL
 10
-60.499999952429839
 20
-138.31959142226989
 30
0.1
  0
VERTEX
  5
22C5
  8
SAPA_PROFIL
 10
-60.799999952429822
 20
-137.79997617999919
 30
0.1
  0
VERTEX
  5
22C6
  8
SAPA_PROFIL
 10
-60.499999952429839
 20
-137.2803609377286
 30
0.1
  0
VERTEX
  5
22C7
  8
SAPA_PROFIL
 10
-60.499999952429839
 20
-104.6437343882084
 30
0.1
 42
-0.2679491924311033
  0
VERTEX
  5
22C8
  8
SAPA_PROFIL
 10
-60.249999952429867
 20
-104.21072168631621
 30
0.1
  0
SEQEND
  5
22C9
  8
SAPA_PROFIL
  0
POLYLINE
  5
18BA
  8
SAPA_PROFIL
 66
     1
 10
0.0
 20
0.0
 30
0.1
 70
     1
  0
VERTEX
  5
22CA
  8
SAPA_PROFIL
 10
-62.79999995242985
 20
-139.0999761799994
 30
0.1
  0
VERTEX
  5
22CB
  8
SAPA_PROFIL
 10
-62.79999995242985
 20
-137.49997617999929
 30
0.1
 42
-0.4142135623730951
  0
VERTEX
  5
22CC
  8
SAPA_PROFIL
 10
-62.599999952429819
 20
-137.29997617999931
 30
0.1
  0
VERTEX
  5
22CD
  8
SAPA_PROFIL
 10
-62.299999868556498
 20
-137.29997617999931
 30
0.1
  0
VERTEX
  5
22CE
  8
SAPA_PROFIL
 10
-62.299999868556512
 20
-101.1999761799993
 30
0.1
  0
VERTEX
  5
22CF
  8
SAPA_PROFIL
 10
-62.599999952429833
 20
-101.1999761799993
 30
0.1
 42
-0.4142135623730951
  0
VERTEX
  5
22D0
  8
SAPA_PROFIL
 10
-62.79999995242985
 20
-100.99997617999929
 30
0.1
  0
VERTEX
  5
22D1
  8
SAPA_PROFIL
 10
-62.79999995242985
 20
-99.399976179999328
 30
0.1
 42
-0.4142135623730951
  0
VERTEX
  5
22D2
  8
SAPA_PROFIL
 10
-62.599999952429833
 20
-99.199976179999339
 30
0.1
  0
VERTEX
  5
22D3
  8
SAPA_PROFIL
 10
-62.299999868556512
 20
-99.199976179999339
 30
0.1
  0
VERTEX
  5
22D4
  8
SAPA_PROFIL
 10
-62.29999986855649
 20
-97.499976179999365
 30
0.1
 42
0.4142135623730951
  0
VERTEX
  5
22D5
  8
SAPA_PROFIL
 10
-62.599999868556509
 20
-97.199976179999354
 30
0.1
  0
VERTEX
  5
22D6
  8
SAPA_PROFIL
 10
-80.199999952429835
 20
-97.199976179999354
 30
0.1
 42
0.4142135623730951
  0
VERTEX
  5
22D7
  8
SAPA_PROFIL
 10
-80.499999952429846
 20
-97.499976179999365
 30
0.1
  0
VERTEX
  5
22D8
  8
SAPA_PROFIL
 10
-80.499999952429846
 20
-99.199976179999339
 30
0.1
  0
VERTEX
  5
22D9
  8
SAPA_PROFIL
 10
-80.399999952429809
 20
-99.199976179999339
 30
0.1
 42
-0.4142135623730951
  0
VERTEX
  5
22DA
  8
SAPA_PROFIL
 10
-80.199999952429835
 20
-99.399976179999328
 30
0.1
  0
VERTEX
  5
22DB
  8
SAPA_PROFIL
 10
-80.199999952429835
 20
-100.99997617999929
 30
0.1
 42
-0.4142135623730951
  0
VERTEX
  5
22DC
  8
SAPA_PROFIL
 10
-80.399999952429809
 20
-101.1999761799993
 30
0.1
  0
VERTEX
  5
22DD
  8
SAPA_PROFIL
 10
-80.499999952429846
 20
-101.1999761799993
 30
0.1
  0
VERTEX
  5
22DE
  8
SAPA_PROFIL
 10
-80.499999952429818
 20
-137.29997617999931
 30
0.1
  0
VERTEX
  5
22DF
  8
SAPA_PROFIL
 10
-80.399999952429795
 20
-137.29997617999931
 30
0.1
 42
-0.4142135623730951
  0
VERTEX
  5
22E0
  8
SAPA_PROFIL
 10
-80.199999952429835
 20
-137.49997617999929
 30
0.1
  0
VERTEX
  5
22E1
  8
SAPA_PROFIL
 10
-80.199999952429806
 20
-139.0999761799994
 30
0.1
 42
-0.4142135623730951
  0
VERTEX
  5
22E2
  8
SAPA_PROFIL
 10
-80.399999952429795
 20
-139.29997617999931
 30
0.1
  0
VERTEX
  5
22E3
  8
SAPA_PROFIL
 10
-80.499999952429818
 20
-139.29997617999931
 30
0.1
  0
VERTEX
  5
22E4
  8
SAPA_PROFIL
 10
-80.499999952429818
 20
-140.99997617999929
 30
0.1
 42
0.4142135623730951
  0
VERTEX
  5
22E5
  8
SAPA_PROFIL
 10
-80.199999952429806
 20
-141.29997617999931
 30
0.1
  0
VERTEX
  5
22E6
  8
SAPA_PROFIL
 10
-62.599999868556502
 20
-141.29997617999939
 30
0.1
 42
0.4142135623730951
  0
VERTEX
  5
22E7
  8
SAPA_PROFIL
 10
-62.299999868556498
 20
-140.99997617999929
 30
0.1
  0
VERTEX
  5
22E8
  8
SAPA_PROFIL
 10
-62.299999868556498
 20
-139.29997617999931
 30
0.1
  0
VERTEX
  5
22E9
  8
SAPA_PROFIL
 10
-62.599999952429819
 20
-139.29997617999931
 30
0.1
 42
-0.4142135623730951
  0
SEQEND
  5
22EA
  8
SAPA_PROFIL
  0
POLYLINE
  5
18BB
  8
SAPA_PROFIL
 62
     4
 66
     1
 10
0.0
 20
0.0
 30
0.0
  0
VERTEX
  5
22EB
  8
SAPA_PROFIL
 62
     4
 10
-30.450670830157751
 20
-145.09660907061789
 30
0.0
 42
0.5571646428658034
  0
VERTEX
  5
22EC
  8
SAPA_PROFIL
 62
     4
 10
-30.98763133429458
 20
-144.2288901564624
 30
0.0
  0
VERTEX
  5
22ED
  8
SAPA_PROFIL
 62
     4
 10
-48.012368570815767
 20
-144.2288901564628
 30
0.0
 42
0.5571645048035741
  0
VERTEX
  5
22EE
  8
SAPA_PROFIL
 62
     4
 10
-48.549329187776827
 20
-145.09660884432901
 30
0.0
  0
VERTEX
  5
22EF
  8
SAPA_PROFIL
 62
     4
 10
-47.718622100230128
 20
-146.76274950039701
 30
0.0
 42
0.284385813979063
  0
VERTEX
  5
22F0
  8
SAPA_PROFIL
 62
     4
 10
-47.450141791749793
 20
-146.92889015646449
 30
0.0
  0
VERTEX
  5
22F1
  8
SAPA_PROFIL
 62
     4
 10
-31.549858113360472
 20
-146.92889015646449
 30
0.0
 42
0.2843858139786238
  0
VERTEX
  5
22F2
  8
SAPA_PROFIL
 62
     4
 10
-31.28137780488019
 20
-146.76274950039749
 30
0.0
  0
VERTEX
  5
22F3
  8
SAPA_PROFIL
 62
     4
 10
-30.450670717333029
 20
-145.09660884432819
 30
0.0
  0
SEQEND
  5
22F4
  8
SAPA_PROFIL
 62
     4
  0
POLYLINE
  5
18BC
  8
SAPA_PROFIL
 62
     4
 66
     1
 10
0.0
 20
0.0
 30
0.0
 70
     1
  0
VERTEX
  5
22F5
  8
SAPA_PROFIL
 62
     4
 10
-53.917611137222423
 20
-147.285721670962
 30
0.0
  0
VERTEX
  5
22F6
  8
SAPA_PROFIL
 62
     4
 10
-54.181634415598431
 20
-147.6922818669662
 30
0.0
 42
-0.2539676464751066
  0
VERTEX
  5
22F7
  8
SAPA_PROFIL
 62
     4
 10
-54.433235585983141
 20
-147.82889015646231
 30
0.0
  0
VERTEX
  5
22F8
  8
SAPA_PROFIL
 62
     4
 10
-55.814735171188481
 20
-147.82889015646231
 30
0.0
 42
-0.3152987888790479
  0
VERTEX
  5
22F9
  8
SAPA_PROFIL
 62
     4
 10
-56.284581481580801
 20
-147.49990022812409
 30
0.0
  0
VERTEX
  5
22FA
  8
SAPA_PROFIL
 62
     4
 10
-57.180250422489408
 20
-145.03907003767279
 30
0.0
 42
0.2694959974287434
  0
VERTEX
  5
22FB
  8
SAPA_PROFIL
 62
     4
 10
-57.41176946889076
 20
-144.84593806332899
 30
0.0
 42
0.0612686379508233
  0
VERTEX
  5
22FC
  8
SAPA_PROFIL
 62
     4
 10
-57.70444490174404
 20
-144.8323546926984
 30
0.0
  0
VERTEX
  5
22FD
  8
SAPA_PROFIL
 62
     4
 10
-58.053863079052299
 20
-144.63061801396961
 30
0.0
 42
0.5773502691891679
  0
VERTEX
  5
22FE
  8
SAPA_PROFIL
 62
     4
 10
-58.368863079051891
 20
-144.8124833487642
 30
0.0
  0
VERTEX
  5
22FF
  8
SAPA_PROFIL
 62
     4
 10
-58.36886307905214
 20
-145.07959787689049
 30
0.0
  0
VERTEX
  5
2300
  8
SAPA_PROFIL
 62
     4
 10
-59.76739077968638
 20
-145.88828133819879
 30
0.0
 42
-0.1318219888653519
  0
VERTEX
  5
2301
  8
SAPA_PROFIL
 62
     4
 10
-59.917563882158731
 20
-145.9285737347362
 30
0.0
  0
VERTEX
  5
2302
  8
SAPA_PROFIL
 62
     4
 10
-60.09999995259551
 20
-145.92857373472981
 30
0.0
 42
-0.4142135623724291
  0
VERTEX
  5
2303
  8
SAPA_PROFIL
 62
     4
 10
-60.499999952596049
 20
-145.5285737347302
 30
0.0
  0
VERTEX
  5
2304
  8
SAPA_PROFIL
 62
     4
 10
-60.499999952594692
 20
-142.1285737347292
 30
0.0
 42
-0.4142135623744271
  0
VERTEX
  5
2305
  8
SAPA_PROFIL
 62
     4
 10
-60.09999995259551
 20
-141.7285737347282
 30
0.0
  0
VERTEX
  5
2306
  8
SAPA_PROFIL
 62
     4
 10
-59.920384710324207
 20
-141.7285737347276
 30
0.0
 42
-0.1316524975874005
  0
VERTEX
  5
2307
  8
SAPA_PROFIL
 62
     4
 10
-59.770384710327392
 20
-141.76876611359319
 30
0.0
  0
VERTEX
  5
2308
  8
SAPA_PROFIL
 62
     4
 10
-58.166246813325131
 20
-142.6949155602457
 30
0.0
 42
0.1316524975875904
  0
VERTEX
  5
2309
  8
SAPA_PROFIL
 62
     4
 10
-57.666246813323419
 20
-142.82889015646049
 30
0.0
  0
VERTEX
  5
230A
  8
SAPA_PROFIL
 62
     4
 10
-57.249999952596049
 20
-142.82889015646049
 30
0.0
 42
0.4142135623730951
  0
VERTEX
  5
230B
  8
SAPA_PROFIL
 62
     4
 10
-56.249999952596063
 20
-141.82889015646049
 30
0.0
  0
VERTEX
  5
230C
  8
SAPA_PROFIL
 62
     4
 10
-56.249999952596063
 20
-138.82889015646319
 30
0.0
 42
-0.9999996830128083
  0
VERTEX
  5
230D
  8
SAPA_PROFIL
 62
     4
 10
-55.249999952596049
 20
-138.8288901564614
 30
0.0
  0
VERTEX
  5
230E
  8
SAPA_PROFIL
 62
     4
 10
-55.249999952596049
 20
-141.8288901564614
 30
0.0
 42
0.4142135623730951
  0
VERTEX
  5
230F
  8
SAPA_PROFIL
 62
     4
 10
-54.249999952596049
 20
-142.8288901564614
 30
0.0
  0
VERTEX
  5
2310
  8
SAPA_PROFIL
 62
     4
 10
-24.74999995251148
 20
-142.8288901564614
 30
0.0
 42
0.4142135623730951
  0
VERTEX
  5
2311
  8
SAPA_PROFIL
 62
     4
 10
-23.74999995251148
 20
-141.8288901564614
 30
0.0
  0
VERTEX
  5
2312
  8
SAPA_PROFIL
 62
     4
 10
-23.74999995251148
 20
-138.82889015646319
 30
0.0
 42
-0.9999999999999998
  0
VERTEX
  5
2313
  8
SAPA_PROFIL
 62
     4
 10
-22.74999995251147
 20
-138.82889015646319
 30
0.0
  0
VERTEX
  5
2314
  8
SAPA_PROFIL
 62
     4
 10
-22.74999995251147
 20
-141.8288901564614
 30
0.0
 42
0.4142135623736278
  0
VERTEX
  5
2315
  8
SAPA_PROFIL
 62
     4
 10
-21.74999995251147
 20
-142.8288901564614
 30
0.0
  0
VERTEX
  5
2316
  8
SAPA_PROFIL
 62
     4
 10
-21.33375309178501
 20
-142.8288901564614
 30
0.0
 42
0.1316524975874375
  0
VERTEX
  5
2317
  8
SAPA_PROFIL
 62
     4
 10
-20.833753091784821
 20
-142.69491556024531
 30
0.0
  0
VERTEX
  5
2318
  8
SAPA_PROFIL
 62
     4
 10
-19.229615194782859
 20
-141.76876611359319
 30
0.0
 42
-0.1316524975874
  0
VERTEX
  5
2319
  8
SAPA_PROFIL
 62
     4
 10
-19.079615194783319
 20
-141.7285737347276
 30
0.0
  0
VERTEX
  5
231A
  8
SAPA_PROFIL
 62
     4
 10
-18.899999952512019
 20
-141.7285737347282
 30
0.0
 42
-0.4142135623744271
  0
VERTEX
  5
231B
  8
SAPA_PROFIL
 62
     4
 10
-18.499999952512841
 20
-142.1285737347292
 30
0.0
  0
VERTEX
  5
231C
  8
SAPA_PROFIL
 62
     4
 10
-18.49999995251147
 20
-145.5285737347302
 30
0.0
 42
-0.4142135623724291
  0
VERTEX
  5
231D
  8
SAPA_PROFIL
 62
     4
 10
-18.899999952512019
 20
-145.92857373472981
 30
0.0
  0
VERTEX
  5
231E
  8
SAPA_PROFIL
 62
     4
 10
-19.082436022948801
 20
-145.9285737347362
 30
0.0
 42
-0.1318219888653524
  0
VERTEX
  5
231F
  8
SAPA_PROFIL
 62
     4
 10
-19.232609125421138
 20
-145.88828133819879
 30
0.0
  0
VERTEX
  5
2320
  8
SAPA_PROFIL
 62
     4
 10
-20.631136825900789
 20
-145.0795978769745
 30
0.0
  0
VERTEX
  5
2321
  8
SAPA_PROFIL
 62
     4
 10
-20.631136825900789
 20
-144.81248334876139
 30
0.0
 42
0.577350269189159
  0
VERTEX
  5
2322
  8
SAPA_PROFIL
 62
     4
 10
-20.9461368259004
 20
-144.63061801396691
 30
0.0
  0
VERTEX
  5
2323
  8
SAPA_PROFIL
 62
     4
 10
-21.295555003119048
 20
-144.832354692644
 30
0.0
 42
0.0612687673629489
  0
VERTEX
  5
2324
  8
SAPA_PROFIL
 62
     4
 10
-21.58823043621927
 20
-144.84593806333021
 30
0.0
 42
0.2694959974285039
  0
VERTEX
  5
2325
  8
SAPA_PROFIL
 62
     4
 10
-21.819749482619791
 20
-145.03907003767409
 30
0.0
  0
VERTEX
  5
2326
  8
SAPA_PROFIL
 62
     4
 10
-22.71541842352946
 20
-147.4999002281273
 30
0.0
 42
-0.3152987888784035
  0
VERTEX
  5
2327
  8
SAPA_PROFIL
 62
     4
 10
-23.185264733922679
 20
-147.8288901564639
 30
0.0
  0
VERTEX
  5
2328
  8
SAPA_PROFIL
 62
     4
 10
-24.56676431912712
 20
-147.82889015646231
 30
0.0
 42
-0.2539676464741841
  0
VERTEX
  5
2329
  8
SAPA_PROFIL
 62
     4
 10
-24.818365489511201
 20
-147.69228186696699
 30
0.0
  0
VERTEX
  5
232A
  8
SAPA_PROFIL
 62
     4
 10
-25.082388767887839
 20
-147.285721670962
 30
0.0
 42
-0.5862177598324623
  0
VERTEX
  5
232B
  8
SAPA_PROFIL
 62
     4
 10
-24.82664695264949
 20
-146.82889015646549
 30
0.0
  0
VERTEX
  5
232C
  8
SAPA_PROFIL
 62
     4
 10
-23.88547227213968
 20
-146.82889015647319
 30
0.0
 42
0.3152987888813165
  0
VERTEX
  5
232D
  8
SAPA_PROFIL
 62
     4
 10
-23.41562596174192
 20
-146.4999002281364
 30
0.0
  0
VERTEX
  5
232E
  8
SAPA_PROFIL
 62
     4
 10
-22.978861680617971
 20
-145.29990022812521
 30
0.0
 42
0.5205670505515651
  0
VERTEX
  5
232F
  8
SAPA_PROFIL
 62
     4
 10
-23.44870799101119
 20
-144.62889015646249
 30
0.0
  0
VERTEX
  5
2330
  8
SAPA_PROFIL
 62
     4
 10
-28.465148931680041
 20
-144.6288901564624
 30
0.0
 42
0.3702522326300203
  0
VERTEX
  5
2331
  8
SAPA_PROFIL
 62
     4
 10
-28.761672293473371
 20
-144.8833501091282
 30
0.0
 42
0.0982365330332397
  0
VERTEX
  5
2332
  8
SAPA_PROFIL
 62
     4
 10
-28.852125051684311
 20
-146.5710368841232
 30
0.0
 42
0.3735060174783164
  0
VERTEX
  5
2333
  8
SAPA_PROFIL
 62
     4
 10
-28.555100383773329
 20
-146.82889015646319
 30
0.0
  0
VERTEX
  5
2334
  8
SAPA_PROFIL
 62
     4
 10
-28.126646952650681
 20
-146.8288901564641
 30
0.0
 42
-0.5920056181162531
  0
VERTEX
  5
2335
  8
SAPA_PROFIL
 62
     4
 10
-27.873638196333271
 20
-147.29009365899199
 30
0.0
  0
VERTEX
  5
2336
  8
SAPA_PROFIL
 62
     4
 10
-28.134822272488972
 20
-147.69228186697029
 30
0.0
 42
-0.2539676464746725
  0
VERTEX
  5
2337
  8
SAPA_PROFIL
 62
     4
 10
-28.38642344287274
 20
-147.82889015646569
 30
0.0
  0
VERTEX
  5
2338
  8
SAPA_PROFIL
 62
     4
 10
-50.613576462238427
 20
-147.8288901564641
 30
0.0
 42
-0.2539676464741819
  0
VERTEX
  5
2339
  8
SAPA_PROFIL
 62
     4
 10
-50.865177632621283
 20
-147.69228186697029
 30
0.0
  0
VERTEX
  5
233A
  8
SAPA_PROFIL
 62
     4
 10
-51.126361708775093
 20
-147.29009365899199
 30
0.0
 42
-0.5920055144124249
  0
VERTEX
  5
233B
  8
SAPA_PROFIL
 62
     4
 10
-50.873352952459577
 20
-146.8288901564641
 30
0.0
  0
VERTEX
  5
233C
  8
SAPA_PROFIL
 62
     4
 10
-50.444899475169358
 20
-146.8288901817391
 30
0.0
 42
0.3735060174775405
  0
VERTEX
  5
233D
  8
SAPA_PROFIL
 62
     4
 10
-50.147874807259669
 20
-146.571036909399
 30
0.0
 42
0.0355900683670349
  0
VERTEX
  5
233E
  8
SAPA_PROFIL
 62
     4
 10
-50.103981243227423
 20
-145.95516332259919
 30
0.0
 42
0.0624282003873116
  0
VERTEX
  5
233F
  8
SAPA_PROFIL
 62
     4
 10
-50.238327565470371
 20
-144.88335013440411
 30
0.0
 42
0.3702522326309292
  0
VERTEX
  5
2340
  8
SAPA_PROFIL
 62
     4
 10
-50.53485092726374
 20
-144.6288901817384
 30
0.0
  0
VERTEX
  5
2341
  8
SAPA_PROFIL
 62
     4
 10
-55.551291914097249
 20
-144.62889015646221
 30
0.0
 42
0.5205670505515692
  0
VERTEX
  5
2342
  8
SAPA_PROFIL
 62
     4
 10
-56.021138224490471
 20
-145.29990022812521
 30
0.0
  0
VERTEX
  5
2343
  8
SAPA_PROFIL
 62
     4
 10
-55.58437394336552
 20
-146.49990022813469
 30
0.0
 42
0.3152987888807539
  0
VERTEX
  5
2344
  8
SAPA_PROFIL
 62
     4
 10
-55.114527632969669
 20
-146.82889015647231
 30
0.0
  0
VERTEX
  5
2345
  8
SAPA_PROFIL
 62
     4
 10
-54.173352952460583
 20
-146.82889015646549
 30
0.0
 42
-0.5862175119221242
  0
VERTEX
  5
2346
  8
SAPA_PROFIL
 62
     4
 10
-53.917611021478628
 20
-147.28572148222059
 30
0.0
 42
0.0000002084758573
  0
SEQEND
  5
2347
  8
SAPA_PROFIL
 62
     4
  0
POLYLINE
  5
18BD
  8
SAPA_PROFIL
 62
     4
 66
     1
 10
0.0
 20
0.0
 30
0.0
  0
VERTEX
  5
2348
  8
SAPA_PROFIL
 62
     4
 10
-30.45067083015773
 20
-98.203343297202863
 30
0.0
 42
-0.5571646428658034
  0
VERTEX
  5
2349
  8
SAPA_PROFIL
 62
     4
 10
-30.987631334294559
 20
-99.071062211358424
 30
0.0
  0
VERTEX
  5
234A
  8
SAPA_PROFIL
 62
     4
 10
-48.012368570815759
 20
-99.071062211357955
 30
0.0
 42
-0.5571645048035741
  0
VERTEX
  5
234B
  8
SAPA_PROFIL
 62
     4
 10
-48.54932918777682
 20
-98.203343523491796
 30
0.0
  0
VERTEX
  5
234C
  8
SAPA_PROFIL
 62
     4
 10
-47.718622100230107
 20
-96.537202867423773
 30
0.0
 42
-0.284385813979063
  0
VERTEX
  5
234D
  8
SAPA_PROFIL
 62
     4
 10
-47.450141791749772
 20
-96.371062211356303
 30
0.0
  0
VERTEX
  5
234E
  8
SAPA_PROFIL
 62
     4
 10
-31.549858113360461
 20
-96.371062211356332
 30
0.0
 42
-0.2843858139786238
  0
VERTEX
  5
234F
  8
SAPA_PROFIL
 62
     4
 10
-31.281377804880169
 20
-96.537202867423247
 30
0.0
  0
VERTEX
  5
2350
  8
SAPA_PROFIL
 62
     4
 10
-30.450670717333011
 20
-98.203343523492606
 30
0.0
  0
SEQEND
  5
2351
  8
SAPA_PROFIL
 62
     4
  0
POLYLINE
  5
18BE
  8
SAPA_PROFIL
 62
     4
 66
     1
 10
0.0
 20
0.0
 30
0.0
 70
     1
  0
VERTEX
  5
2352
  8
SAPA_PROFIL
 62
     4
 10
-53.917611137222409
 20
-96.014230696858746
 30
0.0
  0
VERTEX
  5
2353
  8
SAPA_PROFIL
 62
     4
 10
-54.18163441559841
 20
-95.60767050085461
 30
0.0
 42
0.2539676464751066
  0
VERTEX
  5
2354
  8
SAPA_PROFIL
 62
     4
 10
-54.43323558598312
 20
-95.4710622113585
 30
0.0
  0
VERTEX
  5
2355
  8
SAPA_PROFIL
 62
     4
 10
-55.814735171188481
 20
-95.4710622113585
 30
0.0
 42
0.3152987888790479
  0
VERTEX
  5
2356
  8
SAPA_PROFIL
 62
     4
 10
-56.28458148158078
 20
-95.80005213969666
 30
0.0
  0
VERTEX
  5
2357
  8
SAPA_PROFIL
 62
     4
 10
-57.180250422489387
 20
-98.260882330147936
 30
0.0
 42
-0.2694959974287434
  0
VERTEX
  5
2358
  8
SAPA_PROFIL
 62
     4
 10
-57.411769468890739
 20
-98.454014304491835
 30
0.0
 42
-0.0612686379508233
  0
VERTEX
  5
2359
  8
SAPA_PROFIL
 62
     4
 10
-57.704444901744019
 20
-98.467597675122349
 30
0.0
  0
VERTEX
  5
235A
  8
SAPA_PROFIL
 62
     4
 10
-58.053863079052292
 20
-98.66933435385117
 30
0.0
 42
-0.5773502691891679
  0
VERTEX
  5
235B
  8
SAPA_PROFIL
 62
     4
 10
-58.368863079051877
 20
-98.487469019056604
 30
0.0
  0
VERTEX
  5
235C
  8
SAPA_PROFIL
 62
     4
 10
-58.368863079052119
 20
-98.220354490930291
 30
0.0
  0
VERTEX
  5
235D
  8
SAPA_PROFIL
 62
     4
 10
-59.76739077968638
 20
-97.411671029621971
 30
0.0
 42
0.1318219888653519
  0
VERTEX
  5
235E
  8
SAPA_PROFIL
 62
     4
 10
-59.917563882158717
 20
-97.371378633084575
 30
0.0
  0
VERTEX
  5
235F
  8
SAPA_PROFIL
 62
     4
 10
-60.099999952595489
 20
-97.371378633090941
 30
0.0
 42
0.4142135623724291
  0
VERTEX
  5
2360
  8
SAPA_PROFIL
 62
     4
 10
-60.499999952596042
 20
-97.771378633090563
 30
0.0
  0
VERTEX
  5
2361
  8
SAPA_PROFIL
 62
     4
 10
-60.499999952594678
 20
-101.17137863309161
 30
0.0
 42
0.4142135623744271
  0
VERTEX
  5
2362
  8
SAPA_PROFIL
 62
     4
 10
-60.099999952595489
 20
-101.57137863309261
 30
0.0
  0
VERTEX
  5
2363
  8
SAPA_PROFIL
 62
     4
 10
-59.920384710324193
 20
-101.5713786330932
 30
0.0
 42
0.1316524975874005
  0
VERTEX
  5
2364
  8
SAPA_PROFIL
 62
     4
 10
-59.770384710327377
 20
-101.53118625422761
 30
0.0
  0
VERTEX
  5
2365
  8
SAPA_PROFIL
 62
     4
 10
-58.166246813325131
 20
-100.6050368075751
 30
0.0
 42
-0.1316524975875904
  0
VERTEX
  5
2366
  8
SAPA_PROFIL
 62
     4
 10
-57.666246813323411
 20
-100.47106221136031
 30
0.0
  0
VERTEX
  5
2367
  8
SAPA_PROFIL
 62
     4
 10
-57.249999952596042
 20
-100.47106221136031
 30
0.0
 42
-0.4142135623730951
  0
VERTEX
  5
2368
  8
SAPA_PROFIL
 62
     4
 10
-56.249999952596042
 20
-101.47106221136031
 30
0.0
  0
VERTEX
  5
2369
  8
SAPA_PROFIL
 62
     4
 10
-56.249999952596042
 20
-104.47106221135761
 30
0.0
 42
0.9999996830128083
  0
VERTEX
  5
236A
  8
SAPA_PROFIL
 62
     4
 10
-55.249999952596042
 20
-104.4710622113594
 30
0.0
  0
VERTEX
  5
236B
  8
SAPA_PROFIL
 62
     4
 10
-55.249999952596042
 20
-101.4710622113594
 30
0.0
 42
-0.4142135623730951
  0
VERTEX
  5
236C
  8
SAPA_PROFIL
 62
     4
 10
-54.249999952596042
 20
-100.4710622113594
 30
0.0
  0
VERTEX
  5
236D
  8
SAPA_PROFIL
 62
     4
 10
-24.749999952511459
 20
-100.4710622113594
 30
0.0
 42
-0.4142135623730951
  0
VERTEX
  5
236E
  8
SAPA_PROFIL
 62
     4
 10
-23.749999952511459
 20
-101.4710622113594
 30
0.0
  0
VERTEX
  5
236F
  8
SAPA_PROFIL
 62
     4
 10
-23.749999952511459
 20
-104.47106221135761
 30
0.0
 42
0.9999999999999998
  0
VERTEX
  5
2370
  8
SAPA_PROFIL
 62
     4
 10
-22.749999952511459
 20
-104.47106221135761
 30
0.0
  0
VERTEX
  5
2371
  8
SAPA_PROFIL
 62
     4
 10
-22.749999952511459
 20
-101.4710622113594
 30
0.0
 42
-0.4142135623736278
  0
VERTEX
  5
2372
  8
SAPA_PROFIL
 62
     4
 10
-21.749999952511459
 20
-100.4710622113594
 30
0.0
  0
VERTEX
  5
2373
  8
SAPA_PROFIL
 62
     4
 10
-21.333753091784999
 20
-100.4710622113594
 30
0.0
 42
-0.1316524975874375
  0
VERTEX
  5
2374
  8
SAPA_PROFIL
 62
     4
 10
-20.8337530917848
 20
-100.6050368075754
 30
0.0
  0
VERTEX
  5
2375
  8
SAPA_PROFIL
 62
     4
 10
-19.229615194782848
 20
-101.53118625422761
 30
0.0
 42
0.1316524975874
  0
VERTEX
  5
2376
  8
SAPA_PROFIL
 62
     4
 10
-19.079615194783301
 20
-101.5713786330932
 30
0.0
  0
VERTEX
  5
2377
  8
SAPA_PROFIL
 62
     4
 10
-18.899999952512001
 20
-101.57137863309261
 30
0.0
 42
0.4142135623744271
  0
VERTEX
  5
2378
  8
SAPA_PROFIL
 62
     4
 10
-18.49999995251282
 20
-101.17137863309161
 30
0.0
  0
VERTEX
  5
2379
  8
SAPA_PROFIL
 62
     4
 10
-18.499999952511459
 20
-97.771378633090592
 30
0.0
 42
0.4142135623724291
  0
VERTEX
  5
237A
  8
SAPA_PROFIL
 62
     4
 10
-18.899999952512001
 20
-97.371378633090956
 30
0.0
  0
VERTEX
  5
237B
  8
SAPA_PROFIL
 62
     4
 10
-19.08243602294878
 20
-97.371378633084589
 30
0.0
 42
0.1318219888653524
  0
VERTEX
  5
237C
  8
SAPA_PROFIL
 62
     4
 10
-19.232609125421131
 20
-97.411671029621971
 30
0.0
  0
VERTEX
  5
237D
  8
SAPA_PROFIL
 62
     4
 10
-20.631136825900779
 20
-98.220354490846319
 30
0.0
  0
VERTEX
  5
237E
  8
SAPA_PROFIL
 62
     4
 10
-20.631136825900779
 20
-98.487469019059347
 30
0.0
 42
-0.577350269189159
  0
VERTEX
  5
237F
  8
SAPA_PROFIL
 62
     4
 10
-20.946136825900378
 20
-98.669334353853912
 30
0.0
  0
VERTEX
  5
2380
  8
SAPA_PROFIL
 62
     4
 10
-21.295555003119041
 20
-98.467597675176805
 30
0.0
 42
-0.0612687673629489
  0
VERTEX
  5
2381
  8
SAPA_PROFIL
 62
     4
 10
-21.588230436219259
 20
-98.454014304490599
 30
0.0
 42
-0.2694959974285039
  0
VERTEX
  5
2382
  8
SAPA_PROFIL
 62
     4
 10
-21.81974948261978
 20
-98.260882330146643
 30
0.0
  0
VERTEX
  5
2383
  8
SAPA_PROFIL
 62
     4
 10
-22.715418423529439
 20
-95.800052139693477
 30
0.0
 42
0.3152987888784035
  0
VERTEX
  5
2384
  8
SAPA_PROFIL
 62
     4
 10
-23.185264733922669
 20
-95.471062211356895
 30
0.0
  0
VERTEX
  5
2385
  8
SAPA_PROFIL
 62
     4
 10
-24.566764319127099
 20
-95.471062211358515
 30
0.0
 42
0.2539676464741841
  0
VERTEX
  5
2386
  8
SAPA_PROFIL
 62
     4
 10
-24.81836548951118
 20
-95.607670500853786
 30
0.0
  0
VERTEX
  5
2387
  8
SAPA_PROFIL
 62
     4
 10
-25.082388767887821
 20
-96.014230696858775
 30
0.0
 42
0.5862177598324623
  0
VERTEX
  5
2388
  8
SAPA_PROFIL
 62
     4
 10
-24.82664695264948
 20
-96.47106221135526
 30
0.0
  0
VERTEX
  5
2389
  8
SAPA_PROFIL
 62
     4
 10
-23.885472272139669
 20
-96.471062211347615
 30
0.0
 42
-0.3152987888813165
  0
VERTEX
  5
238A
  8
SAPA_PROFIL
 62
     4
 10
-23.41562596174191
 20
-96.800052139684354
 30
0.0
  0
VERTEX
  5
238B
  8
SAPA_PROFIL
 62
     4
 10
-22.97886168061795
 20
-98.000052139695583
 30
0.0
 42
-0.5205670505515651
  0
VERTEX
  5
238C
  8
SAPA_PROFIL
 62
     4
 10
-23.448707991011169
 20
-98.671062211358347
 30
0.0
  0
VERTEX
  5
238D
  8
SAPA_PROFIL
 62
     4
 10
-28.46514893168003
 20
-98.671062211358347
 30
0.0
 42
-0.3702522326300203
  0
VERTEX
  5
238E
  8
SAPA_PROFIL
 62
     4
 10
-28.76167229347336
 20
-98.416602258692649
 30
0.0
 42
-0.0982365330332397
  0
VERTEX
  5
238F
  8
SAPA_PROFIL
 62
     4
 10
-28.8521250516843
 20
-96.728915483697634
 30
0.0
 42
-0.3735060174783164
  0
VERTEX
  5
2390
  8
SAPA_PROFIL
 62
     4
 10
-28.555100383773318
 20
-96.471062211357605
 30
0.0
  0
VERTEX
  5
2391
  8
SAPA_PROFIL
 62
     4
 10
-28.12664695265066
 20
-96.471062211356696
 30
0.0
 42
0.5920056181162531
  0
VERTEX
  5
2392
  8
SAPA_PROFIL
 62
     4
 10
-27.87363819633326
 20
-96.009858708828773
 30
0.0
  0
VERTEX
  5
2393
  8
SAPA_PROFIL
 62
     4
 10
-28.134822272488961
 20
-95.607670500850475
 30
0.0
 42
0.2539676464746725
  0
VERTEX
  5
2394
  8
SAPA_PROFIL
 62
     4
 10
-28.386423442872719
 20
-95.471062211355104
 30
0.0
  0
VERTEX
  5
2395
  8
SAPA_PROFIL
 62
     4
 10
-50.613576462238413
 20
-95.471062211356696
 30
0.0
 42
0.2539676464741819
  0
VERTEX
  5
2396
  8
SAPA_PROFIL
 62
     4
 10
-50.865177632621268
 20
-95.607670500850446
 30
0.0
  0
VERTEX
  5
2397
  8
SAPA_PROFIL
 62
     4
 10
-51.126361708775072
 20
-96.009858708828801
 30
0.0
 42
0.5920055144124249
  0
VERTEX
  5
2398
  8
SAPA_PROFIL
 62
     4
 10
-50.873352952459562
 20
-96.471062211356681
 30
0.0
  0
VERTEX
  5
2399
  8
SAPA_PROFIL
 62
     4
 10
-50.44489947516935
 20
-96.471062186081681
 30
0.0
 42
-0.3735060174775405
  0
VERTEX
  5
239A
  8
SAPA_PROFIL
 62
     4
 10
-50.147874807259662
 20
-96.728915458421767
 30
0.0
 42
-0.0355900683670349
  0
VERTEX
  5
239B
  8
SAPA_PROFIL
 62
     4
 10
-50.103981243227402
 20
-97.34478904522156
 30
0.0
 42
-0.0624282003873116
  0
VERTEX
  5
239C
  8
SAPA_PROFIL
 62
     4
 10
-50.23832756547035
 20
-98.416602233416697
 30
0.0
 42
-0.3702522326309292
  0
VERTEX
  5
239D
  8
SAPA_PROFIL
 62
     4
 10
-50.534850927263719
 20
-98.671062186082423
 30
0.0
  0
VERTEX
  5
239E
  8
SAPA_PROFIL
 62
     4
 10
-55.551291914097227
 20
-98.67106221135856
 30
0.0
 42
-0.5205670505515692
  0
VERTEX
  5
239F
  8
SAPA_PROFIL
 62
     4
 10
-56.02113822449045
 20
-98.000052139695569
 30
0.0
  0
VERTEX
  5
23A0
  8
SAPA_PROFIL
 62
     4
 10
-55.584373943365499
 20
-96.80005213968613
 30
0.0
 42
-0.3152987888807539
  0
VERTEX
  5
23A1
  8
SAPA_PROFIL
 62
     4
 10
-55.114527632969647
 20
-96.471062211348496
 30
0.0
  0
VERTEX
  5
23A2
  8
SAPA_PROFIL
 62
     4
 10
-54.173352952460569
 20
-96.471062211355317
 30
0.0
 42
0.5862175119221242
  0
VERTEX
  5
23A3
  8
SAPA_PROFIL
 62
     4
 10
-53.917611021478614
 20
-96.014230885600185
 30
0.0
 42
-0.0000002084758573
  0
SEQEND
  5
23A4
  8
SAPA_PROFIL
 62
     4
  0
CIRCLE
  5
18BF
  8
SAPA_PROFIL
 62
     2
 10
-77.31733998509489
 20
-86.831483681342419
 30
0.1
 40
0.25
  0
INSERT
  5
18C0
  8
SAPA_PROFIL
  6
CONTINUOUS
 62
     2
  2
*U159
 10
0.0
 20
0.0
 30
0.0
1001
ACAD
1002
{
1000
R14_HATCH_DATA
1000
18C0
1011
1.0
1021
0.0
1031
0.0
1021
0.0
1031
0.0
1011
0.0
1021
0.0
1031
0.0
1021
1.0
1031
0.0
1011
0.0
1021
0.0
1031
0.0
1021
0.0
1031
1.0
1040
0.1
1010
0.0
1020
0.0
1030
1.0
1000
SOLID
1070
     1
1070
     1
1071
        1
1071
        7
1070
     1
1070
     1
1071
        2
1040
-77.06733998509489
1040
-86.831483681342419
1040
1.0
1040
-77.567339985094875
1040
-86.831483681342419
1040
1.0
1071
        1
1005
18BF
1070
     0
1070
     1
1040
0.0095408196840103
1071
        1
1040
-77.217339985094895
1040
-86.831483681342419
1040
0.1
1002
}
  0
POLYLINE
  5
18C1
  8
SAPA_PROFIL
 62
     2
 66
     1
 10
0.0
 20
0.0
 30
0.1
 70
     1
  0
VERTEX
  5
23B6
  8
SAPA_PROFIL
 62
     2
 10
-79.991719223960786
 20
-84.499950679999387
 30
0.1
  0
VERTEX
  5
23B7
  8
SAPA_PROFIL
 62
     2
 10
-79.991719223960786
 20
-84.399950679999392
 30
0.1
 42
-0.4142135623730959
  0
VERTEX
  5
23B8
  8
SAPA_PROFIL
 62
     2
 10
-79.291719223960783
 20
-83.69995067999939
 30
0.1
  0
VERTEX
  5
23B9
  8
SAPA_PROFIL
 62
     2
 10
-78.191719223960774
 20
-83.69995067999939
 30
0.1
 42
-0.4142135623730961
  0
VERTEX
  5
23BA
  8
SAPA_PROFIL
 62
     2
 10
-77.991719223960786
 20
-83.899950679999378
 30
0.1
  0
VERTEX
  5
23BB
  8
SAPA_PROFIL
 62
     2
 10
-77.991719223960786
 20
-84.999950679999387
 30
0.1
 42
-0.4142135623730956
  0
VERTEX
  5
23BC
  8
SAPA_PROFIL
 62
     2
 10
-78.191719223960774
 20
-85.19995067999939
 30
0.1
  0
VERTEX
  5
23BD
  8
SAPA_PROFIL
 62
     2
 10
-79.291719223960783
 20
-85.19995067999939
 30
0.1
 42
-0.4142135623730946
  0
SEQEND
  5
23BE
  8
SAPA_PROFIL
 62
     2
  0
POLYLINE
  5
18C2
  8
SAPA_PROFIL
 62
     2
 66
     1
 10
0.0
 20
0.0
 30
0.1
  0
VERTEX
  5
23BF
  8
SAPA_PROFIL
 62
     2
 10
-78.691719223960789
 20
-85.999950679999387
 30
0.1
  0
VERTEX
  5
23C0
  8
SAPA_PROFIL
 62
     2
 10
-78.043953658687698
 20
-85.999950679999387
 30
0.1
 42
-0.4416942457848117
  0
VERTEX
  5
23C1
  8
SAPA_PROFIL
 62
     2
 10
-77.844816179194765
 20
-86.218505039627317
 30
0.1
  0
VERTEX
  5
23C2
  8
SAPA_PROFIL
 62
     2
 10
-77.934532244452797
 20
-87.181396320371476
 30
0.1
 42
0.4416942457848106
  0
VERTEX
  5
23C3
  8
SAPA_PROFIL
 62
     2
 10
-77.735394764959864
 20
-87.399950679999407
 30
0.1
  0
VERTEX
  5
23C4
  8
SAPA_PROFIL
 62
     2
 10
-77.185412425368327
 20
-87.399950679999407
 30
0.1
 42
0.5445962197109637
  0
VERTEX
  5
23C5
  8
SAPA_PROFIL
 62
     2
 10
-76.729675516306443
 20
-86.694271634594315
 30
0.1
  0
VERTEX
  5
23C6
  8
SAPA_PROFIL
 62
     2
 10
-76.891719223960791
 20
-86.335220481309037
 30
0.1
  0
VERTEX
  5
23C7
  8
SAPA_PROFIL
 62
     2
 10
-76.891719223960791
 20
-84.862261242561161
 30
0.1
 42
0.336437923496554
  0
VERTEX
  5
23C8
  8
SAPA_PROFIL
 62
     2
 10
-77.079226041802514
 20
-83.790517512946323
 30
0.1
  0
VERTEX
  5
23C9
  8
SAPA_PROFIL
 62
     2
 10
-77.079226041802514
 20
-83.228653877122596
 30
0.1
 42
-0.1919812372740513
  0
VERTEX
  5
23CA
  8
SAPA_PROFIL
 62
     2
 10
-76.942093663785258
 20
-82.884666829522573
 30
0.1
  0
VERTEX
  5
23CB
  8
SAPA_PROFIL
 62
     2
 10
-76.570616187495219
 20
-82.492799899119262
 30
0.1
 42
-0.9249153594910841
  0
VERTEX
  5
23CC
  8
SAPA_PROFIL
 62
     2
 10
-74.336921372415915
 20
-84.158577827641494
 30
0.1
  0
VERTEX
  5
23CD
  8
SAPA_PROFIL
 62
     2
 10
-74.870469427667558
 20
-85.243122767310254
 30
0.1
 42
0.4184584792862776
  0
VERTEX
  5
23CE
  8
SAPA_PROFIL
 62
     2
 10
-74.466717307247833
 20
-85.829825083881687
 30
0.1
 42
0.3891337693453737
  0
VERTEX
  5
23CF
  8
SAPA_PROFIL
 62
     2
 10
-74.238627999305223
 20
-85.684658192341203
 30
0.1
  0
VERTEX
  5
23D0
  8
SAPA_PROFIL
 62
     2
 10
-73.675722946817345
 20
-84.598762101776202
 30
0.1
 42
0.8864286961344978
  0
VERTEX
  5
23D1
  8
SAPA_PROFIL
 62
     2
 10
-77.034921702338067
 20
-81.926982199839657
 30
0.1
  0
VERTEX
  5
23D2
  8
SAPA_PROFIL
 62
     2
 10
-77.150289675627192
 20
-81.496423061958396
 30
0.1
 42
0.9163311740174273
  0
VERTEX
  5
23D3
  8
SAPA_PROFIL
 62
     2
 10
-77.935137885379504
 20
-81.634812977098463
 30
0.1
  0
VERTEX
  5
23D4
  8
SAPA_PROFIL
 62
     2
 10
-77.843475439171954
 20
-82.682519531449856
 30
0.1
 42
-0.4400105308918339
  0
VERTEX
  5
23D5
  8
SAPA_PROFIL
 62
     2
 10
-78.042714378790293
 20
-82.899950679999392
 30
0.1
  0
VERTEX
  5
23D6
  8
SAPA_PROFIL
 62
     2
 10
-78.891719223960791
 20
-82.899950679999392
 30
0.1
  0
VERTEX
  5
23D7
  8
SAPA_PROFIL
 62
     2
 10
-78.891719223960763
 20
-82.499950679999387
 30
0.1
 42
0.569380983920789
  0
VERTEX
  5
23D8
  8
SAPA_PROFIL
 62
     2
 10
-79.187535595663434
 20
-82.3243966344358
 30
0.1
  0
VERTEX
  5
23D9
  8
SAPA_PROFIL
 62
     2
 10
-80.479168339068735
 20
-83.029362234334869
 30
0.1
 42
0.274387813087548
  0
VERTEX
  5
23DA
  8
SAPA_PROFIL
 62
     2
 10
-80.791719223960783
 20
-83.556024371025615
 30
0.1
  0
VERTEX
  5
23DB
  8
SAPA_PROFIL
 62
     2
 10
-80.791719223960783
 20
-85.343876988973165
 30
0.1
 42
0.274387813087548
  0
VERTEX
  5
23DC
  8
SAPA_PROFIL
 62
     2
 10
-80.479168339068735
 20
-85.87053912566391
 30
0.1
  0
VERTEX
  5
23DD
  8
SAPA_PROFIL
 62
     2
 10
-79.187535595663434
 20
-86.575504725562979
 30
0.1
 42
0.5693809839207892
  0
VERTEX
  5
23DE
  8
SAPA_PROFIL
 62
     2
 10
-78.891719223960791
 20
-86.399950679999378
 30
0.1
  0
VERTEX
  5
23DF
  8
SAPA_PROFIL
 62
     2
 10
-78.891719223960791
 20
-85.999950679999387
 30
0.1
  0
VERTEX
  5
23E0
  8
SAPA_PROFIL
 62
     2
 10
-78.042714378790293
 20
-85.999950679999387
 30
0.1
  0
SEQEND
  5
23E1
  8
SAPA_PROFIL
 62
     2
  0
POLYLINE
  5
18C3
  8
SAPA_PROFIL
 66
     1
 10
0.0
 20
0.0
 30
0.0
 70
     1
  0
VERTEX
  5
23E2
  8
SAPA_PROFIL
 10
-18.499999957005329
 20
-81.453514569158386
 30
0.0
 42
0.2134217652834387
  0
VERTEX
  5
23E3
  8
SAPA_PROFIL
 10
-18.399999957005221
 20
-81.67712136690848
 30
0.0
 42
-0.7625858545243219
  0
VERTEX
  5
23E4
  8
SAPA_PROFIL
 10
-18.584579159202701
 20
-82.007447447925486
 30
0.0
  0
VERTEX
  5
23E5
  8
SAPA_PROFIL
 10
-18.775962159196411
 20
-81.949373810936407
 30
0.0
  0
VERTEX
  5
23E6
  8
SAPA_PROFIL
 10
-20.661805851057469
 20
-80.864809363964667
 30
0.0
  0
VERTEX
  5
23E7
  8
SAPA_PROFIL
 10
-20.651244484830489
 20
-80.543051635746409
 30
0.0
 42
0.5773502691897439
  0
VERTEX
  5
23E8
  8
SAPA_PROFIL
 10
-20.945400785085329
 20
-80.360097895636244
 30
0.0
  0
VERTEX
  5
23E9
  8
SAPA_PROFIL
 10
-21.230083068316961
 20
-80.512231806744992
 30
0.0
 42
0.2216946626430187
  0
VERTEX
  5
23EA
  8
SAPA_PROFIL
 10
-21.635891973471761
 20
-81.053111638221793
 30
0.0
  0
VERTEX
  5
23EB
  8
SAPA_PROFIL
 10
-22.017338569599481
 20
-82.866342108880033
 30
0.0
 42
0.4769755326981641
  0
VERTEX
  5
23EC
  8
SAPA_PROFIL
 10
-21.71508574509301
 20
-83.237998983825918
 30
0.0
  0
VERTEX
  5
23ED
  8
SAPA_PROFIL
 10
-20.211984664331009
 20
-83.237915375942265
 30
0.0
  0
VERTEX
  5
23EE
  8
SAPA_PROFIL
 10
-20.197466255083899
 20
-83.190069625943764
 30
0.0
 42
-0.4142135623730944
  0
VERTEX
  5
23EF
  8
SAPA_PROFIL
 10
-19.823281299608091
 20
-82.990105581436381
 30
0.0
  0
VERTEX
  5
23F0
  8
SAPA_PROFIL
 10
-18.50404829784668
 20
-83.499999999999872
 30
0.0
  0
VERTEX
  5
23F1
  8
SAPA_PROFIL
 10
1.2314784396508209
 20
-83.499999999999943
 30
0.0
 42
-0.38217120901707
  0
VERTEX
  5
23F2
  8
SAPA_PROFIL
 10
1.529644634752745
 20
-83.766880215905672
 30
0.0
  0
VERTEX
  5
23F3
  8
SAPA_PROFIL
 10
2.055484169717738
 20
-90.344850999999878
 30
0.0
 42
-0.4469990000000265
  0
VERTEX
  5
23F4
  8
SAPA_PROFIL
 10
1.5585401697176891
 20
-90.900051000000019
 30
0.0
  0
VERTEX
  5
23F5
  8
SAPA_PROFIL
 10
-0.1999999570053088
 20
-90.900050999999905
 30
0.0
 42
0.4142139999999868
  0
VERTEX
  5
23F6
  8
SAPA_PROFIL
 10
-1.1999999570052799
 20
-91.900050999999834
 30
0.0
  0
VERTEX
  5
23F7
  8
SAPA_PROFIL
 10
-1.199999957005323
 20
-92.167594999999935
 30
0.0
 42
0.2896899999999956
  0
VERTEX
  5
23F8
  8
SAPA_PROFIL
 10
-0.6285719570052475
 20
-93.071102999999937
 30
0.0
 42
0.5507599999999603
  0
VERTEX
  5
23F9
  8
SAPA_PROFIL
 10
-0.1999999570053088
 20
-92.800050999999868
 30
0.0
  0
VERTEX
  5
23FA
  8
SAPA_PROFIL
 10
-0.1999999570053124
 20
-92.500050999999928
 30
0.0
 42
-0.4142140000001095
  0
VERTEX
  5
23FB
  8
SAPA_PROFIL
 10
0.0000000429947367
 20
-92.300050999999854
 30
0.0
  0
VERTEX
  5
23FC
  8
SAPA_PROFIL
 10
1.1000000429947021
 20
-92.300050999999897
 30
0.0
 42
-0.4142139999999826
  0
VERTEX
  5
23FD
  8
SAPA_PROFIL
 10
2.1000000429946422
 20
-93.300050999999883
 30
0.0
  0
VERTEX
  5
23FE
  8
SAPA_PROFIL
 10
2.1000000429946928
 20
-95.599999999999966
 30
0.0
 42
-0.4142139999999877
  0
VERTEX
  5
23FF
  8
SAPA_PROFIL
 10
1.1000000429947501
 20
-96.599999999999937
 30
0.0
  0
VERTEX
  5
2400
  8
SAPA_PROFIL
 10
0.0000000429946816
 20
-96.599999999999966
 30
0.0
 42
-0.4142139999999481
  0
VERTEX
  5
2401
  8
SAPA_PROFIL
 10
-0.1999999570052715
 20
-96.399999999999864
 30
0.0
  0
VERTEX
  5
2402
  8
SAPA_PROFIL
 10
-0.1999999570053141
 20
-96.100050999999951
 30
0.0
 42
0.5507600000000124
  0
VERTEX
  5
2403
  8
SAPA_PROFIL
 10
-0.6285719570053132
 20
-95.828997999999899
 30
0.0
 42
0.2896899999999978
  0
VERTEX
  5
2404
  8
SAPA_PROFIL
 10
-1.199999957005335
 20
-96.73250599999983
 30
0.0
  0
VERTEX
  5
2405
  8
SAPA_PROFIL
 10
-1.1999999570053099
 20
-96.999999999999943
 30
0.0
 42
0.4142140000000002
  0
VERTEX
  5
2406
  8
SAPA_PROFIL
 10
-0.1999999570052964
 20
-97.999999999999943
 30
0.0
  0
VERTEX
  5
2407
  8
SAPA_PROFIL
 10
1.5000000429946809
 20
-97.999999999999972
 30
0.0
 42
0.4142139999999887
  0
VERTEX
  5
2408
  8
SAPA_PROFIL
 10
3.500000042994738
 20
-95.999999999999915
 30
0.0
  0
VERTEX
  5
2409
  8
SAPA_PROFIL
 10
3.500000042994674
 20
-31.199999999999989
 30
0.0
 42
0.4142135623730847
  0
VERTEX
  5
240A
  8
SAPA_PROFIL
 10
3.3000000429946779
 20
-30.999999999999979
 30
0.0
  0
VERTEX
  5
240B
  8
SAPA_PROFIL
 10
0.6113830429947136
 20
-31.0
 30
0.0
 42
0.2596810000000924
  0
VERTEX
  5
240C
  8
SAPA_PROFIL
 10
0.4413520429946907
 20
-31.09469300000001
 30
0.0
  0
VERTEX
  5
240D
  8
SAPA_PROFIL
 10
-0.4550469570053189
 20
-32.542039999999929
 30
0.0
 42
0.5877030000000333
  0
VERTEX
  5
240E
  8
SAPA_PROFIL
 10
-0.1999999570052573
 20
-33.000000000000021
 30
0.0
  0
VERTEX
  5
240F
  8
SAPA_PROFIL
 10
1.200000042994712
 20
-33.0
 30
0.0
 42
-0.4142139999999517
  0
VERTEX
  5
2410
  8
SAPA_PROFIL
 10
1.5000000429946949
 20
-33.299999999999933
 30
0.0
  0
VERTEX
  5
2411
  8
SAPA_PROFIL
 10
1.5000000429946629
 20
-35.699999999999932
 30
0.0
 42
-0.4142140000000525
  0
VERTEX
  5
2412
  8
SAPA_PROFIL
 10
1.2000000429947191
 20
-35.999999999999943
 30
0.0
  0
VERTEX
  5
2413
  8
SAPA_PROFIL
 10
-16.199999957005261
 20
-36.0
 30
0.0
 42
-0.4142140000001183
  0
VERTEX
  5
2414
  8
SAPA_PROFIL
 10
-16.499999957005439
 20
-35.699999999999903
 30
0.0
  0
VERTEX
  5
2415
  8
SAPA_PROFIL
 10
-16.49999995700534
 20
-33.299999999999898
 30
0.0
 42
-0.4142140000000144
  0
VERTEX
  5
2416
  8
SAPA_PROFIL
 10
-16.199999957005321
 20
-33.000000000000057
 30
0.0
  0
VERTEX
  5
2417
  8
SAPA_PROFIL
 10
-14.79999995700528
 20
-33.0
 30
0.0
 42
0.5920054160710128
  0
VERTEX
  5
2418
  8
SAPA_PROFIL
 10
-14.546991444247549
 20
-32.538796661885101
 30
0.0
  0
VERTEX
  5
2419
  8
SAPA_PROFIL
 10
-15.34104447406917
 20
-31.292531005672121
 30
0.0
 42
0.2562769852931535
  0
VERTEX
  5
241A
  8
SAPA_PROFIL
 10
-15.50971698296779
 20
-31.200000000000021
 30
0.0
  0
VERTEX
  5
241B
  8
SAPA_PROFIL
 10
-18.504048297846168
 20
-31.20000000000001
 30
0.0
  0
VERTEX
  5
241C
  8
SAPA_PROFIL
 10
-19.82328129960807
 20
-31.709894418563682
 30
0.0
 42
-0.4142135623730948
  0
VERTEX
  5
241D
  8
SAPA_PROFIL
 10
-20.197466255083889
 20
-31.509930374056282
 30
0.0
  0
VERTEX
  5
241E
  8
SAPA_PROFIL
 10
-20.211984664330991
 20
-31.462084624057798
 30
0.0
  0
VERTEX
  5
241F
  8
SAPA_PROFIL
 10
-21.715085745092988
 20
-31.46200101617416
 30
0.0
 42
0.4769755326981646
  0
VERTEX
  5
2420
  8
SAPA_PROFIL
 10
-22.01733856959946
 20
-31.833657891120019
 30
0.0
  0
VERTEX
  5
2421
  8
SAPA_PROFIL
 10
-21.635891973471729
 20
-33.646888361778267
 30
0.0
 42
0.2216946626430189
  0
VERTEX
  5
2422
  8
SAPA_PROFIL
 10
-21.230083068316951
 20
-34.187768193255053
 30
0.0
  0
VERTEX
  5
2423
  8
SAPA_PROFIL
 10
-20.945400785085301
 20
-34.33990210436383
 30
0.0
 42
0.5773502691897443
  0
VERTEX
  5
2424
  8
SAPA_PROFIL
 10
-20.651244484830489
 20
-34.156948364253637
 30
0.0
  0
VERTEX
  5
2425
  8
SAPA_PROFIL
 10
-20.661805851057458
 20
-33.835190636035392
 30
0.0
  0
VERTEX
  5
2426
  8
SAPA_PROFIL
 10
-18.7759621591964
 20
-32.750626189063652
 30
0.0
  0
VERTEX
  5
2427
  8
SAPA_PROFIL
 10
-18.584579159202679
 20
-32.692552552074581
 30
0.0
 42
-0.7625858545243274
  0
VERTEX
  5
2428
  8
SAPA_PROFIL
 10
-18.399999957005178
 20
-33.022878633091572
 30
0.0
 42
0.2134217652834391
  0
VERTEX
  5
2429
  8
SAPA_PROFIL
 10
-18.499999957005301
 20
-33.246485430841688
 30
0.0
  0
VERTEX
  5
242A
  8
SAPA_PROFIL
 10
-18.499999957005318
 20
-37.09927183534171
 30
0.0
 42
-0.4142135623729077
  0
VERTEX
  5
242B
  8
SAPA_PROFIL
 10
-18.799999957005401
 20
-37.399271835341608
 30
0.0
  0
VERTEX
  5
242C
  8
SAPA_PROFIL
 10
-19.099999957005579
 20
-37.399271835341672
 30
0.0
  0
VERTEX
  5
242D
  8
SAPA_PROFIL
 10
-20.699999957005211
 20
-36.475511404638382
 30
0.0
 42
0.5773502691897674
  0
VERTEX
  5
242E
  8
SAPA_PROFIL
 10
-20.999999957005329
 20
-36.648716485395141
 30
0.0
  0
VERTEX
  5
242F
  8
SAPA_PROFIL
 10
-20.999999957005329
 20
-38.034357131450292
 30
0.0
 42
0.2679491924311062
  0
VERTEX
  5
2430
  8
SAPA_PROFIL
 10
-20.49999995700551
 20
-38.900382535234733
 30
0.0
  0
VERTEX
  5
2431
  8
SAPA_PROFIL
 10
-18.749999957005269
 20
-39.9107455063168
 30
0.0
 42
-0.267949192431108
  0
VERTEX
  5
2432
  8
SAPA_PROFIL
 10
-18.499999957005318
 20
-40.343758208209003
 30
0.0
  0
VERTEX
  5
2433
  8
SAPA_PROFIL
 10
-18.499999957005311
 20
-74.356241791790865
 30
0.0
 42
-0.2679491924311069
  0
VERTEX
  5
2434
  8
SAPA_PROFIL
 10
-18.74999995700529
 20
-74.789254493683075
 30
0.0
  0
VERTEX
  5
2435
  8
SAPA_PROFIL
 10
-20.499999957005429
 20
-75.799617464765163
 30
0.0
 42
0.2679491924311082
  0
VERTEX
  5
2436
  8
SAPA_PROFIL
 10
-20.999999957005318
 20
-76.665642868549583
 30
0.0
  0
VERTEX
  5
2437
  8
SAPA_PROFIL
 10
-20.999999957005318
 20
-78.051283514604677
 30
0.0
 42
0.5773502691897738
  0
VERTEX
  5
2438
  8
SAPA_PROFIL
 10
-20.69999995700525
 20
-78.224488595361464
 30
0.0
  0
VERTEX
  5
2439
  8
SAPA_PROFIL
 10
-19.099999957005569
 20
-77.30072816465821
 30
0.0
  0
VERTEX
  5
243A
  8
SAPA_PROFIL
 10
-18.79999995700539
 20
-77.30072816465821
 30
0.0
 42
-0.4142135623729009
  0
VERTEX
  5
243B
  8
SAPA_PROFIL
 10
-18.499999957005262
 20
-77.600728164658065
 30
0.0
  0
SEQEND
  5
243C
  8
SAPA_PROFIL
  0
POLYLINE
  5
18C4
  8
SAPA_PROFIL
 66
     1
 10
0.0
 20
0.0
 30
0.0
 70
     1
  0
VERTEX
  5
243D
  8
SAPA_PROFIL
 10
-16.399999957005299
 20
-79.799999999999983
 30
0.0
 42
0.4142135623730951
  0
VERTEX
  5
243E
  8
SAPA_PROFIL
 10
-16.19999995700525
 20
-79.599999999999966
 30
0.0
  0
VERTEX
  5
243F
  8
SAPA_PROFIL
 10
-16.199999957005311
 20
-77.999999999999943
 30
0.0
 42
0.4142135623730951
  0
VERTEX
  5
2440
  8
SAPA_PROFIL
 10
-16.399999957005299
 20
-77.799999999999898
 30
0.0
  0
VERTEX
  5
2441
  8
SAPA_PROFIL
 10
-16.700000040878631
 20
-77.799999999999898
 30
0.0
  0
VERTEX
  5
2442
  8
SAPA_PROFIL
 10
-16.700000040878631
 20
-41.699999999999932
 30
0.0
  0
VERTEX
  5
2443
  8
SAPA_PROFIL
 10
-16.399999957005299
 20
-41.69999999999996
 30
0.0
 42
0.4142135623730951
  0
VERTEX
  5
2444
  8
SAPA_PROFIL
 10
-16.199999957005261
 20
-41.499999999999943
 30
0.0
  0
VERTEX
  5
2445
  8
SAPA_PROFIL
 10
-16.199999957005321
 20
-39.89999999999992
 30
0.0
 42
0.4142135623730951
  0
VERTEX
  5
2446
  8
SAPA_PROFIL
 10
-16.39999995700531
 20
-39.699999999999932
 30
0.0
  0
VERTEX
  5
2447
  8
SAPA_PROFIL
 10
-16.700000040878638
 20
-39.699999999999932
 30
0.0
  0
VERTEX
  5
2448
  8
SAPA_PROFIL
 10
-16.700000040878589
 20
-37.999999999999943
 30
0.0
 42
-0.4142135623730951
  0
VERTEX
  5
2449
  8
SAPA_PROFIL
 10
-16.400000040878631
 20
-37.699999999999932
 30
0.0
  0
VERTEX
  5
244A
  8
SAPA_PROFIL
 10
1.200000042994712
 20
-37.69999999999996
 30
0.0
 42
-0.414213562373095
  0
VERTEX
  5
244B
  8
SAPA_PROFIL
 10
1.5000000429946669
 20
-37.999999999999943
 30
0.0
  0
VERTEX
  5
244C
  8
SAPA_PROFIL
 10
1.5000000429946689
 20
-39.699999999999932
 30
0.0
  0
VERTEX
  5
244D
  8
SAPA_PROFIL
 10
1.400000042994646
 20
-39.699999999999932
 30
0.0
 42
0.4142135623730951
  0
VERTEX
  5
244E
  8
SAPA_PROFIL
 10
1.200000042994714
 20
-39.89999999999992
 30
0.0
  0
VERTEX
  5
244F
  8
SAPA_PROFIL
 10
1.200000042994654
 20
-41.499999999999943
 30
0.0
 42
0.4142135623730951
  0
VERTEX
  5
2450
  8
SAPA_PROFIL
 10
1.400000042994646
 20
-41.699999999999932
 30
0.0
  0
VERTEX
  5
2451
  8
SAPA_PROFIL
 10
1.5000000429946689
 20
-41.699999999999932
 30
0.0
  0
VERTEX
  5
2452
  8
SAPA_PROFIL
 10
1.500000042994676
 20
-77.799999999999898
 30
0.0
  0
VERTEX
  5
2453
  8
SAPA_PROFIL
 10
1.4000000429946531
 20
-77.799999999999955
 30
0.0
 42
0.4142135623730951
  0
VERTEX
  5
2454
  8
SAPA_PROFIL
 10
1.2000000429947211
 20
-77.999999999999943
 30
0.0
  0
VERTEX
  5
2455
  8
SAPA_PROFIL
 10
1.2000000429946731
 20
-79.599999999999966
 30
0.0
 42
0.4142135623730898
  0
VERTEX
  5
2456
  8
SAPA_PROFIL
 10
1.4000000429946551
 20
-79.799999999999883
 30
0.0
  0
VERTEX
  5
2457
  8
SAPA_PROFIL
 10
1.500000042994678
 20
-79.799999999999883
 30
0.0
  0
VERTEX
  5
2458
  8
SAPA_PROFIL
 10
1.500000042994734
 20
-81.499999999999943
 30
0.0
 42
-0.4142135623730953
  0
VERTEX
  5
2459
  8
SAPA_PROFIL
 10
1.2000000429947231
 20
-81.799999999999898
 30
0.0
  0
VERTEX
  5
245A
  8
SAPA_PROFIL
 10
-16.400000040878609
 20
-81.799999999999955
 30
0.0
 42
-0.4142135623730951
  0
VERTEX
  5
245B
  8
SAPA_PROFIL
 10
-16.700000040878631
 20
-81.499999999999943
 30
0.0
  0
VERTEX
  5
245C
  8
SAPA_PROFIL
 10
-16.700000040878631
 20
-79.799999999999883
 30
0.0
  0
SEQEND
  5
245D
  8
SAPA_PROFIL
  0
POLYLINE
  5
18C5
  8
SAPA_PROFIL
 66
     1
 10
0.0
 20
0.0
 30
0.0
 70
     1
  0
VERTEX
  5
245E
  8
SAPA_PROFIL
 10
-60.499999957005294
 20
-33.24648543084168
 30
0.0
  0
VERTEX
  5
245F
  8
SAPA_PROFIL
 10
-60.499999957005294
 20
-37.099271835341732
 30
0.0
 42
0.414213562372901
  0
VERTEX
  5
2460
  8
SAPA_PROFIL
 10
-60.199999957005232
 20
-37.399271835341601
 30
0.0
  0
VERTEX
  5
2461
  8
SAPA_PROFIL
 10
-59.899999957005043
 20
-37.399271835341651
 30
0.0
  0
VERTEX
  5
2462
  8
SAPA_PROFIL
 10
-58.299999957005369
 20
-36.475511404638368
 30
0.0
 42
-0.5773502691897976
  0
VERTEX
  5
2463
  8
SAPA_PROFIL
 10
-57.999999957005294
 20
-36.648716485395127
 30
0.0
  0
VERTEX
  5
2464
  8
SAPA_PROFIL
 10
-57.999999957005294
 20
-38.034357131450278
 30
0.0
 42
-0.2679491924311222
  0
VERTEX
  5
2465
  8
SAPA_PROFIL
 10
-58.499999957005151
 20
-38.900382535234698
 30
0.0
  0
VERTEX
  5
2466
  8
SAPA_PROFIL
 10
-60.249999957005322
 20
-39.910745506316793
 30
0.0
 42
0.2679491924310994
  0
VERTEX
  5
2467
  8
SAPA_PROFIL
 10
-60.499999957005322
 20
-40.343758208208989
 30
0.0
  0
VERTEX
  5
2468
  8
SAPA_PROFIL
 10
-60.499999957005301
 20
-74.356241791790893
 30
0.0
 42
0.2679491924311005
  0
VERTEX
  5
2469
  8
SAPA_PROFIL
 10
-60.249999957005322
 20
-74.789254493683103
 30
0.0
  0
VERTEX
  5
246A
  8
SAPA_PROFIL
 10
-58.49999995700513
 20
-75.799617464765163
 30
0.0
 42
-0.2679491924311199
  0
VERTEX
  5
246B
  8
SAPA_PROFIL
 10
-57.999999957005301
 20
-76.665642868549611
 30
0.0
  0
VERTEX
  5
246C
  8
SAPA_PROFIL
 10
-57.999999957005279
 20
-78.051283514604734
 30
0.0
 42
-0.5773502691897738
  0
VERTEX
  5
246D
  8
SAPA_PROFIL
 10
-58.299999957005369
 20
-78.224488595361521
 30
0.0
  0
VERTEX
  5
246E
  8
SAPA_PROFIL
 10
-59.899999957005051
 20
-77.30072816465821
 30
0.0
  0
VERTEX
  5
246F
  8
SAPA_PROFIL
 10
-60.199999957005232
 20
-77.30072816465821
 30
0.0
 42
0.414213562372901
  0
VERTEX
  5
2470
  8
SAPA_PROFIL
 10
-60.49999995700535
 20
-77.600728164658136
 30
0.0
  0
VERTEX
  5
2471
  8
SAPA_PROFIL
 10
-60.499999957005301
 20
-81.453514569158216
 30
0.0
 42
-0.2134217652834299
  0
VERTEX
  5
2472
  8
SAPA_PROFIL
 10
-60.599999957005423
 20
-81.677121366908295
 30
0.0
 42
0.7625858545243327
  0
VERTEX
  5
2473
  8
SAPA_PROFIL
 10
-60.415420754807947
 20
-82.00744744792533
 30
0.0
  0
VERTEX
  5
2474
  8
SAPA_PROFIL
 10
-60.224037754814233
 20
-81.949373810936237
 30
0.0
  0
VERTEX
  5
2475
  8
SAPA_PROFIL
 10
-58.338194062953178
 20
-80.864809363964497
 30
0.0
  0
VERTEX
  5
2476
  8
SAPA_PROFIL
 10
-58.348755429180159
 20
-80.543051635746224
 30
0.0
 42
-0.5773502691897466
  0
VERTEX
  5
2477
  8
SAPA_PROFIL
 10
-58.054599128925318
 20
-80.360097895636073
 30
0.0
  0
VERTEX
  5
2478
  8
SAPA_PROFIL
 10
-57.769916845693672
 20
-80.512231806744808
 30
0.0
 42
-0.221694662643014
  0
VERTEX
  5
2479
  8
SAPA_PROFIL
 10
-57.364107940538879
 20
-81.053111638221637
 30
0.0
  0
VERTEX
  5
247A
  8
SAPA_PROFIL
 10
-56.98266134441117
 20
-82.866342108879849
 30
0.0
 42
-0.4769755326981641
  0
VERTEX
  5
247B
  8
SAPA_PROFIL
 10
-57.284914168917631
 20
-83.237998983825733
 30
0.0
  0
VERTEX
  5
247C
  8
SAPA_PROFIL
 10
-58.788015249679653
 20
-83.237915375942094
 30
0.0
  0
VERTEX
  5
247D
  8
SAPA_PROFIL
 10
-58.802533658926741
 20
-83.190069625943607
 30
0.0
 42
0.4142135623730878
  0
VERTEX
  5
247E
  8
SAPA_PROFIL
 10
-59.17671861440256
 20
-82.990105581436211
 30
0.0
  0
VERTEX
  5
247F
  8
SAPA_PROFIL
 10
-60.495951616164369
 20
-83.499999999999886
 30
0.0
  0
VERTEX
  5
2480
  8
SAPA_PROFIL
 10
-71.899999873157739
 20
-83.499999999999915
 30
0.0
 42
0.4142135623730847
  0
VERTEX
  5
2481
  8
SAPA_PROFIL
 10
-72.099999873157742
 20
-83.699999999999932
 30
0.0
  0
VERTEX
  5
2482
  8
SAPA_PROFIL
 10
-72.099999873157714
 20
-85.299999997930499
 30
0.0
 42
-0.4142135623730951
  0
VERTEX
  5
2483
  8
SAPA_PROFIL
 10
-72.299999873157745
 20
-85.499999997930516
 30
0.0
  0
VERTEX
  5
2484
  8
SAPA_PROFIL
 10
-72.799999873158214
 20
-85.499999997930516
 30
0.0
 42
-0.4142135623730951
  0
VERTEX
  5
2485
  8
SAPA_PROFIL
 10
-73.799999873157802
 20
-84.499999997930885
 30
0.0
  0
VERTEX
  5
2486
  8
SAPA_PROFIL
 10
-73.799999873157802
 20
-76.999999250856163
 30
0.0
 42
0.4142135623730951
  0
VERTEX
  5
2487
  8
SAPA_PROFIL
 10
-74.799999126083392
 20
-75.999999997930587
 30
0.0
  0
VERTEX
  5
2488
  8
SAPA_PROFIL
 10
-80.499999957005286
 20
-75.999999997930445
 30
0.0
 42
-0.4142135623730951
  0
VERTEX
  5
2489
  8
SAPA_PROFIL
 10
-82.499999957005301
 20
-73.999999997930445
 30
0.0
  0
VERTEX
  5
248A
  8
SAPA_PROFIL
 10
-82.499999957005286
 20
-9.4999999999999698
 30
0.0
 42
-0.4142139999999795
  0
VERTEX
  5
248B
  8
SAPA_PROFIL
 10
-81.999999957005286
 20
-8.9999999999999698
 30
0.0
  0
VERTEX
  5
248C
  8
SAPA_PROFIL
 10
-78.299999957005269
 20
-8.9999999999999858
 30
0.0
 42
-0.414213999999917
  0
VERTEX
  5
248D
  8
SAPA_PROFIL
 10
-77.999999957005286
 20
-9.2999999999999101
 30
0.0
  0
VERTEX
  5
248E
  8
SAPA_PROFIL
 10
-77.999999957005286
 20
-10.067544999999949
 30
0.0
 42
-0.2896899999999867
  0
VERTEX
  5
248F
  8
SAPA_PROFIL
 10
-78.571427957005284
 20
-10.971052999999911
 30
0.0
 42
-0.5507600000000635
  0
VERTEX
  5
2490
  8
SAPA_PROFIL
 10
-78.999999957005286
 20
-10.69999999999996
 30
0.0
  0
VERTEX
  5
2491
  8
SAPA_PROFIL
 10
-78.999999957005286
 20
-10.49999999999997
 30
0.0
 42
0.4142140000000558
  0
VERTEX
  5
2492
  8
SAPA_PROFIL
 10
-79.299999957005255
 20
-10.1999999999999
 30
0.0
  0
VERTEX
  5
2493
  8
SAPA_PROFIL
 10
-80.799999957005269
 20
-10.199999999999941
 30
0.0
 42
0.4142139999999795
  0
VERTEX
  5
2494
  8
SAPA_PROFIL
 10
-81.299999957005255
 20
-10.69999999999996
 30
0.0
  0
VERTEX
  5
2495
  8
SAPA_PROFIL
 10
-81.299999957005284
 20
-14.0
 30
0.0
 42
0.4142140000000003
  0
VERTEX
  5
2496
  8
SAPA_PROFIL
 10
-80.799999957005269
 20
-14.500000000000041
 30
0.0
  0
VERTEX
  5
2497
  8
SAPA_PROFIL
 10
-79.299999957005255
 20
-14.5
 30
0.0
 42
0.4142140000000143
  0
VERTEX
  5
2498
  8
SAPA_PROFIL
 10
-78.999999957005244
 20
-14.19999999999993
 30
0.0
  0
VERTEX
  5
2499
  8
SAPA_PROFIL
 10
-78.999999957005286
 20
-14.0
 30
0.0
 42
-0.5507599999999967
  0
VERTEX
  5
249A
  8
SAPA_PROFIL
 10
-78.57142795700527
 20
-13.728948000000001
 30
0.0
 42
-0.2896899999999865
  0
VERTEX
  5
249B
  8
SAPA_PROFIL
 10
-77.999999957005286
 20
-14.63245599999992
 30
0.0
  0
VERTEX
  5
249C
  8
SAPA_PROFIL
 10
-77.999999957005286
 20
-15.629926999999901
 30
0.0
 42
-0.0436609999999814
  0
VERTEX
  5
249D
  8
SAPA_PROFIL
 10
-78.007595957005293
 20
-15.716751999999881
 30
0.0
  0
VERTEX
  5
249E
  8
SAPA_PROFIL
 10
-78.284441957005242
 20
-17.28682399999991
 30
0.0
 42
-0.839099999999982
  0
VERTEX
  5
249F
  8
SAPA_PROFIL
 10
-79.2692499570053
 20
-17.28682399999991
 30
0.0
  0
VERTEX
  5
24A0
  8
SAPA_PROFIL
 10
-79.476194957005276
 20
-16.11317599999991
 30
0.0
 42
0.3639700000000465
  0
VERTEX
  5
24A1
  8
SAPA_PROFIL
 10
-79.968598957005312
 20
-15.69999999999991
 30
0.0
  0
VERTEX
  5
24A2
  8
SAPA_PROFIL
 10
-80.779999957005259
 20
-15.69999999999991
 30
0.0
 42
0.4373279999999983
  0
VERTEX
  5
24A3
  8
SAPA_PROFIL
 10
-81.278468957005316
 20
-16.239094999999921
 30
0.0
  0
VERTEX
  5
24A4
  8
SAPA_PROFIL
 10
-80.711670470609434
 20
-30.71215327341632
 30
0.0
 42
0.4023941355297885
  0
VERTEX
  5
24A5
  8
SAPA_PROFIL
 10
-80.411916741783102
 20
-31.000000000000039
 30
0.0
  0
VERTEX
  5
24A6
  8
SAPA_PROFIL
 10
-79.611382957005276
 20
-31.000000000000011
 30
0.0
 42
-0.2596810000001162
  0
VERTEX
  5
24A7
  8
SAPA_PROFIL
 10
-79.441351957005281
 20
-31.094693000000021
 30
0.0
  0
VERTEX
  5
24A8
  8
SAPA_PROFIL
 10
-78.544952957005279
 20
-32.542039999999908
 30
0.0
 42
-0.5877030000000189
  0
VERTEX
  5
24A9
  8
SAPA_PROFIL
 10
-78.799999957005284
 20
-33.000000000000007
 30
0.0
  0
VERTEX
  5
24AA
  8
SAPA_PROFIL
 10
-80.199999957005275
 20
-33.000000000000007
 30
0.0
 42
0.4142139999999518
  0
VERTEX
  5
24AB
  8
SAPA_PROFIL
 10
-80.499999957005258
 20
-33.299999999999912
 30
0.0
  0
VERTEX
  5
24AC
  8
SAPA_PROFIL
 10
-80.499999957005286
 20
-35.69999999999991
 30
0.0
 42
0.4142140000000629
  0
VERTEX
  5
24AD
  8
SAPA_PROFIL
 10
-80.199999957005275
 20
-35.99999999999995
 30
0.0
  0
VERTEX
  5
24AE
  8
SAPA_PROFIL
 10
-62.799999957005312
 20
-35.999999999999993
 30
0.0
 42
0.4142140000001044
  0
VERTEX
  5
24AF
  8
SAPA_PROFIL
 10
-62.499999957005208
 20
-35.699999999999918
 30
0.0
  0
VERTEX
  5
24B0
  8
SAPA_PROFIL
 10
-62.499999957005294
 20
-33.299999999999912
 30
0.0
 42
0.4142140000000074
  0
VERTEX
  5
24B1
  8
SAPA_PROFIL
 10
-62.799999957005312
 20
-33.000000000000043
 30
0.0
  0
VERTEX
  5
24B2
  8
SAPA_PROFIL
 10
-64.199999957005275
 20
-33.000000000000043
 30
0.0
 42
-0.5920054160709848
  0
VERTEX
  5
24B3
  8
SAPA_PROFIL
 10
-64.453008469763034
 20
-32.538796661885087
 30
0.0
  0
VERTEX
  5
24B4
  8
SAPA_PROFIL
 10
-63.658955439941373
 20
-31.292531005672132
 30
0.0
 42
-0.2562769852931301
  0
VERTEX
  5
24B5
  8
SAPA_PROFIL
 10
-63.490282931042778
 20
-31.20000000000001
 30
0.0
  0
VERTEX
  5
24B6
  8
SAPA_PROFIL
 10
-60.495951616163772
 20
-31.20000000000001
 30
0.0
  0
VERTEX
  5
24B7
  8
SAPA_PROFIL
 10
-59.176718614402553
 20
-31.709894418563429
 30
0.0
 42
0.4142135623730872
  0
VERTEX
  5
24B8
  8
SAPA_PROFIL
 10
-58.802533658926741
 20
-31.509930374056029
 30
0.0
  0
VERTEX
  5
24B9
  8
SAPA_PROFIL
 10
-58.788015249679638
 20
-31.462084624057539
 30
0.0
  0
VERTEX
  5
24BA
  8
SAPA_PROFIL
 10
-57.284914168917631
 20
-31.462001016173922
 30
0.0
 42
-0.4769755326981643
  0
VERTEX
  5
24BB
  8
SAPA_PROFIL
 10
-56.982661344411163
 20
-31.83365789111976
 30
0.0
  0
VERTEX
  5
24BC
  8
SAPA_PROFIL
 10
-57.364107940538858
 20
-33.646888361778039
 30
0.0
 42
-0.221694662643016
  0
VERTEX
  5
24BD
  8
SAPA_PROFIL
 10
-57.769916845693679
 20
-34.187768193254797
 30
0.0
  0
VERTEX
  5
24BE
  8
SAPA_PROFIL
 10
-58.054599128925332
 20
-34.33990210436356
 30
0.0
 42
-0.5773502691897466
  0
VERTEX
  5
24BF
  8
SAPA_PROFIL
 10
-58.34875542918013
 20
-34.156948364253381
 30
0.0
  0
VERTEX
  5
24C0
  8
SAPA_PROFIL
 10
-58.338194062953171
 20
-33.835190636035144
 30
0.0
  0
VERTEX
  5
24C1
  8
SAPA_PROFIL
 10
-60.224037754814219
 20
-32.750626189063397
 30
0.0
  0
VERTEX
  5
24C2
  8
SAPA_PROFIL
 10
-60.41542075480794
 20
-32.692552552074297
 30
0.0
 42
0.7625858545243331
  0
VERTEX
  5
24C3
  8
SAPA_PROFIL
 10
-60.599999957005409
 20
-33.02287863309131
 30
0.0
 42
-0.2134217652834442
  0
SEQEND
  5
24C4
  8
SAPA_PROFIL
  0
POLYLINE
  5
18C6
  8
SAPA_PROFIL
 66
     1
 10
0.0
 20
0.0
 30
0.0
 70
     1
  0
VERTEX
  5
24C5
  8
SAPA_PROFIL
 10
-62.599999957005288
 20
-71.999999957930484
 30
0.0
 42
-0.4142135623730951
  0
VERTEX
  5
24C6
  8
SAPA_PROFIL
 10
-62.799999957005312
 20
-71.799999957930481
 30
0.0
  0
VERTEX
  5
24C7
  8
SAPA_PROFIL
 10
-62.799999957005276
 20
-70.19999995793043
 30
0.0
 42
-0.4142135623730951
  0
VERTEX
  5
24C8
  8
SAPA_PROFIL
 10
-62.599999957005288
 20
-69.999999957930441
 30
0.0
  0
VERTEX
  5
24C9
  8
SAPA_PROFIL
 10
-62.299999873131988
 20
-69.999999957930441
 30
0.0
  0
VERTEX
  5
24CA
  8
SAPA_PROFIL
 10
-62.299999873131988
 20
-41.69999999999991
 30
0.0
  0
VERTEX
  5
24CB
  8
SAPA_PROFIL
 10
-62.599999957005281
 20
-41.69999999999991
 30
0.0
 42
-0.4142135623730951
  0
VERTEX
  5
24CC
  8
SAPA_PROFIL
 10
-62.799999957005312
 20
-41.499999999999929
 30
0.0
  0
VERTEX
  5
24CD
  8
SAPA_PROFIL
 10
-62.799999957005276
 20
-39.899999999999913
 30
0.0
 42
-0.4142135623730951
  0
VERTEX
  5
24CE
  8
SAPA_PROFIL
 10
-62.599999957005281
 20
-39.699999999999918
 30
0.0
  0
VERTEX
  5
24CF
  8
SAPA_PROFIL
 10
-62.299999873131988
 20
-39.699999999999918
 30
0.0
  0
VERTEX
  5
24D0
  8
SAPA_PROFIL
 10
-62.299999873131988
 20
-37.999999999999929
 30
0.0
 42
0.4142135623730951
  0
VERTEX
  5
24D1
  8
SAPA_PROFIL
 10
-62.599999873131942
 20
-37.699999999999918
 30
0.0
  0
VERTEX
  5
24D2
  8
SAPA_PROFIL
 10
-80.199999957005275
 20
-37.69999999999991
 30
0.0
 42
0.4142135623730951
  0
VERTEX
  5
24D3
  8
SAPA_PROFIL
 10
-80.499999957005286
 20
-37.999999999999922
 30
0.0
  0
VERTEX
  5
24D4
  8
SAPA_PROFIL
 10
-80.499999957005286
 20
-39.69999999999991
 30
0.0
  0
VERTEX
  5
24D5
  8
SAPA_PROFIL
 10
-80.399999957005278
 20
-39.69999999999991
 30
0.0
 42
-0.4142135623730951
  0
VERTEX
  5
24D6
  8
SAPA_PROFIL
 10
-80.199999957005275
 20
-39.899999999999899
 30
0.0
  0
VERTEX
  5
24D7
  8
SAPA_PROFIL
 10
-80.199999957005275
 20
-41.499999999999922
 30
0.0
 42
-0.4142135623730951
  0
VERTEX
  5
24D8
  8
SAPA_PROFIL
 10
-80.399999957005278
 20
-41.69999999999991
 30
0.0
  0
VERTEX
  5
24D9
  8
SAPA_PROFIL
 10
-80.499999957005286
 20
-41.69999999999991
 30
0.0
  0
VERTEX
  5
24DA
  8
SAPA_PROFIL
 10
-80.499999957005286
 20
-69.999999957930441
 30
0.0
  0
VERTEX
  5
24DB
  8
SAPA_PROFIL
 10
-80.399999957005278
 20
-69.999999957930441
 30
0.0
 42
-0.4142135623730951
  0
VERTEX
  5
24DC
  8
SAPA_PROFIL
 10
-80.199999957005275
 20
-70.19999995793043
 30
0.0
  0
VERTEX
  5
24DD
  8
SAPA_PROFIL
 10
-80.199999957005303
 20
-71.799999957930481
 30
0.0
 42
-0.4142135623730951
  0
VERTEX
  5
24DE
  8
SAPA_PROFIL
 10
-80.399999957005278
 20
-71.999999957930441
 30
0.0
  0
VERTEX
  5
24DF
  8
SAPA_PROFIL
 10
-80.499999957005286
 20
-71.999999957930441
 30
0.0
  0
VERTEX
  5
24E0
  8
SAPA_PROFIL
 10
-80.499999957005286
 20
-73.999999997930473
 30
0.0
 42
0.4142135623732158
  0
VERTEX
  5
24E1
  8
SAPA_PROFIL
 10
-80.199999957005318
 20
-74.29999999793057
 30
0.0
  0
VERTEX
  5
24E2
  8
SAPA_PROFIL
 10
-74.799999126083392
 20
-74.299999997930513
 30
0.0
 42
-0.4142135623730951
  0
VERTEX
  5
24E3
  8
SAPA_PROFIL
 10
-72.099999873157714
 20
-76.999999250856163
 30
0.0
  0
VERTEX
  5
24E4
  8
SAPA_PROFIL
 10
-72.099999873157714
 20
-81.499999999999943
 30
0.0
 42
0.4142135623730951
  0
VERTEX
  5
24E5
  8
SAPA_PROFIL
 10
-71.799999873157745
 20
-81.799999999999926
 30
0.0
  0
VERTEX
  5
24E6
  8
SAPA_PROFIL
 10
-62.599999873131949
 20
-81.799999999999926
 30
0.0
 42
0.4142135623730951
  0
VERTEX
  5
24E7
  8
SAPA_PROFIL
 10
-62.299999873131988
 20
-81.499999999999915
 30
0.0
  0
VERTEX
  5
24E8
  8
SAPA_PROFIL
 10
-62.299999873131988
 20
-71.999999957930441
 30
0.0
  0
SEQEND
  5
24E9
  8
SAPA_PROFIL
  0
POLYLINE
  5
18C7
  8
SAPA_PROFIL
 62
     4
 66
     1
 10
0.0
 20
0.0
 30
0.0
  0
VERTEX
  5
24EA
  8
SAPA_PROFIL
 62
     4
 10
-48.549329079444973
 20
-33.932281085846938
 30
0.0
 42
0.5571646428658034
  0
VERTEX
  5
24EB
  8
SAPA_PROFIL
 62
     4
 10
-48.01236857530813
 20
-34.800000000002491
 30
0.0
  0
VERTEX
  5
24EC
  8
SAPA_PROFIL
 62
     4
 10
-30.98763133878694
 20
-34.800000000002022
 30
0.0
 42
0.5571645048035741
  0
VERTEX
  5
24ED
  8
SAPA_PROFIL
 62
     4
 10
-30.45067072182588
 20
-33.932281312135864
 30
0.0
  0
VERTEX
  5
24EE
  8
SAPA_PROFIL
 62
     4
 10
-31.281377809372579
 20
-32.26614065606784
 30
0.0
 42
0.284385813979063
  0
VERTEX
  5
24EF
  8
SAPA_PROFIL
 62
     4
 10
-31.549858117852931
 20
-32.100000000000392
 30
0.0
  0
VERTEX
  5
24F0
  8
SAPA_PROFIL
 62
     4
 10
-47.450141796242242
 20
-32.100000000000392
 30
0.0
 42
0.2843858139786238
  0
VERTEX
  5
24F1
  8
SAPA_PROFIL
 62
     4
 10
-47.71862210472252
 20
-32.266140656067321
 30
0.0
  0
VERTEX
  5
24F2
  8
SAPA_PROFIL
 62
     4
 10
-48.549329192269688
 20
-33.932281312136674
 30
0.0
  0
SEQEND
  5
24F3
  8
SAPA_PROFIL
 62
     4
  0
POLYLINE
  5
18C8
  8
SAPA_PROFIL
 62
     4
 66
     1
 10
0.0
 20
0.0
 30
0.0
 70
     1
  0
VERTEX
  5
24F4
  8
SAPA_PROFIL
 62
     4
 10
-25.082388772380291
 20
-31.743168485502821
 30
0.0
  0
VERTEX
  5
24F5
  8
SAPA_PROFIL
 62
     4
 10
-24.818365494004279
 20
-31.33660828949867
 30
0.0
 42
-0.2539676464751066
  0
VERTEX
  5
24F6
  8
SAPA_PROFIL
 62
     4
 10
-24.56676432361958
 20
-31.200000000002571
 30
0.0
  0
VERTEX
  5
24F7
  8
SAPA_PROFIL
 62
     4
 10
-23.185264738414229
 20
-31.200000000002571
 30
0.0
 42
-0.3152987888790479
  0
VERTEX
  5
24F8
  8
SAPA_PROFIL
 62
     4
 10
-22.715418428021909
 20
-31.528989928340732
 30
0.0
  0
VERTEX
  5
24F9
  8
SAPA_PROFIL
 62
     4
 10
-21.81974948711331
 20
-33.989820118791997
 30
0.0
 42
0.2694959974287434
  0
VERTEX
  5
24FA
  8
SAPA_PROFIL
 62
     4
 10
-21.58823044071195
 20
-34.182952093135903
 30
0.0
 42
0.0612686379508233
  0
VERTEX
  5
24FB
  8
SAPA_PROFIL
 62
     4
 10
-21.29555500785867
 20
-34.196535463766423
 30
0.0
  0
VERTEX
  5
24FC
  8
SAPA_PROFIL
 62
     4
 10
-20.946136830550412
 20
-34.398272142495237
 30
0.0
 42
0.5773502691891679
  0
VERTEX
  5
24FD
  8
SAPA_PROFIL
 62
     4
 10
-20.631136830550819
 20
-34.216406807700672
 30
0.0
  0
VERTEX
  5
24FE
  8
SAPA_PROFIL
 62
     4
 10
-20.631136830550581
 20
-33.949292279574351
 30
0.0
  0
VERTEX
  5
24FF
  8
SAPA_PROFIL
 62
     4
 10
-19.23260912991633
 20
-33.140608818266038
 30
0.0
 42
-0.1318219888653519
  0
VERTEX
  5
2500
  8
SAPA_PROFIL
 62
     4
 10
-19.082436027443979
 20
-33.10031642172865
 30
0.0
  0
VERTEX
  5
2501
  8
SAPA_PROFIL
 62
     4
 10
-18.8999999570072
 20
-33.100316421735023
 30
0.0
 42
-0.4142135623724291
  0
VERTEX
  5
2502
  8
SAPA_PROFIL
 62
     4
 10
-18.499999957006661
 20
-33.500316421734652
 30
0.0
  0
VERTEX
  5
2503
  8
SAPA_PROFIL
 62
     4
 10
-18.499999957008018
 20
-36.900316421735653
 30
0.0
 42
-0.4142135623744271
  0
VERTEX
  5
2504
  8
SAPA_PROFIL
 62
     4
 10
-18.8999999570072
 20
-37.30031642173666
 30
0.0
  0
VERTEX
  5
2505
  8
SAPA_PROFIL
 62
     4
 10
-19.079615199278511
 20
-37.300316421737278
 30
0.0
 42
-0.1316524975874005
  0
VERTEX
  5
2506
  8
SAPA_PROFIL
 62
     4
 10
-19.229615199275319
 20
-37.260124042871688
 30
0.0
  0
VERTEX
  5
2507
  8
SAPA_PROFIL
 62
     4
 10
-20.833753096277579
 20
-36.33397459621915
 30
0.0
 42
0.1316524975875904
  0
VERTEX
  5
2508
  8
SAPA_PROFIL
 62
     4
 10
-21.333753096279288
 20
-36.200000000004387
 30
0.0
  0
VERTEX
  5
2509
  8
SAPA_PROFIL
 62
     4
 10
-21.749999957006661
 20
-36.200000000004387
 30
0.0
 42
0.4142135623730951
  0
VERTEX
  5
250A
  8
SAPA_PROFIL
 62
     4
 10
-22.749999957006661
 20
-37.200000000004387
 30
0.0
  0
VERTEX
  5
250B
  8
SAPA_PROFIL
 62
     4
 10
-22.749999957006661
 20
-40.200000000001651
 30
0.0
 42
-0.9999996830128083
  0
VERTEX
  5
250C
  8
SAPA_PROFIL
 62
     4
 10
-23.749999957006661
 20
-40.20000000000347
 30
0.0
  0
VERTEX
  5
250D
  8
SAPA_PROFIL
 62
     4
 10
-23.749999957006661
 20
-37.200000000003477
 30
0.0
 42
0.4142135623730951
  0
VERTEX
  5
250E
  8
SAPA_PROFIL
 62
     4
 10
-24.749999957006661
 20
-36.200000000003477
 30
0.0
  0
VERTEX
  5
250F
  8
SAPA_PROFIL
 62
     4
 10
-54.249999957091241
 20
-36.200000000003492
 30
0.0
 42
0.4142135623730951
  0
VERTEX
  5
2510
  8
SAPA_PROFIL
 62
     4
 10
-55.249999957091241
 20
-37.200000000003492
 30
0.0
  0
VERTEX
  5
2511
  8
SAPA_PROFIL
 62
     4
 10
-55.249999957091241
 20
-40.200000000001658
 30
0.0
 42
-0.9999999999999998
  0
VERTEX
  5
2512
  8
SAPA_PROFIL
 62
     4
 10
-56.249999957091241
 20
-40.200000000001658
 30
0.0
  0
VERTEX
  5
2513
  8
SAPA_PROFIL
 62
     4
 10
-56.249999957091241
 20
-37.200000000003492
 30
0.0
 42
0.4142135623736278
  0
VERTEX
  5
2514
  8
SAPA_PROFIL
 62
     4
 10
-57.249999957091241
 20
-36.200000000003492
 30
0.0
  0
VERTEX
  5
2515
  8
SAPA_PROFIL
 62
     4
 10
-57.666246817817701
 20
-36.200000000003492
 30
0.0
 42
0.1316524975874375
  0
VERTEX
  5
2516
  8
SAPA_PROFIL
 62
     4
 10
-58.1662468178179
 20
-36.333974596219527
 30
0.0
  0
VERTEX
  5
2517
  8
SAPA_PROFIL
 62
     4
 10
-59.770384714819848
 20
-37.260124042871702
 30
0.0
 42
-0.1316524975874
  0
VERTEX
  5
2518
  8
SAPA_PROFIL
 62
     4
 10
-59.920384714819392
 20
-37.3003164217373
 30
0.0
  0
VERTEX
  5
2519
  8
SAPA_PROFIL
 62
     4
 10
-60.099999957090688
 20
-37.30031642173666
 30
0.0
 42
-0.4142135623744271
  0
VERTEX
  5
251A
  8
SAPA_PROFIL
 62
     4
 10
-60.499999957089869
 20
-36.90031642173566
 30
0.0
  0
VERTEX
  5
251B
  8
SAPA_PROFIL
 62
     4
 10
-60.499999957091241
 20
-33.500316421734659
 30
0.0
 42
-0.4142135623724291
  0
VERTEX
  5
251C
  8
SAPA_PROFIL
 62
     4
 10
-60.099999957090688
 20
-33.100316421735023
 30
0.0
  0
VERTEX
  5
251D
  8
SAPA_PROFIL
 62
     4
 10
-59.917563886653909
 20
-33.100316421728657
 30
0.0
 42
-0.1318219888653524
  0
VERTEX
  5
251E
  8
SAPA_PROFIL
 62
     4
 10
-59.767390784181572
 20
-33.140608818266053
 30
0.0
  0
VERTEX
  5
251F
  8
SAPA_PROFIL
 62
     4
 10
-58.368863083701918
 20
-33.949292279490379
 30
0.0
  0
VERTEX
  5
2520
  8
SAPA_PROFIL
 62
     4
 10
-58.368863083701918
 20
-34.216406807703407
 30
0.0
 42
0.577350269189159
  0
VERTEX
  5
2521
  8
SAPA_PROFIL
 62
     4
 10
-58.053863083702311
 20
-34.39827214249798
 30
0.0
  0
VERTEX
  5
2522
  8
SAPA_PROFIL
 62
     4
 10
-57.704444906483651
 20
-34.196535463820879
 30
0.0
 42
0.0612687673629489
  0
VERTEX
  5
2523
  8
SAPA_PROFIL
 62
     4
 10
-57.411769473383437
 20
-34.182952093134674
 30
0.0
 42
0.2694959974285039
  0
VERTEX
  5
2524
  8
SAPA_PROFIL
 62
     4
 10
-57.180250426982923
 20
-33.989820118790732
 30
0.0
  0
VERTEX
  5
2525
  8
SAPA_PROFIL
 62
     4
 10
-56.28458148607325
 20
-31.528989928337559
 30
0.0
 42
-0.3152987888784035
  0
VERTEX
  5
2526
  8
SAPA_PROFIL
 62
     4
 10
-55.814735175680028
 20
-31.20000000000098
 30
0.0
  0
VERTEX
  5
2527
  8
SAPA_PROFIL
 62
     4
 10
-54.43323559047559
 20
-31.200000000002579
 30
0.0
 42
-0.2539676464741841
  0
VERTEX
  5
2528
  8
SAPA_PROFIL
 62
     4
 10
-54.18163442009152
 20
-31.33660828949785
 30
0.0
  0
VERTEX
  5
2529
  8
SAPA_PROFIL
 62
     4
 10
-53.917611141714879
 20
-31.743168485502832
 30
0.0
 42
-0.5862177598324623
  0
VERTEX
  5
252A
  8
SAPA_PROFIL
 62
     4
 10
-54.173352956953217
 20
-32.199999999999328
 30
0.0
  0
VERTEX
  5
252B
  8
SAPA_PROFIL
 62
     4
 10
-55.114527637463027
 20
-32.199999999991661
 30
0.0
 42
0.3152987888813165
  0
VERTEX
  5
252C
  8
SAPA_PROFIL
 62
     4
 10
-55.58437394786079
 20
-32.528989928328421
 30
0.0
  0
VERTEX
  5
252D
  8
SAPA_PROFIL
 62
     4
 10
-56.021138228984739
 20
-33.728989928339637
 30
0.0
 42
0.5205670505515651
  0
VERTEX
  5
252E
  8
SAPA_PROFIL
 62
     4
 10
-55.551291918591517
 20
-34.400000000002393
 30
0.0
  0
VERTEX
  5
252F
  8
SAPA_PROFIL
 62
     4
 10
-50.534850977922673
 20
-34.400000000002422
 30
0.0
 42
0.3702522326300203
  0
VERTEX
  5
2530
  8
SAPA_PROFIL
 62
     4
 10
-50.23832761612934
 20
-34.145540047336723
 30
0.0
 42
0.0982365330332397
  0
VERTEX
  5
2531
  8
SAPA_PROFIL
 62
     4
 10
-50.147874857918403
 20
-32.457853272341708
 30
0.0
 42
0.3735060174783164
  0
VERTEX
  5
2532
  8
SAPA_PROFIL
 62
     4
 10
-50.444899525829392
 20
-32.20000000000168
 30
0.0
  0
VERTEX
  5
2533
  8
SAPA_PROFIL
 62
     4
 10
-50.87335295695204
 20
-32.200000000000763
 30
0.0
 42
-0.5920056181162531
  0
VERTEX
  5
2534
  8
SAPA_PROFIL
 62
     4
 10
-51.126361713269432
 20
-31.73879649747283
 30
0.0
  0
VERTEX
  5
2535
  8
SAPA_PROFIL
 62
     4
 10
-50.865177637113732
 20
-31.336608289494539
 30
0.0
 42
-0.2539676464746725
  0
VERTEX
  5
2536
  8
SAPA_PROFIL
 62
     4
 10
-50.613576466729967
 20
-31.199999999999172
 30
0.0
  0
VERTEX
  5
2537
  8
SAPA_PROFIL
 62
     4
 10
-28.38642344736429
 20
-31.20000000000076
 30
0.0
 42
-0.2539676464741819
  0
VERTEX
  5
2538
  8
SAPA_PROFIL
 62
     4
 10
-28.134822276981431
 20
-31.336608289494531
 30
0.0
  0
VERTEX
  5
2539
  8
SAPA_PROFIL
 62
     4
 10
-27.873638200827621
 20
-31.738796497472858
 30
0.0
 42
-0.5920055144124249
  0
VERTEX
  5
253A
  8
SAPA_PROFIL
 62
     4
 10
-28.12664695714313
 20
-32.200000000000749
 30
0.0
  0
VERTEX
  5
253B
  8
SAPA_PROFIL
 62
     4
 10
-28.555100434433349
 20
-32.199999974725742
 30
0.0
 42
0.3735060174775405
  0
VERTEX
  5
253C
  8
SAPA_PROFIL
 62
     4
 10
-28.852125102343042
 20
-32.457853247065827
 30
0.0
 42
0.0355900683670349
  0
VERTEX
  5
253D
  8
SAPA_PROFIL
 62
     4
 10
-28.896018666375291
 20
-33.073726833865621
 30
0.0
 42
0.0624282003873116
  0
VERTEX
  5
253E
  8
SAPA_PROFIL
 62
     4
 10
-28.76167234413235
 20
-34.14554002206075
 30
0.0
 42
0.3702522326309292
  0
VERTEX
  5
253F
  8
SAPA_PROFIL
 62
     4
 10
-28.46514898233897
 20
-34.39999997472647
 30
0.0
  0
VERTEX
  5
2540
  8
SAPA_PROFIL
 62
     4
 10
-23.448707995505458
 20
-34.400000000002613
 30
0.0
 42
0.5205670505515692
  0
VERTEX
  5
2541
  8
SAPA_PROFIL
 62
     4
 10
-22.978861685112239
 20
-33.728989928339637
 30
0.0
  0
VERTEX
  5
2542
  8
SAPA_PROFIL
 62
     4
 10
-23.41562596623719
 20
-32.528989928330191
 30
0.0
 42
0.3152987888807539
  0
VERTEX
  5
2543
  8
SAPA_PROFIL
 62
     4
 10
-23.885472276633049
 20
-32.199999999992563
 30
0.0
  0
VERTEX
  5
2544
  8
SAPA_PROFIL
 62
     4
 10
-24.826646957142131
 20
-32.199999999999378
 30
0.0
 42
-0.5862175119221242
  0
VERTEX
  5
2545
  8
SAPA_PROFIL
 62
     4
 10
-25.08238888812409
 20
-31.743168674244249
 30
0.0
 42
0.0000002084758573
  0
SEQEND
  5
2546
  8
SAPA_PROFIL
 62
     4
  0
POLYLINE
  5
18C9
  8
SAPA_PROFIL
 62
     4
 66
     1
 10
0.0
 20
0.0
 30
0.0
  0
VERTEX
  5
2547
  8
SAPA_PROFIL
 62
     4
 10
-48.549329079444981
 20
-80.767718914152965
 30
0.0
 42
-0.5571646428658034
  0
VERTEX
  5
2548
  8
SAPA_PROFIL
 62
     4
 10
-48.012368575308138
 20
-79.899999999997434
 30
0.0
  0
VERTEX
  5
2549
  8
SAPA_PROFIL
 62
     4
 10
-30.987631338786951
 20
-79.899999999997874
 30
0.0
 42
-0.5571645048035741
  0
VERTEX
  5
254A
  8
SAPA_PROFIL
 62
     4
 10
-30.450670721825901
 20
-80.767718687864075
 30
0.0
  0
VERTEX
  5
254B
  8
SAPA_PROFIL
 62
     4
 10
-31.281377809372589
 20
-82.433859343932085
 30
0.0
 42
-0.284385813979063
  0
VERTEX
  5
254C
  8
SAPA_PROFIL
 62
     4
 10
-31.549858117852938
 20
-82.599999999999525
 30
0.0
  0
VERTEX
  5
254D
  8
SAPA_PROFIL
 62
     4
 10
-47.450141796242249
 20
-82.599999999999525
 30
0.0
 42
-0.2843858139786238
  0
VERTEX
  5
254E
  8
SAPA_PROFIL
 62
     4
 10
-47.718622104722542
 20
-82.433859343932596
 30
0.0
  0
VERTEX
  5
254F
  8
SAPA_PROFIL
 62
     4
 10
-48.549329192269688
 20
-80.767718687863251
 30
0.0
  0
SEQEND
  5
2550
  8
SAPA_PROFIL
 62
     4
  0
POLYLINE
  5
18CA
  8
SAPA_PROFIL
 62
     4
 66
     1
 10
0.0
 20
0.0
 30
0.0
 70
     1
  0
VERTEX
  5
2551
  8
SAPA_PROFIL
 62
     4
 10
-25.082388772380298
 20
-82.956831514497097
 30
0.0
  0
VERTEX
  5
2552
  8
SAPA_PROFIL
 62
     4
 10
-24.81836549400429
 20
-83.363391710501233
 30
0.0
 42
0.2539676464751066
  0
VERTEX
  5
2553
  8
SAPA_PROFIL
 62
     4
 10
-24.56676432361958
 20
-83.499999999997343
 30
0.0
  0
VERTEX
  5
2554
  8
SAPA_PROFIL
 62
     4
 10
-23.18526473841424
 20
-83.499999999997343
 30
0.0
 42
0.3152987888790479
  0
VERTEX
  5
2555
  8
SAPA_PROFIL
 62
     4
 10
-22.71541842802192
 20
-83.171010071659182
 30
0.0
  0
VERTEX
  5
2556
  8
SAPA_PROFIL
 62
     4
 10
-21.81974948711332
 20
-80.710179881207907
 30
0.0
 42
-0.2694959974287434
  0
VERTEX
  5
2557
  8
SAPA_PROFIL
 62
     4
 10
-21.588230440711961
 20
-80.517047906863993
 30
0.0
 42
-0.0612686379508233
  0
VERTEX
  5
2558
  8
SAPA_PROFIL
 62
     4
 10
-21.295555007858692
 20
-80.503464536233494
 30
0.0
  0
VERTEX
  5
2559
  8
SAPA_PROFIL
 62
     4
 10
-20.946136830550419
 20
-80.301727857504673
 30
0.0
 42
-0.5773502691891679
  0
VERTEX
  5
255A
  8
SAPA_PROFIL
 62
     4
 10
-20.63113683055084
 20
-80.483593192299224
 30
0.0
  0
VERTEX
  5
255B
  8
SAPA_PROFIL
 62
     4
 10
-20.631136830550592
 20
-80.750707720425567
 30
0.0
  0
VERTEX
  5
255C
  8
SAPA_PROFIL
 62
     4
 10
-19.232609129916341
 20
-81.559391181733872
 30
0.0
 42
0.1318219888653519
  0
VERTEX
  5
255D
  8
SAPA_PROFIL
 62
     4
 10
-19.08243602744399
 20
-81.599683578271268
 30
0.0
  0
VERTEX
  5
255E
  8
SAPA_PROFIL
 62
     4
 10
-18.899999957007211
 20
-81.599683578264916
 30
0.0
 42
0.4142135623724291
  0
VERTEX
  5
255F
  8
SAPA_PROFIL
 62
     4
 10
-18.499999957006668
 20
-81.199683578265265
 30
0.0
  0
VERTEX
  5
2560
  8
SAPA_PROFIL
 62
     4
 10
-18.499999957008029
 20
-77.799683578264265
 30
0.0
 42
0.4142135623744271
  0
VERTEX
  5
2561
  8
SAPA_PROFIL
 62
     4
 10
-18.899999957007211
 20
-77.399683578263264
 30
0.0
  0
VERTEX
  5
2562
  8
SAPA_PROFIL
 62
     4
 10
-19.079615199278521
 20
-77.399683578262625
 30
0.0
 42
0.1316524975874005
  0
VERTEX
  5
2563
  8
SAPA_PROFIL
 62
     4
 10
-19.229615199275329
 20
-77.439875957128223
 30
0.0
  0
VERTEX
  5
2564
  8
SAPA_PROFIL
 62
     4
 10
-20.83375309627759
 20
-78.366025403780753
 30
0.0
 42
-0.1316524975875904
  0
VERTEX
  5
2565
  8
SAPA_PROFIL
 62
     4
 10
-21.333753096279299
 20
-78.499999999995524
 30
0.0
  0
VERTEX
  5
2566
  8
SAPA_PROFIL
 62
     4
 10
-21.749999957006668
 20
-78.499999999995524
 30
0.0
 42
-0.4142135623730951
  0
VERTEX
  5
2567
  8
SAPA_PROFIL
 62
     4
 10
-22.749999957006668
 20
-77.499999999995524
 30
0.0
  0
VERTEX
  5
2568
  8
SAPA_PROFIL
 62
     4
 10
-22.749999957006668
 20
-74.499999999998252
 30
0.0
 42
0.9999996830128083
  0
VERTEX
  5
2569
  8
SAPA_PROFIL
 62
     4
 10
-23.749999957006668
 20
-74.499999999996433
 30
0.0
  0
VERTEX
  5
256A
  8
SAPA_PROFIL
 62
     4
 10
-23.749999957006668
 20
-77.499999999996433
 30
0.0
 42
-0.4142135623730951
  0
VERTEX
  5
256B
  8
SAPA_PROFIL
 62
     4
 10
-24.749999957006668
 20
-78.499999999996433
 30
0.0
  0
VERTEX
  5
256C
  8
SAPA_PROFIL
 62
     4
 10
-54.249999957091248
 20
-78.499999999996433
 30
0.0
 42
-0.4142135623730951
  0
VERTEX
  5
256D
  8
SAPA_PROFIL
 62
     4
 10
-55.249999957091248
 20
-77.499999999996433
 30
0.0
  0
VERTEX
  5
256E
  8
SAPA_PROFIL
 62
     4
 10
-55.249999957091248
 20
-74.499999999998252
 30
0.0
 42
0.9999999999999998
  0
VERTEX
  5
256F
  8
SAPA_PROFIL
 62
     4
 10
-56.249999957091241
 20
-74.499999999998252
 30
0.0
  0
VERTEX
  5
2570
  8
SAPA_PROFIL
 62
     4
 10
-56.249999957091241
 20
-77.499999999996433
 30
0.0
 42
-0.4142135623736278
  0
VERTEX
  5
2571
  8
SAPA_PROFIL
 62
     4
 10
-57.249999957091248
 20
-78.499999999996433
 30
0.0
  0
VERTEX
  5
2572
  8
SAPA_PROFIL
 62
     4
 10
-57.666246817817701
 20
-78.499999999996433
 30
0.0
 42
-0.1316524975874375
  0
VERTEX
  5
2573
  8
SAPA_PROFIL
 62
     4
 10
-58.166246817817907
 20
-78.366025403780398
 30
0.0
  0
VERTEX
  5
2574
  8
SAPA_PROFIL
 62
     4
 10
-59.770384714819862
 20
-77.439875957128223
 30
0.0
 42
0.1316524975874
  0
VERTEX
  5
2575
  8
SAPA_PROFIL
 62
     4
 10
-59.920384714819399
 20
-77.399683578262625
 30
0.0
  0
VERTEX
  5
2576
  8
SAPA_PROFIL
 62
     4
 10
-60.099999957090702
 20
-77.399683578263264
 30
0.0
 42
0.4142135623744271
  0
VERTEX
  5
2577
  8
SAPA_PROFIL
 62
     4
 10
-60.499999957089877
 20
-77.799683578264265
 30
0.0
  0
VERTEX
  5
2578
  8
SAPA_PROFIL
 62
     4
 10
-60.499999957091248
 20
-81.199683578265265
 30
0.0
 42
0.4142135623724291
  0
VERTEX
  5
2579
  8
SAPA_PROFIL
 62
     4
 10
-60.099999957090702
 20
-81.599683578264916
 30
0.0
  0
VERTEX
  5
257A
  8
SAPA_PROFIL
 62
     4
 10
-59.917563886653923
 20
-81.599683578271268
 30
0.0
 42
0.1318219888653524
  0
VERTEX
  5
257B
  8
SAPA_PROFIL
 62
     4
 10
-59.767390784181593
 20
-81.559391181733872
 30
0.0
  0
VERTEX
  5
257C
  8
SAPA_PROFIL
 62
     4
 10
-58.368863083701932
 20
-80.750707720509538
 30
0.0
  0
VERTEX
  5
257D
  8
SAPA_PROFIL
 62
     4
 10
-58.368863083701932
 20
-80.483593192296496
 30
0.0
 42
-0.577350269189159
  0
VERTEX
  5
257E
  8
SAPA_PROFIL
 62
     4
 10
-58.053863083702318
 20
-80.301727857501945
 30
0.0
  0
VERTEX
  5
257F
  8
SAPA_PROFIL
 62
     4
 10
-57.704444906483673
 20
-80.503464536179024
 30
0.0
 42
-0.0612687673629489
  0
VERTEX
  5
2580
  8
SAPA_PROFIL
 62
     4
 10
-57.411769473383451
 20
-80.517047906865244
 30
0.0
 42
-0.2694959974285039
  0
VERTEX
  5
2581
  8
SAPA_PROFIL
 62
     4
 10
-57.18025042698293
 20
-80.710179881209186
 30
0.0
  0
VERTEX
  5
2582
  8
SAPA_PROFIL
 62
     4
 10
-56.284581486073257
 20
-83.171010071662366
 30
0.0
 42
0.3152987888784035
  0
VERTEX
  5
2583
  8
SAPA_PROFIL
 62
     4
 10
-55.814735175680042
 20
-83.499999999998934
 30
0.0
  0
VERTEX
  5
2584
  8
SAPA_PROFIL
 62
     4
 10
-54.433235590475597
 20
-83.499999999997343
 30
0.0
 42
0.2539676464741841
  0
VERTEX
  5
2585
  8
SAPA_PROFIL
 62
     4
 10
-54.18163442009152
 20
-83.363391710502071
 30
0.0
  0
VERTEX
  5
2586
  8
SAPA_PROFIL
 62
     4
 10
-53.917611141714879
 20
-82.956831514497097
 30
0.0
 42
0.5862177598324623
  0
VERTEX
  5
2587
  8
SAPA_PROFIL
 62
     4
 10
-54.173352956953231
 20
-82.500000000000583
 30
0.0
  0
VERTEX
  5
2588
  8
SAPA_PROFIL
 62
     4
 10
-55.114527637463041
 20
-82.500000000008257
 30
0.0
 42
-0.3152987888813165
  0
VERTEX
  5
2589
  8
SAPA_PROFIL
 62
     4
 10
-55.58437394786079
 20
-82.171010071671489
 30
0.0
  0
VERTEX
  5
258A
  8
SAPA_PROFIL
 62
     4
 10
-56.021138228984753
 20
-80.971010071660274
 30
0.0
 42
-0.5205670505515651
  0
VERTEX
  5
258B
  8
SAPA_PROFIL
 62
     4
 10
-55.551291918591531
 20
-80.299999999997524
 30
0.0
  0
VERTEX
  5
258C
  8
SAPA_PROFIL
 62
     4
 10
-50.53485097792268
 20
-80.299999999997496
 30
0.0
 42
-0.3702522326300203
  0
VERTEX
  5
258D
  8
SAPA_PROFIL
 62
     4
 10
-50.238327616129347
 20
-80.554459952663194
 30
0.0
 42
-0.0982365330332397
  0
VERTEX
  5
258E
  8
SAPA_PROFIL
 62
     4
 10
-50.14787485791841
 20
-82.242146727658209
 30
0.0
 42
-0.3735060174783164
  0
VERTEX
  5
258F
  8
SAPA_PROFIL
 62
     4
 10
-50.444899525829399
 20
-82.499999999998238
 30
0.0
  0
VERTEX
  5
2590
  8
SAPA_PROFIL
 62
     4
 10
-50.87335295695204
 20
-82.499999999999162
 30
0.0
 42
0.5920056181162531
  0
VERTEX
  5
2591
  8
SAPA_PROFIL
 62
     4
 10
-51.126361713269439
 20
-82.961203502527084
 30
0.0
  0
VERTEX
  5
2592
  8
SAPA_PROFIL
 62
     4
 10
-50.865177637113739
 20
-83.363391710505368
 30
0.0
 42
0.2539676464746725
  0
VERTEX
  5
2593
  8
SAPA_PROFIL
 62
     4
 10
-50.613576466729981
 20
-83.500000000000739
 30
0.0
  0
VERTEX
  5
2594
  8
SAPA_PROFIL
 62
     4
 10
-28.386423447364301
 20
-83.499999999999162
 30
0.0
 42
0.2539676464741819
  0
VERTEX
  5
2595
  8
SAPA_PROFIL
 62
     4
 10
-28.134822276981438
 20
-83.363391710505368
 30
0.0
  0
VERTEX
  5
2596
  8
SAPA_PROFIL
 62
     4
 10
-27.873638200827632
 20
-82.961203502527056
 30
0.0
 42
0.5920055144124249
  0
VERTEX
  5
2597
  8
SAPA_PROFIL
 62
     4
 10
-28.126646957143141
 20
-82.499999999999162
 30
0.0
  0
VERTEX
  5
2598
  8
SAPA_PROFIL
 62
     4
 10
-28.555100434433371
 20
-82.500000025274161
 30
0.0
 42
-0.3735060174775405
  0
VERTEX
  5
2599
  8
SAPA_PROFIL
 62
     4
 10
-28.852125102343049
 20
-82.242146752934076
 30
0.0
 42
-0.0355900683670349
  0
VERTEX
  5
259A
  8
SAPA_PROFIL
 62
     4
 10
-28.896018666375301
 20
-81.626273166134297
 30
0.0
 42
-0.0624282003873116
  0
VERTEX
  5
259B
  8
SAPA_PROFIL
 62
     4
 10
-28.761672344132361
 20
-80.554459977939146
 30
0.0
 42
-0.3702522326309292
  0
VERTEX
  5
259C
  8
SAPA_PROFIL
 62
     4
 10
-28.465148982338992
 20
-80.300000025273434
 30
0.0
  0
VERTEX
  5
259D
  8
SAPA_PROFIL
 62
     4
 10
-23.44870799550548
 20
-80.299999999997297
 30
0.0
 42
-0.5205670505515692
  0
VERTEX
  5
259E
  8
SAPA_PROFIL
 62
     4
 10
-22.97886168511225
 20
-80.971010071660274
 30
0.0
  0
VERTEX
  5
259F
  8
SAPA_PROFIL
 62
     4
 10
-23.415625966237201
 20
-82.171010071669727
 30
0.0
 42
-0.3152987888807539
  0
VERTEX
  5
25A0
  8
SAPA_PROFIL
 62
     4
 10
-23.885472276633049
 20
-82.500000000007347
 30
0.0
  0
VERTEX
  5
25A1
  8
SAPA_PROFIL
 62
     4
 10
-24.826646957142142
 20
-82.500000000000526
 30
0.0
 42
0.5862175119221242
  0
VERTEX
  5
25A2
  8
SAPA_PROFIL
 62
     4
 10
-25.0823888881241
 20
-82.956831325755658
 30
0.0
 42
-0.0000002084758573
  0
SEQEND
  5
25A3
  8
SAPA_PROFIL
 62
     4
  0
POLYLINE
  5
18CB
  8
SAPA_PROFIL
 62
     4
 66
     1
 10
0.0
 20
0.0
 30
0.0
 70
     1
  0
VERTEX
  5
25A4
  8
SAPA_PROFIL
 62
     4
 10
-68.7029435112063
 20
-14.89999999555762
 30
0.0
  0
VERTEX
  5
25A5
  8
SAPA_PROFIL
 62
     4
 10
-72.897056060903211
 20
-14.899999995555801
 30
0.0
 42
-0.1989123673786592
  0
VERTEX
  5
25A6
  8
SAPA_PROFIL
 62
     4
 10
-73.109188095259029
 20
-14.81213202991235
 30
0.0
  0
VERTEX
  5
25A7
  8
SAPA_PROFIL
 62
     4
 10
-75.333452163969937
 20
-12.587867961201439
 30
0.0
 42
0.1989123673785438
  0
VERTEX
  5
25A8
  8
SAPA_PROFIL
 62
     4
 10
-75.545584198325756
 20
-12.499999995557991
 30
0.0
  0
VERTEX
  5
25A9
  8
SAPA_PROFIL
 62
     4
 10
-75.999999786054119
 20
-12.49999999555981
 30
0.0
 42
0.4142135623730951
  0
VERTEX
  5
25AA
  8
SAPA_PROFIL
 62
     4
 10
-76.2999997860543
 20
-12.79999999555908
 30
0.0
  0
VERTEX
  5
25AB
  8
SAPA_PROFIL
 62
     4
 10
-76.2999997860543
 20
-24.699999995558031
 30
0.0
 42
-0.4142135623730951
  0
VERTEX
  5
25AC
  8
SAPA_PROFIL
 62
     4
 10
-76.7999997860543
 20
-25.199999995558041
 30
0.0
  0
VERTEX
  5
25AD
  8
SAPA_PROFIL
 62
     4
 10
-78.499999786054119
 20
-25.199999995558041
 30
0.0
 42
0.4142135623739832
  0
VERTEX
  5
25AE
  8
SAPA_PROFIL
 62
     4
 10
-78.7999997860543
 20
-25.49999999555731
 30
0.0
  0
VERTEX
  5
25AF
  8
SAPA_PROFIL
 62
     4
 10
-78.7999997860543
 20
-29.199999995556901
 30
0.0
 42
0.414213562375759
  0
VERTEX
  5
25B0
  8
SAPA_PROFIL
 62
     4
 10
-78.499999786054119
 20
-29.499999995557989
 30
0.0
  0
VERTEX
  5
25B1
  8
SAPA_PROFIL
 62
     4
 10
-62.006576655651102
 20
-29.49999999555617
 30
0.0
 42
0.4142135623735391
  0
VERTEX
  5
25B2
  8
SAPA_PROFIL
 62
     4
 10
-61.706576655651368
 20
-29.199999995556901
 30
0.0
  0
VERTEX
  5
25B3
  8
SAPA_PROFIL
 62
     4
 10
-61.706576655651368
 20
-12.79999999555908
 30
0.0
 42
0.4142135623726511
  0
VERTEX
  5
25B4
  8
SAPA_PROFIL
 62
     4
 10
-62.006576655651102
 20
-12.499999995557991
 30
0.0
  0
VERTEX
  5
25B5
  8
SAPA_PROFIL
 62
     4
 10
-66.054415373781936
 20
-12.499999995557991
 30
0.0
 42
0.1989123673785438
  0
VERTEX
  5
25B6
  8
SAPA_PROFIL
 62
     4
 10
-66.266547408137754
 20
-12.587867961201439
 30
0.0
  0
VERTEX
  5
25B7
  8
SAPA_PROFIL
 62
     4
 10
-68.490811476850482
 20
-14.812132029914171
 30
0.0
 42
-0.1989123673798886
  0
SEQEND
  5
25B8
  8
SAPA_PROFIL
 62
     4
  0
POLYLINE
  5
18CC
  8
SAPA_PROFIL
 62
     4
 66
     1
 10
0.0
 20
0.0
 30
0.0
 70
     1
  0
VERTEX
  5
25B9
  8
SAPA_PROFIL
 62
     4
 10
-47.299999786054521
 20
-29.499999995557999
 30
0.0
  0
VERTEX
  5
25BA
  8
SAPA_PROFIL
 62
     4
 10
-60.106576655651011
 20
-29.49999999555617
 30
0.0
 42
-0.4142135623732061
  0
VERTEX
  5
25BB
  8
SAPA_PROFIL
 62
     4
 10
-60.406576655651193
 20
-29.199999995556901
 30
0.0
  0
VERTEX
  5
25BC
  8
SAPA_PROFIL
 62
     4
 10
-60.406576655651193
 20
-12.79999999555908
 30
0.0
 42
-0.4142135623730951
  0
VERTEX
  5
25BD
  8
SAPA_PROFIL
 62
     4
 10
-60.106576655651011
 20
-12.499999995557991
 30
0.0
  0
VERTEX
  5
25BE
  8
SAPA_PROFIL
 62
     4
 10
-47.299999786054521
 20
-12.49999999555981
 30
0.0
 42
-0.4142135623731173
  0
VERTEX
  5
25BF
  8
SAPA_PROFIL
 62
     4
 10
-46.999999786054339
 20
-12.799999995560899
 30
0.0
  0
VERTEX
  5
25C0
  8
SAPA_PROFIL
 62
     4
 10
-46.999999786054339
 20
-29.199999995558731
 30
0.0
 42
-0.4142135623730951
  0
SEQEND
  5
25C1
  8
SAPA_PROFIL
 62
     4
  0
POLYLINE
  5
18CD
  8
SAPA_PROFIL
 62
     4
 66
     1
 10
0.0
 20
0.0
 30
0.0
 70
     1
  0
VERTEX
  5
25C2
  8
SAPA_PROFIL
 62
     4
 10
-45.999999786054339
 20
-10.99999999555981
 30
0.0
  0
VERTEX
  5
25C3
  8
SAPA_PROFIL
 62
     4
 10
-66.675735717341936
 20
-10.999999995557991
 30
0.0
 42
0.1989123673799843
  0
VERTEX
  5
25C4
  8
SAPA_PROFIL
 62
     4
 10
-66.887867751698664
 20
-11.08786796120326
 30
0.0
  0
VERTEX
  5
25C5
  8
SAPA_PROFIL
 62
     4
 10
-69.112131820409573
 20
-13.312132029914171
 30
0.0
 42
-0.1989123673811184
  0
VERTEX
  5
25C6
  8
SAPA_PROFIL
 62
     4
 10
-69.324263854765391
 20
-13.39999999555762
 30
0.0
  0
VERTEX
  5
25C7
  8
SAPA_PROFIL
 62
     4
 10
-72.27573571734321
 20
-13.399999995555801
 30
0.0
 42
-0.1989123673785438
  0
VERTEX
  5
25C8
  8
SAPA_PROFIL
 62
     4
 10
-72.487867751699028
 20
-13.31213202991235
 30
0.0
  0
VERTEX
  5
25C9
  8
SAPA_PROFIL
 62
     4
 10
-74.712131820410846
 20
-11.087867961201439
 30
0.0
 42
0.1989123673785438
  0
VERTEX
  5
25CA
  8
SAPA_PROFIL
 62
     4
 10
-74.924263854766664
 20
-10.999999995557991
 30
0.0
  0
VERTEX
  5
25CB
  8
SAPA_PROFIL
 62
     4
 10
-77.2999997860543
 20
-10.99999999555981
 30
0.0
 42
0.4142135623730951
  0
VERTEX
  5
25CC
  8
SAPA_PROFIL
 62
     4
 10
-77.7999997860543
 20
-11.49999999555981
 30
0.0
  0
VERTEX
  5
25CD
  8
SAPA_PROFIL
 62
     4
 10
-77.7999997860543
 20
-23.399999995558758
 30
0.0
 42
-0.414213562373761
  0
VERTEX
  5
25CE
  8
SAPA_PROFIL
 62
     4
 10
-78.099999786054482
 20
-23.699999995558031
 30
0.0
  0
VERTEX
  5
25CF
  8
SAPA_PROFIL
 62
     4
 10
-79.7999997860543
 20
-23.699999995558031
 30
0.0
 42
0.4142135623730951
  0
VERTEX
  5
25D0
  8
SAPA_PROFIL
 62
     4
 10
-80.299999786054286
 20
-24.199999995558041
 30
0.0
  0
VERTEX
  5
25D1
  8
SAPA_PROFIL
 62
     4
 10
-80.299999786054286
 20
-30.499999995557989
 30
0.0
 42
0.4142135623730951
  0
VERTEX
  5
25D2
  8
SAPA_PROFIL
 62
     4
 10
-79.7999997860543
 20
-30.999999995557989
 30
0.0
  0
VERTEX
  5
25D3
  8
SAPA_PROFIL
 62
     4
 10
-78.799999786053959
 20
-30.99999999555617
 30
0.0
 42
-0.414213562373539
  0
VERTEX
  5
25D4
  8
SAPA_PROFIL
 62
     4
 10
-78.499999786054005
 20
-31.299999995555439
 30
0.0
  0
VERTEX
  5
25D5
  8
SAPA_PROFIL
 62
     4
 10
-78.499999786054445
 20
-32.899999995557621
 30
0.0
 42
-0.4142135623735391
  0
VERTEX
  5
25D6
  8
SAPA_PROFIL
 62
     4
 10
-78.799999786054187
 20
-33.199999995556887
 30
0.0
  0
VERTEX
  5
25D7
  8
SAPA_PROFIL
 62
     4
 10
-79.0999997860538
 20
-33.199999995555082
 30
0.0
 42
0.592337729603611
  0
VERTEX
  5
25D8
  8
SAPA_PROFIL
 62
     4
 10
-79.352849868658055
 20
-33.661452266296649
 30
0.0
  0
VERTEX
  5
25D9
  8
SAPA_PROFIL
 62
     4
 10
-78.075790600361202
 20
-35.361452266297377
 30
0.0
 42
0.2560149538738706
  0
VERTEX
  5
25DA
  8
SAPA_PROFIL
 62
     4
 10
-77.822940517756038
 20
-35.499999995557992
 30
0.0
  0
VERTEX
  5
25DB
  8
SAPA_PROFIL
 62
     4
 10
-77.599999786053459
 20
-35.499999995557992
 30
0.0
 42
0.4142135623733169
  0
VERTEX
  5
25DC
  8
SAPA_PROFIL
 62
     4
 10
-77.299999786054187
 20
-35.199999995558713
 30
0.0
  0
VERTEX
  5
25DD
  8
SAPA_PROFIL
 62
     4
 10
-77.299999786054187
 20
-31.299999995555439
 30
0.0
 42
-0.414213562373539
  0
VERTEX
  5
25DE
  8
SAPA_PROFIL
 62
     4
 10
-76.999999786054232
 20
-30.99999999555617
 30
0.0
  0
VERTEX
  5
25DF
  8
SAPA_PROFIL
 62
     4
 10
-65.999999786054005
 20
-30.999999995557989
 30
0.0
 42
-0.414213562373539
  0
VERTEX
  5
25E0
  8
SAPA_PROFIL
 62
     4
 10
-65.69999978605405
 20
-31.299999995557268
 30
0.0
  0
VERTEX
  5
25E1
  8
SAPA_PROFIL
 62
     4
 10
-65.69999978605405
 20
-35.19999999555872
 30
0.0
 42
0.4142135623730951
  0
VERTEX
  5
25E2
  8
SAPA_PROFIL
 62
     4
 10
-65.399999786054778
 20
-35.499999995557999
 30
0.0
  0
VERTEX
  5
25E3
  8
SAPA_PROFIL
 62
     4
 10
-65.177059054352199
 20
-35.499999995557999
 30
0.0
 42
0.2560149538738705
  0
VERTEX
  5
25E4
  8
SAPA_PROFIL
 62
     4
 10
-64.924208971747035
 20
-35.361452266297377
 30
0.0
  0
VERTEX
  5
25E5
  8
SAPA_PROFIL
 62
     4
 10
-63.647149703450182
 20
-33.661452266296664
 30
0.0
 42
0.592337729603611
  0
VERTEX
  5
25E6
  8
SAPA_PROFIL
 62
     4
 10
-63.899999786054437
 20
-33.199999995555082
 30
0.0
  0
VERTEX
  5
25E7
  8
SAPA_PROFIL
 62
     4
 10
-64.19999978605405
 20
-33.199999995556901
 30
0.0
 42
-0.4142135623735391
  0
VERTEX
  5
25E8
  8
SAPA_PROFIL
 62
     4
 10
-64.499999786053777
 20
-32.899999995557629
 30
0.0
  0
VERTEX
  5
25E9
  8
SAPA_PROFIL
 62
     4
 10
-64.499999786054232
 20
-31.299999995557268
 30
0.0
 42
-0.414213562373539
  0
VERTEX
  5
25EA
  8
SAPA_PROFIL
 62
     4
 10
-64.199999786054278
 20
-30.999999995557989
 30
0.0
  0
VERTEX
  5
25EB
  8
SAPA_PROFIL
 62
     4
 10
-45.999999786054339
 20
-30.999999995561641
 30
0.0
 42
0.414213562373126
  0
VERTEX
  5
25EC
  8
SAPA_PROFIL
 62
     4
 10
-45.499999786054339
 20
-30.499999995561641
 30
0.0
  0
VERTEX
  5
25ED
  8
SAPA_PROFIL
 62
     4
 10
-45.499999786054332
 20
-11.49999999555981
 30
0.0
 42
0.4142135623730951
  0
SEQEND
  5
25EE
  8
SAPA_PROFIL
 62
     4
  0
CIRCLE
  5
18CE
  8
SAPA_PROFIL
 62
     2
 10
-1.753158469717901
 20
-91.994202787261329
 30
0.0
 40
0.25
  0
INSERT
  5
18CF
  8
SAPA_PROFIL
  6
CONTINUOUS
 62
     2
  2
*U160
 10
0.0
 20
0.0
 30
0.0
1001
ACAD
1002
{
1000
R14_HATCH_DATA
1000
18CF
1011
1.0
1021
0.0
1031
0.0
1021
0.0
1031
0.0
1011
0.0
1021
0.0
1031
0.0
1021
1.0
1031
0.0
1011
0.0
1021
0.0
1031
0.0
1021
0.0
1031
1.0
1040
0.0
1010
0.0
1020
0.0
1030
1.0
1000
SOLID
1070
     1
1070
     1
1071
        1
1071
        7
1070
     1
1070
     1
1071
        2
1040
-2.003158469717901
1040
-91.994202787261329
1040
1.0
1040
-1.503158469717901
1040
-91.994202787261329
1040
1.0
1071
        1
1005
18CE
1070
     0
1070
     1
1040
0.0095408196840103
1071
        1
1040
-1.853158469717902
1040
-91.994202787261329
1040
0.0
1002
}
  0
POLYLINE
  5
18D0
  8
SAPA_PROFIL
 62
     2
 66
     1
 10
0.0
 20
0.0
 30
0.0
 70
     1
  0
VERTEX
  5
2600
  8
SAPA_PROFIL
 62
     2
 10
0.9212207691479843
 20
-94.325735788604362
 30
0.0
  0
VERTEX
  5
2601
  8
SAPA_PROFIL
 62
     2
 10
0.9212207691479843
 20
-94.425735788604356
 30
0.0
 42
-0.4142135623730959
  0
VERTEX
  5
2602
  8
SAPA_PROFIL
 62
     2
 10
0.2212207691479815
 20
-95.125735788604359
 30
0.0
  0
VERTEX
  5
2603
  8
SAPA_PROFIL
 62
     2
 10
-0.8787792308520163
 20
-95.125735788604359
 30
0.0
 42
-0.4142135623730961
  0
VERTEX
  5
2604
  8
SAPA_PROFIL
 62
     2
 10
-1.078779230852015
 20
-94.925735788604356
 30
0.0
  0
VERTEX
  5
2605
  8
SAPA_PROFIL
 62
     2
 10
-1.078779230852015
 20
-93.825735788604348
 30
0.0
 42
-0.4142135623730956
  0
VERTEX
  5
2606
  8
SAPA_PROFIL
 62
     2
 10
-0.8787792308520163
 20
-93.625735788604359
 30
0.0
  0
VERTEX
  5
2607
  8
SAPA_PROFIL
 62
     2
 10
0.221220769147985
 20
-93.625735788604359
 30
0.0
 42
-0.4142135623730946
  0
SEQEND
  5
2608
  8
SAPA_PROFIL
 62
     2
  0
POLYLINE
  5
18D1
  8
SAPA_PROFIL
 62
     2
 66
     1
 10
0.0
 20
0.0
 30
0.0
  0
VERTEX
  5
2609
  8
SAPA_PROFIL
 62
     2
 10
-0.3787792308520146
 20
-92.825735788604362
 30
0.0
  0
VERTEX
  5
260A
  8
SAPA_PROFIL
 62
     2
 10
-1.0265447961251031
 20
-92.825735788604362
 30
0.0
 42
-0.4416942457848117
  0
VERTEX
  5
260B
  8
SAPA_PROFIL
 62
     2
 10
-1.225682275618035
 20
-92.607181428976446
 30
0.0
  0
VERTEX
  5
260C
  8
SAPA_PROFIL
 62
     2
 10
-1.135966210359995
 20
-91.644290148232272
 30
0.0
 42
0.4416942457848106
  0
VERTEX
  5
260D
  8
SAPA_PROFIL
 62
     2
 10
-1.335103689852928
 20
-91.425735788604356
 30
0.0
  0
VERTEX
  5
260E
  8
SAPA_PROFIL
 62
     2
 10
-1.885086029444474
 20
-91.425735788604356
 30
0.0
 42
0.5445962197109637
  0
VERTEX
  5
260F
  8
SAPA_PROFIL
 62
     2
 10
-2.3408229385063382
 20
-92.131414834009433
 30
0.0
  0
VERTEX
  5
2610
  8
SAPA_PROFIL
 62
     2
 10
-2.1787792308520131
 20
-92.490465987294684
 30
0.0
  0
VERTEX
  5
2611
  8
SAPA_PROFIL
 62
     2
 10
-2.1787792308520131
 20
-93.963425226042588
 30
0.0
 42
0.336437923496554
  0
VERTEX
  5
2612
  8
SAPA_PROFIL
 62
     2
 10
-1.9912724130102839
 20
-95.035168955657426
 30
0.0
  0
VERTEX
  5
2613
  8
SAPA_PROFIL
 62
     2
 10
-1.9912724130102839
 20
-95.597032591481153
 30
0.0
 42
-0.1919812372740513
  0
VERTEX
  5
2614
  8
SAPA_PROFIL
 62
     2
 10
-2.1284047910275361
 20
-95.941019639081176
 30
0.0
  0
VERTEX
  5
2615
  8
SAPA_PROFIL
 62
     2
 10
-2.4998822673175751
 20
-96.332886569484486
 30
0.0
 42
-0.9249153594910841
  0
VERTEX
  5
2616
  8
SAPA_PROFIL
 62
     2
 10
-4.7335770823968817
 20
-94.667108640962255
 30
0.0
  0
VERTEX
  5
2617
  8
SAPA_PROFIL
 62
     2
 10
-4.2000290271452458
 20
-93.582563701293495
 30
0.0
 42
0.4184584792862776
  0
VERTEX
  5
2618
  8
SAPA_PROFIL
 62
     2
 10
-4.6037811475649599
 20
-92.995861384722048
 30
0.0
 42
0.3891337693453737
  0
VERTEX
  5
2619
  8
SAPA_PROFIL
 62
     2
 10
-4.8318704555075778
 20
-93.141028276262546
 30
0.0
  0
VERTEX
  5
261A
  8
SAPA_PROFIL
 62
     2
 10
-5.394775507995452
 20
-94.226924366827546
 30
0.0
 42
0.8864286961344978
  0
VERTEX
  5
261B
  8
SAPA_PROFIL
 62
     2
 10
-2.0355767524747299
 20
-96.898704268764106
 30
0.0
  0
VERTEX
  5
261C
  8
SAPA_PROFIL
 62
     2
 10
-1.9202087791856119
 20
-97.329263406645353
 30
0.0
 42
0.9163311740174273
  0
VERTEX
  5
261D
  8
SAPA_PROFIL
 62
     2
 10
-1.135360569433286
 20
-97.190873491505286
 30
0.0
  0
VERTEX
  5
261E
  8
SAPA_PROFIL
 62
     2
 10
-1.2270230156408439
 20
-96.143166937153893
 30
0.0
 42
-0.4400105308918339
  0
VERTEX
  5
261F
  8
SAPA_PROFIL
 62
     2
 10
-1.027784076022495
 20
-95.925735788604356
 30
0.0
  0
VERTEX
  5
2620
  8
SAPA_PROFIL
 62
     2
 10
-0.1787792308520135
 20
-95.925735788604356
 30
0.0
  0
VERTEX
  5
2621
  8
SAPA_PROFIL
 62
     2
 10
-0.1787792308520153
 20
-96.325735788604376
 30
0.0
 42
0.569380983920789
  0
VERTEX
  5
2622
  8
SAPA_PROFIL
 62
     2
 10
0.1170371408506359
 20
-96.501289834167935
 30
0.0
  0
VERTEX
  5
2623
  8
SAPA_PROFIL
 62
     2
 10
1.4086698842559371
 20
-95.79632423426888
 30
0.0
 42
0.274387813087548
  0
VERTEX
  5
2624
  8
SAPA_PROFIL
 62
     2
 10
1.7212207691479831
 20
-95.269662097578134
 30
0.0
  0
VERTEX
  5
2625
  8
SAPA_PROFIL
 62
     2
 10
1.7212207691479851
 20
-93.481809479630584
 30
0.0
 42
0.274387813087548
  0
VERTEX
  5
2626
  8
SAPA_PROFIL
 62
     2
 10
1.4086698842559351
 20
-92.955147342939838
 30
0.0
  0
VERTEX
  5
2627
  8
SAPA_PROFIL
 62
     2
 10
0.1170371408506359
 20
-92.25018174304077
 30
0.0
 42
0.5693809839207892
  0
VERTEX
  5
2628
  8
SAPA_PROFIL
 62
     2
 10
-0.1787792308520135
 20
-92.425735788604356
 30
0.0
  0
VERTEX
  5
2629
  8
SAPA_PROFIL
 62
     2
 10
-0.1787792308520135
 20
-92.825735788604334
 30
0.0
  0
VERTEX
  5
262A
  8
SAPA_PROFIL
 62
     2
 10
-1.027784076022495
 20
-92.825735788604334
 30
0.0
  0
SEQEND
  5
262B
  8
SAPA_PROFIL
 62
     2
  0
POLYLINE
  5
18D2
  8
SAPA_PROFIL
 66
     1
 10
0.0
 20
0.0
 30
0.0
 70
     1
  0
VERTEX
  5
262C
  8
SAPA_PROFIL
 10
-62.69142135524816
 20
14.95857864375767
 30
0.0
 42
-0.4142135623730879
  0
VERTEX
  5
262D
  8
SAPA_PROFIL
 10
-62.19142135524816
 20
15.45857864375767
 30
0.0
  0
VERTEX
  5
262E
  8
SAPA_PROFIL
 10
-57.391421355247978
 20
15.45857864375745
 30
0.0
 42
0.4142135623731014
  0
VERTEX
  5
262F
  8
SAPA_PROFIL
 10
-56.891421355247978
 20
15.95857864375745
 30
0.0
  0
VERTEX
  5
2630
  8
SAPA_PROFIL
 10
-56.891421355247751
 20
23.058578643756789
 30
0.0
 42
-0.4142135623730951
  0
VERTEX
  5
2631
  8
SAPA_PROFIL
 10
-56.391421355247751
 20
23.558578643756789
 30
0.0
  0
VERTEX
  5
2632
  8
SAPA_PROFIL
 10
-46.791421355247387
 20
23.558578643756789
 30
0.0
 42
-0.4142135623731054
  0
VERTEX
  5
2633
  8
SAPA_PROFIL
 10
-46.291421355247387
 20
23.058578643756789
 30
0.0
  0
VERTEX
  5
2634
  8
SAPA_PROFIL
 10
-46.291421355247607
 20
16.95857864375688
 30
0.0
 42
-0.4142135623730822
  0
VERTEX
  5
2635
  8
SAPA_PROFIL
 10
-46.791421355247621
 20
16.45857864375688
 30
0.0
  0
VERTEX
  5
2636
  8
SAPA_PROFIL
 10
-51.89142135524844
 20
16.45857864375688
 30
0.0
 42
0.4142135623730919
  0
VERTEX
  5
2637
  8
SAPA_PROFIL
 10
-52.391421355248433
 20
15.95857864375688
 30
0.0
  0
VERTEX
  5
2638
  8
SAPA_PROFIL
 10
-52.391421355248433
 20
12.258578643760019
 30
0.0
 42
-0.414213562373061
  0
VERTEX
  5
2639
  8
SAPA_PROFIL
 10
-52.89142135524844
 20
11.758578643760019
 30
0.0
  0
VERTEX
  5
263A
  8
SAPA_PROFIL
 10
-62.19142135524816
 20
11.758578643758989
 30
0.0
 42
-0.414213562373165
  0
VERTEX
  5
263B
  8
SAPA_PROFIL
 10
-62.69142135524816
 20
12.258578643758989
 30
0.0
  0
SEQEND
  5
263C
  8
SAPA_PROFIL
  0
POLYLINE
  5
18D3
  8
SAPA_PROFIL
 66
     1
 10
0.0
 20
0.0
 30
0.0
 70
     1
  0
VERTEX
  5
263D
  8
SAPA_PROFIL
 10
-64.191421355248053
 20
18.058578643756899
 30
0.0
  0
VERTEX
  5
263E
  8
SAPA_PROFIL
 10
-63.72649793568268
 20
18.644962659517709
 30
0.0
 42
-0.7105995015651415
  0
VERTEX
  5
263F
  8
SAPA_PROFIL
 10
-63.191421355247819
 20
18.45857864375699
 30
0.0
  0
VERTEX
  5
2640
  8
SAPA_PROFIL
 10
-63.191421355248053
 20
17.4585786437571
 30
0.0
 42
0.4142135623731451
  0
VERTEX
  5
2641
  8
SAPA_PROFIL
 10
-62.69142135524806
 20
16.95857864375699
 30
0.0
  0
VERTEX
  5
2642
  8
SAPA_PROFIL
 10
-58.891421355248212
 20
16.95857864375699
 30
0.0
 42
0.4142135623730951
  0
VERTEX
  5
2643
  8
SAPA_PROFIL
 10
-58.391421355248212
 20
17.45857864375699
 30
0.0
  0
VERTEX
  5
2644
  8
SAPA_PROFIL
 10
-58.391421355247758
 20
23.058578643756899
 30
0.0
 42
0.4142135623730951
  0
VERTEX
  5
2645
  8
SAPA_PROFIL
 10
-58.891421355247751
 20
23.558578643756899
 30
0.0
  0
VERTEX
  5
2646
  8
SAPA_PROFIL
 10
-62.69142135524794
 20
23.558578643756899
 30
0.0
 42
0.4142135623730368
  0
VERTEX
  5
2647
  8
SAPA_PROFIL
 10
-63.19142135524794
 20
23.05857864375702
 30
0.0
  0
VERTEX
  5
2648
  8
SAPA_PROFIL
 10
-63.191421355248053
 20
22.058578643756899
 30
0.0
 42
-0.7105995015650846
  0
VERTEX
  5
2649
  8
SAPA_PROFIL
 10
-63.72649793568268
 20
21.87219462799618
 30
0.0
  0
VERTEX
  5
264A
  8
SAPA_PROFIL
 10
-64.191421355248053
 20
22.45857864375699
 30
0.0
  0
VERTEX
  5
264B
  8
SAPA_PROFIL
 10
-64.191421355248053
 20
24.55857864375702
 30
0.0
 42
-0.4142135623730951
  0
VERTEX
  5
264C
  8
SAPA_PROFIL
 10
-63.691421355248053
 20
25.05857864375702
 30
0.0
  0
VERTEX
  5
264D
  8
SAPA_PROFIL
 10
-44.791421355247387
 20
25.058578643756789
 30
0.0
 42
-0.4142135623730951
  0
VERTEX
  5
264E
  8
SAPA_PROFIL
 10
-44.291421355247387
 20
24.558578643756789
 30
0.0
  0
VERTEX
  5
264F
  8
SAPA_PROFIL
 10
-44.291421355247159
 20
22.95857864375688
 30
0.0
  0
VERTEX
  5
2650
  8
SAPA_PROFIL
 10
-44.291421355247159
 20
22.95857864375688
 30
0.0
 42
0.4142135623730868
  0
VERTEX
  5
2651
  8
SAPA_PROFIL
 10
-44.791421355247167
 20
22.45857864375688
 30
0.0
  0
VERTEX
  5
2652
  8
SAPA_PROFIL
 10
-44.791421355247387
 20
15.45857864375688
 30
0.0
 42
-0.4142135623730951
  0
VERTEX
  5
2653
  8
SAPA_PROFIL
 10
-45.291421355247387
 20
14.95857864375688
 30
0.0
  0
VERTEX
  5
2654
  8
SAPA_PROFIL
 10
-50.391421355247758
 20
14.95857864375688
 30
0.0
 42
0.4142135623730951
  0
VERTEX
  5
2655
  8
SAPA_PROFIL
 10
-50.891421355247758
 20
14.45857864375688
 30
0.0
  0
VERTEX
  5
2656
  8
SAPA_PROFIL
 10
-50.891421355247992
 20
11.45857864375688
 30
0.0
 42
0.4142135623730951
  0
VERTEX
  5
2657
  8
SAPA_PROFIL
 10
-50.391421355247871
 20
10.95857864375688
 30
0.0
  0
VERTEX
  5
2658
  8
SAPA_PROFIL
 10
-34.491421355247439
 20
10.958578643757789
 30
0.0
 42
0.4142135623730951
  0
VERTEX
  5
2659
  8
SAPA_PROFIL
 10
-34.191421355247492
 20
11.25857864375774
 30
0.0
  0
VERTEX
  5
265A
  8
SAPA_PROFIL
 10
-34.191421355247599
 20
12.546789523465399
 30
0.0
 42
-0.6681786379192988
  0
VERTEX
  5
265B
  8
SAPA_PROFIL
 10
-33.679289320891598
 20
12.75892155782145
 30
0.0
  0
VERTEX
  5
265C
  8
SAPA_PROFIL
 10
-31.479289320891439
 20
10.55892155782152
 30
0.0
 42
-0.1989123673796285
  0
VERTEX
  5
265D
  8
SAPA_PROFIL
 10
-31.39142135524753
 20
10.34678952346559
 30
0.0
  0
VERTEX
  5
265E
  8
SAPA_PROFIL
 10
-31.39142135524731
 20
9.7585786437576303
 30
0.0
 42
-0.4142135623730951
  0
VERTEX
  5
265F
  8
SAPA_PROFIL
 10
-31.691421355247371
 20
9.4585786437577895
 30
0.0
  0
VERTEX
  5
2660
  8
SAPA_PROFIL
 10
-50.391421355248212
 20
9.4585786437577895
 30
0.0
 42
0.4142135623730951
  0
VERTEX
  5
2661
  8
SAPA_PROFIL
 10
-50.891421355248212
 20
8.9585786437577895
 30
0.0
  0
VERTEX
  5
2662
  8
SAPA_PROFIL
 10
-50.891421355248212
 20
7.2585786437579713
 30
0.0
 42
0.4142135623730951
  0
VERTEX
  5
2663
  8
SAPA_PROFIL
 10
-50.391421355248212
 20
6.7585786437579713
 30
0.0
  0
VERTEX
  5
2664
  8
SAPA_PROFIL
 10
-38.89142135524844
 20
6.7585786437581978
 30
0.0
 42
-0.4142135623730951
  0
VERTEX
  5
2665
  8
SAPA_PROFIL
 10
-38.39142135524844
 20
6.2585786437581978
 30
0.0
  0
VERTEX
  5
2666
  8
SAPA_PROFIL
 10
-38.39142135524844
 20
5.7585786437579713
 30
0.0
 42
-0.4142135623730951
  0
VERTEX
  5
2667
  8
SAPA_PROFIL
 10
-38.89142135524844
 20
5.2585786437579713
 30
0.0
  0
VERTEX
  5
2668
  8
SAPA_PROFIL
 10
-51.89142135524844
 20
5.2585786437589936
 30
0.0
 42
-0.4142135623730951
  0
VERTEX
  5
2669
  8
SAPA_PROFIL
 10
-52.391421355248433
 20
5.7585786437589936
 30
0.0
  0
VERTEX
  5
266A
  8
SAPA_PROFIL
 10
-52.391421355248553
 20
9.7585786437600177
 30
0.0
 42
0.4142135623731284
  0
VERTEX
  5
266B
  8
SAPA_PROFIL
 10
-52.89142135524866
 20
10.258578643760019
 30
0.0
  0
VERTEX
  5
266C
  8
SAPA_PROFIL
 10
-63.691421355248281
 20
10.25857864375876
 30
0.0
 42
-0.4142135623730951
  0
VERTEX
  5
266D
  8
SAPA_PROFIL
 10
-64.191421355248281
 20
10.75857864375876
 30
0.0
  0
SEQEND
  5
266E
  8
SAPA_PROFIL
  0
POLYLINE
  5
18D4
  8
SAPA_PROFIL
 66
     1
 10
0.0
 20
0.0
 30
0.0
 70
     1
  0
VERTEX
  5
266F
  8
SAPA_PROFIL
 10
48.799999999999038
 20
45.000000000000561
 30
0.0
  0
VERTEX
  5
2670
  8
SAPA_PROFIL
 10
50.799999999999052
 20
45.000000000000561
 30
0.0
  0
VERTEX
  5
2671
  8
SAPA_PROFIL
 10
50.799999999999052
 20
30.656854249492991
 30
0.0
  0
VERTEX
  5
2672
  8
SAPA_PROFIL
 10
45.143145750506612
 20
25.000000000000568
 30
0.0
  0
VERTEX
  5
2673
  8
SAPA_PROFIL
 10
25.799999999999049
 20
25.000000000000568
 30
0.0
  0
VERTEX
  5
2674
  8
SAPA_PROFIL
 10
25.799999999999049
 20
27.000000000000568
 30
0.0
  0
VERTEX
  5
2675
  8
SAPA_PROFIL
 10
31.107179676971551
 20
27.000000000000568
 30
0.0
  0
VERTEX
  5
2676
  8
SAPA_PROFIL
 10
31.799999999999049
 20
26.600000000000708
 30
0.0
  0
VERTEX
  5
2677
  8
SAPA_PROFIL
 10
32.492820323026763
 20
27.000000000000568
 30
0.0
  0
VERTEX
  5
2678
  8
SAPA_PROFIL
 10
43.486291501014421
 20
27.000000000000568
 30
0.0
 42
0.1989123673796584
  0
VERTEX
  5
2679
  8
SAPA_PROFIL
 10
44.900505063387527
 20
27.585786437627458
 30
0.0
  0
VERTEX
  5
267A
  8
SAPA_PROFIL
 10
48.214213562372152
 20
30.899494936612321
 30
0.0
 42
0.1989123673796572
  0
VERTEX
  5
267B
  8
SAPA_PROFIL
 10
48.799999999999038
 20
32.31370849898542
 30
0.0
  0
VERTEX
  5
267C
  8
SAPA_PROFIL
 10
48.799999999999038
 20
38.307179676973078
 30
0.0
  0
VERTEX
  5
267D
  8
SAPA_PROFIL
 10
49.199999999999129
 20
39.000000000000568
 30
0.0
  0
VERTEX
  5
267E
  8
SAPA_PROFIL
 10
48.799999999999038
 20
39.692820323028279
 30
0.0
  0
SEQEND
  5
267F
  8
SAPA_PROFIL
  0
POLYLINE
  5
18D5
  8
SAPA_PROFIL
 66
     1
 10
0.0
 20
0.0
 30
0.0
 70
     1
  0
VERTEX
  5
2680
  8
SAPA_PROFIL
 10
-91.098475071208
 20
-22.800000000000189
 30
0.0
  0
VERTEX
  5
2681
  8
SAPA_PROFIL
 10
-91.098475071208
 20
-23.800000000000189
 30
0.0
  0
VERTEX
  5
2682
  8
SAPA_PROFIL
 10
-88.498475071207835
 20
-23.800000000000189
 30
0.0
 42
-0.4142135623730951
  0
VERTEX
  5
2683
  8
SAPA_PROFIL
 10
-87.998475071207835
 20
-24.300000000000189
 30
0.0
  0
VERTEX
  5
2684
  8
SAPA_PROFIL
 10
-87.998475071207835
 20
-24.70000000000028
 30
0.0
 42
-0.4142135623730951
  0
VERTEX
  5
2685
  8
SAPA_PROFIL
 10
-88.298475071207804
 20
-25.000000000000231
 30
0.0
  0
VERTEX
  5
2686
  8
SAPA_PROFIL
 10
-105.9999999990105
 20
-25.000000000000231
 30
0.0
 42
-0.4142135623730951
  0
VERTEX
  5
2687
  8
SAPA_PROFIL
 10
-106.4999999990104
 20
-24.500000000000231
 30
0.0
  0
VERTEX
  5
2688
  8
SAPA_PROFIL
 10
-106.4999999990104
 20
24.499999999999769
 30
0.0
 42
-0.4142135623730951
  0
VERTEX
  5
2689
  8
SAPA_PROFIL
 10
-105.9999999990104
 20
24.999999999999769
 30
0.0
  0
VERTEX
  5
268A
  8
SAPA_PROFIL
 10
-88.298475071207775
 20
24.999999999999769
 30
0.0
 42
-0.4142135623730951
  0
VERTEX
  5
268B
  8
SAPA_PROFIL
 10
-87.998475071207821
 20
24.699999999999811
 30
0.0
  0
VERTEX
  5
268C
  8
SAPA_PROFIL
 10
-87.998475071207821
 20
24.29999999999972
 30
0.0
 42
-0.4142135623730951
  0
VERTEX
  5
268D
  8
SAPA_PROFIL
 10
-88.498475071207835
 20
23.79999999999972
 30
0.0
  0
VERTEX
  5
268E
  8
SAPA_PROFIL
 10
-91.098475071207986
 20
23.79999999999972
 30
0.0
  0
VERTEX
  5
268F
  8
SAPA_PROFIL
 10
-91.098475071207986
 20
22.79999999999972
 30
0.0
  0
VERTEX
  5
2690
  8
SAPA_PROFIL
 10
-92.102507830840963
 20
22.22033922157857
 30
0.0
 42
-0.4155392929676362
  0
VERTEX
  5
2691
  8
SAPA_PROFIL
 10
-93.197126802632965
 20
22.51631264788443
 30
0.0
  0
VERTEX
  5
2692
  8
SAPA_PROFIL
 10
-93.938264040931927
 20
23.79999999999972
 30
0.0
  0
VERTEX
  5
2693
  8
SAPA_PROFIL
 10
-104.09999999901061
 20
23.799999999999731
 30
0.0
 42
0.4142135623730951
  0
VERTEX
  5
2694
  8
SAPA_PROFIL
 10
-105.09999999901061
 20
22.799999999999731
 30
0.0
  0
VERTEX
  5
2695
  8
SAPA_PROFIL
 10
-105.09999999901061
 20
-22.800000000000178
 30
0.0
 42
0.4142135623730951
  0
VERTEX
  5
2696
  8
SAPA_PROFIL
 10
-104.09999999901061
 20
-23.800000000000178
 30
0.0
  0
VERTEX
  5
2697
  8
SAPA_PROFIL
 10
-93.938264040931955
 20
-23.800000000000189
 30
0.0
  0
VERTEX
  5
2698
  8
SAPA_PROFIL
 10
-93.197126802632994
 20
-22.516312647884892
 30
0.0
 42
-0.4155392929676362
  0
VERTEX
  5
2699
  8
SAPA_PROFIL
 10
-92.102507830840992
 20
-22.220339221579032
 30
0.0
  0
SEQEND
  5
269A
  8
SAPA_PROFIL
  0
POLYLINE
  5
18D6
  8
SAPA_PROFIL
 66
     1
 10
0.0
 20
0.0
 30
0.0
 70
     1
  0
VERTEX
  5
269B
  8
SAPA_PROFIL
 10
-86.499999999010456
 20
20.85000000000036
 30
0.0
 42
-0.1989123673797145
  0
VERTEX
  5
269C
  8
SAPA_PROFIL
 10
-86.587867964654379
 20
20.637867965644091
 30
0.0
  0
VERTEX
  5
269D
  8
SAPA_PROFIL
 10
-86.987867964654455
 20
20.237867965644451
 30
0.0
 42
-0.668178637919182
  0
VERTEX
  5
269E
  8
SAPA_PROFIL
 10
-87.499999999010484
 20
20.450000000000269
 30
0.0
  0
VERTEX
  5
269F
  8
SAPA_PROFIL
 10
-87.499999999010484
 20
21.300000000000178
 30
0.0
 42
0.4142135623730284
  0
VERTEX
  5
26A0
  8
SAPA_PROFIL
 10
-87.999999999010456
 20
21.800000000000178
 30
0.0
  0
VERTEX
  5
26A1
  8
SAPA_PROFIL
 10
-88.390808928730607
 20
21.800000000000178
 30
0.0
 42
0.17632698070845
  0
VERTEX
  5
26A2
  8
SAPA_PROFIL
 10
-88.583645211636394
 20
21.729813332935919
 30
0.0
  0
VERTEX
  5
26A3
  8
SAPA_PROFIL
 10
-90.392836281916061
 20
20.211721773135199
 30
0.0
 42
0.2216946626429421
  0
VERTEX
  5
26A4
  8
SAPA_PROFIL
 10
-90.499999999010015
 20
19.98190844019928
 30
0.0
  0
VERTEX
  5
26A5
  8
SAPA_PROFIL
 10
-90.499999999010456
 20
16.450000000000269
 30
0.0
 42
0.4142135623730951
  0
VERTEX
  5
26A6
  8
SAPA_PROFIL
 10
-90.199999999010288
 20
16.150000000000091
 30
0.0
  0
VERTEX
  5
26A7
  8
SAPA_PROFIL
 10
-87.799999999010197
 20
16.150000000000539
 30
0.0
 42
0.4142135623730951
  0
VERTEX
  5
26A8
  8
SAPA_PROFIL
 10
-87.499999999010484
 20
16.450000000000269
 30
0.0
  0
VERTEX
  5
26A9
  8
SAPA_PROFIL
 10
-87.499999999010484
 20
16.85000000000036
 30
0.0
 42
-0.6681786379193188
  0
VERTEX
  5
26AA
  8
SAPA_PROFIL
 10
-86.987867964654455
 20
17.062132034356178
 30
0.0
  0
VERTEX
  5
26AB
  8
SAPA_PROFIL
 10
-86.587867964654379
 20
16.662132034356091
 30
0.0
 42
-0.198912367379658
  0
VERTEX
  5
26AC
  8
SAPA_PROFIL
 10
-86.499999999010456
 20
16.450000000000269
 30
0.0
  0
VERTEX
  5
26AD
  8
SAPA_PROFIL
 10
-86.499999999010015
 20
14.65000000000054
 30
0.0
 42
-0.4142135623731284
  0
VERTEX
  5
26AE
  8
SAPA_PROFIL
 10
-86.999999999010015
 20
14.15000000000054
 30
0.0
  0
VERTEX
  5
26AF
  8
SAPA_PROFIL
 10
-91.499999999010925
 20
14.150000000000089
 30
0.0
 42
-0.4142135623730951
  0
VERTEX
  5
26B0
  8
SAPA_PROFIL
 10
-91.999999999010925
 20
14.650000000000089
 30
0.0
  0
VERTEX
  5
26B1
  8
SAPA_PROFIL
 10
-91.999999999010015
 20
18.650000000000091
 30
0.0
 42
0.4142135623729619
  0
VERTEX
  5
26B2
  8
SAPA_PROFIL
 10
-92.499999999010015
 20
19.150000000000091
 30
0.0
  0
VERTEX
  5
26B3
  8
SAPA_PROFIL
 10
-94.516956646213657
 20
19.150000000000091
 30
0.0
 42
0.1763269807084973
  0
VERTEX
  5
26B4
  8
SAPA_PROFIL
 10
-94.838350451057053
 20
19.033022221559349
 30
0.0
  0
VERTEX
  5
26B5
  8
SAPA_PROFIL
 10
-97.321393803853425
 20
16.949501460030199
 30
0.0
 42
0.2216946626428772
  0
VERTEX
  5
26B6
  8
SAPA_PROFIL
 10
-97.499999999010015
 20
16.566479238470951
 30
0.0
  0
VERTEX
  5
26B7
  8
SAPA_PROFIL
 10
-97.499999999010484
 20
10.56853372839123
 30
0.0
 42
0.315298788878991
  0
VERTEX
  5
26B8
  8
SAPA_PROFIL
 10
-97.171010070673219
 20
10.098687417998461
 30
0.0
  0
VERTEX
  5
26B9
  8
SAPA_PROFIL
 10
-93.157979855684516
 20
8.6380638705318233
 30
0.0
 42
-0.3152987888789731
  0
VERTEX
  5
26BA
  8
SAPA_PROFIL
 10
-92.499999999010015
 20
7.6983712497458319
 30
0.0
  0
VERTEX
  5
26BB
  8
SAPA_PROFIL
 10
-92.499999999010015
 20
6.6500000000000901
 30
0.0
 42
0.4142135623732616
  0
VERTEX
  5
26BC
  8
SAPA_PROFIL
 10
-92.199999999010288
 20
6.3499999999999091
 30
0.0
  0
VERTEX
  5
26BD
  8
SAPA_PROFIL
 10
-91.799999999010197
 20
6.3499999999999091
 30
0.0
 42
-0.4142135623731506
  0
VERTEX
  5
26BE
  8
SAPA_PROFIL
 10
-91.499999999010015
 20
6.050000000000181
 30
0.0
  0
VERTEX
  5
26BF
  8
SAPA_PROFIL
 10
-91.499999999010015
 20
5.6500000000000901
 30
0.0
 42
-0.4142135623731505
  0
VERTEX
  5
26C0
  8
SAPA_PROFIL
 10
-91.799999999010197
 20
5.3499999999999091
 30
0.0
  0
VERTEX
  5
26C1
  8
SAPA_PROFIL
 10
-92.199999999010288
 20
5.3499999999999091
 30
0.0
 42
0.4142135623732061
  0
VERTEX
  5
26C2
  8
SAPA_PROFIL
 10
-92.499999999010015
 20
5.050000000000181
 30
0.0
  0
VERTEX
  5
26C3
  8
SAPA_PROFIL
 10
-92.499999999010015
 20
0.6242640687119092
 30
0.0
 42
-0.198912367379577
  0
VERTEX
  5
26C4
  8
SAPA_PROFIL
 10
-92.587867964654379
 20
0.4121320343560911
 30
0.0
  0
VERTEX
  5
26C5
  8
SAPA_PROFIL
 10
-92.999999999010015
 20
0.0
 30
0.0
  0
VERTEX
  5
26C6
  8
SAPA_PROFIL
 10
-92.587867964654379
 20
-0.4121320343560911
 30
0.0
 42
-0.1989123673795771
  0
VERTEX
  5
26C7
  8
SAPA_PROFIL
 10
-92.499999999010015
 20
-0.6242640687119092
 30
0.0
  0
VERTEX
  5
26C8
  8
SAPA_PROFIL
 10
-92.499999999010015
 20
-5.0499999999997272
 30
0.0
 42
0.4142135623732059
  0
VERTEX
  5
26C9
  8
SAPA_PROFIL
 10
-92.199999999010288
 20
-5.3499999999999091
 30
0.0
  0
VERTEX
  5
26CA
  8
SAPA_PROFIL
 10
-91.799999999010197
 20
-5.3499999999999091
 30
0.0
 42
-0.4142135623731506
  0
VERTEX
  5
26CB
  8
SAPA_PROFIL
 10
-91.499999999010015
 20
-5.6500000000000901
 30
0.0
  0
VERTEX
  5
26CC
  8
SAPA_PROFIL
 10
-91.499999999010015
 20
-6.0499999999997272
 30
0.0
 42
-0.4142135623731505
  0
VERTEX
  5
26CD
  8
SAPA_PROFIL
 10
-91.799999999010197
 20
-6.3499999999999091
 30
0.0
  0
VERTEX
  5
26CE
  8
SAPA_PROFIL
 10
-92.199999999010288
 20
-6.3499999999999091
 30
0.0
 42
0.4142135623732615
  0
VERTEX
  5
26CF
  8
SAPA_PROFIL
 10
-92.499999999010015
 20
-6.6500000000000901
 30
0.0
  0
VERTEX
  5
26D0
  8
SAPA_PROFIL
 10
-92.499999999010015
 20
-7.698371249745378
 30
0.0
 42
-0.3152987888789731
  0
VERTEX
  5
26D1
  8
SAPA_PROFIL
 10
-93.157979855684516
 20
-8.6380638705313686
 30
0.0
  0
VERTEX
  5
26D2
  8
SAPA_PROFIL
 10
-97.171010070673219
 20
-10.09868741799801
 30
0.0
 42
0.315298788878991
  0
VERTEX
  5
26D3
  8
SAPA_PROFIL
 10
-97.499999999010484
 20
-10.56853372839123
 30
0.0
  0
VERTEX
  5
26D4
  8
SAPA_PROFIL
 10
-97.499999999010015
 20
-16.566479238470489
 30
0.0
 42
0.2216946626428772
  0
VERTEX
  5
26D5
  8
SAPA_PROFIL
 10
-97.321393803853425
 20
-16.949501460029751
 30
0.0
  0
VERTEX
  5
26D6
  8
SAPA_PROFIL
 10
-94.838350451057053
 20
-19.033022221559349
 30
0.0
 42
0.1763269807084973
  0
VERTEX
  5
26D7
  8
SAPA_PROFIL
 10
-94.516956646213657
 20
-19.150000000000091
 30
0.0
  0
VERTEX
  5
26D8
  8
SAPA_PROFIL
 10
-92.499999999010015
 20
-19.150000000000091
 30
0.0
 42
0.4142135623729619
  0
VERTEX
  5
26D9
  8
SAPA_PROFIL
 10
-91.999999999010015
 20
-18.650000000000091
 30
0.0
  0
VERTEX
  5
26DA
  8
SAPA_PROFIL
 10
-91.999999999010925
 20
-14.650000000000089
 30
0.0
 42
-0.4142135623730951
  0
VERTEX
  5
26DB
  8
SAPA_PROFIL
 10
-91.499999999010925
 20
-14.150000000000089
 30
0.0
  0
VERTEX
  5
26DC
  8
SAPA_PROFIL
 10
-86.999999999010015
 20
-14.150000000000089
 30
0.0
 42
-0.4142135623731285
  0
VERTEX
  5
26DD
  8
SAPA_PROFIL
 10
-86.499999999010015
 20
-14.650000000000089
 30
0.0
  0
VERTEX
  5
26DE
  8
SAPA_PROFIL
 10
-86.499999999010456
 20
-16.450000000000269
 30
0.0
 42
-0.198912367379658
  0
VERTEX
  5
26DF
  8
SAPA_PROFIL
 10
-86.587867964654379
 20
-16.662132034356091
 30
0.0
  0
VERTEX
  5
26E0
  8
SAPA_PROFIL
 10
-86.987867964654455
 20
-17.062132034356178
 30
0.0
 42
-0.6681786379193188
  0
VERTEX
  5
26E1
  8
SAPA_PROFIL
 10
-87.499999999010484
 20
-16.849999999999909
 30
0.0
  0
VERTEX
  5
26E2
  8
SAPA_PROFIL
 10
-87.499999999010484
 20
-16.450000000000269
 30
0.0
 42
0.4142135623730951
  0
VERTEX
  5
26E3
  8
SAPA_PROFIL
 10
-87.799999999010197
 20
-16.150000000000091
 30
0.0
  0
VERTEX
  5
26E4
  8
SAPA_PROFIL
 10
-90.199999999010288
 20
-16.150000000000091
 30
0.0
 42
0.4142135623730951
  0
VERTEX
  5
26E5
  8
SAPA_PROFIL
 10
-90.499999999010456
 20
-16.450000000000269
 30
0.0
  0
VERTEX
  5
26E6
  8
SAPA_PROFIL
 10
-90.499999999010015
 20
-19.98190844019928
 30
0.0
 42
0.221694662642942
  0
VERTEX
  5
26E7
  8
SAPA_PROFIL
 10
-90.392836281916061
 20
-20.211721773134741
 30
0.0
  0
VERTEX
  5
26E8
  8
SAPA_PROFIL
 10
-88.583645211636394
 20
-21.729813332935471
 30
0.0
 42
0.1763269807084499
  0
VERTEX
  5
26E9
  8
SAPA_PROFIL
 10
-88.390808928730607
 20
-21.799999999999731
 30
0.0
  0
VERTEX
  5
26EA
  8
SAPA_PROFIL
 10
-87.999999999010456
 20
-21.800000000000178
 30
0.0
 42
0.4142135623730284
  0
VERTEX
  5
26EB
  8
SAPA_PROFIL
 10
-87.499999999010484
 20
-21.300000000000178
 30
0.0
  0
VERTEX
  5
26EC
  8
SAPA_PROFIL
 10
-87.499999999010484
 20
-20.450000000000269
 30
0.0
 42
-0.668178637919182
  0
VERTEX
  5
26ED
  8
SAPA_PROFIL
 10
-86.987867964654455
 20
-20.237867965644
 30
0.0
  0
VERTEX
  5
26EE
  8
SAPA_PROFIL
 10
-86.587867964654379
 20
-20.637867965644091
 30
0.0
 42
-0.1989123673797144
  0
VERTEX
  5
26EF
  8
SAPA_PROFIL
 10
-86.499999999010456
 20
-20.849999999999909
 30
0.0
  0
VERTEX
  5
26F0
  8
SAPA_PROFIL
 10
-86.499999999010456
 20
-23.300000000000178
 30
0.0
 42
-0.4142135623730951
  0
VERTEX
  5
26F1
  8
SAPA_PROFIL
 10
-86.99999999901047
 20
-23.800000000000178
 30
0.0
  0
VERTEX
  5
26F2
  8
SAPA_PROFIL
 10
-90.699999999010274
 20
-23.800000000000178
 30
0.0
 42
-0.4142135623730951
  0
VERTEX
  5
26F3
  8
SAPA_PROFIL
 10
-90.99999999901047
 20
-23.500000000000451
 30
0.0
  0
VERTEX
  5
26F4
  8
SAPA_PROFIL
 10
-90.99999999901047
 20
-22.473205080757001
 30
0.0
 42
0.2679491924311428
  0
VERTEX
  5
26F5
  8
SAPA_PROFIL
 10
-91.149999999010575
 20
-22.21339745962177
 30
0.0
  0
VERTEX
  5
26F6
  8
SAPA_PROFIL
 10
-92.687083486550804
 20
-21.325961894323431
 30
0.0
 42
0.4142135623731709
  0
VERTEX
  5
26F7
  8
SAPA_PROFIL
 10
-93.096891107686133
 20
-21.435769515459011
 30
0.0
  0
VERTEX
  5
26F8
  8
SAPA_PROFIL
 10
-93.404123202713436
 20
-21.96791111376206
 30
0.0
 42
-0.4663076581551056
  0
VERTEX
  5
26F9
  8
SAPA_PROFIL
 10
-94.912936216184335
 20
-22.233955556881028
 30
0.0
  0
VERTEX
  5
26FA
  8
SAPA_PROFIL
 10
-99.821393803853425
 20
-18.115270605417209
 30
0.0
 42
-0.2216946626428921
  0
VERTEX
  5
26FB
  8
SAPA_PROFIL
 10
-99.999999999010484
 20
-17.732248383857488
 30
0.0
  0
VERTEX
  5
26FC
  8
SAPA_PROFIL
 10
-99.999999999010484
 20
-9.7002075382097246
 30
0.0
 42
-0.3152987888789878
  0
VERTEX
  5
26FD
  8
SAPA_PROFIL
 10
-99.342020142335983
 20
-8.760514917423734
 30
0.0
  0
VERTEX
  5
26FE
  8
SAPA_PROFIL
 10
-95.657979855684516
 20
-7.4196339112449996
 30
0.0
 42
0.3152987888789804
  0
VERTEX
  5
26FF
  8
SAPA_PROFIL
 10
-94.999999999010015
 20
-6.479941290459009
 30
0.0
  0
VERTEX
  5
2700
  8
SAPA_PROFIL
 10
-94.999999999010015
 20
6.4799412904594638
 30
0.0
 42
0.3152987888789804
  0
VERTEX
  5
2701
  8
SAPA_PROFIL
 10
-95.657979855684516
 20
7.4196339112454552
 30
0.0
  0
VERTEX
  5
2702
  8
SAPA_PROFIL
 10
-99.342020142335983
 20
8.760514917423734
 30
0.0
 42
-0.3152987888789877
  0
VERTEX
  5
2703
  8
SAPA_PROFIL
 10
-99.999999999010484
 20
9.7002075382097246
 30
0.0
  0
VERTEX
  5
2704
  8
SAPA_PROFIL
 10
-99.999999999010484
 20
17.73224838385795
 30
0.0
 42
-0.2216946626428921
  0
VERTEX
  5
2705
  8
SAPA_PROFIL
 10
-99.821393803853425
 20
18.115270605417209
 30
0.0
  0
VERTEX
  5
2706
  8
SAPA_PROFIL
 10
-94.912936216184335
 20
22.233955556881028
 30
0.0
 42
-0.4663076581551056
  0
VERTEX
  5
2707
  8
SAPA_PROFIL
 10
-93.404123202713436
 20
21.967911113762511
 30
0.0
  0
VERTEX
  5
2708
  8
SAPA_PROFIL
 10
-93.096891107686133
 20
21.435769515459011
 30
0.0
 42
0.414213562373157
  0
VERTEX
  5
2709
  8
SAPA_PROFIL
 10
-92.687083486550804
 20
21.325961894323878
 30
0.0
  0
VERTEX
  5
270A
  8
SAPA_PROFIL
 10
-91.149999999010575
 20
22.213397459622229
 30
0.0
 42
0.2679491924311554
  0
VERTEX
  5
270B
  8
SAPA_PROFIL
 10
-90.99999999901047
 20
22.473205080757449
 30
0.0
  0
VERTEX
  5
270C
  8
SAPA_PROFIL
 10
-90.99999999901047
 20
23.500000000000451
 30
0.0
 42
-0.4142135623730951
  0
VERTEX
  5
270D
  8
SAPA_PROFIL
 10
-90.699999999010274
 20
23.80000000000064
 30
0.0
  0
VERTEX
  5
270E
  8
SAPA_PROFIL
 10
-86.99999999901047
 20
23.800000000000178
 30
0.0
 42
-0.4142135623730951
  0
VERTEX
  5
270F
  8
SAPA_PROFIL
 10
-86.499999999010456
 20
23.300000000000178
 30
0.0
  0
SEQEND
  5
2710
  8
SAPA_PROFIL
  0
POLYLINE
  5
18D7
  8
SAPA_PROFIL
 62
     4
 66
     1
 10
0.0
 20
0.0
 30
0.0
 70
     1
  0
VERTEX
  5
2711
  8
SAPA_PROFIL
 62
     4
 10
-88.358578641879717
 20
-1.055634910786466
 30
0.0
 42
0.1989123671061458
  0
VERTEX
  5
2712
  8
SAPA_PROFIL
 62
     4
 10
-88.00710678019658
 20
-0.2071067742556352
 30
0.0
  0
VERTEX
  5
2713
  8
SAPA_PROFIL
 62
     4
 10
-88.00710678019658
 20
0.2071067742555215
 30
0.0
 42
0.1989123671061505
  0
VERTEX
  5
2714
  8
SAPA_PROFIL
 62
     4
 10
-88.358578641879717
 20
1.0556349107863521
 30
0.0
  0
VERTEX
  5
2715
  8
SAPA_PROFIL
 62
     4
 10
-90.590811692262079
 20
3.287867965867235
 30
0.0
 42
-0.6681786375387371
  0
VERTEX
  5
2716
  8
SAPA_PROFIL
 62
     4
 10
-90.378679657682881
 20
3.7999999999999541
 30
0.0
  0
VERTEX
  5
2717
  8
SAPA_PROFIL
 62
     4
 10
-73.799999999010083
 20
3.7999999999999541
 30
0.0
 42
-0.4142135623731034
  0
VERTEX
  5
2718
  8
SAPA_PROFIL
 62
     4
 10
-73.499999999010072
 20
3.4999999999999432
 30
0.0
  0
VERTEX
  5
2719
  8
SAPA_PROFIL
 62
     4
 10
-73.499999999010072
 20
-3.4999999999999432
 30
0.0
 42
-0.4142135623731034
  0
VERTEX
  5
271A
  8
SAPA_PROFIL
 62
     4
 10
-73.799999999010083
 20
-3.8000000000000109
 30
0.0
  0
VERTEX
  5
271B
  8
SAPA_PROFIL
 62
     4
 10
-90.378679657682881
 20
-3.8000000000000682
 30
0.0
 42
-0.6681786375387019
  0
VERTEX
  5
271C
  8
SAPA_PROFIL
 62
     4
 10
-90.590811692262079
 20
-3.2878679658673491
 30
0.0
  0
SEQEND
  5
271D
  8
SAPA_PROFIL
 62
     4
  0
POLYLINE
  5
18D8
  8
SAPA_PROFIL
 62
     4
 66
     1
 10
0.0
 20
0.0
 30
0.0
 70
     1
  0
VERTEX
  5
271E
  8
SAPA_PROFIL
 62
     4
 10
-72.19999999901006
 20
3.7999999999999541
 30
0.0
  0
VERTEX
  5
271F
  8
SAPA_PROFIL
 62
     4
 10
-53.999999999010022
 20
3.7999999999999541
 30
0.0
 42
-0.4142135623730951
  0
VERTEX
  5
2720
  8
SAPA_PROFIL
 62
     4
 10
-53.699999999010011
 20
3.5
 30
0.0
  0
VERTEX
  5
2721
  8
SAPA_PROFIL
 62
     4
 10
-53.69999999901006
 20
2.6029437251521581
 30
0.0
  0
VERTEX
  5
2722
  8
SAPA_PROFIL
 62
     4
 10
-52.147056273857629
 20
1.0499999999999541
 30
0.0
  0
VERTEX
  5
2723
  8
SAPA_PROFIL
 62
     4
 10
-46.568653346957198
 20
1.0499999999999541
 30
0.0
  0
VERTEX
  5
2724
  8
SAPA_PROFIL
 62
     4
 10
-45.57499999901006
 20
0.4763139720814138
 30
0.0
 42
-0.5773502691896344
  0
VERTEX
  5
2725
  8
SAPA_PROFIL
 62
     4
 10
-45.574999999009997
 20
-0.4763139720814707
 30
0.0
  0
VERTEX
  5
2726
  8
SAPA_PROFIL
 62
     4
 10
-46.568653346957369
 20
-1.050000000000068
 30
0.0
  0
VERTEX
  5
2727
  8
SAPA_PROFIL
 62
     4
 10
-52.1470562738578
 20
-1.050000000000068
 30
0.0
  0
VERTEX
  5
2728
  8
SAPA_PROFIL
 62
     4
 10
-53.69999999901006
 20
-2.6029437251522718
 30
0.0
  0
VERTEX
  5
2729
  8
SAPA_PROFIL
 62
     4
 10
-53.699999999010011
 20
-3.5000000000001128
 30
0.0
 42
-0.4142135623730951
  0
VERTEX
  5
272A
  8
SAPA_PROFIL
 62
     4
 10
-53.999999999010022
 20
-3.8000000000000682
 30
0.0
  0
VERTEX
  5
272B
  8
SAPA_PROFIL
 62
     4
 10
-72.19999999901006
 20
-3.8000000000000109
 30
0.0
 42
-0.4142135623730951
  0
VERTEX
  5
272C
  8
SAPA_PROFIL
 62
     4
 10
-72.499999999010015
 20
-3.500000000000056
 30
0.0
  0
VERTEX
  5
272D
  8
SAPA_PROFIL
 62
     4
 10
-72.499999999010072
 20
3.500000000000056
 30
0.0
 42
-0.4142135623730951
  0
SEQEND
  5
272E
  8
SAPA_PROFIL
 62
     4
  0
POLYLINE
  5
18D9
  8
SAPA_PROFIL
 62
     4
 66
     1
 10
0.0
 20
0.0
 30
0.0
 70
     1
  0
VERTEX
  5
272F
  8
SAPA_PROFIL
 62
     4
 10
-89.353553389603292
 20
-0.3535533839706204
 30
0.0
 42
0.4142135623730951
  0
VERTEX
  5
2730
  8
SAPA_PROFIL
 62
     4
 10
-89.353553389603292
 20
0.3535533972159328
 30
0.0
  0
VERTEX
  5
2731
  8
SAPA_PROFIL
 62
     4
 10
-92.499999999010015
 20
3.5
 30
0.0
  0
VERTEX
  5
2732
  8
SAPA_PROFIL
 62
     4
 10
-92.499999999010015
 20
5.0
 30
0.0
  0
VERTEX
  5
2733
  8
SAPA_PROFIL
 62
     4
 10
-52.999999999010008
 20
5.0
 30
0.0
 42
-0.4142135623730951
  0
VERTEX
  5
2734
  8
SAPA_PROFIL
 62
     4
 10
-52.499999999010008
 20
4.5
 30
0.0
  0
VERTEX
  5
2735
  8
SAPA_PROFIL
 62
     4
 10
-52.499999999010008
 20
3.0999999999999091
 30
0.0
  0
VERTEX
  5
2736
  8
SAPA_PROFIL
 62
     4
 10
-51.649999999010049
 20
2.25
 30
0.0
  0
VERTEX
  5
2737
  8
SAPA_PROFIL
 62
     4
 10
-47.047114316039988
 20
2.25
 30
0.0
  0
VERTEX
  5
2738
  8
SAPA_PROFIL
 62
     4
 10
-45.174999999010019
 20
1.1691342951090169
 30
0.0
 42
-0.5773502691896344
  0
VERTEX
  5
2739
  8
SAPA_PROFIL
 62
     4
 10
-45.174999999010019
 20
-1.169134295109074
 30
0.0
  0
VERTEX
  5
273A
  8
SAPA_PROFIL
 62
     4
 10
-47.047114316040172
 20
-2.2500000000001128
 30
0.0
  0
VERTEX
  5
273B
  8
SAPA_PROFIL
 62
     4
 10
-51.649999999010049
 20
-2.2500000000001128
 30
0.0
  0
VERTEX
  5
273C
  8
SAPA_PROFIL
 62
     4
 10
-52.499999999010008
 20
-3.1000000000000218
 30
0.0
  0
VERTEX
  5
273D
  8
SAPA_PROFIL
 62
     4
 10
-52.499999999010008
 20
-4.5
 30
0.0
 42
-0.4142135623730951
  0
VERTEX
  5
273E
  8
SAPA_PROFIL
 62
     4
 10
-52.999999999010008
 20
-5.0
 30
0.0
  0
VERTEX
  5
273F
  8
SAPA_PROFIL
 62
     4
 10
-92.499999999010015
 20
-5.0
 30
0.0
  0
VERTEX
  5
2740
  8
SAPA_PROFIL
 62
     4
 10
-92.499999999010015
 20
-3.5
 30
0.0
  0
SEQEND
  5
2741
  8
SAPA_PROFIL
 62
     4
  0
POLYLINE
  5
18DA
  8
SAPA_PROFIL
 66
     1
 10
0.0
 20
0.0
 30
0.0
 70
     1
  0
VERTEX
  5
2742
  8
SAPA_PROFIL
 10
-33.050000000001091
 20
2.700000000000272
 30
0.0
  0
VERTEX
  5
2743
  8
SAPA_PROFIL
 10
-31.67376540642476
 20
2.0767196966983188
 30
0.0
 42
0.5450207798987328
  0
VERTEX
  5
2744
  8
SAPA_PROFIL
 10
-31.25000000000114
 20
2.350000000000136
 30
0.0
  0
VERTEX
  5
2745
  8
SAPA_PROFIL
 10
-31.25000000000114
 20
2.700000000000272
 30
0.0
  0
VERTEX
  5
2746
  8
SAPA_PROFIL
 10
-31.00000000000114
 20
2.700000000000272
 30
0.0
 42
-0.4142135623730951
  0
VERTEX
  5
2747
  8
SAPA_PROFIL
 10
-30.00000000000114
 20
1.700000000000272
 30
0.0
  0
VERTEX
  5
2748
  8
SAPA_PROFIL
 10
-30.00000000000114
 20
-1.6999999999998181
 30
0.0
 42
-0.4142135623730951
  0
VERTEX
  5
2749
  8
SAPA_PROFIL
 10
-31.00000000000114
 20
-2.6999999999998181
 30
0.0
  0
VERTEX
  5
274A
  8
SAPA_PROFIL
 10
-32.150000000001
 20
-2.6999999999998181
 30
0.0
  0
VERTEX
  5
274B
  8
SAPA_PROFIL
 10
-32.150000000001
 20
-2.3499999999996808
 30
0.0
 42
0.5450200690651551
  0
VERTEX
  5
274C
  8
SAPA_PROFIL
 10
-32.573765000001011
 20
-2.0767189999999109
 30
0.0
  0
VERTEX
  5
274D
  8
SAPA_PROFIL
 10
-33.950000000000948
 20
-2.6999999999998181
 30
0.0
  0
VERTEX
  5
274E
  8
SAPA_PROFIL
 10
-33.950000000000948
 20
-2.3499999999996808
 30
0.0
 42
0.5450200690651692
  0
VERTEX
  5
274F
  8
SAPA_PROFIL
 10
-34.373765000000958
 20
-2.0767189999999109
 30
0.0
  0
VERTEX
  5
2750
  8
SAPA_PROFIL
 10
-35.750000000001137
 20
-2.6999999999998181
 30
0.0
  0
VERTEX
  5
2751
  8
SAPA_PROFIL
 10
-35.750000000001137
 20
-2.3499999999996808
 30
0.0
 42
0.5450200690651619
  0
VERTEX
  5
2752
  8
SAPA_PROFIL
 10
-36.17376500000114
 20
-2.0767189999999109
 30
0.0
  0
VERTEX
  5
2753
  8
SAPA_PROFIL
 10
-37.550000000001091
 20
-2.6999999999998181
 30
0.0
  0
VERTEX
  5
2754
  8
SAPA_PROFIL
 10
-37.550000000001091
 20
-2.3499999999996808
 30
0.0
 42
0.5450200690651619
  0
VERTEX
  5
2755
  8
SAPA_PROFIL
 10
-37.973765000001102
 20
-2.0767189999999109
 30
0.0
  0
VERTEX
  5
2756
  8
SAPA_PROFIL
 10
-39.350000000001053
 20
-2.6999999999998181
 30
0.0
  0
VERTEX
  5
2757
  8
SAPA_PROFIL
 10
-39.350000000001053
 20
-2.3499999999996808
 30
0.0
 42
0.5450200690651692
  0
VERTEX
  5
2758
  8
SAPA_PROFIL
 10
-39.773765000001049
 20
-2.0767189999999109
 30
0.0
  0
VERTEX
  5
2759
  8
SAPA_PROFIL
 10
-41.150000000001
 20
-2.6999999999998181
 30
0.0
  0
VERTEX
  5
275A
  8
SAPA_PROFIL
 10
-41.450000000000948
 20
-2.6999999999998181
 30
0.0
  0
VERTEX
  5
275B
  8
SAPA_PROFIL
 10
-41.450000000000948
 20
2.42826763351104
 30
0.0
  0
VERTEX
  5
275C
  8
SAPA_PROFIL
 10
-40.673765406424756
 20
2.0767196966983188
 30
0.0
 42
0.5450207798987328
  0
VERTEX
  5
275D
  8
SAPA_PROFIL
 10
-40.250000000001137
 20
2.350000000000136
 30
0.0
  0
VERTEX
  5
275E
  8
SAPA_PROFIL
 10
-40.250000000001137
 20
2.700000000000272
 30
0.0
  0
VERTEX
  5
275F
  8
SAPA_PROFIL
 10
-38.873765000000958
 20
2.0767200000002499
 30
0.0
 42
0.5450205149791638
  0
VERTEX
  5
2760
  8
SAPA_PROFIL
 10
-38.450000000000962
 20
2.350000000000136
 30
0.0
  0
VERTEX
  5
2761
  8
SAPA_PROFIL
 10
-38.450000000000962
 20
2.700000000000272
 30
0.0
  0
VERTEX
  5
2762
  8
SAPA_PROFIL
 10
-37.073765406424627
 20
2.0767196966983188
 30
0.0
 42
0.545020779898768
  0
VERTEX
  5
2763
  8
SAPA_PROFIL
 10
-36.650000000001
 20
2.350000000000136
 30
0.0
  0
VERTEX
  5
2764
  8
SAPA_PROFIL
 10
-36.650000000001
 20
2.700000000000272
 30
0.0
  0
VERTEX
  5
2765
  8
SAPA_PROFIL
 10
-35.273765406424673
 20
2.0767196966983188
 30
0.0
 42
0.54502077989874
  0
VERTEX
  5
2766
  8
SAPA_PROFIL
 10
-34.850000000001053
 20
2.350000000000136
 30
0.0
  0
VERTEX
  5
2767
  8
SAPA_PROFIL
 10
-34.850000000001053
 20
2.700000000000272
 30
0.0
  0
VERTEX
  5
2768
  8
SAPA_PROFIL
 10
-33.473765406424718
 20
2.0767196966983188
 30
0.0
 42
0.545020779898761
  0
VERTEX
  5
2769
  8
SAPA_PROFIL
 10
-33.050000000001091
 20
2.350000000000136
 30
0.0
  0
SEQEND
  5
276A
  8
SAPA_PROFIL
  0
POLYLINE
  5
18DB
  8
SAPA_PROFIL
 66
     1
 10
0.0
 20
0.0
 30
0.0
 70
     1
  0
VERTEX
  5
276B
  8
SAPA_PROFIL
 10
58.024264068710863
 20
23.000000000000231
 30
0.0
 42
0.1989123673796753
  0
VERTEX
  5
276C
  8
SAPA_PROFIL
 10
57.812132034355052
 20
22.912132034356091
 30
0.0
  0
VERTEX
  5
276D
  8
SAPA_PROFIL
 10
56.087867965642999
 20
21.187867965644269
 30
0.0
 42
-0.1989123673796753
  0
VERTEX
  5
276E
  8
SAPA_PROFIL
 10
55.875735931286947
 20
21.10000000000014
 30
0.0
  0
VERTEX
  5
276F
  8
SAPA_PROFIL
 10
55.299999999999052
 20
21.10000000000014
 30
0.0
 42
-0.4142135623730951
  0
VERTEX
  5
2770
  8
SAPA_PROFIL
 10
54.999999999998863
 20
21.400000000000318
 30
0.0
  0
VERTEX
  5
2771
  8
SAPA_PROFIL
 10
54.999999999998863
 20
22.700000000000269
 30
0.0
 42
0.4142135623730951
  0
VERTEX
  5
2772
  8
SAPA_PROFIL
 10
54.699999999998909
 20
23.000000000000231
 30
0.0
  0
VERTEX
  5
2773
  8
SAPA_PROFIL
 10
29.99999999999886
 20
23.000000000000231
 30
0.0
 42
0.4142135623730951
  0
VERTEX
  5
2774
  8
SAPA_PROFIL
 10
28.99999999999887
 20
22.000000000000231
 30
0.0
  0
VERTEX
  5
2775
  8
SAPA_PROFIL
 10
28.99999999999887
 20
17.600000000000129
 30
0.0
 42
-0.4142135623730951
  0
VERTEX
  5
2776
  8
SAPA_PROFIL
 10
28.699999999998909
 20
17.300000000000178
 30
0.0
  0
VERTEX
  5
2777
  8
SAPA_PROFIL
 10
26.399999999998961
 20
17.300000000000178
 30
0.0
 42
-0.4142135623730951
  0
VERTEX
  5
2778
  8
SAPA_PROFIL
 10
26.099999999999
 20
17.600000000000129
 30
0.0
  0
VERTEX
  5
2779
  8
SAPA_PROFIL
 10
26.099999999999
 20
18.100000000000129
 30
0.0
 42
-0.4142135623730951
  0
VERTEX
  5
277A
  8
SAPA_PROFIL
 10
26.399999999998961
 20
18.400000000000318
 30
0.0
  0
VERTEX
  5
277B
  8
SAPA_PROFIL
 10
26.736626924633359
 20
18.400000000000318
 30
0.0
 42
0.5535245743249297
  0
VERTEX
  5
277C
  8
SAPA_PROFIL
 10
24.96410760212348
 20
22.71055421153164
 30
0.0
  0
VERTEX
  5
277D
  8
SAPA_PROFIL
 10
24.67677669529553
 20
22.42322330470347
 30
0.0
 42
-0.4142135623729421
  0
VERTEX
  5
277E
  8
SAPA_PROFIL
 10
24.32322330470242
 20
22.42322330470347
 30
0.0
  0
VERTEX
  5
277F
  8
SAPA_PROFIL
 10
24.035892397874481
 20
22.71055421153164
 30
0.0
 42
0.5535245743249292
  0
VERTEX
  5
2780
  8
SAPA_PROFIL
 10
22.26337307536437
 20
18.400000000000318
 30
0.0
  0
VERTEX
  5
2781
  8
SAPA_PROFIL
 10
22.599999999999
 20
18.400000000000318
 30
0.0
 42
-0.4142135623730951
  0
VERTEX
  5
2782
  8
SAPA_PROFIL
 10
22.899999999998961
 20
18.100000000000129
 30
0.0
  0
VERTEX
  5
2783
  8
SAPA_PROFIL
 10
22.899999999998961
 20
17.600000000000129
 30
0.0
 42
-0.4142135623730951
  0
VERTEX
  5
2784
  8
SAPA_PROFIL
 10
22.599999999999
 20
17.300000000000178
 30
0.0
  0
VERTEX
  5
2785
  8
SAPA_PROFIL
 10
21.49999999999886
 20
17.300000000000178
 30
0.0
 42
-0.4142135623730951
  0
VERTEX
  5
2786
  8
SAPA_PROFIL
 10
19.99999999999886
 20
18.800000000000178
 30
0.0
  0
VERTEX
  5
2787
  8
SAPA_PROFIL
 10
19.99999999999886
 20
21.63397459621569
 30
0.0
 42
-0.267949192431143
  0
VERTEX
  5
2788
  8
SAPA_PROFIL
 10
20.24999999999886
 20
22.066987298107961
 30
0.0
 42
0.767326987978956
  0
VERTEX
  5
2789
  8
SAPA_PROFIL
 10
19.99999999999886
 20
23.000000000000231
 30
0.0
  0
VERTEX
  5
278A
  8
SAPA_PROFIL
 10
-15.00000000000113
 20
23.000000000000231
 30
0.0
 42
0.4142135623730951
  0
VERTEX
  5
278B
  8
SAPA_PROFIL
 10
-16.00000000000114
 20
22.000000000000231
 30
0.0
  0
VERTEX
  5
278C
  8
SAPA_PROFIL
 10
-16.00000000000114
 20
17.600000000000129
 30
0.0
 42
-0.4142135623730951
  0
VERTEX
  5
278D
  8
SAPA_PROFIL
 10
-16.300000000001091
 20
17.300000000000178
 30
0.0
  0
VERTEX
  5
278E
  8
SAPA_PROFIL
 10
-18.600000000001039
 20
17.300000000000178
 30
0.0
 42
-0.4142135623730951
  0
VERTEX
  5
278F
  8
SAPA_PROFIL
 10
-18.900000000001
 20
17.600000000000129
 30
0.0
  0
VERTEX
  5
2790
  8
SAPA_PROFIL
 10
-18.900000000001
 20
18.100000000000129
 30
0.0
 42
-0.4142135623730951
  0
VERTEX
  5
2791
  8
SAPA_PROFIL
 10
-18.600000000001039
 20
18.400000000000318
 30
0.0
  0
VERTEX
  5
2792
  8
SAPA_PROFIL
 10
-18.263373075366641
 20
18.400000000000318
 30
0.0
 42
0.5535245743249297
  0
VERTEX
  5
2793
  8
SAPA_PROFIL
 10
-20.03589239787652
 20
22.71055421153164
 30
0.0
  0
VERTEX
  5
2794
  8
SAPA_PROFIL
 10
-20.32322330470447
 20
22.42322330470347
 30
0.0
 42
-0.4142135623730243
  0
VERTEX
  5
2795
  8
SAPA_PROFIL
 10
-20.67677669529758
 20
22.423223304703701
 30
0.0
  0
VERTEX
  5
2796
  8
SAPA_PROFIL
 10
-20.96410760212553
 20
22.71055421153164
 30
0.0
 42
0.5535245743249292
  0
VERTEX
  5
2797
  8
SAPA_PROFIL
 10
-22.73662692463563
 20
18.400000000000318
 30
0.0
  0
VERTEX
  5
2798
  8
SAPA_PROFIL
 10
-22.400000000001
 20
18.400000000000318
 30
0.0
 42
-0.4142135623730951
  0
VERTEX
  5
2799
  8
SAPA_PROFIL
 10
-22.100000000001049
 20
18.100000000000129
 30
0.0
  0
VERTEX
  5
279A
  8
SAPA_PROFIL
 10
-22.100000000001049
 20
17.600000000000129
 30
0.0
 42
-0.4142135623730951
  0
VERTEX
  5
279B
  8
SAPA_PROFIL
 10
-22.400000000001
 20
17.300000000000178
 30
0.0
  0
VERTEX
  5
279C
  8
SAPA_PROFIL
 10
-23.50000000000114
 20
17.300000000000178
 30
0.0
 42
-0.4142135623730951
  0
VERTEX
  5
279D
  8
SAPA_PROFIL
 10
-25.00000000000114
 20
18.800000000000178
 30
0.0
  0
VERTEX
  5
279E
  8
SAPA_PROFIL
 10
-25.00000000000114
 20
21.780384757729511
 30
0.0
 42
-0.2679491924311188
  0
VERTEX
  5
279F
  8
SAPA_PROFIL
 10
-24.850000000001049
 20
22.040192378864958
 30
0.0
 42
0.7673269879789557
  0
VERTEX
  5
27A0
  8
SAPA_PROFIL
 10
-25.00000000000114
 20
22.600000000000129
 30
0.0
  0
VERTEX
  5
27A1
  8
SAPA_PROFIL
 10
-27.00000000000114
 20
22.599999999999909
 30
0.0
 42
0.4142137811865366
  0
VERTEX
  5
27A2
  8
SAPA_PROFIL
 10
-28.00000000000114
 20
21.600000747075459
 30
0.0
  0
VERTEX
  5
27A3
  8
SAPA_PROFIL
 10
-28.00000000000114
 20
-21.599999999999682
 30
0.0
 42
0.4142140000000124
  0
VERTEX
  5
27A4
  8
SAPA_PROFIL
 10
-27.00000000000114
 20
-22.599999999999682
 30
0.0
  0
VERTEX
  5
27A5
  8
SAPA_PROFIL
 10
-25.00000000000114
 20
-22.599999999999682
 30
0.0
 42
0.7673269879789457
  0
VERTEX
  5
27A6
  8
SAPA_PROFIL
 10
-24.850000000001049
 20
-22.0401923788645
 30
0.0
 42
-0.2679491924311191
  0
VERTEX
  5
27A7
  8
SAPA_PROFIL
 10
-25.00000000000114
 20
-21.780384757729049
 30
0.0
  0
VERTEX
  5
27A8
  8
SAPA_PROFIL
 10
-25.00000000000114
 20
-18.799999999999731
 30
0.0
 42
-0.4142135623730951
  0
VERTEX
  5
27A9
  8
SAPA_PROFIL
 10
-23.50000000000114
 20
-17.299999999999731
 30
0.0
  0
VERTEX
  5
27AA
  8
SAPA_PROFIL
 10
-22.400000000001
 20
-17.299999999999731
 30
0.0
 42
-0.4142135623730951
  0
VERTEX
  5
27AB
  8
SAPA_PROFIL
 10
-22.100000000001049
 20
-17.599999999999682
 30
0.0
  0
VERTEX
  5
27AC
  8
SAPA_PROFIL
 10
-22.100000000001049
 20
-18.099999999999682
 30
0.0
 42
-0.4142135623730951
  0
VERTEX
  5
27AD
  8
SAPA_PROFIL
 10
-22.400000000001
 20
-18.39999999999986
 30
0.0
  0
VERTEX
  5
27AE
  8
SAPA_PROFIL
 10
-22.73662692463563
 20
-18.39999999999986
 30
0.0
 42
0.5535245743249307
  0
VERTEX
  5
27AF
  8
SAPA_PROFIL
 10
-20.96410760212553
 20
-22.710554211531189
 30
0.0
  0
VERTEX
  5
27B0
  8
SAPA_PROFIL
 10
-20.67677669529758
 20
-22.423223304703239
 30
0.0
 42
-0.4142135623730951
  0
VERTEX
  5
27B1
  8
SAPA_PROFIL
 10
-20.32322330470447
 20
-22.423223304703239
 30
0.0
  0
VERTEX
  5
27B2
  8
SAPA_PROFIL
 10
-20.03589239787652
 20
-22.710554211531189
 30
0.0
 42
0.553524574324932
  0
VERTEX
  5
27B3
  8
SAPA_PROFIL
 10
-18.263373075366641
 20
-18.39999999999986
 30
0.0
  0
VERTEX
  5
27B4
  8
SAPA_PROFIL
 10
-18.600000000001039
 20
-18.39999999999986
 30
0.0
 42
-0.4142135623730951
  0
VERTEX
  5
27B5
  8
SAPA_PROFIL
 10
-18.900000000001
 20
-18.099999999999682
 30
0.0
  0
VERTEX
  5
27B6
  8
SAPA_PROFIL
 10
-18.900000000001
 20
-17.599999999999682
 30
0.0
 42
-0.4142135623730951
  0
VERTEX
  5
27B7
  8
SAPA_PROFIL
 10
-18.600000000001039
 20
-17.299999999999731
 30
0.0
  0
VERTEX
  5
27B8
  8
SAPA_PROFIL
 10
-16.300000000001091
 20
-17.299999999999731
 30
0.0
 42
-0.4142135623730951
  0
VERTEX
  5
27B9
  8
SAPA_PROFIL
 10
-16.00000000000114
 20
-17.599999999999682
 30
0.0
  0
VERTEX
  5
27BA
  8
SAPA_PROFIL
 10
-16.00000000000114
 20
-21.999999999999769
 30
0.0
 42
0.4142135623730951
  0
VERTEX
  5
27BB
  8
SAPA_PROFIL
 10
-15.00000000000113
 20
-22.999999999999769
 30
0.0
  0
VERTEX
  5
27BC
  8
SAPA_PROFIL
 10
19.99999999999886
 20
-22.999999999999769
 30
0.0
 42
0.7673269879789569
  0
VERTEX
  5
27BD
  8
SAPA_PROFIL
 10
20.24999999999886
 20
-22.066987298107509
 30
0.0
 42
-0.2679491924311163
  0
VERTEX
  5
27BE
  8
SAPA_PROFIL
 10
19.99999999999886
 20
-21.633974596215239
 30
0.0
  0
VERTEX
  5
27BF
  8
SAPA_PROFIL
 10
19.99999999999886
 20
-18.799999999999731
 30
0.0
 42
-0.4142135623730951
  0
VERTEX
  5
27C0
  8
SAPA_PROFIL
 10
21.49999999999886
 20
-17.299999999999731
 30
0.0
  0
VERTEX
  5
27C1
  8
SAPA_PROFIL
 10
22.599999999999
 20
-17.299999999999731
 30
0.0
 42
-0.4142135623730951
  0
VERTEX
  5
27C2
  8
SAPA_PROFIL
 10
22.899999999998961
 20
-17.599999999999682
 30
0.0
  0
VERTEX
  5
27C3
  8
SAPA_PROFIL
 10
22.899999999998961
 20
-18.099999999999682
 30
0.0
 42
-0.4142135623730951
  0
VERTEX
  5
27C4
  8
SAPA_PROFIL
 10
22.599999999999
 20
-18.39999999999986
 30
0.0
  0
VERTEX
  5
27C5
  8
SAPA_PROFIL
 10
22.26337307536437
 20
-18.39999999999986
 30
0.0
 42
0.5535245743249307
  0
VERTEX
  5
27C6
  8
SAPA_PROFIL
 10
24.035892397874481
 20
-22.710554211531189
 30
0.0
  0
VERTEX
  5
27C7
  8
SAPA_PROFIL
 10
24.32322330470242
 20
-22.423223304703239
 30
0.0
 42
-0.4142135623731068
  0
VERTEX
  5
27C8
  8
SAPA_PROFIL
 10
24.67677669529553
 20
-22.423223304703011
 30
0.0
  0
VERTEX
  5
27C9
  8
SAPA_PROFIL
 10
24.96410760212348
 20
-22.710554211531189
 30
0.0
 42
0.553524574324932
  0
VERTEX
  5
27CA
  8
SAPA_PROFIL
 10
26.736626924633359
 20
-18.39999999999986
 30
0.0
  0
VERTEX
  5
27CB
  8
SAPA_PROFIL
 10
26.399999999998961
 20
-18.39999999999986
 30
0.0
 42
-0.4142135623730951
  0
VERTEX
  5
27CC
  8
SAPA_PROFIL
 10
26.099999999999
 20
-18.099999999999682
 30
0.0
  0
VERTEX
  5
27CD
  8
SAPA_PROFIL
 10
26.099999999999
 20
-17.599999999999682
 30
0.0
 42
-0.4142135623730951
  0
VERTEX
  5
27CE
  8
SAPA_PROFIL
 10
26.399999999998961
 20
-17.299999999999731
 30
0.0
  0
VERTEX
  5
27CF
  8
SAPA_PROFIL
 10
28.699999999998909
 20
-17.299999999999731
 30
0.0
 42
-0.4142135623730951
  0
VERTEX
  5
27D0
  8
SAPA_PROFIL
 10
28.99999999999887
 20
-17.599999999999682
 30
0.0
  0
VERTEX
  5
27D1
  8
SAPA_PROFIL
 10
28.99999999999887
 20
-21.999999999999769
 30
0.0
 42
0.4142135623730951
  0
VERTEX
  5
27D2
  8
SAPA_PROFIL
 10
29.99999999999886
 20
-22.999999999999769
 30
0.0
  0
VERTEX
  5
27D3
  8
SAPA_PROFIL
 10
54.699999999998909
 20
-22.999999999999769
 30
0.0
 42
0.4142135623730951
  0
VERTEX
  5
27D4
  8
SAPA_PROFIL
 10
54.999999999998863
 20
-22.699999999999822
 30
0.0
  0
VERTEX
  5
27D5
  8
SAPA_PROFIL
 10
54.999999999998863
 20
-21.39999999999986
 30
0.0
 42
-0.4142135623730951
  0
VERTEX
  5
27D6
  8
SAPA_PROFIL
 10
55.299999999999052
 20
-21.099999999999682
 30
0.0
  0
VERTEX
  5
27D7
  8
SAPA_PROFIL
 10
55.875735931286947
 20
-21.099999999999682
 30
0.0
 42
-0.1989123673796752
  0
VERTEX
  5
27D8
  8
SAPA_PROFIL
 10
56.087867965642999
 20
-21.187867965643822
 30
0.0
  0
VERTEX
  5
27D9
  8
SAPA_PROFIL
 10
57.812132034355052
 20
-22.91213203435586
 30
0.0
 42
0.1989123673796057
  0
VERTEX
  5
27DA
  8
SAPA_PROFIL
 10
58.024264068710863
 20
-22.999999999999769
 30
0.0
  0
VERTEX
  5
27DB
  8
SAPA_PROFIL
 10
61.499999999998863
 20
-22.999999999999769
 30
0.0
 42
0.4142135623730951
  0
VERTEX
  5
27DC
  8
SAPA_PROFIL
 10
62.499999999998863
 20
-21.999999999999769
 30
0.0
  0
VERTEX
  5
27DD
  8
SAPA_PROFIL
 10
62.499999999998863
 20
22.000000000000231
 30
0.0
 42
0.4142135623730951
  0
VERTEX
  5
27DE
  8
SAPA_PROFIL
 10
61.499999999998863
 20
23.000000000000231
 30
0.0
  0
SEQEND
  5
27DF
  8
SAPA_PROFIL
  0
POLYLINE
  5
18DC
  8
SAPA_PROFIL
 66
     1
 10
0.0
 20
0.0
 30
0.0
 70
     1
  0
VERTEX
  5
27E0
  8
SAPA_PROFIL
 10
-30.00000000000114
 20
6.0000000000002274
 30
0.0
 42
-0.4142135623730951
  0
VERTEX
  5
27E1
  8
SAPA_PROFIL
 10
-31.00000000000114
 20
5.0000000000002274
 30
0.0
  0
VERTEX
  5
27E2
  8
SAPA_PROFIL
 10
-52.200000000000948
 20
5.0000000000002274
 30
0.0
 42
0.4142135623730951
  0
VERTEX
  5
27E3
  8
SAPA_PROFIL
 10
-52.50000000000113
 20
4.700000000000272
 30
0.0
  0
VERTEX
  5
27E4
  8
SAPA_PROFIL
 10
-52.50000000000113
 20
3.0757360000002332
 30
0.0
  0
VERTEX
  5
27E5
  8
SAPA_PROFIL
 10
-51.562132034356871
 20
2.2378679656442269
 30
0.0
 42
0.668178637919305
  0
VERTEX
  5
27E6
  8
SAPA_PROFIL
 10
-51.050000000001091
 20
2.450000000000272
 30
0.0
  0
VERTEX
  5
27E7
  8
SAPA_PROFIL
 10
-51.050000000001091
 20
2.700000000000272
 30
0.0
  0
VERTEX
  5
27E8
  8
SAPA_PROFIL
 10
-49.673765406424756
 20
2.1767196966982278
 30
0.0
 42
0.5450207798987201
  0
VERTEX
  5
27E9
  8
SAPA_PROFIL
 10
-49.250000000001137
 20
2.450000000000272
 30
0.0
  0
VERTEX
  5
27EA
  8
SAPA_PROFIL
 10
-49.250000000001137
 20
2.700000000000272
 30
0.0
  0
VERTEX
  5
27EB
  8
SAPA_PROFIL
 10
-47.873765406424567
 20
2.1767196966982278
 30
0.0
 42
0.5450207798987201
  0
VERTEX
  5
27EC
  8
SAPA_PROFIL
 10
-47.450000000000962
 20
2.450000000000272
 30
0.0
  0
VERTEX
  5
27ED
  8
SAPA_PROFIL
 10
-47.450000000000962
 20
2.700000000000272
 30
0.0
  0
VERTEX
  5
27EE
  8
SAPA_PROFIL
 10
-46.07376540642462
 20
2.1767196966982278
 30
0.0
 42
0.5450207798987342
  0
VERTEX
  5
27EF
  8
SAPA_PROFIL
 10
-45.650000000000993
 20
2.450000000000272
 30
0.0
  0
VERTEX
  5
27F0
  8
SAPA_PROFIL
 10
-45.650000000000993
 20
2.700000000000272
 30
0.0
  0
VERTEX
  5
27F1
  8
SAPA_PROFIL
 10
-44.273765406424673
 20
2.1767196966982278
 30
0.0
 42
0.5450207798987201
  0
VERTEX
  5
27F2
  8
SAPA_PROFIL
 10
-43.850000000001039
 20
2.450000000000272
 30
0.0
  0
VERTEX
  5
27F3
  8
SAPA_PROFIL
 10
-43.850000000001039
 20
2.700000000000272
 30
0.0
  0
VERTEX
  5
27F4
  8
SAPA_PROFIL
 10
-43.126282705194853
 20
2.4722372826161059
 30
0.0
 42
-0.2945484962563026
  0
VERTEX
  5
27F5
  8
SAPA_PROFIL
 10
-42.950048040246656
 20
2.1988824689378812
 30
0.0
  0
VERTEX
  5
27F6
  8
SAPA_PROFIL
 10
-42.950255222213173
 20
1.2642999377483191
 30
0.0
 42
0.3475954753796591
  0
VERTEX
  5
27F7
  8
SAPA_PROFIL
 10
-42.719501178044077
 20
0.9723265106783856
 30
0.0
 42
-0.790522909611319
  0
VERTEX
  5
27F8
  8
SAPA_PROFIL
 10
-42.71949097360357
 20
-0.973664089865224
 30
0.0
 42
0.3476065658631364
  0
VERTEX
  5
27F9
  8
SAPA_PROFIL
 10
-42.950241952335773
 20
-1.2656518108867649
 30
0.0
  0
VERTEX
  5
27FA
  8
SAPA_PROFIL
 10
-42.950095231626847
 20
-1.8499926620931999
 30
0.0
 42
-0.4102317530969976
  0
VERTEX
  5
27FB
  8
SAPA_PROFIL
 10
-43.245946879780369
 20
-2.1500282985855388
 30
0.0
 42
0.0712587206050384
  0
VERTEX
  5
27FC
  8
SAPA_PROFIL
 10
-43.329990804708579
 20
-2.1632556124550311
 30
0.0
  0
VERTEX
  5
27FD
  8
SAPA_PROFIL
 10
-44.750000000001137
 20
-2.6999999999998181
 30
0.0
  0
VERTEX
  5
27FE
  8
SAPA_PROFIL
 10
-44.750000000001137
 20
-2.4499999999998181
 30
0.0
 42
0.5450200690651619
  0
VERTEX
  5
27FF
  8
SAPA_PROFIL
 10
-45.173765000001133
 20
-2.17671899999982
 30
0.0
  0
VERTEX
  5
2800
  8
SAPA_PROFIL
 10
-46.550000000001091
 20
-2.6999999999998181
 30
0.0
  0
VERTEX
  5
2801
  8
SAPA_PROFIL
 10
-46.550000000000857
 20
-2.4499999999998181
 30
0.0
 42
0.545020069065176
  0
VERTEX
  5
2802
  8
SAPA_PROFIL
 10
-46.973765000001087
 20
-2.17671899999982
 30
0.0
  0
VERTEX
  5
2803
  8
SAPA_PROFIL
 10
-48.350000000001039
 20
-2.6999999999998181
 30
0.0
  0
VERTEX
  5
2804
  8
SAPA_PROFIL
 10
-48.350000000001039
 20
-2.4499999999998181
 30
0.0
 42
0.5450200690651692
  0
VERTEX
  5
2805
  8
SAPA_PROFIL
 10
-48.773765000001049
 20
-2.17671899999982
 30
0.0
  0
VERTEX
  5
2806
  8
SAPA_PROFIL
 10
-50.150000000001
 20
-2.6999999999998181
 30
0.0
  0
VERTEX
  5
2807
  8
SAPA_PROFIL
 10
-50.150000000001
 20
-2.1499999999998631
 30
0.0
  0
VERTEX
  5
2808
  8
SAPA_PROFIL
 10
-51.350000000001039
 20
-2.1499999999998631
 30
0.0
 42
0.1989123673797004
  0
VERTEX
  5
2809
  8
SAPA_PROFIL
 10
-51.562132000001156
 20
-2.2378679999997071
 30
0.0
  0
VERTEX
  5
280A
  8
SAPA_PROFIL
 10
-52.50000000000113
 20
-3.075735999999778
 30
0.0
  0
VERTEX
  5
280B
  8
SAPA_PROFIL
 10
-52.50000000000113
 20
-4.6999999999998181
 30
0.0
 42
0.4142135623730951
  0
VERTEX
  5
280C
  8
SAPA_PROFIL
 10
-52.200000000000948
 20
-4.9999999999997717
 30
0.0
  0
VERTEX
  5
280D
  8
SAPA_PROFIL
 10
-31.00000000000114
 20
-4.9999999999997717
 30
0.0
 42
-0.4142135623730951
  0
VERTEX
  5
280E
  8
SAPA_PROFIL
 10
-30.00000000000114
 20
-5.9999999999997717
 30
0.0
  0
VERTEX
  5
280F
  8
SAPA_PROFIL
 10
-30.00000000000114
 20
-14.19999999999982
 30
0.0
 42
-0.4142135623730951
  0
VERTEX
  5
2810
  8
SAPA_PROFIL
 10
-30.50000000000114
 20
-14.69999999999982
 30
0.0
  0
VERTEX
  5
2811
  8
SAPA_PROFIL
 10
-33.700000000000962
 20
-14.69999999999982
 30
0.0
 42
-0.4142135623730951
  0
VERTEX
  5
2812
  8
SAPA_PROFIL
 10
-34.200000000000962
 20
-14.19999999999982
 30
0.0
  0
VERTEX
  5
2813
  8
SAPA_PROFIL
 10
-34.200000000000962
 20
-11.299999999999731
 30
0.0
 42
0.4142135623730951
  0
VERTEX
  5
2814
  8
SAPA_PROFIL
 10
-34.500000000001137
 20
-10.999999999999771
 30
0.0
  0
VERTEX
  5
2815
  8
SAPA_PROFIL
 10
-35.200000000000948
 20
-10.999999999999771
 30
0.0
 42
0.4142135623730951
  0
VERTEX
  5
2816
  8
SAPA_PROFIL
 10
-35.500000000001137
 20
-11.299999999999731
 30
0.0
  0
VERTEX
  5
2817
  8
SAPA_PROFIL
 10
-35.500000000001137
 20
-17.999999999999769
 30
0.0
  0
VERTEX
  5
2818
  8
SAPA_PROFIL
 10
-35.035076580641999
 20
-18.586384015500471
 30
0.0
 42
0.7105995019814511
  0
VERTEX
  5
2819
  8
SAPA_PROFIL
 10
-34.500000000001137
 20
-18.39999999999986
 30
0.0
  0
VERTEX
  5
281A
  8
SAPA_PROFIL
 10
-34.500000000001137
 20
-16.499999999999769
 30
0.0
 42
-0.4142135623730951
  0
VERTEX
  5
281B
  8
SAPA_PROFIL
 10
-34.200000000000962
 20
-16.199999999999822
 30
0.0
  0
VERTEX
  5
281C
  8
SAPA_PROFIL
 10
-30.300000000001091
 20
-16.199999999999822
 30
0.0
 42
-0.4142135623730951
  0
VERTEX
  5
281D
  8
SAPA_PROFIL
 10
-30.00000000000114
 20
-16.499999999999769
 30
0.0
  0
VERTEX
  5
281E
  8
SAPA_PROFIL
 10
-30.00000000000114
 20
-23.199999999999822
 30
0.0
 42
-0.4142135623730951
  0
VERTEX
  5
281F
  8
SAPA_PROFIL
 10
-30.300000000001091
 20
-23.499999999999769
 30
0.0
  0
VERTEX
  5
2820
  8
SAPA_PROFIL
 10
-34.200000000000962
 20
-23.499999999999769
 30
0.0
 42
-0.4142135623730951
  0
VERTEX
  5
2821
  8
SAPA_PROFIL
 10
-34.500000000001137
 20
-23.199999999999822
 30
0.0
  0
VERTEX
  5
2822
  8
SAPA_PROFIL
 10
-34.500000000001137
 20
-21.999999999999769
 30
0.0
 42
0.7105990647993611
  0
VERTEX
  5
2823
  8
SAPA_PROFIL
 10
-35.035076000001027
 20
-21.81361599999968
 30
0.0
  0
VERTEX
  5
2824
  8
SAPA_PROFIL
 10
-35.500000000001137
 20
-22.39999999999986
 30
0.0
  0
VERTEX
  5
2825
  8
SAPA_PROFIL
 10
-35.500000000001137
 20
-24.699999999999822
 30
0.0
 42
0.4142135623730951
  0
VERTEX
  5
2826
  8
SAPA_PROFIL
 10
-35.200000000000948
 20
-24.999999999999769
 30
0.0
  0
VERTEX
  5
2827
  8
SAPA_PROFIL
 10
63.999999999998863
 20
-24.999999999999769
 30
0.0
 42
0.4142135623730951
  0
VERTEX
  5
2828
  8
SAPA_PROFIL
 10
64.499999999998863
 20
-24.499999999999769
 30
0.0
  0
VERTEX
  5
2829
  8
SAPA_PROFIL
 10
64.499999999998863
 20
24.500000000000231
 30
0.0
 42
0.4142135623730951
  0
VERTEX
  5
282A
  8
SAPA_PROFIL
 10
63.999999999998863
 20
25.000000000000231
 30
0.0
  0
VERTEX
  5
282B
  8
SAPA_PROFIL
 10
-35.200000000000948
 20
25.000000000000231
 30
0.0
 42
0.4142135623730951
  0
VERTEX
  5
282C
  8
SAPA_PROFIL
 10
-35.500000000001137
 20
24.700000000000269
 30
0.0
  0
VERTEX
  5
282D
  8
SAPA_PROFIL
 10
-35.500000000001137
 20
22.400000000000318
 30
0.0
  0
VERTEX
  5
282E
  8
SAPA_PROFIL
 10
-35.035076580641999
 20
21.81361598449962
 30
0.0
 42
0.7105995019814511
  0
VERTEX
  5
282F
  8
SAPA_PROFIL
 10
-34.500000000001137
 20
22.000000000000231
 30
0.0
  0
VERTEX
  5
2830
  8
SAPA_PROFIL
 10
-34.500000000001137
 20
23.200000000000269
 30
0.0
 42
-0.4142135623730951
  0
VERTEX
  5
2831
  8
SAPA_PROFIL
 10
-34.200000000000962
 20
23.500000000000231
 30
0.0
  0
VERTEX
  5
2832
  8
SAPA_PROFIL
 10
-30.300000000001091
 20
23.500000000000231
 30
0.0
 42
-0.4142135623730951
  0
VERTEX
  5
2833
  8
SAPA_PROFIL
 10
-30.00000000000114
 20
23.200000000000269
 30
0.0
  0
VERTEX
  5
2834
  8
SAPA_PROFIL
 10
-30.00000000000114
 20
16.500000000000231
 30
0.0
 42
-0.4142135623730951
  0
VERTEX
  5
2835
  8
SAPA_PROFIL
 10
-30.300000000001091
 20
16.200000000000269
 30
0.0
  0
VERTEX
  5
2836
  8
SAPA_PROFIL
 10
-34.200000000000962
 20
16.200000000000269
 30
0.0
 42
-0.4142135623730951
  0
VERTEX
  5
2837
  8
SAPA_PROFIL
 10
-34.500000000001137
 20
16.500000000000231
 30
0.0
  0
VERTEX
  5
2838
  8
SAPA_PROFIL
 10
-34.500000000001137
 20
18.400000000000318
 30
0.0
 42
0.7105995019814511
  0
VERTEX
  5
2839
  8
SAPA_PROFIL
 10
-35.035076580641999
 20
18.586384015500919
 30
0.0
  0
VERTEX
  5
283A
  8
SAPA_PROFIL
 10
-35.500000000001137
 20
18.000000000000231
 30
0.0
  0
VERTEX
  5
283B
  8
SAPA_PROFIL
 10
-35.500000000001137
 20
11.30000000000018
 30
0.0
 42
0.4142135623730951
  0
VERTEX
  5
283C
  8
SAPA_PROFIL
 10
-35.200000000000948
 20
11.00000000000022
 30
0.0
  0
VERTEX
  5
283D
  8
SAPA_PROFIL
 10
-34.500000000001137
 20
11.00000000000022
 30
0.0
 42
0.4142135623730951
  0
VERTEX
  5
283E
  8
SAPA_PROFIL
 10
-34.200000000000962
 20
11.30000000000018
 30
0.0
  0
VERTEX
  5
283F
  8
SAPA_PROFIL
 10
-34.200000000000962
 20
14.200000000000269
 30
0.0
 42
-0.4142135623730951
  0
VERTEX
  5
2840
  8
SAPA_PROFIL
 10
-33.700000000000962
 20
14.700000000000269
 30
0.0
  0
VERTEX
  5
2841
  8
SAPA_PROFIL
 10
-30.50000000000114
 20
14.700000000000269
 30
0.0
 42
-0.4142135623730951
  0
VERTEX
  5
2842
  8
SAPA_PROFIL
 10
-30.00000000000114
 20
14.200000000000269
 30
0.0
  0
SEQEND
  5
2843
  8
SAPA_PROFIL
  0
POLYLINE
  5
1914
  8
SAPA_GLAS
 66
     1
 10
0.0
 20
0.0
 30
0.0
  0
VERTEX
  5
2862
  8
SAPA_GLAS
 10
-76.49999999901118
 20
75.522593981594596
 30
0.0
  0
VERTEX
  5
2863
  8
SAPA_GLAS
 10
-76.499999999011649
 20
11.000967646493351
 30
0.0
  0
VERTEX
  5
2864
  8
SAPA_GLAS
 10
-82.499999999010967
 20
11.000967646493359
 30
0.0
  0
VERTEX
  5
2865
  8
SAPA_GLAS
 10
-82.499999999010953
 20
75.522593981594596
 30
0.0
  0
SEQEND
  5
2866
  8
SAPA_GLAS
  0
POLYLINE
  5
1915
  8
SAPA_GLAS
 66
     1
 10
0.0
 20
0.0
 30
0.0
 70
     1
  0
VERTEX
  5
2867
  8
SAPA_GLAS
 10
-67.502569095392914
 20
-162.99997618391069
 30
0.0
  0
VERTEX
  5
2868
  8
SAPA_GLAS
 10
-52.502569095392921
 20
-162.99997618391069
 30
0.0
  0
VERTEX
  5
2869
  8
SAPA_GLAS
 10
-52.502569095392921
 20
-152.99997618391069
 30
0.0
  0
VERTEX
  5
286A
  8
SAPA_GLAS
 10
-67.502569095392914
 20
-152.99997618391069
 30
0.0
  0
SEQEND
  5
286B
  8
SAPA_GLAS
  0
POLYLINE
  5
1916
  8
SAPA_GLAS
 66
     1
 10
0.0
 20
0.0
 30
0.0
 70
     1
  0
VERTEX
  5
286C
  8
SAPA_GLAS
 10
-48.502569095392907
 20
-162.99997618391069
 30
0.0
  0
VERTEX
  5
286D
  8
SAPA_GLAS
 10
-33.502569095392921
 20
-162.99997618391069
 30
0.0
  0
VERTEX
  5
286E
  8
SAPA_GLAS
 10
-33.502569095392921
 20
-152.99997618391069
 30
0.0
  0
VERTEX
  5
286F
  8
SAPA_GLAS
 10
-48.502569095392907
 20
-152.99997618391069
 30
0.0
  0
SEQEND
  5
2870
  8
SAPA_GLAS
  0
POLYLINE
  5
1917
  8
SAPA_GLAS
 66
     1
 10
0.0
 20
0.0
 30
0.0
  0
VERTEX
  5
2871
  8
SAPA_GLAS
 10
-48.502569095392928
 20
-182.99997618391049
 30
0.0
  0
VERTEX
  5
2872
  8
SAPA_GLAS
 10
-48.502569095392907
 20
-152.99997618391049
 30
0.0
  0
VERTEX
  5
2873
  8
SAPA_GLAS
 10
-52.502569095392921
 20
-152.99997618391049
 30
0.0
  0
VERTEX
  5
2874
  8
SAPA_GLAS
 10
-52.502569095392928
 20
-182.99997618391049
 30
0.0
  0
SEQEND
  5
2875
  8
SAPA_GLAS
  0
POLYLINE
  5
1918
  8
SAPA_GLAS
 66
     1
 10
0.0
 20
0.0
 30
0.0
  0
VERTEX
  5
2876
  8
SAPA_GLAS
 10
-27.502569095392921
 20
-182.99997618391049
 30
0.0
  0
VERTEX
  5
2877
  8
SAPA_GLAS
 10
-27.502569095392921
 20
-152.99997618391049
 30
0.0
  0
VERTEX
  5
2878
  8
SAPA_GLAS
 10
-33.502569095392921
 20
-152.99997618391049
 30
0.0
  0
VERTEX
  5
2879
  8
SAPA_GLAS
 10
-33.502569095392921
 20
-182.99997618391049
 30
0.0
  0
SEQEND
  5
287A
  8
SAPA_GLAS
  0
POLYLINE
  5
1919
  8
SAPA_GLAS
 66
     1
 10
0.0
 20
0.0
 30
0.0
  0
VERTEX
  5
287B
  8
SAPA_GLAS
 10
-73.502569095392928
 20
-182.99997618391049
 30
0.0
  0
VERTEX
  5
287C
  8
SAPA_GLAS
 10
-73.502569095392914
 20
-152.99997618391049
 30
0.0
  0
VERTEX
  5
287D
  8
SAPA_GLAS
 10
-67.502569095392914
 20
-152.99997618391049
 30
0.0
  0
VERTEX
  5
287E
  8
SAPA_GLAS
 10
-67.502569095392928
 20
-182.99997618391049
 30
0.0
  0
SEQEND
  5
287F
  8
SAPA_GLAS
  0
LINE
  5
1921
  8
SAPA_FYLLNING
 10
52.499999999998877
 20
26.000000000000259
 30
0.0
 11
52.499999999998828
 21
75.000000000000256
 31
0.0
  0
POLYLINE
  5
1922
  8
SAPA_FYLLNING
 66
     1
 10
0.0
 20
0.0
 30
0.0
  0
VERTEX
  5
288A
  8
SAPA_FYLLNING
 10
50.999999999998842
 20
75.000000000000256
 30
0.0
  0
VERTEX
  5
288B
  8
SAPA_FYLLNING
 10
50.999999999998828
 20
26.000000000000259
 30
0.0
  0
VERTEX
  5
288C
  8
SAPA_FYLLNING
 10
62.499999999998877
 20
26.000000000000259
 30
0.0
  0
VERTEX
  5
288D
  8
SAPA_FYLLNING
 10
62.499999999998892
 20
75.000000000000256
 30
0.0
  0
SEQEND
  5
288E
  8
SAPA_FYLLNING
  0
POLYLINE
  5
1923
  8
SAPA_FYLLNING
 66
     1
 10
0.0
 20
0.0
 30
0.0
  0
VERTEX
  5
288F
  8
SAPA_FYLLNING
 10
-44.291421355247529
 20
75.551914392872376
 30
0.0
  0
VERTEX
  5
2890
  8
SAPA_FYLLNING
 10
-44.29142135524755
 20
14.064434310390981
 30
0.0
  0
VERTEX
  5
2891
  8
SAPA_FYLLNING
 10
-36.29142135524755
 20
14.064434310390981
 30
0.0
  0
VERTEX
  5
2892
  8
SAPA_FYLLNING
 10
-36.291421355247543
 20
75.551914392872391
 30
0.0
  0
SEQEND
  5
2893
  8
SAPA_FYLLNING
  0
LINE
  5
192E
  8
SAPA_ISOLATOR
 10
-19.383797270178381
 20
-25.000017830782269
 30
0.0
 11
-19.383797270178381
 21
-31.194641597965191
 31
0.0
  0
LINE
  5
192F
  8
SAPA_ISOLATOR
 10
-44.57868055339015
 20
-25.000017830782269
 30
0.0
 11
-19.383797270178381
 21
-25.000017830782269
 31
0.0
  0
LINE
  5
1930
  8
SAPA_ISOLATOR
 10
-44.57868055339015
 20
-31.194641597966999
 30
0.0
 11
-44.57868055339015
 21
-25.000017830782269
 31
0.0
  0
LINE
  5
1931
  8
SAPA_ISOLATOR
 10
-19.383797270178381
 20
-31.200017830782262
 30
0.0
 11
-44.57868055339015
 21
-31.194641597966999
 31
0.0
  0
LINE
  5
1932
  8
SAPA_ISOLATOR
 10
-44.57868055339015
 20
-31.194641597966999
 30
0.0
 11
-19.383797270178381
 21
-25.000017830782269
 31
0.0
  0
LINE
  5
1933
  8
SAPA_ISOLATOR
 10
-19.383797270178381
 20
-31.21660513366772
 30
0.0
 11
-44.57868055339015
 21
-25.011228900852469
 31
0.0
  0
POLYLINE
  5
194E
  8
SAPA_FOGBAND
 62
     2
 10
-23.91119372360636
 20
-157.77376162995881
 30
0.0
 66
     1
 70
     8
  0
VERTEX
  8
SAPA_FOGBAND
  5
2B02
 10
-23.9112
 20
-157.774
 30
0.000000
  70
    32
  0
VERTEX
  8
SAPA_FOGBAND
  5
2B03
 10
-23.9799
 20
-157.771
 30
0.000000
  70
    32
  0
VERTEX
  8
SAPA_FOGBAND
  5
2B04
 10
-24.0484
 20
-157.763
 30
0.000000
  70
    32
  0
VERTEX
  8
SAPA_FOGBAND
  5
2B05
 10
-24.1166
 20
-157.750
 30
0.000000
  70
    32
  0
VERTEX
  8
SAPA_FOGBAND
  5
2B06
 10
-24.1843
 20
-157.732
 30
0.000000
  70
    32
  0
VERTEX
  8
SAPA_FOGBAND
  5
2B07
 10
-24.2514
 20
-157.709
 30
0.000000
  70
    32
  0
VERTEX
  8
SAPA_FOGBAND
  5
2B08
 10
-24.3176
 20
-157.680
 30
0.000000
  70
    32
  0
VERTEX
  8
SAPA_FOGBAND
  5
2B09
 10
-24.3828
 20
-157.647
 30
0.000000
  70
    32
  0
VERTEX
  8
SAPA_FOGBAND
  5
2B0A
 10
-24.4470
 20
-157.609
 30
0.000000
  70
    32
  0
VERTEX
  8
SAPA_FOGBAND
  5
2B0B
 10
-24.5098
 20
-157.566
 30
0.000000
  70
    32
  0
VERTEX
  8
SAPA_FOGBAND
  5
2B0C
 10
-24.5711
 20
-157.518
 30
0.000000
  70
    32
  0
VERTEX
  8
SAPA_FOGBAND
  5
2B0D
 10
-24.6309
 20
-157.465
 30
0.000000
  70
    32
  0
VERTEX
  8
SAPA_FOGBAND
  5
2B0E
 10
-24.6890
 20
-157.408
 30
0.000000
  70
    32
  0
VERTEX
  8
SAPA_FOGBAND
  5
2B0F
 10
-24.7452
 20
-157.347
 30
0.000000
  70
    32
  0
VERTEX
  8
SAPA_FOGBAND
  5
2B10
 10
-24.7993
 20
-157.282
 30
0.000000
  70
    32
  0
VERTEX
  8
SAPA_FOGBAND
  5
2B11
 10
-24.8514
 20
-157.212
 30
0.000000
  70
    32
  0
VERTEX
  8
SAPA_FOGBAND
  5
2B12
 10
-24.9011
 20
-157.139
 30
0.000000
  70
    32
  0
VERTEX
  8
SAPA_FOGBAND
  5
2B13
 10
-24.9485
 20
-157.062
 30
0.000000
  70
    32
  0
VERTEX
  8
SAPA_FOGBAND
  5
2B14
 10
-24.9934
 20
-156.981
 30
0.000000
  70
    32
  0
VERTEX
  8
SAPA_FOGBAND
  5
2B15
 10
-25.0357
 20
-156.897
 30
0.000000
  70
    32
  0
VERTEX
  8
SAPA_FOGBAND
  5
2B16
 10
-25.0753
 20
-156.810
 30
0.000000
  70
    32
  0
VERTEX
  8
SAPA_FOGBAND
  5
2B17
 10
-25.1120
 20
-156.720
 30
0.000000
  70
    32
  0
VERTEX
  8
SAPA_FOGBAND
  5
2B18
 10
-25.1459
 20
-156.628
 30
0.000000
  70
    32
  0
VERTEX
  8
SAPA_FOGBAND
  5
2B19
 10
-25.1768
 20
-156.533
 30
0.000000
  70
    32
  0
VERTEX
  8
SAPA_FOGBAND
  5
2B1A
 10
-25.2046
 20
-156.436
 30
0.000000
  70
    32
  0
VERTEX
  8
SAPA_FOGBAND
  5
2B1B
 10
-25.2294
 20
-156.336
 30
0.000000
  70
    32
  0
VERTEX
  8
SAPA_FOGBAND
  5
2B1C
 10
-25.2509
 20
-156.235
 30
0.000000
  70
    32
  0
VERTEX
  8
SAPA_FOGBAND
  5
2B1D
 10
-25.2692
 20
-156.133
 30
0.000000
  70
    32
  0
VERTEX
  8
SAPA_FOGBAND
  5
2B1E
 10
-25.2843
 20
-156.029
 30
0.000000
  70
    32
  0
VERTEX
  8
SAPA_FOGBAND
  5
2B1F
 10
-25.2960
 20
-155.924
 30
0.000000
  70
    32
  0
VERTEX
  8
SAPA_FOGBAND
  5
2B20
 10
-25.3045
 20
-155.818
 30
0.000000
  70
    32
  0
VERTEX
  8
SAPA_FOGBAND
  5
2B21
 10
-25.3095
 20
-155.712
 30
0.000000
  70
    32
  0
VERTEX
  8
SAPA_FOGBAND
  5
2B22
 10
-25.3112
 20
-155.606
 30
0.000000
  70
    32
  0
VERTEX
  8
SAPA_FOGBAND
  5
2B23
 10
-25.3095
 20
-155.500
 30
0.000000
  70
    32
  0
VERTEX
  8
SAPA_FOGBAND
  5
2B24
 10
-25.3045
 20
-155.393
 30
0.000000
  70
    32
  0
VERTEX
  8
SAPA_FOGBAND
  5
2B25
 10
-25.2960
 20
-155.288
 30
0.000000
  70
    32
  0
VERTEX
  8
SAPA_FOGBAND
  5
2B26
 10
-25.2843
 20
-155.183
 30
0.000000
  70
    32
  0
VERTEX
  8
SAPA_FOGBAND
  5
2B27
 10
-25.2692
 20
-155.079
 30
0.000000
  70
    32
  0
VERTEX
  8
SAPA_FOGBAND
  5
2B28
 10
-25.2509
 20
-154.977
 30
0.000000
  70
    32
  0
VERTEX
  8
SAPA_FOGBAND
  5
2B29
 10
-25.2294
 20
-154.876
 30
0.000000
  70
    32
  0
VERTEX
  8
SAPA_FOGBAND
  5
2B2A
 10
-25.2046
 20
-154.776
 30
0.000000
  70
    32
  0
VERTEX
  8
SAPA_FOGBAND
  5
2B2B
 10
-25.1768
 20
-154.679
 30
0.000000
  70
    32
  0
VERTEX
  8
SAPA_FOGBAND
  5
2B2C
 10
-25.1459
 20
-154.584
 30
0.000000
  70
    32
  0
VERTEX
  8
SAPA_FOGBAND
  5
2B2D
 10
-25.1120
 20
-154.492
 30
0.000000
  70
    32
  0
VERTEX
  8
SAPA_FOGBAND
  5
2B2E
 10
-25.0753
 20
-154.402
 30
0.000000
  70
    32
  0
VERTEX
  8
SAPA_FOGBAND
  5
2B2F
 10
-25.0357
 20
-154.315
 30
0.000000
  70
    32
  0
VERTEX
  8
SAPA_FOGBAND
  5
2B30
 10
-24.9934
 20
-154.231
 30
0.000000
  70
    32
  0
VERTEX
  8
SAPA_FOGBAND
  5
2B31
 10
-24.9485
 20
-154.150
 30
0.000000
  70
    32
  0
VERTEX
  8
SAPA_FOGBAND
  5
2B32
 10
-24.9011
 20
-154.073
 30
0.000000
  70
    32
  0
VERTEX
  8
SAPA_FOGBAND
  5
2B33
 10
-24.8514
 20
-154.000
 30
0.000000
  70
    32
  0
VERTEX
  8
SAPA_FOGBAND
  5
2B34
 10
-24.7993
 20
-153.930
 30
0.000000
  70
    32
  0
VERTEX
  8
SAPA_FOGBAND
  5
2B35
 10
-24.7452
 20
-153.865
 30
0.000000
  70
    32
  0
VERTEX
  8
SAPA_FOGBAND
  5
2B36
 10
-24.6890
 20
-153.804
 30
0.000000
  70
    32
  0
VERTEX
  8
SAPA_FOGBAND
  5
2B37
 10
-24.6309
 20
-153.747
 30
0.000000
  70
    32
  0
VERTEX
  8
SAPA_FOGBAND
  5
2B38
 10
-24.5711
 20
-153.694
 30
0.000000
  70
    32
  0
VERTEX
  8
SAPA_FOGBAND
  5
2B39
 10
-24.5098
 20
-153.646
 30
0.000000
  70
    32
  0
VERTEX
  8
SAPA_FOGBAND
  5
2B3A
 10
-24.4470
 20
-153.603
 30
0.000000
  70
    32
  0
VERTEX
  8
SAPA_FOGBAND
  5
2B3B
 10
-24.3828
 20
-153.565
 30
0.000000
  70
    32
  0
VERTEX
  8
SAPA_FOGBAND
  5
2B3C
 10
-24.3176
 20
-153.532
 30
0.000000
  70
    32
  0
VERTEX
  8
SAPA_FOGBAND
  5
2B3D
 10
-24.2514
 20
-153.503
 30
0.000000
  70
    32
  0
VERTEX
  8
SAPA_FOGBAND
  5
2B3E
 10
-24.1843
 20
-153.480
 30
0.000000
  70
    32
  0
VERTEX
  8
SAPA_FOGBAND
  5
2B3F
 10
-24.1166
 20
-153.462
 30
0.000000
  70
    32
  0
VERTEX
  8
SAPA_FOGBAND
  5
2B40
 10
-24.0484
 20
-153.449
 30
0.000000
  70
    32
  0
VERTEX
  8
SAPA_FOGBAND
  5
2B41
 10
-23.9799
 20
-153.441
 30
0.000000
  70
    32
  0
VERTEX
  8
SAPA_FOGBAND
  5
2B42
 10
-23.9112
 20
-153.438
 30
0.000000
  70
    32
  0
VERTEX
  8
SAPA_FOGBAND
  5
2B43
 10
-23.8425
 20
-153.441
 30
0.000000
  70
    32
  0
VERTEX
  8
SAPA_FOGBAND
  5
2B44
 10
-23.7740
 20
-153.449
 30
0.000000
  70
    32
  0
VERTEX
  8
SAPA_FOGBAND
  5
2B45
 10
-23.7058
 20
-153.462
 30
0.000000
  70
    32
  0
VERTEX
  8
SAPA_FOGBAND
  5
2B46
 10
-23.6381
 20
-153.480
 30
0.000000
  70
    32
  0
VERTEX
  8
SAPA_FOGBAND
  5
2B47
 10
-23.5710
 20
-153.503
 30
0.000000
  70
    32
  0
VERTEX
  8
SAPA_FOGBAND
  5
2B48
 10
-23.5048
 20
-153.532
 30
0.000000
  70
    32
  0
VERTEX
  8
SAPA_FOGBAND
  5
2B49
 10
-23.4395
 20
-153.565
 30
0.000000
  70
    32
  0
VERTEX
  8
SAPA_FOGBAND
  5
2B4A
 10
-23.3754
 20
-153.603
 30
0.000000
  70
    32
  0
VERTEX
  8
SAPA_FOGBAND
  5
2B4B
 10
-23.3126
 20
-153.646
 30
0.000000
  70
    32
  0
VERTEX
  8
SAPA_FOGBAND
  5
2B4C
 10
-23.2512
 20
-153.694
 30
0.000000
  70
    32
  0
VERTEX
  8
SAPA_FOGBAND
  5
2B4D
 10
-23.1914
 20
-153.747
 30
0.000000
  70
    32
  0
VERTEX
  8
SAPA_FOGBAND
  5
2B4E
 10
-23.1334
 20
-153.804
 30
0.000000
  70
    32
  0
VERTEX
  8
SAPA_FOGBAND
  5
2B4F
 10
-23.0772
 20
-153.865
 30
0.000000
  70
    32
  0
VERTEX
  8
SAPA_FOGBAND
  5
2B50
 10
-23.0230
 20
-153.930
 30
0.000000
  70
    32
  0
VERTEX
  8
SAPA_FOGBAND
  5
2B51
 10
-22.9710
 20
-154.000
 30
0.000000
  70
    32
  0
VERTEX
  8
SAPA_FOGBAND
  5
2B52
 10
-22.9212
 20
-154.073
 30
0.000000
  70
    32
  0
VERTEX
  8
SAPA_FOGBAND
  5
2B53
 10
-22.8739
 20
-154.150
 30
0.000000
  70
    32
  0
VERTEX
  8
SAPA_FOGBAND
  5
2B54
 10
-22.8290
 20
-154.231
 30
0.000000
  70
    32
  0
VERTEX
  8
SAPA_FOGBAND
  5
2B55
 10
-22.7867
 20
-154.315
 30
0.000000
  70
    32
  0
VERTEX
  8
SAPA_FOGBAND
  5
2B56
 10
-22.7471
 20
-154.402
 30
0.000000
  70
    32
  0
VERTEX
  8
SAPA_FOGBAND
  5
2B57
 10
-22.7104
 20
-154.492
 30
0.000000
  70
    32
  0
VERTEX
  8
SAPA_FOGBAND
  5
2B58
 10
-22.6765
 20
-154.584
 30
0.000000
  70
    32
  0
VERTEX
  8
SAPA_FOGBAND
  5
2B59
 10
-22.6456
 20
-154.679
 30
0.000000
  70
    32
  0
VERTEX
  8
SAPA_FOGBAND
  5
2B5A
 10
-22.6178
 20
-154.776
 30
0.000000
  70
    32
  0
VERTEX
  8
SAPA_FOGBAND
  5
2B5B
 10
-22.5930
 20
-154.876
 30
0.000000
  70
    32
  0
VERTEX
  8
SAPA_FOGBAND
  5
2B5C
 10
-22.5715
 20
-154.977
 30
0.000000
  70
    32
  0
VERTEX
  8
SAPA_FOGBAND
  5
2B5D
 10
-22.5531
 20
-155.079
 30
0.000000
  70
    32
  0
VERTEX
  8
SAPA_FOGBAND
  5
2B5E
 10
-22.5381
 20
-155.183
 30
0.000000
  70
    32
  0
VERTEX
  8
SAPA_FOGBAND
  5
2B5F
 10
-22.5263
 20
-155.288
 30
0.000000
  70
    32
  0
VERTEX
  8
SAPA_FOGBAND
  5
2B60
 10
-22.5179
 20
-155.393
 30
0.000000
  70
    32
  0
VERTEX
  8
SAPA_FOGBAND
  5
2B61
 10
-22.5129
 20
-155.500
 30
0.000000
  70
    32
  0
VERTEX
  8
SAPA_FOGBAND
  5
2B62
 10
-22.5112
 20
-155.606
 30
0.000000
  70
    32
  0
VERTEX
  8
SAPA_FOGBAND
  5
2B63
 10
-22.5129
 20
-155.712
 30
0.000000
  70
    32
  0
VERTEX
  8
SAPA_FOGBAND
  5
2B64
 10
-22.5179
 20
-155.818
 30
0.000000
  70
    32
  0
VERTEX
  8
SAPA_FOGBAND
  5
2B65
 10
-22.5263
 20
-155.924
 30
0.000000
  70
    32
  0
VERTEX
  8
SAPA_FOGBAND
  5
2B66
 10
-22.5381
 20
-156.029
 30
0.000000
  70
    32
  0
VERTEX
  8
SAPA_FOGBAND
  5
2B67
 10
-22.5531
 20
-156.133
 30
0.000000
  70
    32
  0
VERTEX
  8
SAPA_FOGBAND
  5
2B68
 10
-22.5715
 20
-156.235
 30
0.000000
  70
    32
  0
VERTEX
  8
SAPA_FOGBAND
  5
2B69
 10
-22.5930
 20
-156.336
 30
0.000000
  70
    32
  0
VERTEX
  8
SAPA_FOGBAND
  5
2B6A
 10
-22.6178
 20
-156.436
 30
0.000000
  70
    32
  0
VERTEX
  8
SAPA_FOGBAND
  5
2B6B
 10
-22.6456
 20
-156.533
 30
0.000000
  70
    32
  0
VERTEX
  8
SAPA_FOGBAND
  5
2B6C
 10
-22.6765
 20
-156.628
 30
0.000000
  70
    32
  0
VERTEX
  8
SAPA_FOGBAND
  5
2B6D
 10
-22.7104
 20
-156.720
 30
0.000000
  70
    32
  0
VERTEX
  8
SAPA_FOGBAND
  5
2B6E
 10
-22.7471
 20
-156.810
 30
0.000000
  70
    32
  0
VERTEX
  8
SAPA_FOGBAND
  5
2B6F
 10
-22.7867
 20
-156.897
 30
0.000000
  70
    32
  0
VERTEX
  8
SAPA_FOGBAND
  5
2B70
 10
-22.8290
 20
-156.981
 30
0.000000
  70
    32
  0
VERTEX
  8
SAPA_FOGBAND
  5
2B71
 10
-22.8739
 20
-157.062
 30
0.000000
  70
    32
  0
VERTEX
  8
SAPA_FOGBAND
  5
2B72
 10
-22.9212
 20
-157.139
 30
0.000000
  70
    32
  0
VERTEX
  8
SAPA_FOGBAND
  5
2B73
 10
-22.9710
 20
-157.212
 30
0.000000
  70
    32
  0
VERTEX
  8
SAPA_FOGBAND
  5
2B74
 10
-23.0230
 20
-157.282
 30
0.000000
  70
    32
  0
VERTEX
  8
SAPA_FOGBAND
  5
2B75
 10
-23.0772
 20
-157.347
 30
0.000000
  70
    32
  0
VERTEX
  8
SAPA_FOGBAND
  5
2B76
 10
-23.1334
 20
-157.408
 30
0.000000
  70
    32
  0
VERTEX
  8
SAPA_FOGBAND
  5
2B77
 10
-23.1914
 20
-157.465
 30
0.000000
  70
    32
  0
VERTEX
  8
SAPA_FOGBAND
  5
2B78
 10
-23.2512
 20
-157.518
 30
0.000000
  70
    32
  0
VERTEX
  8
SAPA_FOGBAND
  5
2B79
 10
-23.3126
 20
-157.566
 30
0.000000
  70
    32
  0
VERTEX
  8
SAPA_FOGBAND
  5
2B7A
 10
-23.3754
 20
-157.609
 30
0.000000
  70
    32
  0
VERTEX
  8
SAPA_FOGBAND
  5
2B7B
 10
-23.4395
 20
-157.647
 30
0.000000
  70
    32
  0
VERTEX
  8
SAPA_FOGBAND
  5
2B7C
 10
-23.5048
 20
-157.680
 30
0.000000
  70
    32
  0
VERTEX
  8
SAPA_FOGBAND
  5
2B7D
 10
-23.5710
 20
-157.709
 30
0.000000
  70
    32
  0
VERTEX
  8
SAPA_FOGBAND
  5
2B7E
 10
-23.6381
 20
-157.732
 30
0.000000
  70
    32
  0
VERTEX
  8
SAPA_FOGBAND
  5
2B7F
 10
-23.7058
 20
-157.750
 30
0.000000
  70
    32
  0
VERTEX
  8
SAPA_FOGBAND
  5
2B80
 10
-23.7740
 20
-157.763
 30
0.000000
  70
    32
  0
VERTEX
  8
SAPA_FOGBAND
  5
2B81
 10
-23.8425
 20
-157.771
 30
0.000000
  70
    32
  0
VERTEX
  8
SAPA_FOGBAND
  5
2B82
 10
-23.9112
 20
-157.774
 30
0.000000
  70
    32
  0
SEQEND
  8
SAPA_FOGBAND
  5
2B83
  0
POLYLINE
  5
194F
  8
SAPA_FOGBAND
 62
     2
 10
-22.17640770087343
 20
-167.29116448900984
 30
0.0
 66
     1
 70
     8
  0
VERTEX
  8
SAPA_FOGBAND
  5
2B84
 10
-22.1764
 20
-167.291
 30
0.000000
  70
    32
  0
VERTEX
  8
SAPA_FOGBAND
  5
2B85
 10
-22.2647
 20
-167.287
 30
0.000000
  70
    32
  0
VERTEX
  8
SAPA_FOGBAND
  5
2B86
 10
-22.3528
 20
-167.276
 30
0.000000
  70
    32
  0
VERTEX
  8
SAPA_FOGBAND
  5
2B87
 10
-22.4405
 20
-167.258
 30
0.000000
  70
    32
  0
VERTEX
  8
SAPA_FOGBAND
  5
2B88
 10
-22.5276
 20
-167.232
 30
0.000000
  70
    32
  0
VERTEX
  8
SAPA_FOGBAND
  5
2B89
 10
-22.6138
 20
-167.199
 30
0.000000
  70
    32
  0
VERTEX
  8
SAPA_FOGBAND
  5
2B8A
 10
-22.6989
 20
-167.158
 30
0.000000
  70
    32
  0
VERTEX
  8
SAPA_FOGBAND
  5
2B8B
 10
-22.7828
 20
-167.111
 30
0.000000
  70
    32
  0
VERTEX
  8
SAPA_FOGBAND
  5
2B8C
 10
-22.8652
 20
-167.056
 30
0.000000
  70
    32
  0
VERTEX
  8
SAPA_FOGBAND
  5
2B8D
 10
-22.9460
 20
-166.995
 30
0.000000
  70
    32
  0
VERTEX
  8
SAPA_FOGBAND
  5
2B8E
 10
-23.0249
 20
-166.927
 30
0.000000
  70
    32
  0
VERTEX
  8
SAPA_FOGBAND
  5
2B8F
 10
-23.1018
 20
-166.852
 30
0.000000
  70
    32
  0
VERTEX
  8
SAPA_FOGBAND
  5
2B90
 10
-23.1764
 20
-166.771
 30
0.000000
  70
    32
  0
VERTEX
  8
SAPA_FOGBAND
  5
2B91
 10
-23.2487
 20
-166.684
 30
0.000000
  70
    32
  0
VERTEX
  8
SAPA_FOGBAND
  5
2B92
 10
-23.3183
 20
-166.591
 30
0.000000
  70
    32
  0
VERTEX
  8
SAPA_FOGBAND
  5
2B93
 10
-23.3852
 20
-166.492
 30
0.000000
  70
    32
  0
VERTEX
  8
SAPA_FOGBAND
  5
2B94
 10
-23.4492
 20
-166.388
 30
0.000000
  70
    32
  0
VERTEX
  8
SAPA_FOGBAND
  5
2B95
 10
-23.5101
 20
-166.278
 30
0.000000
  70
    32
  0
VERTEX
  8
SAPA_FOGBAND
  5
2B96
 10
-23.5678
 20
-166.163
 30
0.000000
  70
    32
  0
VERTEX
  8
SAPA_FOGBAND
  5
2B97
 10
-23.6222
 20
-166.044
 30
0.000000
  70
    32
  0
VERTEX
  8
SAPA_FOGBAND
  5
2B98
 10
-23.6731
 20
-165.920
 30
0.000000
  70
    32
  0
VERTEX
  8
SAPA_FOGBAND
  5
2B99
 10
-23.7203
 20
-165.792
 30
0.000000
  70
    32
  0
VERTEX
  8
SAPA_FOGBAND
  5
2B9A
 10
-23.7639
 20
-165.660
 30
0.000000
  70
    32
  0
VERTEX
  8
SAPA_FOGBAND
  5
2B9B
 10
-23.8036
 20
-165.525
 30
0.000000
  70
    32
  0
VERTEX
  8
SAPA_FOGBAND
  5
2B9C
 10
-23.8394
 20
-165.387
 30
0.000000
  70
    32
  0
VERTEX
  8
SAPA_FOGBAND
  5
2B9D
 10
-23.8712
 20
-165.245
 30
0.000000
  70
    32
  0
VERTEX
  8
SAPA_FOGBAND
  5
2B9E
 10
-23.8989
 20
-165.102
 30
0.000000
  70
    32
  0
VERTEX
  8
SAPA_FOGBAND
  5
2B9F
 10
-23.9225
 20
-164.956
 30
0.000000
  70
    32
  0
VERTEX
  8
SAPA_FOGBAND
  5
2BA0
 10
-23.9418
 20
-164.808
 30
0.000000
  70
    32
  0
VERTEX
  8
SAPA_FOGBAND
  5
2BA1
 10
-23.9569
 20
-164.659
 30
0.000000
  70
    32
  0
VERTEX
  8
SAPA_FOGBAND
  5
2BA2
 10
-23.9677
 20
-164.508
 30
0.000000
  70
    32
  0
VERTEX
  8
SAPA_FOGBAND
  5
2BA3
 10
-23.9742
 20
-164.357
 30
0.000000
  70
    32
  0
VERTEX
  8
SAPA_FOGBAND
  5
2BA4
 10
-23.9764
 20
-164.206
 30
0.000000
  70
    32
  0
VERTEX
  8
SAPA_FOGBAND
  5
2BA5
 10
-23.9742
 20
-164.055
 30
0.000000
  70
    32
  0
VERTEX
  8
SAPA_FOGBAND
  5
2BA6
 10
-23.9677
 20
-163.904
 30
0.000000
  70
    32
  0
VERTEX
  8
SAPA_FOGBAND
  5
2BA7
 10
-23.9569
 20
-163.753
 30
0.000000
  70
    32
  0
VERTEX
  8
SAPA_FOGBAND
  5
2BA8
 10
-23.9418
 20
-163.604
 30
0.000000
  70
    32
  0
VERTEX
  8
SAPA_FOGBAND
  5
2BA9
 10
-23.9225
 20
-163.456
 30
0.000000
  70
    32
  0
VERTEX
  8
SAPA_FOGBAND
  5
2BAA
 10
-23.8989
 20
-163.310
 30
0.000000
  70
    32
  0
VERTEX
  8
SAPA_FOGBAND
  5
2BAB
 10
-23.8712
 20
-163.167
 30
0.000000
  70
    32
  0
VERTEX
  8
SAPA_FOGBAND
  5
2BAC
 10
-23.8394
 20
-163.025
 30
0.000000
  70
    32
  0
VERTEX
  8
SAPA_FOGBAND
  5
2BAD
 10
-23.8036
 20
-162.887
 30
0.000000
  70
    32
  0
VERTEX
  8
SAPA_FOGBAND
  5
2BAE
 10
-23.7639
 20
-162.752
 30
0.000000
  70
    32
  0
VERTEX
  8
SAPA_FOGBAND
  5
2BAF
 10
-23.7203
 20
-162.620
 30
0.000000
  70
    32
  0
VERTEX
  8
SAPA_FOGBAND
  5
2BB0
 10
-23.6731
 20
-162.492
 30
0.000000
  70
    32
  0
VERTEX
  8
SAPA_FOGBAND
  5
2BB1
 10
-23.6222
 20
-162.368
 30
0.000000
  70
    32
  0
VERTEX
  8
SAPA_FOGBAND
  5
2BB2
 10
-23.5678
 20
-162.249
 30
0.000000
  70
    32
  0
VERTEX
  8
SAPA_FOGBAND
  5
2BB3
 10
-23.5101
 20
-162.134
 30
0.000000
  70
    32
  0
VERTEX
  8
SAPA_FOGBAND
  5
2BB4
 10
-23.4492
 20
-162.024
 30
0.000000
  70
    32
  0
VERTEX
  8
SAPA_FOGBAND
  5
2BB5
 10
-23.3852
 20
-161.920
 30
0.000000
  70
    32
  0
VERTEX
  8
SAPA_FOGBAND
  5
2BB6
 10
-23.3183
 20
-161.821
 30
0.000000
  70
    32
  0
VERTEX
  8
SAPA_FOGBAND
  5
2BB7
 10
-23.2487
 20
-161.728
 30
0.000000
  70
    32
  0
VERTEX
  8
SAPA_FOGBAND
  5
2BB8
 10
-23.1764
 20
-161.641
 30
0.000000
  70
    32
  0
VERTEX
  8
SAPA_FOGBAND
  5
2BB9
 10
-23.1018
 20
-161.560
 30
0.000000
  70
    32
  0
VERTEX
  8
SAPA_FOGBAND
  5
2BBA
 10
-23.0249
 20
-161.485
 30
0.000000
  70
    32
  0
VERTEX
  8
SAPA_FOGBAND
  5
2BBB
 10
-22.9460
 20
-161.417
 30
0.000000
  70
    32
  0
VERTEX
  8
SAPA_FOGBAND
  5
2BBC
 10
-22.8652
 20
-161.356
 30
0.000000
  70
    32
  0
VERTEX
  8
SAPA_FOGBAND
  5
2BBD
 10
-22.7828
 20
-161.301
 30
0.000000
  70
    32
  0
VERTEX
  8
SAPA_FOGBAND
  5
2BBE
 10
-22.6989
 20
-161.254
 30
0.000000
  70
    32
  0
VERTEX
  8
SAPA_FOGBAND
  5
2BBF
 10
-22.6138
 20
-161.213
 30
0.000000
  70
    32
  0
VERTEX
  8
SAPA_FOGBAND
  5
2BC0
 10
-22.5276
 20
-161.180
 30
0.000000
  70
    32
  0
VERTEX
  8
SAPA_FOGBAND
  5
2BC1
 10
-22.4405
 20
-161.154
 30
0.000000
  70
    32
  0
VERTEX
  8
SAPA_FOGBAND
  5
2BC2
 10
-22.3528
 20
-161.136
 30
0.000000
  70
    32
  0
VERTEX
  8
SAPA_FOGBAND
  5
2BC3
 10
-22.2647
 20
-161.124
 30
0.000000
  70
    32
  0
VERTEX
  8
SAPA_FOGBAND
  5
2BC4
 10
-22.1764
 20
-161.121
 30
0.000000
  70
    32
  0
VERTEX
  8
SAPA_FOGBAND
  5
2BC5
 10
-22.0881
 20
-161.124
 30
0.000000
  70
    32
  0
VERTEX
  8
SAPA_FOGBAND
  5
2BC6
 10
-22.0000
 20
-161.136
 30
0.000000
  70
    32
  0
VERTEX
  8
SAPA_FOGBAND
  5
2BC7
 10
-21.9123
 20
-161.154
 30
0.000000
  70
    32
  0
VERTEX
  8
SAPA_FOGBAND
  5
2BC8
 10
-21.8252
 20
-161.180
 30
0.000000
  70
    32
  0
VERTEX
  8
SAPA_FOGBAND
  5
2BC9
 10
-21.7390
 20
-161.213
 30
0.000000
  70
    32
  0
VERTEX
  8
SAPA_FOGBAND
  5
2BCA
 10
-21.6539
 20
-161.254
 30
0.000000
  70
    32
  0
VERTEX
  8
SAPA_FOGBAND
  5
2BCB
 10
-21.5700
 20
-161.301
 30
0.000000
  70
    32
  0
VERTEX
  8
SAPA_FOGBAND
  5
2BCC
 10
-21.4876
 20
-161.356
 30
0.000000
  70
    32
  0
VERTEX
  8
SAPA_FOGBAND
  5
2BCD
 10
-21.4068
 20
-161.417
 30
0.000000
  70
    32
  0
VERTEX
  8
SAPA_FOGBAND
  5
2BCE
 10
-21.3279
 20
-161.485
 30
0.000000
  70
    32
  0
VERTEX
  8
SAPA_FOGBAND
  5
2BCF
 10
-21.2510
 20
-161.560
 30
0.000000
  70
    32
  0
VERTEX
  8
SAPA_FOGBAND
  5
2BD0
 10
-21.1764
 20
-161.641
 30
0.000000
  70
    32
  0
VERTEX
  8
SAPA_FOGBAND
  5
2BD1
 10
-21.1041
 20
-161.728
 30
0.000000
  70
    32
  0
VERTEX
  8
SAPA_FOGBAND
  5
2BD2
 10
-21.0345
 20
-161.821
 30
0.000000
  70
    32
  0
VERTEX
  8
SAPA_FOGBAND
  5
2BD3
 10
-20.9676
 20
-161.920
 30
0.000000
  70
    32
  0
VERTEX
  8
SAPA_FOGBAND
  5
2BD4
 10
-20.9036
 20
-162.024
 30
0.000000
  70
    32
  0
VERTEX
  8
SAPA_FOGBAND
  5
2BD5
 10
-20.8427
 20
-162.134
 30
0.000000
  70
    32
  0
VERTEX
  8
SAPA_FOGBAND
  5
2BD6
 10
-20.7850
 20
-162.249
 30
0.000000
  70
    32
  0
VERTEX
  8
SAPA_FOGBAND
  5
2BD7
 10
-20.7306
 20
-162.368
 30
0.000000
  70
    32
  0
VERTEX
  8
SAPA_FOGBAND
  5
2BD8
 10
-20.6798
 20
-162.492
 30
0.000000
  70
    32
  0
VERTEX
  8
SAPA_FOGBAND
  5
2BD9
 10
-20.6325
 20
-162.620
 30
0.000000
  70
    32
  0
VERTEX
  8
SAPA_FOGBAND
  5
2BDA
 10
-20.5889
 20
-162.752
 30
0.000000
  70
    32
  0
VERTEX
  8
SAPA_FOGBAND
  5
2BDB
 10
-20.5492
 20
-162.887
 30
0.000000
  70
    32
  0
VERTEX
  8
SAPA_FOGBAND
  5
2BDC
 10
-20.5134
 20
-163.025
 30
0.000000
  70
    32
  0
VERTEX
  8
SAPA_FOGBAND
  5
2BDD
 10
-20.4816
 20
-163.167
 30
0.000000
  70
    32
  0
VERTEX
  8
SAPA_FOGBAND
  5
2BDE
 10
-20.4539
 20
-163.310
 30
0.000000
  70
    32
  0
VERTEX
  8
SAPA_FOGBAND
  5
2BDF
 10
-20.4304
 20
-163.456
 30
0.000000
  70
    32
  0
VERTEX
  8
SAPA_FOGBAND
  5
2BE0
 10
-20.4110
 20
-163.604
 30
0.000000
  70
    32
  0
VERTEX
  8
SAPA_FOGBAND
  5
2BE1
 10
-20.3959
 20
-163.753
 30
0.000000
  70
    32
  0
VERTEX
  8
SAPA_FOGBAND
  5
2BE2
 10
-20.3851
 20
-163.904
 30
0.000000
  70
    32
  0
VERTEX
  8
SAPA_FOGBAND
  5
2BE3
 10
-20.3786
 20
-164.055
 30
0.000000
  70
    32
  0
VERTEX
  8
SAPA_FOGBAND
  5
2BE4
 10
-20.3764
 20
-164.206
 30
0.000000
  70
    32
  0
VERTEX
  8
SAPA_FOGBAND
  5
2BE5
 10
-20.3786
 20
-164.357
 30
0.000000
  70
    32
  0
VERTEX
  8
SAPA_FOGBAND
  5
2BE6
 10
-20.3851
 20
-164.508
 30
0.000000
  70
    32
  0
VERTEX
  8
SAPA_FOGBAND
  5
2BE7
 10
-20.3959
 20
-164.659
 30
0.000000
  70
    32
  0
VERTEX
  8
SAPA_FOGBAND
  5
2BE8
 10
-20.4110
 20
-164.808
 30
0.000000
  70
    32
  0
VERTEX
  8
SAPA_FOGBAND
  5
2BE9
 10
-20.4304
 20
-164.956
 30
0.000000
  70
    32
  0
VERTEX
  8
SAPA_FOGBAND
  5
2BEA
 10
-20.4539
 20
-165.102
 30
0.000000
  70
    32
  0
VERTEX
  8
SAPA_FOGBAND
  5
2BEB
 10
-20.4816
 20
-165.245
 30
0.000000
  70
    32
  0
VERTEX
  8
SAPA_FOGBAND
  5
2BEC
 10
-20.5134
 20
-165.387
 30
0.000000
  70
    32
  0
VERTEX
  8
SAPA_FOGBAND
  5
2BED
 10
-20.5492
 20
-165.525
 30
0.000000
  70
    32
  0
VERTEX
  8
SAPA_FOGBAND
  5
2BEE
 10
-20.5889
 20
-165.660
 30
0.000000
  70
    32
  0
VERTEX
  8
SAPA_FOGBAND
  5
2BEF
 10
-20.6325
 20
-165.792
 30
0.000000
  70
    32
  0
VERTEX
  8
SAPA_FOGBAND
  5
2BF0
 10
-20.6798
 20
-165.920
 30
0.000000
  70
    32
  0
VERTEX
  8
SAPA_FOGBAND
  5
2BF1
 10
-20.7306
 20
-166.044
 30
0.000000
  70
    32
  0
VERTEX
  8
SAPA_FOGBAND
  5
2BF2
 10
-20.7850
 20
-166.163
 30
0.000000
  70
    32
  0
VERTEX
  8
SAPA_FOGBAND
  5
2BF3
 10
-20.8427
 20
-166.278
 30
0.000000
  70
    32
  0
VERTEX
  8
SAPA_FOGBAND
  5
2BF4
 10
-20.9036
 20
-166.388
 30
0.000000
  70
    32
  0
VERTEX
  8
SAPA_FOGBAND
  5
2BF5
 10
-20.9676
 20
-166.492
 30
0.000000
  70
    32
  0
VERTEX
  8
SAPA_FOGBAND
  5
2BF6
 10
-21.0345
 20
-166.591
 30
0.000000
  70
    32
  0
VERTEX
  8
SAPA_FOGBAND
  5
2BF7
 10
-21.1041
 20
-166.684
 30
0.000000
  70
    32
  0
VERTEX
  8
SAPA_FOGBAND
  5
2BF8
 10
-21.1764
 20
-166.771
 30
0.000000
  70
    32
  0
VERTEX
  8
SAPA_FOGBAND
  5
2BF9
 10
-21.2510
 20
-166.852
 30
0.000000
  70
    32
  0
VERTEX
  8
SAPA_FOGBAND
  5
2BFA
 10
-21.3279
 20
-166.927
 30
0.000000
  70
    32
  0
VERTEX
  8
SAPA_FOGBAND
  5
2BFB
 10
-21.4068
 20
-166.995
 30
0.000000
  70
    32
  0
VERTEX
  8
SAPA_FOGBAND
  5
2BFC
 10
-21.4876
 20
-167.056
 30
0.000000
  70
    32
  0
VERTEX
  8
SAPA_FOGBAND
  5
2BFD
 10
-21.5700
 20
-167.111
 30
0.000000
  70
    32
  0
VERTEX
  8
SAPA_FOGBAND
  5
2BFE
 10
-21.6539
 20
-167.158
 30
0.000000
  70
    32
  0
VERTEX
  8
SAPA_FOGBAND
  5
2BFF
 10
-21.7390
 20
-167.199
 30
0.000000
  70
    32
  0
VERTEX
  8
SAPA_FOGBAND
  5
2C00
 10
-21.8252
 20
-167.232
 30
0.000000
  70
    32
  0
VERTEX
  8
SAPA_FOGBAND
  5
2C01
 10
-21.9123
 20
-167.258
 30
0.000000
  70
    32
  0
VERTEX
  8
SAPA_FOGBAND
  5
2C02
 10
-22.0000
 20
-167.276
 30
0.000000
  70
    32
  0
VERTEX
  8
SAPA_FOGBAND
  5
2C03
 10
-22.0881
 20
-167.287
 30
0.000000
  70
    32
  0
VERTEX
  8
SAPA_FOGBAND
  5
2C04
 10
-22.1764
 20
-167.291
 30
0.000000
  70
    32
  0
SEQEND
  8
SAPA_FOGBAND
  5
2C05
  0
POLYLINE
  5
1950
  8
SAPA_FOGBAND
 62
     2
 66
     1
 10
0.0
 20
0.0
 30
0.0
 70
     1
  0
VERTEX
  5
29B9
  8
SAPA_FOGBAND
 62
     2
 10
-27.47640770087343
 20
-156.76224953097071
 30
0.0
  0
VERTEX
  5
29BA
  8
SAPA_FOGBAND
 62
     2
 10
-27.47640770087343
 20
-170.44271418026941
 30
0.0
 42
0.427966335106886
  0
VERTEX
  5
29BB
  8
SAPA_FOGBAND
 62
     2
 10
-27.162395129514181
 20
-170.7423867479894
 30
0.0
  0
VERTEX
  5
29BC
  8
SAPA_FOGBAND
 62
     2
 10
-18.962395129514181
 20
-170.25608683990981
 30
0.0
 42
0.4005932428724212
  0
VERTEX
  5
29BD
  8
SAPA_FOGBAND
 62
     2
 10
-18.67640770087343
 20
-169.9564142721897
 30
0.0
  0
VERTEX
  5
29BE
  8
SAPA_FOGBAND
 62
     2
 10
-18.67640770087343
 20
-168.14271418026939
 30
0.0
  0
VERTEX
  5
29BF
  8
SAPA_FOGBAND
 62
     2
 10
-16.976407700873441
 20
-168.14271418026939
 30
0.0
 42
0.4142135623730951
  0
VERTEX
  5
29C0
  8
SAPA_FOGBAND
 62
     2
 10
-16.67640770087343
 20
-167.84271418026941
 30
0.0
  0
VERTEX
  5
29C1
  8
SAPA_FOGBAND
 62
     2
 10
-16.67640770087343
 20
-160.42393341664339
 30
0.0
 42
0.1379343940649207
  0
VERTEX
  5
29C2
  8
SAPA_FOGBAND
 62
     2
 10
-16.82298431572822
 20
-159.9027151075951
 30
0.0
  0
VERTEX
  5
29C3
  8
SAPA_FOGBAND
 62
     2
 10
-24.230202553636541
 20
-147.9821050257452
 30
0.0
 42
0.2613472755167645
  0
VERTEX
  5
29C4
  8
SAPA_FOGBAND
 62
     2
 10
-24.656914246209151
 20
-147.74271418026939
 30
0.0
  0
VERTEX
  5
29C5
  8
SAPA_FOGBAND
 62
     2
 10
-25.651610863372351
 20
-147.74271418026939
 30
0.0
 42
0.3915187749346393
  0
VERTEX
  5
29C6
  8
SAPA_FOGBAND
 62
     2
 10
-26.64856247737745
 20
-148.66469188004291
 30
0.0
  0
VERTEX
  5
29C7
  8
SAPA_FOGBAND
 62
     2
 10
-27.47488350787598
 20
-156.7232383808574
 30
0.0
 42
0.0195279011117891
  0
SEQEND
  5
29C8
  8
SAPA_FOGBAND
 62
     2
  0
CIRCLE
  5
1951
  8
SAPA_FOGBAND
 10
-84.637568177760954
 20
-18.616845196720298
 30
0.0
 40
0.2549509756796394
  0
INSERT
  5
1952
  8
SAPA_FOGBAND
  6
CONTINUOUS
  2
*U163
 10
0.0
 20
0.0
 30
0.0
1001
ACAD
1002
{
1000
R14_HATCH_DATA
1000
1952
1011
1.0
1021
0.0
1031
0.0
1021
0.0
1031
0.0
1011
0.0
1021
0.0
1031
0.0
1021
1.0
1031
0.0
1011
0.0
1021
0.0
1031
0.0
1021
0.0
1031
1.0
1040
0.0
1010
0.0
1020
0.0
1030
1.0
1000
SOLID
1070
     1
1070
     1
1071
        1
1071
        1
1071
        1
1070
     2
1040
-84.637568177760954
1040
-18.616845196720298
1040
0.2549509756796394
1040
-1.5707963267948959
1040
4.7123889803846888
1070
     0
1071
        1
1005
1951
1070
     0
1070
     1
1071
        1
1040
-84.555716680432056
1040
-18.853584098290408
1040
0.0
1002
}
  0
POLYLINE
  5
1953
  8
SAPA_FOGBAND
 66
     1
 10
0.0
 20
0.0
 30
0.0
 70
     1
  0
VERTEX
  5
29DA
  8
SAPA_FOGBAND
 10
-87.59999995700548
 20
-17.716845196720332
 30
0.0
 42
-0.9999999999999998
  0
VERTEX
  5
29DB
  8
SAPA_FOGBAND
 10
-87.59999995700548
 20
-19.516845196720279
 30
0.0
  0
VERTEX
  5
29DC
  8
SAPA_FOGBAND
 10
-88.199999957005502
 20
-19.516845196720279
 30
0.0
 42
-0.9999999999999998
  0
VERTEX
  5
29DD
  8
SAPA_FOGBAND
 10
-88.199999957005502
 20
-17.716845196720332
 30
0.0
  0
SEQEND
  5
29DE
  8
SAPA_FOGBAND
  0
POLYLINE
  5
1954
  8
SAPA_FOGBAND
 66
     1
 10
0.0
 20
0.0
 30
0.0
 70
     1
  0
VERTEX
  5
29DF
  8
SAPA_FOGBAND
 10
-82.499999957005457
 20
-27.244721504893509
 30
0.0
 42
-0.0775891054856093
  0
VERTEX
  5
29E0
  8
SAPA_FOGBAND
 10
-82.816635941066806
 20
-23.777939774470951
 30
0.0
  0
VERTEX
  5
29E1
  8
SAPA_FOGBAND
 10
-82.599999957005423
 20
-23.540050281642149
 30
0.0
 42
0.5773502691896298
  0
VERTEX
  5
29E2
  8
SAPA_FOGBAND
 10
-82.599999957005423
 20
-23.1936401201283
 30
0.0
  0
VERTEX
  5
29E3
  8
SAPA_FOGBAND
 10
-82.816909811228484
 20
-22.955592503397501
 30
0.0
  0
VERTEX
  5
29E4
  8
SAPA_FOGBAND
 10
-82.816909811228484
 20
-22.178097893480871
 30
0.0
  0
VERTEX
  5
29E5
  8
SAPA_FOGBAND
 10
-82.599999957005423
 20
-21.940050281642129
 30
0.0
 42
0.577350269189699
  0
VERTEX
  5
29E6
  8
SAPA_FOGBAND
 10
-82.599999957005423
 20
-21.593640120128381
 30
0.0
  0
VERTEX
  5
29E7
  8
SAPA_FOGBAND
 10
-82.816909811228484
 20
-21.355592503397592
 30
0.0
  0
VERTEX
  5
29E8
  8
SAPA_FOGBAND
 10
-82.816909811228484
 20
-20.578097893480841
 30
0.0
  0
VERTEX
  5
29E9
  8
SAPA_FOGBAND
 10
-82.599999957005423
 20
-20.34005028164211
 30
0.0
 42
0.577350269189699
  0
VERTEX
  5
29EA
  8
SAPA_FOGBAND
 10
-82.599999957005423
 20
-19.993640120128362
 30
0.0
  0
VERTEX
  5
29EB
  8
SAPA_FOGBAND
 10
-82.816909811228484
 20
-19.755592503397558
 30
0.0
  0
VERTEX
  5
29EC
  8
SAPA_FOGBAND
 10
-82.816909811228484
 20
-18.978097893480822
 30
0.0
  0
VERTEX
  5
29ED
  8
SAPA_FOGBAND
 10
-82.599999957005423
 20
-18.740050281642191
 30
0.0
 42
0.5773502691896298
  0
VERTEX
  5
29EE
  8
SAPA_FOGBAND
 10
-82.599999957005423
 20
-18.393640120128339
 30
0.0
  0
VERTEX
  5
29EF
  8
SAPA_FOGBAND
 10
-82.816909811228484
 20
-18.155592503397539
 30
0.0
  0
VERTEX
  5
29F0
  8
SAPA_FOGBAND
 10
-82.816909811228484
 20
-17.378097893480799
 30
0.0
  0
VERTEX
  5
29F1
  8
SAPA_FOGBAND
 10
-82.599999957005423
 20
-17.140050281642171
 30
0.0
 42
0.5773502691896298
  0
VERTEX
  5
29F2
  8
SAPA_FOGBAND
 10
-82.599999957005423
 20
-16.793640120128309
 30
0.0
  0
VERTEX
  5
29F3
  8
SAPA_FOGBAND
 10
-82.816909811228484
 20
-16.55559250339752
 30
0.0
  0
VERTEX
  5
29F4
  8
SAPA_FOGBAND
 10
-82.816909811228484
 20
-15.778097889315861
 30
0.0
  0
VERTEX
  5
29F5
  8
SAPA_FOGBAND
 10
-82.599999957005423
 20
-15.540050277477119
 30
0.0
 42
0.577350269189699
  0
VERTEX
  5
29F6
  8
SAPA_FOGBAND
 10
-82.599999957005423
 20
-15.193640115963371
 30
0.0
  0
VERTEX
  5
29F7
  8
SAPA_FOGBAND
 10
-83.673330025489918
 20
-14.39364011640828
 30
0.0
 42
0.1316524987190269
  0
VERTEX
  5
29F8
  8
SAPA_FOGBAND
 10
-83.773330026260624
 20
-14.3668451967203
 30
0.0
  0
VERTEX
  5
29F9
  8
SAPA_FOGBAND
 10
-86.299999957005426
 20
-14.36684519672019
 30
0.0
 42
0.4142135623730951
  0
VERTEX
  5
29FA
  8
SAPA_FOGBAND
 10
-86.499999957005457
 20
-14.56684519672023
 30
0.0
  0
VERTEX
  5
29FB
  8
SAPA_FOGBAND
 10
-86.499999957005457
 20
-16.616845196720298
 30
0.0
 42
-0.4142135623730951
  0
VERTEX
  5
29FC
  8
SAPA_FOGBAND
 10
-86.999999957005457
 20
-17.116845196720298
 30
0.0
  0
VERTEX
  5
29FD
  8
SAPA_FOGBAND
 10
-87.726794876248604
 20
-17.116845196720298
 30
0.0
  0
VERTEX
  5
29FE
  8
SAPA_FOGBAND
 10
-87.794254785559019
 20
-16.865081387699771
 30
0.0
 42
0.4740571810232869
  0
VERTEX
  5
29FF
  8
SAPA_FOGBAND
 10
-88.076537371197674
 20
-16.737787525336209
 30
0.0
  0
VERTEX
  5
2A00
  8
SAPA_FOGBAND
 10
-89.522743507957443
 20
-17.357888028094749
 30
0.0
 42
0.2846003776495916
  0
VERTEX
  5
2A01
  8
SAPA_FOGBAND
 10
-89.799999957005411
 20
-17.805532206554972
 30
0.0
  0
VERTEX
  5
2A02
  8
SAPA_FOGBAND
 10
-89.799999957005411
 20
-19.428158186885518
 30
0.0
 42
0.2846003776495917
  0
VERTEX
  5
2A03
  8
SAPA_FOGBAND
 10
-89.522743507957443
 20
-19.875802365345749
 30
0.0
  0
VERTEX
  5
2A04
  8
SAPA_FOGBAND
 10
-88.076537371197674
 20
-20.495902868104281
 30
0.0
 42
0.4740571810232869
  0
VERTEX
  5
2A05
  8
SAPA_FOGBAND
 10
-87.794254785559019
 20
-20.368609005740719
 30
0.0
  0
VERTEX
  5
2A06
  8
SAPA_FOGBAND
 10
-87.726794876248604
 20
-20.116845196720298
 30
0.0
  0
VERTEX
  5
2A07
  8
SAPA_FOGBAND
 10
-86.999999957005457
 20
-20.116845196720298
 30
0.0
 42
-0.4142135623730951
  0
VERTEX
  5
2A08
  8
SAPA_FOGBAND
 10
-86.499999957005457
 20
-20.616845196720309
 30
0.0
  0
VERTEX
  5
2A09
  8
SAPA_FOGBAND
 10
-86.499999957005457
 20
-23.66684519672026
 30
0.0
 42
-0.4142135623730951
  0
VERTEX
  5
2A0A
  8
SAPA_FOGBAND
 10
-86.699999957005502
 20
-23.866845196720298
 30
0.0
  0
VERTEX
  5
2A0B
  8
SAPA_FOGBAND
 10
-87.59999995700548
 20
-23.866845196720188
 30
0.0
 42
0.4142135623731784
  0
VERTEX
  5
2A0C
  8
SAPA_FOGBAND
 10
-87.799999957005397
 20
-24.066845196720241
 30
0.0
  0
VERTEX
  5
2A0D
  8
SAPA_FOGBAND
 10
-87.799999957005525
 20
-24.76684519672029
 30
0.0
 42
0.4142135623730398
  0
VERTEX
  5
2A0E
  8
SAPA_FOGBAND
 10
-87.499999957005457
 20
-25.066845196720241
 30
0.0
  0
VERTEX
  5
2A0F
  8
SAPA_FOGBAND
 10
-86.689488180353919
 20
-25.066845196720241
 30
0.0
 42
-0.1316524975873973
  0
VERTEX
  5
2A10
  8
SAPA_FOGBAND
 10
-85.689488180353919
 20
-25.334794389151401
 30
0.0
  0
VERTEX
  5
2A11
  8
SAPA_FOGBAND
 10
-83.099920188261976
 20
-30.49763953919182
 30
0.0
 42
0.7057658529986604
  0
VERTEX
  5
2A12
  8
SAPA_FOGBAND
 10
-82.499999957005457
 20
-30.23004636383348
 30
0.0
  0
SEQEND
  5
2A13
  8
SAPA_FOGBAND
  0
POLYLINE
  5
1955
  8
SAPA_FOGBAND
 66
     1
 10
0.0
 20
0.0
 30
0.0
 70
     1
  0
VERTEX
  5
2A14
  8
SAPA_FOGBAND
 10
-34.185369460357293
 20
-19.303393549382939
 30
0.0
 42
0.9999999999999998
  0
VERTEX
  5
2A15
  8
SAPA_FOGBAND
 10
-34.185369460357293
 20
-21.103393549382961
 30
0.0
  0
VERTEX
  5
2A16
  8
SAPA_FOGBAND
 10
-33.585369460357271
 20
-21.103393549382961
 30
0.0
 42
0.9999999999999998
  0
VERTEX
  5
2A17
  8
SAPA_FOGBAND
 10
-33.585369460357278
 20
-19.303393549382939
 30
0.0
  0
SEQEND
  5
2A18
  8
SAPA_FOGBAND
  0
POLYLINE
  5
1956
  8
SAPA_FOGBAND
 66
     1
 10
0.0
 20
0.0
 30
0.0
  0
VERTEX
  5
2A19
  8
SAPA_FOGBAND
 10
-35.799999957996107
 20
-23.803393549382939
 30
0.0
  0
VERTEX
  5
2A1A
  8
SAPA_FOGBAND
 10
-35.499999957996039
 20
-23.803393549382939
 30
0.0
  0
VERTEX
  5
2A1B
  8
SAPA_FOGBAND
 10
-35.799999957996107
 20
-23.803393549382939
 30
0.0
 42
-0.4142135623730951
  0
VERTEX
  5
2A1C
  8
SAPA_FOGBAND
 10
-36.299999957996107
 20
-23.30339354938295
 30
0.0
  0
VERTEX
  5
2A1D
  8
SAPA_FOGBAND
 10
-36.299999957996107
 20
-16.003393549382992
 30
0.0
 42
-0.4142135623730951
  0
VERTEX
  5
2A1E
  8
SAPA_FOGBAND
 10
-35.799999957996121
 20
-15.50339354938299
 30
0.0
  0
VERTEX
  5
2A1F
  8
SAPA_FOGBAND
 10
-35.499999957996053
 20
-15.50339354938299
 30
0.0
  0
SEQEND
  5
2A20
  8
SAPA_FOGBAND
  0
POLYLINE
  5
1957
  8
SAPA_FOGBAND
 66
     1
 10
0.0
 20
0.0
 30
0.0
 70
     1
  0
VERTEX
  5
2A21
  8
SAPA_FOGBAND
 10
-40.09999995799604
 20
-17.151678439679291
 30
0.0
  0
VERTEX
  5
2A22
  8
SAPA_FOGBAND
 10
-40.09999995799604
 20
-20.246322549005129
 30
0.0
 42
-1.024758115298622
  0
VERTEX
  5
2A23
  8
SAPA_FOGBAND
 10
-43.281531750781539
 20
-20.246322549005129
 30
0.0
  0
VERTEX
  5
2A24
  8
SAPA_FOGBAND
 10
-43.281531750781539
 20
-17.151678439679291
 30
0.0
 42
-0.9558128803175696
  0
SEQEND
  5
2A25
  8
SAPA_FOGBAND
  0
POLYLINE
  5
1958
  8
SAPA_FOGBAND
 66
     1
 10
0.0
 20
0.0
 30
0.0
 70
     1
  0
VERTEX
  5
2A26
  8
SAPA_FOGBAND
 10
-41.936054084741691
 20
-7.9203481005600009
 30
0.0
 42
0.6274939020253784
  0
VERTEX
  5
2A27
  8
SAPA_FOGBAND
 10
-43.494698578703421
 20
-7.9312729229931431
 30
0.0
  0
VERTEX
  5
2A28
  8
SAPA_FOGBAND
 10
-44.058441582626173
 20
-11.907132916357799
 30
0.0
 42
0.4459602482749359
  0
VERTEX
  5
2A29
  8
SAPA_FOGBAND
 10
-43.163604228393822
 20
-12.90339354938299
 30
0.0
  0
VERTEX
  5
2A2A
  8
SAPA_FOGBAND
 10
-40.440292903529112
 20
-12.90339354938299
 30
0.0
 42
0.6245270939358744
  0
VERTEX
  5
2A2B
  8
SAPA_FOGBAND
 10
-39.730537929718402
 20
-11.449996876867781
 30
0.0
  0
SEQEND
  5
2A2C
  8
SAPA_FOGBAND
  0
POLYLINE
  5
1959
  8
SAPA_FOGBAND
 66
     1
 10
0.0
 20
0.0
 30
0.0
 70
     1
  0
VERTEX
  5
2A2D
  8
SAPA_FOGBAND
 10
-34.058574541114162
 20
-18.70339354938298
 30
0.0
  0
VERTEX
  5
2A2E
  8
SAPA_FOGBAND
 10
-33.991114631803761
 20
-18.451629740362499
 30
0.0
 42
-0.4740571810232144
  0
VERTEX
  5
2A2F
  8
SAPA_FOGBAND
 10
-33.708832046165107
 20
-18.324335877998891
 30
0.0
  0
VERTEX
  5
2A30
  8
SAPA_FOGBAND
 10
-32.262625909405223
 20
-18.94443638075748
 30
0.0
 42
-0.2846003776496053
  0
VERTEX
  5
2A31
  8
SAPA_FOGBAND
 10
-31.985369460357251
 20
-19.392080559217639
 30
0.0
  0
VERTEX
  5
2A32
  8
SAPA_FOGBAND
 10
-31.985369460357251
 20
-21.014706539548261
 30
0.0
 42
-0.2846003776496027
  0
VERTEX
  5
2A33
  8
SAPA_FOGBAND
 10
-32.262625909405223
 20
-21.46235071800842
 30
0.0
  0
VERTEX
  5
2A34
  8
SAPA_FOGBAND
 10
-33.708832046165163
 20
-22.082451220767009
 30
0.0
 42
-0.4740571810232332
  0
VERTEX
  5
2A35
  8
SAPA_FOGBAND
 10
-33.991114631803747
 20
-21.955157358403451
 30
0.0
  0
VERTEX
  5
2A36
  8
SAPA_FOGBAND
 10
-34.058574541114162
 20
-21.70339354938298
 30
0.0
  0
VERTEX
  5
2A37
  8
SAPA_FOGBAND
 10
-34.999999957996039
 20
-21.70339354938298
 30
0.0
 42
0.4142135623730951
  0
VERTEX
  5
2A38
  8
SAPA_FOGBAND
 10
-35.499999957996039
 20
-22.20339354938298
 30
0.0
  0
VERTEX
  5
2A39
  8
SAPA_FOGBAND
 10
-35.499999957996103
 20
-24.715553712764429
 30
0.0
 42
-0.4027293761437467
  0
VERTEX
  5
2A3A
  8
SAPA_FOGBAND
 10
-35.788192595465397
 20
-25.015321266362299
 30
0.0
  0
VERTEX
  5
2A3B
  8
SAPA_FOGBAND
 10
-45.188192595465431
 20
-25.503161081031731
 30
0.0
 42
-0.4257917699693538
  0
VERTEX
  5
2A3C
  8
SAPA_FOGBAND
 10
-45.499999957996089
 20
-25.20339352743386
 30
0.0
  0
VERTEX
  5
2A3D
  8
SAPA_FOGBAND
 10
-45.499999957996103
 20
-11.497859868209989
 30
0.0
  0
VERTEX
  5
2A3E
  8
SAPA_FOGBAND
 10
-44.723465040313478
 20
-5.8947182704831143
 30
0.0
 42
-0.322530093016903
  0
VERTEX
  5
2A3F
  8
SAPA_FOGBAND
 10
-43.729387735207503
 20
-5.2033935274338443
 30
0.0
  0
VERTEX
  5
2A40
  8
SAPA_FOGBAND
 10
-42.498644178769929
 20
-5.2033935274338443
 30
0.0
 42
-0.2325311832130604
  0
VERTEX
  5
2A41
  8
SAPA_FOGBAND
 10
-42.102703314688107
 20
-5.3980562841270627
 30
0.0
  0
VERTEX
  5
2A42
  8
SAPA_FOGBAND
 10
-35.7081182298326
 20
-14.56461951203457
 30
0.0
 42
-0.1657205760184606
  0
VERTEX
  5
2A43
  8
SAPA_FOGBAND
 10
-35.499999957996053
 20
-15.175293998648179
 30
0.0
  0
VERTEX
  5
2A44
  8
SAPA_FOGBAND
 10
-35.499999957996053
 20
-18.20339354938298
 30
0.0
 42
0.4142135623730951
  0
VERTEX
  5
2A45
  8
SAPA_FOGBAND
 10
-34.999999957996053
 20
-18.70339354938298
 30
0.0
  0
SEQEND
  5
2A46
  8
SAPA_FOGBAND
  0
CIRCLE
  5
195A
  8
SAPA_FOGBAND
 10
-84.641571726353106
 20
18.679356795600139
 30
0.0
 40
0.2549509756796394
  0
INSERT
  5
195B
  8
SAPA_FOGBAND
  6
CONTINUOUS
  2
*U164
 10
0.0
 20
0.0
 30
0.0
1001
ACAD
1002
{
1000
R14_HATCH_DATA
1000
195B
1011
1.0
1021
0.0
1031
0.0
1021
0.0
1031
0.0
1011
0.0
1021
0.0
1031
0.0
1021
1.0
1031
0.0
1011
0.0
1021
0.0
1031
0.0
1021
0.0
1031
1.0
1040
0.0
1010
0.0
1020
0.0
1030
1.0
1000
SOLID
1070
     1
1070
     1
1071
        1
1071
        1
1071
        1
1070
     2
1040
-84.641571726353106
1040
18.679356795600139
1040
0.2549509756796394
1040
-1.5707963267948959
1040
4.7123889803846888
1070
     1
1071
        1
1005
195A
1070
     0
1070
     1
1071
        1
1040
-84.559720229024194
1040
18.916095697170249
1040
0.0
1002
}
  0
POLYLINE
  5
195C
  8
SAPA_FOGBAND
 66
     1
 10
0.0
 20
0.0
 30
0.0
 70
     1
  0
VERTEX
  5
2A58
  8
SAPA_FOGBAND
 10
-87.604003505597632
 20
17.779356795600162
 30
0.0
 42
0.9999999999999998
  0
VERTEX
  5
2A59
  8
SAPA_FOGBAND
 10
-87.604003505597632
 20
19.57935679560012
 30
0.0
  0
VERTEX
  5
2A5A
  8
SAPA_FOGBAND
 10
-88.204003505597655
 20
19.57935679560012
 30
0.0
 42
0.9999999999999998
  0
VERTEX
  5
2A5B
  8
SAPA_FOGBAND
 10
-88.204003505597655
 20
17.779356795600162
 30
0.0
  0
SEQEND
  5
2A5C
  8
SAPA_FOGBAND
  0
POLYLINE
  5
195D
  8
SAPA_FOGBAND
 66
     1
 10
0.0
 20
0.0
 30
0.0
 70
     1
  0
VERTEX
  5
2A5D
  8
SAPA_FOGBAND
 10
-82.504003505597609
 20
27.307233103773338
 30
0.0
 42
0.0775891054856093
  0
VERTEX
  5
2A5E
  8
SAPA_FOGBAND
 10
-82.820639489658959
 20
23.840451373350788
 30
0.0
  0
VERTEX
  5
2A5F
  8
SAPA_FOGBAND
 10
-82.604003505597575
 20
23.602561880521989
 30
0.0
 42
-0.5773502691896298
  0
VERTEX
  5
2A60
  8
SAPA_FOGBAND
 10
-82.604003505597575
 20
23.25615171900813
 30
0.0
  0
VERTEX
  5
2A61
  8
SAPA_FOGBAND
 10
-82.820913359820622
 20
23.018104102277341
 30
0.0
  0
VERTEX
  5
2A62
  8
SAPA_FOGBAND
 10
-82.820913359820622
 20
22.240609492360701
 30
0.0
  0
VERTEX
  5
2A63
  8
SAPA_FOGBAND
 10
-82.604003505597575
 20
22.00256188052197
 30
0.0
 42
-0.577350269189699
  0
VERTEX
  5
2A64
  8
SAPA_FOGBAND
 10
-82.604003505597575
 20
21.656151719008221
 30
0.0
  0
VERTEX
  5
2A65
  8
SAPA_FOGBAND
 10
-82.820913359820622
 20
21.418104102277422
 30
0.0
  0
VERTEX
  5
2A66
  8
SAPA_FOGBAND
 10
-82.820913359820622
 20
20.640609492360682
 30
0.0
  0
VERTEX
  5
2A67
  8
SAPA_FOGBAND
 10
-82.604003505597575
 20
20.40256188052194
 30
0.0
 42
-0.577350269189699
  0
VERTEX
  5
2A68
  8
SAPA_FOGBAND
 10
-82.604003505597575
 20
20.056151719008199
 30
0.0
  0
VERTEX
  5
2A69
  8
SAPA_FOGBAND
 10
-82.820913359820622
 20
19.818104102277399
 30
0.0
  0
VERTEX
  5
2A6A
  8
SAPA_FOGBAND
 10
-82.820913359820622
 20
19.040609492360659
 30
0.0
  0
VERTEX
  5
2A6B
  8
SAPA_FOGBAND
 10
-82.604003505597575
 20
18.802561880522031
 30
0.0
 42
-0.5773502691896298
  0
VERTEX
  5
2A6C
  8
SAPA_FOGBAND
 10
-82.604003505597575
 20
18.456151719008169
 30
0.0
  0
VERTEX
  5
2A6D
  8
SAPA_FOGBAND
 10
-82.820913359820622
 20
18.21810410227738
 30
0.0
  0
VERTEX
  5
2A6E
  8
SAPA_FOGBAND
 10
-82.820913359820622
 20
17.440609492360629
 30
0.0
  0
VERTEX
  5
2A6F
  8
SAPA_FOGBAND
 10
-82.604003505597575
 20
17.202561880522008
 30
0.0
 42
-0.5773502691896298
  0
VERTEX
  5
2A70
  8
SAPA_FOGBAND
 10
-82.604003505597575
 20
16.85615171900815
 30
0.0
  0
VERTEX
  5
2A71
  8
SAPA_FOGBAND
 10
-82.820913359820622
 20
16.618104102277361
 30
0.0
  0
VERTEX
  5
2A72
  8
SAPA_FOGBAND
 10
-82.820913359820622
 20
15.840609488195691
 30
0.0
  0
VERTEX
  5
2A73
  8
SAPA_FOGBAND
 10
-82.604003505597575
 20
15.60256187635696
 30
0.0
 42
-0.577350269189699
  0
VERTEX
  5
2A74
  8
SAPA_FOGBAND
 10
-82.604003505597575
 20
15.25615171484321
 30
0.0
  0
VERTEX
  5
2A75
  8
SAPA_FOGBAND
 10
-83.67733357408207
 20
14.45615171528811
 30
0.0
 42
-0.1316524987190269
  0
VERTEX
  5
2A76
  8
SAPA_FOGBAND
 10
-83.777333574852776
 20
14.429356795600141
 30
0.0
  0
VERTEX
  5
2A77
  8
SAPA_FOGBAND
 10
-86.304003505597564
 20
14.429356795600031
 30
0.0
 42
-0.4142135623730951
  0
VERTEX
  5
2A78
  8
SAPA_FOGBAND
 10
-86.504003505597609
 20
14.629356795600071
 30
0.0
  0
VERTEX
  5
2A79
  8
SAPA_FOGBAND
 10
-86.504003505597609
 20
16.679356795600139
 30
0.0
 42
0.4142135623730951
  0
VERTEX
  5
2A7A
  8
SAPA_FOGBAND
 10
-87.004003505597595
 20
17.179356795600139
 30
0.0
  0
VERTEX
  5
2A7B
  8
SAPA_FOGBAND
 10
-87.730798424840785
 20
17.179356795600139
 30
0.0
  0
VERTEX
  5
2A7C
  8
SAPA_FOGBAND
 10
-87.798258334151171
 20
16.927592986579612
 30
0.0
 42
-0.4740571810232869
  0
VERTEX
  5
2A7D
  8
SAPA_FOGBAND
 10
-88.080540919789826
 20
16.80029912421605
 30
0.0
  0
VERTEX
  5
2A7E
  8
SAPA_FOGBAND
 10
-89.526747056549596
 20
17.420399626974579
 30
0.0
 42
-0.2846003776495916
  0
VERTEX
  5
2A7F
  8
SAPA_FOGBAND
 10
-89.804003505597564
 20
17.868043805434809
 30
0.0
  0
VERTEX
  5
2A80
  8
SAPA_FOGBAND
 10
-89.804003505597564
 20
19.490669785765359
 30
0.0
 42
-0.2846003776495917
  0
VERTEX
  5
2A81
  8
SAPA_FOGBAND
 10
-89.526747056549596
 20
19.938313964225578
 30
0.0
  0
VERTEX
  5
2A82
  8
SAPA_FOGBAND
 10
-88.080540919789826
 20
20.558414466984122
 30
0.0
 42
-0.4740571810232869
  0
VERTEX
  5
2A83
  8
SAPA_FOGBAND
 10
-87.798258334151171
 20
20.43112060462056
 30
0.0
  0
VERTEX
  5
2A84
  8
SAPA_FOGBAND
 10
-87.730798424840785
 20
20.179356795600139
 30
0.0
  0
VERTEX
  5
2A85
  8
SAPA_FOGBAND
 10
-87.004003505597595
 20
20.179356795600139
 30
0.0
 42
0.4142135623730951
  0
VERTEX
  5
2A86
  8
SAPA_FOGBAND
 10
-86.504003505597609
 20
20.679356795600139
 30
0.0
  0
VERTEX
  5
2A87
  8
SAPA_FOGBAND
 10
-86.504003505597609
 20
23.729356795600101
 30
0.0
 42
0.4142135623730951
  0
VERTEX
  5
2A88
  8
SAPA_FOGBAND
 10
-86.704003505597655
 20
23.929356795600139
 30
0.0
  0
VERTEX
  5
2A89
  8
SAPA_FOGBAND
 10
-87.604003505597632
 20
23.929356795600029
 30
0.0
 42
-0.4142135623731784
  0
VERTEX
  5
2A8A
  8
SAPA_FOGBAND
 10
-87.804003505597564
 20
24.129356795600071
 30
0.0
  0
VERTEX
  5
2A8B
  8
SAPA_FOGBAND
 10
-87.804003505597677
 20
24.82935679560012
 30
0.0
 42
-0.4142135623730398
  0
VERTEX
  5
2A8C
  8
SAPA_FOGBAND
 10
-87.504003505597609
 20
25.129356795600071
 30
0.0
  0
VERTEX
  5
2A8D
  8
SAPA_FOGBAND
 10
-86.693491728946071
 20
25.129356795600071
 30
0.0
 42
0.1316524975873973
  0
VERTEX
  5
2A8E
  8
SAPA_FOGBAND
 10
-85.693491728946071
 20
25.397305988031238
 30
0.0
  0
VERTEX
  5
2A8F
  8
SAPA_FOGBAND
 10
-83.103923736854156
 20
30.56015113807166
 30
0.0
 42
-0.7057658529986604
  0
VERTEX
  5
2A90
  8
SAPA_FOGBAND
 10
-82.504003505597609
 20
30.292557962713321
 30
0.0
  0
SEQEND
  5
2A91
  8
SAPA_FOGBAND
  0
POLYLINE
  5
195E
  8
SAPA_FOGBAND
 10
-71.635728587052327
 20
15.203568545938234
 30
0.0
 66
     1
 70
     8
  0
VERTEX
  8
SAPA_FOGBAND
  5
2C06
 10
-71.6357
 20
15.2036
 30
0.000000
  70
    32
  0
VERTEX
  8
SAPA_FOGBAND
  5
2C07
 10
-71.7298
 20
15.2081
 30
0.000000
  70
    32
  0
VERTEX
  8
SAPA_FOGBAND
  5
2C08
 10
-71.8236
 20
15.2215
 30
0.000000
  70
    32
  0
VERTEX
  8
SAPA_FOGBAND
  5
2C09
 10
-71.9170
 20
15.2440
 30
0.000000
  70
    32
  0
VERTEX
  8
SAPA_FOGBAND
  5
2C0A
 10
-72.0097
 20
15.2753
 30
0.000000
  70
    32
  0
VERTEX
  8
SAPA_FOGBAND
  5
2C0B
 10
-72.1014
 20
15.3154
 30
0.000000
  70
    32
  0
VERTEX
  8
SAPA_FOGBAND
  5
2C0C
 10
-72.1921
 20
15.3642
 30
0.000000
  70
    32
  0
VERTEX
  8
SAPA_FOGBAND
  5
2C0D
 10
-72.2814
 20
15.4217
 30
0.000000
  70
    32
  0
VERTEX
  8
SAPA_FOGBAND
  5
2C0E
 10
-72.3692
 20
15.4876
 30
0.000000
  70
    32
  0
VERTEX
  8
SAPA_FOGBAND
  5
2C0F
 10
-72.4552
 20
15.5618
 30
0.000000
  70
    32
  0
VERTEX
  8
SAPA_FOGBAND
  5
2C10
 10
-72.5392
 20
15.6442
 30
0.000000
  70
    32
  0
VERTEX
  8
SAPA_FOGBAND
  5
2C11
 10
-72.6211
 20
15.7344
 30
0.000000
  70
    32
  0
VERTEX
  8
SAPA_FOGBAND
  5
2C12
 10
-72.7006
 20
15.8324
 30
0.000000
  70
    32
  0
VERTEX
  8
SAPA_FOGBAND
  5
2C13
 10
-72.7775
 20
15.9379
 30
0.000000
  70
    32
  0
VERTEX
  8
SAPA_FOGBAND
  5
2C14
 10
-72.8517
 20
16.0505
 30
0.000000
  70
    32
  0
VERTEX
  8
SAPA_FOGBAND
  5
2C15
 10
-72.9229
 20
16.1702
 30
0.000000
  70
    32
  0
VERTEX
  8
SAPA_FOGBAND
  5
2C16
 10
-72.9910
 20
16.2964
 30
0.000000
  70
    32
  0
VERTEX
  8
SAPA_FOGBAND
  5
2C17
 10
-73.0559
 20
16.4291
 30
0.000000
  70
    32
  0
VERTEX
  8
SAPA_FOGBAND
  5
2C18
 10
-73.1173
 20
16.5678
 30
0.000000
  70
    32
  0
VERTEX
  8
SAPA_FOGBAND
  5
2C19
 10
-73.1752
 20
16.7121
 30
0.000000
  70
    32
  0
VERTEX
  8
SAPA_FOGBAND
  5
2C1A
 10
-73.2294
 20
16.8619
 30
0.000000
  70
    32
  0
VERTEX
  8
SAPA_FOGBAND
  5
2C1B
 10
-73.2797
 20
17.0166
 30
0.000000
  70
    32
  0
VERTEX
  8
SAPA_FOGBAND
  5
2C1C
 10
-73.3261
 20
17.1760
 30
0.000000
  70
    32
  0
VERTEX
  8
SAPA_FOGBAND
  5
2C1D
 10
-73.3684
 20
17.3395
 30
0.000000
  70
    32
  0
VERTEX
  8
SAPA_FOGBAND
  5
2C1E
 10
-73.4065
 20
17.5070
 30
0.000000
  70
    32
  0
VERTEX
  8
SAPA_FOGBAND
  5
2C1F
 10
-73.4404
 20
17.6778
 30
0.000000
  70
    32
  0
VERTEX
  8
SAPA_FOGBAND
  5
2C20
 10
-73.4699
 20
17.8517
 30
0.000000
  70
    32
  0
VERTEX
  8
SAPA_FOGBAND
  5
2C21
 10
-73.4950
 20
18.0282
 30
0.000000
  70
    32
  0
VERTEX
  8
SAPA_FOGBAND
  5
2C22
 10
-73.5156
 20
18.2069
 30
0.000000
  70
    32
  0
VERTEX
  8
SAPA_FOGBAND
  5
2C23
 10
-73.5317
 20
18.3874
 30
0.000000
  70
    32
  0
VERTEX
  8
SAPA_FOGBAND
  5
2C24
 10
-73.5432
 20
18.5692
 30
0.000000
  70
    32
  0
VERTEX
  8
SAPA_FOGBAND
  5
2C25
 10
-73.5501
 20
18.7518
 30
0.000000
  70
    32
  0
VERTEX
  8
SAPA_FOGBAND
  5
2C26
 10
-73.5524
 20
18.9349
 30
0.000000
  70
    32
  0
VERTEX
  8
SAPA_FOGBAND
  5
2C27
 10
-73.5501
 20
19.1180
 30
0.000000
  70
    32
  0
VERTEX
  8
SAPA_FOGBAND
  5
2C28
 10
-73.5432
 20
19.3006
 30
0.000000
  70
    32
  0
VERTEX
  8
SAPA_FOGBAND
  5
2C29
 10
-73.5317
 20
19.4824
 30
0.000000
  70
    32
  0
VERTEX
  8
SAPA_FOGBAND
  5
2C2A
 10
-73.5156
 20
19.6628
 30
0.000000
  70
    32
  0
VERTEX
  8
SAPA_FOGBAND
  5
2C2B
 10
-73.4950
 20
19.8415
 30
0.000000
  70
    32
  0
VERTEX
  8
SAPA_FOGBAND
  5
2C2C
 10
-73.4699
 20
20.0180
 30
0.000000
  70
    32
  0
VERTEX
  8
SAPA_FOGBAND
  5
2C2D
 10
-73.4404
 20
20.1919
 30
0.000000
  70
    32
  0
VERTEX
  8
SAPA_FOGBAND
  5
2C2E
 10
-73.4065
 20
20.3628
 30
0.000000
  70
    32
  0
VERTEX
  8
SAPA_FOGBAND
  5
2C2F
 10
-73.3684
 20
20.5302
 30
0.000000
  70
    32
  0
VERTEX
  8
SAPA_FOGBAND
  5
2C30
 10
-73.3261
 20
20.6938
 30
0.000000
  70
    32
  0
VERTEX
  8
SAPA_FOGBAND
  5
2C31
 10
-73.2797
 20
20.8532
 30
0.000000
  70
    32
  0
VERTEX
  8
SAPA_FOGBAND
  5
2C32
 10
-73.2294
 20
21.0079
 30
0.000000
  70
    32
  0
VERTEX
  8
SAPA_FOGBAND
  5
2C33
 10
-73.1752
 20
21.1576
 30
0.000000
  70
    32
  0
VERTEX
  8
SAPA_FOGBAND
  5
2C34
 10
-73.1173
 20
21.3020
 30
0.000000
  70
    32
  0
VERTEX
  8
SAPA_FOGBAND
  5
2C35
 10
-73.0559
 20
21.4407
 30
0.000000
  70
    32
  0
VERTEX
  8
SAPA_FOGBAND
  5
2C36
 10
-72.9910
 20
21.5733
 30
0.000000
  70
    32
  0
VERTEX
  8
SAPA_FOGBAND
  5
2C37
 10
-72.9229
 20
21.6996
 30
0.000000
  70
    32
  0
VERTEX
  8
SAPA_FOGBAND
  5
2C38
 10
-72.8517
 20
21.8192
 30
0.000000
  70
    32
  0
VERTEX
  8
SAPA_FOGBAND
  5
2C39
 10
-72.7775
 20
21.9319
 30
0.000000
  70
    32
  0
VERTEX
  8
SAPA_FOGBAND
  5
2C3A
 10
-72.7006
 20
22.0374
 30
0.000000
  70
    32
  0
VERTEX
  8
SAPA_FOGBAND
  5
2C3B
 10
-72.6211
 20
22.1353
 30
0.000000
  70
    32
  0
VERTEX
  8
SAPA_FOGBAND
  5
2C3C
 10
-72.5392
 20
22.2256
 30
0.000000
  70
    32
  0
VERTEX
  8
SAPA_FOGBAND
  5
2C3D
 10
-72.4552
 20
22.3080
 30
0.000000
  70
    32
  0
VERTEX
  8
SAPA_FOGBAND
  5
2C3E
 10
-72.3692
 20
22.3822
 30
0.000000
  70
    32
  0
VERTEX
  8
SAPA_FOGBAND
  5
2C3F
 10
-72.2814
 20
22.4481
 30
0.000000
  70
    32
  0
VERTEX
  8
SAPA_FOGBAND
  5
2C40
 10
-72.1921
 20
22.5055
 30
0.000000
  70
    32
  0
VERTEX
  8
SAPA_FOGBAND
  5
2C41
 10
-72.1014
 20
22.5544
 30
0.000000
  70
    32
  0
VERTEX
  8
SAPA_FOGBAND
  5
2C42
 10
-72.0097
 20
22.5945
 30
0.000000
  70
    32
  0
VERTEX
  8
SAPA_FOGBAND
  5
2C43
 10
-71.9170
 20
22.6258
 30
0.000000
  70
    32
  0
VERTEX
  8
SAPA_FOGBAND
  5
2C44
 10
-71.8236
 20
22.6482
 30
0.000000
  70
    32
  0
VERTEX
  8
SAPA_FOGBAND
  5
2C45
 10
-71.7298
 20
22.6617
 30
0.000000
  70
    32
  0
VERTEX
  8
SAPA_FOGBAND
  5
2C46
 10
-71.6357
 20
22.6662
 30
0.000000
  70
    32
  0
VERTEX
  8
SAPA_FOGBAND
  5
2C47
 10
-71.5417
 20
22.6617
 30
0.000000
  70
    32
  0
VERTEX
  8
SAPA_FOGBAND
  5
2C48
 10
-71.4479
 20
22.6482
 30
0.000000
  70
    32
  0
VERTEX
  8
SAPA_FOGBAND
  5
2C49
 10
-71.3545
 20
22.6258
 30
0.000000
  70
    32
  0
VERTEX
  8
SAPA_FOGBAND
  5
2C4A
 10
-71.2618
 20
22.5945
 30
0.000000
  70
    32
  0
VERTEX
  8
SAPA_FOGBAND
  5
2C4B
 10
-71.1700
 20
22.5544
 30
0.000000
  70
    32
  0
VERTEX
  8
SAPA_FOGBAND
  5
2C4C
 10
-71.0793
 20
22.5055
 30
0.000000
  70
    32
  0
VERTEX
  8
SAPA_FOGBAND
  5
2C4D
 10
-70.9900
 20
22.4481
 30
0.000000
  70
    32
  0
VERTEX
  8
SAPA_FOGBAND
  5
2C4E
 10
-70.9022
 20
22.3822
 30
0.000000
  70
    32
  0
VERTEX
  8
SAPA_FOGBAND
  5
2C4F
 10
-70.8162
 20
22.3080
 30
0.000000
  70
    32
  0
VERTEX
  8
SAPA_FOGBAND
  5
2C50
 10
-70.7322
 20
22.2256
 30
0.000000
  70
    32
  0
VERTEX
  8
SAPA_FOGBAND
  5
2C51
 10
-70.6504
 20
22.1353
 30
0.000000
  70
    32
  0
VERTEX
  8
SAPA_FOGBAND
  5
2C52
 10
-70.5709
 20
22.0374
 30
0.000000
  70
    32
  0
VERTEX
  8
SAPA_FOGBAND
  5
2C53
 10
-70.4940
 20
21.9319
 30
0.000000
  70
    32
  0
VERTEX
  8
SAPA_FOGBAND
  5
2C54
 10
-70.4198
 20
21.8192
 30
0.000000
  70
    32
  0
VERTEX
  8
SAPA_FOGBAND
  5
2C55
 10
-70.3486
 20
21.6996
 30
0.000000
  70
    32
  0
VERTEX
  8
SAPA_FOGBAND
  5
2C56
 10
-70.2804
 20
21.5733
 30
0.000000
  70
    32
  0
VERTEX
  8
SAPA_FOGBAND
  5
2C57
 10
-70.2156
 20
21.4407
 30
0.000000
  70
    32
  0
VERTEX
  8
SAPA_FOGBAND
  5
2C58
 10
-70.1541
 20
21.3020
 30
0.000000
  70
    32
  0
VERTEX
  8
SAPA_FOGBAND
  5
2C59
 10
-70.0962
 20
21.1576
 30
0.000000
  70
    32
  0
VERTEX
  8
SAPA_FOGBAND
  5
2C5A
 10
-70.0421
 20
21.0079
 30
0.000000
  70
    32
  0
VERTEX
  8
SAPA_FOGBAND
  5
2C5B
 10
-69.9917
 20
20.8532
 30
0.000000
  70
    32
  0
VERTEX
  8
SAPA_FOGBAND
  5
2C5C
 10
-69.9454
 20
20.6938
 30
0.000000
  70
    32
  0
VERTEX
  8
SAPA_FOGBAND
  5
2C5D
 10
-69.9031
 20
20.5302
 30
0.000000
  70
    32
  0
VERTEX
  8
SAPA_FOGBAND
  5
2C5E
 10
-69.8649
 20
20.3628
 30
0.000000
  70
    32
  0
VERTEX
  8
SAPA_FOGBAND
  5
2C5F
 10
-69.8311
 20
20.1919
 30
0.000000
  70
    32
  0
VERTEX
  8
SAPA_FOGBAND
  5
2C60
 10
-69.8016
 20
20.0180
 30
0.000000
  70
    32
  0
VERTEX
  8
SAPA_FOGBAND
  5
2C61
 10
-69.7765
 20
19.8415
 30
0.000000
  70
    32
  0
VERTEX
  8
SAPA_FOGBAND
  5
2C62
 10
-69.7559
 20
19.6628
 30
0.000000
  70
    32
  0
VERTEX
  8
SAPA_FOGBAND
  5
2C63
 10
-69.7398
 20
19.4824
 30
0.000000
  70
    32
  0
VERTEX
  8
SAPA_FOGBAND
  5
2C64
 10
-69.7283
 20
19.3006
 30
0.000000
  70
    32
  0
VERTEX
  8
SAPA_FOGBAND
  5
2C65
 10
-69.7213
 20
19.1180
 30
0.000000
  70
    32
  0
VERTEX
  8
SAPA_FOGBAND
  5
2C66
 10
-69.7190
 20
18.9349
 30
0.000000
  70
    32
  0
VERTEX
  8
SAPA_FOGBAND
  5
2C67
 10
-69.7213
 20
18.7518
 30
0.000000
  70
    32
  0
VERTEX
  8
SAPA_FOGBAND
  5
2C68
 10
-69.7283
 20
18.5692
 30
0.000000
  70
    32
  0
VERTEX
  8
SAPA_FOGBAND
  5
2C69
 10
-69.7398
 20
18.3874
 30
0.000000
  70
    32
  0
VERTEX
  8
SAPA_FOGBAND
  5
2C6A
 10
-69.7559
 20
18.2069
 30
0.000000
  70
    32
  0
VERTEX
  8
SAPA_FOGBAND
  5
2C6B
 10
-69.7765
 20
18.0282
 30
0.000000
  70
    32
  0
VERTEX
  8
SAPA_FOGBAND
  5
2C6C
 10
-69.8016
 20
17.8517
 30
0.000000
  70
    32
  0
VERTEX
  8
SAPA_FOGBAND
  5
2C6D
 10
-69.8311
 20
17.6778
 30
0.000000
  70
    32
  0
VERTEX
  8
SAPA_FOGBAND
  5
2C6E
 10
-69.8649
 20
17.5070
 30
0.000000
  70
    32
  0
VERTEX
  8
SAPA_FOGBAND
  5
2C6F
 10
-69.9031
 20
17.3395
 30
0.000000
  70
    32
  0
VERTEX
  8
SAPA_FOGBAND
  5
2C70
 10
-69.9454
 20
17.1760
 30
0.000000
  70
    32
  0
VERTEX
  8
SAPA_FOGBAND
  5
2C71
 10
-69.9917
 20
17.0166
 30
0.000000
  70
    32
  0
VERTEX
  8
SAPA_FOGBAND
  5
2C72
 10
-70.0421
 20
16.8619
 30
0.000000
  70
    32
  0
VERTEX
  8
SAPA_FOGBAND
  5
2C73
 10
-70.0962
 20
16.7121
 30
0.000000
  70
    32
  0
VERTEX
  8
SAPA_FOGBAND
  5
2C74
 10
-70.1541
 20
16.5678
 30
0.000000
  70
    32
  0
VERTEX
  8
SAPA_FOGBAND
  5
2C75
 10
-70.2156
 20
16.4291
 30
0.000000
  70
    32
  0
VERTEX
  8
SAPA_FOGBAND
  5
2C76
 10
-70.2804
 20
16.2964
 30
0.000000
  70
    32
  0
VERTEX
  8
SAPA_FOGBAND
  5
2C77
 10
-70.3486
 20
16.1702
 30
0.000000
  70
    32
  0
VERTEX
  8
SAPA_FOGBAND
  5
2C78
 10
-70.4198
 20
16.0505
 30
0.000000
  70
    32
  0
VERTEX
  8
SAPA_FOGBAND
  5
2C79
 10
-70.4940
 20
15.9379
 30
0.000000
  70
    32
  0
VERTEX
  8
SAPA_FOGBAND
  5
2C7A
 10
-70.5709
 20
15.8324
 30
0.000000
  70
    32
  0
VERTEX
  8
SAPA_FOGBAND
  5
2C7B
 10
-70.6504
 20
15.7344
 30
0.000000
  70
    32
  0
VERTEX
  8
SAPA_FOGBAND
  5
2C7C
 10
-70.7322
 20
15.6442
 30
0.000000
  70
    32
  0
VERTEX
  8
SAPA_FOGBAND
  5
2C7D
 10
-70.8162
 20
15.5618
 30
0.000000
  70
    32
  0
VERTEX
  8
SAPA_FOGBAND
  5
2C7E
 10
-70.9022
 20
15.4876
 30
0.000000
  70
    32
  0
VERTEX
  8
SAPA_FOGBAND
  5
2C7F
 10
-70.9900
 20
15.4217
 30
0.000000
  70
    32
  0
VERTEX
  8
SAPA_FOGBAND
  5
2C80
 10
-71.0793
 20
15.3642
 30
0.000000
  70
    32
  0
VERTEX
  8
SAPA_FOGBAND
  5
2C81
 10
-71.1700
 20
15.3154
 30
0.000000
  70
    32
  0
VERTEX
  8
SAPA_FOGBAND
  5
2C82
 10
-71.2618
 20
15.2753
 30
0.000000
  70
    32
  0
VERTEX
  8
SAPA_FOGBAND
  5
2C83
 10
-71.3545
 20
15.2440
 30
0.000000
  70
    32
  0
VERTEX
  8
SAPA_FOGBAND
  5
2C84
 10
-71.4479
 20
15.2215
 30
0.000000
  70
    32
  0
VERTEX
  8
SAPA_FOGBAND
  5
2C85
 10
-71.5417
 20
15.2081
 30
0.000000
  70
    32
  0
VERTEX
  8
SAPA_FOGBAND
  5
2C86
 10
-71.6357
 20
15.2036
 30
0.000000
  70
    32
  0
SEQEND
  8
SAPA_FOGBAND
  5
2C87
  0
POLYLINE
  5
195F
  8
SAPA_FOGBAND
 66
     1
 10
0.0
 20
0.0
 30
0.0
  0
VERTEX
  5
2A92
  8
SAPA_FOGBAND
 10
-64.491421355248193
 20
23.809252980877421
 30
0.0
  0
VERTEX
  5
2A93
  8
SAPA_FOGBAND
 10
-64.191421355248238
 20
23.809252980877421
 30
0.0
  0
VERTEX
  5
2A94
  8
SAPA_FOGBAND
 10
-64.491421355248193
 20
23.809252980877421
 30
0.0
 42
0.4142135623730951
  0
VERTEX
  5
2A95
  8
SAPA_FOGBAND
 10
-64.991421355248193
 20
23.309252980877421
 30
0.0
  0
VERTEX
  5
2A96
  8
SAPA_FOGBAND
 10
-64.991421355248249
 20
16.009252980877459
 30
0.0
 42
0.4142135623730951
  0
VERTEX
  5
2A97
  8
SAPA_FOGBAND
 10
-64.491421355248249
 20
15.509252980877459
 30
0.0
  0
VERTEX
  5
2A98
  8
SAPA_FOGBAND
 10
-64.191421355248238
 20
15.509252980877459
 30
0.0
  0
SEQEND
  5
2A99
  8
SAPA_FOGBAND
  0
POLYLINE
  5
1960
  8
SAPA_FOGBAND
 66
     1
 10
0.0
 20
0.0
 30
0.0
 70
     1
  0
VERTEX
  5
2A9A
  8
SAPA_FOGBAND
 10
-62.276790857609463
 20
21.109252980877429
 30
0.0
  0
VERTEX
  5
2A9B
  8
SAPA_FOGBAND
 10
-62.876790857609429
 20
21.109252980877429
 30
0.0
 42
0.9999999999999998
  0
VERTEX
  5
2A9C
  8
SAPA_FOGBAND
 10
-62.876790857609429
 20
19.309252980877471
 30
0.0
  0
VERTEX
  5
2A9D
  8
SAPA_FOGBAND
 10
-62.276790857609463
 20
19.309252980877421
 30
0.0
 42
0.9999999999999998
  0
SEQEND
  5
2A9E
  8
SAPA_FOGBAND
  0
POLYLINE
  5
1961
  8
SAPA_FOGBAND
 66
     1
 10
0.0
 20
0.0
 30
0.0
 70
     1
  0
VERTEX
  5
2A9F
  8
SAPA_FOGBAND
 10
-69.686637672611383
 20
10.84653611789893
 30
0.0
 42
0.646356061736289
  0
VERTEX
  5
2AA0
  8
SAPA_FOGBAND
 10
-70.435507727777079
 20
12.509252980877459
 30
0.0
  0
VERTEX
  5
2AA1
  8
SAPA_FOGBAND
 10
-73.914480339237144
 20
12.509252980877459
 30
0.0
 42
0.4879283649264857
  0
VERTEX
  5
2AA2
  8
SAPA_FOGBAND
 10
-74.884622839382502
 20
11.26671735584112
 30
0.0
  0
VERTEX
  5
2AA3
  8
SAPA_FOGBAND
 10
-74.165173485297544
 20
8.3889199395013581
 30
0.0
 42
0.3441507314089108
  0
VERTEX
  5
2AA4
  8
SAPA_FOGBAND
 10
-73.195030985152229
 20
7.6314555645376903
 30
0.0
  0
VERTEX
  5
2AA5
  8
SAPA_FOGBAND
 10
-72.982231105068934
 20
7.6314555645376876
 30
0.0
 42
0.214804042991016
  0
VERTEX
  5
2AA6
  8
SAPA_FOGBAND
 10
-72.233361049903209
 20
7.9687387015591709
 30
0.0
  0
SEQEND
  5
2AA7
  8
SAPA_FOGBAND
  0
POLYLINE
  5
1962
  8
SAPA_FOGBAND
 66
     1
 10
0.0
 20
0.0
 30
0.0
 70
     1
  0
VERTEX
  5
2AA8
  8
SAPA_FOGBAND
 10
-64.191421355248238
 20
18.209252980877451
 30
0.0
 42
-0.4142135623730951
  0
VERTEX
  5
2AA9
  8
SAPA_FOGBAND
 10
-63.691421355248238
 20
18.709252980877451
 30
0.0
  0
VERTEX
  5
2AAA
  8
SAPA_FOGBAND
 10
-62.749995938366361
 20
18.709252980877451
 30
0.0
  0
VERTEX
  5
2AAB
  8
SAPA_FOGBAND
 10
-62.682536029055889
 20
18.457489171856981
 30
0.0
 42
0.474057181023226
  0
VERTEX
  5
2AAC
  8
SAPA_FOGBAND
 10
-62.400253443417299
 20
18.330195309493359
 30
0.0
  0
VERTEX
  5
2AAD
  8
SAPA_FOGBAND
 10
-60.954047306657408
 20
18.950295812252008
 30
0.0
 42
0.2846003776496053
  0
VERTEX
  5
2AAE
  8
SAPA_FOGBAND
 10
-60.676790857609447
 20
19.397939990712121
 30
0.0
  0
VERTEX
  5
2AAF
  8
SAPA_FOGBAND
 10
-60.676790857609447
 20
21.020565971042728
 30
0.0
 42
0.2846003776496055
  0
VERTEX
  5
2AB0
  8
SAPA_FOGBAND
 10
-60.954047306657408
 20
21.468210149502891
 30
0.0
  0
VERTEX
  5
2AB1
  8
SAPA_FOGBAND
 10
-62.400253443417242
 20
22.08831065226148
 30
0.0
 42
0.474057181023226
  0
VERTEX
  5
2AB2
  8
SAPA_FOGBAND
 10
-62.682536029055889
 20
21.961016789897918
 30
0.0
  0
VERTEX
  5
2AB3
  8
SAPA_FOGBAND
 10
-62.749995938366361
 20
21.709252980877451
 30
0.0
  0
VERTEX
  5
2AB4
  8
SAPA_FOGBAND
 10
-63.691421355248238
 20
21.709252980877451
 30
0.0
 42
-0.4142135623730951
  0
VERTEX
  5
2AB5
  8
SAPA_FOGBAND
 10
-64.191421355248238
 20
22.209252980877451
 30
0.0
  0
VERTEX
  5
2AB6
  8
SAPA_FOGBAND
 10
-64.191421355248181
 20
24.7214131442589
 30
0.0
 42
0.4052499559557504
  0
VERTEX
  5
2AB7
  8
SAPA_FOGBAND
 10
-64.482212694375519
 20
25.021271778560031
 30
0.0
  0
VERTEX
  5
2AB8
  8
SAPA_FOGBAND
 10
-75.882212694375525
 20
25.509111593229459
 30
0.0
 42
0.4232343445545565
  0
VERTEX
  5
2AB9
  8
SAPA_FOGBAND
 10
-76.19142135524821
 20
25.209252958928332
 30
0.0
  0
VERTEX
  5
2ABA
  8
SAPA_FOGBAND
 10
-76.19142135524821
 20
11.57080579368629
 30
0.0
 42
0.0613213552369726
  0
VERTEX
  5
2ABB
  8
SAPA_FOGBAND
 10
-76.176492605320888
 20
11.44953798116812
 30
0.0
  0
VERTEX
  5
2ABC
  8
SAPA_FOGBAND
 10
-75.105787448989105
 20
5.9667173558411237
 30
0.0
 42
0.3441507314089092
  0
VERTEX
  5
2ABD
  8
SAPA_FOGBAND
 10
-74.135644948843776
 20
5.209252980877463
 30
0.0
  0
VERTEX
  5
2ABE
  8
SAPA_FOGBAND
 10
-72.897560780315558
 20
5.2092529808774621
 30
0.0
 42
0.2148040429910146
  0
VERTEX
  5
2ABF
  8
SAPA_FOGBAND
 10
-72.52312575273271
 20
5.3778945493882002
 30
0.0
  0
VERTEX
  5
2AC0
  8
SAPA_FOGBAND
 10
-64.442551300082485
 20
14.50894368088284
 30
0.0
 42
0.1831167524995932
  0
VERTEX
  5
2AC1
  8
SAPA_FOGBAND
 10
-64.191421355248238
 20
15.171660543861361
 30
0.0
  0
SEQEND
  5
2AC2
  8
SAPA_FOGBAND
  0
POLYLINE
  5
1963
  8
SAPA_FOGBAND
 66
     1
 10
0.0
 20
0.0
 30
0.0
 70
     1
  0
VERTEX
  5
2AC3
  8
SAPA_FOGBAND
 10
3.0607739888915191
 20
-28.499999995341611
 30
0.0
  0
VERTEX
  5
2AC4
  8
SAPA_FOGBAND
 10
0.227455024471788
 20
-28.499999995341611
 30
0.0
 42
-0.577350269189628
  0
VERTEX
  5
2AC5
  8
SAPA_FOGBAND
 10
-0.0323525966636629
 20
-28.049999995341562
 30
0.0
  0
VERTEX
  5
2AC6
  8
SAPA_FOGBAND
 10
2.1093616138212998
 20
-25.393650498497589
 30
0.0
 42
0.8769764629927237
  0
VERTEX
  5
2AC7
  8
SAPA_FOGBAND
 10
1.6374219583300309
 20
-25.03151846414168
 30
0.0
  0
VERTEX
  5
2AC8
  8
SAPA_FOGBAND
 10
-2.3323915506479751
 20
-28.20710677652805
 30
0.0
 42
-0.1989123673796493
  0
VERTEX
  5
2AC9
  8
SAPA_FOGBAND
 10
-3.0394983318344151
 20
-28.499999995341611
 30
0.0
  0
VERTEX
  5
2ACA
  8
SAPA_FOGBAND
 10
-4.7904544612689559
 20
-28.499999995341611
 30
0.0
 42
-0.577350269189628
  0
VERTEX
  5
2ACB
  8
SAPA_FOGBAND
 10
-5.0502620824041804
 20
-28.049999995341562
 30
0.0
  0
VERTEX
  5
2ACC
  8
SAPA_FOGBAND
 10
-2.9692140309241548
 20
-25.39451925167797
 30
0.0
 42
0.8769764629928424
  0
VERTEX
  5
2ACD
  8
SAPA_FOGBAND
 10
-3.441153686415424
 20
-25.032387217322061
 30
0.0
  0
VERTEX
  5
2ACE
  8
SAPA_FOGBAND
 10
-7.9071067381916631
 20
-29.282961423841961
 30
0.0
 42
0.1989123673796579
  0
VERTEX
  5
2ACF
  8
SAPA_FOGBAND
 10
-8.1999999570049962
 20
-29.9900682050284
 30
0.0
  0
VERTEX
  5
2AD0
  8
SAPA_FOGBAND
 10
-8.1999999570049962
 20
-29.9999999953416
 30
0.0
 42
0.4142135623730951
  0
VERTEX
  5
2AD1
  8
SAPA_FOGBAND
 10
-7.1999999570049971
 20
-30.999999995341611
 30
0.0
  0
VERTEX
  5
2AD2
  8
SAPA_FOGBAND
 10
0.0349925437622502
 20
-32.164084594465102
 30
0.0
 42
0.6261632875160376
  0
VERTEX
  5
2AD3
  8
SAPA_FOGBAND
 10
0.3448494722809344
 20
-31.722117791038759
 30
0.0
  0
VERTEX
  5
2AD4
  8
SAPA_FOGBAND
 10
0.1912114774921109
 20
-31.445776145052641
 30
0.0
 42
-0.5719685712689121
  0
VERTEX
  5
2AD5
  8
SAPA_FOGBAND
 10
0.4534123817155022
 20
-30.999999995341721
 30
0.0
  0
VERTEX
  5
2AD6
  8
SAPA_FOGBAND
 10
3.2000000429948661
 20
-30.999999995341611
 30
0.0
 42
-0.4142135623730118
  0
VERTEX
  5
2AD7
  8
SAPA_FOGBAND
 10
3.5000000429950471
 20
-31.299999995341562
 30
0.0
  0
VERTEX
  5
2AD8
  8
SAPA_FOGBAND
 10
3.5000000429948201
 20
-32.699999995341649
 30
0.0
 42
0.7754026414785753
  0
VERTEX
  5
2AD9
  8
SAPA_FOGBAND
 10
4.0627920384027263
 20
-32.844707863647528
 30
0.0
  0
VERTEX
  5
2ADA
  8
SAPA_FOGBAND
 10
8.2164257110665577
 20
-25.384550964556571
 30
0.0
 42
0.8680589103333867
  0
VERTEX
  5
2ADB
  8
SAPA_FOGBAND
 10
7.741501681302787
 20
-25.027711061894632
 30
0.0
  0
VERTEX
  5
2ADC
  8
SAPA_FOGBAND
 10
3.7678807700779591
 20
-28.20710677652805
 30
0.0
 42
-0.1989123673796493
  0
SEQEND
  5
2ADD
  8
SAPA_FOGBAND
  0
DIMENSION
  5
196C
  8
SAPA_MATT
  2
*D150
 10
-125.8557794594705
 20
-169.99997618387761
 30
0.0
 11
-128.3557794594704
 21
-125.499976181924
 31
0.0
 70
     0
 13
-80.49999996379627
 23
-80.999976179970446
 33
0.0
 14
-81.999999996299934
 24
-169.99997618387761
 34
0.0
 50
270.0
1001
ACAD
1000
DSTYLE
1002
{
1070
   287
1070
     4
1070
    40
1040
1.0
1070
   279
1070
     1
1002
}
  0
DIMENSION
  5
196D
  8
SAPA_MATT
  2
*D149
 10
-125.8557794594705
 20
-81.000000000000028
 30
0.0
 11
-128.3557794594704
 21
-78.500000000000043
 31
0.0
 70
     0
 13
-74.799999251909824
 23
-76.000000000000043
 33
0.0
 14
-80.223359969942308
 24
-81.000000000000043
 34
0.0
 50
270.0
1001
ACAD
1000
DSTYLE
1002
{
1070
   287
1070
     4
1070
    40
1040
1.0
1070
   279
1070
     1
1002
}
  0
DIMENSION
  5
196E
  8
SAPA_MATT
  2
*D148
 10
-125.8557794594705
 20
-76.000000000000028
 30
0.0
 11
-128.3557794594704
 21
-50.500000000000142
 31
0.0
 70
     0
 13
-105.9999999990107
 23
-25.00000000000021
 33
0.0
 14
-74.799999251909824
 24
-76.000000000000043
 34
0.0
 50
270.0
1001
ACAD
1000
DSTYLE
1002
{
1070
   287
1070
     4
1070
    40
1040
1.0
1070
   279
1070
     1
1002
}
  0
DIMENSION
  5
196F
  8
SAPA_MATT
  2
*D147
 10
-125.8557794594702
 20
-25.00000000000021
 30
0.0
 11
-128.3557794594702
 21
-0.0000000000002282
 31
0.0
 70
     0
 13
-105.9999999990104
 23
24.99999999999979
 33
0.0
 14
-105.9999999990104
 24
-25.00000000000021
 34
0.0
 50
270.0
1001
ACAD
1000
DSTYLE
1002
{
1070
    40
1040
1.0
1002
}
  0
VIEWPORT
  5
C4
 67
     1
  8
0
 10
143.06236603067589
 20
116.00969601843509
 30
0.0
 40
369.98580003443811
 41
256.8421457311839
 68
     1
 69
     1
1001
ACAD
1000
MVIEW
1002
{
1070
    16
1010
0.0
1020
0.0
1030
0.0
1010
0.0
1020
0.0
1030
1.0
1040
0.0
1040
256.8421457311839
1040
99.112914085388169
1040
143.07606935501099
1040
50.0
1040
0.0
1040
0.0
1070
     0
1070
     0
1070
     1
1070
     1
1070
     0
1070
     0
1070
     0
1070
     0
1040
0.0
1040
0.0
1040
0.0
1040
10.0
1040
10.0
1040
10.0
1040
10.0
1070
     0
1002
{
1002
}
1002
}
  0
ENDSEC
  0
EOF
