  0
SECTION
  2
HEADER
  9
$ACADVER
  1
AC1009
  9
$INSBASE
 10
0.0
 20
0.0
 30
0.0
  9
$EXTMIN
 10
-131.15375231270579
 20
-48.114456713576843
 30
0.0
  9
$EXTMAX
 10
82.009403434165449
 20
134.61694897244351
 30
0.0000000195376815
  9
$LIMMIN
 10
0.0
 20
0.0
  9
$LIMMAX
 10
790.0
 20
790.0
  9
$ORTHOMODE
 70
     0
  9
$REGENMODE
 70
     1
  9
$FILLMODE
 70
     1
  9
$QTEXTMODE
 70
     0
  9
$MIRRTEXT
 70
     1
  9
$DRAGMODE
 70
     2
  9
$LTSCALE
 40
4.0
  9
$OSMODE
 70
   167
  9
$ATTMODE
 70
     1
  9
$TEXTSIZE
 40
3.5
  9
$TRACEWID
 40
0.05
  9
$TEXTSTYLE
  7
ISO
  9
$CLAYER
  8
0
  9
$CELTYPE
  6
BYLAYER
  9
$CECOLOR
 62
   256
  9
$DIMSCALE
 40
0.0
  9
$DIMASZ
 40
3.0
  9
$DIMEXO
 40
1.5
  9
$DIMDLI
 40
10.0
  9
$DIMRND
 40
0.0
  9
$DIMDLE
 40
0.0
  9
$DIMEXE
 40
1.5
  9
$DIMTP
 40
0.0
  9
$DIMTM
 40
0.0
  9
$DIMTXT
 40
3.0
  9
$DIMCEN
 40
-5.0
  9
$DIMTSZ
 40
0.0
  9
$DIMTOL
 70
     0
  9
$DIMLIM
 70
     0
  9
$DIMTIH
 70
     0
  9
$DIMTOH
 70
     0
  9
$DIMSE1
 70
     0
  9
$DIMSE2
 70
     0
  9
$DIMTAD
 70
     1
  9
$DIMZIN
 70
     8
  9
$DIMBLK
  1

  9
$DIMASO
 70
     1
  9
$DIMSHO
 70
     1
  9
$DIMPOST
  1

  9
$DIMAPOST
  1

  9
$DIMALT
 70
     0
  9
$DIMALTD
 70
     0
  9
$DIMALTF
 40
25.399999999999999
  9
$DIMLFAC
 40
-1.0
  9
$DIMTOFL
 70
     1
  9
$DIMTVP
 40
0.0
  9
$DIMTIX
 70
     0
  9
$DIMSOXD
 70
     0
  9
$DIMSAH
 70
     0
  9
$DIMBLK1
  1

  9
$DIMBLK2
  1

  9
$DIMSTYLE
  2
MASKIN
  9
$DIMCLRD
 70
   256
  9
$DIMCLRE
 70
   256
  9
$DIMCLRT
 70
     2
  9
$DIMTFAC
 40
1.0
  9
$DIMGAP
 40
1.0
  9
$LUNITS
 70
     2
  9
$LUPREC
 70
     8
  9
$SKETCHINC
 40
0.1
  9
$FILLETRAD
 40
0.0
  9
$AUNITS
 70
     0
  9
$AUPREC
 70
     8
  9
$MENU
  1
ACAD
  9
$ELEVATION
 40
0.0
  9
$PELEVATION
 40
0.0
  9
$THICKNESS
 40
0.0
  9
$LIMCHECK
 70
     0
  9
$BLIPMODE
 70
     0
  9
$CHAMFERA
 40
0.0
  9
$CHAMFERB
 40
0.0
  9
$SKPOLY
 70
     0
  9
$TDCREATE
 40
2454859.5577701968
  9
$TDUPDATE
 40
2458453.4738173611
  9
$TDINDWG
 40
0.0181119329
  9
$TDUSRTIMER
 40
0.0181117477
  9
$USRTIMER
 70
     1
  9
$ANGBASE
 50
0.0
  9
$ANGDIR
 70
     0
  9
$PDMODE
 70
     0
  9
$PDSIZE
 40
0.0
  9
$PLINEWID
 40
0.0
  9
$COORDS
 70
     1
  9
$SPLFRAME
 70
     0
  9
$SPLINETYPE
 70
     6
  9
$SPLINESEGS
 70
     8
  9
$ATTDIA
 70
     1
  9
$ATTREQ
 70
     1
  9
$HANDLING
 70
     1
  9
$HANDSEED
  5
2B3A
  9
$SURFTAB1
 70
     6
  9
$SURFTAB2
 70
     6
  9
$SURFTYPE
 70
     6
  9
$SURFU
 70
     6
  9
$SURFV
 70
     6
  9
$UCSNAME
  2

  9
$UCSORG
 10
0.0
 20
0.0
 30
0.0
  9
$UCSXDIR
 10
1.0
 20
0.0
 30
0.0
  9
$UCSYDIR
 10
0.0
 20
1.0
 30
0.0
  9
$PUCSNAME
  2

  9
$PUCSORG
 10
0.0
 20
0.0
 30
0.0
  9
$PUCSXDIR
 10
1.0
 20
0.0
 30
0.0
  9
$PUCSYDIR
 10
0.0
 20
1.0
 30
0.0
  9
$USERI1
 70
     0
  9
$USERI2
 70
     0
  9
$USERI3
 70
     0
  9
$USERI4
 70
     0
  9
$USERI5
 70
     0
  9
$USERR1
 40
0.0
  9
$USERR2
 40
0.0
  9
$USERR3
 40
0.0
  9
$USERR4
 40
0.0
  9
$USERR5
 40
0.0
  9
$WORLDVIEW
 70
     1
  9
$SHADEDGE
 70
     3
  9
$SHADEDIF
 70
    70
  9
$TILEMODE
 70
     1
  9
$MAXACTVP
 70
    16
  9
$PLIMCHECK
 70
     0
  9
$PEXTMIN
 10
1.0000000000000000E+020
 20
1.0000000000000000E+020
 30
1.0000000000000000E+020
  9
$PEXTMAX
 10
-1.0000000000000000E+020
 20
-1.0000000000000000E+020
 30
-1.0000000000000000E+020
  9
$PLIMMIN
 10
-5.069427490234375
 20
-5.8737497329711914
  9
$PLIMMAX
 10
291.89889526367187
 20
204.0995779037475
  9
$UNITMODE
 70
     0
  9
$VISRETAIN
 70
     1
  9
$PLINEGEN
 70
     0
  9
$PSLTSCALE
 70
     1
  0
ENDSEC
  0
SECTION
  2
TABLES
  0
TABLE
  2
VPORT
 70
     1
  0
VPORT
  2
*ACTIVE
 70
     0
 10
0.0
 20
0.0
 11
1.0
 21
1.0
 12
22.355124282837672
 22
158.53341043047291
 13
0.0
 23
0.0
 14
1.0
 24
1.0
 15
0.0
 25
0.0
 16
0.0
 26
0.0
 36
1.0
 17
0.0
 27
0.0
 37
0.0
 40
265.32467049912998
 41
1.7265193370165739
 42
50.0
 43
0.0
 44
0.0
 50
0.0
 51
0.0
 71
     0
 72
   100
 73
     1
 74
     1
 75
     0
 76
     0
 77
     0
 78
     0
  0
ENDTAB
  0
TABLE
  2
LTYPE
 70
    60
  0
LTYPE
  2
CONTINUOUS
 70
     0
  3
Solid line
 72
    65
 73
     0
 40
0.0
  0
LTYPE
  2
BYGG-01482201$0$NEWDOT
 70
     0
  3
____ . ____ . ____ . ____ . ____ . ____ . ____
 72
    65
 73
     4
 40
2.0
 49
1.0
 49
-0.5
 49
0.0
 49
-0.5
  0
LTYPE
  2
BYGG-014357$0$NEWDOT
 70
     0
  3
____ . ____ . ____ . ____ . ____ . ____ . ____
 72
    65
 73
     4
 40
2.0
 49
1.0
 49
-0.5
 49
0.0
 49
-0.5
  0
LTYPE
  2
BYGG-014357$0$DASHDOT
 70
     0
  3
__ . __ . __ . __ . __ . __ . __ . __ . __ . __
 72
    65
 73
     4
 40
1.0
 49
0.5
 49
-0.25
 49
0.0
 49
-0.25
  0
LTYPE
  2
BYGG-014357$0$DASHED
 70
     0
  3
__ __ __ __ __ __ __ __ __ __ __ __ __ __ __
 72
    65
 73
     2
 40
0.75
 49
0.5
 49
-0.25
  0
LTYPE
  2
BYGG-014279$0$NEWDOT
 70
     0
  3
____ . ____ . ____ . ____ . ____ . ____ . ____
 72
    65
 73
     4
 40
2.0
 49
1.0
 49
-0.5
 49
0.0
 49
-0.5
  0
LTYPE
  2
BYGG-01482201$0$ZIGZAG
 70
     0
  3
Zig zag /\/\/\/\/\/\/\/\/\/\/\/\/\/\/\/\/\/\/\/\/\/\/\/
 72
    65
 73
     4
 40
20.32254
 49
0.00254
 49
-5.0800000000000001
 49
-10.16
 49
-5.0800000000000001
  0
LTYPE
  2
BYGG-014279$0$ZIGZAG
 70
     0
  3
Zig zag /\/\/\/\/\/\/\/\/\/\/\/\/\/\/\/\/\/\/\/\/\/\/\/
 72
    65
 73
     4
 40
20.32254
 49
0.00254
 49
-5.0800000000000001
 49
-10.16
 49
-5.0800000000000001
  0
LTYPE
  2
BYGG-024756$0$NEWDOT
 70
     0
  3
____ . ____ . ____ . ____ . ____ . ____ . ____
 72
    65
 73
     4
 40
2.0
 49
1.0
 49
-0.5
 49
0.0
 49
-0.5
  0
LTYPE
  2
BYGG-024756$0$DASHDOT
 70
     0
  3
__ . __ . __ . __ . __ . __ . __ . __ . __ . __
 72
    65
 73
     4
 40
1.0
 49
0.5
 49
-0.25
 49
0.0
 49
-0.25
  0
LTYPE
  2
BYGG-020805$0$NEWDOT
 70
     0
  3
____ . ____ . ____ . ____ . ____ . ____ . ____
 72
    65
 73
     4
 40
2.0
 49
1.0
 49
-0.5
 49
0.0
 49
-0.5
  0
LTYPE
  2
BYGG-020805$0$DASHDOT
 70
     0
  3
__ . __ . __ . __ . __ . __ . __ . __ . __ . __
 72
    65
 73
     4
 40
1.0
 49
0.5
 49
-0.25
 49
0.0
 49
-0.25
  0
LTYPE
  2
BYGG-020805$0$DASHED
 70
     0
  3
__ __ __ __ __ __ __ __ __ __ __ __ __ __ __
 72
    65
 73
     2
 40
0.75
 49
0.5
 49
-0.25
  0
LTYPE
  2
BYGG-020805$0$PHANTOM
 70
     0
  3
Phantom ______  __  __  ______  __  __  ______
 72
    65
 73
     6
 40
63.5
 49
31.75
 49
-6.3499999999999988
 49
6.3499999999999988
 49
-6.3499999999999988
 49
6.3499999999999988
 49
-6.3499999999999988
  0
LTYPE
  2
BYGG-024798$0$NEWDOT
 70
     0
  3
____ . ____ . ____ . ____ . ____ . ____ . ____
 72
    65
 73
     4
 40
2.0
 49
1.0
 49
-0.5
 49
0.0
 49
-0.5
  0
LTYPE
  2
BYGG-024799$0$NEWDOT
 70
     0
  3
____ . ____ . ____ . ____ . ____ . ____ . ____
 72
    65
 73
     4
 40
2.0
 49
1.0
 49
-0.5
 49
0.0
 49
-0.5
  0
LTYPE
  2
BYGG-024799$0$DASHDOT
 70
     0
  3
__ . __ . __ . __ . __ . __ . __ . __ . __ . __
 72
    65
 73
     4
 40
1.0
 49
0.5
 49
-0.25
 49
0.0
 49
-0.25
  0
LTYPE
  2
BYGG-025652$0$NEWDOT
 70
     0
  3
____ . ____ . ____ . ____ . ____ . ____ . ____
 72
    65
 73
     4
 40
2.0
 49
1.0
 49
-0.5
 49
0.0
 49
-0.5
  0
LTYPE
  2
BYGG-025652$0$DASHDOT
 70
     0
  3
__ . __ . __ . __ . __ . __ . __ . __ . __ . __
 72
    65
 73
     4
 40
1.0
 49
0.5
 49
-0.25
 49
0.0
 49
-0.25
  0
LTYPE
  2
BYGG-025652$0$DASHED
 70
     0
  3
__ __ __ __ __ __ __ __ __ __ __ __ __ __ __
 72
    65
 73
     2
 40
0.75
 49
0.5
 49
-0.25
  0
LTYPE
  2
BYGG-025652$0$PHANTOM
 70
     0
  3
Phantom ______  __  __  ______  __  __  ______
 72
    65
 73
     6
 40
63.5
 49
31.75
 49
-6.3499999999999988
 49
6.3499999999999988
 49
-6.3499999999999988
 49
6.3499999999999988
 49
-6.3499999999999988
  0
LTYPE
  2
BYGG-014411$0$NEWDOT
 70
     0
  3
____ . ____ . ____ . ____ . ____ . ____ . ____
 72
    65
 73
     4
 40
2.0
 49
1.0
 49
-0.5
 49
0.0
 49
-0.5
  0
LTYPE
  2
BYGG-014411$0$ZIGZAG
 70
     0
  3
Zig zag /\/\/\/\/\/\/\/\/\/\/\/\/\/\/\/\/\/\/\/\/\/\/\/
 72
    65
 73
     4
 40
20.32254
 49
0.00254
 49
-5.0800000000000001
 49
-10.16
 49
-5.0800000000000001
  0
LTYPE
  2
BYGG-036624$0$NEWDOT
 70
     0
  3
____ . ____ . ____ . ____ . ____ . ____ . ____
 72
    65
 73
     4
 40
2.0
 49
1.0
 49
-0.5
 49
0.0
 49
-0.5
  0
LTYPE
  2
BYGG-036624$0$DASHDOT
 70
     0
  3
__ . __ . __ . __ . __ . __ . __ . __ . __ . __
 72
    65
 73
     4
 40
1.0
 49
0.5
 49
-0.25
 49
0.0
 49
-0.25
  0
LTYPE
  2
BYGG-036624$0$DASHED
 70
     0
  3
__ __ __ __ __ __ __ __ __ __ __ __ __ __ __
 72
    65
 73
     2
 40
0.75
 49
0.5
 49
-0.25
  0
LTYPE
  2
BYGG-036624$0$PHANTOM
 70
     0
  3
Phantom ______  __  __  ______  __  __  ______
 72
    65
 73
     6
 40
63.5
 49
31.75
 49
-6.3499999999999988
 49
6.3499999999999988
 49
-6.3499999999999988
 49
6.3499999999999988
 49
-6.3499999999999988
  0
LTYPE
  2
BYGG-036419$0$NEWDOT
 70
     0
  3
____ . ____ . ____ . ____ . ____ . ____ . ____
 72
    65
 73
     4
 40
2.0
 49
1.0
 49
-0.5
 49
0.0
 49
-0.5
  0
LTYPE
  2
BYGG-036419$0$BYGG-024778|NEWDOT
 70
     0
  3
____ . ____ . ____ . ____ . ____ . ____ . ____
 72
    65
 73
     4
 40
2.0
 49
1.0
 49
-0.5
 49
0.0
 49
-0.5
  0
LTYPE
  2
BYGG-036419$0$BYGG-035431|NEWDOT
 70
     0
  3
____ . ____ . ____ . ____ . ____ . ____ . ____
 72
    65
 73
     4
 40
2.0
 49
1.0
 49
-0.5
 49
0.0
 49
-0.5
  0
LTYPE
  2
BYGG-036419$0$BYGG-0354310
 70
     0
  3
__ __ __ __ __ __ __ __ __ __ __ __ __ __ __
 72
    65
 73
     2
 40
0.75
 49
0.5
 49
-0.25
  0
LTYPE
  2
BYGG-036419$0$BYGG-0354311
 70
     0
  3
Zig zag /\/\/\/\/\/\/\/\/\/\/\/\/\/\/\/\/\/\/\/\/\/\/\/
 72
    65
 73
     4
 40
20.32254
 49
0.00254
 49
-5.0800000000000001
 49
-10.16
 49
-5.0800000000000001
  0
LTYPE
  2
BYGG-036419$0$BYGG-035435|NEWDOT
 70
     0
  3
____ . ____ . ____ . ____ . ____ . ____ . ____
 72
    65
 73
     4
 40
2.0
 49
1.0
 49
-0.5
 49
0.0
 49
-0.5
  0
LTYPE
  2
BYGG-036419$0$BYGG-014411|NEWDOT
 70
     0
  3
____ . ____ . ____ . ____ . ____ . ____ . ____
 72
    65
 73
     4
 40
2.0
 49
1.0
 49
-0.5
 49
0.0
 49
-0.5
  0
LTYPE
  2
BYGG-036419$0$BYGG-0144110
 70
     0
  3
Zig zag /\/\/\/\/\/\/\/\/\/\/\/\/\/\/\/\/\/\/\/\/\/\/\/
 72
    65
 73
     4
 40
20.32254
 49
0.00254
 49
-5.0800000000000001
 49
-10.16
 49
-5.0800000000000001
  0
LTYPE
  2
BYGG-036419$0$BYGG-024787|NEWDOT
 70
     0
  3
____ . ____ . ____ . ____ . ____ . ____ . ____
 72
    65
 73
     4
 40
2.0
 49
1.0
 49
-0.5
 49
0.0
 49
-0.5
  0
LTYPE
  2
BYGG-036419$0$BYGG-024788|NEWDOT
 70
     0
  3
____ . ____ . ____ . ____ . ____ . ____ . ____
 72
    65
 73
     4
 40
2.0
 49
1.0
 49
-0.5
 49
0.0
 49
-0.5
  0
LTYPE
  2
BYGG-036419$0$BYGG-024789|NEWDOT
 70
     0
  3
____ . ____ . ____ . ____ . ____ . ____ . ____
 72
    65
 73
     4
 40
2.0
 49
1.0
 49
-0.5
 49
0.0
 49
-0.5
  0
LTYPE
  2
BYGG-036419$0$BYGG-024817|NEWDOT
 70
     0
  3
____ . ____ . ____ . ____ . ____ . ____ . ____
 72
    65
 73
     4
 40
2.0
 49
1.0
 49
-0.5
 49
0.0
 49
-0.5
  0
LTYPE
  2
BYGG-036419$0$BYGG-024794|NEWDOT
 70
     0
  3
____ . ____ . ____ . ____ . ____ . ____ . ____
 72
    65
 73
     4
 40
2.0
 49
1.0
 49
-0.5
 49
0.0
 49
-0.5
  0
LTYPE
  2
BYGG-033167$0$NEWDOT
 70
     0
  3
____ . ____ . ____ . ____ . ____ . ____ . ____
 72
    65
 73
     4
 40
2.0
 49
1.0
 49
-0.5
 49
0.0
 49
-0.5
  0
LTYPE
  2
BYGG-033167$0$DASHDOT
 70
     0
  3
__ . __ . __ . __ . __ . __ . __ . __ . __ . __
 72
    65
 73
     4
 40
1.0
 49
0.5
 49
-0.25
 49
0.0
 49
-0.25
  0
LTYPE
  2
BYGG-033167$0$DASHED
 70
     0
  3
__ __ __ __ __ __ __ __ __ __ __ __ __ __ __
 72
    65
 73
     2
 40
0.75
 49
0.5
 49
-0.25
  0
LTYPE
  2
BYGG-033167$0$PHANTOM
 70
     0
  3
Phantom ______  __  __  ______  __  __  ______
 72
    65
 73
     6
 40
63.5
 49
31.75
 49
-6.3499999999999988
 49
6.3499999999999988
 49
-6.3499999999999988
 49
6.3499999999999988
 49
-6.3499999999999988
  0
LTYPE
  2
BYGG-033167$0$BYGG-020132$
 70
     0
  3
____ . ____ . ____ . ____ . ____ . ____ . ____
 72
    65
 73
     4
 40
2.0
 49
1.0
 49
-0.5
 49
0.0
 49
-0.5
  0
LTYPE
  2
BYGG-033167$0$BYGG-024943$
 70
     0
  3
____ . ____ . ____ . ____ . ____ . ____ . ____
 72
    65
 73
     4
 40
2.0
 49
1.0
 49
-0.5
 49
0.0
 49
-0.5
  0
LTYPE
  2
BYGG-026410$0$NEWDOT
 70
     0
  3
____ . ____ . ____ . ____ . ____ . ____ . ____
 72
    65
 73
     4
 40
2.0
 49
1.0
 49
-0.5
 49
0.0
 49
-0.5
  0
LTYPE
  2
BYGG-026410$0$DASHDOT
 70
     0
  3
__ . __ . __ . __ . __ . __ . __ . __ . __ . __
 72
    65
 73
     4
 40
1.0
 49
0.5
 49
-0.25
 49
0.0
 49
-0.25
  0
LTYPE
  2
BYGG-026410$0$DASHED
 70
     0
  3
__ __ __ __ __ __ __ __ __ __ __ __ __ __ __
 72
    65
 73
     2
 40
0.75
 49
0.5
 49
-0.25
  0
LTYPE
  2
BYGG-026410$0$PHANTOM
 70
     0
  3
Phantom ______  __  __  ______  __  __  ______
 72
    65
 73
     6
 40
63.5
 49
31.75
 49
-6.3499999999999988
 49
6.3499999999999988
 49
-6.3499999999999988
 49
6.3499999999999988
 49
-6.3499999999999988
  0
LTYPE
  2
BYGG-030185$0$PHANTOM2
 70
     0
  3
Phantom (.5x) ___ _ _ ___ _ _ ___ _ _ ___ _ _
 72
    65
 73
     6
 40
1.25
 49
0.625
 49
-0.125
 49
0.125
 49
-0.125
 49
0.125
 49
-0.125
  0
LTYPE
  2
BYGG-024798$0$DASHDOT
 70
     0
  3
__ . __ . __ . __ . __ . __ . __ . __ . __ . __
 72
    65
 73
     4
 40
1.0
 49
0.5
 49
-0.25
 49
0.0
 49
-0.25
  0
LTYPE
  2
BYGG-014089$0$PHANTOM2
 70
     0
  3
Phantom (.5x) ___ _ _ ___ _ _ ___ _ _ ___ _ _
 72
    65
 73
     6
 40
1.25
 49
0.625
 49
-0.125
 49
0.125
 49
-0.125
 49
0.125
 49
-0.125
  0
LTYPE
  2
BYGG-014108$0$PHANTOM2
 70
     0
  3
Phantom (.5x) ___ _ _ ___ _ _ ___ _ _ ___ _ _
 72
    65
 73
     6
 40
1.25
 49
0.625
 49
-0.125
 49
0.125
 49
-0.125
 49
0.125
 49
-0.125
  0
LTYPE
  2
BYGG-025652$0$PHANTOM2
 70
     0
  3
Phantom (.5x) ___ _ _ ___ _ _ ___ _ _ ___ _ _
 72
    65
 73
     6
 40
1.25
 49
0.625
 49
-0.125
 49
0.125
 49
-0.125
 49
0.125
 49
-0.125
  0
LTYPE
  2
BYGG-014411$0$PHANTOM2
 70
     0
  3
Phantom (.5x) ___ _ _ ___ _ _ ___ _ _ ___ _ _
 72
    65
 73
     6
 40
1.25
 49
0.625
 49
-0.125
 49
0.125
 49
-0.125
 49
0.125
 49
-0.125
  0
LTYPE
  2
BYGG-014090$0$PHANTOM2
 70
     0
  3
Phantom (.5x) ___ _ _ ___ _ _ ___ _ _ ___ _ _
 72
    65
 73
     6
 40
1.25
 49
0.625
 49
-0.125
 49
0.125
 49
-0.125
 49
0.125
 49
-0.125
  0
LTYPE
  2
BYGG-014088$0$PHANTOM2
 70
     0
  3
Phantom (.5x) ___ _ _ ___ _ _ ___ _ _ ___ _ _
 72
    65
 73
     6
 40
1.25
 49
0.625
 49
-0.125
 49
0.125
 49
-0.125
 49
0.125
 49
-0.125
  0
LTYPE
  2
BYGG-036419$0$DASHDOT
 70
     0
  3
__ . __ . __ . __ . __ . __ . __ . __ . __ . __
 72
    65
 73
     4
 40
1.0
 49
0.5
 49
-0.25
 49
0.0
 49
-0.25
  0
LTYPE
  2
BYGG-036419$0$PHANTOM2
 70
     0
  3
Phantom (.5x) ___ _ _ ___ _ _ ___ _ _ ___ _ _
 72
    65
 73
     6
 40
1.25
 49
0.625
 49
-0.125
 49
0.125
 49
-0.125
 49
0.125
 49
-0.125
  0
ENDTAB
  0
TABLE
  2
LAYER
 70
   331
  0
LAYER
  2
0
 70
     0
 62
     7
  6
CONTINUOUS
  0
LAYER
  2
DEFPOINTS
 70
     0
 62
     7
  6
CONTINUOUS
  0
LAYER
  2
SAPA_ARTIKELNR
 70
     0
 62
     4
  6
CONTINUOUS
  0
LAYER
  2
SAPA_LIGHT
 70
     1
 62
     1
  6
CONTINUOUS
  0
LAYER
  2
SAPA_ISOLATOR
 70
     0
 62
     4
  6
CONTINUOUS
  0
LAYER
  2
SAPA_MATT
 70
     0
 62
     1
  6
CONTINUOUS
  0
LAYER
  2
SAPA_GLAS
 70
     0
 62
     4
  6
CONTINUOUS
  0
LAYER
  2
SAPA_FOGBAND
 70
     0
 62
     2
  6
CONTINUOUS
  0
LAYER
  2
SAPA_PROFIL
 70
     0
 62
     7
  6
CONTINUOUS
  0
ENDTAB
  0
TABLE
  2
STYLE
 70
    65
  0
STYLE
  2
STANDARD
 70
     0
 40
0.0
 41
1.0
 50
0.0
 71
     0
 42
0.2
  3
txt
  4

  0
STYLE
  2
ISO
 70
     0
 40
0.0
 41
1.0
 50
0.0
 71
     0
 42
3.5
  3
txt
  4

  0
STYLE
  2

 70
     1
 40
0.0
 41
1.0
 50
0.0
 71
     0
 42
0.2
  3
ltypeshp.shx
  4

  0
STYLE
  2
BYGG-021589$0$STANDARD
 70
     0
 40
0.0
 41
1.0
 50
0.0
 71
     0
 42
0.2
  3
txt
  4

  0
STYLE
  2
BYGG-021589$0$ISO
 70
     0
 40
0.0
 41
1.0
 50
0.0
 71
     0
 42
3.5
  3
isocp3.shx
  4

  0
STYLE
  2
BYGG-01482201$0$STANDARD
 70
     0
 40
0.0
 41
1.0
 50
0.0
 71
     0
 42
0.2
  3
txt
  4

  0
STYLE
  2
BYGG-01482201$0$ISO
 70
     0
 40
0.0
 41
1.0
 50
0.0
 71
     0
 42
3.5
  3
isocp3.shx
  4

  0
STYLE
  2
BYGG-021802$0$STANDARD
 70
     0
 40
0.0
 41
1.0
 50
0.0
 71
     0
 42
0.2
  3
txt
  4

  0
STYLE
  2
BYGG-021802$0$ISO
 70
     0
 40
0.0
 41
1.0
 50
0.0
 71
     0
 42
3.5
  3
isocp3.shx
  4

  0
STYLE
  2
BYGG-014357$0$STANDARD
 70
     0
 40
0.0
 41
1.0
 50
0.0
 71
     0
 42
0.2
  3
txt
  4

  0
STYLE
  2
BYGG-014357$0$ISO
 70
     0
 40
0.0
 41
1.0
 50
0.0
 71
     0
 42
3.5
  3
isocp3.shx
  4

  0
STYLE
  2
BYGG-014063$0$STANDARD
 70
     0
 40
0.0
 41
1.0
 50
0.0
 71
     0
 42
0.2
  3
txt
  4

  0
STYLE
  2
BYGG-014063$0$ISO
 70
     0
 40
0.0
 41
1.0
 50
0.0
 71
     0
 42
3.5
  3
isocp3.shx
  4

  0
STYLE
  2
BYGG-022668$0$STANDARD
 70
     0
 40
0.0
 41
1.0
 50
0.0
 71
     0
 42
0.2
  3
txt
  4

  0
STYLE
  2
BYGG-022668$0$ISO
 70
     0
 40
0.0
 41
1.0
 50
0.0
 71
     0
 42
3.5
  3
txt
  4

  0
STYLE
  2
BYGG-021582$0$STANDARD
 70
     0
 40
0.0
 41
1.0
 50
0.0
 71
     0
 42
0.2
  3
txt
  4

  0
STYLE
  2
BYGG-021582$0$ISO
 70
     0
 40
0.0
 41
1.0
 50
0.0
 71
     0
 42
3.5
  3
isocp3.shx
  4

  0
STYLE
  2
BYGG-014279$0$STANDARD
 70
     0
 40
0.0
 41
1.0
 50
0.0
 71
     0
 42
0.2
  3
TXT.shx
  4

  0
STYLE
  2
BYGG-014279$0$ISO
 70
     0
 40
0.0
 41
1.0
 50
0.0
 71
     0
 42
3.5
  3
iso
  4

  0
STYLE
  2
BYGG-030185$0$STANDARD
 70
     0
 40
0.0
 41
1.0
 50
0.0
 71
     0
 42
0.2
  3
txt
  4

  0
STYLE
  2
BYGG-030185$0$ISO
 70
     0
 40
0.0
 41
1.0
 50
0.0
 71
     0
 42
7.0
  3
ISO
  4

  0
STYLE
  2
BYGG-024798$0$STANDARD
 70
     0
 40
0.0
 41
1.0
 50
0.0
 71
     0
 42
0.2
  3
txt
  4

  0
STYLE
  2
BYGG-024798$0$ISO
 70
     0
 40
0.0
 41
1.0
 50
0.0
 71
     0
 42
3.5
  3
txt
  4

  0
STYLE
  2
BYGG-024799$0$STANDARD
 70
     0
 40
0.0
 41
1.0
 50
0.0
 71
     0
 42
0.2
  3
txt
  4

  0
STYLE
  2
BYGG-024799$0$ISO
 70
     0
 40
0.0
 41
1.0
 50
0.0
 71
     0
 42
3.5
  3
txt
  4

  0
STYLE
  2
BYGG-028980$0$STANDARD
 70
     0
 40
0.0
 41
1.0
 50
0.0
 71
     0
 42
0.2
  3
txt
  4

  0
STYLE
  2
BYGG-028980$0$ISO
 70
     0
 40
0.0
 41
1.0
 50
0.0
 71
     0
 42
3.5
  3
txt
  4

  0
STYLE
  2
BYGG-014089$0$STANDARD
 70
     0
 40
0.0
 41
1.0
 50
0.0
 71
     0
 42
0.2
  3
txt
  4

  0
STYLE
  2
BYGG-014089$0$ANNOTATIVE
 70
     0
 40
0.0
 41
1.0
 50
0.0
 71
     0
 42
3.5
  3
txt
  4

  0
STYLE
  2
BYGG-014108$0$STANDARD
 70
     0
 40
0.0
 41
1.0
 50
0.0
 71
     0
 42
0.4
  3
txt
  4

  0
STYLE
  2
BYGG-014108$0$SIMPLEX
 70
     0
 40
0.0
 41
1.0
 50
0.0
 71
     0
 42
0.2
  3
simplex
  4

  0
STYLE
  2
BYGG-019611$0$STANDARD
 70
     0
 40
0.0
 41
1.0
 50
0.0
 71
     0
 42
0.2
  3
txt
  4

  0
STYLE
  2
BYGG-019611$0$ISO
 70
     0
 40
0.0
 41
1.0
 50
0.0
 71
     0
 42
3.5
  3
txt
  4

  0
STYLE
  2
BYGG-025652$0$STANDARD
 70
     0
 40
0.0
 41
1.0
 50
0.0
 71
     0
 42
0.2
  3
txt
  4

  0
STYLE
  2
BYGG-025652$0$ISO
 70
     0
 40
0.0
 41
1.0
 50
0.0
 71
     0
 42
3.5
  3
txt
  4

  0
STYLE
  2
BYGG-025652$0$ANNOTATIVE
 70
     0
 40
0.0
 41
1.0
 50
0.0
 71
     0
 42
0.2
  3
txt
  4

  0
STYLE
  2
BYGG-014411$0$STANDARD
 70
     0
 40
0.0
 41
1.0
 50
0.0
 71
     0
 42
0.2
  3
txt
  4

  0
STYLE
  2
BYGG-014411$0$ISO
 70
     0
 40
0.0
 41
1.0
 50
0.0
 71
     0
 42
3.5
  3
isocp3.shx
  4

  0
STYLE
  2
BYGG-014090$0$STANDARD
 70
     0
 40
0.0
 41
1.0
 50
0.0
 71
     0
 42
0.2
  3
txt
  4

  0
STYLE
  2
BYGG-014090$0$SIMPLEX
 70
     0
 40
0.0
 41
1.0
 50
0.0
 71
     0
 42
0.2
  3
simplex
  4

  0
STYLE
  2
BYGG-014088$0$STANDARD
 70
     0
 40
0.0
 41
1.0
 50
0.0
 71
     0
 42
0.4
  3
txt
  4

  0
STYLE
  2
BYGG-036624$0$STANDARD
 70
     0
 40
0.0
 41
1.0
 50
0.0
 71
     0
 42
0.2
  3
txt
  4

  0
STYLE
  2
BYGG-036624$0$ISO
 70
     0
 40
0.0
 41
1.0
 50
0.0
 71
     0
 42
3.5
  3
txt
  4

  0
STYLE
  2
BYGG-036419$0$STANDARD
 70
     0
 40
0.0
 41
1.0
 50
0.0
 71
     0
 42
0.2
  3
txt
  4

  0
STYLE
  2
BYGG-036419$0$ISO
 70
     0
 40
0.0
 41
1.0
 50
0.0
 71
     0
 42
3.5
  3
txt
  4

  0
STYLE
  2
BYGG-036419$0$BYGG-024778$
 70
     0
 40
0.0
 41
1.0
 50
0.0
 71
     0
 42
3.5
  3
txt
  4

  0
STYLE
  2
BYGG-036419$0$BYGG-035431$
 70
     0
 40
0.0
 41
1.0
 50
0.0
 71
     0
 42
3.5
  3
txt
  4

  0
STYLE
  2
BYGG-036419$0$BYGG-035435$
 70
     0
 40
0.0
 41
1.0
 50
0.0
 71
     0
 42
3.5
  3
txt
  4

  0
STYLE
  2
BYGG-036419$0$BYGG-014411$
 70
     0
 40
0.0
 41
1.0
 50
0.0
 71
     0
 42
3.5
  3
isocp3.shx
  4

  0
STYLE
  2
BYGG-036419$0$BYGG-024787$
 70
     0
 40
0.0
 41
1.0
 50
0.0
 71
     0
 42
3.5
  3
txt
  4

  0
STYLE
  2
BYGG-036419$0$BYGG-024788$
 70
     0
 40
0.0
 41
1.0
 50
0.0
 71
     0
 42
3.5
  3
txt
  4

  0
STYLE
  2
BYGG-036419$0$BYGG-024789$
 70
     0
 40
0.0
 41
1.0
 50
0.0
 71
     0
 42
3.5
  3
txt
  4

  0
STYLE
  2
BYGG-036419$0$BYGG-024817$
 70
     0
 40
0.0
 41
1.0
 50
0.0
 71
     0
 42
3.5
  3
txt
  4

  0
STYLE
  2
BYGG-036419$0$BYGG-024794$
 70
     0
 40
0.0
 41
1.0
 50
0.0
 71
     0
 42
3.5
  3
txt
  4

  0
STYLE
  2
BYGG-024756$0$STANDARD
 70
     0
 40
0.0
 41
1.0
 50
0.0
 71
     0
 42
0.2
  3
txt
  4

  0
STYLE
  2
BYGG-024756$0$ISO
 70
     0
 40
0.0
 41
1.0
 50
0.0
 71
     0
 42
3.5
  3
txt
  4

  0
STYLE
  2
BYGG-020805$0$STANDARD
 70
     0
 40
0.0
 41
1.0
 50
0.0
 71
     0
 42
0.2
  3
txt
  4

  0
STYLE
  2
BYGG-020805$0$ISO
 70
     0
 40
0.0
 41
1.0
 50
0.0
 71
     0
 42
3.5
  3
txt
  4

  0
STYLE
  2
BYGG-033167$0$STANDARD
 70
     0
 40
0.0
 41
1.0
 50
0.0
 71
     0
 42
0.2
  3
txt
  4

  0
STYLE
  2
BYGG-033167$0$ISO
 70
     0
 40
0.0
 41
1.0
 50
0.0
 71
     0
 42
3.5
  3
txt
  4

  0
STYLE
  2
BYGG-033167$0$BYGG-020132$
 70
     0
 40
0.0
 41
1.0
 50
0.0
 71
     0
 42
3.5
  3
txt
  4

  0
STYLE
  2
BYGG-033167$0$BYGG-024943$
 70
     0
 40
0.0
 41
1.0
 50
0.0
 71
     0
 42
3.5
  3
txt
  4

  0
STYLE
  2
BYGG-026410$0$STANDARD
 70
     0
 40
0.0
 41
1.0
 50
0.0
 71
     0
 42
0.2
  3
txt
  4

  0
STYLE
  2
BYGG-026410$0$ISO
 70
     0
 40
0.0
 41
1.0
 50
0.0
 71
     0
 42
3.5
  3
txt
  4

  0
STYLE
  2
BYGG-035883$0$STANDARD
 70
     0
 40
0.0
 41
1.0
 50
0.0
 71
     0
 42
0.2
  3
txt
  4

  0
ENDTAB
  0
TABLE
  2
VIEW
 70
     0
  0
ENDTAB
  0
TABLE
  2
UCS
 70
     0
  0
ENDTAB
  0
TABLE
  2
APPID
 70
    45
  0
APPID
  2
ACAD
 70
     0
  0
APPID
  2
ACAD_DSTYLE_DIMTEXT_FILL
 70
     0
  0
APPID
  2
ACAD_DSTYLE_DIMEXT_LENGTH
 70
     0
  0
APPID
  2
ACAD_DSTYLE_DIMEXT_ENABLED
 70
     0
  0
APPID
  2
ACAD_DSTYLE_DIM_LINETYPE
 70
     0
  0
APPID
  2
ACAD_DSTYLE_DIM_EXT1_LINETYPE
 70
     0
  0
APPID
  2
ACAD_DSTYLE_DIM_EXT2_LINETYPE
 70
     0
  0
APPID
  2
ACAD_DSTYLE_DIMJOGGED_JOGA
 70
     0
  0
APPID
  2
ACAD_DSTYLE_DIMARC_LENGTH_
 70
     0
  0
APPID
  2
ACAD_PSEXT
 70
     0
  0
APPID
  2
ACAD_MLEADERVER
 70
     0
  0
APPID
  2
AMG_ARCHIVE11
 70
     0
  0
APPID
  2
ACAD_EXEMPT_FROM_CAD_STANDARDS
 70
     0
  0
APPID
  2
ACADANNOTATIVE
 70
     0
  0
APPID
  2
ACAECLAYERSTANDARD
 70
     0
  0
APPID
  2
DCO15
 70
     0
  0
APPID
  2
ACDBDYNAMICBLOCKGUID
 70
     0
  0
APPID
  2
ACDBBLOCKREPETAG
 70
     0
  0
APPID
  2
GENIUS_GENODEF_13
 70
     0
  0
APPID
  2
GENIUS_GENTRA_14
 70
     0
  0
APPID
  2
GENIUS_GENOLIS_13
 70
     0
  0
APPID
  2
GENIUS_GENOENT_13
 70
     0
  0
APPID
  2
GENIUS_GENOBJ-N-TIT_13
 70
     0
  0
APPID
  2
GENIUS_GENTITLE_13
 70
     0
  0
APPID
  2
GENIUS_GENOREF_13
 70
     0
  0
APPID
  2
GENIUS_GENSCREG_15
 70
     0
  0
APPID
  2
GENIUS_GENOBJ-N-SDF_13
 70
     0
  0
APPID
  2
GENIUS_GENOBJ-N-CRS_13
 70
     0
  0
APPID
  2
RC_PROFILE
 70
     0
  0
APPID
  2
AME_SOL
 70
     0
  0
APPID
  2
ACAUTHENVIRON
 70
     0
  0
APPID
  2
ACDBDYNAMICBLOCKTRUENAME
 70
     0
  0
APPID
  2
ACAD_NAV_VCDISPLAY
 70
     0
  0
APPID
  2
ACAD_DSTYLE_DIMRADIAL_EXTENSION
 70
     0
  0
APPID
  2
ACAD_OBJECT_CHANGE_GUID
 70
     0
  0
APPID
  2
ACCMTRANSPARENCY
 70
     0
  0
APPID
  2
AVE_RENDER
 70
     0
  0
APPID
  2
AVE_ENTITY_MATERIAL
 70
     0
  0
APPID
  2
AVE_FINISH
 70
     0
  0
APPID
  2
AVE_MATERIAL
 70
     0
  0
APPID
  2
AVE_GLOBAL
 70
     0
  0
APPID
  2
4M_RENDER
 70
     0
  0
APPID
  2
LIBMAN
 70
     0
  0
APPID
  2
AUTOBUILD
 70
     0
  0
APPID
  2
AEC_XDATA_BOUND_SPACE
 70
     0
  0
ENDTAB
  0
TABLE
  2
DIMSTYLE
 70
    61
  0
DIMSTYLE
  2
STANDARD
 70
     0
  3

  4

  5

  6

  7

 40
1.0
 41
0.18
 42
0.0625
 43
0.38
 44
0.18
 45
0.0
 46
0.0
 47
0.0
 48
0.0
140
0.18
141
0.09
142
0.0
143
25.399999999999999
144
1.0
145
0.0
146
1.0
147
0.09
 71
     0
 72
     0
 73
     1
 74
     1
 75
     0
 76
     0
 77
     0
 78
     0
170
     0
171
     2
172
     0
173
     0
174
     0
175
     0
176
     0
177
     0
178
     0
  0
DIMSTYLE
  2
MASKIN
 70
     0
  3

  4

  5

  6

  7

 40
0.0
 41
3.0
 42
1.5
 43
10.0
 44
1.5
 45
0.0
 46
0.0
 47
0.0
 48
0.0
140
3.0
141
-5.0
142
0.0
143
25.399999999999999
144
-1.0
145
0.0
146
1.0
147
1.0
 71
     0
 72
     0
 73
     0
 74
     0
 75
     0
 76
     0
 77
     1
 78
     8
170
     0
171
     0
172
     1
173
     0
174
     0
175
     0
176
   256
177
   256
178
     2
  0
DIMSTYLE
  2
BYGG-021589$0$MASKIN
 70
     0
  3

  4

  5

  6

  7

 40
0.0
 41
3.0
 42
1.5
 43
10.0
 44
1.5
 45
0.0
 46
0.0
 47
0.0
 48
0.0
140
3.0
141
-5.0
142
0.0
143
25.399999999999999
144
-1.0
145
0.0
146
1.0
147
1.0
 71
     0
 72
     0
 73
     0
 74
     0
 75
     0
 76
     0
 77
     1
 78
     8
170
     0
171
     0
172
     1
173
     0
174
     0
175
     0
176
   256
177
   256
178
   256
  0
DIMSTYLE
  2
BYGG-01482201$0$STANDARD
 70
     0
  3

  4

  5

  6

  7

 40
1.0
 41
0.18
 42
0.0625
 43
0.38
 44
0.18
 45
0.0
 46
0.0
 47
0.0
 48
0.0
140
0.18
141
0.09
142
0.0
143
25.399999999999999
144
1.0
145
0.0
146
1.0
147
0.09
 71
     0
 72
     0
 73
     1
 74
     1
 75
     0
 76
     0
 77
     0
 78
     0
170
     0
171
     2
172
     0
173
     0
174
     0
175
     0
176
     0
177
     0
178
     0
  0
DIMSTYLE
  2
BYGG-01482201$0$MASKIN
 70
     0
  3

  4

  5

  6

  7

 40
0.0
 41
3.0
 42
1.5
 43
10.0
 44
1.5
 45
0.0
 46
0.0
 47
0.0
 48
0.0
140
3.0
141
-5.0
142
0.0
143
25.399999999999999
144
-1.0
145
0.0
146
1.0
147
1.0
 71
     0
 72
     0
 73
     0
 74
     1
 75
     0
 76
     0
 77
     1
 78
     8
170
     0
171
     0
172
     1
173
     0
174
     0
175
     0
176
   256
177
   256
178
     2
  0
DIMSTYLE
  2
BYGG-021802$0$MASKIN
 70
     0
  3

  4

  5

  6

  7

 40
0.0
 41
3.0
 42
1.5
 43
10.0
 44
1.5
 45
0.0
 46
0.0
 47
0.0
 48
0.0
140
3.0
141
-5.0
142
0.0
143
25.399999999999999
144
-1.0
145
0.0
146
1.0
147
1.0
 71
     0
 72
     0
 73
     0
 74
     0
 75
     0
 76
     0
 77
     1
 78
     8
170
     0
171
     0
172
     1
173
     0
174
     0
175
     0
176
   256
177
   256
178
   256
  0
DIMSTYLE
  2
BYGG-014357$0$MASKIN
 70
     0
  3

  4

  5

  6

  7

 40
0.0
 41
3.0
 42
1.5
 43
10.0
 44
1.5
 45
0.0
 46
0.0
 47
0.0
 48
0.0
140
3.0
141
-5.0
142
0.0
143
25.399999999999999
144
-1.0
145
0.0
146
1.0
147
1.0
 71
     0
 72
     0
 73
     0
 74
     0
 75
     0
 76
     0
 77
     1
 78
     8
170
     0
171
     0
172
     1
173
     0
174
     0
175
     0
176
   256
177
   256
178
   256
  0
DIMSTYLE
  2
BYGG-014357$0$MASKIN1
 70
     0
  3

  4

  5

  6

  7

 40
1.0
 41
3.0
 42
1.5
 43
10.0
 44
1.5
 45
0.0
 46
0.0
 47
0.0
 48
0.0
140
3.0
141
-5.0
142
0.0
143
25.399999999999999
144
1.0
145
0.0
146
1.0
147
0.9
 71
     0
 72
     0
 73
     0
 74
     0
 75
     0
 76
     0
 77
     1
 78
     8
170
     0
171
     0
172
     1
173
     0
174
     0
175
     0
176
   256
177
   256
178
   256
  0
DIMSTYLE
  2
BYGG-014357$0$MASKIN2
 70
     0
  3

  4

  5

  6

  7

 40
1.0
 41
3.0
 42
1.5
 43
10.0
 44
1.5
 45
0.0
 46
0.0
 47
0.0
 48
0.0
140
3.0
141
-5.0
142
0.0
143
25.399999999999999
144
1.0
145
0.0
146
1.0
147
0.9
 71
     0
 72
     0
 73
     0
 74
     0
 75
     0
 76
     0
 77
     1
 78
     8
170
     0
171
     0
172
     1
173
     0
174
     0
175
     0
176
   256
177
   256
178
   256
  0
DIMSTYLE
  2
BYGG-014357$0$MASKIN3
 70
     0
  3

  4

  5

  6

  7

 40
1.0
 41
3.0
 42
1.5
 43
10.0
 44
1.5
 45
0.0
 46
0.0
 47
0.0
 48
0.0
140
3.0
141
-5.0
142
0.0
143
25.399999999999999
144
1.0
145
0.0
146
1.0
147
0.9
 71
     0
 72
     0
 73
     0
 74
     0
 75
     0
 76
     0
 77
     1
 78
     8
170
     0
171
     0
172
     1
173
     0
174
     0
175
     0
176
   256
177
   256
178
   256
  0
DIMSTYLE
  2
BYGG-014357$0$DMST_1
 70
     0
  3

  4

  5

  6

  7

 40
1.0
 41
0.7000000000000002
 42
0.0
 43
7.0
 44
0.4
 45
0.0
 46
0.0
 47
0.15
 48
0.15
140
0.7000000000000002
141
0.0
142
0.0
143
25.399999999999999
144
1.0
145
0.0
146
0.7
147
0.09
 71
     1
 72
     0
 73
     0
 74
     0
 75
     0
 76
     0
 77
     1
 78
     9
170
     0
171
     2
172
     0
173
     0
174
     0
175
     0
176
     1
177
     1
178
     2
  0
DIMSTYLE
  2
BYGG-014063$0$MASKIN
 70
     0
  3

  4

  5

  6

  7

 40
0.0
 41
3.0
 42
1.5
 43
10.0
 44
1.5
 45
0.0
 46
0.0
 47
0.0
 48
0.0
140
3.0
141
-5.0
142
0.0
143
25.399999999999999
144
-1.0
145
0.0
146
1.0
147
1.0
 71
     0
 72
     0
 73
     0
 74
     0
 75
     0
 76
     0
 77
     1
 78
     8
170
     0
171
     0
172
     1
173
     0
174
     0
175
     0
176
   256
177
   256
178
   256
  0
DIMSTYLE
  2
BYGG-014063$0$STANDARD
 70
     0
  3

  4

  5

  6

  7

 40
1.0
 41
0.18
 42
0.0625
 43
0.38
 44
0.18
 45
0.0
 46
0.0
 47
0.0
 48
0.0
140
0.18
141
0.09
142
0.0
143
25.399999999999999
144
1.0
145
0.0
146
1.0
147
0.09
 71
     0
 72
     0
 73
     1
 74
     1
 75
     0
 76
     0
 77
     0
 78
     0
170
     0
171
     2
172
     0
173
     0
174
     0
175
     0
176
     0
177
     0
178
     0
  0
DIMSTYLE
  2
BYGG-022668$0$STANDARD
 70
     0
  3

  4

  5

  6

  7

 40
1.0
 41
0.18
 42
0.0625
 43
0.38
 44
0.18
 45
0.0
 46
0.0
 47
0.0
 48
0.0
140
0.18
141
0.09
142
0.0
143
25.399999999999999
144
1.0
145
0.0
146
1.0
147
0.09
 71
     0
 72
     0
 73
     1
 74
     1
 75
     0
 76
     0
 77
     0
 78
     0
170
     0
171
     2
172
     0
173
     0
174
     0
175
     0
176
     0
177
     0
178
     0
  0
DIMSTYLE
  2
BYGG-022668$0$MASKIN
 70
     0
  3

  4

  5

  6

  7

 40
0.0
 41
3.0
 42
1.5
 43
10.0
 44
1.5
 45
0.0
 46
0.0
 47
0.0
 48
0.0
140
3.0
141
-5.0
142
0.0
143
25.399999999999999
144
-1.0
145
0.0
146
1.0
147
1.0
 71
     0
 72
     0
 73
     0
 74
     0
 75
     0
 76
     0
 77
     1
 78
     8
170
     0
171
     0
172
     1
173
     0
174
     0
175
     0
176
   256
177
   256
178
     2
  0
DIMSTYLE
  2
BYGG-021582$0$MASKIN
 70
     0
  3

  4

  5

  6

  7

 40
0.0
 41
3.0
 42
1.5
 43
10.0
 44
1.5
 45
0.0
 46
0.0
 47
0.0
 48
0.0
140
3.0
141
-5.0
142
0.0
143
25.399999999999999
144
-1.0
145
0.0
146
1.0
147
1.0
 71
     0
 72
     0
 73
     0
 74
     0
 75
     0
 76
     0
 77
     1
 78
     8
170
     0
171
     0
172
     1
173
     0
174
     0
175
     0
176
   256
177
   256
178
   256
  0
DIMSTYLE
  2
BYGG-014279$0$STANDARD
 70
     0
  3

  4

  5

  6

  7

 40
1.0
 41
0.18
 42
0.0625
 43
0.38
 44
0.18
 45
0.0
 46
0.0
 47
0.0
 48
0.0
140
0.18
141
0.09
142
0.0
143
25.399999999999999
144
1.0
145
0.0
146
1.0
147
0.09
 71
     0
 72
     0
 73
     1
 74
     1
 75
     0
 76
     0
 77
     0
 78
     0
170
     0
171
     2
172
     0
173
     0
174
     0
175
     0
176
     0
177
     0
178
     0
  0
DIMSTYLE
  2
BYGG-014279$0$MASKIN
 70
     0
  3

  4

  5

  6

  7

 40
0.0
 41
3.0
 42
1.5
 43
10.0
 44
1.5
 45
0.0
 46
0.0
 47
0.0
 48
0.0
140
3.0
141
-5.0
142
0.0
143
25.399999999999999
144
-1.0
145
0.0
146
1.0
147
1.0
 71
     0
 72
     0
 73
     0
 74
     1
 75
     0
 76
     0
 77
     1
 78
     8
170
     0
171
     0
172
     1
173
     0
174
     0
175
     0
176
   256
177
   256
178
     2
  0
DIMSTYLE
  2
BYGG-030185$0$STANDARD
 70
     0
  3

  4

  5

  6

  7

 40
1.0
 41
0.18
 42
0.0625
 43
0.38
 44
0.18
 45
0.0
 46
0.0
 47
0.0
 48
0.0
140
0.18
141
0.09
142
0.0
143
25.399999999999999
144
1.0
145
0.0
146
1.0
147
0.09
 71
     0
 72
     0
 73
     1
 74
     1
 75
     0
 76
     0
 77
     0
 78
     0
170
     0
171
     2
172
     0
173
     0
174
     0
175
     0
176
     0
177
     0
178
     0
  0
DIMSTYLE
  2
BYGG-030185$0$MASKIN
 70
     0
  3

  4

  5

  6

  7

 40
0.0
 41
3.0
 42
1.5
 43
10.0
 44
1.5
 45
0.0
 46
0.0
 47
0.0
 48
0.0
140
3.0
141
-5.0
142
0.0
143
25.399999999999999
144
-1.0
145
0.0
146
1.0
147
1.0
 71
     0
 72
     0
 73
     0
 74
     1
 75
     0
 76
     0
 77
     1
 78
     8
170
     0
171
     0
172
     1
173
     0
174
     0
175
     0
176
   256
177
   256
178
     2
  0
DIMSTYLE
  2
BYGG-024798$0$MASKIN
 70
     0
  3

  4

  5

  6

  7

 40
0.0
 41
3.0
 42
1.5
 43
10.0
 44
1.5
 45
0.0
 46
0.0
 47
0.0
 48
0.0
140
3.0
141
-5.0
142
0.0
143
25.399999999999999
144
-1.0
145
0.0
146
1.0
147
1.0
 71
     0
 72
     0
 73
     0
 74
     0
 75
     0
 76
     0
 77
     1
 78
     8
170
     0
171
     0
172
     1
173
     0
174
     0
175
     0
176
   256
177
   256
178
     2
  0
DIMSTYLE
  2
BYGG-024798$0$STANDARD
 70
     0
  3

  4

  5

  6

  7

 40
1.0
 41
0.18
 42
0.0625
 43
0.38
 44
0.18
 45
0.0
 46
0.0
 47
0.0
 48
0.0
140
0.18
141
0.09
142
0.0
143
25.399999999999999
144
1.0
145
0.0
146
1.0
147
0.09
 71
     0
 72
     0
 73
     1
 74
     1
 75
     0
 76
     0
 77
     0
 78
     0
170
     0
171
     2
172
     0
173
     0
174
     0
175
     0
176
     0
177
     0
178
     0
  0
DIMSTYLE
  2
BYGG-024799$0$MASKIN
 70
     0
  3

  4

  5

  6

  7

 40
0.0
 41
3.0
 42
1.5
 43
10.0
 44
1.5
 45
0.0
 46
0.0
 47
0.0
 48
0.0
140
3.0
141
-5.0
142
0.0
143
25.399999999999999
144
-1.0
145
0.0
146
1.0
147
1.0
 71
     0
 72
     0
 73
     0
 74
     0
 75
     0
 76
     0
 77
     1
 78
     8
170
     0
171
     0
172
     1
173
     0
174
     0
175
     0
176
   256
177
   256
178
     2
  0
DIMSTYLE
  2
BYGG-024799$0$STANDARD
 70
     0
  3

  4

  5

  6

  7

 40
1.0
 41
0.18
 42
0.0625
 43
0.38
 44
0.18
 45
0.0
 46
0.0
 47
0.0
 48
0.0
140
0.18
141
0.09
142
0.0
143
25.399999999999999
144
1.0
145
0.0
146
1.0
147
0.09
 71
     0
 72
     0
 73
     1
 74
     1
 75
     0
 76
     0
 77
     0
 78
     0
170
     0
171
     2
172
     0
173
     0
174
     0
175
     0
176
     0
177
     0
178
     0
  0
DIMSTYLE
  2
BYGG-028980$0$STANDARD
 70
     0
  3

  4

  5

  6

  7

 40
1.0
 41
0.18
 42
0.0625
 43
0.38
 44
0.18
 45
0.0
 46
0.0
 47
0.0
 48
0.0
140
0.18
141
0.09
142
0.0
143
25.399999999999999
144
1.0
145
0.0
146
1.0
147
0.09
 71
     0
 72
     0
 73
     1
 74
     1
 75
     0
 76
     0
 77
     0
 78
     0
170
     0
171
     2
172
     0
173
     0
174
     0
175
     0
176
     0
177
     0
178
     0
  0
DIMSTYLE
  2
BYGG-028980$0$MASKIN
 70
     0
  3

  4

  5

  6

  7

 40
0.0
 41
3.0
 42
1.5
 43
10.0
 44
1.5
 45
0.0
 46
0.0
 47
0.0
 48
0.0
140
3.0
141
-5.0
142
0.0
143
25.399999999999999
144
-1.0
145
0.0
146
1.0
147
1.0
 71
     0
 72
     0
 73
     0
 74
     0
 75
     0
 76
     0
 77
     1
 78
     8
170
     0
171
     0
172
     1
173
     0
174
     0
175
     0
176
   256
177
   256
178
     2
  0
DIMSTYLE
  2
BYGG-014089$0$STANDARD
 70
     0
  3

  4

  5

  6

  7

 40
1.0
 41
0.18
 42
0.0625
 43
0.38
 44
0.18
 45
0.0
 46
0.0
 47
0.0
 48
0.0
140
0.18
141
0.09
142
0.0
143
25.399999999999999
144
1.0
145
0.0
146
1.0
147
0.09
 71
     0
 72
     0
 73
     1
 74
     1
 75
     0
 76
     0
 77
     0
 78
     0
170
     0
171
     2
172
     0
173
     0
174
     0
175
     0
176
     0
177
     0
178
     0
  0
DIMSTYLE
  2
BYGG-014108$0$STANDARD
 70
     0
  3

  4

  5

  6

  7

 40
1.0
 41
0.18
 42
0.0625
 43
0.38
 44
0.18
 45
0.0
 46
0.0
 47
0.0
 48
0.0
140
0.18
141
0.09
142
0.0
143
25.399999999999999
144
1.0
145
0.0
146
1.0
147
0.09
 71
     0
 72
     0
 73
     1
 74
     1
 75
     0
 76
     0
 77
     0
 78
     0
170
     0
171
     2
172
     0
173
     0
174
     0
175
     0
176
     0
177
     0
178
     0
  0
DIMSTYLE
  2
BYGG-019611$0$STANDARD
 70
     0
  3

  4

  5

  6

  7

 40
1.0
 41
0.18
 42
0.0625
 43
0.38
 44
0.18
 45
0.0
 46
0.0
 47
0.0
 48
0.0
140
0.18
141
0.09
142
0.0
143
25.399999999999999
144
1.0
145
0.0
146
1.0
147
0.09
 71
     0
 72
     0
 73
     1
 74
     1
 75
     0
 76
     0
 77
     0
 78
     0
170
     0
171
     2
172
     0
173
     0
174
     0
175
     0
176
     0
177
     0
178
     0
  0
DIMSTYLE
  2
BYGG-019611$0$MASKIN
 70
     0
  3

  4

  5

  6

  7

 40
0.0
 41
3.0
 42
1.5
 43
10.0
 44
1.5
 45
0.0
 46
0.0
 47
0.0
 48
0.0
140
3.0
141
-5.0
142
0.0
143
25.399999999999999
144
-1.0
145
0.0
146
1.0
147
1.0
 71
     0
 72
     0
 73
     0
 74
     0
 75
     0
 76
     0
 77
     1
 78
     8
170
     0
171
     0
172
     1
173
     0
174
     0
175
     0
176
   256
177
   256
178
     2
  0
DIMSTYLE
  2
BYGG-025652$0$STANDARD
 70
     0
  3

  4

  5

  6

  7

 40
1.0
 41
0.18
 42
0.0625
 43
0.38
 44
0.18
 45
0.0
 46
0.0
 47
0.0
 48
0.0
140
0.18
141
0.09
142
0.0
143
25.399999999999999
144
1.0
145
0.0
146
1.0
147
0.09
 71
     0
 72
     0
 73
     1
 74
     1
 75
     0
 76
     0
 77
     0
 78
     0
170
     0
171
     2
172
     0
173
     0
174
     0
175
     0
176
     0
177
     0
178
     0
  0
DIMSTYLE
  2
BYGG-025652$0$MASKIN
 70
     0
  3

  4

  5

  6

  7

 40
0.0
 41
3.0
 42
1.5
 43
10.0
 44
1.5
 45
0.0
 46
0.0
 47
0.0
 48
0.0
140
3.0
141
-5.0
142
0.0
143
25.399999999999999
144
-1.0
145
0.0
146
1.0
147
1.0
 71
     0
 72
     0
 73
     0
 74
     0
 75
     0
 76
     0
 77
     1
 78
     8
170
     0
171
     0
172
     1
173
     0
174
     0
175
     0
176
   256
177
   256
178
     2
  0
DIMSTYLE
  2
BYGG-025652$0$ANNOTATIVE
 70
     0
  3

  4

  5

  6

  7

 40
1.0
 41
0.18
 42
0.0625
 43
0.38
 44
0.18
 45
0.0
 46
0.0
 47
0.0
 48
0.0
140
0.18
141
0.09
142
0.0
143
25.399999999999999
144
1.0
145
0.0
146
1.0
147
0.09
 71
     0
 72
     0
 73
     1
 74
     1
 75
     0
 76
     0
 77
     0
 78
     0
170
     0
171
     2
172
     0
173
     0
174
     0
175
     0
176
     0
177
     0
178
     0
  0
DIMSTYLE
  2
BYGG-014411$0$MASKIN
 70
     0
  3

  4

  5

  6

  7

 40
0.0
 41
3.0
 42
1.5
 43
10.0
 44
1.5
 45
0.0
 46
0.0
 47
0.0
 48
0.0
140
3.0
141
-5.0
142
0.0
143
25.399999999999999
144
-1.0
145
0.0
146
1.0
147
1.0
 71
     0
 72
     0
 73
     0
 74
     0
 75
     0
 76
     0
 77
     1
 78
     8
170
     0
171
     0
172
     1
173
     0
174
     0
175
     0
176
   256
177
   256
178
   256
  0
DIMSTYLE
  2
BYGG-014411$0$STANDARD
 70
     0
  3

  4

  5

  6

  7

 40
1.0
 41
0.18
 42
0.0625
 43
0.38
 44
0.18
 45
0.0
 46
0.0
 47
0.0
 48
0.0
140
0.18
141
0.09
142
0.0
143
25.399999999999999
144
1.0
145
0.0
146
1.0
147
0.09
 71
     0
 72
     0
 73
     1
 74
     1
 75
     0
 76
     0
 77
     0
 78
     0
170
     0
171
     2
172
     0
173
     0
174
     0
175
     0
176
     0
177
     0
178
     0
  0
DIMSTYLE
  2
BYGG-014090$0$STANDARD
 70
     0
  3

  4

  5

  6

  7

 40
1.0
 41
0.18
 42
0.0625
 43
0.38
 44
0.18
 45
0.0
 46
0.0
 47
0.0
 48
0.0
140
0.18
141
0.09
142
0.0
143
25.399999999999999
144
1.0
145
0.0
146
1.0
147
0.09
 71
     0
 72
     0
 73
     1
 74
     1
 75
     0
 76
     0
 77
     0
 78
     0
170
     0
171
     2
172
     0
173
     0
174
     0
175
     0
176
     0
177
     0
178
     0
  0
DIMSTYLE
  2
BYGG-014088$0$STANDARD
 70
     0
  3

  4

  5

  6

  7

 40
1.0
 41
0.18
 42
0.0625
 43
0.38
 44
0.18
 45
0.0
 46
0.0
 47
0.0
 48
0.0
140
0.18
141
0.09
142
0.0
143
25.399999999999999
144
1.0
145
0.0
146
1.0
147
0.09
 71
     0
 72
     0
 73
     1
 74
     1
 75
     0
 76
     0
 77
     0
 78
     0
170
     0
171
     2
172
     0
173
     0
174
     0
175
     0
176
     0
177
     0
178
     0
  0
DIMSTYLE
  2
BYGG-036624$0$STANDARD
 70
     0
  3

  4

  5

  6

  7

 40
1.0
 41
0.18
 42
0.0625
 43
0.38
 44
0.18
 45
0.0
 46
0.0
 47
0.0
 48
0.0
140
0.18
141
0.09
142
0.0
143
25.399999999999999
144
1.0
145
0.0
146
1.0
147
0.09
 71
     0
 72
     0
 73
     1
 74
     1
 75
     0
 76
     0
 77
     0
 78
     0
170
     0
171
     2
172
     0
173
     0
174
     0
175
     0
176
     0
177
     0
178
     0
  0
DIMSTYLE
  2
BYGG-036624$0$MASKIN
 70
     0
  3

  4

  5

  6

  7

 40
0.0
 41
3.0
 42
1.5
 43
10.0
 44
1.5
 45
0.0
 46
0.0
 47
0.0
 48
0.0
140
3.0
141
-5.0
142
0.0
143
25.399999999999999
144
-1.0
145
0.0
146
1.0
147
1.0
 71
     0
 72
     0
 73
     0
 74
     0
 75
     0
 76
     0
 77
     1
 78
     8
170
     0
171
     0
172
     1
173
     0
174
     0
175
     0
176
   256
177
   256
178
     2
  0
DIMSTYLE
  2
BYGG-036419$0$STANDARD
 70
     0
  3

  4

  5

  6

  7

 40
1.0
 41
0.18
 42
0.0625
 43
0.38
 44
0.18
 45
0.0
 46
0.0
 47
0.0
 48
0.0
140
0.18
141
0.09
142
0.0
143
25.399999999999999
144
1.0
145
0.0
146
1.0
147
0.09
 71
     0
 72
     0
 73
     1
 74
     1
 75
     0
 76
     0
 77
     0
 78
     0
170
     0
171
     2
172
     0
173
     0
174
     0
175
     0
176
     0
177
     0
178
     0
  0
DIMSTYLE
  2
BYGG-036419$0$MASKIN
 70
     0
  3

  4

  5

  6

  7

 40
0.0
 41
3.0
 42
1.5
 43
10.0
 44
1.5
 45
0.0
 46
0.0
 47
0.0
 48
0.0
140
3.0
141
-5.0
142
0.0
143
25.399999999999999
144
-1.0
145
0.0
146
1.0
147
1.0
 71
     0
 72
     0
 73
     0
 74
     0
 75
     0
 76
     0
 77
     1
 78
     8
170
     0
171
     0
172
     1
173
     0
174
     0
175
     0
176
   256
177
   256
178
     2
  0
DIMSTYLE
  2
BYGG-036419$0$BYGG-024778$
 70
     0
  3

  4

  5

  6

  7

 40
0.0
 41
3.0
 42
1.5
 43
10.0
 44
1.5
 45
0.0
 46
0.0
 47
0.0
 48
0.0
140
3.0
141
-5.0
142
0.0
143
25.399999999999999
144
-1.0
145
0.0
146
1.0
147
1.0
 71
     0
 72
     0
 73
     0
 74
     0
 75
     0
 76
     0
 77
     1
 78
     8
170
     0
171
     0
172
     1
173
     0
174
     0
175
     0
176
   256
177
   256
178
     2
  0
DIMSTYLE
  2
BYGG-036419$0$BYGG-035431$
 70
     0
  3

  4

  5

  6

  7

 40
0.0
 41
3.0
 42
1.5
 43
10.0
 44
1.5
 45
0.0
 46
0.0
 47
0.0
 48
0.0
140
3.0
141
-5.0
142
0.0
143
25.399999999999999
144
-1.0
145
0.0
146
1.0
147
1.0
 71
     0
 72
     0
 73
     0
 74
     0
 75
     0
 76
     0
 77
     1
 78
     8
170
     0
171
     0
172
     1
173
     0
174
     0
175
     0
176
   256
177
   256
178
     2
  0
DIMSTYLE
  2
BYGG-036419$0$BYGG-035435$
 70
     0
  3

  4

  5

  6

  7

 40
0.0
 41
3.0
 42
1.5
 43
10.0
 44
1.5
 45
0.0
 46
0.0
 47
0.0
 48
0.0
140
3.0
141
-5.0
142
0.0
143
25.399999999999999
144
-1.0
145
0.0
146
1.0
147
1.0
 71
     0
 72
     0
 73
     0
 74
     0
 75
     0
 76
     0
 77
     1
 78
     8
170
     0
171
     0
172
     1
173
     0
174
     0
175
     0
176
   256
177
   256
178
     2
  0
DIMSTYLE
  2
BYGG-036419$0$BYGG-014411$
 70
     0
  3

  4

  5

  6

  7

 40
0.0
 41
3.0
 42
1.5
 43
10.0
 44
1.5
 45
0.0
 46
0.0
 47
0.0
 48
0.0
140
3.0
141
-5.0
142
0.0
143
25.399999999999999
144
-1.0
145
0.0
146
1.0
147
1.0
 71
     0
 72
     0
 73
     0
 74
     0
 75
     0
 76
     0
 77
     1
 78
     8
170
     0
171
     0
172
     1
173
     0
174
     0
175
     0
176
   256
177
   256
178
   256
  0
DIMSTYLE
  2
BYGG-036419$0$BYGG-024787$
 70
     0
  3

  4

  5

  6

  7

 40
0.0
 41
3.0
 42
1.5
 43
10.0
 44
1.5
 45
0.0
 46
0.0
 47
0.0
 48
0.0
140
3.0
141
-5.0
142
0.0
143
25.399999999999999
144
-1.0
145
0.0
146
1.0
147
1.0
 71
     0
 72
     0
 73
     0
 74
     0
 75
     0
 76
     0
 77
     1
 78
     8
170
     0
171
     0
172
     1
173
     0
174
     0
175
     0
176
   256
177
   256
178
     2
  0
DIMSTYLE
  2
BYGG-036419$0$BYGG-024788$
 70
     0
  3

  4

  5

  6

  7

 40
0.0
 41
3.0
 42
1.5
 43
10.0
 44
1.5
 45
0.0
 46
0.0
 47
0.0
 48
0.0
140
3.0
141
-5.0
142
0.0
143
25.399999999999999
144
-1.0
145
0.0
146
1.0
147
1.0
 71
     0
 72
     0
 73
     0
 74
     0
 75
     0
 76
     0
 77
     1
 78
     8
170
     0
171
     0
172
     1
173
     0
174
     0
175
     0
176
   256
177
   256
178
     2
  0
DIMSTYLE
  2
BYGG-036419$0$BYGG-024789$
 70
     0
  3

  4

  5

  6

  7

 40
0.0
 41
3.0
 42
1.5
 43
10.0
 44
1.5
 45
0.0
 46
0.0
 47
0.0
 48
0.0
140
3.0
141
-5.0
142
0.0
143
25.399999999999999
144
-1.0
145
0.0
146
1.0
147
1.0
 71
     0
 72
     0
 73
     0
 74
     0
 75
     0
 76
     0
 77
     1
 78
     8
170
     0
171
     0
172
     1
173
     0
174
     0
175
     0
176
   256
177
   256
178
     2
  0
DIMSTYLE
  2
BYGG-036419$0$BYGG-024817$
 70
     0
  3

  4

  5

  6

  7

 40
0.0
 41
3.0
 42
1.5
 43
10.0
 44
1.5
 45
0.0
 46
0.0
 47
0.0
 48
0.0
140
3.0
141
-5.0
142
0.0
143
25.399999999999999
144
-1.0
145
0.0
146
1.0
147
1.0
 71
     0
 72
     0
 73
     0
 74
     0
 75
     0
 76
     0
 77
     1
 78
     8
170
     0
171
     0
172
     1
173
     0
174
     0
175
     0
176
   256
177
   256
178
     2
  0
DIMSTYLE
  2
BYGG-036419$0$BYGG-024794$
 70
     0
  3

  4

  5

  6

  7

 40
0.0
 41
3.0
 42
1.5
 43
10.0
 44
1.5
 45
0.0
 46
0.0
 47
0.0
 48
0.0
140
3.0
141
-5.0
142
0.0
143
25.399999999999999
144
-1.0
145
0.0
146
1.0
147
1.0
 71
     0
 72
     0
 73
     0
 74
     0
 75
     0
 76
     0
 77
     1
 78
     8
170
     0
171
     0
172
     1
173
     0
174
     0
175
     0
176
   256
177
   256
178
     2
  0
DIMSTYLE
  2
BYGG-024756$0$MASKIN
 70
     0
  3

  4

  5

  6

  7

 40
0.0
 41
3.0
 42
1.5
 43
10.0
 44
1.5
 45
0.0
 46
0.0
 47
0.0
 48
0.0
140
3.0
141
-5.0
142
0.0
143
25.399999999999999
144
-1.0
145
0.0
146
1.0
147
1.0
 71
     0
 72
     0
 73
     0
 74
     0
 75
     0
 76
     0
 77
     1
 78
     8
170
     0
171
     0
172
     1
173
     0
174
     0
175
     0
176
   256
177
   256
178
     2
  0
DIMSTYLE
  2
BYGG-024756$0$STANDARD
 70
     0
  3

  4

  5

  6

  7

 40
1.0
 41
0.18
 42
0.0625
 43
0.38
 44
0.18
 45
0.0
 46
0.0
 47
0.0
 48
0.0
140
0.18
141
0.09
142
0.0
143
25.399999999999999
144
1.0
145
0.0
146
1.0
147
0.09
 71
     0
 72
     0
 73
     1
 74
     1
 75
     0
 76
     0
 77
     0
 78
     0
170
     0
171
     2
172
     0
173
     0
174
     0
175
     0
176
     0
177
     0
178
     0
  0
DIMSTYLE
  2
BYGG-020805$0$STANDARD
 70
     0
  3

  4

  5

  6

  7

 40
1.0
 41
0.18
 42
0.0625
 43
0.38
 44
0.18
 45
0.0
 46
0.0
 47
0.0
 48
0.0
140
0.18
141
0.09
142
0.0
143
25.399999999999999
144
1.0
145
0.0
146
1.0
147
0.09
 71
     0
 72
     0
 73
     1
 74
     1
 75
     0
 76
     0
 77
     0
 78
     0
170
     0
171
     2
172
     0
173
     0
174
     0
175
     0
176
     0
177
     0
178
     0
  0
DIMSTYLE
  2
BYGG-020805$0$MASKIN
 70
     0
  3

  4

  5

  6

  7

 40
0.0
 41
3.0
 42
1.5
 43
10.0
 44
1.5
 45
0.0
 46
0.0
 47
0.0
 48
0.0
140
3.0
141
-5.0
142
0.0
143
25.399999999999999
144
-1.0
145
0.0
146
1.0
147
1.0
 71
     0
 72
     0
 73
     0
 74
     0
 75
     0
 76
     0
 77
     1
 78
     8
170
     0
171
     0
172
     1
173
     0
174
     0
175
     0
176
   256
177
   256
178
     2
  0
DIMSTYLE
  2
BYGG-033167$0$STANDARD
 70
     0
  3

  4

  5

  6

  7

 40
1.0
 41
0.18
 42
0.0625
 43
0.38
 44
0.18
 45
0.0
 46
0.0
 47
0.0
 48
0.0
140
0.18
141
0.09
142
0.0
143
25.399999999999999
144
1.0
145
0.0
146
1.0
147
0.09
 71
     0
 72
     0
 73
     1
 74
     1
 75
     0
 76
     0
 77
     0
 78
     0
170
     0
171
     2
172
     0
173
     0
174
     0
175
     0
176
     0
177
     0
178
     0
  0
DIMSTYLE
  2
BYGG-033167$0$MASKIN
 70
     0
  3

  4

  5

  6

  7

 40
0.0
 41
3.0
 42
1.5
 43
10.0
 44
1.5
 45
0.0
 46
0.0
 47
0.0
 48
0.0
140
3.0
141
-5.0
142
0.0
143
25.399999999999999
144
-1.0
145
0.0
146
1.0
147
1.0
 71
     0
 72
     0
 73
     0
 74
     0
 75
     0
 76
     0
 77
     1
 78
     8
170
     0
171
     0
172
     1
173
     0
174
     0
175
     0
176
   256
177
   256
178
     2
  0
DIMSTYLE
  2
BYGG-033167$0$BYGG-020132$
 70
     0
  3

  4

  5

  6

  7

 40
0.0
 41
3.0
 42
1.5
 43
10.0
 44
1.5
 45
0.0
 46
0.0
 47
0.0
 48
0.0
140
3.0
141
-5.0
142
0.0
143
25.399999999999999
144
-1.0
145
0.0
146
1.0
147
1.0
 71
     0
 72
     0
 73
     0
 74
     0
 75
     0
 76
     0
 77
     1
 78
     8
170
     0
171
     0
172
     1
173
     0
174
     0
175
     0
176
   256
177
   256
178
     2
  0
DIMSTYLE
  2
BYGG-033167$0$BYGG-024943$
 70
     0
  3

  4

  5

  6

  7

 40
0.0
 41
3.0
 42
1.5
 43
10.0
 44
1.5
 45
0.0
 46
0.0
 47
0.0
 48
0.0
140
3.0
141
-5.0
142
0.0
143
25.399999999999999
144
-1.0
145
0.0
146
1.0
147
1.0
 71
     0
 72
     0
 73
     0
 74
     0
 75
     0
 76
     0
 77
     1
 78
     8
170
     0
171
     0
172
     1
173
     0
174
     0
175
     0
176
   256
177
   256
178
     2
  0
DIMSTYLE
  2
BYGG-026410$0$STANDARD
 70
     0
  3

  4

  5

  6

  7

 40
1.0
 41
0.18
 42
0.0625
 43
0.38
 44
0.18
 45
0.0
 46
0.0
 47
0.0
 48
0.0
140
0.18
141
0.09
142
0.0
143
25.399999999999999
144
1.0
145
0.0
146
1.0
147
0.09
 71
     0
 72
     0
 73
     1
 74
     1
 75
     0
 76
     0
 77
     0
 78
     0
170
     0
171
     2
172
     0
173
     0
174
     0
175
     0
176
     0
177
     0
178
     0
  0
DIMSTYLE
  2
BYGG-026410$0$MASKIN
 70
     0
  3

  4

  5

  6

  7

 40
0.0
 41
3.0
 42
1.5
 43
10.0
 44
1.5
 45
0.0
 46
0.0
 47
0.0
 48
0.0
140
3.0
141
-5.0
142
0.0
143
25.399999999999999
144
-1.0
145
0.0
146
1.0
147
1.0
 71
     0
 72
     0
 73
     0
 74
     0
 75
     0
 76
     0
 77
     1
 78
     8
170
     0
171
     0
172
     1
173
     0
174
     0
175
     0
176
   256
177
   256
178
     2
  0
DIMSTYLE
  2
BYGG-035883$0$STANDARD
 70
     0
  3

  4

  5

  6

  7

 40
1.0
 41
0.18
 42
0.0625
 43
0.38
 44
0.18
 45
0.0
 46
0.0
 47
0.0
 48
0.0
140
0.18
141
0.09
142
0.0
143
25.399999999999999
144
1.0
145
0.0
146
1.0
147
0.09
 71
     0
 72
     0
 73
     1
 74
     1
 75
     0
 76
     0
 77
     0
 78
     0
170
     0
171
     2
172
     0
173
     0
174
     0
175
     0
176
     0
177
     0
178
     0
  0
ENDTAB
  0
ENDSEC
  0
SECTION
  2
BLOCKS
  0
BLOCK
  8
0
  2
$MODEL_SPACE
 70
     0
 10
0.0
 20
0.0
 30
0.0
  3
$MODEL_SPACE
  1

  0
ENDBLK
  5
37
  8
0
  0
BLOCK
 67
     1
  8
0
  2
$PAPER_SPACE
 70
     0
 10
0.0
 20
0.0
 30
0.0
  3
$PAPER_SPACE
  1

  0
ENDBLK
  5
35
 67
     1
  8
0
  0
BLOCK
  8
0
  2
*D171
 70
     1
 10
0.0
 20
0.0
 30
0.0
  3
*D171
  1

  0
LINE
  5
186B
  8
SAPA_MATT
 10
-107.4999999990104
 20
-24.999999999999641
 30
0.0
 11
-127.15375231270581
 21
-24.999999999999641
 31
0.0
  0
LINE
  5
186C
  8
SAPA_MATT
 10
-107.4999999990104
 20
25.000000000000359
 30
0.0
 11
-127.15375231270581
 21
25.000000000000369
 31
0.0
  0
LINE
  5
186D
  8
SAPA_MATT
 10
-125.65375231270581
 20
-21.999999999999631
 30
0.0
 11
-125.65375231270581
 21
22.000000000000369
 31
0.0
  0
SOLID
  5
186E
  8
SAPA_MATT
 10
-126.15375231270581
 20
-21.999999999999631
 30
0.0
 11
-125.15375231270581
 21
-21.999999999999631
 31
0.0
 12
-125.65375231270581
 22
-24.999999999999641
 32
0.0
 13
-125.65375231270581
 23
-24.999999999999641
 33
0.0
  0
SOLID
  5
186F
  8
SAPA_MATT
 10
-126.15375231270581
 20
22.000000000000369
 30
0.0
 11
-125.15375231270581
 21
22.000000000000369
 31
0.0
 12
-125.65375231270581
 22
25.000000000000369
 32
0.0
 13
-125.65375231270581
 23
25.000000000000369
 33
0.0
  0
INSERT
  5
1870
  8
0
  2
*U185
 10
0.0
 20
0.0
 30
0.0
  0
POINT
  5
1871
  8
DEFPOINTS
 62
     0
 10
-105.9999999990105
 20
-24.999999999999641
 30
0.0
  0
POINT
  5
1872
  8
DEFPOINTS
 62
     0
 10
-105.9999999990104
 20
25.000000000000359
 30
0.0
  0
POINT
  5
1873
  8
DEFPOINTS
 62
     0
 10
-125.65375231270581
 20
25.000000000000369
 30
0.0
  0
ENDBLK
  5
181E
  8
0
  0
BLOCK
  8
0
  2
*D172
 70
     1
 10
0.0
 20
0.0
 30
0.0
  3
*D172
  1

  0
LINE
  5
29A4
  8
SAPA_MATT
 10
-107.4999999990104
 20
25.000000000000359
 30
0.0
 11
-127.15375231270581
 21
25.000000000000369
 31
0.0
  0
LINE
  5
29A5
  8
SAPA_MATT
 10
-83.498715294908095
 20
75.499999999900041
 30
0.0
 11
-127.15375231270581
 21
75.499999999900055
 31
0.0
  0
LINE
  5
29A6
  8
SAPA_MATT
 10
-125.65375231270581
 20
28.000000000000369
 30
0.0
 11
-125.65375231270581
 21
72.499999999900055
 31
0.0
  0
SOLID
  5
29A7
  8
SAPA_MATT
 10
-126.15375231270581
 20
28.000000000000369
 30
0.0
 11
-125.15375231270581
 21
28.000000000000369
 31
0.0
 12
-125.65375231270581
 22
25.000000000000369
 32
0.0
 13
-125.65375231270581
 23
25.000000000000369
 33
0.0
  0
SOLID
  5
29A8
  8
SAPA_MATT
 10
-126.15375231270581
 20
72.499999999900055
 30
0.0
 11
-125.15375231270581
 21
72.499999999900055
 31
0.0
 12
-125.65375231270581
 22
75.499999999900055
 32
0.0
 13
-125.65375231270581
 23
75.499999999900055
 33
0.0
  0
TEXT
  8
SAPA_MATT
  40
3
  5
29B1
  62
2
  72
0
  71
0
 10
-134.154
 20
44.9400
 30
0.000000
  1
50.5
  7
ISO
  0
POINT
  5
29AA
  8
DEFPOINTS
 62
     0
 10
-105.9999999990104
 20
25.000000000000359
 30
0.0
  0
POINT
  5
29AB
  8
DEFPOINTS
 62
     0
 10
-81.998715294908095
 20
75.499999999900041
 30
0.0
  0
POINT
  5
29AC
  8
DEFPOINTS
 62
     0
 10
-125.65375231270581
 20
75.499999999900055
 30
0.0
  0
ENDBLK
  5
182A
  8
0
  0
BLOCK
  8
0
  2
*D173
 70
     1
 10
0.0
 20
0.0
 30
0.0
  3
*D173
  1

  0
LINE
  5
2999
  8
SAPA_MATT
 10
-83.498715294908095
 20
75.499999999900041
 30
0.0
 11
-127.15375231270581
 21
75.499999999900055
 31
0.0
  0
LINE
  5
299A
  8
SAPA_MATT
 10
-83.500000003795364
 20
80.500000002078437
 30
0.0
 11
-127.15375231270581
 21
80.500000002078437
 31
0.0
  0
LINE
  5
299B
  8
SAPA_MATT
 10
-125.65375231270581
 20
72.499999999900055
 30
0.0
 11
-125.65375231270581
 21
69.499999999900055
 31
0.0
  0
LINE
  5
299C
  8
SAPA_MATT
 10
-125.65375231270581
 20
83.500000002078437
 30
0.0
 11
-125.65375231270581
 21
86.500000002078437
 31
0.0
  0
LINE
  5
299D
  8
SAPA_MATT
 10
-125.65375231270581
 20
75.499999999900055
 30
0.0
 11
-125.65375231270581
 21
80.500000002078437
 31
0.0
  0
SOLID
  5
299E
  8
SAPA_MATT
 10
-126.15375231270581
 20
72.499999999900055
 30
0.0
 11
-125.15375231270581
 21
72.499999999900055
 31
0.0
 12
-125.65375231270581
 22
75.499999999900055
 32
0.0
 13
-125.65375231270581
 23
75.499999999900055
 33
0.0
  0
SOLID
  5
299F
  8
SAPA_MATT
 10
-126.15375231270581
 20
83.500000002078437
 30
0.0
 11
-125.15375231270581
 21
83.500000002078437
 31
0.0
 12
-125.65375231270581
 22
80.500000002078437
 32
0.0
 13
-125.65375231270581
 23
80.500000002078437
 33
0.0
  0
TEXT
  8
SAPA_MATT
  40
3
  5
29B2
  62
2
  72
0
  71
0
 10
-134.154
 20
72.6900
 30
0.000000
  1
5
  7
ISO
  0
POINT
  5
29A1
  8
DEFPOINTS
 62
     0
 10
-81.998715294908095
 20
75.499999999900041
 30
0.0
  0
POINT
  5
29A2
  8
DEFPOINTS
 62
     0
 10
-82.00000000379535
 20
80.500000002078437
 30
0.0
  0
POINT
  5
29A3
  8
DEFPOINTS
 62
     0
 10
-125.65375231270581
 20
80.500000002078437
 30
0.0
  0
ENDBLK
  5
1836
  8
0
  0
BLOCK
  8
0
  2
*D174
 70
     1
 10
0.0
 20
0.0
 30
0.0
  3
*D174
  1

  0
LINE
  5
2990
  8
SAPA_MATT
 10
-83.498715298616119
 20
80.500000002078437
 30
0.0
 11
-127.15375231270581
 21
80.500000002078437
 31
0.0
  0
LINE
  5
2991
  8
SAPA_MATT
 10
-83.498715298616119
 20
118.00000000207839
 30
0.0
 11
-127.15375231270581
 21
118.00000000207839
 31
0.0
  0
LINE
  5
2992
  8
SAPA_MATT
 10
-125.65375231270581
 20
83.500000002078437
 30
0.0
 11
-125.65375231270581
 21
115.00000000207839
 31
0.0
  0
SOLID
  5
2993
  8
SAPA_MATT
 10
-126.15375231270581
 20
83.500000002078437
 30
0.0
 11
-125.15375231270581
 21
83.500000002078437
 31
0.0
 12
-125.65375231270581
 22
80.500000002078437
 32
0.0
 13
-125.65375231270581
 23
80.500000002078437
 33
0.0
  0
SOLID
  5
2994
  8
SAPA_MATT
 10
-126.15375231270581
 20
115.00000000207839
 30
0.0
 11
-125.15375231270581
 21
115.00000000207839
 31
0.0
 12
-125.65375231270581
 22
118.00000000207839
 32
0.0
 13
-125.65375231270581
 23
118.00000000207839
 33
0.0
  0
TEXT
  8
SAPA_MATT
  40
3
  5
29B3
  62
2
  72
0
  71
0
 10
-134.154
 20
93.9400
 30
0.000000
  1
37.5
  7
ISO
  0
POINT
  5
2996
  8
DEFPOINTS
 62
     0
 10
-81.998715298616119
 20
80.500000002078437
 30
0.0
  0
POINT
  5
2997
  8
DEFPOINTS
 62
     0
 10
-81.998715298616119
 20
118.00000000207839
 30
0.0
  0
POINT
  5
2998
  8
DEFPOINTS
 62
     0
 10
-125.65375231270581
 20
118.00000000207839
 30
0.0
  0
ENDBLK
  5
1844
  8
0
  0
BLOCK
  8
0
  2
*U175
 70
     1
 10
0.0
 20
0.0
 30
0.0
  3
*U175
  1

  0
TEXT
  5
18D3
  8
SAPA_ARTIKELNR
 10
70.589189578496885
 20
-6.9008666264774607
 30
0.0
 40
3.5
  1
68654
 50
90.0
  7
ISO
  0
ENDBLK
  5
18D5
  8
0
  0
BLOCK
  8
0
  2
*U176
 70
     1
 10
0.0
 20
0.0
 30
0.0
  3
*U176
  1

  0
TEXT
  5
18D7
  8
SAPA_ARTIKELNR
 10
-99.710467711619074
 20
-7.3592179174857204
 30
0.0
 40
3.5
  1
42657
 50
89.652010610705261
  7
ISO
  0
ENDBLK
  5
18D9
  8
0
  0
BLOCK
  8
0
  2
*U177
 70
     1
 10
0.0
 20
0.0
 30
0.0
  3
*U177
  1

  0
TEXT
  5
18DB
  8
SAPA_ARTIKELNR
 10
-108.9680298721789
 20
-7.3497464114458726
 30
0.0
 40
3.5
  1
42227
 50
90.0
  7
ISO
  0
ENDBLK
  5
18DD
  8
0
  0
BLOCK
  8
0
  2
*U178
 70
     1
 10
0.0
 20
0.0
 30
0.0
  3
*U178
  1

  0
TEXT
  5
1933
  8
SAPA_ARTIKELNR
 10
8.7376763184233255
 20
34.101430432346852
 30
0.0
 40
3.5
  1
86204
 50
89.999999999999986
  7
ISO
  0
ENDBLK
  5
1935
  8
0
  0
BLOCK
  8
0
  2
*U179
 70
     1
 10
0.0
 20
0.0
 30
0.0
  3
*U179
  1

  0
TEXT
  5
1937
  8
SAPA_ARTIKELNR
 10
18.805396466672669
 20
67.098941204377894
 30
0.0
 40
3.5
  1
86302
 50
89.999999999999986
  7
ISO
  0
ENDBLK
  5
1939
  8
0
  0
BLOCK
  8
0
  2
*U180
 70
     1
 10
0.0
 20
0.0
 30
0.0
  3
*U180
  1

  0
TEXT
  5
193B
  8
SAPA_ARTIKELNR
 10
7.0219693065158992
 20
101.5932557394195
 30
0.0
 40
3.5
  1
42728
 50
89.999999999999986
  7
ISO
  0
ENDBLK
  5
193D
  8
0
  0
BLOCK
  8
0
  2
*U181
 70
     1
 10
0.0
 20
0.0
 30
0.0
  3
*U181
  1

  0
SOLID
  5
2659
  8
SAPA_FOGBAND
  6
CONTINUOUS
 10
-84.637568219766294
 20
18.871796172251582
 30
0.0
 11
-84.817845783539497
 21
18.79712276034514
 31
0.0
 12
-84.457290655993106
 22
18.79712276034514
 32
0.0
 13
-84.457290655993106
 23
18.79712276034514
 33
0.0
210
0.0
220
0.0
230
1.0
  0
SOLID
  5
265A
  8
SAPA_FOGBAND
  6
CONTINUOUS
 10
-84.817845783539497
 20
18.79712276034514
 30
0.0
 11
-84.892519195445942
 21
18.616845196571941
 31
0.0
 12
-84.382617244086674
 22
18.616845196571941
 32
0.0
 13
-84.382617244086674
 23
18.616845196571941
 33
0.0
210
0.0
220
0.0
230
1.0
  0
SOLID
  5
265B
  8
SAPA_FOGBAND
  6
CONTINUOUS
 10
84.817845783539497
 20
18.79712276034514
 30
0.0
 11
84.457290655993106
 21
18.79712276034514
 31
0.0
 12
84.382617244086674
 22
18.616845196571941
 32
0.0
 13
84.382617244086674
 23
18.616845196571941
 33
0.0
210
0.0
220
0.0
230
-1.0
  0
SOLID
  5
265C
  8
SAPA_FOGBAND
  6
CONTINUOUS
 10
84.817845783539497
 20
18.436567632798742
 30
0.0
 11
84.457290655993106
 21
18.436567632798742
 31
0.0
 12
84.637568219766294
 22
18.3618942208923
 32
0.0
 13
84.637568219766294
 23
18.3618942208923
 33
0.0
210
0.0
220
0.0
230
-1.0
  0
SOLID
  5
265D
  8
SAPA_FOGBAND
  6
CONTINUOUS
 10
-84.892519195445942
 20
18.616845196571941
 30
0.0
 11
-84.817845783539497
 21
18.436567632798742
 31
0.0
 12
-84.457290655993106
 22
18.436567632798742
 32
0.0
 13
-84.457290655993106
 23
18.436567632798742
 33
0.0
210
0.0
220
0.0
230
1.0
  0
SOLID
  5
265E
  8
SAPA_FOGBAND
  6
CONTINUOUS
 10
84.892519195445942
 20
18.616845196571941
 30
0.0
 11
84.382617244086674
 21
18.616845196571941
 31
0.0
 12
84.457290655993106
 22
18.436567632798742
 32
0.0
 13
84.457290655993106
 23
18.436567632798742
 33
0.0
210
0.0
220
0.0
230
-1.0
  0
LINE
  5
265F
  8
SAPA_FOGBAND
  6
CONTINUOUS
 10
-84.637568219766294
 20
18.871796172251582
 30
0.0
 11
-84.817845783539497
 21
18.79712276034514
 31
0.0
  0
LINE
  5
2660
  8
SAPA_FOGBAND
  6
CONTINUOUS
 10
-84.457290655993106
 20
18.79712276034514
 30
0.0
 11
-84.637568219766294
 21
18.871796172251582
 31
0.0
  0
LINE
  5
2661
  8
SAPA_FOGBAND
  6
CONTINUOUS
 10
-84.817845783539497
 20
18.79712276034514
 30
0.0
 11
-84.892519195445942
 21
18.616845196571941
 31
0.0
  0
LINE
  5
2662
  8
SAPA_FOGBAND
  6
CONTINUOUS
 10
-84.457290655993106
 20
18.79712276034514
 30
0.0
 11
-84.382617244086674
 21
18.616845196571941
 31
0.0
  0
LINE
  5
2663
  8
SAPA_FOGBAND
  6
CONTINUOUS
 10
-84.457290655993106
 20
18.436567632798742
 30
0.0
 11
-84.637568219766294
 21
18.3618942208923
 31
0.0
  0
LINE
  5
2664
  8
SAPA_FOGBAND
  6
CONTINUOUS
 10
-84.637568219766294
 20
18.3618942208923
 30
0.0
 11
-84.817845783539497
 21
18.436567632798742
 31
0.0
  0
LINE
  5
2665
  8
SAPA_FOGBAND
  6
CONTINUOUS
 10
-84.892519195445942
 20
18.616845196571941
 30
0.0
 11
-84.817845783539497
 21
18.436567632798742
 31
0.0
  0
LINE
  5
2666
  8
SAPA_FOGBAND
  6
CONTINUOUS
 10
-84.382617244086674
 20
18.616845196571941
 30
0.0
 11
-84.457290655993106
 21
18.436567632798742
 31
0.0
  0
ENDBLK
  5
2668
  8
0
  0
BLOCK
  8
0
  2
*U182
 70
     1
 10
0.0
 20
0.0
 30
0.0
  3
*U182
  1

  0
SOLID
  5
277B
  8
SAPA_FOGBAND
  6
CONTINUOUS
 10
-85.028466855359767
 20
-18.374405819933258
 30
0.0
 11
-85.208744419132955
 21
-18.449079231839711
 31
0.0
 12
-84.848189291586536
 22
-18.449079231839711
 32
0.0
 13
-84.848189291586536
 23
-18.449079231839711
 33
0.0
210
0.0
220
0.0
230
1.0
  0
SOLID
  5
277C
  8
SAPA_FOGBAND
  6
CONTINUOUS
 10
-85.208744419132955
 20
-18.449079231839711
 30
0.0
 11
-85.283417831039387
 21
-18.62935679561291
 31
0.0
 12
-84.773515879680119
 22
-18.62935679561291
 32
0.0
 13
-84.773515879680119
 23
-18.62935679561291
 33
0.0
210
0.0
220
0.0
230
1.0
  0
SOLID
  5
277D
  8
SAPA_FOGBAND
  6
CONTINUOUS
 10
85.208744419132955
 20
-18.449079231839711
 30
0.0
 11
84.848189291586536
 21
-18.449079231839711
 31
0.0
 12
84.773515879680119
 22
-18.62935679561291
 32
0.0
 13
84.773515879680119
 23
-18.62935679561291
 33
0.0
210
0.0
220
0.0
230
-1.0
  0
SOLID
  5
277E
  8
SAPA_FOGBAND
  6
CONTINUOUS
 10
85.208744419132955
 20
-18.809634359386099
 30
0.0
 11
84.848189291586536
 21
-18.809634359386099
 31
0.0
 12
85.028466855359767
 22
-18.884307771292541
 32
0.0
 13
85.028466855359767
 23
-18.884307771292541
 33
0.0
210
0.0
220
0.0
230
-1.0
  0
SOLID
  5
277F
  8
SAPA_FOGBAND
  6
CONTINUOUS
 10
-85.283417831039387
 20
-18.62935679561291
 30
0.0
 11
-85.208744419132955
 21
-18.809634359386099
 31
0.0
 12
-84.848189291586536
 22
-18.809634359386099
 32
0.0
 13
-84.848189291586536
 23
-18.809634359386099
 33
0.0
210
0.0
220
0.0
230
1.0
  0
SOLID
  5
2780
  8
SAPA_FOGBAND
  6
CONTINUOUS
 10
85.283417831039387
 20
-18.62935679561291
 30
0.0
 11
84.773515879680119
 21
-18.62935679561291
 31
0.0
 12
84.848189291586536
 22
-18.809634359386099
 32
0.0
 13
84.848189291586536
 23
-18.809634359386099
 33
0.0
210
0.0
220
0.0
230
-1.0
  0
LINE
  5
2781
  8
SAPA_FOGBAND
  6
CONTINUOUS
 10
-85.028466855359767
 20
-18.374405819933258
 30
0.0
 11
-85.208744419132955
 21
-18.449079231839711
 31
0.0
  0
LINE
  5
2782
  8
SAPA_FOGBAND
  6
CONTINUOUS
 10
-84.848189291586536
 20
-18.449079231839711
 30
0.0
 11
-85.028466855359767
 21
-18.374405819933258
 31
0.0
  0
LINE
  5
2783
  8
SAPA_FOGBAND
  6
CONTINUOUS
 10
-85.208744419132955
 20
-18.449079231839711
 30
0.0
 11
-85.283417831039387
 21
-18.62935679561291
 31
0.0
  0
LINE
  5
2784
  8
SAPA_FOGBAND
  6
CONTINUOUS
 10
-84.848189291586536
 20
-18.449079231839711
 30
0.0
 11
-84.773515879680119
 21
-18.62935679561291
 31
0.0
  0
LINE
  5
2785
  8
SAPA_FOGBAND
  6
CONTINUOUS
 10
-84.848189291586536
 20
-18.809634359386099
 30
0.0
 11
-85.028466855359767
 21
-18.884307771292541
 31
0.0
  0
LINE
  5
2786
  8
SAPA_FOGBAND
  6
CONTINUOUS
 10
-85.028466855359767
 20
-18.884307771292541
 30
0.0
 11
-85.208744419132955
 21
-18.809634359386099
 31
0.0
  0
LINE
  5
2787
  8
SAPA_FOGBAND
  6
CONTINUOUS
 10
-85.283417831039387
 20
-18.62935679561291
 30
0.0
 11
-85.208744419132955
 21
-18.809634359386099
 31
0.0
  0
LINE
  5
2788
  8
SAPA_FOGBAND
  6
CONTINUOUS
 10
-84.773515879680119
 20
-18.62935679561291
 30
0.0
 11
-84.848189291586536
 21
-18.809634359386099
 31
0.0
  0
ENDBLK
  5
278A
  8
0
  0
BLOCK
  8
0
  2
*U183
 70
     1
 10
0.0
 20
0.0
 30
0.0
  3
*U183
  1

  0
SOLID
  5
27F5
  8
SAPA_FOGBAND
  6
CONTINUOUS
 10
-84.637568219766294
 20
18.871796172251582
 30
0.0
 11
-84.817845783539497
 21
18.79712276034514
 31
0.0
 12
-84.457290655993106
 22
18.79712276034514
 32
0.0
 13
-84.457290655993106
 23
18.79712276034514
 33
0.0
210
0.0
220
0.0
230
1.0
  0
SOLID
  5
27F6
  8
SAPA_FOGBAND
  6
CONTINUOUS
 10
-84.817845783539497
 20
18.79712276034514
 30
0.0
 11
-84.892519195445942
 21
18.616845196571941
 31
0.0
 12
-84.382617244086674
 22
18.616845196571941
 32
0.0
 13
-84.382617244086674
 23
18.616845196571941
 33
0.0
210
0.0
220
0.0
230
1.0
  0
SOLID
  5
27F7
  8
SAPA_FOGBAND
  6
CONTINUOUS
 10
84.817845783539497
 20
18.79712276034514
 30
0.0
 11
84.457290655993106
 21
18.79712276034514
 31
0.0
 12
84.382617244086674
 22
18.616845196571941
 32
0.0
 13
84.382617244086674
 23
18.616845196571941
 33
0.0
210
0.0
220
0.0
230
-1.0
  0
SOLID
  5
27F8
  8
SAPA_FOGBAND
  6
CONTINUOUS
 10
84.817845783539497
 20
18.436567632798742
 30
0.0
 11
84.457290655993106
 21
18.436567632798742
 31
0.0
 12
84.637568219766294
 22
18.3618942208923
 32
0.0
 13
84.637568219766294
 23
18.3618942208923
 33
0.0
210
0.0
220
0.0
230
-1.0
  0
SOLID
  5
27F9
  8
SAPA_FOGBAND
  6
CONTINUOUS
 10
-84.892519195445942
 20
18.616845196571941
 30
0.0
 11
-84.817845783539497
 21
18.436567632798742
 31
0.0
 12
-84.457290655993106
 22
18.436567632798742
 32
0.0
 13
-84.457290655993106
 23
18.436567632798742
 33
0.0
210
0.0
220
0.0
230
1.0
  0
SOLID
  5
27FA
  8
SAPA_FOGBAND
  6
CONTINUOUS
 10
84.892519195445942
 20
18.616845196571941
 30
0.0
 11
84.382617244086674
 21
18.616845196571941
 31
0.0
 12
84.457290655993106
 22
18.436567632798742
 32
0.0
 13
84.457290655993106
 23
18.436567632798742
 33
0.0
210
0.0
220
0.0
230
-1.0
  0
LINE
  5
27FB
  8
SAPA_FOGBAND
  6
CONTINUOUS
 10
-84.637568219766294
 20
18.871796172251582
 30
0.0
 11
-84.817845783539497
 21
18.79712276034514
 31
0.0
  0
LINE
  5
27FC
  8
SAPA_FOGBAND
  6
CONTINUOUS
 10
-84.457290655993106
 20
18.79712276034514
 30
0.0
 11
-84.637568219766294
 21
18.871796172251582
 31
0.0
  0
LINE
  5
27FD
  8
SAPA_FOGBAND
  6
CONTINUOUS
 10
-84.817845783539497
 20
18.79712276034514
 30
0.0
 11
-84.892519195445942
 21
18.616845196571941
 31
0.0
  0
LINE
  5
27FE
  8
SAPA_FOGBAND
  6
CONTINUOUS
 10
-84.457290655993106
 20
18.79712276034514
 30
0.0
 11
-84.382617244086674
 21
18.616845196571941
 31
0.0
  0
LINE
  5
27FF
  8
SAPA_FOGBAND
  6
CONTINUOUS
 10
-84.457290655993106
 20
18.436567632798742
 30
0.0
 11
-84.637568219766294
 21
18.3618942208923
 31
0.0
  0
LINE
  5
2800
  8
SAPA_FOGBAND
  6
CONTINUOUS
 10
-84.637568219766294
 20
18.3618942208923
 30
0.0
 11
-84.817845783539497
 21
18.436567632798742
 31
0.0
  0
LINE
  5
2801
  8
SAPA_FOGBAND
  6
CONTINUOUS
 10
-84.892519195445942
 20
18.616845196571941
 30
0.0
 11
-84.817845783539497
 21
18.436567632798742
 31
0.0
  0
LINE
  5
2802
  8
SAPA_FOGBAND
  6
CONTINUOUS
 10
-84.382617244086674
 20
18.616845196571941
 30
0.0
 11
-84.457290655993106
 21
18.436567632798742
 31
0.0
  0
ENDBLK
  5
2804
  8
0
  0
BLOCK
  8
0
  2
*U184
 70
     1
 10
0.0
 20
0.0
 30
0.0
  3
*U184
  1

  0
SOLID
  5
2917
  8
SAPA_FOGBAND
  6
CONTINUOUS
 10
-85.028466855359767
 20
-18.374405819933258
 30
0.0
 11
-85.208744419132955
 21
-18.449079231839711
 31
0.0
 12
-84.848189291586536
 22
-18.449079231839711
 32
0.0
 13
-84.848189291586536
 23
-18.449079231839711
 33
0.0
210
0.0
220
0.0
230
1.0
  0
SOLID
  5
2918
  8
SAPA_FOGBAND
  6
CONTINUOUS
 10
-85.208744419132955
 20
-18.449079231839711
 30
0.0
 11
-85.283417831039387
 21
-18.62935679561291
 31
0.0
 12
-84.773515879680119
 22
-18.62935679561291
 32
0.0
 13
-84.773515879680119
 23
-18.62935679561291
 33
0.0
210
0.0
220
0.0
230
1.0
  0
SOLID
  5
2919
  8
SAPA_FOGBAND
  6
CONTINUOUS
 10
85.208744419132955
 20
-18.449079231839711
 30
0.0
 11
84.848189291586536
 21
-18.449079231839711
 31
0.0
 12
84.773515879680119
 22
-18.62935679561291
 32
0.0
 13
84.773515879680119
 23
-18.62935679561291
 33
0.0
210
0.0
220
0.0
230
-1.0
  0
SOLID
  5
291A
  8
SAPA_FOGBAND
  6
CONTINUOUS
 10
85.208744419132955
 20
-18.809634359386099
 30
0.0
 11
84.848189291586536
 21
-18.809634359386099
 31
0.0
 12
85.028466855359767
 22
-18.884307771292541
 32
0.0
 13
85.028466855359767
 23
-18.884307771292541
 33
0.0
210
0.0
220
0.0
230
-1.0
  0
SOLID
  5
291B
  8
SAPA_FOGBAND
  6
CONTINUOUS
 10
-85.283417831039387
 20
-18.62935679561291
 30
0.0
 11
-85.208744419132955
 21
-18.809634359386099
 31
0.0
 12
-84.848189291586536
 22
-18.809634359386099
 32
0.0
 13
-84.848189291586536
 23
-18.809634359386099
 33
0.0
210
0.0
220
0.0
230
1.0
  0
SOLID
  5
291C
  8
SAPA_FOGBAND
  6
CONTINUOUS
 10
85.283417831039387
 20
-18.62935679561291
 30
0.0
 11
84.773515879680119
 21
-18.62935679561291
 31
0.0
 12
84.848189291586536
 22
-18.809634359386099
 32
0.0
 13
84.848189291586536
 23
-18.809634359386099
 33
0.0
210
0.0
220
0.0
230
-1.0
  0
LINE
  5
291D
  8
SAPA_FOGBAND
  6
CONTINUOUS
 10
-85.028466855359767
 20
-18.374405819933258
 30
0.0
 11
-85.208744419132955
 21
-18.449079231839711
 31
0.0
  0
LINE
  5
291E
  8
SAPA_FOGBAND
  6
CONTINUOUS
 10
-84.848189291586536
 20
-18.449079231839711
 30
0.0
 11
-85.028466855359767
 21
-18.374405819933258
 31
0.0
  0
LINE
  5
291F
  8
SAPA_FOGBAND
  6
CONTINUOUS
 10
-85.208744419132955
 20
-18.449079231839711
 30
0.0
 11
-85.283417831039387
 21
-18.62935679561291
 31
0.0
  0
LINE
  5
2920
  8
SAPA_FOGBAND
  6
CONTINUOUS
 10
-84.848189291586536
 20
-18.449079231839711
 30
0.0
 11
-84.773515879680119
 21
-18.62935679561291
 31
0.0
  0
LINE
  5
2921
  8
SAPA_FOGBAND
  6
CONTINUOUS
 10
-84.848189291586536
 20
-18.809634359386099
 30
0.0
 11
-85.028466855359767
 21
-18.884307771292541
 31
0.0
  0
LINE
  5
2922
  8
SAPA_FOGBAND
  6
CONTINUOUS
 10
-85.028466855359767
 20
-18.884307771292541
 30
0.0
 11
-85.208744419132955
 21
-18.809634359386099
 31
0.0
  0
LINE
  5
2923
  8
SAPA_FOGBAND
  6
CONTINUOUS
 10
-85.283417831039387
 20
-18.62935679561291
 30
0.0
 11
-85.208744419132955
 21
-18.809634359386099
 31
0.0
  0
LINE
  5
2924
  8
SAPA_FOGBAND
  6
CONTINUOUS
 10
-84.773515879680119
 20
-18.62935679561291
 30
0.0
 11
-84.848189291586536
 21
-18.809634359386099
 31
0.0
  0
ENDBLK
  5
2926
  8
0
  0
BLOCK
  8
0
  2
*U185
 70
     1
 10
0.0
 20
0.0
 30
0.0
  3
*U185
  1

  0
TEXT
  5
29AE
  8
SAPA_MATT
 62
     2
 10
-126.65375231270581
 20
-2.0999999999996541
 30
0.0
 40
3.0
  1
50
 50
90.0
  7
ISO
  0
ENDBLK
  5
29B0
  8
0
  0
ENDSEC
  0
SECTION
  2
ENTITIES
  0
INSERT
  5
6F2
  8
0
  2
*U175
 10
0.0
 20
0.0
 30
0.0
  0
INSERT
  5
6F3
  8
0
  2
*U176
 10
0.0
 20
0.0
 30
0.0
  0
INSERT
  5
6F4
  8
0
  2
*U177
 10
0.0
 20
0.0
 30
0.0
  0
POLYLINE
  5
720
  8
SAPA_LIGHT
 66
     1
 10
0.0
 20
0.0
 30
0.0
  0
VERTEX
  5
18DE
  8
SAPA_LIGHT
 10
-35.55000008174094
 20
129.99999999996729
 30
0.0
  0
VERTEX
  5
18DF
  8
SAPA_LIGHT
 10
-35.550000081740947
 20
99.999999999967329
 30
0.0
  0
VERTEX
  5
18E0
  8
SAPA_LIGHT
 10
-73.550000081742283
 20
99.999999999967329
 30
0.0
  0
VERTEX
  5
18E1
  8
SAPA_LIGHT
 10
-73.550000081742311
 20
129.9999999999684
 30
0.0
  0
SEQEND
  5
18E2
  8
SAPA_LIGHT
  0
POLYLINE
  5
733
  8
SAPA_LIGHT
 66
     1
 10
0.0
 20
0.0
 30
0.0
  0
VERTEX
  5
18E3
  8
SAPA_LIGHT
 10
-44.499999999010363
 20
-40.999999999996128
 30
0.0
  0
VERTEX
  5
18E4
  8
SAPA_LIGHT
 10
-44.499999999010363
 20
-10.999999999996129
 30
0.0
  0
VERTEX
  5
18E5
  8
SAPA_LIGHT
 10
-82.499999999011834
 20
-10.99999999999566
 30
0.0
  0
VERTEX
  5
18E6
  8
SAPA_LIGHT
 10
-82.499999999011834
 20
-40.999999999995673
 30
0.0
  0
SEQEND
  5
18E7
  8
SAPA_LIGHT
  0
POLYLINE
  5
7C0
  8
SAPA_LIGHT
 66
     1
 10
0.0
 20
0.0
 30
0.0
 70
     1
  0
VERTEX
  5
18E8
  8
SAPA_LIGHT
 10
-45.499999999010313
 20
-24.999999999999819
 30
0.0
  0
VERTEX
  5
18E9
  8
SAPA_LIGHT
 10
64.499999999998849
 20
-25.000000000000242
 30
0.0
  0
VERTEX
  5
18EA
  8
SAPA_LIGHT
 10
64.499999999998877
 20
24.999999999999758
 30
0.0
  0
VERTEX
  5
18EB
  8
SAPA_LIGHT
 10
-58.500000000018197
 20
24.999999999999229
 30
0.0
  0
VERTEX
  5
18EC
  8
SAPA_LIGHT
 10
-58.500000000002267
 20
4.9999999999997762
 30
0.0
  0
VERTEX
  5
18ED
  8
SAPA_LIGHT
 10
-82.499999999011933
 20
4.9999999999995683
 30
0.0
  0
VERTEX
  5
18EE
  8
SAPA_LIGHT
 10
-82.499999999208327
 20
24.9999999998367
 30
0.0
  0
VERTEX
  5
18EF
  8
SAPA_LIGHT
 10
-96.499999999010569
 20
25.000000000000359
 30
0.0
  0
VERTEX
  5
18F0
  8
SAPA_LIGHT
 10
-96.499999999010598
 20
-24.999999999999641
 30
0.0
  0
VERTEX
  5
18F1
  8
SAPA_LIGHT
 10
-82.499999999011834
 20
-24.99999999999973
 30
0.0
  0
VERTEX
  5
18F2
  8
SAPA_LIGHT
 10
-82.499999999011834
 20
-5.000000000000183
 30
0.0
  0
VERTEX
  5
18F3
  8
SAPA_LIGHT
 10
-45.499999999010313
 20
-5.0000000000002176
 30
0.0
  0
SEQEND
  5
18F4
  8
SAPA_LIGHT
  0
POLYLINE
  5
7C1
  8
SAPA_LIGHT
 66
     1
 10
0.0
 20
0.0
 30
0.0
  0
VERTEX
  5
18F5
  8
SAPA_LIGHT
 10
-82.500000000018446
 20
74.499999999966704
 30
0.0
  0
VERTEX
  5
18F6
  8
SAPA_LIGHT
 10
-82.499999999011948
 20
12.99999999999863
 30
0.0
  0
VERTEX
  5
18F7
  8
SAPA_LIGHT
 10
-58.500000000002267
 20
12.99999999999863
 30
0.0
  0
VERTEX
  5
18F8
  8
SAPA_LIGHT
 10
-58.510975989765129
 20
30.199999999999701
 30
0.0
  0
VERTEX
  5
18F9
  8
SAPA_LIGHT
 10
-11.3886164348715
 20
29.999999999999091
 30
0.0
  0
VERTEX
  5
18FA
  8
SAPA_LIGHT
 10
-8.5000000031935148
 20
29.968745704598749
 30
0.0
  0
VERTEX
  5
18FB
  8
SAPA_LIGHT
 10
-8.5000000031935095
 20
52.499999999998963
 30
0.0
  0
VERTEX
  5
18FC
  8
SAPA_LIGHT
 10
-77.050000003795503
 20
52.499999999998892
 30
0.0
  0
VERTEX
  5
18FD
  8
SAPA_LIGHT
 10
-77.050000003795475
 20
74.500000000177678
 30
0.0
  0
VERTEX
  5
18FE
  8
SAPA_LIGHT
 10
-82.500000000018446
 20
74.50000000010408
 30
0.0
  0
SEQEND
  5
18FF
  8
SAPA_LIGHT
  0
POLYLINE
  5
7C2
  8
SAPA_LIGHT
 66
     1
 10
0.0
 20
0.0
 30
0.0
  0
VERTEX
  5
1900
  8
SAPA_LIGHT
 10
-82.500000003811977
 20
116.9999999999348
 30
0.0
  0
VERTEX
  5
1901
  8
SAPA_LIGHT
 10
-82.500000003811991
 20
79.4999999999675
 30
0.0
  0
VERTEX
  5
1902
  8
SAPA_LIGHT
 10
-77.050000003795432
 20
79.4999999999675
 30
0.0
  0
VERTEX
  5
1903
  8
SAPA_LIGHT
 10
-77.050000003795475
 20
72.500000000041851
 30
0.0
  0
VERTEX
  5
1904
  8
SAPA_LIGHT
 10
-63.853716957736211
 20
72.500000000041851
 30
0.0
  0
VERTEX
  5
1905
  8
SAPA_LIGHT
 10
-63.853716957736232
 20
66.500000000041624
 30
0.0
  0
VERTEX
  5
1906
  8
SAPA_LIGHT
 10
-30.50000000690288
 20
66.500000000042078
 30
0.0
  0
VERTEX
  5
1907
  8
SAPA_LIGHT
 10
-30.50000000690288
 20
64.000000000042533
 30
0.0
  0
VERTEX
  5
1908
  8
SAPA_LIGHT
 10
-8.5000000031935095
 20
64.000000000042476
 30
0.0
  0
VERTEX
  5
1909
  8
SAPA_LIGHT
 10
-8.5000000031935112
 20
46.50000000004205
 30
0.0
  0
VERTEX
  5
190A
  8
SAPA_LIGHT
 10
1.000000001291889
 20
46.500000000042057
 30
0.0
  0
VERTEX
  5
190B
  8
SAPA_LIGHT
 10
0.9999999961233518
 20
87.783121633558267
 30
0.0
  0
VERTEX
  5
190C
  8
SAPA_LIGHT
 10
-0.5000000038765342
 20
90.381197844408007
 30
0.0
  0
VERTEX
  5
190D
  8
SAPA_LIGHT
 10
-8.2679491998451731
 20
94.866025403751777
 30
0.0
  0
VERTEX
  5
190E
  8
SAPA_LIGHT
 10
-8.7679491998454289
 20
94.999999999967486
 30
0.0
  0
VERTEX
  5
190F
  8
SAPA_LIGHT
 10
-10.000000002071131
 20
94.999999999967514
 30
0.0
  0
VERTEX
  5
1910
  8
SAPA_LIGHT
 10
-10.00000000207112
 20
116.9999999999812
 30
0.0
  0
VERTEX
  5
1911
  8
SAPA_LIGHT
 10
-35.550000081742311
 20
116.9999999999812
 30
0.0
  0
VERTEX
  5
1912
  8
SAPA_LIGHT
 10
-35.550000081742311
 20
94.694877633164054
 30
0.0
  0
VERTEX
  5
1913
  8
SAPA_LIGHT
 10
-73.550000081741629
 20
94.694877633164083
 30
0.0
  0
VERTEX
  5
1914
  8
SAPA_LIGHT
 10
-73.550000081741686
 20
117.0000000001466
 30
0.0
  0
VERTEX
  5
1915
  8
SAPA_LIGHT
 10
-82.500000003811977
 20
116.9999999999348
 30
0.0
  0
SEQEND
  5
1916
  8
SAPA_LIGHT
  0
POLYLINE
  5
7C9
  8
SAPA_LIGHT
 66
     1
 10
0.0
 20
0.0
 30
0.0
  0
VERTEX
  5
1917
  8
SAPA_LIGHT
 10
-35.550000081740151
 20
129.99999999996771
 30
0.0
  0
VERTEX
  5
1918
  8
SAPA_LIGHT
 10
-35.550000081740173
 20
99.999999999967784
 30
0.0
  0
VERTEX
  5
1919
  8
SAPA_LIGHT
 10
-73.550000081741629
 20
99.999999999967329
 30
0.0
  0
VERTEX
  5
191A
  8
SAPA_LIGHT
 10
-73.550000081741643
 20
129.99999999996729
 30
0.0
  0
SEQEND
  5
191B
  8
SAPA_LIGHT
  0
INSERT
  5
D30
  8
0
  2
*U178
 10
0.0
 20
0.0
 30
0.0
  0
INSERT
  5
D31
  8
0
  2
*U179
 10
0.0
 20
0.0
 30
0.0
  0
INSERT
  5
D32
  8
0
  2
*U180
 10
0.0
 20
0.0
 30
0.0
  0
POLYLINE
  5
1787
  8
SAPA_PROFIL
  6
CONTINUOUS
 66
     1
 10
0.0
 20
0.0
 30
0.0
 70
     1
  0
VERTEX
  5
1FBF
  8
SAPA_PROFIL
  6
CONTINUOUS
 10
-68.514627230068456
 20
53.499999999018513
 30
0.0
 42
-0.2596812337301868
  0
VERTEX
  5
1FC0
  8
SAPA_PROFIL
  6
CONTINUOUS
 10
-68.344596418528383
 20
53.405306803770209
 30
0.0
  0
VERTEX
  5
1FC1
  8
SAPA_PROFIL
  6
CONTINUOUS
 10
-67.943669073976579
 20
52.757960206146102
 30
0.0
 42
-0.5877032589248397
  0
VERTEX
  5
1FC2
  8
SAPA_PROFIL
  6
CONTINUOUS
 10
-68.198715291286462
 20
52.299999999018212
 30
0.0
  0
VERTEX
  5
1FC3
  8
SAPA_PROFIL
  6
CONTINUOUS
 10
-68.598715295421584
 20
52.299999999018212
 30
0.0
 42
0.4142135623731645
  0
VERTEX
  5
1FC4
  8
SAPA_PROFIL
  6
CONTINUOUS
 10
-68.898715295421809
 20
51.99999999901852
 30
0.0
  0
VERTEX
  5
1FC5
  8
SAPA_PROFIL
  6
CONTINUOUS
 10
-68.898715295421781
 20
48.799999999899988
 30
0.0
 42
0.4142135623731021
  0
VERTEX
  5
1FC6
  8
SAPA_PROFIL
  6
CONTINUOUS
 10
-68.598715295421783
 20
48.499999999899977
 30
0.0
  0
VERTEX
  5
1FC7
  8
SAPA_PROFIL
  6
CONTINUOUS
 10
-62.79871529490817
 20
48.499999999900012
 30
0.0
 42
0.4142135623730951
  0
VERTEX
  5
1FC8
  8
SAPA_PROFIL
  6
CONTINUOUS
 10
-62.49871529490818
 20
48.799999999899988
 30
0.0
  0
VERTEX
  5
1FC9
  8
SAPA_PROFIL
  6
CONTINUOUS
 10
-62.49871529490818
 20
51.199999999900001
 30
0.0
 42
0.4142135623730811
  0
VERTEX
  5
1FCA
  8
SAPA_PROFIL
  6
CONTINUOUS
 10
-62.79871529490817
 20
51.499999999899998
 30
0.0
  0
VERTEX
  5
1FCB
  8
SAPA_PROFIL
  6
CONTINUOUS
 10
-64.198715807173954
 20
51.499999999900012
 30
0.0
 42
-0.5920056181165752
  0
VERTEX
  5
1FCC
  8
SAPA_PROFIL
  6
CONTINUOUS
 10
-64.451724563491666
 20
51.961203502425803
 30
0.0
  0
VERTEX
  5
1FCD
  8
SAPA_PROFIL
  6
CONTINUOUS
 10
-63.687149432391671
 20
53.161203502425913
 30
0.0
 42
-0.2562769736741619
  0
VERTEX
  5
1FCE
  8
SAPA_PROFIL
  6
CONTINUOUS
 10
-63.434140676074072
 20
53.299999999900002
 30
0.0
  0
VERTEX
  5
1FCF
  8
SAPA_PROFIL
  6
CONTINUOUS
 10
-60.496550053245613
 20
53.299999999900578
 30
0.0
  0
VERTEX
  5
1FD0
  8
SAPA_PROFIL
  6
CONTINUOUS
 10
-59.175433952305127
 20
52.78937774799774
 30
0.0
 42
0.4142135623730961
  0
VERTEX
  5
1FD1
  8
SAPA_PROFIL
  6
CONTINUOUS
 10
-58.801248996829322
 20
52.989341792505137
 30
0.0
  0
VERTEX
  5
1FD2
  8
SAPA_PROFIL
  6
CONTINUOUS
 10
-58.770401641448942
 20
53.101573983119529
 30
0.0
  0
VERTEX
  5
1FD3
  8
SAPA_PROFIL
  6
CONTINUOUS
 10
-57.26132141303345
 20
53.183208632443673
 30
0.0
 42
-0.494012837111175
  0
VERTEX
  5
1FD4
  8
SAPA_PROFIL
  6
CONTINUOUS
 10
-56.951741355807471
 20
52.820948347026288
 30
0.0
  0
VERTEX
  5
1FD5
  8
SAPA_PROFIL
  6
CONTINUOUS
 10
-57.362823278441461
 20
50.852383804783152
 30
0.0
 42
-0.2216946626430119
  0
VERTEX
  5
1FD6
  8
SAPA_PROFIL
  6
CONTINUOUS
 10
-57.76863218359626
 20
50.311503973306301
 30
0.0
  0
VERTEX
  5
1FD7
  8
SAPA_PROFIL
  6
CONTINUOUS
 10
-58.053314466827892
 20
50.159370062197603
 30
0.0
 42
-0.5773502691896845
  0
VERTEX
  5
1FD8
  8
SAPA_PROFIL
  6
CONTINUOUS
 10
-58.347470767082712
 20
50.342323802307718
 30
0.0
  0
VERTEX
  5
1FD9
  8
SAPA_PROFIL
  6
CONTINUOUS
 10
-58.336909400855738
 20
50.664081530526019
 30
0.0
  0
VERTEX
  5
1FDA
  8
SAPA_PROFIL
  6
CONTINUOUS
 10
-60.2227530927168
 20
51.748645977497773
 30
0.0
  0
VERTEX
  5
1FDB
  8
SAPA_PROFIL
  6
CONTINUOUS
 10
-60.414136092710528
 20
51.806719614486859
 30
0.0
 42
0.7625858545244327
  0
VERTEX
  5
1FDC
  8
SAPA_PROFIL
  6
CONTINUOUS
 10
-60.598715294908011
 20
51.476393533469817
 30
0.0
 42
-0.2134217652834393
  0
VERTEX
  5
1FDD
  8
SAPA_PROFIL
  6
CONTINUOUS
 10
-60.498715294907903
 20
51.252786735719717
 30
0.0
  0
VERTEX
  5
1FDE
  8
SAPA_PROFIL
  6
CONTINUOUS
 10
-60.498715294908081
 20
51.252786999899911
 30
0.0
  0
VERTEX
  5
1FDF
  8
SAPA_PROFIL
  6
CONTINUOUS
 10
-60.498715294908173
 20
47.399999999899983
 30
0.0
 42
0.4142139999559429
  0
VERTEX
  5
1FE0
  8
SAPA_PROFIL
  6
CONTINUOUS
 10
-60.198715294908062
 20
47.099999999900071
 30
0.0
  0
VERTEX
  5
1FE1
  8
SAPA_PROFIL
  6
CONTINUOUS
 10
-59.898715294908058
 20
47.099999999900078
 30
0.0
  0
VERTEX
  5
1FE2
  8
SAPA_PROFIL
  6
CONTINUOUS
 10
-58.600161294908048
 20
47.849720999899994
 30
0.0
  0
VERTEX
  5
1FE3
  8
SAPA_PROFIL
  6
CONTINUOUS
 10
-58.298206294906862
 20
48.022873999897897
 30
0.0
 42
-0.5763720000355616
  0
VERTEX
  5
1FE4
  8
SAPA_PROFIL
  6
CONTINUOUS
 10
-57.998715294908159
 20
47.849375999899983
 30
0.0
  0
VERTEX
  5
1FE5
  8
SAPA_PROFIL
  6
CONTINUOUS
 10
-57.998715294907683
 20
46.46491499990006
 30
0.0
 42
-0.2679490000000105
  0
VERTEX
  5
1FE6
  8
SAPA_PROFIL
  6
CONTINUOUS
 10
-58.498715294907669
 20
45.598888999899991
 30
0.0
  0
VERTEX
  5
1FE7
  8
SAPA_PROFIL
  6
CONTINUOUS
 10
-60.248715114697148
 20
44.588527103944479
 30
0.0
 42
0.2679493039457093
  0
VERTEX
  5
1FE8
  8
SAPA_PROFIL
  6
CONTINUOUS
 10
-60.498715294907569
 20
44.15551429800778
 30
0.0
  0
VERTEX
  5
1FE9
  8
SAPA_PROFIL
  6
CONTINUOUS
 10
-60.49871529490769
 20
40.344485999899867
 30
0.0
 42
0.2679489999997284
  0
VERTEX
  5
1FEA
  8
SAPA_PROFIL
  6
CONTINUOUS
 10
-60.248715294907683
 20
39.911472999900063
 30
0.0
  0
VERTEX
  5
1FEB
  8
SAPA_PROFIL
  6
CONTINUOUS
 10
-58.498715294907683
 20
38.901110999900098
 30
0.0
 42
-0.2679490000000243
  0
VERTEX
  5
1FEC
  8
SAPA_PROFIL
  6
CONTINUOUS
 10
-57.99871529490769
 20
38.035084999899901
 30
0.0
  0
VERTEX
  5
1FED
  8
SAPA_PROFIL
  6
CONTINUOUS
 10
-57.99871529490818
 20
36.65062399990002
 30
0.0
 42
-0.5763720000353817
  0
VERTEX
  5
1FEE
  8
SAPA_PROFIL
  6
CONTINUOUS
 10
-58.298206294906862
 20
36.477125999902093
 30
0.0
  0
VERTEX
  5
1FEF
  8
SAPA_PROFIL
  6
CONTINUOUS
 10
-58.600161294908062
 20
36.650278999900102
 30
0.0
  0
VERTEX
  5
1FF0
  8
SAPA_PROFIL
  6
CONTINUOUS
 10
-59.898715294908072
 20
37.399999999899968
 30
0.0
  0
VERTEX
  5
1FF1
  8
SAPA_PROFIL
  6
CONTINUOUS
 10
-60.198715294908062
 20
37.399999999899968
 30
0.0
 42
0.4142139999560329
  0
VERTEX
  5
1FF2
  8
SAPA_PROFIL
  6
CONTINUOUS
 10
-60.498715294908138
 20
37.099999999900021
 30
0.0
  0
VERTEX
  5
1FF3
  8
SAPA_PROFIL
  6
CONTINUOUS
 10
-60.49871529490791
 20
33.247212999900057
 30
0.0
  0
VERTEX
  5
1FF4
  8
SAPA_PROFIL
  6
CONTINUOUS
 10
-60.49871529490791
 20
33.247213264080273
 30
0.0
 42
-0.2134217652834345
  0
VERTEX
  5
1FF5
  8
SAPA_PROFIL
  6
CONTINUOUS
 10
-60.598715294908018
 20
33.023606466330172
 30
0.0
 42
0.7625858545244327
  0
VERTEX
  5
1FF6
  8
SAPA_PROFIL
  6
CONTINUOUS
 10
-60.414136092710528
 20
32.69328038531313
 30
0.0
  0
VERTEX
  5
1FF7
  8
SAPA_PROFIL
  6
CONTINUOUS
 10
-60.222753092716808
 20
32.75135402230223
 30
0.0
  0
VERTEX
  5
1FF8
  8
SAPA_PROFIL
  6
CONTINUOUS
 10
-58.336909400855752
 20
33.83591846927397
 30
0.0
  0
VERTEX
  5
1FF9
  8
SAPA_PROFIL
  6
CONTINUOUS
 10
-58.347470767082712
 20
34.157676197492272
 30
0.0
 42
-0.5773502691896831
  0
VERTEX
  5
1FFA
  8
SAPA_PROFIL
  6
CONTINUOUS
 10
-58.053314466827892
 20
34.340629937602387
 30
0.0
  0
VERTEX
  5
1FFB
  8
SAPA_PROFIL
  6
CONTINUOUS
 10
-57.76863218359626
 20
34.188496026493681
 30
0.0
 42
-0.2216946626430123
  0
VERTEX
  5
1FFC
  8
SAPA_PROFIL
  6
CONTINUOUS
 10
-57.362823278441461
 20
33.647616195016838
 30
0.0
  0
VERTEX
  5
1FFD
  8
SAPA_PROFIL
  6
CONTINUOUS
 10
-56.951741355807492
 20
31.679051652773691
 30
0.0
 42
-0.4940128371111735
  0
VERTEX
  5
1FFE
  8
SAPA_PROFIL
  6
CONTINUOUS
 10
-57.26132141303345
 20
31.316791367356309
 30
0.0
  0
VERTEX
  5
1FFF
  8
SAPA_PROFIL
  6
CONTINUOUS
 10
-58.770401641448942
 20
31.39842601668046
 30
0.0
  0
VERTEX
  5
2000
  8
SAPA_PROFIL
  6
CONTINUOUS
 10
-58.801248996829322
 20
31.510658207294849
 30
0.0
 42
0.4142135623730952
  0
VERTEX
  5
2001
  8
SAPA_PROFIL
  6
CONTINUOUS
 10
-59.175433952305127
 20
31.710622251802249
 30
0.0
  0
VERTEX
  5
2002
  8
SAPA_PROFIL
  6
CONTINUOUS
 10
-60.496550053245663
 20
31.19999999989939
 30
0.0
  0
VERTEX
  5
2003
  8
SAPA_PROFIL
  6
CONTINUOUS
 10
-63.434140676059073
 20
31.19999999989998
 30
0.0
 42
-0.256276973687627
  0
VERTEX
  5
2004
  8
SAPA_PROFIL
  6
CONTINUOUS
 10
-63.687149432408049
 20
31.338796497399908
 30
0.0
  0
VERTEX
  5
2005
  8
SAPA_PROFIL
  6
CONTINUOUS
 10
-64.45172456350808
 20
32.5387964973999
 30
0.0
 42
-0.5920056180425383
  0
VERTEX
  5
2006
  8
SAPA_PROFIL
  6
CONTINUOUS
 10
-64.198715807108059
 20
32.99999999989997
 30
0.0
  0
VERTEX
  5
2007
  8
SAPA_PROFIL
  6
CONTINUOUS
 10
-62.798715294908177
 20
32.99999999989997
 30
0.0
 42
0.4142139999560674
  0
VERTEX
  5
2008
  8
SAPA_PROFIL
  6
CONTINUOUS
 10
-62.49871529490818
 20
33.299999999900102
 30
0.0
  0
VERTEX
  5
2009
  8
SAPA_PROFIL
  6
CONTINUOUS
 10
-62.49871529490818
 20
35.699999999899987
 30
0.0
 42
0.4142139999559601
  0
VERTEX
  5
200A
  8
SAPA_PROFIL
  6
CONTINUOUS
 10
-62.798715294908177
 20
35.99999999989997
 30
0.0
  0
VERTEX
  5
200B
  8
SAPA_PROFIL
  6
CONTINUOUS
 10
-68.598715295421783
 20
35.99999999989997
 30
0.0
 42
0.414213562373102
  0
VERTEX
  5
200C
  8
SAPA_PROFIL
  6
CONTINUOUS
 10
-68.898715295421781
 20
35.699999999899987
 30
0.0
  0
VERTEX
  5
200D
  8
SAPA_PROFIL
  6
CONTINUOUS
 10
-68.898715295421781
 20
32.499999999899799
 30
0.0
 42
0.4142135623732028
  0
VERTEX
  5
200E
  8
SAPA_PROFIL
  6
CONTINUOUS
 10
-68.598715295421584
 20
32.19999999989993
 30
0.0
  0
VERTEX
  5
200F
  8
SAPA_PROFIL
  6
CONTINUOUS
 10
-68.198715291286476
 20
32.199999999899902
 30
0.0
 42
-0.5877032589248904
  0
VERTEX
  5
2010
  8
SAPA_PROFIL
  6
CONTINUOUS
 10
-67.943669073976579
 20
31.742039792772321
 30
0.0
  0
VERTEX
  5
2011
  8
SAPA_PROFIL
  6
CONTINUOUS
 10
-68.344596418528326
 20
31.094693195148079
 30
0.0
 42
-0.2596812337301491
  0
VERTEX
  5
2012
  8
SAPA_PROFIL
  6
CONTINUOUS
 10
-68.514627230068456
 20
30.999999999899799
 30
0.0
  0
VERTEX
  5
2013
  8
SAPA_PROFIL
  6
CONTINUOUS
 10
-69.998715295421675
 20
30.999999999899799
 30
0.0
 42
-0.4142135623730984
  0
VERTEX
  5
2014
  8
SAPA_PROFIL
  6
CONTINUOUS
 10
-70.298715295421474
 20
31.299999999899789
 30
0.0
  0
VERTEX
  5
2015
  8
SAPA_PROFIL
  6
CONTINUOUS
 10
-70.298715295421871
 20
35.699999999899987
 30
0.0
 42
0.414213562373102
  0
VERTEX
  5
2016
  8
SAPA_PROFIL
  6
CONTINUOUS
 10
-70.598715295421869
 20
35.99999999989997
 30
0.0
  0
VERTEX
  5
2017
  8
SAPA_PROFIL
  6
CONTINUOUS
 10
-80.198715294908098
 20
35.999999999899877
 30
0.0
 42
0.4142135623730188
  0
VERTEX
  5
2018
  8
SAPA_PROFIL
  6
CONTINUOUS
 10
-80.498715294908109
 20
35.699999999899987
 30
0.0
  0
VERTEX
  5
2019
  8
SAPA_PROFIL
  6
CONTINUOUS
 10
-80.498715294908123
 20
33.299999999900102
 30
0.0
 42
0.4142135623730673
  0
VERTEX
  5
201A
  8
SAPA_PROFIL
  6
CONTINUOUS
 10
-80.198715294908126
 20
32.99999999989997
 30
0.0
  0
VERTEX
  5
201B
  8
SAPA_PROFIL
  6
CONTINUOUS
 10
-78.798715561108125
 20
32.999999999899927
 30
0.0
 42
-0.5877032589046084
  0
VERTEX
  5
201C
  8
SAPA_PROFIL
  6
CONTINUOUS
 10
-78.543669343808119
 20
32.542039792799898
 30
0.0
  0
VERTEX
  5
201D
  8
SAPA_PROFIL
  6
CONTINUOUS
 10
-79.410744701024655
 20
31.142039792773431
 30
0.0
 42
-0.2596812337311998
  0
VERTEX
  5
201E
  8
SAPA_PROFIL
  6
CONTINUOUS
 10
-79.665790918335333
 20
30.99999999990008
 30
0.0
  0
VERTEX
  5
201F
  8
SAPA_PROFIL
  6
CONTINUOUS
 10
-80.410632088596046
 20
30.99999999989997
 30
0.0
 42
0.4023941304326696
  0
VERTEX
  5
2020
  8
SAPA_PROFIL
  6
CONTINUOUS
 10
-80.710385817209087
 20
30.71215327857621
 30
0.0
  0
VERTEX
  5
2021
  8
SAPA_PROFIL
  6
CONTINUOUS
 10
-81.297184580208111
 20
16.239094457099888
 30
0.0
 42
0.4373282586143014
  0
VERTEX
  5
2022
  8
SAPA_PROFIL
  6
CONTINUOUS
 10
-80.798715299908125
 20
15.699999999799971
 30
0.0
  0
VERTEX
  5
2023
  8
SAPA_PROFIL
  6
CONTINUOUS
 10
-79.969884212120107
 20
15.69999999979988
 30
0.0
 42
0.3639702342826234
  0
VERTEX
  5
2024
  8
SAPA_PROFIL
  6
CONTINUOUS
 10
-79.477480335608973
 20
16.113175910995011
 30
0.0
  0
VERTEX
  5
2025
  8
SAPA_PROFIL
  6
CONTINUOUS
 10
-79.270534496108127
 20
17.2868240886
 30
0.0
 42
-0.8390996312315433
  0
VERTEX
  5
2026
  8
SAPA_PROFIL
  6
CONTINUOUS
 10
-78.2857267431081
 20
17.286824088599879
 30
0.0
  0
VERTEX
  5
2027
  8
SAPA_PROFIL
  6
CONTINUOUS
 10
-78.008880572108083
 20
15.716751432600001
 30
0.0
 42
-0.0436609428925317
  0
VERTEX
  5
2028
  8
SAPA_PROFIL
  6
CONTINUOUS
 10
-78.001284448619927
 20
15.6299273438
 30
0.0
  0
VERTEX
  5
2029
  8
SAPA_PROFIL
  6
CONTINUOUS
 10
-78.001284448608246
 20
14.63245553169989
 30
0.0
 42
-0.2896898633456171
  0
VERTEX
  5
202A
  8
SAPA_PROFIL
  6
CONTINUOUS
 10
-78.572713020179549
 20
13.728947628726971
 30
0.0
 42
-0.5507604245347207
  0
VERTEX
  5
202B
  8
SAPA_PROFIL
  6
CONTINUOUS
 10
-79.00128444870812
 20
13.999999999618881
 30
0.0
  0
VERTEX
  5
202C
  8
SAPA_PROFIL
  6
CONTINUOUS
 10
-79.00128444870812
 20
14.19999999970001
 30
0.0
 42
0.4142135623730951
  0
VERTEX
  5
202D
  8
SAPA_PROFIL
  6
CONTINUOUS
 10
-79.301284448708131
 20
14.499999999699989
 30
0.0
  0
VERTEX
  5
202E
  8
SAPA_PROFIL
  6
CONTINUOUS
 10
-80.798715299908125
 20
14.499999999699989
 30
0.0
 42
0.4142135623730951
  0
VERTEX
  5
202F
  8
SAPA_PROFIL
  6
CONTINUOUS
 10
-81.298715299908125
 20
13.999999999699989
 30
0.0
  0
VERTEX
  5
2030
  8
SAPA_PROFIL
  6
CONTINUOUS
 10
-81.298715299908125
 20
10.69999999970001
 30
0.0
 42
0.4142135623730951
  0
VERTEX
  5
2031
  8
SAPA_PROFIL
  6
CONTINUOUS
 10
-80.798715299908125
 20
10.19999999970001
 30
0.0
  0
VERTEX
  5
2032
  8
SAPA_PROFIL
  6
CONTINUOUS
 10
-79.301284448908106
 20
10.19999999970001
 30
0.0
 42
0.4142135623730673
  0
VERTEX
  5
2033
  8
SAPA_PROFIL
  6
CONTINUOUS
 10
-79.001284448908095
 20
10.499999999699989
 30
0.0
  0
VERTEX
  5
2034
  8
SAPA_PROFIL
  6
CONTINUOUS
 10
-79.001284448908123
 20
10.69999999969998
 30
0.0
 42
-0.550760424592931
  0
VERTEX
  5
2035
  8
SAPA_PROFIL
  6
CONTINUOUS
 10
-78.57271302031252
 20
10.97105237060809
 30
0.0
 42
-0.2896898632971936
  0
VERTEX
  5
2036
  8
SAPA_PROFIL
  6
CONTINUOUS
 10
-78.001284448895191
 20
10.067544467699991
 30
0.0
  0
VERTEX
  5
2037
  8
SAPA_PROFIL
  6
CONTINUOUS
 10
-78.001284448908123
 20
9.2999999996000184
 30
0.0
 42
-0.4142135620802001
  0
VERTEX
  5
2038
  8
SAPA_PROFIL
  6
CONTINUOUS
 10
-78.301284448908106
 20
8.9999999998999698
 30
0.0
  0
VERTEX
  5
2039
  8
SAPA_PROFIL
  6
CONTINUOUS
 10
-81.998715294908109
 20
8.9999999998999698
 30
0.0
 42
-0.4142135623730951
  0
VERTEX
  5
203A
  8
SAPA_PROFIL
  6
CONTINUOUS
 10
-82.498715294908095
 20
9.4999999998999698
 30
0.0
  0
VERTEX
  5
203B
  8
SAPA_PROFIL
  6
CONTINUOUS
 10
-82.498715295421675
 20
74.999964610277473
 30
0.0
  0
VERTEX
  5
203C
  8
SAPA_PROFIL
  6
CONTINUOUS
 10
-82.498715294908095
 20
74.999999999900041
 30
0.0
 42
-0.4142135623730951
  0
VERTEX
  5
203D
  8
SAPA_PROFIL
  6
CONTINUOUS
 10
-81.998715294908095
 20
75.499999999900041
 30
0.0
  0
VERTEX
  5
203E
  8
SAPA_PROFIL
  6
CONTINUOUS
 10
-78.301284448908092
 20
75.499999999900041
 30
0.0
 42
-0.4142135620801829
  0
VERTEX
  5
203F
  8
SAPA_PROFIL
  6
CONTINUOUS
 10
-78.001284448908123
 20
75.200000000200035
 30
0.0
  0
VERTEX
  5
2040
  8
SAPA_PROFIL
  6
CONTINUOUS
 10
-78.001284448895177
 20
74.43245553210005
 30
0.0
 42
-0.2896898632971957
  0
VERTEX
  5
2041
  8
SAPA_PROFIL
  6
CONTINUOUS
 10
-78.572713020312491
 20
73.528947629191904
 30
0.0
 42
-0.5507604245929078
  0
VERTEX
  5
2042
  8
SAPA_PROFIL
  6
CONTINUOUS
 10
-79.001284448908095
 20
73.800000000100056
 30
0.0
  0
VERTEX
  5
2043
  8
SAPA_PROFIL
  6
CONTINUOUS
 10
-79.001284448908081
 20
74.000000000100044
 30
0.0
 42
0.4142135623730673
  0
VERTEX
  5
2044
  8
SAPA_PROFIL
  6
CONTINUOUS
 10
-79.301284448908092
 20
74.300000000100056
 30
0.0
  0
VERTEX
  5
2045
  8
SAPA_PROFIL
  6
CONTINUOUS
 10
-80.79871529990811
 20
74.30000000010007
 30
0.0
 42
0.4142135623730951
  0
VERTEX
  5
2046
  8
SAPA_PROFIL
  6
CONTINUOUS
 10
-81.29871529990811
 20
73.800000000100056
 30
0.0
  0
VERTEX
  5
2047
  8
SAPA_PROFIL
  6
CONTINUOUS
 10
-81.29871529990811
 20
70.500000000100044
 30
0.0
 42
0.4142135623730951
  0
VERTEX
  5
2048
  8
SAPA_PROFIL
  6
CONTINUOUS
 10
-80.79871529990811
 20
70.000000000100044
 30
0.0
  0
VERTEX
  5
2049
  8
SAPA_PROFIL
  6
CONTINUOUS
 10
-79.301284448708117
 20
70.000000000100044
 30
0.0
 42
0.4142135623730951
  0
VERTEX
  5
204A
  8
SAPA_PROFIL
  6
CONTINUOUS
 10
-79.001284448708105
 20
70.300000000100056
 30
0.0
  0
VERTEX
  5
204B
  8
SAPA_PROFIL
  6
CONTINUOUS
 10
-79.001284448708105
 20
70.500000000181117
 30
0.0
 42
-0.5507604245346853
  0
VERTEX
  5
204C
  8
SAPA_PROFIL
  6
CONTINUOUS
 10
-78.572713020179549
 20
70.771052371073054
 30
0.0
 42
-0.2896898633456226
  0
VERTEX
  5
204D
  8
SAPA_PROFIL
  6
CONTINUOUS
 10
-78.001284448608203
 20
69.867544468100135
 30
0.0
  0
VERTEX
  5
204E
  8
SAPA_PROFIL
  6
CONTINUOUS
 10
-78.001284448619913
 20
68.870072656000033
 30
0.0
 42
-0.0436609428925318
  0
VERTEX
  5
204F
  8
SAPA_PROFIL
  6
CONTINUOUS
 10
-78.008880572108083
 20
68.783248567200047
 30
0.0
  0
VERTEX
  5
2050
  8
SAPA_PROFIL
  6
CONTINUOUS
 10
-78.285726743108086
 20
67.213175911200153
 30
0.0
 42
-0.839099631231541
  0
VERTEX
  5
2051
  8
SAPA_PROFIL
  6
CONTINUOUS
 10
-79.270534496108084
 20
67.21317591120004
 30
0.0
  0
VERTEX
  5
2052
  8
SAPA_PROFIL
  6
CONTINUOUS
 10
-79.477480335608959
 20
68.386824088805028
 30
0.0
 42
0.3639702342826299
  0
VERTEX
  5
2053
  8
SAPA_PROFIL
  6
CONTINUOUS
 10
-79.969884212120093
 20
68.800000000000153
 30
0.0
  0
VERTEX
  5
2054
  8
SAPA_PROFIL
  6
CONTINUOUS
 10
-80.79871529990811
 20
68.80000000000004
 30
0.0
 42
0.4373282586143349
  0
VERTEX
  5
2055
  8
SAPA_PROFIL
  6
CONTINUOUS
 10
-81.297184580208096
 20
68.260905542700158
 30
0.0
  0
VERTEX
  5
2056
  8
SAPA_PROFIL
  6
CONTINUOUS
 10
-80.710385817209087
 20
53.787846721223822
 30
0.0
 42
0.4023941304324869
  0
VERTEX
  5
2057
  8
SAPA_PROFIL
  6
CONTINUOUS
 10
-80.410632088596174
 20
53.499999999900211
 30
0.0
  0
VERTEX
  5
2058
  8
SAPA_PROFIL
  6
CONTINUOUS
 10
-79.665790918335333
 20
53.499999999900012
 30
0.0
 42
-0.2596812337312756
  0
VERTEX
  5
2059
  8
SAPA_PROFIL
  6
CONTINUOUS
 10
-79.410744701024598
 20
53.357960207026593
 30
0.0
  0
VERTEX
  5
205A
  8
SAPA_PROFIL
  6
CONTINUOUS
 10
-78.543669343808176
 20
51.957960207000191
 30
0.0
 42
-0.5877032589047035
  0
VERTEX
  5
205B
  8
SAPA_PROFIL
  6
CONTINUOUS
 10
-78.798715561108125
 20
51.499999999900098
 30
0.0
  0
VERTEX
  5
205C
  8
SAPA_PROFIL
  6
CONTINUOUS
 10
-80.198715294908126
 20
51.499999999900012
 30
0.0
 42
0.4142135623730394
  0
VERTEX
  5
205D
  8
SAPA_PROFIL
  6
CONTINUOUS
 10
-80.498715294908109
 20
51.199999999900001
 30
0.0
  0
VERTEX
  5
205E
  8
SAPA_PROFIL
  6
CONTINUOUS
 10
-80.498715294908123
 20
48.799999999899988
 30
0.0
 42
0.4142135623730675
  0
VERTEX
  5
205F
  8
SAPA_PROFIL
  6
CONTINUOUS
 10
-80.198715294908126
 20
48.499999999900012
 30
0.0
  0
VERTEX
  5
2060
  8
SAPA_PROFIL
  6
CONTINUOUS
 10
-70.598715295421869
 20
48.499999999900012
 30
0.0
 42
0.4142135623730916
  0
VERTEX
  5
2061
  8
SAPA_PROFIL
  6
CONTINUOUS
 10
-70.298715295421886
 20
48.799999999899988
 30
0.0
  0
VERTEX
  5
2062
  8
SAPA_PROFIL
  6
CONTINUOUS
 10
-70.298715295421673
 20
53.199999999018303
 30
0.0
 42
-0.4142135623732857
  0
VERTEX
  5
2063
  8
SAPA_PROFIL
  6
CONTINUOUS
 10
-69.998715295421675
 20
53.499999999018513
 30
0.0
  0
SEQEND
  5
2064
  8
SAPA_PROFIL
  6
CONTINUOUS
  0
POLYLINE
  5
1788
  8
SAPA_PROFIL
 66
     1
 10
0.0
 20
0.0
 30
0.0
 70
     1
  0
VERTEX
  5
2065
  8
SAPA_PROFIL
 10
-80.798715294908007
 20
40.999999999899771
 30
0.0
  0
VERTEX
  5
2066
  8
SAPA_PROFIL
 10
-80.798715294908007
 20
37.999999999899771
 30
0.0
 42
0.414213562373088
  0
VERTEX
  5
2067
  8
SAPA_PROFIL
 10
-80.498715294908067
 20
37.699999999900037
 30
0.0
  0
VERTEX
  5
2068
  8
SAPA_PROFIL
 10
-62.498715294908052
 20
37.699999999900037
 30
0.0
 42
0.4142135623730812
  0
VERTEX
  5
2069
  8
SAPA_PROFIL
 10
-62.198715294908091
 20
37.999999999899771
 30
0.0
  0
VERTEX
  5
206A
  8
SAPA_PROFIL
 10
-62.198715294908091
 20
40.999999999899771
 30
0.0
 42
0.4142135623730951
  0
VERTEX
  5
206B
  8
SAPA_PROFIL
 10
-62.448715294908098
 20
41.249999999899757
 30
0.0
  0
VERTEX
  5
206C
  8
SAPA_PROFIL
 10
-62.498715294908052
 20
41.249999999899757
 30
0.0
 42
-0.4142135623730813
  0
VERTEX
  5
206D
  8
SAPA_PROFIL
 10
-62.798715294908007
 20
41.549999999899953
 30
0.0
  0
VERTEX
  5
206E
  8
SAPA_PROFIL
 10
-62.798715294908007
 20
42.949999999900037
 30
0.0
 42
-0.4142135623730811
  0
VERTEX
  5
206F
  8
SAPA_PROFIL
 10
-62.498715294908052
 20
43.249999999899771
 30
0.0
  0
VERTEX
  5
2070
  8
SAPA_PROFIL
 10
-62.448715294908098
 20
43.249999999899771
 30
0.0
 42
0.4142135623730951
  0
VERTEX
  5
2071
  8
SAPA_PROFIL
 10
-62.198715294908091
 20
43.499999999899771
 30
0.0
  0
VERTEX
  5
2072
  8
SAPA_PROFIL
 10
-62.198715294908091
 20
46.499999999899771
 30
0.0
 42
0.4142135623730811
  0
VERTEX
  5
2073
  8
SAPA_PROFIL
 10
-62.498715294908052
 20
46.799999999899953
 30
0.0
  0
VERTEX
  5
2074
  8
SAPA_PROFIL
 10
-80.498715294908067
 20
46.799999999899953
 30
0.0
 42
0.4142135623730882
  0
VERTEX
  5
2075
  8
SAPA_PROFIL
 10
-80.798715294908007
 20
46.499999999899771
 30
0.0
  0
VERTEX
  5
2076
  8
SAPA_PROFIL
 10
-80.798715294908007
 20
43.499999999899771
 30
0.0
 42
0.4142135623730951
  0
VERTEX
  5
2077
  8
SAPA_PROFIL
 10
-80.548715294908007
 20
43.249999999899771
 30
0.0
  0
VERTEX
  5
2078
  8
SAPA_PROFIL
 10
-80.498715294908067
 20
43.249999999899771
 30
0.0
 42
-0.4142135623730783
  0
VERTEX
  5
2079
  8
SAPA_PROFIL
 10
-80.198715294908098
 20
42.949999999900037
 30
0.0
  0
VERTEX
  5
207A
  8
SAPA_PROFIL
 10
-80.198715294908098
 20
41.549999999899953
 30
0.0
 42
-0.4142135623730785
  0
VERTEX
  5
207B
  8
SAPA_PROFIL
 10
-80.498715294908067
 20
41.249999999899757
 30
0.0
  0
VERTEX
  5
207C
  8
SAPA_PROFIL
 10
-80.548715294908007
 20
41.249999999899757
 30
0.0
 42
0.4142135623730951
  0
SEQEND
  5
207D
  8
SAPA_PROFIL
  0
POLYLINE
  5
1789
  8
SAPA_PROFIL
 66
     1
 10
0.0
 20
0.0
 30
0.0
 70
     1
  0
VERTEX
  5
207E
  8
SAPA_PROFIL
 10
-18.49871529482272
 20
51.25278640439997
 30
0.0
 42
-0.2134217652834387
  0
VERTEX
  5
207F
  8
SAPA_PROFIL
 10
-18.39871529482259
 20
51.476393202150078
 30
0.0
 42
0.7625858545243238
  0
VERTEX
  5
2080
  8
SAPA_PROFIL
 10
-18.58329449702007
 20
51.806719283167091
 30
0.0
  0
VERTEX
  5
2081
  8
SAPA_PROFIL
 10
-18.774677497013791
 20
51.748645646177998
 30
0.0
  0
VERTEX
  5
2082
  8
SAPA_PROFIL
 10
-20.660521188874849
 20
50.664081199206272
 30
0.0
  0
VERTEX
  5
2083
  8
SAPA_PROFIL
 10
-20.649959822647858
 20
50.342323470987999
 30
0.0
 42
-0.5773502691897449
  0
VERTEX
  5
2084
  8
SAPA_PROFIL
 10
-20.944116122902699
 20
50.159369730877842
 30
0.0
  0
VERTEX
  5
2085
  8
SAPA_PROFIL
 10
-21.22879840613437
 20
50.31150364198659
 30
0.0
 42
-0.2216946626430184
  0
VERTEX
  5
2086
  8
SAPA_PROFIL
 10
-21.634607311289141
 20
50.852383473463391
 30
0.0
  0
VERTEX
  5
2087
  8
SAPA_PROFIL
 10
-22.01605390741685
 20
52.665613944121631
 30
0.0
 42
-0.4769755326981644
  0
VERTEX
  5
2088
  8
SAPA_PROFIL
 10
-21.71380108291039
 20
53.037270819067508
 30
0.0
  0
VERTEX
  5
2089
  8
SAPA_PROFIL
 10
-20.210700002148378
 20
53.037187211183863
 30
0.0
  0
VERTEX
  5
208A
  8
SAPA_PROFIL
 10
-20.196181592901279
 20
52.989341461185369
 30
0.0
 42
0.4142135623730956
  0
VERTEX
  5
208B
  8
SAPA_PROFIL
 10
-19.82199663742546
 20
52.789377416677979
 30
0.0
  0
VERTEX
  5
208C
  8
SAPA_PROFIL
 10
-18.50087967927368
 20
53.299999999900017
 30
0.0
  0
VERTEX
  5
208D
  8
SAPA_PROFIL
 10
-18.49871529482272
 20
53.299999999900017
 30
0.0
  0
VERTEX
  5
208E
  8
SAPA_PROFIL
 10
-15.486230961313669
 20
53.299999999900017
 30
0.0
 42
-0.2596812337309464
  0
VERTEX
  5
208F
  8
SAPA_PROFIL
 10
-15.31620014977371
 20
53.205306804652032
 30
0.0
  0
VERTEX
  5
2090
  8
SAPA_PROFIL
 10
-14.54366908070465
 20
51.957960207028009
 30
0.0
 42
-0.5877032589253032
  0
VERTEX
  5
2091
  8
SAPA_PROFIL
 10
-14.79871529801467
 20
51.499999999900012
 30
0.0
  0
VERTEX
  5
2092
  8
SAPA_PROFIL
 10
-16.19871529801464
 20
51.499999999900012
 30
0.0
 42
0.4142135623730951
  0
VERTEX
  5
2093
  8
SAPA_PROFIL
 10
-16.498715298014648
 20
51.199999999900001
 30
0.0
  0
VERTEX
  5
2094
  8
SAPA_PROFIL
 10
-16.498715298014719
 20
48.799999999900017
 30
0.0
 42
0.4142135623730882
  0
VERTEX
  5
2095
  8
SAPA_PROFIL
 10
-16.19871529801464
 20
48.499999999899948
 30
0.0
  0
VERTEX
  5
2096
  8
SAPA_PROFIL
 10
1.2012847019853361
 20
48.499999999900012
 30
0.0
 42
0.4142135623730951
  0
VERTEX
  5
2097
  8
SAPA_PROFIL
 10
1.5012847019853479
 20
48.799999999900017
 30
0.0
  0
VERTEX
  5
2098
  8
SAPA_PROFIL
 10
1.5012847019852911
 20
51.199999999900001
 30
0.0
 42
0.4142135623730951
  0
VERTEX
  5
2099
  8
SAPA_PROFIL
 10
1.2012847019853361
 20
51.499999999899948
 30
0.0
  0
VERTEX
  5
209A
  8
SAPA_PROFIL
 10
-0.1987152980146405
 20
51.499999999900012
 30
0.0
 42
-0.587703258925294
  0
VERTEX
  5
209B
  8
SAPA_PROFIL
 10
-0.4537615153246364
 20
51.957960207028002
 30
0.0
  0
VERTEX
  5
209C
  8
SAPA_PROFIL
 10
0.4426374619172791
 20
53.405306804652007
 30
0.0
 42
-0.2596812337299331
  0
VERTEX
  5
209D
  8
SAPA_PROFIL
 10
0.6126682734573521
 20
53.499999999900012
 30
0.0
  0
VERTEX
  5
209E
  8
SAPA_PROFIL
 10
3.3012847051352798
 20
53.499999999900012
 30
0.0
 42
-0.4142135623730951
  0
VERTEX
  5
209F
  8
SAPA_PROFIL
 10
3.5012847051353262
 20
53.299999999900017
 30
0.0
  0
VERTEX
  5
20A0
  8
SAPA_PROFIL
 10
3.5012847051353262
 20
31.199999999901031
 30
0.0
 42
-0.4142135623730951
  0
VERTEX
  5
20A1
  8
SAPA_PROFIL
 10
3.3012847051352798
 20
30.999999999900979
 30
0.0
  0
VERTEX
  5
20A2
  8
SAPA_PROFIL
 10
0.6126682734573521
 20
30.999999999900979
 30
0.0
 42
-0.2596812337298758
  0
VERTEX
  5
20A3
  8
SAPA_PROFIL
 10
0.4426374619172791
 20
31.094693195148981
 30
0.0
  0
VERTEX
  5
20A4
  8
SAPA_PROFIL
 10
-0.4537615153246364
 20
32.542039792772989
 30
0.0
 42
-0.5877032589253579
  0
VERTEX
  5
20A5
  8
SAPA_PROFIL
 10
-0.1987152980146405
 20
32.99999999990002
 30
0.0
  0
VERTEX
  5
20A6
  8
SAPA_PROFIL
 10
1.2012847019853361
 20
32.999999999900027
 30
0.0
 42
0.4142135623730951
  0
VERTEX
  5
20A7
  8
SAPA_PROFIL
 10
1.501284701985333
 20
33.299999999900031
 30
0.0
  0
VERTEX
  5
20A8
  8
SAPA_PROFIL
 10
1.5012847019852911
 20
35.699999999901017
 30
0.0
 42
0.4142135623720961
  0
VERTEX
  5
20A9
  8
SAPA_PROFIL
 10
1.2012847019853361
 20
35.999999999899963
 30
0.0
  0
VERTEX
  5
20AA
  8
SAPA_PROFIL
 10
-16.19871529801464
 20
35.99999999990002
 30
0.0
 42
0.4142135623730951
  0
VERTEX
  5
20AB
  8
SAPA_PROFIL
 10
-16.498715298014659
 20
35.699999999899987
 30
0.0
  0
VERTEX
  5
20AC
  8
SAPA_PROFIL
 10
-16.498715298014719
 20
33.299999999900031
 30
0.0
 42
0.4142135623730882
  0
VERTEX
  5
20AD
  8
SAPA_PROFIL
 10
-16.19871529801464
 20
32.999999999899948
 30
0.0
  0
VERTEX
  5
20AE
  8
SAPA_PROFIL
 10
-14.79871529801467
 20
32.999999999900027
 30
0.0
 42
-0.5877032589243584
  0
VERTEX
  5
20AF
  8
SAPA_PROFIL
 10
-14.543669080704669
 20
32.542039792772989
 30
0.0
  0
VERTEX
  5
20B0
  8
SAPA_PROFIL
 10
-15.31620014977371
 20
31.29469319514903
 30
0.0
 42
-0.2596812337298608
  0
VERTEX
  5
20B1
  8
SAPA_PROFIL
 10
-15.486230961313669
 20
31.199999999900001
 30
0.0
  0
VERTEX
  5
20B2
  8
SAPA_PROFIL
 10
-18.49871529482272
 20
31.199999999900001
 30
0.0
  0
VERTEX
  5
20B3
  8
SAPA_PROFIL
 10
-18.500879679270291
 20
31.199999999900001
 30
0.0
  0
VERTEX
  5
20B4
  8
SAPA_PROFIL
 10
-19.821996637424469
 20
31.710622583122959
 30
0.0
 42
0.4142135623730957
  0
VERTEX
  5
20B5
  8
SAPA_PROFIL
 10
-20.196181592900281
 20
31.510658538615559
 30
0.0
  0
VERTEX
  5
20B6
  8
SAPA_PROFIL
 10
-20.21070000214738
 20
31.462812788617072
 30
0.0
  0
VERTEX
  5
20B7
  8
SAPA_PROFIL
 10
-21.713801082909391
 20
31.46272918073343
 30
0.0
 42
-0.4769755326981643
  0
VERTEX
  5
20B8
  8
SAPA_PROFIL
 10
-22.016053907415859
 20
31.834386055679289
 30
0.0
  0
VERTEX
  5
20B9
  8
SAPA_PROFIL
 10
-21.634607311288129
 20
33.647616526337551
 30
0.0
 42
-0.2216946626430184
  0
VERTEX
  5
20BA
  8
SAPA_PROFIL
 10
-21.22879840613334
 20
34.18849635781433
 30
0.0
  0
VERTEX
  5
20BB
  8
SAPA_PROFIL
 10
-20.944116122901701
 20
34.3406302689231
 30
0.0
 42
-0.5773502691897449
  0
VERTEX
  5
20BC
  8
SAPA_PROFIL
 10
-20.649959822646881
 20
34.157676528812907
 30
0.0
  0
VERTEX
  5
20BD
  8
SAPA_PROFIL
 10
-20.660521188873851
 20
33.835918800594669
 30
0.0
  0
VERTEX
  5
20BE
  8
SAPA_PROFIL
 10
-18.774677497012789
 20
32.751354353622929
 30
0.0
  0
VERTEX
  5
20BF
  8
SAPA_PROFIL
 10
-18.583294497019072
 20
32.693280716633851
 30
0.0
 42
0.7625858545243238
  0
VERTEX
  5
20C0
  8
SAPA_PROFIL
 10
-18.398715294821582
 20
33.023606797650842
 30
0.0
 42
-0.2134217652834387
  0
VERTEX
  5
20C1
  8
SAPA_PROFIL
 10
-18.498715294821711
 20
33.247213595400979
 30
0.0
  0
VERTEX
  5
20C2
  8
SAPA_PROFIL
 10
-18.49871529482272
 20
37.099999999899978
 30
0.0
 42
0.4142135623730881
  0
VERTEX
  5
20C3
  8
SAPA_PROFIL
 10
-18.798715294822689
 20
37.399999999899933
 30
0.0
  0
VERTEX
  5
20C4
  8
SAPA_PROFIL
 10
-19.098715294822629
 20
37.39999999990102
 30
0.0
  0
VERTEX
  5
20C5
  8
SAPA_PROFIL
 10
-20.698715294821628
 20
36.476239569196977
 30
0.0
 42
-0.5773502691910457
  0
VERTEX
  5
20C6
  8
SAPA_PROFIL
 10
-20.99871529482272
 20
36.649444649953978
 30
0.0
  0
VERTEX
  5
20C7
  8
SAPA_PROFIL
 10
-20.99871529482272
 20
38.035085296009022
 30
0.0
 42
-0.2679491924309594
  0
VERTEX
  5
20C8
  8
SAPA_PROFIL
 10
-20.49871529482272
 20
38.90111069979401
 30
0.0
  0
VERTEX
  5
20C9
  8
SAPA_PROFIL
 10
-18.748715294821711
 20
39.911473670875978
 30
0.0
 42
0.267949192416605
  0
VERTEX
  5
20CA
  8
SAPA_PROFIL
 10
-18.498715294821871
 20
40.344486372741017
 30
0.0
  0
VERTEX
  5
20CB
  8
SAPA_PROFIL
 10
-18.498715294821711
 20
44.155513627059982
 30
0.0
 42
0.2679491924166034
  0
VERTEX
  5
20CC
  8
SAPA_PROFIL
 10
-18.748715294821629
 20
44.588526328925148
 30
0.0
  0
VERTEX
  5
20CD
  8
SAPA_PROFIL
 10
-20.49871529482272
 20
45.598889300006981
 30
0.0
 42
-0.2679491924309617
  0
VERTEX
  5
20CE
  8
SAPA_PROFIL
 10
-20.99871529482272
 20
46.464914703791969
 30
0.0
  0
VERTEX
  5
20CF
  8
SAPA_PROFIL
 10
-20.99871529482272
 20
47.850555349847014
 30
0.0
 42
-0.5773502691910514
  0
VERTEX
  5
20D0
  8
SAPA_PROFIL
 10
-20.698715294821628
 20
48.023760430604
 30
0.0
  0
VERTEX
  5
20D1
  8
SAPA_PROFIL
 10
-19.098715294822629
 20
47.099999999899978
 30
0.0
  0
VERTEX
  5
20D2
  8
SAPA_PROFIL
 10
-18.798715294822689
 20
47.099999999899978
 30
0.0
 42
0.4142135623730951
  0
VERTEX
  5
20D3
  8
SAPA_PROFIL
 10
-18.498715294822681
 20
47.39999999989999
 30
0.0
  0
SEQEND
  5
20D4
  8
SAPA_PROFIL
  0
POLYLINE
  5
178A
  8
SAPA_PROFIL
 66
     1
 10
0.0
 20
0.0
 30
0.0
 70
     1
  0
VERTEX
  5
20D5
  8
SAPA_PROFIL
 10
1.801284705302286
 20
37.999988381304988
 30
0.0
  0
VERTEX
  5
20D6
  8
SAPA_PROFIL
 10
1.801284705558309
 20
42.549999999897977
 30
0.0
 42
0.4142135623895444
  0
VERTEX
  5
20D7
  8
SAPA_PROFIL
 10
1.551284705558309
 20
42.799999999912011
 30
0.0
  0
VERTEX
  5
20D8
  8
SAPA_PROFIL
 10
1.401284705838342
 20
42.799999999911961
 30
0.0
 42
-0.4142135622515363
  0
VERTEX
  5
20D9
  8
SAPA_PROFIL
 10
1.2012847058382969
 20
42.999999999829001
 30
0.0
  0
VERTEX
  5
20DA
  8
SAPA_PROFIL
 10
1.2012847051752751
 20
44.599999999828981
 30
0.0
 42
-0.4142135624946333
  0
VERTEX
  5
20DB
  8
SAPA_PROFIL
 10
1.401284705175321
 20
44.799999999912018
 30
0.0
  0
VERTEX
  5
20DC
  8
SAPA_PROFIL
 10
1.551284705698371
 20
44.799999999912018
 30
0.0
 42
0.4142135623577114
  0
VERTEX
  5
20DD
  8
SAPA_PROFIL
 10
1.8012847056992809
 20
45.049999999897977
 30
0.0
  0
VERTEX
  5
20DE
  8
SAPA_PROFIL
 10
1.8012847057803389
 20
46.499999999883023
 30
0.0
 42
0.4142135623896886
  0
VERTEX
  5
20DF
  8
SAPA_PROFIL
 10
1.501284705780271
 20
46.799999999900017
 30
0.0
  0
VERTEX
  5
20E0
  8
SAPA_PROFIL
 10
-16.498715294343651
 20
46.799999999900017
 30
0.0
 42
0.4142135623565153
  0
VERTEX
  5
20E1
  8
SAPA_PROFIL
 10
-16.798715294343712
 20
46.499999999916987
 30
0.0
  0
VERTEX
  5
20E2
  8
SAPA_PROFIL
 10
-16.79871529442568
 20
45.049999999926001
 30
0.0
 42
0.4142135623894778
  0
VERTEX
  5
20E3
  8
SAPA_PROFIL
 10
-16.54871529442568
 20
44.799999999912018
 30
0.0
  0
VERTEX
  5
20E4
  8
SAPA_PROFIL
 10
-16.39871529373869
 20
44.799999999912032
 30
0.0
 42
-0.4142135624946436
  0
VERTEX
  5
20E5
  8
SAPA_PROFIL
 10
-16.198715293738651
 20
44.599999999828981
 30
0.0
  0
VERTEX
  5
20E6
  8
SAPA_PROFIL
 10
-16.19871529440265
 20
42.999999999829001
 30
0.0
 42
-0.4142135622515466
  0
VERTEX
  5
20E7
  8
SAPA_PROFIL
 10
-16.398715294402638
 20
42.799999999912011
 30
0.0
  0
VERTEX
  5
20E8
  8
SAPA_PROFIL
 10
-16.548715294566652
 20
42.799999999912011
 30
0.0
 42
0.4142135623567124
  0
VERTEX
  5
20E9
  8
SAPA_PROFIL
 10
-16.798715294566652
 20
42.549999999926001
 30
0.0
  0
VERTEX
  5
20EA
  8
SAPA_PROFIL
 10
-16.798715294822689
 20
37.999999999917009
 30
0.0
 42
0.4142135623896818
  0
VERTEX
  5
20EB
  8
SAPA_PROFIL
 10
-16.49871529482272
 20
37.699999999899987
 30
0.0
  0
VERTEX
  5
20EC
  8
SAPA_PROFIL
 10
1.501284705527318
 20
37.699999999899987
 30
0.0
 42
0.414202219059594
  0
SEQEND
  5
20ED
  8
SAPA_PROFIL
  0
POLYLINE
  5
178B
  8
SAPA_PROFIL
 62
     4
 66
     1
 10
0.0
 20
0.0
 30
0.0
  0
VERTEX
  5
20EE
  8
SAPA_PROFIL
 62
     4
 10
-30.449386172468291
 20
50.594428835783638
 30
0.0
 42
-0.5571646428658034
  0
VERTEX
  5
20EF
  8
SAPA_PROFIL
 62
     4
 10
-30.98634667660512
 20
49.726709921628093
 30
0.0
  0
VERTEX
  5
20F0
  8
SAPA_PROFIL
 62
     4
 10
-48.011083913126313
 20
49.726709921628547
 30
0.0
 42
-0.5571645048035741
  0
VERTEX
  5
20F1
  8
SAPA_PROFIL
 62
     4
 10
-48.54804453008736
 20
50.59442860949472
 30
0.0
  0
VERTEX
  5
20F2
  8
SAPA_PROFIL
 62
     4
 10
-47.717337442540668
 20
52.260569265562751
 30
0.0
 42
-0.284385813979063
  0
VERTEX
  5
20F3
  8
SAPA_PROFIL
 62
     4
 10
-47.448857134060319
 20
52.426709921630192
 30
0.0
  0
VERTEX
  5
20F4
  8
SAPA_PROFIL
 62
     4
 10
-31.548573455671011
 20
52.426709921630177
 30
0.0
 42
-0.2843858139786238
  0
VERTEX
  5
20F5
  8
SAPA_PROFIL
 62
     4
 10
-31.28009314719073
 20
52.260569265563248
 30
0.0
  0
VERTEX
  5
20F6
  8
SAPA_PROFIL
 62
     4
 10
-30.449386059643569
 20
50.59442860949391
 30
0.0
  0
SEQEND
  5
20F7
  8
SAPA_PROFIL
 62
     4
  0
POLYLINE
  5
178C
  8
SAPA_PROFIL
 62
     4
 66
     1
 10
0.0
 20
0.0
 30
0.0
 70
     1
  0
VERTEX
  5
20F8
  8
SAPA_PROFIL
 62
     4
 10
-53.916326479532962
 20
52.783541436127763
 30
0.0
  0
VERTEX
  5
20F9
  8
SAPA_PROFIL
 62
     4
 10
-54.180349757908971
 20
53.190101632131899
 30
0.0
 42
0.2539676464751066
  0
VERTEX
  5
20FA
  8
SAPA_PROFIL
 62
     4
 10
-54.431950928293681
 20
53.326709921628009
 30
0.0
  0
VERTEX
  5
20FB
  8
SAPA_PROFIL
 62
     4
 10
-55.813450513499021
 20
53.326709921628009
 30
0.0
 42
0.3152987888790479
  0
VERTEX
  5
20FC
  8
SAPA_PROFIL
 62
     4
 10
-56.283296823891341
 20
52.997719993289849
 30
0.0
  0
VERTEX
  5
20FD
  8
SAPA_PROFIL
 62
     4
 10
-57.178965764799941
 20
50.536889802838573
 30
0.0
 42
-0.2694959974287434
  0
VERTEX
  5
20FE
  8
SAPA_PROFIL
 62
     4
 10
-57.4104848112013
 20
50.343757828494681
 30
0.0
 42
-0.0612686379508233
  0
VERTEX
  5
20FF
  8
SAPA_PROFIL
 62
     4
 10
-57.70316024405458
 20
50.33017445786416
 30
0.0
  0
VERTEX
  5
2100
  8
SAPA_PROFIL
 62
     4
 10
-58.052578421362853
 20
50.128437779135339
 30
0.0
 42
-0.5773502691891679
  0
VERTEX
  5
2101
  8
SAPA_PROFIL
 62
     4
 10
-58.367578421362431
 20
50.310303113929898
 30
0.0
  0
VERTEX
  5
2102
  8
SAPA_PROFIL
 62
     4
 10
-58.367578421362673
 20
50.577417642056233
 30
0.0
  0
VERTEX
  5
2103
  8
SAPA_PROFIL
 62
     4
 10
-59.76610612199692
 20
51.386101103364538
 30
0.0
 42
0.1318219888653519
  0
VERTEX
  5
2104
  8
SAPA_PROFIL
 62
     4
 10
-59.916279224469271
 20
51.426393499901941
 30
0.0
  0
VERTEX
  5
2105
  8
SAPA_PROFIL
 62
     4
 10
-60.09871529490605
 20
51.426393499895568
 30
0.0
 42
0.4142135623724291
  0
VERTEX
  5
2106
  8
SAPA_PROFIL
 62
     4
 10
-60.498715294906589
 20
51.026393499895931
 30
0.0
  0
VERTEX
  5
2107
  8
SAPA_PROFIL
 62
     4
 10
-60.498715294905232
 20
47.626393499894931
 30
0.0
 42
0.4142135623744271
  0
VERTEX
  5
2108
  8
SAPA_PROFIL
 62
     4
 10
-60.09871529490605
 20
47.226393499893931
 30
0.0
  0
VERTEX
  5
2109
  8
SAPA_PROFIL
 62
     4
 10
-59.919100052634739
 20
47.226393499893291
 30
0.0
 42
0.1316524975874005
  0
VERTEX
  5
210A
  8
SAPA_PROFIL
 62
     4
 10
-59.769100052637931
 20
47.266585878758882
 30
0.0
  0
VERTEX
  5
210B
  8
SAPA_PROFIL
 62
     4
 10
-58.164962155635671
 20
48.192735325411419
 30
0.0
 42
-0.1316524975875904
  0
VERTEX
  5
210C
  8
SAPA_PROFIL
 62
     4
 10
-57.664962155633958
 20
48.326709921626183
 30
0.0
  0
VERTEX
  5
210D
  8
SAPA_PROFIL
 62
     4
 10
-57.248715294906589
 20
48.326709921626183
 30
0.0
 42
-0.4142135623730951
  0
VERTEX
  5
210E
  8
SAPA_PROFIL
 62
     4
 10
-56.248715294906589
 20
47.32670992162619
 30
0.0
  0
VERTEX
  5
210F
  8
SAPA_PROFIL
 62
     4
 10
-56.248715294906589
 20
44.326709921628918
 30
0.0
 42
0.9999996830128083
  0
VERTEX
  5
2110
  8
SAPA_PROFIL
 62
     4
 10
-55.248715294906603
 20
44.326709921627099
 30
0.0
  0
VERTEX
  5
2111
  8
SAPA_PROFIL
 62
     4
 10
-55.248715294906603
 20
47.326709921627092
 30
0.0
 42
-0.4142135623730951
  0
VERTEX
  5
2112
  8
SAPA_PROFIL
 62
     4
 10
-54.248715294906589
 20
48.326709921627099
 30
0.0
  0
VERTEX
  5
2113
  8
SAPA_PROFIL
 62
     4
 10
-24.748715294822009
 20
48.326709921627092
 30
0.0
 42
-0.4142135623730951
  0
VERTEX
  5
2114
  8
SAPA_PROFIL
 62
     4
 10
-23.748715294822009
 20
47.326709921627092
 30
0.0
  0
VERTEX
  5
2115
  8
SAPA_PROFIL
 62
     4
 10
-23.748715294822009
 20
44.326709921628911
 30
0.0
 42
0.9999999999999998
  0
VERTEX
  5
2116
  8
SAPA_PROFIL
 62
     4
 10
-22.748715294822009
 20
44.326709921628911
 30
0.0
  0
VERTEX
  5
2117
  8
SAPA_PROFIL
 62
     4
 10
-22.748715294822009
 20
47.326709921627092
 30
0.0
 42
-0.4142135623736278
  0
VERTEX
  5
2118
  8
SAPA_PROFIL
 62
     4
 10
-21.748715294822009
 20
48.326709921627092
 30
0.0
  0
VERTEX
  5
2119
  8
SAPA_PROFIL
 62
     4
 10
-21.332468434095549
 20
48.326709921627092
 30
0.0
 42
-0.1316524975874375
  0
VERTEX
  5
211A
  8
SAPA_PROFIL
 62
     4
 10
-20.83246843409535
 20
48.192735325411057
 30
0.0
  0
VERTEX
  5
211B
  8
SAPA_PROFIL
 62
     4
 10
-19.228330537093399
 20
47.266585878758868
 30
0.0
 42
0.1316524975874
  0
VERTEX
  5
211C
  8
SAPA_PROFIL
 62
     4
 10
-19.078330537093859
 20
47.226393499893291
 30
0.0
  0
VERTEX
  5
211D
  8
SAPA_PROFIL
 62
     4
 10
-18.898715294822559
 20
47.226393499893923
 30
0.0
 42
0.4142135623744271
  0
VERTEX
  5
211E
  8
SAPA_PROFIL
 62
     4
 10
-18.498715294823381
 20
47.626393499894917
 30
0.0
  0
VERTEX
  5
211F
  8
SAPA_PROFIL
 62
     4
 10
-18.498715294822009
 20
51.026393499895917
 30
0.0
 42
0.4142135623724291
  0
VERTEX
  5
2120
  8
SAPA_PROFIL
 62
     4
 10
-18.898715294822559
 20
51.426393499895561
 30
0.0
  0
VERTEX
  5
2121
  8
SAPA_PROFIL
 62
     4
 10
-19.081151365259341
 20
51.426393499901927
 30
0.0
 42
0.1318219888653524
  0
VERTEX
  5
2122
  8
SAPA_PROFIL
 62
     4
 10
-19.231324467731682
 20
51.386101103364531
 30
0.0
  0
VERTEX
  5
2123
  8
SAPA_PROFIL
 62
     4
 10
-20.62985216821134
 20
50.577417642140198
 30
0.0
  0
VERTEX
  5
2124
  8
SAPA_PROFIL
 62
     4
 10
-20.62985216821134
 20
50.310303113927162
 30
0.0
 42
-0.577350269189159
  0
VERTEX
  5
2125
  8
SAPA_PROFIL
 62
     4
 10
-20.944852168210939
 20
50.128437779132597
 30
0.0
  0
VERTEX
  5
2126
  8
SAPA_PROFIL
 62
     4
 10
-21.294270345429599
 20
50.330174457809697
 30
0.0
 42
-0.0612687673629489
  0
VERTEX
  5
2127
  8
SAPA_PROFIL
 62
     4
 10
-21.58694577852981
 20
50.34375782849591
 30
0.0
 42
-0.2694959974285039
  0
VERTEX
  5
2128
  8
SAPA_PROFIL
 62
     4
 10
-21.818464824930331
 20
50.536889802839859
 30
0.0
  0
VERTEX
  5
2129
  8
SAPA_PROFIL
 62
     4
 10
-22.71413376584
 20
52.997719993293018
 30
0.0
 42
0.3152987888784035
  0
VERTEX
  5
212A
  8
SAPA_PROFIL
 62
     4
 10
-23.183980076233219
 20
53.3267099216296
 30
0.0
  0
VERTEX
  5
212B
  8
SAPA_PROFIL
 62
     4
 10
-24.56547966143766
 20
53.326709921628002
 30
0.0
 42
0.2539676464741841
  0
VERTEX
  5
212C
  8
SAPA_PROFIL
 62
     4
 10
-24.81708083182173
 20
53.19010163213273
 30
0.0
  0
VERTEX
  5
212D
  8
SAPA_PROFIL
 62
     4
 10
-25.081104110198378
 20
52.783541436127763
 30
0.0
 42
0.5862177598324623
  0
VERTEX
  5
212E
  8
SAPA_PROFIL
 62
     4
 10
-24.82536229496003
 20
52.326709921631249
 30
0.0
  0
VERTEX
  5
212F
  8
SAPA_PROFIL
 62
     4
 10
-23.884187614450219
 20
52.326709921638923
 30
0.0
 42
-0.3152987888813165
  0
VERTEX
  5
2130
  8
SAPA_PROFIL
 62
     4
 10
-23.414341304052471
 20
51.997719993302162
 30
0.0
  0
VERTEX
  5
2131
  8
SAPA_PROFIL
 62
     4
 10
-22.977577022928511
 20
50.797719993290933
 30
0.0
 42
-0.5205670505515651
  0
VERTEX
  5
2132
  8
SAPA_PROFIL
 62
     4
 10
-23.44742333332173
 20
50.126709921628184
 30
0.0
  0
VERTEX
  5
2133
  8
SAPA_PROFIL
 62
     4
 10
-28.463864273990581
 20
50.126709921628148
 30
0.0
 42
-0.3702522326300203
  0
VERTEX
  5
2134
  8
SAPA_PROFIL
 62
     4
 10
-28.760387635783911
 20
50.38116987429386
 30
0.0
 42
-0.0982365330332397
  0
VERTEX
  5
2135
  8
SAPA_PROFIL
 62
     4
 10
-28.850840393994851
 20
52.068856649288861
 30
0.0
 42
-0.3735060174783164
  0
VERTEX
  5
2136
  8
SAPA_PROFIL
 62
     4
 10
-28.553815726083869
 20
52.326709921628911
 30
0.0
  0
VERTEX
  5
2137
  8
SAPA_PROFIL
 62
     4
 10
-28.12536229496121
 20
52.326709921629821
 30
0.0
 42
0.5920056181162531
  0
VERTEX
  5
2138
  8
SAPA_PROFIL
 62
     4
 10
-27.872353538643821
 20
52.787913424157743
 30
0.0
  0
VERTEX
  5
2139
  8
SAPA_PROFIL
 62
     4
 10
-28.133537614799518
 20
53.190101632136042
 30
0.0
 42
0.2539676464746725
  0
VERTEX
  5
213A
  8
SAPA_PROFIL
 62
     4
 10
-28.38513878518328
 20
53.326709921631412
 30
0.0
  0
VERTEX
  5
213B
  8
SAPA_PROFIL
 62
     4
 10
-50.612291804548967
 20
53.326709921629828
 30
0.0
 42
0.2539676464741819
  0
VERTEX
  5
213C
  8
SAPA_PROFIL
 62
     4
 10
-50.863892974931822
 20
53.190101632136042
 30
0.0
  0
VERTEX
  5
213D
  8
SAPA_PROFIL
 62
     4
 10
-51.125077051085633
 20
52.787913424157722
 30
0.0
 42
0.5920055144124249
  0
VERTEX
  5
213E
  8
SAPA_PROFIL
 62
     4
 10
-50.872068294770123
 20
52.326709921629828
 30
0.0
  0
VERTEX
  5
213F
  8
SAPA_PROFIL
 62
     4
 10
-50.443614817479911
 20
52.326709946904828
 30
0.0
 42
-0.3735060174775405
  0
VERTEX
  5
2140
  8
SAPA_PROFIL
 62
     4
 10
-50.146590149570223
 20
52.068856674564742
 30
0.0
 42
-0.0355900683670349
  0
VERTEX
  5
2141
  8
SAPA_PROFIL
 62
     4
 10
-50.102696585537963
 20
51.452983087764963
 30
0.0
 42
-0.0624282003873116
  0
VERTEX
  5
2142
  8
SAPA_PROFIL
 62
     4
 10
-50.237042907780904
 20
50.381169899569819
 30
0.0
 42
-0.3702522326309292
  0
VERTEX
  5
2143
  8
SAPA_PROFIL
 62
     4
 10
-50.53356626957428
 20
50.1267099469041
 30
0.0
  0
VERTEX
  5
2144
  8
SAPA_PROFIL
 62
     4
 10
-55.550007256407788
 20
50.12670992162797
 30
0.0
 42
-0.5205670505515692
  0
VERTEX
  5
2145
  8
SAPA_PROFIL
 62
     4
 10
-56.019853566801011
 20
50.79771999329094
 30
0.0
  0
VERTEX
  5
2146
  8
SAPA_PROFIL
 62
     4
 10
-55.58308928567606
 20
51.997719993300393
 30
0.0
 42
-0.3152987888807539
  0
VERTEX
  5
2147
  8
SAPA_PROFIL
 62
     4
 10
-55.113242975280201
 20
52.326709921638013
 30
0.0
  0
VERTEX
  5
2148
  8
SAPA_PROFIL
 62
     4
 10
-54.172068294771123
 20
52.326709921631192
 30
0.0
 42
0.5862175119221242
  0
VERTEX
  5
2149
  8
SAPA_PROFIL
 62
     4
 10
-53.916326363789167
 20
52.783541247386317
 30
0.0
 42
-0.0000002084758573
  0
SEQEND
  5
214A
  8
SAPA_PROFIL
 62
     4
  0
POLYLINE
  5
178D
  8
SAPA_PROFIL
 62
     4
 66
     1
 10
0.0
 20
0.0
 30
0.0
  0
VERTEX
  5
214B
  8
SAPA_PROFIL
 62
     4
 10
-30.449386172468291
 20
33.905571133529158
 30
0.0
 42
0.5571646428658034
  0
VERTEX
  5
214C
  8
SAPA_PROFIL
 62
     4
 10
-30.98634667660512
 20
34.773290047684711
 30
0.0
  0
VERTEX
  5
214D
  8
SAPA_PROFIL
 62
     4
 10
-48.011083913126313
 20
34.773290047684263
 30
0.0
 42
0.5571645048035741
  0
VERTEX
  5
214E
  8
SAPA_PROFIL
 62
     4
 10
-48.54804453008736
 20
33.905571359818083
 30
0.0
  0
VERTEX
  5
214F
  8
SAPA_PROFIL
 62
     4
 10
-47.717337442540668
 20
32.23943070375006
 30
0.0
 42
0.284385813979063
  0
VERTEX
  5
2150
  8
SAPA_PROFIL
 62
     4
 10
-47.448857134060319
 20
32.073290047682619
 30
0.0
  0
VERTEX
  5
2151
  8
SAPA_PROFIL
 62
     4
 10
-31.548573455671011
 20
32.073290047682612
 30
0.0
 42
0.2843858139786238
  0
VERTEX
  5
2152
  8
SAPA_PROFIL
 62
     4
 10
-31.28009314719073
 20
32.239430703749541
 30
0.0
  0
VERTEX
  5
2153
  8
SAPA_PROFIL
 62
     4
 10
-30.449386059643569
 20
33.905571359818893
 30
0.0
  0
SEQEND
  5
2154
  8
SAPA_PROFIL
 62
     4
  0
POLYLINE
  5
178E
  8
SAPA_PROFIL
 62
     4
 66
     1
 10
0.0
 20
0.0
 30
0.0
 70
     1
  0
VERTEX
  5
2155
  8
SAPA_PROFIL
 62
     4
 10
-53.916326479532962
 20
31.716458533185051
 30
0.0
  0
VERTEX
  5
2156
  8
SAPA_PROFIL
 62
     4
 10
-54.180349757908978
 20
31.309898337180911
 30
0.0
 42
-0.2539676464751066
  0
VERTEX
  5
2157
  8
SAPA_PROFIL
 62
     4
 10
-54.431950928293681
 20
31.173290047684802
 30
0.0
  0
VERTEX
  5
2158
  8
SAPA_PROFIL
 62
     4
 10
-55.813450513499021
 20
31.173290047684802
 30
0.0
 42
-0.3152987888790479
  0
VERTEX
  5
2159
  8
SAPA_PROFIL
 62
     4
 10
-56.283296823891341
 20
31.502279976022962
 30
0.0
  0
VERTEX
  5
215A
  8
SAPA_PROFIL
 62
     4
 10
-57.178965764799941
 20
33.963110166474237
 30
0.0
 42
0.2694959974287434
  0
VERTEX
  5
215B
  8
SAPA_PROFIL
 62
     4
 10
-57.4104848112013
 20
34.156242140818129
 30
0.0
 42
0.0612686379508233
  0
VERTEX
  5
215C
  8
SAPA_PROFIL
 62
     4
 10
-57.70316024405458
 20
34.16982551144865
 30
0.0
  0
VERTEX
  5
215D
  8
SAPA_PROFIL
 62
     4
 10
-58.052578421362853
 20
34.371562190177471
 30
0.0
 42
0.5773502691891679
  0
VERTEX
  5
215E
  8
SAPA_PROFIL
 62
     4
 10
-58.367578421362431
 20
34.189696855382913
 30
0.0
  0
VERTEX
  5
215F
  8
SAPA_PROFIL
 62
     4
 10
-58.367578421362673
 20
33.922582327256592
 30
0.0
  0
VERTEX
  5
2160
  8
SAPA_PROFIL
 62
     4
 10
-59.76610612199692
 20
33.113898865948272
 30
0.0
 42
-0.1318219888653519
  0
VERTEX
  5
2161
  8
SAPA_PROFIL
 62
     4
 10
-59.916279224469271
 20
33.073606469410883
 30
0.0
  0
VERTEX
  5
2162
  8
SAPA_PROFIL
 62
     4
 10
-60.09871529490605
 20
33.073606469417243
 30
0.0
 42
-0.4142135623724291
  0
VERTEX
  5
2163
  8
SAPA_PROFIL
 62
     4
 10
-60.498715294906589
 20
33.473606469416879
 30
0.0
  0
VERTEX
  5
2164
  8
SAPA_PROFIL
 62
     4
 10
-60.498715294905232
 20
36.873606469417879
 30
0.0
 42
-0.4142135623744271
  0
VERTEX
  5
2165
  8
SAPA_PROFIL
 62
     4
 10
-60.09871529490605
 20
37.27360646941888
 30
0.0
  0
VERTEX
  5
2166
  8
SAPA_PROFIL
 62
     4
 10
-59.919100052634739
 20
37.273606469419519
 30
0.0
 42
-0.1316524975874005
  0
VERTEX
  5
2167
  8
SAPA_PROFIL
 62
     4
 10
-59.769100052637931
 20
37.233414090553921
 30
0.0
  0
VERTEX
  5
2168
  8
SAPA_PROFIL
 62
     4
 10
-58.164962155635671
 20
36.307264643901377
 30
0.0
 42
0.1316524975875904
  0
VERTEX
  5
2169
  8
SAPA_PROFIL
 62
     4
 10
-57.664962155633958
 20
36.173290047686621
 30
0.0
  0
VERTEX
  5
216A
  8
SAPA_PROFIL
 62
     4
 10
-57.248715294906589
 20
36.173290047686621
 30
0.0
 42
0.4142135623730951
  0
VERTEX
  5
216B
  8
SAPA_PROFIL
 62
     4
 10
-56.248715294906589
 20
37.173290047686621
 30
0.0
  0
VERTEX
  5
216C
  8
SAPA_PROFIL
 62
     4
 10
-56.248715294906589
 20
40.173290047683892
 30
0.0
 42
-0.9999996830128083
  0
VERTEX
  5
216D
  8
SAPA_PROFIL
 62
     4
 10
-55.248715294906603
 20
40.173290047685711
 30
0.0
  0
VERTEX
  5
216E
  8
SAPA_PROFIL
 62
     4
 10
-55.248715294906603
 20
37.173290047685711
 30
0.0
 42
0.4142135623730951
  0
VERTEX
  5
216F
  8
SAPA_PROFIL
 62
     4
 10
-54.248715294906589
 20
36.173290047685711
 30
0.0
  0
VERTEX
  5
2170
  8
SAPA_PROFIL
 62
     4
 10
-24.748715294822009
 20
36.173290047685711
 30
0.0
 42
0.4142135623730951
  0
VERTEX
  5
2171
  8
SAPA_PROFIL
 62
     4
 10
-23.748715294822009
 20
37.173290047685711
 30
0.0
  0
VERTEX
  5
2172
  8
SAPA_PROFIL
 62
     4
 10
-23.748715294822009
 20
40.173290047683878
 30
0.0
 42
-0.9999999999999998
  0
VERTEX
  5
2173
  8
SAPA_PROFIL
 62
     4
 10
-22.748715294822009
 20
40.173290047683878
 30
0.0
  0
VERTEX
  5
2174
  8
SAPA_PROFIL
 62
     4
 10
-22.748715294822009
 20
37.173290047685711
 30
0.0
 42
0.4142135623736278
  0
VERTEX
  5
2175
  8
SAPA_PROFIL
 62
     4
 10
-21.748715294822009
 20
36.173290047685711
 30
0.0
  0
VERTEX
  5
2176
  8
SAPA_PROFIL
 62
     4
 10
-21.332468434095549
 20
36.173290047685711
 30
0.0
 42
0.1316524975874375
  0
VERTEX
  5
2177
  8
SAPA_PROFIL
 62
     4
 10
-20.83246843409535
 20
36.307264643901739
 30
0.0
  0
VERTEX
  5
2178
  8
SAPA_PROFIL
 62
     4
 10
-19.228330537093399
 20
37.233414090553921
 30
0.0
 42
-0.1316524975874
  0
VERTEX
  5
2179
  8
SAPA_PROFIL
 62
     4
 10
-19.078330537093859
 20
37.273606469419512
 30
0.0
  0
VERTEX
  5
217A
  8
SAPA_PROFIL
 62
     4
 10
-18.898715294822559
 20
37.27360646941888
 30
0.0
 42
-0.4142135623744271
  0
VERTEX
  5
217B
  8
SAPA_PROFIL
 62
     4
 10
-18.498715294823381
 20
36.873606469417872
 30
0.0
  0
VERTEX
  5
217C
  8
SAPA_PROFIL
 62
     4
 10
-18.498715294822009
 20
33.473606469416872
 30
0.0
 42
-0.4142135623724291
  0
VERTEX
  5
217D
  8
SAPA_PROFIL
 62
     4
 10
-18.898715294822559
 20
33.073606469417243
 30
0.0
  0
VERTEX
  5
217E
  8
SAPA_PROFIL
 62
     4
 10
-19.081151365259341
 20
33.073606469410869
 30
0.0
 42
-0.1318219888653524
  0
VERTEX
  5
217F
  8
SAPA_PROFIL
 62
     4
 10
-19.231324467731682
 20
33.113898865948258
 30
0.0
  0
VERTEX
  5
2180
  8
SAPA_PROFIL
 62
     4
 10
-20.62985216821134
 20
33.922582327172599
 30
0.0
  0
VERTEX
  5
2181
  8
SAPA_PROFIL
 62
     4
 10
-20.62985216821134
 20
34.189696855385627
 30
0.0
 42
0.577350269189159
  0
VERTEX
  5
2182
  8
SAPA_PROFIL
 62
     4
 10
-20.944852168210939
 20
34.3715621901802
 30
0.0
  0
VERTEX
  5
2183
  8
SAPA_PROFIL
 62
     4
 10
-21.294270345429599
 20
34.169825511503092
 30
0.0
 42
0.0612687673629489
  0
VERTEX
  5
2184
  8
SAPA_PROFIL
 62
     4
 10
-21.58694577852981
 20
34.156242140816893
 30
0.0
 42
0.2694959974285039
  0
VERTEX
  5
2185
  8
SAPA_PROFIL
 62
     4
 10
-21.818464824930331
 20
33.963110166472937
 30
0.0
  0
VERTEX
  5
2186
  8
SAPA_PROFIL
 62
     4
 10
-22.71413376584
 20
31.502279976019771
 30
0.0
 42
-0.3152987888784035
  0
VERTEX
  5
2187
  8
SAPA_PROFIL
 62
     4
 10
-23.183980076233219
 20
31.173290047683199
 30
0.0
  0
VERTEX
  5
2188
  8
SAPA_PROFIL
 62
     4
 10
-24.56547966143766
 20
31.173290047684802
 30
0.0
 42
-0.2539676464741841
  0
VERTEX
  5
2189
  8
SAPA_PROFIL
 62
     4
 10
-24.81708083182173
 20
31.309898337180069
 30
0.0
  0
VERTEX
  5
218A
  8
SAPA_PROFIL
 62
     4
 10
-25.081104110198378
 20
31.71645853318504
 30
0.0
 42
-0.5862177598324623
  0
VERTEX
  5
218B
  8
SAPA_PROFIL
 62
     4
 10
-24.82536229496003
 20
32.173290047681547
 30
0.0
  0
VERTEX
  5
218C
  8
SAPA_PROFIL
 62
     4
 10
-23.884187614450219
 20
32.173290047673881
 30
0.0
 42
0.3152987888813165
  0
VERTEX
  5
218D
  8
SAPA_PROFIL
 62
     4
 10
-23.414341304052471
 20
32.502279976010641
 30
0.0
  0
VERTEX
  5
218E
  8
SAPA_PROFIL
 62
     4
 10
-22.977577022928511
 20
33.702279976021863
 30
0.0
 42
0.5205670505515651
  0
VERTEX
  5
218F
  8
SAPA_PROFIL
 62
     4
 10
-23.44742333332173
 20
34.373290047684613
 30
0.0
  0
VERTEX
  5
2190
  8
SAPA_PROFIL
 62
     4
 10
-28.463864273990581
 20
34.373290047684641
 30
0.0
 42
0.3702522326300203
  0
VERTEX
  5
2191
  8
SAPA_PROFIL
 62
     4
 10
-28.760387635783911
 20
34.118830095018943
 30
0.0
 42
0.0982365330332397
  0
VERTEX
  5
2192
  8
SAPA_PROFIL
 62
     4
 10
-28.850840393994851
 20
32.431143320023928
 30
0.0
 42
0.3735060174783164
  0
VERTEX
  5
2193
  8
SAPA_PROFIL
 62
     4
 10
-28.553815726083869
 20
32.173290047683899
 30
0.0
  0
VERTEX
  5
2194
  8
SAPA_PROFIL
 62
     4
 10
-28.12536229496121
 20
32.173290047682983
 30
0.0
 42
-0.5920056181162531
  0
VERTEX
  5
2195
  8
SAPA_PROFIL
 62
     4
 10
-27.872353538643821
 20
31.712086545155049
 30
0.0
  0
VERTEX
  5
2196
  8
SAPA_PROFIL
 62
     4
 10
-28.133537614799518
 20
31.309898337176762
 30
0.0
 42
-0.2539676464746725
  0
VERTEX
  5
2197
  8
SAPA_PROFIL
 62
     4
 10
-28.38513878518328
 20
31.173290047681391
 30
0.0
  0
VERTEX
  5
2198
  8
SAPA_PROFIL
 62
     4
 10
-50.612291804548967
 20
31.173290047682979
 30
0.0
 42
-0.2539676464741819
  0
VERTEX
  5
2199
  8
SAPA_PROFIL
 62
     4
 10
-50.863892974931822
 20
31.309898337176762
 30
0.0
  0
VERTEX
  5
219A
  8
SAPA_PROFIL
 62
     4
 10
-51.125077051085633
 20
31.712086545155099
 30
0.0
 42
-0.5920055144124249
  0
VERTEX
  5
219B
  8
SAPA_PROFIL
 62
     4
 10
-50.872068294770123
 20
32.173290047682983
 30
0.0
  0
VERTEX
  5
219C
  8
SAPA_PROFIL
 62
     4
 10
-50.443614817479911
 20
32.173290022407983
 30
0.0
 42
0.3735060174775405
  0
VERTEX
  5
219D
  8
SAPA_PROFIL
 62
     4
 10
-50.146590149570223
 20
32.431143294748068
 30
0.0
 42
0.0355900683670349
  0
VERTEX
  5
219E
  8
SAPA_PROFIL
 62
     4
 10
-50.102696585537963
 20
33.047016881547847
 30
0.0
 42
0.0624282003873116
  0
VERTEX
  5
219F
  8
SAPA_PROFIL
 62
     4
 10
-50.237042907780904
 20
34.118830069742977
 30
0.0
 42
0.3702522326309292
  0
VERTEX
  5
21A0
  8
SAPA_PROFIL
 62
     4
 10
-50.53356626957428
 20
34.37329002240871
 30
0.0
  0
VERTEX
  5
21A1
  8
SAPA_PROFIL
 62
     4
 10
-55.550007256407788
 20
34.37329004768484
 30
0.0
 42
0.5205670505515692
  0
VERTEX
  5
21A2
  8
SAPA_PROFIL
 62
     4
 10
-56.019853566801011
 20
33.70227997602187
 30
0.0
  0
VERTEX
  5
21A3
  8
SAPA_PROFIL
 62
     4
 10
-55.58308928567606
 20
32.502279976012431
 30
0.0
 42
0.3152987888807539
  0
VERTEX
  5
21A4
  8
SAPA_PROFIL
 62
     4
 10
-55.113242975280201
 20
32.173290047674797
 30
0.0
  0
VERTEX
  5
21A5
  8
SAPA_PROFIL
 62
     4
 10
-54.172068294771123
 20
32.173290047681618
 30
0.0
 42
-0.5862175119221242
  0
VERTEX
  5
21A6
  8
SAPA_PROFIL
 62
     4
 10
-53.916326363789167
 20
31.716458721926479
 30
0.0
 42
0.0000002084758573
  0
SEQEND
  5
21A7
  8
SAPA_PROFIL
 62
     4
  0
POLYLINE
  5
178F
  8
SAPA_PROFIL
 62
     4
 66
     1
 10
0.0
 20
0.0
 30
0.0
 70
     1
  0
VERTEX
  5
21A8
  8
SAPA_PROFIL
 62
     4
 10
-68.702943553211838
 20
14.899999995409051
 30
0.0
  0
VERTEX
  5
21A9
  8
SAPA_PROFIL
 62
     4
 10
-72.897056102908749
 20
14.89999999540724
 30
0.0
 42
0.1989123673786592
  0
VERTEX
  5
21AA
  8
SAPA_PROFIL
 62
     4
 10
-73.109188137264553
 20
14.812132029763781
 30
0.0
  0
VERTEX
  5
21AB
  8
SAPA_PROFIL
 62
     4
 10
-75.333452205975476
 20
12.58786796105287
 30
0.0
 42
-0.1989123673785438
  0
VERTEX
  5
21AC
  8
SAPA_PROFIL
 62
     4
 10
-75.545584240331294
 20
12.49999999540942
 30
0.0
  0
VERTEX
  5
21AD
  8
SAPA_PROFIL
 62
     4
 10
-75.999999828059643
 20
12.49999999541124
 30
0.0
 42
-0.4142135623730951
  0
VERTEX
  5
21AE
  8
SAPA_PROFIL
 62
     4
 10
-76.299999828059825
 20
12.799999995410509
 30
0.0
  0
VERTEX
  5
21AF
  8
SAPA_PROFIL
 62
     4
 10
-76.299999828059825
 20
24.69999999540947
 30
0.0
 42
0.4142135623730951
  0
VERTEX
  5
21B0
  8
SAPA_PROFIL
 62
     4
 10
-76.799999828059839
 20
25.19999999540947
 30
0.0
  0
VERTEX
  5
21B1
  8
SAPA_PROFIL
 62
     4
 10
-78.499999828059643
 20
25.19999999540947
 30
0.0
 42
-0.4142135623739832
  0
VERTEX
  5
21B2
  8
SAPA_PROFIL
 62
     4
 10
-78.799999828059825
 20
25.499999995408739
 30
0.0
  0
VERTEX
  5
21B3
  8
SAPA_PROFIL
 62
     4
 10
-78.799999828059825
 20
29.19999999540833
 30
0.0
 42
-0.414213562375759
  0
VERTEX
  5
21B4
  8
SAPA_PROFIL
 62
     4
 10
-78.499999828059643
 20
29.499999995409421
 30
0.0
  0
VERTEX
  5
21B5
  8
SAPA_PROFIL
 62
     4
 10
-62.006576697656641
 20
29.499999995407599
 30
0.0
 42
-0.4142135623735391
  0
VERTEX
  5
21B6
  8
SAPA_PROFIL
 62
     4
 10
-61.706576697656921
 20
29.19999999540833
 30
0.0
  0
VERTEX
  5
21B7
  8
SAPA_PROFIL
 62
     4
 10
-61.706576697656921
 20
12.799999995410509
 30
0.0
 42
-0.4142135623726511
  0
VERTEX
  5
21B8
  8
SAPA_PROFIL
 62
     4
 10
-62.006576697656641
 20
12.49999999540942
 30
0.0
  0
VERTEX
  5
21B9
  8
SAPA_PROFIL
 62
     4
 10
-66.054415415787474
 20
12.49999999540942
 30
0.0
 42
-0.1989123673785438
  0
VERTEX
  5
21BA
  8
SAPA_PROFIL
 62
     4
 10
-66.266547450143293
 20
12.58786796105287
 30
0.0
  0
VERTEX
  5
21BB
  8
SAPA_PROFIL
 62
     4
 10
-68.49081151885602
 20
14.8121320297656
 30
0.0
 42
0.1989123673798886
  0
SEQEND
  5
21BC
  8
SAPA_PROFIL
 62
     4
  0
POLYLINE
  5
1790
  8
SAPA_PROFIL
 62
     4
 66
     1
 10
0.0
 20
0.0
 30
0.0
 70
     1
  0
VERTEX
  5
21BD
  8
SAPA_PROFIL
 62
     4
 10
-47.299999828060059
 20
29.499999995409421
 30
0.0
  0
VERTEX
  5
21BE
  8
SAPA_PROFIL
 62
     4
 10
-60.10657669765655
 20
29.499999995407599
 30
0.0
 42
0.4142135623732061
  0
VERTEX
  5
21BF
  8
SAPA_PROFIL
 62
     4
 10
-60.406576697656732
 20
29.19999999540833
 30
0.0
  0
VERTEX
  5
21C0
  8
SAPA_PROFIL
 62
     4
 10
-60.406576697656739
 20
12.799999995410509
 30
0.0
 42
0.4142135623730951
  0
VERTEX
  5
21C1
  8
SAPA_PROFIL
 62
     4
 10
-60.106576697656557
 20
12.49999999540942
 30
0.0
  0
VERTEX
  5
21C2
  8
SAPA_PROFIL
 62
     4
 10
-47.299999828060074
 20
12.49999999541123
 30
0.0
 42
0.4142135623731173
  0
VERTEX
  5
21C3
  8
SAPA_PROFIL
 62
     4
 10
-46.999999828059892
 20
12.799999995412319
 30
0.0
  0
VERTEX
  5
21C4
  8
SAPA_PROFIL
 62
     4
 10
-46.999999828059877
 20
29.199999995410138
 30
0.0
 42
0.4142135623730951
  0
SEQEND
  5
21C5
  8
SAPA_PROFIL
 62
     4
  0
POLYLINE
  5
1791
  8
SAPA_PROFIL
 62
     4
 66
     1
 10
0.0
 20
0.0
 30
0.0
 70
     1
  0
VERTEX
  5
21C6
  8
SAPA_PROFIL
 62
     4
 10
-45.999999828059877
 20
10.99999999541123
 30
0.0
  0
VERTEX
  5
21C7
  8
SAPA_PROFIL
 62
     4
 10
-66.675735759347475
 20
10.999999995409411
 30
0.0
 42
-0.1989123673799843
  0
VERTEX
  5
21C8
  8
SAPA_PROFIL
 62
     4
 10
-66.887867793704203
 20
11.087867961054689
 30
0.0
  0
VERTEX
  5
21C9
  8
SAPA_PROFIL
 62
     4
 10
-69.112131862415112
 20
13.3121320297656
 30
0.0
 42
0.1989123673811184
  0
VERTEX
  5
21CA
  8
SAPA_PROFIL
 62
     4
 10
-69.32426389677093
 20
13.399999995409051
 30
0.0
  0
VERTEX
  5
21CB
  8
SAPA_PROFIL
 62
     4
 10
-72.275735759348748
 20
13.39999999540723
 30
0.0
 42
0.1989123673785438
  0
VERTEX
  5
21CC
  8
SAPA_PROFIL
 62
     4
 10
-72.487867793704567
 20
13.312132029763781
 30
0.0
  0
VERTEX
  5
21CD
  8
SAPA_PROFIL
 62
     4
 10
-74.712131862416385
 20
11.08786796105287
 30
0.0
 42
-0.1989123673785438
  0
VERTEX
  5
21CE
  8
SAPA_PROFIL
 62
     4
 10
-74.924263896772203
 20
10.99999999540942
 30
0.0
  0
VERTEX
  5
21CF
  8
SAPA_PROFIL
 62
     4
 10
-77.299999828059839
 20
10.99999999541124
 30
0.0
 42
-0.4142135623730951
  0
VERTEX
  5
21D0
  8
SAPA_PROFIL
 62
     4
 10
-77.799999828059839
 20
11.49999999541124
 30
0.0
  0
VERTEX
  5
21D1
  8
SAPA_PROFIL
 62
     4
 10
-77.799999828059839
 20
23.399999995410191
 30
0.0
 42
0.414213562373761
  0
VERTEX
  5
21D2
  8
SAPA_PROFIL
 62
     4
 10
-78.099999828060021
 20
23.69999999540947
 30
0.0
  0
VERTEX
  5
21D3
  8
SAPA_PROFIL
 62
     4
 10
-79.799999828059839
 20
23.69999999540947
 30
0.0
 42
-0.4142135623730951
  0
VERTEX
  5
21D4
  8
SAPA_PROFIL
 62
     4
 10
-80.299999828059839
 20
24.19999999540947
 30
0.0
  0
VERTEX
  5
21D5
  8
SAPA_PROFIL
 62
     4
 10
-80.299999828059839
 20
30.499999995409421
 30
0.0
 42
-0.4142135623730951
  0
VERTEX
  5
21D6
  8
SAPA_PROFIL
 62
     4
 10
-79.799999828059839
 20
30.999999995409421
 30
0.0
  0
VERTEX
  5
21D7
  8
SAPA_PROFIL
 62
     4
 10
-78.799999828059498
 20
30.999999995407599
 30
0.0
 42
0.414213562373539
  0
VERTEX
  5
21D8
  8
SAPA_PROFIL
 62
     4
 10
-78.499999828059543
 20
31.299999995406878
 30
0.0
  0
VERTEX
  5
21D9
  8
SAPA_PROFIL
 62
     4
 10
-78.499999828059998
 20
32.899999995409047
 30
0.0
 42
0.4142135623735391
  0
VERTEX
  5
21DA
  8
SAPA_PROFIL
 62
     4
 10
-78.799999828059725
 20
33.199999995408326
 30
0.0
  0
VERTEX
  5
21DB
  8
SAPA_PROFIL
 62
     4
 10
-79.099999828059339
 20
33.199999995406507
 30
0.0
 42
-0.592337729603611
  0
VERTEX
  5
21DC
  8
SAPA_PROFIL
 62
     4
 10
-79.352849910663593
 20
33.661452266148082
 30
0.0
  0
VERTEX
  5
21DD
  8
SAPA_PROFIL
 62
     4
 10
-78.075790642366741
 20
35.36145226614881
 30
0.0
 42
-0.2560149538738706
  0
VERTEX
  5
21DE
  8
SAPA_PROFIL
 62
     4
 10
-77.822940559761577
 20
35.499999995409418
 30
0.0
  0
VERTEX
  5
21DF
  8
SAPA_PROFIL
 62
     4
 10
-77.599999828058998
 20
35.499999995409418
 30
0.0
 42
-0.4142135623733169
  0
VERTEX
  5
21E0
  8
SAPA_PROFIL
 62
     4
 10
-77.299999828059725
 20
35.199999995410153
 30
0.0
  0
VERTEX
  5
21E1
  8
SAPA_PROFIL
 62
     4
 10
-77.299999828059725
 20
31.299999995406878
 30
0.0
 42
0.414213562373539
  0
VERTEX
  5
21E2
  8
SAPA_PROFIL
 62
     4
 10
-76.999999828059771
 20
30.999999995407599
 30
0.0
  0
VERTEX
  5
21E3
  8
SAPA_PROFIL
 62
     4
 10
-65.999999828059543
 20
30.999999995409421
 30
0.0
 42
0.414213562373539
  0
VERTEX
  5
21E4
  8
SAPA_PROFIL
 62
     4
 10
-65.699999828059589
 20
31.29999999540869
 30
0.0
  0
VERTEX
  5
21E5
  8
SAPA_PROFIL
 62
     4
 10
-65.699999828059589
 20
35.199999995410153
 30
0.0
 42
-0.4142135623730951
  0
VERTEX
  5
21E6
  8
SAPA_PROFIL
 62
     4
 10
-65.399999828060317
 20
35.499999995409418
 30
0.0
  0
VERTEX
  5
21E7
  8
SAPA_PROFIL
 62
     4
 10
-65.177059096357738
 20
35.499999995409418
 30
0.0
 42
-0.2560149538738705
  0
VERTEX
  5
21E8
  8
SAPA_PROFIL
 62
     4
 10
-64.924209013752574
 20
35.36145226614881
 30
0.0
  0
VERTEX
  5
21E9
  8
SAPA_PROFIL
 62
     4
 10
-63.647149745455721
 20
33.661452266148082
 30
0.0
 42
-0.592337729603611
  0
VERTEX
  5
21EA
  8
SAPA_PROFIL
 62
     4
 10
-63.899999828059968
 20
33.199999995406507
 30
0.0
  0
VERTEX
  5
21EB
  8
SAPA_PROFIL
 62
     4
 10
-64.199999828059589
 20
33.199999995408326
 30
0.0
 42
0.4142135623735391
  0
VERTEX
  5
21EC
  8
SAPA_PROFIL
 62
     4
 10
-64.499999828059316
 20
32.899999995409047
 30
0.0
  0
VERTEX
  5
21ED
  8
SAPA_PROFIL
 62
     4
 10
-64.499999828059771
 20
31.29999999540869
 30
0.0
 42
0.414213562373539
  0
VERTEX
  5
21EE
  8
SAPA_PROFIL
 62
     4
 10
-64.199999828059816
 20
30.999999995409421
 30
0.0
  0
VERTEX
  5
21EF
  8
SAPA_PROFIL
 62
     4
 10
-45.999999828059877
 20
30.999999995413049
 30
0.0
 42
-0.414213562373126
  0
VERTEX
  5
21F0
  8
SAPA_PROFIL
 62
     4
 10
-45.499999828059877
 20
30.499999995413049
 30
0.0
  0
VERTEX
  5
21F1
  8
SAPA_PROFIL
 62
     4
 10
-45.499999828059892
 20
11.49999999541123
 30
0.0
 42
-0.4142135623730951
  0
SEQEND
  5
21F2
  8
SAPA_PROFIL
 62
     4
  0
POLYLINE
  5
1792
  8
SAPA_PROFIL
 66
     1
 10
0.0
 20
0.0
 30
0.0
 70
     1
  0
VERTEX
  5
21F3
  8
SAPA_PROFIL
 10
0.6060446906867583
 20
96.499999999825775
 30
0.0
  0
VERTEX
  5
21F4
  8
SAPA_PROFIL
 10
0.3635007528396272
 20
96.499999999825775
 30
0.0
 42
0.2011813370902256
  0
VERTEX
  5
21F5
  8
SAPA_PROFIL
 10
0.2208506630090596
 20
96.440181852685726
 30
0.0
  0
VERTEX
  5
21F6
  8
SAPA_PROFIL
 10
-0.6898614300148438
 20
95.513434493956026
 30
0.0
  0
VERTEX
  5
21F7
  8
SAPA_PROFIL
 10
-0.676653887271641
 20
93.999999999823956
 30
0.0
 42
-0.4931454260356012
  0
VERTEX
  5
21F8
  8
SAPA_PROFIL
 10
-0.4558269982239836
 20
92.428735039586115
 30
0.0
  0
VERTEX
  5
21F9
  8
SAPA_PROFIL
 10
-1.505003570836777
 20
91.361085202761785
 30
0.0
 42
-0.6681786379164681
  0
VERTEX
  5
21FA
  8
SAPA_PROFIL
 10
-1.8549038283217101
 20
91.502454083215468
 30
0.0
  0
VERTEX
  5
21FB
  8
SAPA_PROFIL
 10
-1.8941533169190159
 20
95.999999999825775
 30
0.0
  0
VERTEX
  5
21FC
  8
SAPA_PROFIL
 10
0.1833599423107444
 20
98.114092851415478
 30
0.0
 42
0.2038501166358263
  0
VERTEX
  5
21FD
  8
SAPA_PROFIL
 10
0.326542798916762
 20
98.478399630833295
 30
0.0
  0
VERTEX
  5
21FE
  8
SAPA_PROFIL
 10
-0.0920833103721179
 20
113.5831128834277
 30
0.0
 42
0.4061212134736873
  0
VERTEX
  5
21FF
  8
SAPA_PROFIL
 10
-3.0909317974715691
 20
116.49999999981929
 30
0.0
  0
VERTEX
  5
2200
  8
SAPA_PROFIL
 10
-14.875123040939631
 20
116.49999999981929
 30
0.0
 42
0.4142135623730951
  0
VERTEX
  5
2201
  8
SAPA_PROFIL
 10
-15.375123040939631
 20
115.99999999981929
 30
0.0
  0
VERTEX
  5
2202
  8
SAPA_PROFIL
 10
-15.375123040939631
 20
104.41421356219421
 30
0.0
 42
0.198912367379658
  0
VERTEX
  5
2203
  8
SAPA_PROFIL
 10
-15.08222982212618
 20
103.7071067810076
 30
0.0
  0
VERTEX
  5
2204
  8
SAPA_PROFIL
 10
-14.70163104873569
 20
103.32650800761709
 30
0.0
 42
-0.1830252782112529
  0
VERTEX
  5
2205
  8
SAPA_PROFIL
 10
-14.119602506988089
 20
102.0348401988858
 30
0.0
  0
VERTEX
  5
2206
  8
SAPA_PROFIL
 10
-13.39653777965753
 20
91.601768170079978
 30
0.0
 42
-0.668178637923616
  0
VERTEX
  5
2207
  8
SAPA_PROFIL
 10
-13.911688269446531
 20
91.388385850546399
 30
0.0
  0
VERTEX
  5
2208
  8
SAPA_PROFIL
 10
-15.911170384369081
 20
93.387867965468956
 30
0.0
 42
-0.7332303362588345
  0
VERTEX
  5
2209
  8
SAPA_PROFIL
 10
-15.646943896711891
 20
93.895442325728638
 30
0.0
  0
VERTEX
  5
220A
  8
SAPA_PROFIL
 10
-15.031132803313479
 20
93.786858214942583
 30
0.0
 42
0.4663076581593561
  0
VERTEX
  5
220B
  8
SAPA_PROFIL
 10
-14.679038350013281
 20
94.082300540846006
 30
0.0
  0
VERTEX
  5
220C
  8
SAPA_PROFIL
 10
-15.41019797189375
 20
101.8417776661983
 30
0.0
 42
0.183025278211264
  0
VERTEX
  5
220D
  8
SAPA_PROFIL
 10
-15.70121224276755
 20
102.487611570564
 30
0.0
  0
VERTEX
  5
220E
  8
SAPA_PROFIL
 10
-16.089336603312571
 20
102.87573593110891
 30
0.0
 42
-0.1989123673796518
  0
VERTEX
  5
220F
  8
SAPA_PROFIL
 10
-16.675123040939461
 20
104.289949493482
 30
0.0
  0
VERTEX
  5
2210
  8
SAPA_PROFIL
 10
-16.675123040939582
 20
115.6999999998348
 30
0.0
 42
0.4142135623732283
  0
VERTEX
  5
2211
  8
SAPA_PROFIL
 10
-17.175123040939809
 20
116.1999999998348
 30
0.0
  0
VERTEX
  5
2212
  8
SAPA_PROFIL
 10
-18.375123040939169
 20
116.19999999983381
 30
0.0
 42
-0.4142135623732062
  0
VERTEX
  5
2213
  8
SAPA_PROFIL
 10
-18.675123040939241
 20
116.4999999998338
 30
0.0
  0
VERTEX
  5
2214
  8
SAPA_PROFIL
 10
-18.675123040939582
 20
117.6999999998193
 30
0.0
 42
-0.4142135623716247
  0
VERTEX
  5
2215
  8
SAPA_PROFIL
 10
-18.375123040938259
 20
117.99999999981929
 30
0.0
  0
VERTEX
  5
2216
  8
SAPA_PROFIL
 10
1.601284701383747
 20
117.99999999983289
 30
0.0
 42
-0.4142135623732938
  0
VERTEX
  5
2217
  8
SAPA_PROFIL
 10
1.801284701383792
 20
117.79999999983291
 30
0.0
  0
VERTEX
  5
2218
  8
SAPA_PROFIL
 10
1.801284701383792
 20
96.204623886147104
 30
0.0
 42
-0.4210020197690384
  0
VERTEX
  5
2219
  8
SAPA_PROFIL
 10
1.6013381593397751
 20
95.999999999825775
 30
0.0
  0
VERTEX
  5
221A
  8
SAPA_PROFIL
 10
1.0133549961442441
 20
95.999999999819295
 30
0.0
  0
VERTEX
  5
221B
  8
SAPA_PROFIL
 10
1.0133549961442441
 20
96.299999999819306
 30
0.0
 42
0.41421356237322
  0
VERTEX
  5
221C
  8
SAPA_PROFIL
 10
0.8133549961441985
 20
96.499999999819181
 30
0.0
  0
VERTEX
  5
221D
  8
SAPA_PROFIL
 10
0.5961772306745843
 20
96.499999999819295
 30
0.0
  0
SEQEND
  5
221E
  8
SAPA_PROFIL
  0
CIRCLE
  5
1793
  8
SAPA_PROFIL
 62
     2
 10
-79.309290847032116
 20
114.6633409272397
 30
0.0
 40
0.8999999999999985
  0
POLYLINE
  5
1794
  8
SAPA_PROFIL
 62
     2
 66
     1
 10
0.0
 20
0.0
 30
0.0
  0
VERTEX
  5
221F
  8
SAPA_PROFIL
 62
     2
 10
-78.00128443545907
 20
116.06334092723959
 30
0.0
  0
VERTEX
  5
2220
  8
SAPA_PROFIL
 62
     2
 10
-79.092203245611813
 20
115.87098250724721
 30
0.0
  0
VERTEX
  5
2221
  8
SAPA_PROFIL
 62
     2
 10
-79.207902785131751
 20
116.3027790671489
 30
0.0
 42
0.4430158954262519
  0
VERTEX
  5
2222
  8
SAPA_PROFIL
 62
     2
 10
-79.471379213238706
 20
116.438256114693
 30
0.0
  0
VERTEX
  5
2223
  8
SAPA_PROFIL
 62
     2
 10
-80.741866961156916
 20
115.961307921474
 30
0.0
 42
0.3125358528825162
  0
VERTEX
  5
2224
  8
SAPA_PROFIL
 62
     2
 10
-81.001284435458615
 20
115.5868262083446
 30
0.0
  0
VERTEX
  5
2225
  8
SAPA_PROFIL
 62
     2
 10
-81.00128443545907
 20
113.71667089243429
 30
0.0
 42
0.3125358528825104
  0
VERTEX
  5
2226
  8
SAPA_PROFIL
 62
     2
 10
-80.741866961156916
 20
113.3421891793049
 30
0.0
  0
VERTEX
  5
2227
  8
SAPA_PROFIL
 62
     2
 10
-79.471379213238706
 20
112.86524098608569
 30
0.0
 42
0.4430158954262519
  0
VERTEX
  5
2228
  8
SAPA_PROFIL
 62
     2
 10
-79.207902785131864
 20
113.00071803362979
 30
0.0
  0
VERTEX
  5
2229
  8
SAPA_PROFIL
 62
     2
 10
-79.092203245611813
 20
113.43251459353159
 30
0.0
  0
VERTEX
  5
222A
  8
SAPA_PROFIL
 62
     2
 10
-78.00128443545907
 20
113.2402485503894
 30
0.0
  0
SEQEND
  5
222B
  8
SAPA_PROFIL
 62
     2
  0
POLYLINE
  5
1795
  8
SAPA_PROFIL
 62
     2
 66
     1
 10
0.0
 20
0.0
 30
0.0
 70
     1
  0
VERTEX
  5
222C
  8
SAPA_PROFIL
 62
     2
 10
-78.00128443545907
 20
116.05174855038931
 30
0.0
 42
-0.285714285714282
  0
VERTEX
  5
222D
  8
SAPA_PROFIL
 62
     2
 10
-78.00128443545907
 20
113.25174855038929
 30
0.0
  0
VERTEX
  5
222E
  8
SAPA_PROFIL
 62
     2
 10
-78.001284435458615
 20
111.17796838100151
 30
0.0
 42
0.3882600129940275
  0
VERTEX
  5
222F
  8
SAPA_PROFIL
 62
     2
 10
-77.728073709179057
 20
110.8791668836601
 30
0.0
  0
VERTEX
  5
2230
  8
SAPA_PROFIL
 62
     2
 10
-73.828073709178966
 20
110.41295695973361
 30
0.0
 42
0.4406523138893894
  0
VERTEX
  5
2231
  8
SAPA_PROFIL
 62
     2
 10
-73.50128443545907
 20
110.7117584570754
 30
0.0
  0
VERTEX
  5
2232
  8
SAPA_PROFIL
 62
     2
 10
-73.50128443545907
 20
112.42155045399581
 30
0.0
 42
0.3394542588634375
  0
VERTEX
  5
2233
  8
SAPA_PROFIL
 62
     2
 10
-73.723638721928054
 20
112.7113282018823
 30
0.0
  0
VERTEX
  5
2234
  8
SAPA_PROFIL
 62
     2
 10
-73.941224504095644
 20
112.9137079298137
 30
0.0
 42
-0.3394542588633663
  0
VERTEX
  5
2235
  8
SAPA_PROFIL
 62
     2
 10
-74.163578790564657
 20
113.2034856777005
 30
0.0
  0
VERTEX
  5
2236
  8
SAPA_PROFIL
 62
     2
 10
-74.163578790564657
 20
116.1000114230784
 30
0.0
 42
-0.3394542588634373
  0
VERTEX
  5
2237
  8
SAPA_PROFIL
 62
     2
 10
-73.941224504095644
 20
116.3897891709649
 30
0.0
  0
VERTEX
  5
2238
  8
SAPA_PROFIL
 62
     2
 10
-73.723638721928054
 20
116.5921688988964
 30
0.0
 42
0.3394542588633662
  0
VERTEX
  5
2239
  8
SAPA_PROFIL
 62
     2
 10
-73.50128443545907
 20
116.88194664678311
 30
0.0
  0
VERTEX
  5
223A
  8
SAPA_PROFIL
 62
     2
 10
-73.50128443545907
 20
118.5917386437032
 30
0.0
 42
0.4406523138893994
  0
VERTEX
  5
223B
  8
SAPA_PROFIL
 62
     2
 10
-73.828073709178966
 20
118.8905401410448
 30
0.0
  0
VERTEX
  5
223C
  8
SAPA_PROFIL
 62
     2
 10
-77.728073709179057
 20
118.42433021711859
 30
0.0
 42
0.3882600129940462
  0
VERTEX
  5
223D
  8
SAPA_PROFIL
 62
     2
 10
-78.00128443545907
 20
118.12552871977719
 30
0.0
  0
VERTEX
  5
223E
  8
SAPA_PROFIL
 62
     2
 10
-78.00128443545907
 20
116.06334092723959
 30
0.0
  0
SEQEND
  5
223F
  8
SAPA_PROFIL
 62
     2
  0
POLYLINE
  5
1796
  8
SAPA_PROFIL
 66
     1
 10
0.0
 20
0.0
 30
0.0
 70
     1
  0
VERTEX
  5
2240
  8
SAPA_PROFIL
 10
-21.228798409927659
 20
70.488496764489625
 30
0.0
  0
VERTEX
  5
2241
  8
SAPA_PROFIL
 10
-20.944116126696009
 20
70.640630675598402
 30
0.0
 42
-0.5773502691897463
  0
VERTEX
  5
2242
  8
SAPA_PROFIL
 10
-20.649959826441201
 20
70.457676935488209
 30
0.0
  0
VERTEX
  5
2243
  8
SAPA_PROFIL
 10
-20.66052119266816
 20
70.135919207269964
 30
0.0
  0
VERTEX
  5
2244
  8
SAPA_PROFIL
 10
-18.774677500807108
 20
69.051354760298224
 30
0.0
  0
VERTEX
  5
2245
  8
SAPA_PROFIL
 10
-18.583294500813381
 20
68.993281123309146
 30
0.0
 42
0.7625858545243257
  0
VERTEX
  5
2246
  8
SAPA_PROFIL
 10
-18.398715298615919
 20
69.323607204326137
 30
0.0
 42
-0.2134217652834389
  0
VERTEX
  5
2247
  8
SAPA_PROFIL
 10
-18.498715298616041
 20
69.547214002076259
 30
0.0
  0
VERTEX
  5
2248
  8
SAPA_PROFIL
 10
-18.498715298616041
 20
73.400000002076226
 30
0.0
 42
0.4142139999998963
  0
VERTEX
  5
2249
  8
SAPA_PROFIL
 10
-18.798715298616081
 20
73.700000002076251
 30
0.0
  0
VERTEX
  5
224A
  8
SAPA_PROFIL
 10
-19.098715298616028
 20
73.700000002076251
 30
0.0
  0
VERTEX
  5
224B
  8
SAPA_PROFIL
 10
-20.698715298616019
 20
72.776240002076193
 30
0.0
 42
-0.5773500000002674
  0
VERTEX
  5
224C
  8
SAPA_PROFIL
 10
-20.998715298616069
 20
72.949445002076288
 30
0.0
  0
VERTEX
  5
224D
  8
SAPA_PROFIL
 10
-20.998715298616069
 20
74.335086002076252
 30
0.0
 42
-0.267949000000023
  0
VERTEX
  5
224E
  8
SAPA_PROFIL
 10
-20.498715298616069
 20
75.201111002076274
 30
0.0
  0
VERTEX
  5
224F
  8
SAPA_PROFIL
 10
-18.748715298616041
 20
76.211474002076272
 30
0.0
 42
0.2679489999999919
  0
VERTEX
  5
2250
  8
SAPA_PROFIL
 10
-18.498715298616041
 20
76.644487002076275
 30
0.0
  0
VERTEX
  5
2251
  8
SAPA_PROFIL
 10
-18.49871529861603
 20
86.655514002076245
 30
0.0
 42
0.2679490000000193
  0
VERTEX
  5
2252
  8
SAPA_PROFIL
 10
-18.748715298616041
 20
87.088527002076276
 30
0.0
  0
VERTEX
  5
2253
  8
SAPA_PROFIL
 10
-20.498715298616052
 20
88.098890002076246
 30
0.0
 42
-0.2679490000000211
  0
VERTEX
  5
2254
  8
SAPA_PROFIL
 10
-20.998715298616059
 20
88.964915002076296
 30
0.0
  0
VERTEX
  5
2255
  8
SAPA_PROFIL
 10
-20.998715298616059
 20
90.350556002076246
 30
0.0
 42
-0.5773499999999721
  0
VERTEX
  5
2256
  8
SAPA_PROFIL
 10
-20.698715298616051
 20
90.523761002076242
 30
0.0
  0
VERTEX
  5
2257
  8
SAPA_PROFIL
 10
-19.098715298616028
 20
89.600000002076285
 30
0.0
  0
VERTEX
  5
2258
  8
SAPA_PROFIL
 10
-18.798715298616081
 20
89.600000002076285
 30
0.0
 42
0.4142139999999657
  0
VERTEX
  5
2259
  8
SAPA_PROFIL
 10
-18.49871529861603
 20
89.90000000207624
 30
0.0
  0
VERTEX
  5
225A
  8
SAPA_PROFIL
 10
-18.498715298616151
 20
93.752787002076275
 30
0.0
 42
-0.2134217652834387
  0
VERTEX
  5
225B
  8
SAPA_PROFIL
 10
-18.398715298616011
 20
93.976393799826397
 30
0.0
 42
0.7625858545243244
  0
VERTEX
  5
225C
  8
SAPA_PROFIL
 10
-18.583294500813491
 20
94.306719880843389
 30
0.0
  0
VERTEX
  5
225D
  8
SAPA_PROFIL
 10
-18.774677500807211
 20
94.248646243854296
 30
0.0
  0
VERTEX
  5
225E
  8
SAPA_PROFIL
 10
-20.66052119266827
 20
93.164081796882556
 30
0.0
  0
VERTEX
  5
225F
  8
SAPA_PROFIL
 10
-20.64995982644129
 20
92.842324068664269
 30
0.0
 42
-0.5773502691897466
  0
VERTEX
  5
2260
  8
SAPA_PROFIL
 10
-20.94411612669613
 20
92.659370328554132
 30
0.0
  0
VERTEX
  5
2261
  8
SAPA_PROFIL
 10
-21.228798409927791
 20
92.811504239662895
 30
0.0
 42
-0.2216946626430191
  0
VERTEX
  5
2262
  8
SAPA_PROFIL
 10
-21.634607315082562
 20
93.352384071139667
 30
0.0
  0
VERTEX
  5
2263
  8
SAPA_PROFIL
 10
-22.016053911210282
 20
95.165614541797936
 30
0.0
 42
-0.4769755326981641
  0
VERTEX
  5
2264
  8
SAPA_PROFIL
 10
-21.71380108670381
 20
95.537271416743806
 30
0.0
  0
VERTEX
  5
2265
  8
SAPA_PROFIL
 10
-20.210700005941799
 20
95.537187808860153
 30
0.0
  0
VERTEX
  5
2266
  8
SAPA_PROFIL
 10
-20.1961815966947
 20
95.489342058861666
 30
0.0
 42
0.4142135623730953
  0
VERTEX
  5
2267
  8
SAPA_PROFIL
 10
-19.821996641218892
 20
95.28937801435427
 30
0.0
  0
VERTEX
  5
2268
  8
SAPA_PROFIL
 10
-18.50088122378472
 20
95.800000002076274
 30
0.0
  0
VERTEX
  5
2269
  8
SAPA_PROFIL
 10
-18.49871529861603
 20
95.800000002076274
 30
0.0
  0
VERTEX
  5
226A
  8
SAPA_PROFIL
 10
-15.50623029861603
 20
95.800000002076274
 30
0.0
 42
-0.2596809999999277
  0
VERTEX
  5
226B
  8
SAPA_PROFIL
 10
-15.33619929861605
 20
95.705307002076253
 30
0.0
  0
VERTEX
  5
226C
  8
SAPA_PROFIL
 10
-14.543668298616041
 20
94.457961002076274
 30
0.0
 42
-0.5877030000000004
  0
VERTEX
  5
226D
  8
SAPA_PROFIL
 10
-14.79871529861607
 20
94.000000002076263
 30
0.0
  0
VERTEX
  5
226E
  8
SAPA_PROFIL
 10
-16.198715298616051
 20
94.000000002076263
 30
0.0
 42
0.4142135623731089
  0
VERTEX
  5
226F
  8
SAPA_PROFIL
 10
-16.49871529861603
 20
93.700000002076251
 30
0.0
  0
VERTEX
  5
2270
  8
SAPA_PROFIL
 10
-16.498715298616041
 20
91.300000002076274
 30
0.0
 42
0.4142135623731088
  0
VERTEX
  5
2271
  8
SAPA_PROFIL
 10
-16.198715298616051
 20
91.000000002076277
 30
0.0
  0
VERTEX
  5
2272
  8
SAPA_PROFIL
 10
-10.3987152986161
 20
91.000000002076277
 30
0.0
  0
VERTEX
  5
2273
  8
SAPA_PROFIL
 10
-8.3987152986161
 20
91.000000002076277
 30
0.0
  0
VERTEX
  5
2274
  8
SAPA_PROFIL
 10
1.201284701383931
 20
91.000000002076249
 30
0.0
 42
0.4142139999999172
  0
VERTEX
  5
2275
  8
SAPA_PROFIL
 10
1.5012847013839281
 20
91.30000000207626
 30
0.0
  0
VERTEX
  5
2276
  8
SAPA_PROFIL
 10
1.5012847013839281
 20
93.700000002076223
 30
0.0
 42
0.4142139999999103
  0
VERTEX
  5
2277
  8
SAPA_PROFIL
 10
1.201284701383931
 20
94.000000002076234
 30
0.0
  0
VERTEX
  5
2278
  8
SAPA_PROFIL
 10
-0.1987152986160527
 20
94.000000002076263
 30
0.0
 42
-0.5877030000000132
  0
VERTEX
  5
2279
  8
SAPA_PROFIL
 10
-0.4537612986160529
 20
94.457961002076274
 30
0.0
  0
VERTEX
  5
227A
  8
SAPA_PROFIL
 10
0.4426377013839585
 20
95.905307002076214
 30
0.0
 42
-0.259681000000005
  0
VERTEX
  5
227B
  8
SAPA_PROFIL
 10
0.6126687013839174
 20
96.000000002076249
 30
0.0
  0
VERTEX
  5
227C
  8
SAPA_PROFIL
 10
3.2333357013839641
 20
96.00000000207622
 30
0.0
 42
-0.1316520000000017
  0
VERTEX
  5
227D
  8
SAPA_PROFIL
 10
3.7333357013839712
 20
95.866026002076225
 30
0.0
  0
VERTEX
  5
227E
  8
SAPA_PROFIL
 10
11.50128470138397
 20
91.381198002076246
 30
0.0
 42
-0.267948999999994
  0
VERTEX
  5
227F
  8
SAPA_PROFIL
 10
13.00128470138395
 20
88.78312200207624
 30
0.0
  0
VERTEX
  5
2280
  8
SAPA_PROFIL
 10
13.00128470138392
 20
50.500000002076227
 30
0.0
 42
-0.4142140000000114
  0
VERTEX
  5
2281
  8
SAPA_PROFIL
 10
10.001284701383939
 20
47.500000002076227
 30
0.0
  0
VERTEX
  5
2282
  8
SAPA_PROFIL
 10
9.5012847013839448
 20
47.500000002076149
 30
0.0
 42
-0.4241420000000259
  0
VERTEX
  5
2283
  8
SAPA_PROFIL
 10
8.5018557013839722
 20
48.533773002076252
 30
0.0
 42
-0.2988660000000032
  0
VERTEX
  5
2284
  8
SAPA_PROFIL
 10
9.072713701383968
 20
49.471053002076189
 30
0.0
 42
-0.55075999999996
  0
VERTEX
  5
2285
  8
SAPA_PROFIL
 10
9.5012847013839448
 20
49.200000002076237
 30
0.0
  0
VERTEX
  5
2286
  8
SAPA_PROFIL
 10
9.5012847013839448
 20
48.900000002076219
 30
0.0
 42
0.4142139999998339
  0
VERTEX
  5
2287
  8
SAPA_PROFIL
 10
9.7012847013839192
 20
48.700000002076237
 30
0.0
  0
VERTEX
  5
2288
  8
SAPA_PROFIL
 10
10.00128470138395
 20
48.700000002076237
 30
0.0
 42
0.4142139999999946
  0
VERTEX
  5
2289
  8
SAPA_PROFIL
 10
11.801284701383951
 20
50.500000002076227
 30
0.0
  0
VERTEX
  5
228A
  8
SAPA_PROFIL
 10
11.80128470138396
 20
51.200000002076237
 30
0.0
 42
0.4142139999999852
  0
VERTEX
  5
228B
  8
SAPA_PROFIL
 10
10.00128470138395
 20
53.000000002076227
 30
0.0
  0
VERTEX
  5
228C
  8
SAPA_PROFIL
 10
9.7012847013839192
 20
53.000000002076227
 30
0.0
 42
0.4142139999998025
  0
VERTEX
  5
228D
  8
SAPA_PROFIL
 10
9.5012847013839465
 20
52.800000002076253
 30
0.0
  0
VERTEX
  5
228E
  8
SAPA_PROFIL
 10
9.5012847013839323
 20
52.500000002076241
 30
0.0
 42
-0.5507599999999105
  0
VERTEX
  5
228F
  8
SAPA_PROFIL
 10
9.0727137013839201
 20
52.22894800207618
 30
0.0
 42
-0.2988660000000063
  0
VERTEX
  5
2290
  8
SAPA_PROFIL
 10
8.5018557013838905
 20
53.166228002076217
 30
0.0
 42
-0.4241419999999882
  0
VERTEX
  5
2291
  8
SAPA_PROFIL
 10
9.5012847013839465
 20
54.200000002076237
 30
0.0
  0
VERTEX
  5
2292
  8
SAPA_PROFIL
 10
10.801284701383951
 20
54.200000002076237
 30
0.0
 42
0.4142140000000128
  0
VERTEX
  5
2293
  8
SAPA_PROFIL
 10
11.80128470138396
 20
55.20000000207623
 30
0.0
  0
VERTEX
  5
2294
  8
SAPA_PROFIL
 10
11.027694701383931
 20
69.027929002076277
 30
0.0
 42
0.3979379999999925
  0
VERTEX
  5
2295
  8
SAPA_PROFIL
 10
10.52847570138395
 20
69.500000002076249
 30
0.0
  0
VERTEX
  5
2296
  8
SAPA_PROFIL
 10
6.0012847013839501
 20
69.500000002076249
 30
0.0
 42
0.4142140000000251
  0
VERTEX
  5
2297
  8
SAPA_PROFIL
 10
5.5012847013839501
 20
69.000000002076249
 30
0.0
  0
VERTEX
  5
2298
  8
SAPA_PROFIL
 10
5.5012847013839501
 20
65.500000002076234
 30
0.0
 42
-0.4142140000000128
  0
VERTEX
  5
2299
  8
SAPA_PROFIL
 10
5.0012847013839501
 20
65.000000002076249
 30
0.0
  0
VERTEX
  5
229A
  8
SAPA_PROFIL
 10
1.301284701383933
 20
65.000000002076234
 30
0.0
 42
-0.4142139999999104
  0
VERTEX
  5
229B
  8
SAPA_PROFIL
 10
1.0012847013839281
 20
65.30000000207626
 30
0.0
  0
VERTEX
  5
229C
  8
SAPA_PROFIL
 10
1.0012847013839281
 20
66.200000002076237
 30
0.0
 42
-0.4142139999999101
  0
VERTEX
  5
229D
  8
SAPA_PROFIL
 10
1.301284701383933
 20
66.500000002076249
 30
0.0
  0
VERTEX
  5
229E
  8
SAPA_PROFIL
 10
3.301284701383961
 20
66.500000002076249
 30
0.0
 42
0.4142139999999691
  0
VERTEX
  5
229F
  8
SAPA_PROFIL
 10
3.5012847013839501
 20
66.700000002076237
 30
0.0
  0
VERTEX
  5
22A0
  8
SAPA_PROFIL
 10
3.501284701383951
 20
69.500000002076249
 30
0.0
 42
0.577350269189605
  0
VERTEX
  5
22A1
  8
SAPA_PROFIL
 10
3.2012847013839472
 20
69.673205082833121
 30
0.0
  0
VERTEX
  5
22A2
  8
SAPA_PROFIL
 10
2.9012847013839429
 20
69.500000002076249
 30
0.0
  0
VERTEX
  5
22A3
  8
SAPA_PROFIL
 10
-0.8937152986160796
 20
69.500000002076192
 30
0.0
 42
-0.414213999999992
  0
VERTEX
  5
22A4
  8
SAPA_PROFIL
 10
-1.393715298616079
 20
70.000000002076249
 30
0.0
  0
VERTEX
  5
22A5
  8
SAPA_PROFIL
 10
-1.393715298616079
 20
70.700000002076237
 30
0.0
 42
0.4142139999998548
  0
VERTEX
  5
22A6
  8
SAPA_PROFIL
 10
-1.6937152986160271
 20
71.000000002076249
 30
0.0
  0
VERTEX
  5
22A7
  8
SAPA_PROFIL
 10
-6.874099298616037
 20
71.000000002076263
 30
0.0
  0
VERTEX
  5
22A8
  8
SAPA_PROFIL
 10
-7.3937152986160788
 20
71.300000002076274
 30
0.0
  0
VERTEX
  5
22A9
  8
SAPA_PROFIL
 10
-7.9133302986160521
 20
71.000000002076263
 30
0.0
  0
VERTEX
  5
22AA
  8
SAPA_PROFIL
 10
-13.09371529861607
 20
71.000000002076263
 30
0.0
 42
0.4142140000000351
  0
VERTEX
  5
22AB
  8
SAPA_PROFIL
 10
-13.39371529861608
 20
70.700000002076251
 30
0.0
  0
VERTEX
  5
22AC
  8
SAPA_PROFIL
 10
-13.393715298616019
 20
70.000000002076263
 30
0.0
 42
-0.4142140000000461
  0
VERTEX
  5
22AD
  8
SAPA_PROFIL
 10
-13.89371529861608
 20
69.500000002076263
 30
0.0
  0
VERTEX
  5
22AE
  8
SAPA_PROFIL
 10
-15.89871529861607
 20
69.500000002076263
 30
0.0
  0
VERTEX
  5
22AF
  8
SAPA_PROFIL
 10
-16.198715298616062
 20
69.673205082833135
 30
0.0
 42
0.5773502691896303
  0
VERTEX
  5
22B0
  8
SAPA_PROFIL
 10
-16.498715298616041
 20
69.500000002076263
 30
0.0
  0
VERTEX
  5
22B1
  8
SAPA_PROFIL
 10
-16.498715298616041
 20
66.700000002076251
 30
0.0
 42
0.414213999999813
  0
VERTEX
  5
22B2
  8
SAPA_PROFIL
 10
-16.298715298616081
 20
66.500000002076263
 30
0.0
  0
VERTEX
  5
22B3
  8
SAPA_PROFIL
 10
-14.298715298616081
 20
66.500000002076291
 30
0.0
 42
-0.4142139999998962
  0
VERTEX
  5
22B4
  8
SAPA_PROFIL
 10
-13.998715298616039
 20
66.200000002076251
 30
0.0
  0
VERTEX
  5
22B5
  8
SAPA_PROFIL
 10
-13.998715298616091
 20
65.300000002076274
 30
0.0
 42
-0.4142139999999103
  0
VERTEX
  5
22B6
  8
SAPA_PROFIL
 10
-14.298715298616081
 20
65.000000002076263
 30
0.0
  0
VERTEX
  5
22B7
  8
SAPA_PROFIL
 10
-17.998715298616041
 20
65.000000002076263
 30
0.0
 42
-0.414214000000021
  0
VERTEX
  5
22B8
  8
SAPA_PROFIL
 10
-18.498715298616041
 20
65.500000002076263
 30
0.0
  0
VERTEX
  5
22B9
  8
SAPA_PROFIL
 10
-18.498715298616041
 20
67.200000002076251
 30
0.0
 42
0.4142135623730951
  0
VERTEX
  5
22BA
  8
SAPA_PROFIL
 10
-18.798715298616049
 20
67.500000002076263
 30
0.0
  0
VERTEX
  5
22BB
  8
SAPA_PROFIL
 10
-19.821996641218782
 20
68.01062298979825
 30
0.0
 42
0.4142135623730953
  0
VERTEX
  5
22BC
  8
SAPA_PROFIL
 10
-20.19618159669459
 20
67.810658945290854
 30
0.0
  0
VERTEX
  5
22BD
  8
SAPA_PROFIL
 10
-20.210700005941689
 20
67.762813195292367
 30
0.0
  0
VERTEX
  5
22BE
  8
SAPA_PROFIL
 10
-21.713801086703711
 20
67.762729587408714
 30
0.0
 42
-0.4769755326981643
  0
VERTEX
  5
22BF
  8
SAPA_PROFIL
 10
-22.016053911210172
 20
68.134386462354584
 30
0.0
  0
VERTEX
  5
22C0
  8
SAPA_PROFIL
 10
-21.634607315082469
 20
69.947616933012839
 30
0.0
 42
-0.2216946626430193
  0
SEQEND
  5
22C1
  8
SAPA_PROFIL
  0
POLYLINE
  5
1797
  8
SAPA_PROFIL
 66
     1
 10
0.0
 20
0.0
 30
0.0
 70
     1
  0
VERTEX
  5
22C2
  8
SAPA_PROFIL
 10
1.8012847013839379
 20
87.400000002076226
 30
0.0
  0
VERTEX
  5
22C3
  8
SAPA_PROFIL
 10
1.8012847013839399
 20
89.000000002076234
 30
0.0
 42
0.414214000000042
  0
VERTEX
  5
22C4
  8
SAPA_PROFIL
 10
1.5012847013839281
 20
89.300000002076246
 30
0.0
  0
VERTEX
  5
22C5
  8
SAPA_PROFIL
 10
-16.498715298616041
 20
89.300000002076274
 30
0.0
 42
0.4142140000001599
  0
VERTEX
  5
22C6
  8
SAPA_PROFIL
 10
-16.798715298616081
 20
89.000000002076263
 30
0.0
  0
VERTEX
  5
22C7
  8
SAPA_PROFIL
 10
-16.798715298616081
 20
87.40000000207624
 30
0.0
 42
0.4142140000000628
  0
VERTEX
  5
22C8
  8
SAPA_PROFIL
 10
-16.598715298616039
 20
87.200000002076237
 30
0.0
  0
VERTEX
  5
22C9
  8
SAPA_PROFIL
 10
-16.498715298616041
 20
87.200000002076237
 30
0.0
 42
-0.4142139999998963
  0
VERTEX
  5
22CA
  8
SAPA_PROFIL
 10
-16.198715298616051
 20
86.900000002076226
 30
0.0
  0
VERTEX
  5
22CB
  8
SAPA_PROFIL
 10
-16.198715298616111
 20
85.500000002076263
 30
0.0
 42
-0.4142139999999518
  0
VERTEX
  5
22CC
  8
SAPA_PROFIL
 10
-16.498715298616041
 20
85.200000002076251
 30
0.0
  0
VERTEX
  5
22CD
  8
SAPA_PROFIL
 10
-16.598715298616039
 20
85.200000002076251
 30
0.0
 42
0.4142139999999794
  0
VERTEX
  5
22CE
  8
SAPA_PROFIL
 10
-16.798715298616081
 20
85.000000002076249
 30
0.0
  0
VERTEX
  5
22CF
  8
SAPA_PROFIL
 10
-16.798715298616081
 20
72.000000002076263
 30
0.0
 42
0.4142139999999962
  0
VERTEX
  5
22D0
  8
SAPA_PROFIL
 10
-16.298715298616081
 20
71.500000002076263
 30
0.0
  0
VERTEX
  5
22D1
  8
SAPA_PROFIL
 10
-15.59371529861607
 20
71.500000002076263
 30
0.0
 42
0.4142140000000128
  0
VERTEX
  5
22D2
  8
SAPA_PROFIL
 10
-15.09371529861607
 20
72.000000002076263
 30
0.0
  0
VERTEX
  5
22D3
  8
SAPA_PROFIL
 10
-15.09371529861607
 20
72.200000002076251
 30
0.0
 42
-0.4142140000000127
  0
VERTEX
  5
22D4
  8
SAPA_PROFIL
 10
-14.59371529861607
 20
72.700000002076251
 30
0.0
  0
VERTEX
  5
22D5
  8
SAPA_PROFIL
 10
-0.1937152986160342
 20
72.700000002076294
 30
0.0
 42
-0.4142139999999795
  0
VERTEX
  5
22D6
  8
SAPA_PROFIL
 10
0.3062847013839729
 20
72.200000002076223
 30
0.0
  0
VERTEX
  5
22D7
  8
SAPA_PROFIL
 10
0.3062847013839729
 20
71.500000002076249
 30
0.0
 42
0.4142140000000462
  0
VERTEX
  5
22D8
  8
SAPA_PROFIL
 10
0.8062847013839729
 20
71.000000002076249
 30
0.0
  0
VERTEX
  5
22D9
  8
SAPA_PROFIL
 10
10.50128470138395
 20
71.000000002076249
 30
0.0
 42
0.4142140000000128
  0
VERTEX
  5
22DA
  8
SAPA_PROFIL
 10
11.00128470138395
 20
71.500000002076249
 30
0.0
  0
VERTEX
  5
22DB
  8
SAPA_PROFIL
 10
11.00128470138395
 20
88.78312200207624
 30
0.0
 42
0.2679490000000162
  0
VERTEX
  5
22DC
  8
SAPA_PROFIL
 10
10.50128470138395
 20
89.649147002076276
 30
0.0
  0
VERTEX
  5
22DD
  8
SAPA_PROFIL
 10
3.7512847013839572
 20
93.546262002076261
 30
0.0
 42
0.5773500000000551
  0
VERTEX
  5
22DE
  8
SAPA_PROFIL
 10
3.3012847013839681
 20
93.286454002076255
 30
0.0
  0
VERTEX
  5
22DF
  8
SAPA_PROFIL
 10
3.301284701383945
 20
86.700000002076237
 30
0.0
 42
-0.4142140000000155
  0
VERTEX
  5
22E0
  8
SAPA_PROFIL
 10
1.8012847013839379
 20
85.200000002076223
 30
0.0
  0
VERTEX
  5
22E1
  8
SAPA_PROFIL
 10
1.6012847013839071
 20
85.200000002076223
 30
0.0
  0
VERTEX
  5
22E2
  8
SAPA_PROFIL
 10
1.501284701383927
 20
85.200000002076294
 30
0.0
 42
-0.4142140000000836
  0
VERTEX
  5
22E3
  8
SAPA_PROFIL
 10
1.201284701383929
 20
85.500000002076234
 30
0.0
  0
VERTEX
  5
22E4
  8
SAPA_PROFIL
 10
1.201284701383794
 20
86.900000002076226
 30
0.0
 42
-0.4142140000000351
  0
VERTEX
  5
22E5
  8
SAPA_PROFIL
 10
1.501284701383927
 20
87.200000002076237
 30
0.0
  0
VERTEX
  5
22E6
  8
SAPA_PROFIL
 10
1.6012847013839071
 20
87.200000002076237
 30
0.0
 42
0.4142139999998962
  0
SEQEND
  5
22E7
  8
SAPA_PROFIL
  0
POLYLINE
  5
1798
  8
SAPA_PROFIL
 66
     1
 10
0.0
 20
0.0
 30
0.0
 70
     1
  0
VERTEX
  5
22E8
  8
SAPA_PROFIL
 10
-60.598715298616142
 20
93.976394002078379
 30
0.0
 42
-0.2134220000000103
  0
VERTEX
  5
22E9
  8
SAPA_PROFIL
 10
-60.498715298616112
 20
93.752787002078406
 30
0.0
  0
VERTEX
  5
22EA
  8
SAPA_PROFIL
 10
-60.498715298616112
 20
89.900000002078386
 30
0.0
 42
0.414213999999924
  0
VERTEX
  5
22EB
  8
SAPA_PROFIL
 10
-60.198715298616158
 20
89.600000002078318
 30
0.0
  0
VERTEX
  5
22EC
  8
SAPA_PROFIL
 10
-59.898715298616153
 20
89.600000002078374
 30
0.0
  0
VERTEX
  5
22ED
  8
SAPA_PROFIL
 10
-58.298715298616131
 20
90.523761002078388
 30
0.0
 42
-0.5773500000001196
  0
VERTEX
  5
22EE
  8
SAPA_PROFIL
 10
-57.998715298616112
 20
90.350556002078378
 30
0.0
  0
VERTEX
  5
22EF
  8
SAPA_PROFIL
 10
-57.998715298616119
 20
88.964915002078371
 30
0.0
 42
-0.2679489999999719
  0
VERTEX
  5
22F0
  8
SAPA_PROFIL
 10
-58.498715298616119
 20
88.098890002078392
 30
0.0
  0
VERTEX
  5
22F1
  8
SAPA_PROFIL
 10
-60.248715298616133
 20
87.088527002078393
 30
0.0
 42
0.267949000000012
  0
VERTEX
  5
22F2
  8
SAPA_PROFIL
 10
-60.498715298616247
 20
86.655514002078391
 30
0.0
  0
VERTEX
  5
22F3
  8
SAPA_PROFIL
 10
-60.498715298616133
 20
76.644487002078378
 30
0.0
 42
0.2679490000000104
  0
VERTEX
  5
22F4
  8
SAPA_PROFIL
 10
-60.248715298616098
 20
76.211474002078447
 30
0.0
  0
VERTEX
  5
22F5
  8
SAPA_PROFIL
 10
-58.498715298616119
 20
75.201111002078378
 30
0.0
 42
-0.2679489999999809
  0
VERTEX
  5
22F6
  8
SAPA_PROFIL
 10
-57.998715298616119
 20
74.335086002078384
 30
0.0
  0
VERTEX
  5
22F7
  8
SAPA_PROFIL
 10
-57.998715298616119
 20
72.949445002078363
 30
0.0
 42
-0.5773500000001198
  0
VERTEX
  5
22F8
  8
SAPA_PROFIL
 10
-58.298715298616131
 20
72.776240002078382
 30
0.0
  0
VERTEX
  5
22F9
  8
SAPA_PROFIL
 10
-59.89871529861616
 20
73.700000002078397
 30
0.0
  0
VERTEX
  5
22FA
  8
SAPA_PROFIL
 10
-60.198715298616172
 20
73.700000002078397
 30
0.0
 42
0.4142139999999795
  0
VERTEX
  5
22FB
  8
SAPA_PROFIL
 10
-60.498715298616013
 20
73.400000002078386
 30
0.0
  0
VERTEX
  5
22FC
  8
SAPA_PROFIL
 10
-60.498715298616133
 20
69.547214002078405
 30
0.0
 42
-0.2134217652834391
  0
VERTEX
  5
22FD
  8
SAPA_PROFIL
 10
-60.598715298616249
 20
69.323607204328283
 30
0.0
 42
0.7625858545243247
  0
VERTEX
  5
22FE
  8
SAPA_PROFIL
 10
-60.41413609641878
 20
68.993281123311277
 30
0.0
  0
VERTEX
  5
22FF
  8
SAPA_PROFIL
 10
-60.222753096425059
 20
69.05135476030037
 30
0.0
  0
VERTEX
  5
2300
  8
SAPA_PROFIL
 10
-58.336909404563997
 20
70.13591920727211
 30
0.0
  0
VERTEX
  5
2301
  8
SAPA_PROFIL
 10
-58.347470770790977
 20
70.457676935490369
 30
0.0
 42
-0.5773502691897466
  0
VERTEX
  5
2302
  8
SAPA_PROFIL
 10
-58.053314470536137
 20
70.640630675600534
 30
0.0
  0
VERTEX
  5
2303
  8
SAPA_PROFIL
 10
-57.768632187304497
 20
70.488496764491785
 30
0.0
 42
-0.2216946626430194
  0
VERTEX
  5
2304
  8
SAPA_PROFIL
 10
-57.362823282149712
 20
69.947616933014984
 30
0.0
  0
VERTEX
  5
2305
  8
SAPA_PROFIL
 10
-56.981376686022003
 20
68.134386462356744
 30
0.0
 42
-0.4769755326981641
  0
VERTEX
  5
2306
  8
SAPA_PROFIL
 10
-57.283629510528471
 20
67.76272958741086
 30
0.0
  0
VERTEX
  5
2307
  8
SAPA_PROFIL
 10
-58.786730591290478
 20
67.762813195294513
 30
0.0
  0
VERTEX
  5
2308
  8
SAPA_PROFIL
 10
-58.801249000537581
 20
67.810658945293
 30
0.0
 42
0.4142135623730951
  0
VERTEX
  5
2309
  8
SAPA_PROFIL
 10
-59.175433956013393
 20
68.010622989800396
 30
0.0
  0
VERTEX
  5
230A
  8
SAPA_PROFIL
 10
-60.496551960714399
 20
67.500000002078451
 30
0.0
  0
VERTEX
  5
230B
  8
SAPA_PROFIL
 10
-61.736611298616168
 20
67.500000002078394
 30
0.0
 42
-0.2914730000000021
  0
VERTEX
  5
230C
  8
SAPA_PROFIL
 10
-62.642919298616128
 20
68.077382002078409
 30
0.0
  0
VERTEX
  5
230D
  8
SAPA_PROFIL
 10
-63.805023298616128
 20
70.569522002078429
 30
0.0
 42
-0.3888789999999682
  0
VERTEX
  5
230E
  8
SAPA_PROFIL
 10
-63.39871529861616
 20
71.858166002078406
 30
0.0
  0
VERTEX
  5
230F
  8
SAPA_PROFIL
 10
-63.248715298616133
 20
71.944769002078431
 30
0.0
 42
0.2679490000000116
  0
VERTEX
  5
2310
  8
SAPA_PROFIL
 10
-62.998715298616077
 20
72.377781002078379
 30
0.0
  0
VERTEX
  5
2311
  8
SAPA_PROFIL
 10
-62.998715298616119
 20
80.500000002078409
 30
0.0
 42
0.4142139999999962
  0
VERTEX
  5
2312
  8
SAPA_PROFIL
 10
-63.998715298616133
 20
81.50000000207848
 30
0.0
  0
VERTEX
  5
2313
  8
SAPA_PROFIL
 10
-65.348715298616156
 20
81.500000002078423
 30
0.0
 42
0.4142140000000128
  0
VERTEX
  5
2314
  8
SAPA_PROFIL
 10
-65.848715298616156
 20
81.000000002078423
 30
0.0
  0
VERTEX
  5
2315
  8
SAPA_PROFIL
 10
-65.848715298616156
 20
77.867767783264981
 30
0.0
 42
-0.198912367379658
  0
VERTEX
  5
2316
  8
SAPA_PROFIL
 10
-66.43450173624305
 20
76.453554220891874
 30
0.0
  0
VERTEX
  5
2317
  8
SAPA_PROFIL
 10
-69.167795351287623
 20
73.720260605847329
 30
0.0
 42
-1.000556671980007
  0
VERTEX
  5
2318
  8
SAPA_PROFIL
 10
-70.229045298616171
 20
74.780331002078412
 30
0.0
  0
VERTEX
  5
2319
  8
SAPA_PROFIL
 10
-67.595162298616145
 20
77.414214002078438
 30
0.0
 42
0.1989120000000246
  0
VERTEX
  5
231A
  8
SAPA_PROFIL
 10
-67.448715298616122
 20
77.767767002078415
 30
0.0
  0
VERTEX
  5
231B
  8
SAPA_PROFIL
 10
-67.448715298616179
 20
81.000000002078423
 30
0.0
 42
0.4142140000000129
  0
VERTEX
  5
231C
  8
SAPA_PROFIL
 10
-67.948715298616179
 20
81.500000002078423
 30
0.0
  0
VERTEX
  5
231D
  8
SAPA_PROFIL
 10
-74.948715298616179
 20
81.500000002078423
 30
0.0
 42
0.4142140000000128
  0
VERTEX
  5
231E
  8
SAPA_PROFIL
 10
-75.448715298616179
 20
81.000000002078423
 30
0.0
  0
VERTEX
  5
231F
  8
SAPA_PROFIL
 10
-75.448715298616122
 20
73.800000002078406
 30
0.0
 42
-0.4142140000000351
  0
VERTEX
  5
2320
  8
SAPA_PROFIL
 10
-75.748715298616133
 20
73.500000002078394
 30
0.0
  0
VERTEX
  5
2321
  8
SAPA_PROFIL
 10
-75.910938298616117
 20
73.500000002078423
 30
0.0
 42
-0.3482370000000729
  0
VERTEX
  5
2322
  8
SAPA_PROFIL
 10
-76.20301229861613
 20
73.731495002078404
 30
0.0
  0
VERTEX
  5
2323
  8
SAPA_PROFIL
 10
-77.048715298616088
 20
77.337170002078423
 30
0.0
  0
VERTEX
  5
2324
  8
SAPA_PROFIL
 10
-77.048715298616088
 20
81.000000002078423
 30
0.0
 42
0.4142139999999796
  0
VERTEX
  5
2325
  8
SAPA_PROFIL
 10
-77.548715298616088
 20
81.50000000207848
 30
0.0
  0
VERTEX
  5
2326
  8
SAPA_PROFIL
 10
-79.998715298616119
 20
81.500000002078423
 30
0.0
 42
0.414214000000017
  0
VERTEX
  5
2327
  8
SAPA_PROFIL
 10
-80.498715298616105
 20
81.000000002078423
 30
0.0
 42
-0.4142140000000127
  0
VERTEX
  5
2328
  8
SAPA_PROFIL
 10
-80.998715298616119
 20
80.500000002078437
 30
0.0
  0
VERTEX
  5
2329
  8
SAPA_PROFIL
 10
-81.998715298616119
 20
80.500000002078437
 30
0.0
 42
-0.414214000000017
  0
VERTEX
  5
232A
  8
SAPA_PROFIL
 10
-82.498715298616119
 20
81.000000002078423
 30
0.0
  0
VERTEX
  5
232B
  8
SAPA_PROFIL
 10
-82.498715298616119
 20
117.50000000207839
 30
0.0
  0
VERTEX
  5
232C
  8
SAPA_PROFIL
 10
-81.998715298616119
 20
118.00000000207839
 30
0.0
  0
VERTEX
  5
232D
  8
SAPA_PROFIL
 10
-78.298715298616074
 20
118.00000000207839
 30
0.0
 42
-0.4142139999999863
  0
VERTEX
  5
232E
  8
SAPA_PROFIL
 10
-77.998715298616105
 20
117.7000000020784
 30
0.0
  0
VERTEX
  5
232F
  8
SAPA_PROFIL
 10
-77.998715298616105
 20
116.9324560020784
 30
0.0
 42
-0.2896899999999678
  0
VERTEX
  5
2330
  8
SAPA_PROFIL
 10
-78.570144298616086
 20
116.02894800207839
 30
0.0
 42
-0.5507599999999711
  0
VERTEX
  5
2331
  8
SAPA_PROFIL
 10
-78.998715298616119
 20
116.30000000207841
 30
0.0
  0
VERTEX
  5
2332
  8
SAPA_PROFIL
 10
-78.998715298616119
 20
116.50000000207839
 30
0.0
 42
0.4142139999998755
  0
VERTEX
  5
2333
  8
SAPA_PROFIL
 10
-79.298715298616074
 20
116.80000000207841
 30
0.0
  0
VERTEX
  5
2334
  8
SAPA_PROFIL
 10
-80.798715298616074
 20
116.80000000207841
 30
0.0
 42
0.4142140000000503
  0
VERTEX
  5
2335
  8
SAPA_PROFIL
 10
-81.298715298616131
 20
116.30000000207841
 30
0.0
  0
VERTEX
  5
2336
  8
SAPA_PROFIL
 10
-81.298715298616074
 20
113.00000000207839
 30
0.0
 42
0.4142140000000419
  0
VERTEX
  5
2337
  8
SAPA_PROFIL
 10
-80.798715298616074
 20
112.50000000207839
 30
0.0
  0
VERTEX
  5
2338
  8
SAPA_PROFIL
 10
-79.298715298616074
 20
112.50000000207839
 30
0.0
 42
0.4142139999999794
  0
VERTEX
  5
2339
  8
SAPA_PROFIL
 10
-78.998715298616233
 20
112.80000000207841
 30
0.0
  0
VERTEX
  5
233A
  8
SAPA_PROFIL
 10
-78.998715298616119
 20
113.00000000207839
 30
0.0
 42
-0.5507599999999436
  0
VERTEX
  5
233B
  8
SAPA_PROFIL
 10
-78.570144298616086
 20
113.2710530020784
 30
0.0
 42
-0.2896899999999595
  0
VERTEX
  5
233C
  8
SAPA_PROFIL
 10
-77.998715298616105
 20
112.3675450020784
 30
0.0
  0
VERTEX
  5
233D
  8
SAPA_PROFIL
 10
-77.998715298616105
 20
111.3700730020784
 30
0.0
 42
-0.0436610000000022
  0
VERTEX
  5
233E
  8
SAPA_PROFIL
 10
-78.006311298616154
 20
111.28324900207841
 30
0.0
  0
VERTEX
  5
233F
  8
SAPA_PROFIL
 10
-78.283158298616129
 20
109.7131760020784
 30
0.0
 42
-0.8391000000000101
  0
VERTEX
  5
2340
  8
SAPA_PROFIL
 10
-79.267965298616105
 20
109.7131760020784
 30
0.0
  0
VERTEX
  5
2341
  8
SAPA_PROFIL
 10
-79.474911298616064
 20
110.8868250020784
 30
0.0
 42
0.3639700000000376
  0
VERTEX
  5
2342
  8
SAPA_PROFIL
 10
-79.967315298616157
 20
111.30000000207841
 30
0.0
  0
VERTEX
  5
2343
  8
SAPA_PROFIL
 10
-80.798715298616074
 20
111.30000000207841
 30
0.0
 42
0.437328000000032
  0
VERTEX
  5
2344
  8
SAPA_PROFIL
 10
-81.297185298616157
 20
110.7609060020783
 30
0.0
  0
VERTEX
  5
2345
  8
SAPA_PROFIL
 10
-80.710386298616143
 20
96.287847002078436
 30
0.0
 42
0.4023939999998692
  0
VERTEX
  5
2346
  8
SAPA_PROFIL
 10
-80.410632298616136
 20
96.000000002078309
 30
0.0
  0
VERTEX
  5
2347
  8
SAPA_PROFIL
 10
-79.610099298616106
 20
96.000000002078423
 30
0.0
 42
-0.259680999999983
  0
VERTEX
  5
2348
  8
SAPA_PROFIL
 10
-79.440068298616126
 20
95.905307002078416
 30
0.0
  0
VERTEX
  5
2349
  8
SAPA_PROFIL
 10
-78.543669298616081
 20
94.457961002078434
 30
0.0
 42
-0.5877029999999889
  0
VERTEX
  5
234A
  8
SAPA_PROFIL
 10
-78.798715298616074
 20
94.000000002078423
 30
0.0
  0
VERTEX
  5
234B
  8
SAPA_PROFIL
 10
-80.198715298616094
 20
94.000000002078423
 30
0.0
 42
0.4142140000000349
  0
VERTEX
  5
234C
  8
SAPA_PROFIL
 10
-80.498715298616005
 20
93.700000002078411
 30
0.0
  0
VERTEX
  5
234D
  8
SAPA_PROFIL
 10
-80.498715298616105
 20
91.300000002078434
 30
0.0
 42
0.4142140000000349
  0
VERTEX
  5
234E
  8
SAPA_PROFIL
 10
-80.198715298616094
 20
91.000000002078309
 30
0.0
  0
VERTEX
  5
234F
  8
SAPA_PROFIL
 10
-72.018331298616161
 20
91.000000002078394
 30
0.0
  0
VERTEX
  5
2350
  8
SAPA_PROFIL
 10
-71.498715298616119
 20
90.700000002078383
 30
0.0
  0
VERTEX
  5
2351
  8
SAPA_PROFIL
 10
-70.979100298616132
 20
91.000000002078394
 30
0.0
  0
VERTEX
  5
2352
  8
SAPA_PROFIL
 10
-62.798715298616123
 20
91.000000002078394
 30
0.0
 42
0.4142135623730882
  0
VERTEX
  5
2353
  8
SAPA_PROFIL
 10
-62.498715298616119
 20
91.300000002078392
 30
0.0
  0
VERTEX
  5
2354
  8
SAPA_PROFIL
 10
-62.498715298616119
 20
93.700000002078397
 30
0.0
 42
0.4142135623730882
  0
VERTEX
  5
2355
  8
SAPA_PROFIL
 10
-62.798715298616123
 20
94.000000002078409
 30
0.0
  0
VERTEX
  5
2356
  8
SAPA_PROFIL
 10
-64.198715298616165
 20
94.000000002078409
 30
0.0
 42
-0.5877029999999041
  0
VERTEX
  5
2357
  8
SAPA_PROFIL
 10
-64.453762298616155
 20
94.457961002078406
 30
0.0
  0
VERTEX
  5
2358
  8
SAPA_PROFIL
 10
-63.661230298616147
 20
95.705307002078413
 30
0.0
 42
-0.2596809999999552
  0
VERTEX
  5
2359
  8
SAPA_PROFIL
 10
-63.49120029861615
 20
95.80000000207842
 30
0.0
  0
VERTEX
  5
235A
  8
SAPA_PROFIL
 10
-60.496549373447557
 20
95.80000000207842
 30
0.0
  0
VERTEX
  5
235B
  8
SAPA_PROFIL
 10
-59.175433956013379
 20
95.289378014356444
 30
0.0
 42
0.4142135623730953
  0
VERTEX
  5
235C
  8
SAPA_PROFIL
 10
-58.801249000537567
 20
95.489342058863826
 30
0.0
  0
VERTEX
  5
235D
  8
SAPA_PROFIL
 10
-58.786730591290457
 20
95.537187808862313
 30
0.0
  0
VERTEX
  5
235E
  8
SAPA_PROFIL
 10
-57.283629510528449
 20
95.537271416745952
 30
0.0
 42
-0.4769755326981643
  0
VERTEX
  5
235F
  8
SAPA_PROFIL
 10
-56.981376686021989
 20
95.165614541800096
 30
0.0
  0
VERTEX
  5
2360
  8
SAPA_PROFIL
 10
-57.362823282149698
 20
93.352384071141842
 30
0.0
 42
-0.2216946626430194
  0
VERTEX
  5
2361
  8
SAPA_PROFIL
 10
-57.768632187304512
 20
92.811504239665055
 30
0.0
  0
VERTEX
  5
2362
  8
SAPA_PROFIL
 10
-58.053314470536151
 20
92.659370328556278
 30
0.0
 42
-0.5773502691897466
  0
VERTEX
  5
2363
  8
SAPA_PROFIL
 10
-58.34747077079097
 20
92.842324068666485
 30
0.0
  0
VERTEX
  5
2364
  8
SAPA_PROFIL
 10
-58.33690940456399
 20
93.164081796884716
 30
0.0
  0
VERTEX
  5
2365
  8
SAPA_PROFIL
 10
-60.222753096425052
 20
94.248646243856456
 30
0.0
  0
VERTEX
  5
2366
  8
SAPA_PROFIL
 10
-60.414136096418773
 20
94.306719880845534
 30
0.0
 42
0.7625858545243257
  0
VERTEX
  5
2367
  8
SAPA_PROFIL
 10
-60.598715298616249
 20
93.976393799828529
 30
0.0
  0
SEQEND
  5
2368
  8
SAPA_PROFIL
  0
POLYLINE
  5
1799
  8
SAPA_PROFIL
 66
     1
 10
0.0
 20
0.0
 30
0.0
 70
     1
  0
VERTEX
  5
2369
  8
SAPA_PROFIL
 10
-62.198715298616172
 20
83.500000002078394
 30
0.0
  0
VERTEX
  5
236A
  8
SAPA_PROFIL
 10
-62.198715298616172
 20
89.000000002078409
 30
0.0
 42
0.4142139999999252
  0
VERTEX
  5
236B
  8
SAPA_PROFIL
 10
-62.498715298616119
 20
89.30000000207842
 30
0.0
  0
VERTEX
  5
236C
  8
SAPA_PROFIL
 10
-80.498715298616105
 20
89.300000002078434
 30
0.0
 42
0.4142139999998691
  0
VERTEX
  5
236D
  8
SAPA_PROFIL
 10
-80.798715298616074
 20
89.000000002078423
 30
0.0
  0
VERTEX
  5
236E
  8
SAPA_PROFIL
 10
-80.798715298616074
 20
83.500000002078423
 30
0.0
 42
0.4142135623730951
  0
VERTEX
  5
236F
  8
SAPA_PROFIL
 10
-80.498715298616105
 20
83.200000002078411
 30
0.0
  0
VERTEX
  5
2370
  8
SAPA_PROFIL
 10
-62.498715298616119
 20
83.200000002078383
 30
0.0
 42
0.4142139999999803
  0
SEQEND
  5
2371
  8
SAPA_PROFIL
  0
POLYLINE
  5
179A
  8
SAPA_PROFIL
 62
     4
 66
     1
 10
0.0
 20
0.0
 30
0.0
  0
VERTEX
  5
2372
  8
SAPA_PROFIL
 62
     4
 10
-30.449386176261701
 20
93.094428837964486
 30
0.0
 42
-0.5571646428658034
  0
VERTEX
  5
2373
  8
SAPA_PROFIL
 62
     4
 10
-30.98634668039853
 20
92.226709923808926
 30
0.0
  0
VERTEX
  5
2374
  8
SAPA_PROFIL
 62
     4
 10
-48.011083916919723
 20
92.226709923809395
 30
0.0
 42
-0.5571645048035741
  0
VERTEX
  5
2375
  8
SAPA_PROFIL
 62
     4
 10
-48.548044533880777
 20
93.094428611675553
 30
0.0
  0
VERTEX
  5
2376
  8
SAPA_PROFIL
 62
     4
 10
-47.717337446334078
 20
94.760569267743605
 30
0.0
 42
-0.284385813979063
  0
VERTEX
  5
2377
  8
SAPA_PROFIL
 62
     4
 10
-47.448857137853729
 20
94.926709923811032
 30
0.0
  0
VERTEX
  5
2378
  8
SAPA_PROFIL
 62
     4
 10
-31.548573459464421
 20
94.926709923811018
 30
0.0
 42
-0.2843858139786238
  0
VERTEX
  5
2379
  8
SAPA_PROFIL
 62
     4
 10
-31.28009315098414
 20
94.760569267744089
 30
0.0
  0
VERTEX
  5
237A
  8
SAPA_PROFIL
 62
     4
 10
-30.449386063436979
 20
93.094428611674729
 30
0.0
  0
SEQEND
  5
237B
  8
SAPA_PROFIL
 62
     4
  0
POLYLINE
  5
179B
  8
SAPA_PROFIL
 62
     4
 66
     1
 10
0.0
 20
0.0
 30
0.0
 70
     1
  0
VERTEX
  5
237C
  8
SAPA_PROFIL
 62
     4
 10
-53.916326483326372
 20
95.283541438308603
 30
0.0
  0
VERTEX
  5
237D
  8
SAPA_PROFIL
 62
     4
 10
-54.180349761702381
 20
95.69010163431274
 30
0.0
 42
0.2539676464751066
  0
VERTEX
  5
237E
  8
SAPA_PROFIL
 62
     4
 10
-54.431950932087091
 20
95.826709923808849
 30
0.0
  0
VERTEX
  5
237F
  8
SAPA_PROFIL
 62
     4
 10
-55.813450517292431
 20
95.826709923808849
 30
0.0
 42
0.3152987888790479
  0
VERTEX
  5
2380
  8
SAPA_PROFIL
 62
     4
 10
-56.283296827684751
 20
95.497719995470675
 30
0.0
  0
VERTEX
  5
2381
  8
SAPA_PROFIL
 62
     4
 10
-57.178965768593351
 20
93.036889805019413
 30
0.0
 42
-0.2694959974287434
  0
VERTEX
  5
2382
  8
SAPA_PROFIL
 62
     4
 10
-57.41048481499471
 20
92.843757830675514
 30
0.0
 42
-0.0612686379508233
  0
VERTEX
  5
2383
  8
SAPA_PROFIL
 62
     4
 10
-57.70316024784799
 20
92.830174460045001
 30
0.0
  0
VERTEX
  5
2384
  8
SAPA_PROFIL
 62
     4
 10
-58.052578425156263
 20
92.628437781316165
 30
0.0
 42
-0.5773502691891679
  0
VERTEX
  5
2385
  8
SAPA_PROFIL
 62
     4
 10
-58.367578425155841
 20
92.810303116110745
 30
0.0
  0
VERTEX
  5
2386
  8
SAPA_PROFIL
 62
     4
 10
-58.367578425156083
 20
93.077417644237059
 30
0.0
  0
VERTEX
  5
2387
  8
SAPA_PROFIL
 62
     4
 10
-59.76610612579033
 20
93.886101105545364
 30
0.0
 42
0.1318219888653519
  0
VERTEX
  5
2388
  8
SAPA_PROFIL
 62
     4
 10
-59.916279228262681
 20
93.926393502082774
 30
0.0
  0
VERTEX
  5
2389
  8
SAPA_PROFIL
 62
     4
 10
-60.09871529869946
 20
93.926393502076408
 30
0.0
 42
0.4142135623724291
  0
VERTEX
  5
238A
  8
SAPA_PROFIL
 62
     4
 10
-60.498715298699999
 20
93.526393502076772
 30
0.0
  0
VERTEX
  5
238B
  8
SAPA_PROFIL
 62
     4
 10
-60.498715298698642
 20
90.126393502075757
 30
0.0
 42
0.4142135623744271
  0
VERTEX
  5
238C
  8
SAPA_PROFIL
 62
     4
 10
-60.09871529869946
 20
89.726393502074785
 30
0.0
  0
VERTEX
  5
238D
  8
SAPA_PROFIL
 62
     4
 10
-59.91910005642815
 20
89.726393502074146
 30
0.0
 42
0.1316524975874005
  0
VERTEX
  5
238E
  8
SAPA_PROFIL
 62
     4
 10
-59.769100056431341
 20
89.766585880939729
 30
0.0
  0
VERTEX
  5
238F
  8
SAPA_PROFIL
 62
     4
 10
-58.164962159429081
 20
90.692735327592246
 30
0.0
 42
-0.1316524975875904
  0
VERTEX
  5
2390
  8
SAPA_PROFIL
 62
     4
 10
-57.664962159427368
 20
90.826709923807044
 30
0.0
  0
VERTEX
  5
2391
  8
SAPA_PROFIL
 62
     4
 10
-57.248715298699999
 20
90.826709923807044
 30
0.0
 42
-0.4142135623730951
  0
VERTEX
  5
2392
  8
SAPA_PROFIL
 62
     4
 10
-56.248715298699999
 20
89.826709923807016
 30
0.0
  0
VERTEX
  5
2393
  8
SAPA_PROFIL
 62
     4
 10
-56.248715298699999
 20
86.826709923809744
 30
0.0
 42
0.9999996830128083
  0
VERTEX
  5
2394
  8
SAPA_PROFIL
 62
     4
 10
-55.248715298700013
 20
86.82670992380794
 30
0.0
  0
VERTEX
  5
2395
  8
SAPA_PROFIL
 62
     4
 10
-55.248715298700013
 20
89.826709923807954
 30
0.0
 42
-0.4142135623730951
  0
VERTEX
  5
2396
  8
SAPA_PROFIL
 62
     4
 10
-54.248715298699999
 20
90.82670992380794
 30
0.0
  0
VERTEX
  5
2397
  8
SAPA_PROFIL
 62
     4
 10
-24.748715298615419
 20
90.826709923807925
 30
0.0
 42
-0.4142135623730951
  0
VERTEX
  5
2398
  8
SAPA_PROFIL
 62
     4
 10
-23.748715298615419
 20
89.826709923807925
 30
0.0
  0
VERTEX
  5
2399
  8
SAPA_PROFIL
 62
     4
 10
-23.748715298615419
 20
86.826709923809744
 30
0.0
 42
0.9999999999999998
  0
VERTEX
  5
239A
  8
SAPA_PROFIL
 62
     4
 10
-22.748715298615419
 20
86.826709923809744
 30
0.0
  0
VERTEX
  5
239B
  8
SAPA_PROFIL
 62
     4
 10
-22.748715298615419
 20
89.826709923807925
 30
0.0
 42
-0.4142135623736278
  0
VERTEX
  5
239C
  8
SAPA_PROFIL
 62
     4
 10
-21.748715298615419
 20
90.826709923807925
 30
0.0
  0
VERTEX
  5
239D
  8
SAPA_PROFIL
 62
     4
 10
-21.332468437888959
 20
90.826709923807925
 30
0.0
 42
-0.1316524975874375
  0
VERTEX
  5
239E
  8
SAPA_PROFIL
 62
     4
 10
-20.83246843788876
 20
90.692735327591876
 30
0.0
  0
VERTEX
  5
239F
  8
SAPA_PROFIL
 62
     4
 10
-19.228330540886809
 20
89.766585880939715
 30
0.0
 42
0.1316524975874
  0
VERTEX
  5
23A0
  8
SAPA_PROFIL
 62
     4
 10
-19.078330540887269
 20
89.726393502074146
 30
0.0
  0
VERTEX
  5
23A1
  8
SAPA_PROFIL
 62
     4
 10
-18.898715298615969
 20
89.726393502074757
 30
0.0
 42
0.4142135623744271
  0
VERTEX
  5
23A2
  8
SAPA_PROFIL
 62
     4
 10
-18.498715298616791
 20
90.126393502075757
 30
0.0
  0
VERTEX
  5
23A3
  8
SAPA_PROFIL
 62
     4
 10
-18.498715298615419
 20
93.526393502076758
 30
0.0
 42
0.4142135623724291
  0
VERTEX
  5
23A4
  8
SAPA_PROFIL
 62
     4
 10
-18.898715298615969
 20
93.926393502076394
 30
0.0
  0
VERTEX
  5
23A5
  8
SAPA_PROFIL
 62
     4
 10
-19.081151369052751
 20
93.926393502082746
 30
0.0
 42
0.1318219888653524
  0
VERTEX
  5
23A6
  8
SAPA_PROFIL
 62
     4
 10
-19.231324471525092
 20
93.886101105545364
 30
0.0
  0
VERTEX
  5
23A7
  8
SAPA_PROFIL
 62
     4
 10
-20.62985217200475
 20
93.077417644321031
 30
0.0
  0
VERTEX
  5
23A8
  8
SAPA_PROFIL
 62
     4
 10
-20.62985217200475
 20
92.810303116108003
 30
0.0
 42
-0.577350269189159
  0
VERTEX
  5
23A9
  8
SAPA_PROFIL
 62
     4
 10
-20.944852172004349
 20
92.628437781313437
 30
0.0
  0
VERTEX
  5
23AA
  8
SAPA_PROFIL
 62
     4
 10
-21.294270349223009
 20
92.830174459990545
 30
0.0
 42
-0.0612687673629489
  0
VERTEX
  5
23AB
  8
SAPA_PROFIL
 62
     4
 10
-21.58694578232322
 20
92.843757830676751
 30
0.0
 42
-0.2694959974285039
  0
VERTEX
  5
23AC
  8
SAPA_PROFIL
 62
     4
 10
-21.818464828723741
 20
93.036889805020692
 30
0.0
  0
VERTEX
  5
23AD
  8
SAPA_PROFIL
 62
     4
 10
-22.71413376963341
 20
95.497719995473858
 30
0.0
 42
0.3152987888784035
  0
VERTEX
  5
23AE
  8
SAPA_PROFIL
 62
     4
 10
-23.183980080026629
 20
95.826709923810455
 30
0.0
  0
VERTEX
  5
23AF
  8
SAPA_PROFIL
 62
     4
 10
-24.56547966523107
 20
95.826709923808835
 30
0.0
 42
0.2539676464741841
  0
VERTEX
  5
23B0
  8
SAPA_PROFIL
 62
     4
 10
-24.81708083561514
 20
95.690101634313564
 30
0.0
  0
VERTEX
  5
23B1
  8
SAPA_PROFIL
 62
     4
 10
-25.081104113991788
 20
95.283541438308575
 30
0.0
 42
0.5862177598324623
  0
VERTEX
  5
23B2
  8
SAPA_PROFIL
 62
     4
 10
-24.82536229875344
 20
94.826709923812075
 30
0.0
  0
VERTEX
  5
23B3
  8
SAPA_PROFIL
 62
     4
 10
-23.884187618243629
 20
94.826709923819735
 30
0.0
 42
-0.3152987888813165
  0
VERTEX
  5
23B4
  8
SAPA_PROFIL
 62
     4
 10
-23.414341307845881
 20
94.497719995482996
 30
0.0
  0
VERTEX
  5
23B5
  8
SAPA_PROFIL
 62
     4
 10
-22.977577026721921
 20
93.297719995471766
 30
0.0
 42
-0.5205670505515651
  0
VERTEX
  5
23B6
  8
SAPA_PROFIL
 62
     4
 10
-23.44742333711514
 20
92.626709923809017
 30
0.0
  0
VERTEX
  5
23B7
  8
SAPA_PROFIL
 62
     4
 10
-28.463864277783991
 20
92.626709923809003
 30
0.0
 42
-0.3702522326300203
  0
VERTEX
  5
23B8
  8
SAPA_PROFIL
 62
     4
 10
-28.760387639577321
 20
92.881169876474701
 30
0.0
 42
-0.0982365330332397
  0
VERTEX
  5
23B9
  8
SAPA_PROFIL
 62
     4
 10
-28.850840397788261
 20
94.568856651469716
 30
0.0
 42
-0.3735060174783164
  0
VERTEX
  5
23BA
  8
SAPA_PROFIL
 62
     4
 10
-28.553815729877279
 20
94.826709923809744
 30
0.0
  0
VERTEX
  5
23BB
  8
SAPA_PROFIL
 62
     4
 10
-28.12536229875462
 20
94.826709923810654
 30
0.0
 42
0.5920056181162531
  0
VERTEX
  5
23BC
  8
SAPA_PROFIL
 62
     4
 10
-27.872353542437232
 20
95.287913426338577
 30
0.0
  0
VERTEX
  5
23BD
  8
SAPA_PROFIL
 62
     4
 10
-28.133537618592928
 20
95.690101634316875
 30
0.0
 42
0.2539676464746725
  0
VERTEX
  5
23BE
  8
SAPA_PROFIL
 62
     4
 10
-28.38513878897669
 20
95.826709923812246
 30
0.0
  0
VERTEX
  5
23BF
  8
SAPA_PROFIL
 62
     4
 10
-50.612291808342377
 20
95.826709923810654
 30
0.0
 42
0.2539676464741819
  0
VERTEX
  5
23C0
  8
SAPA_PROFIL
 62
     4
 10
-50.863892978725232
 20
95.690101634316889
 30
0.0
  0
VERTEX
  5
23C1
  8
SAPA_PROFIL
 62
     4
 10
-51.125077054879043
 20
95.287913426338548
 30
0.0
 42
0.5920055144124249
  0
VERTEX
  5
23C2
  8
SAPA_PROFIL
 62
     4
 10
-50.872068298563534
 20
94.826709923810654
 30
0.0
  0
VERTEX
  5
23C3
  8
SAPA_PROFIL
 62
     4
 10
-50.443614821273322
 20
94.826709949085654
 30
0.0
 42
-0.3735060174775405
  0
VERTEX
  5
23C4
  8
SAPA_PROFIL
 62
     4
 10
-50.146590153363633
 20
94.568856676745582
 30
0.0
 42
-0.0355900683670349
  0
VERTEX
  5
23C5
  8
SAPA_PROFIL
 62
     4
 10
-50.102696589331373
 20
93.952983089945803
 30
0.0
 42
-0.0624282003873116
  0
VERTEX
  5
23C6
  8
SAPA_PROFIL
 62
     4
 10
-50.237042911574306
 20
92.881169901750667
 30
0.0
 42
-0.3702522326309292
  0
VERTEX
  5
23C7
  8
SAPA_PROFIL
 62
     4
 10
-50.53356627336769
 20
92.626709949084955
 30
0.0
  0
VERTEX
  5
23C8
  8
SAPA_PROFIL
 62
     4
 10
-55.550007260201198
 20
92.626709923808804
 30
0.0
 42
-0.5205670505515692
  0
VERTEX
  5
23C9
  8
SAPA_PROFIL
 62
     4
 10
-56.019853570594421
 20
93.29771999547178
 30
0.0
  0
VERTEX
  5
23CA
  8
SAPA_PROFIL
 62
     4
 10
-55.58308928946947
 20
94.497719995481219
 30
0.0
 42
-0.3152987888807539
  0
VERTEX
  5
23CB
  8
SAPA_PROFIL
 62
     4
 10
-55.113242979073618
 20
94.826709923818854
 30
0.0
  0
VERTEX
  5
23CC
  8
SAPA_PROFIL
 62
     4
 10
-54.172068298564533
 20
94.826709923812032
 30
0.0
 42
0.5862175119221242
  0
VERTEX
  5
23CD
  8
SAPA_PROFIL
 62
     4
 10
-53.916326367582577
 20
95.283541249567165
 30
0.0
 42
-0.0000002084758573
  0
SEQEND
  5
23CE
  8
SAPA_PROFIL
 62
     4
  0
POLYLINE
  5
179C
  8
SAPA_PROFIL
 62
     4
 66
     1
 10
0.0
 20
0.0
 30
0.0
  0
VERTEX
  5
23CF
  8
SAPA_PROFIL
 62
     4
 10
-48.54804442105582
 20
70.205571761768013
 30
0.0
 42
-0.5571646428658034
  0
VERTEX
  5
23D0
  8
SAPA_PROFIL
 62
     4
 10
-48.011083916918963
 20
71.073290675923545
 30
0.0
  0
VERTEX
  5
23D1
  8
SAPA_PROFIL
 62
     4
 10
-30.986346680397759
 20
71.073290675922635
 30
0.0
 42
-0.5571645048035741
  0
VERTEX
  5
23D2
  8
SAPA_PROFIL
 62
     4
 10
-30.44938606343673
 20
70.205571988056434
 30
0.0
  0
VERTEX
  5
23D3
  8
SAPA_PROFIL
 62
     4
 10
-31.280093150983468
 20
68.539431331988439
 30
0.0
 42
-0.284385813979063
  0
VERTEX
  5
23D4
  8
SAPA_PROFIL
 62
     4
 10
-31.548573459463821
 20
68.373290675921012
 30
0.0
  0
VERTEX
  5
23D5
  8
SAPA_PROFIL
 62
     4
 10
-47.448857137853139
 20
68.373290675921425
 30
0.0
 42
-0.2843858139786238
  0
VERTEX
  5
23D6
  8
SAPA_PROFIL
 62
     4
 10
-47.71733744633341
 20
68.539431331988354
 30
0.0
  0
VERTEX
  5
23D7
  8
SAPA_PROFIL
 62
     4
 10
-48.548044533880528
 20
70.205571988057741
 30
0.0
  0
SEQEND
  5
23D8
  8
SAPA_PROFIL
 62
     4
  0
POLYLINE
  5
179D
  8
SAPA_PROFIL
 62
     4
 66
     1
 10
0.0
 20
0.0
 30
0.0
 70
     1
  0
VERTEX
  5
23D9
  8
SAPA_PROFIL
 62
     4
 10
-25.081104113991191
 20
68.016459161423256
 30
0.0
  0
VERTEX
  5
23DA
  8
SAPA_PROFIL
 62
     4
 10
-24.817080835615201
 20
67.60989896541912
 30
0.0
 42
0.2539676464751066
  0
VERTEX
  5
23DB
  8
SAPA_PROFIL
 62
     4
 10
-24.565479665230491
 20
67.47329067592301
 30
0.0
  0
VERTEX
  5
23DC
  8
SAPA_PROFIL
 62
     4
 10
-23.18398008002514
 20
67.473290675922954
 30
0.0
 42
0.3152987888790479
  0
VERTEX
  5
23DD
  8
SAPA_PROFIL
 62
     4
 10
-22.71413376963282
 20
67.802280604261114
 30
0.0
  0
VERTEX
  5
23DE
  8
SAPA_PROFIL
 62
     4
 10
-21.81846482872416
 20
70.263110794712361
 30
0.0
 42
-0.2694959974287434
  0
VERTEX
  5
23DF
  8
SAPA_PROFIL
 62
     4
 10
-21.58694578232279
 20
70.456242769056246
 30
0.0
 42
-0.0612686379508233
  0
VERTEX
  5
23E0
  8
SAPA_PROFIL
 62
     4
 10
-21.29427034946951
 20
70.469826139686759
 30
0.0
  0
VERTEX
  5
23E1
  8
SAPA_PROFIL
 62
     4
 10
-20.944852172161241
 20
70.67156281841558
 30
0.0
 42
-0.5773502691891679
  0
VERTEX
  5
23E2
  8
SAPA_PROFIL
 62
     4
 10
-20.629852172161659
 20
70.489697483621001
 30
0.0
  0
VERTEX
  5
23E3
  8
SAPA_PROFIL
 62
     4
 10
-20.629852172161431
 20
70.222582955494687
 30
0.0
  0
VERTEX
  5
23E4
  8
SAPA_PROFIL
 62
     4
 10
-19.231324471527191
 20
69.413899494186325
 30
0.0
 42
0.1318219888653519
  0
VERTEX
  5
23E5
  8
SAPA_PROFIL
 62
     4
 10
-19.081151369054851
 20
69.373607097648929
 30
0.0
  0
VERTEX
  5
23E6
  8
SAPA_PROFIL
 62
     4
 10
-18.898715298618072
 20
69.373607097655295
 30
0.0
 42
0.4142135623724291
  0
VERTEX
  5
23E7
  8
SAPA_PROFIL
 62
     4
 10
-18.498715298617508
 20
69.773607097654903
 30
0.0
  0
VERTEX
  5
23E8
  8
SAPA_PROFIL
 62
     4
 10
-18.498715298618791
 20
73.173607097655903
 30
0.0
 42
0.4142135623744271
  0
VERTEX
  5
23E9
  8
SAPA_PROFIL
 62
     4
 10
-18.898715298617962
 20
73.573607097656932
 30
0.0
  0
VERTEX
  5
23EA
  8
SAPA_PROFIL
 62
     4
 10
-19.078330540889262
 20
73.573607097657572
 30
0.0
 42
0.1316524975874005
  0
VERTEX
  5
23EB
  8
SAPA_PROFIL
 62
     4
 10
-19.228330540886081
 20
73.533414718791974
 30
0.0
  0
VERTEX
  5
23EC
  8
SAPA_PROFIL
 62
     4
 10
-20.832468437888359
 20
72.607265272139486
 30
0.0
 42
-0.1316524975875904
  0
VERTEX
  5
23ED
  8
SAPA_PROFIL
 62
     4
 10
-21.332468437890071
 20
72.47329067592473
 30
0.0
  0
VERTEX
  5
23EE
  8
SAPA_PROFIL
 62
     4
 10
-21.748715298617441
 20
72.473290675924744
 30
0.0
 42
-0.4142135623730951
  0
VERTEX
  5
23EF
  8
SAPA_PROFIL
 62
     4
 10
-22.748715298617419
 20
73.473290675924773
 30
0.0
  0
VERTEX
  5
23F0
  8
SAPA_PROFIL
 62
     4
 10
-22.748715298617341
 20
76.473290675922044
 30
0.0
 42
0.9999996830128083
  0
VERTEX
  5
23F1
  8
SAPA_PROFIL
 62
     4
 10
-23.748715298617331
 20
76.473290675923892
 30
0.0
  0
VERTEX
  5
23F2
  8
SAPA_PROFIL
 62
     4
 10
-23.748715298617419
 20
73.473290675923892
 30
0.0
 42
-0.4142135623730951
  0
VERTEX
  5
23F3
  8
SAPA_PROFIL
 62
     4
 10
-24.748715298617441
 20
72.47329067592392
 30
0.0
  0
VERTEX
  5
23F4
  8
SAPA_PROFIL
 62
     4
 10
-54.248715298702017
 20
72.473290675924716
 30
0.0
 42
-0.4142135623730951
  0
VERTEX
  5
23F5
  8
SAPA_PROFIL
 62
     4
 10
-55.248715298702002
 20
73.473290675924744
 30
0.0
  0
VERTEX
  5
23F6
  8
SAPA_PROFIL
 62
     4
 10
-55.248715298701917
 20
76.473290675922925
 30
0.0
 42
0.9999999999999998
  0
VERTEX
  5
23F7
  8
SAPA_PROFIL
 62
     4
 10
-56.24871529870191
 20
76.473290675922954
 30
0.0
  0
VERTEX
  5
23F8
  8
SAPA_PROFIL
 62
     4
 10
-56.248715298701988
 20
73.473290675924773
 30
0.0
 42
-0.4142135623736278
  0
VERTEX
  5
23F9
  8
SAPA_PROFIL
 62
     4
 10
-57.248715298702031
 20
72.473290675924801
 30
0.0
  0
VERTEX
  5
23FA
  8
SAPA_PROFIL
 62
     4
 10
-57.664962159428477
 20
72.473290675924801
 30
0.0
 42
-0.1316524975874375
  0
VERTEX
  5
23FB
  8
SAPA_PROFIL
 62
     4
 10
-58.164962159428683
 20
72.60726527214085
 30
0.0
  0
VERTEX
  5
23FC
  8
SAPA_PROFIL
 62
     4
 10
-59.769100056430602
 20
73.533414718793068
 30
0.0
 42
0.1316524975874
  0
VERTEX
  5
23FD
  8
SAPA_PROFIL
 62
     4
 10
-59.919100056430139
 20
73.573607097658666
 30
0.0
  0
VERTEX
  5
23FE
  8
SAPA_PROFIL
 62
     4
 10
-60.09871529870145
 20
73.573607097658041
 30
0.0
 42
0.4142135623744271
  0
VERTEX
  5
23FF
  8
SAPA_PROFIL
 62
     4
 10
-60.498715298700638
 20
73.173607097657055
 30
0.0
  0
VERTEX
  5
2400
  8
SAPA_PROFIL
 62
     4
 10
-60.498715298702088
 20
69.773607097656054
 30
0.0
 42
0.4142135623724291
  0
VERTEX
  5
2401
  8
SAPA_PROFIL
 62
     4
 10
-60.09871529870157
 20
69.373607097656404
 30
0.0
  0
VERTEX
  5
2402
  8
SAPA_PROFIL
 62
     4
 10
-59.916279228264777
 20
69.373607097650037
 30
0.0
 42
0.1318219888653524
  0
VERTEX
  5
2403
  8
SAPA_PROFIL
 62
     4
 10
-59.76610612579244
 20
69.413899494187405
 30
0.0
  0
VERTEX
  5
2404
  8
SAPA_PROFIL
 62
     4
 10
-58.367578425312772
 20
70.222582955411724
 30
0.0
  0
VERTEX
  5
2405
  8
SAPA_PROFIL
 62
     4
 10
-58.367578425312757
 20
70.489697483624752
 30
0.0
 42
-0.577350269189159
  0
VERTEX
  5
2406
  8
SAPA_PROFIL
 62
     4
 10
-58.05257842531315
 20
70.671562818419304
 30
0.0
  0
VERTEX
  5
2407
  8
SAPA_PROFIL
 62
     4
 10
-57.703160248094491
 20
70.469826139742196
 30
0.0
 42
-0.0612687673629489
  0
VERTEX
  5
2408
  8
SAPA_PROFIL
 62
     4
 10
-57.410484814994277
 20
70.456242769055976
 30
0.0
 42
-0.2694959974285039
  0
VERTEX
  5
2409
  8
SAPA_PROFIL
 62
     4
 10
-57.17896576859377
 20
70.26311079471202
 30
0.0
  0
VERTEX
  5
240A
  8
SAPA_PROFIL
 62
     4
 10
-56.283296827684161
 20
67.802280604258826
 30
0.0
 42
0.3152987888784035
  0
VERTEX
  5
240B
  8
SAPA_PROFIL
 62
     4
 10
-55.813450517290953
 20
67.473290675922243
 30
0.0
  0
VERTEX
  5
240C
  8
SAPA_PROFIL
 62
     4
 10
-54.431950932086508
 20
67.473290675923806
 30
0.0
 42
0.2539676464741841
  0
VERTEX
  5
240D
  8
SAPA_PROFIL
 62
     4
 10
-54.180349761702431
 20
67.609898965419063
 30
0.0
  0
VERTEX
  5
240E
  8
SAPA_PROFIL
 62
     4
 10
-53.916326483325783
 20
68.016459161424038
 30
0.0
 42
0.5862177598324623
  0
VERTEX
  5
240F
  8
SAPA_PROFIL
 62
     4
 10
-54.172068298564113
 20
68.473290675920552
 30
0.0
  0
VERTEX
  5
2410
  8
SAPA_PROFIL
 62
     4
 10
-55.113242979073931
 20
68.473290675912921
 30
0.0
 42
-0.3152987888813165
  0
VERTEX
  5
2411
  8
SAPA_PROFIL
 62
     4
 10
-55.583089289471673
 20
68.802280604249674
 30
0.0
  0
VERTEX
  5
2412
  8
SAPA_PROFIL
 62
     4
 10
-56.0198535705956
 20
70.002280604260918
 30
0.0
 42
-0.5205670505515651
  0
VERTEX
  5
2413
  8
SAPA_PROFIL
 62
     4
 10
-55.550007260202349
 20
70.673290675923653
 30
0.0
  0
VERTEX
  5
2414
  8
SAPA_PROFIL
 62
     4
 10
-50.533566319533499
 20
70.673290675923553
 30
0.0
 42
-0.3702522326300203
  0
VERTEX
  5
2415
  8
SAPA_PROFIL
 62
     4
 10
-50.237042957740186
 20
70.418830723257841
 30
0.0
 42
-0.0982365330332397
  0
VERTEX
  5
2416
  8
SAPA_PROFIL
 62
     4
 10
-50.146590199529292
 20
68.731143948262826
 30
0.0
 42
-0.3735060174783164
  0
VERTEX
  5
2417
  8
SAPA_PROFIL
 62
     4
 10
-50.443614867440267
 20
68.473290675922797
 30
0.0
  0
VERTEX
  5
2418
  8
SAPA_PROFIL
 62
     4
 10
-50.87206829856293
 20
68.473290675921874
 30
0.0
 42
0.5920056181162531
  0
VERTEX
  5
2419
  8
SAPA_PROFIL
 62
     4
 10
-51.12507705488035
 20
68.012087173393979
 30
0.0
  0
VERTEX
  5
241A
  8
SAPA_PROFIL
 62
     4
 10
-50.86389297872465
 20
67.609898965415667
 30
0.0
 42
0.2539676464746725
  0
VERTEX
  5
241B
  8
SAPA_PROFIL
 62
     4
 10
-50.612291808340892
 20
67.47329067592031
 30
0.0
  0
VERTEX
  5
241C
  8
SAPA_PROFIL
 62
     4
 10
-28.385138788975208
 20
67.473290675921291
 30
0.0
 42
0.2539676464741819
  0
VERTEX
  5
241D
  8
SAPA_PROFIL
 62
     4
 10
-28.133537618592349
 20
67.609898965415056
 30
0.0
  0
VERTEX
  5
241E
  8
SAPA_PROFIL
 62
     4
 10
-27.872353542438528
 20
68.012087173393382
 30
0.0
 42
0.5920055144124249
  0
VERTEX
  5
241F
  8
SAPA_PROFIL
 62
     4
 10
-28.12536229875402
 20
68.473290675921277
 30
0.0
  0
VERTEX
  5
2420
  8
SAPA_PROFIL
 62
     4
 10
-28.553815776044239
 20
68.473290650646291
 30
0.0
 42
-0.3735060174775405
  0
VERTEX
  5
2421
  8
SAPA_PROFIL
 62
     4
 10
-28.850840443953931
 20
68.731143922986391
 30
0.0
 42
-0.0355900683670349
  0
VERTEX
  5
2422
  8
SAPA_PROFIL
 62
     4
 10
-28.894734007986159
 20
69.34701750978617
 30
0.0
 42
-0.0624282003873116
  0
VERTEX
  5
2423
  8
SAPA_PROFIL
 62
     4
 10
-28.76038768574319
 20
70.418830697981292
 30
0.0
 42
-0.3702522326309292
  0
VERTEX
  5
2424
  8
SAPA_PROFIL
 62
     4
 10
-28.46386432394981
 20
70.673290650647004
 30
0.0
  0
VERTEX
  5
2425
  8
SAPA_PROFIL
 62
     4
 10
-23.447423337116302
 20
70.673290675923013
 30
0.0
 42
-0.5205670505515692
  0
VERTEX
  5
2426
  8
SAPA_PROFIL
 62
     4
 10
-22.97757702672309
 20
70.002280604260022
 30
0.0
  0
VERTEX
  5
2427
  8
SAPA_PROFIL
 62
     4
 10
-23.41434130784808
 20
68.802280604250598
 30
0.0
 42
-0.3152987888807539
  0
VERTEX
  5
2428
  8
SAPA_PROFIL
 62
     4
 10
-23.884187618243939
 20
68.473290675912978
 30
0.0
  0
VERTEX
  5
2429
  8
SAPA_PROFIL
 62
     4
 10
-24.825362298753021
 20
68.473290675919813
 30
0.0
 42
0.5862175119221242
  0
VERTEX
  5
242A
  8
SAPA_PROFIL
 62
     4
 10
-25.08110422973499
 20
68.016459350164695
 30
0.0
 42
-0.0000002084758573
  0
SEQEND
  5
242B
  8
SAPA_PROFIL
 62
     4
  0
POLYLINE
  5
179E
  8
SAPA_PROFIL
 66
     1
 10
0.0
 20
0.0
 30
0.0
 70
     1
  0
VERTEX
  5
242C
  8
SAPA_PROFIL
 10
-91.098475071207247
 20
22.800000000000189
 30
0.0
  0
VERTEX
  5
242D
  8
SAPA_PROFIL
 10
-91.098475071207247
 20
23.800000000000189
 30
0.0
  0
VERTEX
  5
242E
  8
SAPA_PROFIL
 10
-88.498475071207082
 20
23.800000000000189
 30
0.0
 42
0.4142135623730951
  0
VERTEX
  5
242F
  8
SAPA_PROFIL
 10
-87.998475071207068
 20
24.300000000000189
 30
0.0
  0
VERTEX
  5
2430
  8
SAPA_PROFIL
 10
-87.998475071207068
 20
24.70000000000028
 30
0.0
 42
0.4142135623730951
  0
VERTEX
  5
2431
  8
SAPA_PROFIL
 10
-88.298475071207037
 20
25.000000000000231
 30
0.0
  0
VERTEX
  5
2432
  8
SAPA_PROFIL
 10
-105.9999999990097
 20
25.000000000000231
 30
0.0
 42
0.4142135623730951
  0
VERTEX
  5
2433
  8
SAPA_PROFIL
 10
-106.4999999990097
 20
24.500000000000231
 30
0.0
  0
VERTEX
  5
2434
  8
SAPA_PROFIL
 10
-106.4999999990097
 20
-24.499999999999769
 30
0.0
 42
0.4142135623730951
  0
VERTEX
  5
2435
  8
SAPA_PROFIL
 10
-105.9999999990097
 20
-24.999999999999769
 30
0.0
  0
VERTEX
  5
2436
  8
SAPA_PROFIL
 10
-88.298475071207008
 20
-24.999999999999769
 30
0.0
 42
0.4142135623730951
  0
VERTEX
  5
2437
  8
SAPA_PROFIL
 10
-87.998475071207068
 20
-24.699999999999811
 30
0.0
  0
VERTEX
  5
2438
  8
SAPA_PROFIL
 10
-87.998475071207068
 20
-24.29999999999972
 30
0.0
 42
0.4142135623730951
  0
VERTEX
  5
2439
  8
SAPA_PROFIL
 10
-88.498475071207054
 20
-23.79999999999972
 30
0.0
  0
VERTEX
  5
243A
  8
SAPA_PROFIL
 10
-91.098475071207247
 20
-23.79999999999972
 30
0.0
  0
VERTEX
  5
243B
  8
SAPA_PROFIL
 10
-91.098475071207247
 20
-22.79999999999972
 30
0.0
  0
VERTEX
  5
243C
  8
SAPA_PROFIL
 10
-92.102507830840224
 20
-22.220339221578559
 30
0.0
 42
0.4155392929676362
  0
VERTEX
  5
243D
  8
SAPA_PROFIL
 10
-93.197126802632198
 20
-22.51631264788443
 30
0.0
  0
VERTEX
  5
243E
  8
SAPA_PROFIL
 10
-93.938264040931159
 20
-23.79999999999972
 30
0.0
  0
VERTEX
  5
243F
  8
SAPA_PROFIL
 10
-104.0999999990098
 20
-23.799999999999731
 30
0.0
 42
-0.4142135623730951
  0
VERTEX
  5
2440
  8
SAPA_PROFIL
 10
-105.0999999990098
 20
-22.799999999999731
 30
0.0
  0
VERTEX
  5
2441
  8
SAPA_PROFIL
 10
-105.0999999990098
 20
22.800000000000178
 30
0.0
 42
-0.4142135623730951
  0
VERTEX
  5
2442
  8
SAPA_PROFIL
 10
-104.0999999990098
 20
23.800000000000178
 30
0.0
  0
VERTEX
  5
2443
  8
SAPA_PROFIL
 10
-93.938264040931173
 20
23.800000000000189
 30
0.0
  0
VERTEX
  5
2444
  8
SAPA_PROFIL
 10
-93.197126802632226
 20
22.516312647884892
 30
0.0
 42
0.4155392929676362
  0
VERTEX
  5
2445
  8
SAPA_PROFIL
 10
-92.102507830840239
 20
22.220339221579032
 30
0.0
  0
SEQEND
  5
2446
  8
SAPA_PROFIL
  0
POLYLINE
  5
179F
  8
SAPA_PROFIL
 66
     1
 10
0.0
 20
0.0
 30
0.0
 70
     1
  0
VERTEX
  5
2447
  8
SAPA_PROFIL
 10
-86.499999999010754
 20
-20.85000000000014
 30
0.0
 42
0.1989123673797145
  0
VERTEX
  5
2448
  8
SAPA_PROFIL
 10
-86.587867964654663
 20
-20.63786796564386
 30
0.0
  0
VERTEX
  5
2449
  8
SAPA_PROFIL
 10
-86.987867964654754
 20
-20.237867965644231
 30
0.0
 42
0.668178637919182
  0
VERTEX
  5
244A
  8
SAPA_PROFIL
 10
-87.499999999010754
 20
-20.450000000000049
 30
0.0
  0
VERTEX
  5
244B
  8
SAPA_PROFIL
 10
-87.499999999010754
 20
-21.299999999999951
 30
0.0
 42
-0.4142135623730284
  0
VERTEX
  5
244C
  8
SAPA_PROFIL
 10
-87.999999999010754
 20
-21.799999999999962
 30
0.0
  0
VERTEX
  5
244D
  8
SAPA_PROFIL
 10
-88.390808928730905
 20
-21.799999999999962
 30
0.0
 42
-0.17632698070845
  0
VERTEX
  5
244E
  8
SAPA_PROFIL
 10
-88.583645211636679
 20
-21.729813332935692
 30
0.0
  0
VERTEX
  5
244F
  8
SAPA_PROFIL
 10
-90.392836281916345
 20
-20.211721773134968
 30
0.0
 42
-0.2216946626429421
  0
VERTEX
  5
2450
  8
SAPA_PROFIL
 10
-90.499999999010299
 20
-19.981908440199049
 30
0.0
  0
VERTEX
  5
2451
  8
SAPA_PROFIL
 10
-90.499999999010754
 20
-16.450000000000038
 30
0.0
 42
-0.4142135623730951
  0
VERTEX
  5
2452
  8
SAPA_PROFIL
 10
-90.199999999010586
 20
-16.14999999999986
 30
0.0
  0
VERTEX
  5
2453
  8
SAPA_PROFIL
 10
-87.799999999010495
 20
-16.150000000000318
 30
0.0
 42
-0.4142135623730951
  0
VERTEX
  5
2454
  8
SAPA_PROFIL
 10
-87.499999999010754
 20
-16.450000000000038
 30
0.0
  0
VERTEX
  5
2455
  8
SAPA_PROFIL
 10
-87.499999999010754
 20
-16.850000000000129
 30
0.0
 42
0.6681786379193188
  0
VERTEX
  5
2456
  8
SAPA_PROFIL
 10
-86.987867964654754
 20
-17.062132034355951
 30
0.0
  0
VERTEX
  5
2457
  8
SAPA_PROFIL
 10
-86.587867964654663
 20
-16.66213203435586
 30
0.0
 42
0.198912367379658
  0
VERTEX
  5
2458
  8
SAPA_PROFIL
 10
-86.499999999010754
 20
-16.450000000000038
 30
0.0
  0
VERTEX
  5
2459
  8
SAPA_PROFIL
 10
-86.499999999010299
 20
-14.65000000000032
 30
0.0
 42
0.4142135623731284
  0
VERTEX
  5
245A
  8
SAPA_PROFIL
 10
-86.999999999010285
 20
-14.15000000000032
 30
0.0
  0
VERTEX
  5
245B
  8
SAPA_PROFIL
 10
-91.499999999011209
 20
-14.14999999999986
 30
0.0
 42
0.4142135623730951
  0
VERTEX
  5
245C
  8
SAPA_PROFIL
 10
-91.999999999011209
 20
-14.64999999999986
 30
0.0
  0
VERTEX
  5
245D
  8
SAPA_PROFIL
 10
-91.999999999010285
 20
-18.64999999999986
 30
0.0
 42
-0.4142135623729619
  0
VERTEX
  5
245E
  8
SAPA_PROFIL
 10
-92.499999999010299
 20
-19.14999999999986
 30
0.0
  0
VERTEX
  5
245F
  8
SAPA_PROFIL
 10
-94.516956646213956
 20
-19.14999999999986
 30
0.0
 42
-0.1763269807084973
  0
VERTEX
  5
2460
  8
SAPA_PROFIL
 10
-94.838350451057352
 20
-19.033022221559118
 30
0.0
  0
VERTEX
  5
2461
  8
SAPA_PROFIL
 10
-97.321393803853709
 20
-16.949501460029978
 30
0.0
 42
-0.2216946626428772
  0
VERTEX
  5
2462
  8
SAPA_PROFIL
 10
-97.499999999010299
 20
-16.56647923847072
 30
0.0
  0
VERTEX
  5
2463
  8
SAPA_PROFIL
 10
-97.499999999010754
 20
-10.568533728390999
 30
0.0
 42
-0.315298788878991
  0
VERTEX
  5
2464
  8
SAPA_PROFIL
 10
-97.171010070673503
 20
-10.09868741799823
 30
0.0
  0
VERTEX
  5
2465
  8
SAPA_PROFIL
 10
-93.1579798556848
 20
-8.6380638705315942
 30
0.0
 42
0.3152987888789731
  0
VERTEX
  5
2466
  8
SAPA_PROFIL
 10
-92.499999999010299
 20
-7.6983712497456054
 30
0.0
  0
VERTEX
  5
2467
  8
SAPA_PROFIL
 10
-92.499999999010299
 20
-6.6499999999998627
 30
0.0
 42
-0.4142135623732616
  0
VERTEX
  5
2468
  8
SAPA_PROFIL
 10
-92.199999999010572
 20
-6.3499999999996808
 30
0.0
  0
VERTEX
  5
2469
  8
SAPA_PROFIL
 10
-91.799999999010467
 20
-6.3499999999996808
 30
0.0
 42
0.4142135623731506
  0
VERTEX
  5
246A
  8
SAPA_PROFIL
 10
-91.499999999010299
 20
-6.0499999999999536
 30
0.0
  0
VERTEX
  5
246B
  8
SAPA_PROFIL
 10
-91.499999999010299
 20
-5.6499999999998627
 30
0.0
 42
0.4142135623731505
  0
VERTEX
  5
246C
  8
SAPA_PROFIL
 10
-91.799999999010467
 20
-5.3499999999996808
 30
0.0
  0
VERTEX
  5
246D
  8
SAPA_PROFIL
 10
-92.199999999010572
 20
-5.3499999999996808
 30
0.0
 42
-0.4142135623732061
  0
VERTEX
  5
246E
  8
SAPA_PROFIL
 10
-92.499999999010299
 20
-5.0499999999999536
 30
0.0
  0
VERTEX
  5
246F
  8
SAPA_PROFIL
 10
-92.499999999010356
 20
-0.6242640687116819
 30
0.0
 42
0.198912367379577
  0
VERTEX
  5
2470
  8
SAPA_PROFIL
 10
-92.587867964654706
 20
-0.4121320343558637
 30
0.0
  0
VERTEX
  5
2471
  8
SAPA_PROFIL
 10
-92.999999999010356
 20
0.0000000000002274
 30
0.0
  0
VERTEX
  5
2472
  8
SAPA_PROFIL
 10
-92.587867964654706
 20
0.4121320343563184
 30
0.0
 42
0.1989123673795771
  0
VERTEX
  5
2473
  8
SAPA_PROFIL
 10
-92.499999999010356
 20
0.6242640687121366
 30
0.0
  0
VERTEX
  5
2474
  8
SAPA_PROFIL
 10
-92.499999999010356
 20
5.0499999999999536
 30
0.0
 42
-0.4142135623732059
  0
VERTEX
  5
2475
  8
SAPA_PROFIL
 10
-92.199999999010615
 20
5.3500000000001364
 30
0.0
  0
VERTEX
  5
2476
  8
SAPA_PROFIL
 10
-91.799999999010538
 20
5.3500000000001364
 30
0.0
 42
0.4142135623731506
  0
VERTEX
  5
2477
  8
SAPA_PROFIL
 10
-91.499999999010356
 20
5.6500000000003183
 30
0.0
  0
VERTEX
  5
2478
  8
SAPA_PROFIL
 10
-91.499999999010356
 20
6.0499999999999536
 30
0.0
 42
0.4142135623731505
  0
VERTEX
  5
2479
  8
SAPA_PROFIL
 10
-91.799999999010538
 20
6.3500000000001364
 30
0.0
  0
VERTEX
  5
247A
  8
SAPA_PROFIL
 10
-92.199999999010615
 20
6.3500000000001364
 30
0.0
 42
-0.4142135623732615
  0
VERTEX
  5
247B
  8
SAPA_PROFIL
 10
-92.499999999010356
 20
6.6500000000003183
 30
0.0
  0
VERTEX
  5
247C
  8
SAPA_PROFIL
 10
-92.499999999010356
 20
7.6983712497456054
 30
0.0
 42
0.3152987888789731
  0
VERTEX
  5
247D
  8
SAPA_PROFIL
 10
-93.157979855684843
 20
8.6380638705315942
 30
0.0
  0
VERTEX
  5
247E
  8
SAPA_PROFIL
 10
-97.17101007067356
 20
10.09868741799823
 30
0.0
 42
-0.315298788878991
  0
VERTEX
  5
247F
  8
SAPA_PROFIL
 10
-97.499999999010811
 20
10.56853372839146
 30
0.0
  0
VERTEX
  5
2480
  8
SAPA_PROFIL
 10
-97.499999999010356
 20
16.56647923847072
 30
0.0
 42
-0.2216946626428772
  0
VERTEX
  5
2481
  8
SAPA_PROFIL
 10
-97.321393803853766
 20
16.949501460029978
 30
0.0
  0
VERTEX
  5
2482
  8
SAPA_PROFIL
 10
-94.838350451057394
 20
19.03302222155957
 30
0.0
 42
-0.1763269807084973
  0
VERTEX
  5
2483
  8
SAPA_PROFIL
 10
-94.516956646213998
 20
19.150000000000318
 30
0.0
  0
VERTEX
  5
2484
  8
SAPA_PROFIL
 10
-92.499999999010356
 20
19.150000000000318
 30
0.0
 42
-0.4142135623729619
  0
VERTEX
  5
2485
  8
SAPA_PROFIL
 10
-91.999999999010356
 20
18.650000000000318
 30
0.0
  0
VERTEX
  5
2486
  8
SAPA_PROFIL
 10
-91.999999999011266
 20
14.65000000000032
 30
0.0
 42
0.4142135623730951
  0
VERTEX
  5
2487
  8
SAPA_PROFIL
 10
-91.499999999011266
 20
14.15000000000032
 30
0.0
  0
VERTEX
  5
2488
  8
SAPA_PROFIL
 10
-86.999999999010356
 20
14.15000000000032
 30
0.0
 42
0.4142135623731285
  0
VERTEX
  5
2489
  8
SAPA_PROFIL
 10
-86.499999999010356
 20
14.65000000000032
 30
0.0
  0
VERTEX
  5
248A
  8
SAPA_PROFIL
 10
-86.499999999010825
 20
16.4500000000005
 30
0.0
 42
0.198912367379658
  0
VERTEX
  5
248B
  8
SAPA_PROFIL
 10
-86.58786796465472
 20
16.662132034356318
 30
0.0
  0
VERTEX
  5
248C
  8
SAPA_PROFIL
 10
-86.987867964654825
 20
17.062132034356409
 30
0.0
 42
0.6681786379193188
  0
VERTEX
  5
248D
  8
SAPA_PROFIL
 10
-87.499999999010811
 20
16.850000000000129
 30
0.0
  0
VERTEX
  5
248E
  8
SAPA_PROFIL
 10
-87.499999999010811
 20
16.4500000000005
 30
0.0
 42
-0.4142135623730951
  0
VERTEX
  5
248F
  8
SAPA_PROFIL
 10
-87.799999999010538
 20
16.150000000000318
 30
0.0
  0
VERTEX
  5
2490
  8
SAPA_PROFIL
 10
-90.199999999010629
 20
16.150000000000318
 30
0.0
 42
-0.4142135623730951
  0
VERTEX
  5
2491
  8
SAPA_PROFIL
 10
-90.499999999010797
 20
16.4500000000005
 30
0.0
  0
VERTEX
  5
2492
  8
SAPA_PROFIL
 10
-90.499999999010356
 20
19.981908440199501
 30
0.0
 42
-0.221694662642942
  0
VERTEX
  5
2493
  8
SAPA_PROFIL
 10
-90.392836281916402
 20
20.211721773134968
 30
0.0
  0
VERTEX
  5
2494
  8
SAPA_PROFIL
 10
-88.583645211636735
 20
21.729813332935692
 30
0.0
 42
-0.1763269807084499
  0
VERTEX
  5
2495
  8
SAPA_PROFIL
 10
-88.390808928730976
 20
21.799999999999962
 30
0.0
  0
VERTEX
  5
2496
  8
SAPA_PROFIL
 10
-87.999999999010797
 20
21.800000000000409
 30
0.0
 42
-0.4142135623730284
  0
VERTEX
  5
2497
  8
SAPA_PROFIL
 10
-87.499999999010811
 20
21.300000000000409
 30
0.0
  0
VERTEX
  5
2498
  8
SAPA_PROFIL
 10
-87.499999999010811
 20
20.4500000000005
 30
0.0
 42
0.668178637919182
  0
VERTEX
  5
2499
  8
SAPA_PROFIL
 10
-86.987867964654825
 20
20.237867965644231
 30
0.0
  0
VERTEX
  5
249A
  8
SAPA_PROFIL
 10
-86.58786796465472
 20
20.637867965644318
 30
0.0
 42
0.1989123673797144
  0
VERTEX
  5
249B
  8
SAPA_PROFIL
 10
-86.499999999010825
 20
20.85000000000014
 30
0.0
  0
VERTEX
  5
249C
  8
SAPA_PROFIL
 10
-86.499999999010825
 20
23.300000000000409
 30
0.0
 42
0.4142135623730951
  0
VERTEX
  5
249D
  8
SAPA_PROFIL
 10
-86.999999999010811
 20
23.800000000000409
 30
0.0
  0
VERTEX
  5
249E
  8
SAPA_PROFIL
 10
-90.699999999010615
 20
23.800000000000409
 30
0.0
 42
0.4142135623730951
  0
VERTEX
  5
249F
  8
SAPA_PROFIL
 10
-90.999999999010811
 20
23.500000000000679
 30
0.0
  0
VERTEX
  5
24A0
  8
SAPA_PROFIL
 10
-90.999999999010811
 20
22.473205080757229
 30
0.0
 42
-0.2679491924311428
  0
VERTEX
  5
24A1
  8
SAPA_PROFIL
 10
-91.149999999010902
 20
22.213397459622001
 30
0.0
  0
VERTEX
  5
24A2
  8
SAPA_PROFIL
 10
-92.687083486551145
 20
21.325961894323662
 30
0.0
 42
-0.4142135623731709
  0
VERTEX
  5
24A3
  8
SAPA_PROFIL
 10
-93.096891107686474
 20
21.435769515459238
 30
0.0
  0
VERTEX
  5
24A4
  8
SAPA_PROFIL
 10
-93.404123202713777
 20
21.96791111376228
 30
0.0
 42
0.4663076581551056
  0
VERTEX
  5
24A5
  8
SAPA_PROFIL
 10
-94.912936216184676
 20
22.233955556881259
 30
0.0
  0
VERTEX
  5
24A6
  8
SAPA_PROFIL
 10
-99.821393803853766
 20
18.115270605417429
 30
0.0
 42
0.2216946626428921
  0
VERTEX
  5
24A7
  8
SAPA_PROFIL
 10
-99.999999999010811
 20
17.732248383857719
 30
0.0
  0
VERTEX
  5
24A8
  8
SAPA_PROFIL
 10
-99.999999999010811
 20
9.7002075382099502
 30
0.0
 42
0.3152987888789878
  0
VERTEX
  5
24A9
  8
SAPA_PROFIL
 10
-99.342020142336324
 20
8.7605149174239614
 30
0.0
  0
VERTEX
  5
24AA
  8
SAPA_PROFIL
 10
-95.657979855684843
 20
7.419633911245227
 30
0.0
 42
-0.3152987888789804
  0
VERTEX
  5
24AB
  8
SAPA_PROFIL
 10
-94.999999999010356
 20
6.4799412904592373
 30
0.0
  0
VERTEX
  5
24AC
  8
SAPA_PROFIL
 10
-94.999999999010299
 20
-6.4799412904592373
 30
0.0
 42
-0.3152987888789804
  0
VERTEX
  5
24AD
  8
SAPA_PROFIL
 10
-95.6579798556848
 20
-7.419633911245227
 30
0.0
  0
VERTEX
  5
24AE
  8
SAPA_PROFIL
 10
-99.342020142336267
 20
-8.7605149174235066
 30
0.0
 42
0.3152987888789877
  0
VERTEX
  5
24AF
  8
SAPA_PROFIL
 10
-99.999999999010754
 20
-9.7002075382094972
 30
0.0
  0
VERTEX
  5
24B0
  8
SAPA_PROFIL
 10
-99.999999999010754
 20
-17.732248383857719
 30
0.0
 42
0.2216946626428921
  0
VERTEX
  5
24B1
  8
SAPA_PROFIL
 10
-99.821393803853709
 20
-18.115270605416981
 30
0.0
  0
VERTEX
  5
24B2
  8
SAPA_PROFIL
 10
-94.912936216184619
 20
-22.233955556880801
 30
0.0
 42
0.4663076581551056
  0
VERTEX
  5
24B3
  8
SAPA_PROFIL
 10
-93.40412320271372
 20
-21.96791111376228
 30
0.0
  0
VERTEX
  5
24B4
  8
SAPA_PROFIL
 10
-93.096891107686417
 20
-21.435769515458791
 30
0.0
 42
-0.414213562373157
  0
VERTEX
  5
24B5
  8
SAPA_PROFIL
 10
-92.687083486551103
 20
-21.325961894323662
 30
0.0
  0
VERTEX
  5
24B6
  8
SAPA_PROFIL
 10
-91.149999999010845
 20
-22.213397459622001
 30
0.0
 42
-0.2679491924311554
  0
VERTEX
  5
24B7
  8
SAPA_PROFIL
 10
-90.999999999010754
 20
-22.473205080757229
 30
0.0
  0
VERTEX
  5
24B8
  8
SAPA_PROFIL
 10
-90.999999999010754
 20
-23.500000000000231
 30
0.0
 42
0.4142135623730951
  0
VERTEX
  5
24B9
  8
SAPA_PROFIL
 10
-90.699999999010572
 20
-23.800000000000409
 30
0.0
  0
VERTEX
  5
24BA
  8
SAPA_PROFIL
 10
-86.999999999010754
 20
-23.799999999999951
 30
0.0
 42
0.4142135623730951
  0
VERTEX
  5
24BB
  8
SAPA_PROFIL
 10
-86.499999999010754
 20
-23.299999999999962
 30
0.0
  0
SEQEND
  5
24BC
  8
SAPA_PROFIL
  0
POLYLINE
  5
17A0
  8
SAPA_PROFIL
 62
     4
 66
     1
 10
0.0
 20
0.0
 30
0.0
 70
     1
  0
VERTEX
  5
24BD
  8
SAPA_PROFIL
 62
     4
 10
-88.358578641879944
 20
1.055634910786579
 30
0.0
 42
-0.1989123671061458
  0
VERTEX
  5
24BE
  8
SAPA_PROFIL
 62
     4
 10
-88.007106780196807
 20
0.2071067742557489
 30
0.0
  0
VERTEX
  5
24BF
  8
SAPA_PROFIL
 62
     4
 10
-88.007106780196807
 20
-0.2071067742554078
 30
0.0
 42
-0.1989123671061505
  0
VERTEX
  5
24C0
  8
SAPA_PROFIL
 62
     4
 10
-88.358578641879944
 20
-1.0556349107862379
 30
0.0
  0
VERTEX
  5
24C1
  8
SAPA_PROFIL
 62
     4
 10
-90.590811692262321
 20
-3.2878679658671208
 30
0.0
 42
0.6681786375387371
  0
VERTEX
  5
24C2
  8
SAPA_PROFIL
 62
     4
 10
-90.378679657683108
 20
-3.79999999999984
 30
0.0
  0
VERTEX
  5
24C3
  8
SAPA_PROFIL
 62
     4
 10
-73.799999999010311
 20
-3.79999999999984
 30
0.0
 42
0.4142135623731034
  0
VERTEX
  5
24C4
  8
SAPA_PROFIL
 62
     4
 10
-73.499999999010285
 20
-3.499999999999829
 30
0.0
  0
VERTEX
  5
24C5
  8
SAPA_PROFIL
 62
     4
 10
-73.499999999010285
 20
3.500000000000056
 30
0.0
 42
0.4142135623731034
  0
VERTEX
  5
24C6
  8
SAPA_PROFIL
 62
     4
 10
-73.799999999010311
 20
3.8000000000001251
 30
0.0
  0
VERTEX
  5
24C7
  8
SAPA_PROFIL
 62
     4
 10
-90.378679657683108
 20
3.800000000000181
 30
0.0
 42
0.6681786375387019
  0
VERTEX
  5
24C8
  8
SAPA_PROFIL
 62
     4
 10
-90.590811692262321
 20
3.2878679658674619
 30
0.0
  0
SEQEND
  5
24C9
  8
SAPA_PROFIL
 62
     4
  0
POLYLINE
  5
17A1
  8
SAPA_PROFIL
 62
     4
 66
     1
 10
0.0
 20
0.0
 30
0.0
 70
     1
  0
VERTEX
  5
24CA
  8
SAPA_PROFIL
 62
     4
 10
-72.199999999010288
 20
-3.79999999999984
 30
0.0
  0
VERTEX
  5
24CB
  8
SAPA_PROFIL
 62
     4
 10
-53.999999999010242
 20
-3.79999999999984
 30
0.0
 42
0.4142135623730951
  0
VERTEX
  5
24CC
  8
SAPA_PROFIL
 62
     4
 10
-53.699999999010231
 20
-3.4999999999998859
 30
0.0
  0
VERTEX
  5
24CD
  8
SAPA_PROFIL
 62
     4
 10
-53.699999999010288
 20
-2.602943725152044
 30
0.0
  0
VERTEX
  5
24CE
  8
SAPA_PROFIL
 62
     4
 10
-52.147056273857856
 20
-1.04999999999984
 30
0.0
  0
VERTEX
  5
24CF
  8
SAPA_PROFIL
 62
     4
 10
-46.568653346957433
 20
-1.04999999999984
 30
0.0
  0
VERTEX
  5
24D0
  8
SAPA_PROFIL
 62
     4
 10
-45.574999999010281
 20
-0.4763139720813001
 30
0.0
 42
0.5773502691896344
  0
VERTEX
  5
24D1
  8
SAPA_PROFIL
 62
     4
 10
-45.574999999010231
 20
0.4763139720815844
 30
0.0
  0
VERTEX
  5
24D2
  8
SAPA_PROFIL
 62
     4
 10
-46.568653346957603
 20
1.050000000000181
 30
0.0
  0
VERTEX
  5
24D3
  8
SAPA_PROFIL
 62
     4
 10
-52.147056273858027
 20
1.050000000000181
 30
0.0
  0
VERTEX
  5
24D4
  8
SAPA_PROFIL
 62
     4
 10
-53.699999999010288
 20
2.602943725152385
 30
0.0
  0
VERTEX
  5
24D5
  8
SAPA_PROFIL
 62
     4
 10
-53.699999999010231
 20
3.5000000000002269
 30
0.0
 42
0.4142135623730951
  0
VERTEX
  5
24D6
  8
SAPA_PROFIL
 62
     4
 10
-53.999999999010242
 20
3.800000000000181
 30
0.0
  0
VERTEX
  5
24D7
  8
SAPA_PROFIL
 62
     4
 10
-72.199999999010288
 20
3.8000000000001251
 30
0.0
 42
0.4142135623730951
  0
VERTEX
  5
24D8
  8
SAPA_PROFIL
 62
     4
 10
-72.499999999010242
 20
3.5000000000001701
 30
0.0
  0
VERTEX
  5
24D9
  8
SAPA_PROFIL
 62
     4
 10
-72.499999999010299
 20
-3.4999999999999432
 30
0.0
 42
0.4142135623730951
  0
SEQEND
  5
24DA
  8
SAPA_PROFIL
 62
     4
  0
POLYLINE
  5
17A2
  8
SAPA_PROFIL
 62
     4
 66
     1
 10
0.0
 20
0.0
 30
0.0
 70
     1
  0
VERTEX
  5
24DB
  8
SAPA_PROFIL
 62
     4
 10
-89.353553389603519
 20
0.3535533839707341
 30
0.0
 42
-0.4142135623730951
  0
VERTEX
  5
24DC
  8
SAPA_PROFIL
 62
     4
 10
-89.353553389603519
 20
-0.3535533972158191
 30
0.0
  0
VERTEX
  5
24DD
  8
SAPA_PROFIL
 62
     4
 10
-92.499999999010242
 20
-3.4999999999998859
 30
0.0
  0
VERTEX
  5
24DE
  8
SAPA_PROFIL
 62
     4
 10
-92.499999999010242
 20
-4.9999999999998863
 30
0.0
  0
VERTEX
  5
24DF
  8
SAPA_PROFIL
 62
     4
 10
-52.999999999010242
 20
-4.9999999999998863
 30
0.0
 42
0.4142135623730951
  0
VERTEX
  5
24E0
  8
SAPA_PROFIL
 62
     4
 10
-52.499999999010242
 20
-4.4999999999998863
 30
0.0
  0
VERTEX
  5
24E1
  8
SAPA_PROFIL
 62
     4
 10
-52.499999999010242
 20
-3.0999999999997949
 30
0.0
  0
VERTEX
  5
24E2
  8
SAPA_PROFIL
 62
     4
 10
-51.649999999010269
 20
-2.2499999999998859
 30
0.0
  0
VERTEX
  5
24E3
  8
SAPA_PROFIL
 62
     4
 10
-47.047114316040222
 20
-2.2499999999998859
 30
0.0
  0
VERTEX
  5
24E4
  8
SAPA_PROFIL
 62
     4
 10
-45.174999999010247
 20
-1.1691342951089041
 30
0.0
 42
0.5773502691896344
  0
VERTEX
  5
24E5
  8
SAPA_PROFIL
 62
     4
 10
-45.174999999010247
 20
1.1691342951091881
 30
0.0
  0
VERTEX
  5
24E6
  8
SAPA_PROFIL
 62
     4
 10
-47.047114316040393
 20
2.2500000000002269
 30
0.0
  0
VERTEX
  5
24E7
  8
SAPA_PROFIL
 62
     4
 10
-51.649999999010269
 20
2.2500000000002269
 30
0.0
  0
VERTEX
  5
24E8
  8
SAPA_PROFIL
 62
     4
 10
-52.499999999010242
 20
3.100000000000136
 30
0.0
  0
VERTEX
  5
24E9
  8
SAPA_PROFIL
 62
     4
 10
-52.499999999010242
 20
4.5000000000001128
 30
0.0
 42
0.4142135623730951
  0
VERTEX
  5
24EA
  8
SAPA_PROFIL
 62
     4
 10
-52.999999999010242
 20
5.0000000000001128
 30
0.0
  0
VERTEX
  5
24EB
  8
SAPA_PROFIL
 62
     4
 10
-92.499999999010242
 20
5.0000000000001128
 30
0.0
  0
VERTEX
  5
24EC
  8
SAPA_PROFIL
 62
     4
 10
-92.499999999010242
 20
3.5000000000001128
 30
0.0
  0
SEQEND
  5
24ED
  8
SAPA_PROFIL
 62
     4
  0
POLYLINE
  5
17A3
  8
SAPA_PROFIL
 66
     1
 10
0.0
 20
0.0
 30
0.0
 70
     1
  0
VERTEX
  5
24EE
  8
SAPA_PROFIL
 10
-33.050000000001319
 20
-2.700000000000045
 30
0.0
  0
VERTEX
  5
24EF
  8
SAPA_PROFIL
 10
-31.673765406424991
 20
-2.076719696698091
 30
0.0
 42
-0.5450207798987328
  0
VERTEX
  5
24F0
  8
SAPA_PROFIL
 10
-31.250000000001371
 20
-2.3499999999999091
 30
0.0
  0
VERTEX
  5
24F1
  8
SAPA_PROFIL
 10
-31.250000000001371
 20
-2.700000000000045
 30
0.0
  0
VERTEX
  5
24F2
  8
SAPA_PROFIL
 10
-31.000000000001361
 20
-2.700000000000045
 30
0.0
 42
0.4142135623730951
  0
VERTEX
  5
24F3
  8
SAPA_PROFIL
 10
-30.000000000001371
 20
-1.700000000000045
 30
0.0
  0
VERTEX
  5
24F4
  8
SAPA_PROFIL
 10
-30.000000000001371
 20
1.700000000000045
 30
0.0
 42
0.4142135623730951
  0
VERTEX
  5
24F5
  8
SAPA_PROFIL
 10
-31.000000000001361
 20
2.700000000000045
 30
0.0
  0
VERTEX
  5
24F6
  8
SAPA_PROFIL
 10
-32.150000000001228
 20
2.700000000000045
 30
0.0
  0
VERTEX
  5
24F7
  8
SAPA_PROFIL
 10
-32.150000000001228
 20
2.3499999999999091
 30
0.0
 42
-0.5450200690651551
  0
VERTEX
  5
24F8
  8
SAPA_PROFIL
 10
-32.573765000001231
 20
2.0767190000001392
 30
0.0
  0
VERTEX
  5
24F9
  8
SAPA_PROFIL
 10
-33.950000000001189
 20
2.700000000000045
 30
0.0
  0
VERTEX
  5
24FA
  8
SAPA_PROFIL
 10
-33.950000000001189
 20
2.3499999999999091
 30
0.0
 42
-0.5450200690651692
  0
VERTEX
  5
24FB
  8
SAPA_PROFIL
 10
-34.373765000001193
 20
2.0767190000001392
 30
0.0
  0
VERTEX
  5
24FC
  8
SAPA_PROFIL
 10
-35.750000000001357
 20
2.700000000000045
 30
0.0
  0
VERTEX
  5
24FD
  8
SAPA_PROFIL
 10
-35.750000000001357
 20
2.3499999999999091
 30
0.0
 42
-0.5450200690651619
  0
VERTEX
  5
24FE
  8
SAPA_PROFIL
 10
-36.173765000001367
 20
2.0767190000001392
 30
0.0
  0
VERTEX
  5
24FF
  8
SAPA_PROFIL
 10
-37.550000000001319
 20
2.700000000000045
 30
0.0
  0
VERTEX
  5
2500
  8
SAPA_PROFIL
 10
-37.550000000001319
 20
2.3499999999999091
 30
0.0
 42
-0.5450200690651619
  0
VERTEX
  5
2501
  8
SAPA_PROFIL
 10
-37.973765000001322
 20
2.0767190000001392
 30
0.0
  0
VERTEX
  5
2502
  8
SAPA_PROFIL
 10
-39.35000000000128
 20
2.700000000000045
 30
0.0
  0
VERTEX
  5
2503
  8
SAPA_PROFIL
 10
-39.35000000000128
 20
2.3499999999999091
 30
0.0
 42
-0.5450200690651692
  0
VERTEX
  5
2504
  8
SAPA_PROFIL
 10
-39.773765000001283
 20
2.0767190000001392
 30
0.0
  0
VERTEX
  5
2505
  8
SAPA_PROFIL
 10
-41.150000000001221
 20
2.700000000000045
 30
0.0
  0
VERTEX
  5
2506
  8
SAPA_PROFIL
 10
-41.450000000001182
 20
2.700000000000045
 30
0.0
  0
VERTEX
  5
2507
  8
SAPA_PROFIL
 10
-41.450000000001182
 20
-2.4282676335108131
 30
0.0
  0
VERTEX
  5
2508
  8
SAPA_PROFIL
 10
-40.673765406424991
 20
-2.076719696698091
 30
0.0
 42
-0.5450207798987328
  0
VERTEX
  5
2509
  8
SAPA_PROFIL
 10
-40.250000000001357
 20
-2.3499999999999091
 30
0.0
  0
VERTEX
  5
250A
  8
SAPA_PROFIL
 10
-40.250000000001357
 20
-2.700000000000045
 30
0.0
  0
VERTEX
  5
250B
  8
SAPA_PROFIL
 10
-38.873765000001193
 20
-2.0767200000000221
 30
0.0
 42
-0.5450205149791638
  0
VERTEX
  5
250C
  8
SAPA_PROFIL
 10
-38.450000000001182
 20
-2.3499999999999091
 30
0.0
  0
VERTEX
  5
250D
  8
SAPA_PROFIL
 10
-38.450000000001182
 20
-2.700000000000045
 30
0.0
  0
VERTEX
  5
250E
  8
SAPA_PROFIL
 10
-37.073765406424847
 20
-2.076719696698091
 30
0.0
 42
-0.545020779898768
  0
VERTEX
  5
250F
  8
SAPA_PROFIL
 10
-36.650000000001228
 20
-2.3499999999999091
 30
0.0
  0
VERTEX
  5
2510
  8
SAPA_PROFIL
 10
-36.650000000001228
 20
-2.700000000000045
 30
0.0
  0
VERTEX
  5
2511
  8
SAPA_PROFIL
 10
-35.2737654064249
 20
-2.076719696698091
 30
0.0
 42
-0.54502077989874
  0
VERTEX
  5
2512
  8
SAPA_PROFIL
 10
-34.850000000001273
 20
-2.3499999999999091
 30
0.0
  0
VERTEX
  5
2513
  8
SAPA_PROFIL
 10
-34.850000000001273
 20
-2.700000000000045
 30
0.0
  0
VERTEX
  5
2514
  8
SAPA_PROFIL
 10
-33.473765406424953
 20
-2.076719696698091
 30
0.0
 42
-0.545020779898761
  0
VERTEX
  5
2515
  8
SAPA_PROFIL
 10
-33.050000000001319
 20
-2.3499999999999091
 30
0.0
  0
SEQEND
  5
2516
  8
SAPA_PROFIL
  0
POLYLINE
  5
17A4
  8
SAPA_PROFIL
 66
     1
 10
0.0
 20
0.0
 30
0.0
 70
     1
  0
VERTEX
  5
2517
  8
SAPA_PROFIL
 10
58.024264068710629
 20
-23.0
 30
0.0
 42
-0.1989123673796753
  0
VERTEX
  5
2518
  8
SAPA_PROFIL
 10
57.812132034354811
 20
-22.91213203435586
 30
0.0
  0
VERTEX
  5
2519
  8
SAPA_PROFIL
 10
56.087867965642772
 20
-21.187867965644049
 30
0.0
 42
0.1989123673796753
  0
VERTEX
  5
251A
  8
SAPA_PROFIL
 10
55.875735931286727
 20
-21.099999999999909
 30
0.0
  0
VERTEX
  5
251B
  8
SAPA_PROFIL
 10
55.299999999998818
 20
-21.099999999999909
 30
0.0
 42
0.4142135623730951
  0
VERTEX
  5
251C
  8
SAPA_PROFIL
 10
54.999999999998643
 20
-21.400000000000091
 30
0.0
  0
VERTEX
  5
251D
  8
SAPA_PROFIL
 10
54.999999999998643
 20
-22.700000000000038
 30
0.0
 42
-0.4142135623730951
  0
VERTEX
  5
251E
  8
SAPA_PROFIL
 10
54.699999999998681
 20
-23.0
 30
0.0
  0
VERTEX
  5
251F
  8
SAPA_PROFIL
 10
29.999999999998639
 20
-23.0
 30
0.0
 42
-0.4142135623730951
  0
VERTEX
  5
2520
  8
SAPA_PROFIL
 10
28.999999999998629
 20
-22.0
 30
0.0
  0
VERTEX
  5
2521
  8
SAPA_PROFIL
 10
28.999999999998629
 20
-17.599999999999909
 30
0.0
 42
0.4142135623730951
  0
VERTEX
  5
2522
  8
SAPA_PROFIL
 10
28.699999999998681
 20
-17.299999999999951
 30
0.0
  0
VERTEX
  5
2523
  8
SAPA_PROFIL
 10
26.39999999999873
 20
-17.299999999999951
 30
0.0
 42
0.4142135623730951
  0
VERTEX
  5
2524
  8
SAPA_PROFIL
 10
26.099999999998769
 20
-17.599999999999909
 30
0.0
  0
VERTEX
  5
2525
  8
SAPA_PROFIL
 10
26.099999999998769
 20
-18.099999999999909
 30
0.0
 42
0.4142135623730951
  0
VERTEX
  5
2526
  8
SAPA_PROFIL
 10
26.39999999999873
 20
-18.400000000000091
 30
0.0
  0
VERTEX
  5
2527
  8
SAPA_PROFIL
 10
26.736626924633129
 20
-18.400000000000091
 30
0.0
 42
-0.5535245743249297
  0
VERTEX
  5
2528
  8
SAPA_PROFIL
 10
24.964107602123249
 20
-22.71055421153142
 30
0.0
  0
VERTEX
  5
2529
  8
SAPA_PROFIL
 10
24.67677669529531
 20
-22.423223304703239
 30
0.0
 42
0.4142135623729421
  0
VERTEX
  5
252A
  8
SAPA_PROFIL
 10
24.3232233047022
 20
-22.423223304703239
 30
0.0
  0
VERTEX
  5
252B
  8
SAPA_PROFIL
 10
24.03589239787425
 20
-22.71055421153142
 30
0.0
 42
-0.5535245743249292
  0
VERTEX
  5
252C
  8
SAPA_PROFIL
 10
22.26337307536415
 20
-18.400000000000091
 30
0.0
  0
VERTEX
  5
252D
  8
SAPA_PROFIL
 10
22.599999999998769
 20
-18.400000000000091
 30
0.0
 42
0.4142135623730951
  0
VERTEX
  5
252E
  8
SAPA_PROFIL
 10
22.89999999999873
 20
-18.099999999999909
 30
0.0
  0
VERTEX
  5
252F
  8
SAPA_PROFIL
 10
22.89999999999873
 20
-17.599999999999909
 30
0.0
 42
0.4142135623730951
  0
VERTEX
  5
2530
  8
SAPA_PROFIL
 10
22.599999999998769
 20
-17.299999999999951
 30
0.0
  0
VERTEX
  5
2531
  8
SAPA_PROFIL
 10
21.499999999998639
 20
-17.299999999999951
 30
0.0
 42
0.4142135623730951
  0
VERTEX
  5
2532
  8
SAPA_PROFIL
 10
19.999999999998629
 20
-18.799999999999951
 30
0.0
  0
VERTEX
  5
2533
  8
SAPA_PROFIL
 10
19.999999999998629
 20
-21.63397459621547
 30
0.0
 42
0.267949192431143
  0
VERTEX
  5
2534
  8
SAPA_PROFIL
 10
20.249999999998639
 20
-22.06698729810773
 30
0.0
 42
-0.767326987978956
  0
VERTEX
  5
2535
  8
SAPA_PROFIL
 10
19.999999999998629
 20
-23.0
 30
0.0
  0
VERTEX
  5
2536
  8
SAPA_PROFIL
 10
-15.000000000001361
 20
-23.0
 30
0.0
 42
-0.4142135623730951
  0
VERTEX
  5
2537
  8
SAPA_PROFIL
 10
-16.000000000001361
 20
-22.0
 30
0.0
  0
VERTEX
  5
2538
  8
SAPA_PROFIL
 10
-16.000000000001361
 20
-17.599999999999909
 30
0.0
 42
0.4142135623730951
  0
VERTEX
  5
2539
  8
SAPA_PROFIL
 10
-16.300000000001319
 20
-17.299999999999951
 30
0.0
  0
VERTEX
  5
253A
  8
SAPA_PROFIL
 10
-18.60000000000127
 20
-17.299999999999951
 30
0.0
 42
0.4142135623730951
  0
VERTEX
  5
253B
  8
SAPA_PROFIL
 10
-18.900000000001231
 20
-17.599999999999909
 30
0.0
  0
VERTEX
  5
253C
  8
SAPA_PROFIL
 10
-18.900000000001231
 20
-18.099999999999909
 30
0.0
 42
0.4142135623730951
  0
VERTEX
  5
253D
  8
SAPA_PROFIL
 10
-18.60000000000127
 20
-18.400000000000091
 30
0.0
  0
VERTEX
  5
253E
  8
SAPA_PROFIL
 10
-18.263373075366871
 20
-18.400000000000091
 30
0.0
 42
-0.5535245743249297
  0
VERTEX
  5
253F
  8
SAPA_PROFIL
 10
-20.035892397876751
 20
-22.71055421153142
 30
0.0
  0
VERTEX
  5
2540
  8
SAPA_PROFIL
 10
-20.323223304704701
 20
-22.423223304703239
 30
0.0
 42
0.4142135623730243
  0
VERTEX
  5
2541
  8
SAPA_PROFIL
 10
-20.6767766952978
 20
-22.42322330470347
 30
0.0
  0
VERTEX
  5
2542
  8
SAPA_PROFIL
 10
-20.96410760212575
 20
-22.71055421153142
 30
0.0
 42
-0.5535245743249292
  0
VERTEX
  5
2543
  8
SAPA_PROFIL
 10
-22.736626924635861
 20
-18.400000000000091
 30
0.0
  0
VERTEX
  5
2544
  8
SAPA_PROFIL
 10
-22.400000000001231
 20
-18.400000000000091
 30
0.0
 42
0.4142135623730951
  0
VERTEX
  5
2545
  8
SAPA_PROFIL
 10
-22.10000000000127
 20
-18.099999999999909
 30
0.0
  0
VERTEX
  5
2546
  8
SAPA_PROFIL
 10
-22.10000000000127
 20
-17.599999999999909
 30
0.0
 42
0.4142135623730951
  0
VERTEX
  5
2547
  8
SAPA_PROFIL
 10
-22.400000000001231
 20
-17.299999999999951
 30
0.0
  0
VERTEX
  5
2548
  8
SAPA_PROFIL
 10
-23.500000000001361
 20
-17.299999999999951
 30
0.0
 42
0.4142135623730951
  0
VERTEX
  5
2549
  8
SAPA_PROFIL
 10
-25.000000000001371
 20
-18.799999999999951
 30
0.0
  0
VERTEX
  5
254A
  8
SAPA_PROFIL
 10
-25.000000000001371
 20
-21.78038475772928
 30
0.0
 42
0.2679491924311188
  0
VERTEX
  5
254B
  8
SAPA_PROFIL
 10
-24.85000000000127
 20
-22.040192378864731
 30
0.0
 42
-0.7673269879789557
  0
VERTEX
  5
254C
  8
SAPA_PROFIL
 10
-25.000000000001371
 20
-22.599999999999909
 30
0.0
  0
VERTEX
  5
254D
  8
SAPA_PROFIL
 10
-27.000000000001361
 20
-22.599999999999682
 30
0.0
 42
-0.4142137811865366
  0
VERTEX
  5
254E
  8
SAPA_PROFIL
 10
-28.000000000001371
 20
-21.600000747075232
 30
0.0
  0
VERTEX
  5
254F
  8
SAPA_PROFIL
 10
-28.000000000001371
 20
21.599999999999909
 30
0.0
 42
-0.4142140000000124
  0
VERTEX
  5
2550
  8
SAPA_PROFIL
 10
-27.000000000001361
 20
22.599999999999909
 30
0.0
  0
VERTEX
  5
2551
  8
SAPA_PROFIL
 10
-25.000000000001371
 20
22.599999999999909
 30
0.0
 42
-0.7673269879789457
  0
VERTEX
  5
2552
  8
SAPA_PROFIL
 10
-24.85000000000127
 20
22.040192378864731
 30
0.0
 42
0.2679491924311191
  0
VERTEX
  5
2553
  8
SAPA_PROFIL
 10
-25.000000000001371
 20
21.78038475772928
 30
0.0
  0
VERTEX
  5
2554
  8
SAPA_PROFIL
 10
-25.000000000001371
 20
18.799999999999951
 30
0.0
 42
0.4142135623730951
  0
VERTEX
  5
2555
  8
SAPA_PROFIL
 10
-23.500000000001361
 20
17.299999999999951
 30
0.0
  0
VERTEX
  5
2556
  8
SAPA_PROFIL
 10
-22.400000000001231
 20
17.299999999999951
 30
0.0
 42
0.4142135623730951
  0
VERTEX
  5
2557
  8
SAPA_PROFIL
 10
-22.10000000000127
 20
17.599999999999909
 30
0.0
  0
VERTEX
  5
2558
  8
SAPA_PROFIL
 10
-22.10000000000127
 20
18.099999999999909
 30
0.0
 42
0.4142135623730951
  0
VERTEX
  5
2559
  8
SAPA_PROFIL
 10
-22.400000000001231
 20
18.400000000000091
 30
0.0
  0
VERTEX
  5
255A
  8
SAPA_PROFIL
 10
-22.736626924635861
 20
18.400000000000091
 30
0.0
 42
-0.5535245743249307
  0
VERTEX
  5
255B
  8
SAPA_PROFIL
 10
-20.96410760212575
 20
22.71055421153142
 30
0.0
  0
VERTEX
  5
255C
  8
SAPA_PROFIL
 10
-20.6767766952978
 20
22.42322330470347
 30
0.0
 42
0.4142135623730951
  0
VERTEX
  5
255D
  8
SAPA_PROFIL
 10
-20.323223304704701
 20
22.42322330470347
 30
0.0
  0
VERTEX
  5
255E
  8
SAPA_PROFIL
 10
-20.035892397876751
 20
22.71055421153142
 30
0.0
 42
-0.553524574324932
  0
VERTEX
  5
255F
  8
SAPA_PROFIL
 10
-18.263373075366871
 20
18.400000000000091
 30
0.0
  0
VERTEX
  5
2560
  8
SAPA_PROFIL
 10
-18.60000000000127
 20
18.400000000000091
 30
0.0
 42
0.4142135623730951
  0
VERTEX
  5
2561
  8
SAPA_PROFIL
 10
-18.900000000001231
 20
18.099999999999909
 30
0.0
  0
VERTEX
  5
2562
  8
SAPA_PROFIL
 10
-18.900000000001231
 20
17.599999999999909
 30
0.0
 42
0.4142135623730951
  0
VERTEX
  5
2563
  8
SAPA_PROFIL
 10
-18.60000000000127
 20
17.299999999999951
 30
0.0
  0
VERTEX
  5
2564
  8
SAPA_PROFIL
 10
-16.300000000001319
 20
17.299999999999951
 30
0.0
 42
0.4142135623730951
  0
VERTEX
  5
2565
  8
SAPA_PROFIL
 10
-16.000000000001361
 20
17.599999999999909
 30
0.0
  0
VERTEX
  5
2566
  8
SAPA_PROFIL
 10
-16.000000000001361
 20
22.0
 30
0.0
 42
-0.4142135623730951
  0
VERTEX
  5
2567
  8
SAPA_PROFIL
 10
-15.000000000001361
 20
23.0
 30
0.0
  0
VERTEX
  5
2568
  8
SAPA_PROFIL
 10
19.999999999998629
 20
23.0
 30
0.0
 42
-0.7673269879789569
  0
VERTEX
  5
2569
  8
SAPA_PROFIL
 10
20.249999999998639
 20
22.06698729810773
 30
0.0
 42
0.2679491924311163
  0
VERTEX
  5
256A
  8
SAPA_PROFIL
 10
19.999999999998629
 20
21.63397459621547
 30
0.0
  0
VERTEX
  5
256B
  8
SAPA_PROFIL
 10
19.999999999998629
 20
18.799999999999951
 30
0.0
 42
0.4142135623730951
  0
VERTEX
  5
256C
  8
SAPA_PROFIL
 10
21.499999999998639
 20
17.299999999999951
 30
0.0
  0
VERTEX
  5
256D
  8
SAPA_PROFIL
 10
22.599999999998769
 20
17.299999999999951
 30
0.0
 42
0.4142135623730951
  0
VERTEX
  5
256E
  8
SAPA_PROFIL
 10
22.89999999999873
 20
17.599999999999909
 30
0.0
  0
VERTEX
  5
256F
  8
SAPA_PROFIL
 10
22.89999999999873
 20
18.099999999999909
 30
0.0
 42
0.4142135623730951
  0
VERTEX
  5
2570
  8
SAPA_PROFIL
 10
22.599999999998769
 20
18.400000000000091
 30
0.0
  0
VERTEX
  5
2571
  8
SAPA_PROFIL
 10
22.26337307536415
 20
18.400000000000091
 30
0.0
 42
-0.5535245743249307
  0
VERTEX
  5
2572
  8
SAPA_PROFIL
 10
24.03589239787425
 20
22.71055421153142
 30
0.0
  0
VERTEX
  5
2573
  8
SAPA_PROFIL
 10
24.3232233047022
 20
22.42322330470347
 30
0.0
 42
0.4142135623731068
  0
VERTEX
  5
2574
  8
SAPA_PROFIL
 10
24.67677669529531
 20
22.423223304703239
 30
0.0
  0
VERTEX
  5
2575
  8
SAPA_PROFIL
 10
24.964107602123249
 20
22.71055421153142
 30
0.0
 42
-0.553524574324932
  0
VERTEX
  5
2576
  8
SAPA_PROFIL
 10
26.736626924633129
 20
18.400000000000091
 30
0.0
  0
VERTEX
  5
2577
  8
SAPA_PROFIL
 10
26.39999999999873
 20
18.400000000000091
 30
0.0
 42
0.4142135623730951
  0
VERTEX
  5
2578
  8
SAPA_PROFIL
 10
26.099999999998769
 20
18.099999999999909
 30
0.0
  0
VERTEX
  5
2579
  8
SAPA_PROFIL
 10
26.099999999998769
 20
17.599999999999909
 30
0.0
 42
0.4142135623730951
  0
VERTEX
  5
257A
  8
SAPA_PROFIL
 10
26.39999999999873
 20
17.299999999999951
 30
0.0
  0
VERTEX
  5
257B
  8
SAPA_PROFIL
 10
28.699999999998681
 20
17.299999999999951
 30
0.0
 42
0.4142135623730951
  0
VERTEX
  5
257C
  8
SAPA_PROFIL
 10
28.999999999998629
 20
17.599999999999909
 30
0.0
  0
VERTEX
  5
257D
  8
SAPA_PROFIL
 10
28.999999999998629
 20
22.0
 30
0.0
 42
-0.4142135623730951
  0
VERTEX
  5
257E
  8
SAPA_PROFIL
 10
29.999999999998639
 20
23.0
 30
0.0
  0
VERTEX
  5
257F
  8
SAPA_PROFIL
 10
54.699999999998681
 20
23.0
 30
0.0
 42
-0.4142135623730951
  0
VERTEX
  5
2580
  8
SAPA_PROFIL
 10
54.999999999998643
 20
22.700000000000038
 30
0.0
  0
VERTEX
  5
2581
  8
SAPA_PROFIL
 10
54.999999999998643
 20
21.400000000000091
 30
0.0
 42
0.4142135623730951
  0
VERTEX
  5
2582
  8
SAPA_PROFIL
 10
55.299999999998818
 20
21.099999999999909
 30
0.0
  0
VERTEX
  5
2583
  8
SAPA_PROFIL
 10
55.875735931286727
 20
21.099999999999909
 30
0.0
 42
0.1989123673796752
  0
VERTEX
  5
2584
  8
SAPA_PROFIL
 10
56.087867965642772
 20
21.187867965644049
 30
0.0
  0
VERTEX
  5
2585
  8
SAPA_PROFIL
 10
57.812132034354811
 20
22.912132034356091
 30
0.0
 42
-0.1989123673796057
  0
VERTEX
  5
2586
  8
SAPA_PROFIL
 10
58.024264068710629
 20
23.0
 30
0.0
  0
VERTEX
  5
2587
  8
SAPA_PROFIL
 10
61.499999999998629
 20
23.0
 30
0.0
 42
-0.4142135623730951
  0
VERTEX
  5
2588
  8
SAPA_PROFIL
 10
62.499999999998643
 20
22.0
 30
0.0
  0
VERTEX
  5
2589
  8
SAPA_PROFIL
 10
62.499999999998643
 20
-22.0
 30
0.0
 42
-0.4142135623730951
  0
VERTEX
  5
258A
  8
SAPA_PROFIL
 10
61.499999999998629
 20
-23.0
 30
0.0
  0
SEQEND
  5
258B
  8
SAPA_PROFIL
  0
POLYLINE
  5
17A5
  8
SAPA_PROFIL
 66
     1
 10
0.0
 20
0.0
 30
0.0
 70
     1
  0
VERTEX
  5
258C
  8
SAPA_PROFIL
 10
-30.000000000001371
 20
-6.0
 30
0.0
 42
0.4142135623730951
  0
VERTEX
  5
258D
  8
SAPA_PROFIL
 10
-31.000000000001361
 20
-5.0
 30
0.0
  0
VERTEX
  5
258E
  8
SAPA_PROFIL
 10
-52.200000000001182
 20
-5.0
 30
0.0
 42
-0.4142135623730951
  0
VERTEX
  5
258F
  8
SAPA_PROFIL
 10
-52.500000000001357
 20
-4.7000000000000446
 30
0.0
  0
VERTEX
  5
2590
  8
SAPA_PROFIL
 10
-52.500000000001357
 20
-3.0757360000000058
 30
0.0
  0
VERTEX
  5
2591
  8
SAPA_PROFIL
 10
-51.562132034357091
 20
-2.237867965643999
 30
0.0
 42
-0.668178637919305
  0
VERTEX
  5
2592
  8
SAPA_PROFIL
 10
-51.050000000001312
 20
-2.450000000000045
 30
0.0
  0
VERTEX
  5
2593
  8
SAPA_PROFIL
 10
-51.050000000001312
 20
-2.700000000000045
 30
0.0
  0
VERTEX
  5
2594
  8
SAPA_PROFIL
 10
-49.673765406424991
 20
-2.176719696698
 30
0.0
 42
-0.5450207798987201
  0
VERTEX
  5
2595
  8
SAPA_PROFIL
 10
-49.250000000001357
 20
-2.450000000000045
 30
0.0
  0
VERTEX
  5
2596
  8
SAPA_PROFIL
 10
-49.250000000001357
 20
-2.700000000000045
 30
0.0
  0
VERTEX
  5
2597
  8
SAPA_PROFIL
 10
-47.873765406424809
 20
-2.176719696698
 30
0.0
 42
-0.5450207798987201
  0
VERTEX
  5
2598
  8
SAPA_PROFIL
 10
-47.450000000001182
 20
-2.450000000000045
 30
0.0
  0
VERTEX
  5
2599
  8
SAPA_PROFIL
 10
-47.450000000001182
 20
-2.700000000000045
 30
0.0
  0
VERTEX
  5
259A
  8
SAPA_PROFIL
 10
-46.073765406424847
 20
-2.176719696698
 30
0.0
 42
-0.5450207798987342
  0
VERTEX
  5
259B
  8
SAPA_PROFIL
 10
-45.650000000001221
 20
-2.450000000000045
 30
0.0
  0
VERTEX
  5
259C
  8
SAPA_PROFIL
 10
-45.650000000001221
 20
-2.700000000000045
 30
0.0
  0
VERTEX
  5
259D
  8
SAPA_PROFIL
 10
-44.2737654064249
 20
-2.176719696698
 30
0.0
 42
-0.5450207798987201
  0
VERTEX
  5
259E
  8
SAPA_PROFIL
 10
-43.850000000001273
 20
-2.450000000000045
 30
0.0
  0
VERTEX
  5
259F
  8
SAPA_PROFIL
 10
-43.850000000001273
 20
-2.700000000000045
 30
0.0
  0
VERTEX
  5
25A0
  8
SAPA_PROFIL
 10
-43.126282705195081
 20
-2.4722372826158781
 30
0.0
 42
0.2945484962563026
  0
VERTEX
  5
25A1
  8
SAPA_PROFIL
 10
-42.950048040246877
 20
-2.1988824689376538
 30
0.0
  0
VERTEX
  5
25A2
  8
SAPA_PROFIL
 10
-42.950255222213393
 20
-1.264299937748091
 30
0.0
 42
-0.3475954753796591
  0
VERTEX
  5
25A3
  8
SAPA_PROFIL
 10
-42.719501178044311
 20
-0.9723265106781582
 30
0.0
 42
0.790522909611319
  0
VERTEX
  5
25A4
  8
SAPA_PROFIL
 10
-42.71949097360379
 20
0.9736640898654513
 30
0.0
 42
-0.3476065658631364
  0
VERTEX
  5
25A5
  8
SAPA_PROFIL
 10
-42.950241952336
 20
1.265651810886993
 30
0.0
  0
VERTEX
  5
25A6
  8
SAPA_PROFIL
 10
-42.950095231627067
 20
1.8499926620934271
 30
0.0
 42
0.4102317530969976
  0
VERTEX
  5
25A7
  8
SAPA_PROFIL
 10
-43.245946879780597
 20
2.1500282985857662
 30
0.0
 42
-0.0712587206050384
  0
VERTEX
  5
25A8
  8
SAPA_PROFIL
 10
-43.329990804708807
 20
2.1632556124552589
 30
0.0
  0
VERTEX
  5
25A9
  8
SAPA_PROFIL
 10
-44.750000000001357
 20
2.700000000000045
 30
0.0
  0
VERTEX
  5
25AA
  8
SAPA_PROFIL
 10
-44.750000000001357
 20
2.450000000000045
 30
0.0
 42
-0.5450200690651619
  0
VERTEX
  5
25AB
  8
SAPA_PROFIL
 10
-45.17376500000136
 20
2.1767190000000478
 30
0.0
  0
VERTEX
  5
25AC
  8
SAPA_PROFIL
 10
-46.550000000001312
 20
2.700000000000045
 30
0.0
  0
VERTEX
  5
25AD
  8
SAPA_PROFIL
 10
-46.550000000001091
 20
2.450000000000045
 30
0.0
 42
-0.545020069065176
  0
VERTEX
  5
25AE
  8
SAPA_PROFIL
 10
-46.973765000001322
 20
2.1767190000000478
 30
0.0
  0
VERTEX
  5
25AF
  8
SAPA_PROFIL
 10
-48.350000000001273
 20
2.700000000000045
 30
0.0
  0
VERTEX
  5
25B0
  8
SAPA_PROFIL
 10
-48.350000000001273
 20
2.450000000000045
 30
0.0
 42
-0.5450200690651692
  0
VERTEX
  5
25B1
  8
SAPA_PROFIL
 10
-48.773765000001283
 20
2.1767190000000478
 30
0.0
  0
VERTEX
  5
25B2
  8
SAPA_PROFIL
 10
-50.150000000001228
 20
2.700000000000045
 30
0.0
  0
VERTEX
  5
25B3
  8
SAPA_PROFIL
 10
-50.150000000001228
 20
2.1500000000000901
 30
0.0
  0
VERTEX
  5
25B4
  8
SAPA_PROFIL
 10
-51.350000000001273
 20
2.1500000000000901
 30
0.0
 42
-0.1989123673797004
  0
VERTEX
  5
25B5
  8
SAPA_PROFIL
 10
-51.562132000001377
 20
2.237867999999934
 30
0.0
  0
VERTEX
  5
25B6
  8
SAPA_PROFIL
 10
-52.500000000001357
 20
3.0757360000000058
 30
0.0
  0
VERTEX
  5
25B7
  8
SAPA_PROFIL
 10
-52.500000000001357
 20
4.7000000000000446
 30
0.0
 42
-0.4142135623730951
  0
VERTEX
  5
25B8
  8
SAPA_PROFIL
 10
-52.200000000001182
 20
5.0
 30
0.0
  0
VERTEX
  5
25B9
  8
SAPA_PROFIL
 10
-31.000000000001361
 20
5.0
 30
0.0
 42
0.4142135623730951
  0
VERTEX
  5
25BA
  8
SAPA_PROFIL
 10
-30.000000000001371
 20
6.0
 30
0.0
  0
VERTEX
  5
25BB
  8
SAPA_PROFIL
 10
-30.000000000001371
 20
14.20000000000004
 30
0.0
 42
0.4142135623730951
  0
VERTEX
  5
25BC
  8
SAPA_PROFIL
 10
-30.500000000001371
 20
14.70000000000004
 30
0.0
  0
VERTEX
  5
25BD
  8
SAPA_PROFIL
 10
-33.700000000001182
 20
14.70000000000004
 30
0.0
 42
0.4142135623730951
  0
VERTEX
  5
25BE
  8
SAPA_PROFIL
 10
-34.200000000001182
 20
14.20000000000004
 30
0.0
  0
VERTEX
  5
25BF
  8
SAPA_PROFIL
 10
-34.200000000001182
 20
11.299999999999949
 30
0.0
 42
-0.4142135623730951
  0
VERTEX
  5
25C0
  8
SAPA_PROFIL
 10
-34.500000000001357
 20
11.0
 30
0.0
  0
VERTEX
  5
25C1
  8
SAPA_PROFIL
 10
-35.200000000001189
 20
11.0
 30
0.0
 42
-0.4142135623730951
  0
VERTEX
  5
25C2
  8
SAPA_PROFIL
 10
-35.500000000001371
 20
11.299999999999949
 30
0.0
  0
VERTEX
  5
25C3
  8
SAPA_PROFIL
 10
-35.500000000001371
 20
18.0
 30
0.0
  0
VERTEX
  5
25C4
  8
SAPA_PROFIL
 10
-35.035076580642233
 20
18.586384015500698
 30
0.0
 42
-0.7105995019814511
  0
VERTEX
  5
25C5
  8
SAPA_PROFIL
 10
-34.500000000001357
 20
18.400000000000091
 30
0.0
  0
VERTEX
  5
25C6
  8
SAPA_PROFIL
 10
-34.500000000001357
 20
16.5
 30
0.0
 42
0.4142135623730951
  0
VERTEX
  5
25C7
  8
SAPA_PROFIL
 10
-34.200000000001182
 20
16.200000000000038
 30
0.0
  0
VERTEX
  5
25C8
  8
SAPA_PROFIL
 10
-30.300000000001319
 20
16.200000000000038
 30
0.0
 42
0.4142135623730951
  0
VERTEX
  5
25C9
  8
SAPA_PROFIL
 10
-30.000000000001371
 20
16.5
 30
0.0
  0
VERTEX
  5
25CA
  8
SAPA_PROFIL
 10
-30.000000000001371
 20
23.200000000000049
 30
0.0
 42
0.4142135623730951
  0
VERTEX
  5
25CB
  8
SAPA_PROFIL
 10
-30.300000000001319
 20
23.5
 30
0.0
  0
VERTEX
  5
25CC
  8
SAPA_PROFIL
 10
-34.200000000001182
 20
23.5
 30
0.0
 42
0.4142135623730951
  0
VERTEX
  5
25CD
  8
SAPA_PROFIL
 10
-34.500000000001357
 20
23.200000000000049
 30
0.0
  0
VERTEX
  5
25CE
  8
SAPA_PROFIL
 10
-34.500000000001357
 20
22.0
 30
0.0
 42
-0.7105990647993611
  0
VERTEX
  5
25CF
  8
SAPA_PROFIL
 10
-35.035076000001247
 20
21.813615999999911
 30
0.0
  0
VERTEX
  5
25D0
  8
SAPA_PROFIL
 10
-35.500000000001371
 20
22.400000000000091
 30
0.0
  0
VERTEX
  5
25D1
  8
SAPA_PROFIL
 10
-35.500000000001371
 20
24.700000000000049
 30
0.0
 42
-0.4142135623730951
  0
VERTEX
  5
25D2
  8
SAPA_PROFIL
 10
-35.200000000001189
 20
25.0
 30
0.0
  0
VERTEX
  5
25D3
  8
SAPA_PROFIL
 10
63.999999999998629
 20
25.0
 30
0.0
 42
-0.4142135623730951
  0
VERTEX
  5
25D4
  8
SAPA_PROFIL
 10
64.499999999998636
 20
24.5
 30
0.0
  0
VERTEX
  5
25D5
  8
SAPA_PROFIL
 10
64.499999999998636
 20
-24.5
 30
0.0
 42
-0.4142135623730951
  0
VERTEX
  5
25D6
  8
SAPA_PROFIL
 10
63.999999999998629
 20
-25.0
 30
0.0
  0
VERTEX
  5
25D7
  8
SAPA_PROFIL
 10
-35.200000000001189
 20
-25.0
 30
0.0
 42
-0.4142135623730951
  0
VERTEX
  5
25D8
  8
SAPA_PROFIL
 10
-35.500000000001371
 20
-24.700000000000049
 30
0.0
  0
VERTEX
  5
25D9
  8
SAPA_PROFIL
 10
-35.500000000001371
 20
-22.400000000000091
 30
0.0
  0
VERTEX
  5
25DA
  8
SAPA_PROFIL
 10
-35.035076580642233
 20
-21.813615984499389
 30
0.0
 42
-0.7105995019814511
  0
VERTEX
  5
25DB
  8
SAPA_PROFIL
 10
-34.500000000001357
 20
-22.0
 30
0.0
  0
VERTEX
  5
25DC
  8
SAPA_PROFIL
 10
-34.500000000001357
 20
-23.200000000000049
 30
0.0
 42
0.4142135623730951
  0
VERTEX
  5
25DD
  8
SAPA_PROFIL
 10
-34.200000000001182
 20
-23.5
 30
0.0
  0
VERTEX
  5
25DE
  8
SAPA_PROFIL
 10
-30.300000000001319
 20
-23.5
 30
0.0
 42
0.4142135623730951
  0
VERTEX
  5
25DF
  8
SAPA_PROFIL
 10
-30.000000000001371
 20
-23.200000000000049
 30
0.0
  0
VERTEX
  5
25E0
  8
SAPA_PROFIL
 10
-30.000000000001371
 20
-16.5
 30
0.0
 42
0.4142135623730951
  0
VERTEX
  5
25E1
  8
SAPA_PROFIL
 10
-30.300000000001319
 20
-16.200000000000038
 30
0.0
  0
VERTEX
  5
25E2
  8
SAPA_PROFIL
 10
-34.200000000001182
 20
-16.200000000000038
 30
0.0
 42
0.4142135623730951
  0
VERTEX
  5
25E3
  8
SAPA_PROFIL
 10
-34.500000000001357
 20
-16.5
 30
0.0
  0
VERTEX
  5
25E4
  8
SAPA_PROFIL
 10
-34.500000000001357
 20
-18.400000000000091
 30
0.0
 42
-0.7105995019814511
  0
VERTEX
  5
25E5
  8
SAPA_PROFIL
 10
-35.035076580642233
 20
-18.586384015500698
 30
0.0
  0
VERTEX
  5
25E6
  8
SAPA_PROFIL
 10
-35.500000000001371
 20
-18.0
 30
0.0
  0
VERTEX
  5
25E7
  8
SAPA_PROFIL
 10
-35.500000000001371
 20
-11.299999999999949
 30
0.0
 42
-0.4142135623730951
  0
VERTEX
  5
25E8
  8
SAPA_PROFIL
 10
-35.200000000001189
 20
-11.0
 30
0.0
  0
VERTEX
  5
25E9
  8
SAPA_PROFIL
 10
-34.500000000001357
 20
-11.0
 30
0.0
 42
-0.4142135623730951
  0
VERTEX
  5
25EA
  8
SAPA_PROFIL
 10
-34.200000000001182
 20
-11.299999999999949
 30
0.0
  0
VERTEX
  5
25EB
  8
SAPA_PROFIL
 10
-34.200000000001182
 20
-14.20000000000004
 30
0.0
 42
0.4142135623730951
  0
VERTEX
  5
25EC
  8
SAPA_PROFIL
 10
-33.700000000001182
 20
-14.70000000000004
 30
0.0
  0
VERTEX
  5
25ED
  8
SAPA_PROFIL
 10
-30.500000000001371
 20
-14.70000000000004
 30
0.0
 42
0.4142135623730951
  0
VERTEX
  5
25EE
  8
SAPA_PROFIL
 10
-30.000000000001371
 20
-14.20000000000004
 30
0.0
  0
SEQEND
  5
25EF
  8
SAPA_PROFIL
  0
POLYLINE
  5
17B4
  8
SAPA_GLAS
 66
     1
 10
0.0
 20
0.0
 30
0.0
  0
VERTEX
  5
2624
  8
SAPA_GLAS
 10
-48.499999999010257
 20
-40.999999999995673
 30
0.0
  0
VERTEX
  5
2625
  8
SAPA_GLAS
 10
-48.499999999010249
 20
-10.999999999995669
 30
0.0
  0
VERTEX
  5
2626
  8
SAPA_GLAS
 10
-44.499999999010257
 20
-10.999999999995669
 30
0.0
  0
VERTEX
  5
2627
  8
SAPA_GLAS
 10
-44.499999999010257
 20
-40.999999999995673
 30
0.0
  0
SEQEND
  5
2628
  8
SAPA_GLAS
  0
POLYLINE
  5
17B5
  8
SAPA_GLAS
 66
     1
 10
0.0
 20
0.0
 30
0.0
  0
VERTEX
  5
2629
  8
SAPA_GLAS
 10
-60.499999999010249
 20
-20.99999999999476
 30
0.0
  0
VERTEX
  5
262A
  8
SAPA_GLAS
 10
-48.499999999010257
 20
-20.99999999999477
 30
0.0
  0
VERTEX
  5
262B
  8
SAPA_GLAS
 10
-48.499999999010249
 20
-10.999999999995669
 30
0.0
  0
VERTEX
  5
262C
  8
SAPA_GLAS
 10
-60.499999999010249
 20
-10.999999999995669
 30
0.0
  0
VERTEX
  5
262D
  8
SAPA_GLAS
 10
-60.499999999010249
 20
-20.99999999999476
 30
0.0
  0
SEQEND
  5
262E
  8
SAPA_GLAS
  0
POLYLINE
  5
17B6
  8
SAPA_GLAS
 66
     1
 10
0.0
 20
0.0
 30
0.0
  0
VERTEX
  5
262F
  8
SAPA_GLAS
 10
-64.499999999010257
 20
-40.999999999995673
 30
0.0
  0
VERTEX
  5
2630
  8
SAPA_GLAS
 10
-64.499999999010242
 20
-10.999999999995669
 30
0.0
  0
VERTEX
  5
2631
  8
SAPA_GLAS
 10
-60.499999999010249
 20
-10.999999999995669
 30
0.0
  0
VERTEX
  5
2632
  8
SAPA_GLAS
 10
-60.499999999010249
 20
-40.999999999995673
 30
0.0
  0
SEQEND
  5
2633
  8
SAPA_GLAS
  0
POLYLINE
  5
17B7
  8
SAPA_GLAS
 66
     1
 10
0.0
 20
0.0
 30
0.0
  0
VERTEX
  5
2634
  8
SAPA_GLAS
 10
-76.499999999011848
 20
-20.99999999999476
 30
0.0
  0
VERTEX
  5
2635
  8
SAPA_GLAS
 10
-64.499999999010257
 20
-20.99999999999476
 30
0.0
  0
VERTEX
  5
2636
  8
SAPA_GLAS
 10
-64.499999999010242
 20
-10.999999999995669
 30
0.0
  0
VERTEX
  5
2637
  8
SAPA_GLAS
 10
-76.499999999011834
 20
-10.999999999995669
 30
0.0
  0
VERTEX
  5
2638
  8
SAPA_GLAS
 10
-76.499999999011848
 20
-20.99999999999476
 30
0.0
  0
SEQEND
  5
2639
  8
SAPA_GLAS
  0
POLYLINE
  5
17B8
  8
SAPA_GLAS
 66
     1
 10
0.0
 20
0.0
 30
0.0
  0
VERTEX
  5
263A
  8
SAPA_GLAS
 10
-82.499999999011834
 20
-40.999999999995673
 30
0.0
  0
VERTEX
  5
263B
  8
SAPA_GLAS
 10
-82.499999999011834
 20
-10.999999999995669
 30
0.0
  0
VERTEX
  5
263C
  8
SAPA_GLAS
 10
-76.499999999011834
 20
-10.999999999995669
 30
0.0
  0
VERTEX
  5
263D
  8
SAPA_GLAS
 10
-76.499999999011848
 20
-40.999999999995673
 30
0.0
  0
SEQEND
  5
263E
  8
SAPA_GLAS
  0
POLYLINE
  5
17B9
  8
SAPA_GLAS
 66
     1
 10
0.0
 20
0.0
 30
0.0
 70
     1
  0
VERTEX
  5
263F
  8
SAPA_GLAS
 10
-67.501284435459013
 20
110.9999999998263
 30
0.0
  0
VERTEX
  5
2640
  8
SAPA_GLAS
 10
-52.501284435459013
 20
110.9999999998263
 30
0.0
  0
VERTEX
  5
2641
  8
SAPA_GLAS
 10
-52.501284435459013
 20
100.9999999998263
 30
0.0
  0
VERTEX
  5
2642
  8
SAPA_GLAS
 10
-67.501284435459013
 20
100.9999999998263
 30
0.0
  0
SEQEND
  5
2643
  8
SAPA_GLAS
  0
POLYLINE
  5
17BA
  8
SAPA_GLAS
 66
     1
 10
0.0
 20
0.0
 30
0.0
 70
     1
  0
VERTEX
  5
2644
  8
SAPA_GLAS
 10
-48.50128443545902
 20
110.9999999998263
 30
0.0
  0
VERTEX
  5
2645
  8
SAPA_GLAS
 10
-33.50128443545902
 20
110.9999999998263
 30
0.0
  0
VERTEX
  5
2646
  8
SAPA_GLAS
 10
-33.50128443545902
 20
100.9999999998263
 30
0.0
  0
VERTEX
  5
2647
  8
SAPA_GLAS
 10
-48.50128443545902
 20
100.9999999998263
 30
0.0
  0
SEQEND
  5
2648
  8
SAPA_GLAS
  0
POLYLINE
  5
17BB
  8
SAPA_GLAS
 66
     1
 10
0.0
 20
0.0
 30
0.0
  0
VERTEX
  5
2649
  8
SAPA_GLAS
 10
-48.50128443545902
 20
130.99999999982609
 30
0.0
  0
VERTEX
  5
264A
  8
SAPA_GLAS
 10
-48.50128443545902
 20
100.9999999998261
 30
0.0
  0
VERTEX
  5
264B
  8
SAPA_GLAS
 10
-52.501284435459013
 20
100.9999999998261
 30
0.0
  0
VERTEX
  5
264C
  8
SAPA_GLAS
 10
-52.501284435459013
 20
130.99999999982609
 30
0.0
  0
SEQEND
  5
264D
  8
SAPA_GLAS
  0
POLYLINE
  5
17BC
  8
SAPA_GLAS
 66
     1
 10
0.0
 20
0.0
 30
0.0
  0
VERTEX
  5
264E
  8
SAPA_GLAS
 10
-27.501284435459009
 20
130.99999999982609
 30
0.0
  0
VERTEX
  5
264F
  8
SAPA_GLAS
 10
-27.501284435459009
 20
100.9999999998261
 30
0.0
  0
VERTEX
  5
2650
  8
SAPA_GLAS
 10
-33.50128443545902
 20
100.9999999998261
 30
0.0
  0
VERTEX
  5
2651
  8
SAPA_GLAS
 10
-33.501284435459013
 20
130.99999999982609
 30
0.0
  0
SEQEND
  5
2652
  8
SAPA_GLAS
  0
POLYLINE
  5
17BD
  8
SAPA_GLAS
 66
     1
 10
0.0
 20
0.0
 30
0.0
  0
VERTEX
  5
2653
  8
SAPA_GLAS
 10
-73.501284435459013
 20
130.99999999982609
 30
0.0
  0
VERTEX
  5
2654
  8
SAPA_GLAS
 10
-73.501284435459013
 20
100.9999999998261
 30
0.0
  0
VERTEX
  5
2655
  8
SAPA_GLAS
 10
-67.501284435459013
 20
100.9999999998261
 30
0.0
  0
VERTEX
  5
2656
  8
SAPA_GLAS
 10
-67.501284435459013
 20
130.99999999982609
 30
0.0
  0
SEQEND
  5
2657
  8
SAPA_GLAS
  0
LINE
  5
17C8
  8
SAPA_ISOLATOR
 10
-19.383797312183962
 20
25.000017830633741
 30
0.0
 11
-19.383797312183962
 21
31.194641597816599
 31
0.0
  0
LINE
  5
17C9
  8
SAPA_ISOLATOR
 10
-44.578680595395717
 20
25.000017830633752
 30
0.0
 11
-19.383797312183962
 21
25.000017830633741
 31
0.0
  0
LINE
  5
17CA
  8
SAPA_ISOLATOR
 10
-44.578680595395717
 20
31.194641597818428
 30
0.0
 11
-44.578680595395717
 21
25.000017830633752
 31
0.0
  0
LINE
  5
17CB
  8
SAPA_ISOLATOR
 10
-19.383797312183962
 20
31.200017830633669
 30
0.0
 11
-44.578680595395717
 21
31.194641597818428
 31
0.0
  0
LINE
  5
17CC
  8
SAPA_ISOLATOR
 10
-44.578680595395717
 20
31.194641597818428
 30
0.0
 11
-19.383797312183962
 21
25.000017830633741
 31
0.0
  0
LINE
  5
17CD
  8
SAPA_ISOLATOR
 10
-19.383797312183962
 20
31.216605133519121
 30
0.0
 11
-44.578680595395717
 21
25.011228900703951
 31
0.0
  0
CIRCLE
  5
17F1
  8
SAPA_FOGBAND
 10
-84.637568219766294
 20
18.616845196571941
 30
0.0
 40
0.2549509756796394
  0
INSERT
  5
17F2
  8
SAPA_FOGBAND
  6
CONTINUOUS
  2
*U183
 10
0.0
 20
0.0
 30
0.0
1001
ACAD
1002
{
1000
R14_HATCH_DATA
1000
17F2
1011
1.0
1021
0.0
1031
0.0
1021
0.0
1031
0.0
1011
0.0
1021
0.0
1031
0.0
1021
1.0
1031
0.0
1011
0.0
1021
0.0
1031
0.0
1021
0.0
1031
1.0
1040
0.0
1010
0.0
1020
0.0
1030
1.0
1000
SOLID
1070
     1
1070
     1
1071
        1
1071
        1
1071
        1
1070
     2
1040
-84.637568219766294
1040
18.616845196571941
1040
0.2549509756796394
1040
-1.5707963267948959
1040
4.7123889803846888
1070
     1
1071
        1
1005
17F1
1070
     0
1070
     1
1071
        1
1040
-84.555716722437396
1040
18.853584098142051
1040
0.0
1002
}
  0
POLYLINE
  5
17F3
  8
SAPA_FOGBAND
 66
     1
 10
0.0
 20
0.0
 30
0.0
 70
     1
  0
VERTEX
  5
2805
  8
SAPA_FOGBAND
 10
-87.599999999010834
 20
17.71684519657197
 30
0.0
 42
0.9999999999999998
  0
VERTEX
  5
2806
  8
SAPA_FOGBAND
 10
-87.599999999010834
 20
19.516845196571921
 30
0.0
  0
VERTEX
  5
2807
  8
SAPA_FOGBAND
 10
-88.199999999010856
 20
19.516845196571921
 30
0.0
 42
0.9999999999999998
  0
VERTEX
  5
2808
  8
SAPA_FOGBAND
 10
-88.199999999010856
 20
17.71684519657197
 30
0.0
  0
SEQEND
  5
2809
  8
SAPA_FOGBAND
  0
POLYLINE
  5
17F4
  8
SAPA_FOGBAND
 66
     1
 10
0.0
 20
0.0
 30
0.0
 70
     1
  0
VERTEX
  5
280A
  8
SAPA_FOGBAND
 10
-82.499999999010811
 20
27.244721504745151
 30
0.0
 42
0.0775891054856093
  0
VERTEX
  5
280B
  8
SAPA_FOGBAND
 10
-82.816635983072175
 20
23.77793977432259
 30
0.0
  0
VERTEX
  5
280C
  8
SAPA_FOGBAND
 10
-82.599999999010777
 20
23.540050281493791
 30
0.0
 42
-0.5773502691896298
  0
VERTEX
  5
280D
  8
SAPA_FOGBAND
 10
-82.599999999010777
 20
23.193640119979928
 30
0.0
  0
VERTEX
  5
280E
  8
SAPA_FOGBAND
 10
-82.816909853233824
 20
22.955592503249139
 30
0.0
  0
VERTEX
  5
280F
  8
SAPA_FOGBAND
 10
-82.816909853233824
 20
22.178097893332509
 30
0.0
  0
VERTEX
  5
2810
  8
SAPA_FOGBAND
 10
-82.599999999010777
 20
21.940050281493772
 30
0.0
 42
-0.577350269189699
  0
VERTEX
  5
2811
  8
SAPA_FOGBAND
 10
-82.599999999010777
 20
21.593640119980019
 30
0.0
  0
VERTEX
  5
2812
  8
SAPA_FOGBAND
 10
-82.816909853233824
 20
21.35559250324923
 30
0.0
  0
VERTEX
  5
2813
  8
SAPA_FOGBAND
 10
-82.816909853233824
 20
20.57809789333248
 30
0.0
  0
VERTEX
  5
2814
  8
SAPA_FOGBAND
 10
-82.599999999010777
 20
20.340050281493738
 30
0.0
 42
-0.577350269189699
  0
VERTEX
  5
2815
  8
SAPA_FOGBAND
 10
-82.599999999010777
 20
19.99364011998
 30
0.0
  0
VERTEX
  5
2816
  8
SAPA_FOGBAND
 10
-82.816909853233824
 20
19.755592503249201
 30
0.0
  0
VERTEX
  5
2817
  8
SAPA_FOGBAND
 10
-82.816909853233824
 20
18.97809789333246
 30
0.0
  0
VERTEX
  5
2818
  8
SAPA_FOGBAND
 10
-82.599999999010777
 20
18.740050281493829
 30
0.0
 42
-0.5773502691896298
  0
VERTEX
  5
2819
  8
SAPA_FOGBAND
 10
-82.599999999010777
 20
18.393640119979981
 30
0.0
  0
VERTEX
  5
281A
  8
SAPA_FOGBAND
 10
-82.816909853233824
 20
18.155592503249181
 30
0.0
  0
VERTEX
  5
281B
  8
SAPA_FOGBAND
 10
-82.816909853233824
 20
17.378097893332441
 30
0.0
  0
VERTEX
  5
281C
  8
SAPA_FOGBAND
 10
-82.599999999010777
 20
17.14005028149381
 30
0.0
 42
-0.5773502691896298
  0
VERTEX
  5
281D
  8
SAPA_FOGBAND
 10
-82.599999999010777
 20
16.793640119979951
 30
0.0
  0
VERTEX
  5
281E
  8
SAPA_FOGBAND
 10
-82.816909853233824
 20
16.555592503249159
 30
0.0
  0
VERTEX
  5
281F
  8
SAPA_FOGBAND
 10
-82.816909853233824
 20
15.778097889167499
 30
0.0
  0
VERTEX
  5
2820
  8
SAPA_FOGBAND
 10
-82.599999999010777
 20
15.54005027732876
 30
0.0
 42
-0.577350269189699
  0
VERTEX
  5
2821
  8
SAPA_FOGBAND
 10
-82.599999999010777
 20
15.193640115815009
 30
0.0
  0
VERTEX
  5
2822
  8
SAPA_FOGBAND
 10
-83.673330067495272
 20
14.39364011625992
 30
0.0
 42
-0.1316524987190269
  0
VERTEX
  5
2823
  8
SAPA_FOGBAND
 10
-83.773330068265977
 20
14.366845196571941
 30
0.0
  0
VERTEX
  5
2824
  8
SAPA_FOGBAND
 10
-86.299999999010765
 20
14.36684519657183
 30
0.0
 42
-0.4142135623730951
  0
VERTEX
  5
2825
  8
SAPA_FOGBAND
 10
-86.499999999010825
 20
14.566845196571871
 30
0.0
  0
VERTEX
  5
2826
  8
SAPA_FOGBAND
 10
-86.499999999010825
 20
16.616845196571941
 30
0.0
 42
0.4142135623730951
  0
VERTEX
  5
2827
  8
SAPA_FOGBAND
 10
-86.999999999010811
 20
17.116845196571941
 30
0.0
  0
VERTEX
  5
2828
  8
SAPA_FOGBAND
 10
-87.726794918253987
 20
17.116845196571941
 30
0.0
  0
VERTEX
  5
2829
  8
SAPA_FOGBAND
 10
-87.794254827564373
 20
16.86508138755141
 30
0.0
 42
-0.4740571810232869
  0
VERTEX
  5
282A
  8
SAPA_FOGBAND
 10
-88.076537413203027
 20
16.737787525187851
 30
0.0
  0
VERTEX
  5
282B
  8
SAPA_FOGBAND
 10
-89.522743549962797
 20
17.357888027946391
 30
0.0
 42
-0.2846003776495916
  0
VERTEX
  5
282C
  8
SAPA_FOGBAND
 10
-89.799999999010765
 20
17.80553220640661
 30
0.0
  0
VERTEX
  5
282D
  8
SAPA_FOGBAND
 10
-89.799999999010765
 20
19.428158186737161
 30
0.0
 42
-0.2846003776495917
  0
VERTEX
  5
282E
  8
SAPA_FOGBAND
 10
-89.522743549962797
 20
19.875802365197391
 30
0.0
  0
VERTEX
  5
282F
  8
SAPA_FOGBAND
 10
-88.076537413203027
 20
20.49590286795592
 30
0.0
 42
-0.4740571810232869
  0
VERTEX
  5
2830
  8
SAPA_FOGBAND
 10
-87.794254827564373
 20
20.368609005592361
 30
0.0
  0
VERTEX
  5
2831
  8
SAPA_FOGBAND
 10
-87.726794918253987
 20
20.116845196571941
 30
0.0
  0
VERTEX
  5
2832
  8
SAPA_FOGBAND
 10
-86.999999999010811
 20
20.116845196571941
 30
0.0
 42
0.4142135623730951
  0
VERTEX
  5
2833
  8
SAPA_FOGBAND
 10
-86.499999999010825
 20
20.616845196571951
 30
0.0
  0
VERTEX
  5
2834
  8
SAPA_FOGBAND
 10
-86.499999999010825
 20
23.666845196571899
 30
0.0
 42
0.4142135623730951
  0
VERTEX
  5
2835
  8
SAPA_FOGBAND
 10
-86.699999999010856
 20
23.866845196571941
 30
0.0
  0
VERTEX
  5
2836
  8
SAPA_FOGBAND
 10
-87.599999999010834
 20
23.86684519657183
 30
0.0
 42
-0.4142135623731784
  0
VERTEX
  5
2837
  8
SAPA_FOGBAND
 10
-87.799999999010765
 20
24.066845196571879
 30
0.0
  0
VERTEX
  5
2838
  8
SAPA_FOGBAND
 10
-87.799999999010879
 20
24.766845196571921
 30
0.0
 42
-0.4142135623730398
  0
VERTEX
  5
2839
  8
SAPA_FOGBAND
 10
-87.499999999010811
 20
25.066845196571879
 30
0.0
  0
VERTEX
  5
283A
  8
SAPA_FOGBAND
 10
-86.689488222359273
 20
25.066845196571879
 30
0.0
 42
0.1316524975873973
  0
VERTEX
  5
283B
  8
SAPA_FOGBAND
 10
-85.689488222359273
 20
25.33479438900304
 30
0.0
  0
VERTEX
  5
283C
  8
SAPA_FOGBAND
 10
-83.099920230267344
 20
30.497639539043458
 30
0.0
 42
-0.7057658529986604
  0
VERTEX
  5
283D
  8
SAPA_FOGBAND
 10
-82.499999999010811
 20
30.230046363685119
 30
0.0
  0
SEQEND
  5
283E
  8
SAPA_FOGBAND
  0
POLYLINE
  5
17F5
  8
SAPA_FOGBAND
 66
     1
 10
0.0
 20
0.0
 30
0.0
 70
     1
  0
VERTEX
  5
283F
  8
SAPA_FOGBAND
 10
-34.185369502362803
 20
19.303393549234311
 30
0.0
 42
-0.9999999999999998
  0
VERTEX
  5
2840
  8
SAPA_FOGBAND
 10
-34.185369502362789
 20
21.103393549234319
 30
0.0
  0
VERTEX
  5
2841
  8
SAPA_FOGBAND
 10
-33.585369502362767
 20
21.103393549234319
 30
0.0
 42
-0.9999999999999998
  0
VERTEX
  5
2842
  8
SAPA_FOGBAND
 10
-33.585369502362781
 20
19.303393549234311
 30
0.0
  0
SEQEND
  5
2843
  8
SAPA_FOGBAND
  0
POLYLINE
  5
17F6
  8
SAPA_FOGBAND
 66
     1
 10
0.0
 20
0.0
 30
0.0
  0
VERTEX
  5
2844
  8
SAPA_FOGBAND
 10
-35.800000000001603
 20
23.803393549234311
 30
0.0
  0
VERTEX
  5
2845
  8
SAPA_FOGBAND
 10
-35.500000000001528
 20
23.803393549234311
 30
0.0
  0
VERTEX
  5
2846
  8
SAPA_FOGBAND
 10
-35.800000000001603
 20
23.803393549234311
 30
0.0
 42
0.4142135623730951
  0
VERTEX
  5
2847
  8
SAPA_FOGBAND
 10
-36.30000000000161
 20
23.303393549234311
 30
0.0
  0
VERTEX
  5
2848
  8
SAPA_FOGBAND
 10
-36.30000000000161
 20
16.00339354923435
 30
0.0
 42
0.4142135623730951
  0
VERTEX
  5
2849
  8
SAPA_FOGBAND
 10
-35.80000000000161
 20
15.50339354923435
 30
0.0
  0
VERTEX
  5
284A
  8
SAPA_FOGBAND
 10
-35.500000000001542
 20
15.50339354923435
 30
0.0
  0
SEQEND
  5
284B
  8
SAPA_FOGBAND
  0
POLYLINE
  5
17F7
  8
SAPA_FOGBAND
 66
     1
 10
0.0
 20
0.0
 30
0.0
 70
     1
  0
VERTEX
  5
284C
  8
SAPA_FOGBAND
 10
-40.100000000001529
 20
17.151678439530649
 30
0.0
  0
VERTEX
  5
284D
  8
SAPA_FOGBAND
 10
-40.100000000001529
 20
20.24632254885649
 30
0.0
 42
1.024758115298622
  0
VERTEX
  5
284E
  8
SAPA_FOGBAND
 10
-43.281531792787028
 20
20.24632254885649
 30
0.0
  0
VERTEX
  5
284F
  8
SAPA_FOGBAND
 10
-43.281531792787028
 20
17.151678439530649
 30
0.0
 42
0.9558128803175696
  0
SEQEND
  5
2850
  8
SAPA_FOGBAND
  0
POLYLINE
  5
17F8
  8
SAPA_FOGBAND
 66
     1
 10
0.0
 20
0.0
 30
0.0
 70
     1
  0
VERTEX
  5
2851
  8
SAPA_FOGBAND
 10
-41.936054126747187
 20
7.9203481004113652
 30
0.0
 42
-0.6274939020253784
  0
VERTEX
  5
2852
  8
SAPA_FOGBAND
 10
-43.494698620708917
 20
7.9312729228445056
 30
0.0
  0
VERTEX
  5
2853
  8
SAPA_FOGBAND
 10
-44.058441624631669
 20
11.907132916209161
 30
0.0
 42
-0.4459602482749359
  0
VERTEX
  5
2854
  8
SAPA_FOGBAND
 10
-43.163604270399311
 20
12.903393549234361
 30
0.0
  0
VERTEX
  5
2855
  8
SAPA_FOGBAND
 10
-40.440292945534601
 20
12.90339354923435
 30
0.0
 42
-0.6245270939358744
  0
VERTEX
  5
2856
  8
SAPA_FOGBAND
 10
-39.730537971723898
 20
11.449996876719149
 30
0.0
  0
SEQEND
  5
2857
  8
SAPA_FOGBAND
  0
POLYLINE
  5
17F9
  8
SAPA_FOGBAND
 66
     1
 10
0.0
 20
0.0
 30
0.0
 70
     1
  0
VERTEX
  5
2858
  8
SAPA_FOGBAND
 10
-34.058574583119658
 20
18.703393549234342
 30
0.0
  0
VERTEX
  5
2859
  8
SAPA_FOGBAND
 10
-33.991114673809257
 20
18.451629740213871
 30
0.0
 42
0.4740571810232144
  0
VERTEX
  5
285A
  8
SAPA_FOGBAND
 10
-33.70883208817061
 20
18.324335877850249
 30
0.0
  0
VERTEX
  5
285B
  8
SAPA_FOGBAND
 10
-32.262625951410719
 20
18.944436380608838
 30
0.0
 42
0.2846003776496053
  0
VERTEX
  5
285C
  8
SAPA_FOGBAND
 10
-31.985369502362751
 20
19.392080559069012
 30
0.0
  0
VERTEX
  5
285D
  8
SAPA_FOGBAND
 10
-31.985369502362751
 20
21.014706539399619
 30
0.0
 42
0.2846003776496027
  0
VERTEX
  5
285E
  8
SAPA_FOGBAND
 10
-32.262625951410712
 20
21.462350717859781
 30
0.0
  0
VERTEX
  5
285F
  8
SAPA_FOGBAND
 10
-33.708832088170652
 20
22.082451220618371
 30
0.0
 42
0.4740571810232332
  0
VERTEX
  5
2860
  8
SAPA_FOGBAND
 10
-33.99111467380925
 20
21.955157358254819
 30
0.0
  0
VERTEX
  5
2861
  8
SAPA_FOGBAND
 10
-34.05857458311965
 20
21.703393549234342
 30
0.0
  0
VERTEX
  5
2862
  8
SAPA_FOGBAND
 10
-35.000000000001542
 20
21.703393549234342
 30
0.0
 42
-0.4142135623730951
  0
VERTEX
  5
2863
  8
SAPA_FOGBAND
 10
-35.500000000001528
 20
22.203393549234342
 30
0.0
  0
VERTEX
  5
2864
  8
SAPA_FOGBAND
 10
-35.500000000001592
 20
24.715553712615801
 30
0.0
 42
0.4027293761437467
  0
VERTEX
  5
2865
  8
SAPA_FOGBAND
 10
-35.7881926374709
 20
25.01532126621365
 30
0.0
  0
VERTEX
  5
2866
  8
SAPA_FOGBAND
 10
-45.188192637470927
 20
25.503161080883078
 30
0.0
 42
0.4257917699693538
  0
VERTEX
  5
2867
  8
SAPA_FOGBAND
 10
-45.500000000001592
 20
25.203393527285229
 30
0.0
  0
VERTEX
  5
2868
  8
SAPA_FOGBAND
 10
-45.500000000001592
 20
11.497859868061351
 30
0.0
  0
VERTEX
  5
2869
  8
SAPA_FOGBAND
 10
-44.723465082318967
 20
5.8947182703344749
 30
0.0
 42
0.322530093016903
  0
VERTEX
  5
286A
  8
SAPA_FOGBAND
 10
-43.729387777212999
 20
5.2033935272852068
 30
0.0
  0
VERTEX
  5
286B
  8
SAPA_FOGBAND
 10
-42.498644220775418
 20
5.2033935272852068
 30
0.0
 42
0.2325311832130604
  0
VERTEX
  5
286C
  8
SAPA_FOGBAND
 10
-42.102703356693617
 20
5.3980562839784261
 30
0.0
  0
VERTEX
  5
286D
  8
SAPA_FOGBAND
 10
-35.708118271838103
 20
14.56461951188593
 30
0.0
 42
0.1657205760184606
  0
VERTEX
  5
286E
  8
SAPA_FOGBAND
 10
-35.500000000001542
 20
15.17529399849955
 30
0.0
  0
VERTEX
  5
286F
  8
SAPA_FOGBAND
 10
-35.500000000001542
 20
18.203393549234342
 30
0.0
 42
-0.4142135623730951
  0
VERTEX
  5
2870
  8
SAPA_FOGBAND
 10
-35.000000000001542
 20
18.703393549234342
 30
0.0
  0
SEQEND
  5
2871
  8
SAPA_FOGBAND
  0
POLYLINE
  5
17FA
  8
SAPA_FOGBAND
 66
     1
 10
0.0
 20
0.0
 30
0.0
 70
     1
  0
VERTEX
  5
2872
  8
SAPA_FOGBAND
 10
3.1910442658326481
 20
28.001338375370509
 30
0.0
  0
VERTEX
  5
2873
  8
SAPA_FOGBAND
 10
0.3577253014129176
 20
28.001338375370509
 30
0.0
 42
0.577350269189628
  0
VERTEX
  5
2874
  8
SAPA_FOGBAND
 10
0.0979176802774666
 20
27.55133837537047
 30
0.0
  0
VERTEX
  5
2875
  8
SAPA_FOGBAND
 10
1.796883022029693
 20
25.51020108666723
 30
0.0
 42
-0.8769764629927237
  0
VERTEX
  5
2876
  8
SAPA_FOGBAND
 10
1.324943366538424
 20
25.14806905231131
 30
0.0
  0
VERTEX
  5
2877
  8
SAPA_FOGBAND
 10
-1.8680762347200439
 20
27.708445156556952
 30
0.0
 42
0.1989123673796493
  0
VERTEX
  5
2878
  8
SAPA_FOGBAND
 10
-2.5751830159064841
 20
28.001338375370509
 30
0.0
  0
VERTEX
  5
2879
  8
SAPA_FOGBAND
 10
-4.2116358188102101
 20
28.001338375370509
 30
0.0
 42
0.577350269189628
  0
VERTEX
  5
287A
  8
SAPA_FOGBAND
 10
-4.4714434399454328
 20
27.55133837537047
 30
0.0
  0
VERTEX
  5
287B
  8
SAPA_FOGBAND
 10
-3.7028462713806878
 20
25.511069839847611
 30
0.0
 42
-0.8769764629928424
  0
VERTEX
  5
287C
  8
SAPA_FOGBAND
 10
-4.1747859268719569
 20
25.148937805491698
 30
0.0
  0
VERTEX
  5
287D
  8
SAPA_FOGBAND
 10
-7.7768364612505341
 20
29.282961428401279
 30
0.0
 42
-0.1989123673796579
  0
VERTEX
  5
287E
  8
SAPA_FOGBAND
 10
-8.0697296800638671
 20
29.990068209587719
 30
0.0
  0
VERTEX
  5
287F
  8
SAPA_FOGBAND
 10
-8.0697296800638671
 20
29.999999999900918
 30
0.0
 42
-0.4142135623730951
  0
VERTEX
  5
2880
  8
SAPA_FOGBAND
 10
-7.0697296800638671
 20
30.999999999900918
 30
0.0
  0
VERTEX
  5
2881
  8
SAPA_FOGBAND
 10
0.1652628207033815
 20
32.16408459902442
 30
0.0
 42
-0.6261632875160376
  0
VERTEX
  5
2882
  8
SAPA_FOGBAND
 10
0.4751197492220656
 20
31.722117795598081
 30
0.0
  0
VERTEX
  5
2883
  8
SAPA_FOGBAND
 10
0.321481754433242
 20
31.445776149611959
 30
0.0
 42
0.5719685712689121
  0
VERTEX
  5
2884
  8
SAPA_FOGBAND
 10
0.5836826586566329
 20
30.999999999901039
 30
0.0
  0
VERTEX
  5
2885
  8
SAPA_FOGBAND
 10
3.330270319935996
 20
30.999999999900918
 30
0.0
 42
0.4142135623730118
  0
VERTEX
  5
2886
  8
SAPA_FOGBAND
 10
3.6302703199361779
 20
31.29999999990088
 30
0.0
  0
VERTEX
  5
2887
  8
SAPA_FOGBAND
 10
3.630270319935951
 20
32.699999999900967
 30
0.0
 42
-0.7754026414785753
  0
VERTEX
  5
2888
  8
SAPA_FOGBAND
 10
4.1930623153438571
 20
32.844707868206861
 30
0.0
  0
VERTEX
  5
2889
  8
SAPA_FOGBAND
 10
7.9039471192749504
 20
25.501101552726201
 30
0.0
 42
-0.8680589103333867
  0
VERTEX
  5
288A
  8
SAPA_FOGBAND
 10
7.4290230895111797
 20
25.144261650064269
 30
0.0
  0
VERTEX
  5
288B
  8
SAPA_FOGBAND
 10
3.8981510470190881
 20
27.708445156556952
 30
0.0
 42
0.1989123673796493
  0
SEQEND
  5
288C
  8
SAPA_FOGBAND
  0
POLYLINE
  5
17FB
  8
SAPA_FOGBAND
 62
     2
 10
-23.909909063672458
 20
105.7737854458744
 30
0.0
 66
     1
 70
     8
  0
VERTEX
  8
SAPA_FOGBAND
  5
29B4
 10
-23.9099
 20
105.774
 30
0.000000
  70
    32
  0
VERTEX
  8
SAPA_FOGBAND
  5
29B5
 10
-23.9786
 20
105.771
 30
0.000000
  70
    32
  0
VERTEX
  8
SAPA_FOGBAND
  5
29B6
 10
-24.0471
 20
105.763
 30
0.000000
  70
    32
  0
VERTEX
  8
SAPA_FOGBAND
  5
29B7
 10
-24.1153
 20
105.750
 30
0.000000
  70
    32
  0
VERTEX
  8
SAPA_FOGBAND
  5
29B8
 10
-24.1830
 20
105.732
 30
0.000000
  70
    32
  0
VERTEX
  8
SAPA_FOGBAND
  5
29B9
 10
-24.2501
 20
105.709
 30
0.000000
  70
    32
  0
VERTEX
  8
SAPA_FOGBAND
  5
29BA
 10
-24.3163
 20
105.680
 30
0.000000
  70
    32
  0
VERTEX
  8
SAPA_FOGBAND
  5
29BB
 10
-24.3816
 20
105.647
 30
0.000000
  70
    32
  0
VERTEX
  8
SAPA_FOGBAND
  5
29BC
 10
-24.4457
 20
105.609
 30
0.000000
  70
    32
  0
VERTEX
  8
SAPA_FOGBAND
  5
29BD
 10
-24.5085
 20
105.566
 30
0.000000
  70
    32
  0
VERTEX
  8
SAPA_FOGBAND
  5
29BE
 10
-24.5699
 20
105.518
 30
0.000000
  70
    32
  0
VERTEX
  8
SAPA_FOGBAND
  5
29BF
 10
-24.6297
 20
105.465
 30
0.000000
  70
    32
  0
VERTEX
  8
SAPA_FOGBAND
  5
29C0
 10
-24.6877
 20
105.408
 30
0.000000
  70
    32
  0
VERTEX
  8
SAPA_FOGBAND
  5
29C1
 10
-24.7439
 20
105.347
 30
0.000000
  70
    32
  0
VERTEX
  8
SAPA_FOGBAND
  5
29C2
 10
-24.7981
 20
105.282
 30
0.000000
  70
    32
  0
VERTEX
  8
SAPA_FOGBAND
  5
29C3
 10
-24.8501
 20
105.212
 30
0.000000
  70
    32
  0
VERTEX
  8
SAPA_FOGBAND
  5
29C4
 10
-24.8999
 20
105.139
 30
0.000000
  70
    32
  0
VERTEX
  8
SAPA_FOGBAND
  5
29C5
 10
-24.9472
 20
105.062
 30
0.000000
  70
    32
  0
VERTEX
  8
SAPA_FOGBAND
  5
29C6
 10
-24.9921
 20
104.981
 30
0.000000
  70
    32
  0
VERTEX
  8
SAPA_FOGBAND
  5
29C7
 10
-25.0344
 20
104.897
 30
0.000000
  70
    32
  0
VERTEX
  8
SAPA_FOGBAND
  5
29C8
 10
-25.0740
 20
104.810
 30
0.000000
  70
    32
  0
VERTEX
  8
SAPA_FOGBAND
  5
29C9
 10
-25.1107
 20
104.720
 30
0.000000
  70
    32
  0
VERTEX
  8
SAPA_FOGBAND
  5
29CA
 10
-25.1446
 20
104.628
 30
0.000000
  70
    32
  0
VERTEX
  8
SAPA_FOGBAND
  5
29CB
 10
-25.1755
 20
104.533
 30
0.000000
  70
    32
  0
VERTEX
  8
SAPA_FOGBAND
  5
29CC
 10
-25.2033
 20
104.436
 30
0.000000
  70
    32
  0
VERTEX
  8
SAPA_FOGBAND
  5
29CD
 10
-25.2281
 20
104.336
 30
0.000000
  70
    32
  0
VERTEX
  8
SAPA_FOGBAND
  5
29CE
 10
-25.2496
 20
104.235
 30
0.000000
  70
    32
  0
VERTEX
  8
SAPA_FOGBAND
  5
29CF
 10
-25.2680
 20
104.133
 30
0.000000
  70
    32
  0
VERTEX
  8
SAPA_FOGBAND
  5
29D0
 10
-25.2830
 20
104.029
 30
0.000000
  70
    32
  0
VERTEX
  8
SAPA_FOGBAND
  5
29D1
 10
-25.2948
 20
103.924
 30
0.000000
  70
    32
  0
VERTEX
  8
SAPA_FOGBAND
  5
29D2
 10
-25.3032
 20
103.818
 30
0.000000
  70
    32
  0
VERTEX
  8
SAPA_FOGBAND
  5
29D3
 10
-25.3082
 20
103.712
 30
0.000000
  70
    32
  0
VERTEX
  8
SAPA_FOGBAND
  5
29D4
 10
-25.3099
 20
103.606
 30
0.000000
  70
    32
  0
VERTEX
  8
SAPA_FOGBAND
  5
29D5
 10
-25.3082
 20
103.500
 30
0.000000
  70
    32
  0
VERTEX
  8
SAPA_FOGBAND
  5
29D6
 10
-25.3032
 20
103.394
 30
0.000000
  70
    32
  0
VERTEX
  8
SAPA_FOGBAND
  5
29D7
 10
-25.2948
 20
103.288
 30
0.000000
  70
    32
  0
VERTEX
  8
SAPA_FOGBAND
  5
29D8
 10
-25.2830
 20
103.183
 30
0.000000
  70
    32
  0
VERTEX
  8
SAPA_FOGBAND
  5
29D9
 10
-25.2680
 20
103.079
 30
0.000000
  70
    32
  0
VERTEX
  8
SAPA_FOGBAND
  5
29DA
 10
-25.2496
 20
102.977
 30
0.000000
  70
    32
  0
VERTEX
  8
SAPA_FOGBAND
  5
29DB
 10
-25.2281
 20
102.876
 30
0.000000
  70
    32
  0
VERTEX
  8
SAPA_FOGBAND
  5
29DC
 10
-25.2033
 20
102.776
 30
0.000000
  70
    32
  0
VERTEX
  8
SAPA_FOGBAND
  5
29DD
 10
-25.1755
 20
102.679
 30
0.000000
  70
    32
  0
VERTEX
  8
SAPA_FOGBAND
  5
29DE
 10
-25.1446
 20
102.584
 30
0.000000
  70
    32
  0
VERTEX
  8
SAPA_FOGBAND
  5
29DF
 10
-25.1107
 20
102.492
 30
0.000000
  70
    32
  0
VERTEX
  8
SAPA_FOGBAND
  5
29E0
 10
-25.0740
 20
102.402
 30
0.000000
  70
    32
  0
VERTEX
  8
SAPA_FOGBAND
  5
29E1
 10
-25.0344
 20
102.315
 30
0.000000
  70
    32
  0
VERTEX
  8
SAPA_FOGBAND
  5
29E2
 10
-24.9921
 20
102.231
 30
0.000000
  70
    32
  0
VERTEX
  8
SAPA_FOGBAND
  5
29E3
 10
-24.9472
 20
102.150
 30
0.000000
  70
    32
  0
VERTEX
  8
SAPA_FOGBAND
  5
29E4
 10
-24.8999
 20
102.073
 30
0.000000
  70
    32
  0
VERTEX
  8
SAPA_FOGBAND
  5
29E5
 10
-24.8501
 20
102.000
 30
0.000000
  70
    32
  0
VERTEX
  8
SAPA_FOGBAND
  5
29E6
 10
-24.7981
 20
101.930
 30
0.000000
  70
    32
  0
VERTEX
  8
SAPA_FOGBAND
  5
29E7
 10
-24.7439
 20
101.865
 30
0.000000
  70
    32
  0
VERTEX
  8
SAPA_FOGBAND
  5
29E8
 10
-24.6877
 20
101.804
 30
0.000000
  70
    32
  0
VERTEX
  8
SAPA_FOGBAND
  5
29E9
 10
-24.6297
 20
101.747
 30
0.000000
  70
    32
  0
VERTEX
  8
SAPA_FOGBAND
  5
29EA
 10
-24.5699
 20
101.694
 30
0.000000
  70
    32
  0
VERTEX
  8
SAPA_FOGBAND
  5
29EB
 10
-24.5085
 20
101.646
 30
0.000000
  70
    32
  0
VERTEX
  8
SAPA_FOGBAND
  5
29EC
 10
-24.4457
 20
101.603
 30
0.000000
  70
    32
  0
VERTEX
  8
SAPA_FOGBAND
  5
29ED
 10
-24.3816
 20
101.565
 30
0.000000
  70
    32
  0
VERTEX
  8
SAPA_FOGBAND
  5
29EE
 10
-24.3163
 20
101.532
 30
0.000000
  70
    32
  0
VERTEX
  8
SAPA_FOGBAND
  5
29EF
 10
-24.2501
 20
101.503
 30
0.000000
  70
    32
  0
VERTEX
  8
SAPA_FOGBAND
  5
29F0
 10
-24.1830
 20
101.480
 30
0.000000
  70
    32
  0
VERTEX
  8
SAPA_FOGBAND
  5
29F1
 10
-24.1153
 20
101.462
 30
0.000000
  70
    32
  0
VERTEX
  8
SAPA_FOGBAND
  5
29F2
 10
-24.0471
 20
101.449
 30
0.000000
  70
    32
  0
VERTEX
  8
SAPA_FOGBAND
  5
29F3
 10
-23.9786
 20
101.441
 30
0.000000
  70
    32
  0
VERTEX
  8
SAPA_FOGBAND
  5
29F4
 10
-23.9099
 20
101.438
 30
0.000000
  70
    32
  0
VERTEX
  8
SAPA_FOGBAND
  5
29F5
 10
-23.8412
 20
101.441
 30
0.000000
  70
    32
  0
VERTEX
  8
SAPA_FOGBAND
  5
29F6
 10
-23.7727
 20
101.449
 30
0.000000
  70
    32
  0
VERTEX
  8
SAPA_FOGBAND
  5
29F7
 10
-23.7045
 20
101.462
 30
0.000000
  70
    32
  0
VERTEX
  8
SAPA_FOGBAND
  5
29F8
 10
-23.6368
 20
101.480
 30
0.000000
  70
    32
  0
VERTEX
  8
SAPA_FOGBAND
  5
29F9
 10
-23.5697
 20
101.503
 30
0.000000
  70
    32
  0
VERTEX
  8
SAPA_FOGBAND
  5
29FA
 10
-23.5035
 20
101.532
 30
0.000000
  70
    32
  0
VERTEX
  8
SAPA_FOGBAND
  5
29FB
 10
-23.4383
 20
101.565
 30
0.000000
  70
    32
  0
VERTEX
  8
SAPA_FOGBAND
  5
29FC
 10
-23.3742
 20
101.603
 30
0.000000
  70
    32
  0
VERTEX
  8
SAPA_FOGBAND
  5
29FD
 10
-23.3113
 20
101.646
 30
0.000000
  70
    32
  0
VERTEX
  8
SAPA_FOGBAND
  5
29FE
 10
-23.2500
 20
101.694
 30
0.000000
  70
    32
  0
VERTEX
  8
SAPA_FOGBAND
  5
29FF
 10
-23.1902
 20
101.747
 30
0.000000
  70
    32
  0
VERTEX
  8
SAPA_FOGBAND
  5
2A00
 10
-23.1321
 20
101.804
 30
0.000000
  70
    32
  0
VERTEX
  8
SAPA_FOGBAND
  5
2A01
 10
-23.0759
 20
101.865
 30
0.000000
  70
    32
  0
VERTEX
  8
SAPA_FOGBAND
  5
2A02
 10
-23.0218
 20
101.930
 30
0.000000
  70
    32
  0
VERTEX
  8
SAPA_FOGBAND
  5
2A03
 10
-22.9697
 20
102.000
 30
0.000000
  70
    32
  0
VERTEX
  8
SAPA_FOGBAND
  5
2A04
 10
-22.9200
 20
102.073
 30
0.000000
  70
    32
  0
VERTEX
  8
SAPA_FOGBAND
  5
2A05
 10
-22.8726
 20
102.150
 30
0.000000
  70
    32
  0
VERTEX
  8
SAPA_FOGBAND
  5
2A06
 10
-22.8277
 20
102.231
 30
0.000000
  70
    32
  0
VERTEX
  8
SAPA_FOGBAND
  5
2A07
 10
-22.7854
 20
102.315
 30
0.000000
  70
    32
  0
VERTEX
  8
SAPA_FOGBAND
  5
2A08
 10
-22.7459
 20
102.402
 30
0.000000
  70
    32
  0
VERTEX
  8
SAPA_FOGBAND
  5
2A09
 10
-22.7091
 20
102.492
 30
0.000000
  70
    32
  0
VERTEX
  8
SAPA_FOGBAND
  5
2A0A
 10
-22.6752
 20
102.584
 30
0.000000
  70
    32
  0
VERTEX
  8
SAPA_FOGBAND
  5
2A0B
 10
-22.6443
 20
102.679
 30
0.000000
  70
    32
  0
VERTEX
  8
SAPA_FOGBAND
  5
2A0C
 10
-22.6165
 20
102.776
 30
0.000000
  70
    32
  0
VERTEX
  8
SAPA_FOGBAND
  5
2A0D
 10
-22.5917
 20
102.876
 30
0.000000
  70
    32
  0
VERTEX
  8
SAPA_FOGBAND
  5
2A0E
 10
-22.5702
 20
102.977
 30
0.000000
  70
    32
  0
VERTEX
  8
SAPA_FOGBAND
  5
2A0F
 10
-22.5519
 20
103.079
 30
0.000000
  70
    32
  0
VERTEX
  8
SAPA_FOGBAND
  5
2A10
 10
-22.5368
 20
103.183
 30
0.000000
  70
    32
  0
VERTEX
  8
SAPA_FOGBAND
  5
2A11
 10
-22.5251
 20
103.288
 30
0.000000
  70
    32
  0
VERTEX
  8
SAPA_FOGBAND
  5
2A12
 10
-22.5167
 20
103.394
 30
0.000000
  70
    32
  0
VERTEX
  8
SAPA_FOGBAND
  5
2A13
 10
-22.5116
 20
103.500
 30
0.000000
  70
    32
  0
VERTEX
  8
SAPA_FOGBAND
  5
2A14
 10
-22.5099
 20
103.606
 30
0.000000
  70
    32
  0
VERTEX
  8
SAPA_FOGBAND
  5
2A15
 10
-22.5116
 20
103.712
 30
0.000000
  70
    32
  0
VERTEX
  8
SAPA_FOGBAND
  5
2A16
 10
-22.5167
 20
103.818
 30
0.000000
  70
    32
  0
VERTEX
  8
SAPA_FOGBAND
  5
2A17
 10
-22.5251
 20
103.924
 30
0.000000
  70
    32
  0
VERTEX
  8
SAPA_FOGBAND
  5
2A18
 10
-22.5368
 20
104.029
 30
0.000000
  70
    32
  0
VERTEX
  8
SAPA_FOGBAND
  5
2A19
 10
-22.5519
 20
104.133
 30
0.000000
  70
    32
  0
VERTEX
  8
SAPA_FOGBAND
  5
2A1A
 10
-22.5702
 20
104.235
 30
0.000000
  70
    32
  0
VERTEX
  8
SAPA_FOGBAND
  5
2A1B
 10
-22.5917
 20
104.336
 30
0.000000
  70
    32
  0
VERTEX
  8
SAPA_FOGBAND
  5
2A1C
 10
-22.6165
 20
104.436
 30
0.000000
  70
    32
  0
VERTEX
  8
SAPA_FOGBAND
  5
2A1D
 10
-22.6443
 20
104.533
 30
0.000000
  70
    32
  0
VERTEX
  8
SAPA_FOGBAND
  5
2A1E
 10
-22.6752
 20
104.628
 30
0.000000
  70
    32
  0
VERTEX
  8
SAPA_FOGBAND
  5
2A1F
 10
-22.7091
 20
104.720
 30
0.000000
  70
    32
  0
VERTEX
  8
SAPA_FOGBAND
  5
2A20
 10
-22.7459
 20
104.810
 30
0.000000
  70
    32
  0
VERTEX
  8
SAPA_FOGBAND
  5
2A21
 10
-22.7854
 20
104.897
 30
0.000000
  70
    32
  0
VERTEX
  8
SAPA_FOGBAND
  5
2A22
 10
-22.8277
 20
104.981
 30
0.000000
  70
    32
  0
VERTEX
  8
SAPA_FOGBAND
  5
2A23
 10
-22.8726
 20
105.062
 30
0.000000
  70
    32
  0
VERTEX
  8
SAPA_FOGBAND
  5
2A24
 10
-22.9200
 20
105.139
 30
0.000000
  70
    32
  0
VERTEX
  8
SAPA_FOGBAND
  5
2A25
 10
-22.9697
 20
105.212
 30
0.000000
  70
    32
  0
VERTEX
  8
SAPA_FOGBAND
  5
2A26
 10
-23.0218
 20
105.282
 30
0.000000
  70
    32
  0
VERTEX
  8
SAPA_FOGBAND
  5
2A27
 10
-23.0759
 20
105.347
 30
0.000000
  70
    32
  0
VERTEX
  8
SAPA_FOGBAND
  5
2A28
 10
-23.1321
 20
105.408
 30
0.000000
  70
    32
  0
VERTEX
  8
SAPA_FOGBAND
  5
2A29
 10
-23.1902
 20
105.465
 30
0.000000
  70
    32
  0
VERTEX
  8
SAPA_FOGBAND
  5
2A2A
 10
-23.2500
 20
105.518
 30
0.000000
  70
    32
  0
VERTEX
  8
SAPA_FOGBAND
  5
2A2B
 10
-23.3113
 20
105.566
 30
0.000000
  70
    32
  0
VERTEX
  8
SAPA_FOGBAND
  5
2A2C
 10
-23.3742
 20
105.609
 30
0.000000
  70
    32
  0
VERTEX
  8
SAPA_FOGBAND
  5
2A2D
 10
-23.4383
 20
105.647
 30
0.000000
  70
    32
  0
VERTEX
  8
SAPA_FOGBAND
  5
2A2E
 10
-23.5035
 20
105.680
 30
0.000000
  70
    32
  0
VERTEX
  8
SAPA_FOGBAND
  5
2A2F
 10
-23.5697
 20
105.709
 30
0.000000
  70
    32
  0
VERTEX
  8
SAPA_FOGBAND
  5
2A30
 10
-23.6368
 20
105.732
 30
0.000000
  70
    32
  0
VERTEX
  8
SAPA_FOGBAND
  5
2A31
 10
-23.7045
 20
105.750
 30
0.000000
  70
    32
  0
VERTEX
  8
SAPA_FOGBAND
  5
2A32
 10
-23.7727
 20
105.763
 30
0.000000
  70
    32
  0
VERTEX
  8
SAPA_FOGBAND
  5
2A33
 10
-23.8412
 20
105.771
 30
0.000000
  70
    32
  0
VERTEX
  8
SAPA_FOGBAND
  5
2A34
 10
-23.9099
 20
105.774
 30
0.000000
  70
    32
  0
SEQEND
  8
SAPA_FOGBAND
  5
2A35
  0
POLYLINE
  5
17FC
  8
SAPA_FOGBAND
 62
     2
 10
-22.175123040939521
 20
115.29118830492544
 30
0.0
 66
     1
 70
     8
  0
VERTEX
  8
SAPA_FOGBAND
  5
2A36
 10
-22.1751
 20
115.291
 30
0.000000
  70
    32
  0
VERTEX
  8
SAPA_FOGBAND
  5
2A37
 10
-22.2634
 20
115.287
 30
0.000000
  70
    32
  0
VERTEX
  8
SAPA_FOGBAND
  5
2A38
 10
-22.3516
 20
115.276
 30
0.000000
  70
    32
  0
VERTEX
  8
SAPA_FOGBAND
  5
2A39
 10
-22.4392
 20
115.258
 30
0.000000
  70
    32
  0
VERTEX
  8
SAPA_FOGBAND
  5
2A3A
 10
-22.5263
 20
115.232
 30
0.000000
  70
    32
  0
VERTEX
  8
SAPA_FOGBAND
  5
2A3B
 10
-22.6125
 20
115.199
 30
0.000000
  70
    32
  0
VERTEX
  8
SAPA_FOGBAND
  5
2A3C
 10
-22.6976
 20
115.158
 30
0.000000
  70
    32
  0
VERTEX
  8
SAPA_FOGBAND
  5
2A3D
 10
-22.7815
 20
115.111
 30
0.000000
  70
    32
  0
VERTEX
  8
SAPA_FOGBAND
  5
2A3E
 10
-22.8640
 20
115.056
 30
0.000000
  70
    32
  0
VERTEX
  8
SAPA_FOGBAND
  5
2A3F
 10
-22.9447
 20
114.995
 30
0.000000
  70
    32
  0
VERTEX
  8
SAPA_FOGBAND
  5
2A40
 10
-23.0236
 20
114.927
 30
0.000000
  70
    32
  0
VERTEX
  8
SAPA_FOGBAND
  5
2A41
 10
-23.1005
 20
114.852
 30
0.000000
  70
    32
  0
VERTEX
  8
SAPA_FOGBAND
  5
2A42
 10
-23.1751
 20
114.771
 30
0.000000
  70
    32
  0
VERTEX
  8
SAPA_FOGBAND
  5
2A43
 10
-23.2474
 20
114.684
 30
0.000000
  70
    32
  0
VERTEX
  8
SAPA_FOGBAND
  5
2A44
 10
-23.3170
 20
114.591
 30
0.000000
  70
    32
  0
VERTEX
  8
SAPA_FOGBAND
  5
2A45
 10
-23.3839
 20
114.492
 30
0.000000
  70
    32
  0
VERTEX
  8
SAPA_FOGBAND
  5
2A46
 10
-23.4479
 20
114.388
 30
0.000000
  70
    32
  0
VERTEX
  8
SAPA_FOGBAND
  5
2A47
 10
-23.5088
 20
114.278
 30
0.000000
  70
    32
  0
VERTEX
  8
SAPA_FOGBAND
  5
2A48
 10
-23.5665
 20
114.163
 30
0.000000
  70
    32
  0
VERTEX
  8
SAPA_FOGBAND
  5
2A49
 10
-23.6209
 20
114.044
 30
0.000000
  70
    32
  0
VERTEX
  8
SAPA_FOGBAND
  5
2A4A
 10
-23.6718
 20
113.920
 30
0.000000
  70
    32
  0
VERTEX
  8
SAPA_FOGBAND
  5
2A4B
 10
-23.7190
 20
113.792
 30
0.000000
  70
    32
  0
VERTEX
  8
SAPA_FOGBAND
  5
2A4C
 10
-23.7626
 20
113.660
 30
0.000000
  70
    32
  0
VERTEX
  8
SAPA_FOGBAND
  5
2A4D
 10
-23.8023
 20
113.525
 30
0.000000
  70
    32
  0
VERTEX
  8
SAPA_FOGBAND
  5
2A4E
 10
-23.8381
 20
113.387
 30
0.000000
  70
    32
  0
VERTEX
  8
SAPA_FOGBAND
  5
2A4F
 10
-23.8699
 20
113.245
 30
0.000000
  70
    32
  0
VERTEX
  8
SAPA_FOGBAND
  5
2A50
 10
-23.8976
 20
113.102
 30
0.000000
  70
    32
  0
VERTEX
  8
SAPA_FOGBAND
  5
2A51
 10
-23.9212
 20
112.956
 30
0.000000
  70
    32
  0
VERTEX
  8
SAPA_FOGBAND
  5
2A52
 10
-23.9405
 20
112.808
 30
0.000000
  70
    32
  0
VERTEX
  8
SAPA_FOGBAND
  5
2A53
 10
-23.9556
 20
112.659
 30
0.000000
  70
    32
  0
VERTEX
  8
SAPA_FOGBAND
  5
2A54
 10
-23.9665
 20
112.508
 30
0.000000
  70
    32
  0
VERTEX
  8
SAPA_FOGBAND
  5
2A55
 10
-23.9730
 20
112.357
 30
0.000000
  70
    32
  0
VERTEX
  8
SAPA_FOGBAND
  5
2A56
 10
-23.9751
 20
112.206
 30
0.000000
  70
    32
  0
VERTEX
  8
SAPA_FOGBAND
  5
2A57
 10
-23.9730
 20
112.055
 30
0.000000
  70
    32
  0
VERTEX
  8
SAPA_FOGBAND
  5
2A58
 10
-23.9665
 20
111.904
 30
0.000000
  70
    32
  0
VERTEX
  8
SAPA_FOGBAND
  5
2A59
 10
-23.9556
 20
111.753
 30
0.000000
  70
    32
  0
VERTEX
  8
SAPA_FOGBAND
  5
2A5A
 10
-23.9405
 20
111.604
 30
0.000000
  70
    32
  0
VERTEX
  8
SAPA_FOGBAND
  5
2A5B
 10
-23.9212
 20
111.456
 30
0.000000
  70
    32
  0
VERTEX
  8
SAPA_FOGBAND
  5
2A5C
 10
-23.8976
 20
111.310
 30
0.000000
  70
    32
  0
VERTEX
  8
SAPA_FOGBAND
  5
2A5D
 10
-23.8699
 20
111.167
 30
0.000000
  70
    32
  0
VERTEX
  8
SAPA_FOGBAND
  5
2A5E
 10
-23.8381
 20
111.025
 30
0.000000
  70
    32
  0
VERTEX
  8
SAPA_FOGBAND
  5
2A5F
 10
-23.8023
 20
110.887
 30
0.000000
  70
    32
  0
VERTEX
  8
SAPA_FOGBAND
  5
2A60
 10
-23.7626
 20
110.752
 30
0.000000
  70
    32
  0
VERTEX
  8
SAPA_FOGBAND
  5
2A61
 10
-23.7190
 20
110.620
 30
0.000000
  70
    32
  0
VERTEX
  8
SAPA_FOGBAND
  5
2A62
 10
-23.6718
 20
110.492
 30
0.000000
  70
    32
  0
VERTEX
  8
SAPA_FOGBAND
  5
2A63
 10
-23.6209
 20
110.368
 30
0.000000
  70
    32
  0
VERTEX
  8
SAPA_FOGBAND
  5
2A64
 10
-23.5665
 20
110.249
 30
0.000000
  70
    32
  0
VERTEX
  8
SAPA_FOGBAND
  5
2A65
 10
-23.5088
 20
110.134
 30
0.000000
  70
    32
  0
VERTEX
  8
SAPA_FOGBAND
  5
2A66
 10
-23.4479
 20
110.024
 30
0.000000
  70
    32
  0
VERTEX
  8
SAPA_FOGBAND
  5
2A67
 10
-23.3839
 20
109.920
 30
0.000000
  70
    32
  0
VERTEX
  8
SAPA_FOGBAND
  5
2A68
 10
-23.3170
 20
109.821
 30
0.000000
  70
    32
  0
VERTEX
  8
SAPA_FOGBAND
  5
2A69
 10
-23.2474
 20
109.728
 30
0.000000
  70
    32
  0
VERTEX
  8
SAPA_FOGBAND
  5
2A6A
 10
-23.1751
 20
109.641
 30
0.000000
  70
    32
  0
VERTEX
  8
SAPA_FOGBAND
  5
2A6B
 10
-23.1005
 20
109.560
 30
0.000000
  70
    32
  0
VERTEX
  8
SAPA_FOGBAND
  5
2A6C
 10
-23.0236
 20
109.485
 30
0.000000
  70
    32
  0
VERTEX
  8
SAPA_FOGBAND
  5
2A6D
 10
-22.9447
 20
109.417
 30
0.000000
  70
    32
  0
VERTEX
  8
SAPA_FOGBAND
  5
2A6E
 10
-22.8640
 20
109.356
 30
0.000000
  70
    32
  0
VERTEX
  8
SAPA_FOGBAND
  5
2A6F
 10
-22.7815
 20
109.301
 30
0.000000
  70
    32
  0
VERTEX
  8
SAPA_FOGBAND
  5
2A70
 10
-22.6976
 20
109.254
 30
0.000000
  70
    32
  0
VERTEX
  8
SAPA_FOGBAND
  5
2A71
 10
-22.6125
 20
109.213
 30
0.000000
  70
    32
  0
VERTEX
  8
SAPA_FOGBAND
  5
2A72
 10
-22.5263
 20
109.180
 30
0.000000
  70
    32
  0
VERTEX
  8
SAPA_FOGBAND
  5
2A73
 10
-22.4392
 20
109.154
 30
0.000000
  70
    32
  0
VERTEX
  8
SAPA_FOGBAND
  5
2A74
 10
-22.3516
 20
109.136
 30
0.000000
  70
    32
  0
VERTEX
  8
SAPA_FOGBAND
  5
2A75
 10
-22.2634
 20
109.124
 30
0.000000
  70
    32
  0
VERTEX
  8
SAPA_FOGBAND
  5
2A76
 10
-22.1751
 20
109.121
 30
0.000000
  70
    32
  0
VERTEX
  8
SAPA_FOGBAND
  5
2A77
 10
-22.0868
 20
109.124
 30
0.000000
  70
    32
  0
VERTEX
  8
SAPA_FOGBAND
  5
2A78
 10
-21.9987
 20
109.136
 30
0.000000
  70
    32
  0
VERTEX
  8
SAPA_FOGBAND
  5
2A79
 10
-21.9110
 20
109.154
 30
0.000000
  70
    32
  0
VERTEX
  8
SAPA_FOGBAND
  5
2A7A
 10
-21.8240
 20
109.180
 30
0.000000
  70
    32
  0
VERTEX
  8
SAPA_FOGBAND
  5
2A7B
 10
-21.7378
 20
109.213
 30
0.000000
  70
    32
  0
VERTEX
  8
SAPA_FOGBAND
  5
2A7C
 10
-21.6526
 20
109.254
 30
0.000000
  70
    32
  0
VERTEX
  8
SAPA_FOGBAND
  5
2A7D
 10
-21.5687
 20
109.301
 30
0.000000
  70
    32
  0
VERTEX
  8
SAPA_FOGBAND
  5
2A7E
 10
-21.4863
 20
109.356
 30
0.000000
  70
    32
  0
VERTEX
  8
SAPA_FOGBAND
  5
2A7F
 10
-21.4055
 20
109.417
 30
0.000000
  70
    32
  0
VERTEX
  8
SAPA_FOGBAND
  5
2A80
 10
-21.3266
 20
109.485
 30
0.000000
  70
    32
  0
VERTEX
  8
SAPA_FOGBAND
  5
2A81
 10
-21.2497
 20
109.560
 30
0.000000
  70
    32
  0
VERTEX
  8
SAPA_FOGBAND
  5
2A82
 10
-21.1751
 20
109.641
 30
0.000000
  70
    32
  0
VERTEX
  8
SAPA_FOGBAND
  5
2A83
 10
-21.1029
 20
109.728
 30
0.000000
  70
    32
  0
VERTEX
  8
SAPA_FOGBAND
  5
2A84
 10
-21.0332
 20
109.821
 30
0.000000
  70
    32
  0
VERTEX
  8
SAPA_FOGBAND
  5
2A85
 10
-20.9663
 20
109.920
 30
0.000000
  70
    32
  0
VERTEX
  8
SAPA_FOGBAND
  5
2A86
 10
-20.9023
 20
110.024
 30
0.000000
  70
    32
  0
VERTEX
  8
SAPA_FOGBAND
  5
2A87
 10
-20.8414
 20
110.134
 30
0.000000
  70
    32
  0
VERTEX
  8
SAPA_FOGBAND
  5
2A88
 10
-20.7837
 20
110.249
 30
0.000000
  70
    32
  0
VERTEX
  8
SAPA_FOGBAND
  5
2A89
 10
-20.7293
 20
110.368
 30
0.000000
  70
    32
  0
VERTEX
  8
SAPA_FOGBAND
  5
2A8A
 10
-20.6785
 20
110.492
 30
0.000000
  70
    32
  0
VERTEX
  8
SAPA_FOGBAND
  5
2A8B
 10
-20.6312
 20
110.620
 30
0.000000
  70
    32
  0
VERTEX
  8
SAPA_FOGBAND
  5
2A8C
 10
-20.5877
 20
110.752
 30
0.000000
  70
    32
  0
VERTEX
  8
SAPA_FOGBAND
  5
2A8D
 10
-20.5479
 20
110.887
 30
0.000000
  70
    32
  0
VERTEX
  8
SAPA_FOGBAND
  5
2A8E
 10
-20.5121
 20
111.025
 30
0.000000
  70
    32
  0
VERTEX
  8
SAPA_FOGBAND
  5
2A8F
 10
-20.4803
 20
111.167
 30
0.000000
  70
    32
  0
VERTEX
  8
SAPA_FOGBAND
  5
2A90
 10
-20.4526
 20
111.310
 30
0.000000
  70
    32
  0
VERTEX
  8
SAPA_FOGBAND
  5
2A91
 10
-20.4291
 20
111.456
 30
0.000000
  70
    32
  0
VERTEX
  8
SAPA_FOGBAND
  5
2A92
 10
-20.4097
 20
111.604
 30
0.000000
  70
    32
  0
VERTEX
  8
SAPA_FOGBAND
  5
2A93
 10
-20.3946
 20
111.753
 30
0.000000
  70
    32
  0
VERTEX
  8
SAPA_FOGBAND
  5
2A94
 10
-20.3838
 20
111.904
 30
0.000000
  70
    32
  0
VERTEX
  8
SAPA_FOGBAND
  5
2A95
 10
-20.3773
 20
112.055
 30
0.000000
  70
    32
  0
VERTEX
  8
SAPA_FOGBAND
  5
2A96
 10
-20.3751
 20
112.206
 30
0.000000
  70
    32
  0
VERTEX
  8
SAPA_FOGBAND
  5
2A97
 10
-20.3773
 20
112.357
 30
0.000000
  70
    32
  0
VERTEX
  8
SAPA_FOGBAND
  5
2A98
 10
-20.3838
 20
112.508
 30
0.000000
  70
    32
  0
VERTEX
  8
SAPA_FOGBAND
  5
2A99
 10
-20.3946
 20
112.659
 30
0.000000
  70
    32
  0
VERTEX
  8
SAPA_FOGBAND
  5
2A9A
 10
-20.4097
 20
112.808
 30
0.000000
  70
    32
  0
VERTEX
  8
SAPA_FOGBAND
  5
2A9B
 10
-20.4291
 20
112.956
 30
0.000000
  70
    32
  0
VERTEX
  8
SAPA_FOGBAND
  5
2A9C
 10
-20.4526
 20
113.102
 30
0.000000
  70
    32
  0
VERTEX
  8
SAPA_FOGBAND
  5
2A9D
 10
-20.4803
 20
113.245
 30
0.000000
  70
    32
  0
VERTEX
  8
SAPA_FOGBAND
  5
2A9E
 10
-20.5121
 20
113.387
 30
0.000000
  70
    32
  0
VERTEX
  8
SAPA_FOGBAND
  5
2A9F
 10
-20.5479
 20
113.525
 30
0.000000
  70
    32
  0
VERTEX
  8
SAPA_FOGBAND
  5
2AA0
 10
-20.5877
 20
113.660
 30
0.000000
  70
    32
  0
VERTEX
  8
SAPA_FOGBAND
  5
2AA1
 10
-20.6312
 20
113.792
 30
0.000000
  70
    32
  0
VERTEX
  8
SAPA_FOGBAND
  5
2AA2
 10
-20.6785
 20
113.920
 30
0.000000
  70
    32
  0
VERTEX
  8
SAPA_FOGBAND
  5
2AA3
 10
-20.7293
 20
114.044
 30
0.000000
  70
    32
  0
VERTEX
  8
SAPA_FOGBAND
  5
2AA4
 10
-20.7837
 20
114.163
 30
0.000000
  70
    32
  0
VERTEX
  8
SAPA_FOGBAND
  5
2AA5
 10
-20.8414
 20
114.278
 30
0.000000
  70
    32
  0
VERTEX
  8
SAPA_FOGBAND
  5
2AA6
 10
-20.9023
 20
114.388
 30
0.000000
  70
    32
  0
VERTEX
  8
SAPA_FOGBAND
  5
2AA7
 10
-20.9663
 20
114.492
 30
0.000000
  70
    32
  0
VERTEX
  8
SAPA_FOGBAND
  5
2AA8
 10
-21.0332
 20
114.591
 30
0.000000
  70
    32
  0
VERTEX
  8
SAPA_FOGBAND
  5
2AA9
 10
-21.1029
 20
114.684
 30
0.000000
  70
    32
  0
VERTEX
  8
SAPA_FOGBAND
  5
2AAA
 10
-21.1751
 20
114.771
 30
0.000000
  70
    32
  0
VERTEX
  8
SAPA_FOGBAND
  5
2AAB
 10
-21.2497
 20
114.852
 30
0.000000
  70
    32
  0
VERTEX
  8
SAPA_FOGBAND
  5
2AAC
 10
-21.3266
 20
114.927
 30
0.000000
  70
    32
  0
VERTEX
  8
SAPA_FOGBAND
  5
2AAD
 10
-21.4055
 20
114.995
 30
0.000000
  70
    32
  0
VERTEX
  8
SAPA_FOGBAND
  5
2AAE
 10
-21.4863
 20
115.056
 30
0.000000
  70
    32
  0
VERTEX
  8
SAPA_FOGBAND
  5
2AAF
 10
-21.5687
 20
115.111
 30
0.000000
  70
    32
  0
VERTEX
  8
SAPA_FOGBAND
  5
2AB0
 10
-21.6526
 20
115.158
 30
0.000000
  70
    32
  0
VERTEX
  8
SAPA_FOGBAND
  5
2AB1
 10
-21.7378
 20
115.199
 30
0.000000
  70
    32
  0
VERTEX
  8
SAPA_FOGBAND
  5
2AB2
 10
-21.8240
 20
115.232
 30
0.000000
  70
    32
  0
VERTEX
  8
SAPA_FOGBAND
  5
2AB3
 10
-21.9110
 20
115.258
 30
0.000000
  70
    32
  0
VERTEX
  8
SAPA_FOGBAND
  5
2AB4
 10
-21.9987
 20
115.276
 30
0.000000
  70
    32
  0
VERTEX
  8
SAPA_FOGBAND
  5
2AB5
 10
-22.0868
 20
115.287
 30
0.000000
  70
    32
  0
VERTEX
  8
SAPA_FOGBAND
  5
2AB6
 10
-22.1751
 20
115.291
 30
0.000000
  70
    32
  0
SEQEND
  8
SAPA_FOGBAND
  5
2AB7
  0
POLYLINE
  5
17FD
  8
SAPA_FOGBAND
 62
     2
 66
     1
 10
0.0
 20
0.0
 30
0.0
 70
     1
  0
VERTEX
  5
288D
  8
SAPA_FOGBAND
 62
     2
 10
-27.475123040939518
 20
104.7622733468862
 30
0.0
  0
VERTEX
  5
288E
  8
SAPA_FOGBAND
 62
     2
 10
-27.475123040939518
 20
118.4427379961849
 30
0.0
 42
-0.427966335106886
  0
VERTEX
  5
288F
  8
SAPA_FOGBAND
 62
     2
 10
-27.161110469580262
 20
118.7424105639049
 30
0.0
  0
VERTEX
  5
2890
  8
SAPA_FOGBAND
 62
     2
 10
-18.961110469580269
 20
118.2561106558253
 30
0.0
 42
-0.4005932428724212
  0
VERTEX
  5
2891
  8
SAPA_FOGBAND
 62
     2
 10
-18.675123040939521
 20
117.9564380881053
 30
0.0
  0
VERTEX
  5
2892
  8
SAPA_FOGBAND
 62
     2
 10
-18.675123040939521
 20
116.14273799618491
 30
0.0
  0
VERTEX
  5
2893
  8
SAPA_FOGBAND
 62
     2
 10
-16.975123040939529
 20
116.14273799618491
 30
0.0
 42
-0.4142135623730951
  0
VERTEX
  5
2894
  8
SAPA_FOGBAND
 62
     2
 10
-16.675123040939521
 20
115.84273799618489
 30
0.0
  0
VERTEX
  5
2895
  8
SAPA_FOGBAND
 62
     2
 10
-16.675123040939521
 20
108.423957232559
 30
0.0
 42
-0.1379343940649207
  0
VERTEX
  5
2896
  8
SAPA_FOGBAND
 62
     2
 10
-16.821699655794308
 20
107.9027389235106
 30
0.0
  0
VERTEX
  5
2897
  8
SAPA_FOGBAND
 62
     2
 10
-24.22891789370264
 20
95.982128841660725
 30
0.0
 42
-0.2613472755167645
  0
VERTEX
  5
2898
  8
SAPA_FOGBAND
 62
     2
 10
-24.65562958627525
 20
95.742737996184928
 30
0.0
  0
VERTEX
  5
2899
  8
SAPA_FOGBAND
 62
     2
 10
-25.65032620343845
 20
95.742737996184928
 30
0.0
 42
-0.3915187749346393
  0
VERTEX
  5
289A
  8
SAPA_FOGBAND
 62
     2
 10
-26.647277817443548
 20
96.664715695958449
 30
0.0
  0
VERTEX
  5
289B
  8
SAPA_FOGBAND
 62
     2
 10
-27.473598847942071
 20
104.72326219677301
 30
0.0
 42
-0.0195279011117891
  0
SEQEND
  5
289C
  8
SAPA_FOGBAND
 62
     2
  0
POLYLINE
  5
17FE
  8
SAPA_FOGBAND
 66
     1
 10
0.0
 20
0.0
 30
0.0
 70
     1
  0
VERTEX
  5
289D
  8
SAPA_FOGBAND
 10
-63.36413962003877
 20
64.805446441378763
 30
0.0
 42
0.1579553886371987
  0
VERTEX
  5
289E
  8
SAPA_FOGBAND
 10
-63.511199126503129
 20
68.069274485494816
 30
0.0
 42
1.0
  0
VERTEX
  5
289F
  8
SAPA_FOGBAND
 10
-66.882516849264249
 20
66.80665149655556
 30
0.0
 42
0.1276248526686838
  0
VERTEX
  5
28A0
  8
SAPA_FOGBAND
 10
-65.641204427578657
 20
65.038998988077992
 30
0.0
  0
VERTEX
  5
28A1
  8
SAPA_FOGBAND
 10
-64.571815755006241
 20
64.129652464509263
 30
0.0
 42
0.5691506674918112
  0
VERTEX
  5
28A2
  8
SAPA_FOGBAND
 10
-63.433124560369151
 20
64.519888220227358
 30
0.0
 42
-0.0156300267407041
  0
SEQEND
  5
28A3
  8
SAPA_FOGBAND
  0
POLYLINE
  5
17FF
  8
SAPA_FOGBAND
 66
     1
 10
0.0
 20
0.0
 30
0.0
 70
     1
  0
VERTEX
  5
28A4
  8
SAPA_FOGBAND
 10
-70.57362799565135
 20
53.502595000825522
 30
0.0
 42
-0.3888787318529789
  0
VERTEX
  5
28A5
  8
SAPA_FOGBAND
 10
-69.586572171141356
 20
54.788951195737127
 30
0.0
  0
VERTEX
  5
28A6
  8
SAPA_FOGBAND
 10
-68.869070321555
 20
54.915466130527648
 30
0.0
 42
-1.0
  0
VERTEX
  5
28A7
  8
SAPA_FOGBAND
 10
-68.278185669747685
 20
55.019655037128132
 30
0.0
  0
VERTEX
  5
28A8
  8
SAPA_FOGBAND
 10
-67.669070321554713
 20
55.127058507377797
 30
0.0
 42
-0.9999999999999067
  0
VERTEX
  5
28A9
  8
SAPA_FOGBAND
 10
-67.078185669747427
 20
55.231247413977833
 30
0.0
  0
VERTEX
  5
28AA
  8
SAPA_FOGBAND
 10
-66.733459035078567
 20
55.292032020639219
 30
0.0
 42
0.3345953195020691
  0
VERTEX
  5
28AB
  8
SAPA_FOGBAND
 10
-64.681274740825074
 20
57.492730245000303
 30
0.0
  0
VERTEX
  5
28AC
  8
SAPA_FOGBAND
 10
-64.328166967907919
 20
61.506537650012199
 30
0.0
 42
0.2564696513213821
  0
VERTEX
  5
28AD
  8
SAPA_FOGBAND
 10
-65.454099133849923
 20
63.961031848719131
 30
0.0
  0
VERTEX
  5
28AE
  8
SAPA_FOGBAND
 10
-66.094664314068496
 20
64.505731577349934
 30
0.0
 42
-0.1276248526686853
  0
VERTEX
  5
28AF
  8
SAPA_FOGBAND
 10
-67.538050850912214
 20
66.561141470928987
 30
0.0
 42
-1.0
  0
VERTEX
  5
28B0
  8
SAPA_FOGBAND
 10
-62.85566512485525
 20
68.314784511121843
 30
0.0
 42
-0.1579553886371977
  0
VERTEX
  5
28B1
  8
SAPA_FOGBAND
 10
-62.68918266470677
 20
64.619884838537246
 30
0.0
 42
0.0604483959424258
  0
VERTEX
  5
28B2
  8
SAPA_FOGBAND
 10
-62.790275199159851
 20
61.229772777551943
 30
0.0
  0
VERTEX
  5
28B3
  8
SAPA_FOGBAND
 10
-62.578194357941129
 20
56.072206021184449
 30
0.0
 42
0.3286126757704555
  0
VERTEX
  5
28B4
  8
SAPA_FOGBAND
 10
-61.522638802385472
 20
54.639561914714932
 30
0.0
 42
-0.2704382184496639
  0
VERTEX
  5
28B5
  8
SAPA_FOGBAND
 10
-60.60896252724546
 20
53.52105338957859
 30
0.0
  0
VERTEX
  5
28B6
  8
SAPA_FOGBAND
 10
-64.47819435794122
 20
53.720917154706278
 30
0.0
  0
VERTEX
  5
28B7
  8
SAPA_FOGBAND
 10
-64.47819435794122
 20
52.520917154706467
 30
0.0
  0
VERTEX
  5
28B8
  8
SAPA_FOGBAND
 10
-64.532666120980593
 20
51.45985274915688
 30
0.0
  0
VERTEX
  5
28B9
  8
SAPA_FOGBAND
 10
-63.982820212175511
 20
51.460821759014607
 30
0.0
 42
-0.6068148963145658
  0
VERTEX
  5
28BA
  8
SAPA_FOGBAND
 10
-63.867629642800459
 20
50.941230678192142
 30
0.0
  0
VERTEX
  5
28BB
  8
SAPA_FOGBAND
 10
-65.683042452820914
 20
49.56490499230199
 30
0.0
 42
-0.4400105308918406
  0
VERTEX
  5
28BC
  8
SAPA_FOGBAND
 10
-67.207671744059326
 20
49.765626246388592
 30
0.0
  0
VERTEX
  5
28BD
  8
SAPA_FOGBAND
 10
-68.730873125475
 20
51.782589170611352
 30
0.0
 42
-0.5205670505516999
  0
VERTEX
  5
28BE
  8
SAPA_FOGBAND
 10
-68.562773225718956
 20
52.244439849403307
 30
0.0
  0
VERTEX
  5
28BF
  8
SAPA_FOGBAND
 10
-67.817934114286345
 20
52.271035480438279
 30
0.0
  0
VERTEX
  5
28C0
  8
SAPA_FOGBAND
 10
-68.01744505774036
 20
53.560948289286671
 30
0.0
  0
SEQEND
  5
28C1
  8
SAPA_FOGBAND
  0
CIRCLE
  5
1800
  8
SAPA_FOGBAND
 10
-63.997051921926641
 20
55.116112603380088
 30
0.0
 40
0.3
  0
POLYLINE
  5
1801
  8
SAPA_FOGBAND
 66
     1
 10
0.0
 20
0.0
 30
0.0
 70
     1
  0
VERTEX
  5
28C2
  8
SAPA_FOGBAND
 10
-67.178194357941038
 20
51.307464885984473
 30
0.0
  0
VERTEX
  5
28C3
  8
SAPA_FOGBAND
 10
-67.178194357941038
 20
53.220917154706278
 30
0.0
 42
-0.4142135623730951
  0
VERTEX
  5
28C4
  8
SAPA_FOGBAND
 10
-66.678194357941038
 20
53.720917154706278
 30
0.0
  0
VERTEX
  5
28C5
  8
SAPA_FOGBAND
 10
-65.878194357941311
 20
53.720917154706278
 30
0.0
 42
-0.4142135623730951
  0
VERTEX
  5
28C6
  8
SAPA_FOGBAND
 10
-65.378194357941311
 20
53.220917154706278
 30
0.0
  0
VERTEX
  5
28C7
  8
SAPA_FOGBAND
 10
-65.378194357941311
 20
51.144813342639956
 30
0.0
 42
-0.2216946626429447
  0
VERTEX
  5
28C8
  8
SAPA_FOGBAND
 10
-65.592521792129219
 20
50.685186676768119
 30
0.0
  0
VERTEX
  5
28C9
  8
SAPA_FOGBAND
 10
-66.021716412066084
 20
50.325049629475643
 30
0.0
 42
-0.4400105308918337
  0
VERTEX
  5
28CA
  8
SAPA_FOGBAND
 10
-66.683797910999829
 20
50.412214312417063
 30
0.0
  0
VERTEX
  5
28CB
  8
SAPA_FOGBAND
 10
-67.069685584514673
 20
50.96331902417365
 30
0.0
 42
-0.153914721059829
  0
SEQEND
  5
28CC
  8
SAPA_FOGBAND
  0
POLYLINE
  5
1802
  8
SAPA_FOGBAND
 66
     1
 10
0.0
 20
0.0
 30
0.0
 70
     1
  0
VERTEX
  5
28CD
  8
SAPA_FOGBAND
 10
-78.598715291458049
 20
72.761691587341545
 30
0.0
  0
VERTEX
  5
28CE
  8
SAPA_FOGBAND
 10
-79.598715291458049
 20
72.761691587341545
 30
0.0
 42
0.9999999999999998
  0
VERTEX
  5
28CF
  8
SAPA_FOGBAND
 10
-79.598715291458049
 20
71.557532129462317
 30
0.0
  0
VERTEX
  5
28D0
  8
SAPA_FOGBAND
 10
-78.598715291458049
 20
71.557532129462317
 30
0.0
 42
0.9999999999999998
  0
SEQEND
  5
28D1
  8
SAPA_FOGBAND
  0
POLYLINE
  5
1803
  8
SAPA_FOGBAND
 66
     1
 10
0.0
 20
0.0
 30
0.0
 70
     1
  0
VERTEX
  5
28D2
  8
SAPA_FOGBAND
 10
-79.522567588814368
 20
70.192327582216691
 30
0.0
  0
VERTEX
  5
28D3
  8
SAPA_FOGBAND
 10
-80.908332675759908
 20
71.050386292526156
 30
0.0
 42
-0.2528723899644565
  0
VERTEX
  5
28D4
  8
SAPA_FOGBAND
 10
-80.998715291458041
 20
71.217670568711384
 30
0.0
  0
VERTEX
  5
28D5
  8
SAPA_FOGBAND
 10
-80.998715291458041
 20
73.101553148092464
 30
0.0
 42
-0.2528723899644564
  0
VERTEX
  5
28D6
  8
SAPA_FOGBAND
 10
-80.908332675759908
 20
73.268837424277706
 30
0.0
  0
VERTEX
  5
28D7
  8
SAPA_FOGBAND
 10
-79.522567588814368
 20
74.12689613458717
 30
0.0
 42
-0.5108224790788402
  0
VERTEX
  5
28D8
  8
SAPA_FOGBAND
 10
-79.219765039254696
 20
74.011375667422442
 30
0.0
  0
VERTEX
  5
28D9
  8
SAPA_FOGBAND
 10
-79.098715291458049
 20
73.609611858401934
 30
0.0
  0
VERTEX
  5
28DA
  8
SAPA_FOGBAND
 10
-77.998715291458041
 20
73.609611858401934
 30
0.0
  0
VERTEX
  5
28DB
  8
SAPA_FOGBAND
 10
-77.998715291458041
 20
75.4743464622602
 30
0.0
 42
-0.0874886635259237
  0
VERTEX
  5
28DC
  8
SAPA_FOGBAND
 10
-77.986653815615227
 20
75.542750490925329
 30
0.0
  0
VERTEX
  5
28DD
  8
SAPA_FOGBAND
 10
-77.430840101178461
 20
79.075494636965459
 30
0.0
 42
-0.9391885369168745
  0
VERTEX
  5
28DE
  8
SAPA_FOGBAND
 10
-77.047883582505833
 20
78.962728667233961
 30
0.0
  0
VERTEX
  5
28DF
  8
SAPA_FOGBAND
 10
-77.198715291458043
 20
75.090534861996971
 30
0.0
  0
VERTEX
  5
28E0
  8
SAPA_FOGBAND
 10
-77.003999510883403
 20
74.260359895148355
 30
0.0
 42
-0.0576596372120268
  0
VERTEX
  5
28E1
  8
SAPA_FOGBAND
 10
-76.998715291458041
 20
74.21468972112622
 30
0.0
  0
VERTEX
  5
28E2
  8
SAPA_FOGBAND
 10
-76.998715291458041
 20
69.809611858401937
 30
0.0
 42
-0.4142135623730951
  0
VERTEX
  5
28E3
  8
SAPA_FOGBAND
 10
-77.598715291458035
 20
69.209611858401928
 30
0.0
  0
VERTEX
  5
28E4
  8
SAPA_FOGBAND
 10
-77.798715291458052
 20
69.209611858401928
 30
0.0
 42
-0.4142135623730951
  0
VERTEX
  5
28E5
  8
SAPA_FOGBAND
 10
-77.998715291458041
 20
69.409611858401931
 30
0.0
  0
VERTEX
  5
28E6
  8
SAPA_FOGBAND
 10
-77.998715291458041
 20
70.709611858401928
 30
0.0
  0
VERTEX
  5
28E7
  8
SAPA_FOGBAND
 10
-79.098715291458049
 20
70.709611858401928
 30
0.0
  0
VERTEX
  5
28E8
  8
SAPA_FOGBAND
 10
-79.219765039254696
 20
70.30784804938142
 30
0.0
 42
-0.51082247907884
  0
SEQEND
  5
28E9
  8
SAPA_FOGBAND
  0
POLYLINE
  5
1804
  8
SAPA_FOGBAND
 66
     1
 10
0.0
 20
0.0
 30
0.0000000195376815
 70
     1
  0
VERTEX
  5
28EA
  8
SAPA_FOGBAND
 10
10.5513651514435
 20
50.887868548666901
 30
0.0000000195376815
  0
VERTEX
  5
28EB
  8
SAPA_FOGBAND
 10
10.5513651514435
 20
50.787868548666907
 30
0.0000000195376815
 42
-0.4142135623730959
  0
VERTEX
  5
28EC
  8
SAPA_FOGBAND
 10
9.8513651514435132
 20
50.087868548666918
 30
0.0000000195376815
  0
VERTEX
  5
28ED
  8
SAPA_FOGBAND
 10
8.7513651514435207
 20
50.087868548666897
 30
0.0000000195376815
 42
-0.4142135623730961
  0
VERTEX
  5
28EE
  8
SAPA_FOGBAND
 10
8.5513651514435036
 20
50.287868548666907
 30
0.0000000195376815
  0
VERTEX
  5
28EF
  8
SAPA_FOGBAND
 10
8.5513651514435036
 20
51.387868548666901
 30
0.0000000195376815
 42
-0.4142135623730956
  0
VERTEX
  5
28F0
  8
SAPA_FOGBAND
 10
8.7513651514435207
 20
51.587868548666933
 30
0.0000000195376815
  0
VERTEX
  5
28F1
  8
SAPA_FOGBAND
 10
9.8513651514435132
 20
51.587868548666897
 30
0.0000000195376815
 42
-0.4142135623730946
  0
SEQEND
  5
28F2
  8
SAPA_FOGBAND
  0
POLYLINE
  5
1805
  8
SAPA_FOGBAND
 66
     1
 10
0.0
 20
0.0
 30
0.0000000195376815
 70
     1
  0
VERTEX
  5
28F3
  8
SAPA_FOGBAND
 10
9.2513651514435224
 20
52.387868548666908
 30
0.0000000195376815
  0
VERTEX
  5
28F4
  8
SAPA_FOGBAND
 10
8.6035995861704322
 20
52.387868548666908
 30
0.0000000195376815
 42
-0.4416942457848324
  0
VERTEX
  5
28F5
  8
SAPA_FOGBAND
 10
8.4044621066774852
 20
52.606422908294817
 30
0.0000000195376815
  0
VERTEX
  5
28F6
  8
SAPA_FOGBAND
 10
8.4941781719355305
 20
53.569314189038998
 30
0.0000000195376815
 42
0.4416942457847888
  0
VERTEX
  5
28F7
  8
SAPA_FOGBAND
 10
8.2950406924426119
 20
53.787868548666907
 30
0.0000000195376815
  0
VERTEX
  5
28F8
  8
SAPA_FOGBAND
 10
7.7450583528510446
 20
53.787868548666907
 30
0.0000000195376815
 42
0.5445962197109612
  0
VERTEX
  5
28F9
  8
SAPA_FOGBAND
 10
7.2893214437892038
 20
53.082189503261837
 30
0.0000000195376815
  0
VERTEX
  5
28FA
  8
SAPA_FOGBAND
 10
7.4513651514435102
 20
52.723138349976573
 30
0.0000000195376815
  0
VERTEX
  5
28FB
  8
SAPA_FOGBAND
 10
7.4513651514435111
 20
51.250179111228668
 30
0.0000000195376815
 42
0.3364379234965429
  0
VERTEX
  5
28FC
  8
SAPA_FOGBAND
 10
7.63887196928526
 20
50.178435381613831
 30
0.0000000195376815
  0
VERTEX
  5
28FD
  8
SAPA_FOGBAND
 10
7.63887196928526
 20
49.616571745790132
 30
0.0000000195376815
 42
-0.1919812372740509
  0
VERTEX
  5
28FE
  8
SAPA_FOGBAND
 10
7.5017395912679881
 20
49.27258469819008
 30
0.0000000195376815
  0
VERTEX
  5
28FF
  8
SAPA_FOGBAND
 10
7.1302621149779046
 20
48.88071776778682
 30
0.0000000195376815
 42
-0.7712067734688043
  0
VERTEX
  5
2900
  8
SAPA_FOGBAND
 10
4.3206281192972451
 20
51.453149467660943
 30
0.0000000195376815
 42
-0.152544453744271
  0
VERTEX
  5
2901
  8
SAPA_FOGBAND
 10
5.2125033880510241
 20
52.322575217501097
 30
0.0000000195376815
 42
0.6229515670381967
  0
VERTEX
  5
2902
  8
SAPA_FOGBAND
 10
5.1126211042284941
 20
52.797515402276851
 30
0.0000000195376815
 42
0.2412896305485237
  0
VERTEX
  5
2903
  8
SAPA_FOGBAND
 10
4.7091562898863613
 20
52.760764130978728
 30
0.0000000195376815
 42
0.0924947384438033
  0
VERTEX
  5
2904
  8
SAPA_FOGBAND
 10
4.0186558778449442
 20
52.138771222248451
 30
0.0000000195376815
 42
0.8622191196043894
  0
VERTEX
  5
2905
  8
SAPA_FOGBAND
 10
7.5945676298207836
 20
48.314900068507157
 30
0.0000000195376815
  0
VERTEX
  5
2906
  8
SAPA_FOGBAND
 10
7.7099356031099102
 20
47.884340930625903
 30
0.0000000195376815
 42
0.9163311740173991
  0
VERTEX
  5
2907
  8
SAPA_FOGBAND
 10
8.4947838128622486
 20
48.022730845765999
 30
0.0000000195376815
  0
VERTEX
  5
2908
  8
SAPA_FOGBAND
 10
8.4031213666546982
 20
49.07043740011737
 30
0.0000000195376815
 42
-0.4400105308918151
  0
VERTEX
  5
2909
  8
SAPA_FOGBAND
 10
8.6023603062730398
 20
49.287868548666907
 30
0.0000000195376815
  0
VERTEX
  5
290A
  8
SAPA_FOGBAND
 10
9.4513651514435093
 20
49.287868548666907
 30
0.0000000195376815
  0
VERTEX
  5
290B
  8
SAPA_FOGBAND
 10
9.4513651514435093
 20
48.887868548666901
 30
0.0000000195376815
 42
0.5693809839207585
  0
VERTEX
  5
290C
  8
SAPA_FOGBAND
 10
9.7471815231461516
 20
48.712314503103372
 30
0.0000000195376815
  0
VERTEX
  5
290D
  8
SAPA_FOGBAND
 10
11.03881426655145
 20
49.417280103002398
 30
0.0000000195376815
 42
0.2743878130875472
  0
VERTEX
  5
290E
  8
SAPA_FOGBAND
 10
11.351365151443529
 20
49.943942239693129
 30
0.0000000195376815
  0
VERTEX
  5
290F
  8
SAPA_FOGBAND
 10
11.35136515144351
 20
51.731794857640679
 30
0.0000000195376815
 42
0.2743878130875473
  0
VERTEX
  5
2910
  8
SAPA_FOGBAND
 10
11.038814266551441
 20
52.258456994331397
 30
0.0000000195376815
  0
VERTEX
  5
2911
  8
SAPA_FOGBAND
 10
9.7471815231461818
 20
52.963422594230487
 30
0.0000000195376815
 42
0.5693809839208271
  0
VERTEX
  5
2912
  8
SAPA_FOGBAND
 10
9.4513651514434773
 20
52.787868548666907
 30
0.0000000195376815
  0
VERTEX
  5
2913
  8
SAPA_FOGBAND
 10
9.4513651514435111
 20
52.387868548666908
 30
0.0000000195376815
  0
VERTEX
  5
2914
  8
SAPA_FOGBAND
 10
8.6023603062730416
 20
52.387868548666908
 30
0.0000000195376815
  0
SEQEND
  5
2915
  8
SAPA_FOGBAND
  0
CIRCLE
  5
1806
  8
SAPA_FOGBAND
 10
-85.028466855359767
 20
-18.62935679561291
 30
0.0
 40
0.2549509756796394
  0
INSERT
  5
1807
  8
SAPA_FOGBAND
  6
CONTINUOUS
  2
*U184
 10
0.0
 20
0.0
 30
0.0
1001
ACAD
1002
{
1000
R14_HATCH_DATA
1000
1807
1011
1.0
1021
0.0
1031
0.0
1021
0.0
1031
0.0
1011
0.0
1021
0.0
1031
0.0
1021
1.0
1031
0.0
1011
0.0
1021
0.0
1031
0.0
1021
0.0
1031
1.0
1040
0.0
1010
0.0
1020
0.0
1030
1.0
1000
SOLID
1070
     1
1070
     1
1071
        1
1071
        1
1071
        1
1070
     2
1040
-85.028466855359767
1040
-18.62935679561291
1040
0.2549509756796394
1040
-1.5707963267948959
1040
4.7123889803846888
1070
     0
1071
        1
1005
1806
1070
     0
1070
     1
1071
        1
1040
-436.19161876006672
1040
-577.52116078462961
1040
0.0
1002
}
  0
POLYLINE
  5
1808
  8
SAPA_FOGBAND
 66
     1
 10
0.0
 20
0.0
 30
0.0
 70
     1
  0
VERTEX
  5
2927
  8
SAPA_FOGBAND
 10
-87.599999999011075
 20
-17.72935679561327
 30
0.0
 42
-0.9999999999999998
  0
VERTEX
  5
2928
  8
SAPA_FOGBAND
 10
-87.599999999011075
 20
-19.529356795613449
 30
0.0
  0
VERTEX
  5
2929
  8
SAPA_FOGBAND
 10
-88.199999999011439
 20
-19.529356795613449
 30
0.0
 42
-0.9999999999999998
  0
VERTEX
  5
292A
  8
SAPA_FOGBAND
 10
-88.199999999011439
 20
-17.72935679561327
 30
0.0
  0
SEQEND
  5
292B
  8
SAPA_FOGBAND
  0
POLYLINE
  5
1809
  8
SAPA_FOGBAND
 66
     1
 10
0.0
 20
0.0
 30
0.0
 70
     1
  0
VERTEX
  5
292C
  8
SAPA_FOGBAND
 10
-84.164228703859635
 20
-14.37935679561291
 30
0.0
  0
VERTEX
  5
292D
  8
SAPA_FOGBAND
 10
-86.299999999010893
 20
-14.37935679561291
 30
0.0
 42
0.4142135623730951
  0
VERTEX
  5
292E
  8
SAPA_FOGBAND
 10
-86.499999999010711
 20
-14.57935679561273
 30
0.0
  0
VERTEX
  5
292F
  8
SAPA_FOGBAND
 10
-86.499999999010711
 20
-16.62935679561291
 30
0.0
 42
-0.4142135623730951
  0
VERTEX
  5
2930
  8
SAPA_FOGBAND
 10
-86.999999999010726
 20
-17.1293567956129
 30
0.0
  0
VERTEX
  5
2931
  8
SAPA_FOGBAND
 10
-87.726794918254441
 20
-17.1293567956129
 30
0.0
  0
VERTEX
  5
2932
  8
SAPA_FOGBAND
 10
-87.794254827564387
 20
-16.8775929865926
 30
0.0
 42
0.4740571810232154
  0
VERTEX
  5
2933
  8
SAPA_FOGBAND
 10
-88.076537413202715
 20
-16.750299124229269
 30
0.0
  0
VERTEX
  5
2934
  8
SAPA_FOGBAND
 10
-89.522743549963025
 20
-17.370399626988029
 30
0.0
 42
0.2846003776496056
  0
VERTEX
  5
2935
  8
SAPA_FOGBAND
 10
-89.799999999010893
 20
-17.818043805448031
 30
0.0
  0
VERTEX
  5
2936
  8
SAPA_FOGBAND
 10
-89.799999999010893
 20
-19.440669785778692
 30
0.0
 42
0.2846003776496054
  0
VERTEX
  5
2937
  8
SAPA_FOGBAND
 10
-89.522743549963025
 20
-19.888313964238691
 30
0.0
  0
VERTEX
  5
2938
  8
SAPA_FOGBAND
 10
-88.076537413202715
 20
-20.508414466997451
 30
0.0
 42
0.4740571810232154
  0
VERTEX
  5
2939
  8
SAPA_FOGBAND
 10
-87.794254827564387
 20
-20.38112060463321
 30
0.0
  0
VERTEX
  5
293A
  8
SAPA_FOGBAND
 10
-87.726794918254441
 20
-20.12935679561291
 30
0.0
  0
VERTEX
  5
293B
  8
SAPA_FOGBAND
 10
-86.999999999010726
 20
-20.12935679561291
 30
0.0
 42
-0.4142135623730951
  0
VERTEX
  5
293C
  8
SAPA_FOGBAND
 10
-86.499999999010711
 20
-20.62935679561291
 30
0.0
  0
VERTEX
  5
293D
  8
SAPA_FOGBAND
 10
-86.499999999010711
 20
-23.679356795613089
 30
0.0
 42
-0.4142135623730951
  0
VERTEX
  5
293E
  8
SAPA_FOGBAND
 10
-86.699999999011425
 20
-23.87935679561291
 30
0.0
  0
VERTEX
  5
293F
  8
SAPA_FOGBAND
 10
-87.599999999011075
 20
-23.87935679561291
 30
0.0
 42
0.4142135623730951
  0
VERTEX
  5
2940
  8
SAPA_FOGBAND
 10
-87.799999999010893
 20
-24.079356795612728
 30
0.0
  0
VERTEX
  5
2941
  8
SAPA_FOGBAND
 10
-87.799999999010893
 20
-24.779356795613449
 30
0.0
 42
0.4142135623730951
  0
VERTEX
  5
2942
  8
SAPA_FOGBAND
 10
-87.499999999010711
 20
-25.079356795612728
 30
0.0
  0
VERTEX
  5
2943
  8
SAPA_FOGBAND
 10
-86.689488222358946
 20
-25.079356795612728
 30
0.0
 42
-0.1316524975873982
  0
VERTEX
  5
2944
  8
SAPA_FOGBAND
 10
-85.689488222358946
 20
-25.347305988044571
 30
0.0
  0
VERTEX
  5
2945
  8
SAPA_FOGBAND
 10
-83.054121304015325
 20
-29.31801852514603
 30
0.0
 42
0.876976462992761
  0
VERTEX
  5
2946
  8
SAPA_FOGBAND
 10
-82.536779967899079
 20
-29.21511293523621
 30
0.0
  0
VERTEX
  5
2947
  8
SAPA_FOGBAND
 10
-83.090624764442751
 20
-23.790451373364011
 30
0.0
 42
-0.1353185728426623
  0
VERTEX
  5
2948
  8
SAPA_FOGBAND
 10
-83.090624764442751
 20
-23.790451373364011
 30
0.0
  0
VERTEX
  5
2949
  8
SAPA_FOGBAND
 10
-82.678588072042885
 20
-23.552561880535212
 30
0.0
 42
0.5773502691896196
  0
VERTEX
  5
294A
  8
SAPA_FOGBAND
 10
-82.678588072042885
 20
-23.206151719020671
 30
0.0
  0
VERTEX
  5
294B
  8
SAPA_FOGBAND
 10
-83.090898634604187
 20
-22.968104102289761
 30
0.0
  0
VERTEX
  5
294C
  8
SAPA_FOGBAND
 10
-83.090898634604187
 20
-22.190609492373589
 30
0.0
  0
VERTEX
  5
294D
  8
SAPA_FOGBAND
 10
-82.678588072042885
 20
-21.952561880534851
 30
0.0
 42
0.5773502691896196
  0
VERTEX
  5
294E
  8
SAPA_FOGBAND
 10
-82.678588072042885
 20
-21.60615171902122
 30
0.0
  0
VERTEX
  5
294F
  8
SAPA_FOGBAND
 10
-83.090898634604187
 20
-21.36810410229031
 30
0.0
  0
VERTEX
  5
2950
  8
SAPA_FOGBAND
 10
-83.090898634604187
 20
-20.590609492373218
 30
0.0
  0
VERTEX
  5
2951
  8
SAPA_FOGBAND
 10
-82.678588072042885
 20
-20.35256188053539
 30
0.0
 42
0.5773502691896196
  0
VERTEX
  5
2952
  8
SAPA_FOGBAND
 10
-82.678588072042885
 20
-20.006151719020849
 30
0.0
  0
VERTEX
  5
2953
  8
SAPA_FOGBAND
 10
-83.090898634604187
 20
-19.768104102290849
 30
0.0
  0
VERTEX
  5
2954
  8
SAPA_FOGBAND
 10
-83.090898634604187
 20
-18.990609492373761
 30
0.0
  0
VERTEX
  5
2955
  8
SAPA_FOGBAND
 10
-82.678588072042885
 20
-18.752561880535019
 30
0.0
 42
0.5773502691896196
  0
VERTEX
  5
2956
  8
SAPA_FOGBAND
 10
-82.678588072042885
 20
-18.406151719021391
 30
0.0
  0
VERTEX
  5
2957
  8
SAPA_FOGBAND
 10
-83.090898634604187
 20
-18.168104102290481
 30
0.0
  0
VERTEX
  5
2958
  8
SAPA_FOGBAND
 10
-83.090898634604187
 20
-17.3906094923734
 30
0.0
  0
VERTEX
  5
2959
  8
SAPA_FOGBAND
 10
-82.678588072042885
 20
-17.152561880534659
 30
0.0
 42
0.5773502691896196
  0
VERTEX
  5
295A
  8
SAPA_FOGBAND
 10
-82.678588072042885
 20
-16.806151719021031
 30
0.0
  0
VERTEX
  5
295B
  8
SAPA_FOGBAND
 10
-83.090898634604187
 20
-16.568104102290121
 30
0.0
  0
VERTEX
  5
295C
  8
SAPA_FOGBAND
 10
-83.090898634604187
 20
-15.79060948820846
 30
0.0
  0
VERTEX
  5
295D
  8
SAPA_FOGBAND
 10
-82.678588072042885
 20
-15.552561876369721
 30
0.0
 42
0.5773502691896196
  0
VERTEX
  5
295E
  8
SAPA_FOGBAND
 10
-82.678588072042885
 20
-15.206151714856089
 30
0.0
  0
VERTEX
  5
295F
  8
SAPA_FOGBAND
 10
-84.064228703088943
 20
-14.40615171530156
 30
0.0
 42
0.1316524987190407
  0
SEQEND
  5
2960
  8
SAPA_FOGBAND
  0
POLYLINE
  5
180A
  8
SAPA_FOGBAND
 66
     1
 10
0.0
 20
0.0
 30
0.0
 70
     1
  0
VERTEX
  5
2961
  8
SAPA_FOGBAND
 10
-33.991114672817289
 20
-21.953090993535849
 30
0.0
 42
0.4740571810231764
  0
VERTEX
  5
2962
  8
SAPA_FOGBAND
 10
-33.708832087178983
 20
-22.08038485589918
 30
0.0
  0
VERTEX
  5
2963
  8
SAPA_FOGBAND
 10
-32.262625950418638
 20
-21.46028435314042
 30
0.0
 42
0.2846003776496257
  0
VERTEX
  5
2964
  8
SAPA_FOGBAND
 10
-31.985369501370791
 20
-21.012640174680431
 30
0.0
  0
VERTEX
  5
2965
  8
SAPA_FOGBAND
 10
-31.985369501370791
 20
-19.39001419434976
 30
0.0
 42
0.2846003776496159
  0
VERTEX
  5
2966
  8
SAPA_FOGBAND
 10
-32.262625950418638
 20
-18.942370015889761
 30
0.0
  0
VERTEX
  5
2967
  8
SAPA_FOGBAND
 10
-33.708832087178983
 20
-18.322269513131001
 30
0.0
 42
0.4740571810232354
  0
VERTEX
  5
2968
  8
SAPA_FOGBAND
 10
-33.991114672817289
 20
-18.449563375494328
 30
0.0
  0
VERTEX
  5
2969
  8
SAPA_FOGBAND
 10
-34.058574582128138
 20
-18.701327184515549
 30
0.0
  0
VERTEX
  5
296A
  8
SAPA_FOGBAND
 10
-34.999999999009567
 20
-18.701327184515549
 30
0.0
 42
-0.4142135623730951
  0
VERTEX
  5
296B
  8
SAPA_FOGBAND
 10
-35.499999999009582
 20
-18.201327184515549
 30
0.0
  0
VERTEX
  5
296C
  8
SAPA_FOGBAND
 10
-35.499999999009582
 20
-15.17322763378092
 30
0.0
 42
0.1657205760184635
  0
VERTEX
  5
296D
  8
SAPA_FOGBAND
 10
-35.708118270846178
 20
-14.562553147167129
 30
0.0
  0
VERTEX
  5
296E
  8
SAPA_FOGBAND
 10
-40.60270335570182
 20
-5.1946627566896906
 30
0.0
 42
0.2325311832130358
  0
VERTEX
  5
296F
  8
SAPA_FOGBAND
 10
-40.998644219783969
 20
-4.999999999996585
 30
0.0
  0
VERTEX
  5
2970
  8
SAPA_FOGBAND
 10
-42.729387776221081
 20
-4.999999999996585
 30
0.0
 42
0.3826682380870913
  0
VERTEX
  5
2971
  8
SAPA_FOGBAND
 10
-43.723465081326829
 20
-5.8913247430457387
 30
0.0
  0
VERTEX
  5
2972
  8
SAPA_FOGBAND
 10
-44.499999999010257
 20
-11.49579350334283
 30
0.0
  0
VERTEX
  5
2973
  8
SAPA_FOGBAND
 10
-44.499999999010257
 20
-25.2013271625658
 30
0.0
 42
0.4257917699693507
  0
VERTEX
  5
2974
  8
SAPA_FOGBAND
 10
-44.188192636479251
 20
-25.501094716163831
 30
0.0
  0
VERTEX
  5
2975
  8
SAPA_FOGBAND
 10
-35.788192636478939
 20
-25.01325490149452
 30
0.0
 42
0.4027293761437475
  0
VERTEX
  5
2976
  8
SAPA_FOGBAND
 10
-35.499999999009582
 20
-24.713487347896489
 30
0.0
  0
VERTEX
  5
2977
  8
SAPA_FOGBAND
 10
-35.499999999009582
 20
-22.201327184515549
 30
0.0
 42
-0.4142135623730951
  0
VERTEX
  5
2978
  8
SAPA_FOGBAND
 10
-34.999999999009567
 20
-21.701327184514639
 30
0.0
  0
VERTEX
  5
2979
  8
SAPA_FOGBAND
 10
-34.058574582128138
 20
-21.701327184514639
 30
0.0
  0
SEQEND
  5
297A
  8
SAPA_FOGBAND
  0
POLYLINE
  5
180B
  8
SAPA_FOGBAND
 66
     1
 10
0.0
 20
0.0
 30
0.0
 70
     1
  0
VERTEX
  5
297B
  8
SAPA_FOGBAND
 10
-33.585369501371147
 20
-19.301327184514999
 30
0.0
  0
VERTEX
  5
297C
  8
SAPA_FOGBAND
 10
-34.185369501370602
 20
-19.301327184514999
 30
0.0
 42
0.9999999999999998
  0
VERTEX
  5
297D
  8
SAPA_FOGBAND
 10
-34.185369501370602
 20
-21.101327184515181
 30
0.0
  0
VERTEX
  5
297E
  8
SAPA_FOGBAND
 10
-33.585369501371147
 20
-21.101327184515181
 30
0.0
 42
0.9999999999999998
  0
SEQEND
  5
297F
  8
SAPA_FOGBAND
  0
POLYLINE
  5
180C
  8
SAPA_FOGBAND
 66
     1
 10
0.0
 20
0.0
 30
0.0
  0
VERTEX
  5
2980
  8
SAPA_FOGBAND
 10
-35.499999999009582
 20
-23.801327184514999
 30
0.0
  0
VERTEX
  5
2981
  8
SAPA_FOGBAND
 10
-35.799999999009763
 20
-23.801327184514999
 30
0.0
 42
-0.4142135623730951
  0
VERTEX
  5
2982
  8
SAPA_FOGBAND
 10
-36.299999999009763
 20
-23.301327184514999
 30
0.0
  0
VERTEX
  5
2983
  8
SAPA_FOGBAND
 10
-36.299999999009763
 20
-16.001327184514821
 30
0.0
 42
-0.4142135623730951
  0
VERTEX
  5
2984
  8
SAPA_FOGBAND
 10
-35.799999999009763
 20
-15.501327184514819
 30
0.0
  0
VERTEX
  5
2985
  8
SAPA_FOGBAND
 10
-35.499999999009582
 20
-15.501327184515731
 30
0.0
  0
SEQEND
  5
2986
  8
SAPA_FOGBAND
  0
POLYLINE
  5
180D
  8
SAPA_FOGBAND
 10
-38.341392140065189
 20
-18.983103333429018
 30
0.0
 66
     1
 70
     8
  0
VERTEX
  8
SAPA_FOGBAND
  5
2AB8
 10
-38.3414
 20
-18.9831
 30
0.000000
  70
    32
  0
VERTEX
  8
SAPA_FOGBAND
  5
2AB9
 10
-38.3450
 20
-19.1449
 30
0.000000
  70
    32
  0
VERTEX
  8
SAPA_FOGBAND
  5
2ABA
 10
-38.3527
 20
-19.3063
 30
0.000000
  70
    32
  0
VERTEX
  8
SAPA_FOGBAND
  5
2ABB
 10
-38.3645
 20
-19.4669
 30
0.000000
  70
    32
  0
VERTEX
  8
SAPA_FOGBAND
  5
2ABC
 10
-38.3802
 20
-19.6262
 30
0.000000
  70
    32
  0
VERTEX
  8
SAPA_FOGBAND
  5
2ABD
 10
-38.3999
 20
-19.7840
 30
0.000000
  70
    32
  0
VERTEX
  8
SAPA_FOGBAND
  5
2ABE
 10
-38.4236
 20
-19.9398
 30
0.000000
  70
    32
  0
VERTEX
  8
SAPA_FOGBAND
  5
2ABF
 10
-38.4511
 20
-20.0933
 30
0.000000
  70
    32
  0
VERTEX
  8
SAPA_FOGBAND
  5
2AC0
 10
-38.4824
 20
-20.2440
 30
0.000000
  70
    32
  0
VERTEX
  8
SAPA_FOGBAND
  5
2AC1
 10
-38.5175
 20
-20.3917
 30
0.000000
  70
    32
  0
VERTEX
  8
SAPA_FOGBAND
  5
2AC2
 10
-38.5561
 20
-20.5359
 30
0.000000
  70
    32
  0
VERTEX
  8
SAPA_FOGBAND
  5
2AC3
 10
-38.5984
 20
-20.6764
 30
0.000000
  70
    32
  0
VERTEX
  8
SAPA_FOGBAND
  5
2AC4
 10
-38.6440
 20
-20.8127
 30
0.000000
  70
    32
  0
VERTEX
  8
SAPA_FOGBAND
  5
2AC5
 10
-38.6931
 20
-20.9446
 30
0.000000
  70
    32
  0
VERTEX
  8
SAPA_FOGBAND
  5
2AC6
 10
-38.7453
 20
-21.0717
 30
0.000000
  70
    32
  0
VERTEX
  8
SAPA_FOGBAND
  5
2AC7
 10
-38.8006
 20
-21.1937
 30
0.000000
  70
    32
  0
VERTEX
  8
SAPA_FOGBAND
  5
2AC8
 10
-38.8589
 20
-21.3104
 30
0.000000
  70
    32
  0
VERTEX
  8
SAPA_FOGBAND
  5
2AC9
 10
-38.9200
 20
-21.4214
 30
0.000000
  70
    32
  0
VERTEX
  8
SAPA_FOGBAND
  5
2ACA
 10
-38.9838
 20
-21.5266
 30
0.000000
  70
    32
  0
VERTEX
  8
SAPA_FOGBAND
  5
2ACB
 10
-39.0501
 20
-21.6255
 30
0.000000
  70
    32
  0
VERTEX
  8
SAPA_FOGBAND
  5
2ACC
 10
-39.1187
 20
-21.7180
 30
0.000000
  70
    32
  0
VERTEX
  8
SAPA_FOGBAND
  5
2ACD
 10
-39.1896
 20
-21.8040
 30
0.000000
  70
    32
  0
VERTEX
  8
SAPA_FOGBAND
  5
2ACE
 10
-39.2624
 20
-21.8830
 30
0.000000
  70
    32
  0
VERTEX
  8
SAPA_FOGBAND
  5
2ACF
 10
-39.3371
 20
-21.9551
 30
0.000000
  70
    32
  0
VERTEX
  8
SAPA_FOGBAND
  5
2AD0
 10
-39.4135
 20
-22.0199
 30
0.000000
  70
    32
  0
VERTEX
  8
SAPA_FOGBAND
  5
2AD1
 10
-39.4914
 20
-22.0774
 30
0.000000
  70
    32
  0
VERTEX
  8
SAPA_FOGBAND
  5
2AD2
 10
-39.5705
 20
-22.1274
 30
0.000000
  70
    32
  0
VERTEX
  8
SAPA_FOGBAND
  5
2AD3
 10
-39.6508
 20
-22.1698
 30
0.000000
  70
    32
  0
VERTEX
  8
SAPA_FOGBAND
  5
2AD4
 10
-39.7320
 20
-22.2045
 30
0.000000
  70
    32
  0
VERTEX
  8
SAPA_FOGBAND
  5
2AD5
 10
-39.8139
 20
-22.2313
 30
0.000000
  70
    32
  0
VERTEX
  8
SAPA_FOGBAND
  5
2AD6
 10
-39.8963
 20
-22.2503
 30
0.000000
  70
    32
  0
VERTEX
  8
SAPA_FOGBAND
  5
2AD7
 10
-39.9790
 20
-22.2614
 30
0.000000
  70
    32
  0
VERTEX
  8
SAPA_FOGBAND
  5
2AD8
 10
-40.0618
 20
-22.2646
 30
0.000000
  70
    32
  0
VERTEX
  8
SAPA_FOGBAND
  5
2AD9
 10
-40.1446
 20
-22.2598
 30
0.000000
  70
    32
  0
VERTEX
  8
SAPA_FOGBAND
  5
2ADA
 10
-40.2271
 20
-22.2470
 30
0.000000
  70
    32
  0
VERTEX
  8
SAPA_FOGBAND
  5
2ADB
 10
-40.3091
 20
-22.2264
 30
0.000000
  70
    32
  0
VERTEX
  8
SAPA_FOGBAND
  5
2ADC
 10
-40.3904
 20
-22.1979
 30
0.000000
  70
    32
  0
VERTEX
  8
SAPA_FOGBAND
  5
2ADD
 10
-40.4709
 20
-22.1616
 30
0.000000
  70
    32
  0
VERTEX
  8
SAPA_FOGBAND
  5
2ADE
 10
-40.5503
 20
-22.1177
 30
0.000000
  70
    32
  0
VERTEX
  8
SAPA_FOGBAND
  5
2ADF
 10
-40.6285
 20
-22.0661
 30
0.000000
  70
    32
  0
VERTEX
  8
SAPA_FOGBAND
  5
2AE0
 10
-40.7052
 20
-22.0071
 30
0.000000
  70
    32
  0
VERTEX
  8
SAPA_FOGBAND
  5
2AE1
 10
-40.7802
 20
-21.9407
 30
0.000000
  70
    32
  0
VERTEX
  8
SAPA_FOGBAND
  5
2AE2
 10
-40.8535
 20
-21.8672
 30
0.000000
  70
    32
  0
VERTEX
  8
SAPA_FOGBAND
  5
2AE3
 10
-40.9248
 20
-21.7867
 30
0.000000
  70
    32
  0
VERTEX
  8
SAPA_FOGBAND
  5
2AE4
 10
-40.9939
 20
-21.6994
 30
0.000000
  70
    32
  0
VERTEX
  8
SAPA_FOGBAND
  5
2AE5
 10
-41.0607
 20
-21.6055
 30
0.000000
  70
    32
  0
VERTEX
  8
SAPA_FOGBAND
  5
2AE6
 10
-41.1250
 20
-21.5052
 30
0.000000
  70
    32
  0
VERTEX
  8
SAPA_FOGBAND
  5
2AE7
 10
-41.1867
 20
-21.3989
 30
0.000000
  70
    32
  0
VERTEX
  8
SAPA_FOGBAND
  5
2AE8
 10
-41.2455
 20
-21.2867
 30
0.000000
  70
    32
  0
VERTEX
  8
SAPA_FOGBAND
  5
2AE9
 10
-41.3015
 20
-21.1688
 30
0.000000
  70
    32
  0
VERTEX
  8
SAPA_FOGBAND
  5
2AEA
 10
-41.3544
 20
-21.0457
 30
0.000000
  70
    32
  0
VERTEX
  8
SAPA_FOGBAND
  5
2AEB
 10
-41.4041
 20
-20.9176
 30
0.000000
  70
    32
  0
VERTEX
  8
SAPA_FOGBAND
  5
2AEC
 10
-41.4504
 20
-20.7848
 30
0.000000
  70
    32
  0
VERTEX
  8
SAPA_FOGBAND
  5
2AED
 10
-41.4934
 20
-20.6475
 30
0.000000
  70
    32
  0
VERTEX
  8
SAPA_FOGBAND
  5
2AEE
 10
-41.5328
 20
-20.5063
 30
0.000000
  70
    32
  0
VERTEX
  8
SAPA_FOGBAND
  5
2AEF
 10
-41.5686
 20
-20.3613
 30
0.000000
  70
    32
  0
VERTEX
  8
SAPA_FOGBAND
  5
2AF0
 10
-41.6007
 20
-20.2130
 30
0.000000
  70
    32
  0
VERTEX
  8
SAPA_FOGBAND
  5
2AF1
 10
-41.6290
 20
-20.0616
 30
0.000000
  70
    32
  0
VERTEX
  8
SAPA_FOGBAND
  5
2AF2
 10
-41.6535
 20
-19.9077
 30
0.000000
  70
    32
  0
VERTEX
  8
SAPA_FOGBAND
  5
2AF3
 10
-41.6740
 20
-19.7514
 30
0.000000
  70
    32
  0
VERTEX
  8
SAPA_FOGBAND
  5
2AF4
 10
-41.6906
 20
-19.5933
 30
0.000000
  70
    32
  0
VERTEX
  8
SAPA_FOGBAND
  5
2AF5
 10
-41.7032
 20
-19.4336
 30
0.000000
  70
    32
  0
VERTEX
  8
SAPA_FOGBAND
  5
2AF6
 10
-41.7117
 20
-19.2729
 30
0.000000
  70
    32
  0
VERTEX
  8
SAPA_FOGBAND
  5
2AF7
 10
-41.7162
 20
-19.1114
 30
0.000000
  70
    32
  0
VERTEX
  8
SAPA_FOGBAND
  5
2AF8
 10
-41.7166
 20
-18.9495
 30
0.000000
  70
    32
  0
VERTEX
  8
SAPA_FOGBAND
  5
2AF9
 10
-41.7130
 20
-18.7877
 30
0.000000
  70
    32
  0
VERTEX
  8
SAPA_FOGBAND
  5
2AFA
 10
-41.7053
 20
-18.6263
 30
0.000000
  70
    32
  0
VERTEX
  8
SAPA_FOGBAND
  5
2AFB
 10
-41.6935
 20
-18.4657
 30
0.000000
  70
    32
  0
VERTEX
  8
SAPA_FOGBAND
  5
2AFC
 10
-41.6778
 20
-18.3064
 30
0.000000
  70
    32
  0
VERTEX
  8
SAPA_FOGBAND
  5
2AFD
 10
-41.6581
 20
-18.1486
 30
0.000000
  70
    32
  0
VERTEX
  8
SAPA_FOGBAND
  5
2AFE
 10
-41.6344
 20
-17.9928
 30
0.000000
  70
    32
  0
VERTEX
  8
SAPA_FOGBAND
  5
2AFF
 10
-41.6069
 20
-17.8393
 30
0.000000
  70
    32
  0
VERTEX
  8
SAPA_FOGBAND
  5
2B00
 10
-41.5756
 20
-17.6886
 30
0.000000
  70
    32
  0
VERTEX
  8
SAPA_FOGBAND
  5
2B01
 10
-41.5406
 20
-17.5409
 30
0.000000
  70
    32
  0
VERTEX
  8
SAPA_FOGBAND
  5
2B02
 10
-41.5019
 20
-17.3967
 30
0.000000
  70
    32
  0
VERTEX
  8
SAPA_FOGBAND
  5
2B03
 10
-41.4596
 20
-17.2562
 30
0.000000
  70
    32
  0
VERTEX
  8
SAPA_FOGBAND
  5
2B04
 10
-41.4140
 20
-17.1199
 30
0.000000
  70
    32
  0
VERTEX
  8
SAPA_FOGBAND
  5
2B05
 10
-41.3650
 20
-16.9880
 30
0.000000
  70
    32
  0
VERTEX
  8
SAPA_FOGBAND
  5
2B06
 10
-41.3127
 20
-16.8609
 30
0.000000
  70
    32
  0
VERTEX
  8
SAPA_FOGBAND
  5
2B07
 10
-41.2574
 20
-16.7389
 30
0.000000
  70
    32
  0
VERTEX
  8
SAPA_FOGBAND
  5
2B08
 10
-41.1991
 20
-16.6222
 30
0.000000
  70
    32
  0
VERTEX
  8
SAPA_FOGBAND
  5
2B09
 10
-41.1380
 20
-16.5112
 30
0.000000
  70
    32
  0
VERTEX
  8
SAPA_FOGBAND
  5
2B0A
 10
-41.0742
 20
-16.4061
 30
0.000000
  70
    32
  0
VERTEX
  8
SAPA_FOGBAND
  5
2B0B
 10
-41.0079
 20
-16.3071
 30
0.000000
  70
    32
  0
VERTEX
  8
SAPA_FOGBAND
  5
2B0C
 10
-40.9393
 20
-16.2146
 30
0.000000
  70
    32
  0
VERTEX
  8
SAPA_FOGBAND
  5
2B0D
 10
-40.8685
 20
-16.1287
 30
0.000000
  70
    32
  0
VERTEX
  8
SAPA_FOGBAND
  5
2B0E
 10
-40.7956
 20
-16.0496
 30
0.000000
  70
    32
  0
VERTEX
  8
SAPA_FOGBAND
  5
2B0F
 10
-40.7209
 20
-15.9775
 30
0.000000
  70
    32
  0
VERTEX
  8
SAPA_FOGBAND
  5
2B10
 10
-40.6445
 20
-15.9127
 30
0.000000
  70
    32
  0
VERTEX
  8
SAPA_FOGBAND
  5
2B11
 10
-40.5666
 20
-15.8552
 30
0.000000
  70
    32
  0
VERTEX
  8
SAPA_FOGBAND
  5
2B12
 10
-40.4875
 20
-15.8052
 30
0.000000
  70
    32
  0
VERTEX
  8
SAPA_FOGBAND
  5
2B13
 10
-40.4072
 20
-15.7628
 30
0.000000
  70
    32
  0
VERTEX
  8
SAPA_FOGBAND
  5
2B14
 10
-40.3260
 20
-15.7281
 30
0.000000
  70
    32
  0
VERTEX
  8
SAPA_FOGBAND
  5
2B15
 10
-40.2442
 20
-15.7013
 30
0.000000
  70
    32
  0
VERTEX
  8
SAPA_FOGBAND
  5
2B16
 10
-40.1617
 20
-15.6823
 30
0.000000
  70
    32
  0
VERTEX
  8
SAPA_FOGBAND
  5
2B17
 10
-40.0790
 20
-15.6712
 30
0.000000
  70
    32
  0
VERTEX
  8
SAPA_FOGBAND
  5
2B18
 10
-39.9962
 20
-15.6680
 30
0.000000
  70
    32
  0
VERTEX
  8
SAPA_FOGBAND
  5
2B19
 10
-39.9134
 20
-15.6728
 30
0.000000
  70
    32
  0
VERTEX
  8
SAPA_FOGBAND
  5
2B1A
 10
-39.8309
 20
-15.6856
 30
0.000000
  70
    32
  0
VERTEX
  8
SAPA_FOGBAND
  5
2B1B
 10
-39.7489
 20
-15.7062
 30
0.000000
  70
    32
  0
VERTEX
  8
SAPA_FOGBAND
  5
2B1C
 10
-39.6676
 20
-15.7347
 30
0.000000
  70
    32
  0
VERTEX
  8
SAPA_FOGBAND
  5
2B1D
 10
-39.5871
 20
-15.7710
 30
0.000000
  70
    32
  0
VERTEX
  8
SAPA_FOGBAND
  5
2B1E
 10
-39.5077
 20
-15.8149
 30
0.000000
  70
    32
  0
VERTEX
  8
SAPA_FOGBAND
  5
2B1F
 10
-39.4296
 20
-15.8665
 30
0.000000
  70
    32
  0
VERTEX
  8
SAPA_FOGBAND
  5
2B20
 10
-39.3529
 20
-15.9255
 30
0.000000
  70
    32
  0
VERTEX
  8
SAPA_FOGBAND
  5
2B21
 10
-39.2778
 20
-15.9919
 30
0.000000
  70
    32
  0
VERTEX
  8
SAPA_FOGBAND
  5
2B22
 10
-39.2045
 20
-16.0654
 30
0.000000
  70
    32
  0
VERTEX
  8
SAPA_FOGBAND
  5
2B23
 10
-39.1332
 20
-16.1459
 30
0.000000
  70
    32
  0
VERTEX
  8
SAPA_FOGBAND
  5
2B24
 10
-39.0641
 20
-16.2332
 30
0.000000
  70
    32
  0
VERTEX
  8
SAPA_FOGBAND
  5
2B25
 10
-38.9973
 20
-16.3271
 30
0.000000
  70
    32
  0
VERTEX
  8
SAPA_FOGBAND
  5
2B26
 10
-38.9330
 20
-16.4274
 30
0.000000
  70
    32
  0
VERTEX
  8
SAPA_FOGBAND
  5
2B27
 10
-38.8713
 20
-16.5337
 30
0.000000
  70
    32
  0
VERTEX
  8
SAPA_FOGBAND
  5
2B28
 10
-38.8125
 20
-16.6460
 30
0.000000
  70
    32
  0
VERTEX
  8
SAPA_FOGBAND
  5
2B29
 10
-38.7565
 20
-16.7638
 30
0.000000
  70
    32
  0
VERTEX
  8
SAPA_FOGBAND
  5
2B2A
 10
-38.7036
 20
-16.8869
 30
0.000000
  70
    32
  0
VERTEX
  8
SAPA_FOGBAND
  5
2B2B
 10
-38.6539
 20
-17.0150
 30
0.000000
  70
    32
  0
VERTEX
  8
SAPA_FOGBAND
  5
2B2C
 10
-38.6076
 20
-17.1479
 30
0.000000
  70
    32
  0
VERTEX
  8
SAPA_FOGBAND
  5
2B2D
 10
-38.5646
 20
-17.2851
 30
0.000000
  70
    32
  0
VERTEX
  8
SAPA_FOGBAND
  5
2B2E
 10
-38.5252
 20
-17.4263
 30
0.000000
  70
    32
  0
VERTEX
  8
SAPA_FOGBAND
  5
2B2F
 10
-38.4894
 20
-17.5713
 30
0.000000
  70
    32
  0
VERTEX
  8
SAPA_FOGBAND
  5
2B30
 10
-38.4573
 20
-17.7196
 30
0.000000
  70
    32
  0
VERTEX
  8
SAPA_FOGBAND
  5
2B31
 10
-38.4290
 20
-17.8710
 30
0.000000
  70
    32
  0
VERTEX
  8
SAPA_FOGBAND
  5
2B32
 10
-38.4045
 20
-18.0249
 30
0.000000
  70
    32
  0
VERTEX
  8
SAPA_FOGBAND
  5
2B33
 10
-38.3840
 20
-18.1812
 30
0.000000
  70
    32
  0
VERTEX
  8
SAPA_FOGBAND
  5
2B34
 10
-38.3674
 20
-18.3393
 30
0.000000
  70
    32
  0
VERTEX
  8
SAPA_FOGBAND
  5
2B35
 10
-38.3548
 20
-18.4990
 30
0.000000
  70
    32
  0
VERTEX
  8
SAPA_FOGBAND
  5
2B36
 10
-38.3463
 20
-18.6597
 30
0.000000
  70
    32
  0
VERTEX
  8
SAPA_FOGBAND
  5
2B37
 10
-38.3418
 20
-18.8212
 30
0.000000
  70
    32
  0
VERTEX
  8
SAPA_FOGBAND
  5
2B38
 10
-38.3414
 20
-18.9831
 30
0.000000
  70
    32
  0
SEQEND
  8
SAPA_FOGBAND
  5
2B39
  0
POLYLINE
  5
180E
  8
SAPA_FOGBAND
 66
     1
 10
0.0
 20
0.0
 30
0.0
 70
     1
  0
VERTEX
  5
2987
  8
SAPA_FOGBAND
 10
-42.95332486497206
 20
-8.8913247649945752
 30
0.0
  0
VERTEX
  5
2988
  8
SAPA_FOGBAND
 10
-43.445277204862357
 20
-11.892651927563969
 30
0.0
 42
0.4464785874932524
  0
VERTEX
  5
2989
  8
SAPA_FOGBAND
 10
-42.451199899756617
 20
-13.00132718451572
 30
0.0
  0
VERTEX
  5
298A
  8
SAPA_FOGBAND
 10
-39.350147745599102
 20
-13.001327184515731
 30
0.0
 42
0.622676997742357
  0
VERTEX
  5
298B
  8
SAPA_FOGBAND
 10
-38.558266017435713
 20
-11.39065269790194
 30
0.0
  0
VERTEX
  5
298C
  8
SAPA_FOGBAND
 10
-41.033301339952921
 20
-8.3893255353325422
 30
0.0
 42
0.6488456670267916
  0
VERTEX
  5
298D
  8
SAPA_FOGBAND
 10
-42.95332486497206
 20
-8.8913247649945752
 30
0.0
  0
VERTEX
  5
298E
  8
SAPA_FOGBAND
 10
-42.95332486497206
 20
-8.8913247649945752
 30
0.0
 42
0.7183425420956111
  0
SEQEND
  5
298F
  8
SAPA_FOGBAND
  0
LINE
  5
180F
  8
SAPA_FOGBAND
 10
8.5012846353587843
 20
48.500000257789218
 30
0.0
 11
8.5012846353587843
 21
48.500000257789218
 31
0.0
  0
DIMENSION
  5
1818
  8
SAPA_MATT
  2
*D174
 10
-125.65375231270581
 20
118.00000000207839
 30
0.0
 11
-128.15375231270579
 21
99.250000002078409
 31
0.0
 70
     0
 13
-81.998715298616119
 23
80.500000002078437
 33
0.0
 14
-81.998715298616119
 24
118.00000000207839
 34
0.0
 50
89.999999999999986
1001
ACAD
1000
DSTYLE
1002
{
1070
   287
1070
     4
1070
    40
1040
1.0
1070
   279
1070
     1
1002
}
  0
DIMENSION
  5
1819
  8
SAPA_MATT
  2
*D173
 10
-125.65375231270581
 20
80.500000002078437
 30
0.0
 11
-128.15375231270579
 21
78.000000000989232
 31
0.0
 70
     0
 13
-81.998715294908095
 23
75.499999999900041
 33
0.0
 14
-82.00000000379535
 24
80.500000002078437
 34
0.0
 50
89.999999999999986
1001
ACAD
1000
DSTYLE
1002
{
1070
   287
1070
     4
1070
    40
1040
1.0
1070
   279
1070
     1
1002
}
  0
DIMENSION
  5
181A
  8
SAPA_MATT
  2
*D172
 10
-125.65375231270581
 20
75.499999999900055
 30
0.0
 11
-128.15375231270579
 21
50.249999999950191
 31
0.0
 70
     0
 13
-105.9999999990104
 23
25.000000000000359
 33
0.0
 14
-81.998715294908095
 24
75.499999999900041
 34
0.0
 50
89.999999999999986
1001
ACAD
1000
DSTYLE
1002
{
1070
   287
1070
     4
1070
    40
1040
1.0
1070
   279
1070
     1
1002
}
  0
DIMENSION
  5
181B
  8
SAPA_MATT
  2
*D171
 10
-125.65375231270581
 20
25.000000000000369
 30
0.0
 11
-128.15375231270579
 21
0.0000000000003455
 31
0.0
 70
     0
 13
-105.9999999990105
 23
-24.999999999999641
 33
0.0
 14
-105.9999999990104
 24
25.000000000000359
 34
0.0
 50
89.999999999999986
1001
ACAD
1000
DSTYLE
1002
{
1070
    40
1040
1.0
1002
}
  0
VIEWPORT
  5
C4
 67
     1
  8
0
 10
143.06236603067589
 20
116.00969601843509
 30
0.0
 40
369.98580003443811
 41
256.8421457311839
 68
     1
 69
     1
1001
ACAD
1000
MVIEW
1002
{
1070
    16
1010
0.0
1020
0.0
1030
0.0
1010
0.0
1020
0.0
1030
1.0
1040
0.0
1040
256.8421457311839
1040
99.112914085388169
1040
143.07606935501099
1040
50.0
1040
0.0
1040
0.0
1070
     0
1070
     0
1070
     1
1070
     1
1070
     0
1070
     0
1070
     0
1070
     0
1040
0.0
1040
0.0
1040
0.0
1040
10.0
1040
10.0
1040
10.0
1040
10.0
1070
     0
1002
{
1002
}
1002
}
  0
ENDSEC
  0
EOF
