  0
SECTION
  2
HEADER
  9
$ACADVER
  1
AC1009
  9
$INSBASE
 10
0.0
 20
0.0
 30
0.0
  9
$EXTMIN
 10
-210.1798616620749
 20
-117.55729482823369
 30
-0.1
  9
$EXTMAX
 10
48.114456713577042
 20
82.009403434165677
 30
0.0000000195376815
  9
$LIMMIN
 10
0.0
 20
0.0
  9
$LIMMAX
 10
790.0
 20
790.0
  9
$ORTHOMODE
 70
     0
  9
$REGENMODE
 70
     1
  9
$FILLMODE
 70
     1
  9
$QTEXTMODE
 70
     0
  9
$MIRRTEXT
 70
     1
  9
$DRAGMODE
 70
     2
  9
$LTSCALE
 40
4.0
  9
$OSMODE
 70
   167
  9
$ATTMODE
 70
     1
  9
$TEXTSIZE
 40
3.5
  9
$TRACEWID
 40
0.05
  9
$TEXTSTYLE
  7
ISO
  9
$CLAYER
  8
0
  9
$CELTYPE
  6
BYLAYER
  9
$CECOLOR
 62
   256
  9
$DIMSCALE
 40
0.0
  9
$DIMASZ
 40
3.0
  9
$DIMEXO
 40
1.5
  9
$DIMDLI
 40
10.0
  9
$DIMRND
 40
0.0
  9
$DIMDLE
 40
0.0
  9
$DIMEXE
 40
1.5
  9
$DIMTP
 40
0.0
  9
$DIMTM
 40
0.0
  9
$DIMTXT
 40
3.0
  9
$DIMCEN
 40
-5.0
  9
$DIMTSZ
 40
0.0
  9
$DIMTOL
 70
     0
  9
$DIMLIM
 70
     0
  9
$DIMTIH
 70
     0
  9
$DIMTOH
 70
     0
  9
$DIMSE1
 70
     0
  9
$DIMSE2
 70
     0
  9
$DIMTAD
 70
     1
  9
$DIMZIN
 70
     8
  9
$DIMBLK
  1

  9
$DIMASO
 70
     1
  9
$DIMSHO
 70
     1
  9
$DIMPOST
  1

  9
$DIMAPOST
  1

  9
$DIMALT
 70
     0
  9
$DIMALTD
 70
     0
  9
$DIMALTF
 40
25.399999999999999
  9
$DIMLFAC
 40
-1.0
  9
$DIMTOFL
 70
     1
  9
$DIMTVP
 40
0.0
  9
$DIMTIX
 70
     0
  9
$DIMSOXD
 70
     0
  9
$DIMSAH
 70
     0
  9
$DIMBLK1
  1

  9
$DIMBLK2
  1

  9
$DIMSTYLE
  2
MASKIN
  9
$DIMCLRD
 70
   256
  9
$DIMCLRE
 70
   256
  9
$DIMCLRT
 70
     2
  9
$DIMTFAC
 40
1.0
  9
$DIMGAP
 40
1.0
  9
$LUNITS
 70
     2
  9
$LUPREC
 70
     8
  9
$SKETCHINC
 40
0.1
  9
$FILLETRAD
 40
0.0
  9
$AUNITS
 70
     0
  9
$AUPREC
 70
     8
  9
$MENU
  1
ACAD
  9
$ELEVATION
 40
0.0
  9
$PELEVATION
 40
0.0
  9
$THICKNESS
 40
0.0
  9
$LIMCHECK
 70
     0
  9
$BLIPMODE
 70
     0
  9
$CHAMFERA
 40
0.0
  9
$CHAMFERB
 40
0.0
  9
$SKPOLY
 70
     0
  9
$TDCREATE
 40
2454868.598613102
  9
$TDUPDATE
 40
2458453.4954798622
  9
$TDINDWG
 40
0.0335917824
  9
$TDUSRTIMER
 40
0.0335917824
  9
$USRTIMER
 70
     1
  9
$ANGBASE
 50
0.0
  9
$ANGDIR
 70
     0
  9
$PDMODE
 70
     0
  9
$PDSIZE
 40
0.0
  9
$PLINEWID
 40
0.0
  9
$COORDS
 70
     1
  9
$SPLFRAME
 70
     0
  9
$SPLINETYPE
 70
     6
  9
$SPLINESEGS
 70
     8
  9
$ATTDIA
 70
     1
  9
$ATTREQ
 70
     1
  9
$HANDLING
 70
     1
  9
$HANDSEED
  5
2D17
  9
$SURFTAB1
 70
     6
  9
$SURFTAB2
 70
     6
  9
$SURFTYPE
 70
     6
  9
$SURFU
 70
     6
  9
$SURFV
 70
     6
  9
$UCSNAME
  2

  9
$UCSORG
 10
0.0
 20
0.0
 30
0.0
  9
$UCSXDIR
 10
1.0
 20
0.0
 30
0.0
  9
$UCSYDIR
 10
0.0
 20
1.0
 30
0.0
  9
$PUCSNAME
  2

  9
$PUCSORG
 10
0.0
 20
0.0
 30
0.0
  9
$PUCSXDIR
 10
1.0
 20
0.0
 30
0.0
  9
$PUCSYDIR
 10
0.0
 20
1.0
 30
0.0
  9
$USERI1
 70
     0
  9
$USERI2
 70
     0
  9
$USERI3
 70
     0
  9
$USERI4
 70
     0
  9
$USERI5
 70
     0
  9
$USERR1
 40
0.0
  9
$USERR2
 40
0.0
  9
$USERR3
 40
0.0
  9
$USERR4
 40
0.0
  9
$USERR5
 40
0.0
  9
$WORLDVIEW
 70
     1
  9
$SHADEDGE
 70
     3
  9
$SHADEDIF
 70
    70
  9
$TILEMODE
 70
     1
  9
$MAXACTVP
 70
    16
  9
$PLIMCHECK
 70
     0
  9
$PEXTMIN
 10
1.0000000000000000E+020
 20
1.0000000000000000E+020
 30
1.0000000000000000E+020
  9
$PEXTMAX
 10
-1.0000000000000000E+020
 20
-1.0000000000000000E+020
 30
-1.0000000000000000E+020
  9
$PLIMMIN
 10
-5.069427490234375
 20
-5.8737497329711914
  9
$PLIMMAX
 10
291.89889526367187
 20
204.0995779037475
  9
$UNITMODE
 70
     0
  9
$VISRETAIN
 70
     1
  9
$PLINEGEN
 70
     0
  9
$PSLTSCALE
 70
     1
  0
ENDSEC
  0
SECTION
  2
TABLES
  0
TABLE
  2
VPORT
 70
     1
  0
VPORT
  2
*ACTIVE
 70
     0
 10
0.0
 20
0.0
 11
1.0
 21
1.0
 12
-19.99157317994684
 22
109.7725697369156
 13
0.0
 23
0.0
 14
1.0
 24
1.0
 15
0.0
 25
0.0
 16
0.0
 26
0.0
 36
1.0
 17
0.0
 27
0.0
 37
0.0
 40
340.01608134243361
 41
1.7265193370165739
 42
50.0
 43
0.0
 44
0.0
 50
0.0
 51
0.0
 71
     0
 72
   100
 73
     1
 74
     1
 75
     0
 76
     0
 77
     0
 78
     0
  0
ENDTAB
  0
TABLE
  2
LTYPE
 70
    51
  0
LTYPE
  2
CONTINUOUS
 70
     0
  3
Solid line
 72
    65
 73
     0
 40
0.0
  0
LTYPE
  2
BYGG-01482201$0$NEWDOT
 70
     0
  3
____ . ____ . ____ . ____ . ____ . ____ . ____
 72
    65
 73
     4
 40
2.0
 49
1.0
 49
-0.5
 49
0.0
 49
-0.5
  0
LTYPE
  2
BYGG-014357$0$NEWDOT
 70
     0
  3
____ . ____ . ____ . ____ . ____ . ____ . ____
 72
    65
 73
     4
 40
2.0
 49
1.0
 49
-0.5
 49
0.0
 49
-0.5
  0
LTYPE
  2
BYGG-014357$0$DASHDOT
 70
     0
  3
__ . __ . __ . __ . __ . __ . __ . __ . __ . __
 72
    65
 73
     4
 40
1.0
 49
0.5
 49
-0.25
 49
0.0
 49
-0.25
  0
LTYPE
  2
BYGG-014357$0$DASHED
 70
     0
  3
__ __ __ __ __ __ __ __ __ __ __ __ __ __ __
 72
    65
 73
     2
 40
0.75
 49
0.5
 49
-0.25
  0
LTYPE
  2
BYGG-014279$0$NEWDOT
 70
     0
  3
____ . ____ . ____ . ____ . ____ . ____ . ____
 72
    65
 73
     4
 40
2.0
 49
1.0
 49
-0.5
 49
0.0
 49
-0.5
  0
LTYPE
  2
BYGG-01482201$0$ZIGZAG
 70
     0
  3
Zig zag /\/\/\/\/\/\/\/\/\/\/\/\/\/\/\/\/\/\/\/\/\/\/\/
 72
    65
 73
     4
 40
20.32254
 49
0.00254
 49
-5.0800000000000001
 49
-10.16
 49
-5.0800000000000001
  0
LTYPE
  2
BYGG-014279$0$ZIGZAG
 70
     0
  3
Zig zag /\/\/\/\/\/\/\/\/\/\/\/\/\/\/\/\/\/\/\/\/\/\/\/
 72
    65
 73
     4
 40
20.32254
 49
0.00254
 49
-5.0800000000000001
 49
-10.16
 49
-5.0800000000000001
  0
LTYPE
  2
BYGG-025060$0$NEWDOT
 70
     0
  3
____ . ____ . ____ . ____ . ____ . ____ . ____
 72
    65
 73
     4
 40
2.0
 49
1.0
 49
-0.5
 49
0.0
 49
-0.5
  0
LTYPE
  2
BYGG-012216$0$DASHDOT
 70
     0
  3
__ . __ . __ . __ . __ . __ . __ . __ . __ . __
 72
    65
 73
     4
 40
1.0
 49
0.5
 49
-0.25
 49
0.0
 49
-0.25
  0
LTYPE
  2
BYGG-020805$0$NEWDOT
 70
     0
  3
____ . ____ . ____ . ____ . ____ . ____ . ____
 72
    65
 73
     4
 40
2.0
 49
1.0
 49
-0.5
 49
0.0
 49
-0.5
  0
LTYPE
  2
BYGG-020805$0$DASHDOT
 70
     0
  3
__ . __ . __ . __ . __ . __ . __ . __ . __ . __
 72
    65
 73
     4
 40
1.0
 49
0.5
 49
-0.25
 49
0.0
 49
-0.25
  0
LTYPE
  2
BYGG-020805$0$DASHED
 70
     0
  3
__ __ __ __ __ __ __ __ __ __ __ __ __ __ __
 72
    65
 73
     2
 40
0.75
 49
0.5
 49
-0.25
  0
LTYPE
  2
BYGG-020805$0$PHANTOM
 70
     0
  3
Phantom ______  __  __  ______  __  __  ______
 72
    65
 73
     6
 40
63.5
 49
31.75
 49
-6.3499999999999988
 49
6.3499999999999988
 49
-6.3499999999999988
 49
6.3499999999999988
 49
-6.3499999999999988
  0
LTYPE
  2
BYGG-024800$0$NEWDOT
 70
     0
  3
____ . ____ . ____ . ____ . ____ . ____ . ____
 72
    65
 73
     4
 40
2.0
 49
1.0
 49
-0.5
 49
0.0
 49
-0.5
  0
LTYPE
  2
BYGG-024807$0$NEWDOT
 70
     0
  3
____ . ____ . ____ . ____ . ____ . ____ . ____
 72
    65
 73
     4
 40
2.0
 49
1.0
 49
-0.5
 49
0.0
 49
-0.5
  0
LTYPE
  2
BYGG-024807$0$DASHDOT
 70
     0
  3
__ . __ . __ . __ . __ . __ . __ . __ . __ . __
 72
    65
 73
     4
 40
1.0
 49
0.5
 49
-0.25
 49
0.0
 49
-0.25
  0
LTYPE
  2
BYGG-033168$0$NEWDOT
 70
     0
  3
____ . ____ . ____ . ____ . ____ . ____ . ____
 72
    65
 73
     4
 40
2.0
 49
1.0
 49
-0.5
 49
0.0
 49
-0.5
  0
LTYPE
  2
BYGG-033168$0$DASHDOT
 70
     0
  3
__ . __ . __ . __ . __ . __ . __ . __ . __ . __
 72
    65
 73
     4
 40
1.0
 49
0.5
 49
-0.25
 49
0.0
 49
-0.25
  0
LTYPE
  2
BYGG-033168$0$DASHED
 70
     0
  3
__ __ __ __ __ __ __ __ __ __ __ __ __ __ __
 72
    65
 73
     2
 40
0.75
 49
0.5
 49
-0.25
  0
LTYPE
  2
BYGG-033168$0$PHANTOM
 70
     0
  3
Phantom ______  __  __  ______  __  __  ______
 72
    65
 73
     6
 40
63.5
 49
31.75
 49
-6.3499999999999988
 49
6.3499999999999988
 49
-6.3499999999999988
 49
6.3499999999999988
 49
-6.3499999999999988
  0
LTYPE
  2
BYGG-027036$0$NEWDOT
 70
     0
  3
____ . ____ . ____ . ____ . ____ . ____ . ____
 72
    65
 73
     4
 40
2.0
 49
1.0
 49
-0.5
 49
0.0
 49
-0.5
  0
LTYPE
  2
BYGG-027036$0$DASHDOT
 70
     0
  3
__ . __ . __ . __ . __ . __ . __ . __ . __ . __
 72
    65
 73
     4
 40
1.0
 49
0.5
 49
-0.25
 49
0.0
 49
-0.25
  0
LTYPE
  2
BYGG-027036$0$DASHED
 70
     0
  3
__ __ __ __ __ __ __ __ __ __ __ __ __ __ __
 72
    65
 73
     2
 40
0.75
 49
0.5
 49
-0.25
  0
LTYPE
  2
BYGG-027036$0$PHANTOM
 70
     0
  3
Phantom ______  __  __  ______  __  __  ______
 72
    65
 73
     6
 40
63.5
 49
31.75
 49
-6.3499999999999988
 49
6.3499999999999988
 49
-6.3499999999999988
 49
6.3499999999999988
 49
-6.3499999999999988
  0
LTYPE
  2
BYGG-027036$0$HIDDEN
 70
     0
  3
_ _ _ _ _ _ _ _ _ _ _ _ _ _ _ _ _ _ _ _ _ _ _
 72
    65
 73
     2
 40
0.375
 49
0.25
 49
-0.125
  0
LTYPE
  2
BYGG-027036$0$DOT
 70
     0
  3
...............................................
 72
    65
 73
     2
 40
0.25
 49
0.0
 49
-0.25
  0
LTYPE
  2
BYGG-027036$0$CENTER
 70
     0
  3
____ _ ____ _ ____ _ ____ _ ____ _ ____ _ ____
 72
    65
 73
     4
 40
0.6
 49
0.375
 49
-0.075
 49
0.075
 49
-0.075
  0
LTYPE
  2
BYGG-033225$0$NEWDOT
 70
     0
  3
____ . ____ . ____ . ____ . ____ . ____ . ____
 72
    65
 73
     4
 40
2.0
 49
1.0
 49
-0.5
 49
0.0
 49
-0.5
  0
LTYPE
  2
BYGG-033225$0$DASHDOT
 70
     0
  3
__ . __ . __ . __ . __ . __ . __ . __ . __ . __
 72
    65
 73
     4
 40
1.0
 49
0.5
 49
-0.25
 49
0.0
 49
-0.25
  0
LTYPE
  2
BYGG-033225$0$DASHED
 70
     0
  3
__ __ __ __ __ __ __ __ __ __ __ __ __ __ __
 72
    65
 73
     2
 40
0.75
 49
0.5
 49
-0.25
  0
LTYPE
  2
BYGG-033225$0$PHANTOM
 70
     0
  3
Phantom ______  __  __  ______  __  __  ______
 72
    65
 73
     6
 40
63.5
 49
31.75
 49
-6.3499999999999988
 49
6.3499999999999988
 49
-6.3499999999999988
 49
6.3499999999999988
 49
-6.3499999999999988
  0
LTYPE
  2
BYGG-029021$0$NEWDOT
 70
     0
  3
____ . ____ . ____ . ____ . ____ . ____ . ____
 72
    65
 73
     4
 40
2.0
 49
1.0
 49
-0.5
 49
0.0
 49
-0.5
  0
LTYPE
  2
BYGG-029021$0$DASHDOT
 70
     0
  3
__ . __ . __ . __ . __ . __ . __ . __ . __ . __
 72
    65
 73
     4
 40
1.0
 49
0.5
 49
-0.25
 49
0.0
 49
-0.25
  0
LTYPE
  2
BYGG-029021$0$DASHED
 70
     0
  3
__ __ __ __ __ __ __ __ __ __ __ __ __ __ __
 72
    65
 73
     2
 40
0.75
 49
0.5
 49
-0.25
  0
LTYPE
  2
BYGG-029021$0$PHANTOM
 70
     0
  3
Phantom ______  __  __  ______  __  __  ______
 72
    65
 73
     6
 40
63.5
 49
31.75
 49
-6.3499999999999988
 49
6.3499999999999988
 49
-6.3499999999999988
 49
6.3499999999999988
 49
-6.3499999999999988
  0
LTYPE
  2
BYGG-029021$0$DASHED2
 70
     0
  3
_ _ _ _ _ _ _ _ _ _ _ _ _ _ _ _ _ _ _ _ _ _ _ _ _ _ _ _ _ _ _
 72
    65
 73
     2
 40
0.375
 49
0.25
 49
-0.125
  0
LTYPE
  2
BYGG-01409101$0$DASHDOT
 70
     0
  3
__ . __ . __ . __ . __ . __ . __ . __ . __ . __
 72
    65
 73
     4
 40
1.0
 49
0.5
 49
-0.25
 49
0.0
 49
-0.25
  0
LTYPE
  2
BYGG-01409101$0$HIDDEN
 70
     0
  3
_ _ _ _ _ _ _ _ _ _ _ _ _ _ _ _ _ _ _ _ _ _ _
 72
    65
 73
     2
 40
0.375
 49
0.25
 49
-0.125
  0
LTYPE
  2
BYGG-030601$0$NEWDOT
 70
     0
  3
____ . ____ . ____ . ____ . ____ . ____ . ____
 72
    65
 73
     4
 40
2.0
 49
1.0
 49
-0.5
 49
0.0
 49
-0.5
  0
LTYPE
  2
BYGG-030601$0$ZIGZAG
 70
     0
  3
Zig zag /\/\/\/\/\/\/\/\/\/\/\/\/\/\/\/\/\/\/\/\/\/\/\/
 72
    65
 73
     4
 40
20.32254
 49
0.00254
 49
-5.0800000000000001
 49
-10.16
 49
-5.0800000000000001
  0
LTYPE
  2
BYGG-033225$0$PHANTOM2
 70
     0
  3
Phantom (.5x) ___ _ _ ___ _ _ ___ _ _ ___ _ _
 72
    65
 73
     6
 40
1.25
 49
0.625
 49
-0.125
 49
0.125
 49
-0.125
 49
0.125
 49
-0.125
  0
LTYPE
  2
BYGG-025060$0$DASHDOT
 70
     0
  3
__ . __ . __ . __ . __ . __ . __ . __ . __ . __
 72
    65
 73
     4
 40
1.0
 49
0.5
 49
-0.25
 49
0.0
 49
-0.25
  0
LTYPE
  2
BYGG-027036$0$ALF
 70
     0
  3
*alf,- - - - - - - - - - - - -
 72
    65
 73
     2
 40
0.3
 49
0.1
 49
-0.2
  0
LTYPE
  2
BYGG-027036$0$CENTRE2
 70
     0
  3
___ _ ___ _ ___ _ ___ _ ___ _ ___ _ ___ _ ___ _
 72
    65
 73
     4
 40
28.574999999999999
 49
19.050000000000001
 49
-3.1749999999999989
 49
3.1749999999999989
 49
-3.1749999999999989
  0
LTYPE
  2
BYGG-029021$0$PHANTOM2
 70
     0
  3
Phantom (.5x) ___ _ _ ___ _ _ ___ _ _ ___ _ _
 72
    65
 73
     6
 40
1.25
 49
0.625
 49
-0.125
 49
0.125
 49
-0.125
 49
0.125
 49
-0.125
  0
LTYPE
  2
BYGG-024800$0$DASHDOT
 70
     0
  3
__ . __ . __ . __ . __ . __ . __ . __ . __ . __
 72
    65
 73
     4
 40
1.0
 49
0.5
 49
-0.25
 49
0.0
 49
-0.25
  0
LTYPE
  2
BYGG-01409101$0$PHANTOM2
 70
     0
  3
Phantom (.5x) ___ _ _ ___ _ _ ___ _ _ ___ _ _
 72
    65
 73
     6
 40
1.25
 49
0.625
 49
-0.125
 49
0.125
 49
-0.125
 49
0.125
 49
-0.125
  0
LTYPE
  2
BYGG-030601$0$PHANTOM2
 70
     0
  3
Phantom (.5x) ___ _ _ ___ _ _ ___ _ _ ___ _ _
 72
    65
 73
     6
 40
1.25
 49
0.625
 49
-0.125
 49
0.125
 49
-0.125
 49
0.125
 49
-0.125
  0
LTYPE
  2
BYGG-014090$0$PHANTOM2
 70
     0
  3
Phantom (.5x) ___ _ _ ___ _ _ ___ _ _ ___ _ _
 72
    65
 73
     6
 40
1.25
 49
0.625
 49
-0.125
 49
0.125
 49
-0.125
 49
0.125
 49
-0.125
  0
LTYPE
  2
BYGG-01409301$0$PHANTOM2
 70
     0
  3
Phantom (.5x) ___ _ _ ___ _ _ ___ _ _ ___ _ _
 72
    65
 73
     6
 40
1.25
 49
0.625
 49
-0.125
 49
0.125
 49
-0.125
 49
0.125
 49
-0.125
  0
ENDTAB
  0
TABLE
  2
LAYER
 70
   276
  0
LAYER
  2
0
 70
     0
 62
     7
  6
CONTINUOUS
  0
LAYER
  2
DEFPOINTS
 70
     0
 62
     7
  6
CONTINUOUS
  0
LAYER
  2
SAPA_LIGHT
 70
     1
 62
     1
  6
CONTINUOUS
  0
LAYER
  2
SAPA_ARTIKELNR
 70
     0
 62
     4
  6
CONTINUOUS
  0
LAYER
  2
BYGG-027036$0$DIM
 70
     4
 62
     5
  6
CONTINUOUS
  0
LAYER
  2
BYGG-027036$0$KON
 70
     4
 62
     7
  6
CONTINUOUS
  0
LAYER
  2
SAPA_ISOLATOR
 70
     0
 62
     4
  6
CONTINUOUS
  0
LAYER
  2
SAPA_MATT
 70
     0
 62
     1
  6
CONTINUOUS
  0
LAYER
  2
SAPA_GLAS
 70
     0
 62
     4
  6
CONTINUOUS
  0
LAYER
  2
SAPA_FOGBAND
 70
     0
 62
     2
  6
CONTINUOUS
  0
LAYER
  2
SAPA_PROFIL
 70
     0
 62
     7
  6
CONTINUOUS
  0
ENDTAB
  0
TABLE
  2
STYLE
 70
    65
  0
STYLE
  2
STANDARD
 70
     0
 40
0.0
 41
1.0
 50
0.0
 71
     0
 42
0.2
  3
txt
  4

  0
STYLE
  2
ISO
 70
     0
 40
0.0
 41
1.0
 50
0.0
 71
     0
 42
3.5
  3
txt
  4

  0
STYLE
  2

 70
     1
 40
0.0
 41
1.0
 50
0.0
 71
     0
 42
0.2
  3
ltypeshp.shx
  4

  0
STYLE
  2
BYGG-021589$0$STANDARD
 70
     0
 40
0.0
 41
1.0
 50
0.0
 71
     0
 42
0.2
  3
txt
  4

  0
STYLE
  2
BYGG-021589$0$ISO
 70
     0
 40
0.0
 41
1.0
 50
0.0
 71
     0
 42
3.5
  3
isocp3.shx
  4

  0
STYLE
  2
BYGG-01482201$0$STANDARD
 70
     0
 40
0.0
 41
1.0
 50
0.0
 71
     0
 42
0.2
  3
txt
  4

  0
STYLE
  2
BYGG-01482201$0$ISO
 70
     0
 40
0.0
 41
1.0
 50
0.0
 71
     0
 42
3.5
  3
isocp3.shx
  4

  0
STYLE
  2
BYGG-021610$0$STANDARD
 70
     0
 40
0.0
 41
1.0
 50
0.0
 71
     0
 42
0.2
  3
txt
  4

  0
STYLE
  2
BYGG-021610$0$ISO
 70
     0
 40
0.0
 41
1.0
 50
0.0
 71
     0
 42
3.5
  3
isocp3.shx
  4

  0
STYLE
  2
BYGG-014357$0$STANDARD
 70
     0
 40
0.0
 41
1.0
 50
0.0
 71
     0
 42
0.2
  3
txt
  4

  0
STYLE
  2
BYGG-014357$0$ISO
 70
     0
 40
0.0
 41
1.0
 50
0.0
 71
     0
 42
3.5
  3
isocp3.shx
  4

  0
STYLE
  2
BYGG-014062$0$STANDARD
 70
     0
 40
0.0
 41
1.0
 50
0.0
 71
     0
 42
0.2
  3
txt
  4

  0
STYLE
  2
BYGG-014062$0$ISO
 70
     0
 40
0.0
 41
1.0
 50
0.0
 71
     0
 42
3.5
  3
isocp3.shx
  4

  0
STYLE
  2
BYGG-014062$0$ROMANS
 70
     0
 40
0.0
 41
1.0
 50
0.0
 71
     0
 42
3.5
  3
romans.shx
  4

  0
STYLE
  2
BYGG-021806$0$STANDARD
 70
     0
 40
0.0
 41
1.0
 50
0.0
 71
     0
 42
0.2
  3
txt
  4

  0
STYLE
  2
BYGG-021806$0$ISO
 70
     0
 40
0.0
 41
1.0
 50
0.0
 71
     0
 42
3.5
  3
txt
  4

  0
STYLE
  2
BYGG-021582$0$STANDARD
 70
     0
 40
0.0
 41
1.0
 50
0.0
 71
     0
 42
0.2
  3
txt
  4

  0
STYLE
  2
BYGG-021582$0$ISO
 70
     0
 40
0.0
 41
1.0
 50
0.0
 71
     0
 42
3.5
  3
isocp3.shx
  4

  0
STYLE
  2
BYGG-014279$0$STANDARD
 70
     0
 40
0.0
 41
1.0
 50
0.0
 71
     0
 42
0.2
  3
TXT.shx
  4

  0
STYLE
  2
BYGG-014279$0$ISO
 70
     0
 40
0.0
 41
1.0
 50
0.0
 71
     0
 42
3.5
  3
iso
  4

  0
STYLE
  2
BYGG-033225$0$STANDARD
 70
     0
 40
0.0
 41
1.0
 50
0.0
 71
     0
 42
0.2
  3
txt
  4

  0
STYLE
  2
BYGG-033225$0$ISO
 70
     0
 40
0.0
 41
1.0
 50
0.0
 71
     0
 42
3.5
  3
txt
  4

  0
STYLE
  2
BYGG-033225$0$ANNOTATIVE
 70
     0
 40
0.0
 41
1.0
 50
0.0
 71
     0
 42
0.2
  3
txt
  4

  0
STYLE
  2
BYGG-025060$0$STANDARD
 70
     0
 40
0.0
 41
1.0
 50
0.0
 71
     0
 42
0.2
  3
txt
  4

  0
STYLE
  2
BYGG-025060$0$ISO
 70
     0
 40
0.0
 41
1.0
 50
0.0
 71
     0
 42
3.5
  3
txt
  4

  0
STYLE
  2
BYGG-012216$0$STANDARD
 70
     0
 40
0.0
 41
1.0
 50
0.0
 71
     0
 42
0.2
  3
txt
  4

  0
STYLE
  2
BYGG-012216$0$ISO
 70
     0
 40
0.0
 41
1.0
 50
0.0
 71
     0
 42
3.5
  3
txt
  4

  0
STYLE
  2
BYGG-028980$0$STANDARD
 70
     0
 40
0.0
 41
1.0
 50
0.0
 71
     0
 42
0.2
  3
txt
  4

  0
STYLE
  2
BYGG-028980$0$ISO
 70
     0
 40
0.0
 41
1.0
 50
0.0
 71
     0
 42
3.5
  3
txt
  4

  0
STYLE
  2
BYGG-020805$0$STANDARD
 70
     0
 40
0.0
 41
1.0
 50
0.0
 71
     0
 42
0.2
  3
txt
  4

  0
STYLE
  2
BYGG-020805$0$ISO
 70
     0
 40
0.0
 41
1.0
 50
0.0
 71
     0
 42
3.5
  3
txt
  4

  0
STYLE
  2
BYGG-033168$0$STANDARD
 70
     0
 40
0.0
 41
1.0
 50
0.0
 71
     0
 42
0.2
  3
txt
  4

  0
STYLE
  2
BYGG-033168$0$ISO
 70
     0
 40
0.0
 41
1.0
 50
0.0
 71
     0
 42
3.5
  3
txt
  4

  0
STYLE
  2
BYGG-027036$0$STANDARD
 70
     0
 40
0.0
 41
1.0
 50
0.0
 71
     0
 42
0.2
  3
txt
  4

  0
STYLE
  2
BYGG-027036$0$ISO
 70
     0
 40
0.0
 41
1.0
 50
0.0
 71
     0
 42
3.5
  3
txt
  4

  0
STYLE
  2
BYGG-027036$0$SIMPLEX
 70
     0
 40
0.0
 41
1.0
 50
0.0
 71
     0
 42
0.4
  3
simplex
  4

  0
STYLE
  2
BYGG-027036$0$ITALIC
 70
     0
 40
0.0
 41
1.0
 50
0.0
 71
     0
 42
0.4
  3
ITALIC
  4

  0
STYLE
  2
BYGG-027036$0$SYMBOL1
 70
     0
 40
0.0
 41
1.0
 50
0.0
 71
     0
 42
0.2
  3
SIMPLEX.SHX
  4

  0
STYLE
  2
BYGG-027036$0$MONOTXT
 70
     0
 40
0.2
 41
1.0
 50
0.0
 71
     0
 42
0.2
  3
MONOTXT
  4

  0
STYLE
  2
BYGG-027036$0$TIMES
 70
     0
 40
0.0
 41
1.0
 50
0.0
 71
     0
 42
100.0
  3
txt
  4

  0
STYLE
  2
BYGG-027036$0$ROMANS
 70
     0
 40
0.0
 41
1.0
 50
0.0
 71
     0
 42
5.0
  3
romans
  4

  0
STYLE
  2
BYGG-027036$0$SEACAD_ARIAL
 70
     0
 40
0.0
 41
1.0
 50
0.0
 71
     0
 42
0.2
  3
txt
  4

  0
STYLE
  2
BYGG-027036$0$ANNOTATIVE
 70
     0
 40
0.0
 41
1.0
 50
0.0
 71
     0
 42
0.2
  3
txt
  4

  0
STYLE
  2
BYGG-019610$0$STANDARD
 70
     0
 40
0.0
 41
1.0
 50
0.0
 71
     0
 42
0.2
  3
txt
  4

  0
STYLE
  2
BYGG-019610$0$ISO
 70
     0
 40
0.0
 41
1.0
 50
0.0
 71
     0
 42
3.5
  3
txt
  4

  0
STYLE
  2
BYGG-029021$0$STANDARD
 70
     0
 40
0.0
 41
1.0
 50
0.0
 71
     0
 42
0.2
  3
txt
  4

  0
STYLE
  2
BYGG-029021$0$ISO
 70
     0
 40
0.0
 41
1.0
 50
0.0
 71
     0
 42
3.5
  3
txt
  4

  0
STYLE
  2
BYGG-029021$0$ANNOTATION
 70
     0
 40
0.0
 41
1.0
 50
0.0
 71
     0
 42
0.2
  3
txt
  4

  0
STYLE
  2
BYGG-029021$0$COTATION
 70
     0
 40
0.0
 41
1.0
 50
0.0
 71
     0
 42
0.2
  3
txt
  4

  0
STYLE
  2
BYGG-029021$0$ANNOTATIVE
 70
     0
 40
0.0
 41
1.0
 50
0.0
 71
     0
 42
0.2
  3
txt
  4

  0
STYLE
  2
BYGG-024800$0$STANDARD
 70
     0
 40
0.0
 41
1.0
 50
0.0
 71
     0
 42
0.2
  3
txt
  4

  0
STYLE
  2
BYGG-024800$0$ISO
 70
     0
 40
0.0
 41
1.0
 50
0.0
 71
     0
 42
3.5
  3
txt
  4

  0
STYLE
  2
BYGG-024807$0$STANDARD
 70
     0
 40
0.0
 41
1.0
 50
0.0
 71
     0
 42
0.2
  3
txt
  4

  0
STYLE
  2
BYGG-024807$0$ISO
 70
     0
 40
0.0
 41
1.0
 50
0.0
 71
     0
 42
3.5
  3
txt
  4

  0
STYLE
  2
BYGG-024807$0$ANNOTATIVE
 70
     0
 40
0.0
 41
1.0
 50
0.0
 71
     0
 42
0.2
  3
txt
  4

  0
STYLE
  2
BYGG-01409101$0$STANDARD
 70
     0
 40
0.0
 41
1.0
 50
0.0
 71
     0
 42
0.4
  3
txt
  4

  0
STYLE
  2
BYGG-01409101$0$SIMPLEX
 70
     0
 40
0.0
 41
1.0
 50
0.0
 71
     0
 42
0.2
  3
simplex
  4

  0
STYLE
  2
BYGG-036634$0$STANDARD
 70
     0
 40
0.0
 41
1.0
 50
0.0
 71
     0
 42
0.2
  3
txt
  4

  0
STYLE
  2
BYGG-036634$0$ISO
 70
     0
 40
0.0
 41
1.0
 50
0.0
 71
     0
 42
3.5
  3
txt
  4

  0
STYLE
  2
BYGG-030601$0$STANDARD
 70
     0
 40
0.0
 41
1.0
 50
0.0
 71
     0
 42
0.2
  3
txt
  4

  0
STYLE
  2
BYGG-030601$0$ISO
 70
     0
 40
0.0
 41
1.0
 50
0.0
 71
     0
 42
3.5
  3
txt
  4

  0
STYLE
  2
BYGG-014090$0$STANDARD
 70
     0
 40
0.0
 41
1.0
 50
0.0
 71
     0
 42
0.2
  3
txt
  4

  0
STYLE
  2
BYGG-014090$0$SIMPLEX
 70
     0
 40
0.0
 41
1.0
 50
0.0
 71
     0
 42
0.2
  3
simplex
  4

  0
STYLE
  2
BYGG-01409301$0$STANDARD
 70
     0
 40
0.0
 41
1.0
 50
0.0
 71
     0
 42
0.4
  3
txt
  4

  0
STYLE
  2
BYGG-01409301$0$ANNOTATIVE
 70
     0
 40
0.0
 41
1.0
 50
0.0
 71
     0
 42
0.4
  3
txt
  4

  0
ENDTAB
  0
TABLE
  2
VIEW
 70
     0
  0
ENDTAB
  0
TABLE
  2
UCS
 70
     0
  0
ENDTAB
  0
TABLE
  2
APPID
 70
    51
  0
APPID
  2
ACAD
 70
     0
  0
APPID
  2
ACAD_DSTYLE_DIMTEXT_FILL
 70
     0
  0
APPID
  2
ACAD_DSTYLE_DIMEXT_LENGTH
 70
     0
  0
APPID
  2
ACAD_DSTYLE_DIMEXT_ENABLED
 70
     0
  0
APPID
  2
ACAD_DSTYLE_DIM_LINETYPE
 70
     0
  0
APPID
  2
ACAD_DSTYLE_DIM_EXT1_LINETYPE
 70
     0
  0
APPID
  2
ACAD_DSTYLE_DIM_EXT2_LINETYPE
 70
     0
  0
APPID
  2
ACAD_DSTYLE_DIMJOGGED_JOGA
 70
     0
  0
APPID
  2
ACAD_DSTYLE_DIMARC_LENGTH_
 70
     0
  0
APPID
  2
ACAD_PSEXT
 70
     0
  0
APPID
  2
ACAD_MLEADERVER
 70
     0
  0
APPID
  2
AMG_ARCHIVE11
 70
     0
  0
APPID
  2
ACAD_EXEMPT_FROM_CAD_STANDARDS
 70
     0
  0
APPID
  2
ACADANNOTATIVE
 70
     0
  0
APPID
  2
ACAECLAYERSTANDARD
 70
     0
  0
APPID
  2
ACDBDYNAMICBLOCKGUID
 70
     0
  0
APPID
  2
ACDBBLOCKREPETAG
 70
     0
  0
APPID
  2
DCO15
 70
     0
  0
APPID
  2
ACAD_DSTYLE_DIMJAG
 70
     0
  0
APPID
  2
ACAD_DSTYLE_DIMTALN
 70
     0
  0
APPID
  2
RC_PROFILE
 70
     0
  0
APPID
  2
ACAD_NAV_VCDISPLAY
 70
     0
  0
APPID
  2
GRADIENTCOLOR1ACI
 70
     0
  0
APPID
  2
GRADIENTCOLOR2ACI
 70
     0
  0
APPID
  2
ACCMTRANSPARENCY
 70
     0
  0
APPID
  2
ACAUTHENVIRON
 70
     0
  0
APPID
  2
ACDBDYNAMICBLOCKTRUENAME
 70
     0
  0
APPID
  2
AME_SOL
 70
     0
  0
APPID
  2
PE_URL
 70
     0
  0
APPID
  2
ACDBBLOCKREPBTAG
 70
     0
  0
APPID
  2
ACAD_DSTYLE_DIMRADIAL_EXTENSION
 70
     0
  0
APPID
  2
ACLAYERTOOLS
 70
     0
  0
APPID
  2
ACAD_OBJECT_CHANGE_GUID
 70
     0
  0
APPID
  2
AVE_RENDER
 70
     0
  0
APPID
  2
AVE_ENTITY_MATERIAL
 70
     0
  0
APPID
  2
AVE_FINISH
 70
     0
  0
APPID
  2
AVE_MATERIAL
 70
     0
  0
APPID
  2
AVE_GLOBAL
 70
     0
  0
APPID
  2
4M_RENDER
 70
     0
  0
APPID
  2
LIBMAN
 70
     0
  0
APPID
  2
AUTOBUILD
 70
     0
  0
APPID
  2
GENIUS_GENREC_14
 70
     0
  0
APPID
  2
GENIUS_GENOBJ-N-REC_13
 70
     0
  0
APPID
  2
GENIUS_GENODEF_13
 70
     0
  0
APPID
  2
GENIUS_GENTRA_14
 70
     0
  0
APPID
  2
GENIUS_GENOREF_13
 70
     0
  0
APPID
  2
GENIUS_GENSCREG_15
 70
     0
  0
APPID
  2
GENIUS_GENOBJ-N-SDF_13
 70
     0
  0
APPID
  2
ACADANNOPO
 70
     0
  0
APPID
  2
ACADBPTGRAPHNODEID
 70
     0
  0
APPID
  2
ACDBATTR
 70
     0
  0
ENDTAB
  0
TABLE
  2
DIMSTYLE
 70
    63
  0
DIMSTYLE
  2
MASKIN
 70
     0
  3

  4

  5

  6

  7

 40
0.0
 41
3.0
 42
1.5
 43
10.0
 44
1.5
 45
0.0
 46
0.0
 47
0.0
 48
0.0
140
3.0
141
-5.0
142
0.0
143
25.399999999999999
144
-1.0
145
0.0
146
1.0
147
1.0
 71
     0
 72
     0
 73
     0
 74
     0
 75
     0
 76
     0
 77
     1
 78
     8
170
     0
171
     0
172
     1
173
     0
174
     0
175
     0
176
   256
177
   256
178
     2
  0
DIMSTYLE
  2
STANDARD
 70
     0
  3

  4

  5

  6

  7

 40
1.0
 41
0.18
 42
0.0625
 43
0.38
 44
0.18
 45
0.0
 46
0.0
 47
0.0
 48
0.0
140
0.18
141
0.09
142
0.0
143
25.399999999999999
144
1.0
145
0.0
146
1.0
147
0.09
 71
     0
 72
     0
 73
     1
 74
     1
 75
     0
 76
     0
 77
     0
 78
     0
170
     0
171
     2
172
     0
173
     0
174
     0
175
     0
176
     0
177
     0
178
     0
  0
DIMSTYLE
  2
BYGG-021589$0$MASKIN
 70
     0
  3

  4

  5

  6

  7

 40
0.0
 41
3.0
 42
1.5
 43
10.0
 44
1.5
 45
0.0
 46
0.0
 47
0.0
 48
0.0
140
3.0
141
-5.0
142
0.0
143
25.399999999999999
144
-1.0
145
0.0
146
1.0
147
1.0
 71
     0
 72
     0
 73
     0
 74
     0
 75
     0
 76
     0
 77
     1
 78
     8
170
     0
171
     0
172
     1
173
     0
174
     0
175
     0
176
   256
177
   256
178
   256
  0
DIMSTYLE
  2
BYGG-01482201$0$STANDARD
 70
     0
  3

  4

  5

  6

  7

 40
1.0
 41
0.18
 42
0.0625
 43
0.38
 44
0.18
 45
0.0
 46
0.0
 47
0.0
 48
0.0
140
0.18
141
0.09
142
0.0
143
25.399999999999999
144
1.0
145
0.0
146
1.0
147
0.09
 71
     0
 72
     0
 73
     1
 74
     1
 75
     0
 76
     0
 77
     0
 78
     0
170
     0
171
     2
172
     0
173
     0
174
     0
175
     0
176
     0
177
     0
178
     0
  0
DIMSTYLE
  2
BYGG-01482201$0$MASKIN
 70
     0
  3

  4

  5

  6

  7

 40
0.0
 41
3.0
 42
1.5
 43
10.0
 44
1.5
 45
0.0
 46
0.0
 47
0.0
 48
0.0
140
3.0
141
-5.0
142
0.0
143
25.399999999999999
144
-1.0
145
0.0
146
1.0
147
1.0
 71
     0
 72
     0
 73
     0
 74
     1
 75
     0
 76
     0
 77
     1
 78
     8
170
     0
171
     0
172
     1
173
     0
174
     0
175
     0
176
   256
177
   256
178
     2
  0
DIMSTYLE
  2
BYGG-021610$0$MASKIN
 70
     0
  3

  4

  5

  6

  7

 40
0.0
 41
3.0
 42
1.5
 43
10.0
 44
1.5
 45
0.0
 46
0.0
 47
0.0
 48
0.0
140
3.0
141
-5.0
142
0.0
143
25.399999999999999
144
-1.0
145
0.0
146
1.0
147
1.0
 71
     0
 72
     0
 73
     0
 74
     0
 75
     0
 76
     0
 77
     1
 78
     8
170
     0
171
     0
172
     1
173
     0
174
     0
175
     0
176
   256
177
   256
178
   256
  0
DIMSTYLE
  2
BYGG-014357$0$MASKIN
 70
     0
  3

  4

  5

  6

  7

 40
0.0
 41
3.0
 42
1.5
 43
10.0
 44
1.5
 45
0.0
 46
0.0
 47
0.0
 48
0.0
140
3.0
141
-5.0
142
0.0
143
25.399999999999999
144
-1.0
145
0.0
146
1.0
147
1.0
 71
     0
 72
     0
 73
     0
 74
     0
 75
     0
 76
     0
 77
     1
 78
     8
170
     0
171
     0
172
     1
173
     0
174
     0
175
     0
176
   256
177
   256
178
   256
  0
DIMSTYLE
  2
BYGG-014357$0$MASKIN1
 70
     0
  3

  4

  5

  6

  7

 40
1.0
 41
3.0
 42
1.5
 43
10.0
 44
1.5
 45
0.0
 46
0.0
 47
0.0
 48
0.0
140
3.0
141
-5.0
142
0.0
143
25.399999999999999
144
1.0
145
0.0
146
1.0
147
0.9
 71
     0
 72
     0
 73
     0
 74
     0
 75
     0
 76
     0
 77
     1
 78
     8
170
     0
171
     0
172
     1
173
     0
174
     0
175
     0
176
   256
177
   256
178
   256
  0
DIMSTYLE
  2
BYGG-014357$0$MASKIN2
 70
     0
  3

  4

  5

  6

  7

 40
1.0
 41
3.0
 42
1.5
 43
10.0
 44
1.5
 45
0.0
 46
0.0
 47
0.0
 48
0.0
140
3.0
141
-5.0
142
0.0
143
25.399999999999999
144
1.0
145
0.0
146
1.0
147
0.9
 71
     0
 72
     0
 73
     0
 74
     0
 75
     0
 76
     0
 77
     1
 78
     8
170
     0
171
     0
172
     1
173
     0
174
     0
175
     0
176
   256
177
   256
178
   256
  0
DIMSTYLE
  2
BYGG-014357$0$MASKIN3
 70
     0
  3

  4

  5

  6

  7

 40
1.0
 41
3.0
 42
1.5
 43
10.0
 44
1.5
 45
0.0
 46
0.0
 47
0.0
 48
0.0
140
3.0
141
-5.0
142
0.0
143
25.399999999999999
144
1.0
145
0.0
146
1.0
147
0.9
 71
     0
 72
     0
 73
     0
 74
     0
 75
     0
 76
     0
 77
     1
 78
     8
170
     0
171
     0
172
     1
173
     0
174
     0
175
     0
176
   256
177
   256
178
   256
  0
DIMSTYLE
  2
BYGG-014357$0$DMST_1
 70
     0
  3

  4

  5

  6

  7

 40
1.0
 41
0.7000000000000002
 42
0.0
 43
7.0
 44
0.4
 45
0.0
 46
0.0
 47
0.15
 48
0.15
140
0.7000000000000002
141
0.0
142
0.0
143
25.399999999999999
144
1.0
145
0.0
146
0.7
147
0.09
 71
     1
 72
     0
 73
     0
 74
     0
 75
     0
 76
     0
 77
     1
 78
     9
170
     0
171
     2
172
     0
173
     0
174
     0
175
     0
176
     1
177
     1
178
     2
  0
DIMSTYLE
  2
BYGG-014062$0$MASKIN
 70
     0
  3

  4

  5

  6

  7

 40
0.0
 41
3.0
 42
1.5
 43
10.0
 44
1.5
 45
0.0
 46
0.0
 47
0.0
 48
0.0
140
3.0
141
-5.0
142
0.0
143
25.399999999999999
144
-1.0
145
0.0
146
1.0
147
1.0
 71
     0
 72
     0
 73
     0
 74
     0
 75
     0
 76
     0
 77
     1
 78
     8
170
     0
171
     0
172
     1
173
     0
174
     0
175
     0
176
   256
177
   256
178
   256
  0
DIMSTYLE
  2
BYGG-014062$0$STANDARD
 70
     0
  3

  4

  5

  6

  7

 40
1.0
 41
0.18
 42
0.0625
 43
0.38
 44
0.18
 45
0.0
 46
0.0
 47
0.0
 48
0.0
140
0.18
141
0.09
142
0.0
143
25.399999999999999
144
1.0
145
0.0
146
1.0
147
0.09
 71
     0
 72
     0
 73
     1
 74
     1
 75
     0
 76
     0
 77
     0
 78
     0
170
     0
171
     2
172
     0
173
     0
174
     0
175
     0
176
     0
177
     0
178
     0
  0
DIMSTYLE
  2
BYGG-014062$0$PRIMO_1-1
 70
     0
  3

  4

  5

  6

  7

 40
1.0
 41
3.0
 42
1.0
 43
5.0
 44
1.0
 45
0.0
 46
0.0
 47
0.0
 48
0.0
140
3.0
141
3.0
142
0.0
143
25.399999999999999
144
1.0
145
0.0
146
1.0
147
1.0
 71
     0
 72
     0
 73
     0
 74
     0
 75
     0
 76
     0
 77
     1
 78
     8
170
     0
171
     2
172
     0
173
     0
174
     0
175
     0
176
   256
177
   256
178
     6
  0
DIMSTYLE
  2
BYGG-014062$0$PRIMO_2-1
 70
     0
  3

  4

  5

  6

  7

 40
0.5
 41
3.0
 42
1.0
 43
5.0
 44
1.0
 45
0.0
 46
0.0
 47
0.0
 48
0.0
140
3.0
141
3.0
142
0.0
143
25.399999999999999
144
1.0
145
0.0
146
1.0
147
1.0
 71
     0
 72
     0
 73
     0
 74
     0
 75
     0
 76
     0
 77
     1
 78
     8
170
     0
171
     2
172
     0
173
     0
174
     0
175
     0
176
   256
177
   256
178
     6
  0
DIMSTYLE
  2
BYGG-014062$0$PRIMO_2_5-1
 70
     0
  3

  4

  5

  6

  7

 40
0.4
 41
3.0
 42
1.0
 43
5.0
 44
1.0
 45
0.0
 46
0.0
 47
0.0
 48
0.0
140
3.0
141
3.0
142
0.0
143
25.399999999999999
144
1.0
145
0.0
146
1.0
147
1.0
 71
     0
 72
     0
 73
     0
 74
     0
 75
     0
 76
     0
 77
     1
 78
     8
170
     0
171
     2
172
     0
173
     0
174
     0
175
     0
176
   256
177
   256
178
     6
  0
DIMSTYLE
  2
BYGG-014062$0$PRIMO_1-10
 70
     0
  3

  4

  5

  6

  7

 40
10.0
 41
3.0
 42
1.0
 43
5.0
 44
1.0
 45
0.0
 46
0.0
 47
0.0
 48
0.0
140
3.0
141
3.0
142
0.0
143
25.399999999999999
144
1.0
145
0.0
146
1.0
147
1.0
 71
     0
 72
     0
 73
     0
 74
     0
 75
     0
 76
     0
 77
     1
 78
     8
170
     0
171
     2
172
     0
173
     0
174
     0
175
     0
176
   256
177
   256
178
     6
  0
DIMSTYLE
  2
BYGG-014062$0$PRIMO_1-5
 70
     0
  3

  4

  5

  6

  7

 40
5.0
 41
3.0
 42
1.0
 43
5.0
 44
1.0
 45
0.0
 46
0.0
 47
0.0
 48
0.0
140
3.0
141
3.0
142
0.0
143
25.399999999999999
144
1.0
145
0.0
146
1.0
147
1.0
 71
     0
 72
     0
 73
     0
 74
     0
 75
     0
 76
     0
 77
     1
 78
     8
170
     0
171
     2
172
     0
173
     0
174
     0
175
     0
176
   256
177
   256
178
     6
  0
DIMSTYLE
  2
BYGG-014062$0$PRIMO_1-2
 70
     0
  3

  4

  5

  6

  7

 40
2.0
 41
3.0
 42
1.0
 43
5.0
 44
1.0
 45
0.0
 46
0.0
 47
0.0
 48
0.0
140
3.0
141
3.0
142
0.0
143
25.399999999999999
144
1.0
145
0.0
146
1.0
147
1.0
 71
     0
 72
     0
 73
     0
 74
     0
 75
     0
 76
     0
 77
     1
 78
     8
170
     0
171
     2
172
     0
173
     0
174
     0
175
     0
176
   256
177
   256
178
     6
  0
DIMSTYLE
  2
BYGG-021806$0$STANDARD
 70
     0
  3

  4

  5

  6

  7

 40
1.0
 41
0.18
 42
0.0625
 43
0.38
 44
0.18
 45
0.0
 46
0.0
 47
0.0
 48
0.0
140
0.18
141
0.09
142
0.0
143
25.399999999999999
144
1.0
145
0.0
146
1.0
147
0.09
 71
     0
 72
     0
 73
     1
 74
     1
 75
     0
 76
     0
 77
     0
 78
     0
170
     0
171
     2
172
     0
173
     0
174
     0
175
     0
176
     0
177
     0
178
     0
  0
DIMSTYLE
  2
BYGG-021806$0$MASKIN
 70
     0
  3

  4

  5

  6

  7

 40
0.0
 41
3.0
 42
1.5
 43
10.0
 44
1.5
 45
0.0
 46
0.0
 47
0.0
 48
0.0
140
3.0
141
-5.0
142
0.0
143
25.399999999999999
144
-1.0
145
0.0
146
1.0
147
1.0
 71
     0
 72
     0
 73
     0
 74
     0
 75
     0
 76
     0
 77
     1
 78
     8
170
     0
171
     0
172
     1
173
     0
174
     0
175
     0
176
   256
177
   256
178
     2
  0
DIMSTYLE
  2
BYGG-021582$0$MASKIN
 70
     0
  3

  4

  5

  6

  7

 40
0.0
 41
3.0
 42
1.5
 43
10.0
 44
1.5
 45
0.0
 46
0.0
 47
0.0
 48
0.0
140
3.0
141
-5.0
142
0.0
143
25.399999999999999
144
-1.0
145
0.0
146
1.0
147
1.0
 71
     0
 72
     0
 73
     0
 74
     0
 75
     0
 76
     0
 77
     1
 78
     8
170
     0
171
     0
172
     1
173
     0
174
     0
175
     0
176
   256
177
   256
178
   256
  0
DIMSTYLE
  2
BYGG-014279$0$STANDARD
 70
     0
  3

  4

  5

  6

  7

 40
1.0
 41
0.18
 42
0.0625
 43
0.38
 44
0.18
 45
0.0
 46
0.0
 47
0.0
 48
0.0
140
0.18
141
0.09
142
0.0
143
25.399999999999999
144
1.0
145
0.0
146
1.0
147
0.09
 71
     0
 72
     0
 73
     1
 74
     1
 75
     0
 76
     0
 77
     0
 78
     0
170
     0
171
     2
172
     0
173
     0
174
     0
175
     0
176
     0
177
     0
178
     0
  0
DIMSTYLE
  2
BYGG-014279$0$MASKIN
 70
     0
  3

  4

  5

  6

  7

 40
0.0
 41
3.0
 42
1.5
 43
10.0
 44
1.5
 45
0.0
 46
0.0
 47
0.0
 48
0.0
140
3.0
141
-5.0
142
0.0
143
25.399999999999999
144
-1.0
145
0.0
146
1.0
147
1.0
 71
     0
 72
     0
 73
     0
 74
     1
 75
     0
 76
     0
 77
     1
 78
     8
170
     0
171
     0
172
     1
173
     0
174
     0
175
     0
176
   256
177
   256
178
     2
  0
DIMSTYLE
  2
BYGG-033225$0$STANDARD
 70
     0
  3

  4

  5

  6

  7

 40
1.0
 41
0.18
 42
0.0625
 43
0.38
 44
0.18
 45
0.0
 46
0.0
 47
0.0
 48
0.0
140
0.18
141
0.09
142
0.0
143
25.399999999999999
144
1.0
145
0.0
146
1.0
147
0.09
 71
     0
 72
     0
 73
     1
 74
     1
 75
     0
 76
     0
 77
     0
 78
     0
170
     0
171
     2
172
     0
173
     0
174
     0
175
     0
176
     0
177
     0
178
     0
  0
DIMSTYLE
  2
BYGG-033225$0$MASKIN
 70
     0
  3

  4

  5

  6

  7

 40
0.0
 41
3.0
 42
1.5
 43
10.0
 44
1.5
 45
0.0
 46
0.0
 47
0.0
 48
0.0
140
3.0
141
-5.0
142
0.0
143
25.399999999999999
144
-1.0
145
0.0
146
1.0
147
1.0
 71
     0
 72
     0
 73
     0
 74
     0
 75
     0
 76
     0
 77
     1
 78
     8
170
     0
171
     0
172
     1
173
     0
174
     0
175
     0
176
   256
177
   256
178
     2
  0
DIMSTYLE
  2
BYGG-033225$0$ANNOTATIVE
 70
     0
  3

  4

  5

  6

  7

 40
1.0
 41
0.18
 42
0.0625
 43
0.38
 44
0.18
 45
0.0
 46
0.0
 47
0.0
 48
0.0
140
0.18
141
0.09
142
0.0
143
25.399999999999999
144
1.0
145
0.0
146
1.0
147
0.09
 71
     0
 72
     0
 73
     1
 74
     1
 75
     0
 76
     0
 77
     0
 78
     0
170
     0
171
     2
172
     0
173
     0
174
     0
175
     0
176
     0
177
     0
178
     0
  0
DIMSTYLE
  2
BYGG-025060$0$MASKIN
 70
     0
  3

  4

  5

  6

  7

 40
0.0
 41
3.0
 42
1.5
 43
10.0
 44
1.5
 45
0.0
 46
0.0
 47
0.0
 48
0.0
140
3.0
141
-5.0
142
0.0
143
25.399999999999999
144
-1.0
145
0.0
146
1.0
147
1.0
 71
     0
 72
     0
 73
     0
 74
     0
 75
     0
 76
     0
 77
     1
 78
     8
170
     0
171
     0
172
     1
173
     0
174
     0
175
     0
176
   256
177
   256
178
     2
  0
DIMSTYLE
  2
BYGG-025060$0$STANDARD
 70
     0
  3

  4

  5

  6

  7

 40
1.0
 41
0.18
 42
0.0625
 43
0.38
 44
0.18
 45
0.0
 46
0.0
 47
0.0
 48
0.0
140
0.18
141
0.09
142
0.0
143
25.399999999999999
144
1.0
145
0.0
146
1.0
147
0.09
 71
     0
 72
     0
 73
     1
 74
     1
 75
     0
 76
     0
 77
     0
 78
     0
170
     0
171
     2
172
     0
173
     0
174
     0
175
     0
176
     0
177
     0
178
     0
  0
DIMSTYLE
  2
BYGG-012216$0$MASKIN
 70
     0
  3

  4

  5

  6

  7

 40
0.0
 41
3.0
 42
1.5
 43
10.0
 44
1.5
 45
0.0
 46
0.0
 47
0.0
 48
0.0
140
3.0
141
-5.0
142
0.0
143
25.399999999999999
144
-1.0
145
0.0
146
1.0
147
1.0
 71
     0
 72
     0
 73
     0
 74
     0
 75
     0
 76
     0
 77
     1
 78
     8
170
     0
171
     0
172
     1
173
     0
174
     0
175
     0
176
   256
177
   256
178
     2
  0
DIMSTYLE
  2
BYGG-012216$0$STANDARD
 70
     0
  3

  4

  5

  6

  7

 40
1.0
 41
0.18
 42
0.0625
 43
0.38
 44
0.18
 45
0.0
 46
0.0
 47
0.0
 48
0.0
140
0.18
141
0.09
142
0.0
143
25.399999999999999
144
1.0
145
0.0
146
1.0
147
0.09
 71
     0
 72
     0
 73
     1
 74
     1
 75
     0
 76
     0
 77
     0
 78
     0
170
     0
171
     2
172
     0
173
     0
174
     0
175
     0
176
     0
177
     0
178
     0
  0
DIMSTYLE
  2
BYGG-028980$0$STANDARD
 70
     0
  3

  4

  5

  6

  7

 40
1.0
 41
0.18
 42
0.0625
 43
0.38
 44
0.18
 45
0.0
 46
0.0
 47
0.0
 48
0.0
140
0.18
141
0.09
142
0.0
143
25.399999999999999
144
1.0
145
0.0
146
1.0
147
0.09
 71
     0
 72
     0
 73
     1
 74
     1
 75
     0
 76
     0
 77
     0
 78
     0
170
     0
171
     2
172
     0
173
     0
174
     0
175
     0
176
     0
177
     0
178
     0
  0
DIMSTYLE
  2
BYGG-028980$0$MASKIN
 70
     0
  3

  4

  5

  6

  7

 40
0.0
 41
3.0
 42
1.5
 43
10.0
 44
1.5
 45
0.0
 46
0.0
 47
0.0
 48
0.0
140
3.0
141
-5.0
142
0.0
143
25.399999999999999
144
-1.0
145
0.0
146
1.0
147
1.0
 71
     0
 72
     0
 73
     0
 74
     0
 75
     0
 76
     0
 77
     1
 78
     8
170
     0
171
     0
172
     1
173
     0
174
     0
175
     0
176
   256
177
   256
178
     2
  0
DIMSTYLE
  2
BYGG-020805$0$STANDARD
 70
     0
  3

  4

  5

  6

  7

 40
1.0
 41
0.18
 42
0.0625
 43
0.38
 44
0.18
 45
0.0
 46
0.0
 47
0.0
 48
0.0
140
0.18
141
0.09
142
0.0
143
25.399999999999999
144
1.0
145
0.0
146
1.0
147
0.09
 71
     0
 72
     0
 73
     1
 74
     1
 75
     0
 76
     0
 77
     0
 78
     0
170
     0
171
     2
172
     0
173
     0
174
     0
175
     0
176
     0
177
     0
178
     0
  0
DIMSTYLE
  2
BYGG-020805$0$MASKIN
 70
     0
  3

  4

  5

  6

  7

 40
0.0
 41
3.0
 42
1.5
 43
10.0
 44
1.5
 45
0.0
 46
0.0
 47
0.0
 48
0.0
140
3.0
141
-5.0
142
0.0
143
25.399999999999999
144
-1.0
145
0.0
146
1.0
147
1.0
 71
     0
 72
     0
 73
     0
 74
     0
 75
     0
 76
     0
 77
     1
 78
     8
170
     0
171
     0
172
     1
173
     0
174
     0
175
     0
176
   256
177
   256
178
     2
  0
DIMSTYLE
  2
BYGG-033168$0$STANDARD
 70
     0
  3

  4

  5

  6

  7

 40
1.0
 41
0.18
 42
0.0625
 43
0.38
 44
0.18
 45
0.0
 46
0.0
 47
0.0
 48
0.0
140
0.18
141
0.09
142
0.0
143
25.399999999999999
144
1.0
145
0.0
146
1.0
147
0.09
 71
     0
 72
     0
 73
     1
 74
     1
 75
     0
 76
     0
 77
     0
 78
     0
170
     0
171
     2
172
     0
173
     0
174
     0
175
     0
176
     0
177
     0
178
     0
  0
DIMSTYLE
  2
BYGG-033168$0$MASKIN
 70
     0
  3

  4

  5

  6

  7

 40
0.0
 41
3.0
 42
1.5
 43
10.0
 44
1.5
 45
0.0
 46
0.0
 47
0.0
 48
0.0
140
3.0
141
-5.0
142
0.0
143
25.399999999999999
144
-1.0
145
0.0
146
1.0
147
1.0
 71
     0
 72
     0
 73
     0
 74
     0
 75
     0
 76
     0
 77
     1
 78
     8
170
     0
171
     0
172
     1
173
     0
174
     0
175
     0
176
   256
177
   256
178
     2
  0
DIMSTYLE
  2
BYGG-027036$0$STANDARD
 70
     0
  3

  4

  5

  6

  7

 40
1.0
 41
0.18
 42
0.0625
 43
0.38
 44
0.18
 45
0.0
 46
0.0
 47
0.0
 48
0.0
140
0.18
141
0.09
142
0.0
143
25.399999999999999
144
1.0
145
0.0
146
1.0
147
0.09
 71
     0
 72
     0
 73
     1
 74
     1
 75
     0
 76
     0
 77
     0
 78
     0
170
     0
171
     2
172
     0
173
     0
174
     0
175
     0
176
     0
177
     0
178
     0
  0
DIMSTYLE
  2
BYGG-027036$0$MASKIN
 70
     0
  3

  4

  5

  6

  7

 40
0.0
 41
3.0
 42
1.5
 43
10.0
 44
1.5
 45
0.0
 46
0.0
 47
0.0
 48
0.0
140
3.0
141
-5.0
142
0.0
143
25.399999999999999
144
-1.0
145
0.0
146
1.0
147
1.0
 71
     0
 72
     0
 73
     0
 74
     0
 75
     0
 76
     0
 77
     1
 78
     8
170
     0
171
     0
172
     1
173
     0
174
     0
175
     0
176
   256
177
   256
178
     2
  0
DIMSTYLE
  2
BYGG-027036$0$STANDARD$4
 70
     0
  3

  4

  5

  6

  7

 40
1.0
 41
2.5
 42
2.0
 43
3.75
 44
1.0
 45
0.0
 46
0.0
 47
0.0
 48
0.0
140
5.0
141
3.0
142
0.0
143
0.0394
144
1.0
145
1.0
146
1.0
147
1.0
 71
     0
 72
     0
 73
     1
 74
     0
 75
     0
 76
     0
 77
     1
 78
     8
170
     0
171
     2
172
     1
173
     0
174
     0
175
     0
176
     5
177
     5
178
     5
  0
DIMSTYLE
  2
BYGG-027036$0$STANDARD$2
 70
     0
  3

  4

  5

  6

  7

 40
1.0
 41
2.5
 42
2.0
 43
3.75
 44
1.0
 45
0.0
 46
0.0
 47
0.0
 48
0.0
140
5.0
141
3.0
142
0.0
143
0.0394
144
1.0
145
1.0
146
1.0
147
1.0
 71
     0
 72
     0
 73
     1
 74
     0
 75
     0
 76
     0
 77
     1
 78
     8
170
     0
171
     2
172
     1
173
     0
174
     0
175
     0
176
     5
177
     5
178
     5
  0
DIMSTYLE
  2
BYGG-027036$0$DMST_1
 70
     0
  3

  4

  5

  6

  7

 40
1.0
 41
0.3500000000000001
 42
0.0
 43
7.0
 44
0.2
 45
0.0
 46
0.0
 47
0.0
 48
0.0
140
0.3500000000000001
141
0.0
142
0.0
143
25.399999999999999
144
1.0
145
0.0
146
1.0
147
0.09
 71
     0
 72
     0
 73
     0
 74
     0
 75
     0
 76
     0
 77
     1
 78
     9
170
     0
171
     2
172
     0
173
     0
174
     0
175
     0
176
     1
177
     1
178
     2
  0
DIMSTYLE
  2
BYGG-027036$0$ANNOTATIVE
 70
     0
  3

  4

  5

  6

  7

 40
1.0
 41
0.18
 42
0.0625
 43
0.38
 44
0.18
 45
0.0
 46
0.0
 47
0.0
 48
0.0
140
0.18
141
0.09
142
0.0
143
25.399999999999999
144
1.0
145
0.0
146
1.0
147
0.09
 71
     0
 72
     0
 73
     1
 74
     1
 75
     0
 76
     0
 77
     0
 78
     0
170
     0
171
     2
172
     0
173
     0
174
     0
175
     0
176
     0
177
     0
178
     0
  0
DIMSTYLE
  2
BYGG-019610$0$STANDARD
 70
     0
  3

  4

  5

  6

  7

 40
1.0
 41
0.18
 42
0.0625
 43
0.38
 44
0.18
 45
0.0
 46
0.0
 47
0.0
 48
0.0
140
0.18
141
0.09
142
0.0
143
25.399999999999999
144
1.0
145
0.0
146
1.0
147
0.09
 71
     0
 72
     0
 73
     1
 74
     1
 75
     0
 76
     0
 77
     0
 78
     0
170
     0
171
     2
172
     0
173
     0
174
     0
175
     0
176
     0
177
     0
178
     0
  0
DIMSTYLE
  2
BYGG-019610$0$MASKIN
 70
     0
  3

  4

  5

  6

  7

 40
0.0
 41
3.0
 42
1.5
 43
10.0
 44
1.5
 45
0.0
 46
0.0
 47
0.0
 48
0.0
140
3.0
141
-5.0
142
0.0
143
25.399999999999999
144
-1.0
145
0.0
146
1.0
147
1.0
 71
     0
 72
     0
 73
     0
 74
     0
 75
     0
 76
     0
 77
     1
 78
     8
170
     0
171
     0
172
     1
173
     0
174
     0
175
     0
176
   256
177
   256
178
     2
  0
DIMSTYLE
  2
BYGG-029021$0$STANDARD
 70
     0
  3

  4

  5

  6

  7

 40
1.0
 41
0.18
 42
0.0625
 43
0.38
 44
0.18
 45
0.0
 46
0.0
 47
0.0
 48
0.0
140
0.18
141
0.09
142
0.0
143
25.399999999999999
144
1.0
145
0.0
146
1.0
147
0.09
 71
     0
 72
     0
 73
     1
 74
     1
 75
     0
 76
     0
 77
     0
 78
     0
170
     0
171
     2
172
     0
173
     0
174
     0
175
     0
176
     0
177
     0
178
     0
  0
DIMSTYLE
  2
BYGG-029021$0$MASKIN
 70
     0
  3

  4

  5

  6

  7

 40
0.0
 41
3.0
 42
1.5
 43
10.0
 44
1.5
 45
0.0
 46
0.0
 47
0.0
 48
0.0
140
3.0
141
-5.0
142
0.0
143
25.399999999999999
144
-1.0
145
0.0
146
1.0
147
1.0
 71
     0
 72
     0
 73
     0
 74
     0
 75
     0
 76
     0
 77
     1
 78
     8
170
     0
171
     0
172
     1
173
     0
174
     0
175
     0
176
   256
177
   256
178
     2
  0
DIMSTYLE
  2
BYGG-029021$0$MASKIN1
 70
     0
  3

  4

  5

  6

  7

 40
0.0
 41
3.0
 42
1.5
 43
10.0
 44
1.5
 45
0.0
 46
0.0
 47
0.0
 48
0.0
140
3.0
141
-5.0
142
0.0
143
25.399999999999999
144
-1.0
145
0.0
146
1.0
147
1.0
 71
     0
 72
     0
 73
     0
 74
     0
 75
     0
 76
     0
 77
     1
 78
     8
170
     0
171
     0
172
     1
173
     0
174
     0
175
     0
176
   256
177
   256
178
   256
  0
DIMSTYLE
  2
BYGG-029021$0$COTATION_HUT
 70
     0
  3

  4

  5

  6

  7

 40
1.0
 41
0.25
 42
0.1
 43
3.75
 44
0.18
 45
0.0
 46
0.0
 47
0.0
 48
0.0
140
0.25
141
2.5
142
0.0
143
25.399999999999999
144
1.0
145
0.05
146
0.7000000000000002
147
0.09
 71
     1
 72
     0
 73
     0
 74
     0
 75
     0
 76
     0
 77
     1
 78
     0
170
     0
171
     2
172
     1
173
     0
174
     0
175
     0
176
     0
177
     0
178
     0
  0
DIMSTYLE
  2
BYGG-029021$0$ANNOTATIVE
 70
     0
  3

  4

  5

  6

  7

 40
1.0
 41
0.18
 42
0.0625
 43
0.38
 44
0.18
 45
0.0
 46
0.0
 47
0.0
 48
0.0
140
0.18
141
0.09
142
0.0
143
25.399999999999999
144
1.0
145
0.0
146
1.0
147
0.09
 71
     0
 72
     0
 73
     1
 74
     1
 75
     0
 76
     0
 77
     0
 78
     0
170
     0
171
     2
172
     0
173
     0
174
     0
175
     0
176
     0
177
     0
178
     0
  0
DIMSTYLE
  2
BYGG-024800$0$MASKIN
 70
     0
  3

  4

  5

  6

  7

 40
0.0
 41
3.0
 42
1.5
 43
10.0
 44
1.5
 45
0.0
 46
0.0
 47
0.0
 48
0.0
140
3.0
141
-5.0
142
0.0
143
25.399999999999999
144
-1.0
145
0.0
146
1.0
147
1.0
 71
     0
 72
     0
 73
     0
 74
     0
 75
     0
 76
     0
 77
     1
 78
     8
170
     0
171
     0
172
     1
173
     0
174
     0
175
     0
176
   256
177
   256
178
     2
  0
DIMSTYLE
  2
BYGG-024800$0$STANDARD
 70
     0
  3

  4

  5

  6

  7

 40
1.0
 41
0.18
 42
0.0625
 43
0.38
 44
0.18
 45
0.0
 46
0.0
 47
0.0
 48
0.0
140
0.18
141
0.09
142
0.0
143
25.399999999999999
144
1.0
145
0.0
146
1.0
147
0.09
 71
     0
 72
     0
 73
     1
 74
     1
 75
     0
 76
     0
 77
     0
 78
     0
170
     0
171
     2
172
     0
173
     0
174
     0
175
     0
176
     0
177
     0
178
     0
  0
DIMSTYLE
  2
BYGG-024807$0$MASKIN
 70
     0
  3

  4

  5

  6

  7

 40
0.0
 41
3.0
 42
1.5
 43
10.0
 44
1.5
 45
0.0
 46
0.0
 47
0.0
 48
0.0
140
3.0
141
-5.0
142
0.0
143
25.399999999999999
144
-1.0
145
0.0
146
1.0
147
1.0
 71
     0
 72
     0
 73
     0
 74
     0
 75
     0
 76
     0
 77
     1
 78
     8
170
     0
171
     0
172
     1
173
     0
174
     0
175
     0
176
   256
177
   256
178
     2
  0
DIMSTYLE
  2
BYGG-024807$0$STANDARD
 70
     0
  3

  4

  5

  6

  7

 40
1.0
 41
0.18
 42
0.0625
 43
0.38
 44
0.18
 45
0.0
 46
0.0
 47
0.0
 48
0.0
140
0.18
141
0.09
142
0.0
143
25.399999999999999
144
1.0
145
0.0
146
1.0
147
0.09
 71
     0
 72
     0
 73
     1
 74
     1
 75
     0
 76
     0
 77
     0
 78
     0
170
     0
171
     2
172
     0
173
     0
174
     0
175
     0
176
     0
177
     0
178
     0
  0
DIMSTYLE
  2
BYGG-024807$0$ANNOTATIVE
 70
     0
  3

  4

  5

  6

  7

 40
1.0
 41
0.18
 42
0.0625
 43
0.38
 44
0.18
 45
0.0
 46
0.0
 47
0.0
 48
0.0
140
0.18
141
0.09
142
0.0
143
25.399999999999999
144
1.0
145
0.0
146
1.0
147
0.09
 71
     0
 72
     0
 73
     1
 74
     1
 75
     0
 76
     0
 77
     0
 78
     0
170
     0
171
     2
172
     0
173
     0
174
     0
175
     0
176
     0
177
     0
178
     0
  0
DIMSTYLE
  2
BYGG-01409101$0$STANDARD
 70
     0
  3

  4

  5

  6

  7

 40
1.0
 41
0.18
 42
0.0625
 43
0.38
 44
0.18
 45
0.0
 46
0.0
 47
0.0
 48
0.0
140
0.18
141
0.09
142
0.0
143
25.399999999999999
144
1.0
145
0.0
146
1.0
147
0.09
 71
     0
 72
     0
 73
     1
 74
     1
 75
     0
 76
     0
 77
     0
 78
     0
170
     0
171
     2
172
     0
173
     0
174
     0
175
     0
176
     0
177
     0
178
     0
  0
DIMSTYLE
  2
BYGG-036634$0$STANDARD
 70
     0
  3

  4

  5

  6

  7

 40
1.0
 41
0.18
 42
0.0625
 43
0.38
 44
0.18
 45
0.0
 46
0.0
 47
0.0
 48
0.0
140
0.18
141
0.09
142
0.0
143
25.399999999999999
144
1.0
145
0.0
146
1.0
147
0.09
 71
     0
 72
     0
 73
     1
 74
     1
 75
     0
 76
     0
 77
     0
 78
     0
170
     0
171
     2
172
     0
173
     0
174
     0
175
     0
176
     0
177
     0
178
     0
  0
DIMSTYLE
  2
BYGG-036634$0$MASKIN
 70
     0
  3

  4

  5

  6

  7

 40
0.0
 41
3.0
 42
1.5
 43
10.0
 44
1.5
 45
0.0
 46
0.0
 47
0.0
 48
0.0
140
3.0
141
-5.0
142
0.0
143
25.399999999999999
144
-1.0
145
0.0
146
1.0
147
1.0
 71
     0
 72
     0
 73
     0
 74
     0
 75
     0
 76
     0
 77
     1
 78
     8
170
     0
171
     0
172
     1
173
     0
174
     0
175
     0
176
   256
177
   256
178
     2
  0
DIMSTYLE
  2
BYGG-030601$0$STANDARD
 70
     0
  3

  4

  5

  6

  7

 40
1.0
 41
0.18
 42
0.0625
 43
0.38
 44
0.18
 45
0.0
 46
0.0
 47
0.0
 48
0.0
140
0.18
141
0.09
142
0.0
143
25.399999999999999
144
1.0
145
0.0
146
1.0
147
0.09
 71
     0
 72
     0
 73
     1
 74
     1
 75
     0
 76
     0
 77
     0
 78
     0
170
     0
171
     2
172
     0
173
     0
174
     0
175
     0
176
     0
177
     0
178
     0
  0
DIMSTYLE
  2
BYGG-030601$0$MASKIN
 70
     0
  3

  4

  5

  6

  7

 40
0.0
 41
3.0
 42
1.5
 43
10.0
 44
1.5
 45
0.0
 46
0.0
 47
0.0
 48
0.0
140
3.0
141
-5.0
142
0.0
143
25.399999999999999
144
-1.0
145
0.0
146
1.0
147
1.0
 71
     0
 72
     0
 73
     0
 74
     0
 75
     0
 76
     0
 77
     1
 78
     8
170
     0
171
     0
172
     1
173
     0
174
     0
175
     0
176
   256
177
   256
178
     2
  0
DIMSTYLE
  2
BYGG-014090$0$STANDARD
 70
     0
  3

  4

  5

  6

  7

 40
1.0
 41
0.18
 42
0.0625
 43
0.38
 44
0.18
 45
0.0
 46
0.0
 47
0.0
 48
0.0
140
0.18
141
0.09
142
0.0
143
25.399999999999999
144
1.0
145
0.0
146
1.0
147
0.09
 71
     0
 72
     0
 73
     1
 74
     1
 75
     0
 76
     0
 77
     0
 78
     0
170
     0
171
     2
172
     0
173
     0
174
     0
175
     0
176
     0
177
     0
178
     0
  0
DIMSTYLE
  2
BYGG-01409301$0$STANDARD
 70
     0
  3

  4

  5

  6

  7

 40
1.0
 41
0.18
 42
0.0625
 43
0.38
 44
0.18
 45
0.0
 46
0.0
 47
0.0
 48
0.0
140
0.18
141
0.09
142
0.0
143
25.399999999999999
144
1.0
145
0.0
146
1.0
147
0.09
 71
     0
 72
     0
 73
     1
 74
     1
 75
     0
 76
     0
 77
     0
 78
     0
170
     0
171
     2
172
     0
173
     0
174
     0
175
     0
176
     0
177
     0
178
     0
  0
DIMSTYLE
  2
BYGG-01409301$0$ANNOTATIVE
 70
     0
  3

  4

  5

  6

  7

 40
1.0
 41
0.18
 42
0.0625
 43
0.38
 44
0.18
 45
0.0
 46
0.0
 47
0.0
 48
0.0
140
0.18
141
0.09
142
0.0
143
25.399999999999999
144
1.0
145
0.0
146
1.0
147
0.09
 71
     0
 72
     0
 73
     1
 74
     1
 75
     0
 76
     0
 77
     0
 78
     0
170
     0
171
     2
172
     0
173
     0
174
     0
175
     0
176
     0
177
     0
178
     0
  0
ENDTAB
  0
ENDSEC
  0
SECTION
  2
BLOCKS
  0
BLOCK
  8
0
  2
$MODEL_SPACE
 70
     0
 10
0.0
 20
0.0
 30
0.0
  3
$MODEL_SPACE
  1

  0
ENDBLK
  5
37
  8
0
  0
BLOCK
 67
     1
  8
0
  2
$PAPER_SPACE
 70
     0
 10
0.0
 20
0.0
 30
0.0
  3
$PAPER_SPACE
  1

  0
ENDBLK
  5
35
 67
     1
  8
0
  0
BLOCK
  8
0
  2
BYGG-027036$0$RH
 70
     2
 10
0.0
 20
0.0
 30
0.0
  3
BYGG-027036$0$RH
  1

  0
ATTDEF
  5
137E
  8
BYGG-027036$0$KON
 10
11.0
 20
2.2999999999999989
 30
0.0
 40
0.4400000000000001
  1

  7
BYGG-027036$0$SIMPLEX
 72
     4
 11
11.0
 21
2.2999999999999989
 31
0.0
  3
Benämning
  2
BENÄMNING
 70
     0
  0
ATTDEF
  5
1380
  8
BYGG-027036$0$KON
 10
11.0
 20
1.5
 30
0.0
 40
0.4400000000000001
  1

  7
BYGG-027036$0$SIMPLEX
 72
     4
 11
11.0
 21
1.5
 31
0.0
  3
Gummi-hårdhet-färg
  2
GUMMI-HÅRDHET-FÄRG
 70
     0
  0
ATTDEF
  5
1381
  8
BYGG-027036$0$KON
 10
11.0
 20
0.7
 30
0.0
 40
0.4400000000000001
  1

  7
BYGG-027036$0$SIMPLEX
 72
     4
 11
11.0
 21
0.7
 31
0.0
  3
Kund
  2
KUND
 70
     0
  0
ATTDEF
  5
1382
  8
BYGG-027036$0$KON
 10
18.399999999999999
 20
0.8
 30
0.0
 40
0.4
  1

  7
BYGG-027036$0$SIMPLEX
 72
     4
 11
18.399999999999999
 21
0.8
 31
0.0
  3
Rit.Nr:
  2
RIT.NR:
 70
     0
  0
ATTDEF
  5
1383
  8
BYGG-027036$0$KON
 10
18.399999999999999
 20
3.2000000000000002
 30
0.0
 40
0.4
  1

  7
BYGG-027036$0$SIMPLEX
 72
     4
 11
18.399999999999999
 21
3.2000000000000002
 31
0.0
  3
Det.Nr:
  2
DET.NR:
 70
     0
  0
ATTDEF
  5
1384
  8
BYGG-027036$0$KON
 10
18.800000000000001
 20
2.0
 30
0.0
 40
0.4
  1

  7
BYGG-027036$0$SIMPLEX
 72
     4
 11
18.800000000000001
 21
2.0
 31
0.0
  3
Skala:
  2
SKALA:
 70
     1
  0
ATTDEF
  5
1385
  8
BYGG-027036$0$KON
 10
3.6000000000000001
 20
1.8999999999999999
 30
0.0
 40
0.3
  1

  7
BYGG-027036$0$SIMPLEX
 72
     4
 11
3.6000000000000001
 21
1.8999999999999999
 31
0.0
  3
Datum
  2
DATUM
 70
     0
  0
ATTDEF
  5
1386
  8
BYGG-027036$0$KON
 10
3.399999999999999
 20
0.9
 30
0.0
 40
0.4
  1

  7
BYGG-027036$0$SIMPLEX
 72
     4
 11
3.399999999999999
 21
0.9
 31
0.0
  3
Ritad av:
  2
RITAD:
 70
     1
  0
ATTDEF
  5
1387
  8
BYGG-027036$0$KON
 10
3.1999999999999988
 20
5.2999999999999989
 30
0.0
 40
0.4
  1

  7
BYGG-027036$0$SIMPLEX
  3
Säljare:
  2
SÄLJARE
 70
     1
  0
ENDBLK
  5
1388
  8
0
  0
BLOCK
  8
0
  2
*D125
 70
     1
 10
0.0
 20
0.0
 30
0.0
  3
*D125
  1

  0
LINE
  5
1B65
  8
SAPA_MATT
 10
24.999999999999659
 20
-97.499999999010484
 30
0.0
 11
24.999999999999659
 21
-117.55729482823369
 31
0.0
  0
LINE
  5
1B66
  8
SAPA_MATT
 10
-25.000000000000341
 20
-97.499999999010484
 30
0.0
 11
-25.000000000000341
 21
-117.55729482823369
 31
0.0
  0
LINE
  5
1B67
  8
SAPA_MATT
 10
21.999999999999659
 20
-116.05729482823369
 30
0.0
 11
-22.000000000000341
 21
-116.05729482823369
 31
0.0
  0
SOLID
  5
1B68
  8
SAPA_MATT
 10
21.999999999999659
 20
-115.55729482823369
 30
0.0
 11
21.999999999999659
 21
-116.55729482823369
 31
0.0
 12
24.999999999999659
 22
-116.05729482823369
 32
0.0
 13
24.999999999999659
 23
-116.05729482823369
 33
0.0
  0
SOLID
  5
1B69
  8
SAPA_MATT
 10
-22.000000000000341
 20
-115.55729482823369
 30
0.0
 11
-22.000000000000341
 21
-116.55729482823369
 31
0.0
 12
-25.000000000000341
 22
-116.05729482823369
 32
0.0
 13
-25.000000000000341
 23
-116.05729482823369
 33
0.0
  0
INSERT
  5
1B6A
  8
0
  2
*U140
 10
0.0
 20
0.0
 30
0.0
  0
POINT
  5
1B6B
  8
DEFPOINTS
 62
     0
 10
24.999999999999659
 20
-95.99999999901047
 30
0.0
  0
POINT
  5
1B6C
  8
DEFPOINTS
 62
     0
 10
-25.000000000000341
 20
-95.99999999901047
 30
0.0
  0
POINT
  5
1B6D
  8
DEFPOINTS
 62
     0
 10
-25.000000000000341
 20
-116.05729482823369
 30
0.0
  0
ENDBLK
  5
1B18
  8
0
  0
BLOCK
  8
0
  2
*D126
 70
     1
 10
0.0
 20
0.0
 30
0.0
  3
*D126
  1

  0
LINE
  5
2B81
  8
SAPA_MATT
 10
-25.00000000534493
 20
-97.499999584174077
 30
0.0
 11
-25.00000000534493
 21
-117.0572944133973
 31
0.0
  0
LINE
  5
2B82
  8
SAPA_MATT
 10
-76.000000005344646
 20
-73.000001110757466
 30
0.0
 11
-76.000000005344646
 21
-117.0572944133973
 31
0.0
  0
LINE
  5
2B83
  8
SAPA_MATT
 10
-28.00000000534493
 20
-115.5572944133973
 30
0.0
 11
-73.000000005344646
 21
-115.5572944133973
 31
0.0
  0
SOLID
  5
2B84
  8
SAPA_MATT
 10
-28.00000000534493
 20
-115.0572944133973
 30
0.0
 11
-28.00000000534493
 21
-116.0572944133973
 31
0.0
 12
-25.00000000534493
 22
-115.5572944133973
 32
0.0
 13
-25.00000000534493
 23
-115.5572944133973
 33
0.0
  0
SOLID
  5
2B85
  8
SAPA_MATT
 10
-73.000000005344646
 20
-115.0572944133973
 30
0.0
 11
-73.000000005344646
 21
-116.0572944133973
 31
0.0
 12
-76.000000005344646
 22
-115.5572944133973
 32
0.0
 13
-76.000000005344646
 23
-115.5572944133973
 33
0.0
  0
TEXT
  8
SAPA_MATT
  40
3
  5
2B8E
  62
2
  72
0
  71
0
 10
-56.5000
 20
-118.367
 30
0.000000
  1
51
  7
ISO
  0
POINT
  5
2B87
  8
DEFPOINTS
 62
     0
 10
-25.00000000534493
 20
-95.999999584174077
 30
0.0
  0
POINT
  5
2B88
  8
DEFPOINTS
 62
     0
 10
-76.000000005344646
 20
-71.500001110757466
 30
0.0
  0
POINT
  5
2B89
  8
DEFPOINTS
 62
     0
 10
-76.000000005344646
 20
-115.5572944133973
 30
0.0
  0
ENDBLK
  5
1B24
  8
0
  0
BLOCK
  8
0
  2
*D127
 70
     1
 10
0.0
 20
0.0
 30
0.0
  3
*D127
  1

  0
LINE
  5
2B76
  8
SAPA_MATT
 10
-76.000000005344646
 20
-73.000001110757466
 30
0.0
 11
-76.000000005344646
 21
-117.0572944133973
 31
0.0
  0
LINE
  5
2B77
  8
SAPA_MATT
 10
-81.000000005344646
 20
-72.149999581418655
 30
0.0
 11
-81.000000005344646
 21
-117.0572944133973
 31
0.0
  0
LINE
  5
2B78
  8
SAPA_MATT
 10
-73.000000005344646
 20
-115.5572944133973
 30
0.0
 11
-70.000000005344646
 21
-115.5572944133973
 31
0.0
  0
LINE
  5
2B79
  8
SAPA_MATT
 10
-84.000000005344646
 20
-115.5572944133973
 30
0.0
 11
-87.000000005344646
 21
-115.5572944133973
 31
0.0
  0
LINE
  5
2B7A
  8
SAPA_MATT
 10
-76.000000005344646
 20
-115.5572944133973
 30
0.0
 11
-81.000000005344646
 21
-115.5572944133973
 31
0.0
  0
SOLID
  5
2B7B
  8
SAPA_MATT
 10
-73.000000005344646
 20
-115.0572944133973
 30
0.0
 11
-73.000000005344646
 21
-116.0572944133973
 31
0.0
 12
-76.000000005344646
 22
-115.5572944133973
 32
0.0
 13
-76.000000005344646
 23
-115.5572944133973
 33
0.0
  0
SOLID
  5
2B7C
  8
SAPA_MATT
 10
-84.000000005344646
 20
-115.0572944133973
 30
0.0
 11
-84.000000005344646
 21
-116.0572944133973
 31
0.0
 12
-81.000000005344646
 22
-115.5572944133973
 32
0.0
 13
-81.000000005344646
 23
-115.5572944133973
 33
0.0
  0
TEXT
  8
SAPA_MATT
  40
3
  5
2B8F
  62
2
  72
0
  71
0
 10
-84.5000
 20
-118.367
 30
0.000000
  1
5
  7
ISO
  0
POINT
  5
2B7E
  8
DEFPOINTS
 62
     0
 10
-76.000000005344646
 20
-71.500001110757466
 30
0.0
  0
POINT
  5
2B7F
  8
DEFPOINTS
 62
     0
 10
-81.000000005344646
 20
-70.649999581418655
 30
0.0
  0
POINT
  5
2B80
  8
DEFPOINTS
 62
     0
 10
-81.000000005344646
 20
-115.5572944133973
 30
0.0
  0
ENDBLK
  5
1B30
  8
0
  0
BLOCK
  8
0
  2
*D128
 70
     1
 10
0.0
 20
0.0
 30
0.0
  3
*D128
  1

  0
LINE
  5
2B6D
  8
SAPA_MATT
 10
-80.999976185315063
 20
-72.149999581418655
 30
0.0
 11
-80.999976185315063
 21
-117.0572944133973
 31
0.0
  0
LINE
  5
2B6E
  8
SAPA_MATT
 10
-169.99997618943411
 20
-70.799999613910913
 30
0.0
 11
-169.99997618943411
 21
-117.0572944133973
 31
0.0
  0
LINE
  5
2B6F
  8
SAPA_MATT
 10
-83.999976185315049
 20
-115.5572944133973
 30
0.0
 11
-166.99997618943411
 21
-115.5572944133973
 31
0.0
  0
SOLID
  5
2B70
  8
SAPA_MATT
 10
-83.999976185315049
 20
-115.0572944133973
 30
0.0
 11
-83.999976185315049
 21
-116.0572944133973
 31
0.0
 12
-80.999976185315063
 22
-115.5572944133973
 32
0.0
 13
-80.999976185315063
 23
-115.5572944133973
 33
0.0
  0
SOLID
  5
2B71
  8
SAPA_MATT
 10
-166.99997618943411
 20
-115.0572944133973
 30
0.0
 11
-166.99997618943411
 21
-116.0572944133973
 31
0.0
 12
-169.99997618943411
 22
-115.5572944133973
 32
0.0
 13
-169.99997618943411
 23
-115.5572944133973
 33
0.0
  0
TEXT
  8
SAPA_MATT
  40
3
  5
2B90
  62
2
  72
0
  71
0
 10
-131.500
 20
-118.367
 30
0.000000
  1
89
  7
ISO
  0
POINT
  5
2B73
  8
DEFPOINTS
 62
     0
 10
-80.999976185315063
 20
-70.649999581418655
 30
0.0
  0
POINT
  5
2B74
  8
DEFPOINTS
 62
     0
 10
-169.99997618943411
 20
-69.299999613910927
 30
0.0
  0
POINT
  5
2B75
  8
DEFPOINTS
 62
     0
 10
-169.99997618943411
 20
-115.5572944133973
 30
0.0
  0
ENDBLK
  5
1B3E
  8
0
  0
BLOCK
  8
0
  2
*U129
 70
     1
 10
0.0
 20
0.0
 30
0.0
  3
*U129
  1

  0
TEXT
  5
1BF0
  8
SAPA_ARTIKELNR
 10
-6.4303857324235638
 20
66.451161059970659
 30
0.0
 40
3.5
  1
68654
  7
ISO
  0
ENDBLK
  5
1BF2
  8
0
  0
BLOCK
  8
0
  2
*U130
 70
     1
 10
0.0
 20
0.0
 30
0.0
  3
*U130
  1

  0
TEXT
  5
1BF4
  8
SAPA_ARTIKELNR
 10
-6.4303857324235638
 20
-92.829388404107021
 30
0.0
 40
3.5
  1
42657
  7
ISO
  0
ENDBLK
  5
1BF6
  8
0
  0
BLOCK
  8
0
  2
*U131
 70
     1
 10
0.0
 20
0.0
 30
0.0
  3
*U131
  1

  0
TEXT
  5
1BF8
  8
SAPA_ARTIKELNR
 10
-6.4303857324235638
 20
-101.8951902723834
 30
0.0
 40
3.5
  1
42227
  7
ISO
  0
ENDBLK
  5
1BFA
  8
0
  0
BLOCK
  8
0
  2
*U132
 70
     1
 10
0.0
 20
0.0
 30
0.0
  3
*U132
  1

  0
TEXT
  5
1C12
  8
SAPA_ARTIKELNR
 10
-70.582018273673754
 20
17.882130095469329
 30
0.0
 40
3.5
  1
86423
  7
ISO
  0
ENDBLK
  5
1C14
  8
0
  0
BLOCK
  8
0
  2
*U133
 70
     1
 10
0.0
 20
0.0
 30
0.0
  3
*U133
  1

  0
TEXT
  5
1C16
  8
SAPA_ARTIKELNR
 10
-125.133368062676
 20
17.868540692396259
 30
0.0
 40
3.5
  1
86424
  7
ISO
  0
ENDBLK
  5
1C18
  8
0
  0
BLOCK
  8
0
  2
*U134
 70
     1
 10
0.0
 20
0.0
 30
0.0
  3
*U134
  1

  0
SOLID
  5
1E8A
  8
SAPA_PROFIL
  6
CONTINUOUS
 62
     2
 10
-86.831483686658089
 20
-67.067339616839092
 30
0.0
 11
-87.008260381954742
 21
-67.140562921542454
 31
0.0
 12
-86.654706991361465
 22
-67.140562921542454
 32
0.0
 13
-86.654706991361465
 23
-67.140562921542454
 33
0.0
210
0.0
220
0.0
230
1.0
  0
SOLID
  5
1E8B
  8
SAPA_PROFIL
  6
CONTINUOUS
 62
     2
 10
-87.008260381954742
 20
-67.140562921542454
 30
0.0
 11
-87.081483686658103
 21
-67.317339616839092
 31
0.0
 12
-86.581483686658103
 22
-67.317339616839092
 32
0.0
 13
-86.581483686658103
 23
-67.317339616839092
 33
0.0
210
0.0
220
0.0
230
1.0
  0
SOLID
  5
1E8C
  8
SAPA_PROFIL
  6
CONTINUOUS
 62
     2
 10
87.008260381954742
 20
-67.140562921542454
 30
0.0
 11
86.654706991361465
 21
-67.140562921542454
 31
0.0
 12
86.581483686658103
 22
-67.317339616839092
 32
0.0
 13
86.581483686658103
 23
-67.317339616839092
 33
0.0
210
0.0
220
0.0
230
-1.0
  0
SOLID
  5
1E8D
  8
SAPA_PROFIL
  6
CONTINUOUS
 62
     2
 10
87.008260381954742
 20
-67.494116312135731
 30
0.0
 11
86.654706991361465
 21
-67.494116312135731
 31
0.0
 12
86.831483686658089
 22
-67.567339616839092
 32
0.0
 13
86.831483686658089
 23
-67.567339616839092
 33
0.0
210
0.0
220
0.0
230
-1.0
  0
SOLID
  5
1E8E
  8
SAPA_PROFIL
  6
CONTINUOUS
 62
     2
 10
-87.081483686658103
 20
-67.317339616839092
 30
0.0
 11
-87.008260381954742
 21
-67.494116312135731
 31
0.0
 12
-86.654706991361465
 22
-67.494116312135731
 32
0.0
 13
-86.654706991361465
 23
-67.494116312135731
 33
0.0
210
0.0
220
0.0
230
1.0
  0
SOLID
  5
1E8F
  8
SAPA_PROFIL
  6
CONTINUOUS
 62
     2
 10
87.081483686658103
 20
-67.317339616839092
 30
0.0
 11
86.581483686658103
 21
-67.317339616839092
 31
0.0
 12
86.654706991361465
 22
-67.494116312135731
 32
0.0
 13
86.654706991361465
 23
-67.494116312135731
 33
0.0
210
0.0
220
0.0
230
-1.0
  0
LINE
  5
1E90
  8
SAPA_PROFIL
  6
CONTINUOUS
 62
     2
 10
-86.831483686658089
 20
-67.067339616839092
 30
0.0
 11
-87.008260381954742
 21
-67.140562921542454
 31
0.0
  0
LINE
  5
1E91
  8
SAPA_PROFIL
  6
CONTINUOUS
 62
     2
 10
-86.654706991361465
 20
-67.140562921542454
 30
0.0
 11
-86.831483686658089
 21
-67.067339616839092
 31
0.0
  0
LINE
  5
1E92
  8
SAPA_PROFIL
  6
CONTINUOUS
 62
     2
 10
-87.008260381954742
 20
-67.140562921542454
 30
0.0
 11
-87.081483686658103
 21
-67.317339616839092
 31
0.0
  0
LINE
  5
1E93
  8
SAPA_PROFIL
  6
CONTINUOUS
 62
     2
 10
-86.654706991361465
 20
-67.140562921542454
 30
0.0
 11
-86.581483686658103
 21
-67.317339616839092
 31
0.0
  0
LINE
  5
1E94
  8
SAPA_PROFIL
  6
CONTINUOUS
 62
     2
 10
-86.654706991361465
 20
-67.494116312135731
 30
0.0
 11
-86.831483686658089
 21
-67.567339616839092
 31
0.0
  0
LINE
  5
1E95
  8
SAPA_PROFIL
  6
CONTINUOUS
 62
     2
 10
-86.831483686658089
 20
-67.567339616839092
 30
0.0
 11
-87.008260381954742
 21
-67.494116312135731
 31
0.0
  0
LINE
  5
1E96
  8
SAPA_PROFIL
  6
CONTINUOUS
 62
     2
 10
-87.081483686658103
 20
-67.317339616839092
 30
0.0
 11
-87.008260381954742
 21
-67.494116312135731
 31
0.0
  0
LINE
  5
1E97
  8
SAPA_PROFIL
  6
CONTINUOUS
 62
     2
 10
-86.581483686658103
 20
-67.317339616839092
 30
0.0
 11
-86.654706991361465
 21
-67.494116312135731
 31
0.0
  0
ENDBLK
  5
1E99
  8
0
  0
BLOCK
  8
0
  2
*U135
 70
     1
 10
0.0
 20
0.0
 30
0.0
  3
*U135
  1

  0
SOLID
  5
248F
  8
SAPA_PROFIL
  6
CONTINUOUS
 62
     2
 10
-86.831483686658089
 20
-67.067339616839092
 30
0.0
 11
-87.008260381954742
 21
-67.140562921542454
 31
0.0
 12
-86.654706991361465
 22
-67.140562921542454
 32
0.0
 13
-86.654706991361465
 23
-67.140562921542454
 33
0.0
210
0.0
220
0.0
230
1.0
  0
SOLID
  5
2490
  8
SAPA_PROFIL
  6
CONTINUOUS
 62
     2
 10
-87.008260381954742
 20
-67.140562921542454
 30
0.0
 11
-87.081483686658103
 21
-67.317339616839092
 31
0.0
 12
-86.581483686658103
 22
-67.317339616839092
 32
0.0
 13
-86.581483686658103
 23
-67.317339616839092
 33
0.0
210
0.0
220
0.0
230
1.0
  0
SOLID
  5
2491
  8
SAPA_PROFIL
  6
CONTINUOUS
 62
     2
 10
87.008260381954742
 20
-67.140562921542454
 30
0.0
 11
86.654706991361465
 21
-67.140562921542454
 31
0.0
 12
86.581483686658103
 22
-67.317339616839092
 32
0.0
 13
86.581483686658103
 23
-67.317339616839092
 33
0.0
210
0.0
220
0.0
230
-1.0
  0
SOLID
  5
2492
  8
SAPA_PROFIL
  6
CONTINUOUS
 62
     2
 10
87.008260381954742
 20
-67.494116312135731
 30
0.0
 11
86.654706991361465
 21
-67.494116312135731
 31
0.0
 12
86.831483686658089
 22
-67.567339616839092
 32
0.0
 13
86.831483686658089
 23
-67.567339616839092
 33
0.0
210
0.0
220
0.0
230
-1.0
  0
SOLID
  5
2493
  8
SAPA_PROFIL
  6
CONTINUOUS
 62
     2
 10
-87.081483686658103
 20
-67.317339616839092
 30
0.0
 11
-87.008260381954742
 21
-67.494116312135731
 31
0.0
 12
-86.654706991361465
 22
-67.494116312135731
 32
0.0
 13
-86.654706991361465
 23
-67.494116312135731
 33
0.0
210
0.0
220
0.0
230
1.0
  0
SOLID
  5
2494
  8
SAPA_PROFIL
  6
CONTINUOUS
 62
     2
 10
87.081483686658103
 20
-67.317339616839092
 30
0.0
 11
86.581483686658103
 21
-67.317339616839092
 31
0.0
 12
86.654706991361465
 22
-67.494116312135731
 32
0.0
 13
86.654706991361465
 23
-67.494116312135731
 33
0.0
210
0.0
220
0.0
230
-1.0
  0
LINE
  5
2495
  8
SAPA_PROFIL
  6
CONTINUOUS
 62
     2
 10
-86.831483686658089
 20
-67.067339616839092
 30
0.0
 11
-87.008260381954742
 21
-67.140562921542454
 31
0.0
  0
LINE
  5
2496
  8
SAPA_PROFIL
  6
CONTINUOUS
 62
     2
 10
-86.654706991361465
 20
-67.140562921542454
 30
0.0
 11
-86.831483686658089
 21
-67.067339616839092
 31
0.0
  0
LINE
  5
2497
  8
SAPA_PROFIL
  6
CONTINUOUS
 62
     2
 10
-87.008260381954742
 20
-67.140562921542454
 30
0.0
 11
-87.081483686658103
 21
-67.317339616839092
 31
0.0
  0
LINE
  5
2498
  8
SAPA_PROFIL
  6
CONTINUOUS
 62
     2
 10
-86.654706991361465
 20
-67.140562921542454
 30
0.0
 11
-86.581483686658103
 21
-67.317339616839092
 31
0.0
  0
LINE
  5
2499
  8
SAPA_PROFIL
  6
CONTINUOUS
 62
     2
 10
-86.654706991361465
 20
-67.494116312135731
 30
0.0
 11
-86.831483686658089
 21
-67.567339616839092
 31
0.0
  0
LINE
  5
249A
  8
SAPA_PROFIL
  6
CONTINUOUS
 62
     2
 10
-86.831483686658089
 20
-67.567339616839092
 30
0.0
 11
-87.008260381954742
 21
-67.494116312135731
 31
0.0
  0
LINE
  5
249B
  8
SAPA_PROFIL
  6
CONTINUOUS
 62
     2
 10
-87.081483686658103
 20
-67.317339616839092
 30
0.0
 11
-87.008260381954742
 21
-67.494116312135731
 31
0.0
  0
LINE
  5
249C
  8
SAPA_PROFIL
  6
CONTINUOUS
 62
     2
 10
-86.581483686658103
 20
-67.317339616839092
 30
0.0
 11
-86.654706991361465
 21
-67.494116312135731
 31
0.0
  0
ENDBLK
  5
249E
  8
0
  0
BLOCK
  8
0
  2
*U136
 70
     1
 10
0.0
 20
0.0
 30
0.0
  3
*U136
  1

  0
SOLID
  5
28F8
  8
SAPA_FOGBAND
  6
CONTINUOUS
 10
-18.616845202065178
 20
-74.382616787244473
 30
0.0
 11
-18.797122765838381
 21
-74.457290199150904
 31
0.0
 12
-18.436567638291979
 22
-74.457290199150904
 32
0.0
 13
-18.436567638291979
 23
-74.457290199150904
 33
0.0
210
0.0
220
0.0
230
1.0
  0
SOLID
  5
28F9
  8
SAPA_FOGBAND
  6
CONTINUOUS
 10
-18.797122765838381
 20
-74.457290199150904
 30
0.0
 11
-18.87179617774482
 21
-74.637567762924107
 31
0.0
 12
-18.361894226385541
 22
-74.637567762924107
 32
0.0
 13
-18.361894226385541
 23
-74.637567762924107
 33
0.0
210
0.0
220
0.0
230
1.0
  0
SOLID
  5
28FA
  8
SAPA_FOGBAND
  6
CONTINUOUS
 10
18.797122765838381
 20
-74.457290199150904
 30
0.0
 11
18.436567638291979
 21
-74.457290199150904
 31
0.0
 12
18.361894226385541
 22
-74.637567762924107
 32
0.0
 13
18.361894226385541
 23
-74.637567762924107
 33
0.0
210
0.0
220
0.0
230
-1.0
  0
SOLID
  5
28FB
  8
SAPA_FOGBAND
  6
CONTINUOUS
 10
18.797122765838381
 20
-74.817845326697309
 30
0.0
 11
18.436567638291979
 21
-74.817845326697309
 31
0.0
 12
18.616845202065178
 22
-74.892518738603741
 32
0.0
 13
18.616845202065178
 23
-74.892518738603741
 33
0.0
210
0.0
220
0.0
230
-1.0
  0
SOLID
  5
28FC
  8
SAPA_FOGBAND
  6
CONTINUOUS
 10
-18.87179617774482
 20
-74.637567762924107
 30
0.0
 11
-18.797122765838381
 21
-74.817845326697309
 31
0.0
 12
-18.436567638291979
 22
-74.817845326697309
 32
0.0
 13
-18.436567638291979
 23
-74.817845326697309
 33
0.0
210
0.0
220
0.0
230
1.0
  0
SOLID
  5
28FD
  8
SAPA_FOGBAND
  6
CONTINUOUS
 10
18.87179617774482
 20
-74.637567762924107
 30
0.0
 11
18.361894226385541
 21
-74.637567762924107
 31
0.0
 12
18.436567638291979
 22
-74.817845326697309
 32
0.0
 13
18.436567638291979
 23
-74.817845326697309
 33
0.0
210
0.0
220
0.0
230
-1.0
  0
LINE
  5
28FE
  8
SAPA_FOGBAND
  6
CONTINUOUS
 10
-18.616845202065178
 20
-74.382616787244473
 30
0.0
 11
-18.797122765838381
 21
-74.457290199150904
 31
0.0
  0
LINE
  5
28FF
  8
SAPA_FOGBAND
  6
CONTINUOUS
 10
-18.436567638291979
 20
-74.457290199150904
 30
0.0
 11
-18.616845202065178
 21
-74.382616787244473
 31
0.0
  0
LINE
  5
2900
  8
SAPA_FOGBAND
  6
CONTINUOUS
 10
-18.797122765838381
 20
-74.457290199150904
 30
0.0
 11
-18.87179617774482
 21
-74.637567762924107
 31
0.0
  0
LINE
  5
2901
  8
SAPA_FOGBAND
  6
CONTINUOUS
 10
-18.436567638291979
 20
-74.457290199150904
 30
0.0
 11
-18.361894226385541
 21
-74.637567762924107
 31
0.0
  0
LINE
  5
2902
  8
SAPA_FOGBAND
  6
CONTINUOUS
 10
-18.436567638291979
 20
-74.817845326697309
 30
0.0
 11
-18.616845202065178
 21
-74.892518738603741
 31
0.0
  0
LINE
  5
2903
  8
SAPA_FOGBAND
  6
CONTINUOUS
 10
-18.616845202065178
 20
-74.892518738603741
 30
0.0
 11
-18.797122765838381
 21
-74.817845326697309
 31
0.0
  0
LINE
  5
2904
  8
SAPA_FOGBAND
  6
CONTINUOUS
 10
-18.87179617774482
 20
-74.637567762924107
 30
0.0
 11
-18.797122765838381
 21
-74.817845326697309
 31
0.0
  0
LINE
  5
2905
  8
SAPA_FOGBAND
  6
CONTINUOUS
 10
-18.361894226385541
 20
-74.637567762924107
 30
0.0
 11
-18.436567638291979
 21
-74.817845326697309
 31
0.0
  0
ENDBLK
  5
2907
  8
0
  0
BLOCK
  8
0
  2
*U137
 70
     1
 10
0.0
 20
0.0
 30
0.0
  3
*U137
  1

  0
SOLID
  5
299E
  8
SAPA_FOGBAND
  6
CONTINUOUS
 10
18.629356795612811
 20
-74.773515879680446
 30
0.0
 11
18.449079231839612
 21
-74.848189291586877
 31
0.0
 12
18.809634359385999
 22
-74.848189291586877
 32
0.0
 13
18.809634359385999
 23
-74.848189291586877
 33
0.0
210
0.0
220
0.0
230
1.0
  0
SOLID
  5
299F
  8
SAPA_FOGBAND
  6
CONTINUOUS
 10
18.449079231839612
 20
-74.848189291586877
 30
0.0
 11
18.374405819933159
 21
-75.02846685536008
 31
0.0
 12
18.884307771292448
 22
-75.02846685536008
 32
0.0
 13
18.884307771292448
 23
-75.02846685536008
 33
0.0
210
0.0
220
0.0
230
1.0
  0
SOLID
  5
29A0
  8
SAPA_FOGBAND
  6
CONTINUOUS
 10
-18.449079231839612
 20
-74.848189291586877
 30
0.0
 11
-18.809634359385999
 21
-74.848189291586877
 31
0.0
 12
-18.884307771292448
 22
-75.02846685536008
 32
0.0
 13
-18.884307771292448
 23
-75.02846685536008
 33
0.0
210
0.0
220
0.0
230
-1.0
  0
SOLID
  5
29A1
  8
SAPA_FOGBAND
  6
CONTINUOUS
 10
-18.449079231839612
 20
-75.208744419133282
 30
0.0
 11
-18.809634359385999
 21
-75.208744419133282
 31
0.0
 12
-18.629356795612811
 22
-75.283417831039714
 32
0.0
 13
-18.629356795612811
 23
-75.283417831039714
 33
0.0
210
0.0
220
0.0
230
-1.0
  0
SOLID
  5
29A2
  8
SAPA_FOGBAND
  6
CONTINUOUS
 10
18.374405819933159
 20
-75.02846685536008
 30
0.0
 11
18.449079231839612
 21
-75.208744419133282
 31
0.0
 12
18.809634359385999
 22
-75.208744419133282
 32
0.0
 13
18.809634359385999
 23
-75.208744419133282
 33
0.0
210
0.0
220
0.0
230
1.0
  0
SOLID
  5
29A3
  8
SAPA_FOGBAND
  6
CONTINUOUS
 10
-18.374405819933159
 20
-75.02846685536008
 30
0.0
 11
-18.884307771292448
 21
-75.02846685536008
 31
0.0
 12
-18.809634359385999
 22
-75.208744419133282
 32
0.0
 13
-18.809634359385999
 23
-75.208744419133282
 33
0.0
210
0.0
220
0.0
230
-1.0
  0
LINE
  5
29A4
  8
SAPA_FOGBAND
  6
CONTINUOUS
 10
18.629356795612811
 20
-74.773515879680446
 30
0.0
 11
18.449079231839612
 21
-74.848189291586877
 31
0.0
  0
LINE
  5
29A5
  8
SAPA_FOGBAND
  6
CONTINUOUS
 10
18.809634359385999
 20
-74.848189291586877
 30
0.0
 11
18.629356795612811
 21
-74.773515879680446
 31
0.0
  0
LINE
  5
29A6
  8
SAPA_FOGBAND
  6
CONTINUOUS
 10
18.449079231839612
 20
-74.848189291586877
 30
0.0
 11
18.374405819933159
 21
-75.02846685536008
 31
0.0
  0
LINE
  5
29A7
  8
SAPA_FOGBAND
  6
CONTINUOUS
 10
18.809634359385999
 20
-74.848189291586877
 30
0.0
 11
18.884307771292448
 21
-75.02846685536008
 31
0.0
  0
LINE
  5
29A8
  8
SAPA_FOGBAND
  6
CONTINUOUS
 10
18.809634359385999
 20
-75.208744419133282
 30
0.0
 11
18.629356795612811
 21
-75.283417831039714
 31
0.0
  0
LINE
  5
29A9
  8
SAPA_FOGBAND
  6
CONTINUOUS
 10
18.629356795612811
 20
-75.283417831039714
 30
0.0
 11
18.449079231839612
 21
-75.208744419133282
 31
0.0
  0
LINE
  5
29AA
  8
SAPA_FOGBAND
  6
CONTINUOUS
 10
18.374405819933159
 20
-75.02846685536008
 30
0.0
 11
18.449079231839612
 21
-75.208744419133282
 31
0.0
  0
LINE
  5
29AB
  8
SAPA_FOGBAND
  6
CONTINUOUS
 10
18.884307771292448
 20
-75.02846685536008
 30
0.0
 11
18.809634359385999
 21
-75.208744419133282
 31
0.0
  0
ENDBLK
  5
29AD
  8
0
  0
BLOCK
  8
0
  2
*U138
 70
     1
 10
0.0
 20
0.0
 30
0.0
  3
*U138
  1

  0
SOLID
  5
2A33
  8
SAPA_FOGBAND
  6
CONTINUOUS
 10
-18.616845202065178
 20
-74.382616787244473
 30
0.0
 11
-18.797122765838381
 21
-74.457290199150904
 31
0.0
 12
-18.436567638291979
 22
-74.457290199150904
 32
0.0
 13
-18.436567638291979
 23
-74.457290199150904
 33
0.0
210
0.0
220
0.0
230
1.0
  0
SOLID
  5
2A34
  8
SAPA_FOGBAND
  6
CONTINUOUS
 10
-18.797122765838381
 20
-74.457290199150904
 30
0.0
 11
-18.87179617774482
 21
-74.637567762924107
 31
0.0
 12
-18.361894226385541
 22
-74.637567762924107
 32
0.0
 13
-18.361894226385541
 23
-74.637567762924107
 33
0.0
210
0.0
220
0.0
230
1.0
  0
SOLID
  5
2A35
  8
SAPA_FOGBAND
  6
CONTINUOUS
 10
18.797122765838381
 20
-74.457290199150904
 30
0.0
 11
18.436567638291979
 21
-74.457290199150904
 31
0.0
 12
18.361894226385541
 22
-74.637567762924107
 32
0.0
 13
18.361894226385541
 23
-74.637567762924107
 33
0.0
210
0.0
220
0.0
230
-1.0
  0
SOLID
  5
2A36
  8
SAPA_FOGBAND
  6
CONTINUOUS
 10
18.797122765838381
 20
-74.817845326697309
 30
0.0
 11
18.436567638291979
 21
-74.817845326697309
 31
0.0
 12
18.616845202065178
 22
-74.892518738603741
 32
0.0
 13
18.616845202065178
 23
-74.892518738603741
 33
0.0
210
0.0
220
0.0
230
-1.0
  0
SOLID
  5
2A37
  8
SAPA_FOGBAND
  6
CONTINUOUS
 10
-18.87179617774482
 20
-74.637567762924107
 30
0.0
 11
-18.797122765838381
 21
-74.817845326697309
 31
0.0
 12
-18.436567638291979
 22
-74.817845326697309
 32
0.0
 13
-18.436567638291979
 23
-74.817845326697309
 33
0.0
210
0.0
220
0.0
230
1.0
  0
SOLID
  5
2A38
  8
SAPA_FOGBAND
  6
CONTINUOUS
 10
18.87179617774482
 20
-74.637567762924107
 30
0.0
 11
18.361894226385541
 21
-74.637567762924107
 31
0.0
 12
18.436567638291979
 22
-74.817845326697309
 32
0.0
 13
18.436567638291979
 23
-74.817845326697309
 33
0.0
210
0.0
220
0.0
230
-1.0
  0
LINE
  5
2A39
  8
SAPA_FOGBAND
  6
CONTINUOUS
 10
-18.616845202065178
 20
-74.382616787244473
 30
0.0
 11
-18.797122765838381
 21
-74.457290199150904
 31
0.0
  0
LINE
  5
2A3A
  8
SAPA_FOGBAND
  6
CONTINUOUS
 10
-18.436567638291979
 20
-74.457290199150904
 30
0.0
 11
-18.616845202065178
 21
-74.382616787244473
 31
0.0
  0
LINE
  5
2A3B
  8
SAPA_FOGBAND
  6
CONTINUOUS
 10
-18.797122765838381
 20
-74.457290199150904
 30
0.0
 11
-18.87179617774482
 21
-74.637567762924107
 31
0.0
  0
LINE
  5
2A3C
  8
SAPA_FOGBAND
  6
CONTINUOUS
 10
-18.436567638291979
 20
-74.457290199150904
 30
0.0
 11
-18.361894226385541
 21
-74.637567762924107
 31
0.0
  0
LINE
  5
2A3D
  8
SAPA_FOGBAND
  6
CONTINUOUS
 10
-18.436567638291979
 20
-74.817845326697309
 30
0.0
 11
-18.616845202065178
 21
-74.892518738603741
 31
0.0
  0
LINE
  5
2A3E
  8
SAPA_FOGBAND
  6
CONTINUOUS
 10
-18.616845202065178
 20
-74.892518738603741
 30
0.0
 11
-18.797122765838381
 21
-74.817845326697309
 31
0.0
  0
LINE
  5
2A3F
  8
SAPA_FOGBAND
  6
CONTINUOUS
 10
-18.87179617774482
 20
-74.637567762924107
 30
0.0
 11
-18.797122765838381
 21
-74.817845326697309
 31
0.0
  0
LINE
  5
2A40
  8
SAPA_FOGBAND
  6
CONTINUOUS
 10
-18.361894226385541
 20
-74.637567762924107
 30
0.0
 11
-18.436567638291979
 21
-74.817845326697309
 31
0.0
  0
ENDBLK
  5
2A42
  8
0
  0
BLOCK
  8
0
  2
*U139
 70
     1
 10
0.0
 20
0.0
 30
0.0
  3
*U139
  1

  0
SOLID
  5
2AD9
  8
SAPA_FOGBAND
  6
CONTINUOUS
 10
18.629356795612811
 20
-74.773515879680446
 30
0.0
 11
18.449079231839612
 21
-74.848189291586877
 31
0.0
 12
18.809634359385999
 22
-74.848189291586877
 32
0.0
 13
18.809634359385999
 23
-74.848189291586877
 33
0.0
210
0.0
220
0.0
230
1.0
  0
SOLID
  5
2ADA
  8
SAPA_FOGBAND
  6
CONTINUOUS
 10
18.449079231839612
 20
-74.848189291586877
 30
0.0
 11
18.374405819933159
 21
-75.02846685536008
 31
0.0
 12
18.884307771292448
 22
-75.02846685536008
 32
0.0
 13
18.884307771292448
 23
-75.02846685536008
 33
0.0
210
0.0
220
0.0
230
1.0
  0
SOLID
  5
2ADB
  8
SAPA_FOGBAND
  6
CONTINUOUS
 10
-18.449079231839612
 20
-74.848189291586877
 30
0.0
 11
-18.809634359385999
 21
-74.848189291586877
 31
0.0
 12
-18.884307771292448
 22
-75.02846685536008
 32
0.0
 13
-18.884307771292448
 23
-75.02846685536008
 33
0.0
210
0.0
220
0.0
230
-1.0
  0
SOLID
  5
2ADC
  8
SAPA_FOGBAND
  6
CONTINUOUS
 10
-18.449079231839612
 20
-75.208744419133282
 30
0.0
 11
-18.809634359385999
 21
-75.208744419133282
 31
0.0
 12
-18.629356795612811
 22
-75.283417831039714
 32
0.0
 13
-18.629356795612811
 23
-75.283417831039714
 33
0.0
210
0.0
220
0.0
230
-1.0
  0
SOLID
  5
2ADD
  8
SAPA_FOGBAND
  6
CONTINUOUS
 10
18.374405819933159
 20
-75.02846685536008
 30
0.0
 11
18.449079231839612
 21
-75.208744419133282
 31
0.0
 12
18.809634359385999
 22
-75.208744419133282
 32
0.0
 13
18.809634359385999
 23
-75.208744419133282
 33
0.0
210
0.0
220
0.0
230
1.0
  0
SOLID
  5
2ADE
  8
SAPA_FOGBAND
  6
CONTINUOUS
 10
-18.374405819933159
 20
-75.02846685536008
 30
0.0
 11
-18.884307771292448
 21
-75.02846685536008
 31
0.0
 12
-18.809634359385999
 22
-75.208744419133282
 32
0.0
 13
-18.809634359385999
 23
-75.208744419133282
 33
0.0
210
0.0
220
0.0
230
-1.0
  0
LINE
  5
2ADF
  8
SAPA_FOGBAND
  6
CONTINUOUS
 10
18.629356795612811
 20
-74.773515879680446
 30
0.0
 11
18.449079231839612
 21
-74.848189291586877
 31
0.0
  0
LINE
  5
2AE0
  8
SAPA_FOGBAND
  6
CONTINUOUS
 10
18.809634359385999
 20
-74.848189291586877
 30
0.0
 11
18.629356795612811
 21
-74.773515879680446
 31
0.0
  0
LINE
  5
2AE1
  8
SAPA_FOGBAND
  6
CONTINUOUS
 10
18.449079231839612
 20
-74.848189291586877
 30
0.0
 11
18.374405819933159
 21
-75.02846685536008
 31
0.0
  0
LINE
  5
2AE2
  8
SAPA_FOGBAND
  6
CONTINUOUS
 10
18.809634359385999
 20
-74.848189291586877
 30
0.0
 11
18.884307771292448
 21
-75.02846685536008
 31
0.0
  0
LINE
  5
2AE3
  8
SAPA_FOGBAND
  6
CONTINUOUS
 10
18.809634359385999
 20
-75.208744419133282
 30
0.0
 11
18.629356795612811
 21
-75.283417831039714
 31
0.0
  0
LINE
  5
2AE4
  8
SAPA_FOGBAND
  6
CONTINUOUS
 10
18.629356795612811
 20
-75.283417831039714
 30
0.0
 11
18.449079231839612
 21
-75.208744419133282
 31
0.0
  0
LINE
  5
2AE5
  8
SAPA_FOGBAND
  6
CONTINUOUS
 10
18.374405819933159
 20
-75.02846685536008
 30
0.0
 11
18.449079231839612
 21
-75.208744419133282
 31
0.0
  0
LINE
  5
2AE6
  8
SAPA_FOGBAND
  6
CONTINUOUS
 10
18.884307771292448
 20
-75.02846685536008
 30
0.0
 11
18.809634359385999
 21
-75.208744419133282
 31
0.0
  0
ENDBLK
  5
2AE8
  8
0
  0
BLOCK
  8
0
  2
*U140
 70
     1
 10
0.0
 20
0.0
 30
0.0
  3
*U140
  1

  0
TEXT
  5
2B8B
  8
SAPA_MATT
 62
     2
 10
-2.1000000000003398
 20
-115.05729482823369
 30
0.0
 40
3.0
  1
50
  7
ISO
  0
ENDBLK
  5
2B8D
  8
0
  0
ENDSEC
  0
SECTION
  2
ENTITIES
  0
POLYLINE
  5
8AB
  8
SAPA_LIGHT
 66
     1
 10
0.0
 20
0.0
 30
0.0
 70
     1
  0
VERTEX
  5
1BC8
  8
SAPA_LIGHT
 10
24.999999999999829
 20
-45.499999999010299
 30
0.0
  0
VERTEX
  5
1BC9
  8
SAPA_LIGHT
 10
25.000000000000231
 20
64.499999999998863
 30
0.0
  0
VERTEX
  5
1BCA
  8
SAPA_LIGHT
 10
-24.999999999999769
 20
64.499999999998863
 30
0.0
  0
VERTEX
  5
1BCB
  8
SAPA_LIGHT
 10
-24.999999999999769
 20
-49.000000031211577
 30
0.0
  0
VERTEX
  5
1BCC
  8
SAPA_LIGHT
 10
-4.99999999999977
 20
-49.000000031211577
 30
0.0
  0
VERTEX
  5
1BCD
  8
SAPA_LIGHT
 10
-4.9999999999995541
 20
-73.500000115261173
 30
0.0
  0
VERTEX
  5
1BCE
  8
SAPA_LIGHT
 10
-25.000000000000341
 20
-73.500000095118935
 30
0.0
  0
VERTEX
  5
1BCF
  8
SAPA_LIGHT
 10
-25.000000000000341
 20
-96.499999999010583
 30
0.0
  0
VERTEX
  5
1BD0
  8
SAPA_LIGHT
 10
24.999999999999659
 20
-96.499999999010583
 30
0.0
  0
VERTEX
  5
1BD1
  8
SAPA_LIGHT
 10
24.999999999999751
 20
-72.499999999011948
 30
0.0
  0
VERTEX
  5
1BD2
  8
SAPA_LIGHT
 10
5.0000000000001981
 20
-72.499999999011948
 30
0.0
  0
VERTEX
  5
1BD3
  8
SAPA_LIGHT
 10
5.0000000000002274
 20
-45.499999999010299
 30
0.0
  0
SEQEND
  5
1BD4
  8
SAPA_LIGHT
  0
POLYLINE
  5
8AC
  8
SAPA_LIGHT
 66
     1
 10
0.0
 20
0.0
 30
0.0
  0
VERTEX
  5
1BD5
  8
SAPA_LIGHT
 10
41.000000747072242
 20
-72.499999999011891
 30
0.0
  0
VERTEX
  5
1BD6
  8
SAPA_LIGHT
 10
11.000000747072249
 20
-72.499999999011891
 30
0.0
  0
VERTEX
  5
1BD7
  8
SAPA_LIGHT
 10
11.000000747072249
 20
-45.499999999010299
 30
0.0
  0
VERTEX
  5
1BD8
  8
SAPA_LIGHT
 10
41.000000747072242
 20
-45.499999999010299
 30
0.0
  0
SEQEND
  5
1BD9
  8
SAPA_LIGHT
  0
POLYLINE
  5
8B5
  8
SAPA_LIGHT
 66
     1
 10
0.0
 20
0.0
 30
0.0
  0
VERTEX
  5
1BDA
  8
SAPA_LIGHT
 10
-183.00002381608951
 20
-64.550000065849048
 30
0.0
  0
VERTEX
  5
1BDB
  8
SAPA_LIGHT
 10
-153.0000238160894
 20
-64.550000065849048
 30
0.0
  0
VERTEX
  5
1BDC
  8
SAPA_LIGHT
 10
-153.0000238160894
 20
-37.55000006584747
 30
0.0
  0
VERTEX
  5
1BDD
  8
SAPA_LIGHT
 10
-183.00002381608951
 20
-37.55000006584747
 30
0.0
  0
SEQEND
  5
1BDE
  8
SAPA_LIGHT
  0
POLYLINE
  5
8B9
  8
SAPA_LIGHT
 66
     1
 10
0.0
 20
0.0
 30
0.0
  0
VERTEX
  5
1BDF
  8
SAPA_LIGHT
 10
-89.500000000000014
 20
-73.499999988812419
 30
0.0
  0
VERTEX
  5
1BE0
  8
SAPA_LIGHT
 10
-8.9999999998945555
 20
-73.499999988812419
 30
0.0
  0
VERTEX
  5
1BE1
  8
SAPA_LIGHT
 10
-8.9999999998945555
 20
-49.000000031211577
 30
0.0
  0
VERTEX
  5
1BE2
  8
SAPA_LIGHT
 10
-24.999999999999769
 20
-49.000000031211577
 30
0.0
  0
VERTEX
  5
1BE3
  8
SAPA_LIGHT
 10
-24.99999999999978
 20
0.5000000104934657
 30
0.0
  0
VERTEX
  5
1BE4
  8
SAPA_LIGHT
 10
-89.500000197971303
 20
0.4999998379373665
 30
0.0
  0
SEQEND
  5
1BE5
  8
SAPA_LIGHT
  0
POLYLINE
  5
8C4
  8
SAPA_LIGHT
 66
     1
 10
0.0
 20
0.0
 30
0.0
 70
     1
  0
VERTEX
  5
1BE6
  8
SAPA_LIGHT
 10
-153.00002381608959
 20
-64.550000065849062
 30
0.0
  0
VERTEX
  5
1BE7
  8
SAPA_LIGHT
 10
-169.9999999999672
 20
-64.55000006584747
 30
0.0
  0
VERTEX
  5
1BE8
  8
SAPA_LIGHT
 10
-169.9999999999672
 20
-73.49999998726814
 30
0.0
  0
VERTEX
  5
1BE9
  8
SAPA_LIGHT
 10
-89.500023816089481
 20
-73.499999988812405
 30
0.0
  0
VERTEX
  5
1BEA
  8
SAPA_LIGHT
 10
-89.500024014060784
 20
0.4999999922746526
 30
0.0
  0
VERTEX
  5
1BEB
  8
SAPA_LIGHT
 10
-169.9999999999672
 20
0.500000008904479
 30
0.0
  0
VERTEX
  5
1BEC
  8
SAPA_LIGHT
 10
-169.9999999999672
 20
-37.55000006584747
 30
0.0
  0
VERTEX
  5
1BED
  8
SAPA_LIGHT
 10
-153.0000238160894
 20
-37.55000006584747
 30
0.0
  0
SEQEND
  5
1BEE
  8
SAPA_LIGHT
  0
INSERT
  5
8E1
  8
0
  2
*U129
 10
0.0
 20
0.0
 30
0.0
  0
INSERT
  5
8E2
  8
0
  2
*U130
 10
0.0
 20
0.0
 30
0.0
  0
INSERT
  5
8E3
  8
0
  2
*U131
 10
0.0
 20
0.0
 30
0.0
  0
INSERT
  5
FCE
  8
0
  2
*U132
 10
0.0
 20
0.0
 30
0.0
  0
INSERT
  5
FCF
  8
0
  2
*U133
 10
0.0
 20
0.0
 30
0.0
  0
INSERT
  5
17FB
  8
BYGG-027036$0$KON
 66
     1
  2
BYGG-027036$0$RH
 10
-559.98359050052318
 20
-386.93657275802502
 30
0.0
 50
180.0
  0
ATTRIB
  5
17FC
  8
BYGG-027036$0$KON
 10
-563.18359050052322
 20
-392.23657275802498
 30
0.0
 40
0.4
  1
GGFJ
 50
180.0
  7
BYGG-027036$0$SIMPLEX
  2
SÄLJARE
 70
     1
  0
ATTRIB
  5
17FD
  8
BYGG-027036$0$KON
 10
-563.58359050052297
 20
-388.836572758025
 30
0.0
 40
0.3
  1

 50
180.0
  7
BYGG-027036$0$SIMPLEX
 72
     4
 11
-563.58359050052297
 21
-388.836572758025
 31
0.0
  2
DATUM
 70
     0
  0
ATTRIB
  5
17FE
  8
BYGG-027036$0$KON
 10
-563.38359050052304
 20
-387.83657275802489
 30
0.0
 40
0.4
  1

 50
180.0
  7
BYGG-027036$0$SIMPLEX
 72
     4
 11
-563.38359050052304
 21
-387.83657275802489
 31
0.0
  2
RITAD:
 70
     1
  0
ATTRIB
  5
17FF
  8
BYGG-027036$0$KON
 10
-570.98359050052306
 20
-389.23657275802498
 30
0.0
 40
0.4400000000000001
  1

 50
180.0
  7
BYGG-027036$0$SIMPLEX
 72
     4
 11
-570.98359050052306
 21
-389.23657275802498
 31
0.0
  2
BENÄMNING
 70
     0
  0
ATTRIB
  5
1800
  8
BYGG-027036$0$KON
 10
-570.98359050052306
 20
-388.43657275802502
 30
0.0
 40
0.4400000000000001
  1

 50
180.0
  7
BYGG-027036$0$SIMPLEX
 72
     4
 11
-570.98359050052306
 21
-388.43657275802502
 31
0.0
  2
GUMMI-HÅRDHET-FÄRG
 70
     0
  0
ATTRIB
  5
1801
  8
BYGG-027036$0$KON
 10
-570.98359050052306
 20
-387.63657275802501
 30
0.0
 40
0.4400000000000001
  1

 50
180.0
  7
BYGG-027036$0$SIMPLEX
 72
     4
 11
-570.98359050052306
 21
-387.63657275802501
 31
0.0
  2
KUND
 70
     0
  0
ATTRIB
  5
1802
  8
BYGG-027036$0$KON
 10
-578.78359050052313
 20
-388.93657275802502
 30
0.0
 40
0.4
  1

 50
180.0
  7
BYGG-027036$0$SIMPLEX
 72
     4
 11
-578.78359050052313
 21
-388.93657275802502
 31
0.0
  2
SKALA:
 70
     1
  0
ATTRIB
  5
1803
  8
BYGG-027036$0$KON
 10
-578.38359050052304
 20
-387.73657275802498
 30
0.0
 40
0.4
  1

 50
180.0
  7
BYGG-027036$0$SIMPLEX
 72
     4
 11
-578.38359050052304
 21
-387.73657275802498
 31
0.0
  2
RIT.NR:
 70
     0
  0
ATTRIB
  5
1804
  8
BYGG-027036$0$KON
 10
-578.38359050052304
 20
-390.13657275802501
 30
0.0
 40
0.4
  1

 50
180.0
  7
BYGG-027036$0$SIMPLEX
 72
     4
 11
-578.38359050052304
 21
-390.13657275802501
 31
0.0
  2
DET.NR:
 70
     0
  0
SEQEND
  5
1805
  8
BYGG-027036$0$KON
  0
INSERT
  5
1806
  8
BYGG-027036$0$KON
 66
     1
  2
BYGG-027036$0$RH
 10
-559.98359050052318
 20
-386.93657275802502
 30
0.0
 50
180.0
  0
ATTRIB
  5
1807
  8
BYGG-027036$0$KON
 10
-570.98359050052306
 20
-389.23657275802498
 30
0.0
 40
0.4400000000000001
  1

 50
180.0
  7
BYGG-027036$0$SIMPLEX
 72
     4
 11
-570.98359050052306
 21
-389.23657275802498
 31
0.0
  2
BENÄMNING
 70
     0
  0
ATTRIB
  5
1808
  8
BYGG-027036$0$KON
 10
-570.98359050052306
 20
-388.43657275802502
 30
0.0
 40
0.4400000000000001
  1

 50
180.0
  7
BYGG-027036$0$SIMPLEX
 72
     4
 11
-570.98359050052306
 21
-388.43657275802502
 31
0.0
  2
GUMMI-HÅRDHET-FÄRG
 70
     0
  0
ATTRIB
  5
1809
  8
BYGG-027036$0$KON
 10
-570.98359050052306
 20
-387.63657275802501
 30
0.0
 40
0.4400000000000001
  1

 50
180.0
  7
BYGG-027036$0$SIMPLEX
 72
     4
 11
-570.98359050052306
 21
-387.63657275802501
 31
0.0
  2
KUND
 70
     0
  0
ATTRIB
  5
180A
  8
BYGG-027036$0$KON
 10
-578.38359050052304
 20
-387.73657275802498
 30
0.0
 40
0.4
  1

 50
180.0
  7
BYGG-027036$0$SIMPLEX
 72
     4
 11
-578.38359050052304
 21
-387.73657275802498
 31
0.0
  2
RIT.NR:
 70
     0
  0
ATTRIB
  5
180B
  8
BYGG-027036$0$KON
 10
-578.38359050052304
 20
-390.13657275802501
 30
0.0
 40
0.4
  1

 50
180.0
  7
BYGG-027036$0$SIMPLEX
 72
     4
 11
-578.38359050052304
 21
-390.13657275802501
 31
0.0
  2
DET.NR:
 70
     0
  0
ATTRIB
  5
180C
  8
BYGG-027036$0$KON
 10
-578.78359050052313
 20
-388.93657275802502
 30
0.0
 40
0.4
  1

 50
180.0
  7
BYGG-027036$0$SIMPLEX
 72
     4
 11
-578.78359050052313
 21
-388.93657275802502
 31
0.0
  2
SKALA:
 70
     1
  0
ATTRIB
  5
180D
  8
BYGG-027036$0$KON
 10
-563.58359050052297
 20
-388.836572758025
 30
0.0
 40
0.3
  1

 50
180.0
  7
BYGG-027036$0$SIMPLEX
 72
     4
 11
-563.58359050052297
 21
-388.836572758025
 31
0.0
  2
DATUM
 70
     0
  0
ATTRIB
  5
180E
  8
BYGG-027036$0$KON
 10
-563.38359050052304
 20
-387.83657275802489
 30
0.0
 40
0.4
  1

 50
180.0
  7
BYGG-027036$0$SIMPLEX
 72
     4
 11
-563.38359050052304
 21
-387.83657275802489
 31
0.0
  2
RITAD:
 70
     1
  0
ATTRIB
  5
180F
  8
BYGG-027036$0$KON
 10
-563.18359050052322
 20
-392.23657275802498
 30
0.0
 40
0.4
  1

 50
180.0
  7
BYGG-027036$0$SIMPLEX
  2
SÄLJARE
 70
     1
  0
SEQEND
  5
1810
  8
BYGG-027036$0$KON
  0
INSERT
  5
1811
  8
BYGG-027036$0$DIM
 66
     1
  2
BYGG-027036$0$RH
 10
-559.98359050052318
 20
-386.93657275802502
 30
0.0
 50
180.0
  0
ATTRIB
  5
1812
  8
BYGG-027036$0$KON
 10
-570.98359050052306
 20
-389.23657275802498
 30
0.0
 40
0.4400000000000001
  1

 50
180.0
  7
BYGG-027036$0$SIMPLEX
 72
     4
 11
-570.98359050052306
 21
-389.23657275802498
 31
0.0
  2
BENÄMNING
 70
     0
  0
ATTRIB
  5
1813
  8
BYGG-027036$0$KON
 10
-570.98359050052306
 20
-388.43657275802502
 30
0.0
 40
0.4400000000000001
  1

 50
180.0
  7
BYGG-027036$0$SIMPLEX
 72
     4
 11
-570.98359050052306
 21
-388.43657275802502
 31
0.0
  2
GUMMI-HÅRDHET-FÄRG
 70
     0
  0
ATTRIB
  5
1814
  8
BYGG-027036$0$KON
 10
-570.98359050052306
 20
-387.63657275802501
 30
0.0
 40
0.4400000000000001
  1

 50
180.0
  7
BYGG-027036$0$SIMPLEX
 72
     4
 11
-570.98359050052306
 21
-387.63657275802501
 31
0.0
  2
KUND
 70
     0
  0
ATTRIB
  5
1815
  8
BYGG-027036$0$KON
 10
-578.38359050052304
 20
-387.73657275802498
 30
0.0
 40
0.4
  1

 50
180.0
  7
BYGG-027036$0$SIMPLEX
 72
     4
 11
-578.38359050052304
 21
-387.73657275802498
 31
0.0
  2
RIT.NR:
 70
     0
  0
ATTRIB
  5
1816
  8
BYGG-027036$0$KON
 10
-578.38359050052304
 20
-390.13657275802501
 30
0.0
 40
0.4
  1

 50
180.0
  7
BYGG-027036$0$SIMPLEX
 72
     4
 11
-578.38359050052304
 21
-390.13657275802501
 31
0.0
  2
DET.NR:
 70
     0
  0
ATTRIB
  5
1817
  8
BYGG-027036$0$KON
 10
-578.78359050052313
 20
-388.93657275802502
 30
0.0
 40
0.4
  1

 50
180.0
  7
BYGG-027036$0$SIMPLEX
 72
     4
 11
-578.78359050052313
 21
-388.93657275802502
 31
0.0
  2
SKALA:
 70
     1
  0
ATTRIB
  5
1818
  8
BYGG-027036$0$KON
 10
-563.58359050052297
 20
-388.836572758025
 30
0.0
 40
0.3
  1

 50
180.0
  7
BYGG-027036$0$SIMPLEX
 72
     4
 11
-563.58359050052297
 21
-388.836572758025
 31
0.0
  2
DATUM
 70
     0
  0
ATTRIB
  5
1819
  8
BYGG-027036$0$KON
 10
-563.38359050052304
 20
-387.83657275802489
 30
0.0
 40
0.4
  1

 50
180.0
  7
BYGG-027036$0$SIMPLEX
 72
     4
 11
-563.38359050052304
 21
-387.83657275802489
 31
0.0
  2
RITAD:
 70
     1
  0
ATTRIB
  5
181A
  8
BYGG-027036$0$KON
 10
-563.18359050052322
 20
-392.23657275802498
 30
0.0
 40
0.4
  1

 50
180.0
  7
BYGG-027036$0$SIMPLEX
  2
SÄLJARE
 70
     1
  0
SEQEND
  5
181B
  8
BYGG-027036$0$DIM
  0
CIRCLE
  5
1A17
  8
SAPA_PROFIL
 62
     2
 10
-166.66794100296849
 20
-69.358006076706317
 30
-0.1
 40
0.8999999999999985
  0
POLYLINE
  5
1A18
  8
SAPA_PROFIL
 62
     2
 66
     1
 10
0.0
 20
0.0
 30
-0.1
  0
VERTEX
  5
2266
  8
SAPA_PROFIL
 62
     2
 10
-168.06794100296861
 20
-68.049999665133313
 30
-0.1
  0
VERTEX
  5
2267
  8
SAPA_PROFIL
 62
     2
 10
-167.87558258297611
 20
-69.140918475286071
 30
-0.1
  0
VERTEX
  5
2268
  8
SAPA_PROFIL
 62
     2
 10
-168.30737914287769
 20
-69.256618014806065
 30
-0.1
 42
0.4430158954262519
  0
VERTEX
  5
2269
  8
SAPA_PROFIL
 62
     2
 10
-168.44285619042179
 20
-69.520094442913035
 30
-0.1
  0
VERTEX
  5
226A
  8
SAPA_PROFIL
 62
     2
 10
-167.96590799720269
 20
-70.790582190831174
 30
-0.1
 42
0.3125358528825162
  0
VERTEX
  5
226B
  8
SAPA_PROFIL
 62
     2
 10
-167.59142628407329
 20
-71.049999665132873
 30
-0.1
  0
VERTEX
  5
226C
  8
SAPA_PROFIL
 62
     2
 10
-165.721270968163
 20
-71.049999665133214
 30
-0.1
 42
0.3125358528825104
  0
VERTEX
  5
226D
  8
SAPA_PROFIL
 62
     2
 10
-165.3467892550336
 20
-70.790582190831003
 30
-0.1
  0
VERTEX
  5
226E
  8
SAPA_PROFIL
 62
     2
 10
-164.8698410618145
 20
-69.520094442912807
 30
-0.1
 42
0.4430158954262519
  0
VERTEX
  5
226F
  8
SAPA_PROFIL
 62
     2
 10
-165.0053181093586
 20
-69.256618014805952
 30
-0.1
  0
VERTEX
  5
2270
  8
SAPA_PROFIL
 62
     2
 10
-165.4371146692605
 20
-69.140918475285901
 30
-0.1
  0
VERTEX
  5
2271
  8
SAPA_PROFIL
 62
     2
 10
-165.24484862611831
 20
-68.049999665133157
 30
-0.1
  0
SEQEND
  5
2272
  8
SAPA_PROFIL
 62
     2
  0
POLYLINE
  5
1A19
  8
SAPA_PROFIL
 62
     2
 66
     1
 10
0.0
 20
0.0
 30
-0.1
 70
     1
  0
VERTEX
  5
2273
  8
SAPA_PROFIL
 62
     2
 10
-168.05634862611831
 20
-68.049999665133313
 30
-0.1
 42
-0.285714285714282
  0
VERTEX
  5
2274
  8
SAPA_PROFIL
 62
     2
 10
-165.2563486261183
 20
-68.049999665133157
 30
-0.1
  0
VERTEX
  5
2275
  8
SAPA_PROFIL
 62
     2
 10
-163.18256845673039
 20
-68.049999665132589
 30
-0.1
 42
0.3882600129940275
  0
VERTEX
  5
2276
  8
SAPA_PROFIL
 62
     2
 10
-162.88376695938899
 20
-67.776788938852974
 30
-0.1
  0
VERTEX
  5
2277
  8
SAPA_PROFIL
 62
     2
 10
-162.41755703546281
 20
-63.876788938852883
 30
-0.1
 42
0.4406523138893894
  0
VERTEX
  5
2278
  8
SAPA_PROFIL
 62
     2
 10
-162.71635853280461
 20
-63.549999665132987
 30
-0.1
  0
VERTEX
  5
2279
  8
SAPA_PROFIL
 62
     2
 10
-164.42615052972491
 20
-63.5499996651331
 30
-0.1
 42
0.3394542588634375
  0
VERTEX
  5
227A
  8
SAPA_PROFIL
 62
     2
 10
-164.71592827761151
 20
-63.772353951602099
 30
-0.1
  0
VERTEX
  5
227B
  8
SAPA_PROFIL
 62
     2
 10
-164.91830800554291
 20
-63.989939733769738
 30
-0.1
 42
-0.3394542588633663
  0
VERTEX
  5
227C
  8
SAPA_PROFIL
 62
     2
 10
-165.20808575342971
 20
-64.212294020238744
 30
-0.1
  0
VERTEX
  5
227D
  8
SAPA_PROFIL
 62
     2
 10
-168.1046114988076
 20
-64.212294020238915
 30
-0.1
 42
-0.3394542588634373
  0
VERTEX
  5
227E
  8
SAPA_PROFIL
 62
     2
 10
-168.39438924669409
 20
-63.989939733769972
 30
-0.1
  0
VERTEX
  5
227F
  8
SAPA_PROFIL
 62
     2
 10
-168.59676897462549
 20
-63.772353951602383
 30
-0.1
 42
0.3394542588633662
  0
VERTEX
  5
2280
  8
SAPA_PROFIL
 62
     2
 10
-168.88654672251229
 20
-63.549999665133377
 30
-0.1
  0
VERTEX
  5
2281
  8
SAPA_PROFIL
 62
     2
 10
-170.5963387194324
 20
-63.549999665133498
 30
-0.1
 42
0.4406523138893994
  0
VERTEX
  5
2282
  8
SAPA_PROFIL
 62
     2
 10
-170.895140216774
 20
-63.876788938853451
 30
-0.1
  0
VERTEX
  5
2283
  8
SAPA_PROFIL
 62
     2
 10
-170.4289302928475
 20
-67.776788938853485
 30
-0.1
 42
0.3882600129940462
  0
VERTEX
  5
2284
  8
SAPA_PROFIL
 62
     2
 10
-170.1301287955061
 20
-68.049999665133484
 30
-0.1
  0
VERTEX
  5
2285
  8
SAPA_PROFIL
 62
     2
 10
-168.06794100296861
 20
-68.049999665133313
 30
-0.1
  0
SEQEND
  5
2286
  8
SAPA_PROFIL
 62
     2
  0
POLYLINE
  5
1A1A
  8
SAPA_PROFIL
  6
CONTINUOUS
 66
     1
 10
0.0
 20
0.0
 30
-0.1
 70
     1
  0
VERTEX
  5
2287
  8
SAPA_PROFIL
  6
CONTINUOUS
 10
-165.58308907283441
 20
10.107797437055551
 30
-0.1
  0
VERTEX
  5
2288
  8
SAPA_PROFIL
  6
CONTINUOUS
 10
-150.44455361622721
 20
10.52736092644755
 30
-0.1
 42
-0.2061234514950211
  0
VERTEX
  5
2289
  8
SAPA_PROFIL
  6
CONTINUOUS
 10
-150.07714807836589
 20
10.3811062358578
 30
-0.1
  0
VERTEX
  5
228A
  8
SAPA_PROFIL
  6
CONTINUOUS
 10
-148.1464227986331
 20
8.4503809561246754
 30
-0.1
 42
0.1989123673797024
  0
VERTEX
  5
228B
  8
SAPA_PROFIL
  6
CONTINUOUS
 10
-147.79286940803979
 20
8.3039343467178526
 30
-0.1
  0
VERTEX
  5
228C
  8
SAPA_PROFIL
  6
CONTINUOUS
 10
-143.61209136817479
 20
8.3039343467178526
 30
-0.1
 42
0.6681786379193032
  0
VERTEX
  5
228D
  8
SAPA_PROFIL
  6
CONTINUOUS
 10
-143.43531467287821
 20
8.7307110420144909
 30
-0.1
  0
VERTEX
  5
228E
  8
SAPA_PROFIL
  6
CONTINUOUS
 10
-144.42251371209991
 20
9.7179100812361696
 30
-0.1
 42
0.4584832902918763
  0
VERTEX
  5
228F
  8
SAPA_PROFIL
  6
CONTINUOUS
 10
-145.93371252681479
 20
9.6053081373877944
 30
-0.1
 42
-0.2378770156285958
  0
VERTEX
  5
2290
  8
SAPA_PROFIL
  6
CONTINUOUS
 10
-146.13473553519731
 20
9.5039343467205981
 30
-0.1
  0
VERTEX
  5
2291
  8
SAPA_PROFIL
  6
CONTINUOUS
 10
-147.29581313319159
 20
9.503934346718367
 30
-0.1
 42
-0.1989123673801665
  0
VERTEX
  5
2292
  8
SAPA_PROFIL
  6
CONTINUOUS
 10
-147.6493665237858
 20
9.6503809561250762
 30
-0.1
  0
VERTEX
  5
2293
  8
SAPA_PROFIL
  6
CONTINUOUS
 10
-147.9999761892264
 20
10.00099062156553
 30
-0.1
  0
VERTEX
  5
2294
  8
SAPA_PROFIL
  6
CONTINUOUS
 10
-148.42678378177229
 20
10.42794744915747
 30
-0.1
 42
-0.1988669396406054
  0
VERTEX
  5
2295
  8
SAPA_PROFIL
  6
CONTINUOUS
 10
-148.4999761892264
 20
10.60469324180357
 30
-0.1
  0
VERTEX
  5
2296
  8
SAPA_PROFIL
  6
CONTINUOUS
 10
-148.4999761892264
 20
10.751166448640531
 30
-0.1
 42
-0.4142135623733282
  0
VERTEX
  5
2297
  8
SAPA_PROFIL
  6
CONTINUOUS
 10
-148.2499771892262
 20
11.001165448640529
 30
-0.1
  0
VERTEX
  5
2298
  8
SAPA_PROFIL
  6
CONTINUOUS
 10
-148.2499761892266
 20
11.001165448640529
 30
-0.1
 42
0.4142135623732616
  0
VERTEX
  5
2299
  8
SAPA_PROFIL
  6
CONTINUOUS
 10
-147.9999761892264
 20
11.25116544864048
 30
-0.1
  0
VERTEX
  5
229A
  8
SAPA_PROFIL
  6
CONTINUOUS
 10
-147.9999761892264
 20
11.75006525507442
 30
-0.1
 42
0.4209003450991805
  0
VERTEX
  5
229B
  8
SAPA_PROFIL
  6
CONTINUOUS
 10
-148.2556696999462
 20
12.00000041453734
 30
-0.1
 42
-0.0067990255081984
  0
VERTEX
  5
229C
  8
SAPA_PROFIL
  6
CONTINUOUS
 10
-169.4977663609337
 20
11.80503135512876
 30
-0.1
 42
0.4155086472897409
  0
VERTEX
  5
229D
  8
SAPA_PROFIL
  6
CONTINUOUS
 10
-169.99997618923979
 20
11.30503623849361
 30
-0.1
  0
VERTEX
  5
229E
  8
SAPA_PROFIL
  6
CONTINUOUS
 10
-169.9999761892264
 20
-26.394620989493038
 30
-0.1
 42
0.4142135623716549
  0
VERTEX
  5
229F
  8
SAPA_PROFIL
  6
CONTINUOUS
 10
-169.69997618922639
 20
-26.69462098949435
 30
-0.1
  0
VERTEX
  5
22A0
  8
SAPA_PROFIL
  6
CONTINUOUS
 10
-168.49997618924101
 20
-26.69462098949413
 30
-0.1
 42
0.4142135623732907
  0
VERTEX
  5
22A1
  8
SAPA_PROFIL
  6
CONTINUOUS
 10
-168.199976189241
 20
-26.394620989493941
 30
-0.1
  0
VERTEX
  5
22A2
  8
SAPA_PROFIL
  6
CONTINUOUS
 10
-168.1999761892418
 20
-25.194620989494521
 30
-0.1
 42
-0.4142135623732116
  0
VERTEX
  5
22A3
  8
SAPA_PROFIL
  6
CONTINUOUS
 10
-167.69997618924191
 20
-24.694620989494329
 30
-0.1
  0
VERTEX
  5
22A4
  8
SAPA_PROFIL
  6
CONTINUOUS
 10
-158.79997618922769
 20
-24.694620989494329
 30
-0.1
 42
0.4142135623733198
  0
VERTEX
  5
22A5
  8
SAPA_PROFIL
  6
CONTINUOUS
 10
-158.49997618922771
 20
-24.39462098949415
 30
-0.1
  0
VERTEX
  5
22A6
  8
SAPA_PROFIL
  6
CONTINUOUS
 10
-158.49997618922791
 20
-23.69462098949413
 30
-0.1
 42
0.4142135623728995
  0
VERTEX
  5
22A7
  8
SAPA_PROFIL
  6
CONTINUOUS
 10
-158.799976189228
 20
-23.39462098949431
 30
-0.1
  0
VERTEX
  5
22A8
  8
SAPA_PROFIL
  6
CONTINUOUS
 10
-167.99997618923121
 20
-23.394620989494431
 30
-0.1
 42
-0.4142135623716508
  0
VERTEX
  5
22A9
  8
SAPA_PROFIL
  6
CONTINUOUS
 10
-168.4999761892264
 20
-22.89462098949441
 30
-0.1
  0
VERTEX
  5
22AA
  8
SAPA_PROFIL
  6
CONTINUOUS
 10
-168.4999761892264
 20
-5.4960656532795431
 30
-0.1
 42
-0.41421356237163
  0
VERTEX
  5
22AB
  8
SAPA_PROFIL
  6
CONTINUOUS
 10
-167.9999761892264
 20
-4.9960656532820451
 30
-0.1
  0
VERTEX
  5
22AC
  8
SAPA_PROFIL
  6
CONTINUOUS
 10
-146.08580326986191
 20
-4.9960656532820451
 30
-0.1
 42
-0.4663076581592616
  0
VERTEX
  5
22AD
  8
SAPA_PROFIL
  6
CONTINUOUS
 10
-145.79036094395829
 20
-5.3481601065820419
 30
-0.1
  0
VERTEX
  5
22AE
  8
SAPA_PROFIL
  6
CONTINUOUS
 10
-145.89541851512979
 20
-5.9439711999807221
 30
-0.1
 42
0.7332303362587812
  0
VERTEX
  5
22AF
  8
SAPA_PROFIL
  6
CONTINUOUS
 10
-145.38784415487041
 20
-6.2081976876381608
 30
-0.1
  0
VERTEX
  5
22B0
  8
SAPA_PROFIL
  6
CONTINUOUS
 10
-143.38784415487299
 20
-4.2081976876406477
 30
-0.1
 42
0.6681786379237062
  0
VERTEX
  5
22B1
  8
SAPA_PROFIL
  6
CONTINUOUS
 10
-143.5999761892264
 20
-3.6960656532821612
 30
-0.1
  0
VERTEX
  5
22B2
  8
SAPA_PROFIL
  6
CONTINUOUS
 10
-167.9999761892264
 20
-3.696065653282147
 30
-0.1
 42
-0.4142135623716217
  0
VERTEX
  5
22B3
  8
SAPA_PROFIL
  6
CONTINUOUS
 10
-168.4999761892264
 20
-3.1960656532796459
 30
-0.1
  0
VERTEX
  5
22B4
  8
SAPA_PROFIL
  6
CONTINUOUS
 10
-168.4999761892264
 20
7.108948949956158
 30
-0.1
 42
-0.40612121347231
  0
SEQEND
  5
22B5
  8
SAPA_PROFIL
  6
CONTINUOUS
  0
POLYLINE
  5
1A1B
  8
SAPA_PROFIL
 62
     2
 10
-165.89997618924141
 20
-30.344621002806459
 30
-0.1
 66
     1
 70
     8
  0
VERTEX
  8
SAPA_PROFIL
  5
2B91
 10
-165.900
 20
-30.3446
 30
-0.100000
  70
    32
  0
VERTEX
  8
SAPA_PROFIL
  5
2B92
 10
-165.896
 20
-30.4428
 30
-0.100000
  70
    32
  0
VERTEX
  8
SAPA_PROFIL
  5
2B93
 10
-165.883
 20
-30.5407
 30
-0.100000
  70
    32
  0
VERTEX
  8
SAPA_PROFIL
  5
2B94
 10
-165.862
 20
-30.6381
 30
-0.100000
  70
    32
  0
VERTEX
  8
SAPA_PROFIL
  5
2B95
 10
-165.833
 20
-30.7348
 30
-0.100000
  70
    32
  0
VERTEX
  8
SAPA_PROFIL
  5
2B96
 10
-165.795
 20
-30.8306
 30
-0.100000
  70
    32
  0
VERTEX
  8
SAPA_PROFIL
  5
2B97
 10
-165.749
 20
-30.9252
 30
-0.100000
  70
    32
  0
VERTEX
  8
SAPA_PROFIL
  5
2B98
 10
-165.695
 20
-31.0184
 30
-0.100000
  70
    32
  0
VERTEX
  8
SAPA_PROFIL
  5
2B99
 10
-165.634
 20
-31.1100
 30
-0.100000
  70
    32
  0
VERTEX
  8
SAPA_PROFIL
  5
2B9A
 10
-165.564
 20
-31.1997
 30
-0.100000
  70
    32
  0
VERTEX
  8
SAPA_PROFIL
  5
2B9B
 10
-165.487
 20
-31.2874
 30
-0.100000
  70
    32
  0
VERTEX
  8
SAPA_PROFIL
  5
2B9C
 10
-165.402
 20
-31.3728
 30
-0.100000
  70
    32
  0
VERTEX
  8
SAPA_PROFIL
  5
2B9D
 10
-165.310
 20
-31.4558
 30
-0.100000
  70
    32
  0
VERTEX
  8
SAPA_PROFIL
  5
2B9E
 10
-165.211
 20
-31.5360
 30
-0.100000
  70
    32
  0
VERTEX
  8
SAPA_PROFIL
  5
2B9F
 10
-165.106
 20
-31.6134
 30
-0.100000
  70
    32
  0
VERTEX
  8
SAPA_PROFIL
  5
2BA0
 10
-164.993
 20
-31.6877
 30
-0.100000
  70
    32
  0
VERTEX
  8
SAPA_PROFIL
  5
2BA1
 10
-164.875
 20
-31.7588
 30
-0.100000
  70
    32
  0
VERTEX
  8
SAPA_PROFIL
  5
2BA2
 10
-164.750
 20
-31.8265
 30
-0.100000
  70
    32
  0
VERTEX
  8
SAPA_PROFIL
  5
2BA3
 10
-164.620
 20
-31.8906
 30
-0.100000
  70
    32
  0
VERTEX
  8
SAPA_PROFIL
  5
2BA4
 10
-164.485
 20
-31.9510
 30
-0.100000
  70
    32
  0
VERTEX
  8
SAPA_PROFIL
  5
2BA5
 10
-164.344
 20
-32.0076
 30
-0.100000
  70
    32
  0
VERTEX
  8
SAPA_PROFIL
  5
2BA6
 10
-164.199
 20
-32.0601
 30
-0.100000
  70
    32
  0
VERTEX
  8
SAPA_PROFIL
  5
2BA7
 10
-164.050
 20
-32.1085
 30
-0.100000
  70
    32
  0
VERTEX
  8
SAPA_PROFIL
  5
2BA8
 10
-163.896
 20
-32.1526
 30
-0.100000
  70
    32
  0
VERTEX
  8
SAPA_PROFIL
  5
2BA9
 10
-163.739
 20
-32.1924
 30
-0.100000
  70
    32
  0
VERTEX
  8
SAPA_PROFIL
  5
2BAA
 10
-163.579
 20
-32.2277
 30
-0.100000
  70
    32
  0
VERTEX
  8
SAPA_PROFIL
  5
2BAB
 10
-163.416
 20
-32.2585
 30
-0.100000
  70
    32
  0
VERTEX
  8
SAPA_PROFIL
  5
2BAC
 10
-163.250
 20
-32.2847
 30
-0.100000
  70
    32
  0
VERTEX
  8
SAPA_PROFIL
  5
2BAD
 10
-163.083
 20
-32.3062
 30
-0.100000
  70
    32
  0
VERTEX
  8
SAPA_PROFIL
  5
2BAE
 10
-162.914
 20
-32.3230
 30
-0.100000
  70
    32
  0
VERTEX
  8
SAPA_PROFIL
  5
2BAF
 10
-162.743
 20
-32.3350
 30
-0.100000
  70
    32
  0
VERTEX
  8
SAPA_PROFIL
  5
2BB0
 10
-162.572
 20
-32.3422
 30
-0.100000
  70
    32
  0
VERTEX
  8
SAPA_PROFIL
  5
2BB1
 10
-162.400
 20
-32.3446
 30
-0.100000
  70
    32
  0
VERTEX
  8
SAPA_PROFIL
  5
2BB2
 10
-162.228
 20
-32.3422
 30
-0.100000
  70
    32
  0
VERTEX
  8
SAPA_PROFIL
  5
2BB3
 10
-162.057
 20
-32.3350
 30
-0.100000
  70
    32
  0
VERTEX
  8
SAPA_PROFIL
  5
2BB4
 10
-161.886
 20
-32.3230
 30
-0.100000
  70
    32
  0
VERTEX
  8
SAPA_PROFIL
  5
2BB5
 10
-161.717
 20
-32.3062
 30
-0.100000
  70
    32
  0
VERTEX
  8
SAPA_PROFIL
  5
2BB6
 10
-161.550
 20
-32.2847
 30
-0.100000
  70
    32
  0
VERTEX
  8
SAPA_PROFIL
  5
2BB7
 10
-161.384
 20
-32.2585
 30
-0.100000
  70
    32
  0
VERTEX
  8
SAPA_PROFIL
  5
2BB8
 10
-161.221
 20
-32.2277
 30
-0.100000
  70
    32
  0
VERTEX
  8
SAPA_PROFIL
  5
2BB9
 10
-161.061
 20
-32.1924
 30
-0.100000
  70
    32
  0
VERTEX
  8
SAPA_PROFIL
  5
2BBA
 10
-160.904
 20
-32.1526
 30
-0.100000
  70
    32
  0
VERTEX
  8
SAPA_PROFIL
  5
2BBB
 10
-160.750
 20
-32.1085
 30
-0.100000
  70
    32
  0
VERTEX
  8
SAPA_PROFIL
  5
2BBC
 10
-160.601
 20
-32.0601
 30
-0.100000
  70
    32
  0
VERTEX
  8
SAPA_PROFIL
  5
2BBD
 10
-160.455
 20
-32.0076
 30
-0.100000
  70
    32
  0
VERTEX
  8
SAPA_PROFIL
  5
2BBE
 10
-160.315
 20
-31.9510
 30
-0.100000
  70
    32
  0
VERTEX
  8
SAPA_PROFIL
  5
2BBF
 10
-160.180
 20
-31.8906
 30
-0.100000
  70
    32
  0
VERTEX
  8
SAPA_PROFIL
  5
2BC0
 10
-160.050
 20
-31.8265
 30
-0.100000
  70
    32
  0
VERTEX
  8
SAPA_PROFIL
  5
2BC1
 10
-159.925
 20
-31.7588
 30
-0.100000
  70
    32
  0
VERTEX
  8
SAPA_PROFIL
  5
2BC2
 10
-159.807
 20
-31.6877
 30
-0.100000
  70
    32
  0
VERTEX
  8
SAPA_PROFIL
  5
2BC3
 10
-159.694
 20
-31.6134
 30
-0.100000
  70
    32
  0
VERTEX
  8
SAPA_PROFIL
  5
2BC4
 10
-159.589
 20
-31.5360
 30
-0.100000
  70
    32
  0
VERTEX
  8
SAPA_PROFIL
  5
2BC5
 10
-159.490
 20
-31.4558
 30
-0.100000
  70
    32
  0
VERTEX
  8
SAPA_PROFIL
  5
2BC6
 10
-159.398
 20
-31.3728
 30
-0.100000
  70
    32
  0
VERTEX
  8
SAPA_PROFIL
  5
2BC7
 10
-159.313
 20
-31.2874
 30
-0.100000
  70
    32
  0
VERTEX
  8
SAPA_PROFIL
  5
2BC8
 10
-159.236
 20
-31.1997
 30
-0.100000
  70
    32
  0
VERTEX
  8
SAPA_PROFIL
  5
2BC9
 10
-159.166
 20
-31.1100
 30
-0.100000
  70
    32
  0
VERTEX
  8
SAPA_PROFIL
  5
2BCA
 10
-159.105
 20
-31.0184
 30
-0.100000
  70
    32
  0
VERTEX
  8
SAPA_PROFIL
  5
2BCB
 10
-159.051
 20
-30.9252
 30
-0.100000
  70
    32
  0
VERTEX
  8
SAPA_PROFIL
  5
2BCC
 10
-159.005
 20
-30.8306
 30
-0.100000
  70
    32
  0
VERTEX
  8
SAPA_PROFIL
  5
2BCD
 10
-158.967
 20
-30.7348
 30
-0.100000
  70
    32
  0
VERTEX
  8
SAPA_PROFIL
  5
2BCE
 10
-158.938
 20
-30.6381
 30
-0.100000
  70
    32
  0
VERTEX
  8
SAPA_PROFIL
  5
2BCF
 10
-158.917
 20
-30.5407
 30
-0.100000
  70
    32
  0
VERTEX
  8
SAPA_PROFIL
  5
2BD0
 10
-158.904
 20
-30.4428
 30
-0.100000
  70
    32
  0
VERTEX
  8
SAPA_PROFIL
  5
2BD1
 10
-158.900
 20
-30.3446
 30
-0.100000
  70
    32
  0
VERTEX
  8
SAPA_PROFIL
  5
2BD2
 10
-158.904
 20
-30.2465
 30
-0.100000
  70
    32
  0
VERTEX
  8
SAPA_PROFIL
  5
2BD3
 10
-158.917
 20
-30.1486
 30
-0.100000
  70
    32
  0
VERTEX
  8
SAPA_PROFIL
  5
2BD4
 10
-158.938
 20
-30.0512
 30
-0.100000
  70
    32
  0
VERTEX
  8
SAPA_PROFIL
  5
2BD5
 10
-158.967
 20
-29.9544
 30
-0.100000
  70
    32
  0
VERTEX
  8
SAPA_PROFIL
  5
2BD6
 10
-159.005
 20
-29.8587
 30
-0.100000
  70
    32
  0
VERTEX
  8
SAPA_PROFIL
  5
2BD7
 10
-159.051
 20
-29.7641
 30
-0.100000
  70
    32
  0
VERTEX
  8
SAPA_PROFIL
  5
2BD8
 10
-159.105
 20
-29.6708
 30
-0.100000
  70
    32
  0
VERTEX
  8
SAPA_PROFIL
  5
2BD9
 10
-159.166
 20
-29.5793
 30
-0.100000
  70
    32
  0
VERTEX
  8
SAPA_PROFIL
  5
2BDA
 10
-159.236
 20
-29.4895
 30
-0.100000
  70
    32
  0
VERTEX
  8
SAPA_PROFIL
  5
2BDB
 10
-159.313
 20
-29.4018
 30
-0.100000
  70
    32
  0
VERTEX
  8
SAPA_PROFIL
  5
2BDC
 10
-159.398
 20
-29.3164
 30
-0.100000
  70
    32
  0
VERTEX
  8
SAPA_PROFIL
  5
2BDD
 10
-159.490
 20
-29.2335
 30
-0.100000
  70
    32
  0
VERTEX
  8
SAPA_PROFIL
  5
2BDE
 10
-159.589
 20
-29.1532
 30
-0.100000
  70
    32
  0
VERTEX
  8
SAPA_PROFIL
  5
2BDF
 10
-159.694
 20
-29.0758
 30
-0.100000
  70
    32
  0
VERTEX
  8
SAPA_PROFIL
  5
2BE0
 10
-159.807
 20
-29.0015
 30
-0.100000
  70
    32
  0
VERTEX
  8
SAPA_PROFIL
  5
2BE1
 10
-159.925
 20
-28.9304
 30
-0.100000
  70
    32
  0
VERTEX
  8
SAPA_PROFIL
  5
2BE2
 10
-160.050
 20
-28.8627
 30
-0.100000
  70
    32
  0
VERTEX
  8
SAPA_PROFIL
  5
2BE3
 10
-160.180
 20
-28.7986
 30
-0.100000
  70
    32
  0
VERTEX
  8
SAPA_PROFIL
  5
2BE4
 10
-160.315
 20
-28.7382
 30
-0.100000
  70
    32
  0
VERTEX
  8
SAPA_PROFIL
  5
2BE5
 10
-160.455
 20
-28.6817
 30
-0.100000
  70
    32
  0
VERTEX
  8
SAPA_PROFIL
  5
2BE6
 10
-160.601
 20
-28.6292
 30
-0.100000
  70
    32
  0
VERTEX
  8
SAPA_PROFIL
  5
2BE7
 10
-160.750
 20
-28.5808
 30
-0.100000
  70
    32
  0
VERTEX
  8
SAPA_PROFIL
  5
2BE8
 10
-160.904
 20
-28.5366
 30
-0.100000
  70
    32
  0
VERTEX
  8
SAPA_PROFIL
  5
2BE9
 10
-161.061
 20
-28.4969
 30
-0.100000
  70
    32
  0
VERTEX
  8
SAPA_PROFIL
  5
2BEA
 10
-161.221
 20
-28.4615
 30
-0.100000
  70
    32
  0
VERTEX
  8
SAPA_PROFIL
  5
2BEB
 10
-161.384
 20
-28.4307
 30
-0.100000
  70
    32
  0
VERTEX
  8
SAPA_PROFIL
  5
2BEC
 10
-161.550
 20
-28.4046
 30
-0.100000
  70
    32
  0
VERTEX
  8
SAPA_PROFIL
  5
2BED
 10
-161.717
 20
-28.3831
 30
-0.100000
  70
    32
  0
VERTEX
  8
SAPA_PROFIL
  5
2BEE
 10
-161.886
 20
-28.3663
 30
-0.100000
  70
    32
  0
VERTEX
  8
SAPA_PROFIL
  5
2BEF
 10
-162.057
 20
-28.3543
 30
-0.100000
  70
    32
  0
VERTEX
  8
SAPA_PROFIL
  5
2BF0
 10
-162.228
 20
-28.3470
 30
-0.100000
  70
    32
  0
VERTEX
  8
SAPA_PROFIL
  5
2BF1
 10
-162.400
 20
-28.3446
 30
-0.100000
  70
    32
  0
VERTEX
  8
SAPA_PROFIL
  5
2BF2
 10
-162.572
 20
-28.3470
 30
-0.100000
  70
    32
  0
VERTEX
  8
SAPA_PROFIL
  5
2BF3
 10
-162.743
 20
-28.3543
 30
-0.100000
  70
    32
  0
VERTEX
  8
SAPA_PROFIL
  5
2BF4
 10
-162.914
 20
-28.3663
 30
-0.100000
  70
    32
  0
VERTEX
  8
SAPA_PROFIL
  5
2BF5
 10
-163.083
 20
-28.3831
 30
-0.100000
  70
    32
  0
VERTEX
  8
SAPA_PROFIL
  5
2BF6
 10
-163.250
 20
-28.4046
 30
-0.100000
  70
    32
  0
VERTEX
  8
SAPA_PROFIL
  5
2BF7
 10
-163.416
 20
-28.4307
 30
-0.100000
  70
    32
  0
VERTEX
  8
SAPA_PROFIL
  5
2BF8
 10
-163.579
 20
-28.4615
 30
-0.100000
  70
    32
  0
VERTEX
  8
SAPA_PROFIL
  5
2BF9
 10
-163.739
 20
-28.4969
 30
-0.100000
  70
    32
  0
VERTEX
  8
SAPA_PROFIL
  5
2BFA
 10
-163.896
 20
-28.5366
 30
-0.100000
  70
    32
  0
VERTEX
  8
SAPA_PROFIL
  5
2BFB
 10
-164.050
 20
-28.5808
 30
-0.100000
  70
    32
  0
VERTEX
  8
SAPA_PROFIL
  5
2BFC
 10
-164.199
 20
-28.6292
 30
-0.100000
  70
    32
  0
VERTEX
  8
SAPA_PROFIL
  5
2BFD
 10
-164.344
 20
-28.6817
 30
-0.100000
  70
    32
  0
VERTEX
  8
SAPA_PROFIL
  5
2BFE
 10
-164.485
 20
-28.7382
 30
-0.100000
  70
    32
  0
VERTEX
  8
SAPA_PROFIL
  5
2BFF
 10
-164.620
 20
-28.7986
 30
-0.100000
  70
    32
  0
VERTEX
  8
SAPA_PROFIL
  5
2C00
 10
-164.750
 20
-28.8627
 30
-0.100000
  70
    32
  0
VERTEX
  8
SAPA_PROFIL
  5
2C01
 10
-164.875
 20
-28.9304
 30
-0.100000
  70
    32
  0
VERTEX
  8
SAPA_PROFIL
  5
2C02
 10
-164.993
 20
-29.0015
 30
-0.100000
  70
    32
  0
VERTEX
  8
SAPA_PROFIL
  5
2C03
 10
-165.106
 20
-29.0758
 30
-0.100000
  70
    32
  0
VERTEX
  8
SAPA_PROFIL
  5
2C04
 10
-165.211
 20
-29.1532
 30
-0.100000
  70
    32
  0
VERTEX
  8
SAPA_PROFIL
  5
2C05
 10
-165.310
 20
-29.2335
 30
-0.100000
  70
    32
  0
VERTEX
  8
SAPA_PROFIL
  5
2C06
 10
-165.402
 20
-29.3164
 30
-0.100000
  70
    32
  0
VERTEX
  8
SAPA_PROFIL
  5
2C07
 10
-165.487
 20
-29.4018
 30
-0.100000
  70
    32
  0
VERTEX
  8
SAPA_PROFIL
  5
2C08
 10
-165.564
 20
-29.4895
 30
-0.100000
  70
    32
  0
VERTEX
  8
SAPA_PROFIL
  5
2C09
 10
-165.634
 20
-29.5793
 30
-0.100000
  70
    32
  0
VERTEX
  8
SAPA_PROFIL
  5
2C0A
 10
-165.695
 20
-29.6708
 30
-0.100000
  70
    32
  0
VERTEX
  8
SAPA_PROFIL
  5
2C0B
 10
-165.749
 20
-29.7641
 30
-0.100000
  70
    32
  0
VERTEX
  8
SAPA_PROFIL
  5
2C0C
 10
-165.795
 20
-29.8587
 30
-0.100000
  70
    32
  0
VERTEX
  8
SAPA_PROFIL
  5
2C0D
 10
-165.833
 20
-29.9544
 30
-0.100000
  70
    32
  0
VERTEX
  8
SAPA_PROFIL
  5
2C0E
 10
-165.862
 20
-30.0512
 30
-0.100000
  70
    32
  0
VERTEX
  8
SAPA_PROFIL
  5
2C0F
 10
-165.883
 20
-30.1486
 30
-0.100000
  70
    32
  0
VERTEX
  8
SAPA_PROFIL
  5
2C10
 10
-165.896
 20
-30.2465
 30
-0.100000
  70
    32
  0
VERTEX
  8
SAPA_PROFIL
  5
2C11
 10
-165.900
 20
-30.3446
 30
-0.100000
  70
    32
  0
SEQEND
  8
SAPA_PROFIL
  5
2C12
  0
POLYLINE
  5
1A1C
  8
SAPA_PROFIL
 62
     2
 66
     1
 10
0.0
 20
0.0
 30
-0.1
 70
     1
  0
VERTEX
  5
22B6
  8
SAPA_PROFIL
 62
     2
 10
-157.58119542561531
 20
-24.694620989493949
 30
-0.1
  0
VERTEX
  5
22B7
  8
SAPA_PROFIL
 62
     2
 10
-167.8999761892413
 20
-24.694620989493949
 30
-0.1
 42
0.4142135623730951
  0
VERTEX
  5
22B8
  8
SAPA_PROFIL
 62
     2
 10
-168.19997618924131
 20
-24.99462098949396
 30
-0.1
  0
VERTEX
  5
22B9
  8
SAPA_PROFIL
 62
     2
 10
-168.19997618924131
 20
-26.694620989493949
 30
-0.1
  0
VERTEX
  5
22BA
  8
SAPA_PROFIL
 62
     2
 10
-170.01367628116159
 20
-26.694620989493949
 30
-0.1
 42
0.4005932428724212
  0
VERTEX
  5
22BB
  8
SAPA_PROFIL
 62
     2
 10
-170.31334884888159
 20
-26.98060841813469
 30
-0.1
  0
VERTEX
  5
22BC
  8
SAPA_PROFIL
 62
     2
 10
-170.79964875696129
 20
-36.180608418134703
 30
-0.1
 42
0.427966335106886
  0
VERTEX
  5
22BD
  8
SAPA_PROFIL
 62
     2
 10
-170.49997618924129
 20
-36.494620989493953
 30
-0.1
  0
VERTEX
  5
22BE
  8
SAPA_PROFIL
 62
     2
 10
-156.8195115399426
 20
-36.494620989493953
 30
-0.1
 42
0.0195279011117891
  0
VERTEX
  5
22BF
  8
SAPA_PROFIL
 62
     2
 10
-156.78050038982931
 20
-36.493096796496502
 30
-0.1
  0
VERTEX
  5
22C0
  8
SAPA_PROFIL
 62
     2
 10
-148.77195388901481
 20
-35.666775765997969
 30
-0.1
 42
0.3915187749346392
  0
VERTEX
  5
22C1
  8
SAPA_PROFIL
 62
     2
 10
-147.84997618924129
 20
-34.669824151992877
 30
-0.1
  0
VERTEX
  5
22C2
  8
SAPA_PROFIL
 62
     2
 10
-147.84997618924129
 20
-32.375127534829673
 30
-0.1
 42
0.2613472755167645
  0
VERTEX
  5
22C3
  8
SAPA_PROFIL
 62
     2
 10
-148.08936703471699
 20
-31.948415842257059
 30
-0.1
  0
VERTEX
  5
22C4
  8
SAPA_PROFIL
 62
     2
 10
-157.0599771165669
 20
-24.841197604348739
 30
-0.1
 42
0.1379343940649207
  0
SEQEND
  5
22C5
  8
SAPA_PROFIL
 62
     2
  0
POLYLINE
  5
1A1D
  8
SAPA_PROFIL
 66
     1
 10
0.0
 20
0.0
 30
-0.1
 70
     1
  0
VERTEX
  5
22C6
  8
SAPA_PROFIL
 10
-97.544985436156637
 20
-8.4999995842563258
 30
-0.1
  0
VERTEX
  5
22C7
  8
SAPA_PROFIL
 10
-101.3977718406568
 20
-8.4999995842563258
 30
-0.1
 42
0.4142135623731784
  0
VERTEX
  5
22C8
  8
SAPA_PROFIL
 10
-101.697771840657
 20
-8.7999995842563941
 30
-0.1
  0
VERTEX
  5
22C9
  8
SAPA_PROFIL
 10
-101.6977718406568
 20
-9.0999995842567465
 30
-0.1
  0
VERTEX
  5
22CA
  8
SAPA_PROFIL
 10
-100.7740114099534
 20
-10.69999958425637
 30
-0.1
 42
-0.5773502691887984
  0
VERTEX
  5
22CB
  8
SAPA_PROFIL
 10
-100.9472164907104
 20
-10.999999584256321
 30
-0.1
  0
VERTEX
  5
22CC
  8
SAPA_PROFIL
 10
-102.3328571367654
 20
-10.999999584256321
 30
-0.1
 42
-0.2679491924311038
  0
VERTEX
  5
22CD
  8
SAPA_PROFIL
 10
-103.1988825405498
 20
-10.499999584256489
 30
-0.1
  0
VERTEX
  5
22CE
  8
SAPA_PROFIL
 10
-104.209245510123
 20
-8.7499995868695315
 30
-0.1
 42
0.2679491932396976
  0
VERTEX
  5
22CF
  8
SAPA_PROFIL
 10
-104.6422582135242
 20
-8.4999995868695031
 30
-0.1
  0
VERTEX
  5
22D0
  8
SAPA_PROFIL
 10
-137.28036094695531
 20
-8.4999995868694675
 30
-0.1
  0
VERTEX
  5
22D1
  8
SAPA_PROFIL
 10
-137.7999761892259
 20
-8.1999995868694704
 30
-0.1
  0
VERTEX
  5
22D2
  8
SAPA_PROFIL
 10
-138.3195914314966
 20
-8.4999995868694675
 30
-0.1
  0
VERTEX
  5
22D3
  8
SAPA_PROFIL
 10
-138.6576941649279
 20
-8.4999995868694675
 30
-0.1
 42
0.2679491916226445
  0
VERTEX
  5
22D4
  8
SAPA_PROFIL
 10
-139.0907068668202
 20
-8.7499995842563756
 30
-0.1
  0
VERTEX
  5
22D5
  8
SAPA_PROFIL
 10
-140.10106983790209
 20
-10.49999958425637
 30
-0.1
 42
-0.2679491924311319
  0
VERTEX
  5
22D6
  8
SAPA_PROFIL
 10
-140.96709524168651
 20
-10.999999584256321
 30
-0.1
  0
VERTEX
  5
22D7
  8
SAPA_PROFIL
 10
-142.3527358877416
 20
-10.999999584256321
 30
-0.1
 42
-0.5773502691893683
  0
VERTEX
  5
22D8
  8
SAPA_PROFIL
 10
-142.52594096849859
 20
-10.699999584256361
 30
-0.1
  0
VERTEX
  5
22D9
  8
SAPA_PROFIL
 10
-141.60218053779511
 20
-9.0999995842563273
 30
-0.1
  0
VERTEX
  5
22DA
  8
SAPA_PROFIL
 10
-141.60218053779511
 20
-8.7999995842563852
 30
-0.1
 42
0.4142135623732059
  0
VERTEX
  5
22DB
  8
SAPA_PROFIL
 10
-141.90218053779529
 20
-8.4999995842563187
 30
-0.1
  0
VERTEX
  5
22DC
  8
SAPA_PROFIL
 10
-145.75496694229551
 20
-8.4999995842563187
 30
-0.1
 42
-0.2134217652834387
  0
VERTEX
  5
22DD
  8
SAPA_PROFIL
 10
-145.97857374004559
 20
-8.3999995842561965
 30
-0.1
 42
0.7625858545243238
  0
VERTEX
  5
22DE
  8
SAPA_PROFIL
 10
-146.3088998210626
 20
-8.5845787864536796
 30
-0.1
  0
VERTEX
  5
22DF
  8
SAPA_PROFIL
 10
-146.2508261840735
 20
-8.7759617864474002
 30
-0.1
  0
VERTEX
  5
22E0
  8
SAPA_PROFIL
 10
-145.16626173710171
 20
-10.66180547830845
 30
-0.1
  0
VERTEX
  5
22E1
  8
SAPA_PROFIL
 10
-144.84450400888349
 20
-10.65124411208147
 30
-0.1
 42
-0.5773502691897466
  0
VERTEX
  5
22E2
  8
SAPA_PROFIL
 10
-144.66155026877331
 20
-10.94540041233631
 30
-0.1
  0
VERTEX
  5
22E3
  8
SAPA_PROFIL
 10
-144.8136841798821
 20
-11.23008269556796
 30
-0.1
 42
-0.221694662643019
  0
VERTEX
  5
22E4
  8
SAPA_PROFIL
 10
-145.35456401135889
 20
-11.63589160072274
 30
-0.1
  0
VERTEX
  5
22E5
  8
SAPA_PROFIL
 10
-147.16779448201709
 20
-12.01733819685046
 30
-0.1
 42
-0.476975532698164
  0
VERTEX
  5
22E6
  8
SAPA_PROFIL
 10
-147.53945135696301
 20
-11.71508537234399
 30
-0.1
  0
VERTEX
  5
22E7
  8
SAPA_PROFIL
 10
-147.5393677490793
 20
-10.21198429158199
 30
-0.1
  0
VERTEX
  5
22E8
  8
SAPA_PROFIL
 10
-147.49152199908079
 20
-10.19746588233488
 30
-0.1
 42
0.4142135623730951
  0
VERTEX
  5
22E9
  8
SAPA_PROFIL
 10
-147.29155795457339
 20
-9.8232809268590735
 30
-0.1
  0
VERTEX
  5
22EA
  8
SAPA_PROFIL
 10
-147.79997618922599
 20
-8.5078672070136925
 30
-0.1
  0
VERTEX
  5
22EB
  8
SAPA_PROFIL
 10
-147.7999761892259
 20
-5.5097163458401504
 30
-0.1
 42
-0.2562769736732418
  0
VERTEX
  5
22EC
  8
SAPA_PROFIL
 10
-147.70744519091039
 20
-5.3410438416288057
 30
-0.1
  0
VERTEX
  5
22ED
  8
SAPA_PROFIL
 10
-146.4611796917527
 20
-4.5469908354521946
 30
-0.1
 42
-0.5920056181180006
  0
VERTEX
  5
22EE
  8
SAPA_PROFIL
 10
-145.999976189226
 20
-4.799999591769267
 30
-0.1
  0
VERTEX
  5
22EF
  8
SAPA_PROFIL
 10
-145.999976189226
 20
-6.1999995917692452
 30
-0.1
 42
0.4142135623731505
  0
VERTEX
  5
22F0
  8
SAPA_PROFIL
 10
-145.69997618922599
 20
-6.4999995917692841
 30
-0.1
  0
VERTEX
  5
22F1
  8
SAPA_PROFIL
 10
-143.2999761892261
 20
-6.499999591769142
 30
-0.1
 42
0.4142135623729841
  0
VERTEX
  5
22F2
  8
SAPA_PROFIL
 10
-142.99997618922609
 20
-6.1999995917692452
 30
-0.1
  0
VERTEX
  5
22F3
  8
SAPA_PROFIL
 10
-142.99997618922609
 20
11.20000040823081
 30
-0.1
 42
0.4142135623730882
  0
VERTEX
  5
22F4
  8
SAPA_PROFIL
 10
-143.2999761892261
 20
11.50000040823083
 30
-0.1
  0
VERTEX
  5
22F5
  8
SAPA_PROFIL
 10
-145.69997618922619
 20
11.500000408230809
 30
-0.1
 42
0.4142135623730118
  0
VERTEX
  5
22F6
  8
SAPA_PROFIL
 10
-145.999976189226
 20
11.200000408230739
 30
-0.1
  0
VERTEX
  5
22F7
  8
SAPA_PROFIL
 10
-145.999976189226
 20
9.8000004082307264
 30
-0.1
 42
-0.5877032589249656
  0
VERTEX
  5
22F8
  8
SAPA_PROFIL
 10
-146.4579363963536
 20
9.5449541909206168
 30
-0.1
  0
VERTEX
  5
22F9
  8
SAPA_PROFIL
 10
-147.90528299397789
 20
10.441353168162809
 30
-0.1
 42
-0.2596812337301635
  0
VERTEX
  5
22FA
  8
SAPA_PROFIL
 10
-147.99997618922609
 20
10.611383979702911
 30
-0.1
  0
VERTEX
  5
22FB
  8
SAPA_PROFIL
 10
-147.99997618922609
 20
13.300000413062341
 30
-0.1
 42
-0.4142135623732095
  0
VERTEX
  5
22FC
  8
SAPA_PROFIL
 10
-147.7999761892261
 20
13.50000041306232
 30
-0.1
  0
VERTEX
  5
22FD
  8
SAPA_PROFIL
 10
-104.99997469507591
 20
13.50000041306232
 30
-0.1
 42
-0.4142135623730067
  0
VERTEX
  5
22FE
  8
SAPA_PROFIL
 10
-102.9999761892259
 20
11.50000190721282
 30
-0.1
  0
VERTEX
  5
22FF
  8
SAPA_PROFIL
 10
-102.9999761892259
 20
5.7999996659874036
 30
-0.1
 42
0.4142135623729993
  0
VERTEX
  5
2300
  8
SAPA_PROFIL
 10
-101.9999769363009
 20
4.8000004130623122
 30
-0.1
  0
VERTEX
  5
2301
  8
SAPA_PROFIL
 10
-94.498957189225862
 20
4.800000413062409
 30
-0.1
 42
-0.4142135623730951
  0
VERTEX
  5
2302
  8
SAPA_PROFIL
 10
-93.498957189225933
 20
3.8000004130623952
 30
-0.1
  0
VERTEX
  5
2303
  8
SAPA_PROFIL
 10
-93.498957189225933
 20
3.3022252636474181
 30
-0.1
 42
-0.4142135623729598
  0
VERTEX
  5
2304
  8
SAPA_PROFIL
 10
-93.698957039810963
 20
3.102225413062317
 30
-0.1
  0
VERTEX
  5
2305
  8
SAPA_PROFIL
 10
-95.296807752404618
 20
3.1022254130624018
 30
-0.1
 42
0.414645992438811
  0
VERTEX
  5
2306
  8
SAPA_PROFIL
 10
-95.496807534493087
 20
2.9019301766018688
 30
-0.1
  0
VERTEX
  5
2307
  8
SAPA_PROFIL
 10
-95.498364041434954
 20
-8.5036961502384631
 30
-0.1
  0
VERTEX
  5
2308
  8
SAPA_PROFIL
 10
-96.008394423878258
 20
-9.8232809268590664
 30
-0.1
 42
0.4142135623730951
  0
VERTEX
  5
2309
  8
SAPA_PROFIL
 10
-95.808430379370861
 20
-10.19746588233488
 30
-0.1
  0
VERTEX
  5
230A
  8
SAPA_PROFIL
 10
-95.760584629372374
 20
-10.211984291581979
 30
-0.1
  0
VERTEX
  5
230B
  8
SAPA_PROFIL
 10
-95.760501021488736
 20
-11.71508537234399
 30
-0.1
 42
-0.4769755326981641
  0
VERTEX
  5
230C
  8
SAPA_PROFIL
 10
-96.132157896434606
 20
-12.01733819685046
 30
-0.1
  0
VERTEX
  5
230D
  8
SAPA_PROFIL
 10
-97.94538836709286
 20
-11.63589160072274
 30
-0.1
 42
-0.2216946626430191
  0
VERTEX
  5
230E
  8
SAPA_PROFIL
 10
-98.486268198569633
 20
-11.23008269556794
 30
-0.1
  0
VERTEX
  5
230F
  8
SAPA_PROFIL
 10
-98.638402109678424
 20
-10.945400412336291
 30
-0.1
 42
-0.5773502691897466
  0
VERTEX
  5
2310
  8
SAPA_PROFIL
 10
-98.455448369568217
 20
-10.65124411208148
 30
-0.1
  0
VERTEX
  5
2311
  8
SAPA_PROFIL
 10
-98.133690641349972
 20
-10.66180547830845
 30
-0.1
  0
VERTEX
  5
2312
  8
SAPA_PROFIL
 10
-97.049126194378232
 20
-8.7759617864473931
 30
-0.1
  0
VERTEX
  5
2313
  8
SAPA_PROFIL
 10
-96.991052557389153
 20
-8.5845787864536724
 30
-0.1
 42
0.7625858545243257
  0
VERTEX
  5
2314
  8
SAPA_PROFIL
 10
-97.321378638406145
 20
-8.3999995842561894
 30
-0.1
 42
-0.2134217652834391
  0
SEQEND
  5
2315
  8
SAPA_PROFIL
  0
POLYLINE
  5
1A1E
  8
SAPA_PROFIL
 66
     1
 10
0.0
 20
0.0
 30
-0.1
 70
     1
  0
VERTEX
  5
2316
  8
SAPA_PROFIL
 10
-104.9999761892259
 20
11.500000416280511
 30
-0.1
  0
VERTEX
  5
2317
  8
SAPA_PROFIL
 10
-106.9999761892259
 20
11.500000416280511
 30
-0.1
  0
VERTEX
  5
2318
  8
SAPA_PROFIL
 10
-106.99997618922581
 20
11.4000004162806
 30
-0.1
 42
-0.4142135623732199
  0
VERTEX
  5
2319
  8
SAPA_PROFIL
 10
-107.19997618922579
 20
11.20000041628052
 30
-0.1
  0
VERTEX
  5
231A
  8
SAPA_PROFIL
 10
-108.7999761892258
 20
11.20000041628041
 30
-0.1
 42
-0.4142135623727933
  0
VERTEX
  5
231B
  8
SAPA_PROFIL
 10
-108.9999761892259
 20
11.40000041628031
 30
-0.1
  0
VERTEX
  5
231C
  8
SAPA_PROFIL
 10
-108.9999761892259
 20
11.500000416280511
 30
-0.1
  0
VERTEX
  5
231D
  8
SAPA_PROFIL
 10
-137.2999761892259
 20
11.500000416280511
 30
-0.1
  0
VERTEX
  5
231E
  8
SAPA_PROFIL
 10
-137.2999761892261
 20
11.40000041628052
 30
-0.1
 42
-0.4142135623730847
  0
VERTEX
  5
231F
  8
SAPA_PROFIL
 10
-137.4999761892262
 20
11.20000041628052
 30
-0.1
  0
VERTEX
  5
2320
  8
SAPA_PROFIL
 10
-139.09997618922611
 20
11.200000416280639
 30
-0.1
 42
-0.4142135623730847
  0
VERTEX
  5
2321
  8
SAPA_PROFIL
 10
-139.29997618922599
 20
11.40000041628052
 30
-0.1
  0
VERTEX
  5
2322
  8
SAPA_PROFIL
 10
-139.29997618922599
 20
11.500000416280511
 30
-0.1
  0
VERTEX
  5
2323
  8
SAPA_PROFIL
 10
-140.99997618922609
 20
11.500000416280511
 30
-0.1
 42
0.4142135623730675
  0
VERTEX
  5
2324
  8
SAPA_PROFIL
 10
-141.2999761892259
 20
11.20000041628052
 30
-0.1
  0
VERTEX
  5
2325
  8
SAPA_PROFIL
 10
-141.2999761892259
 20
-6.3999995837194659
 30
-0.1
 42
0.4142135623730673
  0
VERTEX
  5
2326
  8
SAPA_PROFIL
 10
-140.99997618922609
 20
-6.6999995837194213
 30
-0.1
  0
VERTEX
  5
2327
  8
SAPA_PROFIL
 10
-139.29997618922579
 20
-6.6999995837194213
 30
-0.1
  0
VERTEX
  5
2328
  8
SAPA_PROFIL
 10
-139.2999761892261
 20
-6.399999583719409
 30
-0.1
 42
-0.4142135623731367
  0
VERTEX
  5
2329
  8
SAPA_PROFIL
 10
-139.09997618922591
 20
-6.1999995837194213
 30
-0.1
  0
VERTEX
  5
232A
  8
SAPA_PROFIL
 10
-137.4999761892262
 20
-6.1999995837193644
 30
-0.1
 42
-0.4142135623732407
  0
VERTEX
  5
232B
  8
SAPA_PROFIL
 10
-137.29997618922599
 20
-6.3999995837195804
 30
-0.1
  0
VERTEX
  5
232C
  8
SAPA_PROFIL
 10
-137.2999761892261
 20
-6.6999995837194781
 30
-0.1
  0
VERTEX
  5
232D
  8
SAPA_PROFIL
 10
-108.99997618922571
 20
-6.6999995837194808
 30
-0.1
  0
VERTEX
  5
232E
  8
SAPA_PROFIL
 10
-108.9999761892259
 20
-6.3999995837194126
 30
-0.1
 42
-0.4142135623732199
  0
VERTEX
  5
232F
  8
SAPA_PROFIL
 10
-108.7999761892258
 20
-6.1999995837194239
 30
-0.1
  0
VERTEX
  5
2330
  8
SAPA_PROFIL
 10
-107.19997618922579
 20
-6.1999995837195128
 30
-0.1
 42
-0.4142135623733448
  0
VERTEX
  5
2331
  8
SAPA_PROFIL
 10
-106.9999761892259
 20
-6.3999995837195867
 30
-0.1
  0
VERTEX
  5
2332
  8
SAPA_PROFIL
 10
-106.9999761892259
 20
-6.6999995837194284
 30
-0.1
  0
VERTEX
  5
2333
  8
SAPA_PROFIL
 10
-97.49997618922616
 20
-6.6999995837194284
 30
-0.1
 42
0.4142135623732061
  0
VERTEX
  5
2334
  8
SAPA_PROFIL
 10
-97.199976189226064
 20
-6.399999583719417
 30
-0.1
  0
VERTEX
  5
2335
  8
SAPA_PROFIL
 10
-97.199976189226064
 20
2.800000413062409
 30
-0.1
 42
0.4142135623732059
  0
VERTEX
  5
2336
  8
SAPA_PROFIL
 10
-97.49997618922616
 20
3.1000004130623919
 30
-0.1
  0
VERTEX
  5
2337
  8
SAPA_PROFIL
 10
-101.9999769363008
 20
3.1000004130623942
 30
-0.1
 42
-0.414213562373052
  0
VERTEX
  5
2338
  8
SAPA_PROFIL
 10
-104.69997618922579
 20
5.7999996659872339
 30
-0.1
  0
VERTEX
  5
2339
  8
SAPA_PROFIL
 10
-104.69997618922579
 20
11.20000041628052
 30
-0.1
 42
0.4142135623732891
  0
SEQEND
  5
233A
  8
SAPA_PROFIL
  0
POLYLINE
  5
1A1F
  8
SAPA_PROFIL
 66
     1
 10
0.0
 20
0.0
 30
0.0
 70
     1
  0
VERTEX
  5
233B
  8
SAPA_PROFIL
 10
-103.2003587205497
 20
-48.499999584173914
 30
0.0
 42
-0.2679491924311119
  0
VERTEX
  5
233C
  8
SAPA_PROFIL
 10
-102.3343333167654
 20
-47.999999584174013
 30
0.0
  0
VERTEX
  5
233D
  8
SAPA_PROFIL
 10
-100.9486926707102
 20
-47.999999584174112
 30
0.0
 42
-0.5773502691897603
  0
VERTEX
  5
233E
  8
SAPA_PROFIL
 10
-100.7754875899535
 20
-48.299999584174067
 30
0.0
  0
VERTEX
  5
233F
  8
SAPA_PROFIL
 10
-101.6992480206568
 20
-49.899999584173749
 30
0.0
  0
VERTEX
  5
2340
  8
SAPA_PROFIL
 10
-101.6992480206568
 20
-50.199999584173931
 30
0.0
 42
0.4142135623728995
  0
VERTEX
  5
2341
  8
SAPA_PROFIL
 10
-101.3992480206568
 20
-50.499999584174013
 30
0.0
  0
VERTEX
  5
2342
  8
SAPA_PROFIL
 10
-97.546461616156805
 20
-50.499999584173942
 30
0.0
 42
-0.2134217652834313
  0
VERTEX
  5
2343
  8
SAPA_PROFIL
 10
-97.322854818406711
 20
-50.599999584174071
 30
0.0
 42
0.7625858545243313
  0
VERTEX
  5
2344
  8
SAPA_PROFIL
 10
-96.992528737389677
 20
-50.415420381976602
 30
0.0
  0
VERTEX
  5
2345
  8
SAPA_PROFIL
 10
-97.050602374378755
 20
-50.224037381982882
 30
0.0
  0
VERTEX
  5
2346
  8
SAPA_PROFIL
 10
-98.135166821350523
 20
-48.33819369012182
 30
0.0
  0
VERTEX
  5
2347
  8
SAPA_PROFIL
 10
-98.456924549568782
 20
-48.348755056348821
 30
0.0
 42
-0.5773502691897454
  0
VERTEX
  5
2348
  8
SAPA_PROFIL
 10
-98.639878289678933
 20
-48.054598756093966
 30
0.0
  0
VERTEX
  5
2349
  8
SAPA_PROFIL
 10
-98.487744378570198
 20
-47.76991647286232
 30
0.0
 42
-0.2216946626430149
  0
VERTEX
  5
234A
  8
SAPA_PROFIL
 10
-97.946864547093384
 20
-47.364107567707528
 30
0.0
  0
VERTEX
  5
234B
  8
SAPA_PROFIL
 10
-96.133634076435158
 20
-46.982660971579818
 30
0.0
 42
-0.476975532698164
  0
VERTEX
  5
234C
  8
SAPA_PROFIL
 10
-95.761977201489245
 20
-47.284913796086279
 30
0.0
  0
VERTEX
  5
234D
  8
SAPA_PROFIL
 10
-95.762060809372912
 20
-48.788014876848287
 30
0.0
  0
VERTEX
  5
234E
  8
SAPA_PROFIL
 10
-95.809906559371399
 20
-48.802533286095397
 30
0.0
 42
0.4142135623730875
  0
VERTEX
  5
234F
  8
SAPA_PROFIL
 10
-96.009870603878795
 20
-49.176718241571209
 30
0.0
  0
VERTEX
  5
2350
  8
SAPA_PROFIL
 10
-95.499976185315063
 20
-50.495951243333238
 30
0.0
  0
VERTEX
  5
2351
  8
SAPA_PROFIL
 10
-95.499976185315063
 20
-70.231477980830078
 30
0.0
 42
0.3821712090170728
  0
VERTEX
  5
2352
  8
SAPA_PROFIL
 10
-95.233095969409305
 20
-70.529644175931992
 30
0.0
  0
VERTEX
  5
2353
  8
SAPA_PROFIL
 10
-88.655125185315086
 20
-71.055483710896993
 30
0.0
 42
0.4469990000000183
  0
VERTEX
  5
2354
  8
SAPA_PROFIL
 10
-88.099925185315101
 20
-70.558539710896994
 30
0.0
  0
VERTEX
  5
2355
  8
SAPA_PROFIL
 10
-88.099925185315058
 20
-68.799999584173989
 30
0.0
 42
-0.414213999999998
  0
VERTEX
  5
2356
  8
SAPA_PROFIL
 10
-87.099925185315101
 20
-67.799999584173975
 30
0.0
  0
VERTEX
  5
2357
  8
SAPA_PROFIL
 10
-86.832381185315086
 20
-67.799999584174003
 30
0.0
 42
-0.2896899999999924
  0
VERTEX
  5
2358
  8
SAPA_PROFIL
 10
-85.928873185315041
 20
-68.371427584174
 30
0.0
 42
-0.5507599999999715
  0
VERTEX
  5
2359
  8
SAPA_PROFIL
 10
-86.199925185315067
 20
-68.799999584173989
 30
0.0
  0
VERTEX
  5
235A
  8
SAPA_PROFIL
 10
-86.499925185315035
 20
-68.799999584173975
 30
0.0
 42
0.4142140000001125
  0
VERTEX
  5
235B
  8
SAPA_PROFIL
 10
-86.699925185315067
 20
-68.999999584173992
 30
0.0
  0
VERTEX
  5
235C
  8
SAPA_PROFIL
 10
-86.699925185315067
 20
-70.099999584174014
 30
0.0
 42
0.4142139999999939
  0
VERTEX
  5
235D
  8
SAPA_PROFIL
 10
-85.699925185315067
 20
-71.099999584174014
 30
0.0
  0
VERTEX
  5
235E
  8
SAPA_PROFIL
 10
-83.399976185315097
 20
-71.099999584174014
 30
0.0
 42
0.4142139999999918
  0
VERTEX
  5
235F
  8
SAPA_PROFIL
 10
-82.399976185315083
 20
-70.099999584174014
 30
0.0
  0
VERTEX
  5
2360
  8
SAPA_PROFIL
 10
-82.399976185315069
 20
-68.999999584173992
 30
0.0
 42
0.4142139999999378
  0
VERTEX
  5
2361
  8
SAPA_PROFIL
 10
-82.599976185315086
 20
-68.799999584173989
 30
0.0
  0
VERTEX
  5
2362
  8
SAPA_PROFIL
 10
-82.899925185315055
 20
-68.79999958417396
 30
0.0
 42
-0.5507599999999796
  0
VERTEX
  5
2363
  8
SAPA_PROFIL
 10
-83.170978185315064
 20
-68.371427584174015
 30
0.0
 42
-0.2896900000000027
  0
VERTEX
  5
2364
  8
SAPA_PROFIL
 10
-82.267470185315062
 20
-67.799999584173975
 30
0.0
  0
VERTEX
  5
2365
  8
SAPA_PROFIL
 10
-81.999976185315063
 20
-67.799999584174003
 30
0.0
 42
-0.4142140000000064
  0
VERTEX
  5
2366
  8
SAPA_PROFIL
 10
-80.999976185315063
 20
-68.799999584173989
 30
0.0
  0
VERTEX
  5
2367
  8
SAPA_PROFIL
 10
-80.99997618531512
 20
-70.499999584173992
 30
0.0
 42
-0.4142139999999918
  0
VERTEX
  5
2368
  8
SAPA_PROFIL
 10
-82.999976185315063
 20
-72.499999584173992
 30
0.0
  0
VERTEX
  5
2369
  8
SAPA_PROFIL
 10
-169.49997618531501
 20
-72.499999584173935
 30
0.0
 42
-0.414213999999996
  0
VERTEX
  5
236A
  8
SAPA_PROFIL
 10
-169.99997618531501
 20
-71.999999584173963
 30
0.0
  0
VERTEX
  5
236B
  8
SAPA_PROFIL
 10
-169.99997618531489
 20
-68.299999584173975
 30
0.0
 42
-0.4142139999999107
  0
VERTEX
  5
236C
  8
SAPA_PROFIL
 10
-169.69997618531511
 20
-67.999999584173992
 30
0.0
  0
VERTEX
  5
236D
  8
SAPA_PROFIL
 10
-168.93243118531501
 20
-67.999999584173992
 30
0.0
 42
-0.2896899999999864
  0
VERTEX
  5
236E
  8
SAPA_PROFIL
 10
-168.02892318531499
 20
-68.571427584173961
 30
0.0
 42
-0.5507600000000558
  0
VERTEX
  5
236F
  8
SAPA_PROFIL
 10
-168.29997618531499
 20
-68.999999584173992
 30
0.0
  0
VERTEX
  5
2370
  8
SAPA_PROFIL
 10
-168.49997618531501
 20
-68.999999584173992
 30
0.0
 42
0.414214000000073
  0
VERTEX
  5
2371
  8
SAPA_PROFIL
 10
-168.79997618531499
 20
-69.299999584173975
 30
0.0
  0
VERTEX
  5
2372
  8
SAPA_PROFIL
 10
-168.79997618531499
 20
-70.799999584173975
 30
0.0
 42
0.414213999999996
  0
VERTEX
  5
2373
  8
SAPA_PROFIL
 10
-168.29997618531499
 20
-71.299999584173975
 30
0.0
  0
VERTEX
  5
2374
  8
SAPA_PROFIL
 10
-164.99997618531501
 20
-71.299999584173975
 30
0.0
 42
0.4142140000000002
  0
VERTEX
  5
2375
  8
SAPA_PROFIL
 10
-164.49997618531489
 20
-70.799999584173975
 30
0.0
  0
VERTEX
  5
2376
  8
SAPA_PROFIL
 10
-164.49997618531489
 20
-69.299999584173975
 30
0.0
 42
0.4142140000000209
  0
VERTEX
  5
2377
  8
SAPA_PROFIL
 10
-164.79997618531499
 20
-68.999999584173992
 30
0.0
  0
VERTEX
  5
2378
  8
SAPA_PROFIL
 10
-164.99997618531501
 20
-68.999999584174049
 30
0.0
 42
-0.5507600000000054
  0
VERTEX
  5
2379
  8
SAPA_PROFIL
 10
-165.271028185315
 20
-68.571427584173961
 30
0.0
 42
-0.2896899999999876
  0
VERTEX
  5
237A
  8
SAPA_PROFIL
 10
-164.3675201853151
 20
-67.999999584173992
 30
0.0
  0
VERTEX
  5
237B
  8
SAPA_PROFIL
 10
-163.37004918531511
 20
-67.999999584174006
 30
0.0
 42
-0.0436609999999812
  0
VERTEX
  5
237C
  8
SAPA_PROFIL
 10
-163.28322418531511
 20
-68.007595584173998
 30
0.0
  0
VERTEX
  5
237D
  8
SAPA_PROFIL
 10
-161.7131521853151
 20
-68.284441584174004
 30
0.0
 42
-0.839099999999979
  0
VERTEX
  5
237E
  8
SAPA_PROFIL
 10
-161.7131521853151
 20
-69.269249584173991
 30
0.0
  0
VERTEX
  5
237F
  8
SAPA_PROFIL
 10
-162.88680018531511
 20
-69.476194584173982
 30
0.0
 42
0.363970000000042
  0
VERTEX
  5
2380
  8
SAPA_PROFIL
 10
-163.2999761853151
 20
-69.968598584174003
 30
0.0
  0
VERTEX
  5
2381
  8
SAPA_PROFIL
 10
-163.2999761853151
 20
-70.779999584173964
 30
0.0
 42
0.4373279999999794
  0
VERTEX
  5
2382
  8
SAPA_PROFIL
 10
-162.76088118531499
 20
-71.278468584173993
 30
0.0
  0
VERTEX
  5
2383
  8
SAPA_PROFIL
 10
-148.2878229118987
 20
-70.711670097778125
 30
0.0
 42
0.4023941355298093
  0
VERTEX
  5
2384
  8
SAPA_PROFIL
 10
-147.99997618531489
 20
-70.411916368951807
 30
0.0
  0
VERTEX
  5
2385
  8
SAPA_PROFIL
 10
-147.99997618531501
 20
-69.611382584173981
 30
0.0
 42
-0.2596810000001062
  0
VERTEX
  5
2386
  8
SAPA_PROFIL
 10
-147.90528318531489
 20
-69.441351584173987
 30
0.0
  0
VERTEX
  5
2387
  8
SAPA_PROFIL
 10
-146.45793618531511
 20
-68.544952584173899
 30
0.0
 42
-0.5877030000000574
  0
VERTEX
  5
2388
  8
SAPA_PROFIL
 10
-145.99997618531489
 20
-68.799999584174031
 30
0.0
  0
VERTEX
  5
2389
  8
SAPA_PROFIL
 10
-145.99997618531489
 20
-70.199999584173995
 30
0.0
 42
0.4142139999999773
  0
VERTEX
  5
238A
  8
SAPA_PROFIL
 10
-145.69997618531499
 20
-70.499999584173992
 30
0.0
  0
VERTEX
  5
238B
  8
SAPA_PROFIL
 10
-143.29997618531499
 20
-70.499999584173992
 30
0.0
 42
0.4142140000000855
  0
VERTEX
  5
238C
  8
SAPA_PROFIL
 10
-142.99997618531489
 20
-70.199999584173995
 30
0.0
  0
VERTEX
  5
238D
  8
SAPA_PROFIL
 10
-142.99997618531489
 20
-52.79999958417401
 30
0.0
 42
0.4142140000001167
  0
VERTEX
  5
238E
  8
SAPA_PROFIL
 10
-143.29997618531499
 20
-52.499999584173999
 30
0.0
  0
VERTEX
  5
238F
  8
SAPA_PROFIL
 10
-145.69997618531499
 20
-52.499999584173999
 30
0.0
 42
0.4142140000000127
  0
VERTEX
  5
2390
  8
SAPA_PROFIL
 10
-145.99997618531489
 20
-52.79999958417401
 30
0.0
  0
VERTEX
  5
2391
  8
SAPA_PROFIL
 10
-145.99997618531489
 20
-54.199999584173987
 30
0.0
 42
-0.5920054160710117
  0
VERTEX
  5
2392
  8
SAPA_PROFIL
 10
-146.46117952342979
 20
-54.453008096931761
 30
0.0
  0
VERTEX
  5
2393
  8
SAPA_PROFIL
 10
-147.7074451796428
 20
-53.658955067110107
 30
0.0
 42
-0.2562769852931595
  0
VERTEX
  5
2394
  8
SAPA_PROFIL
 10
-147.79997618531499
 20
-53.490282558211483
 30
0.0
  0
VERTEX
  5
2395
  8
SAPA_PROFIL
 10
-147.79997618531499
 20
-50.495951243332946
 30
0.0
  0
VERTEX
  5
2396
  8
SAPA_PROFIL
 10
-147.2900817667514
 20
-49.176718241571258
 30
0.0
 42
0.4142135623730875
  0
VERTEX
  5
2397
  8
SAPA_PROFIL
 10
-147.49004581125871
 20
-48.802533286095453
 30
0.0
  0
VERTEX
  5
2398
  8
SAPA_PROFIL
 10
-147.5378915612572
 20
-48.788014876848351
 30
0.0
  0
VERTEX
  5
2399
  8
SAPA_PROFIL
 10
-147.53797516914091
 20
-47.284913796086343
 30
0.0
 42
-0.4769755326981641
  0
VERTEX
  5
239A
  8
SAPA_PROFIL
 10
-147.16631829419501
 20
-46.982660971579868
 30
0.0
  0
VERTEX
  5
239B
  8
SAPA_PROFIL
 10
-145.3530878235367
 20
-47.364107567707563
 30
0.0
 42
-0.2216946626430149
  0
VERTEX
  5
239C
  8
SAPA_PROFIL
 10
-144.81220799206
 20
-47.769916472862391
 30
0.0
  0
VERTEX
  5
239D
  8
SAPA_PROFIL
 10
-144.6600740809512
 20
-48.054598756094023
 30
0.0
 42
-0.5773502691897454
  0
VERTEX
  5
239E
  8
SAPA_PROFIL
 10
-144.84302782106141
 20
-48.34875505634885
 30
0.0
  0
VERTEX
  5
239F
  8
SAPA_PROFIL
 10
-145.1647855492796
 20
-48.338193690121877
 30
0.0
  0
VERTEX
  5
23A0
  8
SAPA_PROFIL
 10
-146.2493499962514
 20
-50.22403738198291
 30
0.0
  0
VERTEX
  5
23A1
  8
SAPA_PROFIL
 10
-146.30742363324049
 20
-50.415420381976631
 30
0.0
 42
0.7625858545243333
  0
VERTEX
  5
23A2
  8
SAPA_PROFIL
 10
-145.97709755222351
 20
-50.599999584174107
 30
0.0
 42
-0.2134217652834462
  0
VERTEX
  5
23A3
  8
SAPA_PROFIL
 10
-145.75349075447329
 20
-50.499999584174013
 30
0.0
  0
VERTEX
  5
23A4
  8
SAPA_PROFIL
 10
-141.90070434997321
 20
-50.499999584174013
 30
0.0
 42
0.4142135623729119
  0
VERTEX
  5
23A5
  8
SAPA_PROFIL
 10
-141.60070434997331
 20
-50.199999584173931
 30
0.0
  0
VERTEX
  5
23A6
  8
SAPA_PROFIL
 10
-141.60070434997331
 20
-49.899999584173749
 30
0.0
  0
VERTEX
  5
23A7
  8
SAPA_PROFIL
 10
-142.52446478067671
 20
-48.299999584174131
 30
0.0
 42
-0.5773502691897497
  0
VERTEX
  5
23A8
  8
SAPA_PROFIL
 10
-142.35125969991981
 20
-47.999999584174013
 30
0.0
  0
VERTEX
  5
23A9
  8
SAPA_PROFIL
 10
-140.96561905386471
 20
-47.999999584173828
 30
0.0
 42
-0.2679491924311136
  0
VERTEX
  5
23AA
  8
SAPA_PROFIL
 10
-140.09959365008029
 20
-48.499999584173842
 30
0.0
  0
VERTEX
  5
23AB
  8
SAPA_PROFIL
 10
-139.08923067899821
 20
-50.249999584174027
 30
0.0
 42
0.2679491924310958
  0
VERTEX
  5
23AC
  8
SAPA_PROFIL
 10
-138.656217977106
 20
-50.499999584174013
 30
0.0
  0
VERTEX
  5
23AD
  8
SAPA_PROFIL
 10
-138.31959142758561
 20
-50.499999584174013
 30
0.0
  0
VERTEX
  5
23AE
  8
SAPA_PROFIL
 10
-137.7999761853149
 20
-50.799999584173989
 30
0.0
  0
VERTEX
  5
23AF
  8
SAPA_PROFIL
 10
-137.28036094304429
 20
-50.499999584174013
 30
0.0
  0
VERTEX
  5
23B0
  8
SAPA_PROFIL
 10
-104.6437343935241
 20
-50.499999584174013
 30
0.0
 42
0.2679491924311033
  0
VERTEX
  5
23B1
  8
SAPA_PROFIL
 10
-104.2107216916319
 20
-50.249999584174027
 30
0.0
  0
SEQEND
  5
23B2
  8
SAPA_PROFIL
  0
POLYLINE
  5
1A20
  8
SAPA_PROFIL
 66
     1
 10
0.0
 20
0.0
 30
0.0
 70
     1
  0
VERTEX
  5
23B3
  8
SAPA_PROFIL
 10
-139.09997618531511
 20
-52.79999958417401
 30
0.0
  0
VERTEX
  5
23B4
  8
SAPA_PROFIL
 10
-137.49997618531501
 20
-52.79999958417401
 30
0.0
 42
0.4142135623730951
  0
VERTEX
  5
23B5
  8
SAPA_PROFIL
 10
-137.2999761853151
 20
-52.599999584173993
 30
0.0
  0
VERTEX
  5
23B6
  8
SAPA_PROFIL
 10
-137.2999761853151
 20
-52.299999500300672
 30
0.0
  0
VERTEX
  5
23B7
  8
SAPA_PROFIL
 10
-101.19997618531499
 20
-52.299999500300672
 30
0.0
  0
VERTEX
  5
23B8
  8
SAPA_PROFIL
 10
-101.19997618531499
 20
-52.599999584173993
 30
0.0
 42
0.4142135623730951
  0
VERTEX
  5
23B9
  8
SAPA_PROFIL
 10
-100.99997618531501
 20
-52.79999958417401
 30
0.0
  0
VERTEX
  5
23BA
  8
SAPA_PROFIL
 10
-99.399976185315055
 20
-52.79999958417401
 30
0.0
 42
0.4142135623730951
  0
VERTEX
  5
23BB
  8
SAPA_PROFIL
 10
-99.199976185315052
 20
-52.599999584173993
 30
0.0
  0
VERTEX
  5
23BC
  8
SAPA_PROFIL
 10
-99.199976185315052
 20
-52.299999500300672
 30
0.0
  0
VERTEX
  5
23BD
  8
SAPA_PROFIL
 10
-97.499976185315063
 20
-52.299999500300657
 30
0.0
 42
-0.4142135623730951
  0
VERTEX
  5
23BE
  8
SAPA_PROFIL
 10
-97.199976185315066
 20
-52.599999500300669
 30
0.0
  0
VERTEX
  5
23BF
  8
SAPA_PROFIL
 10
-97.199976185315066
 20
-70.199999584173995
 30
0.0
 42
-0.4142135623730951
  0
VERTEX
  5
23C0
  8
SAPA_PROFIL
 10
-97.499976185315063
 20
-70.499999584173992
 30
0.0
  0
VERTEX
  5
23C1
  8
SAPA_PROFIL
 10
-99.199976185315052
 20
-70.499999584173992
 30
0.0
  0
VERTEX
  5
23C2
  8
SAPA_PROFIL
 10
-99.199976185315052
 20
-70.399999584173955
 30
0.0
 42
0.4142135623730951
  0
VERTEX
  5
23C3
  8
SAPA_PROFIL
 10
-99.399976185315055
 20
-70.199999584173995
 30
0.0
  0
VERTEX
  5
23C4
  8
SAPA_PROFIL
 10
-100.99997618531501
 20
-70.199999584173995
 30
0.0
 42
0.4142135623730951
  0
VERTEX
  5
23C5
  8
SAPA_PROFIL
 10
-101.19997618531499
 20
-70.399999584173955
 30
0.0
  0
VERTEX
  5
23C6
  8
SAPA_PROFIL
 10
-101.19997618531499
 20
-70.499999584173992
 30
0.0
  0
VERTEX
  5
23C7
  8
SAPA_PROFIL
 10
-137.2999761853151
 20
-70.499999584173992
 30
0.0
  0
VERTEX
  5
23C8
  8
SAPA_PROFIL
 10
-137.2999761853151
 20
-70.399999584173955
 30
0.0
 42
0.4142135623730951
  0
VERTEX
  5
23C9
  8
SAPA_PROFIL
 10
-137.49997618531501
 20
-70.199999584173995
 30
0.0
  0
VERTEX
  5
23CA
  8
SAPA_PROFIL
 10
-139.09997618531511
 20
-70.199999584173995
 30
0.0
 42
0.4142135623730951
  0
VERTEX
  5
23CB
  8
SAPA_PROFIL
 10
-139.29997618531499
 20
-70.399999584173955
 30
0.0
  0
VERTEX
  5
23CC
  8
SAPA_PROFIL
 10
-139.29997618531499
 20
-70.499999584173992
 30
0.0
  0
VERTEX
  5
23CD
  8
SAPA_PROFIL
 10
-140.99997618531509
 20
-70.499999584173992
 30
0.0
 42
-0.4142135623730951
  0
VERTEX
  5
23CE
  8
SAPA_PROFIL
 10
-141.29997618531499
 20
-70.199999584173995
 30
0.0
  0
VERTEX
  5
23CF
  8
SAPA_PROFIL
 10
-141.2999761853151
 20
-52.599999500300669
 30
0.0
 42
-0.4142135623730951
  0
VERTEX
  5
23D0
  8
SAPA_PROFIL
 10
-140.99997618531509
 20
-52.299999500300672
 30
0.0
  0
VERTEX
  5
23D1
  8
SAPA_PROFIL
 10
-139.29997618531499
 20
-52.299999500300672
 30
0.0
  0
VERTEX
  5
23D2
  8
SAPA_PROFIL
 10
-139.29997618531499
 20
-52.599999584173993
 30
0.0
 42
0.4142135623730951
  0
SEQEND
  5
23D3
  8
SAPA_PROFIL
  0
POLYLINE
  5
1A21
  8
SAPA_PROFIL
 62
     4
 66
     1
 10
0.0
 20
0.0
 30
-0.1
  0
VERTEX
  5
23D4
  8
SAPA_PROFIL
 62
     4
 10
-145.0966090759336
 20
-20.450670461901922
 30
-0.1
 42
-0.5571646428658034
  0
VERTEX
  5
23D5
  8
SAPA_PROFIL
 62
     4
 10
-144.228890161778
 20
-20.987630966038751
 30
-0.1
  0
VERTEX
  5
23D6
  8
SAPA_PROFIL
 62
     4
 10
-144.22889016177851
 20
-38.012368202559948
 30
-0.1
 42
-0.5571645048035741
  0
VERTEX
  5
23D7
  8
SAPA_PROFIL
 62
     4
 10
-145.09660884964461
 20
-38.549328819521008
 30
-0.1
  0
VERTEX
  5
23D8
  8
SAPA_PROFIL
 62
     4
 10
-146.76274950571269
 20
-37.718621731974309
 30
-0.1
 42
-0.284385813979063
  0
VERTEX
  5
23D9
  8
SAPA_PROFIL
 62
     4
 10
-146.92889016178009
 20
-37.45014142349396
 30
-0.1
  0
VERTEX
  5
23DA
  8
SAPA_PROFIL
 62
     4
 10
-146.92889016178009
 20
-21.549857745104649
 30
-0.1
 42
-0.2843858139786238
  0
VERTEX
  5
23DB
  8
SAPA_PROFIL
 62
     4
 10
-146.7627495057132
 20
-21.281377436624361
 30
-0.1
  0
VERTEX
  5
23DC
  8
SAPA_PROFIL
 62
     4
 10
-145.09660884964379
 20
-20.4506703490772
 30
-0.1
  0
SEQEND
  5
23DD
  8
SAPA_PROFIL
 62
     4
  0
POLYLINE
  5
1A22
  8
SAPA_PROFIL
 62
     4
 66
     1
 10
0.0
 20
0.0
 30
-0.1
 70
     1
  0
VERTEX
  5
23DE
  8
SAPA_PROFIL
 62
     4
 10
-147.28572167627769
 20
-43.91761076896659
 30
-0.1
  0
VERTEX
  5
23DF
  8
SAPA_PROFIL
 62
     4
 10
-147.6922818722818
 20
-44.181634047342612
 30
-0.1
 42
0.2539676464751066
  0
VERTEX
  5
23E0
  8
SAPA_PROFIL
 62
     4
 10
-147.82889016177791
 20
-44.433235217727322
 30
-0.1
  0
VERTEX
  5
23E1
  8
SAPA_PROFIL
 62
     4
 10
-147.82889016177791
 20
-45.814734802932662
 30
-0.1
 42
0.3152987888790479
  0
VERTEX
  5
23E2
  8
SAPA_PROFIL
 62
     4
 10
-147.4999002334398
 20
-46.284581113324982
 30
-0.1
  0
VERTEX
  5
23E3
  8
SAPA_PROFIL
 62
     4
 10
-145.0390700429885
 20
-47.180250054233582
 30
-0.1
 42
-0.2694959974287434
  0
VERTEX
  5
23E4
  8
SAPA_PROFIL
 62
     4
 10
-144.84593806864461
 20
-47.411769100634928
 30
-0.1
 42
-0.0612686379508233
  0
VERTEX
  5
23E5
  8
SAPA_PROFIL
 62
     4
 10
-144.83235469801409
 20
-47.704444533488207
 30
-0.1
  0
VERTEX
  5
23E6
  8
SAPA_PROFIL
 62
     4
 10
-144.63061801928529
 20
-48.053862710796473
 30
-0.1
 42
-0.5773502691891679
  0
VERTEX
  5
23E7
  8
SAPA_PROFIL
 62
     4
 10
-144.8124833540798
 20
-48.368862710796058
 30
-0.1
  0
VERTEX
  5
23E8
  8
SAPA_PROFIL
 62
     4
 10
-145.07959788220609
 20
-48.368862710796307
 30
-0.1
  0
VERTEX
  5
23E9
  8
SAPA_PROFIL
 62
     4
 10
-145.88828134351451
 20
-49.767390411430561
 30
-0.1
 42
0.1318219888653519
  0
VERTEX
  5
23EA
  8
SAPA_PROFIL
 62
     4
 10
-145.9285737400518
 20
-49.917563513902898
 30
-0.1
  0
VERTEX
  5
23EB
  8
SAPA_PROFIL
 62
     4
 10
-145.92857374004549
 20
-50.099999584339692
 30
-0.1
 42
0.4142135623724291
  0
VERTEX
  5
23EC
  8
SAPA_PROFIL
 62
     4
 10
-145.52857374004591
 20
-50.49999958434023
 30
-0.1
  0
VERTEX
  5
23ED
  8
SAPA_PROFIL
 62
     4
 10
-142.12857374004491
 20
-50.499999584338859
 30
-0.1
 42
0.4142135623744271
  0
VERTEX
  5
23EE
  8
SAPA_PROFIL
 62
     4
 10
-141.72857374004391
 20
-50.099999584339692
 30
-0.1
  0
VERTEX
  5
23EF
  8
SAPA_PROFIL
 62
     4
 10
-141.7285737400432
 20
-49.920384342068381
 30
-0.1
 42
0.1316524975874005
  0
VERTEX
  5
23F0
  8
SAPA_PROFIL
 62
     4
 10
-141.76876611890879
 20
-49.770384342071559
 30
-0.1
  0
VERTEX
  5
23F1
  8
SAPA_PROFIL
 62
     4
 10
-142.69491556556139
 20
-48.166246445069312
 30
-0.1
 42
-0.1316524975875904
  0
VERTEX
  5
23F2
  8
SAPA_PROFIL
 62
     4
 10
-142.82889016177609
 20
-47.6662464450676
 30
-0.1
  0
VERTEX
  5
23F3
  8
SAPA_PROFIL
 62
     4
 10
-142.82889016177609
 20
-47.24999958434023
 30
-0.1
 42
-0.4142135623730951
  0
VERTEX
  5
23F4
  8
SAPA_PROFIL
 62
     4
 10
-141.82889016177609
 20
-46.24999958434023
 30
-0.1
  0
VERTEX
  5
23F5
  8
SAPA_PROFIL
 62
     4
 10
-138.8288901617789
 20
-46.24999958434023
 30
-0.1
 42
0.9999996830128083
  0
VERTEX
  5
23F6
  8
SAPA_PROFIL
 62
     4
 10
-138.828890161777
 20
-45.24999958434023
 30
-0.1
  0
VERTEX
  5
23F7
  8
SAPA_PROFIL
 62
     4
 10
-141.828890161777
 20
-45.24999958434023
 30
-0.1
 42
-0.4142135623730951
  0
VERTEX
  5
23F8
  8
SAPA_PROFIL
 62
     4
 10
-142.828890161777
 20
-44.24999958434023
 30
-0.1
  0
VERTEX
  5
23F9
  8
SAPA_PROFIL
 62
     4
 10
-142.828890161777
 20
-14.749999584255651
 30
-0.1
 42
-0.4142135623730951
  0
VERTEX
  5
23FA
  8
SAPA_PROFIL
 62
     4
 10
-141.828890161777
 20
-13.74999958425564
 30
-0.1
  0
VERTEX
  5
23FB
  8
SAPA_PROFIL
 62
     4
 10
-138.8288901617789
 20
-13.74999958425564
 30
-0.1
 42
0.9999999999999998
  0
VERTEX
  5
23FC
  8
SAPA_PROFIL
 62
     4
 10
-138.8288901617789
 20
-12.749999584255651
 30
-0.1
  0
VERTEX
  5
23FD
  8
SAPA_PROFIL
 62
     4
 10
-141.828890161777
 20
-12.749999584255651
 30
-0.1
 42
-0.4142135623736278
  0
VERTEX
  5
23FE
  8
SAPA_PROFIL
 62
     4
 10
-142.828890161777
 20
-11.749999584255651
 30
-0.1
  0
VERTEX
  5
23FF
  8
SAPA_PROFIL
 62
     4
 10
-142.828890161777
 20
-11.33375272352918
 30
-0.1
 42
-0.1316524975874375
  0
VERTEX
  5
2400
  8
SAPA_PROFIL
 62
     4
 10
-142.69491556556099
 20
-10.83375272352899
 30
-0.1
  0
VERTEX
  5
2401
  8
SAPA_PROFIL
 62
     4
 10
-141.76876611890879
 20
-9.2296148265270403
 30
-0.1
 42
0.1316524975874
  0
VERTEX
  5
2402
  8
SAPA_PROFIL
 62
     4
 10
-141.7285737400432
 20
-9.0796148265274965
 30
-0.1
  0
VERTEX
  5
2403
  8
SAPA_PROFIL
 62
     4
 10
-141.72857374004391
 20
-8.8999995842561912
 30
-0.1
 42
0.4142135623744271
  0
VERTEX
  5
2404
  8
SAPA_PROFIL
 62
     4
 10
-142.12857374004491
 20
-8.4999995842570115
 30
-0.1
  0
VERTEX
  5
2405
  8
SAPA_PROFIL
 62
     4
 10
-145.52857374004591
 20
-8.4999995842556473
 30
-0.1
 42
0.4142135623724291
  0
VERTEX
  5
2406
  8
SAPA_PROFIL
 62
     4
 10
-145.92857374004549
 20
-8.8999995842561912
 30
-0.1
  0
VERTEX
  5
2407
  8
SAPA_PROFIL
 62
     4
 10
-145.9285737400518
 20
-9.0824356546929721
 30
-0.1
 42
0.1318219888653524
  0
VERTEX
  5
2408
  8
SAPA_PROFIL
 62
     4
 10
-145.88828134351451
 20
-9.2326087571653161
 30
-0.1
  0
VERTEX
  5
2409
  8
SAPA_PROFIL
 62
     4
 10
-145.0795978822901
 20
-10.631136457644971
 30
-0.1
  0
VERTEX
  5
240A
  8
SAPA_PROFIL
 62
     4
 10
-144.8124833540771
 20
-10.631136457644971
 30
-0.1
 42
-0.577350269189159
  0
VERTEX
  5
240B
  8
SAPA_PROFIL
 62
     4
 10
-144.63061801928251
 20
-10.94613645764457
 30
-0.1
  0
VERTEX
  5
240C
  8
SAPA_PROFIL
 62
     4
 10
-144.8323546979596
 20
-11.29555463486323
 30
-0.1
 42
-0.0612687673629489
  0
VERTEX
  5
240D
  8
SAPA_PROFIL
 62
     4
 10
-144.84593806864581
 20
-11.58823006796344
 30
-0.1
 42
-0.2694959974285039
  0
VERTEX
  5
240E
  8
SAPA_PROFIL
 62
     4
 10
-145.03907004298981
 20
-11.81974911436396
 30
-0.1
  0
VERTEX
  5
240F
  8
SAPA_PROFIL
 62
     4
 10
-147.49990023344299
 20
-12.715418055273631
 30
-0.1
 42
0.3152987888784035
  0
VERTEX
  5
2410
  8
SAPA_PROFIL
 62
     4
 10
-147.8288901617795
 20
-13.18526436566685
 30
-0.1
  0
VERTEX
  5
2411
  8
SAPA_PROFIL
 62
     4
 10
-147.82889016177791
 20
-14.566763950871289
 30
-0.1
 42
0.2539676464741841
  0
VERTEX
  5
2412
  8
SAPA_PROFIL
 62
     4
 10
-147.69228187228259
 20
-14.81836512125537
 30
-0.1
  0
VERTEX
  5
2413
  8
SAPA_PROFIL
 62
     4
 10
-147.28572167627769
 20
-15.082388399632009
 30
-0.1
 42
0.5862177598324623
  0
VERTEX
  5
2414
  8
SAPA_PROFIL
 62
     4
 10
-146.8288901617812
 20
-14.826646584393661
 30
-0.1
  0
VERTEX
  5
2415
  8
SAPA_PROFIL
 62
     4
 10
-146.82889016178891
 20
-13.88547190388385
 30
-0.1
 42
-0.3152987888813165
  0
VERTEX
  5
2416
  8
SAPA_PROFIL
 62
     4
 10
-146.49990023345211
 20
-13.4156255934861
 30
-0.1
  0
VERTEX
  5
2417
  8
SAPA_PROFIL
 62
     4
 10
-145.29990023344089
 20
-12.97886131236214
 30
-0.1
 42
-0.5205670505515651
  0
VERTEX
  5
2418
  8
SAPA_PROFIL
 62
     4
 10
-144.62889016177809
 20
-13.448707622755361
 30
-0.1
  0
VERTEX
  5
2419
  8
SAPA_PROFIL
 62
     4
 10
-144.62889016177809
 20
-18.465148563424211
 30
-0.1
 42
-0.3702522326300203
  0
VERTEX
  5
241A
  8
SAPA_PROFIL
 62
     4
 10
-144.8833501144438
 20
-18.761671925217541
 30
-0.1
 42
-0.0982365330332397
  0
VERTEX
  5
241B
  8
SAPA_PROFIL
 62
     4
 10
-146.5710368894388
 20
-18.852124683428482
 30
-0.1
 42
-0.3735060174783164
  0
VERTEX
  5
241C
  8
SAPA_PROFIL
 62
     4
 10
-146.82889016177879
 20
-18.5551000155175
 30
-0.1
  0
VERTEX
  5
241D
  8
SAPA_PROFIL
 62
     4
 10
-146.82889016177981
 20
-18.126646584394852
 30
-0.1
 42
0.5920056181162531
  0
VERTEX
  5
241E
  8
SAPA_PROFIL
 62
     4
 10
-147.2900936643077
 20
-17.873637828077449
 30
-0.1
  0
VERTEX
  5
241F
  8
SAPA_PROFIL
 62
     4
 10
-147.692281872286
 20
-18.134821904233149
 30
-0.1
 42
0.2539676464746725
  0
VERTEX
  5
2420
  8
SAPA_PROFIL
 62
     4
 10
-147.8288901617814
 20
-18.386423074616911
 30
-0.1
  0
VERTEX
  5
2421
  8
SAPA_PROFIL
 62
     4
 10
-147.82889016177981
 20
-40.613576093982587
 30
-0.1
 42
0.2539676464741819
  0
VERTEX
  5
2422
  8
SAPA_PROFIL
 62
     4
 10
-147.692281872286
 20
-40.865177264365457
 30
-0.1
  0
VERTEX
  5
2423
  8
SAPA_PROFIL
 62
     4
 10
-147.29009366430759
 20
-41.126361340519267
 30
-0.1
 42
0.5920055144124249
  0
VERTEX
  5
2424
  8
SAPA_PROFIL
 62
     4
 10
-146.82889016177981
 20
-40.873352584203758
 30
-0.1
  0
VERTEX
  5
2425
  8
SAPA_PROFIL
 62
     4
 10
-146.82889018705481
 20
-40.444899106913532
 30
-0.1
 42
-0.3735060174775405
  0
VERTEX
  5
2426
  8
SAPA_PROFIL
 62
     4
 10
-146.57103691471471
 20
-40.14787443900385
 30
-0.1
 42
-0.0355900683670349
  0
VERTEX
  5
2427
  8
SAPA_PROFIL
 62
     4
 10
-145.9551633279149
 20
-40.103980874971597
 30
-0.1
 42
-0.0624282003873116
  0
VERTEX
  5
2428
  8
SAPA_PROFIL
 62
     4
 10
-144.88335013971979
 20
-40.238327197214531
 30
-0.1
 42
-0.3702522326309292
  0
VERTEX
  5
2429
  8
SAPA_PROFIL
 62
     4
 10
-144.628890187054
 20
-40.534850559007907
 30
-0.1
  0
VERTEX
  5
242A
  8
SAPA_PROFIL
 62
     4
 10
-144.62889016177789
 20
-45.551291545841423
 30
-0.1
 42
-0.5205670505515692
  0
VERTEX
  5
242B
  8
SAPA_PROFIL
 62
     4
 10
-145.29990023344089
 20
-46.021137856234652
 30
-0.1
  0
VERTEX
  5
242C
  8
SAPA_PROFIL
 62
     4
 10
-146.49990023345029
 20
-45.584373575109687
 30
-0.1
 42
-0.3152987888807539
  0
VERTEX
  5
242D
  8
SAPA_PROFIL
 62
     4
 10
-146.82889016178791
 20
-45.114527264713843
 30
-0.1
  0
VERTEX
  5
242E
  8
SAPA_PROFIL
 62
     4
 10
-146.82889016178109
 20
-44.17335258420475
 30
-0.1
 42
0.5862175119221242
  0
VERTEX
  5
242F
  8
SAPA_PROFIL
 62
     4
 10
-147.28572148753631
 20
-43.917610653222802
 30
-0.1
 42
-0.0000002084758573
  0
SEQEND
  5
2430
  8
SAPA_PROFIL
 62
     4
  0
POLYLINE
  5
1A23
  8
SAPA_PROFIL
 62
     4
 66
     1
 10
0.0
 20
0.0
 30
-0.1
  0
VERTEX
  5
2431
  8
SAPA_PROFIL
 62
     4
 10
-98.203343302518533
 20
-20.450670461901922
 30
-0.1
 42
0.5571646428658034
  0
VERTEX
  5
2432
  8
SAPA_PROFIL
 62
     4
 10
-99.071062216674079
 20
-20.987630966038751
 30
-0.1
  0
VERTEX
  5
2433
  8
SAPA_PROFIL
 62
     4
 10
-99.071062216673624
 20
-38.012368202559948
 30
-0.1
 42
0.5571645048035741
  0
VERTEX
  5
2434
  8
SAPA_PROFIL
 62
     4
 10
-98.203343528807451
 20
-38.549328819521008
 30
-0.1
  0
VERTEX
  5
2435
  8
SAPA_PROFIL
 62
     4
 10
-96.537202872739428
 20
-37.718621731974309
 30
-0.1
 42
0.284385813979063
  0
VERTEX
  5
2436
  8
SAPA_PROFIL
 62
     4
 10
-96.371062216671987
 20
-37.45014142349396
 30
-0.1
  0
VERTEX
  5
2437
  8
SAPA_PROFIL
 62
     4
 10
-96.371062216671987
 20
-21.549857745104649
 30
-0.1
 42
0.2843858139786238
  0
VERTEX
  5
2438
  8
SAPA_PROFIL
 62
     4
 10
-96.537202872738916
 20
-21.281377436624361
 30
-0.1
  0
VERTEX
  5
2439
  8
SAPA_PROFIL
 62
     4
 10
-98.203343528808276
 20
-20.4506703490772
 30
-0.1
  0
SEQEND
  5
243A
  8
SAPA_PROFIL
 62
     4
  0
POLYLINE
  5
1A24
  8
SAPA_PROFIL
 62
     4
 66
     1
 10
0.0
 20
0.0
 30
-0.1
 70
     1
  0
VERTEX
  5
243B
  8
SAPA_PROFIL
 62
     4
 10
-96.01423070217443
 20
-43.91761076896659
 30
-0.1
  0
VERTEX
  5
243C
  8
SAPA_PROFIL
 62
     4
 10
-95.607670506170294
 20
-44.181634047342612
 30
-0.1
 42
-0.2539676464751066
  0
VERTEX
  5
243D
  8
SAPA_PROFIL
 62
     4
 10
-95.471062216674184
 20
-44.433235217727322
 30
-0.1
  0
VERTEX
  5
243E
  8
SAPA_PROFIL
 62
     4
 10
-95.471062216674184
 20
-45.814734802932662
 30
-0.1
 42
-0.3152987888790479
  0
VERTEX
  5
243F
  8
SAPA_PROFIL
 62
     4
 10
-95.800052145012316
 20
-46.284581113324982
 30
-0.1
  0
VERTEX
  5
2440
  8
SAPA_PROFIL
 62
     4
 10
-98.260882335463606
 20
-47.180250054233582
 30
-0.1
 42
0.2694959974287434
  0
VERTEX
  5
2441
  8
SAPA_PROFIL
 62
     4
 10
-98.454014309807505
 20
-47.411769100634928
 30
-0.1
 42
0.0612686379508233
  0
VERTEX
  5
2442
  8
SAPA_PROFIL
 62
     4
 10
-98.467597680438033
 20
-47.704444533488207
 30
-0.1
  0
VERTEX
  5
2443
  8
SAPA_PROFIL
 62
     4
 10
-98.669334359166854
 20
-48.053862710796473
 30
-0.1
 42
0.5773502691891679
  0
VERTEX
  5
2444
  8
SAPA_PROFIL
 62
     4
 10
-98.487469024372274
 20
-48.368862710796058
 30
-0.1
  0
VERTEX
  5
2445
  8
SAPA_PROFIL
 62
     4
 10
-98.22035449624596
 20
-48.368862710796307
 30
-0.1
  0
VERTEX
  5
2446
  8
SAPA_PROFIL
 62
     4
 10
-97.411671034937655
 20
-49.767390411430561
 30
-0.1
 42
-0.1318219888653519
  0
VERTEX
  5
2447
  8
SAPA_PROFIL
 62
     4
 10
-97.371378638400245
 20
-49.917563513902898
 30
-0.1
  0
VERTEX
  5
2448
  8
SAPA_PROFIL
 62
     4
 10
-97.371378638406611
 20
-50.099999584339692
 30
-0.1
 42
-0.4142135623724291
  0
VERTEX
  5
2449
  8
SAPA_PROFIL
 62
     4
 10
-97.771378638406247
 20
-50.49999958434023
 30
-0.1
  0
VERTEX
  5
244A
  8
SAPA_PROFIL
 62
     4
 10
-101.17137863840721
 20
-50.499999584338859
 30
-0.1
 42
-0.4142135623744271
  0
VERTEX
  5
244B
  8
SAPA_PROFIL
 62
     4
 10
-101.57137863840821
 20
-50.099999584339692
 30
-0.1
  0
VERTEX
  5
244C
  8
SAPA_PROFIL
 62
     4
 10
-101.5713786384089
 20
-49.920384342068381
 30
-0.1
 42
-0.1316524975874005
  0
VERTEX
  5
244D
  8
SAPA_PROFIL
 62
     4
 10
-101.5311862595433
 20
-49.770384342071559
 30
-0.1
  0
VERTEX
  5
244E
  8
SAPA_PROFIL
 62
     4
 10
-100.6050368128907
 20
-48.166246445069312
 30
-0.1
 42
0.1316524975875904
  0
VERTEX
  5
244F
  8
SAPA_PROFIL
 62
     4
 10
-100.471062216676
 20
-47.6662464450676
 30
-0.1
  0
VERTEX
  5
2450
  8
SAPA_PROFIL
 62
     4
 10
-100.471062216676
 20
-47.24999958434023
 30
-0.1
 42
0.4142135623730951
  0
VERTEX
  5
2451
  8
SAPA_PROFIL
 62
     4
 10
-101.471062216676
 20
-46.24999958434023
 30
-0.1
  0
VERTEX
  5
2452
  8
SAPA_PROFIL
 62
     4
 10
-104.4710622166732
 20
-46.24999958434023
 30
-0.1
 42
-0.9999996830128083
  0
VERTEX
  5
2453
  8
SAPA_PROFIL
 62
     4
 10
-104.47106221667509
 20
-45.24999958434023
 30
-0.1
  0
VERTEX
  5
2454
  8
SAPA_PROFIL
 62
     4
 10
-101.47106221667509
 20
-45.24999958434023
 30
-0.1
 42
0.4142135623730951
  0
VERTEX
  5
2455
  8
SAPA_PROFIL
 62
     4
 10
-100.47106221667499
 20
-44.24999958434023
 30
-0.1
  0
VERTEX
  5
2456
  8
SAPA_PROFIL
 62
     4
 10
-100.47106221667499
 20
-14.749999584255651
 30
-0.1
 42
0.4142135623730951
  0
VERTEX
  5
2457
  8
SAPA_PROFIL
 62
     4
 10
-101.47106221667509
 20
-13.74999958425564
 30
-0.1
  0
VERTEX
  5
2458
  8
SAPA_PROFIL
 62
     4
 10
-104.4710622166732
 20
-13.74999958425564
 30
-0.1
 42
-0.9999999999999998
  0
VERTEX
  5
2459
  8
SAPA_PROFIL
 62
     4
 10
-104.4710622166732
 20
-12.749999584255651
 30
-0.1
  0
VERTEX
  5
245A
  8
SAPA_PROFIL
 62
     4
 10
-101.47106221667509
 20
-12.749999584255651
 30
-0.1
 42
0.4142135623736278
  0
VERTEX
  5
245B
  8
SAPA_PROFIL
 62
     4
 10
-100.47106221667499
 20
-11.749999584255651
 30
-0.1
  0
VERTEX
  5
245C
  8
SAPA_PROFIL
 62
     4
 10
-100.47106221667499
 20
-11.33375272352918
 30
-0.1
 42
0.1316524975874375
  0
VERTEX
  5
245D
  8
SAPA_PROFIL
 62
     4
 10
-100.6050368128911
 20
-10.83375272352899
 30
-0.1
  0
VERTEX
  5
245E
  8
SAPA_PROFIL
 62
     4
 10
-101.5311862595433
 20
-9.2296148265270403
 30
-0.1
 42
-0.1316524975874
  0
VERTEX
  5
245F
  8
SAPA_PROFIL
 62
     4
 10
-101.5713786384089
 20
-9.0796148265274965
 30
-0.1
  0
VERTEX
  5
2460
  8
SAPA_PROFIL
 62
     4
 10
-101.57137863840821
 20
-8.8999995842561912
 30
-0.1
 42
-0.4142135623744271
  0
VERTEX
  5
2461
  8
SAPA_PROFIL
 62
     4
 10
-101.17137863840721
 20
-8.4999995842570115
 30
-0.1
  0
VERTEX
  5
2462
  8
SAPA_PROFIL
 62
     4
 10
-97.771378638406247
 20
-8.4999995842556473
 30
-0.1
 42
-0.4142135623724291
  0
VERTEX
  5
2463
  8
SAPA_PROFIL
 62
     4
 10
-97.371378638406611
 20
-8.8999995842561912
 30
-0.1
  0
VERTEX
  5
2464
  8
SAPA_PROFIL
 62
     4
 10
-97.371378638400245
 20
-9.0824356546929721
 30
-0.1
 42
-0.1318219888653524
  0
VERTEX
  5
2465
  8
SAPA_PROFIL
 62
     4
 10
-97.411671034937655
 20
-9.2326087571653161
 30
-0.1
  0
VERTEX
  5
2466
  8
SAPA_PROFIL
 62
     4
 10
-98.220354496161974
 20
-10.631136457644971
 30
-0.1
  0
VERTEX
  5
2467
  8
SAPA_PROFIL
 62
     4
 10
-98.487469024375002
 20
-10.631136457644971
 30
-0.1
 42
0.577350269189159
  0
VERTEX
  5
2468
  8
SAPA_PROFIL
 62
     4
 10
-98.669334359169582
 20
-10.94613645764457
 30
-0.1
  0
VERTEX
  5
2469
  8
SAPA_PROFIL
 62
     4
 10
-98.467597680492474
 20
-11.29555463486323
 30
-0.1
 42
0.0612687673629489
  0
VERTEX
  5
246A
  8
SAPA_PROFIL
 62
     4
 10
-98.454014309806269
 20
-11.58823006796344
 30
-0.1
 42
0.2694959974285039
  0
VERTEX
  5
246B
  8
SAPA_PROFIL
 62
     4
 10
-98.260882335462313
 20
-11.81974911436396
 30
-0.1
  0
VERTEX
  5
246C
  8
SAPA_PROFIL
 62
     4
 10
-95.800052145009147
 20
-12.715418055273631
 30
-0.1
 42
-0.3152987888784035
  0
VERTEX
  5
246D
  8
SAPA_PROFIL
 62
     4
 10
-95.471062216672578
 20
-13.18526436566685
 30
-0.1
  0
VERTEX
  5
246E
  8
SAPA_PROFIL
 62
     4
 10
-95.471062216674184
 20
-14.566763950871289
 30
-0.1
 42
-0.2539676464741841
  0
VERTEX
  5
246F
  8
SAPA_PROFIL
 62
     4
 10
-95.607670506169427
 20
-14.81836512125537
 30
-0.1
  0
VERTEX
  5
2470
  8
SAPA_PROFIL
 62
     4
 10
-96.01423070217443
 20
-15.082388399632009
 30
-0.1
 42
-0.5862177598324623
  0
VERTEX
  5
2471
  8
SAPA_PROFIL
 62
     4
 10
-96.471062216670944
 20
-14.826646584393661
 30
-0.1
  0
VERTEX
  5
2472
  8
SAPA_PROFIL
 62
     4
 10
-96.47106221666327
 20
-13.88547190388385
 30
-0.1
 42
0.3152987888813165
  0
VERTEX
  5
2473
  8
SAPA_PROFIL
 62
     4
 10
-96.800052145000009
 20
-13.4156255934861
 30
-0.1
  0
VERTEX
  5
2474
  8
SAPA_PROFIL
 62
     4
 10
-98.000052145011239
 20
-12.97886131236214
 30
-0.1
 42
0.5205670505515651
  0
VERTEX
  5
2475
  8
SAPA_PROFIL
 62
     4
 10
-98.671062216673974
 20
-13.448707622755361
 30
-0.1
  0
VERTEX
  5
2476
  8
SAPA_PROFIL
 62
     4
 10
-98.671062216674017
 20
-18.465148563424211
 30
-0.1
 42
0.3702522326300203
  0
VERTEX
  5
2477
  8
SAPA_PROFIL
 62
     4
 10
-98.416602264008304
 20
-18.761671925217541
 30
-0.1
 42
0.0982365330332397
  0
VERTEX
  5
2478
  8
SAPA_PROFIL
 62
     4
 10
-96.728915489013303
 20
-18.852124683428482
 30
-0.1
 42
0.3735060174783164
  0
VERTEX
  5
2479
  8
SAPA_PROFIL
 62
     4
 10
-96.471062216673275
 20
-18.5551000155175
 30
-0.1
  0
VERTEX
  5
247A
  8
SAPA_PROFIL
 62
     4
 10
-96.471062216672365
 20
-18.126646584394852
 30
-0.1
 42
-0.5920056181162531
  0
VERTEX
  5
247B
  8
SAPA_PROFIL
 62
     4
 10
-96.009858714144443
 20
-17.873637828077449
 30
-0.1
  0
VERTEX
  5
247C
  8
SAPA_PROFIL
 62
     4
 10
-95.60767050616613
 20
-18.134821904233149
 30
-0.1
 42
-0.2539676464746725
  0
VERTEX
  5
247D
  8
SAPA_PROFIL
 62
     4
 10
-95.471062216670774
 20
-18.386423074616911
 30
-0.1
  0
VERTEX
  5
247E
  8
SAPA_PROFIL
 62
     4
 10
-95.471062216672351
 20
-40.613576093982587
 30
-0.1
 42
-0.2539676464741819
  0
VERTEX
  5
247F
  8
SAPA_PROFIL
 62
     4
 10
-95.60767050616613
 20
-40.865177264365457
 30
-0.1
  0
VERTEX
  5
2480
  8
SAPA_PROFIL
 62
     4
 10
-96.009858714144471
 20
-41.126361340519267
 30
-0.1
 42
-0.5920055144124249
  0
VERTEX
  5
2481
  8
SAPA_PROFIL
 62
     4
 10
-96.471062216672365
 20
-40.873352584203758
 30
-0.1
  0
VERTEX
  5
2482
  8
SAPA_PROFIL
 62
     4
 10
-96.471062191397365
 20
-40.444899106913532
 30
-0.1
 42
0.3735060174775405
  0
VERTEX
  5
2483
  8
SAPA_PROFIL
 62
     4
 10
-96.728915463737437
 20
-40.14787443900385
 30
-0.1
 42
0.0355900683670349
  0
VERTEX
  5
2484
  8
SAPA_PROFIL
 62
     4
 10
-97.344789050537216
 20
-40.103980874971597
 30
-0.1
 42
0.0624282003873116
  0
VERTEX
  5
2485
  8
SAPA_PROFIL
 62
     4
 10
-98.416602238732352
 20
-40.238327197214531
 30
-0.1
 42
0.3702522326309292
  0
VERTEX
  5
2486
  8
SAPA_PROFIL
 62
     4
 10
-98.671062191398079
 20
-40.534850559007907
 30
-0.1
  0
VERTEX
  5
2487
  8
SAPA_PROFIL
 62
     4
 10
-98.671062216674216
 20
-45.551291545841423
 30
-0.1
 42
0.5205670505515692
  0
VERTEX
  5
2488
  8
SAPA_PROFIL
 62
     4
 10
-98.000052145011239
 20
-46.021137856234652
 30
-0.1
  0
VERTEX
  5
2489
  8
SAPA_PROFIL
 62
     4
 10
-96.8000521450018
 20
-45.584373575109687
 30
-0.1
 42
0.3152987888807539
  0
VERTEX
  5
248A
  8
SAPA_PROFIL
 62
     4
 10
-96.471062216664166
 20
-45.114527264713843
 30
-0.1
  0
VERTEX
  5
248B
  8
SAPA_PROFIL
 62
     4
 10
-96.471062216670987
 20
-44.17335258420475
 30
-0.1
 42
-0.5862175119221242
  0
VERTEX
  5
248C
  8
SAPA_PROFIL
 62
     4
 10
-96.014230890915854
 20
-43.917610653222802
 30
-0.1
 42
0.0000002084758573
  0
SEQEND
  5
248D
  8
SAPA_PROFIL
 62
     4
  0
CIRCLE
  5
1A25
  8
SAPA_PROFIL
 62
     2
 10
-86.831483686658089
 20
-67.317339616839092
 30
0.0
 40
0.25
  0
INSERT
  5
1A26
  8
SAPA_PROFIL
  6
CONTINUOUS
 62
     2
  2
*U135
 10
0.0
 20
0.0
 30
0.0
1001
ACAD
1002
{
1000
R14_HATCH_DATA
1000
1A26
1011
1.0
1021
0.0
1031
0.0
1021
0.0
1031
0.0
1011
0.0
1021
0.0
1031
0.0
1021
1.0
1031
0.0
1011
0.0
1021
0.0
1031
0.0
1021
0.0
1031
1.0
1040
0.0
1010
0.0
1020
0.0
1030
1.0
1000
SOLID
1070
     1
1070
     1
1071
        1
1071
        7
1070
     1
1070
     1
1071
        2
1040
-86.831483686658089
1040
-67.067339616839092
1040
-1.0
1040
-86.831483686658089
1040
-67.567339616839092
1040
-1.0
1071
        1
1005
1A25
1070
     0
1070
     1
1040
0.0095408196840103
1071
        1
1040
-86.831483686658089
1040
-67.217339616839084
1040
0.0
1002
}
  0
POLYLINE
  5
1A27
  8
SAPA_PROFIL
 62
     2
 66
     1
 10
0.0
 20
0.0
 30
0.0
 70
     1
  0
VERTEX
  5
249F
  8
SAPA_PROFIL
 62
     2
 10
-84.499950685315071
 20
-69.991718855704974
 30
0.0
  0
VERTEX
  5
24A0
  8
SAPA_PROFIL
 62
     2
 10
-84.399950685315076
 20
-69.991718855704974
 30
0.0
 42
0.4142135623730959
  0
VERTEX
  5
24A1
  8
SAPA_PROFIL
 62
     2
 10
-83.699950685315059
 20
-69.291718855704971
 30
0.0
  0
VERTEX
  5
24A2
  8
SAPA_PROFIL
 62
     2
 10
-83.699950685315059
 20
-68.191718855704977
 30
0.0
 42
0.4142135623730961
  0
VERTEX
  5
24A3
  8
SAPA_PROFIL
 62
     2
 10
-83.899950685315076
 20
-67.991718855704974
 30
0.0
  0
VERTEX
  5
24A4
  8
SAPA_PROFIL
 62
     2
 10
-84.999950685315071
 20
-67.991718855704974
 30
0.0
 42
0.4142135623730956
  0
VERTEX
  5
24A5
  8
SAPA_PROFIL
 62
     2
 10
-85.199950685315073
 20
-68.191718855704977
 30
0.0
  0
VERTEX
  5
24A6
  8
SAPA_PROFIL
 62
     2
 10
-85.199950685315073
 20
-69.291718855704971
 30
0.0
 42
0.4142135623730946
  0
SEQEND
  5
24A7
  8
SAPA_PROFIL
 62
     2
  0
POLYLINE
  5
1A28
  8
SAPA_PROFIL
 62
     2
 66
     1
 10
0.0
 20
0.0
 30
0.0
  0
VERTEX
  5
24A8
  8
SAPA_PROFIL
 62
     2
 10
-85.999950685315071
 20
-68.691718855704977
 30
0.0
  0
VERTEX
  5
24A9
  8
SAPA_PROFIL
 62
     2
 10
-85.999950685315071
 20
-68.043953290431887
 30
0.0
 42
0.4416942457848117
  0
VERTEX
  5
24AA
  8
SAPA_PROFIL
 62
     2
 10
-86.218505044942987
 20
-67.844815810938954
 30
0.0
  0
VERTEX
  5
24AB
  8
SAPA_PROFIL
 62
     2
 10
-87.18139632568716
 20
-67.934531876196985
 30
0.0
 42
-0.4416942457848106
  0
VERTEX
  5
24AC
  8
SAPA_PROFIL
 62
     2
 10
-87.399950685315076
 20
-67.735394396704052
 30
0.0
  0
VERTEX
  5
24AD
  8
SAPA_PROFIL
 62
     2
 10
-87.399950685315076
 20
-67.185412057112515
 30
0.0
 42
-0.5445962197109637
  0
VERTEX
  5
24AE
  8
SAPA_PROFIL
 62
     2
 10
-86.694271639909999
 20
-66.729675148050646
 30
0.0
  0
VERTEX
  5
24AF
  8
SAPA_PROFIL
 62
     2
 10
-86.335220486624735
 20
-66.891718855704966
 30
0.0
  0
VERTEX
  5
24B0
  8
SAPA_PROFIL
 62
     2
 10
-84.862261247876845
 20
-66.891718855704966
 30
0.0
 42
-0.336437923496554
  0
VERTEX
  5
24B1
  8
SAPA_PROFIL
 62
     2
 10
-83.790517518262007
 20
-67.079225673546702
 30
0.0
  0
VERTEX
  5
24B2
  8
SAPA_PROFIL
 62
     2
 10
-83.22865388243828
 20
-67.079225673546702
 30
0.0
 42
0.1919812372740513
  0
VERTEX
  5
24B3
  8
SAPA_PROFIL
 62
     2
 10
-82.884666834838256
 20
-66.942093295529446
 30
0.0
  0
VERTEX
  5
24B4
  8
SAPA_PROFIL
 62
     2
 10
-82.492799904434946
 20
-66.570615819239407
 30
0.0
 42
0.9249153594910841
  0
VERTEX
  5
24B5
  8
SAPA_PROFIL
 62
     2
 10
-84.158577832957164
 20
-64.336921004160104
 30
0.0
  0
VERTEX
  5
24B6
  8
SAPA_PROFIL
 62
     2
 10
-85.243122772625924
 20
-64.870469059411732
 30
0.0
 42
-0.4184584792862776
  0
VERTEX
  5
24B7
  8
SAPA_PROFIL
 62
     2
 10
-85.829825089197357
 20
-64.466716938992022
 30
0.0
 42
-0.3891337693453737
  0
VERTEX
  5
24B8
  8
SAPA_PROFIL
 62
     2
 10
-85.684658197656887
 20
-64.238627631049411
 30
0.0
  0
VERTEX
  5
24B9
  8
SAPA_PROFIL
 62
     2
 10
-84.598762107091886
 20
-63.675722578561533
 30
0.0
 42
-0.8864286961344978
  0
VERTEX
  5
24BA
  8
SAPA_PROFIL
 62
     2
 10
-81.926982205155326
 20
-67.034921334082256
 30
0.0
  0
VERTEX
  5
24BB
  8
SAPA_PROFIL
 62
     2
 10
-81.496423067274065
 20
-67.150289307371366
 30
0.0
 42
-0.9163311740174273
  0
VERTEX
  5
24BC
  8
SAPA_PROFIL
 62
     2
 10
-81.634812982414147
 20
-67.935137517123707
 30
0.0
  0
VERTEX
  5
24BD
  8
SAPA_PROFIL
 62
     2
 10
-82.682519536765525
 20
-67.843475070916142
 30
0.0
 42
0.4400105308918339
  0
VERTEX
  5
24BE
  8
SAPA_PROFIL
 62
     2
 10
-82.899950685315076
 20
-68.042714010534496
 30
0.0
  0
VERTEX
  5
24BF
  8
SAPA_PROFIL
 62
     2
 10
-82.899950685315076
 20
-68.891718855704966
 30
0.0
  0
VERTEX
  5
24C0
  8
SAPA_PROFIL
 62
     2
 10
-82.499950685315071
 20
-68.891718855704966
 30
0.0
 42
-0.569380983920789
  0
VERTEX
  5
24C1
  8
SAPA_PROFIL
 62
     2
 10
-82.324396639751484
 20
-69.187535227407622
 30
0.0
  0
VERTEX
  5
24C2
  8
SAPA_PROFIL
 62
     2
 10
-83.029362239650553
 20
-70.479167970812924
 30
0.0
 42
-0.274387813087548
  0
VERTEX
  5
24C3
  8
SAPA_PROFIL
 62
     2
 10
-83.556024376341298
 20
-70.791718855704971
 30
0.0
  0
VERTEX
  5
24C4
  8
SAPA_PROFIL
 62
     2
 10
-85.343876994288848
 20
-70.791718855704971
 30
0.0
 42
-0.274387813087548
  0
VERTEX
  5
24C5
  8
SAPA_PROFIL
 62
     2
 10
-85.870539130979594
 20
-70.479167970812924
 30
0.0
  0
VERTEX
  5
24C6
  8
SAPA_PROFIL
 62
     2
 10
-86.575504730878663
 20
-69.187535227407622
 30
0.0
 42
-0.5693809839207892
  0
VERTEX
  5
24C7
  8
SAPA_PROFIL
 62
     2
 10
-86.399950685315076
 20
-68.891718855704966
 30
0.0
  0
VERTEX
  5
24C8
  8
SAPA_PROFIL
 62
     2
 10
-85.999950685315071
 20
-68.891718855704966
 30
0.0
  0
VERTEX
  5
24C9
  8
SAPA_PROFIL
 62
     2
 10
-85.999950685315071
 20
-68.042714010534496
 30
0.0
  0
SEQEND
  5
24CA
  8
SAPA_PROFIL
 62
     2
  0
POLYLINE
  5
1A29
  8
SAPA_PROFIL
 66
     1
 10
0.0
 20
0.0
 30
0.0
 70
     1
  0
VERTEX
  5
24CB
  8
SAPA_PROFIL
 10
-81.453514569158997
 20
-8.4999995841740272
 30
0.0
 42
-0.2134217652834387
  0
VERTEX
  5
24CC
  8
SAPA_PROFIL
 10
-81.677121366909105
 20
-8.3999995841739192
 30
0.0
 42
0.7625858545243219
  0
VERTEX
  5
24CD
  8
SAPA_PROFIL
 10
-82.007447447926126
 20
-8.5845787863713952
 30
0.0
  0
VERTEX
  5
24CE
  8
SAPA_PROFIL
 10
-81.949373810937033
 20
-8.7759617863651158
 30
0.0
  0
VERTEX
  5
24CF
  8
SAPA_PROFIL
 10
-80.864809363965293
 20
-10.661805478226171
 30
0.0
  0
VERTEX
  5
24D0
  8
SAPA_PROFIL
 10
-80.543051635747034
 20
-10.651244111999191
 30
0.0
 42
-0.5773502691897439
  0
VERTEX
  5
24D1
  8
SAPA_PROFIL
 10
-80.360097895636869
 20
-10.945400412254029
 30
0.0
  0
VERTEX
  5
24D2
  8
SAPA_PROFIL
 10
-80.512231806745604
 20
-11.23008269548566
 30
0.0
 42
-0.2216946626430187
  0
VERTEX
  5
24D3
  8
SAPA_PROFIL
 10
-81.053111638222404
 20
-11.635891600640459
 30
0.0
  0
VERTEX
  5
24D4
  8
SAPA_PROFIL
 10
-82.866342108880644
 20
-12.017338196768179
 30
0.0
 42
-0.4769755326981641
  0
VERTEX
  5
24D5
  8
SAPA_PROFIL
 10
-83.237998983826543
 20
-11.71508537226171
 30
0.0
  0
VERTEX
  5
24D6
  8
SAPA_PROFIL
 10
-83.23791537594289
 20
-10.2119842914997
 30
0.0
  0
VERTEX
  5
24D7
  8
SAPA_PROFIL
 10
-83.190069625944403
 20
-10.197465882252599
 30
0.0
 42
0.4142135623730944
  0
VERTEX
  5
24D8
  8
SAPA_PROFIL
 10
-82.990105581437007
 20
-9.8232809267767891
 30
0.0
  0
VERTEX
  5
24D9
  8
SAPA_PROFIL
 10
-83.500000000000483
 20
-8.5040479250153762
 30
0.0
  0
VERTEX
  5
24DA
  8
SAPA_PROFIL
 10
-83.500000000000554
 20
11.23147881248212
 30
0.0
 42
0.38217120901707
  0
VERTEX
  5
24DB
  8
SAPA_PROFIL
 10
-83.766880215906284
 20
11.529645007584049
 30
0.0
  0
VERTEX
  5
24DC
  8
SAPA_PROFIL
 10
-90.344851000000517
 20
12.05548454254904
 30
0.0
 42
0.4469990000000265
  0
VERTEX
  5
24DD
  8
SAPA_PROFIL
 10
-90.900051000000644
 20
11.55854054254899
 30
0.0
  0
VERTEX
  5
24DE
  8
SAPA_PROFIL
 10
-90.900051000000545
 20
9.800000415825993
 30
0.0
 42
-0.4142139999999868
  0
VERTEX
  5
24DF
  8
SAPA_PROFIL
 10
-91.900051000000474
 20
8.8000004158260214
 30
0.0
  0
VERTEX
  5
24E0
  8
SAPA_PROFIL
 10
-92.167595000000574
 20
8.8000004158259788
 30
0.0
 42
-0.2896899999999956
  0
VERTEX
  5
24E1
  8
SAPA_PROFIL
 10
-93.071103000000562
 20
9.3714284158260543
 30
0.0
 42
-0.5507599999999603
  0
VERTEX
  5
24E2
  8
SAPA_PROFIL
 10
-92.800051000000508
 20
9.800000415825993
 30
0.0
  0
VERTEX
  5
24E3
  8
SAPA_PROFIL
 10
-92.500051000000553
 20
9.8000004158259895
 30
0.0
 42
0.4142140000001095
  0
VERTEX
  5
24E4
  8
SAPA_PROFIL
 10
-92.300051000000465
 20
10.00000041582604
 30
0.0
  0
VERTEX
  5
24E5
  8
SAPA_PROFIL
 10
-92.300051000000536
 20
11.100000415826001
 30
0.0
 42
0.4142139999999826
  0
VERTEX
  5
24E6
  8
SAPA_PROFIL
 10
-93.300051000000494
 20
12.10000041582594
 30
0.0
  0
VERTEX
  5
24E7
  8
SAPA_PROFIL
 10
-95.600000000000591
 20
12.10000041582599
 30
0.0
 42
0.4142139999999877
  0
VERTEX
  5
24E8
  8
SAPA_PROFIL
 10
-96.600000000000563
 20
11.100000415826051
 30
0.0
  0
VERTEX
  5
24E9
  8
SAPA_PROFIL
 10
-96.600000000000605
 20
10.00000041582598
 30
0.0
 42
0.4142139999999481
  0
VERTEX
  5
24EA
  8
SAPA_PROFIL
 10
-96.400000000000503
 20
9.8000004158260285
 30
0.0
  0
VERTEX
  5
24EB
  8
SAPA_PROFIL
 10
-96.10005100000059
 20
9.8000004158259841
 30
0.0
 42
-0.5507600000000124
  0
VERTEX
  5
24EC
  8
SAPA_PROFIL
 10
-95.828998000000524
 20
9.3714284158259868
 30
0.0
 42
-0.2896899999999978
  0
VERTEX
  5
24ED
  8
SAPA_PROFIL
 10
-96.732506000000456
 20
8.8000004158259646
 30
0.0
  0
VERTEX
  5
24EE
  8
SAPA_PROFIL
 10
-97.000000000000568
 20
8.8000004158259895
 30
0.0
 42
-0.4142140000000002
  0
VERTEX
  5
24EF
  8
SAPA_PROFIL
 10
-98.000000000000568
 20
9.8000004158260037
 30
0.0
  0
VERTEX
  5
24F0
  8
SAPA_PROFIL
 10
-98.000000000000611
 20
11.50000041582598
 30
0.0
 42
-0.4142139999999887
  0
VERTEX
  5
24F1
  8
SAPA_PROFIL
 10
-96.00000000000054
 20
13.50000041582604
 30
0.0
  0
VERTEX
  5
24F2
  8
SAPA_PROFIL
 10
-31.20000000000061
 20
13.50000041582598
 30
0.0
 42
-0.4142135623730847
  0
VERTEX
  5
24F3
  8
SAPA_PROFIL
 10
-31.000000000000611
 20
13.300000415825981
 30
0.0
  0
VERTEX
  5
24F4
  8
SAPA_PROFIL
 10
-31.000000000000629
 20
10.611383415826021
 30
0.0
 42
-0.2596810000000924
  0
VERTEX
  5
24F5
  8
SAPA_PROFIL
 10
-31.094693000000628
 20
10.441352415825991
 30
0.0
  0
VERTEX
  5
24F6
  8
SAPA_PROFIL
 10
-32.542040000000561
 20
9.5449534158259883
 30
0.0
 42
-0.5877030000000333
  0
VERTEX
  5
24F7
  8
SAPA_PROFIL
 10
-33.000000000000639
 20
9.8000004158260499
 30
0.0
  0
VERTEX
  5
24F8
  8
SAPA_PROFIL
 10
-33.000000000000632
 20
11.20000041582602
 30
0.0
 42
0.4142139999999517
  0
VERTEX
  5
24F9
  8
SAPA_PROFIL
 10
-33.300000000000551
 20
11.500000415825999
 30
0.0
  0
VERTEX
  5
24FA
  8
SAPA_PROFIL
 10
-35.700000000000557
 20
11.500000415825969
 30
0.0
 42
0.4142140000000525
  0
VERTEX
  5
24FB
  8
SAPA_PROFIL
 10
-36.000000000000568
 20
11.200000415826031
 30
0.0
  0
VERTEX
  5
24FC
  8
SAPA_PROFIL
 10
-36.000000000000632
 20
-6.1999995841739572
 30
0.0
 42
0.4142140000001183
  0
VERTEX
  5
24FD
  8
SAPA_PROFIL
 10
-35.700000000000529
 20
-6.4999995841741391
 30
0.0
  0
VERTEX
  5
24FE
  8
SAPA_PROFIL
 10
-33.300000000000523
 20
-6.4999995841740317
 30
0.0
 42
0.4142140000000144
  0
VERTEX
  5
24FF
  8
SAPA_PROFIL
 10
-33.000000000000682
 20
-6.1999995841740141
 30
0.0
  0
VERTEX
  5
2500
  8
SAPA_PROFIL
 10
-33.000000000000632
 20
-4.7999995841739791
 30
0.0
 42
-0.5920054160710128
  0
VERTEX
  5
2501
  8
SAPA_PROFIL
 10
-32.538796661885733
 20
-4.5469910714162491
 30
0.0
  0
VERTEX
  5
2502
  8
SAPA_PROFIL
 10
-31.292531005672739
 20
-5.3410441012378609
 30
0.0
 42
-0.2562769852931535
  0
VERTEX
  5
2503
  8
SAPA_PROFIL
 10
-31.200000000000639
 20
-5.5097166101364854
 30
0.0
  0
VERTEX
  5
2504
  8
SAPA_PROFIL
 10
-31.200000000000632
 20
-8.5040479250148646
 30
0.0
  0
VERTEX
  5
2505
  8
SAPA_PROFIL
 10
-31.709894418564311
 20
-9.823280926776766
 30
0.0
 42
0.4142135623730948
  0
VERTEX
  5
2506
  8
SAPA_PROFIL
 10
-31.509930374056911
 20
-10.19746588225258
 30
0.0
  0
VERTEX
  5
2507
  8
SAPA_PROFIL
 10
-31.46208462405842
 20
-10.211984291499681
 30
0.0
  0
VERTEX
  5
2508
  8
SAPA_PROFIL
 10
-31.462001016174781
 20
-11.71508537226169
 30
0.0
 42
-0.4769755326981646
  0
VERTEX
  5
2509
  8
SAPA_PROFIL
 10
-31.833657891120641
 20
-12.017338196768151
 30
0.0
  0
VERTEX
  5
250A
  8
SAPA_PROFIL
 10
-33.646888361778892
 20
-11.63589160064042
 30
0.0
 42
-0.2216946626430189
  0
VERTEX
  5
250B
  8
SAPA_PROFIL
 10
-34.187768193255678
 20
-11.23008269548564
 30
0.0
  0
VERTEX
  5
250C
  8
SAPA_PROFIL
 10
-34.339902104364462
 20
-10.94540041225399
 30
0.0
 42
-0.5773502691897443
  0
VERTEX
  5
250D
  8
SAPA_PROFIL
 10
-34.156948364254262
 20
-10.65124411199918
 30
0.0
  0
VERTEX
  5
250E
  8
SAPA_PROFIL
 10
-33.835190636036018
 20
-10.661805478226141
 30
0.0
  0
VERTEX
  5
250F
  8
SAPA_PROFIL
 10
-32.750626189064278
 20
-8.7759617863650927
 30
0.0
  0
VERTEX
  5
2510
  8
SAPA_PROFIL
 10
-32.692552552075199
 20
-8.5845787863713792
 30
0.0
 42
0.7625858545243274
  0
VERTEX
  5
2511
  8
SAPA_PROFIL
 10
-33.022878633092191
 20
-8.3999995841738748
 30
0.0
 42
-0.2134217652834391
  0
VERTEX
  5
2512
  8
SAPA_PROFIL
 10
-33.24648543084232
 20
-8.499999584173997
 30
0.0
  0
VERTEX
  5
2513
  8
SAPA_PROFIL
 10
-37.099271835342343
 20
-8.4999995841740184
 30
0.0
 42
0.4142135623729077
  0
VERTEX
  5
2514
  8
SAPA_PROFIL
 10
-37.39927183534224
 20
-8.7999995841740937
 30
0.0
  0
VERTEX
  5
2515
  8
SAPA_PROFIL
 10
-37.39927183534229
 20
-9.0999995841742756
 30
0.0
  0
VERTEX
  5
2516
  8
SAPA_PROFIL
 10
-36.475511404639008
 20
-10.6999995841739
 30
0.0
 42
-0.5773502691897674
  0
VERTEX
  5
2517
  8
SAPA_PROFIL
 10
-36.648716485395767
 20
-10.99999958417402
 30
0.0
  0
VERTEX
  5
2518
  8
SAPA_PROFIL
 10
-38.034357131450918
 20
-10.99999958417402
 30
0.0
 42
-0.2679491924311062
  0
VERTEX
  5
2519
  8
SAPA_PROFIL
 10
-38.900382535235352
 20
-10.49999958417421
 30
0.0
  0
VERTEX
  5
251A
  8
SAPA_PROFIL
 10
-39.910745506317433
 20
-8.7499995841739686
 30
0.0
 42
0.267949192431108
  0
VERTEX
  5
251B
  8
SAPA_PROFIL
 10
-40.343758208209628
 20
-8.4999995841740184
 30
0.0
  0
VERTEX
  5
251C
  8
SAPA_PROFIL
 10
-74.35624179179149
 20
-8.499999584174013
 30
0.0
 42
0.2679491924311069
  0
VERTEX
  5
251D
  8
SAPA_PROFIL
 10
-74.7892544936837
 20
-8.7499995841739917
 30
0.0
  0
VERTEX
  5
251E
  8
SAPA_PROFIL
 10
-75.799617464765788
 20
-10.49999958417413
 30
0.0
 42
-0.2679491924311082
  0
VERTEX
  5
251F
  8
SAPA_PROFIL
 10
-76.665642868550194
 20
-10.999999584174009
 30
0.0
  0
VERTEX
  5
2520
  8
SAPA_PROFIL
 10
-78.051283514605302
 20
-10.99999958417402
 30
0.0
 42
-0.5773502691897738
  0
VERTEX
  5
2521
  8
SAPA_PROFIL
 10
-78.224488595362075
 20
-10.699999584173939
 30
0.0
  0
VERTEX
  5
2522
  8
SAPA_PROFIL
 10
-77.300728164658835
 20
-9.0999995841742702
 30
0.0
  0
VERTEX
  5
2523
  8
SAPA_PROFIL
 10
-77.300728164658835
 20
-8.7999995841740883
 30
0.0
 42
0.4142135623729009
  0
VERTEX
  5
2524
  8
SAPA_PROFIL
 10
-77.600728164658705
 20
-8.4999995841739562
 30
0.0
  0
SEQEND
  5
2525
  8
SAPA_PROFIL
  0
POLYLINE
  5
1A2A
  8
SAPA_PROFIL
 66
     1
 10
0.0
 20
0.0
 30
0.0
 70
     1
  0
VERTEX
  5
2526
  8
SAPA_PROFIL
 10
-79.800000000000594
 20
-6.3999995841739974
 30
0.0
 42
-0.4142135623730951
  0
VERTEX
  5
2527
  8
SAPA_PROFIL
 10
-79.600000000000591
 20
-6.199999584173951
 30
0.0
  0
VERTEX
  5
2528
  8
SAPA_PROFIL
 10
-78.000000000000568
 20
-6.1999995841740079
 30
0.0
 42
-0.4142135623730951
  0
VERTEX
  5
2529
  8
SAPA_PROFIL
 10
-77.800000000000523
 20
-6.3999995841739974
 30
0.0
  0
VERTEX
  5
252A
  8
SAPA_PROFIL
 10
-77.800000000000523
 20
-6.6999996680473251
 30
0.0
  0
VERTEX
  5
252B
  8
SAPA_PROFIL
 10
-41.70000000000055
 20
-6.6999996680473304
 30
0.0
  0
VERTEX
  5
252C
  8
SAPA_PROFIL
 10
-41.700000000000578
 20
-6.3999995841740009
 30
0.0
 42
-0.4142135623730951
  0
VERTEX
  5
252D
  8
SAPA_PROFIL
 10
-41.500000000000568
 20
-6.1999995841739564
 30
0.0
  0
VERTEX
  5
252E
  8
SAPA_PROFIL
 10
-39.900000000000553
 20
-6.1999995841740132
 30
0.0
 42
-0.4142135623730951
  0
VERTEX
  5
252F
  8
SAPA_PROFIL
 10
-39.700000000000557
 20
-6.3999995841740009
 30
0.0
  0
VERTEX
  5
2530
  8
SAPA_PROFIL
 10
-39.700000000000557
 20
-6.6999996680473304
 30
0.0
  0
VERTEX
  5
2531
  8
SAPA_PROFIL
 10
-38.000000000000568
 20
-6.6999996680472806
 30
0.0
 42
0.4142135623730951
  0
VERTEX
  5
2532
  8
SAPA_PROFIL
 10
-37.700000000000557
 20
-6.399999668047319
 30
0.0
  0
VERTEX
  5
2533
  8
SAPA_PROFIL
 10
-37.700000000000593
 20
11.20000041582602
 30
0.0
 42
0.414213562373095
  0
VERTEX
  5
2534
  8
SAPA_PROFIL
 10
-38.000000000000568
 20
11.500000415825969
 30
0.0
  0
VERTEX
  5
2535
  8
SAPA_PROFIL
 10
-39.700000000000557
 20
11.500000415825969
 30
0.0
  0
VERTEX
  5
2536
  8
SAPA_PROFIL
 10
-39.700000000000557
 20
11.40000041582595
 30
0.0
 42
-0.4142135623730951
  0
VERTEX
  5
2537
  8
SAPA_PROFIL
 10
-39.900000000000553
 20
11.20000041582602
 30
0.0
  0
VERTEX
  5
2538
  8
SAPA_PROFIL
 10
-41.500000000000568
 20
11.20000041582596
 30
0.0
 42
-0.4142135623730951
  0
VERTEX
  5
2539
  8
SAPA_PROFIL
 10
-41.70000000000055
 20
11.40000041582595
 30
0.0
  0
VERTEX
  5
253A
  8
SAPA_PROFIL
 10
-41.70000000000055
 20
11.500000415825969
 30
0.0
  0
VERTEX
  5
253B
  8
SAPA_PROFIL
 10
-77.800000000000523
 20
11.50000041582598
 30
0.0
  0
VERTEX
  5
253C
  8
SAPA_PROFIL
 10
-77.800000000000566
 20
11.40000041582595
 30
0.0
 42
-0.4142135623730951
  0
VERTEX
  5
253D
  8
SAPA_PROFIL
 10
-78.000000000000568
 20
11.20000041582602
 30
0.0
  0
VERTEX
  5
253E
  8
SAPA_PROFIL
 10
-79.600000000000591
 20
11.20000041582597
 30
0.0
 42
-0.4142135623730898
  0
VERTEX
  5
253F
  8
SAPA_PROFIL
 10
-79.800000000000523
 20
11.40000041582595
 30
0.0
  0
VERTEX
  5
2540
  8
SAPA_PROFIL
 10
-79.800000000000523
 20
11.50000041582598
 30
0.0
  0
VERTEX
  5
2541
  8
SAPA_PROFIL
 10
-81.500000000000568
 20
11.50000041582603
 30
0.0
 42
0.4142135623730953
  0
VERTEX
  5
2542
  8
SAPA_PROFIL
 10
-81.800000000000523
 20
11.20000041582602
 30
0.0
  0
VERTEX
  5
2543
  8
SAPA_PROFIL
 10
-81.80000000000058
 20
-6.3999996680473137
 30
0.0
 42
0.4142135623730951
  0
VERTEX
  5
2544
  8
SAPA_PROFIL
 10
-81.500000000000568
 20
-6.6999996680473251
 30
0.0
  0
VERTEX
  5
2545
  8
SAPA_PROFIL
 10
-79.800000000000523
 20
-6.6999996680473251
 30
0.0
  0
SEQEND
  5
2546
  8
SAPA_PROFIL
  0
POLYLINE
  5
1A2B
  8
SAPA_PROFIL
 66
     1
 10
0.0
 20
0.0
 30
0.0
 70
     1
  0
VERTEX
  5
2547
  8
SAPA_PROFIL
 10
-33.24648543084232
 20
-50.499999584173992
 30
0.0
  0
VERTEX
  5
2548
  8
SAPA_PROFIL
 10
-37.099271835342371
 20
-50.499999584173992
 30
0.0
 42
-0.414213562372901
  0
VERTEX
  5
2549
  8
SAPA_PROFIL
 10
-37.39927183534224
 20
-50.199999584173923
 30
0.0
  0
VERTEX
  5
254A
  8
SAPA_PROFIL
 10
-37.39927183534229
 20
-49.899999584173742
 30
0.0
  0
VERTEX
  5
254B
  8
SAPA_PROFIL
 10
-36.475511404639008
 20
-48.299999584174067
 30
0.0
 42
0.5773502691897976
  0
VERTEX
  5
254C
  8
SAPA_PROFIL
 10
-36.648716485395767
 20
-47.999999584173992
 30
0.0
  0
VERTEX
  5
254D
  8
SAPA_PROFIL
 10
-38.034357131450918
 20
-47.999999584173992
 30
0.0
 42
0.2679491924311222
  0
VERTEX
  5
254E
  8
SAPA_PROFIL
 10
-38.900382535235337
 20
-48.499999584173842
 30
0.0
  0
VERTEX
  5
254F
  8
SAPA_PROFIL
 10
-39.910745506317433
 20
-50.24999958417402
 30
0.0
 42
-0.2679491924310994
  0
VERTEX
  5
2550
  8
SAPA_PROFIL
 10
-40.343758208209628
 20
-50.49999958417402
 30
0.0
  0
VERTEX
  5
2551
  8
SAPA_PROFIL
 10
-74.356241791791533
 20
-50.499999584173992
 30
0.0
 42
-0.2679491924311005
  0
VERTEX
  5
2552
  8
SAPA_PROFIL
 10
-74.789254493683742
 20
-50.24999958417402
 30
0.0
  0
VERTEX
  5
2553
  8
SAPA_PROFIL
 10
-75.799617464765802
 20
-48.499999584173821
 30
0.0
 42
0.2679491924311199
  0
VERTEX
  5
2554
  8
SAPA_PROFIL
 10
-76.66564286855025
 20
-47.999999584173992
 30
0.0
  0
VERTEX
  5
2555
  8
SAPA_PROFIL
 10
-78.051283514605373
 20
-47.99999958417397
 30
0.0
 42
0.5773502691897738
  0
VERTEX
  5
2556
  8
SAPA_PROFIL
 10
-78.22448859536216
 20
-48.29999958417406
 30
0.0
  0
VERTEX
  5
2557
  8
SAPA_PROFIL
 10
-77.300728164658835
 20
-49.899999584173742
 30
0.0
  0
VERTEX
  5
2558
  8
SAPA_PROFIL
 10
-77.300728164658835
 20
-50.199999584173923
 30
0.0
 42
-0.414213562372901
  0
VERTEX
  5
2559
  8
SAPA_PROFIL
 10
-77.600728164658776
 20
-50.499999584174049
 30
0.0
  0
VERTEX
  5
255A
  8
SAPA_PROFIL
 10
-81.453514569158855
 20
-50.499999584173992
 30
0.0
 42
0.2134217652834299
  0
VERTEX
  5
255B
  8
SAPA_PROFIL
 10
-81.677121366908935
 20
-50.599999584174107
 30
0.0
 42
-0.7625858545243327
  0
VERTEX
  5
255C
  8
SAPA_PROFIL
 10
-82.007447447925969
 20
-50.415420381976652
 30
0.0
  0
VERTEX
  5
255D
  8
SAPA_PROFIL
 10
-81.949373810936876
 20
-50.224037381982917
 30
0.0
  0
VERTEX
  5
255E
  8
SAPA_PROFIL
 10
-80.864809363965136
 20
-48.338193690121869
 30
0.0
  0
VERTEX
  5
255F
  8
SAPA_PROFIL
 10
-80.543051635746863
 20
-48.34875505634885
 30
0.0
 42
0.5773502691897466
  0
VERTEX
  5
2560
  8
SAPA_PROFIL
 10
-80.360097895636713
 20
-48.054598756094002
 30
0.0
  0
VERTEX
  5
2561
  8
SAPA_PROFIL
 10
-80.512231806745447
 20
-47.769916472862363
 30
0.0
 42
0.221694662643014
  0
VERTEX
  5
2562
  8
SAPA_PROFIL
 10
-81.053111638222276
 20
-47.364107567707578
 30
0.0
  0
VERTEX
  5
2563
  8
SAPA_PROFIL
 10
-82.866342108880488
 20
-46.982660971579847
 30
0.0
 42
0.4769755326981641
  0
VERTEX
  5
2564
  8
SAPA_PROFIL
 10
-83.237998983826387
 20
-47.284913796086329
 30
0.0
  0
VERTEX
  5
2565
  8
SAPA_PROFIL
 10
-83.237915375942734
 20
-48.788014876848337
 30
0.0
  0
VERTEX
  5
2566
  8
SAPA_PROFIL
 10
-83.190069625944247
 20
-48.802533286095439
 30
0.0
 42
-0.4142135623730878
  0
VERTEX
  5
2567
  8
SAPA_PROFIL
 10
-82.99010558143685
 20
-49.176718241571251
 30
0.0
  0
VERTEX
  5
2568
  8
SAPA_PROFIL
 10
-83.500000000000526
 20
-50.495951243333067
 30
0.0
  0
VERTEX
  5
2569
  8
SAPA_PROFIL
 10
-83.500000000000554
 20
-61.89999950032643
 30
0.0
 42
-0.4142135623730847
  0
VERTEX
  5
256A
  8
SAPA_PROFIL
 10
-83.700000000000571
 20
-62.099999500326433
 30
0.0
  0
VERTEX
  5
256B
  8
SAPA_PROFIL
 10
-85.299999997931138
 20
-62.099999500326419
 30
0.0
 42
0.4142135623730951
  0
VERTEX
  5
256C
  8
SAPA_PROFIL
 10
-85.499999997931155
 20
-62.299999500326429
 30
0.0
  0
VERTEX
  5
256D
  8
SAPA_PROFIL
 10
-85.499999997931155
 20
-62.799999500326919
 30
0.0
 42
0.4142135623730951
  0
VERTEX
  5
256E
  8
SAPA_PROFIL
 10
-84.499999997931525
 20
-63.799999500326493
 30
0.0
  0
VERTEX
  5
256F
  8
SAPA_PROFIL
 10
-76.999999250856817
 20
-63.799999500326493
 30
0.0
 42
-0.4142135623730951
  0
VERTEX
  5
2570
  8
SAPA_PROFIL
 10
-75.999999997931226
 20
-64.799998753252083
 30
0.0
  0
VERTEX
  5
2571
  8
SAPA_PROFIL
 10
-75.999999997931084
 20
-70.499999584173992
 30
0.0
 42
0.4142135623730951
  0
VERTEX
  5
2572
  8
SAPA_PROFIL
 10
-73.999999997931084
 20
-72.499999584173992
 30
0.0
  0
VERTEX
  5
2573
  8
SAPA_PROFIL
 10
-9.5000000000006146
 20
-72.499999584173992
 30
0.0
 42
0.4142139999999795
  0
VERTEX
  5
2574
  8
SAPA_PROFIL
 10
-9.0000000000006146
 20
-71.999999584173992
 30
0.0
  0
VERTEX
  5
2575
  8
SAPA_PROFIL
 10
-9.0000000000006288
 20
-68.299999584173975
 30
0.0
 42
0.414213999999917
  0
VERTEX
  5
2576
  8
SAPA_PROFIL
 10
-9.3000000000005532
 20
-67.999999584173992
 30
0.0
  0
VERTEX
  5
2577
  8
SAPA_PROFIL
 10
-10.067545000000591
 20
-67.999999584173992
 30
0.0
 42
0.2896899999999867
  0
VERTEX
  5
2578
  8
SAPA_PROFIL
 10
-10.97105300000055
 20
-68.571427584173989
 30
0.0
 42
0.5507600000000635
  0
VERTEX
  5
2579
  8
SAPA_PROFIL
 10
-10.7000000000006
 20
-68.999999584173992
 30
0.0
  0
VERTEX
  5
257A
  8
SAPA_PROFIL
 10
-10.500000000000609
 20
-68.999999584173992
 30
0.0
 42
-0.4142140000000558
  0
VERTEX
  5
257B
  8
SAPA_PROFIL
 10
-10.200000000000539
 20
-69.29999958417396
 30
0.0
  0
VERTEX
  5
257C
  8
SAPA_PROFIL
 10
-10.200000000000591
 20
-70.799999584173975
 30
0.0
 42
-0.4142139999999795
  0
VERTEX
  5
257D
  8
SAPA_PROFIL
 10
-10.7000000000006
 20
-71.29999958417396
 30
0.0
  0
VERTEX
  5
257E
  8
SAPA_PROFIL
 10
-14.000000000000639
 20
-71.299999584173975
 30
0.0
 42
-0.4142140000000003
  0
VERTEX
  5
257F
  8
SAPA_PROFIL
 10
-14.50000000000068
 20
-70.799999584173975
 30
0.0
  0
VERTEX
  5
2580
  8
SAPA_PROFIL
 10
-14.500000000000639
 20
-69.299999584173975
 30
0.0
 42
-0.4142140000000143
  0
VERTEX
  5
2581
  8
SAPA_PROFIL
 10
-14.20000000000057
 20
-68.999999584173949
 30
0.0
  0
VERTEX
  5
2582
  8
SAPA_PROFIL
 10
-14.000000000000639
 20
-68.999999584173992
 30
0.0
 42
0.5507599999999967
  0
VERTEX
  5
2583
  8
SAPA_PROFIL
 10
-13.72894800000064
 20
-68.571427584173975
 30
0.0
 42
0.2896899999999865
  0
VERTEX
  5
2584
  8
SAPA_PROFIL
 10
-14.632456000000561
 20
-67.999999584173992
 30
0.0
  0
VERTEX
  5
2585
  8
SAPA_PROFIL
 10
-15.629927000000549
 20
-67.999999584173992
 30
0.0
 42
0.0436609999999814
  0
VERTEX
  5
2586
  8
SAPA_PROFIL
 10
-15.716752000000531
 20
-68.007595584173998
 30
0.0
  0
VERTEX
  5
2587
  8
SAPA_PROFIL
 10
-17.28682400000055
 20
-68.284441584173933
 30
0.0
 42
0.839099999999982
  0
VERTEX
  5
2588
  8
SAPA_PROFIL
 10
-17.28682400000055
 20
-69.269249584174005
 30
0.0
  0
VERTEX
  5
2589
  8
SAPA_PROFIL
 10
-16.11317600000055
 20
-69.476194584173982
 30
0.0
 42
-0.3639700000000465
  0
VERTEX
  5
258A
  8
SAPA_PROFIL
 10
-15.700000000000561
 20
-69.968598584174003
 30
0.0
  0
VERTEX
  5
258B
  8
SAPA_PROFIL
 10
-15.700000000000561
 20
-70.779999584173964
 30
0.0
 42
-0.4373279999999983
  0
VERTEX
  5
258C
  8
SAPA_PROFIL
 10
-16.23909500000056
 20
-71.278468584174021
 30
0.0
  0
VERTEX
  5
258D
  8
SAPA_PROFIL
 10
-30.712153273416959
 20
-70.711670097778139
 30
0.0
 42
-0.4023941355297885
  0
VERTEX
  5
258E
  8
SAPA_PROFIL
 10
-31.000000000000679
 20
-70.411916368951807
 30
0.0
  0
VERTEX
  5
258F
  8
SAPA_PROFIL
 10
-31.00000000000065
 20
-69.611382584173981
 30
0.0
 42
0.2596810000001162
  0
VERTEX
  5
2590
  8
SAPA_PROFIL
 10
-31.09469300000066
 20
-69.441351584173987
 30
0.0
  0
VERTEX
  5
2591
  8
SAPA_PROFIL
 10
-32.542040000000561
 20
-68.544952584173984
 30
0.0
 42
0.5877030000000189
  0
VERTEX
  5
2592
  8
SAPA_PROFIL
 10
-33.000000000000647
 20
-68.799999584174003
 30
0.0
  0
VERTEX
  5
2593
  8
SAPA_PROFIL
 10
-33.000000000000647
 20
-70.19999958417398
 30
0.0
 42
-0.4142139999999518
  0
VERTEX
  5
2594
  8
SAPA_PROFIL
 10
-33.300000000000551
 20
-70.499999584173963
 30
0.0
  0
VERTEX
  5
2595
  8
SAPA_PROFIL
 10
-35.700000000000557
 20
-70.499999584173992
 30
0.0
 42
-0.4142140000000629
  0
VERTEX
  5
2596
  8
SAPA_PROFIL
 10
-36.000000000000597
 20
-70.19999958417398
 30
0.0
  0
VERTEX
  5
2597
  8
SAPA_PROFIL
 10
-36.000000000000632
 20
-52.799999584174003
 30
0.0
 42
-0.4142140000001044
  0
VERTEX
  5
2598
  8
SAPA_PROFIL
 10
-35.700000000000557
 20
-52.499999584173899
 30
0.0
  0
VERTEX
  5
2599
  8
SAPA_PROFIL
 10
-33.300000000000551
 20
-52.499999584173992
 30
0.0
 42
-0.4142140000000074
  0
VERTEX
  5
259A
  8
SAPA_PROFIL
 10
-33.000000000000682
 20
-52.799999584174003
 30
0.0
  0
VERTEX
  5
259B
  8
SAPA_PROFIL
 10
-33.000000000000682
 20
-54.19999958417398
 30
0.0
 42
0.5920054160709848
  0
VERTEX
  5
259C
  8
SAPA_PROFIL
 10
-32.538796661885733
 20
-54.45300809693174
 30
0.0
  0
VERTEX
  5
259D
  8
SAPA_PROFIL
 10
-31.292531005672771
 20
-53.658955067110071
 30
0.0
 42
0.2562769852931301
  0
VERTEX
  5
259E
  8
SAPA_PROFIL
 10
-31.200000000000639
 20
-53.490282558211469
 30
0.0
  0
VERTEX
  5
259F
  8
SAPA_PROFIL
 10
-31.200000000000639
 20
-50.49595124333247
 30
0.0
  0
VERTEX
  5
25A0
  8
SAPA_PROFIL
 10
-31.709894418564058
 20
-49.176718241571251
 30
0.0
 42
-0.4142135623730872
  0
VERTEX
  5
25A1
  8
SAPA_PROFIL
 10
-31.509930374056669
 20
-48.802533286095439
 30
0.0
  0
VERTEX
  5
25A2
  8
SAPA_PROFIL
 10
-31.462084624058178
 20
-48.788014876848337
 30
0.0
  0
VERTEX
  5
25A3
  8
SAPA_PROFIL
 10
-31.462001016174561
 20
-47.284913796086329
 30
0.0
 42
0.4769755326981643
  0
VERTEX
  5
25A4
  8
SAPA_PROFIL
 10
-31.833657891120399
 20
-46.982660971579847
 30
0.0
  0
VERTEX
  5
25A5
  8
SAPA_PROFIL
 10
-33.646888361778679
 20
-47.364107567707563
 30
0.0
 42
0.221694662643016
  0
VERTEX
  5
25A6
  8
SAPA_PROFIL
 10
-34.187768193255437
 20
-47.76991647286237
 30
0.0
  0
VERTEX
  5
25A7
  8
SAPA_PROFIL
 10
-34.339902104364199
 20
-48.054598756094023
 30
0.0
 42
0.5773502691897466
  0
VERTEX
  5
25A8
  8
SAPA_PROFIL
 10
-34.156948364254021
 20
-48.348755056348828
 30
0.0
  0
VERTEX
  5
25A9
  8
SAPA_PROFIL
 10
-33.835190636035783
 20
-48.338193690121869
 30
0.0
  0
VERTEX
  5
25AA
  8
SAPA_PROFIL
 10
-32.750626189064043
 20
-50.224037381982917
 30
0.0
  0
VERTEX
  5
25AB
  8
SAPA_PROFIL
 10
-32.692552552074943
 20
-50.415420381976652
 30
0.0
 42
-0.7625858545243331
  0
VERTEX
  5
25AC
  8
SAPA_PROFIL
 10
-33.022878633091949
 20
-50.599999584174107
 30
0.0
 42
0.2134217652834442
  0
SEQEND
  5
25AD
  8
SAPA_PROFIL
  0
POLYLINE
  5
1A2C
  8
SAPA_PROFIL
 66
     1
 10
0.0
 20
0.0
 30
0.0
 70
     1
  0
VERTEX
  5
25AE
  8
SAPA_PROFIL
 10
-71.999999957931124
 20
-52.599999584173993
 30
0.0
 42
0.4142135623730951
  0
VERTEX
  5
25AF
  8
SAPA_PROFIL
 10
-71.799999957931121
 20
-52.799999584174003
 30
0.0
  0
VERTEX
  5
25B0
  8
SAPA_PROFIL
 10
-70.199999957931055
 20
-52.799999584173968
 30
0.0
 42
0.4142135623730951
  0
VERTEX
  5
25B1
  8
SAPA_PROFIL
 10
-69.999999957931081
 20
-52.599999584173993
 30
0.0
  0
VERTEX
  5
25B2
  8
SAPA_PROFIL
 10
-69.999999957931081
 20
-52.299999500300693
 30
0.0
  0
VERTEX
  5
25B3
  8
SAPA_PROFIL
 10
-41.70000000000055
 20
-52.299999500300693
 30
0.0
  0
VERTEX
  5
25B4
  8
SAPA_PROFIL
 10
-41.70000000000055
 20
-52.599999584173993
 30
0.0
 42
0.4142135623730951
  0
VERTEX
  5
25B5
  8
SAPA_PROFIL
 10
-41.500000000000568
 20
-52.799999584174003
 30
0.0
  0
VERTEX
  5
25B6
  8
SAPA_PROFIL
 10
-39.900000000000553
 20
-52.799999584173968
 30
0.0
 42
0.4142135623730951
  0
VERTEX
  5
25B7
  8
SAPA_PROFIL
 10
-39.700000000000557
 20
-52.599999584173993
 30
0.0
  0
VERTEX
  5
25B8
  8
SAPA_PROFIL
 10
-39.700000000000557
 20
-52.299999500300693
 30
0.0
  0
VERTEX
  5
25B9
  8
SAPA_PROFIL
 10
-38.000000000000568
 20
-52.299999500300693
 30
0.0
 42
-0.4142135623730951
  0
VERTEX
  5
25BA
  8
SAPA_PROFIL
 10
-37.700000000000557
 20
-52.59999950030064
 30
0.0
  0
VERTEX
  5
25BB
  8
SAPA_PROFIL
 10
-37.700000000000557
 20
-70.19999958417398
 30
0.0
 42
-0.4142135623730951
  0
VERTEX
  5
25BC
  8
SAPA_PROFIL
 10
-38.000000000000568
 20
-70.499999584173992
 30
0.0
  0
VERTEX
  5
25BD
  8
SAPA_PROFIL
 10
-39.700000000000557
 20
-70.499999584173992
 30
0.0
  0
VERTEX
  5
25BE
  8
SAPA_PROFIL
 10
-39.700000000000557
 20
-70.399999584173955
 30
0.0
 42
0.4142135623730951
  0
VERTEX
  5
25BF
  8
SAPA_PROFIL
 10
-39.900000000000553
 20
-70.19999958417398
 30
0.0
  0
VERTEX
  5
25C0
  8
SAPA_PROFIL
 10
-41.500000000000568
 20
-70.19999958417398
 30
0.0
 42
0.4142135623730951
  0
VERTEX
  5
25C1
  8
SAPA_PROFIL
 10
-41.70000000000055
 20
-70.399999584173955
 30
0.0
  0
VERTEX
  5
25C2
  8
SAPA_PROFIL
 10
-41.70000000000055
 20
-70.499999584173992
 30
0.0
  0
VERTEX
  5
25C3
  8
SAPA_PROFIL
 10
-69.999999957931081
 20
-70.499999584173992
 30
0.0
  0
VERTEX
  5
25C4
  8
SAPA_PROFIL
 10
-69.999999957931081
 20
-70.399999584173955
 30
0.0
 42
0.4142135623730951
  0
VERTEX
  5
25C5
  8
SAPA_PROFIL
 10
-70.199999957931055
 20
-70.19999958417398
 30
0.0
  0
VERTEX
  5
25C6
  8
SAPA_PROFIL
 10
-71.799999957931121
 20
-70.199999584173995
 30
0.0
 42
0.4142135623730951
  0
VERTEX
  5
25C7
  8
SAPA_PROFIL
 10
-71.999999957931081
 20
-70.399999584173955
 30
0.0
  0
VERTEX
  5
25C8
  8
SAPA_PROFIL
 10
-71.999999957931081
 20
-70.499999584173992
 30
0.0
  0
VERTEX
  5
25C9
  8
SAPA_PROFIL
 10
-73.999999997931113
 20
-70.499999584173992
 30
0.0
 42
-0.4142135623732158
  0
VERTEX
  5
25CA
  8
SAPA_PROFIL
 10
-74.299999997931209
 20
-70.199999584173995
 30
0.0
  0
VERTEX
  5
25CB
  8
SAPA_PROFIL
 10
-74.299999997931153
 20
-64.799998753252083
 30
0.0
 42
0.4142135623730951
  0
VERTEX
  5
25CC
  8
SAPA_PROFIL
 10
-76.999999250856817
 20
-62.099999500326419
 30
0.0
  0
VERTEX
  5
25CD
  8
SAPA_PROFIL
 10
-81.500000000000583
 20
-62.099999500326419
 30
0.0
 42
-0.4142135623730951
  0
VERTEX
  5
25CE
  8
SAPA_PROFIL
 10
-81.800000000000566
 20
-61.799999500326443
 30
0.0
  0
VERTEX
  5
25CF
  8
SAPA_PROFIL
 10
-81.800000000000566
 20
-52.59999950030064
 30
0.0
 42
-0.4142135623730951
  0
VERTEX
  5
25D0
  8
SAPA_PROFIL
 10
-81.500000000000554
 20
-52.299999500300693
 30
0.0
  0
VERTEX
  5
25D1
  8
SAPA_PROFIL
 10
-71.999999957931081
 20
-52.299999500300693
 30
0.0
  0
SEQEND
  5
25D2
  8
SAPA_PROFIL
  0
POLYLINE
  5
1A2D
  8
SAPA_PROFIL
 62
     4
 66
     1
 10
0.0
 20
0.0
 30
0.0
  0
VERTEX
  5
25D3
  8
SAPA_PROFIL
 62
     4
 10
-33.932281085847563
 20
-38.549328706613672
 30
0.0
 42
-0.5571646428658034
  0
VERTEX
  5
25D4
  8
SAPA_PROFIL
 62
     4
 10
-34.800000000003124
 20
-38.012368202476843
 30
0.0
  0
VERTEX
  5
25D5
  8
SAPA_PROFIL
 62
     4
 10
-34.800000000002647
 20
-20.987630965955649
 30
0.0
 42
-0.5571645048035741
  0
VERTEX
  5
25D6
  8
SAPA_PROFIL
 62
     4
 10
-33.932281312136489
 20
-20.450670348994588
 30
0.0
  0
VERTEX
  5
25D7
  8
SAPA_PROFIL
 62
     4
 10
-32.266140656068458
 20
-21.281377436541291
 30
0.0
 42
-0.284385813979063
  0
VERTEX
  5
25D8
  8
SAPA_PROFIL
 62
     4
 10
-32.100000000001017
 20
-21.54985774502163
 30
0.0
  0
VERTEX
  5
25D9
  8
SAPA_PROFIL
 62
     4
 10
-32.100000000001017
 20
-37.450141423410948
 30
0.0
 42
-0.2843858139786238
  0
VERTEX
  5
25DA
  8
SAPA_PROFIL
 62
     4
 10
-32.266140656067961
 20
-37.718621731891233
 30
0.0
  0
VERTEX
  5
25DB
  8
SAPA_PROFIL
 62
     4
 10
-33.932281312137299
 20
-38.549328819438401
 30
0.0
  0
SEQEND
  5
25DC
  8
SAPA_PROFIL
 62
     4
  0
POLYLINE
  5
1A2E
  8
SAPA_PROFIL
 62
     4
 66
     1
 10
0.0
 20
0.0
 30
0.0
 70
     1
  0
VERTEX
  5
25DD
  8
SAPA_PROFIL
 62
     4
 10
-31.74316848550345
 20
-15.082388399549
 30
0.0
  0
VERTEX
  5
25DE
  8
SAPA_PROFIL
 62
     4
 10
-31.336608289499299
 20
-14.818365121172979
 30
0.0
 42
0.2539676464751066
  0
VERTEX
  5
25DF
  8
SAPA_PROFIL
 62
     4
 10
-31.2000000000032
 20
-14.56676395078828
 30
0.0
  0
VERTEX
  5
25E0
  8
SAPA_PROFIL
 62
     4
 10
-31.2000000000032
 20
-13.185264365582929
 30
0.0
 42
0.3152987888790479
  0
VERTEX
  5
25E1
  8
SAPA_PROFIL
 62
     4
 10
-31.52898992834136
 20
-12.71541805519062
 30
0.0
  0
VERTEX
  5
25E2
  8
SAPA_PROFIL
 62
     4
 10
-33.989820118792643
 20
-11.819749114282009
 30
0.0
 42
-0.2694959974287434
  0
VERTEX
  5
25E3
  8
SAPA_PROFIL
 62
     4
 10
-34.182952093136528
 20
-11.58823006788066
 30
0.0
 42
-0.0612686379508233
  0
VERTEX
  5
25E4
  8
SAPA_PROFIL
 62
     4
 10
-34.196535463767049
 20
-11.295554635027379
 30
0.0
  0
VERTEX
  5
25E5
  8
SAPA_PROFIL
 62
     4
 10
-34.39827214249587
 20
-10.94613645771911
 30
0.0
 42
-0.5773502691891679
  0
VERTEX
  5
25E6
  8
SAPA_PROFIL
 62
     4
 10
-34.216406807701297
 20
-10.631136457719521
 30
0.0
  0
VERTEX
  5
25E7
  8
SAPA_PROFIL
 62
     4
 10
-33.949292279574983
 20
-10.631136457719281
 30
0.0
  0
VERTEX
  5
25E8
  8
SAPA_PROFIL
 62
     4
 10
-33.140608818266671
 20
-9.2326087570850301
 30
0.0
 42
0.1318219888653519
  0
VERTEX
  5
25E9
  8
SAPA_PROFIL
 62
     4
 10
-33.100316421729282
 20
-9.0824356546126879
 30
0.0
  0
VERTEX
  5
25EA
  8
SAPA_PROFIL
 62
     4
 10
-33.100316421735641
 20
-8.8999995841759088
 30
0.0
 42
0.4142135623724291
  0
VERTEX
  5
25EB
  8
SAPA_PROFIL
 62
     4
 10
-33.500316421735278
 20
-8.4999995841753631
 30
0.0
  0
VERTEX
  5
25EC
  8
SAPA_PROFIL
 62
     4
 10
-36.900316421736278
 20
-8.4999995841767273
 30
0.0
 42
0.4142135623744271
  0
VERTEX
  5
25ED
  8
SAPA_PROFIL
 62
     4
 10
-37.300316421737278
 20
-8.8999995841759088
 30
0.0
  0
VERTEX
  5
25EE
  8
SAPA_PROFIL
 62
     4
 10
-37.300316421737918
 20
-9.0796148264472123
 30
0.0
 42
0.1316524975874005
  0
VERTEX
  5
25EF
  8
SAPA_PROFIL
 62
     4
 10
-37.26012404287232
 20
-9.2296148264440276
 30
0.0
  0
VERTEX
  5
25F0
  8
SAPA_PROFIL
 62
     4
 10
-36.333974596219782
 20
-10.833752723446279
 30
0.0
 42
-0.1316524975875904
  0
VERTEX
  5
25F1
  8
SAPA_PROFIL
 62
     4
 10
-36.200000000005019
 20
-11.33375272344799
 30
0.0
  0
VERTEX
  5
25F2
  8
SAPA_PROFIL
 62
     4
 10
-36.200000000005019
 20
-11.74999958417536
 30
0.0
 42
-0.4142135623730951
  0
VERTEX
  5
25F3
  8
SAPA_PROFIL
 62
     4
 10
-37.200000000005019
 20
-12.74999958417536
 30
0.0
  0
VERTEX
  5
25F4
  8
SAPA_PROFIL
 62
     4
 10
-40.200000000002291
 20
-12.74999958417536
 30
0.0
 42
0.9999996830128083
  0
VERTEX
  5
25F5
  8
SAPA_PROFIL
 62
     4
 10
-40.200000000004103
 20
-13.74999958417536
 30
0.0
  0
VERTEX
  5
25F6
  8
SAPA_PROFIL
 62
     4
 10
-37.20000000000411
 20
-13.74999958417536
 30
0.0
 42
-0.4142135623730951
  0
VERTEX
  5
25F7
  8
SAPA_PROFIL
 62
     4
 10
-36.20000000000411
 20
-14.74999958417536
 30
0.0
  0
VERTEX
  5
25F8
  8
SAPA_PROFIL
 62
     4
 10
-36.200000000004117
 20
-44.249999584259953
 30
0.0
 42
-0.4142135623730951
  0
VERTEX
  5
25F9
  8
SAPA_PROFIL
 62
     4
 10
-37.200000000004117
 20
-45.249999584259939
 30
0.0
  0
VERTEX
  5
25FA
  8
SAPA_PROFIL
 62
     4
 10
-40.200000000002291
 20
-45.249999584259939
 30
0.0
 42
0.9999999999999998
  0
VERTEX
  5
25FB
  8
SAPA_PROFIL
 62
     4
 10
-40.200000000002291
 20
-46.249999584259939
 30
0.0
  0
VERTEX
  5
25FC
  8
SAPA_PROFIL
 62
     4
 10
-37.200000000004117
 20
-46.249999584259939
 30
0.0
 42
-0.4142135623736278
  0
VERTEX
  5
25FD
  8
SAPA_PROFIL
 62
     4
 10
-36.200000000004117
 20
-47.249999584259939
 30
0.0
  0
VERTEX
  5
25FE
  8
SAPA_PROFIL
 62
     4
 10
-36.200000000004117
 20
-47.666246444986399
 30
0.0
 42
-0.1316524975874375
  0
VERTEX
  5
25FF
  8
SAPA_PROFIL
 62
     4
 10
-36.333974596220152
 20
-48.166246444986598
 30
0.0
  0
VERTEX
  5
2600
  8
SAPA_PROFIL
 62
     4
 10
-37.260124042872327
 20
-49.770384341988553
 30
0.0
 42
0.1316524975874
  0
VERTEX
  5
2601
  8
SAPA_PROFIL
 62
     4
 10
-37.300316421737918
 20
-49.920384341988097
 30
0.0
  0
VERTEX
  5
2602
  8
SAPA_PROFIL
 62
     4
 10
-37.300316421737293
 20
-50.0999995842594
 30
0.0
 42
0.4142135623744271
  0
VERTEX
  5
2603
  8
SAPA_PROFIL
 62
     4
 10
-36.900316421736292
 20
-50.499999584258582
 30
0.0
  0
VERTEX
  5
2604
  8
SAPA_PROFIL
 62
     4
 10
-33.500316421735292
 20
-50.499999584259953
 30
0.0
 42
0.4142135623724291
  0
VERTEX
  5
2605
  8
SAPA_PROFIL
 62
     4
 10
-33.100316421735648
 20
-50.0999995842594
 30
0.0
  0
VERTEX
  5
2606
  8
SAPA_PROFIL
 62
     4
 10
-33.100316421729289
 20
-49.917563513822621
 30
0.0
 42
0.1318219888653524
  0
VERTEX
  5
2607
  8
SAPA_PROFIL
 62
     4
 10
-33.140608818266671
 20
-49.767390411350277
 30
0.0
  0
VERTEX
  5
2608
  8
SAPA_PROFIL
 62
     4
 10
-33.949292279491011
 20
-48.368862710870623
 30
0.0
  0
VERTEX
  5
2609
  8
SAPA_PROFIL
 62
     4
 10
-34.216406807704047
 20
-48.368862710870623
 30
0.0
 42
-0.577350269189159
  0
VERTEX
  5
260A
  8
SAPA_PROFIL
 62
     4
 10
-34.39827214249862
 20
-48.053862710871023
 30
0.0
  0
VERTEX
  5
260B
  8
SAPA_PROFIL
 62
     4
 10
-34.196535463821498
 20
-47.704444533652357
 30
0.0
 42
-0.0612687673629489
  0
VERTEX
  5
260C
  8
SAPA_PROFIL
 62
     4
 10
-34.182952093135299
 20
-47.411769100552149
 30
0.0
 42
-0.2694959974285039
  0
VERTEX
  5
260D
  8
SAPA_PROFIL
 62
     4
 10
-33.98982011879135
 20
-47.180250054151628
 30
0.0
  0
VERTEX
  5
260E
  8
SAPA_PROFIL
 62
     4
 10
-31.528989928338191
 20
-46.284581113241963
 30
0.0
 42
0.3152987888784035
  0
VERTEX
  5
260F
  8
SAPA_PROFIL
 62
     4
 10
-31.200000000001609
 20
-45.81473480284874
 30
0.0
  0
VERTEX
  5
2610
  8
SAPA_PROFIL
 62
     4
 10
-31.200000000003211
 20
-44.433235217644302
 30
0.0
 42
0.2539676464741841
  0
VERTEX
  5
2611
  8
SAPA_PROFIL
 62
     4
 10
-31.336608289498479
 20
-44.181634047260218
 30
0.0
  0
VERTEX
  5
2612
  8
SAPA_PROFIL
 62
     4
 10
-31.74316848550346
 20
-43.917610768883577
 30
0.0
 42
0.5862177598324623
  0
VERTEX
  5
2613
  8
SAPA_PROFIL
 62
     4
 10
-32.19999999999996
 20
-44.173352584121929
 30
0.0
  0
VERTEX
  5
2614
  8
SAPA_PROFIL
 62
     4
 10
-32.199999999992301
 20
-45.114527264631739
 30
0.0
 42
-0.3152987888813165
  0
VERTEX
  5
2615
  8
SAPA_PROFIL
 62
     4
 10
-32.528989928329047
 20
-45.584373575029488
 30
0.0
  0
VERTEX
  5
2616
  8
SAPA_PROFIL
 62
     4
 10
-33.728989928340283
 20
-46.021137856153452
 30
0.0
 42
-0.5205670505515651
  0
VERTEX
  5
2617
  8
SAPA_PROFIL
 62
     4
 10
-34.400000000003033
 20
-45.551291545760229
 30
0.0
  0
VERTEX
  5
2618
  8
SAPA_PROFIL
 62
     4
 10
-34.400000000003047
 20
-40.534850605091378
 30
0.0
 42
-0.3702522326300203
  0
VERTEX
  5
2619
  8
SAPA_PROFIL
 62
     4
 10
-34.145540047337342
 20
-40.238327243298038
 30
0.0
 42
-0.0982365330332397
  0
VERTEX
  5
261A
  8
SAPA_PROFIL
 62
     4
 10
-32.457853272342341
 20
-40.147874485087108
 30
0.0
 42
-0.3735060174783164
  0
VERTEX
  5
261B
  8
SAPA_PROFIL
 62
     4
 10
-32.200000000002312
 20
-40.444899152998083
 30
0.0
  0
VERTEX
  5
261C
  8
SAPA_PROFIL
 62
     4
 10
-32.200000000001388
 20
-40.873352584120738
 30
0.0
 42
0.5920056181162531
  0
VERTEX
  5
261D
  8
SAPA_PROFIL
 62
     4
 10
-31.738796497473469
 20
-41.126361340438137
 30
0.0
  0
VERTEX
  5
261E
  8
SAPA_PROFIL
 62
     4
 10
-31.336608289495171
 20
-40.865177264282437
 30
0.0
 42
0.2539676464746725
  0
VERTEX
  5
261F
  8
SAPA_PROFIL
 62
     4
 10
-31.199999999999811
 20
-40.613576093898679
 30
0.0
  0
VERTEX
  5
2620
  8
SAPA_PROFIL
 62
     4
 10
-31.200000000001381
 20
-18.386423074532988
 30
0.0
 42
0.2539676464741819
  0
VERTEX
  5
2621
  8
SAPA_PROFIL
 62
     4
 10
-31.33660828949516
 20
-18.13482190415014
 30
0.0
  0
VERTEX
  5
2622
  8
SAPA_PROFIL
 62
     4
 10
-31.738796497473501
 20
-17.873637827996319
 30
0.0
 42
0.5920055144124249
  0
VERTEX
  5
2623
  8
SAPA_PROFIL
 62
     4
 10
-32.200000000001381
 20
-18.126646584311828
 30
0.0
  0
VERTEX
  5
2624
  8
SAPA_PROFIL
 62
     4
 10
-32.199999974726367
 20
-18.555100061602051
 30
0.0
 42
-0.3735060174775405
  0
VERTEX
  5
2625
  8
SAPA_PROFIL
 62
     4
 10
-32.457853247066467
 20
-18.85212472951174
 30
0.0
 42
-0.0355900683670349
  0
VERTEX
  5
2626
  8
SAPA_PROFIL
 62
     4
 10
-33.073726833866253
 20
-18.896018293543989
 30
0.0
 42
-0.0624282003873116
  0
VERTEX
  5
2627
  8
SAPA_PROFIL
 62
     4
 10
-34.145540022061383
 20
-18.761671971301048
 30
0.0
 42
-0.3702522326309292
  0
VERTEX
  5
2628
  8
SAPA_PROFIL
 62
     4
 10
-34.399999974727102
 20
-18.465148609507679
 30
0.0
  0
VERTEX
  5
2629
  8
SAPA_PROFIL
 62
     4
 10
-34.400000000003239
 20
-13.448707622674171
 30
0.0
 42
-0.5205670505515692
  0
VERTEX
  5
262A
  8
SAPA_PROFIL
 62
     4
 10
-33.728989928340269
 20
-12.97886131228095
 30
0.0
  0
VERTEX
  5
262B
  8
SAPA_PROFIL
 62
     4
 10
-32.528989928330823
 20
-13.415625593405901
 30
0.0
 42
-0.3152987888807539
  0
VERTEX
  5
262C
  8
SAPA_PROFIL
 62
     4
 10
-32.199999999993203
 20
-13.885471903801751
 30
0.0
  0
VERTEX
  5
262D
  8
SAPA_PROFIL
 62
     4
 10
-32.200000000000017
 20
-14.826646584310829
 30
0.0
 42
0.5862175119221242
  0
VERTEX
  5
262E
  8
SAPA_PROFIL
 62
     4
 10
-31.743168674244881
 20
-15.08238851529279
 30
0.0
 42
-0.0000002084758573
  0
SEQEND
  5
262F
  8
SAPA_PROFIL
 62
     4
  0
POLYLINE
  5
1A2F
  8
SAPA_PROFIL
 62
     4
 66
     1
 10
0.0
 20
0.0
 30
0.0
  0
VERTEX
  5
2630
  8
SAPA_PROFIL
 62
     4
 10
-80.767718914153605
 20
-38.549328706613672
 30
0.0
 42
0.5571646428658034
  0
VERTEX
  5
2631
  8
SAPA_PROFIL
 62
     4
 10
-79.899999999998059
 20
-38.012368202476843
 30
0.0
  0
VERTEX
  5
2632
  8
SAPA_PROFIL
 62
     4
 10
-79.899999999998514
 20
-20.987630965955638
 30
0.0
 42
0.5571645048035741
  0
VERTEX
  5
2633
  8
SAPA_PROFIL
 62
     4
 10
-80.767718687864686
 20
-20.450670348994581
 30
0.0
  0
VERTEX
  5
2634
  8
SAPA_PROFIL
 62
     4
 10
-82.433859343932724
 20
-21.28137743654128
 30
0.0
 42
0.284385813979063
  0
VERTEX
  5
2635
  8
SAPA_PROFIL
 62
     4
 10
-82.600000000000151
 20
-21.54985774502163
 30
0.0
  0
VERTEX
  5
2636
  8
SAPA_PROFIL
 62
     4
 10
-82.600000000000151
 20
-37.45014142341094
 30
0.0
 42
0.2843858139786238
  0
VERTEX
  5
2637
  8
SAPA_PROFIL
 62
     4
 10
-82.433859343933207
 20
-37.718621731891233
 30
0.0
  0
VERTEX
  5
2638
  8
SAPA_PROFIL
 62
     4
 10
-80.767718687863876
 20
-38.549328819438387
 30
0.0
  0
SEQEND
  5
2639
  8
SAPA_PROFIL
 62
     4
  0
POLYLINE
  5
1A30
  8
SAPA_PROFIL
 62
     4
 66
     1
 10
0.0
 20
0.0
 30
0.0
 70
     1
  0
VERTEX
  5
263A
  8
SAPA_PROFIL
 62
     4
 10
-82.956831514497722
 20
-15.082388399548989
 30
0.0
  0
VERTEX
  5
263B
  8
SAPA_PROFIL
 62
     4
 10
-83.363391710501872
 20
-14.818365121172979
 30
0.0
 42
-0.2539676464751066
  0
VERTEX
  5
263C
  8
SAPA_PROFIL
 62
     4
 10
-83.499999999997968
 20
-14.566763950788269
 30
0.0
  0
VERTEX
  5
263D
  8
SAPA_PROFIL
 62
     4
 10
-83.499999999997968
 20
-13.18526436558292
 30
0.0
 42
-0.3152987888790479
  0
VERTEX
  5
263E
  8
SAPA_PROFIL
 62
     4
 10
-83.171010071659794
 20
-12.715418055190611
 30
0.0
  0
VERTEX
  5
263F
  8
SAPA_PROFIL
 62
     4
 10
-80.710179881208532
 20
-11.819749114282001
 30
0.0
 42
0.2694959974287434
  0
VERTEX
  5
2640
  8
SAPA_PROFIL
 62
     4
 10
-80.517047906864633
 20
-11.58823006788065
 30
0.0
 42
0.0612686379508233
  0
VERTEX
  5
2641
  8
SAPA_PROFIL
 62
     4
 10
-80.503464536234105
 20
-11.29555463502737
 30
0.0
  0
VERTEX
  5
2642
  8
SAPA_PROFIL
 62
     4
 10
-80.301727857505284
 20
-10.946136457719099
 30
0.0
 42
0.5773502691891679
  0
VERTEX
  5
2643
  8
SAPA_PROFIL
 62
     4
 10
-80.483593192299864
 20
-10.631136457719521
 30
0.0
  0
VERTEX
  5
2644
  8
SAPA_PROFIL
 62
     4
 10
-80.750707720426178
 20
-10.631136457719281
 30
0.0
  0
VERTEX
  5
2645
  8
SAPA_PROFIL
 62
     4
 10
-81.559391181734483
 20
-9.2326087570850248
 30
0.0
 42
-0.1318219888653519
  0
VERTEX
  5
2646
  8
SAPA_PROFIL
 62
     4
 10
-81.599683578271893
 20
-9.0824356546126808
 30
0.0
  0
VERTEX
  5
2647
  8
SAPA_PROFIL
 62
     4
 10
-81.599683578265527
 20
-8.8999995841759016
 30
0.0
 42
-0.4142135623724291
  0
VERTEX
  5
2648
  8
SAPA_PROFIL
 62
     4
 10
-81.199683578265891
 20
-8.4999995841753542
 30
0.0
  0
VERTEX
  5
2649
  8
SAPA_PROFIL
 62
     4
 10
-77.79968357826489
 20
-8.4999995841767202
 30
0.0
 42
-0.4142135623744271
  0
VERTEX
  5
264A
  8
SAPA_PROFIL
 62
     4
 10
-77.39968357826389
 20
-8.8999995841759016
 30
0.0
  0
VERTEX
  5
264B
  8
SAPA_PROFIL
 62
     4
 10
-77.39968357826325
 20
-9.0796148264472052
 30
0.0
 42
-0.1316524975874005
  0
VERTEX
  5
264C
  8
SAPA_PROFIL
 62
     4
 10
-77.439875957128834
 20
-9.2296148264440205
 30
0.0
  0
VERTEX
  5
264D
  8
SAPA_PROFIL
 62
     4
 10
-78.366025403781364
 20
-10.83375272344627
 30
0.0
 42
0.1316524975875904
  0
VERTEX
  5
264E
  8
SAPA_PROFIL
 62
     4
 10
-78.499999999996149
 20
-11.333752723447979
 30
0.0
  0
VERTEX
  5
264F
  8
SAPA_PROFIL
 62
     4
 10
-78.499999999996149
 20
-11.749999584175351
 30
0.0
 42
0.4142135623730951
  0
VERTEX
  5
2650
  8
SAPA_PROFIL
 62
     4
 10
-77.499999999996149
 20
-12.749999584175351
 30
0.0
  0
VERTEX
  5
2651
  8
SAPA_PROFIL
 62
     4
 10
-74.499999999998877
 20
-12.749999584175351
 30
0.0
 42
-0.9999996830128083
  0
VERTEX
  5
2652
  8
SAPA_PROFIL
 62
     4
 10
-74.499999999997058
 20
-13.749999584175351
 30
0.0
  0
VERTEX
  5
2653
  8
SAPA_PROFIL
 62
     4
 10
-77.499999999997058
 20
-13.749999584175351
 30
0.0
 42
0.4142135623730951
  0
VERTEX
  5
2654
  8
SAPA_PROFIL
 62
     4
 10
-78.499999999997058
 20
-14.749999584175351
 30
0.0
  0
VERTEX
  5
2655
  8
SAPA_PROFIL
 62
     4
 10
-78.499999999997058
 20
-44.249999584259939
 30
0.0
 42
0.4142135623730951
  0
VERTEX
  5
2656
  8
SAPA_PROFIL
 62
     4
 10
-77.499999999997058
 20
-45.249999584259932
 30
0.0
  0
VERTEX
  5
2657
  8
SAPA_PROFIL
 62
     4
 10
-74.499999999998877
 20
-45.249999584259932
 30
0.0
 42
-0.9999999999999998
  0
VERTEX
  5
2658
  8
SAPA_PROFIL
 62
     4
 10
-74.499999999998877
 20
-46.249999584259939
 30
0.0
  0
VERTEX
  5
2659
  8
SAPA_PROFIL
 62
     4
 10
-77.499999999997058
 20
-46.249999584259939
 30
0.0
 42
0.4142135623736278
  0
VERTEX
  5
265A
  8
SAPA_PROFIL
 62
     4
 10
-78.499999999997058
 20
-47.249999584259939
 30
0.0
  0
VERTEX
  5
265B
  8
SAPA_PROFIL
 62
     4
 10
-78.499999999997058
 20
-47.666246444986399
 30
0.0
 42
0.1316524975874375
  0
VERTEX
  5
265C
  8
SAPA_PROFIL
 62
     4
 10
-78.366025403781023
 20
-48.166246444986591
 30
0.0
  0
VERTEX
  5
265D
  8
SAPA_PROFIL
 62
     4
 10
-77.439875957128834
 20
-49.770384341988539
 30
0.0
 42
-0.1316524975874
  0
VERTEX
  5
265E
  8
SAPA_PROFIL
 62
     4
 10
-77.399683578263264
 20
-49.92038434198809
 30
0.0
  0
VERTEX
  5
265F
  8
SAPA_PROFIL
 62
     4
 10
-77.39968357826389
 20
-50.0999995842594
 30
0.0
 42
-0.4142135623744271
  0
VERTEX
  5
2660
  8
SAPA_PROFIL
 62
     4
 10
-77.79968357826489
 20
-50.499999584258568
 30
0.0
  0
VERTEX
  5
2661
  8
SAPA_PROFIL
 62
     4
 10
-81.199683578265891
 20
-50.499999584259939
 30
0.0
 42
-0.4142135623724291
  0
VERTEX
  5
2662
  8
SAPA_PROFIL
 62
     4
 10
-81.599683578265527
 20
-50.0999995842594
 30
0.0
  0
VERTEX
  5
2663
  8
SAPA_PROFIL
 62
     4
 10
-81.599683578271893
 20
-49.917563513822607
 30
0.0
 42
-0.1318219888653524
  0
VERTEX
  5
2664
  8
SAPA_PROFIL
 62
     4
 10
-81.559391181734512
 20
-49.76739041135027
 30
0.0
  0
VERTEX
  5
2665
  8
SAPA_PROFIL
 62
     4
 10
-80.750707720510164
 20
-48.368862710870609
 30
0.0
  0
VERTEX
  5
2666
  8
SAPA_PROFIL
 62
     4
 10
-80.483593192297135
 20
-48.368862710870609
 30
0.0
 42
0.577350269189159
  0
VERTEX
  5
2667
  8
SAPA_PROFIL
 62
     4
 10
-80.301727857502584
 20
-48.053862710871009
 30
0.0
  0
VERTEX
  5
2668
  8
SAPA_PROFIL
 62
     4
 10
-80.503464536179663
 20
-47.704444533652349
 30
0.0
 42
0.0612687673629489
  0
VERTEX
  5
2669
  8
SAPA_PROFIL
 62
     4
 10
-80.517047906865884
 20
-47.411769100552142
 30
0.0
 42
0.2694959974285039
  0
VERTEX
  5
266A
  8
SAPA_PROFIL
 62
     4
 10
-80.710179881209825
 20
-47.180250054151621
 30
0.0
  0
VERTEX
  5
266B
  8
SAPA_PROFIL
 62
     4
 10
-83.171010071662977
 20
-46.284581113241948
 30
0.0
 42
-0.3152987888784035
  0
VERTEX
  5
266C
  8
SAPA_PROFIL
 62
     4
 10
-83.499999999999574
 20
-45.814734802848733
 30
0.0
  0
VERTEX
  5
266D
  8
SAPA_PROFIL
 62
     4
 10
-83.499999999997968
 20
-44.433235217644288
 30
0.0
 42
-0.2539676464741841
  0
VERTEX
  5
266E
  8
SAPA_PROFIL
 62
     4
 10
-83.363391710502697
 20
-44.181634047260218
 30
0.0
  0
VERTEX
  5
266F
  8
SAPA_PROFIL
 62
     4
 10
-82.956831514497722
 20
-43.91761076888357
 30
0.0
 42
-0.5862177598324623
  0
VERTEX
  5
2670
  8
SAPA_PROFIL
 62
     4
 10
-82.500000000001222
 20
-44.173352584121922
 30
0.0
  0
VERTEX
  5
2671
  8
SAPA_PROFIL
 62
     4
 10
-82.500000000008882
 20
-45.114527264631732
 30
0.0
 42
0.3152987888813165
  0
VERTEX
  5
2672
  8
SAPA_PROFIL
 62
     4
 10
-82.171010071672129
 20
-45.584373575029481
 30
0.0
  0
VERTEX
  5
2673
  8
SAPA_PROFIL
 62
     4
 10
-80.971010071660899
 20
-46.021137856153437
 30
0.0
 42
0.5205670505515651
  0
VERTEX
  5
2674
  8
SAPA_PROFIL
 62
     4
 10
-80.299999999998136
 20
-45.551291545760222
 30
0.0
  0
VERTEX
  5
2675
  8
SAPA_PROFIL
 62
     4
 10
-80.299999999998121
 20
-40.534850605091371
 30
0.0
 42
0.3702522326300203
  0
VERTEX
  5
2676
  8
SAPA_PROFIL
 62
     4
 10
-80.554459952663834
 20
-40.238327243298038
 30
0.0
 42
0.0982365330332397
  0
VERTEX
  5
2677
  8
SAPA_PROFIL
 62
     4
 10
-82.242146727658834
 20
-40.147874485087101
 30
0.0
 42
0.3735060174783164
  0
VERTEX
  5
2678
  8
SAPA_PROFIL
 62
     4
 10
-82.499999999998877
 20
-40.444899152998083
 30
0.0
  0
VERTEX
  5
2679
  8
SAPA_PROFIL
 62
     4
 10
-82.499999999999787
 20
-40.873352584120738
 30
0.0
 42
-0.5920056181162531
  0
VERTEX
  5
267A
  8
SAPA_PROFIL
 62
     4
 10
-82.961203502527695
 20
-41.12636134043813
 30
0.0
  0
VERTEX
  5
267B
  8
SAPA_PROFIL
 62
     4
 10
-83.363391710506008
 20
-40.86517726428243
 30
0.0
 42
-0.2539676464746725
  0
VERTEX
  5
267C
  8
SAPA_PROFIL
 62
     4
 10
-83.500000000001364
 20
-40.613576093898672
 30
0.0
  0
VERTEX
  5
267D
  8
SAPA_PROFIL
 62
     4
 10
-83.499999999999787
 20
-18.386423074532981
 30
0.0
 42
-0.2539676464741819
  0
VERTEX
  5
267E
  8
SAPA_PROFIL
 62
     4
 10
-83.363391710506008
 20
-18.13482190415013
 30
0.0
  0
VERTEX
  5
267F
  8
SAPA_PROFIL
 62
     4
 10
-82.961203502527695
 20
-17.873637827996319
 30
0.0
 42
-0.5920055144124249
  0
VERTEX
  5
2680
  8
SAPA_PROFIL
 62
     4
 10
-82.499999999999787
 20
-18.126646584311828
 30
0.0
  0
VERTEX
  5
2681
  8
SAPA_PROFIL
 62
     4
 10
-82.500000025274801
 20
-18.555100061602051
 30
0.0
 42
0.3735060174775405
  0
VERTEX
  5
2682
  8
SAPA_PROFIL
 62
     4
 10
-82.242146752934701
 20
-18.852124729511729
 30
0.0
 42
0.0355900683670349
  0
VERTEX
  5
2683
  8
SAPA_PROFIL
 62
     4
 10
-81.626273166134936
 20
-18.896018293543989
 30
0.0
 42
0.0624282003873116
  0
VERTEX
  5
2684
  8
SAPA_PROFIL
 62
     4
 10
-80.554459977939786
 20
-18.761671971301048
 30
0.0
 42
0.3702522326309292
  0
VERTEX
  5
2685
  8
SAPA_PROFIL
 62
     4
 10
-80.300000025274059
 20
-18.465148609507668
 30
0.0
  0
VERTEX
  5
2686
  8
SAPA_PROFIL
 62
     4
 10
-80.299999999997937
 20
-13.44870762267416
 30
0.0
 42
0.5205670505515692
  0
VERTEX
  5
2687
  8
SAPA_PROFIL
 62
     4
 10
-80.971010071660899
 20
-12.978861312280941
 30
0.0
  0
VERTEX
  5
2688
  8
SAPA_PROFIL
 62
     4
 10
-82.171010071670338
 20
-13.41562559340589
 30
0.0
 42
0.3152987888807539
  0
VERTEX
  5
2689
  8
SAPA_PROFIL
 62
     4
 10
-82.500000000007972
 20
-13.88547190380174
 30
0.0
  0
VERTEX
  5
268A
  8
SAPA_PROFIL
 62
     4
 10
-82.500000000001151
 20
-14.82664658431082
 30
0.0
 42
-0.5862175119221242
  0
VERTEX
  5
268B
  8
SAPA_PROFIL
 62
     4
 10
-82.956831325756283
 20
-15.082388515292781
 30
0.0
 42
0.0000002084758573
  0
SEQEND
  5
268C
  8
SAPA_PROFIL
 62
     4
  0
POLYLINE
  5
1A31
  8
SAPA_PROFIL
 62
     4
 66
     1
 10
0.0
 20
0.0
 30
0.0
 70
     1
  0
VERTEX
  5
268D
  8
SAPA_PROFIL
 62
     4
 10
-14.900000000902731
 20
-58.702943138375417
 30
0.0
  0
VERTEX
  5
268E
  8
SAPA_PROFIL
 62
     4
 10
-14.90000000090091
 20
-62.897055688072321
 30
0.0
 42
0.1989123673786592
  0
VERTEX
  5
268F
  8
SAPA_PROFIL
 62
     4
 10
-14.812132035257459
 20
-63.109187722428139
 30
0.0
  0
VERTEX
  5
2690
  8
SAPA_PROFIL
 62
     4
 10
-12.58786796654655
 20
-65.333451791139055
 30
0.0
 42
-0.1989123673785438
  0
VERTEX
  5
2691
  8
SAPA_PROFIL
 62
     4
 10
-12.5000000009031
 20
-65.545583825494873
 30
0.0
  0
VERTEX
  5
2692
  8
SAPA_PROFIL
 62
     4
 10
-12.500000000904921
 20
-65.999999413223236
 30
0.0
 42
-0.4142135623730951
  0
VERTEX
  5
2693
  8
SAPA_PROFIL
 62
     4
 10
-12.800000000904189
 20
-66.299999413223418
 30
0.0
  0
VERTEX
  5
2694
  8
SAPA_PROFIL
 62
     4
 10
-24.700000000900371
 20
-66.299999413223418
 30
0.0
 42
0.4142135623730951
  0
VERTEX
  5
2695
  8
SAPA_PROFIL
 62
     4
 10
-25.200000000900371
 20
-66.799999413223418
 30
0.0
  0
VERTEX
  5
2696
  8
SAPA_PROFIL
 62
     4
 10
-25.200000000900371
 20
-68.499999413223236
 30
0.0
 42
-0.4142135623739832
  0
VERTEX
  5
2697
  8
SAPA_PROFIL
 62
     4
 10
-25.500000000899639
 20
-68.799999413223418
 30
0.0
  0
VERTEX
  5
2698
  8
SAPA_PROFIL
 62
     4
 10
-29.200000000902008
 20
-68.799999413223418
 30
0.0
 42
-0.414213562375759
  0
VERTEX
  5
2699
  8
SAPA_PROFIL
 62
     4
 10
-29.5000000009031
 20
-68.499999413223236
 30
0.0
  0
VERTEX
  5
269A
  8
SAPA_PROFIL
 62
     4
 10
-29.500000000901281
 20
-52.00657628282022
 30
0.0
 42
-0.4142135623735391
  0
VERTEX
  5
269B
  8
SAPA_PROFIL
 62
     4
 10
-29.200000000902008
 20
-51.706576282820492
 30
0.0
  0
VERTEX
  5
269C
  8
SAPA_PROFIL
 62
     4
 10
-12.800000000904189
 20
-51.706576282820492
 30
0.0
 42
-0.4142135623726511
  0
VERTEX
  5
269D
  8
SAPA_PROFIL
 62
     4
 10
-12.5000000009031
 20
-52.00657628282022
 30
0.0
  0
VERTEX
  5
269E
  8
SAPA_PROFIL
 62
     4
 10
-12.5000000009031
 20
-56.054415000951053
 30
0.0
 42
-0.1989123673785438
  0
VERTEX
  5
269F
  8
SAPA_PROFIL
 62
     4
 10
-12.58786796654655
 20
-56.266547035306871
 30
0.0
  0
VERTEX
  5
26A0
  8
SAPA_PROFIL
 62
     4
 10
-14.81213203525928
 20
-58.490811104019599
 30
0.0
 42
0.1989123673798886
  0
SEQEND
  5
26A1
  8
SAPA_PROFIL
 62
     4
  0
POLYLINE
  5
1A32
  8
SAPA_PROFIL
 62
     4
 66
     1
 10
0.0
 20
0.0
 30
0.0
 70
     1
  0
VERTEX
  5
26A2
  8
SAPA_PROFIL
 62
     4
 10
-29.5000000009031
 20
-45.299999413223652
 30
0.0
  0
VERTEX
  5
26A3
  8
SAPA_PROFIL
 62
     4
 10
-29.500000000901281
 20
-50.106576282820129
 30
0.0
 42
0.4142135623732061
  0
VERTEX
  5
26A4
  8
SAPA_PROFIL
 62
     4
 10
-29.200000000902008
 20
-50.406576282820311
 30
0.0
  0
VERTEX
  5
26A5
  8
SAPA_PROFIL
 62
     4
 10
-12.800000000904189
 20
-50.406576282820311
 30
0.0
 42
0.4142135623730951
  0
VERTEX
  5
26A6
  8
SAPA_PROFIL
 62
     4
 10
-12.5000000009031
 20
-50.106576282820129
 30
0.0
  0
VERTEX
  5
26A7
  8
SAPA_PROFIL
 62
     4
 10
-12.500000000904921
 20
-45.299999413223652
 30
0.0
 42
0.4142135623731173
  0
VERTEX
  5
26A8
  8
SAPA_PROFIL
 62
     4
 10
-12.80000000090601
 20
-44.999999413223463
 30
0.0
  0
VERTEX
  5
26A9
  8
SAPA_PROFIL
 62
     4
 10
-29.200000000903831
 20
-44.999999413223463
 30
0.0
 42
0.4142135623730951
  0
SEQEND
  5
26AA
  8
SAPA_PROFIL
 62
     4
  0
POLYLINE
  5
1A33
  8
SAPA_PROFIL
 62
     4
 66
     1
 10
0.0
 20
0.0
 30
0.0
 70
     1
  0
VERTEX
  5
26AB
  8
SAPA_PROFIL
 62
     4
 10
-11.0000000009031
 20
-56.675735344511047
 30
0.0
 42
-0.1989123673799838
  0
VERTEX
  5
26AC
  8
SAPA_PROFIL
 62
     4
 10
-11.087867966548369
 20
-56.887867378867782
 30
0.0
  0
VERTEX
  5
26AD
  8
SAPA_PROFIL
 62
     4
 10
-13.31213203525928
 20
-59.11213144757869
 30
0.0
 42
0.1989123673811189
  0
VERTEX
  5
26AE
  8
SAPA_PROFIL
 62
     4
 10
-13.400000000902731
 20
-59.324263481934508
 30
0.0
  0
VERTEX
  5
26AF
  8
SAPA_PROFIL
 62
     4
 10
-13.400000000900921
 20
-62.275735344512327
 30
0.0
 42
0.1989123673785447
  0
VERTEX
  5
26B0
  8
SAPA_PROFIL
 62
     4
 10
-13.312132035257459
 20
-62.487867378868138
 30
0.0
  0
VERTEX
  5
26B1
  8
SAPA_PROFIL
 62
     4
 10
-11.08786796654655
 20
-64.712131447579964
 30
0.0
 42
-0.1989123673785445
  0
VERTEX
  5
26B2
  8
SAPA_PROFIL
 62
     4
 10
-11.0000000009031
 20
-64.924263481935782
 30
0.0
  0
VERTEX
  5
26B3
  8
SAPA_PROFIL
 62
     4
 10
-11.000000000904921
 20
-67.299999413223418
 30
0.0
 42
-0.4142135623730951
  0
VERTEX
  5
26B4
  8
SAPA_PROFIL
 62
     4
 10
-11.500000000904921
 20
-67.799999413223404
 30
0.0
  0
VERTEX
  5
26B5
  8
SAPA_PROFIL
 62
     4
 10
-23.400000000901102
 20
-67.799999413223404
 30
0.0
 42
0.4142135623737615
  0
VERTEX
  5
26B6
  8
SAPA_PROFIL
 62
     4
 10
-23.700000000900371
 20
-68.099999413223586
 30
0.0
  0
VERTEX
  5
26B7
  8
SAPA_PROFIL
 62
     4
 10
-23.700000000900371
 20
-69.799999413223418
 30
0.0
 42
-0.4142135623730951
  0
VERTEX
  5
26B8
  8
SAPA_PROFIL
 62
     4
 10
-24.200000000900371
 20
-70.299999413223404
 30
0.0
  0
VERTEX
  5
26B9
  8
SAPA_PROFIL
 62
     4
 10
-30.5000000009031
 20
-70.299999413223404
 30
0.0
 42
-0.4142135623730951
  0
VERTEX
  5
26BA
  8
SAPA_PROFIL
 62
     4
 10
-31.0000000009031
 20
-69.799999413223418
 30
0.0
  0
VERTEX
  5
26BB
  8
SAPA_PROFIL
 62
     4
 10
-31.000000000899458
 20
-68.799999413223048
 30
0.0
 42
0.4142135623735387
  0
VERTEX
  5
26BC
  8
SAPA_PROFIL
 62
     4
 10
-31.300000000898741
 20
-68.499999413223094
 30
0.0
  0
VERTEX
  5
26BD
  8
SAPA_PROFIL
 62
     4
 10
-32.900000000900917
 20
-68.499999413223549
 30
0.0
 42
0.4142135623735394
  0
VERTEX
  5
26BE
  8
SAPA_PROFIL
 62
     4
 10
-33.200000000900189
 20
-68.799999413223276
 30
0.0
  0
VERTEX
  5
26BF
  8
SAPA_PROFIL
 62
     4
 10
-33.20000000089837
 20
-69.099999413222918
 30
0.0
 42
-0.5923377296036106
  0
VERTEX
  5
26C0
  8
SAPA_PROFIL
 62
     4
 10
-33.661452271639952
 20
-69.352849495827172
 30
0.0
  0
VERTEX
  5
26C1
  8
SAPA_PROFIL
 62
     4
 10
-35.361452271640673
 20
-68.075790227530305
 30
0.0
 42
-0.2560149538738703
  0
VERTEX
  5
26C2
  8
SAPA_PROFIL
 62
     4
 10
-35.500000000901281
 20
-67.822940144925155
 30
0.0
  0
VERTEX
  5
26C3
  8
SAPA_PROFIL
 62
     4
 10
-35.500000000901281
 20
-67.599999413222548
 30
0.0
 42
-0.4142135623733172
  0
VERTEX
  5
26C4
  8
SAPA_PROFIL
 62
     4
 10
-35.200000000902008
 20
-67.299999413223276
 30
0.0
  0
VERTEX
  5
26C5
  8
SAPA_PROFIL
 62
     4
 10
-31.300000000898741
 20
-67.299999413223276
 30
0.0
 42
0.4142135623735389
  0
VERTEX
  5
26C6
  8
SAPA_PROFIL
 62
     4
 10
-31.000000000899458
 20
-66.999999413223321
 30
0.0
  0
VERTEX
  5
26C7
  8
SAPA_PROFIL
 62
     4
 10
-31.000000000901281
 20
-55.999999413223136
 30
0.0
 42
0.4142135623735387
  0
VERTEX
  5
26C8
  8
SAPA_PROFIL
 62
     4
 10
-31.30000000090055
 20
-55.699999413223182
 30
0.0
  0
VERTEX
  5
26C9
  8
SAPA_PROFIL
 62
     4
 10
-35.200000000902008
 20
-55.699999413223182
 30
0.0
 42
-0.4142135623730951
  0
VERTEX
  5
26CA
  8
SAPA_PROFIL
 62
     4
 10
-35.500000000901281
 20
-55.399999413223917
 30
0.0
  0
VERTEX
  5
26CB
  8
SAPA_PROFIL
 62
     4
 10
-35.500000000901281
 20
-55.177058681521309
 30
0.0
 42
-0.2560149538738701
  0
VERTEX
  5
26CC
  8
SAPA_PROFIL
 62
     4
 10
-35.361452271640673
 20
-54.924208598916152
 30
0.0
  0
VERTEX
  5
26CD
  8
SAPA_PROFIL
 62
     4
 10
-33.661452271639952
 20
-53.6471493306193
 30
0.0
 42
-0.5923377296036115
  0
VERTEX
  5
26CE
  8
SAPA_PROFIL
 62
     4
 10
-33.20000000089837
 20
-53.899999413223547
 30
0.0
  0
VERTEX
  5
26CF
  8
SAPA_PROFIL
 62
     4
 10
-33.200000000900189
 20
-54.199999413223189
 30
0.0
 42
0.4142135623735394
  0
VERTEX
  5
26D0
  8
SAPA_PROFIL
 62
     4
 10
-32.900000000900917
 20
-54.499999413222923
 30
0.0
  0
VERTEX
  5
26D1
  8
SAPA_PROFIL
 62
     4
 10
-31.30000000090055
 20
-54.499999413223371
 30
0.0
 42
0.4142135623735389
  0
VERTEX
  5
26D2
  8
SAPA_PROFIL
 62
     4
 10
-31.000000000901281
 20
-54.199999413223409
 30
0.0
  0
VERTEX
  5
26D3
  8
SAPA_PROFIL
 62
     4
 10
-31.000000000906741
 20
-43.999999413223463
 30
0.0
 42
-0.4142135623731242
  0
VERTEX
  5
26D4
  8
SAPA_PROFIL
 62
     4
 10
-30.500000000906741
 20
-43.499999413223463
 30
0.0
  0
VERTEX
  5
26D5
  8
SAPA_PROFIL
 62
     4
 10
-11.500000000904921
 20
-43.499999413223463
 30
0.0
 42
-0.4142135623730951
  0
VERTEX
  5
26D6
  8
SAPA_PROFIL
 62
     4
 10
-11.000000000904921
 20
-43.999999413223463
 30
0.0
  0
SEQEND
  5
26D7
  8
SAPA_PROFIL
 62
     4
  0
POLYLINE
  5
1A34
  8
SAPA_PROFIL
 66
     1
 10
0.0
 20
0.0
 30
0.0
 70
     1
  0
VERTEX
  5
26D8
  8
SAPA_PROFIL
 10
-22.800000000000178
 20
-81.098475071207986
 30
0.0
  0
VERTEX
  5
26D9
  8
SAPA_PROFIL
 10
-23.800000000000178
 20
-81.098475071207986
 30
0.0
  0
VERTEX
  5
26DA
  8
SAPA_PROFIL
 10
-23.800000000000178
 20
-78.498475071207821
 30
0.0
 42
0.4142135623730951
  0
VERTEX
  5
26DB
  8
SAPA_PROFIL
 10
-24.300000000000178
 20
-77.998475071207821
 30
0.0
  0
VERTEX
  5
26DC
  8
SAPA_PROFIL
 10
-24.700000000000269
 20
-77.998475071207821
 30
0.0
 42
0.4142135623730951
  0
VERTEX
  5
26DD
  8
SAPA_PROFIL
 10
-25.000000000000231
 20
-78.298475071207775
 30
0.0
  0
VERTEX
  5
26DE
  8
SAPA_PROFIL
 10
-25.000000000000231
 20
-95.99999999901047
 30
0.0
 42
0.4142135623730951
  0
VERTEX
  5
26DF
  8
SAPA_PROFIL
 10
-24.500000000000231
 20
-96.499999999010484
 30
0.0
  0
VERTEX
  5
26E0
  8
SAPA_PROFIL
 10
24.499999999999769
 20
-96.499999999010484
 30
0.0
 42
0.4142135623730951
  0
VERTEX
  5
26E1
  8
SAPA_PROFIL
 10
24.999999999999769
 20
-95.99999999901047
 30
0.0
  0
VERTEX
  5
26E2
  8
SAPA_PROFIL
 10
24.999999999999769
 20
-78.298475071207775
 30
0.0
 42
0.4142135623730951
  0
VERTEX
  5
26E3
  8
SAPA_PROFIL
 10
24.699999999999822
 20
-77.998475071207821
 30
0.0
  0
VERTEX
  5
26E4
  8
SAPA_PROFIL
 10
24.299999999999731
 20
-77.998475071207821
 30
0.0
 42
0.4142135623730951
  0
VERTEX
  5
26E5
  8
SAPA_PROFIL
 10
23.799999999999731
 20
-78.498475071207821
 30
0.0
  0
VERTEX
  5
26E6
  8
SAPA_PROFIL
 10
23.799999999999731
 20
-81.098475071207986
 30
0.0
  0
VERTEX
  5
26E7
  8
SAPA_PROFIL
 10
22.799999999999731
 20
-81.098475071207986
 30
0.0
  0
VERTEX
  5
26E8
  8
SAPA_PROFIL
 10
22.22033922157857
 20
-82.102507830840963
 30
0.0
 42
0.4155392929676362
  0
VERTEX
  5
26E9
  8
SAPA_PROFIL
 10
22.51631264788443
 20
-83.197126802632965
 30
0.0
  0
VERTEX
  5
26EA
  8
SAPA_PROFIL
 10
23.799999999999731
 20
-83.938264040931927
 30
0.0
  0
VERTEX
  5
26EB
  8
SAPA_PROFIL
 10
23.799999999999731
 20
-94.099999999010606
 30
0.0
 42
-0.4142135623730951
  0
VERTEX
  5
26EC
  8
SAPA_PROFIL
 10
22.799999999999731
 20
-95.099999999010606
 30
0.0
  0
VERTEX
  5
26ED
  8
SAPA_PROFIL
 10
-22.800000000000178
 20
-95.099999999010606
 30
0.0
 42
-0.4142135623730951
  0
VERTEX
  5
26EE
  8
SAPA_PROFIL
 10
-23.800000000000178
 20
-94.099999999010606
 30
0.0
  0
VERTEX
  5
26EF
  8
SAPA_PROFIL
 10
-23.800000000000178
 20
-83.938264040931927
 30
0.0
  0
VERTEX
  5
26F0
  8
SAPA_PROFIL
 10
-22.516312647884892
 20
-83.197126802632965
 30
0.0
 42
0.4155392929676362
  0
VERTEX
  5
26F1
  8
SAPA_PROFIL
 10
-22.220339221579032
 20
-82.102507830840963
 30
0.0
  0
SEQEND
  5
26F2
  8
SAPA_PROFIL
  0
LINE
  5
1A35
  8
SAPA_PROFIL
 10
23.300000000000072
 20
-76.49999999901047
 30
0.0
 11
20.85000000000025
 21
-76.49999999901047
 31
0.0
  0
ARC
  5
1A36
  8
SAPA_PROFIL
 10
23.300000000000072
 20
-76.99999999901047
 30
0.0
 40
0.5
 50
0.0
 51
90.0
  0
LINE
  5
1A37
  8
SAPA_PROFIL
 10
23.800000000000519
 20
-80.699999999010274
 30
0.0
 11
23.800000000000072
 21
-76.99999999901047
 31
0.0
  0
ARC
  5
1A38
  8
SAPA_PROFIL
 10
23.500000000000341
 20
-80.699999999010274
 30
0.0
 40
0.3000000000001819
 50
270.0
 51
0.0
  0
LINE
  5
1A39
  8
SAPA_PROFIL
 10
22.473205080757339
 20
-80.99999999901047
 30
0.0
 11
23.500000000000341
 21
-80.99999999901047
 31
0.0
  0
ARC
  5
1A3A
  8
SAPA_PROFIL
 10
22.473205080757449
 20
-81.299999999010396
 30
0.0
 40
0.2999999999999225
 50
90.000000000021672
 51
150.0000000000278
  0
LINE
  5
1A3B
  8
SAPA_PROFIL
 10
21.325961894323768
 20
-82.687083486550804
 30
0.0
 11
22.213397459622112
 21
-81.149999999010575
 31
0.0
  0
ARC
  5
1A3C
  8
SAPA_PROFIL
 10
21.585769515458949
 20
-82.837083486550924
 30
0.0
 40
0.2999999999999183
 50
149.9999999999682
 51
239.9999999999803
  0
LINE
  5
1A3D
  8
SAPA_PROFIL
 10
21.967911113762401
 20
-83.404123202713436
 30
0.0
 11
21.435769515458901
 21
-83.096891107686133
 31
0.0
  0
ARC
  5
1A3E
  8
SAPA_PROFIL
 10
21.46791111376243
 20
-84.270148606497614
 30
0.0
 40
0.9999999999997509
 50
319.9999999999734
 51
59.999999999993548
  0
LINE
  5
1A3F
  8
SAPA_PROFIL
 10
18.115270605417091
 20
-89.821393803853425
 30
0.0
 11
22.233955556880911
 21
-84.912936216184335
 31
0.0
  0
ARC
  5
1A40
  8
SAPA_PROFIL
 10
17.732248383857339
 20
-89.499999999010456
 30
0.0
 40
0.5000000000000142
 50
270.00000000005701
 51
320.00000000004599
  0
LINE
  5
1A41
  8
SAPA_PROFIL
 10
9.7002075382096091
 20
-89.999999999010484
 30
0.0
 11
17.732248383857829
 21
-89.999999999010484
 31
0.0
  0
ARC
  5
1A42
  8
SAPA_PROFIL
 10
9.7002075382096837
 20
-88.999999999010342
 30
0.0
 40
1.000000000000131
 50
199.99999999999471
 51
269.99999999999579
  0
LINE
  5
1A43
  8
SAPA_PROFIL
 10
7.4196339112453407
 20
-85.657979855684516
 30
0.0
 11
8.7605149174236203
 21
-89.342020142335954
 31
0.0
  0
ARC
  5
1A44
  8
SAPA_PROFIL
 10
6.4799412904592639
 20
-85.999999999010171
 30
0.0
 40
1.0000000000001561
 50
19.999999999995971
 51
89.999999999995069
  0
LINE
  5
1A45
  8
SAPA_PROFIL
 10
-6.4799412904591227
 20
-84.999999999010015
 30
0.0
 11
6.4799412904593501
 21
-84.999999999010015
 31
0.0
  0
ARC
  5
1A46
  8
SAPA_PROFIL
 10
-6.4799412904590374
 20
-85.999999999010171
 30
0.0
 40
1.000000000000153
 50
90.000000000004917
 51
160.00000000000401
  0
LINE
  5
1A47
  8
SAPA_PROFIL
 10
-8.7605149174238477
 20
-89.342020142335954
 30
0.0
 11
-7.4196339112451142
 21
-85.657979855684516
 31
0.0
  0
ARC
  5
1A48
  8
SAPA_PROFIL
 10
-9.7002075382099111
 20
-88.999999999010342
 30
0.0
 40
1.000000000000127
 50
270.00000000000409
 51
340.00000000000529
  0
LINE
  5
1A49
  8
SAPA_PROFIL
 10
-17.732248383857609
 20
-89.999999999010484
 30
0.0
 11
-9.7002075382098383
 21
-89.999999999010484
 31
0.0
  0
ARC
  5
1A4A
  8
SAPA_PROFIL
 10
-17.732248383857339
 20
-89.499999999009972
 30
0.0
 40
0.5000000000004964
 50
219.99999999997971
 51
269.99999999996908
  0
LINE
  5
1A4B
  8
SAPA_PROFIL
 10
-22.233955556881138
 20
-84.912936216184335
 30
0.0
 11
-18.115270605417319
 21
-89.821393803853425
 31
0.0
  0
ARC
  5
1A4C
  8
SAPA_PROFIL
 10
-21.46791111376243
 20
-84.270148606497798
 30
0.0
 40
0.9999999999998065
 50
119.9999999999895
 51
220.00000000000949
  0
LINE
  5
1A4D
  8
SAPA_PROFIL
 10
-21.435769515459128
 20
-83.096891107686133
 30
0.0
 11
-21.96791111376217
 21
-83.404123202713436
 31
0.0
  0
ARC
  5
1A4E
  8
SAPA_PROFIL
 10
-21.585769515458939
 20
-82.837083486550696
 30
0.0
 40
0.2999999999999961
 50
299.99999999995862
 51
29.999999999973479
  0
LINE
  5
1A4F
  8
SAPA_PROFIL
 10
-22.213397459621891
 20
-81.149999999010575
 30
0.0
 11
-21.325961894323541
 21
-82.687083486550804
 31
0.0
  0
ARC
  5
1A50
  8
SAPA_PROFIL
 10
-22.473205080757229
 20
-81.299999999010396
 30
0.0
 40
0.2999999999999261
 50
29.999999999971521
 51
89.999999999976936
  0
LINE
  5
1A51
  8
SAPA_PROFIL
 10
-23.500000000000568
 20
-80.99999999901047
 30
0.0
 11
-22.473205080757111
 21
-80.99999999901047
 31
0.0
  0
ARC
  5
1A52
  8
SAPA_PROFIL
 10
-23.500000000000341
 20
-80.699999999010515
 30
0.0
 40
0.2999999999999545
 50
179.99999999995649
 51
269.99999999995657
  0
LINE
  5
1A53
  8
SAPA_PROFIL
 10
-23.800000000000299
 20
-76.99999999901047
 30
0.0
 11
-23.800000000000299
 21
-80.699999999010274
 31
0.0
  0
ARC
  5
1A54
  8
SAPA_PROFIL
 10
-23.300000000000299
 20
-76.99999999901047
 30
0.0
 40
0.5
 50
90.0
 51
180.0
  0
LINE
  5
1A55
  8
SAPA_PROFIL
 10
-20.850000000000019
 20
-76.49999999901047
 30
0.0
 11
-23.300000000000299
 21
-76.49999999901047
 31
0.0
  0
ARC
  5
1A56
  8
SAPA_PROFIL
 10
-20.849999999999909
 20
-76.799999999010154
 30
0.0
 40
0.2999999999996828
 50
45.000000000009607
 51
90.000000000021672
  0
LINE
  5
1A57
  8
SAPA_PROFIL
 10
-20.237867965644121
 20
-76.98786796465447
 30
0.0
 11
-20.637867965644201
 21
-76.587867964654379
 31
0.0
  0
ARC
  5
1A58
  8
SAPA_PROFIL
 10
-20.450000000000291
 20
-77.199999999010373
 30
0.0
 40
0.3000000000000966
 50
269.99999999998101
 51
44.999999999963542
  0
LINE
  5
1A59
  8
SAPA_PROFIL
 10
-21.300000000000299
 20
-77.49999999901047
 30
0.0
 11
-20.45000000000039
 21
-77.49999999901047
 31
0.0
  0
ARC
  5
1A5A
  8
SAPA_PROFIL
 10
-21.300000000000239
 20
-77.999999999010527
 30
0.0
 40
0.500000000000057
 50
90.000000000006494
 51
179.99999999999349
  0
LINE
  5
1A5B
  8
SAPA_PROFIL
 10
-21.799999999999841
 20
-78.390808928730621
 30
0.0
 11
-21.800000000000288
 21
-77.999999999010456
 31
0.0
  0
ARC
  5
1A5C
  8
SAPA_PROFIL
 10
-21.500000000000099
 20
-78.390808928730578
 30
0.0
 40
0.2999999999997442
 50
180.0000000000081
 51
220.00000000000469
  0
LINE
  5
1A5D
  8
SAPA_PROFIL
 10
-20.211721773134862
 20
-80.392836281916061
 30
0.0
 11
-21.729813332935581
 21
-78.583645211636394
 31
0.0
  0
ARC
  5
1A5E
  8
SAPA_PROFIL
 10
-19.981908440199369
 20
-80.199999999010288
 30
0.0
 40
0.2999999999997129
 50
219.99999999999591
 51
269.99999999999591
  0
LINE
  5
1A5F
  8
SAPA_PROFIL
 10
-16.450000000000379
 20
-80.499999999010456
 30
0.0
 11
-19.98190844019939
 21
-80.499999999010015
 31
0.0
  0
ARC
  5
1A60
  8
SAPA_PROFIL
 10
-16.450000000000379
 20
-80.199999999010288
 30
0.0
 40
0.3000000000001819
 50
270.0
 51
0.0
  0
LINE
  5
1A61
  8
SAPA_PROFIL
 10
-16.150000000000201
 20
-77.799999999010197
 30
0.0
 11
-16.150000000000201
 21
-80.199999999010288
 31
0.0
  0
ARC
  5
1A62
  8
SAPA_PROFIL
 10
-16.450000000000159
 20
-77.799999999010424
 30
0.0
 40
0.2999999999999545
 50
0.0000000000434252
 51
90.000000000043414
  0
LINE
  5
1A63
  8
SAPA_PROFIL
 10
-16.850000000000019
 20
-77.49999999901047
 30
0.0
 11
-16.450000000000379
 21
-77.49999999901047
 31
0.0
  0
ARC
  5
1A64
  8
SAPA_PROFIL
 10
-16.850000000000179
 20
-77.199999999010373
 30
0.0
 40
0.3000000000000748
 50
135.0000000000268
 51
270.0000000000299
  0
LINE
  5
1A65
  8
SAPA_PROFIL
 10
-16.662132034356201
 20
-76.587867964654379
 30
0.0
 11
-17.062132034356289
 21
-76.98786796465447
 31
0.0
  0
ARC
  5
1A66
  8
SAPA_PROFIL
 10
-16.450000000000468
 20
-76.799999999010225
 30
0.0
 40
0.2999999999997556
 50
89.999999999984396
 51
134.99999999998511
  0
LINE
  5
1A67
  8
SAPA_PROFIL
 10
-14.650000000000199
 20
-76.499999999010015
 30
0.0
 11
-16.450000000000379
 21
-76.49999999901047
 31
0.0
  0
ARC
  5
1A68
  8
SAPA_PROFIL
 10
-14.650000000000171
 20
-76.999999999009987
 30
0.0
 40
0.4999999999999716
 50
359.99999999999682
 51
90.000000000003226
  0
LINE
  5
1A69
  8
SAPA_PROFIL
 10
-14.150000000000199
 20
-81.499999999010925
 30
0.0
 11
-14.150000000000199
 21
-76.999999999010015
 31
0.0
  0
ARC
  5
1A6A
  8
SAPA_PROFIL
 10
-14.650000000000199
 20
-81.499999999010925
 30
0.0
 40
0.5
 50
270.0
 51
0.0
  0
LINE
  5
1A6B
  8
SAPA_PROFIL
 10
-18.650000000000201
 20
-81.999999999010015
 30
0.0
 11
-14.650000000000199
 21
-81.999999999010925
 31
0.0
  0
ARC
  5
1A6C
  8
SAPA_PROFIL
 10
-18.650000000000091
 20
-82.499999999010114
 30
0.0
 40
0.5000000000001137
 50
90.000000000013017
 51
179.99999999998701
  0
LINE
  5
1A6D
  8
SAPA_PROFIL
 10
-19.150000000000201
 20
-84.516956646213657
 30
0.0
 11
-19.150000000000201
 21
-82.499999999010015
 31
0.0
  0
ARC
  5
1A6E
  8
SAPA_PROFIL
 10
-18.649999999999981
 20
-84.516956646213444
 30
0.0
 40
0.5000000000002222
 50
180.00000000002439
 51
220.00000000003149
  0
LINE
  5
1A6F
  8
SAPA_PROFIL
 10
-16.949501460029861
 20
-87.321393803853425
 30
0.0
 11
-19.03302222155946
 21
-84.838350451057053
 31
0.0
  0
ARC
  5
1A70
  8
SAPA_PROFIL
 10
-16.566479238470581
 20
-86.9999999990102
 30
0.0
 40
0.4999999999998153
 50
220.00000000001131
 51
269.99999999999721
  0
LINE
  5
1A71
  8
SAPA_PROFIL
 10
-10.568533728391341
 20
-87.499999999010484
 30
0.0
 11
-16.566479238470599
 21
-87.499999999010015
 31
0.0
  0
ARC
  5
1A72
  8
SAPA_PROFIL
 10
-10.568533728391261
 20
-86.999999999010242
 30
0.0
 40
0.5000000000002258
 50
269.99999999999091
 51
339.99999999999199
  0
LINE
  5
1A73
  8
SAPA_PROFIL
 10
-8.6380638705314823
 20
-83.157979855684516
 30
0.0
 11
-10.09868741799812
 21
-87.171010070673219
 31
0.0
  0
ARC
  5
1A74
  8
SAPA_PROFIL
 10
-7.6983712497453922
 20
-83.499999999010186
 30
0.0
 40
1.0000000000001701
 50
90.000000000005699
 51
160.0000000000035
  0
LINE
  5
1A75
  8
SAPA_PROFIL
 10
-6.6500000000002037
 20
-82.499999999010015
 30
0.0
 11
-7.6983712497454908
 21
-82.499999999010015
 31
0.0
  0
ARC
  5
1A76
  8
SAPA_PROFIL
 10
-6.6499999999998911
 20
-82.199999999010146
 30
0.0
 40
0.2999999999998692
 50
269.9999999999402
 51
359.99999999997289
  0
LINE
  5
1A77
  8
SAPA_PROFIL
 10
-6.3500000000000218
 20
-81.799999999010197
 30
0.0
 11
-6.3500000000000218
 21
-82.199999999010288
 31
0.0
  0
ARC
  5
1A78
  8
SAPA_PROFIL
 10
-6.0499999999998693
 20
-81.799999999010168
 30
0.0
 40
0.3000000000001535
 50
89.999999999994586
 51
180.0000000000054
  0
LINE
  5
1A79
  8
SAPA_PROFIL
 10
-5.6500000000002037
 20
-81.499999999010015
 30
0.0
 11
-6.04999999999984
 21
-81.499999999010015
 31
0.0
  0
ARC
  5
1A7A
  8
SAPA_PROFIL
 10
-5.6500000000001762
 20
-81.799999999010168
 30
0.0
 40
0.3000000000001535
 50
359.99999999999449
 51
90.000000000005414
  0
LINE
  5
1A7B
  8
SAPA_PROFIL
 10
-5.3500000000000218
 20
-82.199999999010288
 30
0.0
 11
-5.3500000000000218
 21
-81.799999999010197
 31
0.0
  0
ARC
  5
1A7C
  8
SAPA_PROFIL
 10
-5.0500000000001251
 20
-82.199999999010103
 30
0.0
 40
0.2999999999998977
 50
180.00000000003249
 51
270.00000000005417
  0
LINE
  5
1A7D
  8
SAPA_PROFIL
 10
-0.6242640687120229
 20
-82.499999999010015
 30
0.0
 11
-5.04999999999984
 21
-82.499999999010015
 31
0.0
  0
ARC
  5
1A7E
  8
SAPA_PROFIL
 10
-0.6242640687125385
 20
-82.799999999010112
 30
0.0
 40
0.3000000000000977
 50
44.999999999918849
 51
89.999999999901533
  0
LINE
  5
1A7F
  8
SAPA_PROFIL
 10
-0.0000000000001137
 20
-82.999999999010015
 30
0.0
 11
-0.4121320343562048
 21
-82.587867964654379
 31
0.0
  0
LINE
  5
1A80
  8
SAPA_PROFIL
 10
0.4121320343559774
 20
-82.587867964654379
 30
0.0
 11
-0.0000000000001137
 21
-82.999999999010015
 31
0.0
  0
ARC
  5
1A81
  8
SAPA_PROFIL
 10
0.6242640687123112
 20
-82.799999999010112
 30
0.0
 40
0.3000000000000966
 50
90.000000000098467
 51
135.00000000008109
  0
LINE
  5
1A82
  8
SAPA_PROFIL
 10
5.0500000000000682
 20
-82.499999999010015
 30
0.0
 11
0.6242640687117956
 21
-82.499999999010015
 31
0.0
  0
ARC
  5
1A83
  8
SAPA_PROFIL
 10
5.0500000000001251
 20
-82.199999999010345
 30
0.0
 40
0.2999999999996703
 50
269.99999999998909
 51
0.0000000000108563
  0
LINE
  5
1A84
  8
SAPA_PROFIL
 10
5.3499999999997954
 20
-81.799999999010197
 30
0.0
 11
5.3499999999997954
 21
-82.199999999010288
 31
0.0
  0
ARC
  5
1A85
  8
SAPA_PROFIL
 10
5.649999999999948
 20
-81.799999999010168
 30
0.0
 40
0.3000000000001535
 50
89.999999999994586
 51
180.0000000000054
  0
LINE
  5
1A86
  8
SAPA_PROFIL
 10
6.0500000000000682
 20
-81.499999999010015
 30
0.0
 11
5.6499999999999773
 21
-81.499999999010015
 31
0.0
  0
ARC
  5
1A87
  8
SAPA_PROFIL
 10
6.0499999999998693
 20
-81.799999999009941
 30
0.0
 40
0.2999999999999261
 50
359.99999999995123
 51
89.999999999962014
  0
LINE
  5
1A88
  8
SAPA_PROFIL
 10
6.3499999999997954
 20
-82.199999999010288
 30
0.0
 11
6.3499999999997954
 21
-81.799999999010197
 31
0.0
  0
ARC
  5
1A89
  8
SAPA_PROFIL
 10
6.6499999999996637
 20
-82.199999999010146
 30
0.0
 40
0.2999999999998692
 50
180.00000000002709
 51
270.00000000005969
  0
LINE
  5
1A8A
  8
SAPA_PROFIL
 10
7.6983712497457191
 20
-82.499999999010015
 30
0.0
 11
6.6499999999999773
 21
-82.499999999010015
 31
0.0
  0
ARC
  5
1A8B
  8
SAPA_PROFIL
 10
7.6983712497456187
 20
-83.499999999010186
 30
0.0
 40
1.0000000000001701
 50
19.999999999996469
 51
89.999999999994287
  0
LINE
  5
1A8C
  8
SAPA_PROFIL
 10
10.098687417998351
 20
-87.171010070673219
 30
0.0
 11
8.6380638705317097
 21
-83.157979855684516
 31
0.0
  0
ARC
  5
1A8D
  8
SAPA_PROFIL
 10
10.568533728391261
 20
-86.999999999010569
 30
0.0
 40
0.4999999999999006
 50
199.9999999999817
 51
269.99999999998312
  0
LINE
  5
1A8E
  8
SAPA_PROFIL
 10
16.56647923847083
 20
-87.499999999010015
 30
0.0
 11
10.56853372839111
 21
-87.499999999010484
 31
0.0
  0
ARC
  5
1A8F
  8
SAPA_PROFIL
 10
16.566479238470809
 20
-86.9999999990102
 30
0.0
 40
0.4999999999998141
 50
270.0000000000029
 51
319.99999999998869
  0
LINE
  5
1A90
  8
SAPA_PROFIL
 10
19.033022221559229
 20
-84.838350451057053
 30
0.0
 11
16.949501460030088
 21
-87.321393803853425
 31
0.0
  0
ARC
  5
1A91
  8
SAPA_PROFIL
 10
18.64999999999975
 20
-84.516956646213444
 30
0.0
 40
0.5000000000002239
 50
319.9999999999684
 51
359.99999999997561
  0
LINE
  5
1A92
  8
SAPA_PROFIL
 10
19.149999999999981
 20
-82.499999999010015
 30
0.0
 11
19.149999999999981
 21
-84.516956646213657
 31
0.0
  0
ARC
  5
1A93
  8
SAPA_PROFIL
 10
18.64999999999986
 20
-82.499999999010114
 30
0.0
 40
0.5000000000001137
 50
0.0000000000130276
 51
89.999999999986969
  0
LINE
  5
1A94
  8
SAPA_PROFIL
 10
14.649999999999981
 20
-81.999999999010925
 30
0.0
 11
18.649999999999981
 21
-81.999999999010015
 31
0.0
  0
ARC
  5
1A95
  8
SAPA_PROFIL
 10
14.649999999999981
 20
-81.499999999010925
 30
0.0
 40
0.5
 50
180.0
 51
270.0
  0
LINE
  5
1A96
  8
SAPA_PROFIL
 10
14.15000000000043
 20
-76.999999999010015
 30
0.0
 11
14.149999999999981
 21
-81.499999999010925
 31
0.0
  0
ARC
  5
1A97
  8
SAPA_PROFIL
 10
14.6500000000004
 20
-76.999999999009987
 30
0.0
 40
0.4999999999999716
 50
89.999999999996746
 51
180.00000000000321
  0
LINE
  5
1A98
  8
SAPA_PROFIL
 10
16.450000000000159
 20
-76.49999999901047
 30
0.0
 11
14.65000000000043
 21
-76.499999999010015
 31
0.0
  0
ARC
  5
1A99
  8
SAPA_PROFIL
 10
16.450000000000241
 20
-76.799999999010225
 30
0.0
 40
0.2999999999997557
 50
45.000000000014857
 51
90.000000000015575
  0
LINE
  5
1A9A
  8
SAPA_PROFIL
 10
17.062132034356068
 20
-76.98786796465447
 30
0.0
 11
16.662132034355981
 21
-76.587867964654379
 31
0.0
  0
ARC
  5
1A9B
  8
SAPA_PROFIL
 10
16.850000000000179
 20
-77.199999999010487
 30
0.0
 40
0.2999999999999829
 50
270.00000000001347
 51
45.000000000017273
  0
LINE
  5
1A9C
  8
SAPA_PROFIL
 10
16.450000000000159
 20
-77.49999999901047
 30
0.0
 11
16.85000000000025
 21
-77.49999999901047
 31
0.0
  0
ARC
  5
1A9D
  8
SAPA_PROFIL
 10
16.450000000000159
 20
-77.799999999010197
 30
0.0
 40
0.2999999999997271
 50
90.0
 51
180.0
  0
LINE
  5
1A9E
  8
SAPA_PROFIL
 10
16.14999999999997
 20
-80.199999999010288
 30
0.0
 11
16.150000000000428
 21
-77.799999999010197
 31
0.0
  0
ARC
  5
1A9F
  8
SAPA_PROFIL
 10
16.450000000000159
 20
-80.199999999010288
 30
0.0
 40
0.3000000000001819
 50
180.0
 51
270.0
  0
LINE
  5
1AA0
  8
SAPA_PROFIL
 10
19.98190844019916
 20
-80.499999999010015
 30
0.0
 11
16.450000000000159
 21
-80.499999999010456
 31
0.0
  0
ARC
  5
1AA1
  8
SAPA_PROFIL
 10
19.981908440199369
 20
-80.199999999009805
 30
0.0
 40
0.3000000000001951
 50
269.99999999996072
 51
319.99999999996129
  0
LINE
  5
1AA2
  8
SAPA_PROFIL
 10
21.729813332935809
 20
-78.583645211636394
 30
0.0
 11
20.211721773135078
 21
-80.392836281916061
 31
0.0
  0
ARC
  5
1AA3
  8
SAPA_PROFIL
 10
21.50000000000032
 20
-78.390808928730578
 30
0.0
 40
0.2999999999997449
 50
319.99999999999528
 51
359.99999999999193
  0
LINE
  5
1AA4
  8
SAPA_PROFIL
 10
21.800000000000072
 20
-77.999999999010456
 30
0.0
 11
21.800000000000072
 21
-78.390808928730621
 31
0.0
  0
ARC
  5
1AA5
  8
SAPA_PROFIL
 10
21.300000000000011
 20
-77.999999999010527
 30
0.0
 40
0.500000000000057
 50
0.0000000000065138
 51
89.999999999993491
  0
LINE
  5
1AA6
  8
SAPA_PROFIL
 10
20.450000000000159
 20
-77.49999999901047
 30
0.0
 11
21.300000000000072
 21
-77.49999999901047
 31
0.0
  0
ARC
  5
1AA7
  8
SAPA_PROFIL
 10
20.450000000000291
 20
-77.199999999010458
 30
0.0
 40
0.3000000000000044
 50
134.9999999999942
 51
269.9999999999755
  0
LINE
  5
1AA8
  8
SAPA_PROFIL
 10
20.637867965643981
 20
-76.587867964654379
 30
0.0
 11
20.237867965644341
 21
-76.98786796465447
 31
0.0
  0
ARC
  5
1AA9
  8
SAPA_PROFIL
 10
20.849999999999909
 20
-76.799999999010694
 30
0.0
 40
0.3000000000002245
 50
89.999999999934857
 51
134.99999999994819
  0
POLYLINE
  5
1AAA
  8
SAPA_PROFIL
 66
     1
 10
0.0
 20
0.0
 30
0.0
 70
     1
  0
VERTEX
  5
26F3
  8
SAPA_PROFIL
 10
20.85000000000025
 20
-76.49999999901047
 30
0.0
 42
0.1989123673797145
  0
VERTEX
  5
26F4
  8
SAPA_PROFIL
 10
20.637867965643981
 20
-76.587867964654379
 30
0.0
  0
VERTEX
  5
26F5
  8
SAPA_PROFIL
 10
20.237867965644341
 20
-76.98786796465447
 30
0.0
 42
0.668178637919182
  0
VERTEX
  5
26F6
  8
SAPA_PROFIL
 10
20.450000000000159
 20
-77.49999999901047
 30
0.0
  0
VERTEX
  5
26F7
  8
SAPA_PROFIL
 10
21.300000000000072
 20
-77.49999999901047
 30
0.0
 42
-0.4142135623730284
  0
VERTEX
  5
26F8
  8
SAPA_PROFIL
 10
21.800000000000072
 20
-77.999999999010456
 30
0.0
  0
VERTEX
  5
26F9
  8
SAPA_PROFIL
 10
21.800000000000072
 20
-78.390808928730621
 30
0.0
 42
-0.17632698070845
  0
VERTEX
  5
26FA
  8
SAPA_PROFIL
 10
21.729813332935809
 20
-78.583645211636394
 30
0.0
  0
VERTEX
  5
26FB
  8
SAPA_PROFIL
 10
20.211721773135078
 20
-80.392836281916061
 30
0.0
 42
-0.2216946626429421
  0
VERTEX
  5
26FC
  8
SAPA_PROFIL
 10
19.98190844019916
 20
-80.499999999010015
 30
0.0
  0
VERTEX
  5
26FD
  8
SAPA_PROFIL
 10
16.450000000000159
 20
-80.499999999010456
 30
0.0
 42
-0.4142135623730951
  0
VERTEX
  5
26FE
  8
SAPA_PROFIL
 10
16.14999999999997
 20
-80.199999999010288
 30
0.0
  0
VERTEX
  5
26FF
  8
SAPA_PROFIL
 10
16.150000000000428
 20
-77.799999999010197
 30
0.0
 42
-0.4142135623730951
  0
VERTEX
  5
2700
  8
SAPA_PROFIL
 10
16.450000000000159
 20
-77.49999999901047
 30
0.0
  0
VERTEX
  5
2701
  8
SAPA_PROFIL
 10
16.85000000000025
 20
-77.49999999901047
 30
0.0
 42
0.6681786379193188
  0
VERTEX
  5
2702
  8
SAPA_PROFIL
 10
17.062132034356068
 20
-76.98786796465447
 30
0.0
  0
VERTEX
  5
2703
  8
SAPA_PROFIL
 10
16.662132034355981
 20
-76.587867964654379
 30
0.0
 42
0.198912367379658
  0
VERTEX
  5
2704
  8
SAPA_PROFIL
 10
16.450000000000159
 20
-76.49999999901047
 30
0.0
  0
VERTEX
  5
2705
  8
SAPA_PROFIL
 10
14.65000000000043
 20
-76.499999999010015
 30
0.0
 42
0.4142135623731284
  0
VERTEX
  5
2706
  8
SAPA_PROFIL
 10
14.15000000000043
 20
-76.999999999010015
 30
0.0
  0
VERTEX
  5
2707
  8
SAPA_PROFIL
 10
14.149999999999981
 20
-81.499999999010925
 30
0.0
 42
0.4142135623730951
  0
VERTEX
  5
2708
  8
SAPA_PROFIL
 10
14.649999999999981
 20
-81.999999999010925
 30
0.0
  0
VERTEX
  5
2709
  8
SAPA_PROFIL
 10
18.649999999999981
 20
-81.999999999010015
 30
0.0
 42
-0.4142135623729619
  0
VERTEX
  5
270A
  8
SAPA_PROFIL
 10
19.149999999999981
 20
-82.499999999010015
 30
0.0
  0
VERTEX
  5
270B
  8
SAPA_PROFIL
 10
19.149999999999981
 20
-84.516956646213657
 30
0.0
 42
-0.1763269807084973
  0
VERTEX
  5
270C
  8
SAPA_PROFIL
 10
19.033022221559229
 20
-84.838350451057053
 30
0.0
  0
VERTEX
  5
270D
  8
SAPA_PROFIL
 10
16.949501460030088
 20
-87.321393803853425
 30
0.0
 42
-0.2216946626428772
  0
VERTEX
  5
270E
  8
SAPA_PROFIL
 10
16.56647923847083
 20
-87.499999999010015
 30
0.0
  0
VERTEX
  5
270F
  8
SAPA_PROFIL
 10
10.56853372839111
 20
-87.499999999010484
 30
0.0
 42
-0.315298788878991
  0
VERTEX
  5
2710
  8
SAPA_PROFIL
 10
10.098687417998351
 20
-87.171010070673219
 30
0.0
  0
VERTEX
  5
2711
  8
SAPA_PROFIL
 10
8.6380638705317097
 20
-83.157979855684516
 30
0.0
 42
0.3152987888789731
  0
VERTEX
  5
2712
  8
SAPA_PROFIL
 10
7.6983712497457191
 20
-82.499999999010015
 30
0.0
  0
VERTEX
  5
2713
  8
SAPA_PROFIL
 10
6.6499999999999773
 20
-82.499999999010015
 30
0.0
 42
-0.4142135623732616
  0
VERTEX
  5
2714
  8
SAPA_PROFIL
 10
6.3499999999997954
 20
-82.199999999010288
 30
0.0
  0
VERTEX
  5
2715
  8
SAPA_PROFIL
 10
6.3499999999997954
 20
-81.799999999010197
 30
0.0
 42
0.4142135623731506
  0
VERTEX
  5
2716
  8
SAPA_PROFIL
 10
6.0500000000000682
 20
-81.499999999010015
 30
0.0
  0
VERTEX
  5
2717
  8
SAPA_PROFIL
 10
5.6499999999999773
 20
-81.499999999010015
 30
0.0
 42
0.4142135623731505
  0
VERTEX
  5
2718
  8
SAPA_PROFIL
 10
5.3499999999997954
 20
-81.799999999010197
 30
0.0
  0
VERTEX
  5
2719
  8
SAPA_PROFIL
 10
5.3499999999997954
 20
-82.199999999010288
 30
0.0
 42
-0.4142135623732061
  0
VERTEX
  5
271A
  8
SAPA_PROFIL
 10
5.0500000000000682
 20
-82.499999999010015
 30
0.0
  0
VERTEX
  5
271B
  8
SAPA_PROFIL
 10
0.6242640687117956
 20
-82.499999999010015
 30
0.0
 42
0.198912367379577
  0
VERTEX
  5
271C
  8
SAPA_PROFIL
 10
0.4121320343559774
 20
-82.587867964654379
 30
0.0
  0
VERTEX
  5
271D
  8
SAPA_PROFIL
 10
-0.0000000000001137
 20
-82.999999999010015
 30
0.0
  0
VERTEX
  5
271E
  8
SAPA_PROFIL
 10
-0.4121320343562048
 20
-82.587867964654379
 30
0.0
 42
0.1989123673795771
  0
VERTEX
  5
271F
  8
SAPA_PROFIL
 10
-0.6242640687120229
 20
-82.499999999010015
 30
0.0
  0
VERTEX
  5
2720
  8
SAPA_PROFIL
 10
-5.04999999999984
 20
-82.499999999010015
 30
0.0
 42
-0.4142135623732059
  0
VERTEX
  5
2721
  8
SAPA_PROFIL
 10
-5.3500000000000218
 20
-82.199999999010288
 30
0.0
  0
VERTEX
  5
2722
  8
SAPA_PROFIL
 10
-5.3500000000000218
 20
-81.799999999010197
 30
0.0
 42
0.4142135623731506
  0
VERTEX
  5
2723
  8
SAPA_PROFIL
 10
-5.6500000000002037
 20
-81.499999999010015
 30
0.0
  0
VERTEX
  5
2724
  8
SAPA_PROFIL
 10
-6.04999999999984
 20
-81.499999999010015
 30
0.0
 42
0.4142135623731505
  0
VERTEX
  5
2725
  8
SAPA_PROFIL
 10
-6.3500000000000218
 20
-81.799999999010197
 30
0.0
  0
VERTEX
  5
2726
  8
SAPA_PROFIL
 10
-6.3500000000000218
 20
-82.199999999010288
 30
0.0
 42
-0.4142135623732615
  0
VERTEX
  5
2727
  8
SAPA_PROFIL
 10
-6.6500000000002037
 20
-82.499999999010015
 30
0.0
  0
VERTEX
  5
2728
  8
SAPA_PROFIL
 10
-7.6983712497454908
 20
-82.499999999010015
 30
0.0
 42
0.3152987888789731
  0
VERTEX
  5
2729
  8
SAPA_PROFIL
 10
-8.6380638705314823
 20
-83.157979855684516
 30
0.0
  0
VERTEX
  5
272A
  8
SAPA_PROFIL
 10
-10.09868741799812
 20
-87.171010070673219
 30
0.0
 42
-0.315298788878991
  0
VERTEX
  5
272B
  8
SAPA_PROFIL
 10
-10.568533728391341
 20
-87.499999999010484
 30
0.0
  0
VERTEX
  5
272C
  8
SAPA_PROFIL
 10
-16.566479238470599
 20
-87.499999999010015
 30
0.0
 42
-0.2216946626428772
  0
VERTEX
  5
272D
  8
SAPA_PROFIL
 10
-16.949501460029861
 20
-87.321393803853425
 30
0.0
  0
VERTEX
  5
272E
  8
SAPA_PROFIL
 10
-19.03302222155946
 20
-84.838350451057053
 30
0.0
 42
-0.1763269807084973
  0
VERTEX
  5
272F
  8
SAPA_PROFIL
 10
-19.150000000000201
 20
-84.516956646213657
 30
0.0
  0
VERTEX
  5
2730
  8
SAPA_PROFIL
 10
-19.150000000000201
 20
-82.499999999010015
 30
0.0
 42
-0.4142135623729619
  0
VERTEX
  5
2731
  8
SAPA_PROFIL
 10
-18.650000000000201
 20
-81.999999999010015
 30
0.0
  0
VERTEX
  5
2732
  8
SAPA_PROFIL
 10
-14.650000000000199
 20
-81.999999999010925
 30
0.0
 42
0.4142135623730951
  0
VERTEX
  5
2733
  8
SAPA_PROFIL
 10
-14.150000000000199
 20
-81.499999999010925
 30
0.0
  0
VERTEX
  5
2734
  8
SAPA_PROFIL
 10
-14.150000000000199
 20
-76.999999999010015
 30
0.0
 42
0.4142135623731285
  0
VERTEX
  5
2735
  8
SAPA_PROFIL
 10
-14.650000000000199
 20
-76.499999999010015
 30
0.0
  0
VERTEX
  5
2736
  8
SAPA_PROFIL
 10
-16.450000000000379
 20
-76.49999999901047
 30
0.0
 42
0.198912367379658
  0
VERTEX
  5
2737
  8
SAPA_PROFIL
 10
-16.662132034356201
 20
-76.587867964654379
 30
0.0
  0
VERTEX
  5
2738
  8
SAPA_PROFIL
 10
-17.062132034356289
 20
-76.98786796465447
 30
0.0
 42
0.6681786379193188
  0
VERTEX
  5
2739
  8
SAPA_PROFIL
 10
-16.850000000000019
 20
-77.49999999901047
 30
0.0
  0
VERTEX
  5
273A
  8
SAPA_PROFIL
 10
-16.450000000000379
 20
-77.49999999901047
 30
0.0
 42
-0.4142135623730951
  0
VERTEX
  5
273B
  8
SAPA_PROFIL
 10
-16.150000000000201
 20
-77.799999999010197
 30
0.0
  0
VERTEX
  5
273C
  8
SAPA_PROFIL
 10
-16.150000000000201
 20
-80.199999999010288
 30
0.0
 42
-0.4142135623730951
  0
VERTEX
  5
273D
  8
SAPA_PROFIL
 10
-16.450000000000379
 20
-80.499999999010456
 30
0.0
  0
VERTEX
  5
273E
  8
SAPA_PROFIL
 10
-19.98190844019939
 20
-80.499999999010015
 30
0.0
 42
-0.221694662642942
  0
VERTEX
  5
273F
  8
SAPA_PROFIL
 10
-20.211721773134862
 20
-80.392836281916061
 30
0.0
  0
VERTEX
  5
2740
  8
SAPA_PROFIL
 10
-21.729813332935581
 20
-78.583645211636394
 30
0.0
 42
-0.1763269807084499
  0
VERTEX
  5
2741
  8
SAPA_PROFIL
 10
-21.799999999999841
 20
-78.390808928730621
 30
0.0
  0
VERTEX
  5
2742
  8
SAPA_PROFIL
 10
-21.800000000000288
 20
-77.999999999010456
 30
0.0
 42
-0.4142135623730284
  0
VERTEX
  5
2743
  8
SAPA_PROFIL
 10
-21.300000000000299
 20
-77.49999999901047
 30
0.0
  0
VERTEX
  5
2744
  8
SAPA_PROFIL
 10
-20.45000000000039
 20
-77.49999999901047
 30
0.0
 42
0.668178637919182
  0
VERTEX
  5
2745
  8
SAPA_PROFIL
 10
-20.237867965644121
 20
-76.98786796465447
 30
0.0
  0
VERTEX
  5
2746
  8
SAPA_PROFIL
 10
-20.637867965644201
 20
-76.587867964654379
 30
0.0
 42
0.1989123673797144
  0
VERTEX
  5
2747
  8
SAPA_PROFIL
 10
-20.850000000000019
 20
-76.49999999901047
 30
0.0
  0
VERTEX
  5
2748
  8
SAPA_PROFIL
 10
-23.300000000000299
 20
-76.49999999901047
 30
0.0
 42
0.4142135623730951
  0
VERTEX
  5
2749
  8
SAPA_PROFIL
 10
-23.800000000000299
 20
-76.99999999901047
 30
0.0
  0
VERTEX
  5
274A
  8
SAPA_PROFIL
 10
-23.800000000000299
 20
-80.699999999010274
 30
0.0
 42
0.4142135623730951
  0
VERTEX
  5
274B
  8
SAPA_PROFIL
 10
-23.500000000000568
 20
-80.99999999901047
 30
0.0
  0
VERTEX
  5
274C
  8
SAPA_PROFIL
 10
-22.473205080757111
 20
-80.99999999901047
 30
0.0
 42
-0.2679491924311428
  0
VERTEX
  5
274D
  8
SAPA_PROFIL
 10
-22.213397459621891
 20
-81.149999999010575
 30
0.0
  0
VERTEX
  5
274E
  8
SAPA_PROFIL
 10
-21.325961894323541
 20
-82.687083486550804
 30
0.0
 42
-0.4142135623731709
  0
VERTEX
  5
274F
  8
SAPA_PROFIL
 10
-21.435769515459128
 20
-83.096891107686133
 30
0.0
  0
VERTEX
  5
2750
  8
SAPA_PROFIL
 10
-21.96791111376217
 20
-83.404123202713436
 30
0.0
 42
0.4663076581551056
  0
VERTEX
  5
2751
  8
SAPA_PROFIL
 10
-22.233955556881138
 20
-84.912936216184335
 30
0.0
  0
VERTEX
  5
2752
  8
SAPA_PROFIL
 10
-18.115270605417319
 20
-89.821393803853425
 30
0.0
 42
0.2216946626428921
  0
VERTEX
  5
2753
  8
SAPA_PROFIL
 10
-17.732248383857609
 20
-89.999999999010484
 30
0.0
  0
VERTEX
  5
2754
  8
SAPA_PROFIL
 10
-9.7002075382098383
 20
-89.999999999010484
 30
0.0
 42
0.3152987888789878
  0
VERTEX
  5
2755
  8
SAPA_PROFIL
 10
-8.7605149174238477
 20
-89.342020142335954
 30
0.0
  0
VERTEX
  5
2756
  8
SAPA_PROFIL
 10
-7.4196339112451142
 20
-85.657979855684516
 30
0.0
 42
-0.3152987888789804
  0
VERTEX
  5
2757
  8
SAPA_PROFIL
 10
-6.4799412904591227
 20
-84.999999999010015
 30
0.0
  0
VERTEX
  5
2758
  8
SAPA_PROFIL
 10
6.4799412904593501
 20
-84.999999999010015
 30
0.0
 42
-0.3152987888789804
  0
VERTEX
  5
2759
  8
SAPA_PROFIL
 10
7.4196339112453407
 20
-85.657979855684516
 30
0.0
  0
VERTEX
  5
275A
  8
SAPA_PROFIL
 10
8.7605149174236203
 20
-89.342020142335954
 30
0.0
 42
0.3152987888789877
  0
VERTEX
  5
275B
  8
SAPA_PROFIL
 10
9.7002075382096091
 20
-89.999999999010484
 30
0.0
  0
VERTEX
  5
275C
  8
SAPA_PROFIL
 10
17.732248383857829
 20
-89.999999999010484
 30
0.0
 42
0.2216946626428921
  0
VERTEX
  5
275D
  8
SAPA_PROFIL
 10
18.115270605417091
 20
-89.821393803853425
 30
0.0
  0
VERTEX
  5
275E
  8
SAPA_PROFIL
 10
22.233955556880911
 20
-84.912936216184335
 30
0.0
 42
0.4663076581551056
  0
VERTEX
  5
275F
  8
SAPA_PROFIL
 10
21.967911113762401
 20
-83.404123202713436
 30
0.0
  0
VERTEX
  5
2760
  8
SAPA_PROFIL
 10
21.435769515458901
 20
-83.096891107686133
 30
0.0
 42
-0.414213562373157
  0
VERTEX
  5
2761
  8
SAPA_PROFIL
 10
21.325961894323768
 20
-82.687083486550804
 30
0.0
  0
VERTEX
  5
2762
  8
SAPA_PROFIL
 10
22.213397459622112
 20
-81.149999999010575
 30
0.0
 42
-0.2679491924311554
  0
VERTEX
  5
2763
  8
SAPA_PROFIL
 10
22.473205080757339
 20
-80.99999999901047
 30
0.0
  0
VERTEX
  5
2764
  8
SAPA_PROFIL
 10
23.500000000000341
 20
-80.99999999901047
 30
0.0
 42
0.4142135623730951
  0
VERTEX
  5
2765
  8
SAPA_PROFIL
 10
23.800000000000519
 20
-80.699999999010274
 30
0.0
  0
VERTEX
  5
2766
  8
SAPA_PROFIL
 10
23.800000000000072
 20
-76.99999999901047
 30
0.0
 42
0.4142135623730951
  0
VERTEX
  5
2767
  8
SAPA_PROFIL
 10
23.300000000000072
 20
-76.49999999901047
 30
0.0
  0
SEQEND
  5
2768
  8
SAPA_PROFIL
  0
POLYLINE
  5
1AAB
  8
SAPA_PROFIL
 66
     1
 10
0.0
 20
0.0
 30
0.0
 70
     1
  0
VERTEX
  5
2769
  8
SAPA_PROFIL
 10
2.700000000000272
 20
-33.050000000001091
 30
0.0
  0
VERTEX
  5
276A
  8
SAPA_PROFIL
 10
2.0767196966983188
 20
-31.67376540642476
 30
0.0
 42
-0.5450207798987328
  0
VERTEX
  5
276B
  8
SAPA_PROFIL
 10
2.350000000000136
 20
-31.25000000000114
 30
0.0
  0
VERTEX
  5
276C
  8
SAPA_PROFIL
 10
2.700000000000272
 20
-31.25000000000114
 30
0.0
  0
VERTEX
  5
276D
  8
SAPA_PROFIL
 10
2.700000000000272
 20
-31.00000000000114
 30
0.0
 42
0.4142135623730951
  0
VERTEX
  5
276E
  8
SAPA_PROFIL
 10
1.700000000000272
 20
-30.00000000000114
 30
0.0
  0
VERTEX
  5
276F
  8
SAPA_PROFIL
 10
-1.6999999999998181
 20
-30.00000000000114
 30
0.0
 42
0.4142135623730951
  0
VERTEX
  5
2770
  8
SAPA_PROFIL
 10
-2.6999999999998181
 20
-31.00000000000114
 30
0.0
  0
VERTEX
  5
2771
  8
SAPA_PROFIL
 10
-2.6999999999998181
 20
-32.150000000001
 30
0.0
  0
VERTEX
  5
2772
  8
SAPA_PROFIL
 10
-2.3499999999996808
 20
-32.150000000001
 30
0.0
 42
-0.5450200690651551
  0
VERTEX
  5
2773
  8
SAPA_PROFIL
 10
-2.0767189999999109
 20
-32.573765000001011
 30
0.0
  0
VERTEX
  5
2774
  8
SAPA_PROFIL
 10
-2.6999999999998181
 20
-33.950000000000948
 30
0.0
  0
VERTEX
  5
2775
  8
SAPA_PROFIL
 10
-2.3499999999996808
 20
-33.950000000000948
 30
0.0
 42
-0.5450200690651692
  0
VERTEX
  5
2776
  8
SAPA_PROFIL
 10
-2.0767189999999109
 20
-34.373765000000958
 30
0.0
  0
VERTEX
  5
2777
  8
SAPA_PROFIL
 10
-2.6999999999998181
 20
-35.750000000001137
 30
0.0
  0
VERTEX
  5
2778
  8
SAPA_PROFIL
 10
-2.3499999999996808
 20
-35.750000000001137
 30
0.0
 42
-0.5450200690651619
  0
VERTEX
  5
2779
  8
SAPA_PROFIL
 10
-2.0767189999999109
 20
-36.17376500000114
 30
0.0
  0
VERTEX
  5
277A
  8
SAPA_PROFIL
 10
-2.6999999999998181
 20
-37.550000000001091
 30
0.0
  0
VERTEX
  5
277B
  8
SAPA_PROFIL
 10
-2.3499999999996808
 20
-37.550000000001091
 30
0.0
 42
-0.5450200690651619
  0
VERTEX
  5
277C
  8
SAPA_PROFIL
 10
-2.0767189999999109
 20
-37.973765000001102
 30
0.0
  0
VERTEX
  5
277D
  8
SAPA_PROFIL
 10
-2.6999999999998181
 20
-39.350000000001053
 30
0.0
  0
VERTEX
  5
277E
  8
SAPA_PROFIL
 10
-2.3499999999996808
 20
-39.350000000001053
 30
0.0
 42
-0.5450200690651692
  0
VERTEX
  5
277F
  8
SAPA_PROFIL
 10
-2.0767189999999109
 20
-39.773765000001049
 30
0.0
  0
VERTEX
  5
2780
  8
SAPA_PROFIL
 10
-2.6999999999998181
 20
-41.150000000001
 30
0.0
  0
VERTEX
  5
2781
  8
SAPA_PROFIL
 10
-2.6999999999998181
 20
-41.450000000000948
 30
0.0
  0
VERTEX
  5
2782
  8
SAPA_PROFIL
 10
2.42826763351104
 20
-41.450000000000948
 30
0.0
  0
VERTEX
  5
2783
  8
SAPA_PROFIL
 10
2.0767196966983188
 20
-40.673765406424756
 30
0.0
 42
-0.5450207798987328
  0
VERTEX
  5
2784
  8
SAPA_PROFIL
 10
2.350000000000136
 20
-40.250000000001137
 30
0.0
  0
VERTEX
  5
2785
  8
SAPA_PROFIL
 10
2.700000000000272
 20
-40.250000000001137
 30
0.0
  0
VERTEX
  5
2786
  8
SAPA_PROFIL
 10
2.0767200000002499
 20
-38.873765000000958
 30
0.0
 42
-0.5450205149791638
  0
VERTEX
  5
2787
  8
SAPA_PROFIL
 10
2.350000000000136
 20
-38.450000000000962
 30
0.0
  0
VERTEX
  5
2788
  8
SAPA_PROFIL
 10
2.700000000000272
 20
-38.450000000000962
 30
0.0
  0
VERTEX
  5
2789
  8
SAPA_PROFIL
 10
2.0767196966983188
 20
-37.073765406424627
 30
0.0
 42
-0.545020779898768
  0
VERTEX
  5
278A
  8
SAPA_PROFIL
 10
2.350000000000136
 20
-36.650000000001
 30
0.0
  0
VERTEX
  5
278B
  8
SAPA_PROFIL
 10
2.700000000000272
 20
-36.650000000001
 30
0.0
  0
VERTEX
  5
278C
  8
SAPA_PROFIL
 10
2.0767196966983188
 20
-35.273765406424673
 30
0.0
 42
-0.54502077989874
  0
VERTEX
  5
278D
  8
SAPA_PROFIL
 10
2.350000000000136
 20
-34.850000000001053
 30
0.0
  0
VERTEX
  5
278E
  8
SAPA_PROFIL
 10
2.700000000000272
 20
-34.850000000001053
 30
0.0
  0
VERTEX
  5
278F
  8
SAPA_PROFIL
 10
2.0767196966983188
 20
-33.473765406424718
 30
0.0
 42
-0.545020779898761
  0
VERTEX
  5
2790
  8
SAPA_PROFIL
 10
2.350000000000136
 20
-33.050000000001091
 30
0.0
  0
SEQEND
  5
2791
  8
SAPA_PROFIL
  0
POLYLINE
  5
1AAC
  8
SAPA_PROFIL
 66
     1
 10
0.0
 20
0.0
 30
0.0
 70
     1
  0
VERTEX
  5
2792
  8
SAPA_PROFIL
 10
23.000000000000231
 20
58.024264068710863
 30
0.0
 42
-0.1989123673796753
  0
VERTEX
  5
2793
  8
SAPA_PROFIL
 10
22.912132034356091
 20
57.812132034355052
 30
0.0
  0
VERTEX
  5
2794
  8
SAPA_PROFIL
 10
21.187867965644269
 20
56.087867965642999
 30
0.0
 42
0.1989123673796753
  0
VERTEX
  5
2795
  8
SAPA_PROFIL
 10
21.10000000000014
 20
55.875735931286947
 30
0.0
  0
VERTEX
  5
2796
  8
SAPA_PROFIL
 10
21.10000000000014
 20
55.299999999999052
 30
0.0
 42
0.4142135623730951
  0
VERTEX
  5
2797
  8
SAPA_PROFIL
 10
21.400000000000318
 20
54.999999999998863
 30
0.0
  0
VERTEX
  5
2798
  8
SAPA_PROFIL
 10
22.700000000000269
 20
54.999999999998863
 30
0.0
 42
-0.4142135623730951
  0
VERTEX
  5
2799
  8
SAPA_PROFIL
 10
23.000000000000231
 20
54.699999999998909
 30
0.0
  0
VERTEX
  5
279A
  8
SAPA_PROFIL
 10
23.000000000000231
 20
29.99999999999886
 30
0.0
 42
-0.4142135623730951
  0
VERTEX
  5
279B
  8
SAPA_PROFIL
 10
22.000000000000231
 20
28.99999999999887
 30
0.0
  0
VERTEX
  5
279C
  8
SAPA_PROFIL
 10
17.600000000000129
 20
28.99999999999887
 30
0.0
 42
0.4142135623730951
  0
VERTEX
  5
279D
  8
SAPA_PROFIL
 10
17.300000000000178
 20
28.699999999998909
 30
0.0
  0
VERTEX
  5
279E
  8
SAPA_PROFIL
 10
17.300000000000178
 20
26.399999999998961
 30
0.0
 42
0.4142135623730951
  0
VERTEX
  5
279F
  8
SAPA_PROFIL
 10
17.600000000000129
 20
26.099999999999
 30
0.0
  0
VERTEX
  5
27A0
  8
SAPA_PROFIL
 10
18.100000000000129
 20
26.099999999999
 30
0.0
 42
0.4142135623730951
  0
VERTEX
  5
27A1
  8
SAPA_PROFIL
 10
18.400000000000318
 20
26.399999999998961
 30
0.0
  0
VERTEX
  5
27A2
  8
SAPA_PROFIL
 10
18.400000000000318
 20
26.736626924633359
 30
0.0
 42
-0.5535245743249297
  0
VERTEX
  5
27A3
  8
SAPA_PROFIL
 10
22.71055421153164
 20
24.96410760212348
 30
0.0
  0
VERTEX
  5
27A4
  8
SAPA_PROFIL
 10
22.42322330470347
 20
24.67677669529553
 30
0.0
 42
0.4142135623729421
  0
VERTEX
  5
27A5
  8
SAPA_PROFIL
 10
22.42322330470347
 20
24.32322330470242
 30
0.0
  0
VERTEX
  5
27A6
  8
SAPA_PROFIL
 10
22.71055421153164
 20
24.035892397874481
 30
0.0
 42
-0.5535245743249292
  0
VERTEX
  5
27A7
  8
SAPA_PROFIL
 10
18.400000000000318
 20
22.26337307536437
 30
0.0
  0
VERTEX
  5
27A8
  8
SAPA_PROFIL
 10
18.400000000000318
 20
22.599999999999
 30
0.0
 42
0.4142135623730951
  0
VERTEX
  5
27A9
  8
SAPA_PROFIL
 10
18.100000000000129
 20
22.899999999998961
 30
0.0
  0
VERTEX
  5
27AA
  8
SAPA_PROFIL
 10
17.600000000000129
 20
22.899999999998961
 30
0.0
 42
0.4142135623730951
  0
VERTEX
  5
27AB
  8
SAPA_PROFIL
 10
17.300000000000178
 20
22.599999999999
 30
0.0
  0
VERTEX
  5
27AC
  8
SAPA_PROFIL
 10
17.300000000000178
 20
21.49999999999886
 30
0.0
 42
0.4142135623730951
  0
VERTEX
  5
27AD
  8
SAPA_PROFIL
 10
18.800000000000178
 20
19.99999999999886
 30
0.0
  0
VERTEX
  5
27AE
  8
SAPA_PROFIL
 10
21.63397459621569
 20
19.99999999999886
 30
0.0
 42
0.267949192431143
  0
VERTEX
  5
27AF
  8
SAPA_PROFIL
 10
22.066987298107961
 20
20.24999999999886
 30
0.0
 42
-0.767326987978956
  0
VERTEX
  5
27B0
  8
SAPA_PROFIL
 10
23.000000000000231
 20
19.99999999999886
 30
0.0
  0
VERTEX
  5
27B1
  8
SAPA_PROFIL
 10
23.000000000000231
 20
-15.00000000000113
 30
0.0
 42
-0.4142135623730951
  0
VERTEX
  5
27B2
  8
SAPA_PROFIL
 10
22.000000000000231
 20
-16.00000000000114
 30
0.0
  0
VERTEX
  5
27B3
  8
SAPA_PROFIL
 10
17.600000000000129
 20
-16.00000000000114
 30
0.0
 42
0.4142135623730951
  0
VERTEX
  5
27B4
  8
SAPA_PROFIL
 10
17.300000000000178
 20
-16.300000000001091
 30
0.0
  0
VERTEX
  5
27B5
  8
SAPA_PROFIL
 10
17.300000000000178
 20
-18.600000000001039
 30
0.0
 42
0.4142135623730951
  0
VERTEX
  5
27B6
  8
SAPA_PROFIL
 10
17.600000000000129
 20
-18.900000000001
 30
0.0
  0
VERTEX
  5
27B7
  8
SAPA_PROFIL
 10
18.100000000000129
 20
-18.900000000001
 30
0.0
 42
0.4142135623730951
  0
VERTEX
  5
27B8
  8
SAPA_PROFIL
 10
18.400000000000318
 20
-18.600000000001039
 30
0.0
  0
VERTEX
  5
27B9
  8
SAPA_PROFIL
 10
18.400000000000318
 20
-18.263373075366641
 30
0.0
 42
-0.5535245743249297
  0
VERTEX
  5
27BA
  8
SAPA_PROFIL
 10
22.71055421153164
 20
-20.03589239787652
 30
0.0
  0
VERTEX
  5
27BB
  8
SAPA_PROFIL
 10
22.42322330470347
 20
-20.32322330470447
 30
0.0
 42
0.4142135623730243
  0
VERTEX
  5
27BC
  8
SAPA_PROFIL
 10
22.423223304703701
 20
-20.67677669529758
 30
0.0
  0
VERTEX
  5
27BD
  8
SAPA_PROFIL
 10
22.71055421153164
 20
-20.96410760212553
 30
0.0
 42
-0.5535245743249292
  0
VERTEX
  5
27BE
  8
SAPA_PROFIL
 10
18.400000000000318
 20
-22.73662692463563
 30
0.0
  0
VERTEX
  5
27BF
  8
SAPA_PROFIL
 10
18.400000000000318
 20
-22.400000000001
 30
0.0
 42
0.4142135623730951
  0
VERTEX
  5
27C0
  8
SAPA_PROFIL
 10
18.100000000000129
 20
-22.100000000001049
 30
0.0
  0
VERTEX
  5
27C1
  8
SAPA_PROFIL
 10
17.600000000000129
 20
-22.100000000001049
 30
0.0
 42
0.4142135623730951
  0
VERTEX
  5
27C2
  8
SAPA_PROFIL
 10
17.300000000000178
 20
-22.400000000001
 30
0.0
  0
VERTEX
  5
27C3
  8
SAPA_PROFIL
 10
17.300000000000178
 20
-23.50000000000114
 30
0.0
 42
0.4142135623730951
  0
VERTEX
  5
27C4
  8
SAPA_PROFIL
 10
18.800000000000178
 20
-25.00000000000114
 30
0.0
  0
VERTEX
  5
27C5
  8
SAPA_PROFIL
 10
21.780384757729511
 20
-25.00000000000114
 30
0.0
 42
0.2679491924311188
  0
VERTEX
  5
27C6
  8
SAPA_PROFIL
 10
22.040192378864958
 20
-24.850000000001049
 30
0.0
 42
-0.7673269879789557
  0
VERTEX
  5
27C7
  8
SAPA_PROFIL
 10
22.600000000000129
 20
-25.00000000000114
 30
0.0
  0
VERTEX
  5
27C8
  8
SAPA_PROFIL
 10
22.599999999999909
 20
-27.00000000000114
 30
0.0
 42
-0.4142137811865366
  0
VERTEX
  5
27C9
  8
SAPA_PROFIL
 10
21.600000747075459
 20
-28.00000000000114
 30
0.0
  0
VERTEX
  5
27CA
  8
SAPA_PROFIL
 10
-21.599999999999682
 20
-28.00000000000114
 30
0.0
 42
-0.4142140000000124
  0
VERTEX
  5
27CB
  8
SAPA_PROFIL
 10
-22.599999999999682
 20
-27.00000000000114
 30
0.0
  0
VERTEX
  5
27CC
  8
SAPA_PROFIL
 10
-22.599999999999682
 20
-25.00000000000114
 30
0.0
 42
-0.7673269879789457
  0
VERTEX
  5
27CD
  8
SAPA_PROFIL
 10
-22.0401923788645
 20
-24.850000000001049
 30
0.0
 42
0.2679491924311191
  0
VERTEX
  5
27CE
  8
SAPA_PROFIL
 10
-21.780384757729049
 20
-25.00000000000114
 30
0.0
  0
VERTEX
  5
27CF
  8
SAPA_PROFIL
 10
-18.799999999999731
 20
-25.00000000000114
 30
0.0
 42
0.4142135623730951
  0
VERTEX
  5
27D0
  8
SAPA_PROFIL
 10
-17.299999999999731
 20
-23.50000000000114
 30
0.0
  0
VERTEX
  5
27D1
  8
SAPA_PROFIL
 10
-17.299999999999731
 20
-22.400000000001
 30
0.0
 42
0.4142135623730951
  0
VERTEX
  5
27D2
  8
SAPA_PROFIL
 10
-17.599999999999682
 20
-22.100000000001049
 30
0.0
  0
VERTEX
  5
27D3
  8
SAPA_PROFIL
 10
-18.099999999999682
 20
-22.100000000001049
 30
0.0
 42
0.4142135623730951
  0
VERTEX
  5
27D4
  8
SAPA_PROFIL
 10
-18.39999999999986
 20
-22.400000000001
 30
0.0
  0
VERTEX
  5
27D5
  8
SAPA_PROFIL
 10
-18.39999999999986
 20
-22.73662692463563
 30
0.0
 42
-0.5535245743249307
  0
VERTEX
  5
27D6
  8
SAPA_PROFIL
 10
-22.710554211531189
 20
-20.96410760212553
 30
0.0
  0
VERTEX
  5
27D7
  8
SAPA_PROFIL
 10
-22.423223304703239
 20
-20.67677669529758
 30
0.0
 42
0.4142135623730951
  0
VERTEX
  5
27D8
  8
SAPA_PROFIL
 10
-22.423223304703239
 20
-20.32322330470447
 30
0.0
  0
VERTEX
  5
27D9
  8
SAPA_PROFIL
 10
-22.710554211531189
 20
-20.03589239787652
 30
0.0
 42
-0.553524574324932
  0
VERTEX
  5
27DA
  8
SAPA_PROFIL
 10
-18.39999999999986
 20
-18.263373075366641
 30
0.0
  0
VERTEX
  5
27DB
  8
SAPA_PROFIL
 10
-18.39999999999986
 20
-18.600000000001039
 30
0.0
 42
0.4142135623730951
  0
VERTEX
  5
27DC
  8
SAPA_PROFIL
 10
-18.099999999999682
 20
-18.900000000001
 30
0.0
  0
VERTEX
  5
27DD
  8
SAPA_PROFIL
 10
-17.599999999999682
 20
-18.900000000001
 30
0.0
 42
0.4142135623730951
  0
VERTEX
  5
27DE
  8
SAPA_PROFIL
 10
-17.299999999999731
 20
-18.600000000001039
 30
0.0
  0
VERTEX
  5
27DF
  8
SAPA_PROFIL
 10
-17.299999999999731
 20
-16.300000000001091
 30
0.0
 42
0.4142135623730951
  0
VERTEX
  5
27E0
  8
SAPA_PROFIL
 10
-17.599999999999682
 20
-16.00000000000114
 30
0.0
  0
VERTEX
  5
27E1
  8
SAPA_PROFIL
 10
-21.999999999999769
 20
-16.00000000000114
 30
0.0
 42
-0.4142135623730951
  0
VERTEX
  5
27E2
  8
SAPA_PROFIL
 10
-22.999999999999769
 20
-15.00000000000113
 30
0.0
  0
VERTEX
  5
27E3
  8
SAPA_PROFIL
 10
-22.999999999999769
 20
19.99999999999886
 30
0.0
 42
-0.7673269879789569
  0
VERTEX
  5
27E4
  8
SAPA_PROFIL
 10
-22.066987298107509
 20
20.24999999999886
 30
0.0
 42
0.2679491924311163
  0
VERTEX
  5
27E5
  8
SAPA_PROFIL
 10
-21.633974596215239
 20
19.99999999999886
 30
0.0
  0
VERTEX
  5
27E6
  8
SAPA_PROFIL
 10
-18.799999999999731
 20
19.99999999999886
 30
0.0
 42
0.4142135623730951
  0
VERTEX
  5
27E7
  8
SAPA_PROFIL
 10
-17.299999999999731
 20
21.49999999999886
 30
0.0
  0
VERTEX
  5
27E8
  8
SAPA_PROFIL
 10
-17.299999999999731
 20
22.599999999999
 30
0.0
 42
0.4142135623730951
  0
VERTEX
  5
27E9
  8
SAPA_PROFIL
 10
-17.599999999999682
 20
22.899999999998961
 30
0.0
  0
VERTEX
  5
27EA
  8
SAPA_PROFIL
 10
-18.099999999999682
 20
22.899999999998961
 30
0.0
 42
0.4142135623730951
  0
VERTEX
  5
27EB
  8
SAPA_PROFIL
 10
-18.39999999999986
 20
22.599999999999
 30
0.0
  0
VERTEX
  5
27EC
  8
SAPA_PROFIL
 10
-18.39999999999986
 20
22.26337307536437
 30
0.0
 42
-0.5535245743249307
  0
VERTEX
  5
27ED
  8
SAPA_PROFIL
 10
-22.710554211531189
 20
24.035892397874481
 30
0.0
  0
VERTEX
  5
27EE
  8
SAPA_PROFIL
 10
-22.423223304703239
 20
24.32322330470242
 30
0.0
 42
0.4142135623731068
  0
VERTEX
  5
27EF
  8
SAPA_PROFIL
 10
-22.423223304703011
 20
24.67677669529553
 30
0.0
  0
VERTEX
  5
27F0
  8
SAPA_PROFIL
 10
-22.710554211531189
 20
24.96410760212348
 30
0.0
 42
-0.553524574324932
  0
VERTEX
  5
27F1
  8
SAPA_PROFIL
 10
-18.39999999999986
 20
26.736626924633359
 30
0.0
  0
VERTEX
  5
27F2
  8
SAPA_PROFIL
 10
-18.39999999999986
 20
26.399999999998961
 30
0.0
 42
0.4142135623730951
  0
VERTEX
  5
27F3
  8
SAPA_PROFIL
 10
-18.099999999999682
 20
26.099999999999
 30
0.0
  0
VERTEX
  5
27F4
  8
SAPA_PROFIL
 10
-17.599999999999682
 20
26.099999999999
 30
0.0
 42
0.4142135623730951
  0
VERTEX
  5
27F5
  8
SAPA_PROFIL
 10
-17.299999999999731
 20
26.399999999998961
 30
0.0
  0
VERTEX
  5
27F6
  8
SAPA_PROFIL
 10
-17.299999999999731
 20
28.699999999998909
 30
0.0
 42
0.4142135623730951
  0
VERTEX
  5
27F7
  8
SAPA_PROFIL
 10
-17.599999999999682
 20
28.99999999999887
 30
0.0
  0
VERTEX
  5
27F8
  8
SAPA_PROFIL
 10
-21.999999999999769
 20
28.99999999999887
 30
0.0
 42
-0.4142135623730951
  0
VERTEX
  5
27F9
  8
SAPA_PROFIL
 10
-22.999999999999769
 20
29.99999999999886
 30
0.0
  0
VERTEX
  5
27FA
  8
SAPA_PROFIL
 10
-22.999999999999769
 20
54.699999999998909
 30
0.0
 42
-0.4142135623730951
  0
VERTEX
  5
27FB
  8
SAPA_PROFIL
 10
-22.699999999999822
 20
54.999999999998863
 30
0.0
  0
VERTEX
  5
27FC
  8
SAPA_PROFIL
 10
-21.39999999999986
 20
54.999999999998863
 30
0.0
 42
0.4142135623730951
  0
VERTEX
  5
27FD
  8
SAPA_PROFIL
 10
-21.099999999999682
 20
55.299999999999052
 30
0.0
  0
VERTEX
  5
27FE
  8
SAPA_PROFIL
 10
-21.099999999999682
 20
55.875735931286947
 30
0.0
 42
0.1989123673796752
  0
VERTEX
  5
27FF
  8
SAPA_PROFIL
 10
-21.187867965643822
 20
56.087867965642999
 30
0.0
  0
VERTEX
  5
2800
  8
SAPA_PROFIL
 10
-22.91213203435586
 20
57.812132034355052
 30
0.0
 42
-0.1989123673796057
  0
VERTEX
  5
2801
  8
SAPA_PROFIL
 10
-22.999999999999769
 20
58.024264068710863
 30
0.0
  0
VERTEX
  5
2802
  8
SAPA_PROFIL
 10
-22.999999999999769
 20
61.499999999998863
 30
0.0
 42
-0.4142135623730951
  0
VERTEX
  5
2803
  8
SAPA_PROFIL
 10
-21.999999999999769
 20
62.499999999998863
 30
0.0
  0
VERTEX
  5
2804
  8
SAPA_PROFIL
 10
22.000000000000231
 20
62.499999999998863
 30
0.0
 42
-0.4142135623730951
  0
VERTEX
  5
2805
  8
SAPA_PROFIL
 10
23.000000000000231
 20
61.499999999998863
 30
0.0
  0
SEQEND
  5
2806
  8
SAPA_PROFIL
  0
POLYLINE
  5
1AAD
  8
SAPA_PROFIL
 66
     1
 10
0.0
 20
0.0
 30
0.0
 70
     1
  0
VERTEX
  5
2807
  8
SAPA_PROFIL
 10
6.0000000000002274
 20
-30.00000000000114
 30
0.0
 42
0.4142135623730951
  0
VERTEX
  5
2808
  8
SAPA_PROFIL
 10
5.0000000000002274
 20
-31.00000000000114
 30
0.0
  0
VERTEX
  5
2809
  8
SAPA_PROFIL
 10
5.0000000000002274
 20
-52.200000000000948
 30
0.0
 42
-0.4142135623730951
  0
VERTEX
  5
280A
  8
SAPA_PROFIL
 10
4.700000000000272
 20
-52.50000000000113
 30
0.0
  0
VERTEX
  5
280B
  8
SAPA_PROFIL
 10
3.0757360000002332
 20
-52.50000000000113
 30
0.0
  0
VERTEX
  5
280C
  8
SAPA_PROFIL
 10
2.2378679656442269
 20
-51.562132034356871
 30
0.0
 42
-0.668178637919305
  0
VERTEX
  5
280D
  8
SAPA_PROFIL
 10
2.450000000000272
 20
-51.050000000001091
 30
0.0
  0
VERTEX
  5
280E
  8
SAPA_PROFIL
 10
2.700000000000272
 20
-51.050000000001091
 30
0.0
  0
VERTEX
  5
280F
  8
SAPA_PROFIL
 10
2.1767196966982278
 20
-49.673765406424756
 30
0.0
 42
-0.5450207798987201
  0
VERTEX
  5
2810
  8
SAPA_PROFIL
 10
2.450000000000272
 20
-49.250000000001137
 30
0.0
  0
VERTEX
  5
2811
  8
SAPA_PROFIL
 10
2.700000000000272
 20
-49.250000000001137
 30
0.0
  0
VERTEX
  5
2812
  8
SAPA_PROFIL
 10
2.1767196966982278
 20
-47.873765406424567
 30
0.0
 42
-0.5450207798987201
  0
VERTEX
  5
2813
  8
SAPA_PROFIL
 10
2.450000000000272
 20
-47.450000000000962
 30
0.0
  0
VERTEX
  5
2814
  8
SAPA_PROFIL
 10
2.700000000000272
 20
-47.450000000000962
 30
0.0
  0
VERTEX
  5
2815
  8
SAPA_PROFIL
 10
2.1767196966982278
 20
-46.07376540642462
 30
0.0
 42
-0.5450207798987342
  0
VERTEX
  5
2816
  8
SAPA_PROFIL
 10
2.450000000000272
 20
-45.650000000000993
 30
0.0
  0
VERTEX
  5
2817
  8
SAPA_PROFIL
 10
2.700000000000272
 20
-45.650000000000993
 30
0.0
  0
VERTEX
  5
2818
  8
SAPA_PROFIL
 10
2.1767196966982278
 20
-44.273765406424673
 30
0.0
 42
-0.5450207798987201
  0
VERTEX
  5
2819
  8
SAPA_PROFIL
 10
2.450000000000272
 20
-43.850000000001039
 30
0.0
  0
VERTEX
  5
281A
  8
SAPA_PROFIL
 10
2.700000000000272
 20
-43.850000000001039
 30
0.0
  0
VERTEX
  5
281B
  8
SAPA_PROFIL
 10
2.4722372826161059
 20
-43.126282705194853
 30
0.0
 42
0.2945484962563026
  0
VERTEX
  5
281C
  8
SAPA_PROFIL
 10
2.1988824689378812
 20
-42.950048040246656
 30
0.0
  0
VERTEX
  5
281D
  8
SAPA_PROFIL
 10
1.2642999377483191
 20
-42.950255222213173
 30
0.0
 42
-0.3475954753796591
  0
VERTEX
  5
281E
  8
SAPA_PROFIL
 10
0.9723265106783856
 20
-42.719501178044077
 30
0.0
 42
0.790522909611319
  0
VERTEX
  5
281F
  8
SAPA_PROFIL
 10
-0.973664089865224
 20
-42.71949097360357
 30
0.0
 42
-0.3476065658631364
  0
VERTEX
  5
2820
  8
SAPA_PROFIL
 10
-1.2656518108867649
 20
-42.950241952335773
 30
0.0
  0
VERTEX
  5
2821
  8
SAPA_PROFIL
 10
-1.8499926620931999
 20
-42.950095231626847
 30
0.0
 42
0.4102317530969976
  0
VERTEX
  5
2822
  8
SAPA_PROFIL
 10
-2.1500282985855388
 20
-43.245946879780369
 30
0.0
 42
-0.0712587206050384
  0
VERTEX
  5
2823
  8
SAPA_PROFIL
 10
-2.1632556124550311
 20
-43.329990804708579
 30
0.0
  0
VERTEX
  5
2824
  8
SAPA_PROFIL
 10
-2.6999999999998181
 20
-44.750000000001137
 30
0.0
  0
VERTEX
  5
2825
  8
SAPA_PROFIL
 10
-2.4499999999998181
 20
-44.750000000001137
 30
0.0
 42
-0.5450200690651619
  0
VERTEX
  5
2826
  8
SAPA_PROFIL
 10
-2.17671899999982
 20
-45.173765000001133
 30
0.0
  0
VERTEX
  5
2827
  8
SAPA_PROFIL
 10
-2.6999999999998181
 20
-46.550000000001091
 30
0.0
  0
VERTEX
  5
2828
  8
SAPA_PROFIL
 10
-2.4499999999998181
 20
-46.550000000000857
 30
0.0
 42
-0.545020069065176
  0
VERTEX
  5
2829
  8
SAPA_PROFIL
 10
-2.17671899999982
 20
-46.973765000001087
 30
0.0
  0
VERTEX
  5
282A
  8
SAPA_PROFIL
 10
-2.6999999999998181
 20
-48.350000000001039
 30
0.0
  0
VERTEX
  5
282B
  8
SAPA_PROFIL
 10
-2.4499999999998181
 20
-48.350000000001039
 30
0.0
 42
-0.5450200690651692
  0
VERTEX
  5
282C
  8
SAPA_PROFIL
 10
-2.17671899999982
 20
-48.773765000001049
 30
0.0
  0
VERTEX
  5
282D
  8
SAPA_PROFIL
 10
-2.6999999999998181
 20
-50.150000000001
 30
0.0
  0
VERTEX
  5
282E
  8
SAPA_PROFIL
 10
-2.1499999999998631
 20
-50.150000000001
 30
0.0
  0
VERTEX
  5
282F
  8
SAPA_PROFIL
 10
-2.1499999999998631
 20
-51.350000000001039
 30
0.0
 42
-0.1989123673797004
  0
VERTEX
  5
2830
  8
SAPA_PROFIL
 10
-2.2378679999997071
 20
-51.562132000001156
 30
0.0
  0
VERTEX
  5
2831
  8
SAPA_PROFIL
 10
-3.075735999999778
 20
-52.50000000000113
 30
0.0
  0
VERTEX
  5
2832
  8
SAPA_PROFIL
 10
-4.6999999999998181
 20
-52.50000000000113
 30
0.0
 42
-0.4142135623730951
  0
VERTEX
  5
2833
  8
SAPA_PROFIL
 10
-4.9999999999997717
 20
-52.200000000000948
 30
0.0
  0
VERTEX
  5
2834
  8
SAPA_PROFIL
 10
-4.9999999999997717
 20
-31.00000000000114
 30
0.0
 42
0.4142135623730951
  0
VERTEX
  5
2835
  8
SAPA_PROFIL
 10
-5.9999999999997717
 20
-30.00000000000114
 30
0.0
  0
VERTEX
  5
2836
  8
SAPA_PROFIL
 10
-14.19999999999982
 20
-30.00000000000114
 30
0.0
 42
0.4142135623730951
  0
VERTEX
  5
2837
  8
SAPA_PROFIL
 10
-14.69999999999982
 20
-30.50000000000114
 30
0.0
  0
VERTEX
  5
2838
  8
SAPA_PROFIL
 10
-14.69999999999982
 20
-33.700000000000962
 30
0.0
 42
0.4142135623730951
  0
VERTEX
  5
2839
  8
SAPA_PROFIL
 10
-14.19999999999982
 20
-34.200000000000962
 30
0.0
  0
VERTEX
  5
283A
  8
SAPA_PROFIL
 10
-11.299999999999731
 20
-34.200000000000962
 30
0.0
 42
-0.4142135623730951
  0
VERTEX
  5
283B
  8
SAPA_PROFIL
 10
-10.999999999999771
 20
-34.500000000001137
 30
0.0
  0
VERTEX
  5
283C
  8
SAPA_PROFIL
 10
-10.999999999999771
 20
-35.200000000000948
 30
0.0
 42
-0.4142135623730951
  0
VERTEX
  5
283D
  8
SAPA_PROFIL
 10
-11.299999999999731
 20
-35.500000000001137
 30
0.0
  0
VERTEX
  5
283E
  8
SAPA_PROFIL
 10
-17.999999999999769
 20
-35.500000000001137
 30
0.0
  0
VERTEX
  5
283F
  8
SAPA_PROFIL
 10
-18.586384015500471
 20
-35.035076580641999
 30
0.0
 42
-0.7105995019814511
  0
VERTEX
  5
2840
  8
SAPA_PROFIL
 10
-18.39999999999986
 20
-34.500000000001137
 30
0.0
  0
VERTEX
  5
2841
  8
SAPA_PROFIL
 10
-16.499999999999769
 20
-34.500000000001137
 30
0.0
 42
0.4142135623730951
  0
VERTEX
  5
2842
  8
SAPA_PROFIL
 10
-16.199999999999822
 20
-34.200000000000962
 30
0.0
  0
VERTEX
  5
2843
  8
SAPA_PROFIL
 10
-16.199999999999822
 20
-30.300000000001091
 30
0.0
 42
0.4142135623730951
  0
VERTEX
  5
2844
  8
SAPA_PROFIL
 10
-16.499999999999769
 20
-30.00000000000114
 30
0.0
  0
VERTEX
  5
2845
  8
SAPA_PROFIL
 10
-23.199999999999822
 20
-30.00000000000114
 30
0.0
 42
0.4142135623730951
  0
VERTEX
  5
2846
  8
SAPA_PROFIL
 10
-23.499999999999769
 20
-30.300000000001091
 30
0.0
  0
VERTEX
  5
2847
  8
SAPA_PROFIL
 10
-23.499999999999769
 20
-34.200000000000962
 30
0.0
 42
0.4142135623730951
  0
VERTEX
  5
2848
  8
SAPA_PROFIL
 10
-23.199999999999822
 20
-34.500000000001137
 30
0.0
  0
VERTEX
  5
2849
  8
SAPA_PROFIL
 10
-21.999999999999769
 20
-34.500000000001137
 30
0.0
 42
-0.7105990647993611
  0
VERTEX
  5
284A
  8
SAPA_PROFIL
 10
-21.81361599999968
 20
-35.035076000001027
 30
0.0
  0
VERTEX
  5
284B
  8
SAPA_PROFIL
 10
-22.39999999999986
 20
-35.500000000001137
 30
0.0
  0
VERTEX
  5
284C
  8
SAPA_PROFIL
 10
-24.699999999999822
 20
-35.500000000001137
 30
0.0
 42
-0.4142135623730951
  0
VERTEX
  5
284D
  8
SAPA_PROFIL
 10
-24.999999999999769
 20
-35.200000000000948
 30
0.0
  0
VERTEX
  5
284E
  8
SAPA_PROFIL
 10
-24.999999999999769
 20
63.999999999998863
 30
0.0
 42
-0.4142135623730951
  0
VERTEX
  5
284F
  8
SAPA_PROFIL
 10
-24.499999999999769
 20
64.499999999998863
 30
0.0
  0
VERTEX
  5
2850
  8
SAPA_PROFIL
 10
24.500000000000231
 20
64.499999999998863
 30
0.0
 42
-0.4142135623730951
  0
VERTEX
  5
2851
  8
SAPA_PROFIL
 10
25.000000000000231
 20
63.999999999998863
 30
0.0
  0
VERTEX
  5
2852
  8
SAPA_PROFIL
 10
25.000000000000231
 20
-35.200000000000948
 30
0.0
 42
-0.4142135623730951
  0
VERTEX
  5
2853
  8
SAPA_PROFIL
 10
24.700000000000269
 20
-35.500000000001137
 30
0.0
  0
VERTEX
  5
2854
  8
SAPA_PROFIL
 10
22.400000000000318
 20
-35.500000000001137
 30
0.0
  0
VERTEX
  5
2855
  8
SAPA_PROFIL
 10
21.81361598449962
 20
-35.035076580641999
 30
0.0
 42
-0.7105995019814511
  0
VERTEX
  5
2856
  8
SAPA_PROFIL
 10
22.000000000000231
 20
-34.500000000001137
 30
0.0
  0
VERTEX
  5
2857
  8
SAPA_PROFIL
 10
23.200000000000269
 20
-34.500000000001137
 30
0.0
 42
0.4142135623730951
  0
VERTEX
  5
2858
  8
SAPA_PROFIL
 10
23.500000000000231
 20
-34.200000000000962
 30
0.0
  0
VERTEX
  5
2859
  8
SAPA_PROFIL
 10
23.500000000000231
 20
-30.300000000001091
 30
0.0
 42
0.4142135623730951
  0
VERTEX
  5
285A
  8
SAPA_PROFIL
 10
23.200000000000269
 20
-30.00000000000114
 30
0.0
  0
VERTEX
  5
285B
  8
SAPA_PROFIL
 10
16.500000000000231
 20
-30.00000000000114
 30
0.0
 42
0.4142135623730951
  0
VERTEX
  5
285C
  8
SAPA_PROFIL
 10
16.200000000000269
 20
-30.300000000001091
 30
0.0
  0
VERTEX
  5
285D
  8
SAPA_PROFIL
 10
16.200000000000269
 20
-34.200000000000962
 30
0.0
 42
0.4142135623730951
  0
VERTEX
  5
285E
  8
SAPA_PROFIL
 10
16.500000000000231
 20
-34.500000000001137
 30
0.0
  0
VERTEX
  5
285F
  8
SAPA_PROFIL
 10
18.400000000000318
 20
-34.500000000001137
 30
0.0
 42
-0.7105995019814511
  0
VERTEX
  5
2860
  8
SAPA_PROFIL
 10
18.586384015500919
 20
-35.035076580641999
 30
0.0
  0
VERTEX
  5
2861
  8
SAPA_PROFIL
 10
18.000000000000231
 20
-35.500000000001137
 30
0.0
  0
VERTEX
  5
2862
  8
SAPA_PROFIL
 10
11.30000000000018
 20
-35.500000000001137
 30
0.0
 42
-0.4142135623730951
  0
VERTEX
  5
2863
  8
SAPA_PROFIL
 10
11.00000000000022
 20
-35.200000000000948
 30
0.0
  0
VERTEX
  5
2864
  8
SAPA_PROFIL
 10
11.00000000000022
 20
-34.500000000001137
 30
0.0
 42
-0.4142135623730951
  0
VERTEX
  5
2865
  8
SAPA_PROFIL
 10
11.30000000000018
 20
-34.200000000000962
 30
0.0
  0
VERTEX
  5
2866
  8
SAPA_PROFIL
 10
14.200000000000269
 20
-34.200000000000962
 30
0.0
 42
0.4142135623730951
  0
VERTEX
  5
2867
  8
SAPA_PROFIL
 10
14.700000000000269
 20
-33.700000000000962
 30
0.0
  0
VERTEX
  5
2868
  8
SAPA_PROFIL
 10
14.700000000000269
 20
-30.50000000000114
 30
0.0
 42
0.4142135623730951
  0
VERTEX
  5
2869
  8
SAPA_PROFIL
 10
14.200000000000269
 20
-30.00000000000114
 30
0.0
  0
SEQEND
  5
286A
  8
SAPA_PROFIL
  0
TEXT
  5
1AB3
  8
SAPA_ARTIKELNR
 62
     4
 10
-210.1798616620749
 20
20.051192723413301
 30
-0.1
 40
3.0
  1
42762
  7
BYGG-036634$0$STANDARD
 72
     4
 11
-203.1798616620749
 21
21.551192723413301
 31
-0.1
  0
POLYLINE
  5
1ABF
  8
SAPA_GLAS
 66
     1
 10
0.0
 20
0.0
 30
0.0
  0
VERTEX
  5
2880
  8
SAPA_GLAS
 10
40.999999999995111
 20
-51.499999999010242
 30
0.0
  0
VERTEX
  5
2881
  8
SAPA_GLAS
 10
10.99999999999511
 20
-51.499999999010242
 30
0.0
  0
VERTEX
  5
2882
  8
SAPA_GLAS
 10
10.99999999999511
 20
-45.499999999010242
 30
0.0
  0
VERTEX
  5
2883
  8
SAPA_GLAS
 10
40.999999999995111
 20
-45.499999999010242
 30
0.0
  0
SEQEND
  5
2884
  8
SAPA_GLAS
  0
POLYLINE
  5
1AC0
  8
SAPA_GLAS
 66
     1
 10
0.0
 20
0.0
 30
0.0
  0
VERTEX
  5
2885
  8
SAPA_GLAS
 10
20.99999999999466
 20
-66.499999999011834
 30
0.0
  0
VERTEX
  5
2886
  8
SAPA_GLAS
 10
20.99999999999466
 20
-51.499999999010242
 30
0.0
  0
VERTEX
  5
2887
  8
SAPA_GLAS
 10
10.99999999999511
 20
-51.499999999010242
 30
0.0
  0
VERTEX
  5
2888
  8
SAPA_GLAS
 10
10.99999999999511
 20
-66.499999999011834
 30
0.0
  0
VERTEX
  5
2889
  8
SAPA_GLAS
 10
20.99999999999466
 20
-66.499999999011834
 30
0.0
  0
SEQEND
  5
288A
  8
SAPA_GLAS
  0
POLYLINE
  5
1AC1
  8
SAPA_GLAS
 66
     1
 10
0.0
 20
0.0
 30
0.0
  0
VERTEX
  5
288B
  8
SAPA_GLAS
 10
40.999999999995111
 20
-72.499999999011834
 30
0.0
  0
VERTEX
  5
288C
  8
SAPA_GLAS
 10
10.99999999999511
 20
-72.499999999011891
 30
0.0
  0
VERTEX
  5
288D
  8
SAPA_GLAS
 10
10.99999999999511
 20
-66.499999999011834
 30
0.0
  0
VERTEX
  5
288E
  8
SAPA_GLAS
 10
40.999999999995111
 20
-66.499999999011834
 30
0.0
  0
SEQEND
  5
288F
  8
SAPA_GLAS
  0
LINE
  5
1AC2
  8
SAPA_GLAS
 10
-162.9999761892264
 20
-57.549999665132873
 30
-0.1
 11
-162.9999761892264
 21
-42.549999665132873
 31
-0.1
  0
POLYLINE
  5
1AC3
  8
SAPA_GLAS
 66
     1
 10
0.0
 20
0.0
 30
-0.1
  0
VERTEX
  5
2890
  8
SAPA_GLAS
 10
-182.9999761892264
 20
-36.549999665132873
 30
-0.1
  0
VERTEX
  5
2891
  8
SAPA_GLAS
 10
-152.9999761892264
 20
-36.549999665132873
 30
-0.1
  0
VERTEX
  5
2892
  8
SAPA_GLAS
 10
-152.9999761892264
 20
-63.549999665132873
 30
-0.1
  0
VERTEX
  5
2893
  8
SAPA_GLAS
 10
-182.9999761892264
 20
-63.549999665132873
 30
-0.1
  0
SEQEND
  5
2894
  8
SAPA_GLAS
  0
LINE
  5
1AC4
  8
SAPA_GLAS
 10
-182.9999761892264
 20
-42.549999665132873
 30
-0.1
 11
-152.9999761892264
 21
-42.549999665132873
 31
-0.1
  0
LINE
  5
1AC5
  8
SAPA_GLAS
 10
-182.9999761892264
 20
-57.549999665132873
 30
-0.1
 11
-152.9999761892264
 21
-57.549999665132873
 31
-0.1
  0
LINE
  5
1AD3
  8
SAPA_ISOLATOR
 10
-25.000017836126801
 20
-7.336982823599925
 30
0.0
 11
-31.194641603309751
 21
-7.336982823599925
 31
0.0
  0
LINE
  5
1AD4
  8
SAPA_ISOLATOR
 10
-25.000017836126801
 20
-42.578680180558841
 30
0.0
 11
-25.000017836126801
 21
-7.336982823599925
 31
0.0
  0
LINE
  5
1AD5
  8
SAPA_ISOLATOR
 10
-31.19464160331157
 20
-42.578680180558841
 30
0.0
 11
-25.000017836126801
 21
-42.578680180558841
 31
0.0
  0
LINE
  5
1AD6
  8
SAPA_ISOLATOR
 10
-31.200017836126818
 20
-7.336982823599925
 30
0.0
 11
-31.19464160331157
 21
-42.578680180558841
 31
0.0
  0
POLYLINE
  5
1AD7
  8
SAPA_ISOLATOR
 66
     1
 10
0.0
 20
0.0
 30
0.0
 70
     1
  0
VERTEX
  5
28C6
  8
SAPA_ISOLATOR
 10
-1.055634910785954
 20
-78.358578641879717
 30
0.0
 42
-0.1989123671061458
  0
VERTEX
  5
28C7
  8
SAPA_ISOLATOR
 10
-0.2071067742551236
 20
-78.00710678019658
 30
0.0
  0
VERTEX
  5
28C8
  8
SAPA_ISOLATOR
 10
0.2071067742560331
 20
-78.00710678019658
 30
0.0
 42
-0.1989123671061505
  0
VERTEX
  5
28C9
  8
SAPA_ISOLATOR
 10
1.0556349107868639
 20
-78.358578641879717
 30
0.0
  0
VERTEX
  5
28CA
  8
SAPA_ISOLATOR
 10
3.2878679658677461
 20
-80.590811692262079
 30
0.0
 42
0.6681786375387371
  0
VERTEX
  5
28CB
  8
SAPA_ISOLATOR
 10
3.8000000000004661
 20
-80.378679657682881
 30
0.0
  0
VERTEX
  5
28CC
  8
SAPA_ISOLATOR
 10
3.8000000000004088
 20
-67.999999999010015
 30
0.0
 42
0.4142135623731103
  0
VERTEX
  5
28CD
  8
SAPA_ISOLATOR
 10
3.500000000000397
 20
-67.699999999010004
 30
0.0
  0
VERTEX
  5
28CE
  8
SAPA_ISOLATOR
 10
-3.499999999999488
 20
-67.699999999010004
 30
0.0
 42
0.4142135623731173
  0
VERTEX
  5
28CF
  8
SAPA_ISOLATOR
 10
-3.7999999999995562
 20
-67.999999999010015
 30
0.0
  0
VERTEX
  5
28D0
  8
SAPA_ISOLATOR
 10
-3.7999999999995562
 20
-80.378679657682881
 30
0.0
 42
0.6681786375387019
  0
VERTEX
  5
28D1
  8
SAPA_ISOLATOR
 10
-3.2878679658668371
 20
-80.590811692262079
 30
0.0
  0
SEQEND
  5
28D2
  8
SAPA_ISOLATOR
  0
POLYLINE
  5
1AD8
  8
SAPA_ISOLATOR
 66
     1
 10
0.0
 20
0.0
 30
0.0
 70
     1
  0
VERTEX
  5
28D3
  8
SAPA_ISOLATOR
 10
-1.0999999999995671
 20
-52.147056273857743
 30
0.0
  0
VERTEX
  5
28D4
  8
SAPA_ISOLATOR
 10
-2.652943725151828
 20
-53.69999999901006
 30
0.0
  0
VERTEX
  5
28D5
  8
SAPA_ISOLATOR
 10
-3.4999999999996021
 20
-53.699999999010011
 30
0.0
 42
0.4142135623731173
  0
VERTEX
  5
28D6
  8
SAPA_ISOLATOR
 10
-3.7999999999995562
 20
-53.999999999010022
 30
0.0
  0
VERTEX
  5
28D7
  8
SAPA_ISOLATOR
 10
-3.7999999999995562
 20
-65.999999999010015
 30
0.0
 42
0.4142135623731103
  0
VERTEX
  5
28D8
  8
SAPA_ISOLATOR
 10
-3.4999999999996021
 20
-66.299999999010026
 30
0.0
  0
VERTEX
  5
28D9
  8
SAPA_ISOLATOR
 10
3.5000000000005111
 20
-66.299999999010026
 30
0.0
 42
0.4142135623731173
  0
VERTEX
  5
28DA
  8
SAPA_ISOLATOR
 10
3.8000000000004661
 20
-65.999999999010015
 30
0.0
  0
VERTEX
  5
28DB
  8
SAPA_ISOLATOR
 10
3.8000000000004661
 20
-53.999999999010022
 30
0.0
 42
0.4142135623731103
  0
VERTEX
  5
28DC
  8
SAPA_ISOLATOR
 10
3.5000000000005111
 20
-53.699999999010011
 30
0.0
  0
VERTEX
  5
28DD
  8
SAPA_ISOLATOR
 10
2.6529437251526811
 20
-53.69999999901006
 30
0.0
  0
VERTEX
  5
28DE
  8
SAPA_ISOLATOR
 10
1.10000000000042
 20
-52.147056273857629
 30
0.0
  0
VERTEX
  5
28DF
  8
SAPA_ISOLATOR
 10
1.100000000000477
 20
-46.615727369978629
 30
0.0
 42
0.0633388351918984
  0
VERTEX
  5
28E0
  8
SAPA_ISOLATOR
 10
0.3024121700678393
 20
-45.403112852077129
 30
0.0
 42
0.305556580149261
  0
VERTEX
  5
28E1
  8
SAPA_ISOLATOR
 10
-0.1515893836760824
 20
-45.342204651895429
 30
0.0
 42
0.0648283553387436
  0
VERTEX
  5
28E2
  8
SAPA_ISOLATOR
 10
-1.0999999999995109
 20
-46.621347326266338
 30
0.0
  0
SEQEND
  5
28E3
  8
SAPA_ISOLATOR
  0
POLYLINE
  5
1AD9
  8
SAPA_ISOLATOR
 66
     1
 10
0.0
 20
0.0
 30
0.0
 70
     1
  0
VERTEX
  5
28E4
  8
SAPA_ISOLATOR
 10
-3.1499999999995221
 20
-52.499999999010008
 30
0.0
  0
VERTEX
  5
28E5
  8
SAPA_ISOLATOR
 10
-4.4999999999995453
 20
-52.499999999010008
 30
0.0
 42
0.4142135623730951
  0
VERTEX
  5
28E6
  8
SAPA_ISOLATOR
 10
-4.9999999999995453
 20
-52.999999999010008
 30
0.0
  0
VERTEX
  5
28E7
  8
SAPA_ISOLATOR
 10
-4.9999999999995453
 20
-82.499999999010015
 30
0.0
  0
VERTEX
  5
28E8
  8
SAPA_ISOLATOR
 10
-3.4999999999995448
 20
-82.499999999010015
 30
0.0
  0
VERTEX
  5
28E9
  8
SAPA_ISOLATOR
 10
-0.3535533839701088
 20
-79.353553389603292
 30
0.0
 42
-0.4142135623730951
  0
VERTEX
  5
28EA
  8
SAPA_ISOLATOR
 10
0.3535533972164444
 20
-79.353553389603292
 30
0.0
  0
VERTEX
  5
28EB
  8
SAPA_ISOLATOR
 10
3.5000000000004539
 20
-82.499999999010015
 30
0.0
  0
VERTEX
  5
28EC
  8
SAPA_ISOLATOR
 10
5.0000000000004539
 20
-82.499999999010015
 30
0.0
  0
VERTEX
  5
28ED
  8
SAPA_ISOLATOR
 10
5.0000000000004539
 20
-52.999999999010008
 30
0.0
 42
0.4142135623730951
  0
VERTEX
  5
28EE
  8
SAPA_ISOLATOR
 10
4.5000000000004539
 20
-52.499999999010008
 30
0.0
  0
VERTEX
  5
28EF
  8
SAPA_ISOLATOR
 10
3.150000000000432
 20
-52.499999999010008
 30
0.0
  0
VERTEX
  5
28F0
  8
SAPA_ISOLATOR
 10
2.3000000000004661
 20
-51.649999999010049
 30
0.0
  0
VERTEX
  5
28F1
  8
SAPA_ISOLATOR
 10
2.3000000000004661
 20
-47.094967040794693
 30
0.0
 42
0.0912836897734203
  0
VERTEX
  5
28F2
  8
SAPA_ISOLATOR
 10
1.081358332190518
 20
-44.975410007192693
 30
0.0
 42
0.4396415083054684
  0
VERTEX
  5
28F3
  8
SAPA_ISOLATOR
 10
-1.081358332189722
 20
-44.97541000719275
 30
0.0
 42
0.0912836897734202
  0
VERTEX
  5
28F4
  8
SAPA_ISOLATOR
 10
-2.2999999999995562
 20
-47.094967040794693
 30
0.0
  0
VERTEX
  5
28F5
  8
SAPA_ISOLATOR
 10
-2.2999999999995562
 20
-51.649999999010049
 30
0.0
  0
SEQEND
  5
28F6
  8
SAPA_ISOLATOR
  0
LINE
  5
1ADA
  8
SAPA_ISOLATOR
 10
-31.19464160331157
 20
-42.578680180558841
 30
0.0
 11
-25.000017836126801
 21
-7.336982823599925
 31
0.0
  0
LINE
  5
1ADB
  8
SAPA_ISOLATOR
 10
-31.21660513901228
 20
-7.336982823599925
 30
0.0
 11
-25.011228906197012
 21
-42.578680180558841
 31
0.0
  0
CIRCLE
  5
1AF5
  8
SAPA_FOGBAND
 10
-18.616845202065178
 20
-74.637567762924107
 30
0.0
 40
0.2549509756796394
  0
INSERT
  5
1AF6
  8
SAPA_FOGBAND
  6
CONTINUOUS
  2
*U138
 10
0.0
 20
0.0
 30
0.0
1001
ACAD
1002
{
1000
R14_HATCH_DATA
1000
1AF6
1011
1.0
1021
0.0
1031
0.0
1021
0.0
1031
0.0
1011
0.0
1021
0.0
1031
0.0
1021
1.0
1031
0.0
1011
0.0
1021
0.0
1031
0.0
1021
0.0
1031
1.0
1040
0.0
1010
0.0
1020
0.0
1030
1.0
1000
SOLID
1070
     1
1070
     1
1071
        1
1071
        1
1071
        1
1070
     2
1040
-18.616845202065178
1040
-74.637567762924107
1040
0.2549509756796394
1040
0.0
1040
6.2831853071795862
1070
     1
1071
        1
1005
1AF5
1070
     0
1070
     1
1071
        1
1040
-18.853584103635281
1040
-74.555716265595208
1040
0.0
1002
}
  0
POLYLINE
  5
1AF7
  8
SAPA_FOGBAND
 66
     1
 10
0.0
 20
0.0
 30
0.0
 70
     1
  0
VERTEX
  5
2A43
  8
SAPA_FOGBAND
 10
-17.716845202065201
 20
-77.599999542168632
 30
0.0
 42
0.9999999999999998
  0
VERTEX
  5
2A44
  8
SAPA_FOGBAND
 10
-19.516845202065149
 20
-77.599999542168632
 30
0.0
  0
VERTEX
  5
2A45
  8
SAPA_FOGBAND
 10
-19.516845202065149
 20
-78.199999542168655
 30
0.0
 42
0.9999999999999998
  0
VERTEX
  5
2A46
  8
SAPA_FOGBAND
 10
-17.716845202065201
 20
-78.199999542168655
 30
0.0
  0
SEQEND
  5
2A47
  8
SAPA_FOGBAND
  0
POLYLINE
  5
1AF8
  8
SAPA_FOGBAND
 66
     1
 10
0.0
 20
0.0
 30
0.0
 70
     1
  0
VERTEX
  5
2A48
  8
SAPA_FOGBAND
 10
-27.244721510238382
 20
-72.499999542168595
 30
0.0
 42
0.0775891054856093
  0
VERTEX
  5
2A49
  8
SAPA_FOGBAND
 10
-23.777939779815821
 20
-72.816635526229959
 30
0.0
  0
VERTEX
  5
2A4A
  8
SAPA_FOGBAND
 10
-23.540050286987022
 20
-72.599999542168575
 30
0.0
 42
-0.5773502691896298
  0
VERTEX
  5
2A4B
  8
SAPA_FOGBAND
 10
-23.19364012547317
 20
-72.599999542168575
 30
0.0
  0
VERTEX
  5
2A4C
  8
SAPA_FOGBAND
 10
-22.95559250874237
 20
-72.816909396391623
 30
0.0
  0
VERTEX
  5
2A4D
  8
SAPA_FOGBAND
 10
-22.17809789882574
 20
-72.816909396391623
 30
0.0
  0
VERTEX
  5
2A4E
  8
SAPA_FOGBAND
 10
-21.940050286986999
 20
-72.599999542168575
 30
0.0
 42
-0.577350269189699
  0
VERTEX
  5
2A4F
  8
SAPA_FOGBAND
 10
-21.593640125473261
 20
-72.599999542168575
 30
0.0
  0
VERTEX
  5
2A50
  8
SAPA_FOGBAND
 10
-21.355592508742461
 20
-72.816909396391623
 30
0.0
  0
VERTEX
  5
2A51
  8
SAPA_FOGBAND
 10
-20.578097898825721
 20
-72.816909396391623
 30
0.0
  0
VERTEX
  5
2A52
  8
SAPA_FOGBAND
 10
-20.34005028698698
 20
-72.599999542168575
 30
0.0
 42
-0.577350269189699
  0
VERTEX
  5
2A53
  8
SAPA_FOGBAND
 10
-19.993640125473231
 20
-72.599999542168575
 30
0.0
  0
VERTEX
  5
2A54
  8
SAPA_FOGBAND
 10
-19.755592508742438
 20
-72.816909396391623
 30
0.0
  0
VERTEX
  5
2A55
  8
SAPA_FOGBAND
 10
-18.978097898825691
 20
-72.816909396391623
 30
0.0
  0
VERTEX
  5
2A56
  8
SAPA_FOGBAND
 10
-18.740050286987071
 20
-72.599999542168575
 30
0.0
 42
-0.5773502691896298
  0
VERTEX
  5
2A57
  8
SAPA_FOGBAND
 10
-18.393640125473208
 20
-72.599999542168575
 30
0.0
  0
VERTEX
  5
2A58
  8
SAPA_FOGBAND
 10
-18.155592508742409
 20
-72.816909396391623
 30
0.0
  0
VERTEX
  5
2A59
  8
SAPA_FOGBAND
 10
-17.378097898825668
 20
-72.816909396391623
 30
0.0
  0
VERTEX
  5
2A5A
  8
SAPA_FOGBAND
 10
-17.140050286987051
 20
-72.599999542168575
 30
0.0
 42
-0.5773502691896298
  0
VERTEX
  5
2A5B
  8
SAPA_FOGBAND
 10
-16.793640125473189
 20
-72.599999542168575
 30
0.0
  0
VERTEX
  5
2A5C
  8
SAPA_FOGBAND
 10
-16.555592508742389
 20
-72.816909396391623
 30
0.0
  0
VERTEX
  5
2A5D
  8
SAPA_FOGBAND
 10
-15.77809789466073
 20
-72.816909396391623
 30
0.0
  0
VERTEX
  5
2A5E
  8
SAPA_FOGBAND
 10
-15.540050282821991
 20
-72.599999542168575
 30
0.0
 42
-0.577350269189699
  0
VERTEX
  5
2A5F
  8
SAPA_FOGBAND
 10
-15.193640121308251
 20
-72.599999542168575
 30
0.0
  0
VERTEX
  5
2A60
  8
SAPA_FOGBAND
 10
-14.393640121753149
 20
-73.67332961065307
 30
0.0
 42
-0.1316524987190269
  0
VERTEX
  5
2A61
  8
SAPA_FOGBAND
 10
-14.36684520206518
 20
-73.773329611423776
 30
0.0
  0
VERTEX
  5
2A62
  8
SAPA_FOGBAND
 10
-14.366845202065059
 20
-76.299999542168564
 30
0.0
 42
-0.4142135623730951
  0
VERTEX
  5
2A63
  8
SAPA_FOGBAND
 10
-14.56684520206511
 20
-76.499999542168609
 30
0.0
  0
VERTEX
  5
2A64
  8
SAPA_FOGBAND
 10
-16.616845202065178
 20
-76.499999542168609
 30
0.0
 42
0.4142135623730951
  0
VERTEX
  5
2A65
  8
SAPA_FOGBAND
 10
-17.116845202065178
 20
-76.999999542168609
 30
0.0
  0
VERTEX
  5
2A66
  8
SAPA_FOGBAND
 10
-17.116845202065178
 20
-77.726794461411771
 30
0.0
  0
VERTEX
  5
2A67
  8
SAPA_FOGBAND
 10
-16.86508139304464
 20
-77.794254370722172
 30
0.0
 42
-0.4740571810232869
  0
VERTEX
  5
2A68
  8
SAPA_FOGBAND
 10
-16.737787530681089
 20
-78.076536956360826
 30
0.0
  0
VERTEX
  5
2A69
  8
SAPA_FOGBAND
 10
-17.357888033439622
 20
-79.522743093120596
 30
0.0
 42
-0.2846003776495916
  0
VERTEX
  5
2A6A
  8
SAPA_FOGBAND
 10
-17.805532211899841
 20
-79.799999542168564
 30
0.0
  0
VERTEX
  5
2A6B
  8
SAPA_FOGBAND
 10
-19.428158192230399
 20
-79.799999542168564
 30
0.0
 42
-0.2846003776495917
  0
VERTEX
  5
2A6C
  8
SAPA_FOGBAND
 10
-19.875802370690622
 20
-79.522743093120596
 30
0.0
  0
VERTEX
  5
2A6D
  8
SAPA_FOGBAND
 10
-20.495902873449161
 20
-78.076536956360826
 30
0.0
 42
-0.4740571810232869
  0
VERTEX
  5
2A6E
  8
SAPA_FOGBAND
 10
-20.368609011085599
 20
-77.794254370722172
 30
0.0
  0
VERTEX
  5
2A6F
  8
SAPA_FOGBAND
 10
-20.116845202065178
 20
-77.726794461411771
 30
0.0
  0
VERTEX
  5
2A70
  8
SAPA_FOGBAND
 10
-20.116845202065178
 20
-76.999999542168609
 30
0.0
 42
0.4142135623730951
  0
VERTEX
  5
2A71
  8
SAPA_FOGBAND
 10
-20.616845202065178
 20
-76.499999542168609
 30
0.0
  0
VERTEX
  5
2A72
  8
SAPA_FOGBAND
 10
-23.666845202065129
 20
-76.499999542168609
 30
0.0
 42
0.4142135623730951
  0
VERTEX
  5
2A73
  8
SAPA_FOGBAND
 10
-23.866845202065178
 20
-76.699999542168655
 30
0.0
  0
VERTEX
  5
2A74
  8
SAPA_FOGBAND
 10
-23.866845202065068
 20
-77.599999542168632
 30
0.0
 42
-0.4142135623731784
  0
VERTEX
  5
2A75
  8
SAPA_FOGBAND
 10
-24.06684520206511
 20
-77.799999542168564
 30
0.0
  0
VERTEX
  5
2A76
  8
SAPA_FOGBAND
 10
-24.766845202065159
 20
-77.799999542168678
 30
0.0
 42
-0.4142135623730398
  0
VERTEX
  5
2A77
  8
SAPA_FOGBAND
 10
-25.06684520206511
 20
-77.499999542168595
 30
0.0
  0
VERTEX
  5
2A78
  8
SAPA_FOGBAND
 10
-25.06684520206511
 20
-76.689487765517072
 30
0.0
 42
0.1316524975873973
  0
VERTEX
  5
2A79
  8
SAPA_FOGBAND
 10
-25.334794394496271
 20
-75.689487765517072
 30
0.0
  0
VERTEX
  5
2A7A
  8
SAPA_FOGBAND
 10
-30.4976395445367
 20
-73.099919773425142
 30
0.0
 42
-0.7057658529986604
  0
VERTEX
  5
2A7B
  8
SAPA_FOGBAND
 10
-30.230046369178361
 20
-72.499999542168595
 30
0.0
  0
SEQEND
  5
2A7C
  8
SAPA_FOGBAND
  0
POLYLINE
  5
1AF9
  8
SAPA_FOGBAND
 66
     1
 10
0.0
 20
0.0
 30
0.0
 70
     1
  0
VERTEX
  5
2A7D
  8
SAPA_FOGBAND
 10
-16.003393554727548
 20
-36.299999585164699
 30
0.0
  0
VERTEX
  5
2A7E
  8
SAPA_FOGBAND
 10
-23.30339355472751
 20
-36.299999585164699
 30
0.0
 42
-0.4142135623730951
  0
VERTEX
  5
2A7F
  8
SAPA_FOGBAND
 10
-23.803393554727499
 20
-35.799999585164699
 30
0.0
  0
VERTEX
  5
2A80
  8
SAPA_FOGBAND
 10
-23.803393554727499
 20
-35.499999585164751
 30
0.0
  0
VERTEX
  5
2A81
  8
SAPA_FOGBAND
 10
-22.203393554727491
 20
-35.499999585164751
 30
0.0
 42
0.4142135623730951
  0
VERTEX
  5
2A82
  8
SAPA_FOGBAND
 10
-21.70339355472748
 20
-34.999999585164737
 30
0.0
  0
VERTEX
  5
2A83
  8
SAPA_FOGBAND
 10
-21.70339355472748
 20
-34.05857416828286
 30
0.0
  0
VERTEX
  5
2A84
  8
SAPA_FOGBAND
 10
-21.955157363748011
 20
-33.991114258972459
 30
0.0
 42
-0.4740571810232243
  0
VERTEX
  5
2A85
  8
SAPA_FOGBAND
 10
-22.082451226111569
 20
-33.708831673333812
 30
0.0
  0
VERTEX
  5
2A86
  8
SAPA_FOGBAND
 10
-21.46235072335293
 20
-32.262625536573921
 30
0.0
 42
-0.2846003776496037
  0
VERTEX
  5
2A87
  8
SAPA_FOGBAND
 10
-21.014706544892821
 20
-31.98536908752596
 30
0.0
  0
VERTEX
  5
2A88
  8
SAPA_FOGBAND
 10
-19.39208056456226
 20
-31.98536908752596
 30
0.0
 42
-0.2846003776496048
  0
VERTEX
  5
2A89
  8
SAPA_FOGBAND
 10
-18.944436386102041
 20
-32.262625536573921
 30
0.0
  0
VERTEX
  5
2A8A
  8
SAPA_FOGBAND
 10
-18.324335883343391
 20
-33.708831673333812
 30
0.0
 42
-0.4740571810232242
  0
VERTEX
  5
2A8B
  8
SAPA_FOGBAND
 10
-18.451629745707059
 20
-33.991114258972459
 30
0.0
  0
VERTEX
  5
2A8C
  8
SAPA_FOGBAND
 10
-18.70339355472748
 20
-34.05857416828286
 30
0.0
  0
VERTEX
  5
2A8D
  8
SAPA_FOGBAND
 10
-18.70339355472748
 20
-34.999999585164737
 30
0.0
 42
0.4142135623730951
  0
VERTEX
  5
2A8E
  8
SAPA_FOGBAND
 10
-18.20339355472748
 20
-35.499999585164751
 30
0.0
  0
VERTEX
  5
2A8F
  8
SAPA_FOGBAND
 10
-15.50339355472766
 20
-35.499999585164751
 30
0.0
  0
VERTEX
  5
2A90
  8
SAPA_FOGBAND
 10
-15.50339355472755
 20
-35.799999585164699
 30
0.0
 42
-0.4142135623730951
  0
SEQEND
  5
2A91
  8
SAPA_FOGBAND
  0
POLYLINE
  5
1AFA
  8
SAPA_FOGBAND
 66
     1
 10
0.0
 20
0.0
 30
0.0
 70
     1
  0
VERTEX
  5
2A92
  8
SAPA_FOGBAND
 10
-19.303393554727499
 20
-34.185369087525999
 30
0.0
  0
VERTEX
  5
2A93
  8
SAPA_FOGBAND
 10
-19.303393554727499
 20
-33.585369087525983
 30
0.0
 42
0.9999999999999998
  0
VERTEX
  5
2A94
  8
SAPA_FOGBAND
 10
-21.103393554727461
 20
-33.585369087525983
 30
0.0
  0
VERTEX
  5
2A95
  8
SAPA_FOGBAND
 10
-21.103393554727461
 20
-34.185369087525999
 30
0.0
 42
0.9999999999999998
  0
SEQEND
  5
2A96
  8
SAPA_FOGBAND
  0
POLYLINE
  5
1AFB
  8
SAPA_FOGBAND
 66
     1
 10
0.0
 20
0.0
 30
0.0
  0
VERTEX
  5
2A97
  8
SAPA_FOGBAND
 10
-23.803393554727499
 20
-35.799999585164699
 30
0.0
  0
VERTEX
  5
2A98
  8
SAPA_FOGBAND
 10
-23.803393554727499
 20
-35.499999585164751
 30
0.0
  0
VERTEX
  5
2A99
  8
SAPA_FOGBAND
 10
-24.715553718108879
 20
-35.499999585164751
 30
0.0
 42
0.4027293761437522
  0
VERTEX
  5
2A9A
  8
SAPA_FOGBAND
 10
-25.01532127170691
 20
-35.788192222633882
 30
0.0
  0
VERTEX
  5
2A9B
  8
SAPA_FOGBAND
 10
-25.63547261018806
 20
-42.423995096717981
 30
0.0
 42
0.4366759199119207
  0
VERTEX
  5
2A9C
  8
SAPA_FOGBAND
 10
-24.638365134669069
 20
-43.499999585165313
 30
0.0
  0
VERTEX
  5
2A9D
  8
SAPA_FOGBAND
 10
-12.76316551868007
 20
-43.499999585165313
 30
0.0
 42
0.1134871727417796
  0
VERTEX
  5
2A9E
  8
SAPA_FOGBAND
 10
-12.326386683067939
 20
-43.399568509017911
 30
0.0
  0
VERTEX
  5
2A9F
  8
SAPA_FOGBAND
 10
-5.2213249162903486
 20
-40.440889246341101
 30
0.0
 42
0.2866770623134215
  0
VERTEX
  5
2AA0
  8
SAPA_FOGBAND
 10
-5.0020663702089569
 20
-40.090931157989417
 30
0.0
  0
VERTEX
  5
2AA1
  8
SAPA_FOGBAND
 10
-5.0020663702089569
 20
-39.098087975325541
 30
0.0
 42
0.3386584782462731
  0
VERTEX
  5
2AA2
  8
SAPA_FOGBAND
 10
-5.5928058660862581
 20
-38.3259415893246
 30
0.0
  0
VERTEX
  5
2AA3
  8
SAPA_FOGBAND
 10
-15.05021068724858
 20
-35.546143644935292
 30
0.0
 42
0.0644539213931785
  0
VERTEX
  5
2AA4
  8
SAPA_FOGBAND
 10
-15.406685220848599
 20
-35.499999585164751
 30
0.0
  0
VERTEX
  5
2AA5
  8
SAPA_FOGBAND
 10
-15.50339355472766
 20
-35.499999585164751
 30
0.0
  0
SEQEND
  5
2AA6
  8
SAPA_FOGBAND
  0
POLYLINE
  5
1AFC
  8
SAPA_FOGBAND
 66
     1
 10
0.0
 20
0.0
 30
0.0
 70
     1
  0
VERTEX
  5
2AA7
  8
SAPA_FOGBAND
 10
-11.88029721313381
 20
-37.605163738591038
 30
0.0
  0
VERTEX
  5
2AA8
  8
SAPA_FOGBAND
 10
-7.6042180012542877
 20
-39.020702329296682
 30
0.0
 42
-0.444186966527488
  0
VERTEX
  5
2AA9
  8
SAPA_FOGBAND
 10
-7.5698481632947292
 20
-39.495522114461451
 30
0.0
  0
VERTEX
  5
2AAA
  8
SAPA_FOGBAND
 10
-11.762261311780721
 20
-41.890423685480982
 30
0.0
 42
-0.5537304554466119
  0
VERTEX
  5
2AAB
  8
SAPA_FOGBAND
 10
-12.69329399725728
 20
-41.307503022824498
 30
0.0
  0
VERTEX
  5
2AAC
  8
SAPA_FOGBAND
 10
-12.69329399725728
 20
-38.231805630925862
 30
0.0
 42
-0.4917973357877383
  0
SEQEND
  5
2AAD
  8
SAPA_FOGBAND
  0
POLYLINE
  5
1AFD
  8
SAPA_FOGBAND
 10
-21.926001341734629
 20
-40.020122174428181
 30
0.0
 66
     1
 70
     8
  0
VERTEX
  8
SAPA_FOGBAND
  5
2C13
 10
-21.9260
 20
-40.0201
 30
0.000000
  70
    32
  0
VERTEX
  8
SAPA_FOGBAND
  5
2C14
 10
-21.9213
 20
-40.1350
 30
0.000000
  70
    32
  0
VERTEX
  8
SAPA_FOGBAND
  5
2C15
 10
-21.9094
 20
-40.2495
 30
0.000000
  70
    32
  0
VERTEX
  8
SAPA_FOGBAND
  5
2C16
 10
-21.8905
 20
-40.3634
 30
0.000000
  70
    32
  0
VERTEX
  8
SAPA_FOGBAND
  5
2C17
 10
-21.8644
 20
-40.4765
 30
0.000000
  70
    32
  0
VERTEX
  8
SAPA_FOGBAND
  5
2C18
 10
-21.8314
 20
-40.5883
 30
0.000000
  70
    32
  0
VERTEX
  8
SAPA_FOGBAND
  5
2C19
 10
-21.7914
 20
-40.6987
 30
0.000000
  70
    32
  0
VERTEX
  8
SAPA_FOGBAND
  5
2C1A
 10
-21.7446
 20
-40.8074
 30
0.000000
  70
    32
  0
VERTEX
  8
SAPA_FOGBAND
  5
2C1B
 10
-21.6911
 20
-40.9141
 30
0.000000
  70
    32
  0
VERTEX
  8
SAPA_FOGBAND
  5
2C1C
 10
-21.6310
 20
-41.0186
 30
0.000000
  70
    32
  0
VERTEX
  8
SAPA_FOGBAND
  5
2C1D
 10
-21.5645
 20
-41.1206
 30
0.000000
  70
    32
  0
VERTEX
  8
SAPA_FOGBAND
  5
2C1E
 10
-21.4917
 20
-41.2199
 30
0.000000
  70
    32
  0
VERTEX
  8
SAPA_FOGBAND
  5
2C1F
 10
-21.4128
 20
-41.3163
 30
0.000000
  70
    32
  0
VERTEX
  8
SAPA_FOGBAND
  5
2C20
 10
-21.3279
 20
-41.4094
 30
0.000000
  70
    32
  0
VERTEX
  8
SAPA_FOGBAND
  5
2C21
 10
-21.2374
 20
-41.4992
 30
0.000000
  70
    32
  0
VERTEX
  8
SAPA_FOGBAND
  5
2C22
 10
-21.1414
 20
-41.5852
 30
0.000000
  70
    32
  0
VERTEX
  8
SAPA_FOGBAND
  5
2C23
 10
-21.0401
 20
-41.6675
 30
0.000000
  70
    32
  0
VERTEX
  8
SAPA_FOGBAND
  5
2C24
 10
-20.9338
 20
-41.7457
 30
0.000000
  70
    32
  0
VERTEX
  8
SAPA_FOGBAND
  5
2C25
 10
-20.8227
 20
-41.8197
 30
0.000000
  70
    32
  0
VERTEX
  8
SAPA_FOGBAND
  5
2C26
 10
-20.7071
 20
-41.8893
 30
0.000000
  70
    32
  0
VERTEX
  8
SAPA_FOGBAND
  5
2C27
 10
-20.5874
 20
-41.9543
 30
0.000000
  70
    32
  0
VERTEX
  8
SAPA_FOGBAND
  5
2C28
 10
-20.4636
 20
-42.0146
 30
0.000000
  70
    32
  0
VERTEX
  8
SAPA_FOGBAND
  5
2C29
 10
-20.3363
 20
-42.0699
 30
0.000000
  70
    32
  0
VERTEX
  8
SAPA_FOGBAND
  5
2C2A
 10
-20.2057
 20
-42.1203
 30
0.000000
  70
    32
  0
VERTEX
  8
SAPA_FOGBAND
  5
2C2B
 10
-20.0720
 20
-42.1656
 30
0.000000
  70
    32
  0
VERTEX
  8
SAPA_FOGBAND
  5
2C2C
 10
-19.9356
 20
-42.2056
 30
0.000000
  70
    32
  0
VERTEX
  8
SAPA_FOGBAND
  5
2C2D
 10
-19.7969
 20
-42.2403
 30
0.000000
  70
    32
  0
VERTEX
  8
SAPA_FOGBAND
  5
2C2E
 10
-19.6562
 20
-42.2696
 30
0.000000
  70
    32
  0
VERTEX
  8
SAPA_FOGBAND
  5
2C2F
 10
-19.5138
 20
-42.2933
 30
0.000000
  70
    32
  0
VERTEX
  8
SAPA_FOGBAND
  5
2C30
 10
-19.3701
 20
-42.3115
 30
0.000000
  70
    32
  0
VERTEX
  8
SAPA_FOGBAND
  5
2C31
 10
-19.2253
 20
-42.3242
 30
0.000000
  70
    32
  0
VERTEX
  8
SAPA_FOGBAND
  5
2C32
 10
-19.0799
 20
-42.3312
 30
0.000000
  70
    32
  0
VERTEX
  8
SAPA_FOGBAND
  5
2C33
 10
-18.9342
 20
-42.3326
 30
0.000000
  70
    32
  0
VERTEX
  8
SAPA_FOGBAND
  5
2C34
 10
-18.7886
 20
-42.3283
 30
0.000000
  70
    32
  0
VERTEX
  8
SAPA_FOGBAND
  5
2C35
 10
-18.6434
 20
-42.3184
 30
0.000000
  70
    32
  0
VERTEX
  8
SAPA_FOGBAND
  5
2C36
 10
-18.4989
 20
-42.3029
 30
0.000000
  70
    32
  0
VERTEX
  8
SAPA_FOGBAND
  5
2C37
 10
-18.3556
 20
-42.2818
 30
0.000000
  70
    32
  0
VERTEX
  8
SAPA_FOGBAND
  5
2C38
 10
-18.2137
 20
-42.2552
 30
0.000000
  70
    32
  0
VERTEX
  8
SAPA_FOGBAND
  5
2C39
 10
-18.0736
 20
-42.2231
 30
0.000000
  70
    32
  0
VERTEX
  8
SAPA_FOGBAND
  5
2C3A
 10
-17.9356
 20
-42.1857
 30
0.000000
  70
    32
  0
VERTEX
  8
SAPA_FOGBAND
  5
2C3B
 10
-17.8001
 20
-42.1430
 30
0.000000
  70
    32
  0
VERTEX
  8
SAPA_FOGBAND
  5
2C3C
 10
-17.6673
 20
-42.0951
 30
0.000000
  70
    32
  0
VERTEX
  8
SAPA_FOGBAND
  5
2C3D
 10
-17.5377
 20
-42.0421
 30
0.000000
  70
    32
  0
VERTEX
  8
SAPA_FOGBAND
  5
2C3E
 10
-17.4115
 20
-41.9842
 30
0.000000
  70
    32
  0
VERTEX
  8
SAPA_FOGBAND
  5
2C3F
 10
-17.2890
 20
-41.9214
 30
0.000000
  70
    32
  0
VERTEX
  8
SAPA_FOGBAND
  5
2C40
 10
-17.1705
 20
-41.8541
 30
0.000000
  70
    32
  0
VERTEX
  8
SAPA_FOGBAND
  5
2C41
 10
-17.0564
 20
-41.7822
 30
0.000000
  70
    32
  0
VERTEX
  8
SAPA_FOGBAND
  5
2C42
 10
-16.9468
 20
-41.7060
 30
0.000000
  70
    32
  0
VERTEX
  8
SAPA_FOGBAND
  5
2C43
 10
-16.8421
 20
-41.6257
 30
0.000000
  70
    32
  0
VERTEX
  8
SAPA_FOGBAND
  5
2C44
 10
-16.7424
 20
-41.5415
 30
0.000000
  70
    32
  0
VERTEX
  8
SAPA_FOGBAND
  5
2C45
 10
-16.6481
 20
-41.4535
 30
0.000000
  70
    32
  0
VERTEX
  8
SAPA_FOGBAND
  5
2C46
 10
-16.5594
 20
-41.3620
 30
0.000000
  70
    32
  0
VERTEX
  8
SAPA_FOGBAND
  5
2C47
 10
-16.4764
 20
-41.2671
 30
0.000000
  70
    32
  0
VERTEX
  8
SAPA_FOGBAND
  5
2C48
 10
-16.3995
 20
-41.1693
 30
0.000000
  70
    32
  0
VERTEX
  8
SAPA_FOGBAND
  5
2C49
 10
-16.3286
 20
-41.0685
 30
0.000000
  70
    32
  0
VERTEX
  8
SAPA_FOGBAND
  5
2C4A
 10
-16.2642
 20
-40.9652
 30
0.000000
  70
    32
  0
VERTEX
  8
SAPA_FOGBAND
  5
2C4B
 10
-16.2062
 20
-40.8595
 30
0.000000
  70
    32
  0
VERTEX
  8
SAPA_FOGBAND
  5
2C4C
 10
-16.1548
 20
-40.7517
 30
0.000000
  70
    32
  0
VERTEX
  8
SAPA_FOGBAND
  5
2C4D
 10
-16.1102
 20
-40.6421
 30
0.000000
  70
    32
  0
VERTEX
  8
SAPA_FOGBAND
  5
2C4E
 10
-16.0724
 20
-40.5310
 30
0.000000
  70
    32
  0
VERTEX
  8
SAPA_FOGBAND
  5
2C4F
 10
-16.0416
 20
-40.4185
 30
0.000000
  70
    32
  0
VERTEX
  8
SAPA_FOGBAND
  5
2C50
 10
-16.0178
 20
-40.3050
 30
0.000000
  70
    32
  0
VERTEX
  8
SAPA_FOGBAND
  5
2C51
 10
-16.0011
 20
-40.1907
 30
0.000000
  70
    32
  0
VERTEX
  8
SAPA_FOGBAND
  5
2C52
 10
-15.9916
 20
-40.0760
 30
0.000000
  70
    32
  0
VERTEX
  8
SAPA_FOGBAND
  5
2C53
 10
-15.9891
 20
-39.9610
 30
0.000000
  70
    32
  0
VERTEX
  8
SAPA_FOGBAND
  5
2C54
 10
-15.9938
 20
-39.8462
 30
0.000000
  70
    32
  0
VERTEX
  8
SAPA_FOGBAND
  5
2C55
 10
-16.0057
 20
-39.7316
 30
0.000000
  70
    32
  0
VERTEX
  8
SAPA_FOGBAND
  5
2C56
 10
-16.0247
 20
-39.6177
 30
0.000000
  70
    32
  0
VERTEX
  8
SAPA_FOGBAND
  5
2C57
 10
-16.0507
 20
-39.5047
 30
0.000000
  70
    32
  0
VERTEX
  8
SAPA_FOGBAND
  5
2C58
 10
-16.0837
 20
-39.3929
 30
0.000000
  70
    32
  0
VERTEX
  8
SAPA_FOGBAND
  5
2C59
 10
-16.1237
 20
-39.2825
 30
0.000000
  70
    32
  0
VERTEX
  8
SAPA_FOGBAND
  5
2C5A
 10
-16.1705
 20
-39.1738
 30
0.000000
  70
    32
  0
VERTEX
  8
SAPA_FOGBAND
  5
2C5B
 10
-16.2240
 20
-39.0670
 30
0.000000
  70
    32
  0
VERTEX
  8
SAPA_FOGBAND
  5
2C5C
 10
-16.2841
 20
-38.9625
 30
0.000000
  70
    32
  0
VERTEX
  8
SAPA_FOGBAND
  5
2C5D
 10
-16.3506
 20
-38.8605
 30
0.000000
  70
    32
  0
VERTEX
  8
SAPA_FOGBAND
  5
2C5E
 10
-16.4234
 20
-38.7612
 30
0.000000
  70
    32
  0
VERTEX
  8
SAPA_FOGBAND
  5
2C5F
 10
-16.5023
 20
-38.6649
 30
0.000000
  70
    32
  0
VERTEX
  8
SAPA_FOGBAND
  5
2C60
 10
-16.5872
 20
-38.5717
 30
0.000000
  70
    32
  0
VERTEX
  8
SAPA_FOGBAND
  5
2C61
 10
-16.6777
 20
-38.4820
 30
0.000000
  70
    32
  0
VERTEX
  8
SAPA_FOGBAND
  5
2C62
 10
-16.7737
 20
-38.3959
 30
0.000000
  70
    32
  0
VERTEX
  8
SAPA_FOGBAND
  5
2C63
 10
-16.8750
 20
-38.3137
 30
0.000000
  70
    32
  0
VERTEX
  8
SAPA_FOGBAND
  5
2C64
 10
-16.9813
 20
-38.2354
 30
0.000000
  70
    32
  0
VERTEX
  8
SAPA_FOGBAND
  5
2C65
 10
-17.0924
 20
-38.1615
 30
0.000000
  70
    32
  0
VERTEX
  8
SAPA_FOGBAND
  5
2C66
 10
-17.2080
 20
-38.0919
 30
0.000000
  70
    32
  0
VERTEX
  8
SAPA_FOGBAND
  5
2C67
 10
-17.3278
 20
-38.0269
 30
0.000000
  70
    32
  0
VERTEX
  8
SAPA_FOGBAND
  5
2C68
 10
-17.4515
 20
-37.9666
 30
0.000000
  70
    32
  0
VERTEX
  8
SAPA_FOGBAND
  5
2C69
 10
-17.5788
 20
-37.9112
 30
0.000000
  70
    32
  0
VERTEX
  8
SAPA_FOGBAND
  5
2C6A
 10
-17.7095
 20
-37.8608
 30
0.000000
  70
    32
  0
VERTEX
  8
SAPA_FOGBAND
  5
2C6B
 10
-17.8431
 20
-37.8156
 30
0.000000
  70
    32
  0
VERTEX
  8
SAPA_FOGBAND
  5
2C6C
 10
-17.9795
 20
-37.7755
 30
0.000000
  70
    32
  0
VERTEX
  8
SAPA_FOGBAND
  5
2C6D
 10
-18.1182
 20
-37.7409
 30
0.000000
  70
    32
  0
VERTEX
  8
SAPA_FOGBAND
  5
2C6E
 10
-18.2589
 20
-37.7116
 30
0.000000
  70
    32
  0
VERTEX
  8
SAPA_FOGBAND
  5
2C6F
 10
-18.4013
 20
-37.6878
 30
0.000000
  70
    32
  0
VERTEX
  8
SAPA_FOGBAND
  5
2C70
 10
-18.5451
 20
-37.6696
 30
0.000000
  70
    32
  0
VERTEX
  8
SAPA_FOGBAND
  5
2C71
 10
-18.6898
 20
-37.6570
 30
0.000000
  70
    32
  0
VERTEX
  8
SAPA_FOGBAND
  5
2C72
 10
-18.8352
 20
-37.6500
 30
0.000000
  70
    32
  0
VERTEX
  8
SAPA_FOGBAND
  5
2C73
 10
-18.9809
 20
-37.6486
 30
0.000000
  70
    32
  0
VERTEX
  8
SAPA_FOGBAND
  5
2C74
 10
-19.1265
 20
-37.6529
 30
0.000000
  70
    32
  0
VERTEX
  8
SAPA_FOGBAND
  5
2C75
 10
-19.2717
 20
-37.6628
 30
0.000000
  70
    32
  0
VERTEX
  8
SAPA_FOGBAND
  5
2C76
 10
-19.4162
 20
-37.6783
 30
0.000000
  70
    32
  0
VERTEX
  8
SAPA_FOGBAND
  5
2C77
 10
-19.5595
 20
-37.6994
 30
0.000000
  70
    32
  0
VERTEX
  8
SAPA_FOGBAND
  5
2C78
 10
-19.7014
 20
-37.7260
 30
0.000000
  70
    32
  0
VERTEX
  8
SAPA_FOGBAND
  5
2C79
 10
-19.8416
 20
-37.7580
 30
0.000000
  70
    32
  0
VERTEX
  8
SAPA_FOGBAND
  5
2C7A
 10
-19.9795
 20
-37.7955
 30
0.000000
  70
    32
  0
VERTEX
  8
SAPA_FOGBAND
  5
2C7B
 10
-20.1151
 20
-37.8382
 30
0.000000
  70
    32
  0
VERTEX
  8
SAPA_FOGBAND
  5
2C7C
 10
-20.2478
 20
-37.8861
 30
0.000000
  70
    32
  0
VERTEX
  8
SAPA_FOGBAND
  5
2C7D
 10
-20.3774
 20
-37.9391
 30
0.000000
  70
    32
  0
VERTEX
  8
SAPA_FOGBAND
  5
2C7E
 10
-20.5036
 20
-37.9970
 30
0.000000
  70
    32
  0
VERTEX
  8
SAPA_FOGBAND
  5
2C7F
 10
-20.6261
 20
-38.0597
 30
0.000000
  70
    32
  0
VERTEX
  8
SAPA_FOGBAND
  5
2C80
 10
-20.7446
 20
-38.1271
 30
0.000000
  70
    32
  0
VERTEX
  8
SAPA_FOGBAND
  5
2C81
 10
-20.8587
 20
-38.1989
 30
0.000000
  70
    32
  0
VERTEX
  8
SAPA_FOGBAND
  5
2C82
 10
-20.9683
 20
-38.2751
 30
0.000000
  70
    32
  0
VERTEX
  8
SAPA_FOGBAND
  5
2C83
 10
-21.0730
 20
-38.3554
 30
0.000000
  70
    32
  0
VERTEX
  8
SAPA_FOGBAND
  5
2C84
 10
-21.1727
 20
-38.4397
 30
0.000000
  70
    32
  0
VERTEX
  8
SAPA_FOGBAND
  5
2C85
 10
-21.2670
 20
-38.5277
 30
0.000000
  70
    32
  0
VERTEX
  8
SAPA_FOGBAND
  5
2C86
 10
-21.3557
 20
-38.6192
 30
0.000000
  70
    32
  0
VERTEX
  8
SAPA_FOGBAND
  5
2C87
 10
-21.4387
 20
-38.7140
 30
0.000000
  70
    32
  0
VERTEX
  8
SAPA_FOGBAND
  5
2C88
 10
-21.5157
 20
-38.8119
 30
0.000000
  70
    32
  0
VERTEX
  8
SAPA_FOGBAND
  5
2C89
 10
-21.5865
 20
-38.9126
 30
0.000000
  70
    32
  0
VERTEX
  8
SAPA_FOGBAND
  5
2C8A
 10
-21.6510
 20
-39.0160
 30
0.000000
  70
    32
  0
VERTEX
  8
SAPA_FOGBAND
  5
2C8B
 10
-21.7090
 20
-39.1216
 30
0.000000
  70
    32
  0
VERTEX
  8
SAPA_FOGBAND
  5
2C8C
 10
-21.7603
 20
-39.2294
 30
0.000000
  70
    32
  0
VERTEX
  8
SAPA_FOGBAND
  5
2C8D
 10
-21.8049
 20
-39.3390
 30
0.000000
  70
    32
  0
VERTEX
  8
SAPA_FOGBAND
  5
2C8E
 10
-21.8427
 20
-39.4502
 30
0.000000
  70
    32
  0
VERTEX
  8
SAPA_FOGBAND
  5
2C8F
 10
-21.8735
 20
-39.5627
 30
0.000000
  70
    32
  0
VERTEX
  8
SAPA_FOGBAND
  5
2C90
 10
-21.8973
 20
-39.6762
 30
0.000000
  70
    32
  0
VERTEX
  8
SAPA_FOGBAND
  5
2C91
 10
-21.9140
 20
-39.7904
 30
0.000000
  70
    32
  0
VERTEX
  8
SAPA_FOGBAND
  5
2C92
 10
-21.9236
 20
-39.9052
 30
0.000000
  70
    32
  0
VERTEX
  8
SAPA_FOGBAND
  5
2C93
 10
-21.9260
 20
-40.0201
 30
0.000000
  70
    32
  0
SEQEND
  8
SAPA_FOGBAND
  5
2C94
  0
POLYLINE
  5
1AFE
  8
SAPA_FOGBAND
 62
     2
 66
     1
 10
0.0
 20
0.0
 30
0.0000000195376815
 70
     1
  0
VERTEX
  5
2AAE
  8
SAPA_FOGBAND
 62
     2
 10
-94.529055672841864
 20
10.851706161294709
 30
0.0000000195376815
  0
VERTEX
  5
2AAF
  8
SAPA_FOGBAND
 62
     2
 10
-94.629055672841858
 20
10.851706161294709
 30
0.0000000195376815
 42
0.4142135623730959
  0
VERTEX
  5
2AB0
  8
SAPA_FOGBAND
 62
     2
 10
-95.329055672841847
 20
10.151706161294721
 30
0.0000000195376815
  0
VERTEX
  5
2AB1
  8
SAPA_FOGBAND
 62
     2
 10
-95.329055672841875
 20
9.0517061612947316
 30
0.0000000195376815
 42
0.4142135623730961
  0
VERTEX
  5
2AB2
  8
SAPA_FOGBAND
 62
     2
 10
-95.129055672841844
 20
8.8517061612947145
 30
0.0000000195376815
  0
VERTEX
  5
2AB3
  8
SAPA_FOGBAND
 62
     2
 10
-94.029055672841864
 20
8.8517061612947145
 30
0.0000000195376815
 42
0.4142135623730956
  0
VERTEX
  5
2AB4
  8
SAPA_FOGBAND
 62
     2
 10
-93.829055672841847
 20
9.0517061612947316
 30
0.0000000195376815
  0
VERTEX
  5
2AB5
  8
SAPA_FOGBAND
 62
     2
 10
-93.829055672841875
 20
10.151706161294721
 30
0.0000000195376815
 42
0.4142135623730946
  0
SEQEND
  5
2AB6
  8
SAPA_FOGBAND
 62
     2
  0
POLYLINE
  5
1AFF
  8
SAPA_FOGBAND
 62
     2
 66
     1
 10
0.0
 20
0.0
 30
0.0000000195376815
 70
     1
  0
VERTEX
  5
2AB7
  8
SAPA_FOGBAND
 62
     2
 10
-93.029055672841864
 20
9.5517061612947316
 30
0.0000000195376815
  0
VERTEX
  5
2AB8
  8
SAPA_FOGBAND
 62
     2
 10
-93.029055672841864
 20
8.9039405960216413
 30
0.0000000195376815
 42
0.4416942457848321
  0
VERTEX
  5
2AB9
  8
SAPA_FOGBAND
 62
     2
 10
-92.810501313213948
 20
8.7048031165286943
 30
0.0000000195376815
  0
VERTEX
  5
2ABA
  8
SAPA_FOGBAND
 62
     2
 10
-91.847610032469774
 20
8.7945191817867396
 30
0.0000000195376815
 42
-0.441694245784789
  0
VERTEX
  5
2ABB
  8
SAPA_FOGBAND
 62
     2
 10
-91.629055672841858
 20
8.595381702293821
 30
0.0000000195376815
  0
VERTEX
  5
2ABC
  8
SAPA_FOGBAND
 62
     2
 10
-91.629055672841858
 20
8.0453993627022555
 30
0.0000000195376815
 42
-0.5445962197109614
  0
VERTEX
  5
2ABD
  8
SAPA_FOGBAND
 62
     2
 10
-92.334734718246935
 20
7.5896624536404147
 30
0.0000000195376815
  0
VERTEX
  5
2ABE
  8
SAPA_FOGBAND
 62
     2
 10
-92.693785871532185
 20
7.7517061612947202
 30
0.0000000195376815
  0
VERTEX
  5
2ABF
  8
SAPA_FOGBAND
 62
     2
 10
-94.166745110280104
 20
7.751706161294722
 30
0.0000000195376815
 42
-0.3364379234965429
  0
VERTEX
  5
2AC0
  8
SAPA_FOGBAND
 62
     2
 10
-95.238488839894941
 20
7.9392129791364701
 30
0.0000000195376815
  0
VERTEX
  5
2AC1
  8
SAPA_FOGBAND
 62
     2
 10
-95.800352475718626
 20
7.9392129791364701
 30
0.0000000195376815
 42
0.1919812372740509
  0
VERTEX
  5
2AC2
  8
SAPA_FOGBAND
 62
     2
 10
-96.144339523318706
 20
7.8020806011191999
 30
0.0000000195376815
  0
VERTEX
  5
2AC3
  8
SAPA_FOGBAND
 62
     2
 10
-96.536206453722087
 20
7.4306031248291191
 30
0.0000000195376815
 42
0.7523758382293955
  0
VERTEX
  5
2AC4
  8
SAPA_FOGBAND
 62
     2
 10
-92.295776642619586
 20
6.4420319514010096
 30
0.0000000195376815
 42
0.020738253891463
  0
VERTEX
  5
2AC5
  8
SAPA_FOGBAND
 62
     2
 10
-92.050057424669134
 20
6.9452630804716158
 30
0.0000000195376815
 42
-0.910188045100355
  0
VERTEX
  5
2AC6
  8
SAPA_FOGBAND
 62
     2
 10
-91.592757857987763
 20
6.5935162334578976
 30
0.0000000195376815
 42
-0.8808478876171385
  0
VERTEX
  5
2AC7
  8
SAPA_FOGBAND
 62
     2
 10
-97.102024153001608
 20
7.8949086396719963
 30
0.0000000195376815
  0
VERTEX
  5
2AC8
  8
SAPA_FOGBAND
 62
     2
 10
-97.532583290882869
 20
8.0102766129611211
 30
0.0000000195376815
 42
-0.9163311740173993
  0
VERTEX
  5
2AC9
  8
SAPA_FOGBAND
 62
     2
 10
-97.394193375742773
 20
8.7951248227134613
 30
0.0000000195376815
  0
VERTEX
  5
2ACA
  8
SAPA_FOGBAND
 62
     2
 10
-96.346486821391395
 20
8.7034623765059091
 30
0.0000000195376815
 42
0.4400105308918154
  0
VERTEX
  5
2ACB
  8
SAPA_FOGBAND
 62
     2
 10
-96.129055672841872
 20
8.9027013161242508
 30
0.0000000195376815
  0
VERTEX
  5
2ACC
  8
SAPA_FOGBAND
 62
     2
 10
-96.129055672841872
 20
9.7517061612947202
 30
0.0000000195376815
  0
VERTEX
  5
2ACD
  8
SAPA_FOGBAND
 62
     2
 10
-96.529055672841864
 20
9.7517061612947202
 30
0.0000000195376815
 42
-0.5693809839207589
  0
VERTEX
  5
2ACE
  8
SAPA_FOGBAND
 62
     2
 10
-96.704609718405464
 20
10.047522532997389
 30
0.0000000195376815
  0
VERTEX
  5
2ACF
  8
SAPA_FOGBAND
 62
     2
 10
-95.999644118506367
 20
11.339155276402661
 30
0.0000000195376815
 42
-0.2743878130875473
  0
VERTEX
  5
2AD0
  8
SAPA_FOGBAND
 62
     2
 10
-95.472981981815636
 20
11.65170616129474
 30
0.0000000195376815
  0
VERTEX
  5
2AD1
  8
SAPA_FOGBAND
 62
     2
 10
-93.685129363868086
 20
11.651706161294721
 30
0.0000000195376815
 42
-0.2743878130875473
  0
VERTEX
  5
2AD2
  8
SAPA_FOGBAND
 62
     2
 10
-93.158467227177354
 20
11.33915527640265
 30
0.0000000195376815
  0
VERTEX
  5
2AD3
  8
SAPA_FOGBAND
 62
     2
 10
-92.453501627278271
 20
10.047522532997389
 30
0.0000000195376815
 42
-0.5693809839208268
  0
VERTEX
  5
2AD4
  8
SAPA_FOGBAND
 62
     2
 10
-92.629055672841844
 20
9.7517061612946883
 30
0.0000000195376815
  0
VERTEX
  5
2AD5
  8
SAPA_FOGBAND
 62
     2
 10
-93.029055672841864
 20
9.7517061612947202
 30
0.0000000195376815
  0
VERTEX
  5
2AD6
  8
SAPA_FOGBAND
 62
     2
 10
-93.029055672841864
 20
8.9027013161242508
 30
0.0000000195376815
  0
SEQEND
  5
2AD7
  8
SAPA_FOGBAND
 62
     2
  0
CIRCLE
  5
1B00
  8
SAPA_FOGBAND
 10
18.629356795612811
 20
-75.02846685536008
 30
0.0
 40
0.2549509756796394
  0
INSERT
  5
1B01
  8
SAPA_FOGBAND
  6
CONTINUOUS
  2
*U139
 10
0.0
 20
0.0
 30
0.0
1001
ACAD
1002
{
1000
R14_HATCH_DATA
1000
1B01
1011
1.0
1021
0.0
1031
0.0
1021
0.0
1031
0.0
1011
0.0
1021
0.0
1031
0.0
1021
1.0
1031
0.0
1011
0.0
1021
0.0
1031
0.0
1021
0.0
1031
1.0
1040
0.0
1010
0.0
1020
0.0
1030
1.0
1000
SOLID
1070
     1
1070
     1
1071
        1
1071
        1
1071
        1
1070
     2
1040
18.629356795612811
1040
-75.02846685536008
1040
0.2549509756796394
1040
-3.1415926535897931
1040
3.1415926535897931
1070
     0
1071
        1
1005
1B00
1070
     0
1070
     1
1071
        1
1040
18.86609569718291
1040
-74.946615358031181
1040
0.0
1002
}
  0
POLYLINE
  5
1B02
  8
SAPA_FOGBAND
 66
     1
 10
0.0
 20
0.0
 30
0.0
 70
     1
  0
VERTEX
  5
2AE9
  8
SAPA_FOGBAND
 10
17.729356795612709
 20
-77.599999999010933
 30
0.0
 42
-0.9999999999999998
  0
VERTEX
  5
2AEA
  8
SAPA_FOGBAND
 10
19.529356795612671
 20
-77.599999999010933
 30
0.0
  0
VERTEX
  5
2AEB
  8
SAPA_FOGBAND
 10
19.529356795612671
 20
-78.19999999901097
 30
0.0
 42
-0.9999999999999998
  0
VERTEX
  5
2AEC
  8
SAPA_FOGBAND
 10
17.729356795612709
 20
-78.19999999901097
 30
0.0
  0
SEQEND
  5
2AED
  8
SAPA_FOGBAND
  0
POLYLINE
  5
1B03
  8
SAPA_FOGBAND
 66
     1
 10
0.0
 20
0.0
 30
0.0
 70
     1
  0
VERTEX
  5
2AEE
  8
SAPA_FOGBAND
 10
14.3793567956128
 20
-74.164228703859749
 30
0.0
  0
VERTEX
  5
2AEF
  8
SAPA_FOGBAND
 10
14.37935679561258
 20
-76.299999999010865
 30
0.0
 42
0.4142135623730951
  0
VERTEX
  5
2AF0
  8
SAPA_FOGBAND
 10
14.57935679561262
 20
-76.499999999010925
 30
0.0
  0
VERTEX
  5
2AF1
  8
SAPA_FOGBAND
 10
16.629356795612811
 20
-76.499999999010925
 30
0.0
 42
-0.4142135623730951
  0
VERTEX
  5
2AF2
  8
SAPA_FOGBAND
 10
17.129356795612811
 20
-76.999999999010925
 30
0.0
  0
VERTEX
  5
2AF3
  8
SAPA_FOGBAND
 10
17.129356795612811
 20
-77.726794918254086
 30
0.0
  0
VERTEX
  5
2AF4
  8
SAPA_FOGBAND
 10
16.877592986592269
 20
-77.794254827564487
 30
0.0
 42
0.4740571810232154
  0
VERTEX
  5
2AF5
  8
SAPA_FOGBAND
 10
16.750299124228711
 20
-78.076537413203141
 30
0.0
  0
VERTEX
  5
2AF6
  8
SAPA_FOGBAND
 10
17.37039962698725
 20
-79.522743549962911
 30
0.0
 42
0.2846003776496056
  0
VERTEX
  5
2AF7
  8
SAPA_FOGBAND
 10
17.81804380544747
 20
-79.799999999010879
 30
0.0
  0
VERTEX
  5
2AF8
  8
SAPA_FOGBAND
 10
19.44066978577791
 20
-79.799999999010879
 30
0.0
 42
0.2846003776496054
  0
VERTEX
  5
2AF9
  8
SAPA_FOGBAND
 10
19.88831396423814
 20
-79.522743549962911
 30
0.0
  0
VERTEX
  5
2AFA
  8
SAPA_FOGBAND
 10
20.508414466996669
 20
-78.076537413203141
 30
0.0
 42
0.4740571810232154
  0
VERTEX
  5
2AFB
  8
SAPA_FOGBAND
 10
20.381120604633111
 20
-77.794254827564487
 30
0.0
  0
VERTEX
  5
2AFC
  8
SAPA_FOGBAND
 10
20.129356795612811
 20
-77.726794918254086
 30
0.0
  0
VERTEX
  5
2AFD
  8
SAPA_FOGBAND
 10
20.129356795612811
 20
-76.999999999010925
 30
0.0
 42
-0.4142135623730951
  0
VERTEX
  5
2AFE
  8
SAPA_FOGBAND
 10
20.629356795612811
 20
-76.499999999010925
 30
0.0
  0
VERTEX
  5
2AFF
  8
SAPA_FOGBAND
 10
23.679356795612762
 20
-76.499999999010925
 30
0.0
 42
-0.4142135623730951
  0
VERTEX
  5
2B00
  8
SAPA_FOGBAND
 10
23.879356795612811
 20
-76.69999999901097
 30
0.0
  0
VERTEX
  5
2B01
  8
SAPA_FOGBAND
 10
23.87935679561258
 20
-77.599999999010933
 30
0.0
 42
0.4142135623730951
  0
VERTEX
  5
2B02
  8
SAPA_FOGBAND
 10
24.079356795612622
 20
-77.799999999010879
 30
0.0
  0
VERTEX
  5
2B03
  8
SAPA_FOGBAND
 10
24.779356795612671
 20
-77.799999999010993
 30
0.0
 42
0.4142135623730951
  0
VERTEX
  5
2B04
  8
SAPA_FOGBAND
 10
25.079356795612629
 20
-77.499999999010925
 30
0.0
  0
VERTEX
  5
2B05
  8
SAPA_FOGBAND
 10
25.079356795612629
 20
-76.689488222359387
 30
0.0
 42
-0.1316524975873982
  0
VERTEX
  5
2B06
  8
SAPA_FOGBAND
 10
25.347305988043789
 20
-75.689488222359387
 30
0.0
  0
VERTEX
  5
2B07
  8
SAPA_FOGBAND
 10
29.318018525145931
 20
-73.054121304015212
 30
0.0
 42
0.876976462992761
  0
VERTEX
  5
2B08
  8
SAPA_FOGBAND
 10
29.215112935235648
 20
-72.536779967898724
 30
0.0
  0
VERTEX
  5
2B09
  8
SAPA_FOGBAND
 10
23.79045137336345
 20
-73.090624764442964
 30
0.0
 42
-0.1353185728426623
  0
VERTEX
  5
2B0A
  8
SAPA_FOGBAND
 10
23.79045137336345
 20
-73.090624764442964
 30
0.0
  0
VERTEX
  5
2B0B
  8
SAPA_FOGBAND
 10
23.55256188053465
 20
-72.678588072042771
 30
0.0
 42
0.5773502691896196
  0
VERTEX
  5
2B0C
  8
SAPA_FOGBAND
 10
23.206151719020799
 20
-72.678588072042771
 30
0.0
  0
VERTEX
  5
2B0D
  8
SAPA_FOGBAND
 10
22.968104102289889
 20
-73.090898634604628
 30
0.0
  0
VERTEX
  5
2B0E
  8
SAPA_FOGBAND
 10
22.190609492373252
 20
-73.090898634604628
 30
0.0
  0
VERTEX
  5
2B0F
  8
SAPA_FOGBAND
 10
21.952561880534521
 20
-72.678588072042771
 30
0.0
 42
0.5773502691896196
  0
VERTEX
  5
2B10
  8
SAPA_FOGBAND
 10
21.606151719020879
 20
-72.678588072042771
 30
0.0
  0
VERTEX
  5
2B11
  8
SAPA_FOGBAND
 10
21.368104102289969
 20
-73.090898634604628
 30
0.0
  0
VERTEX
  5
2B12
  8
SAPA_FOGBAND
 10
20.59060949237335
 20
-73.090898634604628
 30
0.0
  0
VERTEX
  5
2B13
  8
SAPA_FOGBAND
 10
20.352561880534608
 20
-72.678588072042771
 30
0.0
 42
0.5773502691896196
  0
VERTEX
  5
2B14
  8
SAPA_FOGBAND
 10
20.00615171902075
 20
-72.678588072042771
 30
0.0
  0
VERTEX
  5
2B15
  8
SAPA_FOGBAND
 10
19.76810410229006
 20
-73.090898634604628
 30
0.0
  0
VERTEX
  5
2B16
  8
SAPA_FOGBAND
 10
18.99060949237321
 20
-73.090898634604628
 30
0.0
  0
VERTEX
  5
2B17
  8
SAPA_FOGBAND
 10
18.752561880534699
 20
-72.678588072042771
 30
0.0
 42
0.5773502691896196
  0
VERTEX
  5
2B18
  8
SAPA_FOGBAND
 10
18.406151719020841
 20
-72.678588072042771
 30
0.0
  0
VERTEX
  5
2B19
  8
SAPA_FOGBAND
 10
18.168104102289931
 20
-73.090898634604628
 30
0.0
  0
VERTEX
  5
2B1A
  8
SAPA_FOGBAND
 10
17.390609492373301
 20
-73.090898634604628
 30
0.0
  0
VERTEX
  5
2B1B
  8
SAPA_FOGBAND
 10
17.152561880534559
 20
-72.678588072042771
 30
0.0
 42
0.5773502691896196
  0
VERTEX
  5
2B1C
  8
SAPA_FOGBAND
 10
16.806151719020701
 20
-72.678588072042771
 30
0.0
  0
VERTEX
  5
2B1D
  8
SAPA_FOGBAND
 10
16.568104102290022
 20
-73.090898634604628
 30
0.0
  0
VERTEX
  5
2B1E
  8
SAPA_FOGBAND
 10
15.790609488208361
 20
-73.090898634604628
 30
0.0
  0
VERTEX
  5
2B1F
  8
SAPA_FOGBAND
 10
15.552561876369619
 20
-72.678588072042771
 30
0.0
 42
0.5773502691896196
  0
VERTEX
  5
2B20
  8
SAPA_FOGBAND
 10
15.206151714855761
 20
-72.678588072042771
 30
0.0
  0
VERTEX
  5
2B21
  8
SAPA_FOGBAND
 10
14.40615171530078
 20
-74.064228703089043
 30
0.0
 42
0.1316524987190407
  0
SEQEND
  5
2B22
  8
SAPA_FOGBAND
  0
POLYLINE
  5
1B04
  8
SAPA_FOGBAND
 66
     1
 10
0.0
 20
0.0
 30
0.0
 70
     1
  0
VERTEX
  5
2B23
  8
SAPA_FOGBAND
 10
19.301327184514889
 20
-33.585369501371133
 30
0.0
  0
VERTEX
  5
2B24
  8
SAPA_FOGBAND
 10
19.301327184514889
 20
-34.185369501371049
 30
0.0
 42
0.9999999999999998
  0
VERTEX
  5
2B25
  8
SAPA_FOGBAND
 10
21.101327184515071
 20
-34.185369501371049
 30
0.0
  0
VERTEX
  5
2B26
  8
SAPA_FOGBAND
 10
21.101327184515071
 20
-33.585369501371133
 30
0.0
 42
0.9999999999999998
  0
SEQEND
  5
2B27
  8
SAPA_FOGBAND
  0
POLYLINE
  5
1B05
  8
SAPA_FOGBAND
 66
     1
 10
0.0
 20
0.0
 30
0.0
  0
VERTEX
  5
2B28
  8
SAPA_FOGBAND
 10
23.801327184514889
 20
-35.499999999009788
 30
0.0
  0
VERTEX
  5
2B29
  8
SAPA_FOGBAND
 10
23.801327184514889
 20
-35.799999999009742
 30
0.0
 42
-0.4142135623730951
  0
VERTEX
  5
2B2A
  8
SAPA_FOGBAND
 10
23.301327184514889
 20
-36.299999999009742
 30
0.0
  0
VERTEX
  5
2B2B
  8
SAPA_FOGBAND
 10
16.001327184514711
 20
-36.299999999009742
 30
0.0
 42
-0.4142135623730951
  0
VERTEX
  5
2B2C
  8
SAPA_FOGBAND
 10
15.501327184514709
 20
-35.799999999009742
 30
0.0
  0
VERTEX
  5
2B2D
  8
SAPA_FOGBAND
 10
15.50132718451516
 20
-35.499999999009788
 30
0.0
  0
SEQEND
  5
2B2E
  8
SAPA_FOGBAND
  0
POLYLINE
  5
1B06
  8
SAPA_FOGBAND
 10
22.264574318352189
 20
-40.561832548750424
 30
0.0
 66
     1
 70
     8
  0
VERTEX
  8
SAPA_FOGBAND
  5
2C95
 10
22.2646
 20
-40.5618
 30
0.000000
  70
    32
  0
VERTEX
  8
SAPA_FOGBAND
  5
2C96
 10
22.2598
 20
-40.6446
 30
0.000000
  70
    32
  0
VERTEX
  8
SAPA_FOGBAND
  5
2C97
 10
22.2470
 20
-40.7271
 30
0.000000
  70
    32
  0
VERTEX
  8
SAPA_FOGBAND
  5
2C98
 10
22.2264
 20
-40.8091
 30
0.000000
  70
    32
  0
VERTEX
  8
SAPA_FOGBAND
  5
2C99
 10
22.1979
 20
-40.8904
 30
0.000000
  70
    32
  0
VERTEX
  8
SAPA_FOGBAND
  5
2C9A
 10
22.1616
 20
-40.9709
 30
0.000000
  70
    32
  0
VERTEX
  8
SAPA_FOGBAND
  5
2C9B
 10
22.1177
 20
-41.0503
 30
0.000000
  70
    32
  0
VERTEX
  8
SAPA_FOGBAND
  5
2C9C
 10
22.0661
 20
-41.1285
 30
0.000000
  70
    32
  0
VERTEX
  8
SAPA_FOGBAND
  5
2C9D
 10
22.0071
 20
-41.2052
 30
0.000000
  70
    32
  0
VERTEX
  8
SAPA_FOGBAND
  5
2C9E
 10
21.9407
 20
-41.2802
 30
0.000000
  70
    32
  0
VERTEX
  8
SAPA_FOGBAND
  5
2C9F
 10
21.8672
 20
-41.3535
 30
0.000000
  70
    32
  0
VERTEX
  8
SAPA_FOGBAND
  5
2CA0
 10
21.7867
 20
-41.4248
 30
0.000000
  70
    32
  0
VERTEX
  8
SAPA_FOGBAND
  5
2CA1
 10
21.6994
 20
-41.4939
 30
0.000000
  70
    32
  0
VERTEX
  8
SAPA_FOGBAND
  5
2CA2
 10
21.6055
 20
-41.5607
 30
0.000000
  70
    32
  0
VERTEX
  8
SAPA_FOGBAND
  5
2CA3
 10
21.5052
 20
-41.6250
 30
0.000000
  70
    32
  0
VERTEX
  8
SAPA_FOGBAND
  5
2CA4
 10
21.3989
 20
-41.6867
 30
0.000000
  70
    32
  0
VERTEX
  8
SAPA_FOGBAND
  5
2CA5
 10
21.2867
 20
-41.7455
 30
0.000000
  70
    32
  0
VERTEX
  8
SAPA_FOGBAND
  5
2CA6
 10
21.1688
 20
-41.8015
 30
0.000000
  70
    32
  0
VERTEX
  8
SAPA_FOGBAND
  5
2CA7
 10
21.0457
 20
-41.8544
 30
0.000000
  70
    32
  0
VERTEX
  8
SAPA_FOGBAND
  5
2CA8
 10
20.9176
 20
-41.9041
 30
0.000000
  70
    32
  0
VERTEX
  8
SAPA_FOGBAND
  5
2CA9
 10
20.7848
 20
-41.9504
 30
0.000000
  70
    32
  0
VERTEX
  8
SAPA_FOGBAND
  5
2CAA
 10
20.6475
 20
-41.9934
 30
0.000000
  70
    32
  0
VERTEX
  8
SAPA_FOGBAND
  5
2CAB
 10
20.5063
 20
-42.0328
 30
0.000000
  70
    32
  0
VERTEX
  8
SAPA_FOGBAND
  5
2CAC
 10
20.3613
 20
-42.0686
 30
0.000000
  70
    32
  0
VERTEX
  8
SAPA_FOGBAND
  5
2CAD
 10
20.2130
 20
-42.1007
 30
0.000000
  70
    32
  0
VERTEX
  8
SAPA_FOGBAND
  5
2CAE
 10
20.0616
 20
-42.1290
 30
0.000000
  70
    32
  0
VERTEX
  8
SAPA_FOGBAND
  5
2CAF
 10
19.9077
 20
-42.1535
 30
0.000000
  70
    32
  0
VERTEX
  8
SAPA_FOGBAND
  5
2CB0
 10
19.7514
 20
-42.1740
 30
0.000000
  70
    32
  0
VERTEX
  8
SAPA_FOGBAND
  5
2CB1
 10
19.5933
 20
-42.1906
 30
0.000000
  70
    32
  0
VERTEX
  8
SAPA_FOGBAND
  5
2CB2
 10
19.4336
 20
-42.2032
 30
0.000000
  70
    32
  0
VERTEX
  8
SAPA_FOGBAND
  5
2CB3
 10
19.2729
 20
-42.2117
 30
0.000000
  70
    32
  0
VERTEX
  8
SAPA_FOGBAND
  5
2CB4
 10
19.1114
 20
-42.2162
 30
0.000000
  70
    32
  0
VERTEX
  8
SAPA_FOGBAND
  5
2CB5
 10
18.9495
 20
-42.2166
 30
0.000000
  70
    32
  0
VERTEX
  8
SAPA_FOGBAND
  5
2CB6
 10
18.7877
 20
-42.2130
 30
0.000000
  70
    32
  0
VERTEX
  8
SAPA_FOGBAND
  5
2CB7
 10
18.6263
 20
-42.2053
 30
0.000000
  70
    32
  0
VERTEX
  8
SAPA_FOGBAND
  5
2CB8
 10
18.4657
 20
-42.1935
 30
0.000000
  70
    32
  0
VERTEX
  8
SAPA_FOGBAND
  5
2CB9
 10
18.3064
 20
-42.1778
 30
0.000000
  70
    32
  0
VERTEX
  8
SAPA_FOGBAND
  5
2CBA
 10
18.1486
 20
-42.1581
 30
0.000000
  70
    32
  0
VERTEX
  8
SAPA_FOGBAND
  5
2CBB
 10
17.9928
 20
-42.1344
 30
0.000000
  70
    32
  0
VERTEX
  8
SAPA_FOGBAND
  5
2CBC
 10
17.8393
 20
-42.1069
 30
0.000000
  70
    32
  0
VERTEX
  8
SAPA_FOGBAND
  5
2CBD
 10
17.6886
 20
-42.0756
 30
0.000000
  70
    32
  0
VERTEX
  8
SAPA_FOGBAND
  5
2CBE
 10
17.5409
 20
-42.0406
 30
0.000000
  70
    32
  0
VERTEX
  8
SAPA_FOGBAND
  5
2CBF
 10
17.3967
 20
-42.0019
 30
0.000000
  70
    32
  0
VERTEX
  8
SAPA_FOGBAND
  5
2CC0
 10
17.2562
 20
-41.9596
 30
0.000000
  70
    32
  0
VERTEX
  8
SAPA_FOGBAND
  5
2CC1
 10
17.1199
 20
-41.9140
 30
0.000000
  70
    32
  0
VERTEX
  8
SAPA_FOGBAND
  5
2CC2
 10
16.9880
 20
-41.8650
 30
0.000000
  70
    32
  0
VERTEX
  8
SAPA_FOGBAND
  5
2CC3
 10
16.8609
 20
-41.8127
 30
0.000000
  70
    32
  0
VERTEX
  8
SAPA_FOGBAND
  5
2CC4
 10
16.7389
 20
-41.7574
 30
0.000000
  70
    32
  0
VERTEX
  8
SAPA_FOGBAND
  5
2CC5
 10
16.6222
 20
-41.6991
 30
0.000000
  70
    32
  0
VERTEX
  8
SAPA_FOGBAND
  5
2CC6
 10
16.5112
 20
-41.6380
 30
0.000000
  70
    32
  0
VERTEX
  8
SAPA_FOGBAND
  5
2CC7
 10
16.4061
 20
-41.5742
 30
0.000000
  70
    32
  0
VERTEX
  8
SAPA_FOGBAND
  5
2CC8
 10
16.3071
 20
-41.5079
 30
0.000000
  70
    32
  0
VERTEX
  8
SAPA_FOGBAND
  5
2CC9
 10
16.2146
 20
-41.4393
 30
0.000000
  70
    32
  0
VERTEX
  8
SAPA_FOGBAND
  5
2CCA
 10
16.1287
 20
-41.3685
 30
0.000000
  70
    32
  0
VERTEX
  8
SAPA_FOGBAND
  5
2CCB
 10
16.0496
 20
-41.2956
 30
0.000000
  70
    32
  0
VERTEX
  8
SAPA_FOGBAND
  5
2CCC
 10
15.9775
 20
-41.2209
 30
0.000000
  70
    32
  0
VERTEX
  8
SAPA_FOGBAND
  5
2CCD
 10
15.9127
 20
-41.1445
 30
0.000000
  70
    32
  0
VERTEX
  8
SAPA_FOGBAND
  5
2CCE
 10
15.8552
 20
-41.0666
 30
0.000000
  70
    32
  0
VERTEX
  8
SAPA_FOGBAND
  5
2CCF
 10
15.8052
 20
-40.9875
 30
0.000000
  70
    32
  0
VERTEX
  8
SAPA_FOGBAND
  5
2CD0
 10
15.7628
 20
-40.9072
 30
0.000000
  70
    32
  0
VERTEX
  8
SAPA_FOGBAND
  5
2CD1
 10
15.7281
 20
-40.8260
 30
0.000000
  70
    32
  0
VERTEX
  8
SAPA_FOGBAND
  5
2CD2
 10
15.7013
 20
-40.7442
 30
0.000000
  70
    32
  0
VERTEX
  8
SAPA_FOGBAND
  5
2CD3
 10
15.6823
 20
-40.6617
 30
0.000000
  70
    32
  0
VERTEX
  8
SAPA_FOGBAND
  5
2CD4
 10
15.6712
 20
-40.5790
 30
0.000000
  70
    32
  0
VERTEX
  8
SAPA_FOGBAND
  5
2CD5
 10
15.6680
 20
-40.4962
 30
0.000000
  70
    32
  0
VERTEX
  8
SAPA_FOGBAND
  5
2CD6
 10
15.6728
 20
-40.4134
 30
0.000000
  70
    32
  0
VERTEX
  8
SAPA_FOGBAND
  5
2CD7
 10
15.6856
 20
-40.3309
 30
0.000000
  70
    32
  0
VERTEX
  8
SAPA_FOGBAND
  5
2CD8
 10
15.7062
 20
-40.2489
 30
0.000000
  70
    32
  0
VERTEX
  8
SAPA_FOGBAND
  5
2CD9
 10
15.7347
 20
-40.1676
 30
0.000000
  70
    32
  0
VERTEX
  8
SAPA_FOGBAND
  5
2CDA
 10
15.7710
 20
-40.0871
 30
0.000000
  70
    32
  0
VERTEX
  8
SAPA_FOGBAND
  5
2CDB
 10
15.8149
 20
-40.0077
 30
0.000000
  70
    32
  0
VERTEX
  8
SAPA_FOGBAND
  5
2CDC
 10
15.8665
 20
-39.9296
 30
0.000000
  70
    32
  0
VERTEX
  8
SAPA_FOGBAND
  5
2CDD
 10
15.9255
 20
-39.8529
 30
0.000000
  70
    32
  0
VERTEX
  8
SAPA_FOGBAND
  5
2CDE
 10
15.9919
 20
-39.7778
 30
0.000000
  70
    32
  0
VERTEX
  8
SAPA_FOGBAND
  5
2CDF
 10
16.0654
 20
-39.7045
 30
0.000000
  70
    32
  0
VERTEX
  8
SAPA_FOGBAND
  5
2CE0
 10
16.1459
 20
-39.6332
 30
0.000000
  70
    32
  0
VERTEX
  8
SAPA_FOGBAND
  5
2CE1
 10
16.2332
 20
-39.5641
 30
0.000000
  70
    32
  0
VERTEX
  8
SAPA_FOGBAND
  5
2CE2
 10
16.3271
 20
-39.4973
 30
0.000000
  70
    32
  0
VERTEX
  8
SAPA_FOGBAND
  5
2CE3
 10
16.4274
 20
-39.4330
 30
0.000000
  70
    32
  0
VERTEX
  8
SAPA_FOGBAND
  5
2CE4
 10
16.5337
 20
-39.3713
 30
0.000000
  70
    32
  0
VERTEX
  8
SAPA_FOGBAND
  5
2CE5
 10
16.6460
 20
-39.3125
 30
0.000000
  70
    32
  0
VERTEX
  8
SAPA_FOGBAND
  5
2CE6
 10
16.7638
 20
-39.2565
 30
0.000000
  70
    32
  0
VERTEX
  8
SAPA_FOGBAND
  5
2CE7
 10
16.8869
 20
-39.2036
 30
0.000000
  70
    32
  0
VERTEX
  8
SAPA_FOGBAND
  5
2CE8
 10
17.0150
 20
-39.1539
 30
0.000000
  70
    32
  0
VERTEX
  8
SAPA_FOGBAND
  5
2CE9
 10
17.1479
 20
-39.1076
 30
0.000000
  70
    32
  0
VERTEX
  8
SAPA_FOGBAND
  5
2CEA
 10
17.2851
 20
-39.0646
 30
0.000000
  70
    32
  0
VERTEX
  8
SAPA_FOGBAND
  5
2CEB
 10
17.4263
 20
-39.0252
 30
0.000000
  70
    32
  0
VERTEX
  8
SAPA_FOGBAND
  5
2CEC
 10
17.5713
 20
-38.9894
 30
0.000000
  70
    32
  0
VERTEX
  8
SAPA_FOGBAND
  5
2CED
 10
17.7196
 20
-38.9573
 30
0.000000
  70
    32
  0
VERTEX
  8
SAPA_FOGBAND
  5
2CEE
 10
17.8710
 20
-38.9290
 30
0.000000
  70
    32
  0
VERTEX
  8
SAPA_FOGBAND
  5
2CEF
 10
18.0249
 20
-38.9045
 30
0.000000
  70
    32
  0
VERTEX
  8
SAPA_FOGBAND
  5
2CF0
 10
18.1812
 20
-38.8840
 30
0.000000
  70
    32
  0
VERTEX
  8
SAPA_FOGBAND
  5
2CF1
 10
18.3393
 20
-38.8674
 30
0.000000
  70
    32
  0
VERTEX
  8
SAPA_FOGBAND
  5
2CF2
 10
18.4990
 20
-38.8548
 30
0.000000
  70
    32
  0
VERTEX
  8
SAPA_FOGBAND
  5
2CF3
 10
18.6597
 20
-38.8463
 30
0.000000
  70
    32
  0
VERTEX
  8
SAPA_FOGBAND
  5
2CF4
 10
18.8212
 20
-38.8418
 30
0.000000
  70
    32
  0
VERTEX
  8
SAPA_FOGBAND
  5
2CF5
 10
18.9831
 20
-38.8414
 30
0.000000
  70
    32
  0
VERTEX
  8
SAPA_FOGBAND
  5
2CF6
 10
19.1449
 20
-38.8450
 30
0.000000
  70
    32
  0
VERTEX
  8
SAPA_FOGBAND
  5
2CF7
 10
19.3063
 20
-38.8527
 30
0.000000
  70
    32
  0
VERTEX
  8
SAPA_FOGBAND
  5
2CF8
 10
19.4669
 20
-38.8645
 30
0.000000
  70
    32
  0
VERTEX
  8
SAPA_FOGBAND
  5
2CF9
 10
19.6262
 20
-38.8802
 30
0.000000
  70
    32
  0
VERTEX
  8
SAPA_FOGBAND
  5
2CFA
 10
19.7840
 20
-38.8999
 30
0.000000
  70
    32
  0
VERTEX
  8
SAPA_FOGBAND
  5
2CFB
 10
19.9398
 20
-38.9236
 30
0.000000
  70
    32
  0
VERTEX
  8
SAPA_FOGBAND
  5
2CFC
 10
20.0933
 20
-38.9511
 30
0.000000
  70
    32
  0
VERTEX
  8
SAPA_FOGBAND
  5
2CFD
 10
20.2440
 20
-38.9824
 30
0.000000
  70
    32
  0
VERTEX
  8
SAPA_FOGBAND
  5
2CFE
 10
20.3917
 20
-39.0175
 30
0.000000
  70
    32
  0
VERTEX
  8
SAPA_FOGBAND
  5
2CFF
 10
20.5359
 20
-39.0561
 30
0.000000
  70
    32
  0
VERTEX
  8
SAPA_FOGBAND
  5
2D00
 10
20.6764
 20
-39.0984
 30
0.000000
  70
    32
  0
VERTEX
  8
SAPA_FOGBAND
  5
2D01
 10
20.8127
 20
-39.1440
 30
0.000000
  70
    32
  0
VERTEX
  8
SAPA_FOGBAND
  5
2D02
 10
20.9446
 20
-39.1931
 30
0.000000
  70
    32
  0
VERTEX
  8
SAPA_FOGBAND
  5
2D03
 10
21.0717
 20
-39.2453
 30
0.000000
  70
    32
  0
VERTEX
  8
SAPA_FOGBAND
  5
2D04
 10
21.1937
 20
-39.3006
 30
0.000000
  70
    32
  0
VERTEX
  8
SAPA_FOGBAND
  5
2D05
 10
21.3104
 20
-39.3589
 30
0.000000
  70
    32
  0
VERTEX
  8
SAPA_FOGBAND
  5
2D06
 10
21.4214
 20
-39.4200
 30
0.000000
  70
    32
  0
VERTEX
  8
SAPA_FOGBAND
  5
2D07
 10
21.5266
 20
-39.4838
 30
0.000000
  70
    32
  0
VERTEX
  8
SAPA_FOGBAND
  5
2D08
 10
21.6255
 20
-39.5501
 30
0.000000
  70
    32
  0
VERTEX
  8
SAPA_FOGBAND
  5
2D09
 10
21.7180
 20
-39.6187
 30
0.000000
  70
    32
  0
VERTEX
  8
SAPA_FOGBAND
  5
2D0A
 10
21.8040
 20
-39.6896
 30
0.000000
  70
    32
  0
VERTEX
  8
SAPA_FOGBAND
  5
2D0B
 10
21.8830
 20
-39.7624
 30
0.000000
  70
    32
  0
VERTEX
  8
SAPA_FOGBAND
  5
2D0C
 10
21.9551
 20
-39.8371
 30
0.000000
  70
    32
  0
VERTEX
  8
SAPA_FOGBAND
  5
2D0D
 10
22.0199
 20
-39.9135
 30
0.000000
  70
    32
  0
VERTEX
  8
SAPA_FOGBAND
  5
2D0E
 10
22.0774
 20
-39.9914
 30
0.000000
  70
    32
  0
VERTEX
  8
SAPA_FOGBAND
  5
2D0F
 10
22.1274
 20
-40.0705
 30
0.000000
  70
    32
  0
VERTEX
  8
SAPA_FOGBAND
  5
2D10
 10
22.1698
 20
-40.1508
 30
0.000000
  70
    32
  0
VERTEX
  8
SAPA_FOGBAND
  5
2D11
 10
22.2045
 20
-40.2320
 30
0.000000
  70
    32
  0
VERTEX
  8
SAPA_FOGBAND
  5
2D12
 10
22.2313
 20
-40.3139
 30
0.000000
  70
    32
  0
VERTEX
  8
SAPA_FOGBAND
  5
2D13
 10
22.2503
 20
-40.3963
 30
0.000000
  70
    32
  0
VERTEX
  8
SAPA_FOGBAND
  5
2D14
 10
22.2614
 20
-40.4790
 30
0.000000
  70
    32
  0
VERTEX
  8
SAPA_FOGBAND
  5
2D15
 10
22.2646
 20
-40.5618
 30
0.000000
  70
    32
  0
SEQEND
  8
SAPA_FOGBAND
  5
2D16
  0
POLYLINE
  5
1B07
  8
SAPA_FOGBAND
 66
     1
 10
0.0
 20
0.0
 30
0.0
 70
     1
  0
VERTEX
  5
2B2F
  8
SAPA_FOGBAND
 10
8.8913247649944651
 20
-43.953324864972728
 30
0.0
  0
VERTEX
  5
2B30
  8
SAPA_FOGBAND
 10
11.892651927563859
 20
-44.445277204862798
 30
0.0
 42
0.4464785874932524
  0
VERTEX
  5
2B31
  8
SAPA_FOGBAND
 10
13.00132718451516
 20
-43.45119989975683
 30
0.0
  0
VERTEX
  5
2B32
  8
SAPA_FOGBAND
 10
13.00132718451516
 20
-39.85014774559977
 30
0.0
 42
0.622676997742357
  0
VERTEX
  5
2B33
  8
SAPA_FOGBAND
 10
11.390652697901141
 20
-39.058266017436381
 30
0.0
  0
VERTEX
  5
2B34
  8
SAPA_FOGBAND
 10
8.3893255353319773
 20
-41.533301339953368
 30
0.0
 42
0.232531183213058
  0
VERTEX
  5
2B35
  8
SAPA_FOGBAND
 10
8.0000000219455387
 20
-42.325183068116978
 30
0.0
  0
VERTEX
  5
2B36
  8
SAPA_FOGBAND
 10
8.0000000219457661
 20
-42.959247559866981
 30
0.0
 42
0.3826682380870913
  0
SEQEND
  5
2B37
  8
SAPA_FOGBAND
  0
POLYLINE
  5
1B08
  8
SAPA_FOGBAND
 66
     1
 10
0.0
 20
0.0
 30
0.0
 70
     1
  0
VERTEX
  5
2B38
  8
SAPA_FOGBAND
 10
21.95309099353528
 20
-33.99111467281751
 30
0.0
 42
0.4740571810231764
  0
VERTEX
  5
2B39
  8
SAPA_FOGBAND
 10
22.080384855899069
 20
-33.708832087178962
 30
0.0
  0
VERTEX
  5
2B3A
  8
SAPA_FOGBAND
 10
21.46028435314031
 20
-32.262625950418851
 30
0.0
 42
0.2846003776496257
  0
VERTEX
  5
2B3B
  8
SAPA_FOGBAND
 10
21.01264017468031
 20
-31.985369501371
 30
0.0
  0
VERTEX
  5
2B3C
  8
SAPA_FOGBAND
 10
19.39001419434965
 20
-31.985369501371
 30
0.0
 42
0.2846003776496159
  0
VERTEX
  5
2B3D
  8
SAPA_FOGBAND
 10
18.942370015889651
 20
-32.262625950419078
 30
0.0
  0
VERTEX
  5
2B3E
  8
SAPA_FOGBAND
 10
18.322269513130891
 20
-33.708832087178962
 30
0.0
 42
0.4740571810232354
  0
VERTEX
  5
2B3F
  8
SAPA_FOGBAND
 10
18.449563375494218
 20
-33.99111467281751
 30
0.0
  0
VERTEX
  5
2B40
  8
SAPA_FOGBAND
 10
18.70132718451498
 20
-34.058574582127903
 30
0.0
  0
VERTEX
  5
2B41
  8
SAPA_FOGBAND
 10
18.70132718451498
 20
-34.999999999010022
 30
0.0
 42
-0.4142135623730951
  0
VERTEX
  5
2B42
  8
SAPA_FOGBAND
 10
18.20132718451498
 20
-35.499999999010022
 30
0.0
  0
VERTEX
  5
2B43
  8
SAPA_FOGBAND
 10
15.17322763378035
 20
-35.499999999009788
 30
0.0
 42
0.1657205760184635
  0
VERTEX
  5
2B44
  8
SAPA_FOGBAND
 10
14.562553147166559
 20
-35.708118270846398
 30
0.0
  0
VERTEX
  5
2B45
  8
SAPA_FOGBAND
 10
5.1946627566895813
 20
-41.102703355702261
 30
0.0
 42
0.2325311832130358
  0
VERTEX
  5
2B46
  8
SAPA_FOGBAND
 10
4.9999999999964748
 20
-41.498644219784182
 30
0.0
  0
VERTEX
  5
2B47
  8
SAPA_FOGBAND
 10
4.9999999999964748
 20
-43.729387776221749
 30
0.0
 42
0.3826682380870913
  0
VERTEX
  5
2B48
  8
SAPA_FOGBAND
 10
5.8913247430456286
 20
-44.723465081327497
 30
0.0
  0
VERTEX
  5
2B49
  8
SAPA_FOGBAND
 10
11.49579350334227
 20
-45.499999999010242
 30
0.0
  0
VERTEX
  5
2B4A
  8
SAPA_FOGBAND
 10
25.20132716256569
 20
-45.499999999010242
 30
0.0
 42
0.4257917699693507
  0
VERTEX
  5
2B4B
  8
SAPA_FOGBAND
 10
25.50109471616372
 20
-45.188192636479471
 30
0.0
  0
VERTEX
  5
2B4C
  8
SAPA_FOGBAND
 10
25.01325490149441
 20
-35.788192636478932
 30
0.0
 42
0.4027293761437475
  0
VERTEX
  5
2B4D
  8
SAPA_FOGBAND
 10
24.713487347896379
 20
-35.499999999009788
 30
0.0
  0
VERTEX
  5
2B4E
  8
SAPA_FOGBAND
 10
22.20132718451498
 20
-35.499999999010022
 30
0.0
 42
-0.4142135623730951
  0
VERTEX
  5
2B4F
  8
SAPA_FOGBAND
 10
21.701327184514749
 20
-34.999999999010022
 30
0.0
  0
VERTEX
  5
2B50
  8
SAPA_FOGBAND
 10
21.701327184514749
 20
-34.058574582127903
 30
0.0
  0
SEQEND
  5
2B51
  8
SAPA_FOGBAND
  0
POLYLINE
  5
1B09
  8
SAPA_FOGBAND
 66
     1
 10
0.0
 20
0.0
 30
0.0
 70
     1
  0
VERTEX
  5
2B52
  8
SAPA_FOGBAND
 10
-28.500000000686128
 20
13.060774361722819
 30
0.0
  0
VERTEX
  5
2B53
  8
SAPA_FOGBAND
 10
-28.500000000686128
 20
10.227455397303091
 30
0.0
 42
0.577350269189628
  0
VERTEX
  5
2B54
  8
SAPA_FOGBAND
 10
-28.050000000686079
 20
9.9676477761676381
 30
0.0
  0
VERTEX
  5
2B55
  8
SAPA_FOGBAND
 10
-25.39365050384211
 20
12.109361986652599
 30
0.0
 42
-0.8769764629927237
  0
VERTEX
  5
2B56
  8
SAPA_FOGBAND
 10
-25.031518469486201
 20
11.63742233116133
 30
0.0
  0
VERTEX
  5
2B57
  8
SAPA_FOGBAND
 10
-28.207106781872572
 20
7.6676088221833254
 30
0.0
 42
0.1989123673796493
  0
VERTEX
  5
2B58
  8
SAPA_FOGBAND
 10
-28.500000000686128
 20
6.960502040996885
 30
0.0
  0
VERTEX
  5
2B59
  8
SAPA_FOGBAND
 10
-28.500000000686128
 20
5.2095459115623441
 30
0.0
 42
0.577350269189628
  0
VERTEX
  5
2B5A
  8
SAPA_FOGBAND
 10
-28.050000000686079
 20
4.9497382904271197
 30
0.0
  0
VERTEX
  5
2B5B
  8
SAPA_FOGBAND
 10
-25.394519257022498
 20
7.0307863419071452
 30
0.0
 42
-0.8769764629928424
  0
VERTEX
  5
2B5C
  8
SAPA_FOGBAND
 10
-25.032387222666578
 20
6.5588466864158761
 30
0.0
  0
VERTEX
  5
2B5D
  8
SAPA_FOGBAND
 10
-29.282961429186489
 20
2.0928936346396361
 30
0.0
 42
-0.1989123673796579
  0
VERTEX
  5
2B5E
  8
SAPA_FOGBAND
 10
-29.990068210372929
 20
1.800000415826303
 30
0.0
  0
VERTEX
  5
2B5F
  8
SAPA_FOGBAND
 10
-30.000000000686128
 20
1.800000415826303
 30
0.0
 42
-0.4142135623730951
  0
VERTEX
  5
2B60
  8
SAPA_FOGBAND
 10
-31.000000000686128
 20
2.800000415826303
 30
0.0
  0
VERTEX
  5
2B61
  8
SAPA_FOGBAND
 10
-32.164084599809627
 20
10.03499291659355
 30
0.0
 42
-0.6261632875160376
  0
VERTEX
  5
2B62
  8
SAPA_FOGBAND
 10
-31.722117796383291
 20
10.344849845112231
 30
0.0
  0
VERTEX
  5
2B63
  8
SAPA_FOGBAND
 10
-31.445776150397169
 20
10.191211850323411
 30
0.0
 42
0.5719685712689121
  0
VERTEX
  5
2B64
  8
SAPA_FOGBAND
 10
-31.000000000686239
 20
10.4534127545468
 30
0.0
  0
VERTEX
  5
2B65
  8
SAPA_FOGBAND
 10
-31.000000000686128
 20
13.20000041582616
 30
0.0
 42
0.4142135623730118
  0
VERTEX
  5
2B66
  8
SAPA_FOGBAND
 10
-31.30000000068609
 20
13.500000415826349
 30
0.0
  0
VERTEX
  5
2B67
  8
SAPA_FOGBAND
 10
-32.700000000686181
 20
13.50000041582612
 30
0.0
 42
-0.7754026414785753
  0
VERTEX
  5
2B68
  8
SAPA_FOGBAND
 10
-32.84470786899206
 20
14.06279241123403
 30
0.0
  0
VERTEX
  5
2B69
  8
SAPA_FOGBAND
 10
-25.384550969901088
 20
18.216426083897861
 30
0.0
 42
-0.8680589103333867
  0
VERTEX
  5
2B6A
  8
SAPA_FOGBAND
 10
-25.02771106723916
 20
17.741502054134092
 30
0.0
  0
VERTEX
  5
2B6B
  8
SAPA_FOGBAND
 10
-28.207106781872572
 20
13.76788114290926
 30
0.0
 42
0.1989123673796493
  0
SEQEND
  5
2B6C
  8
SAPA_FOGBAND
  0
DIMENSION
  5
1B12
  8
SAPA_MATT
  2
*D128
 10
-169.99997618943411
 20
-115.5572944133973
 30
0.0
 11
-125.4999761873746
 21
-113.0572944133973
 31
0.0
 70
     0
 13
-80.999976185315063
 23
-70.649999581418655
 33
0.0
 14
-169.99997618943411
 24
-69.299999613910927
 34
0.0
 50
180.0
1001
ACAD
1000
DSTYLE
1002
{
1070
   287
1070
     4
1070
    40
1040
1.0
1070
   279
1070
     1
1002
}
  0
DIMENSION
  5
1B13
  8
SAPA_MATT
  2
*D127
 10
-81.000000005344646
 20
-115.5572944133973
 30
0.0
 11
-78.500000005344646
 21
-113.0572944133973
 31
0.0
 70
     0
 13
-76.000000005344646
 23
-71.500001110757466
 33
0.0
 14
-81.000000005344646
 24
-70.649999581418655
 34
0.0
 50
180.0
1001
ACAD
1000
DSTYLE
1002
{
1070
   287
1070
     4
1070
    40
1040
1.0
1070
   279
1070
     1
1002
}
  0
DIMENSION
  5
1B14
  8
SAPA_MATT
  2
*D126
 10
-76.000000005344646
 20
-115.5572944133973
 30
0.0
 11
-50.500000005344781
 21
-113.0572944133973
 31
0.0
 70
     0
 13
-25.00000000534493
 23
-95.999999584174077
 33
0.0
 14
-76.000000005344646
 24
-71.500001110757466
 34
0.0
 50
180.0
1001
ACAD
1000
DSTYLE
1002
{
1070
   287
1070
     4
1070
   271
1070
     0
1070
    40
1040
1.0
1070
   279
1070
     1
1002
}
  0
DIMENSION
  5
1B15
  8
SAPA_MATT
  2
*D125
 10
-25.000000000000341
 20
-116.05729482823369
 30
0.0
 11
-0.0000000000003409
 21
-113.55729482823369
 31
0.0
 70
     0
 13
24.999999999999659
 23
-95.99999999901047
 33
0.0
 14
-25.000000000000341
 24
-95.99999999901047
 34
0.0
 50
180.0
1001
ACAD
1000
DSTYLE
1002
{
1070
   271
1070
     0
1070
    40
1040
1.0
1002
}
  0
VIEWPORT
  5
C4
 67
     1
  8
0
 10
143.06236603067589
 20
116.00969601843509
 30
0.0
 40
369.98580003443811
 41
256.8421457311839
 68
     1
 69
     1
1001
ACAD
1000
MVIEW
1002
{
1070
    16
1010
0.0
1020
0.0
1030
0.0
1010
0.0
1020
0.0
1030
1.0
1040
0.0
1040
256.8421457311839
1040
99.112914085388169
1040
143.07606935501099
1040
50.0
1040
0.0
1040
0.0
1070
     0
1070
     0
1070
     1
1070
     1
1070
     0
1070
     0
1070
     0
1070
     0
1040
0.0
1040
0.0
1040
0.0
1040
10.0
1040
10.0
1040
10.0
1040
10.0
1070
     0
1002
{
1002
}
1002
}
  0
ENDSEC
  0
EOF
